  0
SECTION
  2
HEADER
  9
$ACADVER
  1
AC1015
  9
$ACADMAINTVER
 70
    20
  9
$DWGCODEPAGE
  3
ANSI_932
  9
$INSBASE
 10
0.0
 20
0.0
 30
0.0
  9
$EXTMIN
 10
139.9999999999995
 20
-0.0000000000000909
 30
0.0
  9
$EXTMAX
 10
16307.2
 20
11409.6
 30
0.0
  9
$LIMMIN
 10
0.0
 20
0.0
  9
$LIMMAX
 10
16800.0
 20
11880.0
  9
$ORTHOMODE
 70
     0
  9
$REGENMODE
 70
     1
  9
$FILLMODE
 70
     1
  9
$QTEXTMODE
 70
     0
  9
$MIRRTEXT
 70
     1
  9
$LTSCALE
 40
20.0
  9
$ATTMODE
 70
     1
  9
$TEXTSIZE
 40
100.0
  9
$TRACEWID
 40
1.0
  9
$TEXTSTYLE
  7
STYLE2
  9
$CLAYER
  8
部品1
  9
$CELTYPE
  6
BYLAYER
  9
$CECOLOR
 62
   256
  9
$CELTSCALE
 40
50.0
  9
$DISPSILH
 70
     0
  9
$DIMSCALE
 40
40.0
  9
$DIMASZ
 40
2.5
  9
$DIMEXO
 40
0.5
  9
$DIMDLI
 40
7.0
  9
$DIMRND
 40
0.0
  9
$DIMDLE
 40
0.0
  9
$DIMEXE
 40
1.5
  9
$DIMTP
 40
0.0
  9
$DIMTM
 40
0.0
  9
$DIMTXT
 40
3.0
  9
$DIMCEN
 40
0.0
  9
$DIMTSZ
 40
0.0
  9
$DIMTOL
 70
     0
  9
$DIMLIM
 70
     0
  9
$DIMTIH
 70
     0
  9
$DIMTOH
 70
     0
  9
$DIMSE1
 70
     0
  9
$DIMSE2
 70
     0
  9
$DIMTAD
 70
     3
  9
$DIMZIN
 70
     8
  9
$DIMBLK
  1

  9
$DIMASO
 70
     1
  9
$DIMSHO
 70
     1
  9
$DIMPOST
  1

  9
$DIMAPOST
  1

  9
$DIMALT
 70
     0
  9
$DIMALTD
 70
     2
  9
$DIMALTF
 40
0.0394
  9
$DIMLFAC
 40
1.0
  9
$DIMTOFL
 70
     1
  9
$DIMTVP
 40
0.0
  9
$DIMTIX
 70
     1
  9
$DIMSOXD
 70
     0
  9
$DIMSAH
 70
     1
  9
$DIMBLK1
  1
DOTSMALL
  9
$DIMBLK2
  1
DOTSMALL
  9
$DIMSTYLE
  2
INABA_S40G
  9
$DIMCLRD
 70
     0
  9
$DIMCLRE
 70
     0
  9
$DIMCLRT
 70
     7
  9
$DIMTFAC
 40
1.0
  9
$DIMGAP
 40
1.0
  9
$DIMJUST
 70
     0
  9
$DIMSD1
 70
     0
  9
$DIMSD2
 70
     0
  9
$DIMTOLJ
 70
     1
  9
$DIMTZIN
 70
     0
  9
$DIMALTZ
 70
     0
  9
$DIMALTTZ
 70
     0
  9
$DIMUPT
 70
     0
  9
$DIMDEC
 70
     1
  9
$DIMTDEC
 70
     4
  9
$DIMALTU
 70
     2
  9
$DIMALTTD
 70
     2
  9
$DIMTXSTY
  7
STYLE1
  9
$DIMAUNIT
 70
     0
  9
$DIMADEC
 70
     0
  9
$DIMALTRND
 40
0.0
  9
$DIMAZIN
 70
     0
  9
$DIMDSEP
 70
    46
  9
$DIMATFIT
 70
     3
  9
$DIMFRAC
 70
     0
  9
$DIMLDRBLK
  1

  9
$DIMLUNIT
 70
     2
  9
$DIMLWD
 70
    -2
  9
$DIMLWE
 70
    -2
  9
$DIMTMOVE
 70
     0
  9
$LUNITS
 70
     2
  9
$LUPREC
 70
     1
  9
$SKETCHINC
 40
1.0
  9
$FILLETRAD
 40
3.0
  9
$AUNITS
 70
     0
  9
$AUPREC
 70
     0
  9
$MENU
  1
acad
  9
$ELEVATION
 40
0.0
  9
$PELEVATION
 40
0.0
  9
$THICKNESS
 40
0.0
  9
$LIMCHECK
 70
     0
  9
$CHAMFERA
 40
0.0
  9
$CHAMFERB
 40
0.0
  9
$CHAMFERC
 40
0.0
  9
$CHAMFERD
 40
0.0
  9
$SKPOLY
 70
     0
  9
$TDCREATE
 40
2451368.612993866
  9
$TDUCREATE
 40
2451368.237993866
  9
$TDUPDATE
 40
2455569.613363889
  9
$TDUUPDATE
 40
2455569.238363889
  9
$TDINDWG
 40
1.1421937616
  9
$TDUSRTIMER
 40
1.1421937616
  9
$USRTIMER
 70
     1
  9
$ANGBASE
 50
0.0
  9
$ANGDIR
 70
     0
  9
$PDMODE
 70
     3
  9
$PDSIZE
 40
2.0
  9
$PLINEWID
 40
0.0
  9
$SPLFRAME
 70
     0
  9
$SPLINETYPE
 70
     6
  9
$SPLINESEGS
 70
     8
  9
$HANDSEED
  5
1DAEC
  9
$SURFTAB1
 70
     6
  9
$SURFTAB2
 70
     6
  9
$SURFTYPE
 70
     6
  9
$SURFU
 70
     6
  9
$SURFV
 70
     6
  9
$UCSBASE
  2

  9
$UCSNAME
  2

  9
$UCSORG
 10
0.0
 20
0.0
 30
0.0
  9
$UCSXDIR
 10
1.0
 20
0.0
 30
0.0
  9
$UCSYDIR
 10
0.0
 20
1.0
 30
0.0
  9
$UCSORTHOREF
  2

  9
$UCSORTHOVIEW
 70
     0
  9
$UCSORGTOP
 10
0.0
 20
0.0
 30
0.0
  9
$UCSORGBOTTOM
 10
0.0
 20
0.0
 30
0.0
  9
$UCSORGLEFT
 10
0.0
 20
0.0
 30
0.0
  9
$UCSORGRIGHT
 10
0.0
 20
0.0
 30
0.0
  9
$UCSORGFRONT
 10
0.0
 20
0.0
 30
0.0
  9
$UCSORGBACK
 10
0.0
 20
0.0
 30
0.0
  9
$PUCSBASE
  2

  9
$PUCSNAME
  2

  9
$PUCSORG
 10
0.0
 20
0.0
 30
0.0
  9
$PUCSXDIR
 10
1.0
 20
0.0
 30
0.0
  9
$PUCSYDIR
 10
0.0
 20
1.0
 30
0.0
  9
$PUCSORTHOREF
  2

  9
$PUCSORTHOVIEW
 70
     0
  9
$PUCSORGTOP
 10
0.0
 20
0.0
 30
0.0
  9
$PUCSORGBOTTOM
 10
0.0
 20
0.0
 30
0.0
  9
$PUCSORGLEFT
 10
0.0
 20
0.0
 30
0.0
  9
$PUCSORGRIGHT
 10
0.0
 20
0.0
 30
0.0
  9
$PUCSORGFRONT
 10
0.0
 20
0.0
 30
0.0
  9
$PUCSORGBACK
 10
0.0
 20
0.0
 30
0.0
  9
$USERI1
 70
     0
  9
$USERI2
 70
     0
  9
$USERI3
 70
     0
  9
$USERI4
 70
     0
  9
$USERI5
 70
     0
  9
$USERR1
 40
0.0
  9
$USERR2
 40
0.0
  9
$USERR3
 40
0.0
  9
$USERR4
 40
0.0
  9
$USERR5
 40
0.0
  9
$WORLDVIEW
 70
     1
  9
$SHADEDGE
 70
     3
  9
$SHADEDIF
 70
    70
  9
$TILEMODE
 70
     1
  9
$MAXACTVP
 70
    16
  9
$PINSBASE
 10
0.0
 20
0.0
 30
0.0
  9
$PLIMCHECK
 70
     0
  9
$PEXTMIN
 10
1.000000000000000E+20
 20
1.000000000000000E+20
 30
1.000000000000000E+20
  9
$PEXTMAX
 10
-1.000000000000000E+20
 20
-1.000000000000000E+20
 30
-1.000000000000000E+20
  9
$PLIMMIN
 10
0.0
 20
0.0
  9
$PLIMMAX
 10
420.0
 20
297.0
  9
$UNITMODE
 70
     0
  9
$VISRETAIN
 70
     0
  9
$PLINEGEN
 70
     0
  9
$PSLTSCALE
 70
     0
  9
$TREEDEPTH
 70
  3020
  9
$CMLSTYLE
  2
STANDARD
  9
$CMLJUST
 70
     0
  9
$CMLSCALE
 40
1.0
  9
$PROXYGRAPHICS
 70
     1
  9
$MEASUREMENT
 70
     1
  9
$CELWEIGHT
370
    -1
  9
$ENDCAPS
280
     0
  9
$JOINSTYLE
280
     0
  9
$LWDISPLAY
290
     0
  9
$INSUNITS
 70
     0
  9
$HYPERLINKBASE
  1

  9
$STYLESHEET
  1
inaba.ctb
  9
$XEDIT
290
     1
  9
$CEPSNTYPE
380
     0
  9
$PSTYLEMODE
290
     1
  9
$FINGERPRINTGUID
  2
{B8DA7523-3F76-4A8C-9FEF-0ECA55BFDE7C}
  9
$VERSIONGUID
  2
{AFA2EE82-7815-43C7-AB5A-8C26CEF1D960}
  9
$EXTNAMES
290
     1
  9
$PSVPSCALE
 40
0.0
  9
$OLESTARTUP
290
     0
  0
ENDSEC
  0
SECTION
  2
CLASSES
  0
CLASS
  1
ACDBDICTIONARYWDFLT
  2
AcDbDictionaryWithDefault
  3
ObjectDBX Classes
 90
        0
280
     0
281
     0
  0
CLASS
  1
DICTIONARYVAR
  2
AcDbDictionaryVar
  3
ObjectDBX Classes
 90
        0
280
     0
281
     0
  0
CLASS
  1
ACDBPLACEHOLDER
  2
AcDbPlaceHolder
  3
ObjectDBX Classes
 90
        0
280
     0
281
     0
  0
CLASS
  1
LAYOUT
  2
AcDbLayout
  3
ObjectDBX Classes
 90
        0
280
     0
281
     0
  0
ENDSEC
  0
SECTION
  2
TABLES
  0
TABLE
  2
VPORT
  5
746D
330
0
100
AcDbSymbolTable
 70
     2
  0
VPORT
  5
1DAE4
330
746D
100
AcDbSymbolTableRecord
100
AcDbViewportTableRecord
  2
*Active
 70
     0
 10
0.0
 20
0.0
 11
1.0
 21
1.0
 12
8223.761025238502
 22
5958.64559657468
 13
0.0
 23
0.0
 14
10.0
 24
10.0
 15
10.0
 25
10.0
 16
0.0
 26
0.0
 36
1.0
 17
0.0
 27
0.0
 37
0.0
 40
12026.02437485716
 41
1.627450980392156
 42
50.0
 43
0.0
 44
0.0
 50
0.0
 51
0.0
 71
     0
 72
     0
 73
     1
 74
     0
 75
     0
 76
     0
 77
     0
 78
     0
281
     0
 65
     1
110
0.0
120
0.0
130
0.0
111
1.0
121
0.0
131
0.0
112
0.0
122
1.0
132
0.0
 79
     0
146
0.0
  0
ENDTAB
  0
TABLE
  2
LTYPE
  5
746A
330
0
100
AcDbSymbolTable
 70
     3
  0
LTYPE
  5
7477
330
746A
100
AcDbSymbolTableRecord
100
AcDbLinetypeTableRecord
  2
BYBLOCK
 70
     0
  3

 72
    65
 73
     0
 40
0.0
  0
LTYPE
  5
7478
330
746A
100
AcDbSymbolTableRecord
100
AcDbLinetypeTableRecord
  2
BYLAYER
 70
     0
  3

 72
    65
 73
     0
 40
0.0
  0
LTYPE
  5
7479
330
746A
100
AcDbSymbolTableRecord
100
AcDbLinetypeTableRecord
  2
CONTINUOUS
 70
     0
  3
Solid line
 72
    65
 73
     0
 40
0.0
  0
LTYPE
  5
781A
330
746A
100
AcDbSymbolTableRecord
100
AcDbLinetypeTableRecord
  2
HIDDEN
 70
     0
  3
__ __ __ __ __ __ __ __ __ __ __ __ __ __ __ __
 72
    65
 73
     2
 40
0.375
 49
0.25
 74
     0
 49
-0.125
 74
     0
  0
LTYPE
  5
781B
330
746A
100
AcDbSymbolTableRecord
100
AcDbLinetypeTableRecord
  2
PHANTOM
 70
     0
  3
______  __  __  ______  __  __  ______  __  __ 
 72
    65
 73
     6
 40
2.5
 49
1.25
 74
     0
 49
-0.25
 74
     0
 49
0.25
 74
     0
 49
-0.25
 74
     0
 49
0.25
 74
     0
 49
-0.25
 74
     0
  0
ENDTAB
  0
TABLE
  2
LAYER
  5
7467
102
{ACAD_XDICTIONARY
360
1AB31
102
}
330
0
100
AcDbSymbolTable
 70
    10
  0
LAYER
  5
7474
330
7467
100
AcDbSymbolTableRecord
100
AcDbLayerTableRecord
  2
0
 70
     0
 62
     7
  6
CONTINUOUS
370
    -3
390
1A503
  0
LAYER
  5
DEB3
330
7467
100
AcDbSymbolTableRecord
100
AcDbLayerTableRecord
  2
寸法
 70
     0
 62
     4
  6
CONTINUOUS
370
    -3
390
1A503
  0
LAYER
  5
DEB4
330
7467
100
AcDbSymbolTableRecord
100
AcDbLayerTableRecord
  2
部品1
 70
     0
 62
     7
  6
CONTINUOUS
370
    -3
390
1A503
  0
LAYER
  5
DEB5
330
7467
100
AcDbSymbolTableRecord
100
AcDbLayerTableRecord
  2
補助
 70
     0
 62
    -1
  6
CONTINUOUS
370
    -3
390
1A503
  0
LAYER
  5
DEB6
330
7467
100
AcDbSymbolTableRecord
100
AcDbLayerTableRecord
  2
文字
 70
     0
 62
     7
  6
CONTINUOUS
370
    -3
390
1A503
  0
LAYER
  5
F255
330
7467
100
AcDbSymbolTableRecord
100
AcDbLayerTableRecord
  2
DEFPOINTS
 70
     0
 62
     7
  6
CONTINUOUS
290
     0
370
    -3
390
1A503
  0
LAYER
  5
10B54
330
7467
100
AcDbSymbolTableRecord
100
AcDbLayerTableRecord
  2
仕様書枠
 70
     0
 62
   230
  6
CONTINUOUS
370
    -3
390
1A503
  0
LAYER
  5
11729
330
7467
100
AcDbSymbolTableRecord
100
AcDbLayerTableRecord
  2
Ｇ．Ｌ
 70
     0
 62
    30
  6
CONTINUOUS
370
    -3
390
1A503
  0
LAYER
  5
1173F
330
7467
100
AcDbSymbolTableRecord
100
AcDbLayerTableRecord
  2
細線
 70
     0
 62
     5
  6
CONTINUOUS
370
    -3
390
1A503
  0
LAYER
  5
142E2
330
7467
100
AcDbSymbolTableRecord
100
AcDbLayerTableRecord
  2
破線
 70
     0
 62
     2
  6
HIDDEN
370
    -3
390
1A503
  0
ENDTAB
  0
TABLE
  2
STYLE
  5
7468
330
0
100
AcDbSymbolTable
 70
     4
  0
STYLE
  5
7475
330
7468
100
AcDbSymbolTableRecord
100
AcDbTextStyleTableRecord
  2
STANDARD
 70
     0
 40
0.0
 41
1.0
 50
0.0
 71
     0
 42
4.0
  3
txt
  4
C:\AutoCAD LT\bigfont.shx
  0
STYLE
  5
763C
330
7468
100
AcDbSymbolTableRecord
100
AcDbTextStyleTableRecord
  2
MSMINCHO
 70
     0
 40
0.0
 41
1.0
 50
0.0
 71
     0
 42
1.199999999999999
  3
C:\AutoCAD LT\msminch2.TTF
  4

  0
STYLE
  5
F706
330
7468
100
AcDbSymbolTableRecord
100
AcDbTextStyleTableRecord
  2
STYLE1
 70
     0
 40
0.0
 41
1.0
 50
0.0
 71
     0
 42
120.0
  3
isocp.shx
  4
bigfont.shx
  0
STYLE
  5
103BF
330
7468
100
AcDbSymbolTableRecord
100
AcDbTextStyleTableRecord
  2
STYLE2
 70
     0
 40
0.0
 41
1.0
 50
0.0
 71
     0
 42
100.0
  3
MS PGothic.ttf
  4

1001
ACAD
1000
MS PGothic
1071
    32818
  0
ENDTAB
  0
TABLE
  2
VIEW
  5
746B
330
0
100
AcDbSymbolTable
 70
     0
  0
ENDTAB
  0
TABLE
  2
UCS
  5
746C
330
0
100
AcDbSymbolTable
 70
     0
  0
ENDTAB
  0
TABLE
  2
APPID
  5
746E
330
0
100
AcDbSymbolTable
 70
     6
  0
APPID
  5
7476
330
746E
100
AcDbSymbolTableRecord
100
AcDbRegAppTableRecord
  2
ACAD
 70
     0
  0
APPID
  5
DEA9
330
746E
100
AcDbSymbolTableRecord
100
AcDbRegAppTableRecord
  2
CONTENTBLOCKICON
 70
     0
  0
APPID
  5
DEAA
330
746E
100
AcDbSymbolTableRecord
100
AcDbRegAppTableRecord
  2
CONTENTBLOCKDESCRIPTION
 70
     0
  0
APPID
  5
E71D
330
746E
100
AcDbSymbolTableRecord
100
AcDbRegAppTableRecord
  2
CONTENTTABDATA
 70
     0
  0
APPID
  5
E71E
330
746E
100
AcDbSymbolTableRecord
100
AcDbRegAppTableRecord
  2
CONTENTCURRENTTAB
 70
     0
  0
APPID
  5
F3BA
330
746E
100
AcDbSymbolTableRecord
100
AcDbRegAppTableRecord
  2
DRAWINGVARIABLESXDATA
 70
     0
  0
ENDTAB
  0
TABLE
  2
DIMSTYLE
  5
746F
330
0
100
AcDbSymbolTable
 70
     2
100
AcDbDimStyleTable
 71
     1
340
F71F
  0
DIMSTYLE
105
F71F
102
{ACAD_REACTORS
330
162CD
330
162CE
330
162CF
330
162D0
330
162E4
330
162E7
330
162EA
330
162EB
330
16301
330
16302
330
1631F
330
16320
330
16333
330
1659C
330
1659A
330
165E9
330
166DD
330
16913
330
17C9D
330
17C9B
330
17C60
330
1A029
330
1A49E
330
1B539
330
1B538
330
1B537
330
1B536
330
1B535
330
1B4BB
330
1B4BA
330
1B4B9
330
1B4B8
330
1B4B5
330
1B479
330
1B476
330
1CD0E
330
1D20F
330
1D234
330
1D57E
330
1D57F
330
1D580
330
1D9CA
102
}
330
746F
100
AcDbSymbolTableRecord
100
AcDbDimStyleTableRecord
  2
INABA_S40G
 70
     0
 40
40.0
 41
2.5
 42
0.5
 43
7.0
 44
1.5
 73
     0
 74
     0
 77
     3
 78
     8
140
3.0
141
0.0
143
0.0394
147
1.0
172
     1
173
     1
174
     1
178
     7
271
     1
340
F706
341
F770
343
F770
344
F770
  0
DIMSTYLE
105
1D96A
330
746F
100
AcDbSymbolTableRecord
100
AcDbDimStyleTableRecord
  2
INABA_S20G
 70
     0
 40
20.0
 41
2.5
 42
0.5
 43
7.0
 44
1.5
 73
     0
 74
     0
 77
     3
 78
     8
140
3.0
141
0.0
143
0.0394
147
1.0
172
     1
173
     1
174
     1
178
     7
271
     1
340
F706
341
F770
343
F770
344
F770
  0
ENDTAB
  0
TABLE
  2
BLOCK_RECORD
  5
7466
330
0
100
AcDbSymbolTable
 70
    43
  0
BLOCK_RECORD
  5
747D
330
7466
100
AcDbSymbolTableRecord
100
AcDbBlockTableRecord
  2
*MODEL_SPACE
340
1A508
  0
BLOCK_RECORD
  5
747A
330
7466
100
AcDbSymbolTableRecord
100
AcDbBlockTableRecord
  2
*PAPER_SPACE
340
1A509
  0
BLOCK_RECORD
  5
F770
330
7466
100
AcDbSymbolTableRecord
100
AcDbBlockTableRecord
  2
_DOTSMALL
340
0
102
{BLKREFS
331
1A688
331
1A689
331
1A72C
331
1A72D
331
1A733
331
1A734
331
1A75A
331
1A75B
331
1A765
331
1A766
331
1A770
331
1A771
331
1A7A2
331
1A7A3
331
1A7AE
331
1A7AF
331
1A7B9
331
1A7BA
331
1A7C3
331
1A7C4
331
1A7CC
331
1A7CD
331
1A7D4
331
1A7D5
331
1A7DD
331
1A7DE
331
1A7E8
331
1A7E9
331
1A7F3
331
1A7F4
331
1A7FC
331
1A7FD
331
1B698
331
1B699
331
1B6AC
331
1B6AD
331
1B6BF
331
1B6C0
331
1B6CA
331
1B6CB
331
1B6DE
331
1B6DF
331
1B6F0
331
1B6F1
331
1B70B
331
1B70C
331
1B729
331
1B72A
331
1CD1E
331
1CD1F
331
1D3BB
331
1D3BC
331
1D3C4
331
1D3C5
331
1D3D7
331
1D3D8
331
1D3E0
331
1D3E1
331
1D3E9
331
1D3EA
331
1D3F4
331
1D3F5
331
1D3FF
331
1D400
331
1D40A
331
1D40B
331
1D413
331
1D414
331
1D6B7
331
1D6B8
331
1DA17
331
1DA18
331
1DA82
331
1DA83
331
1DA8B
331
1DA8C
331
1DA96
331
1DA97
331
1DA9F
331
1DAA0
331
1DAC7
331
1DAC8
331
1DAD3
331
1DAD4
102
}
  0
BLOCK_RECORD
  5
16338
330
7466
100
AcDbSymbolTableRecord
100
AcDbBlockTableRecord
  2
*D1
340
0
  0
BLOCK_RECORD
  5
16344
330
7466
100
AcDbSymbolTableRecord
100
AcDbBlockTableRecord
  2
*D2
340
0
  0
BLOCK_RECORD
  5
16352
330
7466
100
AcDbSymbolTableRecord
100
AcDbBlockTableRecord
  2
*D3
340
0
  0
BLOCK_RECORD
  5
16360
330
7466
100
AcDbSymbolTableRecord
100
AcDbBlockTableRecord
  2
*D4
340
0
  0
BLOCK_RECORD
  5
16384
330
7466
100
AcDbSymbolTableRecord
100
AcDbBlockTableRecord
  2
*D5
340
0
  0
BLOCK_RECORD
  5
1638F
330
7466
100
AcDbSymbolTableRecord
100
AcDbBlockTableRecord
  2
*D6
340
0
  0
BLOCK_RECORD
  5
1639B
330
7466
100
AcDbSymbolTableRecord
100
AcDbBlockTableRecord
  2
*D7
340
0
  0
BLOCK_RECORD
  5
163A9
330
7466
100
AcDbSymbolTableRecord
100
AcDbBlockTableRecord
  2
*D8
340
0
  0
BLOCK_RECORD
  5
163B8
330
7466
100
AcDbSymbolTableRecord
100
AcDbBlockTableRecord
  2
*D9
340
0
  0
BLOCK_RECORD
  5
163C7
330
7466
100
AcDbSymbolTableRecord
100
AcDbBlockTableRecord
  2
*D10
340
0
  0
BLOCK_RECORD
  5
163E1
330
7466
100
AcDbSymbolTableRecord
100
AcDbBlockTableRecord
  2
*D11
340
0
  0
BLOCK_RECORD
  5
163ED
330
7466
100
AcDbSymbolTableRecord
100
AcDbBlockTableRecord
  2
*D12
340
0
  0
BLOCK_RECORD
  5
163FB
330
7466
100
AcDbSymbolTableRecord
100
AcDbBlockTableRecord
  2
*D13
340
0
  0
BLOCK_RECORD
  5
165B5
330
7466
100
AcDbSymbolTableRecord
100
AcDbBlockTableRecord
  2
*D14
340
0
  0
BLOCK_RECORD
  5
165C4
330
7466
100
AcDbSymbolTableRecord
100
AcDbBlockTableRecord
  2
*D15
340
0
  0
BLOCK_RECORD
  5
165EA
330
7466
100
AcDbSymbolTableRecord
100
AcDbBlockTableRecord
  2
*D16
340
0
  0
BLOCK_RECORD
  5
166CF
330
7466
100
AcDbSymbolTableRecord
100
AcDbBlockTableRecord
  2
*D17
340
0
  0
BLOCK_RECORD
  5
16908
330
7466
100
AcDbSymbolTableRecord
100
AcDbBlockTableRecord
  2
*D18
340
0
  0
BLOCK_RECORD
  5
17CC1
330
7466
100
AcDbSymbolTableRecord
100
AcDbBlockTableRecord
  2
*D19
340
0
  0
BLOCK_RECORD
  5
17CD0
330
7466
100
AcDbSymbolTableRecord
100
AcDbBlockTableRecord
  2
*D20
340
0
  0
BLOCK_RECORD
  5
17D01
330
7466
100
AcDbSymbolTableRecord
100
AcDbBlockTableRecord
  2
*D21
340
0
  0
BLOCK_RECORD
  5
1A038
330
7466
100
AcDbSymbolTableRecord
100
AcDbBlockTableRecord
  2
*D22
340
0
  0
BLOCK_RECORD
  5
1A49F
330
7466
100
AcDbSymbolTableRecord
100
AcDbBlockTableRecord
  2
*D23
340
0
  0
BLOCK_RECORD
  5
1B599
330
7466
100
AcDbSymbolTableRecord
100
AcDbBlockTableRecord
  2
*D24
340
0
  0
BLOCK_RECORD
  5
1B5A6
330
7466
100
AcDbSymbolTableRecord
100
AcDbBlockTableRecord
  2
*D25
340
0
  0
BLOCK_RECORD
  5
1B5B2
330
7466
100
AcDbSymbolTableRecord
100
AcDbBlockTableRecord
  2
*D26
340
0
  0
BLOCK_RECORD
  5
1B5C0
330
7466
100
AcDbSymbolTableRecord
100
AcDbBlockTableRecord
  2
*D27
340
0
  0
BLOCK_RECORD
  5
1B5CC
330
7466
100
AcDbSymbolTableRecord
100
AcDbBlockTableRecord
  2
*D28
340
0
  0
BLOCK_RECORD
  5
1B5D9
330
7466
100
AcDbSymbolTableRecord
100
AcDbBlockTableRecord
  2
*D29
340
0
  0
BLOCK_RECORD
  5
1B5E7
330
7466
100
AcDbSymbolTableRecord
100
AcDbBlockTableRecord
  2
*D30
340
0
  0
BLOCK_RECORD
  5
1B5F3
330
7466
100
AcDbSymbolTableRecord
100
AcDbBlockTableRecord
  2
*D31
340
0
  0
BLOCK_RECORD
  5
1B601
330
7466
100
AcDbSymbolTableRecord
100
AcDbBlockTableRecord
  2
*D32
340
0
  0
BLOCK_RECORD
  5
1B60D
330
7466
100
AcDbSymbolTableRecord
100
AcDbBlockTableRecord
  2
*D33
340
0
  0
BLOCK_RECORD
  5
1B631
330
7466
100
AcDbSymbolTableRecord
100
AcDbBlockTableRecord
  2
*D34
340
0
  0
BLOCK_RECORD
  5
1B656
330
7466
100
AcDbSymbolTableRecord
100
AcDbBlockTableRecord
  2
*D35
340
0
  0
BLOCK_RECORD
  5
1CD0F
330
7466
100
AcDbSymbolTableRecord
100
AcDbBlockTableRecord
  2
*D36
340
0
  0
BLOCK_RECORD
  5
1D272
330
7466
100
AcDbSymbolTableRecord
100
AcDbBlockTableRecord
  2
*D37
340
0
  0
BLOCK_RECORD
  5
1D2CD
330
7466
100
AcDbSymbolTableRecord
100
AcDbBlockTableRecord
  2
*D38
340
0
  0
BLOCK_RECORD
  5
1D5E9
330
7466
100
AcDbSymbolTableRecord
100
AcDbBlockTableRecord
  2
*D39
340
0
  0
BLOCK_RECORD
  5
1D5F5
330
7466
100
AcDbSymbolTableRecord
100
AcDbBlockTableRecord
  2
*D40
340
0
  0
BLOCK_RECORD
  5
1D603
330
7466
100
AcDbSymbolTableRecord
100
AcDbBlockTableRecord
  2
*D41
340
0
  0
BLOCK_RECORD
  5
1D9D1
330
7466
100
AcDbSymbolTableRecord
100
AcDbBlockTableRecord
  2
*D42
340
0
  0
ENDTAB
  0
ENDSEC
  0
SECTION
  2
BLOCKS
  0
BLOCK
  5
7489
330
747D
100
AcDbEntity
  8
0
100
AcDbBlockBegin
  2
*MODEL_SPACE
 70
     0
 10
0.0
 20
0.0
 30
0.0
  3
*MODEL_SPACE
  1

  0
ENDBLK
  5
748A
330
747D
100
AcDbEntity
  8
0
100
AcDbBlockEnd
  0
BLOCK
  5
7487
330
747A
100
AcDbEntity
 67
     1
  8
0
100
AcDbBlockBegin
  2
*PAPER_SPACE
 70
     0
 10
0.0
 20
0.0
 30
0.0
  3
*PAPER_SPACE
  1

  0
ENDBLK
  5
7488
330
747A
100
AcDbEntity
 67
     1
  8
0
100
AcDbBlockEnd
  0
BLOCK
  5
F771
330
F770
100
AcDbEntity
  8
0
 48
50.0
100
AcDbBlockBegin
  2
_DOTSMALL
 70
     0
 10
0.0
 20
0.0
 30
0.0
  3
_DOTSMALL
  1

  0
LWPOLYLINE
  5
F772
330
F770
100
AcDbEntity
  8
0
  6
ByBlock
 62
     0
 48
50.0
100
AcDbPolyline
 90
        2
 70
     1
 43
0.5
 10
-0.0625
 20
0.0
 42
1.0
 10
0.0625
 20
0.0
 42
1.0
  0
ENDBLK
  5
F776
330
F770
100
AcDbEntity
  8
0
 48
50.0
100
AcDbBlockEnd
  0
BLOCK
  5
1A0C2
330
16338
100
AcDbEntity
  8
0
 48
50.0
100
AcDbBlockBegin
  2
*D1
 70
     1
 10
0.0
 20
0.0
 30
0.0
  3
*D1
  1

  0
LINE
  5
1A7F9
330
16338
100
AcDbEntity
  8
寸法
 62
     0
 48
50.0
370
    -2
100
AcDbLine
 10
8629.153011747476
 20
9350.367811356804
 30
0.0
 11
9316.579357481883
 21
9350.367811356804
 31
0.0
  0
LINE
  5
1A7FA
330
16338
100
AcDbEntity
  8
寸法
 62
     0
 48
50.0
370
    -2
100
AcDbLine
 10
8629.153011747451
 20
7670.367811356789
 30
0.0
 11
9316.579357481883
 21
7670.367811356789
 31
0.0
  0
LINE
  5
1A7FB
330
16338
100
AcDbEntity
  8
寸法
 62
     0
 48
50.0
370
    -2
100
AcDbLine
 10
9256.57935748188
 20
9350.367811356804
 30
0.0
 11
9256.57935748188
 21
7670.367811356789
 31
0.0
  0
INSERT
  5
1A7FC
330
16338
100
AcDbEntity
  8
寸法
 62
     0
 48
50.0
370
    -2
100
AcDbBlockReference
  2
_DOTSMALL
 10
9256.57935748188
 20
9350.367811356804
 30
0.0
 41
100.0
 42
100.0
 43
100.0
 50
90.0
  0
INSERT
  5
1A7FD
330
16338
100
AcDbEntity
  8
寸法
 62
     0
 48
50.0
370
    -2
100
AcDbBlockReference
  2
_DOTSMALL
 10
9256.57935748188
 20
7670.367811356789
 30
0.0
 41
100.0
 42
100.0
 43
100.0
 50
270.0
  0
MTEXT
  5
1A7FE
330
16338
100
AcDbEntity
  8
寸法
 62
     7
 48
50.0
100
AcDbMText
 10
9156.567546458258
 20
8510.367811356799
 30
0.0
 40
120.0
 41
0.0
 71
     5
 72
     1
  1
\A1;4X420=1680
  7
STYLE1
 11
0.0000000000000001
 21
1.0
 31
0.0
 73
     1
 44
1.0
1001
ACAD
1000
MTEXTBEGIN
1070
    73
1070
     1
1070
    44
1040
1.0
1070
    74
1070
     0
1000
MTEXTEND
  0
POINT
  5
1A7FF
330
16338
100
AcDbEntity
  8
DEFPOINTS
 62
     0
 48
50.0
100
AcDbPoint
 10
8609.153011747476
 20
9350.367811356804
 30
0.0
  0
POINT
  5
1A800
330
16338
100
AcDbEntity
  8
DEFPOINTS
 62
     0
 48
50.0
100
AcDbPoint
 10
8609.15301174745
 20
7670.367811356789
 30
0.0
  0
POINT
  5
1A801
330
16338
100
AcDbEntity
  8
DEFPOINTS
 62
     0
 48
50.0
100
AcDbPoint
 10
9256.57935748188
 20
7670.367811356789
 30
0.0
  0
ENDBLK
  5
1A0CC
330
16338
100
AcDbEntity
  8
0
 48
50.0
100
AcDbBlockEnd
  0
BLOCK
  5
16414
330
16344
100
AcDbEntity
  8
0
 48
50.0
100
AcDbBlockBegin
  2
*D2
 70
     1
 10
0.0
 20
0.0
 30
0.0
  3
*D2
  1

  0
LINE
  5
1A7EE
330
16344
100
AcDbEntity
  8
寸法
 62
     0
 48
50.0
370
    -2
100
AcDbLine
 10
8629.153011747451
 20
7670.367811356789
 30
0.0
 11
9316.579357481861
 21
7670.367811356789
 31
0.0
  0
LINE
  5
1A7EF
330
16344
100
AcDbEntity
  8
寸法
 62
     0
 48
50.0
370
    -2
100
AcDbLine
 10
8629.153011747451
 20
7615.367811356794
 30
0.0
 11
9316.579357481861
 21
7615.367811356794
 31
0.0
  0
LINE
  5
1A7F0
330
16344
100
AcDbEntity
  8
寸法
 62
     0
 48
50.0
370
    -2
100
AcDbLine
 10
9256.579357481861
 20
7670.367811356789
 30
0.0
 11
9256.579357481861
 21
7770.367811356789
 31
0.0
  0
LINE
  5
1A7F1
330
16344
100
AcDbEntity
  8
寸法
 62
     0
 48
50.0
370
    -2
100
AcDbLine
 10
9256.579357481861
 20
7615.367811356794
 30
0.0
 11
9256.579357481861
 21
7129.021063077691
 31
0.0
  0
LINE
  5
1A7F2
330
16344
100
AcDbEntity
  8
寸法
 62
     0
 48
50.0
370
    -2
100
AcDbLine
 10
9256.579357481861
 20
7670.367811356789
 30
0.0
 11
9256.579357481861
 21
7615.367811356794
 31
0.0
  0
INSERT
  5
1A7F3
330
16344
100
AcDbEntity
  8
寸法
 62
     0
 48
50.0
370
    -2
100
AcDbBlockReference
  2
_DOTSMALL
 10
9256.579357481861
 20
7670.367811356789
 30
0.0
 41
100.0
 42
100.0
 43
100.0
 50
270.0
  0
INSERT
  5
1A7F4
330
16344
100
AcDbEntity
  8
寸法
 62
     0
 48
50.0
370
    -2
100
AcDbBlockReference
  2
_DOTSMALL
 10
9256.579357481861
 20
7615.367811356794
 30
0.0
 41
100.0
 42
100.0
 43
100.0
 50
90.0
  0
MTEXT
  5
1A7F5
330
16344
100
AcDbEntity
  8
寸法
 62
     7
 48
50.0
100
AcDbMText
 10
9156.579357481859
 20
7237.506344451931
 30
0.0
 40
120.0
 41
0.0
 71
     5
 72
     1
  1
\A1;55
  7
STYLE1
 11
0.0000000000000001
 21
1.0
 31
0.0
 73
     1
 44
1.0
1001
ACAD
1000
MTEXTBEGIN
1070
    73
1070
     1
1070
    44
1040
1.0
1070
    74
1070
     0
1000
MTEXTEND
  0
POINT
  5
1A7F6
330
16344
100
AcDbEntity
  8
DEFPOINTS
 62
     0
 48
50.0
100
AcDbPoint
 10
8609.15301174745
 20
7670.367811356789
 30
0.0
  0
POINT
  5
1A7F7
330
16344
100
AcDbEntity
  8
DEFPOINTS
 62
     0
 48
50.0
100
AcDbPoint
 10
8609.15301174745
 20
7615.367811356794
 30
0.0
  0
POINT
  5
1A7F8
330
16344
100
AcDbEntity
  8
DEFPOINTS
 62
     0
 48
50.0
100
AcDbPoint
 10
9256.579357481861
 20
7615.367811356794
 30
0.0
  0
ENDBLK
  5
16420
330
16344
100
AcDbEntity
  8
0
 48
50.0
100
AcDbBlockEnd
  0
BLOCK
  5
16421
330
16352
100
AcDbEntity
  8
0
 48
50.0
100
AcDbBlockBegin
  2
*D3
 70
     1
 10
0.0
 20
0.0
 30
0.0
  3
*D3
  1

  0
LINE
  5
1A7E3
330
16352
100
AcDbEntity
  8
寸法
 62
     0
 48
50.0
370
    -2
100
AcDbLine
 10
8629.153011747476
 20
9405.367811356802
 30
0.0
 11
9316.579357481888
 21
9405.367811356802
 31
0.0
  0
LINE
  5
1A7E4
330
16352
100
AcDbEntity
  8
寸法
 62
     0
 48
50.0
370
    -2
100
AcDbLine
 10
8629.153011747476
 20
9350.367811356804
 30
0.0
 11
9316.579357481888
 21
9350.367811356804
 31
0.0
  0
LINE
  5
1A7E5
330
16352
100
AcDbEntity
  8
寸法
 62
     0
 48
50.0
370
    -2
100
AcDbLine
 10
9256.579357481887
 20
9350.367811356804
 30
0.0
 11
9256.579357481887
 21
9250.367811356804
 31
0.0
  0
LINE
  5
1A7E6
330
16352
100
AcDbEntity
  8
寸法
 62
     0
 48
50.0
370
    -2
100
AcDbLine
 10
9256.579357481887
 20
9405.367811356802
 30
0.0
 11
9256.579357481887
 21
9822.338374105278
 31
0.0
  0
LINE
  5
1A7E7
330
16352
100
AcDbEntity
  8
寸法
 62
     0
 48
50.0
370
    -2
100
AcDbLine
 10
9256.579357481887
 20
9350.367811356804
 30
0.0
 11
9256.579357481887
 21
9405.367811356802
 31
0.0
  0
INSERT
  5
1A7E8
330
16352
100
AcDbEntity
  8
寸法
 62
     0
 48
50.0
370
    -2
100
AcDbBlockReference
  2
_DOTSMALL
 10
9256.579357481887
 20
9350.367811356804
 30
0.0
 41
100.0
 42
100.0
 43
100.0
 50
90.0
  0
INSERT
  5
1A7E9
330
16352
100
AcDbEntity
  8
寸法
 62
     0
 48
50.0
370
    -2
100
AcDbBlockReference
  2
_DOTSMALL
 10
9256.579357481887
 20
9405.367811356802
 30
0.0
 41
100.0
 42
100.0
 43
100.0
 50
270.0
  0
MTEXT
  5
1A7EA
330
16352
100
AcDbEntity
  8
寸法
 62
     7
 48
50.0
100
AcDbMText
 10
9156.579357481886
 20
9713.85309273104
 30
0.0
 40
120.0
 41
0.0
 71
     5
 72
     1
  1
\A1;55
  7
STYLE1
 11
0.0000000000000001
 21
1.0
 31
0.0
 73
     1
 44
1.0
1001
ACAD
1000
MTEXTBEGIN
1070
    73
1070
     1
1070
    44
1040
1.0
1070
    74
1070
     0
1000
MTEXTEND
  0
POINT
  5
1A7EB
330
16352
100
AcDbEntity
  8
DEFPOINTS
 62
     0
 48
50.0
100
AcDbPoint
 10
8609.153011747476
 20
9405.367811356802
 30
0.0
  0
POINT
  5
1A7EC
330
16352
100
AcDbEntity
  8
DEFPOINTS
 62
     0
 48
50.0
100
AcDbPoint
 10
8609.153011747476
 20
9350.367811356804
 30
0.0
  0
POINT
  5
1A7ED
330
16352
100
AcDbEntity
  8
DEFPOINTS
 62
     0
 48
50.0
100
AcDbPoint
 10
9256.579357481887
 20
9350.367811356804
 30
0.0
  0
ENDBLK
  5
1642D
330
16352
100
AcDbEntity
  8
0
 48
50.0
100
AcDbBlockEnd
  0
BLOCK
  5
1A07E
330
16360
100
AcDbEntity
  8
0
 48
50.0
100
AcDbBlockBegin
  2
*D4
 70
     1
 10
0.0
 20
0.0
 30
0.0
  3
*D4
  1

  0
LINE
  5
1A7DA
330
16360
100
AcDbEntity
  8
寸法
 62
     0
 48
50.0
370
    -2
100
AcDbLine
 10
8629.153011747476
 20
9405.367811356802
 30
0.0
 11
9681.686299221521
 21
9405.367811356802
 31
0.0
  0
LINE
  5
1A7DB
330
16360
100
AcDbEntity
  8
寸法
 62
     0
 48
50.0
370
    -2
100
AcDbLine
 10
8629.153011747451
 20
7615.367811356794
 30
0.0
 11
9681.686299221521
 21
7615.367811356794
 31
0.0
  0
LINE
  5
1A7DC
330
16360
100
AcDbEntity
  8
寸法
 62
     0
 48
50.0
370
    -2
100
AcDbLine
 10
9621.686299221522
 20
9405.367811356802
 30
0.0
 11
9621.686299221522
 21
7615.367811356794
 31
0.0
  0
INSERT
  5
1A7DD
330
16360
100
AcDbEntity
  8
寸法
 62
     0
 48
50.0
370
    -2
100
AcDbBlockReference
  2
_DOTSMALL
 10
9621.686299221522
 20
9405.367811356802
 30
0.0
 41
100.0
 42
100.0
 43
100.0
 50
90.0
  0
INSERT
  5
1A7DE
330
16360
100
AcDbEntity
  8
寸法
 62
     0
 48
50.0
370
    -2
100
AcDbBlockReference
  2
_DOTSMALL
 10
9621.686299221522
 20
7615.367811356794
 30
0.0
 41
100.0
 42
100.0
 43
100.0
 50
270.0
  0
MTEXT
  5
1A7DF
330
16360
100
AcDbEntity
  8
寸法
 62
     7
 48
50.0
100
AcDbMText
 10
9521.686299221519
 20
8510.367811356799
 30
0.0
 40
120.0
 41
0.0
 71
     5
 72
     1
  1
\A1;1790
  7
STYLE1
 11
0.0000000000000001
 21
1.0
 31
0.0
 73
     1
 44
1.0
1001
ACAD
1000
MTEXTBEGIN
1070
    73
1070
     1
1070
    44
1040
1.0
1070
    74
1070
     0
1000
MTEXTEND
  0
POINT
  5
1A7E0
330
16360
100
AcDbEntity
  8
DEFPOINTS
 62
     0
 48
50.0
100
AcDbPoint
 10
8609.153011747476
 20
9405.367811356802
 30
0.0
  0
POINT
  5
1A7E1
330
16360
100
AcDbEntity
  8
DEFPOINTS
 62
     0
 48
50.0
100
AcDbPoint
 10
8609.15301174745
 20
7615.367811356794
 30
0.0
  0
POINT
  5
1A7E2
330
16360
100
AcDbEntity
  8
DEFPOINTS
 62
     0
 48
50.0
100
AcDbPoint
 10
9621.686299221522
 20
7615.367811356794
 30
0.0
  0
ENDBLK
  5
1A088
330
16360
100
AcDbEntity
  8
0
 48
50.0
100
AcDbBlockEnd
  0
BLOCK
  5
185CF
330
16384
100
AcDbEntity
  8
0
 48
50.0
100
AcDbBlockBegin
  2
*D5
 70
     1
 10
0.0
 20
0.0
 30
0.0
  3
*D5
  1

  0
LINE
  5
1A7D2
330
16384
100
AcDbEntity
  8
寸法
 62
     0
 48
50.0
370
    -2
100
AcDbLine
 10
6082.153011747468
 20
7621.367811356702
 30
0.0
 11
6082.153011747468
 21
7020.937040590538
 31
0.0
  0
LINE
  5
1A7D3
330
16384
100
AcDbEntity
  8
寸法
 62
     0
 48
50.0
370
    -2
100
AcDbLine
 10
8506.15301174745
 20
7080.937040590537
 30
0.0
 11
6082.153011747468
 21
7080.937040590537
 31
0.0
  0
INSERT
  5
1A7D4
330
16384
100
AcDbEntity
  8
寸法
 62
     0
 48
50.0
370
    -2
100
AcDbBlockReference
  2
_DOTSMALL
 10
8506.15301174745
 20
7080.937040590537
 30
0.0
 41
100.0
 42
100.0
 43
100.0
  0
INSERT
  5
1A7D5
330
16384
100
AcDbEntity
  8
寸法
 62
     0
 48
50.0
370
    -2
100
AcDbBlockReference
  2
_DOTSMALL
 10
6082.153011747468
 20
7080.937040590537
 30
0.0
 41
100.0
 42
100.0
 43
100.0
 50
180.0
  0
MTEXT
  5
1A7D6
330
16384
100
AcDbEntity
  8
寸法
 62
     7
 48
50.0
100
AcDbMText
 10
7294.15301174746
 20
7180.94885161416
 30
0.0
 40
120.0
 41
0.0
 71
     5
 72
     1
  1
\A1;有効開口部間口 2424
  7
STYLE1
 73
     1
 44
1.0
1001
ACAD
1000
MTEXTBEGIN
1070
    73
1070
     1
1070
    44
1040
1.0
1070
    74
1070
     0
1000
MTEXTEND
  0
POINT
  5
1A7D7
330
16384
100
AcDbEntity
  8
DEFPOINTS
 62
     0
 48
50.0
100
AcDbPoint
 10
8506.15301174745
 20
7641.367811356701
 30
0.0
  0
POINT
  5
1A7D8
330
16384
100
AcDbEntity
  8
DEFPOINTS
 62
     0
 48
50.0
100
AcDbPoint
 10
6082.153011747468
 20
7641.367811356701
 30
0.0
  0
POINT
  5
1A7D9
330
16384
100
AcDbEntity
  8
DEFPOINTS
 62
     0
 48
50.0
100
AcDbPoint
 10
6082.153011747468
 20
7080.937040590537
 30
0.0
  0
ENDBLK
  5
185D8
330
16384
100
AcDbEntity
  8
0
 48
50.0
100
AcDbBlockEnd
  0
BLOCK
  5
1A044
330
1638F
100
AcDbEntity
  8
0
 48
50.0
100
AcDbBlockBegin
  2
*D6
 70
     1
 10
0.0
 20
0.0
 30
0.0
  3
*D6
  1

  0
LINE
  5
1A7C9
330
1638F
100
AcDbEntity
  8
寸法
 62
     0
 48
50.0
370
    -2
100
AcDbLine
 10
3349.153011747469
 20
7595.367811356552
 30
0.0
 11
3349.153011747469
 21
6574.764044999516
 31
0.0
  0
LINE
  5
1A7CA
330
1638F
100
AcDbEntity
  8
寸法
 62
     0
 48
50.0
370
    -2
100
AcDbLine
 10
8609.153011747439
 20
7595.367811356793
 30
0.0
 11
8609.153011747439
 21
6574.764044999516
 31
0.0
  0
LINE
  5
1A7CB
330
1638F
100
AcDbEntity
  8
寸法
 62
     0
 48
50.0
370
    -2
100
AcDbLine
 10
3349.153011747469
 20
6634.764044999517
 30
0.0
 11
8609.153011747439
 21
6634.764044999517
 31
0.0
  0
INSERT
  5
1A7CC
330
1638F
100
AcDbEntity
  8
寸法
 62
     0
 48
50.0
370
    -2
100
AcDbBlockReference
  2
_DOTSMALL
 10
3349.153011747469
 20
6634.764044999517
 30
0.0
 41
100.0
 42
100.0
 43
100.0
 50
180.0
  0
INSERT
  5
1A7CD
330
1638F
100
AcDbEntity
  8
寸法
 62
     0
 48
50.0
370
    -2
100
AcDbBlockReference
  2
_DOTSMALL
 10
8609.153011747439
 20
6634.764044999517
 30
0.0
 41
100.0
 42
100.0
 43
100.0
  0
MTEXT
  5
1A7CE
330
1638F
100
AcDbEntity
  8
寸法
 62
     7
 48
50.0
100
AcDbMText
 10
5979.153011747454
 20
6734.775856023138
 30
0.0
 40
120.0
 41
0.0
 71
     5
 72
     1
  1
\A1;5260
  7
STYLE1
 73
     1
 44
1.0
1001
ACAD
1000
MTEXTBEGIN
1070
    73
1070
     1
1070
    44
1040
1.0
1070
    74
1070
     0
1000
MTEXTEND
  0
POINT
  5
1A7CF
330
1638F
100
AcDbEntity
  8
DEFPOINTS
 62
     0
 48
50.0
100
AcDbPoint
 10
3349.153011747469
 20
7615.367811356552
 30
0.0
  0
POINT
  5
1A7D0
330
1638F
100
AcDbEntity
  8
DEFPOINTS
 62
     0
 48
50.0
100
AcDbPoint
 10
8609.153011747439
 20
7615.367811356794
 30
0.0
  0
POINT
  5
1A7D1
330
1638F
100
AcDbEntity
  8
DEFPOINTS
 62
     0
 48
50.0
100
AcDbPoint
 10
8609.153011747439
 20
6634.764044999517
 30
0.0
  0
ENDBLK
  5
1A04E
330
1638F
100
AcDbEntity
  8
0
 48
50.0
100
AcDbBlockEnd
  0
BLOCK
  5
16464
330
1639B
100
AcDbEntity
  8
0
 48
50.0
100
AcDbBlockBegin
  2
*D7
 70
     1
 10
0.0
 20
0.0
 30
0.0
  3
*D7
  1

  0
LINE
  5
1A7BE
330
1639B
100
AcDbEntity
  8
寸法
 62
     0
 48
50.0
370
    -2
100
AcDbLine
 10
3404.153011747465
 20
7595.367811356554
 30
0.0
 11
3404.153011747465
 21
7020.937040590389
 31
0.0
  0
LINE
  5
1A7BF
330
1639B
100
AcDbEntity
  8
寸法
 62
     0
 48
50.0
370
    -2
100
AcDbLine
 10
3349.153011747469
 20
7595.367811356552
 30
0.0
 11
3349.153011747469
 21
7020.937040590389
 31
0.0
  0
LINE
  5
1A7C0
330
1639B
100
AcDbEntity
  8
寸法
 62
     0
 48
50.0
370
    -2
100
AcDbLine
 10
3404.153011747465
 20
7080.937040590391
 30
0.0
 11
3504.153011747465
 21
7080.937040590391
 31
0.0
  0
LINE
  5
1A7C1
330
1639B
100
AcDbEntity
  8
寸法
 62
     0
 48
50.0
370
    -2
100
AcDbLine
 10
3349.153011747469
 20
7080.937040590391
 30
0.0
 11
2932.182448998992
 21
7080.937040590391
 31
0.0
  0
LINE
  5
1A7C2
330
1639B
100
AcDbEntity
  8
寸法
 62
     0
 48
50.0
370
    -2
100
AcDbLine
 10
3404.153011747465
 20
7080.937040590391
 30
0.0
 11
3349.153011747469
 21
7080.937040590391
 31
0.0
  0
INSERT
  5
1A7C3
330
1639B
100
AcDbEntity
  8
寸法
 62
     0
 48
50.0
370
    -2
100
AcDbBlockReference
  2
_DOTSMALL
 10
3404.153011747465
 20
7080.937040590391
 30
0.0
 41
100.0
 42
100.0
 43
100.0
 50
180.0
  0
INSERT
  5
1A7C4
330
1639B
100
AcDbEntity
  8
寸法
 62
     0
 48
50.0
370
    -2
100
AcDbBlockReference
  2
_DOTSMALL
 10
3349.153011747469
 20
7080.937040590391
 30
0.0
 41
100.0
 42
100.0
 43
100.0
  0
MTEXT
  5
1A7C5
330
1639B
100
AcDbEntity
  8
寸法
 62
     7
 48
50.0
100
AcDbMText
 10
3040.66773037323
 20
7180.93704059039
 30
0.0
 40
120.0
 41
0.0
 71
     5
 72
     1
  1
\A1;55
  7
STYLE1
 73
     1
 44
1.0
1001
ACAD
1000
MTEXTBEGIN
1070
    73
1070
     1
1070
    44
1040
1.0
1070
    74
1070
     0
1000
MTEXTEND
  0
POINT
  5
1A7C6
330
1639B
100
AcDbEntity
  8
DEFPOINTS
 62
     0
 48
50.0
100
AcDbPoint
 10
3404.153011747465
 20
7615.367811356555
 30
0.0
  0
POINT
  5
1A7C7
330
1639B
100
AcDbEntity
  8
DEFPOINTS
 62
     0
 48
50.0
100
AcDbPoint
 10
3349.153011747469
 20
7615.367811356552
 30
0.0
  0
POINT
  5
1A7C8
330
1639B
100
AcDbEntity
  8
DEFPOINTS
 62
     0
 48
50.0
100
AcDbPoint
 10
3349.153011747469
 20
7080.937040590391
 30
0.0
  0
ENDBLK
  5
16470
330
1639B
100
AcDbEntity
  8
0
 48
50.0
100
AcDbBlockEnd
  0
BLOCK
  5
16471
330
163A9
100
AcDbEntity
  8
0
 48
50.0
100
AcDbBlockBegin
  2
*D8
 70
     1
 10
0.0
 20
0.0
 30
0.0
  3
*D8
  1

  0
LINE
  5
1A7B3
330
163A9
100
AcDbEntity
  8
寸法
 62
     0
 48
50.0
370
    -2
100
AcDbLine
 10
6082.153011747468
 20
7621.367811356702
 30
0.0
 11
6082.153011747468
 21
7020.937040590538
 31
0.0
  0
LINE
  5
1A7B4
330
163A9
100
AcDbEntity
  8
寸法
 62
     0
 48
50.0
370
    -2
100
AcDbLine
 10
6034.153011747465
 20
7595.367811356702
 30
0.0
 11
6034.153011747465
 21
7020.937040590538
 31
0.0
  0
LINE
  5
1A7B5
330
163A9
100
AcDbEntity
  8
寸法
 62
     0
 48
50.0
370
    -2
100
AcDbLine
 10
6082.153011747468
 20
7080.937040590537
 30
0.0
 11
6182.153011747469
 21
7080.937040590537
 31
0.0
  0
LINE
  5
1A7B6
330
163A9
100
AcDbEntity
  8
寸法
 62
     0
 48
50.0
370
    -2
100
AcDbLine
 10
6034.153011747465
 20
7080.937040590537
 30
0.0
 11
5934.153011747465
 21
7080.937040590537
 31
0.0
  0
MTEXT
  5
1A7B7
330
163A9
100
AcDbEntity
  8
寸法
 62
     7
 48
50.0
100
AcDbMText
 10
6195.054982747526
 20
7180.937040590537
 30
0.0
 40
120.0
 41
0.0
 71
     5
 72
     1
  1
\A1;48
  7
STYLE1
 73
     1
 44
1.0
1001
ACAD
1000
MTEXTBEGIN
1070
    73
1070
     1
1070
    44
1040
1.0
1070
    74
1070
     0
1000
MTEXTEND
  0
LINE
  5
1A7B8
330
163A9
100
AcDbEntity
  8
寸法
 62
     0
 48
50.0
370
    -2
100
AcDbLine
 10
6082.153011747468
 20
7080.937040590537
 30
0.0
 11
6034.153011747465
 21
7080.937040590537
 31
0.0
  0
INSERT
  5
1A7B9
330
163A9
100
AcDbEntity
  8
寸法
 62
     0
 48
50.0
370
    -2
100
AcDbBlockReference
  2
_DOTSMALL
 10
6082.153011747468
 20
7080.937040590537
 30
0.0
 41
100.0
 42
100.0
 43
100.0
 50
180.0
  0
INSERT
  5
1A7BA
330
163A9
100
AcDbEntity
  8
寸法
 62
     0
 48
50.0
370
    -2
100
AcDbBlockReference
  2
_DOTSMALL
 10
6034.153011747465
 20
7080.937040590537
 30
0.0
 41
100.0
 42
100.0
 43
100.0
  0
POINT
  5
1A7BB
330
163A9
100
AcDbEntity
  8
DEFPOINTS
 62
     0
 48
50.0
100
AcDbPoint
 10
6082.153011747468
 20
7641.367811356701
 30
0.0
  0
POINT
  5
1A7BC
330
163A9
100
AcDbEntity
  8
DEFPOINTS
 62
     0
 48
50.0
100
AcDbPoint
 10
6034.153011747465
 20
7615.367811356702
 30
0.0
  0
POINT
  5
1A7BD
330
163A9
100
AcDbEntity
  8
DEFPOINTS
 62
     0
 48
50.0
100
AcDbPoint
 10
6034.153011747465
 20
7080.937040590537
 30
0.0
  0
ENDBLK
  5
1647E
330
163A9
100
AcDbEntity
  8
0
 48
50.0
100
AcDbBlockEnd
  0
BLOCK
  5
1647F
330
163B8
100
AcDbEntity
  8
0
 48
50.0
100
AcDbBlockBegin
  2
*D9
 70
     1
 10
0.0
 20
0.0
 30
0.0
  3
*D9
  1

  0
LINE
  5
1A7A8
330
163B8
100
AcDbEntity
  8
寸法
 62
     0
 48
50.0
370
    -2
100
AcDbLine
 10
8554.153011747452
 20
7595.367811356789
 30
0.0
 11
8554.153011747452
 21
7020.937040590538
 31
0.0
  0
LINE
  5
1A7A9
330
163B8
100
AcDbEntity
  8
寸法
 62
     0
 48
50.0
370
    -2
100
AcDbLine
 10
8506.15301174745
 20
7621.367811356702
 30
0.0
 11
8506.15301174745
 21
7020.937040590538
 31
0.0
  0
LINE
  5
1A7AA
330
163B8
100
AcDbEntity
  8
寸法
 62
     0
 48
50.0
370
    -2
100
AcDbLine
 10
8554.153011747452
 20
7080.937040590537
 30
0.0
 11
8654.153011747451
 21
7080.937040590537
 31
0.0
  0
LINE
  5
1A7AB
330
163B8
100
AcDbEntity
  8
寸法
 62
     0
 48
50.0
370
    -2
100
AcDbLine
 10
8506.15301174745
 20
7080.937040590537
 30
0.0
 11
8406.15301174745
 21
7080.937040590537
 31
0.0
  0
MTEXT
  5
1A7AC
330
163B8
100
AcDbEntity
  8
寸法
 62
     7
 48
50.0
100
AcDbMText
 10
8395.190114098703
 20
7180.937040590537
 30
0.0
 40
120.0
 41
0.0
 71
     5
 72
     1
  1
\A1;48
  7
STYLE1
 73
     1
 44
1.0
1001
ACAD
1000
MTEXTBEGIN
1070
    73
1070
     1
1070
    44
1040
1.0
1070
    74
1070
     0
1000
MTEXTEND
  0
LINE
  5
1A7AD
330
163B8
100
AcDbEntity
  8
寸法
 62
     0
 48
50.0
370
    -2
100
AcDbLine
 10
8554.153011747452
 20
7080.937040590537
 30
0.0
 11
8506.15301174745
 21
7080.937040590537
 31
0.0
  0
INSERT
  5
1A7AE
330
163B8
100
AcDbEntity
  8
寸法
 62
     0
 48
50.0
370
    -2
100
AcDbBlockReference
  2
_DOTSMALL
 10
8554.153011747452
 20
7080.937040590537
 30
0.0
 41
100.0
 42
100.0
 43
100.0
 50
180.0
  0
INSERT
  5
1A7AF
330
163B8
100
AcDbEntity
  8
寸法
 62
     0
 48
50.0
370
    -2
100
AcDbBlockReference
  2
_DOTSMALL
 10
8506.15301174745
 20
7080.937040590537
 30
0.0
 41
100.0
 42
100.0
 43
100.0
  0
POINT
  5
1A7B0
330
163B8
100
AcDbEntity
  8
DEFPOINTS
 62
     0
 48
50.0
100
AcDbPoint
 10
8554.153011747452
 20
7615.367811356789
 30
0.0
  0
POINT
  5
1A7B1
330
163B8
100
AcDbEntity
  8
DEFPOINTS
 62
     0
 48
50.0
100
AcDbPoint
 10
8506.15301174745
 20
7641.367811356701
 30
0.0
  0
POINT
  5
1A7B2
330
163B8
100
AcDbEntity
  8
DEFPOINTS
 62
     0
 48
50.0
100
AcDbPoint
 10
8506.15301174745
 20
7080.937040590537
 30
0.0
  0
ENDBLK
  5
1648C
330
163B8
100
AcDbEntity
  8
0
 48
50.0
100
AcDbBlockEnd
  0
BLOCK
  5
1648D
330
163C7
100
AcDbEntity
  8
0
 48
50.0
100
AcDbBlockBegin
  2
*D10
 70
     1
 10
0.0
 20
0.0
 30
0.0
  3
*D10
  1

  0
LINE
  5
1A79D
330
163C7
100
AcDbEntity
  8
寸法
 62
     0
 48
50.0
370
    -2
100
AcDbLine
 10
8609.15301174745
 20
7595.367811356793
 30
0.0
 11
8609.15301174745
 21
7020.937040590538
 31
0.0
  0
LINE
  5
1A79E
330
163C7
100
AcDbEntity
  8
寸法
 62
     0
 48
50.0
370
    -2
100
AcDbLine
 10
8554.153011747452
 20
7595.367811356789
 30
0.0
 11
8554.153011747452
 21
7020.937040590538
 31
0.0
  0
LINE
  5
1A79F
330
163C7
100
AcDbEntity
  8
寸法
 62
     0
 48
50.0
370
    -2
100
AcDbLine
 10
8554.153011747452
 20
7080.937040590537
 30
0.0
 11
8454.153011747452
 21
7080.937040590537
 31
0.0
  0
LINE
  5
1A7A0
330
163C7
100
AcDbEntity
  8
寸法
 62
     0
 48
50.0
370
    -2
100
AcDbLine
 10
8609.15301174745
 20
7080.937040590537
 30
0.0
 11
9026.123574495926
 21
7080.937040590537
 31
0.0
  0
LINE
  5
1A7A1
330
163C7
100
AcDbEntity
  8
寸法
 62
     0
 48
50.0
370
    -2
100
AcDbLine
 10
8554.153011747452
 20
7080.937040590537
 30
0.0
 11
8609.15301174745
 21
7080.937040590537
 31
0.0
  0
INSERT
  5
1A7A2
330
163C7
100
AcDbEntity
  8
寸法
 62
     0
 48
50.0
370
    -2
100
AcDbBlockReference
  2
_DOTSMALL
 10
8554.153011747452
 20
7080.937040590537
 30
0.0
 41
100.0
 42
100.0
 43
100.0
  0
INSERT
  5
1A7A3
330
163C7
100
AcDbEntity
  8
寸法
 62
     0
 48
50.0
370
    -2
100
AcDbBlockReference
  2
_DOTSMALL
 10
8609.15301174745
 20
7080.937040590537
 30
0.0
 41
100.0
 42
100.0
 43
100.0
 50
180.0
  0
MTEXT
  5
1A7A4
330
163C7
100
AcDbEntity
  8
寸法
 62
     7
 48
50.0
100
AcDbMText
 10
8917.638293121688
 20
7180.937040590537
 30
0.0
 40
120.0
 41
0.0
 71
     5
 72
     1
  1
\A1;55
  7
STYLE1
 73
     1
 44
1.0
1001
ACAD
1000
MTEXTBEGIN
1070
    73
1070
     1
1070
    44
1040
1.0
1070
    74
1070
     0
1000
MTEXTEND
  0
POINT
  5
1A7A5
330
163C7
100
AcDbEntity
  8
DEFPOINTS
 62
     0
 48
50.0
100
AcDbPoint
 10
8609.15301174745
 20
7615.367811356794
 30
0.0
  0
POINT
  5
1A7A6
330
163C7
100
AcDbEntity
  8
DEFPOINTS
 62
     0
 48
50.0
100
AcDbPoint
 10
8554.153011747452
 20
7615.367811356789
 30
0.0
  0
POINT
  5
1A7A7
330
163C7
100
AcDbEntity
  8
DEFPOINTS
 62
     0
 48
50.0
100
AcDbPoint
 10
8554.153011747452
 20
7080.937040590537
 30
0.0
  0
ENDBLK
  5
16499
330
163C7
100
AcDbEntity
  8
0
 48
50.0
100
AcDbBlockEnd
  0
BLOCK
  5
18C46
330
163E1
100
AcDbEntity
  8
0
 48
50.0
100
AcDbBlockBegin
  2
*D11
 70
     1
 10
0.0
 20
0.0
 30
0.0
  3
*D11
  1

  0
LINE
  5
1D410
330
163E1
100
AcDbEntity
  8
寸法
 62
     0
 48
50.0
370
    -2
100
AcDbLine
 10
6034.153011747473
 20
9425.367811356705
 30
0.0
 11
6034.153011747473
 21
9981.176030981805
 31
0.0
  0
LINE
  5
1D411
330
163E1
100
AcDbEntity
  8
寸法
 62
     0
 48
50.0
370
    -2
100
AcDbLine
 10
8554.153011747477
 20
9425.3678113568
 30
0.0
 11
8554.153011747477
 21
9981.176030981805
 31
0.0
  0
LINE
  5
1D412
330
163E1
100
AcDbEntity
  8
寸法
 62
     0
 48
50.0
370
    -2
100
AcDbLine
 10
6034.153011747473
 20
9921.176030981804
 30
0.0
 11
8554.153011747477
 21
9921.176030981804
 31
0.0
  0
INSERT
  5
1D413
330
163E1
100
AcDbEntity
  8
寸法
 62
     0
 48
50.0
370
    -2
100
AcDbBlockReference
  2
_DOTSMALL
 10
6034.153011747473
 20
9921.176030981804
 30
0.0
 41
100.0
 42
100.0
 43
100.0
 50
180.0
  0
INSERT
  5
1D414
330
163E1
100
AcDbEntity
  8
寸法
 62
     0
 48
50.0
370
    -2
100
AcDbBlockReference
  2
_DOTSMALL
 10
8554.153011747477
 20
9921.176030981804
 30
0.0
 41
100.0
 42
100.0
 43
100.0
  0
MTEXT
  5
1D415
330
163E1
100
AcDbEntity
  8
寸法
 62
     7
 48
50.0
100
AcDbMText
 10
7294.153011747475
 20
10021.18784200542
 30
0.0
 40
120.0
 41
0.0
 71
     5
 72
     1
  1
\A1;6X420=2520
  7
STYLE1
 73
     1
 44
1.0
1001
ACAD
1000
MTEXTBEGIN
1070
    73
1070
     1
1070
    44
1040
1.0
1070
    74
1070
     0
1000
MTEXTEND
  0
POINT
  5
1D416
330
163E1
100
AcDbEntity
  8
DEFPOINTS
 62
     0
 48
50.0
100
AcDbPoint
 10
6034.153011747473
 20
9405.367811356706
 30
0.0
  0
POINT
  5
1D417
330
163E1
100
AcDbEntity
  8
DEFPOINTS
 62
     0
 48
50.0
100
AcDbPoint
 10
8554.153011747477
 20
9405.367811356802
 30
0.0
  0
POINT
  5
1D418
330
163E1
100
AcDbEntity
  8
DEFPOINTS
 62
     0
 48
50.0
100
AcDbPoint
 10
8554.153011747477
 20
9921.176030981804
 30
0.0
  0
ENDBLK
  5
18C50
330
163E1
100
AcDbEntity
  8
0
 48
50.0
100
AcDbBlockEnd
  0
BLOCK
  5
164B0
330
163ED
100
AcDbEntity
  8
0
 48
50.0
100
AcDbBlockBegin
  2
*D12
 70
     1
 10
0.0
 20
0.0
 30
0.0
  3
*D12
  1

  0
LINE
  5
1D405
330
163ED
100
AcDbEntity
  8
寸法
 62
     0
 48
50.0
370
    -2
100
AcDbLine
 10
3349.153011747441
 20
9425.36781135656
 30
0.0
 11
3349.153011747441
 21
9981.176030981544
 31
0.0
  0
LINE
  5
1D406
330
163ED
100
AcDbEntity
  8
寸法
 62
     0
 48
50.0
370
    -2
100
AcDbLine
 10
3404.153011747474
 20
9425.36781135656
 30
0.0
 11
3404.153011747474
 21
9981.176030981544
 31
0.0
  0
LINE
  5
1D407
330
163ED
100
AcDbEntity
  8
寸法
 62
     0
 48
50.0
370
    -2
100
AcDbLine
 10
3404.153011747474
 20
9921.176030981541
 30
0.0
 11
3504.153011747475
 21
9921.176030981541
 31
0.0
  0
LINE
  5
1D408
330
163ED
100
AcDbEntity
  8
寸法
 62
     0
 48
50.0
370
    -2
100
AcDbLine
 10
3349.153011747441
 20
9921.176030981541
 30
0.0
 11
2932.182448998963
 21
9921.176030981541
 31
0.0
  0
LINE
  5
1D409
330
163ED
100
AcDbEntity
  8
寸法
 62
     0
 48
50.0
370
    -2
100
AcDbLine
 10
3404.153011747474
 20
9921.176030981541
 30
0.0
 11
3349.153011747441
 21
9921.176030981541
 31
0.0
  0
INSERT
  5
1D40A
330
163ED
100
AcDbEntity
  8
寸法
 62
     0
 48
50.0
370
    -2
100
AcDbBlockReference
  2
_DOTSMALL
 10
3404.153011747474
 20
9921.176030981541
 30
0.0
 41
100.0
 42
100.0
 43
100.0
 50
180.0
  0
INSERT
  5
1D40B
330
163ED
100
AcDbEntity
  8
寸法
 62
     0
 48
50.0
370
    -2
100
AcDbBlockReference
  2
_DOTSMALL
 10
3349.153011747441
 20
9921.176030981541
 30
0.0
 41
100.0
 42
100.0
 43
100.0
  0
MTEXT
  5
1D40C
330
163ED
100
AcDbEntity
  8
寸法
 62
     7
 48
50.0
100
AcDbMText
 10
3040.667730373201
 20
10021.17603098154
 30
0.0
 40
120.0
 41
0.0
 71
     5
 72
     1
  1
\A1;55
  7
STYLE1
 73
     1
 44
1.0
1001
ACAD
1000
MTEXTBEGIN
1070
    73
1070
     1
1070
    44
1040
1.0
1070
    74
1070
     0
1000
MTEXTEND
  0
POINT
  5
1D40D
330
163ED
100
AcDbEntity
  8
DEFPOINTS
 62
     0
 48
50.0
100
AcDbPoint
 10
3349.153011747441
 20
9405.36781135656
 30
0.0
  0
POINT
  5
1D40E
330
163ED
100
AcDbEntity
  8
DEFPOINTS
 62
     0
 48
50.0
100
AcDbPoint
 10
3404.153011747474
 20
9405.36781135656
 30
0.0
  0
POINT
  5
1D40F
330
163ED
100
AcDbEntity
  8
DEFPOINTS
 62
     0
 48
50.0
100
AcDbPoint
 10
3404.153011747474
 20
9921.176030981541
 30
0.0
  0
ENDBLK
  5
164BC
330
163ED
100
AcDbEntity
  8
0
 48
50.0
100
AcDbBlockEnd
  0
BLOCK
  5
164BD
330
163FB
100
AcDbEntity
  8
0
 48
50.0
100
AcDbBlockBegin
  2
*D13
 70
     1
 10
0.0
 20
0.0
 30
0.0
  3
*D13
  1

  0
LINE
  5
1D3FA
330
163FB
100
AcDbEntity
  8
寸法
 62
     0
 48
50.0
370
    -2
100
AcDbLine
 10
8554.153011747477
 20
9425.3678113568
 30
0.0
 11
8554.153011747477
 21
9981.176030981785
 31
0.0
  0
LINE
  5
1D3FB
330
163FB
100
AcDbEntity
  8
寸法
 62
     0
 48
50.0
370
    -2
100
AcDbLine
 10
8609.153011747476
 20
9425.3678113568
 30
0.0
 11
8609.153011747476
 21
9981.176030981785
 31
0.0
  0
LINE
  5
1D3FC
330
163FB
100
AcDbEntity
  8
寸法
 62
     0
 48
50.0
370
    -2
100
AcDbLine
 10
8554.153011747477
 20
9921.176030981786
 30
0.0
 11
8454.153011747477
 21
9921.176030981786
 31
0.0
  0
LINE
  5
1D3FD
330
163FB
100
AcDbEntity
  8
寸法
 62
     0
 48
50.0
370
    -2
100
AcDbLine
 10
8609.153011747476
 20
9921.176030981786
 30
0.0
 11
9026.123574495953
 21
9921.176030981786
 31
0.0
  0
LINE
  5
1D3FE
330
163FB
100
AcDbEntity
  8
寸法
 62
     0
 48
50.0
370
    -2
100
AcDbLine
 10
8554.153011747477
 20
9921.176030981786
 30
0.0
 11
8609.153011747476
 21
9921.176030981786
 31
0.0
  0
INSERT
  5
1D3FF
330
163FB
100
AcDbEntity
  8
寸法
 62
     0
 48
50.0
370
    -2
100
AcDbBlockReference
  2
_DOTSMALL
 10
8554.153011747477
 20
9921.176030981786
 30
0.0
 41
100.0
 42
100.0
 43
100.0
  0
INSERT
  5
1D400
330
163FB
100
AcDbEntity
  8
寸法
 62
     0
 48
50.0
370
    -2
100
AcDbBlockReference
  2
_DOTSMALL
 10
8609.153011747476
 20
9921.176030981786
 30
0.0
 41
100.0
 42
100.0
 43
100.0
 50
180.0
  0
MTEXT
  5
1D401
330
163FB
100
AcDbEntity
  8
寸法
 62
     7
 48
50.0
100
AcDbMText
 10
8917.638293121715
 20
10021.17603098178
 30
0.0
 40
120.0
 41
0.0
 71
     5
 72
     1
  1
\A1;55
  7
STYLE1
 73
     1
 44
1.0
1001
ACAD
1000
MTEXTBEGIN
1070
    73
1070
     1
1070
    44
1040
1.0
1070
    74
1070
     0
1000
MTEXTEND
  0
POINT
  5
1D402
330
163FB
100
AcDbEntity
  8
DEFPOINTS
 62
     0
 48
50.0
100
AcDbPoint
 10
8554.153011747477
 20
9405.367811356802
 30
0.0
  0
POINT
  5
1D403
330
163FB
100
AcDbEntity
  8
DEFPOINTS
 62
     0
 48
50.0
100
AcDbPoint
 10
8609.153011747476
 20
9405.367811356802
 30
0.0
  0
POINT
  5
1D404
330
163FB
100
AcDbEntity
  8
DEFPOINTS
 62
     0
 48
50.0
100
AcDbPoint
 10
8609.153011747476
 20
9921.176030981786
 30
0.0
  0
ENDBLK
  5
164C9
330
163FB
100
AcDbEntity
  8
0
 48
50.0
100
AcDbBlockEnd
  0
BLOCK
  5
165B6
330
165B5
100
AcDbEntity
  8
0
 48
50.0
100
AcDbBlockBegin
  2
*D14
 70
     1
 10
0.0
 20
0.0
 30
0.0
  3
*D14
  1

  0
LINE
  5
1A75F
330
165B5
100
AcDbEntity
  8
寸法
 62
     0
 48
50.0
370
    -2
100
AcDbLine
 10
3452.153011747469
 20
7621.367811356555
 30
0.0
 11
3452.153011747469
 21
7020.937040590389
 31
0.0
  0
LINE
  5
1A760
330
165B5
100
AcDbEntity
  8
寸法
 62
     0
 48
50.0
370
    -2
100
AcDbLine
 10
3404.153011747465
 20
7595.367811356554
 30
0.0
 11
3404.153011747465
 21
7020.937040590389
 31
0.0
  0
LINE
  5
1A761
330
165B5
100
AcDbEntity
  8
寸法
 62
     0
 48
50.0
370
    -2
100
AcDbLine
 10
3452.153011747469
 20
7080.937040590391
 30
0.0
 11
3552.153011747469
 21
7080.937040590391
 31
0.0
  0
LINE
  5
1A762
330
165B5
100
AcDbEntity
  8
寸法
 62
     0
 48
50.0
370
    -2
100
AcDbLine
 10
3404.153011747465
 20
7080.937040590391
 30
0.0
 11
3304.153011747465
 21
7080.937040590391
 31
0.0
  0
MTEXT
  5
1A763
330
165B5
100
AcDbEntity
  8
寸法
 62
     7
 48
50.0
100
AcDbMText
 10
3565.054982747526
 20
7180.93704059039
 30
0.0
 40
120.0
 41
0.0
 71
     5
 72
     1
  1
\A1;48
  7
STYLE1
 73
     1
 44
1.0
1001
ACAD
1000
MTEXTBEGIN
1070
    73
1070
     1
1070
    44
1040
1.0
1070
    74
1070
     0
1000
MTEXTEND
  0
LINE
  5
1A764
330
165B5
100
AcDbEntity
  8
寸法
 62
     0
 48
50.0
370
    -2
100
AcDbLine
 10
3452.153011747469
 20
7080.937040590391
 30
0.0
 11
3404.153011747465
 21
7080.937040590391
 31
0.0
  0
INSERT
  5
1A765
330
165B5
100
AcDbEntity
  8
寸法
 62
     0
 48
50.0
370
    -2
100
AcDbBlockReference
  2
_DOTSMALL
 10
3452.153011747469
 20
7080.937040590391
 30
0.0
 41
100.0
 42
100.0
 43
100.0
 50
180.0
  0
INSERT
  5
1A766
330
165B5
100
AcDbEntity
  8
寸法
 62
     0
 48
50.0
370
    -2
100
AcDbBlockReference
  2
_DOTSMALL
 10
3404.153011747465
 20
7080.937040590391
 30
0.0
 41
100.0
 42
100.0
 43
100.0
  0
POINT
  5
1A767
330
165B5
100
AcDbEntity
  8
DEFPOINTS
 62
     0
 48
50.0
100
AcDbPoint
 10
3452.153011747469
 20
7641.367811356555
 30
0.0
  0
POINT
  5
1A768
330
165B5
100
AcDbEntity
  8
DEFPOINTS
 62
     0
 48
50.0
100
AcDbPoint
 10
3404.153011747465
 20
7615.367811356555
 30
0.0
  0
POINT
  5
1A769
330
165B5
100
AcDbEntity
  8
DEFPOINTS
 62
     0
 48
50.0
100
AcDbPoint
 10
3404.153011747465
 20
7080.937040590391
 30
0.0
  0
ENDBLK
  5
165C3
330
165B5
100
AcDbEntity
  8
0
 48
50.0
100
AcDbBlockEnd
  0
BLOCK
  5
165C5
330
165C4
100
AcDbEntity
  8
0
 48
50.0
100
AcDbBlockBegin
  2
*D15
 70
     1
 10
0.0
 20
0.0
 30
0.0
  3
*D15
  1

  0
LINE
  5
1A76A
330
165C4
100
AcDbEntity
  8
寸法
 62
     0
 48
50.0
370
    -2
100
AcDbLine
 10
5924.153011747453
 20
7595.367811356789
 30
0.0
 11
5924.153011747453
 21
7020.937040590538
 31
0.0
  0
LINE
  5
1A76B
330
165C4
100
AcDbEntity
  8
寸法
 62
     0
 48
50.0
370
    -2
100
AcDbLine
 10
5876.153011747451
 20
7621.367811356702
 30
0.0
 11
5876.153011747451
 21
7020.937040590538
 31
0.0
  0
LINE
  5
1A76C
330
165C4
100
AcDbEntity
  8
寸法
 62
     0
 48
50.0
370
    -2
100
AcDbLine
 10
5924.153011747453
 20
7080.937040590537
 30
0.0
 11
6024.153011747452
 21
7080.937040590537
 31
0.0
  0
LINE
  5
1A76D
330
165C4
100
AcDbEntity
  8
寸法
 62
     0
 48
50.0
370
    -2
100
AcDbLine
 10
5876.153011747451
 20
7080.937040590537
 30
0.0
 11
5776.15301174745
 21
7080.937040590537
 31
0.0
  0
MTEXT
  5
1A76E
330
165C4
100
AcDbEntity
  8
寸法
 62
     7
 48
50.0
100
AcDbMText
 10
5765.190114098703
 20
7180.937040590537
 30
0.0
 40
120.0
 41
0.0
 71
     5
 72
     1
  1
\A1;48
  7
STYLE1
 73
     1
 44
1.0
1001
ACAD
1000
MTEXTBEGIN
1070
    73
1070
     1
1070
    44
1040
1.0
1070
    74
1070
     0
1000
MTEXTEND
  0
LINE
  5
1A76F
330
165C4
100
AcDbEntity
  8
寸法
 62
     0
 48
50.0
370
    -2
100
AcDbLine
 10
5924.153011747453
 20
7080.937040590537
 30
0.0
 11
5876.153011747451
 21
7080.937040590537
 31
0.0
  0
INSERT
  5
1A770
330
165C4
100
AcDbEntity
  8
寸法
 62
     0
 48
50.0
370
    -2
100
AcDbBlockReference
  2
_DOTSMALL
 10
5924.153011747453
 20
7080.937040590537
 30
0.0
 41
100.0
 42
100.0
 43
100.0
 50
180.0
  0
INSERT
  5
1A771
330
165C4
100
AcDbEntity
  8
寸法
 62
     0
 48
50.0
370
    -2
100
AcDbBlockReference
  2
_DOTSMALL
 10
5876.153011747451
 20
7080.937040590537
 30
0.0
 41
100.0
 42
100.0
 43
100.0
  0
POINT
  5
1A772
330
165C4
100
AcDbEntity
  8
DEFPOINTS
 62
     0
 48
50.0
100
AcDbPoint
 10
5924.153011747453
 20
7615.367811356789
 30
0.0
  0
POINT
  5
1A773
330
165C4
100
AcDbEntity
  8
DEFPOINTS
 62
     0
 48
50.0
100
AcDbPoint
 10
5876.153011747451
 20
7641.367811356701
 30
0.0
  0
POINT
  5
1A774
330
165C4
100
AcDbEntity
  8
DEFPOINTS
 62
     0
 48
50.0
100
AcDbPoint
 10
5876.153011747451
 20
7080.937040590537
 30
0.0
  0
ENDBLK
  5
165D2
330
165C4
100
AcDbEntity
  8
0
 48
50.0
100
AcDbBlockEnd
  0
BLOCK
  5
1663F
330
165EA
100
AcDbEntity
  8
0
 48
50.0
100
AcDbBlockBegin
  2
*D16
 70
     1
 10
0.0
 20
0.0
 30
0.0
  3
*D16
  1

  0
LINE
  5
1A756
330
165EA
100
AcDbEntity
  8
寸法
 62
     0
 48
50.0
370
    -2
100
AcDbLine
 10
6034.153011747465
 20
7595.367811356702
 30
0.0
 11
6034.153011747465
 21
7020.937040590538
 31
0.0
  0
LINE
  5
1A757
330
165EA
100
AcDbEntity
  8
寸法
 62
     0
 48
50.0
370
    -2
100
AcDbLine
 10
5924.153011747453
 20
7595.367811356789
 30
0.0
 11
5924.153011747453
 21
7020.937040590538
 31
0.0
  0
LINE
  5
1A758
330
165EA
100
AcDbEntity
  8
寸法
 62
     0
 48
50.0
370
    -2
100
AcDbLine
 10
6034.153011747465
 20
7080.937040590537
 30
0.0
 11
5924.153011747453
 21
7080.937040590537
 31
0.0
  0
MTEXT
  5
1A759
330
165EA
100
AcDbEntity
  8
寸法
 62
     7
 48
50.0
100
AcDbMText
 10
5979.15301174746
 20
6929.245145554308
 30
0.0
 40
120.0
 41
0.0
 71
     5
 72
     1
  1
\A1;110
  7
STYLE1
 73
     1
 44
1.0
1001
ACAD
1000
MTEXTBEGIN
1070
    73
1070
     1
1070
    44
1040
1.0
1070
    74
1070
     0
1000
MTEXTEND
  0
INSERT
  5
1A75A
330
165EA
100
AcDbEntity
  8
寸法
 62
     0
 48
50.0
370
    -2
100
AcDbBlockReference
  2
_DOTSMALL
 10
6034.153011747465
 20
7080.937040590537
 30
0.0
 41
100.0
 42
100.0
 43
100.0
  0
INSERT
  5
1A75B
330
165EA
100
AcDbEntity
  8
寸法
 62
     0
 48
50.0
370
    -2
100
AcDbBlockReference
  2
_DOTSMALL
 10
5924.153011747453
 20
7080.937040590537
 30
0.0
 41
100.0
 42
100.0
 43
100.0
 50
180.0
  0
POINT
  5
1A75C
330
165EA
100
AcDbEntity
  8
DEFPOINTS
 62
     0
 48
50.0
100
AcDbPoint
 10
6034.153011747465
 20
7615.367811356702
 30
0.0
  0
POINT
  5
1A75D
330
165EA
100
AcDbEntity
  8
DEFPOINTS
 62
     0
 48
50.0
100
AcDbPoint
 10
5924.153011747453
 20
7615.367811356789
 30
0.0
  0
POINT
  5
1A75E
330
165EA
100
AcDbEntity
  8
DEFPOINTS
 62
     0
 48
50.0
100
AcDbPoint
 10
5924.153011747453
 20
7080.937040590537
 30
0.0
  0
ENDBLK
  5
16649
330
165EA
100
AcDbEntity
  8
0
 48
50.0
100
AcDbBlockEnd
  0
BLOCK
  5
1A0B5
330
166CF
100
AcDbEntity
  8
0
 48
50.0
100
AcDbBlockBegin
  2
*D17
 70
     1
 10
0.0
 20
0.0
 30
0.0
  3
*D17
  1

  0
LINE
  5
1D3EF
330
166CF
100
AcDbEntity
  8
寸法
 62
     0
 48
50.0
370
    -2
100
AcDbLine
 10
6034.153011747473
 20
9425.367811356755
 30
0.0
 11
6034.153011747473
 21
9981.176030981805
 31
0.0
  0
LINE
  5
1D3F0
330
166CF
100
AcDbEntity
  8
寸法
 62
     0
 48
50.0
370
    -2
100
AcDbLine
 10
5924.153011747476
 20
9425.367811356752
 30
0.0
 11
5924.153011747476
 21
9981.176030981805
 31
0.0
  0
LINE
  5
1D3F1
330
166CF
100
AcDbEntity
  8
寸法
 62
     0
 48
50.0
370
    -2
100
AcDbLine
 10
6034.153011747473
 20
9921.176030981804
 30
0.0
 11
6134.153011747474
 21
9921.176030981804
 31
0.0
  0
LINE
  5
1D3F2
330
166CF
100
AcDbEntity
  8
寸法
 62
     0
 48
50.0
370
    -2
100
AcDbLine
 10
5924.153011747476
 20
9921.176030981804
 30
0.0
 11
5824.153011747476
 21
9921.176030981804
 31
0.0
  0
LINE
  5
1D3F3
330
166CF
100
AcDbEntity
  8
寸法
 62
     0
 48
50.0
370
    -2
100
AcDbLine
 10
6034.153011747473
 20
9921.176030981804
 30
0.0
 11
5924.153011747476
 21
9921.176030981804
 31
0.0
  0
INSERT
  5
1D3F4
330
166CF
100
AcDbEntity
  8
寸法
 62
     0
 48
50.0
370
    -2
100
AcDbBlockReference
  2
_DOTSMALL
 10
6034.153011747473
 20
9921.176030981804
 30
0.0
 41
100.0
 42
100.0
 43
100.0
 50
180.0
  0
INSERT
  5
1D3F5
330
166CF
100
AcDbEntity
  8
寸法
 62
     0
 48
50.0
370
    -2
100
AcDbBlockReference
  2
_DOTSMALL
 10
5924.153011747476
 20
9921.176030981804
 30
0.0
 41
100.0
 42
100.0
 43
100.0
  0
MTEXT
  5
1D3F6
330
166CF
100
AcDbEntity
  8
寸法
 62
     7
 48
50.0
100
AcDbMText
 10
5979.153011747475
 20
10021.1760309818
 30
0.0
 40
120.0
 41
0.0
 71
     5
 72
     1
  1
\A1;110
  7
STYLE1
 73
     1
 44
1.0
1001
ACAD
1000
MTEXTBEGIN
1070
    73
1070
     1
1070
    44
1040
1.0
1070
    74
1070
     0
1000
MTEXTEND
  0
POINT
  5
1D3F7
330
166CF
100
AcDbEntity
  8
DEFPOINTS
 62
     0
 48
50.0
100
AcDbPoint
 10
6034.153011747473
 20
9405.367811356756
 30
0.0
  0
POINT
  5
1D3F8
330
166CF
100
AcDbEntity
  8
DEFPOINTS
 62
     0
 48
50.0
100
AcDbPoint
 10
5924.153011747476
 20
9405.367811356752
 30
0.0
  0
POINT
  5
1D3F9
330
166CF
100
AcDbEntity
  8
DEFPOINTS
 62
     0
 48
50.0
100
AcDbPoint
 10
5924.153011747476
 20
9921.176030981804
 30
0.0
  0
ENDBLK
  5
1A0C1
330
166CF
100
AcDbEntity
  8
0
 48
50.0
100
AcDbBlockEnd
  0
BLOCK
  5
1A0AA
330
16908
100
AcDbEntity
  8
0
 48
50.0
100
AcDbBlockBegin
  2
*D18
 70
     1
 10
0.0
 20
0.0
 30
0.0
  3
*D18
  1

  0
LINE
  5
1D3E6
330
16908
100
AcDbEntity
  8
寸法
 62
     0
 48
50.0
370
    -2
100
AcDbLine
 10
5979.153011747476
 20
10100.16394533975
 30
0.0
 11
5979.153011747476
 21
10230.4975045381
 31
0.0
  0
LINE
  5
1D3E7
330
16908
100
AcDbEntity
  8
寸法
 62
     0
 48
50.0
370
    -2
100
AcDbLine
 10
8609.153011747476
 20
9425.3678113568
 30
0.0
 11
8609.153011747476
 21
10230.4975045381
 31
0.0
  0
LINE
  5
1D3E8
330
16908
100
AcDbEntity
  8
寸法
 62
     0
 48
50.0
370
    -2
100
AcDbLine
 10
5979.153011747476
 20
10170.4975045381
 30
0.0
 11
8609.153011747476
 21
10170.4975045381
 31
0.0
  0
INSERT
  5
1D3E9
330
16908
100
AcDbEntity
  8
寸法
 62
     0
 48
50.0
370
    -2
100
AcDbBlockReference
  2
_DOTSMALL
 10
5979.153011747476
 20
10170.4975045381
 30
0.0
 41
100.0
 42
100.0
 43
100.0
 50
180.0
  0
INSERT
  5
1D3EA
330
16908
100
AcDbEntity
  8
寸法
 62
     0
 48
50.0
370
    -2
100
AcDbBlockReference
  2
_DOTSMALL
 10
8609.153011747476
 20
10170.4975045381
 30
0.0
 41
100.0
 42
100.0
 43
100.0
  0
MTEXT
  5
1D3EB
330
16908
100
AcDbEntity
  8
寸法
 62
     7
 48
50.0
100
AcDbMText
 10
7294.153011747475
 20
10270.50931556172
 30
0.0
 40
120.0
 41
0.0
 71
     5
 72
     1
  1
\A1;2630
  7
STYLE1
 73
     1
 44
1.0
1001
ACAD
1000
MTEXTBEGIN
1070
    73
1070
     1
1070
    44
1040
1.0
1070
    74
1070
     0
1000
MTEXTEND
  0
POINT
  5
1D3EC
330
16908
100
AcDbEntity
  8
DEFPOINTS
 62
     0
 48
50.0
100
AcDbPoint
 10
5979.153011747476
 20
10080.16394533975
 30
0.0
  0
POINT
  5
1D3ED
330
16908
100
AcDbEntity
  8
DEFPOINTS
 62
     0
 48
50.0
100
AcDbPoint
 10
8609.153011747476
 20
9405.367811356802
 30
0.0
  0
POINT
  5
1D3EE
330
16908
100
AcDbEntity
  8
DEFPOINTS
 62
     0
 48
50.0
100
AcDbPoint
 10
8609.153011747476
 20
10170.4975045381
 30
0.0
  0
ENDBLK
  5
1A0B4
330
16908
100
AcDbEntity
  8
0
 48
50.0
100
AcDbBlockEnd
  0
BLOCK
  5
17CC2
330
17CC1
100
AcDbEntity
  8
0
 48
50.0
100
AcDbBlockBegin
  2
*D19
 70
     1
 10
0.0
 20
0.0
 30
0.0
  3
*D19
  1

  0
LINE
  5
1A726
330
17CC1
100
AcDbEntity
  8
寸法
 62
     0
 48
50.0
370
    -2
100
AcDbLine
 10
5924.153011747453
 20
7595.367811356642
 30
0.0
 11
5924.153011747453
 21
7020.937040590389
 31
0.0
  0
LINE
  5
1A727
330
17CC1
100
AcDbEntity
  8
寸法
 62
     0
 48
50.0
370
    -2
100
AcDbLine
 10
5876.153011747451
 20
7621.367811356555
 30
0.0
 11
5876.153011747451
 21
7020.937040590389
 31
0.0
  0
LINE
  5
1A728
330
17CC1
100
AcDbEntity
  8
寸法
 62
     0
 48
50.0
370
    -2
100
AcDbLine
 10
5924.153011747453
 20
7080.937040590391
 30
0.0
 11
6024.153011747452
 21
7080.937040590391
 31
0.0
  0
LINE
  5
1A729
330
17CC1
100
AcDbEntity
  8
寸法
 62
     0
 48
50.0
370
    -2
100
AcDbLine
 10
5876.153011747451
 20
7080.937040590391
 30
0.0
 11
5776.15301174745
 21
7080.937040590391
 31
0.0
  0
MTEXT
  5
1A72A
330
17CC1
100
AcDbEntity
  8
寸法
 62
     7
 48
50.0
100
AcDbMText
 10
5765.190114098703
 20
7180.93704059039
 30
0.0
 40
120.0
 41
0.0
 71
     5
 72
     1
  1
\A1;48
  7
STYLE1
 73
     1
 44
1.0
1001
ACAD
1000
MTEXTBEGIN
1070
    73
1070
     1
1070
    44
1040
1.0
1070
    74
1070
     0
1000
MTEXTEND
  0
LINE
  5
1A72B
330
17CC1
100
AcDbEntity
  8
寸法
 62
     0
 48
50.0
370
    -2
100
AcDbLine
 10
5924.153011747453
 20
7080.937040590391
 30
0.0
 11
5876.153011747451
 21
7080.937040590391
 31
0.0
  0
INSERT
  5
1A72C
330
17CC1
100
AcDbEntity
  8
寸法
 62
     0
 48
50.0
370
    -2
100
AcDbBlockReference
  2
_DOTSMALL
 10
5924.153011747453
 20
7080.937040590391
 30
0.0
 41
100.0
 42
100.0
 43
100.0
 50
180.0
  0
INSERT
  5
1A72D
330
17CC1
100
AcDbEntity
  8
寸法
 62
     0
 48
50.0
370
    -2
100
AcDbBlockReference
  2
_DOTSMALL
 10
5876.153011747451
 20
7080.937040590391
 30
0.0
 41
100.0
 42
100.0
 43
100.0
  0
POINT
  5
1A72E
330
17CC1
100
AcDbEntity
  8
DEFPOINTS
 62
     0
 48
50.0
100
AcDbPoint
 10
5924.153011747453
 20
7615.367811356643
 30
0.0
  0
POINT
  5
1A72F
330
17CC1
100
AcDbEntity
  8
DEFPOINTS
 62
     0
 48
50.0
100
AcDbPoint
 10
5876.153011747451
 20
7641.367811356555
 30
0.0
  0
POINT
  5
1A730
330
17CC1
100
AcDbEntity
  8
DEFPOINTS
 62
     0
 48
50.0
100
AcDbPoint
 10
5876.153011747451
 20
7080.937040590391
 30
0.0
  0
ENDBLK
  5
17CCF
330
17CC1
100
AcDbEntity
  8
0
 48
50.0
100
AcDbBlockEnd
  0
BLOCK
  5
185A4
330
17CD0
100
AcDbEntity
  8
0
 48
50.0
100
AcDbBlockBegin
  2
*D20
 70
     1
 10
0.0
 20
0.0
 30
0.0
  3
*D20
  1

  0
LINE
  5
1A731
330
17CD0
100
AcDbEntity
  8
寸法
 62
     0
 48
50.0
370
    -2
100
AcDbLine
 10
3452.153011747469
 20
7621.367811356555
 30
0.0
 11
3452.153011747469
 21
7020.937040590389
 31
0.0
  0
LINE
  5
1A732
330
17CD0
100
AcDbEntity
  8
寸法
 62
     0
 48
50.0
370
    -2
100
AcDbLine
 10
5876.153011747451
 20
7080.937040590391
 30
0.0
 11
3452.153011747469
 21
7080.937040590391
 31
0.0
  0
INSERT
  5
1A733
330
17CD0
100
AcDbEntity
  8
寸法
 62
     0
 48
50.0
370
    -2
100
AcDbBlockReference
  2
_DOTSMALL
 10
5876.153011747451
 20
7080.937040590391
 30
0.0
 41
100.0
 42
100.0
 43
100.0
  0
INSERT
  5
1A734
330
17CD0
100
AcDbEntity
  8
寸法
 62
     0
 48
50.0
370
    -2
100
AcDbBlockReference
  2
_DOTSMALL
 10
3452.153011747469
 20
7080.937040590391
 30
0.0
 41
100.0
 42
100.0
 43
100.0
 50
180.0
  0
MTEXT
  5
1A735
330
17CD0
100
AcDbEntity
  8
寸法
 62
     7
 48
50.0
100
AcDbMText
 10
4664.153011747459
 20
7180.948851614012
 30
0.0
 40
120.0
 41
0.0
 71
     5
 72
     1
  1
\A1;有効開口部間口 2424
  7
STYLE1
 73
     1
 44
1.0
1001
ACAD
1000
MTEXTBEGIN
1070
    73
1070
     1
1070
    44
1040
1.0
1070
    74
1070
     0
1000
MTEXTEND
  0
POINT
  5
1A736
330
17CD0
100
AcDbEntity
  8
DEFPOINTS
 62
     0
 48
50.0
100
AcDbPoint
 10
5876.153011747451
 20
7641.367811356555
 30
0.0
  0
POINT
  5
1A737
330
17CD0
100
AcDbEntity
  8
DEFPOINTS
 62
     0
 48
50.0
100
AcDbPoint
 10
3452.153011747469
 20
7641.367811356555
 30
0.0
  0
POINT
  5
1A738
330
17CD0
100
AcDbEntity
  8
DEFPOINTS
 62
     0
 48
50.0
100
AcDbPoint
 10
3452.153011747469
 20
7080.937040590391
 30
0.0
  0
ENDBLK
  5
185AD
330
17CD0
100
AcDbEntity
  8
0
 48
50.0
100
AcDbBlockEnd
  0
BLOCK
  5
1A09F
330
17D01
100
AcDbEntity
  8
0
 48
50.0
100
AcDbBlockBegin
  2
*D21
 70
     1
 10
0.0
 20
0.0
 30
0.0
  3
*D21
  1

  0
LINE
  5
1D3DD
330
17D01
100
AcDbEntity
  8
寸法
 62
     0
 48
50.0
370
    -2
100
AcDbLine
 10
3349.153011747441
 20
9425.367811356528
 30
0.0
 11
3349.153011747441
 21
10230.49750453795
 31
0.0
  0
LINE
  5
1D3DE
330
17D01
100
AcDbEntity
  8
寸法
 62
     0
 48
50.0
370
    -2
100
AcDbLine
 10
5979.153011747476
 20
10100.1639453396
 30
0.0
 11
5979.153011747476
 21
10230.49750453795
 31
0.0
  0
LINE
  5
1D3DF
330
17D01
100
AcDbEntity
  8
寸法
 62
     0
 48
50.0
370
    -2
100
AcDbLine
 10
3349.153011747441
 20
10170.49750453795
 30
0.0
 11
5979.153011747476
 21
10170.49750453795
 31
0.0
  0
INSERT
  5
1D3E0
330
17D01
100
AcDbEntity
  8
寸法
 62
     0
 48
50.0
370
    -2
100
AcDbBlockReference
  2
_DOTSMALL
 10
3349.153011747441
 20
10170.49750453795
 30
0.0
 41
100.0
 42
100.0
 43
100.0
 50
180.0
  0
INSERT
  5
1D3E1
330
17D01
100
AcDbEntity
  8
寸法
 62
     0
 48
50.0
370
    -2
100
AcDbBlockReference
  2
_DOTSMALL
 10
5979.153011747476
 20
10170.49750453795
 30
0.0
 41
100.0
 42
100.0
 43
100.0
  0
MTEXT
  5
1D3E2
330
17D01
100
AcDbEntity
  8
寸法
 62
     7
 48
50.0
100
AcDbMText
 10
4664.153011747458
 20
10270.50931556157
 30
0.0
 40
120.0
 41
0.0
 71
     5
 72
     1
  1
\A1;2630
  7
STYLE1
 73
     1
 44
1.0
1001
ACAD
1000
MTEXTBEGIN
1070
    73
1070
     1
1070
    44
1040
1.0
1070
    74
1070
     0
1000
MTEXTEND
  0
POINT
  5
1D3E3
330
17D01
100
AcDbEntity
  8
DEFPOINTS
 62
     0
 48
50.0
100
AcDbPoint
 10
3349.153011747441
 20
9405.367811356528
 30
0.0
  0
POINT
  5
1D3E4
330
17D01
100
AcDbEntity
  8
DEFPOINTS
 62
     0
 48
50.0
100
AcDbPoint
 10
5979.153011747476
 20
10080.1639453396
 30
0.0
  0
POINT
  5
1D3E5
330
17D01
100
AcDbEntity
  8
DEFPOINTS
 62
     0
 48
50.0
100
AcDbPoint
 10
5979.153011747476
 20
10170.49750453795
 30
0.0
  0
ENDBLK
  5
1A0A9
330
17D01
100
AcDbEntity
  8
0
 48
50.0
100
AcDbBlockEnd
  0
BLOCK
  5
1A094
330
1A038
100
AcDbEntity
  8
0
 48
50.0
100
AcDbBlockBegin
  2
*D22
 70
     1
 10
0.0
 20
0.0
 30
0.0
  3
*D22
  1

  0
LINE
  5
1D3D4
330
1A038
100
AcDbEntity
  8
寸法
 62
     0
 48
50.0
370
    -2
100
AcDbLine
 10
3404.153011747474
 20
9425.36781135656
 30
0.0
 11
3404.153011747474
 21
9981.176030981657
 31
0.0
  0
LINE
  5
1D3D5
330
1A038
100
AcDbEntity
  8
寸法
 62
     0
 48
50.0
370
    -2
100
AcDbLine
 10
5924.153011747476
 20
9425.367811356656
 30
0.0
 11
5924.153011747476
 21
9981.176030981657
 31
0.0
  0
LINE
  5
1D3D6
330
1A038
100
AcDbEntity
  8
寸法
 62
     0
 48
50.0
370
    -2
100
AcDbLine
 10
3404.153011747474
 20
9921.176030981659
 30
0.0
 11
5924.153011747476
 21
9921.176030981659
 31
0.0
  0
INSERT
  5
1D3D7
330
1A038
100
AcDbEntity
  8
寸法
 62
     0
 48
50.0
370
    -2
100
AcDbBlockReference
  2
_DOTSMALL
 10
3404.153011747474
 20
9921.176030981659
 30
0.0
 41
100.0
 42
100.0
 43
100.0
 50
180.0
  0
INSERT
  5
1D3D8
330
1A038
100
AcDbEntity
  8
寸法
 62
     0
 48
50.0
370
    -2
100
AcDbBlockReference
  2
_DOTSMALL
 10
5924.153011747476
 20
9921.176030981659
 30
0.0
 41
100.0
 42
100.0
 43
100.0
  0
MTEXT
  5
1D3D9
330
1A038
100
AcDbEntity
  8
寸法
 62
     7
 48
50.0
100
AcDbMText
 10
4664.153011747475
 20
10021.18784200528
 30
0.0
 40
120.0
 41
0.0
 71
     5
 72
     1
  1
\A1;6X420=2520
  7
STYLE1
 73
     1
 44
1.0
1001
ACAD
1000
MTEXTBEGIN
1070
    73
1070
     1
1070
    44
1040
1.0
1070
    74
1070
     0
1000
MTEXTEND
  0
POINT
  5
1D3DA
330
1A038
100
AcDbEntity
  8
DEFPOINTS
 62
     0
 48
50.0
100
AcDbPoint
 10
3404.153011747474
 20
9405.36781135656
 30
0.0
  0
POINT
  5
1D3DB
330
1A038
100
AcDbEntity
  8
DEFPOINTS
 62
     0
 48
50.0
100
AcDbPoint
 10
5924.153011747476
 20
9405.367811356654
 30
0.0
  0
POINT
  5
1D3DC
330
1A038
100
AcDbEntity
  8
DEFPOINTS
 62
     0
 48
50.0
100
AcDbPoint
 10
5924.153011747476
 20
9921.176030981659
 30
0.0
  0
ENDBLK
  5
1A09E
330
1A038
100
AcDbEntity
  8
0
 48
50.0
100
AcDbBlockEnd
  0
BLOCK
  5
1A4AB
330
1A49F
100
AcDbEntity
  8
0
 48
50.0
100
AcDbBlockBegin
  2
*D23
 70
     1
 10
0.0
 20
0.0
 30
0.0
  3
*D23
  1

  0
LINE
  5
1A685
330
1A49F
100
AcDbEntity
  8
寸法
 62
     0
 48
50.0
370
    -2
100
AcDbLine
 10
8600.653011747475
 20
9370.00882750819
 30
0.0
 11
8996.0107376095
 21
9264.073044142055
 31
0.0
  0
LINE
  5
1A686
330
1A49F
100
AcDbEntity
  8
寸法
 62
     0
 48
50.0
370
    -2
100
AcDbLine
 10
8600.653011747475
 20
8920.008827508192
 30
0.0
 11
8996.0107376095
 21
8814.073044142059
 31
0.0
  0
LINE
  5
1A687
330
1A49F
100
AcDbEntity
  8
寸法
 62
     0
 48
50.0
370
    -2
100
AcDbLine
 10
8936.0107376095
 20
9280.149995687921
 30
0.0
 11
8936.0107376095
 21
8830.149995687925
 31
0.0
  0
INSERT
  5
1A688
330
1A49F
100
AcDbEntity
  8
寸法
 62
     0
 48
50.0
370
    -2
100
AcDbBlockReference
  2
_DOTSMALL
 10
8936.0107376095
 20
9280.149995687921
 30
0.0
 41
100.0
 42
100.0
 43
100.0
 50
90.0
  0
INSERT
  5
1A689
330
1A49F
100
AcDbEntity
  8
寸法
 62
     0
 48
50.0
370
    -2
100
AcDbBlockReference
  2
_DOTSMALL
 10
8936.0107376095
 20
8830.149995687925
 30
0.0
 41
100.0
 42
100.0
 43
100.0
 50
270.0
  0
MTEXT
  5
1A68A
330
1A49F
100
AcDbEntity
  8
寸法
 62
     7
 48
50.0
100
AcDbMText
 10
8836.010737609498
 20
9055.149995687925
 30
0.0
 40
120.0
 41
0.0
 71
     5
 72
     1
  1
\A1;450
  7
STYLE1
 11
0.0000000000000001
 21
1.0
 31
0.0
 73
     1
 44
1.0
1001
ACAD
1000
MTEXTBEGIN
1070
    73
1070
     1
1070
    44
1040
1.0
1070
    74
1070
     0
1000
MTEXTEND
  0
POINT
  5
1A68B
330
1A49F
100
AcDbEntity
  8
DEFPOINTS
 62
     0
 48
50.0
100
AcDbPoint
 10
8580.653011747477
 20
9375.367811356811
 30
0.0
  0
POINT
  5
1A68C
330
1A49F
100
AcDbEntity
  8
DEFPOINTS
 62
     0
 48
50.0
100
AcDbPoint
 10
8580.653011747477
 20
8925.367811356816
 30
0.0
  0
POINT
  5
1A68D
330
1A49F
100
AcDbEntity
  8
DEFPOINTS
 62
     0
 48
50.0
100
AcDbPoint
 10
8936.0107376095
 20
8830.149995687925
 30
0.0
  0
ENDBLK
  5
1A4B5
330
1A49F
100
AcDbEntity
  8
0
 48
50.0
100
AcDbBlockEnd
  0
BLOCK
  5
1B5A4
330
1B599
100
AcDbEntity
  8
0
 48
50.0
100
AcDbBlockBegin
  2
*D24
 70
     1
 10
0.0
 20
0.0
 30
0.0
  3
*D24
  1

  0
LINE
  5
1B694
330
1B599
100
AcDbEntity
  8
寸法
 62
     0
 48
50.0
370
    -2
100
AcDbLine
 10
11331.70334878777
 20
4931.083057661043
 30
0.0
 11
10715.76890968251
 21
4948.797207935363
 31
0.0
  0
LINE
  5
1B695
330
1B599
100
AcDbEntity
  8
寸法
 62
     0
 48
50.0
370
    -2
100
AcDbLine
 10
11327.64989323115
 20
4790.141333895329
 30
0.0
 11
10711.71545412588
 21
4807.855484169651
 31
0.0
  0
LINE
  5
1B696
330
1B599
100
AcDbEntity
  8
寸法
 62
     0
 48
50.0
370
    -2
100
AcDbLine
 10
10771.69065572831
 20
4806.130609464704
 30
0.0
 11
10775.74411128494
 21
4947.072333230416
 31
0.0
  0
LINE
  5
1B697
330
1B599
100
AcDbEntity
  8
寸法
 62
     0
 48
50.0
370
    -2
100
AcDbLine
 10
10775.74411128494
 20
4947.072333230416
 30
0.0
 11
10786.09335951462
 21
5306.923542845005
 31
0.0
  0
INSERT
  5
1B698
330
1B599
100
AcDbEntity
  8
寸法
 62
     0
 48
50.0
370
    -2
100
AcDbBlockReference
  2
_DOTSMALL
 10
10771.69065572831
 20
4806.130609464704
 30
0.0
 41
100.0
 42
100.0
 43
100.0
 50
268.3526390256385
  0
INSERT
  5
1B699
330
1B599
100
AcDbEntity
  8
寸法
 62
     0
 48
50.0
370
    -2
100
AcDbBlockReference
  2
_DOTSMALL
 10
10775.74411128494
 20
4947.072333230416
 30
0.0
 41
100.0
 42
100.0
 43
100.0
 50
88.35263902563855
  0
MTEXT
  5
1B69A
330
1B599
100
AcDbEntity
  8
寸法
 62
     7
 48
50.0
100
AcDbMText
 10
10682.39746164985
 20
5179.852063881317
 30
0.0
 40
120.0
 41
0.0
 71
     5
 72
     1
  1
\A1;141
  7
STYLE1
 11
0.0287479117491103
 21
0.999586693373849
 31
0.0
 73
     1
 44
1.0
1001
ACAD
1000
MTEXTBEGIN
1070
    73
1070
     1
1070
    44
1040
1.0
1070
    74
1070
     0
1000
MTEXTEND
  0
POINT
  5
1B69B
330
1B599
100
AcDbEntity
  8
DEFPOINTS
 62
     0
 48
50.0
100
AcDbPoint
 10
11351.69508265525
 20
4930.50809942606
 30
0.0
  0
POINT
  5
1B69C
330
1B599
100
AcDbEntity
  8
DEFPOINTS
 62
     0
 48
50.0
100
AcDbPoint
 10
11347.64162709863
 20
4789.566375660347
 30
0.0
  0
POINT
  5
1B69D
330
1B599
100
AcDbEntity
  8
DEFPOINTS
 62
     0
 48
50.0
100
AcDbPoint
 10
10771.69065572831
 20
4806.130609464704
 30
0.0
  0
ENDBLK
  5
1B5A5
330
1B599
100
AcDbEntity
  8
0
 48
50.0
100
AcDbBlockEnd
  0
BLOCK
  5
1B5B0
330
1B5A6
100
AcDbEntity
  8
0
 48
50.0
100
AcDbBlockBegin
  2
*D25
 70
     1
 10
0.0
 20
0.0
 30
0.0
  3
*D25
  1

  0
LINE
  5
1DA9C
330
1B5A6
100
AcDbEntity
  8
寸法
 62
     0
 48
50.0
370
    -2
100
AcDbLine
 10
13182.29906249667
 20
4898.596030203034
 30
0.0
 11
13182.29906249667
 21
5390.878519930854
 31
0.0
  0
LINE
  5
1DA9D
330
1B5A6
100
AcDbEntity
  8
寸法
 62
     0
 48
50.0
370
    -2
100
AcDbLine
 10
11392.29906249668
 20
4947.786968714357
 30
0.0
 11
11392.29906249668
 21
5390.878519930854
 31
0.0
  0
LINE
  5
1DA9E
330
1B5A6
100
AcDbEntity
  8
寸法
 62
     0
 48
50.0
370
    -2
100
AcDbLine
 10
13182.29906249667
 20
5330.878519930855
 30
0.0
 11
11392.29906249668
 21
5330.878519930855
 31
0.0
  0
INSERT
  5
1DA9F
330
1B5A6
100
AcDbEntity
  8
寸法
 62
     0
 48
50.0
370
    -2
100
AcDbBlockReference
  2
_DOTSMALL
 10
13182.29906249667
 20
5330.878519930855
 30
0.0
 41
100.0
 42
100.0
 43
100.0
  0
INSERT
  5
1DAA0
330
1B5A6
100
AcDbEntity
  8
寸法
 62
     0
 48
50.0
370
    -2
100
AcDbBlockReference
  2
_DOTSMALL
 10
11392.29906249668
 20
5330.878519930855
 30
0.0
 41
100.0
 42
100.0
 43
100.0
 50
180.0
  0
MTEXT
  5
1DAA1
330
1B5A6
100
AcDbEntity
  8
寸法
 62
     7
 48
50.0
100
AcDbMText
 10
12287.29906249667
 20
5430.878519930854
 30
0.0
 40
120.0
 41
0.0
 71
     5
 72
     1
  1
\A1;柱外寸法1790
  7
STYLE1
 73
     1
 44
1.0
1001
ACAD
1000
MTEXTBEGIN
1070
    73
1070
     1
1070
    44
1040
1.0
1070
    74
1070
     0
1000
MTEXTEND
  0
POINT
  5
1DAA2
330
1B5A6
100
AcDbEntity
  8
DEFPOINTS
 62
     0
 48
50.0
100
AcDbPoint
 10
13182.29906249667
 20
4878.596030203034
 30
0.0
  0
POINT
  5
1DAA3
330
1B5A6
100
AcDbEntity
  8
DEFPOINTS
 62
     0
 48
50.0
100
AcDbPoint
 10
11392.29906249668
 20
4927.786968714357
 30
0.0
  0
POINT
  5
1DAA4
330
1B5A6
100
AcDbEntity
  8
DEFPOINTS
 62
     0
 48
50.0
100
AcDbPoint
 10
11392.29906249668
 20
5330.878519930855
 30
0.0
  0
ENDBLK
  5
1B5B1
330
1B5A6
100
AcDbEntity
  8
0
 48
50.0
100
AcDbBlockEnd
  0
BLOCK
  5
1B5BE
330
1B5B2
100
AcDbEntity
  8
0
 48
50.0
100
AcDbBlockBegin
  2
*D26
 70
     1
 10
0.0
 20
0.0
 30
0.0
  3
*D26
  1

  0
LINE
  5
1B6A7
330
1B5B2
100
AcDbEntity
  8
寸法
 62
     0
 48
50.0
370
    -2
100
AcDbLine
 10
11392.29906249668
 20
4947.786968714357
 30
0.0
 11
11392.29906249668
 21
5390.878519930854
 31
0.0
  0
LINE
  5
1B6A8
330
1B5B2
100
AcDbEntity
  8
寸法
 62
     0
 48
50.0
370
    -2
100
AcDbLine
 10
11332.29906249668
 20
4951.785350591386
 30
0.0
 11
11332.29906249668
 21
5390.878519930854
 31
0.0
  0
LINE
  5
1B6A9
330
1B5B2
100
AcDbEntity
  8
寸法
 62
     0
 48
50.0
370
    -2
100
AcDbLine
 10
11392.29906249668
 20
5330.878519930855
 30
0.0
 11
11492.29906249668
 21
5330.878519930855
 31
0.0
  0
LINE
  5
1B6AA
330
1B5B2
100
AcDbEntity
  8
寸法
 62
     0
 48
50.0
370
    -2
100
AcDbLine
 10
11332.29906249668
 20
5330.878519930855
 30
0.0
 11
10913.0234719455
 21
5330.878519930855
 31
0.0
  0
LINE
  5
1B6AB
330
1B5B2
100
AcDbEntity
  8
寸法
 62
     0
 48
50.0
370
    -2
100
AcDbLine
 10
11392.29906249668
 20
5330.878519930855
 30
0.0
 11
11332.29906249668
 21
5330.878519930855
 31
0.0
  0
INSERT
  5
1B6AC
330
1B5B2
100
AcDbEntity
  8
寸法
 62
     0
 48
50.0
370
    -2
100
AcDbBlockReference
  2
_DOTSMALL
 10
11392.29906249668
 20
5330.878519930855
 30
0.0
 41
100.0
 42
100.0
 43
100.0
 50
180.0
  0
INSERT
  5
1B6AD
330
1B5B2
100
AcDbEntity
  8
寸法
 62
     0
 48
50.0
370
    -2
100
AcDbBlockReference
  2
_DOTSMALL
 10
11332.29906249668
 20
5330.878519930855
 30
0.0
 41
100.0
 42
100.0
 43
100.0
  0
MTEXT
  5
1B6AE
330
1B5B2
100
AcDbEntity
  8
寸法
 62
     7
 48
50.0
100
AcDbMText
 10
11022.66126722108
 20
5430.878519930854
 30
0.0
 40
120.0
 41
0.0
 71
     5
 72
     1
  1
\A1;60
  7
STYLE1
 73
     1
 44
1.0
1001
ACAD
1000
MTEXTBEGIN
1070
    73
1070
     1
1070
    44
1040
1.0
1070
    74
1070
     0
1000
MTEXTEND
  0
POINT
  5
1B6AF
330
1B5B2
100
AcDbEntity
  8
DEFPOINTS
 62
     0
 48
50.0
100
AcDbPoint
 10
11392.29906249668
 20
4927.786968714357
 30
0.0
  0
POINT
  5
1B6B0
330
1B5B2
100
AcDbEntity
  8
DEFPOINTS
 62
     0
 48
50.0
100
AcDbPoint
 10
11332.29906249668
 20
4931.785350591385
 30
0.0
  0
POINT
  5
1B6B1
330
1B5B2
100
AcDbEntity
  8
DEFPOINTS
 62
     0
 48
50.0
100
AcDbPoint
 10
11332.29906249668
 20
5330.878519930855
 30
0.0
  0
ENDBLK
  5
1B5BF
330
1B5B2
100
AcDbEntity
  8
0
 48
50.0
100
AcDbBlockEnd
  0
BLOCK
  5
1B5CA
330
1B5C0
100
AcDbEntity
  8
0
 48
50.0
100
AcDbBlockBegin
  2
*D27
 70
     1
 10
0.0
 20
0.0
 30
0.0
  3
*D27
  1

  0
LINE
  5
1DA93
330
1B5C0
100
AcDbEntity
  8
寸法
 62
     0
 48
50.0
370
    -2
100
AcDbLine
 10
13262.29906249667
 20
4896.785350591382
 30
0.0
 11
13262.29906249667
 21
5607.404619549299
 31
0.0
  0
LINE
  5
1DA94
330
1B5C0
100
AcDbEntity
  8
寸法
 62
     0
 48
50.0
370
    -2
100
AcDbLine
 10
11332.29906249668
 20
4951.785350591386
 30
0.0
 11
11332.29906249668
 21
5607.404619549299
 31
0.0
  0
LINE
  5
1DA95
330
1B5C0
100
AcDbEntity
  8
寸法
 62
     0
 48
50.0
370
    -2
100
AcDbLine
 10
13262.29906249667
 20
5547.4046195493
 30
0.0
 11
11332.29906249668
 21
5547.4046195493
 31
0.0
  0
INSERT
  5
1DA96
330
1B5C0
100
AcDbEntity
  8
寸法
 62
     0
 48
50.0
370
    -2
100
AcDbBlockReference
  2
_DOTSMALL
 10
13262.29906249667
 20
5547.4046195493
 30
0.0
 41
100.0
 42
100.0
 43
100.0
  0
INSERT
  5
1DA97
330
1B5C0
100
AcDbEntity
  8
寸法
 62
     0
 48
50.0
370
    -2
100
AcDbBlockReference
  2
_DOTSMALL
 10
11332.29906249668
 20
5547.4046195493
 30
0.0
 41
100.0
 42
100.0
 43
100.0
 50
180.0
  0
MTEXT
  5
1DA98
330
1B5C0
100
AcDbEntity
  8
寸法
 62
     7
 48
50.0
100
AcDbMText
 10
12297.29906249668
 20
5647.404619549299
 30
0.0
 40
120.0
 41
0.0
 71
     5
 72
     1
  1
\A1;1930
  7
STYLE1
 73
     1
 44
1.0
1001
ACAD
1000
MTEXTBEGIN
1070
    73
1070
     1
1070
    44
1040
1.0
1070
    74
1070
     0
1000
MTEXTEND
  0
POINT
  5
1DA99
330
1B5C0
100
AcDbEntity
  8
DEFPOINTS
 62
     0
 48
50.0
100
AcDbPoint
 10
13262.29906249667
 20
4876.785350591382
 30
0.0
  0
POINT
  5
1DA9A
330
1B5C0
100
AcDbEntity
  8
DEFPOINTS
 62
     0
 48
50.0
100
AcDbPoint
 10
11332.29906249668
 20
4931.785350591385
 30
0.0
  0
POINT
  5
1DA9B
330
1B5C0
100
AcDbEntity
  8
DEFPOINTS
 62
     0
 48
50.0
100
AcDbPoint
 10
11332.29906249668
 20
5547.4046195493
 30
0.0
  0
ENDBLK
  5
1B5CB
330
1B5C0
100
AcDbEntity
  8
0
 48
50.0
100
AcDbBlockEnd
  0
BLOCK
  5
1B5D7
330
1B5CC
100
AcDbEntity
  8
0
 48
50.0
100
AcDbBlockBegin
  2
*D28
 70
     1
 10
0.0
 20
0.0
 30
0.0
  3
*D28
  1

  0
LINE
  5
1B6BB
330
1B5CC
100
AcDbEntity
  8
寸法
 62
     0
 48
50.0
370
    -2
100
AcDbLine
 10
13182.29906249667
 20
4898.596030203034
 30
0.0
 11
13182.29906249667
 21
5390.878519930854
 31
0.0
  0
LINE
  5
1B6BC
330
1B5CC
100
AcDbEntity
  8
寸法
 62
     0
 48
50.0
370
    -2
100
AcDbLine
 10
13262.29906249667
 20
4896.785350591382
 30
0.0
 11
13262.29906249667
 21
5390.878519930854
 31
0.0
  0
LINE
  5
1B6BD
330
1B5CC
100
AcDbEntity
  8
寸法
 62
     0
 48
50.0
370
    -2
100
AcDbLine
 10
13182.29906249667
 20
5330.878519930855
 30
0.0
 11
13262.29906249667
 21
5330.878519930855
 31
0.0
  0
LINE
  5
1B6BE
330
1B5CC
100
AcDbEntity
  8
寸法
 62
     0
 48
50.0
370
    -2
100
AcDbLine
 10
13262.29906249667
 20
5330.878519930855
 30
0.0
 11
13574.39355068565
 21
5330.878519930855
 31
0.0
  0
INSERT
  5
1B6BF
330
1B5CC
100
AcDbEntity
  8
寸法
 62
     0
 48
50.0
370
    -2
100
AcDbBlockReference
  2
_DOTSMALL
 10
13182.29906249667
 20
5330.878519930855
 30
0.0
 41
100.0
 42
100.0
 43
100.0
 50
180.0
  0
INSERT
  5
1B6C0
330
1B5CC
100
AcDbEntity
  8
寸法
 62
     0
 48
50.0
370
    -2
100
AcDbBlockReference
  2
_DOTSMALL
 10
13262.29906249667
 20
5330.878519930855
 30
0.0
 41
100.0
 42
100.0
 43
100.0
  0
MTEXT
  5
1B6C1
330
1B5CC
100
AcDbEntity
  8
寸法
 62
     7
 48
50.0
100
AcDbMText
 10
13468.34630659116
 20
5430.878519930854
 30
0.0
 40
120.0
 41
0.0
 71
     5
 72
     1
  1
\A1;80
  7
STYLE1
 73
     1
 44
1.0
1001
ACAD
1000
MTEXTBEGIN
1070
    73
1070
     1
1070
    44
1040
1.0
1070
    74
1070
     0
1000
MTEXTEND
  0
POINT
  5
1B6C2
330
1B5CC
100
AcDbEntity
  8
DEFPOINTS
 62
     0
 48
50.0
100
AcDbPoint
 10
13182.29906249667
 20
4878.596030203034
 30
0.0
  0
POINT
  5
1B6C3
330
1B5CC
100
AcDbEntity
  8
DEFPOINTS
 62
     0
 48
50.0
100
AcDbPoint
 10
13262.29906249667
 20
4876.785350591382
 30
0.0
  0
POINT
  5
1B6C4
330
1B5CC
100
AcDbEntity
  8
DEFPOINTS
 62
     0
 48
50.0
100
AcDbPoint
 10
13262.29906249667
 20
5330.878519930855
 30
0.0
  0
ENDBLK
  5
1B5D8
330
1B5CC
100
AcDbEntity
  8
0
 48
50.0
100
AcDbBlockEnd
  0
BLOCK
  5
1B5E5
330
1B5D9
100
AcDbEntity
  8
0
 48
50.0
100
AcDbBlockBegin
  2
*D29
 70
     1
 10
0.0
 20
0.0
 30
0.0
  3
*D29
  1

  0
LINE
  5
1B6C5
330
1B5D9
100
AcDbEntity
  8
寸法
 62
     0
 48
50.0
370
    -2
100
AcDbLine
 10
3349.153011747473
 20
4951.785350591386
 30
0.0
 11
3349.153011747473
 21
5390.878519930852
 31
0.0
  0
LINE
  5
1B6C6
330
1B5D9
100
AcDbEntity
  8
寸法
 62
     0
 48
50.0
370
    -2
100
AcDbLine
 10
3299.153011747473
 20
4951.785350591383
 30
0.0
 11
3299.153011747473
 21
5390.878519930852
 31
0.0
  0
LINE
  5
1B6C7
330
1B5D9
100
AcDbEntity
  8
寸法
 62
     0
 48
50.0
370
    -2
100
AcDbLine
 10
3349.153011747473
 20
5330.878519930852
 30
0.0
 11
3449.153011747473
 21
5330.878519930852
 31
0.0
  0
LINE
  5
1B6C8
330
1B5D9
100
AcDbEntity
  8
寸法
 62
     0
 48
50.0
370
    -2
100
AcDbLine
 10
3299.153011747473
 20
5330.878519930852
 30
0.0
 11
2879.620486278737
 21
5330.878519930852
 31
0.0
  0
LINE
  5
1B6C9
330
1B5D9
100
AcDbEntity
  8
寸法
 62
     0
 48
50.0
370
    -2
100
AcDbLine
 10
3349.153011747473
 20
5330.878519930852
 30
0.0
 11
3299.153011747473
 21
5330.878519930852
 31
0.0
  0
INSERT
  5
1B6CA
330
1B5D9
100
AcDbEntity
  8
寸法
 62
     0
 48
50.0
370
    -2
100
AcDbBlockReference
  2
_DOTSMALL
 10
3349.153011747473
 20
5330.878519930852
 30
0.0
 41
100.0
 42
100.0
 43
100.0
 50
180.0
  0
INSERT
  5
1B6CB
330
1B5D9
100
AcDbEntity
  8
寸法
 62
     0
 48
50.0
370
    -2
100
AcDbBlockReference
  2
_DOTSMALL
 10
3299.153011747473
 20
5330.878519930852
 30
0.0
 41
100.0
 42
100.0
 43
100.0
  0
MTEXT
  5
1B6CC
330
1B5D9
100
AcDbEntity
  8
寸法
 62
     7
 48
50.0
100
AcDbMText
 10
2985.667730373225
 20
5430.878519930852
 30
0.0
 40
120.0
 41
0.0
 71
     5
 72
     1
  1
\A1;50
  7
STYLE1
 73
     1
 44
1.0
1001
ACAD
1000
MTEXTBEGIN
1070
    73
1070
     1
1070
    44
1040
1.0
1070
    74
1070
     0
1000
MTEXTEND
  0
POINT
  5
1B6CD
330
1B5D9
100
AcDbEntity
  8
DEFPOINTS
 62
     0
 48
50.0
100
AcDbPoint
 10
3349.153011747473
 20
4931.785350591385
 30
0.0
  0
POINT
  5
1B6CE
330
1B5D9
100
AcDbEntity
  8
DEFPOINTS
 62
     0
 48
50.0
100
AcDbPoint
 10
3299.153011747473
 20
4931.785350591384
 30
0.0
  0
POINT
  5
1B6CF
330
1B5D9
100
AcDbEntity
  8
DEFPOINTS
 62
     0
 48
50.0
100
AcDbPoint
 10
3299.153011747473
 20
5330.878519930852
 30
0.0
  0
ENDBLK
  5
1B5E6
330
1B5D9
100
AcDbEntity
  8
0
 48
50.0
100
AcDbBlockEnd
  0
BLOCK
  5
1B5F1
330
1B5E7
100
AcDbEntity
  8
0
 48
50.0
100
AcDbBlockBegin
  2
*D30
 70
     1
 10
0.0
 20
0.0
 30
0.0
  3
*D30
  1

  0
LINE
  5
1DA7F
330
1B5E7
100
AcDbEntity
  8
寸法
 62
     0
 48
50.0
370
    -2
100
AcDbLine
 10
8609.153011747469
 20
4951.785350591383
 30
0.0
 11
8609.153011747469
 21
5390.878519930852
 31
0.0
  0
LINE
  5
1DA80
330
1B5E7
100
AcDbEntity
  8
寸法
 62
     0
 48
50.0
370
    -2
100
AcDbLine
 10
3349.153011747473
 20
4951.785350591386
 30
0.0
 11
3349.153011747473
 21
5390.878519930852
 31
0.0
  0
LINE
  5
1DA81
330
1B5E7
100
AcDbEntity
  8
寸法
 62
     0
 48
50.0
370
    -2
100
AcDbLine
 10
8609.153011747469
 20
5330.878519930852
 30
0.0
 11
3349.153011747473
 21
5330.878519930852
 31
0.0
  0
INSERT
  5
1DA82
330
1B5E7
100
AcDbEntity
  8
寸法
 62
     0
 48
50.0
370
    -2
100
AcDbBlockReference
  2
_DOTSMALL
 10
8609.153011747469
 20
5330.878519930852
 30
0.0
 41
100.0
 42
100.0
 43
100.0
  0
INSERT
  5
1DA83
330
1B5E7
100
AcDbEntity
  8
寸法
 62
     0
 48
50.0
370
    -2
100
AcDbBlockReference
  2
_DOTSMALL
 10
3349.153011747473
 20
5330.878519930852
 30
0.0
 41
100.0
 42
100.0
 43
100.0
 50
180.0
  0
MTEXT
  5
1DA84
330
1B5E7
100
AcDbEntity
  8
寸法
 62
     7
 48
50.0
100
AcDbMText
 10
5979.15301174747
 20
5430.890330954474
 30
0.0
 40
120.0
 41
0.0
 71
     5
 72
     1
  1
\A1;柱外寸法5260
  7
STYLE1
 73
     1
 44
1.0
1001
ACAD
1000
MTEXTBEGIN
1070
    73
1070
     1
1070
    44
1040
1.0
1070
    74
1070
     0
1000
MTEXTEND
  0
POINT
  5
1DA85
330
1B5E7
100
AcDbEntity
  8
DEFPOINTS
 62
     0
 48
50.0
100
AcDbPoint
 10
8609.153011747469
 20
4931.785350591384
 30
0.0
  0
POINT
  5
1DA86
330
1B5E7
100
AcDbEntity
  8
DEFPOINTS
 62
     0
 48
50.0
100
AcDbPoint
 10
3349.153011747473
 20
4931.785350591385
 30
0.0
  0
POINT
  5
1DA87
330
1B5E7
100
AcDbEntity
  8
DEFPOINTS
 62
     0
 48
50.0
100
AcDbPoint
 10
3349.153011747473
 20
5330.878519930852
 30
0.0
  0
ENDBLK
  5
1B5F2
330
1B5E7
100
AcDbEntity
  8
0
 48
50.0
100
AcDbBlockEnd
  0
BLOCK
  5
1B5FF
330
1B5F3
100
AcDbEntity
  8
0
 48
50.0
100
AcDbBlockBegin
  2
*D31
 70
     1
 10
0.0
 20
0.0
 30
0.0
  3
*D31
  1

  0
LINE
  5
1B6D9
330
1B5F3
100
AcDbEntity
  8
寸法
 62
     0
 48
50.0
370
    -2
100
AcDbLine
 10
8659.153011747468
 20
4951.785350591382
 30
0.0
 11
8659.153011747468
 21
5390.878519930852
 31
0.0
  0
LINE
  5
1B6DA
330
1B5F3
100
AcDbEntity
  8
寸法
 62
     0
 48
50.0
370
    -2
100
AcDbLine
 10
8609.153011747469
 20
4951.785350591383
 30
0.0
 11
8609.153011747469
 21
5390.878519930852
 31
0.0
  0
LINE
  5
1B6DB
330
1B5F3
100
AcDbEntity
  8
寸法
 62
     0
 48
50.0
370
    -2
100
AcDbLine
 10
8609.153011747469
 20
5330.878519930852
 30
0.0
 11
8509.15301174747
 21
5330.878519930852
 31
0.0
  0
LINE
  5
1B6DC
330
1B5F3
100
AcDbEntity
  8
寸法
 62
     0
 48
50.0
370
    -2
100
AcDbLine
 10
8659.153011747468
 20
5330.878519930852
 30
0.0
 11
9078.685537216193
 21
5330.878519930852
 31
0.0
  0
LINE
  5
1B6DD
330
1B5F3
100
AcDbEntity
  8
寸法
 62
     0
 48
50.0
370
    -2
100
AcDbLine
 10
8609.153011747469
 20
5330.878519930852
 30
0.0
 11
8659.153011747468
 21
5330.878519930852
 31
0.0
  0
INSERT
  5
1B6DE
330
1B5F3
100
AcDbEntity
  8
寸法
 62
     0
 48
50.0
370
    -2
100
AcDbBlockReference
  2
_DOTSMALL
 10
8609.153011747469
 20
5330.878519930852
 30
0.0
 41
100.0
 42
100.0
 43
100.0
  0
INSERT
  5
1B6DF
330
1B5F3
100
AcDbEntity
  8
寸法
 62
     0
 48
50.0
370
    -2
100
AcDbBlockReference
  2
_DOTSMALL
 10
8659.153011747468
 20
5330.878519930852
 30
0.0
 41
100.0
 42
100.0
 43
100.0
 50
180.0
  0
MTEXT
  5
1B6E0
330
1B5F3
100
AcDbEntity
  8
寸法
 62
     7
 48
50.0
100
AcDbMText
 10
8972.638293121704
 20
5430.878519930852
 30
0.0
 40
120.0
 41
0.0
 71
     5
 72
     1
  1
\A1;50
  7
STYLE1
 73
     1
 44
1.0
1001
ACAD
1000
MTEXTBEGIN
1070
    73
1070
     1
1070
    44
1040
1.0
1070
    74
1070
     0
1000
MTEXTEND
  0
POINT
  5
1B6E1
330
1B5F3
100
AcDbEntity
  8
DEFPOINTS
 62
     0
 48
50.0
100
AcDbPoint
 10
8659.153011747468
 20
4931.785350591382
 30
0.0
  0
POINT
  5
1B6E2
330
1B5F3
100
AcDbEntity
  8
DEFPOINTS
 62
     0
 48
50.0
100
AcDbPoint
 10
8609.153011747469
 20
4931.785350591384
 30
0.0
  0
POINT
  5
1B6E3
330
1B5F3
100
AcDbEntity
  8
DEFPOINTS
 62
     0
 48
50.0
100
AcDbPoint
 10
8609.153011747469
 20
5330.878519930852
 30
0.0
  0
ENDBLK
  5
1B600
330
1B5F3
100
AcDbEntity
  8
0
 48
50.0
100
AcDbBlockEnd
  0
BLOCK
  5
1B60B
330
1B601
100
AcDbEntity
  8
0
 48
50.0
100
AcDbBlockBegin
  2
*D32
 70
     1
 10
0.0
 20
0.0
 30
0.0
  3
*D32
  1

  0
LINE
  5
1DA88
330
1B601
100
AcDbEntity
  8
寸法
 62
     0
 48
50.0
370
    -2
100
AcDbLine
 10
3299.153011747473
 20
4951.785350591383
 30
0.0
 11
3299.153011747473
 21
5607.404619549297
 31
0.0
  0
LINE
  5
1DA89
330
1B601
100
AcDbEntity
  8
寸法
 62
     0
 48
50.0
370
    -2
100
AcDbLine
 10
8659.153011747468
 20
4951.785350591382
 30
0.0
 11
8659.153011747468
 21
5607.404619549297
 31
0.0
  0
LINE
  5
1DA8A
330
1B601
100
AcDbEntity
  8
寸法
 62
     0
 48
50.0
370
    -2
100
AcDbLine
 10
3299.153011747473
 20
5547.404619549297
 30
0.0
 11
8659.153011747468
 21
5547.404619549297
 31
0.0
  0
INSERT
  5
1DA8B
330
1B601
100
AcDbEntity
  8
寸法
 62
     0
 48
50.0
370
    -2
100
AcDbBlockReference
  2
_DOTSMALL
 10
3299.153011747473
 20
5547.404619549297
 30
0.0
 41
100.0
 42
100.0
 43
100.0
 50
180.0
  0
INSERT
  5
1DA8C
330
1B601
100
AcDbEntity
  8
寸法
 62
     0
 48
50.0
370
    -2
100
AcDbBlockReference
  2
_DOTSMALL
 10
8659.153011747468
 20
5547.404619549297
 30
0.0
 41
100.0
 42
100.0
 43
100.0
  0
MTEXT
  5
1DA8D
330
1B601
100
AcDbEntity
  8
寸法
 62
     7
 48
50.0
100
AcDbMText
 10
5979.15301174747
 20
5647.404619549297
 30
0.0
 40
120.0
 41
0.0
 71
     5
 72
     1
  1
\A1;5360
  7
STYLE1
 73
     1
 44
1.0
1001
ACAD
1000
MTEXTBEGIN
1070
    73
1070
     1
1070
    44
1040
1.0
1070
    74
1070
     0
1000
MTEXTEND
  0
POINT
  5
1DA8E
330
1B601
100
AcDbEntity
  8
DEFPOINTS
 62
     0
 48
50.0
100
AcDbPoint
 10
3299.153011747473
 20
4931.785350591384
 30
0.0
  0
POINT
  5
1DA8F
330
1B601
100
AcDbEntity
  8
DEFPOINTS
 62
     0
 48
50.0
100
AcDbPoint
 10
8659.153011747468
 20
4931.785350591382
 30
0.0
  0
POINT
  5
1DA90
330
1B601
100
AcDbEntity
  8
DEFPOINTS
 62
     0
 48
50.0
100
AcDbPoint
 10
8659.153011747468
 20
5547.404619549297
 30
0.0
  0
ENDBLK
  5
1B60C
330
1B601
100
AcDbEntity
  8
0
 48
50.0
100
AcDbBlockEnd
  0
BLOCK
  5
1B617
330
1B60D
100
AcDbEntity
  8
0
 48
50.0
100
AcDbBlockBegin
  2
*D33
 70
     1
 10
0.0
 20
0.0
 30
0.0
  3
*D33
  1

  0
LINE
  5
1B6ED
330
1B60D
100
AcDbEntity
  8
寸法
 62
     0
 48
50.0
370
    -2
100
AcDbLine
 10
13202.29906249668
 20
2556.785350591381
 30
0.0
 11
13947.2262204688
 21
2556.78535059138
 31
0.0
  0
LINE
  5
1B6EE
330
1B60D
100
AcDbEntity
  8
寸法
 62
     0
 48
50.0
370
    -2
100
AcDbLine
 10
13297.29906249667
 20
4876.785350591381
 30
0.0
 11
13947.2262204688
 21
4876.785350591381
 31
0.0
  0
LINE
  5
1B6EF
330
1B60D
100
AcDbEntity
  8
寸法
 62
     0
 48
50.0
370
    -2
100
AcDbLine
 10
13887.2262204688
 20
2556.78535059138
 30
0.0
 11
13887.2262204688
 21
4876.785350591381
 31
0.0
  0
INSERT
  5
1B6F0
330
1B60D
100
AcDbEntity
  8
寸法
 62
     0
 48
50.0
370
    -2
100
AcDbBlockReference
  2
_DOTSMALL
 10
13887.2262204688
 20
2556.78535059138
 30
0.0
 41
100.0
 42
100.0
 43
100.0
 50
270.0
  0
INSERT
  5
1B6F1
330
1B60D
100
AcDbEntity
  8
寸法
 62
     0
 48
50.0
370
    -2
100
AcDbBlockReference
  2
_DOTSMALL
 10
13887.2262204688
 20
4876.785350591381
 30
0.0
 41
100.0
 42
100.0
 43
100.0
 50
90.0
  0
MTEXT
  5
1B6F2
330
1B60D
100
AcDbEntity
  8
寸法
 62
     7
 48
50.0
100
AcDbMText
 10
13787.21440944518
 20
3711.785350591381
 30
0.0
 40
120.0
 41
0.0
 71
     5
 72
     1
  1
\A1;2320
  7
STYLE1
 11
0.0000000000000001
 21
1.0
 31
0.0
 73
     1
 44
1.0
1001
ACAD
1000
MTEXTBEGIN
1070
    73
1070
     1
1070
    44
1040
1.0
1070
    74
1070
     0
1000
MTEXTEND
  0
POINT
  5
1B6F3
330
1B60D
100
AcDbEntity
  8
DEFPOINTS
 62
     0
 48
50.0
100
AcDbPoint
 10
13182.29906249668
 20
2556.785350591381
 30
0.0
  0
POINT
  5
1B6F4
330
1B60D
100
AcDbEntity
  8
DEFPOINTS
 62
     0
 48
50.0
100
AcDbPoint
 10
13277.29906249667
 20
4876.785350591381
 30
0.0
  0
POINT
  5
1B6F5
330
1B60D
100
AcDbEntity
  8
DEFPOINTS
 62
     0
 48
50.0
100
AcDbPoint
 10
13887.2262204688
 20
4876.785350591381
 30
0.0
  0
ENDBLK
  5
1B618
330
1B60D
100
AcDbEntity
  8
0
 48
50.0
100
AcDbBlockEnd
  0
BLOCK
  5
1B63B
330
1B631
100
AcDbEntity
  8
0
 48
50.0
100
AcDbBlockBegin
  2
*D34
 70
     1
 10
0.0
 20
0.0
 30
0.0
  3
*D34
  1

  0
LINE
  5
1B708
330
1B631
100
AcDbEntity
  8
寸法
 62
     0
 48
50.0
370
    -2
100
AcDbLine
 10
11372.29906249668
 20
4696.785350591381
 30
0.0
 11
10488.54893331342
 21
4696.785350591381
 31
0.0
  0
LINE
  5
1B709
330
1B631
100
AcDbEntity
  8
寸法
 62
     0
 48
50.0
370
    -2
100
AcDbLine
 10
11372.29906249668
 20
2606.785350591381
 30
0.0
 11
10488.54893331341
 21
2606.785350591382
 31
0.0
  0
LINE
  5
1B70A
330
1B631
100
AcDbEntity
  8
寸法
 62
     0
 48
50.0
370
    -2
100
AcDbLine
 10
10548.54893331342
 20
4696.785350591381
 30
0.0
 11
10548.54893331341
 21
2606.785350591382
 31
0.0
  0
INSERT
  5
1B70B
330
1B631
100
AcDbEntity
  8
寸法
 62
     0
 48
50.0
370
    -2
100
AcDbBlockReference
  2
_DOTSMALL
 10
10548.54893331342
 20
4696.785350591381
 30
0.0
 41
100.0
 42
100.0
 43
100.0
 50
90.0
  0
INSERT
  5
1B70C
330
1B631
100
AcDbEntity
  8
寸法
 62
     0
 48
50.0
370
    -2
100
AcDbBlockReference
  2
_DOTSMALL
 10
10548.54893331341
 20
2606.785350591382
 30
0.0
 41
100.0
 42
100.0
 43
100.0
 50
270.0
  0
MTEXT
  5
1B70D
330
1B631
100
AcDbEntity
  8
寸法
 62
     7
 48
50.0
100
AcDbMText
 10
10448.53712228979
 20
3651.785350591384
 30
0.0
 40
120.0
 41
0.0
 71
     5
 72
     1
  1
\A1;2090
  7
STYLE1
 11
0.0000000000000001
 21
1.0
 31
0.0
 73
     1
 44
1.0
1001
ACAD
1000
MTEXTBEGIN
1070
    73
1070
     1
1070
    44
1040
1.0
1070
    74
1070
     0
1000
MTEXTEND
  0
POINT
  5
1B70E
330
1B631
100
AcDbEntity
  8
DEFPOINTS
 62
     0
 48
50.0
100
AcDbPoint
 10
11392.29906249668
 20
4696.785350591381
 30
0.0
  0
POINT
  5
1B70F
330
1B631
100
AcDbEntity
  8
DEFPOINTS
 62
     0
 48
50.0
100
AcDbPoint
 10
11392.29906249668
 20
2606.785350591381
 30
0.0
  0
POINT
  5
1B710
330
1B631
100
AcDbEntity
  8
DEFPOINTS
 62
     0
 48
50.0
100
AcDbPoint
 10
10548.54893331341
 20
2606.785350591382
 30
0.0
  0
ENDBLK
  5
1B63C
330
1B631
100
AcDbEntity
  8
0
 48
50.0
100
AcDbBlockEnd
  0
BLOCK
  5
1B662
330
1B656
100
AcDbEntity
  8
0
 48
50.0
100
AcDbBlockBegin
  2
*D35
 70
     1
 10
0.0
 20
0.0
 30
0.0
  3
*D35
  1

  0
LINE
  5
1B724
330
1B656
100
AcDbEntity
  8
寸法
 62
     0
 48
50.0
370
    -2
100
AcDbLine
 10
11372.29906249668
 20
2606.785350591381
 30
0.0
 11
10488.54893331341
 21
2606.785350591382
 31
0.0
  0
LINE
  5
1B725
330
1B656
100
AcDbEntity
  8
寸法
 62
     0
 48
50.0
370
    -2
100
AcDbLine
 10
11317.29906249667
 20
2556.785350591381
 30
0.0
 11
10488.54893331341
 21
2556.785350591381
 31
0.0
  0
LINE
  5
1B726
330
1B656
100
AcDbEntity
  8
寸法
 62
     0
 48
50.0
370
    -2
100
AcDbLine
 10
10548.54893331341
 20
2606.785350591382
 30
0.0
 11
10548.54893331341
 21
2706.785350591382
 31
0.0
  0
LINE
  5
1B727
330
1B656
100
AcDbEntity
  8
寸法
 62
     0
 48
50.0
370
    -2
100
AcDbLine
 10
10548.54893331341
 20
2556.785350591381
 30
0.0
 11
10548.54893331341
 21
2066.988106496891
 31
0.0
  0
LINE
  5
1B728
330
1B656
100
AcDbEntity
  8
寸法
 62
     0
 48
50.0
370
    -2
100
AcDbLine
 10
10548.54893331341
 20
2606.785350591382
 30
0.0
 11
10548.54893331341
 21
2556.785350591381
 31
0.0
  0
INSERT
  5
1B729
330
1B656
100
AcDbEntity
  8
寸法
 62
     0
 48
50.0
370
    -2
100
AcDbBlockReference
  2
_DOTSMALL
 10
10548.54893331341
 20
2606.785350591382
 30
0.0
 41
100.0
 42
100.0
 43
100.0
 50
270.0
  0
INSERT
  5
1B72A
330
1B656
100
AcDbEntity
  8
寸法
 62
     0
 48
50.0
370
    -2
100
AcDbBlockReference
  2
_DOTSMALL
 10
10548.54893331341
 20
2556.785350591381
 30
0.0
 41
100.0
 42
100.0
 43
100.0
 50
90.0
  0
MTEXT
  5
1B72B
330
1B656
100
AcDbEntity
  8
寸法
 62
     7
 48
50.0
100
AcDbMText
 10
10448.54893331341
 20
2173.035350591381
 30
0.0
 40
120.0
 41
0.0
 71
     5
 72
     1
  1
\A1;50
  7
STYLE1
 11
0.0000000000000001
 21
1.0
 31
0.0
 73
     1
 44
1.0
1001
ACAD
1000
MTEXTBEGIN
1070
    73
1070
     1
1070
    44
1040
1.0
1070
    74
1070
     0
1000
MTEXTEND
  0
POINT
  5
1B72C
330
1B656
100
AcDbEntity
  8
DEFPOINTS
 62
     0
 48
50.0
100
AcDbPoint
 10
11392.29906249668
 20
2606.785350591381
 30
0.0
  0
POINT
  5
1B72D
330
1B656
100
AcDbEntity
  8
DEFPOINTS
 62
     0
 48
50.0
100
AcDbPoint
 10
11337.29906249667
 20
2556.785350591381
 30
0.0
  0
POINT
  5
1B72E
330
1B656
100
AcDbEntity
  8
DEFPOINTS
 62
     0
 48
50.0
100
AcDbPoint
 10
10548.54893331341
 20
2556.785350591381
 30
0.0
  0
ENDBLK
  5
1B663
330
1B656
100
AcDbEntity
  8
0
 48
50.0
100
AcDbBlockEnd
  0
BLOCK
  5
1CD19
330
1CD0F
100
AcDbEntity
  8
0
 48
50.0
100
AcDbBlockBegin
  2
*D36
 70
     1
 10
0.0
 20
0.0
 30
0.0
  3
*D36
  1

  0
LINE
  5
1CD1B
330
1CD0F
100
AcDbEntity
  8
寸法
 62
     0
 48
50.0
370
    -2
100
AcDbLine
 10
11372.29906249668
 20
2556.78535059138
 30
0.0
 11
10188.54893331341
 21
2556.78535059138
 31
0.0
  0
LINE
  5
1CD1C
330
1CD0F
100
AcDbEntity
  8
寸法
 62
     0
 48
50.0
370
    -2
100
AcDbLine
 10
11312.29906249668
 20
4931.785350591384
 30
0.0
 11
10188.54893331341
 21
4931.785350591385
 31
0.0
  0
LINE
  5
1CD1D
330
1CD0F
100
AcDbEntity
  8
寸法
 62
     0
 48
50.0
370
    -2
100
AcDbLine
 10
10248.54893331341
 20
2556.78535059138
 30
0.0
 11
10248.54893331341
 21
4931.785350591384
 31
0.0
  0
INSERT
  5
1CD1E
330
1CD0F
100
AcDbEntity
  8
寸法
 62
     0
 48
50.0
370
    -2
100
AcDbBlockReference
  2
_DOTSMALL
 10
10248.54893331341
 20
2556.78535059138
 30
0.0
 41
100.0
 42
100.0
 43
100.0
 50
270.0
  0
INSERT
  5
1CD1F
330
1CD0F
100
AcDbEntity
  8
寸法
 62
     0
 48
50.0
370
    -2
100
AcDbBlockReference
  2
_DOTSMALL
 10
10248.54893331341
 20
4931.785350591384
 30
0.0
 41
100.0
 42
100.0
 43
100.0
 50
90.0
  0
MTEXT
  5
1CD20
330
1CD0F
100
AcDbEntity
  8
寸法
 62
     7
 48
50.0
100
AcDbMText
 10
10148.53712228979
 20
3744.285350591384
 30
0.0
 40
120.0
 41
0.0
 71
     5
 72
     1
  1
\A1;2375
  7
STYLE1
 11
0.0000000000000001
 21
1.0
 31
0.0
 73
     1
 44
1.0
1001
ACAD
1000
MTEXTBEGIN
1070
    73
1070
     1
1070
    44
1040
1.0
1070
    74
1070
     0
1000
MTEXTEND
  0
POINT
  5
1CD21
330
1CD0F
100
AcDbEntity
  8
DEFPOINTS
 62
     0
 48
50.0
100
AcDbPoint
 10
11392.29906249668
 20
2556.78535059138
 30
0.0
  0
POINT
  5
1CD22
330
1CD0F
100
AcDbEntity
  8
DEFPOINTS
 62
     0
 48
50.0
100
AcDbPoint
 10
11332.29906249668
 20
4931.785350591384
 30
0.0
  0
POINT
  5
1CD23
330
1CD0F
100
AcDbEntity
  8
DEFPOINTS
 62
     0
 48
50.0
100
AcDbPoint
 10
10248.54893331341
 20
4931.785350591384
 30
0.0
  0
ENDBLK
  5
1CD1A
330
1CD0F
100
AcDbEntity
  8
0
 48
50.0
100
AcDbBlockEnd
  0
BLOCK
  5
1D27C
330
1D272
100
AcDbEntity
  8
0
 48
50.0
100
AcDbBlockBegin
  2
*D37
 70
     1
 10
0.0
 20
0.0
 30
0.0
  3
*D37
  1

  0
LINE
  5
1D3B8
330
1D272
100
AcDbEntity
  8
寸法
 62
     0
 48
50.0
370
    -2
100
AcDbLine
 10
7302.294027898852
 20
8905.367811356823
 30
0.0
 11
7199.552213940254
 21
8521.930141601545
 31
0.0
  0
LINE
  5
1D3B9
330
1D272
100
AcDbEntity
  8
寸法
 62
     0
 48
50.0
370
    -2
100
AcDbLine
 10
8575.294027898864
 20
8905.367811356816
 30
0.0
 11
8472.552213940266
 21
8521.930141601545
 31
0.0
  0
LINE
  5
1D3BA
330
1D272
100
AcDbEntity
  8
寸法
 62
     0
 48
50.0
370
    -2
100
AcDbLine
 10
7215.629165486122
 20
8581.930141601546
 30
0.0
 11
8488.629165486136
 21
8581.930141601546
 31
0.0
  0
INSERT
  5
1D3BB
330
1D272
100
AcDbEntity
  8
寸法
 62
     0
 48
50.0
370
    -2
100
AcDbBlockReference
  2
_DOTSMALL
 10
7215.629165486122
 20
8581.930141601546
 30
0.0
 41
100.0
 42
100.0
 43
100.0
 50
180.0
  0
INSERT
  5
1D3BC
330
1D272
100
AcDbEntity
  8
寸法
 62
     0
 48
50.0
370
    -2
100
AcDbBlockReference
  2
_DOTSMALL
 10
8488.629165486136
 20
8581.930141601546
 30
0.0
 41
100.0
 42
100.0
 43
100.0
  0
MTEXT
  5
1D3BD
330
1D272
100
AcDbEntity
  8
寸法
 62
     7
 48
50.0
100
AcDbMText
 10
7898.638327485771
 20
8681.941952625168
 30
0.0
 40
120.0
 41
0.0
 71
     5
 72
     1
  1
\A1;1273
  7
STYLE1
 73
     1
 44
1.0
1001
ACAD
1000
MTEXTBEGIN
1070
    73
1070
     1
1070
    44
1040
1.0
1070
    74
1070
     0
1000
MTEXTEND
  0
POINT
  5
1D3BE
330
1D272
100
AcDbEntity
  8
DEFPOINTS
 62
     0
 48
50.0
100
AcDbPoint
 10
7307.653011747475
 20
8925.367811356823
 30
0.0
  0
POINT
  5
1D3BF
330
1D272
100
AcDbEntity
  8
DEFPOINTS
 62
     0
 48
50.0
100
AcDbPoint
 10
8580.653011747486
 20
8925.367811356816
 30
0.0
  0
POINT
  5
1D3C0
330
1D272
100
AcDbEntity
  8
DEFPOINTS
 62
     0
 48
50.0
100
AcDbPoint
 10
8488.629165486136
 20
8581.930141601546
 30
0.0
  0
ENDBLK
  5
1D27D
330
1D272
100
AcDbEntity
  8
0
 48
50.0
100
AcDbBlockEnd
  0
BLOCK
  5
1D2D7
330
1D2CD
100
AcDbEntity
  8
0
 48
50.0
100
AcDbBlockBegin
  2
*D38
 70
     1
 10
0.0
 20
0.0
 30
0.0
  3
*D38
  1

  0
LINE
  5
1D3C1
330
1D2CD
100
AcDbEntity
  8
寸法
 62
     0
 48
50.0
370
    -2
100
AcDbLine
 10
6002.294027898853
 20
8905.367811356716
 30
0.0
 11
5899.552213940283
 21
8521.930141601545
 31
0.0
  0
LINE
  5
1D3C2
330
1D2CD
100
AcDbEntity
  8
寸法
 62
     0
 48
50.0
370
    -2
100
AcDbLine
 10
7275.294027898866
 20
8905.367811356709
 30
0.0
 11
7172.552213940297
 21
8521.930141601545
 31
0.0
  0
LINE
  5
1D3C3
330
1D2CD
100
AcDbEntity
  8
寸法
 62
     0
 48
50.0
370
    -2
100
AcDbLine
 10
5915.629165486151
 20
8581.930141601546
 30
0.0
 11
7188.629165486165
 21
8581.930141601546
 31
0.0
  0
INSERT
  5
1D3C4
330
1D2CD
100
AcDbEntity
  8
寸法
 62
     0
 48
50.0
370
    -2
100
AcDbBlockReference
  2
_DOTSMALL
 10
5915.629165486151
 20
8581.930141601546
 30
0.0
 41
100.0
 42
100.0
 43
100.0
 50
180.0
  0
INSERT
  5
1D3C5
330
1D2CD
100
AcDbEntity
  8
寸法
 62
     0
 48
50.0
370
    -2
100
AcDbBlockReference
  2
_DOTSMALL
 10
7188.629165486165
 20
8581.930141601546
 30
0.0
 41
100.0
 42
100.0
 43
100.0
  0
MTEXT
  5
1D3C6
330
1D2CD
100
AcDbEntity
  8
寸法
 62
     7
 48
50.0
100
AcDbMText
 10
6552.129165486158
 20
8681.941952625168
 30
0.0
 40
120.0
 41
0.0
 71
     5
 72
     1
  1
\A1;1273
  7
STYLE1
 73
     1
 44
1.0
1001
ACAD
1000
MTEXTBEGIN
1070
    73
1070
     1
1070
    44
1040
1.0
1070
    74
1070
     0
1000
MTEXTEND
  0
POINT
  5
1D3C7
330
1D2CD
100
AcDbEntity
  8
DEFPOINTS
 62
     0
 48
50.0
100
AcDbPoint
 10
6007.653011747476
 20
8925.367811356716
 30
0.0
  0
POINT
  5
1D3C8
330
1D2CD
100
AcDbEntity
  8
DEFPOINTS
 62
     0
 48
50.0
100
AcDbPoint
 10
7280.653011747488
 20
8925.367811356709
 30
0.0
  0
POINT
  5
1D3C9
330
1D2CD
100
AcDbEntity
  8
DEFPOINTS
 62
     0
 48
50.0
100
AcDbPoint
 10
7188.629165486165
 20
8581.930141601546
 30
0.0
  0
ENDBLK
  5
1D2D8
330
1D2CD
100
AcDbEntity
  8
0
 48
50.0
100
AcDbBlockEnd
  0
BLOCK
  5
1D5F3
330
1D5E9
100
AcDbEntity
  8
0
 48
50.0
100
AcDbBlockBegin
  2
*D39
 70
     1
 10
0.0
 20
0.0
 30
0.0
  3
*D39
  1

  0
LINE
  5
1D6B4
330
1D5E9
100
AcDbEntity
  8
寸法
 62
     0
 48
50.0
370
    -2
100
AcDbLine
 10
8629.153011747469
 20
2618.785350591381
 30
0.0
 11
8956.696114069213
 21
2618.785350591381
 31
0.0
  0
LINE
  5
1D6B5
330
1D5E9
100
AcDbEntity
  8
寸法
 62
     0
 48
50.0
370
    -2
100
AcDbLine
 10
8629.153011747469
 20
4504.785350591379
 30
0.0
 11
8956.696114069215
 21
4504.785350591379
 31
0.0
  0
LINE
  5
1D6B6
330
1D5E9
100
AcDbEntity
  8
寸法
 62
     0
 48
50.0
370
    -2
100
AcDbLine
 10
8896.696114069213
 20
2618.785350591381
 30
0.0
 11
8896.696114069214
 21
4504.785350591379
 31
0.0
  0
INSERT
  5
1D6B7
330
1D5E9
100
AcDbEntity
  8
寸法
 62
     0
 48
50.0
370
    -2
100
AcDbBlockReference
  2
_DOTSMALL
 10
8896.696114069213
 20
2618.785350591381
 30
0.0
 41
100.0
 42
100.0
 43
100.0
 50
270.0
  0
INSERT
  5
1D6B8
330
1D5E9
100
AcDbEntity
  8
寸法
 62
     0
 48
50.0
370
    -2
100
AcDbBlockReference
  2
_DOTSMALL
 10
8896.696114069214
 20
4504.785350591379
 30
0.0
 41
100.0
 42
100.0
 43
100.0
 50
90.0
  0
MTEXT
  5
1D6B9
330
1D5E9
100
AcDbEntity
  8
寸法
 62
     7
 48
50.0
100
AcDbMText
 10
8796.696114069213
 20
3561.785350591382
 30
0.0
 40
120.0
 41
0.0
 71
     5
 72
     1
  1
\A1;有効開口部高サ 1886
  7
STYLE1
 11
0.0000000000000001
 21
1.0
 31
0.0
 73
     1
 44
1.0
1001
ACAD
1000
MTEXTBEGIN
1070
    73
1070
     1
1070
    44
1040
1.0
1070
    74
1070
     0
1000
MTEXTEND
  0
POINT
  5
1D6BA
330
1D5E9
100
AcDbEntity
  8
DEFPOINTS
 62
     0
 48
50.0
100
AcDbPoint
 10
8609.153011747469
 20
2618.785350591381
 30
0.0
  0
POINT
  5
1D6BB
330
1D5E9
100
AcDbEntity
  8
DEFPOINTS
 62
     0
 48
50.0
100
AcDbPoint
 10
8609.153011747469
 20
4504.785350591379
 30
0.0
  0
POINT
  5
1D6BC
330
1D5E9
100
AcDbEntity
  8
DEFPOINTS
 62
     0
 48
50.0
100
AcDbPoint
 10
8896.696114069214
 20
4504.785350591379
 30
0.0
  0
ENDBLK
  5
1D5F4
330
1D5E9
100
AcDbEntity
  8
0
 48
50.0
100
AcDbBlockEnd
  0
BLOCK
  5
1D601
330
1D5F5
100
AcDbEntity
  8
0
 48
50.0
100
AcDbBlockBegin
  2
*D40
 70
     1
 10
0.0
 20
0.0
 30
0.0
  3
*D40
  1

  0
LINE
  5
1DACD
330
1D5F5
100
AcDbEntity
  8
寸法
 62
     0
 48
50.0
370
    -2
100
AcDbLine
 10
8629.153011747469
 20
4504.785350591379
 30
0.0
 11
8956.696114069215
 21
4504.785350591379
 31
0.0
  0
LINE
  5
1DACE
330
1D5F5
100
AcDbEntity
  8
寸法
 62
     0
 48
50.0
370
    -2
100
AcDbLine
 10
8629.153011747467
 20
4531.785350591381
 30
0.0
 11
8956.696114069215
 21
4531.785350591381
 31
0.0
  0
LINE
  5
1DACF
330
1D5F5
100
AcDbEntity
  8
寸法
 62
     0
 48
50.0
370
    -2
100
AcDbLine
 10
8896.696114069214
 20
4504.785350591379
 30
0.0
 11
8896.696114069214
 21
4404.78535059138
 31
0.0
  0
LINE
  5
1DAD0
330
1D5F5
100
AcDbEntity
  8
寸法
 62
     0
 48
50.0
370
    -2
100
AcDbLine
 10
8896.696114069214
 20
4531.785350591381
 30
0.0
 11
8896.696114069214
 21
4631.785350591381
 31
0.0
  0
MTEXT
  5
1DAD1
330
1D5F5
100
AcDbEntity
  8
寸法
 62
     7
 48
50.0
100
AcDbMText
 10
9036.86593731558
 20
4532.75255043104
 30
0.0
 40
120.0
 41
0.0
 71
     5
 72
     1
  1
\A1;27
  7
STYLE1
 11
0.0000000000000001
 21
1.0
 31
0.0
 73
     1
 44
1.0
1001
ACAD
1000
MTEXTBEGIN
1070
    73
1070
     1
1070
    44
1040
1.0
1070
    74
1070
     0
1000
MTEXTEND
  0
LINE
  5
1DAD2
330
1D5F5
100
AcDbEntity
  8
寸法
 62
     0
 48
50.0
370
    -2
100
AcDbLine
 10
8896.696114069214
 20
4504.785350591379
 30
0.0
 11
8896.696114069214
 21
4531.785350591381
 31
0.0
  0
INSERT
  5
1DAD3
330
1D5F5
100
AcDbEntity
  8
寸法
 62
     0
 48
50.0
370
    -2
100
AcDbBlockReference
  2
_DOTSMALL
 10
8896.696114069214
 20
4504.785350591379
 30
0.0
 41
100.0
 42
100.0
 43
100.0
 50
90.0
  0
INSERT
  5
1DAD4
330
1D5F5
100
AcDbEntity
  8
寸法
 62
     0
 48
50.0
370
    -2
100
AcDbBlockReference
  2
_DOTSMALL
 10
8896.696114069214
 20
4531.785350591381
 30
0.0
 41
100.0
 42
100.0
 43
100.0
 50
270.0
  0
POINT
  5
1DAD5
330
1D5F5
100
AcDbEntity
  8
DEFPOINTS
 62
     0
 48
50.0
100
AcDbPoint
 10
8609.153011747469
 20
4504.785350591379
 30
0.0
  0
POINT
  5
1DAD6
330
1D5F5
100
AcDbEntity
  8
DEFPOINTS
 62
     0
 48
50.0
100
AcDbPoint
 10
8609.153011747467
 20
4531.785350591381
 30
0.0
  0
POINT
  5
1DAD7
330
1D5F5
100
AcDbEntity
  8
DEFPOINTS
 62
     0
 48
50.0
100
AcDbPoint
 10
8896.696114069214
 20
4531.785350591381
 30
0.0
  0
ENDBLK
  5
1D602
330
1D5F5
100
AcDbEntity
  8
0
 48
50.0
100
AcDbBlockEnd
  0
BLOCK
  5
1D60E
330
1D603
100
AcDbEntity
  8
0
 48
50.0
100
AcDbBlockBegin
  2
*D41
 70
     1
 10
0.0
 20
0.0
 30
0.0
  3
*D41
  1

  0
LINE
  5
1DAC3
330
1D603
100
AcDbEntity
  8
寸法
 62
     0
 48
50.0
370
    -2
100
AcDbLine
 10
8629.153011747467
 20
4531.785350591381
 30
0.0
 11
8956.696114069217
 21
4531.785350591381
 31
0.0
  0
LINE
  5
1DAC4
330
1D603
100
AcDbEntity
  8
寸法
 62
     0
 48
50.0
370
    -2
100
AcDbLine
 10
8629.153011747469
 20
4696.785350591381
 30
0.0
 11
8956.696114069217
 21
4696.785350591381
 31
0.0
  0
LINE
  5
1DAC5
330
1D603
100
AcDbEntity
  8
寸法
 62
     0
 48
50.0
370
    -2
100
AcDbLine
 10
8896.696114069216
 20
4531.785350591381
 30
0.0
 11
8896.696114069216
 21
4696.785350591381
 31
0.0
  0
LINE
  5
1DAC6
330
1D603
100
AcDbEntity
  8
寸法
 62
     0
 48
50.0
370
    -2
100
AcDbLine
 10
8896.696114069216
 20
4696.785350591381
 30
0.0
 11
8896.696114069216
 21
5073.755913339859
 31
0.0
  0
INSERT
  5
1DAC7
330
1D603
100
AcDbEntity
  8
寸法
 62
     0
 48
50.0
370
    -2
100
AcDbBlockReference
  2
_DOTSMALL
 10
8896.696114069216
 20
4531.785350591381
 30
0.0
 41
100.0
 42
100.0
 43
100.0
 50
270.0
  0
INSERT
  5
1DAC8
330
1D603
100
AcDbEntity
  8
寸法
 62
     0
 48
50.0
370
    -2
100
AcDbBlockReference
  2
_DOTSMALL
 10
8896.696114069216
 20
4696.785350591381
 30
0.0
 41
100.0
 42
100.0
 43
100.0
 50
90.0
  0
MTEXT
  5
1DAC9
330
1D603
100
AcDbEntity
  8
寸法
 62
     7
 48
50.0
100
AcDbMText
 10
8796.696114069215
 20
4935.270631965621
 30
0.0
 40
120.0
 41
0.0
 71
     5
 72
     1
  1
\A1;165
  7
STYLE1
 11
0.0000000000000001
 21
1.0
 31
0.0
 73
     1
 44
1.0
1001
ACAD
1000
MTEXTBEGIN
1070
    73
1070
     1
1070
    44
1040
1.0
1070
    74
1070
     0
1000
MTEXTEND
  0
POINT
  5
1DACA
330
1D603
100
AcDbEntity
  8
DEFPOINTS
 62
     0
 48
50.0
100
AcDbPoint
 10
8609.153011747467
 20
4531.785350591381
 30
0.0
  0
POINT
  5
1DACB
330
1D603
100
AcDbEntity
  8
DEFPOINTS
 62
     0
 48
50.0
100
AcDbPoint
 10
8609.153011747469
 20
4696.785350591381
 30
0.0
  0
POINT
  5
1DACC
330
1D603
100
AcDbEntity
  8
DEFPOINTS
 62
     0
 48
50.0
100
AcDbPoint
 10
8896.696114069216
 20
4696.785350591381
 30
0.0
  0
ENDBLK
  5
1D60F
330
1D603
100
AcDbEntity
  8
0
 48
50.0
100
AcDbBlockEnd
  0
BLOCK
  5
1D9DB
330
1D9D1
100
AcDbEntity
  8
0
 48
50.0
100
AcDbBlockBegin
  2
*D42
 70
     1
 10
0.0
 20
0.0
 30
0.0
  3
*D42
  1

  0
LINE
  5
1DA14
330
1D9D1
100
AcDbEntity
  8
寸法
 62
     0
 48
50.0
370
    -2
100
AcDbLine
 10
6024.153011747236
 20
8688.867810478729
 30
0.0
 11
6375.994372008072
 21
8688.867810478729
 31
0.0
  0
LINE
  5
1DA15
330
1D9D1
100
AcDbEntity
  8
寸法
 62
     0
 48
50.0
370
    -2
100
AcDbLine
 10
6054.15301174747
 20
9405.367814055905
 30
0.0
 11
6375.994372008072
 21
9405.367814055905
 31
0.0
  0
LINE
  5
1DA16
330
1D9D1
100
AcDbEntity
  8
寸法
 62
     0
 48
50.0
370
    -2
100
AcDbLine
 10
6315.994372008073
 20
8688.867810478729
 30
0.0
 11
6315.994372008073
 21
9405.367814055905
 31
0.0
  0
INSERT
  5
1DA17
330
1D9D1
100
AcDbEntity
  8
寸法
 62
     0
 48
50.0
370
    -2
100
AcDbBlockReference
  2
_DOTSMALL
 10
6315.994372008073
 20
8688.867810478729
 30
0.0
 41
100.0
 42
100.0
 43
100.0
 50
270.0
  0
INSERT
  5
1DA18
330
1D9D1
100
AcDbEntity
  8
寸法
 62
     0
 48
50.0
370
    -2
100
AcDbBlockReference
  2
_DOTSMALL
 10
6315.994372008073
 20
9405.367814055905
 30
0.0
 41
100.0
 42
100.0
 43
100.0
 50
90.0
  0
MTEXT
  5
1DA19
330
1D9D1
100
AcDbEntity
  8
寸法
 62
     7
 48
50.0
100
AcDbMText
 10
6215.994372008072
 20
9137.329952020161
 30
0.0
 40
120.0
 41
0.0
 71
     5
 72
     1
  1
\A1;716.5
  7
STYLE1
 11
0.0000000000000001
 21
1.0
 31
0.0
 73
     1
 44
1.0
1001
ACAD
1000
MTEXTBEGIN
1070
    73
1070
     1
1070
    44
1040
1.0
1070
    74
1070
     0
1000
MTEXTEND
  0
POINT
  5
1DA1A
330
1D9D1
100
AcDbEntity
  8
DEFPOINTS
 62
     0
 48
50.0
100
AcDbPoint
 10
6004.153011747235
 20
8688.867810478729
 30
0.0
  0
POINT
  5
1DA1B
330
1D9D1
100
AcDbEntity
  8
DEFPOINTS
 62
     0
 48
50.0
100
AcDbPoint
 10
6034.15301174747
 20
9405.367814055905
 30
0.0
  0
POINT
  5
1DA1C
330
1D9D1
100
AcDbEntity
  8
DEFPOINTS
 62
     0
 48
50.0
100
AcDbPoint
 10
6315.994372008073
 20
9405.367814055905
 30
0.0
  0
ENDBLK
  5
1D9DC
330
1D9D1
100
AcDbEntity
  8
0
 48
50.0
100
AcDbBlockEnd
  0
ENDSEC
  0
SECTION
  2
ENTITIES
  0
MTEXT
  5
763F
330
747D
100
AcDbEntity
  8
0
100
AcDbMText
 10
302.846345836809
 20
280.1983726409901
 30
0.0
 40
3.5
 41
5.323721266742722
 71
     1
 72
     5
  1

  7
MSMINCHO
 73
     1
 44
1.0
1001
ACAD
1000
MTEXTBEGIN
1070
    73
1070
     1
1070
    44
1040
1.0
1070
    74
1070
     0
1000
MTEXTEND
  0
LINE
  5
10B57
330
747D
100
AcDbEntity
  8
補助
  6
PHANTOM
 62
   230
 48
50.0
100
AcDbLine
 10
139.9999999999995
 20
11409.6
 30
0.0
 11
16307.2
 21
11409.6
 31
0.0
  0
LINE
  5
10B59
330
747D
100
AcDbEntity
  8
仕様書枠
  6
Continuous
 48
50.0
100
AcDbLine
 10
13107.2
 20
1200.0
 30
0.0
 11
13107.2
 21
-0.0000000000000729
 31
0.0
  0
LINE
  5
10B5C
330
747D
100
AcDbEntity
  8
仕様書枠
 48
50.0
100
AcDbLine
 10
16307.2
 20
1200.0
 30
0.0
 11
16307.2
 21
-0.0000000000000909
 31
0.0
  0
LINE
  5
10B5D
330
747D
100
AcDbEntity
  8
仕様書枠
 48
50.0
100
AcDbLine
 10
140.0
 20
0.0
 30
0.0
 11
16307.2
 21
-0.0000000000000909
 31
0.0
  0
LINE
  5
10B5E
330
747D
100
AcDbEntity
  8
補助
  6
PHANTOM
 62
   230
 48
50.0
100
AcDbLine
 10
16307.2
 20
11409.6
 30
0.0
 11
16307.2
 21
1200.0
 31
0.0
  0
LINE
  5
10B6C
330
747D
100
AcDbEntity
  8
仕様書枠
 48
50.0
100
AcDbLine
 10
13107.2
 20
1200.0
 30
0.0
 11
16307.2
 21
1200.0
 31
0.0
  0
LINE
  5
10B6D
330
747D
100
AcDbEntity
  8
補助
  6
PHANTOM
 62
   230
 48
50.0
100
AcDbLine
 10
13107.2
 20
11409.6
 30
0.0
 11
13107.2
 21
4800.0
 31
0.0
  0
LINE
  5
10B6F
330
747D
100
AcDbEntity
  8
補助
  6
PHANTOM
 62
   230
 48
50.0
100
AcDbLine
 10
13107.2
 20
4800.0
 30
0.0
 11
16307.2
 21
4800.0
 31
0.0
  0
LINE
  5
10B72
330
747D
100
AcDbEntity
  8
文字
 62
     7
 48
50.0
100
AcDbLine
 10
13187.2
 20
400.0
 30
0.0
 11
16227.2
 21
400.0
 31
0.0
  0
TEXT
  5
10B73
330
747D
100
AcDbEntity
  8
文字
 62
     7
 48
50.0
100
AcDbText
 10
13162.9790565769
 20
895.0906074299405
 30
0.0
 40
200.0
  1
外 形 図
  7
STYLE2
100
AcDbText
  0
TEXT
  5
10B74
330
747D
100
AcDbEntity
  8
文字
 62
     7
 48
50.0
100
AcDbText
 10
13201.43669998441
 20
477.2740661031255
 30
0.0
 40
160.0
  1
機種名
  7
STYLE2
100
AcDbText
  0
TEXT
  5
10B75
330
747D
100
AcDbEntity
  8
文字
 62
     7
 48
50.0
100
AcDbText
 10
13209.4053442172
 20
228.5435242569016
 30
0.0
 40
100.0
  1
○有効開口寸法 ： 2424×1886(mm)
  7
STYLE2
100
AcDbText
  0
TEXT
  5
10B76
330
747D
100
AcDbEntity
  8
文字
 62
     7
 48
50.0
100
AcDbText
 10
13209.4053442172
 20
76.09434707649343
 30
0.0
 40
100.0
  1
○床面積 ： 9.42㎡(2.85坪)
  7
STYLE2
100
AcDbText
  0
TEXT
  5
10B79
330
747D
100
AcDbEntity
  8
文字
 62
     7
 48
50.0
100
AcDbText
 10
14524.131837222
 20
1031.557706291228
 30
0.0
 40
100.0
  1
NO.10      <縮尺> S=1/40
  7
STYLE2
100
AcDbText
  0
LINE
  5
10B7B
330
747D
100
AcDbEntity
  8
仕様書枠
 48
50.0
100
AcDbLine
 10
13107.2
 20
800.0
 30
0.0
 11
14251.2
 21
800.0
 31
0.0
  0
LINE
  5
10B88
330
747D
100
AcDbEntity
  8
仕様書枠
  6
Continuous
 48
50.0
100
AcDbLine
 10
14251.2
 20
1200.0
 30
0.0
 11
14251.2
 21
800.0
 31
0.0
  0
DIMENSION
  5
162CD
330
747D
100
AcDbEntity
  8
寸法
100
AcDbDimension
  2
*D1
 10
9256.57935748188
 20
7670.367811356789
 30
0.0
 11
9156.567546458258
 21
8510.367811356799
 31
0.0
 70
    32
  1
4X420=<>
 71
     5
 42
1680.000000000014
  3
INABA_S40G
100
AcDbAlignedDimension
 13
8609.153011747476
 23
9350.367811356804
 33
0.0
 14
8609.15301174745
 24
7670.367811356789
 34
0.0
 50
90.0
100
AcDbRotatedDimension
1001
ACAD
1000
DSTYLE
1002
{
1002
}
  0
DIMENSION
  5
162CE
330
747D
100
AcDbEntity
  8
寸法
100
AcDbDimension
  2
*D2
 10
9256.579357481861
 20
7615.367811356794
 30
0.0
 11
9256.579357481859
 21
7237.506344451931
 31
0.0
 70
   160
 71
     5
 42
54.99999999999636
  3
INABA_S40G
100
AcDbAlignedDimension
 13
8609.15301174745
 23
7670.367811356789
 33
0.0
 14
8609.15301174745
 24
7615.367811356794
 34
0.0
 50
90.0
100
AcDbRotatedDimension
1001
ACAD
1000
DSTYLE
1002
{
1002
}
  0
DIMENSION
  5
162CF
330
747D
100
AcDbEntity
  8
寸法
100
AcDbDimension
  2
*D3
 10
9256.579357481887
 20
9350.367811356804
 30
0.0
 11
9256.579357481886
 21
9713.85309273104
 31
0.0
 70
   160
 71
     5
 42
54.99999999999636
  3
INABA_S40G
100
AcDbAlignedDimension
 13
8609.153011747476
 23
9405.367811356802
 33
0.0
 14
8609.153011747476
 24
9350.367811356804
 34
0.0
 50
90.0
100
AcDbRotatedDimension
1001
ACAD
1000
DSTYLE
1002
{
1002
}
  0
DIMENSION
  5
162D0
330
747D
100
AcDbEntity
  8
寸法
100
AcDbDimension
  2
*D4
 10
9621.686299221522
 20
7615.367811356794
 30
0.0
 11
9521.686299221519
 21
8510.367811356799
 31
0.0
 70
    32
 71
     5
 42
1790.000000000007
  3
INABA_S40G
100
AcDbAlignedDimension
 13
8609.153011747476
 23
9405.367811356802
 33
0.0
 14
8609.15301174745
 24
7615.367811356794
 34
0.0
 50
90.0
100
AcDbRotatedDimension
1001
ACAD
1000
DSTYLE
1002
{
1002
}
  0
LINE
  5
162DC
330
747D
100
AcDbEntity
  8
部品1
100
AcDbLine
 10
8581.153011747458
 20
9377.367811356801
 30
0.0
 11
8581.153011747451
 21
7670.367811356789
 31
0.0
  0
LINE
  5
162DD
330
747D
100
AcDbEntity
  8
部品1
100
AcDbLine
 10
3377.153011747451
 20
7670.367811356512
 30
0.0
 11
3377.153011747461
 21
9377.367811356561
 31
0.0
  0
LINE
  5
162DE
330
747D
100
AcDbEntity
  8
部品1
100
AcDbLine
 10
8609.153011747476
 20
9405.367811356802
 30
0.0
 11
8609.15301174745
 21
7615.367811356794
 31
0.0
  0
LINE
  5
162DF
330
747D
100
AcDbEntity
  8
部品1
100
AcDbLine
 10
3349.153011747441
 20
9405.367811356528
 30
0.0
 11
3349.153011747469
 21
7615.367811356515
 31
0.0
  0
DIMENSION
  5
162E4
330
747D
100
AcDbEntity
  8
寸法
 48
50.0
100
AcDbDimension
  2
*D5
 10
6082.153011747468
 20
7080.937040590537
 30
0.0
 11
7294.15301174746
 21
7180.94885161416
 31
0.0
 70
    32
  1
有効開口部間口 <>
 71
     5
 42
2423.999999999982
  3
INABA_S40G
100
AcDbAlignedDimension
 13
8506.15301174745
 23
7641.367811356701
 33
0.0
 14
6082.153011747468
 24
7641.367811356701
 34
0.0
100
AcDbRotatedDimension
1001
ACAD
1000
DSTYLE
1002
{
1070
    75
1070
     1
1070
   279
1070
     2
1002
}
  0
LINE
  5
162E6
330
747D
100
AcDbEntity
  8
部品1
 48
50.0
100
AcDbLine
 10
6046.153011747467
 20
7660.867811356701
 30
0.0
 11
8542.153011747451
 21
7660.867811356701
 31
0.0
  0
DIMENSION
  5
162E7
330
747D
100
AcDbEntity
  8
寸法
100
AcDbDimension
  2
*D6
 10
8609.153011747439
 20
6634.764044999517
 30
0.0
 11
5979.153011747454
 21
6734.775856023138
 31
0.0
 70
    32
 71
     5
 42
5259.999999999971
  3
INABA_S40G
100
AcDbAlignedDimension
 13
3349.153011747469
 23
7615.367811356552
 33
0.0
 14
8609.153011747439
 24
7615.367811356794
 34
0.0
100
AcDbRotatedDimension
1001
ACAD
1000
DSTYLE
1002
{
1002
}
  0
LINE
  5
162E8
330
747D
100
AcDbEntity
  8
部品1
100
AcDbLine
 10
3404.153011747454
 20
8925.36781135657
 30
0.0
 11
3404.153011747466
 21
7680.367811356552
 31
0.0
  0
DIMENSION
  5
162EA
330
747D
100
AcDbEntity
  8
寸法
 48
50.0
100
AcDbDimension
  2
*D7
 10
3349.153011747469
 20
7080.937040590391
 30
0.0
 11
3040.66773037323
 21
7080.937040590391
 31
0.0
 70
   160
 71
     5
 42
54.99999999999636
  3
INABA_S40G
100
AcDbAlignedDimension
 13
3404.153011747465
 23
7615.367811356555
 33
0.0
 14
3349.153011747469
 24
7615.367811356552
 34
0.0
100
AcDbRotatedDimension
1001
ACAD
1000
DSTYLE
1002
{
1002
}
  0
DIMENSION
  5
162EB
330
747D
100
AcDbEntity
  8
寸法
 48
50.0
100
AcDbDimension
  2
*D8
 10
6034.153011747465
 20
7080.937040590537
 30
0.0
 11
6195.054982747526
 21
7180.937040590537
 31
0.0
 70
   160
 71
     5
 42
48.00000000000363
  3
INABA_S40G
100
AcDbAlignedDimension
 13
6082.153011747468
 23
7641.367811356701
 33
0.0
 14
6034.153011747465
 24
7615.367811356702
 34
0.0
100
AcDbRotatedDimension
1001
ACAD
1000
DSTYLE
1002
{
1070
   279
1070
     2
1002
}
  0
LINE
  5
162EC
330
747D
100
AcDbEntity
  8
部品1
100
AcDbLine
 10
3404.153011747463
 20
7615.367811356555
 30
0.0
 11
3349.153011747469
 21
7615.367811356552
 31
0.0
  0
LINE
  5
162ED
330
747D
100
AcDbEntity
  8
部品1
 48
50.0
100
AcDbLine
 10
3404.153011747469
 20
7651.367811356553
 30
0.0
 11
3381.153011747469
 21
7651.367811356553
 31
0.0
  0
LINE
  5
162EE
330
747D
100
AcDbEntity
  8
部品1
 48
50.0
100
AcDbLine
 10
3414.153011747469
 20
7641.367811356555
 30
0.0
 11
3404.153011747469
 21
7620.367811356555
 31
0.0
  0
LINE
  5
162EF
330
747D
100
AcDbEntity
  8
部品1
 48
50.0
100
AcDbLine
 10
3404.153011747469
 20
7680.367811356552
 30
0.0
 11
3404.153011747465
 21
7615.367811356555
 31
0.0
  0
LINE
  5
162F0
330
747D
100
AcDbEntity
  8
部品1
 48
50.0
100
AcDbLine
 10
3452.153011747469
 20
7641.367811356555
 30
0.0
 11
3452.153011747469
 21
7650.367811356556
 31
0.0
  0
LINE
  5
162F1
330
747D
100
AcDbEntity
  8
部品1
 48
50.0
100
AcDbLine
 10
3452.153011747469
 20
7680.367811356555
 30
0.0
 11
3452.153011747469
 21
7671.367811356555
 31
0.0
  0
LINE
  5
162F2
330
747D
100
AcDbEntity
  8
部品1
100
AcDbLine
 10
3452.153011747469
 20
7680.367811356555
 30
0.0
 11
3404.153011747469
 21
7680.367811356555
 31
0.0
  0
LINE
  5
162F3
330
747D
100
AcDbEntity
  8
部品1
100
AcDbLine
 10
3452.153011747469
 20
7641.367811356555
 30
0.0
 11
3404.153011747469
 21
7641.367811356555
 31
0.0
  0
LINE
  5
162F4
330
747D
100
AcDbEntity
  8
部品1
100
AcDbLine
 10
3404.153011747466
 20
7651.367811356553
 30
0.0
 11
3381.153011747469
 21
7651.367811356553
 31
0.0
  0
LINE
  5
162F5
330
747D
100
AcDbEntity
  8
部品1
100
AcDbLine
 10
3404.153011747466
 20
7670.367811356479
 30
0.0
 11
3349.153011747467
 21
7670.367811356479
 31
0.0
  0
LINE
  5
162F6
330
747D
100
AcDbEntity
  8
部品1
100
AcDbLine
 10
3377.153011747451
 20
7670.367811356515
 30
0.0
 11
3349.153011747467
 21
7670.367811356515
 31
0.0
  0
LINE
  5
162F7
330
747D
100
AcDbEntity
  8
部品1
100
AcDbLine
 10
3377.153011747467
 20
7670.367811356529
 30
0.0
 11
3349.153011747467
 21
7670.367811356529
 31
0.0
  0
LINE
  5
162FB
330
747D
100
AcDbEntity
  8
部品1
100
AcDbLine
 10
3377.153011747456
 20
8930.36781135653
 30
0.0
 11
3349.153011747456
 21
8930.36781135653
 31
0.0
  0
DIMENSION
  5
16301
330
747D
100
AcDbEntity
  8
寸法
 48
50.0
100
AcDbDimension
  2
*D9
 10
8506.15301174745
 20
7080.937040590537
 30
0.0
 11
8395.190114098703
 21
7180.937040590537
 31
0.0
 70
   160
 71
     5
 42
48.00000000000181
  3
INABA_S40G
100
AcDbAlignedDimension
 13
8554.153011747452
 23
7615.367811356789
 33
0.0
 14
8506.15301174745
 24
7641.367811356701
 34
0.0
100
AcDbRotatedDimension
1001
ACAD
1000
DSTYLE
1002
{
1070
   279
1070
     2
1002
}
  0
DIMENSION
  5
16302
330
747D
100
AcDbEntity
  8
寸法
 48
50.0
100
AcDbDimension
  2
*D10
 10
8554.153011747452
 20
7080.937040590537
 30
0.0
 11
8917.638293121688
 21
7080.937040590537
 31
0.0
 70
   160
 71
     5
 42
54.99999999999818
  3
INABA_S40G
100
AcDbAlignedDimension
 13
8609.15301174745
 23
7615.367811356794
 33
0.0
 14
8554.153011747452
 24
7615.367811356789
 34
0.0
100
AcDbRotatedDimension
1001
ACAD
1000
DSTYLE
1002
{
1002
}
  0
LINE
  5
16303
330
747D
100
AcDbEntity
  8
部品1
 48
50.0
100
AcDbLine
 10
8544.15301174745
 20
7641.367811356701
 30
0.0
 11
8554.15301174745
 21
7620.367811356702
 31
0.0
  0
LINE
  5
16304
330
747D
100
AcDbEntity
  8
部品1
100
AcDbLine
 10
8506.15301174745
 20
7680.367811356702
 30
0.0
 11
8554.153011747452
 21
7680.367811356702
 31
0.0
  0
LINE
  5
16305
330
747D
100
AcDbEntity
  8
部品1
100
AcDbLine
 10
8506.15301174745
 20
7641.367811356701
 30
0.0
 11
8554.15301174745
 21
7641.367811356701
 31
0.0
  0
LINE
  5
16306
330
747D
100
AcDbEntity
  8
部品1
 48
50.0
100
AcDbLine
 10
8506.15301174745
 20
7680.367811356702
 30
0.0
 11
8506.15301174745
 21
7671.367811356702
 31
0.0
  0
LINE
  5
16307
330
747D
100
AcDbEntity
  8
部品1
 48
50.0
100
AcDbLine
 10
8506.15301174745
 20
7641.367811356701
 30
0.0
 11
8506.15301174745
 21
7650.367811356701
 31
0.0
  0
LINE
  5
16308
330
747D
100
AcDbEntity
  8
部品1
100
AcDbLine
 10
8554.15301174745
 20
7651.367811356698
 30
0.0
 11
8577.153011747451
 21
7651.367811356701
 31
0.0
  0
LINE
  5
16309
330
747D
100
AcDbEntity
  8
部品1
100
AcDbLine
 10
8554.15301174745
 20
7670.367811356804
 30
0.0
 11
8609.153011747483
 21
7670.367811356804
 31
0.0
  0
LINE
  5
1630A
330
747D
100
AcDbEntity
  8
部品1
100
AcDbLine
 10
8609.15301174745
 20
7615.367811356794
 30
0.0
 11
8554.153011747452
 21
7615.367811356789
 31
0.0
  0
LINE
  5
16317
330
747D
100
AcDbEntity
  8
部品1
100
AcDbLine
 10
8581.153011747479
 20
8930.367811356804
 30
0.0
 11
8609.153011747478
 21
8930.367811356804
 31
0.0
  0
LINE
  5
1631B
330
747D
100
AcDbEntity
  8
部品1
100
AcDbLine
 10
6007.153011747472
 20
9377.367811356821
 30
0.0
 11
7281.653011747474
 21
9377.367811356823
 31
0.0
  0
DIMENSION
  5
1631F
330
747D
100
AcDbEntity
  8
寸法
100
AcDbDimension
  2
*D11
 10
8554.153011747477
 20
9921.176030981804
 30
0.0
 11
7294.153011747475
 21
10021.18784200542
 31
0.0
 70
    32
  1
6X420=<>
 71
     5
 42
2520.000000000002
  3
INABA_S40G
100
AcDbAlignedDimension
 13
6034.153011747473
 23
9405.367811356706
 33
0.0
 14
8554.153011747477
 24
9405.367811356802
 34
0.0
100
AcDbRotatedDimension
1001
ACAD
1000
DSTYLE
1002
{
1002
}
  0
DIMENSION
  5
16320
330
747D
100
AcDbEntity
  8
寸法
100
AcDbDimension
  2
*D12
 10
3404.153011747474
 20
9921.176030981541
 30
0.0
 11
3040.667730373201
 21
9921.176030981541
 31
0.0
 70
   160
 71
     5
 42
55.00000000003274
  3
INABA_S40G
100
AcDbAlignedDimension
 13
3349.153011747441
 23
9405.36781135656
 33
0.0
 14
3404.153011747474
 24
9405.36781135656
 34
0.0
100
AcDbRotatedDimension
1001
ACAD
1000
DSTYLE
1002
{
1002
}
  0
LINE
  5
16321
330
747D
100
AcDbEntity
  8
部品1
100
AcDbLine
 10
3404.153011747442
 20
9405.367811356528
 30
0.0
 11
3404.153011747442
 21
9377.367811356528
 31
0.0
  0
LINE
  5
16322
330
747D
100
AcDbEntity
  8
部品1
100
AcDbLine
 10
3404.153011747474
 20
9405.36781135656
 30
0.0
 11
3404.153011747474
 21
9377.367811356561
 31
0.0
  0
LINE
  5
16323
330
747D
100
AcDbEntity
  8
部品1
100
AcDbLine
 10
3377.153011747441
 20
9350.367811356532
 30
0.0
 11
3349.153011747441
 21
9350.367811356532
 31
0.0
  0
LINE
  5
16324
330
747D
100
AcDbEntity
  8
部品1
100
AcDbLine
 10
6454.153011747473
 20
9405.367811356823
 30
0.0
 11
6454.153011747473
 21
9377.367811356823
 31
0.0
  0
LINE
  5
16325
330
747D
100
AcDbEntity
  8
部品1
100
AcDbLine
 10
6454.153011747473
 20
9405.367811356706
 30
0.0
 11
6454.153011747473
 21
9377.367811356705
 31
0.0
  0
LINE
  5
16326
330
747D
100
AcDbEntity
  8
部品1
100
AcDbLine
 10
6454.153011747473
 20
9405.367811356706
 30
0.0
 11
6454.153011747473
 21
9377.367811356705
 31
0.0
  0
LINE
  5
16329
330
747D
100
AcDbEntity
  8
部品1
100
AcDbLine
 10
6874.153011747473
 20
9405.367811356823
 30
0.0
 11
6874.153011747473
 21
9377.367811356823
 31
0.0
  0
LINE
  5
1632A
330
747D
100
AcDbEntity
  8
部品1
100
AcDbLine
 10
6874.153011747473
 20
9405.367811356706
 30
0.0
 11
6874.153011747473
 21
9377.367811356705
 31
0.0
  0
LINE
  5
1632B
330
747D
100
AcDbEntity
  8
部品1
100
AcDbLine
 10
6874.153011747473
 20
9405.367811356706
 30
0.0
 11
6874.153011747473
 21
9377.367811356705
 31
0.0
  0
LINE
  5
1632C
330
747D
100
AcDbEntity
  8
部品1
100
AcDbLine
 10
7294.153011747474
 20
9405.367811356823
 30
0.0
 11
7294.153011747474
 21
9377.367811356823
 31
0.0
  0
LINE
  5
16332
330
747D
100
AcDbEntity
  8
部品1
100
AcDbLine
 10
7714.153011747474
 20
9405.367811356823
 30
0.0
 11
7714.153011747474
 21
9377.367811356823
 31
0.0
  0
DIMENSION
  5
16333
330
747D
100
AcDbEntity
  8
寸法
100
AcDbDimension
  2
*D13
 10
8609.153011747476
 20
9921.176030981786
 30
0.0
 11
8917.638293121715
 21
9921.176030981786
 31
0.0
 70
   160
 71
     5
 42
55.0
  3
INABA_S40G
100
AcDbAlignedDimension
 13
8554.153011747477
 23
9405.367811356802
 33
0.0
 14
8609.153011747476
 24
9405.367811356802
 34
0.0
100
AcDbRotatedDimension
1001
ACAD
1000
DSTYLE
1002
{
1002
}
  0
LINE
  5
16334
330
747D
100
AcDbEntity
  8
部品1
100
AcDbLine
 10
8134.153011747475
 20
9405.367811356823
 30
0.0
 11
8134.153011747475
 21
9377.367811356823
 31
0.0
  0
LINE
  5
16335
330
747D
100
AcDbEntity
  8
部品1
100
AcDbLine
 10
8554.153011747477
 20
9405.367811356802
 30
0.0
 11
8554.153011747477
 21
9377.367811356801
 31
0.0
  0
LINE
  5
16336
330
747D
100
AcDbEntity
  8
部品1
100
AcDbLine
 10
8554.153011747477
 20
9405.367811356823
 30
0.0
 11
8554.153011747477
 21
9377.367811356823
 31
0.0
  0
LINE
  5
16337
330
747D
100
AcDbEntity
  8
部品1
100
AcDbLine
 10
8581.153011747476
 20
9350.367811356804
 30
0.0
 11
8609.153011747476
 21
9350.367811356804
 31
0.0
  0
DIMENSION
  5
1659A
330
747D
100
AcDbEntity
  8
寸法
 48
50.0
100
AcDbDimension
  2
*D15
 10
5876.153011747451
 20
7080.937040590537
 30
0.0
 11
5765.190114098703
 21
7180.937040590537
 31
0.0
 70
   160
 71
     5
 42
48.00000000000181
  3
INABA_S40G
100
AcDbAlignedDimension
 13
5924.153011747453
 23
7615.367811356789
 33
0.0
 14
5876.153011747451
 24
7641.367811356701
 34
0.0
100
AcDbRotatedDimension
1001
ACAD
1000
DSTYLE
1002
{
1070
   279
1070
     2
1002
}
  0
DIMENSION
  5
1659C
330
747D
100
AcDbEntity
  8
寸法
 48
50.0
100
AcDbDimension
  2
*D14
 10
3404.153011747465
 20
7080.937040590391
 30
0.0
 11
3565.054982747526
 21
7180.93704059039
 31
0.0
 70
   160
 71
     5
 42
48.00000000000363
  3
INABA_S40G
100
AcDbAlignedDimension
 13
3452.153011747469
 23
7641.367811356555
 33
0.0
 14
3404.153011747465
 24
7615.367811356555
 34
0.0
100
AcDbRotatedDimension
1001
ACAD
1000
DSTYLE
1002
{
1070
   279
1070
     2
1002
}
  0
DIMENSION
  5
165E9
330
747D
100
AcDbEntity
  8
寸法
 48
50.0
100
AcDbDimension
  2
*D16
 10
5924.153011747453
 20
7080.937040590537
 30
0.0
 11
5979.15301174746
 21
6929.245145554308
 31
0.0
 70
   160
 71
     5
 42
110.0000000000127
  3
INABA_S40G
100
AcDbAlignedDimension
 13
6034.153011747465
 23
7615.367811356702
 33
0.0
 14
5924.153011747453
 24
7615.367811356789
 34
0.0
100
AcDbRotatedDimension
1001
ACAD
1000
DSTYLE
1002
{
1070
   279
1070
     2
1002
}
  0
LINE
  5
16656
330
747D
100
AcDbEntity
  8
部品1
100
AcDbLine
 10
5876.153011747451
 20
7680.367811356702
 30
0.0
 11
5924.153011747453
 21
7680.367811356702
 31
0.0
  0
LINE
  5
16657
330
747D
100
AcDbEntity
  8
部品1
 48
50.0
100
AcDbLine
 10
5876.153011747451
 20
7680.367811356702
 30
0.0
 11
5876.153011747451
 21
7671.367811356702
 31
0.0
  0
LINE
  5
16658
330
747D
100
AcDbEntity
  8
部品1
100
AcDbLine
 10
5876.153011747451
 20
7641.367811356701
 30
0.0
 11
5924.15301174745
 21
7641.367811356701
 31
0.0
  0
LINE
  5
16659
330
747D
100
AcDbEntity
  8
部品1
 48
50.0
100
AcDbLine
 10
5876.153011747451
 20
7641.367811356701
 30
0.0
 11
5876.153011747451
 21
7650.367811356701
 31
0.0
  0
LINE
  5
1665A
330
747D
100
AcDbEntity
  8
部品1
 48
50.0
100
AcDbLine
 10
5914.15301174745
 20
7641.367811356701
 30
0.0
 11
5924.15301174745
 21
7620.367811356702
 31
0.0
  0
LINE
  5
1665B
330
747D
100
AcDbEntity
  8
部品1
100
AcDbLine
 10
5924.15301174745
 20
7651.367811356698
 30
0.0
 11
5947.153011747451
 21
7651.367811356701
 31
0.0
  0
LINE
  5
1665C
330
747D
100
AcDbEntity
  8
部品1
100
AcDbLine
 10
6082.153011747468
 20
7680.367811356702
 30
0.0
 11
6034.153011747469
 21
7680.367811356702
 31
0.0
  0
LINE
  5
1665D
330
747D
100
AcDbEntity
  8
部品1
 48
50.0
100
AcDbLine
 10
6082.153011747468
 20
7680.367811356702
 30
0.0
 11
6082.153011747468
 21
7671.367811356702
 31
0.0
  0
LINE
  5
1665E
330
747D
100
AcDbEntity
  8
部品1
100
AcDbLine
 10
6082.153011747468
 20
7641.367811356701
 30
0.0
 11
6034.153011747469
 21
7641.367811356701
 31
0.0
  0
LINE
  5
1665F
330
747D
100
AcDbEntity
  8
部品1
 48
50.0
100
AcDbLine
 10
6044.153011747468
 20
7641.367811356701
 30
0.0
 11
6034.153011747469
 21
7620.367811356702
 31
0.0
  0
LINE
  5
16660
330
747D
100
AcDbEntity
  8
部品1
100
AcDbLine
 10
6034.153011747466
 20
7651.367811356701
 30
0.0
 11
6011.153011747468
 21
7651.367811356701
 31
0.0
  0
LINE
  5
16661
330
747D
100
AcDbEntity
  8
部品1
 48
50.0
100
AcDbLine
 10
6034.153011747469
 20
7680.3678113567
 30
0.0
 11
6034.153011747465
 21
7615.367811356702
 31
0.0
  0
LINE
  5
16662
330
747D
100
AcDbEntity
  8
部品1
 48
50.0
100
AcDbLine
 10
6082.153011747468
 20
7641.367811356701
 30
0.0
 11
6082.153011747468
 21
7650.367811356701
 31
0.0
  0
LINE
  5
16663
330
747D
100
AcDbEntity
  8
部品1
100
AcDbLine
 10
6034.153011747463
 20
7615.367811356702
 30
0.0
 11
5924.153011747454
 21
7615.367811356695
 31
0.0
  0
LINE
  5
16664
330
747D
100
AcDbEntity
  8
部品1
 48
50.0
100
AcDbLine
 10
5924.153011747456
 20
7680.36781135679
 30
0.0
 11
5924.153011747453
 21
7615.367811356789
 31
0.0
  0
LINE
  5
16666
330
747D
100
AcDbEntity
  8
部品1
100
AcDbLine
 10
6034.153011747473
 20
9405.367811356706
 30
0.0
 11
6034.153011747473
 21
9377.367811356705
 31
0.0
  0
LINE
  5
16692
330
747D
100
AcDbEntity
  8
部品1
100
AcDbLine
 10
5924.153011747476
 20
9405.367811356802
 30
0.0
 11
5924.153011747476
 21
9377.367811356801
 31
0.0
  0
DIMENSION
  5
166DD
330
747D
100
AcDbEntity
  8
寸法
 48
50.0
100
AcDbDimension
  2
*D17
 10
5924.153011747476
 20
9921.176030981804
 30
0.0
 11
5979.153011747475
 21
10021.1760309818
 31
0.0
 70
    32
 71
     5
 42
109.9999999999982
  3
INABA_S40G
100
AcDbAlignedDimension
 13
6034.153011747473
 23
9405.367811356756
 33
0.0
 14
5924.153011747476
 24
9405.367811356752
 34
0.0
100
AcDbRotatedDimension
1001
ACAD
1000
DSTYLE
1002
{
1070
   279
1070
     2
1002
}
  0
LINE
  5
16760
330
747D
100
AcDbEntity
  8
部品1
 48
50.0
100
AcDbLine
 10
5979.153011747442
 20
9377.367811356746
 30
0.0
 11
5951.153011747443
 21
9405.367811356802
 31
0.0
  0
LINE
  5
16761
330
747D
100
AcDbEntity
  8
部品1
100
AcDbLine
 10
6007.153011747443
 20
9350.367811356722
 30
0.0
 11
5951.153011747443
 21
9350.367811356722
 31
0.0
  0
LINE
  5
16762
330
747D
100
AcDbEntity
  8
部品1
 48
50.0
100
AcDbLine
 10
5951.153011747443
 20
9377.367811356853
 30
0.0
 11
5951.153011747441
 21
9405.367811356802
 31
0.0
  0
LINE
  5
16763
330
747D
100
AcDbEntity
  8
部品1
 48
50.0
100
AcDbLine
 10
5951.153011747443
 20
9377.367811356746
 30
0.0
 11
5979.153011747442
 21
9377.36781135675
 31
0.0
  0
LINE
  5
168C3
330
747D
100
AcDbEntity
  8
部品1
100
AcDbLine
 10
6003.15301174746
 20
7670.367811356697
 30
0.0
 11
5955.15301174746
 21
7670.367811356697
 31
0.0
  0
LINE
  5
168C4
330
747D
100
AcDbEntity
  8
部品1
 48
50.0
100
AcDbLine
 10
5955.15301174746
 20
7670.367811356697
 30
0.0
 11
5955.153011747463
 21
7615.367811356698
 31
0.0
  0
LINE
  5
168C5
330
747D
100
AcDbEntity
  8
部品1
 48
50.0
100
AcDbLine
 10
6003.15301174746
 20
7670.367811356697
 30
0.0
 11
6003.153011747463
 21
7615.367811356698
 31
0.0
  0
DIMENSION
  5
16913
330
747D
100
AcDbEntity
  8
寸法
 48
50.0
100
AcDbDimension
  2
*D18
 10
8609.153011747476
 20
10170.4975045381
 30
0.0
 11
7294.153011747475
 21
10270.50931556172
 31
0.0
 70
    32
 71
     5
 42
2630.0
  3
INABA_S40G
100
AcDbAlignedDimension
 13
5979.153011747476
 23
10080.16394533975
 33
0.0
 14
8609.153011747476
 24
9405.367811356802
 34
0.0
100
AcDbRotatedDimension
1001
ACAD
1000
DSTYLE
1002
{
1070
   279
1070
     2
1002
}
  0
LINE
  5
16C81
330
747D
100
AcDbEntity
  8
部品1
100
AcDbLine
 10
3377.153011747456
 20
8510.367811356529
 30
0.0
 11
3349.153011747456
 21
8510.367811356529
 31
0.0
  0
LINE
  5
16C82
330
747D
100
AcDbEntity
  8
部品1
100
AcDbLine
 10
8581.153011747479
 20
8510.367811356804
 30
0.0
 11
8609.153011747478
 21
8510.367811356804
 31
0.0
  0
LINE
  5
16FDA
330
747D
100
AcDbEntity
  8
部品1
100
AcDbLine
 10
3377.153011747456
 20
8090.367811356529
 30
0.0
 11
3349.153011747456
 21
8090.367811356529
 31
0.0
  0
LINE
  5
16FDB
330
747D
100
AcDbEntity
  8
部品1
100
AcDbLine
 10
8581.153011747479
 20
8090.367811356804
 30
0.0
 11
8609.153011747478
 21
8090.367811356804
 31
0.0
  0
DIMENSION
  5
17C60
330
747D
100
AcDbEntity
  8
寸法
 48
50.0
100
AcDbDimension
  2
*D21
 10
5979.153011747476
 20
10170.49750453795
 30
0.0
 11
4664.153011747458
 21
10270.50931556157
 31
0.0
 70
    32
 71
     5
 42
2630.000000000034
  3
INABA_S40G
100
AcDbAlignedDimension
 13
3349.153011747441
 23
9405.367811356528
 33
0.0
 14
5979.153011747476
 24
10080.1639453396
 34
0.0
100
AcDbRotatedDimension
1001
ACAD
1000
DSTYLE
1002
{
1070
   279
1070
     2
1002
}
  0
LINE
  5
17C67
330
747D
100
AcDbEntity
  8
部品1
100
AcDbLine
 10
3824.153011747474
 20
9405.367811356676
 30
0.0
 11
3824.153011747474
 21
9377.367811356677
 31
0.0
  0
LINE
  5
17C68
330
747D
100
AcDbEntity
  8
部品1
100
AcDbLine
 10
3824.153011747474
 20
9405.36781135656
 30
0.0
 11
3824.153011747474
 21
9377.367811356561
 31
0.0
  0
LINE
  5
17C69
330
747D
100
AcDbEntity
  8
部品1
100
AcDbLine
 10
3824.153011747474
 20
9405.36781135656
 30
0.0
 11
3824.153011747474
 21
9377.367811356561
 31
0.0
  0
LINE
  5
17C6A
330
747D
100
AcDbEntity
  8
部品1
100
AcDbLine
 10
4244.153011747473
 20
9405.367811356676
 30
0.0
 11
4244.153011747473
 21
9377.367811356677
 31
0.0
  0
LINE
  5
17C6B
330
747D
100
AcDbEntity
  8
部品1
100
AcDbLine
 10
4244.153011747473
 20
9405.36781135656
 30
0.0
 11
4244.153011747473
 21
9377.367811356561
 31
0.0
  0
LINE
  5
17C6C
330
747D
100
AcDbEntity
  8
部品1
100
AcDbLine
 10
4244.153011747473
 20
9405.36781135656
 30
0.0
 11
4244.153011747473
 21
9377.367811356561
 31
0.0
  0
LINE
  5
17C71
330
747D
100
AcDbEntity
  8
部品1
100
AcDbLine
 10
4676.653011747474
 20
9377.367811356673
 30
0.0
 11
5951.153011747476
 21
9377.367811356654
 31
0.0
  0
LINE
  5
17C83
330
747D
100
AcDbEntity
  8
部品1
100
AcDbLine
 10
4664.153011747474
 20
9405.367811356676
 30
0.0
 11
4664.153011747474
 21
9377.367811356677
 31
0.0
  0
LINE
  5
17C84
330
747D
100
AcDbEntity
  8
部品1
100
AcDbLine
 10
5084.153011747474
 20
9405.367811356676
 30
0.0
 11
5084.153011747474
 21
9377.367811356677
 31
0.0
  0
LINE
  5
17C85
330
747D
100
AcDbEntity
  8
部品1
100
AcDbLine
 10
5504.153011747474
 20
9405.367811356676
 30
0.0
 11
5504.153011747474
 21
9377.367811356677
 31
0.0
  0
LINE
  5
17C94
330
747D
100
AcDbEntity
  8
部品1
100
AcDbLine
 10
6007.153011747443
 20
9350.367811356575
 30
0.0
 11
5951.153011747443
 21
9350.367811356575
 31
0.0
  0
LINE
  5
17C97
330
747D
100
AcDbEntity
  8
部品1
100
AcDbLine
 10
5924.153011747476
 20
9405.367811356654
 30
0.0
 11
5924.153011747476
 21
9377.367811356654
 31
0.0
  0
LINE
  5
17C98
330
747D
100
AcDbEntity
  8
部品1
 48
50.0
100
AcDbLine
 10
5979.153011747442
 20
9377.367811356601
 30
0.0
 11
5951.153011747443
 21
9405.367811356654
 31
0.0
  0
LINE
  5
17C99
330
747D
100
AcDbEntity
  8
部品1
 48
50.0
100
AcDbLine
 10
5951.153011747443
 20
9377.367811356705
 30
0.0
 11
5951.153011747441
 21
9405.367811356654
 31
0.0
  0
LINE
  5
17C9A
330
747D
100
AcDbEntity
  8
部品1
 48
50.0
100
AcDbLine
 10
5951.153011747443
 20
9377.367811356601
 30
0.0
 11
5979.153011747442
 21
9377.367811356604
 31
0.0
  0
DIMENSION
  5
17C9B
330
747D
100
AcDbEntity
  8
寸法
 48
50.0
100
AcDbDimension
  2
*D20
 10
3452.153011747469
 20
7080.937040590391
 30
0.0
 11
4664.153011747459
 21
7180.948851614012
 31
0.0
 70
    32
  1
有効開口部間口 <>
 71
     5
 42
2423.999999999982
  3
INABA_S40G
100
AcDbAlignedDimension
 13
5876.153011747451
 23
7641.367811356555
 33
0.0
 14
3452.153011747469
 24
7641.367811356555
 34
0.0
100
AcDbRotatedDimension
1001
ACAD
1000
DSTYLE
1002
{
1070
    75
1070
     1
1070
   279
1070
     2
1002
}
  0
LINE
  5
17C9C
330
747D
100
AcDbEntity
  8
部品1
 48
50.0
100
AcDbLine
 10
3416.153011747467
 20
7660.867811356553
 30
0.0
 11
5912.153011747452
 21
7660.867811356553
 31
0.0
  0
DIMENSION
  5
17C9D
330
747D
100
AcDbEntity
  8
寸法
 48
50.0
100
AcDbDimension
  2
*D19
 10
5876.153011747451
 20
7080.937040590391
 30
0.0
 11
5765.190114098703
 21
7180.93704059039
 31
0.0
 70
   160
 71
     5
 42
48.00000000000181
  3
INABA_S40G
100
AcDbAlignedDimension
 13
5924.153011747453
 23
7615.367811356643
 33
0.0
 14
5876.153011747451
 24
7641.367811356555
 34
0.0
100
AcDbRotatedDimension
1001
ACAD
1000
DSTYLE
1002
{
1070
   279
1070
     2
1002
}
  0
LINE
  5
17CA2
330
747D
100
AcDbEntity
  8
部品1
100
AcDbLine
 10
5876.153011747451
 20
7680.367811356555
 30
0.0
 11
5924.153011747453
 21
7680.367811356555
 31
0.0
  0
LINE
  5
17CA3
330
747D
100
AcDbEntity
  8
部品1
100
AcDbLine
 10
5876.153011747451
 20
7641.367811356555
 30
0.0
 11
5924.15301174745
 21
7641.367811356555
 31
0.0
  0
LINE
  5
17CA4
330
747D
100
AcDbEntity
  8
部品1
 48
50.0
100
AcDbLine
 10
5876.153011747451
 20
7680.367811356555
 30
0.0
 11
5876.153011747451
 21
7671.367811356555
 31
0.0
  0
LINE
  5
17CA5
330
747D
100
AcDbEntity
  8
部品1
 48
50.0
100
AcDbLine
 10
5876.153011747451
 20
7641.367811356555
 30
0.0
 11
5876.153011747451
 21
7650.367811356556
 31
0.0
  0
LINE
  5
17CA6
330
747D
100
AcDbEntity
  8
部品1
 48
50.0
100
AcDbLine
 10
5914.15301174745
 20
7641.367811356555
 30
0.0
 11
5924.15301174745
 21
7620.367811356555
 31
0.0
  0
LINE
  5
17CAA
330
747D
100
AcDbEntity
  8
部品1
 48
50.0
100
AcDbLine
 10
5924.153011747456
 20
7680.367811356642
 30
0.0
 11
5924.153011747453
 21
7615.367811356643
 31
0.0
  0
LINE
  5
17CAF
330
747D
100
AcDbEntity
  8
部品1
100
AcDbLine
 10
6034.153011747463
 20
7615.367811356555
 30
0.0
 11
5924.153011747454
 21
7615.367811356548
 31
0.0
  0
LINE
  5
17D72
330
747D
100
AcDbEntity
  8
部品1
100
AcDbLine
 10
3377.153011747461
 20
9377.367811356668
 30
0.0
 11
4651.653011747474
 21
9377.367811356664
 31
0.0
  0
LINE
  5
17D73
330
747D
100
AcDbEntity
  8
部品1
100
AcDbLine
 10
3349.153011747441
 20
9405.367811356608
 30
0.0
 11
8609.153011747476
 21
9405.367811356802
 31
0.0
  0
LINE
  5
19F29
330
747D
100
AcDbEntity
  8
部品1
 48
50.0
100
AcDbLine
 10
6007.153011747443
 20
9350.367811356722
 30
0.0
 11
6007.153011747504
 21
9405.367811356786
 31
0.0
  0
LINE
  5
19F2A
330
747D
100
AcDbEntity
  8
部品1
 48
50.0
100
AcDbLine
 10
5951.153011747443
 20
9350.367811356722
 30
0.0
 11
5951.153011747476
 21
9377.367811356801
 31
0.0
  0
LINE
  5
19F2B
330
747D
100
AcDbEntity
  8
部品1
 48
50.0
100
AcDbLine
 10
6007.153011747443
 20
9350.367811356575
 30
0.0
 11
6007.153011747443
 21
9405.367811356622
 31
0.0
  0
LINE
  5
19F2C
330
747D
100
AcDbEntity
  8
部品1
 48
50.0
100
AcDbLine
 10
5951.153011747443
 20
9350.367811356575
 30
0.0
 11
5951.153011747441
 21
9405.36781135666
 31
0.0
  0
LINE
  5
19F30
330
747D
100
AcDbEntity
  8
部品1
 48
50.0
100
AcDbLine
 10
3404.153011747465
 20
7615.367811356555
 30
0.0
 11
5924.153011747453
 21
7615.367811356413
 31
0.0
  0
LINE
  5
19F31
330
747D
100
AcDbEntity
  8
部品1
 48
50.0
100
AcDbLine
 10
3404.153011747465
 20
7700.367811356556
 30
0.0
 11
5924.153011747453
 21
7700.367811356414
 31
0.0
  0
LINE
  5
19F32
330
747D
100
AcDbEntity
  8
部品1
 48
50.0
100
AcDbLine
 10
3404.153011747465
 20
7745.367811356555
 30
0.0
 11
5924.153011747453
 21
7745.367811356413
 31
0.0
  0
LINE
  5
19F33
330
747D
100
AcDbEntity
  8
破線
 48
10.0
100
AcDbLine
 10
3429.153011747329
 20
7770.367811356553
 30
0.0
 11
4223.653011747368
 21
7770.367811356507
 31
0.0
  0
LINE
  5
19F34
330
747D
100
AcDbEntity
  8
破線
 48
10.0
100
AcDbLine
 10
4273.653011747365
 20
7770.367811356506
 30
0.0
 11
5054.653011747369
 21
7770.367811356461
 31
0.0
  0
LINE
  5
19F35
330
747D
100
AcDbEntity
  8
破線
 48
10.0
100
AcDbLine
 10
4223.653011747368
 20
7745.367811356508
 30
0.0
 11
4223.653011747459
 21
8925.367811356638
 31
0.0
  0
LINE
  5
19F36
330
747D
100
AcDbEntity
  8
破線
 48
10.0
100
AcDbLine
 10
4273.653011747365
 20
7745.367811356508
 30
0.0
 11
4273.653011747458
 21
8925.367811356641
 31
0.0
  0
LINE
  5
19F37
330
747D
100
AcDbEntity
  8
破線
 48
10.0
100
AcDbLine
 10
5104.653011747365
 20
7745.367811356461
 30
0.0
 11
5104.653011747458
 21
8925.36781135667
 31
0.0
  0
LINE
  5
19F38
330
747D
100
AcDbEntity
  8
破線
 48
10.0
100
AcDbLine
 10
5054.653011747366
 20
7745.367811356463
 30
0.0
 11
5054.653011747461
 21
8925.36781135667
 31
0.0
  0
LINE
  5
19F39
330
747D
100
AcDbEntity
  8
破線
 48
10.0
100
AcDbLine
 10
5104.653011747369
 20
7770.367811356457
 30
0.0
 11
5899.153011747343
 21
7770.367811356412
 31
0.0
  0
LINE
  5
19F3A
330
747D
100
AcDbEntity
  8
部品1
 48
50.0
100
AcDbLine
 10
3404.153011747465
 20
8090.367811356529
 30
0.0
 11
5924.15301174747
 21
8090.367811356527
 31
0.0
  0
LINE
  5
19F3B
330
747D
100
AcDbEntity
  8
破線
 48
10.0
100
AcDbLine
 10
3429.153011747329
 20
7770.367811356553
 30
0.0
 11
3429.15301174742
 21
8925.36781135657
 31
0.0
  0
LINE
  5
19F3C
330
747D
100
AcDbEntity
  8
破線
 48
10.0
100
AcDbLine
 10
5899.153011747341
 20
7770.367811356412
 30
0.0
 11
5899.153011747433
 21
8925.367811356666
 31
0.0
  0
LINE
  5
19F3F
330
747D
100
AcDbEntity
  8
部品1
100
AcDbLine
 10
5924.15301174747
 20
7680.367811356555
 30
0.0
 11
5924.153011747472
 21
8925.367811356666
 31
0.0
  0
LINE
  5
19F41
330
747D
100
AcDbEntity
  8
部品1
 48
50.0
100
AcDbLine
 10
3404.153011747465
 20
8510.367811356529
 30
0.0
 11
5924.15301174747
 21
8510.367811356529
 31
0.0
  0
LINE
  5
19F52
330
747D
100
AcDbEntity
  8
部品1
 48
50.0
100
AcDbLine
 10
8554.153011747485
 20
8510.367811356678
 30
0.0
 11
6034.153011747481
 21
8510.367811356672
 31
0.0
  0
LINE
  5
19F53
330
747D
100
AcDbEntity
  8
部品1
 48
50.0
100
AcDbLine
 10
8554.153011747485
 20
8090.367811356676
 30
0.0
 11
6034.153011747481
 21
8090.367811356673
 31
0.0
  0
LINE
  5
19F54
330
747D
100
AcDbEntity
  8
破線
 48
10.0
100
AcDbLine
 10
7684.653011747586
 20
7770.367811356651
 30
0.0
 11
6903.653011747583
 21
7770.367811356606
 31
0.0
  0
LINE
  5
19F55
330
747D
100
AcDbEntity
  8
部品1
 48
50.0
100
AcDbLine
 10
8554.153011747485
 20
7745.3678113567
 30
0.0
 11
6034.153011747499
 21
7745.36781135656
 31
0.0
  0
LINE
  5
19F56
330
747D
100
AcDbEntity
  8
破線
 48
10.0
100
AcDbLine
 10
8529.153011747622
 20
7770.367811356701
 30
0.0
 11
8529.15301174753
 21
8925.367811356816
 31
0.0
  0
LINE
  5
19F57
330
747D
100
AcDbEntity
  8
破線
 48
10.0
100
AcDbLine
 10
7684.653011747586
 20
7745.367811356652
 30
0.0
 11
7684.653011747494
 21
8925.367811356819
 31
0.0
  0
LINE
  5
19F58
330
747D
100
AcDbEntity
  8
破線
 48
10.0
100
AcDbLine
 10
7734.653011747584
 20
7745.367811356657
 30
0.0
 11
7734.653011747493
 21
8925.367811356819
 31
0.0
  0
LINE
  5
19F59
330
747D
100
AcDbEntity
  8
部品1
100
AcDbLine
 10
8554.153011747498
 20
8925.367811356817
 30
0.0
 11
8554.153011747485
 21
7651.367811356698
 31
0.0
  0
LINE
  5
19F5A
330
747D
100
AcDbEntity
  8
破線
 48
10.0
100
AcDbLine
 10
8529.153011747622
 20
7770.367811356701
 30
0.0
 11
7734.653011747584
 21
7770.367811356655
 31
0.0
  0
LINE
  5
19F5D
330
747D
100
AcDbEntity
  8
部品1
100
AcDbLine
 10
6034.153011747481
 20
7680.3678113567
 30
0.0
 11
6034.15301174748
 21
8925.367811356716
 31
0.0
  0
LINE
  5
19F5E
330
747D
100
AcDbEntity
  8
破線
 48
10.0
100
AcDbLine
 10
6059.153011747611
 20
7770.36781135656
 30
0.0
 11
6059.153011747519
 21
8925.36781135672
 31
0.0
  0
LINE
  5
19F5F
330
747D
100
AcDbEntity
  8
破線
 48
10.0
100
AcDbLine
 10
6903.653011747585
 20
7745.36781135661
 30
0.0
 11
6903.653011747493
 21
8925.367811356791
 31
0.0
  0
LINE
  5
19F60
330
747D
100
AcDbEntity
  8
破線
 48
10.0
100
AcDbLine
 10
6853.653011747586
 20
7745.367811356605
 30
0.0
 11
6853.653011747494
 21
8925.367811356785
 31
0.0
  0
LINE
  5
19F61
330
747D
100
AcDbEntity
  8
破線
 48
10.0
100
AcDbLine
 10
6853.653011747583
 20
7770.367811356604
 30
0.0
 11
6059.153011747609
 21
7770.36781135656
 31
0.0
  0
LINE
  5
19F64
330
747D
100
AcDbEntity
  8
部品1
 48
50.0
100
AcDbLine
 10
8554.153011747485
 20
7700.3678113567
 30
0.0
 11
6034.153011747499
 21
7700.36781135656
 31
0.0
  0
LINE
  5
19F65
330
747D
100
AcDbEntity
  8
部品1
 48
50.0
100
AcDbLine
 10
8554.153011747485
 20
7615.367811356701
 30
0.0
 11
6034.153011747499
 21
7615.36781135656
 31
0.0
  0
LINE
  5
19F7E
330
747D
100
AcDbEntity
  8
部品1
100
AcDbLine
 10
5951.153011747457
 20
9350.367811356722
 30
0.0
 11
5951.153011747447
 21
7615.367811356697
 31
0.0
  0
LINE
  5
19F7F
330
747D
100
AcDbEntity
  8
部品1
100
AcDbLine
 10
6007.153011747437
 20
7615.367811356701
 30
0.0
 11
6007.153011747458
 21
9350.367811356722
 31
0.0
  0
LINE
  5
19F80
330
747D
100
AcDbEntity
  8
部品1
100
AcDbLine
 10
5924.15301174747
 20
7680.3678113567
 30
0.0
 11
5924.153011747472
 21
8925.367811356666
 31
0.0
  0
LINE
  5
19F93
330
747D
100
AcDbEntity
  8
部品1
 48
50.0
100
AcDbLine
 10
6034.153011747465
 20
7615.367811356555
 30
0.0
 11
5924.153011747453
 21
7615.36781135656
 31
0.0
  0
LINE
  5
19FEA
330
747D
100
AcDbEntity
  8
部品1
 48
50.0
100
AcDbLine
 10
8554.15301174745
 20
7651.367811356698
 30
0.0
 11
8554.153011747485
 21
7615.367811356701
 31
0.0
  0
DIMENSION
  5
1A029
330
747D
100
AcDbEntity
  8
寸法
100
AcDbDimension
  2
*D22
 10
5924.153011747476
 20
9921.176030981659
 30
0.0
 11
4664.153011747475
 21
10021.18784200528
 31
0.0
 70
    32
  1
6X420=<>
 71
     5
 42
2520.000000000002
  3
INABA_S40G
100
AcDbAlignedDimension
 13
3404.153011747474
 23
9405.36781135656
 33
0.0
 14
5924.153011747476
 24
9405.367811356654
 34
0.0
100
AcDbRotatedDimension
1001
ACAD
1000
DSTYLE
1002
{
1002
}
  0
LINE
  5
1A3D8
330
747D
100
AcDbEntity
  8
細線
 48
50.0
100
AcDbLine
 10
4650.653011747474
 20
9375.367811356669
 30
0.0
 11
3377.653011747475
 21
8925.367811356567
 31
0.0
  0
LINE
  5
1A3D9
330
747D
100
AcDbEntity
  8
細線
 48
50.0
100
AcDbLine
 10
4650.653011747474
 20
8925.367811356673
 30
0.0
 11
3377.653011747475
 21
9375.367811356566
 31
0.0
  0
LINE
  5
1A3DA
330
747D
100
AcDbEntity
  8
細線
 48
50.0
100
AcDbLine
 10
5950.653011747476
 20
8925.367811356666
 30
0.0
 11
4677.653011747474
 21
9375.367811356666
 31
0.0
  0
LINE
  5
1A3DB
330
747D
100
AcDbEntity
  8
細線
 48
50.0
100
AcDbLine
 10
5950.653011747476
 20
9375.367811356662
 30
0.0
 11
4677.653011747474
 21
8925.367811356673
 31
0.0
  0
LINE
  5
1A3DC
330
747D
100
AcDbEntity
  8
部品1
 48
50.0
100
AcDbLine
 10
4676.653011747474
 20
9377.367811356673
 30
0.0
 11
4676.653011747474
 21
8925.367811356673
 31
0.0
  0
LINE
  5
1A3DD
330
747D
100
AcDbEntity
  8
部品1
 48
50.0
100
AcDbLine
 10
4651.653011747474
 20
9377.367811356677
 30
0.0
 11
4651.653011747474
 21
8925.367811356673
 31
0.0
  0
LINE
  5
1A3DE
330
747D
100
AcDbEntity
  8
部品1
 48
50.0
100
AcDbLine
 10
4677.653011747474
 20
9375.367811356666
 30
0.0
 11
4677.653011747474
 21
8925.367811356673
 31
0.0
  0
LINE
  5
1A3DF
330
747D
100
AcDbEntity
  8
部品1
 48
50.0
100
AcDbLine
 10
4650.653011747474
 20
9375.367811356669
 30
0.0
 11
4650.653011747474
 21
8925.367811356673
 31
0.0
  0
LINE
  5
1A3E0
330
747D
100
AcDbEntity
  8
部品1
100
AcDbLine
 10
3377.653011747476
 20
8925.367811356567
 30
0.0
 11
4650.653011747474
 21
8925.367811356673
 31
0.0
  0
LINE
  5
1A3E1
330
747D
100
AcDbEntity
  8
部品1
100
AcDbLine
 10
4677.653011747474
 20
8925.367811356673
 30
0.0
 11
5950.653011747476
 21
8925.367811356666
 31
0.0
  0
LINE
  5
1A3E2
330
747D
100
AcDbEntity
  8
部品1
100
AcDbLine
 10
4651.653011747474
 20
8925.367811356673
 30
0.0
 11
4676.653011747474
 21
8925.367811356673
 31
0.0
  0
LINE
  5
1A3E3
330
747D
100
AcDbEntity
  8
部品1
 48
50.0
100
AcDbLine
 10
3377.653011747475
 20
9375.367811356564
 30
0.0
 11
3377.653011747475
 21
8925.367811356563
 31
0.0
  0
LINE
  5
1A3E4
330
747D
100
AcDbEntity
  8
部品1
100
AcDbLine
 10
3377.653011747475
 20
9375.367811356566
 30
0.0
 11
4650.653011747474
 21
9375.367811356673
 31
0.0
  0
LINE
  5
1A3E5
330
747D
100
AcDbEntity
  8
部品1
100
AcDbLine
 10
4677.653011747474
 20
9375.367811356669
 30
0.0
 11
5950.653011747476
 21
9375.367811356662
 31
0.0
  0
LINE
  5
1A3E6
330
747D
100
AcDbEntity
  8
部品1
100
AcDbLine
 10
5950.653011747476
 20
9375.367811356662
 30
0.0
 11
5950.653011747476
 21
8925.367811356666
 31
0.0
  0
LINE
  5
1A417
330
747D
100
AcDbEntity
  8
細線
 48
50.0
100
AcDbLine
 10
7280.653011747474
 20
9375.367811356818
 30
0.0
 11
6007.653011747474
 21
8925.367811356716
 31
0.0
  0
LINE
  5
1A418
330
747D
100
AcDbEntity
  8
細線
 48
50.0
100
AcDbLine
 10
7280.653011747474
 20
8925.367811356823
 30
0.0
 11
6007.653011747474
 21
9375.367811356715
 31
0.0
  0
LINE
  5
1A419
330
747D
100
AcDbEntity
  8
細線
 48
50.0
100
AcDbLine
 10
8580.653011747477
 20
8925.367811356816
 30
0.0
 11
7307.653011747475
 21
9375.367811356815
 31
0.0
  0
LINE
  5
1A41A
330
747D
100
AcDbEntity
  8
細線
 48
50.0
100
AcDbLine
 10
8580.653011747477
 20
9375.367811356811
 30
0.0
 11
7307.653011747475
 21
8925.367811356823
 31
0.0
  0
LINE
  5
1A41B
330
747D
100
AcDbEntity
  8
部品1
 48
50.0
100
AcDbLine
 10
7306.653011747474
 20
9377.367811356823
 30
0.0
 11
7306.653011747474
 21
8925.367811356823
 31
0.0
  0
LINE
  5
1A41C
330
747D
100
AcDbEntity
  8
部品1
 48
50.0
100
AcDbLine
 10
7281.653011747474
 20
9377.367811356826
 30
0.0
 11
7281.653011747474
 21
8925.367811356823
 31
0.0
  0
LINE
  5
1A41D
330
747D
100
AcDbEntity
  8
部品1
 48
50.0
100
AcDbLine
 10
7307.653011747475
 20
9375.367811356815
 30
0.0
 11
7307.653011747475
 21
8925.367811356823
 31
0.0
  0
LINE
  5
1A41E
330
747D
100
AcDbEntity
  8
部品1
 48
50.0
100
AcDbLine
 10
7280.653011747474
 20
9375.367811356818
 30
0.0
 11
7280.653011747474
 21
8925.367811356823
 31
0.0
  0
LINE
  5
1A41F
330
747D
100
AcDbEntity
  8
部品1
100
AcDbLine
 10
6007.653011747476
 20
8925.367811356716
 30
0.0
 11
7280.653011747474
 21
8925.367811356823
 31
0.0
  0
LINE
  5
1A420
330
747D
100
AcDbEntity
  8
部品1
100
AcDbLine
 10
7307.653011747475
 20
8925.367811356823
 30
0.0
 11
8580.653011747477
 21
8925.367811356816
 31
0.0
  0
LINE
  5
1A421
330
747D
100
AcDbEntity
  8
部品1
100
AcDbLine
 10
7281.653011747474
 20
8925.367811356823
 30
0.0
 11
7306.653011747474
 21
8925.367811356823
 31
0.0
  0
LINE
  5
1A422
330
747D
100
AcDbEntity
  8
部品1
 48
50.0
100
AcDbLine
 10
6007.653011747474
 20
9375.367811356714
 30
0.0
 11
6007.653011747474
 21
8925.367811356712
 31
0.0
  0
LINE
  5
1A423
330
747D
100
AcDbEntity
  8
部品1
100
AcDbLine
 10
6007.653011747474
 20
9375.367811356715
 30
0.0
 11
7280.653011747474
 21
9375.367811356822
 31
0.0
  0
LINE
  5
1A424
330
747D
100
AcDbEntity
  8
部品1
100
AcDbLine
 10
7307.653011747475
 20
9375.367811356818
 30
0.0
 11
8580.653011747477
 21
9375.367811356811
 31
0.0
  0
LINE
  5
1A425
330
747D
100
AcDbEntity
  8
部品1
100
AcDbLine
 10
8580.653011747477
 20
9375.367811356811
 30
0.0
 11
8580.653011747477
 21
8925.367811356816
 31
0.0
  0
LINE
  5
1A45E
330
747D
100
AcDbEntity
  8
部品1
100
AcDbLine
 10
7259.153011747475
 20
9395.36781135674
 30
0.0
 11
7259.153011747475
 21
9377.367811356739
 31
0.0
  0
LINE
  5
1A45F
330
747D
100
AcDbEntity
  8
部品1
100
AcDbLine
 10
7259.153011747475
 20
9395.36781135674
 30
0.0
 11
7265.153011747473
 21
9395.36781135674
 31
0.0
  0
LINE
  5
1A460
330
747D
100
AcDbEntity
  8
部品1
100
AcDbLine
 10
7329.153011747473
 20
9395.36781135674
 30
0.0
 11
7329.153011747473
 21
9377.367811356739
 31
0.0
  0
LINE
  5
1A461
330
747D
100
AcDbEntity
  8
部品1
100
AcDbLine
 10
7323.153011747475
 20
9395.36781135674
 30
0.0
 11
7329.153011747473
 21
9395.36781135674
 31
0.0
  0
LINE
  5
1A462
330
747D
100
AcDbEntity
  8
部品1
100
AcDbLine
 10
7281.653011747474
 20
9369.367811356735
 30
0.0
 11
7306.653011747474
 21
9369.367811356738
 31
0.0
  0
LINE
  5
1A46A
330
747D
100
AcDbEntity
  8
部品1
100
AcDbLine
 10
4651.653011747474
 20
9369.367811356639
 30
0.0
 11
4676.653011747474
 21
9369.367811356642
 31
0.0
  0
LINE
  5
1A46B
330
747D
100
AcDbEntity
  8
部品1
100
AcDbLine
 10
4693.153011747474
 20
9395.367811356642
 30
0.0
 11
4699.153011747474
 21
9395.367811356642
 31
0.0
  0
LINE
  5
1A46C
330
747D
100
AcDbEntity
  8
部品1
100
AcDbLine
 10
4699.153011747474
 20
9395.367811356642
 30
0.0
 11
4699.153011747474
 21
9377.367811356641
 31
0.0
  0
LINE
  5
1A46D
330
747D
100
AcDbEntity
  8
部品1
100
AcDbLine
 10
4629.153011747474
 20
9395.367811356642
 30
0.0
 11
4635.153011747473
 21
9395.367811356642
 31
0.0
  0
LINE
  5
1A46E
330
747D
100
AcDbEntity
  8
部品1
100
AcDbLine
 10
4629.153011747474
 20
9395.367811356642
 30
0.0
 11
4629.153011747474
 21
9377.367811356641
 31
0.0
  0
LINE
  5
1A46F
330
747D
100
AcDbEntity
  8
部品1
100
AcDbLine
 10
4676.653011747474
 20
9377.367811356661
 30
0.0
 11
5979.153011747381
 21
9377.367811356659
 31
0.0
  0
LINE
  5
1A471
330
747D
100
AcDbEntity
  8
部品1
100
AcDbLine
 10
7306.653011747474
 20
9377.367811356823
 30
0.0
 11
8581.153011747458
 21
9377.367811356823
 31
0.0
  0
DIMENSION
  5
1A49E
330
747D
100
AcDbEntity
  8
寸法
100
AcDbDimension
  2
*D23
 10
8936.0107376095
 20
8830.149995687925
 30
0.0
 11
8836.010737609498
 21
9055.149995687925
 31
0.0
 70
    32
 71
     5
 42
449.9999999999963
  3
INABA_S40G
100
AcDbAlignedDimension
 13
8580.653011747477
 23
9375.367811356811
 33
0.0
 14
8580.653011747477
 24
8925.367811356816
 34
0.0
 50
90.0
100
AcDbRotatedDimension
1001
ACAD
1000
DSTYLE
1002
{
1002
}
  0
LINE
  5
1A8AD
330
747D
100
AcDbEntity
  8
仕様書枠
 48
50.0
100
AcDbLine
 10
16307.19999999999
 20
8179.600000000005
 30
0.0
 11
13127.19999999999
 21
8179.600000000007
 31
0.0
  0
TEXT
  5
1A8AE
330
747D
100
AcDbEntity
  8
文字
 62
     7
 48
50.0
100
AcDbText
 10
15022.63965474516
 20
9910.013745883725
 30
0.0
 40
100.0
  1
F12,Y10        1.0
  7
STYLE1
100
AcDbText
  0
TEXT
  5
1A8AF
330
747D
100
AcDbEntity
  8
文字
 62
     7
 48
50.0
100
AcDbText
 10
13583.11819016569
 20
9910.013745883727
 30
0.0
 40
100.0
  1
梁中
  7
STYLE1
100
AcDbText
  0
TEXT
  5
1A8B0
330
747D
100
AcDbEntity
  8
文字
 62
     7
 48
50.0
100
AcDbText
 10
15022.63965474516
 20
8210.013745883726
 30
0.0
 40
100.0
  1
F12            0.6
  7
STYLE1
100
AcDbText
  0
TEXT
  5
1A8B1
330
747D
100
AcDbEntity
  8
文字
 62
     7
 48
50.0
100
AcDbText
 10
15022.63965474516
 20
8550.013745883726
 30
0.0
 40
100.0
  1
F12            1.2
  7
STYLE1
100
AcDbText
  0
TEXT
  5
1A8B2
330
747D
100
AcDbEntity
  8
文字
 62
     7
 48
50.0
100
AcDbText
 10
13248.77747366448
 20
8380.013745883728
 30
0.0
 40
100.0
  1
16
  7
STYLE1
100
AcDbText
  0
TEXT
  5
1A8B3
330
747D
100
AcDbEntity
  8
文字
 62
     7
 48
50.0
100
AcDbText
 10
13248.77747366448
 20
8720.013745883727
 30
0.0
 40
100.0
  1
14
  7
STYLE1
100
AcDbText
  0
TEXT
  5
1A8B4
330
747D
100
AcDbEntity
  8
文字
 62
     7
 48
50.0
100
AcDbText
 10
13583.11819016569
 20
8550.013745883729
 30
0.0
 40
100.0
  1
根太
  7
STYLE1
100
AcDbText
  0
TEXT
  5
1A8B5
330
747D
100
AcDbEntity
  8
文字
 62
     7
 48
50.0
100
AcDbText
 10
13583.11819016569
 20
8210.013745883729
 30
0.0
 40
100.0
  1
棚板
 41
0.9
  7
STYLE1
100
AcDbText
  0
LINE
  5
1A8B6
330
747D
100
AcDbEntity
  8
仕様書枠
 48
50.0
100
AcDbLine
 10
16307.19999999999
 20
8859.599999999998
 30
0.0
 11
13127.19999999999
 21
8859.6
 31
0.0
  0
LINE
  5
1A8B7
330
747D
100
AcDbEntity
  8
仕様書枠
 48
50.0
100
AcDbLine
 10
16307.19999999999
 20
8689.599999999998
 30
0.0
 11
13127.19999999999
 21
8689.6
 31
0.0
  0
LINE
  5
1A8B9
330
747D
100
AcDbEntity
  8
仕様書枠
 48
50.0
100
AcDbLine
 10
13127.2
 20
11239.6
 30
0.0
 11
13127.19999999999
 21
7669.600000000009
 31
0.0
  0
TEXT
  5
1A8BA
330
747D
100
AcDbEntity
  8
文字
 62
     7
 48
50.0
100
AcDbText
 10
13229.83081656554
 20
7700.013745883738
 30
0.0
 40
100.0
  1
Z08→塗装溶融亜鉛めっき鋼板(JIS G 3313)
  7
STYLE1
100
AcDbText
  0
TEXT
  5
1A8BB
330
747D
100
AcDbEntity
  8
文字
 62
     7
 48
50.0
100
AcDbText
 10
13229.83081656554
 20
7870.013745883736
 30
0.0
 40
100.0
  1
Y10→溶融亜鉛-5％アルミニウム合金めっき鋼板(JIS G 3317)
 41
0.9
  7
STYLE1
100
AcDbText
  0
TEXT
  5
1A8BC
330
747D
100
AcDbEntity
  8
文字
 62
     7
 48
50.0
100
AcDbText
 10
13229.83081656554
 20
8040.013745883737
 30
0.0
 40
100.0
  1
F12→溶融亜鉛めっき鋼板(JIS G 3302)
  7
STYLE1
100
AcDbText
  0
LINE
  5
1A8BD
330
747D
100
AcDbEntity
  8
仕様書枠
 48
50.0
100
AcDbLine
 10
16307.19999999998
 20
7669.600000000008
 30
0.0
 11
13127.19999999999
 21
7669.600000000009
 31
0.0
  0
LINE
  5
1A8BE
330
747D
100
AcDbEntity
  8
仕様書枠
 48
50.0
100
AcDbLine
 10
16307.19999999998
 20
7839.600000000007
 30
0.0
 11
13127.19999999999
 21
7839.60000000001
 31
0.0
  0
LINE
  5
1A8BF
330
747D
100
AcDbEntity
  8
仕様書枠
 48
50.0
100
AcDbLine
 10
16307.19999999998
 20
8009.600000000007
 30
0.0
 11
13127.19999999999
 21
8009.600000000011
 31
0.0
  0
TEXT
  5
1A8C0
330
747D
100
AcDbEntity
  8
文字
 62
     7
 48
50.0
100
AcDbText
 10
15022.63965474515
 20
9060.013745883724
 30
0.0
 40
100.0
  1
Z08            0.5
  7
STYLE1
100
AcDbText
  0
TEXT
  5
1A8C2
330
747D
100
AcDbEntity
  8
文字
 62
     7
 48
50.0
100
AcDbText
 10
14850.83183167176
 20
8720.013745883727
 30
0.0
 40
100.0
  1
アルミニウム合金押出形材
  7
STYLE1
100
AcDbText
  0
TEXT
  5
1A8C3
330
747D
100
AcDbEntity
  8
文字
 62
     7
 48
50.0
100
AcDbText
 10
15022.63965474516
 20
9400.013745883725
 30
0.0
 40
100.0
  1
F12            0.7
  7
STYLE1
100
AcDbText
  0
TEXT
  5
1A8C4
330
747D
100
AcDbEntity
  8
文字
 62
     7
 48
50.0
100
AcDbText
 10
15022.63965474516
 20
9570.013745883725
 30
0.0
 40
100.0
  1
Y10            0.5
  7
STYLE1
100
AcDbText
  0
TEXT
  5
1A8C5
330
747D
100
AcDbEntity
  8
文字
 62
     7
 48
50.0
100
AcDbText
 10
15022.63965474516
 20
10080.01374588372
 30
0.0
 40
100.0
  1
Y10            0.7
  7
STYLE1
100
AcDbText
  0
TEXT
  5
1A8C6
330
747D
100
AcDbEntity
  8
文字
 62
     7
 48
50.0
100
AcDbText
 10
15022.63965474516
 20
10250.01374588372
 30
0.0
 40
100.0
  1
Y10            0.7
  7
STYLE1
100
AcDbText
  0
TEXT
  5
1A8C7
330
747D
100
AcDbEntity
  8
文字
 62
     7
 48
50.0
100
AcDbText
 10
15022.63965474516
 20
10420.01374588372
 30
0.0
 40
100.0
  1
Y10            1.0
  7
STYLE1
100
AcDbText
  0
TEXT
  5
1A8C8
330
747D
100
AcDbEntity
  8
文字
 62
     7
 48
50.0
100
AcDbText
 10
15022.63965474516
 20
10590.01374588372
 30
0.0
 40
100.0
  1
Y10            1.0
  7
STYLE1
100
AcDbText
  0
TEXT
  5
1A8C9
330
747D
100
AcDbEntity
  8
文字
 62
     7
 48
50.0
100
AcDbText
 10
15022.63965474517
 20
10760.01374588372
 30
0.0
 40
100.0
  1
F12         1.0,1.2
  7
STYLE1
100
AcDbText
  0
TEXT
  5
1A8CA
330
747D
100
AcDbEntity
  8
文字
 62
     7
 48
50.0
100
AcDbText
 10
15022.63965474517
 20
10930.01374588372
 30
0.0
 40
100.0
  1
F12            1.2
  7
STYLE1
100
AcDbText
  0
TEXT
  5
1A8CB
330
747D
100
AcDbEntity
  8
文字
 62
     7
 48
50.0
100
AcDbText
 10
13248.77747366448
 20
9060.013745883727
 30
0.0
 40
100.0
  1
12
  7
STYLE1
100
AcDbText
  0
TEXT
  5
1A8CC
330
747D
100
AcDbEntity
  8
文字
 62
     7
 48
50.0
100
AcDbText
 10
13248.77747366448
 20
8890.013745883727
 30
0.0
 40
100.0
  1
13
  7
STYLE1
100
AcDbText
  0
TEXT
  5
1A8CD
330
747D
100
AcDbEntity
  8
文字
 62
     7
 48
50.0
100
AcDbText
 10
13583.11819016569
 20
9060.013745883727
 30
0.0
 40
100.0
  1
シャッター
  7
STYLE1
100
AcDbText
  0
LINE
  5
1A8CE
330
747D
100
AcDbEntity
  8
仕様書枠
 48
50.0
100
AcDbLine
 10
16307.19999999999
 20
8349.600000000002
 30
0.0
 11
13127.19999999999
 21
8349.600000000004
 31
0.0
  0
LINE
  5
1A8CF
330
747D
100
AcDbEntity
  8
仕様書枠
 48
50.0
100
AcDbLine
 10
16307.19999999999
 20
9029.599999999996
 30
0.0
 11
13127.19999999999
 21
9029.6
 31
0.0
  0
TEXT
  5
1A8D0
330
747D
100
AcDbEntity
  8
文字
 62
     7
 48
50.0
100
AcDbText
 10
13583.11819016569
 20
8890.013745883727
 30
0.0
 40
100.0
  1
シャッターカバー
 41
0.9
  7
STYLE1
100
AcDbText
  0
TEXT
  5
1A8D1
330
747D
100
AcDbEntity
  8
文字
 62
     7
 48
50.0
100
AcDbText
 10
13248.77747366448
 20
9230.013745883725
 30
0.0
 40
100.0
  1
11
  7
STYLE1
100
AcDbText
  0
LINE
  5
1A8D2
330
747D
100
AcDbEntity
  8
仕様書枠
 48
50.0
100
AcDbLine
 10
16307.19999999999
 20
9709.599999999998
 30
0.0
 11
13127.19999999999
 21
9709.6
 31
0.0
  0
LINE
  5
1A8D3
330
747D
100
AcDbEntity
  8
仕様書枠
 48
50.0
100
AcDbLine
 10
16307.19999999999
 20
10049.59999999999
 30
0.0
 11
13127.2
 21
10049.6
 31
0.0
  0
LINE
  5
1A8D4
330
747D
100
AcDbEntity
  8
仕様書枠
 48
50.0
100
AcDbLine
 10
16307.19999999999
 20
9369.599999999996
 30
0.0
 11
13127.19999999999
 21
9369.599999999998
 31
0.0
  0
LINE
  5
1A8D5
330
747D
100
AcDbEntity
  8
仕様書枠
 48
50.0
100
AcDbLine
 10
16307.19999999999
 20
9199.599999999996
 30
0.0
 11
13127.19999999999
 21
9199.599999999998
 31
0.0
  0
LINE
  5
1A8D6
330
747D
100
AcDbEntity
  8
仕様書枠
 48
50.0
100
AcDbLine
 10
16307.19999999999
 20
9539.599999999998
 30
0.0
 11
13127.19999999999
 21
9539.599999999998
 31
0.0
  0
TEXT
  5
1A8D7
330
747D
100
AcDbEntity
  8
文字
 62
     7
 48
50.0
100
AcDbText
 10
13271.19032244792
 20
10080.01374588372
 30
0.0
 40
100.0
  1
6
  7
STYLE1
100
AcDbText
  0
TEXT
  5
1A8D8
330
747D
100
AcDbEntity
  8
文字
 62
     7
 48
50.0
100
AcDbText
 10
13271.19032244792
 20
9910.013745883727
 30
0.0
 40
100.0
  1
7
  7
STYLE1
100
AcDbText
  0
TEXT
  5
1A8D9
330
747D
100
AcDbEntity
  8
文字
 62
     7
 48
50.0
100
AcDbText
 10
13271.19032244792
 20
9570.013745883727
 30
0.0
 40
100.0
  1
9
  7
STYLE1
100
AcDbText
  0
TEXT
  5
1A8DA
330
747D
100
AcDbEntity
  8
文字
 62
     7
 48
50.0
100
AcDbText
 10
13271.19032244792
 20
9740.013745883729
 30
0.0
 40
100.0
  1
8
  7
STYLE1
100
AcDbText
  0
TEXT
  5
1A8DB
330
747D
100
AcDbEntity
  8
文字
 62
     7
 48
50.0
100
AcDbText
 10
13583.11819016569
 20
10080.01374588372
 30
0.0
 40
100.0
  1
鼻隠シ前後
  7
STYLE1
100
AcDbText
  0
TEXT
  5
1A8DC
330
747D
100
AcDbEntity
  8
文字
 62
     7
 48
50.0
100
AcDbText
 10
13583.11819016569
 20
9740.013745883729
 30
0.0
 40
100.0
  1
母屋中
  7
STYLE1
100
AcDbText
  0
TEXT
  5
1A8DD
330
747D
100
AcDbEntity
  8
文字
 62
     7
 48
50.0
100
AcDbText
 10
13583.11819016569
 20
9570.013745883727
 30
0.0
 40
100.0
  1
屋根パネル
  7
STYLE1
100
AcDbText
  0
TEXT
  5
1A8DE
330
747D
100
AcDbEntity
  8
文字
 62
     7
 48
50.0
100
AcDbText
 10
13583.11819016569
 20
9400.013745883729
 30
0.0
 40
100.0
  1
壁パネル
  7
STYLE1
100
AcDbText
  0
TEXT
  5
1A8DF
330
747D
100
AcDbEntity
  8
文字
 62
     7
 48
50.0
100
AcDbText
 10
13248.77747366448
 20
9400.013745883725
 30
0.0
 40
100.0
  1
10
  7
STYLE1
100
AcDbText
  0
TEXT
  5
1A8E0
330
747D
100
AcDbEntity
  8
文字
 62
     7
 48
50.0
100
AcDbText
 10
13583.11819016569
 20
8720.013745883729
 30
0.0
 40
100.0
  1
シャッターレール
  7
STYLE1
100
AcDbText
  0
TEXT
  5
1A8E1
330
747D
100
AcDbEntity
  8
文字
 62
     7
 48
50.0
100
AcDbText
 10
13583.11819016569
 20
10250.01374588372
 30
0.0
 40
100.0
  1
妻板左右
  7
STYLE1
100
AcDbText
  0
TEXT
  5
1A8E2
330
747D
100
AcDbEntity
  8
文字
 62
     7
 48
50.0
100
AcDbText
 10
13271.19032244792
 20
10250.01374588372
 30
0.0
 40
100.0
  1
5
  7
STYLE1
100
AcDbText
  0
TEXT
  5
1A8E3
330
747D
100
AcDbEntity
  8
文字
 62
     7
 48
50.0
100
AcDbText
 10
13583.11819016569
 20
10420.01374588372
 30
0.0
 40
100.0
  1
桁後
  7
STYLE1
100
AcDbText
  0
TEXT
  5
1A8E4
330
747D
100
AcDbEntity
  8
文字
 62
     7
 48
50.0
100
AcDbText
 10
13583.11819016569
 20
10590.01374588372
 30
0.0
 40
100.0
  1
桁前
  7
STYLE1
100
AcDbText
  0
TEXT
  5
1A8E5
330
747D
100
AcDbEntity
  8
文字
 62
     7
 48
50.0
100
AcDbText
 10
13583.11819016569
 20
10760.01374588372
 30
0.0
 40
100.0
  1
柱
  7
STYLE1
100
AcDbText
  0
TEXT
  5
1A8E6
330
747D
100
AcDbEntity
  8
文字
 62
     7
 48
50.0
100
AcDbText
 10
13583.11819016569
 20
10930.01374588372
 30
0.0
 40
100.0
  1
土台枠
  7
STYLE1
100
AcDbText
  0
TEXT
  5
1A8E7
330
747D
100
AcDbEntity
  8
文字
 62
     7
 48
50.0
100
AcDbText
 10
14859.79774614482
 20
11100.01374588372
 30
0.0
 40
100.0
  1
材料（材質）　　単位mm
  7
STYLE1
100
AcDbText
  0
TEXT
  5
1A8E8
330
747D
100
AcDbEntity
  8
文字
 62
     7
 48
50.0
100
AcDbText
 10
13732.03840939434
 20
11100.01374588372
 30
0.0
 40
100.0
  1
部　　品　　名
  7
STYLE1
100
AcDbText
  0
TEXT
  5
1A8E9
330
747D
100
AcDbEntity
  8
文字
 62
     7
 48
50.0
100
AcDbText
 10
13271.19032244792
 20
10590.01374588373
 30
0.0
 40
100.0
  1
3
  7
STYLE1
100
AcDbText
  0
TEXT
  5
1A8EA
330
747D
100
AcDbEntity
  8
文字
 62
     7
 48
50.0
100
AcDbText
 10
13271.19032244792
 20
10420.01374588372
 30
0.0
 40
100.0
  1
4
  7
STYLE1
100
AcDbText
  0
TEXT
  5
1A8EB
330
747D
100
AcDbEntity
  8
文字
 62
     7
 48
50.0
100
AcDbText
 10
13271.19032244792
 20
10760.01374588372
 30
0.0
 40
100.0
  1
2
  7
STYLE1
100
AcDbText
  0
TEXT
  5
1A8EC
330
747D
100
AcDbEntity
  8
文字
 62
     7
 48
50.0
100
AcDbText
 10
13271.19032244792
 20
10930.01374588372
 30
0.0
 40
100.0
  1
1
  7
STYLE1
100
AcDbText
  0
TEXT
  5
1A8ED
330
747D
100
AcDbEntity
  8
文字
 62
     7
 48
50.0
100
AcDbText
 10
13197.42518560407
 20
11100.01374588372
 30
0.0
 40
100.0
  1
品番
  7
STYLE1
100
AcDbText
  0
LINE
  5
1A8EE
330
747D
100
AcDbEntity
  8
仕様書枠
 48
50.0
100
AcDbLine
 10
16307.19999999999
 20
10559.6
 30
0.0
 11
13127.19999999999
 21
10559.6
 31
0.0
  0
LINE
  5
1A8EF
330
747D
100
AcDbEntity
  8
仕様書枠
 48
50.0
100
AcDbLine
 10
16307.19999999999
 20
10219.59999999999
 30
0.0
 11
13127.19999999999
 21
10219.6
 31
0.0
  0
LINE
  5
1A8F0
330
747D
100
AcDbEntity
  8
仕様書枠
 48
50.0
100
AcDbLine
 10
16307.19999999999
 20
10389.59999999999
 30
0.0
 11
13127.19999999999
 21
10389.6
 31
0.0
  0
LINE
  5
1A8F1
330
747D
100
AcDbEntity
  8
仕様書枠
 48
50.0
100
AcDbLine
 10
16307.19999999999
 20
10899.6
 30
0.0
 11
13127.2
 21
10899.6
 31
0.0
  0
LINE
  5
1A8F2
330
747D
100
AcDbEntity
  8
仕様書枠
 48
50.0
100
AcDbLine
 10
16307.19999999999
 20
10729.59999999999
 30
0.0
 11
13127.2
 21
10729.6
 31
0.0
  0
LINE
  5
1A8F3
330
747D
100
AcDbEntity
  8
仕様書枠
 48
50.0
100
AcDbLine
 10
16307.19999999999
 20
11069.59999999999
 30
0.0
 11
13127.2
 21
11069.6
 31
0.0
  0
LINE
  5
1A8F4
330
747D
100
AcDbEntity
  8
仕様書枠
 48
50.0
100
AcDbLine
 10
13490.2
 20
11239.59999999999
 30
0.0
 11
13490.20000000001
 21
8179.600000000007
 31
0.0
  0
LINE
  5
1A8F5
330
747D
100
AcDbEntity
  8
仕様書枠
 48
50.0
100
AcDbLine
 10
14785.2
 20
11239.59999999999
 30
0.0
 11
14785.19999999999
 21
8179.600000000007
 31
0.0
  0
LINE
  5
1A8F6
330
747D
100
AcDbEntity
  8
仕様書枠
 48
50.0
100
AcDbLine
 10
16307.19999999999
 20
7669.600000000009
 30
0.0
 11
16307.2
 21
11239.6
 31
0.0
  0
LINE
  5
1A8F7
330
747D
100
AcDbEntity
  8
仕様書枠
 48
50.0
100
AcDbLine
 10
16307.19999999999
 20
11239.59999999999
 30
0.0
 11
13127.2
 21
11239.6
 31
0.0
  0
LINE
  5
1A8F8
330
747D
100
AcDbEntity
  8
仕様書枠
 48
50.0
100
AcDbLine
 10
16307.19999999999
 20
9879.599999999996
 30
0.0
 11
13127.19999999999
 21
9879.599999999999
 31
0.0
  0
LINE
  5
1A8F9
330
747D
100
AcDbEntity
  8
仕様書枠
 48
50.0
100
AcDbLine
 10
16307.19999999999
 20
8519.599999999998
 30
0.0
 11
13127.19999999999
 21
8519.600000000002
 31
0.0
  0
TEXT
  5
1A8FB
330
747D
100
AcDbEntity
  8
文字
 62
     7
 48
50.0
100
AcDbText
 10
13248.77747366448
 20
8550.013745883727
 30
0.0
 40
100.0
  1
15
  7
STYLE1
100
AcDbText
  0
TEXT
  5
1A8FC
330
747D
100
AcDbEntity
  8
文字
 62
     7
 48
50.0
100
AcDbText
 10
15022.63965474516
 20
8380.013745883726
 30
0.0
 40
100.0
  1
F12            1.0
  7
STYLE1
100
AcDbText
  0
TEXT
  5
1A8FD
330
747D
100
AcDbEntity
  8
文字
 62
     7
 48
50.0
100
AcDbText
 10
13583.11819016569
 20
8380.013745883731
 30
0.0
 40
100.0
  1
床パネル
 41
0.9
  7
STYLE1
100
AcDbText
  0
TEXT
  5
1B3FA
330
747D
100
AcDbEntity
  8
部品1
100
AcDbText
 10
5687.337288462284
 20
6271.019519852096
 30
0.0
 40
135.0
  1
平面図
  7
STYLE2
100
AcDbText
  0
LWPOLYLINE
  5
1B3FB
330
747D
100
AcDbEntity
  8
部品1
100
AcDbPolyline
 90
        4
 70
     1
 43
0.0
 10
5597.417678633246
 20
6463.913049070619
 10
5597.417678633246
 20
6224.020727525086
 10
6360.888344861687
 20
6224.020727525086
 10
6360.888344861687
 20
6463.913049070619
  0
LINE
  5
1B3FC
330
747D
100
AcDbEntity
  8
部品1
100
AcDbLine
 10
2709.873082055296
 20
2586.689161159044
 30
0.0
 11
2859.873082055296
 21
2586.689161159044
 31
0.0
  0
LINE
  5
1B3FD
330
747D
100
AcDbEntity
  8
部品1
100
AcDbLine
 10
2784.873082055296
 20
2456.785350591379
 30
0.0
 11
2709.873082055296
 21
2586.689161159044
 31
0.0
  0
TEXT
  5
1B3FE
330
747D
100
AcDbEntity
  8
部品1
100
AcDbText
 10
2887.978024180069
 20
2492.892254197281
 30
0.0
 40
125.0
  1
G.L
  7
STYLE2
100
AcDbText
  0
LINE
  5
1B3FF
330
747D
100
AcDbEntity
  8
部品1
100
AcDbLine
 10
2859.873082055296
 20
2586.689161159044
 30
0.0
 11
2784.873082055296
 21
2456.785350591379
 31
0.0
  0
LINE
  5
1B400
330
747D
100
AcDbEntity
  8
部品1
100
AcDbLine
 10
3349.153011747469
 20
4790.785350591382
 30
0.0
 11
3349.153011747469
 21
2456.785350591379
 31
0.0
  0
LINE
  5
1B401
330
747D
100
AcDbEntity
  8
部品1
100
AcDbLine
 10
8554.15301174747
 20
4531.785350591379
 30
0.0
 11
8554.153011747466
 21
2456.785350591383
 31
0.0
  0
LINE
  5
1B402
330
747D
100
AcDbEntity
  8
部品1
100
AcDbLine
 10
3404.153011747469
 20
4531.785350591379
 30
0.0
 11
3404.153011747469
 21
2456.785350591379
 31
0.0
  0
LINE
  5
1B403
330
747D
100
AcDbEntity
  8
部品1
100
AcDbLine
 10
8609.153011747467
 20
4790.785350591383
 30
0.0
 11
8609.153011747469
 21
2456.785350591383
 31
0.0
  0
LINE
  5
1B40A
330
747D
100
AcDbEntity
  8
破線
  6
HIDDEN
 48
5.0
100
AcDbLine
 10
8609.153011747469
 20
2456.785350591383
 30
0.0
 11
8609.153011747469
 21
2206.785350591383
 31
0.0
  0
LINE
  5
1B40B
330
747D
100
AcDbEntity
  8
破線
  6
HIDDEN
 48
5.0
100
AcDbLine
 10
3349.153011747469
 20
2456.785350591379
 30
0.0
 11
3349.153011747465
 21
2206.785350591379
 31
0.0
  0
LINE
  5
1B40D
330
747D
100
AcDbEntity
  8
破線
  6
HIDDEN
 48
5.0
100
AcDbLine
 10
8554.15301174747
 20
2456.785350591383
 30
0.0
 11
8554.15301174747
 21
2206.785350591383
 31
0.0
  0
LINE
  5
1B40E
330
747D
100
AcDbEntity
  8
破線
  6
HIDDEN
 48
5.0
100
AcDbLine
 10
3404.153011747469
 20
2456.78535059138
 30
0.0
 11
3404.153011747465
 21
2206.785350591379
 31
0.0
  0
LINE
  5
1B40F
330
747D
100
AcDbEntity
  8
破線
  6
HIDDEN
 48
5.0
100
AcDbLine
 10
8609.153011747467
 20
2206.785350591383
 30
0.0
 11
8554.15301174747
 21
2206.785350591383
 31
0.0
  0
LINE
  5
1B410
330
747D
100
AcDbEntity
  8
破線
  6
HIDDEN
 48
5.0
100
AcDbLine
 10
3404.153011747465
 20
2206.785350591387
 30
0.0
 11
3349.153011747465
 21
2206.785350591387
 31
0.0
  0
LINE
  5
1B411
330
747D
100
AcDbEntity
  8
部品1
100
AcDbLine
 10
3452.153011747469
 20
4531.785350591379
 30
0.0
 11
3452.153011747469
 21
2606.78535059138
 31
0.0
  0
LINE
  5
1B412
330
747D
100
AcDbEntity
  8
部品1
100
AcDbLine
 10
8506.153011747469
 20
4531.785350591382
 30
0.0
 11
8506.153011747469
 21
2606.785350591382
 31
0.0
  0
LINE
  5
1B413
330
747D
100
AcDbEntity
  8
部品1
100
AcDbLine
 10
3349.153011747468
 20
4531.785350591379
 30
0.0
 11
6034.15301174747
 21
4531.785350591379
 31
0.0
  0
LINE
  5
1B414
330
747D
100
AcDbEntity
  8
細線
100
AcDbLine
 10
6082.153011747465
 20
4241.785350591382
 30
0.0
 11
8506.153011747468
 21
4241.785350591382
 31
0.0
  0
LINE
  5
1B415
330
747D
100
AcDbEntity
  8
細線
100
AcDbLine
 10
6082.153011747465
 20
4306.785350591382
 30
0.0
 11
8506.153011747468
 21
4306.785350591382
 31
0.0
  0
LINE
  5
1B416
330
747D
100
AcDbEntity
  8
細線
100
AcDbLine
 10
6082.153011747465
 20
4371.785350591383
 30
0.0
 11
8506.153011747468
 21
4371.785350591383
 31
0.0
  0
LINE
  5
1B417
330
747D
100
AcDbEntity
  8
細線
100
AcDbLine
 10
6082.153011747465
 20
3851.785350591383
 30
0.0
 11
8506.153011747468
 21
3851.785350591383
 31
0.0
  0
LINE
  5
1B418
330
747D
100
AcDbEntity
  8
細線
100
AcDbLine
 10
6082.153011747465
 20
3916.785350591382
 30
0.0
 11
8506.153011747468
 21
3916.785350591382
 31
0.0
  0
LINE
  5
1B419
330
747D
100
AcDbEntity
  8
細線
100
AcDbLine
 10
6082.153011747465
 20
3981.785350591382
 30
0.0
 11
8506.153011747468
 21
3981.785350591382
 31
0.0
  0
LINE
  5
1B41A
330
747D
100
AcDbEntity
  8
細線
100
AcDbLine
 10
6082.153011747465
 20
4046.785350591383
 30
0.0
 11
8506.153011747468
 21
4046.785350591383
 31
0.0
  0
LINE
  5
1B41B
330
747D
100
AcDbEntity
  8
細線
100
AcDbLine
 10
6082.153011747465
 20
4111.785350591382
 30
0.0
 11
8506.153011747468
 21
4111.785350591382
 31
0.0
  0
LINE
  5
1B41C
330
747D
100
AcDbEntity
  8
細線
100
AcDbLine
 10
6082.153011747465
 20
4176.785350591383
 30
0.0
 11
8506.153011747468
 21
4176.785350591383
 31
0.0
  0
LINE
  5
1B41D
330
747D
100
AcDbEntity
  8
細線
100
AcDbLine
 10
6082.153011747465
 20
3201.785350591382
 30
0.0
 11
8506.153011747468
 21
3201.785350591382
 31
0.0
  0
LINE
  5
1B41E
330
747D
100
AcDbEntity
  8
細線
100
AcDbLine
 10
6082.153011747465
 20
3266.785350591383
 30
0.0
 11
8506.153011747468
 21
3266.785350591383
 31
0.0
  0
LINE
  5
1B41F
330
747D
100
AcDbEntity
  8
細線
100
AcDbLine
 10
6082.153011747465
 20
3331.785350591383
 30
0.0
 11
8506.153011747468
 21
3331.785350591383
 31
0.0
  0
LINE
  5
1B420
330
747D
100
AcDbEntity
  8
細線
100
AcDbLine
 10
6082.153011747465
 20
3396.785350591382
 30
0.0
 11
8506.153011747468
 21
3396.785350591382
 31
0.0
  0
LINE
  5
1B421
330
747D
100
AcDbEntity
  8
細線
100
AcDbLine
 10
6082.153011747465
 20
3461.785350591382
 30
0.0
 11
8506.153011747468
 21
3461.785350591382
 31
0.0
  0
LINE
  5
1B422
330
747D
100
AcDbEntity
  8
細線
100
AcDbLine
 10
6082.153011747465
 20
3526.785350591382
 30
0.0
 11
8506.153011747468
 21
3526.785350591382
 31
0.0
  0
LINE
  5
1B423
330
747D
100
AcDbEntity
  8
細線
100
AcDbLine
 10
6082.153011747465
 20
3591.785350591383
 30
0.0
 11
8506.153011747468
 21
3591.785350591383
 31
0.0
  0
LINE
  5
1B424
330
747D
100
AcDbEntity
  8
細線
100
AcDbLine
 10
6082.153011747465
 20
3656.785350591383
 30
0.0
 11
8506.153011747468
 21
3656.785350591383
 31
0.0
  0
LINE
  5
1B425
330
747D
100
AcDbEntity
  8
細線
100
AcDbLine
 10
6082.153011747465
 20
3721.785350591383
 30
0.0
 11
8506.153011747468
 21
3721.785350591383
 31
0.0
  0
LINE
  5
1B426
330
747D
100
AcDbEntity
  8
細線
100
AcDbLine
 10
6082.153011747465
 20
3786.785350591383
 30
0.0
 11
8506.153011747468
 21
3786.785350591383
 31
0.0
  0
LINE
  5
1B427
330
747D
100
AcDbEntity
  8
細線
100
AcDbLine
 10
6082.153011747465
 20
4501.785350591382
 30
0.0
 11
8506.153011747468
 21
4501.785350591382
 31
0.0
  0
LINE
  5
1B428
330
747D
100
AcDbEntity
  8
細線
100
AcDbLine
 10
6082.153011747465
 20
4436.785350591383
 30
0.0
 11
8506.153011747468
 21
4436.785350591383
 31
0.0
  0
LINE
  5
1B429
330
747D
100
AcDbEntity
  8
細線
100
AcDbLine
 10
6082.153011747465
 20
2681.785350591383
 30
0.0
 11
8506.153011747468
 21
2681.785350591383
 31
0.0
  0
LINE
  5
1B42A
330
747D
100
AcDbEntity
  8
細線
100
AcDbLine
 10
6082.153011747465
 20
2746.785350591383
 30
0.0
 11
8506.153011747468
 21
2746.785350591383
 31
0.0
  0
LINE
  5
1B42B
330
747D
100
AcDbEntity
  8
細線
100
AcDbLine
 10
6082.153011747465
 20
2811.785350591382
 30
0.0
 11
8506.153011747468
 21
2811.785350591382
 31
0.0
  0
LINE
  5
1B42C
330
747D
100
AcDbEntity
  8
細線
100
AcDbLine
 10
6082.153011747465
 20
2876.785350591383
 30
0.0
 11
8506.153011747468
 21
2876.785350591383
 31
0.0
  0
LINE
  5
1B42D
330
747D
100
AcDbEntity
  8
細線
100
AcDbLine
 10
6082.153011747465
 20
2941.785350591382
 30
0.0
 11
8506.153011747468
 21
2941.785350591382
 31
0.0
  0
LINE
  5
1B42E
330
747D
100
AcDbEntity
  8
細線
100
AcDbLine
 10
6082.153011747465
 20
3006.785350591382
 30
0.0
 11
8506.153011747468
 21
3006.785350591382
 31
0.0
  0
LINE
  5
1B42F
330
747D
100
AcDbEntity
  8
細線
100
AcDbLine
 10
6082.153011747465
 20
3071.785350591382
 30
0.0
 11
8506.153011747468
 21
3071.785350591382
 31
0.0
  0
LINE
  5
1B430
330
747D
100
AcDbEntity
  8
細線
100
AcDbLine
 10
6082.153011747465
 20
3136.785350591382
 30
0.0
 11
8506.153011747468
 21
3136.785350591382
 31
0.0
  0
LINE
  5
1B431
330
747D
100
AcDbEntity
  8
細線
100
AcDbLine
 10
8506.153011747469
 20
2616.785350591382
 30
0.0
 11
6082.153011747465
 21
2616.785350591382
 31
0.0
  0
CIRCLE
  5
1B435
330
747D
100
AcDbEntity
  8
細線
 48
50.0
100
AcDbCircle
 10
7294.153011747465
 20
3494.285350591383
 30
0.0
 40
18.0
  0
ARC
  5
1B436
330
747D
100
AcDbEntity
  8
細線
 48
50.0
100
AcDbCircle
 10
7594.153011747465
 20
3169.285350591382
 30
0.0
 40
15.0
100
AcDbArc
 50
270.0
 51
90.0
  0
ARC
  5
1B437
330
747D
100
AcDbEntity
  8
細線
 48
50.0
100
AcDbCircle
 10
7494.153011747465
 20
3169.285350591382
 30
0.0
 40
15.0
100
AcDbArc
 50
90.0
 51
270.0
  0
LINE
  5
1B438
330
747D
100
AcDbEntity
  8
細線
 48
50.0
100
AcDbLine
 10
7494.153011747465
 20
3184.285350591383
 30
0.0
 11
7594.153011747465
 21
3184.285350591383
 31
0.0
  0
LINE
  5
1B439
330
747D
100
AcDbEntity
  8
細線
 48
50.0
100
AcDbLine
 10
7594.153011747465
 20
3154.285350591382
 30
0.0
 11
7494.153011747465
 21
3154.285350591382
 31
0.0
  0
LINE
  5
1B43A
330
747D
100
AcDbEntity
  8
細線
 48
50.0
100
AcDbLine
 10
7094.153011747465
 20
3154.285350591382
 30
0.0
 11
6994.153011747465
 21
3154.285350591382
 31
0.0
  0
LINE
  5
1B43B
330
747D
100
AcDbEntity
  8
細線
 48
50.0
100
AcDbLine
 10
6994.153011747465
 20
3184.285350591383
 30
0.0
 11
7094.153011747465
 21
3184.285350591383
 31
0.0
  0
ARC
  5
1B43C
330
747D
100
AcDbEntity
  8
細線
 48
50.0
100
AcDbCircle
 10
7094.153011747465
 20
3169.285350591382
 30
0.0
 40
15.0
100
AcDbArc
 50
270.0
 51
90.0
  0
ARC
  5
1B43D
330
747D
100
AcDbEntity
  8
細線
 48
50.0
100
AcDbCircle
 10
6994.153011747465
 20
3169.285350591382
 30
0.0
 40
15.0
100
AcDbArc
 50
90.0
 51
270.0
  0
LINE
  5
1B43E
330
747D
100
AcDbEntity
  8
細線
 48
50.0
100
AcDbLine
 10
4364.153011747465
 20
3184.285350591379
 30
0.0
 11
4464.153011747465
 21
3184.285350591379
 31
0.0
  0
LINE
  5
1B43F
330
747D
100
AcDbEntity
  8
細線
 48
50.0
100
AcDbLine
 10
4464.153011747465
 20
3154.28535059138
 30
0.0
 11
4364.153011747465
 21
3154.28535059138
 31
0.0
  0
LINE
  5
1B440
330
747D
100
AcDbEntity
  8
細線
100
AcDbLine
 10
3452.153011747465
 20
3136.78535059138
 30
0.0
 11
5876.153011747465
 21
3136.78535059138
 31
0.0
  0
LINE
  5
1B441
330
747D
100
AcDbEntity
  8
細線
100
AcDbLine
 10
3452.153011747465
 20
3071.78535059138
 30
0.0
 11
5876.153011747465
 21
3071.78535059138
 31
0.0
  0
LINE
  5
1B442
330
747D
100
AcDbEntity
  8
細線
100
AcDbLine
 10
3452.153011747465
 20
3006.78535059138
 30
0.0
 11
5876.153011747465
 21
3006.78535059138
 31
0.0
  0
LINE
  5
1B443
330
747D
100
AcDbEntity
  8
細線
100
AcDbLine
 10
3452.153011747465
 20
2941.78535059138
 30
0.0
 11
5876.153011747465
 21
2941.78535059138
 31
0.0
  0
LINE
  5
1B444
330
747D
100
AcDbEntity
  8
細線
100
AcDbLine
 10
3452.153011747465
 20
2876.78535059138
 30
0.0
 11
5876.153011747465
 21
2876.78535059138
 31
0.0
  0
LINE
  5
1B445
330
747D
100
AcDbEntity
  8
細線
100
AcDbLine
 10
3452.153011747465
 20
2811.78535059138
 30
0.0
 11
5876.153011747465
 21
2811.78535059138
 31
0.0
  0
LINE
  5
1B446
330
747D
100
AcDbEntity
  8
細線
100
AcDbLine
 10
3452.153011747465
 20
2746.785350591379
 30
0.0
 11
5876.153011747465
 21
2746.785350591379
 31
0.0
  0
LINE
  5
1B447
330
747D
100
AcDbEntity
  8
細線
100
AcDbLine
 10
3452.153011747465
 20
2681.78535059138
 30
0.0
 11
5876.153011747465
 21
2681.78535059138
 31
0.0
  0
LINE
  5
1B448
330
747D
100
AcDbEntity
  8
細線
100
AcDbLine
 10
3452.153011747465
 20
4436.785350591379
 30
0.0
 11
5876.153011747465
 21
4436.785350591379
 31
0.0
  0
LINE
  5
1B449
330
747D
100
AcDbEntity
  8
細線
100
AcDbLine
 10
3452.153011747465
 20
4501.785350591378
 30
0.0
 11
5876.153011747465
 21
4501.785350591378
 31
0.0
  0
LINE
  5
1B44A
330
747D
100
AcDbEntity
  8
細線
100
AcDbLine
 10
3452.153011747465
 20
3786.785350591379
 30
0.0
 11
5876.153011747465
 21
3786.785350591379
 31
0.0
  0
LINE
  5
1B44B
330
747D
100
AcDbEntity
  8
細線
100
AcDbLine
 10
3452.153011747465
 20
3721.78535059138
 30
0.0
 11
5876.153011747465
 21
3721.78535059138
 31
0.0
  0
LINE
  5
1B44C
330
747D
100
AcDbEntity
  8
細線
100
AcDbLine
 10
3452.153011747465
 20
3656.78535059138
 30
0.0
 11
5876.153011747465
 21
3656.78535059138
 31
0.0
  0
LINE
  5
1B44D
330
747D
100
AcDbEntity
  8
細線
100
AcDbLine
 10
3452.153011747465
 20
3591.78535059138
 30
0.0
 11
5876.153011747465
 21
3591.78535059138
 31
0.0
  0
LINE
  5
1B44E
330
747D
100
AcDbEntity
  8
細線
100
AcDbLine
 10
3452.153011747465
 20
3526.78535059138
 30
0.0
 11
5876.153011747465
 21
3526.78535059138
 31
0.0
  0
LINE
  5
1B44F
330
747D
100
AcDbEntity
  8
細線
100
AcDbLine
 10
3452.153011747465
 20
3461.785350591379
 30
0.0
 11
5876.153011747465
 21
3461.785350591379
 31
0.0
  0
LINE
  5
1B450
330
747D
100
AcDbEntity
  8
細線
100
AcDbLine
 10
3452.153011747465
 20
3396.785350591379
 30
0.0
 11
5876.153011747465
 21
3396.785350591379
 31
0.0
  0
LINE
  5
1B451
330
747D
100
AcDbEntity
  8
細線
100
AcDbLine
 10
3452.153011747465
 20
3331.78535059138
 30
0.0
 11
5876.153011747465
 21
3331.78535059138
 31
0.0
  0
LINE
  5
1B452
330
747D
100
AcDbEntity
  8
細線
100
AcDbLine
 10
3452.153011747465
 20
3266.78535059138
 30
0.0
 11
5876.153011747465
 21
3266.78535059138
 31
0.0
  0
LINE
  5
1B453
330
747D
100
AcDbEntity
  8
細線
100
AcDbLine
 10
3452.153011747465
 20
3201.78535059138
 30
0.0
 11
5876.153011747465
 21
3201.78535059138
 31
0.0
  0
LINE
  5
1B454
330
747D
100
AcDbEntity
  8
細線
100
AcDbLine
 10
3452.153011747465
 20
4176.785350591379
 30
0.0
 11
5876.153011747465
 21
4176.785350591379
 31
0.0
  0
LINE
  5
1B455
330
747D
100
AcDbEntity
  8
細線
100
AcDbLine
 10
3452.153011747465
 20
4111.785350591379
 30
0.0
 11
5876.153011747465
 21
4111.785350591379
 31
0.0
  0
LINE
  5
1B456
330
747D
100
AcDbEntity
  8
細線
100
AcDbLine
 10
3452.153011747465
 20
4046.785350591379
 30
0.0
 11
5876.153011747465
 21
4046.785350591379
 31
0.0
  0
LINE
  5
1B457
330
747D
100
AcDbEntity
  8
細線
100
AcDbLine
 10
3452.153011747465
 20
3981.785350591379
 30
0.0
 11
5876.153011747465
 21
3981.785350591379
 31
0.0
  0
LINE
  5
1B458
330
747D
100
AcDbEntity
  8
細線
100
AcDbLine
 10
3452.153011747465
 20
3916.785350591379
 30
0.0
 11
5876.153011747465
 21
3916.785350591379
 31
0.0
  0
LINE
  5
1B459
330
747D
100
AcDbEntity
  8
細線
100
AcDbLine
 10
3452.153011747465
 20
3851.785350591379
 30
0.0
 11
5876.153011747465
 21
3851.785350591379
 31
0.0
  0
LINE
  5
1B45A
330
747D
100
AcDbEntity
  8
細線
100
AcDbLine
 10
3452.153011747465
 20
4371.785350591379
 30
0.0
 11
5876.153011747465
 21
4371.785350591379
 31
0.0
  0
LINE
  5
1B45B
330
747D
100
AcDbEntity
  8
細線
100
AcDbLine
 10
3452.153011747465
 20
4306.785350591378
 30
0.0
 11
5876.153011747465
 21
4306.785350591378
 31
0.0
  0
LINE
  5
1B45C
330
747D
100
AcDbEntity
  8
細線
100
AcDbLine
 10
3452.153011747465
 20
4241.785350591379
 30
0.0
 11
5876.153011747465
 21
4241.785350591379
 31
0.0
  0
ARC
  5
1B45D
330
747D
100
AcDbEntity
  8
細線
 48
50.0
100
AcDbCircle
 10
4364.153011747465
 20
3169.28535059138
 30
0.0
 40
15.0
100
AcDbArc
 50
90.0
 51
270.0
  0
ARC
  5
1B45E
330
747D
100
AcDbEntity
  8
細線
 48
50.0
100
AcDbCircle
 10
4464.153011747465
 20
3169.28535059138
 30
0.0
 40
15.0
100
AcDbArc
 50
270.0
 51
90.0
  0
LINE
  5
1B45F
330
747D
100
AcDbEntity
  8
細線
 48
50.0
100
AcDbLine
 10
4964.153011747465
 20
3154.28535059138
 30
0.0
 11
4864.153011747465
 21
3154.28535059138
 31
0.0
  0
LINE
  5
1B460
330
747D
100
AcDbEntity
  8
細線
 48
50.0
100
AcDbLine
 10
4864.153011747465
 20
3184.285350591379
 30
0.0
 11
4964.153011747465
 21
3184.285350591379
 31
0.0
  0
ARC
  5
1B461
330
747D
100
AcDbEntity
  8
細線
 48
50.0
100
AcDbCircle
 10
4864.153011747465
 20
3169.28535059138
 30
0.0
 40
15.0
100
AcDbArc
 50
90.0
 51
270.0
  0
ARC
  5
1B462
330
747D
100
AcDbEntity
  8
細線
 48
50.0
100
AcDbCircle
 10
4964.153011747465
 20
3169.28535059138
 30
0.0
 40
15.0
100
AcDbArc
 50
270.0
 51
90.0
  0
CIRCLE
  5
1B463
330
747D
100
AcDbEntity
  8
細線
 48
50.0
100
AcDbCircle
 10
4664.153011747464
 20
3494.28535059138
 30
0.0
 40
18.0
  0
LINE
  5
1B464
330
747D
100
AcDbEntity
  8
部品1
100
AcDbLine
 10
5876.153011747472
 20
4531.785350591382
 30
0.0
 11
5876.153011747465
 21
2606.785350591382
 31
0.0
  0
LINE
  5
1B465
330
747D
100
AcDbEntity
  8
部品1
100
AcDbLine
 10
5924.153011747469
 20
4531.785350591379
 30
0.0
 11
5924.153011747465
 21
2456.785350591383
 31
0.0
  0
LINE
  5
1B468
330
747D
100
AcDbEntity
  8
部品1
100
AcDbLine
 10
6082.153011747468
 20
4531.785350591382
 30
0.0
 11
6082.153011747468
 21
2606.785350591383
 31
0.0
  0
LINE
  5
1B46A
330
747D
100
AcDbEntity
  8
部品1
100
AcDbLine
 10
6034.153011747469
 20
4531.785350591379
 30
0.0
 11
6034.153011747469
 21
2456.785350591383
 31
0.0
  0
LINE
  5
1B46B
330
747D
100
AcDbEntity
  8
部品1
100
AcDbLine
 10
6034.153011747469
 20
4531.785350591382
 30
0.0
 11
8609.153011747467
 21
4531.785350591382
 31
0.0
  0
LINE
  5
1B470
330
747D
100
AcDbEntity
  8
細線
100
AcDbLine
 10
5876.153011747469
 20
2616.78535059138
 30
0.0
 11
3452.153011747465
 21
2616.78535059138
 31
0.0
  0
LINE
  5
1B471
330
747D
100
AcDbEntity
  8
Ｇ．Ｌ
100
AcDbLine
 10
2673.141387963413
 20
2456.785350591379
 30
0.0
 11
9224.831433051985
 21
2456.785350591381
 31
0.0
  0
LINE
  5
1B472
330
747D
100
AcDbEntity
  8
部品1
100
AcDbLine
 10
3404.153011747469
 20
2556.78535059138
 30
0.0
 11
5924.153011747465
 21
2556.78535059138
 31
0.0
  0
LINE
  5
1B473
330
747D
100
AcDbEntity
  8
部品1
100
AcDbLine
 10
3404.153011747469
 20
2606.78535059138
 30
0.0
 11
5924.153011747465
 21
2606.78535059138
 31
0.0
  0
LINE
  5
1B474
330
747D
100
AcDbEntity
  8
部品1
100
AcDbLine
 10
6034.153011747469
 20
2606.785350591382
 30
0.0
 11
8554.15301174747
 21
2606.785350591382
 31
0.0
  0
LINE
  5
1B475
330
747D
100
AcDbEntity
  8
部品1
100
AcDbLine
 10
6034.153011747469
 20
2556.785350591383
 30
0.0
 11
8554.15301174747
 21
2556.785350591383
 31
0.0
  0
DIMENSION
  5
1B476
330
747D
100
AcDbEntity
  8
寸法
100
AcDbDimension
  2
*D35
 10
10548.54893331341
 20
2556.785350591381
 30
0.0
 11
10548.54893331341
 21
2173.035350591381
 31
0.0
 70
   160
 71
     5
 42
50.0
  3
INABA_S40G
100
AcDbAlignedDimension
 13
11392.29906249668
 23
2606.785350591381
 33
0.0
 14
11337.29906249667
 24
2556.785350591381
 34
0.0
 50
90.0
100
AcDbRotatedDimension
1001
ACAD
1000
DSTYLE
1002
{
1070
   288
1070
     1
1002
}
  0
DIMENSION
  5
1B479
330
747D
100
AcDbEntity
  8
寸法
100
AcDbDimension
  2
*D34
 10
10548.54893331341
 20
2606.785350591382
 30
0.0
 11
10448.53712228979
 21
3651.785350591384
 31
0.0
 70
    32
 71
     5
 42
2090.0
  3
INABA_S40G
100
AcDbAlignedDimension
 13
11392.29906249668
 23
4696.785350591381
 33
0.0
 14
11392.29906249668
 24
2606.785350591381
 34
0.0
 50
90.0
100
AcDbRotatedDimension
1001
ACAD
1000
DSTYLE
1002
{
1070
   288
1070
     1
1002
}
  0
LINE
  5
1B47A
330
747D
100
AcDbEntity
  8
Ｇ．Ｌ
100
AcDbLine
 10
9224.831433051987
 20
2456.785350591381
 30
0.0
 11
14359.0182084157
 21
2456.785350591381
 31
0.0
  0
LINE
  5
1B47B
330
747D
100
AcDbEntity
  8
破線
  6
HIDDEN
 48
5.0
100
AcDbLine
 10
11392.29906249668
 20
2456.785350591381
 30
0.0
 11
11392.29906249668
 21
2206.785350591381
 31
0.0
  0
LINE
  5
1B47C
330
747D
100
AcDbEntity
  8
破線
  6
HIDDEN
 48
5.0
100
AcDbLine
 10
11447.29906249667
 20
2456.785350591381
 30
0.0
 11
11447.29906249667
 21
2206.785350591381
 31
0.0
  0
LINE
  5
1B482
330
747D
100
AcDbEntity
  8
破線
  6
HIDDEN
 48
5.0
100
AcDbLine
 10
11392.29906249668
 20
2206.785350591381
 30
0.0
 11
11447.29906249667
 21
2206.785350591381
 31
0.0
  0
LINE
  5
1B483
330
747D
100
AcDbEntity
  8
部品1
100
AcDbLine
 10
11447.29906249667
 20
2556.785350591381
 30
0.0
 11
13182.29906249668
 21
2556.785350591381
 31
0.0
  0
LINE
  5
1B484
330
747D
100
AcDbEntity
  8
部品1
100
AcDbLine
 10
11447.29906249667
 20
2606.785350591381
 30
0.0
 11
13182.29906249668
 21
2606.785350591381
 31
0.0
  0
LINE
  5
1B485
330
747D
100
AcDbEntity
  8
部品1
100
AcDbLine
 10
11392.29906249668
 20
4696.785350591381
 30
0.0
 11
13182.29906249668
 21
4696.785350591381
 31
0.0
  0
LINE
  5
1B4B0
330
747D
100
AcDbEntity
  8
部品1
100
AcDbLine
 10
11392.29906249668
 20
4788.643870033628
 30
0.0
 11
11392.29906249668
 21
2456.785350591381
 31
0.0
  0
LINE
  5
1B4B4
330
747D
100
AcDbEntity
  8
部品1
100
AcDbLine
 10
11447.29906249667
 20
4696.785350591381
 30
0.0
 11
11447.29906249667
 21
2456.785350591381
 31
0.0
  0
DIMENSION
  5
1B4B5
330
747D
100
AcDbEntity
  8
寸法
100
AcDbDimension
  2
*D33
 10
13887.2262204688
 20
4876.785350591381
 30
0.0
 11
13887.2262204688
 21
3711.785350591381
 31
0.0
 70
   160
 71
     5
 42
2320.0
  3
INABA_S40G
100
AcDbAlignedDimension
 13
13182.29906249668
 23
2556.785350591381
 33
0.0
 14
13277.29906249667
 24
4876.785350591381
 34
0.0
 50
90.0
100
AcDbRotatedDimension
1001
ACAD
1000
DSTYLE
1002
{
1070
   288
1070
     1
1002
}
  0
LINE
  5
1B4B6
330
747D
100
AcDbEntity
  8
部品1
100
AcDbLine
 10
13127.29906249668
 20
4696.785350591381
 30
0.0
 11
13127.29906249668
 21
2606.785350591381
 31
0.0
  0
LINE
  5
1B4B7
330
747D
100
AcDbEntity
  8
部品1
100
AcDbLine
 10
13182.29906249667
 20
4751.667159277388
 30
0.0
 11
13182.29906249668
 21
2456.785350591381
 31
0.0
  0
DIMENSION
  5
1B4B8
330
747D
100
AcDbEntity
  8
寸法
 48
50.0
100
AcDbDimension
  2
*D32
 10
8659.153011747468
 20
5547.404619549297
 30
0.0
 11
5979.15301174747
 21
5547.404619549297
 31
0.0
 70
   160
 71
     5
 42
5359.999999999996
  3
INABA_S40G
100
AcDbAlignedDimension
 13
3299.153011747473
 23
4931.785350591384
 33
0.0
 14
8659.153011747468
 24
4931.785350591382
 34
0.0
100
AcDbRotatedDimension
  0
DIMENSION
  5
1B4B9
330
747D
100
AcDbEntity
  8
寸法
 48
50.0
100
AcDbDimension
  2
*D31
 10
8609.153011747469
 20
5330.878519930852
 30
0.0
 11
8972.638293121704
 21
5330.878519930852
 31
0.0
 70
   160
 71
     5
 42
50.0
  3
INABA_S40G
100
AcDbAlignedDimension
 13
8659.153011747468
 23
4931.785350591382
 33
0.0
 14
8609.153011747469
 24
4931.785350591384
 34
0.0
100
AcDbRotatedDimension
  0
DIMENSION
  5
1B4BA
330
747D
100
AcDbEntity
  8
寸法
 48
50.0
100
AcDbDimension
  2
*D30
 10
3349.153011747473
 20
5330.878519930852
 30
0.0
 11
5979.15301174747
 21
5330.878519930852
 31
0.0
 70
   160
  1
柱外寸法<>
 71
     5
 42
5259.999999999997
  3
INABA_S40G
100
AcDbAlignedDimension
 13
8609.153011747469
 23
4931.785350591384
 33
0.0
 14
3349.153011747473
 24
4931.785350591385
 34
0.0
100
AcDbRotatedDimension
  0
DIMENSION
  5
1B4BB
330
747D
100
AcDbEntity
  8
寸法
 48
50.0
100
AcDbDimension
  2
*D29
 10
3299.153011747473
 20
5330.878519930852
 30
0.0
 11
2985.667730373225
 21
5330.878519930852
 31
0.0
 70
   160
 71
     5
 42
50.0
  3
INABA_S40G
100
AcDbAlignedDimension
 13
3349.153011747473
 23
4931.785350591385
 33
0.0
 14
3299.153011747473
 24
4931.785350591384
 34
0.0
100
AcDbRotatedDimension
1001
ACAD
1000
DSTYLE
1002
{
1002
}
  0
LINE
  5
1B4E8
330
747D
100
AcDbEntity
  8
部品1
 48
50.0
100
AcDbLine
 10
8651.744590641035
 20
4931.785350591383
 30
0.0
 11
5969.153011747465
 21
4931.785350591383
 31
0.0
  0
LINE
  5
1B4E9
330
747D
100
AcDbEntity
  8
部品1
 48
50.0
100
AcDbLine
 10
8638.529267180002
 20
4790.785350591383
 30
0.0
 11
5979.153011747465
 21
4790.785350591383
 31
0.0
  0
LINE
  5
1B4EA
330
747D
100
AcDbEntity
  8
細線
 48
50.0
100
AcDbLine
 10
8656.994360735552
 20
4903.758593154851
 30
0.0
 11
5969.153011747465
 21
4903.758593154851
 31
0.0
  0
LINE
  5
1B4EB
330
747D
100
AcDbEntity
  8
細線
 48
50.0
100
AcDbLine
 10
8648.758330210709
 20
4811.55859315485
 30
0.0
 11
5969.153011747465
 21
4811.55859315517
 31
0.0
  0
LINE
  5
1B4EC
330
747D
100
AcDbEntity
  8
部品1
100
AcDbLine
 10
8658.733350732134
 20
4924.388825196142
 30
0.0
 11
8657.599953399788
 21
4904.412697213544
 31
0.0
  0
LINE
  5
1B4ED
330
747D
100
AcDbEntity
  8
細線
 48
50.0
100
AcDbLine
 10
8626.153011747469
 20
4931.785350591383
 30
0.0
 11
8626.153011747469
 21
4790.785350591383
 31
0.0
  0
LINE
  5
1B4EE
330
747D
100
AcDbEntity
  8
部品1
100
AcDbLine
 10
8646.162933078214
 20
4808.755290046486
 30
0.0
 11
8645.5180272711
 21
4797.388825196145
 31
0.0
  0
LINE
  5
1B4EF
330
747D
100
AcDbEntity
  8
部品1
100
AcDbLine
 10
8654.398963603055
 20
4900.955290046486
 30
0.0
 11
8649.363922874945
 21
4812.212697213543
 31
0.0
  0
ARC
  5
1B4F0
330
747D
100
AcDbEntity
  8
部品1
 48
50.0
100
AcDbCircle
 10
8657.394146499242
 20
4900.785350591383
 30
0.0
 40
3.0
100
AcDbArc
 50
97.6581272073639
 51
176.752657209659
  0
ARC
  5
1B4F1
330
747D
100
AcDbEntity
  8
部品1
 48
50.0
100
AcDbCircle
 10
8649.158115974399
 20
4808.585350591382
 30
0.0
 40
3.0
100
AcDbArc
 50
97.6581272073639
 51
176.752657209659
  0
ARC
  5
1B4F2
330
747D
100
AcDbEntity
  8
部品1
 48
50.0
100
AcDbCircle
 10
8648.665046865836
 20
4812.252349753066
 30
0.0
 40
0.7
100
AcDbArc
 50
277.6581272073639
 51
356.7526572097111
  0
ARC
  5
1B4F3
330
747D
100
AcDbEntity
  8
部品1
 48
50.0
100
AcDbCircle
 10
8656.901077390681
 20
4904.45234975307
 30
0.0
 40
0.7
100
AcDbArc
 50
277.6581272073639
 51
356.752657209607
  0
ARC
  5
1B4F4
330
747D
100
AcDbEntity
  8
部品1
100
AcDbCircle
 10
8638.529267180002
 20
4797.785350591382
 30
0.0
 40
7.0
100
AcDbArc
 50
270.0
 51
356.752657209659
  0
ARC
  5
1B4F5
330
747D
100
AcDbEntity
  8
部品1
100
AcDbCircle
 10
8651.744590641035
 20
4924.785350591383
 30
0.0
 40
7.0
100
AcDbArc
 50
356.752657209659
 51
90.0
  0
LINE
  5
1B4F6
330
747D
100
AcDbEntity
  8
部品1
100
AcDbLine
 10
5979.153011747465
 20
4696.785350591379
 30
0.0
 11
8609.153011747464
 21
4696.785350591379
 31
0.0
  0
LINE
  5
1B4F7
330
747D
100
AcDbEntity
  8
部品1
100
AcDbLine
 10
3349.153011747465
 20
4696.785350591379
 30
0.0
 11
5979.153011747465
 21
4696.785350591379
 31
0.0
  0
LINE
  5
1B4F8
330
747D
100
AcDbEntity
  8
部品1
100
AcDbLine
 10
3299.572672762803
 20
4924.388825196142
 30
0.0
 11
3300.706070095151
 21
4904.412697213544
 31
0.0
  0
LINE
  5
1B4F9
330
747D
100
AcDbEntity
  8
部品1
100
AcDbLine
 10
3312.143090416725
 20
4808.755290046486
 30
0.0
 11
3312.787996223833
 21
4797.388825196145
 31
0.0
  0
LINE
  5
1B4FA
330
747D
100
AcDbEntity
  8
部品1
100
AcDbLine
 10
3303.90705989188
 20
4900.955290046486
 30
0.0
 11
3308.942100619989
 21
4812.212697213543
 31
0.0
  0
ARC
  5
1B4FB
330
747D
100
AcDbEntity
  8
部品1
 48
50.0
100
AcDbCircle
 10
3300.911876995695
 20
4900.785350591383
 30
0.0
 40
3.0
100
AcDbArc
 50
3.247342790340932
 51
82.34187279263609
  0
ARC
  5
1B4FC
330
747D
100
AcDbEntity
  8
部品1
 48
50.0
100
AcDbCircle
 10
3309.147907520539
 20
4808.585350591382
 30
0.0
 40
3.0
100
AcDbArc
 50
3.247342790340932
 51
82.34187279263609
  0
ARC
  5
1B4FD
330
747D
100
AcDbEntity
  8
部品1
 48
50.0
100
AcDbCircle
 10
3309.6409766291
 20
4812.252349753066
 30
0.0
 40
0.7
100
AcDbArc
 50
183.2473427902889
 51
262.3418727926361
  0
ARC
  5
1B4FE
330
747D
100
AcDbEntity
  8
部品1
 48
50.0
100
AcDbCircle
 10
3301.404946104256
 20
4904.45234975307
 30
0.0
 40
0.7
100
AcDbArc
 50
183.2473427903929
 51
262.3418727926361
  0
ARC
  5
1B4FF
330
747D
100
AcDbEntity
  8
部品1
100
AcDbCircle
 10
3319.776756314936
 20
4797.785350591382
 30
0.0
 40
7.0
100
AcDbArc
 50
183.247342790341
 51
270.0
  0
ARC
  5
1B500
330
747D
100
AcDbEntity
  8
部品1
100
AcDbCircle
 10
3306.561432853898
 20
4924.785350591383
 30
0.0
 40
7.0
100
AcDbArc
 50
90.0
 51
183.247342790341
  0
LINE
  5
1B501
330
747D
100
AcDbEntity
  8
細線
 48
50.0
100
AcDbLine
 10
3332.153011747472
 20
4931.785350591383
 30
0.0
 11
3332.153011747472
 21
4790.785350591383
 31
0.0
  0
LINE
  5
1B502
330
747D
100
AcDbEntity
  8
細線
 48
50.0
100
AcDbLine
 10
5969.153011747465
 20
4811.558593155167
 30
0.0
 11
3309.547693284269
 21
4811.55859315517
 31
0.0
  0
LINE
  5
1B503
330
747D
100
AcDbEntity
  8
細線
 48
50.0
100
AcDbLine
 10
5969.153011747465
 20
4903.758593154851
 30
0.0
 11
3301.311662759432
 21
4903.758593155171
 31
0.0
  0
LINE
  5
1B504
330
747D
100
AcDbEntity
  8
部品1
 48
50.0
100
AcDbLine
 10
5979.153011747465
 20
4790.785350591383
 30
0.0
 11
3319.776756314936
 21
4790.785350591383
 31
0.0
  0
LINE
  5
1B505
330
747D
100
AcDbEntity
  8
部品1
 48
50.0
100
AcDbLine
 10
5969.153011747465
 20
4931.785350591383
 30
0.0
 11
3306.561432853898
 21
4931.785350591383
 31
0.0
  0
LINE
  5
1B532
330
747D
100
AcDbEntity
  8
部品1
 48
50.0
100
AcDbLine
 10
5969.153011747465
 20
4790.785350591383
 30
0.0
 11
5969.153011747465
 21
4931.785350591384
 31
0.0
  0
LINE
  5
1B533
330
747D
100
AcDbEntity
  8
部品1
 48
50.0
100
AcDbLine
 10
5979.153011747465
 20
4531.785350591382
 30
0.0
 11
5979.153011747465
 21
4790.785350591383
 31
0.0
  0
TEXT
  5
1B534
330
747D
100
AcDbEntity
  8
部品1
 48
50.0
100
AcDbText
 10
12125.5668977204
 20
5098.537511845094
 30
0.0
 40
120.0
  1
1000
  7
STYLE1
100
AcDbText
  0
DIMENSION
  5
1B535
330
747D
100
AcDbEntity
  8
寸法
 48
50.0
100
AcDbDimension
  2
*D28
 10
13262.29906249667
 20
5330.878519930855
 30
0.0
 11
13468.34630659116
 21
5330.878519930855
 31
0.0
 70
   160
 71
     5
 42
80.0
  3
INABA_S40G
100
AcDbAlignedDimension
 13
13182.29906249667
 23
4878.596030203034
 33
0.0
 14
13262.29906249667
 24
4876.785350591382
 34
0.0
100
AcDbRotatedDimension
1001
ACAD
1000
DSTYLE
1002
{
1070
   174
1070
     0
1070
   272
1070
     1
1070
   288
1070
     0
1070
   341
1005
0
1002
}
  0
DIMENSION
  5
1B536
330
747D
100
AcDbEntity
  8
寸法
 48
50.0
100
AcDbDimension
  2
*D27
 10
11332.29906249668
 20
5547.4046195493
 30
0.0
 11
12297.29906249668
 21
5547.4046195493
 31
0.0
 70
   160
 71
     5
 42
1929.999999999998
  3
INABA_S40G
100
AcDbAlignedDimension
 13
13262.29906249667
 23
4876.785350591382
 33
0.0
 14
11332.29906249668
 24
4931.785350591385
 34
0.0
100
AcDbRotatedDimension
1001
ACAD
1000
DSTYLE
1002
{
1070
   174
1070
     0
1070
   272
1070
     1
1070
   288
1070
     0
1070
   341
1005
0
1002
}
  0
DIMENSION
  5
1B537
330
747D
100
AcDbEntity
  8
寸法
 48
50.0
100
AcDbDimension
  2
*D26
 10
11332.29906249668
 20
5330.878519930855
 30
0.0
 11
11022.66126722108
 21
5330.878519930855
 31
0.0
 70
   160
 71
     5
 42
60.0
  3
INABA_S40G
100
AcDbAlignedDimension
 13
11392.29906249668
 23
4927.786968714357
 33
0.0
 14
11332.29906249668
 24
4931.785350591385
 34
0.0
100
AcDbRotatedDimension
1001
ACAD
1000
DSTYLE
1002
{
1070
   174
1070
     0
1070
   272
1070
     1
1070
   288
1070
     0
1070
   341
1005
0
1002
}
  0
DIMENSION
  5
1B538
330
747D
100
AcDbEntity
  8
寸法
 48
50.0
100
AcDbDimension
  2
*D25
 10
11392.29906249668
 20
5330.878519930855
 30
0.0
 11
12287.29906249667
 21
5330.878519930855
 31
0.0
 70
   160
  1
柱外寸法<>
 71
     5
 42
1789.999999999998
  3
INABA_S40G
100
AcDbAlignedDimension
 13
13182.29906249667
 23
4878.596030203034
 33
0.0
 14
11392.29906249668
 24
4927.786968714357
 34
0.0
100
AcDbRotatedDimension
1001
ACAD
1000
DSTYLE
1002
{
1070
   174
1070
     0
1070
   272
1070
     1
1070
   288
1070
     0
1070
   341
1005
0
1002
}
  0
DIMENSION
  5
1B539
330
747D
100
AcDbEntity
  8
寸法
 48
50.0
100
AcDbDimension
  2
*D24
 10
10771.69065572831
 20
4806.130609464704
 30
0.0
 11
10782.35613098724
 21
5176.977272706406
 31
0.0
 70
   161
 71
     5
 42
141.0000000000009
  3
INABA_S40G
100
AcDbAlignedDimension
 13
11351.69508265525
 23
4930.50809942606
 33
0.0
 14
11347.64162709863
 24
4789.566375660348
 34
0.0
1001
ACAD
1000
DSTYLE
1002
{
1070
   174
1070
     0
1070
   272
1070
     1
1070
   288
1070
     0
1070
   341
1005
0
1002
}
  0
ARC
  5
1B53A
330
747D
100
AcDbEntity
  8
部品1
100
AcDbCircle
 10
13247.92659831061
 20
4770.809107857174
 30
0.0
 40
0.7
100
AcDbArc
 50
275.0921697642102
 51
354.1866997667184
  0
ARC
  5
1B53B
330
747D
100
AcDbEntity
  8
部品1
100
AcDbCircle
 10
13258.78594405993
 20
4847.852362675098
 30
0.0
 40
0.7
100
AcDbArc
 50
275.0921697642102
 51
354.1866997665662
  0
ARC
  5
1B53C
330
747D
100
AcDbEntity
  8
部品1
100
AcDbCircle
 10
13259.11434930253
 20
4844.166965818008
 30
0.0
 40
3.0
100
AcDbArc
 50
95.09216976441955
 51
174.1866997665661
  0
ARC
  5
1B53D
330
747D
100
AcDbEntity
  8
部品1
100
AcDbCircle
 10
13248.25500355321
 20
4767.123711000084
 30
0.0
 40
3.0
100
AcDbArc
 50
95.0921697642102
 51
174.1866997665661
  0
ARC
  5
1B53E
330
747D
100
AcDbEntity
  8
部品1
 48
50.0
100
AcDbCircle
 10
13237.2268682781
 20
4757.5329663962
 30
0.0
 40
7.0
100
AcDbArc
 50
267.8377559871574
 51
354.1866997665662
  0
ARC
  5
1B53F
330
747D
100
AcDbEntity
  8
部品1
 48
50.0
100
AcDbCircle
 10
13254.54896474262
 20
4868.435513538374
 30
0.0
 40
7.0
100
AcDbArc
 50
354.1866997665662
 51
87.03587545303976
  0
LINE
  5
1B540
330
747D
100
AcDbEntity
  8
部品1
 48
50.0
100
AcDbLine
 10
13245.2704318826
 20
4767.427572716986
 30
0.0
 11
13244.19086884286
 21
4756.823955723426
 31
0.0
  0
LINE
  5
1B541
330
747D
100
AcDbEntity
  8
部品1
 48
50.0
100
AcDbLine
 10
13256.12977763192
 20
4844.470827534911
 30
0.0
 11
13248.62299836709
 21
4770.738206789898
 31
0.0
  0
LINE
  5
1B542
330
747D
100
AcDbEntity
  8
部品1
 48
50.0
100
AcDbLine
 10
13261.51296530737
 20
4867.7265028656
 30
0.0
 11
13259.4823441164
 21
4847.781461607819
 31
0.0
  0
ARC
  5
1B543
330
747D
100
AcDbEntity
  8
部品1
100
AcDbCircle
 10
11338.33615436804
 20
4810.599509550284
 30
0.0
 40
0.7
100
AcDbArc
 50
181.0932240292114
 51
260.1877540314855
  0
ARC
  5
1B544
330
747D
100
AcDbEntity
  8
部品1
100
AcDbCircle
 10
11333.56348077043
 20
4903.465287750405
 30
0.0
 40
0.7
100
AcDbArc
 50
181.0932240292114
 51
260.1877540314855
  0
ARC
  5
1B545
330
747D
100
AcDbEntity
  8
部品1
100
AcDbCircle
 10
11332.93292636741
 20
4899.819413213006
 30
0.0
 40
3.0
100
AcDbArc
 50
1.093224029263536
 51
80.18775403148559
  0
ARC
  5
1B546
330
747D
100
AcDbEntity
  8
部品1
100
AcDbCircle
 10
11337.70559996501
 20
4806.953635012888
 30
0.0
 40
3.0
100
AcDbArc
 50
1.093224029263536
 51
80.18775403148559
  0
ARC
  5
1B547
330
747D
100
AcDbEntity
  8
部品1
 48
50.0
100
AcDbCircle
 10
11347.90573234021
 20
4796.561391630406
 30
0.0
 40
7.0
100
AcDbArc
 50
181.0932240292635
 51
267.8377559871574
  0
ARC
  5
1B548
330
747D
100
AcDbEntity
  8
部品1
 48
50.0
100
AcDbCircle
 10
11339.48207423812
 20
4923.5124511635
 30
0.0
 40
7.0
100
AcDbArc
 50
87.03587545303976
 51
181.0932240292635
  0
LINE
  5
1B549
330
747D
100
AcDbEntity
  8
部品1
 48
50.0
100
AcDbLine
 10
11340.70505389144
 20
4807.01087261607
 30
0.0
 11
11340.90700651188
 21
4796.427837222978
 31
0.0
  0
LINE
  5
1B54A
330
747D
100
AcDbEntity
  8
細線
 48
50.0
100
AcDbLine
 10
11338.09896083477
 20
4809.94092073488
 30
0.0
 11
13248.10262526541
 21
4770.131601760385
 31
0.0
  0
LINE
  5
1B54B
330
747D
100
AcDbEntity
  8
細線
 48
50.0
100
AcDbLine
 10
11333.33848559749
 20
4902.802432432742
 30
0.0
 11
13258.97447034265
 21
4847.178227791915
 31
0.0
  0
LINE
  5
1B54C
330
747D
100
AcDbEntity
  8
部品1
 48
50.0
100
AcDbLine
 10
11335.93238029384
 20
4899.87665081619
 30
0.0
 11
11337.6362817852
 21
4810.586154109543
 31
0.0
  0
LINE
  5
1B54D
330
747D
100
AcDbEntity
  8
部品1
 48
50.0
100
AcDbLine
 10
11332.48334840978
 20
4923.378896756074
 30
0.0
 11
11332.86360818759
 21
4903.451932309661
 31
0.0
  0
LINE
  5
1B54E
330
747D
100
AcDbEntity
  8
細線
 48
50.0
100
AcDbLine
 10
13229.29906249667
 20
4876.752329626677
 30
0.0
 11
13224.55137960867
 21
4751.006557135934
 31
0.0
  0
LINE
  5
1B54F
330
747D
100
AcDbEntity
  8
細線
 48
50.0
100
AcDbLine
 10
11365.29906249667
 20
4929.185026966784
 30
0.0
 11
11360.00996094116
 21
4789.099394339431
 31
0.0
  0
LINE
  5
1B550
330
747D
100
AcDbEntity
  8
部品1
100
AcDbLine
 10
11347.64162709863
 20
4789.566375660348
 30
0.0
 11
13236.96276303652
 21
4750.537950426143
 31
0.0
  0
LINE
  5
1B551
330
747D
100
AcDbEntity
  8
部品1
100
AcDbLine
 10
11339.84404885364
 20
4930.503085925647
 30
0.0
 11
13254.91093935813
 21
4875.426148300522
 31
0.0
  0
LINE
  5
1B552
330
747D
100
AcDbEntity
  8
部品1
 48
50.0
100
AcDbLine
 10
12137.29906249667
 20
5062.65348969266
 30
0.0
 11
12437.29906249667
 21
5046.453489692662
 31
0.0
  0
TEXT
  5
1B553
330
747D
100
AcDbEntity
  8
部品1
 48
50.0
100
AcDbText
 10
12614.39190978453
 20
4961.036253626811
 30
0.0
 40
120.0
  1
54
 50
90.0
  7
STYLE1
100
AcDbText
  0
LINE
  5
1B554
330
747D
100
AcDbEntity
  8
部品1
 48
50.0
100
AcDbLine
 10
12437.29906249667
 20
5062.65348969266
 30
0.0
 11
12437.29906249667
 21
5046.453489692662
 31
0.0
  0
LINE
  5
1B555
330
747D
100
AcDbEntity
  8
部品1
 48
50.0
100
AcDbLine
 10
12137.29906249667
 20
5062.65348969266
 30
0.0
 11
12437.29906249667
 21
5062.65348969266
 31
0.0
  0
LWPOLYLINE
  5
1B556
330
747D
100
AcDbEntity
  8
部品1
100
AcDbPolyline
 90
        4
 70
     1
 43
0.0
 10
11905.56372938246
 20
1806.785350591386
 10
11905.56372938246
 20
1566.893029045854
 10
12669.03439561089
 20
1566.893029045854
 10
12669.03439561089
 20
1806.785350591386
  0
TEXT
  5
1B557
330
747D
100
AcDbEntity
  8
部品1
100
AcDbText
 10
11995.00983080606
 20
1613.891821372863
 30
0.0
 40
135.0
  1
側面図
  7
STYLE2
100
AcDbText
  0
LWPOLYLINE
  5
1B558
330
747D
100
AcDbEntity
  8
部品1
100
AcDbPolyline
 90
        4
 70
     1
 43
0.0
 10
5597.41767863325
 20
1806.785350591386
 10
5597.41767863325
 20
1566.893029045854
 10
6360.888344861687
 20
1566.893029045854
 10
6360.888344861687
 20
1806.785350591386
  0
TEXT
  5
1B559
330
747D
100
AcDbEntity
  8
部品1
100
AcDbText
 10
5687.943082371206
 20
1613.891821372864
 30
0.0
 40
135.0
  1
正面図
  7
STYLE2
100
AcDbText
  0
LINE
  5
1C509
330
747D
100
AcDbEntity
  8
細線
 48
50.0
100
AcDbLine
 10
13049.79906249668
 20
4696.785350591381
 30
0.0
 11
13049.79906249668
 21
2606.785350591381
 31
0.0
  0
LINE
  5
1C50A
330
747D
100
AcDbEntity
  8
細線
 48
50.0
100
AcDbLine
 10
13064.79906249668
 20
4696.785350591381
 30
0.0
 11
13064.79906249668
 21
2606.785350591381
 31
0.0
  0
LINE
  5
1C50B
330
747D
100
AcDbEntity
  8
細線
 48
50.0
100
AcDbLine
 10
12924.79906249668
 20
4696.785350591381
 30
0.0
 11
12924.79906249668
 21
2606.785350591381
 31
0.0
  0
LINE
  5
1C50C
330
747D
100
AcDbEntity
  8
細線
 48
50.0
100
AcDbLine
 10
12909.79906249668
 20
4696.785350591381
 30
0.0
 11
12909.79906249668
 21
2606.785350591381
 31
0.0
  0
LINE
  5
1C50D
330
747D
100
AcDbEntity
  8
細線
 48
50.0
100
AcDbLine
 10
12769.79906249668
 20
4696.785350591381
 30
0.0
 11
12769.79906249668
 21
2606.785350591381
 31
0.0
  0
LINE
  5
1C50E
330
747D
100
AcDbEntity
  8
細線
 48
50.0
100
AcDbLine
 10
12784.79906249668
 20
4696.785350591381
 30
0.0
 11
12784.79906249668
 21
2606.785350591381
 31
0.0
  0
LINE
  5
1C50F
330
747D
100
AcDbEntity
  8
部品1
100
AcDbLine
 10
12707.29906249667
 20
4696.785350591381
 30
0.0
 11
12707.29906249667
 21
2606.785350591381
 31
0.0
  0
LINE
  5
1C510
330
747D
100
AcDbEntity
  8
細線
 48
50.0
100
AcDbLine
 10
12364.79906249668
 20
4696.785350591381
 30
0.0
 11
12364.79906249668
 21
2606.785350591381
 31
0.0
  0
LINE
  5
1C511
330
747D
100
AcDbEntity
  8
細線
 48
50.0
100
AcDbLine
 10
12349.79906249668
 20
4696.785350591381
 30
0.0
 11
12349.79906249668
 21
2606.785350591381
 31
0.0
  0
LINE
  5
1C512
330
747D
100
AcDbEntity
  8
細線
 48
50.0
100
AcDbLine
 10
12489.79906249668
 20
4696.785350591381
 30
0.0
 11
12489.79906249668
 21
2606.785350591381
 31
0.0
  0
LINE
  5
1C513
330
747D
100
AcDbEntity
  8
細線
 48
50.0
100
AcDbLine
 10
12504.79906249667
 20
4696.785350591381
 30
0.0
 11
12504.79906249667
 21
2606.785350591381
 31
0.0
  0
LINE
  5
1C514
330
747D
100
AcDbEntity
  8
細線
 48
50.0
100
AcDbLine
 10
12644.79906249667
 20
4696.785350591381
 30
0.0
 11
12644.79906249667
 21
2606.785350591381
 31
0.0
  0
LINE
  5
1C515
330
747D
100
AcDbEntity
  8
細線
 48
50.0
100
AcDbLine
 10
12629.79906249668
 20
4696.785350591381
 30
0.0
 11
12629.79906249668
 21
2606.785350591381
 31
0.0
  0
LINE
  5
1C516
330
747D
100
AcDbEntity
  8
部品1
100
AcDbLine
 10
12287.29906249667
 20
4696.785350591381
 30
0.0
 11
12287.29906249667
 21
2606.785350591381
 31
0.0
  0
LINE
  5
1C517
330
747D
100
AcDbEntity
  8
細線
 48
50.0
100
AcDbLine
 10
11524.79906249667
 20
4696.785350591381
 30
0.0
 11
11524.79906249668
 21
2606.785350591381
 31
0.0
  0
LINE
  5
1C518
330
747D
100
AcDbEntity
  8
細線
 48
50.0
100
AcDbLine
 10
11509.79906249667
 20
4696.785350591381
 30
0.0
 11
11509.79906249667
 21
2606.785350591381
 31
0.0
  0
LINE
  5
1C519
330
747D
100
AcDbEntity
  8
細線
 48
50.0
100
AcDbLine
 10
11649.79906249667
 20
4696.785350591381
 30
0.0
 11
11649.79906249667
 21
2606.785350591381
 31
0.0
  0
LINE
  5
1C51A
330
747D
100
AcDbEntity
  8
細線
 48
50.0
100
AcDbLine
 10
11664.79906249667
 20
4696.785350591381
 30
0.0
 11
11664.79906249668
 21
2606.785350591381
 31
0.0
  0
LINE
  5
1C51B
330
747D
100
AcDbEntity
  8
細線
 48
50.0
100
AcDbLine
 10
11804.79906249667
 20
4696.785350591381
 30
0.0
 11
11804.79906249668
 21
2606.785350591381
 31
0.0
  0
LINE
  5
1C51C
330
747D
100
AcDbEntity
  8
細線
 48
50.0
100
AcDbLine
 10
11789.79906249667
 20
4696.785350591381
 30
0.0
 11
11789.79906249667
 21
2606.785350591381
 31
0.0
  0
LINE
  5
1C51D
330
747D
100
AcDbEntity
  8
細線
 48
50.0
100
AcDbLine
 10
12209.79906249667
 20
4696.785350591381
 30
0.0
 11
12209.79906249668
 21
2606.785350591381
 31
0.0
  0
LINE
  5
1C51E
330
747D
100
AcDbEntity
  8
細線
 48
50.0
100
AcDbLine
 10
12224.79906249667
 20
4696.785350591381
 30
0.0
 11
12224.79906249668
 21
2606.785350591381
 31
0.0
  0
LINE
  5
1C51F
330
747D
100
AcDbEntity
  8
細線
 48
50.0
100
AcDbLine
 10
12084.79906249667
 20
4696.785350591381
 30
0.0
 11
12084.79906249668
 21
2606.785350591381
 31
0.0
  0
LINE
  5
1C520
330
747D
100
AcDbEntity
  8
細線
 48
50.0
100
AcDbLine
 10
12069.79906249667
 20
4696.785350591381
 30
0.0
 11
12069.79906249667
 21
2606.785350591381
 31
0.0
  0
LINE
  5
1C521
330
747D
100
AcDbEntity
  8
細線
 48
50.0
100
AcDbLine
 10
11929.79906249667
 20
4696.785350591381
 30
0.0
 11
11929.79906249667
 21
2606.785350591381
 31
0.0
  0
LINE
  5
1C522
330
747D
100
AcDbEntity
  8
細線
 48
50.0
100
AcDbLine
 10
11944.79906249667
 20
4696.785350591381
 30
0.0
 11
11944.79906249668
 21
2606.785350591381
 31
0.0
  0
LINE
  5
1C523
330
747D
100
AcDbEntity
  8
部品1
100
AcDbLine
 10
11867.29906249667
 20
4696.785350591381
 30
0.0
 11
11867.29906249667
 21
2606.785350591381
 31
0.0
  0
DIMENSION
  5
1CD0E
330
747D
100
AcDbEntity
  8
寸法
100
AcDbDimension
  2
*D36
 10
10248.54893331341
 20
4931.785350591384
 30
0.0
 11
10148.53712228979
 21
3744.285350591384
 31
0.0
 70
    32
 71
     5
 42
2375.000000000005
  3
INABA_S40G
100
AcDbAlignedDimension
 13
11392.29906249668
 23
2556.78535059138
 33
0.0
 14
11332.29906249668
 24
4931.785350591384
 34
0.0
 50
90.0
100
AcDbRotatedDimension
1001
ACAD
1000
DSTYLE
1002
{
1070
   174
1070
     0
1070
   272
1070
     1
1070
   288
1070
     0
1070
   341
1005
0
1002
}
  0
MTEXT
  5
1CEB4
330
747D
100
AcDbEntity
  8
寸法
 62
     7
 48
50.0
100
AcDbMText
 10
4026.86820982011
 20
8989.7740803237
 30
0.0
 40
96.0
 41
0.0
 71
     5
 72
     1
  1
棚 3段
  7
STYLE1
 73
     1
 44
1.0
1001
ACAD
1000
MTEXTBEGIN
1070
    73
1070
     1
1070
    44
1040
1.0
1070
    74
1070
     0
1000
MTEXTEND
  0
MTEXT
  5
1D094
330
747D
100
AcDbEntity
  8
寸法
 62
     7
 48
50.0
100
AcDbMText
 10
5326.868209820111
 20
8989.774080323748
 30
0.0
 40
96.0
 41
0.0
 71
     5
 72
     1
  1
棚 3段
  7
STYLE1
 73
     1
 44
1.0
1001
ACAD
1000
MTEXTBEGIN
1070
    73
1070
     1
1070
    44
1040
1.0
1070
    74
1070
     0
1000
MTEXTEND
  0
MTEXT
  5
1D095
330
747D
100
AcDbEntity
  8
寸法
 62
     7
 48
50.0
100
AcDbMText
 10
7956.868209820111
 20
8989.774080323897
 30
0.0
 40
96.0
 41
0.0
 71
     5
 72
     1
  1
棚 3段
  7
STYLE1
 73
     1
 44
1.0
1001
ACAD
1000
MTEXTBEGIN
1070
    73
1070
     1
1070
    44
1040
1.0
1070
    74
1070
     0
1000
MTEXTEND
  0
MTEXT
  5
1D096
330
747D
100
AcDbEntity
  8
寸法
 62
     7
 48
50.0
100
AcDbMText
 10
6656.86820982011
 20
8989.774080323849
 30
0.0
 40
96.0
 41
0.0
 71
     5
 72
     1
  1
棚 3段
  7
STYLE1
 73
     1
 44
1.0
1001
ACAD
1000
MTEXTBEGIN
1070
    73
1070
     1
1070
    44
1040
1.0
1070
    74
1070
     0
1000
MTEXTEND
  0
DIMENSION
  5
1D20F
330
747D
100
AcDbEntity
  8
寸法
100
AcDbDimension
  2
*D37
 10
8488.629165486136
 20
8581.930141601546
 30
0.0
 11
7898.638327485771
 21
8581.930141601546
 31
0.0
 70
   160
 71
     5
 42
1273.000000000012
  3
INABA_S40G
100
AcDbAlignedDimension
 13
7307.653011747475
 23
8925.367811356823
 33
0.0
 14
8580.653011747486
 24
8925.367811356816
 34
0.0
100
AcDbRotatedDimension
1001
ACAD
1000
DSTYLE
1002
{
1002
}
  0
DIMENSION
  5
1D234
330
747D
100
AcDbEntity
  8
寸法
100
AcDbDimension
  2
*D38
 10
7188.629165486165
 20
8581.930141601546
 30
0.0
 11
6552.129165486158
 21
8681.941952625168
 31
0.0
 70
    32
 71
     5
 42
1273.000000000012
  3
INABA_S40G
100
AcDbAlignedDimension
 13
6007.653011747476
 23
8925.367811356716
 33
0.0
 14
7280.653011747488
 24
8925.367811356709
 34
0.0
100
AcDbRotatedDimension
1001
ACAD
1000
DSTYLE
1002
{
1002
}
  0
LINE
  5
1D423
330
747D
100
AcDbEntity
  8
補助
  6
PHANTOM
 62
   230
 48
50.0
100
AcDbLine
 10
140.0
 20
0.0
 30
0.0
 11
139.9999999999995
 21
11409.6
 31
0.0
  0
TEXT
  5
1D440
330
747D
100
AcDbEntity
  8
文字
 62
     7
 48
50.0
100
AcDbText
 10
14544.7600863402
 20
483.8967129911414
 30
0.0
 40
160.0
  1
FXN-50HYL-2
  7
STYLE2
100
AcDbText
  0
DIMENSION
  5
1D57E
330
747D
100
AcDbEntity
  8
寸法
 48
50.0
100
AcDbDimension
  2
*D39
 10
8896.696114069214
 20
4504.785350591379
 30
0.0
 11
8796.696114069213
 21
3561.785350591382
 31
0.0
 70
    32
  1
有効開口部高サ <>
 71
     5
 42
1885.999999999999
  3
INABA_S40G
100
AcDbAlignedDimension
 13
8609.153011747469
 23
2618.785350591381
 33
0.0
 14
8609.153011747469
 24
4504.785350591379
 34
0.0
 50
90.0
100
AcDbRotatedDimension
  0
DIMENSION
  5
1D57F
330
747D
100
AcDbEntity
  8
寸法
 48
50.0
100
AcDbDimension
  2
*D40
 10
8896.696114069214
 20
4531.785350591381
 30
0.0
 11
9036.86593731558
 21
4532.75255043104
 31
0.0
 70
   160
 71
     5
 42
27.00000000000182
  3
INABA_S40G
100
AcDbAlignedDimension
 13
8609.153011747469
 23
4504.785350591379
 33
0.0
 14
8609.153011747467
 24
4531.785350591381
 34
0.0
 50
90.0
100
AcDbRotatedDimension
1001
ACAD
1000
DSTYLE
1002
{
1070
   279
1070
     2
1002
}
  0
DIMENSION
  5
1D580
330
747D
100
AcDbEntity
  8
寸法
 48
50.0
100
AcDbDimension
  2
*D41
 10
8896.696114069216
 20
4696.785350591381
 30
0.0
 11
8896.696114069214
 21
4935.270631965621
 31
0.0
 70
   160
 71
     5
 42
164.9999999999991
  3
INABA_S40G
100
AcDbAlignedDimension
 13
8609.153011747467
 23
4531.785350591381
 33
0.0
 14
8609.153011747469
 24
4696.785350591381
 34
0.0
 50
90.0
100
AcDbRotatedDimension
1001
ACAD
1000
DSTYLE
1002
{
1002
}
  0
ARC
  5
1D7E8
330
747D
100
AcDbEntity
  8
部品1
 48
0.01
100
AcDbCircle
 10
4137.153011747471
 20
4760.785350591377
 30
0.0
 40
2.0
100
AcDbArc
 50
0.0
 51
90.0
  0
ARC
  5
1D7E9
330
747D
100
AcDbEntity
  8
部品1
 48
0.01
100
AcDbCircle
 10
3961.153011747471
 20
4760.785350591377
 30
0.0
 40
2.0
100
AcDbArc
 50
90.0
 51
180.0
  0
LINE
  5
1D7EA
330
747D
100
AcDbEntity
  8
細線
100
AcDbLine
 10
4049.153011747466
 20
4733.285350591377
 30
0.0
 11
4123.15301174747
 21
4733.285350591377
 31
0.0
  0
LINE
  5
1D7EB
330
747D
100
AcDbEntity
  8
細線
100
AcDbLine
 10
4049.15301174747
 20
4756.285350591377
 30
0.0
 11
3975.153011747471
 21
4756.285350591377
 31
0.0
  0
LINE
  5
1D7EC
330
747D
100
AcDbEntity
  8
細線
100
AcDbLine
 10
3975.153011747471
 20
4733.285350591377
 30
0.0
 11
4049.15301174747
 21
4733.285350591377
 31
0.0
  0
LINE
  5
1D7ED
330
747D
100
AcDbEntity
  8
細線
100
AcDbLine
 10
4123.15301174747
 20
4756.285350591377
 30
0.0
 11
4049.15301174747
 21
4756.285350591377
 31
0.0
  0
LINE
  5
1D7EE
330
747D
100
AcDbEntity
  8
細線
100
AcDbLine
 10
4123.15301174747
 20
4733.285350591377
 30
0.0
 11
4123.15301174747
 21
4756.285350591377
 31
0.0
  0
LINE
  5
1D7EF
330
747D
100
AcDbEntity
  8
細線
100
AcDbLine
 10
3975.153011747471
 20
4756.285350591377
 30
0.0
 11
3975.153011747471
 21
4733.285350591377
 31
0.0
  0
LINE
  5
1D7F0
330
747D
100
AcDbEntity
  8
部品1
 48
0.01
100
AcDbLine
 10
4139.153011747466
 20
4729.285350591378
 30
0.0
 11
4139.153011747469
 21
4760.785350591377
 31
0.0
  0
LINE
  5
1D7F1
330
747D
100
AcDbEntity
  8
部品1
 48
0.01
100
AcDbLine
 10
3959.153011747471
 20
4760.785350591377
 30
0.0
 11
3959.153011747471
 21
4729.285350591378
 31
0.0
  0
LINE
  5
1D7F2
330
747D
100
AcDbEntity
  8
部品1
 48
0.01
100
AcDbLine
 10
4137.153011747471
 20
4762.785350591377
 30
0.0
 11
3961.153011747471
 21
4762.785350591377
 31
0.0
  0
LINE
  5
1D7F3
330
747D
100
AcDbEntity
  8
細線
100
AcDbLine
 10
3975.153011747471
 20
4750.285350591377
 30
0.0
 11
4049.15301174747
 21
4750.285350591377
 31
0.0
  0
LINE
  5
1D7F4
330
747D
100
AcDbEntity
  8
細線
100
AcDbLine
 10
3975.153011747471
 20
4744.285350591377
 30
0.0
 11
4049.15301174747
 21
4744.285350591377
 31
0.0
  0
LINE
  5
1D7F5
330
747D
100
AcDbEntity
  8
細線
100
AcDbLine
 10
3975.153011747467
 20
4738.285350591377
 30
0.0
 11
4049.15301174747
 21
4738.285350591377
 31
0.0
  0
LINE
  5
1D7F6
330
747D
100
AcDbEntity
  8
細線
100
AcDbLine
 10
3975.153011747471
 20
4750.285350591377
 30
0.0
 11
4044.153011747471
 21
4750.285350591377
 31
0.0
  0
LINE
  5
1D7F7
330
747D
100
AcDbEntity
  8
細線
100
AcDbLine
 10
4123.153011747467
 20
4750.285350591377
 30
0.0
 11
4049.15301174747
 21
4750.285350591377
 31
0.0
  0
LINE
  5
1D7F8
330
747D
100
AcDbEntity
  8
細線
100
AcDbLine
 10
4123.153011747467
 20
4738.285350591377
 30
0.0
 11
4049.15301174747
 21
4738.285350591377
 31
0.0
  0
LINE
  5
1D7F9
330
747D
100
AcDbEntity
  8
細線
100
AcDbLine
 10
4123.153011747467
 20
4744.285350591377
 30
0.0
 11
4049.15301174747
 21
4744.285350591377
 31
0.0
  0
LINE
  5
1D7FA
330
747D
100
AcDbEntity
  8
細線
100
AcDbLine
 10
4049.15301174747
 20
4756.285350591377
 30
0.0
 11
4049.153011747466
 21
4733.285350591377
 31
0.0
  0
LINE
  5
1D7FB
330
747D
100
AcDbEntity
  8
細線
100
AcDbLine
 10
5279.153011747471
 20
4756.285350591377
 30
0.0
 11
5279.153011747471
 21
4733.285350591377
 31
0.0
  0
LINE
  5
1D7FC
330
747D
100
AcDbEntity
  8
細線
100
AcDbLine
 10
5205.15301174747
 20
4744.285350591377
 30
0.0
 11
5279.153011747471
 21
4744.285350591377
 31
0.0
  0
LINE
  5
1D7FD
330
747D
100
AcDbEntity
  8
細線
100
AcDbLine
 10
5205.15301174747
 20
4738.285350591377
 30
0.0
 11
5279.153011747471
 21
4738.285350591377
 31
0.0
  0
LINE
  5
1D7FE
330
747D
100
AcDbEntity
  8
細線
100
AcDbLine
 10
5205.15301174747
 20
4750.285350591377
 30
0.0
 11
5279.153011747471
 21
4750.285350591377
 31
0.0
  0
LINE
  5
1D7FF
330
747D
100
AcDbEntity
  8
細線
100
AcDbLine
 10
5353.15301174747
 20
4750.285350591377
 30
0.0
 11
5284.15301174747
 21
4750.285350591377
 31
0.0
  0
LINE
  5
1D800
330
747D
100
AcDbEntity
  8
細線
100
AcDbLine
 10
5353.15301174747
 20
4738.285350591377
 30
0.0
 11
5279.153011747471
 21
4738.285350591377
 31
0.0
  0
LINE
  5
1D801
330
747D
100
AcDbEntity
  8
細線
100
AcDbLine
 10
5353.15301174747
 20
4744.285350591377
 30
0.0
 11
5279.153011747471
 21
4744.285350591377
 31
0.0
  0
LINE
  5
1D802
330
747D
100
AcDbEntity
  8
細線
100
AcDbLine
 10
5353.15301174747
 20
4750.285350591377
 30
0.0
 11
5279.153011747471
 21
4750.285350591377
 31
0.0
  0
LINE
  5
1D803
330
747D
100
AcDbEntity
  8
部品1
 48
0.01
100
AcDbLine
 10
5191.15301174747
 20
4762.785350591377
 30
0.0
 11
5367.15301174747
 21
4762.785350591377
 31
0.0
  0
LINE
  5
1D804
330
747D
100
AcDbEntity
  8
部品1
 48
0.01
100
AcDbLine
 10
5369.153011747471
 20
4760.785350591377
 30
0.0
 11
5369.153011747471
 21
4729.285350591378
 31
0.0
  0
LINE
  5
1D805
330
747D
100
AcDbEntity
  8
部品1
 48
0.01
100
AcDbLine
 10
5189.15301174747
 20
4729.285350591378
 30
0.0
 11
5189.15301174747
 21
4760.785350591377
 31
0.0
  0
LINE
  5
1D806
330
747D
100
AcDbEntity
  8
細線
100
AcDbLine
 10
5353.15301174747
 20
4756.285350591377
 30
0.0
 11
5353.15301174747
 21
4733.285350591377
 31
0.0
  0
LINE
  5
1D807
330
747D
100
AcDbEntity
  8
細線
100
AcDbLine
 10
5205.15301174747
 20
4733.285350591377
 30
0.0
 11
5205.15301174747
 21
4756.285350591377
 31
0.0
  0
LINE
  5
1D808
330
747D
100
AcDbEntity
  8
細線
100
AcDbLine
 10
5205.15301174747
 20
4756.285350591377
 30
0.0
 11
5279.153011747471
 21
4756.285350591377
 31
0.0
  0
LINE
  5
1D809
330
747D
100
AcDbEntity
  8
細線
100
AcDbLine
 10
5353.15301174747
 20
4733.285350591377
 30
0.0
 11
5279.153011747471
 21
4733.285350591377
 31
0.0
  0
LINE
  5
1D80A
330
747D
100
AcDbEntity
  8
細線
100
AcDbLine
 10
5279.153011747471
 20
4756.285350591377
 30
0.0
 11
5353.15301174747
 21
4756.285350591377
 31
0.0
  0
LINE
  5
1D80B
330
747D
100
AcDbEntity
  8
細線
100
AcDbLine
 10
5279.153011747471
 20
4733.285350591377
 30
0.0
 11
5205.15301174747
 21
4733.285350591377
 31
0.0
  0
ARC
  5
1D80C
330
747D
100
AcDbEntity
  8
部品1
 48
0.01
100
AcDbCircle
 10
5367.15301174747
 20
4760.785350591377
 30
0.0
 40
2.0
100
AcDbArc
 50
0.0
 51
90.0
  0
ARC
  5
1D80D
330
747D
100
AcDbEntity
  8
部品1
 48
0.01
100
AcDbCircle
 10
5191.15301174747
 20
4760.785350591377
 30
0.0
 40
2.0
100
AcDbArc
 50
90.0
 51
180.0
  0
ARC
  5
1D80E
330
747D
100
AcDbEntity
  8
部品1
 48
0.01
100
AcDbCircle
 10
4137.153011747467
 20
4729.285350591378
 30
0.0
 40
2.0
100
AcDbArc
 50
270.0
 51
0.0
  0
ARC
  5
1D80F
330
747D
100
AcDbEntity
  8
部品1
 48
0.01
100
AcDbCircle
 10
3961.153011747471
 20
4729.285350591378
 30
0.0
 40
2.0
100
AcDbArc
 50
180.0
 51
270.0
  0
LINE
  5
1D810
330
747D
100
AcDbEntity
  8
部品1
 48
0.01
100
AcDbLine
 10
3961.153011747471
 20
4727.285350591377
 30
0.0
 11
4137.153011747467
 21
4727.285350591377
 31
0.0
  0
LINE
  5
1D811
330
747D
100
AcDbEntity
  8
部品1
 48
0.01
100
AcDbLine
 10
5367.15301174747
 20
4727.285350591377
 30
0.0
 11
5191.15301174747
 21
4727.285350591377
 31
0.0
  0
ARC
  5
1D812
330
747D
100
AcDbEntity
  8
部品1
 48
0.01
100
AcDbCircle
 10
5367.15301174747
 20
4729.285350591378
 30
0.0
 40
2.0
100
AcDbArc
 50
270.0
 51
0.0
  0
ARC
  5
1D813
330
747D
100
AcDbEntity
  8
部品1
 48
0.01
100
AcDbCircle
 10
5191.15301174747
 20
4729.285350591378
 30
0.0
 40
2.0
100
AcDbArc
 50
180.0
 51
270.0
  0
ARC
  5
1D914
330
747D
100
AcDbEntity
  8
部品1
 48
0.01
100
AcDbCircle
 10
7821.153011747471
 20
4729.285350591381
 30
0.0
 40
2.0
100
AcDbArc
 50
180.0
 51
270.0
  0
ARC
  5
1D915
330
747D
100
AcDbEntity
  8
部品1
 48
0.01
100
AcDbCircle
 10
7997.15301174747
 20
4729.285350591381
 30
0.0
 40
2.0
100
AcDbArc
 50
270.0
 51
0.0
  0
LINE
  5
1D916
330
747D
100
AcDbEntity
  8
部品1
 48
0.01
100
AcDbLine
 10
7997.15301174747
 20
4727.28535059138
 30
0.0
 11
7821.153011747471
 21
4727.28535059138
 31
0.0
  0
LINE
  5
1D917
330
747D
100
AcDbEntity
  8
部品1
 48
0.01
100
AcDbLine
 10
6591.153011747471
 20
4727.28535059138
 30
0.0
 11
6767.153011747467
 21
4727.28535059138
 31
0.0
  0
ARC
  5
1D918
330
747D
100
AcDbEntity
  8
部品1
 48
0.01
100
AcDbCircle
 10
6591.153011747471
 20
4729.285350591381
 30
0.0
 40
2.0
100
AcDbArc
 50
180.0
 51
270.0
  0
ARC
  5
1D919
330
747D
100
AcDbEntity
  8
部品1
 48
0.01
100
AcDbCircle
 10
6767.153011747467
 20
4729.285350591381
 30
0.0
 40
2.0
100
AcDbArc
 50
270.0
 51
0.0
  0
ARC
  5
1D91A
330
747D
100
AcDbEntity
  8
部品1
 48
0.01
100
AcDbCircle
 10
7821.153011747471
 20
4760.785350591381
 30
0.0
 40
2.0
100
AcDbArc
 50
90.0
 51
180.0
  0
ARC
  5
1D91B
330
747D
100
AcDbEntity
  8
部品1
 48
0.01
100
AcDbCircle
 10
7997.15301174747
 20
4760.785350591381
 30
0.0
 40
2.0
100
AcDbArc
 50
0.0
 51
90.0
  0
LINE
  5
1D91C
330
747D
100
AcDbEntity
  8
細線
100
AcDbLine
 10
7909.15301174747
 20
4733.285350591381
 30
0.0
 11
7835.153011747471
 21
4733.285350591381
 31
0.0
  0
LINE
  5
1D91D
330
747D
100
AcDbEntity
  8
細線
100
AcDbLine
 10
7909.15301174747
 20
4756.28535059138
 30
0.0
 11
7983.15301174747
 21
4756.28535059138
 31
0.0
  0
LINE
  5
1D91E
330
747D
100
AcDbEntity
  8
細線
100
AcDbLine
 10
7983.15301174747
 20
4733.285350591381
 30
0.0
 11
7909.15301174747
 21
4733.285350591381
 31
0.0
  0
LINE
  5
1D91F
330
747D
100
AcDbEntity
  8
細線
100
AcDbLine
 10
7835.153011747471
 20
4756.28535059138
 30
0.0
 11
7909.15301174747
 21
4756.28535059138
 31
0.0
  0
LINE
  5
1D920
330
747D
100
AcDbEntity
  8
細線
100
AcDbLine
 10
7835.153011747471
 20
4733.285350591381
 30
0.0
 11
7835.153011747471
 21
4756.28535059138
 31
0.0
  0
LINE
  5
1D921
330
747D
100
AcDbEntity
  8
細線
100
AcDbLine
 10
7983.15301174747
 20
4756.28535059138
 30
0.0
 11
7983.15301174747
 21
4733.285350591381
 31
0.0
  0
LINE
  5
1D922
330
747D
100
AcDbEntity
  8
部品1
 48
0.01
100
AcDbLine
 10
7819.15301174747
 20
4729.285350591381
 30
0.0
 11
7819.15301174747
 21
4760.785350591381
 31
0.0
  0
LINE
  5
1D923
330
747D
100
AcDbEntity
  8
部品1
 48
0.01
100
AcDbLine
 10
7999.153011747471
 20
4760.785350591381
 30
0.0
 11
7999.153011747471
 21
4729.285350591381
 31
0.0
  0
LINE
  5
1D924
330
747D
100
AcDbEntity
  8
部品1
 48
0.01
100
AcDbLine
 10
7821.153011747471
 20
4762.785350591381
 30
0.0
 11
7997.15301174747
 21
4762.785350591381
 31
0.0
  0
LINE
  5
1D925
330
747D
100
AcDbEntity
  8
細線
100
AcDbLine
 10
7983.15301174747
 20
4750.285350591381
 30
0.0
 11
7909.15301174747
 21
4750.285350591381
 31
0.0
  0
LINE
  5
1D926
330
747D
100
AcDbEntity
  8
細線
100
AcDbLine
 10
7983.15301174747
 20
4744.285350591381
 30
0.0
 11
7909.15301174747
 21
4744.285350591381
 31
0.0
  0
LINE
  5
1D927
330
747D
100
AcDbEntity
  8
細線
100
AcDbLine
 10
7983.15301174747
 20
4738.285350591381
 30
0.0
 11
7909.15301174747
 21
4738.285350591381
 31
0.0
  0
LINE
  5
1D928
330
747D
100
AcDbEntity
  8
細線
100
AcDbLine
 10
7983.15301174747
 20
4750.285350591381
 30
0.0
 11
7914.15301174747
 21
4750.285350591381
 31
0.0
  0
LINE
  5
1D929
330
747D
100
AcDbEntity
  8
細線
100
AcDbLine
 10
7835.153011747471
 20
4750.285350591381
 30
0.0
 11
7909.15301174747
 21
4750.285350591381
 31
0.0
  0
LINE
  5
1D92A
330
747D
100
AcDbEntity
  8
細線
100
AcDbLine
 10
7835.153011747471
 20
4738.285350591381
 30
0.0
 11
7909.15301174747
 21
4738.285350591381
 31
0.0
  0
LINE
  5
1D92B
330
747D
100
AcDbEntity
  8
細線
100
AcDbLine
 10
7835.153011747471
 20
4744.285350591381
 30
0.0
 11
7909.15301174747
 21
4744.285350591381
 31
0.0
  0
LINE
  5
1D92C
330
747D
100
AcDbEntity
  8
細線
100
AcDbLine
 10
7909.15301174747
 20
4756.28535059138
 30
0.0
 11
7909.15301174747
 21
4733.285350591381
 31
0.0
  0
LINE
  5
1D92D
330
747D
100
AcDbEntity
  8
細線
100
AcDbLine
 10
6679.15301174747
 20
4756.28535059138
 30
0.0
 11
6679.153011747466
 21
4733.285350591381
 31
0.0
  0
LINE
  5
1D92E
330
747D
100
AcDbEntity
  8
細線
100
AcDbLine
 10
6753.153011747468
 20
4744.285350591381
 30
0.0
 11
6679.15301174747
 21
4744.285350591381
 31
0.0
  0
LINE
  5
1D92F
330
747D
100
AcDbEntity
  8
細線
100
AcDbLine
 10
6753.153011747468
 20
4738.285350591381
 30
0.0
 11
6679.15301174747
 21
4738.285350591381
 31
0.0
  0
LINE
  5
1D930
330
747D
100
AcDbEntity
  8
細線
100
AcDbLine
 10
6753.153011747468
 20
4750.285350591381
 30
0.0
 11
6679.15301174747
 21
4750.285350591381
 31
0.0
  0
LINE
  5
1D931
330
747D
100
AcDbEntity
  8
細線
100
AcDbLine
 10
6605.15301174747
 20
4750.285350591381
 30
0.0
 11
6674.15301174747
 21
4750.285350591381
 31
0.0
  0
LINE
  5
1D932
330
747D
100
AcDbEntity
  8
細線
100
AcDbLine
 10
6605.153011747467
 20
4738.285350591381
 30
0.0
 11
6679.15301174747
 21
4738.285350591381
 31
0.0
  0
LINE
  5
1D933
330
747D
100
AcDbEntity
  8
細線
100
AcDbLine
 10
6605.15301174747
 20
4744.285350591381
 30
0.0
 11
6679.15301174747
 21
4744.285350591381
 31
0.0
  0
LINE
  5
1D934
330
747D
100
AcDbEntity
  8
細線
100
AcDbLine
 10
6605.15301174747
 20
4750.285350591381
 30
0.0
 11
6679.15301174747
 21
4750.285350591381
 31
0.0
  0
LINE
  5
1D935
330
747D
100
AcDbEntity
  8
部品1
 48
0.01
100
AcDbLine
 10
6767.15301174747
 20
4762.785350591381
 30
0.0
 11
6591.153011747471
 21
4762.785350591381
 31
0.0
  0
LINE
  5
1D936
330
747D
100
AcDbEntity
  8
部品1
 48
0.01
100
AcDbLine
 10
6589.15301174747
 20
4760.785350591381
 30
0.0
 11
6589.15301174747
 21
4729.285350591381
 31
0.0
  0
LINE
  5
1D937
330
747D
100
AcDbEntity
  8
部品1
 48
0.01
100
AcDbLine
 10
6769.153011747467
 20
4729.285350591381
 30
0.0
 11
6769.153011747469
 21
4760.785350591381
 31
0.0
  0
LINE
  5
1D938
330
747D
100
AcDbEntity
  8
細線
100
AcDbLine
 10
6605.15301174747
 20
4756.28535059138
 30
0.0
 11
6605.15301174747
 21
4733.285350591381
 31
0.0
  0
LINE
  5
1D939
330
747D
100
AcDbEntity
  8
細線
100
AcDbLine
 10
6753.15301174747
 20
4733.285350591381
 30
0.0
 11
6753.15301174747
 21
4756.28535059138
 31
0.0
  0
LINE
  5
1D93A
330
747D
100
AcDbEntity
  8
細線
100
AcDbLine
 10
6753.15301174747
 20
4756.28535059138
 30
0.0
 11
6679.15301174747
 21
4756.28535059138
 31
0.0
  0
LINE
  5
1D93B
330
747D
100
AcDbEntity
  8
細線
100
AcDbLine
 10
6605.15301174747
 20
4733.285350591381
 30
0.0
 11
6679.15301174747
 21
4733.285350591381
 31
0.0
  0
LINE
  5
1D93C
330
747D
100
AcDbEntity
  8
細線
100
AcDbLine
 10
6679.15301174747
 20
4756.28535059138
 30
0.0
 11
6605.15301174747
 21
4756.28535059138
 31
0.0
  0
LINE
  5
1D93D
330
747D
100
AcDbEntity
  8
細線
100
AcDbLine
 10
6679.153011747466
 20
4733.285350591381
 30
0.0
 11
6753.15301174747
 21
4733.285350591381
 31
0.0
  0
ARC
  5
1D93E
330
747D
100
AcDbEntity
  8
部品1
 48
0.01
100
AcDbCircle
 10
6591.153011747471
 20
4760.785350591381
 30
0.0
 40
2.0
100
AcDbArc
 50
90.0
 51
180.0
  0
ARC
  5
1D93F
330
747D
100
AcDbEntity
  8
部品1
 48
0.01
100
AcDbCircle
 10
6767.15301174747
 20
4760.785350591381
 30
0.0
 40
2.0
100
AcDbArc
 50
0.0
 51
90.0
  0
DIMENSION
  5
1D9CA
102
{ACAD_REACTORS
330
1D9E6
102
}
330
747D
100
AcDbEntity
  8
寸法
 48
50.0
100
AcDbDimension
  2
*D42
 10
6315.994372008073
 20
9405.367814055905
 30
0.0
 11
6315.994372008072
 21
9137.329952020161
 31
0.0
 70
   160
 71
     5
 42
716.5000035771754
  3
INABA_S40G
100
AcDbAlignedDimension
 13
6004.153011747235
 23
8688.867810478729
 33
0.0
 14
6034.15301174747
 24
9405.367814055905
 34
0.0
 50
90.0
100
AcDbRotatedDimension
1001
ACAD
1000
DSTYLE
1002
{
1070
   174
1070
     0
1070
   272
1070
     1
1070
   341
1005
0
1002
}
  0
LINE
  5
1D9CB
102
{ACAD_REACTORS
330
1D9E6
102
}
330
747D
100
AcDbEntity
  8
部品1
 48
50.0
100
AcDbLine
 10
5954.153011747235
 20
9350.367810478728
 30
0.0
 11
5954.153011747235
 21
8688.867810478729
 31
0.0
  0
LINE
  5
1D9CC
102
{ACAD_REACTORS
330
1D9E6
102
}
330
747D
100
AcDbEntity
  8
部品1
 48
50.0
100
AcDbLine
 10
5954.153011747235
 20
8688.867810478729
 30
0.0
 11
6004.153011747235
 21
8688.867810478729
 31
0.0
  0
LINE
  5
1D9CD
102
{ACAD_REACTORS
330
1D9E6
102
}
330
747D
100
AcDbEntity
  8
部品1
 48
50.0
100
AcDbLine
 10
6004.153011747235
 20
8688.867810478729
 30
0.0
 11
6004.153011747235
 21
9350.367810478728
 31
0.0
  0
LINE
  5
1D9CE
102
{ACAD_REACTORS
330
1D9E6
102
}
330
747D
100
AcDbEntity
  8
部品1
100
AcDbLine
 10
6004.153011747235
 20
8966.043793915584
 30
0.0
 11
5954.153011747234
 21
8960.867810478729
 31
0.0
  0
LINE
  5
1D9CF
102
{ACAD_REACTORS
330
1D9E6
102
}
330
747D
100
AcDbEntity
  8
部品1
100
AcDbLine
 10
6004.153011747235
 20
8925.691827041875
 30
0.0
 11
5954.153011747234
 21
8930.867810478728
 31
0.0
  0
LINE
  5
1D9D0
102
{ACAD_REACTORS
330
1D9E6
102
}
330
747D
100
AcDbEntity
  8
部品1
100
AcDbLine
 10
5954.153011747235
 20
8770.867810478728
 30
0.0
 11
6004.153011747234
 21
8783.579674885507
 31
0.0
  0
TEXT
  5
1DA27
330
747D
100
AcDbEntity
  8
文字
 62
     7
 48
50.0
100
AcDbText
 10
15022.63965474517
 20
9740.013745883723
 30
0.0
 40
100.0
  1
F12            2.3
  7
STYLE1
100
AcDbText
  0
TEXT
  5
1DA28
330
747D
100
AcDbEntity
  8
文字
 62
     7
 48
50.0
100
AcDbText
 10
13248.77747366448
 20
8210.013745883733
 30
0.0
 40
100.0
  1
17
  7
STYLE1
100
AcDbText
  0
TEXT
  5
1DA29
330
747D
100
AcDbEntity
  8
文字
 62
     7
 48
50.0
100
AcDbText
 10
13583.11819016569
 20
9230.013745883729
 30
0.0
 40
100.0
  1
梁中補強パネル
  7
STYLE1
100
AcDbText
  0
TEXT
  5
1DA2A
330
747D
100
AcDbEntity
  8
文字
 62
     7
 48
50.0
100
AcDbText
 10
15022.63965474516
 20
9230.013745883725
 30
0.0
 40
100.0
  1
F12         0.7+1.2
  7
STYLE1
100
AcDbText
  0
TEXT
  5
1DA4D
330
747D
100
AcDbEntity
  8
文字
 62
     7
 48
50.0
100
AcDbText
 10
14646.46056207479
 20
871.9640646083623
 30
0.0
 40
100.0
  1
～多雪地型～
  7
STYLE2
100
AcDbText
  0
TEXT
  5
1DA69
330
747D
100
AcDbEntity
  8
文字
 62
     7
 48
50.0
100
AcDbText
 10
15022.63965474516
 20
8890.013745883727
 30
0.0
 40
100.0
  1
F12            0.7
  7
STYLE1
100
AcDbText
  0
LINE
  5
1DAB6
330
747D
100
AcDbEntity
  8
破線
 48
5.0
100
AcDbLine
 10
5979.153011747468
 20
2281.785350591382
 30
0.0
 11
5979.153011747468
 21
2206.785350591383
 31
0.0
  0
LINE
  5
1DAB7
330
747D
100
AcDbEntity
  8
破線
  6
HIDDEN
 48
5.0
100
AcDbLine
 10
6034.153011747469
 20
2456.785350591383
 30
0.0
 11
6034.153011747467
 21
2281.785350591382
 31
0.0
  0
LINE
  5
1DAB8
330
747D
100
AcDbEntity
  8
破線
  6
HIDDEN
 48
5.0
100
AcDbLine
 10
6034.153011747466
 20
2281.785350591382
 30
0.0
 11
5924.153011747469
 21
2281.785350591382
 31
0.0
  0
LINE
  5
1DAB9
330
747D
100
AcDbEntity
  8
破線
  6
HIDDEN
 48
5.0
100
AcDbLine
 10
5924.153011747469
 20
2456.785350591383
 30
0.0
 11
5924.15301174747
 21
2281.785350591382
 31
0.0
  0
ENDSEC
  0
SECTION
  2
OBJECTS
  0
DICTIONARY
  5
7471
330
0
100
AcDbDictionary
281
     1
  3
ACAD_COLOR
350
1A505
  3
ACAD_GROUP
350
7472
  3
ACAD_LAYOUT
350
1A506
  3
ACAD_MATERIAL
350
1A504
  3
ACAD_MLINESTYLE
350
7473
  3
ACAD_PLOTSETTINGS
350
1A507
  3
ACAD_PLOTSTYLENAME
350
1A502
  3
ACDBHEADERROUNDTRIPXREC
350
1DAE5
  3
AcDbVariableDictionary
350
1DAE1
  3
CONTENTDICTIONARY
350
E71C
  3
DRAWINGVARIABLESDICT
350
F3B9
  0
DICTIONARY
  5
1AB31
330
7467
100
AcDbDictionary
280
     1
281
     1
  3
ACAD_LAYERSTATES
360
1AB32
  0
DICTIONARY
  5
1A505
102
{ACAD_REACTORS
330
7471
102
}
330
7471
100
AcDbDictionary
281
     1
  0
DICTIONARY
  5
7472
102
{ACAD_REACTORS
330
7471
102
}
330
7471
100
AcDbDictionary
281
     1
  3
*A1
350
1D9E6
  0
DICTIONARY
  5
1A506
102
{ACAD_REACTORS
330
7471
102
}
330
7471
100
AcDbDictionary
281
     1
  3
Model
350
1A508
  3
レイアウト1
350
1A509
  0
DICTIONARY
  5
1A504
102
{ACAD_REACTORS
330
7471
102
}
330
7471
100
AcDbDictionary
281
     1
  0
DICTIONARY
  5
7473
102
{ACAD_REACTORS
330
7471
102
}
330
7471
100
AcDbDictionary
281
     1
  3
STANDARD
350
7480
  0
DICTIONARY
  5
1A507
102
{ACAD_REACTORS
330
7471
102
}
330
7471
100
AcDbDictionary
281
     1
  0
ACDBDICTIONARYWDFLT
  5
1A502
102
{ACAD_REACTORS
330
7471
102
}
330
7471
100
AcDbDictionary
281
     1
  3
Normal
350
1A503
100
AcDbDictionaryWithDefault
340
1A503
  0
DICTIONARY
  5
1DAE5
102
{ACAD_REACTORS
330
7471
102
}
330
7471
100
AcDbDictionary
281
     1
  3
COLORDICT
350
1DAE7
  3
MATERIALDICT
350
1DAE6
  0
DICTIONARY
  5
1DAE1
102
{ACAD_REACTORS
330
7471
102
}
330
7471
100
AcDbDictionary
281
     1
  3
DIMASSOC
350
1DAE2
  3
PROJECTNAME
350
1DAE3
  0
DICTIONARY
  5
E71C
102
{ACAD_REACTORS
330
7471
102
}
330
7471
100
AcDbDictionary
281
     1
  0
DICTIONARY
  5
F3B9
102
{ACAD_REACTORS
330
7471
102
}
330
7471
100
AcDbDictionary
281
     1
1001
DRAWINGVARIABLESXDATA
1000
POLARMODE
1000
1
  0
DICTIONARY
  5
1AB32
102
{ACAD_REACTORS
330
1AB31
102
}
330
1AB31
100
AcDbDictionary
281
     1
  0
GROUP
  5
1D9E6
102
{ACAD_REACTORS
330
7472
102
}
330
7472
100
AcDbGroup
300

 70
     1
 71
     1
340
1D9D0
340
1D9CF
340
1D9CE
340
1D9CD
340
1D9CC
340
1D9CB
340
1D9CA
  0
LAYOUT
  5
1A508
102
{ACAD_XDICTIONARY
360
1DAE8
102
}
102
{ACAD_REACTORS
330
1A506
102
}
330
1A506
100
AcDbPlotSettings
  1

  2
none_device
  4
Letter_(8.50_x_11.00_Inches)
  6

 40
6.349999904632568
 41
6.349999904632568
 42
6.350006103515625
 43
6.350006103515625
 44
215.8999938964844
 45
279.3999938964844
 46
0.0
 47
0.0
 48
0.0
 49
0.0
140
0.0
141
0.0
142
1.0
143
1.0
 70
 11952
 72
     1
 73
     1
 74
     0
  7
inaba.ctb
 75
     0
147
1.0
148
-2464.692037279003
149
54.36659085389965
100
AcDbLayout
  1
Model
 70
     1
 71
     0
 10
0.0
 20
0.0
 11
12.0
 21
9.0
 12
0.0
 22
0.0
 32
0.0
 14
0.0
 24
0.0
 34
0.0
 15
0.0
 25
0.0
 35
0.0
146
0.0
 13
0.0
 23
0.0
 33
0.0
 16
1.0
 26
0.0
 36
0.0
 17
0.0
 27
1.0
 37
0.0
 76
     0
330
747D
  0
LAYOUT
  5
1A509
102
{ACAD_XDICTIONARY
360
1DAEA
102
}
102
{ACAD_REACTORS
330
1A506
102
}
330
1A506
100
AcDbPlotSettings
  1

  2
EPSON LP-8300
  4

  6

 40
0.0
 41
0.0
 42
0.0
 43
0.0
 44
0.0
 45
0.0
 46
0.0
 47
0.0
 48
0.0
 49
0.0
140
0.0
141
0.0
142
1.0
143
1.0
 70
   688
 72
     0
 73
     0
 74
     5
  7
inaba.ctb
 75
    16
147
1.0
148
0.0
149
0.0
100
AcDbLayout
  1
レイアウト1
 70
     0
 71
     1
 10
0.0
 20
0.0
 11
420.0
 21
297.0
 12
0.0
 22
0.0
 32
0.0
 14
1.000000000000000E+20
 24
1.000000000000000E+20
 34
1.000000000000000E+20
 15
-1.000000000000000E+20
 25
-1.000000000000000E+20
 35
-1.000000000000000E+20
146
0.0
 13
0.0
 23
0.0
 33
0.0
 16
1.0
 26
0.0
 36
0.0
 17
0.0
 27
1.0
 37
0.0
 76
     0
330
747A
  0
MLINESTYLE
  5
7480
102
{ACAD_REACTORS
330
7473
102
}
330
7473
100
AcDbMlineStyle
  2
STANDARD
 70
     0
  3

 62
     0
 51
90.0
 52
90.0
 71
     2
 49
0.5
 62
   256
  6
BYLAYER
 49
-0.5
 62
   256
  6
BYLAYER
  0
ACDBPLACEHOLDER
  5
1A503
102
{ACAD_REACTORS
330
1A502
102
}
330
1A502
  0
XRECORD
  5
1DAE7
102
{ACAD_REACTORS
330
1DAE5
102
}
330
1DAE5
100
AcDbXrecord
280
     1
340
1A505
  0
XRECORD
  5
1DAE6
102
{ACAD_REACTORS
330
1DAE5
102
}
330
1DAE5
100
AcDbXrecord
280
     1
340
1A504
  0
DICTIONARYVAR
  5
1DAE2
102
{ACAD_REACTORS
330
1DAE1
102
}
330
1DAE1
100
DictionaryVariables
280
     0
  1
1
  0
DICTIONARYVAR
  5
1DAE3
102
{ACAD_REACTORS
330
1DAE1
102
}
330
1DAE1
100
DictionaryVariables
280
     0
  1

  0
DICTIONARY
  5
1DAE8
330
1A508
100
AcDbDictionary
280
     1
281
     1
  3
ACAD_XREC_ROUNDTRIP
360
1DAE9
  0
DICTIONARY
  5
1DAEA
330
1A509
100
AcDbDictionary
280
     1
281
     1
  3
ACAD_XREC_ROUNDTRIP
360
1DAEB
  0
XRECORD
  5
1DAE9
102
{ACAD_REACTORS
330
1DAE8
102
}
330
1DAE8
100
AcDbXrecord
280
     1
102
SHADEPLOT
 70
     0
102
SHADEPLOTRESLEVEL
 70
     2
102
SHADEPLOTCUSTOMDPI
 70
   300
  0
XRECORD
  5
1DAEB
102
{ACAD_REACTORS
330
1DAEA
102
}
330
1DAEA
100
AcDbXrecord
280
     1
102
SHADEPLOT
 70
     0
102
SHADEPLOTRESLEVEL
 70
     2
102
SHADEPLOTCUSTOMDPI
 70
   300
  0
ENDSEC
  0
EOF
