  0
SECTION
  2
HEADER
  9
$ACADVER
  1
AC1015
  9
$ACADMAINTVER
 70
    20
  9
$DWGCODEPAGE
  3
ANSI_932
  9
$INSBASE
 10
0.0
 20
0.0
 30
0.0
  9
$EXTMIN
 10
139.9999999999995
 20
-0.0000000000000909
 30
0.0
  9
$EXTMAX
 10
16307.2
 20
11409.6
 30
0.0
  9
$LIMMIN
 10
0.0
 20
0.0
  9
$LIMMAX
 10
16800.0
 20
11880.0
  9
$ORTHOMODE
 70
     0
  9
$REGENMODE
 70
     1
  9
$FILLMODE
 70
     1
  9
$QTEXTMODE
 70
     0
  9
$MIRRTEXT
 70
     1
  9
$LTSCALE
 40
20.0
  9
$ATTMODE
 70
     1
  9
$TEXTSIZE
 40
100.0
  9
$TRACEWID
 40
1.0
  9
$TEXTSTYLE
  7
STYLE2
  9
$CLAYER
  8
部品1
  9
$CELTYPE
  6
BYLAYER
  9
$CECOLOR
 62
   256
  9
$CELTSCALE
 40
50.0
  9
$DISPSILH
 70
     0
  9
$DIMSCALE
 40
40.0
  9
$DIMASZ
 40
2.5
  9
$DIMEXO
 40
0.5
  9
$DIMDLI
 40
7.0
  9
$DIMRND
 40
0.0
  9
$DIMDLE
 40
0.0
  9
$DIMEXE
 40
1.5
  9
$DIMTP
 40
0.0
  9
$DIMTM
 40
0.0
  9
$DIMTXT
 40
3.0
  9
$DIMCEN
 40
0.0
  9
$DIMTSZ
 40
0.0
  9
$DIMTOL
 70
     0
  9
$DIMLIM
 70
     0
  9
$DIMTIH
 70
     0
  9
$DIMTOH
 70
     0
  9
$DIMSE1
 70
     0
  9
$DIMSE2
 70
     0
  9
$DIMTAD
 70
     3
  9
$DIMZIN
 70
     8
  9
$DIMBLK
  1

  9
$DIMASO
 70
     1
  9
$DIMSHO
 70
     1
  9
$DIMPOST
  1

  9
$DIMAPOST
  1

  9
$DIMALT
 70
     0
  9
$DIMALTD
 70
     2
  9
$DIMALTF
 40
0.0394
  9
$DIMLFAC
 40
1.0
  9
$DIMTOFL
 70
     1
  9
$DIMTVP
 40
0.0
  9
$DIMTIX
 70
     1
  9
$DIMSOXD
 70
     0
  9
$DIMSAH
 70
     1
  9
$DIMBLK1
  1
DOTSMALL
  9
$DIMBLK2
  1
DOTSMALL
  9
$DIMSTYLE
  2
INABA_S40G
  9
$DIMCLRD
 70
     0
  9
$DIMCLRE
 70
     0
  9
$DIMCLRT
 70
     7
  9
$DIMTFAC
 40
1.0
  9
$DIMGAP
 40
1.0
  9
$DIMJUST
 70
     0
  9
$DIMSD1
 70
     0
  9
$DIMSD2
 70
     0
  9
$DIMTOLJ
 70
     1
  9
$DIMTZIN
 70
     0
  9
$DIMALTZ
 70
     0
  9
$DIMALTTZ
 70
     0
  9
$DIMUPT
 70
     0
  9
$DIMDEC
 70
     1
  9
$DIMTDEC
 70
     4
  9
$DIMALTU
 70
     2
  9
$DIMALTTD
 70
     2
  9
$DIMTXSTY
  7
STYLE1
  9
$DIMAUNIT
 70
     0
  9
$DIMADEC
 70
     0
  9
$DIMALTRND
 40
0.0
  9
$DIMAZIN
 70
     0
  9
$DIMDSEP
 70
    46
  9
$DIMATFIT
 70
     3
  9
$DIMFRAC
 70
     0
  9
$DIMLDRBLK
  1

  9
$DIMLUNIT
 70
     2
  9
$DIMLWD
 70
    -2
  9
$DIMLWE
 70
    -2
  9
$DIMTMOVE
 70
     0
  9
$LUNITS
 70
     2
  9
$LUPREC
 70
     1
  9
$SKETCHINC
 40
1.0
  9
$FILLETRAD
 40
3.0
  9
$AUNITS
 70
     0
  9
$AUPREC
 70
     0
  9
$MENU
  1
acad
  9
$ELEVATION
 40
0.0
  9
$PELEVATION
 40
0.0
  9
$THICKNESS
 40
0.0
  9
$LIMCHECK
 70
     0
  9
$CHAMFERA
 40
0.0
  9
$CHAMFERB
 40
0.0
  9
$CHAMFERC
 40
0.0
  9
$CHAMFERD
 40
0.0
  9
$SKPOLY
 70
     0
  9
$TDCREATE
 40
2451368.612993866
  9
$TDUCREATE
 40
2451368.237993866
  9
$TDUPDATE
 40
2455569.612421875
  9
$TDUUPDATE
 40
2455569.237421875
  9
$TDINDWG
 40
0.7833306829
  9
$TDUSRTIMER
 40
0.7833306829
  9
$USRTIMER
 70
     1
  9
$ANGBASE
 50
0.0
  9
$ANGDIR
 70
     0
  9
$PDMODE
 70
     3
  9
$PDSIZE
 40
2.0
  9
$PLINEWID
 40
0.0
  9
$SPLFRAME
 70
     0
  9
$SPLINETYPE
 70
     6
  9
$SPLINESEGS
 70
     8
  9
$HANDSEED
  5
1910A
  9
$SURFTAB1
 70
     6
  9
$SURFTAB2
 70
     6
  9
$SURFTYPE
 70
     6
  9
$SURFU
 70
     6
  9
$SURFV
 70
     6
  9
$UCSBASE
  2

  9
$UCSNAME
  2

  9
$UCSORG
 10
0.0
 20
0.0
 30
0.0
  9
$UCSXDIR
 10
1.0
 20
0.0
 30
0.0
  9
$UCSYDIR
 10
0.0
 20
1.0
 30
0.0
  9
$UCSORTHOREF
  2

  9
$UCSORTHOVIEW
 70
     0
  9
$UCSORGTOP
 10
0.0
 20
0.0
 30
0.0
  9
$UCSORGBOTTOM
 10
0.0
 20
0.0
 30
0.0
  9
$UCSORGLEFT
 10
0.0
 20
0.0
 30
0.0
  9
$UCSORGRIGHT
 10
0.0
 20
0.0
 30
0.0
  9
$UCSORGFRONT
 10
0.0
 20
0.0
 30
0.0
  9
$UCSORGBACK
 10
0.0
 20
0.0
 30
0.0
  9
$PUCSBASE
  2

  9
$PUCSNAME
  2

  9
$PUCSORG
 10
0.0
 20
0.0
 30
0.0
  9
$PUCSXDIR
 10
1.0
 20
0.0
 30
0.0
  9
$PUCSYDIR
 10
0.0
 20
1.0
 30
0.0
  9
$PUCSORTHOREF
  2

  9
$PUCSORTHOVIEW
 70
     0
  9
$PUCSORGTOP
 10
0.0
 20
0.0
 30
0.0
  9
$PUCSORGBOTTOM
 10
0.0
 20
0.0
 30
0.0
  9
$PUCSORGLEFT
 10
0.0
 20
0.0
 30
0.0
  9
$PUCSORGRIGHT
 10
0.0
 20
0.0
 30
0.0
  9
$PUCSORGFRONT
 10
0.0
 20
0.0
 30
0.0
  9
$PUCSORGBACK
 10
0.0
 20
0.0
 30
0.0
  9
$USERI1
 70
     0
  9
$USERI2
 70
     0
  9
$USERI3
 70
     0
  9
$USERI4
 70
     0
  9
$USERI5
 70
     0
  9
$USERR1
 40
0.0
  9
$USERR2
 40
0.0
  9
$USERR3
 40
0.0
  9
$USERR4
 40
0.0
  9
$USERR5
 40
0.0
  9
$WORLDVIEW
 70
     1
  9
$SHADEDGE
 70
     3
  9
$SHADEDIF
 70
    70
  9
$TILEMODE
 70
     1
  9
$MAXACTVP
 70
    16
  9
$PINSBASE
 10
0.0
 20
0.0
 30
0.0
  9
$PLIMCHECK
 70
     0
  9
$PEXTMIN
 10
1.000000000000000E+20
 20
1.000000000000000E+20
 30
1.000000000000000E+20
  9
$PEXTMAX
 10
-1.000000000000000E+20
 20
-1.000000000000000E+20
 30
-1.000000000000000E+20
  9
$PLIMMIN
 10
0.0
 20
0.0
  9
$PLIMMAX
 10
420.0
 20
297.0
  9
$UNITMODE
 70
     0
  9
$VISRETAIN
 70
     0
  9
$PLINEGEN
 70
     0
  9
$PSLTSCALE
 70
     0
  9
$TREEDEPTH
 70
  3020
  9
$CMLSTYLE
  2
STANDARD
  9
$CMLJUST
 70
     0
  9
$CMLSCALE
 40
1.0
  9
$PROXYGRAPHICS
 70
     1
  9
$MEASUREMENT
 70
     1
  9
$CELWEIGHT
370
    -1
  9
$ENDCAPS
280
     0
  9
$JOINSTYLE
280
     0
  9
$LWDISPLAY
290
     0
  9
$INSUNITS
 70
     0
  9
$HYPERLINKBASE
  1

  9
$STYLESHEET
  1
inaba.ctb
  9
$XEDIT
290
     1
  9
$CEPSNTYPE
380
     0
  9
$PSTYLEMODE
290
     1
  9
$FINGERPRINTGUID
  2
{2CFE8E11-AC7B-449E-BCBD-A3EB520A8D8A}
  9
$VERSIONGUID
  2
{73AC74F3-F687-48EF-876B-D0C40F20CE57}
  9
$EXTNAMES
290
     1
  9
$PSVPSCALE
 40
0.0
  9
$OLESTARTUP
290
     0
  0
ENDSEC
  0
SECTION
  2
CLASSES
  0
CLASS
  1
ACDBDICTIONARYWDFLT
  2
AcDbDictionaryWithDefault
  3
ObjectDBX Classes
 90
        0
280
     0
281
     0
  0
CLASS
  1
DICTIONARYVAR
  2
AcDbDictionaryVar
  3
ObjectDBX Classes
 90
        0
280
     0
281
     0
  0
CLASS
  1
ACDBPLACEHOLDER
  2
AcDbPlaceHolder
  3
ObjectDBX Classes
 90
        0
280
     0
281
     0
  0
CLASS
  1
LAYOUT
  2
AcDbLayout
  3
ObjectDBX Classes
 90
        0
280
     0
281
     0
  0
ENDSEC
  0
SECTION
  2
TABLES
  0
TABLE
  2
VPORT
  5
746D
330
0
100
AcDbSymbolTable
 70
     2
  0
VPORT
  5
19102
330
746D
100
AcDbSymbolTableRecord
100
AcDbViewportTableRecord
  2
*Active
 70
     0
 10
0.0
 20
0.0
 11
1.0
 21
1.0
 12
8223.761025238502
 22
5958.64559657468
 13
0.0
 23
0.0
 14
10.0
 24
10.0
 15
10.0
 25
10.0
 16
0.0
 26
0.0
 36
1.0
 17
0.0
 27
0.0
 37
0.0
 40
12026.02437485716
 41
1.627450980392156
 42
50.0
 43
0.0
 44
0.0
 50
0.0
 51
0.0
 71
     0
 72
     0
 73
     1
 74
     0
 75
     0
 76
     0
 77
     0
 78
     0
281
     0
 65
     1
110
0.0
120
0.0
130
0.0
111
1.0
121
0.0
131
0.0
112
0.0
122
1.0
132
0.0
 79
     0
146
0.0
  0
ENDTAB
  0
TABLE
  2
LTYPE
  5
746A
330
0
100
AcDbSymbolTable
 70
     3
  0
LTYPE
  5
7477
330
746A
100
AcDbSymbolTableRecord
100
AcDbLinetypeTableRecord
  2
BYBLOCK
 70
     0
  3

 72
    65
 73
     0
 40
0.0
  0
LTYPE
  5
7478
330
746A
100
AcDbSymbolTableRecord
100
AcDbLinetypeTableRecord
  2
BYLAYER
 70
     0
  3

 72
    65
 73
     0
 40
0.0
  0
LTYPE
  5
7479
330
746A
100
AcDbSymbolTableRecord
100
AcDbLinetypeTableRecord
  2
CONTINUOUS
 70
     0
  3
Solid line
 72
    65
 73
     0
 40
0.0
  0
LTYPE
  5
781A
330
746A
100
AcDbSymbolTableRecord
100
AcDbLinetypeTableRecord
  2
HIDDEN
 70
     0
  3
__ __ __ __ __ __ __ __ __ __ __ __ __ __ __ __
 72
    65
 73
     2
 40
0.375
 49
0.25
 74
     0
 49
-0.125
 74
     0
  0
LTYPE
  5
781B
330
746A
100
AcDbSymbolTableRecord
100
AcDbLinetypeTableRecord
  2
PHANTOM
 70
     0
  3
______  __  __  ______  __  __  ______  __  __ 
 72
    65
 73
     6
 40
2.5
 49
1.25
 74
     0
 49
-0.25
 74
     0
 49
0.25
 74
     0
 49
-0.25
 74
     0
 49
0.25
 74
     0
 49
-0.25
 74
     0
  0
ENDTAB
  0
TABLE
  2
LAYER
  5
7467
102
{ACAD_XDICTIONARY
360
16A3E
102
}
330
0
100
AcDbSymbolTable
 70
    10
  0
LAYER
  5
7474
330
7467
100
AcDbSymbolTableRecord
100
AcDbLayerTableRecord
  2
0
 70
     0
 62
     7
  6
CONTINUOUS
370
    -3
390
167CC
  0
LAYER
  5
DEB3
330
7467
100
AcDbSymbolTableRecord
100
AcDbLayerTableRecord
  2
寸法
 70
     0
 62
     4
  6
CONTINUOUS
370
    -3
390
167CC
  0
LAYER
  5
DEB4
330
7467
100
AcDbSymbolTableRecord
100
AcDbLayerTableRecord
  2
部品1
 70
     0
 62
     7
  6
CONTINUOUS
370
    -3
390
167CC
  0
LAYER
  5
DEB5
330
7467
100
AcDbSymbolTableRecord
100
AcDbLayerTableRecord
  2
補助
 70
     0
 62
    -1
  6
CONTINUOUS
370
    -3
390
167CC
  0
LAYER
  5
DEB6
330
7467
100
AcDbSymbolTableRecord
100
AcDbLayerTableRecord
  2
文字
 70
     0
 62
     7
  6
CONTINUOUS
370
    -3
390
167CC
  0
LAYER
  5
F255
330
7467
100
AcDbSymbolTableRecord
100
AcDbLayerTableRecord
  2
DEFPOINTS
 70
     0
 62
     7
  6
CONTINUOUS
290
     0
370
    -3
390
167CC
  0
LAYER
  5
10B54
330
7467
100
AcDbSymbolTableRecord
100
AcDbLayerTableRecord
  2
仕様書枠
 70
     0
 62
   230
  6
CONTINUOUS
370
    -3
390
167CC
  0
LAYER
  5
11729
330
7467
100
AcDbSymbolTableRecord
100
AcDbLayerTableRecord
  2
Ｇ．Ｌ
 70
     0
 62
    30
  6
CONTINUOUS
370
    -3
390
167CC
  0
LAYER
  5
1173F
330
7467
100
AcDbSymbolTableRecord
100
AcDbLayerTableRecord
  2
細線
 70
     0
 62
     5
  6
CONTINUOUS
370
    -3
390
167CC
  0
LAYER
  5
142E2
330
7467
100
AcDbSymbolTableRecord
100
AcDbLayerTableRecord
  2
破線
 70
     0
 62
     2
  6
HIDDEN
370
    -3
390
167CC
  0
ENDTAB
  0
TABLE
  2
STYLE
  5
7468
330
0
100
AcDbSymbolTable
 70
     4
  0
STYLE
  5
7475
330
7468
100
AcDbSymbolTableRecord
100
AcDbTextStyleTableRecord
  2
STANDARD
 70
     0
 40
0.0
 41
1.0
 50
0.0
 71
     0
 42
4.0
  3
txt
  4
C:\AutoCAD LT\bigfont.shx
  0
STYLE
  5
763C
330
7468
100
AcDbSymbolTableRecord
100
AcDbTextStyleTableRecord
  2
MSMINCHO
 70
     0
 40
0.0
 41
1.0
 50
0.0
 71
     0
 42
1.199999999999999
  3
C:\AutoCAD LT\msminch2.TTF
  4

  0
STYLE
  5
F706
330
7468
100
AcDbSymbolTableRecord
100
AcDbTextStyleTableRecord
  2
STYLE1
 70
     0
 40
0.0
 41
1.0
 50
0.0
 71
     0
 42
4.0
  3
isocp.shx
  4
bigfont.shx
  0
STYLE
  5
103BF
330
7468
100
AcDbSymbolTableRecord
100
AcDbTextStyleTableRecord
  2
STYLE2
 70
     0
 40
0.0
 41
1.0
 50
0.0
 71
     0
 42
100.0
  3
MS PGothic.ttf
  4

1001
ACAD
1000
MS PGothic
1071
    32818
  0
ENDTAB
  0
TABLE
  2
VIEW
  5
746B
330
0
100
AcDbSymbolTable
 70
     0
  0
ENDTAB
  0
TABLE
  2
UCS
  5
746C
330
0
100
AcDbSymbolTable
 70
     0
  0
ENDTAB
  0
TABLE
  2
APPID
  5
746E
330
0
100
AcDbSymbolTable
 70
     6
  0
APPID
  5
7476
330
746E
100
AcDbSymbolTableRecord
100
AcDbRegAppTableRecord
  2
ACAD
 70
     0
  0
APPID
  5
DEA9
330
746E
100
AcDbSymbolTableRecord
100
AcDbRegAppTableRecord
  2
CONTENTBLOCKICON
 70
     0
  0
APPID
  5
DEAA
330
746E
100
AcDbSymbolTableRecord
100
AcDbRegAppTableRecord
  2
CONTENTBLOCKDESCRIPTION
 70
     0
  0
APPID
  5
E71D
330
746E
100
AcDbSymbolTableRecord
100
AcDbRegAppTableRecord
  2
CONTENTTABDATA
 70
     0
  0
APPID
  5
E71E
330
746E
100
AcDbSymbolTableRecord
100
AcDbRegAppTableRecord
  2
CONTENTCURRENTTAB
 70
     0
  0
APPID
  5
F3BA
330
746E
100
AcDbSymbolTableRecord
100
AcDbRegAppTableRecord
  2
DRAWINGVARIABLESXDATA
 70
     0
  0
ENDTAB
  0
TABLE
  2
DIMSTYLE
  5
746F
330
0
100
AcDbSymbolTable
 70
     1
100
AcDbDimStyleTable
 71
     0
  0
DIMSTYLE
105
F71F
102
{ACAD_REACTORS
330
162CD
330
162CE
330
162CF
330
162D0
330
162DA
330
162E2
330
162E4
330
162E7
330
162EA
330
162EB
330
16301
330
16302
330
1630D
330
1631F
330
16320
330
16333
330
16C23
330
16C24
330
16C25
330
16C3E
330
16C43
330
16C45
330
16C46
330
16C47
330
16C48
330
16DBB
330
16DDB
330
16DDC
330
16DDE
330
18783
330
18C8E
330
18C8F
330
18C90
102
}
330
746F
100
AcDbSymbolTableRecord
100
AcDbDimStyleTableRecord
  2
INABA_S40G
 70
     0
 40
40.0
 41
2.5
 42
0.5
 43
7.0
 44
1.5
 73
     0
 74
     0
 77
     3
 78
     8
140
3.0
141
0.0
143
0.0394
147
1.0
172
     1
173
     1
174
     1
178
     7
271
     1
340
F706
341
F770
343
F770
344
F770
  0
ENDTAB
  0
TABLE
  2
BLOCK_RECORD
  5
7466
330
0
100
AcDbSymbolTable
 70
    34
  0
BLOCK_RECORD
  5
747D
330
7466
100
AcDbSymbolTableRecord
100
AcDbBlockTableRecord
  2
*MODEL_SPACE
340
167D1
  0
BLOCK_RECORD
  5
747A
330
7466
100
AcDbSymbolTableRecord
100
AcDbBlockTableRecord
  2
*PAPER_SPACE
340
167D2
  0
BLOCK_RECORD
  5
F770
330
7466
100
AcDbSymbolTableRecord
100
AcDbBlockTableRecord
  2
_DOTSMALL
340
0
102
{BLKREFS
331
164EF
331
164F0
331
1641A
331
1641B
331
16427
331
16428
331
164CE
331
164CF
331
1643D
331
1643E
331
1676F
331
16770
331
16452
331
16453
331
1645D
331
1645E
331
1646A
331
1646B
331
16479
331
1647A
331
16487
331
16488
331
16493
331
16494
331
167AF
331
167B0
331
170FF
331
17100
331
17112
331
17113
331
1711D
331
1711E
331
17126
331
17127
331
1717E
331
1717F
331
17189
331
1718A
331
1719C
331
1719D
331
171A6
331
171A7
331
171B1
331
171B2
331
18793
331
18794
331
18B0F
331
18B10
331
18B1A
331
18B1B
331
18B23
331
18B24
331
18DC7
331
18DC8
331
19099
331
1909A
331
190A2
331
190A3
331
190C0
331
190C1
331
190C9
331
190CA
331
190DC
331
190DD
331
190E8
331
190E9
102
}
  0
BLOCK_RECORD
  5
16338
330
7466
100
AcDbSymbolTableRecord
100
AcDbBlockTableRecord
  2
*D1
340
0
  0
BLOCK_RECORD
  5
16344
330
7466
100
AcDbSymbolTableRecord
100
AcDbBlockTableRecord
  2
*D2
340
0
  0
BLOCK_RECORD
  5
16352
330
7466
100
AcDbSymbolTableRecord
100
AcDbBlockTableRecord
  2
*D3
340
0
  0
BLOCK_RECORD
  5
16360
330
7466
100
AcDbSymbolTableRecord
100
AcDbBlockTableRecord
  2
*D4
340
0
  0
BLOCK_RECORD
  5
1636C
330
7466
100
AcDbSymbolTableRecord
100
AcDbBlockTableRecord
  2
*D5
340
0
  0
BLOCK_RECORD
  5
16378
330
7466
100
AcDbSymbolTableRecord
100
AcDbBlockTableRecord
  2
*D6
340
0
  0
BLOCK_RECORD
  5
16384
330
7466
100
AcDbSymbolTableRecord
100
AcDbBlockTableRecord
  2
*D7
340
0
  0
BLOCK_RECORD
  5
1638F
330
7466
100
AcDbSymbolTableRecord
100
AcDbBlockTableRecord
  2
*D8
340
0
  0
BLOCK_RECORD
  5
1639B
330
7466
100
AcDbSymbolTableRecord
100
AcDbBlockTableRecord
  2
*D9
340
0
  0
BLOCK_RECORD
  5
163A9
330
7466
100
AcDbSymbolTableRecord
100
AcDbBlockTableRecord
  2
*D10
340
0
  0
BLOCK_RECORD
  5
163B8
330
7466
100
AcDbSymbolTableRecord
100
AcDbBlockTableRecord
  2
*D11
340
0
  0
BLOCK_RECORD
  5
163C7
330
7466
100
AcDbSymbolTableRecord
100
AcDbBlockTableRecord
  2
*D12
340
0
  0
BLOCK_RECORD
  5
163D5
330
7466
100
AcDbSymbolTableRecord
100
AcDbBlockTableRecord
  2
*D13
340
0
  0
BLOCK_RECORD
  5
163E1
330
7466
100
AcDbSymbolTableRecord
100
AcDbBlockTableRecord
  2
*D14
340
0
  0
BLOCK_RECORD
  5
163ED
330
7466
100
AcDbSymbolTableRecord
100
AcDbBlockTableRecord
  2
*D15
340
0
  0
BLOCK_RECORD
  5
163FB
330
7466
100
AcDbSymbolTableRecord
100
AcDbBlockTableRecord
  2
*D16
340
0
  0
BLOCK_RECORD
  5
16DF4
330
7466
100
AcDbSymbolTableRecord
100
AcDbBlockTableRecord
  2
*D17
340
0
  0
BLOCK_RECORD
  5
16E00
330
7466
100
AcDbSymbolTableRecord
100
AcDbBlockTableRecord
  2
*D18
340
0
  0
BLOCK_RECORD
  5
16E0E
330
7466
100
AcDbSymbolTableRecord
100
AcDbBlockTableRecord
  2
*D19
340
0
  0
BLOCK_RECORD
  5
16E1A
330
7466
100
AcDbSymbolTableRecord
100
AcDbBlockTableRecord
  2
*D20
340
0
  0
BLOCK_RECORD
  5
16E27
330
7466
100
AcDbSymbolTableRecord
100
AcDbBlockTableRecord
  2
*D21
340
0
  0
BLOCK_RECORD
  5
16E34
330
7466
100
AcDbSymbolTableRecord
100
AcDbBlockTableRecord
  2
*D22
340
0
  0
BLOCK_RECORD
  5
16E40
330
7466
100
AcDbSymbolTableRecord
100
AcDbBlockTableRecord
  2
*D23
340
0
  0
BLOCK_RECORD
  5
16E4E
330
7466
100
AcDbSymbolTableRecord
100
AcDbBlockTableRecord
  2
*D24
340
0
  0
BLOCK_RECORD
  5
16E5C
330
7466
100
AcDbSymbolTableRecord
100
AcDbBlockTableRecord
  2
*D25
340
0
  0
BLOCK_RECORD
  5
16F6C
330
7466
100
AcDbSymbolTableRecord
100
AcDbBlockTableRecord
  2
*D26
340
0
  0
BLOCK_RECORD
  5
16F78
330
7466
100
AcDbSymbolTableRecord
100
AcDbBlockTableRecord
  2
*D27
340
0
  0
BLOCK_RECORD
  5
16F86
330
7466
100
AcDbSymbolTableRecord
100
AcDbBlockTableRecord
  2
*D28
340
0
  0
BLOCK_RECORD
  5
16F9F
330
7466
100
AcDbSymbolTableRecord
100
AcDbBlockTableRecord
  2
*D29
340
0
  0
BLOCK_RECORD
  5
18784
330
7466
100
AcDbSymbolTableRecord
100
AcDbBlockTableRecord
  2
*D30
340
0
  0
BLOCK_RECORD
  5
18CF9
330
7466
100
AcDbSymbolTableRecord
100
AcDbBlockTableRecord
  2
*D31
340
0
  0
BLOCK_RECORD
  5
18D05
330
7466
100
AcDbSymbolTableRecord
100
AcDbBlockTableRecord
  2
*D32
340
0
  0
BLOCK_RECORD
  5
18D13
330
7466
100
AcDbSymbolTableRecord
100
AcDbBlockTableRecord
  2
*D33
340
0
  0
ENDTAB
  0
ENDSEC
  0
SECTION
  2
BLOCKS
  0
BLOCK
  5
7489
330
747D
100
AcDbEntity
  8
0
100
AcDbBlockBegin
  2
*MODEL_SPACE
 70
     0
 10
0.0
 20
0.0
 30
0.0
  3
*MODEL_SPACE
  1

  0
ENDBLK
  5
748A
330
747D
100
AcDbEntity
  8
0
100
AcDbBlockEnd
  0
BLOCK
  5
7487
330
747A
100
AcDbEntity
 67
     1
  8
0
100
AcDbBlockBegin
  2
*PAPER_SPACE
 70
     0
 10
0.0
 20
0.0
 30
0.0
  3
*PAPER_SPACE
  1

  0
ENDBLK
  5
7488
330
747A
100
AcDbEntity
 67
     1
  8
0
100
AcDbBlockEnd
  0
BLOCK
  5
F771
330
F770
100
AcDbEntity
  8
0
 48
50.0
100
AcDbBlockBegin
  2
_DOTSMALL
 70
     0
 10
0.0
 20
0.0
 30
0.0
  3
_DOTSMALL
  1

  0
LWPOLYLINE
  5
F772
330
F770
100
AcDbEntity
  8
0
  6
ByBlock
 62
     0
 48
50.0
100
AcDbPolyline
 90
        2
 70
     1
 43
0.5
 10
-0.0625
 20
0.0
 42
1.0
 10
0.0625
 20
0.0
 42
1.0
  0
ENDBLK
  5
F776
330
F770
100
AcDbEntity
  8
0
 48
50.0
100
AcDbBlockEnd
  0
BLOCK
  5
164EB
330
16338
100
AcDbEntity
  8
0
 48
50.0
100
AcDbBlockBegin
  2
*D1
 70
     1
 10
0.0
 20
0.0
 30
0.0
  3
*D1
  1

  0
LINE
  5
164EC
330
16338
100
AcDbEntity
  8
0
  6
ByBlock
 62
     0
 48
50.0
100
AcDbLine
 10
7394.673057123664
 20
8717.497424545966
 30
0.0
 11
8082.099402858071
 21
8717.497424545966
 31
0.0
  0
LINE
  5
164ED
330
16338
100
AcDbEntity
  8
0
  6
ByBlock
 62
     0
 48
50.0
100
AcDbLine
 10
7394.673057123639
 20
7037.497424545953
 30
0.0
 11
8082.099402858069
 21
7037.497424545951
 31
0.0
  0
LINE
  5
164EE
330
16338
100
AcDbEntity
  8
0
  6
ByBlock
 62
     0
 48
50.0
100
AcDbLine
 10
8022.099402858071
 20
8717.497424545966
 30
0.0
 11
8022.099402858071
 21
7037.497424545951
 31
0.0
  0
INSERT
  5
164EF
330
16338
100
AcDbEntity
  8
0
  6
ByBlock
 62
     0
 48
50.0
100
AcDbBlockReference
  2
_DOTSMALL
 10
8022.099402858071
 20
8717.497424545966
 30
0.0
 41
100.0
 42
100.0
 43
100.0
 50
90.0
  0
INSERT
  5
164F0
330
16338
100
AcDbEntity
  8
0
  6
ByBlock
 62
     0
 48
50.0
100
AcDbBlockReference
  2
_DOTSMALL
 10
8022.099402858071
 20
7037.497424545951
 30
0.0
 41
100.0
 42
100.0
 43
100.0
 50
270.0
  0
MTEXT
  5
164F1
330
16338
100
AcDbEntity
  8
0
  6
ByBlock
 62
     7
 48
50.0
100
AcDbMText
 10
7922.087591834449
 20
7877.497424545959
 30
0.0
 40
120.0
 41
0.0
 71
     5
 72
     1
  1
\A1;4X420=1680
  7
STYLE1
 11
0.0000000000000001
 21
1.0
 31
0.0
 73
     1
 44
1.0
1001
ACAD
1000
MTEXTBEGIN
1070
    73
1070
     1
1070
    44
1040
1.0
1070
    74
1070
     0
1000
MTEXTEND
  0
POINT
  5
164F2
330
16338
100
AcDbEntity
  8
DEFPOINTS
  6
ByBlock
 62
     0
 48
50.0
100
AcDbPoint
 10
7374.673057123664
 20
8717.497424545966
 30
0.0
  0
POINT
  5
164F3
330
16338
100
AcDbEntity
  8
DEFPOINTS
  6
ByBlock
 62
     0
 48
50.0
100
AcDbPoint
 10
7374.673057123638
 20
7037.497424545953
 30
0.0
  0
POINT
  5
164F4
330
16338
100
AcDbEntity
  8
DEFPOINTS
  6
ByBlock
 62
     0
 48
50.0
100
AcDbPoint
 10
8022.099402858071
 20
7037.497424545951
 30
0.0
  0
ENDBLK
  5
164F5
330
16338
100
AcDbEntity
  8
0
 48
50.0
100
AcDbBlockEnd
  0
BLOCK
  5
16414
330
16344
100
AcDbEntity
  8
0
 48
50.0
100
AcDbBlockBegin
  2
*D2
 70
     1
 10
0.0
 20
0.0
 30
0.0
  3
*D2
  1

  0
LINE
  5
16415
330
16344
100
AcDbEntity
  8
0
  6
ByBlock
 62
     0
 48
50.0
100
AcDbLine
 10
7394.673057123639
 20
7037.497424545953
 30
0.0
 11
8082.099402858048
 21
7037.497424545951
 31
0.0
  0
LINE
  5
16416
330
16344
100
AcDbEntity
  8
0
  6
ByBlock
 62
     0
 48
50.0
100
AcDbLine
 10
7394.673057123639
 20
6982.497424545956
 30
0.0
 11
8082.099402858048
 21
6982.497424545956
 31
0.0
  0
LINE
  5
16417
330
16344
100
AcDbEntity
  8
0
  6
ByBlock
 62
     0
 48
50.0
100
AcDbLine
 10
8022.099402858048
 20
7037.497424545951
 30
0.0
 11
8022.099402858048
 21
7137.497424545951
 31
0.0
  0
LINE
  5
16418
330
16344
100
AcDbEntity
  8
0
  6
ByBlock
 62
     0
 48
50.0
100
AcDbLine
 10
8022.099402858048
 20
6982.497424545956
 30
0.0
 11
8022.099402858048
 21
6496.150676266855
 31
0.0
  0
LINE
  5
16419
330
16344
100
AcDbEntity
  8
0
  6
ByBlock
 62
     0
 48
50.0
100
AcDbLine
 10
8022.099402858048
 20
7037.497424545951
 30
0.0
 11
8022.099402858048
 21
6982.497424545956
 31
0.0
  0
INSERT
  5
1641A
330
16344
100
AcDbEntity
  8
0
  6
ByBlock
 62
     0
 48
50.0
100
AcDbBlockReference
  2
_DOTSMALL
 10
8022.099402858048
 20
7037.497424545951
 30
0.0
 41
100.0
 42
100.0
 43
100.0
 50
270.0
  0
INSERT
  5
1641B
330
16344
100
AcDbEntity
  8
0
  6
ByBlock
 62
     0
 48
50.0
100
AcDbBlockReference
  2
_DOTSMALL
 10
8022.099402858048
 20
6982.497424545956
 30
0.0
 41
100.0
 42
100.0
 43
100.0
 50
90.0
  0
MTEXT
  5
1641C
330
16344
100
AcDbEntity
  8
0
  6
ByBlock
 62
     7
 48
50.0
100
AcDbMText
 10
7922.099402858048
 20
6604.635957641093
 30
0.0
 40
120.0
 41
0.0
 71
     5
 72
     1
  1
\A1;55
  7
STYLE1
 11
0.0000000000000001
 21
1.0
 31
0.0
 73
     1
 44
1.0
1001
ACAD
1000
MTEXTBEGIN
1070
    73
1070
     1
1070
    44
1040
1.0
1070
    74
1070
     0
1000
MTEXTEND
  0
POINT
  5
1641D
330
16344
100
AcDbEntity
  8
DEFPOINTS
  6
ByBlock
 62
     0
 48
50.0
100
AcDbPoint
 10
7374.673057123638
 20
7037.497424545953
 30
0.0
  0
POINT
  5
1641E
330
16344
100
AcDbEntity
  8
DEFPOINTS
  6
ByBlock
 62
     0
 48
50.0
100
AcDbPoint
 10
7374.673057123638
 20
6982.497424545956
 30
0.0
  0
POINT
  5
1641F
330
16344
100
AcDbEntity
  8
DEFPOINTS
  6
ByBlock
 62
     0
 48
50.0
100
AcDbPoint
 10
8022.099402858048
 20
6982.497424545956
 30
0.0
  0
ENDBLK
  5
16420
330
16344
100
AcDbEntity
  8
0
 48
50.0
100
AcDbBlockEnd
  0
BLOCK
  5
16421
330
16352
100
AcDbEntity
  8
0
 48
50.0
100
AcDbBlockBegin
  2
*D3
 70
     1
 10
0.0
 20
0.0
 30
0.0
  3
*D3
  1

  0
LINE
  5
16422
330
16352
100
AcDbEntity
  8
0
  6
ByBlock
 62
     0
 48
50.0
100
AcDbLine
 10
7394.673057123664
 20
10032.49742454596
 30
0.0
 11
8082.099402858075
 21
10032.49742454596
 31
0.0
  0
LINE
  5
16423
330
16352
100
AcDbEntity
  8
0
  6
ByBlock
 62
     0
 48
50.0
100
AcDbLine
 10
7394.673057123664
 20
9977.497424545967
 30
0.0
 11
8082.099402858075
 21
9977.497424545967
 31
0.0
  0
LINE
  5
16424
330
16352
100
AcDbEntity
  8
0
  6
ByBlock
 62
     0
 48
50.0
100
AcDbLine
 10
8022.099402858072
 20
9977.497424545967
 30
0.0
 11
8022.099402858072
 21
9877.497424545968
 31
0.0
  0
LINE
  5
16425
330
16352
100
AcDbEntity
  8
0
  6
ByBlock
 62
     0
 48
50.0
100
AcDbLine
 10
8022.099402858072
 20
10032.49742454596
 30
0.0
 11
8022.099402858072
 21
10449.46798729444
 31
0.0
  0
LINE
  5
16426
330
16352
100
AcDbEntity
  8
0
  6
ByBlock
 62
     0
 48
50.0
100
AcDbLine
 10
8022.099402858072
 20
9977.497424545967
 30
0.0
 11
8022.099402858072
 21
10032.49742454596
 31
0.0
  0
INSERT
  5
16427
330
16352
100
AcDbEntity
  8
0
  6
ByBlock
 62
     0
 48
50.0
100
AcDbBlockReference
  2
_DOTSMALL
 10
8022.099402858072
 20
9977.497424545967
 30
0.0
 41
100.0
 42
100.0
 43
100.0
 50
90.0
  0
INSERT
  5
16428
330
16352
100
AcDbEntity
  8
0
  6
ByBlock
 62
     0
 48
50.0
100
AcDbBlockReference
  2
_DOTSMALL
 10
8022.099402858072
 20
10032.49742454596
 30
0.0
 41
100.0
 42
100.0
 43
100.0
 50
270.0
  0
MTEXT
  5
16429
330
16352
100
AcDbEntity
  8
0
  6
ByBlock
 62
     7
 48
50.0
100
AcDbMText
 10
7922.099402858073
 20
10340.9827059202
 30
0.0
 40
120.0
 41
0.0
 71
     5
 72
     1
  1
\A1;55
  7
STYLE1
 11
0.0000000000000001
 21
1.0
 31
0.0
 73
     1
 44
1.0
1001
ACAD
1000
MTEXTBEGIN
1070
    73
1070
     1
1070
    44
1040
1.0
1070
    74
1070
     0
1000
MTEXTEND
  0
POINT
  5
1642A
330
16352
100
AcDbEntity
  8
DEFPOINTS
  6
ByBlock
 62
     0
 48
50.0
100
AcDbPoint
 10
7374.673057123664
 20
10032.49742454596
 30
0.0
  0
POINT
  5
1642B
330
16352
100
AcDbEntity
  8
DEFPOINTS
  6
ByBlock
 62
     0
 48
50.0
100
AcDbPoint
 10
7374.673057123664
 20
9977.497424545967
 30
0.0
  0
POINT
  5
1642C
330
16352
100
AcDbEntity
  8
DEFPOINTS
  6
ByBlock
 62
     0
 48
50.0
100
AcDbPoint
 10
8022.099402858072
 20
9977.497424545967
 30
0.0
  0
ENDBLK
  5
1642D
330
16352
100
AcDbEntity
  8
0
 48
50.0
100
AcDbBlockEnd
  0
BLOCK
  5
164CA
330
16360
100
AcDbEntity
  8
0
 48
50.0
100
AcDbBlockBegin
  2
*D4
 70
     1
 10
0.0
 20
0.0
 30
0.0
  3
*D4
  1

  0
LINE
  5
164CB
330
16360
100
AcDbEntity
  8
0
  6
ByBlock
 62
     0
 48
50.0
100
AcDbLine
 10
7394.673057123664
 20
8772.497424545964
 30
0.0
 11
8447.206344597709
 21
8772.497424545964
 31
0.0
  0
LINE
  5
164CC
330
16360
100
AcDbEntity
  8
0
  6
ByBlock
 62
     0
 48
50.0
100
AcDbLine
 10
7394.673057123639
 20
6982.497424545956
 30
0.0
 11
8447.206344597709
 21
6982.497424545956
 31
0.0
  0
LINE
  5
164CD
330
16360
100
AcDbEntity
  8
0
  6
ByBlock
 62
     0
 48
50.0
100
AcDbLine
 10
8387.206344597709
 20
8772.497424545964
 30
0.0
 11
8387.206344597709
 21
6982.497424545956
 31
0.0
  0
INSERT
  5
164CE
330
16360
100
AcDbEntity
  8
0
  6
ByBlock
 62
     0
 48
50.0
100
AcDbBlockReference
  2
_DOTSMALL
 10
8387.206344597709
 20
8772.497424545964
 30
0.0
 41
100.0
 42
100.0
 43
100.0
 50
90.0
  0
INSERT
  5
164CF
330
16360
100
AcDbEntity
  8
0
  6
ByBlock
 62
     0
 48
50.0
100
AcDbBlockReference
  2
_DOTSMALL
 10
8387.206344597709
 20
6982.497424545956
 30
0.0
 41
100.0
 42
100.0
 43
100.0
 50
270.0
  0
MTEXT
  5
164D0
330
16360
100
AcDbEntity
  8
0
  6
ByBlock
 62
     7
 48
50.0
100
AcDbMText
 10
8287.206344597709
 20
7877.497424545959
 30
0.0
 40
120.0
 41
0.0
 71
     5
 72
     1
  1
\A1;1790
  7
STYLE1
 11
0.0000000000000001
 21
1.0
 31
0.0
 73
     1
 44
1.0
1001
ACAD
1000
MTEXTBEGIN
1070
    73
1070
     1
1070
    44
1040
1.0
1070
    74
1070
     0
1000
MTEXTEND
  0
POINT
  5
164D1
330
16360
100
AcDbEntity
  8
DEFPOINTS
  6
ByBlock
 62
     0
 48
50.0
100
AcDbPoint
 10
7374.673057123664
 20
8772.497424545964
 30
0.0
  0
POINT
  5
164D2
330
16360
100
AcDbEntity
  8
DEFPOINTS
  6
ByBlock
 62
     0
 48
50.0
100
AcDbPoint
 10
7374.673057123638
 20
6982.497424545956
 30
0.0
  0
POINT
  5
164D3
330
16360
100
AcDbEntity
  8
DEFPOINTS
  6
ByBlock
 62
     0
 48
50.0
100
AcDbPoint
 10
8387.206344597709
 20
6982.497424545956
 30
0.0
  0
ENDBLK
  5
164D4
330
16360
100
AcDbEntity
  8
0
 48
50.0
100
AcDbBlockEnd
  0
BLOCK
  5
16439
330
1636C
100
AcDbEntity
  8
0
 48
50.0
100
AcDbBlockBegin
  2
*D5
 70
     1
 10
0.0
 20
0.0
 30
0.0
  3
*D5
  1

  0
LINE
  5
1643A
330
1636C
100
AcDbEntity
  8
0
  6
ByBlock
 62
     0
 48
50.0
100
AcDbLine
 10
7366.173057123664
 20
9997.138440697341
 30
0.0
 11
7761.530782985689
 21
9891.202657331207
 31
0.0
  0
LINE
  5
1643B
330
1636C
100
AcDbEntity
  8
0
  6
ByBlock
 62
     0
 48
50.0
100
AcDbLine
 10
7366.173057123664
 20
9547.138440697345
 30
0.0
 11
7761.530782985689
 21
9441.20265733121
 31
0.0
  0
LINE
  5
1643C
330
1636C
100
AcDbEntity
  8
0
  6
ByBlock
 62
     0
 48
50.0
100
AcDbLine
 10
7701.530782985688
 20
9907.279608877075
 30
0.0
 11
7701.530782985688
 21
9457.279608877078
 31
0.0
  0
INSERT
  5
1643D
330
1636C
100
AcDbEntity
  8
0
  6
ByBlock
 62
     0
 48
50.0
100
AcDbBlockReference
  2
_DOTSMALL
 10
7701.530782985688
 20
9907.279608877075
 30
0.0
 41
100.0
 42
100.0
 43
100.0
 50
90.0
  0
INSERT
  5
1643E
330
1636C
100
AcDbEntity
  8
0
  6
ByBlock
 62
     0
 48
50.0
100
AcDbBlockReference
  2
_DOTSMALL
 10
7701.530782985688
 20
9457.279608877078
 30
0.0
 41
100.0
 42
100.0
 43
100.0
 50
270.0
  0
MTEXT
  5
1643F
330
1636C
100
AcDbEntity
  8
0
  6
ByBlock
 62
     7
 48
50.0
100
AcDbMText
 10
7601.530782985688
 20
9682.279608877076
 30
0.0
 40
120.0
 41
0.0
 71
     5
 72
     1
  1
\A1;450
  7
STYLE1
 11
0.0000000000000001
 21
1.0
 31
0.0
 73
     1
 44
1.0
1001
ACAD
1000
MTEXTBEGIN
1070
    73
1070
     1
1070
    44
1040
1.0
1070
    74
1070
     0
1000
MTEXTEND
  0
POINT
  5
16440
330
1636C
100
AcDbEntity
  8
DEFPOINTS
  6
ByBlock
 62
     0
 48
50.0
100
AcDbPoint
 10
7346.173057123664
 20
10002.49742454596
 30
0.0
  0
POINT
  5
16441
330
1636C
100
AcDbEntity
  8
DEFPOINTS
  6
ByBlock
 62
     0
 48
50.0
100
AcDbPoint
 10
7346.173057123664
 20
9552.497424545967
 30
0.0
  0
POINT
  5
16442
330
1636C
100
AcDbEntity
  8
DEFPOINTS
  6
ByBlock
 62
     0
 48
50.0
100
AcDbPoint
 10
7701.530782985688
 20
9457.279608877078
 30
0.0
  0
ENDBLK
  5
16443
330
1636C
100
AcDbEntity
  8
0
 48
50.0
100
AcDbBlockEnd
  0
BLOCK
  5
1676B
330
16378
100
AcDbEntity
  8
0
 48
50.0
100
AcDbBlockBegin
  2
*D6
 70
     1
 10
0.0
 20
0.0
 30
0.0
  3
*D6
  1

  0
LINE
  5
1676C
330
16378
100
AcDbEntity
  8
0
  6
ByBlock
 62
     0
 48
50.0
100
AcDbLine
 10
4767.814073275041
 20
8272.49742454587
 30
0.0
 11
4665.07225931647
 21
7889.059754790697
 31
0.0
  0
LINE
  5
1676D
330
16378
100
AcDbEntity
  8
0
  6
ByBlock
 62
     0
 48
50.0
100
AcDbLine
 10
6040.814073275054
 20
8272.497424545861
 30
0.0
 11
5938.072259316485
 21
7889.059754790697
 31
0.0
  0
LINE
  5
1676E
330
16378
100
AcDbEntity
  8
0
  6
ByBlock
 62
     0
 48
50.0
100
AcDbLine
 10
4681.149210862339
 20
7949.059754790699
 30
0.0
 11
5954.149210862352
 21
7949.059754790699
 31
0.0
  0
INSERT
  5
1676F
330
16378
100
AcDbEntity
  8
0
  6
ByBlock
 62
     0
 48
50.0
100
AcDbBlockReference
  2
_DOTSMALL
 10
4681.149210862339
 20
7949.059754790699
 30
0.0
 41
100.0
 42
100.0
 43
100.0
 50
180.0
  0
INSERT
  5
16770
330
16378
100
AcDbEntity
  8
0
  6
ByBlock
 62
     0
 48
50.0
100
AcDbBlockReference
  2
_DOTSMALL
 10
5954.149210862352
 20
7949.059754790699
 30
0.0
 41
100.0
 42
100.0
 43
100.0
  0
MTEXT
  5
16771
330
16378
100
AcDbEntity
  8
0
  6
ByBlock
 62
     7
 48
50.0
100
AcDbMText
 10
5317.649210862346
 20
8049.071565814321
 30
0.0
 40
120.0
 41
0.0
 71
     5
 72
     1
  1
\A1;1273
  7
STYLE1
 73
     1
 44
1.0
1001
ACAD
1000
MTEXTBEGIN
1070
    73
1070
     1
1070
    44
1040
1.0
1070
    74
1070
     0
1000
MTEXTEND
  0
POINT
  5
16772
330
16378
100
AcDbEntity
  8
DEFPOINTS
  6
ByBlock
 62
     0
 48
50.0
100
AcDbPoint
 10
4773.173057123663
 20
8292.497424545869
 30
0.0
  0
POINT
  5
16773
330
16378
100
AcDbEntity
  8
DEFPOINTS
  6
ByBlock
 62
     0
 48
50.0
100
AcDbPoint
 10
6046.173057123676
 20
8292.497424545862
 30
0.0
  0
POINT
  5
16774
330
16378
100
AcDbEntity
  8
DEFPOINTS
  6
ByBlock
 62
     0
 48
50.0
100
AcDbPoint
 10
5954.149210862352
 20
7949.059754790699
 30
0.0
  0
ENDBLK
  5
16775
330
16378
100
AcDbEntity
  8
0
 48
50.0
100
AcDbBlockEnd
  0
BLOCK
  5
1644F
330
16384
100
AcDbEntity
  8
0
 48
50.0
100
AcDbBlockBegin
  2
*D7
 70
     1
 10
0.0
 20
0.0
 30
0.0
  3
*D7
  1

  0
LINE
  5
16450
330
16384
100
AcDbEntity
  8
0
  6
ByBlock
 62
     0
 48
50.0
100
AcDbLine
 10
4847.673057123657
 20
6988.497424545865
 30
0.0
 11
4847.673057123657
 21
6388.0666537797
 31
0.0
  0
LINE
  5
16451
330
16384
100
AcDbEntity
  8
0
  6
ByBlock
 62
     0
 48
50.0
100
AcDbLine
 10
7271.673057123638
 20
6448.066653779701
 30
0.0
 11
4847.673057123657
 21
6448.066653779701
 31
0.0
  0
INSERT
  5
16452
330
16384
100
AcDbEntity
  8
0
  6
ByBlock
 62
     0
 48
50.0
100
AcDbBlockReference
  2
_DOTSMALL
 10
7271.673057123638
 20
6448.066653779701
 30
0.0
 41
100.0
 42
100.0
 43
100.0
  0
INSERT
  5
16453
330
16384
100
AcDbEntity
  8
0
  6
ByBlock
 62
     0
 48
50.0
100
AcDbBlockReference
  2
_DOTSMALL
 10
4847.673057123657
 20
6448.066653779701
 30
0.0
 41
100.0
 42
100.0
 43
100.0
 50
180.0
  0
MTEXT
  5
16454
330
16384
100
AcDbEntity
  8
0
  6
ByBlock
 62
     7
 48
50.0
100
AcDbMText
 10
6059.673057123648
 20
6548.078464803322
 30
0.0
 40
120.0
 41
0.0
 71
     5
 72
     1
  1
\A1;有効開口部間口 2424
  7
STYLE1
 73
     1
 44
1.0
1001
ACAD
1000
MTEXTBEGIN
1070
    73
1070
     1
1070
    44
1040
1.0
1070
    74
1070
     0
1000
MTEXTEND
  0
POINT
  5
16455
330
16384
100
AcDbEntity
  8
DEFPOINTS
  6
ByBlock
 62
     0
 48
50.0
100
AcDbPoint
 10
7271.673057123638
 20
7008.497424545865
 30
0.0
  0
POINT
  5
16456
330
16384
100
AcDbEntity
  8
DEFPOINTS
  6
ByBlock
 62
     0
 48
50.0
100
AcDbPoint
 10
4847.673057123657
 20
7008.497424545864
 30
0.0
  0
POINT
  5
16457
330
16384
100
AcDbEntity
  8
DEFPOINTS
  6
ByBlock
 62
     0
 48
50.0
100
AcDbPoint
 10
4847.673057123657
 20
6448.066653779701
 30
0.0
  0
ENDBLK
  5
16458
330
16384
100
AcDbEntity
  8
0
 48
50.0
100
AcDbBlockEnd
  0
BLOCK
  5
16459
330
1638F
100
AcDbEntity
  8
0
 48
50.0
100
AcDbBlockBegin
  2
*D8
 70
     1
 10
0.0
 20
0.0
 30
0.0
  3
*D8
  1

  0
LINE
  5
1645A
330
1638F
100
AcDbEntity
  8
0
  6
ByBlock
 62
     0
 48
50.0
100
AcDbLine
 10
4744.673057123656
 20
6962.497424545792
 30
0.0
 11
4744.673057123656
 21
6101.893658188827
 31
0.0
  0
LINE
  5
1645B
330
1638F
100
AcDbEntity
  8
0
  6
ByBlock
 62
     0
 48
50.0
100
AcDbLine
 10
7374.673057123638
 20
6962.49742454592
 30
0.0
 11
7374.673057123638
 21
6101.893658188827
 31
0.0
  0
LINE
  5
1645C
330
1638F
100
AcDbEntity
  8
0
  6
ByBlock
 62
     0
 48
50.0
100
AcDbLine
 10
4744.673057123656
 20
6161.893658188827
 30
0.0
 11
7374.673057123638
 21
6161.893658188827
 31
0.0
  0
INSERT
  5
1645D
330
1638F
100
AcDbEntity
  8
0
  6
ByBlock
 62
     0
 48
50.0
100
AcDbBlockReference
  2
_DOTSMALL
 10
4744.673057123656
 20
6161.893658188827
 30
0.0
 41
100.0
 42
100.0
 43
100.0
 50
180.0
  0
INSERT
  5
1645E
330
1638F
100
AcDbEntity
  8
0
  6
ByBlock
 62
     0
 48
50.0
100
AcDbBlockReference
  2
_DOTSMALL
 10
7374.673057123638
 20
6161.893658188827
 30
0.0
 41
100.0
 42
100.0
 43
100.0
  0
MTEXT
  5
1645F
330
1638F
100
AcDbEntity
  8
0
  6
ByBlock
 62
     7
 48
50.0
100
AcDbMText
 10
6059.673057123648
 20
6261.905469212448
 30
0.0
 40
120.0
 41
0.0
 71
     5
 72
     1
  1
\A1;2630
  7
STYLE1
 73
     1
 44
1.0
1001
ACAD
1000
MTEXTBEGIN
1070
    73
1070
     1
1070
    44
1040
1.0
1070
    74
1070
     0
1000
MTEXTEND
  0
POINT
  5
16460
330
1638F
100
AcDbEntity
  8
DEFPOINTS
  6
ByBlock
 62
     0
 48
50.0
100
AcDbPoint
 10
4744.673057123656
 20
6982.497424545792
 30
0.0
  0
POINT
  5
16461
330
1638F
100
AcDbEntity
  8
DEFPOINTS
  6
ByBlock
 62
     0
 48
50.0
100
AcDbPoint
 10
7374.673057123638
 20
6982.49742454592
 30
0.0
  0
POINT
  5
16462
330
1638F
100
AcDbEntity
  8
DEFPOINTS
  6
ByBlock
 62
     0
 48
50.0
100
AcDbPoint
 10
7374.673057123638
 20
6161.893658188827
 30
0.0
  0
ENDBLK
  5
16463
330
1638F
100
AcDbEntity
  8
0
 48
50.0
100
AcDbBlockEnd
  0
BLOCK
  5
16464
330
1639B
100
AcDbEntity
  8
0
 48
50.0
100
AcDbBlockBegin
  2
*D9
 70
     1
 10
0.0
 20
0.0
 30
0.0
  3
*D9
  1

  0
LINE
  5
16465
330
1639B
100
AcDbEntity
  8
0
  6
ByBlock
 62
     0
 48
50.0
100
AcDbLine
 10
4799.673057123653
 20
6962.497424545865
 30
0.0
 11
4799.673057123653
 21
6388.0666537797
 31
0.0
  0
LINE
  5
16466
330
1639B
100
AcDbEntity
  8
0
  6
ByBlock
 62
     0
 48
50.0
100
AcDbLine
 10
4744.673057123656
 20
6962.497424545862
 30
0.0
 11
4744.673057123656
 21
6388.0666537797
 31
0.0
  0
LINE
  5
16467
330
1639B
100
AcDbEntity
  8
0
  6
ByBlock
 62
     0
 48
50.0
100
AcDbLine
 10
4799.673057123653
 20
6448.066653779701
 30
0.0
 11
4899.673057123653
 21
6448.066653779701
 31
0.0
  0
LINE
  5
16468
330
1639B
100
AcDbEntity
  8
0
  6
ByBlock
 62
     0
 48
50.0
100
AcDbLine
 10
4744.673057123656
 20
6448.066653779701
 30
0.0
 11
4327.70249437518
 21
6448.066653779701
 31
0.0
  0
LINE
  5
16469
330
1639B
100
AcDbEntity
  8
0
  6
ByBlock
 62
     0
 48
50.0
100
AcDbLine
 10
4799.673057123653
 20
6448.066653779701
 30
0.0
 11
4744.673057123656
 21
6448.066653779701
 31
0.0
  0
INSERT
  5
1646A
330
1639B
100
AcDbEntity
  8
0
  6
ByBlock
 62
     0
 48
50.0
100
AcDbBlockReference
  2
_DOTSMALL
 10
4799.673057123653
 20
6448.066653779701
 30
0.0
 41
100.0
 42
100.0
 43
100.0
 50
180.0
  0
INSERT
  5
1646B
330
1639B
100
AcDbEntity
  8
0
  6
ByBlock
 62
     0
 48
50.0
100
AcDbBlockReference
  2
_DOTSMALL
 10
4744.673057123656
 20
6448.066653779701
 30
0.0
 41
100.0
 42
100.0
 43
100.0
  0
MTEXT
  5
1646C
330
1639B
100
AcDbEntity
  8
0
  6
ByBlock
 62
     7
 48
50.0
100
AcDbMText
 10
4436.187775749418
 20
6548.0666537797
 30
0.0
 40
120.0
 41
0.0
 71
     5
 72
     1
  1
\A1;55
  7
STYLE1
 73
     1
 44
1.0
1001
ACAD
1000
MTEXTBEGIN
1070
    73
1070
     1
1070
    44
1040
1.0
1070
    74
1070
     0
1000
MTEXTEND
  0
POINT
  5
1646D
330
1639B
100
AcDbEntity
  8
DEFPOINTS
  6
ByBlock
 62
     0
 48
50.0
100
AcDbPoint
 10
4799.673057123653
 20
6982.497424545865
 30
0.0
  0
POINT
  5
1646E
330
1639B
100
AcDbEntity
  8
DEFPOINTS
  6
ByBlock
 62
     0
 48
50.0
100
AcDbPoint
 10
4744.673057123656
 20
6982.497424545861
 30
0.0
  0
POINT
  5
1646F
330
1639B
100
AcDbEntity
  8
DEFPOINTS
  6
ByBlock
 62
     0
 48
50.0
100
AcDbPoint
 10
4744.673057123656
 20
6448.066653779701
 30
0.0
  0
ENDBLK
  5
16470
330
1639B
100
AcDbEntity
  8
0
 48
50.0
100
AcDbBlockEnd
  0
BLOCK
  5
16471
330
163A9
100
AcDbEntity
  8
0
 48
50.0
100
AcDbBlockBegin
  2
*D10
 70
     1
 10
0.0
 20
0.0
 30
0.0
  3
*D10
  1

  0
LINE
  5
16472
330
163A9
100
AcDbEntity
  8
0
  6
ByBlock
 62
     0
 48
50.0
100
AcDbLine
 10
4847.673057123657
 20
6988.497424545865
 30
0.0
 11
4847.673057123657
 21
6388.0666537797
 31
0.0
  0
LINE
  5
16473
330
163A9
100
AcDbEntity
  8
0
  6
ByBlock
 62
     0
 48
50.0
100
AcDbLine
 10
4799.673057123653
 20
6962.497424545865
 30
0.0
 11
4799.673057123653
 21
6388.0666537797
 31
0.0
  0
LINE
  5
16474
330
163A9
100
AcDbEntity
  8
0
  6
ByBlock
 62
     0
 48
50.0
100
AcDbLine
 10
4847.673057123657
 20
6448.066653779701
 30
0.0
 11
4947.673057123656
 21
6448.066653779701
 31
0.0
  0
LINE
  5
16475
330
163A9
100
AcDbEntity
  8
0
  6
ByBlock
 62
     0
 48
50.0
100
AcDbLine
 10
4799.673057123653
 20
6448.066653779701
 30
0.0
 11
4699.673057123653
 21
6448.066653779701
 31
0.0
  0
MTEXT
  5
16476
330
163A9
100
AcDbEntity
  8
0
  6
ByBlock
 62
     7
 48
50.0
100
AcDbMText
 10
4960.575028123714
 20
6548.0666537797
 30
0.0
 40
120.0
 41
0.0
 71
     5
 72
     1
  1
\A1;48
  7
STYLE1
 73
     1
 44
1.0
1001
ACAD
1000
MTEXTBEGIN
1070
    73
1070
     1
1070
    44
1040
1.0
1070
    74
1070
     0
1000
MTEXTEND
  0
LINE
  5
16477
330
163A9
100
AcDbEntity
  8
0
  6
ByBlock
 62
     0
 48
50.0
100
AcDbLine
 10
4847.673057123657
 20
6448.066653779701
 30
0.0
 11
4799.673057123653
 21
6448.066653779701
 31
0.0
  0
LINE
  5
16478
330
163A9
100
AcDbEntity
  8
0
  6
ByBlock
 62
     0
 48
50.0
100
AcDbLine
 10
4847.673057123657
 20
6448.066653779701
 30
0.0
 11
4799.673057123653
 21
6448.066653779701
 31
0.0
  0
INSERT
  5
16479
330
163A9
100
AcDbEntity
  8
0
  6
ByBlock
 62
     0
 48
50.0
100
AcDbBlockReference
  2
_DOTSMALL
 10
4847.673057123657
 20
6448.066653779701
 30
0.0
 41
100.0
 42
100.0
 43
100.0
 50
180.0
  0
INSERT
  5
1647A
330
163A9
100
AcDbEntity
  8
0
  6
ByBlock
 62
     0
 48
50.0
100
AcDbBlockReference
  2
_DOTSMALL
 10
4799.673057123653
 20
6448.066653779701
 30
0.0
 41
100.0
 42
100.0
 43
100.0
  0
POINT
  5
1647B
330
163A9
100
AcDbEntity
  8
DEFPOINTS
  6
ByBlock
 62
     0
 48
50.0
100
AcDbPoint
 10
4847.673057123657
 20
7008.497424545864
 30
0.0
  0
POINT
  5
1647C
330
163A9
100
AcDbEntity
  8
DEFPOINTS
  6
ByBlock
 62
     0
 48
50.0
100
AcDbPoint
 10
4799.673057123653
 20
6982.497424545865
 30
0.0
  0
POINT
  5
1647D
330
163A9
100
AcDbEntity
  8
DEFPOINTS
  6
ByBlock
 62
     0
 48
50.0
100
AcDbPoint
 10
4799.673057123653
 20
6448.066653779701
 30
0.0
  0
ENDBLK
  5
1647E
330
163A9
100
AcDbEntity
  8
0
 48
50.0
100
AcDbBlockEnd
  0
BLOCK
  5
1647F
330
163B8
100
AcDbEntity
  8
0
 48
50.0
100
AcDbBlockBegin
  2
*D11
 70
     1
 10
0.0
 20
0.0
 30
0.0
  3
*D11
  1

  0
LINE
  5
16480
330
163B8
100
AcDbEntity
  8
0
  6
ByBlock
 62
     0
 48
50.0
100
AcDbLine
 10
7319.67305712364
 20
6962.497424545952
 30
0.0
 11
7319.67305712364
 21
6388.0666537797
 31
0.0
  0
LINE
  5
16481
330
163B8
100
AcDbEntity
  8
0
  6
ByBlock
 62
     0
 48
50.0
100
AcDbLine
 10
7271.673057123638
 20
6988.497424545865
 30
0.0
 11
7271.673057123638
 21
6388.0666537797
 31
0.0
  0
LINE
  5
16482
330
163B8
100
AcDbEntity
  8
0
  6
ByBlock
 62
     0
 48
50.0
100
AcDbLine
 10
7319.67305712364
 20
6448.066653779701
 30
0.0
 11
7419.67305712364
 21
6448.066653779701
 31
0.0
  0
LINE
  5
16483
330
163B8
100
AcDbEntity
  8
0
  6
ByBlock
 62
     0
 48
50.0
100
AcDbLine
 10
7271.673057123638
 20
6448.066653779701
 30
0.0
 11
7171.673057123638
 21
6448.066653779701
 31
0.0
  0
MTEXT
  5
16484
330
163B8
100
AcDbEntity
  8
0
  6
ByBlock
 62
     7
 48
50.0
100
AcDbMText
 10
7160.710159474891
 20
6548.0666537797
 30
0.0
 40
120.0
 41
0.0
 71
     5
 72
     1
  1
\A1;48
  7
STYLE1
 73
     1
 44
1.0
1001
ACAD
1000
MTEXTBEGIN
1070
    73
1070
     1
1070
    44
1040
1.0
1070
    74
1070
     0
1000
MTEXTEND
  0
LINE
  5
16485
330
163B8
100
AcDbEntity
  8
0
  6
ByBlock
 62
     0
 48
50.0
100
AcDbLine
 10
7319.67305712364
 20
6448.066653779701
 30
0.0
 11
7271.673057123638
 21
6448.066653779701
 31
0.0
  0
LINE
  5
16486
330
163B8
100
AcDbEntity
  8
0
  6
ByBlock
 62
     0
 48
50.0
100
AcDbLine
 10
7319.67305712364
 20
6448.066653779701
 30
0.0
 11
7271.673057123638
 21
6448.066653779701
 31
0.0
  0
INSERT
  5
16487
330
163B8
100
AcDbEntity
  8
0
  6
ByBlock
 62
     0
 48
50.0
100
AcDbBlockReference
  2
_DOTSMALL
 10
7319.67305712364
 20
6448.066653779701
 30
0.0
 41
100.0
 42
100.0
 43
100.0
 50
180.0
  0
INSERT
  5
16488
330
163B8
100
AcDbEntity
  8
0
  6
ByBlock
 62
     0
 48
50.0
100
AcDbBlockReference
  2
_DOTSMALL
 10
7271.673057123638
 20
6448.066653779701
 30
0.0
 41
100.0
 42
100.0
 43
100.0
  0
POINT
  5
16489
330
163B8
100
AcDbEntity
  8
DEFPOINTS
  6
ByBlock
 62
     0
 48
50.0
100
AcDbPoint
 10
7319.67305712364
 20
6982.497424545953
 30
0.0
  0
POINT
  5
1648A
330
163B8
100
AcDbEntity
  8
DEFPOINTS
  6
ByBlock
 62
     0
 48
50.0
100
AcDbPoint
 10
7271.673057123638
 20
7008.497424545865
 30
0.0
  0
POINT
  5
1648B
330
163B8
100
AcDbEntity
  8
DEFPOINTS
  6
ByBlock
 62
     0
 48
50.0
100
AcDbPoint
 10
7271.673057123638
 20
6448.066653779701
 30
0.0
  0
ENDBLK
  5
1648C
330
163B8
100
AcDbEntity
  8
0
 48
50.0
100
AcDbBlockEnd
  0
BLOCK
  5
1648D
330
163C7
100
AcDbEntity
  8
0
 48
50.0
100
AcDbBlockBegin
  2
*D12
 70
     1
 10
0.0
 20
0.0
 30
0.0
  3
*D12
  1

  0
LINE
  5
1648E
330
163C7
100
AcDbEntity
  8
0
  6
ByBlock
 62
     0
 48
50.0
100
AcDbLine
 10
7374.673057123638
 20
6962.497424545957
 30
0.0
 11
7374.673057123638
 21
6388.066653779702
 31
0.0
  0
LINE
  5
1648F
330
163C7
100
AcDbEntity
  8
0
  6
ByBlock
 62
     0
 48
50.0
100
AcDbLine
 10
7319.67305712364
 20
6962.497424545952
 30
0.0
 11
7319.67305712364
 21
6388.066653779702
 31
0.0
  0
LINE
  5
16490
330
163C7
100
AcDbEntity
  8
0
  6
ByBlock
 62
     0
 48
50.0
100
AcDbLine
 10
7319.67305712364
 20
6448.066653779702
 30
0.0
 11
7219.67305712364
 21
6448.066653779702
 31
0.0
  0
LINE
  5
16491
330
163C7
100
AcDbEntity
  8
0
  6
ByBlock
 62
     0
 48
50.0
100
AcDbLine
 10
7374.673057123638
 20
6448.066653779702
 30
0.0
 11
7791.643619872115
 21
6448.066653779702
 31
0.0
  0
LINE
  5
16492
330
163C7
100
AcDbEntity
  8
0
  6
ByBlock
 62
     0
 48
50.0
100
AcDbLine
 10
7319.67305712364
 20
6448.066653779702
 30
0.0
 11
7374.673057123638
 21
6448.066653779702
 31
0.0
  0
INSERT
  5
16493
330
163C7
100
AcDbEntity
  8
0
  6
ByBlock
 62
     0
 48
50.0
100
AcDbBlockReference
  2
_DOTSMALL
 10
7319.67305712364
 20
6448.066653779702
 30
0.0
 41
100.0
 42
100.0
 43
100.0
  0
INSERT
  5
16494
330
163C7
100
AcDbEntity
  8
0
  6
ByBlock
 62
     0
 48
50.0
100
AcDbBlockReference
  2
_DOTSMALL
 10
7374.673057123638
 20
6448.066653779702
 30
0.0
 41
100.0
 42
100.0
 43
100.0
 50
180.0
  0
MTEXT
  5
16495
330
163C7
100
AcDbEntity
  8
0
  6
ByBlock
 62
     7
 48
50.0
100
AcDbMText
 10
7683.158338497877
 20
6548.066653779702
 30
0.0
 40
120.0
 41
0.0
 71
     5
 72
     1
  1
\A1;55
  7
STYLE1
 73
     1
 44
1.0
1001
ACAD
1000
MTEXTBEGIN
1070
    73
1070
     1
1070
    44
1040
1.0
1070
    74
1070
     0
1000
MTEXTEND
  0
POINT
  5
16496
330
163C7
100
AcDbEntity
  8
DEFPOINTS
  6
ByBlock
 62
     0
 48
50.0
100
AcDbPoint
 10
7374.673057123638
 20
6982.497424545956
 30
0.0
  0
POINT
  5
16497
330
163C7
100
AcDbEntity
  8
DEFPOINTS
  6
ByBlock
 62
     0
 48
50.0
100
AcDbPoint
 10
7319.67305712364
 20
6982.497424545953
 30
0.0
  0
POINT
  5
16498
330
163C7
100
AcDbEntity
  8
DEFPOINTS
  6
ByBlock
 62
     0
 48
50.0
100
AcDbPoint
 10
7319.67305712364
 20
6448.066653779702
 30
0.0
  0
ENDBLK
  5
16499
330
163C7
100
AcDbEntity
  8
0
 48
50.0
100
AcDbBlockEnd
  0
BLOCK
  5
167AB
330
163D5
100
AcDbEntity
  8
0
 48
50.0
100
AcDbBlockBegin
  2
*D13
 70
     1
 10
0.0
 20
0.0
 30
0.0
  3
*D13
  1

  0
LINE
  5
167AC
330
163D5
100
AcDbEntity
  8
0
  6
ByBlock
 62
     0
 48
50.0
100
AcDbLine
 10
6067.814073275041
 20
8272.497424545974
 30
0.0
 11
5965.072259316442
 21
7889.059754790697
 31
0.0
  0
LINE
  5
167AD
330
163D5
100
AcDbEntity
  8
0
  6
ByBlock
 62
     0
 48
50.0
100
AcDbLine
 10
7340.814073275052
 20
8272.497424545967
 30
0.0
 11
7238.072259316457
 21
7889.059754790697
 31
0.0
  0
LINE
  5
167AE
330
163D5
100
AcDbEntity
  8
0
  6
ByBlock
 62
     0
 48
50.0
100
AcDbLine
 10
5981.14921086231
 20
7949.059754790699
 30
0.0
 11
7254.149210862323
 21
7949.059754790699
 31
0.0
  0
INSERT
  5
167AF
330
163D5
100
AcDbEntity
  8
0
  6
ByBlock
 62
     0
 48
50.0
100
AcDbBlockReference
  2
_DOTSMALL
 10
5981.14921086231
 20
7949.059754790699
 30
0.0
 41
100.0
 42
100.0
 43
100.0
 50
180.0
  0
INSERT
  5
167B0
330
163D5
100
AcDbEntity
  8
0
  6
ByBlock
 62
     0
 48
50.0
100
AcDbBlockReference
  2
_DOTSMALL
 10
7254.149210862323
 20
7949.059754790699
 30
0.0
 41
100.0
 42
100.0
 43
100.0
  0
MTEXT
  5
167B1
330
163D5
100
AcDbEntity
  8
0
  6
ByBlock
 62
     7
 48
50.0
100
AcDbMText
 10
6664.158372861959
 20
8049.071565814321
 30
0.0
 40
120.0
 41
0.0
 71
     5
 72
     1
  1
\A1;1273
  7
STYLE1
 73
     1
 44
1.0
1001
ACAD
1000
MTEXTBEGIN
1070
    73
1070
     1
1070
    44
1040
1.0
1070
    74
1070
     0
1000
MTEXTEND
  0
POINT
  5
167B2
330
163D5
100
AcDbEntity
  8
DEFPOINTS
  6
ByBlock
 62
     0
 48
50.0
100
AcDbPoint
 10
6073.173057123663
 20
8292.497424545976
 30
0.0
  0
POINT
  5
167B3
330
163D5
100
AcDbEntity
  8
DEFPOINTS
  6
ByBlock
 62
     0
 48
50.0
100
AcDbPoint
 10
7346.173057123675
 20
8292.497424545967
 30
0.0
  0
POINT
  5
167B4
330
163D5
100
AcDbEntity
  8
DEFPOINTS
  6
ByBlock
 62
     0
 48
50.0
100
AcDbPoint
 10
7254.149210862323
 20
7949.059754790699
 30
0.0
  0
ENDBLK
  5
167B5
330
163D5
100
AcDbEntity
  8
0
 48
50.0
100
AcDbBlockEnd
  0
BLOCK
  5
164A5
330
163E1
100
AcDbEntity
  8
0
 48
50.0
100
AcDbBlockBegin
  2
*D14
 70
     1
 10
0.0
 20
0.0
 30
0.0
  3
*D14
  1

  0
LINE
  5
18B20
330
163E1
100
AcDbEntity
  8
寸法
 62
     0
 48
50.0
370
    -2
100
AcDbLine
 10
4799.673057123663
 20
8792.497424545869
 30
0.0
 11
4799.673057123663
 21
9348.305644170967
 31
0.0
  0
LINE
  5
18B21
330
163E1
100
AcDbEntity
  8
寸法
 62
     0
 48
50.0
370
    -2
100
AcDbLine
 10
7319.673057123664
 20
8792.497424545963
 30
0.0
 11
7319.673057123664
 21
9348.305644170967
 31
0.0
  0
LINE
  5
18B22
330
163E1
100
AcDbEntity
  8
寸法
 62
     0
 48
50.0
370
    -2
100
AcDbLine
 10
4799.673057123663
 20
9288.305644170966
 30
0.0
 11
7319.673057123664
 21
9288.305644170966
 31
0.0
  0
INSERT
  5
18B23
330
163E1
100
AcDbEntity
  8
寸法
 62
     0
 48
50.0
370
    -2
100
AcDbBlockReference
  2
_DOTSMALL
 10
4799.673057123663
 20
9288.305644170966
 30
0.0
 41
100.0
 42
100.0
 43
100.0
 50
180.0
  0
INSERT
  5
18B24
330
163E1
100
AcDbEntity
  8
寸法
 62
     0
 48
50.0
370
    -2
100
AcDbBlockReference
  2
_DOTSMALL
 10
7319.673057123664
 20
9288.305644170966
 30
0.0
 41
100.0
 42
100.0
 43
100.0
  0
MTEXT
  5
18B25
330
163E1
100
AcDbEntity
  8
寸法
 62
     7
 48
50.0
100
AcDbMText
 10
6059.673057123664
 20
9388.317455194588
 30
0.0
 40
120.0
 41
0.0
 71
     5
 72
     1
  1
\A1;6X420=2520
  7
STYLE1
 73
     1
 44
1.0
1001
ACAD
1000
MTEXTBEGIN
1070
    73
1070
     1
1070
    44
1040
1.0
1070
    74
1070
     0
1000
MTEXTEND
  0
POINT
  5
18B26
330
163E1
100
AcDbEntity
  8
DEFPOINTS
 62
     0
 48
50.0
100
AcDbPoint
 10
4799.673057123663
 20
8772.49742454587
 30
0.0
  0
POINT
  5
18B27
330
163E1
100
AcDbEntity
  8
DEFPOINTS
 62
     0
 48
50.0
100
AcDbPoint
 10
7319.673057123664
 20
8772.497424545964
 30
0.0
  0
POINT
  5
18B28
330
163E1
100
AcDbEntity
  8
DEFPOINTS
 62
     0
 48
50.0
100
AcDbPoint
 10
7319.673057123664
 20
9288.305644170966
 30
0.0
  0
ENDBLK
  5
164AF
330
163E1
100
AcDbEntity
  8
0
 48
50.0
100
AcDbBlockEnd
  0
BLOCK
  5
164B0
330
163ED
100
AcDbEntity
  8
0
 48
50.0
100
AcDbBlockBegin
  2
*D15
 70
     1
 10
0.0
 20
0.0
 30
0.0
  3
*D15
  1

  0
LINE
  5
18B15
330
163ED
100
AcDbEntity
  8
寸法
 62
     0
 48
50.0
370
    -2
100
AcDbLine
 10
4744.673057123629
 20
8792.497424545869
 30
0.0
 11
4744.673057123629
 21
9348.305644170851
 31
0.0
  0
LINE
  5
18B16
330
163ED
100
AcDbEntity
  8
寸法
 62
     0
 48
50.0
370
    -2
100
AcDbLine
 10
4799.673057123663
 20
8792.497424545869
 30
0.0
 11
4799.673057123663
 21
9348.305644170851
 31
0.0
  0
LINE
  5
18B17
330
163ED
100
AcDbEntity
  8
寸法
 62
     0
 48
50.0
370
    -2
100
AcDbLine
 10
4799.673057123663
 20
9288.305644170851
 30
0.0
 11
4899.673057123663
 21
9288.305644170851
 31
0.0
  0
LINE
  5
18B18
330
163ED
100
AcDbEntity
  8
寸法
 62
     0
 48
50.0
370
    -2
100
AcDbLine
 10
4744.673057123629
 20
9288.305644170851
 30
0.0
 11
4327.702494375151
 21
9288.305644170851
 31
0.0
  0
LINE
  5
18B19
330
163ED
100
AcDbEntity
  8
寸法
 62
     0
 48
50.0
370
    -2
100
AcDbLine
 10
4799.673057123663
 20
9288.305644170851
 30
0.0
 11
4744.673057123629
 21
9288.305644170851
 31
0.0
  0
INSERT
  5
18B1A
330
163ED
100
AcDbEntity
  8
寸法
 62
     0
 48
50.0
370
    -2
100
AcDbBlockReference
  2
_DOTSMALL
 10
4799.673057123663
 20
9288.305644170851
 30
0.0
 41
100.0
 42
100.0
 43
100.0
 50
180.0
  0
INSERT
  5
18B1B
330
163ED
100
AcDbEntity
  8
寸法
 62
     0
 48
50.0
370
    -2
100
AcDbBlockReference
  2
_DOTSMALL
 10
4744.673057123629
 20
9288.305644170851
 30
0.0
 41
100.0
 42
100.0
 43
100.0
  0
MTEXT
  5
18B1C
330
163ED
100
AcDbEntity
  8
寸法
 62
     7
 48
50.0
100
AcDbMText
 10
4436.187775749391
 20
9388.30564417085
 30
0.0
 40
120.0
 41
0.0
 71
     5
 72
     1
  1
\A1;55
  7
STYLE1
 73
     1
 44
1.0
1001
ACAD
1000
MTEXTBEGIN
1070
    73
1070
     1
1070
    44
1040
1.0
1070
    74
1070
     0
1000
MTEXTEND
  0
POINT
  5
18B1D
330
163ED
100
AcDbEntity
  8
DEFPOINTS
 62
     0
 48
50.0
100
AcDbPoint
 10
4744.673057123629
 20
8772.49742454587
 30
0.0
  0
POINT
  5
18B1E
330
163ED
100
AcDbEntity
  8
DEFPOINTS
 62
     0
 48
50.0
100
AcDbPoint
 10
4799.673057123663
 20
8772.49742454587
 30
0.0
  0
POINT
  5
18B1F
330
163ED
100
AcDbEntity
  8
DEFPOINTS
 62
     0
 48
50.0
100
AcDbPoint
 10
4799.673057123663
 20
9288.305644170851
 30
0.0
  0
ENDBLK
  5
164BC
330
163ED
100
AcDbEntity
  8
0
 48
50.0
100
AcDbBlockEnd
  0
BLOCK
  5
164BD
330
163FB
100
AcDbEntity
  8
0
 48
50.0
100
AcDbBlockBegin
  2
*D16
 70
     1
 10
0.0
 20
0.0
 30
0.0
  3
*D16
  1

  0
LINE
  5
18B0A
330
163FB
100
AcDbEntity
  8
寸法
 62
     0
 48
50.0
370
    -2
100
AcDbLine
 10
7319.673057123664
 20
8792.497424545963
 30
0.0
 11
7319.673057123664
 21
9348.305644170949
 31
0.0
  0
LINE
  5
18B0B
330
163FB
100
AcDbEntity
  8
寸法
 62
     0
 48
50.0
370
    -2
100
AcDbLine
 10
7374.673057123664
 20
8792.497424545963
 30
0.0
 11
7374.673057123664
 21
9348.305644170949
 31
0.0
  0
LINE
  5
18B0C
330
163FB
100
AcDbEntity
  8
寸法
 62
     0
 48
50.0
370
    -2
100
AcDbLine
 10
7319.673057123664
 20
9288.305644170948
 30
0.0
 11
7219.673057123664
 21
9288.305644170948
 31
0.0
  0
LINE
  5
18B0D
330
163FB
100
AcDbEntity
  8
寸法
 62
     0
 48
50.0
370
    -2
100
AcDbLine
 10
7374.673057123664
 20
9288.305644170948
 30
0.0
 11
7791.643619872141
 21
9288.305644170948
 31
0.0
  0
LINE
  5
18B0E
330
163FB
100
AcDbEntity
  8
寸法
 62
     0
 48
50.0
370
    -2
100
AcDbLine
 10
7319.673057123664
 20
9288.305644170948
 30
0.0
 11
7374.673057123664
 21
9288.305644170948
 31
0.0
  0
INSERT
  5
18B0F
330
163FB
100
AcDbEntity
  8
寸法
 62
     0
 48
50.0
370
    -2
100
AcDbBlockReference
  2
_DOTSMALL
 10
7319.673057123664
 20
9288.305644170948
 30
0.0
 41
100.0
 42
100.0
 43
100.0
  0
INSERT
  5
18B10
330
163FB
100
AcDbEntity
  8
寸法
 62
     0
 48
50.0
370
    -2
100
AcDbBlockReference
  2
_DOTSMALL
 10
7374.673057123664
 20
9288.305644170948
 30
0.0
 41
100.0
 42
100.0
 43
100.0
 50
180.0
  0
MTEXT
  5
18B11
330
163FB
100
AcDbEntity
  8
寸法
 62
     7
 48
50.0
100
AcDbMText
 10
7683.158338497903
 20
9388.305644170948
 30
0.0
 40
120.0
 41
0.0
 71
     5
 72
     1
  1
\A1;55
  7
STYLE1
 73
     1
 44
1.0
1001
ACAD
1000
MTEXTBEGIN
1070
    73
1070
     1
1070
    44
1040
1.0
1070
    74
1070
     0
1000
MTEXTEND
  0
POINT
  5
18B12
330
163FB
100
AcDbEntity
  8
DEFPOINTS
 62
     0
 48
50.0
100
AcDbPoint
 10
7319.673057123664
 20
8772.497424545964
 30
0.0
  0
POINT
  5
18B13
330
163FB
100
AcDbEntity
  8
DEFPOINTS
 62
     0
 48
50.0
100
AcDbPoint
 10
7374.673057123664
 20
8772.497424545964
 30
0.0
  0
POINT
  5
18B14
330
163FB
100
AcDbEntity
  8
DEFPOINTS
 62
     0
 48
50.0
100
AcDbPoint
 10
7374.673057123664
 20
9288.305644170948
 30
0.0
  0
ENDBLK
  5
164C9
330
163FB
100
AcDbEntity
  8
0
 48
50.0
100
AcDbBlockEnd
  0
BLOCK
  5
16DFE
330
16DF4
100
AcDbEntity
  8
0
 48
50.0
100
AcDbBlockBegin
  2
*D17
 70
     1
 10
0.0
 20
0.0
 30
0.0
  3
*D17
  1

  0
LINE
  5
1909F
330
16DF4
100
AcDbEntity
  8
寸法
 62
     0
 48
50.0
370
    -2
100
AcDbLine
 10
11100.47043893114
 20
4537.239986276939
 30
0.0
 11
11100.47043893114
 21
5029.52247600476
 31
0.0
  0
LINE
  5
190A0
330
16DF4
100
AcDbEntity
  8
寸法
 62
     0
 48
50.0
370
    -2
100
AcDbLine
 10
9310.470438931146
 20
4586.430924788262
 30
0.0
 11
9310.470438931146
 21
5029.52247600476
 31
0.0
  0
LINE
  5
190A1
330
16DF4
100
AcDbEntity
  8
寸法
 62
     0
 48
50.0
370
    -2
100
AcDbLine
 10
11100.47043893114
 20
4969.522476004759
 30
0.0
 11
9310.470438931146
 21
4969.522476004759
 31
0.0
  0
INSERT
  5
190A2
330
16DF4
100
AcDbEntity
  8
寸法
 62
     0
 48
50.0
370
    -2
100
AcDbBlockReference
  2
_DOTSMALL
 10
11100.47043893114
 20
4969.522476004759
 30
0.0
 41
100.0
 42
100.0
 43
100.0
  0
INSERT
  5
190A3
330
16DF4
100
AcDbEntity
  8
寸法
 62
     0
 48
50.0
370
    -2
100
AcDbBlockReference
  2
_DOTSMALL
 10
9310.470438931146
 20
4969.522476004759
 30
0.0
 41
100.0
 42
100.0
 43
100.0
 50
180.0
  0
MTEXT
  5
190A4
330
16DF4
100
AcDbEntity
  8
寸法
 62
     7
 48
50.0
100
AcDbMText
 10
10205.47043893114
 20
5069.52247600476
 30
0.0
 40
120.0
 41
0.0
 71
     5
 72
     1
  1
\A1;柱外寸法1790
  7
STYLE1
 73
     1
 44
1.0
1001
ACAD
1000
MTEXTBEGIN
1070
    73
1070
     1
1070
    44
1040
1.0
1070
    74
1070
     0
1000
MTEXTEND
  0
POINT
  5
190A5
330
16DF4
100
AcDbEntity
  8
DEFPOINTS
 62
     0
 48
50.0
100
AcDbPoint
 10
11100.47043893114
 20
4517.23998627694
 30
0.0
  0
POINT
  5
190A6
330
16DF4
100
AcDbEntity
  8
DEFPOINTS
 62
     0
 48
50.0
100
AcDbPoint
 10
9310.470438931146
 20
4566.430924788263
 30
0.0
  0
POINT
  5
190A7
330
16DF4
100
AcDbEntity
  8
DEFPOINTS
 62
     0
 48
50.0
100
AcDbPoint
 10
9310.470438931146
 20
4969.522476004759
 30
0.0
  0
ENDBLK
  5
16DFF
330
16DF4
100
AcDbEntity
  8
0
 48
50.0
100
AcDbBlockEnd
  0
BLOCK
  5
16E0C
330
16E00
100
AcDbEntity
  8
0
 48
50.0
100
AcDbBlockBegin
  2
*D18
 70
     1
 10
0.0
 20
0.0
 30
0.0
  3
*D18
  1

  0
LINE
  5
171AC
330
16E00
100
AcDbEntity
  8
寸法
 62
     0
 48
50.0
370
    -2
100
AcDbLine
 10
9310.470438931146
 20
4586.430924788262
 30
0.0
 11
9310.470438931146
 21
5029.52247600476
 31
0.0
  0
LINE
  5
171AD
330
16E00
100
AcDbEntity
  8
寸法
 62
     0
 48
50.0
370
    -2
100
AcDbLine
 10
9250.470438931143
 20
4590.429306665291
 30
0.0
 11
9250.470438931143
 21
5029.52247600476
 31
0.0
  0
LINE
  5
171AE
330
16E00
100
AcDbEntity
  8
寸法
 62
     0
 48
50.0
370
    -2
100
AcDbLine
 10
9310.470438931146
 20
4969.522476004759
 30
0.0
 11
9410.470438931145
 21
4969.522476004759
 31
0.0
  0
LINE
  5
171AF
330
16E00
100
AcDbEntity
  8
寸法
 62
     0
 48
50.0
370
    -2
100
AcDbLine
 10
9250.470438931143
 20
4969.522476004759
 30
0.0
 11
8831.194848379963
 21
4969.522476004759
 31
0.0
  0
LINE
  5
171B0
330
16E00
100
AcDbEntity
  8
寸法
 62
     0
 48
50.0
370
    -2
100
AcDbLine
 10
9310.470438931146
 20
4969.522476004759
 30
0.0
 11
9250.470438931143
 21
4969.522476004759
 31
0.0
  0
INSERT
  5
171B1
330
16E00
100
AcDbEntity
  8
寸法
 62
     0
 48
50.0
370
    -2
100
AcDbBlockReference
  2
_DOTSMALL
 10
9310.470438931146
 20
4969.522476004759
 30
0.0
 41
100.0
 42
100.0
 43
100.0
 50
180.0
  0
INSERT
  5
171B2
330
16E00
100
AcDbEntity
  8
寸法
 62
     0
 48
50.0
370
    -2
100
AcDbBlockReference
  2
_DOTSMALL
 10
9250.470438931143
 20
4969.522476004759
 30
0.0
 41
100.0
 42
100.0
 43
100.0
  0
MTEXT
  5
171B3
330
16E00
100
AcDbEntity
  8
寸法
 62
     7
 48
50.0
100
AcDbMText
 10
8940.832643655554
 20
5069.52247600476
 30
0.0
 40
120.0
 41
0.0
 71
     5
 72
     1
  1
\A1;60
  7
STYLE1
 73
     1
 44
1.0
1001
ACAD
1000
MTEXTBEGIN
1070
    73
1070
     1
1070
    44
1040
1.0
1070
    74
1070
     0
1000
MTEXTEND
  0
POINT
  5
171B4
330
16E00
100
AcDbEntity
  8
DEFPOINTS
 62
     0
 48
50.0
100
AcDbPoint
 10
9310.470438931146
 20
4566.430924788263
 30
0.0
  0
POINT
  5
171B5
330
16E00
100
AcDbEntity
  8
DEFPOINTS
 62
     0
 48
50.0
100
AcDbPoint
 10
9250.470438931143
 20
4570.429306665291
 30
0.0
  0
POINT
  5
171B6
330
16E00
100
AcDbEntity
  8
DEFPOINTS
 62
     0
 48
50.0
100
AcDbPoint
 10
9250.470438931143
 20
4969.522476004759
 30
0.0
  0
ENDBLK
  5
16E0D
330
16E00
100
AcDbEntity
  8
0
 48
50.0
100
AcDbBlockEnd
  0
BLOCK
  5
16E18
330
16E0E
100
AcDbEntity
  8
0
 48
50.0
100
AcDbBlockBegin
  2
*D19
 70
     1
 10
0.0
 20
0.0
 30
0.0
  3
*D19
  1

  0
LINE
  5
19096
330
16E0E
100
AcDbEntity
  8
寸法
 62
     0
 48
50.0
370
    -2
100
AcDbLine
 10
11180.47043893114
 20
4535.429306665287
 30
0.0
 11
11180.47043893114
 21
5246.048575623205
 31
0.0
  0
LINE
  5
19097
330
16E0E
100
AcDbEntity
  8
寸法
 62
     0
 48
50.0
370
    -2
100
AcDbLine
 10
9250.470438931143
 20
4590.429306665291
 30
0.0
 11
9250.470438931143
 21
5246.048575623205
 31
0.0
  0
LINE
  5
19098
330
16E0E
100
AcDbEntity
  8
寸法
 62
     0
 48
50.0
370
    -2
100
AcDbLine
 10
11180.47043893114
 20
5186.048575623204
 30
0.0
 11
9250.470438931143
 21
5186.048575623204
 31
0.0
  0
INSERT
  5
19099
330
16E0E
100
AcDbEntity
  8
寸法
 62
     0
 48
50.0
370
    -2
100
AcDbBlockReference
  2
_DOTSMALL
 10
11180.47043893114
 20
5186.048575623204
 30
0.0
 41
100.0
 42
100.0
 43
100.0
  0
INSERT
  5
1909A
330
16E0E
100
AcDbEntity
  8
寸法
 62
     0
 48
50.0
370
    -2
100
AcDbBlockReference
  2
_DOTSMALL
 10
9250.470438931143
 20
5186.048575623204
 30
0.0
 41
100.0
 42
100.0
 43
100.0
 50
180.0
  0
MTEXT
  5
1909B
330
16E0E
100
AcDbEntity
  8
寸法
 62
     7
 48
50.0
100
AcDbMText
 10
10215.47043893114
 20
5286.048575623205
 30
0.0
 40
120.0
 41
0.0
 71
     5
 72
     1
  1
\A1;1930
  7
STYLE1
 73
     1
 44
1.0
1001
ACAD
1000
MTEXTBEGIN
1070
    73
1070
     1
1070
    44
1040
1.0
1070
    74
1070
     0
1000
MTEXTEND
  0
POINT
  5
1909C
330
16E0E
100
AcDbEntity
  8
DEFPOINTS
 62
     0
 48
50.0
100
AcDbPoint
 10
11180.47043893114
 20
4515.429306665287
 30
0.0
  0
POINT
  5
1909D
330
16E0E
100
AcDbEntity
  8
DEFPOINTS
 62
     0
 48
50.0
100
AcDbPoint
 10
9250.470438931143
 20
4570.429306665291
 30
0.0
  0
POINT
  5
1909E
330
16E0E
100
AcDbEntity
  8
DEFPOINTS
 62
     0
 48
50.0
100
AcDbPoint
 10
9250.470438931143
 20
5186.048575623204
 30
0.0
  0
ENDBLK
  5
16E19
330
16E0E
100
AcDbEntity
  8
0
 48
50.0
100
AcDbBlockEnd
  0
BLOCK
  5
16E25
330
16E1A
100
AcDbEntity
  8
0
 48
50.0
100
AcDbBlockBegin
  2
*D20
 70
     1
 10
0.0
 20
0.0
 30
0.0
  3
*D20
  1

  0
LINE
  5
171A2
330
16E1A
100
AcDbEntity
  8
寸法
 62
     0
 48
50.0
370
    -2
100
AcDbLine
 10
11100.47043893114
 20
4537.239986276939
 30
0.0
 11
11100.47043893114
 21
5029.52247600476
 31
0.0
  0
LINE
  5
171A3
330
16E1A
100
AcDbEntity
  8
寸法
 62
     0
 48
50.0
370
    -2
100
AcDbLine
 10
11180.47043893114
 20
4535.429306665287
 30
0.0
 11
11180.47043893114
 21
5029.52247600476
 31
0.0
  0
LINE
  5
171A4
330
16E1A
100
AcDbEntity
  8
寸法
 62
     0
 48
50.0
370
    -2
100
AcDbLine
 10
11100.47043893114
 20
4969.522476004759
 30
0.0
 11
11180.47043893114
 21
4969.522476004759
 31
0.0
  0
LINE
  5
171A5
330
16E1A
100
AcDbEntity
  8
寸法
 62
     0
 48
50.0
370
    -2
100
AcDbLine
 10
11180.47043893114
 20
4969.522476004759
 30
0.0
 11
11492.56492712012
 21
4969.522476004759
 31
0.0
  0
INSERT
  5
171A6
330
16E1A
100
AcDbEntity
  8
寸法
 62
     0
 48
50.0
370
    -2
100
AcDbBlockReference
  2
_DOTSMALL
 10
11100.47043893114
 20
4969.522476004759
 30
0.0
 41
100.0
 42
100.0
 43
100.0
 50
180.0
  0
INSERT
  5
171A7
330
16E1A
100
AcDbEntity
  8
寸法
 62
     0
 48
50.0
370
    -2
100
AcDbBlockReference
  2
_DOTSMALL
 10
11180.47043893114
 20
4969.522476004759
 30
0.0
 41
100.0
 42
100.0
 43
100.0
  0
MTEXT
  5
171A8
330
16E1A
100
AcDbEntity
  8
寸法
 62
     7
 48
50.0
100
AcDbMText
 10
11386.51768302563
 20
5069.52247600476
 30
0.0
 40
120.0
 41
0.0
 71
     5
 72
     1
  1
\A1;80
  7
STYLE1
 73
     1
 44
1.0
1001
ACAD
1000
MTEXTBEGIN
1070
    73
1070
     1
1070
    44
1040
1.0
1070
    74
1070
     0
1000
MTEXTEND
  0
POINT
  5
171A9
330
16E1A
100
AcDbEntity
  8
DEFPOINTS
 62
     0
 48
50.0
100
AcDbPoint
 10
11100.47043893114
 20
4517.23998627694
 30
0.0
  0
POINT
  5
171AA
330
16E1A
100
AcDbEntity
  8
DEFPOINTS
 62
     0
 48
50.0
100
AcDbPoint
 10
11180.47043893114
 20
4515.429306665287
 30
0.0
  0
POINT
  5
171AB
330
16E1A
100
AcDbEntity
  8
DEFPOINTS
 62
     0
 48
50.0
100
AcDbPoint
 10
11180.47043893114
 20
4969.522476004759
 30
0.0
  0
ENDBLK
  5
16E26
330
16E1A
100
AcDbEntity
  8
0
 48
50.0
100
AcDbBlockEnd
  0
BLOCK
  5
16E32
330
16E27
100
AcDbEntity
  8
0
 48
50.0
100
AcDbBlockBegin
  2
*D21
 70
     1
 10
0.0
 20
0.0
 30
0.0
  3
*D21
  1

  0
LINE
  5
17198
330
16E27
100
AcDbEntity
  8
寸法
 62
     0
 48
50.0
370
    -2
100
AcDbLine
 10
9249.874725222241
 20
4569.727013734947
 30
0.0
 11
8633.940286116986
 21
4587.441164009269
 31
0.0
  0
LINE
  5
17199
330
16E27
100
AcDbEntity
  8
寸法
 62
     0
 48
50.0
370
    -2
100
AcDbLine
 10
9245.821269665619
 20
4428.785289969235
 30
0.0
 11
8629.88683056036
 21
4446.499440243557
 31
0.0
  0
LINE
  5
1719A
330
16E27
100
AcDbEntity
  8
寸法
 62
     0
 48
50.0
370
    -2
100
AcDbLine
 10
8689.862032162793
 20
4444.77456553861
 30
0.0
 11
8693.915487719419
 21
4585.716289304321
 31
0.0
  0
LINE
  5
1719B
330
16E27
100
AcDbEntity
  8
寸法
 62
     0
 48
50.0
370
    -2
100
AcDbLine
 10
8693.915487719419
 20
4585.716289304321
 30
0.0
 11
8704.264735949099
 21
4945.567498918912
 31
0.0
  0
INSERT
  5
1719C
330
16E27
100
AcDbEntity
  8
寸法
 62
     0
 48
50.0
370
    -2
100
AcDbBlockReference
  2
_DOTSMALL
 10
8689.862032162793
 20
4444.77456553861
 30
0.0
 41
100.0
 42
100.0
 43
100.0
 50
268.3526390256385
  0
INSERT
  5
1719D
330
16E27
100
AcDbEntity
  8
寸法
 62
     0
 48
50.0
370
    -2
100
AcDbBlockReference
  2
_DOTSMALL
 10
8693.915487719419
 20
4585.716289304321
 30
0.0
 41
100.0
 42
100.0
 43
100.0
 50
88.35263902563855
  0
MTEXT
  5
1719E
330
16E27
100
AcDbEntity
  8
寸法
 62
     7
 48
50.0
100
AcDbMText
 10
8600.568838084329
 20
4818.496019955225
 30
0.0
 40
120.0
 41
0.0
 71
     5
 72
     1
  1
\A1;141
  7
STYLE1
 11
0.0287479117491103
 21
0.999586693373849
 31
0.0
 73
     1
 44
1.0
1001
ACAD
1000
MTEXTBEGIN
1070
    73
1070
     1
1070
    44
1040
1.0
1070
    74
1070
     0
1000
MTEXTEND
  0
POINT
  5
1719F
330
16E27
100
AcDbEntity
  8
DEFPOINTS
 62
     0
 48
50.0
100
AcDbPoint
 10
9269.866459089719
 20
4569.152055499965
 30
0.0
  0
POINT
  5
171A0
330
16E27
100
AcDbEntity
  8
DEFPOINTS
 62
     0
 48
50.0
100
AcDbPoint
 10
9265.813003533095
 20
4428.210331734254
 30
0.0
  0
POINT
  5
171A1
330
16E27
100
AcDbEntity
  8
DEFPOINTS
 62
     0
 48
50.0
100
AcDbPoint
 10
8689.862032162793
 20
4444.77456553861
 30
0.0
  0
ENDBLK
  5
16E33
330
16E27
100
AcDbEntity
  8
0
 48
50.0
100
AcDbBlockEnd
  0
BLOCK
  5
16E3E
330
16E34
100
AcDbEntity
  8
0
 48
50.0
100
AcDbBlockBegin
  2
*D22
 70
     1
 10
0.0
 20
0.0
 30
0.0
  3
*D22
  1

  0
LINE
  5
190C6
330
16E34
100
AcDbEntity
  8
寸法
 62
     0
 48
50.0
370
    -2
100
AcDbLine
 10
7374.673057123658
 20
4590.429306665289
 30
0.0
 11
7374.673057123658
 21
4842.970891923529
 31
0.0
  0
LINE
  5
190C7
330
16E34
100
AcDbEntity
  8
寸法
 62
     0
 48
50.0
370
    -2
100
AcDbLine
 10
4744.673057123658
 20
4590.429306665291
 30
0.0
 11
4744.673057123658
 21
4842.970891923529
 31
0.0
  0
LINE
  5
190C8
330
16E34
100
AcDbEntity
  8
寸法
 62
     0
 48
50.0
370
    -2
100
AcDbLine
 10
7374.673057123658
 20
4782.970891923529
 30
0.0
 11
4744.673057123658
 21
4782.970891923529
 31
0.0
  0
INSERT
  5
190C9
330
16E34
100
AcDbEntity
  8
寸法
 62
     0
 48
50.0
370
    -2
100
AcDbBlockReference
  2
_DOTSMALL
 10
7374.673057123658
 20
4782.970891923529
 30
0.0
 41
100.0
 42
100.0
 43
100.0
  0
INSERT
  5
190CA
330
16E34
100
AcDbEntity
  8
寸法
 62
     0
 48
50.0
370
    -2
100
AcDbBlockReference
  2
_DOTSMALL
 10
4744.673057123658
 20
4782.970891923529
 30
0.0
 41
100.0
 42
100.0
 43
100.0
 50
180.0
  0
MTEXT
  5
190CB
330
16E34
100
AcDbEntity
  8
寸法
 62
     7
 48
50.0
100
AcDbMText
 10
6059.673057123658
 20
4882.982702947151
 30
0.0
 40
120.0
 41
0.0
 71
     5
 72
     1
  1
\A1;柱外寸法2630
  7
STYLE1
 73
     1
 44
1.0
1001
ACAD
1000
MTEXTBEGIN
1070
    73
1070
     1
1070
    44
1040
1.0
1070
    74
1070
     0
1000
MTEXTEND
  0
POINT
  5
190CC
330
16E34
100
AcDbEntity
  8
DEFPOINTS
 62
     0
 48
50.0
100
AcDbPoint
 10
7374.673057123658
 20
4570.42930666529
 30
0.0
  0
POINT
  5
190CD
330
16E34
100
AcDbEntity
  8
DEFPOINTS
 62
     0
 48
50.0
100
AcDbPoint
 10
4744.673057123658
 20
4570.429306665292
 30
0.0
  0
POINT
  5
190CE
330
16E34
100
AcDbEntity
  8
DEFPOINTS
 62
     0
 48
50.0
100
AcDbPoint
 10
4744.673057123658
 20
4782.970891923529
 30
0.0
  0
ENDBLK
  5
16E3F
330
16E34
100
AcDbEntity
  8
0
 48
50.0
100
AcDbBlockEnd
  0
BLOCK
  5
16E4C
330
16E40
100
AcDbEntity
  8
0
 48
50.0
100
AcDbBlockBegin
  2
*D23
 70
     1
 10
0.0
 20
0.0
 30
0.0
  3
*D23
  1

  0
LINE
  5
17184
330
16E40
100
AcDbEntity
  8
寸法
 62
     0
 48
50.0
370
    -2
100
AcDbLine
 10
4744.673057123658
 20
4590.429306665291
 30
0.0
 11
4744.673057123658
 21
4842.970891923529
 31
0.0
  0
LINE
  5
17185
330
16E40
100
AcDbEntity
  8
寸法
 62
     0
 48
50.0
370
    -2
100
AcDbLine
 10
4694.673057123658
 20
4590.429306665289
 30
0.0
 11
4694.673057123658
 21
4842.970891923529
 31
0.0
  0
LINE
  5
17186
330
16E40
100
AcDbEntity
  8
寸法
 62
     0
 48
50.0
370
    -2
100
AcDbLine
 10
4744.673057123658
 20
4782.970891923529
 30
0.0
 11
4844.673057123658
 21
4782.970891923529
 31
0.0
  0
LINE
  5
17187
330
16E40
100
AcDbEntity
  8
寸法
 62
     0
 48
50.0
370
    -2
100
AcDbLine
 10
4694.673057123658
 20
4782.970891923529
 30
0.0
 11
4275.140531654924
 21
4782.970891923529
 31
0.0
  0
LINE
  5
17188
330
16E40
100
AcDbEntity
  8
寸法
 62
     0
 48
50.0
370
    -2
100
AcDbLine
 10
4744.673057123658
 20
4782.970891923529
 30
0.0
 11
4694.673057123658
 21
4782.970891923529
 31
0.0
  0
INSERT
  5
17189
330
16E40
100
AcDbEntity
  8
寸法
 62
     0
 48
50.0
370
    -2
100
AcDbBlockReference
  2
_DOTSMALL
 10
4744.673057123658
 20
4782.970891923529
 30
0.0
 41
100.0
 42
100.0
 43
100.0
 50
180.0
  0
INSERT
  5
1718A
330
16E40
100
AcDbEntity
  8
寸法
 62
     0
 48
50.0
370
    -2
100
AcDbBlockReference
  2
_DOTSMALL
 10
4694.673057123658
 20
4782.970891923529
 30
0.0
 41
100.0
 42
100.0
 43
100.0
  0
MTEXT
  5
1718B
330
16E40
100
AcDbEntity
  8
寸法
 62
     7
 48
50.0
100
AcDbMText
 10
4381.187775749411
 20
4882.970891923529
 30
0.0
 40
120.0
 41
0.0
 71
     5
 72
     1
  1
\A1;50
  7
STYLE1
 73
     1
 44
1.0
1001
ACAD
1000
MTEXTBEGIN
1070
    73
1070
     1
1070
    44
1040
1.0
1070
    74
1070
     0
1000
MTEXTEND
  0
POINT
  5
1718C
330
16E40
100
AcDbEntity
  8
DEFPOINTS
 62
     0
 48
50.0
100
AcDbPoint
 10
4744.673057123658
 20
4570.429306665292
 30
0.0
  0
POINT
  5
1718D
330
16E40
100
AcDbEntity
  8
DEFPOINTS
 62
     0
 48
50.0
100
AcDbPoint
 10
4694.673057123658
 20
4570.42930666529
 30
0.0
  0
POINT
  5
1718E
330
16E40
100
AcDbEntity
  8
DEFPOINTS
 62
     0
 48
50.0
100
AcDbPoint
 10
4694.673057123658
 20
4782.970891923529
 30
0.0
  0
ENDBLK
  5
16E4D
330
16E40
100
AcDbEntity
  8
0
 48
50.0
100
AcDbBlockEnd
  0
BLOCK
  5
16E5A
330
16E4E
100
AcDbEntity
  8
0
 48
50.0
100
AcDbBlockBegin
  2
*D24
 70
     1
 10
0.0
 20
0.0
 30
0.0
  3
*D24
  1

  0
LINE
  5
17179
330
16E4E
100
AcDbEntity
  8
寸法
 62
     0
 48
50.0
370
    -2
100
AcDbLine
 10
7424.673057123658
 20
4590.429306665288
 30
0.0
 11
7424.673057123658
 21
4842.970891923529
 31
0.0
  0
LINE
  5
1717A
330
16E4E
100
AcDbEntity
  8
寸法
 62
     0
 48
50.0
370
    -2
100
AcDbLine
 10
7374.673057123658
 20
4590.429306665289
 30
0.0
 11
7374.673057123658
 21
4842.970891923529
 31
0.0
  0
LINE
  5
1717B
330
16E4E
100
AcDbEntity
  8
寸法
 62
     0
 48
50.0
370
    -2
100
AcDbLine
 10
7374.673057123658
 20
4782.970891923529
 30
0.0
 11
7274.673057123658
 21
4782.970891923529
 31
0.0
  0
LINE
  5
1717C
330
16E4E
100
AcDbEntity
  8
寸法
 62
     0
 48
50.0
370
    -2
100
AcDbLine
 10
7424.673057123658
 20
4782.970891923529
 30
0.0
 11
7844.205582592383
 21
4782.970891923529
 31
0.0
  0
LINE
  5
1717D
330
16E4E
100
AcDbEntity
  8
寸法
 62
     0
 48
50.0
370
    -2
100
AcDbLine
 10
7374.673057123658
 20
4782.970891923529
 30
0.0
 11
7424.673057123658
 21
4782.970891923529
 31
0.0
  0
INSERT
  5
1717E
330
16E4E
100
AcDbEntity
  8
寸法
 62
     0
 48
50.0
370
    -2
100
AcDbBlockReference
  2
_DOTSMALL
 10
7374.673057123658
 20
4782.970891923529
 30
0.0
 41
100.0
 42
100.0
 43
100.0
  0
INSERT
  5
1717F
330
16E4E
100
AcDbEntity
  8
寸法
 62
     0
 48
50.0
370
    -2
100
AcDbBlockReference
  2
_DOTSMALL
 10
7424.673057123658
 20
4782.970891923529
 30
0.0
 41
100.0
 42
100.0
 43
100.0
 50
180.0
  0
MTEXT
  5
17180
330
16E4E
100
AcDbEntity
  8
寸法
 62
     7
 48
50.0
100
AcDbMText
 10
7738.158338497895
 20
4882.970891923529
 30
0.0
 40
120.0
 41
0.0
 71
     5
 72
     1
  1
\A1;50
  7
STYLE1
 73
     1
 44
1.0
1001
ACAD
1000
MTEXTBEGIN
1070
    73
1070
     1
1070
    44
1040
1.0
1070
    74
1070
     0
1000
MTEXTEND
  0
POINT
  5
17181
330
16E4E
100
AcDbEntity
  8
DEFPOINTS
 62
     0
 48
50.0
100
AcDbPoint
 10
7424.673057123658
 20
4570.429306665288
 30
0.0
  0
POINT
  5
17182
330
16E4E
100
AcDbEntity
  8
DEFPOINTS
 62
     0
 48
50.0
100
AcDbPoint
 10
7374.673057123658
 20
4570.42930666529
 30
0.0
  0
POINT
  5
17183
330
16E4E
100
AcDbEntity
  8
DEFPOINTS
 62
     0
 48
50.0
100
AcDbPoint
 10
7374.673057123658
 20
4782.970891923529
 30
0.0
  0
ENDBLK
  5
16E5B
330
16E4E
100
AcDbEntity
  8
0
 48
50.0
100
AcDbBlockEnd
  0
BLOCK
  5
16E66
330
16E5C
100
AcDbEntity
  8
0
 48
50.0
100
AcDbBlockBegin
  2
*D25
 70
     1
 10
0.0
 20
0.0
 30
0.0
  3
*D25
  1

  0
LINE
  5
190BD
330
16E5C
100
AcDbEntity
  8
寸法
 62
     0
 48
50.0
370
    -2
100
AcDbLine
 10
4694.673057123658
 20
4590.429306665289
 30
0.0
 11
4694.673057123658
 21
5058.366323405784
 31
0.0
  0
LINE
  5
190BE
330
16E5C
100
AcDbEntity
  8
寸法
 62
     0
 48
50.0
370
    -2
100
AcDbLine
 10
7424.673057123658
 20
4590.429306665288
 30
0.0
 11
7424.673057123658
 21
5058.366323405784
 31
0.0
  0
LINE
  5
190BF
330
16E5C
100
AcDbEntity
  8
寸法
 62
     0
 48
50.0
370
    -2
100
AcDbLine
 10
4694.673057123658
 20
4998.366323405784
 30
0.0
 11
7424.673057123658
 21
4998.366323405784
 31
0.0
  0
INSERT
  5
190C0
330
16E5C
100
AcDbEntity
  8
寸法
 62
     0
 48
50.0
370
    -2
100
AcDbBlockReference
  2
_DOTSMALL
 10
4694.673057123658
 20
4998.366323405784
 30
0.0
 41
100.0
 42
100.0
 43
100.0
 50
180.0
  0
INSERT
  5
190C1
330
16E5C
100
AcDbEntity
  8
寸法
 62
     0
 48
50.0
370
    -2
100
AcDbBlockReference
  2
_DOTSMALL
 10
7424.673057123658
 20
4998.366323405784
 30
0.0
 41
100.0
 42
100.0
 43
100.0
  0
MTEXT
  5
190C2
330
16E5C
100
AcDbEntity
  8
寸法
 62
     7
 48
50.0
100
AcDbMText
 10
6059.673057123658
 20
5098.378134429406
 30
0.0
 40
120.0
 41
0.0
 71
     5
 72
     1
  1
\A1;2730
  7
STYLE1
 73
     1
 44
1.0
1001
ACAD
1000
MTEXTBEGIN
1070
    73
1070
     1
1070
    44
1040
1.0
1070
    74
1070
     0
1000
MTEXTEND
  0
POINT
  5
190C3
330
16E5C
100
AcDbEntity
  8
DEFPOINTS
 62
     0
 48
50.0
100
AcDbPoint
 10
4694.673057123658
 20
4570.42930666529
 30
0.0
  0
POINT
  5
190C4
330
16E5C
100
AcDbEntity
  8
DEFPOINTS
 62
     0
 48
50.0
100
AcDbPoint
 10
7424.673057123658
 20
4570.429306665288
 30
0.0
  0
POINT
  5
190C5
330
16E5C
100
AcDbEntity
  8
DEFPOINTS
 62
     0
 48
50.0
100
AcDbPoint
 10
7424.673057123658
 20
4998.366323405784
 30
0.0
  0
ENDBLK
  5
16E67
330
16E5C
100
AcDbEntity
  8
0
 48
50.0
100
AcDbBlockEnd
  0
BLOCK
  5
16F76
330
16F6C
100
AcDbEntity
  8
0
 48
50.0
100
AcDbBlockBegin
  2
*D26
 70
     1
 10
0.0
 20
0.0
 30
0.0
  3
*D26
  1

  0
LINE
  5
17123
330
16F6C
100
AcDbEntity
  8
寸法
 62
     0
 48
50.0
370
    -2
100
AcDbLine
 10
11120.47043893114
 20
2195.429306665286
 30
0.0
 11
11865.39759690326
 21
2195.429306665286
 31
0.0
  0
LINE
  5
17124
330
16F6C
100
AcDbEntity
  8
寸法
 62
     0
 48
50.0
370
    -2
100
AcDbLine
 10
11215.47043893114
 20
4515.429306665286
 30
0.0
 11
11865.39759690326
 21
4515.429306665286
 31
0.0
  0
LINE
  5
17125
330
16F6C
100
AcDbEntity
  8
寸法
 62
     0
 48
50.0
370
    -2
100
AcDbLine
 10
11805.39759690326
 20
2195.429306665286
 30
0.0
 11
11805.39759690326
 21
4515.429306665286
 31
0.0
  0
INSERT
  5
17126
330
16F6C
100
AcDbEntity
  8
寸法
 62
     0
 48
50.0
370
    -2
100
AcDbBlockReference
  2
_DOTSMALL
 10
11805.39759690326
 20
2195.429306665286
 30
0.0
 41
100.0
 42
100.0
 43
100.0
 50
270.0
  0
INSERT
  5
17127
330
16F6C
100
AcDbEntity
  8
寸法
 62
     0
 48
50.0
370
    -2
100
AcDbBlockReference
  2
_DOTSMALL
 10
11805.39759690326
 20
4515.429306665286
 30
0.0
 41
100.0
 42
100.0
 43
100.0
 50
90.0
  0
MTEXT
  5
17128
330
16F6C
100
AcDbEntity
  8
寸法
 62
     7
 48
50.0
100
AcDbMText
 10
11705.38578587964
 20
3350.429306665287
 30
0.0
 40
120.0
 41
0.0
 71
     5
 72
     1
  1
\A1;2320
  7
STYLE1
 11
0.0000000000000001
 21
1.0
 31
0.0
 73
     1
 44
1.0
1001
ACAD
1000
MTEXTBEGIN
1070
    73
1070
     1
1070
    44
1040
1.0
1070
    74
1070
     0
1000
MTEXTEND
  0
POINT
  5
17129
330
16F6C
100
AcDbEntity
  8
DEFPOINTS
 62
     0
 48
50.0
100
AcDbPoint
 10
11100.47043893114
 20
2195.429306665286
 30
0.0
  0
POINT
  5
1712A
330
16F6C
100
AcDbEntity
  8
DEFPOINTS
 62
     0
 48
50.0
100
AcDbPoint
 10
11195.47043893114
 20
4515.429306665286
 30
0.0
  0
POINT
  5
1712B
330
16F6C
100
AcDbEntity
  8
DEFPOINTS
 62
     0
 48
50.0
100
AcDbPoint
 10
11805.39759690326
 20
4515.429306665286
 30
0.0
  0
ENDBLK
  5
16F77
330
16F6C
100
AcDbEntity
  8
0
 48
50.0
100
AcDbBlockEnd
  0
BLOCK
  5
16F84
330
16F78
100
AcDbEntity
  8
0
 48
50.0
100
AcDbBlockBegin
  2
*D27
 70
     1
 10
0.0
 20
0.0
 30
0.0
  3
*D27
  1

  0
LINE
  5
17118
330
16F78
100
AcDbEntity
  8
寸法
 62
     0
 48
50.0
370
    -2
100
AcDbLine
 10
9290.470438931139
 20
2245.429306665286
 30
0.0
 11
8406.72030974788
 21
2245.429306665287
 31
0.0
  0
LINE
  5
17119
330
16F78
100
AcDbEntity
  8
寸法
 62
     0
 48
50.0
370
    -2
100
AcDbLine
 10
9235.470438931139
 20
2195.429306665286
 30
0.0
 11
8406.72030974788
 21
2195.429306665287
 31
0.0
  0
LINE
  5
1711A
330
16F78
100
AcDbEntity
  8
寸法
 62
     0
 48
50.0
370
    -2
100
AcDbLine
 10
8466.720309747881
 20
2245.429306665287
 30
0.0
 11
8466.720309747881
 21
2345.429306665287
 31
0.0
  0
LINE
  5
1711B
330
16F78
100
AcDbEntity
  8
寸法
 62
     0
 48
50.0
370
    -2
100
AcDbLine
 10
8466.720309747881
 20
2195.429306665287
 30
0.0
 11
8466.720309747881
 21
1705.632062570797
 31
0.0
  0
LINE
  5
1711C
330
16F78
100
AcDbEntity
  8
寸法
 62
     0
 48
50.0
370
    -2
100
AcDbLine
 10
8466.720309747881
 20
2245.429306665287
 30
0.0
 11
8466.720309747881
 21
2195.429306665287
 31
0.0
  0
INSERT
  5
1711D
330
16F78
100
AcDbEntity
  8
寸法
 62
     0
 48
50.0
370
    -2
100
AcDbBlockReference
  2
_DOTSMALL
 10
8466.720309747881
 20
2245.429306665287
 30
0.0
 41
100.0
 42
100.0
 43
100.0
 50
270.0
  0
INSERT
  5
1711E
330
16F78
100
AcDbEntity
  8
寸法
 62
     0
 48
50.0
370
    -2
100
AcDbBlockReference
  2
_DOTSMALL
 10
8466.720309747881
 20
2195.429306665287
 30
0.0
 41
100.0
 42
100.0
 43
100.0
 50
90.0
  0
MTEXT
  5
1711F
330
16F78
100
AcDbEntity
  8
寸法
 62
     7
 48
50.0
100
AcDbMText
 10
8366.720309747881
 20
1811.679306665286
 30
0.0
 40
120.0
 41
0.0
 71
     5
 72
     1
  1
\A1;50
  7
STYLE1
 11
0.0000000000000001
 21
1.0
 31
0.0
 73
     1
 44
1.0
1001
ACAD
1000
MTEXTBEGIN
1070
    73
1070
     1
1070
    44
1040
1.0
1070
    74
1070
     0
1000
MTEXTEND
  0
POINT
  5
17120
330
16F78
100
AcDbEntity
  8
DEFPOINTS
 62
     0
 48
50.0
100
AcDbPoint
 10
9310.470438931139
 20
2245.429306665286
 30
0.0
  0
POINT
  5
17121
330
16F78
100
AcDbEntity
  8
DEFPOINTS
 62
     0
 48
50.0
100
AcDbPoint
 10
9255.470438931139
 20
2195.429306665286
 30
0.0
  0
POINT
  5
17122
330
16F78
100
AcDbEntity
  8
DEFPOINTS
 62
     0
 48
50.0
100
AcDbPoint
 10
8466.720309747881
 20
2195.429306665287
 30
0.0
  0
ENDBLK
  5
16F85
330
16F78
100
AcDbEntity
  8
0
 48
50.0
100
AcDbBlockEnd
  0
BLOCK
  5
16F91
330
16F86
100
AcDbEntity
  8
0
 48
50.0
100
AcDbBlockBegin
  2
*D28
 70
     1
 10
0.0
 20
0.0
 30
0.0
  3
*D28
  1

  0
LINE
  5
1710E
330
16F86
100
AcDbEntity
  8
寸法
 62
     0
 48
50.0
370
    -2
100
AcDbLine
 10
9235.470438931139
 20
2195.429306665286
 30
0.0
 11
8106.720309747881
 21
2195.429306665287
 31
0.0
  0
LINE
  5
1710F
330
16F86
100
AcDbEntity
  8
寸法
 62
     0
 48
50.0
370
    -2
100
AcDbLine
 10
8233.969363036008
 20
2095.429306665286
 30
0.0
 11
8106.720309747881
 21
2095.429306665286
 31
0.0
  0
LINE
  5
17110
330
16F86
100
AcDbEntity
  8
寸法
 62
     0
 48
50.0
370
    -2
100
AcDbLine
 10
8166.72030974788
 20
2195.429306665287
 30
0.0
 11
8166.72030974788
 21
2095.429306665286
 31
0.0
  0
LINE
  5
17111
330
16F86
100
AcDbEntity
  8
寸法
 62
     0
 48
50.0
370
    -2
100
AcDbLine
 10
8166.72030974788
 20
2095.429306665286
 30
0.0
 11
8166.72030974788
 21
1544.382062570797
 31
0.0
  0
INSERT
  5
17112
330
16F86
100
AcDbEntity
  8
寸法
 62
     0
 48
50.0
370
    -2
100
AcDbBlockReference
  2
_DOTSMALL
 10
8166.72030974788
 20
2195.429306665287
 30
0.0
 41
100.0
 42
100.0
 43
100.0
 50
90.0
  0
INSERT
  5
17113
330
16F86
100
AcDbEntity
  8
寸法
 62
     0
 48
50.0
370
    -2
100
AcDbBlockReference
  2
_DOTSMALL
 10
8166.72030974788
 20
2095.429306665286
 30
0.0
 41
100.0
 42
100.0
 43
100.0
 50
270.0
  0
MTEXT
  5
17114
330
16F86
100
AcDbEntity
  8
寸法
 62
     7
 48
50.0
100
AcDbMText
 10
8066.72030974788
 20
1680.429306665286
 30
0.0
 40
120.0
 41
0.0
 71
     5
 72
     1
  1
\A1;100
  7
STYLE1
 11
0.0000000000000001
 21
1.0
 31
0.0
 73
     1
 44
1.0
1001
ACAD
1000
MTEXTBEGIN
1070
    73
1070
     1
1070
    44
1040
1.0
1070
    74
1070
     0
1000
MTEXTEND
  0
POINT
  5
17115
330
16F86
100
AcDbEntity
  8
DEFPOINTS
 62
     0
 48
50.0
100
AcDbPoint
 10
9255.470438931139
 20
2195.429306665286
 30
0.0
  0
POINT
  5
17116
330
16F86
100
AcDbEntity
  8
DEFPOINTS
 62
     0
 48
50.0
100
AcDbPoint
 10
8253.969363036008
 20
2095.429306665286
 30
0.0
  0
POINT
  5
17117
330
16F86
100
AcDbEntity
  8
DEFPOINTS
 62
     0
 48
50.0
100
AcDbPoint
 10
8166.72030974788
 20
2095.429306665286
 30
0.0
  0
ENDBLK
  5
16F92
330
16F86
100
AcDbEntity
  8
0
 48
50.0
100
AcDbBlockEnd
  0
BLOCK
  5
16FA9
330
16F9F
100
AcDbEntity
  8
0
 48
50.0
100
AcDbBlockBegin
  2
*D29
 70
     1
 10
0.0
 20
0.0
 30
0.0
  3
*D29
  1

  0
LINE
  5
170FC
330
16F9F
100
AcDbEntity
  8
寸法
 62
     0
 48
50.0
370
    -2
100
AcDbLine
 10
9290.470438931139
 20
4335.429306665286
 30
0.0
 11
8406.72030974788
 21
4335.429306665286
 31
0.0
  0
LINE
  5
170FD
330
16F9F
100
AcDbEntity
  8
寸法
 62
     0
 48
50.0
370
    -2
100
AcDbLine
 10
9290.470438931139
 20
2245.429306665286
 30
0.0
 11
8406.72030974788
 21
2245.429306665287
 31
0.0
  0
LINE
  5
170FE
330
16F9F
100
AcDbEntity
  8
寸法
 62
     0
 48
50.0
370
    -2
100
AcDbLine
 10
8466.720309747882
 20
4335.429306665286
 30
0.0
 11
8466.720309747881
 21
2245.429306665287
 31
0.0
  0
INSERT
  5
170FF
330
16F9F
100
AcDbEntity
  8
寸法
 62
     0
 48
50.0
370
    -2
100
AcDbBlockReference
  2
_DOTSMALL
 10
8466.720309747882
 20
4335.429306665286
 30
0.0
 41
100.0
 42
100.0
 43
100.0
 50
90.0
  0
INSERT
  5
17100
330
16F9F
100
AcDbEntity
  8
寸法
 62
     0
 48
50.0
370
    -2
100
AcDbBlockReference
  2
_DOTSMALL
 10
8466.720309747881
 20
2245.429306665287
 30
0.0
 41
100.0
 42
100.0
 43
100.0
 50
270.0
  0
MTEXT
  5
17101
330
16F9F
100
AcDbEntity
  8
寸法
 62
     7
 48
50.0
100
AcDbMText
 10
8366.708498724257
 20
3290.429306665288
 30
0.0
 40
120.0
 41
0.0
 71
     5
 72
     1
  1
\A1;2090
  7
STYLE1
 11
0.0000000000000001
 21
1.0
 31
0.0
 73
     1
 44
1.0
1001
ACAD
1000
MTEXTBEGIN
1070
    73
1070
     1
1070
    44
1040
1.0
1070
    74
1070
     0
1000
MTEXTEND
  0
POINT
  5
17102
330
16F9F
100
AcDbEntity
  8
DEFPOINTS
 62
     0
 48
50.0
100
AcDbPoint
 10
9310.470438931139
 20
4335.429306665286
 30
0.0
  0
POINT
  5
17103
330
16F9F
100
AcDbEntity
  8
DEFPOINTS
 62
     0
 48
50.0
100
AcDbPoint
 10
9310.470438931139
 20
2245.429306665286
 30
0.0
  0
POINT
  5
17104
330
16F9F
100
AcDbEntity
  8
DEFPOINTS
 62
     0
 48
50.0
100
AcDbPoint
 10
8466.720309747881
 20
2245.429306665287
 30
0.0
  0
ENDBLK
  5
16FAA
330
16F9F
100
AcDbEntity
  8
0
 48
50.0
100
AcDbBlockEnd
  0
BLOCK
  5
1878E
330
18784
100
AcDbEntity
  8
0
 48
50.0
100
AcDbBlockBegin
  2
*D30
 70
     1
 10
0.0
 20
0.0
 30
0.0
  3
*D30
  1

  0
LINE
  5
18790
330
18784
100
AcDbEntity
  8
寸法
 62
     0
 48
50.0
370
    -2
100
AcDbLine
 10
9290.470438931141
 20
2195.429306665285
 30
0.0
 11
8106.720309747881
 21
2195.429306665285
 31
0.0
  0
LINE
  5
18791
330
18784
100
AcDbEntity
  8
寸法
 62
     0
 48
50.0
370
    -2
100
AcDbLine
 10
9230.470438931146
 20
4570.42930666529
 30
0.0
 11
8106.720309747881
 21
4570.42930666529
 31
0.0
  0
LINE
  5
18792
330
18784
100
AcDbEntity
  8
寸法
 62
     0
 48
50.0
370
    -2
100
AcDbLine
 10
8166.720309747882
 20
2195.429306665285
 30
0.0
 11
8166.720309747882
 21
4570.42930666529
 31
0.0
  0
INSERT
  5
18793
330
18784
100
AcDbEntity
  8
寸法
 62
     0
 48
50.0
370
    -2
100
AcDbBlockReference
  2
_DOTSMALL
 10
8166.720309747882
 20
2195.429306665285
 30
0.0
 41
100.0
 42
100.0
 43
100.0
 50
270.0
  0
INSERT
  5
18794
330
18784
100
AcDbEntity
  8
寸法
 62
     0
 48
50.0
370
    -2
100
AcDbBlockReference
  2
_DOTSMALL
 10
8166.720309747882
 20
4570.42930666529
 30
0.0
 41
100.0
 42
100.0
 43
100.0
 50
90.0
  0
MTEXT
  5
18795
330
18784
100
AcDbEntity
  8
寸法
 62
     7
 48
50.0
100
AcDbMText
 10
8066.708498724258
 20
3382.929306665289
 30
0.0
 40
120.0
 41
0.0
 71
     5
 72
     1
  1
\A1;2375
  7
STYLE1
 11
0.0000000000000001
 21
1.0
 31
0.0
 73
     1
 44
1.0
1001
ACAD
1000
MTEXTBEGIN
1070
    73
1070
     1
1070
    44
1040
1.0
1070
    74
1070
     0
1000
MTEXTEND
  0
POINT
  5
18796
330
18784
100
AcDbEntity
  8
DEFPOINTS
 62
     0
 48
50.0
100
AcDbPoint
 10
9310.47043893114
 20
2195.429306665285
 30
0.0
  0
POINT
  5
18797
330
18784
100
AcDbEntity
  8
DEFPOINTS
 62
     0
 48
50.0
100
AcDbPoint
 10
9250.470438931143
 20
4570.42930666529
 30
0.0
  0
POINT
  5
18798
330
18784
100
AcDbEntity
  8
DEFPOINTS
 62
     0
 48
50.0
100
AcDbPoint
 10
8166.720309747882
 20
4570.42930666529
 30
0.0
  0
ENDBLK
  5
1878F
330
18784
100
AcDbEntity
  8
0
 48
50.0
100
AcDbBlockEnd
  0
BLOCK
  5
18D03
330
18CF9
100
AcDbEntity
  8
0
 48
50.0
100
AcDbBlockBegin
  2
*D31
 70
     1
 10
0.0
 20
0.0
 30
0.0
  3
*D31
  1

  0
LINE
  5
18DC4
330
18CF9
100
AcDbEntity
  8
寸法
 62
     0
 48
50.0
370
    -2
100
AcDbLine
 10
7394.673057123657
 20
2257.429306665287
 30
0.0
 11
7722.216159445403
 21
2257.429306665287
 31
0.0
  0
LINE
  5
18DC5
330
18CF9
100
AcDbEntity
  8
寸法
 62
     0
 48
50.0
370
    -2
100
AcDbLine
 10
7394.673057123657
 20
4143.429306665285
 30
0.0
 11
7722.216159445403
 21
4143.429306665285
 31
0.0
  0
LINE
  5
18DC6
330
18CF9
100
AcDbEntity
  8
寸法
 62
     0
 48
50.0
370
    -2
100
AcDbLine
 10
7662.216159445403
 20
2257.429306665287
 30
0.0
 11
7662.216159445403
 21
4143.429306665285
 31
0.0
  0
INSERT
  5
18DC7
330
18CF9
100
AcDbEntity
  8
寸法
 62
     0
 48
50.0
370
    -2
100
AcDbBlockReference
  2
_DOTSMALL
 10
7662.216159445403
 20
2257.429306665287
 30
0.0
 41
100.0
 42
100.0
 43
100.0
 50
270.0
  0
INSERT
  5
18DC8
330
18CF9
100
AcDbEntity
  8
寸法
 62
     0
 48
50.0
370
    -2
100
AcDbBlockReference
  2
_DOTSMALL
 10
7662.216159445403
 20
4143.429306665285
 30
0.0
 41
100.0
 42
100.0
 43
100.0
 50
90.0
  0
MTEXT
  5
18DC9
330
18CF9
100
AcDbEntity
  8
寸法
 62
     7
 48
50.0
100
AcDbMText
 10
7562.216159445402
 20
3200.429306665287
 30
0.0
 40
120.0
 41
0.0
 71
     5
 72
     1
  1
\A1;有効開口部高サ 1886
  7
STYLE1
 11
0.0000000000000001
 21
1.0
 31
0.0
 73
     1
 44
1.0
1001
ACAD
1000
MTEXTBEGIN
1070
    73
1070
     1
1070
    44
1040
1.0
1070
    74
1070
     0
1000
MTEXTEND
  0
POINT
  5
18DCA
330
18CF9
100
AcDbEntity
  8
DEFPOINTS
 62
     0
 48
50.0
100
AcDbPoint
 10
7374.673057123657
 20
2257.429306665287
 30
0.0
  0
POINT
  5
18DCB
330
18CF9
100
AcDbEntity
  8
DEFPOINTS
 62
     0
 48
50.0
100
AcDbPoint
 10
7374.673057123658
 20
4143.429306665285
 30
0.0
  0
POINT
  5
18DCC
330
18CF9
100
AcDbEntity
  8
DEFPOINTS
 62
     0
 48
50.0
100
AcDbPoint
 10
7662.216159445403
 20
4143.429306665285
 30
0.0
  0
ENDBLK
  5
18D04
330
18CF9
100
AcDbEntity
  8
0
 48
50.0
100
AcDbBlockEnd
  0
BLOCK
  5
18D11
330
18D05
100
AcDbEntity
  8
0
 48
50.0
100
AcDbBlockBegin
  2
*D32
 70
     1
 10
0.0
 20
0.0
 30
0.0
  3
*D32
  1

  0
LINE
  5
190E2
330
18D05
100
AcDbEntity
  8
寸法
 62
     0
 48
50.0
370
    -2
100
AcDbLine
 10
7394.673057123657
 20
4143.429306665285
 30
0.0
 11
7722.216159445403
 21
4143.429306665285
 31
0.0
  0
LINE
  5
190E3
330
18D05
100
AcDbEntity
  8
寸法
 62
     0
 48
50.0
370
    -2
100
AcDbLine
 10
7394.673057123658
 20
4170.429306665287
 30
0.0
 11
7722.216159445403
 21
4170.429306665287
 31
0.0
  0
LINE
  5
190E4
330
18D05
100
AcDbEntity
  8
寸法
 62
     0
 48
50.0
370
    -2
100
AcDbLine
 10
7662.216159445403
 20
4143.429306665285
 30
0.0
 11
7662.216159445403
 21
4043.429306665285
 31
0.0
  0
LINE
  5
190E5
330
18D05
100
AcDbEntity
  8
寸法
 62
     0
 48
50.0
370
    -2
100
AcDbLine
 10
7662.216159445403
 20
4170.429306665287
 30
0.0
 11
7662.216159445403
 21
4270.429306665287
 31
0.0
  0
MTEXT
  5
190E6
330
18D05
100
AcDbEntity
  8
寸法
 62
     7
 48
50.0
100
AcDbMText
 10
7802.385982691768
 20
4171.396506504945
 30
0.0
 40
120.0
 41
0.0
 71
     5
 72
     1
  1
\A1;27
  7
STYLE1
 11
0.0000000000000001
 21
1.0
 31
0.0
 73
     1
 44
1.0
1001
ACAD
1000
MTEXTBEGIN
1070
    73
1070
     1
1070
    44
1040
1.0
1070
    74
1070
     0
1000
MTEXTEND
  0
LINE
  5
190E7
330
18D05
100
AcDbEntity
  8
寸法
 62
     0
 48
50.0
370
    -2
100
AcDbLine
 10
7662.216159445403
 20
4143.429306665285
 30
0.0
 11
7662.216159445403
 21
4170.429306665287
 31
0.0
  0
INSERT
  5
190E8
330
18D05
100
AcDbEntity
  8
寸法
 62
     0
 48
50.0
370
    -2
100
AcDbBlockReference
  2
_DOTSMALL
 10
7662.216159445403
 20
4143.429306665285
 30
0.0
 41
100.0
 42
100.0
 43
100.0
 50
90.0
  0
INSERT
  5
190E9
330
18D05
100
AcDbEntity
  8
寸法
 62
     0
 48
50.0
370
    -2
100
AcDbBlockReference
  2
_DOTSMALL
 10
7662.216159445403
 20
4170.429306665287
 30
0.0
 41
100.0
 42
100.0
 43
100.0
 50
270.0
  0
POINT
  5
190EA
330
18D05
100
AcDbEntity
  8
DEFPOINTS
 62
     0
 48
50.0
100
AcDbPoint
 10
7374.673057123658
 20
4143.429306665285
 30
0.0
  0
POINT
  5
190EB
330
18D05
100
AcDbEntity
  8
DEFPOINTS
 62
     0
 48
50.0
100
AcDbPoint
 10
7374.673057123658
 20
4170.429306665287
 30
0.0
  0
POINT
  5
190EC
330
18D05
100
AcDbEntity
  8
DEFPOINTS
 62
     0
 48
50.0
100
AcDbPoint
 10
7662.216159445403
 20
4170.429306665287
 30
0.0
  0
ENDBLK
  5
18D12
330
18D05
100
AcDbEntity
  8
0
 48
50.0
100
AcDbBlockEnd
  0
BLOCK
  5
18D1E
330
18D13
100
AcDbEntity
  8
0
 48
50.0
100
AcDbBlockBegin
  2
*D33
 70
     1
 10
0.0
 20
0.0
 30
0.0
  3
*D33
  1

  0
LINE
  5
190D8
330
18D13
100
AcDbEntity
  8
寸法
 62
     0
 48
50.0
370
    -2
100
AcDbLine
 10
7394.673057123658
 20
4170.429306665287
 30
0.0
 11
7722.216159445403
 21
4170.429306665287
 31
0.0
  0
LINE
  5
190D9
330
18D13
100
AcDbEntity
  8
寸法
 62
     0
 48
50.0
370
    -2
100
AcDbLine
 10
7394.673057123657
 20
4335.429306665286
 30
0.0
 11
7722.216159445403
 21
4335.429306665286
 31
0.0
  0
LINE
  5
190DA
330
18D13
100
AcDbEntity
  8
寸法
 62
     0
 48
50.0
370
    -2
100
AcDbLine
 10
7662.216159445404
 20
4170.429306665287
 30
0.0
 11
7662.216159445404
 21
4335.429306665286
 31
0.0
  0
LINE
  5
190DB
330
18D13
100
AcDbEntity
  8
寸法
 62
     0
 48
50.0
370
    -2
100
AcDbLine
 10
7662.216159445404
 20
4335.429306665286
 30
0.0
 11
7662.216159445404
 21
4712.399869413764
 31
0.0
  0
INSERT
  5
190DC
330
18D13
100
AcDbEntity
  8
寸法
 62
     0
 48
50.0
370
    -2
100
AcDbBlockReference
  2
_DOTSMALL
 10
7662.216159445404
 20
4170.429306665287
 30
0.0
 41
100.0
 42
100.0
 43
100.0
 50
270.0
  0
INSERT
  5
190DD
330
18D13
100
AcDbEntity
  8
寸法
 62
     0
 48
50.0
370
    -2
100
AcDbBlockReference
  2
_DOTSMALL
 10
7662.216159445404
 20
4335.429306665286
 30
0.0
 41
100.0
 42
100.0
 43
100.0
 50
90.0
  0
MTEXT
  5
190DE
330
18D13
100
AcDbEntity
  8
寸法
 62
     7
 48
50.0
100
AcDbMText
 10
7562.216159445402
 20
4573.914588039526
 30
0.0
 40
120.0
 41
0.0
 71
     5
 72
     1
  1
\A1;165
  7
STYLE1
 11
0.0000000000000001
 21
1.0
 31
0.0
 73
     1
 44
1.0
1001
ACAD
1000
MTEXTBEGIN
1070
    73
1070
     1
1070
    44
1040
1.0
1070
    74
1070
     0
1000
MTEXTEND
  0
POINT
  5
190DF
330
18D13
100
AcDbEntity
  8
DEFPOINTS
 62
     0
 48
50.0
100
AcDbPoint
 10
7374.673057123658
 20
4170.429306665287
 30
0.0
  0
POINT
  5
190E0
330
18D13
100
AcDbEntity
  8
DEFPOINTS
 62
     0
 48
50.0
100
AcDbPoint
 10
7374.673057123657
 20
4335.429306665286
 30
0.0
  0
POINT
  5
190E1
330
18D13
100
AcDbEntity
  8
DEFPOINTS
 62
     0
 48
50.0
100
AcDbPoint
 10
7662.216159445404
 20
4335.429306665286
 30
0.0
  0
ENDBLK
  5
18D1F
330
18D13
100
AcDbEntity
  8
0
 48
50.0
100
AcDbBlockEnd
  0
ENDSEC
  0
SECTION
  2
ENTITIES
  0
MTEXT
  5
763F
330
747D
100
AcDbEntity
  8
0
100
AcDbMText
 10
302.846345836809
 20
280.1983726409901
 30
0.0
 40
3.5
 41
5.323721266742722
 71
     1
 72
     5
  1

  7
MSMINCHO
 73
     1
 44
1.0
1001
ACAD
1000
MTEXTBEGIN
1070
    73
1070
     1
1070
    44
1040
1.0
1070
    74
1070
     0
1000
MTEXTEND
  0
LINE
  5
10B57
330
747D
100
AcDbEntity
  8
補助
  6
PHANTOM
 62
   230
 48
50.0
100
AcDbLine
 10
139.9999999999995
 20
11409.6
 30
0.0
 11
16307.2
 21
11409.6
 31
0.0
  0
LINE
  5
10B59
330
747D
100
AcDbEntity
  8
仕様書枠
  6
Continuous
 48
50.0
100
AcDbLine
 10
13107.2
 20
1200.0
 30
0.0
 11
13107.2
 21
-0.0000000000000729
 31
0.0
  0
LINE
  5
10B5C
330
747D
100
AcDbEntity
  8
仕様書枠
 48
50.0
100
AcDbLine
 10
16307.2
 20
1200.0
 30
0.0
 11
16307.2
 21
-0.0000000000000909
 31
0.0
  0
LINE
  5
10B5D
330
747D
100
AcDbEntity
  8
仕様書枠
 48
50.0
100
AcDbLine
 10
140.0
 20
0.0
 30
0.0
 11
16307.2
 21
-0.0000000000000909
 31
0.0
  0
LINE
  5
10B5E
330
747D
100
AcDbEntity
  8
補助
  6
PHANTOM
 62
   230
 48
50.0
100
AcDbLine
 10
16307.2
 20
11409.6
 30
0.0
 11
16307.2
 21
1200.0
 31
0.0
  0
LINE
  5
10B6C
330
747D
100
AcDbEntity
  8
仕様書枠
 48
50.0
100
AcDbLine
 10
13107.2
 20
1200.0
 30
0.0
 11
16307.2
 21
1200.0
 31
0.0
  0
LINE
  5
10B6D
330
747D
100
AcDbEntity
  8
補助
  6
PHANTOM
 62
   230
 48
50.0
100
AcDbLine
 10
13107.2
 20
11409.6
 30
0.0
 11
13107.2
 21
4800.0
 31
0.0
  0
LINE
  5
10B6F
330
747D
100
AcDbEntity
  8
補助
  6
PHANTOM
 62
   230
 48
50.0
100
AcDbLine
 10
13107.2
 20
4800.0
 30
0.0
 11
16307.2
 21
4800.0
 31
0.0
  0
LINE
  5
10B72
330
747D
100
AcDbEntity
  8
文字
 62
     7
 48
50.0
100
AcDbLine
 10
13187.2
 20
400.0
 30
0.0
 11
16227.2
 21
400.0
 31
0.0
  0
TEXT
  5
10B73
330
747D
100
AcDbEntity
  8
文字
 62
     7
 48
50.0
100
AcDbText
 10
13162.9790565769
 20
895.0906074299405
 30
0.0
 40
200.0
  1
外 形 図
  7
STYLE2
100
AcDbText
  0
TEXT
  5
10B74
330
747D
100
AcDbEntity
  8
文字
 62
     7
 48
50.0
100
AcDbText
 10
13201.43669998441
 20
477.2740661031255
 30
0.0
 40
160.0
  1
機種名
  7
STYLE2
100
AcDbText
  0
TEXT
  5
10B75
330
747D
100
AcDbEntity
  8
文字
 62
     7
 48
50.0
100
AcDbText
 10
13209.4053442172
 20
228.5435242569016
 30
0.0
 40
100.0
  1
○有効開口寸法 ： 2424×1886(mm)
  7
STYLE2
100
AcDbText
  0
TEXT
  5
10B76
330
747D
100
AcDbEntity
  8
文字
 62
     7
 48
50.0
100
AcDbText
 10
13209.4053442172
 20
76.09434707649343
 30
0.0
 40
100.0
  1
○床面積 ： 4.71㎡(1.43坪) 　
  7
STYLE2
100
AcDbText
  0
TEXT
  5
10B79
330
747D
100
AcDbEntity
  8
文字
 62
     7
 48
50.0
100
AcDbText
 10
14524.131837222
 20
1031.557706291228
 30
0.0
 40
100.0
  1
NO.06      <縮尺> S=1/40
  7
STYLE2
100
AcDbText
  0
LINE
  5
10B7B
330
747D
100
AcDbEntity
  8
仕様書枠
 48
50.0
100
AcDbLine
 10
13107.2
 20
800.0
 30
0.0
 11
14251.2
 21
800.0
 31
0.0
  0
LINE
  5
10B88
330
747D
100
AcDbEntity
  8
仕様書枠
  6
Continuous
 48
50.0
100
AcDbLine
 10
14251.2
 20
1200.0
 30
0.0
 11
14251.2
 21
800.0
 31
0.0
  0
DIMENSION
  5
162CD
330
747D
100
AcDbEntity
  8
寸法
100
AcDbDimension
  2
*D1
 10
8022.099402858071
 20
7037.497424545951
 30
0.0
 11
7922.087591834449
 21
7877.497424545959
 31
0.0
 70
    32
  1
4X420=<>
 71
     5
 42
-1.0
  3
INABA_S40G
100
AcDbAlignedDimension
 13
7374.673057123664
 23
8717.497424545966
 33
0.0
 14
7374.673057123638
 24
7037.497424545953
 34
0.0
 50
90.0
100
AcDbRotatedDimension
1001
ACAD
1000
DSTYLE
1002
{
1002
}
  0
DIMENSION
  5
162CE
330
747D
100
AcDbEntity
  8
寸法
100
AcDbDimension
  2
*D2
 10
8022.099402858048
 20
6982.497424545956
 30
0.0
 11
8022.099402858048
 21
6604.635957641093
 31
0.0
 70
   160
 71
     5
 42
-1.0
  3
INABA_S40G
100
AcDbAlignedDimension
 13
7374.673057123638
 23
7037.497424545953
 33
0.0
 14
7374.673057123638
 24
6982.497424545956
 34
0.0
 50
90.0
100
AcDbRotatedDimension
1001
ACAD
1000
DSTYLE
1002
{
1002
}
  0
DIMENSION
  5
162CF
330
747D
100
AcDbEntity
  8
寸法
100
AcDbDimension
  2
*D3
 10
8022.099402858072
 20
8717.497424545966
 30
0.0
 11
8022.099402858072
 21
9080.982705920204
 31
0.0
 12
0.0
 22
-1260.0
 32
0.0
 70
   160
 71
     5
 42
-1.0
  3
INABA_S40G
100
AcDbAlignedDimension
 13
7374.673057123664
 23
8772.497424545964
 33
0.0
 14
7374.673057123664
 24
8717.497424545966
 34
0.0
 50
90.0
100
AcDbRotatedDimension
1001
ACAD
1000
DSTYLE
1002
{
1002
}
  0
DIMENSION
  5
162D0
330
747D
100
AcDbEntity
  8
寸法
100
AcDbDimension
  2
*D4
 10
8387.206344597709
 20
6982.497424545956
 30
0.0
 11
8287.206344597709
 21
7877.497424545959
 31
0.0
 70
    32
 71
     5
 42
-1.0
  3
INABA_S40G
100
AcDbAlignedDimension
 13
7374.673057123664
 23
8772.497424545964
 33
0.0
 14
7374.673057123638
 24
6982.497424545956
 34
0.0
 50
90.0
100
AcDbRotatedDimension
1001
ACAD
1000
DSTYLE
1002
{
1002
}
  0
LINE
  5
162D1
330
747D
100
AcDbEntity
  8
細線
 48
50.0
100
AcDbLine
 10
6046.173057123662
 20
8292.497424545976
 30
0.0
 11
4773.173057123663
 21
8742.497424545868
 31
0.0
  0
LINE
  5
162D2
330
747D
100
AcDbEntity
  8
細線
 48
50.0
100
AcDbLine
 10
6046.173057123663
 20
8742.497424545971
 30
0.0
 11
4773.173057123663
 21
8292.497424545869
 31
0.0
  0
LINE
  5
162D3
330
747D
100
AcDbEntity
  8
部品1
 48
50.0
100
AcDbLine
 10
4773.173057123663
 20
8742.497424545865
 30
0.0
 11
4773.173057123663
 21
8292.497424545866
 31
0.0
  0
LINE
  5
162D4
330
747D
100
AcDbEntity
  8
細線
 48
50.0
100
AcDbLine
 10
7346.173057123664
 20
8742.497424545964
 30
0.0
 11
6073.173057123662
 21
8292.497424545976
 31
0.0
  0
LINE
  5
162D5
330
747D
100
AcDbEntity
  8
細線
 48
50.0
100
AcDbLine
 10
7346.173057123664
 20
8292.497424545967
 30
0.0
 11
6073.173057123663
 21
8742.497424545966
 31
0.0
  0
LINE
  5
162D6
330
747D
100
AcDbEntity
  8
部品1
 48
50.0
100
AcDbLine
 10
6046.173057123663
 20
8742.497424545971
 30
0.0
 11
6046.173057123663
 21
8292.497424545976
 31
0.0
  0
LINE
  5
162D7
330
747D
100
AcDbEntity
  8
部品1
 48
50.0
100
AcDbLine
 10
6073.173057123663
 20
8742.497424545966
 30
0.0
 11
6073.173057123663
 21
8292.497424545976
 31
0.0
  0
LINE
  5
162D8
330
747D
100
AcDbEntity
  8
部品1
 48
50.0
100
AcDbLine
 10
6047.173057123662
 20
8744.497424545977
 30
0.0
 11
6047.173057123663
 21
8292.497424545976
 31
0.0
  0
LINE
  5
162D9
330
747D
100
AcDbEntity
  8
部品1
 48
50.0
100
AcDbLine
 10
6072.173057123663
 20
8744.497424545974
 30
0.0
 11
6072.173057123663
 21
8292.497424545976
 31
0.0
  0
DIMENSION
  5
162DA
330
747D
100
AcDbEntity
  8
寸法
100
AcDbDimension
  2
*D5
 10
7701.530782985688
 20
8197.279608877078
 30
0.0
 11
7601.530782985688
 21
9682.279608877076
 31
0.0
 12
0.0
 22
-1260.0
 32
0.0
 70
    32
 71
     5
 42
-1.0
  3
INABA_S40G
100
AcDbAlignedDimension
 13
7346.173057123664
 23
8742.497424545964
 33
0.0
 14
7346.173057123664
 24
8292.497424545967
 34
0.0
 50
90.0
100
AcDbRotatedDimension
1001
ACAD
1000
DSTYLE
1002
{
1002
}
  0
LINE
  5
162DB
330
747D
100
AcDbEntity
  8
部品1
100
AcDbLine
 10
7346.173057123664
 20
8742.497424545964
 30
0.0
 11
7346.173057123664
 21
8292.497424545967
 31
0.0
  0
LINE
  5
162DC
330
747D
100
AcDbEntity
  8
部品1
100
AcDbLine
 10
7346.673057123648
 20
8744.497424545963
 30
0.0
 11
7346.673057123641
 21
7037.497424545953
 31
0.0
  0
LINE
  5
162DD
330
747D
100
AcDbEntity
  8
部品1
100
AcDbLine
 10
4772.673057123639
 20
7037.497424545822
 30
0.0
 11
4772.673057123649
 21
8744.497424545871
 31
0.0
  0
LINE
  5
162DE
330
747D
100
AcDbEntity
  8
部品1
100
AcDbLine
 10
7374.673057123664
 20
8772.497424545964
 30
0.0
 11
7374.673057123638
 21
6982.497424545956
 31
0.0
  0
LINE
  5
162DF
330
747D
100
AcDbEntity
  8
部品1
100
AcDbLine
 10
4744.673057123629
 20
8772.497424545838
 30
0.0
 11
4744.673057123656
 21
6982.497424545825
 31
0.0
  0
LINE
  5
162E0
330
747D
100
AcDbEntity
  8
破線
 48
10.0
100
AcDbLine
 10
5619.17305712368
 20
7117.997424545818
 30
0.0
 11
4824.673057123692
 21
7117.997424545793
 31
0.0
  0
LINE
  5
162E1
330
747D
100
AcDbEntity
  8
部品1
100
AcDbLine
 10
7319.673057123655
 20
7094.497424545839
 30
0.0
 11
4799.673057123628
 21
7094.497424545841
 31
0.0
  0
DIMENSION
  5
162E2
330
747D
100
AcDbEntity
  8
寸法
100
AcDbDimension
  2
*D6
 10
5954.149210862352
 20
7949.059754790699
 30
0.0
 11
5317.649210862346
 21
8049.071565814321
 31
0.0
 70
    32
 71
     5
 42
-1.0
  3
INABA_S40G
100
AcDbAlignedDimension
 13
4773.173057123663
 23
8292.497424545869
 33
0.0
 14
6046.173057123676
 24
8292.497424545862
 34
0.0
100
AcDbRotatedDimension
1001
ACAD
1000
DSTYLE
1002
{
1002
}
  0
LINE
  5
162E3
330
747D
100
AcDbEntity
  8
部品1
100
AcDbLine
 10
4773.173057123663
 20
8292.497424545869
 30
0.0
 11
6046.173057123662
 21
8292.497424545976
 31
0.0
  0
DIMENSION
  5
162E4
330
747D
100
AcDbEntity
  8
寸法
 48
50.0
100
AcDbDimension
  2
*D7
 10
4847.673057123657
 20
6448.066653779701
 30
0.0
 11
6059.673057123648
 21
6548.078464803322
 31
0.0
 70
    32
  1
有効開口部間口 <>
 71
     5
 42
-1.0
  3
INABA_S40G
100
AcDbAlignedDimension
 13
7271.673057123638
 23
7008.497424545865
 33
0.0
 14
4847.673057123657
 24
7008.497424545864
 34
0.0
100
AcDbRotatedDimension
1001
ACAD
1000
DSTYLE
1002
{
1070
    75
1070
     1
1070
   279
1070
     2
1002
}
  0
LINE
  5
162E5
330
747D
100
AcDbEntity
  8
部品1
100
AcDbLine
 10
7319.673057123655
 20
7067.49742454584
 30
0.0
 11
4799.673057123628
 21
7067.497424545841
 31
0.0
  0
LINE
  5
162E6
330
747D
100
AcDbEntity
  8
部品1
 48
50.0
100
AcDbLine
 10
4811.673057123655
 20
7027.997424545863
 30
0.0
 11
7307.67305712364
 21
7027.997424545863
 31
0.0
  0
DIMENSION
  5
162E7
330
747D
100
AcDbEntity
  8
寸法
100
AcDbDimension
  2
*D8
 10
7374.673057123638
 20
6161.893658188827
 30
0.0
 11
6059.673057123648
 21
6261.905469212448
 31
0.0
 70
    32
 71
     5
 42
-1.0
  3
INABA_S40G
100
AcDbAlignedDimension
 13
4744.673057123656
 23
6982.497424545792
 33
0.0
 14
7374.673057123638
 24
6982.49742454592
 34
0.0
100
AcDbRotatedDimension
1001
ACAD
1000
DSTYLE
1002
{
1002
}
  0
LINE
  5
162E8
330
747D
100
AcDbEntity
  8
部品1
100
AcDbLine
 10
4799.67305712364
 20
8292.497424545871
 30
0.0
 11
4799.673057123656
 21
7047.497424545864
 31
0.0
  0
DIMENSION
  5
162EA
330
747D
100
AcDbEntity
  8
寸法
 48
50.0
100
AcDbDimension
  2
*D9
 10
4744.673057123656
 20
6448.066653779701
 30
0.0
 11
4436.187775749418
 21
6448.066653779701
 31
0.0
 70
   160
 71
     5
 42
-1.0
  3
INABA_S40G
100
AcDbAlignedDimension
 13
4799.673057123653
 23
6982.497424545865
 33
0.0
 14
4744.673057123656
 24
6982.497424545861
 34
0.0
100
AcDbRotatedDimension
1001
ACAD
1000
DSTYLE
1002
{
1002
}
  0
DIMENSION
  5
162EB
330
747D
100
AcDbEntity
  8
寸法
 48
50.0
100
AcDbDimension
  2
*D10
 10
4799.673057123653
 20
6448.066653779701
 30
0.0
 11
4960.575028123714
 21
6548.0666537797
 31
0.0
 70
   160
 71
     5
 42
-1.0
  3
INABA_S40G
100
AcDbAlignedDimension
 13
4847.673057123657
 23
7008.497424545864
 33
0.0
 14
4799.673057123653
 24
6982.497424545865
 34
0.0
100
AcDbRotatedDimension
1001
ACAD
1000
DSTYLE
1002
{
1070
   279
1070
     2
1002
}
  0
LINE
  5
162EC
330
747D
100
AcDbEntity
  8
部品1
100
AcDbLine
 10
4799.673057123652
 20
6982.497424545865
 30
0.0
 11
4744.673057123656
 21
6982.497424545861
 31
0.0
  0
LINE
  5
162ED
330
747D
100
AcDbEntity
  8
部品1
 48
50.0
100
AcDbLine
 10
4799.673057123657
 20
7018.497424545863
 30
0.0
 11
4776.673057123656
 21
7018.497424545863
 31
0.0
  0
LINE
  5
162EE
330
747D
100
AcDbEntity
  8
部品1
 48
50.0
100
AcDbLine
 10
4809.673057123657
 20
7008.497424545864
 30
0.0
 11
4799.673057123657
 21
6987.497424545864
 31
0.0
  0
LINE
  5
162EF
330
747D
100
AcDbEntity
  8
部品1
 48
50.0
100
AcDbLine
 10
4799.673057123657
 20
7047.497424545864
 30
0.0
 11
4799.673057123653
 21
6982.497424545865
 31
0.0
  0
LINE
  5
162F0
330
747D
100
AcDbEntity
  8
部品1
 48
50.0
100
AcDbLine
 10
4847.673057123657
 20
7008.497424545865
 30
0.0
 11
4847.673057123657
 21
7017.497424545865
 31
0.0
  0
LINE
  5
162F1
330
747D
100
AcDbEntity
  8
部品1
 48
50.0
100
AcDbLine
 10
4847.673057123657
 20
7047.497424545865
 30
0.0
 11
4847.673057123657
 21
7038.497424545865
 31
0.0
  0
LINE
  5
162F2
330
747D
100
AcDbEntity
  8
部品1
100
AcDbLine
 10
4847.673057123657
 20
7047.497424545865
 30
0.0
 11
4799.673057123657
 21
7047.497424545864
 31
0.0
  0
LINE
  5
162F3
330
747D
100
AcDbEntity
  8
部品1
100
AcDbLine
 10
4847.673057123657
 20
7008.497424545865
 30
0.0
 11
4799.673057123657
 21
7008.497424545864
 31
0.0
  0
LINE
  5
162F4
330
747D
100
AcDbEntity
  8
部品1
100
AcDbLine
 10
4799.673057123656
 20
7018.497424545863
 30
0.0
 11
4776.673057123656
 21
7018.497424545863
 31
0.0
  0
LINE
  5
162F5
330
747D
100
AcDbEntity
  8
部品1
100
AcDbLine
 10
4799.673057123656
 20
7037.497424545789
 30
0.0
 11
4744.673057123654
 21
7037.497424545789
 31
0.0
  0
LINE
  5
162F6
330
747D
100
AcDbEntity
  8
部品1
100
AcDbLine
 10
4772.673057123639
 20
7037.497424545825
 30
0.0
 11
4744.673057123654
 21
7037.497424545825
 31
0.0
  0
LINE
  5
162F7
330
747D
100
AcDbEntity
  8
部品1
100
AcDbLine
 10
4772.673057123655
 20
7037.49742454584
 30
0.0
 11
4744.673057123654
 21
7037.49742454584
 31
0.0
  0
LINE
  5
162FB
330
747D
100
AcDbEntity
  8
部品1
100
AcDbLine
 10
4772.673057123642
 20
7457.497424545839
 30
0.0
 11
4744.673057123643
 21
7457.497424545839
 31
0.0
  0
LINE
  5
162FC
330
747D
100
AcDbEntity
  8
部品1
100
AcDbLine
 10
4772.673057123642
 20
7877.49742454584
 30
0.0
 11
4744.673057123643
 21
7877.49742454584
 31
0.0
  0
LINE
  5
162FD
330
747D
100
AcDbEntity
  8
破線
 48
10.0
100
AcDbLine
 10
4824.673057123642
 20
7094.497424545844
 30
0.0
 11
4824.673057123639
 21
8292.497424545874
 31
0.0
  0
LINE
  5
162FE
330
747D
100
AcDbEntity
  8
部品1
100
AcDbLine
 10
4772.673057123637
 20
8297.49742454584
 30
0.0
 11
4744.673057123637
 21
8297.49742454584
 31
0.0
  0
LINE
  5
162FF
330
747D
100
AcDbEntity
  8
部品1
100
AcDbLine
 10
7319.673057123655
 20
8292.497424545969
 30
0.0
 11
7319.67305712364
 21
6982.497424545953
 31
0.0
  0
DIMENSION
  5
16301
330
747D
100
AcDbEntity
  8
寸法
 48
50.0
100
AcDbDimension
  2
*D11
 10
7271.673057123638
 20
6448.066653779701
 30
0.0
 11
7160.710159474891
 21
6548.0666537797
 31
0.0
 70
   160
 71
     5
 42
-1.0
  3
INABA_S40G
100
AcDbAlignedDimension
 13
7319.67305712364
 23
6982.497424545953
 33
0.0
 14
7271.673057123638
 24
7008.497424545865
 34
0.0
100
AcDbRotatedDimension
1001
ACAD
1000
DSTYLE
1002
{
1070
   279
1070
     2
1002
}
  0
DIMENSION
  5
16302
330
747D
100
AcDbEntity
  8
寸法
 48
50.0
100
AcDbDimension
  2
*D12
 10
7319.67305712364
 20
6448.066653779702
 30
0.0
 11
7683.158338497877
 21
6448.066653779702
 31
0.0
 70
   160
 71
     5
 42
-1.0
  3
INABA_S40G
100
AcDbAlignedDimension
 13
7374.673057123638
 23
6982.497424545956
 33
0.0
 14
7319.67305712364
 24
6982.497424545953
 34
0.0
100
AcDbRotatedDimension
1001
ACAD
1000
DSTYLE
1002
{
1002
}
  0
LINE
  5
16303
330
747D
100
AcDbEntity
  8
部品1
 48
50.0
100
AcDbLine
 10
7309.673057123639
 20
7008.497424545864
 30
0.0
 11
7319.673057123639
 21
6987.497424545864
 31
0.0
  0
LINE
  5
16304
330
747D
100
AcDbEntity
  8
部品1
100
AcDbLine
 10
7271.673057123638
 20
7047.497424545865
 30
0.0
 11
7319.67305712364
 21
7047.497424545864
 31
0.0
  0
LINE
  5
16305
330
747D
100
AcDbEntity
  8
部品1
100
AcDbLine
 10
7271.673057123638
 20
7008.497424545865
 30
0.0
 11
7319.673057123639
 21
7008.497424545864
 31
0.0
  0
LINE
  5
16306
330
747D
100
AcDbEntity
  8
部品1
 48
50.0
100
AcDbLine
 10
7271.673057123638
 20
7047.497424545865
 30
0.0
 11
7271.673057123638
 21
7038.497424545865
 31
0.0
  0
LINE
  5
16307
330
747D
100
AcDbEntity
  8
部品1
 48
50.0
100
AcDbLine
 10
7271.673057123638
 20
7008.497424545865
 30
0.0
 11
7271.673057123638
 21
7017.497424545865
 31
0.0
  0
LINE
  5
16308
330
747D
100
AcDbEntity
  8
部品1
100
AcDbLine
 10
7319.673057123639
 20
7018.497424545863
 30
0.0
 11
7342.673057123639
 21
7018.497424545863
 31
0.0
  0
LINE
  5
16309
330
747D
100
AcDbEntity
  8
部品1
100
AcDbLine
 10
7319.673057123639
 20
7037.497424545967
 30
0.0
 11
7374.673057123671
 21
7037.497424545967
 31
0.0
  0
LINE
  5
1630A
330
747D
100
AcDbEntity
  8
部品1
100
AcDbLine
 10
7374.673057123638
 20
6982.497424545956
 30
0.0
 11
7319.67305712364
 21
6982.497424545953
 31
0.0
  0
LINE
  5
1630C
330
747D
100
AcDbEntity
  8
破線
 48
10.0
100
AcDbLine
 10
7294.673057123683
 20
7117.997424545887
 30
0.0
 11
6500.173057123679
 21
7117.997424545851
 31
0.0
  0
DIMENSION
  5
1630D
330
747D
100
AcDbEntity
  8
寸法
100
AcDbDimension
  2
*D13
 10
7254.149210862323
 20
7949.059754790699
 30
0.0
 11
6664.158372861959
 21
7949.059754790699
 31
0.0
 70
   160
 71
     5
 42
-1.0
  3
INABA_S40G
100
AcDbAlignedDimension
 13
6073.173057123663
 23
8292.497424545976
 33
0.0
 14
7346.173057123675
 24
8292.497424545967
 34
0.0
100
AcDbRotatedDimension
1001
ACAD
1000
DSTYLE
1002
{
1002
}
  0
LINE
  5
1630E
330
747D
100
AcDbEntity
  8
部品1
100
AcDbLine
 10
6073.173057123662
 20
8292.497424545976
 30
0.0
 11
7346.173057123664
 21
8292.497424545967
 31
0.0
  0
LINE
  5
1630F
330
747D
100
AcDbEntity
  8
破線
 48
10.0
100
AcDbLine
 10
6450.173057123679
 20
7117.997424545847
 30
0.0
 11
5669.173057123678
 21
7117.997424545821
 31
0.0
  0
LINE
  5
16310
330
747D
100
AcDbEntity
  8
破線
 48
10.0
100
AcDbLine
 10
5619.173057123682
 20
7094.497424545821
 30
0.0
 11
5619.173057123681
 21
8292.497424545938
 31
0.0
  0
LINE
  5
16311
330
747D
100
AcDbEntity
  8
破線
 48
10.0
100
AcDbLine
 10
5669.173057123678
 20
7094.497424545825
 30
0.0
 11
5669.173057123678
 21
8292.497424545944
 31
0.0
  0
LINE
  5
16312
330
747D
100
AcDbEntity
  8
部品1
100
AcDbLine
 10
6047.173057123663
 20
8292.497424545976
 30
0.0
 11
6072.173057123663
 21
8292.497424545976
 31
0.0
  0
LINE
  5
16313
330
747D
100
AcDbEntity
  8
破線
 48
10.0
100
AcDbLine
 10
6500.173057123679
 20
7094.497424545856
 30
0.0
 11
6500.173057123679
 21
8292.497424545976
 31
0.0
  0
LINE
  5
16314
330
747D
100
AcDbEntity
  8
破線
 48
10.0
100
AcDbLine
 10
6450.173057123681
 20
7094.497424545854
 30
0.0
 11
6450.173057123681
 21
8292.497424545976
 31
0.0
  0
LINE
  5
16317
330
747D
100
AcDbEntity
  8
部品1
100
AcDbLine
 10
7346.673057123668
 20
7457.497424545967
 30
0.0
 11
7374.673057123668
 21
7457.497424545967
 31
0.0
  0
LINE
  5
16318
330
747D
100
AcDbEntity
  8
破線
 48
10.0
100
AcDbLine
 10
7294.673057123656
 20
7094.497424545841
 30
0.0
 11
7294.673057123652
 21
8292.497424545874
 31
0.0
  0
LINE
  5
16319
330
747D
100
AcDbEntity
  8
部品1
100
AcDbLine
 10
7346.673057123668
 20
7877.497424545968
 30
0.0
 11
7374.673057123668
 21
7877.497424545968
 31
0.0
  0
LINE
  5
1631A
330
747D
100
AcDbEntity
  8
部品1
100
AcDbLine
 10
7346.673057123664
 20
8297.497424545968
 30
0.0
 11
7374.673057123664
 21
8297.497424545968
 31
0.0
  0
LINE
  5
1631B
330
747D
100
AcDbEntity
  8
部品1
100
AcDbLine
 10
4772.673057123649
 20
8744.497424545983
 30
0.0
 11
6047.173057123661
 21
8744.497424545986
 31
0.0
  0
LINE
  5
1631D
330
747D
100
AcDbEntity
  8
部品1
100
AcDbLine
 10
4744.673057123662
 20
8772.49742454587
 30
0.0
 11
7374.673057123664
 21
8772.497424545964
 31
0.0
  0
LINE
  5
1631E
330
747D
100
AcDbEntity
  8
部品1
100
AcDbLine
 10
4773.173057123663
 20
8742.497424545868
 30
0.0
 11
6046.173057123663
 21
8742.497424545975
 31
0.0
  0
DIMENSION
  5
1631F
330
747D
100
AcDbEntity
  8
寸法
100
AcDbDimension
  2
*D14
 10
7319.673057123664
 20
9288.305644170966
 30
0.0
 11
6059.673057123664
 21
9388.317455194588
 31
0.0
 70
    32
  1
6X420=<>
 71
     5
 42
2520.000000000001
  3
INABA_S40G
100
AcDbAlignedDimension
 13
4799.673057123663
 23
8772.49742454587
 33
0.0
 14
7319.673057123664
 24
8772.497424545964
 34
0.0
100
AcDbRotatedDimension
1001
ACAD
1000
DSTYLE
1002
{
1002
}
  0
DIMENSION
  5
16320
330
747D
100
AcDbEntity
  8
寸法
100
AcDbDimension
  2
*D15
 10
4799.673057123663
 20
9288.305644170851
 30
0.0
 11
4436.187775749391
 21
9288.305644170851
 31
0.0
 70
   160
 71
     5
 42
55.00000000003456
  3
INABA_S40G
100
AcDbAlignedDimension
 13
4744.673057123629
 23
8772.49742454587
 33
0.0
 14
4799.673057123663
 24
8772.49742454587
 34
0.0
100
AcDbRotatedDimension
1001
ACAD
1000
DSTYLE
1002
{
1002
}
  0
LINE
  5
16321
330
747D
100
AcDbEntity
  8
部品1
100
AcDbLine
 10
4799.673057123628
 20
8772.497424545838
 30
0.0
 11
4799.67305712363
 21
8744.497424545837
 31
0.0
  0
LINE
  5
16322
330
747D
100
AcDbEntity
  8
部品1
100
AcDbLine
 10
4799.673057123663
 20
8772.49742454587
 30
0.0
 11
4799.673057123663
 21
8744.497424545869
 31
0.0
  0
LINE
  5
16323
330
747D
100
AcDbEntity
  8
部品1
100
AcDbLine
 10
4772.67305712363
 20
8717.49742454584
 30
0.0
 11
4744.673057123629
 21
8717.49742454584
 31
0.0
  0
LINE
  5
16324
330
747D
100
AcDbEntity
  8
部品1
100
AcDbLine
 10
5219.673057123663
 20
8772.497424545985
 30
0.0
 11
5219.673057123663
 21
8744.497424545986
 31
0.0
  0
LINE
  5
16325
330
747D
100
AcDbEntity
  8
部品1
100
AcDbLine
 10
5219.673057123663
 20
8772.49742454587
 30
0.0
 11
5219.673057123663
 21
8744.497424545869
 31
0.0
  0
LINE
  5
16326
330
747D
100
AcDbEntity
  8
部品1
100
AcDbLine
 10
5219.673057123663
 20
8772.49742454587
 30
0.0
 11
5219.673057123663
 21
8744.497424545869
 31
0.0
  0
LINE
  5
16327
330
747D
100
AcDbEntity
  8
部品1
100
AcDbLine
 10
6072.173057123663
 20
8744.497424545981
 30
0.0
 11
7346.673057123664
 21
8744.497424545963
 31
0.0
  0
LINE
  5
16328
330
747D
100
AcDbEntity
  8
部品1
100
AcDbLine
 10
6073.173057123663
 20
8742.497424545971
 30
0.0
 11
7346.173057123664
 21
8742.497424545964
 31
0.0
  0
LINE
  5
16329
330
747D
100
AcDbEntity
  8
部品1
100
AcDbLine
 10
5639.673057123663
 20
8772.497424545985
 30
0.0
 11
5639.673057123663
 21
8744.497424545986
 31
0.0
  0
LINE
  5
1632A
330
747D
100
AcDbEntity
  8
部品1
100
AcDbLine
 10
5639.673057123663
 20
8772.49742454587
 30
0.0
 11
5639.673057123663
 21
8744.497424545869
 31
0.0
  0
LINE
  5
1632B
330
747D
100
AcDbEntity
  8
部品1
100
AcDbLine
 10
5639.673057123663
 20
8772.49742454587
 30
0.0
 11
5639.673057123663
 21
8744.497424545869
 31
0.0
  0
LINE
  5
1632C
330
747D
100
AcDbEntity
  8
部品1
100
AcDbLine
 10
6059.673057123664
 20
8772.497424545985
 30
0.0
 11
6059.673057123664
 21
8744.497424545986
 31
0.0
  0
LINE
  5
1632D
330
747D
100
AcDbEntity
  8
部品1
100
AcDbLine
 10
6047.173057123663
 20
8736.497424545968
 30
0.0
 11
6072.173057123663
 21
8736.497424545971
 31
0.0
  0
LINE
  5
1632E
330
747D
100
AcDbEntity
  8
部品1
100
AcDbLine
 10
6088.673057123664
 20
8762.497424545971
 30
0.0
 11
6094.673057123663
 21
8762.497424545971
 31
0.0
  0
LINE
  5
1632F
330
747D
100
AcDbEntity
  8
部品1
100
AcDbLine
 10
6094.673057123663
 20
8762.497424545971
 30
0.0
 11
6094.673057123663
 21
8744.49742454597
 31
0.0
  0
LINE
  5
16330
330
747D
100
AcDbEntity
  8
部品1
100
AcDbLine
 10
6024.673057123663
 20
8762.497424545971
 30
0.0
 11
6030.673057123664
 21
8762.497424545971
 31
0.0
  0
LINE
  5
16331
330
747D
100
AcDbEntity
  8
部品1
100
AcDbLine
 10
6024.673057123663
 20
8762.497424545971
 30
0.0
 11
6024.673057123663
 21
8744.49742454597
 31
0.0
  0
LINE
  5
16332
330
747D
100
AcDbEntity
  8
部品1
100
AcDbLine
 10
6479.673057123664
 20
8772.497424545985
 30
0.0
 11
6479.673057123664
 21
8744.497424545986
 31
0.0
  0
DIMENSION
  5
16333
330
747D
100
AcDbEntity
  8
寸法
100
AcDbDimension
  2
*D16
 10
7374.673057123664
 20
9288.305644170948
 30
0.0
 11
7683.158338497903
 21
9288.305644170948
 31
0.0
 70
   160
 71
     5
 42
55.0
  3
INABA_S40G
100
AcDbAlignedDimension
 13
7319.673057123664
 23
8772.497424545964
 33
0.0
 14
7374.673057123664
 24
8772.497424545964
 34
0.0
100
AcDbRotatedDimension
1001
ACAD
1000
DSTYLE
1002
{
1002
}
  0
LINE
  5
16334
330
747D
100
AcDbEntity
  8
部品1
100
AcDbLine
 10
6899.673057123663
 20
8772.497424545985
 30
0.0
 11
6899.673057123663
 21
8744.497424545986
 31
0.0
  0
LINE
  5
16335
330
747D
100
AcDbEntity
  8
部品1
100
AcDbLine
 10
7319.673057123664
 20
8772.497424545964
 30
0.0
 11
7319.673057123664
 21
8744.497424545963
 31
0.0
  0
LINE
  5
16336
330
747D
100
AcDbEntity
  8
部品1
100
AcDbLine
 10
7319.673057123664
 20
8772.497424545985
 30
0.0
 11
7319.673057123664
 21
8744.497424545986
 31
0.0
  0
LINE
  5
16337
330
747D
100
AcDbEntity
  8
部品1
100
AcDbLine
 10
7346.673057123664
 20
8717.497424545966
 30
0.0
 11
7374.673057123664
 21
8717.497424545966
 31
0.0
  0
LINE
  5
16501
330
747D
100
AcDbEntity
  8
部品1
 48
50.0
100
AcDbLine
 10
4799.673057123644
 20
7877.49742454584
 30
0.0
 11
7319.67305712365
 21
7877.497424545811
 31
0.0
  0
LINE
  5
16502
330
747D
100
AcDbEntity
  8
部品1
 48
50.0
100
AcDbLine
 10
4799.67305712365
 20
7457.497424545839
 30
0.0
 11
7319.673057123646
 21
7457.497424545812
 31
0.0
  0
LINE
  5
16709
330
747D
100
AcDbEntity
  8
部品1
 48
50.0
100
AcDbLine
 10
4799.673057123653
 20
6982.497424545865
 30
0.0
 11
7319.67305712364
 21
6982.497424545837
 31
0.0
  0
LINE
  5
1682D
330
747D
100
AcDbEntity
  8
仕様書枠
 48
50.0
100
AcDbLine
 10
16307.19999999999
 20
8349.6
 30
0.0
 11
13127.19999999999
 21
8349.600000000002
 31
0.0
  0
TEXT
  5
1682E
330
747D
100
AcDbEntity
  8
文字
 62
     7
 48
50.0
100
AcDbText
 10
13248.77747366447
 20
8210.013745883731
 30
0.0
 40
100.0
  1
16
  7
STYLE1
100
AcDbText
  0
TEXT
  5
1682F
330
747D
100
AcDbEntity
  8
文字
 62
     7
 48
50.0
100
AcDbText
 10
13583.11819016569
 20
8210.013745883731
 30
0.0
 40
100.0
  1
アンカープレート
  7
STYLE1
100
AcDbText
  0
TEXT
  5
16830
330
747D
100
AcDbEntity
  8
文字
 62
     7
 48
50.0
100
AcDbText
 10
15022.63965474515
 20
8210.013745883726
 30
0.0
 40
100.0
  1
F12            2.3
  7
STYLE1
100
AcDbText
  0
LINE
  5
16831
330
747D
100
AcDbEntity
  8
仕様書枠
 48
50.0
100
AcDbLine
 10
16307.19999999999
 20
9709.6
 30
0.0
 11
13127.19999999999
 21
9709.600000000001
 31
0.0
  0
LINE
  5
16832
330
747D
100
AcDbEntity
  8
仕様書枠
 48
50.0
100
AcDbLine
 10
16307.19999999999
 20
11069.6
 30
0.0
 11
13127.2
 21
11069.6
 31
0.0
  0
LINE
  5
16833
330
747D
100
AcDbEntity
  8
仕様書枠
 48
50.0
100
AcDbLine
 10
16307.19999999999
 20
7669.600000000008
 30
0.0
 11
16307.2
 21
11069.6
 31
0.0
  0
LINE
  5
16834
330
747D
100
AcDbEntity
  8
仕様書枠
 48
50.0
100
AcDbLine
 10
14785.2
 20
11069.59999999999
 30
0.0
 11
14785.19999999999
 21
8179.600000000005
 31
0.0
  0
LINE
  5
16835
330
747D
100
AcDbEntity
  8
仕様書枠
 48
50.0
100
AcDbLine
 10
13490.2
 20
11069.6
 30
0.0
 11
13490.20000000001
 21
8179.600000000005
 31
0.0
  0
LINE
  5
16836
330
747D
100
AcDbEntity
  8
仕様書枠
 48
50.0
100
AcDbLine
 10
16307.19999999999
 20
10899.6
 30
0.0
 11
13127.2
 21
10899.6
 31
0.0
  0
LINE
  5
16837
330
747D
100
AcDbEntity
  8
仕様書枠
 48
50.0
100
AcDbLine
 10
16307.19999999999
 20
10559.6
 30
0.0
 11
13127.2
 21
10559.6
 31
0.0
  0
LINE
  5
16838
330
747D
100
AcDbEntity
  8
仕様書枠
 48
50.0
100
AcDbLine
 10
16307.19999999999
 20
10729.6
 30
0.0
 11
13127.2
 21
10729.6
 31
0.0
  0
LINE
  5
16839
330
747D
100
AcDbEntity
  8
仕様書枠
 48
50.0
100
AcDbLine
 10
16307.19999999999
 20
10219.6
 30
0.0
 11
13127.19999999999
 21
10219.6
 31
0.0
  0
LINE
  5
1683A
330
747D
100
AcDbEntity
  8
仕様書枠
 48
50.0
100
AcDbLine
 10
16307.19999999999
 20
10049.6
 30
0.0
 11
13127.19999999999
 21
10049.6
 31
0.0
  0
LINE
  5
1683B
330
747D
100
AcDbEntity
  8
仕様書枠
 48
50.0
100
AcDbLine
 10
16307.19999999999
 20
10389.6
 30
0.0
 11
13127.19999999999
 21
10389.6
 31
0.0
  0
TEXT
  5
1683C
330
747D
100
AcDbEntity
  8
文字
 62
     7
 48
50.0
100
AcDbText
 10
13197.42518560407
 20
10930.01374588372
 30
0.0
 40
100.0
  1
品番
  7
STYLE1
100
AcDbText
  0
TEXT
  5
1683D
330
747D
100
AcDbEntity
  8
文字
 62
     7
 48
50.0
100
AcDbText
 10
13271.19032244792
 20
10760.01374588373
 30
0.0
 40
100.0
  1
1
  7
STYLE1
100
AcDbText
  0
TEXT
  5
1683E
330
747D
100
AcDbEntity
  8
文字
 62
     7
 48
50.0
100
AcDbText
 10
13271.19032244792
 20
10590.01374588373
 30
0.0
 40
100.0
  1
2
  7
STYLE1
100
AcDbText
  0
TEXT
  5
1683F
330
747D
100
AcDbEntity
  8
文字
 62
     7
 48
50.0
100
AcDbText
 10
13271.19032244792
 20
10250.01374588373
 30
0.0
 40
100.0
  1
4
  7
STYLE1
100
AcDbText
  0
TEXT
  5
16840
330
747D
100
AcDbEntity
  8
文字
 62
     7
 48
50.0
100
AcDbText
 10
13271.19032244792
 20
10420.01374588373
 30
0.0
 40
100.0
  1
3
  7
STYLE1
100
AcDbText
  0
TEXT
  5
16841
330
747D
100
AcDbEntity
  8
文字
 62
     7
 48
50.0
100
AcDbText
 10
13732.03840939434
 20
10930.01374588372
 30
0.0
 40
100.0
  1
部　　品　　名
  7
STYLE1
100
AcDbText
  0
TEXT
  5
16842
330
747D
100
AcDbEntity
  8
文字
 62
     7
 48
50.0
100
AcDbText
 10
14859.79774614482
 20
10930.01374588372
 30
0.0
 40
100.0
  1
材料（材質）　　単位mm
  7
STYLE1
100
AcDbText
  0
TEXT
  5
16843
330
747D
100
AcDbEntity
  8
文字
 62
     7
 48
50.0
100
AcDbText
 10
13583.11819016569
 20
10760.01374588372
 30
0.0
 40
100.0
  1
土台枠
  7
STYLE1
100
AcDbText
  0
TEXT
  5
16844
330
747D
100
AcDbEntity
  8
文字
 62
     7
 48
50.0
100
AcDbText
 10
13583.11819016569
 20
10590.01374588373
 30
0.0
 40
100.0
  1
柱
  7
STYLE1
100
AcDbText
  0
TEXT
  5
16845
330
747D
100
AcDbEntity
  8
文字
 62
     7
 48
50.0
100
AcDbText
 10
13583.11819016569
 20
10420.01374588372
 30
0.0
 40
100.0
  1
桁前
  7
STYLE1
100
AcDbText
  0
TEXT
  5
16846
330
747D
100
AcDbEntity
  8
文字
 62
     7
 48
50.0
100
AcDbText
 10
13583.11819016569
 20
10250.01374588373
 30
0.0
 40
100.0
  1
桁後
  7
STYLE1
100
AcDbText
  0
TEXT
  5
16847
330
747D
100
AcDbEntity
  8
文字
 62
     7
 48
50.0
100
AcDbText
 10
13271.19032244792
 20
10080.01374588372
 30
0.0
 40
100.0
  1
5
  7
STYLE1
100
AcDbText
  0
TEXT
  5
16848
330
747D
100
AcDbEntity
  8
文字
 62
     7
 48
50.0
100
AcDbText
 10
13583.11819016569
 20
10080.01374588372
 30
0.0
 40
100.0
  1
妻板左右
  7
STYLE1
100
AcDbText
  0
TEXT
  5
16849
330
747D
100
AcDbEntity
  8
文字
 62
     7
 48
50.0
100
AcDbText
 10
13583.11819016569
 20
9230.013745883727
 30
0.0
 40
100.0
  1
シャッター
  7
STYLE1
100
AcDbText
  0
TEXT
  5
1684A
330
747D
100
AcDbEntity
  8
文字
 62
     7
 48
50.0
100
AcDbText
 10
13248.77747366447
 20
9230.013745883727
 30
0.0
 40
100.0
  1
10
  7
STYLE1
100
AcDbText
  0
TEXT
  5
1684B
330
747D
100
AcDbEntity
  8
文字
 62
     7
 48
50.0
100
AcDbText
 10
13583.11819016569
 20
9400.013745883729
 30
0.0
 40
100.0
  1
壁パネル
  7
STYLE1
100
AcDbText
  0
TEXT
  5
1684C
330
747D
100
AcDbEntity
  8
文字
 62
     7
 48
50.0
100
AcDbText
 10
13583.11819016569
 20
9570.013745883727
 30
0.0
 40
100.0
  1
屋根パネル
  7
STYLE1
100
AcDbText
  0
TEXT
  5
1684D
330
747D
100
AcDbEntity
  8
文字
 62
     7
 48
50.0
100
AcDbText
 10
13583.11819016569
 20
9740.013745883729
 30
0.0
 40
100.0
  1
母屋中
  7
STYLE1
100
AcDbText
  0
TEXT
  5
1684E
330
747D
100
AcDbEntity
  8
文字
 62
     7
 48
50.0
100
AcDbText
 10
13583.11819016569
 20
9910.013745883727
 30
0.0
 40
100.0
  1
鼻隠シ前後
  7
STYLE1
100
AcDbText
  0
TEXT
  5
1684F
330
747D
100
AcDbEntity
  8
文字
 62
     7
 48
50.0
100
AcDbText
 10
13271.19032244791
 20
9570.013745883729
 30
0.0
 40
100.0
  1
8
  7
STYLE1
100
AcDbText
  0
TEXT
  5
16850
330
747D
100
AcDbEntity
  8
文字
 62
     7
 48
50.0
100
AcDbText
 10
13271.19032244791
 20
9400.013745883729
 30
0.0
 40
100.0
  1
9
  7
STYLE1
100
AcDbText
  0
TEXT
  5
16851
330
747D
100
AcDbEntity
  8
文字
 62
     7
 48
50.0
100
AcDbText
 10
13271.19032244791
 20
9740.013745883729
 30
0.0
 40
100.0
  1
7
  7
STYLE1
100
AcDbText
  0
TEXT
  5
16852
330
747D
100
AcDbEntity
  8
文字
 62
     7
 48
50.0
100
AcDbText
 10
13271.19032244792
 20
9910.01374588373
 30
0.0
 40
100.0
  1
6
  7
STYLE1
100
AcDbText
  0
LINE
  5
16853
330
747D
100
AcDbEntity
  8
仕様書枠
 48
50.0
100
AcDbLine
 10
16307.19999999999
 20
9369.599999999998
 30
0.0
 11
13127.19999999999
 21
9369.600000000001
 31
0.0
  0
LINE
  5
16854
330
747D
100
AcDbEntity
  8
仕様書枠
 48
50.0
100
AcDbLine
 10
16307.19999999999
 20
9029.6
 30
0.0
 11
13127.19999999999
 21
9029.6
 31
0.0
  0
LINE
  5
16855
330
747D
100
AcDbEntity
  8
仕様書枠
 48
50.0
100
AcDbLine
 10
16307.19999999999
 20
9199.599999999998
 30
0.0
 11
13127.19999999999
 21
9199.600000000001
 31
0.0
  0
LINE
  5
16856
330
747D
100
AcDbEntity
  8
仕様書枠
 48
50.0
100
AcDbLine
 10
16307.19999999999
 20
9879.599999999999
 30
0.0
 11
13127.2
 21
9879.600000000001
 31
0.0
  0
LINE
  5
16857
330
747D
100
AcDbEntity
  8
仕様書枠
 48
50.0
100
AcDbLine
 10
16307.19999999999
 20
9539.599999999998
 30
0.0
 11
13127.19999999999
 21
9539.6
 31
0.0
  0
TEXT
  5
16858
330
747D
100
AcDbEntity
  8
文字
 62
     7
 48
50.0
100
AcDbText
 10
13248.77747366447
 20
9060.013745883727
 30
0.0
 40
100.0
  1
11
  7
STYLE1
100
AcDbText
  0
LINE
  5
1685A
330
747D
100
AcDbEntity
  8
仕様書枠
 48
50.0
100
AcDbLine
 10
16307.19999999999
 20
8859.599999999998
 30
0.0
 11
13127.19999999999
 21
8859.6
 31
0.0
  0
LINE
  5
1685B
330
747D
100
AcDbEntity
  8
仕様書枠
 48
50.0
100
AcDbLine
 10
16307.19999999999
 20
8179.600000000004
 30
0.0
 11
13127.19999999999
 21
8179.600000000005
 31
0.0
  0
TEXT
  5
1685D
330
747D
100
AcDbEntity
  8
文字
 62
     7
 48
50.0
100
AcDbText
 10
13248.77747366447
 20
8720.013745883729
 30
0.0
 40
100.0
  1
13
  7
STYLE1
100
AcDbText
  0
TEXT
  5
1685E
330
747D
100
AcDbEntity
  8
文字
 62
     7
 48
50.0
100
AcDbText
 10
13248.77747366447
 20
8890.013745883729
 30
0.0
 40
100.0
  1
12
  7
STYLE1
100
AcDbText
  0
TEXT
  5
1685F
330
747D
100
AcDbEntity
  8
文字
 62
     7
 48
50.0
100
AcDbText
 10
15022.63965474517
 20
10760.01374588372
 30
0.0
 40
100.0
  1
F12            1.2
  7
STYLE1
100
AcDbText
  0
TEXT
  5
16860
330
747D
100
AcDbEntity
  8
文字
 62
     7
 48
50.0
100
AcDbText
 10
15022.63965474517
 20
10590.01374588372
 30
0.0
 40
100.0
  1
F12         1.0,1.2
  7
STYLE1
100
AcDbText
  0
TEXT
  5
16861
330
747D
100
AcDbEntity
  8
文字
 62
     7
 48
50.0
100
AcDbText
 10
15022.63965474516
 20
10420.01374588372
 30
0.0
 40
100.0
  1
Y10            1.0
  7
STYLE1
100
AcDbText
  0
TEXT
  5
16862
330
747D
100
AcDbEntity
  8
文字
 62
     7
 48
50.0
100
AcDbText
 10
15022.63965474516
 20
10250.01374588372
 30
0.0
 40
100.0
  1
Y10            1.0
  7
STYLE1
100
AcDbText
  0
TEXT
  5
16863
330
747D
100
AcDbEntity
  8
文字
 62
     7
 48
50.0
100
AcDbText
 10
15022.63965474516
 20
10080.01374588372
 30
0.0
 40
100.0
  1
Y10            0.7
  7
STYLE1
100
AcDbText
  0
TEXT
  5
16864
330
747D
100
AcDbEntity
  8
文字
 62
     7
 48
50.0
100
AcDbText
 10
15022.63965474516
 20
9910.013745883725
 30
0.0
 40
100.0
  1
Y10            0.7
  7
STYLE1
100
AcDbText
  0
TEXT
  5
16865
330
747D
100
AcDbEntity
  8
文字
 62
     7
 48
50.0
100
AcDbText
 10
15022.63965474516
 20
9570.013745883725
 30
0.0
 40
100.0
  1
Y10            0.5
  7
STYLE1
100
AcDbText
  0
TEXT
  5
16866
330
747D
100
AcDbEntity
  8
文字
 62
     7
 48
50.0
100
AcDbText
 10
15022.63965474516
 20
9400.013745883725
 30
0.0
 40
100.0
  1
F12            0.7
  7
STYLE1
100
AcDbText
  0
TEXT
  5
16867
330
747D
100
AcDbEntity
  8
文字
 62
     7
 48
50.0
100
AcDbText
 10
14850.83183167176
 20
8890.013745883726
 30
0.0
 40
100.0
  1
アルミニウム合金押出形材
  7
STYLE1
100
AcDbText
  0
TEXT
  5
16869
330
747D
100
AcDbEntity
  8
文字
 62
     7
 48
50.0
100
AcDbText
 10
15022.63965474515
 20
9230.013745883725
 30
0.0
 40
100.0
  1
Z08            0.5
  7
STYLE1
100
AcDbText
  0
LINE
  5
1686A
330
747D
100
AcDbEntity
  8
仕様書枠
 48
50.0
100
AcDbLine
 10
16307.19999999998
 20
8009.600000000006
 30
0.0
 11
13127.19999999999
 21
8009.600000000007
 31
0.0
  0
LINE
  5
1686B
330
747D
100
AcDbEntity
  8
仕様書枠
 48
50.0
100
AcDbLine
 10
16307.19999999998
 20
7839.600000000006
 30
0.0
 11
13127.19999999999
 21
7839.600000000007
 31
0.0
  0
LINE
  5
1686C
330
747D
100
AcDbEntity
  8
仕様書枠
 48
50.0
100
AcDbLine
 10
16307.19999999998
 20
7669.600000000006
 30
0.0
 11
13127.19999999999
 21
7669.600000000008
 31
0.0
  0
TEXT
  5
1686D
330
747D
100
AcDbEntity
  8
文字
 62
     7
 48
50.0
100
AcDbText
 10
13229.83081656554
 20
8040.013745883735
 30
0.0
 40
100.0
  1
F12→溶融亜鉛めっき鋼板(JIS G 3302)
  7
STYLE1
100
AcDbText
  0
TEXT
  5
1686E
330
747D
100
AcDbEntity
  8
文字
 62
     7
 48
50.0
100
AcDbText
 10
13229.83081656554
 20
7870.013745883735
 30
0.0
 40
100.0
  1
Y10→溶融亜鉛-5％アルミニウム合金めっき鋼板(JIS G 3317)
 41
0.9
  7
STYLE1
100
AcDbText
  0
TEXT
  5
1686F
330
747D
100
AcDbEntity
  8
文字
 62
     7
 48
50.0
100
AcDbText
 10
13229.83081656554
 20
7700.013745883736
 30
0.0
 40
100.0
  1
Z08→塗装溶融亜鉛めっき鋼板(JIS G 3313)
  7
STYLE1
100
AcDbText
  0
LINE
  5
16870
330
747D
100
AcDbEntity
  8
仕様書枠
 48
50.0
100
AcDbLine
 10
13127.2
 20
11069.6
 30
0.0
 11
13127.19999999999
 21
7669.600000000008
 31
0.0
  0
TEXT
  5
16871
330
747D
100
AcDbEntity
  8
文字
 62
     7
 48
50.0
100
AcDbText
 10
14833.43123277338
 20
9745.516434800334
 30
0.0
 40
100.0
  1
F12    1.2(多雪地型  2.3)
  7
STYLE1
100
AcDbText
  0
LINE
  5
16872
330
747D
100
AcDbEntity
  8
仕様書枠
 48
50.0
100
AcDbLine
 10
16307.19999999999
 20
8519.600000000002
 30
0.0
 11
13127.19999999999
 21
8519.600000000002
 31
0.0
  0
LINE
  5
16873
330
747D
100
AcDbEntity
  8
仕様書枠
 48
50.0
100
AcDbLine
 10
16307.19999999999
 20
8689.6
 30
0.0
 11
13127.19999999999
 21
8689.600000000003
 31
0.0
  0
TEXT
  5
16874
330
747D
100
AcDbEntity
  8
文字
 62
     7
 48
50.0
100
AcDbText
 10
13583.11819016569
 20
8550.013745883729
 30
0.0
 40
100.0
  1
床パネル
 41
0.9
  7
STYLE1
100
AcDbText
  0
TEXT
  5
16875
330
747D
100
AcDbEntity
  8
文字
 62
     7
 48
50.0
100
AcDbText
 10
13583.11819016569
 20
8380.013745883731
 30
0.0
 40
100.0
  1
棚板
  7
STYLE1
100
AcDbText
  0
TEXT
  5
16876
330
747D
100
AcDbEntity
  8
文字
 62
     7
 48
50.0
100
AcDbText
 10
13583.11819016569
 20
8720.013745883729
 30
0.0
 40
100.0
  1
根太
  7
STYLE1
100
AcDbText
  0
TEXT
  5
16877
330
747D
100
AcDbEntity
  8
文字
 62
     7
 48
50.0
100
AcDbText
 10
13248.77747366447
 20
8550.013745883729
 30
0.0
 40
100.0
  1
14
  7
STYLE1
100
AcDbText
  0
TEXT
  5
16878
330
747D
100
AcDbEntity
  8
文字
 62
     7
 48
50.0
100
AcDbText
 10
13248.77747366447
 20
8380.013745883731
 30
0.0
 40
100.0
  1
15
  7
STYLE1
100
AcDbText
  0
TEXT
  5
16879
330
747D
100
AcDbEntity
  8
文字
 62
     7
 48
50.0
100
AcDbText
 10
15022.63965474516
 20
8720.013745883726
 30
0.0
 40
100.0
  1
F12            1.2
  7
STYLE1
100
AcDbText
  0
TEXT
  5
1687A
330
747D
100
AcDbEntity
  8
文字
 62
     7
 48
50.0
100
AcDbText
 10
15022.63965474516
 20
8550.013745883727
 30
0.0
 40
100.0
  1
F12            1.0
  7
STYLE1
100
AcDbText
  0
TEXT
  5
1687B
330
747D
100
AcDbEntity
  8
文字
 62
     7
 48
50.0
100
AcDbText
 10
15022.63965474515
 20
8380.013745883726
 30
0.0
 40
100.0
  1
F12            0.6
  7
STYLE1
100
AcDbText
  0
LWPOLYLINE
  5
16C1C
330
747D
100
AcDbEntity
  8
部品1
100
AcDbPolyline
 90
        4
 70
     1
 43
0.0
 10
9823.735105816924
 20
1445.429306665293
 10
9823.735105816924
 20
1205.536985119761
 10
10587.20577204536
 20
1205.536985119761
 10
10587.20577204536
 20
1445.429306665293
  0
TEXT
  5
16C1D
330
747D
100
AcDbEntity
  8
部品1
100
AcDbText
 10
9913.181207240533
 20
1252.535777446771
 30
0.0
 40
135.0
  1
側面図
  7
STYLE2
100
AcDbText
  0
LWPOLYLINE
  5
16C1E
330
747D
100
AcDbEntity
  8
部品1
100
AcDbPolyline
 90
        4
 70
     1
 43
0.0
 10
5677.937724009426
 20
1445.429306665293
 10
5677.937724009426
 20
1205.536985119761
 10
6441.408390237867
 20
1205.536985119761
 10
6441.408390237867
 20
1445.429306665293
  0
TEXT
  5
16C1F
330
747D
100
AcDbEntity
  8
部品1
100
AcDbText
 10
5768.463127747383
 20
1252.535777446771
 30
0.0
 40
135.0
  1
正面図
  7
STYLE2
100
AcDbText
  0
TEXT
  5
16C20
330
747D
100
AcDbEntity
  8
部品1
100
AcDbText
 10
5767.857333838481
 20
5798.149133041406
 30
0.0
 40
135.0
  1
平面図
  7
STYLE2
100
AcDbText
  0
LWPOLYLINE
  5
16C21
330
747D
100
AcDbEntity
  8
部品1
100
AcDbPolyline
 90
        4
 70
     1
 43
0.0
 10
5677.937724009444
 20
5991.042662259929
 10
5677.937724009444
 20
5751.150340714398
 10
6441.408390237882
 20
5751.150340714398
 10
6441.408390237882
 20
5991.042662259929
  0
LINE
  5
16C22
330
747D
100
AcDbEntity
  8
部品1
100
AcDbLine
 10
4744.673057123656
 20
4335.429306665286
 30
0.0
 11
7374.673057123657
 21
4335.429306665286
 31
0.0
  0
DIMENSION
  5
16C23
330
747D
100
AcDbEntity
  8
寸法
 48
50.0
100
AcDbDimension
  2
*D17
 10
9310.470438931146
 20
4969.522476004759
 30
0.0
 11
10205.47043893114
 21
4969.522476004759
 31
0.0
 70
   160
  1
柱外寸法<>
 71
     5
 42
1789.999999999998
  3
INABA_S40G
100
AcDbAlignedDimension
 13
11100.47043893114
 23
4517.23998627694
 33
0.0
 14
9310.470438931146
 24
4566.430924788263
 34
0.0
100
AcDbRotatedDimension
1001
ACAD
1000
DSTYLE
1002
{
1070
   174
1070
     0
1070
   272
1070
     1
1070
   288
1070
     0
1070
   341
1005
0
1002
}
  0
DIMENSION
  5
16C24
330
747D
100
AcDbEntity
  8
寸法
 48
50.0
100
AcDbDimension
  2
*D18
 10
9250.470438931143
 20
4969.522476004759
 30
0.0
 11
8940.832643655554
 21
4969.522476004759
 31
0.0
 70
   160
 71
     5
 42
60.0
  3
INABA_S40G
100
AcDbAlignedDimension
 13
9310.470438931146
 23
4566.430924788263
 33
0.0
 14
9250.470438931143
 24
4570.429306665291
 34
0.0
100
AcDbRotatedDimension
1001
ACAD
1000
DSTYLE
1002
{
1070
   174
1070
     0
1070
   272
1070
     1
1070
   288
1070
     0
1070
   341
1005
0
1002
}
  0
DIMENSION
  5
16C25
330
747D
100
AcDbEntity
  8
寸法
 48
50.0
100
AcDbDimension
  2
*D19
 10
9250.470438931143
 20
5186.048575623204
 30
0.0
 11
10215.47043893114
 21
5186.048575623204
 31
0.0
 70
   160
 71
     5
 42
1929.999999999998
  3
INABA_S40G
100
AcDbAlignedDimension
 13
11180.47043893114
 23
4515.429306665287
 33
0.0
 14
9250.470438931143
 24
4570.429306665291
 34
0.0
100
AcDbRotatedDimension
1001
ACAD
1000
DSTYLE
1002
{
1070
   174
1070
     0
1070
   272
1070
     1
1070
   288
1070
     0
1070
   341
1005
0
1002
}
  0
LINE
  5
16C26
330
747D
100
AcDbEntity
  8
部品1
100
AcDbLine
 10
9258.015425288105
 20
4569.147041999553
 30
0.0
 11
11173.0823157926
 21
4514.070104374425
 31
0.0
  0
LINE
  5
16C27
330
747D
100
AcDbEntity
  8
部品1
100
AcDbLine
 10
9265.813003533098
 20
4428.210331734254
 30
0.0
 11
11155.13413947099
 21
4389.181906500048
 31
0.0
  0
LINE
  5
16C28
330
747D
100
AcDbEntity
  8
細線
 48
50.0
100
AcDbLine
 10
9283.470438931145
 20
4567.828983040691
 30
0.0
 11
9278.181337375633
 21
4427.743350413336
 31
0.0
  0
LINE
  5
16C29
330
747D
100
AcDbEntity
  8
細線
 48
50.0
100
AcDbLine
 10
11147.47043893114
 20
4515.396285700583
 30
0.0
 11
11142.72275604314
 21
4389.650513209838
 31
0.0
  0
LINE
  5
16C2A
330
747D
100
AcDbEntity
  8
部品1
 48
50.0
100
AcDbLine
 10
9250.654724844251
 20
4562.022852829979
 30
0.0
 11
9251.034984622064
 21
4542.095888383567
 31
0.0
  0
LINE
  5
16C2B
330
747D
100
AcDbEntity
  8
部品1
 48
50.0
100
AcDbLine
 10
9254.103756728307
 20
4538.520606890095
 30
0.0
 11
9255.807658219673
 21
4449.230110183449
 31
0.0
  0
LINE
  5
16C2C
330
747D
100
AcDbEntity
  8
細線
 48
50.0
100
AcDbLine
 10
9251.509862031957
 20
4541.446388506648
 30
0.0
 11
11177.14584677712
 21
4485.82218386582
 31
0.0
  0
LINE
  5
16C2D
330
747D
100
AcDbEntity
  8
細線
 48
50.0
100
AcDbLine
 10
9256.270337269244
 20
4448.584876808785
 30
0.0
 11
11166.27400169988
 21
4408.775557834291
 31
0.0
  0
LINE
  5
16C2E
330
747D
100
AcDbEntity
  8
部品1
 48
50.0
100
AcDbLine
 10
9258.876430325914
 20
4445.654828689976
 30
0.0
 11
9259.078382946347
 21
4435.071793296883
 31
0.0
  0
ARC
  5
16C2F
330
747D
100
AcDbEntity
  8
部品1
 48
50.0
100
AcDbCircle
 10
9257.65345067259
 20
4562.156407237407
 30
0.0
 40
7.0
100
AcDbArc
 50
87.03587545303969
 51
181.0932240292635
  0
ARC
  5
16C30
330
747D
100
AcDbEntity
  8
部品1
 48
50.0
100
AcDbCircle
 10
9266.077108774686
 20
4435.205347704312
 30
0.0
 40
7.0
100
AcDbArc
 50
181.0932240292635
 51
267.8377559871574
  0
ARC
  5
16C31
330
747D
100
AcDbEntity
  8
部品1
100
AcDbCircle
 10
9255.876976399482
 20
4445.597591086793
 30
0.0
 40
3.0
100
AcDbArc
 50
1.093224029263536
 51
80.18775403148588
  0
ARC
  5
16C32
330
747D
100
AcDbEntity
  8
部品1
100
AcDbCircle
 10
9251.104302801877
 20
4538.463369286912
 30
0.0
 40
3.0
100
AcDbArc
 50
1.093224029263536
 51
80.18775403148588
  0
ARC
  5
16C33
330
747D
100
AcDbEntity
  8
部品1
100
AcDbCircle
 10
9251.734857204899
 20
4542.109243824309
 30
0.0
 40
0.7
100
AcDbArc
 50
181.0932240292114
 51
260.1877540314859
  0
ARC
  5
16C34
330
747D
100
AcDbEntity
  8
部品1
100
AcDbCircle
 10
9256.507530802508
 20
4449.24346562419
 30
0.0
 40
0.7
100
AcDbArc
 50
181.0932240292114
 51
260.1877540314859
  0
LINE
  5
16C35
330
747D
100
AcDbEntity
  8
部品1
 48
50.0
100
AcDbLine
 10
11179.68434174184
 20
4506.370458939505
 30
0.0
 11
11177.65372055087
 21
4486.425417681725
 31
0.0
  0
LINE
  5
16C36
330
747D
100
AcDbEntity
  8
部品1
 48
50.0
100
AcDbLine
 10
11174.30115406639
 20
4483.114783608815
 30
0.0
 11
11166.79437480155
 21
4409.382162863803
 31
0.0
  0
LINE
  5
16C37
330
747D
100
AcDbEntity
  8
部品1
 48
50.0
100
AcDbLine
 10
11163.44180831707
 20
4406.071528790891
 30
0.0
 11
11162.36224527733
 21
4395.467911797332
 31
0.0
  0
ARC
  5
16C38
330
747D
100
AcDbEntity
  8
部品1
 48
50.0
100
AcDbCircle
 10
11172.72034117709
 20
4507.079469612279
 30
0.0
 40
7.0
100
AcDbArc
 50
354.186699766558
 51
87.03587545303969
  0
ARC
  5
16C39
330
747D
100
AcDbEntity
  8
部品1
 48
50.0
100
AcDbCircle
 10
11155.39824471257
 20
4396.176922470107
 30
0.0
 40
7.0
100
AcDbArc
 50
267.8377559871574
 51
354.186699766558
  0
ARC
  5
16C3A
330
747D
100
AcDbEntity
  8
部品1
100
AcDbCircle
 10
11166.42637998767
 20
4405.767667073988
 30
0.0
 40
3.0
100
AcDbArc
 50
95.0921697642102
 51
174.186699766558
  0
ARC
  5
16C3B
330
747D
100
AcDbEntity
  8
部品1
100
AcDbCircle
 10
11177.285725737
 20
4482.810921891912
 30
0.0
 40
3.0
100
AcDbArc
 50
95.0921697644194
 51
174.186699766558
  0
ARC
  5
16C3C
330
747D
100
AcDbEntity
  8
部品1
100
AcDbCircle
 10
11176.9573204944
 20
4486.496318749002
 30
0.0
 40
0.7
100
AcDbArc
 50
275.0921697642102
 51
354.186699766558
  0
ARC
  5
16C3D
330
747D
100
AcDbEntity
  8
部品1
100
AcDbCircle
 10
11166.09797474508
 20
4409.453063931079
 30
0.0
 40
0.7
100
AcDbArc
 50
275.0921697642102
 51
354.186699766712
  0
DIMENSION
  5
16C3E
330
747D
100
AcDbEntity
  8
寸法
 48
50.0
100
AcDbDimension
  2
*D20
 10
11180.47043893114
 20
4969.522476004759
 30
0.0
 11
11386.51768302563
 21
4969.522476004759
 31
0.0
 70
   160
 71
     5
 42
80.0
  3
INABA_S40G
100
AcDbAlignedDimension
 13
11100.47043893114
 23
4517.23998627694
 33
0.0
 14
11180.47043893114
 24
4515.429306665287
 34
0.0
100
AcDbRotatedDimension
1001
ACAD
1000
DSTYLE
1002
{
1070
   174
1070
     0
1070
   272
1070
     1
1070
   288
1070
     0
1070
   341
1005
0
1002
}
  0
LINE
  5
16C3F
330
747D
100
AcDbEntity
  8
部品1
 48
50.0
100
AcDbLine
 10
10055.47043893114
 20
4701.297445766566
 30
0.0
 11
10355.47043893114
 21
4701.297445766566
 31
0.0
  0
LINE
  5
16C40
330
747D
100
AcDbEntity
  8
部品1
 48
50.0
100
AcDbLine
 10
10355.47043893114
 20
4701.297445766566
 30
0.0
 11
10355.47043893114
 21
4685.097445766567
 31
0.0
  0
TEXT
  5
16C41
330
747D
100
AcDbEntity
  8
部品1
 48
50.0
100
AcDbText
 10
10043.73827415487
 20
4737.181467919
 30
0.0
 40
120.0
  1
1000
  7
STYLE1
100
AcDbText
  0
TEXT
  5
16C42
330
747D
100
AcDbEntity
  8
部品1
 48
50.0
100
AcDbText
 10
10532.563286219
 20
4599.680209700717
 30
0.0
 40
120.0
  1
54
 50
90.0
  7
STYLE1
100
AcDbText
  0
DIMENSION
  5
16C43
330
747D
100
AcDbEntity
  8
寸法
 48
50.0
100
AcDbDimension
  2
*D21
 10
8689.862032162793
 20
4444.77456553861
 30
0.0
 11
8700.527507421714
 21
4815.621228780315
 31
0.0
 70
   161
 71
     5
 42
140.9999999999991
  3
INABA_S40G
100
AcDbAlignedDimension
 13
9269.866459089723
 23
4569.152055499966
 33
0.0
 14
9265.813003533098
 24
4428.210331734254
 34
0.0
1001
ACAD
1000
DSTYLE
1002
{
1070
   174
1070
     0
1070
   272
1070
     1
1070
   288
1070
     0
1070
   341
1005
0
1002
}
  0
LINE
  5
16C44
330
747D
100
AcDbEntity
  8
部品1
 48
50.0
100
AcDbLine
 10
10055.47043893114
 20
4701.297445766566
 30
0.0
 11
10355.47043893114
 21
4685.097445766567
 31
0.0
  0
DIMENSION
  5
16C45
330
747D
100
AcDbEntity
  8
寸法
 48
50.0
100
AcDbDimension
  2
*D22
 10
4744.673057123658
 20
4782.970891923529
 30
0.0
 11
6059.673057123658
 21
4782.970891923529
 31
0.0
 70
   160
  1
柱外寸法<>
 71
     5
 42
2630.0
  3
INABA_S40G
100
AcDbAlignedDimension
 13
7374.673057123658
 23
4570.42930666529
 33
0.0
 14
4744.673057123658
 24
4570.429306665292
 34
0.0
100
AcDbRotatedDimension
  0
DIMENSION
  5
16C46
330
747D
100
AcDbEntity
  8
寸法
 48
50.0
100
AcDbDimension
  2
*D23
 10
4694.673057123658
 20
4782.970891923529
 30
0.0
 11
4381.187775749411
 21
4782.970891923529
 31
0.0
 70
   160
 71
     5
 42
50.0
  3
INABA_S40G
100
AcDbAlignedDimension
 13
4744.673057123658
 23
4570.429306665292
 33
0.0
 14
4694.673057123658
 24
4570.42930666529
 34
0.0
100
AcDbRotatedDimension
1001
ACAD
1000
DSTYLE
1002
{
1002
}
  0
DIMENSION
  5
16C47
330
747D
100
AcDbEntity
  8
寸法
 48
50.0
100
AcDbDimension
  2
*D24
 10
7374.673057123658
 20
4782.970891923529
 30
0.0
 11
7738.158338497895
 21
4782.970891923529
 31
0.0
 70
   160
 71
     5
 42
50.0
  3
INABA_S40G
100
AcDbAlignedDimension
 13
7424.673057123658
 23
4570.429306665288
 33
0.0
 14
7374.673057123658
 24
4570.42930666529
 34
0.0
100
AcDbRotatedDimension
  0
DIMENSION
  5
16C48
330
747D
100
AcDbEntity
  8
寸法
 48
50.0
100
AcDbDimension
  2
*D25
 10
7424.673057123658
 20
4998.366323405784
 30
0.0
 11
6059.673057123658
 21
4998.366323405784
 31
0.0
 70
   160
 71
     5
 42
2730.0
  3
INABA_S40G
100
AcDbAlignedDimension
 13
4694.673057123658
 23
4570.42930666529
 33
0.0
 14
7424.673057123658
 24
4570.429306665288
 34
0.0
100
AcDbRotatedDimension
  0
LINE
  5
16C49
330
747D
100
AcDbEntity
  8
部品1
100
AcDbLine
 10
4695.092718138988
 20
4563.032781270049
 30
0.0
 11
4696.226115471338
 21
4543.056653287449
 31
0.0
  0
LINE
  5
16C4A
330
747D
100
AcDbEntity
  8
部品1
100
AcDbLine
 10
4707.663135792914
 20
4447.39924612039
 30
0.0
 11
4708.308041600022
 21
4436.032781270051
 31
0.0
  0
LINE
  5
16C4B
330
747D
100
AcDbEntity
  8
部品1
100
AcDbLine
 10
4699.427105268067
 20
4539.599246120391
 30
0.0
 11
4704.462145996178
 21
4450.856653287448
 31
0.0
  0
ARC
  5
16C4C
330
747D
100
AcDbEntity
  8
部品1
 48
50.0
100
AcDbCircle
 10
4696.431922371881
 20
4539.429306665289
 30
0.0
 40
3.0
100
AcDbArc
 50
3.247342790340932
 51
82.34187279263609
  0
ARC
  5
16C4D
330
747D
100
AcDbEntity
  8
部品1
 48
50.0
100
AcDbCircle
 10
4704.667952896725
 20
4447.229306665287
 30
0.0
 40
3.0
100
AcDbArc
 50
3.247342790340932
 51
82.34187279263631
  0
ARC
  5
16C4E
330
747D
100
AcDbEntity
  8
部品1
 48
50.0
100
AcDbCircle
 10
4705.161022005286
 20
4450.896305826971
 30
0.0
 40
0.7
100
AcDbArc
 50
183.2473427902889
 51
262.3418727926363
  0
ARC
  5
16C4F
330
747D
100
AcDbEntity
  8
部品1
 48
50.0
100
AcDbCircle
 10
4696.924991480446
 20
4543.096305826975
 30
0.0
 40
0.7
100
AcDbArc
 50
183.2473427903929
 51
262.3418727926363
  0
ARC
  5
16C50
330
747D
100
AcDbEntity
  8
部品1
100
AcDbCircle
 10
4715.296801691121
 20
4436.42930666529
 30
0.0
 40
7.0
100
AcDbArc
 50
183.247342790341
 51
270.0
  0
ARC
  5
16C51
330
747D
100
AcDbEntity
  8
部品1
100
AcDbCircle
 10
4702.081478230087
 20
4563.429306665288
 30
0.0
 40
7.0
100
AcDbArc
 50
90.0
 51
183.247342790341
  0
ARC
  5
16C52
330
747D
100
AcDbEntity
  8
部品1
100
AcDbCircle
 10
7417.264636017226
 20
4563.429306665288
 30
0.0
 40
7.0
100
AcDbArc
 50
356.752657209659
 51
90.0
  0
ARC
  5
16C53
330
747D
100
AcDbEntity
  8
部品1
100
AcDbCircle
 10
7404.049312556193
 20
4436.42930666529
 30
0.0
 40
7.0
100
AcDbArc
 50
270.0
 51
356.752657209659
  0
ARC
  5
16C54
330
747D
100
AcDbEntity
  8
部品1
 48
50.0
100
AcDbCircle
 10
7422.421122766872
 20
4543.096305826975
 30
0.0
 40
0.7
100
AcDbArc
 50
277.6581272073637
 51
356.752657209607
  0
ARC
  5
16C55
330
747D
100
AcDbEntity
  8
部品1
 48
50.0
100
AcDbCircle
 10
7414.185092242028
 20
4450.896305826971
 30
0.0
 40
0.7
100
AcDbArc
 50
277.6581272073637
 51
356.7526572097111
  0
ARC
  5
16C56
330
747D
100
AcDbEntity
  8
部品1
 48
50.0
100
AcDbCircle
 10
7414.678161350588
 20
4447.229306665287
 30
0.0
 40
3.0
100
AcDbArc
 50
97.6581272073637
 51
176.752657209659
  0
ARC
  5
16C57
330
747D
100
AcDbEntity
  8
部品1
 48
50.0
100
AcDbCircle
 10
7422.914191875432
 20
4539.429306665289
 30
0.0
 40
3.0
100
AcDbArc
 50
97.6581272073639
 51
176.752657209659
  0
LINE
  5
16C58
330
747D
100
AcDbEntity
  8
部品1
100
AcDbLine
 10
7419.919008979246
 20
4539.599246120391
 30
0.0
 11
7414.883968251135
 21
4450.856653287448
 31
0.0
  0
LINE
  5
16C59
330
747D
100
AcDbEntity
  8
部品1
100
AcDbLine
 10
7411.682978454402
 20
4447.39924612039
 30
0.0
 11
7411.038072647291
 21
4436.032781270051
 31
0.0
  0
LINE
  5
16C5A
330
747D
100
AcDbEntity
  8
細線
 48
50.0
100
AcDbLine
 10
4727.673057123658
 20
4570.429306665288
 30
0.0
 11
4727.673057123658
 21
4429.429306665288
 31
0.0
  0
LINE
  5
16C5B
330
747D
100
AcDbEntity
  8
細線
 48
50.0
100
AcDbLine
 10
7391.673057123658
 20
4570.429306665288
 30
0.0
 11
7391.673057123658
 21
4429.429306665288
 31
0.0
  0
LINE
  5
16C5C
330
747D
100
AcDbEntity
  8
部品1
100
AcDbLine
 10
7424.253396108325
 20
4563.032781270049
 30
0.0
 11
7423.119998775979
 21
4543.056653287449
 31
0.0
  0
LINE
  5
16C5D
330
747D
100
AcDbEntity
  8
細線
 48
50.0
100
AcDbLine
 10
7414.278375586899
 20
4450.202549228755
 30
0.0
 11
4705.067738660458
 21
4450.202549229076
 31
0.0
  0
LINE
  5
16C5E
330
747D
100
AcDbEntity
  8
細線
 48
50.0
100
AcDbLine
 10
7422.514406111743
 20
4542.402549228756
 30
0.0
 11
4696.831708135618
 21
4542.402549229076
 31
0.0
  0
LINE
  5
16C5F
330
747D
100
AcDbEntity
  8
部品1
 48
50.0
100
AcDbLine
 10
7404.049312556193
 20
4429.42930666529
 30
0.0
 11
4715.296801691121
 21
4429.42930666529
 31
0.0
  0
LINE
  5
16C60
330
747D
100
AcDbEntity
  8
部品1
 48
50.0
100
AcDbLine
 10
7417.264636017226
 20
4570.429306665288
 30
0.0
 11
4702.081478230087
 21
4570.429306665288
 31
0.0
  0
LINE
  5
16CF3
330
747D
100
AcDbEntity
  8
部品1
100
AcDbLine
 10
10305.47042435557
 20
2195.429306024867
 30
0.0
 11
10305.47042435557
 21
2095.429306024867
 31
0.0
  0
LINE
  5
16CF4
330
747D
100
AcDbEntity
  8
部品1
100
AcDbLine
 10
10105.47042435557
 20
2195.429306024867
 30
0.0
 11
10105.47042435557
 21
2095.429306024867
 31
0.0
  0
LINE
  5
16CF5
330
747D
100
AcDbEntity
  8
部品1
100
AcDbLine
 10
9765.470438931144
 20
2195.429306665286
 30
0.0
 11
9765.470438931144
 21
2095.429306665286
 31
0.0
  0
LINE
  5
16CF6
330
747D
100
AcDbEntity
  8
部品1
100
AcDbLine
 10
10900.47043893114
 20
2195.429306665286
 30
0.0
 11
10900.47043893114
 21
2095.429306665286
 31
0.0
  0
LINE
  5
16CFB
330
747D
100
AcDbEntity
  8
部品1
100
AcDbLine
 10
6374.630482051657
 20
2195.429306665287
 30
0.0
 11
6374.630482051653
 21
2095.429306665288
 31
0.0
  0
LINE
  5
16CFC
330
747D
100
AcDbEntity
  8
部品1
100
AcDbLine
 10
6574.630482051656
 20
2195.429306665287
 30
0.0
 11
6574.630482051652
 21
2095.429306665288
 31
0.0
  0
LINE
  5
16CFD
330
747D
100
AcDbEntity
  8
部品1
100
AcDbLine
 10
7174.673057123651
 20
2195.429306665286
 30
0.0
 11
7174.67305712365
 21
2095.429306665286
 31
0.0
  0
LINE
  5
16CFE
330
747D
100
AcDbEntity
  8
部品1
100
AcDbLine
 10
6974.673057123651
 20
2195.429306665286
 30
0.0
 11
6974.673057123649
 21
2095.429306665286
 31
0.0
  0
LINE
  5
16CFF
330
747D
100
AcDbEntity
  8
部品1
100
AcDbLine
 10
5544.705225808537
 20
2195.429306665286
 30
0.0
 11
5544.705225808534
 21
2095.429306665286
 31
0.0
  0
LINE
  5
16D00
330
747D
100
AcDbEntity
  8
部品1
100
AcDbLine
 10
5744.705225808537
 20
2195.429306665286
 30
0.0
 11
5744.705225808535
 21
2095.429306665286
 31
0.0
  0
LINE
  5
16D01
330
747D
100
AcDbEntity
  8
部品1
100
AcDbLine
 10
5144.673057123657
 20
2195.429306665286
 30
0.0
 11
5144.673057123658
 21
2095.429306665286
 31
0.0
  0
LINE
  5
16D02
330
747D
100
AcDbEntity
  8
部品1
100
AcDbLine
 10
4944.673057123657
 20
2195.429306665286
 30
0.0
 11
4944.673057123658
 21
2095.429306665286
 31
0.0
  0
LINE
  5
16D03
330
747D
100
AcDbEntity
  8
部品1
100
AcDbLine
 10
4799.673057123657
 20
2195.429306665286
 30
0.0
 11
7319.673057123657
 21
2195.429306665286
 31
0.0
  0
ARC
  5
16D5F
330
747D
100
AcDbEntity
  8
細線
 48
50.0
100
AcDbCircle
 10
5759.673057123655
 20
2807.929306665286
 30
0.0
 40
15.0
100
AcDbArc
 50
90.0
 51
270.0
  0
ARC
  5
16D60
330
747D
100
AcDbEntity
  8
細線
 48
50.0
100
AcDbCircle
 10
5859.673057123655
 20
2807.929306665286
 30
0.0
 40
15.0
100
AcDbArc
 50
270.0
 51
90.0
  0
LINE
  5
16D61
330
747D
100
AcDbEntity
  8
細線
 48
50.0
100
AcDbLine
 10
5759.673057123655
 20
2822.929306665287
 30
0.0
 11
5859.673057123655
 21
2822.929306665287
 31
0.0
  0
LINE
  5
16D62
330
747D
100
AcDbEntity
  8
細線
 48
50.0
100
AcDbLine
 10
5859.673057123655
 20
2792.929306665286
 30
0.0
 11
5759.673057123655
 21
2792.929306665286
 31
0.0
  0
LINE
  5
16D63
330
747D
100
AcDbEntity
  8
細線
 48
50.0
100
AcDbLine
 10
6359.673057123655
 20
2792.929306665286
 30
0.0
 11
6259.673057123655
 21
2792.929306665286
 31
0.0
  0
LINE
  5
16D64
330
747D
100
AcDbEntity
  8
細線
 48
50.0
100
AcDbLine
 10
6259.673057123655
 20
2822.929306665287
 30
0.0
 11
6359.673057123655
 21
2822.929306665287
 31
0.0
  0
ARC
  5
16D65
330
747D
100
AcDbEntity
  8
細線
 48
50.0
100
AcDbCircle
 10
6259.673057123655
 20
2807.929306665286
 30
0.0
 40
15.0
100
AcDbArc
 50
90.0
 51
270.0
  0
ARC
  5
16D66
330
747D
100
AcDbEntity
  8
細線
 48
50.0
100
AcDbCircle
 10
6359.673057123655
 20
2807.929306665286
 30
0.0
 40
15.0
100
AcDbArc
 50
270.0
 51
90.0
  0
CIRCLE
  5
16D67
330
747D
100
AcDbEntity
  8
細線
 48
50.0
100
AcDbCircle
 10
6059.673057123655
 20
3132.929306665286
 30
0.0
 40
18.0
  0
LINE
  5
16D6B
330
747D
100
AcDbEntity
  8
細線
100
AcDbLine
 10
7271.673057123656
 20
2255.429306665286
 30
0.0
 11
4847.673057123651
 21
2255.429306665286
 31
0.0
  0
LINE
  5
16D6C
330
747D
100
AcDbEntity
  8
細線
100
AcDbLine
 10
4847.673057123653
 20
2775.429306665286
 30
0.0
 11
7271.673057123655
 21
2775.429306665286
 31
0.0
  0
LINE
  5
16D6D
330
747D
100
AcDbEntity
  8
細線
100
AcDbLine
 10
4847.673057123653
 20
2710.429306665286
 30
0.0
 11
7271.673057123655
 21
2710.429306665286
 31
0.0
  0
LINE
  5
16D6E
330
747D
100
AcDbEntity
  8
細線
100
AcDbLine
 10
4847.673057123653
 20
2645.429306665286
 30
0.0
 11
7271.673057123655
 21
2645.429306665286
 31
0.0
  0
LINE
  5
16D6F
330
747D
100
AcDbEntity
  8
細線
100
AcDbLine
 10
4847.673057123653
 20
2580.429306665287
 30
0.0
 11
7271.673057123655
 21
2580.429306665287
 31
0.0
  0
LINE
  5
16D70
330
747D
100
AcDbEntity
  8
細線
100
AcDbLine
 10
4847.673057123653
 20
2515.429306665286
 30
0.0
 11
7271.673057123655
 21
2515.429306665286
 31
0.0
  0
LINE
  5
16D71
330
747D
100
AcDbEntity
  8
細線
100
AcDbLine
 10
4847.673057123653
 20
2450.429306665287
 30
0.0
 11
7271.673057123655
 21
2450.429306665287
 31
0.0
  0
LINE
  5
16D72
330
747D
100
AcDbEntity
  8
細線
100
AcDbLine
 10
4847.673057123653
 20
2385.429306665287
 30
0.0
 11
7271.673057123655
 21
2385.429306665287
 31
0.0
  0
LINE
  5
16D73
330
747D
100
AcDbEntity
  8
細線
100
AcDbLine
 10
4847.673057123653
 20
2320.429306665286
 30
0.0
 11
7271.673057123655
 21
2320.429306665286
 31
0.0
  0
LINE
  5
16D74
330
747D
100
AcDbEntity
  8
細線
100
AcDbLine
 10
4847.673057123653
 20
2255.429306665286
 30
0.0
 11
7271.673057123655
 21
2255.429306665286
 31
0.0
  0
LINE
  5
16D75
330
747D
100
AcDbEntity
  8
細線
100
AcDbLine
 10
4847.673057123653
 20
4075.429306665286
 30
0.0
 11
7271.673057123655
 21
4075.429306665286
 31
0.0
  0
LINE
  5
16D76
330
747D
100
AcDbEntity
  8
細線
100
AcDbLine
 10
4847.673057123653
 20
4140.429306665286
 30
0.0
 11
7271.673057123655
 21
4140.429306665286
 31
0.0
  0
LINE
  5
16D77
330
747D
100
AcDbEntity
  8
細線
100
AcDbLine
 10
4847.673057123653
 20
3425.429306665286
 30
0.0
 11
7271.673057123655
 21
3425.429306665286
 31
0.0
  0
LINE
  5
16D78
330
747D
100
AcDbEntity
  8
細線
100
AcDbLine
 10
4847.673057123653
 20
3360.429306665287
 30
0.0
 11
7271.673057123655
 21
3360.429306665287
 31
0.0
  0
LINE
  5
16D79
330
747D
100
AcDbEntity
  8
細線
100
AcDbLine
 10
4847.673057123653
 20
3295.429306665287
 30
0.0
 11
7271.673057123655
 21
3295.429306665287
 31
0.0
  0
LINE
  5
16D7A
330
747D
100
AcDbEntity
  8
細線
100
AcDbLine
 10
4847.673057123653
 20
3230.429306665286
 30
0.0
 11
7271.673057123655
 21
3230.429306665286
 31
0.0
  0
LINE
  5
16D7B
330
747D
100
AcDbEntity
  8
細線
100
AcDbLine
 10
4847.673057123653
 20
3165.429306665286
 30
0.0
 11
7271.673057123655
 21
3165.429306665286
 31
0.0
  0
LINE
  5
16D7C
330
747D
100
AcDbEntity
  8
細線
100
AcDbLine
 10
4847.673057123653
 20
3100.429306665287
 30
0.0
 11
7271.673057123655
 21
3100.429306665287
 31
0.0
  0
LINE
  5
16D7D
330
747D
100
AcDbEntity
  8
細線
100
AcDbLine
 10
4847.673057123653
 20
3035.429306665287
 30
0.0
 11
7271.673057123655
 21
3035.429306665287
 31
0.0
  0
LINE
  5
16D7E
330
747D
100
AcDbEntity
  8
細線
100
AcDbLine
 10
4847.673057123653
 20
2970.429306665286
 30
0.0
 11
7271.673057123655
 21
2970.429306665286
 31
0.0
  0
LINE
  5
16D7F
330
747D
100
AcDbEntity
  8
細線
100
AcDbLine
 10
4847.673057123653
 20
2905.429306665287
 30
0.0
 11
7271.673057123655
 21
2905.429306665287
 31
0.0
  0
LINE
  5
16D80
330
747D
100
AcDbEntity
  8
細線
100
AcDbLine
 10
4847.673057123653
 20
2840.429306665286
 30
0.0
 11
7271.673057123655
 21
2840.429306665286
 31
0.0
  0
LINE
  5
16D81
330
747D
100
AcDbEntity
  8
細線
100
AcDbLine
 10
4847.673057123653
 20
3815.429306665286
 30
0.0
 11
7271.673057123655
 21
3815.429306665286
 31
0.0
  0
LINE
  5
16D82
330
747D
100
AcDbEntity
  8
細線
100
AcDbLine
 10
4847.673057123653
 20
3750.429306665286
 30
0.0
 11
7271.673057123655
 21
3750.429306665286
 31
0.0
  0
LINE
  5
16D83
330
747D
100
AcDbEntity
  8
細線
100
AcDbLine
 10
4847.673057123653
 20
3685.429306665287
 30
0.0
 11
7271.673057123655
 21
3685.429306665287
 31
0.0
  0
LINE
  5
16D84
330
747D
100
AcDbEntity
  8
細線
100
AcDbLine
 10
4847.673057123653
 20
3620.429306665287
 30
0.0
 11
7271.673057123655
 21
3620.429306665287
 31
0.0
  0
LINE
  5
16D85
330
747D
100
AcDbEntity
  8
細線
100
AcDbLine
 10
4847.673057123653
 20
3555.429306665286
 30
0.0
 11
7271.673057123655
 21
3555.429306665286
 31
0.0
  0
LINE
  5
16D86
330
747D
100
AcDbEntity
  8
細線
100
AcDbLine
 10
4847.673057123653
 20
3490.429306665286
 30
0.0
 11
7271.673057123655
 21
3490.429306665286
 31
0.0
  0
LINE
  5
16D87
330
747D
100
AcDbEntity
  8
細線
100
AcDbLine
 10
4847.673057123653
 20
4010.429306665286
 30
0.0
 11
7271.673057123655
 21
4010.429306665286
 31
0.0
  0
LINE
  5
16D88
330
747D
100
AcDbEntity
  8
細線
100
AcDbLine
 10
4847.673057123653
 20
3945.429306665287
 30
0.0
 11
7271.673057123655
 21
3945.429306665287
 31
0.0
  0
LINE
  5
16D89
330
747D
100
AcDbEntity
  8
細線
100
AcDbLine
 10
4847.673057123653
 20
3880.429306665286
 30
0.0
 11
7271.673057123655
 21
3880.429306665286
 31
0.0
  0
LINE
  5
16D8A
330
747D
100
AcDbEntity
  8
部品1
100
AcDbLine
 10
4744.673057123656
 20
4170.429306665285
 30
0.0
 11
7374.673057123658
 21
4170.429306665288
 31
0.0
  0
LINE
  5
16D8B
330
747D
100
AcDbEntity
  8
部品1
100
AcDbLine
 10
7271.673057123658
 20
4170.429306665287
 30
0.0
 11
7271.673057123658
 21
2245.429306665286
 31
0.0
  0
LINE
  5
16D8C
330
747D
100
AcDbEntity
  8
部品1
100
AcDbLine
 10
4847.673057123657
 20
4170.429306665286
 30
0.0
 11
4847.673057123657
 21
2245.429306665286
 31
0.0
  0
LINE
  5
16D8D
330
747D
100
AcDbEntity
  8
破線
  6
HIDDEN
 48
5.0
100
AcDbLine
 10
4799.673057123654
 20
1845.429306665294
 30
0.0
 11
4744.673057123654
 21
1845.429306665294
 31
0.0
  0
LINE
  5
16D8E
330
747D
100
AcDbEntity
  8
破線
  6
HIDDEN
 48
5.0
100
AcDbLine
 10
7374.673057123655
 20
1845.429306665286
 30
0.0
 11
7319.673057123657
 21
1845.429306665286
 31
0.0
  0
LINE
  5
16D8F
330
747D
100
AcDbEntity
  8
破線
  6
HIDDEN
 48
5.0
100
AcDbLine
 10
4799.673057123657
 20
2095.429306665286
 30
0.0
 11
4799.673057123654
 21
1845.429306665286
 31
0.0
  0
LINE
  5
16D90
330
747D
100
AcDbEntity
  8
破線
  6
HIDDEN
 48
5.0
100
AcDbLine
 10
7319.673057123657
 20
2095.429306665286
 30
0.0
 11
7319.673057123657
 21
1845.429306665286
 31
0.0
  0
LINE
  5
16D91
330
747D
100
AcDbEntity
  8
破線
  6
HIDDEN
 48
5.0
100
AcDbLine
 10
9310.470438931139
 20
2095.429306665286
 30
0.0
 11
9310.470438931139
 21
1845.429306665286
 31
0.0
  0
LINE
  5
16D92
330
747D
100
AcDbEntity
  8
破線
  6
HIDDEN
 48
5.0
100
AcDbLine
 10
9365.470438931138
 20
2095.429306665286
 30
0.0
 11
9365.470438931138
 21
1845.429306665286
 31
0.0
  0
LINE
  5
16D94
330
747D
100
AcDbEntity
  8
破線
  6
HIDDEN
 48
5.0
100
AcDbLine
 10
9310.470438931139
 20
1845.429306665286
 30
0.0
 11
9365.470438931138
 21
1845.429306665286
 31
0.0
  0
LINE
  5
16D99
330
747D
100
AcDbEntity
  8
破線
  6
HIDDEN
 48
5.0
100
AcDbLine
 10
4744.673057123656
 20
2095.429306665286
 30
0.0
 11
4744.673057123654
 21
1845.429306665286
 31
0.0
  0
LINE
  5
16D9A
330
747D
100
AcDbEntity
  8
破線
  6
HIDDEN
 48
5.0
100
AcDbLine
 10
7374.673057123657
 20
2095.429306665286
 30
0.0
 11
7374.673057123657
 21
1845.429306665286
 31
0.0
  0
LINE
  5
16D9B
330
747D
100
AcDbEntity
  8
部品1
100
AcDbLine
 10
9365.470438931138
 20
2195.429306665286
 30
0.0
 11
11052.97043893113
 21
2195.429306665286
 31
0.0
  0
LINE
  5
16D9C
330
747D
100
AcDbEntity
  8
部品1
100
AcDbLine
 10
11092.97043893114
 20
2195.429306665286
 30
0.0
 11
11100.47043893114
 21
2195.429306665286
 31
0.0
  0
LINE
  5
16DA3
330
747D
100
AcDbEntity
  8
破線
  6
HIDDEN
 48
5.0
100
AcDbLine
 10
11092.97043893113
 20
2095.429306665286
 30
0.0
 11
11092.97043893113
 21
2090.429306665286
 31
0.0
  0
LINE
  5
16DA4
330
747D
100
AcDbEntity
  8
破線
  6
HIDDEN
 48
5.0
100
AcDbLine
 10
11052.97043893114
 20
2095.429306665286
 30
0.0
 11
11052.97043893114
 21
2090.429306665286
 31
0.0
  0
ARC
  5
16DA5
330
747D
100
AcDbEntity
  8
部品1
 48
50.0
100
AcDbCircle
 10
11087.97043893114
 20
2235.429306665286
 30
0.0
 40
5.0
100
AcDbArc
 50
359.9999999999984
 51
90.0
  0
ARC
  5
16DA6
330
747D
100
AcDbEntity
  8
部品1
 48
50.0
100
AcDbCircle
 10
11057.97043893113
 20
2235.429306665286
 30
0.0
 40
5.0
100
AcDbArc
 50
90.0
 51
180.0000000000016
  0
LINE
  5
16DA7
330
747D
100
AcDbEntity
  8
部品1
100
AcDbLine
 10
11087.97043893114
 20
2240.429306665286
 30
0.0
 11
11057.97043893113
 21
2240.429306665286
 31
0.0
  0
LINE
  5
16DA8
330
747D
100
AcDbEntity
  8
部品1
 48
50.0
100
AcDbLine
 10
11092.97043893114
 20
2235.429306665286
 30
0.0
 11
11092.97043893113
 21
2095.429306665286
 31
0.0
  0
LINE
  5
16DA9
330
747D
100
AcDbEntity
  8
部品1
 48
50.0
100
AcDbLine
 10
11052.97043893113
 20
2235.429306665286
 30
0.0
 11
11052.97043893114
 21
2095.429306665286
 31
0.0
  0
LINE
  5
16DAD
330
747D
100
AcDbEntity
  8
破線
  6
HIDDEN
 48
5.0
100
AcDbLine
 10
11107.97043893114
 20
1942.729306665285
 30
0.0
 11
11107.97043893114
 21
1940.429306665286
 31
0.0
  0
LINE
  5
16DAE
330
747D
100
AcDbEntity
  8
破線
  6
HIDDEN
 48
5.0
100
AcDbLine
 10
11092.97043893114
 20
2090.429306665286
 30
0.0
 11
11107.97043893114
 21
1942.729306665285
 31
0.0
  0
LINE
  5
16DAF
330
747D
100
AcDbEntity
  8
破線
  6
HIDDEN
 48
5.0
100
AcDbLine
 10
11037.97043893113
 20
1942.729306665285
 30
0.0
 11
11037.97043893113
 21
1940.429306665286
 31
0.0
  0
LINE
  5
16DB0
330
747D
100
AcDbEntity
  8
破線
  6
HIDDEN
 48
5.0
100
AcDbLine
 10
11052.97043893113
 20
2090.429306665286
 30
0.0
 11
11037.97043893113
 21
1942.729306665285
 31
0.0
  0
LINE
  5
16DB1
330
747D
100
AcDbEntity
  8
破線
  6
HIDDEN
 48
5.0
100
AcDbLine
 10
11107.97043893114
 20
1940.429306665286
 30
0.0
 11
11037.97043893113
 21
1940.429306665286
 31
0.0
  0
LINE
  5
16DB2
330
747D
100
AcDbEntity
  8
部品1
100
AcDbLine
 10
7374.673057123658
 20
4429.429306665291
 30
0.0
 11
7374.673057123657
 21
2095.429306665286
 31
0.0
  0
LINE
  5
16DB3
330
747D
100
AcDbEntity
  8
部品1
100
AcDbLine
 10
4799.673057123657
 20
4170.429306665285
 30
0.0
 11
4799.673057123657
 21
2095.429306665286
 31
0.0
  0
LINE
  5
16DB4
330
747D
100
AcDbEntity
  8
部品1
100
AcDbLine
 10
7319.673057123655
 20
4170.429306665288
 30
0.0
 11
7319.673057123657
 21
2095.429306665286
 31
0.0
  0
LINE
  5
16DB5
330
747D
100
AcDbEntity
  8
部品1
100
AcDbLine
 10
4744.673057123656
 20
4429.42930666529
 30
0.0
 11
4744.673057123656
 21
2095.429306665286
 31
0.0
  0
LINE
  5
16DB6
330
747D
100
AcDbEntity
  8
部品1
100
AcDbLine
 10
4799.673057123657
 20
2245.429306665286
 30
0.0
 11
7319.673057123657
 21
2245.429306665286
 31
0.0
  0
LINE
  5
16DB7
330
747D
100
AcDbEntity
  8
部品1
100
AcDbLine
 10
3905.903465777273
 20
2225.333117232951
 30
0.0
 11
3830.903465777274
 21
2095.429306665286
 31
0.0
  0
TEXT
  5
16DB8
330
747D
100
AcDbEntity
  8
部品1
100
AcDbText
 10
3934.008407902047
 20
2131.536210271188
 30
0.0
 40
125.0
  1
G.L
  7
STYLE2
100
AcDbText
  0
LINE
  5
16DB9
330
747D
100
AcDbEntity
  8
部品1
100
AcDbLine
 10
3830.903465777274
 20
2095.429306665286
 30
0.0
 11
3755.903465777274
 21
2225.333117232951
 31
0.0
  0
LINE
  5
16DBA
330
747D
100
AcDbEntity
  8
部品1
100
AcDbLine
 10
3755.903465777274
 20
2225.333117232951
 30
0.0
 11
3905.903465777273
 21
2225.333117232951
 31
0.0
  0
DIMENSION
  5
16DBB
330
747D
100
AcDbEntity
  8
寸法
100
AcDbDimension
  2
*D26
 10
11805.39759690326
 20
4515.429306665286
 30
0.0
 11
11805.39759690326
 21
3350.429306665287
 31
0.0
 70
   160
 71
     5
 42
2320.000000000001
  3
INABA_S40G
100
AcDbAlignedDimension
 13
11100.47043893114
 23
2195.429306665286
 33
0.0
 14
11195.47043893114
 24
4515.429306665286
 34
0.0
 50
90.0
100
AcDbRotatedDimension
1001
ACAD
1000
DSTYLE
1002
{
1070
   288
1070
     1
1002
}
  0
LINE
  5
16DC2
330
747D
100
AcDbEntity
  8
部品1
100
AcDbLine
 10
11045.47043893114
 20
4335.429306665286
 30
0.0
 11
11045.47043893114
 21
2245.429306665286
 31
0.0
  0
LINE
  5
16DC3
330
747D
100
AcDbEntity
  8
部品1
100
AcDbLine
 10
11100.47043893114
 20
4390.311115351291
 30
0.0
 11
11100.47043893114
 21
2095.429306665286
 31
0.0
  0
DIMENSION
  5
16DDB
330
747D
100
AcDbEntity
  8
寸法
100
AcDbDimension
  2
*D27
 10
8466.720309747881
 20
2195.429306665287
 30
0.0
 11
8466.720309747881
 21
1811.679306665286
 31
0.0
 70
   160
 71
     5
 42
50.0
  3
INABA_S40G
100
AcDbAlignedDimension
 13
9310.470438931139
 23
2245.429306665286
 33
0.0
 14
9255.470438931139
 24
2195.429306665286
 34
0.0
 50
90.0
100
AcDbRotatedDimension
1001
ACAD
1000
DSTYLE
1002
{
1070
   288
1070
     1
1002
}
  0
DIMENSION
  5
16DDC
330
747D
100
AcDbEntity
  8
寸法
100
AcDbDimension
  2
*D28
 10
8166.72030974788
 20
2095.429306665286
 30
0.0
 11
8166.72030974788
 21
1680.429306665286
 31
0.0
 70
   160
 71
     5
 42
100.0000000000004
  3
INABA_S40G
100
AcDbAlignedDimension
 13
9255.470438931139
 23
2195.429306665286
 33
0.0
 14
8253.969363036008
 24
2095.429306665286
 34
0.0
 50
90.0
100
AcDbRotatedDimension
1001
ACAD
1000
DSTYLE
1002
{
1070
   288
1070
     1
1002
}
  0
DIMENSION
  5
16DDE
330
747D
100
AcDbEntity
  8
寸法
100
AcDbDimension
  2
*D29
 10
8466.720309747881
 20
2245.429306665287
 30
0.0
 11
8366.708498724257
 21
3290.429306665288
 31
0.0
 70
    32
 71
     5
 42
2089.999999999999
  3
INABA_S40G
100
AcDbAlignedDimension
 13
9310.470438931139
 23
4335.429306665286
 33
0.0
 14
9310.470438931139
 24
2245.429306665286
 34
0.0
 50
90.0
100
AcDbRotatedDimension
1001
ACAD
1000
DSTYLE
1002
{
1070
   288
1070
     1
1002
}
  0
LINE
  5
16DDF
330
747D
100
AcDbEntity
  8
部品1
100
AcDbLine
 10
9310.470438931144
 20
4427.287826107533
 30
0.0
 11
9310.470438931139
 21
2095.429306665286
 31
0.0
  0
LINE
  5
16DE3
330
747D
100
AcDbEntity
  8
部品1
100
AcDbLine
 10
9365.470438931138
 20
4335.429306665286
 30
0.0
 11
9365.470438931138
 21
2095.429306665286
 31
0.0
  0
LINE
  5
16DE4
330
747D
100
AcDbEntity
  8
部品1
100
AcDbLine
 10
9365.470438931138
 20
2245.429306665286
 30
0.0
 11
11100.47043893114
 21
2245.429306665286
 31
0.0
  0
LINE
  5
16DE5
330
747D
100
AcDbEntity
  8
部品1
100
AcDbLine
 10
9310.470438931139
 20
4335.429306665286
 30
0.0
 11
11100.47043893114
 21
4335.429306665286
 31
0.0
  0
LINE
  5
16DE6
330
747D
100
AcDbEntity
  8
Ｇ．Ｌ
100
AcDbLine
 10
3656.406454453174
 20
2095.429306665286
 30
0.0
 11
12790.79354554683
 21
2095.429306665286
 31
0.0
  0
LINE
  5
17FA3
330
747D
100
AcDbEntity
  8
細線
 48
50.0
100
AcDbLine
 10
10967.97043893114
 20
4335.429306665286
 30
0.0
 11
10967.97043893114
 21
2245.429306665286
 31
0.0
  0
LINE
  5
17FA4
330
747D
100
AcDbEntity
  8
細線
 48
50.0
100
AcDbLine
 10
10982.97043893114
 20
4335.429306665286
 30
0.0
 11
10982.97043893114
 21
2245.429306665286
 31
0.0
  0
LINE
  5
17FA5
330
747D
100
AcDbEntity
  8
細線
 48
50.0
100
AcDbLine
 10
10842.97043893114
 20
4335.429306665286
 30
0.0
 11
10842.97043893114
 21
2245.429306665286
 31
0.0
  0
LINE
  5
17FA6
330
747D
100
AcDbEntity
  8
細線
 48
50.0
100
AcDbLine
 10
10827.97043893114
 20
4335.429306665286
 30
0.0
 11
10827.97043893114
 21
2245.429306665286
 31
0.0
  0
LINE
  5
17FA7
330
747D
100
AcDbEntity
  8
細線
 48
50.0
100
AcDbLine
 10
10687.97043893114
 20
4335.429306665286
 30
0.0
 11
10687.97043893114
 21
2245.429306665286
 31
0.0
  0
LINE
  5
17FA8
330
747D
100
AcDbEntity
  8
細線
 48
50.0
100
AcDbLine
 10
10702.97043893114
 20
4335.429306665286
 30
0.0
 11
10702.97043893114
 21
2245.429306665286
 31
0.0
  0
LINE
  5
17FA9
330
747D
100
AcDbEntity
  8
部品1
100
AcDbLine
 10
10625.47043893113
 20
4335.429306665286
 30
0.0
 11
10625.47043893113
 21
2245.429306665286
 31
0.0
  0
LINE
  5
17FAA
330
747D
100
AcDbEntity
  8
細線
 48
50.0
100
AcDbLine
 10
10282.97043893114
 20
4335.429306665286
 30
0.0
 11
10282.97043893114
 21
2245.429306665286
 31
0.0
  0
LINE
  5
17FAB
330
747D
100
AcDbEntity
  8
細線
 48
50.0
100
AcDbLine
 10
10267.97043893113
 20
4335.429306665286
 30
0.0
 11
10267.97043893113
 21
2245.429306665286
 31
0.0
  0
LINE
  5
17FAC
330
747D
100
AcDbEntity
  8
細線
 48
50.0
100
AcDbLine
 10
10407.97043893114
 20
4335.429306665286
 30
0.0
 11
10407.97043893114
 21
2245.429306665286
 31
0.0
  0
LINE
  5
17FAD
330
747D
100
AcDbEntity
  8
細線
 48
50.0
100
AcDbLine
 10
10422.97043893114
 20
4335.429306665286
 30
0.0
 11
10422.97043893114
 21
2245.429306665286
 31
0.0
  0
LINE
  5
17FAE
330
747D
100
AcDbEntity
  8
細線
 48
50.0
100
AcDbLine
 10
10562.97043893114
 20
4335.429306665286
 30
0.0
 11
10562.97043893114
 21
2245.429306665286
 31
0.0
  0
LINE
  5
17FAF
330
747D
100
AcDbEntity
  8
細線
 48
50.0
100
AcDbLine
 10
10547.97043893114
 20
4335.429306665286
 30
0.0
 11
10547.97043893114
 21
2245.429306665286
 31
0.0
  0
LINE
  5
17FB0
330
747D
100
AcDbEntity
  8
部品1
100
AcDbLine
 10
10205.47043893113
 20
4335.429306665286
 30
0.0
 11
10205.47043893113
 21
2245.429306665286
 31
0.0
  0
LINE
  5
17FB1
330
747D
100
AcDbEntity
  8
細線
 48
50.0
100
AcDbLine
 10
9442.97043893113
 20
4335.429306665286
 30
0.0
 11
9442.970438931137
 21
2245.429306665286
 31
0.0
  0
LINE
  5
17FB2
330
747D
100
AcDbEntity
  8
細線
 48
50.0
100
AcDbLine
 10
9427.970438931131
 20
4335.429306665286
 30
0.0
 11
9427.970438931138
 21
2245.429306665286
 31
0.0
  0
LINE
  5
17FB3
330
747D
100
AcDbEntity
  8
細線
 48
50.0
100
AcDbLine
 10
9567.97043893113
 20
4335.429306665286
 30
0.0
 11
9567.970438931139
 21
2245.429306665286
 31
0.0
  0
LINE
  5
17FB4
330
747D
100
AcDbEntity
  8
細線
 48
50.0
100
AcDbLine
 10
9582.97043893113
 20
4335.429306665286
 30
0.0
 11
9582.970438931138
 21
2245.429306665286
 31
0.0
  0
LINE
  5
17FB5
330
747D
100
AcDbEntity
  8
細線
 48
50.0
100
AcDbLine
 10
9722.970438931131
 20
4335.429306665286
 30
0.0
 11
9722.970438931138
 21
2245.429306665286
 31
0.0
  0
LINE
  5
17FB6
330
747D
100
AcDbEntity
  8
細線
 48
50.0
100
AcDbLine
 10
9707.97043893113
 20
4335.429306665286
 30
0.0
 11
9707.970438931138
 21
2245.429306665286
 31
0.0
  0
LINE
  5
17FB7
330
747D
100
AcDbEntity
  8
細線
 48
50.0
100
AcDbLine
 10
10127.97043893113
 20
4335.429306665286
 30
0.0
 11
10127.97043893113
 21
2245.429306665286
 31
0.0
  0
LINE
  5
17FB8
330
747D
100
AcDbEntity
  8
細線
 48
50.0
100
AcDbLine
 10
10142.97043893113
 20
4335.429306665286
 30
0.0
 11
10142.97043893114
 21
2245.429306665286
 31
0.0
  0
LINE
  5
17FB9
330
747D
100
AcDbEntity
  8
細線
 48
50.0
100
AcDbLine
 10
10002.97043893113
 20
4335.429306665286
 30
0.0
 11
10002.97043893114
 21
2245.429306665286
 31
0.0
  0
LINE
  5
17FBA
330
747D
100
AcDbEntity
  8
細線
 48
50.0
100
AcDbLine
 10
9987.97043893113
 20
4335.429306665286
 30
0.0
 11
9987.970438931137
 21
2245.429306665286
 31
0.0
  0
LINE
  5
17FBB
330
747D
100
AcDbEntity
  8
細線
 48
50.0
100
AcDbLine
 10
9847.970438931131
 20
4335.429306665286
 30
0.0
 11
9847.970438931138
 21
2245.429306665286
 31
0.0
  0
LINE
  5
17FBC
330
747D
100
AcDbEntity
  8
細線
 48
50.0
100
AcDbLine
 10
9862.97043893113
 20
4335.429306665286
 30
0.0
 11
9862.970438931137
 21
2245.429306665286
 31
0.0
  0
LINE
  5
17FBD
330
747D
100
AcDbEntity
  8
部品1
100
AcDbLine
 10
9785.470438931131
 20
4335.429306665286
 30
0.0
 11
9785.470438931138
 21
2245.429306665286
 31
0.0
  0
DIMENSION
  5
18783
330
747D
100
AcDbEntity
  8
寸法
100
AcDbDimension
  2
*D30
 10
8166.720309747882
 20
4570.42930666529
 30
0.0
 11
8066.708498724258
 21
3382.929306665289
 31
0.0
 70
    32
 71
     5
 42
2375.000000000005
  3
INABA_S40G
100
AcDbAlignedDimension
 13
9310.47043893114
 23
2195.429306665285
 33
0.0
 14
9250.470438931143
 24
4570.42930666529
 34
0.0
 50
90.0
100
AcDbRotatedDimension
1001
ACAD
1000
DSTYLE
1002
{
1070
   174
1070
     0
1070
   272
1070
     1
1070
   288
1070
     0
1070
   341
1005
0
1002
}
  0
MTEXT
  5
1891F
330
747D
100
AcDbEntity
  8
寸法
 62
     7
 48
50.0
100
AcDbMText
 10
5422.388255196299
 20
8356.903693513002
 30
0.0
 40
96.0
 41
0.0
 71
     5
 72
     1
  1
棚 3段
  7
STYLE1
 73
     1
 44
1.0
1001
ACAD
1000
MTEXTBEGIN
1070
    73
1070
     1
1070
    44
1040
1.0
1070
    74
1070
     0
1000
MTEXTEND
  0
MTEXT
  5
18AFF
330
747D
100
AcDbEntity
  8
寸法
 62
     7
 48
50.0
100
AcDbMText
 10
6722.388255196299
 20
8356.90369351305
 30
0.0
 40
96.0
 41
0.0
 71
     5
 72
     1
  1
棚 3段
  7
STYLE1
 73
     1
 44
1.0
1001
ACAD
1000
MTEXTBEGIN
1070
    73
1070
     1
1070
    44
1040
1.0
1070
    74
1070
     0
1000
MTEXTEND
  0
LINE
  5
18B33
330
747D
100
AcDbEntity
  8
補助
  6
PHANTOM
 62
   230
 48
50.0
100
AcDbLine
 10
140.0
 20
0.0
 30
0.0
 11
139.9999999999995
 21
11409.6
 31
0.0
  0
TEXT
  5
18B51
330
747D
100
AcDbEntity
  8
文字
 62
     7
 48
50.0
100
AcDbText
 10
14544.7600863402
 20
483.8967129911414
 30
0.0
 40
160.0
  1
FXN-50HY
  7
STYLE2
100
AcDbText
  0
DIMENSION
  5
18C8E
330
747D
100
AcDbEntity
  8
寸法
 48
50.0
100
AcDbDimension
  2
*D31
 10
7662.216159445403
 20
4143.429306665285
 30
0.0
 11
7562.216159445402
 21
3200.429306665287
 31
0.0
 70
    32
  1
有効開口部高サ <>
 71
     5
 42
1885.999999999999
  3
INABA_S40G
100
AcDbAlignedDimension
 13
7374.673057123657
 23
2257.429306665287
 33
0.0
 14
7374.673057123658
 24
4143.429306665285
 34
0.0
 50
90.0
100
AcDbRotatedDimension
  0
DIMENSION
  5
18C8F
330
747D
100
AcDbEntity
  8
寸法
 48
50.0
100
AcDbDimension
  2
*D32
 10
7662.216159445403
 20
4170.429306665287
 30
0.0
 11
7802.385982691768
 21
4171.396506504945
 31
0.0
 70
   160
 71
     5
 42
27.00000000000182
  3
INABA_S40G
100
AcDbAlignedDimension
 13
7374.673057123658
 23
4143.429306665285
 33
0.0
 14
7374.673057123658
 24
4170.429306665287
 34
0.0
 50
90.0
100
AcDbRotatedDimension
1001
ACAD
1000
DSTYLE
1002
{
1070
   279
1070
     2
1002
}
  0
DIMENSION
  5
18C90
330
747D
100
AcDbEntity
  8
寸法
 48
50.0
100
AcDbDimension
  2
*D33
 10
7662.216159445404
 20
4335.429306665286
 30
0.0
 11
7662.216159445403
 21
4573.914588039526
 31
0.0
 70
   160
 71
     5
 42
164.9999999999991
  3
INABA_S40G
100
AcDbAlignedDimension
 13
7374.673057123658
 23
4170.429306665287
 33
0.0
 14
7374.673057123657
 24
4335.429306665286
 34
0.0
 50
90.0
100
AcDbRotatedDimension
1001
ACAD
1000
DSTYLE
1002
{
1002
}
  0
ARC
  5
18EF8
330
747D
100
AcDbEntity
  8
部品1
 48
0.01
100
AcDbCircle
 10
5532.673057123659
 20
4399.429306665284
 30
0.0
 40
2.0
100
AcDbArc
 50
0.0
 51
90.0
  0
ARC
  5
18EF9
330
747D
100
AcDbEntity
  8
部品1
 48
0.01
100
AcDbCircle
 10
5356.673057123658
 20
4399.429306665284
 30
0.0
 40
2.0
100
AcDbArc
 50
90.0
 51
180.0
  0
LINE
  5
18EFA
330
747D
100
AcDbEntity
  8
細線
100
AcDbLine
 10
5444.673057123655
 20
4371.929306665284
 30
0.0
 11
5518.673057123659
 21
4371.929306665284
 31
0.0
  0
LINE
  5
18EFB
330
747D
100
AcDbEntity
  8
細線
100
AcDbLine
 10
5444.673057123658
 20
4394.929306665284
 30
0.0
 11
5370.673057123658
 21
4394.929306665284
 31
0.0
  0
LINE
  5
18EFC
330
747D
100
AcDbEntity
  8
細線
100
AcDbLine
 10
5370.673057123658
 20
4371.929306665284
 30
0.0
 11
5444.673057123658
 21
4371.929306665284
 31
0.0
  0
LINE
  5
18EFD
330
747D
100
AcDbEntity
  8
細線
100
AcDbLine
 10
5518.673057123659
 20
4394.929306665284
 30
0.0
 11
5444.673057123658
 21
4394.929306665284
 31
0.0
  0
LINE
  5
18EFE
330
747D
100
AcDbEntity
  8
細線
100
AcDbLine
 10
5518.673057123659
 20
4371.929306665284
 30
0.0
 11
5518.673057123659
 21
4394.929306665284
 31
0.0
  0
LINE
  5
18EFF
330
747D
100
AcDbEntity
  8
細線
100
AcDbLine
 10
5370.673057123658
 20
4394.929306665284
 30
0.0
 11
5370.673057123658
 21
4371.929306665284
 31
0.0
  0
LINE
  5
18F00
330
747D
100
AcDbEntity
  8
部品1
 48
0.01
100
AcDbLine
 10
5534.673057123654
 20
4367.929306665284
 30
0.0
 11
5534.673057123658
 21
4399.429306665284
 31
0.0
  0
LINE
  5
18F01
330
747D
100
AcDbEntity
  8
部品1
 48
0.01
100
AcDbLine
 10
5354.673057123658
 20
4399.429306665284
 30
0.0
 11
5354.673057123658
 21
4367.929306665284
 31
0.0
  0
LINE
  5
18F02
330
747D
100
AcDbEntity
  8
部品1
 48
0.01
100
AcDbLine
 10
5532.673057123659
 20
4401.429306665284
 30
0.0
 11
5356.673057123658
 21
4401.429306665284
 31
0.0
  0
LINE
  5
18F03
330
747D
100
AcDbEntity
  8
細線
100
AcDbLine
 10
5370.673057123658
 20
4388.929306665285
 30
0.0
 11
5444.673057123658
 21
4388.929306665285
 31
0.0
  0
LINE
  5
18F04
330
747D
100
AcDbEntity
  8
細線
100
AcDbLine
 10
5370.673057123658
 20
4382.929306665285
 30
0.0
 11
5444.673057123658
 21
4382.929306665285
 31
0.0
  0
LINE
  5
18F05
330
747D
100
AcDbEntity
  8
細線
100
AcDbLine
 10
5370.673057123655
 20
4376.929306665284
 30
0.0
 11
5444.673057123658
 21
4376.929306665284
 31
0.0
  0
LINE
  5
18F06
330
747D
100
AcDbEntity
  8
細線
100
AcDbLine
 10
5370.673057123658
 20
4388.929306665285
 30
0.0
 11
5439.673057123659
 21
4388.929306665285
 31
0.0
  0
LINE
  5
18F07
330
747D
100
AcDbEntity
  8
細線
100
AcDbLine
 10
5518.673057123655
 20
4388.929306665285
 30
0.0
 11
5444.673057123658
 21
4388.929306665285
 31
0.0
  0
LINE
  5
18F08
330
747D
100
AcDbEntity
  8
細線
100
AcDbLine
 10
5518.673057123655
 20
4376.929306665284
 30
0.0
 11
5444.673057123658
 21
4376.929306665284
 31
0.0
  0
LINE
  5
18F09
330
747D
100
AcDbEntity
  8
細線
100
AcDbLine
 10
5518.673057123655
 20
4382.929306665285
 30
0.0
 11
5444.673057123658
 21
4382.929306665285
 31
0.0
  0
LINE
  5
18F0A
330
747D
100
AcDbEntity
  8
細線
100
AcDbLine
 10
5444.673057123658
 20
4394.929306665284
 30
0.0
 11
5444.673057123655
 21
4371.929306665284
 31
0.0
  0
LINE
  5
18F0B
330
747D
100
AcDbEntity
  8
細線
100
AcDbLine
 10
6674.673057123658
 20
4394.929306665284
 30
0.0
 11
6674.673057123658
 21
4371.929306665284
 31
0.0
  0
LINE
  5
18F0C
330
747D
100
AcDbEntity
  8
細線
100
AcDbLine
 10
6600.673057123659
 20
4382.929306665285
 30
0.0
 11
6674.673057123658
 21
4382.929306665285
 31
0.0
  0
LINE
  5
18F0D
330
747D
100
AcDbEntity
  8
細線
100
AcDbLine
 10
6600.673057123659
 20
4376.929306665284
 30
0.0
 11
6674.673057123658
 21
4376.929306665284
 31
0.0
  0
LINE
  5
18F0E
330
747D
100
AcDbEntity
  8
細線
100
AcDbLine
 10
6600.673057123659
 20
4388.929306665285
 30
0.0
 11
6674.673057123658
 21
4388.929306665285
 31
0.0
  0
LINE
  5
18F0F
330
747D
100
AcDbEntity
  8
細線
100
AcDbLine
 10
6748.673057123659
 20
4388.929306665285
 30
0.0
 11
6679.673057123657
 21
4388.929306665285
 31
0.0
  0
LINE
  5
18F10
330
747D
100
AcDbEntity
  8
細線
100
AcDbLine
 10
6748.673057123659
 20
4376.929306665284
 30
0.0
 11
6674.673057123658
 21
4376.929306665284
 31
0.0
  0
LINE
  5
18F11
330
747D
100
AcDbEntity
  8
細線
100
AcDbLine
 10
6748.673057123659
 20
4382.929306665285
 30
0.0
 11
6674.673057123658
 21
4382.929306665285
 31
0.0
  0
LINE
  5
18F12
330
747D
100
AcDbEntity
  8
細線
100
AcDbLine
 10
6748.673057123659
 20
4388.929306665285
 30
0.0
 11
6674.673057123658
 21
4388.929306665285
 31
0.0
  0
LINE
  5
18F13
330
747D
100
AcDbEntity
  8
部品1
 48
0.01
100
AcDbLine
 10
6586.673057123658
 20
4401.429306665284
 30
0.0
 11
6762.673057123659
 21
4401.429306665284
 31
0.0
  0
LINE
  5
18F14
330
747D
100
AcDbEntity
  8
部品1
 48
0.01
100
AcDbLine
 10
6764.673057123658
 20
4399.429306665284
 30
0.0
 11
6764.673057123658
 21
4367.929306665284
 31
0.0
  0
LINE
  5
18F15
330
747D
100
AcDbEntity
  8
部品1
 48
0.01
100
AcDbLine
 10
6584.673057123659
 20
4367.929306665284
 30
0.0
 11
6584.673057123659
 21
4399.429306665284
 31
0.0
  0
LINE
  5
18F16
330
747D
100
AcDbEntity
  8
細線
100
AcDbLine
 10
6748.673057123659
 20
4394.929306665284
 30
0.0
 11
6748.673057123659
 21
4371.929306665284
 31
0.0
  0
LINE
  5
18F17
330
747D
100
AcDbEntity
  8
細線
100
AcDbLine
 10
6600.673057123659
 20
4371.929306665284
 30
0.0
 11
6600.673057123659
 21
4394.929306665284
 31
0.0
  0
LINE
  5
18F18
330
747D
100
AcDbEntity
  8
細線
100
AcDbLine
 10
6600.673057123659
 20
4394.929306665284
 30
0.0
 11
6674.673057123658
 21
4394.929306665284
 31
0.0
  0
LINE
  5
18F19
330
747D
100
AcDbEntity
  8
細線
100
AcDbLine
 10
6748.673057123659
 20
4371.929306665284
 30
0.0
 11
6674.673057123658
 21
4371.929306665284
 31
0.0
  0
LINE
  5
18F1A
330
747D
100
AcDbEntity
  8
細線
100
AcDbLine
 10
6674.673057123658
 20
4394.929306665284
 30
0.0
 11
6748.673057123659
 21
4394.929306665284
 31
0.0
  0
LINE
  5
18F1B
330
747D
100
AcDbEntity
  8
細線
100
AcDbLine
 10
6674.673057123658
 20
4371.929306665284
 30
0.0
 11
6600.673057123659
 21
4371.929306665284
 31
0.0
  0
ARC
  5
18F1C
330
747D
100
AcDbEntity
  8
部品1
 48
0.01
100
AcDbCircle
 10
6762.673057123659
 20
4399.429306665284
 30
0.0
 40
2.0
100
AcDbArc
 50
0.0
 51
90.0
  0
ARC
  5
18F1D
330
747D
100
AcDbEntity
  8
部品1
 48
0.01
100
AcDbCircle
 10
6586.673057123658
 20
4399.429306665284
 30
0.0
 40
2.0
100
AcDbArc
 50
90.0
 51
180.0
  0
ARC
  5
18F1E
330
747D
100
AcDbEntity
  8
部品1
 48
0.01
100
AcDbCircle
 10
5532.673057123655
 20
4367.929306665284
 30
0.0
 40
2.0
100
AcDbArc
 50
270.0
 51
0.0
  0
ARC
  5
18F1F
330
747D
100
AcDbEntity
  8
部品1
 48
0.01
100
AcDbCircle
 10
5356.673057123658
 20
4367.929306665284
 30
0.0
 40
2.0
100
AcDbArc
 50
180.0
 51
270.0
  0
LINE
  5
18F20
330
747D
100
AcDbEntity
  8
部品1
 48
0.01
100
AcDbLine
 10
5356.673057123658
 20
4365.929306665284
 30
0.0
 11
5532.673057123655
 21
4365.929306665284
 31
0.0
  0
LINE
  5
18F21
330
747D
100
AcDbEntity
  8
部品1
 48
0.01
100
AcDbLine
 10
6762.673057123659
 20
4365.929306665284
 30
0.0
 11
6586.673057123658
 21
4365.929306665284
 31
0.0
  0
ARC
  5
18F22
330
747D
100
AcDbEntity
  8
部品1
 48
0.01
100
AcDbCircle
 10
6762.673057123659
 20
4367.929306665284
 30
0.0
 40
2.0
100
AcDbArc
 50
270.0
 51
0.0
  0
ARC
  5
18F23
330
747D
100
AcDbEntity
  8
部品1
 48
0.01
100
AcDbCircle
 10
6586.673057123658
 20
4367.929306665284
 30
0.0
 40
2.0
100
AcDbArc
 50
180.0
 51
270.0
  0
TEXT
  5
1906E
330
747D
100
AcDbEntity
  8
文字
 62
     7
 48
50.0
100
AcDbText
 10
14646.46056207479
 20
871.9640646083623
 30
0.0
 40
100.0
  1
～一般型・多雪地型～
  7
STYLE2
100
AcDbText
  0
TEXT
  5
1908A
330
747D
100
AcDbEntity
  8
文字
 62
     7
 48
50.0
100
AcDbText
 10
13583.11819016569
 20
9060.013745883729
 30
0.0
 40
100.0
  1
シャッターカバー
  7
STYLE1
100
AcDbText
  0
TEXT
  5
1908B
330
747D
100
AcDbEntity
  8
文字
 62
     7
 48
50.0
100
AcDbText
 10
13583.11819016569
 20
8890.013745883727
 30
0.0
 40
100.0
  1
シャッターレール
  7
STYLE1
100
AcDbText
  0
TEXT
  5
1908C
330
747D
100
AcDbEntity
  8
文字
 62
     7
 48
50.0
100
AcDbText
 10
15022.63965474515
 20
9060.013745883725
 30
0.0
 40
100.0
  1
F12            0.7
  7
STYLE1
100
AcDbText
  0
ENDSEC
  0
SECTION
  2
OBJECTS
  0
DICTIONARY
  5
7471
330
0
100
AcDbDictionary
281
     1
  3
ACAD_COLOR
350
167CE
  3
ACAD_GROUP
350
7472
  3
ACAD_LAYOUT
350
167CF
  3
ACAD_MATERIAL
350
167CD
  3
ACAD_MLINESTYLE
350
7473
  3
ACAD_PLOTSETTINGS
350
167D0
  3
ACAD_PLOTSTYLENAME
350
167CB
  3
ACDBHEADERROUNDTRIPXREC
350
19103
  3
AcDbVariableDictionary
350
190FF
  3
CONTENTDICTIONARY
350
E71C
  3
DRAWINGVARIABLESDICT
350
F3B9
  0
DICTIONARY
  5
16A3E
330
7467
100
AcDbDictionary
280
     1
281
     1
  3
ACAD_LAYERSTATES
360
16A3F
  0
DICTIONARY
  5
167CE
102
{ACAD_REACTORS
330
7471
102
}
330
7471
100
AcDbDictionary
281
     1
  0
DICTIONARY
  5
7472
102
{ACAD_REACTORS
330
7471
102
}
330
7471
100
AcDbDictionary
281
     1
  0
DICTIONARY
  5
167CF
102
{ACAD_REACTORS
330
7471
102
}
330
7471
100
AcDbDictionary
281
     1
  3
Model
350
167D1
  3
レイアウト1
350
167D2
  0
DICTIONARY
  5
167CD
102
{ACAD_REACTORS
330
7471
102
}
330
7471
100
AcDbDictionary
281
     1
  0
DICTIONARY
  5
7473
102
{ACAD_REACTORS
330
7471
102
}
330
7471
100
AcDbDictionary
281
     1
  3
STANDARD
350
7480
  0
DICTIONARY
  5
167D0
102
{ACAD_REACTORS
330
7471
102
}
330
7471
100
AcDbDictionary
281
     1
  0
ACDBDICTIONARYWDFLT
  5
167CB
102
{ACAD_REACTORS
330
7471
102
}
330
7471
100
AcDbDictionary
281
     1
  3
Normal
350
167CC
100
AcDbDictionaryWithDefault
340
167CC
  0
DICTIONARY
  5
19103
102
{ACAD_REACTORS
330
7471
102
}
330
7471
100
AcDbDictionary
281
     1
  3
COLORDICT
350
19105
  3
MATERIALDICT
350
19104
  0
DICTIONARY
  5
190FF
102
{ACAD_REACTORS
330
7471
102
}
330
7471
100
AcDbDictionary
281
     1
  3
DIMASSOC
350
19100
  3
PROJECTNAME
350
19101
  0
DICTIONARY
  5
E71C
102
{ACAD_REACTORS
330
7471
102
}
330
7471
100
AcDbDictionary
281
     1
  0
DICTIONARY
  5
F3B9
102
{ACAD_REACTORS
330
7471
102
}
330
7471
100
AcDbDictionary
281
     1
1001
DRAWINGVARIABLESXDATA
1000
POLARMODE
1000
1
  0
DICTIONARY
  5
16A3F
102
{ACAD_REACTORS
330
16A3E
102
}
330
16A3E
100
AcDbDictionary
281
     1
  0
LAYOUT
  5
167D1
102
{ACAD_XDICTIONARY
360
19106
102
}
102
{ACAD_REACTORS
330
167CF
102
}
330
167CF
100
AcDbPlotSettings
  1

  2
none_device
  4
Letter_(8.50_x_11.00_Inches)
  6

 40
6.349999904632568
 41
6.349999904632568
 42
6.350006103515625
 43
6.350006103515625
 44
215.8999938964844
 45
279.3999938964844
 46
0.0
 47
0.0
 48
0.0
 49
0.0
140
0.0
141
0.0
142
1.0
143
1.0
 70
 11952
 72
     1
 73
     1
 74
     0
  7
inaba.ctb
 75
     0
147
1.0
148
-2464.692037279003
149
54.36659085389965
100
AcDbLayout
  1
Model
 70
     1
 71
     0
 10
0.0
 20
0.0
 11
12.0
 21
9.0
 12
0.0
 22
0.0
 32
0.0
 14
0.0
 24
0.0
 34
0.0
 15
0.0
 25
0.0
 35
0.0
146
0.0
 13
0.0
 23
0.0
 33
0.0
 16
1.0
 26
0.0
 36
0.0
 17
0.0
 27
1.0
 37
0.0
 76
     0
330
747D
  0
LAYOUT
  5
167D2
102
{ACAD_XDICTIONARY
360
19108
102
}
102
{ACAD_REACTORS
330
167CF
102
}
330
167CF
100
AcDbPlotSettings
  1

  2
EPSON LP-8300
  4

  6

 40
0.0
 41
0.0
 42
0.0
 43
0.0
 44
0.0
 45
0.0
 46
0.0
 47
0.0
 48
0.0
 49
0.0
140
0.0
141
0.0
142
1.0
143
1.0
 70
   688
 72
     0
 73
     0
 74
     5
  7
inaba.ctb
 75
    16
147
1.0
148
0.0
149
0.0
100
AcDbLayout
  1
レイアウト1
 70
     0
 71
     1
 10
0.0
 20
0.0
 11
420.0
 21
297.0
 12
0.0
 22
0.0
 32
0.0
 14
1.000000000000000E+20
 24
1.000000000000000E+20
 34
1.000000000000000E+20
 15
-1.000000000000000E+20
 25
-1.000000000000000E+20
 35
-1.000000000000000E+20
146
0.0
 13
0.0
 23
0.0
 33
0.0
 16
1.0
 26
0.0
 36
0.0
 17
0.0
 27
1.0
 37
0.0
 76
     0
330
747A
  0
MLINESTYLE
  5
7480
102
{ACAD_REACTORS
330
7473
102
}
330
7473
100
AcDbMlineStyle
  2
STANDARD
 70
     0
  3

 62
     0
 51
90.0
 52
90.0
 71
     2
 49
0.5
 62
   256
  6
BYLAYER
 49
-0.5
 62
   256
  6
BYLAYER
  0
ACDBPLACEHOLDER
  5
167CC
102
{ACAD_REACTORS
330
167CB
102
}
330
167CB
  0
XRECORD
  5
19105
102
{ACAD_REACTORS
330
19103
102
}
330
19103
100
AcDbXrecord
280
     1
340
167CE
  0
XRECORD
  5
19104
102
{ACAD_REACTORS
330
19103
102
}
330
19103
100
AcDbXrecord
280
     1
340
167CD
  0
DICTIONARYVAR
  5
19100
102
{ACAD_REACTORS
330
190FF
102
}
330
190FF
100
DictionaryVariables
280
     0
  1
1
  0
DICTIONARYVAR
  5
19101
102
{ACAD_REACTORS
330
190FF
102
}
330
190FF
100
DictionaryVariables
280
     0
  1

  0
DICTIONARY
  5
19106
330
167D1
100
AcDbDictionary
280
     1
281
     1
  3
ACAD_XREC_ROUNDTRIP
360
19107
  0
DICTIONARY
  5
19108
330
167D2
100
AcDbDictionary
280
     1
281
     1
  3
ACAD_XREC_ROUNDTRIP
360
19109
  0
XRECORD
  5
19107
102
{ACAD_REACTORS
330
19106
102
}
330
19106
100
AcDbXrecord
280
     1
102
SHADEPLOT
 70
     0
102
SHADEPLOTRESLEVEL
 70
     2
102
SHADEPLOTCUSTOMDPI
 70
   300
  0
XRECORD
  5
19109
102
{ACAD_REACTORS
330
19108
102
}
330
19108
100
AcDbXrecord
280
     1
102
SHADEPLOT
 70
     0
102
SHADEPLOTRESLEVEL
 70
     2
102
SHADEPLOTCUSTOMDPI
 70
   300
  0
ENDSEC
  0
EOF
