  0
SECTION
  2
HEADER
  9
$ACADVER
  1
AC1015
  9
$ACADMAINTVER
 70
    20
  9
$DWGCODEPAGE
  3
ANSI_932
  9
$INSBASE
 10
0.0
 20
0.0
 30
0.0
  9
$EXTMIN
 10
139.9999999999995
 20
-0.0000000000000909
 30
0.0
  9
$EXTMAX
 10
16307.2
 20
11409.6
 30
0.0
  9
$LIMMIN
 10
0.0
 20
0.0
  9
$LIMMAX
 10
16800.0
 20
11880.0
  9
$ORTHOMODE
 70
     0
  9
$REGENMODE
 70
     1
  9
$FILLMODE
 70
     1
  9
$QTEXTMODE
 70
     0
  9
$MIRRTEXT
 70
     1
  9
$LTSCALE
 40
20.0
  9
$ATTMODE
 70
     1
  9
$TEXTSIZE
 40
100.0
  9
$TRACEWID
 40
1.0
  9
$TEXTSTYLE
  7
STYLE2
  9
$CLAYER
  8
部品1
  9
$CELTYPE
  6
BYLAYER
  9
$CECOLOR
 62
   256
  9
$CELTSCALE
 40
50.0
  9
$DISPSILH
 70
     0
  9
$DIMSCALE
 40
40.0
  9
$DIMASZ
 40
2.5
  9
$DIMEXO
 40
0.5
  9
$DIMDLI
 40
7.0
  9
$DIMRND
 40
0.0
  9
$DIMDLE
 40
0.0
  9
$DIMEXE
 40
1.5
  9
$DIMTP
 40
0.0
  9
$DIMTM
 40
0.0
  9
$DIMTXT
 40
3.0
  9
$DIMCEN
 40
0.0
  9
$DIMTSZ
 40
0.0
  9
$DIMTOL
 70
     0
  9
$DIMLIM
 70
     0
  9
$DIMTIH
 70
     0
  9
$DIMTOH
 70
     0
  9
$DIMSE1
 70
     0
  9
$DIMSE2
 70
     0
  9
$DIMTAD
 70
     3
  9
$DIMZIN
 70
     8
  9
$DIMBLK
  1

  9
$DIMASO
 70
     1
  9
$DIMSHO
 70
     1
  9
$DIMPOST
  1

  9
$DIMAPOST
  1

  9
$DIMALT
 70
     0
  9
$DIMALTD
 70
     2
  9
$DIMALTF
 40
0.0394
  9
$DIMLFAC
 40
1.0
  9
$DIMTOFL
 70
     1
  9
$DIMTVP
 40
0.0
  9
$DIMTIX
 70
     1
  9
$DIMSOXD
 70
     0
  9
$DIMSAH
 70
     1
  9
$DIMBLK1
  1
DOTSMALL
  9
$DIMBLK2
  1
DOTSMALL
  9
$DIMSTYLE
  2
INABA_S40G
  9
$DIMCLRD
 70
     0
  9
$DIMCLRE
 70
     0
  9
$DIMCLRT
 70
     7
  9
$DIMTFAC
 40
1.0
  9
$DIMGAP
 40
1.0
  9
$DIMJUST
 70
     0
  9
$DIMSD1
 70
     0
  9
$DIMSD2
 70
     0
  9
$DIMTOLJ
 70
     1
  9
$DIMTZIN
 70
     0
  9
$DIMALTZ
 70
     0
  9
$DIMALTTZ
 70
     0
  9
$DIMUPT
 70
     0
  9
$DIMDEC
 70
     1
  9
$DIMTDEC
 70
     4
  9
$DIMALTU
 70
     2
  9
$DIMALTTD
 70
     2
  9
$DIMTXSTY
  7
STYLE1
  9
$DIMAUNIT
 70
     0
  9
$DIMADEC
 70
     0
  9
$DIMALTRND
 40
0.0
  9
$DIMAZIN
 70
     0
  9
$DIMDSEP
 70
    46
  9
$DIMATFIT
 70
     3
  9
$DIMFRAC
 70
     0
  9
$DIMLDRBLK
  1

  9
$DIMLUNIT
 70
     2
  9
$DIMLWD
 70
    -2
  9
$DIMLWE
 70
    -2
  9
$DIMTMOVE
 70
     2
  9
$LUNITS
 70
     2
  9
$LUPREC
 70
     1
  9
$SKETCHINC
 40
1.0
  9
$FILLETRAD
 40
3.0
  9
$AUNITS
 70
     0
  9
$AUPREC
 70
     0
  9
$MENU
  1
acad
  9
$ELEVATION
 40
0.0
  9
$PELEVATION
 40
0.0
  9
$THICKNESS
 40
0.0
  9
$LIMCHECK
 70
     0
  9
$CHAMFERA
 40
0.0
  9
$CHAMFERB
 40
0.0
  9
$CHAMFERC
 40
0.0
  9
$CHAMFERD
 40
0.0
  9
$SKPOLY
 70
     0
  9
$TDCREATE
 40
2451368.612993866
  9
$TDUCREATE
 40
2451368.237993866
  9
$TDUPDATE
 40
2455569.630987408
  9
$TDUUPDATE
 40
2455569.255987408
  9
$TDINDWG
 40
0.7583290394
  9
$TDUSRTIMER
 40
0.7583290394
  9
$USRTIMER
 70
     1
  9
$ANGBASE
 50
0.0
  9
$ANGDIR
 70
     0
  9
$PDMODE
 70
     3
  9
$PDSIZE
 40
2.0
  9
$PLINEWID
 40
0.0
  9
$SPLFRAME
 70
     0
  9
$SPLINETYPE
 70
     6
  9
$SPLINESEGS
 70
     8
  9
$HANDSEED
  5
1847F
  9
$SURFTAB1
 70
     6
  9
$SURFTAB2
 70
     6
  9
$SURFTYPE
 70
     6
  9
$SURFU
 70
     6
  9
$SURFV
 70
     6
  9
$UCSBASE
  2

  9
$UCSNAME
  2

  9
$UCSORG
 10
0.0
 20
0.0
 30
0.0
  9
$UCSXDIR
 10
1.0
 20
0.0
 30
0.0
  9
$UCSYDIR
 10
0.0
 20
1.0
 30
0.0
  9
$UCSORTHOREF
  2

  9
$UCSORTHOVIEW
 70
     0
  9
$UCSORGTOP
 10
0.0
 20
0.0
 30
0.0
  9
$UCSORGBOTTOM
 10
0.0
 20
0.0
 30
0.0
  9
$UCSORGLEFT
 10
0.0
 20
0.0
 30
0.0
  9
$UCSORGRIGHT
 10
0.0
 20
0.0
 30
0.0
  9
$UCSORGFRONT
 10
0.0
 20
0.0
 30
0.0
  9
$UCSORGBACK
 10
0.0
 20
0.0
 30
0.0
  9
$PUCSBASE
  2

  9
$PUCSNAME
  2

  9
$PUCSORG
 10
0.0
 20
0.0
 30
0.0
  9
$PUCSXDIR
 10
1.0
 20
0.0
 30
0.0
  9
$PUCSYDIR
 10
0.0
 20
1.0
 30
0.0
  9
$PUCSORTHOREF
  2

  9
$PUCSORTHOVIEW
 70
     0
  9
$PUCSORGTOP
 10
0.0
 20
0.0
 30
0.0
  9
$PUCSORGBOTTOM
 10
0.0
 20
0.0
 30
0.0
  9
$PUCSORGLEFT
 10
0.0
 20
0.0
 30
0.0
  9
$PUCSORGRIGHT
 10
0.0
 20
0.0
 30
0.0
  9
$PUCSORGFRONT
 10
0.0
 20
0.0
 30
0.0
  9
$PUCSORGBACK
 10
0.0
 20
0.0
 30
0.0
  9
$USERI1
 70
     0
  9
$USERI2
 70
     0
  9
$USERI3
 70
     0
  9
$USERI4
 70
     0
  9
$USERI5
 70
     0
  9
$USERR1
 40
0.0
  9
$USERR2
 40
0.0
  9
$USERR3
 40
0.0
  9
$USERR4
 40
0.0
  9
$USERR5
 40
0.0
  9
$WORLDVIEW
 70
     1
  9
$SHADEDGE
 70
     3
  9
$SHADEDIF
 70
    70
  9
$TILEMODE
 70
     1
  9
$MAXACTVP
 70
    16
  9
$PINSBASE
 10
0.0
 20
0.0
 30
0.0
  9
$PLIMCHECK
 70
     0
  9
$PEXTMIN
 10
1.000000000000000E+20
 20
1.000000000000000E+20
 30
1.000000000000000E+20
  9
$PEXTMAX
 10
-1.000000000000000E+20
 20
-1.000000000000000E+20
 30
-1.000000000000000E+20
  9
$PLIMMIN
 10
0.0
 20
0.0
  9
$PLIMMAX
 10
420.0
 20
297.0
  9
$UNITMODE
 70
     0
  9
$VISRETAIN
 70
     0
  9
$PLINEGEN
 70
     0
  9
$PSLTSCALE
 70
     0
  9
$TREEDEPTH
 70
  3020
  9
$CMLSTYLE
  2
STANDARD
  9
$CMLJUST
 70
     0
  9
$CMLSCALE
 40
1.0
  9
$PROXYGRAPHICS
 70
     1
  9
$MEASUREMENT
 70
     1
  9
$CELWEIGHT
370
    -1
  9
$ENDCAPS
280
     0
  9
$JOINSTYLE
280
     0
  9
$LWDISPLAY
290
     0
  9
$INSUNITS
 70
     0
  9
$HYPERLINKBASE
  1

  9
$STYLESHEET
  1
inaba.ctb
  9
$XEDIT
290
     1
  9
$CEPSNTYPE
380
     0
  9
$PSTYLEMODE
290
     1
  9
$FINGERPRINTGUID
  2
{A551CA59-D67D-4045-A3A9-06E3AAA00956}
  9
$VERSIONGUID
  2
{4C07AD52-2ED2-47CA-A431-B1A3DCD5F931}
  9
$EXTNAMES
290
     1
  9
$PSVPSCALE
 40
0.0
  9
$OLESTARTUP
290
     0
  0
ENDSEC
  0
SECTION
  2
CLASSES
  0
CLASS
  1
ACDBDICTIONARYWDFLT
  2
AcDbDictionaryWithDefault
  3
ObjectDBX Classes
 90
        0
280
     0
281
     0
  0
CLASS
  1
DICTIONARYVAR
  2
AcDbDictionaryVar
  3
ObjectDBX Classes
 90
        0
280
     0
281
     0
  0
CLASS
  1
ACDBPLACEHOLDER
  2
AcDbPlaceHolder
  3
ObjectDBX Classes
 90
        0
280
     0
281
     0
  0
CLASS
  1
LAYOUT
  2
AcDbLayout
  3
ObjectDBX Classes
 90
        0
280
     0
281
     0
  0
ENDSEC
  0
SECTION
  2
TABLES
  0
TABLE
  2
VPORT
  5
746D
330
0
100
AcDbSymbolTable
 70
     2
  0
VPORT
  5
18477
330
746D
100
AcDbSymbolTableRecord
100
AcDbViewportTableRecord
  2
*Active
 70
     0
 10
0.0
 20
0.0
 11
1.0
 21
1.0
 12
8324.235478091061
 22
5909.498223183987
 13
0.0
 23
0.0
 14
10.0
 24
10.0
 15
10.0
 25
10.0
 16
0.0
 26
0.0
 36
1.0
 17
0.0
 27
0.0
 37
0.0
 40
13488.06190064341
 41
1.627450980392156
 42
50.0
 43
0.0
 44
0.0
 50
0.0
 51
0.0
 71
     0
 72
     0
 73
     1
 74
     0
 75
     0
 76
     0
 77
     0
 78
     0
281
     0
 65
     1
110
0.0
120
0.0
130
0.0
111
1.0
121
0.0
131
0.0
112
0.0
122
1.0
132
0.0
 79
     0
146
0.0
  0
ENDTAB
  0
TABLE
  2
LTYPE
  5
746A
330
0
100
AcDbSymbolTable
 70
     3
  0
LTYPE
  5
7477
330
746A
100
AcDbSymbolTableRecord
100
AcDbLinetypeTableRecord
  2
BYBLOCK
 70
     0
  3

 72
    65
 73
     0
 40
0.0
  0
LTYPE
  5
7478
330
746A
100
AcDbSymbolTableRecord
100
AcDbLinetypeTableRecord
  2
BYLAYER
 70
     0
  3

 72
    65
 73
     0
 40
0.0
  0
LTYPE
  5
7479
330
746A
100
AcDbSymbolTableRecord
100
AcDbLinetypeTableRecord
  2
CONTINUOUS
 70
     0
  3
Solid line
 72
    65
 73
     0
 40
0.0
  0
LTYPE
  5
781A
330
746A
100
AcDbSymbolTableRecord
100
AcDbLinetypeTableRecord
  2
HIDDEN
 70
     0
  3
__ __ __ __ __ __ __ __ __ __ __ __ __ __ __ __
 72
    65
 73
     2
 40
0.375
 49
0.25
 74
     0
 49
-0.125
 74
     0
  0
LTYPE
  5
781B
330
746A
100
AcDbSymbolTableRecord
100
AcDbLinetypeTableRecord
  2
PHANTOM
 70
     0
  3
______  __  __  ______  __  __  ______  __  __ 
 72
    65
 73
     6
 40
2.5
 49
1.25
 74
     0
 49
-0.25
 74
     0
 49
0.25
 74
     0
 49
-0.25
 74
     0
 49
0.25
 74
     0
 49
-0.25
 74
     0
  0
ENDTAB
  0
TABLE
  2
LAYER
  5
7467
102
{ACAD_XDICTIONARY
360
17062
102
}
330
0
100
AcDbSymbolTable
 70
    10
  0
LAYER
  5
7474
330
7467
100
AcDbSymbolTableRecord
100
AcDbLayerTableRecord
  2
0
 70
     0
 62
     7
  6
CONTINUOUS
370
    -3
390
16B85
  0
LAYER
  5
DEB3
330
7467
100
AcDbSymbolTableRecord
100
AcDbLayerTableRecord
  2
寸法
 70
     0
 62
     4
  6
CONTINUOUS
370
    -3
390
16B85
  0
LAYER
  5
DEB4
330
7467
100
AcDbSymbolTableRecord
100
AcDbLayerTableRecord
  2
部品1
 70
     0
 62
     7
  6
CONTINUOUS
370
    -3
390
16B85
  0
LAYER
  5
DEB5
330
7467
100
AcDbSymbolTableRecord
100
AcDbLayerTableRecord
  2
補助
 70
     0
 62
    -1
  6
CONTINUOUS
370
    -3
390
16B85
  0
LAYER
  5
DEB6
330
7467
100
AcDbSymbolTableRecord
100
AcDbLayerTableRecord
  2
文字
 70
     0
 62
     7
  6
CONTINUOUS
370
    -3
390
16B85
  0
LAYER
  5
F255
330
7467
100
AcDbSymbolTableRecord
100
AcDbLayerTableRecord
  2
DEFPOINTS
 70
     0
 62
     7
  6
CONTINUOUS
290
     0
370
    -3
390
16B85
  0
LAYER
  5
10B54
330
7467
100
AcDbSymbolTableRecord
100
AcDbLayerTableRecord
  2
仕様書枠
 70
     0
 62
   230
  6
CONTINUOUS
370
    -3
390
16B85
  0
LAYER
  5
11729
330
7467
100
AcDbSymbolTableRecord
100
AcDbLayerTableRecord
  2
Ｇ．Ｌ
 70
     0
 62
    30
  6
CONTINUOUS
370
    -3
390
16B85
  0
LAYER
  5
1173F
330
7467
100
AcDbSymbolTableRecord
100
AcDbLayerTableRecord
  2
細線
 70
     0
 62
     5
  6
CONTINUOUS
370
    -3
390
16B85
  0
LAYER
  5
142E2
330
7467
100
AcDbSymbolTableRecord
100
AcDbLayerTableRecord
  2
破線
 70
     0
 62
     2
  6
HIDDEN
370
    -3
390
16B85
  0
ENDTAB
  0
TABLE
  2
STYLE
  5
7468
330
0
100
AcDbSymbolTable
 70
     5
  0
STYLE
  5
7475
330
7468
100
AcDbSymbolTableRecord
100
AcDbTextStyleTableRecord
  2
STANDARD
 70
     0
 40
0.0
 41
1.0
 50
0.0
 71
     0
 42
4.0
  3
txt
  4
C:\AutoCAD LT\bigfont.shx
  0
STYLE
  5
763C
330
7468
100
AcDbSymbolTableRecord
100
AcDbTextStyleTableRecord
  2
MSMINCHO
 70
     0
 40
0.0
 41
1.0
 50
0.0
 71
     0
 42
1.199999999999999
  3
C:\AutoCAD LT\msminch2.TTF
  4

  0
STYLE
  5
F706
330
7468
100
AcDbSymbolTableRecord
100
AcDbTextStyleTableRecord
  2
STYLE1
 70
     0
 40
0.0
 41
1.0
 50
0.0
 71
     0
 42
4.0
  3
isocp.shx
  4
bigfont.shx
  0
STYLE
  5
103BF
330
7468
100
AcDbSymbolTableRecord
100
AcDbTextStyleTableRecord
  2
STYLE2
 70
     0
 40
0.0
 41
1.0
 50
0.0
 71
     0
 42
100.0
  3
MS PGothic.ttf
  4

1001
ACAD
1000
MS PGothic
1071
    32818
  0
STYLE
  5
10BAA
330
7468
100
AcDbSymbolTableRecord
100
AcDbTextStyleTableRecord
  2
STYLE3
 70
     0
 40
0.0
 41
1.0
 50
0.0
 71
     0
 42
100.0
  3
DFPGothic-EB.ttf
  4

1001
ACAD
1000
DFPGothic-EB
1071
    32818
  0
ENDTAB
  0
TABLE
  2
VIEW
  5
746B
330
0
100
AcDbSymbolTable
 70
     0
  0
ENDTAB
  0
TABLE
  2
UCS
  5
746C
330
0
100
AcDbSymbolTable
 70
     0
  0
ENDTAB
  0
TABLE
  2
APPID
  5
746E
330
0
100
AcDbSymbolTable
 70
     6
  0
APPID
  5
7476
330
746E
100
AcDbSymbolTableRecord
100
AcDbRegAppTableRecord
  2
ACAD
 70
     0
  0
APPID
  5
DEA9
330
746E
100
AcDbSymbolTableRecord
100
AcDbRegAppTableRecord
  2
CONTENTBLOCKICON
 70
     0
  0
APPID
  5
DEAA
330
746E
100
AcDbSymbolTableRecord
100
AcDbRegAppTableRecord
  2
CONTENTBLOCKDESCRIPTION
 70
     0
  0
APPID
  5
E71D
330
746E
100
AcDbSymbolTableRecord
100
AcDbRegAppTableRecord
  2
CONTENTTABDATA
 70
     0
  0
APPID
  5
E71E
330
746E
100
AcDbSymbolTableRecord
100
AcDbRegAppTableRecord
  2
CONTENTCURRENTTAB
 70
     0
  0
APPID
  5
F3BA
330
746E
100
AcDbSymbolTableRecord
100
AcDbRegAppTableRecord
  2
DRAWINGVARIABLESXDATA
 70
     0
  0
ENDTAB
  0
TABLE
  2
DIMSTYLE
  5
746F
330
0
100
AcDbSymbolTable
 70
     2
100
AcDbDimStyleTable
 71
     1
340
F71F
  0
DIMSTYLE
105
F71F
102
{ACAD_REACTORS
330
162CD
330
162CE
330
162CF
330
162D0
330
162E4
330
162E7
330
162EA
330
162EB
330
16301
330
16302
330
1631F
330
16320
330
16333
330
1659C
330
1659A
330
165E9
330
166DD
330
16913
330
16A58
330
16A45
330
16A44
330
16A57
330
16A42
330
16A40
330
16A6B
330
17368
330
1736C
330
1736D
330
1736E
330
17396
330
173A9
330
173AB
330
173AC
330
173AD
330
173BA
330
1793E
330
17A83
330
17A82
330
17DDC
330
17DDD
330
17DDE
102
}
330
746F
100
AcDbSymbolTableRecord
100
AcDbDimStyleTableRecord
  2
INABA_S40G
 70
     0
 40
40.0
 41
2.5
 42
0.5
 43
7.0
 44
1.5
 73
     0
 74
     0
 77
     3
 78
     8
140
3.0
141
0.0
143
0.0394
147
1.0
172
     1
173
     1
174
     1
178
     7
271
     1
340
F706
341
F770
343
F770
344
F770
  0
DIMSTYLE
105
183BA
330
746F
100
AcDbSymbolTableRecord
100
AcDbDimStyleTableRecord
  2
INABA_S50G
 70
     0
 41
125.0
 42
25.0
 43
7.0
 44
75.0
 73
     0
 74
     0
 77
     3
 78
     8
140
150.0
141
0.0
143
0.0394
147
25.0
172
     1
173
     1
174
     1
178
     7
271
     1
340
F706
341
F770
343
F770
344
F770
  0
ENDTAB
  0
TABLE
  2
BLOCK_RECORD
  5
7466
330
0
100
AcDbSymbolTable
 70
    44
  0
BLOCK_RECORD
  5
747D
330
7466
100
AcDbSymbolTableRecord
100
AcDbBlockTableRecord
  2
*MODEL_SPACE
340
16B8A
  0
BLOCK_RECORD
  5
747A
330
7466
100
AcDbSymbolTableRecord
100
AcDbBlockTableRecord
  2
*PAPER_SPACE
340
16B8B
  0
BLOCK_RECORD
  5
F770
330
7466
100
AcDbSymbolTableRecord
100
AcDbBlockTableRecord
  2
_DOTSMALL
340
0
102
{BLKREFS
331
16B98
331
16B99
331
16BA4
331
16BA5
331
16BAD
331
16BAE
331
16BB8
331
16BB9
331
16BBF
331
16BC0
331
16BC8
331
16BC9
331
16BD1
331
16BD2
331
16BE4
331
16BE5
331
16BEE
331
16BEF
331
16BF9
331
16BFA
331
16C04
331
16C05
331
16C0E
331
16C0F
331
16C19
331
16C1A
331
16C22
331
16C23
331
16C2D
331
16C2E
331
16C39
331
16C3A
331
16C44
331
16C45
331
16C4E
331
16C4F
331
16C57
331
16C58
331
16C5F
331
16C60
331
16C68
331
16C69
331
16C73
331
16C74
331
16C7E
331
16C7F
331
16C87
331
16C88
331
17B4C
331
17B4D
331
17B57
331
17B58
331
17B69
331
17B6A
331
17B72
331
17B73
331
17B7B
331
17B7C
331
17B85
331
17B86
331
17BB7
331
17BB8
331
17C23
331
17C24
331
17C2D
331
17C2E
331
17ED6
331
17ED7
331
18377
331
18378
331
18380
331
18381
331
18389
331
1838A
331
18392
331
18393
331
1843B
331
1843C
331
1845B
331
1845C
331
18464
331
18465
102
}
  0
BLOCK_RECORD
  5
16338
330
7466
100
AcDbSymbolTableRecord
100
AcDbBlockTableRecord
  2
*D1
340
0
  0
BLOCK_RECORD
  5
16344
330
7466
100
AcDbSymbolTableRecord
100
AcDbBlockTableRecord
  2
*D2
340
0
  0
BLOCK_RECORD
  5
16352
330
7466
100
AcDbSymbolTableRecord
100
AcDbBlockTableRecord
  2
*D3
340
0
  0
BLOCK_RECORD
  5
16360
330
7466
100
AcDbSymbolTableRecord
100
AcDbBlockTableRecord
  2
*D4
340
0
  0
BLOCK_RECORD
  5
16384
330
7466
100
AcDbSymbolTableRecord
100
AcDbBlockTableRecord
  2
*D5
340
0
  0
BLOCK_RECORD
  5
1638F
330
7466
100
AcDbSymbolTableRecord
100
AcDbBlockTableRecord
  2
*D6
340
0
  0
BLOCK_RECORD
  5
1639B
330
7466
100
AcDbSymbolTableRecord
100
AcDbBlockTableRecord
  2
*D7
340
0
  0
BLOCK_RECORD
  5
163A9
330
7466
100
AcDbSymbolTableRecord
100
AcDbBlockTableRecord
  2
*D8
340
0
  0
BLOCK_RECORD
  5
163B8
330
7466
100
AcDbSymbolTableRecord
100
AcDbBlockTableRecord
  2
*D9
340
0
  0
BLOCK_RECORD
  5
163C7
330
7466
100
AcDbSymbolTableRecord
100
AcDbBlockTableRecord
  2
*D10
340
0
  0
BLOCK_RECORD
  5
163E1
330
7466
100
AcDbSymbolTableRecord
100
AcDbBlockTableRecord
  2
*D11
340
0
  0
BLOCK_RECORD
  5
163ED
330
7466
100
AcDbSymbolTableRecord
100
AcDbBlockTableRecord
  2
*D12
340
0
  0
BLOCK_RECORD
  5
163FB
330
7466
100
AcDbSymbolTableRecord
100
AcDbBlockTableRecord
  2
*D13
340
0
  0
BLOCK_RECORD
  5
165B5
330
7466
100
AcDbSymbolTableRecord
100
AcDbBlockTableRecord
  2
*D14
340
0
  0
BLOCK_RECORD
  5
165C4
330
7466
100
AcDbSymbolTableRecord
100
AcDbBlockTableRecord
  2
*D15
340
0
  0
BLOCK_RECORD
  5
165EA
330
7466
100
AcDbSymbolTableRecord
100
AcDbBlockTableRecord
  2
*D16
340
0
  0
BLOCK_RECORD
  5
166CF
330
7466
100
AcDbSymbolTableRecord
100
AcDbBlockTableRecord
  2
*D17
340
0
  0
BLOCK_RECORD
  5
16908
330
7466
100
AcDbSymbolTableRecord
100
AcDbBlockTableRecord
  2
*D18
340
0
  0
BLOCK_RECORD
  5
16A76
330
7466
100
AcDbSymbolTableRecord
100
AcDbBlockTableRecord
  2
*D19
340
0
  0
BLOCK_RECORD
  5
16A85
330
7466
100
AcDbSymbolTableRecord
100
AcDbBlockTableRecord
  2
*D20
340
0
  0
BLOCK_RECORD
  5
16A94
330
7466
100
AcDbSymbolTableRecord
100
AcDbBlockTableRecord
  2
*D21
340
0
  0
BLOCK_RECORD
  5
16A9F
330
7466
100
AcDbSymbolTableRecord
100
AcDbBlockTableRecord
  2
*D22
340
0
  0
BLOCK_RECORD
  5
16AAB
330
7466
100
AcDbSymbolTableRecord
100
AcDbBlockTableRecord
  2
*D23
340
0
  0
BLOCK_RECORD
  5
16AB7
330
7466
100
AcDbSymbolTableRecord
100
AcDbBlockTableRecord
  2
*D24
340
0
  0
BLOCK_RECORD
  5
16AC5
330
7466
100
AcDbSymbolTableRecord
100
AcDbBlockTableRecord
  2
*D25
340
0
  0
BLOCK_RECORD
  5
17528
330
7466
100
AcDbSymbolTableRecord
100
AcDbBlockTableRecord
  2
*D26
340
0
  0
BLOCK_RECORD
  5
17536
330
7466
100
AcDbSymbolTableRecord
100
AcDbBlockTableRecord
  2
*D27
340
0
  0
BLOCK_RECORD
  5
17542
330
7466
100
AcDbSymbolTableRecord
100
AcDbBlockTableRecord
  2
*D28
340
0
  0
BLOCK_RECORD
  5
17550
330
7466
100
AcDbSymbolTableRecord
100
AcDbBlockTableRecord
  2
*D29
340
0
  0
BLOCK_RECORD
  5
1755C
330
7466
100
AcDbSymbolTableRecord
100
AcDbBlockTableRecord
  2
*D30
340
0
  0
BLOCK_RECORD
  5
17569
330
7466
100
AcDbSymbolTableRecord
100
AcDbBlockTableRecord
  2
*D31
340
0
  0
BLOCK_RECORD
  5
17576
330
7466
100
AcDbSymbolTableRecord
100
AcDbBlockTableRecord
  2
*D32
340
0
  0
BLOCK_RECORD
  5
17582
330
7466
100
AcDbSymbolTableRecord
100
AcDbBlockTableRecord
  2
*D33
340
0
  0
BLOCK_RECORD
  5
1758E
330
7466
100
AcDbSymbolTableRecord
100
AcDbBlockTableRecord
  2
*D34
340
0
  0
BLOCK_RECORD
  5
175BE
330
7466
100
AcDbSymbolTableRecord
100
AcDbBlockTableRecord
  2
*D35
340
0
  0
BLOCK_RECORD
  5
17992
330
7466
100
AcDbSymbolTableRecord
100
AcDbBlockTableRecord
  2
*D36
340
0
  0
BLOCK_RECORD
  5
17A84
330
7466
100
AcDbSymbolTableRecord
100
AcDbBlockTableRecord
  2
*D37
340
0
  0
BLOCK_RECORD
  5
17A90
330
7466
100
AcDbSymbolTableRecord
100
AcDbBlockTableRecord
  2
*D38
340
0
  0
BLOCK_RECORD
  5
17E51
330
7466
100
AcDbSymbolTableRecord
100
AcDbBlockTableRecord
  2
*D39
340
0
  0
BLOCK_RECORD
  5
17E5E
330
7466
100
AcDbSymbolTableRecord
100
AcDbBlockTableRecord
  2
*D40
340
0
  0
BLOCK_RECORD
  5
17E6C
330
7466
100
AcDbSymbolTableRecord
100
AcDbBlockTableRecord
  2
*D41
340
0
  0
BLOCK_RECORD
  5
183BB
330
7466
100
AcDbSymbolTableRecord
100
AcDbBlockTableRecord
  2
A$C3AE94366
340
0
  0
BLOCK_RECORD
  5
183C0
330
7466
100
AcDbSymbolTableRecord
100
AcDbBlockTableRecord
  2
A$C179C7F65
340
0
  0
ENDTAB
  0
ENDSEC
  0
SECTION
  2
BLOCKS
  0
BLOCK
  5
7489
330
747D
100
AcDbEntity
  8
0
100
AcDbBlockBegin
  2
*MODEL_SPACE
 70
     0
 10
0.0
 20
0.0
 30
0.0
  3
*MODEL_SPACE
  1

  0
ENDBLK
  5
748A
330
747D
100
AcDbEntity
  8
0
100
AcDbBlockEnd
  0
BLOCK
  5
7487
330
747A
100
AcDbEntity
 67
     1
  8
0
100
AcDbBlockBegin
  2
*PAPER_SPACE
 70
     0
 10
0.0
 20
0.0
 30
0.0
  3
*PAPER_SPACE
  1

  0
ENDBLK
  5
7488
330
747A
100
AcDbEntity
 67
     1
  8
0
100
AcDbBlockEnd
  0
BLOCK
  5
F771
330
F770
100
AcDbEntity
  8
0
 48
50.0
100
AcDbBlockBegin
  2
_DOTSMALL
 70
     0
 10
0.0
 20
0.0
 30
0.0
  3
_DOTSMALL
  1

  0
LWPOLYLINE
  5
F772
330
F770
100
AcDbEntity
  8
0
  6
ByBlock
 62
     0
 48
50.0
100
AcDbPolyline
 90
        2
 70
     1
 43
0.5
 10
-0.0625
 20
0.0
 42
1.0
 10
0.0625
 20
0.0
 42
1.0
  0
ENDBLK
  5
F776
330
F770
100
AcDbEntity
  8
0
 48
50.0
100
AcDbBlockEnd
  0
BLOCK
  5
164EB
330
16338
100
AcDbEntity
  8
0
 48
50.0
100
AcDbBlockBegin
  2
*D1
 70
     1
 10
0.0
 20
0.0
 30
0.0
  3
*D1
  1

  0
LINE
  5
16C84
330
16338
100
AcDbEntity
  8
寸法
 62
     0
 48
50.0
370
    -2
100
AcDbLine
 10
10430.47159668358
 20
9292.02921341869
 30
0.0
 11
11117.89794241798
 21
9292.02921341869
 31
0.0
  0
LINE
  5
16C85
330
16338
100
AcDbEntity
  8
寸法
 62
     0
 48
50.0
370
    -2
100
AcDbLine
 10
10430.47159668355
 20
7612.029213418676
 30
0.0
 11
11117.89794241798
 21
7612.029213418676
 31
0.0
  0
LINE
  5
16C86
330
16338
100
AcDbEntity
  8
寸法
 62
     0
 48
50.0
370
    -2
100
AcDbLine
 10
11057.89794241798
 20
9292.02921341869
 30
0.0
 11
11057.89794241798
 21
7612.029213418676
 31
0.0
  0
INSERT
  5
16C87
330
16338
100
AcDbEntity
  8
寸法
 62
     0
 48
50.0
370
    -2
100
AcDbBlockReference
  2
_DOTSMALL
 10
11057.89794241798
 20
9292.02921341869
 30
0.0
 41
100.0
 42
100.0
 43
100.0
 50
90.0
  0
INSERT
  5
16C88
330
16338
100
AcDbEntity
  8
寸法
 62
     0
 48
50.0
370
    -2
100
AcDbBlockReference
  2
_DOTSMALL
 10
11057.89794241798
 20
7612.029213418676
 30
0.0
 41
100.0
 42
100.0
 43
100.0
 50
270.0
  0
MTEXT
  5
16C89
330
16338
100
AcDbEntity
  8
寸法
 62
     7
 48
50.0
100
AcDbMText
 10
10957.88613139436
 20
8452.029213418684
 30
0.0
 40
120.0
 41
0.0
 71
     5
 72
     1
  1
\A1;4X420=1680
  7
STYLE1
 11
0.0000000000000001
 21
1.0
 31
0.0
 73
     1
 44
1.0
1001
ACAD
1000
MTEXTBEGIN
1070
    73
1070
     1
1070
    44
1040
1.0
1070
    74
1070
     0
1000
MTEXTEND
  0
POINT
  5
16C8A
330
16338
100
AcDbEntity
  8
DEFPOINTS
 62
     0
 48
50.0
100
AcDbPoint
 10
10410.47159668358
 20
9292.02921341869
 30
0.0
  0
POINT
  5
16C8B
330
16338
100
AcDbEntity
  8
DEFPOINTS
 62
     0
 48
50.0
100
AcDbPoint
 10
10410.47159668355
 20
7612.029213418676
 30
0.0
  0
POINT
  5
16C8C
330
16338
100
AcDbEntity
  8
DEFPOINTS
 62
     0
 48
50.0
100
AcDbPoint
 10
11057.89794241798
 20
7612.029213418676
 30
0.0
  0
ENDBLK
  5
164F5
330
16338
100
AcDbEntity
  8
0
 48
50.0
100
AcDbBlockEnd
  0
BLOCK
  5
16414
330
16344
100
AcDbEntity
  8
0
 48
50.0
100
AcDbBlockBegin
  2
*D2
 70
     1
 10
0.0
 20
0.0
 30
0.0
  3
*D2
  1

  0
LINE
  5
16C79
330
16344
100
AcDbEntity
  8
寸法
 62
     0
 48
50.0
370
    -2
100
AcDbLine
 10
10430.47159668355
 20
7612.029213418676
 30
0.0
 11
11117.89794241796
 21
7612.029213418676
 31
0.0
  0
LINE
  5
16C7A
330
16344
100
AcDbEntity
  8
寸法
 62
     0
 48
50.0
370
    -2
100
AcDbLine
 10
10430.47159668355
 20
7557.029213418679
 30
0.0
 11
11117.89794241796
 21
7557.029213418679
 31
0.0
  0
LINE
  5
16C7B
330
16344
100
AcDbEntity
  8
寸法
 62
     0
 48
50.0
370
    -2
100
AcDbLine
 10
11057.89794241796
 20
7612.029213418676
 30
0.0
 11
11057.89794241796
 21
7712.029213418675
 31
0.0
  0
LINE
  5
16C7C
330
16344
100
AcDbEntity
  8
寸法
 62
     0
 48
50.0
370
    -2
100
AcDbLine
 10
11057.89794241796
 20
7557.029213418679
 30
0.0
 11
11057.89794241796
 21
7070.682465139576
 31
0.0
  0
LINE
  5
16C7D
330
16344
100
AcDbEntity
  8
寸法
 62
     0
 48
50.0
370
    -2
100
AcDbLine
 10
11057.89794241796
 20
7612.029213418676
 30
0.0
 11
11057.89794241796
 21
7557.029213418679
 31
0.0
  0
INSERT
  5
16C7E
330
16344
100
AcDbEntity
  8
寸法
 62
     0
 48
50.0
370
    -2
100
AcDbBlockReference
  2
_DOTSMALL
 10
11057.89794241796
 20
7612.029213418676
 30
0.0
 41
100.0
 42
100.0
 43
100.0
 50
270.0
  0
INSERT
  5
16C7F
330
16344
100
AcDbEntity
  8
寸法
 62
     0
 48
50.0
370
    -2
100
AcDbBlockReference
  2
_DOTSMALL
 10
11057.89794241796
 20
7557.029213418679
 30
0.0
 41
100.0
 42
100.0
 43
100.0
 50
90.0
  0
MTEXT
  5
16C80
330
16344
100
AcDbEntity
  8
寸法
 62
     7
 48
50.0
100
AcDbMText
 10
10957.89794241796
 20
7179.167746513816
 30
0.0
 40
120.0
 41
0.0
 71
     5
 72
     1
  1
\A1;55
  7
STYLE1
 11
0.0000000000000001
 21
1.0
 31
0.0
 73
     1
 44
1.0
1001
ACAD
1000
MTEXTBEGIN
1070
    73
1070
     1
1070
    44
1040
1.0
1070
    74
1070
     0
1000
MTEXTEND
  0
POINT
  5
16C81
330
16344
100
AcDbEntity
  8
DEFPOINTS
 62
     0
 48
50.0
100
AcDbPoint
 10
10410.47159668355
 20
7612.029213418676
 30
0.0
  0
POINT
  5
16C82
330
16344
100
AcDbEntity
  8
DEFPOINTS
 62
     0
 48
50.0
100
AcDbPoint
 10
10410.47159668355
 20
7557.029213418679
 30
0.0
  0
POINT
  5
16C83
330
16344
100
AcDbEntity
  8
DEFPOINTS
 62
     0
 48
50.0
100
AcDbPoint
 10
11057.89794241796
 20
7557.029213418679
 30
0.0
  0
ENDBLK
  5
16420
330
16344
100
AcDbEntity
  8
0
 48
50.0
100
AcDbBlockEnd
  0
BLOCK
  5
16421
330
16352
100
AcDbEntity
  8
0
 48
50.0
100
AcDbBlockBegin
  2
*D3
 70
     1
 10
0.0
 20
0.0
 30
0.0
  3
*D3
  1

  0
LINE
  5
16C6E
330
16352
100
AcDbEntity
  8
寸法
 62
     0
 48
50.0
370
    -2
100
AcDbLine
 10
10430.47159668358
 20
9347.029213418686
 30
0.0
 11
11117.89794241799
 21
9347.029213418686
 31
0.0
  0
LINE
  5
16C6F
330
16352
100
AcDbEntity
  8
寸法
 62
     0
 48
50.0
370
    -2
100
AcDbLine
 10
10430.47159668358
 20
9292.02921341869
 30
0.0
 11
11117.89794241799
 21
9292.02921341869
 31
0.0
  0
LINE
  5
16C70
330
16352
100
AcDbEntity
  8
寸法
 62
     0
 48
50.0
370
    -2
100
AcDbLine
 10
11057.89794241799
 20
9292.02921341869
 30
0.0
 11
11057.89794241799
 21
9192.02921341869
 31
0.0
  0
LINE
  5
16C71
330
16352
100
AcDbEntity
  8
寸法
 62
     0
 48
50.0
370
    -2
100
AcDbLine
 10
11057.89794241799
 20
9347.029213418686
 30
0.0
 11
11057.89794241799
 21
9763.999776167162
 31
0.0
  0
LINE
  5
16C72
330
16352
100
AcDbEntity
  8
寸法
 62
     0
 48
50.0
370
    -2
100
AcDbLine
 10
11057.89794241799
 20
9292.02921341869
 30
0.0
 11
11057.89794241799
 21
9347.029213418686
 31
0.0
  0
INSERT
  5
16C73
330
16352
100
AcDbEntity
  8
寸法
 62
     0
 48
50.0
370
    -2
100
AcDbBlockReference
  2
_DOTSMALL
 10
11057.89794241799
 20
9292.02921341869
 30
0.0
 41
100.0
 42
100.0
 43
100.0
 50
90.0
  0
INSERT
  5
16C74
330
16352
100
AcDbEntity
  8
寸法
 62
     0
 48
50.0
370
    -2
100
AcDbBlockReference
  2
_DOTSMALL
 10
11057.89794241799
 20
9347.029213418686
 30
0.0
 41
100.0
 42
100.0
 43
100.0
 50
270.0
  0
MTEXT
  5
16C75
330
16352
100
AcDbEntity
  8
寸法
 62
     7
 48
50.0
100
AcDbMText
 10
10957.89794241799
 20
9655.514494792926
 30
0.0
 40
120.0
 41
0.0
 71
     5
 72
     1
  1
\A1;55
  7
STYLE1
 11
0.0000000000000001
 21
1.0
 31
0.0
 73
     1
 44
1.0
1001
ACAD
1000
MTEXTBEGIN
1070
    73
1070
     1
1070
    44
1040
1.0
1070
    74
1070
     0
1000
MTEXTEND
  0
POINT
  5
16C76
330
16352
100
AcDbEntity
  8
DEFPOINTS
 62
     0
 48
50.0
100
AcDbPoint
 10
10410.47159668358
 20
9347.029213418686
 30
0.0
  0
POINT
  5
16C77
330
16352
100
AcDbEntity
  8
DEFPOINTS
 62
     0
 48
50.0
100
AcDbPoint
 10
10410.47159668358
 20
9292.02921341869
 30
0.0
  0
POINT
  5
16C78
330
16352
100
AcDbEntity
  8
DEFPOINTS
 62
     0
 48
50.0
100
AcDbPoint
 10
11057.89794241799
 20
9292.02921341869
 30
0.0
  0
ENDBLK
  5
1642D
330
16352
100
AcDbEntity
  8
0
 48
50.0
100
AcDbBlockEnd
  0
BLOCK
  5
164CA
330
16360
100
AcDbEntity
  8
0
 48
50.0
100
AcDbBlockBegin
  2
*D4
 70
     1
 10
0.0
 20
0.0
 30
0.0
  3
*D4
  1

  0
LINE
  5
16C65
330
16360
100
AcDbEntity
  8
寸法
 62
     0
 48
50.0
370
    -2
100
AcDbLine
 10
10430.47159668358
 20
9347.029213418686
 30
0.0
 11
11483.00488415762
 21
9347.029213418686
 31
0.0
  0
LINE
  5
16C66
330
16360
100
AcDbEntity
  8
寸法
 62
     0
 48
50.0
370
    -2
100
AcDbLine
 10
10430.47159668355
 20
7557.029213418679
 30
0.0
 11
11483.00488415762
 21
7557.029213418679
 31
0.0
  0
LINE
  5
16C67
330
16360
100
AcDbEntity
  8
寸法
 62
     0
 48
50.0
370
    -2
100
AcDbLine
 10
11423.00488415762
 20
9347.029213418686
 30
0.0
 11
11423.00488415762
 21
7557.029213418679
 31
0.0
  0
INSERT
  5
16C68
330
16360
100
AcDbEntity
  8
寸法
 62
     0
 48
50.0
370
    -2
100
AcDbBlockReference
  2
_DOTSMALL
 10
11423.00488415762
 20
9347.029213418686
 30
0.0
 41
100.0
 42
100.0
 43
100.0
 50
90.0
  0
INSERT
  5
16C69
330
16360
100
AcDbEntity
  8
寸法
 62
     0
 48
50.0
370
    -2
100
AcDbBlockReference
  2
_DOTSMALL
 10
11423.00488415762
 20
7557.029213418679
 30
0.0
 41
100.0
 42
100.0
 43
100.0
 50
270.0
  0
MTEXT
  5
16C6A
330
16360
100
AcDbEntity
  8
寸法
 62
     7
 48
50.0
100
AcDbMText
 10
11323.00488415762
 20
8452.029213418684
 30
0.0
 40
120.0
 41
0.0
 71
     5
 72
     1
  1
\A1;1790
  7
STYLE1
 11
0.0000000000000001
 21
1.0
 31
0.0
 73
     1
 44
1.0
1001
ACAD
1000
MTEXTBEGIN
1070
    73
1070
     1
1070
    44
1040
1.0
1070
    74
1070
     0
1000
MTEXTEND
  0
POINT
  5
16C6B
330
16360
100
AcDbEntity
  8
DEFPOINTS
 62
     0
 48
50.0
100
AcDbPoint
 10
10410.47159668358
 20
9347.029213418686
 30
0.0
  0
POINT
  5
16C6C
330
16360
100
AcDbEntity
  8
DEFPOINTS
 62
     0
 48
50.0
100
AcDbPoint
 10
10410.47159668355
 20
7557.029213418679
 30
0.0
  0
POINT
  5
16C6D
330
16360
100
AcDbEntity
  8
DEFPOINTS
 62
     0
 48
50.0
100
AcDbPoint
 10
11423.00488415762
 20
7557.029213418679
 30
0.0
  0
ENDBLK
  5
164D4
330
16360
100
AcDbEntity
  8
0
 48
50.0
100
AcDbBlockEnd
  0
BLOCK
  5
1644F
330
16384
100
AcDbEntity
  8
0
 48
50.0
100
AcDbBlockBegin
  2
*D5
 70
     1
 10
0.0
 20
0.0
 30
0.0
  3
*D5
  1

  0
LINE
  5
16C5D
330
16384
100
AcDbEntity
  8
寸法
 62
     0
 48
50.0
370
    -2
100
AcDbLine
 10
7883.471596683572
 20
7563.029213418587
 30
0.0
 11
7883.471596683572
 21
6962.598442652423
 31
0.0
  0
LINE
  5
16C5E
330
16384
100
AcDbEntity
  8
寸法
 62
     0
 48
50.0
370
    -2
100
AcDbLine
 10
10307.47159668355
 20
7022.598442652423
 30
0.0
 11
7883.471596683572
 21
7022.598442652423
 31
0.0
  0
INSERT
  5
16C5F
330
16384
100
AcDbEntity
  8
寸法
 62
     0
 48
50.0
370
    -2
100
AcDbBlockReference
  2
_DOTSMALL
 10
10307.47159668355
 20
7022.598442652423
 30
0.0
 41
100.0
 42
100.0
 43
100.0
  0
INSERT
  5
16C60
330
16384
100
AcDbEntity
  8
寸法
 62
     0
 48
50.0
370
    -2
100
AcDbBlockReference
  2
_DOTSMALL
 10
7883.471596683572
 20
7022.598442652423
 30
0.0
 41
100.0
 42
100.0
 43
100.0
 50
180.0
  0
MTEXT
  5
16C61
330
16384
100
AcDbEntity
  8
寸法
 62
     7
 48
50.0
100
AcDbMText
 10
9095.471596683564
 20
7122.610253676045
 30
0.0
 40
120.0
 41
0.0
 71
     5
 72
     1
  1
\A1;有効開口部間口 2424
  7
STYLE1
 73
     1
 44
1.0
1001
ACAD
1000
MTEXTBEGIN
1070
    73
1070
     1
1070
    44
1040
1.0
1070
    74
1070
     0
1000
MTEXTEND
  0
POINT
  5
16C62
330
16384
100
AcDbEntity
  8
DEFPOINTS
 62
     0
 48
50.0
100
AcDbPoint
 10
10307.47159668355
 20
7583.029213418588
 30
0.0
  0
POINT
  5
16C63
330
16384
100
AcDbEntity
  8
DEFPOINTS
 62
     0
 48
50.0
100
AcDbPoint
 10
7883.471596683572
 20
7583.029213418587
 30
0.0
  0
POINT
  5
16C64
330
16384
100
AcDbEntity
  8
DEFPOINTS
 62
     0
 48
50.0
100
AcDbPoint
 10
7883.471596683572
 20
7022.598442652423
 30
0.0
  0
ENDBLK
  5
16458
330
16384
100
AcDbEntity
  8
0
 48
50.0
100
AcDbBlockEnd
  0
BLOCK
  5
16B30
330
1638F
100
AcDbEntity
  8
0
 48
50.0
100
AcDbBlockBegin
  2
*D6
 70
     1
 10
0.0
 20
0.0
 30
0.0
  3
*D6
  1

  0
LINE
  5
16C54
330
1638F
100
AcDbEntity
  8
寸法
 62
     0
 48
50.0
370
    -2
100
AcDbLine
 10
2520.471596683572
 20
7537.029213418584
 30
0.0
 11
2520.471596683572
 21
6516.425447061549
 31
0.0
  0
LINE
  5
16C55
330
1638F
100
AcDbEntity
  8
寸法
 62
     0
 48
50.0
370
    -2
100
AcDbLine
 10
10410.47159668354
 20
7537.029213418678
 30
0.0
 11
10410.47159668354
 21
6516.425447061549
 31
0.0
  0
LINE
  5
16C56
330
1638F
100
AcDbEntity
  8
寸法
 62
     0
 48
50.0
370
    -2
100
AcDbLine
 10
2520.471596683572
 20
6576.425447061549
 30
0.0
 11
10410.47159668354
 21
6576.425447061549
 31
0.0
  0
INSERT
  5
16C57
330
1638F
100
AcDbEntity
  8
寸法
 62
     0
 48
50.0
370
    -2
100
AcDbBlockReference
  2
_DOTSMALL
 10
2520.471596683572
 20
6576.425447061549
 30
0.0
 41
100.0
 42
100.0
 43
100.0
 50
180.0
  0
INSERT
  5
16C58
330
1638F
100
AcDbEntity
  8
寸法
 62
     0
 48
50.0
370
    -2
100
AcDbBlockReference
  2
_DOTSMALL
 10
10410.47159668354
 20
6576.425447061549
 30
0.0
 41
100.0
 42
100.0
 43
100.0
  0
MTEXT
  5
16C59
330
1638F
100
AcDbEntity
  8
寸法
 62
     7
 48
50.0
100
AcDbMText
 10
6465.471596683558
 20
6676.43725808517
 30
0.0
 40
120.0
 41
0.0
 71
     5
 72
     1
  1
\A1;N X 2630
  7
STYLE1
 73
     1
 44
1.0
1001
ACAD
1000
MTEXTBEGIN
1070
    73
1070
     1
1070
    44
1040
1.0
1070
    74
1070
     0
1000
MTEXTEND
  0
POINT
  5
16C5A
330
1638F
100
AcDbEntity
  8
DEFPOINTS
 62
     0
 48
50.0
100
AcDbPoint
 10
2520.471596683572
 20
7557.029213418584
 30
0.0
  0
POINT
  5
16C5B
330
1638F
100
AcDbEntity
  8
DEFPOINTS
 62
     0
 48
50.0
100
AcDbPoint
 10
10410.47159668354
 20
7557.029213418679
 30
0.0
  0
POINT
  5
16C5C
330
1638F
100
AcDbEntity
  8
DEFPOINTS
 62
     0
 48
50.0
100
AcDbPoint
 10
10410.47159668354
 20
6576.425447061549
 30
0.0
  0
ENDBLK
  5
16B3A
330
1638F
100
AcDbEntity
  8
0
 48
50.0
100
AcDbBlockEnd
  0
BLOCK
  5
16464
330
1639B
100
AcDbEntity
  8
0
 48
50.0
100
AcDbBlockBegin
  2
*D7
 70
     1
 10
0.0
 20
0.0
 30
0.0
  3
*D7
  1

  0
LINE
  5
16C49
330
1639B
100
AcDbEntity
  8
寸法
 62
     0
 48
50.0
370
    -2
100
AcDbLine
 10
2575.471596683569
 20
7537.029213418588
 30
0.0
 11
2575.471596683569
 21
6962.598442652423
 31
0.0
  0
LINE
  5
16C4A
330
1639B
100
AcDbEntity
  8
寸法
 62
     0
 48
50.0
370
    -2
100
AcDbLine
 10
2520.471596683572
 20
7537.029213418584
 30
0.0
 11
2520.471596683572
 21
6962.598442652423
 31
0.0
  0
LINE
  5
16C4B
330
1639B
100
AcDbEntity
  8
寸法
 62
     0
 48
50.0
370
    -2
100
AcDbLine
 10
2575.471596683569
 20
7022.598442652423
 30
0.0
 11
2675.471596683568
 21
7022.598442652423
 31
0.0
  0
LINE
  5
16C4C
330
1639B
100
AcDbEntity
  8
寸法
 62
     0
 48
50.0
370
    -2
100
AcDbLine
 10
2520.471596683572
 20
7022.598442652423
 30
0.0
 11
2103.501033935095
 21
7022.598442652423
 31
0.0
  0
LINE
  5
16C4D
330
1639B
100
AcDbEntity
  8
寸法
 62
     0
 48
50.0
370
    -2
100
AcDbLine
 10
2575.471596683569
 20
7022.598442652423
 30
0.0
 11
2520.471596683572
 21
7022.598442652423
 31
0.0
  0
INSERT
  5
16C4E
330
1639B
100
AcDbEntity
  8
寸法
 62
     0
 48
50.0
370
    -2
100
AcDbBlockReference
  2
_DOTSMALL
 10
2575.471596683569
 20
7022.598442652423
 30
0.0
 41
100.0
 42
100.0
 43
100.0
 50
180.0
  0
INSERT
  5
16C4F
330
1639B
100
AcDbEntity
  8
寸法
 62
     0
 48
50.0
370
    -2
100
AcDbBlockReference
  2
_DOTSMALL
 10
2520.471596683572
 20
7022.598442652423
 30
0.0
 41
100.0
 42
100.0
 43
100.0
  0
MTEXT
  5
16C50
330
1639B
100
AcDbEntity
  8
寸法
 62
     7
 48
50.0
100
AcDbMText
 10
2211.986315309333
 20
7122.598442652424
 30
0.0
 40
120.0
 41
0.0
 71
     5
 72
     1
  1
\A1;55
  7
STYLE1
 73
     1
 44
1.0
1001
ACAD
1000
MTEXTBEGIN
1070
    73
1070
     1
1070
    44
1040
1.0
1070
    74
1070
     0
1000
MTEXTEND
  0
POINT
  5
16C51
330
1639B
100
AcDbEntity
  8
DEFPOINTS
 62
     0
 48
50.0
100
AcDbPoint
 10
2575.471596683569
 20
7557.029213418586
 30
0.0
  0
POINT
  5
16C52
330
1639B
100
AcDbEntity
  8
DEFPOINTS
 62
     0
 48
50.0
100
AcDbPoint
 10
2520.471596683572
 20
7557.029213418584
 30
0.0
  0
POINT
  5
16C53
330
1639B
100
AcDbEntity
  8
DEFPOINTS
 62
     0
 48
50.0
100
AcDbPoint
 10
2520.471596683572
 20
7022.598442652423
 30
0.0
  0
ENDBLK
  5
16470
330
1639B
100
AcDbEntity
  8
0
 48
50.0
100
AcDbBlockEnd
  0
BLOCK
  5
16471
330
163A9
100
AcDbEntity
  8
0
 48
50.0
100
AcDbBlockBegin
  2
*D8
 70
     1
 10
0.0
 20
0.0
 30
0.0
  3
*D8
  1

  0
LINE
  5
16C3E
330
163A9
100
AcDbEntity
  8
寸法
 62
     0
 48
50.0
370
    -2
100
AcDbLine
 10
7883.471596683572
 20
7563.029213418587
 30
0.0
 11
7883.471596683572
 21
6962.598442652423
 31
0.0
  0
LINE
  5
16C3F
330
163A9
100
AcDbEntity
  8
寸法
 62
     0
 48
50.0
370
    -2
100
AcDbLine
 10
7835.471596683568
 20
7537.029213418588
 30
0.0
 11
7835.471596683568
 21
6962.598442652423
 31
0.0
  0
LINE
  5
16C40
330
163A9
100
AcDbEntity
  8
寸法
 62
     0
 48
50.0
370
    -2
100
AcDbLine
 10
7883.471596683572
 20
7022.598442652423
 30
0.0
 11
7983.471596683571
 21
7022.598442652423
 31
0.0
  0
LINE
  5
16C41
330
163A9
100
AcDbEntity
  8
寸法
 62
     0
 48
50.0
370
    -2
100
AcDbLine
 10
7835.471596683568
 20
7022.598442652423
 30
0.0
 11
7735.471596683568
 21
7022.598442652423
 31
0.0
  0
MTEXT
  5
16C42
330
163A9
100
AcDbEntity
  8
寸法
 62
     7
 48
50.0
100
AcDbMText
 10
7996.37356768363
 20
7122.598442652424
 30
0.0
 40
120.0
 41
0.0
 71
     5
 72
     1
  1
\A1;48
  7
STYLE1
 73
     1
 44
1.0
1001
ACAD
1000
MTEXTBEGIN
1070
    73
1070
     1
1070
    44
1040
1.0
1070
    74
1070
     0
1000
MTEXTEND
  0
LINE
  5
16C43
330
163A9
100
AcDbEntity
  8
寸法
 62
     0
 48
50.0
370
    -2
100
AcDbLine
 10
7883.471596683572
 20
7022.598442652423
 30
0.0
 11
7835.471596683568
 21
7022.598442652423
 31
0.0
  0
INSERT
  5
16C44
330
163A9
100
AcDbEntity
  8
寸法
 62
     0
 48
50.0
370
    -2
100
AcDbBlockReference
  2
_DOTSMALL
 10
7883.471596683572
 20
7022.598442652423
 30
0.0
 41
100.0
 42
100.0
 43
100.0
 50
180.0
  0
INSERT
  5
16C45
330
163A9
100
AcDbEntity
  8
寸法
 62
     0
 48
50.0
370
    -2
100
AcDbBlockReference
  2
_DOTSMALL
 10
7835.471596683568
 20
7022.598442652423
 30
0.0
 41
100.0
 42
100.0
 43
100.0
  0
POINT
  5
16C46
330
163A9
100
AcDbEntity
  8
DEFPOINTS
 62
     0
 48
50.0
100
AcDbPoint
 10
7883.471596683572
 20
7583.029213418587
 30
0.0
  0
POINT
  5
16C47
330
163A9
100
AcDbEntity
  8
DEFPOINTS
 62
     0
 48
50.0
100
AcDbPoint
 10
7835.471596683568
 20
7557.029213418586
 30
0.0
  0
POINT
  5
16C48
330
163A9
100
AcDbEntity
  8
DEFPOINTS
 62
     0
 48
50.0
100
AcDbPoint
 10
7835.471596683568
 20
7022.598442652423
 30
0.0
  0
ENDBLK
  5
1647E
330
163A9
100
AcDbEntity
  8
0
 48
50.0
100
AcDbBlockEnd
  0
BLOCK
  5
1647F
330
163B8
100
AcDbEntity
  8
0
 48
50.0
100
AcDbBlockBegin
  2
*D9
 70
     1
 10
0.0
 20
0.0
 30
0.0
  3
*D9
  1

  0
LINE
  5
16C33
330
163B8
100
AcDbEntity
  8
寸法
 62
     0
 48
50.0
370
    -2
100
AcDbLine
 10
10355.47159668355
 20
7537.029213418676
 30
0.0
 11
10355.47159668355
 21
6962.598442652423
 31
0.0
  0
LINE
  5
16C34
330
163B8
100
AcDbEntity
  8
寸法
 62
     0
 48
50.0
370
    -2
100
AcDbLine
 10
10307.47159668355
 20
7563.029213418587
 30
0.0
 11
10307.47159668355
 21
6962.598442652423
 31
0.0
  0
LINE
  5
16C35
330
163B8
100
AcDbEntity
  8
寸法
 62
     0
 48
50.0
370
    -2
100
AcDbLine
 10
10355.47159668355
 20
7022.598442652423
 30
0.0
 11
10455.47159668355
 21
7022.598442652423
 31
0.0
  0
LINE
  5
16C36
330
163B8
100
AcDbEntity
  8
寸法
 62
     0
 48
50.0
370
    -2
100
AcDbLine
 10
10307.47159668355
 20
7022.598442652423
 30
0.0
 11
10207.47159668355
 21
7022.598442652423
 31
0.0
  0
MTEXT
  5
16C37
330
163B8
100
AcDbEntity
  8
寸法
 62
     7
 48
50.0
100
AcDbMText
 10
10196.5086990348
 20
7122.598442652424
 30
0.0
 40
120.0
 41
0.0
 71
     5
 72
     1
  1
\A1;48
  7
STYLE1
 73
     1
 44
1.0
1001
ACAD
1000
MTEXTBEGIN
1070
    73
1070
     1
1070
    44
1040
1.0
1070
    74
1070
     0
1000
MTEXTEND
  0
LINE
  5
16C38
330
163B8
100
AcDbEntity
  8
寸法
 62
     0
 48
50.0
370
    -2
100
AcDbLine
 10
10355.47159668355
 20
7022.598442652423
 30
0.0
 11
10307.47159668355
 21
7022.598442652423
 31
0.0
  0
INSERT
  5
16C39
330
163B8
100
AcDbEntity
  8
寸法
 62
     0
 48
50.0
370
    -2
100
AcDbBlockReference
  2
_DOTSMALL
 10
10355.47159668355
 20
7022.598442652423
 30
0.0
 41
100.0
 42
100.0
 43
100.0
 50
180.0
  0
INSERT
  5
16C3A
330
163B8
100
AcDbEntity
  8
寸法
 62
     0
 48
50.0
370
    -2
100
AcDbBlockReference
  2
_DOTSMALL
 10
10307.47159668355
 20
7022.598442652423
 30
0.0
 41
100.0
 42
100.0
 43
100.0
  0
POINT
  5
16C3B
330
163B8
100
AcDbEntity
  8
DEFPOINTS
 62
     0
 48
50.0
100
AcDbPoint
 10
10355.47159668355
 20
7557.029213418674
 30
0.0
  0
POINT
  5
16C3C
330
163B8
100
AcDbEntity
  8
DEFPOINTS
 62
     0
 48
50.0
100
AcDbPoint
 10
10307.47159668355
 20
7583.029213418588
 30
0.0
  0
POINT
  5
16C3D
330
163B8
100
AcDbEntity
  8
DEFPOINTS
 62
     0
 48
50.0
100
AcDbPoint
 10
10307.47159668355
 20
7022.598442652423
 30
0.0
  0
ENDBLK
  5
1648C
330
163B8
100
AcDbEntity
  8
0
 48
50.0
100
AcDbBlockEnd
  0
BLOCK
  5
1648D
330
163C7
100
AcDbEntity
  8
0
 48
50.0
100
AcDbBlockBegin
  2
*D10
 70
     1
 10
0.0
 20
0.0
 30
0.0
  3
*D10
  1

  0
LINE
  5
16C28
330
163C7
100
AcDbEntity
  8
寸法
 62
     0
 48
50.0
370
    -2
100
AcDbLine
 10
10410.47159668355
 20
7537.029213418678
 30
0.0
 11
10410.47159668355
 21
6962.598442652424
 31
0.0
  0
LINE
  5
16C29
330
163C7
100
AcDbEntity
  8
寸法
 62
     0
 48
50.0
370
    -2
100
AcDbLine
 10
10355.47159668355
 20
7537.029213418676
 30
0.0
 11
10355.47159668355
 21
6962.598442652424
 31
0.0
  0
LINE
  5
16C2A
330
163C7
100
AcDbEntity
  8
寸法
 62
     0
 48
50.0
370
    -2
100
AcDbLine
 10
10355.47159668355
 20
7022.598442652423
 30
0.0
 11
10255.47159668355
 21
7022.598442652423
 31
0.0
  0
LINE
  5
16C2B
330
163C7
100
AcDbEntity
  8
寸法
 62
     0
 48
50.0
370
    -2
100
AcDbLine
 10
10410.47159668355
 20
7022.598442652423
 30
0.0
 11
10827.44215943203
 21
7022.598442652423
 31
0.0
  0
LINE
  5
16C2C
330
163C7
100
AcDbEntity
  8
寸法
 62
     0
 48
50.0
370
    -2
100
AcDbLine
 10
10355.47159668355
 20
7022.598442652423
 30
0.0
 11
10410.47159668355
 21
7022.598442652423
 31
0.0
  0
INSERT
  5
16C2D
330
163C7
100
AcDbEntity
  8
寸法
 62
     0
 48
50.0
370
    -2
100
AcDbBlockReference
  2
_DOTSMALL
 10
10355.47159668355
 20
7022.598442652423
 30
0.0
 41
100.0
 42
100.0
 43
100.0
  0
INSERT
  5
16C2E
330
163C7
100
AcDbEntity
  8
寸法
 62
     0
 48
50.0
370
    -2
100
AcDbBlockReference
  2
_DOTSMALL
 10
10410.47159668355
 20
7022.598442652423
 30
0.0
 41
100.0
 42
100.0
 43
100.0
 50
180.0
  0
MTEXT
  5
16C2F
330
163C7
100
AcDbEntity
  8
寸法
 62
     7
 48
50.0
100
AcDbMText
 10
10718.95687805779
 20
7122.598442652424
 30
0.0
 40
120.0
 41
0.0
 71
     5
 72
     1
  1
\A1;55
  7
STYLE1
 73
     1
 44
1.0
1001
ACAD
1000
MTEXTBEGIN
1070
    73
1070
     1
1070
    44
1040
1.0
1070
    74
1070
     0
1000
MTEXTEND
  0
POINT
  5
16C30
330
163C7
100
AcDbEntity
  8
DEFPOINTS
 62
     0
 48
50.0
100
AcDbPoint
 10
10410.47159668355
 20
7557.029213418679
 30
0.0
  0
POINT
  5
16C31
330
163C7
100
AcDbEntity
  8
DEFPOINTS
 62
     0
 48
50.0
100
AcDbPoint
 10
10355.47159668355
 20
7557.029213418674
 30
0.0
  0
POINT
  5
16C32
330
163C7
100
AcDbEntity
  8
DEFPOINTS
 62
     0
 48
50.0
100
AcDbPoint
 10
10355.47159668355
 20
7022.598442652423
 30
0.0
  0
ENDBLK
  5
16499
330
163C7
100
AcDbEntity
  8
0
 48
50.0
100
AcDbBlockEnd
  0
BLOCK
  5
1661C
330
163E1
100
AcDbEntity
  8
0
 48
50.0
100
AcDbBlockBegin
  2
*D11
 70
     1
 10
0.0
 20
0.0
 30
0.0
  3
*D11
  1

  0
LINE
  5
16C1F
330
163E1
100
AcDbEntity
  8
寸法
 62
     0
 48
50.0
370
    -2
100
AcDbLine
 10
7835.471596683579
 20
9367.029213418591
 30
0.0
 11
7835.471596683579
 21
9622.83743304369
 31
0.0
  0
LINE
  5
16C20
330
163E1
100
AcDbEntity
  8
寸法
 62
     0
 48
50.0
370
    -2
100
AcDbLine
 10
10355.47159668358
 20
9367.029213418685
 30
0.0
 11
10355.47159668358
 21
9622.83743304369
 31
0.0
  0
LINE
  5
16C21
330
163E1
100
AcDbEntity
  8
寸法
 62
     0
 48
50.0
370
    -2
100
AcDbLine
 10
7835.471596683579
 20
9562.837433043689
 30
0.0
 11
10355.47159668358
 21
9562.837433043689
 31
0.0
  0
INSERT
  5
16C22
330
163E1
100
AcDbEntity
  8
寸法
 62
     0
 48
50.0
370
    -2
100
AcDbBlockReference
  2
_DOTSMALL
 10
7835.471596683579
 20
9562.837433043689
 30
0.0
 41
100.0
 42
100.0
 43
100.0
 50
180.0
  0
INSERT
  5
16C23
330
163E1
100
AcDbEntity
  8
寸法
 62
     0
 48
50.0
370
    -2
100
AcDbBlockReference
  2
_DOTSMALL
 10
10355.47159668358
 20
9562.837433043689
 30
0.0
 41
100.0
 42
100.0
 43
100.0
  0
MTEXT
  5
16C24
330
163E1
100
AcDbEntity
  8
寸法
 62
     7
 48
50.0
100
AcDbMText
 10
9095.471596683578
 20
9662.849244067311
 30
0.0
 40
120.0
 41
0.0
 71
     5
 72
     1
  1
\A1;6X420=2520
  7
STYLE1
 73
     1
 44
1.0
1001
ACAD
1000
MTEXTBEGIN
1070
    73
1070
     1
1070
    44
1040
1.0
1070
    74
1070
     0
1000
MTEXTEND
  0
POINT
  5
16C25
330
163E1
100
AcDbEntity
  8
DEFPOINTS
 62
     0
 48
50.0
100
AcDbPoint
 10
7835.471596683579
 20
9347.029213418592
 30
0.0
  0
POINT
  5
16C26
330
163E1
100
AcDbEntity
  8
DEFPOINTS
 62
     0
 48
50.0
100
AcDbPoint
 10
10355.47159668358
 20
9347.029213418686
 30
0.0
  0
POINT
  5
16C27
330
163E1
100
AcDbEntity
  8
DEFPOINTS
 62
     0
 48
50.0
100
AcDbPoint
 10
10355.47159668358
 20
9562.837433043689
 30
0.0
  0
ENDBLK
  5
16626
330
163E1
100
AcDbEntity
  8
0
 48
50.0
100
AcDbBlockEnd
  0
BLOCK
  5
164B0
330
163ED
100
AcDbEntity
  8
0
 48
50.0
100
AcDbBlockBegin
  2
*D12
 70
     1
 10
0.0
 20
0.0
 30
0.0
  3
*D12
  1

  0
LINE
  5
16C14
330
163ED
100
AcDbEntity
  8
寸法
 62
     0
 48
50.0
370
    -2
100
AcDbLine
 10
2520.471596683543
 20
9367.029213418591
 30
0.0
 11
2520.471596683543
 21
9622.837433043573
 31
0.0
  0
LINE
  5
16C15
330
163ED
100
AcDbEntity
  8
寸法
 62
     0
 48
50.0
370
    -2
100
AcDbLine
 10
2575.471596683579
 20
9367.029213418591
 30
0.0
 11
2575.471596683579
 21
9622.837433043573
 31
0.0
  0
LINE
  5
16C16
330
163ED
100
AcDbEntity
  8
寸法
 62
     0
 48
50.0
370
    -2
100
AcDbLine
 10
2575.471596683579
 20
9562.837433043574
 30
0.0
 11
2675.471596683579
 21
9562.837433043574
 31
0.0
  0
LINE
  5
16C17
330
163ED
100
AcDbEntity
  8
寸法
 62
     0
 48
50.0
370
    -2
100
AcDbLine
 10
2520.471596683543
 20
9562.837433043574
 30
0.0
 11
2103.501033935065
 21
9562.837433043574
 31
0.0
  0
LINE
  5
16C18
330
163ED
100
AcDbEntity
  8
寸法
 62
     0
 48
50.0
370
    -2
100
AcDbLine
 10
2575.471596683579
 20
9562.837433043574
 30
0.0
 11
2520.471596683543
 21
9562.837433043574
 31
0.0
  0
INSERT
  5
16C19
330
163ED
100
AcDbEntity
  8
寸法
 62
     0
 48
50.0
370
    -2
100
AcDbBlockReference
  2
_DOTSMALL
 10
2575.471596683579
 20
9562.837433043574
 30
0.0
 41
100.0
 42
100.0
 43
100.0
 50
180.0
  0
INSERT
  5
16C1A
330
163ED
100
AcDbEntity
  8
寸法
 62
     0
 48
50.0
370
    -2
100
AcDbBlockReference
  2
_DOTSMALL
 10
2520.471596683543
 20
9562.837433043574
 30
0.0
 41
100.0
 42
100.0
 43
100.0
  0
MTEXT
  5
16C1B
330
163ED
100
AcDbEntity
  8
寸法
 62
     7
 48
50.0
100
AcDbMText
 10
2211.986315309304
 20
9662.837433043574
 30
0.0
 40
120.0
 41
0.0
 71
     5
 72
     1
  1
\A1;55
  7
STYLE1
 73
     1
 44
1.0
1001
ACAD
1000
MTEXTBEGIN
1070
    73
1070
     1
1070
    44
1040
1.0
1070
    74
1070
     0
1000
MTEXTEND
  0
POINT
  5
16C1C
330
163ED
100
AcDbEntity
  8
DEFPOINTS
 62
     0
 48
50.0
100
AcDbPoint
 10
2520.471596683543
 20
9347.029213418592
 30
0.0
  0
POINT
  5
16C1D
330
163ED
100
AcDbEntity
  8
DEFPOINTS
 62
     0
 48
50.0
100
AcDbPoint
 10
2575.471596683579
 20
9347.029213418592
 30
0.0
  0
POINT
  5
16C1E
330
163ED
100
AcDbEntity
  8
DEFPOINTS
 62
     0
 48
50.0
100
AcDbPoint
 10
2575.471596683579
 20
9562.837433043574
 30
0.0
  0
ENDBLK
  5
164BC
330
163ED
100
AcDbEntity
  8
0
 48
50.0
100
AcDbBlockEnd
  0
BLOCK
  5
164BD
330
163FB
100
AcDbEntity
  8
0
 48
50.0
100
AcDbBlockBegin
  2
*D13
 70
     1
 10
0.0
 20
0.0
 30
0.0
  3
*D13
  1

  0
LINE
  5
16C09
330
163FB
100
AcDbEntity
  8
寸法
 62
     0
 48
50.0
370
    -2
100
AcDbLine
 10
10355.47159668358
 20
9367.029213418685
 30
0.0
 11
10355.47159668358
 21
9622.83743304367
 31
0.0
  0
LINE
  5
16C0A
330
163FB
100
AcDbEntity
  8
寸法
 62
     0
 48
50.0
370
    -2
100
AcDbLine
 10
10410.47159668358
 20
9367.029213418685
 30
0.0
 11
10410.47159668358
 21
9622.83743304367
 31
0.0
  0
LINE
  5
16C0B
330
163FB
100
AcDbEntity
  8
寸法
 62
     0
 48
50.0
370
    -2
100
AcDbLine
 10
10355.47159668358
 20
9562.837433043672
 30
0.0
 11
10255.47159668358
 21
9562.837433043672
 31
0.0
  0
LINE
  5
16C0C
330
163FB
100
AcDbEntity
  8
寸法
 62
     0
 48
50.0
370
    -2
100
AcDbLine
 10
10410.47159668358
 20
9562.837433043672
 30
0.0
 11
10827.44215943205
 21
9562.837433043672
 31
0.0
  0
LINE
  5
16C0D
330
163FB
100
AcDbEntity
  8
寸法
 62
     0
 48
50.0
370
    -2
100
AcDbLine
 10
10355.47159668358
 20
9562.837433043672
 30
0.0
 11
10410.47159668358
 21
9562.837433043672
 31
0.0
  0
INSERT
  5
16C0E
330
163FB
100
AcDbEntity
  8
寸法
 62
     0
 48
50.0
370
    -2
100
AcDbBlockReference
  2
_DOTSMALL
 10
10355.47159668358
 20
9562.837433043672
 30
0.0
 41
100.0
 42
100.0
 43
100.0
  0
INSERT
  5
16C0F
330
163FB
100
AcDbEntity
  8
寸法
 62
     0
 48
50.0
370
    -2
100
AcDbBlockReference
  2
_DOTSMALL
 10
10410.47159668358
 20
9562.837433043672
 30
0.0
 41
100.0
 42
100.0
 43
100.0
 50
180.0
  0
MTEXT
  5
16C10
330
163FB
100
AcDbEntity
  8
寸法
 62
     7
 48
50.0
100
AcDbMText
 10
10718.95687805781
 20
9662.837433043671
 30
0.0
 40
120.0
 41
0.0
 71
     5
 72
     1
  1
\A1;55
  7
STYLE1
 73
     1
 44
1.0
1001
ACAD
1000
MTEXTBEGIN
1070
    73
1070
     1
1070
    44
1040
1.0
1070
    74
1070
     0
1000
MTEXTEND
  0
POINT
  5
16C11
330
163FB
100
AcDbEntity
  8
DEFPOINTS
 62
     0
 48
50.0
100
AcDbPoint
 10
10355.47159668358
 20
9347.029213418686
 30
0.0
  0
POINT
  5
16C12
330
163FB
100
AcDbEntity
  8
DEFPOINTS
 62
     0
 48
50.0
100
AcDbPoint
 10
10410.47159668358
 20
9347.029213418686
 30
0.0
  0
POINT
  5
16C13
330
163FB
100
AcDbEntity
  8
DEFPOINTS
 62
     0
 48
50.0
100
AcDbPoint
 10
10410.47159668358
 20
9562.837433043672
 30
0.0
  0
ENDBLK
  5
164C9
330
163FB
100
AcDbEntity
  8
0
 48
50.0
100
AcDbBlockEnd
  0
BLOCK
  5
165B6
330
165B5
100
AcDbEntity
  8
0
 48
50.0
100
AcDbBlockBegin
  2
*D14
 70
     1
 10
0.0
 20
0.0
 30
0.0
  3
*D14
  1

  0
LINE
  5
16BF3
330
165B5
100
AcDbEntity
  8
寸法
 62
     0
 48
50.0
370
    -2
100
AcDbLine
 10
2623.471596683572
 20
7563.029213418587
 30
0.0
 11
2623.471596683572
 21
6962.598442652423
 31
0.0
  0
LINE
  5
16BF4
330
165B5
100
AcDbEntity
  8
寸法
 62
     0
 48
50.0
370
    -2
100
AcDbLine
 10
2575.471596683569
 20
7537.029213418588
 30
0.0
 11
2575.471596683569
 21
6962.598442652423
 31
0.0
  0
LINE
  5
16BF5
330
165B5
100
AcDbEntity
  8
寸法
 62
     0
 48
50.0
370
    -2
100
AcDbLine
 10
2623.471596683572
 20
7022.598442652423
 30
0.0
 11
2723.471596683572
 21
7022.598442652423
 31
0.0
  0
LINE
  5
16BF6
330
165B5
100
AcDbEntity
  8
寸法
 62
     0
 48
50.0
370
    -2
100
AcDbLine
 10
2575.471596683569
 20
7022.598442652423
 30
0.0
 11
2475.471596683568
 21
7022.598442652423
 31
0.0
  0
MTEXT
  5
16BF7
330
165B5
100
AcDbEntity
  8
寸法
 62
     7
 48
50.0
100
AcDbMText
 10
2736.37356768363
 20
7122.598442652424
 30
0.0
 40
120.0
 41
0.0
 71
     5
 72
     1
  1
\A1;48
  7
STYLE1
 73
     1
 44
1.0
1001
ACAD
1000
MTEXTBEGIN
1070
    73
1070
     1
1070
    44
1040
1.0
1070
    74
1070
     0
1000
MTEXTEND
  0
LINE
  5
16BF8
330
165B5
100
AcDbEntity
  8
寸法
 62
     0
 48
50.0
370
    -2
100
AcDbLine
 10
2623.471596683572
 20
7022.598442652423
 30
0.0
 11
2575.471596683569
 21
7022.598442652423
 31
0.0
  0
INSERT
  5
16BF9
330
165B5
100
AcDbEntity
  8
寸法
 62
     0
 48
50.0
370
    -2
100
AcDbBlockReference
  2
_DOTSMALL
 10
2623.471596683572
 20
7022.598442652423
 30
0.0
 41
100.0
 42
100.0
 43
100.0
 50
180.0
  0
INSERT
  5
16BFA
330
165B5
100
AcDbEntity
  8
寸法
 62
     0
 48
50.0
370
    -2
100
AcDbBlockReference
  2
_DOTSMALL
 10
2575.471596683569
 20
7022.598442652423
 30
0.0
 41
100.0
 42
100.0
 43
100.0
  0
POINT
  5
16BFB
330
165B5
100
AcDbEntity
  8
DEFPOINTS
 62
     0
 48
50.0
100
AcDbPoint
 10
2623.471596683572
 20
7583.029213418587
 30
0.0
  0
POINT
  5
16BFC
330
165B5
100
AcDbEntity
  8
DEFPOINTS
 62
     0
 48
50.0
100
AcDbPoint
 10
2575.471596683569
 20
7557.029213418586
 30
0.0
  0
POINT
  5
16BFD
330
165B5
100
AcDbEntity
  8
DEFPOINTS
 62
     0
 48
50.0
100
AcDbPoint
 10
2575.471596683569
 20
7022.598442652423
 30
0.0
  0
ENDBLK
  5
165C3
330
165B5
100
AcDbEntity
  8
0
 48
50.0
100
AcDbBlockEnd
  0
BLOCK
  5
165C5
330
165C4
100
AcDbEntity
  8
0
 48
50.0
100
AcDbBlockBegin
  2
*D15
 70
     1
 10
0.0
 20
0.0
 30
0.0
  3
*D15
  1

  0
LINE
  5
16BFE
330
165C4
100
AcDbEntity
  8
寸法
 62
     0
 48
50.0
370
    -2
100
AcDbLine
 10
7725.471596683556
 20
7537.029213418676
 30
0.0
 11
7725.471596683556
 21
6962.598442652423
 31
0.0
  0
LINE
  5
16BFF
330
165C4
100
AcDbEntity
  8
寸法
 62
     0
 48
50.0
370
    -2
100
AcDbLine
 10
7677.471596683554
 20
7563.029213418587
 30
0.0
 11
7677.471596683554
 21
6962.598442652423
 31
0.0
  0
LINE
  5
16C00
330
165C4
100
AcDbEntity
  8
寸法
 62
     0
 48
50.0
370
    -2
100
AcDbLine
 10
7725.471596683556
 20
7022.598442652423
 30
0.0
 11
7825.471596683556
 21
7022.598442652423
 31
0.0
  0
LINE
  5
16C01
330
165C4
100
AcDbEntity
  8
寸法
 62
     0
 48
50.0
370
    -2
100
AcDbLine
 10
7677.471596683554
 20
7022.598442652423
 30
0.0
 11
7577.471596683555
 21
7022.598442652423
 31
0.0
  0
MTEXT
  5
16C02
330
165C4
100
AcDbEntity
  8
寸法
 62
     7
 48
50.0
100
AcDbMText
 10
7566.508699034805
 20
7122.598442652424
 30
0.0
 40
120.0
 41
0.0
 71
     5
 72
     1
  1
\A1;48
  7
STYLE1
 73
     1
 44
1.0
1001
ACAD
1000
MTEXTBEGIN
1070
    73
1070
     1
1070
    44
1040
1.0
1070
    74
1070
     0
1000
MTEXTEND
  0
LINE
  5
16C03
330
165C4
100
AcDbEntity
  8
寸法
 62
     0
 48
50.0
370
    -2
100
AcDbLine
 10
7725.471596683556
 20
7022.598442652423
 30
0.0
 11
7677.471596683554
 21
7022.598442652423
 31
0.0
  0
INSERT
  5
16C04
330
165C4
100
AcDbEntity
  8
寸法
 62
     0
 48
50.0
370
    -2
100
AcDbBlockReference
  2
_DOTSMALL
 10
7725.471596683556
 20
7022.598442652423
 30
0.0
 41
100.0
 42
100.0
 43
100.0
 50
180.0
  0
INSERT
  5
16C05
330
165C4
100
AcDbEntity
  8
寸法
 62
     0
 48
50.0
370
    -2
100
AcDbBlockReference
  2
_DOTSMALL
 10
7677.471596683554
 20
7022.598442652423
 30
0.0
 41
100.0
 42
100.0
 43
100.0
  0
POINT
  5
16C06
330
165C4
100
AcDbEntity
  8
DEFPOINTS
 62
     0
 48
50.0
100
AcDbPoint
 10
7725.471596683556
 20
7557.029213418674
 30
0.0
  0
POINT
  5
16C07
330
165C4
100
AcDbEntity
  8
DEFPOINTS
 62
     0
 48
50.0
100
AcDbPoint
 10
7677.471596683554
 20
7583.029213418588
 30
0.0
  0
POINT
  5
16C08
330
165C4
100
AcDbEntity
  8
DEFPOINTS
 62
     0
 48
50.0
100
AcDbPoint
 10
7677.471596683554
 20
7022.598442652423
 30
0.0
  0
ENDBLK
  5
165D2
330
165C4
100
AcDbEntity
  8
0
 48
50.0
100
AcDbBlockEnd
  0
BLOCK
  5
1663F
330
165EA
100
AcDbEntity
  8
0
 48
50.0
100
AcDbBlockBegin
  2
*D16
 70
     1
 10
0.0
 20
0.0
 30
0.0
  3
*D16
  1

  0
LINE
  5
16BEA
330
165EA
100
AcDbEntity
  8
寸法
 62
     0
 48
50.0
370
    -2
100
AcDbLine
 10
7835.471596683568
 20
7537.029213418588
 30
0.0
 11
7835.471596683568
 21
6962.598442652424
 31
0.0
  0
LINE
  5
16BEB
330
165EA
100
AcDbEntity
  8
寸法
 62
     0
 48
50.0
370
    -2
100
AcDbLine
 10
7725.471596683556
 20
7537.029213418676
 30
0.0
 11
7725.471596683556
 21
6962.598442652424
 31
0.0
  0
LINE
  5
16BEC
330
165EA
100
AcDbEntity
  8
寸法
 62
     0
 48
50.0
370
    -2
100
AcDbLine
 10
7835.471596683568
 20
7022.598442652423
 30
0.0
 11
7725.471596683556
 21
7022.598442652423
 31
0.0
  0
MTEXT
  5
16BED
330
165EA
100
AcDbEntity
  8
寸法
 62
     7
 48
50.0
100
AcDbMText
 10
7780.471596683561
 20
6870.906547616193
 30
0.0
 40
120.0
 41
0.0
 71
     5
 72
     1
  1
\A1;110
  7
STYLE1
 73
     1
 44
1.0
1001
ACAD
1000
MTEXTBEGIN
1070
    73
1070
     1
1070
    44
1040
1.0
1070
    74
1070
     0
1000
MTEXTEND
  0
INSERT
  5
16BEE
330
165EA
100
AcDbEntity
  8
寸法
 62
     0
 48
50.0
370
    -2
100
AcDbBlockReference
  2
_DOTSMALL
 10
7835.471596683568
 20
7022.598442652423
 30
0.0
 41
100.0
 42
100.0
 43
100.0
  0
INSERT
  5
16BEF
330
165EA
100
AcDbEntity
  8
寸法
 62
     0
 48
50.0
370
    -2
100
AcDbBlockReference
  2
_DOTSMALL
 10
7725.471596683556
 20
7022.598442652423
 30
0.0
 41
100.0
 42
100.0
 43
100.0
 50
180.0
  0
POINT
  5
16BF0
330
165EA
100
AcDbEntity
  8
DEFPOINTS
 62
     0
 48
50.0
100
AcDbPoint
 10
7835.471596683568
 20
7557.029213418586
 30
0.0
  0
POINT
  5
16BF1
330
165EA
100
AcDbEntity
  8
DEFPOINTS
 62
     0
 48
50.0
100
AcDbPoint
 10
7725.471596683556
 20
7557.029213418674
 30
0.0
  0
POINT
  5
16BF2
330
165EA
100
AcDbEntity
  8
DEFPOINTS
 62
     0
 48
50.0
100
AcDbPoint
 10
7725.471596683556
 20
7022.598442652423
 30
0.0
  0
ENDBLK
  5
16649
330
165EA
100
AcDbEntity
  8
0
 48
50.0
100
AcDbBlockEnd
  0
BLOCK
  5
166D0
330
166CF
100
AcDbEntity
  8
0
 48
50.0
100
AcDbBlockBegin
  2
*D17
 70
     1
 10
0.0
 20
0.0
 30
0.0
  3
*D17
  1

  0
LINE
  5
16BDF
330
166CF
100
AcDbEntity
  8
寸法
 62
     0
 48
50.0
370
    -2
100
AcDbLine
 10
7835.471596683579
 20
9367.029213418639
 30
0.0
 11
7835.471596683579
 21
9622.83743304369
 31
0.0
  0
LINE
  5
16BE0
330
166CF
100
AcDbEntity
  8
寸法
 62
     0
 48
50.0
370
    -2
100
AcDbLine
 10
7725.471596683579
 20
9367.029213418637
 30
0.0
 11
7725.471596683579
 21
9622.83743304369
 31
0.0
  0
LINE
  5
16BE1
330
166CF
100
AcDbEntity
  8
寸法
 62
     0
 48
50.0
370
    -2
100
AcDbLine
 10
7835.471596683579
 20
9562.837433043689
 30
0.0
 11
7935.471596683578
 21
9562.837433043689
 31
0.0
  0
LINE
  5
16BE2
330
166CF
100
AcDbEntity
  8
寸法
 62
     0
 48
50.0
370
    -2
100
AcDbLine
 10
7725.471596683579
 20
9562.837433043689
 30
0.0
 11
7625.471596683579
 21
9562.837433043689
 31
0.0
  0
LINE
  5
16BE3
330
166CF
100
AcDbEntity
  8
寸法
 62
     0
 48
50.0
370
    -2
100
AcDbLine
 10
7835.471596683579
 20
9562.837433043689
 30
0.0
 11
7725.471596683579
 21
9562.837433043689
 31
0.0
  0
INSERT
  5
16BE4
330
166CF
100
AcDbEntity
  8
寸法
 62
     0
 48
50.0
370
    -2
100
AcDbBlockReference
  2
_DOTSMALL
 10
7835.471596683579
 20
9562.837433043689
 30
0.0
 41
100.0
 42
100.0
 43
100.0
 50
180.0
  0
INSERT
  5
16BE5
330
166CF
100
AcDbEntity
  8
寸法
 62
     0
 48
50.0
370
    -2
100
AcDbBlockReference
  2
_DOTSMALL
 10
7725.471596683579
 20
9562.837433043689
 30
0.0
 41
100.0
 42
100.0
 43
100.0
  0
MTEXT
  5
16BE6
330
166CF
100
AcDbEntity
  8
寸法
 62
     7
 48
50.0
100
AcDbMText
 10
7780.47159668358
 20
9662.837433043691
 30
0.0
 40
120.0
 41
0.0
 71
     5
 72
     1
  1
\A1;110
  7
STYLE1
 73
     1
 44
1.0
1001
ACAD
1000
MTEXTBEGIN
1070
    73
1070
     1
1070
    44
1040
1.0
1070
    74
1070
     0
1000
MTEXTEND
  0
POINT
  5
16BE7
330
166CF
100
AcDbEntity
  8
DEFPOINTS
 62
     0
 48
50.0
100
AcDbPoint
 10
7835.471596683579
 20
9347.029213418641
 30
0.0
  0
POINT
  5
16BE8
330
166CF
100
AcDbEntity
  8
DEFPOINTS
 62
     0
 48
50.0
100
AcDbPoint
 10
7725.471596683579
 20
9347.029213418636
 30
0.0
  0
POINT
  5
16BE9
330
166CF
100
AcDbEntity
  8
DEFPOINTS
 62
     0
 48
50.0
100
AcDbPoint
 10
7725.471596683579
 20
9562.837433043689
 30
0.0
  0
ENDBLK
  5
166DC
330
166CF
100
AcDbEntity
  8
0
 48
50.0
100
AcDbBlockEnd
  0
BLOCK
  5
1693E
330
16908
100
AcDbEntity
  8
0
 48
50.0
100
AcDbBlockBegin
  2
*D18
 70
     1
 10
0.0
 20
0.0
 30
0.0
  3
*D18
  1

  0
LINE
  5
18438
330
16908
100
AcDbEntity
  8
寸法
 62
     0
 48
50.0
370
    -2
100
AcDbLine
 10
7780.47159668358
 20
9741.825347401636
 30
0.0
 11
7780.47159668358
 21
9872.158906599985
 31
0.0
  0
LINE
  5
18439
330
16908
100
AcDbEntity
  8
寸法
 62
     0
 48
50.0
370
    -2
100
AcDbLine
 10
10410.47159668358
 20
9367.029213418685
 30
0.0
 11
10410.47159668358
 21
9872.158906599985
 31
0.0
  0
LINE
  5
1843A
330
16908
100
AcDbEntity
  8
寸法
 62
     0
 48
50.0
370
    -2
100
AcDbLine
 10
7780.47159668358
 20
9812.158906599984
 30
0.0
 11
10410.47159668358
 21
9812.158906599984
 31
0.0
  0
INSERT
  5
1843B
330
16908
100
AcDbEntity
  8
寸法
 62
     0
 48
50.0
370
    -2
100
AcDbBlockReference
  2
_DOTSMALL
 10
7780.47159668358
 20
9812.158906599984
 30
0.0
 41
100.0
 42
100.0
 43
100.0
 50
180.0
  0
INSERT
  5
1843C
330
16908
100
AcDbEntity
  8
寸法
 62
     0
 48
50.0
370
    -2
100
AcDbBlockReference
  2
_DOTSMALL
 10
10410.47159668358
 20
9812.158906599984
 30
0.0
 41
100.0
 42
100.0
 43
100.0
  0
MTEXT
  5
1843D
330
16908
100
AcDbEntity
  8
寸法
 62
     7
 48
50.0
100
AcDbMText
 10
9095.471596683578
 20
9912.170717623606
 30
0.0
 40
120.0
 41
0.0
 71
     5
 72
     1
  1
\A1;2630
  7
STYLE1
 73
     1
 44
1.0
1001
ACAD
1000
MTEXTBEGIN
1070
    73
1070
     1
1070
    44
1040
1.0
1070
    74
1070
     0
1000
MTEXTEND
  0
POINT
  5
1843E
330
16908
100
AcDbEntity
  8
DEFPOINTS
 62
     0
 48
50.0
100
AcDbPoint
 10
7780.47159668358
 20
9721.825347401635
 30
0.0
  0
POINT
  5
1843F
330
16908
100
AcDbEntity
  8
DEFPOINTS
 62
     0
 48
50.0
100
AcDbPoint
 10
10410.47159668358
 20
9347.029213418686
 30
0.0
  0
POINT
  5
18440
330
16908
100
AcDbEntity
  8
DEFPOINTS
 62
     0
 48
50.0
100
AcDbPoint
 10
10410.47159668358
 20
9812.158906599984
 30
0.0
  0
ENDBLK
  5
16947
330
16908
100
AcDbEntity
  8
0
 48
50.0
100
AcDbBlockEnd
  0
BLOCK
  5
16A77
330
16A76
100
AcDbEntity
  8
0
 48
50.0
100
AcDbBlockBegin
  2
*D19
 70
     1
 10
0.0
 20
0.0
 30
0.0
  3
*D19
  1

  0
LINE
  5
16B9E
330
16A76
100
AcDbEntity
  8
寸法
 62
     0
 48
50.0
370
    -2
100
AcDbLine
 10
5253.471596683572
 20
7563.029213418587
 30
0.0
 11
5253.471596683572
 21
6962.598442652423
 31
0.0
  0
LINE
  5
16B9F
330
16A76
100
AcDbEntity
  8
寸法
 62
     0
 48
50.0
370
    -2
100
AcDbLine
 10
5205.471596683569
 20
7537.029213418588
 30
0.0
 11
5205.471596683569
 21
6962.598442652423
 31
0.0
  0
LINE
  5
16BA0
330
16A76
100
AcDbEntity
  8
寸法
 62
     0
 48
50.0
370
    -2
100
AcDbLine
 10
5253.471596683572
 20
7022.598442652423
 30
0.0
 11
5353.471596683572
 21
7022.598442652423
 31
0.0
  0
LINE
  5
16BA1
330
16A76
100
AcDbEntity
  8
寸法
 62
     0
 48
50.0
370
    -2
100
AcDbLine
 10
5205.471596683569
 20
7022.598442652423
 30
0.0
 11
5105.471596683568
 21
7022.598442652423
 31
0.0
  0
MTEXT
  5
16BA2
330
16A76
100
AcDbEntity
  8
寸法
 62
     7
 48
50.0
100
AcDbMText
 10
5366.37356768363
 20
7122.598442652424
 30
0.0
 40
120.0
 41
0.0
 71
     5
 72
     1
  1
\A1;48
  7
STYLE1
 73
     1
 44
1.0
1001
ACAD
1000
MTEXTBEGIN
1070
    73
1070
     1
1070
    44
1040
1.0
1070
    74
1070
     0
1000
MTEXTEND
  0
LINE
  5
16BA3
330
16A76
100
AcDbEntity
  8
寸法
 62
     0
 48
50.0
370
    -2
100
AcDbLine
 10
5253.471596683572
 20
7022.598442652423
 30
0.0
 11
5205.471596683569
 21
7022.598442652423
 31
0.0
  0
INSERT
  5
16BA4
330
16A76
100
AcDbEntity
  8
寸法
 62
     0
 48
50.0
370
    -2
100
AcDbBlockReference
  2
_DOTSMALL
 10
5253.471596683572
 20
7022.598442652423
 30
0.0
 41
100.0
 42
100.0
 43
100.0
 50
180.0
  0
INSERT
  5
16BA5
330
16A76
100
AcDbEntity
  8
寸法
 62
     0
 48
50.0
370
    -2
100
AcDbBlockReference
  2
_DOTSMALL
 10
5205.471596683569
 20
7022.598442652423
 30
0.0
 41
100.0
 42
100.0
 43
100.0
  0
POINT
  5
16BA6
330
16A76
100
AcDbEntity
  8
DEFPOINTS
 62
     0
 48
50.0
100
AcDbPoint
 10
5253.471596683572
 20
7583.029213418587
 30
0.0
  0
POINT
  5
16BA7
330
16A76
100
AcDbEntity
  8
DEFPOINTS
 62
     0
 48
50.0
100
AcDbPoint
 10
5205.471596683569
 20
7557.029213418586
 30
0.0
  0
POINT
  5
16BA8
330
16A76
100
AcDbEntity
  8
DEFPOINTS
 62
     0
 48
50.0
100
AcDbPoint
 10
5205.471596683569
 20
7022.598442652423
 30
0.0
  0
ENDBLK
  5
16A84
330
16A76
100
AcDbEntity
  8
0
 48
50.0
100
AcDbBlockEnd
  0
BLOCK
  5
16A86
330
16A85
100
AcDbEntity
  8
0
 48
50.0
100
AcDbBlockBegin
  2
*D20
 70
     1
 10
0.0
 20
0.0
 30
0.0
  3
*D20
  1

  0
LINE
  5
16BB2
330
16A85
100
AcDbEntity
  8
寸法
 62
     0
 48
50.0
370
    -2
100
AcDbLine
 10
5095.471596683555
 20
7537.029213418676
 30
0.0
 11
5095.471596683555
 21
6962.598442652423
 31
0.0
  0
LINE
  5
16BB3
330
16A85
100
AcDbEntity
  8
寸法
 62
     0
 48
50.0
370
    -2
100
AcDbLine
 10
5047.471596683553
 20
7563.029213418587
 30
0.0
 11
5047.471596683553
 21
6962.598442652423
 31
0.0
  0
LINE
  5
16BB4
330
16A85
100
AcDbEntity
  8
寸法
 62
     0
 48
50.0
370
    -2
100
AcDbLine
 10
5095.471596683555
 20
7022.598442652423
 30
0.0
 11
5195.471596683556
 21
7022.598442652423
 31
0.0
  0
LINE
  5
16BB5
330
16A85
100
AcDbEntity
  8
寸法
 62
     0
 48
50.0
370
    -2
100
AcDbLine
 10
5047.471596683553
 20
7022.598442652423
 30
0.0
 11
4947.471596683554
 21
7022.598442652423
 31
0.0
  0
MTEXT
  5
16BB6
330
16A85
100
AcDbEntity
  8
寸法
 62
     7
 48
50.0
100
AcDbMText
 10
4936.508699034806
 20
7122.598442652424
 30
0.0
 40
120.0
 41
0.0
 71
     5
 72
     1
  1
\A1;48
  7
STYLE1
 73
     1
 44
1.0
1001
ACAD
1000
MTEXTBEGIN
1070
    73
1070
     1
1070
    44
1040
1.0
1070
    74
1070
     0
1000
MTEXTEND
  0
LINE
  5
16BB7
330
16A85
100
AcDbEntity
  8
寸法
 62
     0
 48
50.0
370
    -2
100
AcDbLine
 10
5095.471596683555
 20
7022.598442652423
 30
0.0
 11
5047.471596683553
 21
7022.598442652423
 31
0.0
  0
INSERT
  5
16BB8
330
16A85
100
AcDbEntity
  8
寸法
 62
     0
 48
50.0
370
    -2
100
AcDbBlockReference
  2
_DOTSMALL
 10
5095.471596683555
 20
7022.598442652423
 30
0.0
 41
100.0
 42
100.0
 43
100.0
 50
180.0
  0
INSERT
  5
16BB9
330
16A85
100
AcDbEntity
  8
寸法
 62
     0
 48
50.0
370
    -2
100
AcDbBlockReference
  2
_DOTSMALL
 10
5047.471596683553
 20
7022.598442652423
 30
0.0
 41
100.0
 42
100.0
 43
100.0
  0
POINT
  5
16BBA
330
16A85
100
AcDbEntity
  8
DEFPOINTS
 62
     0
 48
50.0
100
AcDbPoint
 10
5095.471596683555
 20
7557.029213418674
 30
0.0
  0
POINT
  5
16BBB
330
16A85
100
AcDbEntity
  8
DEFPOINTS
 62
     0
 48
50.0
100
AcDbPoint
 10
5047.471596683553
 20
7583.029213418588
 30
0.0
  0
POINT
  5
16BBC
330
16A85
100
AcDbEntity
  8
DEFPOINTS
 62
     0
 48
50.0
100
AcDbPoint
 10
5047.471596683553
 20
7022.598442652423
 30
0.0
  0
ENDBLK
  5
16A93
330
16A85
100
AcDbEntity
  8
0
 48
50.0
100
AcDbBlockEnd
  0
BLOCK
  5
16A95
330
16A94
100
AcDbEntity
  8
0
 48
50.0
100
AcDbBlockBegin
  2
*D21
 70
     1
 10
0.0
 20
0.0
 30
0.0
  3
*D21
  1

  0
LINE
  5
16BBD
330
16A94
100
AcDbEntity
  8
寸法
 62
     0
 48
50.0
370
    -2
100
AcDbLine
 10
2623.471596683572
 20
7563.029213418587
 30
0.0
 11
2623.471596683572
 21
6962.598442652423
 31
0.0
  0
LINE
  5
16BBE
330
16A94
100
AcDbEntity
  8
寸法
 62
     0
 48
50.0
370
    -2
100
AcDbLine
 10
5047.471596683553
 20
7022.598442652423
 30
0.0
 11
2623.471596683572
 21
7022.598442652423
 31
0.0
  0
INSERT
  5
16BBF
330
16A94
100
AcDbEntity
  8
寸法
 62
     0
 48
50.0
370
    -2
100
AcDbBlockReference
  2
_DOTSMALL
 10
5047.471596683553
 20
7022.598442652423
 30
0.0
 41
100.0
 42
100.0
 43
100.0
  0
INSERT
  5
16BC0
330
16A94
100
AcDbEntity
  8
寸法
 62
     0
 48
50.0
370
    -2
100
AcDbBlockReference
  2
_DOTSMALL
 10
2623.471596683572
 20
7022.598442652423
 30
0.0
 41
100.0
 42
100.0
 43
100.0
 50
180.0
  0
MTEXT
  5
16BC1
330
16A94
100
AcDbEntity
  8
寸法
 62
     7
 48
50.0
100
AcDbMText
 10
3835.471596683563
 20
7122.610253676045
 30
0.0
 40
120.0
 41
0.0
 71
     5
 72
     1
  1
\A1;有効開口部間口 2424
  7
STYLE1
 73
     1
 44
1.0
1001
ACAD
1000
MTEXTBEGIN
1070
    73
1070
     1
1070
    44
1040
1.0
1070
    74
1070
     0
1000
MTEXTEND
  0
POINT
  5
16BC2
330
16A94
100
AcDbEntity
  8
DEFPOINTS
 62
     0
 48
50.0
100
AcDbPoint
 10
5047.471596683553
 20
7583.029213418588
 30
0.0
  0
POINT
  5
16BC3
330
16A94
100
AcDbEntity
  8
DEFPOINTS
 62
     0
 48
50.0
100
AcDbPoint
 10
2623.471596683572
 20
7583.029213418587
 30
0.0
  0
POINT
  5
16BC4
330
16A94
100
AcDbEntity
  8
DEFPOINTS
 62
     0
 48
50.0
100
AcDbPoint
 10
2623.471596683572
 20
7022.598442652423
 30
0.0
  0
ENDBLK
  5
16A9E
330
16A94
100
AcDbEntity
  8
0
 48
50.0
100
AcDbBlockEnd
  0
BLOCK
  5
16AA0
330
16A9F
100
AcDbEntity
  8
0
 48
50.0
100
AcDbBlockBegin
  2
*D22
 70
     1
 10
0.0
 20
0.0
 30
0.0
  3
*D22
  1

  0
LINE
  5
16BA9
330
16A9F
100
AcDbEntity
  8
寸法
 62
     0
 48
50.0
370
    -2
100
AcDbLine
 10
5205.471596683569
 20
7537.029213418588
 30
0.0
 11
5205.471596683569
 21
6962.598442652424
 31
0.0
  0
LINE
  5
16BAA
330
16A9F
100
AcDbEntity
  8
寸法
 62
     0
 48
50.0
370
    -2
100
AcDbLine
 10
5095.471596683555
 20
7537.029213418676
 30
0.0
 11
5095.471596683555
 21
6962.598442652424
 31
0.0
  0
LINE
  5
16BAB
330
16A9F
100
AcDbEntity
  8
寸法
 62
     0
 48
50.0
370
    -2
100
AcDbLine
 10
5205.471596683569
 20
7022.598442652423
 30
0.0
 11
5095.471596683555
 21
7022.598442652423
 31
0.0
  0
MTEXT
  5
16BAC
330
16A9F
100
AcDbEntity
  8
寸法
 62
     7
 48
50.0
100
AcDbMText
 10
5150.471596683561
 20
6870.906547616193
 30
0.0
 40
120.0
 41
0.0
 71
     5
 72
     1
  1
\A1;110
  7
STYLE1
 73
     1
 44
1.0
1001
ACAD
1000
MTEXTBEGIN
1070
    73
1070
     1
1070
    44
1040
1.0
1070
    74
1070
     0
1000
MTEXTEND
  0
INSERT
  5
16BAD
330
16A9F
100
AcDbEntity
  8
寸法
 62
     0
 48
50.0
370
    -2
100
AcDbBlockReference
  2
_DOTSMALL
 10
5205.471596683569
 20
7022.598442652423
 30
0.0
 41
100.0
 42
100.0
 43
100.0
  0
INSERT
  5
16BAE
330
16A9F
100
AcDbEntity
  8
寸法
 62
     0
 48
50.0
370
    -2
100
AcDbBlockReference
  2
_DOTSMALL
 10
5095.471596683555
 20
7022.598442652423
 30
0.0
 41
100.0
 42
100.0
 43
100.0
 50
180.0
  0
POINT
  5
16BAF
330
16A9F
100
AcDbEntity
  8
DEFPOINTS
 62
     0
 48
50.0
100
AcDbPoint
 10
5205.471596683569
 20
7557.029213418586
 30
0.0
  0
POINT
  5
16BB0
330
16A9F
100
AcDbEntity
  8
DEFPOINTS
 62
     0
 48
50.0
100
AcDbPoint
 10
5095.471596683555
 20
7557.029213418674
 30
0.0
  0
POINT
  5
16BB1
330
16A9F
100
AcDbEntity
  8
DEFPOINTS
 62
     0
 48
50.0
100
AcDbPoint
 10
5095.471596683555
 20
7022.598442652423
 30
0.0
  0
ENDBLK
  5
16AAA
330
16A9F
100
AcDbEntity
  8
0
 48
50.0
100
AcDbBlockEnd
  0
BLOCK
  5
16AAC
330
16AAB
100
AcDbEntity
  8
0
 48
50.0
100
AcDbBlockBegin
  2
*D23
 70
     1
 10
0.0
 20
0.0
 30
0.0
  3
*D23
  1

  0
LINE
  5
16BC5
330
16AAB
100
AcDbEntity
  8
寸法
 62
     0
 48
50.0
370
    -2
100
AcDbLine
 10
2575.471596683579
 20
9367.029213418591
 30
0.0
 11
2575.471596683579
 21
9622.83743304369
 31
0.0
  0
LINE
  5
16BC6
330
16AAB
100
AcDbEntity
  8
寸法
 62
     0
 48
50.0
370
    -2
100
AcDbLine
 10
5095.471596683579
 20
9367.029213418685
 30
0.0
 11
5095.471596683579
 21
9622.83743304369
 31
0.0
  0
LINE
  5
16BC7
330
16AAB
100
AcDbEntity
  8
寸法
 62
     0
 48
50.0
370
    -2
100
AcDbLine
 10
2575.471596683579
 20
9562.837433043689
 30
0.0
 11
5095.471596683579
 21
9562.837433043689
 31
0.0
  0
INSERT
  5
16BC8
330
16AAB
100
AcDbEntity
  8
寸法
 62
     0
 48
50.0
370
    -2
100
AcDbBlockReference
  2
_DOTSMALL
 10
2575.471596683579
 20
9562.837433043689
 30
0.0
 41
100.0
 42
100.0
 43
100.0
 50
180.0
  0
INSERT
  5
16BC9
330
16AAB
100
AcDbEntity
  8
寸法
 62
     0
 48
50.0
370
    -2
100
AcDbBlockReference
  2
_DOTSMALL
 10
5095.471596683579
 20
9562.837433043689
 30
0.0
 41
100.0
 42
100.0
 43
100.0
  0
MTEXT
  5
16BCA
330
16AAB
100
AcDbEntity
  8
寸法
 62
     7
 48
50.0
100
AcDbMText
 10
3835.471596683579
 20
9662.849244067311
 30
0.0
 40
120.0
 41
0.0
 71
     5
 72
     1
  1
\A1;6X420=2520
  7
STYLE1
 73
     1
 44
1.0
1001
ACAD
1000
MTEXTBEGIN
1070
    73
1070
     1
1070
    44
1040
1.0
1070
    74
1070
     0
1000
MTEXTEND
  0
POINT
  5
16BCB
330
16AAB
100
AcDbEntity
  8
DEFPOINTS
 62
     0
 48
50.0
100
AcDbPoint
 10
2575.471596683579
 20
9347.029213418592
 30
0.0
  0
POINT
  5
16BCC
330
16AAB
100
AcDbEntity
  8
DEFPOINTS
 62
     0
 48
50.0
100
AcDbPoint
 10
5095.471596683579
 20
9347.029213418686
 30
0.0
  0
POINT
  5
16BCD
330
16AAB
100
AcDbEntity
  8
DEFPOINTS
 62
     0
 48
50.0
100
AcDbPoint
 10
5095.471596683579
 20
9562.837433043689
 30
0.0
  0
ENDBLK
  5
16AB6
330
16AAB
100
AcDbEntity
  8
0
 48
50.0
100
AcDbBlockEnd
  0
BLOCK
  5
16AB8
330
16AB7
100
AcDbEntity
  8
0
 48
50.0
100
AcDbBlockBegin
  2
*D24
 70
     1
 10
0.0
 20
0.0
 30
0.0
  3
*D24
  1

  0
LINE
  5
16B93
330
16AB7
100
AcDbEntity
  8
寸法
 62
     0
 48
50.0
370
    -2
100
AcDbLine
 10
5205.47159668358
 20
9367.029213418639
 30
0.0
 11
5205.47159668358
 21
9622.83743304369
 31
0.0
  0
LINE
  5
16B94
330
16AB7
100
AcDbEntity
  8
寸法
 62
     0
 48
50.0
370
    -2
100
AcDbLine
 10
5095.471596683579
 20
9367.029213418637
 30
0.0
 11
5095.471596683579
 21
9622.83743304369
 31
0.0
  0
LINE
  5
16B95
330
16AB7
100
AcDbEntity
  8
寸法
 62
     0
 48
50.0
370
    -2
100
AcDbLine
 10
5205.47159668358
 20
9562.837433043689
 30
0.0
 11
5305.471596683579
 21
9562.837433043689
 31
0.0
  0
LINE
  5
16B96
330
16AB7
100
AcDbEntity
  8
寸法
 62
     0
 48
50.0
370
    -2
100
AcDbLine
 10
5095.471596683579
 20
9562.837433043689
 30
0.0
 11
4995.471596683579
 21
9562.837433043689
 31
0.0
  0
LINE
  5
16B97
330
16AB7
100
AcDbEntity
  8
寸法
 62
     0
 48
50.0
370
    -2
100
AcDbLine
 10
5205.47159668358
 20
9562.837433043689
 30
0.0
 11
5095.471596683579
 21
9562.837433043689
 31
0.0
  0
INSERT
  5
16B98
330
16AB7
100
AcDbEntity
  8
寸法
 62
     0
 48
50.0
370
    -2
100
AcDbBlockReference
  2
_DOTSMALL
 10
5205.47159668358
 20
9562.837433043689
 30
0.0
 41
100.0
 42
100.0
 43
100.0
 50
180.0
  0
INSERT
  5
16B99
330
16AB7
100
AcDbEntity
  8
寸法
 62
     0
 48
50.0
370
    -2
100
AcDbBlockReference
  2
_DOTSMALL
 10
5095.471596683579
 20
9562.837433043689
 30
0.0
 41
100.0
 42
100.0
 43
100.0
  0
MTEXT
  5
16B9A
330
16AB7
100
AcDbEntity
  8
寸法
 62
     7
 48
50.0
100
AcDbMText
 10
5150.47159668358
 20
9662.837433043691
 30
0.0
 40
120.0
 41
0.0
 71
     5
 72
     1
  1
\A1;110
  7
STYLE1
 73
     1
 44
1.0
1001
ACAD
1000
MTEXTBEGIN
1070
    73
1070
     1
1070
    44
1040
1.0
1070
    74
1070
     0
1000
MTEXTEND
  0
POINT
  5
16B9B
330
16AB7
100
AcDbEntity
  8
DEFPOINTS
 62
     0
 48
50.0
100
AcDbPoint
 10
5205.47159668358
 20
9347.029213418641
 30
0.0
  0
POINT
  5
16B9C
330
16AB7
100
AcDbEntity
  8
DEFPOINTS
 62
     0
 48
50.0
100
AcDbPoint
 10
5095.471596683579
 20
9347.029213418636
 30
0.0
  0
POINT
  5
16B9D
330
16AB7
100
AcDbEntity
  8
DEFPOINTS
 62
     0
 48
50.0
100
AcDbPoint
 10
5095.471596683579
 20
9562.837433043689
 30
0.0
  0
ENDBLK
  5
16AC4
330
16AB7
100
AcDbEntity
  8
0
 48
50.0
100
AcDbBlockEnd
  0
BLOCK
  5
16AC6
330
16AC5
100
AcDbEntity
  8
0
 48
50.0
100
AcDbBlockBegin
  2
*D25
 70
     1
 10
0.0
 20
0.0
 30
0.0
  3
*D25
  1

  0
LINE
  5
16BCE
330
16AC5
100
AcDbEntity
  8
寸法
 62
     0
 48
50.0
370
    -2
100
AcDbLine
 10
2520.471596683543
 20
9367.029213418559
 30
0.0
 11
2520.471596683543
 21
9872.158906599985
 31
0.0
  0
LINE
  5
16BCF
330
16AC5
100
AcDbEntity
  8
寸法
 62
     0
 48
50.0
370
    -2
100
AcDbLine
 10
5150.47159668358
 20
9741.825347401636
 30
0.0
 11
5150.47159668358
 21
9872.158906599985
 31
0.0
  0
LINE
  5
16BD0
330
16AC5
100
AcDbEntity
  8
寸法
 62
     0
 48
50.0
370
    -2
100
AcDbLine
 10
2520.471596683543
 20
9812.158906599984
 30
0.0
 11
5150.47159668358
 21
9812.158906599984
 31
0.0
  0
INSERT
  5
16BD1
330
16AC5
100
AcDbEntity
  8
寸法
 62
     0
 48
50.0
370
    -2
100
AcDbBlockReference
  2
_DOTSMALL
 10
2520.471596683543
 20
9812.158906599984
 30
0.0
 41
100.0
 42
100.0
 43
100.0
 50
180.0
  0
INSERT
  5
16BD2
330
16AC5
100
AcDbEntity
  8
寸法
 62
     0
 48
50.0
370
    -2
100
AcDbBlockReference
  2
_DOTSMALL
 10
5150.47159668358
 20
9812.158906599984
 30
0.0
 41
100.0
 42
100.0
 43
100.0
  0
MTEXT
  5
16BD3
330
16AC5
100
AcDbEntity
  8
寸法
 62
     7
 48
50.0
100
AcDbMText
 10
3835.471596683561
 20
9912.170717623606
 30
0.0
 40
120.0
 41
0.0
 71
     5
 72
     1
  1
\A1;2630
  7
STYLE1
 73
     1
 44
1.0
1001
ACAD
1000
MTEXTBEGIN
1070
    73
1070
     1
1070
    44
1040
1.0
1070
    74
1070
     0
1000
MTEXTEND
  0
POINT
  5
16BD4
330
16AC5
100
AcDbEntity
  8
DEFPOINTS
 62
     0
 48
50.0
100
AcDbPoint
 10
2520.471596683543
 20
9347.029213418558
 30
0.0
  0
POINT
  5
16BD5
330
16AC5
100
AcDbEntity
  8
DEFPOINTS
 62
     0
 48
50.0
100
AcDbPoint
 10
5150.47159668358
 20
9721.825347401635
 30
0.0
  0
POINT
  5
16BD6
330
16AC5
100
AcDbEntity
  8
DEFPOINTS
 62
     0
 48
50.0
100
AcDbPoint
 10
5150.47159668358
 20
9812.158906599984
 30
0.0
  0
ENDBLK
  5
16AD0
330
16AC5
100
AcDbEntity
  8
0
 48
50.0
100
AcDbBlockEnd
  0
BLOCK
  5
17534
330
17528
100
AcDbEntity
  8
0
 48
50.0
100
AcDbBlockBegin
  2
*D26
 70
     1
 10
0.0
 20
0.0
 30
0.0
  3
*D26
  1

  0
LINE
  5
17BB2
330
17528
100
AcDbEntity
  8
寸法
 62
     0
 48
50.0
370
    -2
100
AcDbLine
 10
12700.36800533009
 20
2530.255549972139
 30
0.0
 11
11816.61787614683
 21
2530.255549972139
 31
0.0
  0
LINE
  5
17BB3
330
17528
100
AcDbEntity
  8
寸法
 62
     0
 48
50.0
370
    -2
100
AcDbLine
 10
12645.36800533009
 20
2480.255549972139
 30
0.0
 11
11816.61787614683
 21
2480.255549972139
 31
0.0
  0
LINE
  5
17BB4
330
17528
100
AcDbEntity
  8
寸法
 62
     0
 48
50.0
370
    -2
100
AcDbLine
 10
11876.61787614683
 20
2530.255549972139
 30
0.0
 11
11876.61787614683
 21
2630.255549972139
 31
0.0
  0
LINE
  5
17BB5
330
17528
100
AcDbEntity
  8
寸法
 62
     0
 48
50.0
370
    -2
100
AcDbLine
 10
11876.61787614683
 20
2480.255549972139
 30
0.0
 11
11876.61787614683
 21
2068.161061783158
 31
0.0
  0
LINE
  5
17BB6
330
17528
100
AcDbEntity
  8
寸法
 62
     0
 48
50.0
370
    -2
100
AcDbLine
 10
11876.61787614683
 20
2530.255549972139
 30
0.0
 11
11876.61787614683
 21
2480.255549972139
 31
0.0
  0
INSERT
  5
17BB7
330
17528
100
AcDbEntity
  8
寸法
 62
     0
 48
50.0
370
    -2
100
AcDbBlockReference
  2
_DOTSMALL
 10
11876.61787614683
 20
2530.255549972139
 30
0.0
 41
100.0
 42
100.0
 43
100.0
 50
270.0
  0
INSERT
  5
17BB8
330
17528
100
AcDbEntity
  8
寸法
 62
     0
 48
50.0
370
    -2
100
AcDbBlockReference
  2
_DOTSMALL
 10
11876.61787614683
 20
2480.255549972139
 30
0.0
 41
100.0
 42
100.0
 43
100.0
 50
90.0
  0
MTEXT
  5
17BB9
330
17528
100
AcDbEntity
  8
寸法
 62
     7
 48
50.0
100
AcDbMText
 10
11776.61787614683
 20
2174.208305877648
 30
0.0
 40
120.0
 41
0.0
 71
     5
 72
     1
  1
\A1;50
  7
STYLE1
 11
0.0000000000000001
 21
1.0
 31
0.0
 73
     1
 44
1.0
1001
ACAD
1000
MTEXTBEGIN
1070
    73
1070
     1
1070
    44
1040
1.0
1070
    74
1070
     0
1000
MTEXTEND
  0
POINT
  5
17BBA
330
17528
100
AcDbEntity
  8
DEFPOINTS
 62
     0
 48
50.0
100
AcDbPoint
 10
12720.36800533009
 20
2530.255549972139
 30
0.0
  0
POINT
  5
17BBB
330
17528
100
AcDbEntity
  8
DEFPOINTS
 62
     0
 48
50.0
100
AcDbPoint
 10
12665.36800533009
 20
2480.255549972139
 30
0.0
  0
POINT
  5
17BBC
330
17528
100
AcDbEntity
  8
DEFPOINTS
 62
     0
 48
50.0
100
AcDbPoint
 10
11876.61787614683
 20
2480.255549972139
 30
0.0
  0
ENDBLK
  5
17535
330
17528
100
AcDbEntity
  8
0
 48
50.0
100
AcDbBlockEnd
  0
BLOCK
  5
17540
330
17536
100
AcDbEntity
  8
0
 48
50.0
100
AcDbBlockBegin
  2
*D27
 70
     1
 10
0.0
 20
0.0
 30
0.0
  3
*D27
  1

  0
LINE
  5
1837D
330
17536
100
AcDbEntity
  8
寸法
 62
     0
 48
50.0
370
    -2
100
AcDbLine
 10
14510.36800533009
 20
4822.066229583792
 30
0.0
 11
14510.36800533009
 21
5314.348719311611
 31
0.0
  0
LINE
  5
1837E
330
17536
100
AcDbEntity
  8
寸法
 62
     0
 48
50.0
370
    -2
100
AcDbLine
 10
12720.36800533009
 20
4871.257168095115
 30
0.0
 11
12720.36800533009
 21
5314.348719311611
 31
0.0
  0
LINE
  5
1837F
330
17536
100
AcDbEntity
  8
寸法
 62
     0
 48
50.0
370
    -2
100
AcDbLine
 10
14510.36800533009
 20
5254.348719311611
 30
0.0
 11
12720.36800533009
 21
5254.348719311611
 31
0.0
  0
INSERT
  5
18380
330
17536
100
AcDbEntity
  8
寸法
 62
     0
 48
50.0
370
    -2
100
AcDbBlockReference
  2
_DOTSMALL
 10
14510.36800533009
 20
5254.348719311611
 30
0.0
 41
100.0
 42
100.0
 43
100.0
  0
INSERT
  5
18381
330
17536
100
AcDbEntity
  8
寸法
 62
     0
 48
50.0
370
    -2
100
AcDbBlockReference
  2
_DOTSMALL
 10
12720.36800533009
 20
5254.348719311611
 30
0.0
 41
100.0
 42
100.0
 43
100.0
 50
180.0
  0
MTEXT
  5
18382
330
17536
100
AcDbEntity
  8
寸法
 62
     7
 48
50.0
100
AcDbMText
 10
13615.36800533009
 20
5354.348719311611
 30
0.0
 40
120.0
 41
0.0
 71
     5
 72
     1
  1
\A1;柱外寸法1790
  7
STYLE1
 73
     1
 44
1.0
1001
ACAD
1000
MTEXTBEGIN
1070
    73
1070
     1
1070
    44
1040
1.0
1070
    74
1070
     0
1000
MTEXTEND
  0
POINT
  5
18383
330
17536
100
AcDbEntity
  8
DEFPOINTS
 62
     0
 48
50.0
100
AcDbPoint
 10
14510.36800533009
 20
4802.066229583792
 30
0.0
  0
POINT
  5
18384
330
17536
100
AcDbEntity
  8
DEFPOINTS
 62
     0
 48
50.0
100
AcDbPoint
 10
12720.36800533009
 20
4851.257168095115
 30
0.0
  0
POINT
  5
18385
330
17536
100
AcDbEntity
  8
DEFPOINTS
 62
     0
 48
50.0
100
AcDbPoint
 10
12720.36800533009
 20
5254.348719311611
 30
0.0
  0
ENDBLK
  5
17541
330
17536
100
AcDbEntity
  8
0
 48
50.0
100
AcDbBlockEnd
  0
BLOCK
  5
1754E
330
17542
100
AcDbEntity
  8
0
 48
50.0
100
AcDbBlockBegin
  2
*D28
 70
     1
 10
0.0
 20
0.0
 30
0.0
  3
*D28
  1

  0
LINE
  5
17C1E
330
17542
100
AcDbEntity
  8
寸法
 62
     0
 48
50.0
370
    -2
100
AcDbLine
 10
12720.36800533009
 20
4871.257168095115
 30
0.0
 11
12720.36800533009
 21
5314.348719311611
 31
0.0
  0
LINE
  5
17C1F
330
17542
100
AcDbEntity
  8
寸法
 62
     0
 48
50.0
370
    -2
100
AcDbLine
 10
12660.36800533009
 20
4875.255549972143
 30
0.0
 11
12660.36800533009
 21
5314.348719311611
 31
0.0
  0
LINE
  5
17C20
330
17542
100
AcDbEntity
  8
寸法
 62
     0
 48
50.0
370
    -2
100
AcDbLine
 10
12720.36800533009
 20
5254.348719311611
 30
0.0
 11
12820.36800533009
 21
5254.348719311611
 31
0.0
  0
LINE
  5
17C21
330
17542
100
AcDbEntity
  8
寸法
 62
     0
 48
50.0
370
    -2
100
AcDbLine
 10
12660.36800533009
 20
5254.348719311611
 30
0.0
 11
12241.09241477891
 21
5254.348719311611
 31
0.0
  0
LINE
  5
17C22
330
17542
100
AcDbEntity
  8
寸法
 62
     0
 48
50.0
370
    -2
100
AcDbLine
 10
12720.36800533009
 20
5254.348719311611
 30
0.0
 11
12660.36800533009
 21
5254.348719311611
 31
0.0
  0
INSERT
  5
17C23
330
17542
100
AcDbEntity
  8
寸法
 62
     0
 48
50.0
370
    -2
100
AcDbBlockReference
  2
_DOTSMALL
 10
12720.36800533009
 20
5254.348719311611
 30
0.0
 41
100.0
 42
100.0
 43
100.0
 50
180.0
  0
INSERT
  5
17C24
330
17542
100
AcDbEntity
  8
寸法
 62
     0
 48
50.0
370
    -2
100
AcDbBlockReference
  2
_DOTSMALL
 10
12660.36800533009
 20
5254.348719311611
 30
0.0
 41
100.0
 42
100.0
 43
100.0
  0
MTEXT
  5
17C25
330
17542
100
AcDbEntity
  8
寸法
 62
     7
 48
50.0
100
AcDbMText
 10
12350.7302100545
 20
5354.348719311611
 30
0.0
 40
120.0
 41
0.0
 71
     5
 72
     1
  1
\A1;60
  7
STYLE1
 73
     1
 44
1.0
1001
ACAD
1000
MTEXTBEGIN
1070
    73
1070
     1
1070
    44
1040
1.0
1070
    74
1070
     0
1000
MTEXTEND
  0
POINT
  5
17C26
330
17542
100
AcDbEntity
  8
DEFPOINTS
 62
     0
 48
50.0
100
AcDbPoint
 10
12720.36800533009
 20
4851.257168095115
 30
0.0
  0
POINT
  5
17C27
330
17542
100
AcDbEntity
  8
DEFPOINTS
 62
     0
 48
50.0
100
AcDbPoint
 10
12660.36800533009
 20
4855.255549972143
 30
0.0
  0
POINT
  5
17C28
330
17542
100
AcDbEntity
  8
DEFPOINTS
 62
     0
 48
50.0
100
AcDbPoint
 10
12660.36800533009
 20
5254.348719311611
 30
0.0
  0
ENDBLK
  5
1754F
330
17542
100
AcDbEntity
  8
0
 48
50.0
100
AcDbBlockEnd
  0
BLOCK
  5
1755A
330
17550
100
AcDbEntity
  8
0
 48
50.0
100
AcDbBlockBegin
  2
*D29
 70
     1
 10
0.0
 20
0.0
 30
0.0
  3
*D29
  1

  0
LINE
  5
18374
330
17550
100
AcDbEntity
  8
寸法
 62
     0
 48
50.0
370
    -2
100
AcDbLine
 10
14590.36800533009
 20
4820.255549972139
 30
0.0
 11
14590.36800533009
 21
5530.874818930056
 31
0.0
  0
LINE
  5
18375
330
17550
100
AcDbEntity
  8
寸法
 62
     0
 48
50.0
370
    -2
100
AcDbLine
 10
12660.36800533009
 20
4875.255549972143
 30
0.0
 11
12660.36800533009
 21
5530.874818930056
 31
0.0
  0
LINE
  5
18376
330
17550
100
AcDbEntity
  8
寸法
 62
     0
 48
50.0
370
    -2
100
AcDbLine
 10
14590.36800533009
 20
5470.874818930057
 30
0.0
 11
12660.36800533009
 21
5470.874818930057
 31
0.0
  0
INSERT
  5
18377
330
17550
100
AcDbEntity
  8
寸法
 62
     0
 48
50.0
370
    -2
100
AcDbBlockReference
  2
_DOTSMALL
 10
14590.36800533009
 20
5470.874818930057
 30
0.0
 41
100.0
 42
100.0
 43
100.0
  0
INSERT
  5
18378
330
17550
100
AcDbEntity
  8
寸法
 62
     0
 48
50.0
370
    -2
100
AcDbBlockReference
  2
_DOTSMALL
 10
12660.36800533009
 20
5470.874818930057
 30
0.0
 41
100.0
 42
100.0
 43
100.0
 50
180.0
  0
MTEXT
  5
18379
330
17550
100
AcDbEntity
  8
寸法
 62
     7
 48
50.0
100
AcDbMText
 10
13625.36800533009
 20
5570.874818930057
 30
0.0
 40
120.0
 41
0.0
 71
     5
 72
     1
  1
\A1;1930
  7
STYLE1
 73
     1
 44
1.0
1001
ACAD
1000
MTEXTBEGIN
1070
    73
1070
     1
1070
    44
1040
1.0
1070
    74
1070
     0
1000
MTEXTEND
  0
POINT
  5
1837A
330
17550
100
AcDbEntity
  8
DEFPOINTS
 62
     0
 48
50.0
100
AcDbPoint
 10
14590.36800533009
 20
4800.255549972139
 30
0.0
  0
POINT
  5
1837B
330
17550
100
AcDbEntity
  8
DEFPOINTS
 62
     0
 48
50.0
100
AcDbPoint
 10
12660.36800533009
 20
4855.255549972143
 30
0.0
  0
POINT
  5
1837C
330
17550
100
AcDbEntity
  8
DEFPOINTS
 62
     0
 48
50.0
100
AcDbPoint
 10
12660.36800533009
 20
5470.874818930057
 30
0.0
  0
ENDBLK
  5
1755B
330
17550
100
AcDbEntity
  8
0
 48
50.0
100
AcDbBlockEnd
  0
BLOCK
  5
17567
330
1755C
100
AcDbEntity
  8
0
 48
50.0
100
AcDbBlockBegin
  2
*D30
 70
     1
 10
0.0
 20
0.0
 30
0.0
  3
*D30
  1

  0
LINE
  5
17C29
330
1755C
100
AcDbEntity
  8
寸法
 62
     0
 48
50.0
370
    -2
100
AcDbLine
 10
14510.36800533009
 20
4822.066229583792
 30
0.0
 11
14510.36800533009
 21
5314.348719311611
 31
0.0
  0
LINE
  5
17C2A
330
1755C
100
AcDbEntity
  8
寸法
 62
     0
 48
50.0
370
    -2
100
AcDbLine
 10
14590.36800533009
 20
4820.255549972139
 30
0.0
 11
14590.36800533009
 21
5314.348719311611
 31
0.0
  0
LINE
  5
17C2B
330
1755C
100
AcDbEntity
  8
寸法
 62
     0
 48
50.0
370
    -2
100
AcDbLine
 10
14510.36800533009
 20
5254.348719311611
 30
0.0
 11
14590.36800533009
 21
5254.348719311611
 31
0.0
  0
LINE
  5
17C2C
330
1755C
100
AcDbEntity
  8
寸法
 62
     0
 48
50.0
370
    -2
100
AcDbLine
 10
14590.36800533009
 20
5254.348719311611
 30
0.0
 11
14902.46249351907
 21
5254.348719311611
 31
0.0
  0
INSERT
  5
17C2D
330
1755C
100
AcDbEntity
  8
寸法
 62
     0
 48
50.0
370
    -2
100
AcDbBlockReference
  2
_DOTSMALL
 10
14510.36800533009
 20
5254.348719311611
 30
0.0
 41
100.0
 42
100.0
 43
100.0
 50
180.0
  0
INSERT
  5
17C2E
330
1755C
100
AcDbEntity
  8
寸法
 62
     0
 48
50.0
370
    -2
100
AcDbBlockReference
  2
_DOTSMALL
 10
14590.36800533009
 20
5254.348719311611
 30
0.0
 41
100.0
 42
100.0
 43
100.0
  0
MTEXT
  5
17C2F
330
1755C
100
AcDbEntity
  8
寸法
 62
     7
 48
50.0
100
AcDbMText
 10
14796.41524942458
 20
5354.348719311611
 30
0.0
 40
120.0
 41
0.0
 71
     5
 72
     1
  1
\A1;80
  7
STYLE1
 73
     1
 44
1.0
1001
ACAD
1000
MTEXTBEGIN
1070
    73
1070
     1
1070
    44
1040
1.0
1070
    74
1070
     0
1000
MTEXTEND
  0
POINT
  5
17C30
330
1755C
100
AcDbEntity
  8
DEFPOINTS
 62
     0
 48
50.0
100
AcDbPoint
 10
14510.36800533009
 20
4802.066229583792
 30
0.0
  0
POINT
  5
17C31
330
1755C
100
AcDbEntity
  8
DEFPOINTS
 62
     0
 48
50.0
100
AcDbPoint
 10
14590.36800533009
 20
4800.255549972139
 30
0.0
  0
POINT
  5
17C32
330
1755C
100
AcDbEntity
  8
DEFPOINTS
 62
     0
 48
50.0
100
AcDbPoint
 10
14590.36800533009
 20
5254.348719311611
 30
0.0
  0
ENDBLK
  5
17568
330
1755C
100
AcDbEntity
  8
0
 48
50.0
100
AcDbBlockEnd
  0
BLOCK
  5
17574
330
17569
100
AcDbEntity
  8
0
 48
50.0
100
AcDbBlockBegin
  2
*D31
 70
     1
 10
0.0
 20
0.0
 30
0.0
  3
*D31
  1

  0
LINE
  5
17B81
330
17569
100
AcDbEntity
  8
寸法
 62
     0
 48
50.0
370
    -2
100
AcDbLine
 10
12659.77229162119
 20
4854.5532570418
 30
0.0
 11
12043.83785251593
 21
4872.267407316121
 31
0.0
  0
LINE
  5
17B82
330
17569
100
AcDbEntity
  8
寸法
 62
     0
 48
50.0
370
    -2
100
AcDbLine
 10
12655.71883606456
 20
4713.611533276087
 30
0.0
 11
12039.7843969593
 21
4731.325683550408
 31
0.0
  0
LINE
  5
17B83
330
17569
100
AcDbEntity
  8
寸法
 62
     0
 48
50.0
370
    -2
100
AcDbLine
 10
12099.75959856173
 20
4729.600808845461
 30
0.0
 11
12103.81305411836
 21
4870.542532611174
 31
0.0
  0
LINE
  5
17B84
330
17569
100
AcDbEntity
  8
寸法
 62
     0
 48
50.0
370
    -2
100
AcDbLine
 10
12103.81305411836
 20
4870.542532611174
 30
0.0
 11
12114.16230234804
 21
5230.393742225765
 31
0.0
  0
INSERT
  5
17B85
330
17569
100
AcDbEntity
  8
寸法
 62
     0
 48
50.0
370
    -2
100
AcDbBlockReference
  2
_DOTSMALL
 10
12099.75959856173
 20
4729.600808845461
 30
0.0
 41
100.0
 42
100.0
 43
100.0
 50
268.3526390256385
  0
INSERT
  5
17B86
330
17569
100
AcDbEntity
  8
寸法
 62
     0
 48
50.0
370
    -2
100
AcDbBlockReference
  2
_DOTSMALL
 10
12103.81305411836
 20
4870.542532611174
 30
0.0
 41
100.0
 42
100.0
 43
100.0
 50
88.35263902563855
  0
MTEXT
  5
17B87
330
17569
100
AcDbEntity
  8
寸法
 62
     7
 48
50.0
100
AcDbMText
 10
12010.46640448327
 20
5103.322263262078
 30
0.0
 40
120.0
 41
0.0
 71
     5
 72
     1
  1
\A1;141
  7
STYLE1
 11
0.0287479117491103
 21
0.999586693373849
 31
0.0
 73
     1
 44
1.0
1001
ACAD
1000
MTEXTBEGIN
1070
    73
1070
     1
1070
    44
1040
1.0
1070
    74
1070
     0
1000
MTEXTEND
  0
POINT
  5
17B88
330
17569
100
AcDbEntity
  8
DEFPOINTS
 62
     0
 48
50.0
100
AcDbPoint
 10
12679.76402548867
 20
4853.978298806818
 30
0.0
  0
POINT
  5
17B89
330
17569
100
AcDbEntity
  8
DEFPOINTS
 62
     0
 48
50.0
100
AcDbPoint
 10
12675.71056993204
 20
4713.036575041104
 30
0.0
  0
POINT
  5
17B8A
330
17569
100
AcDbEntity
  8
DEFPOINTS
 62
     0
 48
50.0
100
AcDbPoint
 10
12099.75959856173
 20
4729.600808845461
 30
0.0
  0
ENDBLK
  5
17575
330
17569
100
AcDbEntity
  8
0
 48
50.0
100
AcDbBlockEnd
  0
BLOCK
  5
17580
330
17576
100
AcDbEntity
  8
0
 48
50.0
100
AcDbBlockBegin
  2
*D32
 70
     1
 10
0.0
 20
0.0
 30
0.0
  3
*D32
  1

  0
LINE
  5
17B78
330
17576
100
AcDbEntity
  8
寸法
 62
     0
 48
50.0
370
    -2
100
AcDbLine
 10
12700.36800533009
 20
2480.255549972136
 30
0.0
 11
11516.61787614683
 21
2480.255549972136
 31
0.0
  0
LINE
  5
17B79
330
17576
100
AcDbEntity
  8
寸法
 62
     0
 48
50.0
370
    -2
100
AcDbLine
 10
12640.36800533009
 20
4855.25554997214
 30
0.0
 11
11516.61787614683
 21
4855.25554997214
 31
0.0
  0
LINE
  5
17B7A
330
17576
100
AcDbEntity
  8
寸法
 62
     0
 48
50.0
370
    -2
100
AcDbLine
 10
11576.61787614683
 20
2480.255549972136
 30
0.0
 11
11576.61787614683
 21
4855.25554997214
 31
0.0
  0
INSERT
  5
17B7B
330
17576
100
AcDbEntity
  8
寸法
 62
     0
 48
50.0
370
    -2
100
AcDbBlockReference
  2
_DOTSMALL
 10
11576.61787614683
 20
2480.255549972136
 30
0.0
 41
100.0
 42
100.0
 43
100.0
 50
270.0
  0
INSERT
  5
17B7C
330
17576
100
AcDbEntity
  8
寸法
 62
     0
 48
50.0
370
    -2
100
AcDbBlockReference
  2
_DOTSMALL
 10
11576.61787614683
 20
4855.25554997214
 30
0.0
 41
100.0
 42
100.0
 43
100.0
 50
90.0
  0
MTEXT
  5
17B7D
330
17576
100
AcDbEntity
  8
寸法
 62
     7
 48
50.0
100
AcDbMText
 10
11476.6060651232
 20
3667.75554997214
 30
0.0
 40
120.0
 41
0.0
 71
     5
 72
     1
  1
\A1;2375
  7
STYLE1
 11
0.0000000000000001
 21
1.0
 31
0.0
 73
     1
 44
1.0
1001
ACAD
1000
MTEXTBEGIN
1070
    73
1070
     1
1070
    44
1040
1.0
1070
    74
1070
     0
1000
MTEXTEND
  0
POINT
  5
17B7E
330
17576
100
AcDbEntity
  8
DEFPOINTS
 62
     0
 48
50.0
100
AcDbPoint
 10
12720.36800533009
 20
2480.255549972136
 30
0.0
  0
POINT
  5
17B7F
330
17576
100
AcDbEntity
  8
DEFPOINTS
 62
     0
 48
50.0
100
AcDbPoint
 10
12660.36800533009
 20
4855.25554997214
 30
0.0
  0
POINT
  5
17B80
330
17576
100
AcDbEntity
  8
DEFPOINTS
 62
     0
 48
50.0
100
AcDbPoint
 10
11576.61787614683
 20
4855.25554997214
 30
0.0
  0
ENDBLK
  5
17581
330
17576
100
AcDbEntity
  8
0
 48
50.0
100
AcDbBlockEnd
  0
BLOCK
  5
1758C
330
17582
100
AcDbEntity
  8
0
 48
50.0
100
AcDbBlockBegin
  2
*D33
 70
     1
 10
0.0
 20
0.0
 30
0.0
  3
*D33
  1

  0
LINE
  5
17B6F
330
17582
100
AcDbEntity
  8
寸法
 62
     0
 48
50.0
370
    -2
100
AcDbLine
 10
12700.36800533009
 20
4620.255549972136
 30
0.0
 11
11816.61787614683
 21
4620.255549972136
 31
0.0
  0
LINE
  5
17B70
330
17582
100
AcDbEntity
  8
寸法
 62
     0
 48
50.0
370
    -2
100
AcDbLine
 10
12700.36800533009
 20
2530.255549972136
 30
0.0
 11
11816.61787614683
 21
2530.255549972136
 31
0.0
  0
LINE
  5
17B71
330
17582
100
AcDbEntity
  8
寸法
 62
     0
 48
50.0
370
    -2
100
AcDbLine
 10
11876.61787614683
 20
4620.255549972136
 30
0.0
 11
11876.61787614683
 21
2530.255549972136
 31
0.0
  0
INSERT
  5
17B72
330
17582
100
AcDbEntity
  8
寸法
 62
     0
 48
50.0
370
    -2
100
AcDbBlockReference
  2
_DOTSMALL
 10
11876.61787614683
 20
4620.255549972136
 30
0.0
 41
100.0
 42
100.0
 43
100.0
 50
90.0
  0
INSERT
  5
17B73
330
17582
100
AcDbEntity
  8
寸法
 62
     0
 48
50.0
370
    -2
100
AcDbBlockReference
  2
_DOTSMALL
 10
11876.61787614683
 20
2530.255549972136
 30
0.0
 41
100.0
 42
100.0
 43
100.0
 50
270.0
  0
MTEXT
  5
17B74
330
17582
100
AcDbEntity
  8
寸法
 62
     7
 48
50.0
100
AcDbMText
 10
11776.60606512321
 20
3575.255549972138
 30
0.0
 40
120.0
 41
0.0
 71
     5
 72
     1
  1
\A1;2090
  7
STYLE1
 11
0.0000000000000001
 21
1.0
 31
0.0
 73
     1
 44
1.0
1001
ACAD
1000
MTEXTBEGIN
1070
    73
1070
     1
1070
    44
1040
1.0
1070
    74
1070
     0
1000
MTEXTEND
  0
POINT
  5
17B75
330
17582
100
AcDbEntity
  8
DEFPOINTS
 62
     0
 48
50.0
100
AcDbPoint
 10
12720.36800533009
 20
4620.255549972136
 30
0.0
  0
POINT
  5
17B76
330
17582
100
AcDbEntity
  8
DEFPOINTS
 62
     0
 48
50.0
100
AcDbPoint
 10
12720.36800533009
 20
2530.255549972136
 30
0.0
  0
POINT
  5
17B77
330
17582
100
AcDbEntity
  8
DEFPOINTS
 62
     0
 48
50.0
100
AcDbPoint
 10
11876.61787614683
 20
2530.255549972136
 30
0.0
  0
ENDBLK
  5
1758D
330
17582
100
AcDbEntity
  8
0
 48
50.0
100
AcDbBlockEnd
  0
BLOCK
  5
17598
330
1758E
100
AcDbEntity
  8
0
 48
50.0
100
AcDbBlockBegin
  2
*D34
 70
     1
 10
0.0
 20
0.0
 30
0.0
  3
*D34
  1

  0
LINE
  5
17B66
330
1758E
100
AcDbEntity
  8
寸法
 62
     0
 48
50.0
370
    -2
100
AcDbLine
 10
14530.36800533009
 20
2480.255549972139
 30
0.0
 11
15275.29516330222
 21
2480.255549972139
 31
0.0
  0
LINE
  5
17B67
330
1758E
100
AcDbEntity
  8
寸法
 62
     0
 48
50.0
370
    -2
100
AcDbLine
 10
14610.36800533009
 20
4800.255549972138
 30
0.0
 11
15275.29516330222
 21
4800.255549972138
 31
0.0
  0
LINE
  5
17B68
330
1758E
100
AcDbEntity
  8
寸法
 62
     0
 48
50.0
370
    -2
100
AcDbLine
 10
15215.29516330222
 20
2480.255549972139
 30
0.0
 11
15215.29516330222
 21
4800.255549972138
 31
0.0
  0
INSERT
  5
17B69
330
1758E
100
AcDbEntity
  8
寸法
 62
     0
 48
50.0
370
    -2
100
AcDbBlockReference
  2
_DOTSMALL
 10
15215.29516330222
 20
2480.255549972139
 30
0.0
 41
100.0
 42
100.0
 43
100.0
 50
270.0
  0
INSERT
  5
17B6A
330
1758E
100
AcDbEntity
  8
寸法
 62
     0
 48
50.0
370
    -2
100
AcDbBlockReference
  2
_DOTSMALL
 10
15215.29516330222
 20
4800.255549972138
 30
0.0
 41
100.0
 42
100.0
 43
100.0
 50
90.0
  0
MTEXT
  5
17B6B
330
1758E
100
AcDbEntity
  8
寸法
 62
     7
 48
50.0
100
AcDbMText
 10
15115.2833522786
 20
3640.255549972141
 30
0.0
 40
120.0
 41
0.0
 71
     5
 72
     1
  1
\A1;2320
  7
STYLE1
 11
0.0000000000000001
 21
1.0
 31
0.0
 73
     1
 44
1.0
1001
ACAD
1000
MTEXTBEGIN
1070
    73
1070
     1
1070
    44
1040
1.0
1070
    74
1070
     0
1000
MTEXTEND
  0
POINT
  5
17B6C
330
1758E
100
AcDbEntity
  8
DEFPOINTS
 62
     0
 48
50.0
100
AcDbPoint
 10
14510.36800533009
 20
2480.255549972139
 30
0.0
  0
POINT
  5
17B6D
330
1758E
100
AcDbEntity
  8
DEFPOINTS
 62
     0
 48
50.0
100
AcDbPoint
 10
14590.36800533009
 20
4800.255549972138
 30
0.0
  0
POINT
  5
17B6E
330
1758E
100
AcDbEntity
  8
DEFPOINTS
 62
     0
 48
50.0
100
AcDbPoint
 10
15215.29516330222
 20
4800.255549972138
 30
0.0
  0
ENDBLK
  5
17599
330
1758E
100
AcDbEntity
  8
0
 48
50.0
100
AcDbBlockEnd
  0
BLOCK
  5
175CA
330
175BE
100
AcDbEntity
  8
0
 48
50.0
100
AcDbBlockBegin
  2
*D35
 70
     1
 10
0.0
 20
0.0
 30
0.0
  3
*D35
  1

  0
LINE
  5
17B52
330
175BE
100
AcDbEntity
  8
寸法
 62
     0
 48
50.0
370
    -2
100
AcDbLine
 10
10460.47159668356
 20
4875.255549972141
 30
0.0
 11
10460.47159668356
 21
5314.348719311611
 31
0.0
  0
LINE
  5
17B53
330
175BE
100
AcDbEntity
  8
寸法
 62
     0
 48
50.0
370
    -2
100
AcDbLine
 10
10410.47159668355
 20
4875.255549972143
 30
0.0
 11
10410.47159668355
 21
5314.348719311611
 31
0.0
  0
LINE
  5
17B54
330
175BE
100
AcDbEntity
  8
寸法
 62
     0
 48
50.0
370
    -2
100
AcDbLine
 10
10410.47159668355
 20
5254.348719311611
 30
0.0
 11
10310.47159668355
 21
5254.348719311611
 31
0.0
  0
LINE
  5
17B55
330
175BE
100
AcDbEntity
  8
寸法
 62
     0
 48
50.0
370
    -2
100
AcDbLine
 10
10460.47159668356
 20
5254.348719311611
 30
0.0
 11
10880.00412215228
 21
5254.348719311611
 31
0.0
  0
LINE
  5
17B56
330
175BE
100
AcDbEntity
  8
寸法
 62
     0
 48
50.0
370
    -2
100
AcDbLine
 10
10410.47159668355
 20
5254.348719311611
 30
0.0
 11
10460.47159668356
 21
5254.348719311611
 31
0.0
  0
INSERT
  5
17B57
330
175BE
100
AcDbEntity
  8
寸法
 62
     0
 48
50.0
370
    -2
100
AcDbBlockReference
  2
_DOTSMALL
 10
10410.47159668355
 20
5254.348719311611
 30
0.0
 41
100.0
 42
100.0
 43
100.0
  0
INSERT
  5
17B58
330
175BE
100
AcDbEntity
  8
寸法
 62
     0
 48
50.0
370
    -2
100
AcDbBlockReference
  2
_DOTSMALL
 10
10460.47159668356
 20
5254.348719311611
 30
0.0
 41
100.0
 42
100.0
 43
100.0
 50
180.0
  0
MTEXT
  5
17B59
330
175BE
100
AcDbEntity
  8
寸法
 62
     7
 48
50.0
100
AcDbMText
 10
10773.95687805779
 20
5354.348719311611
 30
0.0
 40
120.0
 41
0.0
 71
     5
 72
     1
  1
\A1;50
  7
STYLE1
 73
     1
 44
1.0
1001
ACAD
1000
MTEXTBEGIN
1070
    73
1070
     1
1070
    44
1040
1.0
1070
    74
1070
     0
1000
MTEXTEND
  0
POINT
  5
17B5A
330
175BE
100
AcDbEntity
  8
DEFPOINTS
 62
     0
 48
50.0
100
AcDbPoint
 10
10460.47159668356
 20
4855.255549972142
 30
0.0
  0
POINT
  5
17B5B
330
175BE
100
AcDbEntity
  8
DEFPOINTS
 62
     0
 48
50.0
100
AcDbPoint
 10
10410.47159668355
 20
4855.255549972143
 30
0.0
  0
POINT
  5
17B5C
330
175BE
100
AcDbEntity
  8
DEFPOINTS
 62
     0
 48
50.0
100
AcDbPoint
 10
10410.47159668355
 20
5254.348719311611
 30
0.0
  0
ENDBLK
  5
175CB
330
175BE
100
AcDbEntity
  8
0
 48
50.0
100
AcDbBlockEnd
  0
BLOCK
  5
1799E
330
17992
100
AcDbEntity
  8
0
 48
50.0
100
AcDbBlockBegin
  2
*D36
 70
     1
 10
0.0
 20
0.0
 30
0.0
  3
*D36
  1

  0
LINE
  5
17B47
330
17992
100
AcDbEntity
  8
寸法
 62
     0
 48
50.0
370
    -2
100
AcDbLine
 10
2520.471596683565
 20
4875.255549972145
 30
0.0
 11
2520.471596683565
 21
5314.348719311611
 31
0.0
  0
LINE
  5
17B48
330
17992
100
AcDbEntity
  8
寸法
 62
     0
 48
50.0
370
    -2
100
AcDbLine
 10
2470.471596683565
 20
4875.255549972143
 30
0.0
 11
2470.471596683565
 21
5314.348719311611
 31
0.0
  0
LINE
  5
17B49
330
17992
100
AcDbEntity
  8
寸法
 62
     0
 48
50.0
370
    -2
100
AcDbLine
 10
2520.471596683565
 20
5254.348719311611
 30
0.0
 11
2620.471596683565
 21
5254.348719311611
 31
0.0
  0
LINE
  5
17B4A
330
17992
100
AcDbEntity
  8
寸法
 62
     0
 48
50.0
370
    -2
100
AcDbLine
 10
2470.471596683565
 20
5254.348719311611
 30
0.0
 11
2050.939071214829
 21
5254.348719311611
 31
0.0
  0
LINE
  5
17B4B
330
17992
100
AcDbEntity
  8
寸法
 62
     0
 48
50.0
370
    -2
100
AcDbLine
 10
2520.471596683565
 20
5254.348719311611
 30
0.0
 11
2470.471596683565
 21
5254.348719311611
 31
0.0
  0
INSERT
  5
17B4C
330
17992
100
AcDbEntity
  8
寸法
 62
     0
 48
50.0
370
    -2
100
AcDbBlockReference
  2
_DOTSMALL
 10
2520.471596683565
 20
5254.348719311611
 30
0.0
 41
100.0
 42
100.0
 43
100.0
 50
180.0
  0
INSERT
  5
17B4D
330
17992
100
AcDbEntity
  8
寸法
 62
     0
 48
50.0
370
    -2
100
AcDbBlockReference
  2
_DOTSMALL
 10
2470.471596683565
 20
5254.348719311611
 30
0.0
 41
100.0
 42
100.0
 43
100.0
  0
MTEXT
  5
17B4E
330
17992
100
AcDbEntity
  8
寸法
 62
     7
 48
50.0
100
AcDbMText
 10
2156.986315309318
 20
5354.348719311611
 30
0.0
 40
120.0
 41
0.0
 71
     5
 72
     1
  1
\A1;50
  7
STYLE1
 73
     1
 44
1.0
1001
ACAD
1000
MTEXTBEGIN
1070
    73
1070
     1
1070
    44
1040
1.0
1070
    74
1070
     0
1000
MTEXTEND
  0
POINT
  5
17B4F
330
17992
100
AcDbEntity
  8
DEFPOINTS
 62
     0
 48
50.0
100
AcDbPoint
 10
2520.471596683565
 20
4855.255549972145
 30
0.0
  0
POINT
  5
17B50
330
17992
100
AcDbEntity
  8
DEFPOINTS
 62
     0
 48
50.0
100
AcDbPoint
 10
2470.471596683565
 20
4855.255549972143
 30
0.0
  0
POINT
  5
17B51
330
17992
100
AcDbEntity
  8
DEFPOINTS
 62
     0
 48
50.0
100
AcDbPoint
 10
2470.471596683565
 20
5254.348719311611
 30
0.0
  0
ENDBLK
  5
1799F
330
17992
100
AcDbEntity
  8
0
 48
50.0
100
AcDbBlockEnd
  0
BLOCK
  5
17A8E
330
17A84
100
AcDbEntity
  8
0
 48
50.0
100
AcDbBlockBegin
  2
*D37
 70
     1
 10
0.0
 20
0.0
 30
0.0
  3
*D37
  1

  0
LINE
  5
18386
330
17A84
100
AcDbEntity
  8
寸法
 62
     0
 48
50.0
370
    -2
100
AcDbLine
 10
2470.471596683565
 20
4875.255549972143
 30
0.0
 11
2470.471596683565
 21
5530.874818930056
 31
0.0
  0
LINE
  5
18387
330
17A84
100
AcDbEntity
  8
寸法
 62
     0
 48
50.0
370
    -2
100
AcDbLine
 10
10460.47159668356
 20
4875.255549972141
 30
0.0
 11
10460.47159668356
 21
5530.874818930056
 31
0.0
  0
LINE
  5
18388
330
17A84
100
AcDbEntity
  8
寸法
 62
     0
 48
50.0
370
    -2
100
AcDbLine
 10
2470.471596683565
 20
5470.874818930057
 30
0.0
 11
10460.47159668356
 21
5470.874818930057
 31
0.0
  0
INSERT
  5
18389
330
17A84
100
AcDbEntity
  8
寸法
 62
     0
 48
50.0
370
    -2
100
AcDbBlockReference
  2
_DOTSMALL
 10
2470.471596683565
 20
5470.874818930057
 30
0.0
 41
100.0
 42
100.0
 43
100.0
 50
180.0
  0
INSERT
  5
1838A
330
17A84
100
AcDbEntity
  8
寸法
 62
     0
 48
50.0
370
    -2
100
AcDbBlockReference
  2
_DOTSMALL
 10
10460.47159668356
 20
5470.874818930057
 30
0.0
 41
100.0
 42
100.0
 43
100.0
  0
MTEXT
  5
1838B
330
17A84
100
AcDbEntity
  8
寸法
 62
     7
 48
50.0
100
AcDbMText
 10
6465.471596683561
 20
5570.886629953679
 30
0.0
 40
120.0
 41
0.0
 71
     5
 72
     1
  1
\A1;N X 2630+100
  7
STYLE1
 73
     1
 44
1.0
1001
ACAD
1000
MTEXTBEGIN
1070
    73
1070
     1
1070
    44
1040
1.0
1070
    74
1070
     0
1000
MTEXTEND
  0
POINT
  5
1838C
330
17A84
100
AcDbEntity
  8
DEFPOINTS
 62
     0
 48
50.0
100
AcDbPoint
 10
2470.471596683565
 20
4855.255549972143
 30
0.0
  0
POINT
  5
1838D
330
17A84
100
AcDbEntity
  8
DEFPOINTS
 62
     0
 48
50.0
100
AcDbPoint
 10
10460.47159668356
 20
4855.255549972142
 30
0.0
  0
POINT
  5
1838E
330
17A84
100
AcDbEntity
  8
DEFPOINTS
 62
     0
 48
50.0
100
AcDbPoint
 10
10460.47159668356
 20
5470.874818930057
 30
0.0
  0
ENDBLK
  5
17A8F
330
17A84
100
AcDbEntity
  8
0
 48
50.0
100
AcDbBlockEnd
  0
BLOCK
  5
17A9A
330
17A90
100
AcDbEntity
  8
0
 48
50.0
100
AcDbBlockBegin
  2
*D38
 70
     1
 10
0.0
 20
0.0
 30
0.0
  3
*D38
  1

  0
LINE
  5
1838F
330
17A90
100
AcDbEntity
  8
寸法
 62
     0
 48
50.0
370
    -2
100
AcDbLine
 10
10410.47159668355
 20
4875.255549972143
 30
0.0
 11
10410.47159668355
 21
5314.348719311611
 31
0.0
  0
LINE
  5
18390
330
17A90
100
AcDbEntity
  8
寸法
 62
     0
 48
50.0
370
    -2
100
AcDbLine
 10
2520.471596683565
 20
4875.255549972145
 30
0.0
 11
2520.471596683565
 21
5314.348719311611
 31
0.0
  0
LINE
  5
18391
330
17A90
100
AcDbEntity
  8
寸法
 62
     0
 48
50.0
370
    -2
100
AcDbLine
 10
10410.47159668355
 20
5254.348719311611
 30
0.0
 11
2520.471596683565
 21
5254.348719311611
 31
0.0
  0
INSERT
  5
18392
330
17A90
100
AcDbEntity
  8
寸法
 62
     0
 48
50.0
370
    -2
100
AcDbBlockReference
  2
_DOTSMALL
 10
10410.47159668355
 20
5254.348719311611
 30
0.0
 41
100.0
 42
100.0
 43
100.0
  0
INSERT
  5
18393
330
17A90
100
AcDbEntity
  8
寸法
 62
     0
 48
50.0
370
    -2
100
AcDbBlockReference
  2
_DOTSMALL
 10
2520.471596683565
 20
5254.348719311611
 30
0.0
 41
100.0
 42
100.0
 43
100.0
 50
180.0
  0
MTEXT
  5
18394
330
17A90
100
AcDbEntity
  8
寸法
 62
     7
 48
50.0
100
AcDbMText
 10
6465.471596683561
 20
5354.360530335234
 30
0.0
 40
120.0
 41
0.0
 71
     5
 72
     1
  1
\A1;柱外寸法 N X 2630
  7
STYLE1
 73
     1
 44
1.0
1001
ACAD
1000
MTEXTBEGIN
1070
    73
1070
     1
1070
    44
1040
1.0
1070
    74
1070
     0
1000
MTEXTEND
  0
POINT
  5
18395
330
17A90
100
AcDbEntity
  8
DEFPOINTS
 62
     0
 48
50.0
100
AcDbPoint
 10
10410.47159668355
 20
4855.255549972143
 30
0.0
  0
POINT
  5
18396
330
17A90
100
AcDbEntity
  8
DEFPOINTS
 62
     0
 48
50.0
100
AcDbPoint
 10
2520.471596683565
 20
4855.255549972145
 30
0.0
  0
POINT
  5
18397
330
17A90
100
AcDbEntity
  8
DEFPOINTS
 62
     0
 48
50.0
100
AcDbPoint
 10
2520.471596683565
 20
5254.348719311611
 30
0.0
  0
ENDBLK
  5
17A9B
330
17A90
100
AcDbEntity
  8
0
 48
50.0
100
AcDbBlockEnd
  0
BLOCK
  5
17E5C
330
17E51
100
AcDbEntity
  8
0
 48
50.0
100
AcDbBlockBegin
  2
*D39
 70
     1
 10
0.0
 20
0.0
 30
0.0
  3
*D39
  1

  0
LINE
  5
18460
330
17E51
100
AcDbEntity
  8
寸法
 62
     0
 48
50.0
370
    -2
100
AcDbLine
 10
10430.47159668355
 20
4455.255549972139
 30
0.0
 11
10758.0146990053
 21
4455.255549972139
 31
0.0
  0
LINE
  5
18461
330
17E51
100
AcDbEntity
  8
寸法
 62
     0
 48
50.0
370
    -2
100
AcDbLine
 10
10430.47159668355
 20
4620.255549972138
 30
0.0
 11
10758.0146990053
 21
4620.255549972138
 31
0.0
  0
LINE
  5
18462
330
17E51
100
AcDbEntity
  8
寸法
 62
     0
 48
50.0
370
    -2
100
AcDbLine
 10
10698.0146990053
 20
4455.255549972139
 30
0.0
 11
10698.0146990053
 21
4620.255549972138
 31
0.0
  0
LINE
  5
18463
330
17E51
100
AcDbEntity
  8
寸法
 62
     0
 48
50.0
370
    -2
100
AcDbLine
 10
10698.0146990053
 20
4620.255549972138
 30
0.0
 11
10698.0146990053
 21
4997.226112720616
 31
0.0
  0
INSERT
  5
18464
330
17E51
100
AcDbEntity
  8
寸法
 62
     0
 48
50.0
370
    -2
100
AcDbBlockReference
  2
_DOTSMALL
 10
10698.0146990053
 20
4455.255549972139
 30
0.0
 41
100.0
 42
100.0
 43
100.0
 50
270.0
  0
INSERT
  5
18465
330
17E51
100
AcDbEntity
  8
寸法
 62
     0
 48
50.0
370
    -2
100
AcDbBlockReference
  2
_DOTSMALL
 10
10698.0146990053
 20
4620.255549972138
 30
0.0
 41
100.0
 42
100.0
 43
100.0
 50
90.0
  0
MTEXT
  5
18466
330
17E51
100
AcDbEntity
  8
寸法
 62
     7
 48
50.0
100
AcDbMText
 10
10598.0146990053
 20
4858.740831346378
 30
0.0
 40
120.0
 41
0.0
 71
     5
 72
     1
  1
\A1;165
  7
STYLE1
 11
0.0000000000000001
 21
1.0
 31
0.0
 73
     1
 44
1.0
1001
ACAD
1000
MTEXTBEGIN
1070
    73
1070
     1
1070
    44
1040
1.0
1070
    74
1070
     0
1000
MTEXTEND
  0
POINT
  5
18467
330
17E51
100
AcDbEntity
  8
DEFPOINTS
 62
     0
 48
50.0
100
AcDbPoint
 10
10410.47159668355
 20
4455.255549972139
 30
0.0
  0
POINT
  5
18468
330
17E51
100
AcDbEntity
  8
DEFPOINTS
 62
     0
 48
50.0
100
AcDbPoint
 10
10410.47159668355
 20
4620.255549972138
 30
0.0
  0
POINT
  5
18469
330
17E51
100
AcDbEntity
  8
DEFPOINTS
 62
     0
 48
50.0
100
AcDbPoint
 10
10698.0146990053
 20
4620.255549972138
 30
0.0
  0
ENDBLK
  5
17E5D
330
17E51
100
AcDbEntity
  8
0
 48
50.0
100
AcDbBlockEnd
  0
BLOCK
  5
17E6A
330
17E5E
100
AcDbEntity
  8
0
 48
50.0
100
AcDbBlockBegin
  2
*D40
 70
     1
 10
0.0
 20
0.0
 30
0.0
  3
*D40
  1

  0
LINE
  5
18455
330
17E5E
100
AcDbEntity
  8
寸法
 62
     0
 48
50.0
370
    -2
100
AcDbLine
 10
10430.47159668355
 20
4428.255549972138
 30
0.0
 11
10758.0146990053
 21
4428.255549972138
 31
0.0
  0
LINE
  5
18456
330
17E5E
100
AcDbEntity
  8
寸法
 62
     0
 48
50.0
370
    -2
100
AcDbLine
 10
10430.47159668355
 20
4455.255549972139
 30
0.0
 11
10758.0146990053
 21
4455.255549972139
 31
0.0
  0
LINE
  5
18457
330
17E5E
100
AcDbEntity
  8
寸法
 62
     0
 48
50.0
370
    -2
100
AcDbLine
 10
10698.0146990053
 20
4428.255549972138
 30
0.0
 11
10698.0146990053
 21
4328.255549972137
 31
0.0
  0
LINE
  5
18458
330
17E5E
100
AcDbEntity
  8
寸法
 62
     0
 48
50.0
370
    -2
100
AcDbLine
 10
10698.0146990053
 20
4455.255549972139
 30
0.0
 11
10698.0146990053
 21
4555.255549972138
 31
0.0
  0
MTEXT
  5
18459
330
17E5E
100
AcDbEntity
  8
寸法
 62
     7
 48
50.0
100
AcDbMText
 10
10838.18452225166
 20
4456.222749811797
 30
0.0
 40
120.0
 41
0.0
 71
     5
 72
     1
  1
\A1;27
  7
STYLE1
 11
0.0000000000000001
 21
1.0
 31
0.0
 73
     1
 44
1.0
1001
ACAD
1000
MTEXTBEGIN
1070
    73
1070
     1
1070
    44
1040
1.0
1070
    74
1070
     0
1000
MTEXTEND
  0
LINE
  5
1845A
330
17E5E
100
AcDbEntity
  8
寸法
 62
     0
 48
50.0
370
    -2
100
AcDbLine
 10
10698.0146990053
 20
4428.255549972138
 30
0.0
 11
10698.0146990053
 21
4455.255549972139
 31
0.0
  0
INSERT
  5
1845B
330
17E5E
100
AcDbEntity
  8
寸法
 62
     0
 48
50.0
370
    -2
100
AcDbBlockReference
  2
_DOTSMALL
 10
10698.0146990053
 20
4428.255549972138
 30
0.0
 41
100.0
 42
100.0
 43
100.0
 50
90.0
  0
INSERT
  5
1845C
330
17E5E
100
AcDbEntity
  8
寸法
 62
     0
 48
50.0
370
    -2
100
AcDbBlockReference
  2
_DOTSMALL
 10
10698.0146990053
 20
4455.255549972139
 30
0.0
 41
100.0
 42
100.0
 43
100.0
 50
270.0
  0
POINT
  5
1845D
330
17E5E
100
AcDbEntity
  8
DEFPOINTS
 62
     0
 48
50.0
100
AcDbPoint
 10
10410.47159668355
 20
4428.255549972138
 30
0.0
  0
POINT
  5
1845E
330
17E5E
100
AcDbEntity
  8
DEFPOINTS
 62
     0
 48
50.0
100
AcDbPoint
 10
10410.47159668355
 20
4455.255549972139
 30
0.0
  0
POINT
  5
1845F
330
17E5E
100
AcDbEntity
  8
DEFPOINTS
 62
     0
 48
50.0
100
AcDbPoint
 10
10698.0146990053
 20
4455.255549972139
 30
0.0
  0
ENDBLK
  5
17E6B
330
17E5E
100
AcDbEntity
  8
0
 48
50.0
100
AcDbBlockEnd
  0
BLOCK
  5
17E76
330
17E6C
100
AcDbEntity
  8
0
 48
50.0
100
AcDbBlockBegin
  2
*D41
 70
     1
 10
0.0
 20
0.0
 30
0.0
  3
*D41
  1

  0
LINE
  5
17ED3
330
17E6C
100
AcDbEntity
  8
寸法
 62
     0
 48
50.0
370
    -2
100
AcDbLine
 10
10430.47159668355
 20
2480.255549972139
 30
0.0
 11
10758.0146990053
 21
2480.255549972139
 31
0.0
  0
LINE
  5
17ED4
330
17E6C
100
AcDbEntity
  8
寸法
 62
     0
 48
50.0
370
    -2
100
AcDbLine
 10
10430.47159668355
 20
4428.255549972138
 30
0.0
 11
10758.0146990053
 21
4428.255549972138
 31
0.0
  0
LINE
  5
17ED5
330
17E6C
100
AcDbEntity
  8
寸法
 62
     0
 48
50.0
370
    -2
100
AcDbLine
 10
10698.0146990053
 20
2480.255549972139
 30
0.0
 11
10698.0146990053
 21
4428.255549972138
 31
0.0
  0
INSERT
  5
17ED6
330
17E6C
100
AcDbEntity
  8
寸法
 62
     0
 48
50.0
370
    -2
100
AcDbBlockReference
  2
_DOTSMALL
 10
10698.0146990053
 20
2480.255549972139
 30
0.0
 41
100.0
 42
100.0
 43
100.0
 50
270.0
  0
INSERT
  5
17ED7
330
17E6C
100
AcDbEntity
  8
寸法
 62
     0
 48
50.0
370
    -2
100
AcDbBlockReference
  2
_DOTSMALL
 10
10698.0146990053
 20
4428.255549972138
 30
0.0
 41
100.0
 42
100.0
 43
100.0
 50
90.0
  0
MTEXT
  5
17ED8
330
17E6C
100
AcDbEntity
  8
寸法
 62
     7
 48
50.0
100
AcDbMText
 10
10598.0146990053
 20
3454.25554997214
 30
0.0
 40
120.0
 41
0.0
 71
     5
 72
     1
  1
\A1;有効開口部高サ 1948
  7
STYLE1
 11
0.0000000000000001
 21
1.0
 31
0.0
 73
     1
 44
1.0
1001
ACAD
1000
MTEXTBEGIN
1070
    73
1070
     1
1070
    44
1040
1.0
1070
    74
1070
     0
1000
MTEXTEND
  0
POINT
  5
17ED9
330
17E6C
100
AcDbEntity
  8
DEFPOINTS
 62
     0
 48
50.0
100
AcDbPoint
 10
10410.47159668355
 20
2480.255549972139
 30
0.0
  0
POINT
  5
17EDA
330
17E6C
100
AcDbEntity
  8
DEFPOINTS
 62
     0
 48
50.0
100
AcDbPoint
 10
10410.47159668355
 20
4428.255549972138
 30
0.0
  0
POINT
  5
17EDB
330
17E6C
100
AcDbEntity
  8
DEFPOINTS
 62
     0
 48
50.0
100
AcDbPoint
 10
10698.0146990053
 20
4428.255549972138
 30
0.0
  0
ENDBLK
  5
17E77
330
17E6C
100
AcDbEntity
  8
0
 48
50.0
100
AcDbBlockEnd
  0
BLOCK
  5
183BE
330
183BB
100
AcDbEntity
  8
0
 48
50.0
100
AcDbBlockBegin
  2
A$C3AE94366
 70
     0
 10
0.0
 20
0.0
 30
0.0
  3
A$C3AE94366
  1

  0
SPLINE
  5
183BC
330
183BB
100
AcDbEntity
  8
部品1
 48
50.0
100
AcDbSpline
210
0.0
220
0.0
230
1.0
 70
     8
 71
     3
 72
    10
 73
     6
 74
     4
 42
0.0000000001
 43
0.0000000001
 44
0.0000000001
 40
0.0
 40
0.0
 40
0.0
 40
0.0
 40
147.8767566010009
 40
301.8091093202477
 40
466.5049223087734
 40
466.5049223087734
 40
466.5049223087734
 40
466.5049223087734
 10
67.57032773305218
 20
81.24115252579349
 30
0.0
 10
-9.311354761782588
 20
72.33671886795552
 30
0.0
 10
-166.2230469719098
 20
54.16321240862384
 30
0.0
 10
156.5903629724327
 20
-48.35737223071957
 30
0.0
 10
-13.25225669694057
 20
-66.99246094292272
 30
0.0
 10
-101.0422619038345
 20
-76.62475782023148
 30
0.0
 11
67.57032773305218
 21
81.24115252579349
 31
0.0
 11
-75.26765057571719
 21
42.96783158946482
 31
0.0
 11
58.04167734345719
 21
-33.99834477015839
 31
0.0
 11
-101.0422619038345
 21
-76.62475782023148
 31
0.0
  0
LINE
  5
183BD
330
183BB
100
AcDbEntity
  8
部品1
 48
50.0
100
AcDbLine
 10
408.8794026990799
 20
1525.958705041378
 30
0.0
 11
-408.879402699079
 21
-1525.958705041378
 31
0.0
  0
ENDBLK
  5
183BF
330
183BB
100
AcDbEntity
  8
0
 48
50.0
100
AcDbBlockEnd
  0
BLOCK
  5
183C3
330
183C0
100
AcDbEntity
  8
0
 48
50.0
100
AcDbBlockBegin
  2
A$C179C7F65
 70
     0
 10
0.0
 20
0.0
 30
0.0
  3
A$C179C7F65
  1

  0
SPLINE
  5
183C1
330
183C0
100
AcDbEntity
  8
部品1
 48
50.0
100
AcDbSpline
210
0.0
220
0.0
230
1.0
 70
     8
 71
     3
 72
    10
 73
     6
 74
     4
 42
0.0000000001
 43
0.0000000001
 44
0.0000000001
 40
0.0
 40
0.0
 40
0.0
 40
0.0
 40
147.8767566010009
 40
301.8091093202477
 40
466.5049223087734
 40
466.5049223087734
 40
466.5049223087734
 40
466.5049223087734
 10
67.57032773305218
 20
81.24115252579349
 30
0.0
 10
-9.311354761782588
 20
72.33671886795552
 30
0.0
 10
-166.2230469719098
 20
54.16321240862384
 30
0.0
 10
156.5903629724327
 20
-48.35737223071957
 30
0.0
 10
-13.25225669694057
 20
-66.99246094292272
 30
0.0
 10
-101.0422619038345
 20
-76.62475782023148
 30
0.0
 11
67.57032773305218
 21
81.24115252579349
 31
0.0
 11
-75.26765057571719
 21
42.96783158946482
 31
0.0
 11
58.04167734345719
 21
-33.99834477015839
 31
0.0
 11
-101.0422619038345
 21
-76.62475782023148
 31
0.0
  0
LINE
  5
183C2
330
183C0
100
AcDbEntity
  8
部品1
 48
50.0
100
AcDbLine
 10
408.8794026990799
 20
1525.958705041378
 30
0.0
 11
-408.879402699079
 21
-1525.958705041378
 31
0.0
  0
ENDBLK
  5
183C4
330
183C0
100
AcDbEntity
  8
0
 48
50.0
100
AcDbBlockEnd
  0
ENDSEC
  0
SECTION
  2
ENTITIES
  0
MTEXT
  5
763F
330
747D
100
AcDbEntity
  8
0
100
AcDbMText
 10
302.846345836809
 20
280.1983726409901
 30
0.0
 40
3.5
 41
5.323721266742722
 71
     1
 72
     5
  1

  7
MSMINCHO
 73
     1
 44
1.0
1001
ACAD
1000
MTEXTBEGIN
1070
    73
1070
     1
1070
    44
1040
1.0
1070
    74
1070
     0
1000
MTEXTEND
  0
LINE
  5
10B57
330
747D
100
AcDbEntity
  8
補助
  6
PHANTOM
 62
   230
 48
50.0
100
AcDbLine
 10
139.9999999999995
 20
11409.6
 30
0.0
 11
16307.2
 21
11409.6
 31
0.0
  0
LINE
  5
10B59
330
747D
100
AcDbEntity
  8
仕様書枠
  6
Continuous
 48
50.0
100
AcDbLine
 10
13107.2
 20
1200.0
 30
0.0
 11
13107.2
 21
-0.0000000000000729
 31
0.0
  0
LINE
  5
10B5C
330
747D
100
AcDbEntity
  8
仕様書枠
 48
50.0
100
AcDbLine
 10
16307.2
 20
1200.0
 30
0.0
 11
16307.2
 21
-0.0000000000000909
 31
0.0
  0
LINE
  5
10B5D
330
747D
100
AcDbEntity
  8
仕様書枠
 48
50.0
100
AcDbLine
 10
140.0
 20
0.0
 30
0.0
 11
16307.2
 21
-0.0000000000000909
 31
0.0
  0
LINE
  5
10B5E
330
747D
100
AcDbEntity
  8
補助
  6
PHANTOM
 62
   230
 48
50.0
100
AcDbLine
 10
16307.2
 20
11409.6
 30
0.0
 11
16307.2
 21
1200.0
 31
0.0
  0
LINE
  5
10B6C
330
747D
100
AcDbEntity
  8
仕様書枠
 48
50.0
100
AcDbLine
 10
13107.2
 20
1200.0
 30
0.0
 11
16307.2
 21
1200.0
 31
0.0
  0
LINE
  5
10B6D
330
747D
100
AcDbEntity
  8
補助
  6
PHANTOM
 62
   230
 48
50.0
100
AcDbLine
 10
13107.2
 20
11409.6
 30
0.0
 11
13107.2
 21
4800.0
 31
0.0
  0
LINE
  5
10B6F
330
747D
100
AcDbEntity
  8
補助
  6
PHANTOM
 62
   230
 48
50.0
100
AcDbLine
 10
13107.2
 20
4800.0
 30
0.0
 11
16307.2
 21
4800.0
 31
0.0
  0
LINE
  5
10B72
330
747D
100
AcDbEntity
  8
文字
 62
     7
 48
50.0
100
AcDbLine
 10
13187.2
 20
400.0
 30
0.0
 11
16227.2
 21
400.0
 31
0.0
  0
TEXT
  5
10B73
330
747D
100
AcDbEntity
  8
文字
 62
     7
 48
50.0
100
AcDbText
 10
13162.9790565769
 20
895.0906074299405
 30
0.0
 40
200.0
  1
外 形 図
  7
STYLE2
100
AcDbText
  0
TEXT
  5
10B74
330
747D
100
AcDbEntity
  8
文字
 62
     7
 48
50.0
100
AcDbText
 10
13201.43669998441
 20
477.2740661031255
 30
0.0
 40
160.0
  1
機種名
  7
STYLE2
100
AcDbText
  0
TEXT
  5
10B75
330
747D
100
AcDbEntity
  8
文字
 62
     7
 48
50.0
100
AcDbText
 10
13209.4053442172
 20
228.5435242569016
 30
0.0
 40
100.0
  1
○有効開口寸法 ： 2424×1948(mm)
  7
STYLE2
100
AcDbText
  0
TEXT
  5
10B79
330
747D
100
AcDbEntity
  8
文字
 62
     7
 48
50.0
100
AcDbText
 10
14524.131837222
 20
1031.557706291228
 30
0.0
 40
100.0
  1
NO.06      <縮尺> S=1/40
  7
STYLE2
100
AcDbText
  0
LINE
  5
10B7B
330
747D
100
AcDbEntity
  8
仕様書枠
 48
50.0
100
AcDbLine
 10
13107.2
 20
800.0
 30
0.0
 11
14251.2
 21
800.0
 31
0.0
  0
LINE
  5
10B88
330
747D
100
AcDbEntity
  8
仕様書枠
  6
Continuous
 48
50.0
100
AcDbLine
 10
14251.2
 20
1200.0
 30
0.0
 11
14251.2
 21
800.0
 31
0.0
  0
TEXT
  5
10BB0
330
747D
100
AcDbEntity
  8
文字
 62
     7
 48
50.0
100
AcDbText
 10
14302.57975890745
 20
483.8967129911414
 30
0.0
 40
160.0
  1
FXN-50HDL-N
  7
STYLE2
100
AcDbText
  0
DIMENSION
  5
162CD
330
747D
100
AcDbEntity
  8
寸法
100
AcDbDimension
  2
*D1
 10
11057.89794241798
 20
7612.029213418676
 30
0.0
 11
10957.88613139436
 21
8452.029213418684
 31
0.0
 70
    32
  1
4X420=<>
 71
     5
 42
1680.000000000013
  3
INABA_S40G
100
AcDbAlignedDimension
 13
10410.47159668358
 23
9292.02921341869
 33
0.0
 14
10410.47159668355
 24
7612.029213418676
 34
0.0
 50
90.0
100
AcDbRotatedDimension
1001
ACAD
1000
DSTYLE
1002
{
1002
}
  0
DIMENSION
  5
162CE
330
747D
100
AcDbEntity
  8
寸法
100
AcDbDimension
  2
*D2
 10
11057.89794241796
 20
7557.029213418679
 30
0.0
 11
11057.89794241796
 21
7179.167746513816
 31
0.0
 70
   160
 71
     5
 42
54.99999999999636
  3
INABA_S40G
100
AcDbAlignedDimension
 13
10410.47159668355
 23
7612.029213418676
 33
0.0
 14
10410.47159668355
 24
7557.029213418679
 34
0.0
 50
90.0
100
AcDbRotatedDimension
1001
ACAD
1000
DSTYLE
1002
{
1002
}
  0
DIMENSION
  5
162CF
330
747D
100
AcDbEntity
  8
寸法
100
AcDbDimension
  2
*D3
 10
11057.89794241799
 20
9292.02921341869
 30
0.0
 11
11057.89794241799
 21
9655.514494792926
 31
0.0
 70
   160
 71
     5
 42
54.99999999999636
  3
INABA_S40G
100
AcDbAlignedDimension
 13
10410.47159668358
 23
9347.029213418686
 33
0.0
 14
10410.47159668358
 24
9292.02921341869
 34
0.0
 50
90.0
100
AcDbRotatedDimension
1001
ACAD
1000
DSTYLE
1002
{
1002
}
  0
DIMENSION
  5
162D0
330
747D
100
AcDbEntity
  8
寸法
100
AcDbDimension
  2
*D4
 10
11423.00488415762
 20
7557.029213418679
 30
0.0
 11
11323.00488415762
 21
8452.029213418684
 31
0.0
 70
    32
 71
     5
 42
1790.000000000006
  3
INABA_S40G
100
AcDbAlignedDimension
 13
10410.47159668358
 23
9347.029213418686
 33
0.0
 14
10410.47159668355
 24
7557.029213418679
 34
0.0
 50
90.0
100
AcDbRotatedDimension
1001
ACAD
1000
DSTYLE
1002
{
1002
}
  0
LINE
  5
162DC
330
747D
100
AcDbEntity
  8
部品1
100
AcDbLine
 10
10382.47159668356
 20
9319.029213418685
 30
0.0
 11
10382.47159668355
 21
7612.029213418676
 31
0.0
  0
LINE
  5
162DD
330
747D
100
AcDbEntity
  8
部品1
100
AcDbLine
 10
2548.471596683554
 20
7612.029213418543
 30
0.0
 11
2548.471596683565
 21
9319.029213418593
 31
0.0
  0
LINE
  5
162DE
330
747D
100
AcDbEntity
  8
部品1
100
AcDbLine
 10
10410.47159668358
 20
9347.029213418686
 30
0.0
 11
10410.47159668355
 21
7557.029213418679
 31
0.0
  0
LINE
  5
162DF
330
747D
100
AcDbEntity
  8
部品1
100
AcDbLine
 10
2520.471596683543
 20
9347.029213418558
 30
0.0
 11
2520.471596683572
 21
7557.029213418548
 31
0.0
  0
DIMENSION
  5
162E4
330
747D
100
AcDbEntity
  8
寸法
 48
50.0
100
AcDbDimension
  2
*D5
 10
7883.471596683572
 20
7022.598442652423
 30
0.0
 11
9095.471596683564
 21
7122.610253676045
 31
0.0
 70
    32
  1
有効開口部間口 <>
 71
     5
 42
2423.999999999982
  3
INABA_S40G
100
AcDbAlignedDimension
 13
10307.47159668355
 23
7583.029213418588
 33
0.0
 14
7883.471596683572
 24
7583.029213418587
 34
0.0
100
AcDbRotatedDimension
1001
ACAD
1000
DSTYLE
1002
{
1070
    75
1070
     1
1070
   279
1070
     2
1002
}
  0
LINE
  5
162E6
330
747D
100
AcDbEntity
  8
部品1
 48
50.0
100
AcDbLine
 10
7847.471596683572
 20
7602.529213418586
 30
0.0
 11
10343.47159668355
 21
7602.529213418586
 31
0.0
  0
DIMENSION
  5
162E7
330
747D
100
AcDbEntity
  8
寸法
100
AcDbDimension
  2
*D6
 10
10410.47159668354
 20
6576.425447061549
 30
0.0
 11
6465.471596683558
 21
6676.43725808517
 31
0.0
 70
    32
  1
N X 2630
 71
     5
 42
7889.999999999971
  3
INABA_S40G
100
AcDbAlignedDimension
 13
2520.471596683572
 23
7557.029213418584
 33
0.0
 14
10410.47159668354
 24
7557.029213418679
 34
0.0
100
AcDbRotatedDimension
1001
ACAD
1000
DSTYLE
1002
{
1002
}
  0
LINE
  5
162E8
330
747D
100
AcDbEntity
  8
部品1
100
AcDbLine
 10
2575.47159668355
 20
9292.029213418556
 30
0.0
 11
2575.471596683572
 21
7622.029213418585
 31
0.0
  0
LINE
  5
162E9
330
747D
100
AcDbEntity
  8
部品1
100
AcDbLine
 10
2600.47159668355
 20
9292.029213418556
 30
0.0
 11
2600.471596683572
 21
7622.029213418585
 31
0.0
  0
DIMENSION
  5
162EA
330
747D
100
AcDbEntity
  8
寸法
 48
50.0
100
AcDbDimension
  2
*D7
 10
2520.471596683572
 20
7022.598442652423
 30
0.0
 11
2211.986315309333
 21
7022.598442652423
 31
0.0
 70
   160
 71
     5
 42
54.99999999999636
  3
INABA_S40G
100
AcDbAlignedDimension
 13
2575.471596683569
 23
7557.029213418586
 33
0.0
 14
2520.471596683572
 24
7557.029213418584
 34
0.0
100
AcDbRotatedDimension
1001
ACAD
1000
DSTYLE
1002
{
1002
}
  0
DIMENSION
  5
162EB
330
747D
100
AcDbEntity
  8
寸法
 48
50.0
100
AcDbDimension
  2
*D8
 10
7835.471596683568
 20
7022.598442652423
 30
0.0
 11
7996.37356768363
 21
7122.598442652424
 31
0.0
 70
   160
 71
     5
 42
48.00000000000363
  3
INABA_S40G
100
AcDbAlignedDimension
 13
7883.471596683572
 23
7583.029213418587
 33
0.0
 14
7835.471596683568
 24
7557.029213418586
 34
0.0
100
AcDbRotatedDimension
1001
ACAD
1000
DSTYLE
1002
{
1070
   279
1070
     2
1002
}
  0
LINE
  5
162EC
330
747D
100
AcDbEntity
  8
部品1
100
AcDbLine
 10
2575.471596683569
 20
7557.029213418586
 30
0.0
 11
2520.471596683572
 21
7557.029213418584
 31
0.0
  0
LINE
  5
162ED
330
747D
100
AcDbEntity
  8
部品1
 48
50.0
100
AcDbLine
 10
2575.471596683572
 20
7593.029213418586
 30
0.0
 11
2552.471596683572
 21
7593.029213418586
 31
0.0
  0
LINE
  5
162EE
330
747D
100
AcDbEntity
  8
部品1
 48
50.0
100
AcDbLine
 10
2585.471596683572
 20
7583.029213418587
 30
0.0
 11
2575.471596683572
 21
7562.029213418587
 31
0.0
  0
LINE
  5
162EF
330
747D
100
AcDbEntity
  8
部品1
 48
50.0
100
AcDbLine
 10
2575.471596683572
 20
7622.029213418585
 30
0.0
 11
2575.471596683569
 21
7557.029213418586
 31
0.0
  0
LINE
  5
162F0
330
747D
100
AcDbEntity
  8
部品1
 48
50.0
100
AcDbLine
 10
2623.471596683572
 20
7583.029213418588
 30
0.0
 11
2623.471596683572
 21
7592.029213418587
 31
0.0
  0
LINE
  5
162F1
330
747D
100
AcDbEntity
  8
部品1
 48
50.0
100
AcDbLine
 10
2623.471596683572
 20
7622.029213418588
 30
0.0
 11
2623.471596683572
 21
7613.029213418588
 31
0.0
  0
LINE
  5
162F2
330
747D
100
AcDbEntity
  8
部品1
100
AcDbLine
 10
2623.471596683572
 20
7622.029213418588
 30
0.0
 11
2575.471596683572
 21
7622.029213418587
 31
0.0
  0
LINE
  5
162F3
330
747D
100
AcDbEntity
  8
部品1
100
AcDbLine
 10
2623.471596683572
 20
7583.029213418588
 30
0.0
 11
2575.471596683572
 21
7583.029213418587
 31
0.0
  0
LINE
  5
162F4
330
747D
100
AcDbEntity
  8
部品1
100
AcDbLine
 10
2575.471596683572
 20
7593.029213418586
 30
0.0
 11
2552.471596683572
 21
7593.029213418586
 31
0.0
  0
LINE
  5
162F5
330
747D
100
AcDbEntity
  8
部品1
100
AcDbLine
 10
2575.471596683572
 20
7612.029213418511
 30
0.0
 11
2520.471596683571
 21
7612.029213418511
 31
0.0
  0
LINE
  5
162F6
330
747D
100
AcDbEntity
  8
部品1
100
AcDbLine
 10
2548.471596683554
 20
7612.029213418548
 30
0.0
 11
2520.471596683571
 21
7612.029213418548
 31
0.0
  0
LINE
  5
162F7
330
747D
100
AcDbEntity
  8
部品1
100
AcDbLine
 10
2548.47159668357
 20
7612.029213418562
 30
0.0
 11
2520.471596683571
 21
7612.029213418562
 31
0.0
  0
LINE
  5
162FB
330
747D
100
AcDbEntity
  8
部品1
100
AcDbLine
 10
2548.471596683558
 20
8032.029213418562
 30
0.0
 11
2520.471596683558
 21
8032.029213418562
 31
0.0
  0
LINE
  5
162FC
330
747D
100
AcDbEntity
  8
部品1
100
AcDbLine
 10
2548.471596683558
 20
8452.029213418562
 30
0.0
 11
2520.471596683558
 21
8452.029213418562
 31
0.0
  0
LINE
  5
162FE
330
747D
100
AcDbEntity
  8
部品1
100
AcDbLine
 10
2548.471596683554
 20
8872.029213418562
 30
0.0
 11
2520.471596683554
 21
8872.029213418562
 31
0.0
  0
LINE
  5
162FF
330
747D
100
AcDbEntity
  8
部品1
100
AcDbLine
 10
10355.47159668357
 20
9292.029213418556
 30
0.0
 11
10355.47159668355
 21
7557.029213418674
 31
0.0
  0
LINE
  5
16300
330
747D
100
AcDbEntity
  8
部品1
100
AcDbLine
 10
10330.47159668358
 20
9292.029213418558
 30
0.0
 11
10330.47159668355
 21
7622.029213418587
 31
0.0
  0
DIMENSION
  5
16301
330
747D
100
AcDbEntity
  8
寸法
 48
50.0
100
AcDbDimension
  2
*D9
 10
10307.47159668355
 20
7022.598442652423
 30
0.0
 11
10196.5086990348
 21
7122.598442652424
 31
0.0
 70
   160
 71
     5
 42
48.00000000000181
  3
INABA_S40G
100
AcDbAlignedDimension
 13
10355.47159668355
 23
7557.029213418674
 33
0.0
 14
10307.47159668355
 24
7583.029213418588
 34
0.0
100
AcDbRotatedDimension
1001
ACAD
1000
DSTYLE
1002
{
1070
   279
1070
     2
1002
}
  0
DIMENSION
  5
16302
330
747D
100
AcDbEntity
  8
寸法
 48
50.0
100
AcDbDimension
  2
*D10
 10
10355.47159668355
 20
7022.598442652423
 30
0.0
 11
10718.95687805779
 21
7022.598442652423
 31
0.0
 70
   160
 71
     5
 42
54.99999999999818
  3
INABA_S40G
100
AcDbAlignedDimension
 13
10410.47159668355
 23
7557.029213418679
 33
0.0
 14
10355.47159668355
 24
7557.029213418674
 34
0.0
100
AcDbRotatedDimension
1001
ACAD
1000
DSTYLE
1002
{
1002
}
  0
LINE
  5
16303
330
747D
100
AcDbEntity
  8
部品1
 48
50.0
100
AcDbLine
 10
10345.47159668355
 20
7583.029213418587
 30
0.0
 11
10355.47159668355
 21
7562.029213418587
 31
0.0
  0
LINE
  5
16304
330
747D
100
AcDbEntity
  8
部品1
100
AcDbLine
 10
10307.47159668355
 20
7622.029213418588
 30
0.0
 11
10355.47159668355
 21
7622.029213418587
 31
0.0
  0
LINE
  5
16305
330
747D
100
AcDbEntity
  8
部品1
100
AcDbLine
 10
10307.47159668355
 20
7583.029213418588
 30
0.0
 11
10355.47159668355
 21
7583.029213418587
 31
0.0
  0
LINE
  5
16306
330
747D
100
AcDbEntity
  8
部品1
 48
50.0
100
AcDbLine
 10
10307.47159668355
 20
7622.029213418588
 30
0.0
 11
10307.47159668355
 21
7613.029213418588
 31
0.0
  0
LINE
  5
16307
330
747D
100
AcDbEntity
  8
部品1
 48
50.0
100
AcDbLine
 10
10307.47159668355
 20
7583.029213418588
 30
0.0
 11
10307.47159668355
 21
7592.029213418587
 31
0.0
  0
LINE
  5
16308
330
747D
100
AcDbEntity
  8
部品1
100
AcDbLine
 10
10355.47159668355
 20
7593.029213418585
 30
0.0
 11
10378.47159668355
 21
7593.029213418586
 31
0.0
  0
LINE
  5
16309
330
747D
100
AcDbEntity
  8
部品1
100
AcDbLine
 10
10355.47159668355
 20
7612.02921341869
 30
0.0
 11
10410.47159668359
 21
7612.02921341869
 31
0.0
  0
LINE
  5
1630A
330
747D
100
AcDbEntity
  8
部品1
100
AcDbLine
 10
10410.47159668355
 20
7557.029213418679
 30
0.0
 11
10355.47159668355
 21
7557.029213418676
 31
0.0
  0
LINE
  5
16317
330
747D
100
AcDbEntity
  8
部品1
100
AcDbLine
 10
10382.47159668358
 20
8032.02921341869
 30
0.0
 11
10410.47159668358
 21
8032.02921341869
 31
0.0
  0
LINE
  5
16319
330
747D
100
AcDbEntity
  8
部品1
100
AcDbLine
 10
10382.47159668358
 20
8452.029213418688
 30
0.0
 11
10410.47159668358
 21
8452.029213418688
 31
0.0
  0
LINE
  5
1631A
330
747D
100
AcDbEntity
  8
部品1
100
AcDbLine
 10
10382.47159668358
 20
8872.02921341869
 30
0.0
 11
10410.47159668358
 21
8872.02921341869
 31
0.0
  0
LINE
  5
1631B
330
747D
100
AcDbEntity
  8
部品1
100
AcDbLine
 10
7808.471596683628
 20
9319.029213418707
 30
0.0
 11
9082.971596683576
 21
9319.029213418707
 31
0.0
  0
LINE
  5
1631D
330
747D
100
AcDbEntity
  8
部品1
100
AcDbLine
 10
2520.471596683543
 20
9347.029213418549
 30
0.0
 11
10410.47159668358
 21
9347.029213418688
 31
0.0
  0
DIMENSION
  5
1631F
330
747D
100
AcDbEntity
  8
寸法
100
AcDbDimension
  2
*D11
 10
10355.47159668358
 20
9562.837433043689
 30
0.0
 11
9095.471596683578
 21
9662.849244067311
 31
0.0
 70
    32
  1
6X420=<>
 71
     5
 42
2520.000000000001
  3
INABA_S40G
100
AcDbAlignedDimension
 13
7835.471596683579
 23
9347.029213418592
 33
0.0
 14
10355.47159668358
 24
9347.029213418686
 34
0.0
100
AcDbRotatedDimension
1001
ACAD
1000
DSTYLE
1002
{
1002
}
  0
DIMENSION
  5
16320
330
747D
100
AcDbEntity
  8
寸法
100
AcDbDimension
  2
*D12
 10
2575.471596683579
 20
9562.837433043574
 30
0.0
 11
2211.986315309304
 21
9562.837433043574
 31
0.0
 70
   160
 71
     5
 42
55.00000000003637
  3
INABA_S40G
100
AcDbAlignedDimension
 13
2520.471596683543
 23
9347.029213418592
 33
0.0
 14
2575.471596683579
 24
9347.029213418592
 34
0.0
100
AcDbRotatedDimension
1001
ACAD
1000
DSTYLE
1002
{
1002
}
  0
LINE
  5
16321
330
747D
100
AcDbEntity
  8
部品1
100
AcDbLine
 10
2575.471596683543
 20
9347.029213418558
 30
0.0
 11
2575.471596683547
 21
9319.029213418557
 31
0.0
  0
LINE
  5
16322
330
747D
100
AcDbEntity
  8
部品1
100
AcDbLine
 10
2575.471596683579
 20
9347.029213418592
 30
0.0
 11
2575.471596683579
 21
9319.029213418591
 31
0.0
  0
LINE
  5
16323
330
747D
100
AcDbEntity
  8
部品1
100
AcDbLine
 10
2548.471596683547
 20
9292.029213418562
 30
0.0
 11
2520.471596683547
 21
9292.029213418562
 31
0.0
  0
LINE
  5
16324
330
747D
100
AcDbEntity
  8
部品1
100
AcDbLine
 10
8255.47159668358
 20
9347.029213418707
 30
0.0
 11
8255.47159668358
 21
9319.029213418707
 31
0.0
  0
LINE
  5
16325
330
747D
100
AcDbEntity
  8
部品1
100
AcDbLine
 10
8255.47159668358
 20
9347.029213418592
 30
0.0
 11
8255.47159668358
 21
9319.029213418591
 31
0.0
  0
LINE
  5
16326
330
747D
100
AcDbEntity
  8
部品1
100
AcDbLine
 10
8255.47159668358
 20
9347.029213418592
 30
0.0
 11
8255.47159668358
 21
9319.029213418591
 31
0.0
  0
LINE
  5
16327
330
747D
100
AcDbEntity
  8
部品1
100
AcDbLine
 10
9107.971596683579
 20
9319.029213418705
 30
0.0
 11
10382.47159668358
 21
9319.029213418685
 31
0.0
  0
LINE
  5
16329
330
747D
100
AcDbEntity
  8
部品1
100
AcDbLine
 10
8675.471596683578
 20
9347.029213418707
 30
0.0
 11
8675.471596683578
 21
9319.029213418707
 31
0.0
  0
LINE
  5
1632A
330
747D
100
AcDbEntity
  8
部品1
100
AcDbLine
 10
8675.471596683578
 20
9347.029213418592
 30
0.0
 11
8675.471596683578
 21
9319.029213418591
 31
0.0
  0
LINE
  5
1632B
330
747D
100
AcDbEntity
  8
部品1
100
AcDbLine
 10
8675.471596683578
 20
9347.029213418592
 30
0.0
 11
8675.471596683578
 21
9319.029213418591
 31
0.0
  0
LINE
  5
1632C
330
747D
100
AcDbEntity
  8
部品1
100
AcDbLine
 10
9095.471596683578
 20
9347.029213418707
 30
0.0
 11
9095.471596683578
 21
9319.029213418707
 31
0.0
  0
LINE
  5
1632D
330
747D
100
AcDbEntity
  8
部品1
100
AcDbLine
 10
9082.971596683579
 20
9311.02921341869
 30
0.0
 11
9107.971596683579
 21
9311.029213418693
 31
0.0
  0
LINE
  5
1632E
330
747D
100
AcDbEntity
  8
部品1
100
AcDbLine
 10
9124.47159668358
 20
9337.029213418693
 30
0.0
 11
9130.47159668358
 21
9337.029213418693
 31
0.0
  0
LINE
  5
1632F
330
747D
100
AcDbEntity
  8
部品1
100
AcDbLine
 10
9130.47159668358
 20
9337.029213418693
 30
0.0
 11
9130.47159668358
 21
9319.029213418692
 31
0.0
  0
LINE
  5
16330
330
747D
100
AcDbEntity
  8
部品1
100
AcDbLine
 10
9060.47159668358
 20
9337.029213418693
 30
0.0
 11
9066.47159668358
 21
9337.029213418693
 31
0.0
  0
LINE
  5
16331
330
747D
100
AcDbEntity
  8
部品1
100
AcDbLine
 10
9060.47159668358
 20
9337.029213418693
 30
0.0
 11
9060.47159668358
 21
9319.029213418692
 31
0.0
  0
LINE
  5
16332
330
747D
100
AcDbEntity
  8
部品1
100
AcDbLine
 10
9515.47159668358
 20
9347.029213418707
 30
0.0
 11
9515.47159668358
 21
9319.029213418707
 31
0.0
  0
DIMENSION
  5
16333
330
747D
100
AcDbEntity
  8
寸法
100
AcDbDimension
  2
*D13
 10
10410.47159668358
 20
9562.837433043672
 30
0.0
 11
10718.95687805781
 21
9562.837433043672
 31
0.0
 70
   160
 71
     5
 42
55.0
  3
INABA_S40G
100
AcDbAlignedDimension
 13
10355.47159668358
 23
9347.029213418686
 33
0.0
 14
10410.47159668358
 24
9347.029213418686
 34
0.0
100
AcDbRotatedDimension
1001
ACAD
1000
DSTYLE
1002
{
1002
}
  0
LINE
  5
16334
330
747D
100
AcDbEntity
  8
部品1
100
AcDbLine
 10
9935.471596683578
 20
9347.029213418707
 30
0.0
 11
9935.471596683578
 21
9319.029213418707
 31
0.0
  0
LINE
  5
16335
330
747D
100
AcDbEntity
  8
部品1
100
AcDbLine
 10
10355.47159668358
 20
9347.029213418686
 30
0.0
 11
10355.47159668358
 21
9319.029213418685
 31
0.0
  0
LINE
  5
16336
330
747D
100
AcDbEntity
  8
部品1
100
AcDbLine
 10
10355.47159668358
 20
9347.029213418707
 30
0.0
 11
10355.47159668358
 21
9319.029213418707
 31
0.0
  0
LINE
  5
16337
330
747D
100
AcDbEntity
  8
部品1
100
AcDbLine
 10
10382.47159668358
 20
9292.02921341869
 30
0.0
 11
10410.47159668358
 21
9292.02921341869
 31
0.0
  0
DIMENSION
  5
1659A
330
747D
100
AcDbEntity
  8
寸法
 48
50.0
100
AcDbDimension
  2
*D15
 10
7677.471596683554
 20
7022.598442652423
 30
0.0
 11
7566.508699034805
 21
7122.598442652424
 31
0.0
 70
   160
 71
     5
 42
48.00000000000181
  3
INABA_S40G
100
AcDbAlignedDimension
 13
7725.471596683556
 23
7557.029213418674
 33
0.0
 14
7677.471596683554
 24
7583.029213418588
 34
0.0
100
AcDbRotatedDimension
1001
ACAD
1000
DSTYLE
1002
{
1070
   279
1070
     2
1002
}
  0
DIMENSION
  5
1659C
330
747D
100
AcDbEntity
  8
寸法
 48
50.0
100
AcDbDimension
  2
*D14
 10
2575.471596683569
 20
7022.598442652423
 30
0.0
 11
2736.37356768363
 21
7122.598442652424
 31
0.0
 70
   160
 71
     5
 42
48.00000000000363
  3
INABA_S40G
100
AcDbAlignedDimension
 13
2623.471596683572
 23
7583.029213418587
 33
0.0
 14
2575.471596683569
 24
7557.029213418586
 34
0.0
100
AcDbRotatedDimension
1001
ACAD
1000
DSTYLE
1002
{
1070
   279
1070
     2
1002
}
  0
DIMENSION
  5
165E9
330
747D
100
AcDbEntity
  8
寸法
 48
50.0
100
AcDbDimension
  2
*D16
 10
7725.471596683556
 20
7022.598442652423
 30
0.0
 11
7780.471596683561
 21
6870.906547616193
 31
0.0
 70
   160
 71
     5
 42
110.0000000000127
  3
INABA_S40G
100
AcDbAlignedDimension
 13
7835.471596683568
 23
7557.029213418586
 33
0.0
 14
7725.471596683556
 24
7557.029213418674
 34
0.0
100
AcDbRotatedDimension
1001
ACAD
1000
DSTYLE
1002
{
1070
   279
1070
     2
1002
}
  0
LINE
  5
16656
330
747D
100
AcDbEntity
  8
部品1
100
AcDbLine
 10
7677.471596683554
 20
7622.029213418588
 30
0.0
 11
7725.471596683556
 21
7622.029213418587
 31
0.0
  0
LINE
  5
16657
330
747D
100
AcDbEntity
  8
部品1
 48
50.0
100
AcDbLine
 10
7677.471596683554
 20
7622.029213418588
 30
0.0
 11
7677.471596683554
 21
7613.029213418588
 31
0.0
  0
LINE
  5
16658
330
747D
100
AcDbEntity
  8
部品1
100
AcDbLine
 10
7677.471596683554
 20
7583.029213418588
 30
0.0
 11
7725.471596683553
 21
7583.029213418587
 31
0.0
  0
LINE
  5
16659
330
747D
100
AcDbEntity
  8
部品1
 48
50.0
100
AcDbLine
 10
7677.471596683554
 20
7583.029213418588
 30
0.0
 11
7677.471596683554
 21
7592.029213418587
 31
0.0
  0
LINE
  5
1665A
330
747D
100
AcDbEntity
  8
部品1
 48
50.0
100
AcDbLine
 10
7715.471596683554
 20
7583.029213418587
 30
0.0
 11
7725.471596683553
 21
7562.029213418587
 31
0.0
  0
LINE
  5
1665B
330
747D
100
AcDbEntity
  8
部品1
100
AcDbLine
 10
7725.471596683553
 20
7593.029213418585
 30
0.0
 11
7748.471596683554
 21
7593.029213418586
 31
0.0
  0
LINE
  5
1665C
330
747D
100
AcDbEntity
  8
部品1
100
AcDbLine
 10
7883.471596683572
 20
7622.029213418588
 30
0.0
 11
7835.471596683572
 21
7622.029213418587
 31
0.0
  0
LINE
  5
1665D
330
747D
100
AcDbEntity
  8
部品1
 48
50.0
100
AcDbLine
 10
7883.471596683572
 20
7622.029213418588
 30
0.0
 11
7883.471596683572
 21
7613.029213418588
 31
0.0
  0
LINE
  5
1665E
330
747D
100
AcDbEntity
  8
部品1
100
AcDbLine
 10
7883.471596683572
 20
7583.029213418588
 30
0.0
 11
7835.471596683572
 21
7583.029213418587
 31
0.0
  0
LINE
  5
1665F
330
747D
100
AcDbEntity
  8
部品1
 48
50.0
100
AcDbLine
 10
7845.471596683572
 20
7583.029213418587
 30
0.0
 11
7835.471596683572
 21
7562.029213418587
 31
0.0
  0
LINE
  5
16660
330
747D
100
AcDbEntity
  8
部品1
100
AcDbLine
 10
7835.471596683571
 20
7593.029213418586
 30
0.0
 11
7812.471596683572
 21
7593.029213418586
 31
0.0
  0
LINE
  5
16661
330
747D
100
AcDbEntity
  8
部品1
 48
50.0
100
AcDbLine
 10
7835.471596683572
 20
7622.029213418585
 30
0.0
 11
7835.471596683568
 21
7557.029213418586
 31
0.0
  0
LINE
  5
16662
330
747D
100
AcDbEntity
  8
部品1
 48
50.0
100
AcDbLine
 10
7883.471596683572
 20
7583.029213418588
 30
0.0
 11
7883.471596683572
 21
7592.029213418587
 31
0.0
  0
LINE
  5
16663
330
747D
100
AcDbEntity
  8
部品1
100
AcDbLine
 10
7835.471596683567
 20
7557.029213418586
 30
0.0
 11
7725.471596683558
 21
7557.02921341858
 31
0.0
  0
LINE
  5
16664
330
747D
100
AcDbEntity
  8
部品1
 48
50.0
100
AcDbLine
 10
7725.47159668356
 20
7622.029213418674
 30
0.0
 11
7725.471596683556
 21
7557.029213418674
 31
0.0
  0
LINE
  5
16688
330
747D
100
AcDbEntity
  8
部品1
100
AcDbLine
 10
5178.471596683564
 20
9319.029213418707
 30
0.0
 11
6452.971596683575
 21
9319.029213418707
 31
0.0
  0
LINE
  5
1668A
330
747D
100
AcDbEntity
  8
部品1
100
AcDbLine
 10
5625.471596683579
 20
9347.029213418707
 30
0.0
 11
5625.471596683579
 21
9319.029213418707
 31
0.0
  0
LINE
  5
1668B
330
747D
100
AcDbEntity
  8
部品1
100
AcDbLine
 10
5625.471596683579
 20
9347.029213418592
 30
0.0
 11
5625.471596683579
 21
9319.029213418591
 31
0.0
  0
LINE
  5
1668C
330
747D
100
AcDbEntity
  8
部品1
100
AcDbLine
 10
5625.471596683579
 20
9347.029213418592
 30
0.0
 11
5625.471596683579
 21
9319.029213418591
 31
0.0
  0
LINE
  5
1668D
330
747D
100
AcDbEntity
  8
部品1
100
AcDbLine
 10
6045.471596683579
 20
9347.029213418707
 30
0.0
 11
6045.471596683579
 21
9319.029213418707
 31
0.0
  0
LINE
  5
1668E
330
747D
100
AcDbEntity
  8
部品1
100
AcDbLine
 10
6045.471596683579
 20
9347.029213418592
 30
0.0
 11
6045.471596683579
 21
9319.029213418591
 31
0.0
  0
LINE
  5
1668F
330
747D
100
AcDbEntity
  8
部品1
100
AcDbLine
 10
6045.471596683579
 20
9347.029213418592
 30
0.0
 11
6045.471596683579
 21
9319.029213418591
 31
0.0
  0
LINE
  5
16690
330
747D
100
AcDbEntity
  8
部品1
100
AcDbLine
 10
6885.471596683579
 20
9347.029213418707
 30
0.0
 11
6885.471596683579
 21
9319.029213418707
 31
0.0
  0
LINE
  5
16691
330
747D
100
AcDbEntity
  8
部品1
100
AcDbLine
 10
7305.471596683577
 20
9347.029213418707
 30
0.0
 11
7305.471596683577
 21
9319.029213418707
 31
0.0
  0
DIMENSION
  5
166DD
330
747D
100
AcDbEntity
  8
寸法
 48
50.0
100
AcDbDimension
  2
*D17
 10
7725.471596683579
 20
9562.837433043689
 30
0.0
 11
7780.47159668358
 21
9662.837433043691
 31
0.0
 70
    32
 71
     5
 42
109.9999999999991
  3
INABA_S40G
100
AcDbAlignedDimension
 13
7835.471596683579
 23
9347.029213418641
 33
0.0
 14
7725.471596683579
 24
9347.029213418636
 34
0.0
100
AcDbRotatedDimension
1001
ACAD
1000
DSTYLE
1002
{
1070
   279
1070
     2
1002
}
  0
LINE
  5
168C3
330
747D
100
AcDbEntity
  8
部品1
100
AcDbLine
 10
7804.471596683562
 20
7612.029213418583
 30
0.0
 11
7756.471596683562
 21
7612.029213418582
 31
0.0
  0
LINE
  5
168C4
330
747D
100
AcDbEntity
  8
部品1
 48
50.0
100
AcDbLine
 10
7756.471596683564
 20
7612.029213418584
 30
0.0
 11
7756.471596683566
 21
7557.029213418584
 31
0.0
  0
LINE
  5
168C5
330
747D
100
AcDbEntity
  8
部品1
 48
50.0
100
AcDbLine
 10
7804.471596683562
 20
7612.029213418584
 30
0.0
 11
7804.471596683566
 21
7557.029213418584
 31
0.0
  0
DIMENSION
  5
16913
330
747D
100
AcDbEntity
  8
寸法
 48
50.0
100
AcDbDimension
  2
*D18
 10
10410.47159668358
 20
9812.158906599984
 30
0.0
 11
9095.471596683578
 21
9912.170717623606
 31
0.0
 70
    32
 71
     5
 42
2630.0
  3
INABA_S40G
100
AcDbAlignedDimension
 13
7780.47159668358
 23
9721.825347401635
 33
0.0
 14
10410.47159668358
 24
9347.029213418686
 34
0.0
100
AcDbRotatedDimension
1001
ACAD
1000
DSTYLE
1002
{
1070
    75
1070
     0
1070
   279
1070
     2
1002
}
  0
LINE
  5
1697F
330
747D
100
AcDbEntity
  8
部品1
 48
50.0
100
AcDbLine
 10
9082.971596683576
 20
9319.029213418707
 30
0.0
 11
9082.971596683579
 21
9311.02921341869
 31
0.0
  0
LINE
  5
16980
330
747D
100
AcDbEntity
  8
部品1
 48
50.0
100
AcDbLine
 10
9107.971596683579
 20
9319.029213418705
 30
0.0
 11
9107.971596683579
 21
9311.029213418693
 31
0.0
  0
LINE
  5
16990
330
747D
100
AcDbEntity
  8
部品1
 48
50.0
100
AcDbLine
 10
7695.471596683629
 20
9319.029213418588
 30
0.0
 11
7695.471596683629
 21
9267.029213418487
 31
0.0
  0
LINE
  5
16992
330
747D
100
AcDbEntity
  8
部品1
 48
50.0
100
AcDbLine
 10
7752.471596683597
 20
9292.029213418556
 30
0.0
 11
7752.471596683597
 21
9319.029213418582
 31
0.0
  0
LINE
  5
16993
330
747D
100
AcDbEntity
  8
部品1
 48
50.0
100
AcDbLine
 10
7808.471596683597
 20
9292.029213418556
 30
0.0
 11
7808.471596683663
 21
9347.029213418588
 31
0.0
  0
LINE
  5
16994
330
747D
100
AcDbEntity
  8
部品1
 48
50.0
100
AcDbLine
 10
7752.471596683597
 20
9319.029213418582
 30
0.0
 11
7780.471596683596
 21
9319.029213418584
 31
0.0
  0
LINE
  5
16995
330
747D
100
AcDbEntity
  8
部品1
 48
50.0
100
AcDbLine
 10
7752.471596683597
 20
9319.029213418687
 30
0.0
 11
7752.471596683595
 21
9347.029213418636
 31
0.0
  0
LINE
  5
16996
330
747D
100
AcDbEntity
  8
部品1
 48
50.0
100
AcDbLine
 10
7780.471596683596
 20
9319.029213418582
 30
0.0
 11
7752.471596683597
 21
9347.029213418636
 31
0.0
  0
LINE
  5
16997
330
747D
100
AcDbEntity
  8
部品1
100
AcDbLine
 10
7725.47159668363
 20
9347.029213418634
 30
0.0
 11
7725.47159668363
 21
9319.029213418636
 31
0.0
  0
LINE
  5
16998
330
747D
100
AcDbEntity
  8
部品1
100
AcDbLine
 10
7835.471596683628
 20
9347.02921341854
 30
0.0
 11
7835.471596683628
 21
9319.02921341854
 31
0.0
  0
LINE
  5
1699A
330
747D
100
AcDbEntity
  8
部品1
 48
50.0
100
AcDbLine
 10
7865.47159668363
 20
9319.029213418492
 30
0.0
 11
7865.471596683629
 21
9267.029213418487
 31
0.0
  0
LINE
  5
1699C
330
747D
100
AcDbEntity
  8
部品1
 48
50.0
100
AcDbLine
 10
2548.471596683565
 20
9319.029213418593
 30
0.0
 11
2575.47159668355
 21
9292.029213418556
 31
0.0
  0
LINE
  5
1699D
330
747D
100
AcDbEntity
  8
部品1
 48
50.0
100
AcDbLine
 10
10382.47159668356
 20
9319.029213418685
 30
0.0
 11
10355.47159668357
 21
9292.029213418556
 31
0.0
  0
TEXT
  5
169CA
330
747D
100
AcDbEntity
  8
文字
 62
     7
 48
50.0
100
AcDbText
 10
13211.05585974055
 20
67.37496683428545
 30
0.0
 40
100.0
  1
○床面積 ： Ｎ［連続数］×4.71㎡(1.43坪)
  7
STYLE2
100
AcDbText
  0
DIMENSION
  5
16A40
330
747D
100
AcDbEntity
  8
寸法
 48
50.0
100
AcDbDimension
  2
*D25
 10
5150.47159668358
 20
9812.158906599984
 30
0.0
 11
3835.471596683561
 21
9912.170717623606
 31
0.0
 70
    32
 71
     5
 42
2630.000000000036
  3
INABA_S40G
100
AcDbAlignedDimension
 13
2520.471596683543
 23
9347.029213418558
 33
0.0
 14
5150.47159668358
 24
9721.825347401635
 34
0.0
100
AcDbRotatedDimension
1001
ACAD
1000
DSTYLE
1002
{
1070
   279
1070
     2
1002
}
  0
LINE
  5
16A41
330
747D
100
AcDbEntity
  8
部品1
100
AcDbLine
 10
3847.971596683579
 20
9319.029213418705
 30
0.0
 11
5122.471596683579
 21
9319.029213418685
 31
0.0
  0
DIMENSION
  5
16A42
330
747D
100
AcDbEntity
  8
寸法
100
AcDbDimension
  2
*D23
 10
5095.471596683579
 20
9562.837433043689
 30
0.0
 11
3835.471596683579
 21
9662.849244067311
 31
0.0
 70
    32
  1
6X420=<>
 71
     5
 42
2520.0
  3
INABA_S40G
100
AcDbAlignedDimension
 13
2575.471596683579
 23
9347.029213418592
 33
0.0
 14
5095.471596683579
 24
9347.029213418686
 34
0.0
100
AcDbRotatedDimension
1001
ACAD
1000
DSTYLE
1002
{
1002
}
  0
LINE
  5
16A43
330
747D
100
AcDbEntity
  8
部品1
 48
50.0
100
AcDbLine
 10
2587.471596683572
 20
7602.529213418586
 30
0.0
 11
5083.471596683556
 21
7602.529213418586
 31
0.0
  0
DIMENSION
  5
16A44
330
747D
100
AcDbEntity
  8
寸法
 48
50.0
100
AcDbDimension
  2
*D21
 10
2623.471596683572
 20
7022.598442652423
 30
0.0
 11
3835.471596683563
 21
7122.610253676045
 31
0.0
 70
    32
  1
有効開口部間口 <>
 71
     5
 42
2423.999999999982
  3
INABA_S40G
100
AcDbAlignedDimension
 13
5047.471596683553
 23
7583.029213418588
 33
0.0
 14
2623.471596683572
 24
7583.029213418587
 34
0.0
100
AcDbRotatedDimension
1001
ACAD
1000
DSTYLE
1002
{
1070
    75
1070
     1
1070
   279
1070
     2
1002
}
  0
DIMENSION
  5
16A45
330
747D
100
AcDbEntity
  8
寸法
 48
50.0
100
AcDbDimension
  2
*D20
 10
5047.471596683553
 20
7022.598442652423
 30
0.0
 11
4936.508699034806
 21
7122.598442652424
 31
0.0
 70
   160
 71
     5
 42
48.00000000000181
  3
INABA_S40G
100
AcDbAlignedDimension
 13
5095.471596683555
 23
7557.029213418674
 33
0.0
 14
5047.471596683553
 24
7583.029213418588
 34
0.0
100
AcDbRotatedDimension
1001
ACAD
1000
DSTYLE
1002
{
1070
   279
1070
     2
1002
}
  0
LINE
  5
16A46
330
747D
100
AcDbEntity
  8
部品1
100
AcDbLine
 10
2548.471596683565
 20
9319.029213418707
 30
0.0
 11
3822.971596683576
 21
9319.029213418707
 31
0.0
  0
LINE
  5
16A47
330
747D
100
AcDbEntity
  8
部品1
100
AcDbLine
 10
2995.471596683579
 20
9347.029213418592
 30
0.0
 11
2995.471596683579
 21
9319.029213418591
 31
0.0
  0
LINE
  5
16A48
330
747D
100
AcDbEntity
  8
部品1
100
AcDbLine
 10
2995.471596683579
 20
9347.029213418592
 30
0.0
 11
2995.471596683579
 21
9319.029213418591
 31
0.0
  0
LINE
  5
16A49
330
747D
100
AcDbEntity
  8
部品1
100
AcDbLine
 10
2995.471596683579
 20
9347.029213418707
 30
0.0
 11
2995.471596683579
 21
9319.029213418707
 31
0.0
  0
LINE
  5
16A4A
330
747D
100
AcDbEntity
  8
部品1
100
AcDbLine
 10
3415.47159668358
 20
9347.029213418592
 30
0.0
 11
3415.47159668358
 21
9319.029213418591
 31
0.0
  0
LINE
  5
16A4B
330
747D
100
AcDbEntity
  8
部品1
100
AcDbLine
 10
3415.47159668358
 20
9347.029213418592
 30
0.0
 11
3415.47159668358
 21
9319.029213418591
 31
0.0
  0
LINE
  5
16A4C
330
747D
100
AcDbEntity
  8
部品1
100
AcDbLine
 10
3415.47159668358
 20
9347.029213418707
 30
0.0
 11
3415.47159668358
 21
9319.029213418707
 31
0.0
  0
LINE
  5
16A4D
330
747D
100
AcDbEntity
  8
部品1
 48
50.0
100
AcDbLine
 10
3847.971596683579
 20
9319.029213418705
 30
0.0
 11
3847.971596683579
 21
9311.029213418693
 31
0.0
  0
LINE
  5
16A4E
330
747D
100
AcDbEntity
  8
部品1
 48
50.0
100
AcDbLine
 10
3822.971596683576
 20
9319.029213418707
 30
0.0
 11
3822.971596683578
 21
9311.02921341869
 31
0.0
  0
LINE
  5
16A4F
330
747D
100
AcDbEntity
  8
部品1
100
AcDbLine
 10
3800.47159668358
 20
9337.029213418693
 30
0.0
 11
3800.47159668358
 21
9319.029213418692
 31
0.0
  0
LINE
  5
16A50
330
747D
100
AcDbEntity
  8
部品1
100
AcDbLine
 10
3800.47159668358
 20
9337.029213418693
 30
0.0
 11
3806.471596683579
 21
9337.029213418693
 31
0.0
  0
LINE
  5
16A51
330
747D
100
AcDbEntity
  8
部品1
100
AcDbLine
 10
3870.471596683579
 20
9337.029213418693
 30
0.0
 11
3870.471596683579
 21
9319.029213418692
 31
0.0
  0
LINE
  5
16A52
330
747D
100
AcDbEntity
  8
部品1
100
AcDbLine
 10
3864.47159668358
 20
9337.029213418693
 30
0.0
 11
3870.471596683579
 21
9337.029213418693
 31
0.0
  0
LINE
  5
16A53
330
747D
100
AcDbEntity
  8
部品1
100
AcDbLine
 10
3822.971596683579
 20
9311.02921341869
 30
0.0
 11
3847.971596683579
 21
9311.029213418693
 31
0.0
  0
LINE
  5
16A54
330
747D
100
AcDbEntity
  8
部品1
100
AcDbLine
 10
3835.471596683579
 20
9347.029213418707
 30
0.0
 11
3835.471596683579
 21
9319.029213418707
 31
0.0
  0
LINE
  5
16A55
330
747D
100
AcDbEntity
  8
部品1
100
AcDbLine
 10
4255.471596683579
 20
9347.029213418707
 30
0.0
 11
4255.471596683579
 21
9319.029213418707
 31
0.0
  0
LINE
  5
16A56
330
747D
100
AcDbEntity
  8
部品1
100
AcDbLine
 10
4675.471596683578
 20
9347.029213418707
 30
0.0
 11
4675.471596683578
 21
9319.029213418707
 31
0.0
  0
DIMENSION
  5
16A57
330
747D
100
AcDbEntity
  8
寸法
 48
50.0
100
AcDbDimension
  2
*D22
 10
5095.471596683555
 20
7022.598442652423
 30
0.0
 11
5150.471596683561
 21
6870.906547616193
 31
0.0
 70
   160
 71
     5
 42
110.0000000000127
  3
INABA_S40G
100
AcDbAlignedDimension
 13
5205.471596683569
 23
7557.029213418586
 33
0.0
 14
5095.471596683555
 24
7557.029213418674
 34
0.0
100
AcDbRotatedDimension
1001
ACAD
1000
DSTYLE
1002
{
1070
   279
1070
     2
1002
}
  0
DIMENSION
  5
16A58
330
747D
100
AcDbEntity
  8
寸法
 48
50.0
100
AcDbDimension
  2
*D19
 10
5205.471596683569
 20
7022.598442652423
 30
0.0
 11
5366.37356768363
 21
7122.598442652424
 31
0.0
 70
   160
 71
     5
 42
48.00000000000363
  3
INABA_S40G
100
AcDbAlignedDimension
 13
5253.471596683572
 23
7583.029213418587
 33
0.0
 14
5205.471596683569
 24
7557.029213418586
 34
0.0
100
AcDbRotatedDimension
1001
ACAD
1000
DSTYLE
1002
{
1070
   279
1070
     2
1002
}
  0
LINE
  5
16A59
330
747D
100
AcDbEntity
  8
部品1
100
AcDbLine
 10
5205.471596683569
 20
7557.029213418586
 30
0.0
 11
5095.471596683558
 21
7557.02921341858
 31
0.0
  0
LINE
  5
16A5A
330
747D
100
AcDbEntity
  8
部品1
100
AcDbLine
 10
5205.471596683572
 20
7593.029213418586
 30
0.0
 11
5182.471596683572
 21
7593.029213418586
 31
0.0
  0
LINE
  5
16A5B
330
747D
100
AcDbEntity
  8
部品1
 48
50.0
100
AcDbLine
 10
5174.471596683563
 20
7612.029213418584
 30
0.0
 11
5174.471596683565
 21
7557.029213418584
 31
0.0
  0
LINE
  5
16A5C
330
747D
100
AcDbEntity
  8
部品1
 48
50.0
100
AcDbLine
 10
5126.471596683563
 20
7612.029213418584
 30
0.0
 11
5126.471596683565
 21
7557.029213418584
 31
0.0
  0
LINE
  5
16A5D
330
747D
100
AcDbEntity
  8
部品1
100
AcDbLine
 10
5174.471596683563
 20
7612.029213418583
 30
0.0
 11
5126.471596683561
 21
7612.029213418582
 31
0.0
  0
LINE
  5
16A5E
330
747D
100
AcDbEntity
  8
部品1
 48
50.0
100
AcDbLine
 10
5095.471596683561
 20
7622.029213418674
 30
0.0
 11
5095.471596683558
 21
7557.029213418674
 31
0.0
  0
LINE
  5
16A5F
330
747D
100
AcDbEntity
  8
部品1
100
AcDbLine
 10
5095.471596683553
 20
7593.029213418585
 30
0.0
 11
5118.471596683554
 21
7593.029213418586
 31
0.0
  0
LINE
  5
16A60
330
747D
100
AcDbEntity
  8
部品1
 48
50.0
100
AcDbLine
 10
5085.471596683554
 20
7583.029213418587
 30
0.0
 11
5095.471596683553
 21
7562.029213418587
 31
0.0
  0
LINE
  5
16A61
330
747D
100
AcDbEntity
  8
部品1
 48
50.0
100
AcDbLine
 10
5047.471596683553
 20
7583.029213418588
 30
0.0
 11
5047.471596683553
 21
7592.029213418587
 31
0.0
  0
LINE
  5
16A62
330
747D
100
AcDbEntity
  8
部品1
100
AcDbLine
 10
5047.471596683553
 20
7583.029213418588
 30
0.0
 11
5095.471596683553
 21
7583.029213418587
 31
0.0
  0
LINE
  5
16A63
330
747D
100
AcDbEntity
  8
部品1
 48
50.0
100
AcDbLine
 10
5047.471596683553
 20
7622.029213418588
 30
0.0
 11
5047.471596683553
 21
7613.029213418588
 31
0.0
  0
LINE
  5
16A64
330
747D
100
AcDbEntity
  8
部品1
100
AcDbLine
 10
5047.471596683553
 20
7622.029213418588
 30
0.0
 11
5095.471596683555
 21
7622.029213418587
 31
0.0
  0
LINE
  5
16A65
330
747D
100
AcDbEntity
  8
部品1
 48
50.0
100
AcDbLine
 10
5253.471596683572
 20
7583.029213418588
 30
0.0
 11
5253.471596683572
 21
7592.029213418587
 31
0.0
  0
LINE
  5
16A66
330
747D
100
AcDbEntity
  8
部品1
 48
50.0
100
AcDbLine
 10
5205.471596683572
 20
7622.029213418585
 30
0.0
 11
5205.471596683569
 21
7557.029213418586
 31
0.0
  0
LINE
  5
16A67
330
747D
100
AcDbEntity
  8
部品1
 48
50.0
100
AcDbLine
 10
5215.471596683572
 20
7583.029213418587
 30
0.0
 11
5205.471596683572
 21
7562.029213418587
 31
0.0
  0
LINE
  5
16A68
330
747D
100
AcDbEntity
  8
部品1
100
AcDbLine
 10
5253.471596683572
 20
7583.029213418588
 30
0.0
 11
5205.471596683572
 21
7583.029213418587
 31
0.0
  0
LINE
  5
16A69
330
747D
100
AcDbEntity
  8
部品1
 48
50.0
100
AcDbLine
 10
5253.471596683572
 20
7622.029213418588
 30
0.0
 11
5253.471596683572
 21
7613.029213418588
 31
0.0
  0
LINE
  5
16A6A
330
747D
100
AcDbEntity
  8
部品1
100
AcDbLine
 10
5253.471596683572
 20
7622.029213418588
 30
0.0
 11
5205.471596683572
 21
7622.029213418587
 31
0.0
  0
DIMENSION
  5
16A6B
330
747D
100
AcDbEntity
  8
寸法
 48
50.0
100
AcDbDimension
  2
*D24
 10
5095.471596683579
 20
9562.837433043689
 30
0.0
 11
5150.47159668358
 21
9662.837433043691
 31
0.0
 70
    32
 71
     5
 42
110.0
  3
INABA_S40G
100
AcDbAlignedDimension
 13
5205.47159668358
 23
9347.029213418641
 33
0.0
 14
5095.471596683579
 24
9347.029213418636
 34
0.0
100
AcDbRotatedDimension
1001
ACAD
1000
DSTYLE
1002
{
1070
   279
1070
     2
1002
}
  0
LINE
  5
16A6C
330
747D
100
AcDbEntity
  8
部品1
100
AcDbLine
 10
5095.47159668363
 20
9347.029213418634
 30
0.0
 11
5095.47159668363
 21
9319.029213418636
 31
0.0
  0
LINE
  5
16A6D
330
747D
100
AcDbEntity
  8
部品1
 48
50.0
100
AcDbLine
 10
5150.471596683596
 20
9319.029213418582
 30
0.0
 11
5122.471596683597
 21
9347.029213418636
 31
0.0
  0
LINE
  5
16A6E
330
747D
100
AcDbEntity
  8
部品1
 48
50.0
100
AcDbLine
 10
5122.471596683597
 20
9319.029213418687
 30
0.0
 11
5122.471596683595
 21
9347.029213418636
 31
0.0
  0
LINE
  5
16A6F
330
747D
100
AcDbEntity
  8
部品1
 48
50.0
100
AcDbLine
 10
5122.471596683597
 20
9319.029213418582
 30
0.0
 11
5150.471596683596
 21
9319.029213418584
 31
0.0
  0
LINE
  5
16A70
330
747D
100
AcDbEntity
  8
部品1
 48
50.0
100
AcDbLine
 10
5178.471596683597
 20
9292.029213418556
 30
0.0
 11
5178.471596683663
 21
9347.029213418588
 31
0.0
  0
LINE
  5
16A71
330
747D
100
AcDbEntity
  8
部品1
 48
50.0
100
AcDbLine
 10
5122.471596683597
 20
9292.029213418556
 30
0.0
 11
5122.471596683597
 21
9319.029213418582
 31
0.0
  0
LINE
  5
16A73
330
747D
100
AcDbEntity
  8
部品1
 48
50.0
100
AcDbLine
 10
5065.471596683631
 20
9319.029213418588
 30
0.0
 11
5065.471596683631
 21
9267.029213418487
 31
0.0
  0
LINE
  5
16A74
330
747D
100
AcDbEntity
  8
部品1
 48
50.0
100
AcDbLine
 10
5235.47159668363
 20
9319.029213418492
 30
0.0
 11
5235.47159668363
 21
9267.029213418487
 31
0.0
  0
LINE
  5
16A75
330
747D
100
AcDbEntity
  8
部品1
100
AcDbLine
 10
5205.471596683628
 20
9347.02921341854
 30
0.0
 11
5205.471596683628
 21
9319.02921341854
 31
0.0
  0
LINE
  5
16B10
330
747D
100
AcDbEntity
  8
寸法
 48
50.0
100
AcDbLine
 10
5205.471596683577
 20
9562.837433043689
 30
0.0
 11
6045.471596683578
 21
9562.837433043689
 31
0.0
  0
LINE
  5
16B11
330
747D
100
AcDbEntity
  8
寸法
 48
50.0
100
AcDbLine
 10
5150.47159668358
 20
9812.158906599984
 30
0.0
 11
6038.471596683579
 21
9812.158906599984
 31
0.0
  0
TEXT
  5
16B12
330
747D
100
AcDbEntity
  8
文字
 48
50.0
100
AcDbText
 10
5677.652769900529
 20
9602.490261090366
 30
0.0
 40
120.0
  1
2520
  7
STYLE1
100
AcDbText
  0
TEXT
  5
16B13
330
747D
100
AcDbEntity
  8
文字
 48
50.0
100
AcDbText
 10
5670.652769900531
 20
9851.811734646661
 30
0.0
 40
120.0
  1
2630
  7
STYLE1
100
AcDbText
  0
LINE
  5
16B14
330
747D
100
AcDbEntity
  8
寸法
 48
50.0
100
AcDbLine
 10
6885.471596683579
 20
9562.837433043689
 30
0.0
 11
7725.471596683579
 21
9562.837433043689
 31
0.0
  0
LINE
  5
16B15
330
747D
100
AcDbEntity
  8
寸法
 48
50.0
100
AcDbLine
 10
6892.471596683579
 20
9812.158906599984
 30
0.0
 11
7780.47159668358
 21
9812.158906599984
 31
0.0
  0
TEXT
  5
16B16
330
747D
100
AcDbEntity
  8
文字
 48
50.0
100
AcDbText
 10
6915.821158027068
 20
9602.490261090366
 30
0.0
 40
120.0
  1
2520
  7
STYLE1
100
AcDbText
  0
TEXT
  5
16B17
330
747D
100
AcDbEntity
  8
文字
 48
50.0
100
AcDbText
 10
6922.821158027069
 20
9851.811734646661
 30
0.0
 40
120.0
  1
2630
  7
STYLE1
100
AcDbText
  0
LINE
  5
16B18
330
747D
100
AcDbEntity
  8
寸法
 48
50.0
100
AcDbLine
 10
5253.471596683572
 20
7022.598442652423
 30
0.0
 11
6243.471596683572
 21
7022.598442652423
 31
0.0
  0
TEXT
  5
16B19
330
747D
100
AcDbEntity
  8
文字
 48
50.0
100
AcDbText
 10
5875.652769900524
 20
7062.2512706991
 30
0.0
 40
120.0
  1
2424
  7
STYLE1
100
AcDbText
  0
LINE
  5
16B1A
330
747D
100
AcDbEntity
  8
寸法
 48
50.0
100
AcDbLine
 10
6687.471596683554
 20
7022.598442652423
 30
0.0
 11
7677.471596683554
 21
7022.598442652423
 31
0.0
  0
TEXT
  5
16B1B
330
747D
100
AcDbEntity
  8
文字
 48
50.0
100
AcDbText
 10
6717.821158027044
 20
7062.2512706991
 30
0.0
 40
120.0
  1
2424
  7
STYLE1
100
AcDbText
  0
LINE
  5
16B2C
330
747D
100
AcDbEntity
  8
部品1
100
AcDbLine
 10
6477.97159668358
 20
9319.0292134187
 30
0.0
 11
7752.47159668358
 21
9319.029213418685
 31
0.0
  0
LINE
  5
16B2D
330
747D
100
AcDbEntity
  8
部品1
100
AcDbLine
 10
10355.47159668357
 20
9292.029213418558
 30
0.0
 11
2575.47159668355
 21
9292.029213418521
 31
0.0
  0
LINE
  5
16B2E
330
747D
100
AcDbEntity
  8
部品1
100
AcDbLine
 10
10330.47159668358
 20
9267.029213418487
 30
0.0
 11
2600.47159668355
 21
9267.029213418451
 31
0.0
  0
TEXT
  5
16DFC
330
747D
100
AcDbEntity
  8
文字
 62
     7
 48
50.0
100
AcDbText
 10
15022.63965474516
 20
9910.01374588373
 30
0.0
 40
100.0
  1
F12,Y10        1.0
  7
STYLE1
100
AcDbText
  0
TEXT
  5
16DFD
330
747D
100
AcDbEntity
  8
文字
 62
     7
 48
50.0
100
AcDbText
 10
13583.11819016569
 20
9910.01374588373
 30
0.0
 40
100.0
  1
梁中
  7
STYLE1
100
AcDbText
  0
LINE
  5
16DFE
330
747D
100
AcDbEntity
  8
仕様書枠
 48
50.0
100
AcDbLine
 10
16307.19999999999
 20
9879.600000000001
 30
0.0
 11
13127.19999999999
 21
9879.600000000003
 31
0.0
  0
LINE
  5
16DFF
330
747D
100
AcDbEntity
  8
仕様書枠
 48
50.0
100
AcDbLine
 10
16307.19999999999
 20
11239.6
 30
0.0
 11
13127.2
 21
11239.6
 31
0.0
  0
LINE
  5
16E00
330
747D
100
AcDbEntity
  8
仕様書枠
 48
50.0
100
AcDbLine
 10
16307.19999999999
 20
8349.600000000004
 30
0.0
 11
16307.2
 21
11239.6
 31
0.0
  0
LINE
  5
16E01
330
747D
100
AcDbEntity
  8
仕様書枠
 48
50.0
100
AcDbLine
 10
14785.2
 20
11239.6
 30
0.0
 11
14785.2
 21
8859.600000000005
 31
0.0
  0
LINE
  5
16E02
330
747D
100
AcDbEntity
  8
仕様書枠
 48
50.0
100
AcDbLine
 10
13490.2
 20
11239.6
 30
0.0
 11
13490.20000000001
 21
8859.600000000005
 31
0.0
  0
LINE
  5
16E03
330
747D
100
AcDbEntity
  8
仕様書枠
 48
50.0
100
AcDbLine
 10
16307.19999999999
 20
11069.6
 30
0.0
 11
13127.2
 21
11069.6
 31
0.0
  0
LINE
  5
16E04
330
747D
100
AcDbEntity
  8
仕様書枠
 48
50.0
100
AcDbLine
 10
16307.19999999999
 20
10729.6
 30
0.0
 11
13127.2
 21
10729.6
 31
0.0
  0
LINE
  5
16E05
330
747D
100
AcDbEntity
  8
仕様書枠
 48
50.0
100
AcDbLine
 10
16307.19999999999
 20
10899.6
 30
0.0
 11
13127.2
 21
10899.6
 31
0.0
  0
LINE
  5
16E06
330
747D
100
AcDbEntity
  8
仕様書枠
 48
50.0
100
AcDbLine
 10
16307.19999999999
 20
10389.6
 30
0.0
 11
13127.19999999999
 21
10389.6
 31
0.0
  0
LINE
  5
16E07
330
747D
100
AcDbEntity
  8
仕様書枠
 48
50.0
100
AcDbLine
 10
16307.19999999999
 20
10219.6
 30
0.0
 11
13127.19999999999
 21
10219.6
 31
0.0
  0
LINE
  5
16E08
330
747D
100
AcDbEntity
  8
仕様書枠
 48
50.0
100
AcDbLine
 10
16307.19999999999
 20
10559.6
 30
0.0
 11
13127.19999999999
 21
10559.6
 31
0.0
  0
TEXT
  5
16E09
330
747D
100
AcDbEntity
  8
文字
 62
     7
 48
50.0
100
AcDbText
 10
13197.42518560407
 20
11100.01374588373
 30
0.0
 40
100.0
  1
品番
  7
STYLE1
100
AcDbText
  0
TEXT
  5
16E0A
330
747D
100
AcDbEntity
  8
文字
 62
     7
 48
50.0
100
AcDbText
 10
13271.19032244792
 20
10930.01374588373
 30
0.0
 40
100.0
  1
1
  7
STYLE1
100
AcDbText
  0
TEXT
  5
16E0B
330
747D
100
AcDbEntity
  8
文字
 62
     7
 48
50.0
100
AcDbText
 10
13271.19032244792
 20
10760.01374588373
 30
0.0
 40
100.0
  1
2
  7
STYLE1
100
AcDbText
  0
TEXT
  5
16E0C
330
747D
100
AcDbEntity
  8
文字
 62
     7
 48
50.0
100
AcDbText
 10
13271.19032244792
 20
10420.01374588373
 30
0.0
 40
100.0
  1
4
  7
STYLE1
100
AcDbText
  0
TEXT
  5
16E0D
330
747D
100
AcDbEntity
  8
文字
 62
     7
 48
50.0
100
AcDbText
 10
13271.19032244792
 20
10590.01374588373
 30
0.0
 40
100.0
  1
3
  7
STYLE1
100
AcDbText
  0
TEXT
  5
16E0E
330
747D
100
AcDbEntity
  8
文字
 62
     7
 48
50.0
100
AcDbText
 10
13732.03840939434
 20
11100.01374588373
 30
0.0
 40
100.0
  1
部　　品　　名
  7
STYLE1
100
AcDbText
  0
TEXT
  5
16E0F
330
747D
100
AcDbEntity
  8
文字
 62
     7
 48
50.0
100
AcDbText
 10
14859.79774614482
 20
11100.01374588373
 30
0.0
 40
100.0
  1
材料（材質）　　単位mm
  7
STYLE1
100
AcDbText
  0
TEXT
  5
16E10
330
747D
100
AcDbEntity
  8
文字
 62
     7
 48
50.0
100
AcDbText
 10
13583.11819016569
 20
10930.01374588373
 30
0.0
 40
100.0
  1
土台枠
  7
STYLE1
100
AcDbText
  0
TEXT
  5
16E11
330
747D
100
AcDbEntity
  8
文字
 62
     7
 48
50.0
100
AcDbText
 10
13583.11819016569
 20
10760.01374588373
 30
0.0
 40
100.0
  1
柱
  7
STYLE1
100
AcDbText
  0
TEXT
  5
16E12
330
747D
100
AcDbEntity
  8
文字
 62
     7
 48
50.0
100
AcDbText
 10
13583.11819016569
 20
10590.01374588373
 30
0.0
 40
100.0
  1
桁前
  7
STYLE1
100
AcDbText
  0
TEXT
  5
16E13
330
747D
100
AcDbEntity
  8
文字
 62
     7
 48
50.0
100
AcDbText
 10
13583.11819016569
 20
10420.01374588373
 30
0.0
 40
100.0
  1
桁後
  7
STYLE1
100
AcDbText
  0
TEXT
  5
16E14
330
747D
100
AcDbEntity
  8
文字
 62
     7
 48
50.0
100
AcDbText
 10
13271.19032244792
 20
10250.01374588373
 30
0.0
 40
100.0
  1
5
  7
STYLE1
100
AcDbText
  0
TEXT
  5
16E15
330
747D
100
AcDbEntity
  8
文字
 62
     7
 48
50.0
100
AcDbText
 10
13583.11819016569
 20
10250.01374588373
 30
0.0
 40
100.0
  1
妻板左右
  7
STYLE1
100
AcDbText
  0
TEXT
  5
16E16
330
747D
100
AcDbEntity
  8
文字
 62
     7
 48
50.0
100
AcDbText
 10
13583.11819016569
 20
8890.013745883729
 30
0.0
 40
100.0
  1
シャッターレール
  7
STYLE1
100
AcDbText
  0
TEXT
  5
16E17
330
747D
100
AcDbEntity
  8
文字
 62
     7
 48
50.0
100
AcDbText
 10
13248.77747366448
 20
9400.013745883729
 30
0.0
 40
100.0
  1
10
  7
STYLE1
100
AcDbText
  0
TEXT
  5
16E18
330
747D
100
AcDbEntity
  8
文字
 62
     7
 48
50.0
100
AcDbText
 10
13583.11819016569
 20
9400.013745883731
 30
0.0
 40
100.0
  1
壁パネル
  7
STYLE1
100
AcDbText
  0
TEXT
  5
16E19
330
747D
100
AcDbEntity
  8
文字
 62
     7
 48
50.0
100
AcDbText
 10
13583.11819016569
 20
9570.013745883729
 30
0.0
 40
100.0
  1
屋根パネル
  7
STYLE1
100
AcDbText
  0
TEXT
  5
16E1A
330
747D
100
AcDbEntity
  8
文字
 62
     7
 48
50.0
100
AcDbText
 10
13583.11819016569
 20
9740.013745883729
 30
0.0
 40
100.0
  1
母屋中
  7
STYLE1
100
AcDbText
  0
TEXT
  5
16E1B
330
747D
100
AcDbEntity
  8
文字
 62
     7
 48
50.0
100
AcDbText
 10
13583.11819016569
 20
10080.01374588373
 30
0.0
 40
100.0
  1
鼻隠シ前後
  7
STYLE1
100
AcDbText
  0
TEXT
  5
16E1C
330
747D
100
AcDbEntity
  8
文字
 62
     7
 48
50.0
100
AcDbText
 10
13271.19032244792
 20
9740.013745883731
 30
0.0
 40
100.0
  1
8
  7
STYLE1
100
AcDbText
  0
TEXT
  5
16E1D
330
747D
100
AcDbEntity
  8
文字
 62
     7
 48
50.0
100
AcDbText
 10
13271.19032244792
 20
9570.013745883731
 30
0.0
 40
100.0
  1
9
  7
STYLE1
100
AcDbText
  0
TEXT
  5
16E1E
330
747D
100
AcDbEntity
  8
文字
 62
     7
 48
50.0
100
AcDbText
 10
13271.19032244792
 20
9910.01374588373
 30
0.0
 40
100.0
  1
7
  7
STYLE1
100
AcDbText
  0
TEXT
  5
16E1F
330
747D
100
AcDbEntity
  8
文字
 62
     7
 48
50.0
100
AcDbText
 10
13271.19032244792
 20
10080.01374588373
 30
0.0
 40
100.0
  1
6
  7
STYLE1
100
AcDbText
  0
LINE
  5
16E20
330
747D
100
AcDbEntity
  8
仕様書枠
 48
50.0
100
AcDbLine
 10
16307.19999999999
 20
9539.6
 30
0.0
 11
13127.19999999999
 21
9539.600000000003
 31
0.0
  0
LINE
  5
16E21
330
747D
100
AcDbEntity
  8
仕様書枠
 48
50.0
100
AcDbLine
 10
16307.19999999999
 20
9199.600000000001
 30
0.0
 11
13127.19999999999
 21
9199.600000000001
 31
0.0
  0
LINE
  5
16E22
330
747D
100
AcDbEntity
  8
仕様書枠
 48
50.0
100
AcDbLine
 10
16307.19999999999
 20
9369.600000000001
 30
0.0
 11
13127.19999999999
 21
9369.600000000003
 31
0.0
  0
LINE
  5
16E23
330
747D
100
AcDbEntity
  8
仕様書枠
 48
50.0
100
AcDbLine
 10
16307.19999999999
 20
10049.6
 30
0.0
 11
13127.2
 21
10049.6
 31
0.0
  0
LINE
  5
16E24
330
747D
100
AcDbEntity
  8
仕様書枠
 48
50.0
100
AcDbLine
 10
16307.19999999999
 20
9709.600000000001
 30
0.0
 11
13127.19999999999
 21
9709.600000000001
 31
0.0
  0
TEXT
  5
16E25
330
747D
100
AcDbEntity
  8
文字
 62
     7
 48
50.0
100
AcDbText
 10
13248.77747366448
 20
9230.013745883729
 30
0.0
 40
100.0
  1
11
  7
STYLE1
100
AcDbText
  0
TEXT
  5
16E26
330
747D
100
AcDbEntity
  8
文字
 62
     7
 48
50.0
100
AcDbText
 10
13583.11819016569
 20
9060.013745883729
 30
0.0
 40
100.0
  1
シャッターカバー
 41
0.9
  7
STYLE1
100
AcDbText
  0
LINE
  5
16E27
330
747D
100
AcDbEntity
  8
仕様書枠
 48
50.0
100
AcDbLine
 10
16307.19999999999
 20
9029.6
 30
0.0
 11
13127.19999999999
 21
9029.600000000002
 31
0.0
  0
LINE
  5
16E28
330
747D
100
AcDbEntity
  8
仕様書枠
 48
50.0
100
AcDbLine
 10
16307.19999999999
 20
8859.600000000002
 30
0.0
 11
13127.19999999999
 21
8859.600000000005
 31
0.0
  0
TEXT
  5
16E2A
330
747D
100
AcDbEntity
  8
文字
 62
     7
 48
50.0
100
AcDbText
 10
13248.77747366448
 20
8890.013745883731
 30
0.0
 40
100.0
  1
13
  7
STYLE1
100
AcDbText
  0
TEXT
  5
16E2B
330
747D
100
AcDbEntity
  8
文字
 62
     7
 48
50.0
100
AcDbText
 10
13248.77747366448
 20
9060.013745883731
 30
0.0
 40
100.0
  1
12
  7
STYLE1
100
AcDbText
  0
TEXT
  5
16E2C
330
747D
100
AcDbEntity
  8
文字
 62
     7
 48
50.0
100
AcDbText
 10
15022.63965474517
 20
10930.01374588372
 30
0.0
 40
100.0
  1
F12            1.2
  7
STYLE1
100
AcDbText
  0
TEXT
  5
16E2D
330
747D
100
AcDbEntity
  8
文字
 62
     7
 48
50.0
100
AcDbText
 10
15022.63965474517
 20
10760.01374588372
 30
0.0
 40
100.0
  1
F12         1.0,1.2
  7
STYLE1
100
AcDbText
  0
TEXT
  5
16E2E
330
747D
100
AcDbEntity
  8
文字
 62
     7
 48
50.0
100
AcDbText
 10
15022.63965474516
 20
10590.01374588373
 30
0.0
 40
100.0
  1
Y10            1.0
  7
STYLE1
100
AcDbText
  0
TEXT
  5
16E2F
330
747D
100
AcDbEntity
  8
文字
 62
     7
 48
50.0
100
AcDbText
 10
15022.63965474516
 20
10420.01374588372
 30
0.0
 40
100.0
  1
Y10            1.0
  7
STYLE1
100
AcDbText
  0
TEXT
  5
16E30
330
747D
100
AcDbEntity
  8
文字
 62
     7
 48
50.0
100
AcDbText
 10
15022.63965474516
 20
10250.01374588373
 30
0.0
 40
100.0
  1
Y10            0.7
  7
STYLE1
100
AcDbText
  0
TEXT
  5
16E31
330
747D
100
AcDbEntity
  8
文字
 62
     7
 48
50.0
100
AcDbText
 10
15022.63965474516
 20
10080.01374588372
 30
0.0
 40
100.0
  1
Y10            0.7
  7
STYLE1
100
AcDbText
  0
TEXT
  5
16E32
330
747D
100
AcDbEntity
  8
文字
 62
     7
 48
50.0
100
AcDbText
 10
15022.63965474516
 20
9570.013745883727
 30
0.0
 40
100.0
  1
Y10            0.5
  7
STYLE1
100
AcDbText
  0
TEXT
  5
16E33
330
747D
100
AcDbEntity
  8
文字
 62
     7
 48
50.0
100
AcDbText
 10
15022.63965474516
 20
9400.013745883727
 30
0.0
 40
100.0
  1
F12            0.7
  7
STYLE1
100
AcDbText
  0
TEXT
  5
16E34
330
747D
100
AcDbEntity
  8
文字
 62
     7
 48
50.0
100
AcDbText
 10
14850.83183167176
 20
8890.013745883727
 30
0.0
 40
100.0
  1
アルミニウム合金押出形材
  7
STYLE1
100
AcDbText
  0
LINE
  5
16E37
330
747D
100
AcDbEntity
  8
仕様書枠
 48
50.0
100
AcDbLine
 10
16307.19999999998
 20
8689.600000000003
 30
0.0
 11
13127.19999999999
 21
8689.600000000005
 31
0.0
  0
LINE
  5
16E38
330
747D
100
AcDbEntity
  8
仕様書枠
 48
50.0
100
AcDbLine
 10
16307.19999999998
 20
8519.600000000004
 30
0.0
 11
13127.19999999999
 21
8519.600000000005
 31
0.0
  0
LINE
  5
16E39
330
747D
100
AcDbEntity
  8
仕様書枠
 48
50.0
100
AcDbLine
 10
16307.19999999998
 20
8349.600000000004
 30
0.0
 11
13127.19999999999
 21
8349.600000000007
 31
0.0
  0
TEXT
  5
16E3A
330
747D
100
AcDbEntity
  8
文字
 62
     7
 48
50.0
100
AcDbText
 10
13229.83081656554
 20
8720.013745883733
 30
0.0
 40
100.0
  1
F12→溶融亜鉛めっき鋼板(JIS G 3302)
  7
STYLE1
100
AcDbText
  0
TEXT
  5
16E3B
330
747D
100
AcDbEntity
  8
文字
 62
     7
 48
50.0
100
AcDbText
 10
13229.83081656554
 20
8550.013745883733
 30
0.0
 40
100.0
  1
Y10→溶融亜鉛-5％アルミニウム合金めっき鋼板(JIS G 3317)
 41
0.9
  7
STYLE1
100
AcDbText
  0
TEXT
  5
16E3C
330
747D
100
AcDbEntity
  8
文字
 62
     7
 48
50.0
100
AcDbText
 10
13229.83081656554
 20
8380.013745883735
 30
0.0
 40
100.0
  1
Z08→塗装溶融亜鉛めっき鋼板(JIS G 3313)
  7
STYLE1
100
AcDbText
  0
LINE
  5
16E3D
330
747D
100
AcDbEntity
  8
仕様書枠
 48
50.0
100
AcDbLine
 10
13127.2
 20
11239.6
 30
0.0
 11
13127.2
 21
8349.600000000007
 31
0.0
  0
LINE
  5
172A6
330
747D
100
AcDbEntity
  8
部品1
 48
50.0
100
AcDbLine
 10
7780.471596683558
 20
4455.255549972139
 30
0.0
 11
7780.471596683556
 21
4714.255549972142
 31
0.0
  0
LINE
  5
172A7
330
747D
100
AcDbEntity
  8
部品1
 48
50.0
100
AcDbLine
 10
7770.471596683556
 20
4714.255549972142
 30
0.0
 11
7770.471596683553
 21
4855.255549972143
 31
0.0
  0
LINE
  5
17318
330
747D
100
AcDbEntity
  8
部品1
100
AcDbLine
 10
7677.47159668356
 20
4455.255549972139
 30
0.0
 11
7677.471596683556
 21
2480.255549972139
 31
0.0
  0
LINE
  5
17319
330
747D
100
AcDbEntity
  8
部品1
100
AcDbLine
 10
5253.471596683556
 20
4455.255549972139
 30
0.0
 11
5253.471596683556
 21
2480.255549972139
 31
0.0
  0
LINE
  5
1731A
330
747D
100
AcDbEntity
  8
部品1
100
AcDbLine
 10
5205.471596683556
 20
4455.255549972139
 30
0.0
 11
5205.471596683556
 21
2480.255549972139
 31
0.0
  0
LINE
  5
1731B
330
747D
100
AcDbEntity
  8
部品1
100
AcDbLine
 10
7725.471596683556
 20
4455.255549972139
 30
0.0
 11
7725.471596683556
 21
2480.255549972139
 31
0.0
  0
LINE
  5
1731D
330
747D
100
AcDbEntity
  8
部品1
100
AcDbLine
 10
5150.471596683555
 20
4620.255549972138
 30
0.0
 11
7780.471596683558
 21
4620.255549972138
 31
0.0
  0
LINE
  5
1731E
330
747D
100
AcDbEntity
  8
部品1
100
AcDbLine
 10
5150.471596683555
 20
2480.255549972139
 30
0.0
 11
7780.471596683556
 21
2480.255549972139
 31
0.0
  0
LINE
  5
17324
330
747D
100
AcDbEntity
  8
部品1
100
AcDbLine
 10
7780.471596683554
 20
2480.255549972139
 30
0.0
 11
10410.47159668355
 21
2480.255549972139
 31
0.0
  0
LINE
  5
17325
330
747D
100
AcDbEntity
  8
部品1
100
AcDbLine
 10
7780.471596683554
 20
4620.255549972138
 30
0.0
 11
10410.47159668355
 21
4620.255549972138
 31
0.0
  0
LINE
  5
17326
330
747D
100
AcDbEntity
  8
部品1
100
AcDbLine
 10
10355.47159668355
 20
4455.255549972139
 30
0.0
 11
10355.47159668355
 21
2480.255549972139
 31
0.0
  0
LINE
  5
17327
330
747D
100
AcDbEntity
  8
部品1
100
AcDbLine
 10
7835.471596683554
 20
4455.255549972139
 30
0.0
 11
7835.471596683554
 21
2480.255549972139
 31
0.0
  0
LINE
  5
17328
330
747D
100
AcDbEntity
  8
部品1
100
AcDbLine
 10
10410.47159668355
 20
4714.255549972142
 30
0.0
 11
10410.47159668355
 21
2380.255549972138
 31
0.0
  0
LINE
  5
17329
330
747D
100
AcDbEntity
  8
部品1
100
AcDbLine
 10
7883.471596683555
 20
4455.255549972139
 30
0.0
 11
7883.471596683555
 21
2480.255549972139
 31
0.0
  0
LINE
  5
1732A
330
747D
100
AcDbEntity
  8
部品1
100
AcDbLine
 10
10307.47159668355
 20
4455.255549972139
 30
0.0
 11
10307.47159668355
 21
2480.255549972139
 31
0.0
  0
LINE
  5
1732B
330
747D
100
AcDbEntity
  8
部品1
100
AcDbLine
 10
7835.471596683554
 20
4455.255549972139
 30
0.0
 11
10410.47159668355
 21
4455.255549972139
 31
0.0
  0
LINE
  5
1732C
330
747D
100
AcDbEntity
  8
細線
100
AcDbLine
 10
7883.471596683555
 20
4115.255549972139
 30
0.0
 11
10307.47159668355
 21
4115.255549972139
 31
0.0
  0
LINE
  5
1732D
330
747D
100
AcDbEntity
  8
細線
100
AcDbLine
 10
7883.471596683555
 20
4180.255549972138
 30
0.0
 11
10307.47159668355
 21
4180.255549972138
 31
0.0
  0
LINE
  5
1732E
330
747D
100
AcDbEntity
  8
細線
100
AcDbLine
 10
7883.471596683555
 20
4245.255549972138
 30
0.0
 11
10307.47159668355
 21
4245.255549972138
 31
0.0
  0
LINE
  5
1732F
330
747D
100
AcDbEntity
  8
細線
100
AcDbLine
 10
7883.471596683555
 20
3725.255549972138
 30
0.0
 11
10307.47159668355
 21
3725.255549972138
 31
0.0
  0
LINE
  5
17330
330
747D
100
AcDbEntity
  8
細線
100
AcDbLine
 10
7883.471596683555
 20
3790.255549972139
 30
0.0
 11
10307.47159668355
 21
3790.255549972139
 31
0.0
  0
LINE
  5
17331
330
747D
100
AcDbEntity
  8
細線
100
AcDbLine
 10
7883.471596683555
 20
3855.255549972138
 30
0.0
 11
10307.47159668355
 21
3855.255549972138
 31
0.0
  0
LINE
  5
17332
330
747D
100
AcDbEntity
  8
細線
100
AcDbLine
 10
7883.471596683555
 20
3920.255549972138
 30
0.0
 11
10307.47159668355
 21
3920.255549972138
 31
0.0
  0
LINE
  5
17333
330
747D
100
AcDbEntity
  8
細線
100
AcDbLine
 10
7883.471596683555
 20
3985.255549972139
 30
0.0
 11
10307.47159668355
 21
3985.255549972139
 31
0.0
  0
LINE
  5
17334
330
747D
100
AcDbEntity
  8
細線
100
AcDbLine
 10
7883.471596683555
 20
4050.255549972137
 30
0.0
 11
10307.47159668355
 21
4050.255549972137
 31
0.0
  0
LINE
  5
17335
330
747D
100
AcDbEntity
  8
細線
100
AcDbLine
 10
7883.471596683555
 20
3075.255549972139
 30
0.0
 11
10307.47159668355
 21
3075.255549972139
 31
0.0
  0
LINE
  5
17336
330
747D
100
AcDbEntity
  8
細線
100
AcDbLine
 10
7883.471596683555
 20
3140.255549972139
 30
0.0
 11
10307.47159668355
 21
3140.255549972139
 31
0.0
  0
LINE
  5
17337
330
747D
100
AcDbEntity
  8
細線
100
AcDbLine
 10
7883.471596683555
 20
3205.255549972139
 30
0.0
 11
10307.47159668355
 21
3205.255549972139
 31
0.0
  0
LINE
  5
17338
330
747D
100
AcDbEntity
  8
細線
100
AcDbLine
 10
7883.471596683555
 20
3270.255549972139
 30
0.0
 11
10307.47159668355
 21
3270.255549972139
 31
0.0
  0
LINE
  5
17339
330
747D
100
AcDbEntity
  8
細線
100
AcDbLine
 10
7883.471596683555
 20
3335.255549972139
 30
0.0
 11
10307.47159668355
 21
3335.255549972139
 31
0.0
  0
LINE
  5
1733A
330
747D
100
AcDbEntity
  8
細線
100
AcDbLine
 10
7883.471596683555
 20
3400.255549972138
 30
0.0
 11
10307.47159668355
 21
3400.255549972138
 31
0.0
  0
LINE
  5
1733B
330
747D
100
AcDbEntity
  8
細線
100
AcDbLine
 10
7883.471596683555
 20
3465.255549972139
 30
0.0
 11
10307.47159668355
 21
3465.255549972139
 31
0.0
  0
LINE
  5
1733C
330
747D
100
AcDbEntity
  8
細線
100
AcDbLine
 10
7883.471596683555
 20
3530.255549972139
 30
0.0
 11
10307.47159668355
 21
3530.255549972139
 31
0.0
  0
LINE
  5
1733D
330
747D
100
AcDbEntity
  8
細線
100
AcDbLine
 10
7883.471596683555
 20
3595.255549972139
 30
0.0
 11
10307.47159668355
 21
3595.255549972139
 31
0.0
  0
LINE
  5
1733E
330
747D
100
AcDbEntity
  8
細線
100
AcDbLine
 10
7883.471596683555
 20
3660.255549972138
 30
0.0
 11
10307.47159668355
 21
3660.255549972138
 31
0.0
  0
LINE
  5
1733F
330
747D
100
AcDbEntity
  8
細線
100
AcDbLine
 10
7883.471596683555
 20
4375.255549972138
 30
0.0
 11
10307.47159668355
 21
4375.255549972138
 31
0.0
  0
LINE
  5
17340
330
747D
100
AcDbEntity
  8
細線
100
AcDbLine
 10
7883.471596683555
 20
4440.255549972138
 30
0.0
 11
10307.47159668355
 21
4440.255549972138
 31
0.0
  0
LINE
  5
17341
330
747D
100
AcDbEntity
  8
細線
100
AcDbLine
 10
7883.471596683555
 20
4310.255549972138
 30
0.0
 11
10307.47159668355
 21
4310.255549972138
 31
0.0
  0
LINE
  5
17342
330
747D
100
AcDbEntity
  8
細線
100
AcDbLine
 10
7883.471596683555
 20
2490.255549972138
 30
0.0
 11
10307.47159668355
 21
2490.255549972138
 31
0.0
  0
LINE
  5
17343
330
747D
100
AcDbEntity
  8
細線
100
AcDbLine
 10
7883.471596683555
 20
2555.255549972139
 30
0.0
 11
10307.47159668355
 21
2555.255549972139
 31
0.0
  0
LINE
  5
17344
330
747D
100
AcDbEntity
  8
細線
100
AcDbLine
 10
7883.471596683555
 20
2620.255549972139
 30
0.0
 11
10307.47159668355
 21
2620.255549972139
 31
0.0
  0
LINE
  5
17345
330
747D
100
AcDbEntity
  8
細線
100
AcDbLine
 10
7883.471596683555
 20
2685.255549972139
 30
0.0
 11
10307.47159668355
 21
2685.255549972139
 31
0.0
  0
LINE
  5
17346
330
747D
100
AcDbEntity
  8
細線
100
AcDbLine
 10
7883.471596683555
 20
2750.255549972139
 30
0.0
 11
10307.47159668355
 21
2750.255549972139
 31
0.0
  0
LINE
  5
17347
330
747D
100
AcDbEntity
  8
細線
100
AcDbLine
 10
7883.471596683555
 20
2815.255549972139
 30
0.0
 11
10307.47159668355
 21
2815.255549972139
 31
0.0
  0
LINE
  5
17348
330
747D
100
AcDbEntity
  8
細線
100
AcDbLine
 10
7883.471596683555
 20
2880.255549972139
 30
0.0
 11
10307.47159668355
 21
2880.255549972139
 31
0.0
  0
LINE
  5
17349
330
747D
100
AcDbEntity
  8
細線
100
AcDbLine
 10
7883.471596683555
 20
2945.255549972138
 30
0.0
 11
10307.47159668355
 21
2945.255549972138
 31
0.0
  0
LINE
  5
1734A
330
747D
100
AcDbEntity
  8
細線
100
AcDbLine
 10
7883.471596683555
 20
3010.255549972138
 30
0.0
 11
10307.47159668355
 21
3010.255549972138
 31
0.0
  0
LINE
  5
1734B
330
747D
100
AcDbEntity
  8
細線
100
AcDbLine
 10
10307.47159668355
 20
2490.255549972138
 30
0.0
 11
7883.47159668355
 21
2490.255549972138
 31
0.0
  0
CIRCLE
  5
1734F
330
747D
100
AcDbEntity
  8
細線
 48
50.0
100
AcDbCircle
 10
9095.471596683553
 20
3367.755549972139
 30
0.0
 40
18.0
  0
ARC
  5
17350
330
747D
100
AcDbEntity
  8
細線
 48
50.0
100
AcDbCircle
 10
9395.471596683554
 20
3042.755549972139
 30
0.0
 40
15.0
100
AcDbArc
 50
270.0
 51
90.0
  0
ARC
  5
17351
330
747D
100
AcDbEntity
  8
細線
 48
50.0
100
AcDbCircle
 10
9295.471596683553
 20
3042.755549972139
 30
0.0
 40
15.0
100
AcDbArc
 50
90.0
 51
270.0
  0
LINE
  5
17352
330
747D
100
AcDbEntity
  8
細線
 48
50.0
100
AcDbLine
 10
9295.471596683553
 20
3057.755549972139
 30
0.0
 11
9395.471596683554
 21
3057.755549972139
 31
0.0
  0
LINE
  5
17353
330
747D
100
AcDbEntity
  8
細線
 48
50.0
100
AcDbLine
 10
9395.471596683554
 20
3027.755549972138
 30
0.0
 11
9295.471596683553
 21
3027.755549972138
 31
0.0
  0
LINE
  5
17354
330
747D
100
AcDbEntity
  8
細線
 48
50.0
100
AcDbLine
 10
8895.471596683554
 20
3027.755549972138
 30
0.0
 11
8795.471596683553
 21
3027.755549972138
 31
0.0
  0
LINE
  5
17355
330
747D
100
AcDbEntity
  8
細線
 48
50.0
100
AcDbLine
 10
8795.471596683553
 20
3057.755549972139
 30
0.0
 11
8895.471596683554
 21
3057.755549972139
 31
0.0
  0
ARC
  5
17356
330
747D
100
AcDbEntity
  8
細線
 48
50.0
100
AcDbCircle
 10
8895.471596683554
 20
3042.755549972139
 30
0.0
 40
15.0
100
AcDbArc
 50
270.0
 51
90.0
  0
ARC
  5
17357
330
747D
100
AcDbEntity
  8
細線
 48
50.0
100
AcDbCircle
 10
8795.471596683553
 20
3042.755549972139
 30
0.0
 40
15.0
100
AcDbArc
 50
90.0
 51
270.0
  0
LWPOLYLINE
  5
17361
330
747D
100
AcDbEntity
  8
部品1
100
AcDbPolyline
 90
        4
 70
     1
 43
0.0
 10
6083.73626356935
 20
6405.574451132652
 10
6083.73626356935
 20
6165.68212958712
 10
6847.206929797791
 20
6165.68212958712
 10
6847.206929797791
 20
6405.574451132652
  0
TEXT
  5
17362
330
747D
100
AcDbEntity
  8
部品1
100
AcDbText
 10
6173.655873398388
 20
6212.680921914128
 30
0.0
 40
135.0
  1
平面図
  7
STYLE2
100
AcDbText
  0
LINE
  5
17363
330
747D
100
AcDbEntity
  8
部品1
100
AcDbLine
 10
12720.36800533009
 20
4620.255549972138
 30
0.0
 11
14510.36800533009
 21
4620.255549972138
 31
0.0
  0
LINE
  5
17364
330
747D
100
AcDbEntity
  8
部品1
100
AcDbLine
 10
12775.36800533009
 20
2530.255549972139
 30
0.0
 11
14510.36800533009
 21
2530.255549972139
 31
0.0
  0
LINE
  5
17365
330
747D
100
AcDbEntity
  8
部品1
100
AcDbLine
 10
12775.36800533009
 20
4620.255549972138
 30
0.0
 11
12775.36800533009
 21
2380.255549972138
 31
0.0
  0
LINE
  5
17366
330
747D
100
AcDbEntity
  8
部品1
100
AcDbLine
 10
12720.36800533009
 20
4712.114069414385
 30
0.0
 11
12720.36800533009
 21
2380.255549972138
 31
0.0
  0
DIMENSION
  5
17368
330
747D
100
AcDbEntity
  8
寸法
100
AcDbDimension
  2
*D26
 10
11876.61787614683
 20
2480.255549972139
 30
0.0
 11
11876.61787614683
 21
2174.208305877648
 31
0.0
 70
   160
 71
     5
 42
50.0
  3
INABA_S40G
100
AcDbAlignedDimension
 13
12720.36800533009
 23
2530.255549972139
 33
0.0
 14
12665.36800533009
 24
2480.255549972139
 34
0.0
 50
90.0
100
AcDbRotatedDimension
1001
ACAD
1000
DSTYLE
1002
{
1070
   174
1070
     0
1070
   272
1070
     1
1070
   288
1070
     0
1070
   341
1005
0
1002
}
  0
LINE
  5
17369
330
747D
100
AcDbEntity
  8
部品1
100
AcDbLine
 10
13195.36800533009
 20
4620.255549972138
 30
0.0
 11
13195.36800533009
 21
2530.255549972139
 31
0.0
  0
LINE
  5
1736A
330
747D
100
AcDbEntity
  8
部品1
100
AcDbLine
 10
14510.36800533009
 20
4675.137358658145
 30
0.0
 11
14510.36800533009
 21
2380.255549972138
 31
0.0
  0
LINE
  5
1736B
330
747D
100
AcDbEntity
  8
部品1
100
AcDbLine
 10
14455.36800533009
 20
4620.255549972138
 30
0.0
 11
14455.36800533009
 21
2530.255549972139
 31
0.0
  0
DIMENSION
  5
1736C
330
747D
100
AcDbEntity
  8
寸法
 48
50.0
100
AcDbDimension
  2
*D27
 10
12720.36800533009
 20
5254.348719311611
 30
0.0
 11
13615.36800533009
 21
5254.348719311611
 31
0.0
 70
   160
  1
柱外寸法<>
 71
     5
 42
1789.999999999998
  3
INABA_S40G
100
AcDbAlignedDimension
 13
14510.36800533009
 23
4802.066229583792
 33
0.0
 14
12720.36800533009
 24
4851.257168095115
 34
0.0
100
AcDbRotatedDimension
1001
ACAD
1000
DSTYLE
1002
{
1070
   174
1070
     0
1070
   272
1070
     1
1070
   288
1070
     0
1070
   341
1005
0
1002
}
  0
DIMENSION
  5
1736D
330
747D
100
AcDbEntity
  8
寸法
 48
50.0
100
AcDbDimension
  2
*D28
 10
12660.36800533009
 20
5254.348719311611
 30
0.0
 11
12350.7302100545
 21
5254.348719311611
 31
0.0
 70
   160
 71
     5
 42
60.0
  3
INABA_S40G
100
AcDbAlignedDimension
 13
12720.36800533009
 23
4851.257168095115
 33
0.0
 14
12660.36800533009
 24
4855.255549972143
 34
0.0
100
AcDbRotatedDimension
1001
ACAD
1000
DSTYLE
1002
{
1070
   174
1070
     0
1070
   272
1070
     1
1070
   288
1070
     0
1070
   341
1005
0
1002
}
  0
DIMENSION
  5
1736E
330
747D
100
AcDbEntity
  8
寸法
 48
50.0
100
AcDbDimension
  2
*D29
 10
12660.36800533009
 20
5470.874818930057
 30
0.0
 11
13625.36800533009
 21
5470.874818930057
 31
0.0
 70
   160
 71
     5
 42
1929.999999999998
  3
INABA_S40G
100
AcDbAlignedDimension
 13
14590.36800533009
 23
4800.255549972139
 33
0.0
 14
12660.36800533009
 24
4855.255549972143
 34
0.0
100
AcDbRotatedDimension
1001
ACAD
1000
DSTYLE
1002
{
1070
   174
1070
     0
1070
   272
1070
     1
1070
   288
1070
     0
1070
   341
1005
0
1002
}
  0
LINE
  5
1736F
330
747D
100
AcDbEntity
  8
部品1
100
AcDbLine
 10
12775.36800533009
 20
2480.255549972139
 30
0.0
 11
14510.36800533009
 21
2480.255549972138
 31
0.0
  0
TEXT
  5
17370
330
747D
100
AcDbEntity
  8
部品1
100
AcDbText
 10
13323.07877363948
 20
1537.362020753615
 30
0.0
 40
135.0
  1
側面図
  7
STYLE2
100
AcDbText
  0
LWPOLYLINE
  5
17371
330
747D
100
AcDbEntity
  8
部品1
100
AcDbPolyline
 90
        4
 70
     1
 43
0.0
 10
13233.63267221587
 20
1730.255549972138
 10
13233.63267221587
 20
1490.363228426606
 10
13997.10333844431
 20
1490.363228426606
 10
13997.10333844431
 20
1730.255549972138
  0
LINE
  5
17372
330
747D
100
AcDbEntity
  8
細線
 48
50.0
100
AcDbLine
 10
13272.86800533009
 20
4620.255549972138
 30
0.0
 11
13272.86800533009
 21
2530.255549972139
 31
0.0
  0
LINE
  5
17373
330
747D
100
AcDbEntity
  8
細線
 48
50.0
100
AcDbLine
 10
13257.86800533009
 20
4620.255549972138
 30
0.0
 11
13257.86800533009
 21
2530.255549972139
 31
0.0
  0
LINE
  5
17374
330
747D
100
AcDbEntity
  8
細線
 48
50.0
100
AcDbLine
 10
13397.86800533009
 20
4620.255549972138
 30
0.0
 11
13397.86800533009
 21
2530.255549972139
 31
0.0
  0
LINE
  5
17375
330
747D
100
AcDbEntity
  8
細線
 48
50.0
100
AcDbLine
 10
13412.86800533009
 20
4620.255549972138
 30
0.0
 11
13412.86800533009
 21
2530.255549972139
 31
0.0
  0
LINE
  5
17376
330
747D
100
AcDbEntity
  8
細線
 48
50.0
100
AcDbLine
 10
13552.86800533009
 20
4620.255549972138
 30
0.0
 11
13552.86800533009
 21
2530.255549972139
 31
0.0
  0
LINE
  5
17377
330
747D
100
AcDbEntity
  8
細線
 48
50.0
100
AcDbLine
 10
13537.86800533009
 20
4620.255549972138
 30
0.0
 11
13537.86800533009
 21
2530.255549972139
 31
0.0
  0
LINE
  5
17378
330
747D
100
AcDbEntity
  8
細線
 48
50.0
100
AcDbLine
 10
13117.86800533009
 20
4620.255549972138
 30
0.0
 11
13117.86800533009
 21
2530.255549972139
 31
0.0
  0
LINE
  5
17379
330
747D
100
AcDbEntity
  8
細線
 48
50.0
100
AcDbLine
 10
13132.86800533009
 20
4620.255549972138
 30
0.0
 11
13132.86800533009
 21
2530.255549972139
 31
0.0
  0
LINE
  5
1737A
330
747D
100
AcDbEntity
  8
細線
 48
50.0
100
AcDbLine
 10
12992.86800533009
 20
4620.255549972138
 30
0.0
 11
12992.86800533009
 21
2530.255549972139
 31
0.0
  0
LINE
  5
1737B
330
747D
100
AcDbEntity
  8
細線
 48
50.0
100
AcDbLine
 10
12977.86800533009
 20
4620.255549972138
 30
0.0
 11
12977.86800533009
 21
2530.255549972139
 31
0.0
  0
LINE
  5
1737C
330
747D
100
AcDbEntity
  8
細線
 48
50.0
100
AcDbLine
 10
12837.86800533009
 20
4620.255549972138
 30
0.0
 11
12837.86800533009
 21
2530.255549972139
 31
0.0
  0
LINE
  5
1737D
330
747D
100
AcDbEntity
  8
細線
 48
50.0
100
AcDbLine
 10
12852.86800533009
 20
4620.255549972138
 30
0.0
 11
12852.86800533009
 21
2530.255549972139
 31
0.0
  0
LINE
  5
1737E
330
747D
100
AcDbEntity
  8
部品1
100
AcDbLine
 10
12667.91299168705
 20
4853.973285306405
 30
0.0
 11
14582.97988219155
 21
4798.896347681278
 31
0.0
  0
LINE
  5
1737F
330
747D
100
AcDbEntity
  8
部品1
100
AcDbLine
 10
12675.71056993204
 20
4713.036575041106
 30
0.0
 11
14565.03170586993
 21
4674.0081498069
 31
0.0
  0
LINE
  5
17380
330
747D
100
AcDbEntity
  8
細線
 48
50.0
100
AcDbLine
 10
12693.36800533009
 20
4852.655226347542
 30
0.0
 11
12688.07890377458
 21
4712.569593720188
 31
0.0
  0
LINE
  5
17381
330
747D
100
AcDbEntity
  8
細線
 48
50.0
100
AcDbLine
 10
14557.36800533009
 20
4800.222529007434
 30
0.0
 11
14552.62032244209
 21
4674.476756516691
 31
0.0
  0
LINE
  5
17382
330
747D
100
AcDbEntity
  8
部品1
 48
50.0
100
AcDbLine
 10
12660.5522912432
 20
4846.849096136832
 30
0.0
 11
12660.93255102101
 21
4826.922131690419
 31
0.0
  0
LINE
  5
17383
330
747D
100
AcDbEntity
  8
部品1
 48
50.0
100
AcDbLine
 10
12664.00132312725
 20
4823.346850196948
 30
0.0
 11
12665.70522461862
 21
4734.056353490301
 31
0.0
  0
LINE
  5
17384
330
747D
100
AcDbEntity
  8
細線
 48
50.0
100
AcDbLine
 10
12661.4074284309
 20
4826.272631813499
 30
0.0
 11
14587.04341317607
 21
4770.648427172672
 31
0.0
  0
LINE
  5
17385
330
747D
100
AcDbEntity
  8
細線
 48
50.0
100
AcDbLine
 10
12666.16790366819
 20
4733.411120115637
 30
0.0
 11
14576.17156809882
 21
4693.601801141143
 31
0.0
  0
LINE
  5
17386
330
747D
100
AcDbEntity
  8
部品1
 48
50.0
100
AcDbLine
 10
12668.77399672486
 20
4730.481071996828
 30
0.0
 11
12668.97594934529
 21
4719.898036603736
 31
0.0
  0
ARC
  5
17387
330
747D
100
AcDbEntity
  8
部品1
 48
50.0
100
AcDbCircle
 10
12667.55101707153
 20
4846.982650544259
 30
0.0
 40
7.0
100
AcDbArc
 50
87.03587545303976
 51
181.0932240292635
  0
ARC
  5
17388
330
747D
100
AcDbEntity
  8
部品1
 48
50.0
100
AcDbCircle
 10
12675.97467517363
 20
4720.031591011164
 30
0.0
 40
7.0
100
AcDbArc
 50
181.0932240292635
 51
267.8377559871574
  0
ARC
  5
17389
330
747D
100
AcDbEntity
  8
部品1
100
AcDbCircle
 10
12665.77454279843
 20
4730.423834393644
 30
0.0
 40
3.0
100
AcDbArc
 50
1.093224029263536
 51
80.18775403148559
  0
ARC
  5
1738A
330
747D
100
AcDbEntity
  8
部品1
100
AcDbCircle
 10
12661.00186920082
 20
4823.289612593764
 30
0.0
 40
3.0
100
AcDbArc
 50
1.093224029263536
 51
80.18775403148559
  0
ARC
  5
1738B
330
747D
100
AcDbEntity
  8
部品1
100
AcDbCircle
 10
12661.63242360385
 20
4826.935487131162
 30
0.0
 40
0.7
100
AcDbArc
 50
181.0932240292114
 51
260.1877540314855
  0
ARC
  5
1738C
330
747D
100
AcDbEntity
  8
部品1
100
AcDbCircle
 10
12666.40509720145
 20
4734.069708931041
 30
0.0
 40
0.7
100
AcDbArc
 50
181.0932240292114
 51
260.1877540314855
  0
LINE
  5
1738D
330
747D
100
AcDbEntity
  8
部品1
 48
50.0
100
AcDbLine
 10
14589.58190814079
 20
4791.196702246358
 30
0.0
 11
14587.55128694982
 21
4771.251660988577
 31
0.0
  0
LINE
  5
1738E
330
747D
100
AcDbEntity
  8
部品1
 48
50.0
100
AcDbLine
 10
14584.19872046534
 20
4767.941026915669
 30
0.0
 11
14576.6919412005
 21
4694.208406170655
 31
0.0
  0
LINE
  5
1738F
330
747D
100
AcDbEntity
  8
部品1
 48
50.0
100
AcDbLine
 10
14573.33937471602
 20
4690.897772097744
 30
0.0
 11
14572.25981167628
 21
4680.294155104184
 31
0.0
  0
ARC
  5
17390
330
747D
100
AcDbEntity
  8
部品1
 48
50.0
100
AcDbCircle
 10
14582.61790757603
 20
4791.905712919131
 30
0.0
 40
7.0
100
AcDbArc
 50
354.1866997665596
 51
87.03587545303976
  0
ARC
  5
17391
330
747D
100
AcDbEntity
  8
部品1
 48
50.0
100
AcDbCircle
 10
14565.29581111152
 20
4681.003165776957
 30
0.0
 40
7.0
100
AcDbArc
 50
267.8377559871574
 51
354.1866997665596
  0
ARC
  5
17392
330
747D
100
AcDbEntity
  8
部品1
100
AcDbCircle
 10
14576.32394638662
 20
4690.593910380841
 30
0.0
 40
3.0
100
AcDbArc
 50
95.0921697642102
 51
174.1866997665596
  0
ARC
  5
17393
330
747D
100
AcDbEntity
  8
部品1
100
AcDbCircle
 10
14587.18329213595
 20
4767.637165198765
 30
0.0
 40
3.0
100
AcDbArc
 50
95.09216976441955
 51
174.1866997665596
  0
ARC
  5
17394
330
747D
100
AcDbEntity
  8
部品1
100
AcDbCircle
 10
14586.85488689335
 20
4771.322562055855
 30
0.0
 40
0.7
100
AcDbArc
 50
275.0921697642102
 51
354.1866997665596
  0
ARC
  5
17395
330
747D
100
AcDbEntity
  8
部品1
100
AcDbCircle
 10
14575.99554114403
 20
4694.279307237931
 30
0.0
 40
0.7
100
AcDbArc
 50
275.0921697642102
 51
354.1866997667152
  0
DIMENSION
  5
17396
330
747D
100
AcDbEntity
  8
寸法
 48
50.0
100
AcDbDimension
  2
*D30
 10
14590.36800533009
 20
5254.348719311611
 30
0.0
 11
14796.41524942458
 21
5254.348719311611
 31
0.0
 70
   160
 71
     5
 42
80.0
  3
INABA_S40G
100
AcDbAlignedDimension
 13
14510.36800533009
 23
4802.066229583792
 33
0.0
 14
14590.36800533009
 24
4800.255549972139
 34
0.0
100
AcDbRotatedDimension
1001
ACAD
1000
DSTYLE
1002
{
1070
   174
1070
     0
1070
   272
1070
     1
1070
   288
1070
     0
1070
   341
1005
0
1002
}
  0
LINE
  5
17397
330
747D
100
AcDbEntity
  8
部品1
 48
50.0
100
AcDbLine
 10
13465.36800533009
 20
4986.123689073418
 30
0.0
 11
13765.36800533009
 21
4986.123689073418
 31
0.0
  0
LINE
  5
17398
330
747D
100
AcDbEntity
  8
部品1
 48
50.0
100
AcDbLine
 10
13765.36800533009
 20
4986.123689073418
 30
0.0
 11
13765.36800533009
 21
4969.923689073419
 31
0.0
  0
TEXT
  5
17399
330
747D
100
AcDbEntity
  8
部品1
 48
50.0
100
AcDbText
 10
13453.63584055382
 20
5022.007711225851
 30
0.0
 40
120.0
  1
1000
  7
STYLE1
100
AcDbText
  0
TEXT
  5
1739A
330
747D
100
AcDbEntity
  8
部品1
 48
50.0
100
AcDbText
 10
13942.46085261795
 20
4884.506453007569
 30
0.0
 40
120.0
  1
54
 50
90.0
  7
STYLE1
100
AcDbText
  0
LINE
  5
1739B
330
747D
100
AcDbEntity
  8
部品1
100
AcDbLine
 10
13615.36800533009
 20
4620.255549972138
 30
0.0
 11
13615.36800533009
 21
2530.255549972139
 31
0.0
  0
LINE
  5
1739C
330
747D
100
AcDbEntity
  8
細線
 48
50.0
100
AcDbLine
 10
13957.86800533009
 20
4620.255549972138
 30
0.0
 11
13957.86800533009
 21
2530.255549972139
 31
0.0
  0
LINE
  5
1739D
330
747D
100
AcDbEntity
  8
細線
 48
50.0
100
AcDbLine
 10
13972.86800533009
 20
4620.255549972138
 30
0.0
 11
13972.86800533009
 21
2530.255549972139
 31
0.0
  0
LINE
  5
1739E
330
747D
100
AcDbEntity
  8
細線
 48
50.0
100
AcDbLine
 10
13832.86800533009
 20
4620.255549972138
 30
0.0
 11
13832.86800533009
 21
2530.255549972139
 31
0.0
  0
LINE
  5
1739F
330
747D
100
AcDbEntity
  8
細線
 48
50.0
100
AcDbLine
 10
13817.86800533009
 20
4620.255549972138
 30
0.0
 11
13817.86800533009
 21
2530.255549972139
 31
0.0
  0
LINE
  5
173A0
330
747D
100
AcDbEntity
  8
細線
 48
50.0
100
AcDbLine
 10
13677.86800533009
 20
4620.255549972138
 30
0.0
 11
13677.86800533009
 21
2530.255549972139
 31
0.0
  0
LINE
  5
173A1
330
747D
100
AcDbEntity
  8
細線
 48
50.0
100
AcDbLine
 10
13692.86800533009
 20
4620.255549972138
 30
0.0
 11
13692.86800533009
 21
2530.255549972139
 31
0.0
  0
LINE
  5
173A2
330
747D
100
AcDbEntity
  8
部品1
100
AcDbLine
 10
14035.36800533009
 20
4620.255549972138
 30
0.0
 11
14035.36800533009
 21
2530.255549972139
 31
0.0
  0
LINE
  5
173A3
330
747D
100
AcDbEntity
  8
細線
 48
50.0
100
AcDbLine
 10
14112.86800533009
 20
4620.255549972138
 30
0.0
 11
14112.8680053301
 21
2530.255549972139
 31
0.0
  0
LINE
  5
173A4
330
747D
100
AcDbEntity
  8
細線
 48
50.0
100
AcDbLine
 10
14097.86800533009
 20
4620.255549972138
 30
0.0
 11
14097.8680053301
 21
2530.255549972139
 31
0.0
  0
LINE
  5
173A5
330
747D
100
AcDbEntity
  8
細線
 48
50.0
100
AcDbLine
 10
14237.86800533009
 20
4620.255549972138
 30
0.0
 11
14237.8680053301
 21
2530.255549972139
 31
0.0
  0
LINE
  5
173A6
330
747D
100
AcDbEntity
  8
細線
 48
50.0
100
AcDbLine
 10
14252.86800533009
 20
4620.255549972138
 30
0.0
 11
14252.8680053301
 21
2530.255549972139
 31
0.0
  0
LINE
  5
173A7
330
747D
100
AcDbEntity
  8
細線
 48
50.0
100
AcDbLine
 10
14392.8680053301
 20
4620.255549972138
 30
0.0
 11
14392.8680053301
 21
2530.255549972139
 31
0.0
  0
LINE
  5
173A8
330
747D
100
AcDbEntity
  8
細線
 48
50.0
100
AcDbLine
 10
14377.8680053301
 20
4620.255549972138
 30
0.0
 11
14377.8680053301
 21
2530.255549972139
 31
0.0
  0
DIMENSION
  5
173A9
330
747D
100
AcDbEntity
  8
寸法
 48
50.0
100
AcDbDimension
  2
*D31
 10
12099.75959856173
 20
4729.600808845461
 30
0.0
 11
12110.42507382066
 21
5100.447472087165
 31
0.0
 70
   161
 71
     5
 42
141.0
  3
INABA_S40G
100
AcDbAlignedDimension
 13
12679.76402548867
 23
4853.978298806818
 33
0.0
 14
12675.71056993204
 24
4713.036575041106
 34
0.0
1001
ACAD
1000
DSTYLE
1002
{
1070
   174
1070
     0
1070
   272
1070
     1
1070
   288
1070
     0
1070
   341
1005
0
1002
}
  0
LINE
  5
173AA
330
747D
100
AcDbEntity
  8
部品1
 48
50.0
100
AcDbLine
 10
13465.36800533009
 20
4986.123689073418
 30
0.0
 11
13765.36800533009
 21
4969.923689073419
 31
0.0
  0
DIMENSION
  5
173AB
330
747D
100
AcDbEntity
  8
寸法
100
AcDbDimension
  2
*D32
 10
11576.61787614683
 20
4855.25554997214
 30
0.0
 11
11476.6060651232
 21
3667.75554997214
 31
0.0
 70
    32
 71
     5
 42
2375.000000000005
  3
INABA_S40G
100
AcDbAlignedDimension
 13
12720.36800533009
 23
2480.255549972136
 33
0.0
 14
12660.36800533009
 24
4855.25554997214
 34
0.0
 50
90.0
100
AcDbRotatedDimension
1001
ACAD
1000
DSTYLE
1002
{
1070
   174
1070
     0
1070
   272
1070
     1
1070
   288
1070
     0
1070
   341
1005
0
1002
}
  0
DIMENSION
  5
173AC
330
747D
100
AcDbEntity
  8
寸法
100
AcDbDimension
  2
*D33
 10
11876.61787614683
 20
2530.255549972136
 30
0.0
 11
11776.60606512321
 21
3575.255549972138
 31
0.0
 70
    32
 71
     5
 42
2090.000000000001
  3
INABA_S40G
100
AcDbAlignedDimension
 13
12720.36800533009
 23
4620.255549972136
 33
0.0
 14
12720.36800533009
 24
2530.255549972136
 34
0.0
 50
90.0
100
AcDbRotatedDimension
1001
ACAD
1000
DSTYLE
1002
{
1070
   174
1070
     0
1070
   272
1070
     1
1070
   288
1070
     0
1070
   341
1005
0
1002
}
  0
DIMENSION
  5
173AD
330
747D
100
AcDbEntity
  8
寸法
100
AcDbDimension
  2
*D34
 10
15215.29516330222
 20
4800.255549972138
 30
0.0
 11
15115.2833522786
 21
3640.255549972141
 31
0.0
 70
    32
 71
     5
 42
2320.000000000001
  3
INABA_S40G
100
AcDbAlignedDimension
 13
14510.36800533009
 23
2480.255549972139
 33
0.0
 14
14590.36800533009
 24
4800.255549972138
 34
0.0
 50
90.0
100
AcDbRotatedDimension
1001
ACAD
1000
DSTYLE
1002
{
1070
   174
1070
     0
1070
   272
1070
     1
1070
   288
1070
     0
1070
   341
1005
0
1002
}
  0
LINE
  5
173AE
330
747D
100
AcDbEntity
  8
破線
 48
5.0
100
AcDbLine
 10
12720.36800533009
 20
2130.255549972138
 30
0.0
 11
12775.36800533009
 21
2130.255549972138
 31
0.0
  0
LINE
  5
173B3
330
747D
100
AcDbEntity
  8
破線
 48
5.0
100
AcDbLine
 10
12720.36800533009
 20
2380.255549972138
 30
0.0
 11
12720.36800533009
 21
2130.255549972138
 31
0.0
  0
LINE
  5
173B5
330
747D
100
AcDbEntity
  8
破線
 48
5.0
100
AcDbLine
 10
12775.36800533009
 20
2380.255549972138
 30
0.0
 11
12775.36800533009
 21
2130.255549972138
 31
0.0
  0
LINE
  5
173B6
330
747D
100
AcDbEntity
  8
部品1
100
AcDbLine
 10
12720.36800533009
 20
2480.255549972139
 30
0.0
 11
12327.37079112124
 21
2380.255549972138
 31
0.0
  0
TEXT
  5
173B7
330
747D
100
AcDbEntity
  8
部品1
100
AcDbText
 10
6174.261667307297
 20
1537.362020753615
 30
0.0
 40
135.0
  1
正面図
  7
STYLE2
100
AcDbText
  0
LWPOLYLINE
  5
173B8
330
747D
100
AcDbEntity
  8
部品1
100
AcDbPolyline
 90
        4
 70
     1
 43
0.0
 10
6083.736263569341
 20
1730.255549972138
 10
6083.736263569341
 20
1490.363228426606
 10
6847.206929797781
 20
1490.363228426606
 10
6847.206929797781
 20
1730.255549972138
  0
DIMENSION
  5
173BA
330
747D
100
AcDbEntity
  8
寸法
 48
50.0
100
AcDbDimension
  2
*D35
 10
10410.47159668355
 20
5254.348719311611
 30
0.0
 11
10773.95687805779
 21
5254.348719311611
 31
0.0
 70
   160
 71
     5
 42
50.0
  3
INABA_S40G
100
AcDbAlignedDimension
 13
10460.47159668356
 23
4855.255549972142
 33
0.0
 14
10410.47159668355
 24
4855.255549972143
 34
0.0
100
AcDbRotatedDimension
  0
ARC
  5
173BC
330
747D
100
AcDbEntity
  8
部品1
100
AcDbCircle
 10
10453.06317557712
 20
4848.255549972142
 30
0.0
 40
7.0
100
AcDbArc
 50
356.7526572096623
 51
90.0
  0
ARC
  5
173BD
330
747D
100
AcDbEntity
  8
部品1
100
AcDbCircle
 10
10439.84785211609
 20
4721.255549972141
 30
0.0
 40
7.0
100
AcDbArc
 50
270.0
 51
356.7526572096623
  0
ARC
  5
173BE
330
747D
100
AcDbEntity
  8
部品1
 48
50.0
100
AcDbCircle
 10
10458.21966232677
 20
4827.92254913383
 30
0.0
 40
0.7
100
AcDbArc
 50
277.6581272073635
 51
356.7526572096103
  0
ARC
  5
173BF
330
747D
100
AcDbEntity
  8
部品1
 48
50.0
100
AcDbCircle
 10
10449.98363180192
 20
4735.722549133824
 30
0.0
 40
0.7
100
AcDbArc
 50
277.6581272073635
 51
356.7526572097143
  0
ARC
  5
173C0
330
747D
100
AcDbEntity
  8
部品1
 48
50.0
100
AcDbCircle
 10
10450.47670091048
 20
4732.055549972141
 30
0.0
 40
3.0
100
AcDbArc
 50
97.65812720736347
 51
176.7526572096623
  0
ARC
  5
173C1
330
747D
100
AcDbEntity
  8
部品1
 48
50.0
100
AcDbCircle
 10
10458.71273143533
 20
4824.255549972142
 30
0.0
 40
3.0
100
AcDbArc
 50
97.65812720736347
 51
176.7526572096623
  0
LINE
  5
173C2
330
747D
100
AcDbEntity
  8
部品1
100
AcDbLine
 10
10455.71754853914
 20
4824.425489427245
 30
0.0
 11
10450.68250781103
 21
4735.682896594302
 31
0.0
  0
LINE
  5
173C3
330
747D
100
AcDbEntity
  8
部品1
100
AcDbLine
 10
10447.4815180143
 20
4732.225489427245
 30
0.0
 11
10446.83661220719
 21
4720.859024576904
 31
0.0
  0
LINE
  5
173C4
330
747D
100
AcDbEntity
  8
細線
 48
50.0
100
AcDbLine
 10
10427.47159668355
 20
4855.255549972142
 30
0.0
 11
10427.47159668355
 21
4714.255549972142
 31
0.0
  0
LINE
  5
173C5
330
747D
100
AcDbEntity
  8
部品1
100
AcDbLine
 10
10460.05193566822
 20
4847.859024576901
 30
0.0
 11
10458.91853833588
 21
4827.882896594303
 31
0.0
  0
LINE
  5
173C6
330
747D
100
AcDbEntity
  8
細線
 48
50.0
100
AcDbLine
 10
10450.07691514679
 20
4735.02879253561
 30
0.0
 11
7770.471596683556
 21
4735.02879253593
 31
0.0
  0
LINE
  5
173C7
330
747D
100
AcDbEntity
  8
細線
 48
50.0
100
AcDbLine
 10
10458.31294567164
 20
4827.22879253561
 30
0.0
 11
7770.471596683556
 21
4827.22879253561
 31
0.0
  0
LINE
  5
173C8
330
747D
100
AcDbEntity
  8
部品1
 48
50.0
100
AcDbLine
 10
10439.84785211609
 20
4714.255549972142
 30
0.0
 11
7770.471596683555
 21
4714.255549972143
 31
0.0
  0
LINE
  5
173C9
330
747D
100
AcDbEntity
  8
部品1
 48
50.0
100
AcDbLine
 10
10453.06317557712
 20
4855.255549972142
 30
0.0
 11
7770.471596683556
 21
4855.255549972142
 31
0.0
  0
LINE
  5
178FE
330
747D
100
AcDbEntity
  8
部品1
100
AcDbLine
 10
1531.702005337174
 20
2510.159360539803
 30
0.0
 11
1681.702005337174
 21
2510.159360539803
 31
0.0
  0
LINE
  5
178FF
330
747D
100
AcDbEntity
  8
部品1
100
AcDbLine
 10
1606.702005337174
 20
2380.255549972138
 30
0.0
 11
1531.702005337174
 21
2510.159360539803
 31
0.0
  0
TEXT
  5
17900
330
747D
100
AcDbEntity
  8
部品1
100
AcDbText
 10
1709.806947461948
 20
2416.36245357804
 30
0.0
 40
125.0
  1
G.L
  7
STYLE2
100
AcDbText
  0
LINE
  5
17901
330
747D
100
AcDbEntity
  8
部品1
100
AcDbLine
 10
1681.702005337174
 20
2510.159360539803
 30
0.0
 11
1606.702005337174
 21
2380.255549972138
 31
0.0
  0
LINE
  5
17902
330
747D
100
AcDbEntity
  8
部品1
100
AcDbLine
 10
2520.471596683558
 20
2480.255549972139
 30
0.0
 11
5150.471596683555
 21
2480.255549972139
 31
0.0
  0
LINE
  5
17903
330
747D
100
AcDbEntity
  8
部品1
100
AcDbLine
 10
2520.471596683558
 20
4620.255549972138
 30
0.0
 11
5150.471596683555
 21
4620.255549972138
 31
0.0
  0
LINE
  5
17904
330
747D
100
AcDbEntity
  8
部品1
100
AcDbLine
 10
2520.471596683558
 20
4714.255549972142
 30
0.0
 11
2520.471596683558
 21
2380.255549972138
 31
0.0
  0
LINE
  5
17905
330
747D
100
AcDbEntity
  8
部品1
100
AcDbLine
 10
5095.471596683555
 20
4455.255549972139
 30
0.0
 11
5095.471596683555
 21
2480.255549972139
 31
0.0
  0
LINE
  5
17906
330
747D
100
AcDbEntity
  8
部品1
100
AcDbLine
 10
2575.471596683558
 20
4455.255549972139
 30
0.0
 11
2575.471596683558
 21
2480.255549972139
 31
0.0
  0
LINE
  5
17907
330
747D
100
AcDbEntity
  8
部品1
100
AcDbLine
 10
2623.471596683558
 20
4455.255549972139
 30
0.0
 11
2623.471596683558
 21
2480.255549972139
 31
0.0
  0
LINE
  5
17908
330
747D
100
AcDbEntity
  8
部品1
100
AcDbLine
 10
5047.471596683563
 20
4455.255549972139
 30
0.0
 11
5047.471596683556
 21
2480.255549972139
 31
0.0
  0
LINE
  5
17909
330
747D
100
AcDbEntity
  8
部品1
100
AcDbLine
 10
2520.471596683558
 20
4455.255549972139
 30
0.0
 11
5205.471596683555
 21
4455.255549972139
 31
0.0
  0
LINE
  5
1790A
330
747D
100
AcDbEntity
  8
細線
100
AcDbLine
 10
2623.471596683558
 20
4115.255549972139
 30
0.0
 11
5047.471596683556
 21
4115.255549972139
 31
0.0
  0
LINE
  5
1790B
330
747D
100
AcDbEntity
  8
細線
100
AcDbLine
 10
2623.471596683558
 20
4180.255549972138
 30
0.0
 11
5047.471596683556
 21
4180.255549972138
 31
0.0
  0
LINE
  5
1790C
330
747D
100
AcDbEntity
  8
細線
100
AcDbLine
 10
2623.471596683558
 20
4245.255549972138
 30
0.0
 11
5047.471596683556
 21
4245.255549972138
 31
0.0
  0
LINE
  5
1790D
330
747D
100
AcDbEntity
  8
細線
100
AcDbLine
 10
2623.471596683558
 20
3725.255549972138
 30
0.0
 11
5047.471596683556
 21
3725.255549972138
 31
0.0
  0
LINE
  5
1790E
330
747D
100
AcDbEntity
  8
細線
100
AcDbLine
 10
2623.471596683558
 20
3790.255549972139
 30
0.0
 11
5047.471596683556
 21
3790.255549972139
 31
0.0
  0
LINE
  5
1790F
330
747D
100
AcDbEntity
  8
細線
100
AcDbLine
 10
2623.471596683558
 20
3855.255549972138
 30
0.0
 11
5047.471596683556
 21
3855.255549972138
 31
0.0
  0
LINE
  5
17910
330
747D
100
AcDbEntity
  8
細線
100
AcDbLine
 10
2623.471596683558
 20
3920.255549972138
 30
0.0
 11
5047.471596683556
 21
3920.255549972138
 31
0.0
  0
LINE
  5
17911
330
747D
100
AcDbEntity
  8
細線
100
AcDbLine
 10
2623.471596683558
 20
3985.255549972139
 30
0.0
 11
5047.471596683556
 21
3985.255549972139
 31
0.0
  0
LINE
  5
17912
330
747D
100
AcDbEntity
  8
細線
100
AcDbLine
 10
2623.471596683558
 20
4050.255549972137
 30
0.0
 11
5047.471596683556
 21
4050.255549972137
 31
0.0
  0
LINE
  5
17913
330
747D
100
AcDbEntity
  8
細線
100
AcDbLine
 10
2623.471596683558
 20
3075.255549972139
 30
0.0
 11
5047.471596683556
 21
3075.255549972139
 31
0.0
  0
LINE
  5
17914
330
747D
100
AcDbEntity
  8
細線
100
AcDbLine
 10
2623.471596683558
 20
3140.255549972139
 30
0.0
 11
5047.471596683556
 21
3140.255549972139
 31
0.0
  0
LINE
  5
17915
330
747D
100
AcDbEntity
  8
細線
100
AcDbLine
 10
2623.471596683558
 20
3205.255549972139
 30
0.0
 11
5047.471596683556
 21
3205.255549972139
 31
0.0
  0
LINE
  5
17916
330
747D
100
AcDbEntity
  8
細線
100
AcDbLine
 10
2623.471596683558
 20
3270.255549972139
 30
0.0
 11
5047.471596683556
 21
3270.255549972139
 31
0.0
  0
LINE
  5
17917
330
747D
100
AcDbEntity
  8
細線
100
AcDbLine
 10
2623.471596683558
 20
3335.255549972139
 30
0.0
 11
5047.471596683556
 21
3335.255549972139
 31
0.0
  0
LINE
  5
17918
330
747D
100
AcDbEntity
  8
細線
100
AcDbLine
 10
2623.471596683558
 20
3400.255549972138
 30
0.0
 11
5047.471596683556
 21
3400.255549972138
 31
0.0
  0
LINE
  5
17919
330
747D
100
AcDbEntity
  8
細線
100
AcDbLine
 10
2623.471596683558
 20
3465.255549972139
 30
0.0
 11
5047.471596683556
 21
3465.255549972139
 31
0.0
  0
LINE
  5
1791A
330
747D
100
AcDbEntity
  8
細線
100
AcDbLine
 10
2623.471596683558
 20
3530.255549972139
 30
0.0
 11
5047.471596683556
 21
3530.255549972139
 31
0.0
  0
LINE
  5
1791B
330
747D
100
AcDbEntity
  8
細線
100
AcDbLine
 10
2623.471596683558
 20
3595.255549972139
 30
0.0
 11
5047.471596683556
 21
3595.255549972139
 31
0.0
  0
LINE
  5
1791C
330
747D
100
AcDbEntity
  8
細線
100
AcDbLine
 10
2623.471596683558
 20
3660.255549972138
 30
0.0
 11
5047.471596683556
 21
3660.255549972138
 31
0.0
  0
LINE
  5
1791D
330
747D
100
AcDbEntity
  8
細線
100
AcDbLine
 10
2623.471596683558
 20
4375.255549972138
 30
0.0
 11
5047.471596683556
 21
4375.255549972138
 31
0.0
  0
LINE
  5
1791E
330
747D
100
AcDbEntity
  8
細線
100
AcDbLine
 10
2623.471596683558
 20
4440.255549972138
 30
0.0
 11
5047.471596683556
 21
4440.255549972138
 31
0.0
  0
LINE
  5
1791F
330
747D
100
AcDbEntity
  8
細線
100
AcDbLine
 10
2623.471596683558
 20
4310.255549972138
 30
0.0
 11
5047.471596683556
 21
4310.255549972138
 31
0.0
  0
LINE
  5
17920
330
747D
100
AcDbEntity
  8
細線
100
AcDbLine
 10
2623.471596683558
 20
2490.255549972138
 30
0.0
 11
5047.471596683556
 21
2490.255549972138
 31
0.0
  0
LINE
  5
17921
330
747D
100
AcDbEntity
  8
細線
100
AcDbLine
 10
2623.471596683558
 20
2555.255549972139
 30
0.0
 11
5047.471596683556
 21
2555.255549972139
 31
0.0
  0
LINE
  5
17922
330
747D
100
AcDbEntity
  8
細線
100
AcDbLine
 10
2623.471596683558
 20
2620.255549972139
 30
0.0
 11
5047.471596683556
 21
2620.255549972139
 31
0.0
  0
LINE
  5
17923
330
747D
100
AcDbEntity
  8
細線
100
AcDbLine
 10
2623.471596683558
 20
2685.255549972139
 30
0.0
 11
5047.471596683556
 21
2685.255549972139
 31
0.0
  0
LINE
  5
17924
330
747D
100
AcDbEntity
  8
細線
100
AcDbLine
 10
2623.471596683558
 20
2750.255549972139
 30
0.0
 11
5047.471596683556
 21
2750.255549972139
 31
0.0
  0
LINE
  5
17925
330
747D
100
AcDbEntity
  8
細線
100
AcDbLine
 10
2623.471596683558
 20
2815.255549972139
 30
0.0
 11
5047.471596683556
 21
2815.255549972139
 31
0.0
  0
LINE
  5
17926
330
747D
100
AcDbEntity
  8
細線
100
AcDbLine
 10
2623.471596683558
 20
2880.255549972139
 30
0.0
 11
5047.471596683556
 21
2880.255549972139
 31
0.0
  0
LINE
  5
17927
330
747D
100
AcDbEntity
  8
細線
100
AcDbLine
 10
2623.471596683558
 20
2945.255549972138
 30
0.0
 11
5047.471596683556
 21
2945.255549972138
 31
0.0
  0
LINE
  5
17928
330
747D
100
AcDbEntity
  8
細線
100
AcDbLine
 10
2623.471596683558
 20
3010.255549972138
 30
0.0
 11
5047.471596683556
 21
3010.255549972138
 31
0.0
  0
LINE
  5
17929
330
747D
100
AcDbEntity
  8
細線
100
AcDbLine
 10
5047.471596683556
 20
2490.255549972138
 30
0.0
 11
2623.471596683558
 21
2490.255549972138
 31
0.0
  0
CIRCLE
  5
1792A
330
747D
100
AcDbEntity
  8
細線
 48
50.0
100
AcDbCircle
 10
3835.471596683558
 20
3367.755549972139
 30
0.0
 40
18.0
  0
ARC
  5
1792B
330
747D
100
AcDbEntity
  8
細線
 48
50.0
100
AcDbCircle
 10
4135.471596683555
 20
3042.755549972139
 30
0.0
 40
15.0
100
AcDbArc
 50
270.0
 51
90.0
  0
ARC
  5
1792C
330
747D
100
AcDbEntity
  8
細線
 48
50.0
100
AcDbCircle
 10
4035.471596683556
 20
3042.755549972139
 30
0.0
 40
15.0
100
AcDbArc
 50
90.0
 51
270.0
  0
LINE
  5
1792D
330
747D
100
AcDbEntity
  8
細線
 48
50.0
100
AcDbLine
 10
4035.471596683556
 20
3057.755549972139
 30
0.0
 11
4135.471596683555
 21
3057.755549972139
 31
0.0
  0
LINE
  5
1792E
330
747D
100
AcDbEntity
  8
細線
 48
50.0
100
AcDbLine
 10
4135.471596683555
 20
3027.755549972138
 30
0.0
 11
4035.471596683556
 21
3027.755549972138
 31
0.0
  0
LINE
  5
1792F
330
747D
100
AcDbEntity
  8
細線
 48
50.0
100
AcDbLine
 10
3635.471596683558
 20
3027.755549972138
 30
0.0
 11
3535.471596683558
 21
3027.755549972138
 31
0.0
  0
LINE
  5
17930
330
747D
100
AcDbEntity
  8
細線
 48
50.0
100
AcDbLine
 10
3535.471596683558
 20
3057.755549972139
 30
0.0
 11
3635.471596683558
 21
3057.755549972139
 31
0.0
  0
ARC
  5
17931
330
747D
100
AcDbEntity
  8
細線
 48
50.0
100
AcDbCircle
 10
3635.471596683558
 20
3042.755549972139
 30
0.0
 40
15.0
100
AcDbArc
 50
270.0
 51
90.0
  0
ARC
  5
17932
330
747D
100
AcDbEntity
  8
細線
 48
50.0
100
AcDbCircle
 10
3535.471596683558
 20
3042.755549972139
 30
0.0
 40
15.0
100
AcDbArc
 50
90.0
 51
270.0
  0
DIMENSION
  5
1793E
330
747D
100
AcDbEntity
  8
寸法
 48
50.0
100
AcDbDimension
  2
*D36
 10
2470.471596683565
 20
5254.348719311611
 30
0.0
 11
2156.986315309318
 21
5254.348719311611
 31
0.0
 70
   160
 71
     5
 42
50.0
  3
INABA_S40G
100
AcDbAlignedDimension
 13
2520.471596683565
 23
4855.255549972145
 33
0.0
 14
2470.471596683565
 24
4855.255549972143
 34
0.0
100
AcDbRotatedDimension
1001
ACAD
1000
DSTYLE
1002
{
1002
}
  0
LINE
  5
1793F
330
747D
100
AcDbEntity
  8
部品1
100
AcDbLine
 10
2470.891257698895
 20
4847.859024576901
 30
0.0
 11
2472.024655031245
 21
4827.882896594303
 31
0.0
  0
LINE
  5
17940
330
747D
100
AcDbEntity
  8
部品1
100
AcDbLine
 10
2483.461675352817
 20
4732.225489427245
 30
0.0
 11
2484.106581159926
 21
4720.859024576904
 31
0.0
  0
LINE
  5
17941
330
747D
100
AcDbEntity
  8
部品1
100
AcDbLine
 10
2475.225644827973
 20
4824.425489427245
 30
0.0
 11
2480.260685556081
 21
4735.682896594302
 31
0.0
  0
ARC
  5
17942
330
747D
100
AcDbEntity
  8
部品1
 48
50.0
100
AcDbCircle
 10
2472.230461931788
 20
4824.255549972142
 30
0.0
 40
3.0
100
AcDbArc
 50
3.247342790337682
 51
82.34187279263654
  0
ARC
  5
17943
330
747D
100
AcDbEntity
  8
部品1
 48
50.0
100
AcDbCircle
 10
2480.466492456632
 20
4732.055549972141
 30
0.0
 40
3.0
100
AcDbArc
 50
3.247342790337682
 51
82.34187279263654
  0
ARC
  5
17944
330
747D
100
AcDbEntity
  8
部品1
 48
50.0
100
AcDbCircle
 10
2480.959561565193
 20
4735.722549133824
 30
0.0
 40
0.7
100
AcDbArc
 50
183.2473427902856
 51
262.3418727926365
  0
ARC
  5
17945
330
747D
100
AcDbEntity
  8
部品1
 48
50.0
100
AcDbCircle
 10
2472.723531040349
 20
4827.92254913383
 30
0.0
 40
0.7
100
AcDbArc
 50
183.2473427903897
 51
262.3418727926365
  0
ARC
  5
17946
330
747D
100
AcDbEntity
  8
部品1
100
AcDbCircle
 10
2491.095341251028
 20
4721.255549972141
 30
0.0
 40
7.0
100
AcDbArc
 50
183.2473427903377
 51
270.0
  0
ARC
  5
17947
330
747D
100
AcDbEntity
  8
部品1
100
AcDbCircle
 10
2477.880017789991
 20
4848.255549972142
 30
0.0
 40
7.0
100
AcDbArc
 50
90.0
 51
183.2473427903377
  0
LINE
  5
17948
330
747D
100
AcDbEntity
  8
細線
 48
50.0
100
AcDbLine
 10
2503.471596683565
 20
4855.255549972142
 30
0.0
 11
2503.471596683565
 21
4714.255549972142
 31
0.0
  0
LINE
  5
17949
330
747D
100
AcDbEntity
  8
細線
 48
50.0
100
AcDbLine
 10
5140.471596683556
 20
4735.028792535926
 30
0.0
 11
2480.866278220361
 21
4735.02879253593
 31
0.0
  0
LINE
  5
1794A
330
747D
100
AcDbEntity
  8
細線
 48
50.0
100
AcDbLine
 10
5140.471596683556
 20
4827.22879253561
 30
0.0
 11
2472.630247695525
 21
4827.22879253593
 31
0.0
  0
LINE
  5
1794B
330
747D
100
AcDbEntity
  8
部品1
 48
50.0
100
AcDbLine
 10
5150.471596683555
 20
4714.255549972142
 30
0.0
 11
2491.095341251028
 21
4714.255549972142
 31
0.0
  0
LINE
  5
1794C
330
747D
100
AcDbEntity
  8
部品1
 48
50.0
100
AcDbLine
 10
5140.471596683556
 20
4855.255549972142
 30
0.0
 11
2477.880017789991
 21
4855.255549972142
 31
0.0
  0
LINE
  5
17979
330
747D
100
AcDbEntity
  8
部品1
 48
50.0
100
AcDbLine
 10
5140.471596683556
 20
4714.255549972142
 30
0.0
 11
5140.471596683556
 21
4855.255549972143
 31
0.0
  0
LINE
  5
1797A
330
747D
100
AcDbEntity
  8
部品1
 48
50.0
100
AcDbLine
 10
5150.471596683555
 20
4455.255549972139
 30
0.0
 11
5150.471596683555
 21
4714.255549972142
 31
0.0
  0
DIMENSION
  5
17A82
330
747D
100
AcDbEntity
  8
寸法
 48
50.0
100
AcDbDimension
  2
*D38
 10
2520.471596683565
 20
5254.348719311611
 30
0.0
 11
6465.471596683561
 21
5254.348719311611
 31
0.0
 70
   160
  1
柱外寸法 N X 2630
 71
     5
 42
7889.999999999993
  3
INABA_S40G
100
AcDbAlignedDimension
 13
10410.47159668355
 23
4855.255549972143
 33
0.0
 14
2520.471596683565
 24
4855.255549972145
 34
0.0
100
AcDbRotatedDimension
  0
DIMENSION
  5
17A83
330
747D
100
AcDbEntity
  8
寸法
 48
50.0
100
AcDbDimension
  2
*D37
 10
10460.47159668356
 20
5470.874818930057
 30
0.0
 11
6465.471596683561
 21
5470.874818930057
 31
0.0
 70
   160
  1
N X 2630+100
 71
     5
 42
7989.999999999993
  3
INABA_S40G
100
AcDbAlignedDimension
 13
2470.471596683565
 23
4855.255549972143
 33
0.0
 14
10460.47159668356
 24
4855.255549972142
 34
0.0
100
AcDbRotatedDimension
  0
LINE
  5
17B0D
330
747D
100
AcDbEntity
  8
Ｇ．Ｌ
100
AcDbLine
 10
1363.792317140559
 20
2380.255549972138
 30
0.0
 11
15826.59208510672
 21
2380.255549972138
 31
0.0
  0
LINE
  5
17B22
330
747D
100
AcDbEntity
  8
細線
 48
50.0
100
AcDbLine
 10
7770.471596683553
 20
4827.22879253561
 30
0.0
 11
5140.471596683556
 21
4827.22879253561
 31
0.0
  0
LINE
  5
17B23
330
747D
100
AcDbEntity
  8
部品1
 48
50.0
100
AcDbLine
 10
7770.471596683553
 20
4855.255549972142
 30
0.0
 11
5140.471596683556
 21
4855.255549972142
 31
0.0
  0
LINE
  5
17B24
330
747D
100
AcDbEntity
  8
細線
 48
50.0
100
AcDbLine
 10
7770.471596683553
 20
4735.028792535925
 30
0.0
 11
5140.471596683556
 21
4735.028792535926
 31
0.0
  0
LINE
  5
17B25
330
747D
100
AcDbEntity
  8
部品1
 48
50.0
100
AcDbLine
 10
7770.471596683555
 20
4714.255549972142
 30
0.0
 11
5150.471596683555
 21
4714.255549972142
 31
0.0
  0
LINE
  5
17C7B
330
747D
100
AcDbEntity
  8
補助
  6
PHANTOM
 62
   230
 48
50.0
100
AcDbLine
 10
140.0
 20
0.0
 30
0.0
 11
140.0
 21
11409.6
 31
0.0
  0
DIMENSION
  5
17DDC
330
747D
100
AcDbEntity
  8
寸法
 48
50.0
100
AcDbDimension
  2
*D39
 10
10698.0146990053
 20
4620.255549972138
 30
0.0
 11
10698.0146990053
 21
4858.740831346378
 31
0.0
 70
   160
 71
     5
 42
165.0
  3
INABA_S40G
100
AcDbAlignedDimension
 13
10410.47159668355
 23
4455.255549972139
 33
0.0
 14
10410.47159668355
 24
4620.255549972138
 34
0.0
 50
90.0
100
AcDbRotatedDimension
1001
ACAD
1000
DSTYLE
1002
{
1002
}
  0
DIMENSION
  5
17DDD
330
747D
100
AcDbEntity
  8
寸法
 48
50.0
100
AcDbDimension
  2
*D40
 10
10698.0146990053
 20
4455.255549972139
 30
0.0
 11
10838.18452225166
 21
4456.222749811797
 31
0.0
 70
   160
 71
     5
 42
27.00000000000091
  3
INABA_S40G
100
AcDbAlignedDimension
 13
10410.47159668355
 23
4428.255549972138
 33
0.0
 14
10410.47159668355
 24
4455.255549972139
 34
0.0
 50
90.0
100
AcDbRotatedDimension
1001
ACAD
1000
DSTYLE
1002
{
1070
   279
1070
     2
1002
}
  0
DIMENSION
  5
17DDE
330
747D
100
AcDbEntity
  8
寸法
 48
50.0
100
AcDbDimension
  2
*D41
 10
10698.0146990053
 20
4428.255549972138
 30
0.0
 11
10598.0146990053
 21
3454.25554997214
 31
0.0
 70
    32
  1
有効開口部高サ <>
 71
     5
 42
1948.0
  3
INABA_S40G
100
AcDbAlignedDimension
 13
10410.47159668355
 23
2480.255549972139
 33
0.0
 14
10410.47159668355
 24
4428.255549972138
 34
0.0
 50
90.0
100
AcDbRotatedDimension
  0
ARC
  5
180B0
330
747D
100
AcDbEntity
  8
部品1
 48
0.01
100
AcDbCircle
 10
4362.471596683559
 20
4652.755549972138
 30
0.0
 40
2.0
100
AcDbArc
 50
180.0
 51
270.0
  0
ARC
  5
180B1
330
747D
100
AcDbEntity
  8
部品1
 48
0.01
100
AcDbCircle
 10
4538.471596683559
 20
4652.755549972138
 30
0.0
 40
2.0
100
AcDbArc
 50
270.0
 51
0.0
  0
LINE
  5
180B2
330
747D
100
AcDbEntity
  8
部品1
 48
0.01
100
AcDbLine
 10
4538.471596683559
 20
4650.755549972138
 30
0.0
 11
4362.471596683559
 21
4650.755549972138
 31
0.0
  0
LINE
  5
180B3
330
747D
100
AcDbEntity
  8
部品1
 48
0.01
100
AcDbLine
 10
3132.47159668356
 20
4650.755549972138
 30
0.0
 11
3308.471596683556
 21
4650.755549972138
 31
0.0
  0
ARC
  5
180B4
330
747D
100
AcDbEntity
  8
部品1
 48
0.01
100
AcDbCircle
 10
3132.47159668356
 20
4652.755549972138
 30
0.0
 40
2.0
100
AcDbArc
 50
180.0
 51
270.0
  0
ARC
  5
180B5
330
747D
100
AcDbEntity
  8
部品1
 48
0.01
100
AcDbCircle
 10
3308.471596683556
 20
4652.755549972138
 30
0.0
 40
2.0
100
AcDbArc
 50
270.0
 51
0.0
  0
ARC
  5
180B6
330
747D
100
AcDbEntity
  8
部品1
 48
0.01
100
AcDbCircle
 10
4362.471596683559
 20
4684.255549972138
 30
0.0
 40
2.0
100
AcDbArc
 50
90.0
 51
180.0
  0
ARC
  5
180B7
330
747D
100
AcDbEntity
  8
部品1
 48
0.01
100
AcDbCircle
 10
4538.471596683559
 20
4684.255549972138
 30
0.0
 40
2.0
100
AcDbArc
 50
0.0
 51
90.0
  0
LINE
  5
180B8
330
747D
100
AcDbEntity
  8
細線
100
AcDbLine
 10
4450.471596683558
 20
4656.755549972138
 30
0.0
 11
4376.471596683559
 21
4656.755549972138
 31
0.0
  0
LINE
  5
180B9
330
747D
100
AcDbEntity
  8
細線
100
AcDbLine
 10
4450.471596683558
 20
4679.755549972138
 30
0.0
 11
4524.471596683559
 21
4679.755549972138
 31
0.0
  0
LINE
  5
180BA
330
747D
100
AcDbEntity
  8
細線
100
AcDbLine
 10
4524.471596683559
 20
4656.755549972138
 30
0.0
 11
4450.471596683558
 21
4656.755549972138
 31
0.0
  0
LINE
  5
180BB
330
747D
100
AcDbEntity
  8
細線
100
AcDbLine
 10
4376.471596683559
 20
4679.755549972138
 30
0.0
 11
4450.471596683558
 21
4679.755549972138
 31
0.0
  0
LINE
  5
180BC
330
747D
100
AcDbEntity
  8
細線
100
AcDbLine
 10
4376.471596683559
 20
4656.755549972138
 30
0.0
 11
4376.471596683559
 21
4679.755549972138
 31
0.0
  0
LINE
  5
180BD
330
747D
100
AcDbEntity
  8
細線
100
AcDbLine
 10
4524.471596683559
 20
4679.755549972138
 30
0.0
 11
4524.471596683559
 21
4656.755549972138
 31
0.0
  0
LINE
  5
180BE
330
747D
100
AcDbEntity
  8
部品1
 48
0.01
100
AcDbLine
 10
4360.471596683558
 20
4652.755549972138
 30
0.0
 11
4360.471596683558
 21
4684.255549972138
 31
0.0
  0
LINE
  5
180BF
330
747D
100
AcDbEntity
  8
部品1
 48
0.01
100
AcDbLine
 10
4540.471596683559
 20
4684.255549972138
 30
0.0
 11
4540.471596683559
 21
4652.755549972138
 31
0.0
  0
LINE
  5
180C0
330
747D
100
AcDbEntity
  8
部品1
 48
0.01
100
AcDbLine
 10
4362.471596683559
 20
4686.255549972139
 30
0.0
 11
4538.471596683559
 21
4686.255549972139
 31
0.0
  0
LINE
  5
180C1
330
747D
100
AcDbEntity
  8
細線
100
AcDbLine
 10
4524.471596683559
 20
4673.755549972138
 30
0.0
 11
4450.471596683558
 21
4673.755549972138
 31
0.0
  0
LINE
  5
180C2
330
747D
100
AcDbEntity
  8
細線
100
AcDbLine
 10
4524.471596683559
 20
4667.755549972138
 30
0.0
 11
4450.471596683558
 21
4667.755549972138
 31
0.0
  0
LINE
  5
180C3
330
747D
100
AcDbEntity
  8
細線
100
AcDbLine
 10
4524.471596683559
 20
4661.755549972138
 30
0.0
 11
4450.471596683558
 21
4661.755549972138
 31
0.0
  0
LINE
  5
180C4
330
747D
100
AcDbEntity
  8
細線
100
AcDbLine
 10
4524.471596683559
 20
4673.755549972138
 30
0.0
 11
4455.471596683559
 21
4673.755549972138
 31
0.0
  0
LINE
  5
180C5
330
747D
100
AcDbEntity
  8
細線
100
AcDbLine
 10
4376.471596683559
 20
4673.755549972138
 30
0.0
 11
4450.471596683558
 21
4673.755549972138
 31
0.0
  0
LINE
  5
180C6
330
747D
100
AcDbEntity
  8
細線
100
AcDbLine
 10
4376.471596683559
 20
4661.755549972138
 30
0.0
 11
4450.471596683558
 21
4661.755549972138
 31
0.0
  0
LINE
  5
180C7
330
747D
100
AcDbEntity
  8
細線
100
AcDbLine
 10
4376.471596683559
 20
4667.755549972138
 30
0.0
 11
4450.471596683558
 21
4667.755549972138
 31
0.0
  0
LINE
  5
180C8
330
747D
100
AcDbEntity
  8
細線
100
AcDbLine
 10
4450.471596683558
 20
4679.755549972138
 30
0.0
 11
4450.471596683558
 21
4656.755549972138
 31
0.0
  0
LINE
  5
180C9
330
747D
100
AcDbEntity
  8
細線
100
AcDbLine
 10
3220.471596683559
 20
4679.755549972138
 30
0.0
 11
3220.471596683556
 21
4656.755549972138
 31
0.0
  0
LINE
  5
180CA
330
747D
100
AcDbEntity
  8
細線
100
AcDbLine
 10
3294.471596683556
 20
4667.755549972138
 30
0.0
 11
3220.471596683559
 21
4667.755549972138
 31
0.0
  0
LINE
  5
180CB
330
747D
100
AcDbEntity
  8
細線
100
AcDbLine
 10
3294.471596683556
 20
4661.755549972138
 30
0.0
 11
3220.471596683559
 21
4661.755549972138
 31
0.0
  0
LINE
  5
180CC
330
747D
100
AcDbEntity
  8
細線
100
AcDbLine
 10
3294.471596683556
 20
4673.755549972138
 30
0.0
 11
3220.471596683559
 21
4673.755549972138
 31
0.0
  0
LINE
  5
180CD
330
747D
100
AcDbEntity
  8
細線
100
AcDbLine
 10
3146.471596683559
 20
4673.755549972138
 30
0.0
 11
3215.47159668356
 21
4673.755549972138
 31
0.0
  0
LINE
  5
180CE
330
747D
100
AcDbEntity
  8
細線
100
AcDbLine
 10
3146.471596683556
 20
4661.755549972138
 30
0.0
 11
3220.471596683559
 21
4661.755549972138
 31
0.0
  0
LINE
  5
180CF
330
747D
100
AcDbEntity
  8
細線
100
AcDbLine
 10
3146.471596683559
 20
4667.755549972138
 30
0.0
 11
3220.471596683559
 21
4667.755549972138
 31
0.0
  0
LINE
  5
180D0
330
747D
100
AcDbEntity
  8
細線
100
AcDbLine
 10
3146.471596683559
 20
4673.755549972138
 30
0.0
 11
3220.471596683559
 21
4673.755549972138
 31
0.0
  0
LINE
  5
180D1
330
747D
100
AcDbEntity
  8
部品1
 48
0.01
100
AcDbLine
 10
3308.47159668356
 20
4686.255549972139
 30
0.0
 11
3132.47159668356
 21
4686.255549972139
 31
0.0
  0
LINE
  5
180D2
330
747D
100
AcDbEntity
  8
部品1
 48
0.01
100
AcDbLine
 10
3130.471596683559
 20
4684.255549972138
 30
0.0
 11
3130.471596683559
 21
4652.755549972138
 31
0.0
  0
LINE
  5
180D3
330
747D
100
AcDbEntity
  8
部品1
 48
0.01
100
AcDbLine
 10
3310.471596683556
 20
4652.755549972138
 30
0.0
 11
3310.471596683559
 21
4684.255549972138
 31
0.0
  0
LINE
  5
180D4
330
747D
100
AcDbEntity
  8
細線
100
AcDbLine
 10
3146.471596683559
 20
4679.755549972138
 30
0.0
 11
3146.471596683559
 21
4656.755549972138
 31
0.0
  0
LINE
  5
180D5
330
747D
100
AcDbEntity
  8
細線
100
AcDbLine
 10
3294.47159668356
 20
4656.755549972138
 30
0.0
 11
3294.47159668356
 21
4679.755549972138
 31
0.0
  0
LINE
  5
180D6
330
747D
100
AcDbEntity
  8
細線
100
AcDbLine
 10
3294.47159668356
 20
4679.755549972138
 30
0.0
 11
3220.471596683559
 21
4679.755549972138
 31
0.0
  0
LINE
  5
180D7
330
747D
100
AcDbEntity
  8
細線
100
AcDbLine
 10
3146.471596683559
 20
4656.755549972138
 30
0.0
 11
3220.471596683559
 21
4656.755549972138
 31
0.0
  0
LINE
  5
180D8
330
747D
100
AcDbEntity
  8
細線
100
AcDbLine
 10
3220.471596683559
 20
4679.755549972138
 30
0.0
 11
3146.471596683559
 21
4679.755549972138
 31
0.0
  0
LINE
  5
180D9
330
747D
100
AcDbEntity
  8
細線
100
AcDbLine
 10
3220.471596683556
 20
4656.755549972138
 30
0.0
 11
3294.47159668356
 21
4656.755549972138
 31
0.0
  0
ARC
  5
180DA
330
747D
100
AcDbEntity
  8
部品1
 48
0.01
100
AcDbCircle
 10
3132.47159668356
 20
4684.255549972138
 30
0.0
 40
2.0
100
AcDbArc
 50
90.0
 51
180.0
  0
ARC
  5
180DB
330
747D
100
AcDbEntity
  8
部品1
 48
0.01
100
AcDbCircle
 10
3308.47159668356
 20
4684.255549972138
 30
0.0
 40
2.0
100
AcDbArc
 50
0.0
 51
90.0
  0
ARC
  5
18241
330
747D
100
AcDbEntity
  8
部品1
 48
0.01
100
AcDbCircle
 10
5938.471596683559
 20
4684.255549972138
 30
0.0
 40
2.0
100
AcDbArc
 50
0.0
 51
90.0
  0
ARC
  5
18242
330
747D
100
AcDbEntity
  8
部品1
 48
0.01
100
AcDbCircle
 10
5762.47159668356
 20
4684.255549972138
 30
0.0
 40
2.0
100
AcDbArc
 50
90.0
 51
180.0
  0
LINE
  5
18243
330
747D
100
AcDbEntity
  8
細線
100
AcDbLine
 10
5850.471596683555
 20
4656.755549972138
 30
0.0
 11
5924.471596683559
 21
4656.755549972138
 31
0.0
  0
LINE
  5
18244
330
747D
100
AcDbEntity
  8
細線
100
AcDbLine
 10
5850.471596683559
 20
4679.755549972138
 30
0.0
 11
5776.47159668356
 21
4679.755549972138
 31
0.0
  0
LINE
  5
18245
330
747D
100
AcDbEntity
  8
細線
100
AcDbLine
 10
5776.47159668356
 20
4656.755549972138
 30
0.0
 11
5850.471596683559
 21
4656.755549972138
 31
0.0
  0
LINE
  5
18246
330
747D
100
AcDbEntity
  8
細線
100
AcDbLine
 10
5924.471596683559
 20
4679.755549972138
 30
0.0
 11
5850.471596683559
 21
4679.755549972138
 31
0.0
  0
LINE
  5
18247
330
747D
100
AcDbEntity
  8
細線
100
AcDbLine
 10
5924.471596683559
 20
4656.755549972138
 30
0.0
 11
5924.471596683559
 21
4679.755549972138
 31
0.0
  0
LINE
  5
18248
330
747D
100
AcDbEntity
  8
細線
100
AcDbLine
 10
5776.47159668356
 20
4679.755549972138
 30
0.0
 11
5776.47159668356
 21
4656.755549972138
 31
0.0
  0
LINE
  5
18249
330
747D
100
AcDbEntity
  8
部品1
 48
0.01
100
AcDbLine
 10
5940.471596683556
 20
4652.755549972138
 30
0.0
 11
5940.471596683559
 21
4684.255549972138
 31
0.0
  0
LINE
  5
1824A
330
747D
100
AcDbEntity
  8
部品1
 48
0.01
100
AcDbLine
 10
5760.471596683559
 20
4684.255549972138
 30
0.0
 11
5760.471596683559
 21
4652.755549972138
 31
0.0
  0
LINE
  5
1824B
330
747D
100
AcDbEntity
  8
部品1
 48
0.01
100
AcDbLine
 10
5938.471596683559
 20
4686.255549972139
 30
0.0
 11
5762.47159668356
 21
4686.255549972139
 31
0.0
  0
LINE
  5
1824C
330
747D
100
AcDbEntity
  8
細線
100
AcDbLine
 10
5776.47159668356
 20
4673.755549972138
 30
0.0
 11
5850.471596683559
 21
4673.755549972138
 31
0.0
  0
LINE
  5
1824D
330
747D
100
AcDbEntity
  8
細線
100
AcDbLine
 10
5776.47159668356
 20
4667.755549972138
 30
0.0
 11
5850.471596683559
 21
4667.755549972138
 31
0.0
  0
LINE
  5
1824E
330
747D
100
AcDbEntity
  8
細線
100
AcDbLine
 10
5776.471596683556
 20
4661.755549972138
 30
0.0
 11
5850.471596683559
 21
4661.755549972138
 31
0.0
  0
LINE
  5
1824F
330
747D
100
AcDbEntity
  8
細線
100
AcDbLine
 10
5776.47159668356
 20
4673.755549972138
 30
0.0
 11
5845.471596683559
 21
4673.755549972138
 31
0.0
  0
LINE
  5
18250
330
747D
100
AcDbEntity
  8
細線
100
AcDbLine
 10
5924.471596683556
 20
4673.755549972138
 30
0.0
 11
5850.471596683559
 21
4673.755549972138
 31
0.0
  0
LINE
  5
18251
330
747D
100
AcDbEntity
  8
細線
100
AcDbLine
 10
5924.471596683556
 20
4661.755549972138
 30
0.0
 11
5850.471596683559
 21
4661.755549972138
 31
0.0
  0
LINE
  5
18252
330
747D
100
AcDbEntity
  8
細線
100
AcDbLine
 10
5924.471596683556
 20
4667.755549972138
 30
0.0
 11
5850.471596683559
 21
4667.755549972138
 31
0.0
  0
LINE
  5
18253
330
747D
100
AcDbEntity
  8
細線
100
AcDbLine
 10
5850.471596683559
 20
4679.755549972138
 30
0.0
 11
5850.471596683555
 21
4656.755549972138
 31
0.0
  0
LINE
  5
18254
330
747D
100
AcDbEntity
  8
細線
100
AcDbLine
 10
7080.471596683558
 20
4679.755549972138
 30
0.0
 11
7080.471596683558
 21
4656.755549972138
 31
0.0
  0
LINE
  5
18255
330
747D
100
AcDbEntity
  8
細線
100
AcDbLine
 10
7006.471596683559
 20
4667.755549972138
 30
0.0
 11
7080.471596683558
 21
4667.755549972138
 31
0.0
  0
LINE
  5
18256
330
747D
100
AcDbEntity
  8
細線
100
AcDbLine
 10
7006.471596683559
 20
4661.755549972138
 30
0.0
 11
7080.471596683558
 21
4661.755549972138
 31
0.0
  0
LINE
  5
18257
330
747D
100
AcDbEntity
  8
細線
100
AcDbLine
 10
7006.471596683559
 20
4673.755549972138
 30
0.0
 11
7080.471596683558
 21
4673.755549972138
 31
0.0
  0
LINE
  5
18258
330
747D
100
AcDbEntity
  8
細線
100
AcDbLine
 10
7154.47159668356
 20
4673.755549972138
 30
0.0
 11
7085.47159668356
 21
4673.755549972138
 31
0.0
  0
LINE
  5
18259
330
747D
100
AcDbEntity
  8
細線
100
AcDbLine
 10
7154.47159668356
 20
4661.755549972138
 30
0.0
 11
7080.471596683558
 21
4661.755549972138
 31
0.0
  0
LINE
  5
1825A
330
747D
100
AcDbEntity
  8
細線
100
AcDbLine
 10
7154.47159668356
 20
4667.755549972138
 30
0.0
 11
7080.471596683558
 21
4667.755549972138
 31
0.0
  0
LINE
  5
1825B
330
747D
100
AcDbEntity
  8
細線
100
AcDbLine
 10
7154.47159668356
 20
4673.755549972138
 30
0.0
 11
7080.471596683558
 21
4673.755549972138
 31
0.0
  0
LINE
  5
1825C
330
747D
100
AcDbEntity
  8
部品1
 48
0.01
100
AcDbLine
 10
6992.471596683559
 20
4686.255549972139
 30
0.0
 11
7168.471596683559
 21
4686.255549972139
 31
0.0
  0
LINE
  5
1825D
330
747D
100
AcDbEntity
  8
部品1
 48
0.01
100
AcDbLine
 10
7170.471596683559
 20
4684.255549972138
 30
0.0
 11
7170.471596683559
 21
4652.755549972138
 31
0.0
  0
LINE
  5
1825E
330
747D
100
AcDbEntity
  8
部品1
 48
0.01
100
AcDbLine
 10
6990.471596683559
 20
4652.755549972138
 30
0.0
 11
6990.471596683559
 21
4684.255549972138
 31
0.0
  0
LINE
  5
1825F
330
747D
100
AcDbEntity
  8
細線
100
AcDbLine
 10
7154.47159668356
 20
4679.755549972138
 30
0.0
 11
7154.47159668356
 21
4656.755549972138
 31
0.0
  0
LINE
  5
18260
330
747D
100
AcDbEntity
  8
細線
100
AcDbLine
 10
7006.471596683559
 20
4656.755549972138
 30
0.0
 11
7006.471596683559
 21
4679.755549972138
 31
0.0
  0
LINE
  5
18261
330
747D
100
AcDbEntity
  8
細線
100
AcDbLine
 10
7006.471596683559
 20
4679.755549972138
 30
0.0
 11
7080.471596683558
 21
4679.755549972138
 31
0.0
  0
LINE
  5
18262
330
747D
100
AcDbEntity
  8
細線
100
AcDbLine
 10
7154.47159668356
 20
4656.755549972138
 30
0.0
 11
7080.471596683558
 21
4656.755549972138
 31
0.0
  0
LINE
  5
18263
330
747D
100
AcDbEntity
  8
細線
100
AcDbLine
 10
7080.471596683558
 20
4679.755549972138
 30
0.0
 11
7154.47159668356
 21
4679.755549972138
 31
0.0
  0
LINE
  5
18264
330
747D
100
AcDbEntity
  8
細線
100
AcDbLine
 10
7080.471596683558
 20
4656.755549972138
 30
0.0
 11
7006.471596683559
 21
4656.755549972138
 31
0.0
  0
ARC
  5
18265
330
747D
100
AcDbEntity
  8
部品1
 48
0.01
100
AcDbCircle
 10
7168.471596683559
 20
4684.255549972138
 30
0.0
 40
2.0
100
AcDbArc
 50
0.0
 51
90.0
  0
ARC
  5
18266
330
747D
100
AcDbEntity
  8
部品1
 48
0.01
100
AcDbCircle
 10
6992.471596683559
 20
4684.255549972138
 30
0.0
 40
2.0
100
AcDbArc
 50
90.0
 51
180.0
  0
ARC
  5
18267
330
747D
100
AcDbEntity
  8
部品1
 48
0.01
100
AcDbCircle
 10
5938.471596683555
 20
4652.755549972138
 30
0.0
 40
2.0
100
AcDbArc
 50
270.0
 51
0.0
  0
ARC
  5
18268
330
747D
100
AcDbEntity
  8
部品1
 48
0.01
100
AcDbCircle
 10
5762.47159668356
 20
4652.755549972138
 30
0.0
 40
2.0
100
AcDbArc
 50
180.0
 51
270.0
  0
LINE
  5
18269
330
747D
100
AcDbEntity
  8
部品1
 48
0.01
100
AcDbLine
 10
5762.47159668356
 20
4650.755549972138
 30
0.0
 11
5938.471596683555
 21
4650.755549972138
 31
0.0
  0
LINE
  5
1826A
330
747D
100
AcDbEntity
  8
部品1
 48
0.01
100
AcDbLine
 10
7168.471596683559
 20
4650.755549972138
 30
0.0
 11
6992.471596683559
 21
4650.755549972138
 31
0.0
  0
ARC
  5
1826B
330
747D
100
AcDbEntity
  8
部品1
 48
0.01
100
AcDbCircle
 10
7168.471596683559
 20
4652.755549972138
 30
0.0
 40
2.0
100
AcDbArc
 50
270.0
 51
0.0
  0
ARC
  5
1826C
330
747D
100
AcDbEntity
  8
部品1
 48
0.01
100
AcDbCircle
 10
6992.471596683559
 20
4652.755549972138
 30
0.0
 40
2.0
100
AcDbArc
 50
180.0
 51
270.0
  0
ARC
  5
1826D
330
747D
100
AcDbEntity
  8
部品1
 48
0.01
100
AcDbCircle
 10
9622.471596683558
 20
4652.755549972138
 30
0.0
 40
2.0
100
AcDbArc
 50
180.0
 51
270.0
  0
ARC
  5
1826E
330
747D
100
AcDbEntity
  8
部品1
 48
0.01
100
AcDbCircle
 10
9798.471596683558
 20
4652.755549972138
 30
0.0
 40
2.0
100
AcDbArc
 50
270.0
 51
0.0
  0
LINE
  5
1826F
330
747D
100
AcDbEntity
  8
部品1
 48
0.01
100
AcDbLine
 10
9798.471596683558
 20
4650.755549972138
 30
0.0
 11
9622.471596683558
 21
4650.755549972138
 31
0.0
  0
LINE
  5
18270
330
747D
100
AcDbEntity
  8
部品1
 48
0.01
100
AcDbLine
 10
8392.471596683558
 20
4650.755549972138
 30
0.0
 11
8568.471596683554
 21
4650.755549972138
 31
0.0
  0
ARC
  5
18271
330
747D
100
AcDbEntity
  8
部品1
 48
0.01
100
AcDbCircle
 10
8392.471596683558
 20
4652.755549972138
 30
0.0
 40
2.0
100
AcDbArc
 50
180.0
 51
270.0
  0
ARC
  5
18272
330
747D
100
AcDbEntity
  8
部品1
 48
0.01
100
AcDbCircle
 10
8568.471596683554
 20
4652.755549972138
 30
0.0
 40
2.0
100
AcDbArc
 50
270.0
 51
0.0
  0
ARC
  5
18273
330
747D
100
AcDbEntity
  8
部品1
 48
0.01
100
AcDbCircle
 10
9622.471596683558
 20
4684.255549972138
 30
0.0
 40
2.0
100
AcDbArc
 50
90.0
 51
180.0
  0
ARC
  5
18274
330
747D
100
AcDbEntity
  8
部品1
 48
0.01
100
AcDbCircle
 10
9798.471596683558
 20
4684.255549972138
 30
0.0
 40
2.0
100
AcDbArc
 50
0.0
 51
90.0
  0
LINE
  5
18275
330
747D
100
AcDbEntity
  8
細線
100
AcDbLine
 10
9710.471596683557
 20
4656.755549972138
 30
0.0
 11
9636.471596683557
 21
4656.755549972138
 31
0.0
  0
LINE
  5
18276
330
747D
100
AcDbEntity
  8
細線
100
AcDbLine
 10
9710.471596683557
 20
4679.755549972138
 30
0.0
 11
9784.471596683559
 21
4679.755549972138
 31
0.0
  0
LINE
  5
18277
330
747D
100
AcDbEntity
  8
細線
100
AcDbLine
 10
9784.471596683559
 20
4656.755549972138
 30
0.0
 11
9710.471596683557
 21
4656.755549972138
 31
0.0
  0
LINE
  5
18278
330
747D
100
AcDbEntity
  8
細線
100
AcDbLine
 10
9636.471596683557
 20
4679.755549972138
 30
0.0
 11
9710.471596683557
 21
4679.755549972138
 31
0.0
  0
LINE
  5
18279
330
747D
100
AcDbEntity
  8
細線
100
AcDbLine
 10
9636.471596683557
 20
4656.755549972138
 30
0.0
 11
9636.471596683557
 21
4679.755549972138
 31
0.0
  0
LINE
  5
1827A
330
747D
100
AcDbEntity
  8
細線
100
AcDbLine
 10
9784.471596683559
 20
4679.755549972138
 30
0.0
 11
9784.471596683559
 21
4656.755549972138
 31
0.0
  0
LINE
  5
1827B
330
747D
100
AcDbEntity
  8
部品1
 48
0.01
100
AcDbLine
 10
9620.471596683557
 20
4652.755549972138
 30
0.0
 11
9620.471596683557
 21
4684.255549972138
 31
0.0
  0
LINE
  5
1827C
330
747D
100
AcDbEntity
  8
部品1
 48
0.01
100
AcDbLine
 10
9800.471596683557
 20
4684.255549972138
 30
0.0
 11
9800.471596683557
 21
4652.755549972138
 31
0.0
  0
LINE
  5
1827D
330
747D
100
AcDbEntity
  8
部品1
 48
0.01
100
AcDbLine
 10
9622.471596683558
 20
4686.255549972139
 30
0.0
 11
9798.471596683558
 21
4686.255549972139
 31
0.0
  0
LINE
  5
1827E
330
747D
100
AcDbEntity
  8
細線
100
AcDbLine
 10
9784.471596683559
 20
4673.755549972138
 30
0.0
 11
9710.471596683557
 21
4673.755549972138
 31
0.0
  0
LINE
  5
1827F
330
747D
100
AcDbEntity
  8
細線
100
AcDbLine
 10
9784.471596683559
 20
4667.755549972138
 30
0.0
 11
9710.471596683557
 21
4667.755549972138
 31
0.0
  0
LINE
  5
18280
330
747D
100
AcDbEntity
  8
細線
100
AcDbLine
 10
9784.471596683559
 20
4661.755549972138
 30
0.0
 11
9710.471596683557
 21
4661.755549972138
 31
0.0
  0
LINE
  5
18281
330
747D
100
AcDbEntity
  8
細線
100
AcDbLine
 10
9784.471596683559
 20
4673.755549972138
 30
0.0
 11
9715.471596683558
 21
4673.755549972138
 31
0.0
  0
LINE
  5
18282
330
747D
100
AcDbEntity
  8
細線
100
AcDbLine
 10
9636.471596683557
 20
4673.755549972138
 30
0.0
 11
9710.471596683557
 21
4673.755549972138
 31
0.0
  0
LINE
  5
18283
330
747D
100
AcDbEntity
  8
細線
100
AcDbLine
 10
9636.471596683557
 20
4661.755549972138
 30
0.0
 11
9710.471596683557
 21
4661.755549972138
 31
0.0
  0
LINE
  5
18284
330
747D
100
AcDbEntity
  8
細線
100
AcDbLine
 10
9636.471596683557
 20
4667.755549972138
 30
0.0
 11
9710.471596683557
 21
4667.755549972138
 31
0.0
  0
LINE
  5
18285
330
747D
100
AcDbEntity
  8
細線
100
AcDbLine
 10
9710.471596683557
 20
4679.755549972138
 30
0.0
 11
9710.471596683557
 21
4656.755549972138
 31
0.0
  0
LINE
  5
18286
330
747D
100
AcDbEntity
  8
細線
100
AcDbLine
 10
8480.471596683557
 20
4679.755549972138
 30
0.0
 11
8480.471596683555
 21
4656.755549972138
 31
0.0
  0
LINE
  5
18287
330
747D
100
AcDbEntity
  8
細線
100
AcDbLine
 10
8554.471596683553
 20
4667.755549972138
 30
0.0
 11
8480.471596683557
 21
4667.755549972138
 31
0.0
  0
LINE
  5
18288
330
747D
100
AcDbEntity
  8
細線
100
AcDbLine
 10
8554.471596683553
 20
4661.755549972138
 30
0.0
 11
8480.471596683557
 21
4661.755549972138
 31
0.0
  0
LINE
  5
18289
330
747D
100
AcDbEntity
  8
細線
100
AcDbLine
 10
8554.471596683553
 20
4673.755549972138
 30
0.0
 11
8480.471596683557
 21
4673.755549972138
 31
0.0
  0
LINE
  5
1828A
330
747D
100
AcDbEntity
  8
細線
100
AcDbLine
 10
8406.471596683557
 20
4673.755549972138
 30
0.0
 11
8475.471596683558
 21
4673.755549972138
 31
0.0
  0
LINE
  5
1828B
330
747D
100
AcDbEntity
  8
細線
100
AcDbLine
 10
8406.471596683553
 20
4661.755549972138
 30
0.0
 11
8480.471596683557
 21
4661.755549972138
 31
0.0
  0
LINE
  5
1828C
330
747D
100
AcDbEntity
  8
細線
100
AcDbLine
 10
8406.471596683557
 20
4667.755549972138
 30
0.0
 11
8480.471596683557
 21
4667.755549972138
 31
0.0
  0
LINE
  5
1828D
330
747D
100
AcDbEntity
  8
細線
100
AcDbLine
 10
8406.471596683557
 20
4673.755549972138
 30
0.0
 11
8480.471596683557
 21
4673.755549972138
 31
0.0
  0
LINE
  5
1828E
330
747D
100
AcDbEntity
  8
部品1
 48
0.01
100
AcDbLine
 10
8568.471596683558
 20
4686.255549972139
 30
0.0
 11
8392.471596683558
 21
4686.255549972139
 31
0.0
  0
LINE
  5
1828F
330
747D
100
AcDbEntity
  8
部品1
 48
0.01
100
AcDbLine
 10
8390.471596683559
 20
4684.255549972138
 30
0.0
 11
8390.471596683559
 21
4652.755549972138
 31
0.0
  0
LINE
  5
18290
330
747D
100
AcDbEntity
  8
部品1
 48
0.01
100
AcDbLine
 10
8570.471596683553
 20
4652.755549972138
 30
0.0
 11
8570.471596683558
 21
4684.255549972138
 31
0.0
  0
LINE
  5
18291
330
747D
100
AcDbEntity
  8
細線
100
AcDbLine
 10
8406.471596683557
 20
4679.755549972138
 30
0.0
 11
8406.471596683557
 21
4656.755549972138
 31
0.0
  0
LINE
  5
18292
330
747D
100
AcDbEntity
  8
細線
100
AcDbLine
 10
8554.471596683558
 20
4656.755549972138
 30
0.0
 11
8554.471596683558
 21
4679.755549972138
 31
0.0
  0
LINE
  5
18293
330
747D
100
AcDbEntity
  8
細線
100
AcDbLine
 10
8554.471596683558
 20
4679.755549972138
 30
0.0
 11
8480.471596683557
 21
4679.755549972138
 31
0.0
  0
LINE
  5
18294
330
747D
100
AcDbEntity
  8
細線
100
AcDbLine
 10
8406.471596683557
 20
4656.755549972138
 30
0.0
 11
8480.471596683557
 21
4656.755549972138
 31
0.0
  0
LINE
  5
18295
330
747D
100
AcDbEntity
  8
細線
100
AcDbLine
 10
8480.471596683557
 20
4679.755549972138
 30
0.0
 11
8406.471596683557
 21
4679.755549972138
 31
0.0
  0
LINE
  5
18296
330
747D
100
AcDbEntity
  8
細線
100
AcDbLine
 10
8480.471596683555
 20
4656.755549972138
 30
0.0
 11
8554.471596683558
 21
4656.755549972138
 31
0.0
  0
ARC
  5
18297
330
747D
100
AcDbEntity
  8
部品1
 48
0.01
100
AcDbCircle
 10
8392.471596683558
 20
4684.255549972138
 30
0.0
 40
2.0
100
AcDbArc
 50
90.0
 51
180.0
  0
ARC
  5
18298
330
747D
100
AcDbEntity
  8
部品1
 48
0.01
100
AcDbCircle
 10
8568.471596683558
 20
4684.255549972138
 30
0.0
 40
2.0
100
AcDbArc
 50
0.0
 51
90.0
  0
TEXT
  5
182AD
330
747D
100
AcDbEntity
  8
文字
 62
     7
 48
50.0
100
AcDbText
 10
15022.63965474517
 20
9740.013745883729
 30
0.0
 40
100.0
  1
F12            1.2
  7
STYLE1
100
AcDbText
  0
TEXT
  5
182E6
330
747D
100
AcDbEntity
  8
文字
 62
     7
 48
50.0
100
AcDbText
 10
14646.46056207479
 20
871.9640646083623
 30
0.0
 40
100.0
  1
～一般型～
  7
STYLE2
100
AcDbText
  0
LINE
  5
18312
330
747D
100
AcDbEntity
  8
破線
 48
5.0
100
AcDbLine
 10
5100.471596683557
 20
2130.255549972138
 30
0.0
 11
5200.471596683557
 21
2130.255549972138
 31
0.0
  0
LINE
  5
18313
330
747D
100
AcDbEntity
  8
破線
 48
5.0
100
AcDbLine
 10
5150.471596683557
 20
2205.255549972139
 30
0.0
 11
5150.471596683557
 21
2130.255549972138
 31
0.0
  0
LINE
  5
18314
330
747D
100
AcDbEntity
  8
破線
 48
5.0
100
AcDbLine
 10
5047.471596683556
 20
2480.255549972139
 30
0.0
 11
5047.471596683557
 21
2230.255549972139
 31
0.0
  0
LINE
  5
18315
330
747D
100
AcDbEntity
  8
破線
 48
5.0
100
AcDbLine
 10
5095.471596683559
 20
2230.255549972139
 30
0.0
 11
5047.471596683557
 21
2230.255549972139
 31
0.0
  0
LINE
  5
18316
330
747D
100
AcDbEntity
  8
破線
 48
5.0
100
AcDbLine
 10
5095.471596683555
 20
2480.255549972139
 30
0.0
 11
5095.471596683559
 21
2205.255549972139
 31
0.0
  0
LINE
  5
18317
330
747D
100
AcDbEntity
  8
破線
 48
5.0
100
AcDbLine
 10
5205.471596683556
 20
2205.255549972139
 30
0.0
 11
5095.471596683558
 21
2205.255549972139
 31
0.0
  0
LINE
  5
18318
330
747D
100
AcDbEntity
  8
破線
 48
5.0
100
AcDbLine
 10
5253.471596683557
 20
2480.255549972139
 30
0.0
 11
5253.471596683555
 21
2230.255549972144
 31
0.0
  0
LINE
  5
18319
330
747D
100
AcDbEntity
  8
破線
 48
5.0
100
AcDbLine
 10
5253.471596683556
 20
2230.255549972144
 30
0.0
 11
5205.471596683556
 21
2230.255549972144
 31
0.0
  0
LINE
  5
1831A
330
747D
100
AcDbEntity
  8
破線
 48
5.0
100
AcDbLine
 10
5205.471596683557
 20
2480.255549972139
 30
0.0
 11
5205.471596683556
 21
2205.255549972139
 31
0.0
  0
LINE
  5
18328
330
747D
100
AcDbEntity
  8
破線
 48
5.0
100
AcDbLine
 10
7730.471596683557
 20
2130.255549972138
 30
0.0
 11
7830.471596683557
 21
2130.255549972138
 31
0.0
  0
LINE
  5
18329
330
747D
100
AcDbEntity
  8
破線
 48
5.0
100
AcDbLine
 10
7780.471596683558
 20
2205.255549972139
 30
0.0
 11
7780.471596683558
 21
2130.255549972138
 31
0.0
  0
LINE
  5
1832A
330
747D
100
AcDbEntity
  8
破線
 48
5.0
100
AcDbLine
 10
7677.471596683556
 20
2480.255549972139
 30
0.0
 11
7677.471596683557
 21
2230.255549972139
 31
0.0
  0
LINE
  5
1832B
330
747D
100
AcDbEntity
  8
破線
 48
5.0
100
AcDbLine
 10
7725.471596683559
 20
2230.255549972139
 30
0.0
 11
7677.471596683557
 21
2230.255549972139
 31
0.0
  0
LINE
  5
1832C
330
747D
100
AcDbEntity
  8
破線
 48
5.0
100
AcDbLine
 10
7725.471596683556
 20
2480.255549972139
 30
0.0
 11
7725.471596683559
 21
2205.255549972139
 31
0.0
  0
LINE
  5
1832D
330
747D
100
AcDbEntity
  8
破線
 48
5.0
100
AcDbLine
 10
7835.471596683555
 20
2205.255549972139
 30
0.0
 11
7725.471596683558
 21
2205.255549972139
 31
0.0
  0
LINE
  5
1832E
330
747D
100
AcDbEntity
  8
破線
 48
5.0
100
AcDbLine
 10
7883.471596683557
 20
2480.255549972139
 30
0.0
 11
7883.471596683555
 21
2230.255549972144
 31
0.0
  0
LINE
  5
1832F
330
747D
100
AcDbEntity
  8
破線
 48
5.0
100
AcDbLine
 10
7883.471596683556
 20
2230.255549972144
 30
0.0
 11
7835.471596683555
 21
2230.255549972144
 31
0.0
  0
LINE
  5
18330
330
747D
100
AcDbEntity
  8
破線
 48
5.0
100
AcDbLine
 10
7835.471596683557
 20
2480.255549972139
 30
0.0
 11
7835.471596683557
 21
2205.255549972139
 31
0.0
  0
LINE
  5
18347
330
747D
100
AcDbEntity
  8
破線
 48
5.0
100
AcDbLine
 10
2623.471596683558
 20
2480.255549972139
 30
0.0
 11
2623.471596683558
 21
2230.255549972144
 31
0.0
  0
LINE
  5
18348
330
747D
100
AcDbEntity
  8
破線
 48
5.0
100
AcDbLine
 10
2623.471596683558
 20
2480.255549972139
 30
0.0
 11
2623.471596683558
 21
2230.255549972144
 31
0.0
  0
LINE
  5
18349
330
747D
100
AcDbEntity
  8
破線
 48
5.0
100
AcDbLine
 10
2623.471596683558
 20
2230.255549972144
 30
0.0
 11
2575.471596683558
 21
2230.255549972144
 31
0.0
  0
LINE
  5
1834A
330
747D
100
AcDbEntity
  8
破線
 48
5.0
100
AcDbLine
 10
2623.471596683558
 20
2230.255549972144
 30
0.0
 11
2575.471596683558
 21
2230.255549972144
 31
0.0
  0
LINE
  5
1834B
330
747D
100
AcDbEntity
  8
破線
 48
5.0
100
AcDbLine
 10
2575.471596683558
 20
2130.255549972146
 30
0.0
 11
2520.471596683558
 21
2130.255549972146
 31
0.0
  0
LINE
  5
1834C
330
747D
100
AcDbEntity
  8
破線
 48
5.0
100
AcDbLine
 10
2520.471596683558
 20
2380.255549972138
 30
0.0
 11
2520.471596683558
 21
2130.255549972138
 31
0.0
  0
LINE
  5
1834D
330
747D
100
AcDbEntity
  8
破線
 48
5.0
100
AcDbLine
 10
2575.471596683558
 20
2480.255549972139
 30
0.0
 11
2575.471596683558
 21
2130.255549972138
 31
0.0
  0
LINE
  5
1834E
330
747D
100
AcDbEntity
  8
破線
 48
5.0
100
AcDbLine
 10
2575.471596683558
 20
2480.255549972139
 30
0.0
 11
2575.471596683558
 21
2130.255549972138
 31
0.0
  0
LINE
  5
18362
330
747D
100
AcDbEntity
  8
破線
 48
5.0
100
AcDbLine
 10
10355.47159668355
 20
2480.255549972139
 30
0.0
 11
10355.47159668355
 21
2130.255549972138
 31
0.0
  0
LINE
  5
18363
330
747D
100
AcDbEntity
  8
破線
 48
5.0
100
AcDbLine
 10
10410.47159668355
 20
2380.255549972138
 30
0.0
 11
10410.47159668355
 21
2130.255549972138
 31
0.0
  0
LINE
  5
18364
330
747D
100
AcDbEntity
  8
破線
 48
5.0
100
AcDbLine
 10
10410.47159668355
 20
2130.255549972138
 30
0.0
 11
10355.47159668355
 21
2130.255549972138
 31
0.0
  0
LINE
  5
18365
330
747D
100
AcDbEntity
  8
破線
 48
5.0
100
AcDbLine
 10
10307.47159668355
 20
2480.255549972139
 30
0.0
 11
10307.47159668355
 21
2230.255549972139
 31
0.0
  0
LINE
  5
18366
330
747D
100
AcDbEntity
  8
破線
 48
5.0
100
AcDbLine
 10
10355.47159668356
 20
2230.255549972139
 30
0.0
 11
10307.47159668355
 21
2230.255549972139
 31
0.0
  0
TEXT
  5
183AD
330
747D
100
AcDbEntity
  8
文字
 62
     7
 48
50.0
100
AcDbText
 10
15022.63965474516
 20
9060.013745883727
 30
0.0
 40
100.0
  1
F12            0.7
  7
STYLE1
100
AcDbText
  0
TEXT
  5
183AE
330
747D
100
AcDbEntity
  8
文字
 62
     7
 48
50.0
100
AcDbText
 10
13583.11819016568
 20
9230.013745883731
 30
0.0
 40
100.0
  1
シャッター
  7
STYLE1
100
AcDbText
  0
TEXT
  5
183AF
330
747D
100
AcDbEntity
  8
文字
 62
     7
 48
50.0
100
AcDbText
 10
15022.63965474515
 20
9230.013745883727
 30
0.0
 40
100.0
  1
Z08            0.5
  7
STYLE1
100
AcDbText
  0
ARC
  5
183C5
330
747D
100
AcDbEntity
  8
細線
 48
50.0
100
AcDbCircle
 10
6165.471596683556
 20
3042.755549972139
 30
0.0
 40
15.0
100
AcDbArc
 50
90.0
 51
270.0
  0
ARC
  5
183C6
330
747D
100
AcDbEntity
  8
細線
 48
50.0
100
AcDbCircle
 10
6265.471596683556
 20
3042.755549972139
 30
0.0
 40
15.0
100
AcDbArc
 50
270.0
 51
90.0
  0
LINE
  5
183C7
330
747D
100
AcDbEntity
  8
細線
 48
50.0
100
AcDbLine
 10
6165.471596683556
 20
3057.755549972139
 30
0.0
 11
6265.471596683556
 21
3057.755549972139
 31
0.0
  0
LINE
  5
183C8
330
747D
100
AcDbEntity
  8
細線
 48
50.0
100
AcDbLine
 10
6265.471596683556
 20
3027.755549972138
 30
0.0
 11
6165.471596683556
 21
3027.755549972138
 31
0.0
  0
LINE
  5
183C9
330
747D
100
AcDbEntity
  8
細線
 48
50.0
100
AcDbLine
 10
6765.471596683553
 20
3027.755549972138
 30
0.0
 11
6665.471596683554
 21
3027.755549972138
 31
0.0
  0
LINE
  5
183CA
330
747D
100
AcDbEntity
  8
細線
 48
50.0
100
AcDbLine
 10
6665.471596683554
 20
3057.755549972139
 30
0.0
 11
6765.471596683553
 21
3057.755549972139
 31
0.0
  0
ARC
  5
183CB
330
747D
100
AcDbEntity
  8
細線
 48
50.0
100
AcDbCircle
 10
6665.471596683554
 20
3042.755549972139
 30
0.0
 40
15.0
100
AcDbArc
 50
90.0
 51
270.0
  0
ARC
  5
183CC
330
747D
100
AcDbEntity
  8
細線
 48
50.0
100
AcDbCircle
 10
6765.471596683553
 20
3042.755549972139
 30
0.0
 40
15.0
100
AcDbArc
 50
270.0
 51
90.0
  0
CIRCLE
  5
183CD
330
747D
100
AcDbEntity
  8
細線
 48
50.0
100
AcDbCircle
 10
6465.471596683555
 20
3367.755549972139
 30
0.0
 40
18.0
  0
LINE
  5
183CE
330
747D
100
AcDbEntity
  8
細線
100
AcDbLine
 10
5253.471596683556
 20
3010.255549972138
 30
0.0
 11
7677.471596683554
 21
3010.255549972138
 31
0.0
  0
LINE
  5
183CF
330
747D
100
AcDbEntity
  8
細線
100
AcDbLine
 10
5253.471596683556
 20
2945.255549972138
 30
0.0
 11
7677.471596683554
 21
2945.255549972138
 31
0.0
  0
LINE
  5
183D0
330
747D
100
AcDbEntity
  8
細線
100
AcDbLine
 10
5253.471596683556
 20
2880.255549972139
 30
0.0
 11
7677.471596683554
 21
2880.255549972139
 31
0.0
  0
LINE
  5
183D1
330
747D
100
AcDbEntity
  8
細線
100
AcDbLine
 10
5253.471596683556
 20
2815.255549972139
 30
0.0
 11
7677.471596683554
 21
2815.255549972139
 31
0.0
  0
LINE
  5
183D2
330
747D
100
AcDbEntity
  8
細線
100
AcDbLine
 10
5253.471596683556
 20
2750.255549972139
 30
0.0
 11
7677.471596683554
 21
2750.255549972139
 31
0.0
  0
LINE
  5
183D3
330
747D
100
AcDbEntity
  8
細線
100
AcDbLine
 10
5253.471596683556
 20
2685.255549972139
 30
0.0
 11
7677.471596683554
 21
2685.255549972139
 31
0.0
  0
LINE
  5
183D4
330
747D
100
AcDbEntity
  8
細線
100
AcDbLine
 10
5253.471596683556
 20
4310.255549972138
 30
0.0
 11
7677.471596683554
 21
4310.255549972138
 31
0.0
  0
LINE
  5
183D5
330
747D
100
AcDbEntity
  8
細線
100
AcDbLine
 10
5253.471596683556
 20
4440.255549972138
 30
0.0
 11
7677.471596683554
 21
4440.255549972138
 31
0.0
  0
LINE
  5
183D6
330
747D
100
AcDbEntity
  8
細線
100
AcDbLine
 10
5253.471596683556
 20
4375.255549972138
 30
0.0
 11
7677.471596683554
 21
4375.255549972138
 31
0.0
  0
LINE
  5
183D7
330
747D
100
AcDbEntity
  8
細線
100
AcDbLine
 10
5253.471596683556
 20
3660.255549972138
 30
0.0
 11
7677.471596683554
 21
3660.255549972138
 31
0.0
  0
LINE
  5
183D8
330
747D
100
AcDbEntity
  8
細線
100
AcDbLine
 10
5253.471596683556
 20
3595.255549972139
 30
0.0
 11
7677.471596683554
 21
3595.255549972139
 31
0.0
  0
LINE
  5
183D9
330
747D
100
AcDbEntity
  8
細線
100
AcDbLine
 10
5253.471596683556
 20
3530.255549972139
 30
0.0
 11
7677.471596683554
 21
3530.255549972139
 31
0.0
  0
LINE
  5
183DA
330
747D
100
AcDbEntity
  8
細線
100
AcDbLine
 10
5253.471596683556
 20
3465.255549972139
 30
0.0
 11
7677.471596683554
 21
3465.255549972139
 31
0.0
  0
LINE
  5
183DB
330
747D
100
AcDbEntity
  8
細線
100
AcDbLine
 10
5253.471596683556
 20
3400.255549972138
 30
0.0
 11
7677.471596683554
 21
3400.255549972138
 31
0.0
  0
LINE
  5
183DC
330
747D
100
AcDbEntity
  8
細線
100
AcDbLine
 10
5253.471596683556
 20
3335.255549972139
 30
0.0
 11
7677.471596683554
 21
3335.255549972139
 31
0.0
  0
LINE
  5
183DD
330
747D
100
AcDbEntity
  8
細線
100
AcDbLine
 10
5253.471596683556
 20
3270.255549972139
 30
0.0
 11
7677.471596683554
 21
3270.255549972139
 31
0.0
  0
LINE
  5
183DE
330
747D
100
AcDbEntity
  8
細線
100
AcDbLine
 10
5253.471596683556
 20
3205.255549972139
 30
0.0
 11
7677.471596683554
 21
3205.255549972139
 31
0.0
  0
LINE
  5
183DF
330
747D
100
AcDbEntity
  8
細線
100
AcDbLine
 10
5253.471596683556
 20
3140.255549972139
 30
0.0
 11
7677.471596683554
 21
3140.255549972139
 31
0.0
  0
LINE
  5
183E0
330
747D
100
AcDbEntity
  8
細線
100
AcDbLine
 10
5253.471596683556
 20
3075.255549972139
 30
0.0
 11
7677.471596683554
 21
3075.255549972139
 31
0.0
  0
LINE
  5
183E1
330
747D
100
AcDbEntity
  8
細線
100
AcDbLine
 10
5253.471596683556
 20
4050.255549972137
 30
0.0
 11
7677.471596683554
 21
4050.255549972137
 31
0.0
  0
LINE
  5
183E2
330
747D
100
AcDbEntity
  8
細線
100
AcDbLine
 10
5253.471596683556
 20
3985.255549972139
 30
0.0
 11
7677.471596683554
 21
3985.255549972139
 31
0.0
  0
LINE
  5
183E3
330
747D
100
AcDbEntity
  8
細線
100
AcDbLine
 10
5253.471596683556
 20
3920.255549972138
 30
0.0
 11
7677.471596683554
 21
3920.255549972138
 31
0.0
  0
LINE
  5
183E4
330
747D
100
AcDbEntity
  8
細線
100
AcDbLine
 10
5253.471596683556
 20
3855.255549972138
 30
0.0
 11
7677.471596683554
 21
3855.255549972138
 31
0.0
  0
LINE
  5
183E5
330
747D
100
AcDbEntity
  8
細線
100
AcDbLine
 10
5253.471596683556
 20
3790.255549972139
 30
0.0
 11
7677.471596683554
 21
3790.255549972139
 31
0.0
  0
LINE
  5
183E6
330
747D
100
AcDbEntity
  8
細線
100
AcDbLine
 10
5253.471596683556
 20
3725.255549972138
 30
0.0
 11
7677.471596683554
 21
3725.255549972138
 31
0.0
  0
LINE
  5
183E7
330
747D
100
AcDbEntity
  8
細線
100
AcDbLine
 10
5253.471596683556
 20
4245.255549972138
 30
0.0
 11
7677.471596683554
 21
4245.255549972138
 31
0.0
  0
LINE
  5
183E8
330
747D
100
AcDbEntity
  8
細線
100
AcDbLine
 10
5253.471596683556
 20
4180.255549972138
 30
0.0
 11
7677.471596683554
 21
4180.255549972138
 31
0.0
  0
LINE
  5
183E9
330
747D
100
AcDbEntity
  8
細線
100
AcDbLine
 10
5253.471596683556
 20
4115.255549972139
 30
0.0
 11
7677.471596683554
 21
4115.255549972139
 31
0.0
  0
LINE
  5
183EA
330
747D
100
AcDbEntity
  8
部品1
100
AcDbLine
 10
5205.471596683556
 20
4455.255549972139
 30
0.0
 11
7835.471596683553
 21
4455.255549972139
 31
0.0
  0
LINE
  5
183EB
330
747D
100
AcDbEntity
  8
細線
100
AcDbLine
 10
7677.471596683554
 20
2490.255549972138
 30
0.0
 11
5253.471596683556
 21
2490.255549972138
 31
0.0
  0
LINE
  5
183EC
330
747D
100
AcDbEntity
  8
細線
100
AcDbLine
 10
5253.471596683556
 20
2620.255549972139
 30
0.0
 11
7677.471596683554
 21
2620.255549972139
 31
0.0
  0
LINE
  5
183ED
330
747D
100
AcDbEntity
  8
細線
100
AcDbLine
 10
5253.471596683556
 20
2555.255549972139
 30
0.0
 11
7677.471596683554
 21
2555.255549972139
 31
0.0
  0
LINE
  5
183EE
330
747D
100
AcDbEntity
  8
細線
100
AcDbLine
 10
5253.471596683556
 20
2490.255549972138
 30
0.0
 11
7677.471596683554
 21
2490.255549972138
 31
0.0
  0
SPLINE
  5
183F5
330
747D
100
AcDbEntity
  8
部品1
 48
50.0
100
AcDbSpline
210
0.0
220
0.0
230
1.0
 70
     8
 71
     3
 72
    10
 73
     6
 74
     4
 42
0.0000000001
 43
0.0000000001
 44
0.0000000001
 40
0.0
 40
0.0
 40
0.0
 40
0.0
 40
147.8767566010009
 40
301.8091093202477
 40
466.5049223087734
 40
466.5049223087734
 40
466.5049223087734
 40
466.5049223087734
 10
6533.041924416608
 20
3448.996702497932
 30
0.0
 10
6456.160241921772
 20
3440.092268840094
 30
0.0
 10
6299.248549711645
 20
3421.918762380761
 30
0.0
 10
6622.061959655988
 20
3319.398177741419
 30
0.0
 10
6452.219339986616
 20
3300.763089029216
 30
0.0
 10
6364.429334779721
 20
3291.130792151907
 30
0.0
 11
6533.041924416608
 21
3448.996702497932
 31
0.0
 11
6390.203946107838
 21
3410.723381561604
 31
0.0
 11
6523.513274027013
 21
3333.75720520198
 31
0.0
 11
6364.429334779721
 21
3291.130792151907
 31
0.0
  0
LINE
  5
183F6
330
747D
100
AcDbEntity
  8
部品1
 48
50.0
100
AcDbLine
 10
6917.635858911076
 20
5055.255549972142
 30
0.0
 11
6093.692092185374
 21
1980.255549972138
 31
0.0
  0
LINE
  5
183FB
330
747D
100
AcDbEntity
  8
部品1
 48
50.0
100
AcDbLine
 10
5217.471596683572
 20
7602.529213418586
 30
0.0
 11
7713.471596683556
 21
7602.529213418586
 31
0.0
  0
LINE
  5
18402
330
747D
100
AcDbEntity
  8
部品1
100
AcDbLine
 10
6465.471596683579
 20
9347.029213418707
 30
0.0
 11
6465.471596683579
 21
9319.029213418707
 31
0.0
  0
LINE
  5
18403
330
747D
100
AcDbEntity
  8
部品1
100
AcDbLine
 10
6452.971596683579
 20
9311.02921341869
 30
0.0
 11
6477.97159668358
 21
9311.029213418693
 31
0.0
  0
LINE
  5
18404
330
747D
100
AcDbEntity
  8
部品1
100
AcDbLine
 10
6494.471596683578
 20
9337.029213418693
 30
0.0
 11
6500.471596683579
 21
9337.029213418693
 31
0.0
  0
LINE
  5
18405
330
747D
100
AcDbEntity
  8
部品1
100
AcDbLine
 10
6500.471596683579
 20
9337.029213418693
 30
0.0
 11
6500.471596683579
 21
9319.029213418692
 31
0.0
  0
LINE
  5
18406
330
747D
100
AcDbEntity
  8
部品1
100
AcDbLine
 10
6430.47159668358
 20
9337.029213418693
 30
0.0
 11
6436.471596683579
 21
9337.029213418693
 31
0.0
  0
LINE
  5
18407
330
747D
100
AcDbEntity
  8
部品1
100
AcDbLine
 10
6430.47159668358
 20
9337.029213418693
 30
0.0
 11
6430.47159668358
 21
9319.029213418692
 31
0.0
  0
LINE
  5
18408
330
747D
100
AcDbEntity
  8
部品1
 48
50.0
100
AcDbLine
 10
6452.971596683575
 20
9319.029213418707
 30
0.0
 11
6452.971596683578
 21
9311.02921341869
 31
0.0
  0
LINE
  5
18409
330
747D
100
AcDbEntity
  8
部品1
 48
50.0
100
AcDbLine
 10
6477.97159668358
 20
9319.029213418705
 30
0.0
 11
6477.97159668358
 21
9311.029213418693
 31
0.0
  0
SPLINE
  5
18410
330
747D
100
AcDbEntity
  8
部品1
 48
50.0
100
AcDbSpline
210
0.0
220
0.0
230
1.0
 70
     8
 71
     3
 72
    10
 73
     6
 74
     4
 42
0.0000000001
 43
0.0000000001
 44
0.0000000001
 40
0.0
 40
0.0
 40
0.0
 40
0.0
 40
147.8767566010009
 40
301.8091093202477
 40
466.5049223087716
 40
466.5049223087716
 40
466.5049223087716
 40
466.5049223087716
 10
6533.041924416612
 20
9386.770365944332
 30
0.0
 10
6456.160241921778
 20
9377.865932286495
 30
0.0
 10
6299.248549711649
 20
9359.69242582716
 30
0.0
 10
6622.061959655994
 20
9257.171841187821
 30
0.0
 10
6452.219339986619
 20
9238.536752475615
 30
0.0
 10
6364.429334779727
 20
9228.904455598307
 30
0.0
 11
6533.041924416612
 21
9386.770365944332
 31
0.0
 11
6390.203946107843
 21
9348.497045008004
 31
0.0
 11
6523.513274027017
 21
9271.530868648381
 31
0.0
 11
6364.429334779727
 21
9228.904455598307
 31
0.0
  0
LINE
  5
18411
330
747D
100
AcDbEntity
  8
部品1
 48
50.0
100
AcDbLine
 10
6512.004336239113
 20
9479.191761655222
 30
0.0
 11
6418.938857128011
 21
9131.866665181858
 31
0.0
  0
SPLINE
  5
18418
330
747D
100
AcDbEntity
  8
部品1
 48
50.0
100
AcDbSpline
210
0.0
220
0.0
230
1.0
 70
     8
 71
     3
 72
    10
 73
     6
 74
     4
 42
0.0000000001
 43
0.0000000001
 44
0.0000000001
 40
0.0
 40
0.0
 40
0.0
 40
0.0
 40
147.8767566010009
 40
301.8091093202477
 40
466.5049223087716
 40
466.5049223087716
 40
466.5049223087716
 40
466.5049223087716
 10
6533.041924416614
 20
7683.770365944377
 30
0.0
 10
6456.160241921779
 20
7674.86593228654
 30
0.0
 10
6299.24854971165
 20
7656.692425827206
 30
0.0
 10
6622.061959655995
 20
7554.171841187866
 30
0.0
 10
6452.219339986621
 20
7535.53675247566
 30
0.0
 10
6364.429334779729
 20
7525.904455598354
 30
0.0
 11
6533.041924416614
 21
7683.770365944377
 31
0.0
 11
6390.203946107845
 21
7645.497045008049
 31
0.0
 11
6523.513274027019
 21
7568.530868648426
 31
0.0
 11
6364.429334779729
 21
7525.904455598354
 31
0.0
  0
LINE
  5
18419
330
747D
100
AcDbEntity
  8
部品1
 48
50.0
100
AcDbLine
 10
6512.004336239114
 20
7776.191761655268
 30
0.0
 11
6418.938857128013
 21
7428.866665181903
 31
0.0
  0
ENDSEC
  0
SECTION
  2
OBJECTS
  0
DICTIONARY
  5
7471
330
0
100
AcDbDictionary
281
     1
  3
ACAD_COLOR
350
16B87
  3
ACAD_GROUP
350
7472
  3
ACAD_LAYOUT
350
16B88
  3
ACAD_MATERIAL
350
16B86
  3
ACAD_MLINESTYLE
350
7473
  3
ACAD_PLOTSETTINGS
350
16B89
  3
ACAD_PLOTSTYLENAME
350
16B84
  3
ACDBHEADERROUNDTRIPXREC
350
18478
  3
AcDbVariableDictionary
350
18474
  3
CONTENTDICTIONARY
350
E71C
  3
DRAWINGVARIABLESDICT
350
F3B9
  0
DICTIONARY
  5
17062
330
7467
100
AcDbDictionary
280
     1
281
     1
  3
ACAD_LAYERSTATES
360
17063
  0
DICTIONARY
  5
16B87
102
{ACAD_REACTORS
330
7471
102
}
330
7471
100
AcDbDictionary
281
     1
  0
DICTIONARY
  5
7472
102
{ACAD_REACTORS
330
7471
102
}
330
7471
100
AcDbDictionary
281
     1
  0
DICTIONARY
  5
16B88
102
{ACAD_REACTORS
330
7471
102
}
330
7471
100
AcDbDictionary
281
     1
  3
Model
350
16B8A
  3
レイアウト1
350
16B8B
  0
DICTIONARY
  5
16B86
102
{ACAD_REACTORS
330
7471
102
}
330
7471
100
AcDbDictionary
281
     1
  0
DICTIONARY
  5
7473
102
{ACAD_REACTORS
330
7471
102
}
330
7471
100
AcDbDictionary
281
     1
  3
STANDARD
350
7480
  0
DICTIONARY
  5
16B89
102
{ACAD_REACTORS
330
7471
102
}
330
7471
100
AcDbDictionary
281
     1
  0
ACDBDICTIONARYWDFLT
  5
16B84
102
{ACAD_REACTORS
330
7471
102
}
330
7471
100
AcDbDictionary
281
     1
  3
Normal
350
16B85
100
AcDbDictionaryWithDefault
340
16B85
  0
DICTIONARY
  5
18478
102
{ACAD_REACTORS
330
7471
102
}
330
7471
100
AcDbDictionary
281
     1
  3
COLORDICT
350
1847A
  3
MATERIALDICT
350
18479
  0
DICTIONARY
  5
18474
102
{ACAD_REACTORS
330
7471
102
}
330
7471
100
AcDbDictionary
281
     1
  3
DIMASSOC
350
18475
  3
PROJECTNAME
350
18476
  0
DICTIONARY
  5
E71C
102
{ACAD_REACTORS
330
7471
102
}
330
7471
100
AcDbDictionary
281
     1
  0
DICTIONARY
  5
F3B9
102
{ACAD_REACTORS
330
7471
102
}
330
7471
100
AcDbDictionary
281
     1
1001
DRAWINGVARIABLESXDATA
1000
POLARMODE
1000
1
  0
DICTIONARY
  5
17063
102
{ACAD_REACTORS
330
17062
102
}
330
17062
100
AcDbDictionary
281
     1
  0
LAYOUT
  5
16B8A
102
{ACAD_XDICTIONARY
360
1847B
102
}
102
{ACAD_REACTORS
330
16B88
102
}
330
16B88
100
AcDbPlotSettings
  1

  2
none_device
  4
Letter_(8.50_x_11.00_Inches)
  6

 40
6.349999904632568
 41
6.349999904632568
 42
6.350006103515625
 43
6.350006103515625
 44
215.8999938964844
 45
279.3999938964844
 46
0.0
 47
0.0
 48
0.0
 49
0.0
140
0.0
141
0.0
142
1.0
143
1.0
 70
 11952
 72
     1
 73
     1
 74
     0
  7
inaba.ctb
 75
     0
147
1.0
148
-2474.515699114034
149
44.54302247599571
100
AcDbLayout
  1
Model
 70
     1
 71
     0
 10
0.0
 20
0.0
 11
12.0
 21
9.0
 12
0.0
 22
0.0
 32
0.0
 14
0.0
 24
0.0
 34
0.0
 15
0.0
 25
0.0
 35
0.0
146
0.0
 13
0.0
 23
0.0
 33
0.0
 16
1.0
 26
0.0
 36
0.0
 17
0.0
 27
1.0
 37
0.0
 76
     0
330
747D
  0
LAYOUT
  5
16B8B
102
{ACAD_XDICTIONARY
360
1847D
102
}
102
{ACAD_REACTORS
330
16B88
102
}
330
16B88
100
AcDbPlotSettings
  1

  2
EPSON LP-8300
  4

  6

 40
0.0
 41
0.0
 42
0.0
 43
0.0
 44
0.0
 45
0.0
 46
0.0
 47
0.0
 48
0.0
 49
0.0
140
0.0
141
0.0
142
1.0
143
1.0
 70
   688
 72
     0
 73
     0
 74
     5
  7
inaba.ctb
 75
    16
147
1.0
148
0.0
149
0.0
100
AcDbLayout
  1
レイアウト1
 70
     0
 71
     1
 10
0.0
 20
0.0
 11
420.0
 21
297.0
 12
0.0
 22
0.0
 32
0.0
 14
1.000000000000000E+20
 24
1.000000000000000E+20
 34
1.000000000000000E+20
 15
-1.000000000000000E+20
 25
-1.000000000000000E+20
 35
-1.000000000000000E+20
146
0.0
 13
0.0
 23
0.0
 33
0.0
 16
1.0
 26
0.0
 36
0.0
 17
0.0
 27
1.0
 37
0.0
 76
     0
330
747A
  0
MLINESTYLE
  5
7480
102
{ACAD_REACTORS
330
7473
102
}
330
7473
100
AcDbMlineStyle
  2
STANDARD
 70
     0
  3

 62
     0
 51
90.0
 52
90.0
 71
     2
 49
0.5
 62
   256
  6
BYLAYER
 49
-0.5
 62
   256
  6
BYLAYER
  0
ACDBPLACEHOLDER
  5
16B85
102
{ACAD_REACTORS
330
16B84
102
}
330
16B84
  0
XRECORD
  5
1847A
102
{ACAD_REACTORS
330
18478
102
}
330
18478
100
AcDbXrecord
280
     1
340
16B87
  0
XRECORD
  5
18479
102
{ACAD_REACTORS
330
18478
102
}
330
18478
100
AcDbXrecord
280
     1
340
16B86
  0
DICTIONARYVAR
  5
18475
102
{ACAD_REACTORS
330
18474
102
}
330
18474
100
DictionaryVariables
280
     0
  1
1
  0
DICTIONARYVAR
  5
18476
102
{ACAD_REACTORS
330
18474
102
}
330
18474
100
DictionaryVariables
280
     0
  1

  0
DICTIONARY
  5
1847B
330
16B8A
100
AcDbDictionary
280
     1
281
     1
  3
ACAD_XREC_ROUNDTRIP
360
1847C
  0
DICTIONARY
  5
1847D
330
16B8B
100
AcDbDictionary
280
     1
281
     1
  3
ACAD_XREC_ROUNDTRIP
360
1847E
  0
XRECORD
  5
1847C
102
{ACAD_REACTORS
330
1847B
102
}
330
1847B
100
AcDbXrecord
280
     1
102
SHADEPLOT
 70
     0
102
SHADEPLOTRESLEVEL
 70
     2
102
SHADEPLOTCUSTOMDPI
 70
   300
  0
XRECORD
  5
1847E
102
{ACAD_REACTORS
330
1847D
102
}
330
1847D
100
AcDbXrecord
280
     1
102
SHADEPLOT
 70
     0
102
SHADEPLOTRESLEVEL
 70
     2
102
SHADEPLOTCUSTOMDPI
 70
   300
  0
ENDSEC
  0
EOF
