  0
SECTION
  2
HEADER
  9
$ACADVER
  1
AC1015
  9
$ACADMAINTVER
 70
    20
  9
$DWGCODEPAGE
  3
ANSI_932
  9
$INSBASE
 10
0.0
 20
0.0
 30
0.0
  9
$EXTMIN
 10
139.9999999999995
 20
-0.0000000000000909
 30
0.0
  9
$EXTMAX
 10
16307.2
 20
11409.6
 30
0.0
  9
$LIMMIN
 10
-183.0179068595971
 20
-160.3342785227505
  9
$LIMMAX
 10
16374.07536659319
 20
11592.19044584975
  9
$ORTHOMODE
 70
     0
  9
$REGENMODE
 70
     1
  9
$FILLMODE
 70
     1
  9
$QTEXTMODE
 70
     0
  9
$MIRRTEXT
 70
     1
  9
$LTSCALE
 40
20.0
  9
$ATTMODE
 70
     1
  9
$TEXTSIZE
 40
100.0
  9
$TRACEWID
 40
1.0
  9
$TEXTSTYLE
  7
STYLE2
  9
$CLAYER
  8
部品1
  9
$CELTYPE
  6
BYLAYER
  9
$CECOLOR
 62
   256
  9
$CELTSCALE
 40
50.0
  9
$DISPSILH
 70
     0
  9
$DIMSCALE
 40
40.0
  9
$DIMASZ
 40
2.5
  9
$DIMEXO
 40
0.5
  9
$DIMDLI
 40
7.0
  9
$DIMRND
 40
0.0
  9
$DIMDLE
 40
0.0
  9
$DIMEXE
 40
1.5
  9
$DIMTP
 40
0.0
  9
$DIMTM
 40
0.0
  9
$DIMTXT
 40
3.0
  9
$DIMCEN
 40
0.0
  9
$DIMTSZ
 40
0.0
  9
$DIMTOL
 70
     0
  9
$DIMLIM
 70
     0
  9
$DIMTIH
 70
     0
  9
$DIMTOH
 70
     0
  9
$DIMSE1
 70
     0
  9
$DIMSE2
 70
     0
  9
$DIMTAD
 70
     3
  9
$DIMZIN
 70
     8
  9
$DIMBLK
  1

  9
$DIMASO
 70
     1
  9
$DIMSHO
 70
     1
  9
$DIMPOST
  1

  9
$DIMAPOST
  1

  9
$DIMALT
 70
     0
  9
$DIMALTD
 70
     2
  9
$DIMALTF
 40
0.0394
  9
$DIMLFAC
 40
1.0
  9
$DIMTOFL
 70
     1
  9
$DIMTVP
 40
0.0
  9
$DIMTIX
 70
     1
  9
$DIMSOXD
 70
     0
  9
$DIMSAH
 70
     1
  9
$DIMBLK1
  1
DOTSMALL
  9
$DIMBLK2
  1
DOTSMALL
  9
$DIMSTYLE
  2
INABA_S40G
  9
$DIMCLRD
 70
     0
  9
$DIMCLRE
 70
     0
  9
$DIMCLRT
 70
     7
  9
$DIMTFAC
 40
1.0
  9
$DIMGAP
 40
1.0
  9
$DIMJUST
 70
     0
  9
$DIMSD1
 70
     0
  9
$DIMSD2
 70
     0
  9
$DIMTOLJ
 70
     1
  9
$DIMTZIN
 70
     0
  9
$DIMALTZ
 70
     0
  9
$DIMALTTZ
 70
     0
  9
$DIMUPT
 70
     0
  9
$DIMDEC
 70
     1
  9
$DIMTDEC
 70
     4
  9
$DIMALTU
 70
     2
  9
$DIMALTTD
 70
     2
  9
$DIMTXSTY
  7
STYLE1
  9
$DIMAUNIT
 70
     0
  9
$DIMADEC
 70
     0
  9
$DIMALTRND
 40
0.0
  9
$DIMAZIN
 70
     0
  9
$DIMDSEP
 70
    46
  9
$DIMATFIT
 70
     3
  9
$DIMFRAC
 70
     0
  9
$DIMLDRBLK
  1

  9
$DIMLUNIT
 70
     2
  9
$DIMLWD
 70
    -2
  9
$DIMLWE
 70
    -2
  9
$DIMTMOVE
 70
     2
  9
$LUNITS
 70
     2
  9
$LUPREC
 70
     1
  9
$SKETCHINC
 40
1.0
  9
$FILLETRAD
 40
3.0
  9
$AUNITS
 70
     0
  9
$AUPREC
 70
     0
  9
$MENU
  1
acad
  9
$ELEVATION
 40
0.0
  9
$PELEVATION
 40
0.0
  9
$THICKNESS
 40
0.0
  9
$LIMCHECK
 70
     0
  9
$CHAMFERA
 40
0.0
  9
$CHAMFERB
 40
0.0
  9
$CHAMFERC
 40
0.0
  9
$CHAMFERD
 40
0.0
  9
$SKPOLY
 70
     0
  9
$TDCREATE
 40
2451368.612993866
  9
$TDUCREATE
 40
2451368.237993866
  9
$TDUPDATE
 40
2455569.630937500
  9
$TDUUPDATE
 40
2455569.255937500
  9
$TDINDWG
 40
0.7624925116
  9
$TDUSRTIMER
 40
0.7624925116
  9
$USRTIMER
 70
     1
  9
$ANGBASE
 50
0.0
  9
$ANGDIR
 70
     0
  9
$PDMODE
 70
     3
  9
$PDSIZE
 40
2.0
  9
$PLINEWID
 40
0.0
  9
$SPLFRAME
 70
     0
  9
$SPLINETYPE
 70
     6
  9
$SPLINESEGS
 70
     8
  9
$HANDSEED
  5
17ED4
  9
$SURFTAB1
 70
     6
  9
$SURFTAB2
 70
     6
  9
$SURFTYPE
 70
     6
  9
$SURFU
 70
     6
  9
$SURFV
 70
     6
  9
$UCSBASE
  2

  9
$UCSNAME
  2

  9
$UCSORG
 10
0.0
 20
0.0
 30
0.0
  9
$UCSXDIR
 10
1.0
 20
0.0
 30
0.0
  9
$UCSYDIR
 10
0.0
 20
1.0
 30
0.0
  9
$UCSORTHOREF
  2

  9
$UCSORTHOVIEW
 70
     0
  9
$UCSORGTOP
 10
0.0
 20
0.0
 30
0.0
  9
$UCSORGBOTTOM
 10
0.0
 20
0.0
 30
0.0
  9
$UCSORGLEFT
 10
0.0
 20
0.0
 30
0.0
  9
$UCSORGRIGHT
 10
0.0
 20
0.0
 30
0.0
  9
$UCSORGFRONT
 10
0.0
 20
0.0
 30
0.0
  9
$UCSORGBACK
 10
0.0
 20
0.0
 30
0.0
  9
$PUCSBASE
  2

  9
$PUCSNAME
  2

  9
$PUCSORG
 10
0.0
 20
0.0
 30
0.0
  9
$PUCSXDIR
 10
1.0
 20
0.0
 30
0.0
  9
$PUCSYDIR
 10
0.0
 20
1.0
 30
0.0
  9
$PUCSORTHOREF
  2

  9
$PUCSORTHOVIEW
 70
     0
  9
$PUCSORGTOP
 10
0.0
 20
0.0
 30
0.0
  9
$PUCSORGBOTTOM
 10
0.0
 20
0.0
 30
0.0
  9
$PUCSORGLEFT
 10
0.0
 20
0.0
 30
0.0
  9
$PUCSORGRIGHT
 10
0.0
 20
0.0
 30
0.0
  9
$PUCSORGFRONT
 10
0.0
 20
0.0
 30
0.0
  9
$PUCSORGBACK
 10
0.0
 20
0.0
 30
0.0
  9
$USERI1
 70
     0
  9
$USERI2
 70
     0
  9
$USERI3
 70
     0
  9
$USERI4
 70
     0
  9
$USERI5
 70
     0
  9
$USERR1
 40
0.0
  9
$USERR2
 40
0.0
  9
$USERR3
 40
0.0
  9
$USERR4
 40
0.0
  9
$USERR5
 40
0.0
  9
$WORLDVIEW
 70
     1
  9
$SHADEDGE
 70
     3
  9
$SHADEDIF
 70
    70
  9
$TILEMODE
 70
     1
  9
$MAXACTVP
 70
    16
  9
$PINSBASE
 10
0.0
 20
0.0
 30
0.0
  9
$PLIMCHECK
 70
     0
  9
$PEXTMIN
 10
1.000000000000000E+20
 20
1.000000000000000E+20
 30
1.000000000000000E+20
  9
$PEXTMAX
 10
-1.000000000000000E+20
 20
-1.000000000000000E+20
 30
-1.000000000000000E+20
  9
$PLIMMIN
 10
0.0
 20
0.0
  9
$PLIMMAX
 10
420.0
 20
297.0
  9
$UNITMODE
 70
     0
  9
$VISRETAIN
 70
     0
  9
$PLINEGEN
 70
     0
  9
$PSLTSCALE
 70
     0
  9
$TREEDEPTH
 70
  3020
  9
$CMLSTYLE
  2
STANDARD
  9
$CMLJUST
 70
     0
  9
$CMLSCALE
 40
1.0
  9
$PROXYGRAPHICS
 70
     1
  9
$MEASUREMENT
 70
     1
  9
$CELWEIGHT
370
    -1
  9
$ENDCAPS
280
     0
  9
$JOINSTYLE
280
     0
  9
$LWDISPLAY
290
     0
  9
$INSUNITS
 70
     0
  9
$HYPERLINKBASE
  1

  9
$STYLESHEET
  1
inaba.ctb
  9
$XEDIT
290
     1
  9
$CEPSNTYPE
380
     0
  9
$PSTYLEMODE
290
     1
  9
$FINGERPRINTGUID
  2
{7C4CFC47-99AD-4BF8-925A-29E64B99F133}
  9
$VERSIONGUID
  2
{041F05CA-7948-4A6B-8DEA-5EF0FCE2A11D}
  9
$EXTNAMES
290
     1
  9
$PSVPSCALE
 40
0.0
  9
$OLESTARTUP
290
     0
  0
ENDSEC
  0
SECTION
  2
CLASSES
  0
CLASS
  1
ACDBDICTIONARYWDFLT
  2
AcDbDictionaryWithDefault
  3
ObjectDBX Classes
 90
        0
280
     0
281
     0
  0
CLASS
  1
DICTIONARYVAR
  2
AcDbDictionaryVar
  3
ObjectDBX Classes
 90
        0
280
     0
281
     0
  0
CLASS
  1
ACDBPLACEHOLDER
  2
AcDbPlaceHolder
  3
ObjectDBX Classes
 90
        0
280
     0
281
     0
  0
CLASS
  1
LAYOUT
  2
AcDbLayout
  3
ObjectDBX Classes
 90
        0
280
     0
281
     0
  0
ENDSEC
  0
SECTION
  2
TABLES
  0
TABLE
  2
VPORT
  5
746D
330
0
100
AcDbSymbolTable
 70
     2
  0
VPORT
  5
17ECC
330
746D
100
AcDbSymbolTableRecord
100
AcDbViewportTableRecord
  2
*Active
 70
     0
 10
0.0
 20
0.0
 11
1.0
 21
1.0
 12
8716.828797622278
 22
4795.627675744793
 13
0.0
 23
0.0
 14
10.0
 24
10.0
 15
10.0
 25
10.0
 16
0.0
 26
0.0
 36
1.0
 17
0.0
 27
0.0
 37
0.0
 40
25587.07772802474
 41
1.627450980392156
 42
50.0
 43
0.0
 44
0.0
 50
0.0
 51
0.0
 71
     0
 72
     0
 73
     1
 74
     0
 75
     0
 76
     0
 77
     0
 78
     0
281
     0
 65
     1
110
0.0
120
0.0
130
0.0
111
1.0
121
0.0
131
0.0
112
0.0
122
1.0
132
0.0
 79
     0
146
0.0
  0
ENDTAB
  0
TABLE
  2
LTYPE
  5
746A
330
0
100
AcDbSymbolTable
 70
     3
  0
LTYPE
  5
7477
330
746A
100
AcDbSymbolTableRecord
100
AcDbLinetypeTableRecord
  2
BYBLOCK
 70
     0
  3

 72
    65
 73
     0
 40
0.0
  0
LTYPE
  5
7478
330
746A
100
AcDbSymbolTableRecord
100
AcDbLinetypeTableRecord
  2
BYLAYER
 70
     0
  3

 72
    65
 73
     0
 40
0.0
  0
LTYPE
  5
7479
330
746A
100
AcDbSymbolTableRecord
100
AcDbLinetypeTableRecord
  2
CONTINUOUS
 70
     0
  3
Solid line
 72
    65
 73
     0
 40
0.0
  0
LTYPE
  5
781A
330
746A
100
AcDbSymbolTableRecord
100
AcDbLinetypeTableRecord
  2
HIDDEN
 70
     0
  3
__ __ __ __ __ __ __ __ __ __ __ __ __ __ __ __
 72
    65
 73
     2
 40
0.375
 49
0.25
 74
     0
 49
-0.125
 74
     0
  0
LTYPE
  5
781B
330
746A
100
AcDbSymbolTableRecord
100
AcDbLinetypeTableRecord
  2
PHANTOM
 70
     0
  3
______  __  __  ______  __  __  ______  __  __ 
 72
    65
 73
     6
 40
2.5
 49
1.25
 74
     0
 49
-0.25
 74
     0
 49
0.25
 74
     0
 49
-0.25
 74
     0
 49
0.25
 74
     0
 49
-0.25
 74
     0
  0
ENDTAB
  0
TABLE
  2
LAYER
  5
7467
102
{ACAD_XDICTIONARY
360
16DF8
102
}
330
0
100
AcDbSymbolTable
 70
    10
  0
LAYER
  5
7474
330
7467
100
AcDbSymbolTableRecord
100
AcDbLayerTableRecord
  2
0
 70
     0
 62
     7
  6
CONTINUOUS
370
    -3
390
169A1
  0
LAYER
  5
DEB3
330
7467
100
AcDbSymbolTableRecord
100
AcDbLayerTableRecord
  2
寸法
 70
     0
 62
     4
  6
CONTINUOUS
370
    -3
390
169A1
  0
LAYER
  5
DEB4
330
7467
100
AcDbSymbolTableRecord
100
AcDbLayerTableRecord
  2
部品1
 70
     0
 62
     7
  6
CONTINUOUS
370
    -3
390
169A1
  0
LAYER
  5
DEB5
330
7467
100
AcDbSymbolTableRecord
100
AcDbLayerTableRecord
  2
補助
 70
     0
 62
    -1
  6
CONTINUOUS
370
    -3
390
169A1
  0
LAYER
  5
DEB6
330
7467
100
AcDbSymbolTableRecord
100
AcDbLayerTableRecord
  2
文字
 70
     0
 62
     7
  6
CONTINUOUS
370
    -3
390
169A1
  0
LAYER
  5
F255
330
7467
100
AcDbSymbolTableRecord
100
AcDbLayerTableRecord
  2
DEFPOINTS
 70
     0
 62
     7
  6
CONTINUOUS
290
     0
370
    -3
390
169A1
  0
LAYER
  5
10B54
330
7467
100
AcDbSymbolTableRecord
100
AcDbLayerTableRecord
  2
仕様書枠
 70
     0
 62
   230
  6
CONTINUOUS
370
    -3
390
169A1
  0
LAYER
  5
11729
330
7467
100
AcDbSymbolTableRecord
100
AcDbLayerTableRecord
  2
Ｇ．Ｌ
 70
     0
 62
    30
  6
CONTINUOUS
370
    -3
390
169A1
  0
LAYER
  5
1173F
330
7467
100
AcDbSymbolTableRecord
100
AcDbLayerTableRecord
  2
細線
 70
     0
 62
     5
  6
CONTINUOUS
370
    -3
390
169A1
  0
LAYER
  5
142E2
330
7467
100
AcDbSymbolTableRecord
100
AcDbLayerTableRecord
  2
破線
 70
     0
 62
     2
  6
HIDDEN
370
    -3
390
169A1
  0
ENDTAB
  0
TABLE
  2
STYLE
  5
7468
330
0
100
AcDbSymbolTable
 70
     4
  0
STYLE
  5
7475
330
7468
100
AcDbSymbolTableRecord
100
AcDbTextStyleTableRecord
  2
STANDARD
 70
     0
 40
0.0
 41
1.0
 50
0.0
 71
     0
 42
4.0
  3
txt
  4
C:\AutoCAD LT\bigfont.shx
  0
STYLE
  5
763C
330
7468
100
AcDbSymbolTableRecord
100
AcDbTextStyleTableRecord
  2
MSMINCHO
 70
     0
 40
0.0
 41
1.0
 50
0.0
 71
     0
 42
1.199999999999999
  3
C:\AutoCAD LT\msminch2.TTF
  4

  0
STYLE
  5
F706
330
7468
100
AcDbSymbolTableRecord
100
AcDbTextStyleTableRecord
  2
STYLE1
 70
     0
 40
0.0
 41
1.0
 50
0.0
 71
     0
 42
4.0
  3
isocp.shx
  4
bigfont.shx
  0
STYLE
  5
103BF
330
7468
100
AcDbSymbolTableRecord
100
AcDbTextStyleTableRecord
  2
STYLE2
 70
     0
 40
0.0
 41
1.0
 50
0.0
 71
     0
 42
100.0
  3
MS PGothic.ttf
  4

1001
ACAD
1000
MS PGothic
1071
    32818
  0
ENDTAB
  0
TABLE
  2
VIEW
  5
746B
330
0
100
AcDbSymbolTable
 70
     0
  0
ENDTAB
  0
TABLE
  2
UCS
  5
746C
330
0
100
AcDbSymbolTable
 70
     0
  0
ENDTAB
  0
TABLE
  2
APPID
  5
746E
330
0
100
AcDbSymbolTable
 70
     6
  0
APPID
  5
7476
330
746E
100
AcDbSymbolTableRecord
100
AcDbRegAppTableRecord
  2
ACAD
 70
     0
  0
APPID
  5
DEA9
330
746E
100
AcDbSymbolTableRecord
100
AcDbRegAppTableRecord
  2
CONTENTBLOCKICON
 70
     0
  0
APPID
  5
DEAA
330
746E
100
AcDbSymbolTableRecord
100
AcDbRegAppTableRecord
  2
CONTENTBLOCKDESCRIPTION
 70
     0
  0
APPID
  5
E71D
330
746E
100
AcDbSymbolTableRecord
100
AcDbRegAppTableRecord
  2
CONTENTTABDATA
 70
     0
  0
APPID
  5
E71E
330
746E
100
AcDbSymbolTableRecord
100
AcDbRegAppTableRecord
  2
CONTENTCURRENTTAB
 70
     0
  0
APPID
  5
F3BA
330
746E
100
AcDbSymbolTableRecord
100
AcDbRegAppTableRecord
  2
DRAWINGVARIABLESXDATA
 70
     0
  0
ENDTAB
  0
TABLE
  2
DIMSTYLE
  5
746F
330
0
100
AcDbSymbolTable
 70
     2
100
AcDbDimStyleTable
 71
     1
340
F71F
  0
DIMSTYLE
105
F71F
102
{ACAD_REACTORS
330
162CD
330
162CE
330
162CF
330
162D0
330
162E4
330
162E7
330
162EA
330
162EB
330
16301
330
16302
330
1631F
330
16320
330
16333
330
1659B
330
1659C
330
1659A
330
165E9
330
16667
330
166DD
330
16907
330
16913
330
16FCB
330
16FCC
330
16FCE
330
16FDA
330
16FDB
330
16FDC
330
16FDE
330
16FF1
330
17019
330
1701A
330
1701B
330
1701F
330
1744F
330
17A03
330
17A04
330
17A05
330
17BF0
102
}
330
746F
100
AcDbSymbolTableRecord
100
AcDbDimStyleTableRecord
  2
INABA_S40G
 70
     0
 40
40.0
 41
2.5
 42
0.5
 43
7.0
 44
1.5
 73
     0
 74
     0
 77
     3
 78
     8
140
3.0
141
0.0
143
0.0394
147
1.0
172
     1
173
     1
174
     1
178
     7
271
     1
340
F706
341
F770
343
F770
344
F770
  0
DIMSTYLE
105
17B90
330
746F
100
AcDbSymbolTableRecord
100
AcDbDimStyleTableRecord
  2
INABA_S20G
 70
     0
 40
20.0
 41
2.5
 42
0.5
 43
7.0
 44
1.5
 73
     0
 74
     0
 77
     3
 78
     8
140
3.0
141
0.0
143
0.0394
147
1.0
172
     1
173
     1
174
     1
178
     7
271
     1
340
F706
341
F770
343
F770
344
F770
  0
ENDTAB
  0
TABLE
  2
BLOCK_RECORD
  5
7466
330
0
100
AcDbSymbolTable
 70
    39
  0
BLOCK_RECORD
  5
747D
330
7466
100
AcDbSymbolTableRecord
100
AcDbBlockTableRecord
  2
*MODEL_SPACE
340
169A6
  0
BLOCK_RECORD
  5
747A
330
7466
100
AcDbSymbolTableRecord
100
AcDbBlockTableRecord
  2
*PAPER_SPACE
340
169A7
  0
BLOCK_RECORD
  5
F770
330
7466
100
AcDbSymbolTableRecord
100
AcDbBlockTableRecord
  2
_DOTSMALL
340
0
102
{BLKREFS
331
169B1
331
169B2
331
169BA
331
169BB
331
169C5
331
169C6
331
169CE
331
169CF
331
169D8
331
169D9
331
169E3
331
169E4
331
169EA
331
169EB
331
169F6
331
169F7
331
16A00
331
16A01
331
16A0B
331
16A0C
331
16A14
331
16A15
331
16A1F
331
16A20
331
16A2B
331
16A2C
331
16A36
331
16A37
331
16A40
331
16A41
331
16A49
331
16A4A
331
16A51
331
16A52
331
16A5A
331
16A5B
331
16A65
331
16A66
331
16A70
331
16A71
331
16A79
331
16A7A
331
17774
331
17775
331
177B0
331
177B1
331
177E1
331
177E2
331
177EA
331
177EB
331
177F3
331
177F4
331
177FC
331
177FD
331
17822
331
17823
331
1784A
331
1784B
331
17854
331
17855
331
17AFE
331
17AFF
331
17D4B
331
17D4C
331
17E45
331
17E46
331
17E4E
331
17E4F
331
17E57
331
17E58
331
17E60
331
17E61
331
17EA0
331
17EA1
331
17EA9
331
17EAA
102
}
  0
BLOCK_RECORD
  5
16338
330
7466
100
AcDbSymbolTableRecord
100
AcDbBlockTableRecord
  2
*D1
340
0
  0
BLOCK_RECORD
  5
16344
330
7466
100
AcDbSymbolTableRecord
100
AcDbBlockTableRecord
  2
*D2
340
0
  0
BLOCK_RECORD
  5
16352
330
7466
100
AcDbSymbolTableRecord
100
AcDbBlockTableRecord
  2
*D3
340
0
  0
BLOCK_RECORD
  5
16360
330
7466
100
AcDbSymbolTableRecord
100
AcDbBlockTableRecord
  2
*D4
340
0
  0
BLOCK_RECORD
  5
16384
330
7466
100
AcDbSymbolTableRecord
100
AcDbBlockTableRecord
  2
*D5
340
0
  0
BLOCK_RECORD
  5
1638F
330
7466
100
AcDbSymbolTableRecord
100
AcDbBlockTableRecord
  2
*D6
340
0
  0
BLOCK_RECORD
  5
1639B
330
7466
100
AcDbSymbolTableRecord
100
AcDbBlockTableRecord
  2
*D7
340
0
  0
BLOCK_RECORD
  5
163A9
330
7466
100
AcDbSymbolTableRecord
100
AcDbBlockTableRecord
  2
*D8
340
0
  0
BLOCK_RECORD
  5
163B8
330
7466
100
AcDbSymbolTableRecord
100
AcDbBlockTableRecord
  2
*D9
340
0
  0
BLOCK_RECORD
  5
163C7
330
7466
100
AcDbSymbolTableRecord
100
AcDbBlockTableRecord
  2
*D10
340
0
  0
BLOCK_RECORD
  5
163E1
330
7466
100
AcDbSymbolTableRecord
100
AcDbBlockTableRecord
  2
*D11
340
0
  0
BLOCK_RECORD
  5
163ED
330
7466
100
AcDbSymbolTableRecord
100
AcDbBlockTableRecord
  2
*D12
340
0
  0
BLOCK_RECORD
  5
163FB
330
7466
100
AcDbSymbolTableRecord
100
AcDbBlockTableRecord
  2
*D13
340
0
  0
BLOCK_RECORD
  5
1659E
330
7466
100
AcDbSymbolTableRecord
100
AcDbBlockTableRecord
  2
*D14
340
0
  0
BLOCK_RECORD
  5
165B5
330
7466
100
AcDbSymbolTableRecord
100
AcDbBlockTableRecord
  2
*D15
340
0
  0
BLOCK_RECORD
  5
165C4
330
7466
100
AcDbSymbolTableRecord
100
AcDbBlockTableRecord
  2
*D16
340
0
  0
BLOCK_RECORD
  5
165EA
330
7466
100
AcDbSymbolTableRecord
100
AcDbBlockTableRecord
  2
*D17
340
0
  0
BLOCK_RECORD
  5
166AD
330
7466
100
AcDbSymbolTableRecord
100
AcDbBlockTableRecord
  2
*D18
340
0
  0
BLOCK_RECORD
  5
166CF
330
7466
100
AcDbSymbolTableRecord
100
AcDbBlockTableRecord
  2
*D19
340
0
  0
BLOCK_RECORD
  5
168FB
330
7466
100
AcDbSymbolTableRecord
100
AcDbBlockTableRecord
  2
*D20
340
0
  0
BLOCK_RECORD
  5
16908
330
7466
100
AcDbSymbolTableRecord
100
AcDbBlockTableRecord
  2
*D21
340
0
  0
BLOCK_RECORD
  5
17110
330
7466
100
AcDbSymbolTableRecord
100
AcDbBlockTableRecord
  2
*D22
340
0
  0
BLOCK_RECORD
  5
1711C
330
7466
100
AcDbSymbolTableRecord
100
AcDbBlockTableRecord
  2
*D23
340
0
  0
BLOCK_RECORD
  5
17138
330
7466
100
AcDbSymbolTableRecord
100
AcDbBlockTableRecord
  2
*D24
340
0
  0
BLOCK_RECORD
  5
1715C
330
7466
100
AcDbSymbolTableRecord
100
AcDbBlockTableRecord
  2
*D25
340
0
  0
BLOCK_RECORD
  5
17168
330
7466
100
AcDbSymbolTableRecord
100
AcDbBlockTableRecord
  2
*D26
340
0
  0
BLOCK_RECORD
  5
17174
330
7466
100
AcDbSymbolTableRecord
100
AcDbBlockTableRecord
  2
*D27
340
0
  0
BLOCK_RECORD
  5
17180
330
7466
100
AcDbSymbolTableRecord
100
AcDbBlockTableRecord
  2
*D28
340
0
  0
BLOCK_RECORD
  5
1718D
330
7466
100
AcDbSymbolTableRecord
100
AcDbBlockTableRecord
  2
*D29
340
0
  0
BLOCK_RECORD
  5
1719A
330
7466
100
AcDbSymbolTableRecord
100
AcDbBlockTableRecord
  2
*D30
340
0
  0
BLOCK_RECORD
  5
171A6
330
7466
100
AcDbSymbolTableRecord
100
AcDbBlockTableRecord
  2
*D31
340
0
  0
BLOCK_RECORD
  5
171B4
330
7466
100
AcDbSymbolTableRecord
100
AcDbBlockTableRecord
  2
*D32
340
0
  0
BLOCK_RECORD
  5
171C0
330
7466
100
AcDbSymbolTableRecord
100
AcDbBlockTableRecord
  2
*D33
340
0
  0
BLOCK_RECORD
  5
174B0
330
7466
100
AcDbSymbolTableRecord
100
AcDbBlockTableRecord
  2
*D34
340
0
  0
BLOCK_RECORD
  5
17A78
330
7466
100
AcDbSymbolTableRecord
100
AcDbBlockTableRecord
  2
*D35
340
0
  0
BLOCK_RECORD
  5
17A85
330
7466
100
AcDbSymbolTableRecord
100
AcDbBlockTableRecord
  2
*D36
340
0
  0
BLOCK_RECORD
  5
17A93
330
7466
100
AcDbSymbolTableRecord
100
AcDbBlockTableRecord
  2
*D37
340
0
  0
BLOCK_RECORD
  5
17BF7
330
7466
100
AcDbSymbolTableRecord
100
AcDbBlockTableRecord
  2
*D38
340
0
  0
ENDTAB
  0
ENDSEC
  0
SECTION
  2
BLOCKS
  0
BLOCK
  5
7489
330
747D
100
AcDbEntity
  8
0
100
AcDbBlockBegin
  2
*MODEL_SPACE
 70
     0
 10
0.0
 20
0.0
 30
0.0
  3
*MODEL_SPACE
  1

  0
ENDBLK
  5
748A
330
747D
100
AcDbEntity
  8
0
100
AcDbBlockEnd
  0
BLOCK
  5
7487
330
747A
100
AcDbEntity
 67
     1
  8
0
100
AcDbBlockBegin
  2
*PAPER_SPACE
 70
     0
 10
0.0
 20
0.0
 30
0.0
  3
*PAPER_SPACE
  1

  0
ENDBLK
  5
7488
330
747A
100
AcDbEntity
 67
     1
  8
0
100
AcDbBlockEnd
  0
BLOCK
  5
F771
330
F770
100
AcDbEntity
  8
0
 48
50.0
100
AcDbBlockBegin
  2
_DOTSMALL
 70
     0
 10
0.0
 20
0.0
 30
0.0
  3
_DOTSMALL
  1

  0
LWPOLYLINE
  5
F772
330
F770
100
AcDbEntity
  8
0
  6
ByBlock
 62
     0
 48
50.0
100
AcDbPolyline
 90
        2
 70
     1
 43
0.5
 10
-0.0625
 20
0.0
 42
1.0
 10
0.0625
 20
0.0
 42
1.0
  0
ENDBLK
  5
F776
330
F770
100
AcDbEntity
  8
0
 48
50.0
100
AcDbBlockEnd
  0
BLOCK
  5
164EB
330
16338
100
AcDbEntity
  8
0
 48
50.0
100
AcDbBlockBegin
  2
*D1
 70
     1
 10
0.0
 20
0.0
 30
0.0
  3
*D1
  1

  0
LINE
  5
16A76
330
16338
100
AcDbEntity
  8
寸法
 62
     0
 48
50.0
370
    -2
100
AcDbLine
 10
8709.673057123664
 20
9330.03811796731
 30
0.0
 11
9397.099402858071
 21
9330.03811796731
 31
0.0
  0
LINE
  5
16A77
330
16338
100
AcDbEntity
  8
寸法
 62
     0
 48
50.0
370
    -2
100
AcDbLine
 10
8709.673057123639
 20
7650.038117967295
 30
0.0
 11
9397.099402858071
 21
7650.038117967295
 31
0.0
  0
LINE
  5
16A78
330
16338
100
AcDbEntity
  8
寸法
 62
     0
 48
50.0
370
    -2
100
AcDbLine
 10
9337.09940285807
 20
9330.03811796731
 30
0.0
 11
9337.09940285807
 21
7650.038117967295
 31
0.0
  0
INSERT
  5
16A79
330
16338
100
AcDbEntity
  8
寸法
 62
     0
 48
50.0
370
    -2
100
AcDbBlockReference
  2
_DOTSMALL
 10
9337.09940285807
 20
9330.03811796731
 30
0.0
 41
100.0
 42
100.0
 43
100.0
 50
90.0
  0
INSERT
  5
16A7A
330
16338
100
AcDbEntity
  8
寸法
 62
     0
 48
50.0
370
    -2
100
AcDbBlockReference
  2
_DOTSMALL
 10
9337.09940285807
 20
7650.038117967295
 30
0.0
 41
100.0
 42
100.0
 43
100.0
 50
270.0
  0
MTEXT
  5
16A7B
330
16338
100
AcDbEntity
  8
寸法
 62
     7
 48
50.0
100
AcDbMText
 10
9237.087591834447
 20
8490.038117967305
 30
0.0
 40
120.0
 41
0.0
 71
     5
 72
     1
  1
\A1;4X420=1680
  7
STYLE1
 11
0.0000000000000001
 21
1.0
 31
0.0
 73
     1
 44
1.0
1001
ACAD
1000
MTEXTBEGIN
1070
    73
1070
     1
1070
    44
1040
1.0
1070
    74
1070
     0
1000
MTEXTEND
  0
POINT
  5
16A7C
330
16338
100
AcDbEntity
  8
DEFPOINTS
 62
     0
 48
50.0
100
AcDbPoint
 10
8689.673057123664
 20
9330.03811796731
 30
0.0
  0
POINT
  5
16A7D
330
16338
100
AcDbEntity
  8
DEFPOINTS
 62
     0
 48
50.0
100
AcDbPoint
 10
8689.67305712364
 20
7650.038117967295
 30
0.0
  0
POINT
  5
16A7E
330
16338
100
AcDbEntity
  8
DEFPOINTS
 62
     0
 48
50.0
100
AcDbPoint
 10
9337.09940285807
 20
7650.038117967295
 30
0.0
  0
ENDBLK
  5
164F5
330
16338
100
AcDbEntity
  8
0
 48
50.0
100
AcDbBlockEnd
  0
BLOCK
  5
16414
330
16344
100
AcDbEntity
  8
0
 48
50.0
100
AcDbBlockBegin
  2
*D2
 70
     1
 10
0.0
 20
0.0
 30
0.0
  3
*D2
  1

  0
LINE
  5
16A6B
330
16344
100
AcDbEntity
  8
寸法
 62
     0
 48
50.0
370
    -2
100
AcDbLine
 10
8709.673057123639
 20
7650.038117967295
 30
0.0
 11
9397.099402858051
 21
7650.038117967295
 31
0.0
  0
LINE
  5
16A6C
330
16344
100
AcDbEntity
  8
寸法
 62
     0
 48
50.0
370
    -2
100
AcDbLine
 10
8709.673057123639
 20
7595.038117967298
 30
0.0
 11
9397.099402858051
 21
7595.038117967298
 31
0.0
  0
LINE
  5
16A6D
330
16344
100
AcDbEntity
  8
寸法
 62
     0
 48
50.0
370
    -2
100
AcDbLine
 10
9337.099402858049
 20
7650.038117967295
 30
0.0
 11
9337.099402858049
 21
7750.038117967296
 31
0.0
  0
LINE
  5
16A6E
330
16344
100
AcDbEntity
  8
寸法
 62
     0
 48
50.0
370
    -2
100
AcDbLine
 10
9337.099402858049
 20
7595.038117967298
 30
0.0
 11
9337.099402858049
 21
7108.691369688196
 31
0.0
  0
LINE
  5
16A6F
330
16344
100
AcDbEntity
  8
寸法
 62
     0
 48
50.0
370
    -2
100
AcDbLine
 10
9337.099402858049
 20
7650.038117967295
 30
0.0
 11
9337.099402858049
 21
7595.038117967298
 31
0.0
  0
INSERT
  5
16A70
330
16344
100
AcDbEntity
  8
寸法
 62
     0
 48
50.0
370
    -2
100
AcDbBlockReference
  2
_DOTSMALL
 10
9337.099402858049
 20
7650.038117967295
 30
0.0
 41
100.0
 42
100.0
 43
100.0
 50
270.0
  0
INSERT
  5
16A71
330
16344
100
AcDbEntity
  8
寸法
 62
     0
 48
50.0
370
    -2
100
AcDbBlockReference
  2
_DOTSMALL
 10
9337.099402858049
 20
7595.038117967298
 30
0.0
 41
100.0
 42
100.0
 43
100.0
 50
90.0
  0
MTEXT
  5
16A72
330
16344
100
AcDbEntity
  8
寸法
 62
     7
 48
50.0
100
AcDbMText
 10
9237.099402858047
 20
7217.176651062437
 30
0.0
 40
120.0
 41
0.0
 71
     5
 72
     1
  1
\A1;55
  7
STYLE1
 11
0.0000000000000001
 21
1.0
 31
0.0
 73
     1
 44
1.0
1001
ACAD
1000
MTEXTBEGIN
1070
    73
1070
     1
1070
    44
1040
1.0
1070
    74
1070
     0
1000
MTEXTEND
  0
POINT
  5
16A73
330
16344
100
AcDbEntity
  8
DEFPOINTS
 62
     0
 48
50.0
100
AcDbPoint
 10
8689.67305712364
 20
7650.038117967295
 30
0.0
  0
POINT
  5
16A74
330
16344
100
AcDbEntity
  8
DEFPOINTS
 62
     0
 48
50.0
100
AcDbPoint
 10
8689.67305712364
 20
7595.038117967298
 30
0.0
  0
POINT
  5
16A75
330
16344
100
AcDbEntity
  8
DEFPOINTS
 62
     0
 48
50.0
100
AcDbPoint
 10
9337.099402858049
 20
7595.038117967298
 30
0.0
  0
ENDBLK
  5
16420
330
16344
100
AcDbEntity
  8
0
 48
50.0
100
AcDbBlockEnd
  0
BLOCK
  5
16421
330
16352
100
AcDbEntity
  8
0
 48
50.0
100
AcDbBlockBegin
  2
*D3
 70
     1
 10
0.0
 20
0.0
 30
0.0
  3
*D3
  1

  0
LINE
  5
16A60
330
16352
100
AcDbEntity
  8
寸法
 62
     0
 48
50.0
370
    -2
100
AcDbLine
 10
8709.673057123664
 20
9385.038117967306
 30
0.0
 11
9397.099402858076
 21
9385.038117967306
 31
0.0
  0
LINE
  5
16A61
330
16352
100
AcDbEntity
  8
寸法
 62
     0
 48
50.0
370
    -2
100
AcDbLine
 10
8709.673057123664
 20
9330.03811796731
 30
0.0
 11
9397.099402858076
 21
9330.03811796731
 31
0.0
  0
LINE
  5
16A62
330
16352
100
AcDbEntity
  8
寸法
 62
     0
 48
50.0
370
    -2
100
AcDbLine
 10
9337.099402858076
 20
9330.03811796731
 30
0.0
 11
9337.099402858076
 21
9230.038117967309
 31
0.0
  0
LINE
  5
16A63
330
16352
100
AcDbEntity
  8
寸法
 62
     0
 48
50.0
370
    -2
100
AcDbLine
 10
9337.099402858076
 20
9385.038117967306
 30
0.0
 11
9337.099402858076
 21
9802.008680715783
 31
0.0
  0
LINE
  5
16A64
330
16352
100
AcDbEntity
  8
寸法
 62
     0
 48
50.0
370
    -2
100
AcDbLine
 10
9337.099402858076
 20
9330.03811796731
 30
0.0
 11
9337.099402858076
 21
9385.038117967306
 31
0.0
  0
INSERT
  5
16A65
330
16352
100
AcDbEntity
  8
寸法
 62
     0
 48
50.0
370
    -2
100
AcDbBlockReference
  2
_DOTSMALL
 10
9337.099402858076
 20
9330.03811796731
 30
0.0
 41
100.0
 42
100.0
 43
100.0
 50
90.0
  0
INSERT
  5
16A66
330
16352
100
AcDbEntity
  8
寸法
 62
     0
 48
50.0
370
    -2
100
AcDbBlockReference
  2
_DOTSMALL
 10
9337.099402858076
 20
9385.038117967306
 30
0.0
 41
100.0
 42
100.0
 43
100.0
 50
270.0
  0
MTEXT
  5
16A67
330
16352
100
AcDbEntity
  8
寸法
 62
     7
 48
50.0
100
AcDbMText
 10
9237.099402858074
 20
9693.523399341547
 30
0.0
 40
120.0
 41
0.0
 71
     5
 72
     1
  1
\A1;55
  7
STYLE1
 11
0.0000000000000001
 21
1.0
 31
0.0
 73
     1
 44
1.0
1001
ACAD
1000
MTEXTBEGIN
1070
    73
1070
     1
1070
    44
1040
1.0
1070
    74
1070
     0
1000
MTEXTEND
  0
POINT
  5
16A68
330
16352
100
AcDbEntity
  8
DEFPOINTS
 62
     0
 48
50.0
100
AcDbPoint
 10
8689.673057123664
 20
9385.038117967306
 30
0.0
  0
POINT
  5
16A69
330
16352
100
AcDbEntity
  8
DEFPOINTS
 62
     0
 48
50.0
100
AcDbPoint
 10
8689.673057123664
 20
9330.03811796731
 30
0.0
  0
POINT
  5
16A6A
330
16352
100
AcDbEntity
  8
DEFPOINTS
 62
     0
 48
50.0
100
AcDbPoint
 10
9337.099402858076
 20
9330.03811796731
 30
0.0
  0
ENDBLK
  5
1642D
330
16352
100
AcDbEntity
  8
0
 48
50.0
100
AcDbBlockEnd
  0
BLOCK
  5
164CA
330
16360
100
AcDbEntity
  8
0
 48
50.0
100
AcDbBlockBegin
  2
*D4
 70
     1
 10
0.0
 20
0.0
 30
0.0
  3
*D4
  1

  0
LINE
  5
16A57
330
16360
100
AcDbEntity
  8
寸法
 62
     0
 48
50.0
370
    -2
100
AcDbLine
 10
8709.673057123664
 20
9385.038117967306
 30
0.0
 11
9762.206344597709
 21
9385.038117967306
 31
0.0
  0
LINE
  5
16A58
330
16360
100
AcDbEntity
  8
寸法
 62
     0
 48
50.0
370
    -2
100
AcDbLine
 10
8709.673057123639
 20
7595.038117967298
 30
0.0
 11
9762.206344597709
 21
7595.038117967298
 31
0.0
  0
LINE
  5
16A59
330
16360
100
AcDbEntity
  8
寸法
 62
     0
 48
50.0
370
    -2
100
AcDbLine
 10
9702.20634459771
 20
9385.038117967306
 30
0.0
 11
9702.20634459771
 21
7595.038117967298
 31
0.0
  0
INSERT
  5
16A5A
330
16360
100
AcDbEntity
  8
寸法
 62
     0
 48
50.0
370
    -2
100
AcDbBlockReference
  2
_DOTSMALL
 10
9702.20634459771
 20
9385.038117967306
 30
0.0
 41
100.0
 42
100.0
 43
100.0
 50
90.0
  0
INSERT
  5
16A5B
330
16360
100
AcDbEntity
  8
寸法
 62
     0
 48
50.0
370
    -2
100
AcDbBlockReference
  2
_DOTSMALL
 10
9702.20634459771
 20
7595.038117967298
 30
0.0
 41
100.0
 42
100.0
 43
100.0
 50
270.0
  0
MTEXT
  5
16A5C
330
16360
100
AcDbEntity
  8
寸法
 62
     7
 48
50.0
100
AcDbMText
 10
9602.206344597709
 20
8490.038117967305
 30
0.0
 40
120.0
 41
0.0
 71
     5
 72
     1
  1
\A1;1790
  7
STYLE1
 11
0.0000000000000001
 21
1.0
 31
0.0
 73
     1
 44
1.0
1001
ACAD
1000
MTEXTBEGIN
1070
    73
1070
     1
1070
    44
1040
1.0
1070
    74
1070
     0
1000
MTEXTEND
  0
POINT
  5
16A5D
330
16360
100
AcDbEntity
  8
DEFPOINTS
 62
     0
 48
50.0
100
AcDbPoint
 10
8689.673057123664
 20
9385.038117967306
 30
0.0
  0
POINT
  5
16A5E
330
16360
100
AcDbEntity
  8
DEFPOINTS
 62
     0
 48
50.0
100
AcDbPoint
 10
8689.67305712364
 20
7595.038117967298
 30
0.0
  0
POINT
  5
16A5F
330
16360
100
AcDbEntity
  8
DEFPOINTS
 62
     0
 48
50.0
100
AcDbPoint
 10
9702.20634459771
 20
7595.038117967298
 30
0.0
  0
ENDBLK
  5
164D4
330
16360
100
AcDbEntity
  8
0
 48
50.0
100
AcDbBlockEnd
  0
BLOCK
  5
1644F
330
16384
100
AcDbEntity
  8
0
 48
50.0
100
AcDbBlockBegin
  2
*D5
 70
     1
 10
0.0
 20
0.0
 30
0.0
  3
*D5
  1

  0
LINE
  5
16A4F
330
16384
100
AcDbEntity
  8
寸法
 62
     0
 48
50.0
370
    -2
100
AcDbLine
 10
6162.673057123657
 20
7601.038117967206
 30
0.0
 11
6162.673057123657
 21
7000.607347201043
 31
0.0
  0
LINE
  5
16A50
330
16384
100
AcDbEntity
  8
寸法
 62
     0
 48
50.0
370
    -2
100
AcDbLine
 10
8586.673057123638
 20
7060.607347201043
 30
0.0
 11
6162.673057123657
 21
7060.607347201043
 31
0.0
  0
INSERT
  5
16A51
330
16384
100
AcDbEntity
  8
寸法
 62
     0
 48
50.0
370
    -2
100
AcDbBlockReference
  2
_DOTSMALL
 10
8586.673057123638
 20
7060.607347201043
 30
0.0
 41
100.0
 42
100.0
 43
100.0
  0
INSERT
  5
16A52
330
16384
100
AcDbEntity
  8
寸法
 62
     0
 48
50.0
370
    -2
100
AcDbBlockReference
  2
_DOTSMALL
 10
6162.673057123657
 20
7060.607347201043
 30
0.0
 41
100.0
 42
100.0
 43
100.0
 50
180.0
  0
MTEXT
  5
16A53
330
16384
100
AcDbEntity
  8
寸法
 62
     7
 48
50.0
100
AcDbMText
 10
7374.673057123648
 20
7160.619158224665
 30
0.0
 40
120.0
 41
0.0
 71
     5
 72
     1
  1
\A1;有効開口部間口 2424
  7
STYLE1
 73
     1
 44
1.0
1001
ACAD
1000
MTEXTBEGIN
1070
    73
1070
     1
1070
    44
1040
1.0
1070
    74
1070
     0
1000
MTEXTEND
  0
POINT
  5
16A54
330
16384
100
AcDbEntity
  8
DEFPOINTS
 62
     0
 48
50.0
100
AcDbPoint
 10
8586.673057123638
 20
7621.038117967208
 30
0.0
  0
POINT
  5
16A55
330
16384
100
AcDbEntity
  8
DEFPOINTS
 62
     0
 48
50.0
100
AcDbPoint
 10
6162.673057123657
 20
7621.038117967207
 30
0.0
  0
POINT
  5
16A56
330
16384
100
AcDbEntity
  8
DEFPOINTS
 62
     0
 48
50.0
100
AcDbPoint
 10
6162.673057123657
 20
7060.607347201043
 30
0.0
  0
ENDBLK
  5
16458
330
16384
100
AcDbEntity
  8
0
 48
50.0
100
AcDbBlockEnd
  0
BLOCK
  5
166C4
330
1638F
100
AcDbEntity
  8
0
 48
50.0
100
AcDbBlockBegin
  2
*D6
 70
     1
 10
0.0
 20
0.0
 30
0.0
  3
*D6
  1

  0
LINE
  5
16A46
330
1638F
100
AcDbEntity
  8
寸法
 62
     0
 48
50.0
370
    -2
100
AcDbLine
 10
3429.673057123657
 20
7575.038117967205
 30
0.0
 11
3429.673057123657
 21
6554.434351610169
 31
0.0
  0
LINE
  5
16A47
330
1638F
100
AcDbEntity
  8
寸法
 62
     0
 48
50.0
370
    -2
100
AcDbLine
 10
8689.673057123627
 20
7575.038117967299
 30
0.0
 11
8689.673057123627
 21
6554.434351610169
 31
0.0
  0
LINE
  5
16A48
330
1638F
100
AcDbEntity
  8
寸法
 62
     0
 48
50.0
370
    -2
100
AcDbLine
 10
3429.673057123657
 20
6614.434351610168
 30
0.0
 11
8689.673057123627
 21
6614.434351610168
 31
0.0
  0
INSERT
  5
16A49
330
1638F
100
AcDbEntity
  8
寸法
 62
     0
 48
50.0
370
    -2
100
AcDbBlockReference
  2
_DOTSMALL
 10
3429.673057123657
 20
6614.434351610168
 30
0.0
 41
100.0
 42
100.0
 43
100.0
 50
180.0
  0
INSERT
  5
16A4A
330
1638F
100
AcDbEntity
  8
寸法
 62
     0
 48
50.0
370
    -2
100
AcDbBlockReference
  2
_DOTSMALL
 10
8689.673057123627
 20
6614.434351610168
 30
0.0
 41
100.0
 42
100.0
 43
100.0
  0
MTEXT
  5
16A4B
330
1638F
100
AcDbEntity
  8
寸法
 62
     7
 48
50.0
100
AcDbMText
 10
6059.673057123642
 20
6714.446162633791
 30
0.0
 40
120.0
 41
0.0
 71
     5
 72
     1
  1
\A1;5260
  7
STYLE1
 73
     1
 44
1.0
1001
ACAD
1000
MTEXTBEGIN
1070
    73
1070
     1
1070
    44
1040
1.0
1070
    74
1070
     0
1000
MTEXTEND
  0
POINT
  5
16A4C
330
1638F
100
AcDbEntity
  8
DEFPOINTS
 62
     0
 48
50.0
100
AcDbPoint
 10
3429.673057123657
 20
7595.038117967203
 30
0.0
  0
POINT
  5
16A4D
330
1638F
100
AcDbEntity
  8
DEFPOINTS
 62
     0
 48
50.0
100
AcDbPoint
 10
8689.673057123627
 20
7595.038117967298
 30
0.0
  0
POINT
  5
16A4E
330
1638F
100
AcDbEntity
  8
DEFPOINTS
 62
     0
 48
50.0
100
AcDbPoint
 10
8689.673057123627
 20
6614.434351610168
 30
0.0
  0
ENDBLK
  5
166CE
330
1638F
100
AcDbEntity
  8
0
 48
50.0
100
AcDbBlockEnd
  0
BLOCK
  5
16464
330
1639B
100
AcDbEntity
  8
0
 48
50.0
100
AcDbBlockBegin
  2
*D7
 70
     1
 10
0.0
 20
0.0
 30
0.0
  3
*D7
  1

  0
LINE
  5
16A3B
330
1639B
100
AcDbEntity
  8
寸法
 62
     0
 48
50.0
370
    -2
100
AcDbLine
 10
3484.673057123654
 20
7575.038117967207
 30
0.0
 11
3484.673057123654
 21
7000.607347201043
 31
0.0
  0
LINE
  5
16A3C
330
1639B
100
AcDbEntity
  8
寸法
 62
     0
 48
50.0
370
    -2
100
AcDbLine
 10
3429.673057123657
 20
7575.038117967205
 30
0.0
 11
3429.673057123657
 21
7000.607347201043
 31
0.0
  0
LINE
  5
16A3D
330
1639B
100
AcDbEntity
  8
寸法
 62
     0
 48
50.0
370
    -2
100
AcDbLine
 10
3484.673057123654
 20
7060.607347201043
 30
0.0
 11
3584.673057123654
 21
7060.607347201043
 31
0.0
  0
LINE
  5
16A3E
330
1639B
100
AcDbEntity
  8
寸法
 62
     0
 48
50.0
370
    -2
100
AcDbLine
 10
3429.673057123657
 20
7060.607347201043
 30
0.0
 11
3012.70249437518
 21
7060.607347201043
 31
0.0
  0
LINE
  5
16A3F
330
1639B
100
AcDbEntity
  8
寸法
 62
     0
 48
50.0
370
    -2
100
AcDbLine
 10
3484.673057123654
 20
7060.607347201043
 30
0.0
 11
3429.673057123657
 21
7060.607347201043
 31
0.0
  0
INSERT
  5
16A40
330
1639B
100
AcDbEntity
  8
寸法
 62
     0
 48
50.0
370
    -2
100
AcDbBlockReference
  2
_DOTSMALL
 10
3484.673057123654
 20
7060.607347201043
 30
0.0
 41
100.0
 42
100.0
 43
100.0
 50
180.0
  0
INSERT
  5
16A41
330
1639B
100
AcDbEntity
  8
寸法
 62
     0
 48
50.0
370
    -2
100
AcDbBlockReference
  2
_DOTSMALL
 10
3429.673057123657
 20
7060.607347201043
 30
0.0
 41
100.0
 42
100.0
 43
100.0
  0
MTEXT
  5
16A42
330
1639B
100
AcDbEntity
  8
寸法
 62
     7
 48
50.0
100
AcDbMText
 10
3121.187775749418
 20
7160.607347201043
 30
0.0
 40
120.0
 41
0.0
 71
     5
 72
     1
  1
\A1;55
  7
STYLE1
 73
     1
 44
1.0
1001
ACAD
1000
MTEXTBEGIN
1070
    73
1070
     1
1070
    44
1040
1.0
1070
    74
1070
     0
1000
MTEXTEND
  0
POINT
  5
16A43
330
1639B
100
AcDbEntity
  8
DEFPOINTS
 62
     0
 48
50.0
100
AcDbPoint
 10
3484.673057123654
 20
7595.038117967206
 30
0.0
  0
POINT
  5
16A44
330
1639B
100
AcDbEntity
  8
DEFPOINTS
 62
     0
 48
50.0
100
AcDbPoint
 10
3429.673057123657
 20
7595.038117967203
 30
0.0
  0
POINT
  5
16A45
330
1639B
100
AcDbEntity
  8
DEFPOINTS
 62
     0
 48
50.0
100
AcDbPoint
 10
3429.673057123657
 20
7060.607347201043
 30
0.0
  0
ENDBLK
  5
16470
330
1639B
100
AcDbEntity
  8
0
 48
50.0
100
AcDbBlockEnd
  0
BLOCK
  5
16471
330
163A9
100
AcDbEntity
  8
0
 48
50.0
100
AcDbBlockBegin
  2
*D8
 70
     1
 10
0.0
 20
0.0
 30
0.0
  3
*D8
  1

  0
LINE
  5
16A30
330
163A9
100
AcDbEntity
  8
寸法
 62
     0
 48
50.0
370
    -2
100
AcDbLine
 10
6162.673057123657
 20
7601.038117967206
 30
0.0
 11
6162.673057123657
 21
7000.607347201043
 31
0.0
  0
LINE
  5
16A31
330
163A9
100
AcDbEntity
  8
寸法
 62
     0
 48
50.0
370
    -2
100
AcDbLine
 10
6114.673057123653
 20
7575.038117967207
 30
0.0
 11
6114.673057123653
 21
7000.607347201043
 31
0.0
  0
LINE
  5
16A32
330
163A9
100
AcDbEntity
  8
寸法
 62
     0
 48
50.0
370
    -2
100
AcDbLine
 10
6162.673057123657
 20
7060.607347201043
 30
0.0
 11
6262.673057123657
 21
7060.607347201043
 31
0.0
  0
LINE
  5
16A33
330
163A9
100
AcDbEntity
  8
寸法
 62
     0
 48
50.0
370
    -2
100
AcDbLine
 10
6114.673057123653
 20
7060.607347201043
 30
0.0
 11
6014.673057123653
 21
7060.607347201043
 31
0.0
  0
MTEXT
  5
16A34
330
163A9
100
AcDbEntity
  8
寸法
 62
     7
 48
50.0
100
AcDbMText
 10
6275.575028123714
 20
7160.607347201043
 30
0.0
 40
120.0
 41
0.0
 71
     5
 72
     1
  1
\A1;48
  7
STYLE1
 73
     1
 44
1.0
1001
ACAD
1000
MTEXTBEGIN
1070
    73
1070
     1
1070
    44
1040
1.0
1070
    74
1070
     0
1000
MTEXTEND
  0
LINE
  5
16A35
330
163A9
100
AcDbEntity
  8
寸法
 62
     0
 48
50.0
370
    -2
100
AcDbLine
 10
6162.673057123657
 20
7060.607347201043
 30
0.0
 11
6114.673057123653
 21
7060.607347201043
 31
0.0
  0
INSERT
  5
16A36
330
163A9
100
AcDbEntity
  8
寸法
 62
     0
 48
50.0
370
    -2
100
AcDbBlockReference
  2
_DOTSMALL
 10
6162.673057123657
 20
7060.607347201043
 30
0.0
 41
100.0
 42
100.0
 43
100.0
 50
180.0
  0
INSERT
  5
16A37
330
163A9
100
AcDbEntity
  8
寸法
 62
     0
 48
50.0
370
    -2
100
AcDbBlockReference
  2
_DOTSMALL
 10
6114.673057123653
 20
7060.607347201043
 30
0.0
 41
100.0
 42
100.0
 43
100.0
  0
POINT
  5
16A38
330
163A9
100
AcDbEntity
  8
DEFPOINTS
 62
     0
 48
50.0
100
AcDbPoint
 10
6162.673057123657
 20
7621.038117967207
 30
0.0
  0
POINT
  5
16A39
330
163A9
100
AcDbEntity
  8
DEFPOINTS
 62
     0
 48
50.0
100
AcDbPoint
 10
6114.673057123653
 20
7595.038117967206
 30
0.0
  0
POINT
  5
16A3A
330
163A9
100
AcDbEntity
  8
DEFPOINTS
 62
     0
 48
50.0
100
AcDbPoint
 10
6114.673057123653
 20
7060.607347201043
 30
0.0
  0
ENDBLK
  5
1647E
330
163A9
100
AcDbEntity
  8
0
 48
50.0
100
AcDbBlockEnd
  0
BLOCK
  5
1647F
330
163B8
100
AcDbEntity
  8
0
 48
50.0
100
AcDbBlockBegin
  2
*D9
 70
     1
 10
0.0
 20
0.0
 30
0.0
  3
*D9
  1

  0
LINE
  5
16A25
330
163B8
100
AcDbEntity
  8
寸法
 62
     0
 48
50.0
370
    -2
100
AcDbLine
 10
8634.67305712364
 20
7575.038117967295
 30
0.0
 11
8634.67305712364
 21
7000.607347201043
 31
0.0
  0
LINE
  5
16A26
330
163B8
100
AcDbEntity
  8
寸法
 62
     0
 48
50.0
370
    -2
100
AcDbLine
 10
8586.673057123638
 20
7601.038117967208
 30
0.0
 11
8586.673057123638
 21
7000.607347201043
 31
0.0
  0
LINE
  5
16A27
330
163B8
100
AcDbEntity
  8
寸法
 62
     0
 48
50.0
370
    -2
100
AcDbLine
 10
8634.67305712364
 20
7060.607347201043
 30
0.0
 11
8734.673057123641
 21
7060.607347201043
 31
0.0
  0
LINE
  5
16A28
330
163B8
100
AcDbEntity
  8
寸法
 62
     0
 48
50.0
370
    -2
100
AcDbLine
 10
8586.673057123638
 20
7060.607347201043
 30
0.0
 11
8486.673057123638
 21
7060.607347201043
 31
0.0
  0
MTEXT
  5
16A29
330
163B8
100
AcDbEntity
  8
寸法
 62
     7
 48
50.0
100
AcDbMText
 10
8475.710159474891
 20
7160.607347201043
 30
0.0
 40
120.0
 41
0.0
 71
     5
 72
     1
  1
\A1;48
  7
STYLE1
 73
     1
 44
1.0
1001
ACAD
1000
MTEXTBEGIN
1070
    73
1070
     1
1070
    44
1040
1.0
1070
    74
1070
     0
1000
MTEXTEND
  0
LINE
  5
16A2A
330
163B8
100
AcDbEntity
  8
寸法
 62
     0
 48
50.0
370
    -2
100
AcDbLine
 10
8634.67305712364
 20
7060.607347201043
 30
0.0
 11
8586.673057123638
 21
7060.607347201043
 31
0.0
  0
INSERT
  5
16A2B
330
163B8
100
AcDbEntity
  8
寸法
 62
     0
 48
50.0
370
    -2
100
AcDbBlockReference
  2
_DOTSMALL
 10
8634.67305712364
 20
7060.607347201043
 30
0.0
 41
100.0
 42
100.0
 43
100.0
 50
180.0
  0
INSERT
  5
16A2C
330
163B8
100
AcDbEntity
  8
寸法
 62
     0
 48
50.0
370
    -2
100
AcDbBlockReference
  2
_DOTSMALL
 10
8586.673057123638
 20
7060.607347201043
 30
0.0
 41
100.0
 42
100.0
 43
100.0
  0
POINT
  5
16A2D
330
163B8
100
AcDbEntity
  8
DEFPOINTS
 62
     0
 48
50.0
100
AcDbPoint
 10
8634.67305712364
 20
7595.038117967295
 30
0.0
  0
POINT
  5
16A2E
330
163B8
100
AcDbEntity
  8
DEFPOINTS
 62
     0
 48
50.0
100
AcDbPoint
 10
8586.673057123638
 20
7621.038117967208
 30
0.0
  0
POINT
  5
16A2F
330
163B8
100
AcDbEntity
  8
DEFPOINTS
 62
     0
 48
50.0
100
AcDbPoint
 10
8586.673057123638
 20
7060.607347201043
 30
0.0
  0
ENDBLK
  5
1648C
330
163B8
100
AcDbEntity
  8
0
 48
50.0
100
AcDbBlockEnd
  0
BLOCK
  5
1648D
330
163C7
100
AcDbEntity
  8
0
 48
50.0
100
AcDbBlockBegin
  2
*D10
 70
     1
 10
0.0
 20
0.0
 30
0.0
  3
*D10
  1

  0
LINE
  5
16A1A
330
163C7
100
AcDbEntity
  8
寸法
 62
     0
 48
50.0
370
    -2
100
AcDbLine
 10
8689.67305712364
 20
7575.038117967299
 30
0.0
 11
8689.67305712364
 21
7000.607347201044
 31
0.0
  0
LINE
  5
16A1B
330
163C7
100
AcDbEntity
  8
寸法
 62
     0
 48
50.0
370
    -2
100
AcDbLine
 10
8634.67305712364
 20
7575.038117967295
 30
0.0
 11
8634.67305712364
 21
7000.607347201044
 31
0.0
  0
LINE
  5
16A1C
330
163C7
100
AcDbEntity
  8
寸法
 62
     0
 48
50.0
370
    -2
100
AcDbLine
 10
8634.67305712364
 20
7060.607347201043
 30
0.0
 11
8534.67305712364
 21
7060.607347201043
 31
0.0
  0
LINE
  5
16A1D
330
163C7
100
AcDbEntity
  8
寸法
 62
     0
 48
50.0
370
    -2
100
AcDbLine
 10
8689.67305712364
 20
7060.607347201043
 30
0.0
 11
9106.643619872114
 21
7060.607347201043
 31
0.0
  0
LINE
  5
16A1E
330
163C7
100
AcDbEntity
  8
寸法
 62
     0
 48
50.0
370
    -2
100
AcDbLine
 10
8634.67305712364
 20
7060.607347201043
 30
0.0
 11
8689.67305712364
 21
7060.607347201043
 31
0.0
  0
INSERT
  5
16A1F
330
163C7
100
AcDbEntity
  8
寸法
 62
     0
 48
50.0
370
    -2
100
AcDbBlockReference
  2
_DOTSMALL
 10
8634.67305712364
 20
7060.607347201043
 30
0.0
 41
100.0
 42
100.0
 43
100.0
  0
INSERT
  5
16A20
330
163C7
100
AcDbEntity
  8
寸法
 62
     0
 48
50.0
370
    -2
100
AcDbBlockReference
  2
_DOTSMALL
 10
8689.67305712364
 20
7060.607347201043
 30
0.0
 41
100.0
 42
100.0
 43
100.0
 50
180.0
  0
MTEXT
  5
16A21
330
163C7
100
AcDbEntity
  8
寸法
 62
     7
 48
50.0
100
AcDbMText
 10
8998.158338497876
 20
7160.607347201043
 30
0.0
 40
120.0
 41
0.0
 71
     5
 72
     1
  1
\A1;55
  7
STYLE1
 73
     1
 44
1.0
1001
ACAD
1000
MTEXTBEGIN
1070
    73
1070
     1
1070
    44
1040
1.0
1070
    74
1070
     0
1000
MTEXTEND
  0
POINT
  5
16A22
330
163C7
100
AcDbEntity
  8
DEFPOINTS
 62
     0
 48
50.0
100
AcDbPoint
 10
8689.67305712364
 20
7595.038117967298
 30
0.0
  0
POINT
  5
16A23
330
163C7
100
AcDbEntity
  8
DEFPOINTS
 62
     0
 48
50.0
100
AcDbPoint
 10
8634.67305712364
 20
7595.038117967295
 30
0.0
  0
POINT
  5
16A24
330
163C7
100
AcDbEntity
  8
DEFPOINTS
 62
     0
 48
50.0
100
AcDbPoint
 10
8634.67305712364
 20
7060.607347201043
 30
0.0
  0
ENDBLK
  5
16499
330
163C7
100
AcDbEntity
  8
0
 48
50.0
100
AcDbBlockEnd
  0
BLOCK
  5
1661C
330
163E1
100
AcDbEntity
  8
0
 48
50.0
100
AcDbBlockBegin
  2
*D11
 70
     1
 10
0.0
 20
0.0
 30
0.0
  3
*D11
  1

  0
LINE
  5
16A11
330
163E1
100
AcDbEntity
  8
寸法
 62
     0
 48
50.0
370
    -2
100
AcDbLine
 10
6114.673057123663
 20
9405.038117967212
 30
0.0
 11
6114.673057123663
 21
9660.84633759231
 31
0.0
  0
LINE
  5
16A12
330
163E1
100
AcDbEntity
  8
寸法
 62
     0
 48
50.0
370
    -2
100
AcDbLine
 10
8634.673057123665
 20
9405.038117967306
 30
0.0
 11
8634.673057123665
 21
9660.84633759231
 31
0.0
  0
LINE
  5
16A13
330
163E1
100
AcDbEntity
  8
寸法
 62
     0
 48
50.0
370
    -2
100
AcDbLine
 10
6114.673057123663
 20
9600.84633759231
 30
0.0
 11
8634.673057123665
 21
9600.84633759231
 31
0.0
  0
INSERT
  5
16A14
330
163E1
100
AcDbEntity
  8
寸法
 62
     0
 48
50.0
370
    -2
100
AcDbBlockReference
  2
_DOTSMALL
 10
6114.673057123663
 20
9600.84633759231
 30
0.0
 41
100.0
 42
100.0
 43
100.0
 50
180.0
  0
INSERT
  5
16A15
330
163E1
100
AcDbEntity
  8
寸法
 62
     0
 48
50.0
370
    -2
100
AcDbBlockReference
  2
_DOTSMALL
 10
8634.673057123665
 20
9600.84633759231
 30
0.0
 41
100.0
 42
100.0
 43
100.0
  0
MTEXT
  5
16A16
330
163E1
100
AcDbEntity
  8
寸法
 62
     7
 48
50.0
100
AcDbMText
 10
7374.673057123664
 20
9700.858148615932
 30
0.0
 40
120.0
 41
0.0
 71
     5
 72
     1
  1
\A1;6X420=2520
  7
STYLE1
 73
     1
 44
1.0
1001
ACAD
1000
MTEXTBEGIN
1070
    73
1070
     1
1070
    44
1040
1.0
1070
    74
1070
     0
1000
MTEXTEND
  0
POINT
  5
16A17
330
163E1
100
AcDbEntity
  8
DEFPOINTS
 62
     0
 48
50.0
100
AcDbPoint
 10
6114.673057123663
 20
9385.03811796721
 30
0.0
  0
POINT
  5
16A18
330
163E1
100
AcDbEntity
  8
DEFPOINTS
 62
     0
 48
50.0
100
AcDbPoint
 10
8634.673057123665
 20
9385.038117967306
 30
0.0
  0
POINT
  5
16A19
330
163E1
100
AcDbEntity
  8
DEFPOINTS
 62
     0
 48
50.0
100
AcDbPoint
 10
8634.673057123665
 20
9600.84633759231
 30
0.0
  0
ENDBLK
  5
16626
330
163E1
100
AcDbEntity
  8
0
 48
50.0
100
AcDbBlockEnd
  0
BLOCK
  5
164B0
330
163ED
100
AcDbEntity
  8
0
 48
50.0
100
AcDbBlockBegin
  2
*D12
 70
     1
 10
0.0
 20
0.0
 30
0.0
  3
*D12
  1

  0
LINE
  5
16A06
330
163ED
100
AcDbEntity
  8
寸法
 62
     0
 48
50.0
370
    -2
100
AcDbLine
 10
3429.673057123629
 20
9405.038117967212
 30
0.0
 11
3429.673057123629
 21
9660.846337592193
 31
0.0
  0
LINE
  5
16A07
330
163ED
100
AcDbEntity
  8
寸法
 62
     0
 48
50.0
370
    -2
100
AcDbLine
 10
3484.673057123663
 20
9405.038117967212
 30
0.0
 11
3484.673057123663
 21
9660.846337592193
 31
0.0
  0
LINE
  5
16A08
330
163ED
100
AcDbEntity
  8
寸法
 62
     0
 48
50.0
370
    -2
100
AcDbLine
 10
3484.673057123663
 20
9600.846337592194
 30
0.0
 11
3584.673057123664
 21
9600.846337592194
 31
0.0
  0
LINE
  5
16A09
330
163ED
100
AcDbEntity
  8
寸法
 62
     0
 48
50.0
370
    -2
100
AcDbLine
 10
3429.673057123629
 20
9600.846337592194
 30
0.0
 11
3012.702494375151
 21
9600.846337592194
 31
0.0
  0
LINE
  5
16A0A
330
163ED
100
AcDbEntity
  8
寸法
 62
     0
 48
50.0
370
    -2
100
AcDbLine
 10
3484.673057123663
 20
9600.846337592194
 30
0.0
 11
3429.673057123629
 21
9600.846337592194
 31
0.0
  0
INSERT
  5
16A0B
330
163ED
100
AcDbEntity
  8
寸法
 62
     0
 48
50.0
370
    -2
100
AcDbBlockReference
  2
_DOTSMALL
 10
3484.673057123663
 20
9600.846337592194
 30
0.0
 41
100.0
 42
100.0
 43
100.0
 50
180.0
  0
INSERT
  5
16A0C
330
163ED
100
AcDbEntity
  8
寸法
 62
     0
 48
50.0
370
    -2
100
AcDbBlockReference
  2
_DOTSMALL
 10
3429.673057123629
 20
9600.846337592194
 30
0.0
 41
100.0
 42
100.0
 43
100.0
  0
MTEXT
  5
16A0D
330
163ED
100
AcDbEntity
  8
寸法
 62
     7
 48
50.0
100
AcDbMText
 10
3121.18777574939
 20
9700.846337592194
 30
0.0
 40
120.0
 41
0.0
 71
     5
 72
     1
  1
\A1;55
  7
STYLE1
 73
     1
 44
1.0
1001
ACAD
1000
MTEXTBEGIN
1070
    73
1070
     1
1070
    44
1040
1.0
1070
    74
1070
     0
1000
MTEXTEND
  0
POINT
  5
16A0E
330
163ED
100
AcDbEntity
  8
DEFPOINTS
 62
     0
 48
50.0
100
AcDbPoint
 10
3429.673057123629
 20
9385.03811796721
 30
0.0
  0
POINT
  5
16A0F
330
163ED
100
AcDbEntity
  8
DEFPOINTS
 62
     0
 48
50.0
100
AcDbPoint
 10
3484.673057123663
 20
9385.03811796721
 30
0.0
  0
POINT
  5
16A10
330
163ED
100
AcDbEntity
  8
DEFPOINTS
 62
     0
 48
50.0
100
AcDbPoint
 10
3484.673057123663
 20
9600.846337592194
 30
0.0
  0
ENDBLK
  5
164BC
330
163ED
100
AcDbEntity
  8
0
 48
50.0
100
AcDbBlockEnd
  0
BLOCK
  5
164BD
330
163FB
100
AcDbEntity
  8
0
 48
50.0
100
AcDbBlockBegin
  2
*D13
 70
     1
 10
0.0
 20
0.0
 30
0.0
  3
*D13
  1

  0
LINE
  5
169FB
330
163FB
100
AcDbEntity
  8
寸法
 62
     0
 48
50.0
370
    -2
100
AcDbLine
 10
8634.673057123665
 20
9405.038117967306
 30
0.0
 11
8634.673057123665
 21
9660.846337592291
 31
0.0
  0
LINE
  5
169FC
330
163FB
100
AcDbEntity
  8
寸法
 62
     0
 48
50.0
370
    -2
100
AcDbLine
 10
8689.673057123664
 20
9405.038117967306
 30
0.0
 11
8689.673057123664
 21
9660.846337592291
 31
0.0
  0
LINE
  5
169FD
330
163FB
100
AcDbEntity
  8
寸法
 62
     0
 48
50.0
370
    -2
100
AcDbLine
 10
8634.673057123665
 20
9600.846337592292
 30
0.0
 11
8534.673057123665
 21
9600.846337592292
 31
0.0
  0
LINE
  5
169FE
330
163FB
100
AcDbEntity
  8
寸法
 62
     0
 48
50.0
370
    -2
100
AcDbLine
 10
8689.673057123664
 20
9600.846337592292
 30
0.0
 11
9106.643619872141
 21
9600.846337592292
 31
0.0
  0
LINE
  5
169FF
330
163FB
100
AcDbEntity
  8
寸法
 62
     0
 48
50.0
370
    -2
100
AcDbLine
 10
8634.673057123665
 20
9600.846337592292
 30
0.0
 11
8689.673057123664
 21
9600.846337592292
 31
0.0
  0
INSERT
  5
16A00
330
163FB
100
AcDbEntity
  8
寸法
 62
     0
 48
50.0
370
    -2
100
AcDbBlockReference
  2
_DOTSMALL
 10
8634.673057123665
 20
9600.846337592292
 30
0.0
 41
100.0
 42
100.0
 43
100.0
  0
INSERT
  5
16A01
330
163FB
100
AcDbEntity
  8
寸法
 62
     0
 48
50.0
370
    -2
100
AcDbBlockReference
  2
_DOTSMALL
 10
8689.673057123664
 20
9600.846337592292
 30
0.0
 41
100.0
 42
100.0
 43
100.0
 50
180.0
  0
MTEXT
  5
16A02
330
163FB
100
AcDbEntity
  8
寸法
 62
     7
 48
50.0
100
AcDbMText
 10
8998.158338497901
 20
9700.846337592292
 30
0.0
 40
120.0
 41
0.0
 71
     5
 72
     1
  1
\A1;55
  7
STYLE1
 73
     1
 44
1.0
1001
ACAD
1000
MTEXTBEGIN
1070
    73
1070
     1
1070
    44
1040
1.0
1070
    74
1070
     0
1000
MTEXTEND
  0
POINT
  5
16A03
330
163FB
100
AcDbEntity
  8
DEFPOINTS
 62
     0
 48
50.0
100
AcDbPoint
 10
8634.673057123665
 20
9385.038117967306
 30
0.0
  0
POINT
  5
16A04
330
163FB
100
AcDbEntity
  8
DEFPOINTS
 62
     0
 48
50.0
100
AcDbPoint
 10
8689.673057123664
 20
9385.038117967306
 30
0.0
  0
POINT
  5
16A05
330
163FB
100
AcDbEntity
  8
DEFPOINTS
 62
     0
 48
50.0
100
AcDbPoint
 10
8689.673057123664
 20
9600.846337592292
 30
0.0
  0
ENDBLK
  5
164C9
330
163FB
100
AcDbEntity
  8
0
 48
50.0
100
AcDbBlockEnd
  0
BLOCK
  5
1659F
330
1659E
100
AcDbEntity
  8
0
 48
50.0
100
AcDbBlockBegin
  2
*D14
 70
     1
 10
0.0
 20
0.0
 30
0.0
  3
*D14
  1

  0
LINE
  5
169E8
330
1659E
100
AcDbEntity
  8
寸法
 62
     0
 48
50.0
370
    -2
100
AcDbLine
 10
3532.673057123657
 20
7601.038117967206
 30
0.0
 11
3532.673057123657
 21
7000.607347201043
 31
0.0
  0
LINE
  5
169E9
330
1659E
100
AcDbEntity
  8
寸法
 62
     0
 48
50.0
370
    -2
100
AcDbLine
 10
5956.673057123638
 20
7060.607347201043
 30
0.0
 11
3532.673057123657
 21
7060.607347201043
 31
0.0
  0
INSERT
  5
169EA
330
1659E
100
AcDbEntity
  8
寸法
 62
     0
 48
50.0
370
    -2
100
AcDbBlockReference
  2
_DOTSMALL
 10
5956.673057123638
 20
7060.607347201043
 30
0.0
 41
100.0
 42
100.0
 43
100.0
  0
INSERT
  5
169EB
330
1659E
100
AcDbEntity
  8
寸法
 62
     0
 48
50.0
370
    -2
100
AcDbBlockReference
  2
_DOTSMALL
 10
3532.673057123657
 20
7060.607347201043
 30
0.0
 41
100.0
 42
100.0
 43
100.0
 50
180.0
  0
MTEXT
  5
169EC
330
1659E
100
AcDbEntity
  8
寸法
 62
     7
 48
50.0
100
AcDbMText
 10
4744.673057123647
 20
7160.619158224665
 30
0.0
 40
120.0
 41
0.0
 71
     5
 72
     1
  1
\A1;有効開口部間口 2424
  7
STYLE1
 73
     1
 44
1.0
1001
ACAD
1000
MTEXTBEGIN
1070
    73
1070
     1
1070
    44
1040
1.0
1070
    74
1070
     0
1000
MTEXTEND
  0
POINT
  5
169ED
330
1659E
100
AcDbEntity
  8
DEFPOINTS
 62
     0
 48
50.0
100
AcDbPoint
 10
5956.673057123638
 20
7621.038117967208
 30
0.0
  0
POINT
  5
169EE
330
1659E
100
AcDbEntity
  8
DEFPOINTS
 62
     0
 48
50.0
100
AcDbPoint
 10
3532.673057123657
 20
7621.038117967207
 30
0.0
  0
POINT
  5
169EF
330
1659E
100
AcDbEntity
  8
DEFPOINTS
 62
     0
 48
50.0
100
AcDbPoint
 10
3532.673057123657
 20
7060.607347201043
 30
0.0
  0
ENDBLK
  5
165A8
330
1659E
100
AcDbEntity
  8
0
 48
50.0
100
AcDbBlockEnd
  0
BLOCK
  5
165B6
330
165B5
100
AcDbEntity
  8
0
 48
50.0
100
AcDbBlockBegin
  2
*D15
 70
     1
 10
0.0
 20
0.0
 30
0.0
  3
*D15
  1

  0
LINE
  5
169DD
330
165B5
100
AcDbEntity
  8
寸法
 62
     0
 48
50.0
370
    -2
100
AcDbLine
 10
3532.673057123657
 20
7601.038117967206
 30
0.0
 11
3532.673057123657
 21
7000.607347201043
 31
0.0
  0
LINE
  5
169DE
330
165B5
100
AcDbEntity
  8
寸法
 62
     0
 48
50.0
370
    -2
100
AcDbLine
 10
3484.673057123654
 20
7575.038117967207
 30
0.0
 11
3484.673057123654
 21
7000.607347201043
 31
0.0
  0
LINE
  5
169DF
330
165B5
100
AcDbEntity
  8
寸法
 62
     0
 48
50.0
370
    -2
100
AcDbLine
 10
3532.673057123657
 20
7060.607347201043
 30
0.0
 11
3632.673057123657
 21
7060.607347201043
 31
0.0
  0
LINE
  5
169E0
330
165B5
100
AcDbEntity
  8
寸法
 62
     0
 48
50.0
370
    -2
100
AcDbLine
 10
3484.673057123654
 20
7060.607347201043
 30
0.0
 11
3384.673057123654
 21
7060.607347201043
 31
0.0
  0
MTEXT
  5
169E1
330
165B5
100
AcDbEntity
  8
寸法
 62
     7
 48
50.0
100
AcDbMText
 10
3645.575028123714
 20
7160.607347201043
 30
0.0
 40
120.0
 41
0.0
 71
     5
 72
     1
  1
\A1;48
  7
STYLE1
 73
     1
 44
1.0
1001
ACAD
1000
MTEXTBEGIN
1070
    73
1070
     1
1070
    44
1040
1.0
1070
    74
1070
     0
1000
MTEXTEND
  0
LINE
  5
169E2
330
165B5
100
AcDbEntity
  8
寸法
 62
     0
 48
50.0
370
    -2
100
AcDbLine
 10
3532.673057123657
 20
7060.607347201043
 30
0.0
 11
3484.673057123654
 21
7060.607347201043
 31
0.0
  0
INSERT
  5
169E3
330
165B5
100
AcDbEntity
  8
寸法
 62
     0
 48
50.0
370
    -2
100
AcDbBlockReference
  2
_DOTSMALL
 10
3532.673057123657
 20
7060.607347201043
 30
0.0
 41
100.0
 42
100.0
 43
100.0
 50
180.0
  0
INSERT
  5
169E4
330
165B5
100
AcDbEntity
  8
寸法
 62
     0
 48
50.0
370
    -2
100
AcDbBlockReference
  2
_DOTSMALL
 10
3484.673057123654
 20
7060.607347201043
 30
0.0
 41
100.0
 42
100.0
 43
100.0
  0
POINT
  5
169E5
330
165B5
100
AcDbEntity
  8
DEFPOINTS
 62
     0
 48
50.0
100
AcDbPoint
 10
3532.673057123657
 20
7621.038117967207
 30
0.0
  0
POINT
  5
169E6
330
165B5
100
AcDbEntity
  8
DEFPOINTS
 62
     0
 48
50.0
100
AcDbPoint
 10
3484.673057123654
 20
7595.038117967206
 30
0.0
  0
POINT
  5
169E7
330
165B5
100
AcDbEntity
  8
DEFPOINTS
 62
     0
 48
50.0
100
AcDbPoint
 10
3484.673057123654
 20
7060.607347201043
 30
0.0
  0
ENDBLK
  5
165C3
330
165B5
100
AcDbEntity
  8
0
 48
50.0
100
AcDbBlockEnd
  0
BLOCK
  5
165C5
330
165C4
100
AcDbEntity
  8
0
 48
50.0
100
AcDbBlockBegin
  2
*D16
 70
     1
 10
0.0
 20
0.0
 30
0.0
  3
*D16
  1

  0
LINE
  5
169F0
330
165C4
100
AcDbEntity
  8
寸法
 62
     0
 48
50.0
370
    -2
100
AcDbLine
 10
6004.67305712364
 20
7575.038117967295
 30
0.0
 11
6004.67305712364
 21
7000.607347201043
 31
0.0
  0
LINE
  5
169F1
330
165C4
100
AcDbEntity
  8
寸法
 62
     0
 48
50.0
370
    -2
100
AcDbLine
 10
5956.673057123638
 20
7601.038117967208
 30
0.0
 11
5956.673057123638
 21
7000.607347201043
 31
0.0
  0
LINE
  5
169F2
330
165C4
100
AcDbEntity
  8
寸法
 62
     0
 48
50.0
370
    -2
100
AcDbLine
 10
6004.67305712364
 20
7060.607347201043
 30
0.0
 11
6104.67305712364
 21
7060.607347201043
 31
0.0
  0
LINE
  5
169F3
330
165C4
100
AcDbEntity
  8
寸法
 62
     0
 48
50.0
370
    -2
100
AcDbLine
 10
5956.673057123638
 20
7060.607347201043
 30
0.0
 11
5856.673057123638
 21
7060.607347201043
 31
0.0
  0
MTEXT
  5
169F4
330
165C4
100
AcDbEntity
  8
寸法
 62
     7
 48
50.0
100
AcDbMText
 10
5845.710159474891
 20
7160.607347201043
 30
0.0
 40
120.0
 41
0.0
 71
     5
 72
     1
  1
\A1;48
  7
STYLE1
 73
     1
 44
1.0
1001
ACAD
1000
MTEXTBEGIN
1070
    73
1070
     1
1070
    44
1040
1.0
1070
    74
1070
     0
1000
MTEXTEND
  0
LINE
  5
169F5
330
165C4
100
AcDbEntity
  8
寸法
 62
     0
 48
50.0
370
    -2
100
AcDbLine
 10
6004.67305712364
 20
7060.607347201043
 30
0.0
 11
5956.673057123638
 21
7060.607347201043
 31
0.0
  0
INSERT
  5
169F6
330
165C4
100
AcDbEntity
  8
寸法
 62
     0
 48
50.0
370
    -2
100
AcDbBlockReference
  2
_DOTSMALL
 10
6004.67305712364
 20
7060.607347201043
 30
0.0
 41
100.0
 42
100.0
 43
100.0
 50
180.0
  0
INSERT
  5
169F7
330
165C4
100
AcDbEntity
  8
寸法
 62
     0
 48
50.0
370
    -2
100
AcDbBlockReference
  2
_DOTSMALL
 10
5956.673057123638
 20
7060.607347201043
 30
0.0
 41
100.0
 42
100.0
 43
100.0
  0
POINT
  5
169F8
330
165C4
100
AcDbEntity
  8
DEFPOINTS
 62
     0
 48
50.0
100
AcDbPoint
 10
6004.67305712364
 20
7595.038117967295
 30
0.0
  0
POINT
  5
169F9
330
165C4
100
AcDbEntity
  8
DEFPOINTS
 62
     0
 48
50.0
100
AcDbPoint
 10
5956.673057123638
 20
7621.038117967208
 30
0.0
  0
POINT
  5
169FA
330
165C4
100
AcDbEntity
  8
DEFPOINTS
 62
     0
 48
50.0
100
AcDbPoint
 10
5956.673057123638
 20
7060.607347201043
 30
0.0
  0
ENDBLK
  5
165D2
330
165C4
100
AcDbEntity
  8
0
 48
50.0
100
AcDbBlockEnd
  0
BLOCK
  5
1663F
330
165EA
100
AcDbEntity
  8
0
 48
50.0
100
AcDbBlockBegin
  2
*D17
 70
     1
 10
0.0
 20
0.0
 30
0.0
  3
*D17
  1

  0
LINE
  5
169D4
330
165EA
100
AcDbEntity
  8
寸法
 62
     0
 48
50.0
370
    -2
100
AcDbLine
 10
6114.673057123653
 20
7575.038117967207
 30
0.0
 11
6114.673057123653
 21
7000.607347201044
 31
0.0
  0
LINE
  5
169D5
330
165EA
100
AcDbEntity
  8
寸法
 62
     0
 48
50.0
370
    -2
100
AcDbLine
 10
6004.67305712364
 20
7575.038117967295
 30
0.0
 11
6004.67305712364
 21
7000.607347201044
 31
0.0
  0
LINE
  5
169D6
330
165EA
100
AcDbEntity
  8
寸法
 62
     0
 48
50.0
370
    -2
100
AcDbLine
 10
6114.673057123653
 20
7060.607347201043
 30
0.0
 11
6004.67305712364
 21
7060.607347201043
 31
0.0
  0
MTEXT
  5
169D7
330
165EA
100
AcDbEntity
  8
寸法
 62
     7
 48
50.0
100
AcDbMText
 10
6059.673057123647
 20
6908.915452164812
 30
0.0
 40
120.0
 41
0.0
 71
     5
 72
     1
  1
\A1;110
  7
STYLE1
 73
     1
 44
1.0
1001
ACAD
1000
MTEXTBEGIN
1070
    73
1070
     1
1070
    44
1040
1.0
1070
    74
1070
     0
1000
MTEXTEND
  0
INSERT
  5
169D8
330
165EA
100
AcDbEntity
  8
寸法
 62
     0
 48
50.0
370
    -2
100
AcDbBlockReference
  2
_DOTSMALL
 10
6114.673057123653
 20
7060.607347201043
 30
0.0
 41
100.0
 42
100.0
 43
100.0
  0
INSERT
  5
169D9
330
165EA
100
AcDbEntity
  8
寸法
 62
     0
 48
50.0
370
    -2
100
AcDbBlockReference
  2
_DOTSMALL
 10
6004.67305712364
 20
7060.607347201043
 30
0.0
 41
100.0
 42
100.0
 43
100.0
 50
180.0
  0
POINT
  5
169DA
330
165EA
100
AcDbEntity
  8
DEFPOINTS
 62
     0
 48
50.0
100
AcDbPoint
 10
6114.673057123653
 20
7595.038117967206
 30
0.0
  0
POINT
  5
169DB
330
165EA
100
AcDbEntity
  8
DEFPOINTS
 62
     0
 48
50.0
100
AcDbPoint
 10
6004.67305712364
 20
7595.038117967295
 30
0.0
  0
POINT
  5
169DC
330
165EA
100
AcDbEntity
  8
DEFPOINTS
 62
     0
 48
50.0
100
AcDbPoint
 10
6004.67305712364
 20
7060.607347201043
 30
0.0
  0
ENDBLK
  5
16649
330
165EA
100
AcDbEntity
  8
0
 48
50.0
100
AcDbBlockEnd
  0
BLOCK
  5
166AE
330
166AD
100
AcDbEntity
  8
0
 48
50.0
100
AcDbBlockBegin
  2
*D18
 70
     1
 10
0.0
 20
0.0
 30
0.0
  3
*D18
  1

  0
LINE
  5
169CB
330
166AD
100
AcDbEntity
  8
寸法
 62
     0
 48
50.0
370
    -2
100
AcDbLine
 10
3484.673057123663
 20
9405.038117967212
 30
0.0
 11
3484.673057123663
 21
9660.84633759231
 31
0.0
  0
LINE
  5
169CC
330
166AD
100
AcDbEntity
  8
寸法
 62
     0
 48
50.0
370
    -2
100
AcDbLine
 10
6004.673057123664
 20
9405.038117967306
 30
0.0
 11
6004.673057123664
 21
9660.84633759231
 31
0.0
  0
LINE
  5
169CD
330
166AD
100
AcDbEntity
  8
寸法
 62
     0
 48
50.0
370
    -2
100
AcDbLine
 10
3484.673057123663
 20
9600.84633759231
 30
0.0
 11
6004.673057123664
 21
9600.84633759231
 31
0.0
  0
INSERT
  5
169CE
330
166AD
100
AcDbEntity
  8
寸法
 62
     0
 48
50.0
370
    -2
100
AcDbBlockReference
  2
_DOTSMALL
 10
3484.673057123663
 20
9600.84633759231
 30
0.0
 41
100.0
 42
100.0
 43
100.0
 50
180.0
  0
INSERT
  5
169CF
330
166AD
100
AcDbEntity
  8
寸法
 62
     0
 48
50.0
370
    -2
100
AcDbBlockReference
  2
_DOTSMALL
 10
6004.673057123664
 20
9600.84633759231
 30
0.0
 41
100.0
 42
100.0
 43
100.0
  0
MTEXT
  5
169D0
330
166AD
100
AcDbEntity
  8
寸法
 62
     7
 48
50.0
100
AcDbMText
 10
4744.673057123664
 20
9700.858148615932
 30
0.0
 40
120.0
 41
0.0
 71
     5
 72
     1
  1
\A1;6X420=2520
  7
STYLE1
 73
     1
 44
1.0
1001
ACAD
1000
MTEXTBEGIN
1070
    73
1070
     1
1070
    44
1040
1.0
1070
    74
1070
     0
1000
MTEXTEND
  0
POINT
  5
169D1
330
166AD
100
AcDbEntity
  8
DEFPOINTS
 62
     0
 48
50.0
100
AcDbPoint
 10
3484.673057123663
 20
9385.03811796721
 30
0.0
  0
POINT
  5
169D2
330
166AD
100
AcDbEntity
  8
DEFPOINTS
 62
     0
 48
50.0
100
AcDbPoint
 10
6004.673057123664
 20
9385.038117967306
 30
0.0
  0
POINT
  5
169D3
330
166AD
100
AcDbEntity
  8
DEFPOINTS
 62
     0
 48
50.0
100
AcDbPoint
 10
6004.673057123664
 20
9600.84633759231
 30
0.0
  0
ENDBLK
  5
166B8
330
166AD
100
AcDbEntity
  8
0
 48
50.0
100
AcDbBlockEnd
  0
BLOCK
  5
166D0
330
166CF
100
AcDbEntity
  8
0
 48
50.0
100
AcDbBlockBegin
  2
*D19
 70
     1
 10
0.0
 20
0.0
 30
0.0
  3
*D19
  1

  0
LINE
  5
169C0
330
166CF
100
AcDbEntity
  8
寸法
 62
     0
 48
50.0
370
    -2
100
AcDbLine
 10
6114.673057123663
 20
9405.038117967261
 30
0.0
 11
6114.673057123663
 21
9660.84633759231
 31
0.0
  0
LINE
  5
169C1
330
166CF
100
AcDbEntity
  8
寸法
 62
     0
 48
50.0
370
    -2
100
AcDbLine
 10
6004.673057123664
 20
9405.038117967256
 30
0.0
 11
6004.673057123664
 21
9660.84633759231
 31
0.0
  0
LINE
  5
169C2
330
166CF
100
AcDbEntity
  8
寸法
 62
     0
 48
50.0
370
    -2
100
AcDbLine
 10
6114.673057123663
 20
9600.84633759231
 30
0.0
 11
6214.673057123663
 21
9600.84633759231
 31
0.0
  0
LINE
  5
169C3
330
166CF
100
AcDbEntity
  8
寸法
 62
     0
 48
50.0
370
    -2
100
AcDbLine
 10
6004.673057123664
 20
9600.84633759231
 30
0.0
 11
5904.673057123664
 21
9600.84633759231
 31
0.0
  0
LINE
  5
169C4
330
166CF
100
AcDbEntity
  8
寸法
 62
     0
 48
50.0
370
    -2
100
AcDbLine
 10
6114.673057123663
 20
9600.84633759231
 30
0.0
 11
6004.673057123664
 21
9600.84633759231
 31
0.0
  0
INSERT
  5
169C5
330
166CF
100
AcDbEntity
  8
寸法
 62
     0
 48
50.0
370
    -2
100
AcDbBlockReference
  2
_DOTSMALL
 10
6114.673057123663
 20
9600.84633759231
 30
0.0
 41
100.0
 42
100.0
 43
100.0
 50
180.0
  0
INSERT
  5
169C6
330
166CF
100
AcDbEntity
  8
寸法
 62
     0
 48
50.0
370
    -2
100
AcDbBlockReference
  2
_DOTSMALL
 10
6004.673057123664
 20
9600.84633759231
 30
0.0
 41
100.0
 42
100.0
 43
100.0
  0
MTEXT
  5
169C7
330
166CF
100
AcDbEntity
  8
寸法
 62
     7
 48
50.0
100
AcDbMText
 10
6059.673057123664
 20
9700.846337592309
 30
0.0
 40
120.0
 41
0.0
 71
     5
 72
     1
  1
\A1;110
  7
STYLE1
 73
     1
 44
1.0
1001
ACAD
1000
MTEXTBEGIN
1070
    73
1070
     1
1070
    44
1040
1.0
1070
    74
1070
     0
1000
MTEXTEND
  0
POINT
  5
169C8
330
166CF
100
AcDbEntity
  8
DEFPOINTS
 62
     0
 48
50.0
100
AcDbPoint
 10
6114.673057123663
 20
9385.03811796726
 30
0.0
  0
POINT
  5
169C9
330
166CF
100
AcDbEntity
  8
DEFPOINTS
 62
     0
 48
50.0
100
AcDbPoint
 10
6004.673057123664
 20
9385.038117967257
 30
0.0
  0
POINT
  5
169CA
330
166CF
100
AcDbEntity
  8
DEFPOINTS
 62
     0
 48
50.0
100
AcDbPoint
 10
6004.673057123664
 20
9600.84633759231
 30
0.0
  0
ENDBLK
  5
166DC
330
166CF
100
AcDbEntity
  8
0
 48
50.0
100
AcDbBlockEnd
  0
BLOCK
  5
16948
330
168FB
100
AcDbEntity
  8
0
 48
50.0
100
AcDbBlockBegin
  2
*D20
 70
     1
 10
0.0
 20
0.0
 30
0.0
  3
*D20
  1

  0
LINE
  5
169B7
330
168FB
100
AcDbEntity
  8
寸法
 62
     0
 48
50.0
370
    -2
100
AcDbLine
 10
3429.673057123629
 20
9405.038117967178
 30
0.0
 11
3429.673057123629
 21
9910.167811148603
 31
0.0
  0
LINE
  5
169B8
330
168FB
100
AcDbEntity
  8
寸法
 62
     0
 48
50.0
370
    -2
100
AcDbLine
 10
6059.673057123664
 20
9779.834251950255
 30
0.0
 11
6059.673057123664
 21
9910.167811148603
 31
0.0
  0
LINE
  5
169B9
330
168FB
100
AcDbEntity
  8
寸法
 62
     0
 48
50.0
370
    -2
100
AcDbLine
 10
3429.673057123629
 20
9850.167811148605
 30
0.0
 11
6059.673057123664
 21
9850.167811148605
 31
0.0
  0
INSERT
  5
169BA
330
168FB
100
AcDbEntity
  8
寸法
 62
     0
 48
50.0
370
    -2
100
AcDbBlockReference
  2
_DOTSMALL
 10
3429.673057123629
 20
9850.167811148605
 30
0.0
 41
100.0
 42
100.0
 43
100.0
 50
180.0
  0
INSERT
  5
169BB
330
168FB
100
AcDbEntity
  8
寸法
 62
     0
 48
50.0
370
    -2
100
AcDbBlockReference
  2
_DOTSMALL
 10
6059.673057123664
 20
9850.167811148605
 30
0.0
 41
100.0
 42
100.0
 43
100.0
  0
MTEXT
  5
169BC
330
168FB
100
AcDbEntity
  8
寸法
 62
     7
 48
50.0
100
AcDbMText
 10
4744.673057123645
 20
9950.179622172226
 30
0.0
 40
120.0
 41
0.0
 71
     5
 72
     1
  1
\A1;2630
  7
STYLE1
 73
     1
 44
1.0
1001
ACAD
1000
MTEXTBEGIN
1070
    73
1070
     1
1070
    44
1040
1.0
1070
    74
1070
     0
1000
MTEXTEND
  0
POINT
  5
169BD
330
168FB
100
AcDbEntity
  8
DEFPOINTS
 62
     0
 48
50.0
100
AcDbPoint
 10
3429.673057123629
 20
9385.038117967178
 30
0.0
  0
POINT
  5
169BE
330
168FB
100
AcDbEntity
  8
DEFPOINTS
 62
     0
 48
50.0
100
AcDbPoint
 10
6059.673057123664
 20
9759.834251950255
 30
0.0
  0
POINT
  5
169BF
330
168FB
100
AcDbEntity
  8
DEFPOINTS
 62
     0
 48
50.0
100
AcDbPoint
 10
6059.673057123664
 20
9850.167811148605
 30
0.0
  0
ENDBLK
  5
16952
330
168FB
100
AcDbEntity
  8
0
 48
50.0
100
AcDbBlockEnd
  0
BLOCK
  5
1693E
330
16908
100
AcDbEntity
  8
0
 48
50.0
100
AcDbBlockBegin
  2
*D21
 70
     1
 10
0.0
 20
0.0
 30
0.0
  3
*D21
  1

  0
LINE
  5
169AF
330
16908
100
AcDbEntity
  8
寸法
 62
     0
 48
50.0
370
    -2
100
AcDbLine
 10
8689.673057123664
 20
9405.038117967306
 30
0.0
 11
8689.673057123664
 21
9910.167811148603
 31
0.0
  0
LINE
  5
169B0
330
16908
100
AcDbEntity
  8
寸法
 62
     0
 48
50.0
370
    -2
100
AcDbLine
 10
6059.673057123664
 20
9850.167811148605
 30
0.0
 11
8689.673057123664
 21
9850.167811148605
 31
0.0
  0
INSERT
  5
169B1
330
16908
100
AcDbEntity
  8
寸法
 62
     0
 48
50.0
370
    -2
100
AcDbBlockReference
  2
_DOTSMALL
 10
6059.673057123664
 20
9850.167811148605
 30
0.0
 41
100.0
 42
100.0
 43
100.0
 50
180.0
  0
INSERT
  5
169B2
330
16908
100
AcDbEntity
  8
寸法
 62
     0
 48
50.0
370
    -2
100
AcDbBlockReference
  2
_DOTSMALL
 10
8689.673057123664
 20
9850.167811148605
 30
0.0
 41
100.0
 42
100.0
 43
100.0
  0
MTEXT
  5
169B3
330
16908
100
AcDbEntity
  8
寸法
 62
     7
 48
50.0
100
AcDbMText
 10
7374.673057123664
 20
9950.179622172226
 30
0.0
 40
120.0
 41
0.0
 71
     5
 72
     1
  1
\A1;2630
  7
STYLE1
 73
     1
 44
1.0
1001
ACAD
1000
MTEXTBEGIN
1070
    73
1070
     1
1070
    44
1040
1.0
1070
    74
1070
     0
1000
MTEXTEND
  0
POINT
  5
169B4
330
16908
100
AcDbEntity
  8
DEFPOINTS
 62
     0
 48
50.0
100
AcDbPoint
 10
6059.673057123664
 20
9759.834251950255
 30
0.0
  0
POINT
  5
169B5
330
16908
100
AcDbEntity
  8
DEFPOINTS
 62
     0
 48
50.0
100
AcDbPoint
 10
8689.673057123664
 20
9385.038117967306
 30
0.0
  0
POINT
  5
169B6
330
16908
100
AcDbEntity
  8
DEFPOINTS
 62
     0
 48
50.0
100
AcDbPoint
 10
8689.673057123664
 20
9850.167811148605
 30
0.0
  0
ENDBLK
  5
16947
330
16908
100
AcDbEntity
  8
0
 48
50.0
100
AcDbBlockEnd
  0
BLOCK
  5
1711A
330
17110
100
AcDbEntity
  8
0
 48
50.0
100
AcDbBlockBegin
  2
*D22
 70
     1
 10
0.0
 20
0.0
 30
0.0
  3
*D22
  1

  0
LINE
  5
17E54
330
17110
100
AcDbEntity
  8
寸法
 62
     0
 48
50.0
370
    -2
100
AcDbLine
 10
3379.673057123646
 20
4913.264454520763
 30
0.0
 11
3379.673057123646
 21
5568.883723478677
 31
0.0
  0
LINE
  5
17E55
330
17110
100
AcDbEntity
  8
寸法
 62
     0
 48
50.0
370
    -2
100
AcDbLine
 10
8739.673057123644
 20
4913.264454520761
 30
0.0
 11
8739.673057123644
 21
5568.883723478677
 31
0.0
  0
LINE
  5
17E56
330
17110
100
AcDbEntity
  8
寸法
 62
     0
 48
50.0
370
    -2
100
AcDbLine
 10
3379.673057123646
 20
5508.883723478677
 30
0.0
 11
8739.673057123644
 21
5508.883723478677
 31
0.0
  0
INSERT
  5
17E57
330
17110
100
AcDbEntity
  8
寸法
 62
     0
 48
50.0
370
    -2
100
AcDbBlockReference
  2
_DOTSMALL
 10
3379.673057123646
 20
5508.883723478677
 30
0.0
 41
100.0
 42
100.0
 43
100.0
 50
180.0
  0
INSERT
  5
17E58
330
17110
100
AcDbEntity
  8
寸法
 62
     0
 48
50.0
370
    -2
100
AcDbBlockReference
  2
_DOTSMALL
 10
8739.673057123644
 20
5508.883723478677
 30
0.0
 41
100.0
 42
100.0
 43
100.0
  0
MTEXT
  5
17E59
330
17110
100
AcDbEntity
  8
寸法
 62
     7
 48
50.0
100
AcDbMText
 10
6059.673057123645
 20
5608.883723478677
 30
0.0
 40
120.0
 41
0.0
 71
     5
 72
     1
  1
\A1;5360
  7
STYLE1
 73
     1
 44
1.0
1001
ACAD
1000
MTEXTBEGIN
1070
    73
1070
     1
1070
    44
1040
1.0
1070
    74
1070
     0
1000
MTEXTEND
  0
POINT
  5
17E5A
330
17110
100
AcDbEntity
  8
DEFPOINTS
 62
     0
 48
50.0
100
AcDbPoint
 10
3379.673057123646
 20
4893.264454520763
 30
0.0
  0
POINT
  5
17E5B
330
17110
100
AcDbEntity
  8
DEFPOINTS
 62
     0
 48
50.0
100
AcDbPoint
 10
8739.673057123644
 20
4893.264454520761
 30
0.0
  0
POINT
  5
17E5C
330
17110
100
AcDbEntity
  8
DEFPOINTS
 62
     0
 48
50.0
100
AcDbPoint
 10
8739.673057123644
 20
5508.883723478677
 30
0.0
  0
ENDBLK
  5
1711B
330
17110
100
AcDbEntity
  8
0
 48
50.0
100
AcDbBlockEnd
  0
BLOCK
  5
17128
330
1711C
100
AcDbEntity
  8
0
 48
50.0
100
AcDbBlockBegin
  2
*D23
 70
     1
 10
0.0
 20
0.0
 30
0.0
  3
*D23
  1

  0
LINE
  5
1781D
330
1711C
100
AcDbEntity
  8
寸法
 62
     0
 48
50.0
370
    -2
100
AcDbLine
 10
8739.673057123644
 20
4913.264454520761
 30
0.0
 11
8739.673057123644
 21
5352.357623860232
 31
0.0
  0
LINE
  5
1781E
330
1711C
100
AcDbEntity
  8
寸法
 62
     0
 48
50.0
370
    -2
100
AcDbLine
 10
8689.673057123645
 20
4913.264454520763
 30
0.0
 11
8689.673057123645
 21
5352.357623860232
 31
0.0
  0
LINE
  5
1781F
330
1711C
100
AcDbEntity
  8
寸法
 62
     0
 48
50.0
370
    -2
100
AcDbLine
 10
8689.673057123645
 20
5292.357623860232
 30
0.0
 11
8589.673057123645
 21
5292.357623860232
 31
0.0
  0
LINE
  5
17820
330
1711C
100
AcDbEntity
  8
寸法
 62
     0
 48
50.0
370
    -2
100
AcDbLine
 10
8739.673057123644
 20
5292.357623860232
 30
0.0
 11
9159.205582592369
 21
5292.357623860232
 31
0.0
  0
LINE
  5
17821
330
1711C
100
AcDbEntity
  8
寸法
 62
     0
 48
50.0
370
    -2
100
AcDbLine
 10
8689.673057123645
 20
5292.357623860232
 30
0.0
 11
8739.673057123644
 21
5292.357623860232
 31
0.0
  0
INSERT
  5
17822
330
1711C
100
AcDbEntity
  8
寸法
 62
     0
 48
50.0
370
    -2
100
AcDbBlockReference
  2
_DOTSMALL
 10
8689.673057123645
 20
5292.357623860232
 30
0.0
 41
100.0
 42
100.0
 43
100.0
  0
INSERT
  5
17823
330
1711C
100
AcDbEntity
  8
寸法
 62
     0
 48
50.0
370
    -2
100
AcDbBlockReference
  2
_DOTSMALL
 10
8739.673057123644
 20
5292.357623860232
 30
0.0
 41
100.0
 42
100.0
 43
100.0
 50
180.0
  0
MTEXT
  5
17824
330
1711C
100
AcDbEntity
  8
寸法
 62
     7
 48
50.0
100
AcDbMText
 10
9053.15833849788
 20
5392.357623860232
 30
0.0
 40
120.0
 41
0.0
 71
     5
 72
     1
  1
\A1;50
  7
STYLE1
 73
     1
 44
1.0
1001
ACAD
1000
MTEXTBEGIN
1070
    73
1070
     1
1070
    44
1040
1.0
1070
    74
1070
     0
1000
MTEXTEND
  0
POINT
  5
17825
330
1711C
100
AcDbEntity
  8
DEFPOINTS
 62
     0
 48
50.0
100
AcDbPoint
 10
8739.673057123644
 20
4893.264454520761
 30
0.0
  0
POINT
  5
17826
330
1711C
100
AcDbEntity
  8
DEFPOINTS
 62
     0
 48
50.0
100
AcDbPoint
 10
8689.673057123645
 20
4893.264454520763
 30
0.0
  0
POINT
  5
17827
330
1711C
100
AcDbEntity
  8
DEFPOINTS
 62
     0
 48
50.0
100
AcDbPoint
 10
8689.673057123645
 20
5292.357623860232
 30
0.0
  0
ENDBLK
  5
17129
330
1711C
100
AcDbEntity
  8
0
 48
50.0
100
AcDbBlockEnd
  0
BLOCK
  5
17142
330
17138
100
AcDbEntity
  8
0
 48
50.0
100
AcDbBlockBegin
  2
*D24
 70
     1
 10
0.0
 20
0.0
 30
0.0
  3
*D24
  1

  0
LINE
  5
17E5D
330
17138
100
AcDbEntity
  8
寸法
 62
     0
 48
50.0
370
    -2
100
AcDbLine
 10
8689.673057123645
 20
4913.264454520763
 30
0.0
 11
8689.673057123645
 21
5352.357623860232
 31
0.0
  0
LINE
  5
17E5E
330
17138
100
AcDbEntity
  8
寸法
 62
     0
 48
50.0
370
    -2
100
AcDbLine
 10
3429.673057123646
 20
4913.264454520765
 30
0.0
 11
3429.673057123646
 21
5352.357623860232
 31
0.0
  0
LINE
  5
17E5F
330
17138
100
AcDbEntity
  8
寸法
 62
     0
 48
50.0
370
    -2
100
AcDbLine
 10
8689.673057123645
 20
5292.357623860232
 30
0.0
 11
3429.673057123646
 21
5292.357623860232
 31
0.0
  0
INSERT
  5
17E60
330
17138
100
AcDbEntity
  8
寸法
 62
     0
 48
50.0
370
    -2
100
AcDbBlockReference
  2
_DOTSMALL
 10
8689.673057123645
 20
5292.357623860232
 30
0.0
 41
100.0
 42
100.0
 43
100.0
  0
INSERT
  5
17E61
330
17138
100
AcDbEntity
  8
寸法
 62
     0
 48
50.0
370
    -2
100
AcDbBlockReference
  2
_DOTSMALL
 10
3429.673057123646
 20
5292.357623860232
 30
0.0
 41
100.0
 42
100.0
 43
100.0
 50
180.0
  0
MTEXT
  5
17E62
330
17138
100
AcDbEntity
  8
寸法
 62
     7
 48
50.0
100
AcDbMText
 10
6059.673057123645
 20
5392.369434883853
 30
0.0
 40
120.0
 41
0.0
 71
     5
 72
     1
  1
\A1;柱外寸法5260
  7
STYLE1
 73
     1
 44
1.0
1001
ACAD
1000
MTEXTBEGIN
1070
    73
1070
     1
1070
    44
1040
1.0
1070
    74
1070
     0
1000
MTEXTEND
  0
POINT
  5
17E63
330
17138
100
AcDbEntity
  8
DEFPOINTS
 62
     0
 48
50.0
100
AcDbPoint
 10
8689.673057123645
 20
4893.264454520763
 30
0.0
  0
POINT
  5
17E64
330
17138
100
AcDbEntity
  8
DEFPOINTS
 62
     0
 48
50.0
100
AcDbPoint
 10
3429.673057123646
 20
4893.264454520765
 30
0.0
  0
POINT
  5
17E65
330
17138
100
AcDbEntity
  8
DEFPOINTS
 62
     0
 48
50.0
100
AcDbPoint
 10
3429.673057123646
 20
5292.357623860232
 30
0.0
  0
ENDBLK
  5
17143
330
17138
100
AcDbEntity
  8
0
 48
50.0
100
AcDbBlockEnd
  0
BLOCK
  5
17166
330
1715C
100
AcDbEntity
  8
0
 48
50.0
100
AcDbBlockBegin
  2
*D25
 70
     1
 10
0.0
 20
0.0
 30
0.0
  3
*D25
  1

  0
LINE
  5
177F9
330
1715C
100
AcDbEntity
  8
寸法
 62
     0
 48
50.0
370
    -2
100
AcDbLine
 10
12809.56946577018
 20
2518.264454520759
 30
0.0
 11
13554.4966237423
 21
2518.264454520758
 31
0.0
  0
LINE
  5
177FA
330
1715C
100
AcDbEntity
  8
寸法
 62
     0
 48
50.0
370
    -2
100
AcDbLine
 10
12889.56946577018
 20
4838.264454520759
 30
0.0
 11
13554.49662374231
 21
4838.264454520759
 31
0.0
  0
LINE
  5
177FB
330
1715C
100
AcDbEntity
  8
寸法
 62
     0
 48
50.0
370
    -2
100
AcDbLine
 10
13494.4966237423
 20
2518.264454520758
 30
0.0
 11
13494.49662374231
 21
4838.264454520759
 31
0.0
  0
INSERT
  5
177FC
330
1715C
100
AcDbEntity
  8
寸法
 62
     0
 48
50.0
370
    -2
100
AcDbBlockReference
  2
_DOTSMALL
 10
13494.4966237423
 20
2518.264454520758
 30
0.0
 41
100.0
 42
100.0
 43
100.0
 50
270.0
  0
INSERT
  5
177FD
330
1715C
100
AcDbEntity
  8
寸法
 62
     0
 48
50.0
370
    -2
100
AcDbBlockReference
  2
_DOTSMALL
 10
13494.49662374231
 20
4838.264454520759
 30
0.0
 41
100.0
 42
100.0
 43
100.0
 50
90.0
  0
MTEXT
  5
177FE
330
1715C
100
AcDbEntity
  8
寸法
 62
     7
 48
50.0
100
AcDbMText
 10
13394.48481271868
 20
3678.264454520761
 30
0.0
 40
120.0
 41
0.0
 71
     5
 72
     1
  1
\A1;2320
  7
STYLE1
 11
0.0000000000000001
 21
1.0
 31
0.0
 73
     1
 44
1.0
1001
ACAD
1000
MTEXTBEGIN
1070
    73
1070
     1
1070
    44
1040
1.0
1070
    74
1070
     0
1000
MTEXTEND
  0
POINT
  5
177FF
330
1715C
100
AcDbEntity
  8
DEFPOINTS
 62
     0
 48
50.0
100
AcDbPoint
 10
12789.56946577018
 20
2518.264454520759
 30
0.0
  0
POINT
  5
17800
330
1715C
100
AcDbEntity
  8
DEFPOINTS
 62
     0
 48
50.0
100
AcDbPoint
 10
12869.56946577018
 20
4838.264454520759
 30
0.0
  0
POINT
  5
17801
330
1715C
100
AcDbEntity
  8
DEFPOINTS
 62
     0
 48
50.0
100
AcDbPoint
 10
13494.49662374231
 20
4838.264454520759
 30
0.0
  0
ENDBLK
  5
17167
330
1715C
100
AcDbEntity
  8
0
 48
50.0
100
AcDbBlockEnd
  0
BLOCK
  5
17172
330
17168
100
AcDbEntity
  8
0
 48
50.0
100
AcDbBlockBegin
  2
*D26
 70
     1
 10
0.0
 20
0.0
 30
0.0
  3
*D26
  1

  0
LINE
  5
177F0
330
17168
100
AcDbEntity
  8
寸法
 62
     0
 48
50.0
370
    -2
100
AcDbLine
 10
10979.56946577018
 20
4658.264454520756
 30
0.0
 11
10095.81933658692
 21
4658.264454520757
 31
0.0
  0
LINE
  5
177F1
330
17168
100
AcDbEntity
  8
寸法
 62
     0
 48
50.0
370
    -2
100
AcDbLine
 10
10979.56946577018
 20
2568.264454520756
 30
0.0
 11
10095.81933658691
 21
2568.264454520756
 31
0.0
  0
LINE
  5
177F2
330
17168
100
AcDbEntity
  8
寸法
 62
     0
 48
50.0
370
    -2
100
AcDbLine
 10
10155.81933658692
 20
4658.264454520757
 30
0.0
 11
10155.81933658691
 21
2568.264454520756
 31
0.0
  0
INSERT
  5
177F3
330
17168
100
AcDbEntity
  8
寸法
 62
     0
 48
50.0
370
    -2
100
AcDbBlockReference
  2
_DOTSMALL
 10
10155.81933658692
 20
4658.264454520757
 30
0.0
 41
100.0
 42
100.0
 43
100.0
 50
90.0
  0
INSERT
  5
177F4
330
17168
100
AcDbEntity
  8
寸法
 62
     0
 48
50.0
370
    -2
100
AcDbBlockReference
  2
_DOTSMALL
 10
10155.81933658691
 20
2568.264454520756
 30
0.0
 41
100.0
 42
100.0
 43
100.0
 50
270.0
  0
MTEXT
  5
177F5
330
17168
100
AcDbEntity
  8
寸法
 62
     7
 48
50.0
100
AcDbMText
 10
10055.80752556329
 20
3613.264454520758
 30
0.0
 40
120.0
 41
0.0
 71
     5
 72
     1
  1
\A1;2090
  7
STYLE1
 11
0.0000000000000001
 21
1.0
 31
0.0
 73
     1
 44
1.0
1001
ACAD
1000
MTEXTBEGIN
1070
    73
1070
     1
1070
    44
1040
1.0
1070
    74
1070
     0
1000
MTEXTEND
  0
POINT
  5
177F6
330
17168
100
AcDbEntity
  8
DEFPOINTS
 62
     0
 48
50.0
100
AcDbPoint
 10
10999.56946577018
 20
4658.264454520756
 30
0.0
  0
POINT
  5
177F7
330
17168
100
AcDbEntity
  8
DEFPOINTS
 62
     0
 48
50.0
100
AcDbPoint
 10
10999.56946577018
 20
2568.264454520756
 30
0.0
  0
POINT
  5
177F8
330
17168
100
AcDbEntity
  8
DEFPOINTS
 62
     0
 48
50.0
100
AcDbPoint
 10
10155.81933658691
 20
2568.264454520756
 30
0.0
  0
ENDBLK
  5
17173
330
17168
100
AcDbEntity
  8
0
 48
50.0
100
AcDbBlockEnd
  0
BLOCK
  5
1717E
330
17174
100
AcDbEntity
  8
0
 48
50.0
100
AcDbBlockBegin
  2
*D27
 70
     1
 10
0.0
 20
0.0
 30
0.0
  3
*D27
  1

  0
LINE
  5
177E7
330
17174
100
AcDbEntity
  8
寸法
 62
     0
 48
50.0
370
    -2
100
AcDbLine
 10
10979.56946577018
 20
2518.264454520756
 30
0.0
 11
9795.819336586916
 21
2518.264454520756
 31
0.0
  0
LINE
  5
177E8
330
17174
100
AcDbEntity
  8
寸法
 62
     0
 48
50.0
370
    -2
100
AcDbLine
 10
10919.56946577018
 20
4893.26445452076
 30
0.0
 11
9795.819336586918
 21
4893.264454520761
 31
0.0
  0
LINE
  5
177E9
330
17174
100
AcDbEntity
  8
寸法
 62
     0
 48
50.0
370
    -2
100
AcDbLine
 10
9855.819336586916
 20
2518.264454520756
 30
0.0
 11
9855.819336586918
 21
4893.264454520761
 31
0.0
  0
INSERT
  5
177EA
330
17174
100
AcDbEntity
  8
寸法
 62
     0
 48
50.0
370
    -2
100
AcDbBlockReference
  2
_DOTSMALL
 10
9855.819336586916
 20
2518.264454520756
 30
0.0
 41
100.0
 42
100.0
 43
100.0
 50
270.0
  0
INSERT
  5
177EB
330
17174
100
AcDbEntity
  8
寸法
 62
     0
 48
50.0
370
    -2
100
AcDbBlockReference
  2
_DOTSMALL
 10
9855.819336586918
 20
4893.264454520761
 30
0.0
 41
100.0
 42
100.0
 43
100.0
 50
90.0
  0
MTEXT
  5
177EC
330
17174
100
AcDbEntity
  8
寸法
 62
     7
 48
50.0
100
AcDbMText
 10
9755.807525563295
 20
3705.76445452076
 30
0.0
 40
120.0
 41
0.0
 71
     5
 72
     1
  1
\A1;2375
  7
STYLE1
 11
0.0000000000000001
 21
1.0
 31
0.0
 73
     1
 44
1.0
1001
ACAD
1000
MTEXTBEGIN
1070
    73
1070
     1
1070
    44
1040
1.0
1070
    74
1070
     0
1000
MTEXTEND
  0
POINT
  5
177ED
330
17174
100
AcDbEntity
  8
DEFPOINTS
 62
     0
 48
50.0
100
AcDbPoint
 10
10999.56946577018
 20
2518.264454520756
 30
0.0
  0
POINT
  5
177EE
330
17174
100
AcDbEntity
  8
DEFPOINTS
 62
     0
 48
50.0
100
AcDbPoint
 10
10939.56946577018
 20
4893.26445452076
 30
0.0
  0
POINT
  5
177EF
330
17174
100
AcDbEntity
  8
DEFPOINTS
 62
     0
 48
50.0
100
AcDbPoint
 10
9855.819336586918
 20
4893.264454520761
 30
0.0
  0
ENDBLK
  5
1717F
330
17174
100
AcDbEntity
  8
0
 48
50.0
100
AcDbBlockEnd
  0
BLOCK
  5
1718B
330
17180
100
AcDbEntity
  8
0
 48
50.0
100
AcDbBlockBegin
  2
*D28
 70
     1
 10
0.0
 20
0.0
 30
0.0
  3
*D28
  1

  0
LINE
  5
177DD
330
17180
100
AcDbEntity
  8
寸法
 62
     0
 48
50.0
370
    -2
100
AcDbLine
 10
10938.97375206127
 20
4892.56216159042
 30
0.0
 11
10323.03931295602
 21
4910.276311864741
 31
0.0
  0
LINE
  5
177DE
330
17180
100
AcDbEntity
  8
寸法
 62
     0
 48
50.0
370
    -2
100
AcDbLine
 10
10934.92029650465
 20
4751.620437824707
 30
0.0
 11
10318.98585739939
 21
4769.334588099028
 31
0.0
  0
LINE
  5
177DF
330
17180
100
AcDbEntity
  8
寸法
 62
     0
 48
50.0
370
    -2
100
AcDbLine
 10
10378.96105900182
 20
4767.609713394081
 30
0.0
 11
10383.01451455845
 21
4908.551437159793
 31
0.0
  0
LINE
  5
177E0
330
17180
100
AcDbEntity
  8
寸法
 62
     0
 48
50.0
370
    -2
100
AcDbLine
 10
10383.01451455845
 20
4908.551437159793
 30
0.0
 11
10393.36376278813
 21
5268.402646774384
 31
0.0
  0
INSERT
  5
177E1
330
17180
100
AcDbEntity
  8
寸法
 62
     0
 48
50.0
370
    -2
100
AcDbBlockReference
  2
_DOTSMALL
 10
10378.96105900182
 20
4767.609713394081
 30
0.0
 41
100.0
 42
100.0
 43
100.0
 50
268.3526390256385
  0
INSERT
  5
177E2
330
17180
100
AcDbEntity
  8
寸法
 62
     0
 48
50.0
370
    -2
100
AcDbBlockReference
  2
_DOTSMALL
 10
10383.01451455845
 20
4908.551437159793
 30
0.0
 41
100.0
 42
100.0
 43
100.0
 50
88.35263902563855
  0
MTEXT
  5
177E3
330
17180
100
AcDbEntity
  8
寸法
 62
     7
 48
50.0
100
AcDbMText
 10
10289.66786492336
 20
5141.331167810696
 30
0.0
 40
120.0
 41
0.0
 71
     5
 72
     1
  1
\A1;141
  7
STYLE1
 11
0.0287479117491103
 21
0.999586693373849
 31
0.0
 73
     1
 44
1.0
1001
ACAD
1000
MTEXTBEGIN
1070
    73
1070
     1
1070
    44
1040
1.0
1070
    74
1070
     0
1000
MTEXTEND
  0
POINT
  5
177E4
330
17180
100
AcDbEntity
  8
DEFPOINTS
 62
     0
 48
50.0
100
AcDbPoint
 10
10958.96548592875
 20
4891.987203355437
 30
0.0
  0
POINT
  5
177E5
330
17180
100
AcDbEntity
  8
DEFPOINTS
 62
     0
 48
50.0
100
AcDbPoint
 10
10954.91203037213
 20
4751.045479589725
 30
0.0
  0
POINT
  5
177E6
330
17180
100
AcDbEntity
  8
DEFPOINTS
 62
     0
 48
50.0
100
AcDbPoint
 10
10378.96105900182
 20
4767.609713394081
 30
0.0
  0
ENDBLK
  5
1718C
330
17180
100
AcDbEntity
  8
0
 48
50.0
100
AcDbBlockEnd
  0
BLOCK
  5
17198
330
1718D
100
AcDbEntity
  8
0
 48
50.0
100
AcDbBlockBegin
  2
*D29
 70
     1
 10
0.0
 20
0.0
 30
0.0
  3
*D29
  1

  0
LINE
  5
17850
330
1718D
100
AcDbEntity
  8
寸法
 62
     0
 48
50.0
370
    -2
100
AcDbLine
 10
12789.56946577018
 20
4860.075134132411
 30
0.0
 11
12789.56946577018
 21
5352.357623860232
 31
0.0
  0
LINE
  5
17851
330
1718D
100
AcDbEntity
  8
寸法
 62
     0
 48
50.0
370
    -2
100
AcDbLine
 10
12869.56946577018
 20
4858.264454520759
 30
0.0
 11
12869.56946577018
 21
5352.357623860232
 31
0.0
  0
LINE
  5
17852
330
1718D
100
AcDbEntity
  8
寸法
 62
     0
 48
50.0
370
    -2
100
AcDbLine
 10
12789.56946577018
 20
5292.357623860232
 30
0.0
 11
12869.56946577018
 21
5292.357623860232
 31
0.0
  0
LINE
  5
17853
330
1718D
100
AcDbEntity
  8
寸法
 62
     0
 48
50.0
370
    -2
100
AcDbLine
 10
12869.56946577018
 20
5292.357623860232
 30
0.0
 11
13181.66395395915
 21
5292.357623860232
 31
0.0
  0
INSERT
  5
17854
330
1718D
100
AcDbEntity
  8
寸法
 62
     0
 48
50.0
370
    -2
100
AcDbBlockReference
  2
_DOTSMALL
 10
12789.56946577018
 20
5292.357623860232
 30
0.0
 41
100.0
 42
100.0
 43
100.0
 50
180.0
  0
INSERT
  5
17855
330
1718D
100
AcDbEntity
  8
寸法
 62
     0
 48
50.0
370
    -2
100
AcDbBlockReference
  2
_DOTSMALL
 10
12869.56946577018
 20
5292.357623860232
 30
0.0
 41
100.0
 42
100.0
 43
100.0
  0
MTEXT
  5
17856
330
1718D
100
AcDbEntity
  8
寸法
 62
     7
 48
50.0
100
AcDbMText
 10
13075.61670986467
 20
5392.357623860232
 30
0.0
 40
120.0
 41
0.0
 71
     5
 72
     1
  1
\A1;80
  7
STYLE1
 73
     1
 44
1.0
1001
ACAD
1000
MTEXTBEGIN
1070
    73
1070
     1
1070
    44
1040
1.0
1070
    74
1070
     0
1000
MTEXTEND
  0
POINT
  5
17857
330
1718D
100
AcDbEntity
  8
DEFPOINTS
 62
     0
 48
50.0
100
AcDbPoint
 10
12789.56946577018
 20
4840.075134132412
 30
0.0
  0
POINT
  5
17858
330
1718D
100
AcDbEntity
  8
DEFPOINTS
 62
     0
 48
50.0
100
AcDbPoint
 10
12869.56946577018
 20
4838.26445452076
 30
0.0
  0
POINT
  5
17859
330
1718D
100
AcDbEntity
  8
DEFPOINTS
 62
     0
 48
50.0
100
AcDbPoint
 10
12869.56946577018
 20
5292.357623860232
 30
0.0
  0
ENDBLK
  5
17199
330
1718D
100
AcDbEntity
  8
0
 48
50.0
100
AcDbBlockEnd
  0
BLOCK
  5
171A4
330
1719A
100
AcDbEntity
  8
0
 48
50.0
100
AcDbBlockBegin
  2
*D30
 70
     1
 10
0.0
 20
0.0
 30
0.0
  3
*D30
  1

  0
LINE
  5
17E42
330
1719A
100
AcDbEntity
  8
寸法
 62
     0
 48
50.0
370
    -2
100
AcDbLine
 10
12869.56946577018
 20
4858.264454520759
 30
0.0
 11
12869.56946577018
 21
5568.883723478677
 31
0.0
  0
LINE
  5
17E43
330
1719A
100
AcDbEntity
  8
寸法
 62
     0
 48
50.0
370
    -2
100
AcDbLine
 10
10939.56946577018
 20
4913.264454520763
 30
0.0
 11
10939.56946577018
 21
5568.883723478677
 31
0.0
  0
LINE
  5
17E44
330
1719A
100
AcDbEntity
  8
寸法
 62
     0
 48
50.0
370
    -2
100
AcDbLine
 10
12869.56946577018
 20
5508.883723478677
 30
0.0
 11
10939.56946577018
 21
5508.883723478677
 31
0.0
  0
INSERT
  5
17E45
330
1719A
100
AcDbEntity
  8
寸法
 62
     0
 48
50.0
370
    -2
100
AcDbBlockReference
  2
_DOTSMALL
 10
12869.56946577018
 20
5508.883723478677
 30
0.0
 41
100.0
 42
100.0
 43
100.0
  0
INSERT
  5
17E46
330
1719A
100
AcDbEntity
  8
寸法
 62
     0
 48
50.0
370
    -2
100
AcDbBlockReference
  2
_DOTSMALL
 10
10939.56946577018
 20
5508.883723478677
 30
0.0
 41
100.0
 42
100.0
 43
100.0
 50
180.0
  0
MTEXT
  5
17E47
330
1719A
100
AcDbEntity
  8
寸法
 62
     7
 48
50.0
100
AcDbMText
 10
11904.56946577018
 20
5608.883723478677
 30
0.0
 40
120.0
 41
0.0
 71
     5
 72
     1
  1
\A1;1930
  7
STYLE1
 73
     1
 44
1.0
1001
ACAD
1000
MTEXTBEGIN
1070
    73
1070
     1
1070
    44
1040
1.0
1070
    74
1070
     0
1000
MTEXTEND
  0
POINT
  5
17E48
330
1719A
100
AcDbEntity
  8
DEFPOINTS
 62
     0
 48
50.0
100
AcDbPoint
 10
12869.56946577018
 20
4838.26445452076
 30
0.0
  0
POINT
  5
17E49
330
1719A
100
AcDbEntity
  8
DEFPOINTS
 62
     0
 48
50.0
100
AcDbPoint
 10
10939.56946577018
 20
4893.264454520763
 30
0.0
  0
POINT
  5
17E4A
330
1719A
100
AcDbEntity
  8
DEFPOINTS
 62
     0
 48
50.0
100
AcDbPoint
 10
10939.56946577018
 20
5508.883723478677
 30
0.0
  0
ENDBLK
  5
171A5
330
1719A
100
AcDbEntity
  8
0
 48
50.0
100
AcDbBlockEnd
  0
BLOCK
  5
171B2
330
171A6
100
AcDbEntity
  8
0
 48
50.0
100
AcDbBlockBegin
  2
*D31
 70
     1
 10
0.0
 20
0.0
 30
0.0
  3
*D31
  1

  0
LINE
  5
17845
330
171A6
100
AcDbEntity
  8
寸法
 62
     0
 48
50.0
370
    -2
100
AcDbLine
 10
10999.56946577018
 20
4909.266072643735
 30
0.0
 11
10999.56946577018
 21
5352.357623860232
 31
0.0
  0
LINE
  5
17846
330
171A6
100
AcDbEntity
  8
寸法
 62
     0
 48
50.0
370
    -2
100
AcDbLine
 10
10939.56946577018
 20
4913.264454520763
 30
0.0
 11
10939.56946577018
 21
5352.357623860232
 31
0.0
  0
LINE
  5
17847
330
171A6
100
AcDbEntity
  8
寸法
 62
     0
 48
50.0
370
    -2
100
AcDbLine
 10
10999.56946577018
 20
5292.357623860232
 30
0.0
 11
11099.56946577018
 21
5292.357623860232
 31
0.0
  0
LINE
  5
17848
330
171A6
100
AcDbEntity
  8
寸法
 62
     0
 48
50.0
370
    -2
100
AcDbLine
 10
10939.56946577018
 20
5292.357623860232
 30
0.0
 11
10520.293875219
 21
5292.357623860232
 31
0.0
  0
LINE
  5
17849
330
171A6
100
AcDbEntity
  8
寸法
 62
     0
 48
50.0
370
    -2
100
AcDbLine
 10
10999.56946577018
 20
5292.357623860232
 30
0.0
 11
10939.56946577018
 21
5292.357623860232
 31
0.0
  0
INSERT
  5
1784A
330
171A6
100
AcDbEntity
  8
寸法
 62
     0
 48
50.0
370
    -2
100
AcDbBlockReference
  2
_DOTSMALL
 10
10999.56946577018
 20
5292.357623860232
 30
0.0
 41
100.0
 42
100.0
 43
100.0
 50
180.0
  0
INSERT
  5
1784B
330
171A6
100
AcDbEntity
  8
寸法
 62
     0
 48
50.0
370
    -2
100
AcDbBlockReference
  2
_DOTSMALL
 10
10939.56946577018
 20
5292.357623860232
 30
0.0
 41
100.0
 42
100.0
 43
100.0
  0
MTEXT
  5
1784C
330
171A6
100
AcDbEntity
  8
寸法
 62
     7
 48
50.0
100
AcDbMText
 10
10629.93167049459
 20
5392.357623860232
 30
0.0
 40
120.0
 41
0.0
 71
     5
 72
     1
  1
\A1;60
  7
STYLE1
 73
     1
 44
1.0
1001
ACAD
1000
MTEXTBEGIN
1070
    73
1070
     1
1070
    44
1040
1.0
1070
    74
1070
     0
1000
MTEXTEND
  0
POINT
  5
1784D
330
171A6
100
AcDbEntity
  8
DEFPOINTS
 62
     0
 48
50.0
100
AcDbPoint
 10
10999.56946577018
 20
4889.266072643735
 30
0.0
  0
POINT
  5
1784E
330
171A6
100
AcDbEntity
  8
DEFPOINTS
 62
     0
 48
50.0
100
AcDbPoint
 10
10939.56946577018
 20
4893.264454520763
 30
0.0
  0
POINT
  5
1784F
330
171A6
100
AcDbEntity
  8
DEFPOINTS
 62
     0
 48
50.0
100
AcDbPoint
 10
10939.56946577018
 20
5292.357623860232
 30
0.0
  0
ENDBLK
  5
171B3
330
171A6
100
AcDbEntity
  8
0
 48
50.0
100
AcDbBlockEnd
  0
BLOCK
  5
171BE
330
171B4
100
AcDbEntity
  8
0
 48
50.0
100
AcDbBlockBegin
  2
*D32
 70
     1
 10
0.0
 20
0.0
 30
0.0
  3
*D32
  1

  0
LINE
  5
17E4B
330
171B4
100
AcDbEntity
  8
寸法
 62
     0
 48
50.0
370
    -2
100
AcDbLine
 10
12789.56946577018
 20
4860.075134132411
 30
0.0
 11
12789.56946577018
 21
5352.357623860232
 31
0.0
  0
LINE
  5
17E4C
330
171B4
100
AcDbEntity
  8
寸法
 62
     0
 48
50.0
370
    -2
100
AcDbLine
 10
10999.56946577018
 20
4909.266072643735
 30
0.0
 11
10999.56946577018
 21
5352.357623860232
 31
0.0
  0
LINE
  5
17E4D
330
171B4
100
AcDbEntity
  8
寸法
 62
     0
 48
50.0
370
    -2
100
AcDbLine
 10
12789.56946577018
 20
5292.357623860232
 30
0.0
 11
10999.56946577018
 21
5292.357623860232
 31
0.0
  0
INSERT
  5
17E4E
330
171B4
100
AcDbEntity
  8
寸法
 62
     0
 48
50.0
370
    -2
100
AcDbBlockReference
  2
_DOTSMALL
 10
12789.56946577018
 20
5292.357623860232
 30
0.0
 41
100.0
 42
100.0
 43
100.0
  0
INSERT
  5
17E4F
330
171B4
100
AcDbEntity
  8
寸法
 62
     0
 48
50.0
370
    -2
100
AcDbBlockReference
  2
_DOTSMALL
 10
10999.56946577018
 20
5292.357623860232
 30
0.0
 41
100.0
 42
100.0
 43
100.0
 50
180.0
  0
MTEXT
  5
17E50
330
171B4
100
AcDbEntity
  8
寸法
 62
     7
 48
50.0
100
AcDbMText
 10
11894.56946577018
 20
5392.357623860232
 30
0.0
 40
120.0
 41
0.0
 71
     5
 72
     1
  1
\A1;柱外寸法1790
  7
STYLE1
 73
     1
 44
1.0
1001
ACAD
1000
MTEXTBEGIN
1070
    73
1070
     1
1070
    44
1040
1.0
1070
    74
1070
     0
1000
MTEXTEND
  0
POINT
  5
17E51
330
171B4
100
AcDbEntity
  8
DEFPOINTS
 62
     0
 48
50.0
100
AcDbPoint
 10
12789.56946577018
 20
4840.075134132412
 30
0.0
  0
POINT
  5
17E52
330
171B4
100
AcDbEntity
  8
DEFPOINTS
 62
     0
 48
50.0
100
AcDbPoint
 10
10999.56946577018
 20
4889.266072643735
 30
0.0
  0
POINT
  5
17E53
330
171B4
100
AcDbEntity
  8
DEFPOINTS
 62
     0
 48
50.0
100
AcDbPoint
 10
10999.56946577018
 20
5292.357623860232
 30
0.0
  0
ENDBLK
  5
171BF
330
171B4
100
AcDbEntity
  8
0
 48
50.0
100
AcDbBlockEnd
  0
BLOCK
  5
171CC
330
171C0
100
AcDbEntity
  8
0
 48
50.0
100
AcDbBlockBegin
  2
*D33
 70
     1
 10
0.0
 20
0.0
 30
0.0
  3
*D33
  1

  0
LINE
  5
177AB
330
171C0
100
AcDbEntity
  8
寸法
 62
     0
 48
50.0
370
    -2
100
AcDbLine
 10
10979.56946577018
 20
2568.264454520759
 30
0.0
 11
10095.81933658691
 21
2568.264454520759
 31
0.0
  0
LINE
  5
177AC
330
171C0
100
AcDbEntity
  8
寸法
 62
     0
 48
50.0
370
    -2
100
AcDbLine
 10
10924.56946577017
 20
2518.264454520759
 30
0.0
 11
10095.81933658691
 21
2518.264454520759
 31
0.0
  0
LINE
  5
177AD
330
171C0
100
AcDbEntity
  8
寸法
 62
     0
 48
50.0
370
    -2
100
AcDbLine
 10
10155.81933658691
 20
2568.264454520759
 30
0.0
 11
10155.81933658691
 21
2668.264454520759
 31
0.0
  0
LINE
  5
177AE
330
171C0
100
AcDbEntity
  8
寸法
 62
     0
 48
50.0
370
    -2
100
AcDbLine
 10
10155.81933658691
 20
2518.264454520759
 30
0.0
 11
10155.81933658691
 21
2106.169966331778
 31
0.0
  0
LINE
  5
177AF
330
171C0
100
AcDbEntity
  8
寸法
 62
     0
 48
50.0
370
    -2
100
AcDbLine
 10
10155.81933658691
 20
2568.264454520759
 30
0.0
 11
10155.81933658691
 21
2518.264454520759
 31
0.0
  0
INSERT
  5
177B0
330
171C0
100
AcDbEntity
  8
寸法
 62
     0
 48
50.0
370
    -2
100
AcDbBlockReference
  2
_DOTSMALL
 10
10155.81933658691
 20
2568.264454520759
 30
0.0
 41
100.0
 42
100.0
 43
100.0
 50
270.0
  0
INSERT
  5
177B1
330
171C0
100
AcDbEntity
  8
寸法
 62
     0
 48
50.0
370
    -2
100
AcDbBlockReference
  2
_DOTSMALL
 10
10155.81933658691
 20
2518.264454520759
 30
0.0
 41
100.0
 42
100.0
 43
100.0
 50
90.0
  0
MTEXT
  5
177B2
330
171C0
100
AcDbEntity
  8
寸法
 62
     7
 48
50.0
100
AcDbMText
 10
10055.81933658691
 20
2212.217210426268
 30
0.0
 40
120.0
 41
0.0
 71
     5
 72
     1
  1
\A1;50
  7
STYLE1
 11
0.0000000000000001
 21
1.0
 31
0.0
 73
     1
 44
1.0
1001
ACAD
1000
MTEXTBEGIN
1070
    73
1070
     1
1070
    44
1040
1.0
1070
    74
1070
     0
1000
MTEXTEND
  0
POINT
  5
177B3
330
171C0
100
AcDbEntity
  8
DEFPOINTS
 62
     0
 48
50.0
100
AcDbPoint
 10
10999.56946577018
 20
2568.264454520759
 30
0.0
  0
POINT
  5
177B4
330
171C0
100
AcDbEntity
  8
DEFPOINTS
 62
     0
 48
50.0
100
AcDbPoint
 10
10944.56946577017
 20
2518.264454520759
 30
0.0
  0
POINT
  5
177B5
330
171C0
100
AcDbEntity
  8
DEFPOINTS
 62
     0
 48
50.0
100
AcDbPoint
 10
10155.81933658691
 20
2518.264454520759
 30
0.0
  0
ENDBLK
  5
171CD
330
171C0
100
AcDbEntity
  8
0
 48
50.0
100
AcDbBlockEnd
  0
BLOCK
  5
174BC
330
174B0
100
AcDbEntity
  8
0
 48
50.0
100
AcDbBlockBegin
  2
*D34
 70
     1
 10
0.0
 20
0.0
 30
0.0
  3
*D34
  1

  0
LINE
  5
1776F
330
174B0
100
AcDbEntity
  8
寸法
 62
     0
 48
50.0
370
    -2
100
AcDbLine
 10
3429.673057123646
 20
4913.264454520765
 30
0.0
 11
3429.673057123646
 21
5352.357623860232
 31
0.0
  0
LINE
  5
17770
330
174B0
100
AcDbEntity
  8
寸法
 62
     0
 48
50.0
370
    -2
100
AcDbLine
 10
3379.673057123646
 20
4913.264454520763
 30
0.0
 11
3379.673057123646
 21
5352.357623860232
 31
0.0
  0
LINE
  5
17771
330
174B0
100
AcDbEntity
  8
寸法
 62
     0
 48
50.0
370
    -2
100
AcDbLine
 10
3429.673057123646
 20
5292.357623860232
 30
0.0
 11
3529.673057123646
 21
5292.357623860232
 31
0.0
  0
LINE
  5
17772
330
174B0
100
AcDbEntity
  8
寸法
 62
     0
 48
50.0
370
    -2
100
AcDbLine
 10
3379.673057123646
 20
5292.357623860232
 30
0.0
 11
2960.140531654911
 21
5292.357623860232
 31
0.0
  0
LINE
  5
17773
330
174B0
100
AcDbEntity
  8
寸法
 62
     0
 48
50.0
370
    -2
100
AcDbLine
 10
3429.673057123646
 20
5292.357623860232
 30
0.0
 11
3379.673057123646
 21
5292.357623860232
 31
0.0
  0
INSERT
  5
17774
330
174B0
100
AcDbEntity
  8
寸法
 62
     0
 48
50.0
370
    -2
100
AcDbBlockReference
  2
_DOTSMALL
 10
3429.673057123646
 20
5292.357623860232
 30
0.0
 41
100.0
 42
100.0
 43
100.0
 50
180.0
  0
INSERT
  5
17775
330
174B0
100
AcDbEntity
  8
寸法
 62
     0
 48
50.0
370
    -2
100
AcDbBlockReference
  2
_DOTSMALL
 10
3379.673057123646
 20
5292.357623860232
 30
0.0
 41
100.0
 42
100.0
 43
100.0
  0
MTEXT
  5
17776
330
174B0
100
AcDbEntity
  8
寸法
 62
     7
 48
50.0
100
AcDbMText
 10
3066.187775749399
 20
5392.357623860232
 30
0.0
 40
120.0
 41
0.0
 71
     5
 72
     1
  1
\A1;50
  7
STYLE1
 73
     1
 44
1.0
1001
ACAD
1000
MTEXTBEGIN
1070
    73
1070
     1
1070
    44
1040
1.0
1070
    74
1070
     0
1000
MTEXTEND
  0
POINT
  5
17777
330
174B0
100
AcDbEntity
  8
DEFPOINTS
 62
     0
 48
50.0
100
AcDbPoint
 10
3429.673057123646
 20
4893.264454520765
 30
0.0
  0
POINT
  5
17778
330
174B0
100
AcDbEntity
  8
DEFPOINTS
 62
     0
 48
50.0
100
AcDbPoint
 10
3379.673057123646
 20
4893.264454520763
 30
0.0
  0
POINT
  5
17779
330
174B0
100
AcDbEntity
  8
DEFPOINTS
 62
     0
 48
50.0
100
AcDbPoint
 10
3379.673057123646
 20
5292.357623860232
 30
0.0
  0
ENDBLK
  5
174BD
330
174B0
100
AcDbEntity
  8
0
 48
50.0
100
AcDbBlockEnd
  0
BLOCK
  5
17A83
330
17A78
100
AcDbEntity
  8
0
 48
50.0
100
AcDbBlockBegin
  2
*D35
 70
     1
 10
0.0
 20
0.0
 30
0.0
  3
*D35
  1

  0
LINE
  5
17EA5
330
17A78
100
AcDbEntity
  8
寸法
 62
     0
 48
50.0
370
    -2
100
AcDbLine
 10
8709.673057123641
 20
4493.26445452076
 30
0.0
 11
9037.216159445389
 21
4493.26445452076
 31
0.0
  0
LINE
  5
17EA6
330
17A78
100
AcDbEntity
  8
寸法
 62
     0
 48
50.0
370
    -2
100
AcDbLine
 10
8709.673057123641
 20
4658.264454520758
 30
0.0
 11
9037.216159445389
 21
4658.264454520758
 31
0.0
  0
LINE
  5
17EA7
330
17A78
100
AcDbEntity
  8
寸法
 62
     0
 48
50.0
370
    -2
100
AcDbLine
 10
8977.216159445388
 20
4493.26445452076
 30
0.0
 11
8977.216159445388
 21
4658.264454520758
 31
0.0
  0
LINE
  5
17EA8
330
17A78
100
AcDbEntity
  8
寸法
 62
     0
 48
50.0
370
    -2
100
AcDbLine
 10
8977.216159445388
 20
4658.264454520758
 30
0.0
 11
8977.216159445388
 21
5035.235017269236
 31
0.0
  0
INSERT
  5
17EA9
330
17A78
100
AcDbEntity
  8
寸法
 62
     0
 48
50.0
370
    -2
100
AcDbBlockReference
  2
_DOTSMALL
 10
8977.216159445388
 20
4493.26445452076
 30
0.0
 41
100.0
 42
100.0
 43
100.0
 50
270.0
  0
INSERT
  5
17EAA
330
17A78
100
AcDbEntity
  8
寸法
 62
     0
 48
50.0
370
    -2
100
AcDbBlockReference
  2
_DOTSMALL
 10
8977.216159445388
 20
4658.264454520758
 30
0.0
 41
100.0
 42
100.0
 43
100.0
 50
90.0
  0
MTEXT
  5
17EAB
330
17A78
100
AcDbEntity
  8
寸法
 62
     7
 48
50.0
100
AcDbMText
 10
8877.216159445387
 20
4896.749735894998
 30
0.0
 40
120.0
 41
0.0
 71
     5
 72
     1
  1
\A1;165
  7
STYLE1
 11
0.0000000000000001
 21
1.0
 31
0.0
 73
     1
 44
1.0
1001
ACAD
1000
MTEXTBEGIN
1070
    73
1070
     1
1070
    44
1040
1.0
1070
    74
1070
     0
1000
MTEXTEND
  0
POINT
  5
17EAC
330
17A78
100
AcDbEntity
  8
DEFPOINTS
 62
     0
 48
50.0
100
AcDbPoint
 10
8689.67305712364
 20
4493.26445452076
 30
0.0
  0
POINT
  5
17EAD
330
17A78
100
AcDbEntity
  8
DEFPOINTS
 62
     0
 48
50.0
100
AcDbPoint
 10
8689.67305712364
 20
4658.264454520758
 30
0.0
  0
POINT
  5
17EAE
330
17A78
100
AcDbEntity
  8
DEFPOINTS
 62
     0
 48
50.0
100
AcDbPoint
 10
8977.216159445388
 20
4658.264454520758
 30
0.0
  0
ENDBLK
  5
17A84
330
17A78
100
AcDbEntity
  8
0
 48
50.0
100
AcDbBlockEnd
  0
BLOCK
  5
17A91
330
17A85
100
AcDbEntity
  8
0
 48
50.0
100
AcDbBlockBegin
  2
*D36
 70
     1
 10
0.0
 20
0.0
 30
0.0
  3
*D36
  1

  0
LINE
  5
17E9A
330
17A85
100
AcDbEntity
  8
寸法
 62
     0
 48
50.0
370
    -2
100
AcDbLine
 10
8709.673057123641
 20
4466.264454520757
 30
0.0
 11
9037.216159445387
 21
4466.264454520757
 31
0.0
  0
LINE
  5
17E9B
330
17A85
100
AcDbEntity
  8
寸法
 62
     0
 48
50.0
370
    -2
100
AcDbLine
 10
8709.673057123641
 20
4493.26445452076
 30
0.0
 11
9037.216159445387
 21
4493.26445452076
 31
0.0
  0
LINE
  5
17E9C
330
17A85
100
AcDbEntity
  8
寸法
 62
     0
 48
50.0
370
    -2
100
AcDbLine
 10
8977.216159445386
 20
4466.264454520757
 30
0.0
 11
8977.216159445386
 21
4366.264454520758
 31
0.0
  0
LINE
  5
17E9D
330
17A85
100
AcDbEntity
  8
寸法
 62
     0
 48
50.0
370
    -2
100
AcDbLine
 10
8977.216159445386
 20
4493.26445452076
 30
0.0
 11
8977.216159445386
 21
4593.26445452076
 31
0.0
  0
MTEXT
  5
17E9E
330
17A85
100
AcDbEntity
  8
寸法
 62
     7
 48
50.0
100
AcDbMText
 10
9117.385982691752
 20
4494.231654360418
 30
0.0
 40
120.0
 41
0.0
 71
     5
 72
     1
  1
\A1;27
  7
STYLE1
 11
0.0000000000000001
 21
1.0
 31
0.0
 73
     1
 44
1.0
1001
ACAD
1000
MTEXTBEGIN
1070
    73
1070
     1
1070
    44
1040
1.0
1070
    74
1070
     0
1000
MTEXTEND
  0
LINE
  5
17E9F
330
17A85
100
AcDbEntity
  8
寸法
 62
     0
 48
50.0
370
    -2
100
AcDbLine
 10
8977.216159445386
 20
4466.264454520757
 30
0.0
 11
8977.216159445386
 21
4493.26445452076
 31
0.0
  0
INSERT
  5
17EA0
330
17A85
100
AcDbEntity
  8
寸法
 62
     0
 48
50.0
370
    -2
100
AcDbBlockReference
  2
_DOTSMALL
 10
8977.216159445386
 20
4466.264454520757
 30
0.0
 41
100.0
 42
100.0
 43
100.0
 50
90.0
  0
INSERT
  5
17EA1
330
17A85
100
AcDbEntity
  8
寸法
 62
     0
 48
50.0
370
    -2
100
AcDbBlockReference
  2
_DOTSMALL
 10
8977.216159445386
 20
4493.26445452076
 30
0.0
 41
100.0
 42
100.0
 43
100.0
 50
270.0
  0
POINT
  5
17EA2
330
17A85
100
AcDbEntity
  8
DEFPOINTS
 62
     0
 48
50.0
100
AcDbPoint
 10
8689.67305712364
 20
4466.264454520757
 30
0.0
  0
POINT
  5
17EA3
330
17A85
100
AcDbEntity
  8
DEFPOINTS
 62
     0
 48
50.0
100
AcDbPoint
 10
8689.67305712364
 20
4493.26445452076
 30
0.0
  0
POINT
  5
17EA4
330
17A85
100
AcDbEntity
  8
DEFPOINTS
 62
     0
 48
50.0
100
AcDbPoint
 10
8977.216159445386
 20
4493.26445452076
 30
0.0
  0
ENDBLK
  5
17A92
330
17A85
100
AcDbEntity
  8
0
 48
50.0
100
AcDbBlockEnd
  0
BLOCK
  5
17A9D
330
17A93
100
AcDbEntity
  8
0
 48
50.0
100
AcDbBlockBegin
  2
*D37
 70
     1
 10
0.0
 20
0.0
 30
0.0
  3
*D37
  1

  0
LINE
  5
17AFB
330
17A93
100
AcDbEntity
  8
寸法
 62
     0
 48
50.0
370
    -2
100
AcDbLine
 10
8709.673057123641
 20
2518.264454520759
 30
0.0
 11
9037.216159445383
 21
2518.264454520759
 31
0.0
  0
LINE
  5
17AFC
330
17A93
100
AcDbEntity
  8
寸法
 62
     0
 48
50.0
370
    -2
100
AcDbLine
 10
8709.673057123641
 20
4466.264454520757
 30
0.0
 11
9037.216159445387
 21
4466.264454520757
 31
0.0
  0
LINE
  5
17AFD
330
17A93
100
AcDbEntity
  8
寸法
 62
     0
 48
50.0
370
    -2
100
AcDbLine
 10
8977.216159445385
 20
2518.264454520759
 30
0.0
 11
8977.216159445386
 21
4466.264454520757
 31
0.0
  0
INSERT
  5
17AFE
330
17A93
100
AcDbEntity
  8
寸法
 62
     0
 48
50.0
370
    -2
100
AcDbBlockReference
  2
_DOTSMALL
 10
8977.216159445385
 20
2518.264454520759
 30
0.0
 41
100.0
 42
100.0
 43
100.0
 50
270.0
  0
INSERT
  5
17AFF
330
17A93
100
AcDbEntity
  8
寸法
 62
     0
 48
50.0
370
    -2
100
AcDbBlockReference
  2
_DOTSMALL
 10
8977.216159445386
 20
4466.264454520757
 30
0.0
 41
100.0
 42
100.0
 43
100.0
 50
90.0
  0
MTEXT
  5
17B00
330
17A93
100
AcDbEntity
  8
寸法
 62
     7
 48
50.0
100
AcDbMText
 10
8877.216159445385
 20
3492.26445452076
 30
0.0
 40
120.0
 41
0.0
 71
     5
 72
     1
  1
\A1;有効開口部高サ 1948
  7
STYLE1
 11
0.0000000000000001
 21
1.0
 31
0.0
 73
     1
 44
1.0
1001
ACAD
1000
MTEXTBEGIN
1070
    73
1070
     1
1070
    44
1040
1.0
1070
    74
1070
     0
1000
MTEXTEND
  0
POINT
  5
17B01
330
17A93
100
AcDbEntity
  8
DEFPOINTS
 62
     0
 48
50.0
100
AcDbPoint
 10
8689.67305712364
 20
2518.264454520759
 30
0.0
  0
POINT
  5
17B02
330
17A93
100
AcDbEntity
  8
DEFPOINTS
 62
     0
 48
50.0
100
AcDbPoint
 10
8689.67305712364
 20
4466.264454520757
 30
0.0
  0
POINT
  5
17B03
330
17A93
100
AcDbEntity
  8
DEFPOINTS
 62
     0
 48
50.0
100
AcDbPoint
 10
8977.216159445386
 20
4466.264454520757
 30
0.0
  0
ENDBLK
  5
17A9E
330
17A93
100
AcDbEntity
  8
0
 48
50.0
100
AcDbBlockEnd
  0
BLOCK
  5
17C01
330
17BF7
100
AcDbEntity
  8
0
 48
50.0
100
AcDbBlockBegin
  2
*D38
 70
     1
 10
0.0
 20
0.0
 30
0.0
  3
*D38
  1

  0
LINE
  5
17D48
330
17BF7
100
AcDbEntity
  8
寸法
 62
     0
 48
50.0
370
    -2
100
AcDbLine
 10
6159.673056245429
 20
8668.538118845066
 30
0.0
 11
6456.514416506256
 21
8668.538118845066
 31
0.0
  0
LINE
  5
17D49
330
17BF7
100
AcDbEntity
  8
寸法
 62
     0
 48
50.0
370
    -2
100
AcDbLine
 10
6134.673056245654
 20
9385.038118845221
 30
0.0
 11
6456.514416506256
 21
9385.038118845221
 31
0.0
  0
LINE
  5
17D4A
330
17BF7
100
AcDbEntity
  8
寸法
 62
     0
 48
50.0
370
    -2
100
AcDbLine
 10
6396.514416506256
 20
8668.538118845066
 30
0.0
 11
6396.514416506256
 21
9385.038118845221
 31
0.0
  0
INSERT
  5
17D4B
330
17BF7
100
AcDbEntity
  8
寸法
 62
     0
 48
50.0
370
    -2
100
AcDbBlockReference
  2
_DOTSMALL
 10
6396.514416506256
 20
8668.538118845066
 30
0.0
 41
100.0
 42
100.0
 43
100.0
 50
270.0
  0
INSERT
  5
17D4C
330
17BF7
100
AcDbEntity
  8
寸法
 62
     0
 48
50.0
370
    -2
100
AcDbBlockReference
  2
_DOTSMALL
 10
6396.514416506256
 20
9385.038118845221
 30
0.0
 41
100.0
 42
100.0
 43
100.0
 50
90.0
  0
MTEXT
  5
17D4D
330
17BF7
100
AcDbEntity
  8
寸法
 62
     7
 48
50.0
100
AcDbMText
 10
6296.514416506255
 20
9026.788118845146
 30
0.0
 40
120.0
 41
0.0
 71
     5
 72
     1
  1
\A1;716.5
  7
STYLE1
 11
0.0000000000000001
 21
1.0
 31
0.0
 73
     1
 44
1.0
1001
ACAD
1000
MTEXTBEGIN
1070
    73
1070
     1
1070
    44
1040
1.0
1070
    74
1070
     0
1000
MTEXTEND
  0
POINT
  5
17D4E
330
17BF7
100
AcDbEntity
  8
DEFPOINTS
 62
     0
 48
50.0
100
AcDbPoint
 10
6139.673056245428
 20
8668.538118845066
 30
0.0
  0
POINT
  5
17D4F
330
17BF7
100
AcDbEntity
  8
DEFPOINTS
 62
     0
 48
50.0
100
AcDbPoint
 10
6114.673056245654
 20
9385.038118845221
 30
0.0
  0
POINT
  5
17D50
330
17BF7
100
AcDbEntity
  8
DEFPOINTS
 62
     0
 48
50.0
100
AcDbPoint
 10
6396.514416506256
 20
9385.038118845221
 30
0.0
  0
ENDBLK
  5
17C02
330
17BF7
100
AcDbEntity
  8
0
 48
50.0
100
AcDbBlockEnd
  0
ENDSEC
  0
SECTION
  2
ENTITIES
  0
MTEXT
  5
763F
330
747D
100
AcDbEntity
  8
0
100
AcDbMText
 10
302.846345836809
 20
280.1983726409901
 30
0.0
 40
3.5
 41
5.323721266742722
 71
     1
 72
     5
  1

  7
MSMINCHO
 73
     1
 44
1.0
1001
ACAD
1000
MTEXTBEGIN
1070
    73
1070
     1
1070
    44
1040
1.0
1070
    74
1070
     0
1000
MTEXTEND
  0
LINE
  5
10B57
330
747D
100
AcDbEntity
  8
補助
  6
PHANTOM
 62
   230
 48
50.0
100
AcDbLine
 10
139.9999999999995
 20
11409.6
 30
0.0
 11
16307.2
 21
11409.6
 31
0.0
  0
LINE
  5
10B59
330
747D
100
AcDbEntity
  8
仕様書枠
  6
Continuous
 48
50.0
100
AcDbLine
 10
13107.2
 20
1200.0
 30
0.0
 11
13107.2
 21
-0.0000000000000729
 31
0.0
  0
LINE
  5
10B5C
330
747D
100
AcDbEntity
  8
仕様書枠
 48
50.0
100
AcDbLine
 10
16307.2
 20
1200.0
 30
0.0
 11
16307.2
 21
-0.0000000000000909
 31
0.0
  0
LINE
  5
10B5D
330
747D
100
AcDbEntity
  8
仕様書枠
 48
50.0
100
AcDbLine
 10
140.0
 20
0.0
 30
0.0
 11
16307.2
 21
-0.0000000000000909
 31
0.0
  0
LINE
  5
10B5E
330
747D
100
AcDbEntity
  8
補助
  6
PHANTOM
 62
   230
 48
50.0
100
AcDbLine
 10
16307.2
 20
11409.6
 30
0.0
 11
16307.2
 21
1200.0
 31
0.0
  0
LINE
  5
10B6C
330
747D
100
AcDbEntity
  8
仕様書枠
 48
50.0
100
AcDbLine
 10
13107.2
 20
1200.0
 30
0.0
 11
16307.2
 21
1200.0
 31
0.0
  0
LINE
  5
10B6D
330
747D
100
AcDbEntity
  8
補助
  6
PHANTOM
 62
   230
 48
50.0
100
AcDbLine
 10
13107.2
 20
11409.6
 30
0.0
 11
13107.2
 21
4800.0
 31
0.0
  0
LINE
  5
10B6F
330
747D
100
AcDbEntity
  8
補助
  6
PHANTOM
 62
   230
 48
50.0
100
AcDbLine
 10
13107.2
 20
4800.0
 30
0.0
 11
16307.2
 21
4800.0
 31
0.0
  0
LINE
  5
10B72
330
747D
100
AcDbEntity
  8
文字
 62
     7
 48
50.0
100
AcDbLine
 10
13187.2
 20
400.0
 30
0.0
 11
16227.2
 21
400.0
 31
0.0
  0
TEXT
  5
10B73
330
747D
100
AcDbEntity
  8
文字
 62
     7
 48
50.0
100
AcDbText
 10
13162.9790565769
 20
895.0906074299405
 30
0.0
 40
200.0
  1
外 形 図
  7
STYLE2
100
AcDbText
  0
TEXT
  5
10B74
330
747D
100
AcDbEntity
  8
文字
 62
     7
 48
50.0
100
AcDbText
 10
13201.43669998441
 20
477.2740661031255
 30
0.0
 40
160.0
  1
機種名
  7
STYLE2
100
AcDbText
  0
TEXT
  5
10B75
330
747D
100
AcDbEntity
  8
文字
 62
     7
 48
50.0
100
AcDbText
 10
13209.4053442172
 20
228.5435242569016
 30
0.0
 40
100.0
  1
○有効開口寸法 ： 2424×1948(mm)
  7
STYLE2
100
AcDbText
  0
TEXT
  5
10B76
330
747D
100
AcDbEntity
  8
文字
 62
     7
 48
50.0
100
AcDbText
 10
13209.4053442172
 20
76.09434707649343
 30
0.0
 40
100.0
  1
○床面積 ： 9.42㎡(2.85坪) 　
  7
STYLE2
100
AcDbText
  0
TEXT
  5
10B79
330
747D
100
AcDbEntity
  8
文字
 62
     7
 48
50.0
100
AcDbText
 10
14524.131837222
 20
1031.557706291228
 30
0.0
 40
100.0
  1
NO.05      <縮尺> S=1/40
  7
STYLE2
100
AcDbText
  0
LINE
  5
10B7B
330
747D
100
AcDbEntity
  8
仕様書枠
 48
50.0
100
AcDbLine
 10
13107.2
 20
800.0
 30
0.0
 11
14251.2
 21
800.0
 31
0.0
  0
LINE
  5
10B88
330
747D
100
AcDbEntity
  8
仕様書枠
  6
Continuous
 48
50.0
100
AcDbLine
 10
14251.2
 20
1200.0
 30
0.0
 11
14251.2
 21
800.0
 31
0.0
  0
DIMENSION
  5
162CD
330
747D
100
AcDbEntity
  8
寸法
100
AcDbDimension
  2
*D1
 10
9337.09940285807
 20
7650.038117967295
 30
0.0
 11
9237.087591834447
 21
8490.038117967305
 31
0.0
 70
    32
  1
4X420=<>
 71
     5
 42
1680.000000000014
  3
INABA_S40G
100
AcDbAlignedDimension
 13
8689.673057123664
 23
9330.03811796731
 33
0.0
 14
8689.67305712364
 24
7650.038117967295
 34
0.0
 50
90.0
100
AcDbRotatedDimension
1001
ACAD
1000
DSTYLE
1002
{
1002
}
  0
DIMENSION
  5
162CE
330
747D
100
AcDbEntity
  8
寸法
100
AcDbDimension
  2
*D2
 10
9337.099402858049
 20
7595.038117967298
 30
0.0
 11
9337.099402858049
 21
7217.176651062437
 31
0.0
 70
   160
 71
     5
 42
54.99999999999636
  3
INABA_S40G
100
AcDbAlignedDimension
 13
8689.67305712364
 23
7650.038117967295
 33
0.0
 14
8689.67305712364
 24
7595.038117967298
 34
0.0
 50
90.0
100
AcDbRotatedDimension
1001
ACAD
1000
DSTYLE
1002
{
1002
}
  0
DIMENSION
  5
162CF
330
747D
100
AcDbEntity
  8
寸法
100
AcDbDimension
  2
*D3
 10
9337.099402858076
 20
9330.03811796731
 30
0.0
 11
9337.099402858074
 21
9693.523399341547
 31
0.0
 70
   160
 71
     5
 42
54.99999999999636
  3
INABA_S40G
100
AcDbAlignedDimension
 13
8689.673057123664
 23
9385.038117967306
 33
0.0
 14
8689.673057123664
 24
9330.03811796731
 34
0.0
 50
90.0
100
AcDbRotatedDimension
1001
ACAD
1000
DSTYLE
1002
{
1002
}
  0
DIMENSION
  5
162D0
330
747D
100
AcDbEntity
  8
寸法
100
AcDbDimension
  2
*D4
 10
9702.20634459771
 20
7595.038117967298
 30
0.0
 11
9602.206344597709
 21
8490.038117967305
 31
0.0
 70
    32
 71
     5
 42
1790.000000000007
  3
INABA_S40G
100
AcDbAlignedDimension
 13
8689.673057123664
 23
9385.038117967306
 33
0.0
 14
8689.67305712364
 24
7595.038117967298
 34
0.0
 50
90.0
100
AcDbRotatedDimension
1001
ACAD
1000
DSTYLE
1002
{
1002
}
  0
LINE
  5
162DC
330
747D
100
AcDbEntity
  8
部品1
100
AcDbLine
 10
8661.673057123648
 20
9357.038117967306
 30
0.0
 11
8661.673057123641
 21
7650.038117967295
 31
0.0
  0
LINE
  5
162DD
330
747D
100
AcDbEntity
  8
部品1
100
AcDbLine
 10
3457.673057123639
 20
7650.038117967163
 30
0.0
 11
3457.67305712365
 21
9357.038117967213
 31
0.0
  0
LINE
  5
162DE
330
747D
100
AcDbEntity
  8
部品1
100
AcDbLine
 10
8689.673057123664
 20
9385.038117967306
 30
0.0
 11
8689.67305712364
 21
7595.038117967298
 31
0.0
  0
LINE
  5
162DF
330
747D
100
AcDbEntity
  8
部品1
100
AcDbLine
 10
3429.673057123629
 20
9385.038117967178
 30
0.0
 11
3429.673057123657
 21
7595.038117967168
 31
0.0
  0
DIMENSION
  5
162E4
330
747D
100
AcDbEntity
  8
寸法
 48
50.0
100
AcDbDimension
  2
*D5
 10
6162.673057123657
 20
7060.607347201043
 30
0.0
 11
7374.673057123648
 21
7160.619158224665
 31
0.0
 70
    32
  1
有効開口部間口 <>
 71
     5
 42
2423.999999999982
  3
INABA_S40G
100
AcDbAlignedDimension
 13
8586.673057123638
 23
7621.038117967208
 33
0.0
 14
6162.673057123657
 24
7621.038117967207
 34
0.0
100
AcDbRotatedDimension
1001
ACAD
1000
DSTYLE
1002
{
1070
    75
1070
     1
1070
   279
1070
     2
1002
}
  0
LINE
  5
162E6
330
747D
100
AcDbEntity
  8
部品1
 48
50.0
100
AcDbLine
 10
6126.673057123656
 20
7640.538117967206
 30
0.0
 11
8622.673057123639
 21
7640.538117967206
 31
0.0
  0
DIMENSION
  5
162E7
330
747D
100
AcDbEntity
  8
寸法
100
AcDbDimension
  2
*D6
 10
8689.673057123627
 20
6614.434351610168
 30
0.0
 11
6059.673057123642
 21
6714.446162633791
 31
0.0
 70
    32
 71
     5
 42
5259.999999999971
  3
INABA_S40G
100
AcDbAlignedDimension
 13
3429.673057123657
 23
7595.038117967203
 33
0.0
 14
8689.673057123627
 24
7595.038117967298
 34
0.0
100
AcDbRotatedDimension
1001
ACAD
1000
DSTYLE
1002
{
1002
}
  0
LINE
  5
162E8
330
747D
100
AcDbEntity
  8
部品1
100
AcDbLine
 10
3484.673057123635
 20
9330.038117967177
 30
0.0
 11
3484.673057123656
 21
7660.038117967205
 31
0.0
  0
LINE
  5
162E9
330
747D
100
AcDbEntity
  8
部品1
100
AcDbLine
 10
3509.673057123634
 20
9330.038117967177
 30
0.0
 11
3509.673057123656
 21
7660.038117967205
 31
0.0
  0
DIMENSION
  5
162EA
330
747D
100
AcDbEntity
  8
寸法
 48
50.0
100
AcDbDimension
  2
*D7
 10
3429.673057123657
 20
7060.607347201043
 30
0.0
 11
3121.187775749418
 21
7060.607347201043
 31
0.0
 70
   160
 71
     5
 42
54.99999999999636
  3
INABA_S40G
100
AcDbAlignedDimension
 13
3484.673057123654
 23
7595.038117967206
 33
0.0
 14
3429.673057123657
 24
7595.038117967203
 34
0.0
100
AcDbRotatedDimension
1001
ACAD
1000
DSTYLE
1002
{
1002
}
  0
DIMENSION
  5
162EB
330
747D
100
AcDbEntity
  8
寸法
 48
50.0
100
AcDbDimension
  2
*D8
 10
6114.673057123653
 20
7060.607347201043
 30
0.0
 11
6275.575028123714
 21
7160.607347201043
 31
0.0
 70
   160
 71
     5
 42
48.00000000000363
  3
INABA_S40G
100
AcDbAlignedDimension
 13
6162.673057123657
 23
7621.038117967207
 33
0.0
 14
6114.673057123653
 24
7595.038117967206
 34
0.0
100
AcDbRotatedDimension
1001
ACAD
1000
DSTYLE
1002
{
1070
   279
1070
     2
1002
}
  0
LINE
  5
162EC
330
747D
100
AcDbEntity
  8
部品1
100
AcDbLine
 10
3484.673057123652
 20
7595.038117967206
 30
0.0
 11
3429.673057123657
 21
7595.038117967203
 31
0.0
  0
LINE
  5
162ED
330
747D
100
AcDbEntity
  8
部品1
 48
50.0
100
AcDbLine
 10
3484.673057123657
 20
7631.038117967206
 30
0.0
 11
3461.673057123657
 21
7631.038117967206
 31
0.0
  0
LINE
  5
162EE
330
747D
100
AcDbEntity
  8
部品1
 48
50.0
100
AcDbLine
 10
3494.673057123657
 20
7621.038117967207
 30
0.0
 11
3484.673057123657
 21
7600.038117967208
 31
0.0
  0
LINE
  5
162EF
330
747D
100
AcDbEntity
  8
部品1
 48
50.0
100
AcDbLine
 10
3484.673057123657
 20
7660.038117967205
 30
0.0
 11
3484.673057123654
 21
7595.038117967206
 31
0.0
  0
LINE
  5
162F0
330
747D
100
AcDbEntity
  8
部品1
 48
50.0
100
AcDbLine
 10
3532.673057123657
 20
7621.038117967208
 30
0.0
 11
3532.673057123657
 21
7630.038117967207
 31
0.0
  0
LINE
  5
162F1
330
747D
100
AcDbEntity
  8
部品1
 48
50.0
100
AcDbLine
 10
3532.673057123657
 20
7660.038117967208
 30
0.0
 11
3532.673057123657
 21
7651.038117967208
 31
0.0
  0
LINE
  5
162F2
330
747D
100
AcDbEntity
  8
部品1
100
AcDbLine
 10
3532.673057123657
 20
7660.038117967208
 30
0.0
 11
3484.673057123657
 21
7660.038117967207
 31
0.0
  0
LINE
  5
162F3
330
747D
100
AcDbEntity
  8
部品1
100
AcDbLine
 10
3532.673057123657
 20
7621.038117967208
 30
0.0
 11
3484.673057123657
 21
7621.038117967207
 31
0.0
  0
LINE
  5
162F4
330
747D
100
AcDbEntity
  8
部品1
100
AcDbLine
 10
3484.673057123656
 20
7631.038117967206
 30
0.0
 11
3461.673057123657
 21
7631.038117967206
 31
0.0
  0
LINE
  5
162F5
330
747D
100
AcDbEntity
  8
部品1
100
AcDbLine
 10
3484.673057123656
 20
7650.038117967131
 30
0.0
 11
3429.673057123655
 21
7650.038117967131
 31
0.0
  0
LINE
  5
162F6
330
747D
100
AcDbEntity
  8
部品1
100
AcDbLine
 10
3457.673057123639
 20
7650.038117967167
 30
0.0
 11
3429.673057123655
 21
7650.038117967167
 31
0.0
  0
LINE
  5
162F7
330
747D
100
AcDbEntity
  8
部品1
100
AcDbLine
 10
3457.673057123655
 20
7650.038117967182
 30
0.0
 11
3429.673057123655
 21
7650.038117967182
 31
0.0
  0
LINE
  5
162FB
330
747D
100
AcDbEntity
  8
部品1
100
AcDbLine
 10
3457.673057123643
 20
8070.038117967182
 30
0.0
 11
3429.673057123643
 21
8070.038117967182
 31
0.0
  0
LINE
  5
162FC
330
747D
100
AcDbEntity
  8
部品1
100
AcDbLine
 10
3457.673057123643
 20
8490.038117967182
 30
0.0
 11
3429.673057123643
 21
8490.038117967182
 31
0.0
  0
LINE
  5
162FE
330
747D
100
AcDbEntity
  8
部品1
100
AcDbLine
 10
3457.673057123638
 20
8910.038117967182
 30
0.0
 11
3429.673057123638
 21
8910.038117967182
 31
0.0
  0
LINE
  5
162FF
330
747D
100
AcDbEntity
  8
部品1
100
AcDbLine
 10
8634.673057123659
 20
9330.038117967177
 30
0.0
 11
8634.67305712364
 21
7595.038117967295
 31
0.0
  0
LINE
  5
16300
330
747D
100
AcDbEntity
  8
部品1
100
AcDbLine
 10
8609.673057123664
 20
9330.038117967179
 30
0.0
 11
8609.673057123641
 21
7660.038117967207
 31
0.0
  0
DIMENSION
  5
16301
330
747D
100
AcDbEntity
  8
寸法
 48
50.0
100
AcDbDimension
  2
*D9
 10
8586.673057123638
 20
7060.607347201043
 30
0.0
 11
8475.710159474891
 21
7160.607347201043
 31
0.0
 70
   160
 71
     5
 42
48.00000000000181
  3
INABA_S40G
100
AcDbAlignedDimension
 13
8634.67305712364
 23
7595.038117967295
 33
0.0
 14
8586.673057123638
 24
7621.038117967208
 34
0.0
100
AcDbRotatedDimension
1001
ACAD
1000
DSTYLE
1002
{
1070
   279
1070
     2
1002
}
  0
DIMENSION
  5
16302
330
747D
100
AcDbEntity
  8
寸法
 48
50.0
100
AcDbDimension
  2
*D10
 10
8634.67305712364
 20
7060.607347201043
 30
0.0
 11
8998.158338497876
 21
7060.607347201043
 31
0.0
 70
   160
 71
     5
 42
54.99999999999818
  3
INABA_S40G
100
AcDbAlignedDimension
 13
8689.67305712364
 23
7595.038117967298
 33
0.0
 14
8634.67305712364
 24
7595.038117967295
 34
0.0
100
AcDbRotatedDimension
1001
ACAD
1000
DSTYLE
1002
{
1002
}
  0
LINE
  5
16303
330
747D
100
AcDbEntity
  8
部品1
 48
50.0
100
AcDbLine
 10
8624.673057123638
 20
7621.038117967207
 30
0.0
 11
8634.67305712364
 21
7600.038117967208
 31
0.0
  0
LINE
  5
16304
330
747D
100
AcDbEntity
  8
部品1
100
AcDbLine
 10
8586.673057123638
 20
7660.038117967208
 30
0.0
 11
8634.67305712364
 21
7660.038117967207
 31
0.0
  0
LINE
  5
16305
330
747D
100
AcDbEntity
  8
部品1
100
AcDbLine
 10
8586.673057123638
 20
7621.038117967208
 30
0.0
 11
8634.67305712364
 21
7621.038117967207
 31
0.0
  0
LINE
  5
16306
330
747D
100
AcDbEntity
  8
部品1
 48
50.0
100
AcDbLine
 10
8586.673057123638
 20
7660.038117967208
 30
0.0
 11
8586.673057123638
 21
7651.038117967208
 31
0.0
  0
LINE
  5
16307
330
747D
100
AcDbEntity
  8
部品1
 48
50.0
100
AcDbLine
 10
8586.673057123638
 20
7621.038117967208
 30
0.0
 11
8586.673057123638
 21
7630.038117967207
 31
0.0
  0
LINE
  5
16308
330
747D
100
AcDbEntity
  8
部品1
100
AcDbLine
 10
8634.67305712364
 20
7631.038117967205
 30
0.0
 11
8657.673057123638
 21
7631.038117967206
 31
0.0
  0
LINE
  5
16309
330
747D
100
AcDbEntity
  8
部品1
100
AcDbLine
 10
8634.67305712364
 20
7650.03811796731
 30
0.0
 11
8689.673057123671
 21
7650.03811796731
 31
0.0
  0
LINE
  5
1630A
330
747D
100
AcDbEntity
  8
部品1
100
AcDbLine
 10
8689.67305712364
 20
7595.038117967298
 30
0.0
 11
8634.67305712364
 21
7595.038117967296
 31
0.0
  0
LINE
  5
16317
330
747D
100
AcDbEntity
  8
部品1
100
AcDbLine
 10
8661.673057123667
 20
8070.03811796731
 30
0.0
 11
8689.673057123668
 21
8070.03811796731
 31
0.0
  0
LINE
  5
16319
330
747D
100
AcDbEntity
  8
部品1
100
AcDbLine
 10
8661.673057123667
 20
8490.038117967309
 30
0.0
 11
8689.673057123668
 21
8490.038117967309
 31
0.0
  0
LINE
  5
1631A
330
747D
100
AcDbEntity
  8
部品1
100
AcDbLine
 10
8661.673057123664
 20
8910.038117967308
 30
0.0
 11
8689.673057123664
 21
8910.038117967308
 31
0.0
  0
LINE
  5
1631B
330
747D
100
AcDbEntity
  8
部品1
100
AcDbLine
 10
6087.673054001583
 20
9357.038117967327
 30
0.0
 11
7362.173057123661
 21
9357.038117967327
 31
0.0
  0
LINE
  5
1631D
330
747D
100
AcDbEntity
  8
部品1
100
AcDbLine
 10
3429.673057123663
 20
9385.03811796721
 30
0.0
 11
8689.673057123664
 21
9385.038117967306
 31
0.0
  0
DIMENSION
  5
1631F
330
747D
100
AcDbEntity
  8
寸法
100
AcDbDimension
  2
*D11
 10
8634.673057123665
 20
9600.84633759231
 30
0.0
 11
7374.673057123664
 21
9700.858148615932
 31
0.0
 70
    32
  1
6X420=<>
 71
     5
 42
2520.000000000001
  3
INABA_S40G
100
AcDbAlignedDimension
 13
6114.673057123663
 23
9385.03811796721
 33
0.0
 14
8634.673057123665
 24
9385.038117967306
 34
0.0
100
AcDbRotatedDimension
1001
ACAD
1000
DSTYLE
1002
{
1002
}
  0
DIMENSION
  5
16320
330
747D
100
AcDbEntity
  8
寸法
100
AcDbDimension
  2
*D12
 10
3484.673057123663
 20
9600.846337592194
 30
0.0
 11
3121.18777574939
 21
9600.846337592194
 31
0.0
 70
   160
 71
     5
 42
55.00000000003456
  3
INABA_S40G
100
AcDbAlignedDimension
 13
3429.673057123629
 23
9385.03811796721
 33
0.0
 14
3484.673057123663
 24
9385.03811796721
 34
0.0
100
AcDbRotatedDimension
1001
ACAD
1000
DSTYLE
1002
{
1002
}
  0
LINE
  5
16321
330
747D
100
AcDbEntity
  8
部品1
100
AcDbLine
 10
3484.673057123629
 20
9385.038117967178
 30
0.0
 11
3484.673057123631
 21
9357.038117967178
 31
0.0
  0
LINE
  5
16322
330
747D
100
AcDbEntity
  8
部品1
100
AcDbLine
 10
3484.673057123663
 20
9385.03811796721
 30
0.0
 11
3484.673057123663
 21
9357.038117967212
 31
0.0
  0
LINE
  5
16323
330
747D
100
AcDbEntity
  8
部品1
100
AcDbLine
 10
3457.67305712363
 20
9330.038117967182
 30
0.0
 11
3429.67305712363
 21
9330.038117967182
 31
0.0
  0
LINE
  5
16324
330
747D
100
AcDbEntity
  8
部品1
100
AcDbLine
 10
6534.673057123663
 20
9385.038117967328
 30
0.0
 11
6534.673057123663
 21
9357.038117967327
 31
0.0
  0
LINE
  5
16325
330
747D
100
AcDbEntity
  8
部品1
100
AcDbLine
 10
6534.673057123663
 20
9385.03811796721
 30
0.0
 11
6534.673057123663
 21
9357.038117967212
 31
0.0
  0
LINE
  5
16326
330
747D
100
AcDbEntity
  8
部品1
100
AcDbLine
 10
6534.673057123663
 20
9385.03811796721
 30
0.0
 11
6534.673057123663
 21
9357.038117967212
 31
0.0
  0
LINE
  5
16327
330
747D
100
AcDbEntity
  8
部品1
100
AcDbLine
 10
7387.173057123662
 20
9357.038117967325
 30
0.0
 11
8661.673057123664
 21
9357.038117967306
 31
0.0
  0
LINE
  5
16329
330
747D
100
AcDbEntity
  8
部品1
100
AcDbLine
 10
6954.673057123663
 20
9385.038117967328
 30
0.0
 11
6954.673057123663
 21
9357.038117967327
 31
0.0
  0
LINE
  5
1632A
330
747D
100
AcDbEntity
  8
部品1
100
AcDbLine
 10
6954.673057123663
 20
9385.03811796721
 30
0.0
 11
6954.673057123663
 21
9357.038117967212
 31
0.0
  0
LINE
  5
1632B
330
747D
100
AcDbEntity
  8
部品1
100
AcDbLine
 10
6954.673057123663
 20
9385.03811796721
 30
0.0
 11
6954.673057123663
 21
9357.038117967212
 31
0.0
  0
LINE
  5
1632C
330
747D
100
AcDbEntity
  8
部品1
100
AcDbLine
 10
7374.673057123662
 20
9385.038117967328
 30
0.0
 11
7374.673057123662
 21
9357.038117967327
 31
0.0
  0
LINE
  5
1632D
330
747D
100
AcDbEntity
  8
部品1
100
AcDbLine
 10
7362.173057123662
 20
9349.038117967308
 30
0.0
 11
7387.173057123662
 21
9349.038117967314
 31
0.0
  0
LINE
  5
1632E
330
747D
100
AcDbEntity
  8
部品1
100
AcDbLine
 10
7403.673057123663
 20
9375.038117967312
 30
0.0
 11
7409.673057123663
 21
9375.038117967312
 31
0.0
  0
LINE
  5
1632F
330
747D
100
AcDbEntity
  8
部品1
100
AcDbLine
 10
7409.673057123663
 20
9375.038117967312
 30
0.0
 11
7409.673057123663
 21
9357.038117967313
 31
0.0
  0
LINE
  5
16330
330
747D
100
AcDbEntity
  8
部品1
100
AcDbLine
 10
7339.673057123663
 20
9375.038117967312
 30
0.0
 11
7345.673057123663
 21
9375.038117967312
 31
0.0
  0
LINE
  5
16331
330
747D
100
AcDbEntity
  8
部品1
100
AcDbLine
 10
7339.673057123663
 20
9375.038117967312
 30
0.0
 11
7339.673057123663
 21
9357.038117967313
 31
0.0
  0
LINE
  5
16332
330
747D
100
AcDbEntity
  8
部品1
100
AcDbLine
 10
7794.673057123663
 20
9385.038117967328
 30
0.0
 11
7794.673057123663
 21
9357.038117967327
 31
0.0
  0
DIMENSION
  5
16333
330
747D
100
AcDbEntity
  8
寸法
100
AcDbDimension
  2
*D13
 10
8689.673057123664
 20
9600.846337592292
 30
0.0
 11
8998.158338497901
 21
9600.846337592292
 31
0.0
 70
   160
 71
     5
 42
55.0
  3
INABA_S40G
100
AcDbAlignedDimension
 13
8634.673057123665
 23
9385.038117967306
 33
0.0
 14
8689.673057123664
 24
9385.038117967306
 34
0.0
100
AcDbRotatedDimension
1001
ACAD
1000
DSTYLE
1002
{
1002
}
  0
LINE
  5
16334
330
747D
100
AcDbEntity
  8
部品1
100
AcDbLine
 10
8214.673057123661
 20
9385.038117967328
 30
0.0
 11
8214.673057123661
 21
9357.038117967327
 31
0.0
  0
LINE
  5
16335
330
747D
100
AcDbEntity
  8
部品1
100
AcDbLine
 10
8634.673057123665
 20
9385.038117967306
 30
0.0
 11
8634.673057123665
 21
9357.038117967306
 31
0.0
  0
LINE
  5
16336
330
747D
100
AcDbEntity
  8
部品1
100
AcDbLine
 10
8634.673057123665
 20
9385.038117967328
 30
0.0
 11
8634.673057123665
 21
9357.038117967327
 31
0.0
  0
LINE
  5
16337
330
747D
100
AcDbEntity
  8
部品1
100
AcDbLine
 10
8661.673057123664
 20
9330.03811796731
 30
0.0
 11
8689.673057123664
 21
9330.03811796731
 31
0.0
  0
DIMENSION
  5
1659A
330
747D
100
AcDbEntity
  8
寸法
 48
50.0
100
AcDbDimension
  2
*D16
 10
5956.673057123638
 20
7060.607347201043
 30
0.0
 11
5845.710159474891
 21
7160.607347201043
 31
0.0
 70
   160
 71
     5
 42
48.00000000000181
  3
INABA_S40G
100
AcDbAlignedDimension
 13
6004.67305712364
 23
7595.038117967295
 33
0.0
 14
5956.673057123638
 24
7621.038117967208
 34
0.0
100
AcDbRotatedDimension
1001
ACAD
1000
DSTYLE
1002
{
1070
   279
1070
     2
1002
}
  0
DIMENSION
  5
1659B
330
747D
100
AcDbEntity
  8
寸法
 48
50.0
100
AcDbDimension
  2
*D14
 10
3532.673057123657
 20
7060.607347201043
 30
0.0
 11
4744.673057123647
 21
7160.619158224665
 31
0.0
 70
    32
  1
有効開口部間口 <>
 71
     5
 42
2423.999999999982
  3
INABA_S40G
100
AcDbAlignedDimension
 13
5956.673057123638
 23
7621.038117967208
 33
0.0
 14
3532.673057123657
 24
7621.038117967207
 34
0.0
100
AcDbRotatedDimension
1001
ACAD
1000
DSTYLE
1002
{
1070
    75
1070
     1
1070
   279
1070
     2
1002
}
  0
DIMENSION
  5
1659C
330
747D
100
AcDbEntity
  8
寸法
 48
50.0
100
AcDbDimension
  2
*D15
 10
3484.673057123654
 20
7060.607347201043
 30
0.0
 11
3645.575028123714
 21
7160.607347201043
 31
0.0
 70
   160
 71
     5
 42
48.00000000000363
  3
INABA_S40G
100
AcDbAlignedDimension
 13
3532.673057123657
 23
7621.038117967207
 33
0.0
 14
3484.673057123654
 24
7595.038117967206
 34
0.0
100
AcDbRotatedDimension
1001
ACAD
1000
DSTYLE
1002
{
1070
   279
1070
     2
1002
}
  0
DIMENSION
  5
165E9
330
747D
100
AcDbEntity
  8
寸法
 48
50.0
100
AcDbDimension
  2
*D17
 10
6004.67305712364
 20
7060.607347201043
 30
0.0
 11
6059.673057123647
 21
6908.915452164812
 31
0.0
 70
   160
 71
     5
 42
110.0000000000127
  3
INABA_S40G
100
AcDbAlignedDimension
 13
6114.673057123653
 23
7595.038117967206
 33
0.0
 14
6004.67305712364
 24
7595.038117967295
 34
0.0
100
AcDbRotatedDimension
1001
ACAD
1000
DSTYLE
1002
{
1070
   279
1070
     2
1002
}
  0
LINE
  5
16655
330
747D
100
AcDbEntity
  8
部品1
 48
50.0
100
AcDbLine
 10
3496.673057123656
 20
7640.538117967206
 30
0.0
 11
5992.67305712364
 21
7640.538117967206
 31
0.0
  0
LINE
  5
16656
330
747D
100
AcDbEntity
  8
部品1
100
AcDbLine
 10
5956.673057123638
 20
7660.038117967208
 30
0.0
 11
6004.67305712364
 21
7660.038117967207
 31
0.0
  0
LINE
  5
16657
330
747D
100
AcDbEntity
  8
部品1
 48
50.0
100
AcDbLine
 10
5956.673057123638
 20
7660.038117967208
 30
0.0
 11
5956.673057123638
 21
7651.038117967208
 31
0.0
  0
LINE
  5
16658
330
747D
100
AcDbEntity
  8
部品1
100
AcDbLine
 10
5956.673057123638
 20
7621.038117967208
 30
0.0
 11
6004.673057123639
 21
7621.038117967207
 31
0.0
  0
LINE
  5
16659
330
747D
100
AcDbEntity
  8
部品1
 48
50.0
100
AcDbLine
 10
5956.673057123638
 20
7621.038117967208
 30
0.0
 11
5956.673057123638
 21
7630.038117967207
 31
0.0
  0
LINE
  5
1665A
330
747D
100
AcDbEntity
  8
部品1
 48
50.0
100
AcDbLine
 10
5994.673057123638
 20
7621.038117967207
 30
0.0
 11
6004.673057123639
 21
7600.038117967208
 31
0.0
  0
LINE
  5
1665B
330
747D
100
AcDbEntity
  8
部品1
100
AcDbLine
 10
6004.673057123639
 20
7631.038117967205
 30
0.0
 11
6027.673057123639
 21
7631.038117967206
 31
0.0
  0
LINE
  5
1665C
330
747D
100
AcDbEntity
  8
部品1
100
AcDbLine
 10
6162.673057123657
 20
7660.038117967208
 30
0.0
 11
6114.673057123656
 21
7660.038117967207
 31
0.0
  0
LINE
  5
1665D
330
747D
100
AcDbEntity
  8
部品1
 48
50.0
100
AcDbLine
 10
6162.673057123657
 20
7660.038117967208
 30
0.0
 11
6162.673057123657
 21
7651.038117967208
 31
0.0
  0
LINE
  5
1665E
330
747D
100
AcDbEntity
  8
部品1
100
AcDbLine
 10
6162.673057123657
 20
7621.038117967208
 30
0.0
 11
6114.673057123656
 21
7621.038117967207
 31
0.0
  0
LINE
  5
1665F
330
747D
100
AcDbEntity
  8
部品1
 48
50.0
100
AcDbLine
 10
6124.673057123657
 20
7621.038117967207
 30
0.0
 11
6114.673057123656
 21
7600.038117967208
 31
0.0
  0
LINE
  5
16660
330
747D
100
AcDbEntity
  8
部品1
100
AcDbLine
 10
6114.673057123656
 20
7631.038117967206
 30
0.0
 11
6091.673057123657
 21
7631.038117967206
 31
0.0
  0
LINE
  5
16661
330
747D
100
AcDbEntity
  8
部品1
 48
50.0
100
AcDbLine
 10
6114.673057123656
 20
7660.038117967205
 30
0.0
 11
6114.673057123653
 21
7595.038117967206
 31
0.0
  0
LINE
  5
16662
330
747D
100
AcDbEntity
  8
部品1
 48
50.0
100
AcDbLine
 10
6162.673057123657
 20
7621.038117967208
 30
0.0
 11
6162.673057123657
 21
7630.038117967207
 31
0.0
  0
LINE
  5
16663
330
747D
100
AcDbEntity
  8
部品1
100
AcDbLine
 10
6114.673057123653
 20
7595.038117967206
 30
0.0
 11
6004.673057123643
 21
7595.038117967202
 31
0.0
  0
LINE
  5
16664
330
747D
100
AcDbEntity
  8
部品1
 48
50.0
100
AcDbLine
 10
6004.673057123645
 20
7660.038117967293
 30
0.0
 11
6004.673057123642
 21
7595.038117967295
 31
0.0
  0
DIMENSION
  5
16667
330
747D
100
AcDbEntity
  8
寸法
100
AcDbDimension
  2
*D18
 10
6004.673057123664
 20
9600.84633759231
 30
0.0
 11
4744.673057123664
 21
9700.858148615932
 31
0.0
 70
    32
  1
6X420=<>
 71
     5
 42
2520.000000000001
  3
INABA_S40G
100
AcDbAlignedDimension
 13
3484.673057123663
 23
9385.03811796721
 33
0.0
 14
6004.673057123664
 24
9385.038117967306
 34
0.0
100
AcDbRotatedDimension
1001
ACAD
1000
DSTYLE
1002
{
1002
}
  0
LINE
  5
16680
330
747D
100
AcDbEntity
  8
部品1
100
AcDbLine
 10
4744.673057123662
 20
9385.038117967328
 30
0.0
 11
4744.673057123662
 21
9357.038117967327
 31
0.0
  0
LINE
  5
16681
330
747D
100
AcDbEntity
  8
部品1
100
AcDbLine
 10
4732.173057123662
 20
9349.038117967308
 30
0.0
 11
4757.173057123663
 21
9349.038117967314
 31
0.0
  0
LINE
  5
16682
330
747D
100
AcDbEntity
  8
部品1
100
AcDbLine
 10
4773.673057123663
 20
9375.038117967312
 30
0.0
 11
4779.673057123662
 21
9375.038117967312
 31
0.0
  0
LINE
  5
16683
330
747D
100
AcDbEntity
  8
部品1
100
AcDbLine
 10
4779.673057123662
 20
9375.038117967312
 30
0.0
 11
4779.673057123662
 21
9357.038117967313
 31
0.0
  0
LINE
  5
16684
330
747D
100
AcDbEntity
  8
部品1
100
AcDbLine
 10
4709.673057123663
 20
9375.038117967312
 30
0.0
 11
4715.673057123662
 21
9375.038117967312
 31
0.0
  0
LINE
  5
16685
330
747D
100
AcDbEntity
  8
部品1
100
AcDbLine
 10
4709.673057123663
 20
9375.038117967312
 30
0.0
 11
4709.673057123663
 21
9357.038117967313
 31
0.0
  0
LINE
  5
16686
330
747D
100
AcDbEntity
  8
部品1
100
AcDbLine
 10
4757.173057123663
 20
9357.038117967325
 30
0.0
 11
6031.673057123664
 21
9357.038117967306
 31
0.0
  0
LINE
  5
16688
330
747D
100
AcDbEntity
  8
部品1
100
AcDbLine
 10
3457.67305712365
 20
9357.038117967327
 30
0.0
 11
4732.173057123661
 21
9357.038117967327
 31
0.0
  0
LINE
  5
1668A
330
747D
100
AcDbEntity
  8
部品1
100
AcDbLine
 10
3904.673057123663
 20
9385.038117967328
 30
0.0
 11
3904.673057123663
 21
9357.038117967327
 31
0.0
  0
LINE
  5
1668B
330
747D
100
AcDbEntity
  8
部品1
100
AcDbLine
 10
3904.673057123663
 20
9385.03811796721
 30
0.0
 11
3904.673057123663
 21
9357.038117967212
 31
0.0
  0
LINE
  5
1668C
330
747D
100
AcDbEntity
  8
部品1
100
AcDbLine
 10
3904.673057123663
 20
9385.03811796721
 30
0.0
 11
3904.673057123663
 21
9357.038117967212
 31
0.0
  0
LINE
  5
1668D
330
747D
100
AcDbEntity
  8
部品1
100
AcDbLine
 10
4324.673057123663
 20
9385.038117967328
 30
0.0
 11
4324.673057123663
 21
9357.038117967327
 31
0.0
  0
LINE
  5
1668E
330
747D
100
AcDbEntity
  8
部品1
100
AcDbLine
 10
4324.673057123663
 20
9385.03811796721
 30
0.0
 11
4324.673057123663
 21
9357.038117967212
 31
0.0
  0
LINE
  5
1668F
330
747D
100
AcDbEntity
  8
部品1
100
AcDbLine
 10
4324.673057123663
 20
9385.03811796721
 30
0.0
 11
4324.673057123663
 21
9357.038117967212
 31
0.0
  0
LINE
  5
16690
330
747D
100
AcDbEntity
  8
部品1
100
AcDbLine
 10
5164.673057123663
 20
9385.038117967328
 30
0.0
 11
5164.673057123663
 21
9357.038117967327
 31
0.0
  0
LINE
  5
16691
330
747D
100
AcDbEntity
  8
部品1
100
AcDbLine
 10
5584.673057123662
 20
9385.038117967328
 30
0.0
 11
5584.673057123662
 21
9357.038117967327
 31
0.0
  0
DIMENSION
  5
166DD
330
747D
100
AcDbEntity
  8
寸法
 48
50.0
100
AcDbDimension
  2
*D19
 10
6004.673057123664
 20
9600.84633759231
 30
0.0
 11
6059.673057123664
 21
9700.846337592309
 31
0.0
 70
    32
 71
     5
 42
109.9999999999991
  3
INABA_S40G
100
AcDbAlignedDimension
 13
6114.673057123663
 23
9385.03811796726
 33
0.0
 14
6004.673057123664
 24
9385.038117967257
 34
0.0
100
AcDbRotatedDimension
1001
ACAD
1000
DSTYLE
1002
{
1070
   279
1070
     2
1002
}
  0
LINE
  5
168C3
330
747D
100
AcDbEntity
  8
部品1
100
AcDbLine
 10
6083.673057123648
 20
7650.038117967203
 30
0.0
 11
6035.673057123647
 21
7650.038117967202
 31
0.0
  0
LINE
  5
168C4
330
747D
100
AcDbEntity
  8
部品1
 48
50.0
100
AcDbLine
 10
6035.673057123648
 20
7650.038117967205
 30
0.0
 11
6035.67305712365
 21
7595.038117967203
 31
0.0
  0
LINE
  5
168C5
330
747D
100
AcDbEntity
  8
部品1
 48
50.0
100
AcDbLine
 10
6083.673057123648
 20
7650.038117967205
 30
0.0
 11
6083.67305712365
 21
7595.038117967203
 31
0.0
  0
DIMENSION
  5
16907
330
747D
100
AcDbEntity
  8
寸法
 48
50.0
100
AcDbDimension
  2
*D20
 10
6059.673057123664
 20
9850.167811148605
 30
0.0
 11
4744.673057123645
 21
9950.179622172226
 31
0.0
 70
    32
 71
     5
 42
2630.000000000036
  3
INABA_S40G
100
AcDbAlignedDimension
 13
3429.673057123629
 23
9385.038117967178
 33
0.0
 14
6059.673057123664
 24
9759.834251950255
 34
0.0
100
AcDbRotatedDimension
1001
ACAD
1000
DSTYLE
1002
{
1070
   279
1070
     2
1002
}
  0
DIMENSION
  5
16913
330
747D
100
AcDbEntity
  8
寸法
 48
50.0
100
AcDbDimension
  2
*D21
 10
8689.673057123664
 20
9850.167811148605
 30
0.0
 11
7374.673057123664
 21
9950.179622172226
 31
0.0
 70
    32
 71
     5
 42
2630.0
  3
INABA_S40G
100
AcDbAlignedDimension
 13
6059.673057123664
 23
9759.834251950255
 33
0.0
 14
8689.673057123664
 24
9385.038117967306
 34
0.0
100
AcDbRotatedDimension
1001
ACAD
1000
DSTYLE
1002
{
1070
    75
1070
     1
1070
   279
1070
     2
1002
}
  0
LINE
  5
1697D
330
747D
100
AcDbEntity
  8
部品1
 48
50.0
100
AcDbLine
 10
4732.173057123661
 20
9357.038117967327
 30
0.0
 11
4732.173057123662
 21
9349.038117967308
 31
0.0
  0
LINE
  5
1697E
330
747D
100
AcDbEntity
  8
部品1
 48
50.0
100
AcDbLine
 10
4757.173057123663
 20
9357.038117967325
 30
0.0
 11
4757.173057123664
 21
9349.038117967314
 31
0.0
  0
LINE
  5
1697F
330
747D
100
AcDbEntity
  8
部品1
 48
50.0
100
AcDbLine
 10
7362.173057123661
 20
9357.038117967327
 30
0.0
 11
7362.173057123662
 21
9349.038117967308
 31
0.0
  0
LINE
  5
16980
330
747D
100
AcDbEntity
  8
部品1
 48
50.0
100
AcDbLine
 10
7387.173057123662
 20
9357.038117967325
 30
0.0
 11
7387.173057123662
 21
9349.038117967314
 31
0.0
  0
LINE
  5
16999
330
747D
100
AcDbEntity
  8
部品1
100
AcDbLine
 10
8634.673057123656
 20
9330.038117967177
 30
0.0
 11
6114.673056245444
 21
9330.038117967179
 31
0.0
  0
LINE
  5
1699B
330
747D
100
AcDbEntity
  8
部品1
100
AcDbLine
 10
8609.673057123664
 20
9305.038117967106
 30
0.0
 11
6139.67305624542
 21
9305.038117967106
 31
0.0
  0
LINE
  5
1699C
330
747D
100
AcDbEntity
  8
部品1
 48
50.0
100
AcDbLine
 10
3457.67305712365
 20
9357.038117967213
 30
0.0
 11
3484.673057123635
 21
9330.038117967177
 31
0.0
  0
LINE
  5
1699D
330
747D
100
AcDbEntity
  8
部品1
 48
50.0
100
AcDbLine
 10
8661.673057123648
 20
9357.038117967306
 30
0.0
 11
8634.673057123659
 21
9330.038117967177
 31
0.0
  0
LINE
  5
16C00
330
747D
100
AcDbEntity
  8
仕様書枠
 48
50.0
100
AcDbLine
 10
16307.19999999999
 20
8519.600000000004
 30
0.0
 11
13127.19999999999
 21
8519.600000000005
 31
0.0
  0
TEXT
  5
16C01
330
747D
100
AcDbEntity
  8
文字
 62
     7
 48
50.0
100
AcDbText
 10
15022.63965474516
 20
9910.01374588373
 30
0.0
 40
100.0
  1
F12,Y10        1.0
  7
STYLE1
100
AcDbText
  0
TEXT
  5
16C02
330
747D
100
AcDbEntity
  8
文字
 62
     7
 48
50.0
100
AcDbText
 10
13583.11819016569
 20
9910.01374588373
 30
0.0
 40
100.0
  1
梁中
  7
STYLE1
100
AcDbText
  0
LINE
  5
16C03
330
747D
100
AcDbEntity
  8
仕様書枠
 48
50.0
100
AcDbLine
 10
16307.19999999999
 20
9879.600000000001
 30
0.0
 11
13127.19999999999
 21
9879.600000000003
 31
0.0
  0
LINE
  5
16C04
330
747D
100
AcDbEntity
  8
仕様書枠
 48
50.0
100
AcDbLine
 10
16307.19999999999
 20
11239.6
 30
0.0
 11
13127.2
 21
11239.6
 31
0.0
  0
LINE
  5
16C05
330
747D
100
AcDbEntity
  8
仕様書枠
 48
50.0
100
AcDbLine
 10
16307.19999999999
 20
8179.600000000005
 30
0.0
 11
16307.2
 21
11239.6
 31
0.0
  0
LINE
  5
16C06
330
747D
100
AcDbEntity
  8
仕様書枠
 48
50.0
100
AcDbLine
 10
14785.2
 20
11239.6
 30
0.0
 11
14785.19999999999
 21
8689.600000000003
 31
0.0
  0
LINE
  5
16C07
330
747D
100
AcDbEntity
  8
仕様書枠
 48
50.0
100
AcDbLine
 10
13490.2
 20
11239.6
 30
0.0
 11
13490.20000000001
 21
8689.600000000003
 31
0.0
  0
LINE
  5
16C08
330
747D
100
AcDbEntity
  8
仕様書枠
 48
50.0
100
AcDbLine
 10
16307.19999999999
 20
11069.6
 30
0.0
 11
13127.2
 21
11069.6
 31
0.0
  0
LINE
  5
16C09
330
747D
100
AcDbEntity
  8
仕様書枠
 48
50.0
100
AcDbLine
 10
16307.19999999999
 20
10729.6
 30
0.0
 11
13127.2
 21
10729.6
 31
0.0
  0
LINE
  5
16C0A
330
747D
100
AcDbEntity
  8
仕様書枠
 48
50.0
100
AcDbLine
 10
16307.19999999999
 20
10899.6
 30
0.0
 11
13127.2
 21
10899.6
 31
0.0
  0
LINE
  5
16C0B
330
747D
100
AcDbEntity
  8
仕様書枠
 48
50.0
100
AcDbLine
 10
16307.19999999999
 20
10389.6
 30
0.0
 11
13127.19999999999
 21
10389.6
 31
0.0
  0
LINE
  5
16C0C
330
747D
100
AcDbEntity
  8
仕様書枠
 48
50.0
100
AcDbLine
 10
16307.19999999999
 20
10219.6
 30
0.0
 11
13127.19999999999
 21
10219.6
 31
0.0
  0
LINE
  5
16C0D
330
747D
100
AcDbEntity
  8
仕様書枠
 48
50.0
100
AcDbLine
 10
16307.19999999999
 20
10559.6
 30
0.0
 11
13127.19999999999
 21
10559.6
 31
0.0
  0
TEXT
  5
16C0E
330
747D
100
AcDbEntity
  8
文字
 62
     7
 48
50.0
100
AcDbText
 10
13197.42518560407
 20
11100.01374588373
 30
0.0
 40
100.0
  1
品番
  7
STYLE1
100
AcDbText
  0
TEXT
  5
16C0F
330
747D
100
AcDbEntity
  8
文字
 62
     7
 48
50.0
100
AcDbText
 10
13271.19032244792
 20
10930.01374588373
 30
0.0
 40
100.0
  1
1
  7
STYLE1
100
AcDbText
  0
TEXT
  5
16C10
330
747D
100
AcDbEntity
  8
文字
 62
     7
 48
50.0
100
AcDbText
 10
13271.19032244792
 20
10760.01374588373
 30
0.0
 40
100.0
  1
2
  7
STYLE1
100
AcDbText
  0
TEXT
  5
16C11
330
747D
100
AcDbEntity
  8
文字
 62
     7
 48
50.0
100
AcDbText
 10
13271.19032244792
 20
10420.01374588373
 30
0.0
 40
100.0
  1
4
  7
STYLE1
100
AcDbText
  0
TEXT
  5
16C12
330
747D
100
AcDbEntity
  8
文字
 62
     7
 48
50.0
100
AcDbText
 10
13271.19032244792
 20
10590.01374588373
 30
0.0
 40
100.0
  1
3
  7
STYLE1
100
AcDbText
  0
TEXT
  5
16C13
330
747D
100
AcDbEntity
  8
文字
 62
     7
 48
50.0
100
AcDbText
 10
13732.03840939434
 20
11100.01374588373
 30
0.0
 40
100.0
  1
部　　品　　名
  7
STYLE1
100
AcDbText
  0
TEXT
  5
16C14
330
747D
100
AcDbEntity
  8
文字
 62
     7
 48
50.0
100
AcDbText
 10
14859.79774614482
 20
11100.01374588373
 30
0.0
 40
100.0
  1
材料（材質）　　単位mm
  7
STYLE1
100
AcDbText
  0
TEXT
  5
16C15
330
747D
100
AcDbEntity
  8
文字
 62
     7
 48
50.0
100
AcDbText
 10
13583.11819016569
 20
10930.01374588373
 30
0.0
 40
100.0
  1
土台枠
  7
STYLE1
100
AcDbText
  0
TEXT
  5
16C16
330
747D
100
AcDbEntity
  8
文字
 62
     7
 48
50.0
100
AcDbText
 10
13583.11819016569
 20
10760.01374588373
 30
0.0
 40
100.0
  1
柱
  7
STYLE1
100
AcDbText
  0
TEXT
  5
16C17
330
747D
100
AcDbEntity
  8
文字
 62
     7
 48
50.0
100
AcDbText
 10
13583.11819016569
 20
10590.01374588373
 30
0.0
 40
100.0
  1
桁前
  7
STYLE1
100
AcDbText
  0
TEXT
  5
16C18
330
747D
100
AcDbEntity
  8
文字
 62
     7
 48
50.0
100
AcDbText
 10
13583.11819016569
 20
10420.01374588373
 30
0.0
 40
100.0
  1
桁後
  7
STYLE1
100
AcDbText
  0
TEXT
  5
16C19
330
747D
100
AcDbEntity
  8
文字
 62
     7
 48
50.0
100
AcDbText
 10
13271.19032244792
 20
10250.01374588373
 30
0.0
 40
100.0
  1
5
  7
STYLE1
100
AcDbText
  0
TEXT
  5
16C1A
330
747D
100
AcDbEntity
  8
文字
 62
     7
 48
50.0
100
AcDbText
 10
13583.11819016569
 20
10250.01374588373
 30
0.0
 40
100.0
  1
妻板左右
  7
STYLE1
100
AcDbText
  0
TEXT
  5
16C1B
330
747D
100
AcDbEntity
  8
文字
 62
     7
 48
50.0
100
AcDbText
 10
13583.11819016569
 20
8720.013745883729
 30
0.0
 40
100.0
  1
シャッターレール
  7
STYLE1
100
AcDbText
  0
TEXT
  5
16C1C
330
747D
100
AcDbEntity
  8
文字
 62
     7
 48
50.0
100
AcDbText
 10
13248.77747366448
 20
9400.013745883729
 30
0.0
 40
100.0
  1
10
  7
STYLE1
100
AcDbText
  0
TEXT
  5
16C1D
330
747D
100
AcDbEntity
  8
文字
 62
     7
 48
50.0
100
AcDbText
 10
13583.11819016569
 20
9400.013745883731
 30
0.0
 40
100.0
  1
壁パネル
  7
STYLE1
100
AcDbText
  0
TEXT
  5
16C1E
330
747D
100
AcDbEntity
  8
文字
 62
     7
 48
50.0
100
AcDbText
 10
13583.11819016569
 20
9570.013745883729
 30
0.0
 40
100.0
  1
屋根パネル
  7
STYLE1
100
AcDbText
  0
TEXT
  5
16C1F
330
747D
100
AcDbEntity
  8
文字
 62
     7
 48
50.0
100
AcDbText
 10
13583.11819016569
 20
9740.013745883729
 30
0.0
 40
100.0
  1
母屋中
  7
STYLE1
100
AcDbText
  0
TEXT
  5
16C20
330
747D
100
AcDbEntity
  8
文字
 62
     7
 48
50.0
100
AcDbText
 10
13583.11819016569
 20
10080.01374588373
 30
0.0
 40
100.0
  1
鼻隠シ前後
  7
STYLE1
100
AcDbText
  0
TEXT
  5
16C21
330
747D
100
AcDbEntity
  8
文字
 62
     7
 48
50.0
100
AcDbText
 10
13271.19032244792
 20
9740.013745883731
 30
0.0
 40
100.0
  1
8
  7
STYLE1
100
AcDbText
  0
TEXT
  5
16C22
330
747D
100
AcDbEntity
  8
文字
 62
     7
 48
50.0
100
AcDbText
 10
13271.19032244792
 20
9570.013745883731
 30
0.0
 40
100.0
  1
9
  7
STYLE1
100
AcDbText
  0
TEXT
  5
16C23
330
747D
100
AcDbEntity
  8
文字
 62
     7
 48
50.0
100
AcDbText
 10
13271.19032244792
 20
9910.01374588373
 30
0.0
 40
100.0
  1
7
  7
STYLE1
100
AcDbText
  0
TEXT
  5
16C24
330
747D
100
AcDbEntity
  8
文字
 62
     7
 48
50.0
100
AcDbText
 10
13271.19032244792
 20
10080.01374588373
 30
0.0
 40
100.0
  1
6
  7
STYLE1
100
AcDbText
  0
LINE
  5
16C25
330
747D
100
AcDbEntity
  8
仕様書枠
 48
50.0
100
AcDbLine
 10
16307.19999999999
 20
9539.6
 30
0.0
 11
13127.19999999999
 21
9539.600000000003
 31
0.0
  0
LINE
  5
16C26
330
747D
100
AcDbEntity
  8
仕様書枠
 48
50.0
100
AcDbLine
 10
16307.19999999999
 20
9029.6
 30
0.0
 11
13127.19999999999
 21
9029.600000000002
 31
0.0
  0
LINE
  5
16C27
330
747D
100
AcDbEntity
  8
仕様書枠
 48
50.0
100
AcDbLine
 10
16307.19999999999
 20
9369.600000000001
 30
0.0
 11
13127.19999999999
 21
9369.600000000003
 31
0.0
  0
LINE
  5
16C28
330
747D
100
AcDbEntity
  8
仕様書枠
 48
50.0
100
AcDbLine
 10
16307.19999999999
 20
10049.6
 30
0.0
 11
13127.2
 21
10049.6
 31
0.0
  0
LINE
  5
16C29
330
747D
100
AcDbEntity
  8
仕様書枠
 48
50.0
100
AcDbLine
 10
16307.19999999999
 20
9709.600000000001
 30
0.0
 11
13127.19999999999
 21
9709.600000000001
 31
0.0
  0
TEXT
  5
16C2A
330
747D
100
AcDbEntity
  8
文字
 62
     7
 48
50.0
100
AcDbText
 10
13248.77747366448
 20
9230.013745883729
 30
0.0
 40
100.0
  1
11
  7
STYLE1
100
AcDbText
  0
TEXT
  5
16C2B
330
747D
100
AcDbEntity
  8
文字
 62
     7
 48
50.0
100
AcDbText
 10
13583.11819016569
 20
8890.013745883729
 30
0.0
 40
100.0
  1
シャッターカバー
 41
0.9
  7
STYLE1
100
AcDbText
  0
LINE
  5
16C2C
330
747D
100
AcDbEntity
  8
仕様書枠
 48
50.0
100
AcDbLine
 10
16307.19999999999
 20
8859.6
 30
0.0
 11
13127.19999999999
 21
8859.600000000002
 31
0.0
  0
LINE
  5
16C2D
330
747D
100
AcDbEntity
  8
仕様書枠
 48
50.0
100
AcDbLine
 10
16307.19999999999
 20
8689.600000000003
 30
0.0
 11
13127.19999999999
 21
8689.600000000003
 31
0.0
  0
TEXT
  5
16C2E
330
747D
100
AcDbEntity
  8
文字
 62
     7
 48
50.0
100
AcDbText
 10
13583.11819016568
 20
9060.013745883734
 30
0.0
 40
100.0
  1
シャッター
  7
STYLE1
100
AcDbText
  0
TEXT
  5
16C2F
330
747D
100
AcDbEntity
  8
文字
 62
     7
 48
50.0
100
AcDbText
 10
13248.77747366448
 20
8890.013745883731
 30
0.0
 40
100.0
  1
13
  7
STYLE1
100
AcDbText
  0
TEXT
  5
16C30
330
747D
100
AcDbEntity
  8
文字
 62
     7
 48
50.0
100
AcDbText
 10
13248.77747366448
 20
9060.013745883731
 30
0.0
 40
100.0
  1
12
  7
STYLE1
100
AcDbText
  0
TEXT
  5
16C31
330
747D
100
AcDbEntity
  8
文字
 62
     7
 48
50.0
100
AcDbText
 10
15022.63965474517
 20
10930.01374588372
 30
0.0
 40
100.0
  1
F12            1.2
  7
STYLE1
100
AcDbText
  0
TEXT
  5
16C32
330
747D
100
AcDbEntity
  8
文字
 62
     7
 48
50.0
100
AcDbText
 10
15022.63965474517
 20
10760.01374588372
 30
0.0
 40
100.0
  1
F12         1.0,1.2
  7
STYLE1
100
AcDbText
  0
TEXT
  5
16C33
330
747D
100
AcDbEntity
  8
文字
 62
     7
 48
50.0
100
AcDbText
 10
15022.63965474516
 20
10590.01374588373
 30
0.0
 40
100.0
  1
Y10            1.0
  7
STYLE1
100
AcDbText
  0
TEXT
  5
16C34
330
747D
100
AcDbEntity
  8
文字
 62
     7
 48
50.0
100
AcDbText
 10
15022.63965474516
 20
10420.01374588372
 30
0.0
 40
100.0
  1
Y10            1.0
  7
STYLE1
100
AcDbText
  0
TEXT
  5
16C35
330
747D
100
AcDbEntity
  8
文字
 62
     7
 48
50.0
100
AcDbText
 10
15022.63965474516
 20
10250.01374588373
 30
0.0
 40
100.0
  1
Y10            0.7
  7
STYLE1
100
AcDbText
  0
TEXT
  5
16C36
330
747D
100
AcDbEntity
  8
文字
 62
     7
 48
50.0
100
AcDbText
 10
15022.63965474516
 20
10080.01374588372
 30
0.0
 40
100.0
  1
Y10            0.7
  7
STYLE1
100
AcDbText
  0
TEXT
  5
16C37
330
747D
100
AcDbEntity
  8
文字
 62
     7
 48
50.0
100
AcDbText
 10
15022.63965474516
 20
9570.013745883727
 30
0.0
 40
100.0
  1
Y10            0.5
  7
STYLE1
100
AcDbText
  0
TEXT
  5
16C38
330
747D
100
AcDbEntity
  8
文字
 62
     7
 48
50.0
100
AcDbText
 10
15022.63965474516
 20
9400.013745883727
 30
0.0
 40
100.0
  1
F12            0.7
  7
STYLE1
100
AcDbText
  0
TEXT
  5
16C39
330
747D
100
AcDbEntity
  8
文字
 62
     7
 48
50.0
100
AcDbText
 10
14850.83183167176
 20
8720.013745883727
 30
0.0
 40
100.0
  1
アルミニウム合金押出形材
  7
STYLE1
100
AcDbText
  0
TEXT
  5
16C3B
330
747D
100
AcDbEntity
  8
文字
 62
     7
 48
50.0
100
AcDbText
 10
15022.63965474514
 20
9060.013745883731
 30
0.0
 40
100.0
  1
Z08            0.5
  7
STYLE1
100
AcDbText
  0
LINE
  5
16C3C
330
747D
100
AcDbEntity
  8
仕様書枠
 48
50.0
100
AcDbLine
 10
16307.19999999999
 20
8349.600000000004
 30
0.0
 11
13127.19999999999
 21
8349.600000000007
 31
0.0
  0
LINE
  5
16C3D
330
747D
100
AcDbEntity
  8
仕様書枠
 48
50.0
100
AcDbLine
 10
16307.19999999999
 20
8179.600000000004
 30
0.0
 11
13127.19999999999
 21
8179.600000000005
 31
0.0
  0
LINE
  5
16C3E
330
747D
100
AcDbEntity
  8
仕様書枠
 48
50.0
100
AcDbLine
 10
16307.19999999999
 20
8179.600000000004
 30
0.0
 11
13127.19999999999
 21
8179.600000000005
 31
0.0
  0
TEXT
  5
16C3F
330
747D
100
AcDbEntity
  8
文字
 62
     7
 48
50.0
100
AcDbText
 10
13229.83081656555
 20
8550.013745883731
 30
0.0
 40
100.0
  1
F12→溶融亜鉛めっき鋼板(JIS G 3302)
  7
STYLE1
100
AcDbText
  0
TEXT
  5
16C40
330
747D
100
AcDbEntity
  8
文字
 62
     7
 48
50.0
100
AcDbText
 10
13229.83081656555
 20
8380.013745883731
 30
0.0
 40
100.0
  1
Y10→溶融亜鉛-5％アルミニウム合金めっき鋼板(JIS G 3317)
 41
0.9
  7
STYLE1
100
AcDbText
  0
TEXT
  5
16C41
330
747D
100
AcDbEntity
  8
文字
 62
     7
 48
50.0
100
AcDbText
 10
13229.83081656555
 20
8210.013745883733
 30
0.0
 40
100.0
  1
Z08→塗装溶融亜鉛めっき鋼板(JIS G 3313)
  7
STYLE1
100
AcDbText
  0
LINE
  5
16C42
330
747D
100
AcDbEntity
  8
仕様書枠
 48
50.0
100
AcDbLine
 10
13127.2
 20
11239.6
 30
0.0
 11
13127.2
 21
8179.600000000005
 31
0.0
  0
LINE
  5
16FB3
330
747D
100
AcDbEntity
  8
部品1
 48
50.0
100
AcDbLine
 10
8732.264636017211
 20
4893.264454520762
 30
0.0
 11
6049.673057123642
 21
4893.264454520762
 31
0.0
  0
LINE
  5
16FB4
330
747D
100
AcDbEntity
  8
部品1
 48
50.0
100
AcDbLine
 10
8719.049312556178
 20
4752.264454520762
 30
0.0
 11
6059.673057123642
 21
4752.264454520762
 31
0.0
  0
LINE
  5
16FB5
330
747D
100
AcDbEntity
  8
細線
 48
50.0
100
AcDbLine
 10
8737.514406111728
 20
4865.23769708423
 30
0.0
 11
6049.673057123642
 21
4865.23769708423
 31
0.0
  0
LINE
  5
16FB6
330
747D
100
AcDbEntity
  8
細線
 48
50.0
100
AcDbLine
 10
8729.278375586885
 20
4773.037697084229
 30
0.0
 11
6049.673057123642
 21
4773.037697084549
 31
0.0
  0
LINE
  5
16FB7
330
747D
100
AcDbEntity
  8
部品1
100
AcDbLine
 10
8739.25339610831
 20
4885.867929125521
 30
0.0
 11
8738.119998775964
 21
4865.891801142923
 31
0.0
  0
LINE
  5
16FB8
330
747D
100
AcDbEntity
  8
細線
 48
50.0
100
AcDbLine
 10
8706.673057123644
 20
4893.264454520762
 30
0.0
 11
8706.673057123644
 21
4752.264454520762
 31
0.0
  0
LINE
  5
16FBA
330
747D
100
AcDbEntity
  8
部品1
100
AcDbLine
 10
8726.682978454389
 20
4770.234393975864
 30
0.0
 11
8726.038072647275
 21
4758.867929125524
 31
0.0
  0
LINE
  5
16FBB
330
747D
100
AcDbEntity
  8
部品1
100
AcDbLine
 10
8734.919008979231
 20
4862.434393975866
 30
0.0
 11
8729.883968251121
 21
4773.691801142923
 31
0.0
  0
ARC
  5
16FBC
330
747D
100
AcDbEntity
  8
部品1
 48
50.0
100
AcDbCircle
 10
8737.914191875416
 20
4862.264454520762
 30
0.0
 40
3.0
100
AcDbArc
 50
97.65812720736564
 51
176.7526572096647
  0
ARC
  5
16FBD
330
747D
100
AcDbEntity
  8
部品1
 48
50.0
100
AcDbCircle
 10
8729.678161350575
 20
4770.064454520761
 30
0.0
 40
3.0
100
AcDbArc
 50
97.65812720736379
 51
176.7526572096647
  0
ARC
  5
16FBE
330
747D
100
AcDbEntity
  8
部品1
 48
50.0
100
AcDbCircle
 10
8729.185092242012
 20
4773.731453682445
 30
0.0
 40
0.7
100
AcDbArc
 50
277.6581272073638
 51
356.7526572097167
  0
ARC
  5
16FBF
330
747D
100
AcDbEntity
  8
部品1
 48
50.0
100
AcDbCircle
 10
8737.421122766857
 20
4865.931453682449
 30
0.0
 40
0.7
100
AcDbArc
 50
277.6581272073638
 51
356.7526572096136
  0
ARC
  5
16FC0
330
747D
100
AcDbEntity
  8
部品1
100
AcDbCircle
 10
8719.049312556178
 20
4759.264454520763
 30
0.0
 40
7.0
100
AcDbArc
 50
270.0
 51
356.7526572096647
  0
ARC
  5
16FC1
330
747D
100
AcDbEntity
  8
部品1
100
AcDbCircle
 10
8732.264636017211
 20
4886.264454520762
 30
0.0
 40
7.0
100
AcDbArc
 50
356.7526572096647
 51
90.0
  0
DIMENSION
  5
16FCB
330
747D
100
AcDbEntity
  8
寸法
 48
50.0
100
AcDbDimension
  2
*D22
 10
8739.673057123644
 20
5508.883723478677
 30
0.0
 11
6059.673057123645
 21
5508.883723478677
 31
0.0
 70
   160
 71
     5
 42
5359.999999999998
  3
INABA_S40G
100
AcDbAlignedDimension
 13
3379.673057123646
 23
4893.264454520763
 33
0.0
 14
8739.673057123644
 24
4893.264454520761
 34
0.0
100
AcDbRotatedDimension
  0
DIMENSION
  5
16FCC
330
747D
100
AcDbEntity
  8
寸法
 48
50.0
100
AcDbDimension
  2
*D23
 10
8689.673057123645
 20
5292.357623860232
 30
0.0
 11
9053.15833849788
 21
5292.357623860232
 31
0.0
 70
   160
 71
     5
 42
50.0
  3
INABA_S40G
100
AcDbAlignedDimension
 13
8739.673057123644
 23
4893.264454520761
 33
0.0
 14
8689.673057123645
 24
4893.264454520763
 34
0.0
100
AcDbRotatedDimension
  0
DIMENSION
  5
16FCE
330
747D
100
AcDbEntity
  8
寸法
 48
50.0
100
AcDbDimension
  2
*D24
 10
3429.673057123646
 20
5292.357623860232
 30
0.0
 11
6059.673057123645
 21
5292.357623860232
 31
0.0
 70
   160
  1
柱外寸法<>
 71
     5
 42
5259.999999999998
  3
INABA_S40G
100
AcDbAlignedDimension
 13
8689.673057123645
 23
4893.264454520763
 33
0.0
 14
3429.673057123646
 24
4893.264454520765
 34
0.0
100
AcDbRotatedDimension
  0
LWPOLYLINE
  5
16FCF
330
747D
100
AcDbEntity
  8
部品1
100
AcDbPolyline
 90
        4
 70
     1
 43
0.0
 10
5677.937724009423
 20
1768.264454520759
 10
5677.937724009423
 20
1528.372132975226
 10
6441.408390237865
 20
1528.372132975226
 10
6441.408390237865
 20
1768.264454520759
  0
TEXT
  5
16FD0
330
747D
100
AcDbEntity
  8
部品1
100
AcDbText
 10
5768.46312774738
 20
1575.370925302236
 30
0.0
 40
135.0
  1
正面図
  7
STYLE2
100
AcDbText
  0
LINE
  5
16FD1
330
747D
100
AcDbEntity
  8
部品1
100
AcDbLine
 10
10999.56946577018
 20
2518.264454520759
 30
0.0
 11
10606.57225156133
 21
2418.264454520759
 31
0.0
  0
LINE
  5
16FD2
330
747D
100
AcDbEntity
  8
破線
 48
5.0
100
AcDbLine
 10
11054.56946577017
 20
2418.264454520759
 30
0.0
 11
11054.56946577017
 21
2168.264454520759
 31
0.0
  0
LINE
  5
16FD4
330
747D
100
AcDbEntity
  8
破線
 48
5.0
100
AcDbLine
 10
10999.56946577018
 20
2418.264454520759
 30
0.0
 11
10999.56946577018
 21
2168.264454520759
 31
0.0
  0
LINE
  5
16FD9
330
747D
100
AcDbEntity
  8
破線
 48
5.0
100
AcDbLine
 10
10999.56946577018
 20
2168.264454520759
 30
0.0
 11
11054.56946577017
 21
2168.264454520759
 31
0.0
  0
DIMENSION
  5
16FDA
330
747D
100
AcDbEntity
  8
寸法
100
AcDbDimension
  2
*D25
 10
13494.49662374231
 20
4838.264454520759
 30
0.0
 11
13394.48481271868
 21
3678.264454520761
 31
0.0
 70
    32
 71
     5
 42
2320.0
  3
INABA_S40G
100
AcDbAlignedDimension
 13
12789.56946577018
 23
2518.264454520759
 33
0.0
 14
12869.56946577018
 24
4838.264454520759
 34
0.0
 50
90.0
100
AcDbRotatedDimension
1001
ACAD
1000
DSTYLE
1002
{
1070
   174
1070
     0
1070
   272
1070
     1
1070
   288
1070
     0
1070
   341
1005
0
1002
}
  0
DIMENSION
  5
16FDB
330
747D
100
AcDbEntity
  8
寸法
100
AcDbDimension
  2
*D26
 10
10155.81933658691
 20
2568.264454520756
 30
0.0
 11
10055.80752556329
 21
3613.264454520758
 31
0.0
 70
    32
 71
     5
 42
2090.000000000001
  3
INABA_S40G
100
AcDbAlignedDimension
 13
10999.56946577018
 23
4658.264454520756
 33
0.0
 14
10999.56946577018
 24
2568.264454520756
 34
0.0
 50
90.0
100
AcDbRotatedDimension
1001
ACAD
1000
DSTYLE
1002
{
1070
   174
1070
     0
1070
   272
1070
     1
1070
   288
1070
     0
1070
   341
1005
0
1002
}
  0
DIMENSION
  5
16FDC
330
747D
100
AcDbEntity
  8
寸法
100
AcDbDimension
  2
*D27
 10
9855.819336586918
 20
4893.264454520761
 30
0.0
 11
9755.807525563295
 21
3705.76445452076
 31
0.0
 70
    32
 71
     5
 42
2375.000000000005
  3
INABA_S40G
100
AcDbAlignedDimension
 13
10999.56946577018
 23
2518.264454520756
 33
0.0
 14
10939.56946577018
 24
4893.26445452076
 34
0.0
 50
90.0
100
AcDbRotatedDimension
1001
ACAD
1000
DSTYLE
1002
{
1070
   174
1070
     0
1070
   272
1070
     1
1070
   288
1070
     0
1070
   341
1005
0
1002
}
  0
LINE
  5
16FDD
330
747D
100
AcDbEntity
  8
部品1
 48
50.0
100
AcDbLine
 10
11744.56946577018
 20
5024.132593622038
 30
0.0
 11
12044.56946577018
 21
5007.932593622039
 31
0.0
  0
DIMENSION
  5
16FDE
330
747D
100
AcDbEntity
  8
寸法
 48
50.0
100
AcDbDimension
  2
*D28
 10
10378.96105900182
 20
4767.609713394081
 30
0.0
 11
10389.62653426074
 21
5138.456376635785
 31
0.0
 70
   161
 71
     5
 42
141.0
  3
INABA_S40G
100
AcDbAlignedDimension
 13
10958.96548592875
 23
4891.987203355438
 33
0.0
 14
10954.91203037213
 24
4751.045479589726
 34
0.0
1001
ACAD
1000
DSTYLE
1002
{
1070
   174
1070
     0
1070
   272
1070
     1
1070
   288
1070
     0
1070
   341
1005
0
1002
}
  0
LINE
  5
16FDF
330
747D
100
AcDbEntity
  8
細線
 48
50.0
100
AcDbLine
 10
12657.06946577018
 20
4658.264454520758
 30
0.0
 11
12657.06946577018
 21
2568.264454520759
 31
0.0
  0
LINE
  5
16FE0
330
747D
100
AcDbEntity
  8
細線
 48
50.0
100
AcDbLine
 10
12672.06946577018
 20
4658.264454520758
 30
0.0
 11
12672.06946577018
 21
2568.264454520759
 31
0.0
  0
LINE
  5
16FE1
330
747D
100
AcDbEntity
  8
細線
 48
50.0
100
AcDbLine
 10
12532.06946577018
 20
4658.264454520758
 30
0.0
 11
12532.06946577018
 21
2568.264454520759
 31
0.0
  0
LINE
  5
16FE2
330
747D
100
AcDbEntity
  8
細線
 48
50.0
100
AcDbLine
 10
12517.06946577018
 20
4658.264454520758
 30
0.0
 11
12517.06946577018
 21
2568.264454520759
 31
0.0
  0
LINE
  5
16FE3
330
747D
100
AcDbEntity
  8
細線
 48
50.0
100
AcDbLine
 10
12377.06946577018
 20
4658.264454520758
 30
0.0
 11
12377.06946577018
 21
2568.264454520759
 31
0.0
  0
LINE
  5
16FE4
330
747D
100
AcDbEntity
  8
細線
 48
50.0
100
AcDbLine
 10
12392.06946577018
 20
4658.264454520758
 30
0.0
 11
12392.06946577018
 21
2568.264454520759
 31
0.0
  0
LINE
  5
16FE5
330
747D
100
AcDbEntity
  8
部品1
100
AcDbLine
 10
12314.56946577017
 20
4658.264454520758
 30
0.0
 11
12314.56946577017
 21
2568.264454520759
 31
0.0
  0
LINE
  5
16FE6
330
747D
100
AcDbEntity
  8
細線
 48
50.0
100
AcDbLine
 10
11972.06946577018
 20
4658.264454520758
 30
0.0
 11
11972.06946577018
 21
2568.264454520759
 31
0.0
  0
LINE
  5
16FE7
330
747D
100
AcDbEntity
  8
細線
 48
50.0
100
AcDbLine
 10
11957.06946577018
 20
4658.264454520758
 30
0.0
 11
11957.06946577018
 21
2568.264454520759
 31
0.0
  0
LINE
  5
16FE8
330
747D
100
AcDbEntity
  8
細線
 48
50.0
100
AcDbLine
 10
12097.06946577018
 20
4658.264454520758
 30
0.0
 11
12097.06946577018
 21
2568.264454520759
 31
0.0
  0
LINE
  5
16FE9
330
747D
100
AcDbEntity
  8
細線
 48
50.0
100
AcDbLine
 10
12112.06946577018
 20
4658.264454520758
 30
0.0
 11
12112.06946577018
 21
2568.264454520759
 31
0.0
  0
LINE
  5
16FEA
330
747D
100
AcDbEntity
  8
細線
 48
50.0
100
AcDbLine
 10
12252.06946577018
 20
4658.264454520758
 30
0.0
 11
12252.06946577018
 21
2568.264454520759
 31
0.0
  0
LINE
  5
16FEB
330
747D
100
AcDbEntity
  8
細線
 48
50.0
100
AcDbLine
 10
12237.06946577018
 20
4658.264454520758
 30
0.0
 11
12237.06946577018
 21
2568.264454520759
 31
0.0
  0
LINE
  5
16FEC
330
747D
100
AcDbEntity
  8
部品1
100
AcDbLine
 10
11894.56946577017
 20
4658.264454520758
 30
0.0
 11
11894.56946577017
 21
2568.264454520759
 31
0.0
  0
TEXT
  5
16FED
330
747D
100
AcDbEntity
  8
部品1
 48
50.0
100
AcDbText
 10
12221.66231305803
 20
4922.515357556189
 30
0.0
 40
120.0
  1
54
 50
90.0
  7
STYLE1
100
AcDbText
  0
TEXT
  5
16FEE
330
747D
100
AcDbEntity
  8
部品1
 48
50.0
100
AcDbText
 10
11732.8373009939
 20
5060.016615774472
 30
0.0
 40
120.0
  1
1000
  7
STYLE1
100
AcDbText
  0
LINE
  5
16FEF
330
747D
100
AcDbEntity
  8
部品1
 48
50.0
100
AcDbLine
 10
12044.56946577018
 20
5024.132593622038
 30
0.0
 11
12044.56946577018
 21
5007.932593622039
 31
0.0
  0
LINE
  5
16FF0
330
747D
100
AcDbEntity
  8
部品1
 48
50.0
100
AcDbLine
 10
11744.56946577018
 20
5024.132593622038
 30
0.0
 11
12044.56946577018
 21
5024.132593622038
 31
0.0
  0
DIMENSION
  5
16FF1
330
747D
100
AcDbEntity
  8
寸法
 48
50.0
100
AcDbDimension
  2
*D29
 10
12869.56946577018
 20
5292.357623860232
 30
0.0
 11
13075.61670986467
 21
5292.357623860232
 31
0.0
 70
   160
 71
     5
 42
80.0
  3
INABA_S40G
100
AcDbAlignedDimension
 13
12789.56946577018
 23
4840.075134132412
 33
0.0
 14
12869.56946577018
 24
4838.26445452076
 34
0.0
100
AcDbRotatedDimension
1001
ACAD
1000
DSTYLE
1002
{
1070
   174
1070
     0
1070
   272
1070
     1
1070
   288
1070
     0
1070
   341
1005
0
1002
}
  0
ARC
  5
16FF2
330
747D
100
AcDbEntity
  8
部品1
100
AcDbCircle
 10
12855.19700158411
 20
4732.288211786552
 30
0.0
 40
0.7
100
AcDbArc
 50
275.0921697642102
 51
354.186699766712
  0
ARC
  5
16FF3
330
747D
100
AcDbEntity
  8
部品1
100
AcDbCircle
 10
12866.05634733343
 20
4809.331466604476
 30
0.0
 40
0.7
100
AcDbArc
 50
275.0921697642102
 51
354.186699766558
  0
ARC
  5
16FF4
330
747D
100
AcDbEntity
  8
部品1
100
AcDbCircle
 10
12866.38475257604
 20
4805.646069747385
 30
0.0
 40
3.0
100
AcDbArc
 50
95.09216976441946
 51
174.186699766558
  0
ARC
  5
16FF5
330
747D
100
AcDbEntity
  8
部品1
100
AcDbCircle
 10
12855.52540682671
 20
4728.602814929462
 30
0.0
 40
3.0
100
AcDbArc
 50
95.0921697642102
 51
174.186699766558
  0
ARC
  5
16FF6
330
747D
100
AcDbEntity
  8
部品1
 48
50.0
100
AcDbCircle
 10
12844.4972715516
 20
4719.012070325578
 30
0.0
 40
7.0
100
AcDbArc
 50
267.8377559871574
 51
354.186699766558
  0
ARC
  5
16FF7
330
747D
100
AcDbEntity
  8
部品1
 48
50.0
100
AcDbCircle
 10
12861.81936801612
 20
4829.914617467752
 30
0.0
 40
7.0
100
AcDbArc
 50
354.186699766558
 51
87.03587545303969
  0
LINE
  5
16FF8
330
747D
100
AcDbEntity
  8
部品1
 48
50.0
100
AcDbLine
 10
12852.5408351561
 20
4728.906676646364
 30
0.0
 11
12851.46127211636
 21
4718.303059652804
 31
0.0
  0
LINE
  5
16FF9
330
747D
100
AcDbEntity
  8
部品1
 48
50.0
100
AcDbLine
 10
12863.40018090542
 20
4805.949931464289
 30
0.0
 11
12855.89340164059
 21
4732.217310719276
 31
0.0
  0
LINE
  5
16FFA
330
747D
100
AcDbEntity
  8
部品1
 48
50.0
100
AcDbLine
 10
12868.78336858088
 20
4829.205606794978
 30
0.0
 11
12866.75274738991
 21
4809.260565537197
 31
0.0
  0
ARC
  5
16FFB
330
747D
100
AcDbEntity
  8
部品1
100
AcDbCircle
 10
10945.60655764154
 20
4772.078613479662
 30
0.0
 40
0.7
100
AcDbArc
 50
181.0932240292114
 51
260.1877540314857
  0
ARC
  5
16FFC
330
747D
100
AcDbEntity
  8
部品1
100
AcDbCircle
 10
10940.83388404393
 20
4864.944391679783
 30
0.0
 40
0.7
100
AcDbArc
 50
181.0932240292114
 51
260.1877540314857
  0
ARC
  5
16FFD
330
747D
100
AcDbEntity
  8
部品1
100
AcDbCircle
 10
10940.20332964091
 20
4861.298517142384
 30
0.0
 40
3.0
100
AcDbArc
 50
1.093224029263536
 51
80.18775403148573
  0
ARC
  5
16FFE
330
747D
100
AcDbEntity
  8
部品1
100
AcDbCircle
 10
10944.97600323852
 20
4768.432738942265
 30
0.0
 40
3.0
100
AcDbArc
 50
1.093224029263536
 51
80.18775403148573
  0
ARC
  5
16FFF
330
747D
100
AcDbEntity
  8
部品1
 48
50.0
100
AcDbCircle
 10
10955.17613561372
 20
4758.040495559784
 30
0.0
 40
7.0
100
AcDbArc
 50
181.0932240292635
 51
267.8377559871574
  0
ARC
  5
17000
330
747D
100
AcDbEntity
  8
部品1
 48
50.0
100
AcDbCircle
 10
10946.75247751162
 20
4884.991555092878
 30
0.0
 40
7.0
100
AcDbArc
 50
87.03587545303969
 51
181.0932240292635
  0
LINE
  5
17001
330
747D
100
AcDbEntity
  8
部品1
 48
50.0
100
AcDbLine
 10
10947.97545716495
 20
4768.489976545448
 30
0.0
 11
10948.17740978538
 21
4757.906941152356
 31
0.0
  0
LINE
  5
17002
330
747D
100
AcDbEntity
  8
細線
 48
50.0
100
AcDbLine
 10
10945.36936410827
 20
4771.420024664258
 30
0.0
 11
12855.37302853891
 21
4731.610705689763
 31
0.0
  0
LINE
  5
17003
330
747D
100
AcDbEntity
  8
細線
 48
50.0
100
AcDbLine
 10
10940.60888887099
 20
4864.28153636212
 30
0.0
 11
12866.24487361616
 21
4808.657331721293
 31
0.0
  0
LINE
  5
17004
330
747D
100
AcDbEntity
  8
部品1
 48
50.0
100
AcDbLine
 10
10943.20278356734
 20
4861.355754745567
 30
0.0
 11
10944.90668505871
 21
4772.065258038921
 31
0.0
  0
LINE
  5
17005
330
747D
100
AcDbEntity
  8
部品1
 48
50.0
100
AcDbLine
 10
10939.75375168328
 20
4884.858000685452
 30
0.0
 11
10940.1340114611
 21
4864.931036239038
 31
0.0
  0
LINE
  5
17006
330
747D
100
AcDbEntity
  8
細線
 48
50.0
100
AcDbLine
 10
12836.56946577018
 20
4838.231433556055
 30
0.0
 11
12831.82178288218
 21
4712.485661065311
 31
0.0
  0
LINE
  5
17007
330
747D
100
AcDbEntity
  8
細線
 48
50.0
100
AcDbLine
 10
10972.56946577018
 20
4890.664130896162
 30
0.0
 11
10967.28036421467
 21
4750.578498268809
 31
0.0
  0
LINE
  5
17008
330
747D
100
AcDbEntity
  8
部品1
100
AcDbLine
 10
10954.91203037213
 20
4751.045479589726
 30
0.0
 11
12844.23316631002
 21
4712.017054355521
 31
0.0
  0
LINE
  5
17009
330
747D
100
AcDbEntity
  8
部品1
100
AcDbLine
 10
10947.11445212714
 20
4891.982189855025
 30
0.0
 11
12862.18134263164
 21
4836.905252229899
 31
0.0
  0
LINE
  5
1700A
330
747D
100
AcDbEntity
  8
細線
 48
50.0
100
AcDbLine
 10
11132.06946577017
 20
4658.264454520758
 30
0.0
 11
11132.06946577018
 21
2568.264454520759
 31
0.0
  0
LINE
  5
1700B
330
747D
100
AcDbEntity
  8
細線
 48
50.0
100
AcDbLine
 10
11117.06946577017
 20
4658.264454520758
 30
0.0
 11
11117.06946577017
 21
2568.264454520759
 31
0.0
  0
LINE
  5
1700C
330
747D
100
AcDbEntity
  8
細線
 48
50.0
100
AcDbLine
 10
11257.06946577017
 20
4658.264454520758
 30
0.0
 11
11257.06946577017
 21
2568.264454520759
 31
0.0
  0
LINE
  5
1700D
330
747D
100
AcDbEntity
  8
細線
 48
50.0
100
AcDbLine
 10
11272.06946577017
 20
4658.264454520758
 30
0.0
 11
11272.06946577018
 21
2568.264454520759
 31
0.0
  0
LINE
  5
1700E
330
747D
100
AcDbEntity
  8
細線
 48
50.0
100
AcDbLine
 10
11412.06946577017
 20
4658.264454520758
 30
0.0
 11
11412.06946577018
 21
2568.264454520759
 31
0.0
  0
LINE
  5
1700F
330
747D
100
AcDbEntity
  8
細線
 48
50.0
100
AcDbLine
 10
11397.06946577017
 20
4658.264454520758
 30
0.0
 11
11397.06946577017
 21
2568.264454520759
 31
0.0
  0
LINE
  5
17010
330
747D
100
AcDbEntity
  8
細線
 48
50.0
100
AcDbLine
 10
11817.06946577017
 20
4658.264454520758
 30
0.0
 11
11817.06946577018
 21
2568.264454520759
 31
0.0
  0
LINE
  5
17011
330
747D
100
AcDbEntity
  8
細線
 48
50.0
100
AcDbLine
 10
11832.06946577017
 20
4658.264454520758
 30
0.0
 11
11832.06946577018
 21
2568.264454520759
 31
0.0
  0
LINE
  5
17012
330
747D
100
AcDbEntity
  8
細線
 48
50.0
100
AcDbLine
 10
11692.06946577017
 20
4658.264454520758
 30
0.0
 11
11692.06946577018
 21
2568.264454520759
 31
0.0
  0
LINE
  5
17013
330
747D
100
AcDbEntity
  8
細線
 48
50.0
100
AcDbLine
 10
11677.06946577017
 20
4658.264454520758
 30
0.0
 11
11677.06946577018
 21
2568.264454520759
 31
0.0
  0
LINE
  5
17014
330
747D
100
AcDbEntity
  8
細線
 48
50.0
100
AcDbLine
 10
11537.06946577017
 20
4658.264454520758
 30
0.0
 11
11537.06946577017
 21
2568.264454520759
 31
0.0
  0
LINE
  5
17015
330
747D
100
AcDbEntity
  8
細線
 48
50.0
100
AcDbLine
 10
11552.06946577017
 20
4658.264454520758
 30
0.0
 11
11552.06946577018
 21
2568.264454520759
 31
0.0
  0
LWPOLYLINE
  5
17016
330
747D
100
AcDbEntity
  8
部品1
100
AcDbPolyline
 90
        4
 70
     1
 43
0.0
 10
11512.83413265596
 20
1768.264454520759
 10
11512.83413265596
 20
1528.372132975226
 10
12276.30479888439
 20
1528.372132975226
 10
12276.30479888439
 20
1768.264454520759
  0
TEXT
  5
17017
330
747D
100
AcDbEntity
  8
部品1
100
AcDbText
 10
11602.28023407956
 20
1575.370925302236
 30
0.0
 40
135.0
  1
側面図
  7
STYLE2
100
AcDbText
  0
LINE
  5
17018
330
747D
100
AcDbEntity
  8
部品1
100
AcDbLine
 10
11054.56946577017
 20
2518.264454520759
 30
0.0
 11
12789.56946577018
 21
2518.264454520759
 31
0.0
  0
DIMENSION
  5
17019
330
747D
100
AcDbEntity
  8
寸法
 48
50.0
100
AcDbDimension
  2
*D30
 10
10939.56946577018
 20
5508.883723478677
 30
0.0
 11
11904.56946577018
 21
5508.883723478677
 31
0.0
 70
   160
 71
     5
 42
1929.999999999998
  3
INABA_S40G
100
AcDbAlignedDimension
 13
12869.56946577018
 23
4838.26445452076
 33
0.0
 14
10939.56946577018
 24
4893.264454520763
 34
0.0
100
AcDbRotatedDimension
1001
ACAD
1000
DSTYLE
1002
{
1070
   174
1070
     0
1070
   272
1070
     1
1070
   288
1070
     0
1070
   341
1005
0
1002
}
  0
DIMENSION
  5
1701A
330
747D
100
AcDbEntity
  8
寸法
 48
50.0
100
AcDbDimension
  2
*D31
 10
10939.56946577018
 20
5292.357623860232
 30
0.0
 11
10629.93167049459
 21
5292.357623860232
 31
0.0
 70
   160
 71
     5
 42
60.0
  3
INABA_S40G
100
AcDbAlignedDimension
 13
10999.56946577018
 23
4889.266072643735
 33
0.0
 14
10939.56946577018
 24
4893.264454520763
 34
0.0
100
AcDbRotatedDimension
1001
ACAD
1000
DSTYLE
1002
{
1070
   174
1070
     0
1070
   272
1070
     1
1070
   288
1070
     0
1070
   341
1005
0
1002
}
  0
DIMENSION
  5
1701B
330
747D
100
AcDbEntity
  8
寸法
 48
50.0
100
AcDbDimension
  2
*D32
 10
10999.56946577018
 20
5292.357623860232
 30
0.0
 11
11894.56946577018
 21
5292.357623860232
 31
0.0
 70
   160
  1
柱外寸法<>
 71
     5
 42
1789.999999999998
  3
INABA_S40G
100
AcDbAlignedDimension
 13
12789.56946577018
 23
4840.075134132412
 33
0.0
 14
10999.56946577018
 24
4889.266072643735
 34
0.0
100
AcDbRotatedDimension
1001
ACAD
1000
DSTYLE
1002
{
1070
   174
1070
     0
1070
   272
1070
     1
1070
   288
1070
     0
1070
   341
1005
0
1002
}
  0
LINE
  5
1701C
330
747D
100
AcDbEntity
  8
部品1
100
AcDbLine
 10
12734.56946577018
 20
4658.264454520758
 30
0.0
 11
12734.56946577018
 21
2568.264454520759
 31
0.0
  0
LINE
  5
1701D
330
747D
100
AcDbEntity
  8
部品1
100
AcDbLine
 10
12789.56946577018
 20
4713.146263206765
 30
0.0
 11
12789.56946577018
 21
2418.264454520759
 31
0.0
  0
LINE
  5
1701E
330
747D
100
AcDbEntity
  8
部品1
100
AcDbLine
 10
11474.56946577017
 20
4658.264454520758
 30
0.0
 11
11474.56946577017
 21
2568.264454520759
 31
0.0
  0
DIMENSION
  5
1701F
330
747D
100
AcDbEntity
  8
寸法
100
AcDbDimension
  2
*D33
 10
10155.81933658691
 20
2518.264454520759
 30
0.0
 11
10155.81933658691
 21
2212.217210426268
 31
0.0
 70
   160
 71
     5
 42
50.0
  3
INABA_S40G
100
AcDbAlignedDimension
 13
10999.56946577018
 23
2568.264454520759
 33
0.0
 14
10944.56946577017
 24
2518.264454520759
 34
0.0
 50
90.0
100
AcDbRotatedDimension
1001
ACAD
1000
DSTYLE
1002
{
1070
   174
1070
     0
1070
   272
1070
     1
1070
   288
1070
     0
1070
   341
1005
0
1002
}
  0
LINE
  5
17021
330
747D
100
AcDbEntity
  8
部品1
100
AcDbLine
 10
10999.56946577018
 20
4750.122973963005
 30
0.0
 11
10999.56946577018
 21
2418.264454520759
 31
0.0
  0
LINE
  5
17022
330
747D
100
AcDbEntity
  8
部品1
100
AcDbLine
 10
11054.56946577017
 20
4658.264454520758
 30
0.0
 11
11054.56946577017
 21
2418.264454520759
 31
0.0
  0
LINE
  5
17023
330
747D
100
AcDbEntity
  8
部品1
100
AcDbLine
 10
11054.56946577017
 20
2568.264454520759
 30
0.0
 11
12789.56946577018
 21
2568.264454520759
 31
0.0
  0
LINE
  5
17024
330
747D
100
AcDbEntity
  8
部品1
100
AcDbLine
 10
10999.56946577018
 20
4658.264454520758
 30
0.0
 11
12789.56946577018
 21
4658.264454520758
 31
0.0
  0
TEXT
  5
17025
330
747D
100
AcDbEntity
  8
部品1
100
AcDbText
 10
5767.857333838474
 20
6250.689826462749
 30
0.0
 40
135.0
  1
平面図
  7
STYLE2
100
AcDbText
  0
LWPOLYLINE
  5
17026
330
747D
100
AcDbEntity
  8
部品1
100
AcDbPolyline
 90
        4
 70
     1
 43
0.0
 10
5677.937724009436
 20
6443.583355681273
 10
5677.937724009436
 20
6203.69103413574
 10
6441.408390237878
 20
6203.69103413574
 10
6441.408390237878
 20
6443.583355681273
  0
ARC
  5
170C8
330
747D
100
AcDbEntity
  8
細線
 48
50.0
100
AcDbCircle
 10
7074.673057123639
 20
3080.764454520759
 30
0.0
 40
15.0
100
AcDbArc
 50
90.0
 51
270.0
  0
ARC
  5
170C9
330
747D
100
AcDbEntity
  8
細線
 48
50.0
100
AcDbCircle
 10
7174.67305712364
 20
3080.764454520759
 30
0.0
 40
15.0
100
AcDbArc
 50
270.0
 51
90.0
  0
LINE
  5
170CA
330
747D
100
AcDbEntity
  8
細線
 48
50.0
100
AcDbLine
 10
7074.673057123639
 20
3095.764454520759
 30
0.0
 11
7174.67305712364
 21
3095.764454520759
 31
0.0
  0
LINE
  5
170CB
330
747D
100
AcDbEntity
  8
細線
 48
50.0
100
AcDbLine
 10
7174.67305712364
 20
3065.764454520758
 30
0.0
 11
7074.673057123639
 21
3065.764454520758
 31
0.0
  0
LINE
  5
170CC
330
747D
100
AcDbEntity
  8
細線
 48
50.0
100
AcDbLine
 10
7674.67305712364
 20
3065.764454520758
 30
0.0
 11
7574.673057123639
 21
3065.764454520758
 31
0.0
  0
LINE
  5
170CD
330
747D
100
AcDbEntity
  8
細線
 48
50.0
100
AcDbLine
 10
7574.673057123639
 20
3095.764454520759
 30
0.0
 11
7674.67305712364
 21
3095.764454520759
 31
0.0
  0
ARC
  5
170CE
330
747D
100
AcDbEntity
  8
細線
 48
50.0
100
AcDbCircle
 10
7574.673057123639
 20
3080.764454520759
 30
0.0
 40
15.0
100
AcDbArc
 50
90.0
 51
270.0
  0
ARC
  5
170CF
330
747D
100
AcDbEntity
  8
細線
 48
50.0
100
AcDbCircle
 10
7674.67305712364
 20
3080.764454520759
 30
0.0
 40
15.0
100
AcDbArc
 50
270.0
 51
90.0
  0
CIRCLE
  5
170D0
330
747D
100
AcDbEntity
  8
細線
 48
50.0
100
AcDbCircle
 10
7374.67305712364
 20
3405.764454520759
 30
0.0
 40
18.0
  0
LINE
  5
170D4
330
747D
100
AcDbEntity
  8
細線
100
AcDbLine
 10
8586.67305712364
 20
2528.264454520759
 30
0.0
 11
6162.673057123637
 21
2528.264454520759
 31
0.0
  0
LINE
  5
170D5
330
747D
100
AcDbEntity
  8
細線
100
AcDbLine
 10
6162.67305712364
 20
3048.264454520759
 30
0.0
 11
8586.67305712364
 21
3048.264454520759
 31
0.0
  0
LINE
  5
170D6
330
747D
100
AcDbEntity
  8
細線
100
AcDbLine
 10
6162.67305712364
 20
2983.264454520759
 30
0.0
 11
8586.67305712364
 21
2983.264454520759
 31
0.0
  0
LINE
  5
170D7
330
747D
100
AcDbEntity
  8
細線
100
AcDbLine
 10
6162.67305712364
 20
2918.264454520759
 30
0.0
 11
8586.67305712364
 21
2918.264454520759
 31
0.0
  0
LINE
  5
170D8
330
747D
100
AcDbEntity
  8
細線
100
AcDbLine
 10
6162.67305712364
 20
2853.264454520759
 30
0.0
 11
8586.67305712364
 21
2853.264454520759
 31
0.0
  0
LINE
  5
170D9
330
747D
100
AcDbEntity
  8
細線
100
AcDbLine
 10
6162.67305712364
 20
2788.264454520759
 30
0.0
 11
8586.67305712364
 21
2788.264454520759
 31
0.0
  0
LINE
  5
170DA
330
747D
100
AcDbEntity
  8
細線
100
AcDbLine
 10
6162.67305712364
 20
2723.264454520759
 30
0.0
 11
8586.67305712364
 21
2723.264454520759
 31
0.0
  0
LINE
  5
170DB
330
747D
100
AcDbEntity
  8
細線
100
AcDbLine
 10
6162.67305712364
 20
2658.264454520759
 30
0.0
 11
8586.67305712364
 21
2658.264454520759
 31
0.0
  0
LINE
  5
170DC
330
747D
100
AcDbEntity
  8
細線
100
AcDbLine
 10
6162.67305712364
 20
2593.264454520759
 30
0.0
 11
8586.67305712364
 21
2593.264454520759
 31
0.0
  0
LINE
  5
170DD
330
747D
100
AcDbEntity
  8
細線
100
AcDbLine
 10
6162.67305712364
 20
2528.264454520759
 30
0.0
 11
8586.67305712364
 21
2528.264454520759
 31
0.0
  0
LINE
  5
170DE
330
747D
100
AcDbEntity
  8
細線
100
AcDbLine
 10
6162.67305712364
 20
4348.264454520758
 30
0.0
 11
8586.67305712364
 21
4348.264454520758
 31
0.0
  0
LINE
  5
170DF
330
747D
100
AcDbEntity
  8
細線
100
AcDbLine
 10
6162.67305712364
 20
4478.264454520759
 30
0.0
 11
8586.67305712364
 21
4478.264454520759
 31
0.0
  0
LINE
  5
170E0
330
747D
100
AcDbEntity
  8
細線
100
AcDbLine
 10
6162.67305712364
 20
4413.264454520759
 30
0.0
 11
8586.67305712364
 21
4413.264454520759
 31
0.0
  0
LINE
  5
170E1
330
747D
100
AcDbEntity
  8
細線
100
AcDbLine
 10
6162.67305712364
 20
3698.264454520759
 30
0.0
 11
8586.67305712364
 21
3698.264454520759
 31
0.0
  0
LINE
  5
170E2
330
747D
100
AcDbEntity
  8
細線
100
AcDbLine
 10
6162.67305712364
 20
3633.264454520759
 30
0.0
 11
8586.67305712364
 21
3633.264454520759
 31
0.0
  0
LINE
  5
170E3
330
747D
100
AcDbEntity
  8
細線
100
AcDbLine
 10
6162.67305712364
 20
3568.264454520759
 30
0.0
 11
8586.67305712364
 21
3568.264454520759
 31
0.0
  0
LINE
  5
170E4
330
747D
100
AcDbEntity
  8
細線
100
AcDbLine
 10
6162.67305712364
 20
3503.264454520759
 30
0.0
 11
8586.67305712364
 21
3503.264454520759
 31
0.0
  0
LINE
  5
170E5
330
747D
100
AcDbEntity
  8
細線
100
AcDbLine
 10
6162.67305712364
 20
3438.264454520759
 30
0.0
 11
8586.67305712364
 21
3438.264454520759
 31
0.0
  0
LINE
  5
170E6
330
747D
100
AcDbEntity
  8
細線
100
AcDbLine
 10
6162.67305712364
 20
3373.264454520759
 30
0.0
 11
8586.67305712364
 21
3373.264454520759
 31
0.0
  0
LINE
  5
170E7
330
747D
100
AcDbEntity
  8
細線
100
AcDbLine
 10
6162.67305712364
 20
3308.264454520759
 30
0.0
 11
8586.67305712364
 21
3308.264454520759
 31
0.0
  0
LINE
  5
170E8
330
747D
100
AcDbEntity
  8
細線
100
AcDbLine
 10
6162.67305712364
 20
3243.264454520759
 30
0.0
 11
8586.67305712364
 21
3243.264454520759
 31
0.0
  0
LINE
  5
170E9
330
747D
100
AcDbEntity
  8
細線
100
AcDbLine
 10
6162.67305712364
 20
3178.264454520759
 30
0.0
 11
8586.67305712364
 21
3178.264454520759
 31
0.0
  0
LINE
  5
170EA
330
747D
100
AcDbEntity
  8
細線
100
AcDbLine
 10
6162.67305712364
 20
3113.264454520759
 30
0.0
 11
8586.67305712364
 21
3113.264454520759
 31
0.0
  0
LINE
  5
170EB
330
747D
100
AcDbEntity
  8
細線
100
AcDbLine
 10
6162.67305712364
 20
4088.264454520759
 30
0.0
 11
8586.67305712364
 21
4088.264454520759
 31
0.0
  0
LINE
  5
170EC
330
747D
100
AcDbEntity
  8
細線
100
AcDbLine
 10
6162.67305712364
 20
4023.264454520758
 30
0.0
 11
8586.67305712364
 21
4023.264454520758
 31
0.0
  0
LINE
  5
170ED
330
747D
100
AcDbEntity
  8
細線
100
AcDbLine
 10
6162.67305712364
 20
3958.264454520758
 30
0.0
 11
8586.67305712364
 21
3958.264454520758
 31
0.0
  0
LINE
  5
170EE
330
747D
100
AcDbEntity
  8
細線
100
AcDbLine
 10
6162.67305712364
 20
3893.264454520759
 30
0.0
 11
8586.67305712364
 21
3893.264454520759
 31
0.0
  0
LINE
  5
170EF
330
747D
100
AcDbEntity
  8
細線
100
AcDbLine
 10
6162.67305712364
 20
3828.264454520759
 30
0.0
 11
8586.67305712364
 21
3828.264454520759
 31
0.0
  0
LINE
  5
170F0
330
747D
100
AcDbEntity
  8
細線
100
AcDbLine
 10
6162.67305712364
 20
3763.264454520759
 30
0.0
 11
8586.67305712364
 21
3763.264454520759
 31
0.0
  0
LINE
  5
170F1
330
747D
100
AcDbEntity
  8
細線
100
AcDbLine
 10
6162.67305712364
 20
4283.264454520758
 30
0.0
 11
8586.67305712364
 21
4283.264454520758
 31
0.0
  0
LINE
  5
170F2
330
747D
100
AcDbEntity
  8
細線
100
AcDbLine
 10
6162.67305712364
 20
4218.264454520759
 30
0.0
 11
8586.67305712364
 21
4218.264454520759
 31
0.0
  0
LINE
  5
170F3
330
747D
100
AcDbEntity
  8
細線
100
AcDbLine
 10
6162.67305712364
 20
4153.264454520758
 30
0.0
 11
8586.67305712364
 21
4153.264454520758
 31
0.0
  0
LINE
  5
170F4
330
747D
100
AcDbEntity
  8
部品1
100
AcDbLine
 10
6114.67305712364
 20
4493.264454520758
 30
0.0
 11
8689.67305712364
 21
4493.264454520758
 31
0.0
  0
LINE
  5
170F5
330
747D
100
AcDbEntity
  8
部品1
100
AcDbLine
 10
8586.673057123645
 20
4493.264454520758
 30
0.0
 11
8586.67305712364
 21
2518.264454520759
 31
0.0
  0
LINE
  5
170F6
330
747D
100
AcDbEntity
  8
部品1
100
AcDbLine
 10
6162.67305712364
 20
4493.264454520758
 30
0.0
 11
6162.67305712364
 21
2518.264454520759
 31
0.0
  0
LINE
  5
170F8
330
747D
100
AcDbEntity
  8
部品1
100
AcDbLine
 10
8689.67305712364
 20
4752.264454520762
 30
0.0
 11
8689.67305712364
 21
2418.264454520759
 31
0.0
  0
LINE
  5
170F9
330
747D
100
AcDbEntity
  8
部品1
100
AcDbLine
 10
6114.67305712364
 20
4493.264454520758
 30
0.0
 11
6114.67305712364
 21
2518.264454520759
 31
0.0
  0
LINE
  5
170FA
330
747D
100
AcDbEntity
  8
部品1
100
AcDbLine
 10
8634.673057123642
 20
4493.264454520758
 30
0.0
 11
8634.67305712364
 21
2518.264454520759
 31
0.0
  0
LINE
  5
170FC
330
747D
100
AcDbEntity
  8
部品1
100
AcDbLine
 10
6059.673057123641
 20
4658.264454520758
 30
0.0
 11
8689.67305712364
 21
4658.264454520758
 31
0.0
  0
LINE
  5
170FD
330
747D
100
AcDbEntity
  8
部品1
100
AcDbLine
 10
6059.673057123641
 20
2518.264454520759
 30
0.0
 11
8689.67305712364
 21
2518.264454520759
 31
0.0
  0
LINE
  5
17102
330
747D
100
AcDbEntity
  8
Ｇ．Ｌ
100
AcDbLine
 10
2331.849158820067
 20
2418.264454520759
 30
0.0
 11
14105.79354554681
 21
2418.264454520759
 31
0.0
  0
LINE
  5
173FF
330
747D
100
AcDbEntity
  8
部品1
100
AcDbLine
 10
2440.903465777259
 20
2548.168265088423
 30
0.0
 11
2590.903465777259
 21
2548.168265088423
 31
0.0
  0
LINE
  5
17400
330
747D
100
AcDbEntity
  8
部品1
100
AcDbLine
 10
2515.903465777259
 20
2418.264454520759
 30
0.0
 11
2440.903465777259
 21
2548.168265088423
 31
0.0
  0
TEXT
  5
17401
330
747D
100
AcDbEntity
  8
部品1
100
AcDbText
 10
2619.008407902033
 20
2454.37135812666
 30
0.0
 40
125.0
  1
G.L
  7
STYLE2
100
AcDbText
  0
LINE
  5
17402
330
747D
100
AcDbEntity
  8
部品1
100
AcDbLine
 10
2590.903465777259
 20
2548.168265088423
 30
0.0
 11
2515.903465777259
 21
2418.264454520759
 31
0.0
  0
LINE
  5
17403
330
747D
100
AcDbEntity
  8
部品1
100
AcDbLine
 10
3429.673057123642
 20
2518.264454520759
 30
0.0
 11
6059.673057123642
 21
2518.264454520759
 31
0.0
  0
LINE
  5
17404
330
747D
100
AcDbEntity
  8
部品1
100
AcDbLine
 10
3429.673057123642
 20
4658.264454520758
 30
0.0
 11
6059.673057123642
 21
4658.264454520758
 31
0.0
  0
LINE
  5
17405
330
747D
100
AcDbEntity
  8
部品1
100
AcDbLine
 10
3429.673057123642
 20
4752.264454520762
 30
0.0
 11
3429.673057123642
 21
2418.264454520759
 31
0.0
  0
LINE
  5
17406
330
747D
100
AcDbEntity
  8
部品1
100
AcDbLine
 10
6004.673057123642
 20
4493.264454520758
 30
0.0
 11
6004.673057123643
 21
2518.264454520759
 31
0.0
  0
LINE
  5
17407
330
747D
100
AcDbEntity
  8
部品1
100
AcDbLine
 10
3484.673057123643
 20
4493.264454520758
 30
0.0
 11
3484.673057123642
 21
2518.264454520759
 31
0.0
  0
LINE
  5
17409
330
747D
100
AcDbEntity
  8
部品1
100
AcDbLine
 10
3532.673057123643
 20
4493.264454520758
 30
0.0
 11
3532.673057123643
 21
2518.264454520759
 31
0.0
  0
LINE
  5
1740A
330
747D
100
AcDbEntity
  8
部品1
100
AcDbLine
 10
5956.673057123646
 20
4493.264454520758
 30
0.0
 11
5956.673057123642
 21
2518.264454520759
 31
0.0
  0
LINE
  5
1740B
330
747D
100
AcDbEntity
  8
部品1
100
AcDbLine
 10
3429.673057123642
 20
4493.264454520758
 30
0.0
 11
6114.67305712364
 21
4493.264454520758
 31
0.0
  0
LINE
  5
1740C
330
747D
100
AcDbEntity
  8
細線
100
AcDbLine
 10
3532.673057123643
 20
4153.264454520758
 30
0.0
 11
5956.673057123642
 21
4153.264454520758
 31
0.0
  0
LINE
  5
1740D
330
747D
100
AcDbEntity
  8
細線
100
AcDbLine
 10
3532.673057123643
 20
4218.264454520759
 30
0.0
 11
5956.673057123642
 21
4218.264454520759
 31
0.0
  0
LINE
  5
1740E
330
747D
100
AcDbEntity
  8
細線
100
AcDbLine
 10
3532.673057123643
 20
4283.264454520758
 30
0.0
 11
5956.673057123642
 21
4283.264454520758
 31
0.0
  0
LINE
  5
1740F
330
747D
100
AcDbEntity
  8
細線
100
AcDbLine
 10
3532.673057123643
 20
3763.264454520759
 30
0.0
 11
5956.673057123642
 21
3763.264454520759
 31
0.0
  0
LINE
  5
17410
330
747D
100
AcDbEntity
  8
細線
100
AcDbLine
 10
3532.673057123643
 20
3828.264454520759
 30
0.0
 11
5956.673057123642
 21
3828.264454520759
 31
0.0
  0
LINE
  5
17411
330
747D
100
AcDbEntity
  8
細線
100
AcDbLine
 10
3532.673057123643
 20
3893.264454520759
 30
0.0
 11
5956.673057123642
 21
3893.264454520759
 31
0.0
  0
LINE
  5
17412
330
747D
100
AcDbEntity
  8
細線
100
AcDbLine
 10
3532.673057123643
 20
3958.264454520758
 30
0.0
 11
5956.673057123642
 21
3958.264454520758
 31
0.0
  0
LINE
  5
17413
330
747D
100
AcDbEntity
  8
細線
100
AcDbLine
 10
3532.673057123643
 20
4023.264454520758
 30
0.0
 11
5956.673057123642
 21
4023.264454520758
 31
0.0
  0
LINE
  5
17414
330
747D
100
AcDbEntity
  8
細線
100
AcDbLine
 10
3532.673057123643
 20
4088.264454520759
 30
0.0
 11
5956.673057123642
 21
4088.264454520759
 31
0.0
  0
LINE
  5
17415
330
747D
100
AcDbEntity
  8
細線
100
AcDbLine
 10
3532.673057123643
 20
3113.264454520759
 30
0.0
 11
5956.673057123642
 21
3113.264454520759
 31
0.0
  0
LINE
  5
17416
330
747D
100
AcDbEntity
  8
細線
100
AcDbLine
 10
3532.673057123643
 20
3178.264454520759
 30
0.0
 11
5956.673057123642
 21
3178.264454520759
 31
0.0
  0
LINE
  5
17417
330
747D
100
AcDbEntity
  8
細線
100
AcDbLine
 10
3532.673057123643
 20
3243.264454520759
 30
0.0
 11
5956.673057123642
 21
3243.264454520759
 31
0.0
  0
LINE
  5
17418
330
747D
100
AcDbEntity
  8
細線
100
AcDbLine
 10
3532.673057123643
 20
3308.264454520759
 30
0.0
 11
5956.673057123642
 21
3308.264454520759
 31
0.0
  0
LINE
  5
17419
330
747D
100
AcDbEntity
  8
細線
100
AcDbLine
 10
3532.673057123643
 20
3373.264454520759
 30
0.0
 11
5956.673057123642
 21
3373.264454520759
 31
0.0
  0
LINE
  5
1741A
330
747D
100
AcDbEntity
  8
細線
100
AcDbLine
 10
3532.673057123643
 20
3438.264454520759
 30
0.0
 11
5956.673057123642
 21
3438.264454520759
 31
0.0
  0
LINE
  5
1741B
330
747D
100
AcDbEntity
  8
細線
100
AcDbLine
 10
3532.673057123643
 20
3503.264454520759
 30
0.0
 11
5956.673057123642
 21
3503.264454520759
 31
0.0
  0
LINE
  5
1741C
330
747D
100
AcDbEntity
  8
細線
100
AcDbLine
 10
3532.673057123643
 20
3568.264454520759
 30
0.0
 11
5956.673057123642
 21
3568.264454520759
 31
0.0
  0
LINE
  5
1741D
330
747D
100
AcDbEntity
  8
細線
100
AcDbLine
 10
3532.673057123643
 20
3633.264454520759
 30
0.0
 11
5956.673057123642
 21
3633.264454520759
 31
0.0
  0
LINE
  5
1741E
330
747D
100
AcDbEntity
  8
細線
100
AcDbLine
 10
3532.673057123643
 20
3698.264454520759
 30
0.0
 11
5956.673057123642
 21
3698.264454520759
 31
0.0
  0
LINE
  5
1741F
330
747D
100
AcDbEntity
  8
細線
100
AcDbLine
 10
3532.673057123643
 20
4413.264454520759
 30
0.0
 11
5956.673057123642
 21
4413.264454520759
 31
0.0
  0
LINE
  5
17420
330
747D
100
AcDbEntity
  8
細線
100
AcDbLine
 10
3532.673057123643
 20
4478.264454520759
 30
0.0
 11
5956.673057123642
 21
4478.264454520759
 31
0.0
  0
LINE
  5
17421
330
747D
100
AcDbEntity
  8
細線
100
AcDbLine
 10
3532.673057123643
 20
4348.264454520758
 30
0.0
 11
5956.673057123642
 21
4348.264454520758
 31
0.0
  0
LINE
  5
17422
330
747D
100
AcDbEntity
  8
細線
100
AcDbLine
 10
3532.673057123643
 20
2528.264454520759
 30
0.0
 11
5956.673057123642
 21
2528.264454520759
 31
0.0
  0
LINE
  5
17423
330
747D
100
AcDbEntity
  8
細線
100
AcDbLine
 10
3532.673057123643
 20
2593.264454520759
 30
0.0
 11
5956.673057123642
 21
2593.264454520759
 31
0.0
  0
LINE
  5
17424
330
747D
100
AcDbEntity
  8
細線
100
AcDbLine
 10
3532.673057123643
 20
2658.264454520759
 30
0.0
 11
5956.673057123642
 21
2658.264454520759
 31
0.0
  0
LINE
  5
17425
330
747D
100
AcDbEntity
  8
細線
100
AcDbLine
 10
3532.673057123643
 20
2723.264454520759
 30
0.0
 11
5956.673057123642
 21
2723.264454520759
 31
0.0
  0
LINE
  5
17426
330
747D
100
AcDbEntity
  8
細線
100
AcDbLine
 10
3532.673057123643
 20
2788.264454520759
 30
0.0
 11
5956.673057123642
 21
2788.264454520759
 31
0.0
  0
LINE
  5
17427
330
747D
100
AcDbEntity
  8
細線
100
AcDbLine
 10
3532.673057123643
 20
2853.264454520759
 30
0.0
 11
5956.673057123642
 21
2853.264454520759
 31
0.0
  0
LINE
  5
17428
330
747D
100
AcDbEntity
  8
細線
100
AcDbLine
 10
3532.673057123643
 20
2918.264454520759
 30
0.0
 11
5956.673057123642
 21
2918.264454520759
 31
0.0
  0
LINE
  5
17429
330
747D
100
AcDbEntity
  8
細線
100
AcDbLine
 10
3532.673057123643
 20
2983.264454520759
 30
0.0
 11
5956.673057123642
 21
2983.264454520759
 31
0.0
  0
LINE
  5
1742A
330
747D
100
AcDbEntity
  8
細線
100
AcDbLine
 10
3532.673057123643
 20
3048.264454520759
 30
0.0
 11
5956.673057123642
 21
3048.264454520759
 31
0.0
  0
LINE
  5
1742B
330
747D
100
AcDbEntity
  8
細線
100
AcDbLine
 10
5956.673057123642
 20
2528.264454520759
 30
0.0
 11
3532.673057123639
 21
2528.264454520759
 31
0.0
  0
CIRCLE
  5
1742F
330
747D
100
AcDbEntity
  8
細線
 48
50.0
100
AcDbCircle
 10
4744.673057123642
 20
3405.764454520759
 30
0.0
 40
18.0
  0
ARC
  5
17430
330
747D
100
AcDbEntity
  8
細線
 48
50.0
100
AcDbCircle
 10
5044.673057123642
 20
3080.764454520759
 30
0.0
 40
15.0
100
AcDbArc
 50
270.0
 51
90.0
  0
ARC
  5
17431
330
747D
100
AcDbEntity
  8
細線
 48
50.0
100
AcDbCircle
 10
4944.673057123642
 20
3080.764454520759
 30
0.0
 40
15.0
100
AcDbArc
 50
90.0
 51
270.0
  0
LINE
  5
17432
330
747D
100
AcDbEntity
  8
細線
 48
50.0
100
AcDbLine
 10
4944.673057123642
 20
3095.764454520759
 30
0.0
 11
5044.673057123642
 21
3095.764454520759
 31
0.0
  0
LINE
  5
17433
330
747D
100
AcDbEntity
  8
細線
 48
50.0
100
AcDbLine
 10
5044.673057123642
 20
3065.764454520758
 30
0.0
 11
4944.673057123642
 21
3065.764454520758
 31
0.0
  0
LINE
  5
17434
330
747D
100
AcDbEntity
  8
細線
 48
50.0
100
AcDbLine
 10
4544.673057123642
 20
3065.764454520758
 30
0.0
 11
4444.673057123642
 21
3065.764454520758
 31
0.0
  0
LINE
  5
17435
330
747D
100
AcDbEntity
  8
細線
 48
50.0
100
AcDbLine
 10
4444.673057123642
 20
3095.764454520759
 30
0.0
 11
4544.673057123642
 21
3095.764454520759
 31
0.0
  0
ARC
  5
17436
330
747D
100
AcDbEntity
  8
細線
 48
50.0
100
AcDbCircle
 10
4544.673057123642
 20
3080.764454520759
 30
0.0
 40
15.0
100
AcDbArc
 50
270.0
 51
90.0
  0
ARC
  5
17437
330
747D
100
AcDbEntity
  8
細線
 48
50.0
100
AcDbCircle
 10
4444.673057123642
 20
3080.764454520759
 30
0.0
 40
15.0
100
AcDbArc
 50
90.0
 51
270.0
  0
DIMENSION
  5
1744F
330
747D
100
AcDbEntity
  8
寸法
 48
50.0
100
AcDbDimension
  2
*D34
 10
3379.673057123646
 20
5292.357623860232
 30
0.0
 11
3066.187775749399
 21
5292.357623860232
 31
0.0
 70
   160
 71
     5
 42
50.0
  3
INABA_S40G
100
AcDbAlignedDimension
 13
3429.673057123646
 23
4893.264454520765
 33
0.0
 14
3379.673057123646
 24
4893.264454520763
 34
0.0
100
AcDbRotatedDimension
1001
ACAD
1000
DSTYLE
1002
{
1002
}
  0
LINE
  5
17452
330
747D
100
AcDbEntity
  8
部品1
100
AcDbLine
 10
3380.092718138976
 20
4885.867929125521
 30
0.0
 11
3381.226115471326
 21
4865.891801142923
 31
0.0
  0
LINE
  5
17453
330
747D
100
AcDbEntity
  8
部品1
100
AcDbLine
 10
3392.663135792902
 20
4770.234393975864
 30
0.0
 11
3393.30804160001
 21
4758.867929125524
 31
0.0
  0
LINE
  5
17454
330
747D
100
AcDbEntity
  8
部品1
100
AcDbLine
 10
3384.427105268054
 20
4862.434393975866
 30
0.0
 11
3389.462145996166
 21
4773.691801142923
 31
0.0
  0
ARC
  5
17455
330
747D
100
AcDbEntity
  8
部品1
 48
50.0
100
AcDbCircle
 10
3381.431922371869
 20
4862.264454520762
 30
0.0
 40
3.0
100
AcDbArc
 50
3.247342790335242
 51
82.34187279263435
  0
ARC
  5
17456
330
747D
100
AcDbEntity
  8
部品1
 48
50.0
100
AcDbCircle
 10
3389.667952896713
 20
4770.064454520761
 30
0.0
 40
3.0
100
AcDbArc
 50
3.247342790335242
 51
82.3418727926362
  0
ARC
  5
17457
330
747D
100
AcDbEntity
  8
部品1
 48
50.0
100
AcDbCircle
 10
3390.161022005274
 20
4773.731453682445
 30
0.0
 40
0.7
100
AcDbArc
 50
183.2473427902832
 51
262.3418727926362
  0
ARC
  5
17458
330
747D
100
AcDbEntity
  8
部品1
 48
50.0
100
AcDbCircle
 10
3381.924991480433
 20
4865.931453682449
 30
0.0
 40
0.7
100
AcDbArc
 50
183.2473427903864
 51
262.3418727926362
  0
ARC
  5
17459
330
747D
100
AcDbEntity
  8
部品1
100
AcDbCircle
 10
3400.296801691109
 20
4759.264454520763
 30
0.0
 40
7.0
100
AcDbArc
 50
183.2473427903352
 51
270.0
  0
ARC
  5
1745A
330
747D
100
AcDbEntity
  8
部品1
100
AcDbCircle
 10
3387.081478230075
 20
4886.264454520762
 30
0.0
 40
7.0
100
AcDbArc
 50
90.0
 51
183.2473427903352
  0
LINE
  5
17463
330
747D
100
AcDbEntity
  8
細線
 48
50.0
100
AcDbLine
 10
3412.673057123646
 20
4893.264454520762
 30
0.0
 11
3412.673057123646
 21
4752.264454520762
 31
0.0
  0
LINE
  5
17466
330
747D
100
AcDbEntity
  8
細線
 48
50.0
100
AcDbLine
 10
6049.673057123642
 20
4773.037697084546
 30
0.0
 11
3390.067738660446
 21
4773.037697084549
 31
0.0
  0
LINE
  5
17467
330
747D
100
AcDbEntity
  8
細線
 48
50.0
100
AcDbLine
 10
6049.673057123642
 20
4865.23769708423
 30
0.0
 11
3381.831708135606
 21
4865.237697084551
 31
0.0
  0
LINE
  5
17468
330
747D
100
AcDbEntity
  8
部品1
 48
50.0
100
AcDbLine
 10
6059.673057123642
 20
4752.264454520762
 30
0.0
 11
3400.296801691109
 21
4752.264454520762
 31
0.0
  0
LINE
  5
17469
330
747D
100
AcDbEntity
  8
部品1
 48
50.0
100
AcDbLine
 10
6049.673057123642
 20
4893.264454520762
 30
0.0
 11
3387.081478230075
 21
4893.264454520762
 31
0.0
  0
ARC
  5
1746A
330
747D
100
AcDbEntity
  8
部品1
 48
0.01
100
AcDbCircle
 10
4217.673057123646
 20
4722.264454520758
 30
0.0
 40
2.0
100
AcDbArc
 50
0.0
 51
90.0
  0
ARC
  5
1746B
330
747D
100
AcDbEntity
  8
部品1
 48
0.01
100
AcDbCircle
 10
4041.673057123645
 20
4722.264454520758
 30
0.0
 40
2.0
100
AcDbArc
 50
90.0
 51
180.0
  0
LINE
  5
1746C
330
747D
100
AcDbEntity
  8
細線
100
AcDbLine
 10
4129.673057123642
 20
4694.764454520758
 30
0.0
 11
4203.673057123646
 21
4694.764454520758
 31
0.0
  0
LINE
  5
1746D
330
747D
100
AcDbEntity
  8
細線
100
AcDbLine
 10
4129.673057123645
 20
4717.764454520758
 30
0.0
 11
4055.673057123645
 21
4717.764454520758
 31
0.0
  0
LINE
  5
1746E
330
747D
100
AcDbEntity
  8
細線
100
AcDbLine
 10
4055.673057123645
 20
4694.764454520758
 30
0.0
 11
4129.673057123645
 21
4694.764454520758
 31
0.0
  0
LINE
  5
1746F
330
747D
100
AcDbEntity
  8
細線
100
AcDbLine
 10
4203.673057123646
 20
4717.764454520758
 30
0.0
 11
4129.673057123645
 21
4717.764454520758
 31
0.0
  0
LINE
  5
17470
330
747D
100
AcDbEntity
  8
細線
100
AcDbLine
 10
4203.673057123646
 20
4694.764454520758
 30
0.0
 11
4203.673057123646
 21
4717.764454520758
 31
0.0
  0
LINE
  5
17471
330
747D
100
AcDbEntity
  8
細線
100
AcDbLine
 10
4055.673057123645
 20
4717.764454520758
 30
0.0
 11
4055.673057123645
 21
4694.764454520758
 31
0.0
  0
LINE
  5
17472
330
747D
100
AcDbEntity
  8
部品1
 48
0.01
100
AcDbLine
 10
4219.673057123642
 20
4690.764454520759
 30
0.0
 11
4219.673057123645
 21
4722.264454520758
 31
0.0
  0
LINE
  5
17473
330
747D
100
AcDbEntity
  8
部品1
 48
0.01
100
AcDbLine
 10
4039.673057123645
 20
4722.264454520758
 30
0.0
 11
4039.673057123645
 21
4690.764454520759
 31
0.0
  0
LINE
  5
17474
330
747D
100
AcDbEntity
  8
部品1
 48
0.01
100
AcDbLine
 10
4217.673057123646
 20
4724.264454520759
 30
0.0
 11
4041.673057123645
 21
4724.264454520759
 31
0.0
  0
LINE
  5
17475
330
747D
100
AcDbEntity
  8
細線
100
AcDbLine
 10
4055.673057123645
 20
4711.764454520759
 30
0.0
 11
4129.673057123645
 21
4711.764454520759
 31
0.0
  0
LINE
  5
17476
330
747D
100
AcDbEntity
  8
細線
100
AcDbLine
 10
4055.673057123645
 20
4705.764454520759
 30
0.0
 11
4129.673057123645
 21
4705.764454520759
 31
0.0
  0
LINE
  5
17477
330
747D
100
AcDbEntity
  8
細線
100
AcDbLine
 10
4055.673057123642
 20
4699.764454520758
 30
0.0
 11
4129.673057123645
 21
4699.764454520758
 31
0.0
  0
LINE
  5
17478
330
747D
100
AcDbEntity
  8
細線
100
AcDbLine
 10
4055.673057123645
 20
4711.764454520759
 30
0.0
 11
4124.673057123646
 21
4711.764454520759
 31
0.0
  0
LINE
  5
17479
330
747D
100
AcDbEntity
  8
細線
100
AcDbLine
 10
4203.673057123642
 20
4711.764454520759
 30
0.0
 11
4129.673057123645
 21
4711.764454520759
 31
0.0
  0
LINE
  5
1747A
330
747D
100
AcDbEntity
  8
細線
100
AcDbLine
 10
4203.673057123642
 20
4699.764454520758
 30
0.0
 11
4129.673057123645
 21
4699.764454520758
 31
0.0
  0
LINE
  5
1747B
330
747D
100
AcDbEntity
  8
細線
100
AcDbLine
 10
4203.673057123642
 20
4705.764454520759
 30
0.0
 11
4129.673057123645
 21
4705.764454520759
 31
0.0
  0
LINE
  5
1747C
330
747D
100
AcDbEntity
  8
細線
100
AcDbLine
 10
4129.673057123645
 20
4717.764454520758
 30
0.0
 11
4129.673057123642
 21
4694.764454520758
 31
0.0
  0
LINE
  5
1747D
330
747D
100
AcDbEntity
  8
細線
100
AcDbLine
 10
5359.673057123646
 20
4717.764454520758
 30
0.0
 11
5359.673057123646
 21
4694.764454520758
 31
0.0
  0
LINE
  5
1747E
330
747D
100
AcDbEntity
  8
細線
100
AcDbLine
 10
5285.673057123646
 20
4705.764454520759
 30
0.0
 11
5359.673057123646
 21
4705.764454520759
 31
0.0
  0
LINE
  5
1747F
330
747D
100
AcDbEntity
  8
細線
100
AcDbLine
 10
5285.673057123646
 20
4699.764454520758
 30
0.0
 11
5359.673057123646
 21
4699.764454520758
 31
0.0
  0
LINE
  5
17480
330
747D
100
AcDbEntity
  8
細線
100
AcDbLine
 10
5285.673057123646
 20
4711.764454520759
 30
0.0
 11
5359.673057123646
 21
4711.764454520759
 31
0.0
  0
LINE
  5
17481
330
747D
100
AcDbEntity
  8
細線
100
AcDbLine
 10
5433.673057123646
 20
4711.764454520759
 30
0.0
 11
5364.673057123646
 21
4711.764454520759
 31
0.0
  0
LINE
  5
17482
330
747D
100
AcDbEntity
  8
細線
100
AcDbLine
 10
5433.673057123646
 20
4699.764454520758
 30
0.0
 11
5359.673057123646
 21
4699.764454520758
 31
0.0
  0
LINE
  5
17483
330
747D
100
AcDbEntity
  8
細線
100
AcDbLine
 10
5433.673057123646
 20
4705.764454520759
 30
0.0
 11
5359.673057123646
 21
4705.764454520759
 31
0.0
  0
LINE
  5
17484
330
747D
100
AcDbEntity
  8
細線
100
AcDbLine
 10
5433.673057123646
 20
4711.764454520759
 30
0.0
 11
5359.673057123646
 21
4711.764454520759
 31
0.0
  0
LINE
  5
17485
330
747D
100
AcDbEntity
  8
部品1
 48
0.01
100
AcDbLine
 10
5271.673057123646
 20
4724.264454520759
 30
0.0
 11
5447.673057123646
 21
4724.264454520759
 31
0.0
  0
LINE
  5
17486
330
747D
100
AcDbEntity
  8
部品1
 48
0.01
100
AcDbLine
 10
5449.673057123646
 20
4722.264454520758
 30
0.0
 11
5449.673057123646
 21
4690.764454520759
 31
0.0
  0
LINE
  5
17487
330
747D
100
AcDbEntity
  8
部品1
 48
0.01
100
AcDbLine
 10
5269.673057123646
 20
4690.764454520759
 30
0.0
 11
5269.673057123646
 21
4722.264454520758
 31
0.0
  0
LINE
  5
17488
330
747D
100
AcDbEntity
  8
細線
100
AcDbLine
 10
5433.673057123646
 20
4717.764454520758
 30
0.0
 11
5433.673057123646
 21
4694.764454520758
 31
0.0
  0
LINE
  5
17489
330
747D
100
AcDbEntity
  8
細線
100
AcDbLine
 10
5285.673057123646
 20
4694.764454520758
 30
0.0
 11
5285.673057123646
 21
4717.764454520758
 31
0.0
  0
LINE
  5
1748A
330
747D
100
AcDbEntity
  8
細線
100
AcDbLine
 10
5285.673057123646
 20
4717.764454520758
 30
0.0
 11
5359.673057123646
 21
4717.764454520758
 31
0.0
  0
LINE
  5
1748B
330
747D
100
AcDbEntity
  8
細線
100
AcDbLine
 10
5433.673057123646
 20
4694.764454520758
 30
0.0
 11
5359.673057123646
 21
4694.764454520758
 31
0.0
  0
LINE
  5
1748C
330
747D
100
AcDbEntity
  8
細線
100
AcDbLine
 10
5359.673057123646
 20
4717.764454520758
 30
0.0
 11
5433.673057123646
 21
4717.764454520758
 31
0.0
  0
LINE
  5
1748D
330
747D
100
AcDbEntity
  8
細線
100
AcDbLine
 10
5359.673057123646
 20
4694.764454520758
 30
0.0
 11
5285.673057123646
 21
4694.764454520758
 31
0.0
  0
ARC
  5
1748E
330
747D
100
AcDbEntity
  8
部品1
 48
0.01
100
AcDbCircle
 10
5447.673057123646
 20
4722.264454520758
 30
0.0
 40
2.0
100
AcDbArc
 50
0.0
 51
90.0
  0
ARC
  5
1748F
330
747D
100
AcDbEntity
  8
部品1
 48
0.01
100
AcDbCircle
 10
5271.673057123646
 20
4722.264454520758
 30
0.0
 40
2.0
100
AcDbArc
 50
90.0
 51
180.0
  0
ARC
  5
17490
330
747D
100
AcDbEntity
  8
部品1
 48
0.01
100
AcDbCircle
 10
4217.673057123642
 20
4690.764454520759
 30
0.0
 40
2.0
100
AcDbArc
 50
270.0
 51
0.0
  0
ARC
  5
17491
330
747D
100
AcDbEntity
  8
部品1
 48
0.01
100
AcDbCircle
 10
4041.673057123645
 20
4690.764454520759
 30
0.0
 40
2.0
100
AcDbArc
 50
180.0
 51
270.0
  0
LINE
  5
17492
330
747D
100
AcDbEntity
  8
部品1
 48
0.01
100
AcDbLine
 10
4041.673057123645
 20
4688.764454520758
 30
0.0
 11
4217.673057123642
 21
4688.764454520758
 31
0.0
  0
LINE
  5
17493
330
747D
100
AcDbEntity
  8
部品1
 48
0.01
100
AcDbLine
 10
5447.673057123646
 20
4688.764454520758
 30
0.0
 11
5271.673057123646
 21
4688.764454520758
 31
0.0
  0
ARC
  5
17494
330
747D
100
AcDbEntity
  8
部品1
 48
0.01
100
AcDbCircle
 10
5447.673057123646
 20
4690.764454520759
 30
0.0
 40
2.0
100
AcDbArc
 50
270.0
 51
0.0
  0
ARC
  5
17495
330
747D
100
AcDbEntity
  8
部品1
 48
0.01
100
AcDbCircle
 10
5271.673057123646
 20
4690.764454520759
 30
0.0
 40
2.0
100
AcDbArc
 50
180.0
 51
270.0
  0
LINE
  5
176F3
330
747D
100
AcDbEntity
  8
部品1
 48
50.0
100
AcDbLine
 10
6049.673057123642
 20
4752.264454520762
 30
0.0
 11
6049.673057123641
 21
4893.264454520763
 31
0.0
  0
LINE
  5
176F4
330
747D
100
AcDbEntity
  8
部品1
 48
50.0
100
AcDbLine
 10
6059.673057123641
 20
4493.264454520758
 30
0.0
 11
6059.673057123642
 21
4752.264454520762
 31
0.0
  0
TEXT
  5
1788B
330
747D
100
AcDbEntity
  8
文字
 62
     7
 48
50.0
100
AcDbText
 10
14499.88896070973
 20
483.8967129911414
 30
0.0
 40
160.0
  1
FXN-50HDL-2
  7
STYLE2
100
AcDbText
  0
LINE
  5
178A2
330
747D
100
AcDbEntity
  8
補助
  6
PHANTOM
 62
   230
 48
50.0
100
AcDbLine
 10
140.0
 20
0.0
 30
0.0
 11
139.9999999999995
 21
11409.6
 31
0.0
  0
DIMENSION
  5
17A03
330
747D
100
AcDbEntity
  8
寸法
 48
50.0
100
AcDbDimension
  2
*D35
 10
8977.216159445388
 20
4658.264454520758
 30
0.0
 11
8977.216159445386
 21
4896.749735894998
 31
0.0
 70
   160
 71
     5
 42
164.9999999999982
  3
INABA_S40G
100
AcDbAlignedDimension
 13
8689.67305712364
 23
4493.26445452076
 33
0.0
 14
8689.67305712364
 24
4658.264454520758
 34
0.0
 50
90.0
100
AcDbRotatedDimension
1001
ACAD
1000
DSTYLE
1002
{
1002
}
  0
DIMENSION
  5
17A04
330
747D
100
AcDbEntity
  8
寸法
 48
50.0
100
AcDbDimension
  2
*D36
 10
8977.216159445386
 20
4493.26445452076
 30
0.0
 11
9117.385982691752
 21
4494.231654360418
 31
0.0
 70
   160
 71
     5
 42
27.00000000000273
  3
INABA_S40G
100
AcDbAlignedDimension
 13
8689.67305712364
 23
4466.264454520757
 33
0.0
 14
8689.67305712364
 24
4493.26445452076
 34
0.0
 50
90.0
100
AcDbRotatedDimension
1001
ACAD
1000
DSTYLE
1002
{
1070
   279
1070
     2
1002
}
  0
DIMENSION
  5
17A05
330
747D
100
AcDbEntity
  8
寸法
 48
50.0
100
AcDbDimension
  2
*D37
 10
8977.216159445386
 20
4466.264454520757
 30
0.0
 11
8877.216159445385
 21
3492.26445452076
 31
0.0
 70
    32
  1
有効開口部高サ <>
 71
     5
 42
1947.999999999999
  3
INABA_S40G
100
AcDbAlignedDimension
 13
8689.67305712364
 23
2518.264454520759
 33
0.0
 14
8689.67305712364
 24
4466.264454520757
 34
0.0
 50
90.0
100
AcDbRotatedDimension
  0
ARC
  5
17B42
330
747D
100
AcDbEntity
  8
部品1
 48
0.01
100
AcDbCircle
 10
7901.673057123644
 20
4690.764454520759
 30
0.0
 40
2.0
100
AcDbArc
 50
180.0
 51
270.0
  0
ARC
  5
17B43
330
747D
100
AcDbEntity
  8
部品1
 48
0.01
100
AcDbCircle
 10
8077.673057123645
 20
4690.764454520759
 30
0.0
 40
2.0
100
AcDbArc
 50
270.0
 51
0.0
  0
LINE
  5
17B44
330
747D
100
AcDbEntity
  8
部品1
 48
0.01
100
AcDbLine
 10
8077.673057123645
 20
4688.764454520758
 30
0.0
 11
7901.673057123644
 21
4688.764454520758
 31
0.0
  0
LINE
  5
17B45
330
747D
100
AcDbEntity
  8
部品1
 48
0.01
100
AcDbLine
 10
6671.673057123644
 20
4688.764454520758
 30
0.0
 11
6847.67305712364
 21
4688.764454520758
 31
0.0
  0
ARC
  5
17B46
330
747D
100
AcDbEntity
  8
部品1
 48
0.01
100
AcDbCircle
 10
6671.673057123644
 20
4690.764454520759
 30
0.0
 40
2.0
100
AcDbArc
 50
180.0
 51
270.0
  0
ARC
  5
17B47
330
747D
100
AcDbEntity
  8
部品1
 48
0.01
100
AcDbCircle
 10
6847.67305712364
 20
4690.764454520759
 30
0.0
 40
2.0
100
AcDbArc
 50
270.0
 51
0.0
  0
ARC
  5
17B48
330
747D
100
AcDbEntity
  8
部品1
 48
0.01
100
AcDbCircle
 10
7901.673057123644
 20
4722.264454520758
 30
0.0
 40
2.0
100
AcDbArc
 50
90.0
 51
180.0
  0
ARC
  5
17B49
330
747D
100
AcDbEntity
  8
部品1
 48
0.01
100
AcDbCircle
 10
8077.673057123645
 20
4722.264454520758
 30
0.0
 40
2.0
100
AcDbArc
 50
0.0
 51
90.0
  0
LINE
  5
17B4A
330
747D
100
AcDbEntity
  8
細線
100
AcDbLine
 10
7989.673057123645
 20
4694.764454520758
 30
0.0
 11
7915.673057123644
 21
4694.764454520758
 31
0.0
  0
LINE
  5
17B4B
330
747D
100
AcDbEntity
  8
細線
100
AcDbLine
 10
7989.673057123645
 20
4717.764454520758
 30
0.0
 11
8063.673057123644
 21
4717.764454520758
 31
0.0
  0
LINE
  5
17B4C
330
747D
100
AcDbEntity
  8
細線
100
AcDbLine
 10
8063.673057123644
 20
4694.764454520758
 30
0.0
 11
7989.673057123645
 21
4694.764454520758
 31
0.0
  0
LINE
  5
17B4D
330
747D
100
AcDbEntity
  8
細線
100
AcDbLine
 10
7915.673057123644
 20
4717.764454520758
 30
0.0
 11
7989.673057123645
 21
4717.764454520758
 31
0.0
  0
LINE
  5
17B4E
330
747D
100
AcDbEntity
  8
細線
100
AcDbLine
 10
7915.673057123644
 20
4694.764454520758
 30
0.0
 11
7915.673057123644
 21
4717.764454520758
 31
0.0
  0
LINE
  5
17B4F
330
747D
100
AcDbEntity
  8
細線
100
AcDbLine
 10
8063.673057123644
 20
4717.764454520758
 30
0.0
 11
8063.673057123644
 21
4694.764454520758
 31
0.0
  0
LINE
  5
17B50
330
747D
100
AcDbEntity
  8
部品1
 48
0.01
100
AcDbLine
 10
7899.673057123644
 20
4690.764454520759
 30
0.0
 11
7899.673057123644
 21
4722.264454520758
 31
0.0
  0
LINE
  5
17B51
330
747D
100
AcDbEntity
  8
部品1
 48
0.01
100
AcDbLine
 10
8079.673057123644
 20
4722.264454520758
 30
0.0
 11
8079.673057123644
 21
4690.764454520759
 31
0.0
  0
LINE
  5
17B52
330
747D
100
AcDbEntity
  8
部品1
 48
0.01
100
AcDbLine
 10
7901.673057123644
 20
4724.264454520759
 30
0.0
 11
8077.673057123645
 21
4724.264454520759
 31
0.0
  0
LINE
  5
17B53
330
747D
100
AcDbEntity
  8
細線
100
AcDbLine
 10
8063.673057123644
 20
4711.764454520759
 30
0.0
 11
7989.673057123645
 21
4711.764454520759
 31
0.0
  0
LINE
  5
17B54
330
747D
100
AcDbEntity
  8
細線
100
AcDbLine
 10
8063.673057123644
 20
4705.764454520759
 30
0.0
 11
7989.673057123645
 21
4705.764454520759
 31
0.0
  0
LINE
  5
17B55
330
747D
100
AcDbEntity
  8
細線
100
AcDbLine
 10
8063.673057123644
 20
4699.764454520758
 30
0.0
 11
7989.673057123645
 21
4699.764454520758
 31
0.0
  0
LINE
  5
17B56
330
747D
100
AcDbEntity
  8
細線
100
AcDbLine
 10
8063.673057123644
 20
4711.764454520759
 30
0.0
 11
7994.673057123645
 21
4711.764454520759
 31
0.0
  0
LINE
  5
17B57
330
747D
100
AcDbEntity
  8
細線
100
AcDbLine
 10
7915.673057123644
 20
4711.764454520759
 30
0.0
 11
7989.673057123645
 21
4711.764454520759
 31
0.0
  0
LINE
  5
17B58
330
747D
100
AcDbEntity
  8
細線
100
AcDbLine
 10
7915.673057123644
 20
4699.764454520758
 30
0.0
 11
7989.673057123645
 21
4699.764454520758
 31
0.0
  0
LINE
  5
17B59
330
747D
100
AcDbEntity
  8
細線
100
AcDbLine
 10
7915.673057123644
 20
4705.764454520759
 30
0.0
 11
7989.673057123645
 21
4705.764454520759
 31
0.0
  0
LINE
  5
17B5A
330
747D
100
AcDbEntity
  8
細線
100
AcDbLine
 10
7989.673057123645
 20
4717.764454520758
 30
0.0
 11
7989.673057123645
 21
4694.764454520758
 31
0.0
  0
LINE
  5
17B5B
330
747D
100
AcDbEntity
  8
細線
100
AcDbLine
 10
6759.673057123643
 20
4717.764454520758
 30
0.0
 11
6759.673057123641
 21
4694.764454520758
 31
0.0
  0
LINE
  5
17B5C
330
747D
100
AcDbEntity
  8
細線
100
AcDbLine
 10
6833.67305712364
 20
4705.764454520759
 30
0.0
 11
6759.673057123643
 21
4705.764454520759
 31
0.0
  0
LINE
  5
17B5D
330
747D
100
AcDbEntity
  8
細線
100
AcDbLine
 10
6833.67305712364
 20
4699.764454520758
 30
0.0
 11
6759.673057123643
 21
4699.764454520758
 31
0.0
  0
LINE
  5
17B5E
330
747D
100
AcDbEntity
  8
細線
100
AcDbLine
 10
6833.67305712364
 20
4711.764454520759
 30
0.0
 11
6759.673057123643
 21
4711.764454520759
 31
0.0
  0
LINE
  5
17B5F
330
747D
100
AcDbEntity
  8
細線
100
AcDbLine
 10
6685.673057123644
 20
4711.764454520759
 30
0.0
 11
6754.673057123643
 21
4711.764454520759
 31
0.0
  0
LINE
  5
17B60
330
747D
100
AcDbEntity
  8
細線
100
AcDbLine
 10
6685.67305712364
 20
4699.764454520758
 30
0.0
 11
6759.673057123643
 21
4699.764454520758
 31
0.0
  0
LINE
  5
17B61
330
747D
100
AcDbEntity
  8
細線
100
AcDbLine
 10
6685.673057123644
 20
4705.764454520759
 30
0.0
 11
6759.673057123643
 21
4705.764454520759
 31
0.0
  0
LINE
  5
17B62
330
747D
100
AcDbEntity
  8
細線
100
AcDbLine
 10
6685.673057123644
 20
4711.764454520759
 30
0.0
 11
6759.673057123643
 21
4711.764454520759
 31
0.0
  0
LINE
  5
17B63
330
747D
100
AcDbEntity
  8
部品1
 48
0.01
100
AcDbLine
 10
6847.673057123644
 20
4724.264454520759
 30
0.0
 11
6671.673057123644
 21
4724.264454520759
 31
0.0
  0
LINE
  5
17B64
330
747D
100
AcDbEntity
  8
部品1
 48
0.01
100
AcDbLine
 10
6669.673057123644
 20
4722.264454520758
 30
0.0
 11
6669.673057123644
 21
4690.764454520759
 31
0.0
  0
LINE
  5
17B65
330
747D
100
AcDbEntity
  8
部品1
 48
0.01
100
AcDbLine
 10
6849.67305712364
 20
4690.764454520759
 30
0.0
 11
6849.673057123644
 21
4722.264454520758
 31
0.0
  0
LINE
  5
17B66
330
747D
100
AcDbEntity
  8
細線
100
AcDbLine
 10
6685.673057123644
 20
4717.764454520758
 30
0.0
 11
6685.673057123644
 21
4694.764454520758
 31
0.0
  0
LINE
  5
17B67
330
747D
100
AcDbEntity
  8
細線
100
AcDbLine
 10
6833.673057123644
 20
4694.764454520758
 30
0.0
 11
6833.673057123644
 21
4717.764454520758
 31
0.0
  0
LINE
  5
17B68
330
747D
100
AcDbEntity
  8
細線
100
AcDbLine
 10
6833.673057123644
 20
4717.764454520758
 30
0.0
 11
6759.673057123643
 21
4717.764454520758
 31
0.0
  0
LINE
  5
17B69
330
747D
100
AcDbEntity
  8
細線
100
AcDbLine
 10
6685.673057123644
 20
4694.764454520758
 30
0.0
 11
6759.673057123643
 21
4694.764454520758
 31
0.0
  0
LINE
  5
17B6A
330
747D
100
AcDbEntity
  8
細線
100
AcDbLine
 10
6759.673057123643
 20
4717.764454520758
 30
0.0
 11
6685.673057123644
 21
4717.764454520758
 31
0.0
  0
LINE
  5
17B6B
330
747D
100
AcDbEntity
  8
細線
100
AcDbLine
 10
6759.673057123641
 20
4694.764454520758
 30
0.0
 11
6833.673057123644
 21
4694.764454520758
 31
0.0
  0
ARC
  5
17B6C
330
747D
100
AcDbEntity
  8
部品1
 48
0.01
100
AcDbCircle
 10
6671.673057123644
 20
4722.264454520758
 30
0.0
 40
2.0
100
AcDbArc
 50
90.0
 51
180.0
  0
ARC
  5
17B6D
330
747D
100
AcDbEntity
  8
部品1
 48
0.01
100
AcDbCircle
 10
6847.673057123644
 20
4722.264454520758
 30
0.0
 40
2.0
100
AcDbArc
 50
0.0
 51
90.0
  0
TEXT
  5
17B83
330
747D
100
AcDbEntity
  8
文字
 62
     7
 48
50.0
100
AcDbText
 10
15022.63965474517
 20
9740.013745883729
 30
0.0
 40
100.0
  1
F12            2.3
  7
STYLE1
100
AcDbText
  0
DIMENSION
  5
17BF0
330
747D
100
AcDbEntity
  8
寸法
 48
50.0
100
AcDbDimension
  2
*D38
 10
6396.514416506256
 20
9385.038118845221
 30
0.0
 11
6296.514416506255
 21
9026.788118845146
 31
0.0
 70
    32
 71
     5
 42
716.5000000001546
  3
INABA_S40G
100
AcDbAlignedDimension
 13
6139.673056245428
 23
8668.538118845066
 33
0.0
 14
6114.673056245654
 24
9385.038118845221
 34
0.0
 50
90.0
100
AcDbRotatedDimension
1001
ACAD
1000
DSTYLE
1002
{
1070
   279
1070
     2
1070
   341
1005
0
1002
}
  0
LINE
  5
17D2B
330
747D
100
AcDbEntity
  8
部品1
100
AcDbLine
 10
5979.673056245438
 20
9305.038117967102
 30
0.0
 11
3509.673057123634
 21
9305.038117967106
 31
0.0
  0
LINE
  5
17D2C
330
747D
100
AcDbEntity
  8
部品1
100
AcDbLine
 10
6004.673056245446
 20
9330.038117967177
 30
0.0
 11
3484.673057123635
 21
9330.038117967177
 31
0.0
  0
LINE
  5
17D77
330
747D
100
AcDbEntity
  8
部品1
 48
10.0
100
AcDbLine
 10
6139.673054001576
 20
8668.538118845066
 30
0.0
 11
6139.673054001566
 21
9330.038118845102
 31
0.0
  0
LINE
  5
17D78
330
747D
100
AcDbEntity
  8
部品1
100
AcDbLine
 10
6114.673054001598
 20
8668.538118845059
 30
0.0
 11
6114.673054001591
 21
9330.038118845081
 31
0.0
  0
LINE
  5
17D79
330
747D
100
AcDbEntity
  8
部品1
100
AcDbLine
 10
6087.673054001577
 20
8668.538118845059
 30
0.0
 11
6087.673054001584
 21
9385.038118845132
 31
0.0
  0
LINE
  5
17D7A
330
747D
100
AcDbEntity
  8
部品1
 48
50.0
100
AcDbLine
 10
6084.673054001565
 20
8669.538115268045
 30
0.0
 11
6084.673054001565
 21
9330.038115268045
 31
0.0
  0
LINE
  5
17D7B
330
747D
100
AcDbEntity
  8
部品1
 48
50.0
100
AcDbLine
 10
5979.673054001587
 20
8668.538118845059
 30
0.0
 11
6139.673054001576
 21
8668.538118845066
 31
0.0
  0
LINE
  5
17D7C
330
747D
100
AcDbEntity
  8
部品1
 48
50.0
100
AcDbLine
 10
6034.673054001565
 20
8669.538115268045
 30
0.0
 11
6084.673054001565
 21
8669.538115268045
 31
0.0
  0
LINE
  5
17D7D
330
747D
100
AcDbEntity
  8
部品1
100
AcDbLine
 10
6034.673054001565
 20
8751.538115268045
 30
0.0
 11
6084.673054001563
 21
8764.249979674824
 31
0.0
  0
LINE
  5
17D7E
330
747D
100
AcDbEntity
  8
部品1
100
AcDbLine
 10
6084.673054001565
 20
8906.362131831192
 30
0.0
 11
6034.673054001563
 21
8911.538115268045
 31
0.0
  0
LINE
  5
17D7F
330
747D
100
AcDbEntity
  8
部品1
100
AcDbLine
 10
6084.673054001565
 20
8946.7140987049
 30
0.0
 11
6034.673054001563
 21
8941.538115268045
 31
0.0
  0
LINE
  5
17D80
330
747D
100
AcDbEntity
  8
部品1
 48
50.0
100
AcDbLine
 10
6114.673054001591
 20
9330.038118845168
 30
0.0
 11
6087.673054001584
 21
9357.038118845176
 31
0.0
  0
LINE
  5
17D81
330
747D
100
AcDbEntity
  8
部品1
 48
50.0
100
AcDbLine
 10
6034.673054001565
 20
9330.038115268045
 30
0.0
 11
6034.673054001565
 21
8669.538115268045
 31
0.0
  0
LINE
  5
17D82
330
747D
100
AcDbEntity
  8
部品1
 48
50.0
100
AcDbLine
 10
6087.673054001768
 20
9330.038118845296
 30
0.0
 11
6031.673054001768
 21
9330.038118845294
 31
0.0
  0
LINE
  5
17D83
330
747D
100
AcDbEntity
  8
部品1
100
AcDbLine
 10
6031.673054001579
 20
9357.038118845183
 30
0.0
 11
6031.673054001576
 21
8668.538118845059
 31
0.0
  0
LINE
  5
17D84
330
747D
100
AcDbEntity
  8
部品1
 48
50.0
100
AcDbLine
 10
6031.673054001768
 20
9330.038118845237
 30
0.0
 11
6031.673054001768
 21
9357.038118845263
 31
0.0
  0
LINE
  5
17D85
330
747D
100
AcDbEntity
  8
部品1
 48
10.0
100
AcDbLine
 10
5979.673054001587
 20
8668.538118845059
 30
0.0
 11
5979.673054001583
 21
9330.038118845088
 31
0.0
  0
LINE
  5
17D86
330
747D
100
AcDbEntity
  8
部品1
100
AcDbLine
 10
6004.673054001594
 20
8668.538118845059
 30
0.0
 11
6004.673054001591
 21
9330.038118845088
 31
0.0
  0
LINE
  5
17D87
330
747D
100
AcDbEntity
  8
部品1
 48
50.0
100
AcDbLine
 10
6004.673054001591
 20
9330.038118845088
 30
0.0
 11
6031.673054001768
 21
9357.038118845263
 31
0.0
  0
LINE
  5
17D88
330
747D
100
AcDbEntity
  8
部品1
 48
50.0
100
AcDbLine
 10
6031.673054001768
 20
9357.038118845368
 30
0.0
 11
6031.673054001765
 21
9385.038118845317
 31
0.0
  0
LINE
  5
17D89
330
747D
100
AcDbEntity
  8
部品1
 48
50.0
100
AcDbLine
 10
6031.673054001768
 20
9357.038118845263
 30
0.0
 11
6059.673054001765
 21
9357.038118845265
 31
0.0
  0
LINE
  5
17D8A
330
747D
100
AcDbEntity
  8
部品1
 48
50.0
100
AcDbLine
 10
6059.673054001765
 20
9357.038118845263
 30
0.0
 11
6031.673054001768
 21
9385.038118845317
 31
0.0
  0
LINE
  5
17D8B
330
747D
100
AcDbEntity
  8
部品1
 48
50.0
100
AcDbLine
 10
6087.673054001768
 20
9330.038118845237
 30
0.0
 11
6087.673054001834
 21
9385.038118845269
 31
0.0
  0
LINE
  5
17D8C
330
747D
100
AcDbEntity
  8
部品1
100
AcDbLine
 10
6114.673054001798
 20
9385.038118845221
 30
0.0
 11
6114.673054001798
 21
9357.038118845222
 31
0.0
  0
LINE
  5
17D8D
330
747D
100
AcDbEntity
  8
部品1
 48
50.0
100
AcDbLine
 10
6114.673051757947
 20
9385.038115268045
 30
0.0
 11
6004.673054001802
 21
9385.038118845315
 31
0.0
  0
LINE
  5
17D8E
330
747D
100
AcDbEntity
  8
部品1
100
AcDbLine
 10
6004.673054001802
 20
9385.038118845315
 30
0.0
 11
6004.673054001802
 21
9357.038118845315
 31
0.0
  0
LINE
  5
17DA4
330
747D
100
AcDbEntity
  8
仕様書枠
 48
50.0
100
AcDbLine
 10
16307.19999999999
 20
9199.600000000001
 30
0.0
 11
13127.19999999999
 21
9199.600000000001
 31
0.0
  0
TEXT
  5
17DA5
330
747D
100
AcDbEntity
  8
文字
 62
     7
 48
50.0
100
AcDbText
 10
13583.11819016569
 20
9230.013745883731
 30
0.0
 40
100.0
  1
梁中補強パネル
  7
STYLE1
100
AcDbText
  0
TEXT
  5
17DA6
330
747D
100
AcDbEntity
  8
文字
 62
     7
 48
50.0
100
AcDbText
 10
15022.63965474516
 20
9230.013745883727
 30
0.0
 40
100.0
  1
F12         0.7+1.2
  7
STYLE1
100
AcDbText
  0
TEXT
  5
17DA7
330
747D
100
AcDbEntity
  8
文字
 62
     7
 48
50.0
100
AcDbText
 10
13248.77747366447
 20
8720.013745883731
 30
0.0
 40
100.0
  1
14
  7
STYLE1
100
AcDbText
  0
TEXT
  5
17DD3
330
747D
100
AcDbEntity
  8
文字
 62
     7
 48
50.0
100
AcDbText
 10
14646.46056207479
 20
871.9640646083623
 30
0.0
 40
100.0
  1
～多雪地型～
  7
STYLE2
100
AcDbText
  0
LINE
  5
17DFC
330
747D
100
AcDbEntity
  8
破線
 48
5.0
100
AcDbLine
 10
6009.673057123643
 20
2168.264454520759
 30
0.0
 11
6109.673057123643
 21
2168.264454520759
 31
0.0
  0
LINE
  5
17DFD
330
747D
100
AcDbEntity
  8
破線
 48
5.0
100
AcDbLine
 10
6059.673057123643
 20
2243.264454520759
 30
0.0
 11
6059.673057123643
 21
2168.264454520759
 31
0.0
  0
LINE
  5
17DFE
330
747D
100
AcDbEntity
  8
破線
 48
5.0
100
AcDbLine
 10
5956.673057123642
 20
2518.264454520759
 30
0.0
 11
5956.673057123644
 21
2268.264454520759
 31
0.0
  0
LINE
  5
17DFF
330
747D
100
AcDbEntity
  8
破線
 48
5.0
100
AcDbLine
 10
6004.673057123646
 20
2268.264454520759
 30
0.0
 11
5956.673057123644
 21
2268.264454520759
 31
0.0
  0
LINE
  5
17E00
330
747D
100
AcDbEntity
  8
破線
 48
5.0
100
AcDbLine
 10
6004.673057123643
 20
2518.264454520759
 30
0.0
 11
6004.673057123645
 21
2243.264454520759
 31
0.0
  0
LINE
  5
17E01
330
747D
100
AcDbEntity
  8
破線
 48
5.0
100
AcDbLine
 10
6114.673057123642
 20
2243.264454520759
 30
0.0
 11
6004.673057123643
 21
2243.264454520759
 31
0.0
  0
LINE
  5
17E02
330
747D
100
AcDbEntity
  8
破線
 48
5.0
100
AcDbLine
 10
6162.673057123644
 20
2518.264454520759
 30
0.0
 11
6162.673057123641
 21
2268.264454520764
 31
0.0
  0
LINE
  5
17E03
330
747D
100
AcDbEntity
  8
破線
 48
5.0
100
AcDbLine
 10
6162.673057123642
 20
2268.264454520764
 30
0.0
 11
6114.673057123642
 21
2268.264454520764
 31
0.0
  0
LINE
  5
17E04
330
747D
100
AcDbEntity
  8
破線
 48
5.0
100
AcDbLine
 10
6114.673057123644
 20
2518.264454520759
 30
0.0
 11
6114.673057123643
 21
2243.264454520759
 31
0.0
  0
LINE
  5
17E1A
330
747D
100
AcDbEntity
  8
破線
 48
5.0
100
AcDbLine
 10
3532.673057123643
 20
2518.264454520759
 30
0.0
 11
3532.673057123643
 21
2268.264454520764
 31
0.0
  0
LINE
  5
17E1B
330
747D
100
AcDbEntity
  8
破線
 48
5.0
100
AcDbLine
 10
3532.673057123643
 20
2518.264454520759
 30
0.0
 11
3532.673057123643
 21
2268.264454520764
 31
0.0
  0
LINE
  5
17E1C
330
747D
100
AcDbEntity
  8
破線
 48
5.0
100
AcDbLine
 10
3532.673057123643
 20
2268.264454520764
 30
0.0
 11
3484.673057123642
 21
2268.264454520764
 31
0.0
  0
LINE
  5
17E1D
330
747D
100
AcDbEntity
  8
破線
 48
5.0
100
AcDbLine
 10
3532.673057123643
 20
2268.264454520764
 30
0.0
 11
3484.673057123642
 21
2268.264454520764
 31
0.0
  0
LINE
  5
17E1E
330
747D
100
AcDbEntity
  8
破線
 48
5.0
100
AcDbLine
 10
3484.673057123642
 20
2168.264454520766
 30
0.0
 11
3429.673057123642
 21
2168.264454520766
 31
0.0
  0
LINE
  5
17E1F
330
747D
100
AcDbEntity
  8
破線
 48
5.0
100
AcDbLine
 10
3429.673057123642
 20
2418.264454520759
 30
0.0
 11
3429.673057123642
 21
2168.264454520759
 31
0.0
  0
LINE
  5
17E20
330
747D
100
AcDbEntity
  8
破線
 48
5.0
100
AcDbLine
 10
3484.673057123642
 20
2518.264454520759
 30
0.0
 11
3484.673057123642
 21
2168.264454520759
 31
0.0
  0
LINE
  5
17E21
330
747D
100
AcDbEntity
  8
破線
 48
5.0
100
AcDbLine
 10
3484.673057123642
 20
2518.264454520759
 30
0.0
 11
3484.673057123642
 21
2168.264454520759
 31
0.0
  0
LINE
  5
17E34
330
747D
100
AcDbEntity
  8
破線
 48
5.0
100
AcDbLine
 10
8634.67305712364
 20
2518.264454520759
 30
0.0
 11
8634.67305712364
 21
2168.264454520759
 31
0.0
  0
LINE
  5
17E35
330
747D
100
AcDbEntity
  8
破線
 48
5.0
100
AcDbLine
 10
8689.67305712364
 20
2418.264454520759
 30
0.0
 11
8689.67305712364
 21
2168.264454520759
 31
0.0
  0
LINE
  5
17E36
330
747D
100
AcDbEntity
  8
破線
 48
5.0
100
AcDbLine
 10
8689.67305712364
 20
2168.264454520759
 30
0.0
 11
8634.67305712364
 21
2168.264454520759
 31
0.0
  0
LINE
  5
17E37
330
747D
100
AcDbEntity
  8
破線
 48
5.0
100
AcDbLine
 10
8586.67305712364
 20
2518.264454520759
 30
0.0
 11
8586.67305712364
 21
2268.264454520759
 31
0.0
  0
LINE
  5
17E38
330
747D
100
AcDbEntity
  8
破線
 48
5.0
100
AcDbLine
 10
8634.673057123643
 20
2268.264454520759
 30
0.0
 11
8586.67305712364
 21
2268.264454520759
 31
0.0
  0
TEXT
  5
17E74
330
747D
100
AcDbEntity
  8
文字
 62
     7
 48
50.0
100
AcDbText
 10
15022.63965474516
 20
8890.013745883727
 30
0.0
 40
100.0
  1
F12            0.7
  7
STYLE1
100
AcDbText
  0
ENDSEC
  0
SECTION
  2
OBJECTS
  0
DICTIONARY
  5
7471
330
0
100
AcDbDictionary
281
     1
  3
ACAD_COLOR
350
169A3
  3
ACAD_GROUP
350
7472
  3
ACAD_LAYOUT
350
169A4
  3
ACAD_MATERIAL
350
169A2
  3
ACAD_MLINESTYLE
350
7473
  3
ACAD_PLOTSETTINGS
350
169A5
  3
ACAD_PLOTSTYLENAME
350
169A0
  3
ACDBHEADERROUNDTRIPXREC
350
17ECD
  3
AcDbVariableDictionary
350
17EC9
  3
CONTENTDICTIONARY
350
E71C
  3
DRAWINGVARIABLESDICT
350
F3B9
  0
DICTIONARY
  5
16DF8
330
7467
100
AcDbDictionary
280
     1
281
     1
  3
ACAD_LAYERSTATES
360
16DF9
  0
DICTIONARY
  5
169A3
102
{ACAD_REACTORS
330
7471
102
}
330
7471
100
AcDbDictionary
281
     1
  0
DICTIONARY
  5
7472
102
{ACAD_REACTORS
330
7471
102
}
330
7471
100
AcDbDictionary
281
     1
  0
DICTIONARY
  5
169A4
102
{ACAD_REACTORS
330
7471
102
}
330
7471
100
AcDbDictionary
281
     1
  3
Model
350
169A6
  3
レイアウト1
350
169A7
  0
DICTIONARY
  5
169A2
102
{ACAD_REACTORS
330
7471
102
}
330
7471
100
AcDbDictionary
281
     1
  0
DICTIONARY
  5
7473
102
{ACAD_REACTORS
330
7471
102
}
330
7471
100
AcDbDictionary
281
     1
  3
STANDARD
350
7480
  0
DICTIONARY
  5
169A5
102
{ACAD_REACTORS
330
7471
102
}
330
7471
100
AcDbDictionary
281
     1
  0
ACDBDICTIONARYWDFLT
  5
169A0
102
{ACAD_REACTORS
330
7471
102
}
330
7471
100
AcDbDictionary
281
     1
  3
Normal
350
169A1
100
AcDbDictionaryWithDefault
340
169A1
  0
DICTIONARY
  5
17ECD
102
{ACAD_REACTORS
330
7471
102
}
330
7471
100
AcDbDictionary
281
     1
  3
COLORDICT
350
17ECF
  3
MATERIALDICT
350
17ECE
  0
DICTIONARY
  5
17EC9
102
{ACAD_REACTORS
330
7471
102
}
330
7471
100
AcDbDictionary
281
     1
  3
DIMASSOC
350
17ECA
  3
PROJECTNAME
350
17ECB
  0
DICTIONARY
  5
E71C
102
{ACAD_REACTORS
330
7471
102
}
330
7471
100
AcDbDictionary
281
     1
  0
DICTIONARY
  5
F3B9
102
{ACAD_REACTORS
330
7471
102
}
330
7471
100
AcDbDictionary
281
     1
1001
DRAWINGVARIABLESXDATA
1000
POLARMODE
1000
1
  0
DICTIONARY
  5
16DF9
102
{ACAD_REACTORS
330
16DF8
102
}
330
16DF8
100
AcDbDictionary
281
     1
  0
LAYOUT
  5
169A6
102
{ACAD_XDICTIONARY
360
17ED0
102
}
102
{ACAD_REACTORS
330
169A4
102
}
330
169A4
100
AcDbPlotSettings
  1

  2
クセロPDF
  4
A3
  6

 40
3.174999999999999
 41
3.174999999999999
 42
3.174987999999999
 43
3.174987999999999
 44
419.946655
 45
296.925995
 46
0.0
 47
0.0
 48
0.0
 49
0.0
140
0.0
141
0.0
142
1.0
143
40.44561299368567
 70
 11952
 72
     1
 73
     0
 74
     2
  7
inaba.ctb
 75
     0
147
0.0247245603659442
148
183.0179068595971
149
160.3342785227505
100
AcDbLayout
  1
Model
 70
     1
 71
     0
 10
0.0
 20
0.0
 11
12.0
 21
9.0
 12
0.0
 22
0.0
 32
0.0
 14
0.0
 24
0.0
 34
0.0
 15
0.0
 25
0.0
 35
0.0
146
0.0
 13
0.0
 23
0.0
 33
0.0
 16
1.0
 26
0.0
 36
0.0
 17
0.0
 27
1.0
 37
0.0
 76
     0
330
747D
  0
LAYOUT
  5
169A7
102
{ACAD_XDICTIONARY
360
17ED2
102
}
102
{ACAD_REACTORS
330
169A4
102
}
330
169A4
100
AcDbPlotSettings
  1

  2
EPSON LP-8300
  4

  6

 40
0.0
 41
0.0
 42
0.0
 43
0.0
 44
0.0
 45
0.0
 46
0.0
 47
0.0
 48
0.0
 49
0.0
140
0.0
141
0.0
142
1.0
143
1.0
 70
   688
 72
     0
 73
     0
 74
     5
  7
inaba.ctb
 75
    16
147
1.0
148
0.0
149
0.0
100
AcDbLayout
  1
レイアウト1
 70
     0
 71
     1
 10
0.0
 20
0.0
 11
420.0
 21
297.0
 12
0.0
 22
0.0
 32
0.0
 14
1.000000000000000E+20
 24
1.000000000000000E+20
 34
1.000000000000000E+20
 15
-1.000000000000000E+20
 25
-1.000000000000000E+20
 35
-1.000000000000000E+20
146
0.0
 13
0.0
 23
0.0
 33
0.0
 16
1.0
 26
0.0
 36
0.0
 17
0.0
 27
1.0
 37
0.0
 76
     0
330
747A
  0
MLINESTYLE
  5
7480
102
{ACAD_REACTORS
330
7473
102
}
330
7473
100
AcDbMlineStyle
  2
STANDARD
 70
     0
  3

 62
     0
 51
90.0
 52
90.0
 71
     2
 49
0.5
 62
   256
  6
BYLAYER
 49
-0.5
 62
   256
  6
BYLAYER
  0
ACDBPLACEHOLDER
  5
169A1
102
{ACAD_REACTORS
330
169A0
102
}
330
169A0
  0
XRECORD
  5
17ECF
102
{ACAD_REACTORS
330
17ECD
102
}
330
17ECD
100
AcDbXrecord
280
     1
340
169A3
  0
XRECORD
  5
17ECE
102
{ACAD_REACTORS
330
17ECD
102
}
330
17ECD
100
AcDbXrecord
280
     1
340
169A2
  0
DICTIONARYVAR
  5
17ECA
102
{ACAD_REACTORS
330
17EC9
102
}
330
17EC9
100
DictionaryVariables
280
     0
  1
1
  0
DICTIONARYVAR
  5
17ECB
102
{ACAD_REACTORS
330
17EC9
102
}
330
17EC9
100
DictionaryVariables
280
     0
  1

  0
DICTIONARY
  5
17ED0
330
169A6
100
AcDbDictionary
280
     1
281
     1
  3
ACAD_XREC_ROUNDTRIP
360
17ED1
  0
DICTIONARY
  5
17ED2
330
169A7
100
AcDbDictionary
280
     1
281
     1
  3
ACAD_XREC_ROUNDTRIP
360
17ED3
  0
XRECORD
  5
17ED1
102
{ACAD_REACTORS
330
17ED0
102
}
330
17ED0
100
AcDbXrecord
280
     1
102
SHADEPLOT
 70
     1
102
SHADEPLOTRESLEVEL
 70
     2
102
SHADEPLOTCUSTOMDPI
 70
   300
  0
XRECORD
  5
17ED3
102
{ACAD_REACTORS
330
17ED2
102
}
330
17ED2
100
AcDbXrecord
280
     1
102
SHADEPLOT
 70
     0
102
SHADEPLOTRESLEVEL
 70
     2
102
SHADEPLOTCUSTOMDPI
 70
   300
  0
ENDSEC
  0
EOF
