  0
SECTION
  2
HEADER
  9
$ACADVER
  1
AC1015
  9
$ACADMAINTVER
 70
    20
  9
$DWGCODEPAGE
  3
ANSI_932
  9
$INSBASE
 10
0.0
 20
0.0
 30
0.0
  9
$EXTMIN
 10
139.9999999999995
 20
-0.0000000000000909
 30
0.0
  9
$EXTMAX
 10
16307.2
 20
11409.6
 30
0.0
  9
$LIMMIN
 10
-183.0179068595971
 20
-160.3342785227505
  9
$LIMMAX
 10
16374.07536659319
 20
11592.19044584975
  9
$ORTHOMODE
 70
     0
  9
$REGENMODE
 70
     1
  9
$FILLMODE
 70
     1
  9
$QTEXTMODE
 70
     0
  9
$MIRRTEXT
 70
     1
  9
$LTSCALE
 40
20.0
  9
$ATTMODE
 70
     1
  9
$TEXTSIZE
 40
100.0
  9
$TRACEWID
 40
1.0
  9
$TEXTSTYLE
  7
STYLE2
  9
$CLAYER
  8
部品1
  9
$CELTYPE
  6
BYLAYER
  9
$CECOLOR
 62
   256
  9
$CELTSCALE
 40
50.0
  9
$DISPSILH
 70
     0
  9
$DIMSCALE
 40
40.0
  9
$DIMASZ
 40
2.5
  9
$DIMEXO
 40
0.5
  9
$DIMDLI
 40
7.0
  9
$DIMRND
 40
0.0
  9
$DIMDLE
 40
0.0
  9
$DIMEXE
 40
1.5
  9
$DIMTP
 40
0.0
  9
$DIMTM
 40
0.0
  9
$DIMTXT
 40
3.0
  9
$DIMCEN
 40
0.0
  9
$DIMTSZ
 40
0.0
  9
$DIMTOL
 70
     0
  9
$DIMLIM
 70
     0
  9
$DIMTIH
 70
     0
  9
$DIMTOH
 70
     0
  9
$DIMSE1
 70
     0
  9
$DIMSE2
 70
     0
  9
$DIMTAD
 70
     3
  9
$DIMZIN
 70
     8
  9
$DIMBLK
  1

  9
$DIMASO
 70
     1
  9
$DIMSHO
 70
     1
  9
$DIMPOST
  1

  9
$DIMAPOST
  1

  9
$DIMALT
 70
     0
  9
$DIMALTD
 70
     2
  9
$DIMALTF
 40
0.0394
  9
$DIMLFAC
 40
1.0
  9
$DIMTOFL
 70
     1
  9
$DIMTVP
 40
0.0
  9
$DIMTIX
 70
     1
  9
$DIMSOXD
 70
     0
  9
$DIMSAH
 70
     1
  9
$DIMBLK1
  1
DOTSMALL
  9
$DIMBLK2
  1
DOTSMALL
  9
$DIMSTYLE
  2
INABA_S40G
  9
$DIMCLRD
 70
     0
  9
$DIMCLRE
 70
     0
  9
$DIMCLRT
 70
     7
  9
$DIMTFAC
 40
1.0
  9
$DIMGAP
 40
1.0
  9
$DIMJUST
 70
     0
  9
$DIMSD1
 70
     0
  9
$DIMSD2
 70
     0
  9
$DIMTOLJ
 70
     1
  9
$DIMTZIN
 70
     0
  9
$DIMALTZ
 70
     0
  9
$DIMALTTZ
 70
     0
  9
$DIMUPT
 70
     0
  9
$DIMDEC
 70
     1
  9
$DIMTDEC
 70
     4
  9
$DIMALTU
 70
     2
  9
$DIMALTTD
 70
     2
  9
$DIMTXSTY
  7
STYLE1
  9
$DIMAUNIT
 70
     0
  9
$DIMADEC
 70
     0
  9
$DIMALTRND
 40
0.0
  9
$DIMAZIN
 70
     0
  9
$DIMDSEP
 70
    46
  9
$DIMATFIT
 70
     3
  9
$DIMFRAC
 70
     0
  9
$DIMLDRBLK
  1

  9
$DIMLUNIT
 70
     2
  9
$DIMLWD
 70
    -2
  9
$DIMLWE
 70
    -2
  9
$DIMTMOVE
 70
     2
  9
$LUNITS
 70
     2
  9
$LUPREC
 70
     1
  9
$SKETCHINC
 40
1.0
  9
$FILLETRAD
 40
3.0
  9
$AUNITS
 70
     0
  9
$AUPREC
 70
     0
  9
$MENU
  1
acad
  9
$ELEVATION
 40
0.0
  9
$PELEVATION
 40
0.0
  9
$THICKNESS
 40
0.0
  9
$LIMCHECK
 70
     0
  9
$CHAMFERA
 40
0.0
  9
$CHAMFERB
 40
0.0
  9
$CHAMFERC
 40
0.0
  9
$CHAMFERD
 40
0.0
  9
$SKPOLY
 70
     0
  9
$TDCREATE
 40
2451368.612993866
  9
$TDUCREATE
 40
2451368.237993866
  9
$TDUPDATE
 40
2455569.630770579
  9
$TDUUPDATE
 40
2455569.255770579
  9
$TDINDWG
 40
0.7833652778
  9
$TDUSRTIMER
 40
0.7833652778
  9
$USRTIMER
 70
     1
  9
$ANGBASE
 50
0.0
  9
$ANGDIR
 70
     0
  9
$PDMODE
 70
     3
  9
$PDSIZE
 40
2.0
  9
$PLINEWID
 40
0.0
  9
$SPLFRAME
 70
     0
  9
$SPLINETYPE
 70
     6
  9
$SPLINESEGS
 70
     8
  9
$HANDSEED
  5
18627
  9
$SURFTAB1
 70
     6
  9
$SURFTAB2
 70
     6
  9
$SURFTYPE
 70
     6
  9
$SURFU
 70
     6
  9
$SURFV
 70
     6
  9
$UCSBASE
  2

  9
$UCSNAME
  2

  9
$UCSORG
 10
0.0
 20
0.0
 30
0.0
  9
$UCSXDIR
 10
1.0
 20
0.0
 30
0.0
  9
$UCSYDIR
 10
0.0
 20
1.0
 30
0.0
  9
$UCSORTHOREF
  2

  9
$UCSORTHOVIEW
 70
     0
  9
$UCSORGTOP
 10
0.0
 20
0.0
 30
0.0
  9
$UCSORGBOTTOM
 10
0.0
 20
0.0
 30
0.0
  9
$UCSORGLEFT
 10
0.0
 20
0.0
 30
0.0
  9
$UCSORGRIGHT
 10
0.0
 20
0.0
 30
0.0
  9
$UCSORGFRONT
 10
0.0
 20
0.0
 30
0.0
  9
$UCSORGBACK
 10
0.0
 20
0.0
 30
0.0
  9
$PUCSBASE
  2

  9
$PUCSNAME
  2

  9
$PUCSORG
 10
0.0
 20
0.0
 30
0.0
  9
$PUCSXDIR
 10
1.0
 20
0.0
 30
0.0
  9
$PUCSYDIR
 10
0.0
 20
1.0
 30
0.0
  9
$PUCSORTHOREF
  2

  9
$PUCSORTHOVIEW
 70
     0
  9
$PUCSORGTOP
 10
0.0
 20
0.0
 30
0.0
  9
$PUCSORGBOTTOM
 10
0.0
 20
0.0
 30
0.0
  9
$PUCSORGLEFT
 10
0.0
 20
0.0
 30
0.0
  9
$PUCSORGRIGHT
 10
0.0
 20
0.0
 30
0.0
  9
$PUCSORGFRONT
 10
0.0
 20
0.0
 30
0.0
  9
$PUCSORGBACK
 10
0.0
 20
0.0
 30
0.0
  9
$USERI1
 70
     0
  9
$USERI2
 70
     0
  9
$USERI3
 70
     0
  9
$USERI4
 70
     0
  9
$USERI5
 70
     0
  9
$USERR1
 40
0.0
  9
$USERR2
 40
0.0
  9
$USERR3
 40
0.0
  9
$USERR4
 40
0.0
  9
$USERR5
 40
0.0
  9
$WORLDVIEW
 70
     1
  9
$SHADEDGE
 70
     3
  9
$SHADEDIF
 70
    70
  9
$TILEMODE
 70
     1
  9
$MAXACTVP
 70
    16
  9
$PINSBASE
 10
0.0
 20
0.0
 30
0.0
  9
$PLIMCHECK
 70
     0
  9
$PEXTMIN
 10
1.000000000000000E+20
 20
1.000000000000000E+20
 30
1.000000000000000E+20
  9
$PEXTMAX
 10
-1.000000000000000E+20
 20
-1.000000000000000E+20
 30
-1.000000000000000E+20
  9
$PLIMMIN
 10
0.0
 20
0.0
  9
$PLIMMAX
 10
420.0
 20
297.0
  9
$UNITMODE
 70
     0
  9
$VISRETAIN
 70
     0
  9
$PLINEGEN
 70
     0
  9
$PSLTSCALE
 70
     0
  9
$TREEDEPTH
 70
  3020
  9
$CMLSTYLE
  2
STANDARD
  9
$CMLJUST
 70
     0
  9
$CMLSCALE
 40
1.0
  9
$PROXYGRAPHICS
 70
     1
  9
$MEASUREMENT
 70
     1
  9
$CELWEIGHT
370
    -1
  9
$ENDCAPS
280
     0
  9
$JOINSTYLE
280
     0
  9
$LWDISPLAY
290
     0
  9
$INSUNITS
 70
     0
  9
$HYPERLINKBASE
  1

  9
$STYLESHEET
  1
inaba.ctb
  9
$XEDIT
290
     1
  9
$CEPSNTYPE
380
     0
  9
$PSTYLEMODE
290
     1
  9
$FINGERPRINTGUID
  2
{6F4C9688-2373-4918-8378-7229E4D88FD5}
  9
$VERSIONGUID
  2
{5D1F729F-4DD9-43CA-A523-27132FBABFAA}
  9
$EXTNAMES
290
     1
  9
$PSVPSCALE
 40
0.0
  9
$OLESTARTUP
290
     0
  0
ENDSEC
  0
SECTION
  2
CLASSES
  0
CLASS
  1
ACDBDICTIONARYWDFLT
  2
AcDbDictionaryWithDefault
  3
ObjectDBX Classes
 90
        0
280
     0
281
     0
  0
CLASS
  1
DICTIONARYVAR
  2
AcDbDictionaryVar
  3
ObjectDBX Classes
 90
        0
280
     0
281
     0
  0
CLASS
  1
ACDBPLACEHOLDER
  2
AcDbPlaceHolder
  3
ObjectDBX Classes
 90
        0
280
     0
281
     0
  0
CLASS
  1
LAYOUT
  2
AcDbLayout
  3
ObjectDBX Classes
 90
        0
280
     0
281
     0
  0
ENDSEC
  0
SECTION
  2
TABLES
  0
TABLE
  2
VPORT
  5
746D
330
0
100
AcDbSymbolTable
 70
     2
  0
VPORT
  5
1861F
330
746D
100
AcDbSymbolTableRecord
100
AcDbViewportTableRecord
  2
*Active
 70
     0
 10
0.0
 20
0.0
 11
1.0
 21
1.0
 12
8807.280585082221
 22
5704.60831763757
 13
0.0
 23
0.0
 14
10.0
 24
10.0
 15
10.0
 25
10.0
 16
0.0
 26
0.0
 36
1.0
 17
0.0
 27
0.0
 37
0.0
 40
11495.08489134193
 41
1.627450980392156
 42
50.0
 43
0.0
 44
0.0
 50
0.0
 51
0.0
 71
     0
 72
     0
 73
     1
 74
     0
 75
     0
 76
     0
 77
     0
 78
     0
281
     0
 65
     1
110
0.0
120
0.0
130
0.0
111
1.0
121
0.0
131
0.0
112
0.0
122
1.0
132
0.0
 79
     0
146
0.0
  0
ENDTAB
  0
TABLE
  2
LTYPE
  5
746A
330
0
100
AcDbSymbolTable
 70
     3
  0
LTYPE
  5
7477
330
746A
100
AcDbSymbolTableRecord
100
AcDbLinetypeTableRecord
  2
BYBLOCK
 70
     0
  3

 72
    65
 73
     0
 40
0.0
  0
LTYPE
  5
7478
330
746A
100
AcDbSymbolTableRecord
100
AcDbLinetypeTableRecord
  2
BYLAYER
 70
     0
  3

 72
    65
 73
     0
 40
0.0
  0
LTYPE
  5
7479
330
746A
100
AcDbSymbolTableRecord
100
AcDbLinetypeTableRecord
  2
CONTINUOUS
 70
     0
  3
Solid line
 72
    65
 73
     0
 40
0.0
  0
LTYPE
  5
781A
330
746A
100
AcDbSymbolTableRecord
100
AcDbLinetypeTableRecord
  2
HIDDEN
 70
     0
  3
__ __ __ __ __ __ __ __ __ __ __ __ __ __ __ __
 72
    65
 73
     2
 40
0.375
 49
0.25
 74
     0
 49
-0.125
 74
     0
  0
LTYPE
  5
781B
330
746A
100
AcDbSymbolTableRecord
100
AcDbLinetypeTableRecord
  2
PHANTOM
 70
     0
  3
______  __  __  ______  __  __  ______  __  __ 
 72
    65
 73
     6
 40
2.5
 49
1.25
 74
     0
 49
-0.25
 74
     0
 49
0.25
 74
     0
 49
-0.25
 74
     0
 49
0.25
 74
     0
 49
-0.25
 74
     0
  0
ENDTAB
  0
TABLE
  2
LAYER
  5
7467
102
{ACAD_XDICTIONARY
360
177D7
102
}
330
0
100
AcDbSymbolTable
 70
    10
  0
LAYER
  5
7474
330
7467
100
AcDbSymbolTableRecord
100
AcDbLayerTableRecord
  2
0
 70
     0
 62
     7
  6
CONTINUOUS
370
    -3
390
17546
  0
LAYER
  5
DEB3
330
7467
100
AcDbSymbolTableRecord
100
AcDbLayerTableRecord
  2
寸法
 70
     0
 62
     4
  6
CONTINUOUS
370
    -3
390
17546
  0
LAYER
  5
DEB4
330
7467
100
AcDbSymbolTableRecord
100
AcDbLayerTableRecord
  2
部品1
 70
     0
 62
     7
  6
CONTINUOUS
370
    -3
390
17546
  0
LAYER
  5
DEB5
330
7467
100
AcDbSymbolTableRecord
100
AcDbLayerTableRecord
  2
補助
 70
     0
 62
    -1
  6
CONTINUOUS
370
    -3
390
17546
  0
LAYER
  5
DEB6
330
7467
100
AcDbSymbolTableRecord
100
AcDbLayerTableRecord
  2
文字
 70
     0
 62
     7
  6
CONTINUOUS
370
    -3
390
17546
  0
LAYER
  5
F255
330
7467
100
AcDbSymbolTableRecord
100
AcDbLayerTableRecord
  2
DEFPOINTS
 70
     0
 62
     7
  6
CONTINUOUS
290
     0
370
    -3
390
17546
  0
LAYER
  5
10B54
330
7467
100
AcDbSymbolTableRecord
100
AcDbLayerTableRecord
  2
仕様書枠
 70
     0
 62
   230
  6
CONTINUOUS
370
    -3
390
17546
  0
LAYER
  5
11729
330
7467
100
AcDbSymbolTableRecord
100
AcDbLayerTableRecord
  2
Ｇ．Ｌ
 70
     0
 62
    30
  6
CONTINUOUS
370
    -3
390
17546
  0
LAYER
  5
1173F
330
7467
100
AcDbSymbolTableRecord
100
AcDbLayerTableRecord
  2
細線
 70
     0
 62
     5
  6
CONTINUOUS
370
    -3
390
17546
  0
LAYER
  5
142E2
330
7467
100
AcDbSymbolTableRecord
100
AcDbLayerTableRecord
  2
破線
 70
     0
 62
     2
  6
HIDDEN
370
    -3
390
17546
  0
ENDTAB
  0
TABLE
  2
STYLE
  5
7468
330
0
100
AcDbSymbolTable
 70
     4
  0
STYLE
  5
7475
330
7468
100
AcDbSymbolTableRecord
100
AcDbTextStyleTableRecord
  2
STANDARD
 70
     0
 40
0.0
 41
1.0
 50
0.0
 71
     0
 42
4.0
  3
txt
  4
C:\AutoCAD LT\bigfont.shx
  0
STYLE
  5
763C
330
7468
100
AcDbSymbolTableRecord
100
AcDbTextStyleTableRecord
  2
MSMINCHO
 70
     0
 40
0.0
 41
1.0
 50
0.0
 71
     0
 42
1.199999999999999
  3
C:\AutoCAD LT\msminch2.TTF
  4

  0
STYLE
  5
F706
330
7468
100
AcDbSymbolTableRecord
100
AcDbTextStyleTableRecord
  2
STYLE1
 70
     0
 40
0.0
 41
1.0
 50
0.0
 71
     0
 42
4.0
  3
isocp.shx
  4
bigfont.shx
  0
STYLE
  5
103BF
330
7468
100
AcDbSymbolTableRecord
100
AcDbTextStyleTableRecord
  2
STYLE2
 70
     0
 40
0.0
 41
1.0
 50
0.0
 71
     0
 42
100.0
  3
MS PGothic.ttf
  4

1001
ACAD
1000
MS PGothic
1071
    32818
  0
ENDTAB
  0
TABLE
  2
VIEW
  5
746B
330
0
100
AcDbSymbolTable
 70
     0
  0
ENDTAB
  0
TABLE
  2
UCS
  5
746C
330
0
100
AcDbSymbolTable
 70
     0
  0
ENDTAB
  0
TABLE
  2
APPID
  5
746E
330
0
100
AcDbSymbolTable
 70
     6
  0
APPID
  5
7476
330
746E
100
AcDbSymbolTableRecord
100
AcDbRegAppTableRecord
  2
ACAD
 70
     0
  0
APPID
  5
DEA9
330
746E
100
AcDbSymbolTableRecord
100
AcDbRegAppTableRecord
  2
CONTENTBLOCKICON
 70
     0
  0
APPID
  5
DEAA
330
746E
100
AcDbSymbolTableRecord
100
AcDbRegAppTableRecord
  2
CONTENTBLOCKDESCRIPTION
 70
     0
  0
APPID
  5
E71D
330
746E
100
AcDbSymbolTableRecord
100
AcDbRegAppTableRecord
  2
CONTENTTABDATA
 70
     0
  0
APPID
  5
E71E
330
746E
100
AcDbSymbolTableRecord
100
AcDbRegAppTableRecord
  2
CONTENTCURRENTTAB
 70
     0
  0
APPID
  5
F3BA
330
746E
100
AcDbSymbolTableRecord
100
AcDbRegAppTableRecord
  2
DRAWINGVARIABLESXDATA
 70
     0
  0
ENDTAB
  0
TABLE
  2
DIMSTYLE
  5
746F
330
0
100
AcDbSymbolTable
 70
     1
100
AcDbDimStyleTable
 71
     1
340
F71F
  0
DIMSTYLE
105
F71F
102
{ACAD_REACTORS
330
162CD
330
162CE
330
162CF
330
162D0
330
162E4
330
162EA
330
162EB
330
16301
330
16302
330
1631F
330
16320
330
16333
330
16913
330
17A3D
330
17A44
330
17A45
330
17A4D
330
17F8A
330
17F89
330
17F87
330
17F83
330
17F80
330
17F7F
330
17F7E
330
17F3F
330
17F2A
330
18394
330
18395
330
18396
102
}
330
746F
100
AcDbSymbolTableRecord
100
AcDbDimStyleTableRecord
  2
INABA_S40G
 70
     0
 40
40.0
 41
2.5
 42
0.5
 43
7.0
 44
1.5
 73
     0
 74
     0
 77
     3
 78
     8
140
3.0
141
0.0
143
0.0394
147
1.0
172
     1
173
     1
174
     1
178
     7
271
     1
340
F706
341
F770
343
F770
344
F770
  0
ENDTAB
  0
TABLE
  2
BLOCK_RECORD
  5
7466
330
0
100
AcDbSymbolTable
 70
    30
  0
BLOCK_RECORD
  5
747D
330
7466
100
AcDbSymbolTableRecord
100
AcDbBlockTableRecord
  2
*MODEL_SPACE
340
1754B
  0
BLOCK_RECORD
  5
747A
330
7466
100
AcDbSymbolTableRecord
100
AcDbBlockTableRecord
  2
*PAPER_SPACE
340
1754C
  0
BLOCK_RECORD
  5
F770
330
7466
100
AcDbSymbolTableRecord
100
AcDbBlockTableRecord
  2
_DOTSMALL
340
0
102
{BLKREFS
331
164EF
331
164F0
331
1641A
331
1641B
331
16427
331
16428
331
164CE
331
164CF
331
1728F
331
17290
331
1646A
331
1646B
331
16479
331
1647A
331
16487
331
16488
331
16493
331
16494
331
164B6
331
164B7
331
164C3
331
164C4
331
174FB
331
174FC
331
180FF
331
18100
331
18108
331
18109
331
1811D
331
1811E
331
18126
331
18127
331
18157
331
18158
331
1819C
331
1819D
331
181B0
331
181B1
331
181DB
331
181DC
331
181E5
331
181E6
331
1848E
331
1848F
331
1855C
331
1855D
331
18595
331
18596
331
1859E
331
1859F
331
185CB
331
185CC
331
185D4
331
185D5
331
185F3
331
185F4
331
185FC
331
185FD
102
}
  0
BLOCK_RECORD
  5
16338
330
7466
100
AcDbSymbolTableRecord
100
AcDbBlockTableRecord
  2
*D1
340
0
  0
BLOCK_RECORD
  5
16344
330
7466
100
AcDbSymbolTableRecord
100
AcDbBlockTableRecord
  2
*D2
340
0
  0
BLOCK_RECORD
  5
16352
330
7466
100
AcDbSymbolTableRecord
100
AcDbBlockTableRecord
  2
*D3
340
0
  0
BLOCK_RECORD
  5
16360
330
7466
100
AcDbSymbolTableRecord
100
AcDbBlockTableRecord
  2
*D4
340
0
  0
BLOCK_RECORD
  5
16384
330
7466
100
AcDbSymbolTableRecord
100
AcDbBlockTableRecord
  2
*D5
340
0
  0
BLOCK_RECORD
  5
1639B
330
7466
100
AcDbSymbolTableRecord
100
AcDbBlockTableRecord
  2
*D6
340
0
  0
BLOCK_RECORD
  5
163A9
330
7466
100
AcDbSymbolTableRecord
100
AcDbBlockTableRecord
  2
*D7
340
0
  0
BLOCK_RECORD
  5
163B8
330
7466
100
AcDbSymbolTableRecord
100
AcDbBlockTableRecord
  2
*D8
340
0
  0
BLOCK_RECORD
  5
163C7
330
7466
100
AcDbSymbolTableRecord
100
AcDbBlockTableRecord
  2
*D9
340
0
  0
BLOCK_RECORD
  5
163E1
330
7466
100
AcDbSymbolTableRecord
100
AcDbBlockTableRecord
  2
*D10
340
0
  0
BLOCK_RECORD
  5
163ED
330
7466
100
AcDbSymbolTableRecord
100
AcDbBlockTableRecord
  2
*D11
340
0
  0
BLOCK_RECORD
  5
163FB
330
7466
100
AcDbSymbolTableRecord
100
AcDbBlockTableRecord
  2
*D12
340
0
  0
BLOCK_RECORD
  5
16908
330
7466
100
AcDbSymbolTableRecord
100
AcDbBlockTableRecord
  2
*D13
340
0
  0
BLOCK_RECORD
  5
17C89
330
7466
100
AcDbSymbolTableRecord
100
AcDbBlockTableRecord
  2
*D14
340
0
  0
BLOCK_RECORD
  5
17C95
330
7466
100
AcDbSymbolTableRecord
100
AcDbBlockTableRecord
  2
*D15
340
0
  0
BLOCK_RECORD
  5
17CA3
330
7466
100
AcDbSymbolTableRecord
100
AcDbBlockTableRecord
  2
*D16
340
0
  0
BLOCK_RECORD
  5
17CB1
330
7466
100
AcDbSymbolTableRecord
100
AcDbBlockTableRecord
  2
*D17
340
0
  0
BLOCK_RECORD
  5
17FA3
330
7466
100
AcDbSymbolTableRecord
100
AcDbBlockTableRecord
  2
*D18
340
0
  0
BLOCK_RECORD
  5
17FAF
330
7466
100
AcDbSymbolTableRecord
100
AcDbBlockTableRecord
  2
*D19
340
0
  0
BLOCK_RECORD
  5
17FC8
330
7466
100
AcDbSymbolTableRecord
100
AcDbBlockTableRecord
  2
*D20
340
0
  0
BLOCK_RECORD
  5
17FD6
330
7466
100
AcDbSymbolTableRecord
100
AcDbBlockTableRecord
  2
*D21
340
0
  0
BLOCK_RECORD
  5
17FE2
330
7466
100
AcDbSymbolTableRecord
100
AcDbBlockTableRecord
  2
*D22
340
0
  0
BLOCK_RECORD
  5
17FEE
330
7466
100
AcDbSymbolTableRecord
100
AcDbBlockTableRecord
  2
*D23
340
0
  0
BLOCK_RECORD
  5
17FFC
330
7466
100
AcDbSymbolTableRecord
100
AcDbBlockTableRecord
  2
*D24
340
0
  0
BLOCK_RECORD
  5
18008
330
7466
100
AcDbSymbolTableRecord
100
AcDbBlockTableRecord
  2
*D25
340
0
  0
BLOCK_RECORD
  5
18015
330
7466
100
AcDbSymbolTableRecord
100
AcDbBlockTableRecord
  2
*D26
340
0
  0
BLOCK_RECORD
  5
18409
330
7466
100
AcDbSymbolTableRecord
100
AcDbBlockTableRecord
  2
*D27
340
0
  0
BLOCK_RECORD
  5
18416
330
7466
100
AcDbSymbolTableRecord
100
AcDbBlockTableRecord
  2
*D28
340
0
  0
BLOCK_RECORD
  5
18424
330
7466
100
AcDbSymbolTableRecord
100
AcDbBlockTableRecord
  2
*D29
340
0
  0
ENDTAB
  0
ENDSEC
  0
SECTION
  2
BLOCKS
  0
BLOCK
  5
7489
330
747D
100
AcDbEntity
  8
0
100
AcDbBlockBegin
  2
*MODEL_SPACE
 70
     0
 10
0.0
 20
0.0
 30
0.0
  3
*MODEL_SPACE
  1

  0
ENDBLK
  5
748A
330
747D
100
AcDbEntity
  8
0
100
AcDbBlockEnd
  0
BLOCK
  5
7487
330
747A
100
AcDbEntity
 67
     1
  8
0
100
AcDbBlockBegin
  2
*PAPER_SPACE
 70
     0
 10
0.0
 20
0.0
 30
0.0
  3
*PAPER_SPACE
  1

  0
ENDBLK
  5
7488
330
747A
100
AcDbEntity
 67
     1
  8
0
100
AcDbBlockEnd
  0
BLOCK
  5
F771
330
F770
100
AcDbEntity
  8
0
 48
50.0
100
AcDbBlockBegin
  2
_DOTSMALL
 70
     0
 10
0.0
 20
0.0
 30
0.0
  3
_DOTSMALL
  1

  0
LWPOLYLINE
  5
F772
330
F770
100
AcDbEntity
  8
0
  6
ByBlock
 62
     0
 48
50.0
100
AcDbPolyline
 90
        2
 70
     1
 43
0.5
 10
-0.0625
 20
0.0
 42
1.0
 10
0.0625
 20
0.0
 42
1.0
  0
ENDBLK
  5
F776
330
F770
100
AcDbEntity
  8
0
 48
50.0
100
AcDbBlockEnd
  0
BLOCK
  5
164EB
330
16338
100
AcDbEntity
  8
0
 48
50.0
100
AcDbBlockBegin
  2
*D1
 70
     1
 10
0.0
 20
0.0
 30
0.0
  3
*D1
  1

  0
LINE
  5
164EC
330
16338
100
AcDbEntity
  8
0
  6
ByBlock
 62
     0
 48
50.0
100
AcDbLine
 10
7394.673057123664
 20
8717.497424545966
 30
0.0
 11
8082.099402858071
 21
8717.497424545966
 31
0.0
  0
LINE
  5
164ED
330
16338
100
AcDbEntity
  8
0
  6
ByBlock
 62
     0
 48
50.0
100
AcDbLine
 10
7394.673057123639
 20
7037.497424545953
 30
0.0
 11
8082.099402858069
 21
7037.497424545951
 31
0.0
  0
LINE
  5
164EE
330
16338
100
AcDbEntity
  8
0
  6
ByBlock
 62
     0
 48
50.0
100
AcDbLine
 10
8022.099402858071
 20
8717.497424545966
 30
0.0
 11
8022.099402858071
 21
7037.497424545951
 31
0.0
  0
INSERT
  5
164EF
330
16338
100
AcDbEntity
  8
0
  6
ByBlock
 62
     0
 48
50.0
100
AcDbBlockReference
  2
_DOTSMALL
 10
8022.099402858071
 20
8717.497424545966
 30
0.0
 41
100.0
 42
100.0
 43
100.0
 50
90.0
  0
INSERT
  5
164F0
330
16338
100
AcDbEntity
  8
0
  6
ByBlock
 62
     0
 48
50.0
100
AcDbBlockReference
  2
_DOTSMALL
 10
8022.099402858071
 20
7037.497424545951
 30
0.0
 41
100.0
 42
100.0
 43
100.0
 50
270.0
  0
MTEXT
  5
164F1
330
16338
100
AcDbEntity
  8
0
  6
ByBlock
 62
     7
 48
50.0
100
AcDbMText
 10
7922.087591834449
 20
7877.497424545959
 30
0.0
 40
120.0
 41
0.0
 71
     5
 72
     1
  1
\A1;4X420=1680
  7
STYLE1
 11
0.0000000000000001
 21
1.0
 31
0.0
 73
     1
 44
1.0
1001
ACAD
1000
MTEXTBEGIN
1070
    73
1070
     1
1070
    44
1040
1.0
1070
    74
1070
     0
1000
MTEXTEND
  0
POINT
  5
164F2
330
16338
100
AcDbEntity
  8
DEFPOINTS
  6
ByBlock
 62
     0
 48
50.0
100
AcDbPoint
 10
7374.673057123664
 20
8717.497424545966
 30
0.0
  0
POINT
  5
164F3
330
16338
100
AcDbEntity
  8
DEFPOINTS
  6
ByBlock
 62
     0
 48
50.0
100
AcDbPoint
 10
7374.673057123638
 20
7037.497424545953
 30
0.0
  0
POINT
  5
164F4
330
16338
100
AcDbEntity
  8
DEFPOINTS
  6
ByBlock
 62
     0
 48
50.0
100
AcDbPoint
 10
8022.099402858071
 20
7037.497424545951
 30
0.0
  0
ENDBLK
  5
164F5
330
16338
100
AcDbEntity
  8
0
 48
50.0
100
AcDbBlockEnd
  0
BLOCK
  5
16414
330
16344
100
AcDbEntity
  8
0
 48
50.0
100
AcDbBlockBegin
  2
*D2
 70
     1
 10
0.0
 20
0.0
 30
0.0
  3
*D2
  1

  0
LINE
  5
16415
330
16344
100
AcDbEntity
  8
0
  6
ByBlock
 62
     0
 48
50.0
100
AcDbLine
 10
7394.673057123639
 20
7037.497424545953
 30
0.0
 11
8082.099402858048
 21
7037.497424545951
 31
0.0
  0
LINE
  5
16416
330
16344
100
AcDbEntity
  8
0
  6
ByBlock
 62
     0
 48
50.0
100
AcDbLine
 10
7394.673057123639
 20
6982.497424545956
 30
0.0
 11
8082.099402858048
 21
6982.497424545956
 31
0.0
  0
LINE
  5
16417
330
16344
100
AcDbEntity
  8
0
  6
ByBlock
 62
     0
 48
50.0
100
AcDbLine
 10
8022.099402858048
 20
7037.497424545951
 30
0.0
 11
8022.099402858048
 21
7137.497424545951
 31
0.0
  0
LINE
  5
16418
330
16344
100
AcDbEntity
  8
0
  6
ByBlock
 62
     0
 48
50.0
100
AcDbLine
 10
8022.099402858048
 20
6982.497424545956
 30
0.0
 11
8022.099402858048
 21
6496.150676266855
 31
0.0
  0
LINE
  5
16419
330
16344
100
AcDbEntity
  8
0
  6
ByBlock
 62
     0
 48
50.0
100
AcDbLine
 10
8022.099402858048
 20
7037.497424545951
 30
0.0
 11
8022.099402858048
 21
6982.497424545956
 31
0.0
  0
INSERT
  5
1641A
330
16344
100
AcDbEntity
  8
0
  6
ByBlock
 62
     0
 48
50.0
100
AcDbBlockReference
  2
_DOTSMALL
 10
8022.099402858048
 20
7037.497424545951
 30
0.0
 41
100.0
 42
100.0
 43
100.0
 50
270.0
  0
INSERT
  5
1641B
330
16344
100
AcDbEntity
  8
0
  6
ByBlock
 62
     0
 48
50.0
100
AcDbBlockReference
  2
_DOTSMALL
 10
8022.099402858048
 20
6982.497424545956
 30
0.0
 41
100.0
 42
100.0
 43
100.0
 50
90.0
  0
MTEXT
  5
1641C
330
16344
100
AcDbEntity
  8
0
  6
ByBlock
 62
     7
 48
50.0
100
AcDbMText
 10
7922.099402858048
 20
6604.635957641093
 30
0.0
 40
120.0
 41
0.0
 71
     5
 72
     1
  1
\A1;55
  7
STYLE1
 11
0.0000000000000001
 21
1.0
 31
0.0
 73
     1
 44
1.0
1001
ACAD
1000
MTEXTBEGIN
1070
    73
1070
     1
1070
    44
1040
1.0
1070
    74
1070
     0
1000
MTEXTEND
  0
POINT
  5
1641D
330
16344
100
AcDbEntity
  8
DEFPOINTS
  6
ByBlock
 62
     0
 48
50.0
100
AcDbPoint
 10
7374.673057123638
 20
7037.497424545953
 30
0.0
  0
POINT
  5
1641E
330
16344
100
AcDbEntity
  8
DEFPOINTS
  6
ByBlock
 62
     0
 48
50.0
100
AcDbPoint
 10
7374.673057123638
 20
6982.497424545956
 30
0.0
  0
POINT
  5
1641F
330
16344
100
AcDbEntity
  8
DEFPOINTS
  6
ByBlock
 62
     0
 48
50.0
100
AcDbPoint
 10
8022.099402858048
 20
6982.497424545956
 30
0.0
  0
ENDBLK
  5
16420
330
16344
100
AcDbEntity
  8
0
 48
50.0
100
AcDbBlockEnd
  0
BLOCK
  5
16421
330
16352
100
AcDbEntity
  8
0
 48
50.0
100
AcDbBlockBegin
  2
*D3
 70
     1
 10
0.0
 20
0.0
 30
0.0
  3
*D3
  1

  0
LINE
  5
16422
330
16352
100
AcDbEntity
  8
0
  6
ByBlock
 62
     0
 48
50.0
100
AcDbLine
 10
7394.673057123664
 20
10032.49742454596
 30
0.0
 11
8082.099402858075
 21
10032.49742454596
 31
0.0
  0
LINE
  5
16423
330
16352
100
AcDbEntity
  8
0
  6
ByBlock
 62
     0
 48
50.0
100
AcDbLine
 10
7394.673057123664
 20
9977.497424545967
 30
0.0
 11
8082.099402858075
 21
9977.497424545967
 31
0.0
  0
LINE
  5
16424
330
16352
100
AcDbEntity
  8
0
  6
ByBlock
 62
     0
 48
50.0
100
AcDbLine
 10
8022.099402858072
 20
9977.497424545967
 30
0.0
 11
8022.099402858072
 21
9877.497424545968
 31
0.0
  0
LINE
  5
16425
330
16352
100
AcDbEntity
  8
0
  6
ByBlock
 62
     0
 48
50.0
100
AcDbLine
 10
8022.099402858072
 20
10032.49742454596
 30
0.0
 11
8022.099402858072
 21
10449.46798729444
 31
0.0
  0
LINE
  5
16426
330
16352
100
AcDbEntity
  8
0
  6
ByBlock
 62
     0
 48
50.0
100
AcDbLine
 10
8022.099402858072
 20
9977.497424545967
 30
0.0
 11
8022.099402858072
 21
10032.49742454596
 31
0.0
  0
INSERT
  5
16427
330
16352
100
AcDbEntity
  8
0
  6
ByBlock
 62
     0
 48
50.0
100
AcDbBlockReference
  2
_DOTSMALL
 10
8022.099402858072
 20
9977.497424545967
 30
0.0
 41
100.0
 42
100.0
 43
100.0
 50
90.0
  0
INSERT
  5
16428
330
16352
100
AcDbEntity
  8
0
  6
ByBlock
 62
     0
 48
50.0
100
AcDbBlockReference
  2
_DOTSMALL
 10
8022.099402858072
 20
10032.49742454596
 30
0.0
 41
100.0
 42
100.0
 43
100.0
 50
270.0
  0
MTEXT
  5
16429
330
16352
100
AcDbEntity
  8
0
  6
ByBlock
 62
     7
 48
50.0
100
AcDbMText
 10
7922.099402858073
 20
10340.9827059202
 30
0.0
 40
120.0
 41
0.0
 71
     5
 72
     1
  1
\A1;55
  7
STYLE1
 11
0.0000000000000001
 21
1.0
 31
0.0
 73
     1
 44
1.0
1001
ACAD
1000
MTEXTBEGIN
1070
    73
1070
     1
1070
    44
1040
1.0
1070
    74
1070
     0
1000
MTEXTEND
  0
POINT
  5
1642A
330
16352
100
AcDbEntity
  8
DEFPOINTS
  6
ByBlock
 62
     0
 48
50.0
100
AcDbPoint
 10
7374.673057123664
 20
10032.49742454596
 30
0.0
  0
POINT
  5
1642B
330
16352
100
AcDbEntity
  8
DEFPOINTS
  6
ByBlock
 62
     0
 48
50.0
100
AcDbPoint
 10
7374.673057123664
 20
9977.497424545967
 30
0.0
  0
POINT
  5
1642C
330
16352
100
AcDbEntity
  8
DEFPOINTS
  6
ByBlock
 62
     0
 48
50.0
100
AcDbPoint
 10
8022.099402858072
 20
9977.497424545967
 30
0.0
  0
ENDBLK
  5
1642D
330
16352
100
AcDbEntity
  8
0
 48
50.0
100
AcDbBlockEnd
  0
BLOCK
  5
164CA
330
16360
100
AcDbEntity
  8
0
 48
50.0
100
AcDbBlockBegin
  2
*D4
 70
     1
 10
0.0
 20
0.0
 30
0.0
  3
*D4
  1

  0
LINE
  5
164CB
330
16360
100
AcDbEntity
  8
0
  6
ByBlock
 62
     0
 48
50.0
100
AcDbLine
 10
7394.673057123664
 20
8772.497424545964
 30
0.0
 11
8447.206344597709
 21
8772.497424545964
 31
0.0
  0
LINE
  5
164CC
330
16360
100
AcDbEntity
  8
0
  6
ByBlock
 62
     0
 48
50.0
100
AcDbLine
 10
7394.673057123639
 20
6982.497424545956
 30
0.0
 11
8447.206344597709
 21
6982.497424545956
 31
0.0
  0
LINE
  5
164CD
330
16360
100
AcDbEntity
  8
0
  6
ByBlock
 62
     0
 48
50.0
100
AcDbLine
 10
8387.206344597709
 20
8772.497424545964
 30
0.0
 11
8387.206344597709
 21
6982.497424545956
 31
0.0
  0
INSERT
  5
164CE
330
16360
100
AcDbEntity
  8
0
  6
ByBlock
 62
     0
 48
50.0
100
AcDbBlockReference
  2
_DOTSMALL
 10
8387.206344597709
 20
8772.497424545964
 30
0.0
 41
100.0
 42
100.0
 43
100.0
 50
90.0
  0
INSERT
  5
164CF
330
16360
100
AcDbEntity
  8
0
  6
ByBlock
 62
     0
 48
50.0
100
AcDbBlockReference
  2
_DOTSMALL
 10
8387.206344597709
 20
6982.497424545956
 30
0.0
 41
100.0
 42
100.0
 43
100.0
 50
270.0
  0
MTEXT
  5
164D0
330
16360
100
AcDbEntity
  8
0
  6
ByBlock
 62
     7
 48
50.0
100
AcDbMText
 10
8287.206344597709
 20
7877.497424545959
 30
0.0
 40
120.0
 41
0.0
 71
     5
 72
     1
  1
\A1;1790
  7
STYLE1
 11
0.0000000000000001
 21
1.0
 31
0.0
 73
     1
 44
1.0
1001
ACAD
1000
MTEXTBEGIN
1070
    73
1070
     1
1070
    44
1040
1.0
1070
    74
1070
     0
1000
MTEXTEND
  0
POINT
  5
164D1
330
16360
100
AcDbEntity
  8
DEFPOINTS
  6
ByBlock
 62
     0
 48
50.0
100
AcDbPoint
 10
7374.673057123664
 20
8772.497424545964
 30
0.0
  0
POINT
  5
164D2
330
16360
100
AcDbEntity
  8
DEFPOINTS
  6
ByBlock
 62
     0
 48
50.0
100
AcDbPoint
 10
7374.673057123638
 20
6982.497424545956
 30
0.0
  0
POINT
  5
164D3
330
16360
100
AcDbEntity
  8
DEFPOINTS
  6
ByBlock
 62
     0
 48
50.0
100
AcDbPoint
 10
8387.206344597709
 20
6982.497424545956
 30
0.0
  0
ENDBLK
  5
164D4
330
16360
100
AcDbEntity
  8
0
 48
50.0
100
AcDbBlockEnd
  0
BLOCK
  5
1728C
330
16384
100
AcDbEntity
  8
0
 48
50.0
100
AcDbBlockBegin
  2
*D5
 70
     1
 10
0.0
 20
0.0
 30
0.0
  3
*D5
  1

  0
LINE
  5
1728D
330
16384
100
AcDbEntity
  8
0
  6
ByBlock
 62
     0
 48
50.0
100
AcDbLine
 10
6582.673057123656
 20
7148.497424545865
 30
0.0
 11
6582.673057123656
 21
6548.0666537797
 31
0.0
  0
LINE
  5
1728E
330
16384
100
AcDbEntity
  8
0
  6
ByBlock
 62
     0
 48
50.0
100
AcDbLine
 10
8586.673057123638
 20
6608.0666537797
 30
0.0
 11
6582.673057123656
 21
6608.0666537797
 31
0.0
  0
INSERT
  5
1728F
330
16384
100
AcDbEntity
  8
0
  6
ByBlock
 62
     0
 48
50.0
100
AcDbBlockReference
  2
_DOTSMALL
 10
8586.673057123638
 20
6608.0666537797
 30
0.0
 41
100.0
 42
100.0
 43
100.0
  0
INSERT
  5
17290
330
16384
100
AcDbEntity
  8
0
  6
ByBlock
 62
     0
 48
50.0
100
AcDbBlockReference
  2
_DOTSMALL
 10
6582.673057123656
 20
6608.0666537797
 30
0.0
 41
100.0
 42
100.0
 43
100.0
 50
180.0
  0
MTEXT
  5
17291
330
16384
100
AcDbEntity
  8
0
  6
ByBlock
 62
     7
 48
50.0
100
AcDbMText
 10
7584.673057123648
 20
6708.078464803323
 30
0.0
 40
120.0
 41
0.0
 71
     5
 72
     1
  1
\A1;有効開口部間口 2004
  7
STYLE1
 73
     1
 44
1.0
1001
ACAD
1000
MTEXTBEGIN
1070
    73
1070
     1
1070
    44
1040
1.0
1070
    74
1070
     0
1000
MTEXTEND
  0
POINT
  5
17292
330
16384
100
AcDbEntity
  8
DEFPOINTS
  6
ByBlock
 62
     0
 48
50.0
100
AcDbPoint
 10
8586.673057123638
 20
7168.497424545865
 30
0.0
  0
POINT
  5
17293
330
16384
100
AcDbEntity
  8
DEFPOINTS
  6
ByBlock
 62
     0
 48
50.0
100
AcDbPoint
 10
6582.673057123656
 20
7168.497424545865
 30
0.0
  0
POINT
  5
17294
330
16384
100
AcDbEntity
  8
DEFPOINTS
  6
ByBlock
 62
     0
 48
50.0
100
AcDbPoint
 10
6582.673057123656
 20
6608.0666537797
 30
0.0
  0
ENDBLK
  5
17295
330
16384
100
AcDbEntity
  8
0
 48
50.0
100
AcDbBlockEnd
  0
BLOCK
  5
16464
330
1639B
100
AcDbEntity
  8
0
 48
50.0
100
AcDbBlockBegin
  2
*D6
 70
     1
 10
0.0
 20
0.0
 30
0.0
  3
*D6
  1

  0
LINE
  5
16465
330
1639B
100
AcDbEntity
  8
0
  6
ByBlock
 62
     0
 48
50.0
100
AcDbLine
 10
4799.673057123653
 20
6962.497424545865
 30
0.0
 11
4799.673057123653
 21
6388.0666537797
 31
0.0
  0
LINE
  5
16466
330
1639B
100
AcDbEntity
  8
0
  6
ByBlock
 62
     0
 48
50.0
100
AcDbLine
 10
4744.673057123656
 20
6962.497424545862
 30
0.0
 11
4744.673057123656
 21
6388.0666537797
 31
0.0
  0
LINE
  5
16467
330
1639B
100
AcDbEntity
  8
0
  6
ByBlock
 62
     0
 48
50.0
100
AcDbLine
 10
4799.673057123653
 20
6448.066653779701
 30
0.0
 11
4899.673057123653
 21
6448.066653779701
 31
0.0
  0
LINE
  5
16468
330
1639B
100
AcDbEntity
  8
0
  6
ByBlock
 62
     0
 48
50.0
100
AcDbLine
 10
4744.673057123656
 20
6448.066653779701
 30
0.0
 11
4327.70249437518
 21
6448.066653779701
 31
0.0
  0
LINE
  5
16469
330
1639B
100
AcDbEntity
  8
0
  6
ByBlock
 62
     0
 48
50.0
100
AcDbLine
 10
4799.673057123653
 20
6448.066653779701
 30
0.0
 11
4744.673057123656
 21
6448.066653779701
 31
0.0
  0
INSERT
  5
1646A
330
1639B
100
AcDbEntity
  8
0
  6
ByBlock
 62
     0
 48
50.0
100
AcDbBlockReference
  2
_DOTSMALL
 10
4799.673057123653
 20
6448.066653779701
 30
0.0
 41
100.0
 42
100.0
 43
100.0
 50
180.0
  0
INSERT
  5
1646B
330
1639B
100
AcDbEntity
  8
0
  6
ByBlock
 62
     0
 48
50.0
100
AcDbBlockReference
  2
_DOTSMALL
 10
4744.673057123656
 20
6448.066653779701
 30
0.0
 41
100.0
 42
100.0
 43
100.0
  0
MTEXT
  5
1646C
330
1639B
100
AcDbEntity
  8
0
  6
ByBlock
 62
     7
 48
50.0
100
AcDbMText
 10
4436.187775749418
 20
6548.0666537797
 30
0.0
 40
120.0
 41
0.0
 71
     5
 72
     1
  1
\A1;55
  7
STYLE1
 73
     1
 44
1.0
1001
ACAD
1000
MTEXTBEGIN
1070
    73
1070
     1
1070
    44
1040
1.0
1070
    74
1070
     0
1000
MTEXTEND
  0
POINT
  5
1646D
330
1639B
100
AcDbEntity
  8
DEFPOINTS
  6
ByBlock
 62
     0
 48
50.0
100
AcDbPoint
 10
4799.673057123653
 20
6982.497424545865
 30
0.0
  0
POINT
  5
1646E
330
1639B
100
AcDbEntity
  8
DEFPOINTS
  6
ByBlock
 62
     0
 48
50.0
100
AcDbPoint
 10
4744.673057123656
 20
6982.497424545861
 30
0.0
  0
POINT
  5
1646F
330
1639B
100
AcDbEntity
  8
DEFPOINTS
  6
ByBlock
 62
     0
 48
50.0
100
AcDbPoint
 10
4744.673057123656
 20
6448.066653779701
 30
0.0
  0
ENDBLK
  5
16470
330
1639B
100
AcDbEntity
  8
0
 48
50.0
100
AcDbBlockEnd
  0
BLOCK
  5
16471
330
163A9
100
AcDbEntity
  8
0
 48
50.0
100
AcDbBlockBegin
  2
*D7
 70
     1
 10
0.0
 20
0.0
 30
0.0
  3
*D7
  1

  0
LINE
  5
16472
330
163A9
100
AcDbEntity
  8
0
  6
ByBlock
 62
     0
 48
50.0
100
AcDbLine
 10
4847.673057123657
 20
6988.497424545865
 30
0.0
 11
4847.673057123657
 21
6388.0666537797
 31
0.0
  0
LINE
  5
16473
330
163A9
100
AcDbEntity
  8
0
  6
ByBlock
 62
     0
 48
50.0
100
AcDbLine
 10
4799.673057123653
 20
6962.497424545865
 30
0.0
 11
4799.673057123653
 21
6388.0666537797
 31
0.0
  0
LINE
  5
16474
330
163A9
100
AcDbEntity
  8
0
  6
ByBlock
 62
     0
 48
50.0
100
AcDbLine
 10
4847.673057123657
 20
6448.066653779701
 30
0.0
 11
4947.673057123656
 21
6448.066653779701
 31
0.0
  0
LINE
  5
16475
330
163A9
100
AcDbEntity
  8
0
  6
ByBlock
 62
     0
 48
50.0
100
AcDbLine
 10
4799.673057123653
 20
6448.066653779701
 30
0.0
 11
4699.673057123653
 21
6448.066653779701
 31
0.0
  0
MTEXT
  5
16476
330
163A9
100
AcDbEntity
  8
0
  6
ByBlock
 62
     7
 48
50.0
100
AcDbMText
 10
4960.575028123714
 20
6548.0666537797
 30
0.0
 40
120.0
 41
0.0
 71
     5
 72
     1
  1
\A1;48
  7
STYLE1
 73
     1
 44
1.0
1001
ACAD
1000
MTEXTBEGIN
1070
    73
1070
     1
1070
    44
1040
1.0
1070
    74
1070
     0
1000
MTEXTEND
  0
LINE
  5
16477
330
163A9
100
AcDbEntity
  8
0
  6
ByBlock
 62
     0
 48
50.0
100
AcDbLine
 10
4847.673057123657
 20
6448.066653779701
 30
0.0
 11
4799.673057123653
 21
6448.066653779701
 31
0.0
  0
LINE
  5
16478
330
163A9
100
AcDbEntity
  8
0
  6
ByBlock
 62
     0
 48
50.0
100
AcDbLine
 10
4847.673057123657
 20
6448.066653779701
 30
0.0
 11
4799.673057123653
 21
6448.066653779701
 31
0.0
  0
INSERT
  5
16479
330
163A9
100
AcDbEntity
  8
0
  6
ByBlock
 62
     0
 48
50.0
100
AcDbBlockReference
  2
_DOTSMALL
 10
4847.673057123657
 20
6448.066653779701
 30
0.0
 41
100.0
 42
100.0
 43
100.0
 50
180.0
  0
INSERT
  5
1647A
330
163A9
100
AcDbEntity
  8
0
  6
ByBlock
 62
     0
 48
50.0
100
AcDbBlockReference
  2
_DOTSMALL
 10
4799.673057123653
 20
6448.066653779701
 30
0.0
 41
100.0
 42
100.0
 43
100.0
  0
POINT
  5
1647B
330
163A9
100
AcDbEntity
  8
DEFPOINTS
  6
ByBlock
 62
     0
 48
50.0
100
AcDbPoint
 10
4847.673057123657
 20
7008.497424545864
 30
0.0
  0
POINT
  5
1647C
330
163A9
100
AcDbEntity
  8
DEFPOINTS
  6
ByBlock
 62
     0
 48
50.0
100
AcDbPoint
 10
4799.673057123653
 20
6982.497424545865
 30
0.0
  0
POINT
  5
1647D
330
163A9
100
AcDbEntity
  8
DEFPOINTS
  6
ByBlock
 62
     0
 48
50.0
100
AcDbPoint
 10
4799.673057123653
 20
6448.066653779701
 30
0.0
  0
ENDBLK
  5
1647E
330
163A9
100
AcDbEntity
  8
0
 48
50.0
100
AcDbBlockEnd
  0
BLOCK
  5
1647F
330
163B8
100
AcDbEntity
  8
0
 48
50.0
100
AcDbBlockBegin
  2
*D8
 70
     1
 10
0.0
 20
0.0
 30
0.0
  3
*D8
  1

  0
LINE
  5
16480
330
163B8
100
AcDbEntity
  8
0
  6
ByBlock
 62
     0
 48
50.0
100
AcDbLine
 10
7319.67305712364
 20
6962.497424545952
 30
0.0
 11
7319.67305712364
 21
6388.0666537797
 31
0.0
  0
LINE
  5
16481
330
163B8
100
AcDbEntity
  8
0
  6
ByBlock
 62
     0
 48
50.0
100
AcDbLine
 10
7271.673057123638
 20
6988.497424545865
 30
0.0
 11
7271.673057123638
 21
6388.0666537797
 31
0.0
  0
LINE
  5
16482
330
163B8
100
AcDbEntity
  8
0
  6
ByBlock
 62
     0
 48
50.0
100
AcDbLine
 10
7319.67305712364
 20
6448.066653779701
 30
0.0
 11
7419.67305712364
 21
6448.066653779701
 31
0.0
  0
LINE
  5
16483
330
163B8
100
AcDbEntity
  8
0
  6
ByBlock
 62
     0
 48
50.0
100
AcDbLine
 10
7271.673057123638
 20
6448.066653779701
 30
0.0
 11
7171.673057123638
 21
6448.066653779701
 31
0.0
  0
MTEXT
  5
16484
330
163B8
100
AcDbEntity
  8
0
  6
ByBlock
 62
     7
 48
50.0
100
AcDbMText
 10
7160.710159474891
 20
6548.0666537797
 30
0.0
 40
120.0
 41
0.0
 71
     5
 72
     1
  1
\A1;48
  7
STYLE1
 73
     1
 44
1.0
1001
ACAD
1000
MTEXTBEGIN
1070
    73
1070
     1
1070
    44
1040
1.0
1070
    74
1070
     0
1000
MTEXTEND
  0
LINE
  5
16485
330
163B8
100
AcDbEntity
  8
0
  6
ByBlock
 62
     0
 48
50.0
100
AcDbLine
 10
7319.67305712364
 20
6448.066653779701
 30
0.0
 11
7271.673057123638
 21
6448.066653779701
 31
0.0
  0
LINE
  5
16486
330
163B8
100
AcDbEntity
  8
0
  6
ByBlock
 62
     0
 48
50.0
100
AcDbLine
 10
7319.67305712364
 20
6448.066653779701
 30
0.0
 11
7271.673057123638
 21
6448.066653779701
 31
0.0
  0
INSERT
  5
16487
330
163B8
100
AcDbEntity
  8
0
  6
ByBlock
 62
     0
 48
50.0
100
AcDbBlockReference
  2
_DOTSMALL
 10
7319.67305712364
 20
6448.066653779701
 30
0.0
 41
100.0
 42
100.0
 43
100.0
 50
180.0
  0
INSERT
  5
16488
330
163B8
100
AcDbEntity
  8
0
  6
ByBlock
 62
     0
 48
50.0
100
AcDbBlockReference
  2
_DOTSMALL
 10
7271.673057123638
 20
6448.066653779701
 30
0.0
 41
100.0
 42
100.0
 43
100.0
  0
POINT
  5
16489
330
163B8
100
AcDbEntity
  8
DEFPOINTS
  6
ByBlock
 62
     0
 48
50.0
100
AcDbPoint
 10
7319.67305712364
 20
6982.497424545953
 30
0.0
  0
POINT
  5
1648A
330
163B8
100
AcDbEntity
  8
DEFPOINTS
  6
ByBlock
 62
     0
 48
50.0
100
AcDbPoint
 10
7271.673057123638
 20
7008.497424545865
 30
0.0
  0
POINT
  5
1648B
330
163B8
100
AcDbEntity
  8
DEFPOINTS
  6
ByBlock
 62
     0
 48
50.0
100
AcDbPoint
 10
7271.673057123638
 20
6448.066653779701
 30
0.0
  0
ENDBLK
  5
1648C
330
163B8
100
AcDbEntity
  8
0
 48
50.0
100
AcDbBlockEnd
  0
BLOCK
  5
1648D
330
163C7
100
AcDbEntity
  8
0
 48
50.0
100
AcDbBlockBegin
  2
*D9
 70
     1
 10
0.0
 20
0.0
 30
0.0
  3
*D9
  1

  0
LINE
  5
1648E
330
163C7
100
AcDbEntity
  8
0
  6
ByBlock
 62
     0
 48
50.0
100
AcDbLine
 10
7374.673057123638
 20
6962.497424545957
 30
0.0
 11
7374.673057123638
 21
6388.066653779702
 31
0.0
  0
LINE
  5
1648F
330
163C7
100
AcDbEntity
  8
0
  6
ByBlock
 62
     0
 48
50.0
100
AcDbLine
 10
7319.67305712364
 20
6962.497424545952
 30
0.0
 11
7319.67305712364
 21
6388.066653779702
 31
0.0
  0
LINE
  5
16490
330
163C7
100
AcDbEntity
  8
0
  6
ByBlock
 62
     0
 48
50.0
100
AcDbLine
 10
7319.67305712364
 20
6448.066653779702
 30
0.0
 11
7219.67305712364
 21
6448.066653779702
 31
0.0
  0
LINE
  5
16491
330
163C7
100
AcDbEntity
  8
0
  6
ByBlock
 62
     0
 48
50.0
100
AcDbLine
 10
7374.673057123638
 20
6448.066653779702
 30
0.0
 11
7791.643619872115
 21
6448.066653779702
 31
0.0
  0
LINE
  5
16492
330
163C7
100
AcDbEntity
  8
0
  6
ByBlock
 62
     0
 48
50.0
100
AcDbLine
 10
7319.67305712364
 20
6448.066653779702
 30
0.0
 11
7374.673057123638
 21
6448.066653779702
 31
0.0
  0
INSERT
  5
16493
330
163C7
100
AcDbEntity
  8
0
  6
ByBlock
 62
     0
 48
50.0
100
AcDbBlockReference
  2
_DOTSMALL
 10
7319.67305712364
 20
6448.066653779702
 30
0.0
 41
100.0
 42
100.0
 43
100.0
  0
INSERT
  5
16494
330
163C7
100
AcDbEntity
  8
0
  6
ByBlock
 62
     0
 48
50.0
100
AcDbBlockReference
  2
_DOTSMALL
 10
7374.673057123638
 20
6448.066653779702
 30
0.0
 41
100.0
 42
100.0
 43
100.0
 50
180.0
  0
MTEXT
  5
16495
330
163C7
100
AcDbEntity
  8
0
  6
ByBlock
 62
     7
 48
50.0
100
AcDbMText
 10
7683.158338497877
 20
6548.066653779702
 30
0.0
 40
120.0
 41
0.0
 71
     5
 72
     1
  1
\A1;55
  7
STYLE1
 73
     1
 44
1.0
1001
ACAD
1000
MTEXTBEGIN
1070
    73
1070
     1
1070
    44
1040
1.0
1070
    74
1070
     0
1000
MTEXTEND
  0
POINT
  5
16496
330
163C7
100
AcDbEntity
  8
DEFPOINTS
  6
ByBlock
 62
     0
 48
50.0
100
AcDbPoint
 10
7374.673057123638
 20
6982.497424545956
 30
0.0
  0
POINT
  5
16497
330
163C7
100
AcDbEntity
  8
DEFPOINTS
  6
ByBlock
 62
     0
 48
50.0
100
AcDbPoint
 10
7319.67305712364
 20
6982.497424545953
 30
0.0
  0
POINT
  5
16498
330
163C7
100
AcDbEntity
  8
DEFPOINTS
  6
ByBlock
 62
     0
 48
50.0
100
AcDbPoint
 10
7319.67305712364
 20
6448.066653779702
 30
0.0
  0
ENDBLK
  5
16499
330
163C7
100
AcDbEntity
  8
0
 48
50.0
100
AcDbBlockEnd
  0
BLOCK
  5
172A1
330
163E1
100
AcDbEntity
  8
0
 48
50.0
100
AcDbBlockBegin
  2
*D10
 70
     1
 10
0.0
 20
0.0
 30
0.0
  3
*D10
  1

  0
LINE
  5
18559
330
163E1
100
AcDbEntity
  8
寸法
 62
     0
 48
50.0
370
    -2
100
AcDbLine
 10
5429.673057123663
 20
8952.497424545869
 30
0.0
 11
5429.673057123663
 21
9208.305644170968
 31
0.0
  0
LINE
  5
1855A
330
163E1
100
AcDbEntity
  8
寸法
 62
     0
 48
50.0
370
    -2
100
AcDbLine
 10
7529.673057123663
 20
8952.497424545963
 30
0.0
 11
7529.673057123663
 21
9208.305644170968
 31
0.0
  0
LINE
  5
1855B
330
163E1
100
AcDbEntity
  8
寸法
 62
     0
 48
50.0
370
    -2
100
AcDbLine
 10
5429.673057123663
 20
9148.305644170966
 30
0.0
 11
7529.673057123663
 21
9148.305644170966
 31
0.0
  0
INSERT
  5
1855C
330
163E1
100
AcDbEntity
  8
寸法
 62
     0
 48
50.0
370
    -2
100
AcDbBlockReference
  2
_DOTSMALL
 10
5429.673057123663
 20
9148.305644170966
 30
0.0
 41
100.0
 42
100.0
 43
100.0
 50
180.0
  0
INSERT
  5
1855D
330
163E1
100
AcDbEntity
  8
寸法
 62
     0
 48
50.0
370
    -2
100
AcDbBlockReference
  2
_DOTSMALL
 10
7529.673057123663
 20
9148.305644170966
 30
0.0
 41
100.0
 42
100.0
 43
100.0
  0
MTEXT
  5
1855E
330
163E1
100
AcDbEntity
  8
寸法
 62
     7
 48
50.0
100
AcDbMText
 10
6479.673057123664
 20
9248.317455194589
 30
0.0
 40
120.0
 41
0.0
 71
     5
 72
     1
  1
\A1;5X420=2100
  7
STYLE1
 73
     1
 44
1.0
1001
ACAD
1000
MTEXTBEGIN
1070
    73
1070
     1
1070
    44
1040
1.0
1070
    74
1070
     0
1000
MTEXTEND
  0
POINT
  5
1855F
330
163E1
100
AcDbEntity
  8
DEFPOINTS
 62
     0
 48
50.0
100
AcDbPoint
 10
5429.673057123663
 20
8932.49742454587
 30
0.0
  0
POINT
  5
18560
330
163E1
100
AcDbEntity
  8
DEFPOINTS
 62
     0
 48
50.0
100
AcDbPoint
 10
7529.673057123663
 20
8932.497424545964
 30
0.0
  0
POINT
  5
18561
330
163E1
100
AcDbEntity
  8
DEFPOINTS
 62
     0
 48
50.0
100
AcDbPoint
 10
7529.673057123663
 20
9148.305644170966
 30
0.0
  0
ENDBLK
  5
172AB
330
163E1
100
AcDbEntity
  8
0
 48
50.0
100
AcDbBlockEnd
  0
BLOCK
  5
164B0
330
163ED
100
AcDbEntity
  8
0
 48
50.0
100
AcDbBlockBegin
  2
*D11
 70
     1
 10
0.0
 20
0.0
 30
0.0
  3
*D11
  1

  0
LINE
  5
164B1
330
163ED
100
AcDbEntity
  8
0
  6
ByBlock
 62
     0
 48
50.0
100
AcDbLine
 10
4744.673057123629
 20
10052.49742454587
 30
0.0
 11
4744.673057123629
 21
10308.30564417085
 31
0.0
  0
LINE
  5
164B2
330
163ED
100
AcDbEntity
  8
0
  6
ByBlock
 62
     0
 48
50.0
100
AcDbLine
 10
4799.673057123663
 20
10052.49742454587
 30
0.0
 11
4799.673057123663
 21
10308.30564417085
 31
0.0
  0
LINE
  5
164B3
330
163ED
100
AcDbEntity
  8
0
  6
ByBlock
 62
     0
 48
50.0
100
AcDbLine
 10
4799.673057123663
 20
10248.30564417085
 30
0.0
 11
4899.673057123663
 21
10248.30564417085
 31
0.0
  0
LINE
  5
164B4
330
163ED
100
AcDbEntity
  8
0
  6
ByBlock
 62
     0
 48
50.0
100
AcDbLine
 10
4744.673057123629
 20
10248.30564417085
 30
0.0
 11
4327.702494375151
 21
10248.30564417085
 31
0.0
  0
LINE
  5
164B5
330
163ED
100
AcDbEntity
  8
0
  6
ByBlock
 62
     0
 48
50.0
100
AcDbLine
 10
4799.673057123663
 20
10248.30564417085
 30
0.0
 11
4744.673057123629
 21
10248.30564417085
 31
0.0
  0
INSERT
  5
164B6
330
163ED
100
AcDbEntity
  8
0
  6
ByBlock
 62
     0
 48
50.0
100
AcDbBlockReference
  2
_DOTSMALL
 10
4799.673057123663
 20
10248.30564417085
 30
0.0
 41
100.0
 42
100.0
 43
100.0
 50
180.0
  0
INSERT
  5
164B7
330
163ED
100
AcDbEntity
  8
0
  6
ByBlock
 62
     0
 48
50.0
100
AcDbBlockReference
  2
_DOTSMALL
 10
4744.673057123629
 20
10248.30564417085
 30
0.0
 41
100.0
 42
100.0
 43
100.0
  0
MTEXT
  5
164B8
330
163ED
100
AcDbEntity
  8
0
  6
ByBlock
 62
     7
 48
50.0
100
AcDbMText
 10
4436.187775749391
 20
10348.30564417085
 30
0.0
 40
120.0
 41
0.0
 71
     5
 72
     1
  1
\A1;55
  7
STYLE1
 73
     1
 44
1.0
1001
ACAD
1000
MTEXTBEGIN
1070
    73
1070
     1
1070
    44
1040
1.0
1070
    74
1070
     0
1000
MTEXTEND
  0
POINT
  5
164B9
330
163ED
100
AcDbEntity
  8
DEFPOINTS
  6
ByBlock
 62
     0
 48
50.0
100
AcDbPoint
 10
4744.673057123629
 20
10032.49742454587
 30
0.0
  0
POINT
  5
164BA
330
163ED
100
AcDbEntity
  8
DEFPOINTS
  6
ByBlock
 62
     0
 48
50.0
100
AcDbPoint
 10
4799.673057123663
 20
10032.49742454587
 30
0.0
  0
POINT
  5
164BB
330
163ED
100
AcDbEntity
  8
DEFPOINTS
  6
ByBlock
 62
     0
 48
50.0
100
AcDbPoint
 10
4799.673057123663
 20
10248.30564417085
 30
0.0
  0
ENDBLK
  5
164BC
330
163ED
100
AcDbEntity
  8
0
 48
50.0
100
AcDbBlockEnd
  0
BLOCK
  5
164BD
330
163FB
100
AcDbEntity
  8
0
 48
50.0
100
AcDbBlockBegin
  2
*D12
 70
     1
 10
0.0
 20
0.0
 30
0.0
  3
*D12
  1

  0
LINE
  5
164BE
330
163FB
100
AcDbEntity
  8
0
  6
ByBlock
 62
     0
 48
50.0
100
AcDbLine
 10
7319.673057123664
 20
10052.49742454596
 30
0.0
 11
7319.673057123664
 21
10308.30564417095
 31
0.0
  0
LINE
  5
164BF
330
163FB
100
AcDbEntity
  8
0
  6
ByBlock
 62
     0
 48
50.0
100
AcDbLine
 10
7374.673057123664
 20
10052.49742454596
 30
0.0
 11
7374.673057123664
 21
10308.30564417095
 31
0.0
  0
LINE
  5
164C0
330
163FB
100
AcDbEntity
  8
0
  6
ByBlock
 62
     0
 48
50.0
100
AcDbLine
 10
7319.673057123664
 20
10248.30564417095
 30
0.0
 11
7219.673057123664
 21
10248.30564417095
 31
0.0
  0
LINE
  5
164C1
330
163FB
100
AcDbEntity
  8
0
  6
ByBlock
 62
     0
 48
50.0
100
AcDbLine
 10
7374.673057123664
 20
10248.30564417095
 30
0.0
 11
7791.643619872141
 21
10248.30564417095
 31
0.0
  0
LINE
  5
164C2
330
163FB
100
AcDbEntity
  8
0
  6
ByBlock
 62
     0
 48
50.0
100
AcDbLine
 10
7319.673057123664
 20
10248.30564417095
 30
0.0
 11
7374.673057123664
 21
10248.30564417095
 31
0.0
  0
INSERT
  5
164C3
330
163FB
100
AcDbEntity
  8
0
  6
ByBlock
 62
     0
 48
50.0
100
AcDbBlockReference
  2
_DOTSMALL
 10
7319.673057123664
 20
10248.30564417095
 30
0.0
 41
100.0
 42
100.0
 43
100.0
  0
INSERT
  5
164C4
330
163FB
100
AcDbEntity
  8
0
  6
ByBlock
 62
     0
 48
50.0
100
AcDbBlockReference
  2
_DOTSMALL
 10
7374.673057123664
 20
10248.30564417095
 30
0.0
 41
100.0
 42
100.0
 43
100.0
 50
180.0
  0
MTEXT
  5
164C5
330
163FB
100
AcDbEntity
  8
0
  6
ByBlock
 62
     7
 48
50.0
100
AcDbMText
 10
7683.158338497903
 20
10348.30564417095
 30
0.0
 40
120.0
 41
0.0
 71
     5
 72
     1
  1
\A1;55
  7
STYLE1
 73
     1
 44
1.0
1001
ACAD
1000
MTEXTBEGIN
1070
    73
1070
     1
1070
    44
1040
1.0
1070
    74
1070
     0
1000
MTEXTEND
  0
POINT
  5
164C6
330
163FB
100
AcDbEntity
  8
DEFPOINTS
  6
ByBlock
 62
     0
 48
50.0
100
AcDbPoint
 10
7319.673057123664
 20
10032.49742454596
 30
0.0
  0
POINT
  5
164C7
330
163FB
100
AcDbEntity
  8
DEFPOINTS
  6
ByBlock
 62
     0
 48
50.0
100
AcDbPoint
 10
7374.673057123664
 20
10032.49742454596
 30
0.0
  0
POINT
  5
164C8
330
163FB
100
AcDbEntity
  8
DEFPOINTS
  6
ByBlock
 62
     0
 48
50.0
100
AcDbPoint
 10
7374.673057123664
 20
10248.30564417095
 30
0.0
  0
ENDBLK
  5
164C9
330
163FB
100
AcDbEntity
  8
0
 48
50.0
100
AcDbBlockEnd
  0
BLOCK
  5
174F7
330
16908
100
AcDbEntity
  8
0
 48
50.0
100
AcDbBlockBegin
  2
*D13
 70
     1
 10
0.0
 20
0.0
 30
0.0
  3
*D13
  1

  0
LINE
  5
174F8
330
16908
100
AcDbEntity
  8
0
  6
ByBlock
 62
     0
 48
50.0
100
AcDbLine
 10
6479.67305712368
 20
8952.497424545869
 30
0.0
 11
6479.67305712368
 21
9457.627117727261
 31
0.0
  0
LINE
  5
174F9
330
16908
100
AcDbEntity
  8
0
  6
ByBlock
 62
     0
 48
50.0
100
AcDbLine
 10
8689.673057123664
 20
8952.497424545963
 30
0.0
 11
8689.673057123664
 21
9457.627117727261
 31
0.0
  0
LINE
  5
174FA
330
16908
100
AcDbEntity
  8
0
  6
ByBlock
 62
     0
 48
50.0
100
AcDbLine
 10
6479.67305712368
 20
9397.62711772726
 30
0.0
 11
8689.673057123664
 21
9397.62711772726
 31
0.0
  0
INSERT
  5
174FB
330
16908
100
AcDbEntity
  8
0
  6
ByBlock
 62
     0
 48
50.0
100
AcDbBlockReference
  2
_DOTSMALL
 10
6479.67305712368
 20
9397.62711772726
 30
0.0
 41
100.0
 42
100.0
 43
100.0
 50
180.0
  0
INSERT
  5
174FC
330
16908
100
AcDbEntity
  8
0
  6
ByBlock
 62
     0
 48
50.0
100
AcDbBlockReference
  2
_DOTSMALL
 10
8689.673057123664
 20
9397.62711772726
 30
0.0
 41
100.0
 42
100.0
 43
100.0
  0
MTEXT
  5
174FD
330
16908
100
AcDbEntity
  8
0
  6
ByBlock
 62
     7
 48
50.0
100
AcDbMText
 10
7584.673057123672
 20
9497.638928750882
 30
0.0
 40
120.0
 41
0.0
 71
     5
 72
     1
  1
\A1;2210
  7
STYLE1
 73
     1
 44
1.0
1001
ACAD
1000
MTEXTBEGIN
1070
    73
1070
     1
1070
    44
1040
1.0
1070
    74
1070
     0
1000
MTEXTEND
  0
POINT
  5
174FE
330
16908
100
AcDbEntity
  8
DEFPOINTS
  6
ByBlock
 62
     0
 48
50.0
100
AcDbPoint
 10
6479.67305712368
 20
8932.49742454587
 30
0.0
  0
POINT
  5
174FF
330
16908
100
AcDbEntity
  8
DEFPOINTS
  6
ByBlock
 62
     0
 48
50.0
100
AcDbPoint
 10
8689.673057123664
 20
8932.497424545964
 30
0.0
  0
POINT
  5
17500
330
16908
100
AcDbEntity
  8
DEFPOINTS
  6
ByBlock
 62
     0
 48
50.0
100
AcDbPoint
 10
8689.673057123664
 20
9397.62711772726
 30
0.0
  0
ENDBLK
  5
17501
330
16908
100
AcDbEntity
  8
0
 48
50.0
100
AcDbBlockEnd
  0
BLOCK
  5
17C93
330
17C89
100
AcDbEntity
  8
0
 48
50.0
100
AcDbBlockBegin
  2
*D14
 70
     1
 10
0.0
 20
0.0
 30
0.0
  3
*D14
  1

  0
LINE
  5
185D1
330
17C89
100
AcDbEntity
  8
寸法
 62
     0
 48
50.0
370
    -2
100
AcDbLine
 10
5324.673057123647
 20
4932.931598713267
 30
0.0
 11
5324.673057123647
 21
5393.301987862156
 31
0.0
  0
LINE
  5
185D2
330
17C89
100
AcDbEntity
  8
寸法
 62
     0
 48
50.0
370
    -2
100
AcDbLine
 10
7634.673057123665
 20
4932.931598713264
 30
0.0
 11
7634.673057123665
 21
5393.301987862156
 31
0.0
  0
LINE
  5
185D3
330
17C89
100
AcDbEntity
  8
寸法
 62
     0
 48
50.0
370
    -2
100
AcDbLine
 10
5324.673057123647
 20
5333.301987862157
 30
0.0
 11
7634.673057123665
 21
5333.301987862157
 31
0.0
  0
INSERT
  5
185D4
330
17C89
100
AcDbEntity
  8
寸法
 62
     0
 48
50.0
370
    -2
100
AcDbBlockReference
  2
_DOTSMALL
 10
5324.673057123647
 20
5333.301987862157
 30
0.0
 41
100.0
 42
100.0
 43
100.0
 50
180.0
  0
INSERT
  5
185D5
330
17C89
100
AcDbEntity
  8
寸法
 62
     0
 48
50.0
370
    -2
100
AcDbBlockReference
  2
_DOTSMALL
 10
7634.673057123665
 20
5333.301987862157
 30
0.0
 41
100.0
 42
100.0
 43
100.0
  0
MTEXT
  5
185D6
330
17C89
100
AcDbEntity
  8
寸法
 62
     7
 48
50.0
100
AcDbMText
 10
6479.673057123656
 20
5433.313798885778
 30
0.0
 40
120.0
 41
0.0
 71
     5
 72
     1
  1
\A1;2310
  7
STYLE1
 73
     1
 44
1.0
1001
ACAD
1000
MTEXTBEGIN
1070
    73
1070
     1
1070
    44
1040
1.0
1070
    74
1070
     0
1000
MTEXTEND
  0
POINT
  5
185D7
330
17C89
100
AcDbEntity
  8
DEFPOINTS
 62
     0
 48
50.0
100
AcDbPoint
 10
5324.673057123647
 20
4912.931598713267
 30
0.0
  0
POINT
  5
185D8
330
17C89
100
AcDbEntity
  8
DEFPOINTS
 62
     0
 48
50.0
100
AcDbPoint
 10
7634.673057123665
 20
4912.931598713264
 30
0.0
  0
POINT
  5
185D9
330
17C89
100
AcDbEntity
  8
DEFPOINTS
 62
     0
 48
50.0
100
AcDbPoint
 10
7634.673057123665
 20
5333.301987862157
 30
0.0
  0
ENDBLK
  5
17C94
330
17C89
100
AcDbEntity
  8
0
 48
50.0
100
AcDbBlockEnd
  0
BLOCK
  5
17CA1
330
17C95
100
AcDbEntity
  8
0
 48
50.0
100
AcDbBlockBegin
  2
*D15
 70
     1
 10
0.0
 20
0.0
 30
0.0
  3
*D15
  1

  0
LINE
  5
18197
330
17C95
100
AcDbEntity
  8
寸法
 62
     0
 48
50.0
370
    -2
100
AcDbLine
 10
7634.673057123665
 20
4932.931598713264
 30
0.0
 11
7634.673057123665
 21
5177.551858140534
 31
0.0
  0
LINE
  5
18198
330
17C95
100
AcDbEntity
  8
寸法
 62
     0
 48
50.0
370
    -2
100
AcDbLine
 10
7584.673057123666
 20
4932.931598713267
 30
0.0
 11
7584.673057123666
 21
5177.551858140534
 31
0.0
  0
LINE
  5
18199
330
17C95
100
AcDbEntity
  8
寸法
 62
     0
 48
50.0
370
    -2
100
AcDbLine
 10
7584.673057123666
 20
5117.551858140534
 30
0.0
 11
7484.673057123666
 21
5117.551858140534
 31
0.0
  0
LINE
  5
1819A
330
17C95
100
AcDbEntity
  8
寸法
 62
     0
 48
50.0
370
    -2
100
AcDbLine
 10
7634.673057123665
 20
5117.551858140534
 30
0.0
 11
8054.205582592393
 21
5117.551858140534
 31
0.0
  0
LINE
  5
1819B
330
17C95
100
AcDbEntity
  8
寸法
 62
     0
 48
50.0
370
    -2
100
AcDbLine
 10
7584.673057123666
 20
5117.551858140534
 30
0.0
 11
7634.673057123665
 21
5117.551858140534
 31
0.0
  0
INSERT
  5
1819C
330
17C95
100
AcDbEntity
  8
寸法
 62
     0
 48
50.0
370
    -2
100
AcDbBlockReference
  2
_DOTSMALL
 10
7584.673057123666
 20
5117.551858140534
 30
0.0
 41
100.0
 42
100.0
 43
100.0
  0
INSERT
  5
1819D
330
17C95
100
AcDbEntity
  8
寸法
 62
     0
 48
50.0
370
    -2
100
AcDbBlockReference
  2
_DOTSMALL
 10
7634.673057123665
 20
5117.551858140534
 30
0.0
 41
100.0
 42
100.0
 43
100.0
 50
180.0
  0
MTEXT
  5
1819E
330
17C95
100
AcDbEntity
  8
寸法
 62
     7
 48
50.0
100
AcDbMText
 10
7948.158338497903
 20
5217.551858140534
 30
0.0
 40
120.0
 41
0.0
 71
     5
 72
     1
  1
\A1;50
  7
STYLE1
 73
     1
 44
1.0
1001
ACAD
1000
MTEXTBEGIN
1070
    73
1070
     1
1070
    44
1040
1.0
1070
    74
1070
     0
1000
MTEXTEND
  0
POINT
  5
1819F
330
17C95
100
AcDbEntity
  8
DEFPOINTS
 62
     0
 48
50.0
100
AcDbPoint
 10
7634.673057123665
 20
4912.931598713264
 30
0.0
  0
POINT
  5
181A0
330
17C95
100
AcDbEntity
  8
DEFPOINTS
 62
     0
 48
50.0
100
AcDbPoint
 10
7584.673057123666
 20
4912.931598713267
 30
0.0
  0
POINT
  5
181A1
330
17C95
100
AcDbEntity
  8
DEFPOINTS
 62
     0
 48
50.0
100
AcDbPoint
 10
7584.673057123666
 20
5117.551858140534
 30
0.0
  0
ENDBLK
  5
17CA2
330
17C95
100
AcDbEntity
  8
0
 48
50.0
100
AcDbBlockEnd
  0
BLOCK
  5
17CAF
330
17CA3
100
AcDbEntity
  8
0
 48
50.0
100
AcDbBlockBegin
  2
*D16
 70
     1
 10
0.0
 20
0.0
 30
0.0
  3
*D16
  1

  0
LINE
  5
181AB
330
17CA3
100
AcDbEntity
  8
寸法
 62
     0
 48
50.0
370
    -2
100
AcDbLine
 10
5374.673057123647
 20
4932.931598713268
 30
0.0
 11
5374.673057123647
 21
5177.551858140534
 31
0.0
  0
LINE
  5
181AC
330
17CA3
100
AcDbEntity
  8
寸法
 62
     0
 48
50.0
370
    -2
100
AcDbLine
 10
5324.673057123647
 20
4932.931598713267
 30
0.0
 11
5324.673057123647
 21
5177.551858140534
 31
0.0
  0
LINE
  5
181AD
330
17CA3
100
AcDbEntity
  8
寸法
 62
     0
 48
50.0
370
    -2
100
AcDbLine
 10
5374.673057123647
 20
5117.551858140534
 30
0.0
 11
5474.673057123648
 21
5117.551858140534
 31
0.0
  0
LINE
  5
181AE
330
17CA3
100
AcDbEntity
  8
寸法
 62
     0
 48
50.0
370
    -2
100
AcDbLine
 10
5324.673057123647
 20
5117.551858140534
 30
0.0
 11
4905.140531654913
 21
5117.551858140534
 31
0.0
  0
LINE
  5
181AF
330
17CA3
100
AcDbEntity
  8
寸法
 62
     0
 48
50.0
370
    -2
100
AcDbLine
 10
5374.673057123647
 20
5117.551858140534
 30
0.0
 11
5324.673057123647
 21
5117.551858140534
 31
0.0
  0
INSERT
  5
181B0
330
17CA3
100
AcDbEntity
  8
寸法
 62
     0
 48
50.0
370
    -2
100
AcDbBlockReference
  2
_DOTSMALL
 10
5374.673057123647
 20
5117.551858140534
 30
0.0
 41
100.0
 42
100.0
 43
100.0
 50
180.0
  0
INSERT
  5
181B1
330
17CA3
100
AcDbEntity
  8
寸法
 62
     0
 48
50.0
370
    -2
100
AcDbBlockReference
  2
_DOTSMALL
 10
5324.673057123647
 20
5117.551858140534
 30
0.0
 41
100.0
 42
100.0
 43
100.0
  0
MTEXT
  5
181B2
330
17CA3
100
AcDbEntity
  8
寸法
 62
     7
 48
50.0
100
AcDbMText
 10
5011.187775749401
 20
5217.551858140534
 30
0.0
 40
120.0
 41
0.0
 71
     5
 72
     1
  1
\A1;50
  7
STYLE1
 73
     1
 44
1.0
1001
ACAD
1000
MTEXTBEGIN
1070
    73
1070
     1
1070
    44
1040
1.0
1070
    74
1070
     0
1000
MTEXTEND
  0
POINT
  5
181B3
330
17CA3
100
AcDbEntity
  8
DEFPOINTS
 62
     0
 48
50.0
100
AcDbPoint
 10
5374.673057123647
 20
4912.931598713267
 30
0.0
  0
POINT
  5
181B4
330
17CA3
100
AcDbEntity
  8
DEFPOINTS
 62
     0
 48
50.0
100
AcDbPoint
 10
5324.673057123647
 20
4912.931598713267
 30
0.0
  0
POINT
  5
181B5
330
17CA3
100
AcDbEntity
  8
DEFPOINTS
 62
     0
 48
50.0
100
AcDbPoint
 10
5324.673057123647
 20
5117.551858140534
 30
0.0
  0
ENDBLK
  5
17CB0
330
17CA3
100
AcDbEntity
  8
0
 48
50.0
100
AcDbBlockEnd
  0
BLOCK
  5
17CBB
330
17CB1
100
AcDbEntity
  8
0
 48
50.0
100
AcDbBlockBegin
  2
*D17
 70
     1
 10
0.0
 20
0.0
 30
0.0
  3
*D17
  1

  0
LINE
  5
185C8
330
17CB1
100
AcDbEntity
  8
寸法
 62
     0
 48
50.0
370
    -2
100
AcDbLine
 10
7584.673057123666
 20
4932.931598713267
 30
0.0
 11
7584.673057123666
 21
5177.551858140534
 31
0.0
  0
LINE
  5
185C9
330
17CB1
100
AcDbEntity
  8
寸法
 62
     0
 48
50.0
370
    -2
100
AcDbLine
 10
5374.673057123647
 20
4932.931598713268
 30
0.0
 11
5374.673057123647
 21
5177.551858140534
 31
0.0
  0
LINE
  5
185CA
330
17CB1
100
AcDbEntity
  8
寸法
 62
     0
 48
50.0
370
    -2
100
AcDbLine
 10
7584.673057123666
 20
5117.551858140534
 30
0.0
 11
5374.673057123647
 21
5117.551858140534
 31
0.0
  0
INSERT
  5
185CB
330
17CB1
100
AcDbEntity
  8
寸法
 62
     0
 48
50.0
370
    -2
100
AcDbBlockReference
  2
_DOTSMALL
 10
7584.673057123666
 20
5117.551858140534
 30
0.0
 41
100.0
 42
100.0
 43
100.0
  0
INSERT
  5
185CC
330
17CB1
100
AcDbEntity
  8
寸法
 62
     0
 48
50.0
370
    -2
100
AcDbBlockReference
  2
_DOTSMALL
 10
5374.673057123647
 20
5117.551858140534
 30
0.0
 41
100.0
 42
100.0
 43
100.0
 50
180.0
  0
MTEXT
  5
185CD
330
17CB1
100
AcDbEntity
  8
寸法
 62
     7
 48
50.0
100
AcDbMText
 10
6479.673057123656
 20
5217.563669164156
 30
0.0
 40
120.0
 41
0.0
 71
     5
 72
     1
  1
\A1;柱外寸法2210
  7
STYLE1
 73
     1
 44
1.0
1001
ACAD
1000
MTEXTBEGIN
1070
    73
1070
     1
1070
    44
1040
1.0
1070
    74
1070
     0
1000
MTEXTEND
  0
POINT
  5
185CE
330
17CB1
100
AcDbEntity
  8
DEFPOINTS
 62
     0
 48
50.0
100
AcDbPoint
 10
7584.673057123666
 20
4912.931598713267
 30
0.0
  0
POINT
  5
185CF
330
17CB1
100
AcDbEntity
  8
DEFPOINTS
 62
     0
 48
50.0
100
AcDbPoint
 10
5374.673057123647
 20
4912.931598713267
 30
0.0
  0
POINT
  5
185D0
330
17CB1
100
AcDbEntity
  8
DEFPOINTS
 62
     0
 48
50.0
100
AcDbPoint
 10
5374.673057123647
 20
5117.551858140534
 30
0.0
  0
ENDBLK
  5
17CBC
330
17CB1
100
AcDbEntity
  8
0
 48
50.0
100
AcDbBlockEnd
  0
BLOCK
  5
17FAD
330
17FA3
100
AcDbEntity
  8
0
 48
50.0
100
AcDbBlockBegin
  2
*D18
 70
     1
 10
0.0
 20
0.0
 30
0.0
  3
*D18
  1

  0
LINE
  5
180FC
330
17FA3
100
AcDbEntity
  8
寸法
 62
     0
 48
50.0
370
    -2
100
AcDbLine
 10
9880.091451118492
 20
4677.931598713261
 30
0.0
 11
8996.341321935233
 21
4677.931598713261
 31
0.0
  0
LINE
  5
180FD
330
17FA3
100
AcDbEntity
  8
寸法
 62
     0
 48
50.0
370
    -2
100
AcDbLine
 10
9880.091451118492
 20
2587.931598713261
 30
0.0
 11
8996.341321935231
 21
2587.931598713262
 31
0.0
  0
LINE
  5
180FE
330
17FA3
100
AcDbEntity
  8
寸法
 62
     0
 48
50.0
370
    -2
100
AcDbLine
 10
9056.341321935233
 20
4677.931598713261
 30
0.0
 11
9056.341321935232
 21
2587.931598713262
 31
0.0
  0
INSERT
  5
180FF
330
17FA3
100
AcDbEntity
  8
寸法
 62
     0
 48
50.0
370
    -2
100
AcDbBlockReference
  2
_DOTSMALL
 10
9056.341321935233
 20
4677.931598713261
 30
0.0
 41
100.0
 42
100.0
 43
100.0
 50
90.0
  0
INSERT
  5
18100
330
17FA3
100
AcDbEntity
  8
寸法
 62
     0
 48
50.0
370
    -2
100
AcDbBlockReference
  2
_DOTSMALL
 10
9056.341321935232
 20
2587.931598713262
 30
0.0
 41
100.0
 42
100.0
 43
100.0
 50
270.0
  0
MTEXT
  5
18101
330
17FA3
100
AcDbEntity
  8
寸法
 62
     7
 48
50.0
100
AcDbMText
 10
8956.32951091161
 20
3632.931598713263
 30
0.0
 40
120.0
 41
0.0
 71
     5
 72
     1
  1
\A1;2090
  7
STYLE1
 11
0.0000000000000001
 21
1.0
 31
0.0
 73
     1
 44
1.0
1001
ACAD
1000
MTEXTBEGIN
1070
    73
1070
     1
1070
    44
1040
1.0
1070
    74
1070
     0
1000
MTEXTEND
  0
POINT
  5
18102
330
17FA3
100
AcDbEntity
  8
DEFPOINTS
 62
     0
 48
50.0
100
AcDbPoint
 10
9900.091451118491
 20
4677.931598713261
 30
0.0
  0
POINT
  5
18103
330
17FA3
100
AcDbEntity
  8
DEFPOINTS
 62
     0
 48
50.0
100
AcDbPoint
 10
9900.091451118491
 20
2587.931598713261
 30
0.0
  0
POINT
  5
18104
330
17FA3
100
AcDbEntity
  8
DEFPOINTS
 62
     0
 48
50.0
100
AcDbPoint
 10
9056.341321935232
 20
2587.931598713262
 30
0.0
  0
ENDBLK
  5
17FAE
330
17FA3
100
AcDbEntity
  8
0
 48
50.0
100
AcDbBlockEnd
  0
BLOCK
  5
17FB9
330
17FAF
100
AcDbEntity
  8
0
 48
50.0
100
AcDbBlockBegin
  2
*D19
 70
     1
 10
0.0
 20
0.0
 30
0.0
  3
*D19
  1

  0
LINE
  5
18105
330
17FAF
100
AcDbEntity
  8
寸法
 62
     0
 48
50.0
370
    -2
100
AcDbLine
 10
9880.091451118492
 20
2537.931598713262
 30
0.0
 11
8696.34132193523
 21
2537.931598713262
 31
0.0
  0
LINE
  5
18106
330
17FAF
100
AcDbEntity
  8
寸法
 62
     0
 48
50.0
370
    -2
100
AcDbLine
 10
9820.091451118493
 20
4912.931598713266
 30
0.0
 11
8696.341321935232
 21
4912.931598713266
 31
0.0
  0
LINE
  5
18107
330
17FAF
100
AcDbEntity
  8
寸法
 62
     0
 48
50.0
370
    -2
100
AcDbLine
 10
8756.341321935229
 20
2537.931598713262
 30
0.0
 11
8756.341321935231
 21
4912.931598713266
 31
0.0
  0
INSERT
  5
18108
330
17FAF
100
AcDbEntity
  8
寸法
 62
     0
 48
50.0
370
    -2
100
AcDbBlockReference
  2
_DOTSMALL
 10
8756.341321935229
 20
2537.931598713262
 30
0.0
 41
100.0
 42
100.0
 43
100.0
 50
270.0
  0
INSERT
  5
18109
330
17FAF
100
AcDbEntity
  8
寸法
 62
     0
 48
50.0
370
    -2
100
AcDbBlockReference
  2
_DOTSMALL
 10
8756.341321935231
 20
4912.931598713266
 30
0.0
 41
100.0
 42
100.0
 43
100.0
 50
90.0
  0
MTEXT
  5
1810A
330
17FAF
100
AcDbEntity
  8
寸法
 62
     7
 48
50.0
100
AcDbMText
 10
8656.329510911609
 20
3725.431598713266
 30
0.0
 40
120.0
 41
0.0
 71
     5
 72
     1
  1
\A1;2375
  7
STYLE1
 11
0.0000000000000001
 21
1.0
 31
0.0
 73
     1
 44
1.0
1001
ACAD
1000
MTEXTBEGIN
1070
    73
1070
     1
1070
    44
1040
1.0
1070
    74
1070
     0
1000
MTEXTEND
  0
POINT
  5
1810B
330
17FAF
100
AcDbEntity
  8
DEFPOINTS
 62
     0
 48
50.0
100
AcDbPoint
 10
9900.091451118491
 20
2537.931598713262
 30
0.0
  0
POINT
  5
1810C
330
17FAF
100
AcDbEntity
  8
DEFPOINTS
 62
     0
 48
50.0
100
AcDbPoint
 10
9840.091451118494
 20
4912.931598713266
 30
0.0
  0
POINT
  5
1810D
330
17FAF
100
AcDbEntity
  8
DEFPOINTS
 62
     0
 48
50.0
100
AcDbPoint
 10
8756.341321935231
 20
4912.931598713266
 30
0.0
  0
ENDBLK
  5
17FBA
330
17FAF
100
AcDbEntity
  8
0
 48
50.0
100
AcDbBlockEnd
  0
BLOCK
  5
17FD4
330
17FC8
100
AcDbEntity
  8
0
 48
50.0
100
AcDbBlockBegin
  2
*D20
 70
     1
 10
0.0
 20
0.0
 30
0.0
  3
*D20
  1

  0
LINE
  5
18118
330
17FC8
100
AcDbEntity
  8
寸法
 62
     0
 48
50.0
370
    -2
100
AcDbLine
 10
9880.091451118492
 20
2587.931598713261
 30
0.0
 11
8996.341321935231
 21
2587.931598713262
 31
0.0
  0
LINE
  5
18119
330
17FC8
100
AcDbEntity
  8
寸法
 62
     0
 48
50.0
370
    -2
100
AcDbLine
 10
9825.091451118492
 20
2537.931598713262
 30
0.0
 11
8996.341321935231
 21
2537.931598713262
 31
0.0
  0
LINE
  5
1811A
330
17FC8
100
AcDbEntity
  8
寸法
 62
     0
 48
50.0
370
    -2
100
AcDbLine
 10
9056.341321935232
 20
2587.931598713262
 30
0.0
 11
9056.341321935232
 21
2687.931598713262
 31
0.0
  0
LINE
  5
1811B
330
17FC8
100
AcDbEntity
  8
寸法
 62
     0
 48
50.0
370
    -2
100
AcDbLine
 10
9056.341321935232
 20
2537.931598713262
 30
0.0
 11
9056.341321935232
 21
2125.837110524283
 31
0.0
  0
LINE
  5
1811C
330
17FC8
100
AcDbEntity
  8
寸法
 62
     0
 48
50.0
370
    -2
100
AcDbLine
 10
9056.341321935232
 20
2587.931598713262
 30
0.0
 11
9056.341321935232
 21
2537.931598713262
 31
0.0
  0
INSERT
  5
1811D
330
17FC8
100
AcDbEntity
  8
寸法
 62
     0
 48
50.0
370
    -2
100
AcDbBlockReference
  2
_DOTSMALL
 10
9056.341321935232
 20
2587.931598713262
 30
0.0
 41
100.0
 42
100.0
 43
100.0
 50
270.0
  0
INSERT
  5
1811E
330
17FC8
100
AcDbEntity
  8
寸法
 62
     0
 48
50.0
370
    -2
100
AcDbBlockReference
  2
_DOTSMALL
 10
9056.341321935232
 20
2537.931598713262
 30
0.0
 41
100.0
 42
100.0
 43
100.0
 50
90.0
  0
MTEXT
  5
1811F
330
17FC8
100
AcDbEntity
  8
寸法
 62
     7
 48
50.0
100
AcDbMText
 10
8956.341321935232
 20
2231.884354618772
 30
0.0
 40
120.0
 41
0.0
 71
     5
 72
     1
  1
\A1;50
  7
STYLE1
 11
0.0000000000000001
 21
1.0
 31
0.0
 73
     1
 44
1.0
1001
ACAD
1000
MTEXTBEGIN
1070
    73
1070
     1
1070
    44
1040
1.0
1070
    74
1070
     0
1000
MTEXTEND
  0
POINT
  5
18120
330
17FC8
100
AcDbEntity
  8
DEFPOINTS
 62
     0
 48
50.0
100
AcDbPoint
 10
9900.091451118491
 20
2587.931598713261
 30
0.0
  0
POINT
  5
18121
330
17FC8
100
AcDbEntity
  8
DEFPOINTS
 62
     0
 48
50.0
100
AcDbPoint
 10
9845.091451118491
 20
2537.931598713262
 30
0.0
  0
POINT
  5
18122
330
17FC8
100
AcDbEntity
  8
DEFPOINTS
 62
     0
 48
50.0
100
AcDbPoint
 10
9056.341321935232
 20
2537.931598713262
 30
0.0
  0
ENDBLK
  5
17FD5
330
17FC8
100
AcDbEntity
  8
0
 48
50.0
100
AcDbBlockEnd
  0
BLOCK
  5
17FE0
330
17FD6
100
AcDbEntity
  8
0
 48
50.0
100
AcDbBlockBegin
  2
*D21
 70
     1
 10
0.0
 20
0.0
 30
0.0
  3
*D21
  1

  0
LINE
  5
18123
330
17FD6
100
AcDbEntity
  8
寸法
 62
     0
 48
50.0
370
    -2
100
AcDbLine
 10
11710.09145111849
 20
2537.931598713262
 30
0.0
 11
12455.01860909062
 21
2537.931598713262
 31
0.0
  0
LINE
  5
18124
330
17FD6
100
AcDbEntity
  8
寸法
 62
     0
 48
50.0
370
    -2
100
AcDbLine
 10
11790.09145111849
 20
4857.931598713262
 30
0.0
 11
12455.01860909062
 21
4857.931598713262
 31
0.0
  0
LINE
  5
18125
330
17FD6
100
AcDbEntity
  8
寸法
 62
     0
 48
50.0
370
    -2
100
AcDbLine
 10
12395.01860909062
 20
2537.931598713262
 30
0.0
 11
12395.01860909062
 21
4857.931598713262
 31
0.0
  0
INSERT
  5
18126
330
17FD6
100
AcDbEntity
  8
寸法
 62
     0
 48
50.0
370
    -2
100
AcDbBlockReference
  2
_DOTSMALL
 10
12395.01860909062
 20
2537.931598713262
 30
0.0
 41
100.0
 42
100.0
 43
100.0
 50
270.0
  0
INSERT
  5
18127
330
17FD6
100
AcDbEntity
  8
寸法
 62
     0
 48
50.0
370
    -2
100
AcDbBlockReference
  2
_DOTSMALL
 10
12395.01860909062
 20
4857.931598713262
 30
0.0
 41
100.0
 42
100.0
 43
100.0
 50
90.0
  0
MTEXT
  5
18128
330
17FD6
100
AcDbEntity
  8
寸法
 62
     7
 48
50.0
100
AcDbMText
 10
12295.006798067
 20
3697.931598713264
 30
0.0
 40
120.0
 41
0.0
 71
     5
 72
     1
  1
\A1;2320
  7
STYLE1
 11
0.0000000000000001
 21
1.0
 31
0.0
 73
     1
 44
1.0
1001
ACAD
1000
MTEXTBEGIN
1070
    73
1070
     1
1070
    44
1040
1.0
1070
    74
1070
     0
1000
MTEXTEND
  0
POINT
  5
18129
330
17FD6
100
AcDbEntity
  8
DEFPOINTS
 62
     0
 48
50.0
100
AcDbPoint
 10
11690.09145111849
 20
2537.931598713262
 30
0.0
  0
POINT
  5
1812A
330
17FD6
100
AcDbEntity
  8
DEFPOINTS
 62
     0
 48
50.0
100
AcDbPoint
 10
11770.09145111849
 20
4857.931598713262
 30
0.0
  0
POINT
  5
1812B
330
17FD6
100
AcDbEntity
  8
DEFPOINTS
 62
     0
 48
50.0
100
AcDbPoint
 10
12395.01860909062
 20
4857.931598713262
 30
0.0
  0
ENDBLK
  5
17FE1
330
17FD6
100
AcDbEntity
  8
0
 48
50.0
100
AcDbBlockEnd
  0
BLOCK
  5
17FEC
330
17FE2
100
AcDbEntity
  8
0
 48
50.0
100
AcDbBlockBegin
  2
*D22
 70
     1
 10
0.0
 20
0.0
 30
0.0
  3
*D22
  1

  0
LINE
  5
1859B
330
17FE2
100
AcDbEntity
  8
寸法
 62
     0
 48
50.0
370
    -2
100
AcDbLine
 10
11690.09145111849
 20
4879.742278324915
 30
0.0
 11
11690.09145111849
 21
5372.024768052734
 31
0.0
  0
LINE
  5
1859C
330
17FE2
100
AcDbEntity
  8
寸法
 62
     0
 48
50.0
370
    -2
100
AcDbLine
 10
9900.091451118493
 20
4928.933216836238
 30
0.0
 11
9900.091451118493
 21
5372.024768052734
 31
0.0
  0
LINE
  5
1859D
330
17FE2
100
AcDbEntity
  8
寸法
 62
     0
 48
50.0
370
    -2
100
AcDbLine
 10
11690.09145111849
 20
5312.024768052735
 30
0.0
 11
9900.091451118493
 21
5312.024768052735
 31
0.0
  0
INSERT
  5
1859E
330
17FE2
100
AcDbEntity
  8
寸法
 62
     0
 48
50.0
370
    -2
100
AcDbBlockReference
  2
_DOTSMALL
 10
11690.09145111849
 20
5312.024768052735
 30
0.0
 41
100.0
 42
100.0
 43
100.0
  0
INSERT
  5
1859F
330
17FE2
100
AcDbEntity
  8
寸法
 62
     0
 48
50.0
370
    -2
100
AcDbBlockReference
  2
_DOTSMALL
 10
9900.091451118493
 20
5312.024768052735
 30
0.0
 41
100.0
 42
100.0
 43
100.0
 50
180.0
  0
MTEXT
  5
185A0
330
17FE2
100
AcDbEntity
  8
寸法
 62
     7
 48
50.0
100
AcDbMText
 10
10795.09145111849
 20
5412.024768052734
 30
0.0
 40
120.0
 41
0.0
 71
     5
 72
     1
  1
\A1;柱外寸法1790
  7
STYLE1
 73
     1
 44
1.0
1001
ACAD
1000
MTEXTBEGIN
1070
    73
1070
     1
1070
    44
1040
1.0
1070
    74
1070
     0
1000
MTEXTEND
  0
POINT
  5
185A1
330
17FE2
100
AcDbEntity
  8
DEFPOINTS
 62
     0
 48
50.0
100
AcDbPoint
 10
11690.09145111849
 20
4859.742278324915
 30
0.0
  0
POINT
  5
185A2
330
17FE2
100
AcDbEntity
  8
DEFPOINTS
 62
     0
 48
50.0
100
AcDbPoint
 10
9900.091451118493
 20
4908.933216836238
 30
0.0
  0
POINT
  5
185A3
330
17FE2
100
AcDbEntity
  8
DEFPOINTS
 62
     0
 48
50.0
100
AcDbPoint
 10
9900.091451118493
 20
5312.024768052735
 30
0.0
  0
ENDBLK
  5
17FED
330
17FE2
100
AcDbEntity
  8
0
 48
50.0
100
AcDbBlockEnd
  0
BLOCK
  5
17FFA
330
17FEE
100
AcDbEntity
  8
0
 48
50.0
100
AcDbBlockBegin
  2
*D23
 70
     1
 10
0.0
 20
0.0
 30
0.0
  3
*D23
  1

  0
LINE
  5
181D6
330
17FEE
100
AcDbEntity
  8
寸法
 62
     0
 48
50.0
370
    -2
100
AcDbLine
 10
9900.091451118493
 20
4928.933216836238
 30
0.0
 11
9900.091451118493
 21
5372.024768052734
 31
0.0
  0
LINE
  5
181D7
330
17FEE
100
AcDbEntity
  8
寸法
 62
     0
 48
50.0
370
    -2
100
AcDbLine
 10
9840.091451118494
 20
4932.931598713266
 30
0.0
 11
9840.091451118494
 21
5372.024768052734
 31
0.0
  0
LINE
  5
181D8
330
17FEE
100
AcDbEntity
  8
寸法
 62
     0
 48
50.0
370
    -2
100
AcDbLine
 10
9900.091451118493
 20
5312.024768052735
 30
0.0
 11
10000.09145111849
 21
5312.024768052735
 31
0.0
  0
LINE
  5
181D9
330
17FEE
100
AcDbEntity
  8
寸法
 62
     0
 48
50.0
370
    -2
100
AcDbLine
 10
9840.091451118494
 20
5312.024768052735
 30
0.0
 11
9420.815860567312
 21
5312.024768052735
 31
0.0
  0
LINE
  5
181DA
330
17FEE
100
AcDbEntity
  8
寸法
 62
     0
 48
50.0
370
    -2
100
AcDbLine
 10
9900.091451118493
 20
5312.024768052735
 30
0.0
 11
9840.091451118494
 21
5312.024768052735
 31
0.0
  0
INSERT
  5
181DB
330
17FEE
100
AcDbEntity
  8
寸法
 62
     0
 48
50.0
370
    -2
100
AcDbBlockReference
  2
_DOTSMALL
 10
9900.091451118493
 20
5312.024768052735
 30
0.0
 41
100.0
 42
100.0
 43
100.0
 50
180.0
  0
INSERT
  5
181DC
330
17FEE
100
AcDbEntity
  8
寸法
 62
     0
 48
50.0
370
    -2
100
AcDbBlockReference
  2
_DOTSMALL
 10
9840.091451118494
 20
5312.024768052735
 30
0.0
 41
100.0
 42
100.0
 43
100.0
  0
MTEXT
  5
181DD
330
17FEE
100
AcDbEntity
  8
寸法
 62
     7
 48
50.0
100
AcDbMText
 10
9530.453655842903
 20
5412.024768052734
 30
0.0
 40
120.0
 41
0.0
 71
     5
 72
     1
  1
\A1;60
  7
STYLE1
 73
     1
 44
1.0
1001
ACAD
1000
MTEXTBEGIN
1070
    73
1070
     1
1070
    44
1040
1.0
1070
    74
1070
     0
1000
MTEXTEND
  0
POINT
  5
181DE
330
17FEE
100
AcDbEntity
  8
DEFPOINTS
 62
     0
 48
50.0
100
AcDbPoint
 10
9900.091451118493
 20
4908.933216836238
 30
0.0
  0
POINT
  5
181DF
330
17FEE
100
AcDbEntity
  8
DEFPOINTS
 62
     0
 48
50.0
100
AcDbPoint
 10
9840.091451118494
 20
4912.931598713266
 30
0.0
  0
POINT
  5
181E0
330
17FEE
100
AcDbEntity
  8
DEFPOINTS
 62
     0
 48
50.0
100
AcDbPoint
 10
9840.091451118494
 20
5312.024768052735
 30
0.0
  0
ENDBLK
  5
17FFB
330
17FEE
100
AcDbEntity
  8
0
 48
50.0
100
AcDbBlockEnd
  0
BLOCK
  5
18006
330
17FFC
100
AcDbEntity
  8
0
 48
50.0
100
AcDbBlockBegin
  2
*D24
 70
     1
 10
0.0
 20
0.0
 30
0.0
  3
*D24
  1

  0
LINE
  5
18592
330
17FFC
100
AcDbEntity
  8
寸法
 62
     0
 48
50.0
370
    -2
100
AcDbLine
 10
11770.09145111849
 20
4877.931598713263
 30
0.0
 11
11770.09145111849
 21
5588.55086767118
 31
0.0
  0
LINE
  5
18593
330
17FFC
100
AcDbEntity
  8
寸法
 62
     0
 48
50.0
370
    -2
100
AcDbLine
 10
9840.091451118494
 20
4932.931598713266
 30
0.0
 11
9840.091451118494
 21
5588.55086767118
 31
0.0
  0
LINE
  5
18594
330
17FFC
100
AcDbEntity
  8
寸法
 62
     0
 48
50.0
370
    -2
100
AcDbLine
 10
11770.09145111849
 20
5528.55086767118
 30
0.0
 11
9840.091451118494
 21
5528.55086767118
 31
0.0
  0
INSERT
  5
18595
330
17FFC
100
AcDbEntity
  8
寸法
 62
     0
 48
50.0
370
    -2
100
AcDbBlockReference
  2
_DOTSMALL
 10
11770.09145111849
 20
5528.55086767118
 30
0.0
 41
100.0
 42
100.0
 43
100.0
  0
INSERT
  5
18596
330
17FFC
100
AcDbEntity
  8
寸法
 62
     0
 48
50.0
370
    -2
100
AcDbBlockReference
  2
_DOTSMALL
 10
9840.091451118494
 20
5528.55086767118
 30
0.0
 41
100.0
 42
100.0
 43
100.0
 50
180.0
  0
MTEXT
  5
18597
330
17FFC
100
AcDbEntity
  8
寸法
 62
     7
 48
50.0
100
AcDbMText
 10
10805.09145111849
 20
5628.550867671179
 30
0.0
 40
120.0
 41
0.0
 71
     5
 72
     1
  1
\A1;1930
  7
STYLE1
 73
     1
 44
1.0
1001
ACAD
1000
MTEXTBEGIN
1070
    73
1070
     1
1070
    44
1040
1.0
1070
    74
1070
     0
1000
MTEXTEND
  0
POINT
  5
18598
330
17FFC
100
AcDbEntity
  8
DEFPOINTS
 62
     0
 48
50.0
100
AcDbPoint
 10
11770.09145111849
 20
4857.931598713262
 30
0.0
  0
POINT
  5
18599
330
17FFC
100
AcDbEntity
  8
DEFPOINTS
 62
     0
 48
50.0
100
AcDbPoint
 10
9840.091451118494
 20
4912.931598713266
 30
0.0
  0
POINT
  5
1859A
330
17FFC
100
AcDbEntity
  8
DEFPOINTS
 62
     0
 48
50.0
100
AcDbPoint
 10
9840.091451118494
 20
5528.55086767118
 30
0.0
  0
ENDBLK
  5
18007
330
17FFC
100
AcDbEntity
  8
0
 48
50.0
100
AcDbBlockEnd
  0
BLOCK
  5
18013
330
18008
100
AcDbEntity
  8
0
 48
50.0
100
AcDbBlockBegin
  2
*D25
 70
     1
 10
0.0
 20
0.0
 30
0.0
  3
*D25
  1

  0
LINE
  5
181E1
330
18008
100
AcDbEntity
  8
寸法
 62
     0
 48
50.0
370
    -2
100
AcDbLine
 10
11690.09145111849
 20
4879.742278324915
 30
0.0
 11
11690.09145111849
 21
5372.024768052734
 31
0.0
  0
LINE
  5
181E2
330
18008
100
AcDbEntity
  8
寸法
 62
     0
 48
50.0
370
    -2
100
AcDbLine
 10
11770.09145111849
 20
4877.931598713263
 30
0.0
 11
11770.09145111849
 21
5372.024768052734
 31
0.0
  0
LINE
  5
181E3
330
18008
100
AcDbEntity
  8
寸法
 62
     0
 48
50.0
370
    -2
100
AcDbLine
 10
11690.09145111849
 20
5312.024768052735
 30
0.0
 11
11770.09145111849
 21
5312.024768052735
 31
0.0
  0
LINE
  5
181E4
330
18008
100
AcDbEntity
  8
寸法
 62
     0
 48
50.0
370
    -2
100
AcDbLine
 10
11770.09145111849
 20
5312.024768052735
 30
0.0
 11
12082.18593930747
 21
5312.024768052735
 31
0.0
  0
INSERT
  5
181E5
330
18008
100
AcDbEntity
  8
寸法
 62
     0
 48
50.0
370
    -2
100
AcDbBlockReference
  2
_DOTSMALL
 10
11690.09145111849
 20
5312.024768052735
 30
0.0
 41
100.0
 42
100.0
 43
100.0
 50
180.0
  0
INSERT
  5
181E6
330
18008
100
AcDbEntity
  8
寸法
 62
     0
 48
50.0
370
    -2
100
AcDbBlockReference
  2
_DOTSMALL
 10
11770.09145111849
 20
5312.024768052735
 30
0.0
 41
100.0
 42
100.0
 43
100.0
  0
MTEXT
  5
181E7
330
18008
100
AcDbEntity
  8
寸法
 62
     7
 48
50.0
100
AcDbMText
 10
11976.13869521298
 20
5412.024768052734
 30
0.0
 40
120.0
 41
0.0
 71
     5
 72
     1
  1
\A1;80
  7
STYLE1
 73
     1
 44
1.0
1001
ACAD
1000
MTEXTBEGIN
1070
    73
1070
     1
1070
    44
1040
1.0
1070
    74
1070
     0
1000
MTEXTEND
  0
POINT
  5
181E8
330
18008
100
AcDbEntity
  8
DEFPOINTS
 62
     0
 48
50.0
100
AcDbPoint
 10
11690.09145111849
 20
4859.742278324915
 30
0.0
  0
POINT
  5
181E9
330
18008
100
AcDbEntity
  8
DEFPOINTS
 62
     0
 48
50.0
100
AcDbPoint
 10
11770.09145111849
 20
4857.931598713262
 30
0.0
  0
POINT
  5
181EA
330
18008
100
AcDbEntity
  8
DEFPOINTS
 62
     0
 48
50.0
100
AcDbPoint
 10
11770.09145111849
 20
5312.024768052735
 30
0.0
  0
ENDBLK
  5
18014
330
18008
100
AcDbEntity
  8
0
 48
50.0
100
AcDbBlockEnd
  0
BLOCK
  5
18020
330
18015
100
AcDbEntity
  8
0
 48
50.0
100
AcDbBlockBegin
  2
*D26
 70
     1
 10
0.0
 20
0.0
 30
0.0
  3
*D26
  1

  0
LINE
  5
18153
330
18015
100
AcDbEntity
  8
寸法
 62
     0
 48
50.0
370
    -2
100
AcDbLine
 10
9839.495737409592
 20
4912.229305782923
 30
0.0
 11
9223.561298304327
 21
4929.943456057244
 31
0.0
  0
LINE
  5
18154
330
18015
100
AcDbEntity
  8
寸法
 62
     0
 48
50.0
370
    -2
100
AcDbLine
 10
9835.442281852966
 20
4771.28758201721
 30
0.0
 11
9219.507842747701
 21
4789.001732291531
 31
0.0
  0
LINE
  5
18155
330
18015
100
AcDbEntity
  8
寸法
 62
     0
 48
50.0
370
    -2
100
AcDbLine
 10
9279.483044350135
 20
4787.276857586585
 30
0.0
 11
9283.536499906759
 21
4928.218581352297
 31
0.0
  0
LINE
  5
18156
330
18015
100
AcDbEntity
  8
寸法
 62
     0
 48
50.0
370
    -2
100
AcDbLine
 10
9283.536499906759
 20
4928.218581352297
 30
0.0
 11
9293.885748136439
 21
5288.069790966885
 31
0.0
  0
INSERT
  5
18157
330
18015
100
AcDbEntity
  8
寸法
 62
     0
 48
50.0
370
    -2
100
AcDbBlockReference
  2
_DOTSMALL
 10
9279.483044350135
 20
4787.276857586585
 30
0.0
 41
100.0
 42
100.0
 43
100.0
 50
268.3526390256385
  0
INSERT
  5
18158
330
18015
100
AcDbEntity
  8
寸法
 62
     0
 48
50.0
370
    -2
100
AcDbBlockReference
  2
_DOTSMALL
 10
9283.536499906759
 20
4928.218581352297
 30
0.0
 41
100.0
 42
100.0
 43
100.0
 50
88.35263902563855
  0
MTEXT
  5
18159
330
18015
100
AcDbEntity
  8
寸法
 62
     7
 48
50.0
100
AcDbMText
 10
9190.18985027167
 20
5160.998312003195
 30
0.0
 40
120.0
 41
0.0
 71
     5
 72
     1
  1
\A1;141
  7
STYLE1
 11
0.0287479117491103
 21
0.999586693373849
 31
0.0
 73
     1
 44
1.0
1001
ACAD
1000
MTEXTBEGIN
1070
    73
1070
     1
1070
    44
1040
1.0
1070
    74
1070
     0
1000
MTEXTEND
  0
POINT
  5
1815A
330
18015
100
AcDbEntity
  8
DEFPOINTS
 62
     0
 48
50.0
100
AcDbPoint
 10
9859.48747127707
 20
4911.654347547941
 30
0.0
  0
POINT
  5
1815B
330
18015
100
AcDbEntity
  8
DEFPOINTS
 62
     0
 48
50.0
100
AcDbPoint
 10
9855.434015720442
 20
4770.712623782228
 30
0.0
  0
POINT
  5
1815C
330
18015
100
AcDbEntity
  8
DEFPOINTS
 62
     0
 48
50.0
100
AcDbPoint
 10
9279.483044350135
 20
4787.276857586585
 30
0.0
  0
ENDBLK
  5
18021
330
18015
100
AcDbEntity
  8
0
 48
50.0
100
AcDbBlockEnd
  0
BLOCK
  5
18414
330
18409
100
AcDbEntity
  8
0
 48
50.0
100
AcDbBlockBegin
  2
*D27
 70
     1
 10
0.0
 20
0.0
 30
0.0
  3
*D27
  1

  0
LINE
  5
185F8
330
18409
100
AcDbEntity
  8
寸法
 62
     0
 48
50.0
370
    -2
100
AcDbLine
 10
7604.673057123658
 20
4512.931598713262
 30
0.0
 11
7932.216159445404
 21
4512.931598713262
 31
0.0
  0
LINE
  5
185F9
330
18409
100
AcDbEntity
  8
寸法
 62
     0
 48
50.0
370
    -2
100
AcDbLine
 10
7604.673057123656
 20
4677.931598713261
 30
0.0
 11
7932.216159445404
 21
4677.931598713261
 31
0.0
  0
LINE
  5
185FA
330
18409
100
AcDbEntity
  8
寸法
 62
     0
 48
50.0
370
    -2
100
AcDbLine
 10
7872.216159445404
 20
4512.931598713262
 30
0.0
 11
7872.216159445404
 21
4677.931598713261
 31
0.0
  0
LINE
  5
185FB
330
18409
100
AcDbEntity
  8
寸法
 62
     0
 48
50.0
370
    -2
100
AcDbLine
 10
7872.216159445404
 20
4677.931598713261
 30
0.0
 11
7872.216159445404
 21
5054.90216146174
 31
0.0
  0
INSERT
  5
185FC
330
18409
100
AcDbEntity
  8
寸法
 62
     0
 48
50.0
370
    -2
100
AcDbBlockReference
  2
_DOTSMALL
 10
7872.216159445404
 20
4512.931598713262
 30
0.0
 41
100.0
 42
100.0
 43
100.0
 50
270.0
  0
INSERT
  5
185FD
330
18409
100
AcDbEntity
  8
寸法
 62
     0
 48
50.0
370
    -2
100
AcDbBlockReference
  2
_DOTSMALL
 10
7872.216159445404
 20
4677.931598713261
 30
0.0
 41
100.0
 42
100.0
 43
100.0
 50
90.0
  0
MTEXT
  5
185FE
330
18409
100
AcDbEntity
  8
寸法
 62
     7
 48
50.0
100
AcDbMText
 10
7772.216159445403
 20
4916.416880087502
 30
0.0
 40
120.0
 41
0.0
 71
     5
 72
     1
  1
\A1;165
  7
STYLE1
 11
0.0000000000000001
 21
1.0
 31
0.0
 73
     1
 44
1.0
1001
ACAD
1000
MTEXTBEGIN
1070
    73
1070
     1
1070
    44
1040
1.0
1070
    74
1070
     0
1000
MTEXTEND
  0
POINT
  5
185FF
330
18409
100
AcDbEntity
  8
DEFPOINTS
 62
     0
 48
50.0
100
AcDbPoint
 10
7584.673057123659
 20
4512.931598713262
 30
0.0
  0
POINT
  5
18600
330
18409
100
AcDbEntity
  8
DEFPOINTS
 62
     0
 48
50.0
100
AcDbPoint
 10
7584.673057123656
 20
4677.931598713261
 30
0.0
  0
POINT
  5
18601
330
18409
100
AcDbEntity
  8
DEFPOINTS
 62
     0
 48
50.0
100
AcDbPoint
 10
7872.216159445404
 20
4677.931598713261
 30
0.0
  0
ENDBLK
  5
18415
330
18409
100
AcDbEntity
  8
0
 48
50.0
100
AcDbBlockEnd
  0
BLOCK
  5
18422
330
18416
100
AcDbEntity
  8
0
 48
50.0
100
AcDbBlockBegin
  2
*D28
 70
     1
 10
0.0
 20
0.0
 30
0.0
  3
*D28
  1

  0
LINE
  5
185ED
330
18416
100
AcDbEntity
  8
寸法
 62
     0
 48
50.0
370
    -2
100
AcDbLine
 10
7604.673057123658
 20
4485.93159871326
 30
0.0
 11
7932.216159445403
 21
4485.93159871326
 31
0.0
  0
LINE
  5
185EE
330
18416
100
AcDbEntity
  8
寸法
 62
     0
 48
50.0
370
    -2
100
AcDbLine
 10
7604.673057123658
 20
4512.931598713262
 30
0.0
 11
7932.216159445403
 21
4512.931598713262
 31
0.0
  0
LINE
  5
185EF
330
18416
100
AcDbEntity
  8
寸法
 62
     0
 48
50.0
370
    -2
100
AcDbLine
 10
7872.216159445404
 20
4485.93159871326
 30
0.0
 11
7872.216159445404
 21
4385.93159871326
 31
0.0
  0
LINE
  5
185F0
330
18416
100
AcDbEntity
  8
寸法
 62
     0
 48
50.0
370
    -2
100
AcDbLine
 10
7872.216159445404
 20
4512.931598713262
 30
0.0
 11
7872.216159445404
 21
4612.931598713262
 31
0.0
  0
MTEXT
  5
185F1
330
18416
100
AcDbEntity
  8
寸法
 62
     7
 48
50.0
100
AcDbMText
 10
8012.385982691769
 20
4513.89879855292
 30
0.0
 40
120.0
 41
0.0
 71
     5
 72
     1
  1
\A1;27
  7
STYLE1
 11
0.0000000000000001
 21
1.0
 31
0.0
 73
     1
 44
1.0
1001
ACAD
1000
MTEXTBEGIN
1070
    73
1070
     1
1070
    44
1040
1.0
1070
    74
1070
     0
1000
MTEXTEND
  0
LINE
  5
185F2
330
18416
100
AcDbEntity
  8
寸法
 62
     0
 48
50.0
370
    -2
100
AcDbLine
 10
7872.216159445404
 20
4485.93159871326
 30
0.0
 11
7872.216159445404
 21
4512.931598713262
 31
0.0
  0
INSERT
  5
185F3
330
18416
100
AcDbEntity
  8
寸法
 62
     0
 48
50.0
370
    -2
100
AcDbBlockReference
  2
_DOTSMALL
 10
7872.216159445404
 20
4485.93159871326
 30
0.0
 41
100.0
 42
100.0
 43
100.0
 50
90.0
  0
INSERT
  5
185F4
330
18416
100
AcDbEntity
  8
寸法
 62
     0
 48
50.0
370
    -2
100
AcDbBlockReference
  2
_DOTSMALL
 10
7872.216159445404
 20
4512.931598713262
 30
0.0
 41
100.0
 42
100.0
 43
100.0
 50
270.0
  0
POINT
  5
185F5
330
18416
100
AcDbEntity
  8
DEFPOINTS
 62
     0
 48
50.0
100
AcDbPoint
 10
7584.673057123658
 20
4485.93159871326
 30
0.0
  0
POINT
  5
185F6
330
18416
100
AcDbEntity
  8
DEFPOINTS
 62
     0
 48
50.0
100
AcDbPoint
 10
7584.673057123659
 20
4512.931598713262
 30
0.0
  0
POINT
  5
185F7
330
18416
100
AcDbEntity
  8
DEFPOINTS
 62
     0
 48
50.0
100
AcDbPoint
 10
7872.216159445404
 20
4512.931598713262
 30
0.0
  0
ENDBLK
  5
18423
330
18416
100
AcDbEntity
  8
0
 48
50.0
100
AcDbBlockEnd
  0
BLOCK
  5
1842E
330
18424
100
AcDbEntity
  8
0
 48
50.0
100
AcDbBlockBegin
  2
*D29
 70
     1
 10
0.0
 20
0.0
 30
0.0
  3
*D29
  1

  0
LINE
  5
1848B
330
18424
100
AcDbEntity
  8
寸法
 62
     0
 48
50.0
370
    -2
100
AcDbLine
 10
7604.673057123656
 20
2537.931598713262
 30
0.0
 11
7932.216159445403
 21
2537.931598713262
 31
0.0
  0
LINE
  5
1848C
330
18424
100
AcDbEntity
  8
寸法
 62
     0
 48
50.0
370
    -2
100
AcDbLine
 10
7604.673057123658
 20
4485.93159871326
 30
0.0
 11
7932.216159445403
 21
4485.93159871326
 31
0.0
  0
LINE
  5
1848D
330
18424
100
AcDbEntity
  8
寸法
 62
     0
 48
50.0
370
    -2
100
AcDbLine
 10
7872.216159445404
 20
2537.931598713262
 30
0.0
 11
7872.216159445404
 21
4485.93159871326
 31
0.0
  0
INSERT
  5
1848E
330
18424
100
AcDbEntity
  8
寸法
 62
     0
 48
50.0
370
    -2
100
AcDbBlockReference
  2
_DOTSMALL
 10
7872.216159445404
 20
2537.931598713262
 30
0.0
 41
100.0
 42
100.0
 43
100.0
 50
270.0
  0
INSERT
  5
1848F
330
18424
100
AcDbEntity
  8
寸法
 62
     0
 48
50.0
370
    -2
100
AcDbBlockReference
  2
_DOTSMALL
 10
7872.216159445404
 20
4485.93159871326
 30
0.0
 41
100.0
 42
100.0
 43
100.0
 50
90.0
  0
MTEXT
  5
18490
330
18424
100
AcDbEntity
  8
寸法
 62
     7
 48
50.0
100
AcDbMText
 10
7772.216159445402
 20
3511.931598713263
 30
0.0
 40
120.0
 41
0.0
 71
     5
 72
     1
  1
\A1;有効開口部高サ 1948
  7
STYLE1
 11
0.0000000000000001
 21
1.0
 31
0.0
 73
     1
 44
1.0
1001
ACAD
1000
MTEXTBEGIN
1070
    73
1070
     1
1070
    44
1040
1.0
1070
    74
1070
     0
1000
MTEXTEND
  0
POINT
  5
18491
330
18424
100
AcDbEntity
  8
DEFPOINTS
 62
     0
 48
50.0
100
AcDbPoint
 10
7584.673057123656
 20
2537.931598713262
 30
0.0
  0
POINT
  5
18492
330
18424
100
AcDbEntity
  8
DEFPOINTS
 62
     0
 48
50.0
100
AcDbPoint
 10
7584.673057123658
 20
4485.93159871326
 30
0.0
  0
POINT
  5
18493
330
18424
100
AcDbEntity
  8
DEFPOINTS
 62
     0
 48
50.0
100
AcDbPoint
 10
7872.216159445404
 20
4485.93159871326
 30
0.0
  0
ENDBLK
  5
1842F
330
18424
100
AcDbEntity
  8
0
 48
50.0
100
AcDbBlockEnd
  0
ENDSEC
  0
SECTION
  2
ENTITIES
  0
MTEXT
  5
763F
330
747D
100
AcDbEntity
  8
0
100
AcDbMText
 10
302.846345836809
 20
280.1983726409901
 30
0.0
 40
3.5
 41
5.323721266742722
 71
     1
 72
     5
  1

  7
MSMINCHO
 73
     1
 44
1.0
1001
ACAD
1000
MTEXTBEGIN
1070
    73
1070
     1
1070
    44
1040
1.0
1070
    74
1070
     0
1000
MTEXTEND
  0
LINE
  5
10B57
330
747D
100
AcDbEntity
  8
補助
  6
PHANTOM
 62
   230
 48
50.0
100
AcDbLine
 10
139.9999999999995
 20
11409.6
 30
0.0
 11
16307.2
 21
11409.6
 31
0.0
  0
LINE
  5
10B59
330
747D
100
AcDbEntity
  8
仕様書枠
  6
Continuous
 48
50.0
100
AcDbLine
 10
13107.2
 20
1200.0
 30
0.0
 11
13107.2
 21
-0.0000000000000729
 31
0.0
  0
LINE
  5
10B5C
330
747D
100
AcDbEntity
  8
仕様書枠
 48
50.0
100
AcDbLine
 10
16307.2
 20
1200.0
 30
0.0
 11
16307.2
 21
-0.0000000000000909
 31
0.0
  0
LINE
  5
10B5D
330
747D
100
AcDbEntity
  8
仕様書枠
 48
50.0
100
AcDbLine
 10
140.0
 20
0.0
 30
0.0
 11
16307.2
 21
-0.0000000000000909
 31
0.0
  0
LINE
  5
10B5E
330
747D
100
AcDbEntity
  8
補助
  6
PHANTOM
 62
   230
 48
50.0
100
AcDbLine
 10
16307.2
 20
11409.6
 30
0.0
 11
16307.2
 21
1200.0
 31
0.0
  0
LINE
  5
10B6C
330
747D
100
AcDbEntity
  8
仕様書枠
 48
50.0
100
AcDbLine
 10
13107.2
 20
1200.0
 30
0.0
 11
16307.2
 21
1200.0
 31
0.0
  0
LINE
  5
10B6D
330
747D
100
AcDbEntity
  8
補助
  6
PHANTOM
 62
   230
 48
50.0
100
AcDbLine
 10
13107.2
 20
11409.6
 30
0.0
 11
13107.2
 21
4800.0
 31
0.0
  0
LINE
  5
10B6F
330
747D
100
AcDbEntity
  8
補助
  6
PHANTOM
 62
   230
 48
50.0
100
AcDbLine
 10
13107.2
 20
4800.0
 30
0.0
 11
16307.2
 21
4800.0
 31
0.0
  0
LINE
  5
10B72
330
747D
100
AcDbEntity
  8
文字
 62
     7
 48
50.0
100
AcDbLine
 10
13187.2
 20
400.0
 30
0.0
 11
16227.2
 21
400.0
 31
0.0
  0
TEXT
  5
10B73
330
747D
100
AcDbEntity
  8
文字
 62
     7
 48
50.0
100
AcDbText
 10
13162.9790565769
 20
895.0906074299405
 30
0.0
 40
200.0
  1
外 形 図
  7
STYLE2
100
AcDbText
  0
TEXT
  5
10B74
330
747D
100
AcDbEntity
  8
文字
 62
     7
 48
50.0
100
AcDbText
 10
13201.43669998441
 20
477.2740661031255
 30
0.0
 40
160.0
  1
機種名
  7
STYLE2
100
AcDbText
  0
TEXT
  5
10B75
330
747D
100
AcDbEntity
  8
文字
 62
     7
 48
50.0
100
AcDbText
 10
13209.4053442172
 20
228.5435242569016
 30
0.0
 40
100.0
  1
○有効開口寸法 ： 2004×1948(mm)
  7
STYLE2
100
AcDbText
  0
TEXT
  5
10B76
330
747D
100
AcDbEntity
  8
文字
 62
     7
 48
50.0
100
AcDbText
 10
13209.4053442172
 20
76.09434707649343
 30
0.0
 40
100.0
  1
○床面積 ： 3.96㎡(1.20坪) 　
  7
STYLE2
100
AcDbText
  0
TEXT
  5
10B79
330
747D
100
AcDbEntity
  8
文字
 62
     7
 48
50.0
100
AcDbText
 10
14524.131837222
 20
1031.557706291228
 30
0.0
 40
100.0
  1
NO.02      <縮尺> S=1/40
  7
STYLE2
100
AcDbText
  0
LINE
  5
10B7B
330
747D
100
AcDbEntity
  8
仕様書枠
 48
50.0
100
AcDbLine
 10
13107.2
 20
800.0
 30
0.0
 11
14251.2
 21
800.0
 31
0.0
  0
LINE
  5
10B88
330
747D
100
AcDbEntity
  8
仕様書枠
  6
Continuous
 48
50.0
100
AcDbLine
 10
14251.2
 20
1200.0
 30
0.0
 11
14251.2
 21
800.0
 31
0.0
  0
LINE
  5
12765
330
747D
100
AcDbEntity
  8
Ｇ．Ｌ
100
AcDbLine
 10
4286.406454453174
 20
2437.931598713261
 30
0.0
 11
12580.79354554682
 21
2437.931598713261
 31
0.0
  0
LINE
  5
127A8
330
747D
100
AcDbEntity
  8
部品1
100
AcDbLine
 10
4385.903465777274
 20
2567.835409280926
 30
0.0
 11
4535.903465777273
 21
2567.835409280926
 31
0.0
  0
LINE
  5
127A9
330
747D
100
AcDbEntity
  8
部品1
100
AcDbLine
 10
4460.903465777273
 20
2437.931598713261
 30
0.0
 11
4385.903465777274
 21
2567.835409280926
 31
0.0
  0
TEXT
  5
127AA
330
747D
100
AcDbEntity
  8
部品1
100
AcDbText
 10
4564.008407902047
 20
2474.038502319163
 30
0.0
 40
125.0
  1
G.L
  7
STYLE2
100
AcDbText
  0
LINE
  5
127AB
330
747D
100
AcDbEntity
  8
部品1
100
AcDbLine
 10
4535.903465777273
 20
2567.835409280926
 30
0.0
 11
4460.903465777273
 21
2437.931598713261
 31
0.0
  0
LINE
  5
13BE8
330
747D
100
AcDbEntity
  8
部品1
100
AcDbLine
 10
5374.673057123657
 20
2537.931598713262
 30
0.0
 11
7584.673057123656
 21
2537.931598713262
 31
0.0
  0
LINE
  5
13BE9
330
747D
100
AcDbEntity
  8
部品1
100
AcDbLine
 10
5374.673057123657
 20
4677.931598713261
 30
0.0
 11
7584.673057123656
 21
4677.931598713261
 31
0.0
  0
LINE
  5
13C1F
330
747D
100
AcDbEntity
  8
部品1
100
AcDbLine
 10
5374.673057123657
 20
4771.931598713266
 30
0.0
 11
5374.673057123657
 21
2437.931598713261
 31
0.0
  0
LINE
  5
13CFC
330
747D
100
AcDbEntity
  8
部品1
100
AcDbLine
 10
7529.673057123655
 20
4512.931598713261
 30
0.0
 11
7529.673057123655
 21
2537.931598713262
 31
0.0
  0
LINE
  5
13CFE
330
747D
100
AcDbEntity
  8
部品1
100
AcDbLine
 10
5429.673057123657
 20
4512.931598713261
 30
0.0
 11
5429.673057123657
 21
2537.931598713262
 31
0.0
  0
LINE
  5
13D18
330
747D
100
AcDbEntity
  8
部品1
100
AcDbLine
 10
7584.673057123659
 20
4771.931598713266
 30
0.0
 11
7584.673057123656
 21
2437.931598713261
 31
0.0
  0
LINE
  5
146B2
330
747D
100
AcDbEntity
  8
破線
 48
5.0
100
AcDbLine
 10
7584.673057123656
 20
2437.931598713261
 30
0.0
 11
7584.673057123656
 21
2187.931598713261
 31
0.0
  0
LINE
  5
146B3
330
747D
100
AcDbEntity
  8
破線
 48
5.0
100
AcDbLine
 10
5374.673057123657
 20
2437.931598713261
 30
0.0
 11
5374.673057123656
 21
2187.931598713261
 31
0.0
  0
TEXT
  5
15550
330
747D
100
AcDbEntity
  8
文字
 62
     7
 48
50.0
100
AcDbText
 10
14646.46056207479
 20
871.9640646083623
 30
0.0
 40
100.0
  1
～一般型・多雪地型～
  7
STYLE2
100
AcDbText
  0
LINE
  5
15CE5
330
747D
100
AcDbEntity
  8
破線
 48
5.0
100
AcDbLine
 10
7529.673057123655
 20
2537.931598713262
 30
0.0
 11
7529.673057123656
 21
2187.931598713261
 31
0.0
  0
LINE
  5
15CE6
330
747D
100
AcDbEntity
  8
破線
 48
5.0
100
AcDbLine
 10
5429.673057123657
 20
2537.931598713262
 30
0.0
 11
5429.673057123656
 21
2187.931598713261
 31
0.0
  0
LINE
  5
15CE7
330
747D
100
AcDbEntity
  8
破線
 48
5.0
100
AcDbLine
 10
7584.673057123655
 20
2187.931598713261
 30
0.0
 11
7529.673057123656
 21
2187.931598713261
 31
0.0
  0
LINE
  5
15CE8
330
747D
100
AcDbEntity
  8
破線
 48
5.0
100
AcDbLine
 10
5429.673057123655
 20
2187.931598713269
 30
0.0
 11
5374.673057123656
 21
2187.931598713269
 31
0.0
  0
LINE
  5
15CE9
330
747D
100
AcDbEntity
  8
部品1
100
AcDbLine
 10
5477.673057123657
 20
4512.931598713261
 30
0.0
 11
5477.673057123657
 21
2537.931598713262
 31
0.0
  0
LINE
  5
15CEA
330
747D
100
AcDbEntity
  8
破線
 48
5.0
100
AcDbLine
 10
5477.673057123657
 20
2537.931598713262
 30
0.0
 11
5477.673057123654
 21
2287.931598713267
 31
0.0
  0
LINE
  5
15CEB
330
747D
100
AcDbEntity
  8
部品1
100
AcDbLine
 10
7481.673057123659
 20
4512.931598713262
 30
0.0
 11
7481.673057123654
 21
2537.931598713262
 31
0.0
  0
LINE
  5
15CEC
330
747D
100
AcDbEntity
  8
破線
 48
5.0
100
AcDbLine
 10
7481.673057123654
 20
2537.931598713262
 30
0.0
 11
7481.673057123657
 21
2287.931598713262
 31
0.0
  0
LINE
  5
15CED
330
747D
100
AcDbEntity
  8
破線
 48
5.0
100
AcDbLine
 10
7529.673057123658
 20
2287.931598713262
 30
0.0
 11
7481.673057123656
 21
2287.931598713262
 31
0.0
  0
LINE
  5
15CEE
330
747D
100
AcDbEntity
  8
破線
 48
5.0
100
AcDbLine
 10
5477.673057123656
 20
2287.931598713267
 30
0.0
 11
5429.673057123655
 21
2287.931598713267
 31
0.0
  0
LINE
  5
15D20
330
747D
100
AcDbEntity
  8
細線
100
AcDbLine
 10
5477.673057123653
 20
4172.931598713261
 30
0.0
 11
7481.673057123654
 21
4172.931598713261
 31
0.0
  0
LINE
  5
15D21
330
747D
100
AcDbEntity
  8
細線
100
AcDbLine
 10
5477.673057123653
 20
4237.931598713261
 30
0.0
 11
7481.673057123654
 21
4237.931598713261
 31
0.0
  0
LINE
  5
15D22
330
747D
100
AcDbEntity
  8
細線
100
AcDbLine
 10
5477.673057123653
 20
4302.931598713261
 30
0.0
 11
7481.673057123654
 21
4302.931598713261
 31
0.0
  0
LINE
  5
15D23
330
747D
100
AcDbEntity
  8
細線
100
AcDbLine
 10
5477.673057123653
 20
3782.931598713262
 30
0.0
 11
7481.673057123654
 21
3782.931598713262
 31
0.0
  0
LINE
  5
15D24
330
747D
100
AcDbEntity
  8
細線
100
AcDbLine
 10
5477.673057123653
 20
3847.931598713262
 30
0.0
 11
7481.673057123654
 21
3847.931598713262
 31
0.0
  0
LINE
  5
15D25
330
747D
100
AcDbEntity
  8
細線
100
AcDbLine
 10
5477.673057123653
 20
3912.931598713262
 30
0.0
 11
7481.673057123654
 21
3912.931598713262
 31
0.0
  0
LINE
  5
15D26
330
747D
100
AcDbEntity
  8
細線
100
AcDbLine
 10
5477.673057123653
 20
3977.931598713261
 30
0.0
 11
7481.673057123654
 21
3977.931598713261
 31
0.0
  0
LINE
  5
15D27
330
747D
100
AcDbEntity
  8
細線
100
AcDbLine
 10
5477.673057123653
 20
4042.931598713261
 30
0.0
 11
7481.673057123654
 21
4042.931598713261
 31
0.0
  0
LINE
  5
15D28
330
747D
100
AcDbEntity
  8
細線
100
AcDbLine
 10
5477.673057123653
 20
4107.931598713261
 30
0.0
 11
7481.673057123654
 21
4107.931598713261
 31
0.0
  0
LINE
  5
15D29
330
747D
100
AcDbEntity
  8
細線
100
AcDbLine
 10
5477.673057123653
 20
3132.931598713261
 30
0.0
 11
7481.673057123654
 21
3132.931598713261
 31
0.0
  0
LINE
  5
15D2A
330
747D
100
AcDbEntity
  8
細線
100
AcDbLine
 10
5477.673057123653
 20
3197.931598713262
 30
0.0
 11
7481.673057123654
 21
3197.931598713262
 31
0.0
  0
LINE
  5
15D2B
330
747D
100
AcDbEntity
  8
細線
100
AcDbLine
 10
5477.673057123653
 20
3262.931598713262
 30
0.0
 11
7481.673057123654
 21
3262.931598713262
 31
0.0
  0
LINE
  5
15D2C
330
747D
100
AcDbEntity
  8
細線
100
AcDbLine
 10
5477.673057123653
 20
3327.931598713262
 30
0.0
 11
7481.673057123654
 21
3327.931598713262
 31
0.0
  0
LINE
  5
15D2D
330
747D
100
AcDbEntity
  8
細線
100
AcDbLine
 10
5477.673057123653
 20
3392.931598713261
 30
0.0
 11
7481.673057123654
 21
3392.931598713261
 31
0.0
  0
LINE
  5
15D2E
330
747D
100
AcDbEntity
  8
細線
100
AcDbLine
 10
5477.673057123653
 20
3457.931598713262
 30
0.0
 11
7481.673057123654
 21
3457.931598713262
 31
0.0
  0
LINE
  5
15D2F
330
747D
100
AcDbEntity
  8
細線
100
AcDbLine
 10
5477.673057123653
 20
3522.931598713262
 30
0.0
 11
7481.673057123654
 21
3522.931598713262
 31
0.0
  0
LINE
  5
15D30
330
747D
100
AcDbEntity
  8
細線
100
AcDbLine
 10
5477.673057123653
 20
3587.931598713261
 30
0.0
 11
7481.673057123654
 21
3587.931598713261
 31
0.0
  0
LINE
  5
15D31
330
747D
100
AcDbEntity
  8
細線
100
AcDbLine
 10
5477.673057123653
 20
3652.931598713261
 30
0.0
 11
7481.673057123654
 21
3652.931598713261
 31
0.0
  0
LINE
  5
15D32
330
747D
100
AcDbEntity
  8
細線
100
AcDbLine
 10
5477.673057123653
 20
3717.931598713261
 30
0.0
 11
7481.673057123654
 21
3717.931598713261
 31
0.0
  0
LINE
  5
15D33
330
747D
100
AcDbEntity
  8
細線
100
AcDbLine
 10
5477.673057123653
 20
4432.931598713262
 30
0.0
 11
7481.673057123654
 21
4432.931598713262
 31
0.0
  0
LINE
  5
15D34
330
747D
100
AcDbEntity
  8
細線
100
AcDbLine
 10
5477.673057123653
 20
4497.931598713261
 30
0.0
 11
7481.673057123654
 21
4497.931598713261
 31
0.0
  0
LINE
  5
15D35
330
747D
100
AcDbEntity
  8
細線
100
AcDbLine
 10
5477.673057123653
 20
4367.931598713261
 30
0.0
 11
7481.673057123654
 21
4367.931598713261
 31
0.0
  0
LINE
  5
15D36
330
747D
100
AcDbEntity
  8
細線
100
AcDbLine
 10
5477.673057123653
 20
2547.931598713262
 30
0.0
 11
7481.673057123654
 21
2547.931598713262
 31
0.0
  0
LINE
  5
15D37
330
747D
100
AcDbEntity
  8
細線
100
AcDbLine
 10
5477.673057123653
 20
2612.931598713262
 30
0.0
 11
7481.673057123654
 21
2612.931598713262
 31
0.0
  0
LINE
  5
15D38
330
747D
100
AcDbEntity
  8
細線
100
AcDbLine
 10
5477.673057123653
 20
2677.931598713261
 30
0.0
 11
7481.673057123654
 21
2677.931598713261
 31
0.0
  0
LINE
  5
15D39
330
747D
100
AcDbEntity
  8
細線
100
AcDbLine
 10
5477.673057123653
 20
2742.931598713262
 30
0.0
 11
7481.673057123654
 21
2742.931598713262
 31
0.0
  0
LINE
  5
15D3A
330
747D
100
AcDbEntity
  8
細線
100
AcDbLine
 10
5477.673057123653
 20
2807.931598713262
 30
0.0
 11
7481.673057123654
 21
2807.931598713262
 31
0.0
  0
LINE
  5
15D3B
330
747D
100
AcDbEntity
  8
細線
100
AcDbLine
 10
5477.673057123653
 20
2872.931598713261
 30
0.0
 11
7481.673057123654
 21
2872.931598713261
 31
0.0
  0
LINE
  5
15D3C
330
747D
100
AcDbEntity
  8
細線
100
AcDbLine
 10
5477.673057123653
 20
2937.931598713261
 30
0.0
 11
7481.673057123654
 21
2937.931598713261
 31
0.0
  0
LINE
  5
15D3D
330
747D
100
AcDbEntity
  8
細線
100
AcDbLine
 10
5477.673057123653
 20
3002.931598713261
 30
0.0
 11
7481.673057123654
 21
3002.931598713261
 31
0.0
  0
LINE
  5
15D3E
330
747D
100
AcDbEntity
  8
細線
100
AcDbLine
 10
5477.673057123653
 20
3067.931598713262
 30
0.0
 11
7481.673057123654
 21
3067.931598713262
 31
0.0
  0
LINE
  5
15D3F
330
747D
100
AcDbEntity
  8
細線
100
AcDbLine
 10
7481.673057123656
 20
2547.931598713262
 30
0.0
 11
5477.673057123651
 21
2547.931598713262
 31
0.0
  0
CIRCLE
  5
16043
330
747D
100
AcDbEntity
  8
細線
 48
50.0
100
AcDbCircle
 10
6479.673057123654
 20
3425.431598713262
 30
0.0
 40
18.0
  0
ARC
  5
16045
330
747D
100
AcDbEntity
  8
細線
 48
50.0
100
AcDbCircle
 10
6779.673057123654
 20
3100.431598713262
 30
0.0
 40
15.0
100
AcDbArc
 50
270.0
 51
90.0
  0
ARC
  5
16046
330
747D
100
AcDbEntity
  8
細線
 48
50.0
100
AcDbCircle
 10
6679.673057123654
 20
3100.431598713262
 30
0.0
 40
15.0
100
AcDbArc
 50
90.0
 51
270.0
  0
LINE
  5
16047
330
747D
100
AcDbEntity
  8
細線
 48
50.0
100
AcDbLine
 10
6679.673057123654
 20
3115.431598713261
 30
0.0
 11
6779.673057123654
 21
3115.431598713261
 31
0.0
  0
LINE
  5
16048
330
747D
100
AcDbEntity
  8
細線
 48
50.0
100
AcDbLine
 10
6779.673057123654
 20
3085.431598713262
 30
0.0
 11
6679.673057123654
 21
3085.431598713262
 31
0.0
  0
LINE
  5
16049
330
747D
100
AcDbEntity
  8
細線
 48
50.0
100
AcDbLine
 10
6279.673057123654
 20
3085.431598713262
 30
0.0
 11
6179.673057123654
 21
3085.431598713262
 31
0.0
  0
LINE
  5
1604A
330
747D
100
AcDbEntity
  8
細線
 48
50.0
100
AcDbLine
 10
6179.673057123654
 20
3115.431598713261
 30
0.0
 11
6279.673057123654
 21
3115.431598713261
 31
0.0
  0
ARC
  5
1604B
330
747D
100
AcDbEntity
  8
細線
 48
50.0
100
AcDbCircle
 10
6279.673057123654
 20
3100.431598713262
 30
0.0
 40
15.0
100
AcDbArc
 50
270.0
 51
90.0
  0
ARC
  5
1604C
330
747D
100
AcDbEntity
  8
細線
 48
50.0
100
AcDbCircle
 10
6179.673057123654
 20
3100.431598713262
 30
0.0
 40
15.0
100
AcDbArc
 50
90.0
 51
270.0
  0
DIMENSION
  5
162CD
330
747D
100
AcDbEntity
  8
寸法
100
AcDbDimension
  2
*D1
 10
8232.09940285807
 20
7197.497424545952
 30
0.0
 11
8132.08759183445
 21
7877.497424545959
 31
0.0
 12
210.0
 22
160.0
 32
0.0
 70
    32
  1
4X420=<>
 71
     5
 42
-1.0
  3
INABA_S40G
100
AcDbAlignedDimension
 13
7584.673057123665
 23
8877.497424545968
 33
0.0
 14
7584.673057123639
 24
7197.497424545952
 34
0.0
 50
90.0
100
AcDbRotatedDimension
1001
ACAD
1000
DSTYLE
1002
{
1002
}
  0
DIMENSION
  5
162CE
330
747D
100
AcDbEntity
  8
寸法
100
AcDbDimension
  2
*D2
 10
8232.099402858048
 20
7142.497424545955
 30
0.0
 11
8232.099402858048
 21
6764.635957641094
 31
0.0
 12
210.0
 22
160.0
 32
0.0
 70
   160
 71
     5
 42
-1.0
  3
INABA_S40G
100
AcDbAlignedDimension
 13
7584.673057123639
 23
7197.497424545952
 33
0.0
 14
7584.673057123639
 24
7142.497424545957
 34
0.0
 50
90.0
100
AcDbRotatedDimension
1001
ACAD
1000
DSTYLE
1002
{
1002
}
  0
DIMENSION
  5
162CF
330
747D
100
AcDbEntity
  8
寸法
100
AcDbDimension
  2
*D3
 10
8232.099402858073
 20
8877.497424545968
 30
0.0
 11
8232.099402858073
 21
9240.982705920202
 31
0.0
 12
210.0
 22
-1100.0
 32
0.0
 70
   160
 71
     5
 42
-1.0
  3
INABA_S40G
100
AcDbAlignedDimension
 13
7584.673057123665
 23
8932.497424545964
 33
0.0
 14
7584.673057123665
 24
8877.497424545968
 34
0.0
 50
90.0
100
AcDbRotatedDimension
1001
ACAD
1000
DSTYLE
1002
{
1002
}
  0
DIMENSION
  5
162D0
330
747D
100
AcDbEntity
  8
寸法
100
AcDbDimension
  2
*D4
 10
8597.20634459771
 20
7142.497424545955
 30
0.0
 11
8497.20634459771
 21
7877.497424545959
 31
0.0
 12
210.0
 22
160.0
 32
0.0
 70
    32
 71
     5
 42
-1.0
  3
INABA_S40G
100
AcDbAlignedDimension
 13
7584.673057123665
 23
8932.497424545964
 33
0.0
 14
7584.673057123639
 24
7142.497424545957
 34
0.0
 50
90.0
100
AcDbRotatedDimension
1001
ACAD
1000
DSTYLE
1002
{
1002
}
  0
LINE
  5
162DC
330
747D
100
AcDbEntity
  8
部品1
100
AcDbLine
 10
7556.673057123648
 20
8904.497424545963
 30
0.0
 11
7556.67305712364
 21
7197.497424545952
 31
0.0
  0
LINE
  5
162DD
330
747D
100
AcDbEntity
  8
部品1
100
AcDbLine
 10
5402.673057123639
 20
7197.497424545821
 30
0.0
 11
5402.673057123649
 21
8904.497424545871
 31
0.0
  0
LINE
  5
162DE
330
747D
100
AcDbEntity
  8
部品1
100
AcDbLine
 10
7584.673057123665
 20
8932.497424545964
 30
0.0
 11
7584.673057123639
 21
7142.497424545957
 31
0.0
  0
LINE
  5
162DF
330
747D
100
AcDbEntity
  8
部品1
100
AcDbLine
 10
5374.673057123628
 20
8932.497424545836
 30
0.0
 11
5374.673057123657
 21
7142.497424545826
 31
0.0
  0
DIMENSION
  5
162E4
330
747D
100
AcDbEntity
  8
寸法
 48
50.0
100
AcDbDimension
  2
*D5
 10
5477.673057123657
 20
6608.0666537797
 30
0.0
 11
6479.673057123648
 21
6708.078464803323
 31
0.0
 12
-1105.0
 22
0.0
 32
0.0
 70
    32
  1
有効開口部間口 <>
 71
     5
 42
-1.0
  3
INABA_S40G
100
AcDbAlignedDimension
 13
7481.673057123639
 23
7168.497424545865
 33
0.0
 14
5477.673057123657
 24
7168.497424545865
 34
0.0
100
AcDbRotatedDimension
1001
ACAD
1000
DSTYLE
1002
{
1070
    75
1070
     1
1070
   279
1070
     2
1002
}
  0
LINE
  5
162E6
330
747D
100
AcDbEntity
  8
部品1
 48
50.0
100
AcDbLine
 10
5441.673057123655
 20
7187.997424545864
 30
0.0
 11
7517.673057123641
 21
7187.997424545864
 31
0.0
  0
LINE
  5
162E8
330
747D
100
AcDbEntity
  8
部品1
100
AcDbLine
 10
5429.673057123634
 20
8877.497424545888
 30
0.0
 11
5429.673057123656
 21
7207.497424545863
 31
0.0
  0
LINE
  5
162E9
330
747D
100
AcDbEntity
  8
部品1
100
AcDbLine
 10
5454.673057123635
 20
8877.497424545884
 30
0.0
 11
5454.673057123656
 21
7207.497424545863
 31
0.0
  0
DIMENSION
  5
162EA
330
747D
100
AcDbEntity
  8
寸法
 48
50.0
100
AcDbDimension
  2
*D6
 10
5374.673057123657
 20
6608.0666537797
 30
0.0
 11
5066.187775749419
 21
6608.0666537797
 31
0.0
 12
630.0
 22
160.0
 32
0.0
 70
   160
 71
     5
 42
-1.0
  3
INABA_S40G
100
AcDbAlignedDimension
 13
5429.673057123653
 23
7142.497424545864
 33
0.0
 14
5374.673057123657
 24
7142.497424545862
 34
0.0
100
AcDbRotatedDimension
1001
ACAD
1000
DSTYLE
1002
{
1002
}
  0
DIMENSION
  5
162EB
330
747D
100
AcDbEntity
  8
寸法
 48
50.0
100
AcDbDimension
  2
*D7
 10
5429.673057123653
 20
6608.0666537797
 30
0.0
 11
5590.575028123715
 21
6708.0666537797
 31
0.0
 12
630.0
 22
160.0
 32
0.0
 70
   160
 71
     5
 42
-1.0
  3
INABA_S40G
100
AcDbAlignedDimension
 13
5477.673057123657
 23
7168.497424545865
 33
0.0
 14
5429.673057123653
 24
7142.497424545864
 34
0.0
100
AcDbRotatedDimension
1001
ACAD
1000
DSTYLE
1002
{
1070
   279
1070
     2
1002
}
  0
LINE
  5
162EC
330
747D
100
AcDbEntity
  8
部品1
100
AcDbLine
 10
5429.673057123652
 20
7142.497424545864
 30
0.0
 11
5374.673057123657
 21
7142.497424545862
 31
0.0
  0
LINE
  5
162ED
330
747D
100
AcDbEntity
  8
部品1
 48
50.0
100
AcDbLine
 10
5429.673057123657
 20
7178.497424545864
 30
0.0
 11
5406.673057123657
 21
7178.497424545864
 31
0.0
  0
LINE
  5
162EE
330
747D
100
AcDbEntity
  8
部品1
 48
50.0
100
AcDbLine
 10
5439.673057123656
 20
7168.497424545865
 30
0.0
 11
5429.673057123657
 21
7147.497424545864
 31
0.0
  0
LINE
  5
162EF
330
747D
100
AcDbEntity
  8
部品1
 48
50.0
100
AcDbLine
 10
5429.673057123657
 20
7207.497424545863
 30
0.0
 11
5429.673057123653
 21
7142.497424545864
 31
0.0
  0
LINE
  5
162F0
330
747D
100
AcDbEntity
  8
部品1
 48
50.0
100
AcDbLine
 10
5477.673057123657
 20
7168.497424545865
 30
0.0
 11
5477.673057123657
 21
7177.497424545865
 31
0.0
  0
LINE
  5
162F1
330
747D
100
AcDbEntity
  8
部品1
 48
50.0
100
AcDbLine
 10
5477.673057123657
 20
7207.497424545865
 30
0.0
 11
5477.673057123657
 21
7198.497424545866
 31
0.0
  0
LINE
  5
162F2
330
747D
100
AcDbEntity
  8
部品1
100
AcDbLine
 10
5477.673057123657
 20
7207.497424545865
 30
0.0
 11
5429.673057123657
 21
7207.497424545865
 31
0.0
  0
LINE
  5
162F3
330
747D
100
AcDbEntity
  8
部品1
100
AcDbLine
 10
5477.673057123657
 20
7168.497424545865
 30
0.0
 11
5429.673057123657
 21
7168.497424545865
 31
0.0
  0
LINE
  5
162F4
330
747D
100
AcDbEntity
  8
部品1
100
AcDbLine
 10
5429.673057123656
 20
7178.497424545864
 30
0.0
 11
5406.673057123657
 21
7178.497424545864
 31
0.0
  0
LINE
  5
162F5
330
747D
100
AcDbEntity
  8
部品1
100
AcDbLine
 10
5429.673057123656
 20
7197.497424545789
 30
0.0
 11
5374.673057123654
 21
7197.497424545789
 31
0.0
  0
LINE
  5
162F6
330
747D
100
AcDbEntity
  8
部品1
100
AcDbLine
 10
5402.673057123639
 20
7197.497424545826
 30
0.0
 11
5374.673057123654
 21
7197.497424545826
 31
0.0
  0
LINE
  5
162F7
330
747D
100
AcDbEntity
  8
部品1
100
AcDbLine
 10
5402.673057123655
 20
7197.49742454584
 30
0.0
 11
5374.673057123654
 21
7197.49742454584
 31
0.0
  0
LINE
  5
162FB
330
747D
100
AcDbEntity
  8
部品1
100
AcDbLine
 10
5402.673057123643
 20
7617.49742454584
 30
0.0
 11
5374.673057123644
 21
7617.49742454584
 31
0.0
  0
LINE
  5
162FC
330
747D
100
AcDbEntity
  8
部品1
100
AcDbLine
 10
5402.673057123643
 20
8037.49742454584
 30
0.0
 11
5374.673057123644
 21
8037.49742454584
 31
0.0
  0
LINE
  5
162FE
330
747D
100
AcDbEntity
  8
部品1
100
AcDbLine
 10
5402.673057123638
 20
8457.49742454584
 30
0.0
 11
5374.673057123637
 21
8457.49742454584
 31
0.0
  0
LINE
  5
162FF
330
747D
100
AcDbEntity
  8
部品1
100
AcDbLine
 10
7529.673057123661
 20
8877.497424545884
 30
0.0
 11
7529.673057123641
 21
7142.497424545952
 31
0.0
  0
LINE
  5
16300
330
747D
100
AcDbEntity
  8
部品1
100
AcDbLine
 10
7504.673057123664
 20
8877.497424545884
 30
0.0
 11
7504.673057123641
 21
7207.497424545865
 31
0.0
  0
DIMENSION
  5
16301
330
747D
100
AcDbEntity
  8
寸法
 48
50.0
100
AcDbDimension
  2
*D8
 10
7481.673057123639
 20
6608.0666537797
 30
0.0
 11
7370.71015947489
 21
6708.0666537797
 31
0.0
 12
210.0
 22
160.0
 32
0.0
 70
   160
 71
     5
 42
-1.0
  3
INABA_S40G
100
AcDbAlignedDimension
 13
7529.673057123641
 23
7142.497424545952
 33
0.0
 14
7481.673057123639
 24
7168.497424545865
 34
0.0
100
AcDbRotatedDimension
1001
ACAD
1000
DSTYLE
1002
{
1070
   279
1070
     2
1002
}
  0
DIMENSION
  5
16302
330
747D
100
AcDbEntity
  8
寸法
 48
50.0
100
AcDbDimension
  2
*D9
 10
7529.673057123641
 20
6608.066653779701
 30
0.0
 11
7893.158338497876
 21
6608.066653779701
 31
0.0
 12
210.0
 22
160.0
 32
0.0
 70
   160
 71
     5
 42
-1.0
  3
INABA_S40G
100
AcDbAlignedDimension
 13
7584.673057123639
 23
7142.497424545957
 33
0.0
 14
7529.673057123641
 24
7142.497424545952
 34
0.0
100
AcDbRotatedDimension
1001
ACAD
1000
DSTYLE
1002
{
1002
}
  0
LINE
  5
16303
330
747D
100
AcDbEntity
  8
部品1
 48
50.0
100
AcDbLine
 10
7519.673057123639
 20
7168.497424545865
 30
0.0
 11
7529.673057123638
 21
7147.497424545864
 31
0.0
  0
LINE
  5
16304
330
747D
100
AcDbEntity
  8
部品1
100
AcDbLine
 10
7481.673057123639
 20
7207.497424545865
 30
0.0
 11
7529.673057123641
 21
7207.497424545865
 31
0.0
  0
LINE
  5
16305
330
747D
100
AcDbEntity
  8
部品1
100
AcDbLine
 10
7481.673057123639
 20
7168.497424545865
 30
0.0
 11
7529.673057123638
 21
7168.497424545865
 31
0.0
  0
LINE
  5
16306
330
747D
100
AcDbEntity
  8
部品1
 48
50.0
100
AcDbLine
 10
7481.673057123639
 20
7207.497424545865
 30
0.0
 11
7481.673057123639
 21
7198.497424545866
 31
0.0
  0
LINE
  5
16307
330
747D
100
AcDbEntity
  8
部品1
 48
50.0
100
AcDbLine
 10
7481.673057123639
 20
7168.497424545865
 30
0.0
 11
7481.673057123639
 21
7177.497424545865
 31
0.0
  0
LINE
  5
16308
330
747D
100
AcDbEntity
  8
部品1
100
AcDbLine
 10
7529.673057123638
 20
7178.497424545863
 30
0.0
 11
7552.673057123638
 21
7178.497424545864
 31
0.0
  0
LINE
  5
16309
330
747D
100
AcDbEntity
  8
部品1
100
AcDbLine
 10
7529.673057123638
 20
7197.497424545968
 30
0.0
 11
7584.673057123672
 21
7197.497424545968
 31
0.0
  0
LINE
  5
1630A
330
747D
100
AcDbEntity
  8
部品1
100
AcDbLine
 10
7584.673057123639
 20
7142.497424545957
 30
0.0
 11
7529.673057123641
 21
7142.497424545954
 31
0.0
  0
LINE
  5
16317
330
747D
100
AcDbEntity
  8
部品1
100
AcDbLine
 10
7556.673057123667
 20
7617.497424545966
 30
0.0
 11
7584.673057123668
 21
7617.497424545966
 31
0.0
  0
LINE
  5
16319
330
747D
100
AcDbEntity
  8
部品1
100
AcDbLine
 10
7556.673057123667
 20
8037.497424545966
 30
0.0
 11
7584.673057123668
 21
8037.497424545966
 31
0.0
  0
LINE
  5
1631A
330
747D
100
AcDbEntity
  8
部品1
100
AcDbLine
 10
7556.673057123664
 20
8457.497424545968
 30
0.0
 11
7584.673057123665
 21
8457.497424545968
 31
0.0
  0
LINE
  5
1631B
330
747D
100
AcDbEntity
  8
部品1
100
AcDbLine
 10
5402.673057123649
 20
8904.497424545985
 30
0.0
 11
6677.173057123662
 21
8904.497424545985
 31
0.0
  0
LINE
  5
1631D
330
747D
100
AcDbEntity
  8
部品1
100
AcDbLine
 10
5374.673057123663
 20
8932.49742454587
 30
0.0
 11
7584.673057123665
 21
8932.497424545964
 31
0.0
  0
DIMENSION
  5
1631F
330
747D
100
AcDbEntity
  8
寸法
100
AcDbDimension
  2
*D10
 10
7529.673057123663
 20
9148.305644170966
 30
0.0
 11
6479.673057123664
 21
9148.305644170966
 31
0.0
 70
   160
  1
5X420=<>
 71
     5
 42
2100.000000000001
  3
INABA_S40G
100
AcDbAlignedDimension
 13
5429.673057123663
 23
8932.49742454587
 33
0.0
 14
7529.673057123663
 24
8932.497424545964
 34
0.0
100
AcDbRotatedDimension
1001
ACAD
1000
DSTYLE
1002
{
1002
}
  0
DIMENSION
  5
16320
330
747D
100
AcDbEntity
  8
寸法
100
AcDbDimension
  2
*D11
 10
5429.673057123663
 20
9148.305644170852
 30
0.0
 11
5066.187775749391
 21
9148.305644170852
 31
0.0
 12
630.0
 22
-1100.0
 32
0.0
 70
   160
 71
     5
 42
-1.0
  3
INABA_S40G
100
AcDbAlignedDimension
 13
5374.673057123628
 23
8932.49742454587
 33
0.0
 14
5429.673057123663
 24
8932.49742454587
 34
0.0
100
AcDbRotatedDimension
1001
ACAD
1000
DSTYLE
1002
{
1002
}
  0
LINE
  5
16321
330
747D
100
AcDbEntity
  8
部品1
100
AcDbLine
 10
5429.673057123629
 20
8932.497424545836
 30
0.0
 11
5429.67305712363
 21
8904.497424545835
 31
0.0
  0
LINE
  5
16322
330
747D
100
AcDbEntity
  8
部品1
100
AcDbLine
 10
5429.673057123663
 20
8932.49742454587
 30
0.0
 11
5429.673057123663
 21
8904.497424545869
 31
0.0
  0
LINE
  5
16323
330
747D
100
AcDbEntity
  8
部品1
100
AcDbLine
 10
5402.673057123631
 20
8877.49742454584
 30
0.0
 11
5374.67305712363
 21
8877.49742454584
 31
0.0
  0
LINE
  5
16324
330
747D
100
AcDbEntity
  8
部品1
100
AcDbLine
 10
5849.673057123663
 20
8932.497424545985
 30
0.0
 11
5849.673057123663
 21
8904.497424545985
 31
0.0
  0
LINE
  5
16325
330
747D
100
AcDbEntity
  8
部品1
100
AcDbLine
 10
5849.673057123663
 20
8932.49742454587
 30
0.0
 11
5849.673057123663
 21
8904.497424545869
 31
0.0
  0
LINE
  5
16326
330
747D
100
AcDbEntity
  8
部品1
100
AcDbLine
 10
5849.673057123663
 20
8932.49742454587
 30
0.0
 11
5849.673057123663
 21
8904.497424545869
 31
0.0
  0
LINE
  5
16327
330
747D
100
AcDbEntity
  8
部品1
100
AcDbLine
 10
6702.173057123663
 20
8904.497424545981
 30
0.0
 11
7556.673057123664
 21
8904.497424545963
 31
0.0
  0
LINE
  5
16329
330
747D
100
AcDbEntity
  8
部品1
100
AcDbLine
 10
6269.673057123664
 20
8932.497424545985
 30
0.0
 11
6269.673057123664
 21
8904.497424545985
 31
0.0
  0
LINE
  5
1632A
330
747D
100
AcDbEntity
  8
部品1
100
AcDbLine
 10
6269.673057123664
 20
8932.49742454587
 30
0.0
 11
6269.673057123664
 21
8904.497424545869
 31
0.0
  0
LINE
  5
1632B
330
747D
100
AcDbEntity
  8
部品1
100
AcDbLine
 10
6269.673057123664
 20
8932.49742454587
 30
0.0
 11
6269.673057123664
 21
8904.497424545869
 31
0.0
  0
LINE
  5
1632C
330
747D
100
AcDbEntity
  8
部品1
100
AcDbLine
 10
6689.673057123663
 20
8932.497424545985
 30
0.0
 11
6689.673057123663
 21
8904.497424545985
 31
0.0
  0
LINE
  5
1632D
330
747D
100
AcDbEntity
  8
部品1
100
AcDbLine
 10
6677.173057123663
 20
8896.497424545968
 30
0.0
 11
6702.173057123663
 21
8896.497424545971
 31
0.0
  0
LINE
  5
1632E
330
747D
100
AcDbEntity
  8
部品1
100
AcDbLine
 10
6718.673057123663
 20
8922.497424545971
 30
0.0
 11
6724.673057123663
 21
8922.497424545971
 31
0.0
  0
LINE
  5
1632F
330
747D
100
AcDbEntity
  8
部品1
100
AcDbLine
 10
6724.673057123663
 20
8922.497424545971
 30
0.0
 11
6724.673057123663
 21
8904.49742454597
 31
0.0
  0
LINE
  5
16330
330
747D
100
AcDbEntity
  8
部品1
100
AcDbLine
 10
6654.673057123663
 20
8922.497424545971
 30
0.0
 11
6660.673057123663
 21
8922.497424545971
 31
0.0
  0
LINE
  5
16331
330
747D
100
AcDbEntity
  8
部品1
100
AcDbLine
 10
6654.673057123663
 20
8922.497424545971
 30
0.0
 11
6654.673057123663
 21
8904.49742454597
 31
0.0
  0
DIMENSION
  5
16333
330
747D
100
AcDbEntity
  8
寸法
100
AcDbDimension
  2
*D12
 10
7584.673057123665
 20
9148.30564417095
 30
0.0
 11
7893.158338497902
 21
9148.30564417095
 31
0.0
 12
210.0
 22
-1100.0
 32
0.0
 70
   160
 71
     5
 42
-1.0
  3
INABA_S40G
100
AcDbAlignedDimension
 13
7529.673057123663
 23
8932.497424545964
 33
0.0
 14
7584.673057123665
 24
8932.497424545964
 34
0.0
100
AcDbRotatedDimension
1001
ACAD
1000
DSTYLE
1002
{
1002
}
  0
LINE
  5
16334
330
747D
100
AcDbEntity
  8
部品1
100
AcDbLine
 10
7109.673057123662
 20
8932.497424545985
 30
0.0
 11
7109.673057123662
 21
8904.497424545985
 31
0.0
  0
LINE
  5
16335
330
747D
100
AcDbEntity
  8
部品1
100
AcDbLine
 10
7529.673057123663
 20
8932.497424545964
 30
0.0
 11
7529.673057123663
 21
8904.497424545963
 31
0.0
  0
LINE
  5
16336
330
747D
100
AcDbEntity
  8
部品1
100
AcDbLine
 10
7529.673057123663
 20
8932.497424545985
 30
0.0
 11
7529.673057123663
 21
8904.497424545985
 31
0.0
  0
LINE
  5
16337
330
747D
100
AcDbEntity
  8
部品1
100
AcDbLine
 10
7556.673057123664
 20
8877.497424545968
 30
0.0
 11
7584.673057123665
 21
8877.497424545968
 31
0.0
  0
LINE
  5
16563
330
747D
100
AcDbEntity
  8
破線
 48
5.0
100
AcDbLine
 10
5477.673057123657
 20
2537.931598713262
 30
0.0
 11
5477.673057123654
 21
2287.931598713267
 31
0.0
  0
LINE
  5
16564
330
747D
100
AcDbEntity
  8
破線
 48
5.0
100
AcDbLine
 10
5477.673057123656
 20
2287.931598713267
 30
0.0
 11
5429.673057123655
 21
2287.931598713267
 31
0.0
  0
LINE
  5
16565
330
747D
100
AcDbEntity
  8
破線
 48
5.0
100
AcDbLine
 10
5429.673057123657
 20
2537.931598713262
 30
0.0
 11
5429.673057123656
 21
2187.931598713261
 31
0.0
  0
LINE
  5
16567
330
747D
100
AcDbEntity
  8
部品1
100
AcDbLine
 10
5374.673057123656
 20
4512.931598713261
 30
0.0
 11
7584.673057123659
 21
4512.931598713262
 31
0.0
  0
LINE
  5
1665C
330
747D
100
AcDbEntity
  8
部品1
100
AcDbLine
 10
5477.673057123657
 20
7207.497424545865
 30
0.0
 11
5429.673057123657
 21
7207.497424545865
 31
0.0
  0
LINE
  5
1665D
330
747D
100
AcDbEntity
  8
部品1
 48
50.0
100
AcDbLine
 10
5477.673057123657
 20
7207.497424545865
 30
0.0
 11
5477.673057123657
 21
7198.497424545866
 31
0.0
  0
LINE
  5
1665E
330
747D
100
AcDbEntity
  8
部品1
100
AcDbLine
 10
5477.673057123657
 20
7168.497424545865
 30
0.0
 11
5429.673057123657
 21
7168.497424545865
 31
0.0
  0
LINE
  5
1665F
330
747D
100
AcDbEntity
  8
部品1
 48
50.0
100
AcDbLine
 10
5439.673057123656
 20
7168.497424545865
 30
0.0
 11
5429.673057123657
 21
7147.497424545864
 31
0.0
  0
LINE
  5
16661
330
747D
100
AcDbEntity
  8
部品1
 48
50.0
100
AcDbLine
 10
5429.673057123657
 20
7207.497424545863
 30
0.0
 11
5429.673057123653
 21
7142.497424545864
 31
0.0
  0
LINE
  5
16662
330
747D
100
AcDbEntity
  8
部品1
 48
50.0
100
AcDbLine
 10
5477.673057123657
 20
7168.497424545865
 30
0.0
 11
5477.673057123657
 21
7177.497424545865
 31
0.0
  0
LINE
  5
16761
330
747D
100
AcDbEntity
  8
部品1
100
AcDbLine
 10
7529.673057123658
 20
8877.497424545884
 30
0.0
 11
5429.673057123634
 21
8877.497424545888
 31
0.0
  0
DIMENSION
  5
16913
330
747D
100
AcDbEntity
  8
寸法
 48
50.0
100
AcDbDimension
  2
*D13
 10
7584.673057123665
 20
9397.62711772726
 30
0.0
 11
6479.673057123672
 21
9497.638928750882
 31
0.0
 12
-1105.0
 22
0.0
 32
0.0
 70
    32
 71
     5
 42
-1.0
  3
INABA_S40G
100
AcDbAlignedDimension
 13
5374.67305712368
 23
8932.49742454587
 33
0.0
 14
7584.673057123665
 24
8932.497424545964
 34
0.0
100
AcDbRotatedDimension
1001
ACAD
1000
DSTYLE
1002
{
1070
   279
1070
     2
1002
}
  0
LINE
  5
174C8
330
747D
100
AcDbEntity
  8
部品1
 48
50.0
100
AcDbLine
 10
7504.673057123664
 20
8852.497424545843
 30
0.0
 11
5454.673057123634
 21
8852.497424545788
 31
0.0
  0
LINE
  5
174C9
330
747D
100
AcDbEntity
  8
部品1
 48
50.0
100
AcDbLine
 10
7556.673057123664
 20
8904.497424545963
 30
0.0
 11
7529.673057123658
 21
8877.497424545884
 31
0.0
  0
LINE
  5
174CA
330
747D
100
AcDbEntity
  8
部品1
 48
50.0
100
AcDbLine
 10
5429.673057123634
 20
8877.497424545888
 30
0.0
 11
5402.673057123649
 21
8904.497424545985
 31
0.0
  0
LINE
  5
174CB
330
747D
100
AcDbEntity
  8
部品1
 48
50.0
100
AcDbLine
 10
6677.173057123663
 20
8896.497424545968
 30
0.0
 11
6677.173057123662
 21
8904.497424545985
 31
0.0
  0
LINE
  5
174CC
330
747D
100
AcDbEntity
  8
部品1
 48
50.0
100
AcDbLine
 10
6702.173057123663
 20
8896.497424545971
 30
0.0
 11
6702.173057123663
 21
8904.497424545981
 31
0.0
  0
LINE
  5
17613
330
747D
100
AcDbEntity
  8
仕様書枠
 48
50.0
100
AcDbLine
 10
16307.19999999999
 20
11239.6
 30
0.0
 11
13127.2
 21
11239.6
 31
0.0
  0
LINE
  5
17614
330
747D
100
AcDbEntity
  8
仕様書枠
 48
50.0
100
AcDbLine
 10
13127.2
 20
11239.6
 30
0.0
 11
13127.2
 21
8519.600000000002
 31
0.0
  0
LINE
  5
17615
330
747D
100
AcDbEntity
  8
仕様書枠
 48
50.0
100
AcDbLine
 10
16307.19999999999
 20
8519.599999999996
 30
0.0
 11
16307.2
 21
11239.6
 31
0.0
  0
LINE
  5
17616
330
747D
100
AcDbEntity
  8
仕様書枠
 48
50.0
100
AcDbLine
 10
14785.2
 20
11239.59999999999
 30
0.0
 11
14785.2
 21
9029.6
 31
0.0
  0
LINE
  5
17617
330
747D
100
AcDbEntity
  8
仕様書枠
 48
50.0
100
AcDbLine
 10
13490.2
 20
11239.6
 30
0.0
 11
13490.2
 21
9029.600000000002
 31
0.0
  0
LINE
  5
17618
330
747D
100
AcDbEntity
  8
仕様書枠
 48
50.0
100
AcDbLine
 10
16307.19999999999
 20
11069.6
 30
0.0
 11
13127.2
 21
11069.6
 31
0.0
  0
LINE
  5
17619
330
747D
100
AcDbEntity
  8
仕様書枠
 48
50.0
100
AcDbLine
 10
16307.19999999999
 20
10729.6
 30
0.0
 11
13127.2
 21
10729.6
 31
0.0
  0
LINE
  5
1761A
330
747D
100
AcDbEntity
  8
仕様書枠
 48
50.0
100
AcDbLine
 10
16307.19999999999
 20
10899.6
 30
0.0
 11
13127.2
 21
10899.6
 31
0.0
  0
LINE
  5
1761B
330
747D
100
AcDbEntity
  8
仕様書枠
 48
50.0
100
AcDbLine
 10
16307.19999999999
 20
10389.6
 30
0.0
 11
13127.19999999999
 21
10389.6
 31
0.0
  0
LINE
  5
1761C
330
747D
100
AcDbEntity
  8
仕様書枠
 48
50.0
100
AcDbLine
 10
16307.19999999999
 20
10219.6
 30
0.0
 11
13127.19999999999
 21
10219.6
 31
0.0
  0
LINE
  5
1761D
330
747D
100
AcDbEntity
  8
仕様書枠
 48
50.0
100
AcDbLine
 10
16307.19999999999
 20
10559.6
 30
0.0
 11
13127.19999999999
 21
10559.6
 31
0.0
  0
TEXT
  5
1761E
330
747D
100
AcDbEntity
  8
文字
 62
     7
 48
50.0
100
AcDbText
 10
13197.42518560407
 20
11100.01374588373
 30
0.0
 40
100.0
  1
品番
  7
STYLE1
100
AcDbText
  0
TEXT
  5
1761F
330
747D
100
AcDbEntity
  8
文字
 62
     7
 48
50.0
100
AcDbText
 10
13271.19032244792
 20
10930.01374588373
 30
0.0
 40
100.0
  1
1
  7
STYLE1
100
AcDbText
  0
TEXT
  5
17620
330
747D
100
AcDbEntity
  8
文字
 62
     7
 48
50.0
100
AcDbText
 10
13271.19032244792
 20
10760.01374588373
 30
0.0
 40
100.0
  1
2
  7
STYLE1
100
AcDbText
  0
TEXT
  5
17621
330
747D
100
AcDbEntity
  8
文字
 62
     7
 48
50.0
100
AcDbText
 10
13271.19032244792
 20
10420.01374588373
 30
0.0
 40
100.0
  1
4
  7
STYLE1
100
AcDbText
  0
TEXT
  5
17622
330
747D
100
AcDbEntity
  8
文字
 62
     7
 48
50.0
100
AcDbText
 10
13271.19032244792
 20
10590.01374588373
 30
0.0
 40
100.0
  1
3
  7
STYLE1
100
AcDbText
  0
TEXT
  5
17623
330
747D
100
AcDbEntity
  8
文字
 62
     7
 48
50.0
100
AcDbText
 10
13732.03840939434
 20
11100.01374588373
 30
0.0
 40
100.0
  1
部　　品　　名
  7
STYLE1
100
AcDbText
  0
TEXT
  5
17624
330
747D
100
AcDbEntity
  8
文字
 62
     7
 48
50.0
100
AcDbText
 10
14859.79774614482
 20
11100.01374588373
 30
0.0
 40
100.0
  1
材料（材質）　　単位mm
  7
STYLE1
100
AcDbText
  0
TEXT
  5
17625
330
747D
100
AcDbEntity
  8
文字
 62
     7
 48
50.0
100
AcDbText
 10
13583.11819016569
 20
10930.01374588372
 30
0.0
 40
100.0
  1
土台枠
  7
STYLE1
100
AcDbText
  0
TEXT
  5
17626
330
747D
100
AcDbEntity
  8
文字
 62
     7
 48
50.0
100
AcDbText
 10
13583.11819016569
 20
10760.01374588372
 30
0.0
 40
100.0
  1
柱
  7
STYLE1
100
AcDbText
  0
TEXT
  5
17627
330
747D
100
AcDbEntity
  8
文字
 62
     7
 48
50.0
100
AcDbText
 10
13583.11819016569
 20
10590.01374588373
 30
0.0
 40
100.0
  1
桁前
  7
STYLE1
100
AcDbText
  0
TEXT
  5
17628
330
747D
100
AcDbEntity
  8
文字
 62
     7
 48
50.0
100
AcDbText
 10
13583.11819016569
 20
10420.01374588373
 30
0.0
 40
100.0
  1
桁後
  7
STYLE1
100
AcDbText
  0
TEXT
  5
17629
330
747D
100
AcDbEntity
  8
文字
 62
     7
 48
50.0
100
AcDbText
 10
13271.19032244792
 20
10250.01374588373
 30
0.0
 40
100.0
  1
5
  7
STYLE1
100
AcDbText
  0
TEXT
  5
1762A
330
747D
100
AcDbEntity
  8
文字
 62
     7
 48
50.0
100
AcDbText
 10
13583.11819016569
 20
10250.01374588373
 30
0.0
 40
100.0
  1
妻板左右
  7
STYLE1
100
AcDbText
  0
TEXT
  5
1762B
330
747D
100
AcDbEntity
  8
文字
 62
     7
 48
50.0
100
AcDbText
 10
13583.11819016569
 20
9060.013745883727
 30
0.0
 40
100.0
  1
シャッターレール
  7
STYLE1
100
AcDbText
  0
TEXT
  5
1762C
330
747D
100
AcDbEntity
  8
文字
 62
     7
 48
50.0
100
AcDbText
 10
13248.77747366448
 20
9400.013745883727
 30
0.0
 40
100.0
  1
10
  7
STYLE1
100
AcDbText
  0
TEXT
  5
1762D
330
747D
100
AcDbEntity
  8
文字
 62
     7
 48
50.0
100
AcDbText
 10
13583.11819016569
 20
9570.013745883729
 30
0.0
 40
100.0
  1
壁パネル
  7
STYLE1
100
AcDbText
  0
TEXT
  5
1762E
330
747D
100
AcDbEntity
  8
文字
 62
     7
 48
50.0
100
AcDbText
 10
13583.11819016569
 20
9740.013745883729
 30
0.0
 40
100.0
  1
屋根パネル
  7
STYLE1
100
AcDbText
  0
TEXT
  5
1762F
330
747D
100
AcDbEntity
  8
文字
 62
     7
 48
50.0
100
AcDbText
 10
13583.11819016569
 20
9910.013745883727
 30
0.0
 40
100.0
  1
母屋中
  7
STYLE1
100
AcDbText
  0
TEXT
  5
17630
330
747D
100
AcDbEntity
  8
文字
 62
     7
 48
50.0
100
AcDbText
 10
13583.11819016569
 20
10080.01374588372
 30
0.0
 40
100.0
  1
鼻隠シ前後
  7
STYLE1
100
AcDbText
  0
TEXT
  5
17631
330
747D
100
AcDbEntity
  8
文字
 62
     7
 48
50.0
100
AcDbText
 10
13271.19032244792
 20
9740.013745883729
 30
0.0
 40
100.0
  1
8
  7
STYLE1
100
AcDbText
  0
TEXT
  5
17632
330
747D
100
AcDbEntity
  8
文字
 62
     7
 48
50.0
100
AcDbText
 10
13271.19032244792
 20
9570.013745883729
 30
0.0
 40
100.0
  1
9
  7
STYLE1
100
AcDbText
  0
TEXT
  5
17633
330
747D
100
AcDbEntity
  8
文字
 62
     7
 48
50.0
100
AcDbText
 10
13271.19032244792
 20
9910.01374588373
 30
0.0
 40
100.0
  1
7
  7
STYLE1
100
AcDbText
  0
TEXT
  5
17634
330
747D
100
AcDbEntity
  8
文字
 62
     7
 48
50.0
100
AcDbText
 10
13271.19032244792
 20
10080.01374588373
 30
0.0
 40
100.0
  1
6
  7
STYLE1
100
AcDbText
  0
LINE
  5
17635
330
747D
100
AcDbEntity
  8
仕様書枠
 48
50.0
100
AcDbLine
 10
16307.19999999999
 20
9369.599999999998
 30
0.0
 11
13127.19999999999
 21
9369.600000000001
 31
0.0
  0
LINE
  5
17636
330
747D
100
AcDbEntity
  8
仕様書枠
 48
50.0
100
AcDbLine
 10
16307.19999999999
 20
9539.599999999998
 30
0.0
 11
13127.19999999999
 21
9539.6
 31
0.0
  0
LINE
  5
17637
330
747D
100
AcDbEntity
  8
仕様書枠
 48
50.0
100
AcDbLine
 10
16307.19999999999
 20
10049.6
 30
0.0
 11
13127.2
 21
10049.6
 31
0.0
  0
LINE
  5
17638
330
747D
100
AcDbEntity
  8
仕様書枠
 48
50.0
100
AcDbLine
 10
16307.19999999999
 20
9879.599999999999
 30
0.0
 11
13127.2
 21
9879.600000000001
 31
0.0
  0
TEXT
  5
17639
330
747D
100
AcDbEntity
  8
文字
 62
     7
 48
50.0
100
AcDbText
 10
13248.77747366448
 20
9230.013745883727
 30
0.0
 40
100.0
  1
11
  7
STYLE1
100
AcDbText
  0
TEXT
  5
1763A
330
747D
100
AcDbEntity
  8
文字
 62
     7
 48
50.0
100
AcDbText
 10
13583.11819016569
 20
9230.013745883727
 30
0.0
 40
100.0
  1
シャッターカバー
 41
0.9
  7
STYLE1
100
AcDbText
  0
LINE
  5
1763B
330
747D
100
AcDbEntity
  8
仕様書枠
 48
50.0
100
AcDbLine
 10
16307.19999999999
 20
9199.599999999998
 30
0.0
 11
13127.19999999999
 21
9199.600000000001
 31
0.0
  0
LINE
  5
1763C
330
747D
100
AcDbEntity
  8
仕様書枠
 48
50.0
100
AcDbLine
 10
16307.19999999999
 20
9029.6
 30
0.0
 11
13127.19999999999
 21
9029.600000000002
 31
0.0
  0
TEXT
  5
1763D
330
747D
100
AcDbEntity
  8
文字
 62
     7
 48
50.0
100
AcDbText
 10
13583.11819016569
 20
9400.013745883729
 30
0.0
 40
100.0
  1
シャッター
  7
STYLE1
100
AcDbText
  0
TEXT
  5
1763E
330
747D
100
AcDbEntity
  8
文字
 62
     7
 48
50.0
100
AcDbText
 10
13248.77747366448
 20
9060.013745883729
 30
0.0
 40
100.0
  1
12
  7
STYLE1
100
AcDbText
  0
TEXT
  5
1763F
330
747D
100
AcDbEntity
  8
文字
 62
     7
 48
50.0
100
AcDbText
 10
15022.63965474517
 20
10930.01374588372
 30
0.0
 40
100.0
  1
F12            1.2
  7
STYLE1
100
AcDbText
  0
TEXT
  5
17640
330
747D
100
AcDbEntity
  8
文字
 62
     7
 48
50.0
100
AcDbText
 10
15022.63965474517
 20
10760.01374588372
 30
0.0
 40
100.0
  1
F12         1.0,1.2
  7
STYLE1
100
AcDbText
  0
TEXT
  5
17641
330
747D
100
AcDbEntity
  8
文字
 62
     7
 48
50.0
100
AcDbText
 10
15022.63965474516
 20
10590.01374588372
 30
0.0
 40
100.0
  1
Y10            1.0
  7
STYLE1
100
AcDbText
  0
TEXT
  5
17642
330
747D
100
AcDbEntity
  8
文字
 62
     7
 48
50.0
100
AcDbText
 10
15022.63965474516
 20
10420.01374588372
 30
0.0
 40
100.0
  1
Y10            1.0
  7
STYLE1
100
AcDbText
  0
TEXT
  5
17643
330
747D
100
AcDbEntity
  8
文字
 62
     7
 48
50.0
100
AcDbText
 10
15022.63965474516
 20
10250.01374588372
 30
0.0
 40
100.0
  1
Y10            0.7
  7
STYLE1
100
AcDbText
  0
TEXT
  5
17644
330
747D
100
AcDbEntity
  8
文字
 62
     7
 48
50.0
100
AcDbText
 10
15022.63965474516
 20
10080.01374588372
 30
0.0
 40
100.0
  1
Y10            0.7
  7
STYLE1
100
AcDbText
  0
TEXT
  5
17645
330
747D
100
AcDbEntity
  8
文字
 62
     7
 48
50.0
100
AcDbText
 10
14834.39215341524
 20
9910.013745883725
 30
0.0
 40
100.0
  1
F12    1.0(多雪地型  2.3)
  7
STYLE1
100
AcDbText
  0
TEXT
  5
17646
330
747D
100
AcDbEntity
  8
文字
 62
     7
 48
50.0
100
AcDbText
 10
15022.63965474517
 20
9740.013745883725
 30
0.0
 40
100.0
  1
Y10            0.5
  7
STYLE1
100
AcDbText
  0
TEXT
  5
17647
330
747D
100
AcDbEntity
  8
文字
 62
     7
 48
50.0
100
AcDbText
 10
15022.63965474516
 20
9570.013745883725
 30
0.0
 40
100.0
  1
F12            0.7
  7
STYLE1
100
AcDbText
  0
TEXT
  5
17648
330
747D
100
AcDbEntity
  8
文字
 62
     7
 48
50.0
100
AcDbText
 10
14850.83183167176
 20
9060.013745883725
 30
0.0
 40
100.0
  1
アルミニウム合金押出形材
  7
STYLE1
100
AcDbText
  0
TEXT
  5
1764A
330
747D
100
AcDbEntity
  8
文字
 62
     7
 48
50.0
100
AcDbText
 10
15022.63965474516
 20
9400.013745883725
 30
0.0
 40
100.0
  1
Z08            0.5
  7
STYLE1
100
AcDbText
  0
LINE
  5
1764B
330
747D
100
AcDbEntity
  8
仕様書枠
 48
50.0
100
AcDbLine
 10
16307.19999999999
 20
8859.599999999998
 30
0.0
 11
13127.19999999999
 21
8859.6
 31
0.0
  0
LINE
  5
1764C
330
747D
100
AcDbEntity
  8
仕様書枠
 48
50.0
100
AcDbLine
 10
16307.19999999999
 20
8689.599999999998
 30
0.0
 11
13127.19999999999
 21
8689.6
 31
0.0
  0
LINE
  5
1764D
330
747D
100
AcDbEntity
  8
仕様書枠
 48
50.0
100
AcDbLine
 10
16307.19999999999
 20
8519.599999999998
 30
0.0
 11
13127.19999999999
 21
8519.600000000002
 31
0.0
  0
TEXT
  5
1764E
330
747D
100
AcDbEntity
  8
文字
 62
     7
 48
50.0
100
AcDbText
 10
13229.83081656555
 20
8890.013745883727
 30
0.0
 40
100.0
  1
F12→溶融亜鉛めっき鋼板(JIS G 3302)
  7
STYLE1
100
AcDbText
  0
TEXT
  5
1764F
330
747D
100
AcDbEntity
  8
文字
 62
     7
 48
50.0
100
AcDbText
 10
13229.83081656555
 20
8720.013745883727
 30
0.0
 40
100.0
  1
Y10→溶融亜鉛-5％アルミニウム合金めっき鋼板(JIS G 3317)
 41
0.9
  7
STYLE1
100
AcDbText
  0
TEXT
  5
17650
330
747D
100
AcDbEntity
  8
文字
 62
     7
 48
50.0
100
AcDbText
 10
13229.83081656555
 20
8550.013745883729
 30
0.0
 40
100.0
  1
Z08→塗装溶融亜鉛めっき鋼板(JIS G 3313)
  7
STYLE1
100
AcDbText
  0
LINE
  5
17651
330
747D
100
AcDbEntity
  8
仕様書枠
 48
50.0
100
AcDbLine
 10
16307.19999999999
 20
9709.6
 30
0.0
 11
13127.19999999999
 21
9709.600000000001
 31
0.0
  0
DIMENSION
  5
17A3D
330
747D
100
AcDbEntity
  8
寸法
 48
50.0
100
AcDbDimension
  2
*D14
 10
7634.673057123665
 20
5333.301987862157
 30
0.0
 11
6479.673057123656
 21
5333.301987862157
 31
0.0
 70
   160
 71
     5
 42
2310.000000000017
  3
INABA_S40G
100
AcDbAlignedDimension
 13
5324.673057123647
 23
4912.931598713267
 33
0.0
 14
7634.673057123665
 24
4912.931598713264
 34
0.0
100
AcDbRotatedDimension
  0
DIMENSION
  5
17A44
330
747D
100
AcDbEntity
  8
寸法
 48
50.0
100
AcDbDimension
  2
*D15
 10
7584.673057123666
 20
5117.551858140534
 30
0.0
 11
7948.158338497903
 21
5117.551858140534
 31
0.0
 70
   160
 71
     5
 42
49.99999999999909
  3
INABA_S40G
100
AcDbAlignedDimension
 13
7634.673057123665
 23
4912.931598713264
 33
0.0
 14
7584.673057123666
 24
4912.931598713267
 34
0.0
100
AcDbRotatedDimension
  0
DIMENSION
  5
17A45
330
747D
100
AcDbEntity
  8
寸法
 48
50.0
100
AcDbDimension
  2
*D16
 10
5324.673057123647
 20
5117.551858140534
 30
0.0
 11
5011.187775749401
 21
5117.551858140534
 31
0.0
 70
   160
 71
     5
 42
50.0
  3
INABA_S40G
100
AcDbAlignedDimension
 13
5374.673057123647
 23
4912.931598713267
 33
0.0
 14
5324.673057123647
 24
4912.931598713267
 34
0.0
100
AcDbRotatedDimension
1001
ACAD
1000
DSTYLE
1002
{
1002
}
  0
DIMENSION
  5
17A4D
330
747D
100
AcDbEntity
  8
寸法
 48
50.0
100
AcDbDimension
  2
*D17
 10
5374.673057123647
 20
5117.551858140534
 30
0.0
 11
6479.673057123656
 21
5117.551858140534
 31
0.0
 70
   160
  1
柱外寸法<>
 71
     5
 42
2210.000000000018
  3
INABA_S40G
100
AcDbAlignedDimension
 13
7584.673057123666
 23
4912.931598713267
 33
0.0
 14
5374.673057123647
 24
4912.931598713267
 34
0.0
100
AcDbRotatedDimension
  0
TEXT
  5
17A4E
330
747D
100
AcDbEntity
  8
部品1
100
AcDbText
 10
6188.463127747392
 20
1595.038069494738
 30
0.0
 40
135.0
  1
正面図
  7
STYLE2
100
AcDbText
  0
LWPOLYLINE
  5
17A4F
330
747D
100
AcDbEntity
  8
部品1
100
AcDbPolyline
 90
        4
 70
     1
 43
0.0
 10
6097.937724009436
 20
1787.931598713261
 10
6097.937724009436
 20
1548.039277167729
 10
6861.408390237876
 20
1548.039277167729
 10
6861.408390237876
 20
1787.931598713261
  0
ARC
  5
17A86
330
747D
100
AcDbEntity
  8
部品1
 48
0.01
100
AcDbCircle
 10
7006.673057123666
 20
4710.431598713262
 30
0.0
 40
2.0
100
AcDbArc
 50
180.0
 51
270.0
  0
ARC
  5
17A87
330
747D
100
AcDbEntity
  8
部品1
 48
0.01
100
AcDbCircle
 10
7006.673057123666
 20
4741.931598713262
 30
0.0
 40
2.0
100
AcDbArc
 50
90.0
 51
180.0
  0
ARC
  5
17A88
330
747D
100
AcDbEntity
  8
部品1
 48
0.01
100
AcDbCircle
 10
7182.673057123666
 20
4710.431598713262
 30
0.0
 40
2.0
100
AcDbArc
 50
270.0
 51
0.0
  0
ARC
  5
17A89
330
747D
100
AcDbEntity
  8
部品1
 48
0.01
100
AcDbCircle
 10
7182.673057123666
 20
4741.931598713262
 30
0.0
 40
2.0
100
AcDbArc
 50
0.0
 51
90.0
  0
LINE
  5
17A8A
330
747D
100
AcDbEntity
  8
細線
100
AcDbLine
 10
7094.673057123666
 20
4714.431598713262
 30
0.0
 11
7020.673057123666
 21
4714.431598713262
 31
0.0
  0
LINE
  5
17A8B
330
747D
100
AcDbEntity
  8
細線
100
AcDbLine
 10
7094.673057123666
 20
4737.431598713262
 30
0.0
 11
7168.673057123666
 21
4737.431598713262
 31
0.0
  0
LINE
  5
17A8C
330
747D
100
AcDbEntity
  8
細線
100
AcDbLine
 10
7168.673057123666
 20
4714.431598713262
 30
0.0
 11
7094.673057123666
 21
4714.431598713262
 31
0.0
  0
LINE
  5
17A8D
330
747D
100
AcDbEntity
  8
細線
100
AcDbLine
 10
7020.673057123666
 20
4737.431598713262
 30
0.0
 11
7094.673057123666
 21
4737.431598713262
 31
0.0
  0
LINE
  5
17A8E
330
747D
100
AcDbEntity
  8
細線
100
AcDbLine
 10
7020.673057123666
 20
4714.431598713262
 30
0.0
 11
7020.673057123666
 21
4737.431598713262
 31
0.0
  0
LINE
  5
17A8F
330
747D
100
AcDbEntity
  8
細線
100
AcDbLine
 10
7168.673057123666
 20
4737.431598713262
 30
0.0
 11
7168.673057123666
 21
4714.431598713262
 31
0.0
  0
LINE
  5
17A90
330
747D
100
AcDbEntity
  8
部品1
 48
0.01
100
AcDbLine
 10
7004.673057123667
 20
4710.431598713262
 30
0.0
 11
7004.673057123667
 21
4741.931598713262
 31
0.0
  0
LINE
  5
17A91
330
747D
100
AcDbEntity
  8
部品1
 48
0.01
100
AcDbLine
 10
7182.673057123666
 20
4708.431598713262
 30
0.0
 11
7006.673057123666
 21
4708.431598713262
 31
0.0
  0
LINE
  5
17A92
330
747D
100
AcDbEntity
  8
部品1
 48
0.01
100
AcDbLine
 10
7184.673057123666
 20
4741.931598713262
 30
0.0
 11
7184.673057123666
 21
4710.431598713262
 31
0.0
  0
LINE
  5
17A93
330
747D
100
AcDbEntity
  8
部品1
 48
0.01
100
AcDbLine
 10
7006.673057123666
 20
4743.931598713262
 30
0.0
 11
7182.673057123666
 21
4743.931598713262
 31
0.0
  0
LINE
  5
17A94
330
747D
100
AcDbEntity
  8
細線
100
AcDbLine
 10
7168.673057123666
 20
4731.431598713262
 30
0.0
 11
7094.673057123666
 21
4731.431598713262
 31
0.0
  0
LINE
  5
17A95
330
747D
100
AcDbEntity
  8
細線
100
AcDbLine
 10
7168.673057123666
 20
4725.431598713262
 30
0.0
 11
7094.673057123666
 21
4725.431598713262
 31
0.0
  0
LINE
  5
17A96
330
747D
100
AcDbEntity
  8
細線
100
AcDbLine
 10
7168.673057123666
 20
4719.431598713263
 30
0.0
 11
7094.673057123666
 21
4719.431598713263
 31
0.0
  0
LINE
  5
17A97
330
747D
100
AcDbEntity
  8
細線
100
AcDbLine
 10
7168.673057123666
 20
4731.431598713262
 30
0.0
 11
7099.673057123665
 21
4731.431598713262
 31
0.0
  0
LINE
  5
17A98
330
747D
100
AcDbEntity
  8
細線
100
AcDbLine
 10
7020.673057123666
 20
4731.431598713261
 30
0.0
 11
7094.673057123666
 21
4731.431598713262
 31
0.0
  0
LINE
  5
17A99
330
747D
100
AcDbEntity
  8
細線
100
AcDbLine
 10
7020.673057123666
 20
4719.431598713261
 30
0.0
 11
7094.673057123666
 21
4719.431598713263
 31
0.0
  0
LINE
  5
17A9A
330
747D
100
AcDbEntity
  8
細線
100
AcDbLine
 10
7020.673057123666
 20
4725.431598713262
 30
0.0
 11
7094.673057123666
 21
4725.431598713262
 31
0.0
  0
LINE
  5
17A9B
330
747D
100
AcDbEntity
  8
細線
100
AcDbLine
 10
7094.673057123666
 20
4737.431598713262
 30
0.0
 11
7094.673057123666
 21
4714.431598713262
 31
0.0
  0
LINE
  5
17A9C
330
747D
100
AcDbEntity
  8
細線
100
AcDbLine
 10
5864.673057123647
 20
4737.431598713261
 30
0.0
 11
5864.673057123646
 21
4714.431598713261
 31
0.0
  0
LINE
  5
17A9D
330
747D
100
AcDbEntity
  8
細線
100
AcDbLine
 10
5938.673057123645
 20
4725.431598713261
 30
0.0
 11
5864.673057123647
 21
4725.431598713261
 31
0.0
  0
LINE
  5
17A9E
330
747D
100
AcDbEntity
  8
細線
100
AcDbLine
 10
5938.673057123645
 20
4719.43159871326
 30
0.0
 11
5864.673057123647
 21
4719.431598713261
 31
0.0
  0
LINE
  5
17A9F
330
747D
100
AcDbEntity
  8
細線
100
AcDbLine
 10
5938.673057123645
 20
4731.43159871326
 30
0.0
 11
5864.673057123647
 21
4731.431598713261
 31
0.0
  0
LINE
  5
17AA0
330
747D
100
AcDbEntity
  8
細線
100
AcDbLine
 10
5790.673057123647
 20
4731.431598713261
 30
0.0
 11
5859.673057123647
 21
4731.431598713261
 31
0.0
  0
LINE
  5
17AA1
330
747D
100
AcDbEntity
  8
細線
100
AcDbLine
 10
5790.673057123646
 20
4719.431598713261
 30
0.0
 11
5864.673057123647
 21
4719.431598713261
 31
0.0
  0
LINE
  5
17AA2
330
747D
100
AcDbEntity
  8
細線
100
AcDbLine
 10
5790.673057123647
 20
4725.431598713261
 30
0.0
 11
5864.673057123647
 21
4725.431598713261
 31
0.0
  0
LINE
  5
17AA3
330
747D
100
AcDbEntity
  8
細線
100
AcDbLine
 10
5790.673057123647
 20
4731.431598713261
 30
0.0
 11
5864.673057123647
 21
4731.431598713261
 31
0.0
  0
LINE
  5
17AA4
330
747D
100
AcDbEntity
  8
部品1
 48
0.01
100
AcDbLine
 10
5952.673057123647
 20
4743.931598713261
 30
0.0
 11
5776.673057123648
 21
4743.931598713261
 31
0.0
  0
LINE
  5
17AA5
330
747D
100
AcDbEntity
  8
部品1
 48
0.01
100
AcDbLine
 10
5774.673057123647
 20
4741.931598713261
 30
0.0
 11
5774.673057123647
 21
4710.431598713261
 31
0.0
  0
LINE
  5
17AA6
330
747D
100
AcDbEntity
  8
部品1
 48
0.01
100
AcDbLine
 10
5776.673057123648
 20
4708.431598713261
 30
0.0
 11
5952.673057123646
 21
4708.431598713261
 31
0.0
  0
LINE
  5
17AA7
330
747D
100
AcDbEntity
  8
部品1
 48
0.01
100
AcDbLine
 10
5954.673057123645
 20
4710.431598713261
 30
0.0
 11
5954.673057123648
 21
4741.931598713261
 31
0.0
  0
LINE
  5
17AA8
330
747D
100
AcDbEntity
  8
細線
100
AcDbLine
 10
5790.673057123647
 20
4737.431598713261
 30
0.0
 11
5790.673057123647
 21
4714.431598713261
 31
0.0
  0
LINE
  5
17AA9
330
747D
100
AcDbEntity
  8
細線
100
AcDbLine
 10
5938.673057123647
 20
4714.431598713261
 30
0.0
 11
5938.673057123647
 21
4737.431598713261
 31
0.0
  0
LINE
  5
17AAA
330
747D
100
AcDbEntity
  8
細線
100
AcDbLine
 10
5938.673057123647
 20
4737.431598713261
 30
0.0
 11
5864.673057123647
 21
4737.431598713261
 31
0.0
  0
LINE
  5
17AAB
330
747D
100
AcDbEntity
  8
細線
100
AcDbLine
 10
5790.673057123647
 20
4714.431598713261
 30
0.0
 11
5864.673057123647
 21
4714.431598713261
 31
0.0
  0
LINE
  5
17AAC
330
747D
100
AcDbEntity
  8
細線
100
AcDbLine
 10
5864.673057123647
 20
4737.431598713261
 30
0.0
 11
5790.673057123647
 21
4737.431598713261
 31
0.0
  0
LINE
  5
17AAD
330
747D
100
AcDbEntity
  8
細線
100
AcDbLine
 10
5864.673057123646
 20
4714.431598713261
 30
0.0
 11
5938.673057123647
 21
4714.431598713261
 31
0.0
  0
ARC
  5
17AAE
330
747D
100
AcDbEntity
  8
部品1
 48
0.01
100
AcDbCircle
 10
5776.673057123648
 20
4741.931598713261
 30
0.0
 40
2.0
100
AcDbArc
 50
90.0
 51
180.0
  0
ARC
  5
17AAF
330
747D
100
AcDbEntity
  8
部品1
 48
0.01
100
AcDbCircle
 10
5776.673057123648
 20
4710.431598713261
 30
0.0
 40
2.0
100
AcDbArc
 50
180.0
 51
270.0
  0
ARC
  5
17AB0
330
747D
100
AcDbEntity
  8
部品1
 48
0.01
100
AcDbCircle
 10
5952.673057123647
 20
4741.931598713261
 30
0.0
 40
2.0
100
AcDbArc
 50
0.0
 51
90.0
  0
ARC
  5
17AB1
330
747D
100
AcDbEntity
  8
部品1
 48
0.01
100
AcDbCircle
 10
5952.673057123646
 20
4710.431598713261
 30
0.0
 40
2.0
100
AcDbArc
 50
270.0
 51
0.0
  0
LINE
  5
17AB2
330
747D
100
AcDbEntity
  8
部品1
 48
50.0
100
AcDbLine
 10
7627.264636017233
 20
4912.931598713266
 30
0.0
 11
5332.081478230079
 21
4912.931598713266
 31
0.0
  0
LINE
  5
17AB3
330
747D
100
AcDbEntity
  8
部品1
 48
50.0
100
AcDbLine
 10
7614.0493125562
 20
4771.931598713266
 30
0.0
 11
5345.296801691111
 21
4771.931598713266
 31
0.0
  0
LINE
  5
17AB4
330
747D
100
AcDbEntity
  8
細線
 48
50.0
100
AcDbLine
 10
7632.514406111749
 20
4884.904841276735
 30
0.0
 11
5326.831708135607
 21
4884.904841277053
 31
0.0
  0
LINE
  5
17AB5
330
747D
100
AcDbEntity
  8
細線
 48
50.0
100
AcDbLine
 10
7624.278375586863
 20
4792.704841277052
 30
0.0
 11
5335.067738660447
 21
4792.704841277052
 31
0.0
  0
LINE
  5
17AB6
330
747D
100
AcDbEntity
  8
部品1
100
AcDbLine
 10
7634.253396108332
 20
4905.535073318026
 30
0.0
 11
7633.119998775986
 21
4885.558945335427
 31
0.0
  0
LINE
  5
17AB7
330
747D
100
AcDbEntity
  8
細線
 48
50.0
100
AcDbLine
 10
7601.673057123666
 20
4912.931598713266
 30
0.0
 11
7601.673057123666
 21
4771.931598713265
 31
0.0
  0
LINE
  5
17AB8
330
747D
100
AcDbEntity
  8
細線
 48
50.0
100
AcDbLine
 10
5357.673057123648
 20
4912.931598713266
 30
0.0
 11
5357.673057123648
 21
4771.931598713265
 31
0.0
  0
LINE
  5
17AB9
330
747D
100
AcDbEntity
  8
部品1
100
AcDbLine
 10
7621.682978454408
 20
4789.901538168367
 30
0.0
 11
7621.038072647299
 21
4778.535073318027
 31
0.0
  0
LINE
  5
17ABA
330
747D
100
AcDbEntity
  8
部品1
100
AcDbLine
 10
7629.919008979254
 20
4882.101538168369
 30
0.0
 11
7624.883968251143
 21
4793.358945335425
 31
0.0
  0
ARC
  5
17ABB
330
747D
100
AcDbEntity
  8
部品1
 48
50.0
100
AcDbCircle
 10
7632.91419187544
 20
4881.931598713267
 30
0.0
 40
3.0
100
AcDbArc
 50
97.65812720736347
 51
176.7526572096682
  0
ARC
  5
17ABC
330
747D
100
AcDbEntity
  8
部品1
 48
50.0
100
AcDbCircle
 10
7624.678161350596
 20
4789.731598713264
 30
0.0
 40
3.0
100
AcDbArc
 50
97.65812720736347
 51
176.7526572096682
  0
ARC
  5
17ABD
330
747D
100
AcDbEntity
  8
部品1
 48
50.0
100
AcDbCircle
 10
7624.185092242035
 20
4793.398597874949
 30
0.0
 40
0.7
100
AcDbArc
 50
277.6581272073635
 51
356.7526572097202
  0
ARC
  5
17ABE
330
747D
100
AcDbEntity
  8
部品1
 48
50.0
100
AcDbCircle
 10
7632.421122766878
 20
4885.598597874952
 30
0.0
 40
0.7
100
AcDbArc
 50
277.6581272073635
 51
356.7526572096162
  0
ARC
  5
17ABF
330
747D
100
AcDbEntity
  8
部品1
100
AcDbCircle
 10
7614.0493125562
 20
4778.931598713266
 30
0.0
 40
7.0
100
AcDbArc
 50
270.0
 51
356.7526572096682
  0
ARC
  5
17AC0
330
747D
100
AcDbEntity
  8
部品1
100
AcDbCircle
 10
7627.264636017233
 20
4905.931598713266
 30
0.0
 40
7.0
100
AcDbArc
 50
356.7526572096682
 51
90.0
  0
ARC
  5
17AC1
330
747D
100
AcDbEntity
  8
部品1
100
AcDbCircle
 10
5332.081478230079
 20
4905.931598713266
 30
0.0
 40
7.0
100
AcDbArc
 50
90.0
 51
183.2473427903317
  0
ARC
  5
17AC2
330
747D
100
AcDbEntity
  8
部品1
100
AcDbCircle
 10
5345.296801691111
 20
4778.931598713266
 30
0.0
 40
7.0
100
AcDbArc
 50
183.2473427903317
 51
270.0
  0
ARC
  5
17AC3
330
747D
100
AcDbEntity
  8
部品1
 48
50.0
100
AcDbCircle
 10
5326.924991480435
 20
4885.598597874952
 30
0.0
 40
0.7
100
AcDbArc
 50
183.2473427903838
 51
262.3418727926365
  0
ARC
  5
17AC4
330
747D
100
AcDbEntity
  8
部品1
 48
50.0
100
AcDbCircle
 10
5335.161022005276
 20
4793.398597874949
 30
0.0
 40
0.7
100
AcDbArc
 50
183.2473427902797
 51
262.3418727926365
  0
ARC
  5
17AC5
330
747D
100
AcDbEntity
  8
部品1
 48
50.0
100
AcDbCircle
 10
5334.667952896714
 20
4789.731598713264
 30
0.0
 40
3.0
100
AcDbArc
 50
3.247342790331777
 51
82.34187279263654
  0
ARC
  5
17AC6
330
747D
100
AcDbEntity
  8
部品1
 48
50.0
100
AcDbCircle
 10
5326.431922371872
 20
4881.931598713267
 30
0.0
 40
3.0
100
AcDbArc
 50
3.247342790331777
 51
82.34187279263654
  0
LINE
  5
17AC7
330
747D
100
AcDbEntity
  8
部品1
100
AcDbLine
 10
5329.427105268056
 20
4882.101538168369
 30
0.0
 11
5334.462145996167
 21
4793.358945335425
 31
0.0
  0
LINE
  5
17AC8
330
747D
100
AcDbEntity
  8
部品1
100
AcDbLine
 10
5337.663135792904
 20
4789.901538168367
 30
0.0
 11
5338.308041600011
 21
4778.535073318027
 31
0.0
  0
LINE
  5
17AC9
330
747D
100
AcDbEntity
  8
部品1
100
AcDbLine
 10
5325.092718138979
 20
4905.535073318026
 30
0.0
 11
5326.226115471327
 21
4885.558945335427
 31
0.0
  0
LWPOLYLINE
  5
17C17
330
747D
100
AcDbEntity
  8
部品1
100
AcDbPolyline
 90
        4
 70
     1
 43
0.0
 10
6097.937724009436
 20
1787.931598713261
 10
6097.937724009436
 20
1548.039277167729
 10
6861.408390237876
 20
1548.039277167729
 10
6861.408390237876
 20
1787.931598713261
  0
TEXT
  5
17C18
330
747D
100
AcDbEntity
  8
部品1
100
AcDbText
 10
6188.463127747392
 20
1595.038069494738
 30
0.0
 40
135.0
  1
正面図
  7
STYLE2
100
AcDbText
  0
TEXT
  5
17C68
330
747D
100
AcDbEntity
  8
部品1
100
AcDbText
 10
6187.857333838481
 20
6232.781683962207
 30
0.0
 40
135.0
  1
平面図
  7
STYLE2
100
AcDbText
  0
LWPOLYLINE
  5
17C69
330
747D
100
AcDbEntity
  8
部品1
100
AcDbPolyline
 90
        4
 70
     1
 43
0.0
 10
6097.937724009444
 20
6425.67521318073
 10
6097.937724009444
 20
6185.782891635199
 10
6861.408390237882
 20
6185.782891635199
 10
6861.408390237882
 20
6425.67521318073
  0
LWPOLYLINE
  5
17F25
330
747D
100
AcDbEntity
  8
部品1
100
AcDbPolyline
 90
        4
 70
     1
 43
0.0
 10
10413.35611800427
 20
1787.931598713261
 10
10413.35611800427
 20
1548.039277167729
 10
11176.82678423271
 20
1548.039277167729
 10
11176.82678423271
 20
1787.931598713261
  0
TEXT
  5
17F26
330
747D
100
AcDbEntity
  8
部品1
100
AcDbText
 10
10502.80221942788
 20
1595.038069494738
 30
0.0
 40
135.0
  1
側面図
  7
STYLE2
100
AcDbText
  0
LINE
  5
17F29
330
747D
100
AcDbEntity
  8
部品1
 48
50.0
100
AcDbLine
 10
10645.09145111849
 20
5043.799737814541
 30
0.0
 11
10945.09145111849
 21
5027.599737814542
 31
0.0
  0
DIMENSION
  5
17F2A
330
747D
100
AcDbEntity
  8
寸法
 48
50.0
100
AcDbDimension
  2
*D26
 10
9279.483044350135
 20
4787.276857586585
 30
0.0
 11
9290.148519609054
 21
5158.123520828284
 31
0.0
 70
   161
 71
     5
 42
141.0
  3
INABA_S40G
100
AcDbAlignedDimension
 13
9859.48747127707
 23
4911.654347547941
 33
0.0
 14
9855.434015720447
 24
4770.712623782229
 34
0.0
1001
ACAD
1000
DSTYLE
1002
{
1070
   174
1070
     0
1070
   272
1070
     1
1070
   288
1070
     0
1070
   341
1005
0
1002
}
  0
LINE
  5
17F2D
330
747D
100
AcDbEntity
  8
細線
 48
50.0
100
AcDbLine
 10
11557.5914511185
 20
4677.931598713261
 30
0.0
 11
11557.5914511185
 21
2587.931598713261
 31
0.0
  0
LINE
  5
17F2E
330
747D
100
AcDbEntity
  8
細線
 48
50.0
100
AcDbLine
 10
11572.5914511185
 20
4677.931598713261
 30
0.0
 11
11572.5914511185
 21
2587.931598713261
 31
0.0
  0
LINE
  5
17F2F
330
747D
100
AcDbEntity
  8
細線
 48
50.0
100
AcDbLine
 10
11432.5914511185
 20
4677.931598713261
 30
0.0
 11
11432.5914511185
 21
2587.931598713261
 31
0.0
  0
LINE
  5
17F30
330
747D
100
AcDbEntity
  8
細線
 48
50.0
100
AcDbLine
 10
11417.5914511185
 20
4677.931598713261
 30
0.0
 11
11417.5914511185
 21
2587.931598713261
 31
0.0
  0
LINE
  5
17F31
330
747D
100
AcDbEntity
  8
細線
 48
50.0
100
AcDbLine
 10
11277.5914511185
 20
4677.931598713261
 30
0.0
 11
11277.5914511185
 21
2587.931598713261
 31
0.0
  0
LINE
  5
17F32
330
747D
100
AcDbEntity
  8
細線
 48
50.0
100
AcDbLine
 10
11292.5914511185
 20
4677.931598713261
 30
0.0
 11
11292.5914511185
 21
2587.931598713261
 31
0.0
  0
LINE
  5
17F33
330
747D
100
AcDbEntity
  8
部品1
100
AcDbLine
 10
11215.09145111849
 20
4677.931598713261
 30
0.0
 11
11215.09145111849
 21
2587.931598713261
 31
0.0
  0
LINE
  5
17F34
330
747D
100
AcDbEntity
  8
細線
 48
50.0
100
AcDbLine
 10
10872.59145111849
 20
4677.931598713261
 30
0.0
 11
10872.59145111849
 21
2587.931598713261
 31
0.0
  0
LINE
  5
17F35
330
747D
100
AcDbEntity
  8
細線
 48
50.0
100
AcDbLine
 10
10857.59145111849
 20
4677.931598713261
 30
0.0
 11
10857.59145111849
 21
2587.931598713261
 31
0.0
  0
LINE
  5
17F36
330
747D
100
AcDbEntity
  8
細線
 48
50.0
100
AcDbLine
 10
10997.59145111849
 20
4677.931598713261
 30
0.0
 11
10997.59145111849
 21
2587.931598713261
 31
0.0
  0
LINE
  5
17F37
330
747D
100
AcDbEntity
  8
細線
 48
50.0
100
AcDbLine
 10
11012.59145111849
 20
4677.931598713261
 30
0.0
 11
11012.59145111849
 21
2587.931598713261
 31
0.0
  0
LINE
  5
17F38
330
747D
100
AcDbEntity
  8
細線
 48
50.0
100
AcDbLine
 10
11152.59145111849
 20
4677.931598713261
 30
0.0
 11
11152.59145111849
 21
2587.931598713261
 31
0.0
  0
LINE
  5
17F39
330
747D
100
AcDbEntity
  8
細線
 48
50.0
100
AcDbLine
 10
11137.59145111849
 20
4677.931598713261
 30
0.0
 11
11137.59145111849
 21
2587.931598713261
 31
0.0
  0
LINE
  5
17F3A
330
747D
100
AcDbEntity
  8
部品1
100
AcDbLine
 10
10795.09145111849
 20
4677.931598713261
 30
0.0
 11
10795.09145111849
 21
2587.931598713261
 31
0.0
  0
TEXT
  5
17F3B
330
747D
100
AcDbEntity
  8
部品1
 48
50.0
100
AcDbText
 10
11122.18429840635
 20
4942.182501748692
 30
0.0
 40
120.0
  1
54
 50
90.0
  7
STYLE1
100
AcDbText
  0
TEXT
  5
17F3C
330
747D
100
AcDbEntity
  8
部品1
 48
50.0
100
AcDbText
 10
10633.35928634222
 20
5079.683759966974
 30
0.0
 40
120.0
  1
1000
  7
STYLE1
100
AcDbText
  0
LINE
  5
17F3D
330
747D
100
AcDbEntity
  8
部品1
 48
50.0
100
AcDbLine
 10
10945.09145111849
 20
5043.799737814541
 30
0.0
 11
10945.09145111849
 21
5027.599737814542
 31
0.0
  0
LINE
  5
17F3E
330
747D
100
AcDbEntity
  8
部品1
 48
50.0
100
AcDbLine
 10
10645.09145111849
 20
5043.799737814541
 30
0.0
 11
10945.09145111849
 21
5043.799737814541
 31
0.0
  0
DIMENSION
  5
17F3F
330
747D
100
AcDbEntity
  8
寸法
 48
50.0
100
AcDbDimension
  2
*D25
 10
11770.09145111849
 20
5312.024768052735
 30
0.0
 11
11976.13869521298
 21
5312.024768052735
 31
0.0
 70
   160
 71
     5
 42
80.0
  3
INABA_S40G
100
AcDbAlignedDimension
 13
11690.09145111849
 23
4859.742278324915
 33
0.0
 14
11770.09145111849
 24
4857.931598713262
 34
0.0
100
AcDbRotatedDimension
1001
ACAD
1000
DSTYLE
1002
{
1070
   174
1070
     0
1070
   272
1070
     1
1070
   288
1070
     0
1070
   341
1005
0
1002
}
  0
ARC
  5
17F40
330
747D
100
AcDbEntity
  8
部品1
100
AcDbCircle
 10
11755.71898693243
 20
4751.955355979053
 30
0.0
 40
0.7
100
AcDbArc
 50
275.0921697642108
 51
354.1866997666828
  0
ARC
  5
17F41
330
747D
100
AcDbEntity
  8
部品1
100
AcDbCircle
 10
11766.57833268175
 20
4828.998610796977
 30
0.0
 40
0.7
100
AcDbArc
 50
275.0921697642108
 51
354.1866997665273
  0
ARC
  5
17F42
330
747D
100
AcDbEntity
  8
部品1
100
AcDbCircle
 10
11766.90673792435
 20
4825.313213939888
 30
0.0
 40
3.0
100
AcDbArc
 50
95.09216976431458
 51
174.1866997665272
  0
ARC
  5
17F43
330
747D
100
AcDbEntity
  8
部品1
100
AcDbCircle
 10
11756.04739217502
 20
4748.269959121963
 30
0.0
 40
3.0
100
AcDbArc
 50
95.0921697642102
 51
174.1866997665272
  0
ARC
  5
17F44
330
747D
100
AcDbEntity
  8
部品1
 48
50.0
100
AcDbCircle
 10
11745.01925689992
 20
4738.679214518081
 30
0.0
 40
7.0
100
AcDbArc
 50
267.837755987053
 51
354.1866997665273
  0
ARC
  5
17F45
330
747D
100
AcDbEntity
  8
部品1
 48
50.0
100
AcDbCircle
 10
11762.34135336444
 20
4849.581761660254
 30
0.0
 40
7.0
100
AcDbArc
 50
354.1866997665273
 51
87.03587545293535
  0
LINE
  5
17F46
330
747D
100
AcDbEntity
  8
部品1
 48
50.0
100
AcDbLine
 10
11753.06282050442
 20
4748.573820838866
 30
0.0
 11
11751.98325746467
 21
4737.970203845308
 31
0.0
  0
LINE
  5
17F47
330
747D
100
AcDbEntity
  8
部品1
 48
50.0
100
AcDbLine
 10
11763.92216625374
 20
4825.617075656791
 30
0.0
 11
11756.4153869889
 21
4751.884454911778
 31
0.0
  0
LINE
  5
17F48
330
747D
100
AcDbEntity
  8
部品1
 48
50.0
100
AcDbLine
 10
11769.30535392919
 20
4848.87275098748
 30
0.0
 11
11767.27473273822
 21
4828.9277097297
 31
0.0
  0
ARC
  5
17F49
330
747D
100
AcDbEntity
  8
部品1
100
AcDbCircle
 10
9846.128542989857
 20
4791.745757672165
 30
0.0
 40
0.7
100
AcDbArc
 50
181.0932240292375
 51
260.1877540315916
  0
ARC
  5
17F4A
330
747D
100
AcDbEntity
  8
部品1
100
AcDbCircle
 10
9841.355869392248
 20
4884.611535872284
 30
0.0
 40
0.7
100
AcDbArc
 50
181.0932240292375
 51
260.1877540315916
  0
ARC
  5
17F4B
330
747D
100
AcDbEntity
  8
部品1
100
AcDbCircle
 10
9840.725314989226
 20
4880.965661334887
 30
0.0
 40
3.0
100
AcDbArc
 50
1.093224029289586
 51
80.18775403159162
  0
ARC
  5
17F4C
330
747D
100
AcDbEntity
  8
部品1
100
AcDbCircle
 10
9845.497988586831
 20
4788.099883134768
 30
0.0
 40
3.0
100
AcDbArc
 50
1.093224029289586
 51
80.18775403159052
  0
ARC
  5
17F4D
330
747D
100
AcDbEntity
  8
部品1
 48
50.0
100
AcDbCircle
 10
9855.698120962033
 20
4777.707639752287
 30
0.0
 40
7.0
100
AcDbArc
 50
181.0932240292895
 51
267.837755987053
  0
ARC
  5
17F4E
330
747D
100
AcDbEntity
  8
部品1
 48
50.0
100
AcDbCircle
 10
9847.274462859937
 20
4904.658699285382
 30
0.0
 40
7.0
100
AcDbArc
 50
87.03587545293535
 51
181.0932240292895
  0
LINE
  5
17F4F
330
747D
100
AcDbEntity
  8
部品1
 48
50.0
100
AcDbLine
 10
9848.497442513263
 20
4788.157120737952
 30
0.0
 11
9848.699395133696
 21
4777.574085344858
 31
0.0
  0
LINE
  5
17F50
330
747D
100
AcDbEntity
  8
細線
 48
50.0
100
AcDbLine
 10
9845.891349456593
 20
4791.087168856759
 30
0.0
 11
11755.89501388722
 21
4751.277849882266
 31
0.0
  0
LINE
  5
17F51
330
747D
100
AcDbEntity
  8
細線
 48
50.0
100
AcDbLine
 10
9841.130874219306
 20
4883.948680554623
 30
0.0
 11
11766.76685896447
 21
4828.324475913795
 31
0.0
  0
LINE
  5
17F52
330
747D
100
AcDbEntity
  8
部品1
 48
50.0
100
AcDbLine
 10
9843.724768915656
 20
4881.02289893807
 30
0.0
 11
9845.428670407024
 21
4791.732402231423
 31
0.0
  0
LINE
  5
17F53
330
747D
100
AcDbEntity
  8
部品1
 48
50.0
100
AcDbLine
 10
9840.2757370316
 20
4904.525144877954
 30
0.0
 11
9840.655996809411
 21
4884.598180431543
 31
0.0
  0
LINE
  5
17F54
330
747D
100
AcDbEntity
  8
細線
 48
50.0
100
AcDbLine
 10
11737.09145111849
 20
4857.898577748557
 30
0.0
 11
11732.34376823049
 21
4732.152805257813
 31
0.0
  0
LINE
  5
17F55
330
747D
100
AcDbEntity
  8
細線
 48
50.0
100
AcDbLine
 10
9873.091451118494
 20
4910.331275088666
 30
0.0
 11
9867.802349562984
 21
4770.245642461311
 31
0.0
  0
LINE
  5
17F56
330
747D
100
AcDbEntity
  8
部品1
100
AcDbLine
 10
9855.434015720447
 20
4770.712623782229
 30
0.0
 11
11744.75515165833
 21
4731.684198548022
 31
0.0
  0
LINE
  5
17F57
330
747D
100
AcDbEntity
  8
部品1
100
AcDbLine
 10
9847.636437475454
 20
4911.649334047528
 30
0.0
 11
11762.70332797995
 21
4856.5723964224
 31
0.0
  0
LINE
  5
17F58
330
747D
100
AcDbEntity
  8
細線
 48
50.0
100
AcDbLine
 10
10032.59145111849
 20
4677.931598713261
 30
0.0
 11
10032.59145111849
 21
2587.931598713261
 31
0.0
  0
LINE
  5
17F59
330
747D
100
AcDbEntity
  8
細線
 48
50.0
100
AcDbLine
 10
10017.59145111849
 20
4677.931598713261
 30
0.0
 11
10017.59145111849
 21
2587.931598713261
 31
0.0
  0
LINE
  5
17F5A
330
747D
100
AcDbEntity
  8
細線
 48
50.0
100
AcDbLine
 10
10157.59145111849
 20
4677.931598713261
 30
0.0
 11
10157.59145111849
 21
2587.931598713261
 31
0.0
  0
LINE
  5
17F5B
330
747D
100
AcDbEntity
  8
細線
 48
50.0
100
AcDbLine
 10
10172.59145111849
 20
4677.931598713261
 30
0.0
 11
10172.59145111849
 21
2587.931598713261
 31
0.0
  0
LINE
  5
17F5C
330
747D
100
AcDbEntity
  8
細線
 48
50.0
100
AcDbLine
 10
10312.59145111849
 20
4677.931598713261
 30
0.0
 11
10312.59145111849
 21
2587.931598713261
 31
0.0
  0
LINE
  5
17F5D
330
747D
100
AcDbEntity
  8
細線
 48
50.0
100
AcDbLine
 10
10297.59145111849
 20
4677.931598713261
 30
0.0
 11
10297.59145111849
 21
2587.931598713261
 31
0.0
  0
LINE
  5
17F5E
330
747D
100
AcDbEntity
  8
細線
 48
50.0
100
AcDbLine
 10
10717.59145111849
 20
4677.931598713261
 30
0.0
 11
10717.59145111849
 21
2587.931598713261
 31
0.0
  0
LINE
  5
17F5F
330
747D
100
AcDbEntity
  8
細線
 48
50.0
100
AcDbLine
 10
10732.59145111849
 20
4677.931598713261
 30
0.0
 11
10732.59145111849
 21
2587.931598713261
 31
0.0
  0
LINE
  5
17F60
330
747D
100
AcDbEntity
  8
細線
 48
50.0
100
AcDbLine
 10
10592.59145111849
 20
4677.931598713261
 30
0.0
 11
10592.59145111849
 21
2587.931598713261
 31
0.0
  0
LINE
  5
17F61
330
747D
100
AcDbEntity
  8
細線
 48
50.0
100
AcDbLine
 10
10577.59145111849
 20
4677.931598713261
 30
0.0
 11
10577.59145111849
 21
2587.931598713261
 31
0.0
  0
LINE
  5
17F62
330
747D
100
AcDbEntity
  8
細線
 48
50.0
100
AcDbLine
 10
10437.59145111849
 20
4677.931598713261
 30
0.0
 11
10437.59145111849
 21
2587.931598713261
 31
0.0
  0
LINE
  5
17F63
330
747D
100
AcDbEntity
  8
細線
 48
50.0
100
AcDbLine
 10
10452.59145111849
 20
4677.931598713261
 30
0.0
 11
10452.59145111849
 21
2587.931598713261
 31
0.0
  0
LINE
  5
17F64
330
747D
100
AcDbEntity
  8
部品1
100
AcDbLine
 10
9955.091451118491
 20
2537.931598713262
 30
0.0
 11
11690.09145111849
 21
2537.931598713261
 31
0.0
  0
DIMENSION
  5
17F7E
330
747D
100
AcDbEntity
  8
寸法
 48
50.0
100
AcDbDimension
  2
*D24
 10
9840.091451118494
 20
5528.55086767118
 30
0.0
 11
10805.09145111849
 21
5528.55086767118
 31
0.0
 70
   160
 71
     5
 42
1930.0
  3
INABA_S40G
100
AcDbAlignedDimension
 13
11770.09145111849
 23
4857.931598713262
 33
0.0
 14
9840.091451118494
 24
4912.931598713266
 34
0.0
100
AcDbRotatedDimension
1001
ACAD
1000
DSTYLE
1002
{
1070
   174
1070
     0
1070
   272
1070
     1
1070
   288
1070
     0
1070
   341
1005
0
1002
}
  0
DIMENSION
  5
17F7F
330
747D
100
AcDbEntity
  8
寸法
 48
50.0
100
AcDbDimension
  2
*D23
 10
9840.091451118494
 20
5312.024768052735
 30
0.0
 11
9530.453655842903
 21
5312.024768052735
 31
0.0
 70
   160
 71
     5
 42
60.0
  3
INABA_S40G
100
AcDbAlignedDimension
 13
9900.091451118493
 23
4908.933216836238
 33
0.0
 14
9840.091451118494
 24
4912.931598713266
 34
0.0
100
AcDbRotatedDimension
1001
ACAD
1000
DSTYLE
1002
{
1070
   174
1070
     0
1070
   272
1070
     1
1070
   288
1070
     0
1070
   341
1005
0
1002
}
  0
DIMENSION
  5
17F80
330
747D
100
AcDbEntity
  8
寸法
 48
50.0
100
AcDbDimension
  2
*D22
 10
9900.091451118493
 20
5312.024768052735
 30
0.0
 11
10795.09145111849
 21
5312.024768052735
 31
0.0
 70
   160
  1
柱外寸法<>
 71
     5
 42
1790.0
  3
INABA_S40G
100
AcDbAlignedDimension
 13
11690.09145111849
 23
4859.742278324915
 33
0.0
 14
9900.091451118493
 24
4908.933216836238
 34
0.0
100
AcDbRotatedDimension
1001
ACAD
1000
DSTYLE
1002
{
1070
   174
1070
     0
1070
   272
1070
     1
1070
   288
1070
     0
1070
   341
1005
0
1002
}
  0
DIMENSION
  5
17F83
330
747D
100
AcDbEntity
  8
寸法
100
AcDbDimension
  2
*D21
 10
12395.01860909062
 20
4857.931598713262
 30
0.0
 11
12295.006798067
 21
3697.931598713264
 31
0.0
 70
    32
 71
     5
 42
2320.000000000001
  3
INABA_S40G
100
AcDbAlignedDimension
 13
11690.09145111849
 23
2537.931598713262
 33
0.0
 14
11770.09145111849
 24
4857.931598713262
 34
0.0
 50
90.0
100
AcDbRotatedDimension
1001
ACAD
1000
DSTYLE
1002
{
1070
   174
1070
     0
1070
   272
1070
     1
1070
   288
1070
     0
1070
   341
1005
0
1002
}
  0
LINE
  5
17F84
330
747D
100
AcDbEntity
  8
部品1
100
AcDbLine
 10
11635.09145111849
 20
4677.931598713261
 30
0.0
 11
11635.09145111849
 21
2587.931598713261
 31
0.0
  0
LINE
  5
17F85
330
747D
100
AcDbEntity
  8
部品1
100
AcDbLine
 10
11690.09145111849
 20
4732.813407399268
 30
0.0
 11
11690.09145111849
 21
2437.931598713261
 31
0.0
  0
LINE
  5
17F86
330
747D
100
AcDbEntity
  8
部品1
100
AcDbLine
 10
10375.09145111849
 20
4677.931598713261
 30
0.0
 11
10375.09145111849
 21
2587.931598713261
 31
0.0
  0
DIMENSION
  5
17F87
330
747D
100
AcDbEntity
  8
寸法
100
AcDbDimension
  2
*D20
 10
9056.341321935232
 20
2537.931598713262
 30
0.0
 11
9056.341321935232
 21
2231.884354618772
 31
0.0
 70
   160
 71
     5
 42
50.0
  3
INABA_S40G
100
AcDbAlignedDimension
 13
9900.091451118491
 23
2587.931598713261
 33
0.0
 14
9845.091451118491
 24
2537.931598713262
 34
0.0
 50
90.0
100
AcDbRotatedDimension
1001
ACAD
1000
DSTYLE
1002
{
1070
   174
1070
     0
1070
   272
1070
     1
1070
   288
1070
     0
1070
   341
1005
0
1002
}
  0
DIMENSION
  5
17F89
330
747D
100
AcDbEntity
  8
寸法
100
AcDbDimension
  2
*D19
 10
8756.341321935231
 20
4912.931598713266
 30
0.0
 11
8656.329510911609
 21
3725.431598713266
 31
0.0
 70
    32
 71
     5
 42
2375.000000000004
  3
INABA_S40G
100
AcDbAlignedDimension
 13
9900.091451118491
 23
2537.931598713262
 33
0.0
 14
9840.091451118494
 24
4912.931598713266
 34
0.0
 50
90.0
100
AcDbRotatedDimension
1001
ACAD
1000
DSTYLE
1002
{
1070
   174
1070
     0
1070
   272
1070
     1
1070
   288
1070
     0
1070
   341
1005
0
1002
}
  0
DIMENSION
  5
17F8A
330
747D
100
AcDbEntity
  8
寸法
100
AcDbDimension
  2
*D18
 10
9056.341321935232
 20
2587.931598713262
 30
0.0
 11
8956.32951091161
 21
3632.931598713263
 31
0.0
 70
    32
 71
     5
 42
2089.999999999999
  3
INABA_S40G
100
AcDbAlignedDimension
 13
9900.091451118491
 23
4677.931598713261
 33
0.0
 14
9900.091451118491
 24
2587.931598713261
 34
0.0
 50
90.0
100
AcDbRotatedDimension
1001
ACAD
1000
DSTYLE
1002
{
1070
   174
1070
     0
1070
   272
1070
     1
1070
   288
1070
     0
1070
   341
1005
0
1002
}
  0
LINE
  5
17F8C
330
747D
100
AcDbEntity
  8
部品1
100
AcDbLine
 10
9900.091451118491
 20
4769.790118155508
 30
0.0
 11
9900.091451118491
 21
2437.931598713261
 31
0.0
  0
LINE
  5
17F8D
330
747D
100
AcDbEntity
  8
部品1
100
AcDbLine
 10
9955.091451118491
 20
4677.931598713261
 30
0.0
 11
9955.091451118491
 21
2437.931598713261
 31
0.0
  0
LINE
  5
17F8F
330
747D
100
AcDbEntity
  8
部品1
100
AcDbLine
 10
9955.091451118491
 20
2587.931598713262
 30
0.0
 11
11690.09145111849
 21
2587.931598713261
 31
0.0
  0
LINE
  5
17F90
330
747D
100
AcDbEntity
  8
部品1
100
AcDbLine
 10
9900.091451118491
 20
4677.931598713261
 30
0.0
 11
11690.09145111849
 21
4677.931598713261
 31
0.0
  0
LINE
  5
180B8
330
747D
100
AcDbEntity
  8
部品1
100
AcDbLine
 10
9900.091451118491
 20
2537.931598713262
 30
0.0
 11
9507.094236909642
 21
2437.931598713261
 31
0.0
  0
LINE
  5
180B9
330
747D
100
AcDbEntity
  8
破線
 48
5.0
100
AcDbLine
 10
9900.091451118491
 20
2437.931598713261
 30
0.0
 11
9900.091451118491
 21
2187.931598713261
 31
0.0
  0
LINE
  5
180BA
330
747D
100
AcDbEntity
  8
破線
 48
5.0
100
AcDbLine
 10
9955.091451118491
 20
2437.931598713261
 30
0.0
 11
9955.091451118491
 21
2187.931598713261
 31
0.0
  0
LINE
  5
180BB
330
747D
100
AcDbEntity
  8
破線
 48
5.0
100
AcDbLine
 10
9900.091451118491
 20
2187.931598713261
 30
0.0
 11
9955.091451118491
 21
2187.931598713261
 31
0.0
  0
TEXT
  5
1821C
330
747D
100
AcDbEntity
  8
文字
 62
     7
 48
50.0
100
AcDbText
 10
14499.88896070973
 20
483.8967129911416
 30
0.0
 40
160.0
  1
FXN-40HD
  7
STYLE2
100
AcDbText
  0
LINE
  5
18233
330
747D
100
AcDbEntity
  8
補助
  6
PHANTOM
 62
   230
 48
50.0
100
AcDbLine
 10
140.0
 20
0.0
 30
0.0
 11
139.9999999999995
 21
11409.6
 31
0.0
  0
DIMENSION
  5
18394
330
747D
100
AcDbEntity
  8
寸法
 48
50.0
100
AcDbDimension
  2
*D27
 10
7872.216159445404
 20
4677.931598713261
 30
0.0
 11
7872.216159445404
 21
4916.416880087502
 31
0.0
 70
   160
 71
     5
 42
164.9999999999991
  3
INABA_S40G
100
AcDbAlignedDimension
 13
7584.673057123659
 23
4512.931598713262
 33
0.0
 14
7584.673057123656
 24
4677.931598713261
 34
0.0
 50
90.0
100
AcDbRotatedDimension
1001
ACAD
1000
DSTYLE
1002
{
1002
}
  0
DIMENSION
  5
18395
330
747D
100
AcDbEntity
  8
寸法
 48
50.0
100
AcDbDimension
  2
*D28
 10
7872.216159445404
 20
4512.931598713262
 30
0.0
 11
8012.385982691769
 21
4513.89879855292
 31
0.0
 70
   160
 71
     5
 42
27.00000000000182
  3
INABA_S40G
100
AcDbAlignedDimension
 13
7584.673057123658
 23
4485.93159871326
 33
0.0
 14
7584.673057123659
 24
4512.931598713262
 34
0.0
 50
90.0
100
AcDbRotatedDimension
1001
ACAD
1000
DSTYLE
1002
{
1070
   279
1070
     2
1002
}
  0
DIMENSION
  5
18396
330
747D
100
AcDbEntity
  8
寸法
 48
50.0
100
AcDbDimension
  2
*D29
 10
7872.216159445404
 20
4485.93159871326
 30
0.0
 11
7772.216159445402
 21
3511.931598713263
 31
0.0
 70
    32
  1
有効開口部高サ <>
 71
     5
 42
1947.999999999999
  3
INABA_S40G
100
AcDbAlignedDimension
 13
7584.673057123656
 23
2537.931598713262
 33
0.0
 14
7584.673057123658
 24
4485.93159871326
 34
0.0
 50
90.0
100
AcDbRotatedDimension
  0
TEXT
  5
1856C
330
747D
100
AcDbEntity
  8
文字
 62
     7
 48
50.0
100
AcDbText
 10
15022.63965474516
 20
9230.013745883725
 30
0.0
 40
100.0
  1
F12            0.7
  7
STYLE1
100
AcDbText
  0
ENDSEC
  0
SECTION
  2
OBJECTS
  0
DICTIONARY
  5
7471
330
0
100
AcDbDictionary
281
     1
  3
ACAD_COLOR
350
17548
  3
ACAD_GROUP
350
7472
  3
ACAD_LAYOUT
350
17549
  3
ACAD_MATERIAL
350
17547
  3
ACAD_MLINESTYLE
350
7473
  3
ACAD_PLOTSETTINGS
350
1754A
  3
ACAD_PLOTSTYLENAME
350
17545
  3
ACDBHEADERROUNDTRIPXREC
350
18620
  3
AcDbVariableDictionary
350
1861C
  3
CONTENTDICTIONARY
350
E71C
  3
DRAWINGVARIABLESDICT
350
F3B9
  0
DICTIONARY
  5
177D7
330
7467
100
AcDbDictionary
280
     1
281
     1
  3
ACAD_LAYERSTATES
360
177D8
  0
DICTIONARY
  5
17548
102
{ACAD_REACTORS
330
7471
102
}
330
7471
100
AcDbDictionary
281
     1
  0
DICTIONARY
  5
7472
102
{ACAD_REACTORS
330
7471
102
}
330
7471
100
AcDbDictionary
281
     1
  0
DICTIONARY
  5
17549
102
{ACAD_REACTORS
330
7471
102
}
330
7471
100
AcDbDictionary
281
     1
  3
Model
350
1754B
  3
レイアウト1
350
1754C
  0
DICTIONARY
  5
17547
102
{ACAD_REACTORS
330
7471
102
}
330
7471
100
AcDbDictionary
281
     1
  0
DICTIONARY
  5
7473
102
{ACAD_REACTORS
330
7471
102
}
330
7471
100
AcDbDictionary
281
     1
  3
STANDARD
350
7480
  0
DICTIONARY
  5
1754A
102
{ACAD_REACTORS
330
7471
102
}
330
7471
100
AcDbDictionary
281
     1
  0
ACDBDICTIONARYWDFLT
  5
17545
102
{ACAD_REACTORS
330
7471
102
}
330
7471
100
AcDbDictionary
281
     1
  3
Normal
350
17546
100
AcDbDictionaryWithDefault
340
17546
  0
DICTIONARY
  5
18620
102
{ACAD_REACTORS
330
7471
102
}
330
7471
100
AcDbDictionary
281
     1
  3
COLORDICT
350
18622
  3
MATERIALDICT
350
18621
  0
DICTIONARY
  5
1861C
102
{ACAD_REACTORS
330
7471
102
}
330
7471
100
AcDbDictionary
281
     1
  3
DIMASSOC
350
1861D
  3
PROJECTNAME
350
1861E
  0
DICTIONARY
  5
E71C
102
{ACAD_REACTORS
330
7471
102
}
330
7471
100
AcDbDictionary
281
     1
  0
DICTIONARY
  5
F3B9
102
{ACAD_REACTORS
330
7471
102
}
330
7471
100
AcDbDictionary
281
     1
1001
DRAWINGVARIABLESXDATA
1000
POLARMODE
1000
1
  0
DICTIONARY
  5
177D8
102
{ACAD_REACTORS
330
177D7
102
}
330
177D7
100
AcDbDictionary
281
     1
  0
LAYOUT
  5
1754B
102
{ACAD_XDICTIONARY
360
18623
102
}
102
{ACAD_REACTORS
330
17549
102
}
330
17549
100
AcDbPlotSettings
  1

  2
クセロPDF
  4
A3
  6

 40
3.174999999999999
 41
3.174999999999999
 42
3.174987999999999
 43
3.174987999999999
 44
419.946655
 45
296.925995
 46
0.0
 47
0.0
 48
0.0
 49
0.0
140
0.0
141
0.0
142
1.0
143
40.44561299368567
 70
 11952
 72
     1
 73
     0
 74
     2
  7
inaba.ctb
 75
     0
147
0.0247245603659442
148
183.0179068595971
149
160.3342785227505
100
AcDbLayout
  1
Model
 70
     1
 71
     0
 10
0.0
 20
0.0
 11
12.0
 21
9.0
 12
0.0
 22
0.0
 32
0.0
 14
0.0
 24
0.0
 34
0.0
 15
0.0
 25
0.0
 35
0.0
146
0.0
 13
0.0
 23
0.0
 33
0.0
 16
1.0
 26
0.0
 36
0.0
 17
0.0
 27
1.0
 37
0.0
 76
     0
330
747D
  0
LAYOUT
  5
1754C
102
{ACAD_XDICTIONARY
360
18625
102
}
102
{ACAD_REACTORS
330
17549
102
}
330
17549
100
AcDbPlotSettings
  1

  2
EPSON LP-8300
  4

  6

 40
0.0
 41
0.0
 42
0.0
 43
0.0
 44
0.0
 45
0.0
 46
0.0
 47
0.0
 48
0.0
 49
0.0
140
0.0
141
0.0
142
1.0
143
1.0
 70
   688
 72
     0
 73
     0
 74
     5
  7
inaba.ctb
 75
    16
147
1.0
148
0.0
149
0.0
100
AcDbLayout
  1
レイアウト1
 70
     0
 71
     1
 10
0.0
 20
0.0
 11
420.0
 21
297.0
 12
0.0
 22
0.0
 32
0.0
 14
1.000000000000000E+20
 24
1.000000000000000E+20
 34
1.000000000000000E+20
 15
-1.000000000000000E+20
 25
-1.000000000000000E+20
 35
-1.000000000000000E+20
146
0.0
 13
0.0
 23
0.0
 33
0.0
 16
1.0
 26
0.0
 36
0.0
 17
0.0
 27
1.0
 37
0.0
 76
     0
330
747A
  0
MLINESTYLE
  5
7480
102
{ACAD_REACTORS
330
7473
102
}
330
7473
100
AcDbMlineStyle
  2
STANDARD
 70
     0
  3

 62
     0
 51
90.0
 52
90.0
 71
     2
 49
0.5
 62
   256
  6
BYLAYER
 49
-0.5
 62
   256
  6
BYLAYER
  0
ACDBPLACEHOLDER
  5
17546
102
{ACAD_REACTORS
330
17545
102
}
330
17545
  0
XRECORD
  5
18622
102
{ACAD_REACTORS
330
18620
102
}
330
18620
100
AcDbXrecord
280
     1
340
17548
  0
XRECORD
  5
18621
102
{ACAD_REACTORS
330
18620
102
}
330
18620
100
AcDbXrecord
280
     1
340
17547
  0
DICTIONARYVAR
  5
1861D
102
{ACAD_REACTORS
330
1861C
102
}
330
1861C
100
DictionaryVariables
280
     0
  1
1
  0
DICTIONARYVAR
  5
1861E
102
{ACAD_REACTORS
330
1861C
102
}
330
1861C
100
DictionaryVariables
280
     0
  1

  0
DICTIONARY
  5
18623
330
1754B
100
AcDbDictionary
280
     1
281
     1
  3
ACAD_XREC_ROUNDTRIP
360
18624
  0
DICTIONARY
  5
18625
330
1754C
100
AcDbDictionary
280
     1
281
     1
  3
ACAD_XREC_ROUNDTRIP
360
18626
  0
XRECORD
  5
18624
102
{ACAD_REACTORS
330
18623
102
}
330
18623
100
AcDbXrecord
280
     1
102
SHADEPLOT
 70
     1
102
SHADEPLOTRESLEVEL
 70
     2
102
SHADEPLOTCUSTOMDPI
 70
   300
  0
XRECORD
  5
18626
102
{ACAD_REACTORS
330
18625
102
}
330
18625
100
AcDbXrecord
280
     1
102
SHADEPLOT
 70
     0
102
SHADEPLOTRESLEVEL
 70
     2
102
SHADEPLOTCUSTOMDPI
 70
   300
  0
ENDSEC
  0
EOF
