  0
SECTION
  2
HEADER
  9
$ACADVER
  1
AC1015
  9
$ACADMAINTVER
 70
    20
  9
$DWGCODEPAGE
  3
ANSI_932
  9
$INSBASE
 10
0.0
 20
0.0
 30
0.0
  9
$EXTMIN
 10
139.9999999999995
 20
-0.0000000000000909
 30
0.0
  9
$EXTMAX
 10
16307.2
 20
11409.6
 30
0.0
  9
$LIMMIN
 10
0.0
 20
0.0
  9
$LIMMAX
 10
16800.0
 20
11880.0
  9
$ORTHOMODE
 70
     0
  9
$REGENMODE
 70
     1
  9
$FILLMODE
 70
     1
  9
$QTEXTMODE
 70
     0
  9
$MIRRTEXT
 70
     1
  9
$LTSCALE
 40
20.0
  9
$ATTMODE
 70
     1
  9
$TEXTSIZE
 40
100.0
  9
$TRACEWID
 40
1.0
  9
$TEXTSTYLE
  7
STYLE2
  9
$CLAYER
  8
破線
  9
$CELTYPE
  6
BYLAYER
  9
$CECOLOR
 62
   256
  9
$CELTSCALE
 40
50.0
  9
$DISPSILH
 70
     0
  9
$DIMSCALE
 40
40.0
  9
$DIMASZ
 40
2.5
  9
$DIMEXO
 40
0.5
  9
$DIMDLI
 40
7.0
  9
$DIMRND
 40
0.0
  9
$DIMDLE
 40
0.0
  9
$DIMEXE
 40
1.5
  9
$DIMTP
 40
0.0
  9
$DIMTM
 40
0.0
  9
$DIMTXT
 40
3.0
  9
$DIMCEN
 40
0.0
  9
$DIMTSZ
 40
0.0
  9
$DIMTOL
 70
     0
  9
$DIMLIM
 70
     0
  9
$DIMTIH
 70
     0
  9
$DIMTOH
 70
     0
  9
$DIMSE1
 70
     0
  9
$DIMSE2
 70
     0
  9
$DIMTAD
 70
     3
  9
$DIMZIN
 70
     8
  9
$DIMBLK
  1

  9
$DIMASO
 70
     1
  9
$DIMSHO
 70
     1
  9
$DIMPOST
  1

  9
$DIMAPOST
  1

  9
$DIMALT
 70
     0
  9
$DIMALTD
 70
     2
  9
$DIMALTF
 40
0.0394
  9
$DIMLFAC
 40
1.0
  9
$DIMTOFL
 70
     1
  9
$DIMTVP
 40
0.0
  9
$DIMTIX
 70
     1
  9
$DIMSOXD
 70
     0
  9
$DIMSAH
 70
     1
  9
$DIMBLK1
  1
DOTSMALL
  9
$DIMBLK2
  1
DOTSMALL
  9
$DIMSTYLE
  2
INABA_S40G
  9
$DIMCLRD
 70
     0
  9
$DIMCLRE
 70
     0
  9
$DIMCLRT
 70
     7
  9
$DIMTFAC
 40
1.0
  9
$DIMGAP
 40
1.0
  9
$DIMJUST
 70
     0
  9
$DIMSD1
 70
     0
  9
$DIMSD2
 70
     0
  9
$DIMTOLJ
 70
     1
  9
$DIMTZIN
 70
     0
  9
$DIMALTZ
 70
     0
  9
$DIMALTTZ
 70
     0
  9
$DIMUPT
 70
     0
  9
$DIMDEC
 70
     1
  9
$DIMTDEC
 70
     4
  9
$DIMALTU
 70
     2
  9
$DIMALTTD
 70
     2
  9
$DIMTXSTY
  7
STYLE1
  9
$DIMAUNIT
 70
     0
  9
$DIMADEC
 70
     0
  9
$DIMALTRND
 40
0.0
  9
$DIMAZIN
 70
     0
  9
$DIMDSEP
 70
    46
  9
$DIMATFIT
 70
     3
  9
$DIMFRAC
 70
     0
  9
$DIMLDRBLK
  1

  9
$DIMLUNIT
 70
     2
  9
$DIMLWD
 70
    -2
  9
$DIMLWE
 70
    -2
  9
$DIMTMOVE
 70
     0
  9
$LUNITS
 70
     2
  9
$LUPREC
 70
     1
  9
$SKETCHINC
 40
1.0
  9
$FILLETRAD
 40
3.0
  9
$AUNITS
 70
     0
  9
$AUPREC
 70
     0
  9
$MENU
  1
acad
  9
$ELEVATION
 40
0.0
  9
$PELEVATION
 40
0.0
  9
$THICKNESS
 40
0.0
  9
$LIMCHECK
 70
     0
  9
$CHAMFERA
 40
0.0
  9
$CHAMFERB
 40
0.0
  9
$CHAMFERC
 40
0.0
  9
$CHAMFERD
 40
0.0
  9
$SKPOLY
 70
     0
  9
$TDCREATE
 40
2451368.612993866
  9
$TDUCREATE
 40
2451368.237993866
  9
$TDUPDATE
 40
2455569.612253680
  9
$TDUUPDATE
 40
2455569.237253680
  9
$TDINDWG
 40
0.7357696065
  9
$TDUSRTIMER
 40
0.7357696065
  9
$USRTIMER
 70
     1
  9
$ANGBASE
 50
0.0
  9
$ANGDIR
 70
     0
  9
$PDMODE
 70
     3
  9
$PDSIZE
 40
2.0
  9
$PLINEWID
 40
0.0
  9
$SPLFRAME
 70
     0
  9
$SPLINETYPE
 70
     6
  9
$SPLINESEGS
 70
     8
  9
$HANDSEED
  5
1888D
  9
$SURFTAB1
 70
     6
  9
$SURFTAB2
 70
     6
  9
$SURFTYPE
 70
     6
  9
$SURFU
 70
     6
  9
$SURFV
 70
     6
  9
$UCSBASE
  2

  9
$UCSNAME
  2

  9
$UCSORG
 10
0.0
 20
0.0
 30
0.0
  9
$UCSXDIR
 10
1.0
 20
0.0
 30
0.0
  9
$UCSYDIR
 10
0.0
 20
1.0
 30
0.0
  9
$UCSORTHOREF
  2

  9
$UCSORTHOVIEW
 70
     0
  9
$UCSORGTOP
 10
0.0
 20
0.0
 30
0.0
  9
$UCSORGBOTTOM
 10
0.0
 20
0.0
 30
0.0
  9
$UCSORGLEFT
 10
0.0
 20
0.0
 30
0.0
  9
$UCSORGRIGHT
 10
0.0
 20
0.0
 30
0.0
  9
$UCSORGFRONT
 10
0.0
 20
0.0
 30
0.0
  9
$UCSORGBACK
 10
0.0
 20
0.0
 30
0.0
  9
$PUCSBASE
  2

  9
$PUCSNAME
  2

  9
$PUCSORG
 10
0.0
 20
0.0
 30
0.0
  9
$PUCSXDIR
 10
1.0
 20
0.0
 30
0.0
  9
$PUCSYDIR
 10
0.0
 20
1.0
 30
0.0
  9
$PUCSORTHOREF
  2

  9
$PUCSORTHOVIEW
 70
     0
  9
$PUCSORGTOP
 10
0.0
 20
0.0
 30
0.0
  9
$PUCSORGBOTTOM
 10
0.0
 20
0.0
 30
0.0
  9
$PUCSORGLEFT
 10
0.0
 20
0.0
 30
0.0
  9
$PUCSORGRIGHT
 10
0.0
 20
0.0
 30
0.0
  9
$PUCSORGFRONT
 10
0.0
 20
0.0
 30
0.0
  9
$PUCSORGBACK
 10
0.0
 20
0.0
 30
0.0
  9
$USERI1
 70
     0
  9
$USERI2
 70
     0
  9
$USERI3
 70
     0
  9
$USERI4
 70
     0
  9
$USERI5
 70
     0
  9
$USERR1
 40
0.0
  9
$USERR2
 40
0.0
  9
$USERR3
 40
0.0
  9
$USERR4
 40
0.0
  9
$USERR5
 40
0.0
  9
$WORLDVIEW
 70
     1
  9
$SHADEDGE
 70
     3
  9
$SHADEDIF
 70
    70
  9
$TILEMODE
 70
     1
  9
$MAXACTVP
 70
    16
  9
$PINSBASE
 10
0.0
 20
0.0
 30
0.0
  9
$PLIMCHECK
 70
     0
  9
$PEXTMIN
 10
1.000000000000000E+20
 20
1.000000000000000E+20
 30
1.000000000000000E+20
  9
$PEXTMAX
 10
-1.000000000000000E+20
 20
-1.000000000000000E+20
 30
-1.000000000000000E+20
  9
$PLIMMIN
 10
0.0
 20
0.0
  9
$PLIMMAX
 10
420.0
 20
297.0
  9
$UNITMODE
 70
     0
  9
$VISRETAIN
 70
     0
  9
$PLINEGEN
 70
     0
  9
$PSLTSCALE
 70
     0
  9
$TREEDEPTH
 70
  3020
  9
$CMLSTYLE
  2
STANDARD
  9
$CMLJUST
 70
     0
  9
$CMLSCALE
 40
1.0
  9
$PROXYGRAPHICS
 70
     1
  9
$MEASUREMENT
 70
     1
  9
$CELWEIGHT
370
    -1
  9
$ENDCAPS
280
     0
  9
$JOINSTYLE
280
     0
  9
$LWDISPLAY
290
     0
  9
$INSUNITS
 70
     0
  9
$HYPERLINKBASE
  1

  9
$STYLESHEET
  1
inaba.ctb
  9
$XEDIT
290
     1
  9
$CEPSNTYPE
380
     0
  9
$PSTYLEMODE
290
     1
  9
$FINGERPRINTGUID
  2
{534C3BF7-CA82-41F2-9547-353D01461F22}
  9
$VERSIONGUID
  2
{284D4CB8-35A8-44F0-AFF7-01A651C1E61A}
  9
$EXTNAMES
290
     1
  9
$PSVPSCALE
 40
0.0
  9
$OLESTARTUP
290
     0
  0
ENDSEC
  0
SECTION
  2
CLASSES
  0
CLASS
  1
ACDBDICTIONARYWDFLT
  2
AcDbDictionaryWithDefault
  3
ObjectDBX Classes
 90
        0
280
     0
281
     0
  0
CLASS
  1
DICTIONARYVAR
  2
AcDbDictionaryVar
  3
ObjectDBX Classes
 90
        0
280
     0
281
     0
  0
CLASS
  1
ACDBPLACEHOLDER
  2
AcDbPlaceHolder
  3
ObjectDBX Classes
 90
        0
280
     0
281
     0
  0
CLASS
  1
LAYOUT
  2
AcDbLayout
  3
ObjectDBX Classes
 90
        0
280
     0
281
     0
  0
ENDSEC
  0
SECTION
  2
TABLES
  0
TABLE
  2
VPORT
  5
746D
330
0
100
AcDbSymbolTable
 70
     2
  0
VPORT
  5
18885
330
746D
100
AcDbSymbolTableRecord
100
AcDbViewportTableRecord
  2
*Active
 70
     0
 10
0.0
 20
0.0
 11
1.0
 21
1.0
 12
8223.761025238502
 22
5958.64559657468
 13
0.0
 23
0.0
 14
10.0
 24
10.0
 15
10.0
 25
10.0
 16
0.0
 26
0.0
 36
1.0
 17
0.0
 27
0.0
 37
0.0
 40
12026.02437485716
 41
1.627450980392156
 42
50.0
 43
0.0
 44
0.0
 50
0.0
 51
0.0
 71
     0
 72
     0
 73
     1
 74
     0
 75
     0
 76
     0
 77
     0
 78
     0
281
     0
 65
     1
110
0.0
120
0.0
130
0.0
111
1.0
121
0.0
131
0.0
112
0.0
122
1.0
132
0.0
 79
     0
146
0.0
  0
ENDTAB
  0
TABLE
  2
LTYPE
  5
746A
330
0
100
AcDbSymbolTable
 70
     3
  0
LTYPE
  5
7477
330
746A
100
AcDbSymbolTableRecord
100
AcDbLinetypeTableRecord
  2
BYBLOCK
 70
     0
  3

 72
    65
 73
     0
 40
0.0
  0
LTYPE
  5
7478
330
746A
100
AcDbSymbolTableRecord
100
AcDbLinetypeTableRecord
  2
BYLAYER
 70
     0
  3

 72
    65
 73
     0
 40
0.0
  0
LTYPE
  5
7479
330
746A
100
AcDbSymbolTableRecord
100
AcDbLinetypeTableRecord
  2
CONTINUOUS
 70
     0
  3
Solid line
 72
    65
 73
     0
 40
0.0
  0
LTYPE
  5
781A
330
746A
100
AcDbSymbolTableRecord
100
AcDbLinetypeTableRecord
  2
HIDDEN
 70
     0
  3
__ __ __ __ __ __ __ __ __ __ __ __ __ __ __ __
 72
    65
 73
     2
 40
0.375
 49
0.25
 74
     0
 49
-0.125
 74
     0
  0
LTYPE
  5
781B
330
746A
100
AcDbSymbolTableRecord
100
AcDbLinetypeTableRecord
  2
PHANTOM
 70
     0
  3
______  __  __  ______  __  __  ______  __  __ 
 72
    65
 73
     6
 40
2.5
 49
1.25
 74
     0
 49
-0.25
 74
     0
 49
0.25
 74
     0
 49
-0.25
 74
     0
 49
0.25
 74
     0
 49
-0.25
 74
     0
  0
ENDTAB
  0
TABLE
  2
LAYER
  5
7467
102
{ACAD_XDICTIONARY
360
16970
102
}
330
0
100
AcDbSymbolTable
 70
    10
  0
LAYER
  5
7474
330
7467
100
AcDbSymbolTableRecord
100
AcDbLayerTableRecord
  2
0
 70
     0
 62
     7
  6
CONTINUOUS
370
    -3
390
166EC
  0
LAYER
  5
DEB3
330
7467
100
AcDbSymbolTableRecord
100
AcDbLayerTableRecord
  2
寸法
 70
     0
 62
     4
  6
CONTINUOUS
370
    -3
390
166EC
  0
LAYER
  5
DEB4
330
7467
100
AcDbSymbolTableRecord
100
AcDbLayerTableRecord
  2
部品1
 70
     0
 62
     7
  6
CONTINUOUS
370
    -3
390
166EC
  0
LAYER
  5
DEB5
330
7467
100
AcDbSymbolTableRecord
100
AcDbLayerTableRecord
  2
補助
 70
     0
 62
    -1
  6
CONTINUOUS
370
    -3
390
166EC
  0
LAYER
  5
DEB6
330
7467
100
AcDbSymbolTableRecord
100
AcDbLayerTableRecord
  2
文字
 70
     0
 62
     7
  6
CONTINUOUS
370
    -3
390
166EC
  0
LAYER
  5
F255
330
7467
100
AcDbSymbolTableRecord
100
AcDbLayerTableRecord
  2
DEFPOINTS
 70
     0
 62
     7
  6
CONTINUOUS
290
     0
370
    -3
390
166EC
  0
LAYER
  5
10B54
330
7467
100
AcDbSymbolTableRecord
100
AcDbLayerTableRecord
  2
仕様書枠
 70
     0
 62
   230
  6
CONTINUOUS
370
    -3
390
166EC
  0
LAYER
  5
11729
330
7467
100
AcDbSymbolTableRecord
100
AcDbLayerTableRecord
  2
Ｇ．Ｌ
 70
     0
 62
    30
  6
CONTINUOUS
370
    -3
390
166EC
  0
LAYER
  5
1173F
330
7467
100
AcDbSymbolTableRecord
100
AcDbLayerTableRecord
  2
細線
 70
     0
 62
     5
  6
CONTINUOUS
370
    -3
390
166EC
  0
LAYER
  5
142E2
330
7467
100
AcDbSymbolTableRecord
100
AcDbLayerTableRecord
  2
破線
 70
     0
 62
     2
  6
CONTINUOUS
370
    -3
390
166EC
  0
ENDTAB
  0
TABLE
  2
STYLE
  5
7468
330
0
100
AcDbSymbolTable
 70
     5
  0
STYLE
  5
7475
330
7468
100
AcDbSymbolTableRecord
100
AcDbTextStyleTableRecord
  2
STANDARD
 70
     0
 40
0.0
 41
1.0
 50
0.0
 71
     0
 42
4.0
  3
txt
  4
C:\AutoCAD LT\bigfont.shx
  0
STYLE
  5
763C
330
7468
100
AcDbSymbolTableRecord
100
AcDbTextStyleTableRecord
  2
MSMINCHO
 70
     0
 40
0.0
 41
1.0
 50
0.0
 71
     0
 42
1.199999999999999
  3
C:\AutoCAD LT\msminch2.TTF
  4

  0
STYLE
  5
F706
330
7468
100
AcDbSymbolTableRecord
100
AcDbTextStyleTableRecord
  2
STYLE1
 70
     0
 40
0.0
 41
1.0
 50
0.0
 71
     0
 42
4.0
  3
isocp.shx
  4
bigfont.shx
  0
STYLE
  5
103BF
330
7468
100
AcDbSymbolTableRecord
100
AcDbTextStyleTableRecord
  2
STYLE2
 70
     0
 40
0.0
 41
1.0
 50
0.0
 71
     0
 42
100.0
  3
MS PGothic.ttf
  4

1001
ACAD
1000
MS PGothic
1071
    32818
  0
STYLE
  5
11A15
330
7468
100
AcDbSymbolTableRecord
100
AcDbTextStyleTableRecord
  2
MSGOTHIC
 70
     0
 40
0.0
 41
1.0
 50
0.0
 71
     0
 42
3.5
  3
msgothi2.ttf
  4

  0
ENDTAB
  0
TABLE
  2
VIEW
  5
746B
330
0
100
AcDbSymbolTable
 70
     0
  0
ENDTAB
  0
TABLE
  2
UCS
  5
746C
330
0
100
AcDbSymbolTable
 70
     0
  0
ENDTAB
  0
TABLE
  2
APPID
  5
746E
330
0
100
AcDbSymbolTable
 70
     6
  0
APPID
  5
7476
330
746E
100
AcDbSymbolTableRecord
100
AcDbRegAppTableRecord
  2
ACAD
 70
     0
  0
APPID
  5
DEA9
330
746E
100
AcDbSymbolTableRecord
100
AcDbRegAppTableRecord
  2
CONTENTBLOCKICON
 70
     0
  0
APPID
  5
DEAA
330
746E
100
AcDbSymbolTableRecord
100
AcDbRegAppTableRecord
  2
CONTENTBLOCKDESCRIPTION
 70
     0
  0
APPID
  5
E71D
330
746E
100
AcDbSymbolTableRecord
100
AcDbRegAppTableRecord
  2
CONTENTTABDATA
 70
     0
  0
APPID
  5
E71E
330
746E
100
AcDbSymbolTableRecord
100
AcDbRegAppTableRecord
  2
CONTENTCURRENTTAB
 70
     0
  0
APPID
  5
F3BA
330
746E
100
AcDbSymbolTableRecord
100
AcDbRegAppTableRecord
  2
DRAWINGVARIABLESXDATA
 70
     0
  0
ENDTAB
  0
TABLE
  2
DIMSTYLE
  5
746F
330
0
100
AcDbSymbolTable
 70
     1
100
AcDbDimStyleTable
 71
     1
340
F71F
  0
DIMSTYLE
105
F71F
102
{ACAD_REACTORS
330
16199
330
1619C
330
161A0
330
161A3
330
161A8
330
161AD
330
161AE
330
161C1
330
161C4
330
161C9
330
161CA
330
161CB
330
161CC
330
161F0
330
161F2
330
161F7
330
16B53
330
16B54
330
16B55
330
16B56
330
16B57
330
16B9D
330
16B9E
330
16B9F
330
16BA0
330
16CA7
330
16CAC
330
16CAD
330
16CAF
330
17886
330
18545
330
18546
330
18547
102
}
330
746F
100
AcDbSymbolTableRecord
100
AcDbDimStyleTableRecord
  2
INABA_S40G
 70
     0
 40
40.0
 41
2.5
 42
0.5
 43
7.0
 44
1.5
 73
     0
 74
     0
 77
     3
 78
     8
140
3.0
141
0.0
143
0.0394
147
1.0
172
     1
173
     1
174
     1
178
     7
271
     1
340
F706
341
F770
343
F770
344
F770
  0
ENDTAB
  0
TABLE
  2
BLOCK_RECORD
  5
7466
330
0
100
AcDbSymbolTable
 70
    45
  0
BLOCK_RECORD
  5
747D
330
7466
100
AcDbSymbolTableRecord
100
AcDbBlockTableRecord
  2
*MODEL_SPACE
340
166F1
  0
BLOCK_RECORD
  5
747A
330
7466
100
AcDbSymbolTableRecord
100
AcDbBlockTableRecord
  2
*PAPER_SPACE
340
166F2
  0
BLOCK_RECORD
  5
F770
330
7466
100
AcDbSymbolTableRecord
100
AcDbBlockTableRecord
  2
_DOTSMALL
340
0
102
{BLKREFS
331
16390
331
16391
331
162E4
331
162E5
331
16307
331
16308
331
16316
331
16317
331
166D8
331
166D9
331
163A6
331
163A7
331
16347
331
16348
331
16353
331
16354
331
16360
331
16361
331
1636B
331
1636C
331
16378
331
16379
331
16FCD
331
16FCE
331
16FF4
331
16FF5
331
17074
331
17075
331
17087
331
17088
331
17091
331
17092
331
170A6
331
170A7
331
170B1
331
170B2
331
17896
331
17897
331
17C12
331
17C13
331
17C1D
331
17C1E
331
183B5
331
183B6
331
1867A
331
1867B
331
186E5
331
186E6
331
186D8
331
186D9
331
186CC
331
186CD
331
186C0
331
186C1
331
186B2
331
186B3
331
186A4
331
186A5
331
186FF
331
18700
331
186F4
331
186F5
331
18802
331
18803
331
1880D
331
1880E
331
18816
331
18817
331
1881F
331
18820
331
18828
331
18829
331
18831
331
18832
331
1883A
331
1883B
331
18843
331
18844
331
18861
331
18862
331
1886A
331
1886B
102
}
  0
BLOCK_RECORD
  5
161FA
330
7466
100
AcDbSymbolTableRecord
100
AcDbBlockTableRecord
  2
*D1
340
0
  0
BLOCK_RECORD
  5
16206
330
7466
100
AcDbSymbolTableRecord
100
AcDbBlockTableRecord
  2
*D2
340
0
  0
BLOCK_RECORD
  5
16212
330
7466
100
AcDbSymbolTableRecord
100
AcDbBlockTableRecord
  2
*D3
340
0
  0
BLOCK_RECORD
  5
1621D
330
7466
100
AcDbSymbolTableRecord
100
AcDbBlockTableRecord
  2
*D4
340
0
  0
BLOCK_RECORD
  5
16229
330
7466
100
AcDbSymbolTableRecord
100
AcDbBlockTableRecord
  2
*D5
340
0
  0
BLOCK_RECORD
  5
16235
330
7466
100
AcDbSymbolTableRecord
100
AcDbBlockTableRecord
  2
*D6
340
0
  0
BLOCK_RECORD
  5
16243
330
7466
100
AcDbSymbolTableRecord
100
AcDbBlockTableRecord
  2
*D7
340
0
  0
BLOCK_RECORD
  5
16252
330
7466
100
AcDbSymbolTableRecord
100
AcDbBlockTableRecord
  2
*D8
340
0
  0
BLOCK_RECORD
  5
16260
330
7466
100
AcDbSymbolTableRecord
100
AcDbBlockTableRecord
  2
*D9
340
0
  0
BLOCK_RECORD
  5
1626C
330
7466
100
AcDbSymbolTableRecord
100
AcDbBlockTableRecord
  2
*D10
340
0
  0
BLOCK_RECORD
  5
16278
330
7466
100
AcDbSymbolTableRecord
100
AcDbBlockTableRecord
  2
*D11
340
0
  0
BLOCK_RECORD
  5
16287
330
7466
100
AcDbSymbolTableRecord
100
AcDbBlockTableRecord
  2
*D12
340
0
  0
BLOCK_RECORD
  5
16295
330
7466
100
AcDbSymbolTableRecord
100
AcDbBlockTableRecord
  2
*D13
340
0
  0
BLOCK_RECORD
  5
162A3
330
7466
100
AcDbSymbolTableRecord
100
AcDbBlockTableRecord
  2
*D14
340
0
  0
BLOCK_RECORD
  5
162AF
330
7466
100
AcDbSymbolTableRecord
100
AcDbBlockTableRecord
  2
*D15
340
0
  0
BLOCK_RECORD
  5
162BD
330
7466
100
AcDbSymbolTableRecord
100
AcDbBlockTableRecord
  2
*D16
340
0
  0
BLOCK_RECORD
  5
165F8
330
7466
100
AcDbSymbolTableRecord
100
AcDbBlockTableRecord
  2
A$C0F9D2380
340
0
102
{BLKREFS
331
16C0C
102
}
  0
BLOCK_RECORD
  5
168F4
330
7466
100
AcDbSymbolTableRecord
100
AcDbBlockTableRecord
  2
A$C20F158B4
340
0
  0
BLOCK_RECORD
  5
16CC2
330
7466
100
AcDbSymbolTableRecord
100
AcDbBlockTableRecord
  2
*D19
340
0
  0
BLOCK_RECORD
  5
16CCF
330
7466
100
AcDbSymbolTableRecord
100
AcDbBlockTableRecord
  2
*D20
340
0
  0
BLOCK_RECORD
  5
16CDC
330
7466
100
AcDbSymbolTableRecord
100
AcDbBlockTableRecord
  2
*D21
340
0
  0
BLOCK_RECORD
  5
16CE8
330
7466
100
AcDbSymbolTableRecord
100
AcDbBlockTableRecord
  2
*D22
340
0
  0
BLOCK_RECORD
  5
16CF6
330
7466
100
AcDbSymbolTableRecord
100
AcDbBlockTableRecord
  2
*D23
340
0
  0
BLOCK_RECORD
  5
16D02
330
7466
100
AcDbSymbolTableRecord
100
AcDbBlockTableRecord
  2
*D24
340
0
  0
BLOCK_RECORD
  5
16D10
330
7466
100
AcDbSymbolTableRecord
100
AcDbBlockTableRecord
  2
*D25
340
0
  0
BLOCK_RECORD
  5
16D1C
330
7466
100
AcDbSymbolTableRecord
100
AcDbBlockTableRecord
  2
*D26
340
0
  0
BLOCK_RECORD
  5
16D28
330
7466
100
AcDbSymbolTableRecord
100
AcDbBlockTableRecord
  2
*D27
340
0
  0
BLOCK_RECORD
  5
16E3A
330
7466
100
AcDbSymbolTableRecord
100
AcDbBlockTableRecord
  2
*D28
340
0
  0
BLOCK_RECORD
  5
16E46
330
7466
100
AcDbSymbolTableRecord
100
AcDbBlockTableRecord
  2
*D29
340
0
  0
BLOCK_RECORD
  5
16E54
330
7466
100
AcDbSymbolTableRecord
100
AcDbBlockTableRecord
  2
*D30
340
0
  0
BLOCK_RECORD
  5
16E6D
330
7466
100
AcDbSymbolTableRecord
100
AcDbBlockTableRecord
  2
*D31
340
0
  0
BLOCK_RECORD
  5
17887
330
7466
100
AcDbSymbolTableRecord
100
AcDbBlockTableRecord
  2
*D32
340
0
  0
BLOCK_RECORD
  5
185B0
330
7466
100
AcDbSymbolTableRecord
100
AcDbBlockTableRecord
  2
*D33
340
0
  0
BLOCK_RECORD
  5
185BD
330
7466
100
AcDbSymbolTableRecord
100
AcDbBlockTableRecord
  2
*D34
340
0
  0
BLOCK_RECORD
  5
185CB
330
7466
100
AcDbSymbolTableRecord
100
AcDbBlockTableRecord
  2
*D35
340
0
  0
BLOCK_RECORD
  5
1869F
330
7466
100
AcDbSymbolTableRecord
100
AcDbBlockTableRecord
  2
*D36
340
0
  0
BLOCK_RECORD
  5
186AB
330
7466
100
AcDbSymbolTableRecord
100
AcDbBlockTableRecord
  2
*D37
340
0
  0
BLOCK_RECORD
  5
186B9
330
7466
100
AcDbSymbolTableRecord
100
AcDbBlockTableRecord
  2
*D38
340
0
  0
BLOCK_RECORD
  5
186C7
330
7466
100
AcDbSymbolTableRecord
100
AcDbBlockTableRecord
  2
*D39
340
0
  0
BLOCK_RECORD
  5
186D3
330
7466
100
AcDbSymbolTableRecord
100
AcDbBlockTableRecord
  2
*D40
340
0
  0
BLOCK_RECORD
  5
186DF
330
7466
100
AcDbSymbolTableRecord
100
AcDbBlockTableRecord
  2
*D41
340
0
  0
BLOCK_RECORD
  5
186EC
330
7466
100
AcDbSymbolTableRecord
100
AcDbBlockTableRecord
  2
*D42
340
0
  0
BLOCK_RECORD
  5
186FA
330
7466
100
AcDbSymbolTableRecord
100
AcDbBlockTableRecord
  2
*D43
340
0
  0
BLOCK_RECORD
  5
18706
330
7466
100
AcDbSymbolTableRecord
100
AcDbBlockTableRecord
  2
A$C00006481
340
0
  0
ENDTAB
  0
ENDSEC
  0
SECTION
  2
BLOCKS
  0
BLOCK
  5
7489
330
747D
100
AcDbEntity
  8
0
100
AcDbBlockBegin
  2
*MODEL_SPACE
 70
     0
 10
0.0
 20
0.0
 30
0.0
  3
*MODEL_SPACE
  1

  0
ENDBLK
  5
748A
330
747D
100
AcDbEntity
  8
0
100
AcDbBlockEnd
  0
BLOCK
  5
7487
330
747A
100
AcDbEntity
 67
     1
  8
0
100
AcDbBlockBegin
  2
*PAPER_SPACE
 70
     0
 10
0.0
 20
0.0
 30
0.0
  3
*PAPER_SPACE
  1

  0
ENDBLK
  5
7488
330
747A
100
AcDbEntity
 67
     1
  8
0
100
AcDbBlockEnd
  0
BLOCK
  5
F771
330
F770
100
AcDbEntity
  8
0
 48
50.0
100
AcDbBlockBegin
  2
_DOTSMALL
 70
     0
 10
0.0
 20
0.0
 30
0.0
  3
_DOTSMALL
  1

  0
LWPOLYLINE
  5
F772
330
F770
100
AcDbEntity
  8
0
  6
ByBlock
 62
     0
 48
50.0
100
AcDbPolyline
 90
        2
 70
     1
 43
0.5
 10
-0.0625
 20
0.0
 42
1.0
 10
0.0625
 20
0.0
 42
1.0
  0
ENDBLK
  5
F776
330
F770
100
AcDbEntity
  8
0
 48
50.0
100
AcDbBlockEnd
  0
BLOCK
  5
1638C
330
161FA
100
AcDbEntity
  8
0
 48
50.0
100
AcDbBlockBegin
  2
*D1
 70
     1
 10
0.0
 20
0.0
 30
0.0
  3
*D1
  1

  0
LINE
  5
1638D
330
161FA
100
AcDbEntity
  8
0
  6
ByBlock
 62
     0
 48
50.0
100
AcDbLine
 10
7394.673057123664
 20
8352.497424545964
 30
0.0
 11
8447.206344597709
 21
8352.497424545964
 31
0.0
  0
LINE
  5
1638E
330
161FA
100
AcDbEntity
  8
0
  6
ByBlock
 62
     0
 48
50.0
100
AcDbLine
 10
7394.673057123639
 20
6982.497424545956
 30
0.0
 11
8447.206344597709
 21
6982.497424545956
 31
0.0
  0
LINE
  5
1638F
330
161FA
100
AcDbEntity
  8
0
  6
ByBlock
 62
     0
 48
50.0
100
AcDbLine
 10
8387.206344597709
 20
8352.497424545964
 30
0.0
 11
8387.206344597709
 21
6982.497424545956
 31
0.0
  0
INSERT
  5
16390
330
161FA
100
AcDbEntity
  8
0
  6
ByBlock
 62
     0
 48
50.0
100
AcDbBlockReference
  2
_DOTSMALL
 10
8387.206344597709
 20
8352.497424545964
 30
0.0
 41
100.0
 42
100.0
 43
100.0
 50
90.0
  0
INSERT
  5
16391
330
161FA
100
AcDbEntity
  8
0
  6
ByBlock
 62
     0
 48
50.0
100
AcDbBlockReference
  2
_DOTSMALL
 10
8387.206344597709
 20
6982.497424545956
 30
0.0
 41
100.0
 42
100.0
 43
100.0
 50
270.0
  0
MTEXT
  5
16392
330
161FA
100
AcDbEntity
  8
0
  6
ByBlock
 62
     7
 48
50.0
100
AcDbMText
 10
8287.206344597709
 20
7667.49742454596
 30
0.0
 40
120.0
 41
0.0
 71
     5
 72
     1
  1
\A1;1370
  7
STYLE1
 11
0.0000000000000001
 21
1.0
 31
0.0
 73
     1
 44
1.0
1001
ACAD
1000
MTEXTBEGIN
1070
    73
1070
     1
1070
    44
1040
1.0
1070
    74
1070
     0
1000
MTEXTEND
  0
POINT
  5
16393
330
161FA
100
AcDbEntity
  8
DEFPOINTS
  6
ByBlock
 62
     0
 48
50.0
100
AcDbPoint
 10
7374.673057123664
 20
8352.497424545964
 30
0.0
  0
POINT
  5
16394
330
161FA
100
AcDbEntity
  8
DEFPOINTS
  6
ByBlock
 62
     0
 48
50.0
100
AcDbPoint
 10
7374.673057123638
 20
6982.497424545956
 30
0.0
  0
POINT
  5
16395
330
161FA
100
AcDbEntity
  8
DEFPOINTS
  6
ByBlock
 62
     0
 48
50.0
100
AcDbPoint
 10
8387.206344597709
 20
6982.497424545956
 30
0.0
  0
ENDBLK
  5
16396
330
161FA
100
AcDbEntity
  8
0
 48
50.0
100
AcDbBlockEnd
  0
BLOCK
  5
166C9
330
16206
100
AcDbEntity
  8
0
 48
50.0
100
AcDbBlockBegin
  2
*D2
 70
     1
 10
0.0
 20
0.0
 30
0.0
  3
*D2
  1

  0
LINE
  5
183B2
330
16206
100
AcDbEntity
  8
寸法
 62
     0
 48
50.0
370
    -2
100
AcDbLine
 10
5187.814073275042
 20
7852.49742454587
 30
0.0
 11
5088.019898443839
 21
7480.060493776415
 31
0.0
  0
LINE
  5
183B3
330
16206
100
AcDbEntity
  8
寸法
 62
     0
 48
50.0
370
    -2
100
AcDbLine
 10
6460.814073275054
 20
7852.497424545862
 30
0.0
 11
6361.019898443854
 21
7480.060493776415
 31
0.0
  0
LINE
  5
183B4
330
16206
100
AcDbEntity
  8
寸法
 62
     0
 48
50.0
370
    -2
100
AcDbLine
 10
5104.096849989708
 20
7540.060493776414
 30
0.0
 11
6377.096849989721
 21
7540.060493776414
 31
0.0
  0
INSERT
  5
183B5
330
16206
100
AcDbEntity
  8
寸法
 62
     0
 48
50.0
370
    -2
100
AcDbBlockReference
  2
_DOTSMALL
 10
5104.096849989708
 20
7540.060493776414
 30
0.0
 41
100.0
 42
100.0
 43
100.0
 50
180.0
  0
INSERT
  5
183B6
330
16206
100
AcDbEntity
  8
寸法
 62
     0
 48
50.0
370
    -2
100
AcDbBlockReference
  2
_DOTSMALL
 10
6377.096849989721
 20
7540.060493776414
 30
0.0
 41
100.0
 42
100.0
 43
100.0
  0
MTEXT
  5
183B7
330
16206
100
AcDbEntity
  8
寸法
 62
     7
 48
50.0
100
AcDbMText
 10
5737.080914656647
 20
7640.072304800035
 30
0.0
 40
120.0
 41
0.0
 71
     5
 72
     1
  1
\A1;1273
  7
STYLE1
 73
     1
 44
1.0
1001
ACAD
1000
MTEXTBEGIN
1070
    73
1070
     1
1070
    44
1040
1.0
1070
    74
1070
     0
1000
MTEXTEND
  0
POINT
  5
183B8
330
16206
100
AcDbEntity
  8
DEFPOINTS
 62
     0
 48
50.0
100
AcDbPoint
 10
5193.173057123664
 20
7872.497424545869
 30
0.0
  0
POINT
  5
183B9
330
16206
100
AcDbEntity
  8
DEFPOINTS
 62
     0
 48
50.0
100
AcDbPoint
 10
6466.173057123675
 20
7872.497424545861
 30
0.0
  0
POINT
  5
183BA
330
16206
100
AcDbEntity
  8
DEFPOINTS
 62
     0
 48
50.0
100
AcDbPoint
 10
6377.096849989721
 20
7540.060493776414
 30
0.0
  0
ENDBLK
  5
166D3
330
16206
100
AcDbEntity
  8
0
 48
50.0
100
AcDbBlockEnd
  0
BLOCK
  5
162E1
330
16212
100
AcDbEntity
  8
0
 48
50.0
100
AcDbBlockBegin
  2
*D3
 70
     1
 10
0.0
 20
0.0
 30
0.0
  3
*D3
  1

  0
LINE
  5
162E2
330
16212
100
AcDbEntity
  8
0
  6
ByBlock
 62
     0
 48
50.0
100
AcDbLine
 10
5267.673057123657
 20
6988.497424545865
 30
0.0
 11
5267.673057123657
 21
6388.0666537797
 31
0.0
  0
LINE
  5
162E3
330
16212
100
AcDbEntity
  8
0
  6
ByBlock
 62
     0
 48
50.0
100
AcDbLine
 10
7271.673057123638
 20
6448.066653779701
 30
0.0
 11
5267.673057123657
 21
6448.066653779701
 31
0.0
  0
INSERT
  5
162E4
330
16212
100
AcDbEntity
  8
0
  6
ByBlock
 62
     0
 48
50.0
100
AcDbBlockReference
  2
_DOTSMALL
 10
7271.673057123638
 20
6448.066653779701
 30
0.0
 41
100.0
 42
100.0
 43
100.0
  0
INSERT
  5
162E5
330
16212
100
AcDbEntity
  8
0
  6
ByBlock
 62
     0
 48
50.0
100
AcDbBlockReference
  2
_DOTSMALL
 10
5267.673057123657
 20
6448.066653779701
 30
0.0
 41
100.0
 42
100.0
 43
100.0
 50
180.0
  0
MTEXT
  5
162E6
330
16212
100
AcDbEntity
  8
0
  6
ByBlock
 62
     7
 48
50.0
100
AcDbMText
 10
6269.673057123648
 20
6648.074527795448
 30
0.0
 40
120.0
 41
0.0
 71
     5
 72
     1
  1
\A1;有効開口部間口\P2004
  7
STYLE1
 73
     1
 44
1.0
1001
ACAD
1000
MTEXTBEGIN
1070
    73
1070
     1
1070
    44
1040
1.0
1070
    74
1070
     0
1000
MTEXTEND
  0
POINT
  5
162E7
330
16212
100
AcDbEntity
  8
DEFPOINTS
  6
ByBlock
 62
     0
 48
50.0
100
AcDbPoint
 10
7271.673057123638
 20
7008.497424545865
 30
0.0
  0
POINT
  5
162E8
330
16212
100
AcDbEntity
  8
DEFPOINTS
  6
ByBlock
 62
     0
 48
50.0
100
AcDbPoint
 10
5267.673057123657
 20
7008.497424545864
 30
0.0
  0
POINT
  5
162E9
330
16212
100
AcDbEntity
  8
DEFPOINTS
  6
ByBlock
 62
     0
 48
50.0
100
AcDbPoint
 10
5267.673057123657
 20
6448.066653779701
 30
0.0
  0
ENDBLK
  5
162EA
330
16212
100
AcDbEntity
  8
0
 48
50.0
100
AcDbBlockEnd
  0
BLOCK
  5
162EB
330
1621D
100
AcDbEntity
  8
0
 48
50.0
100
AcDbBlockBegin
  2
*D4
 70
     1
 10
0.0
 20
0.0
 30
0.0
  3
*D4
  1

  0
LINE
  5
18837
330
1621D
100
AcDbEntity
  8
寸法
 62
     0
 48
50.0
370
    -2
100
AcDbLine
 10
5164.673057123657
 20
6962.497424545792
 30
0.0
 11
5164.673057123657
 21
6101.893658188827
 31
0.0
  0
LINE
  5
18838
330
1621D
100
AcDbEntity
  8
寸法
 62
     0
 48
50.0
370
    -2
100
AcDbLine
 10
7374.673057123638
 20
6962.49742454592
 30
0.0
 11
7374.673057123638
 21
6101.893658188827
 31
0.0
  0
LINE
  5
18839
330
1621D
100
AcDbEntity
  8
寸法
 62
     0
 48
50.0
370
    -2
100
AcDbLine
 10
5164.673057123657
 20
6161.893658188827
 30
0.0
 11
7374.673057123638
 21
6161.893658188827
 31
0.0
  0
INSERT
  5
1883A
330
1621D
100
AcDbEntity
  8
寸法
 62
     0
 48
50.0
370
    -2
100
AcDbBlockReference
  2
_DOTSMALL
 10
5164.673057123657
 20
6161.893658188827
 30
0.0
 41
100.0
 42
100.0
 43
100.0
 50
180.0
  0
INSERT
  5
1883B
330
1621D
100
AcDbEntity
  8
寸法
 62
     0
 48
50.0
370
    -2
100
AcDbBlockReference
  2
_DOTSMALL
 10
7374.673057123638
 20
6161.893658188827
 30
0.0
 41
100.0
 42
100.0
 43
100.0
  0
MTEXT
  5
1883C
330
1621D
100
AcDbEntity
  8
寸法
 62
     7
 48
50.0
100
AcDbMText
 10
6269.673057123648
 20
6261.905469212448
 30
0.0
 40
120.0
 41
0.0
 71
     5
 72
     1
  1
\A1;2210
  7
STYLE1
 73
     1
 44
1.0
1001
ACAD
1000
MTEXTBEGIN
1070
    73
1070
     1
1070
    44
1040
1.0
1070
    74
1070
     0
1000
MTEXTEND
  0
POINT
  5
1883D
330
1621D
100
AcDbEntity
  8
DEFPOINTS
 62
     0
 48
50.0
100
AcDbPoint
 10
5164.673057123657
 20
6982.497424545792
 30
0.0
  0
POINT
  5
1883E
330
1621D
100
AcDbEntity
  8
DEFPOINTS
 62
     0
 48
50.0
100
AcDbPoint
 10
7374.673057123638
 20
6982.49742454592
 30
0.0
  0
POINT
  5
1883F
330
1621D
100
AcDbEntity
  8
DEFPOINTS
 62
     0
 48
50.0
100
AcDbPoint
 10
7374.673057123638
 20
6161.893658188827
 30
0.0
  0
ENDBLK
  5
162F5
330
1621D
100
AcDbEntity
  8
0
 48
50.0
100
AcDbBlockEnd
  0
BLOCK
  5
162F6
330
16229
100
AcDbEntity
  8
0
 48
50.0
100
AcDbBlockBegin
  2
*D5
 70
     1
 10
0.0
 20
0.0
 30
0.0
  3
*D5
  1

  0
LINE
  5
18840
330
16229
100
AcDbEntity
  8
寸法
 62
     0
 48
50.0
370
    -2
100
AcDbLine
 10
5219.673057123663
 20
8372.497424545869
 30
0.0
 11
5219.673057123663
 21
8928.305644170967
 31
0.0
  0
LINE
  5
18841
330
16229
100
AcDbEntity
  8
寸法
 62
     0
 48
50.0
370
    -2
100
AcDbLine
 10
7319.673057123664
 20
8372.497424545963
 30
0.0
 11
7319.673057123664
 21
8928.305644170967
 31
0.0
  0
LINE
  5
18842
330
16229
100
AcDbEntity
  8
寸法
 62
     0
 48
50.0
370
    -2
100
AcDbLine
 10
5219.673057123663
 20
8868.305644170966
 30
0.0
 11
7319.673057123664
 21
8868.305644170966
 31
0.0
  0
INSERT
  5
18843
330
16229
100
AcDbEntity
  8
寸法
 62
     0
 48
50.0
370
    -2
100
AcDbBlockReference
  2
_DOTSMALL
 10
5219.673057123663
 20
8868.305644170966
 30
0.0
 41
100.0
 42
100.0
 43
100.0
 50
180.0
  0
INSERT
  5
18844
330
16229
100
AcDbEntity
  8
寸法
 62
     0
 48
50.0
370
    -2
100
AcDbBlockReference
  2
_DOTSMALL
 10
7319.673057123664
 20
8868.305644170966
 30
0.0
 41
100.0
 42
100.0
 43
100.0
  0
MTEXT
  5
18845
330
16229
100
AcDbEntity
  8
寸法
 62
     7
 48
50.0
100
AcDbMText
 10
6269.673057123664
 20
8968.317455194588
 30
0.0
 40
120.0
 41
0.0
 71
     5
 72
     1
  1
\A1;5X420=2100
  7
STYLE1
 73
     1
 44
1.0
1001
ACAD
1000
MTEXTBEGIN
1070
    73
1070
     1
1070
    44
1040
1.0
1070
    74
1070
     0
1000
MTEXTEND
  0
POINT
  5
18846
330
16229
100
AcDbEntity
  8
DEFPOINTS
 62
     0
 48
50.0
100
AcDbPoint
 10
5219.673057123663
 20
8352.49742454587
 30
0.0
  0
POINT
  5
18847
330
16229
100
AcDbEntity
  8
DEFPOINTS
 62
     0
 48
50.0
100
AcDbPoint
 10
7319.673057123664
 20
8352.497424545964
 30
0.0
  0
POINT
  5
18848
330
16229
100
AcDbEntity
  8
DEFPOINTS
 62
     0
 48
50.0
100
AcDbPoint
 10
7319.673057123664
 20
8868.305644170966
 30
0.0
  0
ENDBLK
  5
16300
330
16229
100
AcDbEntity
  8
0
 48
50.0
100
AcDbBlockEnd
  0
BLOCK
  5
16301
330
16235
100
AcDbEntity
  8
0
 48
50.0
100
AcDbBlockBegin
  2
*D6
 70
     1
 10
0.0
 20
0.0
 30
0.0
  3
*D6
  1

  0
LINE
  5
16302
330
16235
100
AcDbEntity
  8
0
  6
ByBlock
 62
     0
 48
50.0
100
AcDbLine
 10
5219.673057123653
 20
6962.497424545865
 30
0.0
 11
5219.673057123653
 21
6388.0666537797
 31
0.0
  0
LINE
  5
16303
330
16235
100
AcDbEntity
  8
0
  6
ByBlock
 62
     0
 48
50.0
100
AcDbLine
 10
5164.673057123657
 20
6962.497424545862
 30
0.0
 11
5164.673057123657
 21
6388.0666537797
 31
0.0
  0
LINE
  5
16304
330
16235
100
AcDbEntity
  8
0
  6
ByBlock
 62
     0
 48
50.0
100
AcDbLine
 10
5219.673057123653
 20
6448.066653779701
 30
0.0
 11
5319.673057123653
 21
6448.066653779701
 31
0.0
  0
LINE
  5
16305
330
16235
100
AcDbEntity
  8
0
  6
ByBlock
 62
     0
 48
50.0
100
AcDbLine
 10
5164.673057123657
 20
6448.066653779701
 30
0.0
 11
4747.702494375179
 21
6448.066653779701
 31
0.0
  0
LINE
  5
16306
330
16235
100
AcDbEntity
  8
0
  6
ByBlock
 62
     0
 48
50.0
100
AcDbLine
 10
5219.673057123653
 20
6448.066653779701
 30
0.0
 11
5164.673057123657
 21
6448.066653779701
 31
0.0
  0
INSERT
  5
16307
330
16235
100
AcDbEntity
  8
0
  6
ByBlock
 62
     0
 48
50.0
100
AcDbBlockReference
  2
_DOTSMALL
 10
5219.673057123653
 20
6448.066653779701
 30
0.0
 41
100.0
 42
100.0
 43
100.0
 50
180.0
  0
INSERT
  5
16308
330
16235
100
AcDbEntity
  8
0
  6
ByBlock
 62
     0
 48
50.0
100
AcDbBlockReference
  2
_DOTSMALL
 10
5164.673057123657
 20
6448.066653779701
 30
0.0
 41
100.0
 42
100.0
 43
100.0
  0
MTEXT
  5
16309
330
16235
100
AcDbEntity
  8
0
  6
ByBlock
 62
     7
 48
50.0
100
AcDbMText
 10
4856.187775749418
 20
6548.0666537797
 30
0.0
 40
120.0
 41
0.0
 71
     5
 72
     1
  1
\A1;55
  7
STYLE1
 73
     1
 44
1.0
1001
ACAD
1000
MTEXTBEGIN
1070
    73
1070
     1
1070
    44
1040
1.0
1070
    74
1070
     0
1000
MTEXTEND
  0
POINT
  5
1630A
330
16235
100
AcDbEntity
  8
DEFPOINTS
  6
ByBlock
 62
     0
 48
50.0
100
AcDbPoint
 10
5219.673057123653
 20
6982.497424545865
 30
0.0
  0
POINT
  5
1630B
330
16235
100
AcDbEntity
  8
DEFPOINTS
  6
ByBlock
 62
     0
 48
50.0
100
AcDbPoint
 10
5164.673057123657
 20
6982.497424545861
 30
0.0
  0
POINT
  5
1630C
330
16235
100
AcDbEntity
  8
DEFPOINTS
  6
ByBlock
 62
     0
 48
50.0
100
AcDbPoint
 10
5164.673057123657
 20
6448.066653779701
 30
0.0
  0
ENDBLK
  5
1630D
330
16235
100
AcDbEntity
  8
0
 48
50.0
100
AcDbBlockEnd
  0
BLOCK
  5
1630E
330
16243
100
AcDbEntity
  8
0
 48
50.0
100
AcDbBlockBegin
  2
*D7
 70
     1
 10
0.0
 20
0.0
 30
0.0
  3
*D7
  1

  0
LINE
  5
1630F
330
16243
100
AcDbEntity
  8
0
  6
ByBlock
 62
     0
 48
50.0
100
AcDbLine
 10
5267.673057123657
 20
6988.497424545865
 30
0.0
 11
5267.673057123657
 21
6388.0666537797
 31
0.0
  0
LINE
  5
16310
330
16243
100
AcDbEntity
  8
0
  6
ByBlock
 62
     0
 48
50.0
100
AcDbLine
 10
5219.673057123653
 20
6962.497424545865
 30
0.0
 11
5219.673057123653
 21
6388.0666537797
 31
0.0
  0
LINE
  5
16311
330
16243
100
AcDbEntity
  8
0
  6
ByBlock
 62
     0
 48
50.0
100
AcDbLine
 10
5267.673057123657
 20
6448.066653779701
 30
0.0
 11
5367.673057123656
 21
6448.066653779701
 31
0.0
  0
LINE
  5
16312
330
16243
100
AcDbEntity
  8
0
  6
ByBlock
 62
     0
 48
50.0
100
AcDbLine
 10
5219.673057123653
 20
6448.066653779701
 30
0.0
 11
5119.673057123653
 21
6448.066653779701
 31
0.0
  0
MTEXT
  5
16313
330
16243
100
AcDbEntity
  8
0
  6
ByBlock
 62
     7
 48
50.0
100
AcDbMText
 10
5380.575028123715
 20
6548.0666537797
 30
0.0
 40
120.0
 41
0.0
 71
     5
 72
     1
  1
\A1;48
  7
STYLE1
 73
     1
 44
1.0
1001
ACAD
1000
MTEXTBEGIN
1070
    73
1070
     1
1070
    44
1040
1.0
1070
    74
1070
     0
1000
MTEXTEND
  0
LINE
  5
16314
330
16243
100
AcDbEntity
  8
0
  6
ByBlock
 62
     0
 48
50.0
100
AcDbLine
 10
5267.673057123657
 20
6448.066653779701
 30
0.0
 11
5219.673057123653
 21
6448.066653779701
 31
0.0
  0
LINE
  5
16315
330
16243
100
AcDbEntity
  8
0
  6
ByBlock
 62
     0
 48
50.0
100
AcDbLine
 10
5267.673057123657
 20
6448.066653779701
 30
0.0
 11
5219.673057123653
 21
6448.066653779701
 31
0.0
  0
INSERT
  5
16316
330
16243
100
AcDbEntity
  8
0
  6
ByBlock
 62
     0
 48
50.0
100
AcDbBlockReference
  2
_DOTSMALL
 10
5267.673057123657
 20
6448.066653779701
 30
0.0
 41
100.0
 42
100.0
 43
100.0
 50
180.0
  0
INSERT
  5
16317
330
16243
100
AcDbEntity
  8
0
  6
ByBlock
 62
     0
 48
50.0
100
AcDbBlockReference
  2
_DOTSMALL
 10
5219.673057123653
 20
6448.066653779701
 30
0.0
 41
100.0
 42
100.0
 43
100.0
  0
POINT
  5
16318
330
16243
100
AcDbEntity
  8
DEFPOINTS
  6
ByBlock
 62
     0
 48
50.0
100
AcDbPoint
 10
5267.673057123657
 20
7008.497424545864
 30
0.0
  0
POINT
  5
16319
330
16243
100
AcDbEntity
  8
DEFPOINTS
  6
ByBlock
 62
     0
 48
50.0
100
AcDbPoint
 10
5219.673057123653
 20
6982.497424545865
 30
0.0
  0
POINT
  5
1631A
330
16243
100
AcDbEntity
  8
DEFPOINTS
  6
ByBlock
 62
     0
 48
50.0
100
AcDbPoint
 10
5219.673057123653
 20
6448.066653779701
 30
0.0
  0
ENDBLK
  5
1631B
330
16243
100
AcDbEntity
  8
0
 48
50.0
100
AcDbBlockEnd
  0
BLOCK
  5
1631C
330
16252
100
AcDbEntity
  8
0
 48
50.0
100
AcDbBlockBegin
  2
*D8
 70
     1
 10
0.0
 20
0.0
 30
0.0
  3
*D8
  1

  0
LINE
  5
17C18
330
16252
100
AcDbEntity
  8
寸法
 62
     0
 48
50.0
370
    -2
100
AcDbLine
 10
5164.673057123629
 20
8372.497424545869
 30
0.0
 11
5164.673057123629
 21
8928.305644170851
 31
0.0
  0
LINE
  5
17C19
330
16252
100
AcDbEntity
  8
寸法
 62
     0
 48
50.0
370
    -2
100
AcDbLine
 10
5219.673057123663
 20
8372.497424545869
 30
0.0
 11
5219.673057123663
 21
8928.305644170851
 31
0.0
  0
LINE
  5
17C1A
330
16252
100
AcDbEntity
  8
寸法
 62
     0
 48
50.0
370
    -2
100
AcDbLine
 10
5219.673057123663
 20
8868.305644170851
 30
0.0
 11
5319.673057123663
 21
8868.305644170851
 31
0.0
  0
LINE
  5
17C1B
330
16252
100
AcDbEntity
  8
寸法
 62
     0
 48
50.0
370
    -2
100
AcDbLine
 10
5164.673057123629
 20
8868.305644170851
 30
0.0
 11
4747.702494375151
 21
8868.305644170851
 31
0.0
  0
LINE
  5
17C1C
330
16252
100
AcDbEntity
  8
寸法
 62
     0
 48
50.0
370
    -2
100
AcDbLine
 10
5219.673057123663
 20
8868.305644170851
 30
0.0
 11
5164.673057123629
 21
8868.305644170851
 31
0.0
  0
INSERT
  5
17C1D
330
16252
100
AcDbEntity
  8
寸法
 62
     0
 48
50.0
370
    -2
100
AcDbBlockReference
  2
_DOTSMALL
 10
5219.673057123663
 20
8868.305644170851
 30
0.0
 41
100.0
 42
100.0
 43
100.0
 50
180.0
  0
INSERT
  5
17C1E
330
16252
100
AcDbEntity
  8
寸法
 62
     0
 48
50.0
370
    -2
100
AcDbBlockReference
  2
_DOTSMALL
 10
5164.673057123629
 20
8868.305644170851
 30
0.0
 41
100.0
 42
100.0
 43
100.0
  0
MTEXT
  5
17C1F
330
16252
100
AcDbEntity
  8
寸法
 62
     7
 48
50.0
100
AcDbMText
 10
4856.18777574939
 20
8968.30564417085
 30
0.0
 40
120.0
 41
0.0
 71
     5
 72
     1
  1
\A1;55
  7
STYLE1
 73
     1
 44
1.0
1001
ACAD
1000
MTEXTBEGIN
1070
    73
1070
     1
1070
    44
1040
1.0
1070
    74
1070
     0
1000
MTEXTEND
  0
POINT
  5
17C20
330
16252
100
AcDbEntity
  8
DEFPOINTS
 62
     0
 48
50.0
100
AcDbPoint
 10
5164.673057123629
 20
8352.49742454587
 30
0.0
  0
POINT
  5
17C21
330
16252
100
AcDbEntity
  8
DEFPOINTS
 62
     0
 48
50.0
100
AcDbPoint
 10
5219.673057123663
 20
8352.49742454587
 30
0.0
  0
POINT
  5
17C22
330
16252
100
AcDbEntity
  8
DEFPOINTS
 62
     0
 48
50.0
100
AcDbPoint
 10
5219.673057123663
 20
8868.305644170851
 30
0.0
  0
ENDBLK
  5
16328
330
16252
100
AcDbEntity
  8
0
 48
50.0
100
AcDbBlockEnd
  0
BLOCK
  5
166D4
330
16260
100
AcDbEntity
  8
0
 48
50.0
100
AcDbBlockBegin
  2
*D9
 70
     1
 10
0.0
 20
0.0
 30
0.0
  3
*D9
  1

  0
LINE
  5
166D5
330
16260
100
AcDbEntity
  8
0
  6
ByBlock
 62
     0
 48
50.0
100
AcDbLine
 10
6487.814073275041
 20
7852.497424545974
 30
0.0
 11
6387.901950863289
 21
7479.620307413279
 31
0.0
  0
LINE
  5
166D6
330
16260
100
AcDbEntity
  8
0
  6
ByBlock
 62
     0
 48
50.0
100
AcDbLine
 10
7340.814073275052
 20
7852.497424545967
 30
0.0
 11
7240.901950863302
 21
7479.620307413279
 31
0.0
  0
LINE
  5
166D7
330
16260
100
AcDbEntity
  8
0
  6
ByBlock
 62
     0
 48
50.0
100
AcDbLine
 10
6403.978902409157
 20
7539.620307413279
 30
0.0
 11
7256.97890240917
 21
7539.620307413279
 31
0.0
  0
INSERT
  5
166D8
330
16260
100
AcDbEntity
  8
0
  6
ByBlock
 62
     0
 48
50.0
100
AcDbBlockReference
  2
_DOTSMALL
 10
6403.978902409157
 20
7539.620307413279
 30
0.0
 41
100.0
 42
100.0
 43
100.0
 50
180.0
  0
INSERT
  5
166D9
330
16260
100
AcDbEntity
  8
0
  6
ByBlock
 62
     0
 48
50.0
100
AcDbBlockReference
  2
_DOTSMALL
 10
7256.97890240917
 20
7539.620307413279
 30
0.0
 41
100.0
 42
100.0
 43
100.0
  0
MTEXT
  5
166DA
330
16260
100
AcDbEntity
  8
0
  6
ByBlock
 62
     7
 48
50.0
100
AcDbMText
 10
6872.520119241932
 20
7639.62030741328
 30
0.0
 40
120.0
 41
0.0
 71
     5
 72
     1
  1
\A1;853
  7
STYLE1
 73
     1
 44
1.0
1001
ACAD
1000
MTEXTBEGIN
1070
    73
1070
     1
1070
    44
1040
1.0
1070
    74
1070
     0
1000
MTEXTEND
  0
POINT
  5
166DB
330
16260
100
AcDbEntity
  8
DEFPOINTS
  6
ByBlock
 62
     0
 48
50.0
100
AcDbPoint
 10
6493.173057123662
 20
7872.497424545975
 30
0.0
  0
POINT
  5
166DC
330
16260
100
AcDbEntity
  8
DEFPOINTS
  6
ByBlock
 62
     0
 48
50.0
100
AcDbPoint
 10
7346.173057123675
 20
7872.497424545968
 30
0.0
  0
POINT
  5
166DD
330
16260
100
AcDbEntity
  8
DEFPOINTS
  6
ByBlock
 62
     0
 48
50.0
100
AcDbPoint
 10
7256.97890240917
 20
7539.620307413279
 30
0.0
  0
ENDBLK
  5
166DE
330
16260
100
AcDbEntity
  8
0
 48
50.0
100
AcDbBlockEnd
  0
BLOCK
  5
163A2
330
1626C
100
AcDbEntity
  8
0
 48
50.0
100
AcDbBlockBegin
  2
*D10
 70
     1
 10
0.0
 20
0.0
 30
0.0
  3
*D10
  1

  0
LINE
  5
163A3
330
1626C
100
AcDbEntity
  8
0
  6
ByBlock
 62
     0
 48
50.0
100
AcDbLine
 10
7394.673057123664
 20
8297.497424545968
 30
0.0
 11
8082.099402858075
 21
8297.497424545968
 31
0.0
  0
LINE
  5
163A4
330
1626C
100
AcDbEntity
  8
0
  6
ByBlock
 62
     0
 48
50.0
100
AcDbLine
 10
7394.673057123639
 20
7037.497424545953
 30
0.0
 11
8082.099402858073
 21
7037.497424545951
 31
0.0
  0
LINE
  5
163A5
330
1626C
100
AcDbEntity
  8
0
  6
ByBlock
 62
     0
 48
50.0
100
AcDbLine
 10
8022.099402858072
 20
8297.497424545968
 30
0.0
 11
8022.099402858072
 21
7037.497424545951
 31
0.0
  0
INSERT
  5
163A6
330
1626C
100
AcDbEntity
  8
0
  6
ByBlock
 62
     0
 48
50.0
100
AcDbBlockReference
  2
_DOTSMALL
 10
8022.099402858072
 20
8297.497424545968
 30
0.0
 41
100.0
 42
100.0
 43
100.0
 50
90.0
  0
INSERT
  5
163A7
330
1626C
100
AcDbEntity
  8
0
  6
ByBlock
 62
     0
 48
50.0
100
AcDbBlockReference
  2
_DOTSMALL
 10
8022.099402858072
 20
7037.497424545951
 30
0.0
 41
100.0
 42
100.0
 43
100.0
 50
270.0
  0
MTEXT
  5
163A8
330
1626C
100
AcDbEntity
  8
0
  6
ByBlock
 62
     7
 48
50.0
100
AcDbMText
 10
7922.087591834451
 20
7667.49742454596
 30
0.0
 40
120.0
 41
0.0
 71
     5
 72
     1
  1
\A1;3X420=1260
  7
STYLE1
 11
0.0000000000000001
 21
1.0
 31
0.0
 73
     1
 44
1.0
1001
ACAD
1000
MTEXTBEGIN
1070
    73
1070
     1
1070
    44
1040
1.0
1070
    74
1070
     0
1000
MTEXTEND
  0
POINT
  5
163A9
330
1626C
100
AcDbEntity
  8
DEFPOINTS
  6
ByBlock
 62
     0
 48
50.0
100
AcDbPoint
 10
7374.673057123664
 20
8297.497424545968
 30
0.0
  0
POINT
  5
163AA
330
1626C
100
AcDbEntity
  8
DEFPOINTS
  6
ByBlock
 62
     0
 48
50.0
100
AcDbPoint
 10
7374.673057123638
 20
7037.497424545953
 30
0.0
  0
POINT
  5
163AB
330
1626C
100
AcDbEntity
  8
DEFPOINTS
  6
ByBlock
 62
     0
 48
50.0
100
AcDbPoint
 10
8022.099402858072
 20
7037.497424545951
 30
0.0
  0
ENDBLK
  5
163AC
330
1626C
100
AcDbEntity
  8
0
 48
50.0
100
AcDbBlockEnd
  0
BLOCK
  5
1633F
330
16278
100
AcDbEntity
  8
0
 48
50.0
100
AcDbBlockBegin
  2
*D11
 70
     1
 10
0.0
 20
0.0
 30
0.0
  3
*D11
  1

  0
LINE
  5
16340
330
16278
100
AcDbEntity
  8
0
  6
ByBlock
 62
     0
 48
50.0
100
AcDbLine
 10
7319.67305712364
 20
6962.497424545952
 30
0.0
 11
7319.67305712364
 21
6388.0666537797
 31
0.0
  0
LINE
  5
16341
330
16278
100
AcDbEntity
  8
0
  6
ByBlock
 62
     0
 48
50.0
100
AcDbLine
 10
7271.673057123638
 20
6988.497424545865
 30
0.0
 11
7271.673057123638
 21
6388.0666537797
 31
0.0
  0
LINE
  5
16342
330
16278
100
AcDbEntity
  8
0
  6
ByBlock
 62
     0
 48
50.0
100
AcDbLine
 10
7319.67305712364
 20
6448.066653779701
 30
0.0
 11
7419.67305712364
 21
6448.066653779701
 31
0.0
  0
LINE
  5
16343
330
16278
100
AcDbEntity
  8
0
  6
ByBlock
 62
     0
 48
50.0
100
AcDbLine
 10
7271.673057123638
 20
6448.066653779701
 30
0.0
 11
7171.673057123638
 21
6448.066653779701
 31
0.0
  0
MTEXT
  5
16344
330
16278
100
AcDbEntity
  8
0
  6
ByBlock
 62
     7
 48
50.0
100
AcDbMText
 10
7160.710159474891
 20
6548.0666537797
 30
0.0
 40
120.0
 41
0.0
 71
     5
 72
     1
  1
\A1;48
  7
STYLE1
 73
     1
 44
1.0
1001
ACAD
1000
MTEXTBEGIN
1070
    73
1070
     1
1070
    44
1040
1.0
1070
    74
1070
     0
1000
MTEXTEND
  0
LINE
  5
16345
330
16278
100
AcDbEntity
  8
0
  6
ByBlock
 62
     0
 48
50.0
100
AcDbLine
 10
7319.67305712364
 20
6448.066653779701
 30
0.0
 11
7271.673057123638
 21
6448.066653779701
 31
0.0
  0
LINE
  5
16346
330
16278
100
AcDbEntity
  8
0
  6
ByBlock
 62
     0
 48
50.0
100
AcDbLine
 10
7319.67305712364
 20
6448.066653779701
 30
0.0
 11
7271.673057123638
 21
6448.066653779701
 31
0.0
  0
INSERT
  5
16347
330
16278
100
AcDbEntity
  8
0
  6
ByBlock
 62
     0
 48
50.0
100
AcDbBlockReference
  2
_DOTSMALL
 10
7319.67305712364
 20
6448.066653779701
 30
0.0
 41
100.0
 42
100.0
 43
100.0
 50
180.0
  0
INSERT
  5
16348
330
16278
100
AcDbEntity
  8
0
  6
ByBlock
 62
     0
 48
50.0
100
AcDbBlockReference
  2
_DOTSMALL
 10
7271.673057123638
 20
6448.066653779701
 30
0.0
 41
100.0
 42
100.0
 43
100.0
  0
POINT
  5
16349
330
16278
100
AcDbEntity
  8
DEFPOINTS
  6
ByBlock
 62
     0
 48
50.0
100
AcDbPoint
 10
7319.67305712364
 20
6982.497424545953
 30
0.0
  0
POINT
  5
1634A
330
16278
100
AcDbEntity
  8
DEFPOINTS
  6
ByBlock
 62
     0
 48
50.0
100
AcDbPoint
 10
7271.673057123638
 20
7008.497424545865
 30
0.0
  0
POINT
  5
1634B
330
16278
100
AcDbEntity
  8
DEFPOINTS
  6
ByBlock
 62
     0
 48
50.0
100
AcDbPoint
 10
7271.673057123638
 20
6448.066653779701
 30
0.0
  0
ENDBLK
  5
1634C
330
16278
100
AcDbEntity
  8
0
 48
50.0
100
AcDbBlockEnd
  0
BLOCK
  5
1634D
330
16287
100
AcDbEntity
  8
0
 48
50.0
100
AcDbBlockBegin
  2
*D12
 70
     1
 10
0.0
 20
0.0
 30
0.0
  3
*D12
  1

  0
LINE
  5
1634E
330
16287
100
AcDbEntity
  8
0
  6
ByBlock
 62
     0
 48
50.0
100
AcDbLine
 10
7374.673057123638
 20
6962.497424545957
 30
0.0
 11
7374.673057123638
 21
6388.066653779702
 31
0.0
  0
LINE
  5
1634F
330
16287
100
AcDbEntity
  8
0
  6
ByBlock
 62
     0
 48
50.0
100
AcDbLine
 10
7319.67305712364
 20
6962.497424545952
 30
0.0
 11
7319.67305712364
 21
6388.066653779702
 31
0.0
  0
LINE
  5
16350
330
16287
100
AcDbEntity
  8
0
  6
ByBlock
 62
     0
 48
50.0
100
AcDbLine
 10
7319.67305712364
 20
6448.066653779702
 30
0.0
 11
7219.67305712364
 21
6448.066653779702
 31
0.0
  0
LINE
  5
16351
330
16287
100
AcDbEntity
  8
0
  6
ByBlock
 62
     0
 48
50.0
100
AcDbLine
 10
7374.673057123638
 20
6448.066653779702
 30
0.0
 11
7791.643619872115
 21
6448.066653779702
 31
0.0
  0
LINE
  5
16352
330
16287
100
AcDbEntity
  8
0
  6
ByBlock
 62
     0
 48
50.0
100
AcDbLine
 10
7319.67305712364
 20
6448.066653779702
 30
0.0
 11
7374.673057123638
 21
6448.066653779702
 31
0.0
  0
INSERT
  5
16353
330
16287
100
AcDbEntity
  8
0
  6
ByBlock
 62
     0
 48
50.0
100
AcDbBlockReference
  2
_DOTSMALL
 10
7319.67305712364
 20
6448.066653779702
 30
0.0
 41
100.0
 42
100.0
 43
100.0
  0
INSERT
  5
16354
330
16287
100
AcDbEntity
  8
0
  6
ByBlock
 62
     0
 48
50.0
100
AcDbBlockReference
  2
_DOTSMALL
 10
7374.673057123638
 20
6448.066653779702
 30
0.0
 41
100.0
 42
100.0
 43
100.0
 50
180.0
  0
MTEXT
  5
16355
330
16287
100
AcDbEntity
  8
0
  6
ByBlock
 62
     7
 48
50.0
100
AcDbMText
 10
7683.158338497877
 20
6548.066653779702
 30
0.0
 40
120.0
 41
0.0
 71
     5
 72
     1
  1
\A1;55
  7
STYLE1
 73
     1
 44
1.0
1001
ACAD
1000
MTEXTBEGIN
1070
    73
1070
     1
1070
    44
1040
1.0
1070
    74
1070
     0
1000
MTEXTEND
  0
POINT
  5
16356
330
16287
100
AcDbEntity
  8
DEFPOINTS
  6
ByBlock
 62
     0
 48
50.0
100
AcDbPoint
 10
7374.673057123638
 20
6982.497424545956
 30
0.0
  0
POINT
  5
16357
330
16287
100
AcDbEntity
  8
DEFPOINTS
  6
ByBlock
 62
     0
 48
50.0
100
AcDbPoint
 10
7319.67305712364
 20
6982.497424545953
 30
0.0
  0
POINT
  5
16358
330
16287
100
AcDbEntity
  8
DEFPOINTS
  6
ByBlock
 62
     0
 48
50.0
100
AcDbPoint
 10
7319.67305712364
 20
6448.066653779702
 30
0.0
  0
ENDBLK
  5
16359
330
16287
100
AcDbEntity
  8
0
 48
50.0
100
AcDbBlockEnd
  0
BLOCK
  5
1635A
330
16295
100
AcDbEntity
  8
0
 48
50.0
100
AcDbBlockBegin
  2
*D13
 70
     1
 10
0.0
 20
0.0
 30
0.0
  3
*D13
  1

  0
LINE
  5
1635B
330
16295
100
AcDbEntity
  8
0
  6
ByBlock
 62
     0
 48
50.0
100
AcDbLine
 10
7394.673057123639
 20
7037.497424545953
 30
0.0
 11
8082.099402858048
 21
7037.497424545951
 31
0.0
  0
LINE
  5
1635C
330
16295
100
AcDbEntity
  8
0
  6
ByBlock
 62
     0
 48
50.0
100
AcDbLine
 10
7394.673057123639
 20
6982.497424545956
 30
0.0
 11
8082.099402858048
 21
6982.497424545956
 31
0.0
  0
LINE
  5
1635D
330
16295
100
AcDbEntity
  8
0
  6
ByBlock
 62
     0
 48
50.0
100
AcDbLine
 10
8022.099402858048
 20
7037.497424545951
 30
0.0
 11
8022.099402858048
 21
7137.497424545951
 31
0.0
  0
LINE
  5
1635E
330
16295
100
AcDbEntity
  8
0
  6
ByBlock
 62
     0
 48
50.0
100
AcDbLine
 10
8022.099402858048
 20
6982.497424545956
 30
0.0
 11
8022.099402858048
 21
6496.150676266855
 31
0.0
  0
LINE
  5
1635F
330
16295
100
AcDbEntity
  8
0
  6
ByBlock
 62
     0
 48
50.0
100
AcDbLine
 10
8022.099402858048
 20
7037.497424545951
 30
0.0
 11
8022.099402858048
 21
6982.497424545956
 31
0.0
  0
INSERT
  5
16360
330
16295
100
AcDbEntity
  8
0
  6
ByBlock
 62
     0
 48
50.0
100
AcDbBlockReference
  2
_DOTSMALL
 10
8022.099402858048
 20
7037.497424545951
 30
0.0
 41
100.0
 42
100.0
 43
100.0
 50
270.0
  0
INSERT
  5
16361
330
16295
100
AcDbEntity
  8
0
  6
ByBlock
 62
     0
 48
50.0
100
AcDbBlockReference
  2
_DOTSMALL
 10
8022.099402858048
 20
6982.497424545956
 30
0.0
 41
100.0
 42
100.0
 43
100.0
 50
90.0
  0
MTEXT
  5
16362
330
16295
100
AcDbEntity
  8
0
  6
ByBlock
 62
     7
 48
50.0
100
AcDbMText
 10
7922.099402858048
 20
6604.635957641093
 30
0.0
 40
120.0
 41
0.0
 71
     5
 72
     1
  1
\A1;55
  7
STYLE1
 11
0.0000000000000001
 21
1.0
 31
0.0
 73
     1
 44
1.0
1001
ACAD
1000
MTEXTBEGIN
1070
    73
1070
     1
1070
    44
1040
1.0
1070
    74
1070
     0
1000
MTEXTEND
  0
POINT
  5
16363
330
16295
100
AcDbEntity
  8
DEFPOINTS
  6
ByBlock
 62
     0
 48
50.0
100
AcDbPoint
 10
7374.673057123638
 20
7037.497424545953
 30
0.0
  0
POINT
  5
16364
330
16295
100
AcDbEntity
  8
DEFPOINTS
  6
ByBlock
 62
     0
 48
50.0
100
AcDbPoint
 10
7374.673057123638
 20
6982.497424545956
 30
0.0
  0
POINT
  5
16365
330
16295
100
AcDbEntity
  8
DEFPOINTS
  6
ByBlock
 62
     0
 48
50.0
100
AcDbPoint
 10
8022.099402858048
 20
6982.497424545956
 30
0.0
  0
ENDBLK
  5
16366
330
16295
100
AcDbEntity
  8
0
 48
50.0
100
AcDbBlockEnd
  0
BLOCK
  5
16367
330
162A3
100
AcDbEntity
  8
0
 48
50.0
100
AcDbBlockBegin
  2
*D14
 70
     1
 10
0.0
 20
0.0
 30
0.0
  3
*D14
  1

  0
LINE
  5
16368
330
162A3
100
AcDbEntity
  8
0
  6
ByBlock
 62
     0
 48
50.0
100
AcDbLine
 10
7366.173057123664
 20
8737.138440697341
 30
0.0
 11
7761.530782985689
 21
8631.202657331206
 31
0.0
  0
LINE
  5
16369
330
162A3
100
AcDbEntity
  8
0
  6
ByBlock
 62
     0
 48
50.0
100
AcDbLine
 10
7366.173057123664
 20
8287.138440697345
 30
0.0
 11
7761.530782985689
 21
8181.20265733121
 31
0.0
  0
LINE
  5
1636A
330
162A3
100
AcDbEntity
  8
0
  6
ByBlock
 62
     0
 48
50.0
100
AcDbLine
 10
7701.530782985688
 20
8647.279608877074
 30
0.0
 11
7701.530782985688
 21
8197.279608877078
 31
0.0
  0
INSERT
  5
1636B
330
162A3
100
AcDbEntity
  8
0
  6
ByBlock
 62
     0
 48
50.0
100
AcDbBlockReference
  2
_DOTSMALL
 10
7701.530782985688
 20
8647.279608877074
 30
0.0
 41
100.0
 42
100.0
 43
100.0
 50
90.0
  0
INSERT
  5
1636C
330
162A3
100
AcDbEntity
  8
0
  6
ByBlock
 62
     0
 48
50.0
100
AcDbBlockReference
  2
_DOTSMALL
 10
7701.530782985688
 20
8197.279608877078
 30
0.0
 41
100.0
 42
100.0
 43
100.0
 50
270.0
  0
MTEXT
  5
1636D
330
162A3
100
AcDbEntity
  8
0
  6
ByBlock
 62
     7
 48
50.0
100
AcDbMText
 10
7601.530782985688
 20
8422.279608877076
 30
0.0
 40
120.0
 41
0.0
 71
     5
 72
     1
  1
\A1;450
  7
STYLE1
 11
0.0000000000000001
 21
1.0
 31
0.0
 73
     1
 44
1.0
1001
ACAD
1000
MTEXTBEGIN
1070
    73
1070
     1
1070
    44
1040
1.0
1070
    74
1070
     0
1000
MTEXTEND
  0
POINT
  5
1636E
330
162A3
100
AcDbEntity
  8
DEFPOINTS
  6
ByBlock
 62
     0
 48
50.0
100
AcDbPoint
 10
7346.173057123664
 20
8742.497424545964
 30
0.0
  0
POINT
  5
1636F
330
162A3
100
AcDbEntity
  8
DEFPOINTS
  6
ByBlock
 62
     0
 48
50.0
100
AcDbPoint
 10
7346.173057123664
 20
8292.497424545967
 30
0.0
  0
POINT
  5
16370
330
162A3
100
AcDbEntity
  8
DEFPOINTS
  6
ByBlock
 62
     0
 48
50.0
100
AcDbPoint
 10
7701.530782985688
 20
8197.279608877078
 30
0.0
  0
ENDBLK
  5
16371
330
162A3
100
AcDbEntity
  8
0
 48
50.0
100
AcDbBlockEnd
  0
BLOCK
  5
16372
330
162AF
100
AcDbEntity
  8
0
 48
50.0
100
AcDbBlockBegin
  2
*D15
 70
     1
 10
0.0
 20
0.0
 30
0.0
  3
*D15
  1

  0
LINE
  5
16373
330
162AF
100
AcDbEntity
  8
0
  6
ByBlock
 62
     0
 48
50.0
100
AcDbLine
 10
7394.673057123664
 20
8772.497424545964
 30
0.0
 11
8082.099402858075
 21
8772.497424545964
 31
0.0
  0
LINE
  5
16374
330
162AF
100
AcDbEntity
  8
0
  6
ByBlock
 62
     0
 48
50.0
100
AcDbLine
 10
7394.673057123664
 20
8717.497424545966
 30
0.0
 11
8082.099402858075
 21
8717.497424545966
 31
0.0
  0
LINE
  5
16375
330
162AF
100
AcDbEntity
  8
0
  6
ByBlock
 62
     0
 48
50.0
100
AcDbLine
 10
8022.099402858072
 20
8717.497424545966
 30
0.0
 11
8022.099402858072
 21
8617.497424545966
 31
0.0
  0
LINE
  5
16376
330
162AF
100
AcDbEntity
  8
0
  6
ByBlock
 62
     0
 48
50.0
100
AcDbLine
 10
8022.099402858072
 20
8772.497424545964
 30
0.0
 11
8022.099402858072
 21
9189.467987294442
 31
0.0
  0
LINE
  5
16377
330
162AF
100
AcDbEntity
  8
0
  6
ByBlock
 62
     0
 48
50.0
100
AcDbLine
 10
8022.099402858072
 20
8717.497424545966
 30
0.0
 11
8022.099402858072
 21
8772.497424545964
 31
0.0
  0
INSERT
  5
16378
330
162AF
100
AcDbEntity
  8
0
  6
ByBlock
 62
     0
 48
50.0
100
AcDbBlockReference
  2
_DOTSMALL
 10
8022.099402858072
 20
8717.497424545966
 30
0.0
 41
100.0
 42
100.0
 43
100.0
 50
90.0
  0
INSERT
  5
16379
330
162AF
100
AcDbEntity
  8
0
  6
ByBlock
 62
     0
 48
50.0
100
AcDbBlockReference
  2
_DOTSMALL
 10
8022.099402858072
 20
8772.497424545964
 30
0.0
 41
100.0
 42
100.0
 43
100.0
 50
270.0
  0
MTEXT
  5
1637A
330
162AF
100
AcDbEntity
  8
0
  6
ByBlock
 62
     7
 48
50.0
100
AcDbMText
 10
7922.099402858073
 20
9080.982705920204
 30
0.0
 40
120.0
 41
0.0
 71
     5
 72
     1
  1
\A1;55
  7
STYLE1
 11
0.0000000000000001
 21
1.0
 31
0.0
 73
     1
 44
1.0
1001
ACAD
1000
MTEXTBEGIN
1070
    73
1070
     1
1070
    44
1040
1.0
1070
    74
1070
     0
1000
MTEXTEND
  0
POINT
  5
1637B
330
162AF
100
AcDbEntity
  8
DEFPOINTS
  6
ByBlock
 62
     0
 48
50.0
100
AcDbPoint
 10
7374.673057123664
 20
8772.497424545964
 30
0.0
  0
POINT
  5
1637C
330
162AF
100
AcDbEntity
  8
DEFPOINTS
  6
ByBlock
 62
     0
 48
50.0
100
AcDbPoint
 10
7374.673057123664
 20
8717.497424545966
 30
0.0
  0
POINT
  5
1637D
330
162AF
100
AcDbEntity
  8
DEFPOINTS
  6
ByBlock
 62
     0
 48
50.0
100
AcDbPoint
 10
8022.099402858072
 20
8717.497424545966
 30
0.0
  0
ENDBLK
  5
1637E
330
162AF
100
AcDbEntity
  8
0
 48
50.0
100
AcDbBlockEnd
  0
BLOCK
  5
1637F
330
162BD
100
AcDbEntity
  8
0
 48
50.0
100
AcDbBlockBegin
  2
*D16
 70
     1
 10
0.0
 20
0.0
 30
0.0
  3
*D16
  1

  0
LINE
  5
17C0D
330
162BD
100
AcDbEntity
  8
寸法
 62
     0
 48
50.0
370
    -2
100
AcDbLine
 10
7319.673057123664
 20
8372.497424545963
 30
0.0
 11
7319.673057123664
 21
8928.305644170949
 31
0.0
  0
LINE
  5
17C0E
330
162BD
100
AcDbEntity
  8
寸法
 62
     0
 48
50.0
370
    -2
100
AcDbLine
 10
7374.673057123664
 20
8372.497424545963
 30
0.0
 11
7374.673057123664
 21
8928.305644170949
 31
0.0
  0
LINE
  5
17C0F
330
162BD
100
AcDbEntity
  8
寸法
 62
     0
 48
50.0
370
    -2
100
AcDbLine
 10
7319.673057123664
 20
8868.305644170948
 30
0.0
 11
7219.673057123664
 21
8868.305644170948
 31
0.0
  0
LINE
  5
17C10
330
162BD
100
AcDbEntity
  8
寸法
 62
     0
 48
50.0
370
    -2
100
AcDbLine
 10
7374.673057123664
 20
8868.305644170948
 30
0.0
 11
7791.643619872141
 21
8868.305644170948
 31
0.0
  0
LINE
  5
17C11
330
162BD
100
AcDbEntity
  8
寸法
 62
     0
 48
50.0
370
    -2
100
AcDbLine
 10
7319.673057123664
 20
8868.305644170948
 30
0.0
 11
7374.673057123664
 21
8868.305644170948
 31
0.0
  0
INSERT
  5
17C12
330
162BD
100
AcDbEntity
  8
寸法
 62
     0
 48
50.0
370
    -2
100
AcDbBlockReference
  2
_DOTSMALL
 10
7319.673057123664
 20
8868.305644170948
 30
0.0
 41
100.0
 42
100.0
 43
100.0
  0
INSERT
  5
17C13
330
162BD
100
AcDbEntity
  8
寸法
 62
     0
 48
50.0
370
    -2
100
AcDbBlockReference
  2
_DOTSMALL
 10
7374.673057123664
 20
8868.305644170948
 30
0.0
 41
100.0
 42
100.0
 43
100.0
 50
180.0
  0
MTEXT
  5
17C14
330
162BD
100
AcDbEntity
  8
寸法
 62
     7
 48
50.0
100
AcDbMText
 10
7683.158338497903
 20
8968.305644170948
 30
0.0
 40
120.0
 41
0.0
 71
     5
 72
     1
  1
\A1;55
  7
STYLE1
 73
     1
 44
1.0
1001
ACAD
1000
MTEXTBEGIN
1070
    73
1070
     1
1070
    44
1040
1.0
1070
    74
1070
     0
1000
MTEXTEND
  0
POINT
  5
17C15
330
162BD
100
AcDbEntity
  8
DEFPOINTS
 62
     0
 48
50.0
100
AcDbPoint
 10
7319.673057123664
 20
8352.497424545964
 30
0.0
  0
POINT
  5
17C16
330
162BD
100
AcDbEntity
  8
DEFPOINTS
 62
     0
 48
50.0
100
AcDbPoint
 10
7374.673057123664
 20
8352.497424545964
 30
0.0
  0
POINT
  5
17C17
330
162BD
100
AcDbEntity
  8
DEFPOINTS
 62
     0
 48
50.0
100
AcDbPoint
 10
7374.673057123664
 20
8868.305644170948
 30
0.0
  0
ENDBLK
  5
1638B
330
162BD
100
AcDbEntity
  8
0
 48
50.0
100
AcDbBlockEnd
  0
BLOCK
  5
165FB
330
165F8
100
AcDbEntity
  8
0
 48
50.0
100
AcDbBlockBegin
  2
A$C0F9D2380
 70
     0
 10
0.0
 20
0.0
 30
0.0
  3
A$C0F9D2380
  1

  0
LINE
  5
165F9
330
165F8
100
AcDbEntity
  8
部品1
100
AcDbLine
 10
-0.0000145755693666
 20
99.99999935958113
 30
0.0
 11
-0.0000145755711856
 21
-0.0000006404188753
 31
0.0
  0
LINE
  5
165FA
330
165F8
100
AcDbEntity
  8
部品1
100
AcDbLine
 10
199.9999854244288
 20
99.99999935958113
 30
0.0
 11
199.9999854244288
 21
-0.0000006404188753
 31
0.0
  0
ENDBLK
  5
165FC
330
165F8
100
AcDbEntity
  8
0
 48
50.0
100
AcDbBlockEnd
  0
BLOCK
  5
168F5
330
168F4
100
AcDbEntity
  8
0
 48
50.0
100
AcDbBlockBegin
  2
A$C20F158B4
 70
     0
 10
0.0
 20
0.0
 30
0.0
  3
A$C20F158B4
  1

  0
LINE
  5
168F6
330
168F4
100
AcDbEntity
  8
部品1
100
AcDbLine
 10
22.49998127195522
 20
-0.0000023044267436
 30
0.0
 11
47.49998127195522
 21
-0.0000023044231057
 31
0.0
  0
LINE
  5
168F7
330
168F4
100
AcDbEntity
  8
部品1
100
AcDbLine
 10
-0.000018728044779
 20
25.99999769557689
 30
0.0
 11
-0.000018728044779
 21
7.999997695576894
 31
0.0
  0
LINE
  5
168F8
330
168F4
100
AcDbEntity
  8
部品1
100
AcDbLine
 10
-0.000018728044779
 20
25.99999769557689
 30
0.0
 11
5.999981271955221
 21
25.99999769557689
 31
0.0
  0
LINE
  5
168F9
330
168F4
100
AcDbEntity
  8
部品1
100
AcDbLine
 10
69.99998127195522
 20
25.99999769557689
 30
0.0
 11
69.99998127195522
 21
7.999997695576894
 31
0.0
  0
LINE
  5
168FA
330
168F4
100
AcDbEntity
  8
部品1
100
AcDbLine
 10
63.99998127195522
 20
25.99999769557689
 30
0.0
 11
69.99998127195522
 21
25.99999769557689
 31
0.0
  0
ENDBLK
  5
168FB
330
168F4
100
AcDbEntity
  8
0
 48
50.0
100
AcDbBlockEnd
  0
BLOCK
  5
16CCD
330
16CC2
100
AcDbEntity
  8
0
 48
50.0
100
AcDbBlockBegin
  2
*D19
 70
     1
 10
0.0
 20
0.0
 30
0.0
  3
*D19
  1

  0
LINE
  5
1708D
330
16CC2
100
AcDbEntity
  8
寸法
 62
     0
 48
50.0
370
    -2
100
AcDbLine
 10
9768.830127353526
 20
4175.162122468106
 30
0.0
 11
9115.929957059506
 21
4199.813153708084
 31
0.0
  0
LINE
  5
1708E
330
16CC2
100
AcDbEntity
  8
寸法
 62
     0
 48
50.0
370
    -2
100
AcDbLine
 10
9774.149961505484
 20
4316.061729864989
 30
0.0
 11
9121.249791211299
 21
4340.712761104973
 31
0.0
  0
LINE
  5
1708F
330
16CC2
100
AcDbEntity
  8
寸法
 62
     0
 48
50.0
370
    -2
100
AcDbLine
 10
9175.887236802864
 20
4197.549394494554
 30
0.0
 11
9181.207070954657
 21
4338.449001891444
 31
0.0
  0
LINE
  5
17090
330
16CC2
100
AcDbEntity
  8
寸法
 62
     0
 48
50.0
370
    -2
100
AcDbLine
 10
9181.207070954657
 20
4338.449001891444
 30
0.0
 11
9194.789626235856
 21
4698.192680352283
 31
0.0
  0
INSERT
  5
17091
330
16CC2
100
AcDbEntity
  8
寸法
 62
     0
 48
50.0
370
    -2
100
AcDbBlockReference
  2
_DOTSMALL
 10
9175.887236802864
 20
4197.549394494554
 30
0.0
 41
100.0
 42
100.0
 43
100.0
 50
267.8377559871574
  0
INSERT
  5
17092
330
16CC2
100
AcDbEntity
  8
寸法
 62
     0
 48
50.0
370
    -2
100
AcDbBlockReference
  2
_DOTSMALL
 10
9181.207070954657
 20
4338.449001891444
 30
0.0
 41
100.0
 42
100.0
 43
100.0
 50
87.83775598715743
  0
MTEXT
  5
17093
330
16CC2
100
AcDbEntity
  8
寸法
 62
     7
 48
50.0
100
AcDbMText
 10
9089.956015034282
 20
4572.05817293089
 30
0.0
 40
120.0
 41
0.0
 71
     5
 72
     1
  1
\A1;141
  7
STYLE1
 11
0.03772932022548
 21
0.9992879957226159
 31
0.0
 73
     1
 44
1.0
1001
ACAD
1000
MTEXTBEGIN
1070
    73
1070
     1
1070
    44
1040
1.0
1070
    74
1070
     0
1000
MTEXTEND
  0
POINT
  5
17094
330
16CC2
100
AcDbEntity
  8
DEFPOINTS
 62
     0
 48
50.0
100
AcDbPoint
 10
9788.815887267979
 20
4174.407536063596
 30
0.0
  0
POINT
  5
17095
330
16CC2
100
AcDbEntity
  8
DEFPOINTS
 62
     0
 48
50.0
100
AcDbPoint
 10
9794.135721419936
 20
4315.307143460478
 30
0.0
  0
POINT
  5
17096
330
16CC2
100
AcDbEntity
  8
DEFPOINTS
 62
     0
 48
50.0
100
AcDbPoint
 10
9181.207070954657
 20
4338.449001891444
 30
0.0
  0
ENDBLK
  5
16CCE
330
16CC2
100
AcDbEntity
  8
0
 48
50.0
100
AcDbBlockEnd
  0
BLOCK
  5
16CDA
330
16CCF
100
AcDbEntity
  8
0
 48
50.0
100
AcDbBlockBegin
  2
*D20
 70
     1
 10
0.0
 20
0.0
 30
0.0
  3
*D20
  1

  0
LINE
  5
17083
330
16CCF
100
AcDbEntity
  8
寸法
 62
     0
 48
50.0
370
    -2
100
AcDbLine
 10
11203.47332266602
 20
4283.437190606282
 30
0.0
 11
11203.47332266602
 21
4775.283964573933
 31
0.0
  0
LINE
  5
17084
330
16CCF
100
AcDbEntity
  8
寸法
 62
     0
 48
50.0
370
    -2
100
AcDbLine
 10
11283.47332266602
 20
4281.626510994629
 30
0.0
 11
11283.47332266602
 21
4775.283964573933
 31
0.0
  0
LINE
  5
17085
330
16CCF
100
AcDbEntity
  8
寸法
 62
     0
 48
50.0
370
    -2
100
AcDbLine
 10
11203.47332266602
 20
4715.283964573933
 30
0.0
 11
11283.47332266602
 21
4715.283964573933
 31
0.0
  0
LINE
  5
17086
330
16CCF
100
AcDbEntity
  8
寸法
 62
     0
 48
50.0
370
    -2
100
AcDbLine
 10
11283.47332266602
 20
4715.283964573933
 30
0.0
 11
11595.567810855
 21
4715.283964573933
 31
0.0
  0
INSERT
  5
17087
330
16CCF
100
AcDbEntity
  8
寸法
 62
     0
 48
50.0
370
    -2
100
AcDbBlockReference
  2
_DOTSMALL
 10
11203.47332266602
 20
4715.283964573933
 30
0.0
 41
100.0
 42
100.0
 43
100.0
 50
180.0
  0
INSERT
  5
17088
330
16CCF
100
AcDbEntity
  8
寸法
 62
     0
 48
50.0
370
    -2
100
AcDbBlockReference
  2
_DOTSMALL
 10
11283.47332266602
 20
4715.283964573933
 30
0.0
 41
100.0
 42
100.0
 43
100.0
  0
MTEXT
  5
17089
330
16CCF
100
AcDbEntity
  8
寸法
 62
     7
 48
50.0
100
AcDbMText
 10
11489.52056676052
 20
4815.283964573933
 30
0.0
 40
120.0
 41
0.0
 71
     5
 72
     1
  1
\A1;80
  7
STYLE1
 73
     1
 44
1.0
1001
ACAD
1000
MTEXTBEGIN
1070
    73
1070
     1
1070
    44
1040
1.0
1070
    74
1070
     0
1000
MTEXTEND
  0
POINT
  5
1708A
330
16CCF
100
AcDbEntity
  8
DEFPOINTS
 62
     0
 48
50.0
100
AcDbPoint
 10
11203.47332266602
 20
4263.437190606282
 30
0.0
  0
POINT
  5
1708B
330
16CCF
100
AcDbEntity
  8
DEFPOINTS
 62
     0
 48
50.0
100
AcDbPoint
 10
11283.47332266602
 20
4261.62651099463
 30
0.0
  0
POINT
  5
1708C
330
16CCF
100
AcDbEntity
  8
DEFPOINTS
 62
     0
 48
50.0
100
AcDbPoint
 10
11283.47332266602
 20
4715.283964573933
 30
0.0
  0
ENDBLK
  5
16CDB
330
16CCF
100
AcDbEntity
  8
0
 48
50.0
100
AcDbBlockEnd
  0
BLOCK
  5
16CE6
330
16CDC
100
AcDbEntity
  8
0
 48
50.0
100
AcDbBlockBegin
  2
*D21
 70
     1
 10
0.0
 20
0.0
 30
0.0
  3
*D21
  1

  0
LINE
  5
18825
330
16CDC
100
AcDbEntity
  8
寸法
 62
     0
 48
50.0
370
    -2
100
AcDbLine
 10
11283.47332266602
 20
4281.626510994629
 30
0.0
 11
11283.47332266602
 21
4989.340567259326
 31
0.0
  0
LINE
  5
18826
330
16CDC
100
AcDbEntity
  8
寸法
 62
     0
 48
50.0
370
    -2
100
AcDbLine
 10
9773.473322666028
 20
4336.626510994633
 30
0.0
 11
9773.473322666028
 21
4989.340567259326
 31
0.0
  0
LINE
  5
18827
330
16CDC
100
AcDbEntity
  8
寸法
 62
     0
 48
50.0
370
    -2
100
AcDbLine
 10
11283.47332266602
 20
4929.340567259325
 30
0.0
 11
9773.473322666028
 21
4929.340567259325
 31
0.0
  0
INSERT
  5
18828
330
16CDC
100
AcDbEntity
  8
寸法
 62
     0
 48
50.0
370
    -2
100
AcDbBlockReference
  2
_DOTSMALL
 10
11283.47332266602
 20
4929.340567259325
 30
0.0
 41
100.0
 42
100.0
 43
100.0
  0
INSERT
  5
18829
330
16CDC
100
AcDbEntity
  8
寸法
 62
     0
 48
50.0
370
    -2
100
AcDbBlockReference
  2
_DOTSMALL
 10
9773.473322666028
 20
4929.340567259325
 30
0.0
 41
100.0
 42
100.0
 43
100.0
 50
180.0
  0
MTEXT
  5
1882A
330
16CDC
100
AcDbEntity
  8
寸法
 62
     7
 48
50.0
100
AcDbMText
 10
10528.47332266602
 20
5029.340567259325
 30
0.0
 40
120.0
 41
0.0
 71
     5
 72
     1
  1
\A1;1510
  7
STYLE1
 73
     1
 44
1.0
1001
ACAD
1000
MTEXTBEGIN
1070
    73
1070
     1
1070
    44
1040
1.0
1070
    74
1070
     0
1000
MTEXTEND
  0
POINT
  5
1882B
330
16CDC
100
AcDbEntity
  8
DEFPOINTS
 62
     0
 48
50.0
100
AcDbPoint
 10
11283.47332266602
 20
4261.62651099463
 30
0.0
  0
POINT
  5
1882C
330
16CDC
100
AcDbEntity
  8
DEFPOINTS
 62
     0
 48
50.0
100
AcDbPoint
 10
9773.473322666028
 20
4316.626510994633
 30
0.0
  0
POINT
  5
1882D
330
16CDC
100
AcDbEntity
  8
DEFPOINTS
 62
     0
 48
50.0
100
AcDbPoint
 10
9773.473322666028
 20
4929.340567259325
 30
0.0
  0
ENDBLK
  5
16CE7
330
16CDC
100
AcDbEntity
  8
0
 48
50.0
100
AcDbBlockEnd
  0
BLOCK
  5
16CF4
330
16CE8
100
AcDbEntity
  8
0
 48
50.0
100
AcDbBlockBegin
  2
*D22
 70
     1
 10
0.0
 20
0.0
 30
0.0
  3
*D22
  1

  0
LINE
  5
1706F
330
16CE8
100
AcDbEntity
  8
寸法
 62
     0
 48
50.0
370
    -2
100
AcDbLine
 10
9833.473322666026
 20
4332.628129117606
 30
0.0
 11
9833.473322666026
 21
4775.283964573933
 31
0.0
  0
LINE
  5
17070
330
16CE8
100
AcDbEntity
  8
寸法
 62
     0
 48
50.0
370
    -2
100
AcDbLine
 10
9773.473322666028
 20
4336.626510994633
 30
0.0
 11
9773.473322666028
 21
4775.283964573933
 31
0.0
  0
LINE
  5
17071
330
16CE8
100
AcDbEntity
  8
寸法
 62
     0
 48
50.0
370
    -2
100
AcDbLine
 10
9833.473322666026
 20
4715.283964573933
 30
0.0
 11
9933.473322666026
 21
4715.283964573933
 31
0.0
  0
LINE
  5
17072
330
16CE8
100
AcDbEntity
  8
寸法
 62
     0
 48
50.0
370
    -2
100
AcDbLine
 10
9773.473322666028
 20
4715.283964573933
 30
0.0
 11
9354.197732114846
 21
4715.283964573933
 31
0.0
  0
LINE
  5
17073
330
16CE8
100
AcDbEntity
  8
寸法
 62
     0
 48
50.0
370
    -2
100
AcDbLine
 10
9833.473322666026
 20
4715.283964573933
 30
0.0
 11
9773.473322666028
 21
4715.283964573933
 31
0.0
  0
INSERT
  5
17074
330
16CE8
100
AcDbEntity
  8
寸法
 62
     0
 48
50.0
370
    -2
100
AcDbBlockReference
  2
_DOTSMALL
 10
9833.473322666026
 20
4715.283964573933
 30
0.0
 41
100.0
 42
100.0
 43
100.0
 50
180.0
  0
INSERT
  5
17075
330
16CE8
100
AcDbEntity
  8
寸法
 62
     0
 48
50.0
370
    -2
100
AcDbBlockReference
  2
_DOTSMALL
 10
9773.473322666028
 20
4715.283964573933
 30
0.0
 41
100.0
 42
100.0
 43
100.0
  0
MTEXT
  5
17076
330
16CE8
100
AcDbEntity
  8
寸法
 62
     7
 48
50.0
100
AcDbMText
 10
9463.835527390436
 20
4815.283964573933
 30
0.0
 40
120.0
 41
0.0
 71
     5
 72
     1
  1
\A1;60
  7
STYLE1
 73
     1
 44
1.0
1001
ACAD
1000
MTEXTBEGIN
1070
    73
1070
     1
1070
    44
1040
1.0
1070
    74
1070
     0
1000
MTEXTEND
  0
POINT
  5
17077
330
16CE8
100
AcDbEntity
  8
DEFPOINTS
 62
     0
 48
50.0
100
AcDbPoint
 10
9833.473322666026
 20
4312.628129117605
 30
0.0
  0
POINT
  5
17078
330
16CE8
100
AcDbEntity
  8
DEFPOINTS
 62
     0
 48
50.0
100
AcDbPoint
 10
9773.473322666028
 20
4316.626510994633
 30
0.0
  0
POINT
  5
17079
330
16CE8
100
AcDbEntity
  8
DEFPOINTS
 62
     0
 48
50.0
100
AcDbPoint
 10
9773.473322666028
 20
4715.283964573933
 30
0.0
  0
ENDBLK
  5
16CF5
330
16CE8
100
AcDbEntity
  8
0
 48
50.0
100
AcDbBlockEnd
  0
BLOCK
  5
16D00
330
16CF6
100
AcDbEntity
  8
0
 48
50.0
100
AcDbBlockBegin
  2
*D23
 70
     1
 10
0.0
 20
0.0
 30
0.0
  3
*D23
  1

  0
LINE
  5
1882E
330
16CF6
100
AcDbEntity
  8
寸法
 62
     0
 48
50.0
370
    -2
100
AcDbLine
 10
11203.47332266602
 20
4283.437190606282
 30
0.0
 11
11203.47332266602
 21
4775.283964573933
 31
0.0
  0
LINE
  5
1882F
330
16CF6
100
AcDbEntity
  8
寸法
 62
     0
 48
50.0
370
    -2
100
AcDbLine
 10
9833.473322666026
 20
4332.628129117606
 30
0.0
 11
9833.473322666026
 21
4775.283964573933
 31
0.0
  0
LINE
  5
18830
330
16CF6
100
AcDbEntity
  8
寸法
 62
     0
 48
50.0
370
    -2
100
AcDbLine
 10
11203.47332266602
 20
4715.283964573933
 30
0.0
 11
9833.473322666026
 21
4715.283964573933
 31
0.0
  0
INSERT
  5
18831
330
16CF6
100
AcDbEntity
  8
寸法
 62
     0
 48
50.0
370
    -2
100
AcDbBlockReference
  2
_DOTSMALL
 10
11203.47332266602
 20
4715.283964573933
 30
0.0
 41
100.0
 42
100.0
 43
100.0
  0
INSERT
  5
18832
330
16CF6
100
AcDbEntity
  8
寸法
 62
     0
 48
50.0
370
    -2
100
AcDbBlockReference
  2
_DOTSMALL
 10
9833.473322666026
 20
4715.283964573933
 30
0.0
 41
100.0
 42
100.0
 43
100.0
 50
180.0
  0
MTEXT
  5
18833
330
16CF6
100
AcDbEntity
  8
寸法
 62
     7
 48
50.0
100
AcDbMText
 10
10518.47332266602
 20
4815.283964573933
 30
0.0
 40
120.0
 41
0.0
 71
     5
 72
     1
  1
\A1;柱外寸法1370
  7
STYLE1
 73
     1
 44
1.0
1001
ACAD
1000
MTEXTBEGIN
1070
    73
1070
     1
1070
    44
1040
1.0
1070
    74
1070
     0
1000
MTEXTEND
  0
POINT
  5
18834
330
16CF6
100
AcDbEntity
  8
DEFPOINTS
 62
     0
 48
50.0
100
AcDbPoint
 10
11203.47332266602
 20
4263.437190606282
 30
0.0
  0
POINT
  5
18835
330
16CF6
100
AcDbEntity
  8
DEFPOINTS
 62
     0
 48
50.0
100
AcDbPoint
 10
9833.473322666026
 20
4312.628129117605
 30
0.0
  0
POINT
  5
18836
330
16CF6
100
AcDbEntity
  8
DEFPOINTS
 62
     0
 48
50.0
100
AcDbPoint
 10
9833.473322666026
 20
4715.283964573933
 30
0.0
  0
ENDBLK
  5
16D01
330
16CF6
100
AcDbEntity
  8
0
 48
50.0
100
AcDbBlockEnd
  0
BLOCK
  5
16D0E
330
16D02
100
AcDbEntity
  8
0
 48
50.0
100
AcDbBlockBegin
  2
*D24
 70
     1
 10
0.0
 20
0.0
 30
0.0
  3
*D24
  1

  0
LINE
  5
170AC
330
16D02
100
AcDbEntity
  8
寸法
 62
     0
 48
50.0
370
    -2
100
AcDbLine
 10
5164.673057123647
 20
4336.626510994634
 30
0.0
 11
5164.673057123647
 21
4580.76874226262
 31
0.0
  0
LINE
  5
170AD
330
16D02
100
AcDbEntity
  8
寸法
 62
     0
 48
50.0
370
    -2
100
AcDbLine
 10
5114.673057123647
 20
4336.626510994634
 30
0.0
 11
5114.673057123647
 21
4580.76874226262
 31
0.0
  0
LINE
  5
170AE
330
16D02
100
AcDbEntity
  8
寸法
 62
     0
 48
50.0
370
    -2
100
AcDbLine
 10
5164.673057123647
 20
4520.76874226262
 30
0.0
 11
5264.673057123648
 21
4520.76874226262
 31
0.0
  0
LINE
  5
170AF
330
16D02
100
AcDbEntity
  8
寸法
 62
     0
 48
50.0
370
    -2
100
AcDbLine
 10
5114.673057123647
 20
4520.76874226262
 30
0.0
 11
4695.140531654913
 21
4520.76874226262
 31
0.0
  0
LINE
  5
170B0
330
16D02
100
AcDbEntity
  8
寸法
 62
     0
 48
50.0
370
    -2
100
AcDbLine
 10
5164.673057123647
 20
4520.76874226262
 30
0.0
 11
5114.673057123647
 21
4520.76874226262
 31
0.0
  0
INSERT
  5
170B1
330
16D02
100
AcDbEntity
  8
寸法
 62
     0
 48
50.0
370
    -2
100
AcDbBlockReference
  2
_DOTSMALL
 10
5164.673057123647
 20
4520.76874226262
 30
0.0
 41
100.0
 42
100.0
 43
100.0
 50
180.0
  0
INSERT
  5
170B2
330
16D02
100
AcDbEntity
  8
寸法
 62
     0
 48
50.0
370
    -2
100
AcDbBlockReference
  2
_DOTSMALL
 10
5114.673057123647
 20
4520.76874226262
 30
0.0
 41
100.0
 42
100.0
 43
100.0
  0
MTEXT
  5
170B3
330
16D02
100
AcDbEntity
  8
寸法
 62
     7
 48
50.0
100
AcDbMText
 10
4801.187775749401
 20
4620.768742262621
 30
0.0
 40
120.0
 41
0.0
 71
     5
 72
     1
  1
\A1;50
  7
STYLE1
 73
     1
 44
1.0
1001
ACAD
1000
MTEXTBEGIN
1070
    73
1070
     1
1070
    44
1040
1.0
1070
    74
1070
     0
1000
MTEXTEND
  0
POINT
  5
170B4
330
16D02
100
AcDbEntity
  8
DEFPOINTS
 62
     0
 48
50.0
100
AcDbPoint
 10
5164.673057123647
 20
4316.626510994634
 30
0.0
  0
POINT
  5
170B5
330
16D02
100
AcDbEntity
  8
DEFPOINTS
 62
     0
 48
50.0
100
AcDbPoint
 10
5114.673057123647
 20
4316.626510994634
 30
0.0
  0
POINT
  5
170B6
330
16D02
100
AcDbEntity
  8
DEFPOINTS
 62
     0
 48
50.0
100
AcDbPoint
 10
5114.673057123647
 20
4520.76874226262
 30
0.0
  0
ENDBLK
  5
16D0F
330
16D02
100
AcDbEntity
  8
0
 48
50.0
100
AcDbBlockEnd
  0
BLOCK
  5
16D1A
330
16D10
100
AcDbEntity
  8
0
 48
50.0
100
AcDbBlockBegin
  2
*D25
 70
     1
 10
0.0
 20
0.0
 30
0.0
  3
*D25
  1

  0
LINE
  5
1881C
330
16D10
100
AcDbEntity
  8
寸法
 62
     0
 48
50.0
370
    -2
100
AcDbLine
 10
7374.673057123665
 20
4336.626510994634
 30
0.0
 11
7374.673057123665
 21
4580.76874226262
 31
0.0
  0
LINE
  5
1881D
330
16D10
100
AcDbEntity
  8
寸法
 62
     0
 48
50.0
370
    -2
100
AcDbLine
 10
5164.673057123647
 20
4336.626510994634
 30
0.0
 11
5164.673057123647
 21
4580.76874226262
 31
0.0
  0
LINE
  5
1881E
330
16D10
100
AcDbEntity
  8
寸法
 62
     0
 48
50.0
370
    -2
100
AcDbLine
 10
7374.673057123665
 20
4520.76874226262
 30
0.0
 11
5164.673057123647
 21
4520.76874226262
 31
0.0
  0
INSERT
  5
1881F
330
16D10
100
AcDbEntity
  8
寸法
 62
     0
 48
50.0
370
    -2
100
AcDbBlockReference
  2
_DOTSMALL
 10
7374.673057123665
 20
4520.76874226262
 30
0.0
 41
100.0
 42
100.0
 43
100.0
  0
INSERT
  5
18820
330
16D10
100
AcDbEntity
  8
寸法
 62
     0
 48
50.0
370
    -2
100
AcDbBlockReference
  2
_DOTSMALL
 10
5164.673057123647
 20
4520.76874226262
 30
0.0
 41
100.0
 42
100.0
 43
100.0
 50
180.0
  0
MTEXT
  5
18821
330
16D10
100
AcDbEntity
  8
寸法
 62
     7
 48
50.0
100
AcDbMText
 10
6269.673057123657
 20
4620.780553286242
 30
0.0
 40
120.0
 41
0.0
 71
     5
 72
     1
  1
\A1;柱外寸法2210
  7
STYLE1
 73
     1
 44
1.0
1001
ACAD
1000
MTEXTBEGIN
1070
    73
1070
     1
1070
    44
1040
1.0
1070
    74
1070
     0
1000
MTEXTEND
  0
POINT
  5
18822
330
16D10
100
AcDbEntity
  8
DEFPOINTS
 62
     0
 48
50.0
100
AcDbPoint
 10
7374.673057123665
 20
4316.626510994634
 30
0.0
  0
POINT
  5
18823
330
16D10
100
AcDbEntity
  8
DEFPOINTS
 62
     0
 48
50.0
100
AcDbPoint
 10
5164.673057123647
 20
4316.626510994634
 30
0.0
  0
POINT
  5
18824
330
16D10
100
AcDbEntity
  8
DEFPOINTS
 62
     0
 48
50.0
100
AcDbPoint
 10
5164.673057123647
 20
4520.76874226262
 30
0.0
  0
ENDBLK
  5
16D1B
330
16D10
100
AcDbEntity
  8
0
 48
50.0
100
AcDbBlockEnd
  0
BLOCK
  5
16D26
330
16D1C
100
AcDbEntity
  8
0
 48
50.0
100
AcDbBlockBegin
  2
*D26
 70
     1
 10
0.0
 20
0.0
 30
0.0
  3
*D26
  1

  0
LINE
  5
18813
330
16D1C
100
AcDbEntity
  8
寸法
 62
     0
 48
50.0
370
    -2
100
AcDbLine
 10
5114.673057123647
 20
4336.626510994634
 30
0.0
 11
5114.673057123647
 21
4796.996900143524
 31
0.0
  0
LINE
  5
18814
330
16D1C
100
AcDbEntity
  8
寸法
 62
     0
 48
50.0
370
    -2
100
AcDbLine
 10
7424.673057123666
 20
4336.62651099463
 30
0.0
 11
7424.673057123666
 21
4796.996900143524
 31
0.0
  0
LINE
  5
18815
330
16D1C
100
AcDbEntity
  8
寸法
 62
     0
 48
50.0
370
    -2
100
AcDbLine
 10
5114.673057123647
 20
4736.996900143523
 30
0.0
 11
7424.673057123666
 21
4736.996900143523
 31
0.0
  0
INSERT
  5
18816
330
16D1C
100
AcDbEntity
  8
寸法
 62
     0
 48
50.0
370
    -2
100
AcDbBlockReference
  2
_DOTSMALL
 10
5114.673057123647
 20
4736.996900143523
 30
0.0
 41
100.0
 42
100.0
 43
100.0
 50
180.0
  0
INSERT
  5
18817
330
16D1C
100
AcDbEntity
  8
寸法
 62
     0
 48
50.0
370
    -2
100
AcDbBlockReference
  2
_DOTSMALL
 10
7424.673057123666
 20
4736.996900143523
 30
0.0
 41
100.0
 42
100.0
 43
100.0
  0
MTEXT
  5
18818
330
16D1C
100
AcDbEntity
  8
寸法
 62
     7
 48
50.0
100
AcDbMText
 10
6269.673057123657
 20
4837.008711167146
 30
0.0
 40
120.0
 41
0.0
 71
     5
 72
     1
  1
\A1;2310
  7
STYLE1
 73
     1
 44
1.0
1001
ACAD
1000
MTEXTBEGIN
1070
    73
1070
     1
1070
    44
1040
1.0
1070
    74
1070
     0
1000
MTEXTEND
  0
POINT
  5
18819
330
16D1C
100
AcDbEntity
  8
DEFPOINTS
 62
     0
 48
50.0
100
AcDbPoint
 10
5114.673057123647
 20
4316.626510994634
 30
0.0
  0
POINT
  5
1881A
330
16D1C
100
AcDbEntity
  8
DEFPOINTS
 62
     0
 48
50.0
100
AcDbPoint
 10
7424.673057123666
 20
4316.62651099463
 30
0.0
  0
POINT
  5
1881B
330
16D1C
100
AcDbEntity
  8
DEFPOINTS
 62
     0
 48
50.0
100
AcDbPoint
 10
7424.673057123666
 20
4736.996900143523
 30
0.0
  0
ENDBLK
  5
16D27
330
16D1C
100
AcDbEntity
  8
0
 48
50.0
100
AcDbBlockEnd
  0
BLOCK
  5
16D34
330
16D28
100
AcDbEntity
  8
0
 48
50.0
100
AcDbBlockBegin
  2
*D27
 70
     1
 10
0.0
 20
0.0
 30
0.0
  3
*D27
  1

  0
LINE
  5
170A1
330
16D28
100
AcDbEntity
  8
寸法
 62
     0
 48
50.0
370
    -2
100
AcDbLine
 10
7424.673057123666
 20
4336.62651099463
 30
0.0
 11
7424.673057123666
 21
4580.76874226262
 31
0.0
  0
LINE
  5
170A2
330
16D28
100
AcDbEntity
  8
寸法
 62
     0
 48
50.0
370
    -2
100
AcDbLine
 10
7374.673057123665
 20
4336.626510994634
 30
0.0
 11
7374.673057123665
 21
4580.76874226262
 31
0.0
  0
LINE
  5
170A3
330
16D28
100
AcDbEntity
  8
寸法
 62
     0
 48
50.0
370
    -2
100
AcDbLine
 10
7374.673057123665
 20
4520.76874226262
 30
0.0
 11
7274.673057123665
 21
4520.76874226262
 31
0.0
  0
LINE
  5
170A4
330
16D28
100
AcDbEntity
  8
寸法
 62
     0
 48
50.0
370
    -2
100
AcDbLine
 10
7424.673057123666
 20
4520.76874226262
 30
0.0
 11
7844.20558259239
 21
4520.76874226262
 31
0.0
  0
LINE
  5
170A5
330
16D28
100
AcDbEntity
  8
寸法
 62
     0
 48
50.0
370
    -2
100
AcDbLine
 10
7374.673057123665
 20
4520.76874226262
 30
0.0
 11
7424.673057123666
 21
4520.76874226262
 31
0.0
  0
INSERT
  5
170A6
330
16D28
100
AcDbEntity
  8
寸法
 62
     0
 48
50.0
370
    -2
100
AcDbBlockReference
  2
_DOTSMALL
 10
7374.673057123665
 20
4520.76874226262
 30
0.0
 41
100.0
 42
100.0
 43
100.0
  0
INSERT
  5
170A7
330
16D28
100
AcDbEntity
  8
寸法
 62
     0
 48
50.0
370
    -2
100
AcDbBlockReference
  2
_DOTSMALL
 10
7424.673057123666
 20
4520.76874226262
 30
0.0
 41
100.0
 42
100.0
 43
100.0
 50
180.0
  0
MTEXT
  5
170A8
330
16D28
100
AcDbEntity
  8
寸法
 62
     7
 48
50.0
100
AcDbMText
 10
7738.158338497902
 20
4620.768742262621
 30
0.0
 40
120.0
 41
0.0
 71
     5
 72
     1
  1
\A1;50
  7
STYLE1
 73
     1
 44
1.0
1001
ACAD
1000
MTEXTBEGIN
1070
    73
1070
     1
1070
    44
1040
1.0
1070
    74
1070
     0
1000
MTEXTEND
  0
POINT
  5
170A9
330
16D28
100
AcDbEntity
  8
DEFPOINTS
 62
     0
 48
50.0
100
AcDbPoint
 10
7424.673057123666
 20
4316.62651099463
 30
0.0
  0
POINT
  5
170AA
330
16D28
100
AcDbEntity
  8
DEFPOINTS
 62
     0
 48
50.0
100
AcDbPoint
 10
7374.673057123665
 20
4316.626510994634
 30
0.0
  0
POINT
  5
170AB
330
16D28
100
AcDbEntity
  8
DEFPOINTS
 62
     0
 48
50.0
100
AcDbPoint
 10
7374.673057123665
 20
4520.76874226262
 30
0.0
  0
ENDBLK
  5
16D35
330
16D28
100
AcDbEntity
  8
0
 48
50.0
100
AcDbBlockEnd
  0
BLOCK
  5
16E44
330
16E3A
100
AcDbEntity
  8
0
 48
50.0
100
AcDbBlockBegin
  2
*D28
 70
     1
 10
0.0
 20
0.0
 30
0.0
  3
*D28
  1

  0
LINE
  5
16FF1
330
16E3A
100
AcDbEntity
  8
寸法
 62
     0
 48
50.0
370
    -2
100
AcDbLine
 10
11223.47332266602
 20
1941.626510994629
 30
0.0
 11
11968.40048063815
 21
1941.626510994629
 31
0.0
  0
LINE
  5
16FF2
330
16E3A
100
AcDbEntity
  8
寸法
 62
     0
 48
50.0
370
    -2
100
AcDbLine
 10
11318.47332266602
 20
4261.626510994629
 30
0.0
 11
11968.40048063815
 21
4261.626510994629
 31
0.0
  0
LINE
  5
16FF3
330
16E3A
100
AcDbEntity
  8
寸法
 62
     0
 48
50.0
370
    -2
100
AcDbLine
 10
11908.40048063815
 20
1941.626510994629
 30
0.0
 11
11908.40048063815
 21
4261.626510994629
 31
0.0
  0
INSERT
  5
16FF4
330
16E3A
100
AcDbEntity
  8
寸法
 62
     0
 48
50.0
370
    -2
100
AcDbBlockReference
  2
_DOTSMALL
 10
11908.40048063815
 20
1941.626510994629
 30
0.0
 41
100.0
 42
100.0
 43
100.0
 50
270.0
  0
INSERT
  5
16FF5
330
16E3A
100
AcDbEntity
  8
寸法
 62
     0
 48
50.0
370
    -2
100
AcDbBlockReference
  2
_DOTSMALL
 10
11908.40048063815
 20
4261.626510994629
 30
0.0
 41
100.0
 42
100.0
 43
100.0
 50
90.0
  0
MTEXT
  5
16FF6
330
16E3A
100
AcDbEntity
  8
寸法
 62
     7
 48
50.0
100
AcDbMText
 10
11808.38866961453
 20
3096.626510994629
 30
0.0
 40
120.0
 41
0.0
 71
     5
 72
     1
  1
\A1;2320
  7
STYLE1
 11
0.0000000000000001
 21
1.0
 31
0.0
 73
     1
 44
1.0
1001
ACAD
1000
MTEXTBEGIN
1070
    73
1070
     1
1070
    44
1040
1.0
1070
    74
1070
     0
1000
MTEXTEND
  0
POINT
  5
16FF7
330
16E3A
100
AcDbEntity
  8
DEFPOINTS
 62
     0
 48
50.0
100
AcDbPoint
 10
11203.47332266602
 20
1941.626510994629
 30
0.0
  0
POINT
  5
16FF8
330
16E3A
100
AcDbEntity
  8
DEFPOINTS
 62
     0
 48
50.0
100
AcDbPoint
 10
11298.47332266602
 20
4261.626510994629
 30
0.0
  0
POINT
  5
16FF9
330
16E3A
100
AcDbEntity
  8
DEFPOINTS
 62
     0
 48
50.0
100
AcDbPoint
 10
11908.40048063815
 20
4261.626510994629
 30
0.0
  0
ENDBLK
  5
16E45
330
16E3A
100
AcDbEntity
  8
0
 48
50.0
100
AcDbBlockEnd
  0
BLOCK
  5
16E52
330
16E46
100
AcDbEntity
  8
0
 48
50.0
100
AcDbBlockBegin
  2
*D29
 70
     1
 10
0.0
 20
0.0
 30
0.0
  3
*D29
  1

  0
LINE
  5
18808
330
16E46
100
AcDbEntity
  8
寸法
 62
     0
 48
50.0
370
    -2
100
AcDbLine
 10
9813.473322666027
 20
1991.626510994629
 30
0.0
 11
8929.723193482766
 21
1991.626510994629
 31
0.0
  0
LINE
  5
18809
330
16E46
100
AcDbEntity
  8
寸法
 62
     0
 48
50.0
370
    -2
100
AcDbLine
 10
9813.473322666027
 20
1941.626510994629
 30
0.0
 11
8929.723193482766
 21
1941.626510994629
 31
0.0
  0
LINE
  5
1880A
330
16E46
100
AcDbEntity
  8
寸法
 62
     0
 48
50.0
370
    -2
100
AcDbLine
 10
8989.723193482767
 20
1991.626510994629
 30
0.0
 11
8989.723193482767
 21
2091.626510994629
 31
0.0
  0
LINE
  5
1880B
330
16E46
100
AcDbEntity
  8
寸法
 62
     0
 48
50.0
370
    -2
100
AcDbLine
 10
8989.723193482767
 20
1941.626510994629
 30
0.0
 11
8989.723193482767
 21
1451.829266900139
 31
0.0
  0
LINE
  5
1880C
330
16E46
100
AcDbEntity
  8
寸法
 62
     0
 48
50.0
370
    -2
100
AcDbLine
 10
8989.723193482767
 20
1991.626510994629
 30
0.0
 11
8989.723193482767
 21
1941.626510994629
 31
0.0
  0
INSERT
  5
1880D
330
16E46
100
AcDbEntity
  8
寸法
 62
     0
 48
50.0
370
    -2
100
AcDbBlockReference
  2
_DOTSMALL
 10
8989.723193482767
 20
1991.626510994629
 30
0.0
 41
100.0
 42
100.0
 43
100.0
 50
270.0
  0
INSERT
  5
1880E
330
16E46
100
AcDbEntity
  8
寸法
 62
     0
 48
50.0
370
    -2
100
AcDbBlockReference
  2
_DOTSMALL
 10
8989.723193482767
 20
1941.626510994629
 30
0.0
 41
100.0
 42
100.0
 43
100.0
 50
90.0
  0
MTEXT
  5
1880F
330
16E46
100
AcDbEntity
  8
寸法
 62
     7
 48
50.0
100
AcDbMText
 10
8889.723193482767
 20
1557.876510994629
 30
0.0
 40
120.0
 41
0.0
 71
     5
 72
     1
  1
\A1;50
  7
STYLE1
 11
0.0000000000000001
 21
1.0
 31
0.0
 73
     1
 44
1.0
1001
ACAD
1000
MTEXTBEGIN
1070
    73
1070
     1
1070
    44
1040
1.0
1070
    74
1070
     0
1000
MTEXTEND
  0
POINT
  5
18810
330
16E46
100
AcDbEntity
  8
DEFPOINTS
 62
     0
 48
50.0
100
AcDbPoint
 10
9833.473322666026
 20
1991.626510994629
 30
0.0
  0
POINT
  5
18811
330
16E46
100
AcDbEntity
  8
DEFPOINTS
 62
     0
 48
50.0
100
AcDbPoint
 10
9833.473322666026
 20
1941.626510994629
 30
0.0
  0
POINT
  5
18812
330
16E46
100
AcDbEntity
  8
DEFPOINTS
 62
     0
 48
50.0
100
AcDbPoint
 10
8989.723193482767
 20
1941.626510994629
 30
0.0
  0
ENDBLK
  5
16E53
330
16E46
100
AcDbEntity
  8
0
 48
50.0
100
AcDbBlockEnd
  0
BLOCK
  5
16E5F
330
16E54
100
AcDbEntity
  8
0
 48
50.0
100
AcDbBlockBegin
  2
*D30
 70
     1
 10
0.0
 20
0.0
 30
0.0
  3
*D30
  1

  0
LINE
  5
187FE
330
16E54
100
AcDbEntity
  8
寸法
 62
     0
 48
50.0
370
    -2
100
AcDbLine
 10
9813.473322666027
 20
1941.626510994629
 30
0.0
 11
8629.723193482766
 21
1941.626510994629
 31
0.0
  0
LINE
  5
187FF
330
16E54
100
AcDbEntity
  8
寸法
 62
     0
 48
50.0
370
    -2
100
AcDbLine
 10
8756.972246770894
 20
1841.626510994629
 30
0.0
 11
8629.723193482766
 21
1841.626510994629
 31
0.0
  0
LINE
  5
18800
330
16E54
100
AcDbEntity
  8
寸法
 62
     0
 48
50.0
370
    -2
100
AcDbLine
 10
8689.723193482768
 20
1941.626510994629
 30
0.0
 11
8689.723193482768
 21
1841.626510994629
 31
0.0
  0
LINE
  5
18801
330
16E54
100
AcDbEntity
  8
寸法
 62
     0
 48
50.0
370
    -2
100
AcDbLine
 10
8689.723193482768
 20
1841.626510994629
 30
0.0
 11
8689.723193482768
 21
1290.579266900139
 31
0.0
  0
INSERT
  5
18802
330
16E54
100
AcDbEntity
  8
寸法
 62
     0
 48
50.0
370
    -2
100
AcDbBlockReference
  2
_DOTSMALL
 10
8689.723193482768
 20
1941.626510994629
 30
0.0
 41
100.0
 42
100.0
 43
100.0
 50
90.0
  0
INSERT
  5
18803
330
16E54
100
AcDbEntity
  8
寸法
 62
     0
 48
50.0
370
    -2
100
AcDbBlockReference
  2
_DOTSMALL
 10
8689.723193482768
 20
1841.626510994629
 30
0.0
 41
100.0
 42
100.0
 43
100.0
 50
270.0
  0
MTEXT
  5
18804
330
16E54
100
AcDbEntity
  8
寸法
 62
     7
 48
50.0
100
AcDbMText
 10
8589.723193482766
 20
1426.626510994629
 30
0.0
 40
120.0
 41
0.0
 71
     5
 72
     1
  1
\A1;100
  7
STYLE1
 11
0.0000000000000001
 21
1.0
 31
0.0
 73
     1
 44
1.0
1001
ACAD
1000
MTEXTBEGIN
1070
    73
1070
     1
1070
    44
1040
1.0
1070
    74
1070
     0
1000
MTEXTEND
  0
POINT
  5
18805
330
16E54
100
AcDbEntity
  8
DEFPOINTS
 62
     0
 48
50.0
100
AcDbPoint
 10
9833.473322666026
 20
1941.626510994629
 30
0.0
  0
POINT
  5
18806
330
16E54
100
AcDbEntity
  8
DEFPOINTS
 62
     0
 48
50.0
100
AcDbPoint
 10
8776.972246770894
 20
1841.626510994629
 30
0.0
  0
POINT
  5
18807
330
16E54
100
AcDbEntity
  8
DEFPOINTS
 62
     0
 48
50.0
100
AcDbPoint
 10
8689.723193482768
 20
1841.626510994629
 30
0.0
  0
ENDBLK
  5
16E60
330
16E54
100
AcDbEntity
  8
0
 48
50.0
100
AcDbBlockEnd
  0
BLOCK
  5
16E77
330
16E6D
100
AcDbEntity
  8
0
 48
50.0
100
AcDbBlockBegin
  2
*D31
 70
     1
 10
0.0
 20
0.0
 30
0.0
  3
*D31
  1

  0
LINE
  5
16FCA
330
16E6D
100
AcDbEntity
  8
寸法
 62
     0
 48
50.0
370
    -2
100
AcDbLine
 10
9813.473322666027
 20
4081.626510994629
 30
0.0
 11
8929.723193482766
 21
4081.626510994629
 31
0.0
  0
LINE
  5
16FCB
330
16E6D
100
AcDbEntity
  8
寸法
 62
     0
 48
50.0
370
    -2
100
AcDbLine
 10
9813.473322666027
 20
1991.626510994629
 30
0.0
 11
8929.723193482766
 21
1991.626510994629
 31
0.0
  0
LINE
  5
16FCC
330
16E6D
100
AcDbEntity
  8
寸法
 62
     0
 48
50.0
370
    -2
100
AcDbLine
 10
8989.723193482767
 20
4081.626510994629
 30
0.0
 11
8989.723193482767
 21
1991.626510994629
 31
0.0
  0
INSERT
  5
16FCD
330
16E6D
100
AcDbEntity
  8
寸法
 62
     0
 48
50.0
370
    -2
100
AcDbBlockReference
  2
_DOTSMALL
 10
8989.723193482767
 20
4081.626510994629
 30
0.0
 41
100.0
 42
100.0
 43
100.0
 50
90.0
  0
INSERT
  5
16FCE
330
16E6D
100
AcDbEntity
  8
寸法
 62
     0
 48
50.0
370
    -2
100
AcDbBlockReference
  2
_DOTSMALL
 10
8989.723193482767
 20
1991.626510994629
 30
0.0
 41
100.0
 42
100.0
 43
100.0
 50
270.0
  0
MTEXT
  5
16FCF
330
16E6D
100
AcDbEntity
  8
寸法
 62
     7
 48
50.0
100
AcDbMText
 10
8889.711382459145
 20
3036.626510994631
 30
0.0
 40
120.0
 41
0.0
 71
     5
 72
     1
  1
\A1;2090
  7
STYLE1
 11
0.0000000000000001
 21
1.0
 31
0.0
 73
     1
 44
1.0
1001
ACAD
1000
MTEXTBEGIN
1070
    73
1070
     1
1070
    44
1040
1.0
1070
    74
1070
     0
1000
MTEXTEND
  0
POINT
  5
16FD0
330
16E6D
100
AcDbEntity
  8
DEFPOINTS
 62
     0
 48
50.0
100
AcDbPoint
 10
9833.473322666026
 20
4081.626510994629
 30
0.0
  0
POINT
  5
16FD1
330
16E6D
100
AcDbEntity
  8
DEFPOINTS
 62
     0
 48
50.0
100
AcDbPoint
 10
9833.473322666026
 20
1991.626510994629
 30
0.0
  0
POINT
  5
16FD2
330
16E6D
100
AcDbEntity
  8
DEFPOINTS
 62
     0
 48
50.0
100
AcDbPoint
 10
8989.723193482767
 20
1991.626510994629
 30
0.0
  0
ENDBLK
  5
16E78
330
16E6D
100
AcDbEntity
  8
0
 48
50.0
100
AcDbBlockEnd
  0
BLOCK
  5
17891
330
17887
100
AcDbEntity
  8
0
 48
50.0
100
AcDbBlockBegin
  2
*D32
 70
     1
 10
0.0
 20
0.0
 30
0.0
  3
*D32
  1

  0
LINE
  5
17893
330
17887
100
AcDbEntity
  8
寸法
 62
     0
 48
50.0
370
    -2
100
AcDbLine
 10
9813.473322666025
 20
1941.626510994629
 30
0.0
 11
8629.723193482764
 21
1941.626510994629
 31
0.0
  0
LINE
  5
17894
330
17887
100
AcDbEntity
  8
寸法
 62
     0
 48
50.0
370
    -2
100
AcDbLine
 10
9753.473322666028
 20
4316.626510994634
 30
0.0
 11
8629.723193482766
 21
4316.626510994634
 31
0.0
  0
LINE
  5
17895
330
17887
100
AcDbEntity
  8
寸法
 62
     0
 48
50.0
370
    -2
100
AcDbLine
 10
8689.723193482763
 20
1941.626510994629
 30
0.0
 11
8689.723193482766
 21
4316.626510994634
 31
0.0
  0
INSERT
  5
17896
330
17887
100
AcDbEntity
  8
寸法
 62
     0
 48
50.0
370
    -2
100
AcDbBlockReference
  2
_DOTSMALL
 10
8689.723193482763
 20
1941.626510994629
 30
0.0
 41
100.0
 42
100.0
 43
100.0
 50
270.0
  0
INSERT
  5
17897
330
17887
100
AcDbEntity
  8
寸法
 62
     0
 48
50.0
370
    -2
100
AcDbBlockReference
  2
_DOTSMALL
 10
8689.723193482766
 20
4316.626510994634
 30
0.0
 41
100.0
 42
100.0
 43
100.0
 50
90.0
  0
MTEXT
  5
17898
330
17887
100
AcDbEntity
  8
寸法
 62
     7
 48
50.0
100
AcDbMText
 10
8589.711382459141
 20
3129.126510994634
 30
0.0
 40
120.0
 41
0.0
 71
     5
 72
     1
  1
\A1;2375
  7
STYLE1
 11
0.0000000000000001
 21
1.0
 31
0.0
 73
     1
 44
1.0
1001
ACAD
1000
MTEXTBEGIN
1070
    73
1070
     1
1070
    44
1040
1.0
1070
    74
1070
     0
1000
MTEXTEND
  0
POINT
  5
17899
330
17887
100
AcDbEntity
  8
DEFPOINTS
 62
     0
 48
50.0
100
AcDbPoint
 10
9833.473322666025
 20
1941.626510994629
 30
0.0
  0
POINT
  5
1789A
330
17887
100
AcDbEntity
  8
DEFPOINTS
 62
     0
 48
50.0
100
AcDbPoint
 10
9773.473322666028
 20
4316.626510994634
 30
0.0
  0
POINT
  5
1789B
330
17887
100
AcDbEntity
  8
DEFPOINTS
 62
     0
 48
50.0
100
AcDbPoint
 10
8689.723193482766
 20
4316.626510994634
 30
0.0
  0
ENDBLK
  5
17892
330
17887
100
AcDbEntity
  8
0
 48
50.0
100
AcDbBlockEnd
  0
BLOCK
  5
185BB
330
185B0
100
AcDbEntity
  8
0
 48
50.0
100
AcDbBlockBegin
  2
*D33
 70
     1
 10
0.0
 20
0.0
 30
0.0
  3
*D33
  1

  0
LINE
  5
18866
330
185B0
100
AcDbEntity
  8
寸法
 62
     0
 48
50.0
370
    -2
100
AcDbLine
 10
7394.673057123658
 20
3916.62651099463
 30
0.0
 11
7722.216159445403
 21
3916.62651099463
 31
0.0
  0
LINE
  5
18867
330
185B0
100
AcDbEntity
  8
寸法
 62
     0
 48
50.0
370
    -2
100
AcDbLine
 10
7394.673057123657
 20
4081.626510994629
 30
0.0
 11
7722.216159445403
 21
4081.626510994629
 31
0.0
  0
LINE
  5
18868
330
185B0
100
AcDbEntity
  8
寸法
 62
     0
 48
50.0
370
    -2
100
AcDbLine
 10
7662.216159445404
 20
3916.62651099463
 30
0.0
 11
7662.216159445404
 21
4081.626510994629
 31
0.0
  0
LINE
  5
18869
330
185B0
100
AcDbEntity
  8
寸法
 62
     0
 48
50.0
370
    -2
100
AcDbLine
 10
7662.216159445404
 20
4081.626510994629
 30
0.0
 11
7662.216159445404
 21
4458.597073743106
 31
0.0
  0
INSERT
  5
1886A
330
185B0
100
AcDbEntity
  8
寸法
 62
     0
 48
50.0
370
    -2
100
AcDbBlockReference
  2
_DOTSMALL
 10
7662.216159445404
 20
3916.62651099463
 30
0.0
 41
100.0
 42
100.0
 43
100.0
 50
270.0
  0
INSERT
  5
1886B
330
185B0
100
AcDbEntity
  8
寸法
 62
     0
 48
50.0
370
    -2
100
AcDbBlockReference
  2
_DOTSMALL
 10
7662.216159445404
 20
4081.626510994629
 30
0.0
 41
100.0
 42
100.0
 43
100.0
 50
90.0
  0
MTEXT
  5
1886C
330
185B0
100
AcDbEntity
  8
寸法
 62
     7
 48
50.0
100
AcDbMText
 10
7562.216159445402
 20
4320.111792368868
 30
0.0
 40
120.0
 41
0.0
 71
     5
 72
     1
  1
\A1;165
  7
STYLE1
 11
0.0000000000000001
 21
1.0
 31
0.0
 73
     1
 44
1.0
1001
ACAD
1000
MTEXTBEGIN
1070
    73
1070
     1
1070
    44
1040
1.0
1070
    74
1070
     0
1000
MTEXTEND
  0
POINT
  5
1886D
330
185B0
100
AcDbEntity
  8
DEFPOINTS
 62
     0
 48
50.0
100
AcDbPoint
 10
7374.673057123658
 20
3916.62651099463
 30
0.0
  0
POINT
  5
1886E
330
185B0
100
AcDbEntity
  8
DEFPOINTS
 62
     0
 48
50.0
100
AcDbPoint
 10
7374.673057123657
 20
4081.626510994629
 30
0.0
  0
POINT
  5
1886F
330
185B0
100
AcDbEntity
  8
DEFPOINTS
 62
     0
 48
50.0
100
AcDbPoint
 10
7662.216159445404
 20
4081.626510994629
 30
0.0
  0
ENDBLK
  5
185BC
330
185B0
100
AcDbEntity
  8
0
 48
50.0
100
AcDbBlockEnd
  0
BLOCK
  5
185C9
330
185BD
100
AcDbEntity
  8
0
 48
50.0
100
AcDbBlockBegin
  2
*D34
 70
     1
 10
0.0
 20
0.0
 30
0.0
  3
*D34
  1

  0
LINE
  5
1885B
330
185BD
100
AcDbEntity
  8
寸法
 62
     0
 48
50.0
370
    -2
100
AcDbLine
 10
7394.673057123657
 20
3889.626510994628
 30
0.0
 11
7722.216159445403
 21
3889.626510994628
 31
0.0
  0
LINE
  5
1885C
330
185BD
100
AcDbEntity
  8
寸法
 62
     0
 48
50.0
370
    -2
100
AcDbLine
 10
7394.673057123658
 20
3916.62651099463
 30
0.0
 11
7722.216159445403
 21
3916.62651099463
 31
0.0
  0
LINE
  5
1885D
330
185BD
100
AcDbEntity
  8
寸法
 62
     0
 48
50.0
370
    -2
100
AcDbLine
 10
7662.216159445403
 20
3889.626510994628
 30
0.0
 11
7662.216159445403
 21
3789.626510994628
 31
0.0
  0
LINE
  5
1885E
330
185BD
100
AcDbEntity
  8
寸法
 62
     0
 48
50.0
370
    -2
100
AcDbLine
 10
7662.216159445403
 20
3916.62651099463
 30
0.0
 11
7662.216159445403
 21
4016.62651099463
 31
0.0
  0
MTEXT
  5
1885F
330
185BD
100
AcDbEntity
  8
寸法
 62
     7
 48
50.0
100
AcDbMText
 10
7802.385982691768
 20
3917.593710834288
 30
0.0
 40
120.0
 41
0.0
 71
     5
 72
     1
  1
\A1;27
  7
STYLE1
 11
0.0000000000000001
 21
1.0
 31
0.0
 73
     1
 44
1.0
1001
ACAD
1000
MTEXTBEGIN
1070
    73
1070
     1
1070
    44
1040
1.0
1070
    74
1070
     0
1000
MTEXTEND
  0
LINE
  5
18860
330
185BD
100
AcDbEntity
  8
寸法
 62
     0
 48
50.0
370
    -2
100
AcDbLine
 10
7662.216159445403
 20
3889.626510994628
 30
0.0
 11
7662.216159445403
 21
3916.62651099463
 31
0.0
  0
INSERT
  5
18861
330
185BD
100
AcDbEntity
  8
寸法
 62
     0
 48
50.0
370
    -2
100
AcDbBlockReference
  2
_DOTSMALL
 10
7662.216159445403
 20
3889.626510994628
 30
0.0
 41
100.0
 42
100.0
 43
100.0
 50
90.0
  0
INSERT
  5
18862
330
185BD
100
AcDbEntity
  8
寸法
 62
     0
 48
50.0
370
    -2
100
AcDbBlockReference
  2
_DOTSMALL
 10
7662.216159445403
 20
3916.62651099463
 30
0.0
 41
100.0
 42
100.0
 43
100.0
 50
270.0
  0
POINT
  5
18863
330
185BD
100
AcDbEntity
  8
DEFPOINTS
 62
     0
 48
50.0
100
AcDbPoint
 10
7374.673057123658
 20
3889.626510994628
 30
0.0
  0
POINT
  5
18864
330
185BD
100
AcDbEntity
  8
DEFPOINTS
 62
     0
 48
50.0
100
AcDbPoint
 10
7374.673057123658
 20
3916.62651099463
 30
0.0
  0
POINT
  5
18865
330
185BD
100
AcDbEntity
  8
DEFPOINTS
 62
     0
 48
50.0
100
AcDbPoint
 10
7662.216159445403
 20
3916.62651099463
 30
0.0
  0
ENDBLK
  5
185CA
330
185BD
100
AcDbEntity
  8
0
 48
50.0
100
AcDbBlockEnd
  0
BLOCK
  5
185D5
330
185CB
100
AcDbEntity
  8
0
 48
50.0
100
AcDbBlockBegin
  2
*D35
 70
     1
 10
0.0
 20
0.0
 30
0.0
  3
*D35
  1

  0
LINE
  5
18677
330
185CB
100
AcDbEntity
  8
寸法
 62
     0
 48
50.0
370
    -2
100
AcDbLine
 10
7394.673057123657
 20
2003.626510994629
 30
0.0
 11
7722.216159445402
 21
2003.626510994629
 31
0.0
  0
LINE
  5
18678
330
185CB
100
AcDbEntity
  8
寸法
 62
     0
 48
50.0
370
    -2
100
AcDbLine
 10
7394.673057123657
 20
3889.626510994628
 30
0.0
 11
7722.216159445403
 21
3889.626510994628
 31
0.0
  0
LINE
  5
18679
330
185CB
100
AcDbEntity
  8
寸法
 62
     0
 48
50.0
370
    -2
100
AcDbLine
 10
7662.216159445403
 20
2003.626510994629
 30
0.0
 11
7662.216159445403
 21
3889.626510994628
 31
0.0
  0
INSERT
  5
1867A
330
185CB
100
AcDbEntity
  8
寸法
 62
     0
 48
50.0
370
    -2
100
AcDbBlockReference
  2
_DOTSMALL
 10
7662.216159445403
 20
2003.626510994629
 30
0.0
 41
100.0
 42
100.0
 43
100.0
 50
270.0
  0
INSERT
  5
1867B
330
185CB
100
AcDbEntity
  8
寸法
 62
     0
 48
50.0
370
    -2
100
AcDbBlockReference
  2
_DOTSMALL
 10
7662.216159445403
 20
3889.626510994628
 30
0.0
 41
100.0
 42
100.0
 43
100.0
 50
90.0
  0
MTEXT
  5
1867C
330
185CB
100
AcDbEntity
  8
寸法
 62
     7
 48
50.0
100
AcDbMText
 10
7562.216159445402
 20
2946.62651099463
 30
0.0
 40
120.0
 41
0.0
 71
     5
 72
     1
  1
\A1;有効開口部高サ 1886
  7
STYLE1
 11
0.0000000000000001
 21
1.0
 31
0.0
 73
     1
 44
1.0
1001
ACAD
1000
MTEXTBEGIN
1070
    73
1070
     1
1070
    44
1040
1.0
1070
    74
1070
     0
1000
MTEXTEND
  0
POINT
  5
1867D
330
185CB
100
AcDbEntity
  8
DEFPOINTS
 62
     0
 48
50.0
100
AcDbPoint
 10
7374.673057123657
 20
2003.626510994629
 30
0.0
  0
POINT
  5
1867E
330
185CB
100
AcDbEntity
  8
DEFPOINTS
 62
     0
 48
50.0
100
AcDbPoint
 10
7374.673057123658
 20
3889.626510994628
 30
0.0
  0
POINT
  5
1867F
330
185CB
100
AcDbEntity
  8
DEFPOINTS
 62
     0
 48
50.0
100
AcDbPoint
 10
7662.216159445403
 20
3889.626510994628
 30
0.0
  0
ENDBLK
  5
185D6
330
185CB
100
AcDbEntity
  8
0
 48
50.0
100
AcDbBlockEnd
  0
BLOCK
  5
186A0
330
1869F
100
AcDbEntity
  8
0
 48
50.0
100
AcDbBlockBegin
  2
*D36
 70
     1
 10
0.0
 20
0.0
 30
0.0
  3
*D36
  1

  0
LINE
  5
186A1
330
1869F
100
AcDbEntity
  8
寸法
 62
     0
 48
50.0
370
    -2
100
AcDbLine
 10
7965.355796420841
 20
4932.931598713266
 30
0.0
 11
7965.355796420841
 21
5185.473183971506
 31
0.0
  0
LINE
  5
186A2
330
1869F
100
AcDbEntity
  8
寸法
 62
     0
 48
50.0
370
    -2
100
AcDbLine
 10
4915.355796420826
 20
4932.931598713269
 30
0.0
 11
4915.355796420826
 21
5185.473183971506
 31
0.0
  0
LINE
  5
186A3
330
1869F
100
AcDbEntity
  8
寸法
 62
     0
 48
50.0
370
    -2
100
AcDbLine
 10
7965.355796420841
 20
5125.473183971506
 30
0.0
 11
4915.355796420826
 21
5125.473183971506
 31
0.0
  0
INSERT
  5
186A4
330
1869F
100
AcDbEntity
  8
寸法
 62
     0
 48
50.0
370
    -2
100
AcDbBlockReference
  2
_DOTSMALL
 10
7965.355796420841
 20
5125.473183971506
 30
0.0
 41
100.0
 42
100.0
 43
100.0
  0
INSERT
  5
186A5
330
1869F
100
AcDbEntity
  8
寸法
 62
     0
 48
50.0
370
    -2
100
AcDbBlockReference
  2
_DOTSMALL
 10
4915.355796420826
 20
5125.473183971506
 30
0.0
 41
100.0
 42
100.0
 43
100.0
 50
180.0
  0
MTEXT
  5
186A6
330
1869F
100
AcDbEntity
  8
寸法
 62
     7
 48
50.0
100
AcDbMText
 10
6436.143115947335
 20
5225.473183971506
 30
0.0
 40
120.0
 41
0.0
 71
     5
 72
     1
  1
\A1;柱外寸法3050
  7
STYLE1
 73
     1
 44
1.0
1001
ACAD
1000
MTEXTBEGIN
1070
    73
1070
     1
1070
    44
1040
1.0
1070
    74
1070
     0
1000
MTEXTEND
  0
POINT
  5
186A7
330
1869F
100
AcDbEntity
  8
DEFPOINTS
 62
     0
 48
50.0
100
AcDbPoint
 10
7965.355796420841
 20
4912.931598713266
 30
0.0
  0
POINT
  5
186A8
330
1869F
100
AcDbEntity
  8
DEFPOINTS
 62
     0
 48
50.0
100
AcDbPoint
 10
4915.355796420826
 20
4912.931598713268
 30
0.0
  0
POINT
  5
186A9
330
1869F
100
AcDbEntity
  8
DEFPOINTS
 62
     0
 48
50.0
100
AcDbPoint
 10
4915.355796420826
 20
5125.473183971506
 30
0.0
  0
ENDBLK
  5
186AA
330
1869F
100
AcDbEntity
  8
0
 48
50.0
100
AcDbBlockEnd
  0
BLOCK
  5
186AC
330
186AB
100
AcDbEntity
  8
0
 48
50.0
100
AcDbBlockBegin
  2
*D37
 70
     1
 10
0.0
 20
0.0
 30
0.0
  3
*D37
  1

  0
LINE
  5
186AD
330
186AB
100
AcDbEntity
  8
寸法
 62
     0
 48
50.0
370
    -2
100
AcDbLine
 10
4915.355796420826
 20
4932.931598713269
 30
0.0
 11
4915.355796420826
 21
5185.473183971506
 31
0.0
  0
LINE
  5
186AE
330
186AB
100
AcDbEntity
  8
寸法
 62
     0
 48
50.0
370
    -2
100
AcDbLine
 10
4865.355796420827
 20
4932.931598713267
 30
0.0
 11
4865.355796420827
 21
5185.473183971506
 31
0.0
  0
LINE
  5
186AF
330
186AB
100
AcDbEntity
  8
寸法
 62
     0
 48
50.0
370
    -2
100
AcDbLine
 10
4915.355796420826
 20
5125.473183971506
 30
0.0
 11
5015.355796420827
 21
5125.473183971506
 31
0.0
  0
LINE
  5
186B0
330
186AB
100
AcDbEntity
  8
寸法
 62
     0
 48
50.0
370
    -2
100
AcDbLine
 10
4865.355796420827
 20
5125.473183971506
 30
0.0
 11
4445.823270952092
 21
5125.473183971506
 31
0.0
  0
LINE
  5
186B1
330
186AB
100
AcDbEntity
  8
寸法
 62
     0
 48
50.0
370
    -2
100
AcDbLine
 10
4915.355796420826
 20
5125.473183971506
 30
0.0
 11
4865.355796420827
 21
5125.473183971506
 31
0.0
  0
INSERT
  5
186B2
330
186AB
100
AcDbEntity
  8
寸法
 62
     0
 48
50.0
370
    -2
100
AcDbBlockReference
  2
_DOTSMALL
 10
4915.355796420826
 20
5125.473183971506
 30
0.0
 41
100.0
 42
100.0
 43
100.0
 50
180.0
  0
INSERT
  5
186B3
330
186AB
100
AcDbEntity
  8
寸法
 62
     0
 48
50.0
370
    -2
100
AcDbBlockReference
  2
_DOTSMALL
 10
4865.355796420827
 20
5125.473183971506
 30
0.0
 41
100.0
 42
100.0
 43
100.0
  0
MTEXT
  5
186B4
330
186AB
100
AcDbEntity
  8
寸法
 62
     7
 48
50.0
100
AcDbMText
 10
4551.870515046579
 20
5225.473183971506
 30
0.0
 40
120.0
 41
0.0
 71
     5
 72
     1
  1
\A1;50
  7
STYLE1
 73
     1
 44
1.0
1001
ACAD
1000
MTEXTBEGIN
1070
    73
1070
     1
1070
    44
1040
1.0
1070
    74
1070
     0
1000
MTEXTEND
  0
POINT
  5
186B5
330
186AB
100
AcDbEntity
  8
DEFPOINTS
 62
     0
 48
50.0
100
AcDbPoint
 10
4915.355796420826
 20
4912.931598713268
 30
0.0
  0
POINT
  5
186B6
330
186AB
100
AcDbEntity
  8
DEFPOINTS
 62
     0
 48
50.0
100
AcDbPoint
 10
4865.355796420827
 20
4912.931598713267
 30
0.0
  0
POINT
  5
186B7
330
186AB
100
AcDbEntity
  8
DEFPOINTS
 62
     0
 48
50.0
100
AcDbPoint
 10
4865.355796420827
 20
5125.473183971506
 30
0.0
  0
ENDBLK
  5
186B8
330
186AB
100
AcDbEntity
  8
0
 48
50.0
100
AcDbBlockEnd
  0
BLOCK
  5
186BA
330
186B9
100
AcDbEntity
  8
0
 48
50.0
100
AcDbBlockBegin
  2
*D38
 70
     1
 10
0.0
 20
0.0
 30
0.0
  3
*D38
  1

  0
LINE
  5
186BB
330
186B9
100
AcDbEntity
  8
寸法
 62
     0
 48
50.0
370
    -2
100
AcDbLine
 10
8015.355796420841
 20
4932.931598713264
 30
0.0
 11
8015.355796420841
 21
5185.473183971505
 31
0.0
  0
LINE
  5
186BC
330
186B9
100
AcDbEntity
  8
寸法
 62
     0
 48
50.0
370
    -2
100
AcDbLine
 10
7965.355796420841
 20
4932.931598713266
 30
0.0
 11
7965.355796420841
 21
5185.473183971505
 31
0.0
  0
LINE
  5
186BD
330
186B9
100
AcDbEntity
  8
寸法
 62
     0
 48
50.0
370
    -2
100
AcDbLine
 10
7965.355796420841
 20
5125.473183971505
 30
0.0
 11
7865.355796420842
 21
5125.473183971505
 31
0.0
  0
LINE
  5
186BE
330
186B9
100
AcDbEntity
  8
寸法
 62
     0
 48
50.0
370
    -2
100
AcDbLine
 10
8015.355796420841
 20
5125.473183971505
 30
0.0
 11
8434.888321889564
 21
5125.473183971505
 31
0.0
  0
LINE
  5
186BF
330
186B9
100
AcDbEntity
  8
寸法
 62
     0
 48
50.0
370
    -2
100
AcDbLine
 10
7965.355796420841
 20
5125.473183971505
 30
0.0
 11
8015.355796420841
 21
5125.473183971505
 31
0.0
  0
INSERT
  5
186C0
330
186B9
100
AcDbEntity
  8
寸法
 62
     0
 48
50.0
370
    -2
100
AcDbBlockReference
  2
_DOTSMALL
 10
7965.355796420841
 20
5125.473183971505
 30
0.0
 41
100.0
 42
100.0
 43
100.0
  0
INSERT
  5
186C1
330
186B9
100
AcDbEntity
  8
寸法
 62
     0
 48
50.0
370
    -2
100
AcDbBlockReference
  2
_DOTSMALL
 10
8015.355796420841
 20
5125.473183971505
 30
0.0
 41
100.0
 42
100.0
 43
100.0
 50
180.0
  0
MTEXT
  5
186C2
330
186B9
100
AcDbEntity
  8
寸法
 62
     7
 48
50.0
100
AcDbMText
 10
8328.841077795077
 20
5225.473183971505
 30
0.0
 40
120.0
 41
0.0
 71
     5
 72
     1
  1
\A1;50
  7
STYLE1
 73
     1
 44
1.0
1001
ACAD
1000
MTEXTBEGIN
1070
    73
1070
     1
1070
    44
1040
1.0
1070
    74
1070
     0
1000
MTEXTEND
  0
POINT
  5
186C3
330
186B9
100
AcDbEntity
  8
DEFPOINTS
 62
     0
 48
50.0
100
AcDbPoint
 10
8015.355796420841
 20
4912.931598713264
 30
0.0
  0
POINT
  5
186C4
330
186B9
100
AcDbEntity
  8
DEFPOINTS
 62
     0
 48
50.0
100
AcDbPoint
 10
7965.355796420841
 20
4912.931598713266
 30
0.0
  0
POINT
  5
186C5
330
186B9
100
AcDbEntity
  8
DEFPOINTS
 62
     0
 48
50.0
100
AcDbPoint
 10
7965.355796420841
 20
5125.473183971505
 30
0.0
  0
ENDBLK
  5
186C6
330
186B9
100
AcDbEntity
  8
0
 48
50.0
100
AcDbBlockEnd
  0
BLOCK
  5
186C8
330
186C7
100
AcDbEntity
  8
0
 48
50.0
100
AcDbBlockBegin
  2
*D39
 70
     1
 10
0.0
 20
0.0
 30
0.0
  3
*D39
  1

  0
LINE
  5
186C9
330
186C7
100
AcDbEntity
  8
寸法
 62
     0
 48
50.0
370
    -2
100
AcDbLine
 10
4865.355796420827
 20
4932.931598713267
 30
0.0
 11
4865.355796420827
 21
5406.378484445255
 31
0.0
  0
LINE
  5
186CA
330
186C7
100
AcDbEntity
  8
寸法
 62
     0
 48
50.0
370
    -2
100
AcDbLine
 10
8015.355796420841
 20
4932.931598713264
 30
0.0
 11
8015.355796420841
 21
5406.378484445255
 31
0.0
  0
LINE
  5
186CB
330
186C7
100
AcDbEntity
  8
寸法
 62
     0
 48
50.0
370
    -2
100
AcDbLine
 10
4865.355796420827
 20
5346.378484445256
 30
0.0
 11
8015.355796420841
 21
5346.378484445256
 31
0.0
  0
INSERT
  5
186CC
330
186C7
100
AcDbEntity
  8
寸法
 62
     0
 48
50.0
370
    -2
100
AcDbBlockReference
  2
_DOTSMALL
 10
4865.355796420827
 20
5346.378484445256
 30
0.0
 41
100.0
 42
100.0
 43
100.0
 50
180.0
  0
INSERT
  5
186CD
330
186C7
100
AcDbEntity
  8
寸法
 62
     0
 48
50.0
370
    -2
100
AcDbBlockReference
  2
_DOTSMALL
 10
8015.355796420841
 20
5346.378484445256
 30
0.0
 41
100.0
 42
100.0
 43
100.0
  0
MTEXT
  5
186CE
330
186C7
100
AcDbEntity
  8
寸法
 62
     7
 48
50.0
100
AcDbMText
 10
6439.889012338587
 20
5446.378484445256
 30
0.0
 40
120.0
 41
0.0
 71
     5
 72
     1
  1
\A1;3150
  7
STYLE1
 73
     1
 44
1.0
1001
ACAD
1000
MTEXTBEGIN
1070
    73
1070
     1
1070
    44
1040
1.0
1070
    74
1070
     0
1000
MTEXTEND
  0
POINT
  5
186CF
330
186C7
100
AcDbEntity
  8
DEFPOINTS
 62
     0
 48
50.0
100
AcDbPoint
 10
4865.355796420827
 20
4912.931598713267
 30
0.0
  0
POINT
  5
186D0
330
186C7
100
AcDbEntity
  8
DEFPOINTS
 62
     0
 48
50.0
100
AcDbPoint
 10
8015.355796420841
 20
4912.931598713264
 30
0.0
  0
POINT
  5
186D1
330
186C7
100
AcDbEntity
  8
DEFPOINTS
 62
     0
 48
50.0
100
AcDbPoint
 10
8015.355796420841
 20
5346.378484445256
 30
0.0
  0
ENDBLK
  5
186D2
330
186C7
100
AcDbEntity
  8
0
 48
50.0
100
AcDbBlockEnd
  0
BLOCK
  5
186D4
330
186D3
100
AcDbEntity
  8
0
 48
50.0
100
AcDbBlockBegin
  2
*D40
 70
     1
 10
0.0
 20
0.0
 30
0.0
  3
*D40
  1

  0
LINE
  5
186D5
330
186D3
100
AcDbEntity
  8
寸法
 62
     0
 48
50.0
370
    -2
100
AcDbLine
 10
8085.355796420833
 20
2117.931598713262
 30
0.0
 11
8085.355796420833
 21
1791.884269412883
 31
0.0
  0
LINE
  5
186D6
330
186D3
100
AcDbEntity
  8
寸法
 62
     0
 48
50.0
370
    -2
100
AcDbLine
 10
7735.35579642083
 20
2117.931598713262
 30
0.0
 11
7735.35579642083
 21
1791.884269412883
 31
0.0
  0
LINE
  5
186D7
330
186D3
100
AcDbEntity
  8
寸法
 62
     0
 48
50.0
370
    -2
100
AcDbLine
 10
8085.355796420833
 20
1851.884269412883
 30
0.0
 11
7735.35579642083
 21
1851.884269412883
 31
0.0
  0
INSERT
  5
186D8
330
186D3
100
AcDbEntity
  8
寸法
 62
     0
 48
50.0
370
    -2
100
AcDbBlockReference
  2
_DOTSMALL
 10
8085.355796420833
 20
1851.884269412883
 30
0.0
 41
100.0
 42
100.0
 43
100.0
  0
INSERT
  5
186D9
330
186D3
100
AcDbEntity
  8
寸法
 62
     0
 48
50.0
370
    -2
100
AcDbBlockReference
  2
_DOTSMALL
 10
7735.35579642083
 20
1851.884269412883
 30
0.0
 41
100.0
 42
100.0
 43
100.0
 50
180.0
  0
MTEXT
  5
186DA
330
186D3
100
AcDbEntity
  8
寸法
 62
     7
 48
50.0
100
AcDbMText
 10
7910.355796420832
 20
1951.884269412883
 30
0.0
 40
120.0
 41
0.0
 71
     5
 72
     1
  1
\A1;350
  7
STYLE1
 73
     1
 44
1.0
1001
ACAD
1000
MTEXTBEGIN
1070
    73
1070
     1
1070
    44
1040
1.0
1070
    74
1070
     0
1000
MTEXTEND
  0
POINT
  5
186DB
330
186D3
100
AcDbEntity
  8
DEFPOINTS
 62
     0
 48
50.0
100
AcDbPoint
 10
8085.355796420833
 20
2137.931598713262
 30
0.0
  0
POINT
  5
186DC
330
186D3
100
AcDbEntity
  8
DEFPOINTS
 62
     0
 48
50.0
100
AcDbPoint
 10
7735.35579642083
 20
2137.931598713262
 30
0.0
  0
POINT
  5
186DD
330
186D3
100
AcDbEntity
  8
DEFPOINTS
 62
     0
 48
50.0
100
AcDbPoint
 10
7735.35579642083
 20
1851.884269412883
 30
0.0
  0
ENDBLK
  5
186DE
330
186D3
100
AcDbEntity
  8
0
 48
50.0
100
AcDbBlockEnd
  0
BLOCK
  5
186E0
330
186DF
100
AcDbEntity
  8
0
 48
50.0
100
AcDbBlockBegin
  2
*D41
 70
     1
 10
0.0
 20
0.0
 30
0.0
  3
*D41
  1

  0
LINE
  5
186E1
330
186DF
100
AcDbEntity
  8
寸法
 62
     0
 48
50.0
370
    -2
100
AcDbLine
 10
7930.355796420832
 20
4512.931598713262
 30
0.0
 11
8312.898898742579
 21
4512.931598713262
 31
0.0
  0
LINE
  5
186E2
330
186DF
100
AcDbEntity
  8
寸法
 62
     0
 48
50.0
370
    -2
100
AcDbLine
 10
7985.355796420832
 20
4677.931598713261
 30
0.0
 11
8312.898898742579
 21
4677.931598713261
 31
0.0
  0
LINE
  5
186E3
330
186DF
100
AcDbEntity
  8
寸法
 62
     0
 48
50.0
370
    -2
100
AcDbLine
 10
8252.89889874258
 20
4512.931598713262
 30
0.0
 11
8252.89889874258
 21
4677.931598713261
 31
0.0
  0
LINE
  5
186E4
330
186DF
100
AcDbEntity
  8
寸法
 62
     0
 48
50.0
370
    -2
100
AcDbLine
 10
8252.89889874258
 20
4677.931598713261
 30
0.0
 11
8252.89889874258
 21
5054.90216146174
 31
0.0
  0
INSERT
  5
186E5
330
186DF
100
AcDbEntity
  8
寸法
 62
     0
 48
50.0
370
    -2
100
AcDbBlockReference
  2
_DOTSMALL
 10
8252.89889874258
 20
4512.931598713262
 30
0.0
 41
100.0
 42
100.0
 43
100.0
 50
270.0
  0
INSERT
  5
186E6
330
186DF
100
AcDbEntity
  8
寸法
 62
     0
 48
50.0
370
    -2
100
AcDbBlockReference
  2
_DOTSMALL
 10
8252.89889874258
 20
4677.931598713261
 30
0.0
 41
100.0
 42
100.0
 43
100.0
 50
90.0
  0
MTEXT
  5
186E7
330
186DF
100
AcDbEntity
  8
寸法
 62
     7
 48
50.0
100
AcDbMText
 10
8152.898898742579
 20
4916.416880087502
 30
0.0
 40
120.0
 41
0.0
 71
     5
 72
     1
  1
\A1;165
  7
STYLE1
 11
0.0000000000000001
 21
1.0
 31
0.0
 73
     1
 44
1.0
1001
ACAD
1000
MTEXTBEGIN
1070
    73
1070
     1
1070
    44
1040
1.0
1070
    74
1070
     0
1000
MTEXTEND
  0
POINT
  5
186E8
330
186DF
100
AcDbEntity
  8
DEFPOINTS
 62
     0
 48
50.0
100
AcDbPoint
 10
7910.355796420832
 20
4512.931598713262
 30
0.0
  0
POINT
  5
186E9
330
186DF
100
AcDbEntity
  8
DEFPOINTS
 62
     0
 48
50.0
100
AcDbPoint
 10
7965.355796420832
 20
4677.931598713261
 30
0.0
  0
POINT
  5
186EA
330
186DF
100
AcDbEntity
  8
DEFPOINTS
 62
     0
 48
50.0
100
AcDbPoint
 10
8252.89889874258
 20
4677.931598713261
 30
0.0
  0
ENDBLK
  5
186EB
330
186DF
100
AcDbEntity
  8
0
 48
50.0
100
AcDbBlockEnd
  0
BLOCK
  5
186ED
330
186EC
100
AcDbEntity
  8
0
 48
50.0
100
AcDbBlockBegin
  2
*D42
 70
     1
 10
0.0
 20
0.0
 30
0.0
  3
*D42
  1

  0
LINE
  5
186EE
330
186EC
100
AcDbEntity
  8
寸法
 62
     0
 48
50.0
370
    -2
100
AcDbLine
 10
7985.355796420833
 20
4485.93159871326
 30
0.0
 11
8312.898898742579
 21
4485.93159871326
 31
0.0
  0
LINE
  5
186EF
330
186EC
100
AcDbEntity
  8
寸法
 62
     0
 48
50.0
370
    -2
100
AcDbLine
 10
7930.355796420832
 20
4512.931598713262
 30
0.0
 11
8312.898898742579
 21
4512.931598713262
 31
0.0
  0
LINE
  5
186F0
330
186EC
100
AcDbEntity
  8
寸法
 62
     0
 48
50.0
370
    -2
100
AcDbLine
 10
8252.898898742579
 20
4485.93159871326
 30
0.0
 11
8252.898898742579
 21
4385.93159871326
 31
0.0
  0
LINE
  5
186F1
330
186EC
100
AcDbEntity
  8
寸法
 62
     0
 48
50.0
370
    -2
100
AcDbLine
 10
8252.898898742579
 20
4512.931598713262
 30
0.0
 11
8252.898898742579
 21
4612.931598713262
 31
0.0
  0
MTEXT
  5
186F2
330
186EC
100
AcDbEntity
  8
寸法
 62
     7
 48
50.0
100
AcDbMText
 10
8393.068721988944
 20
4513.89879855292
 30
0.0
 40
120.0
 41
0.0
 71
     5
 72
     1
  1
\A1;27
  7
STYLE1
 11
0.0000000000000001
 21
1.0
 31
0.0
 73
     1
 44
1.0
1001
ACAD
1000
MTEXTBEGIN
1070
    73
1070
     1
1070
    44
1040
1.0
1070
    74
1070
     0
1000
MTEXTEND
  0
LINE
  5
186F3
330
186EC
100
AcDbEntity
  8
寸法
 62
     0
 48
50.0
370
    -2
100
AcDbLine
 10
8252.898898742579
 20
4485.93159871326
 30
0.0
 11
8252.898898742579
 21
4512.931598713262
 31
0.0
  0
INSERT
  5
186F4
330
186EC
100
AcDbEntity
  8
寸法
 62
     0
 48
50.0
370
    -2
100
AcDbBlockReference
  2
_DOTSMALL
 10
8252.898898742579
 20
4485.93159871326
 30
0.0
 41
100.0
 42
100.0
 43
100.0
 50
90.0
  0
INSERT
  5
186F5
330
186EC
100
AcDbEntity
  8
寸法
 62
     0
 48
50.0
370
    -2
100
AcDbBlockReference
  2
_DOTSMALL
 10
8252.898898742579
 20
4512.931598713262
 30
0.0
 41
100.0
 42
100.0
 43
100.0
 50
270.0
  0
POINT
  5
186F6
330
186EC
100
AcDbEntity
  8
DEFPOINTS
 62
     0
 48
50.0
100
AcDbPoint
 10
7965.355796420833
 20
4485.93159871326
 30
0.0
  0
POINT
  5
186F7
330
186EC
100
AcDbEntity
  8
DEFPOINTS
 62
     0
 48
50.0
100
AcDbPoint
 10
7910.355796420832
 20
4512.931598713262
 30
0.0
  0
POINT
  5
186F8
330
186EC
100
AcDbEntity
  8
DEFPOINTS
 62
     0
 48
50.0
100
AcDbPoint
 10
8252.898898742579
 20
4512.931598713262
 30
0.0
  0
ENDBLK
  5
186F9
330
186EC
100
AcDbEntity
  8
0
 48
50.0
100
AcDbBlockEnd
  0
BLOCK
  5
186FB
330
186FA
100
AcDbEntity
  8
0
 48
50.0
100
AcDbBlockBegin
  2
*D43
 70
     1
 10
0.0
 20
0.0
 30
0.0
  3
*D43
  1

  0
LINE
  5
186FC
330
186FA
100
AcDbEntity
  8
寸法
 62
     0
 48
50.0
370
    -2
100
AcDbLine
 10
7985.355796420832
 20
2537.931598713262
 30
0.0
 11
8312.898898742577
 21
2537.931598713262
 31
0.0
  0
LINE
  5
186FD
330
186FA
100
AcDbEntity
  8
寸法
 62
     0
 48
50.0
370
    -2
100
AcDbLine
 10
7985.355796420833
 20
4485.93159871326
 30
0.0
 11
8312.898898742579
 21
4485.93159871326
 31
0.0
  0
LINE
  5
186FE
330
186FA
100
AcDbEntity
  8
寸法
 62
     0
 48
50.0
370
    -2
100
AcDbLine
 10
8252.898898742577
 20
2537.931598713262
 30
0.0
 11
8252.898898742579
 21
4485.93159871326
 31
0.0
  0
INSERT
  5
186FF
330
186FA
100
AcDbEntity
  8
寸法
 62
     0
 48
50.0
370
    -2
100
AcDbBlockReference
  2
_DOTSMALL
 10
8252.898898742577
 20
2537.931598713262
 30
0.0
 41
100.0
 42
100.0
 43
100.0
 50
270.0
  0
INSERT
  5
18700
330
186FA
100
AcDbEntity
  8
寸法
 62
     0
 48
50.0
370
    -2
100
AcDbBlockReference
  2
_DOTSMALL
 10
8252.898898742579
 20
4485.93159871326
 30
0.0
 41
100.0
 42
100.0
 43
100.0
 50
90.0
  0
MTEXT
  5
18701
330
186FA
100
AcDbEntity
  8
寸法
 62
     7
 48
50.0
100
AcDbMText
 10
8152.898898742575
 20
3511.931598713263
 30
0.0
 40
120.0
 41
0.0
 71
     5
 72
     1
  1
\A1;有効開口部高サ 1948
  7
STYLE1
 11
0.0000000000000001
 21
1.0
 31
0.0
 73
     1
 44
1.0
1001
ACAD
1000
MTEXTBEGIN
1070
    73
1070
     1
1070
    44
1040
1.0
1070
    74
1070
     0
1000
MTEXTEND
  0
POINT
  5
18702
330
186FA
100
AcDbEntity
  8
DEFPOINTS
 62
     0
 48
50.0
100
AcDbPoint
 10
7965.355796420832
 20
2537.931598713262
 30
0.0
  0
POINT
  5
18703
330
186FA
100
AcDbEntity
  8
DEFPOINTS
 62
     0
 48
50.0
100
AcDbPoint
 10
7965.355796420833
 20
4485.93159871326
 30
0.0
  0
POINT
  5
18704
330
186FA
100
AcDbEntity
  8
DEFPOINTS
 62
     0
 48
50.0
100
AcDbPoint
 10
8252.898898742579
 20
4485.93159871326
 30
0.0
  0
ENDBLK
  5
18705
330
186FA
100
AcDbEntity
  8
0
 48
50.0
100
AcDbBlockEnd
  0
BLOCK
  5
1879B
330
18706
100
AcDbEntity
  8
0
 48
50.0
100
AcDbBlockBegin
  2
A$C00006481
 70
     0
 10
0.0
 20
0.0
 30
0.0
  3
A$C00006481
  1

  0
ARC
  5
18707
330
18706
100
AcDbEntity
  8
部品1
 48
0.01
100
AcDbCircle
 10
3040.769610049631
 20
3115.038020426662
 30
0.0
 40
2.0
100
AcDbArc
 50
180.0
 51
270.0
  0
ARC
  5
18708
330
18706
100
AcDbEntity
  8
部品1
 48
0.01
100
AcDbCircle
 10
3216.769610049631
 20
3115.038020426662
 30
0.0
 40
2.0
100
AcDbArc
 50
270.0
 51
0.0
  0
LINE
  5
18709
330
18706
100
AcDbEntity
  8
部品1
 48
0.01
100
AcDbLine
 10
3216.769610049631
 20
3113.038020426662
 30
0.0
 11
3040.769610049631
 21
3113.038020426662
 31
0.0
  0
LINE
  5
1870A
330
18706
100
AcDbEntity
  8
部品1
 48
0.01
100
AcDbLine
 10
1810.76961004963
 20
3113.038020426662
 30
0.0
 11
1986.769610049627
 21
3113.038020426662
 31
0.0
  0
ARC
  5
1870B
330
18706
100
AcDbEntity
  8
部品1
 48
0.01
100
AcDbCircle
 10
1810.76961004963
 20
3115.038020426662
 30
0.0
 40
2.0
100
AcDbArc
 50
180.0
 51
270.0
  0
ARC
  5
1870C
330
18706
100
AcDbEntity
  8
部品1
 48
0.01
100
AcDbCircle
 10
1986.769610049627
 20
3115.038020426662
 30
0.0
 40
2.0
100
AcDbArc
 50
270.0
 51
0.0
  0
ARC
  5
1870D
330
18706
100
AcDbEntity
  8
部品1
 48
0.01
100
AcDbCircle
 10
3040.769610049631
 20
3146.538020426663
 30
0.0
 40
2.0
100
AcDbArc
 50
90.0
 51
180.0
  0
ARC
  5
1870E
330
18706
100
AcDbEntity
  8
部品1
 48
0.01
100
AcDbCircle
 10
3216.769610049631
 20
3146.538020426663
 30
0.0
 40
2.0
100
AcDbArc
 50
0.0
 51
90.0
  0
LINE
  5
1870F
330
18706
100
AcDbEntity
  8
細線
100
AcDbLine
 10
3128.76961004963
 20
3119.038020426662
 30
0.0
 11
3054.769610049631
 21
3119.038020426662
 31
0.0
  0
LINE
  5
18710
330
18706
100
AcDbEntity
  8
細線
100
AcDbLine
 10
3128.76961004963
 20
3142.038020426662
 30
0.0
 11
3202.769610049631
 21
3142.038020426662
 31
0.0
  0
LINE
  5
18711
330
18706
100
AcDbEntity
  8
細線
100
AcDbLine
 10
3202.769610049631
 20
3119.038020426662
 30
0.0
 11
3128.76961004963
 21
3119.038020426662
 31
0.0
  0
LINE
  5
18712
330
18706
100
AcDbEntity
  8
細線
100
AcDbLine
 10
3054.769610049631
 20
3142.038020426662
 30
0.0
 11
3128.76961004963
 21
3142.038020426662
 31
0.0
  0
LINE
  5
18713
330
18706
100
AcDbEntity
  8
細線
100
AcDbLine
 10
3054.769610049631
 20
3119.038020426662
 30
0.0
 11
3054.769610049631
 21
3142.038020426662
 31
0.0
  0
LINE
  5
18714
330
18706
100
AcDbEntity
  8
細線
100
AcDbLine
 10
3202.769610049631
 20
3142.038020426662
 30
0.0
 11
3202.769610049631
 21
3119.038020426662
 31
0.0
  0
LINE
  5
18715
330
18706
100
AcDbEntity
  8
部品1
 48
0.01
100
AcDbLine
 10
3038.769610049631
 20
3115.038020426662
 30
0.0
 11
3038.769610049631
 21
3146.538020426663
 31
0.0
  0
LINE
  5
18716
330
18706
100
AcDbEntity
  8
部品1
 48
0.01
100
AcDbLine
 10
3218.76961004963
 20
3146.538020426663
 30
0.0
 11
3218.76961004963
 21
3115.038020426662
 31
0.0
  0
LINE
  5
18717
330
18706
100
AcDbEntity
  8
部品1
 48
0.01
100
AcDbLine
 10
3040.769610049631
 20
3148.538020426662
 30
0.0
 11
3216.769610049631
 21
3148.538020426662
 31
0.0
  0
LINE
  5
18718
330
18706
100
AcDbEntity
  8
細線
100
AcDbLine
 10
3202.769610049631
 20
3136.038020426662
 30
0.0
 11
3128.76961004963
 21
3136.038020426662
 31
0.0
  0
LINE
  5
18719
330
18706
100
AcDbEntity
  8
細線
100
AcDbLine
 10
3202.769610049631
 20
3130.038020426662
 30
0.0
 11
3128.76961004963
 21
3130.038020426662
 31
0.0
  0
LINE
  5
1871A
330
18706
100
AcDbEntity
  8
細線
100
AcDbLine
 10
3202.769610049631
 20
3124.038020426662
 30
0.0
 11
3128.76961004963
 21
3124.038020426662
 31
0.0
  0
LINE
  5
1871B
330
18706
100
AcDbEntity
  8
細線
100
AcDbLine
 10
3202.769610049631
 20
3136.038020426662
 30
0.0
 11
3133.769610049631
 21
3136.038020426662
 31
0.0
  0
LINE
  5
1871C
330
18706
100
AcDbEntity
  8
細線
100
AcDbLine
 10
3054.769610049631
 20
3136.038020426662
 30
0.0
 11
3128.76961004963
 21
3136.038020426662
 31
0.0
  0
LINE
  5
1871D
330
18706
100
AcDbEntity
  8
細線
100
AcDbLine
 10
3054.769610049631
 20
3124.038020426662
 30
0.0
 11
3128.76961004963
 21
3124.038020426662
 31
0.0
  0
LINE
  5
1871E
330
18706
100
AcDbEntity
  8
細線
100
AcDbLine
 10
3054.769610049631
 20
3130.038020426662
 30
0.0
 11
3128.76961004963
 21
3130.038020426662
 31
0.0
  0
LINE
  5
1871F
330
18706
100
AcDbEntity
  8
細線
100
AcDbLine
 10
3128.76961004963
 20
3142.038020426662
 30
0.0
 11
3128.76961004963
 21
3119.038020426662
 31
0.0
  0
LINE
  5
18720
330
18706
100
AcDbEntity
  8
細線
100
AcDbLine
 10
1898.76961004963
 20
3142.038020426662
 30
0.0
 11
1898.769610049627
 21
3119.038020426662
 31
0.0
  0
LINE
  5
18721
330
18706
100
AcDbEntity
  8
細線
100
AcDbLine
 10
1972.769610049627
 20
3130.038020426662
 30
0.0
 11
1898.76961004963
 21
3130.038020426662
 31
0.0
  0
LINE
  5
18722
330
18706
100
AcDbEntity
  8
細線
100
AcDbLine
 10
1972.769610049627
 20
3124.038020426662
 30
0.0
 11
1898.76961004963
 21
3124.038020426662
 31
0.0
  0
LINE
  5
18723
330
18706
100
AcDbEntity
  8
細線
100
AcDbLine
 10
1972.769610049627
 20
3136.038020426662
 30
0.0
 11
1898.76961004963
 21
3136.038020426662
 31
0.0
  0
LINE
  5
18724
330
18706
100
AcDbEntity
  8
細線
100
AcDbLine
 10
1824.76961004963
 20
3136.038020426662
 30
0.0
 11
1893.769610049631
 21
3136.038020426662
 31
0.0
  0
LINE
  5
18725
330
18706
100
AcDbEntity
  8
細線
100
AcDbLine
 10
1824.769610049627
 20
3124.038020426662
 30
0.0
 11
1898.76961004963
 21
3124.038020426662
 31
0.0
  0
LINE
  5
18726
330
18706
100
AcDbEntity
  8
細線
100
AcDbLine
 10
1824.76961004963
 20
3130.038020426662
 30
0.0
 11
1898.76961004963
 21
3130.038020426662
 31
0.0
  0
LINE
  5
18727
330
18706
100
AcDbEntity
  8
細線
100
AcDbLine
 10
1824.76961004963
 20
3136.038020426662
 30
0.0
 11
1898.76961004963
 21
3136.038020426662
 31
0.0
  0
LINE
  5
18728
330
18706
100
AcDbEntity
  8
部品1
 48
0.01
100
AcDbLine
 10
1986.769610049631
 20
3148.538020426662
 30
0.0
 11
1810.76961004963
 21
3148.538020426662
 31
0.0
  0
LINE
  5
18729
330
18706
100
AcDbEntity
  8
部品1
 48
0.01
100
AcDbLine
 10
1808.76961004963
 20
3146.538020426663
 30
0.0
 11
1808.76961004963
 21
3115.038020426662
 31
0.0
  0
LINE
  5
1872A
330
18706
100
AcDbEntity
  8
部品1
 48
0.01
100
AcDbLine
 10
1988.769610049627
 20
3115.038020426662
 30
0.0
 11
1988.76961004963
 21
3146.538020426663
 31
0.0
  0
LINE
  5
1872B
330
18706
100
AcDbEntity
  8
細線
100
AcDbLine
 10
1824.76961004963
 20
3142.038020426662
 30
0.0
 11
1824.76961004963
 21
3119.038020426662
 31
0.0
  0
LINE
  5
1872C
330
18706
100
AcDbEntity
  8
細線
100
AcDbLine
 10
1972.76961004963
 20
3119.038020426662
 30
0.0
 11
1972.76961004963
 21
3142.038020426662
 31
0.0
  0
LINE
  5
1872D
330
18706
100
AcDbEntity
  8
細線
100
AcDbLine
 10
1972.76961004963
 20
3142.038020426662
 30
0.0
 11
1898.76961004963
 21
3142.038020426662
 31
0.0
  0
LINE
  5
1872E
330
18706
100
AcDbEntity
  8
細線
100
AcDbLine
 10
1824.76961004963
 20
3119.038020426662
 30
0.0
 11
1898.76961004963
 21
3119.038020426662
 31
0.0
  0
LINE
  5
1872F
330
18706
100
AcDbEntity
  8
細線
100
AcDbLine
 10
1898.76961004963
 20
3142.038020426662
 30
0.0
 11
1824.76961004963
 21
3142.038020426662
 31
0.0
  0
LINE
  5
18730
330
18706
100
AcDbEntity
  8
細線
100
AcDbLine
 10
1898.769610049627
 20
3119.038020426662
 30
0.0
 11
1972.76961004963
 21
3119.038020426662
 31
0.0
  0
ARC
  5
18731
330
18706
100
AcDbEntity
  8
部品1
 48
0.01
100
AcDbCircle
 10
1810.76961004963
 20
3146.538020426663
 30
0.0
 40
2.0
100
AcDbArc
 50
90.0
 51
180.0
  0
ARC
  5
18732
330
18706
100
AcDbEntity
  8
部品1
 48
0.01
100
AcDbCircle
 10
1986.769610049631
 20
3146.538020426663
 30
0.0
 40
2.0
100
AcDbArc
 50
0.0
 51
90.0
  0
DIMENSION
  5
18733
330
18706
100
AcDbEntity
  8
寸法
 48
50.0
100
AcDbDimension
  2
*D43
 10
4326.312712371373
 20
2890.538020426662
 30
0.0
 11
4226.312712371371
 21
1916.538020426663
 31
0.0
 12
-3926.586186371205
 22
-1595.393578286599
 32
0.0
  1
有効開口部高サ <>
 71
     5
 42
1947.999999999999
  3
INABA_S40G
100
AcDbAlignedDimension
 13
4038.769610049627
 23
942.5380204266621
 33
0.0
 14
4038.769610049627
 24
2890.538020426662
 34
0.0
 50
90.0
100
AcDbRotatedDimension
  0
DIMENSION
  5
18734
330
18706
100
AcDbEntity
  8
寸法
 48
50.0
100
AcDbDimension
  2
*D42
 10
4326.312712371373
 20
2917.538020426663
 30
0.0
 11
4466.482535617738
 21
2918.505220266321
 31
0.0
 12
-3926.586186371205
 22
-1595.393578286599
 32
0.0
 70
   128
 71
     5
 42
27.00000000000182
  3
INABA_S40G
100
AcDbAlignedDimension
 13
4038.769610049627
 23
2890.538020426662
 33
0.0
 14
3983.769610049627
 24
2917.538020426663
 34
0.0
 50
90.0
100
AcDbRotatedDimension
1001
ACAD
1000
DSTYLE
1002
{
1070
   279
1070
     2
1002
}
  0
DIMENSION
  5
18735
330
18706
100
AcDbEntity
  8
寸法
 48
50.0
100
AcDbDimension
  2
*D41
 10
4326.312712371374
 20
3082.538020426663
 30
0.0
 11
4326.312712371373
 21
3321.023301800902
 31
0.0
 12
-3926.586186371205
 22
-1595.393578286599
 32
0.0
 70
   128
 71
     5
 42
164.9999999999991
  3
INABA_S40G
100
AcDbAlignedDimension
 13
3983.769610049627
 23
2917.538020426663
 33
0.0
 14
4038.769610049627
 24
3082.538020426663
 34
0.0
 50
90.0
100
AcDbRotatedDimension
1001
ACAD
1000
DSTYLE
1002
{
1002
}
  0
LINE
  5
18736
330
18706
100
AcDbEntity
  8
部品1
100
AcDbLine
 10
0.000018703243768
 20
972.4418309943267
 30
0.0
 11
150.0000187032437
 21
972.4418309943267
 31
0.0
  0
LINE
  5
18737
330
18706
100
AcDbEntity
  8
部品1
100
AcDbLine
 10
75.00001870324377
 20
842.5380204266621
 30
0.0
 11
0.000018703243768
 21
972.4418309943267
 31
0.0
  0
TEXT
  5
18738
330
18706
100
AcDbEntity
  8
部品1
100
AcDbText
 10
178.1049608280173
 20
878.6449240325637
 30
0.0
 40
125.0
  1
G.L
  7
MSGOTHIC
100
AcDbText
  0
LINE
  5
18739
330
18706
100
AcDbEntity
  8
部品1
100
AcDbLine
 10
150.0000187032437
 20
972.4418309943267
 30
0.0
 11
75.00001870324377
 21
842.5380204266621
 31
0.0
  0
LINE
  5
1873A
330
18706
100
AcDbEntity
  8
部品1
100
AcDbLine
 10
988.7696100496269
 20
942.5380204266621
 30
0.0
 11
4038.769610049627
 21
942.5380204266621
 31
0.0
  0
LINE
  5
1873B
330
18706
100
AcDbEntity
  8
部品1
100
AcDbLine
 10
988.7696100496269
 20
3082.538020426663
 30
0.0
 11
4038.769610049627
 21
3082.538020426663
 31
0.0
  0
LINE
  5
1873C
330
18706
100
AcDbEntity
  8
部品1
100
AcDbLine
 10
988.7696100496269
 20
3176.538020426668
 30
0.0
 11
988.7696100496269
 21
842.5380204266621
 31
0.0
  0
LINE
  5
1873D
330
18706
100
AcDbEntity
  8
部品1
100
AcDbLine
 10
3983.769610049627
 20
3082.538020426663
 30
0.0
 11
3983.769610049625
 21
942.5380204266621
 31
0.0
  0
LINE
  5
1873E
330
18706
100
AcDbEntity
  8
部品1
100
AcDbLine
 10
1043.769610049626
 20
3082.538020426663
 30
0.0
 11
1043.769610049626
 21
942.5380204266621
 31
0.0
  0
LINE
  5
1873F
330
18706
100
AcDbEntity
  8
部品1
100
AcDbLine
 10
4038.769610049627
 20
3176.538020426668
 30
0.0
 11
4038.769610049627
 21
842.5380204266621
 31
0.0
  0
LINE
  5
18740
330
18706
100
AcDbEntity
  8
破線
 48
5.0
100
AcDbLine
 10
4158.769610049628
 20
542.5380204266621
 30
0.0
 11
3808.769610049625
 21
542.5380204266621
 31
0.0
  0
LINE
  5
18741
330
18706
100
AcDbEntity
  8
破線
 48
5.0
100
AcDbLine
 10
3808.769610049629
 20
842.5380204266621
 30
0.0
 11
3808.769610049629
 21
542.5380204266621
 31
0.0
  0
LINE
  5
18742
330
18706
100
AcDbEntity
  8
破線
 48
5.0
100
AcDbLine
 10
4158.769610049628
 20
842.5380204266621
 30
0.0
 11
4158.769610049628
 21
542.5380204266621
 31
0.0
  0
LINE
  5
18743
330
18706
100
AcDbEntity
  8
破線
 48
5.0
100
AcDbLine
 10
868.769610049625
 20
542.5380204266621
 30
0.0
 11
1218.769610049627
 21
542.5380204266621
 31
0.0
  0
LINE
  5
18744
330
18706
100
AcDbEntity
  8
破線
 48
5.0
100
AcDbLine
 10
868.769610049625
 20
842.5380204266621
 30
0.0
 11
868.769610049625
 21
542.5380204266621
 31
0.0
  0
LINE
  5
18745
330
18706
100
AcDbEntity
  8
破線
 48
5.0
100
AcDbLine
 10
1218.769610049625
 20
842.5380204266621
 30
0.0
 11
1218.769610049625
 21
542.5380204266621
 31
0.0
  0
LINE
  5
18746
330
18706
100
AcDbEntity
  8
破線
 48
5.0
100
AcDbLine
 10
4038.769610049627
 20
842.5380204266621
 30
0.0
 11
4038.769610049627
 21
592.5380204266621
 31
0.0
  0
LINE
  5
18747
330
18706
100
AcDbEntity
  8
破線
 48
5.0
100
AcDbLine
 10
988.7696100496269
 20
842.5380204266621
 30
0.0
 11
988.7696100496251
 21
592.5380204266621
 31
0.0
  0
DIMENSION
  5
18748
330
18706
100
AcDbEntity
  8
寸法
 48
50.0
100
AcDbDimension
  2
*D40
 10
3808.769610049625
 20
256.4906911262842
 30
0.0
 11
3983.769610049627
 21
356.4906911262842
 31
0.0
 12
-3926.586186371205
 22
-1595.393578286599
 32
0.0
 71
     5
 42
350.0000000000036
  3
INABA_S40G
100
AcDbAlignedDimension
 13
4158.769610049628
 23
542.5380204266621
 33
0.0
 14
3808.769610049625
 24
542.5380204266621
 34
0.0
100
AcDbRotatedDimension
  0
LINE
  5
18749
330
18706
100
AcDbEntity
  8
破線
 48
5.0
100
AcDbLine
 10
3983.769610049625
 20
942.5380204266621
 30
0.0
 11
3983.769610049627
 21
592.5380204266621
 31
0.0
  0
LINE
  5
1874A
330
18706
100
AcDbEntity
  8
破線
 48
5.0
100
AcDbLine
 10
1043.769610049626
 20
942.5380204266621
 30
0.0
 11
1043.769610049625
 21
592.5380204266621
 31
0.0
  0
LINE
  5
1874B
330
18706
100
AcDbEntity
  8
破線
 48
5.0
100
AcDbLine
 10
4038.769610049625
 20
592.5380204266621
 30
0.0
 11
3983.769610049627
 21
592.5380204266621
 31
0.0
  0
LINE
  5
1874C
330
18706
100
AcDbEntity
  8
破線
 48
5.0
100
AcDbLine
 10
1043.769610049625
 20
592.5380204266693
 30
0.0
 11
988.7696100496251
 21
592.5380204266693
 31
0.0
  0
LINE
  5
1874D
330
18706
100
AcDbEntity
  8
部品1
100
AcDbLine
 10
1091.769610049627
 20
2917.538020426662
 30
0.0
 11
1091.769610049627
 21
942.5380204266621
 31
0.0
  0
LINE
  5
1874E
330
18706
100
AcDbEntity
  8
破線
 48
5.0
100
AcDbLine
 10
1091.769610049627
 20
942.5380204266621
 30
0.0
 11
1091.769610049625
 21
642.5380204266676
 31
0.0
  0
LINE
  5
1874F
330
18706
100
AcDbEntity
  8
部品1
100
AcDbLine
 10
3935.769610049629
 20
2917.538020426663
 30
0.0
 11
3935.769610049625
 21
942.5380204266621
 31
0.0
  0
LINE
  5
18750
330
18706
100
AcDbEntity
  8
破線
 48
5.0
100
AcDbLine
 10
3935.769610049625
 20
942.5380204266621
 30
0.0
 11
3935.769610049627
 21
642.5380204266621
 31
0.0
  0
LINE
  5
18751
330
18706
100
AcDbEntity
  8
破線
 48
5.0
100
AcDbLine
 10
3983.769610049629
 20
642.5380204266621
 30
0.0
 11
3935.769610049627
 21
642.5380204266621
 31
0.0
  0
LINE
  5
18752
330
18706
100
AcDbEntity
  8
破線
 48
5.0
100
AcDbLine
 10
1091.769610049625
 20
642.5380204266676
 30
0.0
 11
1043.769610049625
 21
642.5380204266676
 31
0.0
  0
LINE
  5
18753
330
18706
100
AcDbEntity
  8
部品1
100
AcDbLine
 10
1043.769610049626
 20
2917.538020426662
 30
0.0
 11
3983.769610049627
 21
2917.538020426663
 31
0.0
  0
LINE
  5
18754
330
18706
100
AcDbEntity
  8
細線
100
AcDbLine
 10
1091.769610049623
 20
2577.538020426662
 30
0.0
 11
3935.769610049625
 21
2577.538020426662
 31
0.0
  0
LINE
  5
18755
330
18706
100
AcDbEntity
  8
細線
100
AcDbLine
 10
1091.769610049623
 20
2642.538020426662
 30
0.0
 11
3935.769610049625
 21
2642.538020426662
 31
0.0
  0
LINE
  5
18756
330
18706
100
AcDbEntity
  8
細線
100
AcDbLine
 10
1091.769610049623
 20
2707.538020426663
 30
0.0
 11
3935.769610049625
 21
2707.538020426663
 31
0.0
  0
LINE
  5
18757
330
18706
100
AcDbEntity
  8
細線
100
AcDbLine
 10
1091.769610049623
 20
2187.538020426663
 30
0.0
 11
3935.769610049625
 21
2187.538020426663
 31
0.0
  0
LINE
  5
18758
330
18706
100
AcDbEntity
  8
細線
100
AcDbLine
 10
1091.769610049623
 20
2252.538020426662
 30
0.0
 11
3935.769610049625
 21
2252.538020426662
 31
0.0
  0
LINE
  5
18759
330
18706
100
AcDbEntity
  8
細線
100
AcDbLine
 10
1091.769610049623
 20
2317.538020426662
 30
0.0
 11
3935.769610049625
 21
2317.538020426662
 31
0.0
  0
LINE
  5
1875A
330
18706
100
AcDbEntity
  8
細線
100
AcDbLine
 10
1091.769610049623
 20
2382.538020426662
 30
0.0
 11
3935.769610049625
 21
2382.538020426662
 31
0.0
  0
LINE
  5
1875B
330
18706
100
AcDbEntity
  8
細線
100
AcDbLine
 10
1091.769610049623
 20
2447.538020426662
 30
0.0
 11
3935.769610049625
 21
2447.538020426662
 31
0.0
  0
LINE
  5
1875C
330
18706
100
AcDbEntity
  8
細線
100
AcDbLine
 10
1091.769610049623
 20
2512.538020426662
 30
0.0
 11
3935.769610049625
 21
2512.538020426662
 31
0.0
  0
LINE
  5
1875D
330
18706
100
AcDbEntity
  8
細線
100
AcDbLine
 10
1091.769610049623
 20
1537.538020426662
 30
0.0
 11
3935.769610049625
 21
1537.538020426662
 31
0.0
  0
LINE
  5
1875E
330
18706
100
AcDbEntity
  8
細線
100
AcDbLine
 10
1091.769610049623
 20
1602.538020426662
 30
0.0
 11
3935.769610049625
 21
1602.538020426662
 31
0.0
  0
LINE
  5
1875F
330
18706
100
AcDbEntity
  8
細線
100
AcDbLine
 10
1091.769610049623
 20
1667.538020426662
 30
0.0
 11
3935.769610049625
 21
1667.538020426662
 31
0.0
  0
LINE
  5
18760
330
18706
100
AcDbEntity
  8
細線
100
AcDbLine
 10
1091.769610049623
 20
1732.538020426662
 30
0.0
 11
3935.769610049625
 21
1732.538020426662
 31
0.0
  0
LINE
  5
18761
330
18706
100
AcDbEntity
  8
細線
100
AcDbLine
 10
1091.769610049623
 20
1797.538020426662
 30
0.0
 11
3935.769610049625
 21
1797.538020426662
 31
0.0
  0
LINE
  5
18762
330
18706
100
AcDbEntity
  8
細線
100
AcDbLine
 10
1091.769610049623
 20
1862.538020426662
 30
0.0
 11
3935.769610049625
 21
1862.538020426662
 31
0.0
  0
LINE
  5
18763
330
18706
100
AcDbEntity
  8
細線
100
AcDbLine
 10
1091.769610049623
 20
1927.538020426662
 30
0.0
 11
3935.769610049625
 21
1927.538020426662
 31
0.0
  0
LINE
  5
18764
330
18706
100
AcDbEntity
  8
細線
100
AcDbLine
 10
1091.769610049623
 20
1992.538020426662
 30
0.0
 11
3935.769610049625
 21
1992.538020426662
 31
0.0
  0
LINE
  5
18765
330
18706
100
AcDbEntity
  8
細線
100
AcDbLine
 10
1091.769610049623
 20
2057.538020426662
 30
0.0
 11
3935.769610049625
 21
2057.538020426662
 31
0.0
  0
LINE
  5
18766
330
18706
100
AcDbEntity
  8
細線
100
AcDbLine
 10
1091.769610049623
 20
2122.538020426662
 30
0.0
 11
3935.769610049625
 21
2122.538020426662
 31
0.0
  0
LINE
  5
18767
330
18706
100
AcDbEntity
  8
細線
100
AcDbLine
 10
1091.769610049623
 20
2837.538020426663
 30
0.0
 11
3935.769610049625
 21
2837.538020426663
 31
0.0
  0
LINE
  5
18768
330
18706
100
AcDbEntity
  8
細線
100
AcDbLine
 10
1091.769610049623
 20
2902.538020426662
 30
0.0
 11
3935.769610049625
 21
2902.538020426662
 31
0.0
  0
LINE
  5
18769
330
18706
100
AcDbEntity
  8
細線
100
AcDbLine
 10
1091.769610049623
 20
2772.538020426662
 30
0.0
 11
3935.769610049625
 21
2772.538020426662
 31
0.0
  0
LINE
  5
1876A
330
18706
100
AcDbEntity
  8
細線
100
AcDbLine
 10
1091.769610049623
 20
952.5380204266621
 30
0.0
 11
3935.769610049625
 21
952.5380204266621
 31
0.0
  0
LINE
  5
1876B
330
18706
100
AcDbEntity
  8
細線
100
AcDbLine
 10
1091.769610049623
 20
1017.538020426662
 30
0.0
 11
3935.769610049625
 21
1017.538020426662
 31
0.0
  0
LINE
  5
1876C
330
18706
100
AcDbEntity
  8
細線
100
AcDbLine
 10
1091.769610049623
 20
1082.538020426662
 30
0.0
 11
3935.769610049625
 21
1082.538020426662
 31
0.0
  0
LINE
  5
1876D
330
18706
100
AcDbEntity
  8
細線
100
AcDbLine
 10
1091.769610049623
 20
1147.538020426662
 30
0.0
 11
3935.769610049625
 21
1147.538020426662
 31
0.0
  0
LINE
  5
1876E
330
18706
100
AcDbEntity
  8
細線
100
AcDbLine
 10
1091.769610049623
 20
1212.538020426662
 30
0.0
 11
3935.769610049625
 21
1212.538020426662
 31
0.0
  0
LINE
  5
1876F
330
18706
100
AcDbEntity
  8
細線
100
AcDbLine
 10
1091.769610049623
 20
1277.538020426662
 30
0.0
 11
3935.769610049625
 21
1277.538020426662
 31
0.0
  0
LINE
  5
18770
330
18706
100
AcDbEntity
  8
細線
100
AcDbLine
 10
1091.769610049623
 20
1342.538020426662
 30
0.0
 11
3935.769610049625
 21
1342.538020426662
 31
0.0
  0
LINE
  5
18771
330
18706
100
AcDbEntity
  8
細線
100
AcDbLine
 10
1091.769610049623
 20
1407.538020426662
 30
0.0
 11
3935.769610049625
 21
1407.538020426662
 31
0.0
  0
LINE
  5
18772
330
18706
100
AcDbEntity
  8
細線
100
AcDbLine
 10
1091.769610049623
 20
1472.538020426662
 30
0.0
 11
3935.769610049625
 21
1472.538020426662
 31
0.0
  0
LINE
  5
18773
330
18706
100
AcDbEntity
  8
細線
100
AcDbLine
 10
3935.769610049627
 20
952.5380204266621
 30
0.0
 11
1091.769610049621
 21
952.5380204266621
 31
0.0
  0
CIRCLE
  5
18774
330
18706
100
AcDbEntity
  8
細線
 48
50.0
100
AcDbCircle
 10
2513.769610049625
 20
1830.038020426662
 30
0.0
 40
18.0
  0
ARC
  5
18775
330
18706
100
AcDbEntity
  8
細線
 48
50.0
100
AcDbCircle
 10
2813.769610049625
 20
1505.038020426662
 30
0.0
 40
15.0
100
AcDbArc
 50
270.0
 51
90.0
  0
ARC
  5
18776
330
18706
100
AcDbEntity
  8
細線
 48
50.0
100
AcDbCircle
 10
2713.769610049625
 20
1505.038020426662
 30
0.0
 40
15.0
100
AcDbArc
 50
90.0
 51
270.0
  0
LINE
  5
18777
330
18706
100
AcDbEntity
  8
細線
 48
50.0
100
AcDbLine
 10
2713.769610049625
 20
1520.038020426662
 30
0.0
 11
2813.769610049625
 21
1520.038020426662
 31
0.0
  0
LINE
  5
18778
330
18706
100
AcDbEntity
  8
細線
 48
50.0
100
AcDbLine
 10
2813.769610049625
 20
1490.038020426662
 30
0.0
 11
2713.769610049625
 21
1490.038020426662
 31
0.0
  0
LINE
  5
18779
330
18706
100
AcDbEntity
  8
細線
 48
50.0
100
AcDbLine
 10
2313.769610049625
 20
1490.038020426662
 30
0.0
 11
2213.769610049625
 21
1490.038020426662
 31
0.0
  0
LINE
  5
1877A
330
18706
100
AcDbEntity
  8
細線
 48
50.0
100
AcDbLine
 10
2213.769610049625
 20
1520.038020426662
 30
0.0
 11
2313.769610049625
 21
1520.038020426662
 31
0.0
  0
ARC
  5
1877B
330
18706
100
AcDbEntity
  8
細線
 48
50.0
100
AcDbCircle
 10
2313.769610049625
 20
1505.038020426662
 30
0.0
 40
15.0
100
AcDbArc
 50
270.0
 51
90.0
  0
ARC
  5
1877C
330
18706
100
AcDbEntity
  8
細線
 48
50.0
100
AcDbCircle
 10
2213.769610049625
 20
1505.038020426662
 30
0.0
 40
15.0
100
AcDbArc
 50
90.0
 51
270.0
  0
DIMENSION
  5
1877D
330
18706
100
AcDbEntity
  8
寸法
 48
50.0
100
AcDbDimension
  2
*D39
 10
4088.769610049636
 20
3750.984906158656
 30
0.0
 11
2513.302825967381
 21
3750.984906158656
 31
0.0
 12
-3926.586186371205
 22
-1595.393578286599
 32
0.0
 70
   128
 71
     5
 42
3150.000000000015
  3
INABA_S40G
100
AcDbAlignedDimension
 13
938.7696100496214
 23
3317.538020426667
 33
0.0
 14
4088.769610049636
 24
3317.538020426666
 34
0.0
100
AcDbRotatedDimension
  0
DIMENSION
  5
1877E
330
18706
100
AcDbEntity
  8
寸法
 48
50.0
100
AcDbDimension
  2
*D38
 10
4038.769610049636
 20
3530.079605684906
 30
0.0
 11
4402.254891423872
 21
3530.079605684906
 31
0.0
 12
-3926.586186371205
 22
-1595.393578286599
 32
0.0
 70
   128
 71
     5
 42
50.0
  3
INABA_S40G
100
AcDbAlignedDimension
 13
4088.769610049636
 23
3317.538020426666
 33
0.0
 14
4038.769610049636
 24
3317.538020426667
 34
0.0
100
AcDbRotatedDimension
  0
DIMENSION
  5
1877F
330
18706
100
AcDbEntity
  8
寸法
 48
50.0
100
AcDbDimension
  2
*D37
 10
938.7696100496214
 20
3530.079605684907
 30
0.0
 11
625.2843286753741
 21
3530.079605684907
 31
0.0
 12
-3926.586186371205
 22
-1595.393578286599
 32
0.0
 70
   128
 71
     5
 42
50.0
  3
INABA_S40G
100
AcDbAlignedDimension
 13
988.7696100496214
 23
3317.53802042667
 33
0.0
 14
938.7696100496214
 24
3317.538020426667
 34
0.0
100
AcDbRotatedDimension
1001
ACAD
1000
DSTYLE
1002
{
1002
}
  0
DIMENSION
  5
18780
330
18706
100
AcDbEntity
  8
寸法
 48
50.0
100
AcDbDimension
  2
*D36
 10
988.7696100496214
 20
3530.079605684907
 30
0.0
 11
2509.556929576131
 21
3530.079605684907
 31
0.0
 12
-3926.586186371205
 22
-1595.393578286599
 32
0.0
 70
   128
  1
柱外寸法<>
 71
     5
 42
3050.000000000015
  3
INABA_S40G
100
AcDbAlignedDimension
 13
4038.769610049636
 23
3317.538020426667
 33
0.0
 14
988.7696100496214
 24
3317.53802042667
 34
0.0
100
AcDbRotatedDimension
  0
LINE
  5
18781
330
18706
100
AcDbEntity
  8
部品1
 48
50.0
100
AcDbLine
 10
4081.361188943203
 20
3317.538020426666
 30
0.0
 11
946.1780311560506
 21
3317.538020426666
 31
0.0
  0
LINE
  5
18782
330
18706
100
AcDbEntity
  8
部品1
 48
50.0
100
AcDbLine
 10
4068.145865482168
 20
3176.538020426667
 30
0.0
 11
959.3933546170847
 21
3176.538020426667
 31
0.0
  0
LINE
  5
18783
330
18706
100
AcDbEntity
  8
細線
 48
50.0
100
AcDbLine
 10
4086.610959037719
 20
3289.511262990134
 30
0.0
 11
940.9282610612208
 21
3289.511262990504
 31
0.0
  0
LINE
  5
18784
330
18706
100
AcDbEntity
  8
細線
 48
50.0
100
AcDbLine
 10
4078.374928512876
 20
3197.311262990133
 30
0.0
 11
949.1642915860502
 21
3197.311262990502
 31
0.0
  0
LINE
  5
18785
330
18706
100
AcDbEntity
  8
部品1
100
AcDbLine
 10
4088.349949034301
 20
3310.141495031426
 30
0.0
 11
4087.216551701956
 21
3290.165367048826
 31
0.0
  0
LINE
  5
18786
330
18706
100
AcDbEntity
  8
細線
 48
50.0
100
AcDbLine
 10
4055.769610049636
 20
3317.538020426666
 30
0.0
 11
4055.769610049636
 21
3176.538020426665
 31
0.0
  0
LINE
  5
18787
330
18706
100
AcDbEntity
  8
細線
 48
50.0
100
AcDbLine
 10
971.7696100496214
 20
3317.538020426666
 30
0.0
 11
971.7696100496214
 21
3176.538020426666
 31
0.0
  0
LINE
  5
18788
330
18706
100
AcDbEntity
  8
部品1
100
AcDbLine
 10
4075.779531380379
 20
3194.507959881768
 30
0.0
 11
4075.134625573268
 21
3183.141495031428
 31
0.0
  0
LINE
  5
18789
330
18706
100
AcDbEntity
  8
部品1
100
AcDbLine
 10
4084.015561905224
 20
3286.707959881769
 30
0.0
 11
4078.980521177112
 21
3197.965367048825
 31
0.0
  0
ARC
  5
1878A
330
18706
100
AcDbEntity
  8
部品1
 48
50.0
100
AcDbCircle
 10
4087.01074480141
 20
3286.538020426667
 30
0.0
 40
3.0
100
AcDbArc
 50
97.65812720736347
 51
176.7526572096653
  0
ARC
  5
1878B
330
18706
100
AcDbEntity
  8
部品1
 48
50.0
100
AcDbCircle
 10
4078.774714276566
 20
3194.338020426664
 30
0.0
 40
3.0
100
AcDbArc
 50
97.65812720736347
 51
176.7526572096653
  0
ARC
  5
1878C
330
18706
100
AcDbEntity
  8
部品1
 48
50.0
100
AcDbCircle
 10
4078.281645168004
 20
3198.005019588348
 30
0.0
 40
0.7
100
AcDbArc
 50
277.6581272073635
 51
356.7526572097173
  0
ARC
  5
1878D
330
18706
100
AcDbEntity
  8
部品1
 48
50.0
100
AcDbCircle
 10
4086.517675692848
 20
3290.205019588352
 30
0.0
 40
0.7
100
AcDbArc
 50
277.6581272073635
 51
356.7526572096132
  0
ARC
  5
1878E
330
18706
100
AcDbEntity
  8
部品1
100
AcDbCircle
 10
4068.145865482168
 20
3183.538020426667
 30
0.0
 40
7.0
100
AcDbArc
 50
270.0
 51
356.7526572096653
  0
ARC
  5
1878F
330
18706
100
AcDbEntity
  8
部品1
100
AcDbCircle
 10
4081.361188943203
 20
3310.538020426665
 30
0.0
 40
7.0
100
AcDbArc
 50
356.7526572096653
 51
90.0
  0
ARC
  5
18790
330
18706
100
AcDbEntity
  8
部品1
100
AcDbCircle
 10
946.1780311560506
 20
3310.538020426666
 30
0.0
 40
7.0
100
AcDbArc
 50
90.0
 51
183.2473427903347
  0
ARC
  5
18791
330
18706
100
AcDbEntity
  8
部品1
100
AcDbCircle
 10
959.3933546170847
 20
3183.538020426668
 30
0.0
 40
7.0
100
AcDbArc
 50
183.2473427903347
 51
270.0
  0
ARC
  5
18792
330
18706
100
AcDbEntity
  8
部品1
 48
50.0
100
AcDbCircle
 10
941.0215444064087
 20
3290.205019588353
 30
0.0
 40
0.7
100
AcDbArc
 50
183.2473427903867
 51
262.3418727926365
  0
ARC
  5
18793
330
18706
100
AcDbEntity
  8
部品1
 48
50.0
100
AcDbCircle
 10
949.2575749312491
 20
3198.005019588349
 30
0.0
 40
0.7
100
AcDbArc
 50
183.2473427902827
 51
262.3418727926365
  0
ARC
  5
18794
330
18706
100
AcDbEntity
  8
部品1
 48
50.0
100
AcDbCircle
 10
948.7645058226881
 20
3194.338020426665
 30
0.0
 40
3.0
100
AcDbArc
 50
3.24734279033473
 51
82.34187279263654
  0
ARC
  5
18795
330
18706
100
AcDbEntity
  8
部品1
 48
50.0
100
AcDbCircle
 10
940.5284752978442
 20
3286.538020426668
 30
0.0
 40
3.0
100
AcDbArc
 50
3.24734279033473
 51
82.34187279263654
  0
LINE
  5
18796
330
18706
100
AcDbEntity
  8
部品1
100
AcDbLine
 10
943.5236581940298
 20
3286.707959881769
 30
0.0
 11
948.558698922141
 21
3197.965367048826
 31
0.0
  0
LINE
  5
18797
330
18706
100
AcDbEntity
  8
部品1
100
AcDbLine
 10
951.7596887188775
 20
3194.507959881768
 30
0.0
 11
952.4045945259858
 21
3183.141495031428
 31
0.0
  0
LINE
  5
18798
330
18706
100
AcDbEntity
  8
部品1
100
AcDbLine
 10
939.1892710649518
 20
3310.141495031427
 30
0.0
 11
940.3226683973008
 21
3290.165367048827
 31
0.0
  0
LWPOLYLINE
  5
18799
330
18706
100
AcDbEntity
  8
部品1
100
AcDbPolyline
 90
        4
 70
     1
 43
0.0
 10
2132.03427693541
 20
239.8923371632427
 10
2132.03427693541
 20
0.0000156177102326
 10
2895.504943163847
 20
0.0000156177102326
 10
2895.504943163847
 20
239.8923371632427
  0
TEXT
  5
1879A
330
18706
100
AcDbEntity
  8
部品1
100
AcDbText
 10
2222.559680673363
 20
46.99880794471937
 30
0.0
 40
135.0
  1
正面図
  7
STYLE2
100
AcDbText
  0
ENDBLK
  5
1879C
330
18706
100
AcDbEntity
  8
0
 48
50.0
100
AcDbBlockEnd
  0
ENDSEC
  0
SECTION
  2
ENTITIES
  0
MTEXT
  5
763F
330
747D
100
AcDbEntity
  8
0
100
AcDbMText
 10
302.846345836809
 20
280.1983726409901
 30
0.0
 40
3.5
 41
5.323721266742722
 71
     1
 72
     5
  1

  7
MSMINCHO
 73
     1
 44
1.0
1001
ACAD
1000
MTEXTBEGIN
1070
    73
1070
     1
1070
    44
1040
1.0
1070
    74
1070
     0
1000
MTEXTEND
  0
LINE
  5
10B57
330
747D
100
AcDbEntity
  8
補助
  6
PHANTOM
 62
   230
 48
50.0
100
AcDbLine
 10
139.9999999999995
 20
11409.6
 30
0.0
 11
16307.2
 21
11409.6
 31
0.0
  0
LINE
  5
10B59
330
747D
100
AcDbEntity
  8
仕様書枠
  6
Continuous
 48
50.0
100
AcDbLine
 10
13107.2
 20
1200.0
 30
0.0
 11
13107.2
 21
-0.0000000000000729
 31
0.0
  0
LINE
  5
10B5C
330
747D
100
AcDbEntity
  8
仕様書枠
 48
50.0
100
AcDbLine
 10
16307.2
 20
1200.0
 30
0.0
 11
16307.2
 21
-0.0000000000000909
 31
0.0
  0
LINE
  5
10B5D
330
747D
100
AcDbEntity
  8
仕様書枠
 48
50.0
100
AcDbLine
 10
140.0
 20
0.0
 30
0.0
 11
16307.2
 21
-0.0000000000000909
 31
0.0
  0
LINE
  5
10B5E
330
747D
100
AcDbEntity
  8
補助
  6
PHANTOM
 62
   230
 48
50.0
100
AcDbLine
 10
16307.2
 20
11409.6
 30
0.0
 11
16307.2
 21
1200.0
 31
0.0
  0
LINE
  5
10B6C
330
747D
100
AcDbEntity
  8
仕様書枠
 48
50.0
100
AcDbLine
 10
13107.2
 20
1200.0
 30
0.0
 11
16307.2
 21
1200.0
 31
0.0
  0
LINE
  5
10B6D
330
747D
100
AcDbEntity
  8
補助
  6
PHANTOM
 62
   230
 48
50.0
100
AcDbLine
 10
13107.2
 20
11409.6
 30
0.0
 11
13107.2
 21
4800.0
 31
0.0
  0
LINE
  5
10B6F
330
747D
100
AcDbEntity
  8
補助
  6
PHANTOM
 62
   230
 48
50.0
100
AcDbLine
 10
13107.2
 20
4800.0
 30
0.0
 11
16307.2
 21
4800.0
 31
0.0
  0
LINE
  5
10B72
330
747D
100
AcDbEntity
  8
文字
 62
     7
 48
50.0
100
AcDbLine
 10
13187.2
 20
400.0
 30
0.0
 11
16227.2
 21
400.0
 31
0.0
  0
TEXT
  5
10B73
330
747D
100
AcDbEntity
  8
文字
 62
     7
 48
50.0
100
AcDbText
 10
13162.9790565769
 20
895.0906074299405
 30
0.0
 40
200.0
  1
外 形 図
  7
STYLE2
100
AcDbText
  0
TEXT
  5
10B74
330
747D
100
AcDbEntity
  8
文字
 62
     7
 48
50.0
100
AcDbText
 10
13201.43669998441
 20
477.2740661031255
 30
0.0
 40
160.0
  1
機種名
  7
STYLE2
100
AcDbText
  0
TEXT
  5
10B75
330
747D
100
AcDbEntity
  8
文字
 62
     7
 48
50.0
100
AcDbText
 10
13209.4053442172
 20
228.5435242569016
 30
0.0
 40
100.0
  1
○有効開口寸法 ： 2004×1886(mm)
  7
STYLE2
100
AcDbText
  0
TEXT
  5
10B76
330
747D
100
AcDbEntity
  8
文字
 62
     7
 48
50.0
100
AcDbText
 10
13209.4053442172
 20
76.09434707649343
 30
0.0
 40
100.0
  1
○床面積 ： 3.03㎡(0.92坪) 　
  7
STYLE2
100
AcDbText
  0
TEXT
  5
10B79
330
747D
100
AcDbEntity
  8
文字
 62
     7
 48
50.0
100
AcDbText
 10
14524.131837222
 20
1031.557706291228
 30
0.0
 40
100.0
  1
NO.02      <縮尺> S=1/40
  7
STYLE2
100
AcDbText
  0
LINE
  5
10B7B
330
747D
100
AcDbEntity
  8
仕様書枠
 48
50.0
100
AcDbLine
 10
13107.2
 20
800.0
 30
0.0
 11
14251.2
 21
800.0
 31
0.0
  0
LINE
  5
10B88
330
747D
100
AcDbEntity
  8
仕様書枠
  6
Continuous
 48
50.0
100
AcDbLine
 10
14251.2
 20
1200.0
 30
0.0
 11
14251.2
 21
800.0
 31
0.0
  0
TEXT
  5
10BB0
330
747D
100
AcDbEntity
  8
文字
 62
     7
 48
50.0
100
AcDbText
 10
14544.7600863402
 20
483.8967129911414
 30
0.0
 40
160.0
  1
FXN-30HY
  7
STYLE2
100
AcDbText
  0
DIMENSION
  5
16199
330
747D
100
AcDbEntity
  8
寸法
100
AcDbDimension
  2
*D1
 10
8387.206344597709
 20
6982.497424545956
 30
0.0
 11
8287.206344597709
 21
7667.49742454596
 31
0.0
 70
    32
 71
     5
 42
-1.0
  3
INABA_S40G
100
AcDbAlignedDimension
 13
7374.673057123664
 23
8352.497424545964
 33
0.0
 14
7374.673057123638
 24
6982.497424545956
 34
0.0
 50
90.0
100
AcDbRotatedDimension
1001
ACAD
1000
DSTYLE
1002
{
1002
}
  0
DIMENSION
  5
1619C
330
747D
100
AcDbEntity
  8
寸法
100
AcDbDimension
  2
*D2
 10
6377.096849989721
 20
7540.060493776414
 30
0.0
 11
5737.080914656647
 21
7540.060493776414
 31
0.0
 70
   160
 71
     5
 42
1273.000000000012
  3
INABA_S40G
100
AcDbAlignedDimension
 13
5193.173057123664
 23
7872.497424545869
 33
0.0
 14
6466.173057123675
 24
7872.497424545861
 34
0.0
100
AcDbRotatedDimension
1001
ACAD
1000
DSTYLE
1002
{
1002
}
  0
LINE
  5
1619D
330
747D
100
AcDbEntity
  8
細線
 48
50.0
100
AcDbLine
 10
6466.173057123661
 20
7872.497424545975
 30
0.0
 11
5193.173057123662
 21
8322.49742454587
 31
0.0
  0
LINE
  5
1619E
330
747D
100
AcDbEntity
  8
細線
 48
50.0
100
AcDbLine
 10
6466.173057123663
 20
8322.49742454597
 30
0.0
 11
5193.173057123663
 21
7872.497424545869
 31
0.0
  0
LINE
  5
1619F
330
747D
100
AcDbEntity
  8
部品1
100
AcDbLine
 10
5193.173057123664
 20
7872.497424545869
 30
0.0
 11
6466.173057123661
 21
7872.497424545975
 31
0.0
  0
DIMENSION
  5
161A0
330
747D
100
AcDbEntity
  8
寸法
 48
50.0
100
AcDbDimension
  2
*D3
 10
5267.673057123657
 20
6448.066653779701
 30
0.0
 11
6269.673057123648
 21
6648.074527795448
 31
0.0
 70
    32
  1
有効開口部間口\P<>
 71
     5
 42
-1.0
  3
INABA_S40G
100
AcDbAlignedDimension
 13
7271.673057123638
 23
7008.497424545865
 33
0.0
 14
5267.673057123657
 24
7008.497424545864
 34
0.0
100
AcDbRotatedDimension
1001
ACAD
1000
DSTYLE
1002
{
1070
    75
1070
     1
1070
   279
1070
     2
1002
}
  0
LINE
  5
161A2
330
747D
100
AcDbEntity
  8
部品1
 48
50.0
100
AcDbLine
 10
5231.673057123656
 20
7027.997424545863
 30
0.0
 11
7307.67305712364
 21
7027.997424545863
 31
0.0
  0
DIMENSION
  5
161A3
330
747D
100
AcDbEntity
  8
寸法
100
AcDbDimension
  2
*D4
 10
7374.673057123638
 20
6161.893658188827
 30
0.0
 11
6269.673057123648
 21
6161.893658188827
 31
0.0
 70
   160
 71
     5
 42
2209.999999999982
  3
INABA_S40G
100
AcDbAlignedDimension
 13
5164.673057123657
 23
6982.497424545792
 33
0.0
 14
7374.673057123638
 24
6982.49742454592
 34
0.0
100
AcDbRotatedDimension
1001
ACAD
1000
DSTYLE
1002
{
1002
}
  0
LINE
  5
161A4
330
747D
100
AcDbEntity
  8
部品1
100
AcDbLine
 10
5192.673057123647
 20
8324.497424545986
 30
0.0
 11
6467.173057123661
 21
8324.497424545986
 31
0.0
  0
LINE
  5
161A6
330
747D
100
AcDbEntity
  8
部品1
100
AcDbLine
 10
5164.673057123663
 20
8352.49742454587
 30
0.0
 11
7374.673057123664
 21
8352.497424545964
 31
0.0
  0
LINE
  5
161A7
330
747D
100
AcDbEntity
  8
部品1
100
AcDbLine
 10
5193.173057123662
 20
8322.49742454587
 30
0.0
 11
6466.173057123663
 21
8322.497424545975
 31
0.0
  0
DIMENSION
  5
161A8
330
747D
100
AcDbEntity
  8
寸法
100
AcDbDimension
  2
*D5
 10
7319.673057123664
 20
8868.305644170966
 30
0.0
 11
6269.673057123664
 21
8868.305644170966
 31
0.0
 70
   160
  1
5X420=<>
 71
     5
 42
2100.000000000001
  3
INABA_S40G
100
AcDbAlignedDimension
 13
5219.673057123663
 23
8352.49742454587
 33
0.0
 14
7319.673057123664
 24
8352.497424545964
 34
0.0
100
AcDbRotatedDimension
1001
ACAD
1000
DSTYLE
1002
{
1002
}
  0
LINE
  5
161A9
330
747D
100
AcDbEntity
  8
部品1
100
AcDbLine
 10
5219.673057123642
 20
7872.497424545871
 30
0.0
 11
5219.673057123656
 21
7047.497424545864
 31
0.0
  0
LINE
  5
161AA
330
747D
100
AcDbEntity
  8
部品1
100
AcDbLine
 10
5192.673057123638
 20
7037.497424545822
 30
0.0
 11
5192.673057123647
 21
8324.497424545869
 31
0.0
  0
LINE
  5
161AC
330
747D
100
AcDbEntity
  8
部品1
100
AcDbLine
 10
5164.673057123629
 20
8352.497424545836
 30
0.0
 11
5164.673057123657
 21
6982.497424545825
 31
0.0
  0
DIMENSION
  5
161AD
330
747D
100
AcDbEntity
  8
寸法
 48
50.0
100
AcDbDimension
  2
*D6
 10
5164.673057123657
 20
6448.066653779701
 30
0.0
 11
4856.187775749418
 21
6448.066653779701
 31
0.0
 70
   160
 71
     5
 42
-1.0
  3
INABA_S40G
100
AcDbAlignedDimension
 13
5219.673057123653
 23
6982.497424545865
 33
0.0
 14
5164.673057123657
 24
6982.497424545861
 34
0.0
100
AcDbRotatedDimension
1001
ACAD
1000
DSTYLE
1002
{
1002
}
  0
DIMENSION
  5
161AE
330
747D
100
AcDbEntity
  8
寸法
 48
50.0
100
AcDbDimension
  2
*D7
 10
5219.673057123653
 20
6448.066653779701
 30
0.0
 11
5380.575028123715
 21
6548.0666537797
 31
0.0
 70
   160
 71
     5
 42
-1.0
  3
INABA_S40G
100
AcDbAlignedDimension
 13
5267.673057123657
 23
7008.497424545864
 33
0.0
 14
5219.673057123653
 24
6982.497424545865
 34
0.0
100
AcDbRotatedDimension
1001
ACAD
1000
DSTYLE
1002
{
1070
   279
1070
     2
1002
}
  0
LINE
  5
161AF
330
747D
100
AcDbEntity
  8
部品1
100
AcDbLine
 10
5267.673057123657
 20
7047.497424545865
 30
0.0
 11
5219.673057123657
 21
7047.497424545864
 31
0.0
  0
LINE
  5
161B0
330
747D
100
AcDbEntity
  8
部品1
100
AcDbLine
 10
5267.673057123657
 20
7008.497424545865
 30
0.0
 11
5219.673057123657
 21
7008.497424545864
 31
0.0
  0
LINE
  5
161B1
330
747D
100
AcDbEntity
  8
部品1
100
AcDbLine
 10
5219.673057123652
 20
6982.497424545865
 30
0.0
 11
5164.673057123657
 21
6982.497424545861
 31
0.0
  0
LINE
  5
161B2
330
747D
100
AcDbEntity
  8
部品1
 48
50.0
100
AcDbLine
 10
5219.673057123657
 20
7018.497424545863
 30
0.0
 11
5196.673057123657
 21
7018.497424545863
 31
0.0
  0
LINE
  5
161B3
330
747D
100
AcDbEntity
  8
部品1
 48
50.0
100
AcDbLine
 10
5229.673057123656
 20
7008.497424545864
 30
0.0
 11
5219.673057123657
 21
6987.497424545864
 31
0.0
  0
LINE
  5
161B4
330
747D
100
AcDbEntity
  8
部品1
 48
50.0
100
AcDbLine
 10
5219.673057123657
 20
7047.497424545864
 30
0.0
 11
5219.673057123653
 21
6982.497424545865
 31
0.0
  0
LINE
  5
161B5
330
747D
100
AcDbEntity
  8
部品1
100
AcDbLine
 10
5219.673057123656
 20
7018.497424545863
 30
0.0
 11
5196.673057123657
 21
7018.497424545863
 31
0.0
  0
LINE
  5
161B6
330
747D
100
AcDbEntity
  8
部品1
100
AcDbLine
 10
5219.673057123656
 20
7037.497424545789
 30
0.0
 11
5164.673057123655
 21
7037.497424545789
 31
0.0
  0
LINE
  5
161B7
330
747D
100
AcDbEntity
  8
部品1
100
AcDbLine
 10
5192.673057123638
 20
7037.497424545825
 30
0.0
 11
5164.673057123655
 21
7037.497424545825
 31
0.0
  0
LINE
  5
161B8
330
747D
100
AcDbEntity
  8
部品1
100
AcDbLine
 10
5192.673057123655
 20
7037.49742454584
 30
0.0
 11
5164.673057123655
 21
7037.49742454584
 31
0.0
  0
LINE
  5
161B9
330
747D
100
AcDbEntity
  8
部品1
 48
50.0
100
AcDbLine
 10
5267.673057123657
 20
7008.497424545865
 30
0.0
 11
5267.673057123657
 21
7017.497424545865
 31
0.0
  0
LINE
  5
161BA
330
747D
100
AcDbEntity
  8
部品1
 48
50.0
100
AcDbLine
 10
5267.673057123657
 20
7047.497424545865
 30
0.0
 11
5267.673057123657
 21
7038.497424545865
 31
0.0
  0
LINE
  5
161BC
330
747D
100
AcDbEntity
  8
部品1
 48
50.0
100
AcDbLine
 10
5193.173057123662
 20
8322.497424545865
 30
0.0
 11
5193.173057123663
 21
7872.497424545866
 31
0.0
  0
LINE
  5
161BD
330
747D
100
AcDbEntity
  8
破線
  6
HIDDEN
 48
10.0
100
AcDbLine
 10
5244.673057123649
 20
7137.497424545746
 30
0.0
 11
5244.673057123639
 21
7872.497424545874
 31
0.0
  0
LINE
  5
161BE
330
747D
100
AcDbEntity
  8
部品1
100
AcDbLine
 10
7319.673057123647
 20
7457.497424545839
 30
0.0
 11
5219.673057123649
 21
7457.497424545841
 31
0.0
  0
LINE
  5
161BF
330
747D
100
AcDbEntity
  8
部品1
100
AcDbLine
 10
5192.673057123638
 20
7877.49742454584
 30
0.0
 11
5164.673057123637
 21
7877.49742454584
 31
0.0
  0
LINE
  5
161C0
330
747D
100
AcDbEntity
  8
部品1
100
AcDbLine
 10
5192.673057123631
 20
8297.49742454584
 30
0.0
 11
5164.67305712363
 21
8297.49742454584
 31
0.0
  0
DIMENSION
  5
161C1
330
747D
100
AcDbEntity
  8
寸法
100
AcDbDimension
  2
*D8
 10
5219.673057123663
 20
8868.305644170851
 30
0.0
 11
4856.18777574939
 21
8868.305644170851
 31
0.0
 70
   160
 71
     5
 42
55.00000000003456
  3
INABA_S40G
100
AcDbAlignedDimension
 13
5164.673057123629
 23
8352.49742454587
 33
0.0
 14
5219.673057123663
 24
8352.49742454587
 34
0.0
100
AcDbRotatedDimension
1001
ACAD
1000
DSTYLE
1002
{
1002
}
  0
LINE
  5
161C2
330
747D
100
AcDbEntity
  8
部品1
100
AcDbLine
 10
5219.673057123628
 20
8352.497424545836
 30
0.0
 11
5219.67305712363
 21
8324.497424545837
 31
0.0
  0
LINE
  5
161C3
330
747D
100
AcDbEntity
  8
部品1
100
AcDbLine
 10
5219.673057123663
 20
8352.49742454587
 30
0.0
 11
5219.673057123663
 21
8324.497424545869
 31
0.0
  0
DIMENSION
  5
161C4
330
747D
100
AcDbEntity
  8
寸法
100
AcDbDimension
  2
*D9
 10
7256.97890240917
 20
7539.620307413279
 30
0.0
 11
6872.520119241932
 21
7539.620307413279
 31
0.0
 70
   160
 71
     5
 42
-1.0
  3
INABA_S40G
100
AcDbAlignedDimension
 13
6493.173057123662
 23
7872.497424545975
 33
0.0
 14
7346.173057123675
 24
7872.497424545968
 34
0.0
100
AcDbRotatedDimension
1001
ACAD
1000
DSTYLE
1002
{
1002
}
  0
LINE
  5
161C5
330
747D
100
AcDbEntity
  8
部品1
100
AcDbLine
 10
7319.673057123655
 20
7872.497424545968
 30
0.0
 11
7319.67305712364
 21
6982.497424545953
 31
0.0
  0
LINE
  5
161C6
330
747D
100
AcDbEntity
  8
部品1
100
AcDbLine
 10
7346.673057123664
 20
8324.497424545963
 30
0.0
 11
7346.673057123641
 21
7037.497424545953
 31
0.0
  0
LINE
  5
161C8
330
747D
100
AcDbEntity
  8
部品1
100
AcDbLine
 10
7374.673057123664
 20
8352.497424545964
 30
0.0
 11
7374.673057123638
 21
6982.497424545956
 31
0.0
  0
DIMENSION
  5
161C9
330
747D
100
AcDbEntity
  8
寸法
100
AcDbDimension
  2
*D10
 10
8022.099402858072
 20
7037.497424545951
 30
0.0
 11
7922.087591834451
 21
7667.49742454596
 31
0.0
 70
    32
  1
3X420=<>
 71
     5
 42
-1.0
  3
INABA_S40G
100
AcDbAlignedDimension
 13
7374.673057123664
 23
8297.497424545968
 33
0.0
 14
7374.673057123638
 24
7037.497424545953
 34
0.0
 50
90.0
100
AcDbRotatedDimension
1001
ACAD
1000
DSTYLE
1002
{
1002
}
  0
DIMENSION
  5
161CA
330
747D
100
AcDbEntity
  8
寸法
 48
50.0
100
AcDbDimension
  2
*D11
 10
7271.673057123638
 20
6448.066653779701
 30
0.0
 11
7160.710159474891
 21
6548.0666537797
 31
0.0
 70
   160
 71
     5
 42
-1.0
  3
INABA_S40G
100
AcDbAlignedDimension
 13
7319.67305712364
 23
6982.497424545953
 33
0.0
 14
7271.673057123638
 24
7008.497424545865
 34
0.0
100
AcDbRotatedDimension
1001
ACAD
1000
DSTYLE
1002
{
1070
   279
1070
     2
1002
}
  0
DIMENSION
  5
161CB
330
747D
100
AcDbEntity
  8
寸法
 48
50.0
100
AcDbDimension
  2
*D12
 10
7319.67305712364
 20
6448.066653779702
 30
0.0
 11
7683.158338497877
 21
6448.066653779702
 31
0.0
 70
   160
 71
     5
 42
-1.0
  3
INABA_S40G
100
AcDbAlignedDimension
 13
7374.673057123638
 23
6982.497424545956
 33
0.0
 14
7319.67305712364
 24
6982.497424545953
 34
0.0
100
AcDbRotatedDimension
1001
ACAD
1000
DSTYLE
1002
{
1002
}
  0
DIMENSION
  5
161CC
330
747D
100
AcDbEntity
  8
寸法
100
AcDbDimension
  2
*D13
 10
8022.099402858048
 20
6982.497424545956
 30
0.0
 11
8022.099402858048
 21
6604.635957641093
 31
0.0
 70
   160
 71
     5
 42
-1.0
  3
INABA_S40G
100
AcDbAlignedDimension
 13
7374.673057123638
 23
7037.497424545953
 33
0.0
 14
7374.673057123638
 24
6982.497424545956
 34
0.0
 50
90.0
100
AcDbRotatedDimension
1001
ACAD
1000
DSTYLE
1002
{
1002
}
  0
LINE
  5
161CD
330
747D
100
AcDbEntity
  8
部品1
 48
50.0
100
AcDbLine
 10
7309.673057123639
 20
7008.497424545864
 30
0.0
 11
7319.673057123639
 21
6987.497424545864
 31
0.0
  0
LINE
  5
161CE
330
747D
100
AcDbEntity
  8
部品1
100
AcDbLine
 10
7319.673057123639
 20
7018.497424545863
 30
0.0
 11
7342.673057123639
 21
7018.497424545863
 31
0.0
  0
LINE
  5
161CF
330
747D
100
AcDbEntity
  8
部品1
 48
50.0
100
AcDbLine
 10
7271.673057123638
 20
7047.497424545865
 30
0.0
 11
7271.673057123638
 21
7038.497424545865
 31
0.0
  0
LINE
  5
161D0
330
747D
100
AcDbEntity
  8
部品1
100
AcDbLine
 10
7271.673057123638
 20
7047.497424545865
 30
0.0
 11
7319.67305712364
 21
7047.497424545864
 31
0.0
  0
LINE
  5
161D1
330
747D
100
AcDbEntity
  8
部品1
 48
50.0
100
AcDbLine
 10
7271.673057123638
 20
7008.497424545865
 30
0.0
 11
7271.673057123638
 21
7017.497424545865
 31
0.0
  0
LINE
  5
161D2
330
747D
100
AcDbEntity
  8
部品1
100
AcDbLine
 10
7271.673057123638
 20
7008.497424545865
 30
0.0
 11
7319.673057123639
 21
7008.497424545864
 31
0.0
  0
LINE
  5
161D3
330
747D
100
AcDbEntity
  8
部品1
100
AcDbLine
 10
7319.673057123639
 20
7037.497424545967
 30
0.0
 11
7374.673057123671
 21
7037.497424545967
 31
0.0
  0
LINE
  5
161D4
330
747D
100
AcDbEntity
  8
部品1
100
AcDbLine
 10
7374.673057123638
 20
6982.497424545956
 30
0.0
 11
7319.67305712364
 21
6982.497424545953
 31
0.0
  0
LINE
  5
161D7
330
747D
100
AcDbEntity
  8
細線
 48
50.0
100
AcDbLine
 10
7346.173057123664
 20
8322.497424545963
 30
0.0
 11
6493.173057123662
 21
7872.497424545975
 31
0.0
  0
LINE
  5
161D8
330
747D
100
AcDbEntity
  8
部品1
100
AcDbLine
 10
6493.173057123662
 20
7872.497424545975
 30
0.0
 11
7346.173057123664
 21
7872.497424545968
 31
0.0
  0
LINE
  5
161D9
330
747D
100
AcDbEntity
  8
細線
 48
50.0
100
AcDbLine
 10
7346.173057123664
 20
7872.497424545968
 30
0.0
 11
6493.173057123662
 21
8322.497424545968
 31
0.0
  0
LINE
  5
161DA
330
747D
100
AcDbEntity
  8
部品1
100
AcDbLine
 10
6492.173057123664
 20
8324.497424545981
 30
0.0
 11
7346.673057123664
 21
8324.497424545963
 31
0.0
  0
LINE
  5
161DB
330
747D
100
AcDbEntity
  8
部品1
100
AcDbLine
 10
6493.173057123662
 20
8322.49742454597
 30
0.0
 11
7346.173057123664
 21
8322.497424545963
 31
0.0
  0
LINE
  5
161DC
330
747D
100
AcDbEntity
  8
部品1
 48
50.0
100
AcDbLine
 10
6466.173057123663
 20
8322.49742454597
 30
0.0
 11
6466.173057123663
 21
7872.497424545975
 31
0.0
  0
LINE
  5
161DD
330
747D
100
AcDbEntity
  8
部品1
 48
50.0
100
AcDbLine
 10
6493.173057123662
 20
8322.497424545968
 30
0.0
 11
6493.173057123662
 21
7872.497424545975
 31
0.0
  0
LINE
  5
161DE
330
747D
100
AcDbEntity
  8
部品1
 48
50.0
100
AcDbLine
 10
6467.173057123662
 20
8324.497424545979
 30
0.0
 11
6467.173057123663
 21
7872.497424545975
 31
0.0
  0
LINE
  5
161DF
330
747D
100
AcDbEntity
  8
部品1
 48
50.0
100
AcDbLine
 10
6492.173057123664
 20
8324.497424545974
 30
0.0
 11
6492.173057123664
 21
7872.497424545975
 31
0.0
  0
LINE
  5
161E2
330
747D
100
AcDbEntity
  8
部品1
100
AcDbLine
 10
6467.173057123663
 20
7872.497424545975
 30
0.0
 11
6492.173057123664
 21
7872.497424545975
 31
0.0
  0
LINE
  5
161E3
330
747D
100
AcDbEntity
  8
部品1
100
AcDbLine
 10
5639.673057123663
 20
8352.497424545985
 30
0.0
 11
5639.673057123663
 21
8324.497424545986
 31
0.0
  0
LINE
  5
161E4
330
747D
100
AcDbEntity
  8
部品1
100
AcDbLine
 10
5639.673057123663
 20
8352.49742454587
 30
0.0
 11
5639.673057123663
 21
8324.497424545869
 31
0.0
  0
LINE
  5
161E5
330
747D
100
AcDbEntity
  8
部品1
100
AcDbLine
 10
5639.673057123663
 20
8352.49742454587
 30
0.0
 11
5639.673057123663
 21
8324.497424545869
 31
0.0
  0
LINE
  5
161E6
330
747D
100
AcDbEntity
  8
部品1
100
AcDbLine
 10
6059.673057123664
 20
8352.497424545985
 30
0.0
 11
6059.673057123664
 21
8324.497424545986
 31
0.0
  0
LINE
  5
161E7
330
747D
100
AcDbEntity
  8
部品1
100
AcDbLine
 10
6059.673057123664
 20
8352.49742454587
 30
0.0
 11
6059.673057123664
 21
8324.497424545869
 31
0.0
  0
LINE
  5
161E8
330
747D
100
AcDbEntity
  8
部品1
100
AcDbLine
 10
6059.673057123664
 20
8352.49742454587
 30
0.0
 11
6059.673057123664
 21
8324.497424545869
 31
0.0
  0
LINE
  5
161E9
330
747D
100
AcDbEntity
  8
部品1
100
AcDbLine
 10
6479.673057123664
 20
8352.497424545985
 30
0.0
 11
6479.673057123664
 21
8324.497424545986
 31
0.0
  0
LINE
  5
161EA
330
747D
100
AcDbEntity
  8
部品1
100
AcDbLine
 10
6467.173057123663
 20
8316.497424545968
 30
0.0
 11
6492.173057123664
 21
8316.497424545969
 31
0.0
  0
LINE
  5
161EB
330
747D
100
AcDbEntity
  8
部品1
100
AcDbLine
 10
6508.673057123663
 20
8342.497424545971
 30
0.0
 11
6514.673057123663
 21
8342.497424545971
 31
0.0
  0
LINE
  5
161EC
330
747D
100
AcDbEntity
  8
部品1
100
AcDbLine
 10
6514.673057123663
 20
8342.497424545971
 30
0.0
 11
6514.673057123663
 21
8324.497424545972
 31
0.0
  0
LINE
  5
161ED
330
747D
100
AcDbEntity
  8
部品1
100
AcDbLine
 10
6444.673057123663
 20
8342.497424545971
 30
0.0
 11
6450.673057123663
 21
8342.497424545971
 31
0.0
  0
LINE
  5
161EE
330
747D
100
AcDbEntity
  8
部品1
100
AcDbLine
 10
6444.673057123663
 20
8342.497424545971
 30
0.0
 11
6444.673057123663
 21
8324.497424545972
 31
0.0
  0
LINE
  5
161EF
330
747D
100
AcDbEntity
  8
部品1
100
AcDbLine
 10
6899.673057123663
 20
8352.497424545985
 30
0.0
 11
6899.673057123663
 21
8324.497424545986
 31
0.0
  0
DIMENSION
  5
161F0
330
747D
100
AcDbEntity
  8
寸法
100
AcDbDimension
  2
*D14
 10
7701.530782985688
 20
7777.279608877077
 30
0.0
 11
7601.530782985688
 21
8422.279608877076
 31
0.0
 12
0.0
 22
-420.0
 32
0.0
 70
    32
 71
     5
 42
-1.0
  3
INABA_S40G
100
AcDbAlignedDimension
 13
7346.173057123664
 23
8322.497424545963
 33
0.0
 14
7346.173057123664
 24
7872.497424545968
 34
0.0
 50
90.0
100
AcDbRotatedDimension
1001
ACAD
1000
DSTYLE
1002
{
1002
}
  0
LINE
  5
161F1
330
747D
100
AcDbEntity
  8
部品1
100
AcDbLine
 10
7346.173057123664
 20
8322.497424545963
 30
0.0
 11
7346.173057123664
 21
7872.497424545968
 31
0.0
  0
DIMENSION
  5
161F2
330
747D
100
AcDbEntity
  8
寸法
100
AcDbDimension
  2
*D15
 10
8022.099402858072
 20
8297.497424545968
 30
0.0
 11
8022.099402858072
 21
8660.982705920202
 31
0.0
 12
0.0
 22
-420.0
 32
0.0
 70
   160
 71
     5
 42
-1.0
  3
INABA_S40G
100
AcDbAlignedDimension
 13
7374.673057123664
 23
8352.497424545964
 33
0.0
 14
7374.673057123664
 24
8297.497424545968
 34
0.0
 50
90.0
100
AcDbRotatedDimension
1001
ACAD
1000
DSTYLE
1002
{
1002
}
  0
LINE
  5
161F3
330
747D
100
AcDbEntity
  8
破線
  6
HIDDEN
 48
10.0
100
AcDbLine
 10
7294.673057123667
 20
7137.497424545863
 30
0.0
 11
7294.673057123652
 21
7872.497424545874
 31
0.0
  0
LINE
  5
161F4
330
747D
100
AcDbEntity
  8
部品1
100
AcDbLine
 10
7346.673057123668
 20
7457.497424545967
 30
0.0
 11
7374.673057123668
 21
7457.497424545967
 31
0.0
  0
LINE
  5
161F5
330
747D
100
AcDbEntity
  8
部品1
100
AcDbLine
 10
7346.673057123664
 20
7877.497424545968
 30
0.0
 11
7374.673057123664
 21
7877.497424545968
 31
0.0
  0
LINE
  5
161F6
330
747D
100
AcDbEntity
  8
部品1
100
AcDbLine
 10
7346.673057123664
 20
8297.497424545968
 30
0.0
 11
7374.673057123664
 21
8297.497424545968
 31
0.0
  0
DIMENSION
  5
161F7
330
747D
100
AcDbEntity
  8
寸法
100
AcDbDimension
  2
*D16
 10
7374.673057123664
 20
8868.305644170948
 30
0.0
 11
7683.158338497903
 21
8868.305644170948
 31
0.0
 70
   160
 71
     5
 42
55.0
  3
INABA_S40G
100
AcDbAlignedDimension
 13
7319.673057123664
 23
8352.497424545964
 33
0.0
 14
7374.673057123664
 24
8352.497424545964
 34
0.0
100
AcDbRotatedDimension
1001
ACAD
1000
DSTYLE
1002
{
1002
}
  0
LINE
  5
161F8
330
747D
100
AcDbEntity
  8
部品1
100
AcDbLine
 10
7319.673057123664
 20
8352.497424545964
 30
0.0
 11
7319.673057123664
 21
8324.497424545963
 31
0.0
  0
LINE
  5
161F9
330
747D
100
AcDbEntity
  8
部品1
100
AcDbLine
 10
7319.673057123664
 20
8352.497424545985
 30
0.0
 11
7319.673057123664
 21
8324.497424545986
 31
0.0
  0
LINE
  5
16462
330
747D
100
AcDbEntity
  8
部品1
 48
50.0
100
AcDbLine
 10
7319.673057123674
 20
7067.497424545864
 30
0.0
 11
5219.673057123654
 21
7067.497424545745
 31
0.0
  0
LINE
  5
16463
330
747D
100
AcDbEntity
  8
部品1
 48
50.0
100
AcDbLine
 10
7319.673057123674
 20
7112.497424545864
 30
0.0
 11
5219.673057123653
 21
7112.497424545745
 31
0.0
  0
LINE
  5
16468
330
747D
100
AcDbEntity
  8
部品1
 48
50.0
100
AcDbLine
 10
5231.673057123652
 20
7027.997424545863
 30
0.0
 11
7307.67305712364
 21
7027.997424545863
 31
0.0
  0
LINE
  5
16484
330
747D
100
AcDbEntity
  8
破線
  6
HIDDEN
 48
10.0
100
AcDbLine
 10
7294.67305712381
 20
7137.497424545863
 30
0.0
 11
6640.173057123681
 21
7137.497424545824
 31
0.0
  0
LINE
  5
16574
330
747D
100
AcDbEntity
  8
部品1
100
AcDbLine
 10
5192.673057123641
 20
7457.497424545841
 30
0.0
 11
5164.673057123643
 21
7457.497424545839
 31
0.0
  0
LINE
  5
16575
330
747D
100
AcDbEntity
  8
破線
  6
HIDDEN
 48
10.0
100
AcDbLine
 10
6590.173057123684
 20
7137.497424545824
 30
0.0
 11
5949.173057123678
 21
7137.497424545786
 31
0.0
  0
LINE
  5
16679
330
747D
100
AcDbEntity
  8
部品1
 48
50.0
100
AcDbLine
 10
5219.673057123653
 20
6982.497424545865
 30
0.0
 11
7319.67305712364
 21
6982.49742454583
 31
0.0
  0
LINE
  5
1674D
330
747D
100
AcDbEntity
  8
仕様書枠
 48
50.0
100
AcDbLine
 10
16307.19999999999
 20
8519.600000000002
 30
0.0
 11
13127.19999999999
 21
8519.600000000002
 31
0.0
  0
TEXT
  5
1674E
330
747D
100
AcDbEntity
  8
文字
 62
     7
 48
50.0
100
AcDbText
 10
13248.77747366448
 20
8380.013745883731
 30
0.0
 40
100.0
  1
16
  7
STYLE1
100
AcDbText
  0
TEXT
  5
1674F
330
747D
100
AcDbEntity
  8
文字
 62
     7
 48
50.0
100
AcDbText
 10
13583.11819016569
 20
8380.013745883731
 30
0.0
 40
100.0
  1
アンカープレート
  7
STYLE1
100
AcDbText
  0
TEXT
  5
16750
330
747D
100
AcDbEntity
  8
文字
 62
     7
 48
50.0
100
AcDbText
 10
15022.63965474515
 20
8380.013745883726
 30
0.0
 40
100.0
  1
F12            2.3
  7
STYLE1
100
AcDbText
  0
LINE
  5
16751
330
747D
100
AcDbEntity
  8
仕様書枠
 48
50.0
100
AcDbLine
 10
16307.19999999999
 20
9879.599999999999
 30
0.0
 11
13127.19999999999
 21
9879.600000000001
 31
0.0
  0
LINE
  5
16752
330
747D
100
AcDbEntity
  8
仕様書枠
 48
50.0
100
AcDbLine
 10
16307.19999999999
 20
11239.6
 30
0.0
 11
13127.2
 21
11239.6
 31
0.0
  0
LINE
  5
16753
330
747D
100
AcDbEntity
  8
仕様書枠
 48
50.0
100
AcDbLine
 10
16307.19999999999
 20
7839.600000000007
 30
0.0
 11
16307.2
 21
11239.6
 31
0.0
  0
LINE
  5
16754
330
747D
100
AcDbEntity
  8
仕様書枠
 48
50.0
100
AcDbLine
 10
14785.2
 20
11239.59999999999
 30
0.0
 11
14785.2
 21
8349.600000000007
 31
0.0
  0
LINE
  5
16755
330
747D
100
AcDbEntity
  8
仕様書枠
 48
50.0
100
AcDbLine
 10
13490.2
 20
11239.6
 30
0.0
 11
13490.20000000001
 21
8349.600000000007
 31
0.0
  0
LINE
  5
16756
330
747D
100
AcDbEntity
  8
仕様書枠
 48
50.0
100
AcDbLine
 10
16307.19999999999
 20
11069.6
 30
0.0
 11
13127.2
 21
11069.6
 31
0.0
  0
LINE
  5
16757
330
747D
100
AcDbEntity
  8
仕様書枠
 48
50.0
100
AcDbLine
 10
16307.19999999999
 20
10729.6
 30
0.0
 11
13127.2
 21
10729.6
 31
0.0
  0
LINE
  5
16758
330
747D
100
AcDbEntity
  8
仕様書枠
 48
50.0
100
AcDbLine
 10
16307.19999999999
 20
10899.6
 30
0.0
 11
13127.2
 21
10899.6
 31
0.0
  0
LINE
  5
16759
330
747D
100
AcDbEntity
  8
仕様書枠
 48
50.0
100
AcDbLine
 10
16307.19999999999
 20
10389.6
 30
0.0
 11
13127.19999999999
 21
10389.6
 31
0.0
  0
LINE
  5
1675A
330
747D
100
AcDbEntity
  8
仕様書枠
 48
50.0
100
AcDbLine
 10
16307.19999999999
 20
10219.6
 30
0.0
 11
13127.19999999999
 21
10219.6
 31
0.0
  0
LINE
  5
1675B
330
747D
100
AcDbEntity
  8
仕様書枠
 48
50.0
100
AcDbLine
 10
16307.19999999999
 20
10559.6
 30
0.0
 11
13127.19999999999
 21
10559.6
 31
0.0
  0
TEXT
  5
1675C
330
747D
100
AcDbEntity
  8
文字
 62
     7
 48
50.0
100
AcDbText
 10
13197.42518560407
 20
11100.01374588373
 30
0.0
 40
100.0
  1
品番
  7
STYLE1
100
AcDbText
  0
TEXT
  5
1675D
330
747D
100
AcDbEntity
  8
文字
 62
     7
 48
50.0
100
AcDbText
 10
13271.19032244792
 20
10930.01374588373
 30
0.0
 40
100.0
  1
1
  7
STYLE1
100
AcDbText
  0
TEXT
  5
1675E
330
747D
100
AcDbEntity
  8
文字
 62
     7
 48
50.0
100
AcDbText
 10
13271.19032244792
 20
10760.01374588373
 30
0.0
 40
100.0
  1
2
  7
STYLE1
100
AcDbText
  0
TEXT
  5
1675F
330
747D
100
AcDbEntity
  8
文字
 62
     7
 48
50.0
100
AcDbText
 10
13271.19032244792
 20
10420.01374588373
 30
0.0
 40
100.0
  1
4
  7
STYLE1
100
AcDbText
  0
TEXT
  5
16760
330
747D
100
AcDbEntity
  8
文字
 62
     7
 48
50.0
100
AcDbText
 10
13271.19032244792
 20
10590.01374588373
 30
0.0
 40
100.0
  1
3
  7
STYLE1
100
AcDbText
  0
TEXT
  5
16761
330
747D
100
AcDbEntity
  8
文字
 62
     7
 48
50.0
100
AcDbText
 10
13732.03840939434
 20
11100.01374588373
 30
0.0
 40
100.0
  1
部　　品　　名
  7
STYLE1
100
AcDbText
  0
TEXT
  5
16762
330
747D
100
AcDbEntity
  8
文字
 62
     7
 48
50.0
100
AcDbText
 10
14859.79774614482
 20
11100.01374588373
 30
0.0
 40
100.0
  1
材料（材質）　　単位mm
  7
STYLE1
100
AcDbText
  0
TEXT
  5
16763
330
747D
100
AcDbEntity
  8
文字
 62
     7
 48
50.0
100
AcDbText
 10
13583.11819016569
 20
10930.01374588372
 30
0.0
 40
100.0
  1
土台枠
  7
STYLE1
100
AcDbText
  0
TEXT
  5
16764
330
747D
100
AcDbEntity
  8
文字
 62
     7
 48
50.0
100
AcDbText
 10
13583.11819016569
 20
10760.01374588372
 30
0.0
 40
100.0
  1
柱
  7
STYLE1
100
AcDbText
  0
TEXT
  5
16765
330
747D
100
AcDbEntity
  8
文字
 62
     7
 48
50.0
100
AcDbText
 10
13583.11819016569
 20
10590.01374588373
 30
0.0
 40
100.0
  1
桁前
  7
STYLE1
100
AcDbText
  0
TEXT
  5
16766
330
747D
100
AcDbEntity
  8
文字
 62
     7
 48
50.0
100
AcDbText
 10
13583.11819016569
 20
10420.01374588373
 30
0.0
 40
100.0
  1
桁後
  7
STYLE1
100
AcDbText
  0
TEXT
  5
16767
330
747D
100
AcDbEntity
  8
文字
 62
     7
 48
50.0
100
AcDbText
 10
13271.19032244792
 20
10250.01374588373
 30
0.0
 40
100.0
  1
5
  7
STYLE1
100
AcDbText
  0
TEXT
  5
16768
330
747D
100
AcDbEntity
  8
文字
 62
     7
 48
50.0
100
AcDbText
 10
13583.11819016569
 20
10250.01374588373
 30
0.0
 40
100.0
  1
妻板左右
  7
STYLE1
100
AcDbText
  0
TEXT
  5
16769
330
747D
100
AcDbEntity
  8
文字
 62
     7
 48
50.0
100
AcDbText
 10
13583.11819016569
 20
9060.013745883727
 30
0.0
 40
100.0
  1
シャッターレール
  7
STYLE1
100
AcDbText
  0
TEXT
  5
1676A
330
747D
100
AcDbEntity
  8
文字
 62
     7
 48
50.0
100
AcDbText
 10
13248.77747366448
 20
9400.013745883727
 30
0.0
 40
100.0
  1
10
  7
STYLE1
100
AcDbText
  0
TEXT
  5
1676B
330
747D
100
AcDbEntity
  8
文字
 62
     7
 48
50.0
100
AcDbText
 10
13583.11819016569
 20
9570.013745883729
 30
0.0
 40
100.0
  1
壁パネル
  7
STYLE1
100
AcDbText
  0
TEXT
  5
1676C
330
747D
100
AcDbEntity
  8
文字
 62
     7
 48
50.0
100
AcDbText
 10
13583.11819016569
 20
9740.013745883729
 30
0.0
 40
100.0
  1
屋根パネル
  7
STYLE1
100
AcDbText
  0
TEXT
  5
1676D
330
747D
100
AcDbEntity
  8
文字
 62
     7
 48
50.0
100
AcDbText
 10
13583.11819016569
 20
9910.013745883727
 30
0.0
 40
100.0
  1
母屋中
  7
STYLE1
100
AcDbText
  0
TEXT
  5
1676E
330
747D
100
AcDbEntity
  8
文字
 62
     7
 48
50.0
100
AcDbText
 10
13583.11819016569
 20
10080.01374588372
 30
0.0
 40
100.0
  1
鼻隠シ前後
  7
STYLE1
100
AcDbText
  0
TEXT
  5
1676F
330
747D
100
AcDbEntity
  8
文字
 62
     7
 48
50.0
100
AcDbText
 10
13271.19032244792
 20
9740.013745883729
 30
0.0
 40
100.0
  1
8
  7
STYLE1
100
AcDbText
  0
TEXT
  5
16770
330
747D
100
AcDbEntity
  8
文字
 62
     7
 48
50.0
100
AcDbText
 10
13271.19032244792
 20
9570.013745883729
 30
0.0
 40
100.0
  1
9
  7
STYLE1
100
AcDbText
  0
TEXT
  5
16771
330
747D
100
AcDbEntity
  8
文字
 62
     7
 48
50.0
100
AcDbText
 10
13271.19032244792
 20
9910.01374588373
 30
0.0
 40
100.0
  1
7
  7
STYLE1
100
AcDbText
  0
TEXT
  5
16772
330
747D
100
AcDbEntity
  8
文字
 62
     7
 48
50.0
100
AcDbText
 10
13271.19032244792
 20
10080.01374588373
 30
0.0
 40
100.0
  1
6
  7
STYLE1
100
AcDbText
  0
LINE
  5
16773
330
747D
100
AcDbEntity
  8
仕様書枠
 48
50.0
100
AcDbLine
 10
16307.19999999999
 20
9539.599999999998
 30
0.0
 11
13127.19999999999
 21
9539.6
 31
0.0
  0
LINE
  5
16774
330
747D
100
AcDbEntity
  8
仕様書枠
 48
50.0
100
AcDbLine
 10
16307.19999999999
 20
9199.599999999998
 30
0.0
 11
13127.19999999999
 21
9199.600000000001
 31
0.0
  0
LINE
  5
16775
330
747D
100
AcDbEntity
  8
仕様書枠
 48
50.0
100
AcDbLine
 10
16307.19999999999
 20
9369.599999999998
 30
0.0
 11
13127.19999999999
 21
9369.600000000001
 31
0.0
  0
LINE
  5
16776
330
747D
100
AcDbEntity
  8
仕様書枠
 48
50.0
100
AcDbLine
 10
16307.19999999999
 20
10049.6
 30
0.0
 11
13127.2
 21
10049.6
 31
0.0
  0
LINE
  5
16777
330
747D
100
AcDbEntity
  8
仕様書枠
 48
50.0
100
AcDbLine
 10
16307.19999999999
 20
9709.6
 30
0.0
 11
13127.19999999999
 21
9709.600000000001
 31
0.0
  0
TEXT
  5
16778
330
747D
100
AcDbEntity
  8
文字
 62
     7
 48
50.0
100
AcDbText
 10
13248.77747366448
 20
9230.013745883727
 30
0.0
 40
100.0
  1
11
  7
STYLE1
100
AcDbText
  0
TEXT
  5
16779
330
747D
100
AcDbEntity
  8
文字
 62
     7
 48
50.0
100
AcDbText
 10
13583.11819016569
 20
9230.013745883727
 30
0.0
 40
100.0
  1
シャッターカバー
 41
0.9
  7
STYLE1
100
AcDbText
  0
LINE
  5
1677A
330
747D
100
AcDbEntity
  8
仕様書枠
 48
50.0
100
AcDbLine
 10
16307.19999999999
 20
9029.6
 30
0.0
 11
13127.19999999999
 21
9029.6
 31
0.0
  0
LINE
  5
1677B
330
747D
100
AcDbEntity
  8
仕様書枠
 48
50.0
100
AcDbLine
 10
16307.19999999999
 20
8349.600000000004
 30
0.0
 11
13127.19999999999
 21
8349.600000000007
 31
0.0
  0
TEXT
  5
1677C
330
747D
100
AcDbEntity
  8
文字
 62
     7
 48
50.0
100
AcDbText
 10
13583.11819016569
 20
9400.013745883731
 30
0.0
 40
100.0
  1
シャッター
  7
STYLE1
100
AcDbText
  0
TEXT
  5
1677D
330
747D
100
AcDbEntity
  8
文字
 62
     7
 48
50.0
100
AcDbText
 10
13248.77747366448
 20
8890.013745883729
 30
0.0
 40
100.0
  1
13
  7
STYLE1
100
AcDbText
  0
TEXT
  5
1677E
330
747D
100
AcDbEntity
  8
文字
 62
     7
 48
50.0
100
AcDbText
 10
13248.77747366448
 20
9060.013745883729
 30
0.0
 40
100.0
  1
12
  7
STYLE1
100
AcDbText
  0
TEXT
  5
1677F
330
747D
100
AcDbEntity
  8
文字
 62
     7
 48
50.0
100
AcDbText
 10
15022.63965474517
 20
10930.01374588372
 30
0.0
 40
100.0
  1
F12            1.2
  7
STYLE1
100
AcDbText
  0
TEXT
  5
16780
330
747D
100
AcDbEntity
  8
文字
 62
     7
 48
50.0
100
AcDbText
 10
15022.63965474517
 20
10760.01374588372
 30
0.0
 40
100.0
  1
F12         1.0,1.2
  7
STYLE1
100
AcDbText
  0
TEXT
  5
16781
330
747D
100
AcDbEntity
  8
文字
 62
     7
 48
50.0
100
AcDbText
 10
15022.63965474516
 20
10590.01374588372
 30
0.0
 40
100.0
  1
Y10            1.0
  7
STYLE1
100
AcDbText
  0
TEXT
  5
16782
330
747D
100
AcDbEntity
  8
文字
 62
     7
 48
50.0
100
AcDbText
 10
15022.63965474516
 20
10420.01374588372
 30
0.0
 40
100.0
  1
Y10            1.0
  7
STYLE1
100
AcDbText
  0
TEXT
  5
16783
330
747D
100
AcDbEntity
  8
文字
 62
     7
 48
50.0
100
AcDbText
 10
15022.63965474516
 20
10250.01374588372
 30
0.0
 40
100.0
  1
Y10            0.7
  7
STYLE1
100
AcDbText
  0
TEXT
  5
16784
330
747D
100
AcDbEntity
  8
文字
 62
     7
 48
50.0
100
AcDbText
 10
15022.63965474516
 20
10080.01374588372
 30
0.0
 40
100.0
  1
Y10            0.7
  7
STYLE1
100
AcDbText
  0
TEXT
  5
16785
330
747D
100
AcDbEntity
  8
文字
 62
     7
 48
50.0
100
AcDbText
 10
15022.63965474516
 20
9740.013745883725
 30
0.0
 40
100.0
  1
Y10            0.5
  7
STYLE1
100
AcDbText
  0
TEXT
  5
16786
330
747D
100
AcDbEntity
  8
文字
 62
     7
 48
50.0
100
AcDbText
 10
15022.63965474516
 20
9570.013745883725
 30
0.0
 40
100.0
  1
F12            0.7
  7
STYLE1
100
AcDbText
  0
TEXT
  5
16787
330
747D
100
AcDbEntity
  8
文字
 62
     7
 48
50.0
100
AcDbText
 10
14850.83183167176
 20
9060.013745883725
 30
0.0
 40
100.0
  1
アルミニウム合金押出形材
  7
STYLE1
100
AcDbText
  0
TEXT
  5
16789
330
747D
100
AcDbEntity
  8
文字
 62
     7
 48
50.0
100
AcDbText
 10
15022.63965474515
 20
9400.013745883727
 30
0.0
 40
100.0
  1
Z08            0.5
  7
STYLE1
100
AcDbText
  0
LINE
  5
1678A
330
747D
100
AcDbEntity
  8
仕様書枠
 48
50.0
100
AcDbLine
 10
16307.19999999998
 20
8179.600000000005
 30
0.0
 11
13127.19999999999
 21
8179.600000000007
 31
0.0
  0
LINE
  5
1678B
330
747D
100
AcDbEntity
  8
仕様書枠
 48
50.0
100
AcDbLine
 10
16307.19999999998
 20
8009.600000000006
 30
0.0
 11
13127.19999999999
 21
8009.600000000007
 31
0.0
  0
LINE
  5
1678C
330
747D
100
AcDbEntity
  8
仕様書枠
 48
50.0
100
AcDbLine
 10
16307.19999999998
 20
7839.600000000006
 30
0.0
 11
13127.19999999999
 21
7839.600000000007
 31
0.0
  0
TEXT
  5
1678D
330
747D
100
AcDbEntity
  8
文字
 62
     7
 48
50.0
100
AcDbText
 10
13229.83081656554
 20
8210.013745883735
 30
0.0
 40
100.0
  1
F12→溶融亜鉛めっき鋼板(JIS G 3302)
  7
STYLE1
100
AcDbText
  0
TEXT
  5
1678E
330
747D
100
AcDbEntity
  8
文字
 62
     7
 48
50.0
100
AcDbText
 10
13229.83081656554
 20
8040.013745883735
 30
0.0
 40
100.0
  1
Y10→溶融亜鉛-5％アルミニウム合金めっき鋼板(JIS G 3317)
 41
0.9
  7
STYLE1
100
AcDbText
  0
TEXT
  5
1678F
330
747D
100
AcDbEntity
  8
文字
 62
     7
 48
50.0
100
AcDbText
 10
13229.83081656554
 20
7870.013745883736
 30
0.0
 40
100.0
  1
Z08→塗装溶融亜鉛めっき鋼板(JIS G 3313)
  7
STYLE1
100
AcDbText
  0
LINE
  5
16790
330
747D
100
AcDbEntity
  8
仕様書枠
 48
50.0
100
AcDbLine
 10
13127.2
 20
11239.6
 30
0.0
 11
13127.19999999999
 21
7839.600000000007
 31
0.0
  0
TEXT
  5
16791
330
747D
100
AcDbEntity
  8
文字
 62
     7
 48
50.0
100
AcDbText
 10
14833.43123277338
 20
9915.516434800332
 30
0.0
 40
100.0
  1
F12    1.0(多雪地型  2.3)
  7
STYLE1
100
AcDbText
  0
LINE
  5
16792
330
747D
100
AcDbEntity
  8
仕様書枠
 48
50.0
100
AcDbLine
 10
16307.19999999999
 20
8689.6
 30
0.0
 11
13127.19999999999
 21
8689.600000000003
 31
0.0
  0
LINE
  5
16793
330
747D
100
AcDbEntity
  8
仕様書枠
 48
50.0
100
AcDbLine
 10
16307.19999999999
 20
8859.6
 30
0.0
 11
13127.19999999999
 21
8859.600000000002
 31
0.0
  0
TEXT
  5
16794
330
747D
100
AcDbEntity
  8
文字
 62
     7
 48
50.0
100
AcDbText
 10
13583.11819016569
 20
8720.013745883729
 30
0.0
 40
100.0
  1
床パネル
 41
0.9
  7
STYLE1
100
AcDbText
  0
TEXT
  5
16795
330
747D
100
AcDbEntity
  8
文字
 62
     7
 48
50.0
100
AcDbText
 10
13583.11819016569
 20
8550.013745883731
 30
0.0
 40
100.0
  1
棚板
  7
STYLE1
100
AcDbText
  0
TEXT
  5
16796
330
747D
100
AcDbEntity
  8
文字
 62
     7
 48
50.0
100
AcDbText
 10
13583.11819016569
 20
8890.013745883729
 30
0.0
 40
100.0
  1
根太
  7
STYLE1
100
AcDbText
  0
TEXT
  5
16797
330
747D
100
AcDbEntity
  8
文字
 62
     7
 48
50.0
100
AcDbText
 10
13248.77747366448
 20
8720.013745883729
 30
0.0
 40
100.0
  1
14
  7
STYLE1
100
AcDbText
  0
TEXT
  5
16798
330
747D
100
AcDbEntity
  8
文字
 62
     7
 48
50.0
100
AcDbText
 10
13248.77747366448
 20
8550.013745883731
 30
0.0
 40
100.0
  1
15
  7
STYLE1
100
AcDbText
  0
TEXT
  5
16799
330
747D
100
AcDbEntity
  8
文字
 62
     7
 48
50.0
100
AcDbText
 10
15022.63965474516
 20
8890.013745883726
 30
0.0
 40
100.0
  1
F12            1.2
  7
STYLE1
100
AcDbText
  0
TEXT
  5
1679A
330
747D
100
AcDbEntity
  8
文字
 62
     7
 48
50.0
100
AcDbText
 10
15022.63965474516
 20
8720.013745883727
 30
0.0
 40
100.0
  1
F12            1.0
  7
STYLE1
100
AcDbText
  0
TEXT
  5
1679B
330
747D
100
AcDbEntity
  8
文字
 62
     7
 48
50.0
100
AcDbText
 10
15022.63965474515
 20
8550.013745883726
 30
0.0
 40
100.0
  1
F12            0.6
  7
STYLE1
100
AcDbText
  0
TEXT
  5
16B1C
330
747D
100
AcDbEntity
  8
部品1
100
AcDbText
 10
5978.463127747382
 20
998.7329817761056
 30
0.0
 40
135.0
  1
正面図
  7
STYLE2
100
AcDbText
  0
LWPOLYLINE
  5
16B1D
330
747D
100
AcDbEntity
  8
部品1
100
AcDbPolyline
 90
        4
 70
     1
 43
0.0
 10
5887.937724009426
 20
1191.626510994629
 10
5887.937724009426
 20
951.7341894490964
 10
6651.408390237867
 20
951.7341894490964
 10
6651.408390237867
 20
1191.626510994629
  0
LWPOLYLINE
  5
16B1E
330
747D
100
AcDbEntity
  8
部品1
100
AcDbPolyline
 90
        4
 70
     1
 43
0.0
 10
5887.937724009426
 20
1191.626510994629
 10
5887.937724009426
 20
951.7341894490964
 10
6651.408390237867
 20
951.7341894490964
 10
6651.408390237867
 20
1191.626510994629
  0
TEXT
  5
16B1F
330
747D
100
AcDbEntity
  8
部品1
100
AcDbText
 10
5978.463127747382
 20
998.7329817761056
 30
0.0
 40
135.0
  1
正面図
  7
STYLE2
100
AcDbText
  0
LWPOLYLINE
  5
16B20
330
747D
100
AcDbEntity
  8
部品1
100
AcDbPolyline
 90
        4
 70
     1
 43
0.0
 10
10146.7379895518
 20
1191.626510994629
 10
10146.7379895518
 20
951.7341894490964
 10
10910.20865578024
 20
951.7341894490964
 10
10910.20865578024
 20
1191.626510994629
  0
TEXT
  5
16B21
330
747D
100
AcDbEntity
  8
部品1
100
AcDbText
 10
10236.18409097541
 20
998.7329817761056
 30
0.0
 40
135.0
  1
側面図
  7
STYLE2
100
AcDbText
  0
TEXT
  5
16B22
330
747D
100
AcDbEntity
  8
部品1
100
AcDbText
 10
5977.857333838482
 20
5786.608688371334
 30
0.0
 40
135.0
  1
平面図
  7
STYLE2
100
AcDbText
  0
LWPOLYLINE
  5
16B23
330
747D
100
AcDbEntity
  8
部品1
100
AcDbPolyline
 90
        4
 70
     1
 43
0.0
 10
5887.937724009443
 20
5979.502217589857
 10
5887.937724009443
 20
5739.609896044324
 10
6651.408390237882
 20
5739.609896044324
 10
6651.408390237882
 20
5979.502217589857
  0
LINE
  5
16B24
330
747D
100
AcDbEntity
  8
細線
 48
50.0
100
AcDbLine
 10
9965.973322666023
 20
4081.626510994629
 30
0.0
 11
9965.973322666023
 21
1991.62651099463
 31
0.0
  0
LINE
  5
16B25
330
747D
100
AcDbEntity
  8
細線
 48
50.0
100
AcDbLine
 10
9950.973322666023
 20
4081.626510994629
 30
0.0
 11
9950.973322666023
 21
1991.62651099463
 31
0.0
  0
LINE
  5
16B26
330
747D
100
AcDbEntity
  8
細線
 48
50.0
100
AcDbLine
 10
10090.97332266602
 20
4081.626510994629
 30
0.0
 11
10090.97332266602
 21
1991.62651099463
 31
0.0
  0
LINE
  5
16B27
330
747D
100
AcDbEntity
  8
細線
 48
50.0
100
AcDbLine
 10
10105.97332266602
 20
4081.626510994629
 30
0.0
 11
10105.97332266602
 21
1991.62651099463
 31
0.0
  0
LINE
  5
16B28
330
747D
100
AcDbEntity
  8
細線
 48
50.0
100
AcDbLine
 10
10245.97332266602
 20
4081.626510994629
 30
0.0
 11
10245.97332266602
 21
1991.62651099463
 31
0.0
  0
LINE
  5
16B29
330
747D
100
AcDbEntity
  8
細線
 48
50.0
100
AcDbLine
 10
10230.97332266602
 20
4081.626510994629
 30
0.0
 11
10230.97332266602
 21
1991.62651099463
 31
0.0
  0
LINE
  5
16B2A
330
747D
100
AcDbEntity
  8
細線
 48
50.0
100
AcDbLine
 10
10650.97332266602
 20
4081.626510994629
 30
0.0
 11
10650.97332266602
 21
1991.62651099463
 31
0.0
  0
LINE
  5
16B2B
330
747D
100
AcDbEntity
  8
細線
 48
50.0
100
AcDbLine
 10
10665.97332266602
 20
4081.626510994629
 30
0.0
 11
10665.97332266602
 21
1991.62651099463
 31
0.0
  0
LINE
  5
16B2C
330
747D
100
AcDbEntity
  8
細線
 48
50.0
100
AcDbLine
 10
10525.97332266602
 20
4081.626510994629
 30
0.0
 11
10525.97332266602
 21
1991.62651099463
 31
0.0
  0
LINE
  5
16B2D
330
747D
100
AcDbEntity
  8
細線
 48
50.0
100
AcDbLine
 10
10510.97332266602
 20
4081.626510994629
 30
0.0
 11
10510.97332266602
 21
1991.62651099463
 31
0.0
  0
LINE
  5
16B2E
330
747D
100
AcDbEntity
  8
細線
 48
50.0
100
AcDbLine
 10
10370.97332266602
 20
4081.626510994629
 30
0.0
 11
10370.97332266602
 21
1991.62651099463
 31
0.0
  0
LINE
  5
16B2F
330
747D
100
AcDbEntity
  8
細線
 48
50.0
100
AcDbLine
 10
10385.97332266602
 20
4081.626510994629
 30
0.0
 11
10385.97332266602
 21
1991.62651099463
 31
0.0
  0
LINE
  5
16B30
330
747D
100
AcDbEntity
  8
細線
 48
50.0
100
AcDbLine
 10
10805.97332266602
 20
4081.626510994629
 30
0.0
 11
10805.97332266602
 21
1991.62651099463
 31
0.0
  0
LINE
  5
16B31
330
747D
100
AcDbEntity
  8
細線
 48
50.0
100
AcDbLine
 10
10790.97332266602
 20
4081.626510994629
 30
0.0
 11
10790.97332266602
 21
1991.62651099463
 31
0.0
  0
LINE
  5
16B32
330
747D
100
AcDbEntity
  8
細線
 48
50.0
100
AcDbLine
 10
10930.97332266603
 20
4081.626510994629
 30
0.0
 11
10930.97332266602
 21
1991.62651099463
 31
0.0
  0
LINE
  5
16B33
330
747D
100
AcDbEntity
  8
細線
 48
50.0
100
AcDbLine
 10
10945.97332266603
 20
4081.626510994629
 30
0.0
 11
10945.97332266602
 21
1991.62651099463
 31
0.0
  0
LINE
  5
16B34
330
747D
100
AcDbEntity
  8
細線
 48
50.0
100
AcDbLine
 10
11085.97332266602
 20
4081.626510994629
 30
0.0
 11
11085.97332266602
 21
1991.62651099463
 31
0.0
  0
LINE
  5
16B35
330
747D
100
AcDbEntity
  8
細線
 48
50.0
100
AcDbLine
 10
11070.97332266602
 20
4081.626510994629
 30
0.0
 11
11070.97332266602
 21
1991.62651099463
 31
0.0
  0
ARC
  5
16B36
330
747D
100
AcDbEntity
  8
部品1
100
AcDbCircle
 10
11269.10085847996
 20
4155.060311878846
 30
0.0
 40
0.7
100
AcDbArc
 50
275.0921697642102
 51
354.1866997667087
  0
ARC
  5
16B37
330
747D
100
AcDbEntity
  8
部品1
100
AcDbCircle
 10
11279.96020422929
 20
4232.10356669677
 30
0.0
 40
0.7
100
AcDbArc
 50
275.0921697642102
 51
354.1866997665532
  0
ARC
  5
16B38
330
747D
100
AcDbEntity
  8
部品1
100
AcDbCircle
 10
11280.28860947189
 20
4228.41816983968
 30
0.0
 40
3.0
100
AcDbArc
 50
95.09216976441896
 51
174.1866997665532
  0
ARC
  5
16B39
330
747D
100
AcDbEntity
  8
部品1
100
AcDbCircle
 10
11269.42926372256
 20
4151.374915021756
 30
0.0
 40
3.0
100
AcDbArc
 50
95.0921697642102
 51
174.1866997665532
  0
ARC
  5
16B3A
330
747D
100
AcDbEntity
  8
部品1
 48
50.0
100
AcDbCircle
 10
11258.40112844746
 20
4141.784170417874
 30
0.0
 40
7.0
100
AcDbArc
 50
267.8377559871574
 51
354.1866997665532
  0
ARC
  5
16B3B
330
747D
100
AcDbEntity
  8
部品1
 48
50.0
100
AcDbCircle
 10
11275.72322491198
 20
4252.686717560047
 30
0.0
 40
7.0
100
AcDbArc
 50
354.1866997665532
 51
87.03587545303976
  0
LINE
  5
16B3C
330
747D
100
AcDbEntity
  8
部品1
 48
50.0
100
AcDbLine
 10
11266.44469205196
 20
4151.678776738659
 30
0.0
 11
11265.36512901221
 21
4141.075159745101
 31
0.0
  0
LINE
  5
16B3D
330
747D
100
AcDbEntity
  8
部品1
 48
50.0
100
AcDbLine
 10
11277.30403780128
 20
4228.722031556584
 30
0.0
 11
11269.79725853644
 21
4154.989410811571
 31
0.0
  0
LINE
  5
16B3E
330
747D
100
AcDbEntity
  8
部品1
 48
50.0
100
AcDbLine
 10
11282.68722547673
 20
4251.977706887273
 30
0.0
 11
11280.65660428576
 21
4232.032665629493
 31
0.0
  0
ARC
  5
16B3F
330
747D
100
AcDbEntity
  8
部品1
100
AcDbCircle
 10
9779.510414537394
 20
4195.440669953533
 30
0.0
 40
0.7
100
AcDbArc
 50
181.0932240292114
 51
260.1877540314867
  0
ARC
  5
16B40
330
747D
100
AcDbEntity
  8
部品1
100
AcDbCircle
 10
9774.737740939784
 20
4288.306448153652
 30
0.0
 40
0.7
100
AcDbArc
 50
181.0932240292114
 51
260.1877540314867
  0
ARC
  5
16B41
330
747D
100
AcDbEntity
  8
部品1
100
AcDbCircle
 10
9774.107186536761
 20
4284.660573616254
 30
0.0
 40
3.0
100
AcDbArc
 50
1.093224029263536
 51
80.18775403148671
  0
ARC
  5
16B42
330
747D
100
AcDbEntity
  8
部品1
100
AcDbCircle
 10
9778.879860134368
 20
4191.794795416135
 30
0.0
 40
3.0
100
AcDbArc
 50
1.093224029263536
 51
80.18775403148671
  0
ARC
  5
16B43
330
747D
100
AcDbEntity
  8
部品1
 48
50.0
100
AcDbCircle
 10
9789.07999250957
 20
4181.402552033654
 30
0.0
 40
7.0
100
AcDbArc
 50
181.0932240292635
 51
267.8377559871574
  0
ARC
  5
16B44
330
747D
100
AcDbEntity
  8
部品1
 48
50.0
100
AcDbCircle
 10
9780.656334407474
 20
4308.353611566749
 30
0.0
 40
7.0
100
AcDbArc
 50
87.03587545303976
 51
181.0932240292635
  0
LINE
  5
16B45
330
747D
100
AcDbEntity
  8
部品1
 48
50.0
100
AcDbLine
 10
9781.879314060798
 20
4191.852033019318
 30
0.0
 11
9782.081266681229
 21
4181.268997626226
 31
0.0
  0
LINE
  5
16B46
330
747D
100
AcDbEntity
  8
細線
 48
50.0
100
AcDbLine
 10
9779.273221004126
 20
4194.782081138127
 30
0.0
 11
11269.27688543477
 21
4154.382805782058
 31
0.0
  0
LINE
  5
16B47
330
747D
100
AcDbEntity
  8
細線
 48
50.0
100
AcDbLine
 10
9774.512745766841
 20
4287.64359283599
 30
0.0
 11
11280.14873051201
 21
4231.429431813587
 31
0.0
  0
LINE
  5
16B48
330
747D
100
AcDbEntity
  8
部品1
 48
50.0
100
AcDbLine
 10
9777.106640463191
 20
4284.717811219437
 30
0.0
 11
9778.810541954555
 21
4195.42731451279
 31
0.0
  0
LINE
  5
16B49
330
747D
100
AcDbEntity
  8
部品1
 48
50.0
100
AcDbLine
 10
9773.657608579133
 20
4308.220057159322
 30
0.0
 11
9774.037868356947
 21
4288.29309271291
 31
0.0
  0
LINE
  5
16B4A
330
747D
100
AcDbEntity
  8
細線
 48
50.0
100
AcDbLine
 10
11250.47332266603
 20
4261.00353364835
 30
0.0
 11
11245.72563977803
 21
4135.257761157606
 31
0.0
  0
LINE
  5
16B4B
330
747D
100
AcDbEntity
  8
細線
 48
50.0
100
AcDbLine
 10
9806.473322666027
 20
4314.026187370034
 30
0.0
 11
9801.184221110521
 21
4173.94055474268
 31
0.0
  0
LINE
  5
16B4C
330
747D
100
AcDbEntity
  8
部品1
100
AcDbLine
 10
9788.815887267979
 20
4174.407536063596
 30
0.0
 11
11258.13702320587
 21
4134.789154447815
 31
0.0
  0
LINE
  5
16B4D
330
747D
100
AcDbEntity
  8
部品1
100
AcDbLine
 10
9781.018309022989
 20
4315.344246328896
 30
0.0
 11
11276.08519952749
 21
4259.677352322193
 31
0.0
  0
LINE
  5
16B4E
330
747D
100
AcDbEntity
  8
部品1
 48
50.0
100
AcDbLine
 10
10378.47332266602
 20
4447.494650095908
 30
0.0
 11
10678.47332266602
 21
4425.894650095909
 31
0.0
  0
TEXT
  5
16B4F
330
747D
100
AcDbEntity
  8
部品1
 48
50.0
100
AcDbText
 10
10855.56616995389
 20
4345.877414030058
 30
0.0
 40
120.0
  1
71
 50
90.0
  7
STYLE1
100
AcDbText
  0
LINE
  5
16B50
330
747D
100
AcDbEntity
  8
部品1
 48
50.0
100
AcDbLine
 10
10678.47332266602
 20
4447.494650095908
 30
0.0
 11
10678.47332266602
 21
4425.894650095909
 31
0.0
  0
LINE
  5
16B51
330
747D
100
AcDbEntity
  8
部品1
 48
50.0
100
AcDbLine
 10
10378.47332266602
 20
4447.494650095908
 30
0.0
 11
10678.47332266602
 21
4447.494650095908
 31
0.0
  0
TEXT
  5
16B52
330
747D
100
AcDbEntity
  8
部品1
 48
50.0
100
AcDbText
 10
10366.74115788975
 20
4483.378672248341
 30
0.0
 40
120.0
  1
1000
  7
STYLE1
100
AcDbText
  0
DIMENSION
  5
16B53
330
747D
100
AcDbEntity
  8
寸法
 48
50.0
100
AcDbDimension
  2
*D19
 10
9181.207070954657
 20
4338.449001891444
 30
0.0
 11
9189.884814606543
 21
4568.285240908342
 31
0.0
 70
   160
 71
     5
 42
141.0
  3
INABA_S40G
100
AcDbAlignedDimension
 13
9788.815887267979
 23
4174.407536063596
 33
0.0
 14
9794.135721419936
 24
4315.307143460478
 34
0.0
 50
87.83775598715743
100
AcDbRotatedDimension
1001
ACAD
1000
DSTYLE
1002
{
1070
   174
1070
     0
1070
   272
1070
     1
1070
   288
1070
     0
1070
   341
1005
0
1002
}
  0
DIMENSION
  5
16B54
330
747D
100
AcDbEntity
  8
寸法
 48
50.0
100
AcDbDimension
  2
*D20
 10
11283.47332266602
 20
4715.283964573933
 30
0.0
 11
11489.52056676052
 21
4715.283964573933
 31
0.0
 70
   160
 71
     5
 42
80.0
  3
INABA_S40G
100
AcDbAlignedDimension
 13
11203.47332266602
 23
4263.437190606282
 33
0.0
 14
11283.47332266602
 24
4261.62651099463
 34
0.0
100
AcDbRotatedDimension
1001
ACAD
1000
DSTYLE
1002
{
1070
   174
1070
     0
1070
   272
1070
     1
1070
   288
1070
     0
1070
   341
1005
0
1002
}
  0
DIMENSION
  5
16B55
330
747D
100
AcDbEntity
  8
寸法
 48
50.0
100
AcDbDimension
  2
*D21
 10
9773.473322666028
 20
4929.340567259325
 30
0.0
 11
10528.47332266602
 21
4929.340567259325
 31
0.0
 70
   160
 71
     5
 42
1510.0
  3
INABA_S40G
100
AcDbAlignedDimension
 13
11283.47332266602
 23
4261.62651099463
 33
0.0
 14
9773.473322666028
 24
4316.626510994633
 34
0.0
100
AcDbRotatedDimension
1001
ACAD
1000
DSTYLE
1002
{
1070
   174
1070
     0
1070
   272
1070
     1
1070
   288
1070
     0
1070
   341
1005
0
1002
}
  0
DIMENSION
  5
16B56
330
747D
100
AcDbEntity
  8
寸法
 48
50.0
100
AcDbDimension
  2
*D22
 10
9773.473322666028
 20
4715.283964573933
 30
0.0
 11
9463.835527390436
 21
4715.283964573933
 31
0.0
 70
   160
 71
     5
 42
60.0
  3
INABA_S40G
100
AcDbAlignedDimension
 13
9833.473322666026
 23
4312.628129117605
 33
0.0
 14
9773.473322666028
 24
4316.626510994633
 34
0.0
100
AcDbRotatedDimension
1001
ACAD
1000
DSTYLE
1002
{
1070
   174
1070
     0
1070
   272
1070
     1
1070
   288
1070
     0
1070
   341
1005
0
1002
}
  0
DIMENSION
  5
16B57
330
747D
100
AcDbEntity
  8
寸法
 48
50.0
100
AcDbDimension
  2
*D23
 10
9833.473322666026
 20
4715.283964573933
 30
0.0
 11
10518.47332266602
 21
4715.283964573933
 31
0.0
 70
   160
  1
柱外寸法<>
 71
     5
 42
1370.0
  3
INABA_S40G
100
AcDbAlignedDimension
 13
11203.47332266602
 23
4263.437190606282
 33
0.0
 14
9833.473322666026
 24
4312.628129117605
 34
0.0
100
AcDbRotatedDimension
1001
ACAD
1000
DSTYLE
1002
{
1070
   174
1070
     0
1070
   272
1070
     1
1070
   288
1070
     0
1070
   341
1005
0
1002
}
  0
ARC
  5
16B58
330
747D
100
AcDbEntity
  8
部品1
 48
0.01
100
AcDbCircle
 10
5742.673057123647
 20
4114.126510994629
 30
0.0
 40
2.0
100
AcDbArc
 50
270.0
 51
0.0
  0
ARC
  5
16B59
330
747D
100
AcDbEntity
  8
部品1
 48
0.01
100
AcDbCircle
 10
5742.673057123647
 20
4145.626510994628
 30
0.0
 40
2.0
100
AcDbArc
 50
0.0
 51
90.0
  0
ARC
  5
16B5A
330
747D
100
AcDbEntity
  8
部品1
 48
0.01
100
AcDbCircle
 10
5566.673057123647
 20
4114.126510994629
 30
0.0
 40
2.0
100
AcDbArc
 50
180.0
 51
270.0
  0
ARC
  5
16B5B
330
747D
100
AcDbEntity
  8
部品1
 48
0.01
100
AcDbCircle
 10
5566.673057123647
 20
4145.626510994628
 30
0.0
 40
2.0
100
AcDbArc
 50
90.0
 51
180.0
  0
LINE
  5
16B5C
330
747D
100
AcDbEntity
  8
細線
100
AcDbLine
 10
5654.673057123648
 20
4118.126510994629
 30
0.0
 11
5728.673057123647
 21
4118.126510994629
 31
0.0
  0
LINE
  5
16B5D
330
747D
100
AcDbEntity
  8
細線
100
AcDbLine
 10
5654.673057123648
 20
4141.126510994629
 30
0.0
 11
5580.673057123648
 21
4141.126510994629
 31
0.0
  0
LINE
  5
16B5E
330
747D
100
AcDbEntity
  8
細線
100
AcDbLine
 10
5580.673057123648
 20
4118.126510994629
 30
0.0
 11
5654.673057123648
 21
4118.126510994629
 31
0.0
  0
LINE
  5
16B5F
330
747D
100
AcDbEntity
  8
細線
100
AcDbLine
 10
5728.673057123647
 20
4141.126510994629
 30
0.0
 11
5654.673057123648
 21
4141.126510994629
 31
0.0
  0
LINE
  5
16B60
330
747D
100
AcDbEntity
  8
細線
100
AcDbLine
 10
5728.673057123647
 20
4118.126510994629
 30
0.0
 11
5728.673057123647
 21
4141.126510994629
 31
0.0
  0
LINE
  5
16B61
330
747D
100
AcDbEntity
  8
細線
100
AcDbLine
 10
5580.673057123648
 20
4141.126510994629
 30
0.0
 11
5580.673057123648
 21
4118.126510994629
 31
0.0
  0
LINE
  5
16B62
330
747D
100
AcDbEntity
  8
部品1
 48
0.01
100
AcDbLine
 10
5744.673057123648
 20
4114.126510994629
 30
0.0
 11
5744.673057123648
 21
4145.626510994628
 31
0.0
  0
LINE
  5
16B63
330
747D
100
AcDbEntity
  8
部品1
 48
0.01
100
AcDbLine
 10
5566.673057123647
 20
4112.126510994629
 30
0.0
 11
5742.673057123647
 21
4112.126510994629
 31
0.0
  0
LINE
  5
16B64
330
747D
100
AcDbEntity
  8
部品1
 48
0.01
100
AcDbLine
 10
5564.673057123648
 20
4145.626510994628
 30
0.0
 11
5564.673057123648
 21
4114.126510994629
 31
0.0
  0
LINE
  5
16B65
330
747D
100
AcDbEntity
  8
部品1
 48
0.01
100
AcDbLine
 10
5742.673057123647
 20
4147.626510994629
 30
0.0
 11
5566.673057123647
 21
4147.626510994629
 31
0.0
  0
LINE
  5
16B66
330
747D
100
AcDbEntity
  8
細線
100
AcDbLine
 10
5580.673057123648
 20
4135.126510994629
 30
0.0
 11
5654.673057123648
 21
4135.126510994629
 31
0.0
  0
LINE
  5
16B67
330
747D
100
AcDbEntity
  8
細線
100
AcDbLine
 10
5580.673057123648
 20
4129.126510994629
 30
0.0
 11
5654.673057123648
 21
4129.126510994629
 31
0.0
  0
LINE
  5
16B68
330
747D
100
AcDbEntity
  8
細線
100
AcDbLine
 10
5580.673057123648
 20
4123.126510994629
 30
0.0
 11
5654.673057123648
 21
4123.126510994629
 31
0.0
  0
LINE
  5
16B69
330
747D
100
AcDbEntity
  8
細線
100
AcDbLine
 10
5580.673057123648
 20
4135.126510994629
 30
0.0
 11
5649.673057123647
 21
4135.126510994629
 31
0.0
  0
LINE
  5
16B6A
330
747D
100
AcDbEntity
  8
細線
100
AcDbLine
 10
5728.673057123647
 20
4135.126510994626
 30
0.0
 11
5654.673057123648
 21
4135.126510994629
 31
0.0
  0
LINE
  5
16B6B
330
747D
100
AcDbEntity
  8
細線
100
AcDbLine
 10
5728.673057123647
 20
4123.126510994627
 30
0.0
 11
5654.673057123648
 21
4123.126510994629
 31
0.0
  0
LINE
  5
16B6C
330
747D
100
AcDbEntity
  8
細線
100
AcDbLine
 10
5728.673057123647
 20
4129.126510994629
 30
0.0
 11
5654.673057123648
 21
4129.126510994629
 31
0.0
  0
LINE
  5
16B6D
330
747D
100
AcDbEntity
  8
細線
100
AcDbLine
 10
5654.673057123648
 20
4141.126510994629
 30
0.0
 11
5654.673057123648
 21
4118.126510994629
 31
0.0
  0
LINE
  5
16B6E
330
747D
100
AcDbEntity
  8
細線
100
AcDbLine
 10
6884.673057123666
 20
4141.126510994629
 30
0.0
 11
6884.673057123666
 21
4118.126510994629
 31
0.0
  0
LINE
  5
16B6F
330
747D
100
AcDbEntity
  8
細線
100
AcDbLine
 10
6810.673057123665
 20
4129.126510994629
 30
0.0
 11
6884.673057123666
 21
4129.126510994629
 31
0.0
  0
LINE
  5
16B70
330
747D
100
AcDbEntity
  8
細線
100
AcDbLine
 10
6810.673057123665
 20
4123.126510994629
 30
0.0
 11
6884.673057123666
 21
4123.126510994629
 31
0.0
  0
LINE
  5
16B71
330
747D
100
AcDbEntity
  8
細線
100
AcDbLine
 10
6810.673057123665
 20
4135.126510994629
 30
0.0
 11
6884.673057123666
 21
4135.126510994629
 31
0.0
  0
LINE
  5
16B72
330
747D
100
AcDbEntity
  8
細線
100
AcDbLine
 10
6958.673057123665
 20
4135.126510994629
 30
0.0
 11
6889.673057123665
 21
4135.126510994629
 31
0.0
  0
LINE
  5
16B73
330
747D
100
AcDbEntity
  8
細線
100
AcDbLine
 10
6958.673057123665
 20
4123.126510994629
 30
0.0
 11
6884.673057123666
 21
4123.126510994629
 31
0.0
  0
LINE
  5
16B74
330
747D
100
AcDbEntity
  8
細線
100
AcDbLine
 10
6958.673057123665
 20
4129.126510994629
 30
0.0
 11
6884.673057123666
 21
4129.126510994629
 31
0.0
  0
LINE
  5
16B75
330
747D
100
AcDbEntity
  8
細線
100
AcDbLine
 10
6958.673057123665
 20
4135.126510994629
 30
0.0
 11
6884.673057123666
 21
4135.126510994629
 31
0.0
  0
LINE
  5
16B76
330
747D
100
AcDbEntity
  8
部品1
 48
0.01
100
AcDbLine
 10
6796.673057123665
 20
4147.626510994629
 30
0.0
 11
6972.673057123666
 21
4147.626510994629
 31
0.0
  0
LINE
  5
16B77
330
747D
100
AcDbEntity
  8
部品1
 48
0.01
100
AcDbLine
 10
6974.673057123665
 20
4145.626510994628
 30
0.0
 11
6974.673057123665
 21
4114.126510994629
 31
0.0
  0
LINE
  5
16B78
330
747D
100
AcDbEntity
  8
部品1
 48
0.01
100
AcDbLine
 10
6972.673057123666
 20
4112.126510994629
 30
0.0
 11
6796.673057123665
 21
4112.126510994629
 31
0.0
  0
LINE
  5
16B79
330
747D
100
AcDbEntity
  8
部品1
 48
0.01
100
AcDbLine
 10
6794.673057123666
 20
4114.126510994629
 30
0.0
 11
6794.673057123666
 21
4145.626510994628
 31
0.0
  0
LINE
  5
16B7A
330
747D
100
AcDbEntity
  8
細線
100
AcDbLine
 10
6958.673057123665
 20
4141.126510994629
 30
0.0
 11
6958.673057123665
 21
4118.126510994629
 31
0.0
  0
LINE
  5
16B7B
330
747D
100
AcDbEntity
  8
細線
100
AcDbLine
 10
6810.673057123665
 20
4118.126510994629
 30
0.0
 11
6810.673057123665
 21
4141.126510994629
 31
0.0
  0
LINE
  5
16B7C
330
747D
100
AcDbEntity
  8
細線
100
AcDbLine
 10
6810.673057123665
 20
4141.126510994629
 30
0.0
 11
6884.673057123666
 21
4141.126510994629
 31
0.0
  0
LINE
  5
16B7D
330
747D
100
AcDbEntity
  8
細線
100
AcDbLine
 10
6958.673057123665
 20
4118.126510994629
 30
0.0
 11
6884.673057123666
 21
4118.126510994629
 31
0.0
  0
LINE
  5
16B7E
330
747D
100
AcDbEntity
  8
細線
100
AcDbLine
 10
6884.673057123666
 20
4141.126510994629
 30
0.0
 11
6958.673057123665
 21
4141.126510994629
 31
0.0
  0
LINE
  5
16B7F
330
747D
100
AcDbEntity
  8
細線
100
AcDbLine
 10
6884.673057123666
 20
4118.126510994629
 30
0.0
 11
6810.673057123665
 21
4118.126510994629
 31
0.0
  0
ARC
  5
16B80
330
747D
100
AcDbEntity
  8
部品1
 48
0.01
100
AcDbCircle
 10
6972.673057123666
 20
4145.626510994628
 30
0.0
 40
2.0
100
AcDbArc
 50
0.0
 51
90.0
  0
ARC
  5
16B81
330
747D
100
AcDbEntity
  8
部品1
 48
0.01
100
AcDbCircle
 10
6972.673057123666
 20
4114.126510994629
 30
0.0
 40
2.0
100
AcDbArc
 50
270.0
 51
0.0
  0
ARC
  5
16B82
330
747D
100
AcDbEntity
  8
部品1
 48
0.01
100
AcDbCircle
 10
6796.673057123665
 20
4145.626510994628
 30
0.0
 40
2.0
100
AcDbArc
 50
90.0
 51
180.0
  0
ARC
  5
16B83
330
747D
100
AcDbEntity
  8
部品1
 48
0.01
100
AcDbCircle
 10
6796.673057123665
 20
4114.126510994629
 30
0.0
 40
2.0
100
AcDbArc
 50
180.0
 51
270.0
  0
ARC
  5
16B84
330
747D
100
AcDbEntity
  8
部品1
100
AcDbCircle
 10
7417.264636017233
 20
4309.626510994632
 30
0.0
 40
7.0
100
AcDbArc
 50
356.7526572096623
 51
90.0
  0
ARC
  5
16B85
330
747D
100
AcDbEntity
  8
部品1
100
AcDbCircle
 10
7404.0493125562
 20
4182.626510994634
 30
0.0
 40
7.0
100
AcDbArc
 50
270.0
 51
356.7526572096623
  0
ARC
  5
16B86
330
747D
100
AcDbEntity
  8
部品1
 48
50.0
100
AcDbCircle
 10
7422.421122766879
 20
4289.293510156318
 30
0.0
 40
0.7
100
AcDbArc
 50
277.6581272073635
 51
356.7526572096103
  0
ARC
  5
16B87
330
747D
100
AcDbEntity
  8
部品1
 48
50.0
100
AcDbCircle
 10
7414.185092242035
 20
4197.093510156316
 30
0.0
 40
0.7
100
AcDbArc
 50
277.6581272073635
 51
356.7526572097143
  0
ARC
  5
16B88
330
747D
100
AcDbEntity
  8
部品1
 48
50.0
100
AcDbCircle
 10
7414.678161350595
 20
4193.426510994632
 30
0.0
 40
3.0
100
AcDbArc
 50
97.65812720736347
 51
176.7526572096623
  0
ARC
  5
16B89
330
747D
100
AcDbEntity
  8
部品1
 48
50.0
100
AcDbCircle
 10
7422.914191875439
 20
4285.626510994634
 30
0.0
 40
3.0
100
AcDbArc
 50
97.65812720736347
 51
176.7526572096623
  0
LINE
  5
16B8A
330
747D
100
AcDbEntity
  8
部品1
100
AcDbLine
 10
7419.919008979253
 20
4285.796450449736
 30
0.0
 11
7414.883968251142
 21
4197.053857616793
 31
0.0
  0
LINE
  5
16B8B
330
747D
100
AcDbEntity
  8
部品1
100
AcDbLine
 10
7411.682978454409
 20
4193.596450449733
 30
0.0
 11
7411.038072647298
 21
4182.229985599395
 31
0.0
  0
LINE
  5
16B8C
330
747D
100
AcDbEntity
  8
細線
 48
50.0
100
AcDbLine
 10
7391.673057123665
 20
4316.626510994632
 30
0.0
 11
7391.673057123665
 21
4175.626510994632
 31
0.0
  0
LINE
  5
16B8D
330
747D
100
AcDbEntity
  8
部品1
100
AcDbLine
 10
7424.253396108333
 20
4309.229985599393
 30
0.0
 11
7423.119998775987
 21
4289.253857616794
 31
0.0
  0
LINE
  5
16B8E
330
747D
100
AcDbEntity
  8
部品1
100
AcDbLine
 10
5115.092718138978
 20
4309.229985599393
 30
0.0
 11
5116.226115471327
 21
4289.253857616794
 31
0.0
  0
LINE
  5
16B8F
330
747D
100
AcDbEntity
  8
部品1
100
AcDbLine
 10
5127.663135792904
 20
4193.596450449733
 30
0.0
 11
5128.308041600012
 21
4182.229985599395
 31
0.0
  0
LINE
  5
16B90
330
747D
100
AcDbEntity
  8
部品1
100
AcDbLine
 10
5119.427105268056
 20
4285.796450449736
 30
0.0
 11
5124.462145996167
 21
4197.053857616793
 31
0.0
  0
ARC
  5
16B91
330
747D
100
AcDbEntity
  8
部品1
 48
50.0
100
AcDbCircle
 10
5116.43192237187
 20
4285.626510994634
 30
0.0
 40
3.0
100
AcDbArc
 50
3.247342790337682
 51
82.34187279263654
  0
ARC
  5
16B92
330
747D
100
AcDbEntity
  8
部品1
 48
50.0
100
AcDbCircle
 10
5124.667952896714
 20
4193.426510994632
 30
0.0
 40
3.0
100
AcDbArc
 50
3.247342790337682
 51
82.34187279263654
  0
ARC
  5
16B93
330
747D
100
AcDbEntity
  8
部品1
 48
50.0
100
AcDbCircle
 10
5125.161022005276
 20
4197.093510156316
 30
0.0
 40
0.7
100
AcDbArc
 50
183.2473427902856
 51
262.3418727926365
  0
ARC
  5
16B94
330
747D
100
AcDbEntity
  8
部品1
 48
50.0
100
AcDbCircle
 10
5116.924991480435
 20
4289.293510156318
 30
0.0
 40
0.7
100
AcDbArc
 50
183.2473427903897
 51
262.3418727926365
  0
ARC
  5
16B95
330
747D
100
AcDbEntity
  8
部品1
100
AcDbCircle
 10
5135.296801691112
 20
4182.626510994634
 30
0.0
 40
7.0
100
AcDbArc
 50
183.2473427903377
 51
270.0
  0
ARC
  5
16B96
330
747D
100
AcDbEntity
  8
部品1
100
AcDbCircle
 10
5122.08147823008
 20
4309.626510994632
 30
0.0
 40
7.0
100
AcDbArc
 50
90.0
 51
183.2473427903377
  0
LINE
  5
16B97
330
747D
100
AcDbEntity
  8
細線
 48
50.0
100
AcDbLine
 10
5147.673057123648
 20
4316.626510994632
 30
0.0
 11
5147.673057123648
 21
4175.626510994632
 31
0.0
  0
LINE
  5
16B98
330
747D
100
AcDbEntity
  8
細線
 48
50.0
100
AcDbLine
 10
7414.278375586862
 20
4196.399753558418
 30
0.0
 11
5125.067738660447
 21
4196.399753558418
 31
0.0
  0
LINE
  5
16B99
330
747D
100
AcDbEntity
  8
細線
 48
50.0
100
AcDbLine
 10
7422.514406111746
 20
4288.599753558101
 30
0.0
 11
5116.831708135607
 21
4288.599753558421
 31
0.0
  0
LINE
  5
16B9A
330
747D
100
AcDbEntity
  8
部品1
 48
50.0
100
AcDbLine
 10
7404.0493125562
 20
4175.626510994635
 30
0.0
 11
5135.296801691112
 21
4175.626510994635
 31
0.0
  0
LINE
  5
16B9B
330
747D
100
AcDbEntity
  8
部品1
 48
50.0
100
AcDbLine
 10
7417.264636017233
 20
4316.626510994632
 30
0.0
 11
5122.08147823008
 21
4316.626510994632
 31
0.0
  0
LINE
  5
16B9C
330
747D
100
AcDbEntity
  8
部品1
100
AcDbLine
 10
5164.673057123657
 20
4081.626510994629
 30
0.0
 11
7374.673057123657
 21
4081.626510994629
 31
0.0
  0
DIMENSION
  5
16B9D
330
747D
100
AcDbEntity
  8
寸法
 48
50.0
100
AcDbDimension
  2
*D24
 10
5114.673057123647
 20
4520.76874226262
 30
0.0
 11
4801.187775749401
 21
4520.76874226262
 31
0.0
 70
   160
 71
     5
 42
50.0
  3
INABA_S40G
100
AcDbAlignedDimension
 13
5164.673057123647
 23
4316.626510994634
 33
0.0
 14
5114.673057123647
 24
4316.626510994634
 34
0.0
100
AcDbRotatedDimension
1001
ACAD
1000
DSTYLE
1002
{
1002
}
  0
DIMENSION
  5
16B9E
330
747D
100
AcDbEntity
  8
寸法
 48
50.0
100
AcDbDimension
  2
*D25
 10
5164.673057123647
 20
4520.76874226262
 30
0.0
 11
6269.673057123657
 21
4520.76874226262
 31
0.0
 70
   160
  1
柱外寸法<>
 71
     5
 42
2210.000000000018
  3
INABA_S40G
100
AcDbAlignedDimension
 13
7374.673057123665
 23
4316.626510994634
 33
0.0
 14
5164.673057123647
 24
4316.626510994634
 34
0.0
100
AcDbRotatedDimension
  0
DIMENSION
  5
16B9F
330
747D
100
AcDbEntity
  8
寸法
 48
50.0
100
AcDbDimension
  2
*D26
 10
7424.673057123666
 20
4736.996900143523
 30
0.0
 11
6269.673057123657
 21
4736.996900143523
 31
0.0
 70
   160
 71
     5
 42
2310.000000000018
  3
INABA_S40G
100
AcDbAlignedDimension
 13
5114.673057123647
 23
4316.626510994634
 33
0.0
 14
7424.673057123666
 24
4316.62651099463
 34
0.0
100
AcDbRotatedDimension
  0
DIMENSION
  5
16BA0
330
747D
100
AcDbEntity
  8
寸法
 48
50.0
100
AcDbDimension
  2
*D27
 10
7374.673057123665
 20
4520.76874226262
 30
0.0
 11
7738.158338497902
 21
4520.76874226262
 31
0.0
 70
   160
 71
     5
 42
50.0
  3
INABA_S40G
100
AcDbAlignedDimension
 13
7424.673057123666
 23
4316.62651099463
 33
0.0
 14
7374.673057123665
 24
4316.626510994634
 34
0.0
100
AcDbRotatedDimension
  0
LINE
  5
16BF8
330
747D
100
AcDbEntity
  8
部品1
100
AcDbLine
 10
5564.673057123659
 20
1941.626510994629
 30
0.0
 11
5564.673057123659
 21
1841.626510994629
 31
0.0
  0
LINE
  5
16BF9
330
747D
100
AcDbEntity
  8
部品1
100
AcDbLine
 10
5364.673057123659
 20
1941.626510994629
 30
0.0
 11
5364.673057123659
 21
1841.626510994629
 31
0.0
  0
LINE
  5
16BFB
330
747D
100
AcDbEntity
  8
部品1
100
AcDbLine
 10
5219.673057123655
 20
1991.626510994629
 30
0.0
 11
7319.673057123655
 21
1991.626510994629
 31
0.0
  0
LINE
  5
16BFC
330
747D
100
AcDbEntity
  8
部品1
100
AcDbLine
 10
7174.673057123651
 20
1941.626510994629
 30
0.0
 11
7174.67305712365
 21
1841.626510994629
 31
0.0
  0
LINE
  5
16BFD
330
747D
100
AcDbEntity
  8
部品1
100
AcDbLine
 10
6974.673057123651
 20
1941.626510994629
 30
0.0
 11
6974.673057123649
 21
1841.626510994629
 31
0.0
  0
LINE
  5
16C00
330
747D
100
AcDbEntity
  8
破線
  6
HIDDEN
 48
5.0
100
AcDbLine
 10
7374.673057123655
 20
1591.626510994629
 30
0.0
 11
7319.673057123657
 21
1591.626510994629
 31
0.0
  0
LINE
  5
16C04
330
747D
100
AcDbEntity
  8
破線
  6
HIDDEN
 48
5.0
100
AcDbLine
 10
7374.673057123657
 20
1841.626510994629
 30
0.0
 11
7374.673057123657
 21
1591.626510994629
 31
0.0
  0
LINE
  5
16C05
330
747D
100
AcDbEntity
  8
破線
  6
HIDDEN
 48
5.0
100
AcDbLine
 10
7319.673057123657
 20
1841.626510994629
 30
0.0
 11
7319.673057123657
 21
1591.626510994629
 31
0.0
  0
LINE
  5
16C06
330
747D
100
AcDbEntity
  8
破線
  6
HIDDEN
 48
5.0
100
AcDbLine
 10
5219.673057123655
 20
1591.626510994629
 30
0.0
 11
5164.673057123657
 21
1591.626510994629
 31
0.0
  0
LINE
  5
16C09
330
747D
100
AcDbEntity
  8
破線
  6
HIDDEN
 48
5.0
100
AcDbLine
 10
5219.673057123657
 20
1841.626510994629
 30
0.0
 11
5219.673057123657
 21
1591.626510994629
 31
0.0
  0
LINE
  5
16C0A
330
747D
100
AcDbEntity
  8
破線
  6
HIDDEN
 48
5.0
100
AcDbLine
 10
5164.673057123657
 20
1841.626510994629
 30
0.0
 11
5164.673057123657
 21
1591.626510994629
 31
0.0
  0
INSERT
  5
16C0C
330
747D
100
AcDbEntity
  8
破線
 48
50.0
100
AcDbBlockReference
  2
A$C0F9D2380
 10
10418.47332266602
 20
1841.626510994629
 30
0.0
  0
LINE
  5
16C0D
330
747D
100
AcDbEntity
  8
部品1
100
AcDbLine
 10
11190.97332266602
 20
1986.626510994629
 30
0.0
 11
11160.97332266602
 21
1986.626510994629
 31
0.0
  0
ARC
  5
16C0E
330
747D
100
AcDbEntity
  8
部品1
 48
50.0
100
AcDbCircle
 10
11160.97332266602
 20
1981.626510994629
 30
0.0
 40
5.0
100
AcDbArc
 50
90.0
 51
180.0
  0
ARC
  5
16C0F
330
747D
100
AcDbEntity
  8
部品1
 48
50.0
100
AcDbCircle
 10
11190.97332266602
 20
1981.626510994629
 30
0.0
 40
5.0
100
AcDbArc
 50
0.0
 51
90.0
  0
LINE
  5
16C10
330
747D
100
AcDbEntity
  8
部品1
100
AcDbLine
 10
11195.97332266602
 20
1941.626510994629
 30
0.0
 11
11203.47332266602
 21
1941.626510994629
 31
0.0
  0
LINE
  5
16C12
330
747D
100
AcDbEntity
  8
破線
  6
HIDDEN
 48
5.0
100
AcDbLine
 10
11210.97332266602
 20
1686.626510994629
 30
0.0
 11
11140.97332266602
 21
1686.626510994629
 31
0.0
  0
LINE
  5
16C13
330
747D
100
AcDbEntity
  8
破線
  6
HIDDEN
 48
5.0
100
AcDbLine
 10
11155.97332266602
 20
1836.626510994629
 30
0.0
 11
11140.97332266602
 21
1688.926510994628
 31
0.0
  0
LINE
  5
16C14
330
747D
100
AcDbEntity
  8
破線
  6
HIDDEN
 48
5.0
100
AcDbLine
 10
11140.97332266602
 20
1688.926510994628
 30
0.0
 11
11140.97332266602
 21
1686.626510994629
 31
0.0
  0
LINE
  5
16C15
330
747D
100
AcDbEntity
  8
破線
  6
HIDDEN
 48
5.0
100
AcDbLine
 10
11195.97332266602
 20
1836.626510994629
 30
0.0
 11
11210.97332266602
 21
1688.926510994628
 31
0.0
  0
LINE
  5
16C16
330
747D
100
AcDbEntity
  8
破線
  6
HIDDEN
 48
5.0
100
AcDbLine
 10
11210.97332266602
 20
1688.926510994628
 30
0.0
 11
11210.97332266602
 21
1686.626510994629
 31
0.0
  0
LINE
  5
16C17
330
747D
100
AcDbEntity
  8
破線
  6
HIDDEN
 48
5.0
100
AcDbLine
 10
11155.97332266602
 20
1841.626510994629
 30
0.0
 11
11155.97332266602
 21
1836.626510994629
 31
0.0
  0
LINE
  5
16C18
330
747D
100
AcDbEntity
  8
破線
  6
HIDDEN
 48
5.0
100
AcDbLine
 10
11195.97332266602
 20
1841.626510994629
 30
0.0
 11
11195.97332266602
 21
1836.626510994629
 31
0.0
  0
LINE
  5
16C1B
330
747D
100
AcDbEntity
  8
部品1
 48
50.0
100
AcDbLine
 10
11155.97332266602
 20
1981.626510994629
 30
0.0
 11
11155.97332266602
 21
1841.626510994629
 31
0.0
  0
LINE
  5
16C1C
330
747D
100
AcDbEntity
  8
部品1
 48
50.0
100
AcDbLine
 10
11195.97332266602
 20
1981.626510994629
 30
0.0
 11
11195.97332266602
 21
1841.626510994629
 31
0.0
  0
LINE
  5
16C1D
330
747D
100
AcDbEntity
  8
部品1
100
AcDbLine
 10
11003.47332266602
 20
1941.626510994629
 30
0.0
 11
11003.47332266602
 21
1841.626510994629
 31
0.0
  0
ARC
  5
16C65
330
747D
100
AcDbEntity
  8
細線
 48
50.0
100
AcDbCircle
 10
5969.673057123655
 20
2554.126510994629
 30
0.0
 40
15.0
100
AcDbArc
 50
90.0
 51
270.0
  0
ARC
  5
16C66
330
747D
100
AcDbEntity
  8
細線
 48
50.0
100
AcDbCircle
 10
6069.673057123655
 20
2554.126510994629
 30
0.0
 40
15.0
100
AcDbArc
 50
270.0
 51
90.0
  0
LINE
  5
16C67
330
747D
100
AcDbEntity
  8
細線
 48
50.0
100
AcDbLine
 10
5969.673057123655
 20
2569.126510994629
 30
0.0
 11
6069.673057123655
 21
2569.126510994629
 31
0.0
  0
LINE
  5
16C68
330
747D
100
AcDbEntity
  8
細線
 48
50.0
100
AcDbLine
 10
6069.673057123655
 20
2539.126510994629
 30
0.0
 11
5969.673057123655
 21
2539.126510994629
 31
0.0
  0
LINE
  5
16C69
330
747D
100
AcDbEntity
  8
細線
 48
50.0
100
AcDbLine
 10
6569.673057123655
 20
2539.126510994629
 30
0.0
 11
6469.673057123654
 21
2539.126510994629
 31
0.0
  0
LINE
  5
16C6A
330
747D
100
AcDbEntity
  8
細線
 48
50.0
100
AcDbLine
 10
6469.673057123654
 20
2569.126510994629
 30
0.0
 11
6569.673057123655
 21
2569.126510994629
 31
0.0
  0
ARC
  5
16C6B
330
747D
100
AcDbEntity
  8
細線
 48
50.0
100
AcDbCircle
 10
6469.673057123654
 20
2554.126510994629
 30
0.0
 40
15.0
100
AcDbArc
 50
90.0
 51
270.0
  0
ARC
  5
16C6C
330
747D
100
AcDbEntity
  8
細線
 48
50.0
100
AcDbCircle
 10
6569.673057123655
 20
2554.126510994629
 30
0.0
 40
15.0
100
AcDbArc
 50
270.0
 51
90.0
  0
CIRCLE
  5
16C6D
330
747D
100
AcDbEntity
  8
細線
 48
50.0
100
AcDbCircle
 10
6269.673057123655
 20
2879.126510994629
 30
0.0
 40
18.0
  0
LINE
  5
16C71
330
747D
100
AcDbEntity
  8
細線
100
AcDbLine
 10
7271.673057123656
 20
2001.626510994629
 30
0.0
 11
5267.673057123651
 21
2001.626510994629
 31
0.0
  0
LINE
  5
16C72
330
747D
100
AcDbEntity
  8
細線
100
AcDbLine
 10
5267.673057123653
 20
2521.626510994629
 30
0.0
 11
7271.673057123655
 21
2521.626510994629
 31
0.0
  0
LINE
  5
16C73
330
747D
100
AcDbEntity
  8
細線
100
AcDbLine
 10
5267.673057123653
 20
2456.626510994629
 30
0.0
 11
7271.673057123655
 21
2456.626510994629
 31
0.0
  0
LINE
  5
16C74
330
747D
100
AcDbEntity
  8
細線
100
AcDbLine
 10
5267.673057123653
 20
2391.626510994629
 30
0.0
 11
7271.673057123655
 21
2391.626510994629
 31
0.0
  0
LINE
  5
16C75
330
747D
100
AcDbEntity
  8
細線
100
AcDbLine
 10
5267.673057123653
 20
2326.626510994629
 30
0.0
 11
7271.673057123655
 21
2326.626510994629
 31
0.0
  0
LINE
  5
16C76
330
747D
100
AcDbEntity
  8
細線
100
AcDbLine
 10
5267.673057123653
 20
2261.626510994629
 30
0.0
 11
7271.673057123655
 21
2261.626510994629
 31
0.0
  0
LINE
  5
16C77
330
747D
100
AcDbEntity
  8
細線
100
AcDbLine
 10
5267.673057123653
 20
2196.626510994629
 30
0.0
 11
7271.673057123655
 21
2196.626510994629
 31
0.0
  0
LINE
  5
16C78
330
747D
100
AcDbEntity
  8
細線
100
AcDbLine
 10
5267.673057123653
 20
2131.626510994629
 30
0.0
 11
7271.673057123655
 21
2131.626510994629
 31
0.0
  0
LINE
  5
16C79
330
747D
100
AcDbEntity
  8
細線
100
AcDbLine
 10
5267.673057123653
 20
2066.626510994629
 30
0.0
 11
7271.673057123655
 21
2066.626510994629
 31
0.0
  0
LINE
  5
16C7A
330
747D
100
AcDbEntity
  8
細線
100
AcDbLine
 10
5267.673057123653
 20
2001.626510994629
 30
0.0
 11
7271.673057123655
 21
2001.626510994629
 31
0.0
  0
LINE
  5
16C7B
330
747D
100
AcDbEntity
  8
細線
100
AcDbLine
 10
5267.673057123653
 20
3821.626510994629
 30
0.0
 11
7271.673057123655
 21
3821.626510994629
 31
0.0
  0
LINE
  5
16C7C
330
747D
100
AcDbEntity
  8
細線
100
AcDbLine
 10
5267.673057123653
 20
3886.626510994629
 30
0.0
 11
7271.673057123655
 21
3886.626510994629
 31
0.0
  0
LINE
  5
16C7D
330
747D
100
AcDbEntity
  8
細線
100
AcDbLine
 10
5267.673057123653
 20
3171.626510994629
 30
0.0
 11
7271.673057123655
 21
3171.626510994629
 31
0.0
  0
LINE
  5
16C7E
330
747D
100
AcDbEntity
  8
細線
100
AcDbLine
 10
5267.673057123653
 20
3106.626510994629
 30
0.0
 11
7271.673057123655
 21
3106.626510994629
 31
0.0
  0
LINE
  5
16C7F
330
747D
100
AcDbEntity
  8
細線
100
AcDbLine
 10
5267.673057123653
 20
3041.626510994629
 30
0.0
 11
7271.673057123655
 21
3041.626510994629
 31
0.0
  0
LINE
  5
16C80
330
747D
100
AcDbEntity
  8
細線
100
AcDbLine
 10
5267.673057123653
 20
2976.626510994629
 30
0.0
 11
7271.673057123655
 21
2976.626510994629
 31
0.0
  0
LINE
  5
16C81
330
747D
100
AcDbEntity
  8
細線
100
AcDbLine
 10
5267.673057123653
 20
2911.626510994629
 30
0.0
 11
7271.673057123655
 21
2911.626510994629
 31
0.0
  0
LINE
  5
16C82
330
747D
100
AcDbEntity
  8
細線
100
AcDbLine
 10
5267.673057123653
 20
2846.626510994629
 30
0.0
 11
7271.673057123655
 21
2846.626510994629
 31
0.0
  0
LINE
  5
16C83
330
747D
100
AcDbEntity
  8
細線
100
AcDbLine
 10
5267.673057123653
 20
2781.626510994629
 30
0.0
 11
7271.673057123655
 21
2781.626510994629
 31
0.0
  0
LINE
  5
16C84
330
747D
100
AcDbEntity
  8
細線
100
AcDbLine
 10
5267.673057123653
 20
2716.626510994629
 30
0.0
 11
7271.673057123655
 21
2716.626510994629
 31
0.0
  0
LINE
  5
16C85
330
747D
100
AcDbEntity
  8
細線
100
AcDbLine
 10
5267.673057123653
 20
2651.626510994629
 30
0.0
 11
7271.673057123655
 21
2651.626510994629
 31
0.0
  0
LINE
  5
16C86
330
747D
100
AcDbEntity
  8
細線
100
AcDbLine
 10
5267.673057123653
 20
2586.626510994629
 30
0.0
 11
7271.673057123655
 21
2586.626510994629
 31
0.0
  0
LINE
  5
16C87
330
747D
100
AcDbEntity
  8
細線
100
AcDbLine
 10
5267.673057123653
 20
3561.626510994629
 30
0.0
 11
7271.673057123655
 21
3561.626510994629
 31
0.0
  0
LINE
  5
16C88
330
747D
100
AcDbEntity
  8
細線
100
AcDbLine
 10
5267.673057123653
 20
3496.626510994629
 30
0.0
 11
7271.673057123655
 21
3496.626510994629
 31
0.0
  0
LINE
  5
16C89
330
747D
100
AcDbEntity
  8
細線
100
AcDbLine
 10
5267.673057123653
 20
3431.626510994629
 30
0.0
 11
7271.673057123655
 21
3431.626510994629
 31
0.0
  0
LINE
  5
16C8A
330
747D
100
AcDbEntity
  8
細線
100
AcDbLine
 10
5267.673057123653
 20
3366.626510994629
 30
0.0
 11
7271.673057123655
 21
3366.626510994629
 31
0.0
  0
LINE
  5
16C8B
330
747D
100
AcDbEntity
  8
細線
100
AcDbLine
 10
5267.673057123653
 20
3301.626510994629
 30
0.0
 11
7271.673057123655
 21
3301.626510994629
 31
0.0
  0
LINE
  5
16C8C
330
747D
100
AcDbEntity
  8
細線
100
AcDbLine
 10
5267.673057123653
 20
3236.626510994629
 30
0.0
 11
7271.673057123655
 21
3236.626510994629
 31
0.0
  0
LINE
  5
16C8D
330
747D
100
AcDbEntity
  8
細線
100
AcDbLine
 10
5267.673057123653
 20
3756.626510994629
 30
0.0
 11
7271.673057123655
 21
3756.626510994629
 31
0.0
  0
LINE
  5
16C8E
330
747D
100
AcDbEntity
  8
細線
100
AcDbLine
 10
5267.673057123653
 20
3691.626510994629
 30
0.0
 11
7271.673057123655
 21
3691.626510994629
 31
0.0
  0
LINE
  5
16C8F
330
747D
100
AcDbEntity
  8
細線
100
AcDbLine
 10
5267.673057123653
 20
3626.626510994629
 30
0.0
 11
7271.673057123655
 21
3626.626510994629
 31
0.0
  0
LINE
  5
16C90
330
747D
100
AcDbEntity
  8
部品1
100
AcDbLine
 10
5164.673057123657
 20
3916.626510994629
 30
0.0
 11
7374.673057123658
 21
3916.62651099463
 31
0.0
  0
LINE
  5
16C91
330
747D
100
AcDbEntity
  8
部品1
100
AcDbLine
 10
7271.673057123658
 20
3916.62651099463
 30
0.0
 11
7271.673057123656
 21
1991.626510994629
 31
0.0
  0
LINE
  5
16C92
330
747D
100
AcDbEntity
  8
部品1
100
AcDbLine
 10
5267.673057123657
 20
3916.626510994629
 30
0.0
 11
5267.673057123657
 21
1991.626510994629
 31
0.0
  0
LINE
  5
16C93
330
747D
100
AcDbEntity
  8
破線
  6
HIDDEN
 48
5.0
100
AcDbLine
 10
9833.473322666026
 20
1841.626510994629
 30
0.0
 11
9833.473322666026
 21
1591.626510994629
 31
0.0
  0
LINE
  5
16C94
330
747D
100
AcDbEntity
  8
破線
  6
HIDDEN
 48
5.0
100
AcDbLine
 10
9888.473322666028
 20
1841.626510994629
 30
0.0
 11
9888.473322666028
 21
1591.626510994629
 31
0.0
  0
LINE
  5
16C95
330
747D
100
AcDbEntity
  8
破線
  6
HIDDEN
 48
5.0
100
AcDbLine
 10
9833.473322666026
 20
1591.626510994629
 30
0.0
 11
9888.473322666024
 21
1591.626510994629
 31
0.0
  0
LINE
  5
16C99
330
747D
100
AcDbEntity
  8
部品1
100
AcDbLine
 10
9888.473322666028
 20
1941.626510994629
 30
0.0
 11
11155.97332266602
 21
1941.626510994629
 31
0.0
  0
LINE
  5
16C9D
330
747D
100
AcDbEntity
  8
部品1
100
AcDbLine
 10
7374.673057123658
 20
4175.626510994635
 30
0.0
 11
7374.673057123657
 21
1841.626510994629
 31
0.0
  0
LINE
  5
16C9E
330
747D
100
AcDbEntity
  8
部品1
100
AcDbLine
 10
5219.673057123658
 20
3916.626510994629
 30
0.0
 11
5219.673057123657
 21
1841.626510994629
 31
0.0
  0
LINE
  5
16C9F
330
747D
100
AcDbEntity
  8
部品1
100
AcDbLine
 10
7319.673057123657
 20
3916.62651099463
 30
0.0
 11
7319.673057123655
 21
1841.626510994629
 31
0.0
  0
LINE
  5
16CA0
330
747D
100
AcDbEntity
  8
部品1
100
AcDbLine
 10
5164.673057123657
 20
4175.626510994635
 30
0.0
 11
5164.673057123657
 21
1841.626510994629
 31
0.0
  0
LINE
  5
16CA1
330
747D
100
AcDbEntity
  8
部品1
100
AcDbLine
 10
5219.673057123655
 20
1941.626510994629
 30
0.0
 11
7319.673057123655
 21
1941.626510994629
 31
0.0
  0
LINE
  5
16CA2
330
747D
100
AcDbEntity
  8
部品1
100
AcDbLine
 10
10288.47332266602
 20
1941.626510994629
 30
0.0
 11
10288.47332266602
 21
1841.626510994629
 31
0.0
  0
LINE
  5
16CA3
330
747D
100
AcDbEntity
  8
部品1
100
AcDbLine
 10
4325.903465777273
 20
1971.530321562293
 30
0.0
 11
4250.903465777273
 21
1841.626510994629
 31
0.0
  0
TEXT
  5
16CA4
330
747D
100
AcDbEntity
  8
部品1
100
AcDbText
 10
4354.008407902047
 20
1877.73341460053
 30
0.0
 40
125.0
  1
G.L
  7
STYLE2
100
AcDbText
  0
LINE
  5
16CA5
330
747D
100
AcDbEntity
  8
部品1
100
AcDbLine
 10
4250.903465777273
 20
1841.626510994629
 30
0.0
 11
4175.903465777273
 21
1971.530321562293
 31
0.0
  0
LINE
  5
16CA6
330
747D
100
AcDbEntity
  8
部品1
100
AcDbLine
 10
4175.903465777273
 20
1971.530321562293
 30
0.0
 11
4325.903465777273
 21
1971.530321562293
 31
0.0
  0
DIMENSION
  5
16CA7
330
747D
100
AcDbEntity
  8
寸法
100
AcDbDimension
  2
*D28
 10
11908.40048063815
 20
4261.626510994629
 30
0.0
 11
11908.40048063815
 21
3096.626510994629
 31
0.0
 70
   160
 71
     5
 42
2320.0
  3
INABA_S40G
100
AcDbAlignedDimension
 13
11203.47332266602
 23
1941.626510994629
 33
0.0
 14
11298.47332266602
 24
4261.626510994629
 34
0.0
 50
90.0
100
AcDbRotatedDimension
1001
ACAD
1000
DSTYLE
1002
{
1070
   288
1070
     1
1002
}
  0
LINE
  5
16CA8
330
747D
100
AcDbEntity
  8
部品1
100
AcDbLine
 10
11148.47332266602
 20
4081.626510994629
 30
0.0
 11
11148.47332266602
 21
1991.626510994629
 31
0.0
  0
LINE
  5
16CA9
330
747D
100
AcDbEntity
  8
部品1
100
AcDbLine
 10
11203.47332266602
 20
4136.263091829882
 30
0.0
 11
11203.47332266602
 21
1841.626510994629
 31
0.0
  0
LINE
  5
16CAA
330
747D
100
AcDbEntity
  8
部品1
100
AcDbLine
 10
10728.47332266603
 20
4081.626510994629
 30
0.0
 11
10728.47332266603
 21
1991.626510994629
 31
0.0
  0
LINE
  5
16CAB
330
747D
100
AcDbEntity
  8
部品1
100
AcDbLine
 10
10308.47332266602
 20
4081.626510994629
 30
0.0
 11
10308.47332266602
 21
1991.626510994629
 31
0.0
  0
DIMENSION
  5
16CAC
330
747D
100
AcDbEntity
  8
寸法
100
AcDbDimension
  2
*D29
 10
8989.723193482767
 20
1941.626510994629
 30
0.0
 11
8989.723193482767
 21
1557.876510994629
 31
0.0
 70
   160
 71
     5
 42
50.0
  3
INABA_S40G
100
AcDbAlignedDimension
 13
9833.473322666026
 23
1991.626510994629
 33
0.0
 14
9833.473322666026
 24
1941.626510994629
 34
0.0
 50
90.0
100
AcDbRotatedDimension
1001
ACAD
1000
DSTYLE
1002
{
1070
   288
1070
     1
1002
}
  0
DIMENSION
  5
16CAD
330
747D
100
AcDbEntity
  8
寸法
100
AcDbDimension
  2
*D30
 10
8689.723193482768
 20
1841.626510994629
 30
0.0
 11
8689.723193482768
 21
1426.626510994629
 31
0.0
 70
   160
 71
     5
 42
100.0000000000002
  3
INABA_S40G
100
AcDbAlignedDimension
 13
9833.473322666026
 23
1941.626510994629
 33
0.0
 14
8776.972246770894
 24
1841.626510994629
 34
0.0
 50
90.0
100
AcDbRotatedDimension
1001
ACAD
1000
DSTYLE
1002
{
1070
   288
1070
     1
1002
}
  0
DIMENSION
  5
16CAF
330
747D
100
AcDbEntity
  8
寸法
100
AcDbDimension
  2
*D31
 10
8989.723193482767
 20
1991.626510994629
 30
0.0
 11
8889.711382459145
 21
3036.626510994631
 31
0.0
 70
    32
 71
     5
 42
2090.0
  3
INABA_S40G
100
AcDbAlignedDimension
 13
9833.473322666026
 23
4081.626510994629
 33
0.0
 14
9833.473322666026
 24
1991.626510994629
 34
0.0
 50
90.0
100
AcDbRotatedDimension
1001
ACAD
1000
DSTYLE
1002
{
1070
   288
1070
     1
1002
}
  0
LINE
  5
16CB0
330
747D
100
AcDbEntity
  8
部品1
100
AcDbLine
 10
9833.47332266603
 20
4173.203404935072
 30
0.0
 11
9833.473322666026
 21
1841.626510994629
 31
0.0
  0
LINE
  5
16CB1
330
747D
100
AcDbEntity
  8
部品1
100
AcDbLine
 10
9888.473322666028
 20
4081.626510994629
 30
0.0
 11
9888.473322666028
 21
1841.626510994629
 31
0.0
  0
LINE
  5
16CB2
330
747D
100
AcDbEntity
  8
部品1
100
AcDbLine
 10
9888.473322666028
 20
1991.626510994629
 30
0.0
 11
11203.47332266602
 21
1991.626510994629
 31
0.0
  0
LINE
  5
16CB3
330
747D
100
AcDbEntity
  8
部品1
100
AcDbLine
 10
9833.473322666026
 20
4081.626510994629
 30
0.0
 11
11203.47332266602
 21
4081.626510994629
 31
0.0
  0
LINE
  5
16CB4
330
747D
100
AcDbEntity
  8
Ｇ．Ｌ
100
AcDbLine
 10
4076.406454453174
 20
1841.626510994629
 30
0.0
 11
12370.79354554682
 21
1841.626510994629
 31
0.0
  0
DIMENSION
  5
17886
330
747D
100
AcDbEntity
  8
寸法
100
AcDbDimension
  2
*D32
 10
8689.723193482766
 20
4316.626510994634
 30
0.0
 11
8589.711382459141
 21
3129.126510994634
 31
0.0
 70
    32
 71
     5
 42
2375.000000000005
  3
INABA_S40G
100
AcDbAlignedDimension
 13
9833.473322666025
 23
1941.626510994629
 33
0.0
 14
9773.473322666028
 24
4316.626510994634
 34
0.0
 50
90.0
100
AcDbRotatedDimension
1001
ACAD
1000
DSTYLE
1002
{
1070
   174
1070
     0
1070
   272
1070
     1
1070
   288
1070
     0
1070
   341
1005
0
1002
}
  0
MTEXT
  5
17A22
330
747D
100
AcDbEntity
  8
寸法
 62
     7
 48
50.0
100
AcDbMText
 10
5842.388255196299
 20
7936.903693513001
 30
0.0
 40
96.0
 41
0.0
 71
     5
 72
     1
  1
棚 3段
  7
STYLE1
 73
     1
 44
1.0
1001
ACAD
1000
MTEXTBEGIN
1070
    73
1070
     1
1070
    44
1040
1.0
1070
    74
1070
     0
1000
MTEXTEND
  0
MTEXT
  5
17C02
330
747D
100
AcDbEntity
  8
寸法
 62
     7
 48
50.0
100
AcDbMText
 10
6932.3882551963
 20
7936.903693513049
 30
0.0
 40
96.0
 41
0.0
 71
     5
 72
     1
  1
棚 3段
  7
STYLE1
 73
     1
 44
1.0
1001
ACAD
1000
MTEXTBEGIN
1070
    73
1070
     1
1070
    44
1040
1.0
1070
    74
1070
     0
1000
MTEXTEND
  0
LINE
  5
183A0
330
747D
100
AcDbEntity
  8
部品1
 48
50.0
100
AcDbLine
 10
6023.673057123647
 20
1941.626510994629
 30
0.0
 11
6023.673057123647
 21
1841.626510994629
 31
0.0
  0
LINE
  5
183A1
330
747D
100
AcDbEntity
  8
部品1
 48
50.0
100
AcDbLine
 10
5823.673057123647
 20
1941.626510994629
 30
0.0
 11
5823.673057123647
 21
1841.626510994629
 31
0.0
  0
LINE
  5
183A2
330
747D
100
AcDbEntity
  8
部品1
 48
50.0
100
AcDbLine
 10
6715.673057123646
 20
1941.626510994629
 30
0.0
 11
6715.673057123646
 21
1841.626510994629
 31
0.0
  0
LINE
  5
183A3
330
747D
100
AcDbEntity
  8
部品1
 48
50.0
100
AcDbLine
 10
6515.673057123646
 20
1941.626510994629
 30
0.0
 11
6515.673057123646
 21
1841.626510994629
 31
0.0
  0
LINE
  5
183A4
330
747D
100
AcDbEntity
  8
破線
  6
HIDDEN
 48
10.0
100
AcDbLine
 10
5949.173057123679
 20
7112.497424545789
 30
0.0
 11
5949.173057123682
 21
7872.497424545935
 31
0.0
  0
LINE
  5
183A5
330
747D
100
AcDbEntity
  8
破線
  6
HIDDEN
 48
10.0
100
AcDbLine
 10
5899.173057123684
 20
7112.497424545785
 30
0.0
 11
5899.173057123682
 21
7872.49742454593
 31
0.0
  0
LINE
  5
183A6
330
747D
100
AcDbEntity
  8
破線
  6
HIDDEN
 48
10.0
100
AcDbLine
 10
6590.173057123684
 20
7112.497424545825
 30
0.0
 11
6590.173057123682
 21
7872.497424545975
 31
0.0
  0
LINE
  5
183A7
330
747D
100
AcDbEntity
  8
破線
  6
HIDDEN
 48
10.0
100
AcDbLine
 10
6640.173057123681
 20
7112.497424545825
 30
0.0
 11
6640.173057123684
 21
7872.497424545973
 31
0.0
  0
LINE
  5
183A8
330
747D
100
AcDbEntity
  8
破線
  6
HIDDEN
 48
10.0
100
AcDbLine
 10
5899.173057123685
 20
7137.497424545784
 30
0.0
 11
5244.673057123649
 21
7137.497424545746
 31
0.0
  0
LINE
  5
183C5
330
747D
100
AcDbEntity
  8
補助
  6
PHANTOM
 62
   230
 48
50.0
100
AcDbLine
 10
140.0
 20
0.0
 30
0.0
 11
139.9999999999995
 21
11409.6
 31
0.0
  0
DIMENSION
  5
18545
330
747D
100
AcDbEntity
  8
寸法
 48
50.0
100
AcDbDimension
  2
*D33
 10
7662.216159445404
 20
4081.626510994629
 30
0.0
 11
7662.216159445403
 21
4320.111792368868
 31
0.0
 70
   160
 71
     5
 42
164.9999999999986
  3
INABA_S40G
100
AcDbAlignedDimension
 13
7374.673057123658
 23
3916.62651099463
 33
0.0
 14
7374.673057123657
 24
4081.626510994629
 34
0.0
 50
90.0
100
AcDbRotatedDimension
1001
ACAD
1000
DSTYLE
1002
{
1002
}
  0
DIMENSION
  5
18546
330
747D
100
AcDbEntity
  8
寸法
 48
50.0
100
AcDbDimension
  2
*D34
 10
7662.216159445403
 20
3916.62651099463
 30
0.0
 11
7802.385982691768
 21
3917.593710834288
 31
0.0
 70
   160
 71
     5
 42
27.00000000000227
  3
INABA_S40G
100
AcDbAlignedDimension
 13
7374.673057123658
 23
3889.626510994628
 33
0.0
 14
7374.673057123658
 24
3916.62651099463
 34
0.0
 50
90.0
100
AcDbRotatedDimension
1001
ACAD
1000
DSTYLE
1002
{
1070
   279
1070
     2
1002
}
  0
DIMENSION
  5
18547
330
747D
100
AcDbEntity
  8
寸法
 48
50.0
100
AcDbDimension
  2
*D35
 10
7662.216159445403
 20
3889.626510994628
 30
0.0
 11
7562.216159445402
 21
2946.62651099463
 31
0.0
 70
    32
  1
有効開口部高サ <>
 71
     5
 42
1885.999999999999
  3
INABA_S40G
100
AcDbAlignedDimension
 13
7374.673057123657
 23
2003.626510994629
 33
0.0
 14
7374.673057123658
 24
3889.626510994628
 34
0.0
 50
90.0
100
AcDbRotatedDimension
  0
TEXT
  5
187DD
330
747D
100
AcDbEntity
  8
文字
 62
     7
 48
50.0
100
AcDbText
 10
14646.46056207479
 20
871.9640646083623
 30
0.0
 40
100.0
  1
～一般型・多雪地型～
  7
STYLE2
100
AcDbText
  0
TEXT
  5
187F9
330
747D
100
AcDbEntity
  8
文字
 62
     7
 48
50.0
100
AcDbText
 10
15022.63965474516
 20
9230.013745883725
 30
0.0
 40
100.0
  1
F12            0.7
  7
STYLE1
100
AcDbText
  0
ENDSEC
  0
SECTION
  2
OBJECTS
  0
DICTIONARY
  5
7471
330
0
100
AcDbDictionary
281
     1
  3
ACAD_COLOR
350
166EE
  3
ACAD_GROUP
350
7472
  3
ACAD_LAYOUT
350
166EF
  3
ACAD_MATERIAL
350
166ED
  3
ACAD_MLINESTYLE
350
7473
  3
ACAD_PLOTSETTINGS
350
166F0
  3
ACAD_PLOTSTYLENAME
350
166EB
  3
ACDBHEADERROUNDTRIPXREC
350
18886
  3
AcDbVariableDictionary
350
18882
  3
CONTENTDICTIONARY
350
E71C
  3
DRAWINGVARIABLESDICT
350
F3B9
  0
DICTIONARY
  5
16970
330
7467
100
AcDbDictionary
280
     1
281
     1
  3
ACAD_LAYERSTATES
360
16971
  0
DICTIONARY
  5
166EE
102
{ACAD_REACTORS
330
7471
102
}
330
7471
100
AcDbDictionary
281
     1
  0
DICTIONARY
  5
7472
102
{ACAD_REACTORS
330
7471
102
}
330
7471
100
AcDbDictionary
281
     1
  0
DICTIONARY
  5
166EF
102
{ACAD_REACTORS
330
7471
102
}
330
7471
100
AcDbDictionary
281
     1
  3
Model
350
166F1
  3
レイアウト1
350
166F2
  0
DICTIONARY
  5
166ED
102
{ACAD_REACTORS
330
7471
102
}
330
7471
100
AcDbDictionary
281
     1
  0
DICTIONARY
  5
7473
102
{ACAD_REACTORS
330
7471
102
}
330
7471
100
AcDbDictionary
281
     1
  3
STANDARD
350
7480
  0
DICTIONARY
  5
166F0
102
{ACAD_REACTORS
330
7471
102
}
330
7471
100
AcDbDictionary
281
     1
  0
ACDBDICTIONARYWDFLT
  5
166EB
102
{ACAD_REACTORS
330
7471
102
}
330
7471
100
AcDbDictionary
281
     1
  3
Normal
350
166EC
100
AcDbDictionaryWithDefault
340
166EC
  0
DICTIONARY
  5
18886
102
{ACAD_REACTORS
330
7471
102
}
330
7471
100
AcDbDictionary
281
     1
  3
COLORDICT
350
18888
  3
MATERIALDICT
350
18887
  0
DICTIONARY
  5
18882
102
{ACAD_REACTORS
330
7471
102
}
330
7471
100
AcDbDictionary
281
     1
  3
DIMASSOC
350
18883
  3
PROJECTNAME
350
18884
  0
DICTIONARY
  5
E71C
102
{ACAD_REACTORS
330
7471
102
}
330
7471
100
AcDbDictionary
281
     1
  0
DICTIONARY
  5
F3B9
102
{ACAD_REACTORS
330
7471
102
}
330
7471
100
AcDbDictionary
281
     1
1001
DRAWINGVARIABLESXDATA
1000
POLARMODE
1000
1
  0
DICTIONARY
  5
16971
102
{ACAD_REACTORS
330
16970
102
}
330
16970
100
AcDbDictionary
281
     1
  0
LAYOUT
  5
166F1
102
{ACAD_XDICTIONARY
360
18889
102
}
102
{ACAD_REACTORS
330
166EF
102
}
330
166EF
100
AcDbPlotSettings
  1

  2
none_device
  4
Letter_(8.50_x_11.00_Inches)
  6

 40
6.349999904632568
 41
6.349999904632568
 42
6.350006103515625
 43
6.350006103515625
 44
215.8999938964844
 45
279.3999938964844
 46
0.0
 47
0.0
 48
0.0
 49
0.0
140
0.0
141
0.0
142
1.0
143
1.0
 70
 11952
 72
     1
 73
     1
 74
     0
  7
inaba.ctb
 75
     0
147
1.0
148
-2464.692037279003
149
54.36659085389965
100
AcDbLayout
  1
Model
 70
     1
 71
     0
 10
0.0
 20
0.0
 11
12.0
 21
9.0
 12
0.0
 22
0.0
 32
0.0
 14
0.0
 24
0.0
 34
0.0
 15
0.0
 25
0.0
 35
0.0
146
0.0
 13
0.0
 23
0.0
 33
0.0
 16
1.0
 26
0.0
 36
0.0
 17
0.0
 27
1.0
 37
0.0
 76
     0
330
747D
  0
LAYOUT
  5
166F2
102
{ACAD_XDICTIONARY
360
1888B
102
}
102
{ACAD_REACTORS
330
166EF
102
}
330
166EF
100
AcDbPlotSettings
  1

  2
EPSON LP-8300
  4

  6

 40
0.0
 41
0.0
 42
0.0
 43
0.0
 44
0.0
 45
0.0
 46
0.0
 47
0.0
 48
0.0
 49
0.0
140
0.0
141
0.0
142
1.0
143
1.0
 70
   688
 72
     0
 73
     0
 74
     5
  7
inaba.ctb
 75
    16
147
1.0
148
0.0
149
0.0
100
AcDbLayout
  1
レイアウト1
 70
     0
 71
     1
 10
0.0
 20
0.0
 11
420.0
 21
297.0
 12
0.0
 22
0.0
 32
0.0
 14
1.000000000000000E+20
 24
1.000000000000000E+20
 34
1.000000000000000E+20
 15
-1.000000000000000E+20
 25
-1.000000000000000E+20
 35
-1.000000000000000E+20
146
0.0
 13
0.0
 23
0.0
 33
0.0
 16
1.0
 26
0.0
 36
0.0
 17
0.0
 27
1.0
 37
0.0
 76
     0
330
747A
  0
MLINESTYLE
  5
7480
102
{ACAD_REACTORS
330
7473
102
}
330
7473
100
AcDbMlineStyle
  2
STANDARD
 70
     0
  3

 62
     0
 51
90.0
 52
90.0
 71
     2
 49
0.5
 62
   256
  6
BYLAYER
 49
-0.5
 62
   256
  6
BYLAYER
  0
ACDBPLACEHOLDER
  5
166EC
102
{ACAD_REACTORS
330
166EB
102
}
330
166EB
  0
XRECORD
  5
18888
102
{ACAD_REACTORS
330
18886
102
}
330
18886
100
AcDbXrecord
280
     1
340
166EE
  0
XRECORD
  5
18887
102
{ACAD_REACTORS
330
18886
102
}
330
18886
100
AcDbXrecord
280
     1
340
166ED
  0
DICTIONARYVAR
  5
18883
102
{ACAD_REACTORS
330
18882
102
}
330
18882
100
DictionaryVariables
280
     0
  1
1
  0
DICTIONARYVAR
  5
18884
102
{ACAD_REACTORS
330
18882
102
}
330
18882
100
DictionaryVariables
280
     0
  1

  0
DICTIONARY
  5
18889
330
166F1
100
AcDbDictionary
280
     1
281
     1
  3
ACAD_XREC_ROUNDTRIP
360
1888A
  0
DICTIONARY
  5
1888B
330
166F2
100
AcDbDictionary
280
     1
281
     1
  3
ACAD_XREC_ROUNDTRIP
360
1888C
  0
XRECORD
  5
1888A
102
{ACAD_REACTORS
330
18889
102
}
330
18889
100
AcDbXrecord
280
     1
102
SHADEPLOT
 70
     0
102
SHADEPLOTRESLEVEL
 70
     2
102
SHADEPLOTCUSTOMDPI
 70
   300
  0
XRECORD
  5
1888C
102
{ACAD_REACTORS
330
1888B
102
}
330
1888B
100
AcDbXrecord
280
     1
102
SHADEPLOT
 70
     0
102
SHADEPLOTRESLEVEL
 70
     2
102
SHADEPLOTCUSTOMDPI
 70
   300
  0
ENDSEC
  0
EOF
