  0
SECTION
  2
HEADER
  9
$ACADVER
  1
AC1015
  9
$ACADMAINTVER
 70
    20
  9
$DWGCODEPAGE
  3
ANSI_932
  9
$INSBASE
 10
0.0
 20
0.0
 30
0.0
  9
$EXTMIN
 10
139.9999999999995
 20
-0.0000000000000909
 30
0.0
  9
$EXTMAX
 10
16307.2
 20
11409.6
 30
0.0
  9
$LIMMIN
 10
0.0
 20
0.0
  9
$LIMMAX
 10
16800.0
 20
11880.0
  9
$ORTHOMODE
 70
     0
  9
$REGENMODE
 70
     1
  9
$FILLMODE
 70
     1
  9
$QTEXTMODE
 70
     0
  9
$MIRRTEXT
 70
     1
  9
$LTSCALE
 40
20.0
  9
$ATTMODE
 70
     1
  9
$TEXTSIZE
 40
100.0
  9
$TRACEWID
 40
1.0
  9
$TEXTSTYLE
  7
STYLE2
  9
$CLAYER
  8
部品1
  9
$CELTYPE
  6
BYLAYER
  9
$CECOLOR
 62
   256
  9
$CELTSCALE
 40
50.0
  9
$DISPSILH
 70
     0
  9
$DIMSCALE
 40
40.0
  9
$DIMASZ
 40
2.5
  9
$DIMEXO
 40
0.5
  9
$DIMDLI
 40
7.0
  9
$DIMRND
 40
0.0
  9
$DIMDLE
 40
0.0
  9
$DIMEXE
 40
1.5
  9
$DIMTP
 40
0.0
  9
$DIMTM
 40
0.0
  9
$DIMTXT
 40
3.0
  9
$DIMCEN
 40
0.0
  9
$DIMTSZ
 40
0.0
  9
$DIMTOL
 70
     0
  9
$DIMLIM
 70
     0
  9
$DIMTIH
 70
     0
  9
$DIMTOH
 70
     0
  9
$DIMSE1
 70
     0
  9
$DIMSE2
 70
     0
  9
$DIMTAD
 70
     3
  9
$DIMZIN
 70
     8
  9
$DIMBLK
  1

  9
$DIMASO
 70
     1
  9
$DIMSHO
 70
     1
  9
$DIMPOST
  1

  9
$DIMAPOST
  1

  9
$DIMALT
 70
     0
  9
$DIMALTD
 70
     2
  9
$DIMALTF
 40
0.0394
  9
$DIMLFAC
 40
1.0
  9
$DIMTOFL
 70
     1
  9
$DIMTVP
 40
0.0
  9
$DIMTIX
 70
     1
  9
$DIMSOXD
 70
     0
  9
$DIMSAH
 70
     1
  9
$DIMBLK1
  1
DOTSMALL
  9
$DIMBLK2
  1
DOTSMALL
  9
$DIMSTYLE
  2
INABA_S40G
  9
$DIMCLRD
 70
     0
  9
$DIMCLRE
 70
     0
  9
$DIMCLRT
 70
     7
  9
$DIMTFAC
 40
1.0
  9
$DIMGAP
 40
1.0
  9
$DIMJUST
 70
     0
  9
$DIMSD1
 70
     0
  9
$DIMSD2
 70
     0
  9
$DIMTOLJ
 70
     1
  9
$DIMTZIN
 70
     0
  9
$DIMALTZ
 70
     0
  9
$DIMALTTZ
 70
     0
  9
$DIMUPT
 70
     0
  9
$DIMDEC
 70
     1
  9
$DIMTDEC
 70
     4
  9
$DIMALTU
 70
     2
  9
$DIMALTTD
 70
     2
  9
$DIMTXSTY
  7
STYLE1
  9
$DIMAUNIT
 70
     0
  9
$DIMADEC
 70
     0
  9
$DIMALTRND
 40
0.0
  9
$DIMAZIN
 70
     0
  9
$DIMDSEP
 70
    46
  9
$DIMATFIT
 70
     3
  9
$DIMFRAC
 70
     0
  9
$DIMLDRBLK
  1

  9
$DIMLUNIT
 70
     2
  9
$DIMLWD
 70
    -2
  9
$DIMLWE
 70
    -2
  9
$DIMTMOVE
 70
     2
  9
$LUNITS
 70
     2
  9
$LUPREC
 70
     1
  9
$SKETCHINC
 40
1.0
  9
$FILLETRAD
 40
3.0
  9
$AUNITS
 70
     0
  9
$AUPREC
 70
     0
  9
$MENU
  1
acad
  9
$ELEVATION
 40
0.0
  9
$PELEVATION
 40
0.0
  9
$THICKNESS
 40
0.0
  9
$LIMCHECK
 70
     0
  9
$CHAMFERA
 40
0.0
  9
$CHAMFERB
 40
0.0
  9
$CHAMFERC
 40
0.0
  9
$CHAMFERD
 40
0.0
  9
$SKPOLY
 70
     0
  9
$TDCREATE
 40
2451368.612993866
  9
$TDUCREATE
 40
2451368.237993866
  9
$TDUPDATE
 40
2455569.628585069
  9
$TDUUPDATE
 40
2455569.253585069
  9
$TDINDWG
 40
0.8760039005
  9
$TDUSRTIMER
 40
0.8760039005
  9
$USRTIMER
 70
     1
  9
$ANGBASE
 50
0.0
  9
$ANGDIR
 70
     0
  9
$PDMODE
 70
     3
  9
$PDSIZE
 40
2.0
  9
$PLINEWID
 40
0.0
  9
$SPLFRAME
 70
     0
  9
$SPLINETYPE
 70
     6
  9
$SPLINESEGS
 70
     8
  9
$HANDSEED
  5
1A3DE
  9
$SURFTAB1
 70
     6
  9
$SURFTAB2
 70
     6
  9
$SURFTYPE
 70
     6
  9
$SURFU
 70
     6
  9
$SURFV
 70
     6
  9
$UCSBASE
  2

  9
$UCSNAME
  2

  9
$UCSORG
 10
0.0
 20
0.0
 30
0.0
  9
$UCSXDIR
 10
1.0
 20
0.0
 30
0.0
  9
$UCSYDIR
 10
0.0
 20
1.0
 30
0.0
  9
$UCSORTHOREF
  2

  9
$UCSORTHOVIEW
 70
     0
  9
$UCSORGTOP
 10
0.0
 20
0.0
 30
0.0
  9
$UCSORGBOTTOM
 10
0.0
 20
0.0
 30
0.0
  9
$UCSORGLEFT
 10
0.0
 20
0.0
 30
0.0
  9
$UCSORGRIGHT
 10
0.0
 20
0.0
 30
0.0
  9
$UCSORGFRONT
 10
0.0
 20
0.0
 30
0.0
  9
$UCSORGBACK
 10
0.0
 20
0.0
 30
0.0
  9
$PUCSBASE
  2

  9
$PUCSNAME
  2

  9
$PUCSORG
 10
0.0
 20
0.0
 30
0.0
  9
$PUCSXDIR
 10
1.0
 20
0.0
 30
0.0
  9
$PUCSYDIR
 10
0.0
 20
1.0
 30
0.0
  9
$PUCSORTHOREF
  2

  9
$PUCSORTHOVIEW
 70
     0
  9
$PUCSORGTOP
 10
0.0
 20
0.0
 30
0.0
  9
$PUCSORGBOTTOM
 10
0.0
 20
0.0
 30
0.0
  9
$PUCSORGLEFT
 10
0.0
 20
0.0
 30
0.0
  9
$PUCSORGRIGHT
 10
0.0
 20
0.0
 30
0.0
  9
$PUCSORGFRONT
 10
0.0
 20
0.0
 30
0.0
  9
$PUCSORGBACK
 10
0.0
 20
0.0
 30
0.0
  9
$USERI1
 70
     0
  9
$USERI2
 70
     0
  9
$USERI3
 70
     0
  9
$USERI4
 70
     0
  9
$USERI5
 70
     0
  9
$USERR1
 40
0.0
  9
$USERR2
 40
0.0
  9
$USERR3
 40
0.0
  9
$USERR4
 40
0.0
  9
$USERR5
 40
0.0
  9
$WORLDVIEW
 70
     1
  9
$SHADEDGE
 70
     3
  9
$SHADEDIF
 70
    70
  9
$TILEMODE
 70
     1
  9
$MAXACTVP
 70
    16
  9
$PINSBASE
 10
0.0
 20
0.0
 30
0.0
  9
$PLIMCHECK
 70
     0
  9
$PEXTMIN
 10
1.000000000000000E+20
 20
1.000000000000000E+20
 30
1.000000000000000E+20
  9
$PEXTMAX
 10
-1.000000000000000E+20
 20
-1.000000000000000E+20
 30
-1.000000000000000E+20
  9
$PLIMMIN
 10
0.0
 20
0.0
  9
$PLIMMAX
 10
420.0
 20
297.0
  9
$UNITMODE
 70
     0
  9
$VISRETAIN
 70
     0
  9
$PLINEGEN
 70
     0
  9
$PSLTSCALE
 70
     0
  9
$TREEDEPTH
 70
  3020
  9
$CMLSTYLE
  2
STANDARD
  9
$CMLJUST
 70
     0
  9
$CMLSCALE
 40
1.0
  9
$PROXYGRAPHICS
 70
     1
  9
$MEASUREMENT
 70
     1
  9
$CELWEIGHT
370
    -1
  9
$ENDCAPS
280
     0
  9
$JOINSTYLE
280
     0
  9
$LWDISPLAY
290
     0
  9
$INSUNITS
 70
     0
  9
$HYPERLINKBASE
  1

  9
$STYLESHEET
  1

  9
$XEDIT
290
     1
  9
$CEPSNTYPE
380
     0
  9
$PSTYLEMODE
290
     1
  9
$FINGERPRINTGUID
  2
{9C45E7E3-3C2E-4AE3-8101-E3E393382494}
  9
$VERSIONGUID
  2
{448DA1C8-443A-4A12-A9B3-9FD627E2A93D}
  9
$EXTNAMES
290
     1
  9
$PSVPSCALE
 40
0.0
  9
$OLESTARTUP
290
     0
  0
ENDSEC
  0
SECTION
  2
CLASSES
  0
CLASS
  1
ACDBDICTIONARYWDFLT
  2
AcDbDictionaryWithDefault
  3
ObjectDBX Classes
 90
        0
280
     0
281
     0
  0
CLASS
  1
DICTIONARYVAR
  2
AcDbDictionaryVar
  3
ObjectDBX Classes
 90
        0
280
     0
281
     0
  0
CLASS
  1
ACDBPLACEHOLDER
  2
AcDbPlaceHolder
  3
ObjectDBX Classes
 90
        0
280
     0
281
     0
  0
CLASS
  1
LAYOUT
  2
AcDbLayout
  3
ObjectDBX Classes
 90
        0
280
     0
281
     0
  0
ENDSEC
  0
SECTION
  2
TABLES
  0
TABLE
  2
VPORT
  5
746D
330
0
100
AcDbSymbolTable
 70
     2
  0
VPORT
  5
1A3D6
330
746D
100
AcDbSymbolTableRecord
100
AcDbViewportTableRecord
  2
*Active
 70
     0
 10
0.0
 20
0.0
 11
1.0
 21
1.0
 12
8223.761025238502
 22
5958.735805892718
 13
0.0
 23
0.0
 14
10.0
 24
10.0
 15
10.0
 25
10.0
 16
0.0
 26
0.0
 36
1.0
 17
0.0
 27
0.0
 37
0.0
 40
12025.84116348629
 41
1.627450980392156
 42
50.0
 43
0.0
 44
0.0
 50
0.0
 51
0.0
 71
     0
 72
     0
 73
     1
 74
     0
 75
     0
 76
     0
 77
     0
 78
     0
281
     0
 65
     1
110
0.0
120
0.0
130
0.0
111
1.0
121
0.0
131
0.0
112
0.0
122
1.0
132
0.0
 79
     0
146
0.0
  0
ENDTAB
  0
TABLE
  2
LTYPE
  5
746A
330
0
100
AcDbSymbolTable
 70
     3
  0
LTYPE
  5
7477
330
746A
100
AcDbSymbolTableRecord
100
AcDbLinetypeTableRecord
  2
BYBLOCK
 70
     0
  3

 72
    65
 73
     0
 40
0.0
  0
LTYPE
  5
7478
330
746A
100
AcDbSymbolTableRecord
100
AcDbLinetypeTableRecord
  2
BYLAYER
 70
     0
  3

 72
    65
 73
     0
 40
0.0
  0
LTYPE
  5
7479
330
746A
100
AcDbSymbolTableRecord
100
AcDbLinetypeTableRecord
  2
CONTINUOUS
 70
     0
  3
Solid line
 72
    65
 73
     0
 40
0.0
  0
LTYPE
  5
781A
330
746A
100
AcDbSymbolTableRecord
100
AcDbLinetypeTableRecord
  2
HIDDEN
 70
     0
  3
__ __ __ __ __ __ __ __ __ __ __ __ __ __ __ __
 72
    65
 73
     2
 40
0.375
 49
0.25
 74
     0
 49
-0.125
 74
     0
  0
LTYPE
  5
781B
330
746A
100
AcDbSymbolTableRecord
100
AcDbLinetypeTableRecord
  2
PHANTOM
 70
     0
  3
______  __  __  ______  __  __  ______  __  __ 
 72
    65
 73
     6
 40
2.5
 49
1.25
 74
     0
 49
-0.25
 74
     0
 49
0.25
 74
     0
 49
-0.25
 74
     0
 49
0.25
 74
     0
 49
-0.25
 74
     0
  0
ENDTAB
  0
TABLE
  2
LAYER
  5
7467
102
{ACAD_XDICTIONARY
360
18A29
102
}
330
0
100
AcDbSymbolTable
 70
    10
  0
LAYER
  5
7474
330
7467
100
AcDbSymbolTableRecord
100
AcDbLayerTableRecord
  2
0
 70
     0
 62
     7
  6
CONTINUOUS
370
    -3
390
1839F
  0
LAYER
  5
DEB3
330
7467
100
AcDbSymbolTableRecord
100
AcDbLayerTableRecord
  2
寸法
 70
     0
 62
     4
  6
CONTINUOUS
370
    -3
390
1839F
  0
LAYER
  5
DEB4
330
7467
100
AcDbSymbolTableRecord
100
AcDbLayerTableRecord
  2
部品1
 70
     0
 62
     7
  6
CONTINUOUS
370
    -3
390
1839F
  0
LAYER
  5
DEB5
330
7467
100
AcDbSymbolTableRecord
100
AcDbLayerTableRecord
  2
補助
 70
     0
 62
    -1
  6
CONTINUOUS
370
    -3
390
1839F
  0
LAYER
  5
DEB6
330
7467
100
AcDbSymbolTableRecord
100
AcDbLayerTableRecord
  2
文字
 70
     0
 62
     7
  6
CONTINUOUS
370
    -3
390
1839F
  0
LAYER
  5
F255
330
7467
100
AcDbSymbolTableRecord
100
AcDbLayerTableRecord
  2
DEFPOINTS
 70
     0
 62
     7
  6
CONTINUOUS
290
     0
370
    -3
390
1839F
  0
LAYER
  5
10B54
330
7467
100
AcDbSymbolTableRecord
100
AcDbLayerTableRecord
  2
仕様書枠
 70
     0
 62
   230
  6
CONTINUOUS
370
    -3
390
1839F
  0
LAYER
  5
11729
330
7467
100
AcDbSymbolTableRecord
100
AcDbLayerTableRecord
  2
Ｇ．Ｌ
 70
     0
 62
    30
  6
CONTINUOUS
370
    -3
390
1839F
  0
LAYER
  5
1173F
330
7467
100
AcDbSymbolTableRecord
100
AcDbLayerTableRecord
  2
細線
 70
     0
 62
     5
  6
CONTINUOUS
370
    -3
390
1839F
  0
LAYER
  5
142E2
330
7467
100
AcDbSymbolTableRecord
100
AcDbLayerTableRecord
  2
破線
 70
     0
 62
     2
  6
HIDDEN
370
    -3
390
1839F
  0
ENDTAB
  0
TABLE
  2
STYLE
  5
7468
330
0
100
AcDbSymbolTable
 70
     4
  0
STYLE
  5
7475
330
7468
100
AcDbSymbolTableRecord
100
AcDbTextStyleTableRecord
  2
STANDARD
 70
     0
 40
0.0
 41
1.0
 50
0.0
 71
     0
 42
4.0
  3
txt
  4
C:\AutoCAD LT\bigfont.shx
  0
STYLE
  5
763C
330
7468
100
AcDbSymbolTableRecord
100
AcDbTextStyleTableRecord
  2
MSMINCHO
 70
     0
 40
0.0
 41
1.0
 50
0.0
 71
     0
 42
1.199999999999999
  3
C:\AutoCAD LT\msminch2.TTF
  4

  0
STYLE
  5
F706
330
7468
100
AcDbSymbolTableRecord
100
AcDbTextStyleTableRecord
  2
STYLE1
 70
     0
 40
0.0
 41
1.0
 50
0.0
 71
     0
 42
4.0
  3
isocp.shx
  4
bigfont.shx
  0
STYLE
  5
103BF
330
7468
100
AcDbSymbolTableRecord
100
AcDbTextStyleTableRecord
  2
STYLE2
 70
     0
 40
0.0
 41
1.0
 50
0.0
 71
     0
 42
100.0
  3
MS PGothic.ttf
  4

1001
ACAD
1000
MS PGothic
1071
    32818
  0
ENDTAB
  0
TABLE
  2
VIEW
  5
746B
330
0
100
AcDbSymbolTable
 70
     0
  0
ENDTAB
  0
TABLE
  2
UCS
  5
746C
330
0
100
AcDbSymbolTable
 70
     0
  0
ENDTAB
  0
TABLE
  2
APPID
  5
746E
330
0
100
AcDbSymbolTable
 70
     6
  0
APPID
  5
7476
330
746E
100
AcDbSymbolTableRecord
100
AcDbRegAppTableRecord
  2
ACAD
 70
     0
  0
APPID
  5
DEA9
330
746E
100
AcDbSymbolTableRecord
100
AcDbRegAppTableRecord
  2
CONTENTBLOCKICON
 70
     0
  0
APPID
  5
DEAA
330
746E
100
AcDbSymbolTableRecord
100
AcDbRegAppTableRecord
  2
CONTENTBLOCKDESCRIPTION
 70
     0
  0
APPID
  5
E71D
330
746E
100
AcDbSymbolTableRecord
100
AcDbRegAppTableRecord
  2
CONTENTTABDATA
 70
     0
  0
APPID
  5
E71E
330
746E
100
AcDbSymbolTableRecord
100
AcDbRegAppTableRecord
  2
CONTENTCURRENTTAB
 70
     0
  0
APPID
  5
F3BA
330
746E
100
AcDbSymbolTableRecord
100
AcDbRegAppTableRecord
  2
DRAWINGVARIABLESXDATA
 70
     0
  0
ENDTAB
  0
TABLE
  2
DIMSTYLE
  5
746F
330
0
100
AcDbSymbolTable
 70
     1
100
AcDbDimStyleTable
 71
     1
340
F71F
  0
DIMSTYLE
105
F71F
102
{ACAD_REACTORS
330
162CD
330
162CE
330
162CF
330
162D0
330
162E4
330
162E7
330
162EA
330
162EB
330
16301
330
16302
330
1631F
330
16320
330
16333
330
1659C
330
1659A
330
165E9
330
166DD
330
16913
330
17F5A
330
17F4B
330
17F5D
330
17F49
330
17F83
330
17F47
330
1821F
330
18DC5
330
18EE6
330
18F29
330
18F2A
330
18F51
330
18F53
330
18F56
330
18F72
330
18F81
330
18F8E
330
18F8F
330
18F90
330
18FBC
330
19B3E
330
19B41
330
19EA2
330
19EA3
330
19EA4
330
1A2F7
102
}
330
746F
100
AcDbSymbolTableRecord
100
AcDbDimStyleTableRecord
  2
INABA_S40G
 70
     0
 40
40.0
 41
2.5
 42
0.5
 43
7.0
 44
1.5
 73
     0
 74
     0
 77
     3
 78
     8
140
3.0
141
0.0
143
0.0394
147
1.0
172
     1
173
     1
174
     1
178
     7
271
     1
340
F706
341
F770
343
F770
344
F770
  0
ENDTAB
  0
TABLE
  2
BLOCK_RECORD
  5
7466
330
0
100
AcDbSymbolTable
 70
    45
  0
BLOCK_RECORD
  5
747D
330
7466
100
AcDbSymbolTableRecord
100
AcDbBlockTableRecord
  2
*MODEL_SPACE
340
183A4
  0
BLOCK_RECORD
  5
747A
330
7466
100
AcDbSymbolTableRecord
100
AcDbBlockTableRecord
  2
*PAPER_SPACE
340
183A5
  0
BLOCK_RECORD
  5
F770
330
7466
100
AcDbSymbolTableRecord
100
AcDbBlockTableRecord
  2
_DOTSMALL
340
0
102
{BLKREFS
331
18650
331
18651
331
1865B
331
1865C
331
18662
331
18663
331
18692
331
18693
331
1869D
331
1869E
331
186A8
331
186A9
331
186D1
331
186D2
331
186DD
331
186DE
331
186E8
331
186E9
331
186F2
331
186F3
331
186FB
331
186FC
331
18703
331
18704
331
1870C
331
1870D
331
18717
331
18718
331
18722
331
18723
331
1872B
331
1872C
331
19545
331
19546
331
19559
331
1955A
331
1956C
331
1956D
331
19576
331
19577
331
19591
331
19592
331
1959C
331
1959D
331
195AF
331
195B0
331
195B8
331
195B9
331
195C1
331
195C2
331
195CC
331
195CD
331
19607
331
19608
331
19CB9
331
19CBA
331
19CC2
331
19CC3
331
19CE9
331
19CEA
331
19CFD
331
19CFE
331
19D06
331
19D07
331
19D23
331
19D24
331
19D2E
331
19D2F
331
19D39
331
19D3A
331
19D42
331
19D43
331
19FDB
331
19FDC
331
1A2B0
331
1A2B1
331
1A2BA
331
1A2BB
331
1A30C
331
1A30D
331
1A31F
331
1A320
331
1A328
331
1A329
331
1A3B9
331
1A3BA
331
1A3C5
331
1A3C6
102
}
  0
BLOCK_RECORD
  5
16338
330
7466
100
AcDbSymbolTableRecord
100
AcDbBlockTableRecord
  2
*D1
340
0
  0
BLOCK_RECORD
  5
16344
330
7466
100
AcDbSymbolTableRecord
100
AcDbBlockTableRecord
  2
*D2
340
0
  0
BLOCK_RECORD
  5
16352
330
7466
100
AcDbSymbolTableRecord
100
AcDbBlockTableRecord
  2
*D3
340
0
  0
BLOCK_RECORD
  5
16360
330
7466
100
AcDbSymbolTableRecord
100
AcDbBlockTableRecord
  2
*D4
340
0
  0
BLOCK_RECORD
  5
16384
330
7466
100
AcDbSymbolTableRecord
100
AcDbBlockTableRecord
  2
*D5
340
0
  0
BLOCK_RECORD
  5
1638F
330
7466
100
AcDbSymbolTableRecord
100
AcDbBlockTableRecord
  2
*D6
340
0
  0
BLOCK_RECORD
  5
1639B
330
7466
100
AcDbSymbolTableRecord
100
AcDbBlockTableRecord
  2
*D7
340
0
  0
BLOCK_RECORD
  5
163A9
330
7466
100
AcDbSymbolTableRecord
100
AcDbBlockTableRecord
  2
*D8
340
0
  0
BLOCK_RECORD
  5
163B8
330
7466
100
AcDbSymbolTableRecord
100
AcDbBlockTableRecord
  2
*D9
340
0
  0
BLOCK_RECORD
  5
163C7
330
7466
100
AcDbSymbolTableRecord
100
AcDbBlockTableRecord
  2
*D10
340
0
  0
BLOCK_RECORD
  5
163E1
330
7466
100
AcDbSymbolTableRecord
100
AcDbBlockTableRecord
  2
*D11
340
0
  0
BLOCK_RECORD
  5
163ED
330
7466
100
AcDbSymbolTableRecord
100
AcDbBlockTableRecord
  2
*D12
340
0
  0
BLOCK_RECORD
  5
163FB
330
7466
100
AcDbSymbolTableRecord
100
AcDbBlockTableRecord
  2
*D13
340
0
  0
BLOCK_RECORD
  5
165B5
330
7466
100
AcDbSymbolTableRecord
100
AcDbBlockTableRecord
  2
*D14
340
0
  0
BLOCK_RECORD
  5
165C4
330
7466
100
AcDbSymbolTableRecord
100
AcDbBlockTableRecord
  2
*D15
340
0
  0
BLOCK_RECORD
  5
165EA
330
7466
100
AcDbSymbolTableRecord
100
AcDbBlockTableRecord
  2
*D16
340
0
  0
BLOCK_RECORD
  5
166CF
330
7466
100
AcDbSymbolTableRecord
100
AcDbBlockTableRecord
  2
*D17
340
0
  0
BLOCK_RECORD
  5
16908
330
7466
100
AcDbSymbolTableRecord
100
AcDbBlockTableRecord
  2
*D18
340
0
  0
BLOCK_RECORD
  5
17F89
330
7466
100
AcDbSymbolTableRecord
100
AcDbBlockTableRecord
  2
*D19
340
0
  0
BLOCK_RECORD
  5
17F98
330
7466
100
AcDbSymbolTableRecord
100
AcDbBlockTableRecord
  2
*D20
340
0
  0
BLOCK_RECORD
  5
17FA3
330
7466
100
AcDbSymbolTableRecord
100
AcDbBlockTableRecord
  2
*D21
340
0
  0
BLOCK_RECORD
  5
17FAF
330
7466
100
AcDbSymbolTableRecord
100
AcDbBlockTableRecord
  2
*D22
340
0
  0
BLOCK_RECORD
  5
17FBB
330
7466
100
AcDbSymbolTableRecord
100
AcDbBlockTableRecord
  2
*D23
340
0
  0
BLOCK_RECORD
  5
17FC9
330
7466
100
AcDbSymbolTableRecord
100
AcDbBlockTableRecord
  2
*D24
340
0
  0
BLOCK_RECORD
  5
18222
330
7466
100
AcDbSymbolTableRecord
100
AcDbBlockTableRecord
  2
*D25
340
0
  0
BLOCK_RECORD
  5
19232
330
7466
100
AcDbSymbolTableRecord
100
AcDbBlockTableRecord
  2
*D26
340
0
  0
BLOCK_RECORD
  5
1927F
330
7466
100
AcDbSymbolTableRecord
100
AcDbBlockTableRecord
  2
*D27
340
0
  0
BLOCK_RECORD
  5
1928D
330
7466
100
AcDbSymbolTableRecord
100
AcDbBlockTableRecord
  2
*D28
340
0
  0
BLOCK_RECORD
  5
19299
330
7466
100
AcDbSymbolTableRecord
100
AcDbBlockTableRecord
  2
*D29
340
0
  0
BLOCK_RECORD
  5
192A5
330
7466
100
AcDbSymbolTableRecord
100
AcDbBlockTableRecord
  2
*D30
340
0
  0
BLOCK_RECORD
  5
192BE
330
7466
100
AcDbSymbolTableRecord
100
AcDbBlockTableRecord
  2
*D31
340
0
  0
BLOCK_RECORD
  5
192CC
330
7466
100
AcDbSymbolTableRecord
100
AcDbBlockTableRecord
  2
*D32
340
0
  0
BLOCK_RECORD
  5
192F0
330
7466
100
AcDbSymbolTableRecord
100
AcDbBlockTableRecord
  2
*D33
340
0
  0
BLOCK_RECORD
  5
192FD
330
7466
100
AcDbSymbolTableRecord
100
AcDbBlockTableRecord
  2
*D34
340
0
  0
BLOCK_RECORD
  5
1930A
330
7466
100
AcDbSymbolTableRecord
100
AcDbBlockTableRecord
  2
*D35
340
0
  0
BLOCK_RECORD
  5
19316
330
7466
100
AcDbSymbolTableRecord
100
AcDbBlockTableRecord
  2
*D36
340
0
  0
BLOCK_RECORD
  5
19324
330
7466
100
AcDbSymbolTableRecord
100
AcDbBlockTableRecord
  2
*D37
340
0
  0
BLOCK_RECORD
  5
19330
330
7466
100
AcDbSymbolTableRecord
100
AcDbBlockTableRecord
  2
*D38
340
0
  0
BLOCK_RECORD
  5
19BE7
330
7466
100
AcDbSymbolTableRecord
100
AcDbBlockTableRecord
  2
*D39
340
0
  0
BLOCK_RECORD
  5
19BF3
330
7466
100
AcDbSymbolTableRecord
100
AcDbBlockTableRecord
  2
*D40
340
0
  0
BLOCK_RECORD
  5
19F0D
330
7466
100
AcDbSymbolTableRecord
100
AcDbBlockTableRecord
  2
*D41
340
0
  0
BLOCK_RECORD
  5
19F19
330
7466
100
AcDbSymbolTableRecord
100
AcDbBlockTableRecord
  2
*D42
340
0
  0
BLOCK_RECORD
  5
19F27
330
7466
100
AcDbSymbolTableRecord
100
AcDbBlockTableRecord
  2
*D43
340
0
  0
BLOCK_RECORD
  5
1A2F8
330
7466
100
AcDbSymbolTableRecord
100
AcDbBlockTableRecord
  2
*D44
340
0
  0
ENDTAB
  0
ENDSEC
  0
SECTION
  2
BLOCKS
  0
BLOCK
  5
7489
330
747D
100
AcDbEntity
  8
0
100
AcDbBlockBegin
  2
*MODEL_SPACE
 70
     0
 10
0.0
 20
0.0
 30
0.0
  3
*MODEL_SPACE
  1

  0
ENDBLK
  5
748A
330
747D
100
AcDbEntity
  8
0
100
AcDbBlockEnd
  0
BLOCK
  5
7487
330
747A
100
AcDbEntity
 67
     1
  8
0
100
AcDbBlockBegin
  2
*PAPER_SPACE
 70
     0
 10
0.0
 20
0.0
 30
0.0
  3
*PAPER_SPACE
  1

  0
ENDBLK
  5
7488
330
747A
100
AcDbEntity
 67
     1
  8
0
100
AcDbBlockEnd
  0
BLOCK
  5
F771
330
F770
100
AcDbEntity
  8
0
 48
50.0
100
AcDbBlockBegin
  2
_DOTSMALL
 70
     0
 10
0.0
 20
0.0
 30
0.0
  3
_DOTSMALL
  1

  0
LWPOLYLINE
  5
F772
330
F770
100
AcDbEntity
  8
0
  6
ByBlock
 62
     0
 48
50.0
100
AcDbPolyline
 90
        2
 70
     1
 43
0.5
 10
-0.0625
 20
0.0
 42
1.0
 10
0.0625
 20
0.0
 42
1.0
  0
ENDBLK
  5
F776
330
F770
100
AcDbEntity
  8
0
 48
50.0
100
AcDbBlockEnd
  0
BLOCK
  5
17B1E
330
16338
100
AcDbEntity
  8
0
 48
50.0
100
AcDbBlockBegin
  2
*D1
 70
     1
 10
0.0
 20
0.0
 30
0.0
  3
*D1
  1

  0
LINE
  5
18728
330
16338
100
AcDbEntity
  8
寸法
 62
     0
 48
50.0
370
    -2
100
AcDbLine
 10
10100.7380928001
 20
10231.3887041789
 30
0.0
 11
10788.1644385345
 21
10231.3887041789
 31
0.0
  0
LINE
  5
18729
330
16338
100
AcDbEntity
  8
寸法
 62
     0
 48
50.0
370
    -2
100
AcDbLine
 10
10100.73809280007
 20
6871.388704178883
 30
0.0
 11
10788.1644385345
 21
6871.388704178883
 31
0.0
  0
LINE
  5
1872A
330
16338
100
AcDbEntity
  8
寸法
 62
     0
 48
50.0
370
    -2
100
AcDbLine
 10
10728.1644385345
 20
10231.3887041789
 30
0.0
 11
10728.1644385345
 21
6871.388704178883
 31
0.0
  0
INSERT
  5
1872B
330
16338
100
AcDbEntity
  8
寸法
 62
     0
 48
50.0
370
    -2
100
AcDbBlockReference
  2
_DOTSMALL
 10
10728.1644385345
 20
10231.3887041789
 30
0.0
 41
100.0
 42
100.0
 43
100.0
 50
90.0
  0
INSERT
  5
1872C
330
16338
100
AcDbEntity
  8
寸法
 62
     0
 48
50.0
370
    -2
100
AcDbBlockReference
  2
_DOTSMALL
 10
10728.1644385345
 20
6871.388704178883
 30
0.0
 41
100.0
 42
100.0
 43
100.0
 50
270.0
  0
MTEXT
  5
1872D
330
16338
100
AcDbEntity
  8
寸法
 62
     7
 48
50.0
100
AcDbMText
 10
10628.15262751088
 20
8551.388704178894
 30
0.0
 40
120.0
 41
0.0
 71
     5
 72
     1
  1
\A1;8X420=3360
  7
STYLE1
 11
0.0000000000000001
 21
1.0
 31
0.0
 73
     1
 44
1.0
1001
ACAD
1000
MTEXTBEGIN
1070
    73
1070
     1
1070
    44
1040
1.0
1070
    74
1070
     0
1000
MTEXTEND
  0
POINT
  5
1872E
330
16338
100
AcDbEntity
  8
DEFPOINTS
 62
     0
 48
50.0
100
AcDbPoint
 10
10080.7380928001
 20
10231.3887041789
 30
0.0
  0
POINT
  5
1872F
330
16338
100
AcDbEntity
  8
DEFPOINTS
 62
     0
 48
50.0
100
AcDbPoint
 10
10080.73809280007
 20
6871.388704178883
 30
0.0
  0
POINT
  5
18730
330
16338
100
AcDbEntity
  8
DEFPOINTS
 62
     0
 48
50.0
100
AcDbPoint
 10
10728.1644385345
 20
6871.388704178883
 30
0.0
  0
ENDBLK
  5
17B28
330
16338
100
AcDbEntity
  8
0
 48
50.0
100
AcDbBlockEnd
  0
BLOCK
  5
16414
330
16344
100
AcDbEntity
  8
0
 48
50.0
100
AcDbBlockBegin
  2
*D2
 70
     1
 10
0.0
 20
0.0
 30
0.0
  3
*D2
  1

  0
LINE
  5
1871D
330
16344
100
AcDbEntity
  8
寸法
 62
     0
 48
50.0
370
    -2
100
AcDbLine
 10
10100.73809280007
 20
6871.388704178883
 30
0.0
 11
10788.16443853448
 21
6871.388704178883
 31
0.0
  0
LINE
  5
1871E
330
16344
100
AcDbEntity
  8
寸法
 62
     0
 48
50.0
370
    -2
100
AcDbLine
 10
10100.73809280007
 20
6816.388704178888
 30
0.0
 11
10788.16443853448
 21
6816.388704178887
 31
0.0
  0
LINE
  5
1871F
330
16344
100
AcDbEntity
  8
寸法
 62
     0
 48
50.0
370
    -2
100
AcDbLine
 10
10728.16443853448
 20
6871.388704178883
 30
0.0
 11
10728.16443853448
 21
6971.388704178884
 31
0.0
  0
LINE
  5
18720
330
16344
100
AcDbEntity
  8
寸法
 62
     0
 48
50.0
370
    -2
100
AcDbLine
 10
10728.16443853448
 20
6816.388704178887
 30
0.0
 11
10728.16443853448
 21
6330.041955899784
 31
0.0
  0
LINE
  5
18721
330
16344
100
AcDbEntity
  8
寸法
 62
     0
 48
50.0
370
    -2
100
AcDbLine
 10
10728.16443853448
 20
6871.388704178883
 30
0.0
 11
10728.16443853448
 21
6816.388704178887
 31
0.0
  0
INSERT
  5
18722
330
16344
100
AcDbEntity
  8
寸法
 62
     0
 48
50.0
370
    -2
100
AcDbBlockReference
  2
_DOTSMALL
 10
10728.16443853448
 20
6871.388704178883
 30
0.0
 41
100.0
 42
100.0
 43
100.0
 50
270.0
  0
INSERT
  5
18723
330
16344
100
AcDbEntity
  8
寸法
 62
     0
 48
50.0
370
    -2
100
AcDbBlockReference
  2
_DOTSMALL
 10
10728.16443853448
 20
6816.388704178887
 30
0.0
 41
100.0
 42
100.0
 43
100.0
 50
90.0
  0
MTEXT
  5
18724
330
16344
100
AcDbEntity
  8
寸法
 62
     7
 48
50.0
100
AcDbMText
 10
10628.16443853448
 20
6438.527237274026
 30
0.0
 40
120.0
 41
0.0
 71
     5
 72
     1
  1
\A1;55
  7
STYLE1
 11
0.0000000000000001
 21
1.0
 31
0.0
 73
     1
 44
1.0
1001
ACAD
1000
MTEXTBEGIN
1070
    73
1070
     1
1070
    44
1040
1.0
1070
    74
1070
     0
1000
MTEXTEND
  0
POINT
  5
18725
330
16344
100
AcDbEntity
  8
DEFPOINTS
 62
     0
 48
50.0
100
AcDbPoint
 10
10080.73809280007
 20
6871.388704178883
 30
0.0
  0
POINT
  5
18726
330
16344
100
AcDbEntity
  8
DEFPOINTS
 62
     0
 48
50.0
100
AcDbPoint
 10
10080.73809280007
 20
6816.388704178888
 30
0.0
  0
POINT
  5
18727
330
16344
100
AcDbEntity
  8
DEFPOINTS
 62
     0
 48
50.0
100
AcDbPoint
 10
10728.16443853448
 20
6816.388704178887
 30
0.0
  0
ENDBLK
  5
16420
330
16344
100
AcDbEntity
  8
0
 48
50.0
100
AcDbBlockEnd
  0
BLOCK
  5
16421
330
16352
100
AcDbEntity
  8
0
 48
50.0
100
AcDbBlockBegin
  2
*D3
 70
     1
 10
0.0
 20
0.0
 30
0.0
  3
*D3
  1

  0
LINE
  5
18712
330
16352
100
AcDbEntity
  8
寸法
 62
     0
 48
50.0
370
    -2
100
AcDbLine
 10
10100.7380928001
 20
10286.38870417889
 30
0.0
 11
10788.16443853451
 21
10286.38870417889
 31
0.0
  0
LINE
  5
18713
330
16352
100
AcDbEntity
  8
寸法
 62
     0
 48
50.0
370
    -2
100
AcDbLine
 10
10100.7380928001
 20
10231.3887041789
 30
0.0
 11
10788.16443853451
 21
10231.3887041789
 31
0.0
  0
LINE
  5
18714
330
16352
100
AcDbEntity
  8
寸法
 62
     0
 48
50.0
370
    -2
100
AcDbLine
 10
10728.16443853451
 20
10231.3887041789
 30
0.0
 11
10728.16443853451
 21
10131.3887041789
 31
0.0
  0
LINE
  5
18715
330
16352
100
AcDbEntity
  8
寸法
 62
     0
 48
50.0
370
    -2
100
AcDbLine
 10
10728.16443853451
 20
10286.38870417889
 30
0.0
 11
10728.16443853451
 21
10703.35926692737
 31
0.0
  0
LINE
  5
18716
330
16352
100
AcDbEntity
  8
寸法
 62
     0
 48
50.0
370
    -2
100
AcDbLine
 10
10728.16443853451
 20
10231.3887041789
 30
0.0
 11
10728.16443853451
 21
10286.38870417889
 31
0.0
  0
INSERT
  5
18717
330
16352
100
AcDbEntity
  8
寸法
 62
     0
 48
50.0
370
    -2
100
AcDbBlockReference
  2
_DOTSMALL
 10
10728.16443853451
 20
10231.3887041789
 30
0.0
 41
100.0
 42
100.0
 43
100.0
 50
90.0
  0
INSERT
  5
18718
330
16352
100
AcDbEntity
  8
寸法
 62
     0
 48
50.0
370
    -2
100
AcDbBlockReference
  2
_DOTSMALL
 10
10728.16443853451
 20
10286.38870417889
 30
0.0
 41
100.0
 42
100.0
 43
100.0
 50
270.0
  0
MTEXT
  5
18719
330
16352
100
AcDbEntity
  8
寸法
 62
     7
 48
50.0
100
AcDbMText
 10
10628.16443853451
 20
10594.87398555313
 30
0.0
 40
120.0
 41
0.0
 71
     5
 72
     1
  1
\A1;55
  7
STYLE1
 11
0.0000000000000001
 21
1.0
 31
0.0
 73
     1
 44
1.0
1001
ACAD
1000
MTEXTBEGIN
1070
    73
1070
     1
1070
    44
1040
1.0
1070
    74
1070
     0
1000
MTEXTEND
  0
POINT
  5
1871A
330
16352
100
AcDbEntity
  8
DEFPOINTS
 62
     0
 48
50.0
100
AcDbPoint
 10
10080.7380928001
 20
10286.38870417889
 30
0.0
  0
POINT
  5
1871B
330
16352
100
AcDbEntity
  8
DEFPOINTS
 62
     0
 48
50.0
100
AcDbPoint
 10
10080.7380928001
 20
10231.3887041789
 30
0.0
  0
POINT
  5
1871C
330
16352
100
AcDbEntity
  8
DEFPOINTS
 62
     0
 48
50.0
100
AcDbPoint
 10
10728.16443853451
 20
10231.3887041789
 30
0.0
  0
ENDBLK
  5
1642D
330
16352
100
AcDbEntity
  8
0
 48
50.0
100
AcDbBlockEnd
  0
BLOCK
  5
17B06
330
16360
100
AcDbEntity
  8
0
 48
50.0
100
AcDbBlockBegin
  2
*D4
 70
     1
 10
0.0
 20
0.0
 30
0.0
  3
*D4
  1

  0
LINE
  5
18709
330
16360
100
AcDbEntity
  8
寸法
 62
     0
 48
50.0
370
    -2
100
AcDbLine
 10
10100.7380928001
 20
10286.38870417889
 30
0.0
 11
11153.27138027414
 21
10286.38870417889
 31
0.0
  0
LINE
  5
1870A
330
16360
100
AcDbEntity
  8
寸法
 62
     0
 48
50.0
370
    -2
100
AcDbLine
 10
10100.73809280007
 20
6816.388704178888
 30
0.0
 11
11153.27138027414
 21
6816.388704178887
 31
0.0
  0
LINE
  5
1870B
330
16360
100
AcDbEntity
  8
寸法
 62
     0
 48
50.0
370
    -2
100
AcDbLine
 10
11093.27138027414
 20
10286.38870417889
 30
0.0
 11
11093.27138027414
 21
6816.388704178887
 31
0.0
  0
INSERT
  5
1870C
330
16360
100
AcDbEntity
  8
寸法
 62
     0
 48
50.0
370
    -2
100
AcDbBlockReference
  2
_DOTSMALL
 10
11093.27138027414
 20
10286.38870417889
 30
0.0
 41
100.0
 42
100.0
 43
100.0
 50
90.0
  0
INSERT
  5
1870D
330
16360
100
AcDbEntity
  8
寸法
 62
     0
 48
50.0
370
    -2
100
AcDbBlockReference
  2
_DOTSMALL
 10
11093.27138027414
 20
6816.388704178887
 30
0.0
 41
100.0
 42
100.0
 43
100.0
 50
270.0
  0
MTEXT
  5
1870E
330
16360
100
AcDbEntity
  8
寸法
 62
     7
 48
50.0
100
AcDbMText
 10
10993.27138027414
 20
8551.388704178894
 30
0.0
 40
120.0
 41
0.0
 71
     5
 72
     1
  1
\A1;3470
  7
STYLE1
 11
0.0000000000000001
 21
1.0
 31
0.0
 73
     1
 44
1.0
1001
ACAD
1000
MTEXTBEGIN
1070
    73
1070
     1
1070
    44
1040
1.0
1070
    74
1070
     0
1000
MTEXTEND
  0
POINT
  5
1870F
330
16360
100
AcDbEntity
  8
DEFPOINTS
 62
     0
 48
50.0
100
AcDbPoint
 10
10080.7380928001
 20
10286.38870417889
 30
0.0
  0
POINT
  5
18710
330
16360
100
AcDbEntity
  8
DEFPOINTS
 62
     0
 48
50.0
100
AcDbPoint
 10
10080.73809280007
 20
6816.388704178888
 30
0.0
  0
POINT
  5
18711
330
16360
100
AcDbEntity
  8
DEFPOINTS
 62
     0
 48
50.0
100
AcDbPoint
 10
11093.27138027414
 20
6816.388704178887
 30
0.0
  0
ENDBLK
  5
17B10
330
16360
100
AcDbEntity
  8
0
 48
50.0
100
AcDbBlockEnd
  0
BLOCK
  5
171E3
330
16384
100
AcDbEntity
  8
0
 48
50.0
100
AcDbBlockBegin
  2
*D5
 70
     1
 10
0.0
 20
0.0
 30
0.0
  3
*D5
  1

  0
LINE
  5
18701
330
16384
100
AcDbEntity
  8
寸法
 62
     0
 48
50.0
370
    -2
100
AcDbLine
 10
7133.738092800093
 20
6822.388704178796
 30
0.0
 11
7133.738092800093
 21
6221.957933412632
 31
0.0
  0
LINE
  5
18702
330
16384
100
AcDbEntity
  8
寸法
 62
     0
 48
50.0
370
    -2
100
AcDbLine
 10
9977.738092800075
 20
6281.957933412632
 30
0.0
 11
7133.738092800093
 21
6281.957933412632
 31
0.0
  0
INSERT
  5
18703
330
16384
100
AcDbEntity
  8
寸法
 62
     0
 48
50.0
370
    -2
100
AcDbBlockReference
  2
_DOTSMALL
 10
9977.738092800075
 20
6281.957933412632
 30
0.0
 41
100.0
 42
100.0
 43
100.0
  0
INSERT
  5
18704
330
16384
100
AcDbEntity
  8
寸法
 62
     0
 48
50.0
370
    -2
100
AcDbBlockReference
  2
_DOTSMALL
 10
7133.738092800093
 20
6281.957933412632
 30
0.0
 41
100.0
 42
100.0
 43
100.0
 50
180.0
  0
MTEXT
  5
18705
330
16384
100
AcDbEntity
  8
寸法
 62
     7
 48
50.0
100
AcDbMText
 10
8555.738092800083
 20
6381.969744436254
 30
0.0
 40
120.0
 41
0.0
 71
     5
 72
     1
  1
\A1;有効開口部間口 2844
  7
STYLE1
 73
     1
 44
1.0
1001
ACAD
1000
MTEXTBEGIN
1070
    73
1070
     1
1070
    44
1040
1.0
1070
    74
1070
     0
1000
MTEXTEND
  0
POINT
  5
18706
330
16384
100
AcDbEntity
  8
DEFPOINTS
 62
     0
 48
50.0
100
AcDbPoint
 10
9977.738092800075
 20
6842.388704178796
 30
0.0
  0
POINT
  5
18707
330
16384
100
AcDbEntity
  8
DEFPOINTS
 62
     0
 48
50.0
100
AcDbPoint
 10
7133.738092800093
 20
6842.388704178796
 30
0.0
  0
POINT
  5
18708
330
16384
100
AcDbEntity
  8
DEFPOINTS
 62
     0
 48
50.0
100
AcDbPoint
 10
7133.738092800093
 20
6281.957933412632
 30
0.0
  0
ENDBLK
  5
171EC
330
16384
100
AcDbEntity
  8
0
 48
50.0
100
AcDbBlockEnd
  0
BLOCK
  5
1813B
330
1638F
100
AcDbEntity
  8
0
 48
50.0
100
AcDbBlockBegin
  2
*D6
 70
     1
 10
0.0
 20
0.0
 30
0.0
  3
*D6
  1

  0
LINE
  5
186F8
330
1638F
100
AcDbEntity
  8
寸法
 62
     0
 48
50.0
370
    -2
100
AcDbLine
 10
930.7380928000929
 20
6796.388704178792
 30
0.0
 11
930.7380928000929
 21
5775.784937821757
 31
0.0
  0
LINE
  5
186F9
330
1638F
100
AcDbEntity
  8
寸法
 62
     0
 48
50.0
370
    -2
100
AcDbLine
 10
10080.73809280006
 20
6796.388704178887
 30
0.0
 11
10080.73809280006
 21
5775.784937821757
 31
0.0
  0
LINE
  5
186FA
330
1638F
100
AcDbEntity
  8
寸法
 62
     0
 48
50.0
370
    -2
100
AcDbLine
 10
930.7380928000929
 20
5835.784937821758
 30
0.0
 11
10080.73809280006
 21
5835.784937821758
 31
0.0
  0
INSERT
  5
186FB
330
1638F
100
AcDbEntity
  8
寸法
 62
     0
 48
50.0
370
    -2
100
AcDbBlockReference
  2
_DOTSMALL
 10
930.7380928000929
 20
5835.784937821758
 30
0.0
 41
100.0
 42
100.0
 43
100.0
 50
180.0
  0
INSERT
  5
186FC
330
1638F
100
AcDbEntity
  8
寸法
 62
     0
 48
50.0
370
    -2
100
AcDbBlockReference
  2
_DOTSMALL
 10
10080.73809280006
 20
5835.784937821758
 30
0.0
 41
100.0
 42
100.0
 43
100.0
  0
MTEXT
  5
186FD
330
1638F
100
AcDbEntity
  8
寸法
 62
     7
 48
50.0
100
AcDbMText
 10
5505.738092800078
 20
5935.784937821757
 30
0.0
 40
120.0
 41
0.0
 71
     5
 72
     1
  1
\A1;N X 3050
  7
STYLE1
 73
     1
 44
1.0
1001
ACAD
1000
MTEXTBEGIN
1070
    73
1070
     1
1070
    44
1040
1.0
1070
    74
1070
     0
1000
MTEXTEND
  0
POINT
  5
186FE
330
1638F
100
AcDbEntity
  8
DEFPOINTS
 62
     0
 48
50.0
100
AcDbPoint
 10
930.7380928000929
 20
6816.388704178793
 30
0.0
  0
POINT
  5
186FF
330
1638F
100
AcDbEntity
  8
DEFPOINTS
 62
     0
 48
50.0
100
AcDbPoint
 10
10080.73809280006
 20
6816.388704178888
 30
0.0
  0
POINT
  5
18700
330
1638F
100
AcDbEntity
  8
DEFPOINTS
 62
     0
 48
50.0
100
AcDbPoint
 10
10080.73809280006
 20
5835.784937821758
 30
0.0
  0
ENDBLK
  5
18145
330
1638F
100
AcDbEntity
  8
0
 48
50.0
100
AcDbBlockEnd
  0
BLOCK
  5
16464
330
1639B
100
AcDbEntity
  8
0
 48
50.0
100
AcDbBlockBegin
  2
*D7
 70
     1
 10
0.0
 20
0.0
 30
0.0
  3
*D7
  1

  0
LINE
  5
186ED
330
1639B
100
AcDbEntity
  8
寸法
 62
     0
 48
50.0
370
    -2
100
AcDbLine
 10
985.7380928000893
 20
6796.388704178797
 30
0.0
 11
985.7380928000893
 21
6221.957933412632
 31
0.0
  0
LINE
  5
186EE
330
1639B
100
AcDbEntity
  8
寸法
 62
     0
 48
50.0
370
    -2
100
AcDbLine
 10
930.7380928000929
 20
6796.388704178792
 30
0.0
 11
930.7380928000929
 21
6221.957933412632
 31
0.0
  0
LINE
  5
186EF
330
1639B
100
AcDbEntity
  8
寸法
 62
     0
 48
50.0
370
    -2
100
AcDbLine
 10
985.7380928000893
 20
6281.957933412632
 30
0.0
 11
1085.738092800089
 21
6281.957933412632
 31
0.0
  0
LINE
  5
186F0
330
1639B
100
AcDbEntity
  8
寸法
 62
     0
 48
50.0
370
    -2
100
AcDbLine
 10
930.7380928000929
 20
6281.957933412632
 30
0.0
 11
513.7675300516158
 21
6281.957933412632
 31
0.0
  0
LINE
  5
186F1
330
1639B
100
AcDbEntity
  8
寸法
 62
     0
 48
50.0
370
    -2
100
AcDbLine
 10
985.7380928000893
 20
6281.957933412632
 30
0.0
 11
930.7380928000929
 21
6281.957933412632
 31
0.0
  0
INSERT
  5
186F2
330
1639B
100
AcDbEntity
  8
寸法
 62
     0
 48
50.0
370
    -2
100
AcDbBlockReference
  2
_DOTSMALL
 10
985.7380928000893
 20
6281.957933412632
 30
0.0
 41
100.0
 42
100.0
 43
100.0
 50
180.0
  0
INSERT
  5
186F3
330
1639B
100
AcDbEntity
  8
寸法
 62
     0
 48
50.0
370
    -2
100
AcDbBlockReference
  2
_DOTSMALL
 10
930.7380928000929
 20
6281.957933412632
 30
0.0
 41
100.0
 42
100.0
 43
100.0
  0
MTEXT
  5
186F4
330
1639B
100
AcDbEntity
  8
寸法
 62
     7
 48
50.0
100
AcDbMText
 10
622.2528114258543
 20
6381.957933412632
 30
0.0
 40
120.0
 41
0.0
 71
     5
 72
     1
  1
\A1;55
  7
STYLE1
 73
     1
 44
1.0
1001
ACAD
1000
MTEXTBEGIN
1070
    73
1070
     1
1070
    44
1040
1.0
1070
    74
1070
     0
1000
MTEXTEND
  0
POINT
  5
186F5
330
1639B
100
AcDbEntity
  8
DEFPOINTS
 62
     0
 48
50.0
100
AcDbPoint
 10
985.7380928000893
 20
6816.388704178797
 30
0.0
  0
POINT
  5
186F6
330
1639B
100
AcDbEntity
  8
DEFPOINTS
 62
     0
 48
50.0
100
AcDbPoint
 10
930.7380928000929
 20
6816.388704178793
 30
0.0
  0
POINT
  5
186F7
330
1639B
100
AcDbEntity
  8
DEFPOINTS
 62
     0
 48
50.0
100
AcDbPoint
 10
930.7380928000929
 20
6281.957933412632
 30
0.0
  0
ENDBLK
  5
16470
330
1639B
100
AcDbEntity
  8
0
 48
50.0
100
AcDbBlockEnd
  0
BLOCK
  5
16471
330
163A9
100
AcDbEntity
  8
0
 48
50.0
100
AcDbBlockBegin
  2
*D8
 70
     1
 10
0.0
 20
0.0
 30
0.0
  3
*D8
  1

  0
LINE
  5
186E2
330
163A9
100
AcDbEntity
  8
寸法
 62
     0
 48
50.0
370
    -2
100
AcDbLine
 10
7133.738092800093
 20
6822.388704178796
 30
0.0
 11
7133.738092800093
 21
6221.957933412632
 31
0.0
  0
LINE
  5
186E3
330
163A9
100
AcDbEntity
  8
寸法
 62
     0
 48
50.0
370
    -2
100
AcDbLine
 10
7085.738092800089
 20
6796.388704178797
 30
0.0
 11
7085.738092800089
 21
6221.957933412632
 31
0.0
  0
LINE
  5
186E4
330
163A9
100
AcDbEntity
  8
寸法
 62
     0
 48
50.0
370
    -2
100
AcDbLine
 10
7133.738092800093
 20
6281.957933412632
 30
0.0
 11
7233.738092800092
 21
6281.957933412632
 31
0.0
  0
LINE
  5
186E5
330
163A9
100
AcDbEntity
  8
寸法
 62
     0
 48
50.0
370
    -2
100
AcDbLine
 10
7085.738092800089
 20
6281.957933412632
 30
0.0
 11
6985.738092800089
 21
6281.957933412632
 31
0.0
  0
MTEXT
  5
186E6
330
163A9
100
AcDbEntity
  8
寸法
 62
     7
 48
50.0
100
AcDbMText
 10
7246.64006380015
 20
6381.957933412632
 30
0.0
 40
120.0
 41
0.0
 71
     5
 72
     1
  1
\A1;48
  7
STYLE1
 73
     1
 44
1.0
1001
ACAD
1000
MTEXTBEGIN
1070
    73
1070
     1
1070
    44
1040
1.0
1070
    74
1070
     0
1000
MTEXTEND
  0
LINE
  5
186E7
330
163A9
100
AcDbEntity
  8
寸法
 62
     0
 48
50.0
370
    -2
100
AcDbLine
 10
7133.738092800093
 20
6281.957933412632
 30
0.0
 11
7085.738092800089
 21
6281.957933412632
 31
0.0
  0
INSERT
  5
186E8
330
163A9
100
AcDbEntity
  8
寸法
 62
     0
 48
50.0
370
    -2
100
AcDbBlockReference
  2
_DOTSMALL
 10
7133.738092800093
 20
6281.957933412632
 30
0.0
 41
100.0
 42
100.0
 43
100.0
 50
180.0
  0
INSERT
  5
186E9
330
163A9
100
AcDbEntity
  8
寸法
 62
     0
 48
50.0
370
    -2
100
AcDbBlockReference
  2
_DOTSMALL
 10
7085.738092800089
 20
6281.957933412632
 30
0.0
 41
100.0
 42
100.0
 43
100.0
  0
POINT
  5
186EA
330
163A9
100
AcDbEntity
  8
DEFPOINTS
 62
     0
 48
50.0
100
AcDbPoint
 10
7133.738092800093
 20
6842.388704178796
 30
0.0
  0
POINT
  5
186EB
330
163A9
100
AcDbEntity
  8
DEFPOINTS
 62
     0
 48
50.0
100
AcDbPoint
 10
7085.738092800089
 20
6816.388704178797
 30
0.0
  0
POINT
  5
186EC
330
163A9
100
AcDbEntity
  8
DEFPOINTS
 62
     0
 48
50.0
100
AcDbPoint
 10
7085.738092800089
 20
6281.957933412632
 30
0.0
  0
ENDBLK
  5
1647E
330
163A9
100
AcDbEntity
  8
0
 48
50.0
100
AcDbBlockEnd
  0
BLOCK
  5
1647F
330
163B8
100
AcDbEntity
  8
0
 48
50.0
100
AcDbBlockBegin
  2
*D9
 70
     1
 10
0.0
 20
0.0
 30
0.0
  3
*D9
  1

  0
LINE
  5
186D7
330
163B8
100
AcDbEntity
  8
寸法
 62
     0
 48
50.0
370
    -2
100
AcDbLine
 10
10025.73809280007
 20
6796.388704178884
 30
0.0
 11
10025.73809280007
 21
6221.957933412632
 31
0.0
  0
LINE
  5
186D8
330
163B8
100
AcDbEntity
  8
寸法
 62
     0
 48
50.0
370
    -2
100
AcDbLine
 10
9977.738092800075
 20
6822.388704178796
 30
0.0
 11
9977.738092800075
 21
6221.957933412632
 31
0.0
  0
LINE
  5
186D9
330
163B8
100
AcDbEntity
  8
寸法
 62
     0
 48
50.0
370
    -2
100
AcDbLine
 10
10025.73809280007
 20
6281.957933412632
 30
0.0
 11
10125.73809280007
 21
6281.957933412632
 31
0.0
  0
LINE
  5
186DA
330
163B8
100
AcDbEntity
  8
寸法
 62
     0
 48
50.0
370
    -2
100
AcDbLine
 10
9977.738092800075
 20
6281.957933412632
 30
0.0
 11
9877.738092800075
 21
6281.957933412632
 31
0.0
  0
MTEXT
  5
186DB
330
163B8
100
AcDbEntity
  8
寸法
 62
     7
 48
50.0
100
AcDbMText
 10
9866.775195151328
 20
6381.957933412632
 30
0.0
 40
120.0
 41
0.0
 71
     5
 72
     1
  1
\A1;48
  7
STYLE1
 73
     1
 44
1.0
1001
ACAD
1000
MTEXTBEGIN
1070
    73
1070
     1
1070
    44
1040
1.0
1070
    74
1070
     0
1000
MTEXTEND
  0
LINE
  5
186DC
330
163B8
100
AcDbEntity
  8
寸法
 62
     0
 48
50.0
370
    -2
100
AcDbLine
 10
10025.73809280007
 20
6281.957933412632
 30
0.0
 11
9977.738092800075
 21
6281.957933412632
 31
0.0
  0
INSERT
  5
186DD
330
163B8
100
AcDbEntity
  8
寸法
 62
     0
 48
50.0
370
    -2
100
AcDbBlockReference
  2
_DOTSMALL
 10
10025.73809280007
 20
6281.957933412632
 30
0.0
 41
100.0
 42
100.0
 43
100.0
 50
180.0
  0
INSERT
  5
186DE
330
163B8
100
AcDbEntity
  8
寸法
 62
     0
 48
50.0
370
    -2
100
AcDbBlockReference
  2
_DOTSMALL
 10
9977.738092800075
 20
6281.957933412632
 30
0.0
 41
100.0
 42
100.0
 43
100.0
  0
POINT
  5
186DF
330
163B8
100
AcDbEntity
  8
DEFPOINTS
 62
     0
 48
50.0
100
AcDbPoint
 10
10025.73809280007
 20
6816.388704178883
 30
0.0
  0
POINT
  5
186E0
330
163B8
100
AcDbEntity
  8
DEFPOINTS
 62
     0
 48
50.0
100
AcDbPoint
 10
9977.738092800075
 20
6842.388704178796
 30
0.0
  0
POINT
  5
186E1
330
163B8
100
AcDbEntity
  8
DEFPOINTS
 62
     0
 48
50.0
100
AcDbPoint
 10
9977.738092800075
 20
6281.957933412632
 30
0.0
  0
ENDBLK
  5
1648C
330
163B8
100
AcDbEntity
  8
0
 48
50.0
100
AcDbBlockEnd
  0
BLOCK
  5
1648D
330
163C7
100
AcDbEntity
  8
0
 48
50.0
100
AcDbBlockBegin
  2
*D10
 70
     1
 10
0.0
 20
0.0
 30
0.0
  3
*D10
  1

  0
LINE
  5
186CC
330
163C7
100
AcDbEntity
  8
寸法
 62
     0
 48
50.0
370
    -2
100
AcDbLine
 10
10080.73809280007
 20
6796.388704178887
 30
0.0
 11
10080.73809280007
 21
6221.957933412633
 31
0.0
  0
LINE
  5
186CD
330
163C7
100
AcDbEntity
  8
寸法
 62
     0
 48
50.0
370
    -2
100
AcDbLine
 10
10025.73809280007
 20
6796.388704178884
 30
0.0
 11
10025.73809280007
 21
6221.957933412633
 31
0.0
  0
LINE
  5
186CE
330
163C7
100
AcDbEntity
  8
寸法
 62
     0
 48
50.0
370
    -2
100
AcDbLine
 10
10025.73809280007
 20
6281.957933412633
 30
0.0
 11
9925.738092800077
 21
6281.957933412633
 31
0.0
  0
LINE
  5
186CF
330
163C7
100
AcDbEntity
  8
寸法
 62
     0
 48
50.0
370
    -2
100
AcDbLine
 10
10080.73809280007
 20
6281.957933412633
 30
0.0
 11
10497.70865554855
 21
6281.957933412633
 31
0.0
  0
LINE
  5
186D0
330
163C7
100
AcDbEntity
  8
寸法
 62
     0
 48
50.0
370
    -2
100
AcDbLine
 10
10025.73809280007
 20
6281.957933412633
 30
0.0
 11
10080.73809280007
 21
6281.957933412633
 31
0.0
  0
INSERT
  5
186D1
330
163C7
100
AcDbEntity
  8
寸法
 62
     0
 48
50.0
370
    -2
100
AcDbBlockReference
  2
_DOTSMALL
 10
10025.73809280007
 20
6281.957933412633
 30
0.0
 41
100.0
 42
100.0
 43
100.0
  0
INSERT
  5
186D2
330
163C7
100
AcDbEntity
  8
寸法
 62
     0
 48
50.0
370
    -2
100
AcDbBlockReference
  2
_DOTSMALL
 10
10080.73809280007
 20
6281.957933412633
 30
0.0
 41
100.0
 42
100.0
 43
100.0
 50
180.0
  0
MTEXT
  5
186D3
330
163C7
100
AcDbEntity
  8
寸法
 62
     7
 48
50.0
100
AcDbMText
 10
10389.22337417431
 20
6381.957933412633
 30
0.0
 40
120.0
 41
0.0
 71
     5
 72
     1
  1
\A1;55
  7
STYLE1
 73
     1
 44
1.0
1001
ACAD
1000
MTEXTBEGIN
1070
    73
1070
     1
1070
    44
1040
1.0
1070
    74
1070
     0
1000
MTEXTEND
  0
POINT
  5
186D4
330
163C7
100
AcDbEntity
  8
DEFPOINTS
 62
     0
 48
50.0
100
AcDbPoint
 10
10080.73809280007
 20
6816.388704178888
 30
0.0
  0
POINT
  5
186D5
330
163C7
100
AcDbEntity
  8
DEFPOINTS
 62
     0
 48
50.0
100
AcDbPoint
 10
10025.73809280007
 20
6816.388704178883
 30
0.0
  0
POINT
  5
186D6
330
163C7
100
AcDbEntity
  8
DEFPOINTS
 62
     0
 48
50.0
100
AcDbPoint
 10
10025.73809280007
 20
6281.957933412633
 30
0.0
  0
ENDBLK
  5
16499
330
163C7
100
AcDbEntity
  8
0
 48
50.0
100
AcDbBlockEnd
  0
BLOCK
  5
18328
330
163E1
100
AcDbEntity
  8
0
 48
50.0
100
AcDbBlockBegin
  2
*D11
 70
     1
 10
0.0
 20
0.0
 30
0.0
  3
*D11
  1

  0
LINE
  5
19D3F
330
163E1
100
AcDbEntity
  8
寸法
 62
     0
 48
50.0
370
    -2
100
AcDbLine
 10
7085.738092800101
 20
10306.3887041788
 30
0.0
 11
7085.738092800101
 21
10851.66089124576
 31
0.0
  0
LINE
  5
19D40
330
163E1
100
AcDbEntity
  8
寸法
 62
     0
 48
50.0
370
    -2
100
AcDbLine
 10
10025.7380928001
 20
10306.38870417889
 30
0.0
 11
10025.7380928001
 21
10851.66089124576
 31
0.0
  0
LINE
  5
19D41
330
163E1
100
AcDbEntity
  8
寸法
 62
     0
 48
50.0
370
    -2
100
AcDbLine
 10
7085.738092800101
 20
10791.66089124576
 30
0.0
 11
10025.7380928001
 21
10791.66089124576
 31
0.0
  0
INSERT
  5
19D42
330
163E1
100
AcDbEntity
  8
寸法
 62
     0
 48
50.0
370
    -2
100
AcDbBlockReference
  2
_DOTSMALL
 10
7085.738092800101
 20
10791.66089124576
 30
0.0
 41
100.0
 42
100.0
 43
100.0
 50
180.0
  0
INSERT
  5
19D43
330
163E1
100
AcDbEntity
  8
寸法
 62
     0
 48
50.0
370
    -2
100
AcDbBlockReference
  2
_DOTSMALL
 10
10025.7380928001
 20
10791.66089124576
 30
0.0
 41
100.0
 42
100.0
 43
100.0
  0
MTEXT
  5
19D44
330
163E1
100
AcDbEntity
  8
寸法
 62
     7
 48
50.0
100
AcDbMText
 10
8555.738092800101
 20
10891.67270226939
 30
0.0
 40
120.0
 41
0.0
 71
     5
 72
     1
  1
\A1;7X420=2940
  7
STYLE1
 73
     1
 44
1.0
1001
ACAD
1000
MTEXTBEGIN
1070
    73
1070
     1
1070
    44
1040
1.0
1070
    74
1070
     0
1000
MTEXTEND
  0
POINT
  5
19D45
330
163E1
100
AcDbEntity
  8
DEFPOINTS
 62
     0
 48
50.0
100
AcDbPoint
 10
7085.738092800101
 20
10286.3887041788
 30
0.0
  0
POINT
  5
19D46
330
163E1
100
AcDbEntity
  8
DEFPOINTS
 62
     0
 48
50.0
100
AcDbPoint
 10
10025.7380928001
 20
10286.38870417889
 30
0.0
  0
POINT
  5
19D47
330
163E1
100
AcDbEntity
  8
DEFPOINTS
 62
     0
 48
50.0
100
AcDbPoint
 10
10025.7380928001
 20
10791.66089124576
 30
0.0
  0
ENDBLK
  5
18332
330
163E1
100
AcDbEntity
  8
0
 48
50.0
100
AcDbBlockEnd
  0
BLOCK
  5
18354
330
163ED
100
AcDbEntity
  8
0
 48
50.0
100
AcDbBlockBegin
  2
*D12
 70
     1
 10
0.0
 20
0.0
 30
0.0
  3
*D12
  1

  0
LINE
  5
19D34
330
163ED
100
AcDbEntity
  8
寸法
 62
     0
 48
50.0
370
    -2
100
AcDbLine
 10
930.7380928000638
 20
10306.3887041788
 30
0.0
 11
930.7380928000638
 21
10851.66089124565
 31
0.0
  0
LINE
  5
19D35
330
163ED
100
AcDbEntity
  8
寸法
 62
     0
 48
50.0
370
    -2
100
AcDbLine
 10
985.7380928001003
 20
10306.3887041788
 30
0.0
 11
985.7380928001003
 21
10851.66089124565
 31
0.0
  0
LINE
  5
19D36
330
163ED
100
AcDbEntity
  8
寸法
 62
     0
 48
50.0
370
    -2
100
AcDbLine
 10
985.7380928001003
 20
10791.66089124565
 30
0.0
 11
1085.7380928001
 21
10791.66089124565
 31
0.0
  0
LINE
  5
19D37
330
163ED
100
AcDbEntity
  8
寸法
 62
     0
 48
50.0
370
    -2
100
AcDbLine
 10
930.7380928000638
 20
10791.66089124565
 30
0.0
 11
513.7675300515867
 21
10791.66089124565
 31
0.0
  0
LINE
  5
19D38
330
163ED
100
AcDbEntity
  8
寸法
 62
     0
 48
50.0
370
    -2
100
AcDbLine
 10
985.7380928001003
 20
10791.66089124565
 30
0.0
 11
930.7380928000638
 21
10791.66089124565
 31
0.0
  0
INSERT
  5
19D39
330
163ED
100
AcDbEntity
  8
寸法
 62
     0
 48
50.0
370
    -2
100
AcDbBlockReference
  2
_DOTSMALL
 10
985.7380928001003
 20
10791.66089124565
 30
0.0
 41
100.0
 42
100.0
 43
100.0
 50
180.0
  0
INSERT
  5
19D3A
330
163ED
100
AcDbEntity
  8
寸法
 62
     0
 48
50.0
370
    -2
100
AcDbBlockReference
  2
_DOTSMALL
 10
930.7380928000638
 20
10791.66089124565
 30
0.0
 41
100.0
 42
100.0
 43
100.0
  0
MTEXT
  5
19D3B
330
163ED
100
AcDbEntity
  8
寸法
 62
     7
 48
50.0
100
AcDbMText
 10
622.2528114258253
 20
10891.66089124565
 30
0.0
 40
120.0
 41
0.0
 71
     5
 72
     1
  1
\A1;55
  7
STYLE1
 73
     1
 44
1.0
1001
ACAD
1000
MTEXTBEGIN
1070
    73
1070
     1
1070
    44
1040
1.0
1070
    74
1070
     0
1000
MTEXTEND
  0
POINT
  5
19D3C
330
163ED
100
AcDbEntity
  8
DEFPOINTS
 62
     0
 48
50.0
100
AcDbPoint
 10
930.7380928000638
 20
10286.3887041788
 30
0.0
  0
POINT
  5
19D3D
330
163ED
100
AcDbEntity
  8
DEFPOINTS
 62
     0
 48
50.0
100
AcDbPoint
 10
985.7380928001003
 20
10286.3887041788
 30
0.0
  0
POINT
  5
19D3E
330
163ED
100
AcDbEntity
  8
DEFPOINTS
 62
     0
 48
50.0
100
AcDbPoint
 10
985.7380928001003
 20
10791.66089124565
 30
0.0
  0
ENDBLK
  5
18360
330
163ED
100
AcDbEntity
  8
0
 48
50.0
100
AcDbBlockEnd
  0
BLOCK
  5
1837B
330
163FB
100
AcDbEntity
  8
0
 48
50.0
100
AcDbBlockBegin
  2
*D13
 70
     1
 10
0.0
 20
0.0
 30
0.0
  3
*D13
  1

  0
LINE
  5
19D29
330
163FB
100
AcDbEntity
  8
寸法
 62
     0
 48
50.0
370
    -2
100
AcDbLine
 10
10025.7380928001
 20
10306.38870417889
 30
0.0
 11
10025.7380928001
 21
10851.66089124575
 31
0.0
  0
LINE
  5
19D2A
330
163FB
100
AcDbEntity
  8
寸法
 62
     0
 48
50.0
370
    -2
100
AcDbLine
 10
10080.7380928001
 20
10306.38870417889
 30
0.0
 11
10080.7380928001
 21
10851.66089124575
 31
0.0
  0
LINE
  5
19D2B
330
163FB
100
AcDbEntity
  8
寸法
 62
     0
 48
50.0
370
    -2
100
AcDbLine
 10
10025.7380928001
 20
10791.66089124575
 30
0.0
 11
9925.7380928001
 21
10791.66089124575
 31
0.0
  0
LINE
  5
19D2C
330
163FB
100
AcDbEntity
  8
寸法
 62
     0
 48
50.0
370
    -2
100
AcDbLine
 10
10080.7380928001
 20
10791.66089124575
 30
0.0
 11
10499.93214813964
 21
10791.66089124575
 31
0.0
  0
LINE
  5
19D2D
330
163FB
100
AcDbEntity
  8
寸法
 62
     0
 48
50.0
370
    -2
100
AcDbLine
 10
10025.7380928001
 20
10791.66089124575
 30
0.0
 11
10080.7380928001
 21
10791.66089124575
 31
0.0
  0
INSERT
  5
19D2E
330
163FB
100
AcDbEntity
  8
寸法
 62
     0
 48
50.0
370
    -2
100
AcDbBlockReference
  2
_DOTSMALL
 10
10025.7380928001
 20
10791.66089124575
 30
0.0
 41
100.0
 42
100.0
 43
100.0
  0
INSERT
  5
19D2F
330
163FB
100
AcDbEntity
  8
寸法
 62
     0
 48
50.0
370
    -2
100
AcDbBlockReference
  2
_DOTSMALL
 10
10080.7380928001
 20
10791.66089124575
 30
0.0
 41
100.0
 42
100.0
 43
100.0
 50
180.0
  0
MTEXT
  5
19D30
330
163FB
100
AcDbEntity
  8
寸法
 62
     7
 48
50.0
100
AcDbMText
 10
10391.4468667654
 20
10891.66089124575
 30
0.0
 40
120.0
 41
0.0
 71
     5
 72
     1
  1
\A1;55
  7
STYLE1
 73
     1
 44
1.0
1001
ACAD
1000
MTEXTBEGIN
1070
    73
1070
     1
1070
    44
1040
1.0
1070
    74
1070
     0
1000
MTEXTEND
  0
POINT
  5
19D31
330
163FB
100
AcDbEntity
  8
DEFPOINTS
 62
     0
 48
50.0
100
AcDbPoint
 10
10025.7380928001
 20
10286.38870417889
 30
0.0
  0
POINT
  5
19D32
330
163FB
100
AcDbEntity
  8
DEFPOINTS
 62
     0
 48
50.0
100
AcDbPoint
 10
10080.7380928001
 20
10286.38870417889
 30
0.0
  0
POINT
  5
19D33
330
163FB
100
AcDbEntity
  8
DEFPOINTS
 62
     0
 48
50.0
100
AcDbPoint
 10
10080.7380928001
 20
10791.66089124575
 30
0.0
  0
ENDBLK
  5
18387
330
163FB
100
AcDbEntity
  8
0
 48
50.0
100
AcDbBlockEnd
  0
BLOCK
  5
165B6
330
165B5
100
AcDbEntity
  8
0
 48
50.0
100
AcDbBlockBegin
  2
*D14
 70
     1
 10
0.0
 20
0.0
 30
0.0
  3
*D14
  1

  0
LINE
  5
18697
330
165B5
100
AcDbEntity
  8
寸法
 62
     0
 48
50.0
370
    -2
100
AcDbLine
 10
1033.738092800093
 20
6822.388704178796
 30
0.0
 11
1033.738092800093
 21
6221.957933412632
 31
0.0
  0
LINE
  5
18698
330
165B5
100
AcDbEntity
  8
寸法
 62
     0
 48
50.0
370
    -2
100
AcDbLine
 10
985.7380928000893
 20
6796.388704178797
 30
0.0
 11
985.7380928000893
 21
6221.957933412632
 31
0.0
  0
LINE
  5
18699
330
165B5
100
AcDbEntity
  8
寸法
 62
     0
 48
50.0
370
    -2
100
AcDbLine
 10
1033.738092800093
 20
6281.957933412632
 30
0.0
 11
1133.738092800093
 21
6281.957933412632
 31
0.0
  0
LINE
  5
1869A
330
165B5
100
AcDbEntity
  8
寸法
 62
     0
 48
50.0
370
    -2
100
AcDbLine
 10
985.7380928000893
 20
6281.957933412632
 30
0.0
 11
885.7380928000893
 21
6281.957933412632
 31
0.0
  0
MTEXT
  5
1869B
330
165B5
100
AcDbEntity
  8
寸法
 62
     7
 48
50.0
100
AcDbMText
 10
1146.64006380015
 20
6381.957933412632
 30
0.0
 40
120.0
 41
0.0
 71
     5
 72
     1
  1
\A1;48
  7
STYLE1
 73
     1
 44
1.0
1001
ACAD
1000
MTEXTBEGIN
1070
    73
1070
     1
1070
    44
1040
1.0
1070
    74
1070
     0
1000
MTEXTEND
  0
LINE
  5
1869C
330
165B5
100
AcDbEntity
  8
寸法
 62
     0
 48
50.0
370
    -2
100
AcDbLine
 10
1033.738092800093
 20
6281.957933412632
 30
0.0
 11
985.7380928000893
 21
6281.957933412632
 31
0.0
  0
INSERT
  5
1869D
330
165B5
100
AcDbEntity
  8
寸法
 62
     0
 48
50.0
370
    -2
100
AcDbBlockReference
  2
_DOTSMALL
 10
1033.738092800093
 20
6281.957933412632
 30
0.0
 41
100.0
 42
100.0
 43
100.0
 50
180.0
  0
INSERT
  5
1869E
330
165B5
100
AcDbEntity
  8
寸法
 62
     0
 48
50.0
370
    -2
100
AcDbBlockReference
  2
_DOTSMALL
 10
985.7380928000893
 20
6281.957933412632
 30
0.0
 41
100.0
 42
100.0
 43
100.0
  0
POINT
  5
1869F
330
165B5
100
AcDbEntity
  8
DEFPOINTS
 62
     0
 48
50.0
100
AcDbPoint
 10
1033.738092800093
 20
6842.388704178796
 30
0.0
  0
POINT
  5
186A0
330
165B5
100
AcDbEntity
  8
DEFPOINTS
 62
     0
 48
50.0
100
AcDbPoint
 10
985.7380928000893
 20
6816.388704178797
 30
0.0
  0
POINT
  5
186A1
330
165B5
100
AcDbEntity
  8
DEFPOINTS
 62
     0
 48
50.0
100
AcDbPoint
 10
985.7380928000893
 20
6281.957933412632
 30
0.0
  0
ENDBLK
  5
165C3
330
165B5
100
AcDbEntity
  8
0
 48
50.0
100
AcDbBlockEnd
  0
BLOCK
  5
165C5
330
165C4
100
AcDbEntity
  8
0
 48
50.0
100
AcDbBlockBegin
  2
*D15
 70
     1
 10
0.0
 20
0.0
 30
0.0
  3
*D15
  1

  0
LINE
  5
186A2
330
165C4
100
AcDbEntity
  8
寸法
 62
     0
 48
50.0
370
    -2
100
AcDbLine
 10
6975.738092800077
 20
6796.388704178884
 30
0.0
 11
6975.738092800077
 21
6221.957933412632
 31
0.0
  0
LINE
  5
186A3
330
165C4
100
AcDbEntity
  8
寸法
 62
     0
 48
50.0
370
    -2
100
AcDbLine
 10
6927.738092800075
 20
6822.388704178796
 30
0.0
 11
6927.738092800075
 21
6221.957933412632
 31
0.0
  0
LINE
  5
186A4
330
165C4
100
AcDbEntity
  8
寸法
 62
     0
 48
50.0
370
    -2
100
AcDbLine
 10
6975.738092800077
 20
6281.957933412632
 30
0.0
 11
7075.738092800077
 21
6281.957933412632
 31
0.0
  0
LINE
  5
186A5
330
165C4
100
AcDbEntity
  8
寸法
 62
     0
 48
50.0
370
    -2
100
AcDbLine
 10
6927.738092800075
 20
6281.957933412632
 30
0.0
 11
6827.738092800075
 21
6281.957933412632
 31
0.0
  0
MTEXT
  5
186A6
330
165C4
100
AcDbEntity
  8
寸法
 62
     7
 48
50.0
100
AcDbMText
 10
6816.775195151328
 20
6381.957933412632
 30
0.0
 40
120.0
 41
0.0
 71
     5
 72
     1
  1
\A1;48
  7
STYLE1
 73
     1
 44
1.0
1001
ACAD
1000
MTEXTBEGIN
1070
    73
1070
     1
1070
    44
1040
1.0
1070
    74
1070
     0
1000
MTEXTEND
  0
LINE
  5
186A7
330
165C4
100
AcDbEntity
  8
寸法
 62
     0
 48
50.0
370
    -2
100
AcDbLine
 10
6975.738092800077
 20
6281.957933412632
 30
0.0
 11
6927.738092800075
 21
6281.957933412632
 31
0.0
  0
INSERT
  5
186A8
330
165C4
100
AcDbEntity
  8
寸法
 62
     0
 48
50.0
370
    -2
100
AcDbBlockReference
  2
_DOTSMALL
 10
6975.738092800077
 20
6281.957933412632
 30
0.0
 41
100.0
 42
100.0
 43
100.0
 50
180.0
  0
INSERT
  5
186A9
330
165C4
100
AcDbEntity
  8
寸法
 62
     0
 48
50.0
370
    -2
100
AcDbBlockReference
  2
_DOTSMALL
 10
6927.738092800075
 20
6281.957933412632
 30
0.0
 41
100.0
 42
100.0
 43
100.0
  0
POINT
  5
186AA
330
165C4
100
AcDbEntity
  8
DEFPOINTS
 62
     0
 48
50.0
100
AcDbPoint
 10
6975.738092800077
 20
6816.388704178883
 30
0.0
  0
POINT
  5
186AB
330
165C4
100
AcDbEntity
  8
DEFPOINTS
 62
     0
 48
50.0
100
AcDbPoint
 10
6927.738092800075
 20
6842.388704178796
 30
0.0
  0
POINT
  5
186AC
330
165C4
100
AcDbEntity
  8
DEFPOINTS
 62
     0
 48
50.0
100
AcDbPoint
 10
6927.738092800075
 20
6281.957933412632
 30
0.0
  0
ENDBLK
  5
165D2
330
165C4
100
AcDbEntity
  8
0
 48
50.0
100
AcDbBlockEnd
  0
BLOCK
  5
1663F
330
165EA
100
AcDbEntity
  8
0
 48
50.0
100
AcDbBlockBegin
  2
*D16
 70
     1
 10
0.0
 20
0.0
 30
0.0
  3
*D16
  1

  0
LINE
  5
1868E
330
165EA
100
AcDbEntity
  8
寸法
 62
     0
 48
50.0
370
    -2
100
AcDbLine
 10
7085.738092800089
 20
6796.388704178797
 30
0.0
 11
7085.738092800089
 21
6221.957933412633
 31
0.0
  0
LINE
  5
1868F
330
165EA
100
AcDbEntity
  8
寸法
 62
     0
 48
50.0
370
    -2
100
AcDbLine
 10
6975.738092800077
 20
6796.388704178884
 30
0.0
 11
6975.738092800077
 21
6221.957933412633
 31
0.0
  0
LINE
  5
18690
330
165EA
100
AcDbEntity
  8
寸法
 62
     0
 48
50.0
370
    -2
100
AcDbLine
 10
7085.738092800089
 20
6281.957933412633
 30
0.0
 11
6975.738092800077
 21
6281.957933412633
 31
0.0
  0
MTEXT
  5
18691
330
165EA
100
AcDbEntity
  8
寸法
 62
     7
 48
50.0
100
AcDbMText
 10
7030.738092800082
 20
6130.266038376401
 30
0.0
 40
120.0
 41
0.0
 71
     5
 72
     1
  1
\A1;110
  7
STYLE1
 73
     1
 44
1.0
1001
ACAD
1000
MTEXTBEGIN
1070
    73
1070
     1
1070
    44
1040
1.0
1070
    74
1070
     0
1000
MTEXTEND
  0
INSERT
  5
18692
330
165EA
100
AcDbEntity
  8
寸法
 62
     0
 48
50.0
370
    -2
100
AcDbBlockReference
  2
_DOTSMALL
 10
7085.738092800089
 20
6281.957933412633
 30
0.0
 41
100.0
 42
100.0
 43
100.0
  0
INSERT
  5
18693
330
165EA
100
AcDbEntity
  8
寸法
 62
     0
 48
50.0
370
    -2
100
AcDbBlockReference
  2
_DOTSMALL
 10
6975.738092800077
 20
6281.957933412633
 30
0.0
 41
100.0
 42
100.0
 43
100.0
 50
180.0
  0
POINT
  5
18694
330
165EA
100
AcDbEntity
  8
DEFPOINTS
 62
     0
 48
50.0
100
AcDbPoint
 10
7085.738092800089
 20
6816.388704178797
 30
0.0
  0
POINT
  5
18695
330
165EA
100
AcDbEntity
  8
DEFPOINTS
 62
     0
 48
50.0
100
AcDbPoint
 10
6975.738092800077
 20
6816.388704178883
 30
0.0
  0
POINT
  5
18696
330
165EA
100
AcDbEntity
  8
DEFPOINTS
 62
     0
 48
50.0
100
AcDbPoint
 10
6975.738092800077
 20
6281.957933412633
 30
0.0
  0
ENDBLK
  5
16649
330
165EA
100
AcDbEntity
  8
0
 48
50.0
100
AcDbBlockEnd
  0
BLOCK
  5
1836E
330
166CF
100
AcDbEntity
  8
0
 48
50.0
100
AcDbBlockBegin
  2
*D17
 70
     1
 10
0.0
 20
0.0
 30
0.0
  3
*D17
  1

  0
LINE
  5
19D1E
330
166CF
100
AcDbEntity
  8
寸法
 62
     0
 48
50.0
370
    -2
100
AcDbLine
 10
7085.738092800101
 20
10306.38870417885
 30
0.0
 11
7085.738092800101
 21
10851.66089124576
 31
0.0
  0
LINE
  5
19D1F
330
166CF
100
AcDbEntity
  8
寸法
 62
     0
 48
50.0
370
    -2
100
AcDbLine
 10
6975.738092800099
 20
10306.38870417884
 30
0.0
 11
6975.738092800099
 21
10851.66089124576
 31
0.0
  0
LINE
  5
19D20
330
166CF
100
AcDbEntity
  8
寸法
 62
     0
 48
50.0
370
    -2
100
AcDbLine
 10
7085.738092800101
 20
10791.66089124576
 30
0.0
 11
7185.7380928001
 21
10791.66089124576
 31
0.0
  0
LINE
  5
19D21
330
166CF
100
AcDbEntity
  8
寸法
 62
     0
 48
50.0
370
    -2
100
AcDbLine
 10
6975.738092800099
 20
10791.66089124576
 30
0.0
 11
6875.7380928001
 21
10791.66089124576
 31
0.0
  0
LINE
  5
19D22
330
166CF
100
AcDbEntity
  8
寸法
 62
     0
 48
50.0
370
    -2
100
AcDbLine
 10
7085.738092800101
 20
10791.66089124576
 30
0.0
 11
6975.738092800099
 21
10791.66089124576
 31
0.0
  0
INSERT
  5
19D23
330
166CF
100
AcDbEntity
  8
寸法
 62
     0
 48
50.0
370
    -2
100
AcDbBlockReference
  2
_DOTSMALL
 10
7085.738092800101
 20
10791.66089124576
 30
0.0
 41
100.0
 42
100.0
 43
100.0
 50
180.0
  0
INSERT
  5
19D24
330
166CF
100
AcDbEntity
  8
寸法
 62
     0
 48
50.0
370
    -2
100
AcDbBlockReference
  2
_DOTSMALL
 10
6975.738092800099
 20
10791.66089124576
 30
0.0
 41
100.0
 42
100.0
 43
100.0
  0
MTEXT
  5
19D25
330
166CF
100
AcDbEntity
  8
寸法
 62
     7
 48
50.0
100
AcDbMText
 10
7030.738092800101
 20
10891.66089124576
 30
0.0
 40
120.0
 41
0.0
 71
     5
 72
     1
  1
\A1;110
  7
STYLE1
 73
     1
 44
1.0
1001
ACAD
1000
MTEXTBEGIN
1070
    73
1070
     1
1070
    44
1040
1.0
1070
    74
1070
     0
1000
MTEXTEND
  0
POINT
  5
19D26
330
166CF
100
AcDbEntity
  8
DEFPOINTS
 62
     0
 48
50.0
100
AcDbPoint
 10
7085.738092800101
 20
10286.38870417885
 30
0.0
  0
POINT
  5
19D27
330
166CF
100
AcDbEntity
  8
DEFPOINTS
 62
     0
 48
50.0
100
AcDbPoint
 10
6975.738092800099
 20
10286.38870417884
 30
0.0
  0
POINT
  5
19D28
330
166CF
100
AcDbEntity
  8
DEFPOINTS
 62
     0
 48
50.0
100
AcDbPoint
 10
6975.738092800099
 20
10791.66089124576
 30
0.0
  0
ENDBLK
  5
1837A
330
166CF
100
AcDbEntity
  8
0
 48
50.0
100
AcDbBlockEnd
  0
BLOCK
  5
18333
330
16908
100
AcDbEntity
  8
0
 48
50.0
100
AcDbBlockBegin
  2
*D18
 70
     1
 10
0.0
 20
0.0
 30
0.0
  3
*D18
  1

  0
LINE
  5
1A2B7
330
16908
100
AcDbEntity
  8
寸法
 62
     0
 48
50.0
370
    -2
100
AcDbLine
 10
7030.738092800099
 20
10970.64880560371
 30
0.0
 11
7030.738092800099
 21
11100.98236480206
 31
0.0
  0
LINE
  5
1A2B8
330
16908
100
AcDbEntity
  8
寸法
 62
     0
 48
50.0
370
    -2
100
AcDbLine
 10
10080.7380928001
 20
10306.38870417889
 30
0.0
 11
10080.7380928001
 21
11100.98236480206
 31
0.0
  0
LINE
  5
1A2B9
330
16908
100
AcDbEntity
  8
寸法
 62
     0
 48
50.0
370
    -2
100
AcDbLine
 10
7030.738092800099
 20
11040.98236480206
 30
0.0
 11
10080.7380928001
 21
11040.98236480206
 31
0.0
  0
INSERT
  5
1A2BA
330
16908
100
AcDbEntity
  8
寸法
 62
     0
 48
50.0
370
    -2
100
AcDbBlockReference
  2
_DOTSMALL
 10
7030.738092800099
 20
11040.98236480206
 30
0.0
 41
100.0
 42
100.0
 43
100.0
 50
180.0
  0
INSERT
  5
1A2BB
330
16908
100
AcDbEntity
  8
寸法
 62
     0
 48
50.0
370
    -2
100
AcDbBlockReference
  2
_DOTSMALL
 10
10080.7380928001
 20
11040.98236480206
 30
0.0
 41
100.0
 42
100.0
 43
100.0
  0
MTEXT
  5
1A2BC
330
16908
100
AcDbEntity
  8
寸法
 62
     7
 48
50.0
100
AcDbMText
 10
8555.738092800101
 20
11140.98236480206
 30
0.0
 40
120.0
 41
0.0
 71
     5
 72
     1
  1
\A1;3050
  7
STYLE1
 73
     1
 44
1.0
1001
ACAD
1000
MTEXTBEGIN
1070
    73
1070
     1
1070
    44
1040
1.0
1070
    74
1070
     0
1000
MTEXTEND
  0
POINT
  5
1A2BD
330
16908
100
AcDbEntity
  8
DEFPOINTS
 62
     0
 48
50.0
100
AcDbPoint
 10
7030.738092800099
 20
10950.64880560371
 30
0.0
  0
POINT
  5
1A2BE
330
16908
100
AcDbEntity
  8
DEFPOINTS
 62
     0
 48
50.0
100
AcDbPoint
 10
10080.7380928001
 20
10286.38870417889
 30
0.0
  0
POINT
  5
1A2BF
330
16908
100
AcDbEntity
  8
DEFPOINTS
 62
     0
 48
50.0
100
AcDbPoint
 10
10080.7380928001
 20
11040.98236480206
 30
0.0
  0
ENDBLK
  5
1833D
330
16908
100
AcDbEntity
  8
0
 48
50.0
100
AcDbBlockEnd
  0
BLOCK
  5
17F8A
330
17F89
100
AcDbEntity
  8
0
 48
50.0
100
AcDbBlockBegin
  2
*D19
 70
     1
 10
0.0
 20
0.0
 30
0.0
  3
*D19
  1

  0
LINE
  5
18655
330
17F89
100
AcDbEntity
  8
寸法
 62
     0
 48
50.0
370
    -2
100
AcDbLine
 10
3925.738092800076
 20
6796.388704178884
 30
0.0
 11
3925.738092800076
 21
6221.957933412632
 31
0.0
  0
LINE
  5
18656
330
17F89
100
AcDbEntity
  8
寸法
 62
     0
 48
50.0
370
    -2
100
AcDbLine
 10
3877.738092800075
 20
6822.388704178796
 30
0.0
 11
3877.738092800075
 21
6221.957933412632
 31
0.0
  0
LINE
  5
18657
330
17F89
100
AcDbEntity
  8
寸法
 62
     0
 48
50.0
370
    -2
100
AcDbLine
 10
3925.738092800076
 20
6281.957933412632
 30
0.0
 11
4025.738092800076
 21
6281.957933412632
 31
0.0
  0
LINE
  5
18658
330
17F89
100
AcDbEntity
  8
寸法
 62
     0
 48
50.0
370
    -2
100
AcDbLine
 10
3877.738092800075
 20
6281.957933412632
 30
0.0
 11
3777.738092800074
 21
6281.957933412632
 31
0.0
  0
MTEXT
  5
18659
330
17F89
100
AcDbEntity
  8
寸法
 62
     7
 48
50.0
100
AcDbMText
 10
3766.775195151327
 20
6381.957933412632
 30
0.0
 40
120.0
 41
0.0
 71
     5
 72
     1
  1
\A1;48
  7
STYLE1
 73
     1
 44
1.0
1001
ACAD
1000
MTEXTBEGIN
1070
    73
1070
     1
1070
    44
1040
1.0
1070
    74
1070
     0
1000
MTEXTEND
  0
LINE
  5
1865A
330
17F89
100
AcDbEntity
  8
寸法
 62
     0
 48
50.0
370
    -2
100
AcDbLine
 10
3925.738092800076
 20
6281.957933412632
 30
0.0
 11
3877.738092800075
 21
6281.957933412632
 31
0.0
  0
INSERT
  5
1865B
330
17F89
100
AcDbEntity
  8
寸法
 62
     0
 48
50.0
370
    -2
100
AcDbBlockReference
  2
_DOTSMALL
 10
3925.738092800076
 20
6281.957933412632
 30
0.0
 41
100.0
 42
100.0
 43
100.0
 50
180.0
  0
INSERT
  5
1865C
330
17F89
100
AcDbEntity
  8
寸法
 62
     0
 48
50.0
370
    -2
100
AcDbBlockReference
  2
_DOTSMALL
 10
3877.738092800075
 20
6281.957933412632
 30
0.0
 41
100.0
 42
100.0
 43
100.0
  0
POINT
  5
1865D
330
17F89
100
AcDbEntity
  8
DEFPOINTS
 62
     0
 48
50.0
100
AcDbPoint
 10
3925.738092800076
 20
6816.388704178883
 30
0.0
  0
POINT
  5
1865E
330
17F89
100
AcDbEntity
  8
DEFPOINTS
 62
     0
 48
50.0
100
AcDbPoint
 10
3877.738092800075
 20
6842.388704178796
 30
0.0
  0
POINT
  5
1865F
330
17F89
100
AcDbEntity
  8
DEFPOINTS
 62
     0
 48
50.0
100
AcDbPoint
 10
3877.738092800075
 20
6281.957933412632
 30
0.0
  0
ENDBLK
  5
17F97
330
17F89
100
AcDbEntity
  8
0
 48
50.0
100
AcDbBlockEnd
  0
BLOCK
  5
17F99
330
17F98
100
AcDbEntity
  8
0
 48
50.0
100
AcDbBlockBegin
  2
*D20
 70
     1
 10
0.0
 20
0.0
 30
0.0
  3
*D20
  1

  0
LINE
  5
18660
330
17F98
100
AcDbEntity
  8
寸法
 62
     0
 48
50.0
370
    -2
100
AcDbLine
 10
1033.738092800093
 20
6822.388704178796
 30
0.0
 11
1033.738092800093
 21
6221.957933412632
 31
0.0
  0
LINE
  5
18661
330
17F98
100
AcDbEntity
  8
寸法
 62
     0
 48
50.0
370
    -2
100
AcDbLine
 10
3877.738092800075
 20
6281.957933412632
 30
0.0
 11
1033.738092800093
 21
6281.957933412632
 31
0.0
  0
INSERT
  5
18662
330
17F98
100
AcDbEntity
  8
寸法
 62
     0
 48
50.0
370
    -2
100
AcDbBlockReference
  2
_DOTSMALL
 10
3877.738092800075
 20
6281.957933412632
 30
0.0
 41
100.0
 42
100.0
 43
100.0
  0
INSERT
  5
18663
330
17F98
100
AcDbEntity
  8
寸法
 62
     0
 48
50.0
370
    -2
100
AcDbBlockReference
  2
_DOTSMALL
 10
1033.738092800093
 20
6281.957933412632
 30
0.0
 41
100.0
 42
100.0
 43
100.0
 50
180.0
  0
MTEXT
  5
18664
330
17F98
100
AcDbEntity
  8
寸法
 62
     7
 48
50.0
100
AcDbMText
 10
2455.738092800084
 20
6381.969744436254
 30
0.0
 40
120.0
 41
0.0
 71
     5
 72
     1
  1
\A1;有効開口部間口 2844
  7
STYLE1
 73
     1
 44
1.0
1001
ACAD
1000
MTEXTBEGIN
1070
    73
1070
     1
1070
    44
1040
1.0
1070
    74
1070
     0
1000
MTEXTEND
  0
POINT
  5
18665
330
17F98
100
AcDbEntity
  8
DEFPOINTS
 62
     0
 48
50.0
100
AcDbPoint
 10
3877.738092800075
 20
6842.388704178796
 30
0.0
  0
POINT
  5
18666
330
17F98
100
AcDbEntity
  8
DEFPOINTS
 62
     0
 48
50.0
100
AcDbPoint
 10
1033.738092800093
 20
6842.388704178796
 30
0.0
  0
POINT
  5
18667
330
17F98
100
AcDbEntity
  8
DEFPOINTS
 62
     0
 48
50.0
100
AcDbPoint
 10
1033.738092800093
 20
6281.957933412632
 30
0.0
  0
ENDBLK
  5
17FA2
330
17F98
100
AcDbEntity
  8
0
 48
50.0
100
AcDbBlockEnd
  0
BLOCK
  5
17FA4
330
17FA3
100
AcDbEntity
  8
0
 48
50.0
100
AcDbBlockBegin
  2
*D21
 70
     1
 10
0.0
 20
0.0
 30
0.0
  3
*D21
  1

  0
LINE
  5
1864C
330
17FA3
100
AcDbEntity
  8
寸法
 62
     0
 48
50.0
370
    -2
100
AcDbLine
 10
4035.738092800089
 20
6796.388704178797
 30
0.0
 11
4035.738092800089
 21
6221.957933412633
 31
0.0
  0
LINE
  5
1864D
330
17FA3
100
AcDbEntity
  8
寸法
 62
     0
 48
50.0
370
    -2
100
AcDbLine
 10
3925.738092800076
 20
6796.388704178884
 30
0.0
 11
3925.738092800076
 21
6221.957933412633
 31
0.0
  0
LINE
  5
1864E
330
17FA3
100
AcDbEntity
  8
寸法
 62
     0
 48
50.0
370
    -2
100
AcDbLine
 10
4035.738092800089
 20
6281.957933412633
 30
0.0
 11
3925.738092800076
 21
6281.957933412633
 31
0.0
  0
MTEXT
  5
1864F
330
17FA3
100
AcDbEntity
  8
寸法
 62
     7
 48
50.0
100
AcDbMText
 10
3980.738092800084
 20
6130.266038376401
 30
0.0
 40
120.0
 41
0.0
 71
     5
 72
     1
  1
\A1;110
  7
STYLE1
 73
     1
 44
1.0
1001
ACAD
1000
MTEXTBEGIN
1070
    73
1070
     1
1070
    44
1040
1.0
1070
    74
1070
     0
1000
MTEXTEND
  0
INSERT
  5
18650
330
17FA3
100
AcDbEntity
  8
寸法
 62
     0
 48
50.0
370
    -2
100
AcDbBlockReference
  2
_DOTSMALL
 10
4035.738092800089
 20
6281.957933412633
 30
0.0
 41
100.0
 42
100.0
 43
100.0
  0
INSERT
  5
18651
330
17FA3
100
AcDbEntity
  8
寸法
 62
     0
 48
50.0
370
    -2
100
AcDbBlockReference
  2
_DOTSMALL
 10
3925.738092800076
 20
6281.957933412633
 30
0.0
 41
100.0
 42
100.0
 43
100.0
 50
180.0
  0
POINT
  5
18652
330
17FA3
100
AcDbEntity
  8
DEFPOINTS
 62
     0
 48
50.0
100
AcDbPoint
 10
4035.738092800089
 20
6816.388704178797
 30
0.0
  0
POINT
  5
18653
330
17FA3
100
AcDbEntity
  8
DEFPOINTS
 62
     0
 48
50.0
100
AcDbPoint
 10
3925.738092800076
 20
6816.388704178883
 30
0.0
  0
POINT
  5
18654
330
17FA3
100
AcDbEntity
  8
DEFPOINTS
 62
     0
 48
50.0
100
AcDbPoint
 10
3925.738092800076
 20
6281.957933412633
 30
0.0
  0
ENDBLK
  5
17FAE
330
17FA3
100
AcDbEntity
  8
0
 48
50.0
100
AcDbBlockEnd
  0
BLOCK
  5
18349
330
17FAF
100
AcDbEntity
  8
0
 48
50.0
100
AcDbBlockBegin
  2
*D22
 70
     1
 10
0.0
 20
0.0
 30
0.0
  3
*D22
  1

  0
LINE
  5
19D03
330
17FAF
100
AcDbEntity
  8
寸法
 62
     0
 48
50.0
370
    -2
100
AcDbLine
 10
985.7380928001003
 20
10306.3887041788
 30
0.0
 11
985.7380928001003
 21
10851.66089124576
 31
0.0
  0
LINE
  5
19D04
330
17FAF
100
AcDbEntity
  8
寸法
 62
     0
 48
50.0
370
    -2
100
AcDbLine
 10
3925.738092800101
 20
10306.38870417889
 30
0.0
 11
3925.738092800101
 21
10851.66089124576
 31
0.0
  0
LINE
  5
19D05
330
17FAF
100
AcDbEntity
  8
寸法
 62
     0
 48
50.0
370
    -2
100
AcDbLine
 10
985.7380928001003
 20
10791.66089124576
 30
0.0
 11
3925.738092800101
 21
10791.66089124576
 31
0.0
  0
INSERT
  5
19D06
330
17FAF
100
AcDbEntity
  8
寸法
 62
     0
 48
50.0
370
    -2
100
AcDbBlockReference
  2
_DOTSMALL
 10
985.7380928001003
 20
10791.66089124576
 30
0.0
 41
100.0
 42
100.0
 43
100.0
 50
180.0
  0
INSERT
  5
19D07
330
17FAF
100
AcDbEntity
  8
寸法
 62
     0
 48
50.0
370
    -2
100
AcDbBlockReference
  2
_DOTSMALL
 10
3925.738092800101
 20
10791.66089124576
 30
0.0
 41
100.0
 42
100.0
 43
100.0
  0
MTEXT
  5
19D08
330
17FAF
100
AcDbEntity
  8
寸法
 62
     7
 48
50.0
100
AcDbMText
 10
2455.7380928001
 20
10891.67270226939
 30
0.0
 40
120.0
 41
0.0
 71
     5
 72
     1
  1
\A1;7X420=2940
  7
STYLE1
 73
     1
 44
1.0
1001
ACAD
1000
MTEXTBEGIN
1070
    73
1070
     1
1070
    44
1040
1.0
1070
    74
1070
     0
1000
MTEXTEND
  0
POINT
  5
19D09
330
17FAF
100
AcDbEntity
  8
DEFPOINTS
 62
     0
 48
50.0
100
AcDbPoint
 10
985.7380928001003
 20
10286.3887041788
 30
0.0
  0
POINT
  5
19D0A
330
17FAF
100
AcDbEntity
  8
DEFPOINTS
 62
     0
 48
50.0
100
AcDbPoint
 10
3925.738092800101
 20
10286.38870417889
 30
0.0
  0
POINT
  5
19D0B
330
17FAF
100
AcDbEntity
  8
DEFPOINTS
 62
     0
 48
50.0
100
AcDbPoint
 10
3925.738092800101
 20
10791.66089124576
 30
0.0
  0
ENDBLK
  5
18353
330
17FAF
100
AcDbEntity
  8
0
 48
50.0
100
AcDbBlockEnd
  0
BLOCK
  5
18361
330
17FBB
100
AcDbEntity
  8
0
 48
50.0
100
AcDbBlockBegin
  2
*D23
 70
     1
 10
0.0
 20
0.0
 30
0.0
  3
*D23
  1

  0
LINE
  5
19CF8
330
17FBB
100
AcDbEntity
  8
寸法
 62
     0
 48
50.0
370
    -2
100
AcDbLine
 10
4035.738092800101
 20
10306.38870417885
 30
0.0
 11
4035.738092800101
 21
10851.66089124576
 31
0.0
  0
LINE
  5
19CF9
330
17FBB
100
AcDbEntity
  8
寸法
 62
     0
 48
50.0
370
    -2
100
AcDbLine
 10
3925.738092800101
 20
10306.38870417884
 30
0.0
 11
3925.738092800101
 21
10851.66089124576
 31
0.0
  0
LINE
  5
19CFA
330
17FBB
100
AcDbEntity
  8
寸法
 62
     0
 48
50.0
370
    -2
100
AcDbLine
 10
4035.738092800101
 20
10791.66089124576
 30
0.0
 11
4135.7380928001
 21
10791.66089124576
 31
0.0
  0
LINE
  5
19CFB
330
17FBB
100
AcDbEntity
  8
寸法
 62
     0
 48
50.0
370
    -2
100
AcDbLine
 10
3925.738092800101
 20
10791.66089124576
 30
0.0
 11
3825.738092800101
 21
10791.66089124576
 31
0.0
  0
LINE
  5
19CFC
330
17FBB
100
AcDbEntity
  8
寸法
 62
     0
 48
50.0
370
    -2
100
AcDbLine
 10
4035.738092800101
 20
10791.66089124576
 30
0.0
 11
3925.738092800101
 21
10791.66089124576
 31
0.0
  0
INSERT
  5
19CFD
330
17FBB
100
AcDbEntity
  8
寸法
 62
     0
 48
50.0
370
    -2
100
AcDbBlockReference
  2
_DOTSMALL
 10
4035.738092800101
 20
10791.66089124576
 30
0.0
 41
100.0
 42
100.0
 43
100.0
 50
180.0
  0
INSERT
  5
19CFE
330
17FBB
100
AcDbEntity
  8
寸法
 62
     0
 48
50.0
370
    -2
100
AcDbBlockReference
  2
_DOTSMALL
 10
3925.738092800101
 20
10791.66089124576
 30
0.0
 41
100.0
 42
100.0
 43
100.0
  0
MTEXT
  5
19CFF
330
17FBB
100
AcDbEntity
  8
寸法
 62
     7
 48
50.0
100
AcDbMText
 10
3980.7380928001
 20
10891.66089124576
 30
0.0
 40
120.0
 41
0.0
 71
     5
 72
     1
  1
\A1;110
  7
STYLE1
 73
     1
 44
1.0
1001
ACAD
1000
MTEXTBEGIN
1070
    73
1070
     1
1070
    44
1040
1.0
1070
    74
1070
     0
1000
MTEXTEND
  0
POINT
  5
19D00
330
17FBB
100
AcDbEntity
  8
DEFPOINTS
 62
     0
 48
50.0
100
AcDbPoint
 10
4035.738092800101
 20
10286.38870417885
 30
0.0
  0
POINT
  5
19D01
330
17FBB
100
AcDbEntity
  8
DEFPOINTS
 62
     0
 48
50.0
100
AcDbPoint
 10
3925.738092800101
 20
10286.38870417884
 30
0.0
  0
POINT
  5
19D02
330
17FBB
100
AcDbEntity
  8
DEFPOINTS
 62
     0
 48
50.0
100
AcDbPoint
 10
3925.738092800101
 20
10791.66089124576
 30
0.0
  0
ENDBLK
  5
1836D
330
17FBB
100
AcDbEntity
  8
0
 48
50.0
100
AcDbBlockEnd
  0
BLOCK
  5
1833E
330
17FC9
100
AcDbEntity
  8
0
 48
50.0
100
AcDbBlockBegin
  2
*D24
 70
     1
 10
0.0
 20
0.0
 30
0.0
  3
*D24
  1

  0
LINE
  5
1A2AD
330
17FC9
100
AcDbEntity
  8
寸法
 62
     0
 48
50.0
370
    -2
100
AcDbLine
 10
930.7380928000657
 20
10306.38870417877
 30
0.0
 11
930.7380928000657
 21
11100.98236480206
 31
0.0
  0
LINE
  5
1A2AE
330
17FC9
100
AcDbEntity
  8
寸法
 62
     0
 48
50.0
370
    -2
100
AcDbLine
 10
3980.7380928001
 20
10970.64880560371
 30
0.0
 11
3980.7380928001
 21
11100.98236480206
 31
0.0
  0
LINE
  5
1A2AF
330
17FC9
100
AcDbEntity
  8
寸法
 62
     0
 48
50.0
370
    -2
100
AcDbLine
 10
930.7380928000657
 20
11040.98236480206
 30
0.0
 11
3980.7380928001
 21
11040.98236480206
 31
0.0
  0
INSERT
  5
1A2B0
330
17FC9
100
AcDbEntity
  8
寸法
 62
     0
 48
50.0
370
    -2
100
AcDbBlockReference
  2
_DOTSMALL
 10
930.7380928000657
 20
11040.98236480206
 30
0.0
 41
100.0
 42
100.0
 43
100.0
 50
180.0
  0
INSERT
  5
1A2B1
330
17FC9
100
AcDbEntity
  8
寸法
 62
     0
 48
50.0
370
    -2
100
AcDbBlockReference
  2
_DOTSMALL
 10
3980.7380928001
 20
11040.98236480206
 30
0.0
 41
100.0
 42
100.0
 43
100.0
  0
MTEXT
  5
1A2B2
330
17FC9
100
AcDbEntity
  8
寸法
 62
     7
 48
50.0
100
AcDbMText
 10
2455.738092800083
 20
11140.98236480206
 30
0.0
 40
120.0
 41
0.0
 71
     5
 72
     1
  1
\A1;3050
  7
STYLE1
 73
     1
 44
1.0
1001
ACAD
1000
MTEXTBEGIN
1070
    73
1070
     1
1070
    44
1040
1.0
1070
    74
1070
     0
1000
MTEXTEND
  0
POINT
  5
1A2B3
330
17FC9
100
AcDbEntity
  8
DEFPOINTS
 62
     0
 48
50.0
100
AcDbPoint
 10
930.7380928000657
 20
10286.38870417877
 30
0.0
  0
POINT
  5
1A2B4
330
17FC9
100
AcDbEntity
  8
DEFPOINTS
 62
     0
 48
50.0
100
AcDbPoint
 10
3980.7380928001
 20
10950.64880560371
 30
0.0
  0
POINT
  5
1A2B5
330
17FC9
100
AcDbEntity
  8
DEFPOINTS
 62
     0
 48
50.0
100
AcDbPoint
 10
3980.7380928001
 20
11040.98236480206
 30
0.0
  0
ENDBLK
  5
18348
330
17FC9
100
AcDbEntity
  8
0
 48
50.0
100
AcDbBlockEnd
  0
BLOCK
  5
18246
330
18222
100
AcDbEntity
  8
0
 48
50.0
100
AcDbBlockBegin
  2
*D25
 70
     1
 10
0.0
 20
0.0
 30
0.0
  3
*D25
  1

  0
LINE
  5
19CE5
330
18222
100
AcDbEntity
  8
寸法
 62
     0
 48
50.0
370
    -2
100
AcDbLine
 10
10072.2380928001
 20
10261.74768802742
 30
0.0
 11
10526.10277914285
 21
10383.36036420597
 31
0.0
  0
LINE
  5
19CE6
330
18222
100
AcDbEntity
  8
寸法
 62
     0
 48
50.0
370
    -2
100
AcDbLine
 10
10072.2380928001
 20
9811.747688027423
 30
0.0
 11
10526.10277914285
 21
9933.36036420597
 31
0.0
  0
LINE
  5
19CE7
330
18222
100
AcDbEntity
  8
寸法
 62
     0
 48
50.0
370
    -2
100
AcDbLine
 10
10466.10277914285
 20
10367.2834126601
 30
0.0
 11
10466.10277914285
 21
9917.283412660102
 31
0.0
  0
MTEXT
  5
19CE8
330
18222
100
AcDbEntity
  8
寸法
 62
     7
 48
50.0
100
AcDbMText
 10
10352.00317617993
 20
10086.08989484643
 30
0.0
 40
120.0
 41
0.0
 71
     5
 72
     1
  1
\A1;450
  7
STYLE1
 11
0.0000000000000001
 21
1.0
 31
0.0
 73
     1
 44
1.0
1001
ACAD
1000
MTEXTBEGIN
1070
    73
1070
     1
1070
    44
1040
1.0
1070
    74
1070
     0
1000
MTEXTEND
  0
INSERT
  5
19CE9
330
18222
100
AcDbEntity
  8
寸法
 62
     0
 48
50.0
370
    -2
100
AcDbBlockReference
  2
_DOTSMALL
 10
10466.10277914285
 20
10367.2834126601
 30
0.0
 41
100.0
 42
100.0
 43
100.0
 50
90.0
  0
INSERT
  5
19CEA
330
18222
100
AcDbEntity
  8
寸法
 62
     0
 48
50.0
370
    -2
100
AcDbBlockReference
  2
_DOTSMALL
 10
10466.10277914285
 20
9917.283412660102
 30
0.0
 41
100.0
 42
100.0
 43
100.0
 50
270.0
  0
POINT
  5
19CEB
330
18222
100
AcDbEntity
  8
DEFPOINTS
 62
     0
 48
50.0
100
AcDbPoint
 10
10052.2380928001
 20
10256.3887041788
 30
0.0
  0
POINT
  5
19CEC
330
18222
100
AcDbEntity
  8
DEFPOINTS
 62
     0
 48
50.0
100
AcDbPoint
 10
10052.2380928001
 20
9806.3887041788
 30
0.0
  0
POINT
  5
19CED
330
18222
100
AcDbEntity
  8
DEFPOINTS
 62
     0
 48
50.0
100
AcDbPoint
 10
10466.10277914285
 20
9917.283412660102
 30
0.0
  0
ENDBLK
  5
18250
330
18222
100
AcDbEntity
  8
0
 48
50.0
100
AcDbBlockEnd
  0
BLOCK
  5
1923E
330
19232
100
AcDbEntity
  8
0
 48
50.0
100
AcDbBlockBegin
  2
*D26
 70
     1
 10
0.0
 20
0.0
 30
0.0
  3
*D26
  1

  0
LINE
  5
19602
330
19232
100
AcDbEntity
  8
寸法
 62
     0
 48
50.0
370
    -2
100
AcDbLine
 10
10130.73809280013
 20
4606.822878346195
 30
0.0
 11
10130.73809280013
 21
4859.364463604436
 31
0.0
  0
LINE
  5
19603
330
19232
100
AcDbEntity
  8
寸法
 62
     0
 48
50.0
370
    -2
100
AcDbLine
 10
10080.73809280013
 20
4606.822878346197
 30
0.0
 11
10080.73809280013
 21
4859.364463604436
 31
0.0
  0
LINE
  5
19604
330
19232
100
AcDbEntity
  8
寸法
 62
     0
 48
50.0
370
    -2
100
AcDbLine
 10
10080.73809280013
 20
4799.364463604436
 30
0.0
 11
9980.73809280013
 21
4799.364463604436
 31
0.0
  0
LINE
  5
19605
330
19232
100
AcDbEntity
  8
寸法
 62
     0
 48
50.0
370
    -2
100
AcDbLine
 10
10130.73809280013
 20
4799.364463604436
 30
0.0
 11
10550.27061826885
 21
4799.364463604436
 31
0.0
  0
LINE
  5
19606
330
19232
100
AcDbEntity
  8
寸法
 62
     0
 48
50.0
370
    -2
100
AcDbLine
 10
10080.73809280013
 20
4799.364463604436
 30
0.0
 11
10130.73809280013
 21
4799.364463604436
 31
0.0
  0
INSERT
  5
19607
330
19232
100
AcDbEntity
  8
寸法
 62
     0
 48
50.0
370
    -2
100
AcDbBlockReference
  2
_DOTSMALL
 10
10080.73809280013
 20
4799.364463604436
 30
0.0
 41
100.0
 42
100.0
 43
100.0
  0
INSERT
  5
19608
330
19232
100
AcDbEntity
  8
寸法
 62
     0
 48
50.0
370
    -2
100
AcDbBlockReference
  2
_DOTSMALL
 10
10130.73809280013
 20
4799.364463604436
 30
0.0
 41
100.0
 42
100.0
 43
100.0
 50
180.0
  0
MTEXT
  5
19609
330
19232
100
AcDbEntity
  8
寸法
 62
     7
 48
50.0
100
AcDbMText
 10
10444.22337417436
 20
4899.364463604436
 30
0.0
 40
120.0
 41
0.0
 71
     5
 72
     1
  1
\A1;50
  7
STYLE1
 73
     1
 44
1.0
1001
ACAD
1000
MTEXTBEGIN
1070
    73
1070
     1
1070
    44
1040
1.0
1070
    74
1070
     0
1000
MTEXTEND
  0
POINT
  5
1960A
330
19232
100
AcDbEntity
  8
DEFPOINTS
 62
     0
 48
50.0
100
AcDbPoint
 10
10130.73809280013
 20
4586.822878346196
 30
0.0
  0
POINT
  5
1960B
330
19232
100
AcDbEntity
  8
DEFPOINTS
 62
     0
 48
50.0
100
AcDbPoint
 10
10080.73809280013
 20
4586.822878346197
 30
0.0
  0
POINT
  5
1960C
330
19232
100
AcDbEntity
  8
DEFPOINTS
 62
     0
 48
50.0
100
AcDbPoint
 10
10080.73809280013
 20
4799.364463604436
 30
0.0
  0
ENDBLK
  5
1923F
330
19232
100
AcDbEntity
  8
0
 48
50.0
100
AcDbBlockEnd
  0
BLOCK
  5
1928B
330
1927F
100
AcDbEntity
  8
0
 48
50.0
100
AcDbBlockBegin
  2
*D27
 70
     1
 10
0.0
 20
0.0
 30
0.0
  3
*D27
  1

  0
LINE
  5
195C7
330
1927F
100
AcDbEntity
  8
寸法
 62
     0
 48
50.0
370
    -2
100
AcDbLine
 10
930.7380928000856
 20
4606.8228783462
 30
0.0
 11
930.7380928000856
 21
4859.364463604437
 31
0.0
  0
LINE
  5
195C8
330
1927F
100
AcDbEntity
  8
寸法
 62
     0
 48
50.0
370
    -2
100
AcDbLine
 10
880.7380928000856
 20
4606.822878346198
 30
0.0
 11
880.7380928000856
 21
4859.364463604437
 31
0.0
  0
LINE
  5
195C9
330
1927F
100
AcDbEntity
  8
寸法
 62
     0
 48
50.0
370
    -2
100
AcDbLine
 10
930.7380928000856
 20
4799.364463604437
 30
0.0
 11
1030.738092800085
 21
4799.364463604437
 31
0.0
  0
LINE
  5
195CA
330
1927F
100
AcDbEntity
  8
寸法
 62
     0
 48
50.0
370
    -2
100
AcDbLine
 10
880.7380928000856
 20
4799.364463604437
 30
0.0
 11
461.2055673313502
 21
4799.364463604437
 31
0.0
  0
LINE
  5
195CB
330
1927F
100
AcDbEntity
  8
寸法
 62
     0
 48
50.0
370
    -2
100
AcDbLine
 10
930.7380928000856
 20
4799.364463604437
 30
0.0
 11
880.7380928000856
 21
4799.364463604437
 31
0.0
  0
INSERT
  5
195CC
330
1927F
100
AcDbEntity
  8
寸法
 62
     0
 48
50.0
370
    -2
100
AcDbBlockReference
  2
_DOTSMALL
 10
930.7380928000856
 20
4799.364463604437
 30
0.0
 41
100.0
 42
100.0
 43
100.0
 50
180.0
  0
INSERT
  5
195CD
330
1927F
100
AcDbEntity
  8
寸法
 62
     0
 48
50.0
370
    -2
100
AcDbBlockReference
  2
_DOTSMALL
 10
880.7380928000856
 20
4799.364463604437
 30
0.0
 41
100.0
 42
100.0
 43
100.0
  0
MTEXT
  5
195CE
330
1927F
100
AcDbEntity
  8
寸法
 62
     7
 48
50.0
100
AcDbMText
 10
567.2528114258384
 20
4899.364463604437
 30
0.0
 40
120.0
 41
0.0
 71
     5
 72
     1
  1
\A1;50
  7
STYLE1
 73
     1
 44
1.0
1001
ACAD
1000
MTEXTBEGIN
1070
    73
1070
     1
1070
    44
1040
1.0
1070
    74
1070
     0
1000
MTEXTEND
  0
POINT
  5
195CF
330
1927F
100
AcDbEntity
  8
DEFPOINTS
 62
     0
 48
50.0
100
AcDbPoint
 10
930.7380928000856
 20
4586.822878346199
 30
0.0
  0
POINT
  5
195D0
330
1927F
100
AcDbEntity
  8
DEFPOINTS
 62
     0
 48
50.0
100
AcDbPoint
 10
880.7380928000856
 20
4586.822878346198
 30
0.0
  0
POINT
  5
195D1
330
1927F
100
AcDbEntity
  8
DEFPOINTS
 62
     0
 48
50.0
100
AcDbPoint
 10
880.7380928000856
 20
4799.364463604437
 30
0.0
  0
ENDBLK
  5
1928C
330
1927F
100
AcDbEntity
  8
0
 48
50.0
100
AcDbBlockEnd
  0
BLOCK
  5
19297
330
1928D
100
AcDbEntity
  8
0
 48
50.0
100
AcDbBlockBegin
  2
*D28
 70
     1
 10
0.0
 20
0.0
 30
0.0
  3
*D28
  1

  0
LINE
  5
195BE
330
1928D
100
AcDbEntity
  8
寸法
 62
     0
 48
50.0
370
    -2
100
AcDbLine
 10
10080.73809280008
 20
4619.744204168719
 30
0.0
 11
10080.73809280008
 21
4859.364463604437
 31
0.0
  0
LINE
  5
195BF
330
1928D
100
AcDbEntity
  8
寸法
 62
     0
 48
50.0
370
    -2
100
AcDbLine
 10
930.7380928000856
 20
4619.744204177187
 30
0.0
 11
930.7380928000856
 21
4859.364463604437
 31
0.0
  0
LINE
  5
195C0
330
1928D
100
AcDbEntity
  8
寸法
 62
     0
 48
50.0
370
    -2
100
AcDbLine
 10
10080.73809280008
 20
4799.364463604437
 30
0.0
 11
930.7380928000856
 21
4799.364463604437
 31
0.0
  0
INSERT
  5
195C1
330
1928D
100
AcDbEntity
  8
寸法
 62
     0
 48
50.0
370
    -2
100
AcDbBlockReference
  2
_DOTSMALL
 10
10080.73809280008
 20
4799.364463604437
 30
0.0
 41
100.0
 42
100.0
 43
100.0
  0
INSERT
  5
195C2
330
1928D
100
AcDbEntity
  8
寸法
 62
     0
 48
50.0
370
    -2
100
AcDbBlockReference
  2
_DOTSMALL
 10
930.7380928000856
 20
4799.364463604437
 30
0.0
 41
100.0
 42
100.0
 43
100.0
 50
180.0
  0
MTEXT
  5
195C3
330
1928D
100
AcDbEntity
  8
寸法
 62
     7
 48
50.0
100
AcDbMText
 10
5505.738092800086
 20
4899.364463604437
 30
0.0
 40
120.0
 41
0.0
 71
     5
 72
     1
  1
\A1;柱外寸法 N X 3050
  7
STYLE1
 73
     1
 44
1.0
1001
ACAD
1000
MTEXTBEGIN
1070
    73
1070
     1
1070
    44
1040
1.0
1070
    74
1070
     0
1000
MTEXTEND
  0
POINT
  5
195C4
330
1928D
100
AcDbEntity
  8
DEFPOINTS
 62
     0
 48
50.0
100
AcDbPoint
 10
10080.73809280008
 20
4599.744204168719
 30
0.0
  0
POINT
  5
195C5
330
1928D
100
AcDbEntity
  8
DEFPOINTS
 62
     0
 48
50.0
100
AcDbPoint
 10
930.7380928000856
 20
4599.744204177187
 30
0.0
  0
POINT
  5
195C6
330
1928D
100
AcDbEntity
  8
DEFPOINTS
 62
     0
 48
50.0
100
AcDbPoint
 10
930.7380928000856
 20
4799.364463604437
 30
0.0
  0
ENDBLK
  5
19298
330
1928D
100
AcDbEntity
  8
0
 48
50.0
100
AcDbBlockEnd
  0
BLOCK
  5
192A3
330
19299
100
AcDbEntity
  8
0
 48
50.0
100
AcDbBlockBegin
  2
*D29
 70
     1
 10
0.0
 20
0.0
 30
0.0
  3
*D29
  1

  0
LINE
  5
195B5
330
19299
100
AcDbEntity
  8
寸法
 62
     0
 48
50.0
370
    -2
100
AcDbLine
 10
880.7380928000856
 20
4606.822878346198
 30
0.0
 11
880.7380928000856
 21
5080.269764078187
 31
0.0
  0
LINE
  5
195B6
330
19299
100
AcDbEntity
  8
寸法
 62
     0
 48
50.0
370
    -2
100
AcDbLine
 10
10130.73809280013
 20
4606.822878346195
 30
0.0
 11
10130.73809280013
 21
5080.269764078187
 31
0.0
  0
LINE
  5
195B7
330
19299
100
AcDbEntity
  8
寸法
 62
     0
 48
50.0
370
    -2
100
AcDbLine
 10
880.7380928000856
 20
5020.269764078187
 30
0.0
 11
10130.73809280013
 21
5020.269764078187
 31
0.0
  0
INSERT
  5
195B8
330
19299
100
AcDbEntity
  8
寸法
 62
     0
 48
50.0
370
    -2
100
AcDbBlockReference
  2
_DOTSMALL
 10
880.7380928000856
 20
5020.269764078187
 30
0.0
 41
100.0
 42
100.0
 43
100.0
 50
180.0
  0
INSERT
  5
195B9
330
19299
100
AcDbEntity
  8
寸法
 62
     0
 48
50.0
370
    -2
100
AcDbBlockReference
  2
_DOTSMALL
 10
10130.73809280013
 20
5020.269764078187
 30
0.0
 41
100.0
 42
100.0
 43
100.0
  0
MTEXT
  5
195BA
330
19299
100
AcDbEntity
  8
寸法
 62
     7
 48
50.0
100
AcDbMText
 10
5505.738092800108
 20
5120.269764078187
 30
0.0
 40
120.0
 41
0.0
 71
     5
 72
     1
  1
\A1;N X 3050+100
  7
STYLE1
 73
     1
 44
1.0
1001
ACAD
1000
MTEXTBEGIN
1070
    73
1070
     1
1070
    44
1040
1.0
1070
    74
1070
     0
1000
MTEXTEND
  0
POINT
  5
195BB
330
19299
100
AcDbEntity
  8
DEFPOINTS
 62
     0
 48
50.0
100
AcDbPoint
 10
880.7380928000856
 20
4586.822878346198
 30
0.0
  0
POINT
  5
195BC
330
19299
100
AcDbEntity
  8
DEFPOINTS
 62
     0
 48
50.0
100
AcDbPoint
 10
10130.73809280013
 20
4586.822878346196
 30
0.0
  0
POINT
  5
195BD
330
19299
100
AcDbEntity
  8
DEFPOINTS
 62
     0
 48
50.0
100
AcDbPoint
 10
10130.73809280013
 20
5020.269764078187
 30
0.0
  0
ENDBLK
  5
192A4
330
19299
100
AcDbEntity
  8
0
 48
50.0
100
AcDbBlockEnd
  0
BLOCK
  5
192AF
330
192A5
100
AcDbEntity
  8
0
 48
50.0
100
AcDbBlockBegin
  2
*D30
 70
     1
 10
0.0
 20
0.0
 30
0.0
  3
*D30
  1

  0
LINE
  5
195AC
330
192A5
100
AcDbEntity
  8
寸法
 62
     0
 48
50.0
370
    -2
100
AcDbLine
 10
12098.57547047463
 20
4351.822878346193
 30
0.0
 11
11214.82534129138
 21
4351.822878346193
 31
0.0
  0
LINE
  5
195AD
330
192A5
100
AcDbEntity
  8
寸法
 62
     0
 48
50.0
370
    -2
100
AcDbLine
 10
12098.57547047463
 20
2261.822878346193
 30
0.0
 11
11214.82534129137
 21
2261.822878346193
 31
0.0
  0
LINE
  5
195AE
330
192A5
100
AcDbEntity
  8
寸法
 62
     0
 48
50.0
370
    -2
100
AcDbLine
 10
11274.82534129138
 20
4351.822878346193
 30
0.0
 11
11274.82534129137
 21
2261.822878346193
 31
0.0
  0
INSERT
  5
195AF
330
192A5
100
AcDbEntity
  8
寸法
 62
     0
 48
50.0
370
    -2
100
AcDbBlockReference
  2
_DOTSMALL
 10
11274.82534129138
 20
4351.822878346193
 30
0.0
 41
100.0
 42
100.0
 43
100.0
 50
90.0
  0
INSERT
  5
195B0
330
192A5
100
AcDbEntity
  8
寸法
 62
     0
 48
50.0
370
    -2
100
AcDbBlockReference
  2
_DOTSMALL
 10
11274.82534129137
 20
2261.822878346193
 30
0.0
 41
100.0
 42
100.0
 43
100.0
 50
270.0
  0
MTEXT
  5
195B1
330
192A5
100
AcDbEntity
  8
寸法
 62
     7
 48
50.0
100
AcDbMText
 10
11174.81353026775
 20
3306.822878346195
 30
0.0
 40
120.0
 41
0.0
 71
     5
 72
     1
  1
\A1;2090
  7
STYLE1
 11
0.0000000000000001
 21
1.0
 31
0.0
 73
     1
 44
1.0
1001
ACAD
1000
MTEXTBEGIN
1070
    73
1070
     1
1070
    44
1040
1.0
1070
    74
1070
     0
1000
MTEXTEND
  0
POINT
  5
195B2
330
192A5
100
AcDbEntity
  8
DEFPOINTS
 62
     0
 48
50.0
100
AcDbPoint
 10
12118.57547047463
 20
4351.822878346193
 30
0.0
  0
POINT
  5
195B3
330
192A5
100
AcDbEntity
  8
DEFPOINTS
 62
     0
 48
50.0
100
AcDbPoint
 10
12118.57547047463
 20
2261.822878346193
 30
0.0
  0
POINT
  5
195B4
330
192A5
100
AcDbEntity
  8
DEFPOINTS
 62
     0
 48
50.0
100
AcDbPoint
 10
11274.82534129137
 20
2261.822878346193
 30
0.0
  0
ENDBLK
  5
192B0
330
192A5
100
AcDbEntity
  8
0
 48
50.0
100
AcDbBlockEnd
  0
BLOCK
  5
192CA
330
192BE
100
AcDbEntity
  8
0
 48
50.0
100
AcDbBlockBegin
  2
*D31
 70
     1
 10
0.0
 20
0.0
 30
0.0
  3
*D31
  1

  0
LINE
  5
19597
330
192BE
100
AcDbEntity
  8
寸法
 62
     0
 48
50.0
370
    -2
100
AcDbLine
 10
12098.57547047463
 20
2261.822878346193
 30
0.0
 11
11214.82534129137
 21
2261.822878346193
 31
0.0
  0
LINE
  5
19598
330
192BE
100
AcDbEntity
  8
寸法
 62
     0
 48
50.0
370
    -2
100
AcDbLine
 10
12043.57547047463
 20
2211.822878346193
 30
0.0
 11
11214.82534129137
 21
2211.822878346193
 31
0.0
  0
LINE
  5
19599
330
192BE
100
AcDbEntity
  8
寸法
 62
     0
 48
50.0
370
    -2
100
AcDbLine
 10
11274.82534129137
 20
2261.822878346193
 30
0.0
 11
11274.82534129137
 21
2361.822878346193
 31
0.0
  0
LINE
  5
1959A
330
192BE
100
AcDbEntity
  8
寸法
 62
     0
 48
50.0
370
    -2
100
AcDbLine
 10
11274.82534129137
 20
2211.822878346193
 30
0.0
 11
11274.82534129137
 21
1722.025634251703
 31
0.0
  0
LINE
  5
1959B
330
192BE
100
AcDbEntity
  8
寸法
 62
     0
 48
50.0
370
    -2
100
AcDbLine
 10
11274.82534129137
 20
2261.822878346193
 30
0.0
 11
11274.82534129137
 21
2211.822878346193
 31
0.0
  0
INSERT
  5
1959C
330
192BE
100
AcDbEntity
  8
寸法
 62
     0
 48
50.0
370
    -2
100
AcDbBlockReference
  2
_DOTSMALL
 10
11274.82534129137
 20
2261.822878346193
 30
0.0
 41
100.0
 42
100.0
 43
100.0
 50
270.0
  0
INSERT
  5
1959D
330
192BE
100
AcDbEntity
  8
寸法
 62
     0
 48
50.0
370
    -2
100
AcDbBlockReference
  2
_DOTSMALL
 10
11274.82534129137
 20
2211.822878346193
 30
0.0
 41
100.0
 42
100.0
 43
100.0
 50
90.0
  0
MTEXT
  5
1959E
330
192BE
100
AcDbEntity
  8
寸法
 62
     7
 48
50.0
100
AcDbMText
 10
11174.82534129137
 20
1828.072878346192
 30
0.0
 40
120.0
 41
0.0
 71
     5
 72
     1
  1
\A1;50
  7
STYLE1
 11
0.0000000000000001
 21
1.0
 31
0.0
 73
     1
 44
1.0
1001
ACAD
1000
MTEXTBEGIN
1070
    73
1070
     1
1070
    44
1040
1.0
1070
    74
1070
     0
1000
MTEXTEND
  0
POINT
  5
1959F
330
192BE
100
AcDbEntity
  8
DEFPOINTS
 62
     0
 48
50.0
100
AcDbPoint
 10
12118.57547047463
 20
2261.822878346193
 30
0.0
  0
POINT
  5
195A0
330
192BE
100
AcDbEntity
  8
DEFPOINTS
 62
     0
 48
50.0
100
AcDbPoint
 10
12063.57547047463
 20
2211.822878346193
 30
0.0
  0
POINT
  5
195A1
330
192BE
100
AcDbEntity
  8
DEFPOINTS
 62
     0
 48
50.0
100
AcDbPoint
 10
11274.82534129137
 20
2211.822878346193
 30
0.0
  0
ENDBLK
  5
192CB
330
192BE
100
AcDbEntity
  8
0
 48
50.0
100
AcDbBlockEnd
  0
BLOCK
  5
192D6
330
192CC
100
AcDbEntity
  8
0
 48
50.0
100
AcDbBlockBegin
  2
*D32
 70
     1
 10
0.0
 20
0.0
 30
0.0
  3
*D32
  1

  0
LINE
  5
1958E
330
192CC
100
AcDbEntity
  8
寸法
 62
     0
 48
50.0
370
    -2
100
AcDbLine
 10
15608.57547047463
 20
2211.822878346193
 30
0.0
 11
16097.9223533413
 21
2211.822878346193
 31
0.0
  0
LINE
  5
1958F
330
192CC
100
AcDbEntity
  8
寸法
 62
     0
 48
50.0
370
    -2
100
AcDbLine
 10
15703.57547047463
 20
4531.822878346193
 30
0.0
 11
16097.9223533413
 21
4531.822878346193
 31
0.0
  0
LINE
  5
19590
330
192CC
100
AcDbEntity
  8
寸法
 62
     0
 48
50.0
370
    -2
100
AcDbLine
 10
16037.9223533413
 20
2211.822878346193
 30
0.0
 11
16037.9223533413
 21
4531.822878346193
 31
0.0
  0
INSERT
  5
19591
330
192CC
100
AcDbEntity
  8
寸法
 62
     0
 48
50.0
370
    -2
100
AcDbBlockReference
  2
_DOTSMALL
 10
16037.9223533413
 20
2211.822878346193
 30
0.0
 41
100.0
 42
100.0
 43
100.0
 50
270.0
  0
INSERT
  5
19592
330
192CC
100
AcDbEntity
  8
寸法
 62
     0
 48
50.0
370
    -2
100
AcDbBlockReference
  2
_DOTSMALL
 10
16037.9223533413
 20
4531.822878346193
 30
0.0
 41
100.0
 42
100.0
 43
100.0
 50
90.0
  0
MTEXT
  5
19593
330
192CC
100
AcDbEntity
  8
寸法
 62
     7
 48
50.0
100
AcDbMText
 10
15937.91054231768
 20
3349.041386401659
 30
0.0
 40
120.0
 41
0.0
 71
     5
 72
     1
  1
\A1;2320
  7
STYLE1
 11
0.0000000000000001
 21
1.0
 31
0.0
 73
     1
 44
1.0
1001
ACAD
1000
MTEXTBEGIN
1070
    73
1070
     1
1070
    44
1040
1.0
1070
    74
1070
     0
1000
MTEXTEND
  0
POINT
  5
19594
330
192CC
100
AcDbEntity
  8
DEFPOINTS
 62
     0
 48
50.0
100
AcDbPoint
 10
15588.57547047463
 20
2211.822878346193
 30
0.0
  0
POINT
  5
19595
330
192CC
100
AcDbEntity
  8
DEFPOINTS
 62
     0
 48
50.0
100
AcDbPoint
 10
15683.57547047463
 20
4531.822878346193
 30
0.0
  0
POINT
  5
19596
330
192CC
100
AcDbEntity
  8
DEFPOINTS
 62
     0
 48
50.0
100
AcDbPoint
 10
16037.9223533413
 20
4531.822878346193
 30
0.0
  0
ENDBLK
  5
192D7
330
192CC
100
AcDbEntity
  8
0
 48
50.0
100
AcDbBlockEnd
  0
BLOCK
  5
192FB
330
192F0
100
AcDbEntity
  8
0
 48
50.0
100
AcDbBlockBegin
  2
*D33
 70
     1
 10
0.0
 20
0.0
 30
0.0
  3
*D33
  1

  0
LINE
  5
19572
330
192F0
100
AcDbEntity
  8
寸法
 62
     0
 48
50.0
370
    -2
100
AcDbLine
 10
12057.97975676574
 20
4586.120585415853
 30
0.0
 11
11442.04531766045
 21
4603.834735690184
 31
0.0
  0
LINE
  5
19573
330
192F0
100
AcDbEntity
  8
寸法
 62
     0
 48
50.0
370
    -2
100
AcDbLine
 10
12053.92630120912
 20
4445.178861650141
 30
0.0
 11
11437.99186210382
 21
4462.893011924472
 31
0.0
  0
LINE
  5
19574
330
192F0
100
AcDbEntity
  8
寸法
 62
     0
 48
50.0
370
    -2
100
AcDbLine
 10
11497.96706370626
 20
4461.168137219524
 30
0.0
 11
11502.02051926288
 21
4602.109860985236
 31
0.0
  0
LINE
  5
19575
330
192F0
100
AcDbEntity
  8
寸法
 62
     0
 48
50.0
370
    -2
100
AcDbLine
 10
11502.02051926288
 20
4602.109860985236
 30
0.0
 11
11512.36976749257
 21
4961.961070599823
 31
0.0
  0
INSERT
  5
19576
330
192F0
100
AcDbEntity
  8
寸法
 62
     0
 48
50.0
370
    -2
100
AcDbBlockReference
  2
_DOTSMALL
 10
11497.96706370626
 20
4461.168137219524
 30
0.0
 41
100.0
 42
100.0
 43
100.0
 50
268.3526390256378
  0
INSERT
  5
19577
330
192F0
100
AcDbEntity
  8
寸法
 62
     0
 48
50.0
370
    -2
100
AcDbBlockReference
  2
_DOTSMALL
 10
11502.02051926288
 20
4602.109860985236
 30
0.0
 41
100.0
 42
100.0
 43
100.0
 50
88.35263902563776
  0
MTEXT
  5
19578
330
192F0
100
AcDbEntity
  8
寸法
 62
     7
 48
50.0
100
AcDbMText
 10
11408.67386962779
 20
4834.889591636136
 30
0.0
 40
120.0
 41
0.0
 71
     5
 72
     1
  1
\A1;141
  7
STYLE1
 11
0.0287479117491237
 21
0.9995866933738488
 31
0.0
 73
     1
 44
1.0
1001
ACAD
1000
MTEXTBEGIN
1070
    73
1070
     1
1070
    44
1040
1.0
1070
    74
1070
     0
1000
MTEXTEND
  0
POINT
  5
19579
330
192F0
100
AcDbEntity
  8
DEFPOINTS
 62
     0
 48
50.0
100
AcDbPoint
 10
12077.97149063322
 20
4585.545627180872
 30
0.0
  0
POINT
  5
1957A
330
192F0
100
AcDbEntity
  8
DEFPOINTS
 62
     0
 48
50.0
100
AcDbPoint
 10
12073.91803507659
 20
4444.60390341516
 30
0.0
  0
POINT
  5
1957B
330
192F0
100
AcDbEntity
  8
DEFPOINTS
 62
     0
 48
50.0
100
AcDbPoint
 10
11497.96706370626
 20
4461.168137219524
 30
0.0
  0
ENDBLK
  5
192FC
330
192F0
100
AcDbEntity
  8
0
 48
50.0
100
AcDbBlockEnd
  0
BLOCK
  5
19308
330
192FD
100
AcDbEntity
  8
0
 48
50.0
100
AcDbBlockBegin
  2
*D34
 70
     1
 10
0.0
 20
0.0
 30
0.0
  3
*D34
  1

  0
LINE
  5
19568
330
192FD
100
AcDbEntity
  8
寸法
 62
     0
 48
50.0
370
    -2
100
AcDbLine
 10
15588.57547047464
 20
4553.633557957848
 30
0.0
 11
15588.57547047464
 21
5045.480331925499
 31
0.0
  0
LINE
  5
19569
330
192FD
100
AcDbEntity
  8
寸法
 62
     0
 48
50.0
370
    -2
100
AcDbLine
 10
15668.57547047464
 20
4551.822878346196
 30
0.0
 11
15668.57547047464
 21
5045.480331925499
 31
0.0
  0
LINE
  5
1956A
330
192FD
100
AcDbEntity
  8
寸法
 62
     0
 48
50.0
370
    -2
100
AcDbLine
 10
15588.57547047464
 20
4985.480331925499
 30
0.0
 11
15668.57547047464
 21
4985.480331925499
 31
0.0
  0
LINE
  5
1956B
330
192FD
100
AcDbEntity
  8
寸法
 62
     0
 48
50.0
370
    -2
100
AcDbLine
 10
15668.57547047464
 20
4985.480331925499
 30
0.0
 11
15980.66995866362
 21
4985.480331925499
 31
0.0
  0
INSERT
  5
1956C
330
192FD
100
AcDbEntity
  8
寸法
 62
     0
 48
50.0
370
    -2
100
AcDbBlockReference
  2
_DOTSMALL
 10
15588.57547047464
 20
4985.480331925499
 30
0.0
 41
100.0
 42
100.0
 43
100.0
 50
180.0
  0
INSERT
  5
1956D
330
192FD
100
AcDbEntity
  8
寸法
 62
     0
 48
50.0
370
    -2
100
AcDbBlockReference
  2
_DOTSMALL
 10
15668.57547047464
 20
4985.480331925499
 30
0.0
 41
100.0
 42
100.0
 43
100.0
  0
MTEXT
  5
1956E
330
192FD
100
AcDbEntity
  8
寸法
 62
     7
 48
50.0
100
AcDbMText
 10
15874.62271456914
 20
5085.480331925499
 30
0.0
 40
120.0
 41
0.0
 71
     5
 72
     1
  1
\A1;80
  7
STYLE1
 73
     1
 44
1.0
1001
ACAD
1000
MTEXTBEGIN
1070
    73
1070
     1
1070
    44
1040
1.0
1070
    74
1070
     0
1000
MTEXTEND
  0
POINT
  5
1956F
330
192FD
100
AcDbEntity
  8
DEFPOINTS
 62
     0
 48
50.0
100
AcDbPoint
 10
15588.57547047464
 20
4533.633557957847
 30
0.0
  0
POINT
  5
19570
330
192FD
100
AcDbEntity
  8
DEFPOINTS
 62
     0
 48
50.0
100
AcDbPoint
 10
15668.57547047464
 20
4531.822878346196
 30
0.0
  0
POINT
  5
19571
330
192FD
100
AcDbEntity
  8
DEFPOINTS
 62
     0
 48
50.0
100
AcDbPoint
 10
15668.57547047464
 20
4985.480331925499
 30
0.0
  0
ENDBLK
  5
19309
330
192FD
100
AcDbEntity
  8
0
 48
50.0
100
AcDbBlockEnd
  0
BLOCK
  5
19314
330
1930A
100
AcDbEntity
  8
0
 48
50.0
100
AcDbBlockBegin
  2
*D35
 70
     1
 10
0.0
 20
0.0
 30
0.0
  3
*D35
  1

  0
LINE
  5
1A31C
330
1930A
100
AcDbEntity
  8
寸法
 62
     0
 48
50.0
370
    -2
100
AcDbLine
 10
15668.57547047464
 20
4551.822878346194
 30
0.0
 11
15668.57547047464
 21
5275.593924711775
 31
0.0
  0
LINE
  5
1A31D
330
1930A
100
AcDbEntity
  8
寸法
 62
     0
 48
50.0
370
    -2
100
AcDbLine
 10
12058.57547047464
 20
4606.822878346197
 30
0.0
 11
12058.57547047464
 21
5275.593924711775
 31
0.0
  0
LINE
  5
1A31E
330
1930A
100
AcDbEntity
  8
寸法
 62
     0
 48
50.0
370
    -2
100
AcDbLine
 10
15668.57547047464
 20
5215.593924711775
 30
0.0
 11
12058.57547047464
 21
5215.593924711775
 31
0.0
  0
INSERT
  5
1A31F
330
1930A
100
AcDbEntity
  8
寸法
 62
     0
 48
50.0
370
    -2
100
AcDbBlockReference
  2
_DOTSMALL
 10
15668.57547047464
 20
5215.593924711775
 30
0.0
 41
100.0
 42
100.0
 43
100.0
  0
INSERT
  5
1A320
330
1930A
100
AcDbEntity
  8
寸法
 62
     0
 48
50.0
370
    -2
100
AcDbBlockReference
  2
_DOTSMALL
 10
12058.57547047464
 20
5215.593924711775
 30
0.0
 41
100.0
 42
100.0
 43
100.0
 50
180.0
  0
MTEXT
  5
1A321
330
1930A
100
AcDbEntity
  8
寸法
 62
     7
 48
50.0
100
AcDbMText
 10
13863.57547047464
 20
5315.593924711775
 30
0.0
 40
120.0
 41
0.0
 71
     5
 72
     1
  1
\A1;3610
  7
STYLE1
 73
     1
 44
1.0
1001
ACAD
1000
MTEXTBEGIN
1070
    73
1070
     1
1070
    44
1040
1.0
1070
    74
1070
     0
1000
MTEXTEND
  0
POINT
  5
1A322
330
1930A
100
AcDbEntity
  8
DEFPOINTS
 62
     0
 48
50.0
100
AcDbPoint
 10
15668.57547047464
 20
4531.822878346194
 30
0.0
  0
POINT
  5
1A323
330
1930A
100
AcDbEntity
  8
DEFPOINTS
 62
     0
 48
50.0
100
AcDbPoint
 10
12058.57547047464
 20
4586.822878346197
 30
0.0
  0
POINT
  5
1A324
330
1930A
100
AcDbEntity
  8
DEFPOINTS
 62
     0
 48
50.0
100
AcDbPoint
 10
12058.57547047464
 20
5215.593924711775
 30
0.0
  0
ENDBLK
  5
19315
330
1930A
100
AcDbEntity
  8
0
 48
50.0
100
AcDbBlockEnd
  0
BLOCK
  5
19322
330
19316
100
AcDbEntity
  8
0
 48
50.0
100
AcDbBlockBegin
  2
*D36
 70
     1
 10
0.0
 20
0.0
 30
0.0
  3
*D36
  1

  0
LINE
  5
19554
330
19316
100
AcDbEntity
  8
寸法
 62
     0
 48
50.0
370
    -2
100
AcDbLine
 10
12118.57547047464
 20
4602.824496469169
 30
0.0
 11
12118.57547047464
 21
5045.480331925497
 31
0.0
  0
LINE
  5
19555
330
19316
100
AcDbEntity
  8
寸法
 62
     0
 48
50.0
370
    -2
100
AcDbLine
 10
12058.57547047464
 20
4606.822878346197
 30
0.0
 11
12058.57547047464
 21
5045.480331925497
 31
0.0
  0
LINE
  5
19556
330
19316
100
AcDbEntity
  8
寸法
 62
     0
 48
50.0
370
    -2
100
AcDbLine
 10
12118.57547047464
 20
4985.480331925497
 30
0.0
 11
12218.57547047464
 21
4985.480331925497
 31
0.0
  0
LINE
  5
19557
330
19316
100
AcDbEntity
  8
寸法
 62
     0
 48
50.0
370
    -2
100
AcDbLine
 10
12058.57547047464
 20
4985.480331925497
 30
0.0
 11
11639.29987992346
 21
4985.480331925497
 31
0.0
  0
LINE
  5
19558
330
19316
100
AcDbEntity
  8
寸法
 62
     0
 48
50.0
370
    -2
100
AcDbLine
 10
12118.57547047464
 20
4985.480331925497
 30
0.0
 11
12058.57547047464
 21
4985.480331925497
 31
0.0
  0
INSERT
  5
19559
330
19316
100
AcDbEntity
  8
寸法
 62
     0
 48
50.0
370
    -2
100
AcDbBlockReference
  2
_DOTSMALL
 10
12118.57547047464
 20
4985.480331925497
 30
0.0
 41
100.0
 42
100.0
 43
100.0
 50
180.0
  0
INSERT
  5
1955A
330
19316
100
AcDbEntity
  8
寸法
 62
     0
 48
50.0
370
    -2
100
AcDbBlockReference
  2
_DOTSMALL
 10
12058.57547047464
 20
4985.480331925497
 30
0.0
 41
100.0
 42
100.0
 43
100.0
  0
MTEXT
  5
1955B
330
19316
100
AcDbEntity
  8
寸法
 62
     7
 48
50.0
100
AcDbMText
 10
11748.93767519905
 20
5085.480331925497
 30
0.0
 40
120.0
 41
0.0
 71
     5
 72
     1
  1
\A1;60
  7
STYLE1
 73
     1
 44
1.0
1001
ACAD
1000
MTEXTBEGIN
1070
    73
1070
     1
1070
    44
1040
1.0
1070
    74
1070
     0
1000
MTEXTEND
  0
POINT
  5
1955C
330
19316
100
AcDbEntity
  8
DEFPOINTS
 62
     0
 48
50.0
100
AcDbPoint
 10
12118.57547047464
 20
4582.824496469169
 30
0.0
  0
POINT
  5
1955D
330
19316
100
AcDbEntity
  8
DEFPOINTS
 62
     0
 48
50.0
100
AcDbPoint
 10
12058.57547047464
 20
4586.822878346197
 30
0.0
  0
POINT
  5
1955E
330
19316
100
AcDbEntity
  8
DEFPOINTS
 62
     0
 48
50.0
100
AcDbPoint
 10
12058.57547047464
 20
4985.480331925497
 30
0.0
  0
ENDBLK
  5
19323
330
19316
100
AcDbEntity
  8
0
 48
50.0
100
AcDbBlockEnd
  0
BLOCK
  5
1932E
330
19324
100
AcDbEntity
  8
0
 48
50.0
100
AcDbBlockBegin
  2
*D37
 70
     1
 10
0.0
 20
0.0
 30
0.0
  3
*D37
  1

  0
LINE
  5
1A325
330
19324
100
AcDbEntity
  8
寸法
 62
     0
 48
50.0
370
    -2
100
AcDbLine
 10
15588.57547047464
 20
4553.633557957848
 30
0.0
 11
15588.57547047464
 21
5045.480331925499
 31
0.0
  0
LINE
  5
1A326
330
19324
100
AcDbEntity
  8
寸法
 62
     0
 48
50.0
370
    -2
100
AcDbLine
 10
12118.57547047464
 20
4602.824496469169
 30
0.0
 11
12118.57547047464
 21
5045.480331925499
 31
0.0
  0
LINE
  5
1A327
330
19324
100
AcDbEntity
  8
寸法
 62
     0
 48
50.0
370
    -2
100
AcDbLine
 10
15588.57547047464
 20
4985.480331925499
 30
0.0
 11
12118.57547047464
 21
4985.480331925499
 31
0.0
  0
INSERT
  5
1A328
330
19324
100
AcDbEntity
  8
寸法
 62
     0
 48
50.0
370
    -2
100
AcDbBlockReference
  2
_DOTSMALL
 10
15588.57547047464
 20
4985.480331925499
 30
0.0
 41
100.0
 42
100.0
 43
100.0
  0
INSERT
  5
1A329
330
19324
100
AcDbEntity
  8
寸法
 62
     0
 48
50.0
370
    -2
100
AcDbBlockReference
  2
_DOTSMALL
 10
12118.57547047464
 20
4985.480331925499
 30
0.0
 41
100.0
 42
100.0
 43
100.0
 50
180.0
  0
MTEXT
  5
1A32A
330
19324
100
AcDbEntity
  8
寸法
 62
     7
 48
50.0
100
AcDbMText
 10
13853.57547047464
 20
5085.480331925499
 30
0.0
 40
120.0
 41
0.0
 71
     5
 72
     1
  1
\A1;柱外寸法3470
  7
STYLE1
 73
     1
 44
1.0
1001
ACAD
1000
MTEXTBEGIN
1070
    73
1070
     1
1070
    44
1040
1.0
1070
    74
1070
     0
1000
MTEXTEND
  0
POINT
  5
1A32B
330
19324
100
AcDbEntity
  8
DEFPOINTS
 62
     0
 48
50.0
100
AcDbPoint
 10
15588.57547047464
 20
4533.633557957847
 30
0.0
  0
POINT
  5
1A32C
330
19324
100
AcDbEntity
  8
DEFPOINTS
 62
     0
 48
50.0
100
AcDbPoint
 10
12118.57547047464
 20
4582.824496469169
 30
0.0
  0
POINT
  5
1A32D
330
19324
100
AcDbEntity
  8
DEFPOINTS
 62
     0
 48
50.0
100
AcDbPoint
 10
12118.57547047464
 20
4985.480331925499
 30
0.0
  0
ENDBLK
  5
1932F
330
19324
100
AcDbEntity
  8
0
 48
50.0
100
AcDbBlockEnd
  0
BLOCK
  5
1933A
330
19330
100
AcDbEntity
  8
0
 48
50.0
100
AcDbBlockBegin
  2
*D38
 70
     1
 10
0.0
 20
0.0
 30
0.0
  3
*D38
  1

  0
LINE
  5
19542
330
19330
100
AcDbEntity
  8
寸法
 62
     0
 48
50.0
370
    -2
100
AcDbLine
 10
12098.57547047464
 20
2211.822878346188
 30
0.0
 11
10914.82534129138
 21
2211.822878346189
 31
0.0
  0
LINE
  5
19543
330
19330
100
AcDbEntity
  8
寸法
 62
     0
 48
50.0
370
    -2
100
AcDbLine
 10
12038.57547047464
 20
4586.822878346192
 30
0.0
 11
10914.82534129138
 21
4586.822878346192
 31
0.0
  0
LINE
  5
19544
330
19330
100
AcDbEntity
  8
寸法
 62
     0
 48
50.0
370
    -2
100
AcDbLine
 10
10974.82534129138
 20
2211.822878346189
 30
0.0
 11
10974.82534129138
 21
4586.822878346192
 31
0.0
  0
INSERT
  5
19545
330
19330
100
AcDbEntity
  8
寸法
 62
     0
 48
50.0
370
    -2
100
AcDbBlockReference
  2
_DOTSMALL
 10
10974.82534129138
 20
2211.822878346189
 30
0.0
 41
100.0
 42
100.0
 43
100.0
 50
270.0
  0
INSERT
  5
19546
330
19330
100
AcDbEntity
  8
寸法
 62
     0
 48
50.0
370
    -2
100
AcDbBlockReference
  2
_DOTSMALL
 10
10974.82534129138
 20
4586.822878346192
 30
0.0
 41
100.0
 42
100.0
 43
100.0
 50
90.0
  0
MTEXT
  5
19547
330
19330
100
AcDbEntity
  8
寸法
 62
     7
 48
50.0
100
AcDbMText
 10
10874.81353026776
 20
3399.322878346193
 30
0.0
 40
120.0
 41
0.0
 71
     5
 72
     1
  1
\A1;2375
  7
STYLE1
 11
0.0000000000000001
 21
1.0
 31
0.0
 73
     1
 44
1.0
1001
ACAD
1000
MTEXTBEGIN
1070
    73
1070
     1
1070
    44
1040
1.0
1070
    74
1070
     0
1000
MTEXTEND
  0
POINT
  5
19548
330
19330
100
AcDbEntity
  8
DEFPOINTS
 62
     0
 48
50.0
100
AcDbPoint
 10
12118.57547047464
 20
2211.822878346188
 30
0.0
  0
POINT
  5
19549
330
19330
100
AcDbEntity
  8
DEFPOINTS
 62
     0
 48
50.0
100
AcDbPoint
 10
12058.57547047464
 20
4586.822878346192
 30
0.0
  0
POINT
  5
1954A
330
19330
100
AcDbEntity
  8
DEFPOINTS
 62
     0
 48
50.0
100
AcDbPoint
 10
10974.82534129138
 20
4586.822878346192
 30
0.0
  0
ENDBLK
  5
1933B
330
19330
100
AcDbEntity
  8
0
 48
50.0
100
AcDbBlockEnd
  0
BLOCK
  5
19BF1
330
19BE7
100
AcDbEntity
  8
0
 48
50.0
100
AcDbBlockBegin
  2
*D39
 70
     1
 10
0.0
 20
0.0
 30
0.0
  3
*D39
  1

  0
LINE
  5
19CBF
330
19BE7
100
AcDbEntity
  8
寸法
 62
     0
 48
50.0
370
    -2
100
AcDbLine
 10
7053.879108951466
 20
9786.388704178698
 30
0.0
 11
6951.137294992894
 21
9402.951034423528
 31
0.0
  0
LINE
  5
19CC0
330
19BE7
100
AcDbEntity
  8
寸法
 62
     0
 48
50.0
370
    -2
100
AcDbLine
 10
8536.879108951479
 20
9786.388704178691
 30
0.0
 11
8434.137294992909
 21
9402.951034423528
 31
0.0
  0
LINE
  5
19CC1
330
19BE7
100
AcDbEntity
  8
寸法
 62
     0
 48
50.0
370
    -2
100
AcDbLine
 10
6967.214246538762
 20
9462.951034423529
 30
0.0
 11
8450.214246538777
 21
9462.951034423529
 31
0.0
  0
INSERT
  5
19CC2
330
19BE7
100
AcDbEntity
  8
寸法
 62
     0
 48
50.0
370
    -2
100
AcDbBlockReference
  2
_DOTSMALL
 10
6967.214246538762
 20
9462.951034423529
 30
0.0
 41
100.0
 42
100.0
 43
100.0
 50
180.0
  0
INSERT
  5
19CC3
330
19BE7
100
AcDbEntity
  8
寸法
 62
     0
 48
50.0
370
    -2
100
AcDbBlockReference
  2
_DOTSMALL
 10
8450.214246538777
 20
9462.951034423529
 30
0.0
 41
100.0
 42
100.0
 43
100.0
  0
MTEXT
  5
19CC4
330
19BE7
100
AcDbEntity
  8
寸法
 62
     7
 48
50.0
100
AcDbMText
 10
7647.029396208101
 20
9562.951034423528
 30
0.0
 40
120.0
 41
0.0
 71
     5
 72
     1
  1
\A1;1483
  7
STYLE1
 73
     1
 44
1.0
1001
ACAD
1000
MTEXTBEGIN
1070
    73
1070
     1
1070
    44
1040
1.0
1070
    74
1070
     0
1000
MTEXTEND
  0
POINT
  5
19CC5
330
19BE7
100
AcDbEntity
  8
DEFPOINTS
 62
     0
 48
50.0
100
AcDbPoint
 10
7059.238092800088
 20
9806.388704178699
 30
0.0
  0
POINT
  5
19CC6
330
19BE7
100
AcDbEntity
  8
DEFPOINTS
 62
     0
 48
50.0
100
AcDbPoint
 10
8542.238092800101
 20
9806.388704178692
 30
0.0
  0
POINT
  5
19CC7
330
19BE7
100
AcDbEntity
  8
DEFPOINTS
 62
     0
 48
50.0
100
AcDbPoint
 10
8450.214246538777
 20
9462.951034423529
 30
0.0
  0
ENDBLK
  5
19BF2
330
19BE7
100
AcDbEntity
  8
0
 48
50.0
100
AcDbBlockEnd
  0
BLOCK
  5
19BFD
330
19BF3
100
AcDbEntity
  8
0
 48
50.0
100
AcDbBlockBegin
  2
*D40
 70
     1
 10
0.0
 20
0.0
 30
0.0
  3
*D40
  1

  0
LINE
  5
19CB6
330
19BF3
100
AcDbEntity
  8
寸法
 62
     0
 48
50.0
370
    -2
100
AcDbLine
 10
8563.879108951464
 20
9786.388704178804
 30
0.0
 11
8461.137294992893
 21
9402.951034423637
 31
0.0
  0
LINE
  5
19CB7
330
19BF3
100
AcDbEntity
  8
寸法
 62
     0
 48
50.0
370
    -2
100
AcDbLine
 10
10046.87910895147
 20
9786.388704178797
 30
0.0
 11
9944.137294992909
 21
9402.951034423637
 31
0.0
  0
LINE
  5
19CB8
330
19BF3
100
AcDbEntity
  8
寸法
 62
     0
 48
50.0
370
    -2
100
AcDbLine
 10
8477.214246538762
 20
9462.951034423637
 30
0.0
 11
9960.214246538777
 21
9462.951034423637
 31
0.0
  0
INSERT
  5
19CB9
330
19BF3
100
AcDbEntity
  8
寸法
 62
     0
 48
50.0
370
    -2
100
AcDbBlockReference
  2
_DOTSMALL
 10
8477.214246538762
 20
9462.951034423637
 30
0.0
 41
100.0
 42
100.0
 43
100.0
 50
180.0
  0
INSERT
  5
19CBA
330
19BF3
100
AcDbEntity
  8
寸法
 62
     0
 48
50.0
370
    -2
100
AcDbBlockReference
  2
_DOTSMALL
 10
9960.214246538777
 20
9462.951034423637
 30
0.0
 41
100.0
 42
100.0
 43
100.0
  0
MTEXT
  5
19CBB
330
19BF3
100
AcDbEntity
  8
寸法
 62
     7
 48
50.0
100
AcDbMText
 10
9093.676248716935
 20
9562.951034423637
 30
0.0
 40
120.0
 41
0.0
 71
     5
 72
     1
  1
\A1;1483
  7
STYLE1
 73
     1
 44
1.0
1001
ACAD
1000
MTEXTBEGIN
1070
    73
1070
     1
1070
    44
1040
1.0
1070
    74
1070
     0
1000
MTEXTEND
  0
POINT
  5
19CBC
330
19BF3
100
AcDbEntity
  8
DEFPOINTS
 62
     0
 48
50.0
100
AcDbPoint
 10
8569.238092800086
 20
9806.388704178804
 30
0.0
  0
POINT
  5
19CBD
330
19BF3
100
AcDbEntity
  8
DEFPOINTS
 62
     0
 48
50.0
100
AcDbPoint
 10
10052.2380928001
 20
9806.388704178797
 30
0.0
  0
POINT
  5
19CBE
330
19BF3
100
AcDbEntity
  8
DEFPOINTS
 62
     0
 48
50.0
100
AcDbPoint
 10
9960.214246538777
 20
9462.951034423637
 30
0.0
  0
ENDBLK
  5
19BFE
330
19BF3
100
AcDbEntity
  8
0
 48
50.0
100
AcDbBlockEnd
  0
BLOCK
  5
19F17
330
19F0D
100
AcDbEntity
  8
0
 48
50.0
100
AcDbBlockBegin
  2
*D41
 70
     1
 10
0.0
 20
0.0
 30
0.0
  3
*D41
  1

  0
LINE
  5
19FD8
330
19F0D
100
AcDbEntity
  8
寸法
 62
     0
 48
50.0
370
    -2
100
AcDbLine
 10
10100.73809280009
 20
2273.822878346193
 30
0.0
 11
10428.28119512184
 21
2273.822878346193
 31
0.0
  0
LINE
  5
19FD9
330
19F0D
100
AcDbEntity
  8
寸法
 62
     0
 48
50.0
370
    -2
100
AcDbLine
 10
10100.73809280009
 20
4159.822878346192
 30
0.0
 11
10428.28119512184
 21
4159.822878346191
 31
0.0
  0
LINE
  5
19FDA
330
19F0D
100
AcDbEntity
  8
寸法
 62
     0
 48
50.0
370
    -2
100
AcDbLine
 10
10368.28119512184
 20
2273.822878346193
 30
0.0
 11
10368.28119512184
 21
4159.822878346191
 31
0.0
  0
INSERT
  5
19FDB
330
19F0D
100
AcDbEntity
  8
寸法
 62
     0
 48
50.0
370
    -2
100
AcDbBlockReference
  2
_DOTSMALL
 10
10368.28119512184
 20
2273.822878346193
 30
0.0
 41
100.0
 42
100.0
 43
100.0
 50
270.0
  0
INSERT
  5
19FDC
330
19F0D
100
AcDbEntity
  8
寸法
 62
     0
 48
50.0
370
    -2
100
AcDbBlockReference
  2
_DOTSMALL
 10
10368.28119512184
 20
4159.822878346191
 30
0.0
 41
100.0
 42
100.0
 43
100.0
 50
90.0
  0
MTEXT
  5
19FDD
330
19F0D
100
AcDbEntity
  8
寸法
 62
     7
 48
50.0
100
AcDbMText
 10
10268.28119512184
 20
3216.822878346194
 30
0.0
 40
120.0
 41
0.0
 71
     5
 72
     1
  1
\A1;有効開口部高サ 1886
  7
STYLE1
 11
0.0000000000000001
 21
1.0
 31
0.0
 73
     1
 44
1.0
1001
ACAD
1000
MTEXTBEGIN
1070
    73
1070
     1
1070
    44
1040
1.0
1070
    74
1070
     0
1000
MTEXTEND
  0
POINT
  5
19FDE
330
19F0D
100
AcDbEntity
  8
DEFPOINTS
 62
     0
 48
50.0
100
AcDbPoint
 10
10080.73809280009
 20
2273.822878346193
 30
0.0
  0
POINT
  5
19FDF
330
19F0D
100
AcDbEntity
  8
DEFPOINTS
 62
     0
 48
50.0
100
AcDbPoint
 10
10080.73809280009
 20
4159.822878346192
 30
0.0
  0
POINT
  5
19FE0
330
19F0D
100
AcDbEntity
  8
DEFPOINTS
 62
     0
 48
50.0
100
AcDbPoint
 10
10368.28119512184
 20
4159.822878346191
 30
0.0
  0
ENDBLK
  5
19F18
330
19F0D
100
AcDbEntity
  8
0
 48
50.0
100
AcDbBlockEnd
  0
BLOCK
  5
19F25
330
19F19
100
AcDbEntity
  8
0
 48
50.0
100
AcDbBlockBegin
  2
*D42
 70
     1
 10
0.0
 20
0.0
 30
0.0
  3
*D42
  1

  0
LINE
  5
1A3BF
330
19F19
100
AcDbEntity
  8
寸法
 62
     0
 48
50.0
370
    -2
100
AcDbLine
 10
10100.73809280009
 20
4159.822878346192
 30
0.0
 11
10428.28119512184
 21
4159.822878346191
 31
0.0
  0
LINE
  5
1A3C0
330
19F19
100
AcDbEntity
  8
寸法
 62
     0
 48
50.0
370
    -2
100
AcDbLine
 10
10100.73809280009
 20
4186.822878346194
 30
0.0
 11
10428.28119512184
 21
4186.822878346194
 31
0.0
  0
LINE
  5
1A3C1
330
19F19
100
AcDbEntity
  8
寸法
 62
     0
 48
50.0
370
    -2
100
AcDbLine
 10
10368.28119512184
 20
4159.822878346191
 30
0.0
 11
10368.28119512184
 21
4059.822878346191
 31
0.0
  0
LINE
  5
1A3C2
330
19F19
100
AcDbEntity
  8
寸法
 62
     0
 48
50.0
370
    -2
100
AcDbLine
 10
10368.28119512184
 20
4186.822878346194
 30
0.0
 11
10368.28119512184
 21
4286.822878346193
 31
0.0
  0
MTEXT
  5
1A3C3
330
19F19
100
AcDbEntity
  8
寸法
 62
     7
 48
50.0
100
AcDbMText
 10
10508.45101836821
 20
4187.790078185851
 30
0.0
 40
120.0
 41
0.0
 71
     5
 72
     1
  1
\A1;27
  7
STYLE1
 11
0.0000000000000001
 21
1.0
 31
0.0
 73
     1
 44
1.0
1001
ACAD
1000
MTEXTBEGIN
1070
    73
1070
     1
1070
    44
1040
1.0
1070
    74
1070
     0
1000
MTEXTEND
  0
LINE
  5
1A3C4
330
19F19
100
AcDbEntity
  8
寸法
 62
     0
 48
50.0
370
    -2
100
AcDbLine
 10
10368.28119512184
 20
4159.822878346191
 30
0.0
 11
10368.28119512184
 21
4186.822878346194
 31
0.0
  0
INSERT
  5
1A3C5
330
19F19
100
AcDbEntity
  8
寸法
 62
     0
 48
50.0
370
    -2
100
AcDbBlockReference
  2
_DOTSMALL
 10
10368.28119512184
 20
4159.822878346191
 30
0.0
 41
100.0
 42
100.0
 43
100.0
 50
90.0
  0
INSERT
  5
1A3C6
330
19F19
100
AcDbEntity
  8
寸法
 62
     0
 48
50.0
370
    -2
100
AcDbBlockReference
  2
_DOTSMALL
 10
10368.28119512184
 20
4186.822878346194
 30
0.0
 41
100.0
 42
100.0
 43
100.0
 50
270.0
  0
POINT
  5
1A3C7
330
19F19
100
AcDbEntity
  8
DEFPOINTS
 62
     0
 48
50.0
100
AcDbPoint
 10
10080.73809280009
 20
4159.822878346192
 30
0.0
  0
POINT
  5
1A3C8
330
19F19
100
AcDbEntity
  8
DEFPOINTS
 62
     0
 48
50.0
100
AcDbPoint
 10
10080.73809280009
 20
4186.822878346194
 30
0.0
  0
POINT
  5
1A3C9
330
19F19
100
AcDbEntity
  8
DEFPOINTS
 62
     0
 48
50.0
100
AcDbPoint
 10
10368.28119512184
 20
4186.822878346194
 30
0.0
  0
ENDBLK
  5
19F26
330
19F19
100
AcDbEntity
  8
0
 48
50.0
100
AcDbBlockEnd
  0
BLOCK
  5
19F32
330
19F27
100
AcDbEntity
  8
0
 48
50.0
100
AcDbBlockBegin
  2
*D43
 70
     1
 10
0.0
 20
0.0
 30
0.0
  3
*D43
  1

  0
LINE
  5
1A3B5
330
19F27
100
AcDbEntity
  8
寸法
 62
     0
 48
50.0
370
    -2
100
AcDbLine
 10
10100.73809280009
 20
4186.822878346194
 30
0.0
 11
10428.28119512184
 21
4186.822878346194
 31
0.0
  0
LINE
  5
1A3B6
330
19F27
100
AcDbEntity
  8
寸法
 62
     0
 48
50.0
370
    -2
100
AcDbLine
 10
10100.73809280009
 20
4351.822878346193
 30
0.0
 11
10428.28119512184
 21
4351.822878346192
 31
0.0
  0
LINE
  5
1A3B7
330
19F27
100
AcDbEntity
  8
寸法
 62
     0
 48
50.0
370
    -2
100
AcDbLine
 10
10368.28119512184
 20
4186.822878346194
 30
0.0
 11
10368.28119512184
 21
4351.822878346192
 31
0.0
  0
LINE
  5
1A3B8
330
19F27
100
AcDbEntity
  8
寸法
 62
     0
 48
50.0
370
    -2
100
AcDbLine
 10
10368.28119512184
 20
4351.822878346192
 30
0.0
 11
10368.28119512184
 21
4728.79344109467
 31
0.0
  0
INSERT
  5
1A3B9
330
19F27
100
AcDbEntity
  8
寸法
 62
     0
 48
50.0
370
    -2
100
AcDbBlockReference
  2
_DOTSMALL
 10
10368.28119512184
 20
4186.822878346194
 30
0.0
 41
100.0
 42
100.0
 43
100.0
 50
270.0
  0
INSERT
  5
1A3BA
330
19F27
100
AcDbEntity
  8
寸法
 62
     0
 48
50.0
370
    -2
100
AcDbBlockReference
  2
_DOTSMALL
 10
10368.28119512184
 20
4351.822878346192
 30
0.0
 41
100.0
 42
100.0
 43
100.0
 50
90.0
  0
MTEXT
  5
1A3BB
330
19F27
100
AcDbEntity
  8
寸法
 62
     7
 48
50.0
100
AcDbMText
 10
10268.28119512184
 20
4590.308159720432
 30
0.0
 40
120.0
 41
0.0
 71
     5
 72
     1
  1
\A1;165
  7
STYLE1
 11
0.0000000000000001
 21
1.0
 31
0.0
 73
     1
 44
1.0
1001
ACAD
1000
MTEXTBEGIN
1070
    73
1070
     1
1070
    44
1040
1.0
1070
    74
1070
     0
1000
MTEXTEND
  0
POINT
  5
1A3BC
330
19F27
100
AcDbEntity
  8
DEFPOINTS
 62
     0
 48
50.0
100
AcDbPoint
 10
10080.73809280009
 20
4186.822878346194
 30
0.0
  0
POINT
  5
1A3BD
330
19F27
100
AcDbEntity
  8
DEFPOINTS
 62
     0
 48
50.0
100
AcDbPoint
 10
10080.73809280009
 20
4351.822878346193
 30
0.0
  0
POINT
  5
1A3BE
330
19F27
100
AcDbEntity
  8
DEFPOINTS
 62
     0
 48
50.0
100
AcDbPoint
 10
10368.28119512184
 20
4351.822878346192
 30
0.0
  0
ENDBLK
  5
19F33
330
19F27
100
AcDbEntity
  8
0
 48
50.0
100
AcDbBlockEnd
  0
BLOCK
  5
1A304
330
1A2F8
100
AcDbEntity
  8
0
 48
50.0
100
AcDbBlockBegin
  2
*D44
 70
     1
 10
0.0
 20
0.0
 30
0.0
  3
*D44
  1

  0
LINE
  5
1A306
330
1A2F8
100
AcDbEntity
  8
寸法
 62
     0
 48
50.0
370
    -2
100
AcDbLine
 10
4083.738092800093
 20
6822.388704178796
 30
0.0
 11
4083.738092800093
 21
6221.957933412632
 31
0.0
  0
LINE
  5
1A307
330
1A2F8
100
AcDbEntity
  8
寸法
 62
     0
 48
50.0
370
    -2
100
AcDbLine
 10
4035.738092800089
 20
6796.388704178797
 30
0.0
 11
4035.738092800089
 21
6221.957933412632
 31
0.0
  0
LINE
  5
1A308
330
1A2F8
100
AcDbEntity
  8
寸法
 62
     0
 48
50.0
370
    -2
100
AcDbLine
 10
4083.738092800093
 20
6281.957933412632
 30
0.0
 11
4183.738092800093
 21
6281.957933412632
 31
0.0
  0
LINE
  5
1A309
330
1A2F8
100
AcDbEntity
  8
寸法
 62
     0
 48
50.0
370
    -2
100
AcDbLine
 10
4035.738092800089
 20
6281.957933412632
 30
0.0
 11
3935.73809280009
 21
6281.957933412632
 31
0.0
  0
MTEXT
  5
1A30A
330
1A2F8
100
AcDbEntity
  8
寸法
 62
     7
 48
50.0
100
AcDbMText
 10
4196.640063800151
 20
6381.957933412632
 30
0.0
 40
120.0
 41
0.0
 71
     5
 72
     1
  1
\A1;48
  7
STYLE1
 73
     1
 44
1.0
1001
ACAD
1000
MTEXTBEGIN
1070
    73
1070
     1
1070
    44
1040
1.0
1070
    74
1070
     0
1000
MTEXTEND
  0
LINE
  5
1A30B
330
1A2F8
100
AcDbEntity
  8
寸法
 62
     0
 48
50.0
370
    -2
100
AcDbLine
 10
4083.738092800093
 20
6281.957933412632
 30
0.0
 11
4035.738092800089
 21
6281.957933412632
 31
0.0
  0
INSERT
  5
1A30C
330
1A2F8
100
AcDbEntity
  8
寸法
 62
     0
 48
50.0
370
    -2
100
AcDbBlockReference
  2
_DOTSMALL
 10
4083.738092800093
 20
6281.957933412632
 30
0.0
 41
100.0
 42
100.0
 43
100.0
 50
180.0
  0
INSERT
  5
1A30D
330
1A2F8
100
AcDbEntity
  8
寸法
 62
     0
 48
50.0
370
    -2
100
AcDbBlockReference
  2
_DOTSMALL
 10
4035.738092800089
 20
6281.957933412632
 30
0.0
 41
100.0
 42
100.0
 43
100.0
  0
POINT
  5
1A30E
330
1A2F8
100
AcDbEntity
  8
DEFPOINTS
 62
     0
 48
50.0
100
AcDbPoint
 10
4083.738092800093
 20
6842.388704178796
 30
0.0
  0
POINT
  5
1A30F
330
1A2F8
100
AcDbEntity
  8
DEFPOINTS
 62
     0
 48
50.0
100
AcDbPoint
 10
4035.738092800089
 20
6816.388704178797
 30
0.0
  0
POINT
  5
1A310
330
1A2F8
100
AcDbEntity
  8
DEFPOINTS
 62
     0
 48
50.0
100
AcDbPoint
 10
4035.738092800089
 20
6281.957933412632
 30
0.0
  0
ENDBLK
  5
1A305
330
1A2F8
100
AcDbEntity
  8
0
 48
50.0
100
AcDbBlockEnd
  0
ENDSEC
  0
SECTION
  2
ENTITIES
  0
MTEXT
  5
763F
330
747D
100
AcDbEntity
  8
0
100
AcDbMText
 10
302.846345836809
 20
280.1983726409901
 30
0.0
 40
3.5
 41
5.323721266742722
 71
     1
 72
     5
  1

  7
MSMINCHO
 73
     1
 44
1.0
1001
ACAD
1000
MTEXTBEGIN
1070
    73
1070
     1
1070
    44
1040
1.0
1070
    74
1070
     0
1000
MTEXTEND
  0
LINE
  5
10B57
330
747D
100
AcDbEntity
  8
補助
  6
PHANTOM
 62
   230
 48
50.0
100
AcDbLine
 10
139.9999999999995
 20
11409.6
 30
0.0
 11
16307.2
 21
11409.6
 31
0.0
  0
LINE
  5
10B59
330
747D
100
AcDbEntity
  8
仕様書枠
  6
Continuous
 48
50.0
100
AcDbLine
 10
13107.2
 20
1200.0
 30
0.0
 11
13107.2
 21
-0.0000000000000729
 31
0.0
  0
LINE
  5
10B5C
330
747D
100
AcDbEntity
  8
仕様書枠
 48
50.0
100
AcDbLine
 10
16307.2
 20
1200.0
 30
0.0
 11
16307.2
 21
-0.0000000000000909
 31
0.0
  0
LINE
  5
10B5D
330
747D
100
AcDbEntity
  8
仕様書枠
 48
50.0
100
AcDbLine
 10
140.0
 20
0.0
 30
0.0
 11
16307.2
 21
-0.0000000000000909
 31
0.0
  0
LINE
  5
10B5E
330
747D
100
AcDbEntity
  8
補助
  6
PHANTOM
 62
   230
 48
50.0
100
AcDbLine
 10
16307.2
 20
11409.6
 30
0.0
 11
16307.2
 21
1200.0
 31
0.0
  0
LINE
  5
10B6C
330
747D
100
AcDbEntity
  8
仕様書枠
 48
50.0
100
AcDbLine
 10
13107.2
 20
1200.0
 30
0.0
 11
16307.2
 21
1200.0
 31
0.0
  0
LINE
  5
10B6D
330
747D
100
AcDbEntity
  8
補助
  6
PHANTOM
 62
   230
 48
50.0
100
AcDbLine
 10
13107.2
 20
11409.6
 30
0.0
 11
13107.2
 21
4800.0
 31
0.0
  0
LINE
  5
10B6F
330
747D
100
AcDbEntity
  8
補助
  6
PHANTOM
 62
   230
 48
50.0
100
AcDbLine
 10
13107.2
 20
4800.0
 30
0.0
 11
16307.2
 21
4800.0
 31
0.0
  0
LINE
  5
10B72
330
747D
100
AcDbEntity
  8
文字
 62
     7
 48
50.0
100
AcDbLine
 10
13187.2
 20
400.0
 30
0.0
 11
16227.2
 21
400.0
 31
0.0
  0
TEXT
  5
10B73
330
747D
100
AcDbEntity
  8
文字
 62
     7
 48
50.0
100
AcDbText
 10
13162.9790565769
 20
895.0906074299405
 30
0.0
 40
200.0
  1
外 形 図
  7
STYLE2
100
AcDbText
  0
TEXT
  5
10B74
330
747D
100
AcDbEntity
  8
文字
 62
     7
 48
50.0
100
AcDbText
 10
13201.43669998441
 20
477.2740661031255
 30
0.0
 40
160.0
  1
機種名
  7
STYLE2
100
AcDbText
  0
TEXT
  5
10B75
330
747D
100
AcDbEntity
  8
文字
 62
     7
 48
50.0
100
AcDbText
 10
13209.4053442172
 20
228.5435242569016
 30
0.0
 40
100.0
  1
○有効開口寸法 ： 2844×1886(mm)
  7
STYLE2
100
AcDbText
  0
TEXT
  5
10B76
330
747D
100
AcDbEntity
  8
文字
 62
     7
 48
50.0
100
AcDbText
 10
13209.4053442172
 20
76.09434707649343
 30
0.0
 40
100.0
  1
○床面積 ： N［連続数］ × 10.58㎡(3.21坪) 　
  7
STYLE2
100
AcDbText
  0
TEXT
  5
10B79
330
747D
100
AcDbEntity
  8
文字
 62
     7
 48
50.0
100
AcDbText
 10
14524.131837222
 20
1031.557706291228
 30
0.0
 40
100.0
  1
NO.70      <縮尺> S=1/40
  7
STYLE2
100
AcDbText
  0
LINE
  5
10B7B
330
747D
100
AcDbEntity
  8
仕様書枠
 48
50.0
100
AcDbLine
 10
13107.2
 20
800.0
 30
0.0
 11
14251.2
 21
800.0
 31
0.0
  0
LINE
  5
10B88
330
747D
100
AcDbEntity
  8
仕様書枠
  6
Continuous
 48
50.0
100
AcDbLine
 10
14251.2
 20
1200.0
 30
0.0
 11
14251.2
 21
800.0
 31
0.0
  0
DIMENSION
  5
162CD
330
747D
100
AcDbEntity
  8
寸法
100
AcDbDimension
  2
*D1
 10
10728.1644385345
 20
6871.388704178883
 30
0.0
 11
10628.15262751088
 21
8551.388704178894
 31
0.0
 70
    32
  1
8X420=<>
 71
     5
 42
3360.000000000014
  3
INABA_S40G
100
AcDbAlignedDimension
 13
10080.7380928001
 23
10231.3887041789
 33
0.0
 14
10080.73809280007
 24
6871.388704178883
 34
0.0
 50
90.0
100
AcDbRotatedDimension
1001
ACAD
1000
DSTYLE
1002
{
1002
}
  0
DIMENSION
  5
162CE
330
747D
100
AcDbEntity
  8
寸法
100
AcDbDimension
  2
*D2
 10
10728.16443853448
 20
6816.388704178887
 30
0.0
 11
10728.16443853448
 21
6438.527237274026
 31
0.0
 70
   160
 71
     5
 42
54.99999999999636
  3
INABA_S40G
100
AcDbAlignedDimension
 13
10080.73809280007
 23
6871.388704178883
 33
0.0
 14
10080.73809280007
 24
6816.388704178888
 34
0.0
 50
90.0
100
AcDbRotatedDimension
1001
ACAD
1000
DSTYLE
1002
{
1002
}
  0
DIMENSION
  5
162CF
330
747D
100
AcDbEntity
  8
寸法
100
AcDbDimension
  2
*D3
 10
10728.16443853451
 20
10231.3887041789
 30
0.0
 11
10728.16443853451
 21
10594.87398555313
 31
0.0
 70
   160
 71
     5
 42
54.99999999999636
  3
INABA_S40G
100
AcDbAlignedDimension
 13
10080.7380928001
 23
10286.38870417889
 33
0.0
 14
10080.7380928001
 24
10231.3887041789
 34
0.0
 50
90.0
100
AcDbRotatedDimension
1001
ACAD
1000
DSTYLE
1002
{
1002
}
  0
DIMENSION
  5
162D0
330
747D
100
AcDbEntity
  8
寸法
100
AcDbDimension
  2
*D4
 10
11093.27138027414
 20
6816.388704178887
 30
0.0
 11
10993.27138027414
 21
8551.388704178894
 31
0.0
 70
    32
 71
     5
 42
3470.000000000008
  3
INABA_S40G
100
AcDbAlignedDimension
 13
10080.7380928001
 23
10286.38870417889
 33
0.0
 14
10080.73809280007
 24
6816.388704178888
 34
0.0
 50
90.0
100
AcDbRotatedDimension
1001
ACAD
1000
DSTYLE
1002
{
1002
}
  0
LINE
  5
162DC
330
747D
100
AcDbEntity
  8
部品1
100
AcDbLine
 10
10052.73809280008
 20
10258.38870417889
 30
0.0
 11
10052.73809280007
 21
6871.388704178883
 31
0.0
  0
LINE
  5
162DD
330
747D
100
AcDbEntity
  8
部品1
100
AcDbLine
 10
958.7380928000747
 20
6871.388704178753
 30
0.0
 11
958.7380928000857
 21
10258.3887041788
 31
0.0
  0
LINE
  5
162DE
330
747D
100
AcDbEntity
  8
部品1
100
AcDbLine
 10
10080.7380928001
 20
10286.38870417889
 30
0.0
 11
10080.73809280007
 21
6816.388704178888
 31
0.0
  0
LINE
  5
162DF
330
747D
100
AcDbEntity
  8
部品1
100
AcDbLine
 10
930.7380928000638
 20
10286.38870417877
 30
0.0
 11
930.7380928000929
 21
6816.388704178756
 31
0.0
  0
DIMENSION
  5
162E4
330
747D
100
AcDbEntity
  8
寸法
 48
50.0
100
AcDbDimension
  2
*D5
 10
7133.738092800093
 20
6281.957933412632
 30
0.0
 11
8555.738092800083
 21
6381.969744436254
 31
0.0
 70
    32
  1
有効開口部間口 <>
 71
     5
 42
2843.999999999982
  3
INABA_S40G
100
AcDbAlignedDimension
 13
9977.738092800075
 23
6842.388704178796
 33
0.0
 14
7133.738092800093
 24
6842.388704178796
 34
0.0
100
AcDbRotatedDimension
1001
ACAD
1000
DSTYLE
1002
{
1070
    75
1070
     1
1070
   279
1070
     2
1002
}
  0
LINE
  5
162E6
330
747D
100
AcDbEntity
  8
部品1
 48
50.0
100
AcDbLine
 10
7097.738092800092
 20
6861.888704178794
 30
0.0
 11
10013.73809280007
 21
6861.888704178794
 31
0.0
  0
DIMENSION
  5
162E7
330
747D
100
AcDbEntity
  8
寸法
100
AcDbDimension
  2
*D6
 10
10080.73809280006
 20
5835.784937821758
 30
0.0
 11
5505.738092800078
 21
5935.784937821757
 31
0.0
 70
    32
  1
N X 3050
 71
     5
 42
9149.999999999971
  3
INABA_S40G
100
AcDbAlignedDimension
 13
930.7380928000929
 23
6816.388704178793
 33
0.0
 14
10080.73809280006
 24
6816.388704178888
 34
0.0
100
AcDbRotatedDimension
1001
ACAD
1000
DSTYLE
1002
{
1070
   279
1070
     2
1002
}
  0
LINE
  5
162E8
330
747D
100
AcDbEntity
  8
部品1
100
AcDbLine
 10
985.7380928000766
 20
9806.388704178804
 30
0.0
 11
985.738092800093
 21
6881.388704178795
 31
0.0
  0
DIMENSION
  5
162EA
330
747D
100
AcDbEntity
  8
寸法
 48
50.0
100
AcDbDimension
  2
*D7
 10
930.7380928000929
 20
6281.957933412632
 30
0.0
 11
622.2528114258543
 21
6281.957933412632
 31
0.0
 70
   160
 71
     5
 42
54.99999999999636
  3
INABA_S40G
100
AcDbAlignedDimension
 13
985.7380928000893
 23
6816.388704178797
 33
0.0
 14
930.7380928000929
 24
6816.388704178793
 34
0.0
100
AcDbRotatedDimension
1001
ACAD
1000
DSTYLE
1002
{
1002
}
  0
DIMENSION
  5
162EB
330
747D
100
AcDbEntity
  8
寸法
 48
50.0
100
AcDbDimension
  2
*D8
 10
7085.738092800089
 20
6281.957933412632
 30
0.0
 11
7246.64006380015
 21
6381.957933412632
 31
0.0
 70
   160
 71
     5
 42
48.00000000000363
  3
INABA_S40G
100
AcDbAlignedDimension
 13
7133.738092800093
 23
6842.388704178796
 33
0.0
 14
7085.738092800089
 24
6816.388704178797
 34
0.0
100
AcDbRotatedDimension
1001
ACAD
1000
DSTYLE
1002
{
1070
   279
1070
     2
1002
}
  0
LINE
  5
162EC
330
747D
100
AcDbEntity
  8
部品1
100
AcDbLine
 10
985.7380928000893
 20
6816.388704178797
 30
0.0
 11
930.7380928000929
 21
6816.388704178793
 31
0.0
  0
LINE
  5
162ED
330
747D
100
AcDbEntity
  8
部品1
 48
50.0
100
AcDbLine
 10
985.738092800093
 20
6852.388704178794
 30
0.0
 11
962.7380928000929
 21
6852.388704178794
 31
0.0
  0
LINE
  5
162EE
330
747D
100
AcDbEntity
  8
部品1
 48
50.0
100
AcDbLine
 10
995.7380928000929
 20
6842.388704178796
 30
0.0
 11
985.738092800093
 21
6821.388704178797
 31
0.0
  0
LINE
  5
162EF
330
747D
100
AcDbEntity
  8
部品1
 48
50.0
100
AcDbLine
 10
985.738092800093
 20
6881.388704178795
 30
0.0
 11
985.7380928000893
 21
6816.388704178797
 31
0.0
  0
LINE
  5
162F0
330
747D
100
AcDbEntity
  8
部品1
 48
50.0
100
AcDbLine
 10
1033.738092800093
 20
6842.388704178796
 30
0.0
 11
1033.738092800093
 21
6851.388704178797
 31
0.0
  0
LINE
  5
162F1
330
747D
100
AcDbEntity
  8
部品1
 48
50.0
100
AcDbLine
 10
1033.738092800093
 20
6881.388704178796
 30
0.0
 11
1033.738092800093
 21
6872.388704178796
 31
0.0
  0
LINE
  5
162F2
330
747D
100
AcDbEntity
  8
部品1
100
AcDbLine
 10
1033.738092800093
 20
6881.388704178796
 30
0.0
 11
985.738092800093
 21
6881.388704178796
 31
0.0
  0
LINE
  5
162F3
330
747D
100
AcDbEntity
  8
部品1
100
AcDbLine
 10
1033.738092800093
 20
6842.388704178796
 30
0.0
 11
985.738092800093
 21
6842.388704178796
 31
0.0
  0
LINE
  5
162F4
330
747D
100
AcDbEntity
  8
部品1
100
AcDbLine
 10
985.738092800093
 20
6852.388704178794
 30
0.0
 11
962.7380928000929
 21
6852.388704178794
 31
0.0
  0
LINE
  5
162F5
330
747D
100
AcDbEntity
  8
部品1
100
AcDbLine
 10
985.738092800093
 20
6871.38870417872
 30
0.0
 11
930.7380928000911
 21
6871.38870417872
 31
0.0
  0
LINE
  5
162F6
330
747D
100
AcDbEntity
  8
部品1
100
AcDbLine
 10
958.7380928000747
 20
6871.388704178757
 30
0.0
 11
930.7380928000911
 21
6871.388704178757
 31
0.0
  0
LINE
  5
162F7
330
747D
100
AcDbEntity
  8
部品1
100
AcDbLine
 10
958.7380928000911
 20
6871.388704178771
 30
0.0
 11
930.7380928000911
 21
6871.388704178771
 31
0.0
  0
LINE
  5
162FB
330
747D
100
AcDbEntity
  8
部品1
100
AcDbLine
 10
958.7380928000785
 20
8971.388704178771
 30
0.0
 11
930.7380928000783
 21
8971.388704178771
 31
0.0
  0
LINE
  5
162FC
330
747D
100
AcDbEntity
  8
部品1
100
AcDbLine
 10
958.7380928000785
 20
9391.388704178771
 30
0.0
 11
930.7380928000783
 21
9391.388704178771
 31
0.0
  0
LINE
  5
162FE
330
747D
100
AcDbEntity
  8
部品1
100
AcDbLine
 10
958.7380928000747
 20
9811.388704178773
 30
0.0
 11
930.7380928000748
 21
9811.388704178773
 31
0.0
  0
LINE
  5
162FF
330
747D
100
AcDbEntity
  8
部品1
100
AcDbLine
 10
10025.73809280009
 20
9806.388704178804
 30
0.0
 11
10025.73809280007
 21
6816.388704178883
 31
0.0
  0
DIMENSION
  5
16301
330
747D
100
AcDbEntity
  8
寸法
 48
50.0
100
AcDbDimension
  2
*D9
 10
9977.738092800075
 20
6281.957933412632
 30
0.0
 11
9866.775195151328
 21
6381.957933412632
 31
0.0
 70
   160
 71
     5
 42
48.00000000000181
  3
INABA_S40G
100
AcDbAlignedDimension
 13
10025.73809280007
 23
6816.388704178883
 33
0.0
 14
9977.738092800075
 24
6842.388704178796
 34
0.0
100
AcDbRotatedDimension
1001
ACAD
1000
DSTYLE
1002
{
1070
   279
1070
     2
1002
}
  0
DIMENSION
  5
16302
330
747D
100
AcDbEntity
  8
寸法
 48
50.0
100
AcDbDimension
  2
*D10
 10
10025.73809280007
 20
6281.957933412633
 30
0.0
 11
10389.22337417431
 21
6281.957933412633
 31
0.0
 70
   160
 71
     5
 42
54.99999999999818
  3
INABA_S40G
100
AcDbAlignedDimension
 13
10080.73809280007
 23
6816.388704178888
 33
0.0
 14
10025.73809280007
 24
6816.388704178883
 34
0.0
100
AcDbRotatedDimension
1001
ACAD
1000
DSTYLE
1002
{
1002
}
  0
LINE
  5
16303
330
747D
100
AcDbEntity
  8
部品1
 48
50.0
100
AcDbLine
 10
10015.73809280007
 20
6842.388704178796
 30
0.0
 11
10025.73809280007
 21
6821.388704178797
 31
0.0
  0
LINE
  5
16304
330
747D
100
AcDbEntity
  8
部品1
100
AcDbLine
 10
9977.738092800075
 20
6881.388704178796
 30
0.0
 11
10025.73809280007
 21
6881.388704178796
 31
0.0
  0
LINE
  5
16305
330
747D
100
AcDbEntity
  8
部品1
100
AcDbLine
 10
9977.738092800075
 20
6842.388704178796
 30
0.0
 11
10025.73809280007
 21
6842.388704178796
 31
0.0
  0
LINE
  5
16306
330
747D
100
AcDbEntity
  8
部品1
 48
50.0
100
AcDbLine
 10
9977.738092800075
 20
6881.388704178796
 30
0.0
 11
9977.738092800075
 21
6872.388704178796
 31
0.0
  0
LINE
  5
16307
330
747D
100
AcDbEntity
  8
部品1
 48
50.0
100
AcDbLine
 10
9977.738092800075
 20
6842.388704178796
 30
0.0
 11
9977.738092800075
 21
6851.388704178797
 31
0.0
  0
LINE
  5
16308
330
747D
100
AcDbEntity
  8
部品1
100
AcDbLine
 10
10025.73809280007
 20
6852.388704178792
 30
0.0
 11
10048.73809280007
 21
6852.388704178794
 31
0.0
  0
LINE
  5
16309
330
747D
100
AcDbEntity
  8
部品1
100
AcDbLine
 10
10025.73809280007
 20
6871.388704178899
 30
0.0
 11
10080.73809280011
 21
6871.388704178899
 31
0.0
  0
LINE
  5
1630A
330
747D
100
AcDbEntity
  8
部品1
100
AcDbLine
 10
10080.73809280007
 20
6816.388704178888
 30
0.0
 11
10025.73809280007
 21
6816.388704178883
 31
0.0
  0
LINE
  5
16317
330
747D
100
AcDbEntity
  8
部品1
100
AcDbLine
 10
10052.7380928001
 20
8971.388704178899
 30
0.0
 11
10080.7380928001
 21
8971.388704178899
 31
0.0
  0
LINE
  5
16319
330
747D
100
AcDbEntity
  8
部品1
100
AcDbLine
 10
10052.7380928001
 20
9391.388704178899
 30
0.0
 11
10080.7380928001
 21
9391.388704178899
 31
0.0
  0
LINE
  5
1631A
330
747D
100
AcDbEntity
  8
部品1
100
AcDbLine
 10
10052.7380928001
 20
9811.388704178899
 30
0.0
 11
10080.7380928001
 21
9811.388704178899
 31
0.0
  0
LINE
  5
1631B
330
747D
100
AcDbEntity
  8
部品1
100
AcDbLine
 10
7058.738092800085
 20
10258.38870417892
 30
0.0
 11
8543.238092800097
 21
10258.38870417892
 31
0.0
  0
DIMENSION
  5
1631F
330
747D
100
AcDbEntity
  8
寸法
100
AcDbDimension
  2
*D11
 10
10025.7380928001
 20
10791.66089124576
 30
0.0
 11
8555.738092800101
 21
10891.67270226939
 31
0.0
 70
    32
  1
7X420=<>
 71
     5
 42
2940.0
  3
INABA_S40G
100
AcDbAlignedDimension
 13
7085.738092800101
 23
10286.3887041788
 33
0.0
 14
10025.7380928001
 24
10286.38870417889
 34
0.0
100
AcDbRotatedDimension
1001
ACAD
1000
DSTYLE
1002
{
1002
}
  0
DIMENSION
  5
16320
330
747D
100
AcDbEntity
  8
寸法
100
AcDbDimension
  2
*D12
 10
985.7380928001003
 20
10791.66089124565
 30
0.0
 11
622.2528114258253
 21
10791.66089124565
 31
0.0
 70
   160
 71
     5
 42
55.00000000003637
  3
INABA_S40G
100
AcDbAlignedDimension
 13
930.7380928000638
 23
10286.3887041788
 33
0.0
 14
985.7380928001003
 24
10286.3887041788
 34
0.0
100
AcDbRotatedDimension
1001
ACAD
1000
DSTYLE
1002
{
1002
}
  0
LINE
  5
16321
330
747D
100
AcDbEntity
  8
部品1
100
AcDbLine
 10
985.7380928000639
 20
10286.38870417877
 30
0.0
 11
985.7380928000676
 21
10258.38870417876
 31
0.0
  0
LINE
  5
16322
330
747D
100
AcDbEntity
  8
部品1
100
AcDbLine
 10
985.7380928001003
 20
10286.3887041788
 30
0.0
 11
985.7380928001003
 21
10258.3887041788
 31
0.0
  0
LINE
  5
16323
330
747D
100
AcDbEntity
  8
部品1
100
AcDbLine
 10
958.7380928000674
 20
10231.38870417877
 30
0.0
 11
930.7380928000675
 21
10231.38870417877
 31
0.0
  0
LINE
  5
16324
330
747D
100
AcDbEntity
  8
部品1
100
AcDbLine
 10
7925.738092800099
 20
10286.38870417891
 30
0.0
 11
7925.738092800099
 21
10258.38870417892
 31
0.0
  0
LINE
  5
16325
330
747D
100
AcDbEntity
  8
部品1
100
AcDbLine
 10
7925.738092800099
 20
10286.3887041788
 30
0.0
 11
7925.738092800099
 21
10258.3887041788
 31
0.0
  0
LINE
  5
16326
330
747D
100
AcDbEntity
  8
部品1
100
AcDbLine
 10
7925.738092800099
 20
10286.3887041788
 30
0.0
 11
7925.738092800099
 21
10258.3887041788
 31
0.0
  0
LINE
  5
16327
330
747D
100
AcDbEntity
  8
部品1
100
AcDbLine
 10
8568.238092800099
 20
10258.38870417892
 30
0.0
 11
10052.7380928001
 21
10258.38870417889
 31
0.0
  0
LINE
  5
16329
330
747D
100
AcDbEntity
  8
部品1
100
AcDbLine
 10
8345.7380928001
 20
10286.38870417891
 30
0.0
 11
8345.7380928001
 21
10258.38870417892
 31
0.0
  0
LINE
  5
1632A
330
747D
100
AcDbEntity
  8
部品1
100
AcDbLine
 10
8345.7380928001
 20
10286.3887041788
 30
0.0
 11
8345.7380928001
 21
10258.3887041788
 31
0.0
  0
LINE
  5
1632B
330
747D
100
AcDbEntity
  8
部品1
100
AcDbLine
 10
8345.7380928001
 20
10286.3887041788
 30
0.0
 11
8345.7380928001
 21
10258.3887041788
 31
0.0
  0
LINE
  5
1632C
330
747D
100
AcDbEntity
  8
部品1
100
AcDbLine
 10
8765.7380928001
 20
10286.38870417891
 30
0.0
 11
8765.7380928001
 21
10258.38870417892
 31
0.0
  0
LINE
  5
16332
330
747D
100
AcDbEntity
  8
部品1
100
AcDbLine
 10
9185.738092800098
 20
10286.38870417891
 30
0.0
 11
9185.738092800098
 21
10258.38870417892
 31
0.0
  0
DIMENSION
  5
16333
330
747D
100
AcDbEntity
  8
寸法
100
AcDbDimension
  2
*D13
 10
10080.7380928001
 20
10791.66089124575
 30
0.0
 11
10391.4468667654
 21
10791.66089124575
 31
0.0
 70
   160
 71
     5
 42
55.0
  3
INABA_S40G
100
AcDbAlignedDimension
 13
10025.7380928001
 23
10286.38870417889
 33
0.0
 14
10080.7380928001
 24
10286.38870417889
 34
0.0
100
AcDbRotatedDimension
1001
ACAD
1000
DSTYLE
1002
{
1002
}
  0
LINE
  5
16334
330
747D
100
AcDbEntity
  8
部品1
100
AcDbLine
 10
9605.738092800098
 20
10286.38870417891
 30
0.0
 11
9605.738092800098
 21
10258.38870417892
 31
0.0
  0
LINE
  5
16335
330
747D
100
AcDbEntity
  8
部品1
100
AcDbLine
 10
10025.7380928001
 20
10286.38870417889
 30
0.0
 11
10025.7380928001
 21
10258.38870417889
 31
0.0
  0
LINE
  5
16336
330
747D
100
AcDbEntity
  8
部品1
100
AcDbLine
 10
10025.7380928001
 20
10286.38870417891
 30
0.0
 11
10025.7380928001
 21
10258.38870417892
 31
0.0
  0
LINE
  5
16337
330
747D
100
AcDbEntity
  8
部品1
100
AcDbLine
 10
10052.7380928001
 20
10231.3887041789
 30
0.0
 11
10080.7380928001
 21
10231.3887041789
 31
0.0
  0
DIMENSION
  5
1659A
330
747D
100
AcDbEntity
  8
寸法
 48
50.0
100
AcDbDimension
  2
*D15
 10
6927.738092800075
 20
6281.957933412632
 30
0.0
 11
6816.775195151328
 21
6381.957933412632
 31
0.0
 70
   160
 71
     5
 42
48.00000000000181
  3
INABA_S40G
100
AcDbAlignedDimension
 13
6975.738092800077
 23
6816.388704178883
 33
0.0
 14
6927.738092800075
 24
6842.388704178796
 34
0.0
100
AcDbRotatedDimension
1001
ACAD
1000
DSTYLE
1002
{
1070
   279
1070
     2
1002
}
  0
DIMENSION
  5
1659C
330
747D
100
AcDbEntity
  8
寸法
 48
50.0
100
AcDbDimension
  2
*D14
 10
985.7380928000893
 20
6281.957933412632
 30
0.0
 11
1146.64006380015
 21
6381.957933412632
 31
0.0
 70
   160
 71
     5
 42
48.00000000000363
  3
INABA_S40G
100
AcDbAlignedDimension
 13
1033.738092800093
 23
6842.388704178796
 33
0.0
 14
985.7380928000893
 24
6816.388704178797
 34
0.0
100
AcDbRotatedDimension
1001
ACAD
1000
DSTYLE
1002
{
1070
   279
1070
     2
1002
}
  0
DIMENSION
  5
165E9
330
747D
100
AcDbEntity
  8
寸法
 48
50.0
100
AcDbDimension
  2
*D16
 10
6975.738092800077
 20
6281.957933412633
 30
0.0
 11
7030.738092800082
 21
6130.266038376401
 31
0.0
 70
   160
 71
     5
 42
110.0000000000127
  3
INABA_S40G
100
AcDbAlignedDimension
 13
7085.738092800089
 23
6816.388704178797
 33
0.0
 14
6975.738092800077
 24
6816.388704178883
 34
0.0
100
AcDbRotatedDimension
1001
ACAD
1000
DSTYLE
1002
{
1070
   279
1070
     2
1002
}
  0
LINE
  5
16656
330
747D
100
AcDbEntity
  8
部品1
100
AcDbLine
 10
6927.738092800075
 20
6881.388704178796
 30
0.0
 11
6975.738092800077
 21
6881.388704178796
 31
0.0
  0
LINE
  5
16657
330
747D
100
AcDbEntity
  8
部品1
 48
50.0
100
AcDbLine
 10
6927.738092800075
 20
6881.388704178796
 30
0.0
 11
6927.738092800075
 21
6872.388704178796
 31
0.0
  0
LINE
  5
16658
330
747D
100
AcDbEntity
  8
部品1
100
AcDbLine
 10
6927.738092800075
 20
6842.388704178796
 30
0.0
 11
6975.738092800075
 21
6842.388704178796
 31
0.0
  0
LINE
  5
16659
330
747D
100
AcDbEntity
  8
部品1
 48
50.0
100
AcDbLine
 10
6927.738092800075
 20
6842.388704178796
 30
0.0
 11
6927.738092800075
 21
6851.388704178797
 31
0.0
  0
LINE
  5
1665A
330
747D
100
AcDbEntity
  8
部品1
 48
50.0
100
AcDbLine
 10
6965.738092800075
 20
6842.388704178796
 30
0.0
 11
6975.738092800075
 21
6821.388704178797
 31
0.0
  0
LINE
  5
1665B
330
747D
100
AcDbEntity
  8
部品1
100
AcDbLine
 10
6975.738092800075
 20
6852.388704178792
 30
0.0
 11
6998.738092800074
 21
6852.388704178794
 31
0.0
  0
LINE
  5
1665C
330
747D
100
AcDbEntity
  8
部品1
100
AcDbLine
 10
7133.738092800093
 20
6881.388704178796
 30
0.0
 11
7085.738092800093
 21
6881.388704178796
 31
0.0
  0
LINE
  5
1665D
330
747D
100
AcDbEntity
  8
部品1
 48
50.0
100
AcDbLine
 10
7133.738092800093
 20
6881.388704178796
 30
0.0
 11
7133.738092800093
 21
6872.388704178796
 31
0.0
  0
LINE
  5
1665E
330
747D
100
AcDbEntity
  8
部品1
100
AcDbLine
 10
7133.738092800093
 20
6842.388704178796
 30
0.0
 11
7085.738092800093
 21
6842.388704178796
 31
0.0
  0
LINE
  5
1665F
330
747D
100
AcDbEntity
  8
部品1
 48
50.0
100
AcDbLine
 10
7095.738092800093
 20
6842.388704178796
 30
0.0
 11
7085.738092800093
 21
6821.388704178797
 31
0.0
  0
LINE
  5
16660
330
747D
100
AcDbEntity
  8
部品1
100
AcDbLine
 10
7085.738092800093
 20
6852.388704178794
 30
0.0
 11
7062.738092800093
 21
6852.388704178794
 31
0.0
  0
LINE
  5
16661
330
747D
100
AcDbEntity
  8
部品1
 48
50.0
100
AcDbLine
 10
7085.738092800093
 20
6881.388704178795
 30
0.0
 11
7085.738092800089
 21
6816.388704178797
 31
0.0
  0
LINE
  5
16662
330
747D
100
AcDbEntity
  8
部品1
 48
50.0
100
AcDbLine
 10
7133.738092800093
 20
6842.388704178796
 30
0.0
 11
7133.738092800093
 21
6851.388704178797
 31
0.0
  0
LINE
  5
16663
330
747D
100
AcDbEntity
  8
部品1
100
AcDbLine
 10
7085.738092800089
 20
6816.388704178797
 30
0.0
 11
6975.738092800078
 21
6816.388704178788
 31
0.0
  0
LINE
  5
16664
330
747D
100
AcDbEntity
  8
部品1
 48
50.0
100
AcDbLine
 10
6975.738092800082
 20
6881.388704178885
 30
0.0
 11
6975.738092800078
 21
6816.388704178883
 31
0.0
  0
LINE
  5
16666
330
747D
100
AcDbEntity
  8
部品1
100
AcDbLine
 10
7085.738092800101
 20
10286.3887041788
 30
0.0
 11
7085.738092800101
 21
10258.3887041788
 31
0.0
  0
LINE
  5
16680
330
747D
100
AcDbEntity
  8
部品1
100
AcDbLine
 10
5715.7380928001
 20
10286.38870417891
 30
0.0
 11
5715.7380928001
 21
10258.38870417892
 31
0.0
  0
LINE
  5
16688
330
747D
100
AcDbEntity
  8
部品1
100
AcDbLine
 10
4008.738092800085
 20
10258.38870417892
 30
0.0
 11
5493.238092800097
 21
10258.38870417891
 31
0.0
  0
LINE
  5
1668A
330
747D
100
AcDbEntity
  8
部品1
100
AcDbLine
 10
4875.738092800101
 20
10286.38870417891
 30
0.0
 11
4875.738092800101
 21
10258.38870417892
 31
0.0
  0
LINE
  5
1668B
330
747D
100
AcDbEntity
  8
部品1
100
AcDbLine
 10
4875.738092800101
 20
10286.3887041788
 30
0.0
 11
4875.738092800101
 21
10258.3887041788
 31
0.0
  0
LINE
  5
1668C
330
747D
100
AcDbEntity
  8
部品1
100
AcDbLine
 10
4875.738092800101
 20
10286.3887041788
 30
0.0
 11
4875.738092800101
 21
10258.3887041788
 31
0.0
  0
LINE
  5
1668D
330
747D
100
AcDbEntity
  8
部品1
100
AcDbLine
 10
5295.7380928001
 20
10286.38870417891
 30
0.0
 11
5295.7380928001
 21
10258.38870417892
 31
0.0
  0
LINE
  5
1668E
330
747D
100
AcDbEntity
  8
部品1
100
AcDbLine
 10
5295.7380928001
 20
10286.3887041788
 30
0.0
 11
5295.7380928001
 21
10258.3887041788
 31
0.0
  0
LINE
  5
1668F
330
747D
100
AcDbEntity
  8
部品1
100
AcDbLine
 10
5295.7380928001
 20
10286.3887041788
 30
0.0
 11
5295.7380928001
 21
10258.3887041788
 31
0.0
  0
LINE
  5
16690
330
747D
100
AcDbEntity
  8
部品1
100
AcDbLine
 10
6135.7380928001
 20
10286.38870417891
 30
0.0
 11
6135.7380928001
 21
10258.38870417892
 31
0.0
  0
LINE
  5
16691
330
747D
100
AcDbEntity
  8
部品1
100
AcDbLine
 10
6555.738092800098
 20
10286.38870417891
 30
0.0
 11
6555.738092800098
 21
10258.38870417892
 31
0.0
  0
LINE
  5
16692
330
747D
100
AcDbEntity
  8
部品1
100
AcDbLine
 10
6975.738092800099
 20
10286.38870417889
 30
0.0
 11
6975.738092800099
 21
10258.38870417889
 31
0.0
  0
DIMENSION
  5
166DD
330
747D
100
AcDbEntity
  8
寸法
 48
50.0
100
AcDbDimension
  2
*D17
 10
6975.738092800099
 20
10791.66089124576
 30
0.0
 11
7030.738092800101
 21
10891.66089124576
 31
0.0
 70
    32
 71
     5
 42
110.0
  3
INABA_S40G
100
AcDbAlignedDimension
 13
7085.738092800101
 23
10286.38870417885
 33
0.0
 14
6975.738092800099
 24
10286.38870417884
 34
0.0
100
AcDbRotatedDimension
1001
ACAD
1000
DSTYLE
1002
{
1070
   279
1070
     2
1002
}
  0
LINE
  5
16760
330
747D
100
AcDbEntity
  8
部品1
 48
50.0
100
AcDbLine
 10
7030.738092800065
 20
10258.38870417884
 30
0.0
 11
7002.738092800068
 21
10286.38870417889
 31
0.0
  0
LINE
  5
16761
330
747D
100
AcDbEntity
  8
部品1
100
AcDbLine
 10
7058.738092800068
 20
10231.38870417881
 30
0.0
 11
7002.738092800068
 21
10231.38870417881
 31
0.0
  0
LINE
  5
16762
330
747D
100
AcDbEntity
  8
部品1
 48
50.0
100
AcDbLine
 10
7002.738092800068
 20
10258.38870417895
 30
0.0
 11
7002.738092800068
 21
10286.38870417889
 31
0.0
  0
LINE
  5
16763
330
747D
100
AcDbEntity
  8
部品1
 48
50.0
100
AcDbLine
 10
7002.738092800068
 20
10258.38870417884
 30
0.0
 11
7030.738092800065
 21
10258.38870417884
 31
0.0
  0
LINE
  5
16764
330
747D
100
AcDbEntity
  8
部品1
100
AcDbLine
 10
7002.738092800083
 20
10258.38870417889
 30
0.0
 11
7002.738092800071
 21
6816.38870417879
 31
0.0
  0
LINE
  5
16765
330
747D
100
AcDbEntity
  8
部品1
100
AcDbLine
 10
7058.73809280006
 20
6816.388704178795
 30
0.0
 11
7058.738092800085
 21
10286.38870417884
 31
0.0
  0
LINE
  5
168C3
330
747D
100
AcDbEntity
  8
部品1
100
AcDbLine
 10
7054.738092800083
 20
6871.388704178793
 30
0.0
 11
7006.738092800081
 21
6871.388704178791
 31
0.0
  0
LINE
  5
168C4
330
747D
100
AcDbEntity
  8
部品1
 48
50.0
100
AcDbLine
 10
7006.738092800084
 20
6871.388704178793
 30
0.0
 11
7006.738092800086
 21
6816.388704178793
 31
0.0
  0
LINE
  5
168C5
330
747D
100
AcDbEntity
  8
部品1
 48
50.0
100
AcDbLine
 10
7054.738092800083
 20
6871.388704178793
 30
0.0
 11
7054.738092800086
 21
6816.388704178793
 31
0.0
  0
DIMENSION
  5
16913
330
747D
100
AcDbEntity
  8
寸法
 48
50.0
100
AcDbDimension
  2
*D18
 10
10080.7380928001
 20
11040.98236480206
 30
0.0
 11
8555.738092800101
 21
11140.98236480206
 31
0.0
 70
    32
 71
     5
 42
3050.000000000001
  3
INABA_S40G
100
AcDbAlignedDimension
 13
7030.738092800099
 23
10950.64880560371
 33
0.0
 14
10080.7380928001
 24
10286.38870417889
 34
0.0
100
AcDbRotatedDimension
1001
ACAD
1000
DSTYLE
1002
{
1070
   279
1070
     2
1002
}
  0
LINE
  5
16C81
330
747D
100
AcDbEntity
  8
部品1
100
AcDbLine
 10
958.7380928000785
 20
8551.388704178771
 30
0.0
 11
930.7380928000783
 21
8551.388704178771
 31
0.0
  0
LINE
  5
16C82
330
747D
100
AcDbEntity
  8
部品1
100
AcDbLine
 10
10052.7380928001
 20
8551.388704178899
 30
0.0
 11
10080.7380928001
 21
8551.388704178899
 31
0.0
  0
LINE
  5
16FDA
330
747D
100
AcDbEntity
  8
部品1
100
AcDbLine
 10
958.7380928000785
 20
8131.388704178771
 30
0.0
 11
930.7380928000783
 21
8131.388704178771
 31
0.0
  0
LINE
  5
16FDB
330
747D
100
AcDbEntity
  8
部品1
100
AcDbLine
 10
10052.7380928001
 20
8131.388704178899
 30
0.0
 11
10080.7380928001
 21
8131.388704178899
 31
0.0
  0
LINE
  5
1743E
330
747D
100
AcDbEntity
  8
部品1
100
AcDbLine
 10
7505.7380928001
 20
10286.3887041788
 30
0.0
 11
7505.7380928001
 21
10258.3887041788
 31
0.0
  0
LINE
  5
1743F
330
747D
100
AcDbEntity
  8
部品1
100
AcDbLine
 10
7505.7380928001
 20
10286.3887041788
 30
0.0
 11
7505.7380928001
 21
10258.3887041788
 31
0.0
  0
LINE
  5
17440
330
747D
100
AcDbEntity
  8
部品1
100
AcDbLine
 10
7505.7380928001
 20
10286.38870417891
 30
0.0
 11
7505.7380928001
 21
10258.38870417892
 31
0.0
  0
LINE
  5
17441
330
747D
100
AcDbEntity
  8
部品1
100
AcDbLine
 10
4455.7380928001
 20
10286.38870417891
 30
0.0
 11
4455.7380928001
 21
10258.38870417892
 31
0.0
  0
LINE
  5
17442
330
747D
100
AcDbEntity
  8
部品1
100
AcDbLine
 10
4455.7380928001
 20
10286.3887041788
 30
0.0
 11
4455.7380928001
 21
10258.3887041788
 31
0.0
  0
LINE
  5
17443
330
747D
100
AcDbEntity
  8
部品1
100
AcDbLine
 10
4455.7380928001
 20
10286.3887041788
 30
0.0
 11
4455.7380928001
 21
10258.3887041788
 31
0.0
  0
LINE
  5
17799
330
747D
100
AcDbEntity
  8
部品1
100
AcDbLine
 10
958.7380928000802
 20
7711.388704178772
 30
0.0
 11
930.7380928000803
 21
7711.388704178772
 31
0.0
  0
LINE
  5
1779A
330
747D
100
AcDbEntity
  8
部品1
100
AcDbLine
 10
10052.7380928001
 20
7711.388704178898
 30
0.0
 11
10080.7380928001
 21
7711.388704178898
 31
0.0
  0
LINE
  5
17B1C
330
747D
100
AcDbEntity
  8
部品1
100
AcDbLine
 10
958.7380928000802
 20
7291.388704178771
 30
0.0
 11
930.7380928000803
 21
7291.388704178771
 31
0.0
  0
LINE
  5
17B1D
330
747D
100
AcDbEntity
  8
部品1
100
AcDbLine
 10
10052.7380928001
 20
7291.388704178898
 30
0.0
 11
10080.7380928001
 21
7291.388704178898
 31
0.0
  0
LINE
  5
17EBA
330
747D
100
AcDbEntity
  8
部品1
 48
50.0
100
AcDbLine
 10
7085.738092800093
 20
6881.388704178796
 30
0.0
 11
7085.738092799886
 21
9806.388704178802
 31
0.0
  0
LINE
  5
17EBB
330
747D
100
AcDbEntity
  8
部品1
 48
50.0
100
AcDbLine
 10
6975.738092800077
 20
6881.388704178796
 30
0.0
 11
6975.738092800091
 21
9806.388704178802
 31
0.0
  0
LINE
  5
17EC2
330
747D
100
AcDbEntity
  8
破線
 48
10.0
100
AcDbLine
 10
6950.738092800232
 20
6971.388704178794
 30
0.0
 11
6950.738092800087
 21
9806.388704178804
 31
0.0
  0
LINE
  5
17EC3
330
747D
100
AcDbEntity
  8
破線
 48
10.0
100
AcDbLine
 10
4803.238092800198
 20
6946.388704178828
 30
0.0
 11
4803.238092800185
 21
9806.388704178857
 31
0.0
  0
LINE
  5
17EC4
330
747D
100
AcDbEntity
  8
破線
 48
10.0
100
AcDbLine
 10
4753.2380928002
 20
6946.388704178833
 30
0.0
 11
4753.238092800187
 21
9806.388704178855
 31
0.0
  0
LINE
  5
17EC5
330
747D
100
AcDbEntity
  8
破線
 48
10.0
100
AcDbLine
 10
6258.238092800199
 20
6946.38870417876
 30
0.0
 11
6258.238092800186
 21
9806.388704178855
 31
0.0
  0
LINE
  5
17EC6
330
747D
100
AcDbEntity
  8
破線
 48
10.0
100
AcDbLine
 10
6208.238092800201
 20
6946.388704178763
 30
0.0
 11
6208.238092800186
 21
9806.388704178857
 31
0.0
  0
LINE
  5
17ECA
330
747D
100
AcDbEntity
  8
破線
 48
10.0
100
AcDbLine
 10
1010.738092799958
 20
6971.388704178794
 30
0.0
 11
1010.738092800104
 21
9806.388704178804
 31
0.0
  0
LINE
  5
17ED1
330
747D
100
AcDbEntity
  8
破線
 48
10.0
100
AcDbLine
 10
4060.738092799958
 20
6971.388704178794
 30
0.0
 11
4753.238092800201
 21
6971.388704178754
 31
0.0
  0
LINE
  5
17ED2
330
747D
100
AcDbEntity
  8
破線
 48
10.0
100
AcDbLine
 10
6258.238092800199
 20
6971.388704178669
 30
0.0
 11
6950.738092800232
 21
6971.388704178628
 31
0.0
  0
LINE
  5
17ED5
330
747D
100
AcDbEntity
  8
部品1
 48
50.0
100
AcDbLine
 10
7085.738092800093
 20
6946.388704178795
 30
0.0
 11
10025.73809280008
 21
6946.388704178795
 31
0.0
  0
LINE
  5
17ED6
330
747D
100
AcDbEntity
  8
部品1
 48
50.0
100
AcDbLine
 10
7085.738092800093
 20
6901.388704178796
 30
0.0
 11
10025.73809280008
 21
6901.388704178796
 31
0.0
  0
LINE
  5
17ED7
330
747D
100
AcDbEntity
  8
部品1
 48
50.0
100
AcDbLine
 10
7085.738092800089
 20
6816.388704178796
 30
0.0
 11
10025.73809280007
 21
6816.388704178783
 31
0.0
  0
LINE
  5
17ED8
330
747D
100
AcDbEntity
  8
破線
 48
10.0
100
AcDbLine
 10
10000.73809280023
 20
6971.388704178792
 30
0.0
 11
10000.73809280008
 21
9806.388704178807
 31
0.0
  0
LINE
  5
17ED9
330
747D
100
AcDbEntity
  8
破線
 48
10.0
100
AcDbLine
 10
7853.238092800198
 20
6946.388704178828
 30
0.0
 11
7853.238092800184
 21
9806.388704178857
 31
0.0
  0
LINE
  5
17EDA
330
747D
100
AcDbEntity
  8
破線
 48
10.0
100
AcDbLine
 10
7803.238092800199
 20
6946.388704178833
 30
0.0
 11
7803.238092800187
 21
9806.388704178855
 31
0.0
  0
LINE
  5
17EDB
330
747D
100
AcDbEntity
  8
破線
 48
10.0
100
AcDbLine
 10
9308.238092800198
 20
6946.388704178758
 30
0.0
 11
9308.238092800184
 21
9806.388704178853
 31
0.0
  0
LINE
  5
17EDC
330
747D
100
AcDbEntity
  8
破線
 48
10.0
100
AcDbLine
 10
9258.238092800201
 20
6946.388704178762
 30
0.0
 11
9258.238092800185
 21
9806.388704178857
 31
0.0
  0
LINE
  5
17EDD
330
747D
100
AcDbEntity
  8
破線
 48
10.0
100
AcDbLine
 10
8580.738092800199
 20
6946.388704178793
 30
0.0
 11
8580.738092800185
 21
9806.388704178907
 31
0.0
  0
LINE
  5
17EDE
330
747D
100
AcDbEntity
  8
破線
 48
10.0
100
AcDbLine
 10
8530.7380928002
 20
6946.388704178795
 30
0.0
 11
8530.738092800186
 21
9806.388704178907
 31
0.0
  0
LINE
  5
17EDF
330
747D
100
AcDbEntity
  8
部品1
 48
50.0
100
AcDbLine
 10
8555.73809280016
 20
9806.388704178907
 30
0.0
 11
8555.738092800201
 21
6946.388704178795
 31
0.0
  0
LINE
  5
17EE0
330
747D
100
AcDbEntity
  8
破線
 48
10.0
100
AcDbLine
 10
7110.738092799959
 20
6971.388704178792
 30
0.0
 11
7110.738092800104
 21
9806.388704178804
 31
0.0
  0
LINE
  5
17EE1
330
747D
100
AcDbEntity
  8
部品1
100
AcDbLine
 10
10025.7380928001
 20
7711.388704178898
 30
0.0
 11
7085.738092800082
 21
7711.3887041789
 31
0.0
  0
LINE
  5
17EE2
330
747D
100
AcDbEntity
  8
部品1
100
AcDbLine
 10
10025.7380928001
 20
7291.388704178898
 30
0.0
 11
7085.738092800082
 21
7291.388704178901
 31
0.0
  0
LINE
  5
17EE3
330
747D
100
AcDbEntity
  8
部品1
100
AcDbLine
 10
10025.7380928001
 20
8131.388704178899
 30
0.0
 11
7085.738092800082
 21
8131.388704178901
 31
0.0
  0
LINE
  5
17EE4
330
747D
100
AcDbEntity
  8
部品1
100
AcDbLine
 10
10025.7380928001
 20
8551.388704178899
 30
0.0
 11
7085.738092800082
 21
8551.388704178901
 31
0.0
  0
LINE
  5
17EE5
330
747D
100
AcDbEntity
  8
部品1
100
AcDbLine
 10
10025.7380928001
 20
8971.388704178899
 30
0.0
 11
7085.738092800082
 21
8971.388704178901
 31
0.0
  0
LINE
  5
17EE6
330
747D
100
AcDbEntity
  8
破線
 48
10.0
100
AcDbLine
 10
7853.238092800198
 20
6971.388704178751
 30
0.0
 11
8530.7380928002
 21
6971.388704178713
 31
0.0
  0
LINE
  5
17EE7
330
747D
100
AcDbEntity
  8
破線
 48
10.0
100
AcDbLine
 10
7110.738092799959
 20
6971.388704178792
 30
0.0
 11
7803.238092800203
 21
6971.388704178753
 31
0.0
  0
LINE
  5
17EE8
330
747D
100
AcDbEntity
  8
破線
 48
10.0
100
AcDbLine
 10
9308.238092800198
 20
6971.388704178668
 30
0.0
 11
10000.73809280023
 21
6971.388704178628
 31
0.0
  0
LINE
  5
17EE9
330
747D
100
AcDbEntity
  8
破線
 48
10.0
100
AcDbLine
 10
8580.738092800199
 20
6971.388704178709
 30
0.0
 11
9258.238092800201
 21
6971.388704178671
 31
0.0
  0
LINE
  5
17EEA
330
747D
100
AcDbEntity
  8
部品1
100
AcDbLine
 10
10025.7380928001
 20
9391.388704178899
 30
0.0
 11
7085.738092800077
 21
9391.388704178901
 31
0.0
  0
LINE
  5
17F3D
330
747D
100
AcDbEntity
  8
部品1
100
AcDbLine
 10
3925.738092800106
 20
9391.388704178899
 30
0.0
 11
985.7380928000802
 21
9391.388704178902
 31
0.0
  0
LINE
  5
17F3E
330
747D
100
AcDbEntity
  8
破線
 48
10.0
100
AcDbLine
 10
1010.738092799958
 20
6971.388704178794
 30
0.0
 11
1703.238092800202
 21
6971.388704178754
 31
0.0
  0
LINE
  5
17F3F
330
747D
100
AcDbEntity
  8
部品1
100
AcDbLine
 10
3925.738092800108
 20
8971.388704178899
 30
0.0
 11
985.738092800082
 21
8971.388704178902
 31
0.0
  0
LINE
  5
17F40
330
747D
100
AcDbEntity
  8
部品1
100
AcDbLine
 10
3925.738092800108
 20
8551.388704178899
 30
0.0
 11
985.738092800082
 21
8551.388704178902
 31
0.0
  0
LINE
  5
17F41
330
747D
100
AcDbEntity
  8
部品1
100
AcDbLine
 10
3925.738092800108
 20
8131.388704178899
 30
0.0
 11
985.738092800082
 21
8131.388704178901
 31
0.0
  0
LINE
  5
17F42
330
747D
100
AcDbEntity
  8
部品1
100
AcDbLine
 10
3925.738092800108
 20
7291.388704178899
 30
0.0
 11
985.738092800082
 21
7291.388704178901
 31
0.0
  0
LINE
  5
17F43
330
747D
100
AcDbEntity
  8
部品1
100
AcDbLine
 10
3925.738092800108
 20
7711.3887041789
 30
0.0
 11
985.738092800082
 21
7711.388704178901
 31
0.0
  0
LINE
  5
17F44
330
747D
100
AcDbEntity
  8
部品1
 48
50.0
100
AcDbLine
 10
985.7380928000893
 20
6816.388704178797
 30
0.0
 11
3925.738092800079
 21
6816.388704178784
 31
0.0
  0
LINE
  5
17F45
330
747D
100
AcDbEntity
  8
部品1
 48
50.0
100
AcDbLine
 10
985.738092800093
 20
6901.388704178796
 30
0.0
 11
3925.738092800079
 21
6901.388704178796
 31
0.0
  0
LINE
  5
17F46
330
747D
100
AcDbEntity
  8
部品1
 48
50.0
100
AcDbLine
 10
985.738092800093
 20
6946.388704178795
 30
0.0
 11
3925.738092800079
 21
6946.388704178795
 31
0.0
  0
DIMENSION
  5
17F47
330
747D
100
AcDbEntity
  8
寸法
 48
50.0
100
AcDbDimension
  2
*D24
 10
3980.7380928001
 20
11040.98236480206
 30
0.0
 11
2455.738092800083
 21
11140.98236480206
 31
0.0
 70
    32
 71
     5
 42
3050.000000000034
  3
INABA_S40G
100
AcDbAlignedDimension
 13
930.7380928000657
 23
10286.38870417877
 33
0.0
 14
3980.7380928001
 24
10950.64880560371
 34
0.0
100
AcDbRotatedDimension
1001
ACAD
1000
DSTYLE
1002
{
1070
   279
1070
     2
1002
}
  0
LINE
  5
17F48
330
747D
100
AcDbEntity
  8
部品1
100
AcDbLine
 10
958.7380928000857
 20
10258.38870417892
 30
0.0
 11
2443.238092800097
 21
10258.38870417891
 31
0.0
  0
DIMENSION
  5
17F49
330
747D
100
AcDbEntity
  8
寸法
100
AcDbDimension
  2
*D22
 10
3925.738092800101
 20
10791.66089124576
 30
0.0
 11
2455.7380928001
 21
10891.67270226939
 31
0.0
 70
    32
  1
7X420=<>
 71
     5
 42
2940.0
  3
INABA_S40G
100
AcDbAlignedDimension
 13
985.7380928001003
 23
10286.3887041788
 33
0.0
 14
3925.738092800101
 24
10286.38870417889
 34
0.0
100
AcDbRotatedDimension
1001
ACAD
1000
DSTYLE
1002
{
1002
}
  0
LINE
  5
17F4A
330
747D
100
AcDbEntity
  8
部品1
 48
50.0
100
AcDbLine
 10
997.7380928000929
 20
6861.888704178794
 30
0.0
 11
3913.738092800077
 21
6861.888704178794
 31
0.0
  0
DIMENSION
  5
17F4B
330
747D
100
AcDbEntity
  8
寸法
 48
50.0
100
AcDbDimension
  2
*D20
 10
1033.738092800093
 20
6281.957933412632
 30
0.0
 11
2455.738092800084
 21
6381.969744436254
 31
0.0
 70
    32
  1
有効開口部間口 <>
 71
     5
 42
2843.999999999982
  3
INABA_S40G
100
AcDbAlignedDimension
 13
3877.738092800075
 23
6842.388704178796
 33
0.0
 14
1033.738092800093
 24
6842.388704178796
 34
0.0
100
AcDbRotatedDimension
1001
ACAD
1000
DSTYLE
1002
{
1070
    75
1070
     1
1070
   279
1070
     2
1002
}
  0
LINE
  5
17F4C
330
747D
100
AcDbEntity
  8
破線
 48
10.0
100
AcDbLine
 10
4060.738092799958
 20
6971.388704178792
 30
0.0
 11
4060.738092800103
 21
9806.388704178807
 31
0.0
  0
LINE
  5
17F4D
330
747D
100
AcDbEntity
  8
部品1
 48
50.0
100
AcDbLine
 10
2455.738092800159
 20
9806.388704178907
 30
0.0
 11
2455.738092800201
 21
6946.388704178795
 31
0.0
  0
LINE
  5
17F4E
330
747D
100
AcDbEntity
  8
破線
 48
10.0
100
AcDbLine
 10
2430.738092800201
 20
6946.388704178797
 30
0.0
 11
2430.738092800186
 21
9806.388704178905
 31
0.0
  0
LINE
  5
17F4F
330
747D
100
AcDbEntity
  8
破線
 48
10.0
100
AcDbLine
 10
2480.738092800199
 20
6946.388704178794
 30
0.0
 11
2480.738092800186
 21
9806.388704178905
 31
0.0
  0
LINE
  5
17F50
330
747D
100
AcDbEntity
  8
破線
 48
10.0
100
AcDbLine
 10
3158.2380928002
 20
6946.388704178763
 30
0.0
 11
3158.238092800186
 21
9806.388704178857
 31
0.0
  0
LINE
  5
17F51
330
747D
100
AcDbEntity
  8
破線
 48
10.0
100
AcDbLine
 10
3208.238092800199
 20
6946.38870417876
 30
0.0
 11
3208.238092800188
 21
9806.388704178853
 31
0.0
  0
LINE
  5
17F52
330
747D
100
AcDbEntity
  8
破線
 48
10.0
100
AcDbLine
 10
1703.2380928002
 20
6946.388704178833
 30
0.0
 11
1703.238092800186
 21
9806.388704178853
 31
0.0
  0
LINE
  5
17F53
330
747D
100
AcDbEntity
  8
破線
 48
10.0
100
AcDbLine
 10
1753.238092800198
 20
6946.388704178828
 30
0.0
 11
1753.238092800186
 21
9806.388704178859
 31
0.0
  0
LINE
  5
17F54
330
747D
100
AcDbEntity
  8
破線
 48
10.0
100
AcDbLine
 10
3900.738092800231
 20
6971.388704178794
 30
0.0
 11
3900.738092800088
 21
9806.388704178807
 31
0.0
  0
LINE
  5
17F55
330
747D
100
AcDbEntity
  8
部品1
 48
50.0
100
AcDbLine
 10
3925.738092800076
 20
6881.388704178796
 30
0.0
 11
3925.738092800094
 21
9806.388704178804
 31
0.0
  0
LINE
  5
17F56
330
747D
100
AcDbEntity
  8
部品1
 48
50.0
100
AcDbLine
 10
4035.738092800093
 20
6881.388704178796
 30
0.0
 11
4035.738092799888
 21
9806.388704178802
 31
0.0
  0
LINE
  5
17F57
330
747D
100
AcDbEntity
  8
部品1
100
AcDbLine
 10
4008.738092800061
 20
6816.388704178795
 30
0.0
 11
4008.738092800085
 21
10286.38870417884
 31
0.0
  0
LINE
  5
17F58
330
747D
100
AcDbEntity
  8
部品1
100
AcDbLine
 10
3952.738092800084
 20
10258.38870417889
 30
0.0
 11
3952.738092800071
 21
6816.38870417879
 31
0.0
  0
LINE
  5
17F59
330
747D
100
AcDbEntity
  8
破線
 48
10.0
100
AcDbLine
 10
3208.238092800199
 20
6971.388704178669
 30
0.0
 11
3900.738092800231
 21
6971.388704178628
 31
0.0
  0
DIMENSION
  5
17F5A
330
747D
100
AcDbEntity
  8
寸法
 48
50.0
100
AcDbDimension
  2
*D19
 10
3877.738092800075
 20
6281.957933412632
 30
0.0
 11
3766.775195151327
 21
6381.957933412632
 31
0.0
 70
   160
 71
     5
 42
48.00000000000181
  3
INABA_S40G
100
AcDbAlignedDimension
 13
3925.738092800076
 23
6816.388704178883
 33
0.0
 14
3877.738092800075
 24
6842.388704178796
 34
0.0
100
AcDbRotatedDimension
1001
ACAD
1000
DSTYLE
1002
{
1070
   279
1070
     2
1002
}
  0
LINE
  5
17F5B
330
747D
100
AcDbEntity
  8
破線
 48
10.0
100
AcDbLine
 10
1753.238092800198
 20
6971.388704178751
 30
0.0
 11
2430.738092800201
 21
6971.388704178714
 31
0.0
  0
LINE
  5
17F5C
330
747D
100
AcDbEntity
  8
破線
 48
10.0
100
AcDbLine
 10
2480.738092800199
 20
6971.388704178711
 30
0.0
 11
3158.2380928002
 21
6971.388704178671
 31
0.0
  0
DIMENSION
  5
17F5D
330
747D
100
AcDbEntity
  8
寸法
 48
50.0
100
AcDbDimension
  2
*D21
 10
3925.738092800076
 20
6281.957933412633
 30
0.0
 11
3980.738092800084
 21
6130.266038376401
 31
0.0
 70
   160
 71
     5
 42
110.0000000000127
  3
INABA_S40G
100
AcDbAlignedDimension
 13
4035.738092800089
 23
6816.388704178797
 33
0.0
 14
3925.738092800076
 24
6816.388704178883
 34
0.0
100
AcDbRotatedDimension
1001
ACAD
1000
DSTYLE
1002
{
1070
   279
1070
     2
1002
}
  0
LINE
  5
17F5E
330
747D
100
AcDbEntity
  8
部品1
100
AcDbLine
 10
4035.738092800089
 20
6816.388704178797
 30
0.0
 11
3925.738092800079
 21
6816.388704178788
 31
0.0
  0
LINE
  5
17F5F
330
747D
100
AcDbEntity
  8
部品1
100
AcDbLine
 10
4035.738092800093
 20
6852.388704178794
 30
0.0
 11
4012.738092800093
 21
6852.388704178794
 31
0.0
  0
LINE
  5
17F60
330
747D
100
AcDbEntity
  8
部品1
 48
50.0
100
AcDbLine
 10
4004.738092800084
 20
6871.388704178793
 30
0.0
 11
4004.738092800088
 21
6816.388704178793
 31
0.0
  0
LINE
  5
17F61
330
747D
100
AcDbEntity
  8
部品1
 48
50.0
100
AcDbLine
 10
3956.738092800084
 20
6871.388704178793
 30
0.0
 11
3956.738092800088
 21
6816.388704178793
 31
0.0
  0
LINE
  5
17F62
330
747D
100
AcDbEntity
  8
部品1
100
AcDbLine
 10
4004.738092800084
 20
6871.388704178793
 30
0.0
 11
3956.738092800084
 21
6871.388704178791
 31
0.0
  0
LINE
  5
17F63
330
747D
100
AcDbEntity
  8
部品1
 48
50.0
100
AcDbLine
 10
3925.738092800082
 20
6881.388704178885
 30
0.0
 11
3925.738092800079
 21
6816.388704178883
 31
0.0
  0
LINE
  5
17F64
330
747D
100
AcDbEntity
  8
部品1
100
AcDbLine
 10
3925.738092800075
 20
6852.388704178792
 30
0.0
 11
3948.738092800075
 21
6852.388704178794
 31
0.0
  0
LINE
  5
17F65
330
747D
100
AcDbEntity
  8
部品1
 48
50.0
100
AcDbLine
 10
3915.738092800075
 20
6842.388704178796
 30
0.0
 11
3925.738092800075
 21
6821.388704178797
 31
0.0
  0
LINE
  5
17F66
330
747D
100
AcDbEntity
  8
部品1
 48
50.0
100
AcDbLine
 10
3877.738092800075
 20
6842.388704178796
 30
0.0
 11
3877.738092800075
 21
6851.388704178797
 31
0.0
  0
LINE
  5
17F67
330
747D
100
AcDbEntity
  8
部品1
100
AcDbLine
 10
3877.738092800075
 20
6842.388704178796
 30
0.0
 11
3925.738092800075
 21
6842.388704178796
 31
0.0
  0
LINE
  5
17F68
330
747D
100
AcDbEntity
  8
部品1
 48
50.0
100
AcDbLine
 10
3877.738092800075
 20
6881.388704178796
 30
0.0
 11
3877.738092800075
 21
6872.388704178796
 31
0.0
  0
LINE
  5
17F69
330
747D
100
AcDbEntity
  8
部品1
100
AcDbLine
 10
3877.738092800075
 20
6881.388704178796
 30
0.0
 11
3925.738092800076
 21
6881.388704178796
 31
0.0
  0
LINE
  5
17F6A
330
747D
100
AcDbEntity
  8
部品1
 48
50.0
100
AcDbLine
 10
4083.738092800093
 20
6842.388704178796
 30
0.0
 11
4083.738092800093
 21
6851.388704178797
 31
0.0
  0
LINE
  5
17F6B
330
747D
100
AcDbEntity
  8
部品1
 48
50.0
100
AcDbLine
 10
4035.738092800093
 20
6881.388704178795
 30
0.0
 11
4035.738092800089
 21
6816.388704178797
 31
0.0
  0
LINE
  5
17F6C
330
747D
100
AcDbEntity
  8
部品1
 48
50.0
100
AcDbLine
 10
4045.738092800092
 20
6842.388704178796
 30
0.0
 11
4035.738092800093
 21
6821.388704178797
 31
0.0
  0
LINE
  5
17F6D
330
747D
100
AcDbEntity
  8
部品1
100
AcDbLine
 10
4083.738092800093
 20
6842.388704178796
 30
0.0
 11
4035.738092800093
 21
6842.388704178796
 31
0.0
  0
LINE
  5
17F6E
330
747D
100
AcDbEntity
  8
部品1
 48
50.0
100
AcDbLine
 10
4083.738092800093
 20
6881.388704178796
 30
0.0
 11
4083.738092800093
 21
6872.388704178796
 31
0.0
  0
LINE
  5
17F6F
330
747D
100
AcDbEntity
  8
部品1
100
AcDbLine
 10
4083.738092800093
 20
6881.388704178796
 30
0.0
 11
4035.738092800093
 21
6881.388704178796
 31
0.0
  0
LINE
  5
17F71
330
747D
100
AcDbEntity
  8
部品1
100
AcDbLine
 10
2468.238092800099
 20
10258.38870417891
 30
0.0
 11
3952.7380928001
 21
10258.38870417889
 31
0.0
  0
LINE
  5
17F73
330
747D
100
AcDbEntity
  8
部品1
100
AcDbLine
 10
1405.7380928001
 20
10286.3887041788
 30
0.0
 11
1405.7380928001
 21
10258.3887041788
 31
0.0
  0
LINE
  5
17F74
330
747D
100
AcDbEntity
  8
部品1
100
AcDbLine
 10
1405.7380928001
 20
10286.3887041788
 30
0.0
 11
1405.7380928001
 21
10258.3887041788
 31
0.0
  0
LINE
  5
17F75
330
747D
100
AcDbEntity
  8
部品1
100
AcDbLine
 10
1405.7380928001
 20
10286.38870417891
 30
0.0
 11
1405.7380928001
 21
10258.38870417892
 31
0.0
  0
LINE
  5
17F76
330
747D
100
AcDbEntity
  8
部品1
100
AcDbLine
 10
1825.7380928001
 20
10286.3887041788
 30
0.0
 11
1825.7380928001
 21
10258.3887041788
 31
0.0
  0
LINE
  5
17F77
330
747D
100
AcDbEntity
  8
部品1
100
AcDbLine
 10
1825.7380928001
 20
10286.3887041788
 30
0.0
 11
1825.7380928001
 21
10258.3887041788
 31
0.0
  0
LINE
  5
17F78
330
747D
100
AcDbEntity
  8
部品1
100
AcDbLine
 10
1825.7380928001
 20
10286.38870417891
 30
0.0
 11
1825.7380928001
 21
10258.38870417892
 31
0.0
  0
LINE
  5
17F79
330
747D
100
AcDbEntity
  8
部品1
100
AcDbLine
 10
2245.738092800101
 20
10286.3887041788
 30
0.0
 11
2245.738092800101
 21
10258.3887041788
 31
0.0
  0
LINE
  5
17F7A
330
747D
100
AcDbEntity
  8
部品1
100
AcDbLine
 10
2245.738092800101
 20
10286.3887041788
 30
0.0
 11
2245.738092800101
 21
10258.3887041788
 31
0.0
  0
LINE
  5
17F7B
330
747D
100
AcDbEntity
  8
部品1
100
AcDbLine
 10
2245.738092800101
 20
10286.38870417891
 30
0.0
 11
2245.738092800101
 21
10258.38870417892
 31
0.0
  0
LINE
  5
17F7D
330
747D
100
AcDbEntity
  8
部品1
100
AcDbLine
 10
2665.738092800101
 20
10286.38870417891
 30
0.0
 11
2665.738092800101
 21
10258.38870417892
 31
0.0
  0
LINE
  5
17F7E
330
747D
100
AcDbEntity
  8
部品1
100
AcDbLine
 10
3085.738092800101
 20
10286.38870417891
 30
0.0
 11
3085.738092800101
 21
10258.38870417892
 31
0.0
  0
LINE
  5
17F7F
330
747D
100
AcDbEntity
  8
部品1
100
AcDbLine
 10
3505.738092800099
 20
10286.38870417891
 30
0.0
 11
3505.738092800099
 21
10258.38870417892
 31
0.0
  0
LINE
  5
17F82
330
747D
100
AcDbEntity
  8
部品1
100
AcDbLine
 10
4008.738092800068
 20
10231.38870417881
 30
0.0
 11
3952.738092800068
 21
10231.38870417881
 31
0.0
  0
DIMENSION
  5
17F83
330
747D
100
AcDbEntity
  8
寸法
 48
50.0
100
AcDbDimension
  2
*D23
 10
3925.738092800101
 20
10791.66089124576
 30
0.0
 11
3980.7380928001
 21
10891.66089124576
 31
0.0
 70
    32
 71
     5
 42
110.0
  3
INABA_S40G
100
AcDbAlignedDimension
 13
4035.738092800101
 23
10286.38870417885
 33
0.0
 14
3925.738092800101
 24
10286.38870417884
 34
0.0
100
AcDbRotatedDimension
1001
ACAD
1000
DSTYLE
1002
{
1070
   279
1070
     2
1002
}
  0
LINE
  5
17F84
330
747D
100
AcDbEntity
  8
部品1
 48
50.0
100
AcDbLine
 10
3952.738092800068
 20
10258.38870417884
 30
0.0
 11
3980.738092800066
 21
10258.38870417884
 31
0.0
  0
LINE
  5
17F85
330
747D
100
AcDbEntity
  8
部品1
 48
50.0
100
AcDbLine
 10
3952.738092800068
 20
10258.38870417895
 30
0.0
 11
3952.738092800068
 21
10286.38870417889
 31
0.0
  0
LINE
  5
17F86
330
747D
100
AcDbEntity
  8
部品1
 48
50.0
100
AcDbLine
 10
3980.738092800066
 20
10258.38870417884
 30
0.0
 11
3952.738092800068
 21
10286.38870417889
 31
0.0
  0
LINE
  5
17F87
330
747D
100
AcDbEntity
  8
部品1
100
AcDbLine
 10
3925.738092800101
 20
10286.38870417889
 30
0.0
 11
3925.738092800101
 21
10258.38870417889
 31
0.0
  0
LINE
  5
17F88
330
747D
100
AcDbEntity
  8
部品1
100
AcDbLine
 10
4035.738092800101
 20
10286.3887041788
 30
0.0
 11
4035.738092800101
 21
10258.3887041788
 31
0.0
  0
LINE
  5
1806A
330
747D
100
AcDbEntity
  8
補助
  6
PHANTOM
 62
   230
 48
50.0
100
AcDbLine
 10
140.0
 20
11409.6
 30
0.0
 11
140.0
 21
0.0
 31
0.0
  0
LINE
  5
180CD
330
747D
100
AcDbEntity
  8
寸法
 48
50.0
100
AcDbLine
 10
4035.738092800091
 20
6281.957933412632
 30
0.0
 11
5025.738092800091
 21
6281.957933412632
 31
0.0
  0
TEXT
  5
180CE
330
747D
100
AcDbEntity
  8
文字
 48
50.0
100
AcDbText
 10
4657.919266017042
 20
6321.610761459309
 30
0.0
 40
120.0
  1
2844
  7
STYLE1
100
AcDbText
  0
LINE
  5
180CF
330
747D
100
AcDbEntity
  8
寸法
 48
50.0
100
AcDbLine
 10
5937.738092800077
 20
6281.957933412632
 30
0.0
 11
6927.738092800076
 21
6281.957933412632
 31
0.0
  0
TEXT
  5
180D0
330
747D
100
AcDbEntity
  8
文字
 48
50.0
100
AcDbText
 10
5968.087654143566
 20
6321.610761459309
 30
0.0
 40
120.0
  1
2844
  7
STYLE1
100
AcDbText
  0
TEXT
  5
180D1
330
747D
100
AcDbEntity
  8
文字
 48
50.0
100
AcDbText
 10
4509.392758608119
 20
11080.63519284874
 30
0.0
 40
120.0
  1
3050
  7
STYLE1
100
AcDbText
  0
LINE
  5
180D2
330
747D
100
AcDbEntity
  8
寸法
 48
50.0
100
AcDbLine
 10
3980.7380928001
 20
11040.98236480206
 30
0.0
 11
4877.211585391167
 21
11040.98236480206
 31
0.0
  0
TEXT
  5
180D3
330
747D
100
AcDbEntity
  8
文字
 48
50.0
100
AcDbText
 10
4510.142758608119
 20
10831.31371929244
 30
0.0
 40
120.0
  1
2940
  7
STYLE1
100
AcDbText
  0
LINE
  5
180D4
330
747D
100
AcDbEntity
  8
寸法
 48
50.0
100
AcDbLine
 10
4037.961585391167
 20
10791.66089124576
 30
0.0
 11
4877.961585391167
 21
10791.66089124576
 31
0.0
  0
LINE
  5
180D5
330
747D
100
AcDbEntity
  8
寸法
 48
50.0
100
AcDbLine
 10
6144.961585391167
 20
11040.98236480206
 30
0.0
 11
7030.738092800099
 21
11040.98236480206
 31
0.0
  0
LINE
  5
180D6
330
747D
100
AcDbEntity
  8
寸法
 48
50.0
100
AcDbLine
 10
6137.961585391167
 20
10791.66089124576
 30
0.0
 11
6977.961585391168
 21
10791.66089124576
 31
0.0
  0
TEXT
  5
180D7
330
747D
100
AcDbEntity
  8
文字
 48
50.0
100
AcDbText
 10
6168.311146734657
 20
10831.31371929244
 30
0.0
 40
120.0
  1
2940
  7
STYLE1
100
AcDbText
  0
TEXT
  5
180D8
330
747D
100
AcDbEntity
  8
文字
 48
50.0
100
AcDbText
 10
6175.311146734657
 20
11080.63519284874
 30
0.0
 40
120.0
  1
3050
  7
STYLE1
100
AcDbText
  0
LINE
  5
18121
330
747D
100
AcDbEntity
  8
部品1
100
AcDbLine
 10
930.7380928000638
 20
10286.38870417879
 30
0.0
 11
10080.7380928001
 21
10286.38870417889
 31
0.0
  0
LINE
  5
18122
330
747D
100
AcDbEntity
  8
部品1
100
AcDbLine
 10
5518.238092800099
 20
10258.38870417891
 30
0.0
 11
7002.7380928001
 21
10258.38870417889
 31
0.0
  0
LINE
  5
181D4
330
747D
100
AcDbEntity
  8
細線
 48
50.0
100
AcDbLine
 10
2469.238092800101
 20
9806.388704178907
 30
0.0
 11
3952.238092800101
 21
10256.3887041788
 31
0.0
  0
LINE
  5
181D5
330
747D
100
AcDbEntity
  8
細線
 48
50.0
100
AcDbLine
 10
2469.238092800099
 20
10256.3887041789
 30
0.0
 11
3952.238092800101
 21
9806.3887041788
 31
0.0
  0
LINE
  5
181D6
330
747D
100
AcDbEntity
  8
細線
 48
50.0
100
AcDbLine
 10
2442.238092800099
 20
10256.3887041789
 30
0.0
 11
959.2380928000984
 21
9806.3887041788
 31
0.0
  0
LINE
  5
181D7
330
747D
100
AcDbEntity
  8
細線
 48
50.0
100
AcDbLine
 10
2442.238092800099
 20
9806.388704178907
 30
0.0
 11
959.2380928000984
 21
10256.3887041788
 31
0.0
  0
LINE
  5
181D8
330
747D
100
AcDbEntity
  8
部品1
 48
50.0
100
AcDbLine
 10
2468.238092800099
 20
10258.3887041789
 30
0.0
 11
2468.238092800099
 21
9806.388704178907
 31
0.0
  0
LINE
  5
181D9
330
747D
100
AcDbEntity
  8
部品1
 48
50.0
100
AcDbLine
 10
2443.238092800099
 20
10258.38870417891
 30
0.0
 11
2443.238092800099
 21
9806.388704178907
 31
0.0
  0
LINE
  5
181DA
330
747D
100
AcDbEntity
  8
部品1
 48
50.0
100
AcDbLine
 10
2469.238092800099
 20
10256.3887041789
 30
0.0
 11
2469.238092800099
 21
9806.388704178907
 31
0.0
  0
LINE
  5
181DB
330
747D
100
AcDbEntity
  8
部品1
 48
50.0
100
AcDbLine
 10
2442.238092800099
 20
10256.3887041789
 30
0.0
 11
2442.238092800099
 21
9806.388704178907
 31
0.0
  0
LINE
  5
181DC
330
747D
100
AcDbEntity
  8
部品1
100
AcDbLine
 10
959.2380928000984
 20
10256.3887041788
 30
0.0
 11
2442.238092800099
 21
10256.3887041789
 31
0.0
  0
LINE
  5
181DD
330
747D
100
AcDbEntity
  8
部品1
 48
50.0
100
AcDbLine
 10
959.2380928000984
 20
10256.38870417879
 30
0.0
 11
959.2380928000984
 21
9806.388704178797
 31
0.0
  0
LINE
  5
181DE
330
747D
100
AcDbEntity
  8
部品1
100
AcDbLine
 10
959.2380928001002
 20
9806.3887041788
 30
0.0
 11
2442.238092800099
 21
9806.388704178907
 31
0.0
  0
LINE
  5
181DF
330
747D
100
AcDbEntity
  8
部品1
100
AcDbLine
 10
3952.238092800099
 20
9806.3887041788
 30
0.0
 11
2469.238092800101
 21
9806.388704178907
 31
0.0
  0
LINE
  5
181E0
330
747D
100
AcDbEntity
  8
部品1
100
AcDbLine
 10
2443.238092800099
 20
9806.388704178907
 30
0.0
 11
2468.238092800099
 21
9806.388704178907
 31
0.0
  0
LINE
  5
181E1
330
747D
100
AcDbEntity
  8
部品1
100
AcDbLine
 10
2420.738092800099
 20
10276.3887041789
 30
0.0
 11
2420.738092800099
 21
10258.3887041789
 31
0.0
  0
LINE
  5
181E2
330
747D
100
AcDbEntity
  8
部品1
100
AcDbLine
 10
2420.738092800099
 20
10276.3887041789
 30
0.0
 11
2426.738092800099
 21
10276.3887041789
 31
0.0
  0
LINE
  5
181E3
330
747D
100
AcDbEntity
  8
部品1
100
AcDbLine
 10
2443.238092800099
 20
10250.3887041789
 30
0.0
 11
2468.238092800099
 21
10250.3887041789
 31
0.0
  0
LINE
  5
181E4
330
747D
100
AcDbEntity
  8
部品1
100
AcDbLine
 10
2490.738092800099
 20
10276.3887041789
 30
0.0
 11
2490.738092800099
 21
10258.3887041789
 31
0.0
  0
LINE
  5
181E5
330
747D
100
AcDbEntity
  8
部品1
100
AcDbLine
 10
2484.738092800098
 20
10276.3887041789
 30
0.0
 11
2490.738092800099
 21
10276.3887041789
 31
0.0
  0
LINE
  5
181E6
330
747D
100
AcDbEntity
  8
部品1
100
AcDbLine
 10
3952.238092800101
 20
10256.3887041788
 30
0.0
 11
2469.238092800099
 21
10256.3887041789
 31
0.0
  0
LINE
  5
181E7
330
747D
100
AcDbEntity
  8
部品1
 48
50.0
100
AcDbLine
 10
4006.238092800109
 20
9814.38870417897
 30
0.0
 11
3955.238092800109
 21
9814.388704178966
 31
0.0
  0
LINE
  5
181E8
330
747D
100
AcDbEntity
  8
部品1
 48
50.0
100
AcDbLine
 10
3961.23809280011
 20
9852.388704178963
 30
0.0
 11
3955.238092800109
 21
9852.388704178967
 31
0.0
  0
LINE
  5
181E9
330
747D
100
AcDbEntity
  8
部品1
100
AcDbLine
 10
3955.238092800109
 20
9814.388704178966
 30
0.0
 11
3955.238092800109
 21
9852.388704178967
 31
0.0
  0
LINE
  5
181EA
330
747D
100
AcDbEntity
  8
部品1
100
AcDbLine
 10
4006.238092800109
 20
9814.38870417897
 30
0.0
 11
4006.238092800109
 21
9852.38870417897
 31
0.0
  0
LINE
  5
181EB
330
747D
100
AcDbEntity
  8
部品1
 48
50.0
100
AcDbLine
 10
4006.238092800109
 20
9852.38870417897
 30
0.0
 11
4000.238092800109
 21
9852.388704178967
 31
0.0
  0
LINE
  5
181EC
330
747D
100
AcDbEntity
  8
細線
 48
50.0
100
AcDbLine
 10
5492.238092800098
 20
10256.3887041789
 30
0.0
 11
4009.238092800099
 21
9806.3887041788
 31
0.0
  0
LINE
  5
181ED
330
747D
100
AcDbEntity
  8
部品1
100
AcDbLine
 10
4009.2380928001
 20
9806.3887041788
 30
0.0
 11
5492.238092800098
 21
9806.388704178907
 31
0.0
  0
LINE
  5
181EE
330
747D
100
AcDbEntity
  8
部品1
100
AcDbLine
 10
4009.238092800099
 20
10256.3887041788
 30
0.0
 11
5492.238092800098
 21
10256.3887041789
 31
0.0
  0
LINE
  5
181EF
330
747D
100
AcDbEntity
  8
細線
 48
50.0
100
AcDbLine
 10
5492.238092800098
 20
9806.388704178907
 30
0.0
 11
4009.238092800099
 21
10256.3887041788
 31
0.0
  0
LINE
  5
181F0
330
747D
100
AcDbEntity
  8
部品1
 48
50.0
100
AcDbLine
 10
4009.238092800099
 20
10256.38870417879
 30
0.0
 11
4009.238092800099
 21
9806.388704178797
 31
0.0
  0
LINE
  5
181F1
330
747D
100
AcDbEntity
  8
部品1
 48
50.0
100
AcDbLine
 10
3952.238092800101
 20
10256.38870417879
 30
0.0
 11
3952.238092800101
 21
9806.388704178797
 31
0.0
  0
LINE
  5
181F2
330
747D
100
AcDbEntity
  8
部品1
100
AcDbLine
 10
5493.238092800099
 20
10250.3887041789
 30
0.0
 11
5518.238092800099
 21
10250.3887041789
 31
0.0
  0
LINE
  5
181F3
330
747D
100
AcDbEntity
  8
部品1
100
AcDbLine
 10
5534.738092800099
 20
10276.3887041789
 30
0.0
 11
5540.738092800098
 21
10276.3887041789
 31
0.0
  0
LINE
  5
181F4
330
747D
100
AcDbEntity
  8
部品1
100
AcDbLine
 10
5540.738092800098
 20
10276.3887041789
 30
0.0
 11
5540.738092800098
 21
10258.3887041789
 31
0.0
  0
LINE
  5
181F5
330
747D
100
AcDbEntity
  8
部品1
100
AcDbLine
 10
5470.738092800099
 20
10276.3887041789
 30
0.0
 11
5476.738092800099
 21
10276.3887041789
 31
0.0
  0
LINE
  5
181F6
330
747D
100
AcDbEntity
  8
部品1
100
AcDbLine
 10
5470.738092800099
 20
10276.3887041789
 30
0.0
 11
5470.738092800099
 21
10258.3887041789
 31
0.0
  0
LINE
  5
181F7
330
747D
100
AcDbEntity
  8
部品1
 48
50.0
100
AcDbLine
 10
5519.238092800098
 20
10256.3887041789
 30
0.0
 11
5519.238092800098
 21
9806.388704178907
 31
0.0
  0
LINE
  5
181FA
330
747D
100
AcDbEntity
  8
部品1
 48
50.0
100
AcDbLine
 10
5492.238092800098
 20
10256.3887041789
 30
0.0
 11
5492.238092800098
 21
9806.388704178907
 31
0.0
  0
LINE
  5
181FD
330
747D
100
AcDbEntity
  8
部品1
100
AcDbLine
 10
5493.238092800099
 20
9806.388704178907
 30
0.0
 11
5518.238092800099
 21
9806.388704178907
 31
0.0
  0
LINE
  5
181FE
330
747D
100
AcDbEntity
  8
部品1
 48
50.0
100
AcDbLine
 10
5493.238092800099
 20
10258.38870417891
 30
0.0
 11
5493.238092800099
 21
9806.388704178907
 31
0.0
  0
LINE
  5
181FF
330
747D
100
AcDbEntity
  8
部品1
 48
50.0
100
AcDbLine
 10
5518.238092800099
 20
10258.3887041789
 30
0.0
 11
5518.238092800099
 21
9806.388704178907
 31
0.0
  0
LINE
  5
18200
330
747D
100
AcDbEntity
  8
細線
 48
50.0
100
AcDbLine
 10
5519.238092800099
 20
9806.388704178907
 30
0.0
 11
7002.2380928001
 21
10256.3887041788
 31
0.0
  0
LINE
  5
18201
330
747D
100
AcDbEntity
  8
細線
 48
50.0
100
AcDbLine
 10
5519.238092800098
 20
10256.3887041789
 30
0.0
 11
7002.2380928001
 21
9806.3887041788
 31
0.0
  0
LINE
  5
18202
330
747D
100
AcDbEntity
  8
部品1
100
AcDbLine
 10
7002.2380928001
 20
9806.3887041788
 30
0.0
 11
5519.238092800099
 21
9806.388704178907
 31
0.0
  0
LINE
  5
18203
330
747D
100
AcDbEntity
  8
細線
 48
50.0
100
AcDbLine
 10
8542.238092800099
 20
10256.3887041789
 30
0.0
 11
7059.238092800097
 21
9806.3887041788
 31
0.0
  0
LINE
  5
18204
330
747D
100
AcDbEntity
  8
部品1
100
AcDbLine
 10
7059.238092800099
 20
9806.3887041788
 30
0.0
 11
8542.238092800099
 21
9806.388704178907
 31
0.0
  0
LINE
  5
18205
330
747D
100
AcDbEntity
  8
部品1
 48
50.0
100
AcDbLine
 10
7059.238092800097
 20
10256.38870417879
 30
0.0
 11
7059.238092800097
 21
9806.388704178797
 31
0.0
  0
LINE
  5
18206
330
747D
100
AcDbEntity
  8
部品1
 48
50.0
100
AcDbLine
 10
7002.2380928001
 20
10256.38870417879
 30
0.0
 11
7002.2380928001
 21
9806.388704178797
 31
0.0
  0
LINE
  5
18207
330
747D
100
AcDbEntity
  8
部品1
 48
50.0
100
AcDbLine
 10
7056.238092800109
 20
9852.388704178956
 30
0.0
 11
7050.238092800109
 21
9852.388704178952
 31
0.0
  0
LINE
  5
18208
330
747D
100
AcDbEntity
  8
部品1
100
AcDbLine
 10
7056.238092800109
 20
9814.388704178956
 30
0.0
 11
7056.238092800109
 21
9852.388704178956
 31
0.0
  0
LINE
  5
18209
330
747D
100
AcDbEntity
  8
部品1
100
AcDbLine
 10
7005.238092800109
 20
9814.388704178952
 30
0.0
 11
7005.238092800109
 21
9852.388704178952
 31
0.0
  0
LINE
  5
1820A
330
747D
100
AcDbEntity
  8
部品1
 48
50.0
100
AcDbLine
 10
7011.238092800109
 20
9852.388704178949
 30
0.0
 11
7005.238092800109
 21
9852.388704178952
 31
0.0
  0
LINE
  5
1820B
330
747D
100
AcDbEntity
  8
部品1
 48
50.0
100
AcDbLine
 10
7056.238092800109
 20
9814.388704178956
 30
0.0
 11
7005.238092800109
 21
9814.388704178952
 31
0.0
  0
LINE
  5
1820C
330
747D
100
AcDbEntity
  8
部品1
100
AcDbLine
 10
7002.2380928001
 20
10256.3887041788
 30
0.0
 11
5519.238092800098
 21
10256.3887041789
 31
0.0
  0
LINE
  5
1820D
330
747D
100
AcDbEntity
  8
部品1
100
AcDbLine
 10
7059.238092800097
 20
10256.3887041788
 30
0.0
 11
8542.238092800099
 21
10256.3887041789
 31
0.0
  0
LINE
  5
1820E
330
747D
100
AcDbEntity
  8
部品1
100
AcDbLine
 10
10052.2380928001
 20
9806.3887041788
 30
0.0
 11
8569.238092800098
 21
9806.388704178907
 31
0.0
  0
LINE
  5
1820F
330
747D
100
AcDbEntity
  8
細線
 48
50.0
100
AcDbLine
 10
8569.238092800098
 20
10256.3887041789
 30
0.0
 11
10052.2380928001
 21
9806.3887041788
 31
0.0
  0
LINE
  5
18210
330
747D
100
AcDbEntity
  8
細線
 48
50.0
100
AcDbLine
 10
8569.238092800098
 20
9806.388704178907
 30
0.0
 11
10052.2380928001
 21
10256.3887041788
 31
0.0
  0
LINE
  5
18211
330
747D
100
AcDbEntity
  8
部品1
 48
50.0
100
AcDbLine
 10
8542.238092800099
 20
10256.3887041789
 30
0.0
 11
8542.238092800099
 21
9806.388704178907
 31
0.0
  0
LINE
  5
18212
330
747D
100
AcDbEntity
  8
部品1
 48
50.0
100
AcDbLine
 10
8543.238092800098
 20
10258.38870417891
 30
0.0
 11
8543.238092800098
 21
9806.388704178907
 31
0.0
  0
LINE
  5
18213
330
747D
100
AcDbEntity
  8
部品1
 48
50.0
100
AcDbLine
 10
8569.238092800098
 20
10256.3887041789
 30
0.0
 11
8569.238092800098
 21
9806.388704178907
 31
0.0
  0
LINE
  5
18214
330
747D
100
AcDbEntity
  8
部品1
 48
50.0
100
AcDbLine
 10
8568.238092800099
 20
10258.3887041789
 30
0.0
 11
8568.238092800099
 21
9806.388704178907
 31
0.0
  0
LINE
  5
18215
330
747D
100
AcDbEntity
  8
部品1
100
AcDbLine
 10
8543.238092800098
 20
9806.388704178907
 30
0.0
 11
8568.238092800099
 21
9806.388704178907
 31
0.0
  0
LINE
  5
18216
330
747D
100
AcDbEntity
  8
部品1
100
AcDbLine
 10
8543.238092800098
 20
10250.3887041789
 30
0.0
 11
8568.238092800099
 21
10250.3887041789
 31
0.0
  0
LINE
  5
18217
330
747D
100
AcDbEntity
  8
部品1
100
AcDbLine
 10
8520.738092800099
 20
10276.3887041789
 30
0.0
 11
8526.738092800099
 21
10276.3887041789
 31
0.0
  0
LINE
  5
18218
330
747D
100
AcDbEntity
  8
部品1
100
AcDbLine
 10
8520.738092800099
 20
10276.3887041789
 30
0.0
 11
8520.738092800099
 21
10258.3887041789
 31
0.0
  0
LINE
  5
18219
330
747D
100
AcDbEntity
  8
部品1
100
AcDbLine
 10
8584.738092800099
 20
10276.3887041789
 30
0.0
 11
8590.7380928001
 21
10276.3887041789
 31
0.0
  0
LINE
  5
1821A
330
747D
100
AcDbEntity
  8
部品1
100
AcDbLine
 10
8590.7380928001
 20
10276.3887041789
 30
0.0
 11
8590.7380928001
 21
10258.3887041789
 31
0.0
  0
LINE
  5
1821B
330
747D
100
AcDbEntity
  8
部品1
 48
50.0
100
AcDbLine
 10
10052.2380928001
 20
10256.38870417879
 30
0.0
 11
10052.2380928001
 21
9806.388704178797
 31
0.0
  0
LINE
  5
1821C
330
747D
100
AcDbEntity
  8
部品1
100
AcDbLine
 10
10052.2380928001
 20
10256.3887041788
 30
0.0
 11
8569.238092800098
 21
10256.3887041789
 31
0.0
  0
DIMENSION
  5
1821F
330
747D
100
AcDbEntity
  8
寸法
 48
50.0
100
AcDbDimension
  2
*D25
 10
10466.10277914285
 20
9917.283412660102
 30
0.0
 11
10352.00317617993
 21
10086.08989484643
 31
0.0
 70
   160
 71
     5
 42
450.0
  3
INABA_S40G
100
AcDbAlignedDimension
 13
10052.2380928001
 23
10256.3887041788
 33
0.0
 14
10052.2380928001
 24
9806.3887041788
 34
0.0
 50
90.0
100
AcDbRotatedDimension
1001
ACAD
1000
DSTYLE
1002
{
1070
   279
1070
     2
1002
}
  0
LINE
  5
18267
330
747D
100
AcDbEntity
  8
細線
 48
50.0
100
AcDbLine
 10
7059.238092800097
 20
10256.3887041788
 30
0.0
 11
8542.238092800095
 21
9806.388704178699
 31
0.0
  0
LINE
  5
1878E
330
747D
100
AcDbEntity
  8
仕様書枠
 48
50.0
100
AcDbLine
 10
16307.19999999998
 20
8519.600000000002
 30
0.0
 11
13127.19999999999
 21
8519.600000000002
 31
0.0
  0
TEXT
  5
1878F
330
747D
100
AcDbEntity
  8
文字
 62
     7
 48
50.0
100
AcDbText
 10
13248.77747366447
 20
8380.013745883728
 30
0.0
 40
100.0
  1
16
  7
STYLE1
100
AcDbText
  0
TEXT
  5
18790
330
747D
100
AcDbEntity
  8
文字
 62
     7
 48
50.0
100
AcDbText
 10
15022.63965474515
 20
8380.013745883728
 30
0.0
 40
100.0
  1
F12            0.6
  7
STYLE1
100
AcDbText
  0
TEXT
  5
18791
330
747D
100
AcDbEntity
  8
文字
 62
     7
 48
50.0
100
AcDbText
 10
13583.11819016568
 20
8380.013745883733
 30
0.0
 40
100.0
  1
棚板
 41
0.9
  7
STYLE1
100
AcDbText
  0
TEXT
  5
18792
330
747D
100
AcDbEntity
  8
文字
 62
     7
 48
50.0
100
AcDbText
 10
13583.11819016569
 20
8550.013745883733
 30
0.0
 40
100.0
  1
床パネル
 41
0.9
  7
STYLE1
100
AcDbText
  0
TEXT
  5
18793
330
747D
100
AcDbEntity
  8
文字
 62
     7
 48
50.0
100
AcDbText
 10
15022.63965474516
 20
8550.013745883727
 30
0.0
 40
100.0
  1
F12            1.0
  7
STYLE1
100
AcDbText
  0
TEXT
  5
18794
330
747D
100
AcDbEntity
  8
文字
 62
     7
 48
50.0
100
AcDbText
 10
13248.77747366448
 20
8550.013745883729
 30
0.0
 40
100.0
  1
15
  7
STYLE1
100
AcDbText
  0
LINE
  5
18795
330
747D
100
AcDbEntity
  8
仕様書枠
 48
50.0
100
AcDbLine
 10
16307.19999999999
 20
9879.599999999999
 30
0.0
 11
13127.19999999999
 21
9879.600000000001
 31
0.0
  0
LINE
  5
18796
330
747D
100
AcDbEntity
  8
仕様書枠
 48
50.0
100
AcDbLine
 10
16307.19999999999
 20
11239.6
 30
0.0
 11
13127.2
 21
11239.6
 31
0.0
  0
LINE
  5
18797
330
747D
100
AcDbEntity
  8
仕様書枠
 48
50.0
100
AcDbLine
 10
16307.19999999999
 20
7839.600000000018
 30
0.0
 11
16307.2
 21
11239.6
 31
0.0
  0
LINE
  5
18798
330
747D
100
AcDbEntity
  8
仕様書枠
 48
50.0
100
AcDbLine
 10
14785.2
 20
11239.59999999999
 30
0.0
 11
14785.19999999999
 21
8349.600000000014
 31
0.0
  0
LINE
  5
18799
330
747D
100
AcDbEntity
  8
仕様書枠
 48
50.0
100
AcDbLine
 10
13490.2
 20
11239.6
 30
0.0
 11
13490.2
 21
8349.600000000014
 31
0.0
  0
LINE
  5
1879A
330
747D
100
AcDbEntity
  8
仕様書枠
 48
50.0
100
AcDbLine
 10
16307.19999999999
 20
11069.6
 30
0.0
 11
13127.2
 21
11069.6
 31
0.0
  0
LINE
  5
1879B
330
747D
100
AcDbEntity
  8
仕様書枠
 48
50.0
100
AcDbLine
 10
16307.19999999999
 20
10729.6
 30
0.0
 11
13127.2
 21
10729.6
 31
0.0
  0
LINE
  5
1879C
330
747D
100
AcDbEntity
  8
仕様書枠
 48
50.0
100
AcDbLine
 10
16307.19999999999
 20
10899.6
 30
0.0
 11
13127.2
 21
10899.6
 31
0.0
  0
LINE
  5
1879D
330
747D
100
AcDbEntity
  8
仕様書枠
 48
50.0
100
AcDbLine
 10
16307.19999999999
 20
10389.6
 30
0.0
 11
13127.19999999999
 21
10389.6
 31
0.0
  0
LINE
  5
1879E
330
747D
100
AcDbEntity
  8
仕様書枠
 48
50.0
100
AcDbLine
 10
16307.19999999999
 20
10219.6
 30
0.0
 11
13127.19999999999
 21
10219.6
 31
0.0
  0
LINE
  5
1879F
330
747D
100
AcDbEntity
  8
仕様書枠
 48
50.0
100
AcDbLine
 10
16307.19999999999
 20
10559.6
 30
0.0
 11
13127.19999999999
 21
10559.6
 31
0.0
  0
TEXT
  5
187A0
330
747D
100
AcDbEntity
  8
文字
 62
     7
 48
50.0
100
AcDbText
 10
13197.42518560407
 20
11100.01374588373
 30
0.0
 40
100.0
  1
品番
  7
STYLE1
100
AcDbText
  0
TEXT
  5
187A1
330
747D
100
AcDbEntity
  8
文字
 62
     7
 48
50.0
100
AcDbText
 10
13271.19032244792
 20
10930.01374588373
 30
0.0
 40
100.0
  1
1
  7
STYLE1
100
AcDbText
  0
TEXT
  5
187A2
330
747D
100
AcDbEntity
  8
文字
 62
     7
 48
50.0
100
AcDbText
 10
13271.19032244792
 20
10760.01374588373
 30
0.0
 40
100.0
  1
2
  7
STYLE1
100
AcDbText
  0
TEXT
  5
187A3
330
747D
100
AcDbEntity
  8
文字
 62
     7
 48
50.0
100
AcDbText
 10
13271.19032244792
 20
10420.01374588373
 30
0.0
 40
100.0
  1
4
  7
STYLE1
100
AcDbText
  0
TEXT
  5
187A4
330
747D
100
AcDbEntity
  8
文字
 62
     7
 48
50.0
100
AcDbText
 10
13271.19032244792
 20
10590.01374588373
 30
0.0
 40
100.0
  1
3
  7
STYLE1
100
AcDbText
  0
TEXT
  5
187A5
330
747D
100
AcDbEntity
  8
文字
 62
     7
 48
50.0
100
AcDbText
 10
13732.03840939434
 20
11100.01374588373
 30
0.0
 40
100.0
  1
部　　品　　名
  7
STYLE1
100
AcDbText
  0
TEXT
  5
187A6
330
747D
100
AcDbEntity
  8
文字
 62
     7
 48
50.0
100
AcDbText
 10
14859.79774614482
 20
11100.01374588373
 30
0.0
 40
100.0
  1
材料（材質）　　単位mm
  7
STYLE1
100
AcDbText
  0
TEXT
  5
187A7
330
747D
100
AcDbEntity
  8
文字
 62
     7
 48
50.0
100
AcDbText
 10
13583.11819016569
 20
10930.01374588372
 30
0.0
 40
100.0
  1
土台枠
  7
STYLE1
100
AcDbText
  0
TEXT
  5
187A8
330
747D
100
AcDbEntity
  8
文字
 62
     7
 48
50.0
100
AcDbText
 10
13583.11819016569
 20
10760.01374588372
 30
0.0
 40
100.0
  1
柱
  7
STYLE1
100
AcDbText
  0
TEXT
  5
187A9
330
747D
100
AcDbEntity
  8
文字
 62
     7
 48
50.0
100
AcDbText
 10
13583.11819016569
 20
10590.01374588373
 30
0.0
 40
100.0
  1
桁前
  7
STYLE1
100
AcDbText
  0
TEXT
  5
187AA
330
747D
100
AcDbEntity
  8
文字
 62
     7
 48
50.0
100
AcDbText
 10
13583.11819016569
 20
10420.01374588373
 30
0.0
 40
100.0
  1
桁後
  7
STYLE1
100
AcDbText
  0
TEXT
  5
187AB
330
747D
100
AcDbEntity
  8
文字
 62
     7
 48
50.0
100
AcDbText
 10
13271.19032244792
 20
10250.01374588373
 30
0.0
 40
100.0
  1
5
  7
STYLE1
100
AcDbText
  0
TEXT
  5
187AC
330
747D
100
AcDbEntity
  8
文字
 62
     7
 48
50.0
100
AcDbText
 10
13583.11819016569
 20
10250.01374588373
 30
0.0
 40
100.0
  1
妻板左右
  7
STYLE1
100
AcDbText
  0
TEXT
  5
187AD
330
747D
100
AcDbEntity
  8
文字
 62
     7
 48
50.0
100
AcDbText
 10
13583.11819016569
 20
8890.013745883729
 30
0.0
 40
100.0
  1
シャッターレール
  7
STYLE1
100
AcDbText
  0
TEXT
  5
187AE
330
747D
100
AcDbEntity
  8
文字
 62
     7
 48
50.0
100
AcDbText
 10
13248.77747366448
 20
9400.013745883727
 30
0.0
 40
100.0
  1
10
  7
STYLE1
100
AcDbText
  0
TEXT
  5
187AF
330
747D
100
AcDbEntity
  8
文字
 62
     7
 48
50.0
100
AcDbText
 10
13583.11819016569
 20
9400.013745883731
 30
0.0
 40
100.0
  1
壁パネル
  7
STYLE1
100
AcDbText
  0
TEXT
  5
187B0
330
747D
100
AcDbEntity
  8
文字
 62
     7
 48
50.0
100
AcDbText
 10
13583.11819016569
 20
9570.013745883729
 30
0.0
 40
100.0
  1
屋根パネル
  7
STYLE1
100
AcDbText
  0
TEXT
  5
187B1
330
747D
100
AcDbEntity
  8
文字
 62
     7
 48
50.0
100
AcDbText
 10
13583.11819016569
 20
9740.013745883729
 30
0.0
 40
100.0
  1
母屋中
  7
STYLE1
100
AcDbText
  0
TEXT
  5
187B2
330
747D
100
AcDbEntity
  8
文字
 62
     7
 48
50.0
100
AcDbText
 10
13583.11819016569
 20
10080.01374588372
 30
0.0
 40
100.0
  1
鼻隠シ前後
  7
STYLE1
100
AcDbText
  0
TEXT
  5
187B3
330
747D
100
AcDbEntity
  8
文字
 62
     7
 48
50.0
100
AcDbText
 10
13271.19032244792
 20
9740.013745883729
 30
0.0
 40
100.0
  1
8
  7
STYLE1
100
AcDbText
  0
TEXT
  5
187B4
330
747D
100
AcDbEntity
  8
文字
 62
     7
 48
50.0
100
AcDbText
 10
13271.19032244792
 20
9570.013745883729
 30
0.0
 40
100.0
  1
9
  7
STYLE1
100
AcDbText
  0
TEXT
  5
187B5
330
747D
100
AcDbEntity
  8
文字
 62
     7
 48
50.0
100
AcDbText
 10
13271.19032244792
 20
9910.01374588373
 30
0.0
 40
100.0
  1
7
  7
STYLE1
100
AcDbText
  0
TEXT
  5
187B6
330
747D
100
AcDbEntity
  8
文字
 62
     7
 48
50.0
100
AcDbText
 10
13271.19032244792
 20
10080.01374588373
 30
0.0
 40
100.0
  1
6
  7
STYLE1
100
AcDbText
  0
LINE
  5
187B7
330
747D
100
AcDbEntity
  8
仕様書枠
 48
50.0
100
AcDbLine
 10
16307.19999999999
 20
9539.599999999998
 30
0.0
 11
13127.19999999999
 21
9539.6
 31
0.0
  0
LINE
  5
187B8
330
747D
100
AcDbEntity
  8
仕様書枠
 48
50.0
100
AcDbLine
 10
16307.19999999999
 20
9199.599999999998
 30
0.0
 11
13127.19999999999
 21
9199.600000000001
 31
0.0
  0
LINE
  5
187B9
330
747D
100
AcDbEntity
  8
仕様書枠
 48
50.0
100
AcDbLine
 10
16307.19999999999
 20
9369.599999999998
 30
0.0
 11
13127.19999999999
 21
9369.600000000001
 31
0.0
  0
LINE
  5
187BA
330
747D
100
AcDbEntity
  8
仕様書枠
 48
50.0
100
AcDbLine
 10
16307.19999999999
 20
10049.6
 30
0.0
 11
13127.2
 21
10049.6
 31
0.0
  0
LINE
  5
187BB
330
747D
100
AcDbEntity
  8
仕様書枠
 48
50.0
100
AcDbLine
 10
16307.19999999999
 20
9709.6
 30
0.0
 11
13127.19999999999
 21
9709.600000000001
 31
0.0
  0
TEXT
  5
187BC
330
747D
100
AcDbEntity
  8
文字
 62
     7
 48
50.0
100
AcDbText
 10
13248.77747366448
 20
9230.013745883727
 30
0.0
 40
100.0
  1
11
  7
STYLE1
100
AcDbText
  0
TEXT
  5
187BD
330
747D
100
AcDbEntity
  8
文字
 62
     7
 48
50.0
100
AcDbText
 10
13583.11819016569
 20
9060.013745883729
 30
0.0
 40
100.0
  1
シャッターカバー
 41
0.9
  7
STYLE1
100
AcDbText
  0
LINE
  5
187BE
330
747D
100
AcDbEntity
  8
仕様書枠
 48
50.0
100
AcDbLine
 10
16307.19999999999
 20
9029.6
 30
0.0
 11
13127.19999999999
 21
9029.6
 31
0.0
  0
TEXT
  5
187BF
330
747D
100
AcDbEntity
  8
文字
 62
     7
 48
50.0
100
AcDbText
 10
13583.11819016569
 20
9230.013745883731
 30
0.0
 40
100.0
  1
シャッター
  7
STYLE1
100
AcDbText
  0
TEXT
  5
187C0
330
747D
100
AcDbEntity
  8
文字
 62
     7
 48
50.0
100
AcDbText
 10
13248.77747366448
 20
8890.013745883729
 30
0.0
 40
100.0
  1
13
  7
STYLE1
100
AcDbText
  0
TEXT
  5
187C1
330
747D
100
AcDbEntity
  8
文字
 62
     7
 48
50.0
100
AcDbText
 10
13248.77747366448
 20
9060.013745883729
 30
0.0
 40
100.0
  1
12
  7
STYLE1
100
AcDbText
  0
TEXT
  5
187C2
330
747D
100
AcDbEntity
  8
文字
 62
     7
 48
50.0
100
AcDbText
 10
15022.63965474517
 20
10930.01374588372
 30
0.0
 40
100.0
  1
F12            1.2
  7
STYLE1
100
AcDbText
  0
TEXT
  5
187C3
330
747D
100
AcDbEntity
  8
文字
 62
     7
 48
50.0
100
AcDbText
 10
15022.63965474517
 20
10760.01374588372
 30
0.0
 40
100.0
  1
F12         1.0,1.2
  7
STYLE1
100
AcDbText
  0
TEXT
  5
187C4
330
747D
100
AcDbEntity
  8
文字
 62
     7
 48
50.0
100
AcDbText
 10
15022.63965474516
 20
10590.01374588372
 30
0.0
 40
100.0
  1
Y10            1.0
  7
STYLE1
100
AcDbText
  0
TEXT
  5
187C5
330
747D
100
AcDbEntity
  8
文字
 62
     7
 48
50.0
100
AcDbText
 10
15022.63965474516
 20
10420.01374588372
 30
0.0
 40
100.0
  1
Y10            1.0
  7
STYLE1
100
AcDbText
  0
TEXT
  5
187C6
330
747D
100
AcDbEntity
  8
文字
 62
     7
 48
50.0
100
AcDbText
 10
15022.63965474516
 20
10250.01374588372
 30
0.0
 40
100.0
  1
Y10            0.7
  7
STYLE1
100
AcDbText
  0
TEXT
  5
187C7
330
747D
100
AcDbEntity
  8
文字
 62
     7
 48
50.0
100
AcDbText
 10
15022.63965474516
 20
10080.01374588372
 30
0.0
 40
100.0
  1
Y10            0.7
  7
STYLE1
100
AcDbText
  0
TEXT
  5
187C8
330
747D
100
AcDbEntity
  8
文字
 62
     7
 48
50.0
100
AcDbText
 10
15022.63965474516
 20
9570.013745883727
 30
0.0
 40
100.0
  1
Y10            0.5
  7
STYLE1
100
AcDbText
  0
TEXT
  5
187C9
330
747D
100
AcDbEntity
  8
文字
 62
     7
 48
50.0
100
AcDbText
 10
15022.63965474516
 20
9400.013745883727
 30
0.0
 40
100.0
  1
F12            0.7
  7
STYLE1
100
AcDbText
  0
TEXT
  5
187CA
330
747D
100
AcDbEntity
  8
文字
 62
     7
 48
50.0
100
AcDbText
 10
14850.83183167176
 20
8890.013745883727
 30
0.0
 40
100.0
  1
アルミニウム合金押出形材
  7
STYLE1
100
AcDbText
  0
TEXT
  5
187CC
330
747D
100
AcDbEntity
  8
文字
 62
     7
 48
50.0
100
AcDbText
 10
15022.63965474515
 20
9230.013745883727
 30
0.0
 40
100.0
  1
Z08            0.5
  7
STYLE1
100
AcDbText
  0
LINE
  5
187CD
330
747D
100
AcDbEntity
  8
仕様書枠
 48
50.0
100
AcDbLine
 10
16307.19999999998
 20
8179.600000000016
 30
0.0
 11
13127.19999999999
 21
8179.60000000002
 31
0.0
  0
LINE
  5
187CE
330
747D
100
AcDbEntity
  8
仕様書枠
 48
50.0
100
AcDbLine
 10
16307.19999999998
 20
8009.600000000018
 30
0.0
 11
13127.19999999999
 21
8009.600000000018
 31
0.0
  0
LINE
  5
187CF
330
747D
100
AcDbEntity
  8
仕様書枠
 48
50.0
100
AcDbLine
 10
16307.19999999998
 20
7839.600000000017
 30
0.0
 11
13127.19999999999
 21
7839.600000000018
 31
0.0
  0
TEXT
  5
187D0
330
747D
100
AcDbEntity
  8
文字
 62
     7
 48
50.0
100
AcDbText
 10
13229.83081656554
 20
8210.013745883745
 30
0.0
 40
100.0
  1
F12→溶融亜鉛めっき鋼板(JIS G 3302)
  7
STYLE1
100
AcDbText
  0
TEXT
  5
187D1
330
747D
100
AcDbEntity
  8
文字
 62
     7
 48
50.0
100
AcDbText
 10
13229.83081656554
 20
8040.013745883745
 30
0.0
 40
100.0
  1
Y10→溶融亜鉛-5％アルミニウム合金めっき鋼板(JIS G 3317)
 41
0.9
  7
STYLE1
100
AcDbText
  0
TEXT
  5
187D2
330
747D
100
AcDbEntity
  8
文字
 62
     7
 48
50.0
100
AcDbText
 10
13229.83081656554
 20
7870.013745883747
 30
0.0
 40
100.0
  1
Z08→塗装溶融亜鉛めっき鋼板(JIS G 3313)
  7
STYLE1
100
AcDbText
  0
LINE
  5
187D3
330
747D
100
AcDbEntity
  8
仕様書枠
 48
50.0
100
AcDbLine
 10
13127.2
 20
11239.6
 30
0.0
 11
13127.19999999999
 21
7839.600000000018
 31
0.0
  0
LINE
  5
187D4
330
747D
100
AcDbEntity
  8
仕様書枠
 48
50.0
100
AcDbLine
 10
16307.19999999999
 20
8689.6
 30
0.0
 11
13127.19999999999
 21
8689.600000000003
 31
0.0
  0
LINE
  5
187D5
330
747D
100
AcDbEntity
  8
仕様書枠
 48
50.0
100
AcDbLine
 10
16307.19999999999
 20
8859.6
 30
0.0
 11
13127.19999999999
 21
8859.600000000002
 31
0.0
  0
TEXT
  5
187D6
330
747D
100
AcDbEntity
  8
文字
 62
     7
 48
50.0
100
AcDbText
 10
13583.11819016569
 20
8720.013745883731
 30
0.0
 40
100.0
  1
根太
  7
STYLE1
100
AcDbText
  0
TEXT
  5
187D7
330
747D
100
AcDbEntity
  8
文字
 62
     7
 48
50.0
100
AcDbText
 10
13248.77747366448
 20
8720.013745883729
 30
0.0
 40
100.0
  1
14
  7
STYLE1
100
AcDbText
  0
TEXT
  5
187D8
330
747D
100
AcDbEntity
  8
文字
 62
     7
 48
50.0
100
AcDbText
 10
15022.63965474516
 20
8720.013745883727
 30
0.0
 40
100.0
  1
F12            1.2
  7
STYLE1
100
AcDbText
  0
TEXT
  5
187D9
330
747D
100
AcDbEntity
  8
文字
 62
     7
 48
50.0
100
AcDbText
 10
13583.11819016569
 20
9910.01374588373
 30
0.0
 40
100.0
  1
梁中
  7
STYLE1
100
AcDbText
  0
TEXT
  5
187DA
330
747D
100
AcDbEntity
  8
文字
 62
     7
 48
50.0
100
AcDbText
 10
15022.63965474516
 20
9910.013745883727
 30
0.0
 40
100.0
  1
F12,Y10      1.2+1.6
  7
STYLE1
100
AcDbText
  0
LINE
  5
187DB
330
747D
100
AcDbEntity
  8
仕様書枠
 48
50.0
100
AcDbLine
 10
16307.19999999998
 20
8349.600000000014
 30
0.0
 11
13127.19999999999
 21
8349.600000000016
 31
0.0
  0
TEXT
  5
187DC
330
747D
100
AcDbEntity
  8
文字
 62
     7
 48
50.0
100
AcDbText
 10
15022.63965474517
 20
9740.013745883725
 30
0.0
 40
100.0
  1
F12            1.0
  7
STYLE1
100
AcDbText
  0
ARC
  5
18DBB
330
747D
100
AcDbEntity
  8
部品1
 48
50.0
100
AcDbCircle
 10
10128.48615844334
 20
4559.489877507882
 30
0.0
 40
0.7
100
AcDbArc
 50
277.6581272073635
 51
356.7526572096103
  0
LINE
  5
18DBC
330
747D
100
AcDbEntity
  8
部品1
100
AcDbLine
 10
10130.31843178479
 20
4579.426352950956
 30
0.0
 11
10129.18503445245
 21
4559.450224968356
 31
0.0
  0
ARC
  5
18DBD
330
747D
100
AcDbEntity
  8
部品1
100
AcDbCircle
 10
10110.11434823266
 20
4452.822878346197
 30
0.0
 40
7.0
100
AcDbArc
 50
270.0
 51
356.7526572096623
  0
ARC
  5
18DBE
330
747D
100
AcDbEntity
  8
部品1
 48
50.0
100
AcDbCircle
 10
10120.25012791849
 20
4467.289877507878
 30
0.0
 40
0.7
100
AcDbArc
 50
277.6581272073635
 51
356.7526572097079
  0
ARC
  5
18DBF
330
747D
100
AcDbEntity
  8
部品1
 48
50.0
100
AcDbCircle
 10
10120.74319702706
 20
4463.622878346194
 30
0.0
 40
3.0
100
AcDbArc
 50
97.65812720736347
 51
176.7526572096623
  0
LINE
  5
18DC0
330
747D
100
AcDbEntity
  8
部品1
100
AcDbLine
 10
10117.74801413087
 20
4463.792817801298
 30
0.0
 11
10117.10310832376
 21
4452.426352950958
 31
0.0
  0
LINE
  5
18DC1
330
747D
100
AcDbEntity
  8
細線
 48
50.0
100
AcDbLine
 10
10097.73809280013
 20
4586.822878346196
 30
0.0
 11
10097.73809280013
 21
4445.822878346195
 31
0.0
  0
ARC
  5
18DC2
330
747D
100
AcDbEntity
  8
部品1
100
AcDbCircle
 10
10123.32967169369
 20
4579.822878346195
 30
0.0
 40
7.0
100
AcDbArc
 50
356.7526572096623
 51
90.0
  0
ARC
  5
18DC3
330
747D
100
AcDbEntity
  8
部品1
 48
50.0
100
AcDbCircle
 10
10128.9792275519
 20
4555.822878346197
 30
0.0
 40
3.0
100
AcDbArc
 50
97.65812720736347
 51
176.7526572096623
  0
LINE
  5
18DC4
330
747D
100
AcDbEntity
  8
部品1
100
AcDbLine
 10
10125.98404465572
 20
4555.992817801299
 30
0.0
 11
10120.9490039276
 21
4467.250224968355
 31
0.0
  0
DIMENSION
  5
18DC5
330
747D
100
AcDbEntity
  8
寸法
 48
50.0
100
AcDbDimension
  2
*D26
 10
10080.73809280013
 20
4799.364463604436
 30
0.0
 11
10444.22337417436
 21
4799.364463604436
 31
0.0
 70
   160
 71
     5
 42
50.0
  3
INABA_S40G
100
AcDbAlignedDimension
 13
10130.73809280013
 23
4586.822878346196
 33
0.0
 14
10080.73809280013
 24
4586.822878346197
 34
0.0
100
AcDbRotatedDimension
  0
CIRCLE
  5
18DDE
330
747D
100
AcDbEntity
  8
細線
 48
50.0
100
AcDbCircle
 10
8555.738092800094
 20
3149.322878346193
 30
0.0
 40
18.0
  0
ARC
  5
18DDF
330
747D
100
AcDbEntity
  8
細線
 48
50.0
100
AcDbCircle
 10
8855.738092800093
 20
2824.322878346193
 30
0.0
 40
15.0
100
AcDbArc
 50
270.0
 51
90.0
  0
ARC
  5
18DE0
330
747D
100
AcDbEntity
  8
細線
 48
50.0
100
AcDbCircle
 10
8755.738092800093
 20
2824.322878346193
 30
0.0
 40
15.0
100
AcDbArc
 50
90.0
 51
270.0
  0
ARC
  5
18DE1
330
747D
100
AcDbEntity
  8
細線
 48
50.0
100
AcDbCircle
 10
8355.738092800093
 20
2824.322878346193
 30
0.0
 40
15.0
100
AcDbArc
 50
270.0
 51
90.0
  0
ARC
  5
18DE2
330
747D
100
AcDbEntity
  8
細線
 48
50.0
100
AcDbCircle
 10
8255.738092800093
 20
2824.322878346193
 30
0.0
 40
15.0
100
AcDbArc
 50
90.0
 51
270.0
  0
LINE
  5
18DE3
330
747D
100
AcDbEntity
  8
細線
 48
50.0
100
AcDbLine
 10
8255.738092800093
 20
2839.322878346193
 30
0.0
 11
8355.738092800093
 21
2839.322878346193
 31
0.0
  0
LINE
  5
18DE4
330
747D
100
AcDbEntity
  8
細線
 48
50.0
100
AcDbLine
 10
8355.738092800093
 20
2809.322878346193
 30
0.0
 11
8255.738092800093
 21
2809.322878346193
 31
0.0
  0
LINE
  5
18DE5
330
747D
100
AcDbEntity
  8
細線
 48
50.0
100
AcDbLine
 10
8855.738092800093
 20
2809.322878346193
 30
0.0
 11
8755.738092800093
 21
2809.322878346193
 31
0.0
  0
LINE
  5
18DE6
330
747D
100
AcDbEntity
  8
細線
 48
50.0
100
AcDbLine
 10
8755.738092800093
 20
2839.322878346193
 30
0.0
 11
8855.738092800093
 21
2839.322878346193
 31
0.0
  0
LINE
  5
18DE8
330
747D
100
AcDbEntity
  8
部品1
100
AcDbLine
 10
9977.738092800096
 20
4186.822878346194
 30
0.0
 11
9977.738092800091
 21
2261.822878346193
 31
0.0
  0
LINE
  5
18DEA
330
747D
100
AcDbEntity
  8
破線
 48
5.0
100
AcDbLine
 10
10080.73809280009
 20
1861.822878346193
 30
0.0
 11
10025.73809280009
 21
1861.822878346193
 31
0.0
  0
LINE
  5
18DEB
330
747D
100
AcDbEntity
  8
破線
 48
5.0
100
AcDbLine
 10
10025.73809280009
 20
2111.822878346193
 30
0.0
 11
10025.73809280009
 21
1861.822878346193
 31
0.0
  0
LINE
  5
18DEC
330
747D
100
AcDbEntity
  8
破線
 48
5.0
100
AcDbLine
 10
10080.73809280009
 20
2111.822878346193
 30
0.0
 11
10080.73809280009
 21
1861.822878346193
 31
0.0
  0
LINE
  5
18DF0
330
747D
100
AcDbEntity
  8
部品1
100
AcDbLine
 10
10080.73809280009
 20
4445.822878346198
 30
0.0
 11
10080.73809280009
 21
2111.822878346193
 31
0.0
  0
LINE
  5
18DF1
330
747D
100
AcDbEntity
  8
部品1
100
AcDbLine
 10
10025.73809280009
 20
4186.822878346187
 30
0.0
 11
10025.73809280009
 21
2111.822878346193
 31
0.0
  0
LINE
  5
18E08
330
747D
100
AcDbEntity
  8
部品1
 48
50.0
100
AcDbLine
 10
7030.738092800122
 20
4186.82287834619
 30
0.0
 11
7030.738092800122
 21
4445.822878346198
 31
0.0
  0
LINE
  5
18E09
330
747D
100
AcDbEntity
  8
部品1
 48
50.0
100
AcDbLine
 10
7020.738092800122
 20
4445.822878346198
 30
0.0
 11
7020.738092800122
 21
4586.822878346196
 31
0.0
  0
LINE
  5
18E38
330
747D
100
AcDbEntity
  8
部品1
100
AcDbLine
 10
7133.738092800093
 20
4186.822878346193
 30
0.0
 11
7133.738092800093
 21
2261.822878346193
 31
0.0
  0
LINE
  5
18E39
330
747D
100
AcDbEntity
  8
部品1
100
AcDbLine
 10
6927.738092800097
 20
4186.822878346194
 30
0.0
 11
6927.738092800094
 21
2261.822878346193
 31
0.0
  0
LINE
  5
18E50
330
747D
100
AcDbEntity
  8
部品1
 48
50.0
100
AcDbLine
 10
3980.738092800108
 20
4186.822878346193
 30
0.0
 11
3980.738092800108
 21
4445.822878346198
 31
0.0
  0
LINE
  5
18E51
330
747D
100
AcDbEntity
  8
部品1
 48
50.0
100
AcDbLine
 10
3970.738092800108
 20
4445.822878346198
 30
0.0
 11
3970.738092800108
 21
4586.822878346196
 31
0.0
  0
LINE
  5
18E86
330
747D
100
AcDbEntity
  8
部品1
100
AcDbLine
 10
3877.738092800097
 20
4186.822878346194
 30
0.0
 11
3877.738092800093
 21
2261.822878346193
 31
0.0
  0
LINE
  5
18E87
330
747D
100
AcDbEntity
  8
部品1
100
AcDbLine
 10
4083.738092800096
 20
4186.822878346193
 30
0.0
 11
4083.738092800096
 21
2261.822878346193
 31
0.0
  0
LINE
  5
18E88
330
747D
100
AcDbEntity
  8
部品1
100
AcDbLine
 10
3980.738092800108
 20
4351.822878346193
 30
0.0
 11
7030.738092800122
 21
4351.822878346193
 31
0.0
  0
LINE
  5
18E89
330
747D
100
AcDbEntity
  8
部品1
 48
50.0
100
AcDbLine
 10
7020.738092800122
 20
4586.822878346194
 30
0.0
 11
3970.738092800108
 21
4586.822878346196
 31
0.0
  0
LINE
  5
18E8A
330
747D
100
AcDbEntity
  8
細線
 48
50.0
100
AcDbLine
 10
7020.738092800122
 20
4558.796120909663
 30
0.0
 11
3970.738092800108
 21
4558.796120910034
 31
0.0
  0
LINE
  5
18E8B
330
747D
100
AcDbEntity
  8
細線
 48
50.0
100
AcDbLine
 10
7020.738092800122
 20
4466.596120909664
 30
0.0
 11
3970.738092800108
 21
4466.596120909662
 31
0.0
  0
LINE
  5
18E8C
330
747D
100
AcDbEntity
  8
部品1
 48
50.0
100
AcDbLine
 10
7030.738092800124
 20
4445.822878346194
 30
0.0
 11
3980.738092800108
 21
4445.822878346198
 31
0.0
  0
TEXT
  5
18E8D
330
747D
100
AcDbEntity
  8
部品1
100
AcDbText
 10
5213.922369514912
 20
5422.900706380649
 30
0.0
 40
135.0
  1
平面図
  7
STYLE2
100
AcDbText
  0
LWPOLYLINE
  5
18E8E
330
747D
100
AcDbEntity
  8
部品1
100
AcDbPolyline
 90
        4
 70
     1
 43
0.0
 10
5124.002759685875
 20
5615.794235599173
 10
5124.002759685875
 20
5375.90191405364
 10
5887.473425914315
 20
5375.90191405364
 10
5887.473425914315
 20
5615.794235599173
  0
LWPOLYLINE
  5
18EBE
330
747D
100
AcDbEntity
  8
部品1
100
AcDbPolyline
 90
        4
 70
     1
 43
0.0
 10
5124.002759685864
 20
1561.822878346193
 10
5124.002759685864
 20
1321.93055680066
 10
5887.473425914301
 20
1321.93055680066
 10
5887.473425914301
 20
1561.822878346193
  0
TEXT
  5
18EBF
330
747D
100
AcDbEntity
  8
部品1
100
AcDbText
 10
5214.528163423817
 20
1368.92934912767
 30
0.0
 40
135.0
  1
正面図
  7
STYLE2
100
AcDbText
  0
LINE
  5
18EC2
330
747D
100
AcDbEntity
  8
部品1
100
AcDbLine
 10
3925.738092800097
 20
4186.82287834619
 30
0.0
 11
3925.738092800094
 21
2111.822878346193
 31
0.0
  0
LINE
  5
18EC3
330
747D
100
AcDbEntity
  8
部品1
100
AcDbLine
 10
4035.738092800096
 20
4186.82287834619
 30
0.0
 11
4035.738092800096
 21
2111.822878346193
 31
0.0
  0
LINE
  5
18EC4
330
747D
100
AcDbEntity
  8
部品1
100
AcDbLine
 10
7085.738092800093
 20
4186.822878346189
 30
0.0
 11
7085.738092800093
 21
2111.822878346193
 31
0.0
  0
LINE
  5
18EC5
330
747D
100
AcDbEntity
  8
部品1
100
AcDbLine
 10
6975.738092800094
 20
4186.822878346189
 30
0.0
 11
6975.738092800092
 21
2111.822878346193
 31
0.0
  0
LINE
  5
18EDC
330
747D
100
AcDbEntity
  8
部品1
100
AcDbLine
 10
881.1577538154161
 20
4579.426352950957
 30
0.0
 11
882.291151147765
 21
4559.450224968357
 31
0.0
  0
ARC
  5
18EDD
330
747D
100
AcDbEntity
  8
部品1
 48
50.0
100
AcDbCircle
 10
882.4969580483084
 20
4555.822878346198
 30
0.0
 40
3.0
100
AcDbArc
 50
3.247342790337682
 51
82.34187279263654
  0
ARC
  5
18EDE
330
747D
100
AcDbEntity
  8
部品1
 48
50.0
100
AcDbCircle
 10
882.990027156873
 20
4559.489877507884
 30
0.0
 40
0.7
100
AcDbArc
 50
183.2473427903897
 51
262.3418727926365
  0
ARC
  5
18EDF
330
747D
100
AcDbEntity
  8
部品1
100
AcDbCircle
 10
888.1465139065149
 20
4579.822878346196
 30
0.0
 40
7.0
100
AcDbArc
 50
90.0
 51
183.2473427903377
  0
LINE
  5
18EE0
330
747D
100
AcDbEntity
  8
部品1
100
AcDbLine
 10
893.7281714693417
 20
4463.792817801299
 30
0.0
 11
894.3730772764501
 21
4452.426352950959
 31
0.0
  0
ARC
  5
18EE1
330
747D
100
AcDbEntity
  8
部品1
 48
50.0
100
AcDbCircle
 10
890.7329885731524
 20
4463.622878346195
 30
0.0
 40
3.0
100
AcDbArc
 50
3.247342790337682
 51
82.34187279263654
  0
ARC
  5
18EE2
330
747D
100
AcDbEntity
  8
部品1
 48
50.0
100
AcDbCircle
 10
891.2260576817134
 20
4467.289877507879
 30
0.0
 40
0.7
100
AcDbArc
 50
183.2473427902922
 51
262.3418727926365
  0
ARC
  5
18EE3
330
747D
100
AcDbEntity
  8
部品1
100
AcDbCircle
 10
901.3618373675489
 20
4452.822878346198
 30
0.0
 40
7.0
100
AcDbArc
 50
183.2473427903377
 51
270.0
  0
LINE
  5
18EE4
330
747D
100
AcDbEntity
  8
部品1
100
AcDbLine
 10
885.4921409444941
 20
4555.992817801299
 30
0.0
 11
890.5271816726054
 21
4467.250224968356
 31
0.0
  0
LINE
  5
18EE5
330
747D
100
AcDbEntity
  8
細線
 48
50.0
100
AcDbLine
 10
913.7380928000856
 20
4586.822878346196
 30
0.0
 11
913.7380928000856
 21
4445.822878346196
 31
0.0
  0
DIMENSION
  5
18EE6
330
747D
100
AcDbEntity
  8
寸法
 48
50.0
100
AcDbDimension
  2
*D27
 10
880.7380928000856
 20
4799.364463604437
 30
0.0
 11
567.2528114258384
 21
4799.364463604437
 31
0.0
 70
   160
 71
     5
 42
50.0
  3
INABA_S40G
100
AcDbAlignedDimension
 13
930.7380928000856
 23
4586.822878346199
 33
0.0
 14
880.7380928000856
 24
4586.822878346198
 34
0.0
100
AcDbRotatedDimension
1001
ACAD
1000
DSTYLE
1002
{
1002
}
  0
CIRCLE
  5
18EE7
330
747D
100
AcDbEntity
  8
細線
 48
50.0
100
AcDbCircle
 10
2455.738092800093
 20
3149.322878346193
 30
0.0
 40
18.0
  0
ARC
  5
18EE8
330
747D
100
AcDbEntity
  8
細線
 48
50.0
100
AcDbCircle
 10
2755.738092800093
 20
2824.322878346193
 30
0.0
 40
15.0
100
AcDbArc
 50
270.0
 51
90.0
  0
ARC
  5
18EE9
330
747D
100
AcDbEntity
  8
細線
 48
50.0
100
AcDbCircle
 10
2655.738092800093
 20
2824.322878346193
 30
0.0
 40
15.0
100
AcDbArc
 50
90.0
 51
270.0
  0
LINE
  5
18EEA
330
747D
100
AcDbEntity
  8
細線
 48
50.0
100
AcDbLine
 10
2655.738092800093
 20
2839.322878346193
 30
0.0
 11
2755.738092800093
 21
2839.322878346193
 31
0.0
  0
LINE
  5
18EEB
330
747D
100
AcDbEntity
  8
細線
 48
50.0
100
AcDbLine
 10
2755.738092800093
 20
2809.322878346193
 30
0.0
 11
2655.738092800093
 21
2809.322878346193
 31
0.0
  0
ARC
  5
18EEC
330
747D
100
AcDbEntity
  8
細線
 48
50.0
100
AcDbCircle
 10
2255.738092800093
 20
2824.322878346193
 30
0.0
 40
15.0
100
AcDbArc
 50
270.0
 51
90.0
  0
ARC
  5
18EED
330
747D
100
AcDbEntity
  8
細線
 48
50.0
100
AcDbCircle
 10
2155.738092800093
 20
2824.322878346193
 30
0.0
 40
15.0
100
AcDbArc
 50
90.0
 51
270.0
  0
LINE
  5
18EEE
330
747D
100
AcDbEntity
  8
細線
 48
50.0
100
AcDbLine
 10
2255.738092800093
 20
2809.322878346193
 30
0.0
 11
2155.738092800093
 21
2809.322878346193
 31
0.0
  0
LINE
  5
18EEF
330
747D
100
AcDbEntity
  8
細線
 48
50.0
100
AcDbLine
 10
2155.738092800093
 20
2839.322878346193
 30
0.0
 11
2255.738092800093
 21
2839.322878346193
 31
0.0
  0
LINE
  5
18EF0
330
747D
100
AcDbEntity
  8
部品1
100
AcDbLine
 10
291.4581631079236
 20
2241.726688913857
 30
0.0
 11
441.4581631079236
 21
2241.726688913857
 31
0.0
  0
LINE
  5
18EF1
330
747D
100
AcDbEntity
  8
部品1
100
AcDbLine
 10
1033.738092800096
 20
4186.822878346193
 30
0.0
 11
1033.738092800096
 21
2261.822878346193
 31
0.0
  0
LINE
  5
18EF2
330
747D
100
AcDbEntity
  8
破線
 48
5.0
100
AcDbLine
 10
985.7380928000965
 20
2111.822878346193
 30
0.0
 11
985.738092800093
 21
1861.822878346193
 31
0.0
  0
LINE
  5
18EF4
330
747D
100
AcDbEntity
  8
破線
 48
5.0
100
AcDbLine
 10
930.7380928000966
 20
2111.822878346193
 30
0.0
 11
930.7380928000929
 21
1861.822878346193
 31
0.0
  0
LINE
  5
18EF6
330
747D
100
AcDbEntity
  8
破線
 48
5.0
100
AcDbLine
 10
985.738092800093
 20
1861.8228783462
 30
0.0
 11
930.7380928000929
 21
1861.8228783462
 31
0.0
  0
LINE
  5
18EF8
330
747D
100
AcDbEntity
  8
部品1
100
AcDbLine
 10
985.7380928000967
 20
4186.822878346193
 30
0.0
 11
985.7380928000965
 21
2111.822878346193
 31
0.0
  0
LINE
  5
18EF9
330
747D
100
AcDbEntity
  8
部品1
100
AcDbLine
 10
930.7380928000966
 20
4445.822878346198
 30
0.0
 11
930.7380928000966
 21
2111.822878346193
 31
0.0
  0
LINE
  5
18EFA
330
747D
100
AcDbEntity
  8
部品1
100
AcDbLine
 10
441.4581631079236
 20
2241.726688913857
 30
0.0
 11
366.4581631079236
 21
2111.822878346193
 31
0.0
  0
TEXT
  5
18EFB
330
747D
100
AcDbEntity
  8
部品1
100
AcDbText
 10
469.5631052326971
 20
2147.929781952095
 30
0.0
 40
125.0
  1
G.L
  7
STYLE2
100
AcDbText
  0
LINE
  5
18EFC
330
747D
100
AcDbEntity
  8
部品1
100
AcDbLine
 10
366.4581631079236
 20
2111.822878346193
 30
0.0
 11
291.4581631079236
 21
2241.726688913857
 31
0.0
  0
LINE
  5
18EFD
330
747D
100
AcDbEntity
  8
細線
 48
50.0
100
AcDbLine
 10
3970.738092800108
 20
4466.596120909662
 30
0.0
 11
891.1327743365145
 21
4466.596120910032
 31
0.0
  0
LINE
  5
18EFE
330
747D
100
AcDbEntity
  8
細線
 48
50.0
100
AcDbLine
 10
3970.738092800108
 20
4558.796120909664
 30
0.0
 11
882.8967438116851
 21
4558.796120910034
 31
0.0
  0
LINE
  5
18EFF
330
747D
100
AcDbEntity
  8
部品1
 48
50.0
100
AcDbLine
 10
3980.738092800108
 20
4445.822878346198
 30
0.0
 11
901.3618373675489
 21
4445.822878346198
 31
0.0
  0
LINE
  5
18F00
330
747D
100
AcDbEntity
  8
部品1
 48
50.0
100
AcDbLine
 10
3970.738092800108
 20
4586.822878346196
 30
0.0
 11
888.1465139065149
 21
4586.822878346196
 31
0.0
  0
LINE
  5
18F01
330
747D
100
AcDbEntity
  8
部品1
100
AcDbLine
 10
930.7380928000929
 20
4351.822878346193
 30
0.0
 11
3980.738092800093
 21
4351.822878346193
 31
0.0
  0
LINE
  5
18F02
330
747D
100
AcDbEntity
  8
部品1
100
AcDbLine
 10
985.7380928000965
 20
2261.822878346193
 30
0.0
 11
3925.738092800094
 21
2261.822878346193
 31
0.0
  0
LINE
  5
18F03
330
747D
100
AcDbEntity
  8
細線
100
AcDbLine
 10
3877.738092800097
 20
2271.822878346193
 30
0.0
 11
1033.738092800089
 21
2271.822878346193
 31
0.0
  0
LINE
  5
18F04
330
747D
100
AcDbEntity
  8
細線
100
AcDbLine
 10
1033.738092800089
 20
3896.822878346193
 30
0.0
 11
3877.738092800093
 21
3896.822878346193
 31
0.0
  0
LINE
  5
18F05
330
747D
100
AcDbEntity
  8
細線
100
AcDbLine
 10
1033.738092800089
 20
3961.822878346193
 30
0.0
 11
3877.738092800093
 21
3961.822878346193
 31
0.0
  0
LINE
  5
18F06
330
747D
100
AcDbEntity
  8
細線
100
AcDbLine
 10
1033.738092800089
 20
4026.822878346193
 30
0.0
 11
3877.738092800093
 21
4026.822878346193
 31
0.0
  0
LINE
  5
18F07
330
747D
100
AcDbEntity
  8
細線
100
AcDbLine
 10
1033.738092800089
 20
3506.822878346193
 30
0.0
 11
3877.738092800093
 21
3506.822878346193
 31
0.0
  0
LINE
  5
18F08
330
747D
100
AcDbEntity
  8
細線
100
AcDbLine
 10
1033.738092800089
 20
3571.822878346193
 30
0.0
 11
3877.738092800093
 21
3571.822878346193
 31
0.0
  0
LINE
  5
18F09
330
747D
100
AcDbEntity
  8
細線
100
AcDbLine
 10
1033.738092800089
 20
3636.822878346193
 30
0.0
 11
3877.738092800093
 21
3636.822878346193
 31
0.0
  0
LINE
  5
18F0A
330
747D
100
AcDbEntity
  8
細線
100
AcDbLine
 10
1033.738092800089
 20
3701.822878346193
 30
0.0
 11
3877.738092800093
 21
3701.822878346193
 31
0.0
  0
LINE
  5
18F0B
330
747D
100
AcDbEntity
  8
細線
100
AcDbLine
 10
1033.738092800089
 20
3766.822878346193
 30
0.0
 11
3877.738092800093
 21
3766.822878346193
 31
0.0
  0
LINE
  5
18F0C
330
747D
100
AcDbEntity
  8
細線
100
AcDbLine
 10
1033.738092800089
 20
3831.822878346193
 30
0.0
 11
3877.738092800093
 21
3831.822878346193
 31
0.0
  0
LINE
  5
18F0D
330
747D
100
AcDbEntity
  8
細線
100
AcDbLine
 10
1033.738092800089
 20
2856.822878346193
 30
0.0
 11
3877.738092800093
 21
2856.822878346193
 31
0.0
  0
LINE
  5
18F0E
330
747D
100
AcDbEntity
  8
細線
100
AcDbLine
 10
1033.738092800089
 20
2921.822878346193
 30
0.0
 11
3877.738092800093
 21
2921.822878346193
 31
0.0
  0
LINE
  5
18F0F
330
747D
100
AcDbEntity
  8
細線
100
AcDbLine
 10
1033.738092800089
 20
2986.822878346193
 30
0.0
 11
3877.738092800093
 21
2986.822878346193
 31
0.0
  0
LINE
  5
18F10
330
747D
100
AcDbEntity
  8
細線
100
AcDbLine
 10
1033.738092800089
 20
3051.822878346193
 30
0.0
 11
3877.738092800093
 21
3051.822878346193
 31
0.0
  0
LINE
  5
18F11
330
747D
100
AcDbEntity
  8
細線
100
AcDbLine
 10
1033.738092800089
 20
3116.822878346193
 30
0.0
 11
3877.738092800093
 21
3116.822878346193
 31
0.0
  0
LINE
  5
18F12
330
747D
100
AcDbEntity
  8
細線
100
AcDbLine
 10
1033.738092800089
 20
3181.822878346193
 30
0.0
 11
3877.738092800093
 21
3181.822878346193
 31
0.0
  0
LINE
  5
18F13
330
747D
100
AcDbEntity
  8
細線
100
AcDbLine
 10
1033.738092800089
 20
3246.822878346192
 30
0.0
 11
3877.738092800093
 21
3246.822878346192
 31
0.0
  0
LINE
  5
18F14
330
747D
100
AcDbEntity
  8
細線
100
AcDbLine
 10
1033.738092800089
 20
3311.822878346193
 30
0.0
 11
3877.738092800093
 21
3311.822878346193
 31
0.0
  0
LINE
  5
18F15
330
747D
100
AcDbEntity
  8
細線
100
AcDbLine
 10
1033.738092800089
 20
3376.822878346193
 30
0.0
 11
3877.738092800093
 21
3376.822878346193
 31
0.0
  0
LINE
  5
18F16
330
747D
100
AcDbEntity
  8
細線
100
AcDbLine
 10
1033.738092800089
 20
3441.822878346193
 30
0.0
 11
3877.738092800093
 21
3441.822878346193
 31
0.0
  0
LINE
  5
18F17
330
747D
100
AcDbEntity
  8
細線
100
AcDbLine
 10
1033.738092800089
 20
4156.822878346193
 30
0.0
 11
3877.738092800093
 21
4156.822878346193
 31
0.0
  0
LINE
  5
18F18
330
747D
100
AcDbEntity
  8
細線
100
AcDbLine
 10
1033.738092800089
 20
4091.822878346192
 30
0.0
 11
3877.738092800093
 21
4091.822878346192
 31
0.0
  0
LINE
  5
18F19
330
747D
100
AcDbEntity
  8
細線
100
AcDbLine
 10
1033.738092800089
 20
2336.822878346193
 30
0.0
 11
3877.738092800093
 21
2336.822878346193
 31
0.0
  0
LINE
  5
18F1A
330
747D
100
AcDbEntity
  8
細線
100
AcDbLine
 10
1033.738092800089
 20
2401.822878346193
 30
0.0
 11
3877.738092800093
 21
2401.822878346193
 31
0.0
  0
LINE
  5
18F1B
330
747D
100
AcDbEntity
  8
細線
100
AcDbLine
 10
1033.738092800089
 20
2466.822878346193
 30
0.0
 11
3877.738092800093
 21
2466.822878346193
 31
0.0
  0
LINE
  5
18F1C
330
747D
100
AcDbEntity
  8
細線
100
AcDbLine
 10
1033.738092800089
 20
2531.822878346193
 30
0.0
 11
3877.738092800093
 21
2531.822878346193
 31
0.0
  0
LINE
  5
18F1D
330
747D
100
AcDbEntity
  8
細線
100
AcDbLine
 10
1033.738092800089
 20
2596.822878346193
 30
0.0
 11
3877.738092800093
 21
2596.822878346193
 31
0.0
  0
LINE
  5
18F1E
330
747D
100
AcDbEntity
  8
細線
100
AcDbLine
 10
1033.738092800089
 20
2661.822878346193
 30
0.0
 11
3877.738092800093
 21
2661.822878346193
 31
0.0
  0
LINE
  5
18F1F
330
747D
100
AcDbEntity
  8
細線
100
AcDbLine
 10
1033.738092800089
 20
2726.822878346193
 30
0.0
 11
3877.738092800093
 21
2726.822878346193
 31
0.0
  0
LINE
  5
18F20
330
747D
100
AcDbEntity
  8
細線
100
AcDbLine
 10
1033.738092800089
 20
2791.822878346193
 30
0.0
 11
3877.738092800093
 21
2791.822878346193
 31
0.0
  0
LINE
  5
18F21
330
747D
100
AcDbEntity
  8
部品1
100
AcDbLine
 10
930.7380928000966
 20
4186.822878346193
 30
0.0
 11
4035.738092800096
 21
4186.82287834619
 31
0.0
  0
LINE
  5
18F22
330
747D
100
AcDbEntity
  8
部品1
100
AcDbLine
 10
985.7380928000965
 20
2211.822878346193
 30
0.0
 11
3925.738092800094
 21
2211.822878346193
 31
0.0
  0
LINE
  5
18F24
330
747D
100
AcDbEntity
  8
細線
 48
50.0
100
AcDbLine
 10
10120.34341126337
 20
4466.596120909662
 30
0.0
 11
7020.738092800122
 21
4466.596120910028
 31
0.0
  0
LINE
  5
18F25
330
747D
100
AcDbEntity
  8
細線
 48
50.0
100
AcDbLine
 10
10128.57944178821
 20
4558.796120909664
 30
0.0
 11
7020.738092800122
 21
4558.79612090967
 31
0.0
  0
LINE
  5
18F26
330
747D
100
AcDbEntity
  8
部品1
 48
50.0
100
AcDbLine
 10
10110.11434823266
 20
4445.822878346198
 30
0.0
 11
7030.738092800122
 21
4445.822878346198
 31
0.0
  0
LINE
  5
18F27
330
747D
100
AcDbEntity
  8
部品1
 48
50.0
100
AcDbLine
 10
10123.32967169369
 20
4586.822878346196
 30
0.0
 11
7020.738092800122
 21
4586.822878346196
 31
0.0
  0
LINE
  5
18F28
330
747D
100
AcDbEntity
  8
部品1
100
AcDbLine
 10
7030.738092800122
 20
4351.822878346193
 30
0.0
 11
10080.73809280012
 21
4351.822878346193
 31
0.0
  0
DIMENSION
  5
18F29
330
747D
100
AcDbEntity
  8
寸法
 48
50.0
100
AcDbDimension
  2
*D28
 10
930.7380928000856
 20
4799.364463604437
 30
0.0
 11
5505.738092800086
 21
4899.364463604437
 31
0.0
 70
    32
  1
柱外寸法 N X 3050
 71
     5
 42
9150.0
  3
INABA_S40G
100
AcDbAlignedDimension
 13
10080.73809280008
 23
4599.744204168719
 33
0.0
 14
930.7380928000856
 24
4599.744204177187
 34
0.0
100
AcDbRotatedDimension
  0
DIMENSION
  5
18F2A
330
747D
100
AcDbEntity
  8
寸法
 48
50.0
100
AcDbDimension
  2
*D29
 10
10130.73809280013
 20
5020.269764078187
 30
0.0
 11
5505.738092800108
 21
5120.269764078187
 31
0.0
 70
    32
  1
N X 3050+100
 71
     5
 42
9250.000000000044
  3
INABA_S40G
100
AcDbAlignedDimension
 13
880.7380928000856
 23
4586.822878346198
 33
0.0
 14
10130.73809280013
 24
4586.822878346196
 34
0.0
100
AcDbRotatedDimension
  0
LINE
  5
18F2B
330
747D
100
AcDbEntity
  8
部品1
100
AcDbLine
 10
7085.738092800096
 20
2211.822878346193
 30
0.0
 11
10025.73809280009
 21
2211.822878346193
 31
0.0
  0
LINE
  5
18F2C
330
747D
100
AcDbEntity
  8
部品1
100
AcDbLine
 10
7085.738092800096
 20
2261.822878346193
 30
0.0
 11
10025.73809280009
 21
2261.822878346193
 31
0.0
  0
LINE
  5
18F2D
330
747D
100
AcDbEntity
  8
Ｇ．Ｌ
100
AcDbLine
 10
254.7264690160354
 20
2111.822878346193
 30
0.0
 11
16180.06109704106
 21
2111.822878346193
 31
0.0
  0
LINE
  5
18F2E
330
747D
100
AcDbEntity
  8
部品1
100
AcDbLine
 10
7085.738092800093
 20
4186.822878346193
 30
0.0
 11
10080.73809280009
 21
4186.822878346194
 31
0.0
  0
LINE
  5
18F2F
330
747D
100
AcDbEntity
  8
細線
100
AcDbLine
 10
9977.738092800095
 20
2271.822878346193
 30
0.0
 11
7133.73809280009
 21
2271.822878346193
 31
0.0
  0
LINE
  5
18F30
330
747D
100
AcDbEntity
  8
細線
100
AcDbLine
 10
7133.738092800093
 20
2791.822878346193
 30
0.0
 11
9977.738092800095
 21
2791.822878346193
 31
0.0
  0
LINE
  5
18F31
330
747D
100
AcDbEntity
  8
細線
100
AcDbLine
 10
7133.738092800093
 20
2726.822878346193
 30
0.0
 11
9977.738092800095
 21
2726.822878346193
 31
0.0
  0
LINE
  5
18F32
330
747D
100
AcDbEntity
  8
細線
100
AcDbLine
 10
7133.738092800093
 20
2661.822878346193
 30
0.0
 11
9977.738092800095
 21
2661.822878346193
 31
0.0
  0
LINE
  5
18F33
330
747D
100
AcDbEntity
  8
細線
100
AcDbLine
 10
7133.738092800093
 20
2596.822878346193
 30
0.0
 11
9977.738092800095
 21
2596.822878346193
 31
0.0
  0
LINE
  5
18F34
330
747D
100
AcDbEntity
  8
細線
100
AcDbLine
 10
7133.738092800093
 20
2531.822878346193
 30
0.0
 11
9977.738092800095
 21
2531.822878346193
 31
0.0
  0
LINE
  5
18F35
330
747D
100
AcDbEntity
  8
細線
100
AcDbLine
 10
7133.738092800093
 20
2466.822878346193
 30
0.0
 11
9977.738092800095
 21
2466.822878346193
 31
0.0
  0
LINE
  5
18F36
330
747D
100
AcDbEntity
  8
細線
100
AcDbLine
 10
7133.738092800093
 20
2401.822878346193
 30
0.0
 11
9977.738092800095
 21
2401.822878346193
 31
0.0
  0
LINE
  5
18F37
330
747D
100
AcDbEntity
  8
細線
100
AcDbLine
 10
7133.738092800093
 20
2336.822878346193
 30
0.0
 11
9977.738092800095
 21
2336.822878346193
 31
0.0
  0
LINE
  5
18F38
330
747D
100
AcDbEntity
  8
細線
100
AcDbLine
 10
7133.738092800093
 20
4091.822878346192
 30
0.0
 11
9977.738092800095
 21
4091.822878346192
 31
0.0
  0
LINE
  5
18F39
330
747D
100
AcDbEntity
  8
細線
100
AcDbLine
 10
7133.738092800093
 20
4156.822878346193
 30
0.0
 11
9977.738092800095
 21
4156.822878346193
 31
0.0
  0
LINE
  5
18F3A
330
747D
100
AcDbEntity
  8
細線
100
AcDbLine
 10
7133.738092800093
 20
3441.822878346193
 30
0.0
 11
9977.738092800095
 21
3441.822878346193
 31
0.0
  0
LINE
  5
18F3B
330
747D
100
AcDbEntity
  8
細線
100
AcDbLine
 10
7133.738092800093
 20
3376.822878346193
 30
0.0
 11
9977.738092800095
 21
3376.822878346193
 31
0.0
  0
LINE
  5
18F3C
330
747D
100
AcDbEntity
  8
細線
100
AcDbLine
 10
7133.738092800093
 20
3311.822878346193
 30
0.0
 11
9977.738092800095
 21
3311.822878346193
 31
0.0
  0
LINE
  5
18F3D
330
747D
100
AcDbEntity
  8
細線
100
AcDbLine
 10
7133.738092800093
 20
3246.822878346192
 30
0.0
 11
9977.738092800095
 21
3246.822878346192
 31
0.0
  0
LINE
  5
18F3E
330
747D
100
AcDbEntity
  8
細線
100
AcDbLine
 10
7133.738092800093
 20
3181.822878346193
 30
0.0
 11
9977.738092800095
 21
3181.822878346193
 31
0.0
  0
LINE
  5
18F3F
330
747D
100
AcDbEntity
  8
細線
100
AcDbLine
 10
7133.738092800093
 20
3116.822878346193
 30
0.0
 11
9977.738092800095
 21
3116.822878346193
 31
0.0
  0
LINE
  5
18F40
330
747D
100
AcDbEntity
  8
細線
100
AcDbLine
 10
7133.738092800093
 20
3051.822878346193
 30
0.0
 11
9977.738092800095
 21
3051.822878346193
 31
0.0
  0
LINE
  5
18F41
330
747D
100
AcDbEntity
  8
細線
100
AcDbLine
 10
7133.738092800093
 20
2986.822878346193
 30
0.0
 11
9977.738092800095
 21
2986.822878346193
 31
0.0
  0
LINE
  5
18F42
330
747D
100
AcDbEntity
  8
細線
100
AcDbLine
 10
7133.738092800093
 20
2921.822878346193
 30
0.0
 11
9977.738092800095
 21
2921.822878346193
 31
0.0
  0
LINE
  5
18F43
330
747D
100
AcDbEntity
  8
細線
100
AcDbLine
 10
7133.738092800093
 20
2856.822878346193
 30
0.0
 11
9977.738092800095
 21
2856.822878346193
 31
0.0
  0
LINE
  5
18F44
330
747D
100
AcDbEntity
  8
細線
100
AcDbLine
 10
7133.738092800093
 20
3831.822878346193
 30
0.0
 11
9977.738092800095
 21
3831.822878346193
 31
0.0
  0
LINE
  5
18F45
330
747D
100
AcDbEntity
  8
細線
100
AcDbLine
 10
7133.738092800093
 20
3766.822878346193
 30
0.0
 11
9977.738092800095
 21
3766.822878346193
 31
0.0
  0
LINE
  5
18F46
330
747D
100
AcDbEntity
  8
細線
100
AcDbLine
 10
7133.738092800093
 20
3701.822878346193
 30
0.0
 11
9977.738092800095
 21
3701.822878346193
 31
0.0
  0
LINE
  5
18F47
330
747D
100
AcDbEntity
  8
細線
100
AcDbLine
 10
7133.738092800093
 20
3636.822878346193
 30
0.0
 11
9977.738092800095
 21
3636.822878346193
 31
0.0
  0
LINE
  5
18F48
330
747D
100
AcDbEntity
  8
細線
100
AcDbLine
 10
7133.738092800093
 20
3571.822878346193
 30
0.0
 11
9977.738092800095
 21
3571.822878346193
 31
0.0
  0
LINE
  5
18F49
330
747D
100
AcDbEntity
  8
細線
100
AcDbLine
 10
7133.738092800093
 20
3506.822878346193
 30
0.0
 11
9977.738092800095
 21
3506.822878346193
 31
0.0
  0
LINE
  5
18F4A
330
747D
100
AcDbEntity
  8
細線
100
AcDbLine
 10
7133.738092800093
 20
4026.822878346193
 30
0.0
 11
9977.738092800095
 21
4026.822878346193
 31
0.0
  0
LINE
  5
18F4B
330
747D
100
AcDbEntity
  8
細線
100
AcDbLine
 10
7133.738092800093
 20
3961.822878346193
 30
0.0
 11
9977.738092800095
 21
3961.822878346193
 31
0.0
  0
LINE
  5
18F4C
330
747D
100
AcDbEntity
  8
細線
100
AcDbLine
 10
7133.738092800093
 20
3896.822878346193
 30
0.0
 11
9977.738092800095
 21
3896.822878346193
 31
0.0
  0
LINE
  5
18F4D
330
747D
100
AcDbEntity
  8
部品1
100
AcDbLine
 10
12118.57547047463
 20
4351.822878346193
 30
0.0
 11
15588.57547047463
 21
4351.822878346193
 31
0.0
  0
LINE
  5
18F4E
330
747D
100
AcDbEntity
  8
部品1
100
AcDbLine
 10
12173.57547047463
 20
2261.822878346193
 30
0.0
 11
15588.57547047463
 21
2261.822878346193
 31
0.0
  0
LINE
  5
18F4F
330
747D
100
AcDbEntity
  8
部品1
100
AcDbLine
 10
12173.57547047463
 20
4351.822878346193
 30
0.0
 11
12173.57547047463
 21
2111.822878346193
 31
0.0
  0
LINE
  5
18F50
330
747D
100
AcDbEntity
  8
部品1
100
AcDbLine
 10
12118.57547047464
 20
4444.115600650516
 30
0.0
 11
12118.57547047463
 21
2111.822878346193
 31
0.0
  0
DIMENSION
  5
18F51
330
747D
100
AcDbEntity
  8
寸法
100
AcDbDimension
  2
*D30
 10
11274.82534129137
 20
2261.822878346193
 30
0.0
 11
11174.81353026775
 21
3306.822878346195
 31
0.0
 70
    32
 71
     5
 42
2090.0
  3
INABA_S40G
100
AcDbAlignedDimension
 13
12118.57547047463
 23
4351.822878346193
 33
0.0
 14
12118.57547047463
 24
2261.822878346193
 34
0.0
 50
90.0
100
AcDbRotatedDimension
1001
ACAD
1000
DSTYLE
1002
{
1070
   288
1070
     1
1002
}
  0
DIMENSION
  5
18F53
330
747D
100
AcDbEntity
  8
寸法
100
AcDbDimension
  2
*D31
 10
11274.82534129137
 20
2211.822878346193
 30
0.0
 11
11274.82534129137
 21
1828.072878346192
 31
0.0
 70
   160
 71
     5
 42
50.0
  3
INABA_S40G
100
AcDbAlignedDimension
 13
12118.57547047463
 23
2261.822878346193
 33
0.0
 14
12063.57547047463
 24
2211.822878346193
 34
0.0
 50
90.0
100
AcDbRotatedDimension
1001
ACAD
1000
DSTYLE
1002
{
1070
   288
1070
     1
1002
}
  0
LINE
  5
18F54
330
747D
100
AcDbEntity
  8
部品1
100
AcDbLine
 10
15588.57547047463
 20
4406.173193563879
 30
0.0
 11
15588.57547047463
 21
2111.822878346193
 31
0.0
  0
LINE
  5
18F55
330
747D
100
AcDbEntity
  8
部品1
100
AcDbLine
 10
15533.57547047463
 20
4351.822878346193
 30
0.0
 11
15533.57547047463
 21
2261.822878346193
 31
0.0
  0
DIMENSION
  5
18F56
330
747D
100
AcDbEntity
  8
寸法
100
AcDbDimension
  2
*D32
 10
16037.9223533413
 20
4531.822878346193
 30
0.0
 11
16037.9223533413
 21
3349.041386401659
 31
0.0
 70
   160
 71
     5
 42
2320.0
  3
INABA_S40G
100
AcDbAlignedDimension
 13
15588.57547047463
 23
2211.822878346193
 33
0.0
 14
15683.57547047463
 24
4531.822878346193
 34
0.0
 50
90.0
100
AcDbRotatedDimension
1001
ACAD
1000
DSTYLE
1002
{
1070
   288
1070
     1
1002
}
  0
LINE
  5
18F5A
330
747D
100
AcDbEntity
  8
部品1
100
AcDbLine
 10
12173.57547047463
 20
2211.822878346193
 30
0.0
 11
15588.57547047463
 21
2211.822878346193
 31
0.0
  0
LINE
  5
18F5D
330
747D
100
AcDbEntity
  8
破線
 48
5.0
100
AcDbLine
 10
12118.57547047463
 20
1861.822878346193
 30
0.0
 11
12173.57547047463
 21
1861.822878346193
 31
0.0
  0
LINE
  5
18F5E
330
747D
100
AcDbEntity
  8
破線
 48
5.0
100
AcDbLine
 10
12173.57547047463
 20
2111.822878346193
 30
0.0
 11
12173.57547047463
 21
1861.822878346193
 31
0.0
  0
LINE
  5
18F5F
330
747D
100
AcDbEntity
  8
破線
 48
5.0
100
AcDbLine
 10
12118.57547047463
 20
2111.822878346193
 30
0.0
 11
12118.57547047463
 21
1861.822878346193
 31
0.0
  0
LINE
  5
18F61
330
747D
100
AcDbEntity
  8
細線
 48
50.0
100
AcDbLine
 10
15191.07547047466
 20
4351.822878346196
 30
0.0
 11
15191.07547047466
 21
2261.822878346197
 31
0.0
  0
LINE
  5
18F62
330
747D
100
AcDbEntity
  8
細線
 48
50.0
100
AcDbLine
 10
15176.07547047466
 20
4351.822878346196
 30
0.0
 11
15176.07547047466
 21
2261.822878346197
 31
0.0
  0
LINE
  5
18F63
330
747D
100
AcDbEntity
  8
細線
 48
50.0
100
AcDbLine
 10
15316.07547047466
 20
4351.822878346196
 30
0.0
 11
15316.07547047466
 21
2261.822878346197
 31
0.0
  0
LINE
  5
18F64
330
747D
100
AcDbEntity
  8
細線
 48
50.0
100
AcDbLine
 10
15331.07547047466
 20
4351.822878346196
 30
0.0
 11
15331.07547047466
 21
2261.822878346197
 31
0.0
  0
LINE
  5
18F65
330
747D
100
AcDbEntity
  8
細線
 48
50.0
100
AcDbLine
 10
15471.07547047466
 20
4351.822878346196
 30
0.0
 11
15471.07547047466
 21
2261.822878346197
 31
0.0
  0
LINE
  5
18F66
330
747D
100
AcDbEntity
  8
細線
 48
50.0
100
AcDbLine
 10
15456.07547047466
 20
4351.822878346196
 30
0.0
 11
15456.07547047466
 21
2261.822878346197
 31
0.0
  0
LINE
  5
18F67
330
747D
100
AcDbEntity
  8
部品1
100
AcDbLine
 10
15113.57547047462
 20
4351.822878346194
 30
0.0
 11
15113.57547047462
 21
2261.822878346197
 31
0.0
  0
TEXT
  5
18F68
330
747D
100
AcDbEntity
  8
部品1
100
AcDbText
 10
13561.28623878403
 20
1368.92934912767
 30
0.0
 40
135.0
  1
側面図
  7
STYLE2
100
AcDbText
  0
LWPOLYLINE
  5
18F69
330
747D
100
AcDbEntity
  8
部品1
100
AcDbPolyline
 90
        4
 70
     1
 43
0.0
 10
13471.84013736042
 20
1561.822878346193
 10
13471.84013736042
 20
1321.93055680066
 10
14235.31080358886
 20
1321.93055680066
 10
14235.31080358886
 20
1561.822878346193
  0
LINE
  5
18F6A
330
747D
100
AcDbEntity
  8
部品1
100
AcDbLine
 10
14693.57547047463
 20
4351.822878346194
 30
0.0
 11
14693.57547047463
 21
2261.822878346197
 31
0.0
  0
LINE
  5
18F6B
330
747D
100
AcDbEntity
  8
細線
 48
50.0
100
AcDbLine
 10
14616.07547047464
 20
4351.822878346193
 30
0.0
 11
14616.07547047464
 21
2261.822878346194
 31
0.0
  0
LINE
  5
18F6C
330
747D
100
AcDbEntity
  8
細線
 48
50.0
100
AcDbLine
 10
14631.07547047464
 20
4351.822878346193
 30
0.0
 11
14631.07547047464
 21
2261.822878346194
 31
0.0
  0
LINE
  5
18F6D
330
747D
100
AcDbEntity
  8
細線
 48
50.0
100
AcDbLine
 10
14491.07547047464
 20
4351.822878346193
 30
0.0
 11
14491.07547047464
 21
2261.822878346194
 31
0.0
  0
LINE
  5
18F6E
330
747D
100
AcDbEntity
  8
細線
 48
50.0
100
AcDbLine
 10
14476.07547047464
 20
4351.822878346193
 30
0.0
 11
14476.07547047464
 21
2261.822878346194
 31
0.0
  0
LINE
  5
18F6F
330
747D
100
AcDbEntity
  8
細線
 48
50.0
100
AcDbLine
 10
14336.07547047464
 20
4351.822878346193
 30
0.0
 11
14336.07547047464
 21
2261.822878346194
 31
0.0
  0
LINE
  5
18F70
330
747D
100
AcDbEntity
  8
細線
 48
50.0
100
AcDbLine
 10
14351.07547047464
 20
4351.822878346193
 30
0.0
 11
14351.07547047464
 21
2261.822878346194
 31
0.0
  0
LINE
  5
18F71
330
747D
100
AcDbEntity
  8
部品1
100
AcDbLine
 10
14273.57547047463
 20
4351.822878346193
 30
0.0
 11
14273.57547047463
 21
2261.822878346194
 31
0.0
  0
DIMENSION
  5
18F72
330
747D
100
AcDbEntity
  8
寸法
 48
50.0
100
AcDbDimension
  2
*D33
 10
11497.96706370626
 20
4461.168137219524
 30
0.0
 11
11508.63253896518
 21
4832.014800461223
 31
0.0
 70
   161
 71
     5
 42
140.9999999999991
  3
INABA_S40G
100
AcDbAlignedDimension
 13
12077.97149063322
 23
4585.545627180873
 33
0.0
 14
12073.91803507659
 24
4444.60390341516
 34
0.0
1001
ACAD
1000
DSTYLE
1002
{
1070
   174
1070
     0
1070
   272
1070
     1
1070
   288
1070
     0
1070
   341
1005
0
1002
}
  0
LINE
  5
18F73
330
747D
100
AcDbEntity
  8
細線
 48
50.0
100
AcDbLine
 10
15036.07547047464
 20
4351.822878346194
 30
0.0
 11
15036.07547047464
 21
2261.822878346194
 31
0.0
  0
LINE
  5
18F74
330
747D
100
AcDbEntity
  8
細線
 48
50.0
100
AcDbLine
 10
15051.07547047464
 20
4351.822878346194
 30
0.0
 11
15051.07547047464
 21
2261.822878346194
 31
0.0
  0
LINE
  5
18F75
330
747D
100
AcDbEntity
  8
細線
 48
50.0
100
AcDbLine
 10
14911.07547047464
 20
4351.822878346194
 30
0.0
 11
14911.07547047464
 21
2261.822878346194
 31
0.0
  0
LINE
  5
18F76
330
747D
100
AcDbEntity
  8
細線
 48
50.0
100
AcDbLine
 10
14896.07547047464
 20
4351.822878346194
 30
0.0
 11
14896.07547047464
 21
2261.822878346194
 31
0.0
  0
LINE
  5
18F77
330
747D
100
AcDbEntity
  8
細線
 48
50.0
100
AcDbLine
 10
14756.07547047464
 20
4351.822878346194
 30
0.0
 11
14756.07547047464
 21
2261.822878346194
 31
0.0
  0
LINE
  5
18F78
330
747D
100
AcDbEntity
  8
細線
 48
50.0
100
AcDbLine
 10
14771.07547047464
 20
4351.822878346194
 30
0.0
 11
14771.07547047464
 21
2261.822878346194
 31
0.0
  0
LINE
  5
18F79
330
747D
100
AcDbEntity
  8
部品1
100
AcDbLine
 10
13433.57547047464
 20
4351.822878346193
 30
0.0
 11
13433.57547047464
 21
2261.822878346193
 31
0.0
  0
LINE
  5
18F7A
330
747D
100
AcDbEntity
  8
細線
 48
50.0
100
AcDbLine
 10
13091.07547047464
 20
4351.822878346193
 30
0.0
 11
13091.07547047465
 21
2261.822878346193
 31
0.0
  0
LINE
  5
18F7B
330
747D
100
AcDbEntity
  8
細線
 48
50.0
100
AcDbLine
 10
13076.07547047464
 20
4351.822878346193
 30
0.0
 11
13076.07547047465
 21
2261.822878346193
 31
0.0
  0
LINE
  5
18F7C
330
747D
100
AcDbEntity
  8
細線
 48
50.0
100
AcDbLine
 10
13216.07547047464
 20
4351.822878346193
 30
0.0
 11
13216.07547047465
 21
2261.822878346193
 31
0.0
  0
LINE
  5
18F7D
330
747D
100
AcDbEntity
  8
細線
 48
50.0
100
AcDbLine
 10
13231.07547047464
 20
4351.822878346193
 30
0.0
 11
13231.07547047465
 21
2261.822878346193
 31
0.0
  0
LINE
  5
18F7E
330
747D
100
AcDbEntity
  8
細線
 48
50.0
100
AcDbLine
 10
13371.07547047464
 20
4351.822878346193
 30
0.0
 11
13371.07547047465
 21
2261.822878346193
 31
0.0
  0
LINE
  5
18F7F
330
747D
100
AcDbEntity
  8
細線
 48
50.0
100
AcDbLine
 10
13356.07547047464
 20
4351.822878346193
 30
0.0
 11
13356.07547047465
 21
2261.822878346193
 31
0.0
  0
LINE
  5
18F80
330
747D
100
AcDbEntity
  8
部品1
100
AcDbLine
 10
13013.57547047464
 20
4351.822878346193
 30
0.0
 11
13013.57547047464
 21
2261.822878346193
 31
0.0
  0
DIMENSION
  5
18F81
330
747D
100
AcDbEntity
  8
寸法
 48
50.0
100
AcDbDimension
  2
*D34
 10
15668.57547047464
 20
4985.480331925499
 30
0.0
 11
15874.62271456914
 21
4985.480331925499
 31
0.0
 70
   160
 71
     5
 42
80.0
  3
INABA_S40G
100
AcDbAlignedDimension
 13
15588.57547047464
 23
4533.633557957847
 33
0.0
 14
15668.57547047464
 24
4531.822878346196
 34
0.0
100
AcDbRotatedDimension
1001
ACAD
1000
DSTYLE
1002
{
1070
   174
1070
     0
1070
   272
1070
     1
1070
   288
1070
     0
1070
   341
1005
0
1002
}
  0
LINE
  5
18F82
330
747D
100
AcDbEntity
  8
細線
 48
50.0
100
AcDbLine
 10
12251.07547047464
 20
4351.822878346193
 30
0.0
 11
12251.07547047464
 21
2261.822878346193
 31
0.0
  0
LINE
  5
18F83
330
747D
100
AcDbEntity
  8
細線
 48
50.0
100
AcDbLine
 10
12236.07547047464
 20
4351.822878346193
 30
0.0
 11
12236.07547047464
 21
2261.822878346193
 31
0.0
  0
LINE
  5
18F84
330
747D
100
AcDbEntity
  8
細線
 48
50.0
100
AcDbLine
 10
12376.07547047464
 20
4351.822878346193
 30
0.0
 11
12376.07547047464
 21
2261.822878346193
 31
0.0
  0
LINE
  5
18F85
330
747D
100
AcDbEntity
  8
細線
 48
50.0
100
AcDbLine
 10
12391.07547047464
 20
4351.822878346193
 30
0.0
 11
12391.07547047464
 21
2261.822878346193
 31
0.0
  0
LINE
  5
18F86
330
747D
100
AcDbEntity
  8
細線
 48
50.0
100
AcDbLine
 10
12531.07547047464
 20
4351.822878346193
 30
0.0
 11
12531.07547047464
 21
2261.822878346193
 31
0.0
  0
LINE
  5
18F87
330
747D
100
AcDbEntity
  8
細線
 48
50.0
100
AcDbLine
 10
12516.07547047464
 20
4351.822878346193
 30
0.0
 11
12516.07547047464
 21
2261.822878346193
 31
0.0
  0
LINE
  5
18F88
330
747D
100
AcDbEntity
  8
細線
 48
50.0
100
AcDbLine
 10
12936.07547047464
 20
4351.822878346193
 30
0.0
 11
12936.07547047464
 21
2261.822878346193
 31
0.0
  0
LINE
  5
18F89
330
747D
100
AcDbEntity
  8
細線
 48
50.0
100
AcDbLine
 10
12951.07547047464
 20
4351.822878346193
 30
0.0
 11
12951.07547047464
 21
2261.822878346193
 31
0.0
  0
LINE
  5
18F8A
330
747D
100
AcDbEntity
  8
細線
 48
50.0
100
AcDbLine
 10
12811.07547047464
 20
4351.822878346193
 30
0.0
 11
12811.07547047464
 21
2261.822878346193
 31
0.0
  0
LINE
  5
18F8B
330
747D
100
AcDbEntity
  8
細線
 48
50.0
100
AcDbLine
 10
12796.07547047464
 20
4351.822878346193
 30
0.0
 11
12796.07547047464
 21
2261.822878346193
 31
0.0
  0
LINE
  5
18F8C
330
747D
100
AcDbEntity
  8
細線
 48
50.0
100
AcDbLine
 10
12656.07547047464
 20
4351.822878346193
 30
0.0
 11
12656.07547047464
 21
2261.822878346193
 31
0.0
  0
LINE
  5
18F8D
330
747D
100
AcDbEntity
  8
細線
 48
50.0
100
AcDbLine
 10
12671.07547047464
 20
4351.822878346193
 30
0.0
 11
12671.07547047464
 21
2261.822878346193
 31
0.0
  0
DIMENSION
  5
18F8E
330
747D
100
AcDbEntity
  8
寸法
 48
50.0
100
AcDbDimension
  2
*D35
 10
12058.57547047464
 20
5215.593924711775
 30
0.0
 11
13863.57547047464
 21
5215.593924711775
 31
0.0
 70
   160
 71
     5
 42
3610.0
  3
INABA_S40G
100
AcDbAlignedDimension
 13
15668.57547047464
 23
4531.822878346194
 33
0.0
 14
12058.57547047464
 24
4586.822878346197
 34
0.0
100
AcDbRotatedDimension
1001
ACAD
1000
DSTYLE
1002
{
1070
   174
1070
     0
1070
   272
1070
     1
1070
   288
1070
     0
1070
   341
1005
0
1002
}
  0
DIMENSION
  5
18F8F
330
747D
100
AcDbEntity
  8
寸法
 48
50.0
100
AcDbDimension
  2
*D36
 10
12058.57547047464
 20
4985.480331925497
 30
0.0
 11
11748.93767519905
 21
4985.480331925497
 31
0.0
 70
   160
 71
     5
 42
60.0
  3
INABA_S40G
100
AcDbAlignedDimension
 13
12118.57547047464
 23
4582.824496469169
 33
0.0
 14
12058.57547047464
 24
4586.822878346197
 34
0.0
100
AcDbRotatedDimension
1001
ACAD
1000
DSTYLE
1002
{
1070
   174
1070
     0
1070
   272
1070
     1
1070
   288
1070
     0
1070
   341
1005
0
1002
}
  0
DIMENSION
  5
18F90
330
747D
100
AcDbEntity
  8
寸法
 48
50.0
100
AcDbDimension
  2
*D37
 10
12118.57547047464
 20
4985.480331925499
 30
0.0
 11
13853.57547047464
 21
4985.480331925499
 31
0.0
 70
   160
  1
柱外寸法<>
 71
     5
 42
3470.0
  3
INABA_S40G
100
AcDbAlignedDimension
 13
15588.57547047464
 23
4533.633557957847
 33
0.0
 14
12118.57547047464
 24
4582.824496469169
 34
0.0
100
AcDbRotatedDimension
1001
ACAD
1000
DSTYLE
1002
{
1070
   174
1070
     0
1070
   272
1070
     1
1070
   288
1070
     0
1070
   341
1005
0
1002
}
  0
LINE
  5
18F91
330
747D
100
AcDbEntity
  8
部品1
100
AcDbLine
 10
12593.57547047464
 20
4351.822878346193
 30
0.0
 11
12593.57547047464
 21
2261.822878346193
 31
0.0
  0
LINE
  5
18F92
330
747D
100
AcDbEntity
  8
細線
 48
50.0
100
AcDbLine
 10
13776.07547047464
 20
4351.822878346193
 30
0.0
 11
13776.07547047464
 21
2261.822878346193
 31
0.0
  0
LINE
  5
18F93
330
747D
100
AcDbEntity
  8
細線
 48
50.0
100
AcDbLine
 10
13791.07547047464
 20
4351.822878346193
 30
0.0
 11
13791.07547047464
 21
2261.822878346193
 31
0.0
  0
LINE
  5
18F94
330
747D
100
AcDbEntity
  8
細線
 48
50.0
100
AcDbLine
 10
13651.07547047464
 20
4351.822878346193
 30
0.0
 11
13651.07547047464
 21
2261.822878346193
 31
0.0
  0
LINE
  5
18F95
330
747D
100
AcDbEntity
  8
細線
 48
50.0
100
AcDbLine
 10
13636.07547047464
 20
4351.822878346193
 30
0.0
 11
13636.07547047464
 21
2261.822878346193
 31
0.0
  0
LINE
  5
18F96
330
747D
100
AcDbEntity
  8
細線
 48
50.0
100
AcDbLine
 10
13496.07547047464
 20
4351.822878346193
 30
0.0
 11
13496.07547047464
 21
2261.822878346193
 31
0.0
  0
LINE
  5
18F97
330
747D
100
AcDbEntity
  8
細線
 48
50.0
100
AcDbLine
 10
13511.07547047464
 20
4351.822878346193
 30
0.0
 11
13511.07547047464
 21
2261.822878346193
 31
0.0
  0
TEXT
  5
18F98
330
747D
100
AcDbEntity
  8
部品1
 48
50.0
100
AcDbText
 10
14179.47632836346
 20
4609.0919712845
 30
0.0
 40
120.0
  1
28
 50
90.0
  7
STYLE1
100
AcDbText
  0
TEXT
  5
18F99
330
747D
100
AcDbEntity
  8
部品1
 48
50.0
100
AcDbText
 10
13701.84330569836
 20
4746.593229502782
 30
0.0
 40
120.0
  1
1000
  7
STYLE1
100
AcDbText
  0
LINE
  5
18F9A
330
747D
100
AcDbEntity
  8
部品1
 48
50.0
100
AcDbLine
 10
14013.57547047464
 20
4710.709207350349
 30
0.0
 11
14013.57547047464
 21
4694.50920735035
 31
0.0
  0
LINE
  5
18F9B
330
747D
100
AcDbEntity
  8
部品1
 48
50.0
100
AcDbLine
 10
13713.57547047464
 20
4710.709207350349
 30
0.0
 11
14013.57547047464
 21
4710.709207350349
 31
0.0
  0
LINE
  5
18F9C
330
747D
100
AcDbEntity
  8
部品1
100
AcDbLine
 10
12066.12045683161
 20
4585.54061368046
 30
0.0
 11
15661.18734733611
 21
4530.463676055332
 31
0.0
  0
LINE
  5
18F9D
330
747D
100
AcDbEntity
  8
部品1
100
AcDbLine
 10
12073.91803507659
 20
4444.60390341516
 30
0.0
 11
15643.23917101449
 21
4405.575478180955
 31
0.0
  0
LINE
  5
18F9E
330
747D
100
AcDbEntity
  8
細線
 48
50.0
100
AcDbLine
 10
12091.57547047464
 20
4584.222554721598
 30
0.0
 11
12086.28636891913
 21
4444.136922094243
 31
0.0
  0
LINE
  5
18F9F
330
747D
100
AcDbEntity
  8
細線
 48
50.0
100
AcDbLine
 10
15635.54475366833
 20
4530.976300825662
 30
0.0
 11
15630.82778758665
 21
4406.044084890745
 31
0.0
  0
LINE
  5
18FA0
330
747D
100
AcDbEntity
  8
部品1
 48
50.0
100
AcDbLine
 10
12058.75975638775
 20
4578.416424510886
 30
0.0
 11
12059.14001616556
 21
4558.489460064474
 31
0.0
  0
LINE
  5
18FA1
330
747D
100
AcDbEntity
  8
部品1
 48
50.0
100
AcDbLine
 10
12062.20878827181
 20
4554.914178571002
 30
0.0
 11
12063.91268976317
 21
4465.623681864355
 31
0.0
  0
LINE
  5
18FA2
330
747D
100
AcDbEntity
  8
細線
 48
50.0
100
AcDbLine
 10
12059.61489357546
 20
4557.839960187554
 30
0.0
 11
15665.25087832063
 21
4502.215755546727
 31
0.0
  0
LINE
  5
18FA3
330
747D
100
AcDbEntity
  8
細線
 48
50.0
100
AcDbLine
 10
12064.37536881274
 20
4464.978448489691
 30
0.0
 11
15654.37903324338
 21
4425.169129515198
 31
0.0
  0
LINE
  5
18FA4
330
747D
100
AcDbEntity
  8
部品1
 48
50.0
100
AcDbLine
 10
12066.98146186941
 20
4462.048400370882
 30
0.0
 11
12067.18341448984
 21
4451.46536497779
 31
0.0
  0
ARC
  5
18FA5
330
747D
100
AcDbEntity
  8
部品1
 48
50.0
100
AcDbCircle
 10
12065.75848221609
 20
4578.549978918313
 30
0.0
 40
7.0
100
AcDbArc
 50
87.03587545283093
 51
181.0932240293156
  0
ARC
  5
18FA6
330
747D
100
AcDbEntity
  8
部品1
 48
50.0
100
AcDbCircle
 10
12074.18214031819
 20
4451.598919385218
 30
0.0
 40
7.0
100
AcDbArc
 50
181.0932240293156
 51
267.8377559869489
  0
ARC
  5
18FA7
330
747D
100
AcDbEntity
  8
部品1
100
AcDbCircle
 10
12063.98200794298
 20
4461.991162767699
 30
0.0
 40
3.0
100
AcDbArc
 50
1.093224029315636
 51
80.18775403169765
  0
ARC
  5
18FA8
330
747D
100
AcDbEntity
  8
部品1
100
AcDbCircle
 10
12059.20933434538
 20
4554.856940967819
 30
0.0
 40
3.0
100
AcDbArc
 50
1.093224029315636
 51
80.18775403169765
  0
ARC
  5
18FA9
330
747D
100
AcDbEntity
  8
部品1
100
AcDbCircle
 10
12059.8398887484
 20
4558.502815505216
 30
0.0
 40
0.7
100
AcDbArc
 50
181.0932240292114
 51
260.1877540314855
  0
ARC
  5
18FAA
330
747D
100
AcDbEntity
  8
部品1
100
AcDbCircle
 10
12064.61256234601
 20
4465.637037305096
 30
0.0
 40
0.7
100
AcDbArc
 50
181.0932240292635
 51
260.1877540314855
  0
LINE
  5
18FAB
330
747D
100
AcDbEntity
  8
部品1
 48
50.0
100
AcDbLine
 10
15667.78937328535
 20
4522.764030620412
 30
0.0
 11
15665.75875209438
 21
4502.818989362633
 31
0.0
  0
LINE
  5
18FAC
330
747D
100
AcDbEntity
  8
部品1
 48
50.0
100
AcDbLine
 10
15662.40618560989
 20
4499.508355289723
 30
0.0
 11
15654.89940634506
 21
4425.775734544711
 31
0.0
  0
LINE
  5
18FAD
330
747D
100
AcDbEntity
  8
部品1
 48
50.0
100
AcDbLine
 10
15651.54683986057
 20
4422.465100471799
 30
0.0
 11
15650.46727682083
 21
4411.86148347824
 31
0.0
  0
ARC
  5
18FAE
330
747D
100
AcDbEntity
  8
部品1
 48
50.0
100
AcDbCircle
 10
15660.82537272059
 20
4523.473041293186
 30
0.0
 40
7.0
100
AcDbArc
 50
354.1866997665596
 51
87.03587545283093
  0
ARC
  5
18FAF
330
747D
100
AcDbEntity
  8
部品1
 48
50.0
100
AcDbCircle
 10
15643.50327625608
 20
4412.570494151014
 30
0.0
 40
7.0
100
AcDbArc
 50
267.8377559869489
 51
354.1866997665596
  0
ARC
  5
18FB0
330
747D
100
AcDbEntity
  8
部品1
100
AcDbCircle
 10
15654.53141153118
 20
4422.161238754895
 30
0.0
 40
3.0
100
AcDbArc
 50
95.0921697642102
 51
174.1866997665596
  0
ARC
  5
18FB1
330
747D
100
AcDbEntity
  8
部品1
100
AcDbCircle
 10
15665.39075728051
 20
4499.20449357282
 30
0.0
 40
3.0
100
AcDbArc
 50
95.0921697642102
 51
174.1866997665596
  0
ARC
  5
18FB2
330
747D
100
AcDbEntity
  8
部品1
100
AcDbCircle
 10
15665.06235203791
 20
4502.889890429909
 30
0.0
 40
0.7
100
AcDbArc
 50
275.0921697642102
 51
354.1866997665596
  0
ARC
  5
18FB3
330
747D
100
AcDbEntity
  8
部品1
100
AcDbCircle
 10
15654.20300628858
 20
4425.846635611986
 30
0.0
 40
0.7
100
AcDbArc
 50
275.0921697642102
 51
354.1866997667087
  0
LINE
  5
18FB4
330
747D
100
AcDbEntity
  8
部品1
100
AcDbLine
 10
13688.12045683161
 20
4712.027266309211
 30
0.0
 11
14013.57547047464
 21
4694.50920735035
 31
0.0
  0
LINE
  5
18FB5
330
747D
100
AcDbEntity
  8
部品1
100
AcDbLine
 10
13853.57547047464
 20
4351.822878346193
 30
0.0
 11
13853.57547047464
 21
2261.822878346194
 31
0.0
  0
LINE
  5
18FB6
330
747D
100
AcDbEntity
  8
細線
 48
50.0
100
AcDbLine
 10
13931.07547047464
 20
4351.822878346193
 30
0.0
 11
13931.07547047464
 21
2261.822878346194
 31
0.0
  0
LINE
  5
18FB7
330
747D
100
AcDbEntity
  8
細線
 48
50.0
100
AcDbLine
 10
13916.07547047464
 20
4351.822878346193
 30
0.0
 11
13916.07547047464
 21
2261.822878346194
 31
0.0
  0
LINE
  5
18FB8
330
747D
100
AcDbEntity
  8
細線
 48
50.0
100
AcDbLine
 10
14056.07547047464
 20
4351.822878346193
 30
0.0
 11
14056.07547047464
 21
2261.822878346194
 31
0.0
  0
LINE
  5
18FB9
330
747D
100
AcDbEntity
  8
細線
 48
50.0
100
AcDbLine
 10
14071.07547047464
 20
4351.822878346193
 30
0.0
 11
14071.07547047464
 21
2261.822878346194
 31
0.0
  0
LINE
  5
18FBA
330
747D
100
AcDbEntity
  8
細線
 48
50.0
100
AcDbLine
 10
14211.07547047464
 20
4351.822878346193
 30
0.0
 11
14211.07547047464
 21
2261.822878346194
 31
0.0
  0
LINE
  5
18FBB
330
747D
100
AcDbEntity
  8
細線
 48
50.0
100
AcDbLine
 10
14196.07547047464
 20
4351.822878346193
 30
0.0
 11
14196.07547047464
 21
2261.822878346194
 31
0.0
  0
DIMENSION
  5
18FBC
330
747D
100
AcDbEntity
  8
寸法
100
AcDbDimension
  2
*D38
 10
10974.82534129138
 20
4586.822878346192
 30
0.0
 11
10874.81353026776
 21
3399.322878346193
 31
0.0
 70
    32
 71
     5
 42
2375.000000000005
  3
INABA_S40G
100
AcDbAlignedDimension
 13
12118.57547047464
 23
2211.822878346188
 33
0.0
 14
12058.57547047464
 24
4586.822878346192
 34
0.0
 50
90.0
100
AcDbRotatedDimension
1001
ACAD
1000
DSTYLE
1002
{
1070
   174
1070
     0
1070
   272
1070
     1
1070
   288
1070
     0
1070
   341
1005
0
1002
}
  0
MTEXT
  5
19796
330
747D
100
AcDbEntity
  8
寸法
 62
     7
 48
50.0
100
AcDbMText
 10
1713.453290872733
 20
9870.794973145931
 30
0.0
 40
96.0
 41
0.0
 71
     5
 72
     1
  1
棚 3段
  7
STYLE1
 73
     1
 44
1.0
1001
ACAD
1000
MTEXTBEGIN
1070
    73
1070
     1
1070
    44
1040
1.0
1070
    74
1070
     0
1000
MTEXTEND
  0
MTEXT
  5
19976
330
747D
100
AcDbEntity
  8
寸法
 62
     7
 48
50.0
100
AcDbMText
 10
3223.453290872729
 20
9870.794973145931
 30
0.0
 40
96.0
 41
0.0
 71
     5
 72
     1
  1
棚 3段
  7
STYLE1
 73
     1
 44
1.0
1001
ACAD
1000
MTEXTBEGIN
1070
    73
1070
     1
1070
    44
1040
1.0
1070
    74
1070
     0
1000
MTEXTEND
  0
MTEXT
  5
19977
330
747D
100
AcDbEntity
  8
寸法
 62
     7
 48
50.0
100
AcDbMText
 10
6273.453290872725
 20
9870.794973145931
 30
0.0
 40
96.0
 41
0.0
 71
     5
 72
     1
  1
棚 3段
  7
STYLE1
 73
     1
 44
1.0
1001
ACAD
1000
MTEXTBEGIN
1070
    73
1070
     1
1070
    44
1040
1.0
1070
    74
1070
     0
1000
MTEXTEND
  0
MTEXT
  5
19978
330
747D
100
AcDbEntity
  8
寸法
 62
     7
 48
50.0
100
AcDbMText
 10
4763.453290872729
 20
9870.794973145931
 30
0.0
 40
96.0
 41
0.0
 71
     5
 72
     1
  1
棚 3段
  7
STYLE1
 73
     1
 44
1.0
1001
ACAD
1000
MTEXTBEGIN
1070
    73
1070
     1
1070
    44
1040
1.0
1070
    74
1070
     0
1000
MTEXTEND
  0
MTEXT
  5
19979
330
747D
100
AcDbEntity
  8
寸法
 62
     7
 48
50.0
100
AcDbMText
 10
9323.453290872723
 20
9870.794973145928
 30
0.0
 40
96.0
 41
0.0
 71
     5
 72
     1
  1
棚 3段
  7
STYLE1
 73
     1
 44
1.0
1001
ACAD
1000
MTEXTBEGIN
1070
    73
1070
     1
1070
    44
1040
1.0
1070
    74
1070
     0
1000
MTEXTEND
  0
MTEXT
  5
1997A
330
747D
100
AcDbEntity
  8
寸法
 62
     7
 48
50.0
100
AcDbMText
 10
7813.453290872728
 20
9870.794973145928
 30
0.0
 40
96.0
 41
0.0
 71
     5
 72
     1
  1
棚 3段
  7
STYLE1
 73
     1
 44
1.0
1001
ACAD
1000
MTEXTBEGIN
1070
    73
1070
     1
1070
    44
1040
1.0
1070
    74
1070
     0
1000
MTEXTEND
  0
DIMENSION
  5
19B3E
330
747D
100
AcDbEntity
  8
寸法
100
AcDbDimension
  2
*D39
 10
8450.214246538777
 20
9462.951034423529
 30
0.0
 11
7647.029396208101
 21
9462.951034423529
 31
0.0
 70
   160
 71
     5
 42
1483.000000000013
  3
INABA_S40G
100
AcDbAlignedDimension
 13
7059.238092800088
 23
9806.388704178699
 33
0.0
 14
8542.238092800101
 24
9806.388704178692
 34
0.0
100
AcDbRotatedDimension
1001
ACAD
1000
DSTYLE
1002
{
1002
}
  0
DIMENSION
  5
19B41
330
747D
100
AcDbEntity
  8
寸法
100
AcDbDimension
  2
*D40
 10
9960.214246538777
 20
9462.951034423637
 30
0.0
 11
9093.676248716935
 21
9462.951034423637
 31
0.0
 70
   160
 71
     5
 42
1483.000000000013
  3
INABA_S40G
100
AcDbAlignedDimension
 13
8569.238092800086
 23
9806.388704178804
 33
0.0
 14
10052.2380928001
 24
9806.388704178797
 34
0.0
100
AcDbRotatedDimension
1001
ACAD
1000
DSTYLE
1002
{
1002
}
  0
TEXT
  5
19D64
330
747D
100
AcDbEntity
  8
文字
 62
     7
 48
50.0
100
AcDbText
 10
14388.89934209598
 20
483.8967129911416
 30
0.0
 40
160.0
  1
FXN-105HYL-N
  7
STYLE2
100
AcDbText
  0
DIMENSION
  5
19EA2
330
747D
100
AcDbEntity
  8
寸法
 48
50.0
100
AcDbDimension
  2
*D41
 10
10368.28119512184
 20
4159.822878346191
 30
0.0
 11
10268.28119512184
 21
3216.822878346194
 31
0.0
 70
    32
  1
有効開口部高サ <>
 71
     5
 42
1885.999999999998
  3
INABA_S40G
100
AcDbAlignedDimension
 13
10080.73809280009
 23
2273.822878346193
 33
0.0
 14
10080.73809280009
 24
4159.822878346192
 34
0.0
 50
90.0
100
AcDbRotatedDimension
  0
DIMENSION
  5
19EA3
330
747D
100
AcDbEntity
  8
寸法
 48
50.0
100
AcDbDimension
  2
*D42
 10
10368.28119512184
 20
4186.822878346194
 30
0.0
 11
10508.45101836821
 21
4187.790078185851
 31
0.0
 70
   160
 71
     5
 42
27.00000000000273
  3
INABA_S40G
100
AcDbAlignedDimension
 13
10080.73809280009
 23
4159.822878346192
 33
0.0
 14
10080.73809280009
 24
4186.822878346194
 34
0.0
 50
90.0
100
AcDbRotatedDimension
1001
ACAD
1000
DSTYLE
1002
{
1070
   279
1070
     2
1002
}
  0
DIMENSION
  5
19EA4
330
747D
100
AcDbEntity
  8
寸法
 48
50.0
100
AcDbDimension
  2
*D43
 10
10368.28119512184
 20
4351.822878346192
 30
0.0
 11
10368.28119512184
 21
4590.308159720432
 31
0.0
 70
   160
 71
     5
 42
164.9999999999982
  3
INABA_S40G
100
AcDbAlignedDimension
 13
10080.73809280009
 23
4186.822878346194
 33
0.0
 14
10080.73809280009
 24
4351.822878346193
 34
0.0
 50
90.0
100
AcDbRotatedDimension
1001
ACAD
1000
DSTYLE
1002
{
1002
}
  0
ARC
  5
1A0F0
330
747D
100
AcDbEntity
  8
部品1
 48
0.01
100
AcDbCircle
 10
2982.738092800099
 20
4384.322878346191
 30
0.0
 40
2.0
100
AcDbArc
 50
180.0
 51
270.0
  0
ARC
  5
1A0F1
330
747D
100
AcDbEntity
  8
部品1
 48
0.01
100
AcDbCircle
 10
3158.738092800099
 20
4384.322878346191
 30
0.0
 40
2.0
100
AcDbArc
 50
270.0
 51
0.0
  0
LINE
  5
1A0F2
330
747D
100
AcDbEntity
  8
部品1
 48
0.01
100
AcDbLine
 10
3158.738092800099
 20
4382.32287834619
 30
0.0
 11
2982.738092800099
 21
4382.32287834619
 31
0.0
  0
LINE
  5
1A0F3
330
747D
100
AcDbEntity
  8
部品1
 48
0.01
100
AcDbLine
 10
1752.738092800098
 20
4382.32287834619
 30
0.0
 11
1928.738092800095
 21
4382.32287834619
 31
0.0
  0
ARC
  5
1A0F4
330
747D
100
AcDbEntity
  8
部品1
 48
0.01
100
AcDbCircle
 10
1752.738092800098
 20
4384.322878346191
 30
0.0
 40
2.0
100
AcDbArc
 50
180.0
 51
270.0
  0
ARC
  5
1A0F5
330
747D
100
AcDbEntity
  8
部品1
 48
0.01
100
AcDbCircle
 10
1928.738092800095
 20
4384.322878346191
 30
0.0
 40
2.0
100
AcDbArc
 50
270.0
 51
0.0
  0
ARC
  5
1A0F6
330
747D
100
AcDbEntity
  8
部品1
 48
0.01
100
AcDbCircle
 10
2982.738092800099
 20
4415.82287834619
 30
0.0
 40
2.0
100
AcDbArc
 50
90.0
 51
180.0
  0
ARC
  5
1A0F7
330
747D
100
AcDbEntity
  8
部品1
 48
0.01
100
AcDbCircle
 10
3158.738092800099
 20
4415.82287834619
 30
0.0
 40
2.0
100
AcDbArc
 50
0.0
 51
90.0
  0
LINE
  5
1A0F8
330
747D
100
AcDbEntity
  8
細線
100
AcDbLine
 10
3070.738092800099
 20
4388.32287834619
 30
0.0
 11
2996.738092800099
 21
4388.32287834619
 31
0.0
  0
LINE
  5
1A0F9
330
747D
100
AcDbEntity
  8
細線
100
AcDbLine
 10
3070.738092800099
 20
4411.322878346191
 30
0.0
 11
3144.738092800098
 21
4411.322878346191
 31
0.0
  0
LINE
  5
1A0FA
330
747D
100
AcDbEntity
  8
細線
100
AcDbLine
 10
3144.738092800098
 20
4388.32287834619
 30
0.0
 11
3070.738092800099
 21
4388.32287834619
 31
0.0
  0
LINE
  5
1A0FB
330
747D
100
AcDbEntity
  8
細線
100
AcDbLine
 10
2996.738092800099
 20
4411.322878346191
 30
0.0
 11
3070.738092800099
 21
4411.322878346191
 31
0.0
  0
LINE
  5
1A0FC
330
747D
100
AcDbEntity
  8
細線
100
AcDbLine
 10
2996.738092800099
 20
4388.32287834619
 30
0.0
 11
2996.738092800099
 21
4411.322878346191
 31
0.0
  0
LINE
  5
1A0FD
330
747D
100
AcDbEntity
  8
細線
100
AcDbLine
 10
3144.738092800098
 20
4411.322878346191
 30
0.0
 11
3144.738092800098
 21
4388.32287834619
 31
0.0
  0
LINE
  5
1A0FE
330
747D
100
AcDbEntity
  8
部品1
 48
0.01
100
AcDbLine
 10
2980.738092800099
 20
4384.322878346191
 30
0.0
 11
2980.738092800099
 21
4415.82287834619
 31
0.0
  0
LINE
  5
1A0FF
330
747D
100
AcDbEntity
  8
部品1
 48
0.01
100
AcDbLine
 10
3160.738092800098
 20
4415.82287834619
 30
0.0
 11
3160.738092800098
 21
4384.322878346191
 31
0.0
  0
LINE
  5
1A100
330
747D
100
AcDbEntity
  8
部品1
 48
0.01
100
AcDbLine
 10
2982.738092800099
 20
4417.822878346191
 30
0.0
 11
3158.738092800099
 21
4417.822878346191
 31
0.0
  0
LINE
  5
1A101
330
747D
100
AcDbEntity
  8
細線
100
AcDbLine
 10
3144.738092800098
 20
4405.322878346191
 30
0.0
 11
3070.738092800099
 21
4405.322878346191
 31
0.0
  0
LINE
  5
1A102
330
747D
100
AcDbEntity
  8
細線
100
AcDbLine
 10
3144.738092800098
 20
4399.322878346191
 30
0.0
 11
3070.738092800099
 21
4399.322878346191
 31
0.0
  0
LINE
  5
1A103
330
747D
100
AcDbEntity
  8
細線
100
AcDbLine
 10
3144.738092800098
 20
4393.32287834619
 30
0.0
 11
3070.738092800099
 21
4393.32287834619
 31
0.0
  0
LINE
  5
1A104
330
747D
100
AcDbEntity
  8
細線
100
AcDbLine
 10
3144.738092800098
 20
4405.322878346191
 30
0.0
 11
3075.738092800099
 21
4405.322878346191
 31
0.0
  0
LINE
  5
1A105
330
747D
100
AcDbEntity
  8
細線
100
AcDbLine
 10
2996.738092800099
 20
4405.322878346191
 30
0.0
 11
3070.738092800099
 21
4405.322878346191
 31
0.0
  0
LINE
  5
1A106
330
747D
100
AcDbEntity
  8
細線
100
AcDbLine
 10
2996.738092800099
 20
4393.32287834619
 30
0.0
 11
3070.738092800099
 21
4393.32287834619
 31
0.0
  0
LINE
  5
1A107
330
747D
100
AcDbEntity
  8
細線
100
AcDbLine
 10
2996.738092800099
 20
4399.322878346191
 30
0.0
 11
3070.738092800099
 21
4399.322878346191
 31
0.0
  0
LINE
  5
1A108
330
747D
100
AcDbEntity
  8
細線
100
AcDbLine
 10
3070.738092800099
 20
4411.322878346191
 30
0.0
 11
3070.738092800099
 21
4388.32287834619
 31
0.0
  0
LINE
  5
1A109
330
747D
100
AcDbEntity
  8
細線
100
AcDbLine
 10
1840.738092800098
 20
4411.322878346191
 30
0.0
 11
1840.738092800094
 21
4388.32287834619
 31
0.0
  0
LINE
  5
1A10A
330
747D
100
AcDbEntity
  8
細線
100
AcDbLine
 10
1914.738092800095
 20
4399.322878346191
 30
0.0
 11
1840.738092800098
 21
4399.322878346191
 31
0.0
  0
LINE
  5
1A10B
330
747D
100
AcDbEntity
  8
細線
100
AcDbLine
 10
1914.738092800095
 20
4393.32287834619
 30
0.0
 11
1840.738092800098
 21
4393.32287834619
 31
0.0
  0
LINE
  5
1A10C
330
747D
100
AcDbEntity
  8
細線
100
AcDbLine
 10
1914.738092800095
 20
4405.322878346191
 30
0.0
 11
1840.738092800098
 21
4405.322878346191
 31
0.0
  0
LINE
  5
1A10D
330
747D
100
AcDbEntity
  8
細線
100
AcDbLine
 10
1766.738092800098
 20
4405.322878346191
 30
0.0
 11
1835.738092800098
 21
4405.322878346191
 31
0.0
  0
LINE
  5
1A10E
330
747D
100
AcDbEntity
  8
細線
100
AcDbLine
 10
1766.738092800095
 20
4393.32287834619
 30
0.0
 11
1840.738092800098
 21
4393.32287834619
 31
0.0
  0
LINE
  5
1A10F
330
747D
100
AcDbEntity
  8
細線
100
AcDbLine
 10
1766.738092800098
 20
4399.322878346191
 30
0.0
 11
1840.738092800098
 21
4399.322878346191
 31
0.0
  0
LINE
  5
1A110
330
747D
100
AcDbEntity
  8
細線
100
AcDbLine
 10
1766.738092800098
 20
4405.322878346191
 30
0.0
 11
1840.738092800098
 21
4405.322878346191
 31
0.0
  0
LINE
  5
1A111
330
747D
100
AcDbEntity
  8
部品1
 48
0.01
100
AcDbLine
 10
1928.738092800098
 20
4417.822878346191
 30
0.0
 11
1752.738092800098
 21
4417.822878346191
 31
0.0
  0
LINE
  5
1A112
330
747D
100
AcDbEntity
  8
部品1
 48
0.01
100
AcDbLine
 10
1750.738092800098
 20
4415.82287834619
 30
0.0
 11
1750.738092800098
 21
4384.322878346191
 31
0.0
  0
LINE
  5
1A113
330
747D
100
AcDbEntity
  8
部品1
 48
0.01
100
AcDbLine
 10
1930.738092800095
 20
4384.322878346191
 30
0.0
 11
1930.738092800098
 21
4415.82287834619
 31
0.0
  0
LINE
  5
1A114
330
747D
100
AcDbEntity
  8
細線
100
AcDbLine
 10
1766.738092800098
 20
4411.322878346191
 30
0.0
 11
1766.738092800098
 21
4388.32287834619
 31
0.0
  0
LINE
  5
1A115
330
747D
100
AcDbEntity
  8
細線
100
AcDbLine
 10
1914.738092800098
 20
4388.32287834619
 30
0.0
 11
1914.738092800098
 21
4411.322878346191
 31
0.0
  0
LINE
  5
1A116
330
747D
100
AcDbEntity
  8
細線
100
AcDbLine
 10
1914.738092800098
 20
4411.322878346191
 30
0.0
 11
1840.738092800098
 21
4411.322878346191
 31
0.0
  0
LINE
  5
1A117
330
747D
100
AcDbEntity
  8
細線
100
AcDbLine
 10
1766.738092800098
 20
4388.32287834619
 30
0.0
 11
1840.738092800098
 21
4388.32287834619
 31
0.0
  0
LINE
  5
1A118
330
747D
100
AcDbEntity
  8
細線
100
AcDbLine
 10
1840.738092800098
 20
4411.322878346191
 30
0.0
 11
1766.738092800098
 21
4411.322878346191
 31
0.0
  0
LINE
  5
1A119
330
747D
100
AcDbEntity
  8
細線
100
AcDbLine
 10
1840.738092800094
 20
4388.32287834619
 30
0.0
 11
1914.738092800098
 21
4388.32287834619
 31
0.0
  0
ARC
  5
1A11A
330
747D
100
AcDbEntity
  8
部品1
 48
0.01
100
AcDbCircle
 10
1752.738092800098
 20
4415.82287834619
 30
0.0
 40
2.0
100
AcDbArc
 50
90.0
 51
180.0
  0
ARC
  5
1A11B
330
747D
100
AcDbEntity
  8
部品1
 48
0.01
100
AcDbCircle
 10
1928.738092800098
 20
4415.82287834619
 30
0.0
 40
2.0
100
AcDbArc
 50
0.0
 51
90.0
  0
ARC
  5
1A240
330
747D
100
AcDbEntity
  8
部品1
 48
0.01
100
AcDbCircle
 10
4978.738092800095
 20
4415.82287834619
 30
0.0
 40
2.0
100
AcDbArc
 50
0.0
 51
90.0
  0
ARC
  5
1A241
330
747D
100
AcDbEntity
  8
部品1
 48
0.01
100
AcDbCircle
 10
4802.738092800095
 20
4415.82287834619
 30
0.0
 40
2.0
100
AcDbArc
 50
90.0
 51
180.0
  0
LINE
  5
1A242
330
747D
100
AcDbEntity
  8
細線
100
AcDbLine
 10
4890.738092800091
 20
4388.32287834619
 30
0.0
 11
4964.738092800095
 21
4388.32287834619
 31
0.0
  0
LINE
  5
1A243
330
747D
100
AcDbEntity
  8
細線
100
AcDbLine
 10
4890.738092800095
 20
4411.322878346191
 30
0.0
 11
4816.738092800095
 21
4411.322878346191
 31
0.0
  0
LINE
  5
1A244
330
747D
100
AcDbEntity
  8
細線
100
AcDbLine
 10
4816.738092800095
 20
4388.32287834619
 30
0.0
 11
4890.738092800095
 21
4388.32287834619
 31
0.0
  0
LINE
  5
1A245
330
747D
100
AcDbEntity
  8
細線
100
AcDbLine
 10
4964.738092800095
 20
4411.322878346191
 30
0.0
 11
4890.738092800095
 21
4411.322878346191
 31
0.0
  0
LINE
  5
1A246
330
747D
100
AcDbEntity
  8
細線
100
AcDbLine
 10
4964.738092800095
 20
4388.32287834619
 30
0.0
 11
4964.738092800095
 21
4411.322878346191
 31
0.0
  0
LINE
  5
1A247
330
747D
100
AcDbEntity
  8
細線
100
AcDbLine
 10
4816.738092800095
 20
4411.322878346191
 30
0.0
 11
4816.738092800095
 21
4388.32287834619
 31
0.0
  0
LINE
  5
1A248
330
747D
100
AcDbEntity
  8
部品1
 48
0.01
100
AcDbLine
 10
4980.738092800091
 20
4384.322878346191
 30
0.0
 11
4980.738092800095
 21
4415.82287834619
 31
0.0
  0
LINE
  5
1A249
330
747D
100
AcDbEntity
  8
部品1
 48
0.01
100
AcDbLine
 10
4800.738092800095
 20
4415.82287834619
 30
0.0
 11
4800.738092800095
 21
4384.322878346191
 31
0.0
  0
LINE
  5
1A24A
330
747D
100
AcDbEntity
  8
部品1
 48
0.01
100
AcDbLine
 10
4978.738092800095
 20
4417.822878346191
 30
0.0
 11
4802.738092800095
 21
4417.822878346191
 31
0.0
  0
LINE
  5
1A24B
330
747D
100
AcDbEntity
  8
細線
100
AcDbLine
 10
4816.738092800095
 20
4405.322878346191
 30
0.0
 11
4890.738092800095
 21
4405.322878346191
 31
0.0
  0
LINE
  5
1A24C
330
747D
100
AcDbEntity
  8
細線
100
AcDbLine
 10
4816.738092800095
 20
4399.322878346191
 30
0.0
 11
4890.738092800095
 21
4399.322878346191
 31
0.0
  0
LINE
  5
1A24D
330
747D
100
AcDbEntity
  8
細線
100
AcDbLine
 10
4816.738092800091
 20
4393.32287834619
 30
0.0
 11
4890.738092800095
 21
4393.32287834619
 31
0.0
  0
LINE
  5
1A24E
330
747D
100
AcDbEntity
  8
細線
100
AcDbLine
 10
4816.738092800095
 20
4405.322878346191
 30
0.0
 11
4885.738092800095
 21
4405.322878346191
 31
0.0
  0
LINE
  5
1A24F
330
747D
100
AcDbEntity
  8
細線
100
AcDbLine
 10
4964.738092800091
 20
4405.322878346191
 30
0.0
 11
4890.738092800095
 21
4405.322878346191
 31
0.0
  0
LINE
  5
1A250
330
747D
100
AcDbEntity
  8
細線
100
AcDbLine
 10
4964.738092800091
 20
4393.32287834619
 30
0.0
 11
4890.738092800095
 21
4393.32287834619
 31
0.0
  0
LINE
  5
1A251
330
747D
100
AcDbEntity
  8
細線
100
AcDbLine
 10
4964.738092800091
 20
4399.322878346191
 30
0.0
 11
4890.738092800095
 21
4399.322878346191
 31
0.0
  0
LINE
  5
1A252
330
747D
100
AcDbEntity
  8
細線
100
AcDbLine
 10
4890.738092800095
 20
4411.322878346191
 30
0.0
 11
4890.738092800091
 21
4388.32287834619
 31
0.0
  0
LINE
  5
1A253
330
747D
100
AcDbEntity
  8
細線
100
AcDbLine
 10
6120.738092800095
 20
4411.322878346191
 30
0.0
 11
6120.738092800095
 21
4388.32287834619
 31
0.0
  0
LINE
  5
1A254
330
747D
100
AcDbEntity
  8
細線
100
AcDbLine
 10
6046.738092800095
 20
4399.322878346191
 30
0.0
 11
6120.738092800095
 21
4399.322878346191
 31
0.0
  0
LINE
  5
1A255
330
747D
100
AcDbEntity
  8
細線
100
AcDbLine
 10
6046.738092800095
 20
4393.32287834619
 30
0.0
 11
6120.738092800095
 21
4393.32287834619
 31
0.0
  0
LINE
  5
1A256
330
747D
100
AcDbEntity
  8
細線
100
AcDbLine
 10
6046.738092800095
 20
4405.322878346191
 30
0.0
 11
6120.738092800095
 21
4405.322878346191
 31
0.0
  0
LINE
  5
1A257
330
747D
100
AcDbEntity
  8
細線
100
AcDbLine
 10
6194.738092800094
 20
4405.322878346191
 30
0.0
 11
6125.738092800094
 21
4405.322878346191
 31
0.0
  0
LINE
  5
1A258
330
747D
100
AcDbEntity
  8
細線
100
AcDbLine
 10
6194.738092800094
 20
4393.32287834619
 30
0.0
 11
6120.738092800095
 21
4393.32287834619
 31
0.0
  0
LINE
  5
1A259
330
747D
100
AcDbEntity
  8
細線
100
AcDbLine
 10
6194.738092800094
 20
4399.322878346191
 30
0.0
 11
6120.738092800095
 21
4399.322878346191
 31
0.0
  0
LINE
  5
1A25A
330
747D
100
AcDbEntity
  8
細線
100
AcDbLine
 10
6194.738092800094
 20
4405.322878346191
 30
0.0
 11
6120.738092800095
 21
4405.322878346191
 31
0.0
  0
LINE
  5
1A25B
330
747D
100
AcDbEntity
  8
部品1
 48
0.01
100
AcDbLine
 10
6032.738092800094
 20
4417.822878346191
 30
0.0
 11
6208.738092800095
 21
4417.822878346191
 31
0.0
  0
LINE
  5
1A25C
330
747D
100
AcDbEntity
  8
部品1
 48
0.01
100
AcDbLine
 10
6210.738092800095
 20
4415.82287834619
 30
0.0
 11
6210.738092800095
 21
4384.322878346191
 31
0.0
  0
LINE
  5
1A25D
330
747D
100
AcDbEntity
  8
部品1
 48
0.01
100
AcDbLine
 10
6030.738092800095
 20
4384.322878346191
 30
0.0
 11
6030.738092800095
 21
4415.82287834619
 31
0.0
  0
LINE
  5
1A25E
330
747D
100
AcDbEntity
  8
細線
100
AcDbLine
 10
6194.738092800094
 20
4411.322878346191
 30
0.0
 11
6194.738092800094
 21
4388.32287834619
 31
0.0
  0
LINE
  5
1A25F
330
747D
100
AcDbEntity
  8
細線
100
AcDbLine
 10
6046.738092800095
 20
4388.32287834619
 30
0.0
 11
6046.738092800095
 21
4411.322878346191
 31
0.0
  0
LINE
  5
1A260
330
747D
100
AcDbEntity
  8
細線
100
AcDbLine
 10
6046.738092800095
 20
4411.322878346191
 30
0.0
 11
6120.738092800095
 21
4411.322878346191
 31
0.0
  0
LINE
  5
1A261
330
747D
100
AcDbEntity
  8
細線
100
AcDbLine
 10
6194.738092800094
 20
4388.32287834619
 30
0.0
 11
6120.738092800095
 21
4388.32287834619
 31
0.0
  0
LINE
  5
1A262
330
747D
100
AcDbEntity
  8
細線
100
AcDbLine
 10
6120.738092800095
 20
4411.322878346191
 30
0.0
 11
6194.738092800094
 21
4411.322878346191
 31
0.0
  0
LINE
  5
1A263
330
747D
100
AcDbEntity
  8
細線
100
AcDbLine
 10
6120.738092800095
 20
4388.32287834619
 30
0.0
 11
6046.738092800095
 21
4388.32287834619
 31
0.0
  0
ARC
  5
1A264
330
747D
100
AcDbEntity
  8
部品1
 48
0.01
100
AcDbCircle
 10
6208.738092800095
 20
4415.82287834619
 30
0.0
 40
2.0
100
AcDbArc
 50
0.0
 51
90.0
  0
ARC
  5
1A265
330
747D
100
AcDbEntity
  8
部品1
 48
0.01
100
AcDbCircle
 10
6032.738092800094
 20
4415.82287834619
 30
0.0
 40
2.0
100
AcDbArc
 50
90.0
 51
180.0
  0
ARC
  5
1A266
330
747D
100
AcDbEntity
  8
部品1
 48
0.01
100
AcDbCircle
 10
4978.738092800091
 20
4384.322878346191
 30
0.0
 40
2.0
100
AcDbArc
 50
270.0
 51
0.0
  0
ARC
  5
1A267
330
747D
100
AcDbEntity
  8
部品1
 48
0.01
100
AcDbCircle
 10
4802.738092800095
 20
4384.322878346191
 30
0.0
 40
2.0
100
AcDbArc
 50
180.0
 51
270.0
  0
LINE
  5
1A268
330
747D
100
AcDbEntity
  8
部品1
 48
0.01
100
AcDbLine
 10
4802.738092800095
 20
4382.32287834619
 30
0.0
 11
4978.738092800091
 21
4382.32287834619
 31
0.0
  0
LINE
  5
1A269
330
747D
100
AcDbEntity
  8
部品1
 48
0.01
100
AcDbLine
 10
6208.738092800095
 20
4382.32287834619
 30
0.0
 11
6032.738092800094
 21
4382.32287834619
 31
0.0
  0
ARC
  5
1A26A
330
747D
100
AcDbEntity
  8
部品1
 48
0.01
100
AcDbCircle
 10
6208.738092800095
 20
4384.322878346191
 30
0.0
 40
2.0
100
AcDbArc
 50
270.0
 51
0.0
  0
ARC
  5
1A26B
330
747D
100
AcDbEntity
  8
部品1
 48
0.01
100
AcDbCircle
 10
6032.738092800094
 20
4384.322878346191
 30
0.0
 40
2.0
100
AcDbArc
 50
180.0
 51
270.0
  0
ARC
  5
1A26C
330
747D
100
AcDbEntity
  8
部品1
 48
0.01
100
AcDbCircle
 10
9082.738092800097
 20
4384.322878346191
 30
0.0
 40
2.0
100
AcDbArc
 50
180.0
 51
270.0
  0
ARC
  5
1A26D
330
747D
100
AcDbEntity
  8
部品1
 48
0.01
100
AcDbCircle
 10
9258.738092800097
 20
4384.322878346191
 30
0.0
 40
2.0
100
AcDbArc
 50
270.0
 51
0.0
  0
LINE
  5
1A26E
330
747D
100
AcDbEntity
  8
部品1
 48
0.01
100
AcDbLine
 10
9258.738092800097
 20
4382.32287834619
 30
0.0
 11
9082.738092800097
 21
4382.32287834619
 31
0.0
  0
LINE
  5
1A26F
330
747D
100
AcDbEntity
  8
部品1
 48
0.01
100
AcDbLine
 10
7852.738092800096
 20
4382.32287834619
 30
0.0
 11
8028.738092800093
 21
4382.32287834619
 31
0.0
  0
ARC
  5
1A270
330
747D
100
AcDbEntity
  8
部品1
 48
0.01
100
AcDbCircle
 10
7852.738092800096
 20
4384.322878346191
 30
0.0
 40
2.0
100
AcDbArc
 50
180.0
 51
270.0
  0
ARC
  5
1A271
330
747D
100
AcDbEntity
  8
部品1
 48
0.01
100
AcDbCircle
 10
8028.738092800093
 20
4384.322878346191
 30
0.0
 40
2.0
100
AcDbArc
 50
270.0
 51
0.0
  0
ARC
  5
1A272
330
747D
100
AcDbEntity
  8
部品1
 48
0.01
100
AcDbCircle
 10
9082.738092800097
 20
4415.82287834619
 30
0.0
 40
2.0
100
AcDbArc
 50
90.0
 51
180.0
  0
ARC
  5
1A273
330
747D
100
AcDbEntity
  8
部品1
 48
0.01
100
AcDbCircle
 10
9258.738092800097
 20
4415.82287834619
 30
0.0
 40
2.0
100
AcDbArc
 50
0.0
 51
90.0
  0
LINE
  5
1A274
330
747D
100
AcDbEntity
  8
細線
100
AcDbLine
 10
9170.738092800098
 20
4388.32287834619
 30
0.0
 11
9096.738092800096
 21
4388.32287834619
 31
0.0
  0
LINE
  5
1A275
330
747D
100
AcDbEntity
  8
細線
100
AcDbLine
 10
9170.738092800098
 20
4411.322878346191
 30
0.0
 11
9244.738092800096
 21
4411.322878346191
 31
0.0
  0
LINE
  5
1A276
330
747D
100
AcDbEntity
  8
細線
100
AcDbLine
 10
9244.738092800096
 20
4388.32287834619
 30
0.0
 11
9170.738092800098
 21
4388.32287834619
 31
0.0
  0
LINE
  5
1A277
330
747D
100
AcDbEntity
  8
細線
100
AcDbLine
 10
9096.738092800096
 20
4411.322878346191
 30
0.0
 11
9170.738092800098
 21
4411.322878346191
 31
0.0
  0
LINE
  5
1A278
330
747D
100
AcDbEntity
  8
細線
100
AcDbLine
 10
9096.738092800096
 20
4388.32287834619
 30
0.0
 11
9096.738092800096
 21
4411.322878346191
 31
0.0
  0
LINE
  5
1A279
330
747D
100
AcDbEntity
  8
細線
100
AcDbLine
 10
9244.738092800096
 20
4411.322878346191
 30
0.0
 11
9244.738092800096
 21
4388.32287834619
 31
0.0
  0
LINE
  5
1A27A
330
747D
100
AcDbEntity
  8
部品1
 48
0.01
100
AcDbLine
 10
9080.738092800096
 20
4384.322878346191
 30
0.0
 11
9080.738092800096
 21
4415.82287834619
 31
0.0
  0
LINE
  5
1A27B
330
747D
100
AcDbEntity
  8
部品1
 48
0.01
100
AcDbLine
 10
9260.738092800096
 20
4415.82287834619
 30
0.0
 11
9260.738092800096
 21
4384.322878346191
 31
0.0
  0
LINE
  5
1A27C
330
747D
100
AcDbEntity
  8
部品1
 48
0.01
100
AcDbLine
 10
9082.738092800097
 20
4417.822878346191
 30
0.0
 11
9258.738092800097
 21
4417.822878346191
 31
0.0
  0
LINE
  5
1A27D
330
747D
100
AcDbEntity
  8
細線
100
AcDbLine
 10
9244.738092800096
 20
4405.322878346191
 30
0.0
 11
9170.738092800098
 21
4405.322878346191
 31
0.0
  0
LINE
  5
1A27E
330
747D
100
AcDbEntity
  8
細線
100
AcDbLine
 10
9244.738092800096
 20
4399.322878346191
 30
0.0
 11
9170.738092800098
 21
4399.322878346191
 31
0.0
  0
LINE
  5
1A27F
330
747D
100
AcDbEntity
  8
細線
100
AcDbLine
 10
9244.738092800096
 20
4393.32287834619
 30
0.0
 11
9170.738092800098
 21
4393.32287834619
 31
0.0
  0
LINE
  5
1A280
330
747D
100
AcDbEntity
  8
細線
100
AcDbLine
 10
9244.738092800096
 20
4405.322878346191
 30
0.0
 11
9175.738092800097
 21
4405.322878346191
 31
0.0
  0
LINE
  5
1A281
330
747D
100
AcDbEntity
  8
細線
100
AcDbLine
 10
9096.738092800096
 20
4405.322878346191
 30
0.0
 11
9170.738092800098
 21
4405.322878346191
 31
0.0
  0
LINE
  5
1A282
330
747D
100
AcDbEntity
  8
細線
100
AcDbLine
 10
9096.738092800096
 20
4393.32287834619
 30
0.0
 11
9170.738092800098
 21
4393.32287834619
 31
0.0
  0
LINE
  5
1A283
330
747D
100
AcDbEntity
  8
細線
100
AcDbLine
 10
9096.738092800096
 20
4399.322878346191
 30
0.0
 11
9170.738092800098
 21
4399.322878346191
 31
0.0
  0
LINE
  5
1A284
330
747D
100
AcDbEntity
  8
細線
100
AcDbLine
 10
9170.738092800098
 20
4411.322878346191
 30
0.0
 11
9170.738092800098
 21
4388.32287834619
 31
0.0
  0
LINE
  5
1A285
330
747D
100
AcDbEntity
  8
細線
100
AcDbLine
 10
7940.738092800096
 20
4411.322878346191
 30
0.0
 11
7940.738092800093
 21
4388.32287834619
 31
0.0
  0
LINE
  5
1A286
330
747D
100
AcDbEntity
  8
細線
100
AcDbLine
 10
8014.738092800092
 20
4399.322878346191
 30
0.0
 11
7940.738092800096
 21
4399.322878346191
 31
0.0
  0
LINE
  5
1A287
330
747D
100
AcDbEntity
  8
細線
100
AcDbLine
 10
8014.738092800092
 20
4393.32287834619
 30
0.0
 11
7940.738092800096
 21
4393.32287834619
 31
0.0
  0
LINE
  5
1A288
330
747D
100
AcDbEntity
  8
細線
100
AcDbLine
 10
8014.738092800092
 20
4405.322878346191
 30
0.0
 11
7940.738092800096
 21
4405.322878346191
 31
0.0
  0
LINE
  5
1A289
330
747D
100
AcDbEntity
  8
細線
100
AcDbLine
 10
7866.738092800097
 20
4405.322878346191
 30
0.0
 11
7935.738092800097
 21
4405.322878346191
 31
0.0
  0
LINE
  5
1A28A
330
747D
100
AcDbEntity
  8
細線
100
AcDbLine
 10
7866.738092800094
 20
4393.32287834619
 30
0.0
 11
7940.738092800096
 21
4393.32287834619
 31
0.0
  0
LINE
  5
1A28B
330
747D
100
AcDbEntity
  8
細線
100
AcDbLine
 10
7866.738092800097
 20
4399.322878346191
 30
0.0
 11
7940.738092800096
 21
4399.322878346191
 31
0.0
  0
LINE
  5
1A28C
330
747D
100
AcDbEntity
  8
細線
100
AcDbLine
 10
7866.738092800097
 20
4405.322878346191
 30
0.0
 11
7940.738092800096
 21
4405.322878346191
 31
0.0
  0
LINE
  5
1A28D
330
747D
100
AcDbEntity
  8
部品1
 48
0.01
100
AcDbLine
 10
8028.738092800097
 20
4417.822878346191
 30
0.0
 11
7852.738092800096
 21
4417.822878346191
 31
0.0
  0
LINE
  5
1A28E
330
747D
100
AcDbEntity
  8
部品1
 48
0.01
100
AcDbLine
 10
7850.738092800097
 20
4415.82287834619
 30
0.0
 11
7850.738092800097
 21
4384.322878346191
 31
0.0
  0
LINE
  5
1A28F
330
747D
100
AcDbEntity
  8
部品1
 48
0.01
100
AcDbLine
 10
8030.738092800094
 20
4384.322878346191
 30
0.0
 11
8030.738092800097
 21
4415.82287834619
 31
0.0
  0
LINE
  5
1A290
330
747D
100
AcDbEntity
  8
細線
100
AcDbLine
 10
7866.738092800097
 20
4411.322878346191
 30
0.0
 11
7866.738092800097
 21
4388.32287834619
 31
0.0
  0
LINE
  5
1A291
330
747D
100
AcDbEntity
  8
細線
100
AcDbLine
 10
8014.738092800097
 20
4388.32287834619
 30
0.0
 11
8014.738092800097
 21
4411.322878346191
 31
0.0
  0
LINE
  5
1A292
330
747D
100
AcDbEntity
  8
細線
100
AcDbLine
 10
8014.738092800097
 20
4411.322878346191
 30
0.0
 11
7940.738092800096
 21
4411.322878346191
 31
0.0
  0
LINE
  5
1A293
330
747D
100
AcDbEntity
  8
細線
100
AcDbLine
 10
7866.738092800097
 20
4388.32287834619
 30
0.0
 11
7940.738092800096
 21
4388.32287834619
 31
0.0
  0
LINE
  5
1A294
330
747D
100
AcDbEntity
  8
細線
100
AcDbLine
 10
7940.738092800096
 20
4411.322878346191
 30
0.0
 11
7866.738092800097
 21
4411.322878346191
 31
0.0
  0
LINE
  5
1A295
330
747D
100
AcDbEntity
  8
細線
100
AcDbLine
 10
7940.738092800093
 20
4388.32287834619
 30
0.0
 11
8014.738092800097
 21
4388.32287834619
 31
0.0
  0
ARC
  5
1A296
330
747D
100
AcDbEntity
  8
部品1
 48
0.01
100
AcDbCircle
 10
7852.738092800096
 20
4415.82287834619
 30
0.0
 40
2.0
100
AcDbArc
 50
90.0
 51
180.0
  0
ARC
  5
1A297
330
747D
100
AcDbEntity
  8
部品1
 48
0.01
100
AcDbCircle
 10
8028.738092800097
 20
4415.82287834619
 30
0.0
 40
2.0
100
AcDbArc
 50
0.0
 51
90.0
  0
TEXT
  5
1A2E3
330
747D
100
AcDbEntity
  8
文字
 62
     7
 48
50.0
100
AcDbText
 10
14646.46056207479
 20
871.9640646083623
 30
0.0
 40
100.0
  1
～一般型～
  7
STYLE2
100
AcDbText
  0
DIMENSION
  5
1A2F7
330
747D
100
AcDbEntity
  8
寸法
 48
50.0
100
AcDbDimension
  2
*D44
 10
4035.738092800089
 20
6281.957933412632
 30
0.0
 11
4196.640063800151
 21
6381.957933412632
 31
0.0
 70
   160
 71
     5
 42
48.00000000000363
  3
INABA_S40G
100
AcDbAlignedDimension
 13
4083.738092800093
 23
6842.388704178796
 33
0.0
 14
4035.738092800089
 24
6816.388704178797
 34
0.0
100
AcDbRotatedDimension
1001
ACAD
1000
DSTYLE
1002
{
1070
   279
1070
     2
1002
}
  0
TEXT
  5
1A31B
330
747D
100
AcDbEntity
  8
文字
 62
     7
 48
50.0
100
AcDbText
 10
15022.63965474516
 20
9060.013745883727
 30
0.0
 40
100.0
  1
F12            0.7
  7
STYLE1
100
AcDbText
  0
LINE
  5
1A331
330
747D
100
AcDbEntity
  8
部品1
100
AcDbLine
 10
4035.738092800096
 20
2211.822878346193
 30
0.0
 11
6975.738092800092
 21
2211.822878346193
 31
0.0
  0
LINE
  5
1A332
330
747D
100
AcDbEntity
  8
部品1
100
AcDbLine
 10
4035.738092800096
 20
4186.822878346193
 30
0.0
 11
7085.738092800093
 21
4186.822878346191
 31
0.0
  0
LINE
  5
1A333
330
747D
100
AcDbEntity
  8
細線
100
AcDbLine
 10
4083.738092800089
 20
2791.822878346193
 30
0.0
 11
6927.738092800094
 21
2791.822878346193
 31
0.0
  0
LINE
  5
1A334
330
747D
100
AcDbEntity
  8
細線
100
AcDbLine
 10
4083.738092800089
 20
2726.822878346193
 30
0.0
 11
6927.738092800094
 21
2726.822878346193
 31
0.0
  0
LINE
  5
1A335
330
747D
100
AcDbEntity
  8
細線
100
AcDbLine
 10
4083.738092800089
 20
2661.822878346193
 30
0.0
 11
6927.738092800094
 21
2661.822878346193
 31
0.0
  0
LINE
  5
1A336
330
747D
100
AcDbEntity
  8
細線
100
AcDbLine
 10
4083.738092800089
 20
2596.822878346193
 30
0.0
 11
6927.738092800094
 21
2596.822878346193
 31
0.0
  0
LINE
  5
1A337
330
747D
100
AcDbEntity
  8
細線
100
AcDbLine
 10
4083.738092800089
 20
2531.822878346193
 30
0.0
 11
6927.738092800094
 21
2531.822878346193
 31
0.0
  0
LINE
  5
1A338
330
747D
100
AcDbEntity
  8
細線
100
AcDbLine
 10
4083.738092800089
 20
2466.822878346193
 30
0.0
 11
6927.738092800094
 21
2466.822878346193
 31
0.0
  0
LINE
  5
1A339
330
747D
100
AcDbEntity
  8
細線
100
AcDbLine
 10
4083.738092800089
 20
2401.822878346193
 30
0.0
 11
6927.738092800094
 21
2401.822878346193
 31
0.0
  0
LINE
  5
1A33A
330
747D
100
AcDbEntity
  8
細線
100
AcDbLine
 10
4083.738092800089
 20
2336.822878346193
 30
0.0
 11
6927.738092800094
 21
2336.822878346193
 31
0.0
  0
LINE
  5
1A33B
330
747D
100
AcDbEntity
  8
細線
100
AcDbLine
 10
4083.738092800089
 20
4091.822878346192
 30
0.0
 11
6927.738092800094
 21
4091.822878346192
 31
0.0
  0
LINE
  5
1A33C
330
747D
100
AcDbEntity
  8
細線
100
AcDbLine
 10
4083.738092800089
 20
4156.822878346193
 30
0.0
 11
6927.738092800094
 21
4156.822878346193
 31
0.0
  0
LINE
  5
1A33D
330
747D
100
AcDbEntity
  8
細線
100
AcDbLine
 10
4083.738092800089
 20
3441.822878346193
 30
0.0
 11
6927.738092800094
 21
3441.822878346193
 31
0.0
  0
LINE
  5
1A33E
330
747D
100
AcDbEntity
  8
細線
100
AcDbLine
 10
4083.738092800089
 20
3376.822878346193
 30
0.0
 11
6927.738092800094
 21
3376.822878346193
 31
0.0
  0
LINE
  5
1A33F
330
747D
100
AcDbEntity
  8
細線
100
AcDbLine
 10
4083.738092800089
 20
3311.822878346193
 30
0.0
 11
6927.738092800094
 21
3311.822878346193
 31
0.0
  0
LINE
  5
1A340
330
747D
100
AcDbEntity
  8
細線
100
AcDbLine
 10
4083.738092800089
 20
3246.822878346192
 30
0.0
 11
6927.738092800094
 21
3246.822878346192
 31
0.0
  0
LINE
  5
1A341
330
747D
100
AcDbEntity
  8
細線
100
AcDbLine
 10
4083.738092800089
 20
3181.822878346193
 30
0.0
 11
6927.738092800094
 21
3181.822878346193
 31
0.0
  0
LINE
  5
1A342
330
747D
100
AcDbEntity
  8
細線
100
AcDbLine
 10
4083.738092800089
 20
3116.822878346193
 30
0.0
 11
6927.738092800094
 21
3116.822878346193
 31
0.0
  0
LINE
  5
1A343
330
747D
100
AcDbEntity
  8
細線
100
AcDbLine
 10
4083.738092800089
 20
3051.822878346193
 30
0.0
 11
6927.738092800094
 21
3051.822878346193
 31
0.0
  0
LINE
  5
1A344
330
747D
100
AcDbEntity
  8
細線
100
AcDbLine
 10
4083.738092800089
 20
2986.822878346193
 30
0.0
 11
6927.738092800094
 21
2986.822878346193
 31
0.0
  0
LINE
  5
1A345
330
747D
100
AcDbEntity
  8
細線
100
AcDbLine
 10
4083.738092800089
 20
2921.822878346193
 30
0.0
 11
6927.738092800094
 21
2921.822878346193
 31
0.0
  0
LINE
  5
1A346
330
747D
100
AcDbEntity
  8
細線
100
AcDbLine
 10
4083.738092800089
 20
2856.822878346193
 30
0.0
 11
6927.738092800094
 21
2856.822878346193
 31
0.0
  0
LINE
  5
1A347
330
747D
100
AcDbEntity
  8
細線
100
AcDbLine
 10
4083.738092800089
 20
3831.822878346193
 30
0.0
 11
6927.738092800094
 21
3831.822878346193
 31
0.0
  0
LINE
  5
1A348
330
747D
100
AcDbEntity
  8
細線
100
AcDbLine
 10
4083.738092800089
 20
3766.822878346193
 30
0.0
 11
6927.738092800094
 21
3766.822878346193
 31
0.0
  0
LINE
  5
1A349
330
747D
100
AcDbEntity
  8
細線
100
AcDbLine
 10
4083.738092800089
 20
3701.822878346193
 30
0.0
 11
6927.738092800094
 21
3701.822878346193
 31
0.0
  0
LINE
  5
1A34A
330
747D
100
AcDbEntity
  8
細線
100
AcDbLine
 10
4083.738092800089
 20
3636.822878346193
 30
0.0
 11
6927.738092800094
 21
3636.822878346193
 31
0.0
  0
LINE
  5
1A34B
330
747D
100
AcDbEntity
  8
細線
100
AcDbLine
 10
4083.738092800089
 20
3571.822878346193
 30
0.0
 11
6927.738092800094
 21
3571.822878346193
 31
0.0
  0
LINE
  5
1A34C
330
747D
100
AcDbEntity
  8
細線
100
AcDbLine
 10
4083.738092800089
 20
3506.822878346193
 30
0.0
 11
6927.738092800094
 21
3506.822878346193
 31
0.0
  0
LINE
  5
1A34D
330
747D
100
AcDbEntity
  8
細線
100
AcDbLine
 10
4083.738092800089
 20
4026.822878346193
 30
0.0
 11
6927.738092800094
 21
4026.822878346193
 31
0.0
  0
LINE
  5
1A34E
330
747D
100
AcDbEntity
  8
細線
100
AcDbLine
 10
4083.738092800089
 20
3961.822878346193
 30
0.0
 11
6927.738092800094
 21
3961.822878346193
 31
0.0
  0
LINE
  5
1A34F
330
747D
100
AcDbEntity
  8
細線
100
AcDbLine
 10
4083.738092800089
 20
3896.822878346193
 30
0.0
 11
6927.738092800094
 21
3896.822878346193
 31
0.0
  0
LINE
  5
1A350
330
747D
100
AcDbEntity
  8
細線
100
AcDbLine
 10
6927.738092800097
 20
2271.822878346193
 30
0.0
 11
4083.738092800089
 21
2271.822878346193
 31
0.0
  0
LINE
  5
1A351
330
747D
100
AcDbEntity
  8
部品1
100
AcDbLine
 10
4035.738092800096
 20
2261.822878346193
 30
0.0
 11
6975.738092800092
 21
2261.822878346193
 31
0.0
  0
LINE
  5
1A352
330
747D
100
AcDbEntity
  8
細線
 48
50.0
100
AcDbLine
 10
5205.738092800093
 20
2839.322878346193
 30
0.0
 11
5305.738092800093
 21
2839.322878346193
 31
0.0
  0
LINE
  5
1A353
330
747D
100
AcDbEntity
  8
細線
 48
50.0
100
AcDbLine
 10
5305.738092800093
 20
2809.322878346193
 30
0.0
 11
5205.738092800093
 21
2809.322878346193
 31
0.0
  0
ARC
  5
1A354
330
747D
100
AcDbEntity
  8
細線
 48
50.0
100
AcDbCircle
 10
5205.738092800093
 20
2824.322878346193
 30
0.0
 40
15.0
100
AcDbArc
 50
90.0
 51
270.0
  0
ARC
  5
1A355
330
747D
100
AcDbEntity
  8
細線
 48
50.0
100
AcDbCircle
 10
5305.738092800093
 20
2824.322878346193
 30
0.0
 40
15.0
100
AcDbArc
 50
270.0
 51
90.0
  0
LINE
  5
1A356
330
747D
100
AcDbEntity
  8
細線
 48
50.0
100
AcDbLine
 10
5805.738092800093
 20
2809.322878346193
 30
0.0
 11
5705.738092800093
 21
2809.322878346193
 31
0.0
  0
LINE
  5
1A357
330
747D
100
AcDbEntity
  8
細線
 48
50.0
100
AcDbLine
 10
5705.738092800093
 20
2839.322878346193
 30
0.0
 11
5805.738092800093
 21
2839.322878346193
 31
0.0
  0
ARC
  5
1A358
330
747D
100
AcDbEntity
  8
細線
 48
50.0
100
AcDbCircle
 10
5705.738092800093
 20
2824.322878346193
 30
0.0
 40
15.0
100
AcDbArc
 50
90.0
 51
270.0
  0
ARC
  5
1A359
330
747D
100
AcDbEntity
  8
細線
 48
50.0
100
AcDbCircle
 10
5805.738092800093
 20
2824.322878346193
 30
0.0
 40
15.0
100
AcDbArc
 50
270.0
 51
90.0
  0
CIRCLE
  5
1A35A
330
747D
100
AcDbEntity
  8
細線
 48
50.0
100
AcDbCircle
 10
5505.738092800093
 20
3149.322878346193
 30
0.0
 40
18.0
  0
LINE
  5
1A35B
330
747D
100
AcDbEntity
  8
破線
 48
10.0
100
AcDbLine
 10
5530.738092800199
 20
6971.388704178711
 30
0.0
 11
6208.238092800201
 21
6971.388704178671
 31
0.0
  0
LINE
  5
1A35C
330
747D
100
AcDbEntity
  8
破線
 48
10.0
100
AcDbLine
 10
4803.238092800198
 20
6971.388704178751
 30
0.0
 11
5480.7380928002
 21
6971.388704178714
 31
0.0
  0
LINE
  5
1A35D
330
747D
100
AcDbEntity
  8
破線
 48
10.0
100
AcDbLine
 10
5530.738092800199
 20
6946.388704178794
 30
0.0
 11
5530.738092800186
 21
9806.388704178905
 31
0.0
  0
LINE
  5
1A35E
330
747D
100
AcDbEntity
  8
破線
 48
10.0
100
AcDbLine
 10
5480.7380928002
 20
6946.388704178797
 30
0.0
 11
5480.738092800186
 21
9806.388704178905
 31
0.0
  0
LINE
  5
1A35F
330
747D
100
AcDbEntity
  8
部品1
 48
50.0
100
AcDbLine
 10
5505.738092800158
 20
9806.388704178907
 30
0.0
 11
5505.7380928002
 21
6946.388704178795
 31
0.0
  0
LINE
  5
1A360
330
747D
100
AcDbEntity
  8
部品1
 48
50.0
100
AcDbLine
 10
4047.738092800093
 20
6861.888704178794
 30
0.0
 11
6963.738092800077
 21
6861.888704178794
 31
0.0
  0
LINE
  5
1A361
330
747D
100
AcDbEntity
  8
部品1
 48
50.0
100
AcDbLine
 10
4035.738092800093
 20
6946.388704178795
 30
0.0
 11
6975.738092800078
 21
6946.388704178795
 31
0.0
  0
LINE
  5
1A362
330
747D
100
AcDbEntity
  8
部品1
 48
50.0
100
AcDbLine
 10
4035.738092800093
 20
6901.388704178796
 30
0.0
 11
6975.738092800078
 21
6901.388704178796
 31
0.0
  0
LINE
  5
1A363
330
747D
100
AcDbEntity
  8
部品1
 48
50.0
100
AcDbLine
 10
4035.738092800089
 20
6816.388704178797
 30
0.0
 11
6975.738092800078
 21
6816.388704178784
 31
0.0
  0
LINE
  5
1A364
330
747D
100
AcDbEntity
  8
部品1
100
AcDbLine
 10
6975.738092800108
 20
7711.3887041789
 30
0.0
 11
4035.738092800082
 21
7711.388704178901
 31
0.0
  0
LINE
  5
1A365
330
747D
100
AcDbEntity
  8
部品1
100
AcDbLine
 10
6975.738092800108
 20
7291.388704178899
 30
0.0
 11
4035.738092800082
 21
7291.388704178901
 31
0.0
  0
LINE
  5
1A366
330
747D
100
AcDbEntity
  8
部品1
100
AcDbLine
 10
6975.738092800108
 20
8131.388704178899
 30
0.0
 11
4035.738092800082
 21
8131.388704178901
 31
0.0
  0
LINE
  5
1A367
330
747D
100
AcDbEntity
  8
部品1
100
AcDbLine
 10
6975.738092800108
 20
8551.388704178899
 30
0.0
 11
4035.738092800082
 21
8551.388704178902
 31
0.0
  0
LINE
  5
1A368
330
747D
100
AcDbEntity
  8
部品1
100
AcDbLine
 10
6975.738092800108
 20
8971.388704178899
 30
0.0
 11
4035.738092800082
 21
8971.388704178902
 31
0.0
  0
LINE
  5
1A369
330
747D
100
AcDbEntity
  8
部品1
100
AcDbLine
 10
6975.738092800106
 20
9391.388704178899
 30
0.0
 11
4035.738092800079
 21
9391.388704178902
 31
0.0
  0
LINE
  5
1A370
330
747D
100
AcDbEntity
  8
部品1
 48
50.0
100
AcDbLine
 10
5931.1074357845
 20
4736.822878346195
 30
0.0
 11
5160.753507545024
 21
1861.822878346193
 31
0.0
  0
SPLINE
  5
1A371
330
747D
100
AcDbEntity
  8
部品1
 48
50.0
100
AcDbSpline
210
0.0
220
0.0
230
1.0
 70
     8
 71
     3
 72
    10
 73
     6
 74
     4
 42
0.0000000001
 43
0.0000000001
 44
0.0000000001
 40
0.0
 40
0.0
 40
0.0
 40
0.0
 40
147.8767566010009
 40
301.8091093202477
 40
466.5049223087734
 40
466.5049223087734
 40
466.5049223087734
 40
466.5049223087734
 10
5573.308420533145
 20
3230.564030871987
 30
0.0
 10
5496.42673803831
 20
3221.659597214149
 30
0.0
 10
5339.515045828182
 20
3203.486090754817
 30
0.0
 10
5662.328455772526
 20
3100.965506115473
 30
0.0
 10
5492.485836103153
 20
3082.33041740327
 30
0.0
 10
5404.695830896258
 20
3072.698120525962
 30
0.0
 11
5573.308420533145
 21
3230.564030871987
 31
0.0
 11
5430.470442224375
 21
3192.290709935658
 31
0.0
 11
5563.77977014355
 21
3115.324533576035
 31
0.0
 11
5404.695830896258
 21
3072.698120525962
 31
0.0
  0
SPLINE
  5
1A380
330
747D
100
AcDbEntity
  8
部品1
 48
50.0
100
AcDbSpline
210
0.0
220
0.0
230
1.0
 70
     8
 71
     3
 72
    10
 73
     6
 74
     4
 42
0.0000000001
 43
0.0000000001
 44
0.0000000001
 40
0.0
 40
0.0
 40
0.0
 40
0.0
 40
147.8767566010009
 40
301.8091093202477
 40
466.5049223087734
 40
466.5049223087734
 40
466.5049223087734
 40
466.5049223087734
 10
5573.308420533231
 20
8632.629856704703
 30
0.0
 10
5496.426738038395
 20
8623.725423046867
 30
0.0
 10
5339.515045828267
 20
8605.551916587534
 30
0.0
 10
5662.328455772613
 20
8503.031331948191
 30
0.0
 10
5492.485836103239
 20
8484.396243235988
 30
0.0
 10
5404.695830896343
 20
8474.763946358677
 30
0.0
 11
5573.308420533231
 21
8632.629856704703
 31
0.0
 11
5430.470442224461
 21
8594.356535768374
 31
0.0
 11
5563.779770143636
 21
8517.390359408752
 31
0.0
 11
5404.695830896343
 21
8474.763946358677
 31
0.0
  0
LINE
  5
1A381
330
747D
100
AcDbEntity
  8
部品1
 48
50.0
100
AcDbLine
 10
6011.492193513923
 20
10438.88870417891
 30
0.0
 11
4979.887802654054
 21
6588.888704178728
 31
0.0
  0
LINE
  5
1A393
330
747D
100
AcDbEntity
  8
破線
 48
5.0
100
AcDbLine
 10
4035.738092800093
 20
1936.822878346193
 30
0.0
 11
3925.738092800095
 21
1936.822878346193
 31
0.0
  0
LINE
  5
1A394
330
747D
100
AcDbEntity
  8
破線
 48
5.0
100
AcDbLine
 10
3925.738092800094
 20
2111.822878346193
 30
0.0
 11
3925.738092800095
 21
1936.822878346193
 31
0.0
  0
LINE
  5
1A395
330
747D
100
AcDbEntity
  8
破線
 48
5.0
100
AcDbLine
 10
4035.738092800094
 20
2111.822878346193
 30
0.0
 11
4035.738092800094
 21
1936.822878346193
 31
0.0
  0
LINE
  5
1A396
330
747D
100
AcDbEntity
  8
破線
 48
5.0
100
AcDbLine
 10
3980.738092800095
 20
1936.822878346193
 30
0.0
 11
3980.738092800095
 21
1861.822878346193
 31
0.0
  0
LINE
  5
1A39F
330
747D
100
AcDbEntity
  8
破線
 48
5.0
100
AcDbLine
 10
7085.738092800093
 20
1936.822878346193
 30
0.0
 11
6975.738092800096
 21
1936.822878346193
 31
0.0
  0
LINE
  5
1A3A0
330
747D
100
AcDbEntity
  8
破線
 48
5.0
100
AcDbLine
 10
6975.738092800092
 20
2111.822878346193
 30
0.0
 11
6975.738092800096
 21
1936.822878346193
 31
0.0
  0
LINE
  5
1A3A1
330
747D
100
AcDbEntity
  8
破線
 48
5.0
100
AcDbLine
 10
7085.738092800095
 20
2111.822878346193
 30
0.0
 11
7085.738092800095
 21
1936.822878346193
 31
0.0
  0
LINE
  5
1A3A2
330
747D
100
AcDbEntity
  8
破線
 48
5.0
100
AcDbLine
 10
7030.738092800095
 20
1936.822878346193
 30
0.0
 11
7030.738092800095
 21
1861.822878346193
 31
0.0
  0
ENDSEC
  0
SECTION
  2
OBJECTS
  0
DICTIONARY
  5
7471
330
0
100
AcDbDictionary
281
     1
  3
ACAD_COLOR
350
183A1
  3
ACAD_GROUP
350
7472
  3
ACAD_LAYOUT
350
183A2
  3
ACAD_MATERIAL
350
183A0
  3
ACAD_MLINESTYLE
350
7473
  3
ACAD_PLOTSETTINGS
350
183A3
  3
ACAD_PLOTSTYLENAME
350
1839E
  3
ACDBHEADERROUNDTRIPXREC
350
1A3D7
  3
AcDbVariableDictionary
350
1A3D3
  3
CONTENTDICTIONARY
350
E71C
  3
DRAWINGVARIABLESDICT
350
F3B9
  0
DICTIONARY
  5
18A29
330
7467
100
AcDbDictionary
280
     1
281
     1
  3
ACAD_LAYERSTATES
360
18A2A
  0
DICTIONARY
  5
183A1
102
{ACAD_REACTORS
330
7471
102
}
330
7471
100
AcDbDictionary
281
     1
  0
DICTIONARY
  5
7472
102
{ACAD_REACTORS
330
7471
102
}
330
7471
100
AcDbDictionary
281
     1
  0
DICTIONARY
  5
183A2
102
{ACAD_REACTORS
330
7471
102
}
330
7471
100
AcDbDictionary
281
     1
  3
Model
350
183A4
  3
レイアウト1
350
183A5
  0
DICTIONARY
  5
183A0
102
{ACAD_REACTORS
330
7471
102
}
330
7471
100
AcDbDictionary
281
     1
  0
DICTIONARY
  5
7473
102
{ACAD_REACTORS
330
7471
102
}
330
7471
100
AcDbDictionary
281
     1
  3
STANDARD
350
7480
  0
DICTIONARY
  5
183A3
102
{ACAD_REACTORS
330
7471
102
}
330
7471
100
AcDbDictionary
281
     1
  0
ACDBDICTIONARYWDFLT
  5
1839E
102
{ACAD_REACTORS
330
7471
102
}
330
7471
100
AcDbDictionary
281
     1
  3
Normal
350
1839F
100
AcDbDictionaryWithDefault
340
1839F
  0
DICTIONARY
  5
1A3D7
102
{ACAD_REACTORS
330
7471
102
}
330
7471
100
AcDbDictionary
281
     1
  3
COLORDICT
350
1A3D9
  3
MATERIALDICT
350
1A3D8
  0
DICTIONARY
  5
1A3D3
102
{ACAD_REACTORS
330
7471
102
}
330
7471
100
AcDbDictionary
281
     1
  3
DIMASSOC
350
1A3D4
  3
PROJECTNAME
350
1A3D5
  0
DICTIONARY
  5
E71C
102
{ACAD_REACTORS
330
7471
102
}
330
7471
100
AcDbDictionary
281
     1
  0
DICTIONARY
  5
F3B9
102
{ACAD_REACTORS
330
7471
102
}
330
7471
100
AcDbDictionary
281
     1
1001
DRAWINGVARIABLESXDATA
1000
POLARMODE
1000
1
  0
DICTIONARY
  5
18A2A
102
{ACAD_REACTORS
330
18A29
102
}
330
18A29
100
AcDbDictionary
281
     1
  0
LAYOUT
  5
183A4
102
{ACAD_XDICTIONARY
360
1A3DA
102
}
102
{ACAD_REACTORS
330
183A2
102
}
330
183A2
100
AcDbPlotSettings
  1

  2
none_device
  4
Letter_(8.50_x_11.00_Inches)
  6

 40
6.349999904632568
 41
6.349999904632568
 42
6.350006103515625
 43
6.350006103515625
 44
215.8999938964844
 45
279.3999938964844
 46
0.0
 47
0.0
 48
0.0
 49
0.0
140
0.0
141
0.0
142
1.0
143
1.0
 70
 11952
 72
     1
 73
     1
 74
     0
  7
inaba.ctb
 75
     0
147
1.0
148
-2464.779774247707
149
54.18477585042729
100
AcDbLayout
  1
Model
 70
     1
 71
     0
 10
0.0
 20
0.0
 11
12.0
 21
9.0
 12
0.0
 22
0.0
 32
0.0
 14
0.0
 24
0.0
 34
0.0
 15
0.0
 25
0.0
 35
0.0
146
0.0
 13
0.0
 23
0.0
 33
0.0
 16
1.0
 26
0.0
 36
0.0
 17
0.0
 27
1.0
 37
0.0
 76
     0
330
747D
  0
LAYOUT
  5
183A5
102
{ACAD_XDICTIONARY
360
1A3DC
102
}
102
{ACAD_REACTORS
330
183A2
102
}
330
183A2
100
AcDbPlotSettings
  1

  2
EPSON LP-8300
  4

  6

 40
0.0
 41
0.0
 42
0.0
 43
0.0
 44
0.0
 45
0.0
 46
0.0
 47
0.0
 48
0.0
 49
0.0
140
0.0
141
0.0
142
1.0
143
1.0
 70
   688
 72
     0
 73
     0
 74
     5
  7
inaba.ctb
 75
    16
147
1.0
148
0.0
149
0.0
100
AcDbLayout
  1
レイアウト1
 70
     0
 71
     1
 10
0.0
 20
0.0
 11
420.0
 21
297.0
 12
0.0
 22
0.0
 32
0.0
 14
1.000000000000000E+20
 24
1.000000000000000E+20
 34
1.000000000000000E+20
 15
-1.000000000000000E+20
 25
-1.000000000000000E+20
 35
-1.000000000000000E+20
146
0.0
 13
0.0
 23
0.0
 33
0.0
 16
1.0
 26
0.0
 36
0.0
 17
0.0
 27
1.0
 37
0.0
 76
     0
330
747A
  0
MLINESTYLE
  5
7480
102
{ACAD_REACTORS
330
7473
102
}
330
7473
100
AcDbMlineStyle
  2
STANDARD
 70
     0
  3

 62
     0
 51
90.0
 52
90.0
 71
     2
 49
0.5
 62
   256
  6
BYLAYER
 49
-0.5
 62
   256
  6
BYLAYER
  0
ACDBPLACEHOLDER
  5
1839F
102
{ACAD_REACTORS
330
1839E
102
}
330
1839E
  0
XRECORD
  5
1A3D9
102
{ACAD_REACTORS
330
1A3D7
102
}
330
1A3D7
100
AcDbXrecord
280
     1
340
183A1
  0
XRECORD
  5
1A3D8
102
{ACAD_REACTORS
330
1A3D7
102
}
330
1A3D7
100
AcDbXrecord
280
     1
340
183A0
  0
DICTIONARYVAR
  5
1A3D4
102
{ACAD_REACTORS
330
1A3D3
102
}
330
1A3D3
100
DictionaryVariables
280
     0
  1
1
  0
DICTIONARYVAR
  5
1A3D5
102
{ACAD_REACTORS
330
1A3D3
102
}
330
1A3D3
100
DictionaryVariables
280
     0
  1

  0
DICTIONARY
  5
1A3DA
330
183A4
100
AcDbDictionary
280
     1
281
     1
  3
ACAD_XREC_ROUNDTRIP
360
1A3DB
  0
DICTIONARY
  5
1A3DC
330
183A5
100
AcDbDictionary
280
     1
281
     1
  3
ACAD_XREC_ROUNDTRIP
360
1A3DD
  0
XRECORD
  5
1A3DB
102
{ACAD_REACTORS
330
1A3DA
102
}
330
1A3DA
100
AcDbXrecord
280
     1
102
SHADEPLOT
 70
     0
102
SHADEPLOTRESLEVEL
 70
     2
102
SHADEPLOTCUSTOMDPI
 70
   300
  0
XRECORD
  5
1A3DD
102
{ACAD_REACTORS
330
1A3DC
102
}
330
1A3DC
100
AcDbXrecord
280
     1
102
SHADEPLOT
 70
     0
102
SHADEPLOTRESLEVEL
 70
     2
102
SHADEPLOTCUSTOMDPI
 70
   300
  0
ENDSEC
  0
EOF
