  0
SECTION
  2
HEADER
  9
$ACADVER
  1
AC1015
  9
$ACADMAINTVER
 70
    20
  9
$DWGCODEPAGE
  3
ANSI_932
  9
$INSBASE
 10
0.0
 20
0.0
 30
0.0
  9
$EXTMIN
 10
139.9999999999995
 20
-0.0000000000000909
 30
0.0
  9
$EXTMAX
 10
16307.2
 20
11409.6
 30
0.0
  9
$LIMMIN
 10
-183.0179068595971
 20
-160.3342785227505
  9
$LIMMAX
 10
16374.07536659319
 20
11592.19044584975
  9
$ORTHOMODE
 70
     0
  9
$REGENMODE
 70
     1
  9
$FILLMODE
 70
     1
  9
$QTEXTMODE
 70
     0
  9
$MIRRTEXT
 70
     1
  9
$LTSCALE
 40
20.0
  9
$ATTMODE
 70
     1
  9
$TEXTSIZE
 40
100.0
  9
$TRACEWID
 40
1.0
  9
$TEXTSTYLE
  7
STYLE2
  9
$CLAYER
  8
部品1
  9
$CELTYPE
  6
BYLAYER
  9
$CECOLOR
 62
   256
  9
$CELTSCALE
 40
50.0
  9
$DISPSILH
 70
     0
  9
$DIMSCALE
 40
40.0
  9
$DIMASZ
 40
2.5
  9
$DIMEXO
 40
0.5
  9
$DIMDLI
 40
7.0
  9
$DIMRND
 40
0.0
  9
$DIMDLE
 40
0.0
  9
$DIMEXE
 40
1.5
  9
$DIMTP
 40
0.0
  9
$DIMTM
 40
0.0
  9
$DIMTXT
 40
3.0
  9
$DIMCEN
 40
0.0
  9
$DIMTSZ
 40
0.0
  9
$DIMTOL
 70
     0
  9
$DIMLIM
 70
     0
  9
$DIMTIH
 70
     0
  9
$DIMTOH
 70
     0
  9
$DIMSE1
 70
     0
  9
$DIMSE2
 70
     0
  9
$DIMTAD
 70
     3
  9
$DIMZIN
 70
     8
  9
$DIMBLK
  1

  9
$DIMASO
 70
     1
  9
$DIMSHO
 70
     1
  9
$DIMPOST
  1

  9
$DIMAPOST
  1

  9
$DIMALT
 70
     0
  9
$DIMALTD
 70
     2
  9
$DIMALTF
 40
0.0394
  9
$DIMLFAC
 40
1.0
  9
$DIMTOFL
 70
     1
  9
$DIMTVP
 40
0.0
  9
$DIMTIX
 70
     1
  9
$DIMSOXD
 70
     0
  9
$DIMSAH
 70
     1
  9
$DIMBLK1
  1
DOTSMALL
  9
$DIMBLK2
  1
DOTSMALL
  9
$DIMSTYLE
  2
INABA_S40G
  9
$DIMCLRD
 70
     0
  9
$DIMCLRE
 70
     0
  9
$DIMCLRT
 70
     7
  9
$DIMTFAC
 40
1.0
  9
$DIMGAP
 40
1.0
  9
$DIMJUST
 70
     0
  9
$DIMSD1
 70
     0
  9
$DIMSD2
 70
     0
  9
$DIMTOLJ
 70
     1
  9
$DIMTZIN
 70
     0
  9
$DIMALTZ
 70
     0
  9
$DIMALTTZ
 70
     0
  9
$DIMUPT
 70
     0
  9
$DIMDEC
 70
     1
  9
$DIMTDEC
 70
     4
  9
$DIMALTU
 70
     2
  9
$DIMALTTD
 70
     2
  9
$DIMTXSTY
  7
STYLE1
  9
$DIMAUNIT
 70
     0
  9
$DIMADEC
 70
     0
  9
$DIMALTRND
 40
0.0
  9
$DIMAZIN
 70
     0
  9
$DIMDSEP
 70
    46
  9
$DIMATFIT
 70
     3
  9
$DIMFRAC
 70
     0
  9
$DIMLDRBLK
  1

  9
$DIMLUNIT
 70
     2
  9
$DIMLWD
 70
    -2
  9
$DIMLWE
 70
    -2
  9
$DIMTMOVE
 70
     2
  9
$LUNITS
 70
     2
  9
$LUPREC
 70
     1
  9
$SKETCHINC
 40
1.0
  9
$FILLETRAD
 40
3.0
  9
$AUNITS
 70
     0
  9
$AUPREC
 70
     0
  9
$MENU
  1
acad
  9
$ELEVATION
 40
0.0
  9
$PELEVATION
 40
0.0
  9
$THICKNESS
 40
0.0
  9
$LIMCHECK
 70
     0
  9
$CHAMFERA
 40
0.0
  9
$CHAMFERB
 40
0.0
  9
$CHAMFERC
 40
0.0
  9
$CHAMFERD
 40
0.0
  9
$SKPOLY
 70
     0
  9
$TDCREATE
 40
2451368.612993866
  9
$TDUCREATE
 40
2451368.237993866
  9
$TDUPDATE
 40
2455569.632670532
  9
$TDUUPDATE
 40
2455569.257670533
  9
$TDINDWG
 40
0.7880929282
  9
$TDUSRTIMER
 40
0.7880929282
  9
$USRTIMER
 70
     1
  9
$ANGBASE
 50
0.0
  9
$ANGDIR
 70
     0
  9
$PDMODE
 70
     3
  9
$PDSIZE
 40
2.0
  9
$PLINEWID
 40
0.0
  9
$SPLFRAME
 70
     0
  9
$SPLINETYPE
 70
     6
  9
$SPLINESEGS
 70
     8
  9
$HANDSEED
  5
195F7
  9
$SURFTAB1
 70
     6
  9
$SURFTAB2
 70
     6
  9
$SURFTYPE
 70
     6
  9
$SURFU
 70
     6
  9
$SURFV
 70
     6
  9
$UCSBASE
  2

  9
$UCSNAME
  2

  9
$UCSORG
 10
0.0
 20
0.0
 30
0.0
  9
$UCSXDIR
 10
1.0
 20
0.0
 30
0.0
  9
$UCSYDIR
 10
0.0
 20
1.0
 30
0.0
  9
$UCSORTHOREF
  2

  9
$UCSORTHOVIEW
 70
     0
  9
$UCSORGTOP
 10
0.0
 20
0.0
 30
0.0
  9
$UCSORGBOTTOM
 10
0.0
 20
0.0
 30
0.0
  9
$UCSORGLEFT
 10
0.0
 20
0.0
 30
0.0
  9
$UCSORGRIGHT
 10
0.0
 20
0.0
 30
0.0
  9
$UCSORGFRONT
 10
0.0
 20
0.0
 30
0.0
  9
$UCSORGBACK
 10
0.0
 20
0.0
 30
0.0
  9
$PUCSBASE
  2

  9
$PUCSNAME
  2

  9
$PUCSORG
 10
0.0
 20
0.0
 30
0.0
  9
$PUCSXDIR
 10
1.0
 20
0.0
 30
0.0
  9
$PUCSYDIR
 10
0.0
 20
1.0
 30
0.0
  9
$PUCSORTHOREF
  2

  9
$PUCSORTHOVIEW
 70
     0
  9
$PUCSORGTOP
 10
0.0
 20
0.0
 30
0.0
  9
$PUCSORGBOTTOM
 10
0.0
 20
0.0
 30
0.0
  9
$PUCSORGLEFT
 10
0.0
 20
0.0
 30
0.0
  9
$PUCSORGRIGHT
 10
0.0
 20
0.0
 30
0.0
  9
$PUCSORGFRONT
 10
0.0
 20
0.0
 30
0.0
  9
$PUCSORGBACK
 10
0.0
 20
0.0
 30
0.0
  9
$USERI1
 70
     0
  9
$USERI2
 70
     0
  9
$USERI3
 70
     0
  9
$USERI4
 70
     0
  9
$USERI5
 70
     0
  9
$USERR1
 40
0.0
  9
$USERR2
 40
0.0
  9
$USERR3
 40
0.0
  9
$USERR4
 40
0.0
  9
$USERR5
 40
0.0
  9
$WORLDVIEW
 70
     1
  9
$SHADEDGE
 70
     3
  9
$SHADEDIF
 70
    70
  9
$TILEMODE
 70
     1
  9
$MAXACTVP
 70
    16
  9
$PINSBASE
 10
0.0
 20
0.0
 30
0.0
  9
$PLIMCHECK
 70
     0
  9
$PEXTMIN
 10
1.000000000000000E+20
 20
1.000000000000000E+20
 30
1.000000000000000E+20
  9
$PEXTMAX
 10
-1.000000000000000E+20
 20
-1.000000000000000E+20
 30
-1.000000000000000E+20
  9
$PLIMMIN
 10
0.0
 20
0.0
  9
$PLIMMAX
 10
420.0
 20
297.0
  9
$UNITMODE
 70
     0
  9
$VISRETAIN
 70
     0
  9
$PLINEGEN
 70
     0
  9
$PSLTSCALE
 70
     0
  9
$TREEDEPTH
 70
  3020
  9
$CMLSTYLE
  2
STANDARD
  9
$CMLJUST
 70
     0
  9
$CMLSCALE
 40
1.0
  9
$PROXYGRAPHICS
 70
     1
  9
$MEASUREMENT
 70
     1
  9
$CELWEIGHT
370
    -1
  9
$ENDCAPS
280
     0
  9
$JOINSTYLE
280
     0
  9
$LWDISPLAY
290
     0
  9
$INSUNITS
 70
     0
  9
$HYPERLINKBASE
  1

  9
$STYLESHEET
  1
inaba.ctb
  9
$XEDIT
290
     1
  9
$CEPSNTYPE
380
     0
  9
$PSTYLEMODE
290
     1
  9
$FINGERPRINTGUID
  2
{4BB8A854-180B-4D75-B146-1FDB8437FBEC}
  9
$VERSIONGUID
  2
{CE2F167E-0B24-47DD-9553-11D7C027E8A6}
  9
$EXTNAMES
290
     1
  9
$PSVPSCALE
 40
0.0
  9
$OLESTARTUP
290
     0
  0
ENDSEC
  0
SECTION
  2
CLASSES
  0
CLASS
  1
ACDBDICTIONARYWDFLT
  2
AcDbDictionaryWithDefault
  3
ObjectDBX Classes
 90
        0
280
     0
281
     0
  0
CLASS
  1
DICTIONARYVAR
  2
AcDbDictionaryVar
  3
ObjectDBX Classes
 90
        0
280
     0
281
     0
  0
CLASS
  1
ACDBPLACEHOLDER
  2
AcDbPlaceHolder
  3
ObjectDBX Classes
 90
        0
280
     0
281
     0
  0
CLASS
  1
LAYOUT
  2
AcDbLayout
  3
ObjectDBX Classes
 90
        0
280
     0
281
     0
  0
ENDSEC
  0
SECTION
  2
TABLES
  0
TABLE
  2
VPORT
  5
746D
330
0
100
AcDbSymbolTable
 70
     2
  0
VPORT
  5
195EF
330
746D
100
AcDbSymbolTableRecord
100
AcDbViewportTableRecord
  2
*Active
 70
     0
 10
0.0
 20
0.0
 11
1.0
 21
1.0
 12
8807.252064862799
 22
5704.872807327498
 13
0.0
 23
0.0
 14
10.0
 24
10.0
 15
10.0
 25
10.0
 16
0.0
 26
0.0
 36
1.0
 17
0.0
 27
0.0
 37
0.0
 40
11494.52305525973
 41
1.627450980392156
 42
50.0
 43
0.0
 44
0.0
 50
0.0
 51
0.0
 71
     0
 72
     0
 73
     1
 74
     0
 75
     0
 76
     0
 77
     0
 78
     0
281
     0
 65
     1
110
0.0
120
0.0
130
0.0
111
1.0
121
0.0
131
0.0
112
0.0
122
1.0
132
0.0
 79
     0
146
0.0
  0
ENDTAB
  0
TABLE
  2
LTYPE
  5
746A
330
0
100
AcDbSymbolTable
 70
     3
  0
LTYPE
  5
7477
330
746A
100
AcDbSymbolTableRecord
100
AcDbLinetypeTableRecord
  2
BYBLOCK
 70
     0
  3

 72
    65
 73
     0
 40
0.0
  0
LTYPE
  5
7478
330
746A
100
AcDbSymbolTableRecord
100
AcDbLinetypeTableRecord
  2
BYLAYER
 70
     0
  3

 72
    65
 73
     0
 40
0.0
  0
LTYPE
  5
7479
330
746A
100
AcDbSymbolTableRecord
100
AcDbLinetypeTableRecord
  2
CONTINUOUS
 70
     0
  3
Solid line
 72
    65
 73
     0
 40
0.0
  0
LTYPE
  5
781A
330
746A
100
AcDbSymbolTableRecord
100
AcDbLinetypeTableRecord
  2
HIDDEN
 70
     0
  3
__ __ __ __ __ __ __ __ __ __ __ __ __ __ __ __
 72
    65
 73
     2
 40
0.375
 49
0.25
 74
     0
 49
-0.125
 74
     0
  0
LTYPE
  5
781B
330
746A
100
AcDbSymbolTableRecord
100
AcDbLinetypeTableRecord
  2
PHANTOM
 70
     0
  3
______  __  __  ______  __  __  ______  __  __ 
 72
    65
 73
     6
 40
2.5
 49
1.25
 74
     0
 49
-0.25
 74
     0
 49
0.25
 74
     0
 49
-0.25
 74
     0
 49
0.25
 74
     0
 49
-0.25
 74
     0
  0
ENDTAB
  0
TABLE
  2
LAYER
  5
7467
102
{ACAD_XDICTIONARY
360
17E12
102
}
330
0
100
AcDbSymbolTable
 70
    10
  0
LAYER
  5
7474
330
7467
100
AcDbSymbolTableRecord
100
AcDbLayerTableRecord
  2
0
 70
     0
 62
     7
  6
CONTINUOUS
370
    -3
390
17B49
  0
LAYER
  5
DEB3
330
7467
100
AcDbSymbolTableRecord
100
AcDbLayerTableRecord
  2
寸法
 70
     0
 62
     4
  6
CONTINUOUS
370
    -3
390
17B49
  0
LAYER
  5
DEB4
330
7467
100
AcDbSymbolTableRecord
100
AcDbLayerTableRecord
  2
部品1
 70
     0
 62
     7
  6
CONTINUOUS
370
    -3
390
17B49
  0
LAYER
  5
DEB5
330
7467
100
AcDbSymbolTableRecord
100
AcDbLayerTableRecord
  2
補助
 70
     0
 62
    -1
  6
CONTINUOUS
370
    -3
390
17B49
  0
LAYER
  5
DEB6
330
7467
100
AcDbSymbolTableRecord
100
AcDbLayerTableRecord
  2
文字
 70
     0
 62
     7
  6
CONTINUOUS
370
    -3
390
17B49
  0
LAYER
  5
F255
330
7467
100
AcDbSymbolTableRecord
100
AcDbLayerTableRecord
  2
DEFPOINTS
 70
     0
 62
     7
  6
CONTINUOUS
290
     0
370
    -3
390
17B49
  0
LAYER
  5
10B54
330
7467
100
AcDbSymbolTableRecord
100
AcDbLayerTableRecord
  2
仕様書枠
 70
     0
 62
   230
  6
CONTINUOUS
370
    -3
390
17B49
  0
LAYER
  5
11729
330
7467
100
AcDbSymbolTableRecord
100
AcDbLayerTableRecord
  2
Ｇ．Ｌ
 70
     0
 62
    30
  6
CONTINUOUS
370
    -3
390
17B49
  0
LAYER
  5
1173F
330
7467
100
AcDbSymbolTableRecord
100
AcDbLayerTableRecord
  2
細線
 70
     0
 62
     5
  6
CONTINUOUS
370
    -3
390
17B49
  0
LAYER
  5
142E2
330
7467
100
AcDbSymbolTableRecord
100
AcDbLayerTableRecord
  2
破線
 70
     0
 62
     2
  6
HIDDEN
370
    -3
390
17B49
  0
ENDTAB
  0
TABLE
  2
STYLE
  5
7468
330
0
100
AcDbSymbolTable
 70
     4
  0
STYLE
  5
7475
330
7468
100
AcDbSymbolTableRecord
100
AcDbTextStyleTableRecord
  2
STANDARD
 70
     0
 40
0.0
 41
1.0
 50
0.0
 71
     0
 42
4.0
  3
txt
  4
C:\AutoCAD LT\bigfont.shx
  0
STYLE
  5
763C
330
7468
100
AcDbSymbolTableRecord
100
AcDbTextStyleTableRecord
  2
MSMINCHO
 70
     0
 40
0.0
 41
1.0
 50
0.0
 71
     0
 42
1.199999999999999
  3
C:\AutoCAD LT\msminch2.TTF
  4

  0
STYLE
  5
F706
330
7468
100
AcDbSymbolTableRecord
100
AcDbTextStyleTableRecord
  2
STYLE1
 70
     0
 40
0.0
 41
1.0
 50
0.0
 71
     0
 42
4.0
  3
isocp.shx
  4
bigfont.shx
  0
STYLE
  5
103BF
330
7468
100
AcDbSymbolTableRecord
100
AcDbTextStyleTableRecord
  2
STYLE2
 70
     0
 40
0.0
 41
1.0
 50
0.0
 71
     0
 42
100.0
  3
MS PGothic.ttf
  4

1001
ACAD
1000
MS PGothic
1071
    32818
  0
ENDTAB
  0
TABLE
  2
VIEW
  5
746B
330
0
100
AcDbSymbolTable
 70
     0
  0
ENDTAB
  0
TABLE
  2
UCS
  5
746C
330
0
100
AcDbSymbolTable
 70
     0
  0
ENDTAB
  0
TABLE
  2
APPID
  5
746E
330
0
100
AcDbSymbolTable
 70
     6
  0
APPID
  5
7476
330
746E
100
AcDbSymbolTableRecord
100
AcDbRegAppTableRecord
  2
ACAD
 70
     0
  0
APPID
  5
DEA9
330
746E
100
AcDbSymbolTableRecord
100
AcDbRegAppTableRecord
  2
CONTENTBLOCKICON
 70
     0
  0
APPID
  5
DEAA
330
746E
100
AcDbSymbolTableRecord
100
AcDbRegAppTableRecord
  2
CONTENTBLOCKDESCRIPTION
 70
     0
  0
APPID
  5
E71D
330
746E
100
AcDbSymbolTableRecord
100
AcDbRegAppTableRecord
  2
CONTENTTABDATA
 70
     0
  0
APPID
  5
E71E
330
746E
100
AcDbSymbolTableRecord
100
AcDbRegAppTableRecord
  2
CONTENTCURRENTTAB
 70
     0
  0
APPID
  5
F3BA
330
746E
100
AcDbSymbolTableRecord
100
AcDbRegAppTableRecord
  2
DRAWINGVARIABLESXDATA
 70
     0
  0
ENDTAB
  0
TABLE
  2
DIMSTYLE
  5
746F
330
0
100
AcDbSymbolTable
 70
     1
100
AcDbDimStyleTable
 71
     1
340
F71F
  0
DIMSTYLE
105
F71F
102
{ACAD_REACTORS
330
162CD
330
162CE
330
162CF
330
162D0
330
162E4
330
162E7
330
162EA
330
162EB
330
16301
330
16302
330
1631F
330
16320
330
16333
330
1659B
330
1659C
330
1659A
330
165E9
330
16667
330
166DD
330
16907
330
16913
330
180FF
330
18100
330
1817B
330
1817C
330
18A0D
330
18A1C
330
18A2A
330
18A2B
330
18A2C
330
18A30
330
18A61
330
18A62
330
18A63
330
1906E
330
1906F
330
19070
102
}
330
746F
100
AcDbSymbolTableRecord
100
AcDbDimStyleTableRecord
  2
INABA_S40G
 70
     0
 40
40.0
 41
2.5
 42
0.5
 43
7.0
 44
1.5
 73
     0
 74
     0
 77
     3
 78
     8
140
3.0
141
0.0
143
0.0394
147
1.0
172
     1
173
     1
174
     1
178
     7
271
     1
340
F706
341
F770
343
F770
344
F770
  0
ENDTAB
  0
TABLE
  2
BLOCK_RECORD
  5
7466
330
0
100
AcDbSymbolTable
 70
    38
  0
BLOCK_RECORD
  5
747D
330
7466
100
AcDbSymbolTableRecord
100
AcDbBlockTableRecord
  2
*MODEL_SPACE
340
17B4E
  0
BLOCK_RECORD
  5
747A
330
7466
100
AcDbSymbolTableRecord
100
AcDbBlockTableRecord
  2
*PAPER_SPACE
340
17B4F
  0
BLOCK_RECORD
  5
F770
330
7466
100
AcDbSymbolTableRecord
100
AcDbBlockTableRecord
  2
_DOTSMALL
340
0
102
{BLKREFS
331
17B22
331
17B23
331
1641A
331
1641B
331
16427
331
16428
331
17B0A
331
17B0B
331
171E6
331
171E7
331
171C7
331
171C8
331
1646A
331
1646B
331
16479
331
1647A
331
16487
331
16488
331
16493
331
16494
331
17435
331
17436
331
164B6
331
164B7
331
164C3
331
164C4
331
171A6
331
171A7
331
165BE
331
165BF
331
165CD
331
165CE
331
16644
331
16645
331
1742A
331
1742B
331
166D6
331
166D7
331
171B1
331
171B2
331
171D1
331
171D2
331
18664
331
18665
331
1866D
331
1866E
331
1869F
331
186A0
331
18E8F
331
18E90
331
18E98
331
18E99
331
18EA1
331
18EA2
331
18EB6
331
18EB7
331
18ECA
331
18ECB
331
18EDD
331
18EDE
331
18EE7
331
18EE8
331
19168
331
19169
331
1956D
331
1956E
331
195A6
331
195A7
331
195AF
331
195B0
331
195C4
331
195C5
331
195CD
331
195CE
102
}
  0
BLOCK_RECORD
  5
16338
330
7466
100
AcDbSymbolTableRecord
100
AcDbBlockTableRecord
  2
*D1
340
0
  0
BLOCK_RECORD
  5
16344
330
7466
100
AcDbSymbolTableRecord
100
AcDbBlockTableRecord
  2
*D2
340
0
  0
BLOCK_RECORD
  5
16352
330
7466
100
AcDbSymbolTableRecord
100
AcDbBlockTableRecord
  2
*D3
340
0
  0
BLOCK_RECORD
  5
16360
330
7466
100
AcDbSymbolTableRecord
100
AcDbBlockTableRecord
  2
*D4
340
0
  0
BLOCK_RECORD
  5
16384
330
7466
100
AcDbSymbolTableRecord
100
AcDbBlockTableRecord
  2
*D5
340
0
  0
BLOCK_RECORD
  5
1638F
330
7466
100
AcDbSymbolTableRecord
100
AcDbBlockTableRecord
  2
*D6
340
0
  0
BLOCK_RECORD
  5
1639B
330
7466
100
AcDbSymbolTableRecord
100
AcDbBlockTableRecord
  2
*D7
340
0
  0
BLOCK_RECORD
  5
163A9
330
7466
100
AcDbSymbolTableRecord
100
AcDbBlockTableRecord
  2
*D8
340
0
  0
BLOCK_RECORD
  5
163B8
330
7466
100
AcDbSymbolTableRecord
100
AcDbBlockTableRecord
  2
*D9
340
0
  0
BLOCK_RECORD
  5
163C7
330
7466
100
AcDbSymbolTableRecord
100
AcDbBlockTableRecord
  2
*D10
340
0
  0
BLOCK_RECORD
  5
163E1
330
7466
100
AcDbSymbolTableRecord
100
AcDbBlockTableRecord
  2
*D11
340
0
  0
BLOCK_RECORD
  5
163ED
330
7466
100
AcDbSymbolTableRecord
100
AcDbBlockTableRecord
  2
*D12
340
0
  0
BLOCK_RECORD
  5
163FB
330
7466
100
AcDbSymbolTableRecord
100
AcDbBlockTableRecord
  2
*D13
340
0
  0
BLOCK_RECORD
  5
1659E
330
7466
100
AcDbSymbolTableRecord
100
AcDbBlockTableRecord
  2
*D14
340
0
  0
BLOCK_RECORD
  5
165B5
330
7466
100
AcDbSymbolTableRecord
100
AcDbBlockTableRecord
  2
*D15
340
0
  0
BLOCK_RECORD
  5
165C4
330
7466
100
AcDbSymbolTableRecord
100
AcDbBlockTableRecord
  2
*D16
340
0
  0
BLOCK_RECORD
  5
165EA
330
7466
100
AcDbSymbolTableRecord
100
AcDbBlockTableRecord
  2
*D17
340
0
  0
BLOCK_RECORD
  5
166AD
330
7466
100
AcDbSymbolTableRecord
100
AcDbBlockTableRecord
  2
*D18
340
0
  0
BLOCK_RECORD
  5
166CF
330
7466
100
AcDbSymbolTableRecord
100
AcDbBlockTableRecord
  2
*D19
340
0
  0
BLOCK_RECORD
  5
168FB
330
7466
100
AcDbSymbolTableRecord
100
AcDbBlockTableRecord
  2
*D20
340
0
  0
BLOCK_RECORD
  5
16908
330
7466
100
AcDbSymbolTableRecord
100
AcDbBlockTableRecord
  2
*D21
340
0
  0
BLOCK_RECORD
  5
18323
330
7466
100
AcDbSymbolTableRecord
100
AcDbBlockTableRecord
  2
*D22
340
0
  0
BLOCK_RECORD
  5
1832F
330
7466
100
AcDbSymbolTableRecord
100
AcDbBlockTableRecord
  2
*D23
340
0
  0
BLOCK_RECORD
  5
18370
330
7466
100
AcDbSymbolTableRecord
100
AcDbBlockTableRecord
  2
*D24
340
0
  0
BLOCK_RECORD
  5
1837C
330
7466
100
AcDbSymbolTableRecord
100
AcDbBlockTableRecord
  2
*D25
340
0
  0
BLOCK_RECORD
  5
18BA9
330
7466
100
AcDbSymbolTableRecord
100
AcDbBlockTableRecord
  2
*D26
340
0
  0
BLOCK_RECORD
  5
18BB6
330
7466
100
AcDbSymbolTableRecord
100
AcDbBlockTableRecord
  2
*D27
340
0
  0
BLOCK_RECORD
  5
18BC3
330
7466
100
AcDbSymbolTableRecord
100
AcDbBlockTableRecord
  2
*D28
340
0
  0
BLOCK_RECORD
  5
18BCF
330
7466
100
AcDbSymbolTableRecord
100
AcDbBlockTableRecord
  2
*D29
340
0
  0
BLOCK_RECORD
  5
18BDD
330
7466
100
AcDbSymbolTableRecord
100
AcDbBlockTableRecord
  2
*D30
340
0
  0
BLOCK_RECORD
  5
18BE9
330
7466
100
AcDbSymbolTableRecord
100
AcDbBlockTableRecord
  2
*D31
340
0
  0
BLOCK_RECORD
  5
18C04
330
7466
100
AcDbSymbolTableRecord
100
AcDbBlockTableRecord
  2
*D32
340
0
  0
BLOCK_RECORD
  5
18C10
330
7466
100
AcDbSymbolTableRecord
100
AcDbBlockTableRecord
  2
*D33
340
0
  0
BLOCK_RECORD
  5
18C1C
330
7466
100
AcDbSymbolTableRecord
100
AcDbBlockTableRecord
  2
*D34
340
0
  0
BLOCK_RECORD
  5
190E3
330
7466
100
AcDbSymbolTableRecord
100
AcDbBlockTableRecord
  2
*D35
340
0
  0
BLOCK_RECORD
  5
190F0
330
7466
100
AcDbSymbolTableRecord
100
AcDbBlockTableRecord
  2
*D36
340
0
  0
BLOCK_RECORD
  5
190FE
330
7466
100
AcDbSymbolTableRecord
100
AcDbBlockTableRecord
  2
*D37
340
0
  0
ENDTAB
  0
ENDSEC
  0
SECTION
  2
BLOCKS
  0
BLOCK
  5
7489
330
747D
100
AcDbEntity
  8
0
100
AcDbBlockBegin
  2
*MODEL_SPACE
 70
     0
 10
0.0
 20
0.0
 30
0.0
  3
*MODEL_SPACE
  1

  0
ENDBLK
  5
748A
330
747D
100
AcDbEntity
  8
0
100
AcDbBlockEnd
  0
BLOCK
  5
7487
330
747A
100
AcDbEntity
 67
     1
  8
0
100
AcDbBlockBegin
  2
*PAPER_SPACE
 70
     0
 10
0.0
 20
0.0
 30
0.0
  3
*PAPER_SPACE
  1

  0
ENDBLK
  5
7488
330
747A
100
AcDbEntity
 67
     1
  8
0
100
AcDbBlockEnd
  0
BLOCK
  5
F771
330
F770
100
AcDbEntity
  8
0
 48
50.0
100
AcDbBlockBegin
  2
_DOTSMALL
 70
     0
 10
0.0
 20
0.0
 30
0.0
  3
_DOTSMALL
  1

  0
LWPOLYLINE
  5
F772
330
F770
100
AcDbEntity
  8
0
  6
ByBlock
 62
     0
 48
50.0
100
AcDbPolyline
 90
        2
 70
     1
 43
0.5
 10
-0.0625
 20
0.0
 42
1.0
 10
0.0625
 20
0.0
 42
1.0
  0
ENDBLK
  5
F776
330
F770
100
AcDbEntity
  8
0
 48
50.0
100
AcDbBlockEnd
  0
BLOCK
  5
17B1E
330
16338
100
AcDbEntity
  8
0
 48
50.0
100
AcDbBlockBegin
  2
*D1
 70
     1
 10
0.0
 20
0.0
 30
0.0
  3
*D1
  1

  0
LINE
  5
17B1F
330
16338
100
AcDbEntity
  8
0
  6
ByBlock
 62
     0
 48
50.0
100
AcDbLine
 10
9129.673057123664
 20
10557.49742454596
 30
0.0
 11
9817.099402858071
 21
10557.49742454596
 31
0.0
  0
LINE
  5
17B20
330
16338
100
AcDbEntity
  8
0
  6
ByBlock
 62
     0
 48
50.0
100
AcDbLine
 10
9129.673057123637
 20
7197.497424545952
 30
0.0
 11
9817.099402858071
 21
7197.497424545952
 31
0.0
  0
LINE
  5
17B21
330
16338
100
AcDbEntity
  8
0
  6
ByBlock
 62
     0
 48
50.0
100
AcDbLine
 10
9757.09940285807
 20
10557.49742454596
 30
0.0
 11
9757.09940285807
 21
7197.497424545952
 31
0.0
  0
INSERT
  5
17B22
330
16338
100
AcDbEntity
  8
0
  6
ByBlock
 62
     0
 48
50.0
100
AcDbBlockReference
  2
_DOTSMALL
 10
9757.09940285807
 20
10557.49742454596
 30
0.0
 41
100.0
 42
100.0
 43
100.0
 50
90.0
  0
INSERT
  5
17B23
330
16338
100
AcDbEntity
  8
0
  6
ByBlock
 62
     0
 48
50.0
100
AcDbBlockReference
  2
_DOTSMALL
 10
9757.09940285807
 20
7197.497424545952
 30
0.0
 41
100.0
 42
100.0
 43
100.0
 50
270.0
  0
MTEXT
  5
17B24
330
16338
100
AcDbEntity
  8
0
  6
ByBlock
 62
     7
 48
50.0
100
AcDbMText
 10
9657.087591834448
 20
8877.497424545961
 30
0.0
 40
120.0
 41
0.0
 71
     5
 72
     1
  1
\A1;8X420=3360
  7
STYLE1
 11
0.0000000000000001
 21
1.0
 31
0.0
 73
     1
 44
1.0
1001
ACAD
1000
MTEXTBEGIN
1070
    73
1070
     1
1070
    44
1040
1.0
1070
    74
1070
     0
1000
MTEXTEND
  0
POINT
  5
17B25
330
16338
100
AcDbEntity
  8
DEFPOINTS
  6
ByBlock
 62
     0
 48
50.0
100
AcDbPoint
 10
9109.673057123664
 20
10557.49742454596
 30
0.0
  0
POINT
  5
17B26
330
16338
100
AcDbEntity
  8
DEFPOINTS
  6
ByBlock
 62
     0
 48
50.0
100
AcDbPoint
 10
9109.673057123639
 20
7197.497424545952
 30
0.0
  0
POINT
  5
17B27
330
16338
100
AcDbEntity
  8
DEFPOINTS
  6
ByBlock
 62
     0
 48
50.0
100
AcDbPoint
 10
9757.09940285807
 20
7197.497424545952
 30
0.0
  0
ENDBLK
  5
17B28
330
16338
100
AcDbEntity
  8
0
 48
50.0
100
AcDbBlockEnd
  0
BLOCK
  5
16414
330
16344
100
AcDbEntity
  8
0
 48
50.0
100
AcDbBlockBegin
  2
*D2
 70
     1
 10
0.0
 20
0.0
 30
0.0
  3
*D2
  1

  0
LINE
  5
16415
330
16344
100
AcDbEntity
  8
0
  6
ByBlock
 62
     0
 48
50.0
100
AcDbLine
 10
7394.673057123639
 20
7037.497424545953
 30
0.0
 11
8082.099402858048
 21
7037.497424545951
 31
0.0
  0
LINE
  5
16416
330
16344
100
AcDbEntity
  8
0
  6
ByBlock
 62
     0
 48
50.0
100
AcDbLine
 10
7394.673057123639
 20
6982.497424545956
 30
0.0
 11
8082.099402858048
 21
6982.497424545956
 31
0.0
  0
LINE
  5
16417
330
16344
100
AcDbEntity
  8
0
  6
ByBlock
 62
     0
 48
50.0
100
AcDbLine
 10
8022.099402858048
 20
7037.497424545951
 30
0.0
 11
8022.099402858048
 21
7137.497424545951
 31
0.0
  0
LINE
  5
16418
330
16344
100
AcDbEntity
  8
0
  6
ByBlock
 62
     0
 48
50.0
100
AcDbLine
 10
8022.099402858048
 20
6982.497424545956
 30
0.0
 11
8022.099402858048
 21
6496.150676266855
 31
0.0
  0
LINE
  5
16419
330
16344
100
AcDbEntity
  8
0
  6
ByBlock
 62
     0
 48
50.0
100
AcDbLine
 10
8022.099402858048
 20
7037.497424545951
 30
0.0
 11
8022.099402858048
 21
6982.497424545956
 31
0.0
  0
INSERT
  5
1641A
330
16344
100
AcDbEntity
  8
0
  6
ByBlock
 62
     0
 48
50.0
100
AcDbBlockReference
  2
_DOTSMALL
 10
8022.099402858048
 20
7037.497424545951
 30
0.0
 41
100.0
 42
100.0
 43
100.0
 50
270.0
  0
INSERT
  5
1641B
330
16344
100
AcDbEntity
  8
0
  6
ByBlock
 62
     0
 48
50.0
100
AcDbBlockReference
  2
_DOTSMALL
 10
8022.099402858048
 20
6982.497424545956
 30
0.0
 41
100.0
 42
100.0
 43
100.0
 50
90.0
  0
MTEXT
  5
1641C
330
16344
100
AcDbEntity
  8
0
  6
ByBlock
 62
     7
 48
50.0
100
AcDbMText
 10
7922.099402858048
 20
6604.635957641093
 30
0.0
 40
120.0
 41
0.0
 71
     5
 72
     1
  1
\A1;55
  7
STYLE1
 11
0.0000000000000001
 21
1.0
 31
0.0
 73
     1
 44
1.0
1001
ACAD
1000
MTEXTBEGIN
1070
    73
1070
     1
1070
    44
1040
1.0
1070
    74
1070
     0
1000
MTEXTEND
  0
POINT
  5
1641D
330
16344
100
AcDbEntity
  8
DEFPOINTS
  6
ByBlock
 62
     0
 48
50.0
100
AcDbPoint
 10
7374.673057123638
 20
7037.497424545953
 30
0.0
  0
POINT
  5
1641E
330
16344
100
AcDbEntity
  8
DEFPOINTS
  6
ByBlock
 62
     0
 48
50.0
100
AcDbPoint
 10
7374.673057123638
 20
6982.497424545956
 30
0.0
  0
POINT
  5
1641F
330
16344
100
AcDbEntity
  8
DEFPOINTS
  6
ByBlock
 62
     0
 48
50.0
100
AcDbPoint
 10
8022.099402858048
 20
6982.497424545956
 30
0.0
  0
ENDBLK
  5
16420
330
16344
100
AcDbEntity
  8
0
 48
50.0
100
AcDbBlockEnd
  0
BLOCK
  5
16421
330
16352
100
AcDbEntity
  8
0
 48
50.0
100
AcDbBlockBegin
  2
*D3
 70
     1
 10
0.0
 20
0.0
 30
0.0
  3
*D3
  1

  0
LINE
  5
16422
330
16352
100
AcDbEntity
  8
0
  6
ByBlock
 62
     0
 48
50.0
100
AcDbLine
 10
7394.673057123664
 20
10032.49742454596
 30
0.0
 11
8082.099402858075
 21
10032.49742454596
 31
0.0
  0
LINE
  5
16423
330
16352
100
AcDbEntity
  8
0
  6
ByBlock
 62
     0
 48
50.0
100
AcDbLine
 10
7394.673057123664
 20
9977.497424545967
 30
0.0
 11
8082.099402858075
 21
9977.497424545967
 31
0.0
  0
LINE
  5
16424
330
16352
100
AcDbEntity
  8
0
  6
ByBlock
 62
     0
 48
50.0
100
AcDbLine
 10
8022.099402858072
 20
9977.497424545967
 30
0.0
 11
8022.099402858072
 21
9877.497424545968
 31
0.0
  0
LINE
  5
16425
330
16352
100
AcDbEntity
  8
0
  6
ByBlock
 62
     0
 48
50.0
100
AcDbLine
 10
8022.099402858072
 20
10032.49742454596
 30
0.0
 11
8022.099402858072
 21
10449.46798729444
 31
0.0
  0
LINE
  5
16426
330
16352
100
AcDbEntity
  8
0
  6
ByBlock
 62
     0
 48
50.0
100
AcDbLine
 10
8022.099402858072
 20
9977.497424545967
 30
0.0
 11
8022.099402858072
 21
10032.49742454596
 31
0.0
  0
INSERT
  5
16427
330
16352
100
AcDbEntity
  8
0
  6
ByBlock
 62
     0
 48
50.0
100
AcDbBlockReference
  2
_DOTSMALL
 10
8022.099402858072
 20
9977.497424545967
 30
0.0
 41
100.0
 42
100.0
 43
100.0
 50
90.0
  0
INSERT
  5
16428
330
16352
100
AcDbEntity
  8
0
  6
ByBlock
 62
     0
 48
50.0
100
AcDbBlockReference
  2
_DOTSMALL
 10
8022.099402858072
 20
10032.49742454596
 30
0.0
 41
100.0
 42
100.0
 43
100.0
 50
270.0
  0
MTEXT
  5
16429
330
16352
100
AcDbEntity
  8
0
  6
ByBlock
 62
     7
 48
50.0
100
AcDbMText
 10
7922.099402858073
 20
10340.9827059202
 30
0.0
 40
120.0
 41
0.0
 71
     5
 72
     1
  1
\A1;55
  7
STYLE1
 11
0.0000000000000001
 21
1.0
 31
0.0
 73
     1
 44
1.0
1001
ACAD
1000
MTEXTBEGIN
1070
    73
1070
     1
1070
    44
1040
1.0
1070
    74
1070
     0
1000
MTEXTEND
  0
POINT
  5
1642A
330
16352
100
AcDbEntity
  8
DEFPOINTS
  6
ByBlock
 62
     0
 48
50.0
100
AcDbPoint
 10
7374.673057123664
 20
10032.49742454596
 30
0.0
  0
POINT
  5
1642B
330
16352
100
AcDbEntity
  8
DEFPOINTS
  6
ByBlock
 62
     0
 48
50.0
100
AcDbPoint
 10
7374.673057123664
 20
9977.497424545967
 30
0.0
  0
POINT
  5
1642C
330
16352
100
AcDbEntity
  8
DEFPOINTS
  6
ByBlock
 62
     0
 48
50.0
100
AcDbPoint
 10
8022.099402858072
 20
9977.497424545967
 30
0.0
  0
ENDBLK
  5
1642D
330
16352
100
AcDbEntity
  8
0
 48
50.0
100
AcDbBlockEnd
  0
BLOCK
  5
17B06
330
16360
100
AcDbEntity
  8
0
 48
50.0
100
AcDbBlockBegin
  2
*D4
 70
     1
 10
0.0
 20
0.0
 30
0.0
  3
*D4
  1

  0
LINE
  5
17B07
330
16360
100
AcDbEntity
  8
0
  6
ByBlock
 62
     0
 48
50.0
100
AcDbLine
 10
9129.673057123664
 20
10612.49742454596
 30
0.0
 11
10182.20634459771
 21
10612.49742454596
 31
0.0
  0
LINE
  5
17B08
330
16360
100
AcDbEntity
  8
0
  6
ByBlock
 62
     0
 48
50.0
100
AcDbLine
 10
9129.673057123637
 20
7142.497424545957
 30
0.0
 11
10182.20634459771
 21
7142.497424545957
 31
0.0
  0
LINE
  5
17B09
330
16360
100
AcDbEntity
  8
0
  6
ByBlock
 62
     0
 48
50.0
100
AcDbLine
 10
10122.20634459771
 20
10612.49742454596
 30
0.0
 11
10122.20634459771
 21
7142.497424545957
 31
0.0
  0
INSERT
  5
17B0A
330
16360
100
AcDbEntity
  8
0
  6
ByBlock
 62
     0
 48
50.0
100
AcDbBlockReference
  2
_DOTSMALL
 10
10122.20634459771
 20
10612.49742454596
 30
0.0
 41
100.0
 42
100.0
 43
100.0
 50
90.0
  0
INSERT
  5
17B0B
330
16360
100
AcDbEntity
  8
0
  6
ByBlock
 62
     0
 48
50.0
100
AcDbBlockReference
  2
_DOTSMALL
 10
10122.20634459771
 20
7142.497424545957
 30
0.0
 41
100.0
 42
100.0
 43
100.0
 50
270.0
  0
MTEXT
  5
17B0C
330
16360
100
AcDbEntity
  8
0
  6
ByBlock
 62
     7
 48
50.0
100
AcDbMText
 10
10022.20634459771
 20
8877.497424545961
 30
0.0
 40
120.0
 41
0.0
 71
     5
 72
     1
  1
\A1;3470
  7
STYLE1
 11
0.0000000000000001
 21
1.0
 31
0.0
 73
     1
 44
1.0
1001
ACAD
1000
MTEXTBEGIN
1070
    73
1070
     1
1070
    44
1040
1.0
1070
    74
1070
     0
1000
MTEXTEND
  0
POINT
  5
17B0D
330
16360
100
AcDbEntity
  8
DEFPOINTS
  6
ByBlock
 62
     0
 48
50.0
100
AcDbPoint
 10
9109.673057123664
 20
10612.49742454596
 30
0.0
  0
POINT
  5
17B0E
330
16360
100
AcDbEntity
  8
DEFPOINTS
  6
ByBlock
 62
     0
 48
50.0
100
AcDbPoint
 10
9109.673057123639
 20
7142.497424545957
 30
0.0
  0
POINT
  5
17B0F
330
16360
100
AcDbEntity
  8
DEFPOINTS
  6
ByBlock
 62
     0
 48
50.0
100
AcDbPoint
 10
10122.20634459771
 20
7142.497424545957
 30
0.0
  0
ENDBLK
  5
17B10
330
16360
100
AcDbEntity
  8
0
 48
50.0
100
AcDbBlockEnd
  0
BLOCK
  5
171E3
330
16384
100
AcDbEntity
  8
0
 48
50.0
100
AcDbBlockBegin
  2
*D5
 70
     1
 10
0.0
 20
0.0
 30
0.0
  3
*D5
  1

  0
LINE
  5
171E4
330
16384
100
AcDbEntity
  8
0
  6
ByBlock
 62
     0
 48
50.0
100
AcDbLine
 10
5742.673057123656
 20
7148.497424545865
 30
0.0
 11
5742.673057123656
 21
6548.0666537797
 31
0.0
  0
LINE
  5
171E5
330
16384
100
AcDbEntity
  8
0
  6
ByBlock
 62
     0
 48
50.0
100
AcDbLine
 10
8586.673057123638
 20
6608.0666537797
 30
0.0
 11
5742.673057123656
 21
6608.0666537797
 31
0.0
  0
INSERT
  5
171E6
330
16384
100
AcDbEntity
  8
0
  6
ByBlock
 62
     0
 48
50.0
100
AcDbBlockReference
  2
_DOTSMALL
 10
8586.673057123638
 20
6608.0666537797
 30
0.0
 41
100.0
 42
100.0
 43
100.0
  0
INSERT
  5
171E7
330
16384
100
AcDbEntity
  8
0
  6
ByBlock
 62
     0
 48
50.0
100
AcDbBlockReference
  2
_DOTSMALL
 10
5742.673057123656
 20
6608.0666537797
 30
0.0
 41
100.0
 42
100.0
 43
100.0
 50
180.0
  0
MTEXT
  5
171E8
330
16384
100
AcDbEntity
  8
0
  6
ByBlock
 62
     7
 48
50.0
100
AcDbMText
 10
7164.673057123647
 20
6708.078464803323
 30
0.0
 40
120.0
 41
0.0
 71
     5
 72
     1
  1
\A1;有効開口部間口 2844
  7
STYLE1
 73
     1
 44
1.0
1001
ACAD
1000
MTEXTBEGIN
1070
    73
1070
     1
1070
    44
1040
1.0
1070
    74
1070
     0
1000
MTEXTEND
  0
POINT
  5
171E9
330
16384
100
AcDbEntity
  8
DEFPOINTS
  6
ByBlock
 62
     0
 48
50.0
100
AcDbPoint
 10
8586.673057123638
 20
7168.497424545865
 30
0.0
  0
POINT
  5
171EA
330
16384
100
AcDbEntity
  8
DEFPOINTS
  6
ByBlock
 62
     0
 48
50.0
100
AcDbPoint
 10
5742.673057123656
 20
7168.497424545865
 30
0.0
  0
POINT
  5
171EB
330
16384
100
AcDbEntity
  8
DEFPOINTS
  6
ByBlock
 62
     0
 48
50.0
100
AcDbPoint
 10
5742.673057123656
 20
6608.0666537797
 30
0.0
  0
ENDBLK
  5
171EC
330
16384
100
AcDbEntity
  8
0
 48
50.0
100
AcDbBlockEnd
  0
BLOCK
  5
171C3
330
1638F
100
AcDbEntity
  8
0
 48
50.0
100
AcDbBlockBegin
  2
*D6
 70
     1
 10
0.0
 20
0.0
 30
0.0
  3
*D6
  1

  0
LINE
  5
171C4
330
1638F
100
AcDbEntity
  8
0
  6
ByBlock
 62
     0
 48
50.0
100
AcDbLine
 10
2589.673057123657
 20
7122.497424545861
 30
0.0
 11
2589.673057123657
 21
6101.893658188827
 31
0.0
  0
LINE
  5
171C5
330
1638F
100
AcDbEntity
  8
0
  6
ByBlock
 62
     0
 48
50.0
100
AcDbLine
 10
8689.673057123627
 20
7122.497424545956
 30
0.0
 11
8689.673057123627
 21
6101.893658188827
 31
0.0
  0
LINE
  5
171C6
330
1638F
100
AcDbEntity
  8
0
  6
ByBlock
 62
     0
 48
50.0
100
AcDbLine
 10
2589.673057123657
 20
6161.893658188827
 30
0.0
 11
8689.673057123627
 21
6161.893658188827
 31
0.0
  0
INSERT
  5
171C7
330
1638F
100
AcDbEntity
  8
0
  6
ByBlock
 62
     0
 48
50.0
100
AcDbBlockReference
  2
_DOTSMALL
 10
2589.673057123657
 20
6161.893658188827
 30
0.0
 41
100.0
 42
100.0
 43
100.0
 50
180.0
  0
INSERT
  5
171C8
330
1638F
100
AcDbEntity
  8
0
  6
ByBlock
 62
     0
 48
50.0
100
AcDbBlockReference
  2
_DOTSMALL
 10
8689.673057123627
 20
6161.893658188827
 30
0.0
 41
100.0
 42
100.0
 43
100.0
  0
MTEXT
  5
171C9
330
1638F
100
AcDbEntity
  8
0
  6
ByBlock
 62
     7
 48
50.0
100
AcDbMText
 10
5639.673057123642
 20
6261.893658188826
 30
0.0
 40
120.0
 41
0.0
 71
     5
 72
     1
  1
\A1;6100
  7
STYLE1
 73
     1
 44
1.0
1001
ACAD
1000
MTEXTBEGIN
1070
    73
1070
     1
1070
    44
1040
1.0
1070
    74
1070
     0
1000
MTEXTEND
  0
POINT
  5
171CA
330
1638F
100
AcDbEntity
  8
DEFPOINTS
  6
ByBlock
 62
     0
 48
50.0
100
AcDbPoint
 10
2589.673057123657
 20
7142.497424545862
 30
0.0
  0
POINT
  5
171CB
330
1638F
100
AcDbEntity
  8
DEFPOINTS
  6
ByBlock
 62
     0
 48
50.0
100
AcDbPoint
 10
8689.673057123627
 20
7142.497424545957
 30
0.0
  0
POINT
  5
171CC
330
1638F
100
AcDbEntity
  8
DEFPOINTS
  6
ByBlock
 62
     0
 48
50.0
100
AcDbPoint
 10
8689.673057123627
 20
6161.893658188827
 30
0.0
  0
ENDBLK
  5
171CD
330
1638F
100
AcDbEntity
  8
0
 48
50.0
100
AcDbBlockEnd
  0
BLOCK
  5
16464
330
1639B
100
AcDbEntity
  8
0
 48
50.0
100
AcDbBlockBegin
  2
*D7
 70
     1
 10
0.0
 20
0.0
 30
0.0
  3
*D7
  1

  0
LINE
  5
16465
330
1639B
100
AcDbEntity
  8
0
  6
ByBlock
 62
     0
 48
50.0
100
AcDbLine
 10
4799.673057123653
 20
6962.497424545865
 30
0.0
 11
4799.673057123653
 21
6388.0666537797
 31
0.0
  0
LINE
  5
16466
330
1639B
100
AcDbEntity
  8
0
  6
ByBlock
 62
     0
 48
50.0
100
AcDbLine
 10
4744.673057123656
 20
6962.497424545862
 30
0.0
 11
4744.673057123656
 21
6388.0666537797
 31
0.0
  0
LINE
  5
16467
330
1639B
100
AcDbEntity
  8
0
  6
ByBlock
 62
     0
 48
50.0
100
AcDbLine
 10
4799.673057123653
 20
6448.066653779701
 30
0.0
 11
4899.673057123653
 21
6448.066653779701
 31
0.0
  0
LINE
  5
16468
330
1639B
100
AcDbEntity
  8
0
  6
ByBlock
 62
     0
 48
50.0
100
AcDbLine
 10
4744.673057123656
 20
6448.066653779701
 30
0.0
 11
4327.70249437518
 21
6448.066653779701
 31
0.0
  0
LINE
  5
16469
330
1639B
100
AcDbEntity
  8
0
  6
ByBlock
 62
     0
 48
50.0
100
AcDbLine
 10
4799.673057123653
 20
6448.066653779701
 30
0.0
 11
4744.673057123656
 21
6448.066653779701
 31
0.0
  0
INSERT
  5
1646A
330
1639B
100
AcDbEntity
  8
0
  6
ByBlock
 62
     0
 48
50.0
100
AcDbBlockReference
  2
_DOTSMALL
 10
4799.673057123653
 20
6448.066653779701
 30
0.0
 41
100.0
 42
100.0
 43
100.0
 50
180.0
  0
INSERT
  5
1646B
330
1639B
100
AcDbEntity
  8
0
  6
ByBlock
 62
     0
 48
50.0
100
AcDbBlockReference
  2
_DOTSMALL
 10
4744.673057123656
 20
6448.066653779701
 30
0.0
 41
100.0
 42
100.0
 43
100.0
  0
MTEXT
  5
1646C
330
1639B
100
AcDbEntity
  8
0
  6
ByBlock
 62
     7
 48
50.0
100
AcDbMText
 10
4436.187775749418
 20
6548.0666537797
 30
0.0
 40
120.0
 41
0.0
 71
     5
 72
     1
  1
\A1;55
  7
STYLE1
 73
     1
 44
1.0
1001
ACAD
1000
MTEXTBEGIN
1070
    73
1070
     1
1070
    44
1040
1.0
1070
    74
1070
     0
1000
MTEXTEND
  0
POINT
  5
1646D
330
1639B
100
AcDbEntity
  8
DEFPOINTS
  6
ByBlock
 62
     0
 48
50.0
100
AcDbPoint
 10
4799.673057123653
 20
6982.497424545865
 30
0.0
  0
POINT
  5
1646E
330
1639B
100
AcDbEntity
  8
DEFPOINTS
  6
ByBlock
 62
     0
 48
50.0
100
AcDbPoint
 10
4744.673057123656
 20
6982.497424545861
 30
0.0
  0
POINT
  5
1646F
330
1639B
100
AcDbEntity
  8
DEFPOINTS
  6
ByBlock
 62
     0
 48
50.0
100
AcDbPoint
 10
4744.673057123656
 20
6448.066653779701
 30
0.0
  0
ENDBLK
  5
16470
330
1639B
100
AcDbEntity
  8
0
 48
50.0
100
AcDbBlockEnd
  0
BLOCK
  5
16471
330
163A9
100
AcDbEntity
  8
0
 48
50.0
100
AcDbBlockBegin
  2
*D8
 70
     1
 10
0.0
 20
0.0
 30
0.0
  3
*D8
  1

  0
LINE
  5
16472
330
163A9
100
AcDbEntity
  8
0
  6
ByBlock
 62
     0
 48
50.0
100
AcDbLine
 10
4847.673057123657
 20
6988.497424545865
 30
0.0
 11
4847.673057123657
 21
6388.0666537797
 31
0.0
  0
LINE
  5
16473
330
163A9
100
AcDbEntity
  8
0
  6
ByBlock
 62
     0
 48
50.0
100
AcDbLine
 10
4799.673057123653
 20
6962.497424545865
 30
0.0
 11
4799.673057123653
 21
6388.0666537797
 31
0.0
  0
LINE
  5
16474
330
163A9
100
AcDbEntity
  8
0
  6
ByBlock
 62
     0
 48
50.0
100
AcDbLine
 10
4847.673057123657
 20
6448.066653779701
 30
0.0
 11
4947.673057123656
 21
6448.066653779701
 31
0.0
  0
LINE
  5
16475
330
163A9
100
AcDbEntity
  8
0
  6
ByBlock
 62
     0
 48
50.0
100
AcDbLine
 10
4799.673057123653
 20
6448.066653779701
 30
0.0
 11
4699.673057123653
 21
6448.066653779701
 31
0.0
  0
MTEXT
  5
16476
330
163A9
100
AcDbEntity
  8
0
  6
ByBlock
 62
     7
 48
50.0
100
AcDbMText
 10
4960.575028123714
 20
6548.0666537797
 30
0.0
 40
120.0
 41
0.0
 71
     5
 72
     1
  1
\A1;48
  7
STYLE1
 73
     1
 44
1.0
1001
ACAD
1000
MTEXTBEGIN
1070
    73
1070
     1
1070
    44
1040
1.0
1070
    74
1070
     0
1000
MTEXTEND
  0
LINE
  5
16477
330
163A9
100
AcDbEntity
  8
0
  6
ByBlock
 62
     0
 48
50.0
100
AcDbLine
 10
4847.673057123657
 20
6448.066653779701
 30
0.0
 11
4799.673057123653
 21
6448.066653779701
 31
0.0
  0
LINE
  5
16478
330
163A9
100
AcDbEntity
  8
0
  6
ByBlock
 62
     0
 48
50.0
100
AcDbLine
 10
4847.673057123657
 20
6448.066653779701
 30
0.0
 11
4799.673057123653
 21
6448.066653779701
 31
0.0
  0
INSERT
  5
16479
330
163A9
100
AcDbEntity
  8
0
  6
ByBlock
 62
     0
 48
50.0
100
AcDbBlockReference
  2
_DOTSMALL
 10
4847.673057123657
 20
6448.066653779701
 30
0.0
 41
100.0
 42
100.0
 43
100.0
 50
180.0
  0
INSERT
  5
1647A
330
163A9
100
AcDbEntity
  8
0
  6
ByBlock
 62
     0
 48
50.0
100
AcDbBlockReference
  2
_DOTSMALL
 10
4799.673057123653
 20
6448.066653779701
 30
0.0
 41
100.0
 42
100.0
 43
100.0
  0
POINT
  5
1647B
330
163A9
100
AcDbEntity
  8
DEFPOINTS
  6
ByBlock
 62
     0
 48
50.0
100
AcDbPoint
 10
4847.673057123657
 20
7008.497424545864
 30
0.0
  0
POINT
  5
1647C
330
163A9
100
AcDbEntity
  8
DEFPOINTS
  6
ByBlock
 62
     0
 48
50.0
100
AcDbPoint
 10
4799.673057123653
 20
6982.497424545865
 30
0.0
  0
POINT
  5
1647D
330
163A9
100
AcDbEntity
  8
DEFPOINTS
  6
ByBlock
 62
     0
 48
50.0
100
AcDbPoint
 10
4799.673057123653
 20
6448.066653779701
 30
0.0
  0
ENDBLK
  5
1647E
330
163A9
100
AcDbEntity
  8
0
 48
50.0
100
AcDbBlockEnd
  0
BLOCK
  5
1647F
330
163B8
100
AcDbEntity
  8
0
 48
50.0
100
AcDbBlockBegin
  2
*D9
 70
     1
 10
0.0
 20
0.0
 30
0.0
  3
*D9
  1

  0
LINE
  5
16480
330
163B8
100
AcDbEntity
  8
0
  6
ByBlock
 62
     0
 48
50.0
100
AcDbLine
 10
7319.67305712364
 20
6962.497424545952
 30
0.0
 11
7319.67305712364
 21
6388.0666537797
 31
0.0
  0
LINE
  5
16481
330
163B8
100
AcDbEntity
  8
0
  6
ByBlock
 62
     0
 48
50.0
100
AcDbLine
 10
7271.673057123638
 20
6988.497424545865
 30
0.0
 11
7271.673057123638
 21
6388.0666537797
 31
0.0
  0
LINE
  5
16482
330
163B8
100
AcDbEntity
  8
0
  6
ByBlock
 62
     0
 48
50.0
100
AcDbLine
 10
7319.67305712364
 20
6448.066653779701
 30
0.0
 11
7419.67305712364
 21
6448.066653779701
 31
0.0
  0
LINE
  5
16483
330
163B8
100
AcDbEntity
  8
0
  6
ByBlock
 62
     0
 48
50.0
100
AcDbLine
 10
7271.673057123638
 20
6448.066653779701
 30
0.0
 11
7171.673057123638
 21
6448.066653779701
 31
0.0
  0
MTEXT
  5
16484
330
163B8
100
AcDbEntity
  8
0
  6
ByBlock
 62
     7
 48
50.0
100
AcDbMText
 10
7160.710159474891
 20
6548.0666537797
 30
0.0
 40
120.0
 41
0.0
 71
     5
 72
     1
  1
\A1;48
  7
STYLE1
 73
     1
 44
1.0
1001
ACAD
1000
MTEXTBEGIN
1070
    73
1070
     1
1070
    44
1040
1.0
1070
    74
1070
     0
1000
MTEXTEND
  0
LINE
  5
16485
330
163B8
100
AcDbEntity
  8
0
  6
ByBlock
 62
     0
 48
50.0
100
AcDbLine
 10
7319.67305712364
 20
6448.066653779701
 30
0.0
 11
7271.673057123638
 21
6448.066653779701
 31
0.0
  0
LINE
  5
16486
330
163B8
100
AcDbEntity
  8
0
  6
ByBlock
 62
     0
 48
50.0
100
AcDbLine
 10
7319.67305712364
 20
6448.066653779701
 30
0.0
 11
7271.673057123638
 21
6448.066653779701
 31
0.0
  0
INSERT
  5
16487
330
163B8
100
AcDbEntity
  8
0
  6
ByBlock
 62
     0
 48
50.0
100
AcDbBlockReference
  2
_DOTSMALL
 10
7319.67305712364
 20
6448.066653779701
 30
0.0
 41
100.0
 42
100.0
 43
100.0
 50
180.0
  0
INSERT
  5
16488
330
163B8
100
AcDbEntity
  8
0
  6
ByBlock
 62
     0
 48
50.0
100
AcDbBlockReference
  2
_DOTSMALL
 10
7271.673057123638
 20
6448.066653779701
 30
0.0
 41
100.0
 42
100.0
 43
100.0
  0
POINT
  5
16489
330
163B8
100
AcDbEntity
  8
DEFPOINTS
  6
ByBlock
 62
     0
 48
50.0
100
AcDbPoint
 10
7319.67305712364
 20
6982.497424545953
 30
0.0
  0
POINT
  5
1648A
330
163B8
100
AcDbEntity
  8
DEFPOINTS
  6
ByBlock
 62
     0
 48
50.0
100
AcDbPoint
 10
7271.673057123638
 20
7008.497424545865
 30
0.0
  0
POINT
  5
1648B
330
163B8
100
AcDbEntity
  8
DEFPOINTS
  6
ByBlock
 62
     0
 48
50.0
100
AcDbPoint
 10
7271.673057123638
 20
6448.066653779701
 30
0.0
  0
ENDBLK
  5
1648C
330
163B8
100
AcDbEntity
  8
0
 48
50.0
100
AcDbBlockEnd
  0
BLOCK
  5
1648D
330
163C7
100
AcDbEntity
  8
0
 48
50.0
100
AcDbBlockBegin
  2
*D10
 70
     1
 10
0.0
 20
0.0
 30
0.0
  3
*D10
  1

  0
LINE
  5
1648E
330
163C7
100
AcDbEntity
  8
0
  6
ByBlock
 62
     0
 48
50.0
100
AcDbLine
 10
7374.673057123638
 20
6962.497424545957
 30
0.0
 11
7374.673057123638
 21
6388.066653779702
 31
0.0
  0
LINE
  5
1648F
330
163C7
100
AcDbEntity
  8
0
  6
ByBlock
 62
     0
 48
50.0
100
AcDbLine
 10
7319.67305712364
 20
6962.497424545952
 30
0.0
 11
7319.67305712364
 21
6388.066653779702
 31
0.0
  0
LINE
  5
16490
330
163C7
100
AcDbEntity
  8
0
  6
ByBlock
 62
     0
 48
50.0
100
AcDbLine
 10
7319.67305712364
 20
6448.066653779702
 30
0.0
 11
7219.67305712364
 21
6448.066653779702
 31
0.0
  0
LINE
  5
16491
330
163C7
100
AcDbEntity
  8
0
  6
ByBlock
 62
     0
 48
50.0
100
AcDbLine
 10
7374.673057123638
 20
6448.066653779702
 30
0.0
 11
7791.643619872115
 21
6448.066653779702
 31
0.0
  0
LINE
  5
16492
330
163C7
100
AcDbEntity
  8
0
  6
ByBlock
 62
     0
 48
50.0
100
AcDbLine
 10
7319.67305712364
 20
6448.066653779702
 30
0.0
 11
7374.673057123638
 21
6448.066653779702
 31
0.0
  0
INSERT
  5
16493
330
163C7
100
AcDbEntity
  8
0
  6
ByBlock
 62
     0
 48
50.0
100
AcDbBlockReference
  2
_DOTSMALL
 10
7319.67305712364
 20
6448.066653779702
 30
0.0
 41
100.0
 42
100.0
 43
100.0
  0
INSERT
  5
16494
330
163C7
100
AcDbEntity
  8
0
  6
ByBlock
 62
     0
 48
50.0
100
AcDbBlockReference
  2
_DOTSMALL
 10
7374.673057123638
 20
6448.066653779702
 30
0.0
 41
100.0
 42
100.0
 43
100.0
 50
180.0
  0
MTEXT
  5
16495
330
163C7
100
AcDbEntity
  8
0
  6
ByBlock
 62
     7
 48
50.0
100
AcDbMText
 10
7683.158338497877
 20
6548.066653779702
 30
0.0
 40
120.0
 41
0.0
 71
     5
 72
     1
  1
\A1;55
  7
STYLE1
 73
     1
 44
1.0
1001
ACAD
1000
MTEXTBEGIN
1070
    73
1070
     1
1070
    44
1040
1.0
1070
    74
1070
     0
1000
MTEXTEND
  0
POINT
  5
16496
330
163C7
100
AcDbEntity
  8
DEFPOINTS
  6
ByBlock
 62
     0
 48
50.0
100
AcDbPoint
 10
7374.673057123638
 20
6982.497424545956
 30
0.0
  0
POINT
  5
16497
330
163C7
100
AcDbEntity
  8
DEFPOINTS
  6
ByBlock
 62
     0
 48
50.0
100
AcDbPoint
 10
7319.67305712364
 20
6982.497424545953
 30
0.0
  0
POINT
  5
16498
330
163C7
100
AcDbEntity
  8
DEFPOINTS
  6
ByBlock
 62
     0
 48
50.0
100
AcDbPoint
 10
7319.67305712364
 20
6448.066653779702
 30
0.0
  0
ENDBLK
  5
16499
330
163C7
100
AcDbEntity
  8
0
 48
50.0
100
AcDbBlockEnd
  0
BLOCK
  5
17431
330
163E1
100
AcDbEntity
  8
0
 48
50.0
100
AcDbBlockBegin
  2
*D11
 70
     1
 10
0.0
 20
0.0
 30
0.0
  3
*D11
  1

  0
LINE
  5
17432
330
163E1
100
AcDbEntity
  8
0
  6
ByBlock
 62
     0
 48
50.0
100
AcDbLine
 10
5694.673057123663
 20
9792.497424545869
 30
0.0
 11
5694.673057123663
 21
10048.30564417096
 31
0.0
  0
LINE
  5
17433
330
163E1
100
AcDbEntity
  8
0
  6
ByBlock
 62
     0
 48
50.0
100
AcDbLine
 10
8634.673057123665
 20
9792.497424545963
 30
0.0
 11
8634.673057123665
 21
10048.30564417096
 31
0.0
  0
LINE
  5
17434
330
163E1
100
AcDbEntity
  8
0
  6
ByBlock
 62
     0
 48
50.0
100
AcDbLine
 10
5694.673057123663
 20
9988.305644170967
 30
0.0
 11
8634.673057123665
 21
9988.305644170967
 31
0.0
  0
INSERT
  5
17435
330
163E1
100
AcDbEntity
  8
0
  6
ByBlock
 62
     0
 48
50.0
100
AcDbBlockReference
  2
_DOTSMALL
 10
5694.673057123663
 20
9988.305644170967
 30
0.0
 41
100.0
 42
100.0
 43
100.0
 50
180.0
  0
INSERT
  5
17436
330
163E1
100
AcDbEntity
  8
0
  6
ByBlock
 62
     0
 48
50.0
100
AcDbBlockReference
  2
_DOTSMALL
 10
8634.673057123665
 20
9988.305644170967
 30
0.0
 41
100.0
 42
100.0
 43
100.0
  0
MTEXT
  5
17437
330
163E1
100
AcDbEntity
  8
0
  6
ByBlock
 62
     7
 48
50.0
100
AcDbMText
 10
7164.673057123664
 20
10088.31745519459
 30
0.0
 40
120.0
 41
0.0
 71
     5
 72
     1
  1
\A1;7X420=2940
  7
STYLE1
 73
     1
 44
1.0
1001
ACAD
1000
MTEXTBEGIN
1070
    73
1070
     1
1070
    44
1040
1.0
1070
    74
1070
     0
1000
MTEXTEND
  0
POINT
  5
17438
330
163E1
100
AcDbEntity
  8
DEFPOINTS
  6
ByBlock
 62
     0
 48
50.0
100
AcDbPoint
 10
5694.673057123663
 20
9772.49742454587
 30
0.0
  0
POINT
  5
17439
330
163E1
100
AcDbEntity
  8
DEFPOINTS
  6
ByBlock
 62
     0
 48
50.0
100
AcDbPoint
 10
8634.673057123665
 20
9772.497424545964
 30
0.0
  0
POINT
  5
1743A
330
163E1
100
AcDbEntity
  8
DEFPOINTS
  6
ByBlock
 62
     0
 48
50.0
100
AcDbPoint
 10
8634.673057123665
 20
9988.305644170967
 30
0.0
  0
ENDBLK
  5
1743B
330
163E1
100
AcDbEntity
  8
0
 48
50.0
100
AcDbBlockEnd
  0
BLOCK
  5
164B0
330
163ED
100
AcDbEntity
  8
0
 48
50.0
100
AcDbBlockBegin
  2
*D12
 70
     1
 10
0.0
 20
0.0
 30
0.0
  3
*D12
  1

  0
LINE
  5
164B1
330
163ED
100
AcDbEntity
  8
0
  6
ByBlock
 62
     0
 48
50.0
100
AcDbLine
 10
4744.673057123629
 20
10052.49742454587
 30
0.0
 11
4744.673057123629
 21
10308.30564417085
 31
0.0
  0
LINE
  5
164B2
330
163ED
100
AcDbEntity
  8
0
  6
ByBlock
 62
     0
 48
50.0
100
AcDbLine
 10
4799.673057123663
 20
10052.49742454587
 30
0.0
 11
4799.673057123663
 21
10308.30564417085
 31
0.0
  0
LINE
  5
164B3
330
163ED
100
AcDbEntity
  8
0
  6
ByBlock
 62
     0
 48
50.0
100
AcDbLine
 10
4799.673057123663
 20
10248.30564417085
 30
0.0
 11
4899.673057123663
 21
10248.30564417085
 31
0.0
  0
LINE
  5
164B4
330
163ED
100
AcDbEntity
  8
0
  6
ByBlock
 62
     0
 48
50.0
100
AcDbLine
 10
4744.673057123629
 20
10248.30564417085
 30
0.0
 11
4327.702494375151
 21
10248.30564417085
 31
0.0
  0
LINE
  5
164B5
330
163ED
100
AcDbEntity
  8
0
  6
ByBlock
 62
     0
 48
50.0
100
AcDbLine
 10
4799.673057123663
 20
10248.30564417085
 30
0.0
 11
4744.673057123629
 21
10248.30564417085
 31
0.0
  0
INSERT
  5
164B6
330
163ED
100
AcDbEntity
  8
0
  6
ByBlock
 62
     0
 48
50.0
100
AcDbBlockReference
  2
_DOTSMALL
 10
4799.673057123663
 20
10248.30564417085
 30
0.0
 41
100.0
 42
100.0
 43
100.0
 50
180.0
  0
INSERT
  5
164B7
330
163ED
100
AcDbEntity
  8
0
  6
ByBlock
 62
     0
 48
50.0
100
AcDbBlockReference
  2
_DOTSMALL
 10
4744.673057123629
 20
10248.30564417085
 30
0.0
 41
100.0
 42
100.0
 43
100.0
  0
MTEXT
  5
164B8
330
163ED
100
AcDbEntity
  8
0
  6
ByBlock
 62
     7
 48
50.0
100
AcDbMText
 10
4436.187775749391
 20
10348.30564417085
 30
0.0
 40
120.0
 41
0.0
 71
     5
 72
     1
  1
\A1;55
  7
STYLE1
 73
     1
 44
1.0
1001
ACAD
1000
MTEXTBEGIN
1070
    73
1070
     1
1070
    44
1040
1.0
1070
    74
1070
     0
1000
MTEXTEND
  0
POINT
  5
164B9
330
163ED
100
AcDbEntity
  8
DEFPOINTS
  6
ByBlock
 62
     0
 48
50.0
100
AcDbPoint
 10
4744.673057123629
 20
10032.49742454587
 30
0.0
  0
POINT
  5
164BA
330
163ED
100
AcDbEntity
  8
DEFPOINTS
  6
ByBlock
 62
     0
 48
50.0
100
AcDbPoint
 10
4799.673057123663
 20
10032.49742454587
 30
0.0
  0
POINT
  5
164BB
330
163ED
100
AcDbEntity
  8
DEFPOINTS
  6
ByBlock
 62
     0
 48
50.0
100
AcDbPoint
 10
4799.673057123663
 20
10248.30564417085
 30
0.0
  0
ENDBLK
  5
164BC
330
163ED
100
AcDbEntity
  8
0
 48
50.0
100
AcDbBlockEnd
  0
BLOCK
  5
164BD
330
163FB
100
AcDbEntity
  8
0
 48
50.0
100
AcDbBlockBegin
  2
*D13
 70
     1
 10
0.0
 20
0.0
 30
0.0
  3
*D13
  1

  0
LINE
  5
164BE
330
163FB
100
AcDbEntity
  8
0
  6
ByBlock
 62
     0
 48
50.0
100
AcDbLine
 10
7319.673057123664
 20
10052.49742454596
 30
0.0
 11
7319.673057123664
 21
10308.30564417095
 31
0.0
  0
LINE
  5
164BF
330
163FB
100
AcDbEntity
  8
0
  6
ByBlock
 62
     0
 48
50.0
100
AcDbLine
 10
7374.673057123664
 20
10052.49742454596
 30
0.0
 11
7374.673057123664
 21
10308.30564417095
 31
0.0
  0
LINE
  5
164C0
330
163FB
100
AcDbEntity
  8
0
  6
ByBlock
 62
     0
 48
50.0
100
AcDbLine
 10
7319.673057123664
 20
10248.30564417095
 30
0.0
 11
7219.673057123664
 21
10248.30564417095
 31
0.0
  0
LINE
  5
164C1
330
163FB
100
AcDbEntity
  8
0
  6
ByBlock
 62
     0
 48
50.0
100
AcDbLine
 10
7374.673057123664
 20
10248.30564417095
 30
0.0
 11
7791.643619872141
 21
10248.30564417095
 31
0.0
  0
LINE
  5
164C2
330
163FB
100
AcDbEntity
  8
0
  6
ByBlock
 62
     0
 48
50.0
100
AcDbLine
 10
7319.673057123664
 20
10248.30564417095
 30
0.0
 11
7374.673057123664
 21
10248.30564417095
 31
0.0
  0
INSERT
  5
164C3
330
163FB
100
AcDbEntity
  8
0
  6
ByBlock
 62
     0
 48
50.0
100
AcDbBlockReference
  2
_DOTSMALL
 10
7319.673057123664
 20
10248.30564417095
 30
0.0
 41
100.0
 42
100.0
 43
100.0
  0
INSERT
  5
164C4
330
163FB
100
AcDbEntity
  8
0
  6
ByBlock
 62
     0
 48
50.0
100
AcDbBlockReference
  2
_DOTSMALL
 10
7374.673057123664
 20
10248.30564417095
 30
0.0
 41
100.0
 42
100.0
 43
100.0
 50
180.0
  0
MTEXT
  5
164C5
330
163FB
100
AcDbEntity
  8
0
  6
ByBlock
 62
     7
 48
50.0
100
AcDbMText
 10
7683.158338497903
 20
10348.30564417095
 30
0.0
 40
120.0
 41
0.0
 71
     5
 72
     1
  1
\A1;55
  7
STYLE1
 73
     1
 44
1.0
1001
ACAD
1000
MTEXTBEGIN
1070
    73
1070
     1
1070
    44
1040
1.0
1070
    74
1070
     0
1000
MTEXTEND
  0
POINT
  5
164C6
330
163FB
100
AcDbEntity
  8
DEFPOINTS
  6
ByBlock
 62
     0
 48
50.0
100
AcDbPoint
 10
7319.673057123664
 20
10032.49742454596
 30
0.0
  0
POINT
  5
164C7
330
163FB
100
AcDbEntity
  8
DEFPOINTS
  6
ByBlock
 62
     0
 48
50.0
100
AcDbPoint
 10
7374.673057123664
 20
10032.49742454596
 30
0.0
  0
POINT
  5
164C8
330
163FB
100
AcDbEntity
  8
DEFPOINTS
  6
ByBlock
 62
     0
 48
50.0
100
AcDbPoint
 10
7374.673057123664
 20
10248.30564417095
 30
0.0
  0
ENDBLK
  5
164C9
330
163FB
100
AcDbEntity
  8
0
 48
50.0
100
AcDbBlockEnd
  0
BLOCK
  5
171A3
330
1659E
100
AcDbEntity
  8
0
 48
50.0
100
AcDbBlockBegin
  2
*D14
 70
     1
 10
0.0
 20
0.0
 30
0.0
  3
*D14
  1

  0
LINE
  5
171A4
330
1659E
100
AcDbEntity
  8
0
  6
ByBlock
 62
     0
 48
50.0
100
AcDbLine
 10
3112.673057123657
 20
7148.497424545865
 30
0.0
 11
3112.673057123657
 21
6548.0666537797
 31
0.0
  0
LINE
  5
171A5
330
1659E
100
AcDbEntity
  8
0
  6
ByBlock
 62
     0
 48
50.0
100
AcDbLine
 10
5956.673057123638
 20
6608.0666537797
 30
0.0
 11
3112.673057123657
 21
6608.0666537797
 31
0.0
  0
INSERT
  5
171A6
330
1659E
100
AcDbEntity
  8
0
  6
ByBlock
 62
     0
 48
50.0
100
AcDbBlockReference
  2
_DOTSMALL
 10
5956.673057123638
 20
6608.0666537797
 30
0.0
 41
100.0
 42
100.0
 43
100.0
  0
INSERT
  5
171A7
330
1659E
100
AcDbEntity
  8
0
  6
ByBlock
 62
     0
 48
50.0
100
AcDbBlockReference
  2
_DOTSMALL
 10
3112.673057123657
 20
6608.0666537797
 30
0.0
 41
100.0
 42
100.0
 43
100.0
 50
180.0
  0
MTEXT
  5
171A8
330
1659E
100
AcDbEntity
  8
0
  6
ByBlock
 62
     7
 48
50.0
100
AcDbMText
 10
4534.673057123647
 20
6708.078464803323
 30
0.0
 40
120.0
 41
0.0
 71
     5
 72
     1
  1
\A1;有効開口部間口 2844
  7
STYLE1
 73
     1
 44
1.0
1001
ACAD
1000
MTEXTBEGIN
1070
    73
1070
     1
1070
    44
1040
1.0
1070
    74
1070
     0
1000
MTEXTEND
  0
POINT
  5
171A9
330
1659E
100
AcDbEntity
  8
DEFPOINTS
  6
ByBlock
 62
     0
 48
50.0
100
AcDbPoint
 10
5956.673057123638
 20
7168.497424545865
 30
0.0
  0
POINT
  5
171AA
330
1659E
100
AcDbEntity
  8
DEFPOINTS
  6
ByBlock
 62
     0
 48
50.0
100
AcDbPoint
 10
3112.673057123657
 20
7168.497424545865
 30
0.0
  0
POINT
  5
171AB
330
1659E
100
AcDbEntity
  8
DEFPOINTS
  6
ByBlock
 62
     0
 48
50.0
100
AcDbPoint
 10
3112.673057123657
 20
6608.0666537797
 30
0.0
  0
ENDBLK
  5
171AC
330
1659E
100
AcDbEntity
  8
0
 48
50.0
100
AcDbBlockEnd
  0
BLOCK
  5
165B6
330
165B5
100
AcDbEntity
  8
0
 48
50.0
100
AcDbBlockBegin
  2
*D15
 70
     1
 10
0.0
 20
0.0
 30
0.0
  3
*D15
  1

  0
LINE
  5
165B7
330
165B5
100
AcDbEntity
  8
0
  6
ByBlock
 62
     0
 48
50.0
100
AcDbLine
 10
6162.673057123657
 20
6988.497424545865
 30
0.0
 11
6162.673057123657
 21
6388.0666537797
 31
0.0
  0
LINE
  5
165B8
330
165B5
100
AcDbEntity
  8
0
  6
ByBlock
 62
     0
 48
50.0
100
AcDbLine
 10
6114.673057123653
 20
6962.497424545865
 30
0.0
 11
6114.673057123653
 21
6388.0666537797
 31
0.0
  0
LINE
  5
165B9
330
165B5
100
AcDbEntity
  8
0
  6
ByBlock
 62
     0
 48
50.0
100
AcDbLine
 10
6162.673057123657
 20
6448.066653779701
 30
0.0
 11
6262.673057123657
 21
6448.066653779701
 31
0.0
  0
LINE
  5
165BA
330
165B5
100
AcDbEntity
  8
0
  6
ByBlock
 62
     0
 48
50.0
100
AcDbLine
 10
6114.673057123653
 20
6448.066653779701
 30
0.0
 11
6014.673057123653
 21
6448.066653779701
 31
0.0
  0
MTEXT
  5
165BB
330
165B5
100
AcDbEntity
  8
0
  6
ByBlock
 62
     7
 48
50.0
100
AcDbMText
 10
6275.575028123714
 20
6548.0666537797
 30
0.0
 40
120.0
 41
0.0
 71
     5
 72
     1
  1
\A1;48
  7
STYLE1
 73
     1
 44
1.0
1001
ACAD
1000
MTEXTBEGIN
1070
    73
1070
     1
1070
    44
1040
1.0
1070
    74
1070
     0
1000
MTEXTEND
  0
LINE
  5
165BC
330
165B5
100
AcDbEntity
  8
0
  6
ByBlock
 62
     0
 48
50.0
100
AcDbLine
 10
6162.673057123657
 20
6448.066653779701
 30
0.0
 11
6114.673057123653
 21
6448.066653779701
 31
0.0
  0
LINE
  5
165BD
330
165B5
100
AcDbEntity
  8
0
  6
ByBlock
 62
     0
 48
50.0
100
AcDbLine
 10
6162.673057123657
 20
6448.066653779701
 30
0.0
 11
6114.673057123653
 21
6448.066653779701
 31
0.0
  0
INSERT
  5
165BE
330
165B5
100
AcDbEntity
  8
0
  6
ByBlock
 62
     0
 48
50.0
100
AcDbBlockReference
  2
_DOTSMALL
 10
6162.673057123657
 20
6448.066653779701
 30
0.0
 41
100.0
 42
100.0
 43
100.0
 50
180.0
  0
INSERT
  5
165BF
330
165B5
100
AcDbEntity
  8
0
  6
ByBlock
 62
     0
 48
50.0
100
AcDbBlockReference
  2
_DOTSMALL
 10
6114.673057123653
 20
6448.066653779701
 30
0.0
 41
100.0
 42
100.0
 43
100.0
  0
POINT
  5
165C0
330
165B5
100
AcDbEntity
  8
DEFPOINTS
  6
ByBlock
 62
     0
 48
50.0
100
AcDbPoint
 10
6162.673057123657
 20
7008.497424545864
 30
0.0
  0
POINT
  5
165C1
330
165B5
100
AcDbEntity
  8
DEFPOINTS
  6
ByBlock
 62
     0
 48
50.0
100
AcDbPoint
 10
6114.673057123653
 20
6982.497424545865
 30
0.0
  0
POINT
  5
165C2
330
165B5
100
AcDbEntity
  8
DEFPOINTS
  6
ByBlock
 62
     0
 48
50.0
100
AcDbPoint
 10
6114.673057123653
 20
6448.066653779701
 30
0.0
  0
ENDBLK
  5
165C3
330
165B5
100
AcDbEntity
  8
0
 48
50.0
100
AcDbBlockEnd
  0
BLOCK
  5
165C5
330
165C4
100
AcDbEntity
  8
0
 48
50.0
100
AcDbBlockBegin
  2
*D16
 70
     1
 10
0.0
 20
0.0
 30
0.0
  3
*D16
  1

  0
LINE
  5
165C6
330
165C4
100
AcDbEntity
  8
0
  6
ByBlock
 62
     0
 48
50.0
100
AcDbLine
 10
8634.67305712364
 20
6962.497424545952
 30
0.0
 11
8634.67305712364
 21
6388.0666537797
 31
0.0
  0
LINE
  5
165C7
330
165C4
100
AcDbEntity
  8
0
  6
ByBlock
 62
     0
 48
50.0
100
AcDbLine
 10
8586.673057123638
 20
6988.497424545865
 30
0.0
 11
8586.673057123638
 21
6388.0666537797
 31
0.0
  0
LINE
  5
165C8
330
165C4
100
AcDbEntity
  8
0
  6
ByBlock
 62
     0
 48
50.0
100
AcDbLine
 10
8634.67305712364
 20
6448.066653779701
 30
0.0
 11
8734.673057123641
 21
6448.066653779701
 31
0.0
  0
LINE
  5
165C9
330
165C4
100
AcDbEntity
  8
0
  6
ByBlock
 62
     0
 48
50.0
100
AcDbLine
 10
8586.673057123638
 20
6448.066653779701
 30
0.0
 11
8486.673057123638
 21
6448.066653779701
 31
0.0
  0
MTEXT
  5
165CA
330
165C4
100
AcDbEntity
  8
0
  6
ByBlock
 62
     7
 48
50.0
100
AcDbMText
 10
8475.710159474891
 20
6548.0666537797
 30
0.0
 40
120.0
 41
0.0
 71
     5
 72
     1
  1
\A1;48
  7
STYLE1
 73
     1
 44
1.0
1001
ACAD
1000
MTEXTBEGIN
1070
    73
1070
     1
1070
    44
1040
1.0
1070
    74
1070
     0
1000
MTEXTEND
  0
LINE
  5
165CB
330
165C4
100
AcDbEntity
  8
0
  6
ByBlock
 62
     0
 48
50.0
100
AcDbLine
 10
8634.67305712364
 20
6448.066653779701
 30
0.0
 11
8586.673057123638
 21
6448.066653779701
 31
0.0
  0
LINE
  5
165CC
330
165C4
100
AcDbEntity
  8
0
  6
ByBlock
 62
     0
 48
50.0
100
AcDbLine
 10
8634.67305712364
 20
6448.066653779701
 30
0.0
 11
8586.673057123638
 21
6448.066653779701
 31
0.0
  0
INSERT
  5
165CD
330
165C4
100
AcDbEntity
  8
0
  6
ByBlock
 62
     0
 48
50.0
100
AcDbBlockReference
  2
_DOTSMALL
 10
8634.67305712364
 20
6448.066653779701
 30
0.0
 41
100.0
 42
100.0
 43
100.0
 50
180.0
  0
INSERT
  5
165CE
330
165C4
100
AcDbEntity
  8
0
  6
ByBlock
 62
     0
 48
50.0
100
AcDbBlockReference
  2
_DOTSMALL
 10
8586.673057123638
 20
6448.066653779701
 30
0.0
 41
100.0
 42
100.0
 43
100.0
  0
POINT
  5
165CF
330
165C4
100
AcDbEntity
  8
DEFPOINTS
  6
ByBlock
 62
     0
 48
50.0
100
AcDbPoint
 10
8634.67305712364
 20
6982.497424545953
 30
0.0
  0
POINT
  5
165D0
330
165C4
100
AcDbEntity
  8
DEFPOINTS
  6
ByBlock
 62
     0
 48
50.0
100
AcDbPoint
 10
8586.673057123638
 20
7008.497424545865
 30
0.0
  0
POINT
  5
165D1
330
165C4
100
AcDbEntity
  8
DEFPOINTS
  6
ByBlock
 62
     0
 48
50.0
100
AcDbPoint
 10
8586.673057123638
 20
6448.066653779701
 30
0.0
  0
ENDBLK
  5
165D2
330
165C4
100
AcDbEntity
  8
0
 48
50.0
100
AcDbBlockEnd
  0
BLOCK
  5
1663F
330
165EA
100
AcDbEntity
  8
0
 48
50.0
100
AcDbBlockBegin
  2
*D17
 70
     1
 10
0.0
 20
0.0
 30
0.0
  3
*D17
  1

  0
LINE
  5
16640
330
165EA
100
AcDbEntity
  8
0
  6
ByBlock
 62
     0
 48
50.0
100
AcDbLine
 10
6114.673057123653
 20
7222.497424545863
 30
0.0
 11
6114.673057123653
 21
6648.066653779702
 31
0.0
  0
LINE
  5
16641
330
165EA
100
AcDbEntity
  8
0
  6
ByBlock
 62
     0
 48
50.0
100
AcDbLine
 10
6004.67305712364
 20
7222.497424545952
 30
0.0
 11
6004.67305712364
 21
6648.066653779702
 31
0.0
  0
LINE
  5
16642
330
165EA
100
AcDbEntity
  8
0
  6
ByBlock
 62
     0
 48
50.0
100
AcDbLine
 10
6114.673057123653
 20
6708.066653779702
 30
0.0
 11
6004.67305712364
 21
6708.066653779702
 31
0.0
  0
MTEXT
  5
16643
330
165EA
100
AcDbEntity
  8
0
  6
ByBlock
 62
     7
 48
50.0
100
AcDbMText
 10
6059.673057123647
 20
6556.37475874347
 30
0.0
 40
120.0
 41
0.0
 71
     5
 72
     1
  1
\A1;110
  7
STYLE1
 73
     1
 44
1.0
1001
ACAD
1000
MTEXTBEGIN
1070
    73
1070
     1
1070
    44
1040
1.0
1070
    74
1070
     0
1000
MTEXTEND
  0
INSERT
  5
16644
330
165EA
100
AcDbEntity
  8
0
  6
ByBlock
 62
     0
 48
50.0
100
AcDbBlockReference
  2
_DOTSMALL
 10
6114.673057123653
 20
6708.066653779702
 30
0.0
 41
100.0
 42
100.0
 43
100.0
  0
INSERT
  5
16645
330
165EA
100
AcDbEntity
  8
0
  6
ByBlock
 62
     0
 48
50.0
100
AcDbBlockReference
  2
_DOTSMALL
 10
6004.67305712364
 20
6708.066653779702
 30
0.0
 41
100.0
 42
100.0
 43
100.0
 50
180.0
  0
POINT
  5
16646
330
165EA
100
AcDbEntity
  8
DEFPOINTS
  6
ByBlock
 62
     0
 48
50.0
100
AcDbPoint
 10
6114.673057123653
 20
7242.497424545864
 30
0.0
  0
POINT
  5
16647
330
165EA
100
AcDbEntity
  8
DEFPOINTS
  6
ByBlock
 62
     0
 48
50.0
100
AcDbPoint
 10
6004.67305712364
 20
7242.497424545952
 30
0.0
  0
POINT
  5
16648
330
165EA
100
AcDbEntity
  8
DEFPOINTS
  6
ByBlock
 62
     0
 48
50.0
100
AcDbPoint
 10
6004.67305712364
 20
6708.066653779702
 30
0.0
  0
ENDBLK
  5
16649
330
165EA
100
AcDbEntity
  8
0
 48
50.0
100
AcDbBlockEnd
  0
BLOCK
  5
17426
330
166AD
100
AcDbEntity
  8
0
 48
50.0
100
AcDbBlockBegin
  2
*D18
 70
     1
 10
0.0
 20
0.0
 30
0.0
  3
*D18
  1

  0
LINE
  5
17427
330
166AD
100
AcDbEntity
  8
0
  6
ByBlock
 62
     0
 48
50.0
100
AcDbLine
 10
2644.673057123663
 20
9792.497424545869
 30
0.0
 11
2644.673057123663
 21
10048.30564417096
 31
0.0
  0
LINE
  5
17428
330
166AD
100
AcDbEntity
  8
0
  6
ByBlock
 62
     0
 48
50.0
100
AcDbLine
 10
5584.673057123664
 20
9792.497424545963
 30
0.0
 11
5584.673057123664
 21
10048.30564417096
 31
0.0
  0
LINE
  5
17429
330
166AD
100
AcDbEntity
  8
0
  6
ByBlock
 62
     0
 48
50.0
100
AcDbLine
 10
2644.673057123663
 20
9988.305644170967
 30
0.0
 11
5584.673057123664
 21
9988.305644170967
 31
0.0
  0
INSERT
  5
1742A
330
166AD
100
AcDbEntity
  8
0
  6
ByBlock
 62
     0
 48
50.0
100
AcDbBlockReference
  2
_DOTSMALL
 10
2644.673057123663
 20
9988.305644170967
 30
0.0
 41
100.0
 42
100.0
 43
100.0
 50
180.0
  0
INSERT
  5
1742B
330
166AD
100
AcDbEntity
  8
0
  6
ByBlock
 62
     0
 48
50.0
100
AcDbBlockReference
  2
_DOTSMALL
 10
5584.673057123664
 20
9988.305644170967
 30
0.0
 41
100.0
 42
100.0
 43
100.0
  0
MTEXT
  5
1742C
330
166AD
100
AcDbEntity
  8
0
  6
ByBlock
 62
     7
 48
50.0
100
AcDbMText
 10
4114.673057123663
 20
10088.31745519459
 30
0.0
 40
120.0
 41
0.0
 71
     5
 72
     1
  1
\A1;7X420=2940
  7
STYLE1
 73
     1
 44
1.0
1001
ACAD
1000
MTEXTBEGIN
1070
    73
1070
     1
1070
    44
1040
1.0
1070
    74
1070
     0
1000
MTEXTEND
  0
POINT
  5
1742D
330
166AD
100
AcDbEntity
  8
DEFPOINTS
  6
ByBlock
 62
     0
 48
50.0
100
AcDbPoint
 10
2644.673057123663
 20
9772.49742454587
 30
0.0
  0
POINT
  5
1742E
330
166AD
100
AcDbEntity
  8
DEFPOINTS
  6
ByBlock
 62
     0
 48
50.0
100
AcDbPoint
 10
5584.673057123664
 20
9772.497424545964
 30
0.0
  0
POINT
  5
1742F
330
166AD
100
AcDbEntity
  8
DEFPOINTS
  6
ByBlock
 62
     0
 48
50.0
100
AcDbPoint
 10
5584.673057123664
 20
9988.305644170967
 30
0.0
  0
ENDBLK
  5
17430
330
166AD
100
AcDbEntity
  8
0
 48
50.0
100
AcDbBlockEnd
  0
BLOCK
  5
166D0
330
166CF
100
AcDbEntity
  8
0
 48
50.0
100
AcDbBlockBegin
  2
*D19
 70
     1
 10
0.0
 20
0.0
 30
0.0
  3
*D19
  1

  0
LINE
  5
166D1
330
166CF
100
AcDbEntity
  8
0
  6
ByBlock
 62
     0
 48
50.0
100
AcDbLine
 10
6114.673057123663
 20
8952.497424545917
 30
0.0
 11
6114.673057123663
 21
9208.305644170968
 31
0.0
  0
LINE
  5
166D2
330
166CF
100
AcDbEntity
  8
0
  6
ByBlock
 62
     0
 48
50.0
100
AcDbLine
 10
6004.673057123664
 20
8952.497424545915
 30
0.0
 11
6004.673057123664
 21
9208.305644170968
 31
0.0
  0
LINE
  5
166D3
330
166CF
100
AcDbEntity
  8
0
  6
ByBlock
 62
     0
 48
50.0
100
AcDbLine
 10
6114.673057123663
 20
9148.305644170966
 30
0.0
 11
6214.673057123663
 21
9148.305644170966
 31
0.0
  0
LINE
  5
166D4
330
166CF
100
AcDbEntity
  8
0
  6
ByBlock
 62
     0
 48
50.0
100
AcDbLine
 10
6004.673057123664
 20
9148.305644170966
 30
0.0
 11
5904.673057123664
 21
9148.305644170966
 31
0.0
  0
LINE
  5
166D5
330
166CF
100
AcDbEntity
  8
0
  6
ByBlock
 62
     0
 48
50.0
100
AcDbLine
 10
6114.673057123663
 20
9148.305644170966
 30
0.0
 11
6004.673057123664
 21
9148.305644170966
 31
0.0
  0
INSERT
  5
166D6
330
166CF
100
AcDbEntity
  8
0
  6
ByBlock
 62
     0
 48
50.0
100
AcDbBlockReference
  2
_DOTSMALL
 10
6114.673057123663
 20
9148.305644170966
 30
0.0
 41
100.0
 42
100.0
 43
100.0
 50
180.0
  0
INSERT
  5
166D7
330
166CF
100
AcDbEntity
  8
0
  6
ByBlock
 62
     0
 48
50.0
100
AcDbBlockReference
  2
_DOTSMALL
 10
6004.673057123664
 20
9148.305644170966
 30
0.0
 41
100.0
 42
100.0
 43
100.0
  0
MTEXT
  5
166D8
330
166CF
100
AcDbEntity
  8
0
  6
ByBlock
 62
     7
 48
50.0
100
AcDbMText
 10
6059.673057123664
 20
9248.305644170967
 30
0.0
 40
120.0
 41
0.0
 71
     5
 72
     1
  1
\A1;110
  7
STYLE1
 73
     1
 44
1.0
1001
ACAD
1000
MTEXTBEGIN
1070
    73
1070
     1
1070
    44
1040
1.0
1070
    74
1070
     0
1000
MTEXTEND
  0
POINT
  5
166D9
330
166CF
100
AcDbEntity
  8
DEFPOINTS
  6
ByBlock
 62
     0
 48
50.0
100
AcDbPoint
 10
6114.673057123663
 20
8932.497424545919
 30
0.0
  0
POINT
  5
166DA
330
166CF
100
AcDbEntity
  8
DEFPOINTS
  6
ByBlock
 62
     0
 48
50.0
100
AcDbPoint
 10
6004.673057123664
 20
8932.497424545914
 30
0.0
  0
POINT
  5
166DB
330
166CF
100
AcDbEntity
  8
DEFPOINTS
  6
ByBlock
 62
     0
 48
50.0
100
AcDbPoint
 10
6004.673057123664
 20
9148.305644170966
 30
0.0
  0
ENDBLK
  5
166DC
330
166CF
100
AcDbEntity
  8
0
 48
50.0
100
AcDbBlockEnd
  0
BLOCK
  5
171AD
330
168FB
100
AcDbEntity
  8
0
 48
50.0
100
AcDbBlockBegin
  2
*D20
 70
     1
 10
0.0
 20
0.0
 30
0.0
  3
*D20
  1

  0
LINE
  5
171AE
330
168FB
100
AcDbEntity
  8
0
  6
ByBlock
 62
     0
 48
50.0
100
AcDbLine
 10
3009.673057123629
 20
9792.497424545835
 30
0.0
 11
3009.673057123629
 21
10297.62711772726
 31
0.0
  0
LINE
  5
171AF
330
168FB
100
AcDbEntity
  8
0
  6
ByBlock
 62
     0
 48
50.0
100
AcDbLine
 10
6059.673057123664
 20
10167.29355852891
 30
0.0
 11
6059.673057123664
 21
10297.62711772726
 31
0.0
  0
LINE
  5
171B0
330
168FB
100
AcDbEntity
  8
0
  6
ByBlock
 62
     0
 48
50.0
100
AcDbLine
 10
3009.673057123629
 20
10237.62711772726
 30
0.0
 11
6059.673057123664
 21
10237.62711772726
 31
0.0
  0
INSERT
  5
171B1
330
168FB
100
AcDbEntity
  8
0
  6
ByBlock
 62
     0
 48
50.0
100
AcDbBlockReference
  2
_DOTSMALL
 10
3009.673057123629
 20
10237.62711772726
 30
0.0
 41
100.0
 42
100.0
 43
100.0
 50
180.0
  0
INSERT
  5
171B2
330
168FB
100
AcDbEntity
  8
0
  6
ByBlock
 62
     0
 48
50.0
100
AcDbBlockReference
  2
_DOTSMALL
 10
6059.673057123664
 20
10237.62711772726
 30
0.0
 41
100.0
 42
100.0
 43
100.0
  0
MTEXT
  5
171B3
330
168FB
100
AcDbEntity
  8
0
  6
ByBlock
 62
     7
 48
50.0
100
AcDbMText
 10
4534.673057123645
 20
10337.62711772726
 30
0.0
 40
120.0
 41
0.0
 71
     5
 72
     1
  1
\A1;3050
  7
STYLE1
 73
     1
 44
1.0
1001
ACAD
1000
MTEXTBEGIN
1070
    73
1070
     1
1070
    44
1040
1.0
1070
    74
1070
     0
1000
MTEXTEND
  0
POINT
  5
171B4
330
168FB
100
AcDbEntity
  8
DEFPOINTS
  6
ByBlock
 62
     0
 48
50.0
100
AcDbPoint
 10
3009.673057123629
 20
9772.497424545838
 30
0.0
  0
POINT
  5
171B5
330
168FB
100
AcDbEntity
  8
DEFPOINTS
  6
ByBlock
 62
     0
 48
50.0
100
AcDbPoint
 10
6059.673057123664
 20
10147.29355852891
 30
0.0
  0
POINT
  5
171B6
330
168FB
100
AcDbEntity
  8
DEFPOINTS
  6
ByBlock
 62
     0
 48
50.0
100
AcDbPoint
 10
6059.673057123664
 20
10237.62711772726
 30
0.0
  0
ENDBLK
  5
171B7
330
168FB
100
AcDbEntity
  8
0
 48
50.0
100
AcDbBlockEnd
  0
BLOCK
  5
171CE
330
16908
100
AcDbEntity
  8
0
 48
50.0
100
AcDbBlockBegin
  2
*D21
 70
     1
 10
0.0
 20
0.0
 30
0.0
  3
*D21
  1

  0
LINE
  5
171CF
330
16908
100
AcDbEntity
  8
0
  6
ByBlock
 62
     0
 48
50.0
100
AcDbLine
 10
8689.673057123664
 20
9792.497424545963
 30
0.0
 11
8689.673057123664
 21
10297.62711772726
 31
0.0
  0
LINE
  5
171D0
330
16908
100
AcDbEntity
  8
0
  6
ByBlock
 62
     0
 48
50.0
100
AcDbLine
 10
5639.673057123664
 20
10237.62711772726
 30
0.0
 11
8689.673057123664
 21
10237.62711772726
 31
0.0
  0
INSERT
  5
171D1
330
16908
100
AcDbEntity
  8
0
  6
ByBlock
 62
     0
 48
50.0
100
AcDbBlockReference
  2
_DOTSMALL
 10
5639.673057123664
 20
10237.62711772726
 30
0.0
 41
100.0
 42
100.0
 43
100.0
 50
180.0
  0
INSERT
  5
171D2
330
16908
100
AcDbEntity
  8
0
  6
ByBlock
 62
     0
 48
50.0
100
AcDbBlockReference
  2
_DOTSMALL
 10
8689.673057123664
 20
10237.62711772726
 30
0.0
 41
100.0
 42
100.0
 43
100.0
  0
MTEXT
  5
171D3
330
16908
100
AcDbEntity
  8
0
  6
ByBlock
 62
     7
 48
50.0
100
AcDbMText
 10
7164.673057123664
 20
10337.62711772726
 30
0.0
 40
120.0
 41
0.0
 71
     5
 72
     1
  1
\A1;3050
  7
STYLE1
 73
     1
 44
1.0
1001
ACAD
1000
MTEXTBEGIN
1070
    73
1070
     1
1070
    44
1040
1.0
1070
    74
1070
     0
1000
MTEXTEND
  0
POINT
  5
171D4
330
16908
100
AcDbEntity
  8
DEFPOINTS
  6
ByBlock
 62
     0
 48
50.0
100
AcDbPoint
 10
5639.673057123664
 20
10147.29355852891
 30
0.0
  0
POINT
  5
171D5
330
16908
100
AcDbEntity
  8
DEFPOINTS
  6
ByBlock
 62
     0
 48
50.0
100
AcDbPoint
 10
8689.673057123664
 20
9772.497424545964
 30
0.0
  0
POINT
  5
171D6
330
16908
100
AcDbEntity
  8
DEFPOINTS
  6
ByBlock
 62
     0
 48
50.0
100
AcDbPoint
 10
8689.673057123664
 20
10237.62711772726
 30
0.0
  0
ENDBLK
  5
171D7
330
16908
100
AcDbEntity
  8
0
 48
50.0
100
AcDbBlockEnd
  0
BLOCK
  5
1832D
330
18323
100
AcDbEntity
  8
0
 48
50.0
100
AcDbBlockBegin
  2
*D22
 70
     1
 10
0.0
 20
0.0
 30
0.0
  3
*D22
  1

  0
LINE
  5
1956A
330
18323
100
AcDbEntity
  8
寸法
 62
     0
 48
50.0
370
    -2
100
AcDbLine
 10
9109.673057123652
 20
4932.931598713266
 30
0.0
 11
9109.673057123652
 21
5185.473183971506
 31
0.0
  0
LINE
  5
1956B
330
18323
100
AcDbEntity
  8
寸法
 62
     0
 48
50.0
370
    -2
100
AcDbLine
 10
3009.673057123637
 20
4932.931598713269
 30
0.0
 11
3009.673057123637
 21
5185.473183971506
 31
0.0
  0
LINE
  5
1956C
330
18323
100
AcDbEntity
  8
寸法
 62
     0
 48
50.0
370
    -2
100
AcDbLine
 10
9109.673057123652
 20
5125.473183971506
 30
0.0
 11
3009.673057123637
 21
5125.473183971506
 31
0.0
  0
INSERT
  5
1956D
330
18323
100
AcDbEntity
  8
寸法
 62
     0
 48
50.0
370
    -2
100
AcDbBlockReference
  2
_DOTSMALL
 10
9109.673057123652
 20
5125.473183971506
 30
0.0
 41
100.0
 42
100.0
 43
100.0
  0
INSERT
  5
1956E
330
18323
100
AcDbEntity
  8
寸法
 62
     0
 48
50.0
370
    -2
100
AcDbBlockReference
  2
_DOTSMALL
 10
3009.673057123637
 20
5125.473183971506
 30
0.0
 41
100.0
 42
100.0
 43
100.0
 50
180.0
  0
MTEXT
  5
1956F
330
18323
100
AcDbEntity
  8
寸法
 62
     7
 48
50.0
100
AcDbMText
 10
6059.673057123644
 20
5225.473183971506
 30
0.0
 40
120.0
 41
0.0
 71
     5
 72
     1
  1
\A1;柱外寸法6100
  7
STYLE1
 73
     1
 44
1.0
1001
ACAD
1000
MTEXTBEGIN
1070
    73
1070
     1
1070
    44
1040
1.0
1070
    74
1070
     0
1000
MTEXTEND
  0
POINT
  5
19570
330
18323
100
AcDbEntity
  8
DEFPOINTS
 62
     0
 48
50.0
100
AcDbPoint
 10
9109.673057123652
 20
4912.931598713266
 30
0.0
  0
POINT
  5
19571
330
18323
100
AcDbEntity
  8
DEFPOINTS
 62
     0
 48
50.0
100
AcDbPoint
 10
3009.673057123637
 20
4912.931598713268
 30
0.0
  0
POINT
  5
19572
330
18323
100
AcDbEntity
  8
DEFPOINTS
 62
     0
 48
50.0
100
AcDbPoint
 10
3009.673057123637
 20
5125.473183971506
 30
0.0
  0
ENDBLK
  5
1832E
330
18323
100
AcDbEntity
  8
0
 48
50.0
100
AcDbBlockEnd
  0
BLOCK
  5
1833B
330
1832F
100
AcDbEntity
  8
0
 48
50.0
100
AcDbBlockBegin
  2
*D23
 70
     1
 10
0.0
 20
0.0
 30
0.0
  3
*D23
  1

  0
LINE
  5
1869A
330
1832F
100
AcDbEntity
  8
寸法
 62
     0
 48
50.0
370
    -2
100
AcDbLine
 10
3009.673057123637
 20
4932.931598713269
 30
0.0
 11
3009.673057123637
 21
5185.473183971506
 31
0.0
  0
LINE
  5
1869B
330
1832F
100
AcDbEntity
  8
寸法
 62
     0
 48
50.0
370
    -2
100
AcDbLine
 10
2959.673057123637
 20
4932.931598713267
 30
0.0
 11
2959.673057123637
 21
5185.473183971506
 31
0.0
  0
LINE
  5
1869C
330
1832F
100
AcDbEntity
  8
寸法
 62
     0
 48
50.0
370
    -2
100
AcDbLine
 10
3009.673057123637
 20
5125.473183971506
 30
0.0
 11
3109.673057123637
 21
5125.473183971506
 31
0.0
  0
LINE
  5
1869D
330
1832F
100
AcDbEntity
  8
寸法
 62
     0
 48
50.0
370
    -2
100
AcDbLine
 10
2959.673057123637
 20
5125.473183971506
 30
0.0
 11
2540.140531654901
 21
5125.473183971506
 31
0.0
  0
LINE
  5
1869E
330
1832F
100
AcDbEntity
  8
寸法
 62
     0
 48
50.0
370
    -2
100
AcDbLine
 10
3009.673057123637
 20
5125.473183971506
 30
0.0
 11
2959.673057123637
 21
5125.473183971506
 31
0.0
  0
INSERT
  5
1869F
330
1832F
100
AcDbEntity
  8
寸法
 62
     0
 48
50.0
370
    -2
100
AcDbBlockReference
  2
_DOTSMALL
 10
3009.673057123637
 20
5125.473183971506
 30
0.0
 41
100.0
 42
100.0
 43
100.0
 50
180.0
  0
INSERT
  5
186A0
330
1832F
100
AcDbEntity
  8
寸法
 62
     0
 48
50.0
370
    -2
100
AcDbBlockReference
  2
_DOTSMALL
 10
2959.673057123637
 20
5125.473183971506
 30
0.0
 41
100.0
 42
100.0
 43
100.0
  0
MTEXT
  5
186A1
330
1832F
100
AcDbEntity
  8
寸法
 62
     7
 48
50.0
100
AcDbMText
 10
2646.187775749389
 20
5225.473183971506
 30
0.0
 40
120.0
 41
0.0
 71
     5
 72
     1
  1
\A1;50
  7
STYLE1
 73
     1
 44
1.0
1001
ACAD
1000
MTEXTBEGIN
1070
    73
1070
     1
1070
    44
1040
1.0
1070
    74
1070
     0
1000
MTEXTEND
  0
POINT
  5
186A2
330
1832F
100
AcDbEntity
  8
DEFPOINTS
 62
     0
 48
50.0
100
AcDbPoint
 10
3009.673057123637
 20
4912.931598713268
 30
0.0
  0
POINT
  5
186A3
330
1832F
100
AcDbEntity
  8
DEFPOINTS
 62
     0
 48
50.0
100
AcDbPoint
 10
2959.673057123637
 20
4912.931598713267
 30
0.0
  0
POINT
  5
186A4
330
1832F
100
AcDbEntity
  8
DEFPOINTS
 62
     0
 48
50.0
100
AcDbPoint
 10
2959.673057123637
 20
5125.473183971506
 30
0.0
  0
ENDBLK
  5
1833C
330
1832F
100
AcDbEntity
  8
0
 48
50.0
100
AcDbBlockEnd
  0
BLOCK
  5
1837A
330
18370
100
AcDbEntity
  8
0
 48
50.0
100
AcDbBlockBegin
  2
*D24
 70
     1
 10
0.0
 20
0.0
 30
0.0
  3
*D24
  1

  0
LINE
  5
1866A
330
18370
100
AcDbEntity
  8
寸法
 62
     0
 48
50.0
370
    -2
100
AcDbLine
 10
2959.673057123637
 20
4932.931598713267
 30
0.0
 11
2959.673057123637
 21
5406.378484445255
 31
0.0
  0
LINE
  5
1866B
330
18370
100
AcDbEntity
  8
寸法
 62
     0
 48
50.0
370
    -2
100
AcDbLine
 10
9159.673057123667
 20
4932.931598713264
 30
0.0
 11
9159.673057123667
 21
5406.378484445255
 31
0.0
  0
LINE
  5
1866C
330
18370
100
AcDbEntity
  8
寸法
 62
     0
 48
50.0
370
    -2
100
AcDbLine
 10
2959.673057123637
 20
5346.378484445256
 30
0.0
 11
9159.673057123667
 21
5346.378484445256
 31
0.0
  0
INSERT
  5
1866D
330
18370
100
AcDbEntity
  8
寸法
 62
     0
 48
50.0
370
    -2
100
AcDbBlockReference
  2
_DOTSMALL
 10
2959.673057123637
 20
5346.378484445256
 30
0.0
 41
100.0
 42
100.0
 43
100.0
 50
180.0
  0
INSERT
  5
1866E
330
18370
100
AcDbEntity
  8
寸法
 62
     0
 48
50.0
370
    -2
100
AcDbBlockReference
  2
_DOTSMALL
 10
9159.673057123667
 20
5346.378484445256
 30
0.0
 41
100.0
 42
100.0
 43
100.0
  0
MTEXT
  5
1866F
330
18370
100
AcDbEntity
  8
寸法
 62
     7
 48
50.0
100
AcDbMText
 10
6059.673057123651
 20
5446.390295468877
 30
0.0
 40
120.0
 41
0.0
 71
     5
 72
     1
  1
\A1;6200
  7
STYLE1
 73
     1
 44
1.0
1001
ACAD
1000
MTEXTBEGIN
1070
    73
1070
     1
1070
    44
1040
1.0
1070
    74
1070
     0
1000
MTEXTEND
  0
POINT
  5
18670
330
18370
100
AcDbEntity
  8
DEFPOINTS
 62
     0
 48
50.0
100
AcDbPoint
 10
2959.673057123637
 20
4912.931598713267
 30
0.0
  0
POINT
  5
18671
330
18370
100
AcDbEntity
  8
DEFPOINTS
 62
     0
 48
50.0
100
AcDbPoint
 10
9159.673057123667
 20
4912.931598713264
 30
0.0
  0
POINT
  5
18672
330
18370
100
AcDbEntity
  8
DEFPOINTS
 62
     0
 48
50.0
100
AcDbPoint
 10
9159.673057123667
 20
5346.378484445256
 30
0.0
  0
ENDBLK
  5
1837B
330
18370
100
AcDbEntity
  8
0
 48
50.0
100
AcDbBlockEnd
  0
BLOCK
  5
18388
330
1837C
100
AcDbEntity
  8
0
 48
50.0
100
AcDbBlockBegin
  2
*D25
 70
     1
 10
0.0
 20
0.0
 30
0.0
  3
*D25
  1

  0
LINE
  5
1865F
330
1837C
100
AcDbEntity
  8
寸法
 62
     0
 48
50.0
370
    -2
100
AcDbLine
 10
9159.673057123667
 20
4932.931598713264
 30
0.0
 11
9159.673057123667
 21
5185.473183971505
 31
0.0
  0
LINE
  5
18660
330
1837C
100
AcDbEntity
  8
寸法
 62
     0
 48
50.0
370
    -2
100
AcDbLine
 10
9109.673057123666
 20
4932.931598713266
 30
0.0
 11
9109.673057123666
 21
5185.473183971505
 31
0.0
  0
LINE
  5
18661
330
1837C
100
AcDbEntity
  8
寸法
 62
     0
 48
50.0
370
    -2
100
AcDbLine
 10
9109.673057123666
 20
5125.473183971505
 30
0.0
 11
9009.673057123666
 21
5125.473183971505
 31
0.0
  0
LINE
  5
18662
330
1837C
100
AcDbEntity
  8
寸法
 62
     0
 48
50.0
370
    -2
100
AcDbLine
 10
9159.673057123667
 20
5125.473183971505
 30
0.0
 11
9579.20558259239
 21
5125.473183971505
 31
0.0
  0
LINE
  5
18663
330
1837C
100
AcDbEntity
  8
寸法
 62
     0
 48
50.0
370
    -2
100
AcDbLine
 10
9109.673057123666
 20
5125.473183971505
 30
0.0
 11
9159.673057123667
 21
5125.473183971505
 31
0.0
  0
INSERT
  5
18664
330
1837C
100
AcDbEntity
  8
寸法
 62
     0
 48
50.0
370
    -2
100
AcDbBlockReference
  2
_DOTSMALL
 10
9109.673057123666
 20
5125.473183971505
 30
0.0
 41
100.0
 42
100.0
 43
100.0
  0
INSERT
  5
18665
330
1837C
100
AcDbEntity
  8
寸法
 62
     0
 48
50.0
370
    -2
100
AcDbBlockReference
  2
_DOTSMALL
 10
9159.673057123667
 20
5125.473183971505
 30
0.0
 41
100.0
 42
100.0
 43
100.0
 50
180.0
  0
MTEXT
  5
18666
330
1837C
100
AcDbEntity
  8
寸法
 62
     7
 48
50.0
100
AcDbMText
 10
9473.158338497901
 20
5225.473183971505
 30
0.0
 40
120.0
 41
0.0
 71
     5
 72
     1
  1
\A1;50
  7
STYLE1
 73
     1
 44
1.0
1001
ACAD
1000
MTEXTBEGIN
1070
    73
1070
     1
1070
    44
1040
1.0
1070
    74
1070
     0
1000
MTEXTEND
  0
POINT
  5
18667
330
1837C
100
AcDbEntity
  8
DEFPOINTS
 62
     0
 48
50.0
100
AcDbPoint
 10
9159.673057123667
 20
4912.931598713264
 30
0.0
  0
POINT
  5
18668
330
1837C
100
AcDbEntity
  8
DEFPOINTS
 62
     0
 48
50.0
100
AcDbPoint
 10
9109.673057123666
 20
4912.931598713266
 30
0.0
  0
POINT
  5
18669
330
1837C
100
AcDbEntity
  8
DEFPOINTS
 62
     0
 48
50.0
100
AcDbPoint
 10
9109.673057123666
 20
5125.473183971505
 30
0.0
  0
ENDBLK
  5
18389
330
1837C
100
AcDbEntity
  8
0
 48
50.0
100
AcDbBlockEnd
  0
BLOCK
  5
18BB4
330
18BA9
100
AcDbEntity
  8
0
 48
50.0
100
AcDbBlockBegin
  2
*D26
 70
     1
 10
0.0
 20
0.0
 30
0.0
  3
*D26
  1

  0
LINE
  5
18EE3
330
18BA9
100
AcDbEntity
  8
寸法
 62
     0
 48
50.0
370
    -2
100
AcDbLine
 10
11634.62577063551
 20
4912.229305782923
 30
0.0
 11
11018.69133153023
 21
4929.943456057253
 31
0.0
  0
LINE
  5
18EE4
330
18BA9
100
AcDbEntity
  8
寸法
 62
     0
 48
50.0
370
    -2
100
AcDbLine
 10
11630.57231507888
 20
4771.28758201721
 30
0.0
 11
11014.6378759736
 21
4789.001732291541
 31
0.0
  0
LINE
  5
18EE5
330
18BA9
100
AcDbEntity
  8
寸法
 62
     0
 48
50.0
370
    -2
100
AcDbLine
 10
11074.61307757603
 20
4787.276857586592
 30
0.0
 11
11078.66653313266
 21
4928.218581352305
 31
0.0
  0
LINE
  5
18EE6
330
18BA9
100
AcDbEntity
  8
寸法
 62
     0
 48
50.0
370
    -2
100
AcDbLine
 10
11078.66653313266
 20
4928.218581352305
 30
0.0
 11
11089.01578136234
 21
5288.069790966893
 31
0.0
  0
INSERT
  5
18EE7
330
18BA9
100
AcDbEntity
  8
寸法
 62
     0
 48
50.0
370
    -2
100
AcDbBlockReference
  2
_DOTSMALL
 10
11074.61307757603
 20
4787.276857586592
 30
0.0
 41
100.0
 42
100.0
 43
100.0
 50
268.3526390256378
  0
INSERT
  5
18EE8
330
18BA9
100
AcDbEntity
  8
寸法
 62
     0
 48
50.0
370
    -2
100
AcDbBlockReference
  2
_DOTSMALL
 10
11078.66653313266
 20
4928.218581352305
 30
0.0
 41
100.0
 42
100.0
 43
100.0
 50
88.35263902563776
  0
MTEXT
  5
18EE9
330
18BA9
100
AcDbEntity
  8
寸法
 62
     7
 48
50.0
100
AcDbMText
 10
10985.31988349757
 20
5160.998312003207
 30
0.0
 40
120.0
 41
0.0
 71
     5
 72
     1
  1
\A1;141
  7
STYLE1
 11
0.0287479117491237
 21
0.9995866933738488
 31
0.0
 73
     1
 44
1.0
1001
ACAD
1000
MTEXTBEGIN
1070
    73
1070
     1
1070
    44
1040
1.0
1070
    74
1070
     0
1000
MTEXTEND
  0
POINT
  5
18EEA
330
18BA9
100
AcDbEntity
  8
DEFPOINTS
 62
     0
 48
50.0
100
AcDbPoint
 10
11654.61750450298
 20
4911.654347547941
 30
0.0
  0
POINT
  5
18EEB
330
18BA9
100
AcDbEntity
  8
DEFPOINTS
 62
     0
 48
50.0
100
AcDbPoint
 10
11650.56404894636
 20
4770.712623782228
 30
0.0
  0
POINT
  5
18EEC
330
18BA9
100
AcDbEntity
  8
DEFPOINTS
 62
     0
 48
50.0
100
AcDbPoint
 10
11074.61307757603
 20
4787.276857586592
 30
0.0
  0
ENDBLK
  5
18BB5
330
18BA9
100
AcDbEntity
  8
0
 48
50.0
100
AcDbBlockEnd
  0
BLOCK
  5
18BC1
330
18BB6
100
AcDbEntity
  8
0
 48
50.0
100
AcDbBlockBegin
  2
*D27
 70
     1
 10
0.0
 20
0.0
 30
0.0
  3
*D27
  1

  0
LINE
  5
18ED9
330
18BB6
100
AcDbEntity
  8
寸法
 62
     0
 48
50.0
370
    -2
100
AcDbLine
 10
15165.2214843444
 20
4879.742278324917
 30
0.0
 11
15165.2214843444
 21
5371.589052292567
 31
0.0
  0
LINE
  5
18EDA
330
18BB6
100
AcDbEntity
  8
寸法
 62
     0
 48
50.0
370
    -2
100
AcDbLine
 10
15245.2214843444
 20
4877.931598713264
 30
0.0
 11
15245.2214843444
 21
5371.589052292567
 31
0.0
  0
LINE
  5
18EDB
330
18BB6
100
AcDbEntity
  8
寸法
 62
     0
 48
50.0
370
    -2
100
AcDbLine
 10
15165.2214843444
 20
5311.589052292568
 30
0.0
 11
15245.2214843444
 21
5311.589052292568
 31
0.0
  0
LINE
  5
18EDC
330
18BB6
100
AcDbEntity
  8
寸法
 62
     0
 48
50.0
370
    -2
100
AcDbLine
 10
15245.2214843444
 20
5311.589052292568
 30
0.0
 11
15557.31597253338
 21
5311.589052292568
 31
0.0
  0
INSERT
  5
18EDD
330
18BB6
100
AcDbEntity
  8
寸法
 62
     0
 48
50.0
370
    -2
100
AcDbBlockReference
  2
_DOTSMALL
 10
15165.2214843444
 20
5311.589052292568
 30
0.0
 41
100.0
 42
100.0
 43
100.0
 50
180.0
  0
INSERT
  5
18EDE
330
18BB6
100
AcDbEntity
  8
寸法
 62
     0
 48
50.0
370
    -2
100
AcDbBlockReference
  2
_DOTSMALL
 10
15245.2214843444
 20
5311.589052292568
 30
0.0
 41
100.0
 42
100.0
 43
100.0
  0
MTEXT
  5
18EDF
330
18BB6
100
AcDbEntity
  8
寸法
 62
     7
 48
50.0
100
AcDbMText
 10
15451.26872843889
 20
5411.589052292567
 30
0.0
 40
120.0
 41
0.0
 71
     5
 72
     1
  1
\A1;80
  7
STYLE1
 73
     1
 44
1.0
1001
ACAD
1000
MTEXTBEGIN
1070
    73
1070
     1
1070
    44
1040
1.0
1070
    74
1070
     0
1000
MTEXTEND
  0
POINT
  5
18EE0
330
18BB6
100
AcDbEntity
  8
DEFPOINTS
 62
     0
 48
50.0
100
AcDbPoint
 10
15165.2214843444
 20
4859.742278324916
 30
0.0
  0
POINT
  5
18EE1
330
18BB6
100
AcDbEntity
  8
DEFPOINTS
 62
     0
 48
50.0
100
AcDbPoint
 10
15245.2214843444
 20
4857.931598713265
 30
0.0
  0
POINT
  5
18EE2
330
18BB6
100
AcDbEntity
  8
DEFPOINTS
 62
     0
 48
50.0
100
AcDbPoint
 10
15245.2214843444
 20
5311.589052292568
 30
0.0
  0
ENDBLK
  5
18BC2
330
18BB6
100
AcDbEntity
  8
0
 48
50.0
100
AcDbBlockEnd
  0
BLOCK
  5
18BCD
330
18BC3
100
AcDbEntity
  8
0
 48
50.0
100
AcDbBlockBegin
  2
*D28
 70
     1
 10
0.0
 20
0.0
 30
0.0
  3
*D28
  1

  0
LINE
  5
195A3
330
18BC3
100
AcDbEntity
  8
寸法
 62
     0
 48
50.0
370
    -2
100
AcDbLine
 10
15245.2214843444
 20
4877.931598713264
 30
0.0
 11
15245.2214843444
 21
5601.702645078844
 31
0.0
  0
LINE
  5
195A4
330
18BC3
100
AcDbEntity
  8
寸法
 62
     0
 48
50.0
370
    -2
100
AcDbLine
 10
11635.2214843444
 20
4932.931598713266
 30
0.0
 11
11635.2214843444
 21
5601.702645078844
 31
0.0
  0
LINE
  5
195A5
330
18BC3
100
AcDbEntity
  8
寸法
 62
     0
 48
50.0
370
    -2
100
AcDbLine
 10
15245.2214843444
 20
5541.702645078843
 30
0.0
 11
11635.2214843444
 21
5541.702645078843
 31
0.0
  0
INSERT
  5
195A6
330
18BC3
100
AcDbEntity
  8
寸法
 62
     0
 48
50.0
370
    -2
100
AcDbBlockReference
  2
_DOTSMALL
 10
15245.2214843444
 20
5541.702645078843
 30
0.0
 41
100.0
 42
100.0
 43
100.0
  0
INSERT
  5
195A7
330
18BC3
100
AcDbEntity
  8
寸法
 62
     0
 48
50.0
370
    -2
100
AcDbBlockReference
  2
_DOTSMALL
 10
11635.2214843444
 20
5541.702645078843
 30
0.0
 41
100.0
 42
100.0
 43
100.0
 50
180.0
  0
MTEXT
  5
195A8
330
18BC3
100
AcDbEntity
  8
寸法
 62
     7
 48
50.0
100
AcDbMText
 10
13440.2214843444
 20
5641.702645078844
 30
0.0
 40
120.0
 41
0.0
 71
     5
 72
     1
  1
\A1;3610
  7
STYLE1
 73
     1
 44
1.0
1001
ACAD
1000
MTEXTBEGIN
1070
    73
1070
     1
1070
    44
1040
1.0
1070
    74
1070
     0
1000
MTEXTEND
  0
POINT
  5
195A9
330
18BC3
100
AcDbEntity
  8
DEFPOINTS
 62
     0
 48
50.0
100
AcDbPoint
 10
15245.2214843444
 20
4857.931598713263
 30
0.0
  0
POINT
  5
195AA
330
18BC3
100
AcDbEntity
  8
DEFPOINTS
 62
     0
 48
50.0
100
AcDbPoint
 10
11635.2214843444
 20
4912.931598713266
 30
0.0
  0
POINT
  5
195AB
330
18BC3
100
AcDbEntity
  8
DEFPOINTS
 62
     0
 48
50.0
100
AcDbPoint
 10
11635.2214843444
 20
5541.702645078843
 30
0.0
  0
ENDBLK
  5
18BCE
330
18BC3
100
AcDbEntity
  8
0
 48
50.0
100
AcDbBlockEnd
  0
BLOCK
  5
18BDB
330
18BCF
100
AcDbEntity
  8
0
 48
50.0
100
AcDbBlockBegin
  2
*D29
 70
     1
 10
0.0
 20
0.0
 30
0.0
  3
*D29
  1

  0
LINE
  5
18EC5
330
18BCF
100
AcDbEntity
  8
寸法
 62
     0
 48
50.0
370
    -2
100
AcDbLine
 10
11695.2214843444
 20
4928.933216836238
 30
0.0
 11
11695.2214843444
 21
5371.589052292566
 31
0.0
  0
LINE
  5
18EC6
330
18BCF
100
AcDbEntity
  8
寸法
 62
     0
 48
50.0
370
    -2
100
AcDbLine
 10
11635.2214843444
 20
4932.931598713266
 30
0.0
 11
11635.2214843444
 21
5371.589052292566
 31
0.0
  0
LINE
  5
18EC7
330
18BCF
100
AcDbEntity
  8
寸法
 62
     0
 48
50.0
370
    -2
100
AcDbLine
 10
11695.2214843444
 20
5311.589052292566
 30
0.0
 11
11795.2214843444
 21
5311.589052292566
 31
0.0
  0
LINE
  5
18EC8
330
18BCF
100
AcDbEntity
  8
寸法
 62
     0
 48
50.0
370
    -2
100
AcDbLine
 10
11635.2214843444
 20
5311.589052292566
 30
0.0
 11
11215.94589379322
 21
5311.589052292566
 31
0.0
  0
LINE
  5
18EC9
330
18BCF
100
AcDbEntity
  8
寸法
 62
     0
 48
50.0
370
    -2
100
AcDbLine
 10
11695.2214843444
 20
5311.589052292566
 30
0.0
 11
11635.2214843444
 21
5311.589052292566
 31
0.0
  0
INSERT
  5
18ECA
330
18BCF
100
AcDbEntity
  8
寸法
 62
     0
 48
50.0
370
    -2
100
AcDbBlockReference
  2
_DOTSMALL
 10
11695.2214843444
 20
5311.589052292566
 30
0.0
 41
100.0
 42
100.0
 43
100.0
 50
180.0
  0
INSERT
  5
18ECB
330
18BCF
100
AcDbEntity
  8
寸法
 62
     0
 48
50.0
370
    -2
100
AcDbBlockReference
  2
_DOTSMALL
 10
11635.2214843444
 20
5311.589052292566
 30
0.0
 41
100.0
 42
100.0
 43
100.0
  0
MTEXT
  5
18ECC
330
18BCF
100
AcDbEntity
  8
寸法
 62
     7
 48
50.0
100
AcDbMText
 10
11325.58368906881
 20
5411.589052292566
 30
0.0
 40
120.0
 41
0.0
 71
     5
 72
     1
  1
\A1;60
  7
STYLE1
 73
     1
 44
1.0
1001
ACAD
1000
MTEXTBEGIN
1070
    73
1070
     1
1070
    44
1040
1.0
1070
    74
1070
     0
1000
MTEXTEND
  0
POINT
  5
18ECD
330
18BCF
100
AcDbEntity
  8
DEFPOINTS
 62
     0
 48
50.0
100
AcDbPoint
 10
11695.2214843444
 20
4908.933216836238
 30
0.0
  0
POINT
  5
18ECE
330
18BCF
100
AcDbEntity
  8
DEFPOINTS
 62
     0
 48
50.0
100
AcDbPoint
 10
11635.2214843444
 20
4912.931598713266
 30
0.0
  0
POINT
  5
18ECF
330
18BCF
100
AcDbEntity
  8
DEFPOINTS
 62
     0
 48
50.0
100
AcDbPoint
 10
11635.2214843444
 20
5311.589052292566
 30
0.0
  0
ENDBLK
  5
18BDC
330
18BCF
100
AcDbEntity
  8
0
 48
50.0
100
AcDbBlockEnd
  0
BLOCK
  5
18BE7
330
18BDD
100
AcDbEntity
  8
0
 48
50.0
100
AcDbBlockBegin
  2
*D30
 70
     1
 10
0.0
 20
0.0
 30
0.0
  3
*D30
  1

  0
LINE
  5
195AC
330
18BDD
100
AcDbEntity
  8
寸法
 62
     0
 48
50.0
370
    -2
100
AcDbLine
 10
15165.2214843444
 20
4879.742278324917
 30
0.0
 11
15165.2214843444
 21
5371.589052292567
 31
0.0
  0
LINE
  5
195AD
330
18BDD
100
AcDbEntity
  8
寸法
 62
     0
 48
50.0
370
    -2
100
AcDbLine
 10
11695.2214843444
 20
4928.933216836238
 30
0.0
 11
11695.2214843444
 21
5371.589052292567
 31
0.0
  0
LINE
  5
195AE
330
18BDD
100
AcDbEntity
  8
寸法
 62
     0
 48
50.0
370
    -2
100
AcDbLine
 10
15165.2214843444
 20
5311.589052292568
 30
0.0
 11
11695.2214843444
 21
5311.589052292568
 31
0.0
  0
INSERT
  5
195AF
330
18BDD
100
AcDbEntity
  8
寸法
 62
     0
 48
50.0
370
    -2
100
AcDbBlockReference
  2
_DOTSMALL
 10
15165.2214843444
 20
5311.589052292568
 30
0.0
 41
100.0
 42
100.0
 43
100.0
  0
INSERT
  5
195B0
330
18BDD
100
AcDbEntity
  8
寸法
 62
     0
 48
50.0
370
    -2
100
AcDbBlockReference
  2
_DOTSMALL
 10
11695.2214843444
 20
5311.589052292568
 30
0.0
 41
100.0
 42
100.0
 43
100.0
 50
180.0
  0
MTEXT
  5
195B1
330
18BDD
100
AcDbEntity
  8
寸法
 62
     7
 48
50.0
100
AcDbMText
 10
13430.2214843444
 20
5411.589052292567
 30
0.0
 40
120.0
 41
0.0
 71
     5
 72
     1
  1
\A1;柱外寸法3470
  7
STYLE1
 73
     1
 44
1.0
1001
ACAD
1000
MTEXTBEGIN
1070
    73
1070
     1
1070
    44
1040
1.0
1070
    74
1070
     0
1000
MTEXTEND
  0
POINT
  5
195B2
330
18BDD
100
AcDbEntity
  8
DEFPOINTS
 62
     0
 48
50.0
100
AcDbPoint
 10
15165.2214843444
 20
4859.742278324916
 30
0.0
  0
POINT
  5
195B3
330
18BDD
100
AcDbEntity
  8
DEFPOINTS
 62
     0
 48
50.0
100
AcDbPoint
 10
11695.2214843444
 20
4908.933216836238
 30
0.0
  0
POINT
  5
195B4
330
18BDD
100
AcDbEntity
  8
DEFPOINTS
 62
     0
 48
50.0
100
AcDbPoint
 10
11695.2214843444
 20
5311.589052292568
 30
0.0
  0
ENDBLK
  5
18BE8
330
18BDD
100
AcDbEntity
  8
0
 48
50.0
100
AcDbBlockEnd
  0
BLOCK
  5
18BF5
330
18BE9
100
AcDbEntity
  8
0
 48
50.0
100
AcDbBlockBegin
  2
*D31
 70
     1
 10
0.0
 20
0.0
 30
0.0
  3
*D31
  1

  0
LINE
  5
18EB1
330
18BE9
100
AcDbEntity
  8
寸法
 62
     0
 48
50.0
370
    -2
100
AcDbLine
 10
11675.2214843444
 20
2587.931598713261
 30
0.0
 11
10791.47135516114
 21
2587.931598713262
 31
0.0
  0
LINE
  5
18EB2
330
18BE9
100
AcDbEntity
  8
寸法
 62
     0
 48
50.0
370
    -2
100
AcDbLine
 10
11620.2214843444
 20
2537.931598713262
 30
0.0
 11
10791.47135516114
 21
2537.931598713262
 31
0.0
  0
LINE
  5
18EB3
330
18BE9
100
AcDbEntity
  8
寸法
 62
     0
 48
50.0
370
    -2
100
AcDbLine
 10
10851.47135516114
 20
2587.931598713262
 30
0.0
 11
10851.47135516114
 21
2687.931598713262
 31
0.0
  0
LINE
  5
18EB4
330
18BE9
100
AcDbEntity
  8
寸法
 62
     0
 48
50.0
370
    -2
100
AcDbLine
 10
10851.47135516114
 20
2537.931598713262
 30
0.0
 11
10851.47135516114
 21
2125.837110524281
 31
0.0
  0
LINE
  5
18EB5
330
18BE9
100
AcDbEntity
  8
寸法
 62
     0
 48
50.0
370
    -2
100
AcDbLine
 10
10851.47135516114
 20
2587.931598713262
 30
0.0
 11
10851.47135516114
 21
2537.931598713262
 31
0.0
  0
INSERT
  5
18EB6
330
18BE9
100
AcDbEntity
  8
寸法
 62
     0
 48
50.0
370
    -2
100
AcDbBlockReference
  2
_DOTSMALL
 10
10851.47135516114
 20
2587.931598713262
 30
0.0
 41
100.0
 42
100.0
 43
100.0
 50
270.0
  0
INSERT
  5
18EB7
330
18BE9
100
AcDbEntity
  8
寸法
 62
     0
 48
50.0
370
    -2
100
AcDbBlockReference
  2
_DOTSMALL
 10
10851.47135516114
 20
2537.931598713262
 30
0.0
 41
100.0
 42
100.0
 43
100.0
 50
90.0
  0
MTEXT
  5
18EB8
330
18BE9
100
AcDbEntity
  8
寸法
 62
     7
 48
50.0
100
AcDbMText
 10
10751.47135516114
 20
2231.884354618771
 30
0.0
 40
120.0
 41
0.0
 71
     5
 72
     1
  1
\A1;50
  7
STYLE1
 11
0.0000000000000001
 21
1.0
 31
0.0
 73
     1
 44
1.0
1001
ACAD
1000
MTEXTBEGIN
1070
    73
1070
     1
1070
    44
1040
1.0
1070
    74
1070
     0
1000
MTEXTEND
  0
POINT
  5
18EB9
330
18BE9
100
AcDbEntity
  8
DEFPOINTS
 62
     0
 48
50.0
100
AcDbPoint
 10
11695.2214843444
 20
2587.931598713261
 30
0.0
  0
POINT
  5
18EBA
330
18BE9
100
AcDbEntity
  8
DEFPOINTS
 62
     0
 48
50.0
100
AcDbPoint
 10
11640.2214843444
 20
2537.931598713262
 30
0.0
  0
POINT
  5
18EBB
330
18BE9
100
AcDbEntity
  8
DEFPOINTS
 62
     0
 48
50.0
100
AcDbPoint
 10
10851.47135516114
 20
2537.931598713262
 30
0.0
  0
ENDBLK
  5
18BF6
330
18BE9
100
AcDbEntity
  8
0
 48
50.0
100
AcDbBlockEnd
  0
BLOCK
  5
18C0E
330
18C04
100
AcDbEntity
  8
0
 48
50.0
100
AcDbBlockBegin
  2
*D32
 70
     1
 10
0.0
 20
0.0
 30
0.0
  3
*D32
  1

  0
LINE
  5
18E9E
330
18C04
100
AcDbEntity
  8
寸法
 62
     0
 48
50.0
370
    -2
100
AcDbLine
 10
15185.2214843444
 20
2537.931598713263
 30
0.0
 11
15930.14864231653
 21
2537.931598713263
 31
0.0
  0
LINE
  5
18E9F
330
18C04
100
AcDbEntity
  8
寸法
 62
     0
 48
50.0
370
    -2
100
AcDbLine
 10
15265.2214843444
 20
4857.931598713263
 30
0.0
 11
15930.14864231653
 21
4857.931598713263
 31
0.0
  0
LINE
  5
18EA0
330
18C04
100
AcDbEntity
  8
寸法
 62
     0
 48
50.0
370
    -2
100
AcDbLine
 10
15870.14864231653
 20
2537.931598713263
 30
0.0
 11
15870.14864231653
 21
4857.931598713263
 31
0.0
  0
INSERT
  5
18EA1
330
18C04
100
AcDbEntity
  8
寸法
 62
     0
 48
50.0
370
    -2
100
AcDbBlockReference
  2
_DOTSMALL
 10
15870.14864231653
 20
2537.931598713263
 30
0.0
 41
100.0
 42
100.0
 43
100.0
 50
270.0
  0
INSERT
  5
18EA2
330
18C04
100
AcDbEntity
  8
寸法
 62
     0
 48
50.0
370
    -2
100
AcDbBlockReference
  2
_DOTSMALL
 10
15870.14864231653
 20
4857.931598713263
 30
0.0
 41
100.0
 42
100.0
 43
100.0
 50
90.0
  0
MTEXT
  5
18EA3
330
18C04
100
AcDbEntity
  8
寸法
 62
     7
 48
50.0
100
AcDbMText
 10
15770.1368312929
 20
3697.931598713266
 30
0.0
 40
120.0
 41
0.0
 71
     5
 72
     1
  1
\A1;2320
  7
STYLE1
 11
0.0000000000000001
 21
1.0
 31
0.0
 73
     1
 44
1.0
1001
ACAD
1000
MTEXTBEGIN
1070
    73
1070
     1
1070
    44
1040
1.0
1070
    74
1070
     0
1000
MTEXTEND
  0
POINT
  5
18EA4
330
18C04
100
AcDbEntity
  8
DEFPOINTS
 62
     0
 48
50.0
100
AcDbPoint
 10
15165.2214843444
 20
2537.931598713263
 30
0.0
  0
POINT
  5
18EA5
330
18C04
100
AcDbEntity
  8
DEFPOINTS
 62
     0
 48
50.0
100
AcDbPoint
 10
15245.2214843444
 20
4857.931598713263
 30
0.0
  0
POINT
  5
18EA6
330
18C04
100
AcDbEntity
  8
DEFPOINTS
 62
     0
 48
50.0
100
AcDbPoint
 10
15870.14864231653
 20
4857.931598713263
 30
0.0
  0
ENDBLK
  5
18C0F
330
18C04
100
AcDbEntity
  8
0
 48
50.0
100
AcDbBlockEnd
  0
BLOCK
  5
18C1A
330
18C10
100
AcDbEntity
  8
0
 48
50.0
100
AcDbBlockBegin
  2
*D33
 70
     1
 10
0.0
 20
0.0
 30
0.0
  3
*D33
  1

  0
LINE
  5
18E95
330
18C10
100
AcDbEntity
  8
寸法
 62
     0
 48
50.0
370
    -2
100
AcDbLine
 10
11675.2214843444
 20
2537.931598713257
 30
0.0
 11
10491.47135516114
 21
2537.931598713257
 31
0.0
  0
LINE
  5
18E96
330
18C10
100
AcDbEntity
  8
寸法
 62
     0
 48
50.0
370
    -2
100
AcDbLine
 10
11615.2214843444
 20
4912.931598713261
 30
0.0
 11
10491.47135516114
 21
4912.931598713261
 31
0.0
  0
LINE
  5
18E97
330
18C10
100
AcDbEntity
  8
寸法
 62
     0
 48
50.0
370
    -2
100
AcDbLine
 10
10551.47135516114
 20
2537.931598713257
 30
0.0
 11
10551.47135516114
 21
4912.931598713261
 31
0.0
  0
INSERT
  5
18E98
330
18C10
100
AcDbEntity
  8
寸法
 62
     0
 48
50.0
370
    -2
100
AcDbBlockReference
  2
_DOTSMALL
 10
10551.47135516114
 20
2537.931598713257
 30
0.0
 41
100.0
 42
100.0
 43
100.0
 50
270.0
  0
INSERT
  5
18E99
330
18C10
100
AcDbEntity
  8
寸法
 62
     0
 48
50.0
370
    -2
100
AcDbBlockReference
  2
_DOTSMALL
 10
10551.47135516114
 20
4912.931598713261
 30
0.0
 41
100.0
 42
100.0
 43
100.0
 50
90.0
  0
MTEXT
  5
18E9A
330
18C10
100
AcDbEntity
  8
寸法
 62
     7
 48
50.0
100
AcDbMText
 10
10451.45954413752
 20
3725.431598713262
 30
0.0
 40
120.0
 41
0.0
 71
     5
 72
     1
  1
\A1;2375
  7
STYLE1
 11
0.0000000000000001
 21
1.0
 31
0.0
 73
     1
 44
1.0
1001
ACAD
1000
MTEXTBEGIN
1070
    73
1070
     1
1070
    44
1040
1.0
1070
    74
1070
     0
1000
MTEXTEND
  0
POINT
  5
18E9B
330
18C10
100
AcDbEntity
  8
DEFPOINTS
 62
     0
 48
50.0
100
AcDbPoint
 10
11695.2214843444
 20
2537.931598713257
 30
0.0
  0
POINT
  5
18E9C
330
18C10
100
AcDbEntity
  8
DEFPOINTS
 62
     0
 48
50.0
100
AcDbPoint
 10
11635.2214843444
 20
4912.931598713261
 30
0.0
  0
POINT
  5
18E9D
330
18C10
100
AcDbEntity
  8
DEFPOINTS
 62
     0
 48
50.0
100
AcDbPoint
 10
10551.47135516114
 20
4912.931598713261
 30
0.0
  0
ENDBLK
  5
18C1B
330
18C10
100
AcDbEntity
  8
0
 48
50.0
100
AcDbBlockEnd
  0
BLOCK
  5
18C26
330
18C1C
100
AcDbEntity
  8
0
 48
50.0
100
AcDbBlockBegin
  2
*D34
 70
     1
 10
0.0
 20
0.0
 30
0.0
  3
*D34
  1

  0
LINE
  5
18E8C
330
18C1C
100
AcDbEntity
  8
寸法
 62
     0
 48
50.0
370
    -2
100
AcDbLine
 10
11675.2214843444
 20
4677.931598713257
 30
0.0
 11
10791.47135516115
 21
4677.931598713257
 31
0.0
  0
LINE
  5
18E8D
330
18C1C
100
AcDbEntity
  8
寸法
 62
     0
 48
50.0
370
    -2
100
AcDbLine
 10
11675.2214843444
 20
2587.931598713257
 30
0.0
 11
10791.47135516114
 21
2587.931598713257
 31
0.0
  0
LINE
  5
18E8E
330
18C1C
100
AcDbEntity
  8
寸法
 62
     0
 48
50.0
370
    -2
100
AcDbLine
 10
10851.47135516115
 20
4677.931598713257
 30
0.0
 11
10851.47135516114
 21
2587.931598713257
 31
0.0
  0
INSERT
  5
18E8F
330
18C1C
100
AcDbEntity
  8
寸法
 62
     0
 48
50.0
370
    -2
100
AcDbBlockReference
  2
_DOTSMALL
 10
10851.47135516115
 20
4677.931598713257
 30
0.0
 41
100.0
 42
100.0
 43
100.0
 50
90.0
  0
INSERT
  5
18E90
330
18C1C
100
AcDbEntity
  8
寸法
 62
     0
 48
50.0
370
    -2
100
AcDbBlockReference
  2
_DOTSMALL
 10
10851.47135516114
 20
2587.931598713257
 30
0.0
 41
100.0
 42
100.0
 43
100.0
 50
270.0
  0
MTEXT
  5
18E91
330
18C1C
100
AcDbEntity
  8
寸法
 62
     7
 48
50.0
100
AcDbMText
 10
10751.45954413752
 20
3632.931598713259
 30
0.0
 40
120.0
 41
0.0
 71
     5
 72
     1
  1
\A1;2090
  7
STYLE1
 11
0.0000000000000001
 21
1.0
 31
0.0
 73
     1
 44
1.0
1001
ACAD
1000
MTEXTBEGIN
1070
    73
1070
     1
1070
    44
1040
1.0
1070
    74
1070
     0
1000
MTEXTEND
  0
POINT
  5
18E92
330
18C1C
100
AcDbEntity
  8
DEFPOINTS
 62
     0
 48
50.0
100
AcDbPoint
 10
11695.2214843444
 20
4677.931598713257
 30
0.0
  0
POINT
  5
18E93
330
18C1C
100
AcDbEntity
  8
DEFPOINTS
 62
     0
 48
50.0
100
AcDbPoint
 10
11695.2214843444
 20
2587.931598713257
 30
0.0
  0
POINT
  5
18E94
330
18C1C
100
AcDbEntity
  8
DEFPOINTS
 62
     0
 48
50.0
100
AcDbPoint
 10
10851.47135516114
 20
2587.931598713257
 30
0.0
  0
ENDBLK
  5
18C27
330
18C1C
100
AcDbEntity
  8
0
 48
50.0
100
AcDbBlockEnd
  0
BLOCK
  5
190EE
330
190E3
100
AcDbEntity
  8
0
 48
50.0
100
AcDbBlockBegin
  2
*D35
 70
     1
 10
0.0
 20
0.0
 30
0.0
  3
*D35
  1

  0
LINE
  5
195C9
330
190E3
100
AcDbEntity
  8
寸法
 62
     0
 48
50.0
370
    -2
100
AcDbLine
 10
9129.673057123657
 20
4512.931598713262
 30
0.0
 11
9457.216159445405
 21
4512.931598713262
 31
0.0
  0
LINE
  5
195CA
330
190E3
100
AcDbEntity
  8
寸法
 62
     0
 48
50.0
370
    -2
100
AcDbLine
 10
9129.673057123657
 20
4677.931598713261
 30
0.0
 11
9457.216159445405
 21
4677.931598713261
 31
0.0
  0
LINE
  5
195CB
330
190E3
100
AcDbEntity
  8
寸法
 62
     0
 48
50.0
370
    -2
100
AcDbLine
 10
9397.216159445404
 20
4512.931598713262
 30
0.0
 11
9397.216159445404
 21
4677.931598713261
 31
0.0
  0
LINE
  5
195CC
330
190E3
100
AcDbEntity
  8
寸法
 62
     0
 48
50.0
370
    -2
100
AcDbLine
 10
9397.216159445404
 20
4677.931598713261
 30
0.0
 11
9397.216159445404
 21
5054.90216146174
 31
0.0
  0
INSERT
  5
195CD
330
190E3
100
AcDbEntity
  8
寸法
 62
     0
 48
50.0
370
    -2
100
AcDbBlockReference
  2
_DOTSMALL
 10
9397.216159445404
 20
4512.931598713262
 30
0.0
 41
100.0
 42
100.0
 43
100.0
 50
270.0
  0
INSERT
  5
195CE
330
190E3
100
AcDbEntity
  8
寸法
 62
     0
 48
50.0
370
    -2
100
AcDbBlockReference
  2
_DOTSMALL
 10
9397.216159445404
 20
4677.931598713261
 30
0.0
 41
100.0
 42
100.0
 43
100.0
 50
90.0
  0
MTEXT
  5
195CF
330
190E3
100
AcDbEntity
  8
寸法
 62
     7
 48
50.0
100
AcDbMText
 10
9297.216159445403
 20
4916.416880087502
 30
0.0
 40
120.0
 41
0.0
 71
     5
 72
     1
  1
\A1;165
  7
STYLE1
 11
0.0000000000000001
 21
1.0
 31
0.0
 73
     1
 44
1.0
1001
ACAD
1000
MTEXTBEGIN
1070
    73
1070
     1
1070
    44
1040
1.0
1070
    74
1070
     0
1000
MTEXTEND
  0
POINT
  5
195D0
330
190E3
100
AcDbEntity
  8
DEFPOINTS
 62
     0
 48
50.0
100
AcDbPoint
 10
9109.673057123655
 20
4512.931598713262
 30
0.0
  0
POINT
  5
195D1
330
190E3
100
AcDbEntity
  8
DEFPOINTS
 62
     0
 48
50.0
100
AcDbPoint
 10
9109.673057123655
 20
4677.931598713261
 30
0.0
  0
POINT
  5
195D2
330
190E3
100
AcDbEntity
  8
DEFPOINTS
 62
     0
 48
50.0
100
AcDbPoint
 10
9397.216159445404
 20
4677.931598713261
 30
0.0
  0
ENDBLK
  5
190EF
330
190E3
100
AcDbEntity
  8
0
 48
50.0
100
AcDbBlockEnd
  0
BLOCK
  5
190FC
330
190F0
100
AcDbEntity
  8
0
 48
50.0
100
AcDbBlockBegin
  2
*D36
 70
     1
 10
0.0
 20
0.0
 30
0.0
  3
*D36
  1

  0
LINE
  5
195BE
330
190F0
100
AcDbEntity
  8
寸法
 62
     0
 48
50.0
370
    -2
100
AcDbLine
 10
9129.673057123659
 20
4485.93159871326
 30
0.0
 11
9457.216159445403
 21
4485.93159871326
 31
0.0
  0
LINE
  5
195BF
330
190F0
100
AcDbEntity
  8
寸法
 62
     0
 48
50.0
370
    -2
100
AcDbLine
 10
9129.673057123657
 20
4512.931598713262
 30
0.0
 11
9457.216159445403
 21
4512.931598713262
 31
0.0
  0
LINE
  5
195C0
330
190F0
100
AcDbEntity
  8
寸法
 62
     0
 48
50.0
370
    -2
100
AcDbLine
 10
9397.216159445404
 20
4485.93159871326
 30
0.0
 11
9397.216159445404
 21
4385.93159871326
 31
0.0
  0
LINE
  5
195C1
330
190F0
100
AcDbEntity
  8
寸法
 62
     0
 48
50.0
370
    -2
100
AcDbLine
 10
9397.216159445404
 20
4512.931598713262
 30
0.0
 11
9397.216159445404
 21
4612.931598713262
 31
0.0
  0
MTEXT
  5
195C2
330
190F0
100
AcDbEntity
  8
寸法
 62
     7
 48
50.0
100
AcDbMText
 10
9537.38598269177
 20
4513.89879855292
 30
0.0
 40
120.0
 41
0.0
 71
     5
 72
     1
  1
\A1;27
  7
STYLE1
 11
0.0000000000000001
 21
1.0
 31
0.0
 73
     1
 44
1.0
1001
ACAD
1000
MTEXTBEGIN
1070
    73
1070
     1
1070
    44
1040
1.0
1070
    74
1070
     0
1000
MTEXTEND
  0
LINE
  5
195C3
330
190F0
100
AcDbEntity
  8
寸法
 62
     0
 48
50.0
370
    -2
100
AcDbLine
 10
9397.216159445404
 20
4485.93159871326
 30
0.0
 11
9397.216159445404
 21
4512.931598713262
 31
0.0
  0
INSERT
  5
195C4
330
190F0
100
AcDbEntity
  8
寸法
 62
     0
 48
50.0
370
    -2
100
AcDbBlockReference
  2
_DOTSMALL
 10
9397.216159445404
 20
4485.93159871326
 30
0.0
 41
100.0
 42
100.0
 43
100.0
 50
90.0
  0
INSERT
  5
195C5
330
190F0
100
AcDbEntity
  8
寸法
 62
     0
 48
50.0
370
    -2
100
AcDbBlockReference
  2
_DOTSMALL
 10
9397.216159445404
 20
4512.931598713262
 30
0.0
 41
100.0
 42
100.0
 43
100.0
 50
270.0
  0
POINT
  5
195C6
330
190F0
100
AcDbEntity
  8
DEFPOINTS
 62
     0
 48
50.0
100
AcDbPoint
 10
9109.673057123659
 20
4485.93159871326
 30
0.0
  0
POINT
  5
195C7
330
190F0
100
AcDbEntity
  8
DEFPOINTS
 62
     0
 48
50.0
100
AcDbPoint
 10
9109.673057123655
 20
4512.931598713262
 30
0.0
  0
POINT
  5
195C8
330
190F0
100
AcDbEntity
  8
DEFPOINTS
 62
     0
 48
50.0
100
AcDbPoint
 10
9397.216159445404
 20
4512.931598713262
 30
0.0
  0
ENDBLK
  5
190FD
330
190F0
100
AcDbEntity
  8
0
 48
50.0
100
AcDbBlockEnd
  0
BLOCK
  5
19108
330
190FE
100
AcDbEntity
  8
0
 48
50.0
100
AcDbBlockBegin
  2
*D37
 70
     1
 10
0.0
 20
0.0
 30
0.0
  3
*D37
  1

  0
LINE
  5
19165
330
190FE
100
AcDbEntity
  8
寸法
 62
     0
 48
50.0
370
    -2
100
AcDbLine
 10
9129.673057123657
 20
2537.931598713262
 30
0.0
 11
9457.216159445401
 21
2537.931598713261
 31
0.0
  0
LINE
  5
19166
330
190FE
100
AcDbEntity
  8
寸法
 62
     0
 48
50.0
370
    -2
100
AcDbLine
 10
9129.673057123659
 20
4485.93159871326
 30
0.0
 11
9457.216159445403
 21
4485.93159871326
 31
0.0
  0
LINE
  5
19167
330
190FE
100
AcDbEntity
  8
寸法
 62
     0
 48
50.0
370
    -2
100
AcDbLine
 10
9397.216159445401
 20
2537.931598713261
 30
0.0
 11
9397.216159445404
 21
4485.93159871326
 31
0.0
  0
INSERT
  5
19168
330
190FE
100
AcDbEntity
  8
寸法
 62
     0
 48
50.0
370
    -2
100
AcDbBlockReference
  2
_DOTSMALL
 10
9397.216159445401
 20
2537.931598713261
 30
0.0
 41
100.0
 42
100.0
 43
100.0
 50
270.0
  0
INSERT
  5
19169
330
190FE
100
AcDbEntity
  8
寸法
 62
     0
 48
50.0
370
    -2
100
AcDbBlockReference
  2
_DOTSMALL
 10
9397.216159445404
 20
4485.93159871326
 30
0.0
 41
100.0
 42
100.0
 43
100.0
 50
90.0
  0
MTEXT
  5
1916A
330
190FE
100
AcDbEntity
  8
寸法
 62
     7
 48
50.0
100
AcDbMText
 10
9297.216159445401
 20
3511.931598713263
 30
0.0
 40
120.0
 41
0.0
 71
     5
 72
     1
  1
\A1;有効開口部高サ 1948
  7
STYLE1
 11
0.0000000000000001
 21
1.0
 31
0.0
 73
     1
 44
1.0
1001
ACAD
1000
MTEXTBEGIN
1070
    73
1070
     1
1070
    44
1040
1.0
1070
    74
1070
     0
1000
MTEXTEND
  0
POINT
  5
1916B
330
190FE
100
AcDbEntity
  8
DEFPOINTS
 62
     0
 48
50.0
100
AcDbPoint
 10
9109.673057123655
 20
2537.931598713262
 30
0.0
  0
POINT
  5
1916C
330
190FE
100
AcDbEntity
  8
DEFPOINTS
 62
     0
 48
50.0
100
AcDbPoint
 10
9109.673057123659
 20
4485.93159871326
 30
0.0
  0
POINT
  5
1916D
330
190FE
100
AcDbEntity
  8
DEFPOINTS
 62
     0
 48
50.0
100
AcDbPoint
 10
9397.216159445404
 20
4485.93159871326
 30
0.0
  0
ENDBLK
  5
19109
330
190FE
100
AcDbEntity
  8
0
 48
50.0
100
AcDbBlockEnd
  0
ENDSEC
  0
SECTION
  2
ENTITIES
  0
MTEXT
  5
763F
330
747D
100
AcDbEntity
  8
0
100
AcDbMText
 10
302.846345836809
 20
280.1983726409901
 30
0.0
 40
3.5
 41
5.323721266742722
 71
     1
 72
     5
  1

  7
MSMINCHO
 73
     1
 44
1.0
1001
ACAD
1000
MTEXTBEGIN
1070
    73
1070
     1
1070
    44
1040
1.0
1070
    74
1070
     0
1000
MTEXTEND
  0
LINE
  5
10B57
330
747D
100
AcDbEntity
  8
補助
  6
PHANTOM
 62
   230
 48
50.0
100
AcDbLine
 10
139.9999999999995
 20
11409.6
 30
0.0
 11
16307.2
 21
11409.6
 31
0.0
  0
LINE
  5
10B59
330
747D
100
AcDbEntity
  8
仕様書枠
  6
Continuous
 48
50.0
100
AcDbLine
 10
13107.2
 20
1200.0
 30
0.0
 11
13107.2
 21
-0.0000000000000729
 31
0.0
  0
LINE
  5
10B5C
330
747D
100
AcDbEntity
  8
仕様書枠
 48
50.0
100
AcDbLine
 10
16307.2
 20
1200.0
 30
0.0
 11
16307.2
 21
-0.0000000000000909
 31
0.0
  0
LINE
  5
10B5D
330
747D
100
AcDbEntity
  8
仕様書枠
 48
50.0
100
AcDbLine
 10
140.0
 20
0.0
 30
0.0
 11
16307.2
 21
-0.0000000000000909
 31
0.0
  0
LINE
  5
10B5E
330
747D
100
AcDbEntity
  8
補助
  6
PHANTOM
 62
   230
 48
50.0
100
AcDbLine
 10
16307.2
 20
11409.6
 30
0.0
 11
16307.2
 21
1200.0
 31
0.0
  0
LINE
  5
10B6C
330
747D
100
AcDbEntity
  8
仕様書枠
 48
50.0
100
AcDbLine
 10
13107.2
 20
1200.0
 30
0.0
 11
16307.2
 21
1200.0
 31
0.0
  0
LINE
  5
10B6D
330
747D
100
AcDbEntity
  8
補助
  6
PHANTOM
 62
   230
 48
50.0
100
AcDbLine
 10
13107.2
 20
11409.6
 30
0.0
 11
13107.2
 21
4800.0
 31
0.0
  0
LINE
  5
10B6F
330
747D
100
AcDbEntity
  8
補助
  6
PHANTOM
 62
   230
 48
50.0
100
AcDbLine
 10
13107.2
 20
4800.0
 30
0.0
 11
16307.2
 21
4800.0
 31
0.0
  0
LINE
  5
10B72
330
747D
100
AcDbEntity
  8
文字
 62
     7
 48
50.0
100
AcDbLine
 10
13187.2
 20
400.0
 30
0.0
 11
16227.2
 21
400.0
 31
0.0
  0
TEXT
  5
10B73
330
747D
100
AcDbEntity
  8
文字
 62
     7
 48
50.0
100
AcDbText
 10
13162.9790565769
 20
895.0906074299405
 30
0.0
 40
200.0
  1
外 形 図
  7
STYLE2
100
AcDbText
  0
TEXT
  5
10B74
330
747D
100
AcDbEntity
  8
文字
 62
     7
 48
50.0
100
AcDbText
 10
13201.43669998441
 20
477.2740661031255
 30
0.0
 40
160.0
  1
機種名
  7
STYLE2
100
AcDbText
  0
TEXT
  5
10B75
330
747D
100
AcDbEntity
  8
文字
 62
     7
 48
50.0
100
AcDbText
 10
13209.4053442172
 20
228.5435242569016
 30
0.0
 40
100.0
  1
○有効開口寸法 ： 2844×1948(mm)
  7
STYLE2
100
AcDbText
  0
TEXT
  5
10B76
330
747D
100
AcDbEntity
  8
文字
 62
     7
 48
50.0
100
AcDbText
 10
13209.4053442172
 20
76.09434707649343
 30
0.0
 40
100.0
  1
○床面積 ： 21.17㎡(6.41坪) 　
  7
STYLE2
100
AcDbText
  0
TEXT
  5
10B79
330
747D
100
AcDbEntity
  8
文字
 62
     7
 48
50.0
100
AcDbText
 10
14524.131837222
 20
1031.557706291228
 30
0.0
 40
100.0
  1
NO.34      <縮尺> S=1/40
  7
STYLE2
100
AcDbText
  0
LINE
  5
10B7B
330
747D
100
AcDbEntity
  8
仕様書枠
 48
50.0
100
AcDbLine
 10
13107.2
 20
800.0
 30
0.0
 11
14251.2
 21
800.0
 31
0.0
  0
LINE
  5
10B88
330
747D
100
AcDbEntity
  8
仕様書枠
  6
Continuous
 48
50.0
100
AcDbLine
 10
14251.2
 20
1200.0
 30
0.0
 11
14251.2
 21
800.0
 31
0.0
  0
TEXT
  5
10BB0
330
747D
100
AcDbEntity
  8
文字
 62
     7
 48
50.0
100
AcDbText
 10
14226.93128211722
 20
483.8967129911414
 30
0.0
 40
160.0
  1
FXN-105HDL-2
  7
STYLE2
100
AcDbText
  0
LINE
  5
12765
330
747D
100
AcDbEntity
  8
Ｇ．Ｌ
100
AcDbLine
 10
1921.406454453174
 20
2437.931598713261
 30
0.0
 11
15785.79354554682
 21
2437.931598713261
 31
0.0
  0
DIMENSION
  5
162CD
330
747D
100
AcDbEntity
  8
寸法
100
AcDbDimension
  2
*D1
 10
9757.09940285807
 20
7197.497424545952
 30
0.0
 11
9657.087591834448
 21
8877.497424545961
 31
0.0
 70
    32
  1
8X420=<>
 71
     5
 42
-1.0
  3
INABA_S40G
100
AcDbAlignedDimension
 13
9109.673057123664
 23
10557.49742454596
 33
0.0
 14
9109.673057123639
 24
7197.497424545952
 34
0.0
 50
90.0
100
AcDbRotatedDimension
1001
ACAD
1000
DSTYLE
1002
{
1002
}
  0
DIMENSION
  5
162CE
330
747D
100
AcDbEntity
  8
寸法
100
AcDbDimension
  2
*D2
 10
9757.099402858049
 20
7142.497424545957
 30
0.0
 11
9757.099402858049
 21
6764.635957641094
 31
0.0
 12
1735.0
 22
160.0
 32
0.0
 70
   160
 71
     5
 42
-1.0
  3
INABA_S40G
100
AcDbAlignedDimension
 13
9109.673057123639
 23
7197.497424545952
 33
0.0
 14
9109.673057123639
 24
7142.497424545957
 34
0.0
 50
90.0
100
AcDbRotatedDimension
1001
ACAD
1000
DSTYLE
1002
{
1002
}
  0
DIMENSION
  5
162CF
330
747D
100
AcDbEntity
  8
寸法
100
AcDbDimension
  2
*D3
 10
9757.099402858074
 20
10557.49742454596
 30
0.0
 11
9757.099402858074
 21
10920.9827059202
 31
0.0
 12
1735.0
 22
580.0
 32
0.0
 70
   160
 71
     5
 42
-1.0
  3
INABA_S40G
100
AcDbAlignedDimension
 13
9109.673057123664
 23
10612.49742454596
 33
0.0
 14
9109.673057123664
 24
10557.49742454596
 34
0.0
 50
90.0
100
AcDbRotatedDimension
1001
ACAD
1000
DSTYLE
1002
{
1002
}
  0
DIMENSION
  5
162D0
330
747D
100
AcDbEntity
  8
寸法
100
AcDbDimension
  2
*D4
 10
10122.20634459771
 20
7142.497424545957
 30
0.0
 11
10022.20634459771
 21
8877.497424545961
 31
0.0
 70
    32
 71
     5
 42
-1.0
  3
INABA_S40G
100
AcDbAlignedDimension
 13
9109.673057123664
 23
10612.49742454596
 33
0.0
 14
9109.673057123639
 24
7142.497424545957
 34
0.0
 50
90.0
100
AcDbRotatedDimension
1001
ACAD
1000
DSTYLE
1002
{
1002
}
  0
LINE
  5
162DC
330
747D
100
AcDbEntity
  8
部品1
100
AcDbLine
 10
9081.673057123648
 20
10584.49742454596
 30
0.0
 11
9081.673057123641
 21
7197.497424545952
 31
0.0
  0
LINE
  5
162DD
330
747D
100
AcDbEntity
  8
部品1
100
AcDbLine
 10
3037.673057123639
 20
7197.497424545821
 30
0.0
 11
3037.67305712365
 21
10584.49742454587
 31
0.0
  0
LINE
  5
162DE
330
747D
100
AcDbEntity
  8
部品1
100
AcDbLine
 10
9109.673057123664
 20
10612.49742454596
 30
0.0
 11
9109.673057123639
 21
7142.497424545957
 31
0.0
  0
LINE
  5
162DF
330
747D
100
AcDbEntity
  8
部品1
100
AcDbLine
 10
3009.673057123629
 20
10612.49742454583
 30
0.0
 11
3009.673057123657
 21
7142.497424545826
 31
0.0
  0
DIMENSION
  5
162E4
330
747D
100
AcDbEntity
  8
寸法
 48
50.0
100
AcDbDimension
  2
*D5
 10
6162.673057123657
 20
6608.0666537797
 30
0.0
 11
7584.673057123648
 21
6708.078464803323
 31
0.0
 12
420.0
 22
0.0
 32
0.0
 70
    32
  1
有効開口部間口 <>
 71
     5
 42
-1.0
  3
INABA_S40G
100
AcDbAlignedDimension
 13
9006.67305712364
 23
7168.497424545865
 33
0.0
 14
6162.673057123657
 24
7168.497424545865
 34
0.0
100
AcDbRotatedDimension
1001
ACAD
1000
DSTYLE
1002
{
1070
    75
1070
     1
1070
   279
1070
     2
1002
}
  0
LINE
  5
162E6
330
747D
100
AcDbEntity
  8
部品1
 48
50.0
100
AcDbLine
 10
6126.673057123656
 20
7187.997424545864
 30
0.0
 11
9042.673057123641
 21
7187.997424545864
 31
0.0
  0
DIMENSION
  5
162E7
330
747D
100
AcDbEntity
  8
寸法
100
AcDbDimension
  2
*D6
 10
9109.673057123627
 20
6161.893658188827
 30
0.0
 11
6059.673057123642
 21
6261.893658188826
 31
0.0
 12
420.0
 22
0.0
 32
0.0
 70
    32
 71
     5
 42
-1.0
  3
INABA_S40G
100
AcDbAlignedDimension
 13
3009.673057123657
 23
7142.497424545862
 33
0.0
 14
9109.673057123627
 24
7142.497424545957
 34
0.0
100
AcDbRotatedDimension
1001
ACAD
1000
DSTYLE
1002
{
1002
}
  0
LINE
  5
162E8
330
747D
100
AcDbEntity
  8
部品1
100
AcDbLine
 10
3064.673057123638
 20
10557.49742454601
 30
0.0
 11
3064.673057123656
 21
7207.497424545863
 31
0.0
  0
LINE
  5
162E9
330
747D
100
AcDbEntity
  8
部品1
100
AcDbLine
 10
3089.673057123639
 20
10557.49742454601
 30
0.0
 11
3089.673057123656
 21
7207.497424545863
 31
0.0
  0
DIMENSION
  5
162EA
330
747D
100
AcDbEntity
  8
寸法
 48
50.0
100
AcDbDimension
  2
*D7
 10
3009.673057123657
 20
6608.0666537797
 30
0.0
 11
2701.187775749419
 21
6608.0666537797
 31
0.0
 12
-1735.0
 22
160.0
 32
0.0
 70
   160
 71
     5
 42
-1.0
  3
INABA_S40G
100
AcDbAlignedDimension
 13
3064.673057123653
 23
7142.497424545865
 33
0.0
 14
3009.673057123657
 24
7142.497424545862
 34
0.0
100
AcDbRotatedDimension
1001
ACAD
1000
DSTYLE
1002
{
1002
}
  0
DIMENSION
  5
162EB
330
747D
100
AcDbEntity
  8
寸法
 48
50.0
100
AcDbDimension
  2
*D8
 10
6114.673057123653
 20
6608.0666537797
 30
0.0
 11
6275.575028123714
 21
6708.0666537797
 31
0.0
 12
1315.0
 22
160.0
 32
0.0
 70
   160
 71
     5
 42
-1.0
  3
INABA_S40G
100
AcDbAlignedDimension
 13
6162.673057123657
 23
7168.497424545865
 33
0.0
 14
6114.673057123653
 24
7142.497424545865
 34
0.0
100
AcDbRotatedDimension
1001
ACAD
1000
DSTYLE
1002
{
1070
   279
1070
     2
1002
}
  0
LINE
  5
162EC
330
747D
100
AcDbEntity
  8
部品1
100
AcDbLine
 10
3064.673057123652
 20
7142.497424545865
 30
0.0
 11
3009.673057123657
 21
7142.497424545862
 31
0.0
  0
LINE
  5
162ED
330
747D
100
AcDbEntity
  8
部品1
 48
50.0
100
AcDbLine
 10
3064.673057123657
 20
7178.497424545864
 30
0.0
 11
3041.673057123657
 21
7178.497424545864
 31
0.0
  0
LINE
  5
162EE
330
747D
100
AcDbEntity
  8
部品1
 48
50.0
100
AcDbLine
 10
3074.673057123657
 20
7168.497424545865
 30
0.0
 11
3064.673057123657
 21
7147.497424545865
 31
0.0
  0
LINE
  5
162EF
330
747D
100
AcDbEntity
  8
部品1
 48
50.0
100
AcDbLine
 10
3064.673057123657
 20
7207.497424545863
 30
0.0
 11
3064.673057123653
 21
7142.497424545865
 31
0.0
  0
LINE
  5
162F0
330
747D
100
AcDbEntity
  8
部品1
 48
50.0
100
AcDbLine
 10
3112.673057123657
 20
7168.497424545865
 30
0.0
 11
3112.673057123657
 21
7177.497424545865
 31
0.0
  0
LINE
  5
162F1
330
747D
100
AcDbEntity
  8
部品1
 48
50.0
100
AcDbLine
 10
3112.673057123657
 20
7207.497424545865
 30
0.0
 11
3112.673057123657
 21
7198.497424545866
 31
0.0
  0
LINE
  5
162F2
330
747D
100
AcDbEntity
  8
部品1
100
AcDbLine
 10
3112.673057123657
 20
7207.497424545865
 30
0.0
 11
3064.673057123657
 21
7207.497424545865
 31
0.0
  0
LINE
  5
162F3
330
747D
100
AcDbEntity
  8
部品1
100
AcDbLine
 10
3112.673057123657
 20
7168.497424545865
 30
0.0
 11
3064.673057123657
 21
7168.497424545865
 31
0.0
  0
LINE
  5
162F4
330
747D
100
AcDbEntity
  8
部品1
100
AcDbLine
 10
3064.673057123656
 20
7178.497424545864
 30
0.0
 11
3041.673057123657
 21
7178.497424545864
 31
0.0
  0
LINE
  5
162F5
330
747D
100
AcDbEntity
  8
部品1
100
AcDbLine
 10
3064.673057123656
 20
7197.497424545789
 30
0.0
 11
3009.673057123655
 21
7197.497424545789
 31
0.0
  0
LINE
  5
162F6
330
747D
100
AcDbEntity
  8
部品1
100
AcDbLine
 10
3037.673057123639
 20
7197.497424545826
 30
0.0
 11
3009.673057123655
 21
7197.497424545826
 31
0.0
  0
LINE
  5
162F7
330
747D
100
AcDbEntity
  8
部品1
100
AcDbLine
 10
3037.673057123655
 20
7197.49742454584
 30
0.0
 11
3009.673057123655
 21
7197.49742454584
 31
0.0
  0
LINE
  5
162FB
330
747D
100
AcDbEntity
  8
部品1
100
AcDbLine
 10
3037.673057123643
 20
9297.49742454584
 30
0.0
 11
3009.673057123643
 21
9297.49742454584
 31
0.0
  0
LINE
  5
162FC
330
747D
100
AcDbEntity
  8
部品1
100
AcDbLine
 10
3037.673057123643
 20
9717.49742454584
 30
0.0
 11
3009.673057123643
 21
9717.49742454584
 31
0.0
  0
LINE
  5
162FE
330
747D
100
AcDbEntity
  8
部品1
100
AcDbLine
 10
3037.673057123638
 20
10137.49742454584
 30
0.0
 11
3009.673057123638
 21
10137.49742454584
 31
0.0
  0
LINE
  5
162FF
330
747D
100
AcDbEntity
  8
部品1
100
AcDbLine
 10
9054.673057123656
 20
10557.49742454592
 30
0.0
 11
9054.673057123642
 21
7142.497424545952
 31
0.0
  0
LINE
  5
16300
330
747D
100
AcDbEntity
  8
部品1
100
AcDbLine
 10
9029.673057123657
 20
10557.49742454592
 30
0.0
 11
9029.673057123641
 21
7207.497424545865
 31
0.0
  0
DIMENSION
  5
16301
330
747D
100
AcDbEntity
  8
寸法
 48
50.0
100
AcDbDimension
  2
*D9
 10
9006.67305712364
 20
6608.0666537797
 30
0.0
 11
8895.710159474891
 21
6708.0666537797
 31
0.0
 12
1735.0
 22
160.0
 32
0.0
 70
   160
 71
     5
 42
-1.0
  3
INABA_S40G
100
AcDbAlignedDimension
 13
9054.673057123642
 23
7142.497424545952
 33
0.0
 14
9006.67305712364
 24
7168.497424545865
 34
0.0
100
AcDbRotatedDimension
1001
ACAD
1000
DSTYLE
1002
{
1070
   279
1070
     2
1002
}
  0
DIMENSION
  5
16302
330
747D
100
AcDbEntity
  8
寸法
 48
50.0
100
AcDbDimension
  2
*D10
 10
9054.673057123642
 20
6608.066653779701
 30
0.0
 11
9418.158338497876
 21
6608.066653779701
 31
0.0
 12
1735.0
 22
160.0
 32
0.0
 70
   160
 71
     5
 42
-1.0
  3
INABA_S40G
100
AcDbAlignedDimension
 13
9109.673057123639
 23
7142.497424545957
 33
0.0
 14
9054.673057123642
 24
7142.497424545952
 34
0.0
100
AcDbRotatedDimension
1001
ACAD
1000
DSTYLE
1002
{
1002
}
  0
LINE
  5
16303
330
747D
100
AcDbEntity
  8
部品1
 48
50.0
100
AcDbLine
 10
9044.673057123638
 20
7168.497424545865
 30
0.0
 11
9054.673057123638
 21
7147.497424545865
 31
0.0
  0
LINE
  5
16304
330
747D
100
AcDbEntity
  8
部品1
100
AcDbLine
 10
9006.67305712364
 20
7207.497424545865
 30
0.0
 11
9054.673057123642
 21
7207.497424545865
 31
0.0
  0
LINE
  5
16305
330
747D
100
AcDbEntity
  8
部品1
100
AcDbLine
 10
9006.67305712364
 20
7168.497424545865
 30
0.0
 11
9054.673057123638
 21
7168.497424545865
 31
0.0
  0
LINE
  5
16306
330
747D
100
AcDbEntity
  8
部品1
 48
50.0
100
AcDbLine
 10
9006.67305712364
 20
7207.497424545865
 30
0.0
 11
9006.67305712364
 21
7198.497424545866
 31
0.0
  0
LINE
  5
16307
330
747D
100
AcDbEntity
  8
部品1
 48
50.0
100
AcDbLine
 10
9006.67305712364
 20
7168.497424545865
 30
0.0
 11
9006.67305712364
 21
7177.497424545865
 31
0.0
  0
LINE
  5
16308
330
747D
100
AcDbEntity
  8
部品1
100
AcDbLine
 10
9054.673057123638
 20
7178.497424545861
 30
0.0
 11
9077.673057123638
 21
7178.497424545864
 31
0.0
  0
LINE
  5
16309
330
747D
100
AcDbEntity
  8
部品1
100
AcDbLine
 10
9054.673057123638
 20
7197.497424545968
 30
0.0
 11
9109.673057123671
 21
7197.497424545968
 31
0.0
  0
LINE
  5
1630A
330
747D
100
AcDbEntity
  8
部品1
100
AcDbLine
 10
9109.673057123639
 20
7142.497424545957
 30
0.0
 11
9054.673057123642
 21
7142.497424545952
 31
0.0
  0
LINE
  5
16317
330
747D
100
AcDbEntity
  8
部品1
100
AcDbLine
 10
9081.673057123667
 20
9297.497424545968
 30
0.0
 11
9109.673057123668
 21
9297.497424545968
 31
0.0
  0
LINE
  5
16319
330
747D
100
AcDbEntity
  8
部品1
100
AcDbLine
 10
9081.673057123667
 20
9717.497424545967
 30
0.0
 11
9109.673057123668
 21
9717.497424545967
 31
0.0
  0
LINE
  5
1631A
330
747D
100
AcDbEntity
  8
部品1
100
AcDbLine
 10
9081.673057123664
 20
10137.49742454596
 30
0.0
 11
9109.673057123664
 21
10137.49742454596
 31
0.0
  0
LINE
  5
1631D
330
747D
100
AcDbEntity
  8
部品1
100
AcDbLine
 10
3009.673057123663
 20
10612.49742454587
 30
0.0
 11
9109.673057123664
 21
10612.49742454596
 31
0.0
  0
DIMENSION
  5
1631F
330
747D
100
AcDbEntity
  8
寸法
100
AcDbDimension
  2
*D11
 10
9054.673057123663
 20
10828.30564417097
 30
0.0
 11
7584.673057123665
 21
10088.31745519459
 31
0.0
 12
420.0
 22
840.0
 32
0.0
 70
    32
  1
7X420=<>
 71
     5
 42
-1.0
  3
INABA_S40G
100
AcDbAlignedDimension
 13
6114.673057123663
 23
10612.49742454587
 33
0.0
 14
9054.673057123663
 24
10612.49742454596
 34
0.0
100
AcDbRotatedDimension
1001
ACAD
1000
DSTYLE
1002
{
1002
}
  0
DIMENSION
  5
16320
330
747D
100
AcDbEntity
  8
寸法
100
AcDbDimension
  2
*D12
 10
3064.673057123663
 20
10828.30564417085
 30
0.0
 11
2701.18777574939
 21
10828.30564417085
 31
0.0
 12
-1735.0
 22
580.0
 32
0.0
 70
   160
 71
     5
 42
-1.0
  3
INABA_S40G
100
AcDbAlignedDimension
 13
3009.673057123629
 23
10612.49742454587
 33
0.0
 14
3064.673057123663
 24
10612.49742454587
 34
0.0
100
AcDbRotatedDimension
1001
ACAD
1000
DSTYLE
1002
{
1002
}
  0
LINE
  5
16321
330
747D
100
AcDbEntity
  8
部品1
100
AcDbLine
 10
3064.673057123629
 20
10612.49742454583
 30
0.0
 11
3064.673057123631
 21
10584.49742454583
 31
0.0
  0
LINE
  5
16322
330
747D
100
AcDbEntity
  8
部品1
100
AcDbLine
 10
3064.673057123663
 20
10612.49742454587
 30
0.0
 11
3064.673057123663
 21
10584.49742454587
 31
0.0
  0
LINE
  5
16323
330
747D
100
AcDbEntity
  8
部品1
100
AcDbLine
 10
3037.673057123631
 20
10557.49742454584
 30
0.0
 11
3009.67305712363
 21
10557.49742454584
 31
0.0
  0
LINE
  5
16324
330
747D
100
AcDbEntity
  8
部品1
100
AcDbLine
 10
6954.673057123663
 20
10612.49742454598
 30
0.0
 11
6954.673057123663
 21
10584.49742454598
 31
0.0
  0
LINE
  5
16325
330
747D
100
AcDbEntity
  8
部品1
100
AcDbLine
 10
6954.673057123663
 20
10612.49742454587
 30
0.0
 11
6954.673057123663
 21
10584.49742454587
 31
0.0
  0
LINE
  5
16326
330
747D
100
AcDbEntity
  8
部品1
100
AcDbLine
 10
6954.673057123663
 20
10612.49742454587
 30
0.0
 11
6954.673057123663
 21
10584.49742454587
 31
0.0
  0
LINE
  5
16327
330
747D
100
AcDbEntity
  8
部品1
100
AcDbLine
 10
6087.673057123662
 20
10584.497424546
 30
0.0
 11
9081.673057123664
 21
10584.49742454596
 31
0.0
  0
LINE
  5
16329
330
747D
100
AcDbEntity
  8
部品1
100
AcDbLine
 10
7374.673057123662
 20
10612.49742454598
 30
0.0
 11
7374.673057123662
 21
10584.49742454598
 31
0.0
  0
LINE
  5
1632A
330
747D
100
AcDbEntity
  8
部品1
100
AcDbLine
 10
7374.673057123662
 20
10612.49742454587
 30
0.0
 11
7374.673057123662
 21
10584.49742454587
 31
0.0
  0
LINE
  5
1632B
330
747D
100
AcDbEntity
  8
部品1
100
AcDbLine
 10
7374.673057123662
 20
10612.49742454587
 30
0.0
 11
7374.673057123662
 21
10584.49742454587
 31
0.0
  0
LINE
  5
1632C
330
747D
100
AcDbEntity
  8
部品1
100
AcDbLine
 10
7794.673057123663
 20
10612.49742454598
 30
0.0
 11
7794.673057123663
 21
10584.49742454598
 31
0.0
  0
LINE
  5
16332
330
747D
100
AcDbEntity
  8
部品1
100
AcDbLine
 10
8214.673057123661
 20
10612.49742454598
 30
0.0
 11
8214.673057123661
 21
10584.49742454598
 31
0.0
  0
DIMENSION
  5
16333
330
747D
100
AcDbEntity
  8
寸法
100
AcDbDimension
  2
*D13
 10
9109.673057123664
 20
10828.30564417095
 30
0.0
 11
9418.158338497901
 21
10828.30564417095
 31
0.0
 12
1735.0
 22
580.0
 32
0.0
 70
   160
 71
     5
 42
-1.0
  3
INABA_S40G
100
AcDbAlignedDimension
 13
9054.673057123663
 23
10612.49742454596
 33
0.0
 14
9109.673057123664
 24
10612.49742454596
 34
0.0
100
AcDbRotatedDimension
1001
ACAD
1000
DSTYLE
1002
{
1002
}
  0
LINE
  5
16334
330
747D
100
AcDbEntity
  8
部品1
100
AcDbLine
 10
8634.673057123661
 20
10612.49742454598
 30
0.0
 11
8634.673057123661
 21
10584.49742454598
 31
0.0
  0
LINE
  5
16335
330
747D
100
AcDbEntity
  8
部品1
100
AcDbLine
 10
9054.673057123663
 20
10612.49742454596
 30
0.0
 11
9054.673057123663
 21
10584.49742454596
 31
0.0
  0
LINE
  5
16336
330
747D
100
AcDbEntity
  8
部品1
100
AcDbLine
 10
9054.673057123663
 20
10612.49742454598
 30
0.0
 11
9054.673057123663
 21
10584.49742454598
 31
0.0
  0
LINE
  5
16337
330
747D
100
AcDbEntity
  8
部品1
100
AcDbLine
 10
9081.673057123664
 20
10557.49742454596
 30
0.0
 11
9109.673057123664
 21
10557.49742454596
 31
0.0
  0
DIMENSION
  5
1659A
330
747D
100
AcDbEntity
  8
寸法
 48
50.0
100
AcDbDimension
  2
*D16
 10
5956.673057123638
 20
6608.0666537797
 30
0.0
 11
5845.710159474891
 21
6708.0666537797
 31
0.0
 12
-2630.0
 22
160.0
 32
0.0
 70
   160
 71
     5
 42
-1.0
  3
INABA_S40G
100
AcDbAlignedDimension
 13
6004.67305712364
 23
7142.497424545952
 33
0.0
 14
5956.673057123638
 24
7168.497424545865
 34
0.0
100
AcDbRotatedDimension
1001
ACAD
1000
DSTYLE
1002
{
1070
   279
1070
     2
1002
}
  0
DIMENSION
  5
1659B
330
747D
100
AcDbEntity
  8
寸法
 48
50.0
100
AcDbDimension
  2
*D14
 10
3112.673057123657
 20
6608.0666537797
 30
0.0
 11
4954.673057123648
 21
6708.078464803323
 31
0.0
 70
    32
  1
有効開口部間口 <>
 71
     5
 42
-1.0
  3
INABA_S40G
100
AcDbAlignedDimension
 13
5956.673057123638
 23
7168.497424545865
 33
0.0
 14
3112.673057123657
 24
7168.497424545865
 34
0.0
100
AcDbRotatedDimension
1001
ACAD
1000
DSTYLE
1002
{
1070
    75
1070
     1
1070
   279
1070
     2
1002
}
  0
DIMENSION
  5
1659C
330
747D
100
AcDbEntity
  8
寸法
 48
50.0
100
AcDbDimension
  2
*D15
 10
3064.673057123653
 20
6608.0666537797
 30
0.0
 11
3225.575028123714
 21
6708.0666537797
 31
0.0
 12
-3050.0
 22
160.0
 32
0.0
 70
   160
 71
     5
 42
-1.0
  3
INABA_S40G
100
AcDbAlignedDimension
 13
3112.673057123657
 23
7168.497424545865
 33
0.0
 14
3064.673057123653
 24
7142.497424545865
 34
0.0
100
AcDbRotatedDimension
1001
ACAD
1000
DSTYLE
1002
{
1070
   279
1070
     2
1002
}
  0
DIMENSION
  5
165E9
330
747D
100
AcDbEntity
  8
寸法
 48
50.0
100
AcDbDimension
  2
*D17
 10
6004.67305712364
 20
6608.066653779701
 30
0.0
 11
6059.673057123647
 21
6456.37475874347
 31
0.0
 12
0.0
 22
-100.0
 32
0.0
 70
   160
 71
     5
 42
-1.0
  3
INABA_S40G
100
AcDbAlignedDimension
 13
6114.673057123653
 23
7142.497424545865
 33
0.0
 14
6004.67305712364
 24
7142.497424545952
 34
0.0
100
AcDbRotatedDimension
1001
ACAD
1000
DSTYLE
1002
{
1070
   279
1070
     2
1002
}
  0
LINE
  5
16655
330
747D
100
AcDbEntity
  8
部品1
 48
50.0
100
AcDbLine
 10
3076.673057123656
 20
7187.997424545864
 30
0.0
 11
5992.67305712364
 21
7187.997424545864
 31
0.0
  0
LINE
  5
16656
330
747D
100
AcDbEntity
  8
部品1
100
AcDbLine
 10
5956.673057123638
 20
7207.497424545865
 30
0.0
 11
6004.67305712364
 21
7207.497424545865
 31
0.0
  0
LINE
  5
16657
330
747D
100
AcDbEntity
  8
部品1
 48
50.0
100
AcDbLine
 10
5956.673057123638
 20
7207.497424545865
 30
0.0
 11
5956.673057123638
 21
7198.497424545866
 31
0.0
  0
LINE
  5
16658
330
747D
100
AcDbEntity
  8
部品1
100
AcDbLine
 10
5956.673057123638
 20
7168.497424545865
 30
0.0
 11
6004.673057123639
 21
7168.497424545865
 31
0.0
  0
LINE
  5
16659
330
747D
100
AcDbEntity
  8
部品1
 48
50.0
100
AcDbLine
 10
5956.673057123638
 20
7168.497424545865
 30
0.0
 11
5956.673057123638
 21
7177.497424545865
 31
0.0
  0
LINE
  5
1665A
330
747D
100
AcDbEntity
  8
部品1
 48
50.0
100
AcDbLine
 10
5994.673057123638
 20
7168.497424545865
 30
0.0
 11
6004.673057123639
 21
7147.497424545865
 31
0.0
  0
LINE
  5
1665B
330
747D
100
AcDbEntity
  8
部品1
100
AcDbLine
 10
6004.673057123639
 20
7178.497424545861
 30
0.0
 11
6027.673057123639
 21
7178.497424545864
 31
0.0
  0
LINE
  5
1665C
330
747D
100
AcDbEntity
  8
部品1
100
AcDbLine
 10
6162.673057123657
 20
7207.497424545865
 30
0.0
 11
6114.673057123656
 21
7207.497424545865
 31
0.0
  0
LINE
  5
1665D
330
747D
100
AcDbEntity
  8
部品1
 48
50.0
100
AcDbLine
 10
6162.673057123657
 20
7207.497424545865
 30
0.0
 11
6162.673057123657
 21
7198.497424545866
 31
0.0
  0
LINE
  5
1665E
330
747D
100
AcDbEntity
  8
部品1
100
AcDbLine
 10
6162.673057123657
 20
7168.497424545865
 30
0.0
 11
6114.673057123656
 21
7168.497424545865
 31
0.0
  0
LINE
  5
1665F
330
747D
100
AcDbEntity
  8
部品1
 48
50.0
100
AcDbLine
 10
6124.673057123657
 20
7168.497424545865
 30
0.0
 11
6114.673057123656
 21
7147.497424545865
 31
0.0
  0
LINE
  5
16660
330
747D
100
AcDbEntity
  8
部品1
100
AcDbLine
 10
6114.673057123656
 20
7178.497424545864
 30
0.0
 11
6091.673057123657
 21
7178.497424545864
 31
0.0
  0
LINE
  5
16661
330
747D
100
AcDbEntity
  8
部品1
 48
50.0
100
AcDbLine
 10
6114.673057123656
 20
7207.497424545863
 30
0.0
 11
6114.673057123653
 21
7142.497424545865
 31
0.0
  0
LINE
  5
16662
330
747D
100
AcDbEntity
  8
部品1
 48
50.0
100
AcDbLine
 10
6162.673057123657
 20
7168.497424545865
 30
0.0
 11
6162.673057123657
 21
7177.497424545865
 31
0.0
  0
LINE
  5
16663
330
747D
100
AcDbEntity
  8
部品1
100
AcDbLine
 10
6114.673057123653
 20
7142.497424545865
 30
0.0
 11
6004.673057123643
 21
7142.497424545858
 31
0.0
  0
LINE
  5
16664
330
747D
100
AcDbEntity
  8
部品1
 48
50.0
100
AcDbLine
 10
6004.673057123645
 20
7207.497424545953
 30
0.0
 11
6004.673057123642
 21
7142.497424545952
 31
0.0
  0
LINE
  5
16666
330
747D
100
AcDbEntity
  8
部品1
100
AcDbLine
 10
6114.673057123663
 20
10612.49742454587
 30
0.0
 11
6114.673057123663
 21
10584.49742454587
 31
0.0
  0
DIMENSION
  5
16667
330
747D
100
AcDbEntity
  8
寸法
100
AcDbDimension
  2
*D18
 10
6004.673057123664
 20
10828.30564417097
 30
0.0
 11
4534.673057123664
 21
10088.31745519459
 31
0.0
 12
420.0
 22
840.0
 32
0.0
 70
    32
  1
7X420=<>
 71
     5
 42
-1.0
  3
INABA_S40G
100
AcDbAlignedDimension
 13
3064.673057123663
 23
10612.49742454587
 33
0.0
 14
6004.673057123664
 24
10612.49742454596
 34
0.0
100
AcDbRotatedDimension
1001
ACAD
1000
DSTYLE
1002
{
1002
}
  0
LINE
  5
16680
330
747D
100
AcDbEntity
  8
部品1
100
AcDbLine
 10
4744.673057123662
 20
10612.49742454598
 30
0.0
 11
4744.673057123662
 21
10584.49742454598
 31
0.0
  0
LINE
  5
16686
330
747D
100
AcDbEntity
  8
部品1
100
AcDbLine
 10
3037.67305712365
 20
10584.49742454599
 30
0.0
 11
6031.673057123664
 21
10584.49742454596
 31
0.0
  0
LINE
  5
1668A
330
747D
100
AcDbEntity
  8
部品1
100
AcDbLine
 10
3904.673057123663
 20
10612.49742454598
 30
0.0
 11
3904.673057123663
 21
10584.49742454598
 31
0.0
  0
LINE
  5
1668B
330
747D
100
AcDbEntity
  8
部品1
100
AcDbLine
 10
3904.673057123663
 20
10612.49742454587
 30
0.0
 11
3904.673057123663
 21
10584.49742454587
 31
0.0
  0
LINE
  5
1668C
330
747D
100
AcDbEntity
  8
部品1
100
AcDbLine
 10
3904.673057123663
 20
10612.49742454587
 30
0.0
 11
3904.673057123663
 21
10584.49742454587
 31
0.0
  0
LINE
  5
1668D
330
747D
100
AcDbEntity
  8
部品1
100
AcDbLine
 10
4324.673057123663
 20
10612.49742454598
 30
0.0
 11
4324.673057123663
 21
10584.49742454598
 31
0.0
  0
LINE
  5
1668E
330
747D
100
AcDbEntity
  8
部品1
100
AcDbLine
 10
4324.673057123663
 20
10612.49742454587
 30
0.0
 11
4324.673057123663
 21
10584.49742454587
 31
0.0
  0
LINE
  5
1668F
330
747D
100
AcDbEntity
  8
部品1
100
AcDbLine
 10
4324.673057123663
 20
10612.49742454587
 30
0.0
 11
4324.673057123663
 21
10584.49742454587
 31
0.0
  0
LINE
  5
16690
330
747D
100
AcDbEntity
  8
部品1
100
AcDbLine
 10
5164.673057123663
 20
10612.49742454598
 30
0.0
 11
5164.673057123663
 21
10584.49742454598
 31
0.0
  0
LINE
  5
16691
330
747D
100
AcDbEntity
  8
部品1
100
AcDbLine
 10
5584.673057123662
 20
10612.49742454598
 30
0.0
 11
5584.673057123662
 21
10584.49742454598
 31
0.0
  0
LINE
  5
16692
330
747D
100
AcDbEntity
  8
部品1
100
AcDbLine
 10
6004.673057123664
 20
10612.49742454596
 30
0.0
 11
6004.673057123664
 21
10584.49742454596
 31
0.0
  0
DIMENSION
  5
166DD
330
747D
100
AcDbEntity
  8
寸法
 48
50.0
100
AcDbDimension
  2
*D19
 10
6004.673057123664
 20
10828.30564417097
 30
0.0
 11
6479.673057123664
 21
9248.305644170967
 31
0.0
 12
0.0
 22
1680.0
 32
0.0
 70
    32
 71
     5
 42
-1.0
  3
INABA_S40G
100
AcDbAlignedDimension
 13
6114.673057123663
 23
10612.49742454592
 33
0.0
 14
6004.673057123664
 24
10612.49742454591
 34
0.0
100
AcDbRotatedDimension
1001
ACAD
1000
DSTYLE
1002
{
1070
   279
1070
     2
1002
}
  0
LINE
  5
16760
330
747D
100
AcDbEntity
  8
部品1
 48
50.0
100
AcDbLine
 10
6059.673057123629
 20
10584.49742454591
 30
0.0
 11
6031.673057123631
 21
10612.49742454596
 31
0.0
  0
LINE
  5
16761
330
747D
100
AcDbEntity
  8
部品1
100
AcDbLine
 10
6087.673057123631
 20
10557.49742454588
 30
0.0
 11
6031.673057123631
 21
10557.49742454588
 31
0.0
  0
LINE
  5
16762
330
747D
100
AcDbEntity
  8
部品1
 48
50.0
100
AcDbLine
 10
6031.673057123631
 20
10557.49742454596
 30
0.0
 11
6031.67305712363
 21
10612.49742454596
 31
0.0
  0
LINE
  5
16763
330
747D
100
AcDbEntity
  8
部品1
 48
50.0
100
AcDbLine
 10
6031.673057123631
 20
10584.49742454591
 30
0.0
 11
6059.673057123629
 21
10584.49742454591
 31
0.0
  0
LINE
  5
168C3
330
747D
100
AcDbEntity
  8
部品1
100
AcDbLine
 10
6083.673057123648
 20
7197.497424545861
 30
0.0
 11
6035.673057123647
 21
7197.49742454586
 31
0.0
  0
LINE
  5
168C4
330
747D
100
AcDbEntity
  8
部品1
 48
50.0
100
AcDbLine
 10
6035.673057123648
 20
7197.497424545861
 30
0.0
 11
6035.67305712365
 21
7142.497424545862
 31
0.0
  0
LINE
  5
168C5
330
747D
100
AcDbEntity
  8
部品1
 48
50.0
100
AcDbLine
 10
6083.673057123648
 20
7197.497424545861
 30
0.0
 11
6083.67305712365
 21
7142.497424545862
 31
0.0
  0
DIMENSION
  5
16907
330
747D
100
AcDbEntity
  8
寸法
 48
50.0
100
AcDbDimension
  2
*D20
 10
6059.673057123664
 20
11077.62711772726
 30
0.0
 11
4954.673057123645
 21
10337.62711772726
 31
0.0
 12
0.0
 22
840.0
 32
0.0
 70
    32
 71
     5
 42
-1.0
  3
INABA_S40G
100
AcDbAlignedDimension
 13
3009.673057123629
 23
10612.49742454583
 33
0.0
 14
6059.673057123664
 24
10987.29355852891
 34
0.0
100
AcDbRotatedDimension
1001
ACAD
1000
DSTYLE
1002
{
1070
   279
1070
     2
1002
}
  0
DIMENSION
  5
16913
330
747D
100
AcDbEntity
  8
寸法
 48
50.0
100
AcDbDimension
  2
*D21
 10
9109.673057123664
 20
11077.62711772726
 30
0.0
 11
7584.673057123665
 21
10337.62711772726
 31
0.0
 12
420.0
 22
840.0
 32
0.0
 70
    32
 71
     5
 42
-1.0
  3
INABA_S40G
100
AcDbAlignedDimension
 13
6059.673057123664
 23
10987.29355852891
 33
0.0
 14
9109.673057123664
 24
10612.49742454596
 34
0.0
100
AcDbRotatedDimension
1001
ACAD
1000
DSTYLE
1002
{
1070
    75
1070
     1
1070
   279
1070
     2
1002
}
  0
LINE
  5
16C81
330
747D
100
AcDbEntity
  8
部品1
100
AcDbLine
 10
3037.673057123643
 20
8877.49742454584
 30
0.0
 11
3009.673057123643
 21
8877.49742454584
 31
0.0
  0
LINE
  5
16C82
330
747D
100
AcDbEntity
  8
部品1
100
AcDbLine
 10
9081.673057123667
 20
8877.497424545968
 30
0.0
 11
9109.673057123668
 21
8877.497424545968
 31
0.0
  0
LINE
  5
16FDA
330
747D
100
AcDbEntity
  8
部品1
100
AcDbLine
 10
3037.673057123643
 20
8457.49742454584
 30
0.0
 11
3009.673057123643
 21
8457.49742454584
 31
0.0
  0
LINE
  5
16FDB
330
747D
100
AcDbEntity
  8
部品1
100
AcDbLine
 10
9081.673057123667
 20
8457.497424545968
 30
0.0
 11
9109.673057123668
 21
8457.497424545968
 31
0.0
  0
LINE
  5
1743E
330
747D
100
AcDbEntity
  8
部品1
100
AcDbLine
 10
6534.673057123663
 20
10612.49742454587
 30
0.0
 11
6534.673057123663
 21
10584.49742454587
 31
0.0
  0
LINE
  5
1743F
330
747D
100
AcDbEntity
  8
部品1
100
AcDbLine
 10
6534.673057123663
 20
10612.49742454587
 30
0.0
 11
6534.673057123663
 21
10584.49742454587
 31
0.0
  0
LINE
  5
17440
330
747D
100
AcDbEntity
  8
部品1
100
AcDbLine
 10
6534.673057123663
 20
10612.49742454598
 30
0.0
 11
6534.673057123663
 21
10584.49742454598
 31
0.0
  0
LINE
  5
17441
330
747D
100
AcDbEntity
  8
部品1
100
AcDbLine
 10
3484.673057123663
 20
10612.49742454598
 30
0.0
 11
3484.673057123663
 21
10584.49742454598
 31
0.0
  0
LINE
  5
17442
330
747D
100
AcDbEntity
  8
部品1
100
AcDbLine
 10
3484.673057123663
 20
10612.49742454587
 30
0.0
 11
3484.673057123663
 21
10584.49742454587
 31
0.0
  0
LINE
  5
17443
330
747D
100
AcDbEntity
  8
部品1
100
AcDbLine
 10
3484.673057123663
 20
10612.49742454587
 30
0.0
 11
3484.673057123663
 21
10584.49742454587
 31
0.0
  0
LINE
  5
17799
330
747D
100
AcDbEntity
  8
部品1
100
AcDbLine
 10
3037.673057123644
 20
8037.49742454584
 30
0.0
 11
3009.673057123644
 21
8037.49742454584
 31
0.0
  0
LINE
  5
1779A
330
747D
100
AcDbEntity
  8
部品1
100
AcDbLine
 10
9081.673057123667
 20
8037.497424545966
 30
0.0
 11
9109.673057123668
 21
8037.497424545966
 31
0.0
  0
LINE
  5
17B1C
330
747D
100
AcDbEntity
  8
部品1
100
AcDbLine
 10
3037.673057123644
 20
7617.49742454584
 30
0.0
 11
3009.673057123644
 21
7617.49742454584
 31
0.0
  0
LINE
  5
17B1D
330
747D
100
AcDbEntity
  8
部品1
100
AcDbLine
 10
9081.673057123667
 20
7617.497424545966
 30
0.0
 11
9109.673057123668
 21
7617.497424545966
 31
0.0
  0
LINE
  5
17B3C
330
747D
100
AcDbEntity
  8
部品1
100
AcDbLine
 10
3064.673057123638
 20
10557.49742454601
 30
0.0
 11
9054.673057123656
 21
10557.49742454592
 31
0.0
  0
LINE
  5
17B3D
330
747D
100
AcDbEntity
  8
部品1
100
AcDbLine
 10
3089.673057123639
 20
10532.49742454601
 30
0.0
 11
9029.673057123657
 21
10532.49742454592
 31
0.0
  0
LINE
  5
17B3F
330
747D
100
AcDbEntity
  8
部品1
 48
50.0
100
AcDbLine
 10
3064.673057123638
 20
10557.49742454601
 30
0.0
 11
3037.67305712365
 21
10584.49742454598
 31
0.0
  0
LINE
  5
17B42
330
747D
100
AcDbEntity
  8
部品1
 48
50.0
100
AcDbLine
 10
6087.673057123663
 20
10557.49742454592
 30
0.0
 11
6087.673057123662
 21
10612.49742454592
 31
0.0
  0
LINE
  5
17B45
330
747D
100
AcDbEntity
  8
部品1
 48
50.0
100
AcDbLine
 10
9081.673057123648
 20
10584.49742454596
 30
0.0
 11
9054.673057123656
 21
10557.49742454592
 31
0.0
  0
TEXT
  5
17BA8
330
747D
100
AcDbEntity
  8
文字
 62
     7
 48
50.0
100
AcDbText
 10
15022.63965474517
 20
9740.013745883725
 30
0.0
 40
100.0
  1
F12            1.0
  7
STYLE1
100
AcDbText
  0
LINE
  5
17BA9
330
747D
100
AcDbEntity
  8
仕様書枠
 48
50.0
100
AcDbLine
 10
13127.2
 20
11239.6
 30
0.0
 11
13127.19999999999
 21
8349.600000000004
 31
0.0
  0
TEXT
  5
17BAA
330
747D
100
AcDbEntity
  8
文字
 62
     7
 48
50.0
100
AcDbText
 10
13229.83081656554
 20
8380.013745883733
 30
0.0
 40
100.0
  1
Z08→塗装溶融亜鉛めっき鋼板(JIS G 3313)
  7
STYLE1
100
AcDbText
  0
TEXT
  5
17BAB
330
747D
100
AcDbEntity
  8
文字
 62
     7
 48
50.0
100
AcDbText
 10
13229.83081656554
 20
8550.013745883731
 30
0.0
 40
100.0
  1
Y10→溶融亜鉛-5％アルミニウム合金めっき鋼板(JIS G 3317)
 41
0.9
  7
STYLE1
100
AcDbText
  0
TEXT
  5
17BAC
330
747D
100
AcDbEntity
  8
文字
 62
     7
 48
50.0
100
AcDbText
 10
13229.83081656554
 20
8720.013745883731
 30
0.0
 40
100.0
  1
F12→溶融亜鉛めっき鋼板(JIS G 3302)
  7
STYLE1
100
AcDbText
  0
LINE
  5
17BAD
330
747D
100
AcDbEntity
  8
仕様書枠
 48
50.0
100
AcDbLine
 10
16307.19999999998
 20
8349.600000000002
 30
0.0
 11
13127.19999999999
 21
8349.600000000004
 31
0.0
  0
LINE
  5
17BAE
330
747D
100
AcDbEntity
  8
仕様書枠
 48
50.0
100
AcDbLine
 10
16307.19999999998
 20
8519.600000000002
 30
0.0
 11
13127.19999999999
 21
8519.600000000004
 31
0.0
  0
LINE
  5
17BAF
330
747D
100
AcDbEntity
  8
仕様書枠
 48
50.0
100
AcDbLine
 10
16307.19999999998
 20
8689.600000000003
 30
0.0
 11
13127.19999999999
 21
8689.600000000003
 31
0.0
  0
TEXT
  5
17BB0
330
747D
100
AcDbEntity
  8
文字
 62
     7
 48
50.0
100
AcDbText
 10
15022.63965474515
 20
9230.013745883725
 30
0.0
 40
100.0
  1
Z08            0.5
  7
STYLE1
100
AcDbText
  0
TEXT
  5
17BB2
330
747D
100
AcDbEntity
  8
文字
 62
     7
 48
50.0
100
AcDbText
 10
14850.83183167176
 20
8890.013745883726
 30
0.0
 40
100.0
  1
アルミニウム合金押出形材
  7
STYLE1
100
AcDbText
  0
TEXT
  5
17BB3
330
747D
100
AcDbEntity
  8
文字
 62
     7
 48
50.0
100
AcDbText
 10
15022.63965474516
 20
9400.013745883725
 30
0.0
 40
100.0
  1
F12            0.7
  7
STYLE1
100
AcDbText
  0
TEXT
  5
17BB4
330
747D
100
AcDbEntity
  8
文字
 62
     7
 48
50.0
100
AcDbText
 10
15022.63965474516
 20
9570.013745883725
 30
0.0
 40
100.0
  1
Y10            0.5
  7
STYLE1
100
AcDbText
  0
TEXT
  5
17BB5
330
747D
100
AcDbEntity
  8
文字
 62
     7
 48
50.0
100
AcDbText
 10
15022.63965474516
 20
10080.01374588372
 30
0.0
 40
100.0
  1
Y10            0.7
  7
STYLE1
100
AcDbText
  0
TEXT
  5
17BB6
330
747D
100
AcDbEntity
  8
文字
 62
     7
 48
50.0
100
AcDbText
 10
15022.63965474516
 20
10250.01374588372
 30
0.0
 40
100.0
  1
Y10            0.7
  7
STYLE1
100
AcDbText
  0
TEXT
  5
17BB7
330
747D
100
AcDbEntity
  8
文字
 62
     7
 48
50.0
100
AcDbText
 10
15022.63965474516
 20
10420.01374588372
 30
0.0
 40
100.0
  1
Y10            1.0
  7
STYLE1
100
AcDbText
  0
TEXT
  5
17BB8
330
747D
100
AcDbEntity
  8
文字
 62
     7
 48
50.0
100
AcDbText
 10
15022.63965474516
 20
10590.01374588372
 30
0.0
 40
100.0
  1
Y10            1.0
  7
STYLE1
100
AcDbText
  0
TEXT
  5
17BB9
330
747D
100
AcDbEntity
  8
文字
 62
     7
 48
50.0
100
AcDbText
 10
15022.63965474517
 20
10760.01374588372
 30
0.0
 40
100.0
  1
F12         1.0,1.2
  7
STYLE1
100
AcDbText
  0
TEXT
  5
17BBA
330
747D
100
AcDbEntity
  8
文字
 62
     7
 48
50.0
100
AcDbText
 10
15022.63965474517
 20
10930.01374588372
 30
0.0
 40
100.0
  1
F12            1.2
  7
STYLE1
100
AcDbText
  0
TEXT
  5
17BBB
330
747D
100
AcDbEntity
  8
文字
 62
     7
 48
50.0
100
AcDbText
 10
13248.77747366448
 20
9060.013745883729
 30
0.0
 40
100.0
  1
12
  7
STYLE1
100
AcDbText
  0
TEXT
  5
17BBC
330
747D
100
AcDbEntity
  8
文字
 62
     7
 48
50.0
100
AcDbText
 10
13248.77747366448
 20
8890.013745883729
 30
0.0
 40
100.0
  1
13
  7
STYLE1
100
AcDbText
  0
TEXT
  5
17BBD
330
747D
100
AcDbEntity
  8
文字
 62
     7
 48
50.0
100
AcDbText
 10
13583.11819016569
 20
9230.013745883729
 30
0.0
 40
100.0
  1
シャッター
  7
STYLE1
100
AcDbText
  0
LINE
  5
17BBE
330
747D
100
AcDbEntity
  8
仕様書枠
 48
50.0
100
AcDbLine
 10
16307.19999999999
 20
8859.6
 30
0.0
 11
13127.19999999999
 21
8859.600000000002
 31
0.0
  0
LINE
  5
17BBF
330
747D
100
AcDbEntity
  8
仕様書枠
 48
50.0
100
AcDbLine
 10
16307.19999999999
 20
9029.6
 30
0.0
 11
13127.19999999999
 21
9029.6
 31
0.0
  0
TEXT
  5
17BC0
330
747D
100
AcDbEntity
  8
文字
 62
     7
 48
50.0
100
AcDbText
 10
13583.11819016569
 20
9060.013745883727
 30
0.0
 40
100.0
  1
シャッターカバー
 41
0.9
  7
STYLE1
100
AcDbText
  0
TEXT
  5
17BC1
330
747D
100
AcDbEntity
  8
文字
 62
     7
 48
50.0
100
AcDbText
 10
13248.77747366448
 20
9230.013745883727
 30
0.0
 40
100.0
  1
11
  7
STYLE1
100
AcDbText
  0
LINE
  5
17BC2
330
747D
100
AcDbEntity
  8
仕様書枠
 48
50.0
100
AcDbLine
 10
16307.19999999999
 20
9709.6
 30
0.0
 11
13127.19999999999
 21
9709.600000000001
 31
0.0
  0
LINE
  5
17BC3
330
747D
100
AcDbEntity
  8
仕様書枠
 48
50.0
100
AcDbLine
 10
16307.19999999999
 20
10049.6
 30
0.0
 11
13127.2
 21
10049.6
 31
0.0
  0
LINE
  5
17BC4
330
747D
100
AcDbEntity
  8
仕様書枠
 48
50.0
100
AcDbLine
 10
16307.19999999999
 20
9369.599999999998
 30
0.0
 11
13127.19999999999
 21
9369.600000000001
 31
0.0
  0
LINE
  5
17BC5
330
747D
100
AcDbEntity
  8
仕様書枠
 48
50.0
100
AcDbLine
 10
16307.19999999999
 20
9199.599999999998
 30
0.0
 11
13127.19999999999
 21
9199.600000000001
 31
0.0
  0
LINE
  5
17BC6
330
747D
100
AcDbEntity
  8
仕様書枠
 48
50.0
100
AcDbLine
 10
16307.19999999999
 20
9539.599999999998
 30
0.0
 11
13127.19999999999
 21
9539.6
 31
0.0
  0
TEXT
  5
17BC7
330
747D
100
AcDbEntity
  8
文字
 62
     7
 48
50.0
100
AcDbText
 10
13271.19032244792
 20
10080.01374588373
 30
0.0
 40
100.0
  1
6
  7
STYLE1
100
AcDbText
  0
TEXT
  5
17BC8
330
747D
100
AcDbEntity
  8
文字
 62
     7
 48
50.0
100
AcDbText
 10
13271.19032244792
 20
9910.01374588373
 30
0.0
 40
100.0
  1
7
  7
STYLE1
100
AcDbText
  0
TEXT
  5
17BC9
330
747D
100
AcDbEntity
  8
文字
 62
     7
 48
50.0
100
AcDbText
 10
13271.19032244792
 20
9570.013745883729
 30
0.0
 40
100.0
  1
9
  7
STYLE1
100
AcDbText
  0
TEXT
  5
17BCA
330
747D
100
AcDbEntity
  8
文字
 62
     7
 48
50.0
100
AcDbText
 10
13271.19032244792
 20
9740.013745883729
 30
0.0
 40
100.0
  1
8
  7
STYLE1
100
AcDbText
  0
TEXT
  5
17BCB
330
747D
100
AcDbEntity
  8
文字
 62
     7
 48
50.0
100
AcDbText
 10
13583.11819016569
 20
10080.01374588372
 30
0.0
 40
100.0
  1
鼻隠シ前後
  7
STYLE1
100
AcDbText
  0
TEXT
  5
17BCC
330
747D
100
AcDbEntity
  8
文字
 62
     7
 48
50.0
100
AcDbText
 10
13583.11819016569
 20
9740.013745883729
 30
0.0
 40
100.0
  1
母屋中
  7
STYLE1
100
AcDbText
  0
TEXT
  5
17BCD
330
747D
100
AcDbEntity
  8
文字
 62
     7
 48
50.0
100
AcDbText
 10
13583.11819016569
 20
9570.013745883727
 30
0.0
 40
100.0
  1
屋根パネル
  7
STYLE1
100
AcDbText
  0
TEXT
  5
17BCE
330
747D
100
AcDbEntity
  8
文字
 62
     7
 48
50.0
100
AcDbText
 10
13583.11819016569
 20
9400.013745883729
 30
0.0
 40
100.0
  1
壁パネル
  7
STYLE1
100
AcDbText
  0
TEXT
  5
17BCF
330
747D
100
AcDbEntity
  8
文字
 62
     7
 48
50.0
100
AcDbText
 10
13248.77747366448
 20
9400.013745883727
 30
0.0
 40
100.0
  1
10
  7
STYLE1
100
AcDbText
  0
TEXT
  5
17BD0
330
747D
100
AcDbEntity
  8
文字
 62
     7
 48
50.0
100
AcDbText
 10
13583.11819016569
 20
8890.013745883727
 30
0.0
 40
100.0
  1
シャッターレール
  7
STYLE1
100
AcDbText
  0
TEXT
  5
17BD1
330
747D
100
AcDbEntity
  8
文字
 62
     7
 48
50.0
100
AcDbText
 10
13583.11819016569
 20
10250.01374588373
 30
0.0
 40
100.0
  1
妻板左右
  7
STYLE1
100
AcDbText
  0
TEXT
  5
17BD2
330
747D
100
AcDbEntity
  8
文字
 62
     7
 48
50.0
100
AcDbText
 10
13271.19032244792
 20
10250.01374588373
 30
0.0
 40
100.0
  1
5
  7
STYLE1
100
AcDbText
  0
TEXT
  5
17BD3
330
747D
100
AcDbEntity
  8
文字
 62
     7
 48
50.0
100
AcDbText
 10
13583.11819016569
 20
10420.01374588373
 30
0.0
 40
100.0
  1
桁後
  7
STYLE1
100
AcDbText
  0
TEXT
  5
17BD4
330
747D
100
AcDbEntity
  8
文字
 62
     7
 48
50.0
100
AcDbText
 10
13583.11819016569
 20
10590.01374588373
 30
0.0
 40
100.0
  1
桁前
  7
STYLE1
100
AcDbText
  0
TEXT
  5
17BD5
330
747D
100
AcDbEntity
  8
文字
 62
     7
 48
50.0
100
AcDbText
 10
13583.11819016569
 20
10760.01374588372
 30
0.0
 40
100.0
  1
柱
  7
STYLE1
100
AcDbText
  0
TEXT
  5
17BD6
330
747D
100
AcDbEntity
  8
文字
 62
     7
 48
50.0
100
AcDbText
 10
13583.11819016569
 20
10930.01374588372
 30
0.0
 40
100.0
  1
土台枠
  7
STYLE1
100
AcDbText
  0
TEXT
  5
17BD7
330
747D
100
AcDbEntity
  8
文字
 62
     7
 48
50.0
100
AcDbText
 10
14859.79774614482
 20
11100.01374588373
 30
0.0
 40
100.0
  1
材料（材質）　　単位mm
  7
STYLE1
100
AcDbText
  0
TEXT
  5
17BD8
330
747D
100
AcDbEntity
  8
文字
 62
     7
 48
50.0
100
AcDbText
 10
13732.03840939434
 20
11100.01374588373
 30
0.0
 40
100.0
  1
部　　品　　名
  7
STYLE1
100
AcDbText
  0
TEXT
  5
17BD9
330
747D
100
AcDbEntity
  8
文字
 62
     7
 48
50.0
100
AcDbText
 10
13271.19032244792
 20
10590.01374588373
 30
0.0
 40
100.0
  1
3
  7
STYLE1
100
AcDbText
  0
TEXT
  5
17BDA
330
747D
100
AcDbEntity
  8
文字
 62
     7
 48
50.0
100
AcDbText
 10
13271.19032244792
 20
10420.01374588373
 30
0.0
 40
100.0
  1
4
  7
STYLE1
100
AcDbText
  0
TEXT
  5
17BDB
330
747D
100
AcDbEntity
  8
文字
 62
     7
 48
50.0
100
AcDbText
 10
13271.19032244792
 20
10760.01374588373
 30
0.0
 40
100.0
  1
2
  7
STYLE1
100
AcDbText
  0
TEXT
  5
17BDC
330
747D
100
AcDbEntity
  8
文字
 62
     7
 48
50.0
100
AcDbText
 10
13271.19032244792
 20
10930.01374588373
 30
0.0
 40
100.0
  1
1
  7
STYLE1
100
AcDbText
  0
TEXT
  5
17BDD
330
747D
100
AcDbEntity
  8
文字
 62
     7
 48
50.0
100
AcDbText
 10
13197.42518560407
 20
11100.01374588373
 30
0.0
 40
100.0
  1
品番
  7
STYLE1
100
AcDbText
  0
LINE
  5
17BDE
330
747D
100
AcDbEntity
  8
仕様書枠
 48
50.0
100
AcDbLine
 10
16307.19999999999
 20
10559.6
 30
0.0
 11
13127.19999999999
 21
10559.6
 31
0.0
  0
LINE
  5
17BDF
330
747D
100
AcDbEntity
  8
仕様書枠
 48
50.0
100
AcDbLine
 10
16307.19999999999
 20
10219.6
 30
0.0
 11
13127.19999999999
 21
10219.6
 31
0.0
  0
LINE
  5
17BE0
330
747D
100
AcDbEntity
  8
仕様書枠
 48
50.0
100
AcDbLine
 10
16307.19999999999
 20
10389.6
 30
0.0
 11
13127.19999999999
 21
10389.6
 31
0.0
  0
LINE
  5
17BE1
330
747D
100
AcDbEntity
  8
仕様書枠
 48
50.0
100
AcDbLine
 10
16307.19999999999
 20
10899.6
 30
0.0
 11
13127.2
 21
10899.6
 31
0.0
  0
LINE
  5
17BE2
330
747D
100
AcDbEntity
  8
仕様書枠
 48
50.0
100
AcDbLine
 10
16307.19999999999
 20
10729.6
 30
0.0
 11
13127.2
 21
10729.6
 31
0.0
  0
LINE
  5
17BE3
330
747D
100
AcDbEntity
  8
仕様書枠
 48
50.0
100
AcDbLine
 10
16307.19999999999
 20
11069.6
 30
0.0
 11
13127.2
 21
11069.6
 31
0.0
  0
LINE
  5
17BE4
330
747D
100
AcDbEntity
  8
仕様書枠
 48
50.0
100
AcDbLine
 10
13490.2
 20
11239.6
 30
0.0
 11
13490.20000000001
 21
8859.600000000002
 31
0.0
  0
LINE
  5
17BE5
330
747D
100
AcDbEntity
  8
仕様書枠
 48
50.0
100
AcDbLine
 10
14785.2
 20
11239.59999999999
 30
0.0
 11
14785.2
 21
8859.600000000002
 31
0.0
  0
LINE
  5
17BE6
330
747D
100
AcDbEntity
  8
仕様書枠
 48
50.0
100
AcDbLine
 10
16307.19999999999
 20
8349.600000000004
 30
0.0
 11
16307.2
 21
11239.6
 31
0.0
  0
LINE
  5
17BE7
330
747D
100
AcDbEntity
  8
仕様書枠
 48
50.0
100
AcDbLine
 10
16307.19999999999
 20
11239.6
 30
0.0
 11
13127.2
 21
11239.6
 31
0.0
  0
LINE
  5
17BE8
330
747D
100
AcDbEntity
  8
仕様書枠
 48
50.0
100
AcDbLine
 10
16307.19999999999
 20
9879.599999999999
 30
0.0
 11
13127.19999999999
 21
9879.600000000001
 31
0.0
  0
TEXT
  5
17BE9
330
747D
100
AcDbEntity
  8
文字
 62
     7
 48
50.0
100
AcDbText
 10
13583.11819016569
 20
9910.01374588373
 30
0.0
 40
100.0
  1
梁中
  7
STYLE1
100
AcDbText
  0
TEXT
  5
17BEA
330
747D
100
AcDbEntity
  8
文字
 62
     7
 48
50.0
100
AcDbText
 10
15022.63965474516
 20
9910.013745883727
 30
0.0
 40
100.0
  1
F12,Y10      1.2+1.6
  7
STYLE1
100
AcDbText
  0
LWPOLYLINE
  5
180C1
330
747D
100
AcDbEntity
  8
部品1
100
AcDbPolyline
 90
        4
 70
     1
 43
0.0
 10
5677.937724009439
 20
6031.591110147405
 10
5677.937724009439
 20
5791.698788601872
 10
6441.408390237881
 20
5791.698788601872
 10
6441.408390237881
 20
6031.591110147405
  0
TEXT
  5
180C2
330
747D
100
AcDbEntity
  8
部品1
100
AcDbText
 10
5767.857333838477
 20
5838.697580928881
 30
0.0
 40
135.0
  1
平面図
  7
STYLE2
100
AcDbText
  0
TEXT
  5
180C3
330
747D
100
AcDbEntity
  8
部品1
100
AcDbText
 10
5768.463127747392
 20
1595.038069494738
 30
0.0
 40
135.0
  1
正面図
  7
STYLE2
100
AcDbText
  0
LWPOLYLINE
  5
180C4
330
747D
100
AcDbEntity
  8
部品1
100
AcDbPolyline
 90
        4
 70
     1
 43
0.0
 10
5677.937724009439
 20
1787.931598713261
 10
5677.937724009439
 20
1548.039277167729
 10
6441.408390237878
 20
1548.039277167729
 10
6441.408390237878
 20
1787.931598713261
  0
LINE
  5
180C5
330
747D
100
AcDbEntity
  8
部品1
100
AcDbLine
 10
2960.092718138967
 20
4905.535073318026
 30
0.0
 11
2961.226115471316
 21
4885.558945335426
 31
0.0
  0
LINE
  5
180C6
330
747D
100
AcDbEntity
  8
部品1
100
AcDbLine
 10
2972.663135792893
 20
4789.901538168368
 30
0.0
 11
2973.308041600001
 21
4778.535073318027
 31
0.0
  0
LINE
  5
180C7
330
747D
100
AcDbEntity
  8
部品1
100
AcDbLine
 10
2964.427105268045
 20
4882.101538168369
 30
0.0
 11
2969.462145996157
 21
4793.358945335425
 31
0.0
  0
ARC
  5
180C8
330
747D
100
AcDbEntity
  8
部品1
 48
50.0
100
AcDbCircle
 10
2961.43192237186
 20
4881.931598713267
 30
0.0
 40
3.0
100
AcDbArc
 50
3.247342790340932
 51
82.34187279263609
  0
ARC
  5
180C9
330
747D
100
AcDbEntity
  8
部品1
 48
50.0
100
AcDbCircle
 10
2969.667952896704
 20
4789.731598713264
 30
0.0
 40
3.0
100
AcDbArc
 50
3.247342790340932
 51
82.34187279263609
  0
ARC
  5
180CA
330
747D
100
AcDbEntity
  8
部品1
 48
50.0
100
AcDbCircle
 10
2970.161022005264
 20
4793.398597874948
 30
0.0
 40
0.7
100
AcDbArc
 50
183.2473427902954
 51
262.3418727926361
  0
ARC
  5
180CB
330
747D
100
AcDbEntity
  8
部品1
 48
50.0
100
AcDbCircle
 10
2961.924991480425
 20
4885.598597874952
 30
0.0
 40
0.7
100
AcDbArc
 50
183.2473427903929
 51
262.3418727926361
  0
ARC
  5
180CC
330
747D
100
AcDbEntity
  8
部品1
100
AcDbCircle
 10
2980.2968016911
 20
4778.931598713266
 30
0.0
 40
7.0
100
AcDbArc
 50
183.247342790341
 51
270.0
  0
ARC
  5
180CD
330
747D
100
AcDbEntity
  8
部品1
100
AcDbCircle
 10
2967.081478230066
 20
4905.931598713265
 30
0.0
 40
7.0
100
AcDbArc
 50
90.0
 51
183.247342790341
  0
LINE
  5
180CE
330
747D
100
AcDbEntity
  8
細線
 48
50.0
100
AcDbLine
 10
2992.673057123637
 20
4912.931598713265
 30
0.0
 11
2992.673057123637
 21
4771.931598713265
 31
0.0
  0
LINE
  5
180CF
330
747D
100
AcDbEntity
  8
細線
 48
50.0
100
AcDbLine
 10
6049.673057123658
 20
4792.704841276732
 30
0.0
 11
2970.067738660066
 21
4792.7048412771
 31
0.0
  0
LINE
  5
180D0
330
747D
100
AcDbEntity
  8
細線
 48
50.0
100
AcDbLine
 10
6049.673057123658
 20
4884.904841276732
 30
0.0
 11
2961.831708135236
 21
4884.904841277102
 31
0.0
  0
LINE
  5
180D1
330
747D
100
AcDbEntity
  8
部品1
 48
50.0
100
AcDbLine
 10
6059.673057123655
 20
4771.931598713265
 30
0.0
 11
2980.2968016911
 21
4771.931598713265
 31
0.0
  0
LINE
  5
180D2
330
747D
100
AcDbEntity
  8
部品1
 48
50.0
100
AcDbLine
 10
6049.673057123655
 20
4912.931598713264
 30
0.0
 11
2967.081478230066
 21
4912.931598713264
 31
0.0
  0
DIMENSION
  5
180FF
330
747D
100
AcDbEntity
  8
寸法
 48
50.0
100
AcDbDimension
  2
*D22
 10
3009.673057123637
 20
5125.473183971506
 30
0.0
 11
6059.673057123644
 21
5125.473183971506
 31
0.0
 70
   160
  1
柱外寸法<>
 71
     5
 42
6100.000000000015
  3
INABA_S40G
100
AcDbAlignedDimension
 13
9109.673057123652
 23
4912.931598713266
 33
0.0
 14
3009.673057123637
 24
4912.931598713268
 34
0.0
100
AcDbRotatedDimension
  0
DIMENSION
  5
18100
330
747D
100
AcDbEntity
  8
寸法
 48
50.0
100
AcDbDimension
  2
*D23
 10
2959.673057123637
 20
5125.473183971506
 30
0.0
 11
2646.187775749389
 21
5125.473183971506
 31
0.0
 70
   160
 71
     5
 42
50.0
  3
INABA_S40G
100
AcDbAlignedDimension
 13
3009.673057123637
 23
4912.931598713268
 33
0.0
 14
2959.673057123637
 24
4912.931598713267
 34
0.0
100
AcDbRotatedDimension
1001
ACAD
1000
DSTYLE
1002
{
1002
}
  0
ARC
  5
18101
330
747D
100
AcDbEntity
  8
細線
 48
50.0
100
AcDbCircle
 10
4234.67305712364
 20
3100.431598713262
 30
0.0
 40
15.0
100
AcDbArc
 50
90.0
 51
270.0
  0
ARC
  5
18102
330
747D
100
AcDbEntity
  8
細線
 48
50.0
100
AcDbCircle
 10
4334.67305712364
 20
3100.431598713262
 30
0.0
 40
15.0
100
AcDbArc
 50
270.0
 51
90.0
  0
LINE
  5
18103
330
747D
100
AcDbEntity
  8
細線
 48
50.0
100
AcDbLine
 10
4234.67305712364
 20
3115.431598713261
 30
0.0
 11
4334.67305712364
 21
3115.431598713261
 31
0.0
  0
LINE
  5
18104
330
747D
100
AcDbEntity
  8
細線
 48
50.0
100
AcDbLine
 10
4334.67305712364
 20
3085.431598713262
 30
0.0
 11
4234.67305712364
 21
3085.431598713262
 31
0.0
  0
LINE
  5
18105
330
747D
100
AcDbEntity
  8
細線
 48
50.0
100
AcDbLine
 10
4834.673057123641
 20
3085.431598713262
 30
0.0
 11
4734.67305712364
 21
3085.431598713262
 31
0.0
  0
LINE
  5
18106
330
747D
100
AcDbEntity
  8
細線
 48
50.0
100
AcDbLine
 10
4734.67305712364
 20
3115.431598713261
 30
0.0
 11
4834.673057123641
 21
3115.431598713261
 31
0.0
  0
ARC
  5
18107
330
747D
100
AcDbEntity
  8
細線
 48
50.0
100
AcDbCircle
 10
4734.67305712364
 20
3100.431598713262
 30
0.0
 40
15.0
100
AcDbArc
 50
90.0
 51
270.0
  0
ARC
  5
18108
330
747D
100
AcDbEntity
  8
細線
 48
50.0
100
AcDbCircle
 10
4834.673057123641
 20
3100.431598713262
 30
0.0
 40
15.0
100
AcDbArc
 50
270.0
 51
90.0
  0
CIRCLE
  5
18109
330
747D
100
AcDbEntity
  8
細線
 48
50.0
100
AcDbCircle
 10
4534.67305712364
 20
3425.431598713262
 30
0.0
 40
18.0
  0
LINE
  5
1810A
330
747D
100
AcDbEntity
  8
細線
100
AcDbLine
 10
5956.673057123641
 20
2547.931598713262
 30
0.0
 11
3112.673057123637
 21
2547.931598713262
 31
0.0
  0
LINE
  5
1810B
330
747D
100
AcDbEntity
  8
細線
100
AcDbLine
 10
3112.67305712364
 20
3067.931598713262
 30
0.0
 11
5956.673057123641
 21
3067.931598713262
 31
0.0
  0
LINE
  5
1810C
330
747D
100
AcDbEntity
  8
細線
100
AcDbLine
 10
3112.67305712364
 20
3002.931598713261
 30
0.0
 11
5956.673057123641
 21
3002.931598713261
 31
0.0
  0
LINE
  5
1810D
330
747D
100
AcDbEntity
  8
細線
100
AcDbLine
 10
3112.67305712364
 20
2937.931598713261
 30
0.0
 11
5956.673057123641
 21
2937.931598713261
 31
0.0
  0
LINE
  5
1810E
330
747D
100
AcDbEntity
  8
細線
100
AcDbLine
 10
3112.67305712364
 20
2872.931598713261
 30
0.0
 11
5956.673057123641
 21
2872.931598713261
 31
0.0
  0
LINE
  5
1810F
330
747D
100
AcDbEntity
  8
細線
100
AcDbLine
 10
3112.67305712364
 20
2807.931598713262
 30
0.0
 11
5956.673057123641
 21
2807.931598713262
 31
0.0
  0
LINE
  5
18110
330
747D
100
AcDbEntity
  8
細線
100
AcDbLine
 10
3112.67305712364
 20
2742.931598713262
 30
0.0
 11
5956.673057123641
 21
2742.931598713262
 31
0.0
  0
LINE
  5
18111
330
747D
100
AcDbEntity
  8
細線
100
AcDbLine
 10
3112.67305712364
 20
2677.931598713261
 30
0.0
 11
5956.673057123641
 21
2677.931598713261
 31
0.0
  0
LINE
  5
18112
330
747D
100
AcDbEntity
  8
細線
100
AcDbLine
 10
3112.67305712364
 20
2612.931598713262
 30
0.0
 11
5956.673057123641
 21
2612.931598713262
 31
0.0
  0
LINE
  5
18113
330
747D
100
AcDbEntity
  8
細線
100
AcDbLine
 10
3112.67305712364
 20
2547.931598713262
 30
0.0
 11
5956.673057123641
 21
2547.931598713262
 31
0.0
  0
LINE
  5
18114
330
747D
100
AcDbEntity
  8
細線
100
AcDbLine
 10
3112.67305712364
 20
4367.931598713261
 30
0.0
 11
5956.673057123641
 21
4367.931598713261
 31
0.0
  0
LINE
  5
18115
330
747D
100
AcDbEntity
  8
細線
100
AcDbLine
 10
3112.67305712364
 20
4497.931598713261
 30
0.0
 11
5956.673057123641
 21
4497.931598713261
 31
0.0
  0
LINE
  5
18116
330
747D
100
AcDbEntity
  8
細線
100
AcDbLine
 10
3112.67305712364
 20
4432.931598713262
 30
0.0
 11
5956.673057123641
 21
4432.931598713262
 31
0.0
  0
LINE
  5
18117
330
747D
100
AcDbEntity
  8
細線
100
AcDbLine
 10
3112.67305712364
 20
3717.931598713261
 30
0.0
 11
5956.673057123641
 21
3717.931598713261
 31
0.0
  0
LINE
  5
18118
330
747D
100
AcDbEntity
  8
細線
100
AcDbLine
 10
3112.67305712364
 20
3652.931598713261
 30
0.0
 11
5956.673057123641
 21
3652.931598713261
 31
0.0
  0
LINE
  5
18119
330
747D
100
AcDbEntity
  8
細線
100
AcDbLine
 10
3112.67305712364
 20
3587.931598713261
 30
0.0
 11
5956.673057123641
 21
3587.931598713261
 31
0.0
  0
LINE
  5
1811A
330
747D
100
AcDbEntity
  8
細線
100
AcDbLine
 10
3112.67305712364
 20
3522.931598713262
 30
0.0
 11
5956.673057123641
 21
3522.931598713262
 31
0.0
  0
LINE
  5
1811B
330
747D
100
AcDbEntity
  8
細線
100
AcDbLine
 10
3112.67305712364
 20
3457.931598713262
 30
0.0
 11
5956.673057123641
 21
3457.931598713262
 31
0.0
  0
LINE
  5
1811C
330
747D
100
AcDbEntity
  8
細線
100
AcDbLine
 10
3112.67305712364
 20
3392.931598713261
 30
0.0
 11
5956.673057123641
 21
3392.931598713261
 31
0.0
  0
LINE
  5
1811D
330
747D
100
AcDbEntity
  8
細線
100
AcDbLine
 10
3112.67305712364
 20
3327.931598713262
 30
0.0
 11
5956.673057123641
 21
3327.931598713262
 31
0.0
  0
LINE
  5
1811E
330
747D
100
AcDbEntity
  8
細線
100
AcDbLine
 10
3112.67305712364
 20
3262.931598713262
 30
0.0
 11
5956.673057123641
 21
3262.931598713262
 31
0.0
  0
LINE
  5
1811F
330
747D
100
AcDbEntity
  8
細線
100
AcDbLine
 10
3112.67305712364
 20
3197.931598713262
 30
0.0
 11
5956.673057123641
 21
3197.931598713262
 31
0.0
  0
LINE
  5
18120
330
747D
100
AcDbEntity
  8
細線
100
AcDbLine
 10
3112.67305712364
 20
3132.931598713261
 30
0.0
 11
5956.673057123641
 21
3132.931598713261
 31
0.0
  0
LINE
  5
18121
330
747D
100
AcDbEntity
  8
細線
100
AcDbLine
 10
3112.67305712364
 20
4107.931598713261
 30
0.0
 11
5956.673057123641
 21
4107.931598713261
 31
0.0
  0
LINE
  5
18122
330
747D
100
AcDbEntity
  8
細線
100
AcDbLine
 10
3112.67305712364
 20
4042.931598713261
 30
0.0
 11
5956.673057123641
 21
4042.931598713261
 31
0.0
  0
LINE
  5
18123
330
747D
100
AcDbEntity
  8
細線
100
AcDbLine
 10
3112.67305712364
 20
3977.931598713261
 30
0.0
 11
5956.673057123641
 21
3977.931598713261
 31
0.0
  0
LINE
  5
18124
330
747D
100
AcDbEntity
  8
細線
100
AcDbLine
 10
3112.67305712364
 20
3912.931598713262
 30
0.0
 11
5956.673057123641
 21
3912.931598713262
 31
0.0
  0
LINE
  5
18125
330
747D
100
AcDbEntity
  8
細線
100
AcDbLine
 10
3112.67305712364
 20
3847.931598713262
 30
0.0
 11
5956.673057123641
 21
3847.931598713262
 31
0.0
  0
LINE
  5
18126
330
747D
100
AcDbEntity
  8
細線
100
AcDbLine
 10
3112.67305712364
 20
3782.931598713262
 30
0.0
 11
5956.673057123641
 21
3782.931598713262
 31
0.0
  0
LINE
  5
18127
330
747D
100
AcDbEntity
  8
細線
100
AcDbLine
 10
3112.67305712364
 20
4302.931598713261
 30
0.0
 11
5956.673057123641
 21
4302.931598713261
 31
0.0
  0
LINE
  5
18128
330
747D
100
AcDbEntity
  8
細線
100
AcDbLine
 10
3112.67305712364
 20
4237.931598713261
 30
0.0
 11
5956.673057123641
 21
4237.931598713261
 31
0.0
  0
LINE
  5
18129
330
747D
100
AcDbEntity
  8
細線
100
AcDbLine
 10
3112.67305712364
 20
4172.931598713261
 30
0.0
 11
5956.673057123641
 21
4172.931598713261
 31
0.0
  0
LINE
  5
1812A
330
747D
100
AcDbEntity
  8
部品1
100
AcDbLine
 10
3009.67305712364
 20
4512.931598713262
 30
0.0
 11
6114.673057123655
 21
4512.931598713262
 31
0.0
  0
LINE
  5
1812C
330
747D
100
AcDbEntity
  8
部品1
100
AcDbLine
 10
5956.673057123644
 20
4512.931598713262
 30
0.0
 11
5956.673057123641
 21
2537.931598713262
 31
0.0
  0
LINE
  5
1812E
330
747D
100
AcDbEntity
  8
部品1
100
AcDbLine
 10
3112.67305712364
 20
4512.931598713261
 30
0.0
 11
3112.67305712364
 21
2537.931598713262
 31
0.0
  0
LINE
  5
18135
330
747D
100
AcDbEntity
  8
部品1
100
AcDbLine
 10
3064.673057123641
 20
4512.931598713263
 30
0.0
 11
3064.67305712364
 21
2537.931598713262
 31
0.0
  0
LINE
  5
18136
330
747D
100
AcDbEntity
  8
部品1
100
AcDbLine
 10
6004.673057123642
 20
4512.931598713263
 30
0.0
 11
6004.67305712364
 21
2537.931598713262
 31
0.0
  0
LINE
  5
18137
330
747D
100
AcDbEntity
  8
部品1
100
AcDbLine
 10
3009.67305712364
 20
4771.931598713266
 30
0.0
 11
3009.67305712364
 21
2437.931598713261
 31
0.0
  0
LINE
  5
18138
330
747D
100
AcDbEntity
  8
部品1
100
AcDbLine
 10
3009.67305712364
 20
4677.931598713261
 30
0.0
 11
6059.673057123641
 21
4677.931598713261
 31
0.0
  0
LINE
  5
18139
330
747D
100
AcDbEntity
  8
部品1
100
AcDbLine
 10
3009.67305712364
 20
2537.931598713262
 30
0.0
 11
6059.673057123641
 21
2537.931598713262
 31
0.0
  0
LINE
  5
1813A
330
747D
100
AcDbEntity
  8
部品1
100
AcDbLine
 10
2170.903465777257
 20
2567.835409280926
 30
0.0
 11
2095.903465777257
 21
2437.931598713261
 31
0.0
  0
TEXT
  5
1813B
330
747D
100
AcDbEntity
  8
部品1
100
AcDbText
 10
2199.008407902031
 20
2474.038502319163
 30
0.0
 40
125.0
  1
G.L
  7
STYLE2
100
AcDbText
  0
LINE
  5
1813C
330
747D
100
AcDbEntity
  8
部品1
100
AcDbLine
 10
2095.903465777257
 20
2437.931598713261
 30
0.0
 11
2020.903465777257
 21
2567.835409280926
 31
0.0
  0
LINE
  5
1813D
330
747D
100
AcDbEntity
  8
部品1
100
AcDbLine
 10
2020.903465777257
 20
2567.835409280926
 30
0.0
 11
2170.903465777257
 21
2567.835409280926
 31
0.0
  0
LINE
  5
1813E
330
747D
100
AcDbEntity
  8
部品1
100
AcDbLine
 10
6059.673057123655
 20
2537.931598713262
 30
0.0
 11
9109.673057123655
 21
2537.931598713262
 31
0.0
  0
LINE
  5
1813F
330
747D
100
AcDbEntity
  8
部品1
100
AcDbLine
 10
6059.673057123655
 20
4677.931598713261
 30
0.0
 11
9109.673057123655
 21
4677.931598713261
 31
0.0
  0
LINE
  5
18140
330
747D
100
AcDbEntity
  8
部品1
100
AcDbLine
 10
9054.673057123657
 20
4512.931598713263
 30
0.0
 11
9054.673057123656
 21
2537.931598713262
 31
0.0
  0
LINE
  5
18141
330
747D
100
AcDbEntity
  8
部品1
100
AcDbLine
 10
6114.673057123656
 20
4512.931598713263
 30
0.0
 11
6114.673057123655
 21
2537.931598713262
 31
0.0
  0
LINE
  5
18142
330
747D
100
AcDbEntity
  8
部品1
100
AcDbLine
 10
9109.673057123655
 20
4771.931598713266
 30
0.0
 11
9109.673057123655
 21
2437.931598713261
 31
0.0
  0
LINE
  5
1814A
330
747D
100
AcDbEntity
  8
部品1
100
AcDbLine
 10
6162.673057123654
 20
4512.931598713261
 30
0.0
 11
6162.673057123654
 21
2537.931598713262
 31
0.0
  0
LINE
  5
1814B
330
747D
100
AcDbEntity
  8
部品1
100
AcDbLine
 10
9006.673057123659
 20
4512.931598713262
 30
0.0
 11
9006.673057123654
 21
2537.931598713262
 31
0.0
  0
LINE
  5
1814E
330
747D
100
AcDbEntity
  8
部品1
100
AcDbLine
 10
6114.673057123655
 20
4512.931598713261
 30
0.0
 11
9109.673057123655
 21
4512.931598713262
 31
0.0
  0
LINE
  5
1814F
330
747D
100
AcDbEntity
  8
細線
100
AcDbLine
 10
6162.673057123654
 20
4172.931598713261
 30
0.0
 11
9006.673057123654
 21
4172.931598713261
 31
0.0
  0
LINE
  5
18150
330
747D
100
AcDbEntity
  8
細線
100
AcDbLine
 10
6162.673057123654
 20
4237.931598713261
 30
0.0
 11
9006.673057123654
 21
4237.931598713261
 31
0.0
  0
LINE
  5
18151
330
747D
100
AcDbEntity
  8
細線
100
AcDbLine
 10
6162.673057123654
 20
4302.931598713261
 30
0.0
 11
9006.673057123654
 21
4302.931598713261
 31
0.0
  0
LINE
  5
18152
330
747D
100
AcDbEntity
  8
細線
100
AcDbLine
 10
6162.673057123654
 20
3782.931598713262
 30
0.0
 11
9006.673057123654
 21
3782.931598713262
 31
0.0
  0
LINE
  5
18153
330
747D
100
AcDbEntity
  8
細線
100
AcDbLine
 10
6162.673057123654
 20
3847.931598713262
 30
0.0
 11
9006.673057123654
 21
3847.931598713262
 31
0.0
  0
LINE
  5
18154
330
747D
100
AcDbEntity
  8
細線
100
AcDbLine
 10
6162.673057123654
 20
3912.931598713262
 30
0.0
 11
9006.673057123654
 21
3912.931598713262
 31
0.0
  0
LINE
  5
18155
330
747D
100
AcDbEntity
  8
細線
100
AcDbLine
 10
6162.673057123654
 20
3977.931598713261
 30
0.0
 11
9006.673057123654
 21
3977.931598713261
 31
0.0
  0
LINE
  5
18156
330
747D
100
AcDbEntity
  8
細線
100
AcDbLine
 10
6162.673057123654
 20
4042.931598713261
 30
0.0
 11
9006.673057123654
 21
4042.931598713261
 31
0.0
  0
LINE
  5
18157
330
747D
100
AcDbEntity
  8
細線
100
AcDbLine
 10
6162.673057123654
 20
4107.931598713261
 30
0.0
 11
9006.673057123654
 21
4107.931598713261
 31
0.0
  0
LINE
  5
18158
330
747D
100
AcDbEntity
  8
細線
100
AcDbLine
 10
6162.673057123654
 20
3132.931598713261
 30
0.0
 11
9006.673057123654
 21
3132.931598713261
 31
0.0
  0
LINE
  5
18159
330
747D
100
AcDbEntity
  8
細線
100
AcDbLine
 10
6162.673057123654
 20
3197.931598713262
 30
0.0
 11
9006.673057123654
 21
3197.931598713262
 31
0.0
  0
LINE
  5
1815A
330
747D
100
AcDbEntity
  8
細線
100
AcDbLine
 10
6162.673057123654
 20
3262.931598713262
 30
0.0
 11
9006.673057123654
 21
3262.931598713262
 31
0.0
  0
LINE
  5
1815B
330
747D
100
AcDbEntity
  8
細線
100
AcDbLine
 10
6162.673057123654
 20
3327.931598713262
 30
0.0
 11
9006.673057123654
 21
3327.931598713262
 31
0.0
  0
LINE
  5
1815C
330
747D
100
AcDbEntity
  8
細線
100
AcDbLine
 10
6162.673057123654
 20
3392.931598713261
 30
0.0
 11
9006.673057123654
 21
3392.931598713261
 31
0.0
  0
LINE
  5
1815D
330
747D
100
AcDbEntity
  8
細線
100
AcDbLine
 10
6162.673057123654
 20
3457.931598713262
 30
0.0
 11
9006.673057123654
 21
3457.931598713262
 31
0.0
  0
LINE
  5
1815E
330
747D
100
AcDbEntity
  8
細線
100
AcDbLine
 10
6162.673057123654
 20
3522.931598713262
 30
0.0
 11
9006.673057123654
 21
3522.931598713262
 31
0.0
  0
LINE
  5
1815F
330
747D
100
AcDbEntity
  8
細線
100
AcDbLine
 10
6162.673057123654
 20
3587.931598713261
 30
0.0
 11
9006.673057123654
 21
3587.931598713261
 31
0.0
  0
LINE
  5
18160
330
747D
100
AcDbEntity
  8
細線
100
AcDbLine
 10
6162.673057123654
 20
3652.931598713261
 30
0.0
 11
9006.673057123654
 21
3652.931598713261
 31
0.0
  0
LINE
  5
18161
330
747D
100
AcDbEntity
  8
細線
100
AcDbLine
 10
6162.673057123654
 20
3717.931598713261
 30
0.0
 11
9006.673057123654
 21
3717.931598713261
 31
0.0
  0
LINE
  5
18162
330
747D
100
AcDbEntity
  8
細線
100
AcDbLine
 10
6162.673057123654
 20
4432.931598713262
 30
0.0
 11
9006.673057123654
 21
4432.931598713262
 31
0.0
  0
LINE
  5
18163
330
747D
100
AcDbEntity
  8
細線
100
AcDbLine
 10
6162.673057123654
 20
4497.931598713261
 30
0.0
 11
9006.673057123654
 21
4497.931598713261
 31
0.0
  0
LINE
  5
18164
330
747D
100
AcDbEntity
  8
細線
100
AcDbLine
 10
6162.673057123654
 20
4367.931598713261
 30
0.0
 11
9006.673057123654
 21
4367.931598713261
 31
0.0
  0
LINE
  5
18165
330
747D
100
AcDbEntity
  8
細線
100
AcDbLine
 10
6162.673057123654
 20
2547.931598713262
 30
0.0
 11
9006.673057123654
 21
2547.931598713262
 31
0.0
  0
LINE
  5
18166
330
747D
100
AcDbEntity
  8
細線
100
AcDbLine
 10
6162.673057123654
 20
2612.931598713262
 30
0.0
 11
9006.673057123654
 21
2612.931598713262
 31
0.0
  0
LINE
  5
18167
330
747D
100
AcDbEntity
  8
細線
100
AcDbLine
 10
6162.673057123654
 20
2677.931598713261
 30
0.0
 11
9006.673057123654
 21
2677.931598713261
 31
0.0
  0
LINE
  5
18168
330
747D
100
AcDbEntity
  8
細線
100
AcDbLine
 10
6162.673057123654
 20
2742.931598713262
 30
0.0
 11
9006.673057123654
 21
2742.931598713262
 31
0.0
  0
LINE
  5
18169
330
747D
100
AcDbEntity
  8
細線
100
AcDbLine
 10
6162.673057123654
 20
2807.931598713262
 30
0.0
 11
9006.673057123654
 21
2807.931598713262
 31
0.0
  0
LINE
  5
1816A
330
747D
100
AcDbEntity
  8
細線
100
AcDbLine
 10
6162.673057123654
 20
2872.931598713261
 30
0.0
 11
9006.673057123654
 21
2872.931598713261
 31
0.0
  0
LINE
  5
1816B
330
747D
100
AcDbEntity
  8
細線
100
AcDbLine
 10
6162.673057123654
 20
2937.931598713261
 30
0.0
 11
9006.673057123654
 21
2937.931598713261
 31
0.0
  0
LINE
  5
1816C
330
747D
100
AcDbEntity
  8
細線
100
AcDbLine
 10
6162.673057123654
 20
3002.931598713261
 30
0.0
 11
9006.673057123654
 21
3002.931598713261
 31
0.0
  0
LINE
  5
1816D
330
747D
100
AcDbEntity
  8
細線
100
AcDbLine
 10
6162.673057123654
 20
3067.931598713262
 30
0.0
 11
9006.673057123654
 21
3067.931598713262
 31
0.0
  0
LINE
  5
1816E
330
747D
100
AcDbEntity
  8
細線
100
AcDbLine
 10
9006.673057123656
 20
2547.931598713262
 30
0.0
 11
6162.673057123651
 21
2547.931598713262
 31
0.0
  0
CIRCLE
  5
18172
330
747D
100
AcDbEntity
  8
細線
 48
50.0
100
AcDbCircle
 10
7584.673057123655
 20
3425.431598713262
 30
0.0
 40
18.0
  0
ARC
  5
18173
330
747D
100
AcDbEntity
  8
細線
 48
50.0
100
AcDbCircle
 10
7884.673057123655
 20
3100.431598713262
 30
0.0
 40
15.0
100
AcDbArc
 50
270.0
 51
90.0
  0
ARC
  5
18174
330
747D
100
AcDbEntity
  8
細線
 48
50.0
100
AcDbCircle
 10
7784.673057123654
 20
3100.431598713262
 30
0.0
 40
15.0
100
AcDbArc
 50
90.0
 51
270.0
  0
LINE
  5
18175
330
747D
100
AcDbEntity
  8
細線
 48
50.0
100
AcDbLine
 10
7784.673057123654
 20
3115.431598713261
 30
0.0
 11
7884.673057123655
 21
3115.431598713261
 31
0.0
  0
LINE
  5
18176
330
747D
100
AcDbEntity
  8
細線
 48
50.0
100
AcDbLine
 10
7884.673057123655
 20
3085.431598713262
 30
0.0
 11
7784.673057123654
 21
3085.431598713262
 31
0.0
  0
LINE
  5
18177
330
747D
100
AcDbEntity
  8
細線
 48
50.0
100
AcDbLine
 10
7384.673057123655
 20
3085.431598713262
 30
0.0
 11
7284.673057123654
 21
3085.431598713262
 31
0.0
  0
LINE
  5
18178
330
747D
100
AcDbEntity
  8
細線
 48
50.0
100
AcDbLine
 10
7284.673057123654
 20
3115.431598713261
 30
0.0
 11
7384.673057123655
 21
3115.431598713261
 31
0.0
  0
ARC
  5
18179
330
747D
100
AcDbEntity
  8
細線
 48
50.0
100
AcDbCircle
 10
7384.673057123655
 20
3100.431598713262
 30
0.0
 40
15.0
100
AcDbArc
 50
270.0
 51
90.0
  0
ARC
  5
1817A
330
747D
100
AcDbEntity
  8
細線
 48
50.0
100
AcDbCircle
 10
7284.673057123654
 20
3100.431598713262
 30
0.0
 40
15.0
100
AcDbArc
 50
90.0
 51
270.0
  0
DIMENSION
  5
1817B
330
747D
100
AcDbEntity
  8
寸法
 48
50.0
100
AcDbDimension
  2
*D24
 10
9159.673057123667
 20
5346.378484445256
 30
0.0
 11
6059.673057123651
 21
5346.378484445256
 31
0.0
 70
   160
 71
     5
 42
6200.000000000029
  3
INABA_S40G
100
AcDbAlignedDimension
 13
2959.673057123637
 23
4912.931598713267
 33
0.0
 14
9159.673057123667
 24
4912.931598713264
 34
0.0
100
AcDbRotatedDimension
  0
DIMENSION
  5
1817C
330
747D
100
AcDbEntity
  8
寸法
 48
50.0
100
AcDbDimension
  2
*D25
 10
9109.673057123666
 20
5125.473183971505
 30
0.0
 11
9473.158338497901
 21
5125.473183971505
 31
0.0
 70
   160
 71
     5
 42
50.0
  3
INABA_S40G
100
AcDbAlignedDimension
 13
9159.673057123667
 23
4912.931598713264
 33
0.0
 14
9109.673057123666
 24
4912.931598713266
 34
0.0
100
AcDbRotatedDimension
  0
LINE
  5
181AA
330
747D
100
AcDbEntity
  8
部品1
 48
50.0
100
AcDbLine
 10
9152.264636017234
 20
4912.931598713264
 30
0.0
 11
6049.673057123655
 21
4912.931598713264
 31
0.0
  0
LINE
  5
181AB
330
747D
100
AcDbEntity
  8
部品1
 48
50.0
100
AcDbLine
 10
9139.049312556199
 20
4771.931598713265
 30
0.0
 11
6059.673057123655
 21
4771.931598713265
 31
0.0
  0
LINE
  5
181AC
330
747D
100
AcDbEntity
  8
細線
 48
50.0
100
AcDbLine
 10
9157.514406111749
 20
4884.904841276732
 30
0.0
 11
6049.673057123655
 21
4884.904841276739
 31
0.0
  0
LINE
  5
181AD
330
747D
100
AcDbEntity
  8
細線
 48
50.0
100
AcDbLine
 10
9149.278375586906
 20
4792.704841276732
 30
0.0
 11
6049.673057123655
 21
4792.704841277097
 31
0.0
  0
LINE
  5
181AE
330
747D
100
AcDbEntity
  8
部品1
100
AcDbLine
 10
9159.253396108331
 20
4905.535073318024
 30
0.0
 11
9158.119998775985
 21
4885.558945335425
 31
0.0
  0
LINE
  5
181AF
330
747D
100
AcDbEntity
  8
細線
 48
50.0
100
AcDbLine
 10
9126.673057123666
 20
4912.931598713264
 30
0.0
 11
9126.673057123666
 21
4771.931598713264
 31
0.0
  0
LINE
  5
181B0
330
747D
100
AcDbEntity
  8
部品1
100
AcDbLine
 10
9146.682978454411
 20
4789.901538168367
 30
0.0
 11
9146.038072647298
 21
4778.535073318026
 31
0.0
  0
LINE
  5
181B1
330
747D
100
AcDbEntity
  8
部品1
100
AcDbLine
 10
9154.919008979254
 20
4882.101538168367
 30
0.0
 11
9149.883968251144
 21
4793.358945335424
 31
0.0
  0
ARC
  5
181B2
330
747D
100
AcDbEntity
  8
部品1
 48
50.0
100
AcDbCircle
 10
9157.914191875439
 20
4881.931598713266
 30
0.0
 40
3.0
100
AcDbArc
 50
97.6581272073639
 51
176.752657209659
  0
ARC
  5
181B3
330
747D
100
AcDbEntity
  8
部品1
 48
50.0
100
AcDbCircle
 10
9149.678161350596
 20
4789.731598713263
 30
0.0
 40
3.0
100
AcDbArc
 50
97.6581272073639
 51
176.752657209659
  0
ARC
  5
181B4
330
747D
100
AcDbEntity
  8
部品1
 48
50.0
100
AcDbCircle
 10
9149.185092242033
 20
4793.398597874946
 30
0.0
 40
0.7
100
AcDbArc
 50
277.6581272073639
 51
356.7526572097046
  0
ARC
  5
181B5
330
747D
100
AcDbEntity
  8
部品1
 48
50.0
100
AcDbCircle
 10
9157.421122766878
 20
4885.598597874952
 30
0.0
 40
0.7
100
AcDbArc
 50
277.6581272073639
 51
356.752657209607
  0
ARC
  5
181B6
330
747D
100
AcDbEntity
  8
部品1
100
AcDbCircle
 10
9139.049312556199
 20
4778.931598713266
 30
0.0
 40
7.0
100
AcDbArc
 50
270.0
 51
356.752657209659
  0
ARC
  5
181B7
330
747D
100
AcDbEntity
  8
部品1
100
AcDbCircle
 10
9152.264636017234
 20
4905.931598713264
 30
0.0
 40
7.0
100
AcDbArc
 50
356.752657209659
 51
90.0
  0
LINE
  5
181B8
330
747D
100
AcDbEntity
  8
部品1
 48
50.0
100
AcDbLine
 10
6049.673057123655
 20
4771.931598713265
 30
0.0
 11
6049.673057123655
 21
4912.931598713264
 31
0.0
  0
LINE
  5
181B9
330
747D
100
AcDbEntity
  8
部品1
 48
50.0
100
AcDbLine
 10
6059.673057123655
 20
4512.931598713261
 30
0.0
 11
6059.673057123655
 21
4771.931598713265
 31
0.0
  0
LINE
  5
189FC
330
747D
100
AcDbEntity
  8
細線
 48
50.0
100
AcDbLine
 10
14767.72148434442
 20
4677.931598713264
 30
0.0
 11
14767.72148434442
 21
2587.931598713265
 31
0.0
  0
LINE
  5
189FD
330
747D
100
AcDbEntity
  8
細線
 48
50.0
100
AcDbLine
 10
14752.72148434443
 20
4677.931598713264
 30
0.0
 11
14752.72148434443
 21
2587.931598713265
 31
0.0
  0
LINE
  5
189FE
330
747D
100
AcDbEntity
  8
細線
 48
50.0
100
AcDbLine
 10
14892.72148434443
 20
4677.931598713264
 30
0.0
 11
14892.72148434443
 21
2587.931598713265
 31
0.0
  0
LINE
  5
189FF
330
747D
100
AcDbEntity
  8
細線
 48
50.0
100
AcDbLine
 10
14907.72148434442
 20
4677.931598713264
 30
0.0
 11
14907.72148434442
 21
2587.931598713265
 31
0.0
  0
LINE
  5
18A00
330
747D
100
AcDbEntity
  8
細線
 48
50.0
100
AcDbLine
 10
15047.72148434442
 20
4677.931598713264
 30
0.0
 11
15047.72148434442
 21
2587.931598713265
 31
0.0
  0
LINE
  5
18A01
330
747D
100
AcDbEntity
  8
細線
 48
50.0
100
AcDbLine
 10
15032.72148434442
 20
4677.931598713264
 30
0.0
 11
15032.72148434442
 21
2587.931598713265
 31
0.0
  0
LINE
  5
18A02
330
747D
100
AcDbEntity
  8
部品1
100
AcDbLine
 10
14690.22148434438
 20
4677.931598713263
 30
0.0
 11
14690.22148434438
 21
2587.931598713265
 31
0.0
  0
TEXT
  5
18A03
330
747D
100
AcDbEntity
  8
部品1
100
AcDbText
 10
13137.93225265379
 20
1595.038069494738
 30
0.0
 40
135.0
  1
側面図
  7
STYLE2
100
AcDbText
  0
LWPOLYLINE
  5
18A04
330
747D
100
AcDbEntity
  8
部品1
100
AcDbPolyline
 90
        4
 70
     1
 43
0.0
 10
13048.48615123018
 20
1787.931598713261
 10
13048.48615123018
 20
1548.039277167729
 10
13811.95681745862
 20
1548.039277167729
 10
13811.95681745862
 20
1787.931598713261
  0
LINE
  5
18A05
330
747D
100
AcDbEntity
  8
部品1
100
AcDbLine
 10
14270.22148434439
 20
4677.931598713263
 30
0.0
 11
14270.22148434439
 21
2587.931598713265
 31
0.0
  0
LINE
  5
18A06
330
747D
100
AcDbEntity
  8
細線
 48
50.0
100
AcDbLine
 10
14192.7214843444
 20
4677.931598713261
 30
0.0
 11
14192.7214843444
 21
2587.931598713263
 31
0.0
  0
LINE
  5
18A07
330
747D
100
AcDbEntity
  8
細線
 48
50.0
100
AcDbLine
 10
14207.7214843444
 20
4677.931598713261
 30
0.0
 11
14207.7214843444
 21
2587.931598713263
 31
0.0
  0
LINE
  5
18A08
330
747D
100
AcDbEntity
  8
細線
 48
50.0
100
AcDbLine
 10
14067.7214843444
 20
4677.931598713261
 30
0.0
 11
14067.7214843444
 21
2587.931598713263
 31
0.0
  0
LINE
  5
18A09
330
747D
100
AcDbEntity
  8
細線
 48
50.0
100
AcDbLine
 10
14052.7214843444
 20
4677.931598713261
 30
0.0
 11
14052.7214843444
 21
2587.931598713263
 31
0.0
  0
LINE
  5
18A0A
330
747D
100
AcDbEntity
  8
細線
 48
50.0
100
AcDbLine
 10
13912.7214843444
 20
4677.931598713261
 30
0.0
 11
13912.7214843444
 21
2587.931598713263
 31
0.0
  0
LINE
  5
18A0B
330
747D
100
AcDbEntity
  8
細線
 48
50.0
100
AcDbLine
 10
13927.7214843444
 20
4677.931598713261
 30
0.0
 11
13927.7214843444
 21
2587.931598713263
 31
0.0
  0
LINE
  5
18A0C
330
747D
100
AcDbEntity
  8
部品1
100
AcDbLine
 10
13850.2214843444
 20
4677.931598713261
 30
0.0
 11
13850.2214843444
 21
2587.931598713263
 31
0.0
  0
DIMENSION
  5
18A0D
330
747D
100
AcDbEntity
  8
寸法
 48
50.0
100
AcDbDimension
  2
*D26
 10
11074.61307757603
 20
4787.276857586592
 30
0.0
 11
11085.27855283495
 21
5158.123520828294
 31
0.0
 70
   161
 71
     5
 42
141.0
  3
INABA_S40G
100
AcDbAlignedDimension
 13
11654.61750450298
 23
4911.654347547941
 33
0.0
 14
11650.56404894636
 24
4770.712623782229
 34
0.0
1001
ACAD
1000
DSTYLE
1002
{
1070
   174
1070
     0
1070
   272
1070
     1
1070
   288
1070
     0
1070
   341
1005
0
1002
}
  0
LINE
  5
18A0E
330
747D
100
AcDbEntity
  8
細線
 48
50.0
100
AcDbLine
 10
14612.7214843444
 20
4677.931598713263
 30
0.0
 11
14612.7214843444
 21
2587.931598713263
 31
0.0
  0
LINE
  5
18A0F
330
747D
100
AcDbEntity
  8
細線
 48
50.0
100
AcDbLine
 10
14627.7214843444
 20
4677.931598713263
 30
0.0
 11
14627.7214843444
 21
2587.931598713263
 31
0.0
  0
LINE
  5
18A10
330
747D
100
AcDbEntity
  8
細線
 48
50.0
100
AcDbLine
 10
14487.7214843444
 20
4677.931598713263
 30
0.0
 11
14487.7214843444
 21
2587.931598713263
 31
0.0
  0
LINE
  5
18A11
330
747D
100
AcDbEntity
  8
細線
 48
50.0
100
AcDbLine
 10
14472.7214843444
 20
4677.931598713263
 30
0.0
 11
14472.7214843444
 21
2587.931598713263
 31
0.0
  0
LINE
  5
18A12
330
747D
100
AcDbEntity
  8
細線
 48
50.0
100
AcDbLine
 10
14332.7214843444
 20
4677.931598713263
 30
0.0
 11
14332.7214843444
 21
2587.931598713263
 31
0.0
  0
LINE
  5
18A13
330
747D
100
AcDbEntity
  8
細線
 48
50.0
100
AcDbLine
 10
14347.7214843444
 20
4677.931598713263
 30
0.0
 11
14347.7214843444
 21
2587.931598713263
 31
0.0
  0
LINE
  5
18A14
330
747D
100
AcDbEntity
  8
部品1
100
AcDbLine
 10
13010.2214843444
 20
4677.931598713261
 30
0.0
 11
13010.2214843444
 21
2587.931598713261
 31
0.0
  0
LINE
  5
18A15
330
747D
100
AcDbEntity
  8
細線
 48
50.0
100
AcDbLine
 10
12667.7214843444
 20
4677.931598713261
 30
0.0
 11
12667.72148434441
 21
2587.931598713261
 31
0.0
  0
LINE
  5
18A16
330
747D
100
AcDbEntity
  8
細線
 48
50.0
100
AcDbLine
 10
12652.7214843444
 20
4677.931598713261
 30
0.0
 11
12652.72148434441
 21
2587.931598713261
 31
0.0
  0
LINE
  5
18A17
330
747D
100
AcDbEntity
  8
細線
 48
50.0
100
AcDbLine
 10
12792.7214843444
 20
4677.931598713261
 30
0.0
 11
12792.72148434441
 21
2587.931598713261
 31
0.0
  0
LINE
  5
18A18
330
747D
100
AcDbEntity
  8
細線
 48
50.0
100
AcDbLine
 10
12807.7214843444
 20
4677.931598713261
 30
0.0
 11
12807.72148434441
 21
2587.931598713261
 31
0.0
  0
LINE
  5
18A19
330
747D
100
AcDbEntity
  8
細線
 48
50.0
100
AcDbLine
 10
12947.7214843444
 20
4677.931598713261
 30
0.0
 11
12947.72148434441
 21
2587.931598713261
 31
0.0
  0
LINE
  5
18A1A
330
747D
100
AcDbEntity
  8
細線
 48
50.0
100
AcDbLine
 10
12932.7214843444
 20
4677.931598713261
 30
0.0
 11
12932.72148434441
 21
2587.931598713261
 31
0.0
  0
LINE
  5
18A1B
330
747D
100
AcDbEntity
  8
部品1
100
AcDbLine
 10
12590.2214843444
 20
4677.931598713261
 30
0.0
 11
12590.2214843444
 21
2587.931598713261
 31
0.0
  0
DIMENSION
  5
18A1C
330
747D
100
AcDbEntity
  8
寸法
 48
50.0
100
AcDbDimension
  2
*D27
 10
15245.2214843444
 20
5311.589052292568
 30
0.0
 11
15451.26872843889
 21
5311.589052292568
 31
0.0
 70
   160
 71
     5
 42
80.0
  3
INABA_S40G
100
AcDbAlignedDimension
 13
15165.2214843444
 23
4859.742278324916
 33
0.0
 14
15245.2214843444
 24
4857.931598713265
 34
0.0
100
AcDbRotatedDimension
1001
ACAD
1000
DSTYLE
1002
{
1070
   174
1070
     0
1070
   272
1070
     1
1070
   288
1070
     0
1070
   341
1005
0
1002
}
  0
LINE
  5
18A1D
330
747D
100
AcDbEntity
  8
細線
 48
50.0
100
AcDbLine
 10
11827.7214843444
 20
4677.931598713261
 30
0.0
 11
11827.7214843444
 21
2587.931598713261
 31
0.0
  0
LINE
  5
18A1E
330
747D
100
AcDbEntity
  8
細線
 48
50.0
100
AcDbLine
 10
11812.7214843444
 20
4677.931598713261
 30
0.0
 11
11812.7214843444
 21
2587.931598713261
 31
0.0
  0
LINE
  5
18A1F
330
747D
100
AcDbEntity
  8
細線
 48
50.0
100
AcDbLine
 10
11952.7214843444
 20
4677.931598713261
 30
0.0
 11
11952.7214843444
 21
2587.931598713261
 31
0.0
  0
LINE
  5
18A20
330
747D
100
AcDbEntity
  8
細線
 48
50.0
100
AcDbLine
 10
11967.7214843444
 20
4677.931598713261
 30
0.0
 11
11967.7214843444
 21
2587.931598713261
 31
0.0
  0
LINE
  5
18A21
330
747D
100
AcDbEntity
  8
細線
 48
50.0
100
AcDbLine
 10
12107.7214843444
 20
4677.931598713261
 30
0.0
 11
12107.7214843444
 21
2587.931598713261
 31
0.0
  0
LINE
  5
18A22
330
747D
100
AcDbEntity
  8
細線
 48
50.0
100
AcDbLine
 10
12092.7214843444
 20
4677.931598713261
 30
0.0
 11
12092.7214843444
 21
2587.931598713261
 31
0.0
  0
LINE
  5
18A23
330
747D
100
AcDbEntity
  8
細線
 48
50.0
100
AcDbLine
 10
12512.7214843444
 20
4677.931598713261
 30
0.0
 11
12512.7214843444
 21
2587.931598713261
 31
0.0
  0
LINE
  5
18A24
330
747D
100
AcDbEntity
  8
細線
 48
50.0
100
AcDbLine
 10
12527.7214843444
 20
4677.931598713261
 30
0.0
 11
12527.7214843444
 21
2587.931598713261
 31
0.0
  0
LINE
  5
18A25
330
747D
100
AcDbEntity
  8
細線
 48
50.0
100
AcDbLine
 10
12387.7214843444
 20
4677.931598713261
 30
0.0
 11
12387.7214843444
 21
2587.931598713261
 31
0.0
  0
LINE
  5
18A26
330
747D
100
AcDbEntity
  8
細線
 48
50.0
100
AcDbLine
 10
12372.7214843444
 20
4677.931598713261
 30
0.0
 11
12372.7214843444
 21
2587.931598713261
 31
0.0
  0
LINE
  5
18A27
330
747D
100
AcDbEntity
  8
細線
 48
50.0
100
AcDbLine
 10
12232.7214843444
 20
4677.931598713261
 30
0.0
 11
12232.7214843444
 21
2587.931598713261
 31
0.0
  0
LINE
  5
18A28
330
747D
100
AcDbEntity
  8
細線
 48
50.0
100
AcDbLine
 10
12247.7214843444
 20
4677.931598713261
 30
0.0
 11
12247.7214843444
 21
2587.931598713261
 31
0.0
  0
LINE
  5
18A29
330
747D
100
AcDbEntity
  8
部品1
100
AcDbLine
 10
11750.22148434441
 20
2537.931598713262
 30
0.0
 11
15165.2214843444
 21
2537.931598713262
 31
0.0
  0
DIMENSION
  5
18A2A
330
747D
100
AcDbEntity
  8
寸法
 48
50.0
100
AcDbDimension
  2
*D28
 10
11635.2214843444
 20
5541.702645078843
 30
0.0
 11
13440.2214843444
 21
5541.702645078843
 31
0.0
 70
   160
 71
     5
 42
3610.0
  3
INABA_S40G
100
AcDbAlignedDimension
 13
15245.2214843444
 23
4857.931598713263
 33
0.0
 14
11635.2214843444
 24
4912.931598713266
 34
0.0
100
AcDbRotatedDimension
1001
ACAD
1000
DSTYLE
1002
{
1070
   174
1070
     0
1070
   272
1070
     1
1070
   288
1070
     0
1070
   341
1005
0
1002
}
  0
DIMENSION
  5
18A2B
330
747D
100
AcDbEntity
  8
寸法
 48
50.0
100
AcDbDimension
  2
*D29
 10
11635.2214843444
 20
5311.589052292566
 30
0.0
 11
11325.58368906881
 21
5311.589052292566
 31
0.0
 70
   160
 71
     5
 42
60.0
  3
INABA_S40G
100
AcDbAlignedDimension
 13
11695.2214843444
 23
4908.933216836238
 33
0.0
 14
11635.2214843444
 24
4912.931598713266
 34
0.0
100
AcDbRotatedDimension
1001
ACAD
1000
DSTYLE
1002
{
1070
   174
1070
     0
1070
   272
1070
     1
1070
   288
1070
     0
1070
   341
1005
0
1002
}
  0
DIMENSION
  5
18A2C
330
747D
100
AcDbEntity
  8
寸法
 48
50.0
100
AcDbDimension
  2
*D30
 10
11695.2214843444
 20
5311.589052292568
 30
0.0
 11
13430.2214843444
 21
5311.589052292568
 31
0.0
 70
   160
  1
柱外寸法<>
 71
     5
 42
3470.0
  3
INABA_S40G
100
AcDbAlignedDimension
 13
15165.2214843444
 23
4859.742278324916
 33
0.0
 14
11695.2214843444
 24
4908.933216836238
 34
0.0
100
AcDbRotatedDimension
1001
ACAD
1000
DSTYLE
1002
{
1070
   174
1070
     0
1070
   272
1070
     1
1070
   288
1070
     0
1070
   341
1005
0
1002
}
  0
LINE
  5
18A2D
330
747D
100
AcDbEntity
  8
部品1
100
AcDbLine
 10
15110.2214843444
 20
4677.931598713263
 30
0.0
 11
15110.2214843444
 21
2587.931598713263
 31
0.0
  0
LINE
  5
18A2E
330
747D
100
AcDbEntity
  8
部品1
100
AcDbLine
 10
15165.2214843444
 20
4732.361626494382
 30
0.0
 11
15165.2214843444
 21
2437.931598713263
 31
0.0
  0
LINE
  5
18A2F
330
747D
100
AcDbEntity
  8
部品1
100
AcDbLine
 10
12170.2214843444
 20
4677.931598713261
 30
0.0
 11
12170.2214843444
 21
2587.931598713261
 31
0.0
  0
DIMENSION
  5
18A30
330
747D
100
AcDbEntity
  8
寸法
100
AcDbDimension
  2
*D31
 10
10851.47135516114
 20
2537.931598713262
 30
0.0
 11
10851.47135516114
 21
2231.884354618771
 31
0.0
 70
   160
 71
     5
 42
50.0
  3
INABA_S40G
100
AcDbAlignedDimension
 13
11695.2214843444
 23
2587.931598713261
 33
0.0
 14
11640.2214843444
 24
2537.931598713262
 34
0.0
 50
90.0
100
AcDbRotatedDimension
1001
ACAD
1000
DSTYLE
1002
{
1070
   174
1070
     0
1070
   272
1070
     1
1070
   288
1070
     0
1070
   341
1005
0
1002
}
  0
LINE
  5
18A32
330
747D
100
AcDbEntity
  8
部品1
100
AcDbLine
 10
11695.2214843444
 20
4770.07403664214
 30
0.0
 11
11695.2214843444
 21
2437.931598713261
 31
0.0
  0
LINE
  5
18A33
330
747D
100
AcDbEntity
  8
部品1
100
AcDbLine
 10
11750.2214843444
 20
4677.931598713261
 30
0.0
 11
11750.22148434441
 21
2437.931598713261
 31
0.0
  0
LINE
  5
18A34
330
747D
100
AcDbEntity
  8
部品1
100
AcDbLine
 10
11750.22148434441
 20
2587.931598713261
 30
0.0
 11
15165.2214843444
 21
2587.931598713263
 31
0.0
  0
LINE
  5
18A35
330
747D
100
AcDbEntity
  8
部品1
100
AcDbLine
 10
11695.2214843444
 20
4677.931598713261
 30
0.0
 11
15165.22148434439
 21
4677.931598713261
 31
0.0
  0
LINE
  5
18A36
330
747D
100
AcDbEntity
  8
部品1
100
AcDbLine
 10
15110.2214843444
 20
4677.931598713264
 30
0.0
 11
15110.2214843444
 21
2587.931598713265
 31
0.0
  0
LINE
  5
18A37
330
747D
100
AcDbEntity
  8
細線
 48
50.0
100
AcDbLine
 10
13352.7214843444
 20
4677.931598713261
 30
0.0
 11
13352.7214843444
 21
2587.931598713261
 31
0.0
  0
LINE
  5
18A38
330
747D
100
AcDbEntity
  8
細線
 48
50.0
100
AcDbLine
 10
13367.7214843444
 20
4677.931598713261
 30
0.0
 11
13367.7214843444
 21
2587.931598713261
 31
0.0
  0
LINE
  5
18A39
330
747D
100
AcDbEntity
  8
細線
 48
50.0
100
AcDbLine
 10
13227.7214843444
 20
4677.931598713261
 30
0.0
 11
13227.7214843444
 21
2587.931598713261
 31
0.0
  0
LINE
  5
18A3A
330
747D
100
AcDbEntity
  8
細線
 48
50.0
100
AcDbLine
 10
13212.7214843444
 20
4677.931598713261
 30
0.0
 11
13212.7214843444
 21
2587.931598713261
 31
0.0
  0
LINE
  5
18A3B
330
747D
100
AcDbEntity
  8
細線
 48
50.0
100
AcDbLine
 10
13072.7214843444
 20
4677.931598713261
 30
0.0
 11
13072.7214843444
 21
2587.931598713261
 31
0.0
  0
LINE
  5
18A3C
330
747D
100
AcDbEntity
  8
細線
 48
50.0
100
AcDbLine
 10
13087.7214843444
 20
4677.931598713261
 30
0.0
 11
13087.7214843444
 21
2587.931598713261
 31
0.0
  0
TEXT
  5
18A3D
330
747D
100
AcDbEntity
  8
部品1
 48
50.0
100
AcDbText
 10
13756.12234223322
 20
4935.200691651568
 30
0.0
 40
120.0
  1
28
 50
90.0
  7
STYLE1
100
AcDbText
  0
TEXT
  5
18A3E
330
747D
100
AcDbEntity
  8
部品1
 48
50.0
100
AcDbText
 10
13278.48931956813
 20
5072.701949869851
 30
0.0
 40
120.0
  1
1000
  7
STYLE1
100
AcDbText
  0
LINE
  5
18A3F
330
747D
100
AcDbEntity
  8
部品1
 48
50.0
100
AcDbLine
 10
13590.2214843444
 20
5036.817927717418
 30
0.0
 11
13590.2214843444
 21
5020.617927717418
 31
0.0
  0
LINE
  5
18A40
330
747D
100
AcDbEntity
  8
部品1
 48
50.0
100
AcDbLine
 10
13290.2214843444
 20
5036.817927717418
 30
0.0
 11
13590.2214843444
 21
5036.817927717418
 31
0.0
  0
LINE
  5
18A41
330
747D
100
AcDbEntity
  8
部品1
100
AcDbLine
 10
11642.76647070137
 20
4911.649334047528
 30
0.0
 11
15237.83336120587
 21
4856.5723964224
 31
0.0
  0
LINE
  5
18A42
330
747D
100
AcDbEntity
  8
部品1
100
AcDbLine
 10
11650.56404894636
 20
4770.712623782229
 30
0.0
 11
15219.88518488426
 21
4731.684198548022
 31
0.0
  0
LINE
  5
18A43
330
747D
100
AcDbEntity
  8
細線
 48
50.0
100
AcDbLine
 10
11668.2214843444
 20
4910.331275088666
 30
0.0
 11
11662.9323827889
 21
4770.245642461311
 31
0.0
  0
LINE
  5
18A44
330
747D
100
AcDbEntity
  8
細線
 48
50.0
100
AcDbLine
 10
15212.1907675381
 20
4857.08502119273
 30
0.0
 11
15207.47380145641
 21
4732.152805257814
 31
0.0
  0
LINE
  5
18A45
330
747D
100
AcDbEntity
  8
部品1
 48
50.0
100
AcDbLine
 10
11635.40577025751
 20
4904.525144877954
 30
0.0
 11
11635.78603003532
 21
4884.598180431543
 31
0.0
  0
LINE
  5
18A46
330
747D
100
AcDbEntity
  8
部品1
 48
50.0
100
AcDbLine
 10
11638.85480214157
 20
4881.02289893807
 30
0.0
 11
11640.55870363293
 21
4791.732402231423
 31
0.0
  0
LINE
  5
18A47
330
747D
100
AcDbEntity
  8
細線
 48
50.0
100
AcDbLine
 10
11636.26090744522
 20
4883.948680554623
 30
0.0
 11
15241.89689219039
 21
4828.324475913795
 31
0.0
  0
LINE
  5
18A48
330
747D
100
AcDbEntity
  8
細線
 48
50.0
100
AcDbLine
 10
11641.0213826825
 20
4791.087168856759
 30
0.0
 11
15231.02504711315
 21
4751.277849882266
 31
0.0
  0
LINE
  5
18A49
330
747D
100
AcDbEntity
  8
部品1
 48
50.0
100
AcDbLine
 10
11643.62747573917
 20
4788.157120737952
 30
0.0
 11
11643.82942835961
 21
4777.574085344858
 31
0.0
  0
ARC
  5
18A4A
330
747D
100
AcDbEntity
  8
部品1
 48
50.0
100
AcDbCircle
 10
11642.40449608585
 20
4904.658699285382
 30
0.0
 40
7.0
100
AcDbArc
 50
87.03587545282958
 51
181.0932240293156
  0
ARC
  5
18A4B
330
747D
100
AcDbEntity
  8
部品1
 48
50.0
100
AcDbCircle
 10
11650.82815418795
 20
4777.707639752287
 30
0.0
 40
7.0
100
AcDbArc
 50
181.0932240293156
 51
267.8377559869492
  0
ARC
  5
18A4C
330
747D
100
AcDbEntity
  8
部品1
100
AcDbCircle
 10
11640.62802181274
 20
4788.099883134768
 30
0.0
 40
3.0
100
AcDbArc
 50
1.093224029315636
 51
80.18775403168987
  0
ARC
  5
18A4D
330
747D
100
AcDbEntity
  8
部品1
100
AcDbCircle
 10
11635.85534821514
 20
4880.965661334887
 30
0.0
 40
3.0
100
AcDbArc
 50
1.093224029315636
 51
80.18775403168987
  0
ARC
  5
18A4E
330
747D
100
AcDbEntity
  8
部品1
100
AcDbCircle
 10
11636.48590261816
 20
4884.611535872284
 30
0.0
 40
0.7
100
AcDbArc
 50
181.0932240292114
 51
260.1877540314845
  0
ARC
  5
18A4F
330
747D
100
AcDbEntity
  8
部品1
100
AcDbCircle
 10
11641.25857621577
 20
4791.745757672165
 30
0.0
 40
0.7
100
AcDbArc
 50
181.0932240293156
 51
260.1877540314845
  0
LINE
  5
18A50
330
747D
100
AcDbEntity
  8
部品1
 48
50.0
100
AcDbLine
 10
15244.43538715511
 20
4848.872750987481
 30
0.0
 11
15242.40476596414
 21
4828.9277097297
 31
0.0
  0
LINE
  5
18A51
330
747D
100
AcDbEntity
  8
部品1
 48
50.0
100
AcDbLine
 10
15239.05219947965
 20
4825.617075656792
 30
0.0
 11
15231.54542021482
 21
4751.884454911779
 31
0.0
  0
LINE
  5
18A52
330
747D
100
AcDbEntity
  8
部品1
 48
50.0
100
AcDbLine
 10
15228.19285373033
 20
4748.573820838867
 30
0.0
 11
15227.11329069059
 21
4737.970203845309
 31
0.0
  0
ARC
  5
18A53
330
747D
100
AcDbEntity
  8
部品1
 48
50.0
100
AcDbCircle
 10
15237.47138659035
 20
4849.581761660255
 30
0.0
 40
7.0
100
AcDbArc
 50
354.1866997665532
 51
87.03587545282958
  0
ARC
  5
18A54
330
747D
100
AcDbEntity
  8
部品1
 48
50.0
100
AcDbCircle
 10
15220.14929012584
 20
4738.679214518082
 30
0.0
 40
7.0
100
AcDbArc
 50
267.8377559869492
 51
354.1866997665532
  0
ARC
  5
18A55
330
747D
100
AcDbEntity
  8
部品1
100
AcDbCircle
 10
15231.17742540095
 20
4748.269959121964
 30
0.0
 40
3.0
100
AcDbArc
 50
95.09216976420788
 51
174.1866997665532
  0
ARC
  5
18A56
330
747D
100
AcDbEntity
  8
部品1
100
AcDbCircle
 10
15242.03677115027
 20
4825.313213939889
 30
0.0
 40
3.0
100
AcDbArc
 50
95.09216976420788
 51
174.1866997665532
  0
ARC
  5
18A57
330
747D
100
AcDbEntity
  8
部品1
100
AcDbCircle
 10
15241.70836590767
 20
4828.998610796978
 30
0.0
 40
0.7
100
AcDbArc
 50
275.0921697642079
 51
354.1866997665532
  0
ARC
  5
18A58
330
747D
100
AcDbEntity
  8
部品1
100
AcDbCircle
 10
15230.84902015834
 20
4751.955355979054
 30
0.0
 40
0.7
100
AcDbArc
 50
275.0921697642079
 51
354.1866997667606
  0
LINE
  5
18A59
330
747D
100
AcDbEntity
  8
部品1
100
AcDbLine
 10
13264.76647070137
 20
5038.13598667628
 30
0.0
 11
13590.2214843444
 21
5020.617927717418
 31
0.0
  0
LINE
  5
18A5A
330
747D
100
AcDbEntity
  8
部品1
100
AcDbLine
 10
13430.2214843444
 20
4677.931598713261
 30
0.0
 11
13430.2214843444
 21
2587.931598713263
 31
0.0
  0
LINE
  5
18A5B
330
747D
100
AcDbEntity
  8
細線
 48
50.0
100
AcDbLine
 10
13507.7214843444
 20
4677.931598713261
 30
0.0
 11
13507.7214843444
 21
2587.931598713263
 31
0.0
  0
LINE
  5
18A5C
330
747D
100
AcDbEntity
  8
細線
 48
50.0
100
AcDbLine
 10
13492.7214843444
 20
4677.931598713261
 30
0.0
 11
13492.7214843444
 21
2587.931598713263
 31
0.0
  0
LINE
  5
18A5D
330
747D
100
AcDbEntity
  8
細線
 48
50.0
100
AcDbLine
 10
13632.7214843444
 20
4677.931598713261
 30
0.0
 11
13632.7214843444
 21
2587.931598713263
 31
0.0
  0
LINE
  5
18A5E
330
747D
100
AcDbEntity
  8
細線
 48
50.0
100
AcDbLine
 10
13647.7214843444
 20
4677.931598713261
 30
0.0
 11
13647.7214843444
 21
2587.931598713263
 31
0.0
  0
LINE
  5
18A5F
330
747D
100
AcDbEntity
  8
細線
 48
50.0
100
AcDbLine
 10
13787.7214843444
 20
4677.931598713261
 30
0.0
 11
13787.7214843444
 21
2587.931598713263
 31
0.0
  0
LINE
  5
18A60
330
747D
100
AcDbEntity
  8
細線
 48
50.0
100
AcDbLine
 10
13772.7214843444
 20
4677.931598713261
 30
0.0
 11
13772.7214843444
 21
2587.931598713263
 31
0.0
  0
DIMENSION
  5
18A61
330
747D
100
AcDbEntity
  8
寸法
100
AcDbDimension
  2
*D32
 10
15870.14864231653
 20
4857.931598713263
 30
0.0
 11
15770.1368312929
 21
3697.931598713266
 31
0.0
 70
    32
 71
     5
 42
2320.000000000001
  3
INABA_S40G
100
AcDbAlignedDimension
 13
15165.2214843444
 23
2537.931598713263
 33
0.0
 14
15245.2214843444
 24
4857.931598713263
 34
0.0
 50
90.0
100
AcDbRotatedDimension
1001
ACAD
1000
DSTYLE
1002
{
1070
   174
1070
     0
1070
   272
1070
     1
1070
   288
1070
     0
1070
   341
1005
0
1002
}
  0
DIMENSION
  5
18A62
330
747D
100
AcDbEntity
  8
寸法
100
AcDbDimension
  2
*D33
 10
10551.47135516114
 20
4912.931598713261
 30
0.0
 11
10451.45954413752
 21
3725.431598713262
 31
0.0
 70
    32
 71
     5
 42
2375.000000000005
  3
INABA_S40G
100
AcDbAlignedDimension
 13
11695.2214843444
 23
2537.931598713257
 33
0.0
 14
11635.2214843444
 24
4912.931598713261
 34
0.0
 50
90.0
100
AcDbRotatedDimension
1001
ACAD
1000
DSTYLE
1002
{
1070
   174
1070
     0
1070
   272
1070
     1
1070
   288
1070
     0
1070
   341
1005
0
1002
}
  0
DIMENSION
  5
18A63
330
747D
100
AcDbEntity
  8
寸法
100
AcDbDimension
  2
*D34
 10
10851.47135516114
 20
2587.931598713257
 30
0.0
 11
10751.45954413752
 21
3632.931598713259
 31
0.0
 70
    32
 71
     5
 42
2090.000000000001
  3
INABA_S40G
100
AcDbAlignedDimension
 13
11695.2214843444
 23
4677.931598713257
 33
0.0
 14
11695.2214843444
 24
2587.931598713257
 34
0.0
 50
90.0
100
AcDbRotatedDimension
1001
ACAD
1000
DSTYLE
1002
{
1070
   174
1070
     0
1070
   272
1070
     1
1070
   288
1070
     0
1070
   341
1005
0
1002
}
  0
LINE
  5
18A68
330
747D
100
AcDbEntity
  8
破線
 48
5.0
100
AcDbLine
 10
11695.22148434441
 20
2437.931598713261
 30
0.0
 11
11695.22148434441
 21
2187.931598713261
 31
0.0
  0
LINE
  5
18A69
330
747D
100
AcDbEntity
  8
破線
 48
5.0
100
AcDbLine
 10
11750.22148434441
 20
2437.931598713261
 30
0.0
 11
11750.22148434441
 21
2187.931598713261
 31
0.0
  0
LINE
  5
18A6A
330
747D
100
AcDbEntity
  8
破線
 48
5.0
100
AcDbLine
 10
11695.22148434441
 20
2187.931598713261
 30
0.0
 11
11750.2214843444
 21
2187.931598713261
 31
0.0
  0
LINE
  5
18A6B
330
747D
100
AcDbEntity
  8
部品1
100
AcDbLine
 10
11695.22148434441
 20
2537.931598713262
 30
0.0
 11
11302.22427013556
 21
2437.931598713261
 31
0.0
  0
LINE
  5
18F0D
330
747D
100
AcDbEntity
  8
補助
  6
PHANTOM
 62
   230
 48
50.0
100
AcDbLine
 10
140.0
 20
0.0
 30
0.0
 11
140.0
 21
11409.6
 31
0.0
  0
DIMENSION
  5
1906E
330
747D
100
AcDbEntity
  8
寸法
 48
50.0
100
AcDbDimension
  2
*D35
 10
9397.216159445404
 20
4677.931598713261
 30
0.0
 11
9397.216159445404
 21
4916.416880087502
 31
0.0
 70
   160
 71
     5
 42
164.9999999999991
  3
INABA_S40G
100
AcDbAlignedDimension
 13
9109.673057123655
 23
4512.931598713262
 33
0.0
 14
9109.673057123655
 24
4677.931598713261
 34
0.0
 50
90.0
100
AcDbRotatedDimension
1001
ACAD
1000
DSTYLE
1002
{
1002
}
  0
DIMENSION
  5
1906F
330
747D
100
AcDbEntity
  8
寸法
 48
50.0
100
AcDbDimension
  2
*D36
 10
9397.216159445404
 20
4512.931598713262
 30
0.0
 11
9537.38598269177
 21
4513.89879855292
 31
0.0
 70
   160
 71
     5
 42
27.00000000000182
  3
INABA_S40G
100
AcDbAlignedDimension
 13
9109.673057123659
 23
4485.93159871326
 33
0.0
 14
9109.673057123655
 24
4512.931598713262
 34
0.0
 50
90.0
100
AcDbRotatedDimension
1001
ACAD
1000
DSTYLE
1002
{
1070
   279
1070
     2
1002
}
  0
DIMENSION
  5
19070
330
747D
100
AcDbEntity
  8
寸法
 48
50.0
100
AcDbDimension
  2
*D37
 10
9397.216159445404
 20
4485.93159871326
 30
0.0
 11
9297.216159445401
 21
3511.931598713263
 31
0.0
 70
    32
  1
有効開口部高サ <>
 71
     5
 42
1947.999999999999
  3
INABA_S40G
100
AcDbAlignedDimension
 13
9109.673057123655
 23
2537.931598713262
 33
0.0
 14
9109.673057123659
 24
4485.93159871326
 34
0.0
 50
90.0
100
AcDbRotatedDimension
  0
ARC
  5
1928C
330
747D
100
AcDbEntity
  8
部品1
 48
0.01
100
AcDbCircle
 10
5061.673057123644
 20
4710.431598713261
 30
0.0
 40
2.0
100
AcDbArc
 50
180.0
 51
270.0
  0
ARC
  5
1928D
330
747D
100
AcDbEntity
  8
部品1
 48
0.01
100
AcDbCircle
 10
5237.673057123644
 20
4710.431598713261
 30
0.0
 40
2.0
100
AcDbArc
 50
270.0
 51
0.0
  0
LINE
  5
1928E
330
747D
100
AcDbEntity
  8
部品1
 48
0.01
100
AcDbLine
 10
5237.673057123644
 20
4708.431598713261
 30
0.0
 11
5061.673057123644
 21
4708.431598713261
 31
0.0
  0
LINE
  5
1928F
330
747D
100
AcDbEntity
  8
部品1
 48
0.01
100
AcDbLine
 10
3831.673057123644
 20
4708.431598713261
 30
0.0
 11
4007.67305712364
 21
4708.431598713261
 31
0.0
  0
ARC
  5
19290
330
747D
100
AcDbEntity
  8
部品1
 48
0.01
100
AcDbCircle
 10
3831.673057123644
 20
4710.431598713261
 30
0.0
 40
2.0
100
AcDbArc
 50
180.0
 51
270.0
  0
ARC
  5
19291
330
747D
100
AcDbEntity
  8
部品1
 48
0.01
100
AcDbCircle
 10
4007.67305712364
 20
4710.431598713261
 30
0.0
 40
2.0
100
AcDbArc
 50
270.0
 51
0.0
  0
ARC
  5
19292
330
747D
100
AcDbEntity
  8
部品1
 48
0.01
100
AcDbCircle
 10
5061.673057123644
 20
4741.931598713261
 30
0.0
 40
2.0
100
AcDbArc
 50
90.0
 51
180.0
  0
ARC
  5
19293
330
747D
100
AcDbEntity
  8
部品1
 48
0.01
100
AcDbCircle
 10
5237.673057123644
 20
4741.931598713261
 30
0.0
 40
2.0
100
AcDbArc
 50
0.0
 51
90.0
  0
LINE
  5
19294
330
747D
100
AcDbEntity
  8
細線
100
AcDbLine
 10
5149.673057123644
 20
4714.431598713261
 30
0.0
 11
5075.673057123644
 21
4714.431598713261
 31
0.0
  0
LINE
  5
19295
330
747D
100
AcDbEntity
  8
細線
100
AcDbLine
 10
5149.673057123644
 20
4737.431598713261
 30
0.0
 11
5223.673057123644
 21
4737.431598713261
 31
0.0
  0
LINE
  5
19296
330
747D
100
AcDbEntity
  8
細線
100
AcDbLine
 10
5223.673057123644
 20
4714.431598713261
 30
0.0
 11
5149.673057123644
 21
4714.431598713261
 31
0.0
  0
LINE
  5
19297
330
747D
100
AcDbEntity
  8
細線
100
AcDbLine
 10
5075.673057123644
 20
4737.431598713261
 30
0.0
 11
5149.673057123644
 21
4737.431598713261
 31
0.0
  0
LINE
  5
19298
330
747D
100
AcDbEntity
  8
細線
100
AcDbLine
 10
5075.673057123644
 20
4714.431598713261
 30
0.0
 11
5075.673057123644
 21
4737.431598713261
 31
0.0
  0
LINE
  5
19299
330
747D
100
AcDbEntity
  8
細線
100
AcDbLine
 10
5223.673057123644
 20
4737.431598713261
 30
0.0
 11
5223.673057123644
 21
4714.431598713261
 31
0.0
  0
LINE
  5
1929A
330
747D
100
AcDbEntity
  8
部品1
 48
0.01
100
AcDbLine
 10
5059.673057123644
 20
4710.431598713261
 30
0.0
 11
5059.673057123644
 21
4741.931598713261
 31
0.0
  0
LINE
  5
1929B
330
747D
100
AcDbEntity
  8
部品1
 48
0.01
100
AcDbLine
 10
5239.673057123644
 20
4741.931598713261
 30
0.0
 11
5239.673057123644
 21
4710.431598713261
 31
0.0
  0
LINE
  5
1929C
330
747D
100
AcDbEntity
  8
部品1
 48
0.01
100
AcDbLine
 10
5061.673057123644
 20
4743.931598713261
 30
0.0
 11
5237.673057123644
 21
4743.931598713261
 31
0.0
  0
LINE
  5
1929D
330
747D
100
AcDbEntity
  8
細線
100
AcDbLine
 10
5223.673057123644
 20
4731.431598713261
 30
0.0
 11
5149.673057123644
 21
4731.431598713261
 31
0.0
  0
LINE
  5
1929E
330
747D
100
AcDbEntity
  8
細線
100
AcDbLine
 10
5223.673057123644
 20
4725.431598713261
 30
0.0
 11
5149.673057123644
 21
4725.431598713261
 31
0.0
  0
LINE
  5
1929F
330
747D
100
AcDbEntity
  8
細線
100
AcDbLine
 10
5223.673057123644
 20
4719.431598713261
 30
0.0
 11
5149.673057123644
 21
4719.431598713261
 31
0.0
  0
LINE
  5
192A0
330
747D
100
AcDbEntity
  8
細線
100
AcDbLine
 10
5223.673057123644
 20
4731.431598713261
 30
0.0
 11
5154.673057123644
 21
4731.431598713261
 31
0.0
  0
LINE
  5
192A1
330
747D
100
AcDbEntity
  8
細線
100
AcDbLine
 10
5075.673057123644
 20
4731.431598713261
 30
0.0
 11
5149.673057123644
 21
4731.431598713261
 31
0.0
  0
LINE
  5
192A2
330
747D
100
AcDbEntity
  8
細線
100
AcDbLine
 10
5075.673057123644
 20
4719.431598713261
 30
0.0
 11
5149.673057123644
 21
4719.431598713261
 31
0.0
  0
LINE
  5
192A3
330
747D
100
AcDbEntity
  8
細線
100
AcDbLine
 10
5075.673057123644
 20
4725.431598713261
 30
0.0
 11
5149.673057123644
 21
4725.431598713261
 31
0.0
  0
LINE
  5
192A4
330
747D
100
AcDbEntity
  8
細線
100
AcDbLine
 10
5149.673057123644
 20
4737.431598713261
 30
0.0
 11
5149.673057123644
 21
4714.431598713261
 31
0.0
  0
LINE
  5
192A5
330
747D
100
AcDbEntity
  8
細線
100
AcDbLine
 10
3919.673057123644
 20
4737.431598713261
 30
0.0
 11
3919.67305712364
 21
4714.431598713261
 31
0.0
  0
LINE
  5
192A6
330
747D
100
AcDbEntity
  8
細線
100
AcDbLine
 10
3993.67305712364
 20
4725.431598713261
 30
0.0
 11
3919.673057123644
 21
4725.431598713261
 31
0.0
  0
LINE
  5
192A7
330
747D
100
AcDbEntity
  8
細線
100
AcDbLine
 10
3993.67305712364
 20
4719.431598713261
 30
0.0
 11
3919.673057123644
 21
4719.431598713261
 31
0.0
  0
LINE
  5
192A8
330
747D
100
AcDbEntity
  8
細線
100
AcDbLine
 10
3993.67305712364
 20
4731.431598713261
 30
0.0
 11
3919.673057123644
 21
4731.431598713261
 31
0.0
  0
LINE
  5
192A9
330
747D
100
AcDbEntity
  8
細線
100
AcDbLine
 10
3845.673057123644
 20
4731.431598713261
 30
0.0
 11
3914.673057123644
 21
4731.431598713261
 31
0.0
  0
LINE
  5
192AA
330
747D
100
AcDbEntity
  8
細線
100
AcDbLine
 10
3845.67305712364
 20
4719.431598713261
 30
0.0
 11
3919.673057123644
 21
4719.431598713261
 31
0.0
  0
LINE
  5
192AB
330
747D
100
AcDbEntity
  8
細線
100
AcDbLine
 10
3845.673057123644
 20
4725.431598713261
 30
0.0
 11
3919.673057123644
 21
4725.431598713261
 31
0.0
  0
LINE
  5
192AC
330
747D
100
AcDbEntity
  8
細線
100
AcDbLine
 10
3845.673057123644
 20
4731.431598713261
 30
0.0
 11
3919.673057123644
 21
4731.431598713261
 31
0.0
  0
LINE
  5
192AD
330
747D
100
AcDbEntity
  8
部品1
 48
0.01
100
AcDbLine
 10
4007.673057123644
 20
4743.931598713261
 30
0.0
 11
3831.673057123644
 21
4743.931598713261
 31
0.0
  0
LINE
  5
192AE
330
747D
100
AcDbEntity
  8
部品1
 48
0.01
100
AcDbLine
 10
3829.673057123644
 20
4741.931598713261
 30
0.0
 11
3829.673057123644
 21
4710.431598713261
 31
0.0
  0
LINE
  5
192AF
330
747D
100
AcDbEntity
  8
部品1
 48
0.01
100
AcDbLine
 10
4009.673057123641
 20
4710.431598713261
 30
0.0
 11
4009.673057123644
 21
4741.931598713261
 31
0.0
  0
LINE
  5
192B0
330
747D
100
AcDbEntity
  8
細線
100
AcDbLine
 10
3845.673057123644
 20
4737.431598713261
 30
0.0
 11
3845.673057123644
 21
4714.431598713261
 31
0.0
  0
LINE
  5
192B1
330
747D
100
AcDbEntity
  8
細線
100
AcDbLine
 10
3993.673057123644
 20
4714.431598713261
 30
0.0
 11
3993.673057123644
 21
4737.431598713261
 31
0.0
  0
LINE
  5
192B2
330
747D
100
AcDbEntity
  8
細線
100
AcDbLine
 10
3993.673057123644
 20
4737.431598713261
 30
0.0
 11
3919.673057123644
 21
4737.431598713261
 31
0.0
  0
LINE
  5
192B3
330
747D
100
AcDbEntity
  8
細線
100
AcDbLine
 10
3845.673057123644
 20
4714.431598713261
 30
0.0
 11
3919.673057123644
 21
4714.431598713261
 31
0.0
  0
LINE
  5
192B4
330
747D
100
AcDbEntity
  8
細線
100
AcDbLine
 10
3919.673057123644
 20
4737.431598713261
 30
0.0
 11
3845.673057123644
 21
4737.431598713261
 31
0.0
  0
LINE
  5
192B5
330
747D
100
AcDbEntity
  8
細線
100
AcDbLine
 10
3919.67305712364
 20
4714.431598713261
 30
0.0
 11
3993.673057123644
 21
4714.431598713261
 31
0.0
  0
ARC
  5
192B6
330
747D
100
AcDbEntity
  8
部品1
 48
0.01
100
AcDbCircle
 10
3831.673057123644
 20
4741.931598713261
 30
0.0
 40
2.0
100
AcDbArc
 50
90.0
 51
180.0
  0
ARC
  5
192B7
330
747D
100
AcDbEntity
  8
部品1
 48
0.01
100
AcDbCircle
 10
4007.673057123644
 20
4741.931598713261
 30
0.0
 40
2.0
100
AcDbArc
 50
0.0
 51
90.0
  0
ARC
  5
193D6
330
747D
100
AcDbEntity
  8
部品1
 48
0.01
100
AcDbCircle
 10
7057.673057123661
 20
4741.931598713261
 30
0.0
 40
2.0
100
AcDbArc
 50
0.0
 51
90.0
  0
ARC
  5
193D7
330
747D
100
AcDbEntity
  8
部品1
 48
0.01
100
AcDbCircle
 10
6881.67305712366
 20
4741.931598713261
 30
0.0
 40
2.0
100
AcDbArc
 50
90.0
 51
180.0
  0
LINE
  5
193D8
330
747D
100
AcDbEntity
  8
細線
100
AcDbLine
 10
6969.673057123657
 20
4714.431598713261
 30
0.0
 11
7043.673057123661
 21
4714.431598713261
 31
0.0
  0
LINE
  5
193D9
330
747D
100
AcDbEntity
  8
細線
100
AcDbLine
 10
6969.67305712366
 20
4737.431598713261
 30
0.0
 11
6895.67305712366
 21
4737.431598713261
 31
0.0
  0
LINE
  5
193DA
330
747D
100
AcDbEntity
  8
細線
100
AcDbLine
 10
6895.67305712366
 20
4714.431598713261
 30
0.0
 11
6969.67305712366
 21
4714.431598713261
 31
0.0
  0
LINE
  5
193DB
330
747D
100
AcDbEntity
  8
細線
100
AcDbLine
 10
7043.673057123661
 20
4737.431598713261
 30
0.0
 11
6969.67305712366
 21
4737.431598713261
 31
0.0
  0
LINE
  5
193DC
330
747D
100
AcDbEntity
  8
細線
100
AcDbLine
 10
7043.673057123661
 20
4714.431598713261
 30
0.0
 11
7043.673057123661
 21
4737.431598713261
 31
0.0
  0
LINE
  5
193DD
330
747D
100
AcDbEntity
  8
細線
100
AcDbLine
 10
6895.67305712366
 20
4737.431598713261
 30
0.0
 11
6895.67305712366
 21
4714.431598713261
 31
0.0
  0
LINE
  5
193DE
330
747D
100
AcDbEntity
  8
部品1
 48
0.01
100
AcDbLine
 10
7059.673057123657
 20
4710.431598713261
 30
0.0
 11
7059.67305712366
 21
4741.931598713261
 31
0.0
  0
LINE
  5
193DF
330
747D
100
AcDbEntity
  8
部品1
 48
0.01
100
AcDbLine
 10
6879.67305712366
 20
4741.931598713261
 30
0.0
 11
6879.67305712366
 21
4710.431598713261
 31
0.0
  0
LINE
  5
193E0
330
747D
100
AcDbEntity
  8
部品1
 48
0.01
100
AcDbLine
 10
7057.673057123661
 20
4743.931598713261
 30
0.0
 11
6881.67305712366
 21
4743.931598713261
 31
0.0
  0
LINE
  5
193E1
330
747D
100
AcDbEntity
  8
細線
100
AcDbLine
 10
6895.67305712366
 20
4731.431598713261
 30
0.0
 11
6969.67305712366
 21
4731.431598713261
 31
0.0
  0
LINE
  5
193E2
330
747D
100
AcDbEntity
  8
細線
100
AcDbLine
 10
6895.67305712366
 20
4725.431598713261
 30
0.0
 11
6969.67305712366
 21
4725.431598713261
 31
0.0
  0
LINE
  5
193E3
330
747D
100
AcDbEntity
  8
細線
100
AcDbLine
 10
6895.673057123656
 20
4719.431598713261
 30
0.0
 11
6969.67305712366
 21
4719.431598713261
 31
0.0
  0
LINE
  5
193E4
330
747D
100
AcDbEntity
  8
細線
100
AcDbLine
 10
6895.67305712366
 20
4731.431598713261
 30
0.0
 11
6964.67305712366
 21
4731.431598713261
 31
0.0
  0
LINE
  5
193E5
330
747D
100
AcDbEntity
  8
細線
100
AcDbLine
 10
7043.673057123656
 20
4731.431598713261
 30
0.0
 11
6969.67305712366
 21
4731.431598713261
 31
0.0
  0
LINE
  5
193E6
330
747D
100
AcDbEntity
  8
細線
100
AcDbLine
 10
7043.673057123656
 20
4719.431598713261
 30
0.0
 11
6969.67305712366
 21
4719.431598713261
 31
0.0
  0
LINE
  5
193E7
330
747D
100
AcDbEntity
  8
細線
100
AcDbLine
 10
7043.673057123656
 20
4725.431598713261
 30
0.0
 11
6969.67305712366
 21
4725.431598713261
 31
0.0
  0
LINE
  5
193E8
330
747D
100
AcDbEntity
  8
細線
100
AcDbLine
 10
6969.67305712366
 20
4737.431598713261
 30
0.0
 11
6969.673057123657
 21
4714.431598713261
 31
0.0
  0
LINE
  5
193E9
330
747D
100
AcDbEntity
  8
細線
100
AcDbLine
 10
8199.673057123661
 20
4737.431598713261
 30
0.0
 11
8199.673057123661
 21
4714.431598713261
 31
0.0
  0
LINE
  5
193EA
330
747D
100
AcDbEntity
  8
細線
100
AcDbLine
 10
8125.673057123661
 20
4725.431598713261
 30
0.0
 11
8199.673057123661
 21
4725.431598713261
 31
0.0
  0
LINE
  5
193EB
330
747D
100
AcDbEntity
  8
細線
100
AcDbLine
 10
8125.673057123661
 20
4719.431598713261
 30
0.0
 11
8199.673057123661
 21
4719.431598713261
 31
0.0
  0
LINE
  5
193EC
330
747D
100
AcDbEntity
  8
細線
100
AcDbLine
 10
8125.673057123661
 20
4731.431598713261
 30
0.0
 11
8199.673057123661
 21
4731.431598713261
 31
0.0
  0
LINE
  5
193ED
330
747D
100
AcDbEntity
  8
細線
100
AcDbLine
 10
8273.67305712366
 20
4731.431598713261
 30
0.0
 11
8204.673057123661
 21
4731.431598713261
 31
0.0
  0
LINE
  5
193EE
330
747D
100
AcDbEntity
  8
細線
100
AcDbLine
 10
8273.67305712366
 20
4719.431598713261
 30
0.0
 11
8199.673057123661
 21
4719.431598713261
 31
0.0
  0
LINE
  5
193EF
330
747D
100
AcDbEntity
  8
細線
100
AcDbLine
 10
8273.67305712366
 20
4725.431598713261
 30
0.0
 11
8199.673057123661
 21
4725.431598713261
 31
0.0
  0
LINE
  5
193F0
330
747D
100
AcDbEntity
  8
細線
100
AcDbLine
 10
8273.67305712366
 20
4731.431598713261
 30
0.0
 11
8199.673057123661
 21
4731.431598713261
 31
0.0
  0
LINE
  5
193F1
330
747D
100
AcDbEntity
  8
部品1
 48
0.01
100
AcDbLine
 10
8111.67305712366
 20
4743.931598713261
 30
0.0
 11
8287.67305712366
 21
4743.931598713261
 31
0.0
  0
LINE
  5
193F2
330
747D
100
AcDbEntity
  8
部品1
 48
0.01
100
AcDbLine
 10
8289.67305712366
 20
4741.931598713261
 30
0.0
 11
8289.67305712366
 21
4710.431598713261
 31
0.0
  0
LINE
  5
193F3
330
747D
100
AcDbEntity
  8
部品1
 48
0.01
100
AcDbLine
 10
8109.673057123661
 20
4710.431598713261
 30
0.0
 11
8109.673057123661
 21
4741.931598713261
 31
0.0
  0
LINE
  5
193F4
330
747D
100
AcDbEntity
  8
細線
100
AcDbLine
 10
8273.67305712366
 20
4737.431598713261
 30
0.0
 11
8273.67305712366
 21
4714.431598713261
 31
0.0
  0
LINE
  5
193F5
330
747D
100
AcDbEntity
  8
細線
100
AcDbLine
 10
8125.673057123661
 20
4714.431598713261
 30
0.0
 11
8125.673057123661
 21
4737.431598713261
 31
0.0
  0
LINE
  5
193F6
330
747D
100
AcDbEntity
  8
細線
100
AcDbLine
 10
8125.673057123661
 20
4737.431598713261
 30
0.0
 11
8199.673057123661
 21
4737.431598713261
 31
0.0
  0
LINE
  5
193F7
330
747D
100
AcDbEntity
  8
細線
100
AcDbLine
 10
8273.67305712366
 20
4714.431598713261
 30
0.0
 11
8199.673057123661
 21
4714.431598713261
 31
0.0
  0
LINE
  5
193F8
330
747D
100
AcDbEntity
  8
細線
100
AcDbLine
 10
8199.673057123661
 20
4737.431598713261
 30
0.0
 11
8273.67305712366
 21
4737.431598713261
 31
0.0
  0
LINE
  5
193F9
330
747D
100
AcDbEntity
  8
細線
100
AcDbLine
 10
8199.673057123661
 20
4714.431598713261
 30
0.0
 11
8125.673057123661
 21
4714.431598713261
 31
0.0
  0
ARC
  5
193FA
330
747D
100
AcDbEntity
  8
部品1
 48
0.01
100
AcDbCircle
 10
8287.67305712366
 20
4741.931598713261
 30
0.0
 40
2.0
100
AcDbArc
 50
0.0
 51
90.0
  0
ARC
  5
193FB
330
747D
100
AcDbEntity
  8
部品1
 48
0.01
100
AcDbCircle
 10
8111.67305712366
 20
4741.931598713261
 30
0.0
 40
2.0
100
AcDbArc
 50
90.0
 51
180.0
  0
ARC
  5
193FC
330
747D
100
AcDbEntity
  8
部品1
 48
0.01
100
AcDbCircle
 10
7057.673057123657
 20
4710.431598713261
 30
0.0
 40
2.0
100
AcDbArc
 50
270.0
 51
0.0
  0
ARC
  5
193FD
330
747D
100
AcDbEntity
  8
部品1
 48
0.01
100
AcDbCircle
 10
6881.67305712366
 20
4710.431598713261
 30
0.0
 40
2.0
100
AcDbArc
 50
180.0
 51
270.0
  0
LINE
  5
193FE
330
747D
100
AcDbEntity
  8
部品1
 48
0.01
100
AcDbLine
 10
6881.67305712366
 20
4708.431598713261
 30
0.0
 11
7057.673057123657
 21
4708.431598713261
 31
0.0
  0
LINE
  5
193FF
330
747D
100
AcDbEntity
  8
部品1
 48
0.01
100
AcDbLine
 10
8287.67305712366
 20
4708.431598713261
 30
0.0
 11
8111.67305712366
 21
4708.431598713261
 31
0.0
  0
ARC
  5
19400
330
747D
100
AcDbEntity
  8
部品1
 48
0.01
100
AcDbCircle
 10
8287.67305712366
 20
4710.431598713261
 30
0.0
 40
2.0
100
AcDbArc
 50
270.0
 51
0.0
  0
ARC
  5
19401
330
747D
100
AcDbEntity
  8
部品1
 48
0.01
100
AcDbCircle
 10
8111.67305712366
 20
4710.431598713261
 30
0.0
 40
2.0
100
AcDbArc
 50
180.0
 51
270.0
  0
TEXT
  5
194F2
330
747D
100
AcDbEntity
  8
文字
 62
     7
 48
50.0
100
AcDbText
 10
14646.46056207479
 20
871.9640646083623
 30
0.0
 40
100.0
  1
～一般型～
  7
STYLE2
100
AcDbText
  0
LINE
  5
1951B
330
747D
100
AcDbEntity
  8
破線
 48
5.0
100
AcDbLine
 10
6009.673057123642
 20
2187.931598713261
 30
0.0
 11
6109.673057123641
 21
2187.931598713261
 31
0.0
  0
LINE
  5
1951C
330
747D
100
AcDbEntity
  8
破線
 48
5.0
100
AcDbLine
 10
6059.673057123641
 20
2262.931598713262
 30
0.0
 11
6059.673057123641
 21
2187.931598713261
 31
0.0
  0
LINE
  5
1951D
330
747D
100
AcDbEntity
  8
破線
 48
5.0
100
AcDbLine
 10
5956.673057123641
 20
2537.931598713262
 30
0.0
 11
5956.673057123642
 21
2287.931598713262
 31
0.0
  0
LINE
  5
1951E
330
747D
100
AcDbEntity
  8
破線
 48
5.0
100
AcDbLine
 10
6004.673057123643
 20
2287.931598713262
 30
0.0
 11
5956.673057123642
 21
2287.931598713262
 31
0.0
  0
LINE
  5
1951F
330
747D
100
AcDbEntity
  8
破線
 48
5.0
100
AcDbLine
 10
6004.67305712364
 20
2537.931598713262
 30
0.0
 11
6004.673057123643
 21
2262.931598713262
 31
0.0
  0
LINE
  5
19520
330
747D
100
AcDbEntity
  8
破線
 48
5.0
100
AcDbLine
 10
6114.67305712364
 20
2262.931598713262
 30
0.0
 11
6004.673057123643
 21
2262.931598713262
 31
0.0
  0
LINE
  5
19521
330
747D
100
AcDbEntity
  8
破線
 48
5.0
100
AcDbLine
 10
6162.673057123642
 20
2537.931598713262
 30
0.0
 11
6162.673057123639
 21
2287.931598713267
 31
0.0
  0
LINE
  5
19522
330
747D
100
AcDbEntity
  8
破線
 48
5.0
100
AcDbLine
 10
6162.67305712364
 20
2287.931598713267
 30
0.0
 11
6114.67305712364
 21
2287.931598713267
 31
0.0
  0
LINE
  5
19523
330
747D
100
AcDbEntity
  8
破線
 48
5.0
100
AcDbLine
 10
6114.673057123642
 20
2537.931598713262
 30
0.0
 11
6114.673057123641
 21
2262.931598713262
 31
0.0
  0
LINE
  5
19539
330
747D
100
AcDbEntity
  8
破線
 48
5.0
100
AcDbLine
 10
3112.67305712364
 20
2537.931598713262
 30
0.0
 11
3112.67305712364
 21
2287.931598713267
 31
0.0
  0
LINE
  5
1953A
330
747D
100
AcDbEntity
  8
破線
 48
5.0
100
AcDbLine
 10
3112.67305712364
 20
2537.931598713262
 30
0.0
 11
3112.67305712364
 21
2287.931598713267
 31
0.0
  0
LINE
  5
1953B
330
747D
100
AcDbEntity
  8
破線
 48
5.0
100
AcDbLine
 10
3112.67305712364
 20
2287.931598713267
 30
0.0
 11
3064.67305712364
 21
2287.931598713267
 31
0.0
  0
LINE
  5
1953C
330
747D
100
AcDbEntity
  8
破線
 48
5.0
100
AcDbLine
 10
3112.67305712364
 20
2287.931598713267
 30
0.0
 11
3064.67305712364
 21
2287.931598713267
 31
0.0
  0
LINE
  5
1953D
330
747D
100
AcDbEntity
  8
破線
 48
5.0
100
AcDbLine
 10
3064.67305712364
 20
2187.931598713269
 30
0.0
 11
3009.67305712364
 21
2187.931598713269
 31
0.0
  0
LINE
  5
1953E
330
747D
100
AcDbEntity
  8
破線
 48
5.0
100
AcDbLine
 10
3009.67305712364
 20
2437.931598713261
 30
0.0
 11
3009.67305712364
 21
2187.931598713261
 31
0.0
  0
LINE
  5
1953F
330
747D
100
AcDbEntity
  8
破線
 48
5.0
100
AcDbLine
 10
3064.67305712364
 20
2537.931598713262
 30
0.0
 11
3064.67305712364
 21
2187.931598713261
 31
0.0
  0
LINE
  5
19540
330
747D
100
AcDbEntity
  8
破線
 48
5.0
100
AcDbLine
 10
3064.67305712364
 20
2537.931598713262
 30
0.0
 11
3064.67305712364
 21
2187.931598713261
 31
0.0
  0
LINE
  5
19553
330
747D
100
AcDbEntity
  8
破線
 48
5.0
100
AcDbLine
 10
9054.673057123656
 20
2537.931598713262
 30
0.0
 11
9054.673057123656
 21
2187.931598713261
 31
0.0
  0
LINE
  5
19554
330
747D
100
AcDbEntity
  8
破線
 48
5.0
100
AcDbLine
 10
9109.673057123655
 20
2437.931598713261
 30
0.0
 11
9109.673057123655
 21
2187.931598713261
 31
0.0
  0
LINE
  5
19555
330
747D
100
AcDbEntity
  8
破線
 48
5.0
100
AcDbLine
 10
9109.673057123655
 20
2187.931598713261
 30
0.0
 11
9054.673057123656
 21
2187.931598713261
 31
0.0
  0
LINE
  5
19556
330
747D
100
AcDbEntity
  8
破線
 48
5.0
100
AcDbLine
 10
9006.673057123656
 20
2537.931598713262
 30
0.0
 11
9006.673057123656
 21
2287.931598713262
 31
0.0
  0
LINE
  5
19557
330
747D
100
AcDbEntity
  8
破線
 48
5.0
100
AcDbLine
 10
9054.673057123661
 20
2287.931598713262
 30
0.0
 11
9006.673057123656
 21
2287.931598713262
 31
0.0
  0
TEXT
  5
19575
330
747D
100
AcDbEntity
  8
文字
 62
     7
 48
50.0
100
AcDbText
 10
15022.63965474516
 20
9060.013745883725
 30
0.0
 40
100.0
  1
F12            0.7
  7
STYLE1
100
AcDbText
  0
ENDSEC
  0
SECTION
  2
OBJECTS
  0
DICTIONARY
  5
7471
330
0
100
AcDbDictionary
281
     1
  3
ACAD_COLOR
350
17B4B
  3
ACAD_GROUP
350
7472
  3
ACAD_LAYOUT
350
17B4C
  3
ACAD_MATERIAL
350
17B4A
  3
ACAD_MLINESTYLE
350
7473
  3
ACAD_PLOTSETTINGS
350
17B4D
  3
ACAD_PLOTSTYLENAME
350
17B48
  3
ACDBHEADERROUNDTRIPXREC
350
195F0
  3
AcDbVariableDictionary
350
195EC
  3
CONTENTDICTIONARY
350
E71C
  3
DRAWINGVARIABLESDICT
350
F3B9
  0
DICTIONARY
  5
17E12
330
7467
100
AcDbDictionary
280
     1
281
     1
  3
ACAD_LAYERSTATES
360
17E13
  0
DICTIONARY
  5
17B4B
102
{ACAD_REACTORS
330
7471
102
}
330
7471
100
AcDbDictionary
281
     1
  0
DICTIONARY
  5
7472
102
{ACAD_REACTORS
330
7471
102
}
330
7471
100
AcDbDictionary
281
     1
  0
DICTIONARY
  5
17B4C
102
{ACAD_REACTORS
330
7471
102
}
330
7471
100
AcDbDictionary
281
     1
  3
Model
350
17B4E
  3
レイアウト1
350
17B4F
  0
DICTIONARY
  5
17B4A
102
{ACAD_REACTORS
330
7471
102
}
330
7471
100
AcDbDictionary
281
     1
  0
DICTIONARY
  5
7473
102
{ACAD_REACTORS
330
7471
102
}
330
7471
100
AcDbDictionary
281
     1
  3
STANDARD
350
7480
  0
DICTIONARY
  5
17B4D
102
{ACAD_REACTORS
330
7471
102
}
330
7471
100
AcDbDictionary
281
     1
  0
ACDBDICTIONARYWDFLT
  5
17B48
102
{ACAD_REACTORS
330
7471
102
}
330
7471
100
AcDbDictionary
281
     1
  3
Normal
350
17B49
100
AcDbDictionaryWithDefault
340
17B49
  0
DICTIONARY
  5
195F0
102
{ACAD_REACTORS
330
7471
102
}
330
7471
100
AcDbDictionary
281
     1
  3
COLORDICT
350
195F2
  3
MATERIALDICT
350
195F1
  0
DICTIONARY
  5
195EC
102
{ACAD_REACTORS
330
7471
102
}
330
7471
100
AcDbDictionary
281
     1
  3
DIMASSOC
350
195ED
  3
PROJECTNAME
350
195EE
  0
DICTIONARY
  5
E71C
102
{ACAD_REACTORS
330
7471
102
}
330
7471
100
AcDbDictionary
281
     1
  0
DICTIONARY
  5
F3B9
102
{ACAD_REACTORS
330
7471
102
}
330
7471
100
AcDbDictionary
281
     1
1001
DRAWINGVARIABLESXDATA
1000
POLARMODE
1000
1
  0
DICTIONARY
  5
17E13
102
{ACAD_REACTORS
330
17E12
102
}
330
17E12
100
AcDbDictionary
281
     1
  0
LAYOUT
  5
17B4E
102
{ACAD_XDICTIONARY
360
195F3
102
}
102
{ACAD_REACTORS
330
17B4C
102
}
330
17B4C
100
AcDbPlotSettings
  1

  2
クセロPDF
  4
A3
  6

 40
3.174999999999999
 41
3.174999999999999
 42
3.174987999999999
 43
3.174987999999999
 44
419.946655
 45
296.925995
 46
0.0
 47
0.0
 48
0.0
 49
0.0
140
0.0
141
0.0
142
1.0
143
40.44561299368567
 70
 11952
 72
     1
 73
     0
 74
     2
  7
inaba.ctb
 75
     0
147
0.0247245603659442
148
183.0179068595971
149
160.3342785227505
100
AcDbLayout
  1
Model
 70
     1
 71
     0
 10
0.0
 20
0.0
 11
12.0
 21
9.0
 12
0.0
 22
0.0
 32
0.0
 14
0.0
 24
0.0
 34
0.0
 15
0.0
 25
0.0
 35
0.0
146
0.0
 13
0.0
 23
0.0
 33
0.0
 16
1.0
 26
0.0
 36
0.0
 17
0.0
 27
1.0
 37
0.0
 76
     0
330
747D
  0
LAYOUT
  5
17B4F
102
{ACAD_XDICTIONARY
360
195F5
102
}
102
{ACAD_REACTORS
330
17B4C
102
}
330
17B4C
100
AcDbPlotSettings
  1

  2
EPSON LP-8300
  4

  6

 40
0.0
 41
0.0
 42
0.0
 43
0.0
 44
0.0
 45
0.0
 46
0.0
 47
0.0
 48
0.0
 49
0.0
140
0.0
141
0.0
142
1.0
143
1.0
 70
   688
 72
     0
 73
     0
 74
     5
  7
inaba.ctb
 75
    16
147
1.0
148
0.0
149
0.0
100
AcDbLayout
  1
レイアウト1
 70
     0
 71
     1
 10
0.0
 20
0.0
 11
420.0
 21
297.0
 12
0.0
 22
0.0
 32
0.0
 14
1.000000000000000E+20
 24
1.000000000000000E+20
 34
1.000000000000000E+20
 15
-1.000000000000000E+20
 25
-1.000000000000000E+20
 35
-1.000000000000000E+20
146
0.0
 13
0.0
 23
0.0
 33
0.0
 16
1.0
 26
0.0
 36
0.0
 17
0.0
 27
1.0
 37
0.0
 76
     0
330
747A
  0
MLINESTYLE
  5
7480
102
{ACAD_REACTORS
330
7473
102
}
330
7473
100
AcDbMlineStyle
  2
STANDARD
 70
     0
  3

 62
     0
 51
90.0
 52
90.0
 71
     2
 49
0.5
 62
   256
  6
BYLAYER
 49
-0.5
 62
   256
  6
BYLAYER
  0
ACDBPLACEHOLDER
  5
17B49
102
{ACAD_REACTORS
330
17B48
102
}
330
17B48
  0
XRECORD
  5
195F2
102
{ACAD_REACTORS
330
195F0
102
}
330
195F0
100
AcDbXrecord
280
     1
340
17B4B
  0
XRECORD
  5
195F1
102
{ACAD_REACTORS
330
195F0
102
}
330
195F0
100
AcDbXrecord
280
     1
340
17B4A
  0
DICTIONARYVAR
  5
195ED
102
{ACAD_REACTORS
330
195EC
102
}
330
195EC
100
DictionaryVariables
280
     0
  1
1
  0
DICTIONARYVAR
  5
195EE
102
{ACAD_REACTORS
330
195EC
102
}
330
195EC
100
DictionaryVariables
280
     0
  1

  0
DICTIONARY
  5
195F3
330
17B4E
100
AcDbDictionary
280
     1
281
     1
  3
ACAD_XREC_ROUNDTRIP
360
195F4
  0
DICTIONARY
  5
195F5
330
17B4F
100
AcDbDictionary
280
     1
281
     1
  3
ACAD_XREC_ROUNDTRIP
360
195F6
  0
XRECORD
  5
195F4
102
{ACAD_REACTORS
330
195F3
102
}
330
195F3
100
AcDbXrecord
280
     1
102
SHADEPLOT
 70
     1
102
SHADEPLOTRESLEVEL
 70
     2
102
SHADEPLOTCUSTOMDPI
 70
   300
  0
XRECORD
  5
195F6
102
{ACAD_REACTORS
330
195F5
102
}
330
195F5
100
AcDbXrecord
280
     1
102
SHADEPLOT
 70
     0
102
SHADEPLOTRESLEVEL
 70
     2
102
SHADEPLOTCUSTOMDPI
 70
   300
  0
ENDSEC
  0
EOF
