  0
SECTION
  2
HEADER
  9
$ACADVER
  1
AC1015
  9
$ACADMAINTVER
 70
    20
  9
$DWGCODEPAGE
  3
ANSI_932
  9
$INSBASE
 10
0.0
 20
0.0
 30
0.0
  9
$EXTMIN
 10
139.9999999999995
 20
-0.0000000000000909
 30
0.0
  9
$EXTMAX
 10
16307.2
 20
11409.6
 30
0.0
  9
$LIMMIN
 10
-183.0179068595971
 20
-160.3342785227505
  9
$LIMMAX
 10
16374.07536659319
 20
11592.19044584975
  9
$ORTHOMODE
 70
     0
  9
$REGENMODE
 70
     1
  9
$FILLMODE
 70
     1
  9
$QTEXTMODE
 70
     0
  9
$MIRRTEXT
 70
     1
  9
$LTSCALE
 40
20.0
  9
$ATTMODE
 70
     1
  9
$TEXTSIZE
 40
100.0
  9
$TRACEWID
 40
1.0
  9
$TEXTSTYLE
  7
STYLE2
  9
$CLAYER
  8
部品1
  9
$CELTYPE
  6
BYLAYER
  9
$CECOLOR
 62
   256
  9
$CELTSCALE
 40
50.0
  9
$DISPSILH
 70
     0
  9
$DIMSCALE
 40
40.0
  9
$DIMASZ
 40
2.5
  9
$DIMEXO
 40
0.5
  9
$DIMDLI
 40
7.0
  9
$DIMRND
 40
0.0
  9
$DIMDLE
 40
0.0
  9
$DIMEXE
 40
1.5
  9
$DIMTP
 40
0.0
  9
$DIMTM
 40
0.0
  9
$DIMTXT
 40
3.0
  9
$DIMCEN
 40
0.0
  9
$DIMTSZ
 40
0.0
  9
$DIMTOL
 70
     0
  9
$DIMLIM
 70
     0
  9
$DIMTIH
 70
     0
  9
$DIMTOH
 70
     0
  9
$DIMSE1
 70
     0
  9
$DIMSE2
 70
     0
  9
$DIMTAD
 70
     3
  9
$DIMZIN
 70
     8
  9
$DIMBLK
  1

  9
$DIMASO
 70
     1
  9
$DIMSHO
 70
     1
  9
$DIMPOST
  1

  9
$DIMAPOST
  1

  9
$DIMALT
 70
     0
  9
$DIMALTD
 70
     2
  9
$DIMALTF
 40
0.0394
  9
$DIMLFAC
 40
1.0
  9
$DIMTOFL
 70
     1
  9
$DIMTVP
 40
0.0
  9
$DIMTIX
 70
     1
  9
$DIMSOXD
 70
     0
  9
$DIMSAH
 70
     1
  9
$DIMBLK1
  1
DOTSMALL
  9
$DIMBLK2
  1
DOTSMALL
  9
$DIMSTYLE
  2
INABA_S40G
  9
$DIMCLRD
 70
     0
  9
$DIMCLRE
 70
     0
  9
$DIMCLRT
 70
     7
  9
$DIMTFAC
 40
1.0
  9
$DIMGAP
 40
1.0
  9
$DIMJUST
 70
     0
  9
$DIMSD1
 70
     0
  9
$DIMSD2
 70
     0
  9
$DIMTOLJ
 70
     1
  9
$DIMTZIN
 70
     0
  9
$DIMALTZ
 70
     0
  9
$DIMALTTZ
 70
     0
  9
$DIMUPT
 70
     0
  9
$DIMDEC
 70
     1
  9
$DIMTDEC
 70
     4
  9
$DIMALTU
 70
     2
  9
$DIMALTTD
 70
     2
  9
$DIMTXSTY
  7
STYLE1
  9
$DIMAUNIT
 70
     0
  9
$DIMADEC
 70
     0
  9
$DIMALTRND
 40
0.0
  9
$DIMAZIN
 70
     0
  9
$DIMDSEP
 70
    46
  9
$DIMATFIT
 70
     3
  9
$DIMFRAC
 70
     0
  9
$DIMLDRBLK
  1

  9
$DIMLUNIT
 70
     2
  9
$DIMLWD
 70
    -2
  9
$DIMLWE
 70
    -2
  9
$DIMTMOVE
 70
     0
  9
$LUNITS
 70
     2
  9
$LUPREC
 70
     1
  9
$SKETCHINC
 40
1.0
  9
$FILLETRAD
 40
3.0
  9
$AUNITS
 70
     0
  9
$AUPREC
 70
     0
  9
$MENU
  1
acad
  9
$ELEVATION
 40
0.0
  9
$PELEVATION
 40
0.0
  9
$THICKNESS
 40
0.0
  9
$LIMCHECK
 70
     0
  9
$CHAMFERA
 40
0.0
  9
$CHAMFERB
 40
0.0
  9
$CHAMFERC
 40
0.0
  9
$CHAMFERD
 40
0.0
  9
$SKPOLY
 70
     0
  9
$TDCREATE
 40
2451368.612993866
  9
$TDUCREATE
 40
2451368.237993866
  9
$TDUPDATE
 40
2455569.632592222
  9
$TDUUPDATE
 40
2455569.257592222
  9
$TDINDWG
 40
0.6786680903
  9
$TDUSRTIMER
 40
0.6786680903
  9
$USRTIMER
 70
     1
  9
$ANGBASE
 50
0.0
  9
$ANGDIR
 70
     0
  9
$PDMODE
 70
     3
  9
$PDSIZE
 40
2.0
  9
$PLINEWID
 40
0.0
  9
$SPLFRAME
 70
     0
  9
$SPLINETYPE
 70
     6
  9
$SPLINESEGS
 70
     8
  9
$HANDSEED
  5
17786
  9
$SURFTAB1
 70
     6
  9
$SURFTAB2
 70
     6
  9
$SURFTYPE
 70
     6
  9
$SURFU
 70
     6
  9
$SURFV
 70
     6
  9
$UCSBASE
  2

  9
$UCSNAME
  2

  9
$UCSORG
 10
0.0
 20
0.0
 30
0.0
  9
$UCSXDIR
 10
1.0
 20
0.0
 30
0.0
  9
$UCSYDIR
 10
0.0
 20
1.0
 30
0.0
  9
$UCSORTHOREF
  2

  9
$UCSORTHOVIEW
 70
     0
  9
$UCSORGTOP
 10
0.0
 20
0.0
 30
0.0
  9
$UCSORGBOTTOM
 10
0.0
 20
0.0
 30
0.0
  9
$UCSORGLEFT
 10
0.0
 20
0.0
 30
0.0
  9
$UCSORGRIGHT
 10
0.0
 20
0.0
 30
0.0
  9
$UCSORGFRONT
 10
0.0
 20
0.0
 30
0.0
  9
$UCSORGBACK
 10
0.0
 20
0.0
 30
0.0
  9
$PUCSBASE
  2

  9
$PUCSNAME
  2

  9
$PUCSORG
 10
0.0
 20
0.0
 30
0.0
  9
$PUCSXDIR
 10
1.0
 20
0.0
 30
0.0
  9
$PUCSYDIR
 10
0.0
 20
1.0
 30
0.0
  9
$PUCSORTHOREF
  2

  9
$PUCSORTHOVIEW
 70
     0
  9
$PUCSORGTOP
 10
0.0
 20
0.0
 30
0.0
  9
$PUCSORGBOTTOM
 10
0.0
 20
0.0
 30
0.0
  9
$PUCSORGLEFT
 10
0.0
 20
0.0
 30
0.0
  9
$PUCSORGRIGHT
 10
0.0
 20
0.0
 30
0.0
  9
$PUCSORGFRONT
 10
0.0
 20
0.0
 30
0.0
  9
$PUCSORGBACK
 10
0.0
 20
0.0
 30
0.0
  9
$USERI1
 70
     0
  9
$USERI2
 70
     0
  9
$USERI3
 70
     0
  9
$USERI4
 70
     0
  9
$USERI5
 70
     0
  9
$USERR1
 40
0.0
  9
$USERR2
 40
0.0
  9
$USERR3
 40
0.0
  9
$USERR4
 40
0.0
  9
$USERR5
 40
0.0
  9
$WORLDVIEW
 70
     1
  9
$SHADEDGE
 70
     3
  9
$SHADEDIF
 70
    70
  9
$TILEMODE
 70
     1
  9
$MAXACTVP
 70
    16
  9
$PINSBASE
 10
0.0
 20
0.0
 30
0.0
  9
$PLIMCHECK
 70
     0
  9
$PEXTMIN
 10
1.000000000000000E+20
 20
1.000000000000000E+20
 30
1.000000000000000E+20
  9
$PEXTMAX
 10
-1.000000000000000E+20
 20
-1.000000000000000E+20
 30
-1.000000000000000E+20
  9
$PLIMMIN
 10
0.0
 20
0.0
  9
$PLIMMAX
 10
420.0
 20
297.0
  9
$UNITMODE
 70
     0
  9
$VISRETAIN
 70
     0
  9
$PLINEGEN
 70
     0
  9
$PSLTSCALE
 70
     0
  9
$TREEDEPTH
 70
  3020
  9
$CMLSTYLE
  2
STANDARD
  9
$CMLJUST
 70
     0
  9
$CMLSCALE
 40
1.0
  9
$PROXYGRAPHICS
 70
     1
  9
$MEASUREMENT
 70
     1
  9
$CELWEIGHT
370
    -1
  9
$ENDCAPS
280
     0
  9
$JOINSTYLE
280
     0
  9
$LWDISPLAY
290
     0
  9
$INSUNITS
 70
     0
  9
$HYPERLINKBASE
  1

  9
$STYLESHEET
  1
inaba.ctb
  9
$XEDIT
290
     1
  9
$CEPSNTYPE
380
     0
  9
$PSTYLEMODE
290
     1
  9
$FINGERPRINTGUID
  2
{AB094AE3-E6F0-40AB-9AEF-D71DE430DDCB}
  9
$VERSIONGUID
  2
{AB5E5EF8-355E-4B33-8D6A-1036AB4EC6CD}
  9
$EXTNAMES
290
     1
  9
$PSVPSCALE
 40
0.0
  9
$OLESTARTUP
290
     0
  0
ENDSEC
  0
SECTION
  2
CLASSES
  0
CLASS
  1
ACDBDICTIONARYWDFLT
  2
AcDbDictionaryWithDefault
  3
ObjectDBX Classes
 90
        0
280
     0
281
     0
  0
CLASS
  1
DICTIONARYVAR
  2
AcDbDictionaryVar
  3
ObjectDBX Classes
 90
        0
280
     0
281
     0
  0
CLASS
  1
ACDBPLACEHOLDER
  2
AcDbPlaceHolder
  3
ObjectDBX Classes
 90
        0
280
     0
281
     0
  0
CLASS
  1
LAYOUT
  2
AcDbLayout
  3
ObjectDBX Classes
 90
        0
280
     0
281
     0
  0
ENDSEC
  0
SECTION
  2
TABLES
  0
TABLE
  2
VPORT
  5
746D
330
0
100
AcDbSymbolTable
 70
     2
  0
VPORT
  5
1777E
330
746D
100
AcDbSymbolTableRecord
100
AcDbViewportTableRecord
  2
*Active
 70
     0
 10
0.0
 20
0.0
 11
1.0
 21
1.0
 12
8696.645989629075
 22
5716.203336250543
 13
0.0
 23
0.0
 14
10.0
 24
10.0
 15
10.0
 25
10.0
 16
0.0
 26
0.0
 36
1.0
 17
0.0
 27
0.0
 37
0.0
 40
11840.6002503492
 41
1.627450980392156
 42
50.0
 43
0.0
 44
0.0
 50
0.0
 51
0.0
 71
     0
 72
     0
 73
     1
 74
     0
 75
     0
 76
     0
 77
     0
 78
     0
281
     0
 65
     1
110
0.0
120
0.0
130
0.0
111
1.0
121
0.0
131
0.0
112
0.0
122
1.0
132
0.0
 79
     0
146
0.0
  0
ENDTAB
  0
TABLE
  2
LTYPE
  5
746A
330
0
100
AcDbSymbolTable
 70
     3
  0
LTYPE
  5
7477
330
746A
100
AcDbSymbolTableRecord
100
AcDbLinetypeTableRecord
  2
BYBLOCK
 70
     0
  3

 72
    65
 73
     0
 40
0.0
  0
LTYPE
  5
7478
330
746A
100
AcDbSymbolTableRecord
100
AcDbLinetypeTableRecord
  2
BYLAYER
 70
     0
  3

 72
    65
 73
     0
 40
0.0
  0
LTYPE
  5
7479
330
746A
100
AcDbSymbolTableRecord
100
AcDbLinetypeTableRecord
  2
CONTINUOUS
 70
     0
  3
Solid line
 72
    65
 73
     0
 40
0.0
  0
LTYPE
  5
781A
330
746A
100
AcDbSymbolTableRecord
100
AcDbLinetypeTableRecord
  2
HIDDEN
 70
     0
  3
__ __ __ __ __ __ __ __ __ __ __ __ __ __ __ __
 72
    65
 73
     2
 40
0.375
 49
0.25
 74
     0
 49
-0.125
 74
     0
  0
LTYPE
  5
781B
330
746A
100
AcDbSymbolTableRecord
100
AcDbLinetypeTableRecord
  2
PHANTOM
 70
     0
  3
______  __  __  ______  __  __  ______  __  __ 
 72
    65
 73
     6
 40
2.5
 49
1.25
 74
     0
 49
-0.25
 74
     0
 49
0.25
 74
     0
 49
-0.25
 74
     0
 49
0.25
 74
     0
 49
-0.25
 74
     0
  0
ENDTAB
  0
TABLE
  2
LAYER
  5
7467
102
{ACAD_XDICTIONARY
360
168CC
102
}
330
0
100
AcDbSymbolTable
 70
    10
  0
LAYER
  5
7474
330
7467
100
AcDbSymbolTableRecord
100
AcDbLayerTableRecord
  2
0
 70
     0
 62
     7
  6
CONTINUOUS
370
    -3
390
164C2
  0
LAYER
  5
DEB3
330
7467
100
AcDbSymbolTableRecord
100
AcDbLayerTableRecord
  2
寸法
 70
     0
 62
     4
  6
CONTINUOUS
370
    -3
390
164C2
  0
LAYER
  5
DEB4
330
7467
100
AcDbSymbolTableRecord
100
AcDbLayerTableRecord
  2
部品1
 70
     0
 62
     7
  6
CONTINUOUS
370
    -3
390
164C2
  0
LAYER
  5
DEB5
330
7467
100
AcDbSymbolTableRecord
100
AcDbLayerTableRecord
  2
補助
 70
     0
 62
    -1
  6
CONTINUOUS
370
    -3
390
164C2
  0
LAYER
  5
DEB6
330
7467
100
AcDbSymbolTableRecord
100
AcDbLayerTableRecord
  2
文字
 70
     0
 62
     7
  6
CONTINUOUS
370
    -3
390
164C2
  0
LAYER
  5
F255
330
7467
100
AcDbSymbolTableRecord
100
AcDbLayerTableRecord
  2
DEFPOINTS
 70
     0
 62
     7
  6
CONTINUOUS
290
     0
370
    -3
390
164C2
  0
LAYER
  5
10B54
330
7467
100
AcDbSymbolTableRecord
100
AcDbLayerTableRecord
  2
仕様書枠
 70
     0
 62
   230
  6
CONTINUOUS
370
    -3
390
164C2
  0
LAYER
  5
11729
330
7467
100
AcDbSymbolTableRecord
100
AcDbLayerTableRecord
  2
Ｇ．Ｌ
 70
     0
 62
    30
  6
CONTINUOUS
370
    -3
390
164C2
  0
LAYER
  5
1173F
330
7467
100
AcDbSymbolTableRecord
100
AcDbLayerTableRecord
  2
細線
 70
     0
 62
     5
  6
CONTINUOUS
370
    -3
390
164C2
  0
LAYER
  5
142E2
330
7467
100
AcDbSymbolTableRecord
100
AcDbLayerTableRecord
  2
破線
 70
     0
 62
     2
  6
HIDDEN
370
    -3
390
164C2
  0
ENDTAB
  0
TABLE
  2
STYLE
  5
7468
330
0
100
AcDbSymbolTable
 70
     4
  0
STYLE
  5
7475
330
7468
100
AcDbSymbolTableRecord
100
AcDbTextStyleTableRecord
  2
STANDARD
 70
     0
 40
0.0
 41
1.0
 50
0.0
 71
     0
 42
4.0
  3
txt
  4
C:\AutoCAD LT\bigfont.shx
  0
STYLE
  5
763C
330
7468
100
AcDbSymbolTableRecord
100
AcDbTextStyleTableRecord
  2
MSMINCHO
 70
     0
 40
0.0
 41
1.0
 50
0.0
 71
     0
 42
1.199999999999999
  3
C:\AutoCAD LT\msminch2.TTF
  4

  0
STYLE
  5
F706
330
7468
100
AcDbSymbolTableRecord
100
AcDbTextStyleTableRecord
  2
STYLE1
 70
     0
 40
0.0
 41
1.0
 50
0.0
 71
     0
 42
4.0
  3
isocp.shx
  4
bigfont.shx
  0
STYLE
  5
103BF
330
7468
100
AcDbSymbolTableRecord
100
AcDbTextStyleTableRecord
  2
STYLE2
 70
     0
 40
0.0
 41
1.0
 50
0.0
 71
     0
 42
100.0
  3
MS PGothic.ttf
  4

1001
ACAD
1000
MS PGothic
1071
    32818
  0
ENDTAB
  0
TABLE
  2
VIEW
  5
746B
330
0
100
AcDbSymbolTable
 70
     0
  0
ENDTAB
  0
TABLE
  2
UCS
  5
746C
330
0
100
AcDbSymbolTable
 70
     0
  0
ENDTAB
  0
TABLE
  2
APPID
  5
746E
330
0
100
AcDbSymbolTable
 70
     6
  0
APPID
  5
7476
330
746E
100
AcDbSymbolTableRecord
100
AcDbRegAppTableRecord
  2
ACAD
 70
     0
  0
APPID
  5
DEA9
330
746E
100
AcDbSymbolTableRecord
100
AcDbRegAppTableRecord
  2
CONTENTBLOCKICON
 70
     0
  0
APPID
  5
DEAA
330
746E
100
AcDbSymbolTableRecord
100
AcDbRegAppTableRecord
  2
CONTENTBLOCKDESCRIPTION
 70
     0
  0
APPID
  5
E71D
330
746E
100
AcDbSymbolTableRecord
100
AcDbRegAppTableRecord
  2
CONTENTTABDATA
 70
     0
  0
APPID
  5
E71E
330
746E
100
AcDbSymbolTableRecord
100
AcDbRegAppTableRecord
  2
CONTENTCURRENTTAB
 70
     0
  0
APPID
  5
F3BA
330
746E
100
AcDbSymbolTableRecord
100
AcDbRegAppTableRecord
  2
DRAWINGVARIABLESXDATA
 70
     0
  0
ENDTAB
  0
TABLE
  2
DIMSTYLE
  5
746F
330
0
100
AcDbSymbolTable
 70
     1
100
AcDbDimStyleTable
 71
     1
340
F71F
  0
DIMSTYLE
105
F71F
102
{ACAD_REACTORS
330
14E59
330
14E5A
330
14E5B
330
14E5C
330
14E5D
330
14E6F
330
14E87
330
14ED1
330
15E45
330
15E53
330
15E5F
330
15E6D
330
15E7B
330
16B20
330
16B21
330
16B22
330
16B23
330
16F91
330
16F82
330
16F74
330
16F73
330
16F72
330
16F6E
330
16F3D
330
16F3C
330
16F3B
330
172C8
330
172C9
330
172CA
102
}
330
746F
100
AcDbSymbolTableRecord
100
AcDbDimStyleTableRecord
  2
INABA_S40G
 70
     0
 40
40.0
 41
2.5
 42
0.5
 43
7.0
 44
1.5
 73
     0
 74
     0
 77
     3
 78
     8
140
3.0
141
0.0
143
0.0394
147
1.0
172
     1
173
     1
174
     1
178
     7
271
     1
340
F706
341
F770
343
F770
344
F770
  0
ENDTAB
  0
TABLE
  2
BLOCK_RECORD
  5
7466
330
0
100
AcDbSymbolTable
 70
    30
  0
BLOCK_RECORD
  5
747D
330
7466
100
AcDbSymbolTableRecord
100
AcDbBlockTableRecord
  2
*MODEL_SPACE
340
164C7
  0
BLOCK_RECORD
  5
747A
330
7466
100
AcDbSymbolTableRecord
100
AcDbBlockTableRecord
  2
*PAPER_SPACE
340
164C8
  0
BLOCK_RECORD
  5
F770
330
7466
100
AcDbSymbolTableRecord
100
AcDbBlockTableRecord
  2
_DOTSMALL
340
0
102
{BLKREFS
331
164DF
331
164E0
331
164EB
331
164EC
331
164F2
331
164F3
331
164FE
331
164FF
331
16508
331
16509
331
16538
331
16539
331
16543
331
16544
331
1654C
331
1654D
331
16557
331
16558
331
16562
331
16563
331
1656D
331
1656E
331
16576
331
16577
331
1657F
331
16580
331
16EF1
331
16EF2
331
16EFC
331
16EFD
331
170E2
331
170E3
331
170EC
331
170ED
331
17100
331
17101
331
17114
331
17115
331
17127
331
17128
331
17130
331
17131
331
17139
331
1713A
331
173C2
331
173C3
331
17723
331
17724
331
1772C
331
1772D
331
17735
331
17736
331
1773E
331
1773F
331
17753
331
17754
331
1775C
331
1775D
102
}
  0
BLOCK_RECORD
  5
14EE4
330
7466
100
AcDbSymbolTableRecord
100
AcDbBlockTableRecord
  2
*D1
340
0
  0
BLOCK_RECORD
  5
14EF0
330
7466
100
AcDbSymbolTableRecord
100
AcDbBlockTableRecord
  2
*D2
340
0
  0
BLOCK_RECORD
  5
14EFC
330
7466
100
AcDbSymbolTableRecord
100
AcDbBlockTableRecord
  2
*D3
340
0
  0
BLOCK_RECORD
  5
14F0A
330
7466
100
AcDbSymbolTableRecord
100
AcDbBlockTableRecord
  2
*D4
340
0
  0
BLOCK_RECORD
  5
14F18
330
7466
100
AcDbSymbolTableRecord
100
AcDbBlockTableRecord
  2
*D5
340
0
  0
BLOCK_RECORD
  5
14F3E
330
7466
100
AcDbSymbolTableRecord
100
AcDbBlockTableRecord
  2
*D6
340
0
  0
BLOCK_RECORD
  5
14F4A
330
7466
100
AcDbSymbolTableRecord
100
AcDbBlockTableRecord
  2
*D7
340
0
  0
BLOCK_RECORD
  5
14F70
330
7466
100
AcDbSymbolTableRecord
100
AcDbBlockTableRecord
  2
*D8
340
0
  0
BLOCK_RECORD
  5
15E37
330
7466
100
AcDbSymbolTableRecord
100
AcDbBlockTableRecord
  2
*D9
340
0
  0
BLOCK_RECORD
  5
15E46
330
7466
100
AcDbSymbolTableRecord
100
AcDbBlockTableRecord
  2
*D10
340
0
  0
BLOCK_RECORD
  5
15E54
330
7466
100
AcDbSymbolTableRecord
100
AcDbBlockTableRecord
  2
*D11
340
0
  0
BLOCK_RECORD
  5
15E60
330
7466
100
AcDbSymbolTableRecord
100
AcDbBlockTableRecord
  2
*D12
340
0
  0
BLOCK_RECORD
  5
15E6E
330
7466
100
AcDbSymbolTableRecord
100
AcDbBlockTableRecord
  2
*D13
340
0
  0
BLOCK_RECORD
  5
16CC6
330
7466
100
AcDbSymbolTableRecord
100
AcDbBlockTableRecord
  2
*D14
340
0
  0
BLOCK_RECORD
  5
16CD2
330
7466
100
AcDbSymbolTableRecord
100
AcDbBlockTableRecord
  2
*D15
340
0
  0
BLOCK_RECORD
  5
16CE0
330
7466
100
AcDbSymbolTableRecord
100
AcDbBlockTableRecord
  2
*D16
340
0
  0
BLOCK_RECORD
  5
16CEE
330
7466
100
AcDbSymbolTableRecord
100
AcDbBlockTableRecord
  2
*D17
340
0
  0
BLOCK_RECORD
  5
16F9C
330
7466
100
AcDbSymbolTableRecord
100
AcDbBlockTableRecord
  2
*D18
340
0
  0
BLOCK_RECORD
  5
16FA9
330
7466
100
AcDbSymbolTableRecord
100
AcDbBlockTableRecord
  2
*D19
340
0
  0
BLOCK_RECORD
  5
16FB6
330
7466
100
AcDbSymbolTableRecord
100
AcDbBlockTableRecord
  2
*D20
340
0
  0
BLOCK_RECORD
  5
16FC2
330
7466
100
AcDbSymbolTableRecord
100
AcDbBlockTableRecord
  2
*D21
340
0
  0
BLOCK_RECORD
  5
16FD0
330
7466
100
AcDbSymbolTableRecord
100
AcDbBlockTableRecord
  2
*D22
340
0
  0
BLOCK_RECORD
  5
16FDC
330
7466
100
AcDbSymbolTableRecord
100
AcDbBlockTableRecord
  2
*D23
340
0
  0
BLOCK_RECORD
  5
16FF7
330
7466
100
AcDbSymbolTableRecord
100
AcDbBlockTableRecord
  2
*D24
340
0
  0
BLOCK_RECORD
  5
17003
330
7466
100
AcDbSymbolTableRecord
100
AcDbBlockTableRecord
  2
*D25
340
0
  0
BLOCK_RECORD
  5
1700F
330
7466
100
AcDbSymbolTableRecord
100
AcDbBlockTableRecord
  2
*D26
340
0
  0
BLOCK_RECORD
  5
1733D
330
7466
100
AcDbSymbolTableRecord
100
AcDbBlockTableRecord
  2
*D27
340
0
  0
BLOCK_RECORD
  5
1734A
330
7466
100
AcDbSymbolTableRecord
100
AcDbBlockTableRecord
  2
*D28
340
0
  0
BLOCK_RECORD
  5
17358
330
7466
100
AcDbSymbolTableRecord
100
AcDbBlockTableRecord
  2
*D29
340
0
  0
ENDTAB
  0
ENDSEC
  0
SECTION
  2
BLOCKS
  0
BLOCK
  5
7489
330
747D
100
AcDbEntity
  8
0
100
AcDbBlockBegin
  2
*MODEL_SPACE
 70
     0
 10
0.0
 20
0.0
 30
0.0
  3
*MODEL_SPACE
  1

  0
ENDBLK
  5
748A
330
747D
100
AcDbEntity
  8
0
100
AcDbBlockEnd
  0
BLOCK
  5
7487
330
747A
100
AcDbEntity
 67
     1
  8
0
100
AcDbBlockBegin
  2
*PAPER_SPACE
 70
     0
 10
0.0
 20
0.0
 30
0.0
  3
*PAPER_SPACE
  1

  0
ENDBLK
  5
7488
330
747A
100
AcDbEntity
 67
     1
  8
0
100
AcDbBlockEnd
  0
BLOCK
  5
F771
330
F770
100
AcDbEntity
  8
0
 48
50.0
100
AcDbBlockBegin
  2
_DOTSMALL
 70
     0
 10
0.0
 20
0.0
 30
0.0
  3
_DOTSMALL
  1

  0
LWPOLYLINE
  5
F772
330
F770
100
AcDbEntity
  8
0
  6
ByBlock
 62
     0
 48
50.0
100
AcDbPolyline
 90
        2
 70
     1
 43
0.5
 10
-0.0625
 20
0.0
 42
1.0
 10
0.0625
 20
0.0
 42
1.0
  0
ENDBLK
  5
F776
330
F770
100
AcDbEntity
  8
0
 48
50.0
100
AcDbBlockEnd
  0
BLOCK
  5
161CE
330
14EE4
100
AcDbEntity
  8
0
 48
50.0
100
AcDbBlockBegin
  2
*D1
 70
     1
 10
0.0
 20
0.0
 30
0.0
  3
*D1
  1

  0
LINE
  5
1657C
330
14EE4
100
AcDbEntity
  8
寸法
 62
     0
 48
50.0
370
    -2
100
AcDbLine
 10
7788.461549988447
 20
10452.49742454596
 30
0.0
 11
8840.994837462494
 21
10452.49742454596
 31
0.0
  0
LINE
  5
1657D
330
14EE4
100
AcDbEntity
  8
寸法
 62
     0
 48
50.0
370
    -2
100
AcDbLine
 10
7788.461549988422
 20
6982.497424545956
 30
0.0
 11
8840.994837462494
 21
6982.497424545956
 31
0.0
  0
LINE
  5
1657E
330
14EE4
100
AcDbEntity
  8
寸法
 62
     0
 48
50.0
370
    -2
100
AcDbLine
 10
8780.994837462491
 20
10452.49742454596
 30
0.0
 11
8780.994837462491
 21
6982.497424545956
 31
0.0
  0
INSERT
  5
1657F
330
14EE4
100
AcDbEntity
  8
寸法
 62
     0
 48
50.0
370
    -2
100
AcDbBlockReference
  2
_DOTSMALL
 10
8780.994837462491
 20
10452.49742454596
 30
0.0
 41
100.0
 42
100.0
 43
100.0
 50
90.0
  0
INSERT
  5
16580
330
14EE4
100
AcDbEntity
  8
寸法
 62
     0
 48
50.0
370
    -2
100
AcDbBlockReference
  2
_DOTSMALL
 10
8780.994837462491
 20
6982.497424545956
 30
0.0
 41
100.0
 42
100.0
 43
100.0
 50
270.0
  0
MTEXT
  5
16581
330
14EE4
100
AcDbEntity
  8
寸法
 62
     7
 48
50.0
100
AcDbMText
 10
8680.99483746249
 20
8717.497424545962
 30
0.0
 40
120.0
 41
0.0
 71
     5
 72
     1
  1
\A1;3470
  7
STYLE1
 11
0.0000000000000001
 21
1.0
 31
0.0
 73
     1
 44
1.0
1001
ACAD
1000
MTEXTBEGIN
1070
    73
1070
     1
1070
    44
1040
1.0
1070
    74
1070
     0
1000
MTEXTEND
  0
POINT
  5
16582
330
14EE4
100
AcDbEntity
  8
DEFPOINTS
 62
     0
 48
50.0
100
AcDbPoint
 10
7768.461549988447
 20
10452.49742454596
 30
0.0
  0
POINT
  5
16583
330
14EE4
100
AcDbEntity
  8
DEFPOINTS
 62
     0
 48
50.0
100
AcDbPoint
 10
7768.461549988422
 20
6982.497424545956
 30
0.0
  0
POINT
  5
16584
330
14EE4
100
AcDbEntity
  8
DEFPOINTS
 62
     0
 48
50.0
100
AcDbPoint
 10
8780.994837462491
 20
6982.497424545956
 30
0.0
  0
ENDBLK
  5
161D8
330
14EE4
100
AcDbEntity
  8
0
 48
50.0
100
AcDbBlockEnd
  0
BLOCK
  5
161AD
330
14EF0
100
AcDbEntity
  8
0
 48
50.0
100
AcDbBlockBegin
  2
*D2
 70
     1
 10
0.0
 20
0.0
 30
0.0
  3
*D2
  1

  0
LINE
  5
16573
330
14EF0
100
AcDbEntity
  8
寸法
 62
     0
 48
50.0
370
    -2
100
AcDbLine
 10
4773.461549988446
 20
10472.49742454587
 30
0.0
 11
4773.461549988446
 21
10728.30564417097
 31
0.0
  0
LINE
  5
16574
330
14EF0
100
AcDbEntity
  8
寸法
 62
     0
 48
50.0
370
    -2
100
AcDbLine
 10
7713.461549988448
 20
10472.49742454596
 30
0.0
 11
7713.461549988448
 21
10728.30564417097
 31
0.0
  0
LINE
  5
16575
330
14EF0
100
AcDbEntity
  8
寸法
 62
     0
 48
50.0
370
    -2
100
AcDbLine
 10
4773.461549988446
 20
10668.30564417097
 30
0.0
 11
7713.461549988448
 21
10668.30564417097
 31
0.0
  0
INSERT
  5
16576
330
14EF0
100
AcDbEntity
  8
寸法
 62
     0
 48
50.0
370
    -2
100
AcDbBlockReference
  2
_DOTSMALL
 10
4773.461549988446
 20
10668.30564417097
 30
0.0
 41
100.0
 42
100.0
 43
100.0
 50
180.0
  0
INSERT
  5
16577
330
14EF0
100
AcDbEntity
  8
寸法
 62
     0
 48
50.0
370
    -2
100
AcDbBlockReference
  2
_DOTSMALL
 10
7713.461549988448
 20
10668.30564417097
 30
0.0
 41
100.0
 42
100.0
 43
100.0
  0
MTEXT
  5
16578
330
14EF0
100
AcDbEntity
  8
寸法
 62
     7
 48
50.0
100
AcDbMText
 10
6243.461549988448
 20
10768.31745519459
 30
0.0
 40
120.0
 41
0.0
 71
     5
 72
     1
  1
\A1;7X420=2940
  7
STYLE1
 73
     1
 44
1.0
1001
ACAD
1000
MTEXTBEGIN
1070
    73
1070
     1
1070
    44
1040
1.0
1070
    74
1070
     0
1000
MTEXTEND
  0
POINT
  5
16579
330
14EF0
100
AcDbEntity
  8
DEFPOINTS
 62
     0
 48
50.0
100
AcDbPoint
 10
4773.461549988446
 20
10452.49742454587
 30
0.0
  0
POINT
  5
1657A
330
14EF0
100
AcDbEntity
  8
DEFPOINTS
 62
     0
 48
50.0
100
AcDbPoint
 10
7713.461549988448
 20
10452.49742454596
 30
0.0
  0
POINT
  5
1657B
330
14EF0
100
AcDbEntity
  8
DEFPOINTS
 62
     0
 48
50.0
100
AcDbPoint
 10
7713.461549988448
 20
10668.30564417097
 30
0.0
  0
ENDBLK
  5
161B7
330
14EF0
100
AcDbEntity
  8
0
 48
50.0
100
AcDbBlockEnd
  0
BLOCK
  5
1528E
330
14EFC
100
AcDbEntity
  8
0
 48
50.0
100
AcDbBlockBegin
  2
*D3
 70
     1
 10
0.0
 20
0.0
 30
0.0
  3
*D3
  1

  0
LINE
  5
16568
330
14EFC
100
AcDbEntity
  8
寸法
 62
     0
 48
50.0
370
    -2
100
AcDbLine
 10
7713.461549988448
 20
10472.49742454596
 30
0.0
 11
7713.461549988448
 21
10728.30564417095
 31
0.0
  0
LINE
  5
16569
330
14EFC
100
AcDbEntity
  8
寸法
 62
     0
 48
50.0
370
    -2
100
AcDbLine
 10
7768.461549988447
 20
10472.49742454596
 30
0.0
 11
7768.461549988447
 21
10728.30564417095
 31
0.0
  0
LINE
  5
1656A
330
14EFC
100
AcDbEntity
  8
寸法
 62
     0
 48
50.0
370
    -2
100
AcDbLine
 10
7713.461549988448
 20
10668.30564417095
 30
0.0
 11
7613.461549988447
 21
10668.30564417095
 31
0.0
  0
LINE
  5
1656B
330
14EFC
100
AcDbEntity
  8
寸法
 62
     0
 48
50.0
370
    -2
100
AcDbLine
 10
7768.461549988447
 20
10668.30564417095
 30
0.0
 11
8185.432112736924
 21
10668.30564417095
 31
0.0
  0
LINE
  5
1656C
330
14EFC
100
AcDbEntity
  8
寸法
 62
     0
 48
50.0
370
    -2
100
AcDbLine
 10
7713.461549988448
 20
10668.30564417095
 30
0.0
 11
7768.461549988447
 21
10668.30564417095
 31
0.0
  0
INSERT
  5
1656D
330
14EFC
100
AcDbEntity
  8
寸法
 62
     0
 48
50.0
370
    -2
100
AcDbBlockReference
  2
_DOTSMALL
 10
7713.461549988448
 20
10668.30564417095
 30
0.0
 41
100.0
 42
100.0
 43
100.0
  0
INSERT
  5
1656E
330
14EFC
100
AcDbEntity
  8
寸法
 62
     0
 48
50.0
370
    -2
100
AcDbBlockReference
  2
_DOTSMALL
 10
7768.461549988447
 20
10668.30564417095
 30
0.0
 41
100.0
 42
100.0
 43
100.0
 50
180.0
  0
MTEXT
  5
1656F
330
14EFC
100
AcDbEntity
  8
寸法
 62
     7
 48
50.0
100
AcDbMText
 10
8076.946831362686
 20
10768.30564417095
 30
0.0
 40
120.0
 41
0.0
 71
     5
 72
     1
  1
\A1;55
  7
STYLE1
 73
     1
 44
1.0
1001
ACAD
1000
MTEXTBEGIN
1070
    73
1070
     1
1070
    44
1040
1.0
1070
    74
1070
     0
1000
MTEXTEND
  0
POINT
  5
16570
330
14EFC
100
AcDbEntity
  8
DEFPOINTS
 62
     0
 48
50.0
100
AcDbPoint
 10
7713.461549988448
 20
10452.49742454596
 30
0.0
  0
POINT
  5
16571
330
14EFC
100
AcDbEntity
  8
DEFPOINTS
 62
     0
 48
50.0
100
AcDbPoint
 10
7768.461549988447
 20
10452.49742454596
 30
0.0
  0
POINT
  5
16572
330
14EFC
100
AcDbEntity
  8
DEFPOINTS
 62
     0
 48
50.0
100
AcDbPoint
 10
7768.461549988447
 20
10668.30564417095
 30
0.0
  0
ENDBLK
  5
1529A
330
14EFC
100
AcDbEntity
  8
0
 48
50.0
100
AcDbBlockEnd
  0
BLOCK
  5
1529B
330
14F0A
100
AcDbEntity
  8
0
 48
50.0
100
AcDbBlockBegin
  2
*D4
 70
     1
 10
0.0
 20
0.0
 30
0.0
  3
*D4
  1

  0
LINE
  5
1655D
330
14F0A
100
AcDbEntity
  8
寸法
 62
     0
 48
50.0
370
    -2
100
AcDbLine
 10
7788.461549988447
 20
10452.49742454596
 30
0.0
 11
8475.887895722859
 21
10452.49742454596
 31
0.0
  0
LINE
  5
1655E
330
14F0A
100
AcDbEntity
  8
寸法
 62
     0
 48
50.0
370
    -2
100
AcDbLine
 10
7788.461549988447
 20
10397.49742454596
 30
0.0
 11
8475.887895722859
 21
10397.49742454596
 31
0.0
  0
LINE
  5
1655F
330
14F0A
100
AcDbEntity
  8
寸法
 62
     0
 48
50.0
370
    -2
100
AcDbLine
 10
8415.887895722859
 20
10397.49742454596
 30
0.0
 11
8415.887895722859
 21
10297.49742454596
 31
0.0
  0
LINE
  5
16560
330
14F0A
100
AcDbEntity
  8
寸法
 62
     0
 48
50.0
370
    -2
100
AcDbLine
 10
8415.887895722859
 20
10452.49742454596
 30
0.0
 11
8415.887895722859
 21
10869.46798729444
 31
0.0
  0
LINE
  5
16561
330
14F0A
100
AcDbEntity
  8
寸法
 62
     0
 48
50.0
370
    -2
100
AcDbLine
 10
8415.887895722859
 20
10397.49742454596
 30
0.0
 11
8415.887895722859
 21
10452.49742454596
 31
0.0
  0
INSERT
  5
16562
330
14F0A
100
AcDbEntity
  8
寸法
 62
     0
 48
50.0
370
    -2
100
AcDbBlockReference
  2
_DOTSMALL
 10
8415.887895722859
 20
10397.49742454596
 30
0.0
 41
100.0
 42
100.0
 43
100.0
 50
90.0
  0
INSERT
  5
16563
330
14F0A
100
AcDbEntity
  8
寸法
 62
     0
 48
50.0
370
    -2
100
AcDbBlockReference
  2
_DOTSMALL
 10
8415.887895722859
 20
10452.49742454596
 30
0.0
 41
100.0
 42
100.0
 43
100.0
 50
270.0
  0
MTEXT
  5
16564
330
14F0A
100
AcDbEntity
  8
寸法
 62
     7
 48
50.0
100
AcDbMText
 10
8315.887895722857
 20
10760.9827059202
 30
0.0
 40
120.0
 41
0.0
 71
     5
 72
     1
  1
\A1;55
  7
STYLE1
 11
0.0000000000000001
 21
1.0
 31
0.0
 73
     1
 44
1.0
1001
ACAD
1000
MTEXTBEGIN
1070
    73
1070
     1
1070
    44
1040
1.0
1070
    74
1070
     0
1000
MTEXTEND
  0
POINT
  5
16565
330
14F0A
100
AcDbEntity
  8
DEFPOINTS
 62
     0
 48
50.0
100
AcDbPoint
 10
7768.461549988447
 20
10452.49742454596
 30
0.0
  0
POINT
  5
16566
330
14F0A
100
AcDbEntity
  8
DEFPOINTS
 62
     0
 48
50.0
100
AcDbPoint
 10
7768.461549988447
 20
10397.49742454596
 30
0.0
  0
POINT
  5
16567
330
14F0A
100
AcDbEntity
  8
DEFPOINTS
 62
     0
 48
50.0
100
AcDbPoint
 10
8415.887895722859
 20
10397.49742454596
 30
0.0
  0
ENDBLK
  5
152A7
330
14F0A
100
AcDbEntity
  8
0
 48
50.0
100
AcDbBlockEnd
  0
BLOCK
  5
152A8
330
14F18
100
AcDbEntity
  8
0
 48
50.0
100
AcDbBlockBegin
  2
*D5
 70
     1
 10
0.0
 20
0.0
 30
0.0
  3
*D5
  1

  0
LINE
  5
16552
330
14F18
100
AcDbEntity
  8
寸法
 62
     0
 48
50.0
370
    -2
100
AcDbLine
 10
4718.461549988412
 20
10472.49742454587
 30
0.0
 11
4718.461549988412
 21
10728.30564417085
 31
0.0
  0
LINE
  5
16553
330
14F18
100
AcDbEntity
  8
寸法
 62
     0
 48
50.0
370
    -2
100
AcDbLine
 10
4773.461549988446
 20
10472.49742454587
 30
0.0
 11
4773.461549988446
 21
10728.30564417085
 31
0.0
  0
LINE
  5
16554
330
14F18
100
AcDbEntity
  8
寸法
 62
     0
 48
50.0
370
    -2
100
AcDbLine
 10
4773.461549988446
 20
10668.30564417085
 30
0.0
 11
4873.461549988447
 21
10668.30564417085
 31
0.0
  0
LINE
  5
16555
330
14F18
100
AcDbEntity
  8
寸法
 62
     0
 48
50.0
370
    -2
100
AcDbLine
 10
4718.461549988412
 20
10668.30564417085
 30
0.0
 11
4301.490987239935
 21
10668.30564417085
 31
0.0
  0
LINE
  5
16556
330
14F18
100
AcDbEntity
  8
寸法
 62
     0
 48
50.0
370
    -2
100
AcDbLine
 10
4773.461549988446
 20
10668.30564417085
 30
0.0
 11
4718.461549988412
 21
10668.30564417085
 31
0.0
  0
INSERT
  5
16557
330
14F18
100
AcDbEntity
  8
寸法
 62
     0
 48
50.0
370
    -2
100
AcDbBlockReference
  2
_DOTSMALL
 10
4773.461549988446
 20
10668.30564417085
 30
0.0
 41
100.0
 42
100.0
 43
100.0
 50
180.0
  0
INSERT
  5
16558
330
14F18
100
AcDbEntity
  8
寸法
 62
     0
 48
50.0
370
    -2
100
AcDbBlockReference
  2
_DOTSMALL
 10
4718.461549988412
 20
10668.30564417085
 30
0.0
 41
100.0
 42
100.0
 43
100.0
  0
MTEXT
  5
16559
330
14F18
100
AcDbEntity
  8
寸法
 62
     7
 48
50.0
100
AcDbMText
 10
4409.976268614173
 20
10768.30564417085
 30
0.0
 40
120.0
 41
0.0
 71
     5
 72
     1
  1
\A1;55
  7
STYLE1
 73
     1
 44
1.0
1001
ACAD
1000
MTEXTBEGIN
1070
    73
1070
     1
1070
    44
1040
1.0
1070
    74
1070
     0
1000
MTEXTEND
  0
POINT
  5
1655A
330
14F18
100
AcDbEntity
  8
DEFPOINTS
 62
     0
 48
50.0
100
AcDbPoint
 10
4718.461549988412
 20
10452.49742454587
 30
0.0
  0
POINT
  5
1655B
330
14F18
100
AcDbEntity
  8
DEFPOINTS
 62
     0
 48
50.0
100
AcDbPoint
 10
4773.461549988446
 20
10452.49742454587
 30
0.0
  0
POINT
  5
1655C
330
14F18
100
AcDbEntity
  8
DEFPOINTS
 62
     0
 48
50.0
100
AcDbPoint
 10
4773.461549988446
 20
10668.30564417085
 30
0.0
  0
ENDBLK
  5
152B4
330
14F18
100
AcDbEntity
  8
0
 48
50.0
100
AcDbBlockEnd
  0
BLOCK
  5
161E3
330
14F3E
100
AcDbEntity
  8
0
 48
50.0
100
AcDbBlockBegin
  2
*D6
 70
     1
 10
0.0
 20
0.0
 30
0.0
  3
*D6
  1

  0
LINE
  5
16549
330
14F3E
100
AcDbEntity
  8
寸法
 62
     0
 48
50.0
370
    -2
100
AcDbLine
 10
4718.46154998844
 20
6962.497424545792
 30
0.0
 11
4718.46154998844
 21
6101.893658188827
 31
0.0
  0
LINE
  5
1654A
330
14F3E
100
AcDbEntity
  8
寸法
 62
     0
 48
50.0
370
    -2
100
AcDbLine
 10
7768.461549988422
 20
6962.49742454592
 30
0.0
 11
7768.461549988422
 21
6101.893658188827
 31
0.0
  0
LINE
  5
1654B
330
14F3E
100
AcDbEntity
  8
寸法
 62
     0
 48
50.0
370
    -2
100
AcDbLine
 10
4718.46154998844
 20
6161.893658188827
 30
0.0
 11
7768.461549988422
 21
6161.893658188827
 31
0.0
  0
INSERT
  5
1654C
330
14F3E
100
AcDbEntity
  8
寸法
 62
     0
 48
50.0
370
    -2
100
AcDbBlockReference
  2
_DOTSMALL
 10
4718.46154998844
 20
6161.893658188827
 30
0.0
 41
100.0
 42
100.0
 43
100.0
 50
180.0
  0
INSERT
  5
1654D
330
14F3E
100
AcDbEntity
  8
寸法
 62
     0
 48
50.0
370
    -2
100
AcDbBlockReference
  2
_DOTSMALL
 10
7768.461549988422
 20
6161.893658188827
 30
0.0
 41
100.0
 42
100.0
 43
100.0
  0
MTEXT
  5
1654E
330
14F3E
100
AcDbEntity
  8
寸法
 62
     7
 48
50.0
100
AcDbMText
 10
6243.461549988431
 20
6261.893658188826
 30
0.0
 40
120.0
 41
0.0
 71
     5
 72
     1
  1
\A1;3050
  7
STYLE1
 73
     1
 44
1.0
1001
ACAD
1000
MTEXTBEGIN
1070
    73
1070
     1
1070
    44
1040
1.0
1070
    74
1070
     0
1000
MTEXTEND
  0
POINT
  5
1654F
330
14F3E
100
AcDbEntity
  8
DEFPOINTS
 62
     0
 48
50.0
100
AcDbPoint
 10
4718.46154998844
 20
6982.497424545792
 30
0.0
  0
POINT
  5
16550
330
14F3E
100
AcDbEntity
  8
DEFPOINTS
 62
     0
 48
50.0
100
AcDbPoint
 10
7768.461549988422
 20
6982.49742454592
 30
0.0
  0
POINT
  5
16551
330
14F3E
100
AcDbEntity
  8
DEFPOINTS
 62
     0
 48
50.0
100
AcDbPoint
 10
7768.461549988422
 20
6161.893658188827
 30
0.0
  0
ENDBLK
  5
161ED
330
14F3E
100
AcDbEntity
  8
0
 48
50.0
100
AcDbBlockEnd
  0
BLOCK
  5
152D6
330
14F4A
100
AcDbEntity
  8
0
 48
50.0
100
AcDbBlockBegin
  2
*D7
 70
     1
 10
0.0
 20
0.0
 30
0.0
  3
*D7
  1

  0
LINE
  5
1653E
330
14F4A
100
AcDbEntity
  8
寸法
 62
     0
 48
50.0
370
    -2
100
AcDbLine
 10
7788.461549988422
 20
7037.497424545953
 30
0.0
 11
8475.887895722832
 21
7037.497424545953
 31
0.0
  0
LINE
  5
1653F
330
14F4A
100
AcDbEntity
  8
寸法
 62
     0
 48
50.0
370
    -2
100
AcDbLine
 10
7788.461549988422
 20
6982.497424545956
 30
0.0
 11
8475.887895722832
 21
6982.497424545956
 31
0.0
  0
LINE
  5
16540
330
14F4A
100
AcDbEntity
  8
寸法
 62
     0
 48
50.0
370
    -2
100
AcDbLine
 10
8415.887895722834
 20
7037.497424545953
 30
0.0
 11
8415.887895722834
 21
7137.497424545952
 31
0.0
  0
LINE
  5
16541
330
14F4A
100
AcDbEntity
  8
寸法
 62
     0
 48
50.0
370
    -2
100
AcDbLine
 10
8415.887895722834
 20
6982.497424545956
 30
0.0
 11
8415.887895722834
 21
6496.150676266855
 31
0.0
  0
LINE
  5
16542
330
14F4A
100
AcDbEntity
  8
寸法
 62
     0
 48
50.0
370
    -2
100
AcDbLine
 10
8415.887895722834
 20
7037.497424545953
 30
0.0
 11
8415.887895722834
 21
6982.497424545956
 31
0.0
  0
INSERT
  5
16543
330
14F4A
100
AcDbEntity
  8
寸法
 62
     0
 48
50.0
370
    -2
100
AcDbBlockReference
  2
_DOTSMALL
 10
8415.887895722834
 20
7037.497424545953
 30
0.0
 41
100.0
 42
100.0
 43
100.0
 50
270.0
  0
INSERT
  5
16544
330
14F4A
100
AcDbEntity
  8
寸法
 62
     0
 48
50.0
370
    -2
100
AcDbBlockReference
  2
_DOTSMALL
 10
8415.887895722834
 20
6982.497424545956
 30
0.0
 41
100.0
 42
100.0
 43
100.0
 50
90.0
  0
MTEXT
  5
16545
330
14F4A
100
AcDbEntity
  8
寸法
 62
     7
 48
50.0
100
AcDbMText
 10
8315.887895722832
 20
6604.635957641093
 30
0.0
 40
120.0
 41
0.0
 71
     5
 72
     1
  1
\A1;55
  7
STYLE1
 11
0.0000000000000001
 21
1.0
 31
0.0
 73
     1
 44
1.0
1001
ACAD
1000
MTEXTBEGIN
1070
    73
1070
     1
1070
    44
1040
1.0
1070
    74
1070
     0
1000
MTEXTEND
  0
POINT
  5
16546
330
14F4A
100
AcDbEntity
  8
DEFPOINTS
 62
     0
 48
50.0
100
AcDbPoint
 10
7768.461549988422
 20
7037.497424545953
 30
0.0
  0
POINT
  5
16547
330
14F4A
100
AcDbEntity
  8
DEFPOINTS
 62
     0
 48
50.0
100
AcDbPoint
 10
7768.461549988422
 20
6982.497424545956
 30
0.0
  0
POINT
  5
16548
330
14F4A
100
AcDbEntity
  8
DEFPOINTS
 62
     0
 48
50.0
100
AcDbPoint
 10
8415.887895722834
 20
6982.497424545956
 30
0.0
  0
ENDBLK
  5
152E2
330
14F4A
100
AcDbEntity
  8
0
 48
50.0
100
AcDbBlockEnd
  0
BLOCK
  5
161C3
330
14F70
100
AcDbEntity
  8
0
 48
50.0
100
AcDbBlockBegin
  2
*D8
 70
     1
 10
0.0
 20
0.0
 30
0.0
  3
*D8
  1

  0
LINE
  5
16535
330
14F70
100
AcDbEntity
  8
寸法
 62
     0
 48
50.0
370
    -2
100
AcDbLine
 10
7788.461549988447
 20
10397.49742454596
 30
0.0
 11
8475.887895722856
 21
10397.49742454596
 31
0.0
  0
LINE
  5
16536
330
14F70
100
AcDbEntity
  8
寸法
 62
     0
 48
50.0
370
    -2
100
AcDbLine
 10
7788.461549988422
 20
7037.497424545953
 30
0.0
 11
8475.887895722856
 21
7037.497424545953
 31
0.0
  0
LINE
  5
16537
330
14F70
100
AcDbEntity
  8
寸法
 62
     0
 48
50.0
370
    -2
100
AcDbLine
 10
8415.887895722855
 20
10397.49742454596
 30
0.0
 11
8415.887895722855
 21
7037.497424545953
 31
0.0
  0
INSERT
  5
16538
330
14F70
100
AcDbEntity
  8
寸法
 62
     0
 48
50.0
370
    -2
100
AcDbBlockReference
  2
_DOTSMALL
 10
8415.887895722855
 20
10397.49742454596
 30
0.0
 41
100.0
 42
100.0
 43
100.0
 50
90.0
  0
INSERT
  5
16539
330
14F70
100
AcDbEntity
  8
寸法
 62
     0
 48
50.0
370
    -2
100
AcDbBlockReference
  2
_DOTSMALL
 10
8415.887895722855
 20
7037.497424545953
 30
0.0
 41
100.0
 42
100.0
 43
100.0
 50
270.0
  0
MTEXT
  5
1653A
330
14F70
100
AcDbEntity
  8
寸法
 62
     7
 48
50.0
100
AcDbMText
 10
8315.876084699231
 20
8717.497424545962
 30
0.0
 40
120.0
 41
0.0
 71
     5
 72
     1
  1
\A1;8X420=3360
  7
STYLE1
 11
0.0000000000000001
 21
1.0
 31
0.0
 73
     1
 44
1.0
1001
ACAD
1000
MTEXTBEGIN
1070
    73
1070
     1
1070
    44
1040
1.0
1070
    74
1070
     0
1000
MTEXTEND
  0
POINT
  5
1653B
330
14F70
100
AcDbEntity
  8
DEFPOINTS
 62
     0
 48
50.0
100
AcDbPoint
 10
7768.461549988447
 20
10397.49742454596
 30
0.0
  0
POINT
  5
1653C
330
14F70
100
AcDbEntity
  8
DEFPOINTS
 62
     0
 48
50.0
100
AcDbPoint
 10
7768.461549988422
 20
7037.497424545953
 30
0.0
  0
POINT
  5
1653D
330
14F70
100
AcDbEntity
  8
DEFPOINTS
 62
     0
 48
50.0
100
AcDbPoint
 10
8415.887895722855
 20
7037.497424545953
 30
0.0
  0
ENDBLK
  5
161CD
330
14F70
100
AcDbEntity
  8
0
 48
50.0
100
AcDbBlockEnd
  0
BLOCK
  5
1601B
330
15E37
100
AcDbEntity
  8
0
 48
50.0
100
AcDbBlockBegin
  2
*D9
 70
     1
 10
0.0
 20
0.0
 30
0.0
  3
*D9
  1

  0
LINE
  5
16503
330
15E37
100
AcDbEntity
  8
寸法
 62
     0
 48
50.0
370
    -2
100
AcDbLine
 10
7768.461549988422
 20
6962.497424545957
 30
0.0
 11
7768.461549988422
 21
6388.066653779702
 31
0.0
  0
LINE
  5
16504
330
15E37
100
AcDbEntity
  8
寸法
 62
     0
 48
50.0
370
    -2
100
AcDbLine
 10
7713.461549988425
 20
6962.497424545952
 30
0.0
 11
7713.461549988425
 21
6388.066653779702
 31
0.0
  0
LINE
  5
16505
330
15E37
100
AcDbEntity
  8
寸法
 62
     0
 48
50.0
370
    -2
100
AcDbLine
 10
7713.461549988425
 20
6448.066653779702
 30
0.0
 11
7613.461549988425
 21
6448.066653779702
 31
0.0
  0
LINE
  5
16506
330
15E37
100
AcDbEntity
  8
寸法
 62
     0
 48
50.0
370
    -2
100
AcDbLine
 10
7768.461549988422
 20
6448.066653779702
 30
0.0
 11
8185.432112736899
 21
6448.066653779702
 31
0.0
  0
LINE
  5
16507
330
15E37
100
AcDbEntity
  8
寸法
 62
     0
 48
50.0
370
    -2
100
AcDbLine
 10
7713.461549988425
 20
6448.066653779702
 30
0.0
 11
7768.461549988422
 21
6448.066653779702
 31
0.0
  0
INSERT
  5
16508
330
15E37
100
AcDbEntity
  8
寸法
 62
     0
 48
50.0
370
    -2
100
AcDbBlockReference
  2
_DOTSMALL
 10
7713.461549988425
 20
6448.066653779702
 30
0.0
 41
100.0
 42
100.0
 43
100.0
  0
INSERT
  5
16509
330
15E37
100
AcDbEntity
  8
寸法
 62
     0
 48
50.0
370
    -2
100
AcDbBlockReference
  2
_DOTSMALL
 10
7768.461549988422
 20
6448.066653779702
 30
0.0
 41
100.0
 42
100.0
 43
100.0
 50
180.0
  0
MTEXT
  5
1650A
330
15E37
100
AcDbEntity
  8
寸法
 62
     7
 48
50.0
100
AcDbMText
 10
8076.94683136266
 20
6548.066653779702
 30
0.0
 40
120.0
 41
0.0
 71
     5
 72
     1
  1
\A1;55
  7
STYLE1
 73
     1
 44
1.0
1001
ACAD
1000
MTEXTBEGIN
1070
    73
1070
     1
1070
    44
1040
1.0
1070
    74
1070
     0
1000
MTEXTEND
  0
POINT
  5
1650B
330
15E37
100
AcDbEntity
  8
DEFPOINTS
 62
     0
 48
50.0
100
AcDbPoint
 10
7768.461549988422
 20
6982.497424545956
 30
0.0
  0
POINT
  5
1650C
330
15E37
100
AcDbEntity
  8
DEFPOINTS
 62
     0
 48
50.0
100
AcDbPoint
 10
7713.461549988425
 20
6982.497424545953
 30
0.0
  0
POINT
  5
1650D
330
15E37
100
AcDbEntity
  8
DEFPOINTS
 62
     0
 48
50.0
100
AcDbPoint
 10
7713.461549988425
 20
6448.066653779702
 30
0.0
  0
ENDBLK
  5
16027
330
15E37
100
AcDbEntity
  8
0
 48
50.0
100
AcDbBlockEnd
  0
BLOCK
  5
1600D
330
15E46
100
AcDbEntity
  8
0
 48
50.0
100
AcDbBlockBegin
  2
*D10
 70
     1
 10
0.0
 20
0.0
 30
0.0
  3
*D10
  1

  0
LINE
  5
164F8
330
15E46
100
AcDbEntity
  8
寸法
 62
     0
 48
50.0
370
    -2
100
AcDbLine
 10
7713.461549988425
 20
6962.497424545952
 30
0.0
 11
7713.461549988425
 21
6388.0666537797
 31
0.0
  0
LINE
  5
164F9
330
15E46
100
AcDbEntity
  8
寸法
 62
     0
 48
50.0
370
    -2
100
AcDbLine
 10
7665.461549988423
 20
6988.497424545865
 30
0.0
 11
7665.461549988423
 21
6388.0666537797
 31
0.0
  0
LINE
  5
164FA
330
15E46
100
AcDbEntity
  8
寸法
 62
     0
 48
50.0
370
    -2
100
AcDbLine
 10
7713.461549988425
 20
6448.066653779701
 30
0.0
 11
7813.461549988424
 21
6448.066653779701
 31
0.0
  0
LINE
  5
164FB
330
15E46
100
AcDbEntity
  8
寸法
 62
     0
 48
50.0
370
    -2
100
AcDbLine
 10
7665.461549988423
 20
6448.066653779701
 30
0.0
 11
7565.461549988423
 21
6448.066653779701
 31
0.0
  0
MTEXT
  5
164FC
330
15E46
100
AcDbEntity
  8
寸法
 62
     7
 48
50.0
100
AcDbMText
 10
7554.498652339674
 20
6548.0666537797
 30
0.0
 40
120.0
 41
0.0
 71
     5
 72
     1
  1
\A1;48
  7
STYLE1
 73
     1
 44
1.0
1001
ACAD
1000
MTEXTBEGIN
1070
    73
1070
     1
1070
    44
1040
1.0
1070
    74
1070
     0
1000
MTEXTEND
  0
LINE
  5
164FD
330
15E46
100
AcDbEntity
  8
寸法
 62
     0
 48
50.0
370
    -2
100
AcDbLine
 10
7713.461549988425
 20
6448.066653779701
 30
0.0
 11
7665.461549988423
 21
6448.066653779701
 31
0.0
  0
INSERT
  5
164FE
330
15E46
100
AcDbEntity
  8
寸法
 62
     0
 48
50.0
370
    -2
100
AcDbBlockReference
  2
_DOTSMALL
 10
7713.461549988425
 20
6448.066653779701
 30
0.0
 41
100.0
 42
100.0
 43
100.0
 50
180.0
  0
INSERT
  5
164FF
330
15E46
100
AcDbEntity
  8
寸法
 62
     0
 48
50.0
370
    -2
100
AcDbBlockReference
  2
_DOTSMALL
 10
7665.461549988423
 20
6448.066653779701
 30
0.0
 41
100.0
 42
100.0
 43
100.0
  0
POINT
  5
16500
330
15E46
100
AcDbEntity
  8
DEFPOINTS
 62
     0
 48
50.0
100
AcDbPoint
 10
7713.461549988425
 20
6982.497424545953
 30
0.0
  0
POINT
  5
16501
330
15E46
100
AcDbEntity
  8
DEFPOINTS
 62
     0
 48
50.0
100
AcDbPoint
 10
7665.461549988423
 20
7008.497424545865
 30
0.0
  0
POINT
  5
16502
330
15E46
100
AcDbEntity
  8
DEFPOINTS
 62
     0
 48
50.0
100
AcDbPoint
 10
7665.461549988423
 20
6448.066653779701
 30
0.0
  0
ENDBLK
  5
1601A
330
15E46
100
AcDbEntity
  8
0
 48
50.0
100
AcDbBlockEnd
  0
BLOCK
  5
16296
330
15E54
100
AcDbEntity
  8
0
 48
50.0
100
AcDbBlockBegin
  2
*D11
 70
     1
 10
0.0
 20
0.0
 30
0.0
  3
*D11
  1

  0
LINE
  5
164F0
330
15E54
100
AcDbEntity
  8
寸法
 62
     0
 48
50.0
370
    -2
100
AcDbLine
 10
4821.46154998844
 20
6988.497424545865
 30
0.0
 11
4821.46154998844
 21
6388.0666537797
 31
0.0
  0
LINE
  5
164F1
330
15E54
100
AcDbEntity
  8
寸法
 62
     0
 48
50.0
370
    -2
100
AcDbLine
 10
7665.461549988423
 20
6448.066653779701
 30
0.0
 11
4821.46154998844
 21
6448.066653779701
 31
0.0
  0
INSERT
  5
164F2
330
15E54
100
AcDbEntity
  8
寸法
 62
     0
 48
50.0
370
    -2
100
AcDbBlockReference
  2
_DOTSMALL
 10
7665.461549988423
 20
6448.066653779701
 30
0.0
 41
100.0
 42
100.0
 43
100.0
  0
INSERT
  5
164F3
330
15E54
100
AcDbEntity
  8
寸法
 62
     0
 48
50.0
370
    -2
100
AcDbBlockReference
  2
_DOTSMALL
 10
4821.46154998844
 20
6448.066653779701
 30
0.0
 41
100.0
 42
100.0
 43
100.0
 50
180.0
  0
MTEXT
  5
164F4
330
15E54
100
AcDbEntity
  8
寸法
 62
     7
 48
50.0
100
AcDbMText
 10
6243.461549988431
 20
6548.078464803322
 30
0.0
 40
120.0
 41
0.0
 71
     5
 72
     1
  1
\A1;有効開口部間口 2844
  7
STYLE1
 73
     1
 44
1.0
1001
ACAD
1000
MTEXTBEGIN
1070
    73
1070
     1
1070
    44
1040
1.0
1070
    74
1070
     0
1000
MTEXTEND
  0
POINT
  5
164F5
330
15E54
100
AcDbEntity
  8
DEFPOINTS
 62
     0
 48
50.0
100
AcDbPoint
 10
7665.461549988423
 20
7008.497424545865
 30
0.0
  0
POINT
  5
164F6
330
15E54
100
AcDbEntity
  8
DEFPOINTS
 62
     0
 48
50.0
100
AcDbPoint
 10
4821.46154998844
 20
7008.497424545864
 30
0.0
  0
POINT
  5
164F7
330
15E54
100
AcDbEntity
  8
DEFPOINTS
 62
     0
 48
50.0
100
AcDbPoint
 10
4821.46154998844
 20
6448.066653779701
 30
0.0
  0
ENDBLK
  5
1629F
330
15E54
100
AcDbEntity
  8
0
 48
50.0
100
AcDbBlockEnd
  0
BLOCK
  5
15FE7
330
15E60
100
AcDbEntity
  8
0
 48
50.0
100
AcDbBlockBegin
  2
*D12
 70
     1
 10
0.0
 20
0.0
 30
0.0
  3
*D12
  1

  0
LINE
  5
164E5
330
15E60
100
AcDbEntity
  8
寸法
 62
     0
 48
50.0
370
    -2
100
AcDbLine
 10
4821.46154998844
 20
6988.497424545865
 30
0.0
 11
4821.46154998844
 21
6388.0666537797
 31
0.0
  0
LINE
  5
164E6
330
15E60
100
AcDbEntity
  8
寸法
 62
     0
 48
50.0
370
    -2
100
AcDbLine
 10
4773.461549988437
 20
6962.497424545865
 30
0.0
 11
4773.461549988437
 21
6388.0666537797
 31
0.0
  0
LINE
  5
164E7
330
15E60
100
AcDbEntity
  8
寸法
 62
     0
 48
50.0
370
    -2
100
AcDbLine
 10
4821.46154998844
 20
6448.066653779701
 30
0.0
 11
4921.46154998844
 21
6448.066653779701
 31
0.0
  0
LINE
  5
164E8
330
15E60
100
AcDbEntity
  8
寸法
 62
     0
 48
50.0
370
    -2
100
AcDbLine
 10
4773.461549988437
 20
6448.066653779701
 30
0.0
 11
4673.461549988437
 21
6448.066653779701
 31
0.0
  0
MTEXT
  5
164E9
330
15E60
100
AcDbEntity
  8
寸法
 62
     7
 48
50.0
100
AcDbMText
 10
4934.363520988497
 20
6548.0666537797
 30
0.0
 40
120.0
 41
0.0
 71
     5
 72
     1
  1
\A1;48
  7
STYLE1
 73
     1
 44
1.0
1001
ACAD
1000
MTEXTBEGIN
1070
    73
1070
     1
1070
    44
1040
1.0
1070
    74
1070
     0
1000
MTEXTEND
  0
LINE
  5
164EA
330
15E60
100
AcDbEntity
  8
寸法
 62
     0
 48
50.0
370
    -2
100
AcDbLine
 10
4821.46154998844
 20
6448.066653779701
 30
0.0
 11
4773.461549988437
 21
6448.066653779701
 31
0.0
  0
INSERT
  5
164EB
330
15E60
100
AcDbEntity
  8
寸法
 62
     0
 48
50.0
370
    -2
100
AcDbBlockReference
  2
_DOTSMALL
 10
4821.46154998844
 20
6448.066653779701
 30
0.0
 41
100.0
 42
100.0
 43
100.0
 50
180.0
  0
INSERT
  5
164EC
330
15E60
100
AcDbEntity
  8
寸法
 62
     0
 48
50.0
370
    -2
100
AcDbBlockReference
  2
_DOTSMALL
 10
4773.461549988437
 20
6448.066653779701
 30
0.0
 41
100.0
 42
100.0
 43
100.0
  0
POINT
  5
164ED
330
15E60
100
AcDbEntity
  8
DEFPOINTS
 62
     0
 48
50.0
100
AcDbPoint
 10
4821.46154998844
 20
7008.497424545864
 30
0.0
  0
POINT
  5
164EE
330
15E60
100
AcDbEntity
  8
DEFPOINTS
 62
     0
 48
50.0
100
AcDbPoint
 10
4773.461549988437
 20
6982.497424545865
 30
0.0
  0
POINT
  5
164EF
330
15E60
100
AcDbEntity
  8
DEFPOINTS
 62
     0
 48
50.0
100
AcDbPoint
 10
4773.461549988437
 20
6448.066653779701
 30
0.0
  0
ENDBLK
  5
15FF4
330
15E60
100
AcDbEntity
  8
0
 48
50.0
100
AcDbBlockEnd
  0
BLOCK
  5
15FF5
330
15E6E
100
AcDbEntity
  8
0
 48
50.0
100
AcDbBlockBegin
  2
*D13
 70
     1
 10
0.0
 20
0.0
 30
0.0
  3
*D13
  1

  0
LINE
  5
164DA
330
15E6E
100
AcDbEntity
  8
寸法
 62
     0
 48
50.0
370
    -2
100
AcDbLine
 10
4773.461549988437
 20
6962.497424545865
 30
0.0
 11
4773.461549988437
 21
6388.0666537797
 31
0.0
  0
LINE
  5
164DB
330
15E6E
100
AcDbEntity
  8
寸法
 62
     0
 48
50.0
370
    -2
100
AcDbLine
 10
4718.46154998844
 20
6962.497424545862
 30
0.0
 11
4718.46154998844
 21
6388.0666537797
 31
0.0
  0
LINE
  5
164DC
330
15E6E
100
AcDbEntity
  8
寸法
 62
     0
 48
50.0
370
    -2
100
AcDbLine
 10
4773.461549988437
 20
6448.066653779701
 30
0.0
 11
4873.461549988437
 21
6448.066653779701
 31
0.0
  0
LINE
  5
164DD
330
15E6E
100
AcDbEntity
  8
寸法
 62
     0
 48
50.0
370
    -2
100
AcDbLine
 10
4718.46154998844
 20
6448.066653779701
 30
0.0
 11
4301.490987239963
 21
6448.066653779701
 31
0.0
  0
LINE
  5
164DE
330
15E6E
100
AcDbEntity
  8
寸法
 62
     0
 48
50.0
370
    -2
100
AcDbLine
 10
4773.461549988437
 20
6448.066653779701
 30
0.0
 11
4718.46154998844
 21
6448.066653779701
 31
0.0
  0
INSERT
  5
164DF
330
15E6E
100
AcDbEntity
  8
寸法
 62
     0
 48
50.0
370
    -2
100
AcDbBlockReference
  2
_DOTSMALL
 10
4773.461549988437
 20
6448.066653779701
 30
0.0
 41
100.0
 42
100.0
 43
100.0
 50
180.0
  0
INSERT
  5
164E0
330
15E6E
100
AcDbEntity
  8
寸法
 62
     0
 48
50.0
370
    -2
100
AcDbBlockReference
  2
_DOTSMALL
 10
4718.46154998844
 20
6448.066653779701
 30
0.0
 41
100.0
 42
100.0
 43
100.0
  0
MTEXT
  5
164E1
330
15E6E
100
AcDbEntity
  8
寸法
 62
     7
 48
50.0
100
AcDbMText
 10
4409.976268614202
 20
6548.0666537797
 30
0.0
 40
120.0
 41
0.0
 71
     5
 72
     1
  1
\A1;55
  7
STYLE1
 73
     1
 44
1.0
1001
ACAD
1000
MTEXTBEGIN
1070
    73
1070
     1
1070
    44
1040
1.0
1070
    74
1070
     0
1000
MTEXTEND
  0
POINT
  5
164E2
330
15E6E
100
AcDbEntity
  8
DEFPOINTS
 62
     0
 48
50.0
100
AcDbPoint
 10
4773.461549988437
 20
6982.497424545865
 30
0.0
  0
POINT
  5
164E3
330
15E6E
100
AcDbEntity
  8
DEFPOINTS
 62
     0
 48
50.0
100
AcDbPoint
 10
4718.46154998844
 20
6982.497424545861
 30
0.0
  0
POINT
  5
164E4
330
15E6E
100
AcDbEntity
  8
DEFPOINTS
 62
     0
 48
50.0
100
AcDbPoint
 10
4718.46154998844
 20
6448.066653779701
 30
0.0
  0
ENDBLK
  5
16001
330
15E6E
100
AcDbEntity
  8
0
 48
50.0
100
AcDbBlockEnd
  0
BLOCK
  5
16CD0
330
16CC6
100
AcDbEntity
  8
0
 48
50.0
100
AcDbBlockBegin
  2
*D14
 70
     1
 10
0.0
 20
0.0
 30
0.0
  3
*D14
  1

  0
LINE
  5
17720
330
16CC6
100
AcDbEntity
  8
寸法
 62
     0
 48
50.0
370
    -2
100
AcDbLine
 10
4668.461549988434
 20
4932.931598713267
 30
0.0
 11
4668.461549988434
 21
5406.378484445255
 31
0.0
  0
LINE
  5
17721
330
16CC6
100
AcDbEntity
  8
寸法
 62
     0
 48
50.0
370
    -2
100
AcDbLine
 10
7818.46154998845
 20
4932.931598713264
 30
0.0
 11
7818.46154998845
 21
5406.378484445255
 31
0.0
  0
LINE
  5
17722
330
16CC6
100
AcDbEntity
  8
寸法
 62
     0
 48
50.0
370
    -2
100
AcDbLine
 10
4668.461549988434
 20
5346.378484445256
 30
0.0
 11
7818.46154998845
 21
5346.378484445256
 31
0.0
  0
INSERT
  5
17723
330
16CC6
100
AcDbEntity
  8
寸法
 62
     0
 48
50.0
370
    -2
100
AcDbBlockReference
  2
_DOTSMALL
 10
4668.461549988434
 20
5346.378484445256
 30
0.0
 41
100.0
 42
100.0
 43
100.0
 50
180.0
  0
INSERT
  5
17724
330
16CC6
100
AcDbEntity
  8
寸法
 62
     0
 48
50.0
370
    -2
100
AcDbBlockReference
  2
_DOTSMALL
 10
7818.46154998845
 20
5346.378484445256
 30
0.0
 41
100.0
 42
100.0
 43
100.0
  0
MTEXT
  5
17725
330
16CC6
100
AcDbEntity
  8
寸法
 62
     7
 48
50.0
100
AcDbMText
 10
6243.461549988442
 20
5446.378484445256
 30
0.0
 40
120.0
 41
0.0
 71
     5
 72
     1
  1
\A1;3150
  7
STYLE1
 73
     1
 44
1.0
1001
ACAD
1000
MTEXTBEGIN
1070
    73
1070
     1
1070
    44
1040
1.0
1070
    74
1070
     0
1000
MTEXTEND
  0
POINT
  5
17726
330
16CC6
100
AcDbEntity
  8
DEFPOINTS
 62
     0
 48
50.0
100
AcDbPoint
 10
4668.461549988434
 20
4912.931598713267
 30
0.0
  0
POINT
  5
17727
330
16CC6
100
AcDbEntity
  8
DEFPOINTS
 62
     0
 48
50.0
100
AcDbPoint
 10
7818.46154998845
 20
4912.931598713264
 30
0.0
  0
POINT
  5
17728
330
16CC6
100
AcDbEntity
  8
DEFPOINTS
 62
     0
 48
50.0
100
AcDbPoint
 10
7818.46154998845
 20
5346.378484445256
 30
0.0
  0
ENDBLK
  5
16CD1
330
16CC6
100
AcDbEntity
  8
0
 48
50.0
100
AcDbBlockEnd
  0
BLOCK
  5
16CDE
330
16CD2
100
AcDbEntity
  8
0
 48
50.0
100
AcDbBlockBegin
  2
*D15
 70
     1
 10
0.0
 20
0.0
 30
0.0
  3
*D15
  1

  0
LINE
  5
16EF7
330
16CD2
100
AcDbEntity
  8
寸法
 62
     0
 48
50.0
370
    -2
100
AcDbLine
 10
7818.46154998845
 20
4932.931598713264
 30
0.0
 11
7818.46154998845
 21
5185.473183971505
 31
0.0
  0
LINE
  5
16EF8
330
16CD2
100
AcDbEntity
  8
寸法
 62
     0
 48
50.0
370
    -2
100
AcDbLine
 10
7768.46154998845
 20
4932.931598713266
 30
0.0
 11
7768.46154998845
 21
5185.473183971505
 31
0.0
  0
LINE
  5
16EF9
330
16CD2
100
AcDbEntity
  8
寸法
 62
     0
 48
50.0
370
    -2
100
AcDbLine
 10
7768.46154998845
 20
5125.473183971505
 30
0.0
 11
7668.46154998845
 21
5125.473183971505
 31
0.0
  0
LINE
  5
16EFA
330
16CD2
100
AcDbEntity
  8
寸法
 62
     0
 48
50.0
370
    -2
100
AcDbLine
 10
7818.46154998845
 20
5125.473183971505
 30
0.0
 11
8237.994075457173
 21
5125.473183971505
 31
0.0
  0
LINE
  5
16EFB
330
16CD2
100
AcDbEntity
  8
寸法
 62
     0
 48
50.0
370
    -2
100
AcDbLine
 10
7768.46154998845
 20
5125.473183971505
 30
0.0
 11
7818.46154998845
 21
5125.473183971505
 31
0.0
  0
INSERT
  5
16EFC
330
16CD2
100
AcDbEntity
  8
寸法
 62
     0
 48
50.0
370
    -2
100
AcDbBlockReference
  2
_DOTSMALL
 10
7768.46154998845
 20
5125.473183971505
 30
0.0
 41
100.0
 42
100.0
 43
100.0
  0
INSERT
  5
16EFD
330
16CD2
100
AcDbEntity
  8
寸法
 62
     0
 48
50.0
370
    -2
100
AcDbBlockReference
  2
_DOTSMALL
 10
7818.46154998845
 20
5125.473183971505
 30
0.0
 41
100.0
 42
100.0
 43
100.0
 50
180.0
  0
MTEXT
  5
16EFE
330
16CD2
100
AcDbEntity
  8
寸法
 62
     7
 48
50.0
100
AcDbMText
 10
8131.946831362686
 20
5225.473183971505
 30
0.0
 40
120.0
 41
0.0
 71
     5
 72
     1
  1
\A1;50
  7
STYLE1
 73
     1
 44
1.0
1001
ACAD
1000
MTEXTBEGIN
1070
    73
1070
     1
1070
    44
1040
1.0
1070
    74
1070
     0
1000
MTEXTEND
  0
POINT
  5
16EFF
330
16CD2
100
AcDbEntity
  8
DEFPOINTS
 62
     0
 48
50.0
100
AcDbPoint
 10
7818.46154998845
 20
4912.931598713264
 30
0.0
  0
POINT
  5
16F00
330
16CD2
100
AcDbEntity
  8
DEFPOINTS
 62
     0
 48
50.0
100
AcDbPoint
 10
7768.46154998845
 20
4912.931598713266
 30
0.0
  0
POINT
  5
16F01
330
16CD2
100
AcDbEntity
  8
DEFPOINTS
 62
     0
 48
50.0
100
AcDbPoint
 10
7768.46154998845
 20
5125.473183971505
 30
0.0
  0
ENDBLK
  5
16CDF
330
16CD2
100
AcDbEntity
  8
0
 48
50.0
100
AcDbBlockEnd
  0
BLOCK
  5
16CEC
330
16CE0
100
AcDbEntity
  8
0
 48
50.0
100
AcDbBlockBegin
  2
*D16
 70
     1
 10
0.0
 20
0.0
 30
0.0
  3
*D16
  1

  0
LINE
  5
16EEC
330
16CE0
100
AcDbEntity
  8
寸法
 62
     0
 48
50.0
370
    -2
100
AcDbLine
 10
4718.461549988435
 20
4932.931598713269
 30
0.0
 11
4718.461549988435
 21
5185.473183971506
 31
0.0
  0
LINE
  5
16EED
330
16CE0
100
AcDbEntity
  8
寸法
 62
     0
 48
50.0
370
    -2
100
AcDbLine
 10
4668.461549988434
 20
4932.931598713267
 30
0.0
 11
4668.461549988434
 21
5185.473183971506
 31
0.0
  0
LINE
  5
16EEE
330
16CE0
100
AcDbEntity
  8
寸法
 62
     0
 48
50.0
370
    -2
100
AcDbLine
 10
4718.461549988435
 20
5125.473183971506
 30
0.0
 11
4818.461549988435
 21
5125.473183971506
 31
0.0
  0
LINE
  5
16EEF
330
16CE0
100
AcDbEntity
  8
寸法
 62
     0
 48
50.0
370
    -2
100
AcDbLine
 10
4668.461549988434
 20
5125.473183971506
 30
0.0
 11
4248.929024519699
 21
5125.473183971506
 31
0.0
  0
LINE
  5
16EF0
330
16CE0
100
AcDbEntity
  8
寸法
 62
     0
 48
50.0
370
    -2
100
AcDbLine
 10
4718.461549988435
 20
5125.473183971506
 30
0.0
 11
4668.461549988434
 21
5125.473183971506
 31
0.0
  0
INSERT
  5
16EF1
330
16CE0
100
AcDbEntity
  8
寸法
 62
     0
 48
50.0
370
    -2
100
AcDbBlockReference
  2
_DOTSMALL
 10
4718.461549988435
 20
5125.473183971506
 30
0.0
 41
100.0
 42
100.0
 43
100.0
 50
180.0
  0
INSERT
  5
16EF2
330
16CE0
100
AcDbEntity
  8
寸法
 62
     0
 48
50.0
370
    -2
100
AcDbBlockReference
  2
_DOTSMALL
 10
4668.461549988434
 20
5125.473183971506
 30
0.0
 41
100.0
 42
100.0
 43
100.0
  0
MTEXT
  5
16EF3
330
16CE0
100
AcDbEntity
  8
寸法
 62
     7
 48
50.0
100
AcDbMText
 10
4354.976268614187
 20
5225.473183971506
 30
0.0
 40
120.0
 41
0.0
 71
     5
 72
     1
  1
\A1;50
  7
STYLE1
 73
     1
 44
1.0
1001
ACAD
1000
MTEXTBEGIN
1070
    73
1070
     1
1070
    44
1040
1.0
1070
    74
1070
     0
1000
MTEXTEND
  0
POINT
  5
16EF4
330
16CE0
100
AcDbEntity
  8
DEFPOINTS
 62
     0
 48
50.0
100
AcDbPoint
 10
4718.461549988435
 20
4912.931598713268
 30
0.0
  0
POINT
  5
16EF5
330
16CE0
100
AcDbEntity
  8
DEFPOINTS
 62
     0
 48
50.0
100
AcDbPoint
 10
4668.461549988434
 20
4912.931598713267
 30
0.0
  0
POINT
  5
16EF6
330
16CE0
100
AcDbEntity
  8
DEFPOINTS
 62
     0
 48
50.0
100
AcDbPoint
 10
4668.461549988434
 20
5125.473183971506
 30
0.0
  0
ENDBLK
  5
16CED
330
16CE0
100
AcDbEntity
  8
0
 48
50.0
100
AcDbBlockEnd
  0
BLOCK
  5
16CF8
330
16CEE
100
AcDbEntity
  8
0
 48
50.0
100
AcDbBlockBegin
  2
*D17
 70
     1
 10
0.0
 20
0.0
 30
0.0
  3
*D17
  1

  0
LINE
  5
17729
330
16CEE
100
AcDbEntity
  8
寸法
 62
     0
 48
50.0
370
    -2
100
AcDbLine
 10
7768.46154998845
 20
4932.931598713266
 30
0.0
 11
7768.46154998845
 21
5185.473183971506
 31
0.0
  0
LINE
  5
1772A
330
16CEE
100
AcDbEntity
  8
寸法
 62
     0
 48
50.0
370
    -2
100
AcDbLine
 10
4718.461549988435
 20
4932.931598713269
 30
0.0
 11
4718.461549988435
 21
5185.473183971506
 31
0.0
  0
LINE
  5
1772B
330
16CEE
100
AcDbEntity
  8
寸法
 62
     0
 48
50.0
370
    -2
100
AcDbLine
 10
7768.46154998845
 20
5125.473183971506
 30
0.0
 11
4718.461549988435
 21
5125.473183971506
 31
0.0
  0
INSERT
  5
1772C
330
16CEE
100
AcDbEntity
  8
寸法
 62
     0
 48
50.0
370
    -2
100
AcDbBlockReference
  2
_DOTSMALL
 10
7768.46154998845
 20
5125.473183971506
 30
0.0
 41
100.0
 42
100.0
 43
100.0
  0
INSERT
  5
1772D
330
16CEE
100
AcDbEntity
  8
寸法
 62
     0
 48
50.0
370
    -2
100
AcDbBlockReference
  2
_DOTSMALL
 10
4718.461549988435
 20
5125.473183971506
 30
0.0
 41
100.0
 42
100.0
 43
100.0
 50
180.0
  0
MTEXT
  5
1772E
330
16CEE
100
AcDbEntity
  8
寸法
 62
     7
 48
50.0
100
AcDbMText
 10
6243.461549988442
 20
5225.473183971506
 30
0.0
 40
120.0
 41
0.0
 71
     5
 72
     1
  1
\A1;柱外寸法3050
  7
STYLE1
 73
     1
 44
1.0
1001
ACAD
1000
MTEXTBEGIN
1070
    73
1070
     1
1070
    44
1040
1.0
1070
    74
1070
     0
1000
MTEXTEND
  0
POINT
  5
1772F
330
16CEE
100
AcDbEntity
  8
DEFPOINTS
 62
     0
 48
50.0
100
AcDbPoint
 10
7768.46154998845
 20
4912.931598713266
 30
0.0
  0
POINT
  5
17730
330
16CEE
100
AcDbEntity
  8
DEFPOINTS
 62
     0
 48
50.0
100
AcDbPoint
 10
4718.461549988435
 20
4912.931598713268
 30
0.0
  0
POINT
  5
17731
330
16CEE
100
AcDbEntity
  8
DEFPOINTS
 62
     0
 48
50.0
100
AcDbPoint
 10
4718.461549988435
 20
5125.473183971506
 30
0.0
  0
ENDBLK
  5
16CF9
330
16CEE
100
AcDbEntity
  8
0
 48
50.0
100
AcDbBlockEnd
  0
BLOCK
  5
16FA7
330
16F9C
100
AcDbEntity
  8
0
 48
50.0
100
AcDbBlockBegin
  2
*D18
 70
     1
 10
0.0
 20
0.0
 30
0.0
  3
*D18
  1

  0
LINE
  5
170DE
330
16F9C
100
AcDbEntity
  8
寸法
 62
     0
 48
50.0
370
    -2
100
AcDbLine
 10
10293.41426350029
 20
4912.229305782923
 30
0.0
 11
9677.479824395014
 21
4929.943456057253
 31
0.0
  0
LINE
  5
170DF
330
16F9C
100
AcDbEntity
  8
寸法
 62
     0
 48
50.0
370
    -2
100
AcDbLine
 10
10289.36080794366
 20
4771.287582017209
 30
0.0
 11
9673.426368838388
 21
4789.001732291539
 31
0.0
  0
LINE
  5
170E0
330
16F9C
100
AcDbEntity
  8
寸法
 62
     0
 48
50.0
370
    -2
100
AcDbLine
 10
9733.401570440818
 20
4787.276857586592
 30
0.0
 11
9737.455025997444
 21
4928.218581352306
 31
0.0
  0
LINE
  5
170E1
330
16F9C
100
AcDbEntity
  8
寸法
 62
     0
 48
50.0
370
    -2
100
AcDbLine
 10
9737.455025997444
 20
4928.218581352306
 30
0.0
 11
9747.804274227128
 21
5288.069790966893
 31
0.0
  0
INSERT
  5
170E2
330
16F9C
100
AcDbEntity
  8
寸法
 62
     0
 48
50.0
370
    -2
100
AcDbBlockReference
  2
_DOTSMALL
 10
9733.401570440818
 20
4787.276857586592
 30
0.0
 41
100.0
 42
100.0
 43
100.0
 50
268.3526390256378
  0
INSERT
  5
170E3
330
16F9C
100
AcDbEntity
  8
寸法
 62
     0
 48
50.0
370
    -2
100
AcDbBlockReference
  2
_DOTSMALL
 10
9737.455025997444
 20
4928.218581352306
 30
0.0
 41
100.0
 42
100.0
 43
100.0
 50
88.35263902563776
  0
MTEXT
  5
170E4
330
16F9C
100
AcDbEntity
  8
寸法
 62
     7
 48
50.0
100
AcDbMText
 10
9644.108376362359
 20
5160.998312003204
 30
0.0
 40
120.0
 41
0.0
 71
     5
 72
     1
  1
\A1;141
  7
STYLE1
 11
0.0287479117491237
 21
0.9995866933738488
 31
0.0
 73
     1
 44
1.0
1001
ACAD
1000
MTEXTBEGIN
1070
    73
1070
     1
1070
    44
1040
1.0
1070
    74
1070
     0
1000
MTEXTEND
  0
POINT
  5
170E5
330
16F9C
100
AcDbEntity
  8
DEFPOINTS
 62
     0
 48
50.0
100
AcDbPoint
 10
10313.40599736777
 20
4911.654347547941
 30
0.0
  0
POINT
  5
170E6
330
16F9C
100
AcDbEntity
  8
DEFPOINTS
 62
     0
 48
50.0
100
AcDbPoint
 10
10309.35254181114
 20
4770.712623782226
 30
0.0
  0
POINT
  5
170E7
330
16F9C
100
AcDbEntity
  8
DEFPOINTS
 62
     0
 48
50.0
100
AcDbPoint
 10
9733.401570440818
 20
4787.276857586592
 30
0.0
  0
ENDBLK
  5
16FA8
330
16F9C
100
AcDbEntity
  8
0
 48
50.0
100
AcDbBlockEnd
  0
BLOCK
  5
16FB4
330
16FA9
100
AcDbEntity
  8
0
 48
50.0
100
AcDbBlockBegin
  2
*D19
 70
     1
 10
0.0
 20
0.0
 30
0.0
  3
*D19
  1

  0
LINE
  5
170E8
330
16FA9
100
AcDbEntity
  8
寸法
 62
     0
 48
50.0
370
    -2
100
AcDbLine
 10
13824.00997720919
 20
4879.742278324917
 30
0.0
 11
13824.00997720919
 21
5371.589052292567
 31
0.0
  0
LINE
  5
170E9
330
16FA9
100
AcDbEntity
  8
寸法
 62
     0
 48
50.0
370
    -2
100
AcDbLine
 10
13904.00997720919
 20
4877.931598713264
 30
0.0
 11
13904.00997720919
 21
5371.589052292567
 31
0.0
  0
LINE
  5
170EA
330
16FA9
100
AcDbEntity
  8
寸法
 62
     0
 48
50.0
370
    -2
100
AcDbLine
 10
13824.00997720919
 20
5311.589052292568
 30
0.0
 11
13904.00997720919
 21
5311.589052292568
 31
0.0
  0
LINE
  5
170EB
330
16FA9
100
AcDbEntity
  8
寸法
 62
     0
 48
50.0
370
    -2
100
AcDbLine
 10
13904.00997720919
 20
5311.589052292568
 30
0.0
 11
14216.10446539817
 21
5311.589052292568
 31
0.0
  0
INSERT
  5
170EC
330
16FA9
100
AcDbEntity
  8
寸法
 62
     0
 48
50.0
370
    -2
100
AcDbBlockReference
  2
_DOTSMALL
 10
13824.00997720919
 20
5311.589052292568
 30
0.0
 41
100.0
 42
100.0
 43
100.0
 50
180.0
  0
INSERT
  5
170ED
330
16FA9
100
AcDbEntity
  8
寸法
 62
     0
 48
50.0
370
    -2
100
AcDbBlockReference
  2
_DOTSMALL
 10
13904.00997720919
 20
5311.589052292568
 30
0.0
 41
100.0
 42
100.0
 43
100.0
  0
MTEXT
  5
170EE
330
16FA9
100
AcDbEntity
  8
寸法
 62
     7
 48
50.0
100
AcDbMText
 10
14110.05722130368
 20
5411.589052292567
 30
0.0
 40
120.0
 41
0.0
 71
     5
 72
     1
  1
\A1;80
  7
STYLE1
 73
     1
 44
1.0
1001
ACAD
1000
MTEXTBEGIN
1070
    73
1070
     1
1070
    44
1040
1.0
1070
    74
1070
     0
1000
MTEXTEND
  0
POINT
  5
170EF
330
16FA9
100
AcDbEntity
  8
DEFPOINTS
 62
     0
 48
50.0
100
AcDbPoint
 10
13824.00997720919
 20
4859.742278324916
 30
0.0
  0
POINT
  5
170F0
330
16FA9
100
AcDbEntity
  8
DEFPOINTS
 62
     0
 48
50.0
100
AcDbPoint
 10
13904.00997720919
 20
4857.931598713265
 30
0.0
  0
POINT
  5
170F1
330
16FA9
100
AcDbEntity
  8
DEFPOINTS
 62
     0
 48
50.0
100
AcDbPoint
 10
13904.00997720919
 20
5311.589052292568
 30
0.0
  0
ENDBLK
  5
16FB5
330
16FA9
100
AcDbEntity
  8
0
 48
50.0
100
AcDbBlockEnd
  0
BLOCK
  5
16FC0
330
16FB6
100
AcDbEntity
  8
0
 48
50.0
100
AcDbBlockBegin
  2
*D20
 70
     1
 10
0.0
 20
0.0
 30
0.0
  3
*D20
  1

  0
LINE
  5
17732
330
16FB6
100
AcDbEntity
  8
寸法
 62
     0
 48
50.0
370
    -2
100
AcDbLine
 10
13904.00997720919
 20
4877.931598713264
 30
0.0
 11
13904.00997720919
 21
5601.702645078844
 31
0.0
  0
LINE
  5
17733
330
16FB6
100
AcDbEntity
  8
寸法
 62
     0
 48
50.0
370
    -2
100
AcDbLine
 10
10294.00997720919
 20
4932.931598713266
 30
0.0
 11
10294.00997720919
 21
5601.702645078844
 31
0.0
  0
LINE
  5
17734
330
16FB6
100
AcDbEntity
  8
寸法
 62
     0
 48
50.0
370
    -2
100
AcDbLine
 10
13904.00997720919
 20
5541.702645078843
 30
0.0
 11
10294.00997720919
 21
5541.702645078843
 31
0.0
  0
INSERT
  5
17735
330
16FB6
100
AcDbEntity
  8
寸法
 62
     0
 48
50.0
370
    -2
100
AcDbBlockReference
  2
_DOTSMALL
 10
13904.00997720919
 20
5541.702645078843
 30
0.0
 41
100.0
 42
100.0
 43
100.0
  0
INSERT
  5
17736
330
16FB6
100
AcDbEntity
  8
寸法
 62
     0
 48
50.0
370
    -2
100
AcDbBlockReference
  2
_DOTSMALL
 10
10294.00997720919
 20
5541.702645078843
 30
0.0
 41
100.0
 42
100.0
 43
100.0
 50
180.0
  0
MTEXT
  5
17737
330
16FB6
100
AcDbEntity
  8
寸法
 62
     7
 48
50.0
100
AcDbMText
 10
12099.00997720919
 20
5641.702645078844
 30
0.0
 40
120.0
 41
0.0
 71
     5
 72
     1
  1
\A1;3610
  7
STYLE1
 73
     1
 44
1.0
1001
ACAD
1000
MTEXTBEGIN
1070
    73
1070
     1
1070
    44
1040
1.0
1070
    74
1070
     0
1000
MTEXTEND
  0
POINT
  5
17738
330
16FB6
100
AcDbEntity
  8
DEFPOINTS
 62
     0
 48
50.0
100
AcDbPoint
 10
13904.00997720919
 20
4857.931598713263
 30
0.0
  0
POINT
  5
17739
330
16FB6
100
AcDbEntity
  8
DEFPOINTS
 62
     0
 48
50.0
100
AcDbPoint
 10
10294.00997720919
 20
4912.931598713266
 30
0.0
  0
POINT
  5
1773A
330
16FB6
100
AcDbEntity
  8
DEFPOINTS
 62
     0
 48
50.0
100
AcDbPoint
 10
10294.00997720919
 20
5541.702645078843
 30
0.0
  0
ENDBLK
  5
16FC1
330
16FB6
100
AcDbEntity
  8
0
 48
50.0
100
AcDbBlockEnd
  0
BLOCK
  5
16FCE
330
16FC2
100
AcDbEntity
  8
0
 48
50.0
100
AcDbBlockBegin
  2
*D21
 70
     1
 10
0.0
 20
0.0
 30
0.0
  3
*D21
  1

  0
LINE
  5
170FB
330
16FC2
100
AcDbEntity
  8
寸法
 62
     0
 48
50.0
370
    -2
100
AcDbLine
 10
10354.00997720919
 20
4928.933216836238
 30
0.0
 11
10354.00997720919
 21
5371.589052292566
 31
0.0
  0
LINE
  5
170FC
330
16FC2
100
AcDbEntity
  8
寸法
 62
     0
 48
50.0
370
    -2
100
AcDbLine
 10
10294.00997720919
 20
4932.931598713266
 30
0.0
 11
10294.00997720919
 21
5371.589052292566
 31
0.0
  0
LINE
  5
170FD
330
16FC2
100
AcDbEntity
  8
寸法
 62
     0
 48
50.0
370
    -2
100
AcDbLine
 10
10354.00997720919
 20
5311.589052292566
 30
0.0
 11
10454.00997720919
 21
5311.589052292566
 31
0.0
  0
LINE
  5
170FE
330
16FC2
100
AcDbEntity
  8
寸法
 62
     0
 48
50.0
370
    -2
100
AcDbLine
 10
10294.00997720919
 20
5311.589052292566
 30
0.0
 11
9874.734386658008
 21
5311.589052292566
 31
0.0
  0
LINE
  5
170FF
330
16FC2
100
AcDbEntity
  8
寸法
 62
     0
 48
50.0
370
    -2
100
AcDbLine
 10
10354.00997720919
 20
5311.589052292566
 30
0.0
 11
10294.00997720919
 21
5311.589052292566
 31
0.0
  0
INSERT
  5
17100
330
16FC2
100
AcDbEntity
  8
寸法
 62
     0
 48
50.0
370
    -2
100
AcDbBlockReference
  2
_DOTSMALL
 10
10354.00997720919
 20
5311.589052292566
 30
0.0
 41
100.0
 42
100.0
 43
100.0
 50
180.0
  0
INSERT
  5
17101
330
16FC2
100
AcDbEntity
  8
寸法
 62
     0
 48
50.0
370
    -2
100
AcDbBlockReference
  2
_DOTSMALL
 10
10294.00997720919
 20
5311.589052292566
 30
0.0
 41
100.0
 42
100.0
 43
100.0
  0
MTEXT
  5
17102
330
16FC2
100
AcDbEntity
  8
寸法
 62
     7
 48
50.0
100
AcDbMText
 10
9984.372181933601
 20
5411.589052292566
 30
0.0
 40
120.0
 41
0.0
 71
     5
 72
     1
  1
\A1;60
  7
STYLE1
 73
     1
 44
1.0
1001
ACAD
1000
MTEXTBEGIN
1070
    73
1070
     1
1070
    44
1040
1.0
1070
    74
1070
     0
1000
MTEXTEND
  0
POINT
  5
17103
330
16FC2
100
AcDbEntity
  8
DEFPOINTS
 62
     0
 48
50.0
100
AcDbPoint
 10
10354.00997720919
 20
4908.933216836238
 30
0.0
  0
POINT
  5
17104
330
16FC2
100
AcDbEntity
  8
DEFPOINTS
 62
     0
 48
50.0
100
AcDbPoint
 10
10294.00997720919
 20
4912.931598713266
 30
0.0
  0
POINT
  5
17105
330
16FC2
100
AcDbEntity
  8
DEFPOINTS
 62
     0
 48
50.0
100
AcDbPoint
 10
10294.00997720919
 20
5311.589052292566
 30
0.0
  0
ENDBLK
  5
16FCF
330
16FC2
100
AcDbEntity
  8
0
 48
50.0
100
AcDbBlockEnd
  0
BLOCK
  5
16FDA
330
16FD0
100
AcDbEntity
  8
0
 48
50.0
100
AcDbBlockBegin
  2
*D22
 70
     1
 10
0.0
 20
0.0
 30
0.0
  3
*D22
  1

  0
LINE
  5
1773B
330
16FD0
100
AcDbEntity
  8
寸法
 62
     0
 48
50.0
370
    -2
100
AcDbLine
 10
13824.00997720919
 20
4879.742278324917
 30
0.0
 11
13824.00997720919
 21
5371.589052292567
 31
0.0
  0
LINE
  5
1773C
330
16FD0
100
AcDbEntity
  8
寸法
 62
     0
 48
50.0
370
    -2
100
AcDbLine
 10
10354.00997720919
 20
4928.933216836238
 30
0.0
 11
10354.00997720919
 21
5371.589052292567
 31
0.0
  0
LINE
  5
1773D
330
16FD0
100
AcDbEntity
  8
寸法
 62
     0
 48
50.0
370
    -2
100
AcDbLine
 10
13824.00997720919
 20
5311.589052292568
 30
0.0
 11
10354.00997720919
 21
5311.589052292568
 31
0.0
  0
INSERT
  5
1773E
330
16FD0
100
AcDbEntity
  8
寸法
 62
     0
 48
50.0
370
    -2
100
AcDbBlockReference
  2
_DOTSMALL
 10
13824.00997720919
 20
5311.589052292568
 30
0.0
 41
100.0
 42
100.0
 43
100.0
  0
INSERT
  5
1773F
330
16FD0
100
AcDbEntity
  8
寸法
 62
     0
 48
50.0
370
    -2
100
AcDbBlockReference
  2
_DOTSMALL
 10
10354.00997720919
 20
5311.589052292568
 30
0.0
 41
100.0
 42
100.0
 43
100.0
 50
180.0
  0
MTEXT
  5
17740
330
16FD0
100
AcDbEntity
  8
寸法
 62
     7
 48
50.0
100
AcDbMText
 10
12089.00997720919
 20
5411.589052292567
 30
0.0
 40
120.0
 41
0.0
 71
     5
 72
     1
  1
\A1;柱外寸法3470
  7
STYLE1
 73
     1
 44
1.0
1001
ACAD
1000
MTEXTBEGIN
1070
    73
1070
     1
1070
    44
1040
1.0
1070
    74
1070
     0
1000
MTEXTEND
  0
POINT
  5
17741
330
16FD0
100
AcDbEntity
  8
DEFPOINTS
 62
     0
 48
50.0
100
AcDbPoint
 10
13824.00997720919
 20
4859.742278324916
 30
0.0
  0
POINT
  5
17742
330
16FD0
100
AcDbEntity
  8
DEFPOINTS
 62
     0
 48
50.0
100
AcDbPoint
 10
10354.00997720919
 20
4908.933216836238
 30
0.0
  0
POINT
  5
17743
330
16FD0
100
AcDbEntity
  8
DEFPOINTS
 62
     0
 48
50.0
100
AcDbPoint
 10
10354.00997720919
 20
5311.589052292568
 30
0.0
  0
ENDBLK
  5
16FDB
330
16FD0
100
AcDbEntity
  8
0
 48
50.0
100
AcDbBlockEnd
  0
BLOCK
  5
16FE8
330
16FDC
100
AcDbEntity
  8
0
 48
50.0
100
AcDbBlockBegin
  2
*D23
 70
     1
 10
0.0
 20
0.0
 30
0.0
  3
*D23
  1

  0
LINE
  5
1710F
330
16FDC
100
AcDbEntity
  8
寸法
 62
     0
 48
50.0
370
    -2
100
AcDbLine
 10
10334.00997720919
 20
2587.931598713261
 30
0.0
 11
9450.259848025929
 21
2587.931598713261
 31
0.0
  0
LINE
  5
17110
330
16FDC
100
AcDbEntity
  8
寸法
 62
     0
 48
50.0
370
    -2
100
AcDbLine
 10
10279.00997720919
 20
2537.931598713262
 30
0.0
 11
9450.259848025929
 21
2537.931598713262
 31
0.0
  0
LINE
  5
17111
330
16FDC
100
AcDbEntity
  8
寸法
 62
     0
 48
50.0
370
    -2
100
AcDbLine
 10
9510.259848025929
 20
2587.931598713261
 30
0.0
 11
9510.259848025929
 21
2687.931598713261
 31
0.0
  0
LINE
  5
17112
330
16FDC
100
AcDbEntity
  8
寸法
 62
     0
 48
50.0
370
    -2
100
AcDbLine
 10
9510.259848025929
 20
2537.931598713262
 30
0.0
 11
9510.259848025929
 21
2125.837110524281
 31
0.0
  0
LINE
  5
17113
330
16FDC
100
AcDbEntity
  8
寸法
 62
     0
 48
50.0
370
    -2
100
AcDbLine
 10
9510.259848025929
 20
2587.931598713261
 30
0.0
 11
9510.259848025929
 21
2537.931598713262
 31
0.0
  0
INSERT
  5
17114
330
16FDC
100
AcDbEntity
  8
寸法
 62
     0
 48
50.0
370
    -2
100
AcDbBlockReference
  2
_DOTSMALL
 10
9510.259848025929
 20
2587.931598713261
 30
0.0
 41
100.0
 42
100.0
 43
100.0
 50
270.0
  0
INSERT
  5
17115
330
16FDC
100
AcDbEntity
  8
寸法
 62
     0
 48
50.0
370
    -2
100
AcDbBlockReference
  2
_DOTSMALL
 10
9510.259848025929
 20
2537.931598713262
 30
0.0
 41
100.0
 42
100.0
 43
100.0
 50
90.0
  0
MTEXT
  5
17116
330
16FDC
100
AcDbEntity
  8
寸法
 62
     7
 48
50.0
100
AcDbMText
 10
9410.259848025928
 20
2231.884354618771
 30
0.0
 40
120.0
 41
0.0
 71
     5
 72
     1
  1
\A1;50
  7
STYLE1
 11
0.0000000000000001
 21
1.0
 31
0.0
 73
     1
 44
1.0
1001
ACAD
1000
MTEXTBEGIN
1070
    73
1070
     1
1070
    44
1040
1.0
1070
    74
1070
     0
1000
MTEXTEND
  0
POINT
  5
17117
330
16FDC
100
AcDbEntity
  8
DEFPOINTS
 62
     0
 48
50.0
100
AcDbPoint
 10
10354.00997720919
 20
2587.931598713261
 30
0.0
  0
POINT
  5
17118
330
16FDC
100
AcDbEntity
  8
DEFPOINTS
 62
     0
 48
50.0
100
AcDbPoint
 10
10299.00997720919
 20
2537.931598713262
 30
0.0
  0
POINT
  5
17119
330
16FDC
100
AcDbEntity
  8
DEFPOINTS
 62
     0
 48
50.0
100
AcDbPoint
 10
9510.259848025929
 20
2537.931598713262
 30
0.0
  0
ENDBLK
  5
16FE9
330
16FDC
100
AcDbEntity
  8
0
 48
50.0
100
AcDbBlockEnd
  0
BLOCK
  5
17001
330
16FF7
100
AcDbEntity
  8
0
 48
50.0
100
AcDbBlockBegin
  2
*D24
 70
     1
 10
0.0
 20
0.0
 30
0.0
  3
*D24
  1

  0
LINE
  5
17124
330
16FF7
100
AcDbEntity
  8
寸法
 62
     0
 48
50.0
370
    -2
100
AcDbLine
 10
13844.00997720919
 20
2537.931598713263
 30
0.0
 11
14588.93713518131
 21
2537.931598713263
 31
0.0
  0
LINE
  5
17125
330
16FF7
100
AcDbEntity
  8
寸法
 62
     0
 48
50.0
370
    -2
100
AcDbLine
 10
13924.00997720919
 20
4857.931598713263
 30
0.0
 11
14588.93713518131
 21
4857.931598713262
 31
0.0
  0
LINE
  5
17126
330
16FF7
100
AcDbEntity
  8
寸法
 62
     0
 48
50.0
370
    -2
100
AcDbLine
 10
14528.93713518131
 20
2537.931598713263
 30
0.0
 11
14528.93713518131
 21
4857.931598713262
 31
0.0
  0
INSERT
  5
17127
330
16FF7
100
AcDbEntity
  8
寸法
 62
     0
 48
50.0
370
    -2
100
AcDbBlockReference
  2
_DOTSMALL
 10
14528.93713518131
 20
2537.931598713263
 30
0.0
 41
100.0
 42
100.0
 43
100.0
 50
270.0
  0
INSERT
  5
17128
330
16FF7
100
AcDbEntity
  8
寸法
 62
     0
 48
50.0
370
    -2
100
AcDbBlockReference
  2
_DOTSMALL
 10
14528.93713518131
 20
4857.931598713262
 30
0.0
 41
100.0
 42
100.0
 43
100.0
 50
90.0
  0
MTEXT
  5
17129
330
16FF7
100
AcDbEntity
  8
寸法
 62
     7
 48
50.0
100
AcDbMText
 10
14428.92532415769
 20
3697.931598713265
 30
0.0
 40
120.0
 41
0.0
 71
     5
 72
     1
  1
\A1;2320
  7
STYLE1
 11
0.0000000000000001
 21
1.0
 31
0.0
 73
     1
 44
1.0
1001
ACAD
1000
MTEXTBEGIN
1070
    73
1070
     1
1070
    44
1040
1.0
1070
    74
1070
     0
1000
MTEXTEND
  0
POINT
  5
1712A
330
16FF7
100
AcDbEntity
  8
DEFPOINTS
 62
     0
 48
50.0
100
AcDbPoint
 10
13824.00997720919
 20
2537.931598713263
 30
0.0
  0
POINT
  5
1712B
330
16FF7
100
AcDbEntity
  8
DEFPOINTS
 62
     0
 48
50.0
100
AcDbPoint
 10
13904.00997720919
 20
4857.931598713263
 30
0.0
  0
POINT
  5
1712C
330
16FF7
100
AcDbEntity
  8
DEFPOINTS
 62
     0
 48
50.0
100
AcDbPoint
 10
14528.93713518131
 20
4857.931598713262
 30
0.0
  0
ENDBLK
  5
17002
330
16FF7
100
AcDbEntity
  8
0
 48
50.0
100
AcDbBlockEnd
  0
BLOCK
  5
1700D
330
17003
100
AcDbEntity
  8
0
 48
50.0
100
AcDbBlockBegin
  2
*D25
 70
     1
 10
0.0
 20
0.0
 30
0.0
  3
*D25
  1

  0
LINE
  5
1712D
330
17003
100
AcDbEntity
  8
寸法
 62
     0
 48
50.0
370
    -2
100
AcDbLine
 10
10334.00997720919
 20
2537.931598713257
 30
0.0
 11
9150.259848025928
 21
2537.931598713257
 31
0.0
  0
LINE
  5
1712E
330
17003
100
AcDbEntity
  8
寸法
 62
     0
 48
50.0
370
    -2
100
AcDbLine
 10
10274.00997720919
 20
4912.931598713261
 30
0.0
 11
9150.25984802593
 21
4912.931598713262
 31
0.0
  0
LINE
  5
1712F
330
17003
100
AcDbEntity
  8
寸法
 62
     0
 48
50.0
370
    -2
100
AcDbLine
 10
9210.259848025927
 20
2537.931598713257
 30
0.0
 11
9210.259848025929
 21
4912.931598713262
 31
0.0
  0
INSERT
  5
17130
330
17003
100
AcDbEntity
  8
寸法
 62
     0
 48
50.0
370
    -2
100
AcDbBlockReference
  2
_DOTSMALL
 10
9210.259848025927
 20
2537.931598713257
 30
0.0
 41
100.0
 42
100.0
 43
100.0
 50
270.0
  0
INSERT
  5
17131
330
17003
100
AcDbEntity
  8
寸法
 62
     0
 48
50.0
370
    -2
100
AcDbBlockReference
  2
_DOTSMALL
 10
9210.259848025929
 20
4912.931598713262
 30
0.0
 41
100.0
 42
100.0
 43
100.0
 50
90.0
  0
MTEXT
  5
17132
330
17003
100
AcDbEntity
  8
寸法
 62
     7
 48
50.0
100
AcDbMText
 10
9110.248037002305
 20
3725.431598713261
 30
0.0
 40
120.0
 41
0.0
 71
     5
 72
     1
  1
\A1;2375
  7
STYLE1
 11
0.0000000000000001
 21
1.0
 31
0.0
 73
     1
 44
1.0
1001
ACAD
1000
MTEXTBEGIN
1070
    73
1070
     1
1070
    44
1040
1.0
1070
    74
1070
     0
1000
MTEXTEND
  0
POINT
  5
17133
330
17003
100
AcDbEntity
  8
DEFPOINTS
 62
     0
 48
50.0
100
AcDbPoint
 10
10354.00997720919
 20
2537.931598713257
 30
0.0
  0
POINT
  5
17134
330
17003
100
AcDbEntity
  8
DEFPOINTS
 62
     0
 48
50.0
100
AcDbPoint
 10
10294.00997720919
 20
4912.931598713261
 30
0.0
  0
POINT
  5
17135
330
17003
100
AcDbEntity
  8
DEFPOINTS
 62
     0
 48
50.0
100
AcDbPoint
 10
9210.259848025929
 20
4912.931598713262
 30
0.0
  0
ENDBLK
  5
1700E
330
17003
100
AcDbEntity
  8
0
 48
50.0
100
AcDbBlockEnd
  0
BLOCK
  5
17019
330
1700F
100
AcDbEntity
  8
0
 48
50.0
100
AcDbBlockBegin
  2
*D26
 70
     1
 10
0.0
 20
0.0
 30
0.0
  3
*D26
  1

  0
LINE
  5
17136
330
1700F
100
AcDbEntity
  8
寸法
 62
     0
 48
50.0
370
    -2
100
AcDbLine
 10
10334.00997720919
 20
4677.931598713257
 30
0.0
 11
9450.259848025931
 21
4677.931598713258
 31
0.0
  0
LINE
  5
17137
330
1700F
100
AcDbEntity
  8
寸法
 62
     0
 48
50.0
370
    -2
100
AcDbLine
 10
10334.00997720919
 20
2587.931598713257
 30
0.0
 11
9450.259848025929
 21
2587.931598713257
 31
0.0
  0
LINE
  5
17138
330
1700F
100
AcDbEntity
  8
寸法
 62
     0
 48
50.0
370
    -2
100
AcDbLine
 10
9510.259848025931
 20
4677.931598713258
 30
0.0
 11
9510.259848025929
 21
2587.931598713257
 31
0.0
  0
INSERT
  5
17139
330
1700F
100
AcDbEntity
  8
寸法
 62
     0
 48
50.0
370
    -2
100
AcDbBlockReference
  2
_DOTSMALL
 10
9510.259848025931
 20
4677.931598713258
 30
0.0
 41
100.0
 42
100.0
 43
100.0
 50
90.0
  0
INSERT
  5
1713A
330
1700F
100
AcDbEntity
  8
寸法
 62
     0
 48
50.0
370
    -2
100
AcDbBlockReference
  2
_DOTSMALL
 10
9510.259848025929
 20
2587.931598713257
 30
0.0
 41
100.0
 42
100.0
 43
100.0
 50
270.0
  0
MTEXT
  5
1713B
330
1700F
100
AcDbEntity
  8
寸法
 62
     7
 48
50.0
100
AcDbMText
 10
9410.248037002308
 20
3632.931598713259
 30
0.0
 40
120.0
 41
0.0
 71
     5
 72
     1
  1
\A1;2090
  7
STYLE1
 11
0.0000000000000001
 21
1.0
 31
0.0
 73
     1
 44
1.0
1001
ACAD
1000
MTEXTBEGIN
1070
    73
1070
     1
1070
    44
1040
1.0
1070
    74
1070
     0
1000
MTEXTEND
  0
POINT
  5
1713C
330
1700F
100
AcDbEntity
  8
DEFPOINTS
 62
     0
 48
50.0
100
AcDbPoint
 10
10354.00997720919
 20
4677.931598713257
 30
0.0
  0
POINT
  5
1713D
330
1700F
100
AcDbEntity
  8
DEFPOINTS
 62
     0
 48
50.0
100
AcDbPoint
 10
10354.00997720919
 20
2587.931598713257
 30
0.0
  0
POINT
  5
1713E
330
1700F
100
AcDbEntity
  8
DEFPOINTS
 62
     0
 48
50.0
100
AcDbPoint
 10
9510.259848025929
 20
2587.931598713257
 30
0.0
  0
ENDBLK
  5
1701A
330
1700F
100
AcDbEntity
  8
0
 48
50.0
100
AcDbBlockEnd
  0
BLOCK
  5
17348
330
1733D
100
AcDbEntity
  8
0
 48
50.0
100
AcDbBlockBegin
  2
*D27
 70
     1
 10
0.0
 20
0.0
 30
0.0
  3
*D27
  1

  0
LINE
  5
17758
330
1733D
100
AcDbEntity
  8
寸法
 62
     0
 48
50.0
370
    -2
100
AcDbLine
 10
7788.46154998844
 20
4512.931598713263
 30
0.0
 11
8116.004652310186
 21
4512.931598713263
 31
0.0
  0
LINE
  5
17759
330
1733D
100
AcDbEntity
  8
寸法
 62
     0
 48
50.0
370
    -2
100
AcDbLine
 10
7788.46154998844
 20
4677.931598713261
 30
0.0
 11
8116.004652310186
 21
4677.931598713261
 31
0.0
  0
LINE
  5
1775A
330
1733D
100
AcDbEntity
  8
寸法
 62
     0
 48
50.0
370
    -2
100
AcDbLine
 10
8056.004652310187
 20
4512.931598713263
 30
0.0
 11
8056.004652310187
 21
4677.931598713261
 31
0.0
  0
LINE
  5
1775B
330
1733D
100
AcDbEntity
  8
寸法
 62
     0
 48
50.0
370
    -2
100
AcDbLine
 10
8056.004652310187
 20
4677.931598713261
 30
0.0
 11
8056.004652310187
 21
5054.90216146174
 31
0.0
  0
INSERT
  5
1775C
330
1733D
100
AcDbEntity
  8
寸法
 62
     0
 48
50.0
370
    -2
100
AcDbBlockReference
  2
_DOTSMALL
 10
8056.004652310187
 20
4512.931598713263
 30
0.0
 41
100.0
 42
100.0
 43
100.0
 50
270.0
  0
INSERT
  5
1775D
330
1733D
100
AcDbEntity
  8
寸法
 62
     0
 48
50.0
370
    -2
100
AcDbBlockReference
  2
_DOTSMALL
 10
8056.004652310187
 20
4677.931598713261
 30
0.0
 41
100.0
 42
100.0
 43
100.0
 50
90.0
  0
MTEXT
  5
1775E
330
1733D
100
AcDbEntity
  8
寸法
 62
     7
 48
50.0
100
AcDbMText
 10
7956.004652310186
 20
4916.416880087502
 30
0.0
 40
120.0
 41
0.0
 71
     5
 72
     1
  1
\A1;165
  7
STYLE1
 11
0.0000000000000001
 21
1.0
 31
0.0
 73
     1
 44
1.0
1001
ACAD
1000
MTEXTBEGIN
1070
    73
1070
     1
1070
    44
1040
1.0
1070
    74
1070
     0
1000
MTEXTEND
  0
POINT
  5
1775F
330
1733D
100
AcDbEntity
  8
DEFPOINTS
 62
     0
 48
50.0
100
AcDbPoint
 10
7768.46154998844
 20
4512.931598713263
 30
0.0
  0
POINT
  5
17760
330
1733D
100
AcDbEntity
  8
DEFPOINTS
 62
     0
 48
50.0
100
AcDbPoint
 10
7768.46154998844
 20
4677.931598713261
 30
0.0
  0
POINT
  5
17761
330
1733D
100
AcDbEntity
  8
DEFPOINTS
 62
     0
 48
50.0
100
AcDbPoint
 10
8056.004652310187
 20
4677.931598713261
 30
0.0
  0
ENDBLK
  5
17349
330
1733D
100
AcDbEntity
  8
0
 48
50.0
100
AcDbBlockEnd
  0
BLOCK
  5
17356
330
1734A
100
AcDbEntity
  8
0
 48
50.0
100
AcDbBlockBegin
  2
*D28
 70
     1
 10
0.0
 20
0.0
 30
0.0
  3
*D28
  1

  0
LINE
  5
1774D
330
1734A
100
AcDbEntity
  8
寸法
 62
     0
 48
50.0
370
    -2
100
AcDbLine
 10
7788.461549988442
 20
4485.93159871326
 30
0.0
 11
8116.004652310186
 21
4485.93159871326
 31
0.0
  0
LINE
  5
1774E
330
1734A
100
AcDbEntity
  8
寸法
 62
     0
 48
50.0
370
    -2
100
AcDbLine
 10
7788.46154998844
 20
4512.931598713263
 30
0.0
 11
8116.004652310186
 21
4512.931598713263
 31
0.0
  0
LINE
  5
1774F
330
1734A
100
AcDbEntity
  8
寸法
 62
     0
 48
50.0
370
    -2
100
AcDbLine
 10
8056.004652310186
 20
4485.93159871326
 30
0.0
 11
8056.004652310186
 21
4385.93159871326
 31
0.0
  0
LINE
  5
17750
330
1734A
100
AcDbEntity
  8
寸法
 62
     0
 48
50.0
370
    -2
100
AcDbLine
 10
8056.004652310186
 20
4512.931598713263
 30
0.0
 11
8056.004652310186
 21
4612.931598713263
 31
0.0
  0
MTEXT
  5
17751
330
1734A
100
AcDbEntity
  8
寸法
 62
     7
 48
50.0
100
AcDbMText
 10
8196.174475556551
 20
4513.89879855292
 30
0.0
 40
120.0
 41
0.0
 71
     5
 72
     1
  1
\A1;27
  7
STYLE1
 11
0.0000000000000001
 21
1.0
 31
0.0
 73
     1
 44
1.0
1001
ACAD
1000
MTEXTBEGIN
1070
    73
1070
     1
1070
    44
1040
1.0
1070
    74
1070
     0
1000
MTEXTEND
  0
LINE
  5
17752
330
1734A
100
AcDbEntity
  8
寸法
 62
     0
 48
50.0
370
    -2
100
AcDbLine
 10
8056.004652310186
 20
4485.93159871326
 30
0.0
 11
8056.004652310186
 21
4512.931598713263
 31
0.0
  0
INSERT
  5
17753
330
1734A
100
AcDbEntity
  8
寸法
 62
     0
 48
50.0
370
    -2
100
AcDbBlockReference
  2
_DOTSMALL
 10
8056.004652310186
 20
4485.93159871326
 30
0.0
 41
100.0
 42
100.0
 43
100.0
 50
90.0
  0
INSERT
  5
17754
330
1734A
100
AcDbEntity
  8
寸法
 62
     0
 48
50.0
370
    -2
100
AcDbBlockReference
  2
_DOTSMALL
 10
8056.004652310186
 20
4512.931598713263
 30
0.0
 41
100.0
 42
100.0
 43
100.0
 50
270.0
  0
POINT
  5
17755
330
1734A
100
AcDbEntity
  8
DEFPOINTS
 62
     0
 48
50.0
100
AcDbPoint
 10
7768.461549988441
 20
4485.93159871326
 30
0.0
  0
POINT
  5
17756
330
1734A
100
AcDbEntity
  8
DEFPOINTS
 62
     0
 48
50.0
100
AcDbPoint
 10
7768.46154998844
 20
4512.931598713263
 30
0.0
  0
POINT
  5
17757
330
1734A
100
AcDbEntity
  8
DEFPOINTS
 62
     0
 48
50.0
100
AcDbPoint
 10
8056.004652310186
 20
4512.931598713263
 30
0.0
  0
ENDBLK
  5
17357
330
1734A
100
AcDbEntity
  8
0
 48
50.0
100
AcDbBlockEnd
  0
BLOCK
  5
17362
330
17358
100
AcDbEntity
  8
0
 48
50.0
100
AcDbBlockBegin
  2
*D29
 70
     1
 10
0.0
 20
0.0
 30
0.0
  3
*D29
  1

  0
LINE
  5
173BF
330
17358
100
AcDbEntity
  8
寸法
 62
     0
 48
50.0
370
    -2
100
AcDbLine
 10
7788.46154998844
 20
2537.931598713262
 30
0.0
 11
8116.004652310186
 21
2537.931598713262
 31
0.0
  0
LINE
  5
173C0
330
17358
100
AcDbEntity
  8
寸法
 62
     0
 48
50.0
370
    -2
100
AcDbLine
 10
7788.461549988442
 20
4485.93159871326
 30
0.0
 11
8116.004652310186
 21
4485.93159871326
 31
0.0
  0
LINE
  5
173C1
330
17358
100
AcDbEntity
  8
寸法
 62
     0
 48
50.0
370
    -2
100
AcDbLine
 10
8056.004652310186
 20
2537.931598713262
 30
0.0
 11
8056.004652310186
 21
4485.93159871326
 31
0.0
  0
INSERT
  5
173C2
330
17358
100
AcDbEntity
  8
寸法
 62
     0
 48
50.0
370
    -2
100
AcDbBlockReference
  2
_DOTSMALL
 10
8056.004652310186
 20
2537.931598713262
 30
0.0
 41
100.0
 42
100.0
 43
100.0
 50
270.0
  0
INSERT
  5
173C3
330
17358
100
AcDbEntity
  8
寸法
 62
     0
 48
50.0
370
    -2
100
AcDbBlockReference
  2
_DOTSMALL
 10
8056.004652310186
 20
4485.93159871326
 30
0.0
 41
100.0
 42
100.0
 43
100.0
 50
90.0
  0
MTEXT
  5
173C4
330
17358
100
AcDbEntity
  8
寸法
 62
     7
 48
50.0
100
AcDbMText
 10
7956.004652310186
 20
3511.931598713263
 30
0.0
 40
120.0
 41
0.0
 71
     5
 72
     1
  1
\A1;有効開口部高サ 1948
  7
STYLE1
 11
0.0000000000000001
 21
1.0
 31
0.0
 73
     1
 44
1.0
1001
ACAD
1000
MTEXTBEGIN
1070
    73
1070
     1
1070
    44
1040
1.0
1070
    74
1070
     0
1000
MTEXTEND
  0
POINT
  5
173C5
330
17358
100
AcDbEntity
  8
DEFPOINTS
 62
     0
 48
50.0
100
AcDbPoint
 10
7768.46154998844
 20
2537.931598713262
 30
0.0
  0
POINT
  5
173C6
330
17358
100
AcDbEntity
  8
DEFPOINTS
 62
     0
 48
50.0
100
AcDbPoint
 10
7768.461549988441
 20
4485.93159871326
 30
0.0
  0
POINT
  5
173C7
330
17358
100
AcDbEntity
  8
DEFPOINTS
 62
     0
 48
50.0
100
AcDbPoint
 10
8056.004652310186
 20
4485.93159871326
 30
0.0
  0
ENDBLK
  5
17363
330
17358
100
AcDbEntity
  8
0
 48
50.0
100
AcDbBlockEnd
  0
ENDSEC
  0
SECTION
  2
ENTITIES
  0
MTEXT
  5
763F
330
747D
100
AcDbEntity
  8
0
100
AcDbMText
 10
302.846345836809
 20
280.1983726409901
 30
0.0
 40
3.5
 41
5.323721266742722
 71
     1
 72
     5
  1

  7
MSMINCHO
 73
     1
 44
1.0
1001
ACAD
1000
MTEXTBEGIN
1070
    73
1070
     1
1070
    44
1040
1.0
1070
    74
1070
     0
1000
MTEXTEND
  0
LINE
  5
10B57
330
747D
100
AcDbEntity
  8
補助
  6
PHANTOM
 62
   230
 48
50.0
100
AcDbLine
 10
139.9999999999995
 20
11409.6
 30
0.0
 11
16307.2
 21
11409.6
 31
0.0
  0
LINE
  5
10B59
330
747D
100
AcDbEntity
  8
仕様書枠
  6
Continuous
 48
50.0
100
AcDbLine
 10
13107.2
 20
1200.0
 30
0.0
 11
13107.2
 21
-0.0000000000000729
 31
0.0
  0
LINE
  5
10B5C
330
747D
100
AcDbEntity
  8
仕様書枠
 48
50.0
100
AcDbLine
 10
16307.2
 20
1200.0
 30
0.0
 11
16307.2
 21
-0.0000000000000909
 31
0.0
  0
LINE
  5
10B5D
330
747D
100
AcDbEntity
  8
仕様書枠
 48
50.0
100
AcDbLine
 10
140.0
 20
0.0
 30
0.0
 11
16307.2
 21
-0.0000000000000909
 31
0.0
  0
LINE
  5
10B5E
330
747D
100
AcDbEntity
  8
補助
  6
PHANTOM
 62
   230
 48
50.0
100
AcDbLine
 10
16307.2
 20
11409.6
 30
0.0
 11
16307.2
 21
1200.0
 31
0.0
  0
LINE
  5
10B6C
330
747D
100
AcDbEntity
  8
仕様書枠
 48
50.0
100
AcDbLine
 10
13107.2
 20
1200.0
 30
0.0
 11
16307.2
 21
1200.0
 31
0.0
  0
LINE
  5
10B6D
330
747D
100
AcDbEntity
  8
補助
  6
PHANTOM
 62
   230
 48
50.0
100
AcDbLine
 10
13107.2
 20
11409.6
 30
0.0
 11
13107.2
 21
4800.0
 31
0.0
  0
LINE
  5
10B6F
330
747D
100
AcDbEntity
  8
補助
  6
PHANTOM
 62
   230
 48
50.0
100
AcDbLine
 10
13107.2
 20
4800.0
 30
0.0
 11
16307.2
 21
4800.0
 31
0.0
  0
LINE
  5
10B72
330
747D
100
AcDbEntity
  8
文字
 62
     7
 48
50.0
100
AcDbLine
 10
13187.2
 20
400.0
 30
0.0
 11
16227.2
 21
400.0
 31
0.0
  0
TEXT
  5
10B73
330
747D
100
AcDbEntity
  8
文字
 62
     7
 48
50.0
100
AcDbText
 10
13162.9790565769
 20
895.0906074299405
 30
0.0
 40
200.0
  1
外 形 図
  7
STYLE2
100
AcDbText
  0
TEXT
  5
10B74
330
747D
100
AcDbEntity
  8
文字
 62
     7
 48
50.0
100
AcDbText
 10
13201.43669998441
 20
477.2740661031255
 30
0.0
 40
160.0
  1
機種名
  7
STYLE2
100
AcDbText
  0
TEXT
  5
10B75
330
747D
100
AcDbEntity
  8
文字
 62
     7
 48
50.0
100
AcDbText
 10
13209.4053442172
 20
228.5435242569016
 30
0.0
 40
100.0
  1
○有効開口寸法 ： 2844×1948(mm)
  7
STYLE2
100
AcDbText
  0
TEXT
  5
10B76
330
747D
100
AcDbEntity
  8
文字
 62
     7
 48
50.0
100
AcDbText
 10
13209.4053442172
 20
76.09434707649343
 30
0.0
 40
100.0
  1
○床面積 ： 10.58㎡(3.21坪) 　
  7
STYLE2
100
AcDbText
  0
TEXT
  5
10B79
330
747D
100
AcDbEntity
  8
文字
 62
     7
 48
50.0
100
AcDbText
 10
14524.131837222
 20
1031.557706291228
 30
0.0
 40
100.0
  1
NO.33      <縮尺> S=1/40
  7
STYLE2
100
AcDbText
  0
LINE
  5
10B7B
330
747D
100
AcDbEntity
  8
仕様書枠
 48
50.0
100
AcDbLine
 10
13107.2
 20
800.0
 30
0.0
 11
14251.2
 21
800.0
 31
0.0
  0
LINE
  5
10B88
330
747D
100
AcDbEntity
  8
仕様書枠
  6
Continuous
 48
50.0
100
AcDbLine
 10
14251.2
 20
1200.0
 30
0.0
 11
14251.2
 21
800.0
 31
0.0
  0
TEXT
  5
10BB0
330
747D
100
AcDbEntity
  8
文字
 62
     7
 48
50.0
100
AcDbText
 10
14447.36089074237
 20
483.8967129911414
 30
0.0
 40
160.0
  1
FXN-105HD
  7
STYLE2
100
AcDbText
  0
LINE
  5
12765
330
747D
100
AcDbEntity
  8
Ｇ．Ｌ
100
AcDbLine
 10
3630.194947317958
 20
2437.931598713261
 30
0.0
 11
14864.58203841161
 21
2437.931598713261
 31
0.0
  0
DIMENSION
  5
14E59
330
747D
100
AcDbEntity
  8
寸法
100
AcDbDimension
  2
*D1
 10
8780.994837462491
 20
6982.497424545956
 30
0.0
 11
8680.99483746249
 21
8717.497424545962
 31
0.0
 70
    32
 71
     5
 42
3470.000000000008
  3
INABA_S40G
100
AcDbAlignedDimension
 13
7768.461549988447
 23
10452.49742454596
 33
0.0
 14
7768.461549988422
 24
6982.497424545956
 34
0.0
 50
90.0
100
AcDbRotatedDimension
1001
ACAD
1000
DSTYLE
1002
{
1002
}
  0
DIMENSION
  5
14E5A
330
747D
100
AcDbEntity
  8
寸法
100
AcDbDimension
  2
*D2
 10
7713.461549988448
 20
10668.30564417097
 30
0.0
 11
6243.461549988448
 21
10768.31745519459
 31
0.0
 70
    32
  1
7X420=<>
 71
     5
 42
2940.000000000001
  3
INABA_S40G
100
AcDbAlignedDimension
 13
4773.461549988446
 23
10452.49742454587
 33
0.0
 14
7713.461549988448
 24
10452.49742454596
 34
0.0
100
AcDbRotatedDimension
1001
ACAD
1000
DSTYLE
1002
{
1002
}
  0
DIMENSION
  5
14E5B
330
747D
100
AcDbEntity
  8
寸法
100
AcDbDimension
  2
*D3
 10
7768.461549988447
 20
10668.30564417095
 30
0.0
 11
8076.946831362686
 21
10668.30564417095
 31
0.0
 70
   160
 71
     5
 42
55.0
  3
INABA_S40G
100
AcDbAlignedDimension
 13
7713.461549988448
 23
10452.49742454596
 33
0.0
 14
7768.461549988447
 24
10452.49742454596
 34
0.0
100
AcDbRotatedDimension
1001
ACAD
1000
DSTYLE
1002
{
1002
}
  0
DIMENSION
  5
14E5C
330
747D
100
AcDbEntity
  8
寸法
100
AcDbDimension
  2
*D4
 10
8415.887895722859
 20
10397.49742454596
 30
0.0
 11
8415.887895722857
 21
10760.9827059202
 31
0.0
 70
   160
 71
     5
 42
54.99999999999636
  3
INABA_S40G
100
AcDbAlignedDimension
 13
7768.461549988447
 23
10452.49742454596
 33
0.0
 14
7768.461549988447
 24
10397.49742454596
 34
0.0
 50
90.0
100
AcDbRotatedDimension
1001
ACAD
1000
DSTYLE
1002
{
1002
}
  0
DIMENSION
  5
14E5D
330
747D
100
AcDbEntity
  8
寸法
100
AcDbDimension
  2
*D5
 10
4773.461549988446
 20
10668.30564417085
 30
0.0
 11
4409.976268614173
 21
10668.30564417085
 31
0.0
 70
   160
 71
     5
 42
55.00000000003456
  3
INABA_S40G
100
AcDbAlignedDimension
 13
4718.461549988412
 23
10452.49742454587
 33
0.0
 14
4773.461549988446
 24
10452.49742454587
 34
0.0
100
AcDbRotatedDimension
1001
ACAD
1000
DSTYLE
1002
{
1002
}
  0
LINE
  5
14E67
330
747D
100
AcDbEntity
  8
部品1
100
AcDbLine
 10
4718.461549988446
 20
10452.49742454587
 30
0.0
 11
7768.461549988447
 21
10452.49742454596
 31
0.0
  0
LINE
  5
14E6C
330
747D
100
AcDbEntity
  8
部品1
100
AcDbLine
 10
7768.461549988422
 20
6982.497424545956
 30
0.0
 11
7713.461549988425
 21
6982.497424545953
 31
0.0
  0
DIMENSION
  5
14E6F
330
747D
100
AcDbEntity
  8
寸法
100
AcDbDimension
  2
*D6
 10
7768.461549988422
 20
6161.893658188827
 30
0.0
 11
6243.461549988431
 21
6261.893658188826
 31
0.0
 70
    32
 71
     5
 42
3049.999999999982
  3
INABA_S40G
100
AcDbAlignedDimension
 13
4718.46154998844
 23
6982.497424545792
 33
0.0
 14
7768.461549988422
 24
6982.49742454592
 34
0.0
100
AcDbRotatedDimension
1001
ACAD
1000
DSTYLE
1002
{
1002
}
  0
LINE
  5
14E72
330
747D
100
AcDbEntity
  8
部品1
100
AcDbLine
 10
4746.461549988422
 20
7037.497424545822
 30
0.0
 11
4746.461549988435
 21
10424.49742454587
 31
0.0
  0
LINE
  5
14E73
330
747D
100
AcDbEntity
  8
部品1
100
AcDbLine
 10
4718.461549988412
 20
10452.49742454583
 30
0.0
 11
4718.46154998844
 21
6982.497424545825
 31
0.0
  0
LINE
  5
14E7C
330
747D
100
AcDbEntity
  8
部品1
100
AcDbLine
 10
4746.461549988438
 20
7037.49742454584
 30
0.0
 11
4718.461549988439
 21
7037.49742454584
 31
0.0
  0
LINE
  5
14E7D
330
747D
100
AcDbEntity
  8
部品1
100
AcDbLine
 10
4746.461549988422
 20
7037.497424545825
 30
0.0
 11
4718.461549988439
 21
7037.497424545825
 31
0.0
  0
LINE
  5
14E7E
330
747D
100
AcDbEntity
  8
部品1
100
AcDbLine
 10
4773.461549988438
 20
7037.497424545789
 30
0.0
 11
4718.461549988439
 21
7037.497424545789
 31
0.0
  0
LINE
  5
14E81
330
747D
100
AcDbEntity
  8
部品1
100
AcDbLine
 10
4746.461549988427
 20
9557.497424545841
 30
0.0
 11
4718.461549988426
 21
9557.497424545841
 31
0.0
  0
LINE
  5
14E83
330
747D
100
AcDbEntity
  8
部品1
100
AcDbLine
 10
4746.461549988421
 20
9977.497424545839
 30
0.0
 11
4718.461549988421
 21
9977.497424545839
 31
0.0
  0
LINE
  5
14E84
330
747D
100
AcDbEntity
  8
部品1
100
AcDbLine
 10
4746.461549988413
 20
10397.49742454584
 30
0.0
 11
4718.461549988414
 21
10397.49742454584
 31
0.0
  0
LINE
  5
14E85
330
747D
100
AcDbEntity
  8
部品1
100
AcDbLine
 10
4773.461549988446
 20
10452.49742454587
 30
0.0
 11
4773.461549988446
 21
10424.49742454587
 31
0.0
  0
LINE
  5
14E86
330
747D
100
AcDbEntity
  8
部品1
100
AcDbLine
 10
4773.461549988412
 20
10452.49742454583
 30
0.0
 11
4773.461549988414
 21
10424.49742454583
 31
0.0
  0
DIMENSION
  5
14E87
330
747D
100
AcDbEntity
  8
寸法
100
AcDbDimension
  2
*D7
 10
8415.887895722834
 20
6982.497424545956
 30
0.0
 11
8415.887895722832
 21
6604.635957641093
 31
0.0
 70
   160
 71
     5
 42
54.99999999999636
  3
INABA_S40G
100
AcDbAlignedDimension
 13
7768.461549988422
 23
7037.497424545953
 33
0.0
 14
7768.461549988422
 24
6982.497424545956
 34
0.0
 50
90.0
100
AcDbRotatedDimension
1001
ACAD
1000
DSTYLE
1002
{
1002
}
  0
LINE
  5
14E90
330
747D
100
AcDbEntity
  8
部品1
100
AcDbLine
 10
4746.461549988435
 20
10424.49742454599
 30
0.0
 11
7740.461549988447
 21
10424.49742454596
 31
0.0
  0
LINE
  5
14EBE
330
747D
100
AcDbEntity
  8
部品1
100
AcDbLine
 10
5193.461549988446
 20
10452.49742454587
 30
0.0
 11
5193.461549988446
 21
10424.49742454587
 31
0.0
  0
LINE
  5
14EBF
330
747D
100
AcDbEntity
  8
部品1
100
AcDbLine
 10
5193.461549988446
 20
10452.49742454587
 30
0.0
 11
5193.461549988446
 21
10424.49742454587
 31
0.0
  0
LINE
  5
14EC0
330
747D
100
AcDbEntity
  8
部品1
100
AcDbLine
 10
5193.461549988446
 20
10452.49742454598
 30
0.0
 11
5193.461549988446
 21
10424.49742454598
 31
0.0
  0
LINE
  5
14ECC
330
747D
100
AcDbEntity
  8
部品1
100
AcDbLine
 10
7293.461549988447
 20
10452.49742454598
 30
0.0
 11
7293.461549988447
 21
10424.49742454598
 31
0.0
  0
DIMENSION
  5
14ED1
330
747D
100
AcDbEntity
  8
寸法
100
AcDbDimension
  2
*D8
 10
8415.887895722855
 20
7037.497424545953
 30
0.0
 11
8315.876084699231
 21
8717.497424545962
 31
0.0
 70
    32
  1
8X420=<>
 71
     5
 42
3360.000000000014
  3
INABA_S40G
100
AcDbAlignedDimension
 13
7768.461549988447
 23
10397.49742454596
 33
0.0
 14
7768.461549988422
 24
7037.497424545953
 34
0.0
 50
90.0
100
AcDbRotatedDimension
1001
ACAD
1000
DSTYLE
1002
{
1002
}
  0
LINE
  5
14ED2
330
747D
100
AcDbEntity
  8
部品1
100
AcDbLine
 10
7768.461549988447
 20
10452.49742454596
 30
0.0
 11
7768.461549988422
 21
6982.497424545956
 31
0.0
  0
LINE
  5
14ED3
330
747D
100
AcDbEntity
  8
部品1
100
AcDbLine
 10
7713.461549988422
 20
7037.497424545967
 30
0.0
 11
7768.461549988455
 21
7037.497424545967
 31
0.0
  0
LINE
  5
14EDE
330
747D
100
AcDbEntity
  8
部品1
100
AcDbLine
 10
7740.461549988451
 20
9557.497424545967
 30
0.0
 11
7768.461549988451
 21
9557.497424545967
 31
0.0
  0
LINE
  5
14EE0
330
747D
100
AcDbEntity
  8
部品1
100
AcDbLine
 10
7740.461549988447
 20
9977.497424545967
 30
0.0
 11
7768.461549988447
 21
9977.497424545967
 31
0.0
  0
LINE
  5
14EE1
330
747D
100
AcDbEntity
  8
部品1
100
AcDbLine
 10
7740.461549988447
 20
10397.49742454596
 30
0.0
 11
7768.461549988447
 21
10397.49742454596
 31
0.0
  0
LINE
  5
14EE2
330
747D
100
AcDbEntity
  8
部品1
100
AcDbLine
 10
7713.461549988448
 20
10452.49742454598
 30
0.0
 11
7713.461549988448
 21
10424.49742454598
 31
0.0
  0
LINE
  5
14EE3
330
747D
100
AcDbEntity
  8
部品1
100
AcDbLine
 10
7713.461549988448
 20
10452.49742454596
 30
0.0
 11
7713.461549988448
 21
10424.49742454596
 31
0.0
  0
LINE
  5
15151
330
747D
100
AcDbEntity
  8
部品1
100
AcDbLine
 10
5613.461549988446
 20
10452.49742454587
 30
0.0
 11
5613.461549988446
 21
10424.49742454587
 31
0.0
  0
LINE
  5
15152
330
747D
100
AcDbEntity
  8
部品1
100
AcDbLine
 10
5613.461549988446
 20
10452.49742454587
 30
0.0
 11
5613.461549988446
 21
10424.49742454587
 31
0.0
  0
LINE
  5
15153
330
747D
100
AcDbEntity
  8
部品1
100
AcDbLine
 10
5613.461549988446
 20
10452.49742454598
 30
0.0
 11
5613.461549988446
 21
10424.49742454598
 31
0.0
  0
LINE
  5
15535
330
747D
100
AcDbEntity
  8
部品1
100
AcDbLine
 10
7740.461549988435
 20
10424.49742454596
 30
0.0
 11
7740.461549988424
 21
7037.497424545953
 31
0.0
  0
LINE
  5
15536
330
747D
100
AcDbEntity
  8
部品1
100
AcDbLine
 10
7713.461549988439
 20
10397.49742454593
 30
0.0
 11
7713.461549988425
 21
6982.497424545953
 31
0.0
  0
LINE
  5
1553F
330
747D
100
AcDbEntity
  8
部品1
100
AcDbLine
 10
4773.461549988422
 20
10397.49742454597
 30
0.0
 11
4773.461549988438
 21
7047.497424545864
 31
0.0
  0
LINE
  5
15D59
330
747D
100
AcDbEntity
  8
部品1
100
AcDbLine
 10
4798.461549988422
 20
10397.49742454597
 30
0.0
 11
4798.46154998844
 21
7047.497424545864
 31
0.0
  0
LINE
  5
15D5A
330
747D
100
AcDbEntity
  8
部品1
100
AcDbLine
 10
7688.461549988442
 20
10397.49742454593
 30
0.0
 11
7688.461549988423
 21
7047.497424545864
 31
0.0
  0
LINE
  5
15D5D
330
747D
100
AcDbEntity
  8
部品1
100
AcDbLine
 10
4773.461549988438
 20
7018.497424545863
 30
0.0
 11
4750.46154998844
 21
7018.497424545863
 31
0.0
  0
LINE
  5
15D60
330
747D
100
AcDbEntity
  8
部品1
100
AcDbLine
 10
4821.46154998844
 20
7008.497424545865
 30
0.0
 11
4773.46154998844
 21
7008.497424545864
 31
0.0
  0
LINE
  5
15D61
330
747D
100
AcDbEntity
  8
部品1
100
AcDbLine
 10
4821.46154998844
 20
7047.497424545865
 30
0.0
 11
4773.46154998844
 21
7047.497424545864
 31
0.0
  0
LINE
  5
15D62
330
747D
100
AcDbEntity
  8
部品1
 48
50.0
100
AcDbLine
 10
4821.46154998844
 20
7047.497424545865
 30
0.0
 11
4821.46154998844
 21
7038.497424545865
 31
0.0
  0
LINE
  5
15D63
330
747D
100
AcDbEntity
  8
部品1
 48
50.0
100
AcDbLine
 10
4821.46154998844
 20
7008.497424545865
 30
0.0
 11
4821.46154998844
 21
7017.497424545865
 31
0.0
  0
LINE
  5
15D64
330
747D
100
AcDbEntity
  8
部品1
 48
50.0
100
AcDbLine
 10
4773.46154998844
 20
7047.497424545864
 30
0.0
 11
4773.461549988437
 21
6982.497424545865
 31
0.0
  0
LINE
  5
15D71
330
747D
100
AcDbEntity
  8
部品1
 48
50.0
100
AcDbLine
 10
4783.46154998844
 20
7008.497424545864
 30
0.0
 11
4773.46154998844
 21
6987.497424545864
 31
0.0
  0
LINE
  5
15D72
330
747D
100
AcDbEntity
  8
部品1
100
AcDbLine
 10
7665.461549988423
 20
7008.497424545865
 30
0.0
 11
7713.461549988422
 21
7008.497424545864
 31
0.0
  0
LINE
  5
15D73
330
747D
100
AcDbEntity
  8
部品1
 48
50.0
100
AcDbLine
 10
7665.461549988423
 20
7008.497424545865
 30
0.0
 11
7665.461549988423
 21
7017.497424545865
 31
0.0
  0
LINE
  5
15D74
330
747D
100
AcDbEntity
  8
部品1
100
AcDbLine
 10
7665.461549988423
 20
7047.497424545865
 30
0.0
 11
7713.461549988423
 21
7047.497424545864
 31
0.0
  0
LINE
  5
15D75
330
747D
100
AcDbEntity
  8
部品1
 48
50.0
100
AcDbLine
 10
7665.461549988423
 20
7047.497424545865
 30
0.0
 11
7665.461549988423
 21
7038.497424545865
 31
0.0
  0
LINE
  5
15D76
330
747D
100
AcDbEntity
  8
部品1
100
AcDbLine
 10
7713.461549988422
 20
7018.497424545863
 30
0.0
 11
7736.461549988423
 21
7018.497424545863
 31
0.0
  0
LINE
  5
15D78
330
747D
100
AcDbEntity
  8
部品1
 48
50.0
100
AcDbLine
 10
7703.461549988422
 20
7008.497424545864
 30
0.0
 11
7713.461549988422
 21
6987.497424545864
 31
0.0
  0
LINE
  5
15D7A
330
747D
100
AcDbEntity
  8
部品1
 48
50.0
100
AcDbLine
 10
4773.46154998844
 20
7018.497424545863
 30
0.0
 11
4750.46154998844
 21
7018.497424545863
 31
0.0
  0
LINE
  5
15D7B
330
747D
100
AcDbEntity
  8
部品1
 48
50.0
100
AcDbLine
 10
4785.461549988439
 20
7027.997424545863
 30
0.0
 11
7701.461549988422
 21
7027.997424545863
 31
0.0
  0
LINE
  5
15D85
330
747D
100
AcDbEntity
  8
部品1
100
AcDbLine
 10
4773.461549988435
 20
6982.497424545865
 30
0.0
 11
4718.46154998844
 21
6982.497424545861
 31
0.0
  0
DIMENSION
  5
15E45
330
747D
100
AcDbEntity
  8
寸法
 48
50.0
100
AcDbDimension
  2
*D9
 10
7713.461549988425
 20
6448.066653779702
 30
0.0
 11
8076.94683136266
 21
6448.066653779702
 31
0.0
 70
   160
 71
     5
 42
54.99999999999818
  3
INABA_S40G
100
AcDbAlignedDimension
 13
7768.461549988422
 23
6982.497424545956
 33
0.0
 14
7713.461549988425
 24
6982.497424545953
 34
0.0
100
AcDbRotatedDimension
1001
ACAD
1000
DSTYLE
1002
{
1002
}
  0
DIMENSION
  5
15E53
330
747D
100
AcDbEntity
  8
寸法
 48
50.0
100
AcDbDimension
  2
*D10
 10
7665.461549988423
 20
6448.066653779701
 30
0.0
 11
7554.498652339674
 21
6548.0666537797
 31
0.0
 70
   160
 71
     5
 42
48.00000000000181
  3
INABA_S40G
100
AcDbAlignedDimension
 13
7713.461549988425
 23
6982.497424545953
 33
0.0
 14
7665.461549988423
 24
7008.497424545865
 34
0.0
100
AcDbRotatedDimension
1001
ACAD
1000
DSTYLE
1002
{
1070
   279
1070
     2
1002
}
  0
DIMENSION
  5
15E5F
330
747D
100
AcDbEntity
  8
寸法
 48
50.0
100
AcDbDimension
  2
*D11
 10
4821.46154998844
 20
6448.066653779701
 30
0.0
 11
6243.461549988431
 21
6548.078464803322
 31
0.0
 70
    32
  1
有効開口部間口 <>
 71
     5
 42
2843.999999999982
  3
INABA_S40G
100
AcDbAlignedDimension
 13
7665.461549988423
 23
7008.497424545865
 33
0.0
 14
4821.46154998844
 24
7008.497424545864
 34
0.0
100
AcDbRotatedDimension
1001
ACAD
1000
DSTYLE
1002
{
1070
    75
1070
     1
1070
   279
1070
     2
1002
}
  0
DIMENSION
  5
15E6D
330
747D
100
AcDbEntity
  8
寸法
 48
50.0
100
AcDbDimension
  2
*D12
 10
4773.461549988437
 20
6448.066653779701
 30
0.0
 11
4934.363520988497
 21
6548.0666537797
 31
0.0
 70
   160
 71
     5
 42
48.00000000000363
  3
INABA_S40G
100
AcDbAlignedDimension
 13
4821.46154998844
 23
7008.497424545864
 33
0.0
 14
4773.461549988437
 24
6982.497424545865
 34
0.0
100
AcDbRotatedDimension
1001
ACAD
1000
DSTYLE
1002
{
1070
   279
1070
     2
1002
}
  0
DIMENSION
  5
15E7B
330
747D
100
AcDbEntity
  8
寸法
 48
50.0
100
AcDbDimension
  2
*D13
 10
4718.46154998844
 20
6448.066653779701
 30
0.0
 11
4409.976268614202
 21
6448.066653779701
 31
0.0
 70
   160
 71
     5
 42
54.99999999999636
  3
INABA_S40G
100
AcDbAlignedDimension
 13
4773.461549988437
 23
6982.497424545865
 33
0.0
 14
4718.46154998844
 24
6982.497424545861
 34
0.0
100
AcDbRotatedDimension
1001
ACAD
1000
DSTYLE
1002
{
1002
}
  0
LINE
  5
16187
330
747D
100
AcDbEntity
  8
部品1
100
AcDbLine
 10
6033.461549988447
 20
10452.49742454598
 30
0.0
 11
6033.461549988447
 21
10424.49742454598
 31
0.0
  0
LINE
  5
16188
330
747D
100
AcDbEntity
  8
部品1
100
AcDbLine
 10
6033.461549988447
 20
10452.49742454587
 30
0.0
 11
6033.461549988447
 21
10424.49742454587
 31
0.0
  0
LINE
  5
16189
330
747D
100
AcDbEntity
  8
部品1
100
AcDbLine
 10
6033.461549988447
 20
10452.49742454587
 30
0.0
 11
6033.461549988447
 21
10424.49742454587
 31
0.0
  0
LINE
  5
1618A
330
747D
100
AcDbEntity
  8
部品1
100
AcDbLine
 10
6873.461549988447
 20
10452.49742454598
 30
0.0
 11
6873.461549988447
 21
10424.49742454598
 31
0.0
  0
LINE
  5
1618B
330
747D
100
AcDbEntity
  8
部品1
100
AcDbLine
 10
6453.461549988446
 20
10452.49742454598
 30
0.0
 11
6453.461549988446
 21
10424.49742454598
 31
0.0
  0
LINE
  5
161D9
330
747D
100
AcDbEntity
  8
部品1
100
AcDbLine
 10
7740.461549988451
 20
9137.497424545967
 30
0.0
 11
7768.461549988451
 21
9137.497424545967
 31
0.0
  0
LINE
  5
161DA
330
747D
100
AcDbEntity
  8
部品1
100
AcDbLine
 10
7740.461549988451
 20
8297.497424545968
 30
0.0
 11
7768.461549988451
 21
8297.497424545968
 31
0.0
  0
LINE
  5
161DB
330
747D
100
AcDbEntity
  8
部品1
100
AcDbLine
 10
7740.461549988451
 20
8717.497424545966
 30
0.0
 11
7768.461549988451
 21
8717.497424545966
 31
0.0
  0
LINE
  5
161DC
330
747D
100
AcDbEntity
  8
部品1
100
AcDbLine
 10
7740.461549988451
 20
7457.497424545967
 30
0.0
 11
7768.461549988451
 21
7457.497424545967
 31
0.0
  0
LINE
  5
161DD
330
747D
100
AcDbEntity
  8
部品1
100
AcDbLine
 10
7740.461549988451
 20
7877.497424545968
 30
0.0
 11
7768.461549988451
 21
7877.497424545968
 31
0.0
  0
LINE
  5
161DE
330
747D
100
AcDbEntity
  8
部品1
100
AcDbLine
 10
4718.461549988424
 20
7457.497424545978
 30
0.0
 11
4746.461549988423
 21
7457.497424545978
 31
0.0
  0
LINE
  5
161DF
330
747D
100
AcDbEntity
  8
部品1
100
AcDbLine
 10
4718.461549988424
 20
7877.497424545978
 30
0.0
 11
4746.461549988423
 21
7877.497424545978
 31
0.0
  0
LINE
  5
161E0
330
747D
100
AcDbEntity
  8
部品1
100
AcDbLine
 10
4718.461549988424
 20
8297.497424545978
 30
0.0
 11
4746.461549988423
 21
8297.497424545978
 31
0.0
  0
LINE
  5
161E1
330
747D
100
AcDbEntity
  8
部品1
100
AcDbLine
 10
4718.461549988424
 20
8717.497424545978
 30
0.0
 11
4746.461549988423
 21
8717.497424545978
 31
0.0
  0
LINE
  5
161E2
330
747D
100
AcDbEntity
  8
部品1
100
AcDbLine
 10
4718.461549988424
 20
9137.497424545978
 30
0.0
 11
4746.461549988423
 21
9137.497424545978
 31
0.0
  0
LINE
  5
164BA
330
747D
100
AcDbEntity
  8
部品1
100
AcDbLine
 10
4773.461549988422
 20
10397.49742454597
 30
0.0
 11
7713.461549988439
 21
10397.49742454593
 31
0.0
  0
LINE
  5
164BB
330
747D
100
AcDbEntity
  8
部品1
100
AcDbLine
 10
4798.461549988422
 20
10372.49742454597
 30
0.0
 11
7688.461549988442
 21
10372.49742454593
 31
0.0
  0
LINE
  5
164BD
330
747D
100
AcDbEntity
  8
部品1
 48
50.0
100
AcDbLine
 10
7740.461549988447
 20
10424.49742454596
 30
0.0
 11
7713.461549988439
 21
10397.49742454593
 31
0.0
  0
LINE
  5
164BE
330
747D
100
AcDbEntity
  8
部品1
 48
50.0
100
AcDbLine
 10
4746.461549988446
 20
10424.49742454587
 30
0.0
 11
4773.461549988422
 21
10397.49742454597
 31
0.0
  0
LINE
  5
166E7
330
747D
100
AcDbEntity
  8
仕様書枠
 48
50.0
100
AcDbLine
 10
16307.19999999999
 20
9709.6
 30
0.0
 11
13127.19999999999
 21
9709.600000000001
 31
0.0
  0
TEXT
  5
166E8
330
747D
100
AcDbEntity
  8
文字
 62
     7
 48
50.0
100
AcDbText
 10
13229.83081656555
 20
8550.013745883729
 30
0.0
 40
100.0
  1
Z08→塗装溶融亜鉛めっき鋼板(JIS G 3313)
  7
STYLE1
100
AcDbText
  0
TEXT
  5
166E9
330
747D
100
AcDbEntity
  8
文字
 62
     7
 48
50.0
100
AcDbText
 10
13229.83081656555
 20
8720.013745883727
 30
0.0
 40
100.0
  1
Y10→溶融亜鉛-5％アルミニウム合金めっき鋼板(JIS G 3317)
 41
0.9
  7
STYLE1
100
AcDbText
  0
TEXT
  5
166EA
330
747D
100
AcDbEntity
  8
文字
 62
     7
 48
50.0
100
AcDbText
 10
13229.83081656555
 20
8890.013745883727
 30
0.0
 40
100.0
  1
F12→溶融亜鉛めっき鋼板(JIS G 3302)
  7
STYLE1
100
AcDbText
  0
LINE
  5
166EB
330
747D
100
AcDbEntity
  8
仕様書枠
 48
50.0
100
AcDbLine
 10
16307.19999999999
 20
8519.599999999998
 30
0.0
 11
13127.19999999999
 21
8519.600000000002
 31
0.0
  0
LINE
  5
166EC
330
747D
100
AcDbEntity
  8
仕様書枠
 48
50.0
100
AcDbLine
 10
16307.19999999999
 20
8689.599999999998
 30
0.0
 11
13127.19999999999
 21
8689.6
 31
0.0
  0
LINE
  5
166ED
330
747D
100
AcDbEntity
  8
仕様書枠
 48
50.0
100
AcDbLine
 10
16307.19999999999
 20
8859.599999999998
 30
0.0
 11
13127.19999999999
 21
8859.6
 31
0.0
  0
TEXT
  5
166EE
330
747D
100
AcDbEntity
  8
文字
 62
     7
 48
50.0
100
AcDbText
 10
15022.63965474516
 20
9400.013745883724
 30
0.0
 40
100.0
  1
Z08            0.5
  7
STYLE1
100
AcDbText
  0
TEXT
  5
166F0
330
747D
100
AcDbEntity
  8
文字
 62
     7
 48
50.0
100
AcDbText
 10
14850.83183167176
 20
9060.013745883725
 30
0.0
 40
100.0
  1
アルミニウム合金押出形材
  7
STYLE1
100
AcDbText
  0
TEXT
  5
166F1
330
747D
100
AcDbEntity
  8
文字
 62
     7
 48
50.0
100
AcDbText
 10
15022.63965474516
 20
9570.013745883725
 30
0.0
 40
100.0
  1
F12            0.7
  7
STYLE1
100
AcDbText
  0
TEXT
  5
166F2
330
747D
100
AcDbEntity
  8
文字
 62
     7
 48
50.0
100
AcDbText
 10
15022.63965474517
 20
9740.013745883725
 30
0.0
 40
100.0
  1
Y10            0.5
  7
STYLE1
100
AcDbText
  0
TEXT
  5
166F3
330
747D
100
AcDbEntity
  8
文字
 62
     7
 48
50.0
100
AcDbText
 10
15022.63965474516
 20
10080.01374588372
 30
0.0
 40
100.0
  1
Y10            0.7
  7
STYLE1
100
AcDbText
  0
TEXT
  5
166F4
330
747D
100
AcDbEntity
  8
文字
 62
     7
 48
50.0
100
AcDbText
 10
15022.63965474516
 20
10250.01374588372
 30
0.0
 40
100.0
  1
Y10            0.7
  7
STYLE1
100
AcDbText
  0
TEXT
  5
166F5
330
747D
100
AcDbEntity
  8
文字
 62
     7
 48
50.0
100
AcDbText
 10
15022.63965474516
 20
10420.01374588372
 30
0.0
 40
100.0
  1
Y10            1.0
  7
STYLE1
100
AcDbText
  0
TEXT
  5
166F6
330
747D
100
AcDbEntity
  8
文字
 62
     7
 48
50.0
100
AcDbText
 10
15022.63965474516
 20
10590.01374588372
 30
0.0
 40
100.0
  1
Y10            1.0
  7
STYLE1
100
AcDbText
  0
TEXT
  5
166F7
330
747D
100
AcDbEntity
  8
文字
 62
     7
 48
50.0
100
AcDbText
 10
15022.63965474517
 20
10760.01374588372
 30
0.0
 40
100.0
  1
F12         1.0,1.2
  7
STYLE1
100
AcDbText
  0
TEXT
  5
166F8
330
747D
100
AcDbEntity
  8
文字
 62
     7
 48
50.0
100
AcDbText
 10
15022.63965474517
 20
10930.01374588372
 30
0.0
 40
100.0
  1
F12            1.2
  7
STYLE1
100
AcDbText
  0
TEXT
  5
166F9
330
747D
100
AcDbEntity
  8
文字
 62
     7
 48
50.0
100
AcDbText
 10
13248.77747366448
 20
9060.013745883729
 30
0.0
 40
100.0
  1
12
  7
STYLE1
100
AcDbText
  0
TEXT
  5
166FA
330
747D
100
AcDbEntity
  8
文字
 62
     7
 48
50.0
100
AcDbText
 10
13583.11819016569
 20
9400.013745883727
 30
0.0
 40
100.0
  1
シャッター
  7
STYLE1
100
AcDbText
  0
LINE
  5
166FB
330
747D
100
AcDbEntity
  8
仕様書枠
 48
50.0
100
AcDbLine
 10
16307.19999999999
 20
9029.6
 30
0.0
 11
13127.19999999999
 21
9029.600000000002
 31
0.0
  0
LINE
  5
166FC
330
747D
100
AcDbEntity
  8
仕様書枠
 48
50.0
100
AcDbLine
 10
16307.19999999999
 20
9199.599999999998
 30
0.0
 11
13127.19999999999
 21
9199.600000000001
 31
0.0
  0
TEXT
  5
166FD
330
747D
100
AcDbEntity
  8
文字
 62
     7
 48
50.0
100
AcDbText
 10
13583.11819016569
 20
9230.013745883727
 30
0.0
 40
100.0
  1
シャッターカバー
 41
0.9
  7
STYLE1
100
AcDbText
  0
TEXT
  5
166FE
330
747D
100
AcDbEntity
  8
文字
 62
     7
 48
50.0
100
AcDbText
 10
13248.77747366448
 20
9230.013745883727
 30
0.0
 40
100.0
  1
11
  7
STYLE1
100
AcDbText
  0
LINE
  5
166FF
330
747D
100
AcDbEntity
  8
仕様書枠
 48
50.0
100
AcDbLine
 10
16307.19999999999
 20
9879.599999999999
 30
0.0
 11
13127.2
 21
9879.600000000001
 31
0.0
  0
LINE
  5
16700
330
747D
100
AcDbEntity
  8
仕様書枠
 48
50.0
100
AcDbLine
 10
16307.19999999999
 20
10049.6
 30
0.0
 11
13127.2
 21
10049.6
 31
0.0
  0
LINE
  5
16701
330
747D
100
AcDbEntity
  8
仕様書枠
 48
50.0
100
AcDbLine
 10
16307.19999999999
 20
9539.599999999998
 30
0.0
 11
13127.19999999999
 21
9539.6
 31
0.0
  0
LINE
  5
16702
330
747D
100
AcDbEntity
  8
仕様書枠
 48
50.0
100
AcDbLine
 10
16307.19999999999
 20
9369.599999999998
 30
0.0
 11
13127.19999999999
 21
9369.600000000001
 31
0.0
  0
TEXT
  5
16703
330
747D
100
AcDbEntity
  8
文字
 62
     7
 48
50.0
100
AcDbText
 10
13271.19032244792
 20
10080.01374588373
 30
0.0
 40
100.0
  1
6
  7
STYLE1
100
AcDbText
  0
TEXT
  5
16704
330
747D
100
AcDbEntity
  8
文字
 62
     7
 48
50.0
100
AcDbText
 10
13271.19032244792
 20
9910.01374588373
 30
0.0
 40
100.0
  1
7
  7
STYLE1
100
AcDbText
  0
TEXT
  5
16705
330
747D
100
AcDbEntity
  8
文字
 62
     7
 48
50.0
100
AcDbText
 10
13271.19032244792
 20
9570.013745883729
 30
0.0
 40
100.0
  1
9
  7
STYLE1
100
AcDbText
  0
TEXT
  5
16706
330
747D
100
AcDbEntity
  8
文字
 62
     7
 48
50.0
100
AcDbText
 10
13271.19032244792
 20
9740.013745883729
 30
0.0
 40
100.0
  1
8
  7
STYLE1
100
AcDbText
  0
TEXT
  5
16707
330
747D
100
AcDbEntity
  8
文字
 62
     7
 48
50.0
100
AcDbText
 10
13583.11819016569
 20
10080.01374588372
 30
0.0
 40
100.0
  1
鼻隠シ前後
  7
STYLE1
100
AcDbText
  0
TEXT
  5
16708
330
747D
100
AcDbEntity
  8
文字
 62
     7
 48
50.0
100
AcDbText
 10
13583.11819016569
 20
9910.013745883727
 30
0.0
 40
100.0
  1
母屋中
  7
STYLE1
100
AcDbText
  0
TEXT
  5
16709
330
747D
100
AcDbEntity
  8
文字
 62
     7
 48
50.0
100
AcDbText
 10
13583.11819016569
 20
9740.013745883729
 30
0.0
 40
100.0
  1
屋根パネル
  7
STYLE1
100
AcDbText
  0
TEXT
  5
1670A
330
747D
100
AcDbEntity
  8
文字
 62
     7
 48
50.0
100
AcDbText
 10
13583.11819016569
 20
9570.013745883729
 30
0.0
 40
100.0
  1
壁パネル
  7
STYLE1
100
AcDbText
  0
TEXT
  5
1670B
330
747D
100
AcDbEntity
  8
文字
 62
     7
 48
50.0
100
AcDbText
 10
13248.77747366448
 20
9400.013745883727
 30
0.0
 40
100.0
  1
10
  7
STYLE1
100
AcDbText
  0
TEXT
  5
1670C
330
747D
100
AcDbEntity
  8
文字
 62
     7
 48
50.0
100
AcDbText
 10
13583.11819016569
 20
9060.013745883727
 30
0.0
 40
100.0
  1
シャッターレール
  7
STYLE1
100
AcDbText
  0
TEXT
  5
1670D
330
747D
100
AcDbEntity
  8
文字
 62
     7
 48
50.0
100
AcDbText
 10
13583.11819016569
 20
10250.01374588373
 30
0.0
 40
100.0
  1
妻板左右
  7
STYLE1
100
AcDbText
  0
TEXT
  5
1670E
330
747D
100
AcDbEntity
  8
文字
 62
     7
 48
50.0
100
AcDbText
 10
13271.19032244792
 20
10250.01374588373
 30
0.0
 40
100.0
  1
5
  7
STYLE1
100
AcDbText
  0
TEXT
  5
1670F
330
747D
100
AcDbEntity
  8
文字
 62
     7
 48
50.0
100
AcDbText
 10
13583.11819016569
 20
10420.01374588373
 30
0.0
 40
100.0
  1
桁後
  7
STYLE1
100
AcDbText
  0
TEXT
  5
16710
330
747D
100
AcDbEntity
  8
文字
 62
     7
 48
50.0
100
AcDbText
 10
13583.11819016569
 20
10590.01374588373
 30
0.0
 40
100.0
  1
桁前
  7
STYLE1
100
AcDbText
  0
TEXT
  5
16711
330
747D
100
AcDbEntity
  8
文字
 62
     7
 48
50.0
100
AcDbText
 10
13583.11819016569
 20
10760.01374588372
 30
0.0
 40
100.0
  1
柱
  7
STYLE1
100
AcDbText
  0
TEXT
  5
16712
330
747D
100
AcDbEntity
  8
文字
 62
     7
 48
50.0
100
AcDbText
 10
13583.11819016569
 20
10930.01374588372
 30
0.0
 40
100.0
  1
土台枠
  7
STYLE1
100
AcDbText
  0
TEXT
  5
16713
330
747D
100
AcDbEntity
  8
文字
 62
     7
 48
50.0
100
AcDbText
 10
14859.79774614482
 20
11100.01374588373
 30
0.0
 40
100.0
  1
材料（材質）　　単位mm
  7
STYLE1
100
AcDbText
  0
TEXT
  5
16714
330
747D
100
AcDbEntity
  8
文字
 62
     7
 48
50.0
100
AcDbText
 10
13732.03840939434
 20
11100.01374588373
 30
0.0
 40
100.0
  1
部　　品　　名
  7
STYLE1
100
AcDbText
  0
TEXT
  5
16715
330
747D
100
AcDbEntity
  8
文字
 62
     7
 48
50.0
100
AcDbText
 10
13271.19032244792
 20
10590.01374588373
 30
0.0
 40
100.0
  1
3
  7
STYLE1
100
AcDbText
  0
TEXT
  5
16716
330
747D
100
AcDbEntity
  8
文字
 62
     7
 48
50.0
100
AcDbText
 10
13271.19032244792
 20
10420.01374588373
 30
0.0
 40
100.0
  1
4
  7
STYLE1
100
AcDbText
  0
TEXT
  5
16717
330
747D
100
AcDbEntity
  8
文字
 62
     7
 48
50.0
100
AcDbText
 10
13271.19032244792
 20
10760.01374588373
 30
0.0
 40
100.0
  1
2
  7
STYLE1
100
AcDbText
  0
TEXT
  5
16718
330
747D
100
AcDbEntity
  8
文字
 62
     7
 48
50.0
100
AcDbText
 10
13271.19032244792
 20
10930.01374588373
 30
0.0
 40
100.0
  1
1
  7
STYLE1
100
AcDbText
  0
TEXT
  5
16719
330
747D
100
AcDbEntity
  8
文字
 62
     7
 48
50.0
100
AcDbText
 10
13197.42518560407
 20
11100.01374588373
 30
0.0
 40
100.0
  1
品番
  7
STYLE1
100
AcDbText
  0
LINE
  5
1671A
330
747D
100
AcDbEntity
  8
仕様書枠
 48
50.0
100
AcDbLine
 10
16307.19999999999
 20
10559.6
 30
0.0
 11
13127.19999999999
 21
10559.6
 31
0.0
  0
LINE
  5
1671B
330
747D
100
AcDbEntity
  8
仕様書枠
 48
50.0
100
AcDbLine
 10
16307.19999999999
 20
10219.6
 30
0.0
 11
13127.19999999999
 21
10219.6
 31
0.0
  0
LINE
  5
1671C
330
747D
100
AcDbEntity
  8
仕様書枠
 48
50.0
100
AcDbLine
 10
16307.19999999999
 20
10389.6
 30
0.0
 11
13127.19999999999
 21
10389.6
 31
0.0
  0
LINE
  5
1671D
330
747D
100
AcDbEntity
  8
仕様書枠
 48
50.0
100
AcDbLine
 10
16307.19999999999
 20
10899.6
 30
0.0
 11
13127.2
 21
10899.6
 31
0.0
  0
LINE
  5
1671E
330
747D
100
AcDbEntity
  8
仕様書枠
 48
50.0
100
AcDbLine
 10
16307.19999999999
 20
10729.6
 30
0.0
 11
13127.2
 21
10729.6
 31
0.0
  0
LINE
  5
1671F
330
747D
100
AcDbEntity
  8
仕様書枠
 48
50.0
100
AcDbLine
 10
16307.19999999999
 20
11069.6
 30
0.0
 11
13127.2
 21
11069.6
 31
0.0
  0
LINE
  5
16720
330
747D
100
AcDbEntity
  8
仕様書枠
 48
50.0
100
AcDbLine
 10
13490.2
 20
11239.6
 30
0.0
 11
13490.2
 21
9029.600000000002
 31
0.0
  0
LINE
  5
16721
330
747D
100
AcDbEntity
  8
仕様書枠
 48
50.0
100
AcDbLine
 10
14785.2
 20
11239.59999999999
 30
0.0
 11
14785.2
 21
9029.6
 31
0.0
  0
LINE
  5
16722
330
747D
100
AcDbEntity
  8
仕様書枠
 48
50.0
100
AcDbLine
 10
16307.19999999999
 20
8519.599999999996
 30
0.0
 11
16307.2
 21
11239.6
 31
0.0
  0
LINE
  5
16723
330
747D
100
AcDbEntity
  8
仕様書枠
 48
50.0
100
AcDbLine
 10
13127.2
 20
11239.6
 30
0.0
 11
13127.2
 21
8519.600000000002
 31
0.0
  0
LINE
  5
16724
330
747D
100
AcDbEntity
  8
仕様書枠
 48
50.0
100
AcDbLine
 10
16307.19999999999
 20
11239.6
 30
0.0
 11
13127.2
 21
11239.6
 31
0.0
  0
LINE
  5
16AD6
330
747D
100
AcDbEntity
  8
部品1
100
AcDbLine
 10
3729.691958642056
 20
2567.835409280926
 30
0.0
 11
3879.691958642057
 21
2567.835409280926
 31
0.0
  0
LINE
  5
16AD7
330
747D
100
AcDbEntity
  8
部品1
100
AcDbLine
 10
3804.691958642056
 20
2437.931598713261
 30
0.0
 11
3729.691958642056
 21
2567.835409280926
 31
0.0
  0
TEXT
  5
16AD8
330
747D
100
AcDbEntity
  8
部品1
100
AcDbText
 10
3907.796900766831
 20
2474.038502319163
 30
0.0
 40
125.0
  1
G.L
  7
STYLE2
100
AcDbText
  0
LINE
  5
16AD9
330
747D
100
AcDbEntity
  8
部品1
100
AcDbLine
 10
3879.691958642057
 20
2567.835409280926
 30
0.0
 11
3804.691958642056
 21
2437.931598713261
 31
0.0
  0
LINE
  5
16ADA
330
747D
100
AcDbEntity
  8
部品1
100
AcDbLine
 10
4718.46154998844
 20
2537.931598713262
 30
0.0
 11
7768.46154998844
 21
2537.931598713262
 31
0.0
  0
LINE
  5
16ADB
330
747D
100
AcDbEntity
  8
部品1
100
AcDbLine
 10
4718.46154998844
 20
4677.931598713261
 30
0.0
 11
7768.46154998844
 21
4677.931598713261
 31
0.0
  0
LINE
  5
16ADC
330
747D
100
AcDbEntity
  8
部品1
100
AcDbLine
 10
4718.46154998844
 20
4771.931598713266
 30
0.0
 11
4718.46154998844
 21
2437.931598713261
 31
0.0
  0
LINE
  5
16ADD
330
747D
100
AcDbEntity
  8
部品1
100
AcDbLine
 10
7713.461549988439
 20
4512.931598713264
 30
0.0
 11
7713.461549988439
 21
2537.931598713262
 31
0.0
  0
LINE
  5
16ADE
330
747D
100
AcDbEntity
  8
部品1
100
AcDbLine
 10
4773.46154998844
 20
4512.931598713261
 30
0.0
 11
4773.46154998844
 21
2537.931598713262
 31
0.0
  0
LINE
  5
16ADF
330
747D
100
AcDbEntity
  8
部品1
100
AcDbLine
 10
7768.46154998844
 20
4771.931598713266
 30
0.0
 11
7768.46154998844
 21
2437.931598713261
 31
0.0
  0
LINE
  5
16AED
330
747D
100
AcDbEntity
  8
部品1
100
AcDbLine
 10
4821.46154998844
 20
4512.931598713261
 30
0.0
 11
4821.46154998844
 21
2537.931598713262
 31
0.0
  0
LINE
  5
16AEF
330
747D
100
AcDbEntity
  8
部品1
100
AcDbLine
 10
7665.461549988442
 20
4512.931598713262
 30
0.0
 11
7665.461549988439
 21
2537.931598713262
 31
0.0
  0
LINE
  5
16AF3
330
747D
100
AcDbEntity
  8
部品1
100
AcDbLine
 10
4718.461549988439
 20
4512.931598713261
 30
0.0
 11
7768.46154998844
 21
4512.931598713263
 31
0.0
  0
LINE
  5
16AF4
330
747D
100
AcDbEntity
  8
細線
100
AcDbLine
 10
4821.461549988437
 20
4172.931598713261
 30
0.0
 11
7665.461549988439
 21
4172.931598713261
 31
0.0
  0
LINE
  5
16AF5
330
747D
100
AcDbEntity
  8
細線
100
AcDbLine
 10
4821.461549988437
 20
4237.931598713261
 30
0.0
 11
7665.461549988439
 21
4237.931598713261
 31
0.0
  0
LINE
  5
16AF6
330
747D
100
AcDbEntity
  8
細線
100
AcDbLine
 10
4821.461549988437
 20
4302.931598713261
 30
0.0
 11
7665.461549988439
 21
4302.931598713261
 31
0.0
  0
LINE
  5
16AF7
330
747D
100
AcDbEntity
  8
細線
100
AcDbLine
 10
4821.461549988437
 20
3782.931598713262
 30
0.0
 11
7665.461549988439
 21
3782.931598713262
 31
0.0
  0
LINE
  5
16AF8
330
747D
100
AcDbEntity
  8
細線
100
AcDbLine
 10
4821.461549988437
 20
3847.931598713262
 30
0.0
 11
7665.461549988439
 21
3847.931598713262
 31
0.0
  0
LINE
  5
16AF9
330
747D
100
AcDbEntity
  8
細線
100
AcDbLine
 10
4821.461549988437
 20
3912.931598713262
 30
0.0
 11
7665.461549988439
 21
3912.931598713262
 31
0.0
  0
LINE
  5
16AFA
330
747D
100
AcDbEntity
  8
細線
100
AcDbLine
 10
4821.461549988437
 20
3977.931598713261
 30
0.0
 11
7665.461549988439
 21
3977.931598713261
 31
0.0
  0
LINE
  5
16AFB
330
747D
100
AcDbEntity
  8
細線
100
AcDbLine
 10
4821.461549988437
 20
4042.931598713261
 30
0.0
 11
7665.461549988439
 21
4042.931598713261
 31
0.0
  0
LINE
  5
16AFC
330
747D
100
AcDbEntity
  8
細線
100
AcDbLine
 10
4821.461549988437
 20
4107.931598713261
 30
0.0
 11
7665.461549988439
 21
4107.931598713261
 31
0.0
  0
LINE
  5
16AFD
330
747D
100
AcDbEntity
  8
細線
100
AcDbLine
 10
4821.461549988437
 20
3132.931598713261
 30
0.0
 11
7665.461549988439
 21
3132.931598713261
 31
0.0
  0
LINE
  5
16AFE
330
747D
100
AcDbEntity
  8
細線
100
AcDbLine
 10
4821.461549988437
 20
3197.931598713262
 30
0.0
 11
7665.461549988439
 21
3197.931598713262
 31
0.0
  0
LINE
  5
16AFF
330
747D
100
AcDbEntity
  8
細線
100
AcDbLine
 10
4821.461549988437
 20
3262.931598713262
 30
0.0
 11
7665.461549988439
 21
3262.931598713262
 31
0.0
  0
LINE
  5
16B00
330
747D
100
AcDbEntity
  8
細線
100
AcDbLine
 10
4821.461549988437
 20
3327.931598713262
 30
0.0
 11
7665.461549988439
 21
3327.931598713262
 31
0.0
  0
LINE
  5
16B01
330
747D
100
AcDbEntity
  8
細線
100
AcDbLine
 10
4821.461549988437
 20
3392.931598713261
 30
0.0
 11
7665.461549988439
 21
3392.931598713261
 31
0.0
  0
LINE
  5
16B02
330
747D
100
AcDbEntity
  8
細線
100
AcDbLine
 10
4821.461549988437
 20
3457.931598713262
 30
0.0
 11
7665.461549988439
 21
3457.931598713262
 31
0.0
  0
LINE
  5
16B03
330
747D
100
AcDbEntity
  8
細線
100
AcDbLine
 10
4821.461549988437
 20
3522.931598713262
 30
0.0
 11
7665.461549988439
 21
3522.931598713262
 31
0.0
  0
LINE
  5
16B04
330
747D
100
AcDbEntity
  8
細線
100
AcDbLine
 10
4821.461549988437
 20
3587.931598713261
 30
0.0
 11
7665.461549988439
 21
3587.931598713261
 31
0.0
  0
LINE
  5
16B05
330
747D
100
AcDbEntity
  8
細線
100
AcDbLine
 10
4821.461549988437
 20
3652.931598713261
 30
0.0
 11
7665.461549988439
 21
3652.931598713261
 31
0.0
  0
LINE
  5
16B06
330
747D
100
AcDbEntity
  8
細線
100
AcDbLine
 10
4821.461549988437
 20
3717.931598713261
 30
0.0
 11
7665.461549988439
 21
3717.931598713261
 31
0.0
  0
LINE
  5
16B07
330
747D
100
AcDbEntity
  8
細線
100
AcDbLine
 10
4821.461549988437
 20
4432.931598713262
 30
0.0
 11
7665.461549988439
 21
4432.931598713262
 31
0.0
  0
LINE
  5
16B08
330
747D
100
AcDbEntity
  8
細線
100
AcDbLine
 10
4821.461549988437
 20
4497.931598713261
 30
0.0
 11
7665.461549988439
 21
4497.931598713261
 31
0.0
  0
LINE
  5
16B09
330
747D
100
AcDbEntity
  8
細線
100
AcDbLine
 10
4821.461549988437
 20
4367.931598713261
 30
0.0
 11
7665.461549988439
 21
4367.931598713261
 31
0.0
  0
LINE
  5
16B0A
330
747D
100
AcDbEntity
  8
細線
100
AcDbLine
 10
4821.461549988437
 20
2547.931598713262
 30
0.0
 11
7665.461549988439
 21
2547.931598713262
 31
0.0
  0
LINE
  5
16B0B
330
747D
100
AcDbEntity
  8
細線
100
AcDbLine
 10
4821.461549988437
 20
2612.931598713262
 30
0.0
 11
7665.461549988439
 21
2612.931598713262
 31
0.0
  0
LINE
  5
16B0C
330
747D
100
AcDbEntity
  8
細線
100
AcDbLine
 10
4821.461549988437
 20
2677.931598713261
 30
0.0
 11
7665.461549988439
 21
2677.931598713261
 31
0.0
  0
LINE
  5
16B0D
330
747D
100
AcDbEntity
  8
細線
100
AcDbLine
 10
4821.461549988437
 20
2742.931598713262
 30
0.0
 11
7665.461549988439
 21
2742.931598713262
 31
0.0
  0
LINE
  5
16B0E
330
747D
100
AcDbEntity
  8
細線
100
AcDbLine
 10
4821.461549988437
 20
2807.931598713262
 30
0.0
 11
7665.461549988439
 21
2807.931598713262
 31
0.0
  0
LINE
  5
16B0F
330
747D
100
AcDbEntity
  8
細線
100
AcDbLine
 10
4821.461549988437
 20
2872.931598713261
 30
0.0
 11
7665.461549988439
 21
2872.931598713261
 31
0.0
  0
LINE
  5
16B10
330
747D
100
AcDbEntity
  8
細線
100
AcDbLine
 10
4821.461549988437
 20
2937.931598713261
 30
0.0
 11
7665.461549988439
 21
2937.931598713261
 31
0.0
  0
LINE
  5
16B11
330
747D
100
AcDbEntity
  8
細線
100
AcDbLine
 10
4821.461549988437
 20
3002.931598713261
 30
0.0
 11
7665.461549988439
 21
3002.931598713261
 31
0.0
  0
LINE
  5
16B12
330
747D
100
AcDbEntity
  8
細線
100
AcDbLine
 10
4821.461549988437
 20
3067.931598713262
 30
0.0
 11
7665.461549988439
 21
3067.931598713262
 31
0.0
  0
LINE
  5
16B13
330
747D
100
AcDbEntity
  8
細線
100
AcDbLine
 10
7665.46154998844
 20
2547.931598713262
 30
0.0
 11
4821.461549988435
 21
2547.931598713262
 31
0.0
  0
CIRCLE
  5
16B17
330
747D
100
AcDbEntity
  8
細線
 48
50.0
100
AcDbCircle
 10
6243.461549988438
 20
3425.431598713262
 30
0.0
 40
18.0
  0
ARC
  5
16B18
330
747D
100
AcDbEntity
  8
細線
 48
50.0
100
AcDbCircle
 10
6543.461549988439
 20
3100.431598713262
 30
0.0
 40
15.0
100
AcDbArc
 50
270.0
 51
90.0
  0
ARC
  5
16B19
330
747D
100
AcDbEntity
  8
細線
 48
50.0
100
AcDbCircle
 10
6443.461549988438
 20
3100.431598713262
 30
0.0
 40
15.0
100
AcDbArc
 50
90.0
 51
270.0
  0
LINE
  5
16B1A
330
747D
100
AcDbEntity
  8
細線
 48
50.0
100
AcDbLine
 10
6443.461549988438
 20
3115.431598713261
 30
0.0
 11
6543.461549988439
 21
3115.431598713261
 31
0.0
  0
LINE
  5
16B1B
330
747D
100
AcDbEntity
  8
細線
 48
50.0
100
AcDbLine
 10
6543.461549988439
 20
3085.431598713262
 30
0.0
 11
6443.461549988438
 21
3085.431598713262
 31
0.0
  0
LINE
  5
16B1C
330
747D
100
AcDbEntity
  8
細線
 48
50.0
100
AcDbLine
 10
6043.461549988439
 20
3085.431598713262
 30
0.0
 11
5943.461549988438
 21
3085.431598713262
 31
0.0
  0
LINE
  5
16B1D
330
747D
100
AcDbEntity
  8
細線
 48
50.0
100
AcDbLine
 10
5943.461549988438
 20
3115.431598713261
 30
0.0
 11
6043.461549988439
 21
3115.431598713261
 31
0.0
  0
ARC
  5
16B1E
330
747D
100
AcDbEntity
  8
細線
 48
50.0
100
AcDbCircle
 10
6043.461549988439
 20
3100.431598713262
 30
0.0
 40
15.0
100
AcDbArc
 50
270.0
 51
90.0
  0
ARC
  5
16B1F
330
747D
100
AcDbEntity
  8
細線
 48
50.0
100
AcDbCircle
 10
5943.461549988438
 20
3100.431598713262
 30
0.0
 40
15.0
100
AcDbArc
 50
90.0
 51
270.0
  0
DIMENSION
  5
16B20
330
747D
100
AcDbEntity
  8
寸法
 48
50.0
100
AcDbDimension
  2
*D14
 10
7818.46154998845
 20
5346.378484445256
 30
0.0
 11
6243.461549988442
 21
5346.378484445256
 31
0.0
 70
   160
 71
     5
 42
3150.000000000015
  3
INABA_S40G
100
AcDbAlignedDimension
 13
4668.461549988434
 23
4912.931598713267
 33
0.0
 14
7818.46154998845
 24
4912.931598713264
 34
0.0
100
AcDbRotatedDimension
  0
DIMENSION
  5
16B21
330
747D
100
AcDbEntity
  8
寸法
 48
50.0
100
AcDbDimension
  2
*D15
 10
7768.46154998845
 20
5125.473183971505
 30
0.0
 11
8131.946831362686
 21
5125.473183971505
 31
0.0
 70
   160
 71
     5
 42
50.0
  3
INABA_S40G
100
AcDbAlignedDimension
 13
7818.46154998845
 23
4912.931598713264
 33
0.0
 14
7768.46154998845
 24
4912.931598713266
 34
0.0
100
AcDbRotatedDimension
  0
DIMENSION
  5
16B22
330
747D
100
AcDbEntity
  8
寸法
 48
50.0
100
AcDbDimension
  2
*D16
 10
4668.461549988434
 20
5125.473183971506
 30
0.0
 11
4354.976268614187
 21
5125.473183971506
 31
0.0
 70
   160
 71
     5
 42
50.0
  3
INABA_S40G
100
AcDbAlignedDimension
 13
4718.461549988435
 23
4912.931598713268
 33
0.0
 14
4668.461549988434
 24
4912.931598713267
 34
0.0
100
AcDbRotatedDimension
1001
ACAD
1000
DSTYLE
1002
{
1002
}
  0
DIMENSION
  5
16B23
330
747D
100
AcDbEntity
  8
寸法
 48
50.0
100
AcDbDimension
  2
*D17
 10
4718.461549988435
 20
5125.473183971506
 30
0.0
 11
6243.461549988442
 21
5125.473183971506
 31
0.0
 70
   160
  1
柱外寸法<>
 71
     5
 42
3050.000000000015
  3
INABA_S40G
100
AcDbAlignedDimension
 13
7768.46154998845
 23
4912.931598713266
 33
0.0
 14
4718.461549988435
 24
4912.931598713268
 34
0.0
100
AcDbRotatedDimension
  0
LINE
  5
16B50
330
747D
100
AcDbEntity
  8
部品1
 48
50.0
100
AcDbLine
 10
7811.053128882017
 20
4912.931598713264
 30
0.0
 11
4675.869971094864
 21
4912.931598713264
 31
0.0
  0
LINE
  5
16B51
330
747D
100
AcDbEntity
  8
部品1
 48
50.0
100
AcDbLine
 10
7797.837805420982
 20
4771.931598713265
 30
0.0
 11
4689.085294555898
 21
4771.931598713265
 31
0.0
  0
LINE
  5
16B52
330
747D
100
AcDbEntity
  8
細線
 48
50.0
100
AcDbLine
 10
7816.302898976534
 20
4884.904841276732
 30
0.0
 11
4670.620201000034
 21
4884.904841277102
 31
0.0
  0
LINE
  5
16B53
330
747D
100
AcDbEntity
  8
細線
 48
50.0
100
AcDbLine
 10
7808.066868451689
 20
4792.704841276732
 30
0.0
 11
4678.856231524863
 21
4792.7048412771
 31
0.0
  0
LINE
  5
16B54
330
747D
100
AcDbEntity
  8
部品1
100
AcDbLine
 10
7818.041888973116
 20
4905.535073318024
 30
0.0
 11
7816.90849164077
 21
4885.558945335425
 31
0.0
  0
LINE
  5
16B55
330
747D
100
AcDbEntity
  8
細線
 48
50.0
100
AcDbLine
 10
7785.46154998845
 20
4912.931598713264
 30
0.0
 11
7785.46154998845
 21
4771.931598713264
 31
0.0
  0
LINE
  5
16B56
330
747D
100
AcDbEntity
  8
細線
 48
50.0
100
AcDbLine
 10
4701.461549988435
 20
4912.931598713265
 30
0.0
 11
4701.461549988435
 21
4771.931598713265
 31
0.0
  0
LINE
  5
16B57
330
747D
100
AcDbEntity
  8
部品1
100
AcDbLine
 10
7805.471471319194
 20
4789.901538168367
 30
0.0
 11
7804.826565512081
 21
4778.535073318026
 31
0.0
  0
LINE
  5
16B58
330
747D
100
AcDbEntity
  8
部品1
100
AcDbLine
 10
7813.707501844037
 20
4882.101538168367
 30
0.0
 11
7808.672461115927
 21
4793.358945335424
 31
0.0
  0
ARC
  5
16B59
330
747D
100
AcDbEntity
  8
部品1
 48
50.0
100
AcDbCircle
 10
7816.702684740223
 20
4881.931598713266
 30
0.0
 40
3.0
100
AcDbArc
 50
97.6581272073637
 51
176.752657209659
  0
ARC
  5
16B5A
330
747D
100
AcDbEntity
  8
部品1
 48
50.0
100
AcDbCircle
 10
7808.466654215379
 20
4789.731598713263
 30
0.0
 40
3.0
100
AcDbArc
 50
97.6581272073637
 51
176.752657209659
  0
ARC
  5
16B5B
330
747D
100
AcDbEntity
  8
部品1
 48
50.0
100
AcDbCircle
 10
7807.973585106818
 20
4793.398597874946
 30
0.0
 40
0.7
100
AcDbArc
 50
277.6581272073637
 51
356.7526572097111
  0
ARC
  5
16B5C
330
747D
100
AcDbEntity
  8
部品1
 48
50.0
100
AcDbCircle
 10
7816.209615631662
 20
4885.598597874952
 30
0.0
 40
0.7
100
AcDbArc
 50
277.6581272073637
 51
356.752657209607
  0
ARC
  5
16B5D
330
747D
100
AcDbEntity
  8
部品1
100
AcDbCircle
 10
7797.837805420982
 20
4778.931598713266
 30
0.0
 40
7.0
100
AcDbArc
 50
270.0
 51
356.752657209659
  0
ARC
  5
16B5E
330
747D
100
AcDbEntity
  8
部品1
100
AcDbCircle
 10
7811.053128882017
 20
4905.931598713264
 30
0.0
 40
7.0
100
AcDbArc
 50
356.752657209659
 51
90.0
  0
ARC
  5
16B5F
330
747D
100
AcDbEntity
  8
部品1
100
AcDbCircle
 10
4675.869971094864
 20
4905.931598713265
 30
0.0
 40
7.0
100
AcDbArc
 50
90.0
 51
183.247342790341
  0
ARC
  5
16B60
330
747D
100
AcDbEntity
  8
部品1
100
AcDbCircle
 10
4689.085294555898
 20
4778.931598713266
 30
0.0
 40
7.0
100
AcDbArc
 50
183.247342790341
 51
270.0
  0
ARC
  5
16B61
330
747D
100
AcDbEntity
  8
部品1
 48
50.0
100
AcDbCircle
 10
4670.713484345222
 20
4885.598597874952
 30
0.0
 40
0.7
100
AcDbArc
 50
183.2473427903929
 51
262.3418727926363
  0
ARC
  5
16B62
330
747D
100
AcDbEntity
  8
部品1
 48
50.0
100
AcDbCircle
 10
4678.949514870062
 20
4793.398597874948
 30
0.0
 40
0.7
100
AcDbArc
 50
183.2473427902889
 51
262.3418727926363
  0
ARC
  5
16B63
330
747D
100
AcDbEntity
  8
部品1
 48
50.0
100
AcDbCircle
 10
4678.456445761502
 20
4789.731598713264
 30
0.0
 40
3.0
100
AcDbArc
 50
3.247342790340932
 51
82.34187279263631
  0
ARC
  5
16B64
330
747D
100
AcDbEntity
  8
部品1
 48
50.0
100
AcDbCircle
 10
4670.220415236657
 20
4881.931598713267
 30
0.0
 40
3.0
100
AcDbArc
 50
3.247342790340932
 51
82.34187279263631
  0
LINE
  5
16B65
330
747D
100
AcDbEntity
  8
部品1
100
AcDbLine
 10
4673.215598132843
 20
4882.101538168369
 30
0.0
 11
4678.250638860954
 21
4793.358945335425
 31
0.0
  0
LINE
  5
16B66
330
747D
100
AcDbEntity
  8
部品1
100
AcDbLine
 10
4681.451628657691
 20
4789.901538168368
 30
0.0
 11
4682.0965344648
 21
4778.535073318027
 31
0.0
  0
LINE
  5
16B67
330
747D
100
AcDbEntity
  8
部品1
100
AcDbLine
 10
4668.881211003765
 20
4905.535073318026
 30
0.0
 11
4670.014608336114
 21
4885.558945335426
 31
0.0
  0
LWPOLYLINE
  5
16B68
330
747D
100
AcDbEntity
  8
部品1
100
AcDbPolyline
 90
        4
 70
     1
 43
0.0
 10
5861.726216874224
 20
1787.931598713261
 10
5861.726216874224
 20
1548.039277167729
 10
6625.19688310266
 20
1548.039277167729
 10
6625.19688310266
 20
1787.931598713261
  0
TEXT
  5
16B69
330
747D
100
AcDbEntity
  8
部品1
100
AcDbText
 10
5952.251620612177
 20
1595.038069494738
 30
0.0
 40
135.0
  1
正面図
  7
STYLE2
100
AcDbText
  0
TEXT
  5
16B6A
330
747D
100
AcDbEntity
  8
部品1
100
AcDbText
 10
5951.645826703265
 20
5749.009426747718
 30
0.0
 40
135.0
  1
平面図
  7
STYLE2
100
AcDbText
  0
LWPOLYLINE
  5
16B6B
330
747D
100
AcDbEntity
  8
部品1
100
AcDbPolyline
 90
        4
 70
     1
 43
0.0
 10
5861.726216874227
 20
5941.902955966241
 10
5861.726216874227
 20
5702.010634420709
 10
6625.196883102669
 20
5702.010634420709
 10
6625.196883102669
 20
5941.902955966241
  0
LINE
  5
16F33
330
747D
100
AcDbEntity
  8
部品1
100
AcDbLine
 10
10354.00997720919
 20
2537.931598713262
 30
0.0
 11
9961.012763000345
 21
2437.931598713261
 31
0.0
  0
LINE
  5
16F34
330
747D
100
AcDbEntity
  8
破線
 48
5.0
100
AcDbLine
 10
10354.00997720919
 20
2187.931598713261
 30
0.0
 11
10409.00997720919
 21
2187.931598713261
 31
0.0
  0
LINE
  5
16F35
330
747D
100
AcDbEntity
  8
破線
 48
5.0
100
AcDbLine
 10
10409.00997720919
 20
2437.931598713261
 30
0.0
 11
10409.00997720919
 21
2187.931598713261
 31
0.0
  0
LINE
  5
16F36
330
747D
100
AcDbEntity
  8
破線
 48
5.0
100
AcDbLine
 10
10354.00997720919
 20
2437.931598713261
 30
0.0
 11
10354.00997720919
 21
2187.931598713261
 31
0.0
  0
DIMENSION
  5
16F3B
330
747D
100
AcDbEntity
  8
寸法
100
AcDbDimension
  2
*D26
 10
9510.259848025929
 20
2587.931598713257
 30
0.0
 11
9410.248037002308
 21
3632.931598713259
 31
0.0
 70
    32
 71
     5
 42
2090.000000000001
  3
INABA_S40G
100
AcDbAlignedDimension
 13
10354.00997720919
 23
4677.931598713257
 33
0.0
 14
10354.00997720919
 24
2587.931598713257
 34
0.0
 50
90.0
100
AcDbRotatedDimension
1001
ACAD
1000
DSTYLE
1002
{
1070
   174
1070
     0
1070
   272
1070
     1
1070
   288
1070
     0
1070
   341
1005
0
1002
}
  0
DIMENSION
  5
16F3C
330
747D
100
AcDbEntity
  8
寸法
100
AcDbDimension
  2
*D25
 10
9210.259848025929
 20
4912.931598713262
 30
0.0
 11
9110.248037002305
 21
3725.431598713261
 31
0.0
 70
    32
 71
     5
 42
2375.000000000005
  3
INABA_S40G
100
AcDbAlignedDimension
 13
10354.00997720919
 23
2537.931598713257
 33
0.0
 14
10294.00997720919
 24
4912.931598713261
 34
0.0
 50
90.0
100
AcDbRotatedDimension
1001
ACAD
1000
DSTYLE
1002
{
1070
   174
1070
     0
1070
   272
1070
     1
1070
   288
1070
     0
1070
   341
1005
0
1002
}
  0
DIMENSION
  5
16F3D
330
747D
100
AcDbEntity
  8
寸法
100
AcDbDimension
  2
*D24
 10
14528.93713518131
 20
4857.931598713262
 30
0.0
 11
14428.92532415769
 21
3697.931598713265
 31
0.0
 70
    32
 71
     5
 42
2320.0
  3
INABA_S40G
100
AcDbAlignedDimension
 13
13824.00997720919
 23
2537.931598713263
 33
0.0
 14
13904.00997720919
 24
4857.931598713263
 34
0.0
 50
90.0
100
AcDbRotatedDimension
1001
ACAD
1000
DSTYLE
1002
{
1070
   174
1070
     0
1070
   272
1070
     1
1070
   288
1070
     0
1070
   341
1005
0
1002
}
  0
LINE
  5
16F3E
330
747D
100
AcDbEntity
  8
細線
 48
50.0
100
AcDbLine
 10
12431.50997720919
 20
4677.931598713261
 30
0.0
 11
12431.50997720919
 21
2587.931598713263
 31
0.0
  0
LINE
  5
16F3F
330
747D
100
AcDbEntity
  8
細線
 48
50.0
100
AcDbLine
 10
12446.50997720919
 20
4677.931598713261
 30
0.0
 11
12446.50997720919
 21
2587.931598713263
 31
0.0
  0
LINE
  5
16F40
330
747D
100
AcDbEntity
  8
細線
 48
50.0
100
AcDbLine
 10
12306.50997720919
 20
4677.931598713261
 30
0.0
 11
12306.50997720919
 21
2587.931598713263
 31
0.0
  0
LINE
  5
16F41
330
747D
100
AcDbEntity
  8
細線
 48
50.0
100
AcDbLine
 10
12291.50997720919
 20
4677.931598713261
 30
0.0
 11
12291.50997720919
 21
2587.931598713263
 31
0.0
  0
LINE
  5
16F42
330
747D
100
AcDbEntity
  8
細線
 48
50.0
100
AcDbLine
 10
12151.50997720919
 20
4677.931598713261
 30
0.0
 11
12151.50997720919
 21
2587.931598713263
 31
0.0
  0
LINE
  5
16F43
330
747D
100
AcDbEntity
  8
細線
 48
50.0
100
AcDbLine
 10
12166.50997720919
 20
4677.931598713261
 30
0.0
 11
12166.50997720919
 21
2587.931598713263
 31
0.0
  0
LINE
  5
16F44
330
747D
100
AcDbEntity
  8
部品1
100
AcDbLine
 10
12089.00997720919
 20
4677.931598713261
 30
0.0
 11
12089.00997720919
 21
2587.931598713263
 31
0.0
  0
LINE
  5
16F45
330
747D
100
AcDbEntity
  8
部品1
100
AcDbLine
 10
11923.55496356615
 20
5038.13598667628
 30
0.0
 11
12249.00997720919
 21
5020.617927717418
 31
0.0
  0
ARC
  5
16F46
330
747D
100
AcDbEntity
  8
部品1
100
AcDbCircle
 10
13889.63751302313
 20
4751.955355979054
 30
0.0
 40
0.7
100
AcDbArc
 50
275.0921697642102
 51
354.186699766712
  0
ARC
  5
16F47
330
747D
100
AcDbEntity
  8
部品1
100
AcDbCircle
 10
13900.49685877245
 20
4828.998610796978
 30
0.0
 40
0.7
100
AcDbArc
 50
275.0921697642102
 51
354.186699766558
  0
ARC
  5
16F48
330
747D
100
AcDbEntity
  8
部品1
100
AcDbCircle
 10
13900.82526401505
 20
4825.313213939889
 30
0.0
 40
3.0
100
AcDbArc
 50
95.0921697642102
 51
174.186699766558
  0
ARC
  5
16F49
330
747D
100
AcDbEntity
  8
部品1
100
AcDbCircle
 10
13889.96591826573
 20
4748.269959121964
 30
0.0
 40
3.0
100
AcDbArc
 50
95.0921697642102
 51
174.186699766558
  0
ARC
  5
16F4A
330
747D
100
AcDbEntity
  8
部品1
 48
50.0
100
AcDbCircle
 10
13878.93778299062
 20
4738.679214518082
 30
0.0
 40
7.0
100
AcDbArc
 50
267.8377559869488
 51
354.186699766558
  0
ARC
  5
16F4B
330
747D
100
AcDbEntity
  8
部品1
 48
50.0
100
AcDbCircle
 10
13896.25987945514
 20
4849.581761660255
 30
0.0
 40
7.0
100
AcDbArc
 50
354.186699766558
 51
87.03587545283102
  0
LINE
  5
16F4C
330
747D
100
AcDbEntity
  8
部品1
 48
50.0
100
AcDbLine
 10
13886.98134659512
 20
4748.573820838867
 30
0.0
 11
13885.90178355538
 21
4737.970203845309
 31
0.0
  0
LINE
  5
16F4D
330
747D
100
AcDbEntity
  8
部品1
 48
50.0
100
AcDbLine
 10
13897.84069234444
 20
4825.617075656792
 30
0.0
 11
13890.3339130796
 21
4751.884454911779
 31
0.0
  0
LINE
  5
16F4E
330
747D
100
AcDbEntity
  8
部品1
 48
50.0
100
AcDbLine
 10
13903.22388001989
 20
4848.872750987481
 30
0.0
 11
13901.19325882892
 21
4828.9277097297
 31
0.0
  0
ARC
  5
16F4F
330
747D
100
AcDbEntity
  8
部品1
100
AcDbCircle
 10
10300.04706908055
 20
4791.745757672165
 30
0.0
 40
0.7
100
AcDbArc
 50
181.0932240292635
 51
260.1877540314855
  0
ARC
  5
16F50
330
747D
100
AcDbEntity
  8
部品1
100
AcDbCircle
 10
10295.27439548294
 20
4884.611535872284
 30
0.0
 40
0.7
100
AcDbArc
 50
181.0932240292114
 51
260.1877540314855
  0
ARC
  5
16F51
330
747D
100
AcDbEntity
  8
部品1
100
AcDbCircle
 10
10294.64384107992
 20
4880.965661334887
 30
0.0
 40
3.0
100
AcDbArc
 50
1.093224029315636
 51
80.18775403169737
  0
ARC
  5
16F52
330
747D
100
AcDbEntity
  8
部品1
100
AcDbCircle
 10
10299.41651467753
 20
4788.099883134768
 30
0.0
 40
3.0
100
AcDbArc
 50
1.093224029315636
 51
80.18775403169737
  0
ARC
  5
16F53
330
747D
100
AcDbEntity
  8
部品1
 48
50.0
100
AcDbCircle
 10
10309.61664705273
 20
4777.707639752287
 30
0.0
 40
7.0
100
AcDbArc
 50
181.0932240293156
 51
267.8377559869488
  0
ARC
  5
16F54
330
747D
100
AcDbEntity
  8
部品1
 48
50.0
100
AcDbCircle
 10
10301.19298895063
 20
4904.658699285382
 30
0.0
 40
7.0
100
AcDbArc
 50
87.03587545283102
 51
181.0932240293156
  0
LINE
  5
16F55
330
747D
100
AcDbEntity
  8
部品1
 48
50.0
100
AcDbLine
 10
10302.41596860396
 20
4788.157120737952
 30
0.0
 11
10302.61792122439
 21
4777.574085344858
 31
0.0
  0
LINE
  5
16F56
330
747D
100
AcDbEntity
  8
細線
 48
50.0
100
AcDbLine
 10
10299.80987554729
 20
4791.087168856759
 30
0.0
 11
13889.81353997793
 21
4751.277849882266
 31
0.0
  0
LINE
  5
16F57
330
747D
100
AcDbEntity
  8
細線
 48
50.0
100
AcDbLine
 10
10295.04940031
 20
4883.948680554623
 30
0.0
 11
13900.68538505517
 21
4828.324475913795
 31
0.0
  0
LINE
  5
16F58
330
747D
100
AcDbEntity
  8
部品1
 48
50.0
100
AcDbLine
 10
10297.64329500635
 20
4881.02289893807
 30
0.0
 11
10299.34719649772
 21
4791.732402231423
 31
0.0
  0
LINE
  5
16F59
330
747D
100
AcDbEntity
  8
部品1
 48
50.0
100
AcDbLine
 10
10294.19426312229
 20
4904.525144877954
 30
0.0
 11
10294.57452290011
 21
4884.598180431543
 31
0.0
  0
LINE
  5
16F5A
330
747D
100
AcDbEntity
  8
細線
 48
50.0
100
AcDbLine
 10
13870.97926040288
 20
4857.08502119273
 30
0.0
 11
13866.26229432119
 21
4732.152805257814
 31
0.0
  0
LINE
  5
16F5B
330
747D
100
AcDbEntity
  8
細線
 48
50.0
100
AcDbLine
 10
10327.00997720919
 20
4910.331275088666
 30
0.0
 11
10321.72087565368
 21
4770.245642461311
 31
0.0
  0
LINE
  5
16F5C
330
747D
100
AcDbEntity
  8
部品1
100
AcDbLine
 10
10309.35254181114
 20
4770.712623782229
 30
0.0
 11
13878.67367774904
 21
4731.684198548022
 31
0.0
  0
LINE
  5
16F5D
330
747D
100
AcDbEntity
  8
部品1
100
AcDbLine
 10
10301.55496356615
 20
4911.649334047528
 30
0.0
 11
13896.62185407066
 21
4856.5723964224
 31
0.0
  0
LINE
  5
16F5E
330
747D
100
AcDbEntity
  8
部品1
 48
50.0
100
AcDbLine
 10
11949.00997720919
 20
5036.817927717418
 30
0.0
 11
12249.00997720919
 21
5036.817927717418
 31
0.0
  0
LINE
  5
16F5F
330
747D
100
AcDbEntity
  8
部品1
 48
50.0
100
AcDbLine
 10
12249.00997720919
 20
5036.817927717418
 30
0.0
 11
12249.00997720919
 21
5020.617927717418
 31
0.0
  0
TEXT
  5
16F60
330
747D
100
AcDbEntity
  8
部品1
 48
50.0
100
AcDbText
 10
11937.27781243291
 20
5072.701949869851
 30
0.0
 40
120.0
  1
1000
  7
STYLE1
100
AcDbText
  0
TEXT
  5
16F61
330
747D
100
AcDbEntity
  8
部品1
 48
50.0
100
AcDbText
 10
12414.910835098
 20
4935.200691651568
 30
0.0
 40
120.0
  1
28
 50
90.0
  7
STYLE1
100
AcDbText
  0
LINE
  5
16F62
330
747D
100
AcDbEntity
  8
細線
 48
50.0
100
AcDbLine
 10
11746.50997720919
 20
4677.931598713261
 30
0.0
 11
11746.50997720919
 21
2587.931598713261
 31
0.0
  0
LINE
  5
16F63
330
747D
100
AcDbEntity
  8
細線
 48
50.0
100
AcDbLine
 10
11731.50997720919
 20
4677.931598713261
 30
0.0
 11
11731.50997720919
 21
2587.931598713261
 31
0.0
  0
LINE
  5
16F64
330
747D
100
AcDbEntity
  8
細線
 48
50.0
100
AcDbLine
 10
11871.50997720919
 20
4677.931598713261
 30
0.0
 11
11871.50997720919
 21
2587.931598713261
 31
0.0
  0
LINE
  5
16F65
330
747D
100
AcDbEntity
  8
細線
 48
50.0
100
AcDbLine
 10
11886.50997720919
 20
4677.931598713261
 30
0.0
 11
11886.50997720919
 21
2587.931598713261
 31
0.0
  0
LINE
  5
16F66
330
747D
100
AcDbEntity
  8
細線
 48
50.0
100
AcDbLine
 10
12026.50997720919
 20
4677.931598713261
 30
0.0
 11
12026.50997720919
 21
2587.931598713261
 31
0.0
  0
LINE
  5
16F67
330
747D
100
AcDbEntity
  8
細線
 48
50.0
100
AcDbLine
 10
12011.50997720919
 20
4677.931598713261
 30
0.0
 11
12011.50997720919
 21
2587.931598713261
 31
0.0
  0
LINE
  5
16F68
330
747D
100
AcDbEntity
  8
部品1
100
AcDbLine
 10
13769.00997720918
 20
4677.931598713264
 30
0.0
 11
13769.00997720918
 21
2587.931598713265
 31
0.0
  0
LINE
  5
16F69
330
747D
100
AcDbEntity
  8
部品1
100
AcDbLine
 10
10354.00997720919
 20
4677.931598713261
 30
0.0
 11
13824.00997720918
 21
4677.931598713261
 31
0.0
  0
LINE
  5
16F6A
330
747D
100
AcDbEntity
  8
部品1
100
AcDbLine
 10
10409.00997720919
 20
2587.931598713261
 30
0.0
 11
13824.00997720919
 21
2587.931598713263
 31
0.0
  0
LINE
  5
16F6B
330
747D
100
AcDbEntity
  8
部品1
100
AcDbLine
 10
10409.00997720919
 20
4677.931598713261
 30
0.0
 11
10409.00997720919
 21
2437.931598713261
 31
0.0
  0
LINE
  5
16F6C
330
747D
100
AcDbEntity
  8
部品1
100
AcDbLine
 10
10354.00997720919
 20
4770.07403664214
 30
0.0
 11
10354.00997720919
 21
2437.931598713261
 31
0.0
  0
DIMENSION
  5
16F6E
330
747D
100
AcDbEntity
  8
寸法
100
AcDbDimension
  2
*D23
 10
9510.259848025929
 20
2537.931598713262
 30
0.0
 11
9510.259848025929
 21
2231.884354618771
 31
0.0
 70
   160
 71
     5
 42
50.0
  3
INABA_S40G
100
AcDbAlignedDimension
 13
10354.00997720919
 23
2587.931598713261
 33
0.0
 14
10299.00997720919
 24
2537.931598713262
 34
0.0
 50
90.0
100
AcDbRotatedDimension
1001
ACAD
1000
DSTYLE
1002
{
1070
   174
1070
     0
1070
   272
1070
     1
1070
   288
1070
     0
1070
   341
1005
0
1002
}
  0
LINE
  5
16F6F
330
747D
100
AcDbEntity
  8
部品1
100
AcDbLine
 10
10829.00997720919
 20
4677.931598713261
 30
0.0
 11
10829.00997720919
 21
2587.931598713261
 31
0.0
  0
LINE
  5
16F70
330
747D
100
AcDbEntity
  8
部品1
100
AcDbLine
 10
13824.00997720919
 20
4732.361626494382
 30
0.0
 11
13824.00997720919
 21
2437.931598713263
 31
0.0
  0
LINE
  5
16F71
330
747D
100
AcDbEntity
  8
部品1
100
AcDbLine
 10
13769.00997720919
 20
4677.931598713263
 30
0.0
 11
13769.00997720919
 21
2587.931598713263
 31
0.0
  0
DIMENSION
  5
16F72
330
747D
100
AcDbEntity
  8
寸法
 48
50.0
100
AcDbDimension
  2
*D22
 10
10354.00997720919
 20
5311.589052292568
 30
0.0
 11
12089.00997720919
 21
5311.589052292568
 31
0.0
 70
   160
  1
柱外寸法<>
 71
     5
 42
3470.0
  3
INABA_S40G
100
AcDbAlignedDimension
 13
13824.00997720919
 23
4859.742278324916
 33
0.0
 14
10354.00997720919
 24
4908.933216836238
 34
0.0
100
AcDbRotatedDimension
1001
ACAD
1000
DSTYLE
1002
{
1070
   174
1070
     0
1070
   272
1070
     1
1070
   288
1070
     0
1070
   341
1005
0
1002
}
  0
DIMENSION
  5
16F73
330
747D
100
AcDbEntity
  8
寸法
 48
50.0
100
AcDbDimension
  2
*D21
 10
10294.00997720919
 20
5311.589052292566
 30
0.0
 11
9984.372181933601
 21
5311.589052292566
 31
0.0
 70
   160
 71
     5
 42
60.0
  3
INABA_S40G
100
AcDbAlignedDimension
 13
10354.00997720919
 23
4908.933216836238
 33
0.0
 14
10294.00997720919
 24
4912.931598713266
 34
0.0
100
AcDbRotatedDimension
1001
ACAD
1000
DSTYLE
1002
{
1070
   174
1070
     0
1070
   272
1070
     1
1070
   288
1070
     0
1070
   341
1005
0
1002
}
  0
DIMENSION
  5
16F74
330
747D
100
AcDbEntity
  8
寸法
 48
50.0
100
AcDbDimension
  2
*D20
 10
10294.00997720919
 20
5541.702645078843
 30
0.0
 11
12099.00997720919
 21
5541.702645078843
 31
0.0
 70
   160
 71
     5
 42
3610.0
  3
INABA_S40G
100
AcDbAlignedDimension
 13
13904.00997720919
 23
4857.931598713263
 33
0.0
 14
10294.00997720919
 24
4912.931598713266
 34
0.0
100
AcDbRotatedDimension
1001
ACAD
1000
DSTYLE
1002
{
1070
   174
1070
     0
1070
   272
1070
     1
1070
   288
1070
     0
1070
   341
1005
0
1002
}
  0
LINE
  5
16F75
330
747D
100
AcDbEntity
  8
部品1
100
AcDbLine
 10
10409.00997720919
 20
2537.931598713262
 30
0.0
 11
13824.00997720919
 21
2537.931598713262
 31
0.0
  0
LINE
  5
16F76
330
747D
100
AcDbEntity
  8
細線
 48
50.0
100
AcDbLine
 10
10906.50997720919
 20
4677.931598713261
 30
0.0
 11
10906.50997720919
 21
2587.931598713261
 31
0.0
  0
LINE
  5
16F77
330
747D
100
AcDbEntity
  8
細線
 48
50.0
100
AcDbLine
 10
10891.50997720919
 20
4677.931598713261
 30
0.0
 11
10891.50997720919
 21
2587.931598713261
 31
0.0
  0
LINE
  5
16F78
330
747D
100
AcDbEntity
  8
細線
 48
50.0
100
AcDbLine
 10
11031.50997720919
 20
4677.931598713261
 30
0.0
 11
11031.50997720919
 21
2587.931598713261
 31
0.0
  0
LINE
  5
16F79
330
747D
100
AcDbEntity
  8
細線
 48
50.0
100
AcDbLine
 10
11046.50997720919
 20
4677.931598713261
 30
0.0
 11
11046.50997720919
 21
2587.931598713261
 31
0.0
  0
LINE
  5
16F7A
330
747D
100
AcDbEntity
  8
細線
 48
50.0
100
AcDbLine
 10
11186.50997720919
 20
4677.931598713261
 30
0.0
 11
11186.50997720919
 21
2587.931598713261
 31
0.0
  0
LINE
  5
16F7B
330
747D
100
AcDbEntity
  8
細線
 48
50.0
100
AcDbLine
 10
11171.50997720919
 20
4677.931598713261
 30
0.0
 11
11171.50997720919
 21
2587.931598713261
 31
0.0
  0
LINE
  5
16F7C
330
747D
100
AcDbEntity
  8
細線
 48
50.0
100
AcDbLine
 10
10751.50997720919
 20
4677.931598713261
 30
0.0
 11
10751.50997720919
 21
2587.931598713261
 31
0.0
  0
LINE
  5
16F7D
330
747D
100
AcDbEntity
  8
細線
 48
50.0
100
AcDbLine
 10
10766.50997720919
 20
4677.931598713261
 30
0.0
 11
10766.50997720919
 21
2587.931598713261
 31
0.0
  0
LINE
  5
16F7E
330
747D
100
AcDbEntity
  8
細線
 48
50.0
100
AcDbLine
 10
10626.50997720919
 20
4677.931598713261
 30
0.0
 11
10626.50997720919
 21
2587.931598713261
 31
0.0
  0
LINE
  5
16F7F
330
747D
100
AcDbEntity
  8
細線
 48
50.0
100
AcDbLine
 10
10611.50997720919
 20
4677.931598713261
 30
0.0
 11
10611.50997720919
 21
2587.931598713261
 31
0.0
  0
LINE
  5
16F80
330
747D
100
AcDbEntity
  8
細線
 48
50.0
100
AcDbLine
 10
10471.50997720919
 20
4677.931598713261
 30
0.0
 11
10471.50997720919
 21
2587.931598713261
 31
0.0
  0
LINE
  5
16F81
330
747D
100
AcDbEntity
  8
細線
 48
50.0
100
AcDbLine
 10
10486.50997720919
 20
4677.931598713261
 30
0.0
 11
10486.50997720919
 21
2587.931598713261
 31
0.0
  0
DIMENSION
  5
16F82
330
747D
100
AcDbEntity
  8
寸法
 48
50.0
100
AcDbDimension
  2
*D19
 10
13904.00997720919
 20
5311.589052292568
 30
0.0
 11
14110.05722130368
 21
5311.589052292568
 31
0.0
 70
   160
 71
     5
 42
80.0
  3
INABA_S40G
100
AcDbAlignedDimension
 13
13824.00997720919
 23
4859.742278324916
 33
0.0
 14
13904.00997720919
 24
4857.931598713265
 34
0.0
100
AcDbRotatedDimension
1001
ACAD
1000
DSTYLE
1002
{
1070
   174
1070
     0
1070
   272
1070
     1
1070
   288
1070
     0
1070
   341
1005
0
1002
}
  0
LINE
  5
16F83
330
747D
100
AcDbEntity
  8
部品1
100
AcDbLine
 10
11249.00997720919
 20
4677.931598713261
 30
0.0
 11
11249.00997720919
 21
2587.931598713261
 31
0.0
  0
LINE
  5
16F84
330
747D
100
AcDbEntity
  8
細線
 48
50.0
100
AcDbLine
 10
11591.50997720919
 20
4677.931598713261
 30
0.0
 11
11591.50997720919
 21
2587.931598713261
 31
0.0
  0
LINE
  5
16F85
330
747D
100
AcDbEntity
  8
細線
 48
50.0
100
AcDbLine
 10
11606.50997720919
 20
4677.931598713261
 30
0.0
 11
11606.50997720919
 21
2587.931598713261
 31
0.0
  0
LINE
  5
16F86
330
747D
100
AcDbEntity
  8
細線
 48
50.0
100
AcDbLine
 10
11466.50997720919
 20
4677.931598713261
 30
0.0
 11
11466.50997720919
 21
2587.931598713261
 31
0.0
  0
LINE
  5
16F87
330
747D
100
AcDbEntity
  8
細線
 48
50.0
100
AcDbLine
 10
11451.50997720919
 20
4677.931598713261
 30
0.0
 11
11451.50997720919
 21
2587.931598713261
 31
0.0
  0
LINE
  5
16F88
330
747D
100
AcDbEntity
  8
細線
 48
50.0
100
AcDbLine
 10
11311.50997720919
 20
4677.931598713261
 30
0.0
 11
11311.50997720919
 21
2587.931598713261
 31
0.0
  0
LINE
  5
16F89
330
747D
100
AcDbEntity
  8
細線
 48
50.0
100
AcDbLine
 10
11326.50997720919
 20
4677.931598713261
 30
0.0
 11
11326.50997720919
 21
2587.931598713261
 31
0.0
  0
LINE
  5
16F8A
330
747D
100
AcDbEntity
  8
部品1
100
AcDbLine
 10
11669.00997720919
 20
4677.931598713261
 30
0.0
 11
11669.00997720919
 21
2587.931598713261
 31
0.0
  0
LINE
  5
16F8B
330
747D
100
AcDbEntity
  8
細線
 48
50.0
100
AcDbLine
 10
13006.50997720919
 20
4677.931598713263
 30
0.0
 11
13006.50997720919
 21
2587.931598713263
 31
0.0
  0
LINE
  5
16F8C
330
747D
100
AcDbEntity
  8
細線
 48
50.0
100
AcDbLine
 10
12991.50997720919
 20
4677.931598713263
 30
0.0
 11
12991.50997720919
 21
2587.931598713263
 31
0.0
  0
LINE
  5
16F8D
330
747D
100
AcDbEntity
  8
細線
 48
50.0
100
AcDbLine
 10
13131.50997720919
 20
4677.931598713263
 30
0.0
 11
13131.50997720919
 21
2587.931598713263
 31
0.0
  0
LINE
  5
16F8E
330
747D
100
AcDbEntity
  8
細線
 48
50.0
100
AcDbLine
 10
13146.50997720919
 20
4677.931598713263
 30
0.0
 11
13146.50997720919
 21
2587.931598713263
 31
0.0
  0
LINE
  5
16F8F
330
747D
100
AcDbEntity
  8
細線
 48
50.0
100
AcDbLine
 10
13286.50997720919
 20
4677.931598713263
 30
0.0
 11
13286.50997720919
 21
2587.931598713263
 31
0.0
  0
LINE
  5
16F90
330
747D
100
AcDbEntity
  8
細線
 48
50.0
100
AcDbLine
 10
13271.50997720919
 20
4677.931598713263
 30
0.0
 11
13271.50997720919
 21
2587.931598713263
 31
0.0
  0
DIMENSION
  5
16F91
330
747D
100
AcDbEntity
  8
寸法
 48
50.0
100
AcDbDimension
  2
*D18
 10
9733.401570440818
 20
4787.276857586592
 30
0.0
 11
9744.067045699742
 21
5158.123520828293
 31
0.0
 70
   161
 71
     5
 42
141.0000000000009
  3
INABA_S40G
100
AcDbAlignedDimension
 13
10313.40599736777
 23
4911.654347547941
 33
0.0
 14
10309.35254181114
 24
4770.712623782229
 34
0.0
1001
ACAD
1000
DSTYLE
1002
{
1070
   174
1070
     0
1070
   272
1070
     1
1070
   288
1070
     0
1070
   341
1005
0
1002
}
  0
LINE
  5
16F92
330
747D
100
AcDbEntity
  8
部品1
100
AcDbLine
 10
12509.00997720918
 20
4677.931598713261
 30
0.0
 11
12509.00997720918
 21
2587.931598713263
 31
0.0
  0
LINE
  5
16F93
330
747D
100
AcDbEntity
  8
細線
 48
50.0
100
AcDbLine
 10
12586.50997720919
 20
4677.931598713261
 30
0.0
 11
12586.50997720919
 21
2587.931598713263
 31
0.0
  0
LINE
  5
16F94
330
747D
100
AcDbEntity
  8
細線
 48
50.0
100
AcDbLine
 10
12571.50997720919
 20
4677.931598713261
 30
0.0
 11
12571.50997720919
 21
2587.931598713263
 31
0.0
  0
LINE
  5
16F95
330
747D
100
AcDbEntity
  8
細線
 48
50.0
100
AcDbLine
 10
12711.50997720919
 20
4677.931598713261
 30
0.0
 11
12711.50997720919
 21
2587.931598713263
 31
0.0
  0
LINE
  5
16F96
330
747D
100
AcDbEntity
  8
細線
 48
50.0
100
AcDbLine
 10
12726.50997720919
 20
4677.931598713261
 30
0.0
 11
12726.50997720919
 21
2587.931598713263
 31
0.0
  0
LINE
  5
16F97
330
747D
100
AcDbEntity
  8
細線
 48
50.0
100
AcDbLine
 10
12866.50997720919
 20
4677.931598713261
 30
0.0
 11
12866.50997720919
 21
2587.931598713263
 31
0.0
  0
LINE
  5
16F98
330
747D
100
AcDbEntity
  8
細線
 48
50.0
100
AcDbLine
 10
12851.50997720919
 20
4677.931598713261
 30
0.0
 11
12851.50997720919
 21
2587.931598713263
 31
0.0
  0
LINE
  5
16F99
330
747D
100
AcDbEntity
  8
部品1
100
AcDbLine
 10
12929.00997720917
 20
4677.931598713263
 30
0.0
 11
12929.00997720917
 21
2587.931598713265
 31
0.0
  0
LWPOLYLINE
  5
16F9A
330
747D
100
AcDbEntity
  8
部品1
100
AcDbPolyline
 90
        4
 70
     1
 43
0.0
 10
11707.27464409497
 20
1787.931598713261
 10
11707.27464409497
 20
1548.039277167729
 10
12470.74531032341
 20
1548.039277167729
 10
12470.74531032341
 20
1787.931598713261
  0
TEXT
  5
16F9B
330
747D
100
AcDbEntity
  8
部品1
100
AcDbText
 10
11796.72074551858
 20
1595.038069494738
 30
0.0
 40
135.0
  1
側面図
  7
STYLE2
100
AcDbText
  0
LINE
  5
170B6
330
747D
100
AcDbEntity
  8
部品1
100
AcDbLine
 10
13349.00997720916
 20
4677.931598713263
 30
0.0
 11
13349.00997720916
 21
2587.931598713265
 31
0.0
  0
LINE
  5
170C4
330
747D
100
AcDbEntity
  8
細線
 48
50.0
100
AcDbLine
 10
13691.50997720921
 20
4677.931598713264
 30
0.0
 11
13691.50997720921
 21
2587.931598713265
 31
0.0
  0
LINE
  5
170C5
330
747D
100
AcDbEntity
  8
細線
 48
50.0
100
AcDbLine
 10
13706.50997720921
 20
4677.931598713264
 30
0.0
 11
13706.50997720921
 21
2587.931598713265
 31
0.0
  0
LINE
  5
170C6
330
747D
100
AcDbEntity
  8
細線
 48
50.0
100
AcDbLine
 10
13566.50997720921
 20
4677.931598713264
 30
0.0
 11
13566.50997720921
 21
2587.931598713265
 31
0.0
  0
LINE
  5
170C7
330
747D
100
AcDbEntity
  8
細線
 48
50.0
100
AcDbLine
 10
13551.50997720921
 20
4677.931598713264
 30
0.0
 11
13551.50997720921
 21
2587.931598713265
 31
0.0
  0
LINE
  5
170C8
330
747D
100
AcDbEntity
  8
細線
 48
50.0
100
AcDbLine
 10
13411.50997720921
 20
4677.931598713264
 30
0.0
 11
13411.50997720921
 21
2587.931598713265
 31
0.0
  0
LINE
  5
170C9
330
747D
100
AcDbEntity
  8
細線
 48
50.0
100
AcDbLine
 10
13426.50997720921
 20
4677.931598713264
 30
0.0
 11
13426.50997720921
 21
2587.931598713265
 31
0.0
  0
LINE
  5
17167
330
747D
100
AcDbEntity
  8
補助
  6
PHANTOM
 62
   230
 48
50.0
100
AcDbLine
 10
140.0
 20
0.0
 30
0.0
 11
139.9999999999995
 21
11409.6
 31
0.0
  0
DIMENSION
  5
172C8
330
747D
100
AcDbEntity
  8
寸法
 48
50.0
100
AcDbDimension
  2
*D27
 10
8056.004652310187
 20
4677.931598713261
 30
0.0
 11
8056.004652310186
 21
4916.416880087502
 31
0.0
 70
   160
 71
     5
 42
164.9999999999982
  3
INABA_S40G
100
AcDbAlignedDimension
 13
7768.46154998844
 23
4512.931598713263
 33
0.0
 14
7768.46154998844
 24
4677.931598713261
 34
0.0
 50
90.0
100
AcDbRotatedDimension
1001
ACAD
1000
DSTYLE
1002
{
1002
}
  0
DIMENSION
  5
172C9
330
747D
100
AcDbEntity
  8
寸法
 48
50.0
100
AcDbDimension
  2
*D28
 10
8056.004652310186
 20
4512.931598713263
 30
0.0
 11
8196.174475556551
 21
4513.89879855292
 31
0.0
 70
   160
 71
     5
 42
27.00000000000273
  3
INABA_S40G
100
AcDbAlignedDimension
 13
7768.461549988441
 23
4485.93159871326
 33
0.0
 14
7768.46154998844
 24
4512.931598713263
 34
0.0
 50
90.0
100
AcDbRotatedDimension
1001
ACAD
1000
DSTYLE
1002
{
1070
   279
1070
     2
1002
}
  0
DIMENSION
  5
172CA
330
747D
100
AcDbEntity
  8
寸法
 48
50.0
100
AcDbDimension
  2
*D29
 10
8056.004652310186
 20
4485.93159871326
 30
0.0
 11
7956.004652310186
 21
3511.931598713263
 31
0.0
 70
    32
  1
有効開口部高サ <>
 71
     5
 42
1947.999999999999
  3
INABA_S40G
100
AcDbAlignedDimension
 13
7768.46154998844
 23
2537.931598713262
 33
0.0
 14
7768.461549988441
 24
4485.93159871326
 34
0.0
 50
90.0
100
AcDbRotatedDimension
  0
ARC
  5
17630
330
747D
100
AcDbEntity
  8
部品1
 48
0.01
100
AcDbCircle
 10
5716.461549988444
 20
4741.931598713261
 30
0.0
 40
2.0
100
AcDbArc
 50
0.0
 51
90.0
  0
ARC
  5
17631
330
747D
100
AcDbEntity
  8
部品1
 48
0.01
100
AcDbCircle
 10
5540.461549988444
 20
4741.931598713261
 30
0.0
 40
2.0
100
AcDbArc
 50
90.0
 51
180.0
  0
LINE
  5
17632
330
747D
100
AcDbEntity
  8
細線
100
AcDbLine
 10
5628.46154998844
 20
4714.431598713261
 30
0.0
 11
5702.461549988444
 21
4714.431598713261
 31
0.0
  0
LINE
  5
17633
330
747D
100
AcDbEntity
  8
細線
100
AcDbLine
 10
5628.461549988443
 20
4737.431598713261
 30
0.0
 11
5554.461549988444
 21
4737.431598713261
 31
0.0
  0
LINE
  5
17634
330
747D
100
AcDbEntity
  8
細線
100
AcDbLine
 10
5554.461549988444
 20
4714.431598713261
 30
0.0
 11
5628.461549988443
 21
4714.431598713261
 31
0.0
  0
LINE
  5
17635
330
747D
100
AcDbEntity
  8
細線
100
AcDbLine
 10
5702.461549988444
 20
4737.431598713261
 30
0.0
 11
5628.461549988443
 21
4737.431598713261
 31
0.0
  0
LINE
  5
17636
330
747D
100
AcDbEntity
  8
細線
100
AcDbLine
 10
5702.461549988444
 20
4714.431598713261
 30
0.0
 11
5702.461549988444
 21
4737.431598713261
 31
0.0
  0
LINE
  5
17637
330
747D
100
AcDbEntity
  8
細線
100
AcDbLine
 10
5554.461549988444
 20
4737.431598713261
 30
0.0
 11
5554.461549988444
 21
4714.431598713261
 31
0.0
  0
LINE
  5
17638
330
747D
100
AcDbEntity
  8
部品1
 48
0.01
100
AcDbLine
 10
5718.46154998844
 20
4710.431598713261
 30
0.0
 11
5718.461549988444
 21
4741.931598713261
 31
0.0
  0
LINE
  5
17639
330
747D
100
AcDbEntity
  8
部品1
 48
0.01
100
AcDbLine
 10
5538.461549988443
 20
4741.931598713261
 30
0.0
 11
5538.461549988443
 21
4710.431598713261
 31
0.0
  0
LINE
  5
1763A
330
747D
100
AcDbEntity
  8
部品1
 48
0.01
100
AcDbLine
 10
5716.461549988444
 20
4743.931598713261
 30
0.0
 11
5540.461549988444
 21
4743.931598713261
 31
0.0
  0
LINE
  5
1763B
330
747D
100
AcDbEntity
  8
細線
100
AcDbLine
 10
5554.461549988444
 20
4731.431598713261
 30
0.0
 11
5628.461549988443
 21
4731.431598713261
 31
0.0
  0
LINE
  5
1763C
330
747D
100
AcDbEntity
  8
細線
100
AcDbLine
 10
5554.461549988444
 20
4725.431598713261
 30
0.0
 11
5628.461549988443
 21
4725.431598713261
 31
0.0
  0
LINE
  5
1763D
330
747D
100
AcDbEntity
  8
細線
100
AcDbLine
 10
5554.46154998844
 20
4719.431598713261
 30
0.0
 11
5628.461549988443
 21
4719.431598713261
 31
0.0
  0
LINE
  5
1763E
330
747D
100
AcDbEntity
  8
細線
100
AcDbLine
 10
5554.461549988444
 20
4731.431598713261
 30
0.0
 11
5623.461549988444
 21
4731.431598713261
 31
0.0
  0
LINE
  5
1763F
330
747D
100
AcDbEntity
  8
細線
100
AcDbLine
 10
5702.461549988441
 20
4731.431598713261
 30
0.0
 11
5628.461549988443
 21
4731.431598713261
 31
0.0
  0
LINE
  5
17640
330
747D
100
AcDbEntity
  8
細線
100
AcDbLine
 10
5702.461549988441
 20
4719.431598713261
 30
0.0
 11
5628.461549988443
 21
4719.431598713261
 31
0.0
  0
LINE
  5
17641
330
747D
100
AcDbEntity
  8
細線
100
AcDbLine
 10
5702.461549988441
 20
4725.431598713261
 30
0.0
 11
5628.461549988443
 21
4725.431598713261
 31
0.0
  0
LINE
  5
17642
330
747D
100
AcDbEntity
  8
細線
100
AcDbLine
 10
5628.461549988443
 20
4737.431598713261
 30
0.0
 11
5628.46154998844
 21
4714.431598713261
 31
0.0
  0
LINE
  5
17643
330
747D
100
AcDbEntity
  8
細線
100
AcDbLine
 10
6858.461549988444
 20
4737.431598713261
 30
0.0
 11
6858.461549988444
 21
4714.431598713261
 31
0.0
  0
LINE
  5
17644
330
747D
100
AcDbEntity
  8
細線
100
AcDbLine
 10
6784.461549988444
 20
4725.431598713261
 30
0.0
 11
6858.461549988444
 21
4725.431598713261
 31
0.0
  0
LINE
  5
17645
330
747D
100
AcDbEntity
  8
細線
100
AcDbLine
 10
6784.461549988444
 20
4719.431598713261
 30
0.0
 11
6858.461549988444
 21
4719.431598713261
 31
0.0
  0
LINE
  5
17646
330
747D
100
AcDbEntity
  8
細線
100
AcDbLine
 10
6784.461549988444
 20
4731.431598713261
 30
0.0
 11
6858.461549988444
 21
4731.431598713261
 31
0.0
  0
LINE
  5
17647
330
747D
100
AcDbEntity
  8
細線
100
AcDbLine
 10
6932.461549988444
 20
4731.431598713261
 30
0.0
 11
6863.461549988445
 21
4731.431598713261
 31
0.0
  0
LINE
  5
17648
330
747D
100
AcDbEntity
  8
細線
100
AcDbLine
 10
6932.461549988444
 20
4719.431598713261
 30
0.0
 11
6858.461549988444
 21
4719.431598713261
 31
0.0
  0
LINE
  5
17649
330
747D
100
AcDbEntity
  8
細線
100
AcDbLine
 10
6932.461549988444
 20
4725.431598713261
 30
0.0
 11
6858.461549988444
 21
4725.431598713261
 31
0.0
  0
LINE
  5
1764A
330
747D
100
AcDbEntity
  8
細線
100
AcDbLine
 10
6932.461549988444
 20
4731.431598713261
 30
0.0
 11
6858.461549988444
 21
4731.431598713261
 31
0.0
  0
LINE
  5
1764B
330
747D
100
AcDbEntity
  8
部品1
 48
0.01
100
AcDbLine
 10
6770.461549988444
 20
4743.931598713261
 30
0.0
 11
6946.461549988445
 21
4743.931598713261
 31
0.0
  0
LINE
  5
1764C
330
747D
100
AcDbEntity
  8
部品1
 48
0.01
100
AcDbLine
 10
6948.461549988444
 20
4741.931598713261
 30
0.0
 11
6948.461549988444
 21
4710.431598713261
 31
0.0
  0
LINE
  5
1764D
330
747D
100
AcDbEntity
  8
部品1
 48
0.01
100
AcDbLine
 10
6768.461549988444
 20
4710.431598713261
 30
0.0
 11
6768.461549988444
 21
4741.931598713261
 31
0.0
  0
LINE
  5
1764E
330
747D
100
AcDbEntity
  8
細線
100
AcDbLine
 10
6932.461549988444
 20
4737.431598713261
 30
0.0
 11
6932.461549988444
 21
4714.431598713261
 31
0.0
  0
LINE
  5
1764F
330
747D
100
AcDbEntity
  8
細線
100
AcDbLine
 10
6784.461549988444
 20
4714.431598713261
 30
0.0
 11
6784.461549988444
 21
4737.431598713261
 31
0.0
  0
LINE
  5
17650
330
747D
100
AcDbEntity
  8
細線
100
AcDbLine
 10
6784.461549988444
 20
4737.431598713261
 30
0.0
 11
6858.461549988444
 21
4737.431598713261
 31
0.0
  0
LINE
  5
17651
330
747D
100
AcDbEntity
  8
細線
100
AcDbLine
 10
6932.461549988444
 20
4714.431598713261
 30
0.0
 11
6858.461549988444
 21
4714.431598713261
 31
0.0
  0
LINE
  5
17652
330
747D
100
AcDbEntity
  8
細線
100
AcDbLine
 10
6858.461549988444
 20
4737.431598713261
 30
0.0
 11
6932.461549988444
 21
4737.431598713261
 31
0.0
  0
LINE
  5
17653
330
747D
100
AcDbEntity
  8
細線
100
AcDbLine
 10
6858.461549988444
 20
4714.431598713261
 30
0.0
 11
6784.461549988444
 21
4714.431598713261
 31
0.0
  0
ARC
  5
17654
330
747D
100
AcDbEntity
  8
部品1
 48
0.01
100
AcDbCircle
 10
6946.461549988445
 20
4741.931598713261
 30
0.0
 40
2.0
100
AcDbArc
 50
0.0
 51
90.0
  0
ARC
  5
17655
330
747D
100
AcDbEntity
  8
部品1
 48
0.01
100
AcDbCircle
 10
6770.461549988444
 20
4741.931598713261
 30
0.0
 40
2.0
100
AcDbArc
 50
90.0
 51
180.0
  0
ARC
  5
17656
330
747D
100
AcDbEntity
  8
部品1
 48
0.01
100
AcDbCircle
 10
5716.461549988441
 20
4710.431598713261
 30
0.0
 40
2.0
100
AcDbArc
 50
270.0
 51
0.0
  0
ARC
  5
17657
330
747D
100
AcDbEntity
  8
部品1
 48
0.01
100
AcDbCircle
 10
5540.461549988444
 20
4710.431598713261
 30
0.0
 40
2.0
100
AcDbArc
 50
180.0
 51
270.0
  0
LINE
  5
17658
330
747D
100
AcDbEntity
  8
部品1
 48
0.01
100
AcDbLine
 10
5540.461549988444
 20
4708.431598713261
 30
0.0
 11
5716.461549988441
 21
4708.431598713261
 31
0.0
  0
LINE
  5
17659
330
747D
100
AcDbEntity
  8
部品1
 48
0.01
100
AcDbLine
 10
6946.461549988445
 20
4708.431598713261
 30
0.0
 11
6770.461549988444
 21
4708.431598713261
 31
0.0
  0
ARC
  5
1765A
330
747D
100
AcDbEntity
  8
部品1
 48
0.01
100
AcDbCircle
 10
6946.461549988445
 20
4710.431598713261
 30
0.0
 40
2.0
100
AcDbArc
 50
270.0
 51
0.0
  0
ARC
  5
1765B
330
747D
100
AcDbEntity
  8
部品1
 48
0.01
100
AcDbCircle
 10
6770.461549988444
 20
4710.431598713261
 30
0.0
 40
2.0
100
AcDbArc
 50
180.0
 51
270.0
  0
TEXT
  5
1767F
330
747D
100
AcDbEntity
  8
文字
 62
     7
 48
50.0
100
AcDbText
 10
15022.63965474517
 20
9910.013745883725
 30
0.0
 40
100.0
  1
F12            1.0
  7
STYLE1
100
AcDbText
  0
TEXT
  5
1768E
330
747D
100
AcDbEntity
  8
文字
 62
     7
 48
50.0
100
AcDbText
 10
14646.46056207479
 20
871.9640646083623
 30
0.0
 40
100.0
  1
～一般型～
  7
STYLE2
100
AcDbText
  0
LINE
  5
176E3
330
747D
100
AcDbEntity
  8
破線
 48
5.0
100
AcDbLine
 10
4821.461549988441
 20
2537.931598713262
 30
0.0
 11
4821.461549988439
 21
2287.931598713267
 31
0.0
  0
LINE
  5
176E4
330
747D
100
AcDbEntity
  8
破線
 48
5.0
100
AcDbLine
 10
4821.461549988441
 20
2537.931598713262
 30
0.0
 11
4821.461549988439
 21
2287.931598713267
 31
0.0
  0
LINE
  5
176E5
330
747D
100
AcDbEntity
  8
破線
 48
5.0
100
AcDbLine
 10
4821.46154998844
 20
2287.931598713267
 30
0.0
 11
4773.461549988438
 21
2287.931598713267
 31
0.0
  0
LINE
  5
176E6
330
747D
100
AcDbEntity
  8
破線
 48
5.0
100
AcDbLine
 10
4821.46154998844
 20
2287.931598713267
 30
0.0
 11
4773.461549988438
 21
2287.931598713267
 31
0.0
  0
LINE
  5
176E7
330
747D
100
AcDbEntity
  8
破線
 48
5.0
100
AcDbLine
 10
4773.461549988438
 20
2187.931598713269
 30
0.0
 11
4718.46154998844
 21
2187.931598713269
 31
0.0
  0
LINE
  5
176E8
330
747D
100
AcDbEntity
  8
破線
 48
5.0
100
AcDbLine
 10
4718.461549988441
 20
2437.931598713261
 30
0.0
 11
4718.46154998844
 21
2187.931598713261
 31
0.0
  0
LINE
  5
176E9
330
747D
100
AcDbEntity
  8
破線
 48
5.0
100
AcDbLine
 10
4773.461549988441
 20
2537.931598713262
 30
0.0
 11
4773.46154998844
 21
2187.931598713261
 31
0.0
  0
LINE
  5
176EA
330
747D
100
AcDbEntity
  8
破線
 48
5.0
100
AcDbLine
 10
4773.461549988441
 20
2537.931598713262
 30
0.0
 11
4773.46154998844
 21
2187.931598713261
 31
0.0
  0
LINE
  5
176EB
330
747D
100
AcDbEntity
  8
破線
 48
5.0
100
AcDbLine
 10
7713.461549988443
 20
2287.931598713262
 30
0.0
 11
7665.461549988441
 21
2287.931598713262
 31
0.0
  0
LINE
  5
176EC
330
747D
100
AcDbEntity
  8
破線
 48
5.0
100
AcDbLine
 10
7665.46154998844
 20
2537.931598713262
 30
0.0
 11
7665.461549988442
 21
2287.931598713262
 31
0.0
  0
LINE
  5
176ED
330
747D
100
AcDbEntity
  8
破線
 48
5.0
100
AcDbLine
 10
7768.46154998844
 20
2187.931598713261
 30
0.0
 11
7713.461549988442
 21
2187.931598713261
 31
0.0
  0
LINE
  5
176EE
330
747D
100
AcDbEntity
  8
破線
 48
5.0
100
AcDbLine
 10
7768.461549988441
 20
2437.931598713261
 30
0.0
 11
7768.461549988441
 21
2187.931598713261
 31
0.0
  0
LINE
  5
176EF
330
747D
100
AcDbEntity
  8
破線
 48
5.0
100
AcDbLine
 10
7713.461549988439
 20
2537.931598713262
 30
0.0
 11
7713.461549988442
 21
2187.931598713261
 31
0.0
  0
TEXT
  5
17704
330
747D
100
AcDbEntity
  8
文字
 62
     7
 48
50.0
100
AcDbText
 10
15022.63965474516
 20
9230.013745883725
 30
0.0
 40
100.0
  1
F12            0.7
  7
STYLE1
100
AcDbText
  0
ENDSEC
  0
SECTION
  2
OBJECTS
  0
DICTIONARY
  5
7471
330
0
100
AcDbDictionary
281
     1
  3
ACAD_COLOR
350
164C4
  3
ACAD_GROUP
350
7472
  3
ACAD_LAYOUT
350
164C5
  3
ACAD_MATERIAL
350
164C3
  3
ACAD_MLINESTYLE
350
7473
  3
ACAD_PLOTSETTINGS
350
164C6
  3
ACAD_PLOTSTYLENAME
350
164C1
  3
ACDBHEADERROUNDTRIPXREC
350
1777F
  3
AcDbVariableDictionary
350
1777B
  3
CONTENTDICTIONARY
350
E71C
  3
DRAWINGVARIABLESDICT
350
F3B9
  0
DICTIONARY
  5
168CC
330
7467
100
AcDbDictionary
280
     1
281
     1
  3
ACAD_LAYERSTATES
360
168CD
  0
DICTIONARY
  5
164C4
102
{ACAD_REACTORS
330
7471
102
}
330
7471
100
AcDbDictionary
281
     1
  0
DICTIONARY
  5
7472
102
{ACAD_REACTORS
330
7471
102
}
330
7471
100
AcDbDictionary
281
     1
  0
DICTIONARY
  5
164C5
102
{ACAD_REACTORS
330
7471
102
}
330
7471
100
AcDbDictionary
281
     1
  3
Model
350
164C7
  3
レイアウト1
350
164C8
  0
DICTIONARY
  5
164C3
102
{ACAD_REACTORS
330
7471
102
}
330
7471
100
AcDbDictionary
281
     1
  0
DICTIONARY
  5
7473
102
{ACAD_REACTORS
330
7471
102
}
330
7471
100
AcDbDictionary
281
     1
  3
STANDARD
350
7480
  0
DICTIONARY
  5
164C6
102
{ACAD_REACTORS
330
7471
102
}
330
7471
100
AcDbDictionary
281
     1
  0
ACDBDICTIONARYWDFLT
  5
164C1
102
{ACAD_REACTORS
330
7471
102
}
330
7471
100
AcDbDictionary
281
     1
  3
Normal
350
164C2
100
AcDbDictionaryWithDefault
340
164C2
  0
DICTIONARY
  5
1777F
102
{ACAD_REACTORS
330
7471
102
}
330
7471
100
AcDbDictionary
281
     1
  3
COLORDICT
350
17781
  3
MATERIALDICT
350
17780
  0
DICTIONARY
  5
1777B
102
{ACAD_REACTORS
330
7471
102
}
330
7471
100
AcDbDictionary
281
     1
  3
DIMASSOC
350
1777C
  3
PROJECTNAME
350
1777D
  0
DICTIONARY
  5
E71C
102
{ACAD_REACTORS
330
7471
102
}
330
7471
100
AcDbDictionary
281
     1
  0
DICTIONARY
  5
F3B9
102
{ACAD_REACTORS
330
7471
102
}
330
7471
100
AcDbDictionary
281
     1
1001
DRAWINGVARIABLESXDATA
1000
POLARMODE
1000
1
  0
DICTIONARY
  5
168CD
102
{ACAD_REACTORS
330
168CC
102
}
330
168CC
100
AcDbDictionary
281
     1
  0
LAYOUT
  5
164C7
102
{ACAD_XDICTIONARY
360
17782
102
}
102
{ACAD_REACTORS
330
164C5
102
}
330
164C5
100
AcDbPlotSettings
  1

  2
クセロPDF
  4
A3
  6

 40
3.174999999999999
 41
3.174999999999999
 42
3.174987999999999
 43
3.174987999999999
 44
419.946655
 45
296.925995
 46
0.0
 47
0.0
 48
0.0
 49
0.0
140
0.0
141
0.0
142
1.0
143
40.44561299368567
 70
 11952
 72
     1
 73
     0
 74
     2
  7
inaba.ctb
 75
     0
147
0.0247245603659442
148
183.0179068595971
149
160.3342785227505
100
AcDbLayout
  1
Model
 70
     1
 71
     0
 10
0.0
 20
0.0
 11
12.0
 21
9.0
 12
0.0
 22
0.0
 32
0.0
 14
0.0
 24
0.0
 34
0.0
 15
0.0
 25
0.0
 35
0.0
146
0.0
 13
0.0
 23
0.0
 33
0.0
 16
1.0
 26
0.0
 36
0.0
 17
0.0
 27
1.0
 37
0.0
 76
     0
330
747D
  0
LAYOUT
  5
164C8
102
{ACAD_XDICTIONARY
360
17784
102
}
102
{ACAD_REACTORS
330
164C5
102
}
330
164C5
100
AcDbPlotSettings
  1

  2
EPSON LP-8300
  4

  6

 40
0.0
 41
0.0
 42
0.0
 43
0.0
 44
0.0
 45
0.0
 46
0.0
 47
0.0
 48
0.0
 49
0.0
140
0.0
141
0.0
142
1.0
143
1.0
 70
   688
 72
     0
 73
     0
 74
     5
  7
inaba.ctb
 75
    16
147
1.0
148
0.0
149
0.0
100
AcDbLayout
  1
レイアウト1
 70
     0
 71
     1
 10
0.0
 20
0.0
 11
420.0
 21
297.0
 12
0.0
 22
0.0
 32
0.0
 14
1.000000000000000E+20
 24
1.000000000000000E+20
 34
1.000000000000000E+20
 15
-1.000000000000000E+20
 25
-1.000000000000000E+20
 35
-1.000000000000000E+20
146
0.0
 13
0.0
 23
0.0
 33
0.0
 16
1.0
 26
0.0
 36
0.0
 17
0.0
 27
1.0
 37
0.0
 76
     0
330
747A
  0
MLINESTYLE
  5
7480
102
{ACAD_REACTORS
330
7473
102
}
330
7473
100
AcDbMlineStyle
  2
STANDARD
 70
     0
  3

 62
     0
 51
90.0
 52
90.0
 71
     2
 49
0.5
 62
   256
  6
BYLAYER
 49
-0.5
 62
   256
  6
BYLAYER
  0
ACDBPLACEHOLDER
  5
164C2
102
{ACAD_REACTORS
330
164C1
102
}
330
164C1
  0
XRECORD
  5
17781
102
{ACAD_REACTORS
330
1777F
102
}
330
1777F
100
AcDbXrecord
280
     1
340
164C4
  0
XRECORD
  5
17780
102
{ACAD_REACTORS
330
1777F
102
}
330
1777F
100
AcDbXrecord
280
     1
340
164C3
  0
DICTIONARYVAR
  5
1777C
102
{ACAD_REACTORS
330
1777B
102
}
330
1777B
100
DictionaryVariables
280
     0
  1
1
  0
DICTIONARYVAR
  5
1777D
102
{ACAD_REACTORS
330
1777B
102
}
330
1777B
100
DictionaryVariables
280
     0
  1

  0
DICTIONARY
  5
17782
330
164C7
100
AcDbDictionary
280
     1
281
     1
  3
ACAD_XREC_ROUNDTRIP
360
17783
  0
DICTIONARY
  5
17784
330
164C8
100
AcDbDictionary
280
     1
281
     1
  3
ACAD_XREC_ROUNDTRIP
360
17785
  0
XRECORD
  5
17783
102
{ACAD_REACTORS
330
17782
102
}
330
17782
100
AcDbXrecord
280
     1
102
SHADEPLOT
 70
     1
102
SHADEPLOTRESLEVEL
 70
     2
102
SHADEPLOTCUSTOMDPI
 70
   300
  0
XRECORD
  5
17785
102
{ACAD_REACTORS
330
17784
102
}
330
17784
100
AcDbXrecord
280
     1
102
SHADEPLOT
 70
     0
102
SHADEPLOTRESLEVEL
 70
     2
102
SHADEPLOTCUSTOMDPI
 70
   300
  0
ENDSEC
  0
EOF
