  0
SECTION
  2
HEADER
  9
$ACADVER
  1
AC1015
  9
$ACADMAINTVER
 70
    20
  9
$DWGCODEPAGE
  3
ANSI_932
  9
$INSBASE
 10
0.0
 20
0.0
 30
0.0
  9
$EXTMIN
 10
174.9999999999993
 20
-0.0000075012905659
 30
0.0
  9
$EXTMAX
 10
20384.0
 20
14262.0
 30
0.0
  9
$LIMMIN
 10
-161.6812653104498
 20
-194.5236301608711
  9
$LIMMAX
 10
20542.28441621547
 20
14447.75181300318
  9
$ORTHOMODE
 70
     0
  9
$REGENMODE
 70
     1
  9
$FILLMODE
 70
     1
  9
$QTEXTMODE
 70
     0
  9
$MIRRTEXT
 70
     1
  9
$LTSCALE
 40
20.0
  9
$ATTMODE
 70
     1
  9
$TEXTSIZE
 40
150.0
  9
$TRACEWID
 40
1.0
  9
$TEXTSTYLE
  7
STYLE1
  9
$CLAYER
  8
寸法
  9
$CELTYPE
  6
BYLAYER
  9
$CECOLOR
 62
   256
  9
$CELTSCALE
 40
50.0
  9
$DISPSILH
 70
     0
  9
$DIMSCALE
 40
0.0
  9
$DIMASZ
 40
125.0
  9
$DIMEXO
 40
25.0
  9
$DIMDLI
 40
7.0
  9
$DIMRND
 40
0.0
  9
$DIMDLE
 40
0.0
  9
$DIMEXE
 40
75.0
  9
$DIMTP
 40
0.0
  9
$DIMTM
 40
0.0
  9
$DIMTXT
 40
150.0
  9
$DIMCEN
 40
0.0
  9
$DIMTSZ
 40
0.0
  9
$DIMTOL
 70
     0
  9
$DIMLIM
 70
     0
  9
$DIMTIH
 70
     0
  9
$DIMTOH
 70
     0
  9
$DIMSE1
 70
     0
  9
$DIMSE2
 70
     0
  9
$DIMTAD
 70
     3
  9
$DIMZIN
 70
     8
  9
$DIMBLK
  1

  9
$DIMASO
 70
     1
  9
$DIMSHO
 70
     1
  9
$DIMPOST
  1

  9
$DIMAPOST
  1

  9
$DIMALT
 70
     0
  9
$DIMALTD
 70
     2
  9
$DIMALTF
 40
0.0394
  9
$DIMLFAC
 40
1.0
  9
$DIMTOFL
 70
     1
  9
$DIMTVP
 40
0.0
  9
$DIMTIX
 70
     1
  9
$DIMSOXD
 70
     0
  9
$DIMSAH
 70
     1
  9
$DIMBLK1
  1
DOTSMALL
  9
$DIMBLK2
  1
DOTSMALL
  9
$DIMSTYLE
  2
INABA_S50G
  9
$DIMCLRD
 70
     0
  9
$DIMCLRE
 70
     0
  9
$DIMCLRT
 70
     7
  9
$DIMTFAC
 40
1.0
  9
$DIMGAP
 40
25.0
  9
$DIMJUST
 70
     0
  9
$DIMSD1
 70
     0
  9
$DIMSD2
 70
     0
  9
$DIMTOLJ
 70
     1
  9
$DIMTZIN
 70
     0
  9
$DIMALTZ
 70
     0
  9
$DIMALTTZ
 70
     0
  9
$DIMUPT
 70
     0
  9
$DIMDEC
 70
     1
  9
$DIMTDEC
 70
     4
  9
$DIMALTU
 70
     2
  9
$DIMALTTD
 70
     2
  9
$DIMTXSTY
  7
STYLE1
  9
$DIMAUNIT
 70
     0
  9
$DIMADEC
 70
     0
  9
$DIMALTRND
 40
0.0
  9
$DIMAZIN
 70
     0
  9
$DIMDSEP
 70
    46
  9
$DIMATFIT
 70
     3
  9
$DIMFRAC
 70
     0
  9
$DIMLDRBLK
  1
DOTSMALL
  9
$DIMLUNIT
 70
     2
  9
$DIMLWD
 70
    -2
  9
$DIMLWE
 70
    -2
  9
$DIMTMOVE
 70
     0
  9
$LUNITS
 70
     2
  9
$LUPREC
 70
     1
  9
$SKETCHINC
 40
1.0
  9
$FILLETRAD
 40
0.0
  9
$AUNITS
 70
     0
  9
$AUPREC
 70
     0
  9
$MENU
  1
acad
  9
$ELEVATION
 40
0.0
  9
$PELEVATION
 40
0.0
  9
$THICKNESS
 40
0.0
  9
$LIMCHECK
 70
     0
  9
$CHAMFERA
 40
0.0
  9
$CHAMFERB
 40
0.0
  9
$CHAMFERC
 40
0.0
  9
$CHAMFERD
 40
0.0
  9
$SKPOLY
 70
     0
  9
$TDCREATE
 40
2451376.453362153
  9
$TDUCREATE
 40
2451376.078362153
  9
$TDUPDATE
 40
2455569.634922234
  9
$TDUUPDATE
 40
2455569.259922234
  9
$TDINDWG
 40
1.9726523380
  9
$TDUSRTIMER
 40
1.9726523380
  9
$USRTIMER
 70
     1
  9
$ANGBASE
 50
0.0
  9
$ANGDIR
 70
     0
  9
$PDMODE
 70
     3
  9
$PDSIZE
 40
2.0
  9
$PLINEWID
 40
0.0
  9
$SPLFRAME
 70
     0
  9
$SPLINETYPE
 70
     6
  9
$SPLINESEGS
 70
     8
  9
$HANDSEED
  5
254EE
  9
$SURFTAB1
 70
     6
  9
$SURFTAB2
 70
     6
  9
$SURFTYPE
 70
     6
  9
$SURFU
 70
     6
  9
$SURFV
 70
     6
  9
$UCSBASE
  2

  9
$UCSNAME
  2

  9
$UCSORG
 10
0.0
 20
0.0
 30
0.0
  9
$UCSXDIR
 10
1.0
 20
0.0
 30
0.0
  9
$UCSYDIR
 10
0.0
 20
1.0
 30
0.0
  9
$UCSORTHOREF
  2

  9
$UCSORTHOVIEW
 70
     0
  9
$UCSORGTOP
 10
0.0
 20
0.0
 30
0.0
  9
$UCSORGBOTTOM
 10
0.0
 20
0.0
 30
0.0
  9
$UCSORGLEFT
 10
0.0
 20
0.0
 30
0.0
  9
$UCSORGRIGHT
 10
0.0
 20
0.0
 30
0.0
  9
$UCSORGFRONT
 10
0.0
 20
0.0
 30
0.0
  9
$UCSORGBACK
 10
0.0
 20
0.0
 30
0.0
  9
$PUCSBASE
  2

  9
$PUCSNAME
  2

  9
$PUCSORG
 10
0.0
 20
0.0
 30
0.0
  9
$PUCSXDIR
 10
1.0
 20
0.0
 30
0.0
  9
$PUCSYDIR
 10
0.0
 20
1.0
 30
0.0
  9
$PUCSORTHOREF
  2

  9
$PUCSORTHOVIEW
 70
     0
  9
$PUCSORGTOP
 10
0.0
 20
0.0
 30
0.0
  9
$PUCSORGBOTTOM
 10
0.0
 20
0.0
 30
0.0
  9
$PUCSORGLEFT
 10
0.0
 20
0.0
 30
0.0
  9
$PUCSORGRIGHT
 10
0.0
 20
0.0
 30
0.0
  9
$PUCSORGFRONT
 10
0.0
 20
0.0
 30
0.0
  9
$PUCSORGBACK
 10
0.0
 20
0.0
 30
0.0
  9
$USERI1
 70
     0
  9
$USERI2
 70
     0
  9
$USERI3
 70
     0
  9
$USERI4
 70
     0
  9
$USERI5
 70
     0
  9
$USERR1
 40
0.0
  9
$USERR2
 40
0.0
  9
$USERR3
 40
0.0
  9
$USERR4
 40
0.0
  9
$USERR5
 40
0.0
  9
$WORLDVIEW
 70
     1
  9
$SHADEDGE
 70
     3
  9
$SHADEDIF
 70
    70
  9
$TILEMODE
 70
     1
  9
$MAXACTVP
 70
    16
  9
$PINSBASE
 10
0.0
 20
0.0
 30
0.0
  9
$PLIMCHECK
 70
     0
  9
$PEXTMIN
 10
1.000000000000000E+20
 20
1.000000000000000E+20
 30
1.000000000000000E+20
  9
$PEXTMAX
 10
-1.000000000000000E+20
 20
-1.000000000000000E+20
 30
-1.000000000000000E+20
  9
$PLIMMIN
 10
0.0
 20
0.0
  9
$PLIMMAX
 10
420.0
 20
297.0
  9
$UNITMODE
 70
     0
  9
$VISRETAIN
 70
     0
  9
$PLINEGEN
 70
     0
  9
$PSLTSCALE
 70
     0
  9
$TREEDEPTH
 70
  3020
  9
$CMLSTYLE
  2
STANDARD
  9
$CMLJUST
 70
     0
  9
$CMLSCALE
 40
1.0
  9
$PROXYGRAPHICS
 70
     1
  9
$MEASUREMENT
 70
     1
  9
$CELWEIGHT
370
    -1
  9
$ENDCAPS
280
     0
  9
$JOINSTYLE
280
     0
  9
$LWDISPLAY
290
     0
  9
$INSUNITS
 70
     0
  9
$HYPERLINKBASE
  1

  9
$STYLESHEET
  1
inaba.ctb
  9
$XEDIT
290
     1
  9
$CEPSNTYPE
380
     0
  9
$PSTYLEMODE
290
     1
  9
$FINGERPRINTGUID
  2
{5A87F933-F3E7-4E5A-B693-1B108A8B4DAE}
  9
$VERSIONGUID
  2
{A7633350-0880-4CA8-8FCC-8907122F5DC9}
  9
$EXTNAMES
290
     1
  9
$PSVPSCALE
 40
0.0
  9
$OLESTARTUP
290
     0
  0
ENDSEC
  0
SECTION
  2
CLASSES
  0
CLASS
  1
DICTIONARYVAR
  2
AcDbDictionaryVar
  3
ObjectDBX Classes
 90
        0
280
     0
281
     0
  0
CLASS
  1
ACDBDICTIONARYWDFLT
  2
AcDbDictionaryWithDefault
  3
ObjectDBX Classes
 90
        0
280
     0
281
     0
  0
CLASS
  1
ACDBPLACEHOLDER
  2
AcDbPlaceHolder
  3
ObjectDBX Classes
 90
        0
280
     0
281
     0
  0
CLASS
  1
LAYOUT
  2
AcDbLayout
  3
ObjectDBX Classes
 90
        0
280
     0
281
     0
  0
ENDSEC
  0
SECTION
  2
TABLES
  0
TABLE
  2
VPORT
  5
746D
330
0
100
AcDbSymbolTable
 70
     2
  0
VPORT
  5
254E6
330
746D
100
AcDbSymbolTableRecord
100
AcDbViewportTableRecord
  2
*Active
 70
     0
 10
0.0
 20
0.0
 11
1.0
 21
1.0
 12
11009.10076483748
 22
7130.760042678113
 13
0.0
 23
0.0
 14
500.0
 24
500.0
 15
500.0
 25
500.0
 16
0.0
 26
0.0
 36
1.0
 17
0.0
 27
0.0
 37
0.0
 40
14368.85677381167
 41
1.627450980392156
 42
50.0
 43
0.0
 44
0.0
 50
0.0
 51
0.0
 71
     0
 72
     0
 73
     1
 74
     0
 75
     0
 76
     0
 77
     0
 78
     0
281
     0
 65
     1
110
0.0
120
0.0
130
0.0
111
1.0
121
0.0
131
0.0
112
0.0
122
1.0
132
0.0
 79
     0
146
0.0
  0
ENDTAB
  0
TABLE
  2
LTYPE
  5
746A
330
0
100
AcDbSymbolTable
 70
     4
  0
LTYPE
  5
7477
330
746A
100
AcDbSymbolTableRecord
100
AcDbLinetypeTableRecord
  2
BYBLOCK
 70
     0
  3

 72
    65
 73
     0
 40
0.0
  0
LTYPE
  5
7478
330
746A
100
AcDbSymbolTableRecord
100
AcDbLinetypeTableRecord
  2
BYLAYER
 70
     0
  3

 72
    65
 73
     0
 40
0.0
  0
LTYPE
  5
7479
330
746A
100
AcDbSymbolTableRecord
100
AcDbLinetypeTableRecord
  2
CONTINUOUS
 70
     0
  3
Solid line
 72
    65
 73
     0
 40
0.0
  0
LTYPE
  5
7816
330
746A
100
AcDbSymbolTableRecord
100
AcDbLinetypeTableRecord
  2
CENTER
 70
     0
  3
____ _ ____ _ ____ _ ____ _ ____ _ ____ _ ____ 
 72
    65
 73
     4
 40
2.0
 49
1.25
 74
     0
 49
-0.25
 74
     0
 49
0.25
 74
     0
 49
-0.25
 74
     0
  0
LTYPE
  5
781A
330
746A
100
AcDbSymbolTableRecord
100
AcDbLinetypeTableRecord
  2
HIDDEN
 70
     0
  3
__ __ __ __ __ __ __ __ __ __ __ __ __ __ __ __
 72
    65
 73
     2
 40
0.375
 49
0.25
 74
     0
 49
-0.125
 74
     0
  0
LTYPE
  5
781B
330
746A
100
AcDbSymbolTableRecord
100
AcDbLinetypeTableRecord
  2
PHANTOM
 70
     0
  3
______  __  __  ______  __  __  ______  __  __ 
 72
    65
 73
     6
 40
2.5
 49
1.25
 74
     0
 49
-0.25
 74
     0
 49
0.25
 74
     0
 49
-0.25
 74
     0
 49
0.25
 74
     0
 49
-0.25
 74
     0
  0
ENDTAB
  0
TABLE
  2
LAYER
  5
7467
102
{ACAD_XDICTIONARY
360
254D2
102
}
330
0
100
AcDbSymbolTable
 70
    11
  0
LAYER
  5
7474
330
7467
100
AcDbSymbolTableRecord
100
AcDbLayerTableRecord
  2
0
 70
     0
 62
     7
  6
CONTINUOUS
370
    -3
390
1C065
  0
LAYER
  5
DEB2
330
7467
100
AcDbSymbolTableRecord
100
AcDbLayerTableRecord
  2
センター
 70
     0
 62
     3
  6
CENTER
370
    -3
390
1C065
  0
LAYER
  5
DEB3
330
7467
100
AcDbSymbolTableRecord
100
AcDbLayerTableRecord
  2
寸法
 70
     0
 62
     4
  6
CONTINUOUS
370
    -3
390
1C065
  0
LAYER
  5
DEB4
330
7467
100
AcDbSymbolTableRecord
100
AcDbLayerTableRecord
  2
部品1
 70
     0
 62
     7
  6
CONTINUOUS
370
    -3
390
1C065
  0
LAYER
  5
DEB5
330
7467
100
AcDbSymbolTableRecord
100
AcDbLayerTableRecord
  2
補助
 70
     0
 62
    -1
  6
CONTINUOUS
370
    -3
390
1C065
  0
LAYER
  5
DEB6
330
7467
100
AcDbSymbolTableRecord
100
AcDbLayerTableRecord
  2
文字
 70
     0
 62
     7
  6
CONTINUOUS
370
    -3
390
1C065
  0
LAYER
  5
F255
330
7467
100
AcDbSymbolTableRecord
100
AcDbLayerTableRecord
  2
DEFPOINTS
 70
     0
 62
     7
  6
CONTINUOUS
290
     0
370
    -3
390
1C065
  0
LAYER
  5
10B54
330
7467
100
AcDbSymbolTableRecord
100
AcDbLayerTableRecord
  2
仕様書枠
 70
     0
 62
   230
  6
CONTINUOUS
370
    -3
390
1C065
  0
LAYER
  5
1173F
330
7467
100
AcDbSymbolTableRecord
100
AcDbLayerTableRecord
  2
細線
 70
     0
 62
     5
  6
CONTINUOUS
370
    -3
390
1C065
  0
LAYER
  5
1180C
330
7467
100
AcDbSymbolTableRecord
100
AcDbLayerTableRecord
  2
想像線
 70
     0
 62
     6
  6
PHANTOM
370
    -3
390
1C065
  0
LAYER
  5
1D520
330
7467
100
AcDbSymbolTableRecord
100
AcDbLayerTableRecord
  2
点線
 70
     0
 62
     2
  6
HIDDEN
370
    -3
390
1C065
  0
ENDTAB
  0
TABLE
  2
STYLE
  5
7468
330
0
100
AcDbSymbolTable
 70
     4
  0
STYLE
  5
7475
330
7468
100
AcDbSymbolTableRecord
100
AcDbTextStyleTableRecord
  2
STANDARD
 70
     0
 40
0.0
 41
1.0
 50
0.0
 71
     0
 42
4.0
  3
txt
  4
C:\AutoCAD LT\bigfont.shx
  0
STYLE
  5
763C
330
7468
100
AcDbSymbolTableRecord
100
AcDbTextStyleTableRecord
  2
MSMINCHO
 70
     0
 40
0.0
 41
1.0
 50
0.0
 71
     0
 42
1.199999999999999
  3
C:\AutoCAD LT\msminch2.TTF
  4

  0
STYLE
  5
F706
330
7468
100
AcDbSymbolTableRecord
100
AcDbTextStyleTableRecord
  2
STYLE1
 70
     0
 40
0.0
 41
1.0
 50
0.0
 71
     0
 42
150.0
  3
isocp.shx
  4
bigfont.shx
  0
STYLE
  5
103BF
330
7468
100
AcDbSymbolTableRecord
100
AcDbTextStyleTableRecord
  2
STYLE2
 70
     0
 40
0.0
 41
1.0
 50
0.0
 71
     0
 42
100.0
  3
MS PGothic.ttf
  4

1001
ACAD
1000
MS PGothic
1071
    32818
  0
ENDTAB
  0
TABLE
  2
VIEW
  5
746B
330
0
100
AcDbSymbolTable
 70
     0
  0
ENDTAB
  0
TABLE
  2
UCS
  5
746C
330
0
100
AcDbSymbolTable
 70
     0
  0
ENDTAB
  0
TABLE
  2
APPID
  5
746E
330
0
100
AcDbSymbolTable
 70
     6
  0
APPID
  5
7476
330
746E
100
AcDbSymbolTableRecord
100
AcDbRegAppTableRecord
  2
ACAD
 70
     0
  0
APPID
  5
DEA9
330
746E
100
AcDbSymbolTableRecord
100
AcDbRegAppTableRecord
  2
CONTENTBLOCKICON
 70
     0
  0
APPID
  5
DEAA
330
746E
100
AcDbSymbolTableRecord
100
AcDbRegAppTableRecord
  2
CONTENTBLOCKDESCRIPTION
 70
     0
  0
APPID
  5
E71D
330
746E
100
AcDbSymbolTableRecord
100
AcDbRegAppTableRecord
  2
CONTENTTABDATA
 70
     0
  0
APPID
  5
E71E
330
746E
100
AcDbSymbolTableRecord
100
AcDbRegAppTableRecord
  2
CONTENTCURRENTTAB
 70
     0
  0
APPID
  5
F3BA
330
746E
100
AcDbSymbolTableRecord
100
AcDbRegAppTableRecord
  2
DRAWINGVARIABLESXDATA
 70
     0
  0
ENDTAB
  0
TABLE
  2
DIMSTYLE
  5
746F
330
0
100
AcDbSymbolTable
 70
     3
100
AcDbDimStyleTable
 71
     2
340
F71F
340
20F41
  0
DIMSTYLE
105
F71F
102
{ACAD_REACTORS
330
1D658
330
1D659
330
1D665
330
1D668
330
1D669
330
1D66C
330
1D66D
330
1D67F
330
1D6E3
330
1D6E5
330
1D6EE
330
1D6EF
330
1D6F1
330
1D742
330
1D743
330
1D746
330
1D747
330
1D74B
330
1D74F
330
1D755
330
1E143
330
1EE48
330
1EE47
330
1EE45
330
21F3D
330
22068
330
22069
330
2206A
330
2206B
330
22AF6
330
22B1A
330
236CD
330
236DD
330
23809
330
2380A
330
23808
330
23F7E
330
24C87
330
25498
102
}
330
746F
100
AcDbSymbolTableRecord
100
AcDbDimStyleTableRecord
  2
INABA_S50G
 70
     0
 40
0.0
 41
125.0
 42
25.0
 43
7.0
 44
75.0
 73
     0
 74
     0
 77
     3
 78
     8
140
150.0
141
0.0
143
0.0394
147
25.0
172
     1
173
     1
174
     1
178
     7
271
     1
340
F706
341
F770
343
F770
344
F770
  0
DIMSTYLE
105
20F40
330
746F
100
AcDbSymbolTableRecord
100
AcDbDimStyleTableRecord
  2
INABA_S50G詳細用
 70
     0
 40
0.0
 41
125.0
 42
25.0
 43
7.0
 44
35.0
 73
     0
 74
     0
 77
     3
 78
     8
140
150.0
141
0.0
143
0.0394
144
0.5
147
25.0
172
     1
173
     1
178
     7
271
     1
272
     1
340
F706
341
11750
343
F770
344
F770
  0
DIMSTYLE
105
20F41
102
{ACAD_REACTORS
330
216F8
330
2135D
330
21369
330
2136E
330
214A8
330
214B6
330
214B9
330
214C3
330
2150F
330
21510
330
21588
330
215F1
330
215F4
330
21654
330
2149E
330
22E38
330
22E45
330
22E96
330
22EB0
330
230D8
330
230FA
330
23109
330
23116
330
23162
330
23191
330
2348C
330
23515
330
23522
102
}
330
746F
100
AcDbSymbolTableRecord
100
AcDbDimStyleTableRecord
  2
INABA_S50G詳細S20用
 70
     0
 40
0.0
 41
125.0
 42
25.0
 43
7.0
 44
35.0
 73
     0
 74
     0
 77
     3
 78
     8
140
150.0
141
0.0
143
0.0394
144
0.4
147
25.0
172
     1
173
     1
178
     7
271
     1
272
     1
340
F706
341
11750
343
F770
344
F770
  0
ENDTAB
  0
TABLE
  2
BLOCK_RECORD
  5
7466
330
0
100
AcDbSymbolTable
 70
    70
  0
BLOCK_RECORD
  5
747D
330
7466
100
AcDbSymbolTableRecord
100
AcDbBlockTableRecord
  2
*MODEL_SPACE
340
1C06A
  0
BLOCK_RECORD
  5
747A
330
7466
100
AcDbSymbolTableRecord
100
AcDbBlockTableRecord
  2
*PAPER_SPACE
340
1C06B
  0
BLOCK_RECORD
  5
ECB3
330
7466
100
AcDbSymbolTableRecord
100
AcDbBlockTableRecord
  2
作図枠S50
340
0
310
2800000020000000200000000100040000000000000200000000000000000000000000000000000000000000000080000080000000808000800000008000800080800000C0C0C000808080000000FF0000FF000000FFFF00FF000000FF00FF00FFFF0000FFFFFF00FFFFFFFFFFFFFFFFFFFFFFFFFFFFFFFFFFFFFFFFFFFFFF
310
FFFFFFFFFFFFFFFFFFFFFFFFFFFFFFFFFFFFFFFFFFFFFFFFFFFFFFFFFFFFFFFFFFFFFFFFFFFFFFFFFFFFFFFFFFFFFFFFFFFFFFFFFFFFFFFFFFFFFFFFFFFFFFFFFFFFFFFFFFFFFFFFFF999999999999999999999999999999999FFFFFFFFFFFFFFFFFFFFFFFFFFFFFF99FFFFFFFFFFFFFFFFFFFFFFFFFFFFFF99FFFFFFFFFFF
310
FFFFFFFFFFFFFFFFFFF99FFFFFFFFFFFFFFFFFFFFFFFFFFFFFF99FFFFFFFFFFFFFFFFFFFFFFFFFFFFFF99FFFFFFFFFFFFFFFFFFFFFFFFFFFFFF99FFFFFFFFFFFFFFFFFFFFFFFFFFFFFF99FFFFFFFFFFFFFFFFFFFFFFFFFFFFFF99FFFFFFFFFFFFFFFFFFFFFFFFFFFFFF99FFFFFFFFFFFFFFFFFFFFFFFFFFFFFF99FFFFFFFFF
310
FFFFFFFFFFFFFFFFFFFFF99FFFFFFFFFFFFFFFFFFFFFFFFFFFFFF99FFFFFFFFFFFFFFFFFFFFFFFFFFFFFF99FFFFFFFFFFFFFFFFFFFFFFFFFFFFFF99FFFFFFFFFFFFFFFFFFFFFFFFFFFFFF99FFFFFFFFFFFFFFFFFFFFFFFFFFFFFF99FFFFFFFFFFFFFFFFFFFFFFFFFFFFFF99FFFFFFFFFFFFFFFFFFFFF99999999999FFFFFFF
310
FFFFFFFFFFFFFF9FFFFFFFFF99999999999999999999999FFFFFFFFFFFFFFFFFFFFFFFFFFFFFFFFFFFFFFFFFFFFFFFFFFFFFFFFFFFFFFFFFFFFFFFFFFFFFFFFFFFFFFFFFFFFFFFFFFFFFFFFFFFFFFFFFFFFFFFFFFFFFFFFFFFFFFFFFFFFFFFFFFFFFFFFFFFFFFFFFFFFFFFFF
102
{BLKREFS
331
F235
102
}
  0
BLOCK_RECORD
  5
F770
330
7466
100
AcDbSymbolTableRecord
100
AcDbBlockTableRecord
  2
_DOTSMALL
340
0
102
{BLKREFS
331
21BB6
331
21BB7
331
21BBF
331
21BC0
331
21BD3
331
21BD4
331
21C48
331
21C49
331
21C51
331
21C52
331
22C71
331
22C72
331
22C9E
331
22C9F
331
22CBB
331
22CBC
331
22D07
331
22D08
331
23399
331
2339A
331
233A2
331
233A3
331
233AC
331
233AD
331
233B7
331
233B8
331
233C2
331
233C3
331
233CC
331
233CD
331
233D5
331
233D6
331
233DE
331
233DF
331
234C1
331
234C2
331
234CA
331
234CB
331
234D3
331
234D4
331
234DC
331
234DD
331
234E5
331
234E6
331
234EE
331
234EF
331
234F7
331
234F8
331
23500
331
23501
331
23509
331
2350A
331
2351A
331
2351B
331
23527
331
23528
331
2532C
331
2532D
331
25335
331
25336
331
2533E
331
2533F
331
25347
331
25348
331
25351
331
25352
331
2535A
331
2535B
331
25365
331
25366
331
2536E
331
2536F
331
25377
331
25378
331
25380
331
25381
331
25389
331
2538A
331
25393
331
25394
331
2539E
331
2539F
331
253A9
331
253AA
331
253B3
331
253B4
331
253BE
331
253BF
331
253C8
331
253C9
331
253D1
331
253D2
331
253DA
331
253DB
331
253E3
331
253E4
331
253EC
331
253ED
331
253F5
331
253F6
331
253FF
331
25400
331
25408
331
25409
331
25411
331
25412
331
2541B
331
2541C
331
25425
331
25426
331
2542E
331
2542F
331
25437
331
25438
331
25441
331
25442
331
2544B
331
2544C
331
25456
331
25457
331
25460
331
25461
331
25469
331
2546A
331
25473
331
25474
331
2547E
331
2547F
331
25488
331
25489
331
25492
331
25493
331
2549D
331
2549E
102
}
  0
BLOCK_RECORD
  5
11750
330
7466
100
AcDbSymbolTableRecord
100
AcDbBlockTableRecord
  2
_NONE
340
0
  0
BLOCK_RECORD
  5
1D793
330
7466
100
AcDbSymbolTableRecord
100
AcDbBlockTableRecord
  2
*D3
340
0
  0
BLOCK_RECORD
  5
1D7A0
330
7466
100
AcDbSymbolTableRecord
100
AcDbBlockTableRecord
  2
*D4
340
0
  0
BLOCK_RECORD
  5
1D7AC
330
7466
100
AcDbSymbolTableRecord
100
AcDbBlockTableRecord
  2
*D5
340
0
  0
BLOCK_RECORD
  5
1D7B8
330
7466
100
AcDbSymbolTableRecord
100
AcDbBlockTableRecord
  2
*D6
340
0
  0
BLOCK_RECORD
  5
1D7C4
330
7466
100
AcDbSymbolTableRecord
100
AcDbBlockTableRecord
  2
*D7
340
0
  0
BLOCK_RECORD
  5
1D7D0
330
7466
100
AcDbSymbolTableRecord
100
AcDbBlockTableRecord
  2
*D8
340
0
  0
BLOCK_RECORD
  5
1D7DE
330
7466
100
AcDbSymbolTableRecord
100
AcDbBlockTableRecord
  2
*D9
340
0
  0
BLOCK_RECORD
  5
1D7EC
330
7466
100
AcDbSymbolTableRecord
100
AcDbBlockTableRecord
  2
*D10
340
0
  0
BLOCK_RECORD
  5
1D808
330
7466
100
AcDbSymbolTableRecord
100
AcDbBlockTableRecord
  2
*D11
340
0
  0
BLOCK_RECORD
  5
1D821
330
7466
100
AcDbSymbolTableRecord
100
AcDbBlockTableRecord
  2
*D12
340
0
  0
BLOCK_RECORD
  5
1D852
330
7466
100
AcDbSymbolTableRecord
100
AcDbBlockTableRecord
  2
*D13
340
0
  0
BLOCK_RECORD
  5
1D85E
330
7466
100
AcDbSymbolTableRecord
100
AcDbBlockTableRecord
  2
*D14
340
0
  0
BLOCK_RECORD
  5
1D86C
330
7466
100
AcDbSymbolTableRecord
100
AcDbBlockTableRecord
  2
*D15
340
0
  0
BLOCK_RECORD
  5
1D890
330
7466
100
AcDbSymbolTableRecord
100
AcDbBlockTableRecord
  2
*D16
340
0
  0
BLOCK_RECORD
  5
1D89D
330
7466
100
AcDbSymbolTableRecord
100
AcDbBlockTableRecord
  2
*D17
340
0
  0
BLOCK_RECORD
  5
1D8A9
330
7466
100
AcDbSymbolTableRecord
100
AcDbBlockTableRecord
  2
*D18
340
0
  0
BLOCK_RECORD
  5
1D8B7
330
7466
100
AcDbSymbolTableRecord
100
AcDbBlockTableRecord
  2
*D19
340
0
  0
BLOCK_RECORD
  5
1D8C5
330
7466
100
AcDbSymbolTableRecord
100
AcDbBlockTableRecord
  2
*D20
340
0
  0
BLOCK_RECORD
  5
1D8D1
330
7466
100
AcDbSymbolTableRecord
100
AcDbBlockTableRecord
  2
*D21
340
0
  0
BLOCK_RECORD
  5
1D8DE
330
7466
100
AcDbSymbolTableRecord
100
AcDbBlockTableRecord
  2
*D22
340
0
  0
BLOCK_RECORD
  5
1E144
330
7466
100
AcDbSymbolTableRecord
100
AcDbBlockTableRecord
  2
*D23
340
0
  0
BLOCK_RECORD
  5
1EE69
330
7466
100
AcDbSymbolTableRecord
100
AcDbBlockTableRecord
  2
*D24
340
0
  0
BLOCK_RECORD
  5
1EE7F
330
7466
100
AcDbSymbolTableRecord
100
AcDbBlockTableRecord
  2
*D25
340
0
  0
BLOCK_RECORD
  5
1EE8A
330
7466
100
AcDbSymbolTableRecord
100
AcDbBlockTableRecord
  2
*D26
340
0
  0
BLOCK_RECORD
  5
2175C
330
7466
100
AcDbSymbolTableRecord
100
AcDbBlockTableRecord
  2
*D27
340
0
  0
BLOCK_RECORD
  5
21783
330
7466
100
AcDbSymbolTableRecord
100
AcDbBlockTableRecord
  2
*D28
340
0
  0
BLOCK_RECORD
  5
217AA
330
7466
100
AcDbSymbolTableRecord
100
AcDbBlockTableRecord
  2
*D29
340
0
  0
BLOCK_RECORD
  5
217B6
330
7466
100
AcDbSymbolTableRecord
100
AcDbBlockTableRecord
  2
*D30
340
0
  0
BLOCK_RECORD
  5
217D0
330
7466
100
AcDbSymbolTableRecord
100
AcDbBlockTableRecord
  2
*D31
340
0
  0
BLOCK_RECORD
  5
217DC
330
7466
100
AcDbSymbolTableRecord
100
AcDbBlockTableRecord
  2
*D32
340
0
  0
BLOCK_RECORD
  5
217F5
330
7466
100
AcDbSymbolTableRecord
100
AcDbBlockTableRecord
  2
*D33
340
0
  0
BLOCK_RECORD
  5
21801
330
7466
100
AcDbSymbolTableRecord
100
AcDbBlockTableRecord
  2
*D34
340
0
  0
BLOCK_RECORD
  5
2180D
330
7466
100
AcDbSymbolTableRecord
100
AcDbBlockTableRecord
  2
*D35
340
0
  0
BLOCK_RECORD
  5
21819
330
7466
100
AcDbSymbolTableRecord
100
AcDbBlockTableRecord
  2
*D36
340
0
  0
BLOCK_RECORD
  5
21825
330
7466
100
AcDbSymbolTableRecord
100
AcDbBlockTableRecord
  2
*D37
340
0
  0
BLOCK_RECORD
  5
21832
330
7466
100
AcDbSymbolTableRecord
100
AcDbBlockTableRecord
  2
*D38
340
0
  0
BLOCK_RECORD
  5
2187C
330
7466
100
AcDbSymbolTableRecord
100
AcDbBlockTableRecord
  2
*D39
340
0
  0
BLOCK_RECORD
  5
21894
330
7466
100
AcDbSymbolTableRecord
100
AcDbBlockTableRecord
  2
*D40
340
0
  0
BLOCK_RECORD
  5
218AC
330
7466
100
AcDbSymbolTableRecord
100
AcDbBlockTableRecord
  2
*D41
340
0
  0
BLOCK_RECORD
  5
21F3E
330
7466
100
AcDbSymbolTableRecord
100
AcDbBlockTableRecord
  2
*D42
340
0
  0
BLOCK_RECORD
  5
2206C
330
7466
100
AcDbSymbolTableRecord
100
AcDbBlockTableRecord
  2
*D43
340
0
  0
BLOCK_RECORD
  5
2207A
330
7466
100
AcDbSymbolTableRecord
100
AcDbBlockTableRecord
  2
*D44
340
0
  0
BLOCK_RECORD
  5
22088
330
7466
100
AcDbSymbolTableRecord
100
AcDbBlockTableRecord
  2
*D45
340
0
  0
BLOCK_RECORD
  5
22096
330
7466
100
AcDbSymbolTableRecord
100
AcDbBlockTableRecord
  2
*D46
340
0
  0
BLOCK_RECORD
  5
22AF7
330
7466
100
AcDbSymbolTableRecord
100
AcDbBlockTableRecord
  2
*D47
340
0
  0
BLOCK_RECORD
  5
22B1B
330
7466
100
AcDbSymbolTableRecord
100
AcDbBlockTableRecord
  2
*D48
340
0
  0
BLOCK_RECORD
  5
22E39
330
7466
100
AcDbSymbolTableRecord
100
AcDbBlockTableRecord
  2
*D49
340
0
  0
BLOCK_RECORD
  5
22E46
330
7466
100
AcDbSymbolTableRecord
100
AcDbBlockTableRecord
  2
*D50
340
0
  0
BLOCK_RECORD
  5
22E97
330
7466
100
AcDbSymbolTableRecord
100
AcDbBlockTableRecord
  2
*D51
340
0
  0
BLOCK_RECORD
  5
22EB1
330
7466
100
AcDbSymbolTableRecord
100
AcDbBlockTableRecord
  2
*D52
340
0
  0
BLOCK_RECORD
  5
230D9
330
7466
100
AcDbSymbolTableRecord
100
AcDbBlockTableRecord
  2
*D53
340
0
  0
BLOCK_RECORD
  5
230FB
330
7466
100
AcDbSymbolTableRecord
100
AcDbBlockTableRecord
  2
*D54
340
0
  0
BLOCK_RECORD
  5
2310A
330
7466
100
AcDbSymbolTableRecord
100
AcDbBlockTableRecord
  2
*D55
340
0
  0
BLOCK_RECORD
  5
23117
330
7466
100
AcDbSymbolTableRecord
100
AcDbBlockTableRecord
  2
*D56
340
0
  0
BLOCK_RECORD
  5
23163
330
7466
100
AcDbSymbolTableRecord
100
AcDbBlockTableRecord
  2
*D57
340
0
  0
BLOCK_RECORD
  5
23192
330
7466
100
AcDbSymbolTableRecord
100
AcDbBlockTableRecord
  2
*D58
340
0
  0
BLOCK_RECORD
  5
2348D
330
7466
100
AcDbSymbolTableRecord
100
AcDbBlockTableRecord
  2
*D59
340
0
  0
BLOCK_RECORD
  5
23516
330
7466
100
AcDbSymbolTableRecord
100
AcDbBlockTableRecord
  2
*D60
340
0
  0
BLOCK_RECORD
  5
23523
330
7466
100
AcDbSymbolTableRecord
100
AcDbBlockTableRecord
  2
*D61
340
0
  0
BLOCK_RECORD
  5
23717
330
7466
100
AcDbSymbolTableRecord
100
AcDbBlockTableRecord
  2
*D62
340
0
  0
BLOCK_RECORD
  5
23723
330
7466
100
AcDbSymbolTableRecord
100
AcDbBlockTableRecord
  2
*D63
340
0
  0
BLOCK_RECORD
  5
23818
330
7466
100
AcDbSymbolTableRecord
100
AcDbBlockTableRecord
  2
*D64
340
0
  0
BLOCK_RECORD
  5
23824
330
7466
100
AcDbSymbolTableRecord
100
AcDbBlockTableRecord
  2
*D65
340
0
  0
BLOCK_RECORD
  5
23830
330
7466
100
AcDbSymbolTableRecord
100
AcDbBlockTableRecord
  2
*D66
340
0
  0
BLOCK_RECORD
  5
23F89
330
7466
100
AcDbSymbolTableRecord
100
AcDbBlockTableRecord
  2
*D67
340
0
  0
BLOCK_RECORD
  5
24C88
330
7466
100
AcDbSymbolTableRecord
100
AcDbBlockTableRecord
  2
*D68
340
0
  0
BLOCK_RECORD
  5
25499
330
7466
100
AcDbSymbolTableRecord
100
AcDbBlockTableRecord
  2
*D69
340
0
  0
ENDTAB
  0
ENDSEC
  0
SECTION
  2
BLOCKS
  0
BLOCK
  5
7489
330
747D
100
AcDbEntity
  8
0
100
AcDbBlockBegin
  2
*MODEL_SPACE
 70
     0
 10
0.0
 20
0.0
 30
0.0
  3
*MODEL_SPACE
  1

  0
ENDBLK
  5
748A
330
747D
100
AcDbEntity
  8
0
100
AcDbBlockEnd
  0
BLOCK
  5
7487
330
747A
100
AcDbEntity
 67
     1
  8
0
100
AcDbBlockBegin
  2
*PAPER_SPACE
 70
     0
 10
0.0
 20
0.0
 30
0.0
  3
*PAPER_SPACE
  1

  0
ENDBLK
  5
7488
330
747A
100
AcDbEntity
 67
     1
  8
0
100
AcDbBlockEnd
  0
BLOCK
  5
ECB4
330
ECB3
100
AcDbEntity
  8
0
100
AcDbBlockBegin
  2
作図枠S50
 70
     0
 10
0.0
 20
0.0
 30
0.0
  3
作図枠S50
  1

  4
作図領域枠 縮尺 1/50
  0
LINE
  5
ECB5
330
ECB3
100
AcDbEntity
  8
補助
100
AcDbLine
 10
14364.0
 20
14262.0
 30
0.0
 11
174.9999999999993
 21
14262.0
 31
0.0
  0
LINE
  5
ECB6
330
ECB3
100
AcDbEntity
  8
補助
100
AcDbLine
 10
174.9999999999993
 20
14262.0
 30
0.0
 11
174.9999999999993
 21
1520.0
 31
0.0
  0
LINE
  5
ECB7
330
ECB3
100
AcDbEntity
  8
補助
100
AcDbLine
 10
174.9999999999993
 20
1520.0
 30
0.0
 11
20384.0
 21
1520.0
 31
0.0
  0
LINE
  5
ECB8
330
ECB3
100
AcDbEntity
  8
補助
100
AcDbLine
 10
20384.0
 20
1520.0
 30
0.0
 11
20384.0
 21
13042.0
 31
0.0
  0
LINE
  5
ECB9
330
ECB3
100
AcDbEntity
  8
補助
100
AcDbLine
 10
20384.0
 20
13042.0
 30
0.0
 11
14364.0
 21
13042.0
 31
0.0
  0
LINE
  5
ECBA
330
ECB3
100
AcDbEntity
  8
補助
100
AcDbLine
 10
14364.0
 20
13042.0
 30
0.0
 11
14364.0
 21
14262.0
 31
0.0
  0
ENDBLK
  5
ECBB
330
ECB3
100
AcDbEntity
  8
0
100
AcDbBlockEnd
  0
BLOCK
  5
F771
330
F770
100
AcDbEntity
  8
0
 48
50.0
100
AcDbBlockBegin
  2
_DOTSMALL
 70
     0
 10
0.0
 20
0.0
 30
0.0
  3
_DOTSMALL
  1

  0
LWPOLYLINE
  5
F772
330
F770
100
AcDbEntity
  8
0
  6
ByBlock
 62
     0
 48
50.0
100
AcDbPolyline
 90
        2
 70
     1
 43
0.5
 10
-0.0625
 20
0.0
 42
1.0
 10
0.0625
 20
0.0
 42
1.0
  0
ENDBLK
  5
F776
330
F770
100
AcDbEntity
  8
0
 48
50.0
100
AcDbBlockEnd
  0
BLOCK
  5
11752
330
11750
100
AcDbEntity
  8
0
 48
50.0
100
AcDbBlockBegin
  2
_NONE
 70
     0
 10
0.0
 20
0.0
 30
0.0
  3
_NONE
  1

  0
CIRCLE
  5
11751
330
11750
100
AcDbEntity
  8
0
  6
ByBlock
 62
     0
 48
50.0
100
AcDbCircle
 10
0.0
 20
0.0
 30
0.0
 40
0.25
  0
ENDBLK
  5
11753
330
11750
100
AcDbEntity
  8
0
 48
50.0
100
AcDbBlockEnd
  0
BLOCK
  5
1D79E
330
1D793
100
AcDbEntity
  8
0
 48
50.0
100
AcDbBlockBegin
  2
*D3
 70
     1
 10
0.0
 20
0.0
 30
0.0
  3
*D3
  1

  0
LINE
  5
253C4
330
1D793
100
AcDbEntity
  8
寸法
 62
     0
 48
50.0
370
    -2
100
AcDbLine
 10
7719.500000000191
 20
10424.99999999999
 30
0.0
 11
7719.500000000191
 21
11393.58135479056
 31
0.0
  0
LINE
  5
253C5
330
1D793
100
AcDbEntity
  8
寸法
 62
     0
 48
50.0
370
    -2
100
AcDbLine
 10
7644.5
 20
10424.99999999999
 30
0.0
 11
7644.5
 21
11393.58135479056
 31
0.0
  0
LINE
  5
253C6
330
1D793
100
AcDbEntity
  8
寸法
 62
     0
 48
50.0
370
    -2
100
AcDbLine
 10
7719.500000000191
 20
11318.58135479056
 30
0.0
 11
7644.5
 21
11318.58135479056
 31
0.0
  0
LINE
  5
253C7
330
1D793
100
AcDbEntity
  8
寸法
 62
     0
 48
50.0
370
    -2
100
AcDbLine
 10
7644.5
 20
11318.58135479056
 30
0.0
 11
7293.893398282202
 21
11318.58135479056
 31
0.0
  0
INSERT
  5
253C8
330
1D793
100
AcDbEntity
  8
寸法
 62
     0
 48
50.0
370
    -2
100
AcDbBlockReference
  2
_DOTSMALL
 10
7719.500000000191
 20
11318.58135479056
 30
0.0
 41
125.0
 42
125.0
 43
125.0
  0
INSERT
  5
253C9
330
1D793
100
AcDbEntity
  8
寸法
 62
     0
 48
50.0
370
    -2
100
AcDbBlockReference
  2
_DOTSMALL
 10
7644.5
 20
11318.58135479056
 30
0.0
 41
125.0
 42
125.0
 43
125.0
 50
180.0
  0
MTEXT
  5
253CA
330
1D793
100
AcDbEntity
  8
寸法
 62
     7
 48
50.0
100
AcDbMText
 10
7404.5
 20
11418.58135479056
 30
0.0
 40
150.0
 41
0.0
 71
     5
 72
     1
  1
\A1;75
  7
STYLE1
 73
     1
 44
1.0
1001
ACAD
1000
MTEXTBEGIN
1070
    73
1070
     1
1070
    44
1040
1.0
1070
    74
1070
     0
1000
MTEXTEND
  0
POINT
  5
253CB
330
1D793
100
AcDbEntity
  8
DEFPOINTS
 62
     0
 48
50.0
100
AcDbPoint
 10
7719.500000000191
 20
10399.99999999999
 30
0.0
  0
POINT
  5
253CC
330
1D793
100
AcDbEntity
  8
DEFPOINTS
 62
     0
 48
50.0
100
AcDbPoint
 10
7644.5
 20
10399.99999999999
 30
0.0
  0
POINT
  5
253CD
330
1D793
100
AcDbEntity
  8
DEFPOINTS
 62
     0
 48
50.0
100
AcDbPoint
 10
7644.5
 20
11318.58135479056
 30
0.0
  0
ENDBLK
  5
1D79F
330
1D793
100
AcDbEntity
  8
0
 48
50.0
100
AcDbBlockEnd
  0
BLOCK
  5
1D7AA
330
1D7A0
100
AcDbEntity
  8
0
 48
50.0
100
AcDbBlockBegin
  2
*D4
 70
     1
 10
0.0
 20
0.0
 30
0.0
  3
*D4
  1

  0
LINE
  5
25374
330
1D7A0
100
AcDbEntity
  8
寸法
 62
     0
 48
50.0
370
    -2
100
AcDbLine
 10
10209.50000000019
 20
10416.88193109354
 30
0.0
 11
10209.50000000019
 21
11393.58135479056
 31
0.0
  0
LINE
  5
25375
330
1D7A0
100
AcDbEntity
  8
寸法
 62
     0
 48
50.0
370
    -2
100
AcDbLine
 10
7719.500000000191
 20
10424.99999999999
 30
0.0
 11
7719.500000000191
 21
11393.58135479056
 31
0.0
  0
LINE
  5
25376
330
1D7A0
100
AcDbEntity
  8
寸法
 62
     0
 48
50.0
370
    -2
100
AcDbLine
 10
10209.50000000019
 20
11318.58135479056
 30
0.0
 11
7719.500000000191
 21
11318.58135479056
 31
0.0
  0
INSERT
  5
25377
330
1D7A0
100
AcDbEntity
  8
寸法
 62
     0
 48
50.0
370
    -2
100
AcDbBlockReference
  2
_DOTSMALL
 10
10209.50000000019
 20
11318.58135479056
 30
0.0
 41
125.0
 42
125.0
 43
125.0
  0
INSERT
  5
25378
330
1D7A0
100
AcDbEntity
  8
寸法
 62
     0
 48
50.0
370
    -2
100
AcDbBlockReference
  2
_DOTSMALL
 10
7719.500000000191
 20
11318.58135479056
 30
0.0
 41
125.0
 42
125.0
 43
125.0
 50
180.0
  0
MTEXT
  5
25379
330
1D7A0
100
AcDbEntity
  8
寸法
 62
     7
 48
50.0
100
AcDbMText
 10
8964.500000000191
 20
11418.59611857009
 30
0.0
 40
150.0
 41
0.0
 71
     5
 72
     1
  1
\A1;2490
  7
STYLE1
 73
     1
 44
1.0
1001
ACAD
1000
MTEXTBEGIN
1070
    73
1070
     1
1070
    44
1040
1.0
1070
    74
1070
     0
1000
MTEXTEND
  0
POINT
  5
2537A
330
1D7A0
100
AcDbEntity
  8
DEFPOINTS
 62
     0
 48
50.0
100
AcDbPoint
 10
10209.50000000019
 20
10391.88193109354
 30
0.0
  0
POINT
  5
2537B
330
1D7A0
100
AcDbEntity
  8
DEFPOINTS
 62
     0
 48
50.0
100
AcDbPoint
 10
7719.500000000191
 20
10399.99999999999
 30
0.0
  0
POINT
  5
2537C
330
1D7A0
100
AcDbEntity
  8
DEFPOINTS
 62
     0
 48
50.0
100
AcDbPoint
 10
7719.500000000191
 20
11318.58135479056
 30
0.0
  0
ENDBLK
  5
1D7AB
330
1D7A0
100
AcDbEntity
  8
0
 48
50.0
100
AcDbBlockEnd
  0
BLOCK
  5
1D7B6
330
1D7AC
100
AcDbEntity
  8
0
 48
50.0
100
AcDbBlockBegin
  2
*D5
 70
     1
 10
0.0
 20
0.0
 30
0.0
  3
*D5
  1

  0
LINE
  5
25357
330
1D7AC
100
AcDbEntity
  8
寸法
 62
     0
 48
50.0
370
    -2
100
AcDbLine
 10
10174.5
 20
8026.288726084299
 30
0.0
 11
10174.5
 21
6999.404554952453
 31
0.0
  0
LINE
  5
25358
330
1D7AC
100
AcDbEntity
  8
寸法
 62
     0
 48
50.0
370
    -2
100
AcDbLine
 10
7705.5
 20
8574.999999999997
 30
0.0
 11
7705.5
 21
6999.404554952453
 31
0.0
  0
LINE
  5
25359
330
1D7AC
100
AcDbEntity
  8
寸法
 62
     0
 48
50.0
370
    -2
100
AcDbLine
 10
10174.5
 20
7074.404554952453
 30
0.0
 11
7705.5
 21
7074.404554952453
 31
0.0
  0
INSERT
  5
2535A
330
1D7AC
100
AcDbEntity
  8
寸法
 62
     0
 48
50.0
370
    -2
100
AcDbBlockReference
  2
_DOTSMALL
 10
10174.5
 20
7074.404554952453
 30
0.0
 41
125.0
 42
125.0
 43
125.0
  0
INSERT
  5
2535B
330
1D7AC
100
AcDbEntity
  8
寸法
 62
     0
 48
50.0
370
    -2
100
AcDbBlockReference
  2
_DOTSMALL
 10
7705.5
 20
7074.404554952453
 30
0.0
 41
125.0
 42
125.0
 43
125.0
 50
180.0
  0
MTEXT
  5
2535C
330
1D7AC
100
AcDbEntity
  8
寸法
 62
     7
 48
50.0
100
AcDbMText
 10
8940.0
 20
7174.419318731979
 30
0.0
 40
150.0
 41
0.0
 71
     5
 72
     1
  1
\A1;2469
  7
STYLE1
 73
     1
 44
1.0
1001
ACAD
1000
MTEXTBEGIN
1070
    73
1070
     1
1070
    44
1040
1.0
1070
    74
1070
     0
1000
MTEXTEND
  0
POINT
  5
2535D
330
1D7AC
100
AcDbEntity
  8
DEFPOINTS
 62
     0
 48
50.0
100
AcDbPoint
 10
10174.5
 20
8051.288726084299
 30
0.0
  0
POINT
  5
2535E
330
1D7AC
100
AcDbEntity
  8
DEFPOINTS
 62
     0
 48
50.0
100
AcDbPoint
 10
7705.5
 20
8599.999999999997
 30
0.0
  0
POINT
  5
2535F
330
1D7AC
100
AcDbEntity
  8
DEFPOINTS
 62
     0
 48
50.0
100
AcDbPoint
 10
7705.5
 20
7074.404554952453
 30
0.0
  0
ENDBLK
  5
1D7B7
330
1D7AC
100
AcDbEntity
  8
0
 48
50.0
100
AcDbBlockEnd
  0
BLOCK
  5
1D7C2
330
1D7B8
100
AcDbEntity
  8
0
 48
50.0
100
AcDbBlockBegin
  2
*D6
 70
     1
 10
0.0
 20
0.0
 30
0.0
  3
*D6
  1

  0
LINE
  5
25386
330
1D7B8
100
AcDbEntity
  8
寸法
 62
     0
 48
50.0
370
    -2
100
AcDbLine
 10
7619.500000000001
 20
8660.999999999997
 30
0.0
 11
6752.193633210163
 21
8660.999999999997
 31
0.0
  0
LINE
  5
25387
330
1D7B8
100
AcDbEntity
  8
寸法
 62
     0
 48
50.0
370
    -2
100
AcDbLine
 10
7644.500000000191
 20
10349.99999999999
 30
0.0
 11
6752.193633210165
 21
10349.99999999999
 31
0.0
  0
LINE
  5
25388
330
1D7B8
100
AcDbEntity
  8
寸法
 62
     0
 48
50.0
370
    -2
100
AcDbLine
 10
6827.193633210163
 20
8660.999999999997
 30
0.0
 11
6827.193633210164
 21
10349.99999999999
 31
0.0
  0
INSERT
  5
25389
330
1D7B8
100
AcDbEntity
  8
寸法
 62
     0
 48
50.0
370
    -2
100
AcDbBlockReference
  2
_DOTSMALL
 10
6827.193633210163
 20
8660.999999999997
 30
0.0
 41
125.0
 42
125.0
 43
125.0
 50
270.0
  0
INSERT
  5
2538A
330
1D7B8
100
AcDbEntity
  8
寸法
 62
     0
 48
50.0
370
    -2
100
AcDbBlockReference
  2
_DOTSMALL
 10
6827.193633210164
 20
10349.99999999999
 30
0.0
 41
125.0
 42
125.0
 43
125.0
 50
90.0
  0
MTEXT
  5
2538B
330
1D7B8
100
AcDbEntity
  8
寸法
 62
     7
 48
50.0
100
AcDbMText
 10
6727.193633210162
 20
9505.499999999997
 30
0.0
 40
150.0
 41
0.0
 71
     5
 72
     1
  1
\A1;1689
  7
STYLE1
 11
0.0000000000000001
 21
1.0
 31
0.0
 73
     1
 44
1.0
1001
ACAD
1000
MTEXTBEGIN
1070
    73
1070
     1
1070
    44
1040
1.0
1070
    74
1070
     0
1000
MTEXTEND
  0
POINT
  5
2538C
330
1D7B8
100
AcDbEntity
  8
DEFPOINTS
 62
     0
 48
50.0
100
AcDbPoint
 10
7644.5
 20
8660.999999999997
 30
0.0
  0
POINT
  5
2538D
330
1D7B8
100
AcDbEntity
  8
DEFPOINTS
 62
     0
 48
50.0
100
AcDbPoint
 10
7669.500000000191
 20
10349.99999999999
 30
0.0
  0
POINT
  5
2538E
330
1D7B8
100
AcDbEntity
  8
DEFPOINTS
 62
     0
 48
50.0
100
AcDbPoint
 10
6827.193633210164
 20
10349.99999999999
 30
0.0
  0
ENDBLK
  5
1D7C3
330
1D7B8
100
AcDbEntity
  8
0
 48
50.0
100
AcDbBlockEnd
  0
BLOCK
  5
1D7CE
330
1D7C4
100
AcDbEntity
  8
0
 48
50.0
100
AcDbBlockBegin
  2
*D7
 70
     1
 10
0.0
 20
0.0
 30
0.0
  3
*D7
  1

  0
LINE
  5
2537D
330
1D7C4
100
AcDbEntity
  8
寸法
 62
     0
 48
50.0
370
    -2
100
AcDbLine
 10
7619.500000000001
 20
10399.99999999999
 30
0.0
 11
6369.077758871933
 21
10399.99999999999
 31
0.0
  0
LINE
  5
2537E
330
1D7C4
100
AcDbEntity
  8
寸法
 62
     0
 48
50.0
370
    -2
100
AcDbLine
 10
7680.500000000001
 20
8599.999999999997
 30
0.0
 11
6369.077758871932
 21
8599.999999999997
 31
0.0
  0
LINE
  5
2537F
330
1D7C4
100
AcDbEntity
  8
寸法
 62
     0
 48
50.0
370
    -2
100
AcDbLine
 10
6444.077758871933
 20
10399.99999999999
 30
0.0
 11
6444.077758871933
 21
8599.999999999997
 31
0.0
  0
INSERT
  5
25380
330
1D7C4
100
AcDbEntity
  8
寸法
 62
     0
 48
50.0
370
    -2
100
AcDbBlockReference
  2
_DOTSMALL
 10
6444.077758871933
 20
10399.99999999999
 30
0.0
 41
125.0
 42
125.0
 43
125.0
 50
90.0
  0
INSERT
  5
25381
330
1D7C4
100
AcDbEntity
  8
寸法
 62
     0
 48
50.0
370
    -2
100
AcDbBlockReference
  2
_DOTSMALL
 10
6444.077758871933
 20
8599.999999999997
 30
0.0
 41
125.0
 42
125.0
 43
125.0
 50
270.0
  0
MTEXT
  5
25382
330
1D7C4
100
AcDbEntity
  8
寸法
 62
     7
 48
50.0
100
AcDbMText
 10
6344.077758871931
 20
9499.999999999998
 30
0.0
 40
150.0
 41
0.0
 71
     5
 72
     1
  1
\A1;1800
  7
STYLE1
 11
0.0000000000000001
 21
1.0
 31
0.0
 73
     1
 44
1.0
1001
ACAD
1000
MTEXTBEGIN
1070
    73
1070
     1
1070
    44
1040
1.0
1070
    74
1070
     0
1000
MTEXTEND
  0
POINT
  5
25383
330
1D7C4
100
AcDbEntity
  8
DEFPOINTS
 62
     0
 48
50.0
100
AcDbPoint
 10
7644.5
 20
10399.99999999999
 30
0.0
  0
POINT
  5
25384
330
1D7C4
100
AcDbEntity
  8
DEFPOINTS
 62
     0
 48
50.0
100
AcDbPoint
 10
7705.5
 20
8599.999999999997
 30
0.0
  0
POINT
  5
25385
330
1D7C4
100
AcDbEntity
  8
DEFPOINTS
 62
     0
 48
50.0
100
AcDbPoint
 10
6444.077758871933
 20
8599.999999999997
 30
0.0
  0
ENDBLK
  5
1D7CF
330
1D7C4
100
AcDbEntity
  8
0
 48
50.0
100
AcDbBlockEnd
  0
BLOCK
  5
1D7DC
330
1D7D0
100
AcDbEntity
  8
0
 48
50.0
100
AcDbBlockBegin
  2
*D8
 70
     1
 10
0.0
 20
0.0
 30
0.0
  3
*D8
  1

  0
LINE
  5
2538F
330
1D7D0
100
AcDbEntity
  8
寸法
 62
     0
 48
50.0
370
    -2
100
AcDbLine
 10
7680.500000000001
 20
8599.999999999997
 30
0.0
 11
6752.193633210163
 21
8599.999999999997
 31
0.0
  0
LINE
  5
25390
330
1D7D0
100
AcDbEntity
  8
寸法
 62
     0
 48
50.0
370
    -2
100
AcDbLine
 10
7619.500000000001
 20
8660.999999999997
 30
0.0
 11
6752.193633210163
 21
8660.999999999997
 31
0.0
  0
LINE
  5
25391
330
1D7D0
100
AcDbEntity
  8
寸法
 62
     0
 48
50.0
370
    -2
100
AcDbLine
 10
6827.193633210163
 20
8660.999999999997
 30
0.0
 11
6827.193633210163
 21
8599.999999999997
 31
0.0
  0
LINE
  5
25392
330
1D7D0
100
AcDbEntity
  8
寸法
 62
     0
 48
50.0
370
    -2
100
AcDbLine
 10
6827.193633210163
 20
8599.999999999997
 30
0.0
 11
6827.193633210163
 21
8281.023622047241
 31
0.0
  0
INSERT
  5
25393
330
1D7D0
100
AcDbEntity
  8
寸法
 62
     0
 48
50.0
370
    -2
100
AcDbBlockReference
  2
_DOTSMALL
 10
6827.193633210163
 20
8660.999999999997
 30
0.0
 41
125.0
 42
125.0
 43
125.0
 50
90.0
  0
INSERT
  5
25394
330
1D7D0
100
AcDbEntity
  8
寸法
 62
     0
 48
50.0
370
    -2
100
AcDbBlockReference
  2
_DOTSMALL
 10
6827.193633210163
 20
8599.999999999997
 30
0.0
 41
125.0
 42
125.0
 43
125.0
 50
270.0
  0
MTEXT
  5
25395
330
1D7D0
100
AcDbEntity
  8
寸法
 62
     7
 48
50.0
100
AcDbMText
 10
6727.193633210162
 20
8378.01181102362
 30
0.0
 40
150.0
 41
0.0
 71
     5
 72
     1
  1
\A1;61
  7
STYLE1
 11
0.0000000000000001
 21
1.0
 31
0.0
 73
     1
 44
1.0
1001
ACAD
1000
MTEXTBEGIN
1070
    73
1070
     1
1070
    44
1040
1.0
1070
    74
1070
     0
1000
MTEXTEND
  0
POINT
  5
25396
330
1D7D0
100
AcDbEntity
  8
DEFPOINTS
 62
     0
 48
50.0
100
AcDbPoint
 10
7705.5
 20
8599.999999999997
 30
0.0
  0
POINT
  5
25397
330
1D7D0
100
AcDbEntity
  8
DEFPOINTS
 62
     0
 48
50.0
100
AcDbPoint
 10
7644.5
 20
8660.999999999997
 30
0.0
  0
POINT
  5
25398
330
1D7D0
100
AcDbEntity
  8
DEFPOINTS
 62
     0
 48
50.0
100
AcDbPoint
 10
6827.193633210163
 20
8660.999999999997
 30
0.0
  0
ENDBLK
  5
1D7DD
330
1D7D0
100
AcDbEntity
  8
0
 48
50.0
100
AcDbBlockEnd
  0
BLOCK
  5
1D7EA
330
1D7DE
100
AcDbEntity
  8
0
 48
50.0
100
AcDbBlockBegin
  2
*D9
 70
     1
 10
0.0
 20
0.0
 30
0.0
  3
*D9
  1

  0
LINE
  5
2534D
330
1D7DE
100
AcDbEntity
  8
寸法
 62
     0
 48
50.0
370
    -2
100
AcDbLine
 10
7644.5
 20
8635.999999999997
 30
0.0
 11
7644.5
 21
6999.404554952453
 31
0.0
  0
LINE
  5
2534E
330
1D7DE
100
AcDbEntity
  8
寸法
 62
     0
 48
50.0
370
    -2
100
AcDbLine
 10
7705.5
 20
8574.999999999997
 30
0.0
 11
7705.5
 21
6999.404554952453
 31
0.0
  0
LINE
  5
2534F
330
1D7DE
100
AcDbEntity
  8
寸法
 62
     0
 48
50.0
370
    -2
100
AcDbLine
 10
7705.5
 20
7074.404554952453
 30
0.0
 11
7644.5
 21
7074.404554952453
 31
0.0
  0
LINE
  5
25350
330
1D7DE
100
AcDbEntity
  8
寸法
 62
     0
 48
50.0
370
    -2
100
AcDbLine
 10
7644.5
 20
7074.404554952453
 30
0.0
 11
7325.523622047244
 21
7074.404554952453
 31
0.0
  0
INSERT
  5
25351
330
1D7DE
100
AcDbEntity
  8
寸法
 62
     0
 48
50.0
370
    -2
100
AcDbBlockReference
  2
_DOTSMALL
 10
7705.5
 20
7074.404554952453
 30
0.0
 41
125.0
 42
125.0
 43
125.0
  0
INSERT
  5
25352
330
1D7DE
100
AcDbEntity
  8
寸法
 62
     0
 48
50.0
370
    -2
100
AcDbBlockReference
  2
_DOTSMALL
 10
7644.5
 20
7074.404554952453
 30
0.0
 41
125.0
 42
125.0
 43
125.0
 50
180.0
  0
MTEXT
  5
25353
330
1D7DE
100
AcDbEntity
  8
寸法
 62
     7
 48
50.0
100
AcDbMText
 10
7422.511811023622
 20
7174.404554952452
 30
0.0
 40
150.0
 41
0.0
 71
     5
 72
     1
  1
\A1;61
  7
STYLE1
 73
     1
 44
1.0
1001
ACAD
1000
MTEXTBEGIN
1070
    73
1070
     1
1070
    44
1040
1.0
1070
    74
1070
     0
1000
MTEXTEND
  0
POINT
  5
25354
330
1D7DE
100
AcDbEntity
  8
DEFPOINTS
 62
     0
 48
50.0
100
AcDbPoint
 10
7644.5
 20
8660.999999999997
 30
0.0
  0
POINT
  5
25355
330
1D7DE
100
AcDbEntity
  8
DEFPOINTS
 62
     0
 48
50.0
100
AcDbPoint
 10
7705.5
 20
8599.999999999997
 30
0.0
  0
POINT
  5
25356
330
1D7DE
100
AcDbEntity
  8
DEFPOINTS
 62
     0
 48
50.0
100
AcDbPoint
 10
7705.5
 20
7074.404554952453
 30
0.0
  0
ENDBLK
  5
1D7EB
330
1D7DE
100
AcDbEntity
  8
0
 48
50.0
100
AcDbBlockEnd
  0
BLOCK
  5
1D7F8
330
1D7EC
100
AcDbEntity
  8
0
 48
50.0
100
AcDbBlockBegin
  2
*D10
 70
     1
 10
0.0
 20
0.0
 30
0.0
  3
*D10
  1

  0
LINE
  5
253AF
330
1D7EC
100
AcDbEntity
  8
寸法
 62
     0
 48
50.0
370
    -2
100
AcDbLine
 10
7644.500000000191
 20
10349.99999999999
 30
0.0
 11
6752.193633210165
 21
10349.99999999999
 31
0.0
  0
LINE
  5
253B0
330
1D7EC
100
AcDbEntity
  8
寸法
 62
     0
 48
50.0
370
    -2
100
AcDbLine
 10
7619.500000000001
 20
10399.99999999999
 30
0.0
 11
6752.193633210165
 21
10399.99999999999
 31
0.0
  0
LINE
  5
253B1
330
1D7EC
100
AcDbEntity
  8
寸法
 62
     0
 48
50.0
370
    -2
100
AcDbLine
 10
6827.193633210164
 20
10349.99999999999
 30
0.0
 11
6827.193633210164
 21
10399.99999999999
 31
0.0
  0
LINE
  5
253B2
330
1D7EC
100
AcDbEntity
  8
寸法
 62
     0
 48
50.0
370
    -2
100
AcDbLine
 10
6827.193633210164
 20
10399.99999999999
 30
0.0
 11
6827.193633210164
 21
10740.11811023622
 31
0.0
  0
INSERT
  5
253B3
330
1D7EC
100
AcDbEntity
  8
寸法
 62
     0
 48
50.0
370
    -2
100
AcDbBlockReference
  2
_DOTSMALL
 10
6827.193633210164
 20
10349.99999999999
 30
0.0
 41
125.0
 42
125.0
 43
125.0
 50
270.0
  0
INSERT
  5
253B4
330
1D7EC
100
AcDbEntity
  8
寸法
 62
     0
 48
50.0
370
    -2
100
AcDbBlockReference
  2
_DOTSMALL
 10
6827.193633210164
 20
10399.99999999999
 30
0.0
 41
125.0
 42
125.0
 43
125.0
 50
90.0
  0
MTEXT
  5
253B5
330
1D7EC
100
AcDbEntity
  8
寸法
 62
     7
 48
50.0
100
AcDbMText
 10
6727.193633210162
 20
10632.55905511811
 30
0.0
 40
150.0
 41
0.0
 71
     5
 72
     1
  1
\A1;50
  7
STYLE1
 11
0.0000000000000001
 21
1.0
 31
0.0
 73
     1
 44
1.0
1001
ACAD
1000
MTEXTBEGIN
1070
    73
1070
     1
1070
    44
1040
1.0
1070
    74
1070
     0
1000
MTEXTEND
  0
POINT
  5
253B6
330
1D7EC
100
AcDbEntity
  8
DEFPOINTS
 62
     0
 48
50.0
100
AcDbPoint
 10
7669.500000000191
 20
10349.99999999999
 30
0.0
  0
POINT
  5
253B7
330
1D7EC
100
AcDbEntity
  8
DEFPOINTS
 62
     0
 48
50.0
100
AcDbPoint
 10
7644.5
 20
10399.99999999999
 30
0.0
  0
POINT
  5
253B8
330
1D7EC
100
AcDbEntity
  8
DEFPOINTS
 62
     0
 48
50.0
100
AcDbPoint
 10
6827.193633210164
 20
10399.99999999999
 30
0.0
  0
ENDBLK
  5
1D7F9
330
1D7EC
100
AcDbEntity
  8
0
 48
50.0
100
AcDbBlockEnd
  0
BLOCK
  5
1D813
330
1D808
100
AcDbEntity
  8
0
 48
50.0
100
AcDbBlockBegin
  2
*D11
 70
     1
 10
0.0
 20
0.0
 30
0.0
  3
*D11
  1

  0
LINE
  5
25484
330
1D808
100
AcDbEntity
  8
寸法
 62
     0
 48
50.0
370
    -2
100
AcDbLine
 10
12914.5
 20
10424.99999999998
 30
0.0
 11
12914.5
 21
11393.58135479056
 31
0.0
  0
LINE
  5
25485
330
1D808
100
AcDbEntity
  8
寸法
 62
     0
 48
50.0
370
    -2
100
AcDbLine
 10
12839.5
 20
10424.99999999999
 30
0.0
 11
12839.5
 21
11393.58135479056
 31
0.0
  0
LINE
  5
25486
330
1D808
100
AcDbEntity
  8
寸法
 62
     0
 48
50.0
370
    -2
100
AcDbLine
 10
12839.5
 20
11318.58135479056
 30
0.0
 11
12914.5
 21
11318.58135479056
 31
0.0
  0
LINE
  5
25487
330
1D808
100
AcDbEntity
  8
寸法
 62
     0
 48
50.0
370
    -2
100
AcDbLine
 10
12914.5
 20
11318.58135479056
 30
0.0
 11
13265.10660171779
 21
11318.58135479056
 31
0.0
  0
INSERT
  5
25488
330
1D808
100
AcDbEntity
  8
寸法
 62
     0
 48
50.0
370
    -2
100
AcDbBlockReference
  2
_DOTSMALL
 10
12839.5
 20
11318.58135479056
 30
0.0
 41
125.0
 42
125.0
 43
125.0
 50
180.0
  0
INSERT
  5
25489
330
1D808
100
AcDbEntity
  8
寸法
 62
     0
 48
50.0
370
    -2
100
AcDbBlockReference
  2
_DOTSMALL
 10
12914.5
 20
11318.58135479056
 30
0.0
 41
125.0
 42
125.0
 43
125.0
  0
MTEXT
  5
2548A
330
1D808
100
AcDbEntity
  8
寸法
 62
     7
 48
50.0
100
AcDbMText
 10
13154.5
 20
11418.58135479056
 30
0.0
 40
150.0
 41
0.0
 71
     5
 72
     1
  1
\A1;75
  7
STYLE1
 73
     1
 44
1.0
1001
ACAD
1000
MTEXTBEGIN
1070
    73
1070
     1
1070
    44
1040
1.0
1070
    74
1070
     0
1000
MTEXTEND
  0
POINT
  5
2548B
330
1D808
100
AcDbEntity
  8
DEFPOINTS
 62
     0
 48
50.0
100
AcDbPoint
 10
12914.5
 20
10399.99999999998
 30
0.0
  0
POINT
  5
2548C
330
1D808
100
AcDbEntity
  8
DEFPOINTS
 62
     0
 48
50.0
100
AcDbPoint
 10
12839.5
 20
10399.99999999999
 30
0.0
  0
POINT
  5
2548D
330
1D808
100
AcDbEntity
  8
DEFPOINTS
 62
     0
 48
50.0
100
AcDbPoint
 10
12839.5
 20
11318.58135479056
 30
0.0
  0
ENDBLK
  5
1D814
330
1D808
100
AcDbEntity
  8
0
 48
50.0
100
AcDbBlockEnd
  0
BLOCK
  5
1D82C
330
1D821
100
AcDbEntity
  8
0
 48
50.0
100
AcDbBlockBegin
  2
*D12
 70
     1
 10
0.0
 20
0.0
 30
0.0
  3
*D12
  1

  0
LINE
  5
25417
330
1D821
100
AcDbEntity
  8
寸法
 62
     0
 48
50.0
370
    -2
100
AcDbLine
 10
9345.000000000011
 20
10279.99999999998
 30
0.0
 11
9267.664792683952
 21
10279.99999999998
 31
0.0
  0
LINE
  5
25418
330
1D821
100
AcDbEntity
  8
寸法
 62
     0
 48
50.0
370
    -2
100
AcDbLine
 10
9345.000000000011
 20
10399.99999999998
 30
0.0
 11
9267.664792683952
 21
10399.99999999998
 31
0.0
  0
LINE
  5
25419
330
1D821
100
AcDbEntity
  8
寸法
 62
     0
 48
50.0
370
    -2
100
AcDbLine
 10
9342.664792683953
 20
10279.99999999998
 30
0.0
 11
9342.664792683953
 21
10399.99999999998
 31
0.0
  0
LINE
  5
2541A
330
1D821
100
AcDbEntity
  8
寸法
 62
     0
 48
50.0
370
    -2
100
AcDbLine
 10
9342.664792683953
 20
10399.99999999998
 30
0.0
 11
9342.664792683953
 21
10815.11811023622
 31
0.0
  0
INSERT
  5
2541B
330
1D821
100
AcDbEntity
  8
寸法
 62
     0
 48
50.0
370
    -2
100
AcDbBlockReference
  2
_DOTSMALL
 10
9342.664792683953
 20
10279.99999999998
 30
0.0
 41
125.0
 42
125.0
 43
125.0
 50
270.0
  0
INSERT
  5
2541C
330
1D821
100
AcDbEntity
  8
寸法
 62
     0
 48
50.0
370
    -2
100
AcDbBlockReference
  2
_DOTSMALL
 10
9342.664792683953
 20
10399.99999999998
 30
0.0
 41
125.0
 42
125.0
 43
125.0
 50
90.0
  0
MTEXT
  5
2541D
330
1D821
100
AcDbEntity
  8
寸法
 62
     7
 48
50.0
100
AcDbMText
 10
9242.650028904424
 20
10670.05905511811
 30
0.0
 40
150.0
 41
0.0
 71
     5
 72
     1
  1
\A1;120
  7
STYLE1
 11
0.0000000000000001
 21
1.0
 31
0.0
 73
     1
 44
1.0
1001
ACAD
1000
MTEXTBEGIN
1070
    73
1070
     1
1070
    44
1040
1.0
1070
    74
1070
     0
1000
MTEXTEND
  0
POINT
  5
2541E
330
1D821
100
AcDbEntity
  8
DEFPOINTS
 62
     0
 48
50.0
100
AcDbPoint
 10
9370.000000000011
 20
10279.99999999998
 30
0.0
  0
POINT
  5
2541F
330
1D821
100
AcDbEntity
  8
DEFPOINTS
 62
     0
 48
50.0
100
AcDbPoint
 10
9370.000000000011
 20
10399.99999999998
 30
0.0
  0
POINT
  5
25420
330
1D821
100
AcDbEntity
  8
DEFPOINTS
 62
     0
 48
50.0
100
AcDbPoint
 10
9342.664792683953
 20
10399.99999999998
 30
0.0
  0
ENDBLK
  5
1D82D
330
1D821
100
AcDbEntity
  8
0
 48
50.0
100
AcDbBlockEnd
  0
BLOCK
  5
1D85C
330
1D852
100
AcDbEntity
  8
0
 48
50.0
100
AcDbBlockBegin
  2
*D13
 70
     1
 10
0.0
 20
0.0
 30
0.0
  3
*D13
  1

  0
LINE
  5
2540E
330
1D852
100
AcDbEntity
  8
寸法
 62
     0
 48
50.0
370
    -2
100
AcDbLine
 10
10504.5
 20
8369.999999999995
 30
0.0
 11
11111.52505950111
 21
8369.999999999995
 31
0.0
  0
LINE
  5
2540F
330
1D852
100
AcDbEntity
  8
寸法
 62
     0
 48
50.0
370
    -2
100
AcDbLine
 10
10504.5
 20
8769.999999999996
 30
0.0
 11
11111.52505950111
 21
8769.999999999996
 31
0.0
  0
LINE
  5
25410
330
1D852
100
AcDbEntity
  8
寸法
 62
     0
 48
50.0
370
    -2
100
AcDbLine
 10
11036.52505950111
 20
8369.999999999995
 30
0.0
 11
11036.52505950111
 21
8769.999999999996
 31
0.0
  0
INSERT
  5
25411
330
1D852
100
AcDbEntity
  8
寸法
 62
     0
 48
50.0
370
    -2
100
AcDbBlockReference
  2
_DOTSMALL
 10
11036.52505950111
 20
8369.999999999995
 30
0.0
 41
125.0
 42
125.0
 43
125.0
 50
270.0
  0
INSERT
  5
25412
330
1D852
100
AcDbEntity
  8
寸法
 62
     0
 48
50.0
370
    -2
100
AcDbBlockReference
  2
_DOTSMALL
 10
11036.52505950111
 20
8769.999999999996
 30
0.0
 41
125.0
 42
125.0
 43
125.0
 50
90.0
  0
MTEXT
  5
25413
330
1D852
100
AcDbEntity
  8
寸法
 62
     7
 48
50.0
100
AcDbMText
 10
10936.5250595011
 20
8569.999999999998
 30
0.0
 40
150.0
 41
0.0
 71
     5
 72
     1
  1
\A1;400
  7
STYLE1
 11
0.0000000000000001
 21
1.0
 31
0.0
 73
     1
 44
1.0
1001
ACAD
1000
MTEXTBEGIN
1070
    73
1070
     1
1070
    44
1040
1.0
1070
    74
1070
     0
1000
MTEXTEND
  0
POINT
  5
25414
330
1D852
100
AcDbEntity
  8
DEFPOINTS
 62
     0
 48
50.0
100
AcDbPoint
 10
10479.5
 20
8369.999999999995
 30
0.0
  0
POINT
  5
25415
330
1D852
100
AcDbEntity
  8
DEFPOINTS
 62
     0
 48
50.0
100
AcDbPoint
 10
10479.5
 20
8769.999999999996
 30
0.0
  0
POINT
  5
25416
330
1D852
100
AcDbEntity
  8
DEFPOINTS
 62
     0
 48
50.0
100
AcDbPoint
 10
11036.52505950111
 20
8769.999999999996
 30
0.0
  0
ENDBLK
  5
1D85D
330
1D852
100
AcDbEntity
  8
0
 48
50.0
100
AcDbBlockEnd
  0
BLOCK
  5
1D86A
330
1D85E
100
AcDbEntity
  8
0
 48
50.0
100
AcDbBlockBegin
  2
*D14
 70
     1
 10
0.0
 20
0.0
 30
0.0
  3
*D14
  1

  0
LINE
  5
25360
330
1D85E
100
AcDbEntity
  8
寸法
 62
     0
 48
50.0
370
    -2
100
AcDbLine
 10
10384.5
 20
8026.288726084299
 30
0.0
 11
10384.5
 21
6999.404554952453
 31
0.0
  0
LINE
  5
25361
330
1D85E
100
AcDbEntity
  8
寸法
 62
     0
 48
50.0
370
    -2
100
AcDbLine
 10
10174.5
 20
8026.288726084299
 30
0.0
 11
10174.5
 21
6999.404554952453
 31
0.0
  0
LINE
  5
25362
330
1D85E
100
AcDbEntity
  8
寸法
 62
     0
 48
50.0
370
    -2
100
AcDbLine
 10
10384.5
 20
7074.404554952453
 30
0.0
 11
10509.5
 21
7074.404554952453
 31
0.0
  0
LINE
  5
25363
330
1D85E
100
AcDbEntity
  8
寸法
 62
     0
 48
50.0
370
    -2
100
AcDbLine
 10
10174.5
 20
7074.404554952453
 30
0.0
 11
10049.5
 21
7074.404554952453
 31
0.0
  0
LINE
  5
25364
330
1D85E
100
AcDbEntity
  8
寸法
 62
     0
 48
50.0
370
    -2
100
AcDbLine
 10
10384.5
 20
7074.404554952453
 30
0.0
 11
10174.5
 21
7074.404554952453
 31
0.0
  0
INSERT
  5
25365
330
1D85E
100
AcDbEntity
  8
寸法
 62
     0
 48
50.0
370
    -2
100
AcDbBlockReference
  2
_DOTSMALL
 10
10384.5
 20
7074.404554952453
 30
0.0
 41
125.0
 42
125.0
 43
125.0
 50
180.0
  0
INSERT
  5
25366
330
1D85E
100
AcDbEntity
  8
寸法
 62
     0
 48
50.0
370
    -2
100
AcDbBlockReference
  2
_DOTSMALL
 10
10174.5
 20
7074.404554952453
 30
0.0
 41
125.0
 42
125.0
 43
125.0
  0
MTEXT
  5
25367
330
1D85E
100
AcDbEntity
  8
寸法
 62
     7
 48
50.0
100
AcDbMText
 10
10279.5
 20
7174.419318731979
 30
0.0
 40
150.0
 41
0.0
 71
     5
 72
     1
  1
\A1;210
  7
STYLE1
 73
     1
 44
1.0
1001
ACAD
1000
MTEXTBEGIN
1070
    73
1070
     1
1070
    44
1040
1.0
1070
    74
1070
     0
1000
MTEXTEND
  0
POINT
  5
25368
330
1D85E
100
AcDbEntity
  8
DEFPOINTS
 62
     0
 48
50.0
100
AcDbPoint
 10
10384.5
 20
8051.288726084299
 30
0.0
  0
POINT
  5
25369
330
1D85E
100
AcDbEntity
  8
DEFPOINTS
 62
     0
 48
50.0
100
AcDbPoint
 10
10174.5
 20
8051.288726084299
 30
0.0
  0
POINT
  5
2536A
330
1D85E
100
AcDbEntity
  8
DEFPOINTS
 62
     0
 48
50.0
100
AcDbPoint
 10
10174.5
 20
7074.404554952453
 30
0.0
  0
ENDBLK
  5
1D86B
330
1D85E
100
AcDbEntity
  8
0
 48
50.0
100
AcDbBlockEnd
  0
BLOCK
  5
1D876
330
1D86C
100
AcDbEntity
  8
0
 48
50.0
100
AcDbBlockBegin
  2
*D15
 70
     1
 10
0.0
 20
0.0
 30
0.0
  3
*D15
  1

  0
LINE
  5
253F2
330
1D86C
100
AcDbEntity
  8
寸法
 62
     0
 48
50.0
370
    -2
100
AcDbLine
 10
10079.5
 20
8344.999999999997
 30
0.0
 11
10079.5
 21
7976.288726084298
 31
0.0
  0
LINE
  5
253F3
330
1D86C
100
AcDbEntity
  8
寸法
 62
     0
 48
50.0
370
    -2
100
AcDbLine
 10
10479.5
 20
8344.999999999997
 30
0.0
 11
10479.5
 21
7976.288726084298
 31
0.0
  0
LINE
  5
253F4
330
1D86C
100
AcDbEntity
  8
寸法
 62
     0
 48
50.0
370
    -2
100
AcDbLine
 10
10079.5
 20
8051.288726084299
 30
0.0
 11
10479.5
 21
8051.288726084299
 31
0.0
  0
INSERT
  5
253F5
330
1D86C
100
AcDbEntity
  8
寸法
 62
     0
 48
50.0
370
    -2
100
AcDbBlockReference
  2
_DOTSMALL
 10
10079.5
 20
8051.288726084299
 30
0.0
 41
125.0
 42
125.0
 43
125.0
 50
180.0
  0
INSERT
  5
253F6
330
1D86C
100
AcDbEntity
  8
寸法
 62
     0
 48
50.0
370
    -2
100
AcDbBlockReference
  2
_DOTSMALL
 10
10479.5
 20
8051.288726084299
 30
0.0
 41
125.0
 42
125.0
 43
125.0
  0
MTEXT
  5
253F7
330
1D86C
100
AcDbEntity
  8
寸法
 62
     7
 48
50.0
100
AcDbMText
 10
10279.5
 20
8151.288726084299
 30
0.0
 40
150.0
 41
0.0
 71
     5
 72
     1
  1
\A1;400
  7
STYLE1
 73
     1
 44
1.0
1001
ACAD
1000
MTEXTBEGIN
1070
    73
1070
     1
1070
    44
1040
1.0
1070
    74
1070
     0
1000
MTEXTEND
  0
POINT
  5
253F8
330
1D86C
100
AcDbEntity
  8
DEFPOINTS
 62
     0
 48
50.0
100
AcDbPoint
 10
10079.5
 20
8369.999999999995
 30
0.0
  0
POINT
  5
253F9
330
1D86C
100
AcDbEntity
  8
DEFPOINTS
 62
     0
 48
50.0
100
AcDbPoint
 10
10479.5
 20
8369.999999999995
 30
0.0
  0
POINT
  5
253FA
330
1D86C
100
AcDbEntity
  8
DEFPOINTS
 62
     0
 48
50.0
100
AcDbPoint
 10
10479.5
 20
8051.288726084299
 30
0.0
  0
ENDBLK
  5
1D877
330
1D86C
100
AcDbEntity
  8
0
 48
50.0
100
AcDbBlockEnd
  0
BLOCK
  5
1D89B
330
1D890
100
AcDbEntity
  8
0
 48
50.0
100
AcDbBlockBegin
  2
*D16
 70
     1
 10
0.0
 20
0.0
 30
0.0
  3
*D16
  1

  0
LINE
  5
2548E
330
1D890
100
AcDbEntity
  8
寸法
 62
     0
 48
50.0
370
    -2
100
AcDbLine
 10
12794.5
 20
10172.23467012658
 30
0.0
 11
12794.5
 21
9998.943992307454
 31
0.0
  0
LINE
  5
2548F
330
1D890
100
AcDbEntity
  8
寸法
 62
     0
 48
50.0
370
    -2
100
AcDbLine
 10
12914.5
 20
10172.23467012658
 30
0.0
 11
12914.5
 21
9998.943992307454
 31
0.0
  0
LINE
  5
25490
330
1D890
100
AcDbEntity
  8
寸法
 62
     0
 48
50.0
370
    -2
100
AcDbLine
 10
12794.5
 20
10073.94399230745
 30
0.0
 11
12914.5
 21
10073.94399230745
 31
0.0
  0
LINE
  5
25491
330
1D890
100
AcDbEntity
  8
寸法
 62
     0
 48
50.0
370
    -2
100
AcDbLine
 10
12914.5
 20
10073.94399230745
 30
0.0
 11
13329.68192731239
 21
10073.94399230745
 31
0.0
  0
INSERT
  5
25492
330
1D890
100
AcDbEntity
  8
寸法
 62
     0
 48
50.0
370
    -2
100
AcDbBlockReference
  2
_DOTSMALL
 10
12794.5
 20
10073.94399230745
 30
0.0
 41
125.0
 42
125.0
 43
125.0
 50
180.0
  0
INSERT
  5
25493
330
1D890
100
AcDbEntity
  8
寸法
 62
     0
 48
50.0
370
    -2
100
AcDbBlockReference
  2
_DOTSMALL
 10
12914.5
 20
10073.94399230745
 30
0.0
 41
125.0
 42
125.0
 43
125.0
  0
MTEXT
  5
25494
330
1D890
100
AcDbEntity
  8
寸法
 62
     7
 48
50.0
100
AcDbMText
 10
13184.62287219428
 20
10173.95875608698
 30
0.0
 40
150.0
 41
0.0
 71
     5
 72
     1
  1
\A1;120
  7
STYLE1
 73
     1
 44
1.0
1001
ACAD
1000
MTEXTBEGIN
1070
    73
1070
     1
1070
    44
1040
1.0
1070
    74
1070
     0
1000
MTEXTEND
  0
POINT
  5
25495
330
1D890
100
AcDbEntity
  8
DEFPOINTS
 62
     0
 48
50.0
100
AcDbPoint
 10
12794.5
 20
10197.23467012658
 30
0.0
  0
POINT
  5
25496
330
1D890
100
AcDbEntity
  8
DEFPOINTS
 62
     0
 48
50.0
100
AcDbPoint
 10
12914.5
 20
10197.23467012658
 30
0.0
  0
POINT
  5
25497
330
1D890
100
AcDbEntity
  8
DEFPOINTS
 62
     0
 48
50.0
100
AcDbPoint
 10
12914.5
 20
10073.94399230745
 30
0.0
  0
ENDBLK
  5
1D89C
330
1D890
100
AcDbEntity
  8
0
 48
50.0
100
AcDbBlockEnd
  0
BLOCK
  5
1D8A7
330
1D89D
100
AcDbEntity
  8
0
 48
50.0
100
AcDbBlockBegin
  2
*D17
 70
     1
 10
0.0
 20
0.0
 30
0.0
  3
*D17
  1

  0
LINE
  5
25434
330
1D89D
100
AcDbEntity
  8
寸法
 62
     0
 48
50.0
370
    -2
100
AcDbLine
 10
12939.5
 20
8660.999999999997
 30
0.0
 11
14440.92407367218
 21
8660.999999999997
 31
0.0
  0
LINE
  5
25435
330
1D89D
100
AcDbEntity
  8
寸法
 62
     0
 48
50.0
370
    -2
100
AcDbLine
 10
12914.5
 20
10349.99999999999
 30
0.0
 11
14440.92407367218
 21
10349.99999999999
 31
0.0
  0
LINE
  5
25436
330
1D89D
100
AcDbEntity
  8
寸法
 62
     0
 48
50.0
370
    -2
100
AcDbLine
 10
14365.92407367218
 20
8660.999999999997
 30
0.0
 11
14365.92407367218
 21
10349.99999999999
 31
0.0
  0
INSERT
  5
25437
330
1D89D
100
AcDbEntity
  8
寸法
 62
     0
 48
50.0
370
    -2
100
AcDbBlockReference
  2
_DOTSMALL
 10
14365.92407367218
 20
8660.999999999997
 30
0.0
 41
125.0
 42
125.0
 43
125.0
 50
270.0
  0
INSERT
  5
25438
330
1D89D
100
AcDbEntity
  8
寸法
 62
     0
 48
50.0
370
    -2
100
AcDbBlockReference
  2
_DOTSMALL
 10
14365.92407367218
 20
10349.99999999999
 30
0.0
 41
125.0
 42
125.0
 43
125.0
 50
90.0
  0
MTEXT
  5
25439
330
1D89D
100
AcDbEntity
  8
寸法
 62
     7
 48
50.0
100
AcDbMText
 10
14265.92407367218
 20
9505.500000000001
 30
0.0
 40
150.0
 41
0.0
 71
     5
 72
     1
  1
\A1;1689
  7
STYLE1
 11
0.0000000000000001
 21
1.0
 31
0.0
 73
     1
 44
1.0
1001
ACAD
1000
MTEXTBEGIN
1070
    73
1070
     1
1070
    44
1040
1.0
1070
    74
1070
     0
1000
MTEXTEND
  0
POINT
  5
2543A
330
1D89D
100
AcDbEntity
  8
DEFPOINTS
 62
     0
 48
50.0
100
AcDbPoint
 10
12914.5
 20
8660.999999999997
 30
0.0
  0
POINT
  5
2543B
330
1D89D
100
AcDbEntity
  8
DEFPOINTS
 62
     0
 48
50.0
100
AcDbPoint
 10
12889.5
 20
10349.99999999999
 30
0.0
  0
POINT
  5
2543C
330
1D89D
100
AcDbEntity
  8
DEFPOINTS
 62
     0
 48
50.0
100
AcDbPoint
 10
14365.92407367218
 20
10349.99999999999
 30
0.0
  0
ENDBLK
  5
1D8A8
330
1D89D
100
AcDbEntity
  8
0
 48
50.0
100
AcDbBlockEnd
  0
BLOCK
  5
1D8B5
330
1D8A9
100
AcDbEntity
  8
0
 48
50.0
100
AcDbBlockBegin
  2
*D18
 70
     1
 10
0.0
 20
0.0
 30
0.0
  3
*D18
  1

  0
LINE
  5
25451
330
1D8A9
100
AcDbEntity
  8
寸法
 62
     0
 48
50.0
370
    -2
100
AcDbLine
 10
12939.5
 20
8660.999999999997
 30
0.0
 11
14440.92407367217
 21
8660.999999999997
 31
0.0
  0
LINE
  5
25452
330
1D8A9
100
AcDbEntity
  8
寸法
 62
     0
 48
50.0
370
    -2
100
AcDbLine
 10
13085.49851475226
 20
8632.999999999997
 30
0.0
 11
14440.92407367217
 21
8632.999999999997
 31
0.0
  0
LINE
  5
25453
330
1D8A9
100
AcDbEntity
  8
寸法
 62
     0
 48
50.0
370
    -2
100
AcDbLine
 10
14365.92407367218
 20
8660.999999999997
 30
0.0
 11
14365.92407367218
 21
8785.999999999997
 31
0.0
  0
LINE
  5
25454
330
1D8A9
100
AcDbEntity
  8
寸法
 62
     0
 48
50.0
370
    -2
100
AcDbLine
 10
14365.92407367218
 20
8632.999999999997
 30
0.0
 11
14365.92407367218
 21
7779.130489074862
 31
0.0
  0
LINE
  5
25455
330
1D8A9
100
AcDbEntity
  8
寸法
 62
     0
 48
50.0
370
    -2
100
AcDbLine
 10
14365.92407367218
 20
8660.999999999997
 30
0.0
 11
14365.92407367218
 21
8632.999999999997
 31
0.0
  0
INSERT
  5
25456
330
1D8A9
100
AcDbEntity
  8
寸法
 62
     0
 48
50.0
370
    -2
100
AcDbBlockReference
  2
_DOTSMALL
 10
14365.92407367218
 20
8660.999999999997
 30
0.0
 41
125.0
 42
125.0
 43
125.0
 50
270.0
  0
INSERT
  5
25457
330
1D8A9
100
AcDbEntity
  8
寸法
 62
     0
 48
50.0
370
    -2
100
AcDbBlockReference
  2
_DOTSMALL
 10
14365.92407367218
 20
8632.999999999997
 30
0.0
 41
125.0
 42
125.0
 43
125.0
 50
90.0
  0
MTEXT
  5
25458
330
1D8A9
100
AcDbEntity
  8
寸法
 62
     7
 48
50.0
100
AcDbMText
 10
14265.90930989265
 20
8077.880489074866
 30
0.0
 40
150.0
 41
0.0
 71
     5
 72
     1
  1
\A1;柱芯28
  7
STYLE1
 11
0.0000000000000001
 21
1.0
 31
0.0
 73
     1
 44
1.0
1001
ACAD
1000
MTEXTBEGIN
1070
    73
1070
     1
1070
    44
1040
1.0
1070
    74
1070
     0
1000
MTEXTEND
  0
POINT
  5
25459
330
1D8A9
100
AcDbEntity
  8
DEFPOINTS
 62
     0
 48
50.0
100
AcDbPoint
 10
12914.5
 20
8660.999999999997
 30
0.0
  0
POINT
  5
2545A
330
1D8A9
100
AcDbEntity
  8
DEFPOINTS
 62
     0
 48
50.0
100
AcDbPoint
 10
13060.49851475226
 20
8632.999999999997
 30
0.0
  0
POINT
  5
2545B
330
1D8A9
100
AcDbEntity
  8
DEFPOINTS
 62
     0
 48
50.0
100
AcDbPoint
 10
14365.92407367218
 20
8632.999999999997
 30
0.0
  0
ENDBLK
  5
1D8B6
330
1D8A9
100
AcDbEntity
  8
0
 48
50.0
100
AcDbBlockEnd
  0
BLOCK
  5
1D8C3
330
1D8B7
100
AcDbEntity
  8
0
 48
50.0
100
AcDbBlockBegin
  2
*D19
 70
     1
 10
0.0
 20
0.0
 30
0.0
  3
*D19
  1

  0
LINE
  5
25421
330
1D8B7
100
AcDbEntity
  8
寸法
 62
     0
 48
50.0
370
    -2
100
AcDbLine
 10
12914.5
 20
8106.4504228966
 30
0.0
 11
12914.5
 21
6999.404554952453
 31
0.0
  0
LINE
  5
25422
330
1D8B7
100
AcDbEntity
  8
寸法
 62
     0
 48
50.0
370
    -2
100
AcDbLine
 10
12853.5
 20
8106.4504228966
 30
0.0
 11
12853.5
 21
6999.404554952453
 31
0.0
  0
LINE
  5
25423
330
1D8B7
100
AcDbEntity
  8
寸法
 62
     0
 48
50.0
370
    -2
100
AcDbLine
 10
12853.5
 20
7074.404554952453
 30
0.0
 11
12914.5
 21
7074.404554952453
 31
0.0
  0
LINE
  5
25424
330
1D8B7
100
AcDbEntity
  8
寸法
 62
     0
 48
50.0
370
    -2
100
AcDbLine
 10
12914.5
 20
7074.404554952453
 30
0.0
 11
13233.47637795275
 21
7074.404554952453
 31
0.0
  0
INSERT
  5
25425
330
1D8B7
100
AcDbEntity
  8
寸法
 62
     0
 48
50.0
370
    -2
100
AcDbBlockReference
  2
_DOTSMALL
 10
12853.5
 20
7074.404554952453
 30
0.0
 41
125.0
 42
125.0
 43
125.0
 50
180.0
  0
INSERT
  5
25426
330
1D8B7
100
AcDbEntity
  8
寸法
 62
     0
 48
50.0
370
    -2
100
AcDbBlockReference
  2
_DOTSMALL
 10
12914.5
 20
7074.404554952453
 30
0.0
 41
125.0
 42
125.0
 43
125.0
  0
MTEXT
  5
25427
330
1D8B7
100
AcDbEntity
  8
寸法
 62
     7
 48
50.0
100
AcDbMText
 10
13136.48818897637
 20
7174.404554952452
 30
0.0
 40
150.0
 41
0.0
 71
     5
 72
     1
  1
\A1;61
  7
STYLE1
 73
     1
 44
1.0
1001
ACAD
1000
MTEXTBEGIN
1070
    73
1070
     1
1070
    44
1040
1.0
1070
    74
1070
     0
1000
MTEXTEND
  0
POINT
  5
25428
330
1D8B7
100
AcDbEntity
  8
DEFPOINTS
 62
     0
 48
50.0
100
AcDbPoint
 10
12914.5
 20
8131.4504228966
 30
0.0
  0
POINT
  5
25429
330
1D8B7
100
AcDbEntity
  8
DEFPOINTS
 62
     0
 48
50.0
100
AcDbPoint
 10
12853.5
 20
8131.4504228966
 30
0.0
  0
POINT
  5
2542A
330
1D8B7
100
AcDbEntity
  8
DEFPOINTS
 62
     0
 48
50.0
100
AcDbPoint
 10
12853.5
 20
7074.404554952453
 30
0.0
  0
ENDBLK
  5
1D8C4
330
1D8B7
100
AcDbEntity
  8
0
 48
50.0
100
AcDbBlockEnd
  0
BLOCK
  5
1D8CF
330
1D8C5
100
AcDbEntity
  8
0
 48
50.0
100
AcDbBlockBegin
  2
*D20
 70
     1
 10
0.0
 20
0.0
 30
0.0
  3
*D20
  1

  0
LINE
  5
25466
330
1D8C5
100
AcDbEntity
  8
寸法
 62
     0
 48
50.0
370
    -2
100
AcDbLine
 10
12744.5
 20
8395.000000000008
 30
0.0
 11
12744.5
 21
8056.450422896601
 31
0.0
  0
LINE
  5
25467
330
1D8C5
100
AcDbEntity
  8
寸法
 62
     0
 48
50.0
370
    -2
100
AcDbLine
 10
13094.50000000001
 20
8394.999999999996
 30
0.0
 11
13094.50000000001
 21
8056.450422896601
 31
0.0
  0
LINE
  5
25468
330
1D8C5
100
AcDbEntity
  8
寸法
 62
     0
 48
50.0
370
    -2
100
AcDbLine
 10
12744.5
 20
8131.4504228966
 30
0.0
 11
13094.50000000001
 21
8131.4504228966
 31
0.0
  0
INSERT
  5
25469
330
1D8C5
100
AcDbEntity
  8
寸法
 62
     0
 48
50.0
370
    -2
100
AcDbBlockReference
  2
_DOTSMALL
 10
12744.5
 20
8131.4504228966
 30
0.0
 41
125.0
 42
125.0
 43
125.0
 50
180.0
  0
INSERT
  5
2546A
330
1D8C5
100
AcDbEntity
  8
寸法
 62
     0
 48
50.0
370
    -2
100
AcDbBlockReference
  2
_DOTSMALL
 10
13094.50000000001
 20
8131.4504228966
 30
0.0
 41
125.0
 42
125.0
 43
125.0
  0
MTEXT
  5
2546B
330
1D8C5
100
AcDbEntity
  8
寸法
 62
     7
 48
50.0
100
AcDbMText
 10
12919.50000000001
 20
8231.4504228966
 30
0.0
 40
150.0
 41
0.0
 71
     5
 72
     1
  1
\A1;350
  7
STYLE1
 73
     1
 44
1.0
1001
ACAD
1000
MTEXTBEGIN
1070
    73
1070
     1
1070
    44
1040
1.0
1070
    74
1070
     0
1000
MTEXTEND
  0
POINT
  5
2546C
330
1D8C5
100
AcDbEntity
  8
DEFPOINTS
 62
     0
 48
50.0
100
AcDbPoint
 10
12744.5
 20
8420.000000000007
 30
0.0
  0
POINT
  5
2546D
330
1D8C5
100
AcDbEntity
  8
DEFPOINTS
 62
     0
 48
50.0
100
AcDbPoint
 10
13094.50000000001
 20
8419.999999999996
 30
0.0
  0
POINT
  5
2546E
330
1D8C5
100
AcDbEntity
  8
DEFPOINTS
 62
     0
 48
50.0
100
AcDbPoint
 10
13094.50000000001
 20
8131.4504228966
 30
0.0
  0
ENDBLK
  5
1D8D0
330
1D8C5
100
AcDbEntity
  8
0
 48
50.0
100
AcDbBlockEnd
  0
BLOCK
  5
1D8DC
330
1D8D1
100
AcDbEntity
  8
0
 48
50.0
100
AcDbBlockBegin
  2
*D21
 70
     1
 10
0.0
 20
0.0
 30
0.0
  3
*D21
  1

  0
LINE
  5
25447
330
1D8D1
100
AcDbEntity
  8
寸法
 62
     0
 48
50.0
370
    -2
100
AcDbLine
 10
13119.5
 20
8420.000000000007
 30
0.0
 11
13522.09093176127
 21
8420.000000000007
 31
0.0
  0
LINE
  5
25448
330
1D8D1
100
AcDbEntity
  8
寸法
 62
     0
 48
50.0
370
    -2
100
AcDbLine
 10
13119.5
 20
8770.000000000008
 30
0.0
 11
13522.09093176127
 21
8770.000000000008
 31
0.0
  0
LINE
  5
25449
330
1D8D1
100
AcDbEntity
  8
寸法
 62
     0
 48
50.0
370
    -2
100
AcDbLine
 10
13447.09093176127
 20
8770.000000000008
 30
0.0
 11
13447.09093176127
 21
8420.000000000007
 31
0.0
  0
LINE
  5
2544A
330
1D8D1
100
AcDbEntity
  8
寸法
 62
     0
 48
50.0
370
    -2
100
AcDbLine
 10
13447.09093176127
 20
8420.000000000007
 30
0.0
 11
13447.09093176127
 21
7974.881889763786
 31
0.0
  0
INSERT
  5
2544B
330
1D8D1
100
AcDbEntity
  8
寸法
 62
     0
 48
50.0
370
    -2
100
AcDbBlockReference
  2
_DOTSMALL
 10
13447.09093176127
 20
8770.000000000008
 30
0.0
 41
125.0
 42
125.0
 43
125.0
 50
90.0
  0
INSERT
  5
2544C
330
1D8D1
100
AcDbEntity
  8
寸法
 62
     0
 48
50.0
370
    -2
100
AcDbBlockReference
  2
_DOTSMALL
 10
13447.09093176127
 20
8420.000000000007
 30
0.0
 41
125.0
 42
125.0
 43
125.0
 50
270.0
  0
MTEXT
  5
2544D
330
1D8D1
100
AcDbEntity
  8
寸法
 62
     7
 48
50.0
100
AcDbMText
 10
13347.09093176127
 20
8134.940944881897
 30
0.0
 40
150.0
 41
0.0
 71
     5
 72
     1
  1
\A1;350
  7
STYLE1
 11
0.0000000000000001
 21
1.0
 31
0.0
 73
     1
 44
1.0
1001
ACAD
1000
MTEXTBEGIN
1070
    73
1070
     1
1070
    44
1040
1.0
1070
    74
1070
     0
1000
MTEXTEND
  0
POINT
  5
2544E
330
1D8D1
100
AcDbEntity
  8
DEFPOINTS
 62
     0
 48
50.0
100
AcDbPoint
 10
13094.5
 20
8420.000000000007
 30
0.0
  0
POINT
  5
2544F
330
1D8D1
100
AcDbEntity
  8
DEFPOINTS
 62
     0
 48
50.0
100
AcDbPoint
 10
13094.5
 20
8770.000000000008
 30
0.0
  0
POINT
  5
25450
330
1D8D1
100
AcDbEntity
  8
DEFPOINTS
 62
     0
 48
50.0
100
AcDbPoint
 10
13447.09093176127
 20
8770.000000000008
 30
0.0
  0
ENDBLK
  5
1D8DD
330
1D8D1
100
AcDbEntity
  8
0
 48
50.0
100
AcDbBlockEnd
  0
BLOCK
  5
1D8E9
330
1D8DE
100
AcDbEntity
  8
0
 48
50.0
100
AcDbBlockBegin
  2
*D22
 70
     1
 10
0.0
 20
0.0
 30
0.0
  3
*D22
  1

  0
LINE
  5
2546F
330
1D8DE
100
AcDbEntity
  8
寸法
 62
     0
 48
50.0
370
    -2
100
AcDbLine
 10
12939.5
 20
10399.99999999999
 30
0.0
 11
14440.92407367217
 21
10399.99999999999
 31
0.0
  0
LINE
  5
25470
330
1D8DE
100
AcDbEntity
  8
寸法
 62
     0
 48
50.0
370
    -2
100
AcDbLine
 10
12914.5
 20
10349.99999999999
 30
0.0
 11
14440.92407367217
 21
10349.99999999999
 31
0.0
  0
LINE
  5
25471
330
1D8DE
100
AcDbEntity
  8
寸法
 62
     0
 48
50.0
370
    -2
100
AcDbLine
 10
14365.92407367218
 20
10349.99999999999
 30
0.0
 11
14365.92407367218
 21
10399.99999999999
 31
0.0
  0
LINE
  5
25472
330
1D8DE
100
AcDbEntity
  8
寸法
 62
     0
 48
50.0
370
    -2
100
AcDbLine
 10
14365.92407367218
 20
10399.99999999999
 30
0.0
 11
14365.92407367218
 21
10877.92856604323
 31
0.0
  0
INSERT
  5
25473
330
1D8DE
100
AcDbEntity
  8
寸法
 62
     0
 48
50.0
370
    -2
100
AcDbBlockReference
  2
_DOTSMALL
 10
14365.92407367218
 20
10349.99999999999
 30
0.0
 41
125.0
 42
125.0
 43
125.0
 50
270.0
  0
INSERT
  5
25474
330
1D8DE
100
AcDbEntity
  8
寸法
 62
     0
 48
50.0
370
    -2
100
AcDbBlockReference
  2
_DOTSMALL
 10
14365.92407367218
 20
10399.99999999999
 30
0.0
 41
125.0
 42
125.0
 43
125.0
 50
90.0
  0
MTEXT
  5
25475
330
1D8DE
100
AcDbEntity
  8
寸法
 62
     7
 48
50.0
100
AcDbMText
 10
14265.92407367217
 20
10770.36951092513
 30
0.0
 40
150.0
 41
0.0
 71
     5
 72
     1
  1
\A1;50
  7
STYLE1
 11
0.0000000000000001
 21
1.0
 31
0.0
 73
     1
 44
1.0
1001
ACAD
1000
MTEXTBEGIN
1070
    73
1070
     1
1070
    44
1040
1.0
1070
    74
1070
     0
1000
MTEXTEND
  0
POINT
  5
25476
330
1D8DE
100
AcDbEntity
  8
DEFPOINTS
 62
     0
 48
50.0
100
AcDbPoint
 10
12914.5
 20
10399.99999999999
 30
0.0
  0
POINT
  5
25477
330
1D8DE
100
AcDbEntity
  8
DEFPOINTS
 62
     0
 48
50.0
100
AcDbPoint
 10
12889.5
 20
10349.99999999999
 30
0.0
  0
POINT
  5
25478
330
1D8DE
100
AcDbEntity
  8
DEFPOINTS
 62
     0
 48
50.0
100
AcDbPoint
 10
14365.92407367218
 20
10349.99999999999
 30
0.0
  0
ENDBLK
  5
1D8EA
330
1D8DE
100
AcDbEntity
  8
0
 48
50.0
100
AcDbBlockEnd
  0
BLOCK
  5
1E150
330
1E144
100
AcDbEntity
  8
0
 48
50.0
100
AcDbBlockBegin
  2
*D23
 70
     1
 10
0.0
 20
0.0
 30
0.0
  3
*D23
  1

  0
LINE
  5
253FB
330
1E144
100
AcDbEntity
  8
寸法
 62
     0
 48
50.0
370
    -2
100
AcDbLine
 10
9646.154171508044
 20
8769.999999999996
 30
0.0
 11
9774.253106997171
 21
8769.999999999996
 31
0.0
  0
LINE
  5
253FC
330
1E144
100
AcDbEntity
  8
寸法
 62
     0
 48
50.0
370
    -2
100
AcDbLine
 10
9646.154171508044
 20
8599.999999999997
 30
0.0
 11
9774.253106997171
 21
8599.999999999997
 31
0.0
  0
LINE
  5
253FD
330
1E144
100
AcDbEntity
  8
寸法
 62
     0
 48
50.0
370
    -2
100
AcDbLine
 10
9699.25310699717
 20
8769.999999999996
 30
0.0
 11
9699.25310699717
 21
8599.999999999997
 31
0.0
  0
LINE
  5
253FE
330
1E144
100
AcDbEntity
  8
寸法
 62
     0
 48
50.0
370
    -2
100
AcDbLine
 10
9699.25310699717
 20
8599.999999999997
 30
0.0
 11
9699.25310699717
 21
8184.881889763776
 31
0.0
  0
INSERT
  5
253FF
330
1E144
100
AcDbEntity
  8
寸法
 62
     0
 48
50.0
370
    -2
100
AcDbBlockReference
  2
_DOTSMALL
 10
9699.25310699717
 20
8769.999999999996
 30
0.0
 41
125.0
 42
125.0
 43
125.0
 50
90.0
  0
INSERT
  5
25400
330
1E144
100
AcDbEntity
  8
寸法
 62
     0
 48
50.0
370
    -2
100
AcDbBlockReference
  2
_DOTSMALL
 10
9699.25310699717
 20
8599.999999999997
 30
0.0
 41
125.0
 42
125.0
 43
125.0
 50
270.0
  0
MTEXT
  5
25401
330
1E144
100
AcDbEntity
  8
寸法
 62
     7
 48
50.0
100
AcDbMText
 10
9599.253106997169
 20
8329.940944881888
 30
0.0
 40
150.0
 41
0.0
 71
     5
 72
     1
  1
\A1;170
  7
STYLE1
 11
0.0000000000000001
 21
1.0
 31
0.0
 73
     1
 44
1.0
1001
ACAD
1000
MTEXTBEGIN
1070
    73
1070
     1
1070
    44
1040
1.0
1070
    74
1070
     0
1000
MTEXTEND
  0
POINT
  5
25402
330
1E144
100
AcDbEntity
  8
DEFPOINTS
 62
     0
 48
50.0
100
AcDbPoint
 10
9621.154171508045
 20
8769.999999999996
 30
0.0
  0
POINT
  5
25403
330
1E144
100
AcDbEntity
  8
DEFPOINTS
 62
     0
 48
50.0
100
AcDbPoint
 10
9621.154171508045
 20
8599.999999999997
 30
0.0
  0
POINT
  5
25404
330
1E144
100
AcDbEntity
  8
DEFPOINTS
 62
     0
 48
50.0
100
AcDbPoint
 10
9699.25310699717
 20
8599.999999999997
 30
0.0
  0
ENDBLK
  5
1E151
330
1E144
100
AcDbEntity
  8
0
 48
50.0
100
AcDbBlockEnd
  0
BLOCK
  5
1EE72
330
1EE69
100
AcDbEntity
  8
0
 48
50.0
100
AcDbBlockBegin
  2
*D24
 70
     1
 10
0.0
 20
0.0
 30
0.0
  3
*D24
  1

  0
LINE
  5
2536B
330
1EE69
100
AcDbEntity
  8
寸法
 62
     0
 48
50.0
370
    -2
100
AcDbLine
 10
8549.500000000369
 20
9725.000000000001
 30
0.0
 11
8549.500000000369
 21
9863.206426863662
 31
0.0
  0
LINE
  5
2536C
330
1EE69
100
AcDbEntity
  8
寸法
 62
     0
 48
50.0
370
    -2
100
AcDbLine
 10
7644.5
 20
9646.073587573162
 30
0.0
 11
7644.5
 21
9863.206426863662
 31
0.0
  0
LINE
  5
2536D
330
1EE69
100
AcDbEntity
  8
寸法
 62
     0
 48
50.0
370
    -2
100
AcDbLine
 10
8549.500000000369
 20
9788.206426863661
 30
0.0
 11
7644.5
 21
9788.206426863661
 31
0.0
  0
INSERT
  5
2536E
330
1EE69
100
AcDbEntity
  8
寸法
 62
     0
 48
50.0
370
    -2
100
AcDbBlockReference
  2
_DOTSMALL
 10
8549.500000000369
 20
9788.206426863661
 30
0.0
 41
125.0
 42
125.0
 43
125.0
  0
INSERT
  5
2536F
330
1EE69
100
AcDbEntity
  8
寸法
 62
     0
 48
50.0
370
    -2
100
AcDbBlockReference
  2
_DOTSMALL
 10
7644.5
 20
9788.206426863661
 30
0.0
 41
125.0
 42
125.0
 43
125.0
 50
180.0
  0
MTEXT
  5
25370
330
1EE69
100
AcDbEntity
  8
寸法
 62
     7
 48
50.0
100
AcDbMText
 10
8097.000000000184
 20
9888.206426863661
 30
0.0
 40
150.0
 41
0.0
 71
     5
 72
     1
  1
\A1;905
  7
STYLE1
 73
     1
 44
1.0
1001
ACAD
1000
MTEXTBEGIN
1070
    73
1070
     1
1070
    44
1040
1.0
1070
    74
1070
     0
1000
MTEXTEND
  0
POINT
  5
25371
330
1EE69
100
AcDbEntity
  8
DEFPOINTS
 62
     0
 48
50.0
100
AcDbPoint
 10
8549.500000000369
 20
9700.000000000002
 30
0.0
  0
POINT
  5
25372
330
1EE69
100
AcDbEntity
  8
DEFPOINTS
 62
     0
 48
50.0
100
AcDbPoint
 10
7644.5
 20
9621.073587573164
 30
0.0
  0
POINT
  5
25373
330
1EE69
100
AcDbEntity
  8
DEFPOINTS
 62
     0
 48
50.0
100
AcDbPoint
 10
7644.5
 20
9788.206426863661
 30
0.0
  0
ENDBLK
  5
1EE73
330
1EE69
100
AcDbEntity
  8
0
 48
50.0
100
AcDbBlockEnd
  0
BLOCK
  5
1EE88
330
1EE7F
100
AcDbEntity
  8
0
 48
50.0
100
AcDbBlockBegin
  2
*D25
 70
     1
 10
0.0
 20
0.0
 30
0.0
  3
*D25
  1

  0
LINE
  5
253E9
330
1EE7F
100
AcDbEntity
  8
寸法
 62
     0
 48
50.0
370
    -2
100
AcDbLine
 10
9379.500000000005
 20
9725.000000000001
 30
0.0
 11
9379.500000000005
 21
9863.206426863662
 31
0.0
  0
LINE
  5
253EA
330
1EE7F
100
AcDbEntity
  8
寸法
 62
     0
 48
50.0
370
    -2
100
AcDbLine
 10
8549.500000000369
 20
9725.000000000001
 30
0.0
 11
8549.500000000369
 21
9863.206426863662
 31
0.0
  0
LINE
  5
253EB
330
1EE7F
100
AcDbEntity
  8
寸法
 62
     0
 48
50.0
370
    -2
100
AcDbLine
 10
9379.500000000005
 20
9788.206426863661
 30
0.0
 11
8549.500000000369
 21
9788.206426863661
 31
0.0
  0
INSERT
  5
253EC
330
1EE7F
100
AcDbEntity
  8
寸法
 62
     0
 48
50.0
370
    -2
100
AcDbBlockReference
  2
_DOTSMALL
 10
9379.500000000005
 20
9788.206426863661
 30
0.0
 41
125.0
 42
125.0
 43
125.0
  0
INSERT
  5
253ED
330
1EE7F
100
AcDbEntity
  8
寸法
 62
     0
 48
50.0
370
    -2
100
AcDbBlockReference
  2
_DOTSMALL
 10
8549.500000000369
 20
9788.206426863661
 30
0.0
 41
125.0
 42
125.0
 43
125.0
 50
180.0
  0
MTEXT
  5
253EE
330
1EE7F
100
AcDbEntity
  8
寸法
 62
     7
 48
50.0
100
AcDbMText
 10
8964.500000000185
 20
9888.206426863661
 30
0.0
 40
150.0
 41
0.0
 71
     5
 72
     1
  1
\A1;830
  7
STYLE1
 73
     1
 44
1.0
1001
ACAD
1000
MTEXTBEGIN
1070
    73
1070
     1
1070
    44
1040
1.0
1070
    74
1070
     0
1000
MTEXTEND
  0
POINT
  5
253EF
330
1EE7F
100
AcDbEntity
  8
DEFPOINTS
 62
     0
 48
50.0
100
AcDbPoint
 10
9379.500000000005
 20
9700.000000000002
 30
0.0
  0
POINT
  5
253F0
330
1EE7F
100
AcDbEntity
  8
DEFPOINTS
 62
     0
 48
50.0
100
AcDbPoint
 10
8549.500000000369
 20
9700.000000000002
 30
0.0
  0
POINT
  5
253F1
330
1EE7F
100
AcDbEntity
  8
DEFPOINTS
 62
     0
 48
50.0
100
AcDbPoint
 10
8549.500000000369
 20
9788.206426863661
 30
0.0
  0
ENDBLK
  5
1EE89
330
1EE7F
100
AcDbEntity
  8
0
 48
50.0
100
AcDbBlockEnd
  0
BLOCK
  5
1EE93
330
1EE8A
100
AcDbEntity
  8
0
 48
50.0
100
AcDbBlockBegin
  2
*D26
 70
     1
 10
0.0
 20
0.0
 30
0.0
  3
*D26
  1

  0
LINE
  5
253E0
330
1EE8A
100
AcDbEntity
  8
寸法
 62
     0
 48
50.0
370
    -2
100
AcDbLine
 10
10279.49999999999
 20
9725.000000000001
 30
0.0
 11
10279.49999999999
 21
9863.206426863662
 31
0.0
  0
LINE
  5
253E1
330
1EE8A
100
AcDbEntity
  8
寸法
 62
     0
 48
50.0
370
    -2
100
AcDbLine
 10
9379.500000000367
 20
9725.000000000001
 30
0.0
 11
9379.500000000367
 21
9863.206426863662
 31
0.0
  0
LINE
  5
253E2
330
1EE8A
100
AcDbEntity
  8
寸法
 62
     0
 48
50.0
370
    -2
100
AcDbLine
 10
10279.49999999999
 20
9788.206426863661
 30
0.0
 11
9379.500000000367
 21
9788.206426863661
 31
0.0
  0
INSERT
  5
253E3
330
1EE8A
100
AcDbEntity
  8
寸法
 62
     0
 48
50.0
370
    -2
100
AcDbBlockReference
  2
_DOTSMALL
 10
10279.49999999999
 20
9788.206426863661
 30
0.0
 41
125.0
 42
125.0
 43
125.0
  0
INSERT
  5
253E4
330
1EE8A
100
AcDbEntity
  8
寸法
 62
     0
 48
50.0
370
    -2
100
AcDbBlockReference
  2
_DOTSMALL
 10
9379.500000000367
 20
9788.206426863661
 30
0.0
 41
125.0
 42
125.0
 43
125.0
 50
180.0
  0
MTEXT
  5
253E5
330
1EE8A
100
AcDbEntity
  8
寸法
 62
     7
 48
50.0
100
AcDbMText
 10
9829.500000000182
 20
9888.206426863661
 30
0.0
 40
150.0
 41
0.0
 71
     5
 72
     1
  1
\A1;900
  7
STYLE1
 73
     1
 44
1.0
1001
ACAD
1000
MTEXTBEGIN
1070
    73
1070
     1
1070
    44
1040
1.0
1070
    74
1070
     0
1000
MTEXTEND
  0
POINT
  5
253E6
330
1EE8A
100
AcDbEntity
  8
DEFPOINTS
 62
     0
 48
50.0
100
AcDbPoint
 10
10279.49999999999
 20
9700.000000000002
 30
0.0
  0
POINT
  5
253E7
330
1EE8A
100
AcDbEntity
  8
DEFPOINTS
 62
     0
 48
50.0
100
AcDbPoint
 10
9379.500000000367
 20
9700.000000000002
 30
0.0
  0
POINT
  5
253E8
330
1EE8A
100
AcDbEntity
  8
DEFPOINTS
 62
     0
 48
50.0
100
AcDbPoint
 10
9379.500000000367
 20
9788.206426863661
 30
0.0
  0
ENDBLK
  5
1EE94
330
1EE8A
100
AcDbEntity
  8
0
 48
50.0
100
AcDbBlockEnd
  0
BLOCK
  5
21766
330
2175C
100
AcDbEntity
  8
0
 48
50.0
100
AcDbBlockBegin
  2
*D27
 70
     1
 10
0.0
 20
0.0
 30
0.0
  3
*D27
  1

  0
LINE
  5
23506
330
2175C
100
AcDbEntity
  8
寸法
 62
     0
 48
50.0
370
    -2
100
AcDbLine
 10
14753.54968699119
 20
3522.839090797055
 30
0.0
 11
14753.54968699119
 21
3194.614202761368
 31
0.0
  0
LINE
  5
23507
330
2175C
100
AcDbEntity
  8
寸法
 62
     0
 48
50.0
370
    -2
100
AcDbLine
 10
13753.54968699118
 20
3522.839090797051
 30
0.0
 11
13753.54968699118
 21
3194.614202761368
 31
0.0
  0
LINE
  5
23508
330
2175C
100
AcDbEntity
  8
寸法
 62
     0
 48
50.0
370
    -2
100
AcDbLine
 10
14753.54968699119
 20
3229.614202761368
 30
0.0
 11
13753.54968699118
 21
3229.614202761368
 31
0.0
  0
INSERT
  5
23509
330
2175C
100
AcDbEntity
  8
寸法
 62
     0
 48
50.0
370
    -2
100
AcDbBlockReference
  2
_DOTSMALL
 10
14753.54968699119
 20
3229.614202761368
 30
0.0
 41
125.0
 42
125.0
 43
125.0
  0
INSERT
  5
2350A
330
2175C
100
AcDbEntity
  8
寸法
 62
     0
 48
50.0
370
    -2
100
AcDbBlockReference
  2
_DOTSMALL
 10
13753.54968699118
 20
3229.614202761368
 30
0.0
 41
125.0
 42
125.0
 43
125.0
 50
180.0
  0
MTEXT
  5
2350B
330
2175C
100
AcDbEntity
  8
寸法
 62
     7
 48
50.0
100
AcDbMText
 10
14253.54968699118
 20
3329.614202761368
 30
0.0
 40
150.0
 41
0.0
 71
     5
 72
     1
  1
\A1;400
  7
STYLE1
 73
     1
 44
1.0
1001
ACAD
1000
MTEXTBEGIN
1070
    73
1070
     1
1070
    44
1040
1.0
1070
    74
1070
     0
1000
MTEXTEND
  0
POINT
  5
2350C
330
2175C
100
AcDbEntity
  8
DEFPOINTS
 62
     0
 48
50.0
100
AcDbPoint
 10
14753.54968699119
 20
3547.839090797055
 30
0.0
  0
POINT
  5
2350D
330
2175C
100
AcDbEntity
  8
DEFPOINTS
 62
     0
 48
50.0
100
AcDbPoint
 10
13753.54968699118
 20
3547.839090797051
 30
0.0
  0
POINT
  5
2350E
330
2175C
100
AcDbEntity
  8
DEFPOINTS
 62
     0
 48
50.0
100
AcDbPoint
 10
13753.54968699118
 20
3229.614202761368
 30
0.0
  0
ENDBLK
  5
21767
330
2175C
100
AcDbEntity
  8
0
 48
50.0
100
AcDbBlockEnd
  0
BLOCK
  5
2178D
330
21783
100
AcDbEntity
  8
0
 48
50.0
100
AcDbBlockBegin
  2
*D28
 70
     1
 10
0.0
 20
0.0
 30
0.0
  3
*D28
  1

  0
LINE
  5
233C8
330
21783
100
AcDbEntity
  8
寸法
 62
     0
 48
50.0
370
    -2
100
AcDbLine
 10
9564.890140993766
 20
1464.226218645135
 30
0.0
 11
8970.682731468274
 21
1464.226218645135
 31
0.0
  0
LINE
  5
233C9
330
21783
100
AcDbEntity
  8
寸法
 62
     0
 48
50.0
370
    -2
100
AcDbLine
 10
9563.207011870238
 20
1326.726218645135
 30
0.0
 11
8970.682731468274
 21
1326.726218645135
 31
0.0
  0
LINE
  5
233CA
330
21783
100
AcDbEntity
  8
寸法
 62
     0
 48
50.0
370
    -2
100
AcDbLine
 10
9005.682731468274
 20
1464.226218645135
 30
0.0
 11
9005.682731468274
 21
1326.726218645135
 31
0.0
  0
MTEXT
  5
233CB
330
21783
100
AcDbEntity
  8
寸法
 62
     7
 48
50.0
100
AcDbMText
 10
8869.660831618602
 20
1402.430870114986
 30
0.0
 40
150.0
 41
0.0
 71
     5
 72
     1
  1
\A1;55
  7
STYLE1
 11
0.0000000000000001
 21
1.0
 31
0.0
 73
     1
 44
1.0
1001
ACAD
1000
MTEXTBEGIN
1070
    73
1070
     1
1070
    44
1040
1.0
1070
    74
1070
     0
1000
MTEXTEND
  0
INSERT
  5
233CC
330
21783
100
AcDbEntity
  8
寸法
 62
     0
 48
50.0
370
    -2
100
AcDbBlockReference
  2
_DOTSMALL
 10
9005.682731468274
 20
1464.226218645135
 30
0.0
 41
125.0
 42
125.0
 43
125.0
 50
90.0
  0
INSERT
  5
233CD
330
21783
100
AcDbEntity
  8
寸法
 62
     0
 48
50.0
370
    -2
100
AcDbBlockReference
  2
_DOTSMALL
 10
9005.682731468274
 20
1326.726218645135
 30
0.0
 41
125.0
 42
125.0
 43
125.0
 50
270.0
  0
POINT
  5
233CE
330
21783
100
AcDbEntity
  8
DEFPOINTS
 62
     0
 48
50.0
100
AcDbPoint
 10
9589.890140993766
 20
1464.226218645135
 30
0.0
  0
POINT
  5
233CF
330
21783
100
AcDbEntity
  8
DEFPOINTS
 62
     0
 48
50.0
100
AcDbPoint
 10
9588.207011870236
 20
1326.726218645135
 30
0.0
  0
POINT
  5
233D0
330
21783
100
AcDbEntity
  8
DEFPOINTS
 62
     0
 48
50.0
100
AcDbPoint
 10
9005.682731468274
 20
1326.726218645135
 30
0.0
  0
ENDBLK
  5
2178E
330
21783
100
AcDbEntity
  8
0
 48
50.0
100
AcDbBlockEnd
  0
BLOCK
  5
217B4
330
217AA
100
AcDbEntity
  8
0
 48
50.0
100
AcDbBlockBegin
  2
*D29
 70
     1
 10
0.0
 20
0.0
 30
0.0
  3
*D29
  1

  0
LINE
  5
22D03
330
217AA
100
AcDbEntity
  8
寸法
 62
     0
 48
50.0
370
    -2
100
AcDbLine
 10
10466.17745836271
 20
4872.839090797057
 30
0.0
 11
11141.56112043082
 21
4872.839090797057
 31
0.0
  0
LINE
  5
22D04
330
217AA
100
AcDbEntity
  8
寸法
 62
     0
 48
50.0
370
    -2
100
AcDbLine
 10
9744.457011870238
 20
3997.839090797058
 30
0.0
 11
11141.56112043082
 21
3997.839090797058
 31
0.0
  0
LINE
  5
22D05
330
217AA
100
AcDbEntity
  8
寸法
 62
     0
 48
50.0
370
    -2
100
AcDbLine
 10
11106.56112043082
 20
4872.839090797057
 30
0.0
 11
11106.56112043082
 21
3997.839090797058
 31
0.0
  0
MTEXT
  5
22D06
330
217AA
100
AcDbEntity
  8
寸法
 62
     7
 48
50.0
100
AcDbMText
 10
10867.06268643508
 20
4467.244393864806
 30
0.0
 40
150.0
 41
0.0
 71
     5
 72
     1
  1
\A1;基礎天ヨリ\P350
  7
STYLE1
 11
0.0000000000000001
 21
1.0
 31
0.0
 73
     1
 44
1.0
1001
ACAD
1000
MTEXTBEGIN
1070
    73
1070
     1
1070
    44
1040
1.0
1070
    74
1070
     0
1000
MTEXTEND
  0
INSERT
  5
22D07
330
217AA
100
AcDbEntity
  8
寸法
 62
     0
 48
50.0
370
    -2
100
AcDbBlockReference
  2
_DOTSMALL
 10
11106.56112043082
 20
4872.839090797057
 30
0.0
 41
125.0
 42
125.0
 43
125.0
 50
90.0
  0
INSERT
  5
22D08
330
217AA
100
AcDbEntity
  8
寸法
 62
     0
 48
50.0
370
    -2
100
AcDbBlockReference
  2
_DOTSMALL
 10
11106.56112043082
 20
3997.839090797058
 30
0.0
 41
125.0
 42
125.0
 43
125.0
 50
270.0
  0
POINT
  5
22D09
330
217AA
100
AcDbEntity
  8
DEFPOINTS
 62
     0
 48
50.0
100
AcDbPoint
 10
10441.17745836272
 20
4872.839090797057
 30
0.0
  0
POINT
  5
22D0A
330
217AA
100
AcDbEntity
  8
DEFPOINTS
 62
     0
 48
50.0
100
AcDbPoint
 10
9719.457011870238
 20
3997.839090797058
 30
0.0
  0
POINT
  5
22D0B
330
217AA
100
AcDbEntity
  8
DEFPOINTS
 62
     0
 48
50.0
100
AcDbPoint
 10
11106.56112043082
 20
3997.839090797058
 30
0.0
  0
ENDBLK
  5
217B5
330
217AA
100
AcDbEntity
  8
0
 48
50.0
100
AcDbBlockEnd
  0
BLOCK
  5
217C0
330
217B6
100
AcDbEntity
  8
0
 48
50.0
100
AcDbBlockBegin
  2
*D30
 70
     1
 10
0.0
 20
0.0
 30
0.0
  3
*D30
  1

  0
LINE
  5
22CB8
330
217B6
100
AcDbEntity
  8
寸法
 62
     0
 48
50.0
370
    -2
100
AcDbLine
 10
9119.457011870236
 20
3522.839090797056
 30
0.0
 11
9119.457011870236
 21
3136.535829983347
 31
0.0
  0
LINE
  5
22CB9
330
217B6
100
AcDbEntity
  8
寸法
 62
     0
 48
50.0
370
    -2
100
AcDbLine
 10
9994.457011870224
 20
3522.839090797059
 30
0.0
 11
9994.457011870224
 21
3136.535829983347
 31
0.0
  0
LINE
  5
22CBA
330
217B6
100
AcDbEntity
  8
寸法
 62
     0
 48
50.0
370
    -2
100
AcDbLine
 10
9119.457011870236
 20
3171.535829983347
 30
0.0
 11
9994.457011870224
 21
3171.535829983347
 31
0.0
  0
INSERT
  5
22CBB
330
217B6
100
AcDbEntity
  8
寸法
 62
     0
 48
50.0
370
    -2
100
AcDbBlockReference
  2
_DOTSMALL
 10
9119.457011870236
 20
3171.535829983347
 30
0.0
 41
125.0
 42
125.0
 43
125.0
 50
180.0
  0
INSERT
  5
22CBC
330
217B6
100
AcDbEntity
  8
寸法
 62
     0
 48
50.0
370
    -2
100
AcDbBlockReference
  2
_DOTSMALL
 10
9994.457011870224
 20
3171.535829983347
 30
0.0
 41
125.0
 42
125.0
 43
125.0
  0
MTEXT
  5
22CBD
330
217B6
100
AcDbEntity
  8
寸法
 62
     7
 48
50.0
100
AcDbMText
 10
9556.957011870229
 20
3271.535829983347
 30
0.0
 40
150.0
 41
0.0
 71
     5
 72
     1
  1
\A1;\U+25A1350
  7
STYLE1
 73
     1
 44
1.0
1001
ACAD
1000
MTEXTBEGIN
1070
    73
1070
     1
1070
    44
1040
1.0
1070
    74
1070
     0
1000
MTEXTEND
  0
POINT
  5
22CBE
330
217B6
100
AcDbEntity
  8
DEFPOINTS
 62
     0
 48
50.0
100
AcDbPoint
 10
9119.457011870236
 20
3547.839090797057
 30
0.0
  0
POINT
  5
22CBF
330
217B6
100
AcDbEntity
  8
DEFPOINTS
 62
     0
 48
50.0
100
AcDbPoint
 10
9994.457011870224
 20
3547.839090797059
 30
0.0
  0
POINT
  5
22CC0
330
217B6
100
AcDbEntity
  8
DEFPOINTS
 62
     0
 48
50.0
100
AcDbPoint
 10
9994.457011870224
 20
3171.535829983347
 30
0.0
  0
ENDBLK
  5
217C1
330
217B6
100
AcDbEntity
  8
0
 48
50.0
100
AcDbBlockEnd
  0
BLOCK
  5
217DA
330
217D0
100
AcDbEntity
  8
0
 48
50.0
100
AcDbBlockBegin
  2
*D31
 70
     1
 10
0.0
 20
0.0
 30
0.0
  3
*D31
  1

  0
LINE
  5
2339F
330
217D0
100
AcDbEntity
  8
寸法
 62
     0
 48
50.0
370
    -2
100
AcDbLine
 10
9094.457011870241
 20
864.2262186451354
 30
0.0
 11
8582.647383049886
 21
864.2262186451356
 31
0.0
  0
LINE
  5
233A0
330
217D0
100
AcDbEntity
  8
寸法
 62
     0
 48
50.0
370
    -2
100
AcDbLine
 10
8740.827105956764
 20
1739.226218645135
 30
0.0
 11
8582.647383049886
 21
1739.226218645135
 31
0.0
  0
LINE
  5
233A1
330
217D0
100
AcDbEntity
  8
寸法
 62
     0
 48
50.0
370
    -2
100
AcDbLine
 10
8617.647383049888
 20
864.2262186451356
 30
0.0
 11
8617.647383049888
 21
1739.226218645135
 31
0.0
  0
INSERT
  5
233A2
330
217D0
100
AcDbEntity
  8
寸法
 62
     0
 48
50.0
370
    -2
100
AcDbBlockReference
  2
_DOTSMALL
 10
8617.647383049888
 20
864.2262186451356
 30
0.0
 41
125.0
 42
125.0
 43
125.0
 50
270.0
  0
INSERT
  5
233A3
330
217D0
100
AcDbEntity
  8
寸法
 62
     0
 48
50.0
370
    -2
100
AcDbBlockReference
  2
_DOTSMALL
 10
8617.647383049888
 20
1739.226218645135
 30
0.0
 41
125.0
 42
125.0
 43
125.0
 50
90.0
  0
MTEXT
  5
233A4
330
217D0
100
AcDbEntity
  8
寸法
 62
     7
 48
50.0
100
AcDbMText
 10
8517.647383049888
 20
1301.726218645137
 30
0.0
 40
150.0
 41
0.0
 71
     5
 72
     1
  1
\A1;\U+25A1350穴
  7
STYLE1
 11
0.0000000000000001
 21
1.0
 31
0.0
 73
     1
 44
1.0
1001
ACAD
1000
MTEXTBEGIN
1070
    73
1070
     1
1070
    44
1040
1.0
1070
    74
1070
     0
1000
MTEXTEND
  0
POINT
  5
233A5
330
217D0
100
AcDbEntity
  8
DEFPOINTS
 62
     0
 48
50.0
100
AcDbPoint
 10
9119.457011870242
 20
864.2262186451354
 30
0.0
  0
POINT
  5
233A6
330
217D0
100
AcDbEntity
  8
DEFPOINTS
 62
     0
 48
50.0
100
AcDbPoint
 10
8765.827105956764
 20
1739.226218645135
 30
0.0
  0
POINT
  5
233A7
330
217D0
100
AcDbEntity
  8
DEFPOINTS
 62
     0
 48
50.0
100
AcDbPoint
 10
8617.647383049888
 20
1739.226218645135
 30
0.0
  0
ENDBLK
  5
217DB
330
217D0
100
AcDbEntity
  8
0
 48
50.0
100
AcDbBlockEnd
  0
BLOCK
  5
217E6
330
217DC
100
AcDbEntity
  8
0
 48
50.0
100
AcDbBlockBegin
  2
*D32
 70
     1
 10
0.0
 20
0.0
 30
0.0
  3
*D32
  1

  0
LINE
  5
22C6E
330
217DC
100
AcDbEntity
  8
寸法
 62
     0
 48
50.0
370
    -2
100
AcDbLine
 10
4277.294157204975
 20
4897.839090797059
 30
0.0
 11
4277.294157204975
 21
5307.65982963964
 31
0.0
  0
LINE
  5
22C6F
330
217DC
100
AcDbEntity
  8
寸法
 62
     0
 48
50.0
370
    -2
100
AcDbLine
 10
3977.294157204975
 20
4897.839090797059
 30
0.0
 11
3977.294157204975
 21
5307.65982963964
 31
0.0
  0
LINE
  5
22C70
330
217DC
100
AcDbEntity
  8
寸法
 62
     0
 48
50.0
370
    -2
100
AcDbLine
 10
4277.294157204975
 20
5272.65982963964
 30
0.0
 11
3977.294157204975
 21
5272.65982963964
 31
0.0
  0
INSERT
  5
22C71
330
217DC
100
AcDbEntity
  8
寸法
 62
     0
 48
50.0
370
    -2
100
AcDbBlockReference
  2
_DOTSMALL
 10
4277.294157204975
 20
5272.65982963964
 30
0.0
 41
125.0
 42
125.0
 43
125.0
  0
INSERT
  5
22C72
330
217DC
100
AcDbEntity
  8
寸法
 62
     0
 48
50.0
370
    -2
100
AcDbBlockReference
  2
_DOTSMALL
 10
3977.294157204975
 20
5272.65982963964
 30
0.0
 41
125.0
 42
125.0
 43
125.0
 50
180.0
  0
MTEXT
  5
22C73
330
217DC
100
AcDbEntity
  8
寸法
 62
     7
 48
50.0
100
AcDbMText
 10
4127.294157204975
 20
5497.674593419167
 30
0.0
 40
150.0
 41
0.0
 71
     5
 72
     1
  1
\A1;120\P170
  7
STYLE1
 73
     1
 44
1.0
1001
ACAD
1000
MTEXTBEGIN
1070
    73
1070
     1
1070
    44
1040
1.0
1070
    74
1070
     0
1000
MTEXTEND
  0
POINT
  5
22C74
330
217DC
100
AcDbEntity
  8
DEFPOINTS
 62
     0
 48
50.0
100
AcDbPoint
 10
4277.294157204975
 20
4872.839090797059
 30
0.0
  0
POINT
  5
22C75
330
217DC
100
AcDbEntity
  8
DEFPOINTS
 62
     0
 48
50.0
100
AcDbPoint
 10
3977.294157204975
 20
4872.839090797059
 30
0.0
  0
POINT
  5
22C76
330
217DC
100
AcDbEntity
  8
DEFPOINTS
 62
     0
 48
50.0
100
AcDbPoint
 10
3977.294157204975
 20
5272.65982963964
 30
0.0
  0
ENDBLK
  5
217E7
330
217DC
100
AcDbEntity
  8
0
 48
50.0
100
AcDbBlockEnd
  0
BLOCK
  5
217FF
330
217F5
100
AcDbEntity
  8
0
 48
50.0
100
AcDbBlockBegin
  2
*D33
 70
     1
 10
0.0
 20
0.0
 30
0.0
  3
*D33
  1

  0
LINE
  5
21BBC
330
217F5
100
AcDbEntity
  8
寸法
 62
     0
 48
50.0
370
    -2
100
AcDbLine
 10
3952.294157204975
 20
4872.839090797059
 30
0.0
 11
2708.8003303585
 21
4872.839090797059
 31
0.0
  0
LINE
  5
21BBD
330
217F5
100
AcDbEntity
  8
寸法
 62
     0
 48
50.0
370
    -2
100
AcDbLine
 10
3602.294157204975
 20
3522.839090797059
 30
0.0
 11
2708.8003303585
 21
3522.839090797059
 31
0.0
  0
LINE
  5
21BBE
330
217F5
100
AcDbEntity
  8
寸法
 62
     0
 48
50.0
370
    -2
100
AcDbLine
 10
2743.8003303585
 20
4872.839090797059
 30
0.0
 11
2743.8003303585
 21
3522.839090797059
 31
0.0
  0
INSERT
  5
21BBF
330
217F5
100
AcDbEntity
  8
寸法
 62
     0
 48
50.0
370
    -2
100
AcDbBlockReference
  2
_DOTSMALL
 10
2743.8003303585
 20
4872.839090797059
 30
0.0
 41
125.0
 42
125.0
 43
125.0
 50
90.0
  0
INSERT
  5
21BC0
330
217F5
100
AcDbEntity
  8
寸法
 62
     0
 48
50.0
370
    -2
100
AcDbBlockReference
  2
_DOTSMALL
 10
2743.8003303585
 20
3522.839090797059
 30
0.0
 41
125.0
 42
125.0
 43
125.0
 50
270.0
  0
MTEXT
  5
21BC1
330
217F5
100
AcDbEntity
  8
寸法
 62
     7
 48
50.0
100
AcDbMText
 10
2643.8003303585
 20
4197.839090797059
 30
0.0
 40
150.0
 41
0.0
 71
     5
 72
     1
  1
\A1;540
  7
STYLE1
 11
0.0000000000000001
 21
1.0
 31
0.0
 73
     1
 44
1.0
1001
ACAD
1000
MTEXTBEGIN
1070
    73
1070
     1
1070
    44
1040
1.0
1070
    74
1070
     0
1000
MTEXTEND
  0
POINT
  5
21BC2
330
217F5
100
AcDbEntity
  8
DEFPOINTS
 62
     0
 48
50.0
100
AcDbPoint
 10
3977.294157204975
 20
4872.839090797059
 30
0.0
  0
POINT
  5
21BC3
330
217F5
100
AcDbEntity
  8
DEFPOINTS
 62
     0
 48
50.0
100
AcDbPoint
 10
3627.294157204975
 20
3522.839090797059
 30
0.0
  0
POINT
  5
21BC4
330
217F5
100
AcDbEntity
  8
DEFPOINTS
 62
     0
 48
50.0
100
AcDbPoint
 10
2743.8003303585
 20
3522.839090797059
 30
0.0
  0
ENDBLK
  5
21800
330
217F5
100
AcDbEntity
  8
0
 48
50.0
100
AcDbBlockEnd
  0
BLOCK
  5
2180B
330
21801
100
AcDbEntity
  8
0
 48
50.0
100
AcDbBlockBegin
  2
*D34
 70
     1
 10
0.0
 20
0.0
 30
0.0
  3
*D34
  1

  0
LINE
  5
21BD0
330
21801
100
AcDbEntity
  8
寸法
 62
     0
 48
50.0
370
    -2
100
AcDbLine
 10
4652.294157204975
 20
3522.839090797059
 30
0.0
 11
5126.032200302114
 21
3522.839090797059
 31
0.0
  0
LINE
  5
21BD1
330
21801
100
AcDbEntity
  8
寸法
 62
     0
 48
50.0
370
    -2
100
AcDbLine
 10
4527.294157204975
 20
3897.839090797059
 30
0.0
 11
5126.032200302114
 21
3897.839090797059
 31
0.0
  0
LINE
  5
21BD2
330
21801
100
AcDbEntity
  8
寸法
 62
     0
 48
50.0
370
    -2
100
AcDbLine
 10
5091.032200302115
 20
3522.839090797059
 30
0.0
 11
5091.032200302115
 21
3897.839090797059
 31
0.0
  0
INSERT
  5
21BD3
330
21801
100
AcDbEntity
  8
寸法
 62
     0
 48
50.0
370
    -2
100
AcDbBlockReference
  2
_DOTSMALL
 10
5091.032200302115
 20
3522.839090797059
 30
0.0
 41
125.0
 42
125.0
 43
125.0
 50
270.0
  0
INSERT
  5
21BD4
330
21801
100
AcDbEntity
  8
寸法
 62
     0
 48
50.0
370
    -2
100
AcDbBlockReference
  2
_DOTSMALL
 10
5091.032200302115
 20
3897.839090797059
 30
0.0
 41
125.0
 42
125.0
 43
125.0
 50
90.0
  0
MTEXT
  5
21BD5
330
21801
100
AcDbEntity
  8
寸法
 62
     7
 48
50.0
100
AcDbMText
 10
4991.032200302114
 20
3710.339090797059
 30
0.0
 40
150.0
 41
0.0
 71
     5
 72
     1
  1
\A1;150
  7
STYLE1
 11
0.0000000000000001
 21
1.0
 31
0.0
 73
     1
 44
1.0
1001
ACAD
1000
MTEXTBEGIN
1070
    73
1070
     1
1070
    44
1040
1.0
1070
    74
1070
     0
1000
MTEXTEND
  0
POINT
  5
21BD6
330
21801
100
AcDbEntity
  8
DEFPOINTS
 62
     0
 48
50.0
100
AcDbPoint
 10
4627.294157204975
 20
3522.839090797059
 30
0.0
  0
POINT
  5
21BD7
330
21801
100
AcDbEntity
  8
DEFPOINTS
 62
     0
 48
50.0
100
AcDbPoint
 10
4502.294157204975
 20
3897.839090797059
 30
0.0
  0
POINT
  5
21BD8
330
21801
100
AcDbEntity
  8
DEFPOINTS
 62
     0
 48
50.0
100
AcDbPoint
 10
5091.032200302115
 20
3897.839090797059
 30
0.0
  0
ENDBLK
  5
2180C
330
21801
100
AcDbEntity
  8
0
 48
50.0
100
AcDbBlockEnd
  0
BLOCK
  5
21817
330
2180D
100
AcDbEntity
  8
0
 48
50.0
100
AcDbBlockBegin
  2
*D35
 70
     1
 10
0.0
 20
0.0
 30
0.0
  3
*D35
  1

  0
LINE
  5
21BB3
330
2180D
100
AcDbEntity
  8
寸法
 62
     0
 48
50.0
370
    -2
100
AcDbLine
 10
3752.294157204975
 20
3297.839090797057
 30
0.0
 11
3752.294157204975
 21
3013.215541294103
 31
0.0
  0
LINE
  5
21BB4
330
2180D
100
AcDbEntity
  8
寸法
 62
     0
 48
50.0
370
    -2
100
AcDbLine
 10
4502.294157204975
 20
3297.839090797058
 30
0.0
 11
4502.294157204975
 21
3013.215541294103
 31
0.0
  0
LINE
  5
21BB5
330
2180D
100
AcDbEntity
  8
寸法
 62
     0
 48
50.0
370
    -2
100
AcDbLine
 10
3752.294157204975
 20
3048.215541294103
 30
0.0
 11
4502.294157204975
 21
3048.215541294103
 31
0.0
  0
INSERT
  5
21BB6
330
2180D
100
AcDbEntity
  8
寸法
 62
     0
 48
50.0
370
    -2
100
AcDbBlockReference
  2
_DOTSMALL
 10
3752.294157204975
 20
3048.215541294103
 30
0.0
 41
125.0
 42
125.0
 43
125.0
 50
180.0
  0
INSERT
  5
21BB7
330
2180D
100
AcDbEntity
  8
寸法
 62
     0
 48
50.0
370
    -2
100
AcDbBlockReference
  2
_DOTSMALL
 10
4502.294157204975
 20
3048.215541294103
 30
0.0
 41
125.0
 42
125.0
 43
125.0
  0
MTEXT
  5
21BB8
330
2180D
100
AcDbEntity
  8
寸法
 62
     7
 48
50.0
100
AcDbMText
 10
4127.294157204975
 20
3148.215541294103
 30
0.0
 40
150.0
 41
0.0
 71
     5
 72
     1
  1
\A1;300
  7
STYLE1
 73
     1
 44
1.0
1001
ACAD
1000
MTEXTBEGIN
1070
    73
1070
     1
1070
    44
1040
1.0
1070
    74
1070
     0
1000
MTEXTEND
  0
POINT
  5
21BB9
330
2180D
100
AcDbEntity
  8
DEFPOINTS
 62
     0
 48
50.0
100
AcDbPoint
 10
3752.294157204975
 20
3322.839090797057
 30
0.0
  0
POINT
  5
21BBA
330
2180D
100
AcDbEntity
  8
DEFPOINTS
 62
     0
 48
50.0
100
AcDbPoint
 10
4502.294157204975
 20
3322.839090797058
 30
0.0
  0
POINT
  5
21BBB
330
2180D
100
AcDbEntity
  8
DEFPOINTS
 62
     0
 48
50.0
100
AcDbPoint
 10
4502.294157204975
 20
3048.215541294103
 30
0.0
  0
ENDBLK
  5
21818
330
2180D
100
AcDbEntity
  8
0
 48
50.0
100
AcDbBlockEnd
  0
BLOCK
  5
21823
330
21819
100
AcDbEntity
  8
0
 48
50.0
100
AcDbBlockBegin
  2
*D36
 70
     1
 10
0.0
 20
0.0
 30
0.0
  3
*D36
  1

  0
LINE
  5
21C44
330
21819
100
AcDbEntity
  8
寸法
 62
     0
 48
50.0
370
    -2
100
AcDbLine
 10
7287.941409670153
 20
4948.223706181672
 30
0.0
 11
8014.086926109769
 21
4948.223706181672
 31
0.0
  0
LINE
  5
21C45
330
21819
100
AcDbEntity
  8
寸法
 62
     0
 48
50.0
370
    -2
100
AcDbLine
 10
7371.745877891541
 20
4872.839090797057
 30
0.0
 11
8014.086926109769
 21
4872.839090797057
 31
0.0
  0
LINE
  5
21C46
330
21819
100
AcDbEntity
  8
寸法
 62
     0
 48
50.0
370
    -2
100
AcDbLine
 10
7979.086926109768
 20
4948.223706181672
 30
0.0
 11
7979.086926109768
 21
4872.839090797057
 31
0.0
  0
MTEXT
  5
21C47
330
21819
100
AcDbEntity
  8
寸法
 62
     7
 48
50.0
100
AcDbMText
 10
7879.072162330242
 20
5398.758063945813
 30
0.0
 40
150.0
 41
0.0
 71
     5
 72
     1
  1
\A1;出20～25
  7
STYLE1
 11
0.0000000000000001
 21
1.0
 31
0.0
 73
     1
 44
1.0
1001
ACAD
1000
MTEXTBEGIN
1070
    73
1070
     1
1070
    44
1040
1.0
1070
    74
1070
     0
1000
MTEXTEND
  0
INSERT
  5
21C48
330
21819
100
AcDbEntity
  8
寸法
 62
     0
 48
50.0
370
    -2
100
AcDbBlockReference
  2
_DOTSMALL
 10
7979.086926109768
 20
4948.223706181672
 30
0.0
 41
125.0
 42
125.0
 43
125.0
 50
90.0
  0
INSERT
  5
21C49
330
21819
100
AcDbEntity
  8
寸法
 62
     0
 48
50.0
370
    -2
100
AcDbBlockReference
  2
_DOTSMALL
 10
7979.086926109768
 20
4872.839090797057
 30
0.0
 41
125.0
 42
125.0
 43
125.0
 50
270.0
  0
POINT
  5
21C4A
330
21819
100
AcDbEntity
  8
DEFPOINTS
 62
     0
 48
50.0
100
AcDbPoint
 10
7262.941409670154
 20
4948.223706181672
 30
0.0
  0
POINT
  5
21C4B
330
21819
100
AcDbEntity
  8
DEFPOINTS
 62
     0
 48
50.0
100
AcDbPoint
 10
7346.745877891541
 20
4872.839090797057
 30
0.0
  0
POINT
  5
21C4C
330
21819
100
AcDbEntity
  8
DEFPOINTS
 62
     0
 48
50.0
100
AcDbPoint
 10
7979.086926109768
 20
4872.839090797057
 30
0.0
  0
ENDBLK
  5
21824
330
21819
100
AcDbEntity
  8
0
 48
50.0
100
AcDbBlockEnd
  0
BLOCK
  5
21830
330
21825
100
AcDbEntity
  8
0
 48
50.0
100
AcDbBlockBegin
  2
*D37
 70
     1
 10
0.0
 20
0.0
 30
0.0
  3
*D37
  1

  0
LINE
  5
21C4D
330
21825
100
AcDbEntity
  8
寸法
 62
     0
 48
50.0
370
    -2
100
AcDbLine
 10
7346.745877891542
 20
4897.839090797058
 30
0.0
 11
7346.745877891542
 21
5182.936038945103
 31
0.0
  0
LINE
  5
21C4E
330
21825
100
AcDbEntity
  8
寸法
 62
     0
 48
50.0
370
    -2
100
AcDbLine
 10
7246.066409670153
 20
4973.223706181673
 30
0.0
 11
7246.066409670153
 21
5182.936038945103
 31
0.0
  0
LINE
  5
21C4F
330
21825
100
AcDbEntity
  8
寸法
 62
     0
 48
50.0
370
    -2
100
AcDbLine
 10
7246.066409670153
 20
5147.936038945103
 30
0.0
 11
7346.745877891542
 21
5147.936038945103
 31
0.0
  0
LINE
  5
21C50
330
21825
100
AcDbEntity
  8
寸法
 62
     0
 48
50.0
370
    -2
100
AcDbLine
 10
7346.745877891542
 20
5147.936038945103
 30
0.0
 11
7686.863988127763
 21
5147.936038945103
 31
0.0
  0
INSERT
  5
21C51
330
21825
100
AcDbEntity
  8
寸法
 62
     0
 48
50.0
370
    -2
100
AcDbBlockReference
  2
_DOTSMALL
 10
7246.066409670153
 20
5147.936038945103
 30
0.0
 41
125.0
 42
125.0
 43
125.0
 50
180.0
  0
INSERT
  5
21C52
330
21825
100
AcDbEntity
  8
寸法
 62
     0
 48
50.0
370
    -2
100
AcDbBlockReference
  2
_DOTSMALL
 10
7346.745877891542
 20
5147.936038945103
 30
0.0
 41
125.0
 42
125.0
 43
125.0
  0
MTEXT
  5
21C53
330
21825
100
AcDbEntity
  8
寸法
 62
     7
 48
50.0
100
AcDbMText
 10
7579.304933009654
 20
5247.936038945103
 30
0.0
 40
150.0
 41
0.0
 71
     5
 72
     1
  1
\A1;50
  7
STYLE1
 73
     1
 44
1.0
1001
ACAD
1000
MTEXTBEGIN
1070
    73
1070
     1
1070
    44
1040
1.0
1070
    74
1070
     0
1000
MTEXTEND
  0
POINT
  5
21C54
330
21825
100
AcDbEntity
  8
DEFPOINTS
 62
     0
 48
50.0
100
AcDbPoint
 10
7346.745877891542
 20
4872.839090797057
 30
0.0
  0
POINT
  5
21C55
330
21825
100
AcDbEntity
  8
DEFPOINTS
 62
     0
 48
50.0
100
AcDbPoint
 10
7246.066409670153
 20
4948.223706181672
 30
0.0
  0
POINT
  5
21C56
330
21825
100
AcDbEntity
  8
DEFPOINTS
 62
     0
 48
50.0
100
AcDbPoint
 10
7246.066409670153
 20
5147.936038945103
 30
0.0
  0
ENDBLK
  5
21831
330
21825
100
AcDbEntity
  8
0
 48
50.0
100
AcDbBlockEnd
  0
BLOCK
  5
2183C
330
21832
100
AcDbEntity
  8
0
 48
50.0
100
AcDbBlockBegin
  2
*D38
 70
     1
 10
0.0
 20
0.0
 30
0.0
  3
*D38
  1

  0
LINE
  5
22C9B
330
21832
100
AcDbEntity
  8
寸法
 62
     0
 48
50.0
370
    -2
100
AcDbLine
 10
8938.992245163477
 20
4497.839090797057
 30
0.0
 11
8711.783149537239
 21
4497.839090797057
 31
0.0
  0
LINE
  5
22C9C
330
21832
100
AcDbEntity
  8
寸法
 62
     0
 48
50.0
370
    -2
100
AcDbLine
 10
9125.707011870238
 20
3747.839090797058
 30
0.0
 11
8711.783149537238
 21
3747.839090797058
 31
0.0
  0
LINE
  5
22C9D
330
21832
100
AcDbEntity
  8
寸法
 62
     0
 48
50.0
370
    -2
100
AcDbLine
 10
8746.78314953724
 20
4497.839090797057
 30
0.0
 11
8746.783149537238
 21
3747.839090797058
 31
0.0
  0
INSERT
  5
22C9E
330
21832
100
AcDbEntity
  8
寸法
 62
     0
 48
50.0
370
    -2
100
AcDbBlockReference
  2
_DOTSMALL
 10
8746.78314953724
 20
4497.839090797057
 30
0.0
 41
125.0
 42
125.0
 43
125.0
 50
90.0
  0
INSERT
  5
22C9F
330
21832
100
AcDbEntity
  8
寸法
 62
     0
 48
50.0
370
    -2
100
AcDbBlockReference
  2
_DOTSMALL
 10
8746.783149537238
 20
3747.839090797058
 30
0.0
 41
125.0
 42
125.0
 43
125.0
 50
270.0
  0
MTEXT
  5
22CA0
330
21832
100
AcDbEntity
  8
寸法
 62
     7
 48
50.0
100
AcDbMText
 10
8646.783149537238
 20
4122.839090797059
 30
0.0
 40
150.0
 41
0.0
 71
     5
 72
     1
  1
\A1;300
  7
STYLE1
 11
0.0000000000000001
 21
1.0
 31
0.0
 73
     1
 44
1.0
1001
ACAD
1000
MTEXTBEGIN
1070
    73
1070
     1
1070
    44
1040
1.0
1070
    74
1070
     0
1000
MTEXTEND
  0
POINT
  5
22CA1
330
21832
100
AcDbEntity
  8
DEFPOINTS
 62
     0
 48
50.0
100
AcDbPoint
 10
8963.992245163478
 20
4497.839090797057
 30
0.0
  0
POINT
  5
22CA2
330
21832
100
AcDbEntity
  8
DEFPOINTS
 62
     0
 48
50.0
100
AcDbPoint
 10
9150.707011870236
 20
3747.839090797058
 30
0.0
  0
POINT
  5
22CA3
330
21832
100
AcDbEntity
  8
DEFPOINTS
 62
     0
 48
50.0
100
AcDbPoint
 10
8746.783149537238
 20
3747.839090797058
 30
0.0
  0
ENDBLK
  5
2183D
330
21832
100
AcDbEntity
  8
0
 48
50.0
100
AcDbBlockEnd
  0
BLOCK
  5
21886
330
2187C
100
AcDbEntity
  8
0
 48
50.0
100
AcDbBlockBegin
  2
*D39
 70
     1
 10
0.0
 20
0.0
 30
0.0
  3
*D39
  1

  0
LINE
  5
234C7
330
2187C
100
AcDbEntity
  8
寸法
 62
     0
 48
50.0
370
    -2
100
AcDbLine
 10
15196.58275786191
 20
1739.226218645137
 30
0.0
 11
15524.66512650983
 21
1739.226218645137
 31
0.0
  0
LINE
  5
234C8
330
2187C
100
AcDbEntity
  8
寸法
 62
     0
 48
50.0
370
    -2
100
AcDbLine
 10
14778.54968699118
 20
739.2262186451371
 30
0.0
 11
15524.66512650983
 21
739.226218645137
 31
0.0
  0
LINE
  5
234C9
330
2187C
100
AcDbEntity
  8
寸法
 62
     0
 48
50.0
370
    -2
100
AcDbLine
 10
15489.66512650983
 20
1739.226218645137
 30
0.0
 11
15489.66512650983
 21
739.226218645137
 31
0.0
  0
INSERT
  5
234CA
330
2187C
100
AcDbEntity
  8
寸法
 62
     0
 48
50.0
370
    -2
100
AcDbBlockReference
  2
_DOTSMALL
 10
15489.66512650983
 20
1739.226218645137
 30
0.0
 41
125.0
 42
125.0
 43
125.0
 50
90.0
  0
INSERT
  5
234CB
330
2187C
100
AcDbEntity
  8
寸法
 62
     0
 48
50.0
370
    -2
100
AcDbBlockReference
  2
_DOTSMALL
 10
15489.66512650983
 20
739.226218645137
 30
0.0
 41
125.0
 42
125.0
 43
125.0
 50
270.0
  0
MTEXT
  5
234CC
330
2187C
100
AcDbEntity
  8
寸法
 62
     7
 48
50.0
100
AcDbMText
 10
15389.66512650983
 20
1239.226218645139
 30
0.0
 40
150.0
 41
0.0
 71
     5
 72
     1
  1
\A1;400
  7
STYLE1
 11
0.0000000000000001
 21
1.0
 31
0.0
 73
     1
 44
1.0
1001
ACAD
1000
MTEXTBEGIN
1070
    73
1070
     1
1070
    44
1040
1.0
1070
    74
1070
     0
1000
MTEXTEND
  0
POINT
  5
234CD
330
2187C
100
AcDbEntity
  8
DEFPOINTS
 62
     0
 48
50.0
100
AcDbPoint
 10
15171.58275786191
 20
1739.226218645137
 30
0.0
  0
POINT
  5
234CE
330
2187C
100
AcDbEntity
  8
DEFPOINTS
 62
     0
 48
50.0
100
AcDbPoint
 10
14753.54968699118
 20
739.2262186451371
 30
0.0
  0
POINT
  5
234CF
330
2187C
100
AcDbEntity
  8
DEFPOINTS
 62
     0
 48
50.0
100
AcDbPoint
 10
15489.66512650983
 20
739.226218645137
 30
0.0
  0
ENDBLK
  5
21887
330
2187C
100
AcDbEntity
  8
0
 48
50.0
100
AcDbBlockEnd
  0
BLOCK
  5
2189E
330
21894
100
AcDbEntity
  8
0
 48
50.0
100
AcDbBlockBegin
  2
*D40
 70
     1
 10
0.0
 20
0.0
 30
0.0
  3
*D40
  1

  0
LINE
  5
234EB
330
21894
100
AcDbEntity
  8
寸法
 62
     0
 48
50.0
370
    -2
100
AcDbLine
 10
14116.04968699118
 20
1436.726218645133
 30
0.0
 11
14116.04968699118
 21
1932.585925998253
 31
0.0
  0
LINE
  5
234EC
330
21894
100
AcDbEntity
  8
寸法
 62
     0
 48
50.0
370
    -2
100
AcDbLine
 10
14391.04968699118
 20
1436.726218645133
 30
0.0
 11
14391.04968699118
 21
1932.585925998253
 31
0.0
  0
LINE
  5
234ED
330
21894
100
AcDbEntity
  8
寸法
 62
     0
 48
50.0
370
    -2
100
AcDbLine
 10
14116.04968699118
 20
1897.585925998253
 30
0.0
 11
14391.04968699118
 21
1897.585925998253
 31
0.0
  0
INSERT
  5
234EE
330
21894
100
AcDbEntity
  8
寸法
 62
     0
 48
50.0
370
    -2
100
AcDbBlockReference
  2
_DOTSMALL
 10
14116.04968699118
 20
1897.585925998253
 30
0.0
 41
125.0
 42
125.0
 43
125.0
 50
180.0
  0
INSERT
  5
234EF
330
21894
100
AcDbEntity
  8
寸法
 62
     0
 48
50.0
370
    -2
100
AcDbBlockReference
  2
_DOTSMALL
 10
14391.04968699118
 20
1897.585925998253
 30
0.0
 41
125.0
 42
125.0
 43
125.0
  0
MTEXT
  5
234F0
330
21894
100
AcDbEntity
  8
寸法
 62
     7
 48
50.0
100
AcDbMText
 10
14253.54968699118
 20
1997.585925998253
 30
0.0
 40
150.0
 41
0.0
 71
     5
 72
     1
  1
\A1;110
  7
STYLE1
 73
     1
 44
1.0
1001
ACAD
1000
MTEXTBEGIN
1070
    73
1070
     1
1070
    44
1040
1.0
1070
    74
1070
     0
1000
MTEXTEND
  0
POINT
  5
234F1
330
21894
100
AcDbEntity
  8
DEFPOINTS
 62
     0
 48
50.0
100
AcDbPoint
 10
14116.04968699118
 20
1411.726218645133
 30
0.0
  0
POINT
  5
234F2
330
21894
100
AcDbEntity
  8
DEFPOINTS
 62
     0
 48
50.0
100
AcDbPoint
 10
14391.04968699118
 20
1411.726218645133
 30
0.0
  0
POINT
  5
234F3
330
21894
100
AcDbEntity
  8
DEFPOINTS
 62
     0
 48
50.0
100
AcDbPoint
 10
14391.04968699118
 20
1897.585925998253
 30
0.0
  0
ENDBLK
  5
2189F
330
21894
100
AcDbEntity
  8
0
 48
50.0
100
AcDbBlockEnd
  0
BLOCK
  5
218B6
330
218AC
100
AcDbEntity
  8
0
 48
50.0
100
AcDbBlockBegin
  2
*D41
 70
     1
 10
0.0
 20
0.0
 30
0.0
  3
*D41
  1

  0
LINE
  5
234D9
330
218AC
100
AcDbEntity
  8
寸法
 62
     0
 48
50.0
370
    -2
100
AcDbLine
 10
13369.32924049869
 20
4872.839090797057
 30
0.0
 11
12634.14054641192
 21
4872.839090797057
 31
0.0
  0
LINE
  5
234DA
330
218AC
100
AcDbEntity
  8
寸法
 62
     0
 48
50.0
370
    -2
100
AcDbLine
 10
14201.04968699118
 20
3997.83909079706
 30
0.0
 11
12634.14054641191
 21
3997.83909079706
 31
0.0
  0
LINE
  5
234DB
330
218AC
100
AcDbEntity
  8
寸法
 62
     0
 48
50.0
370
    -2
100
AcDbLine
 10
12669.14054641192
 20
4872.839090797057
 30
0.0
 11
12669.14054641191
 21
3997.83909079706
 31
0.0
  0
INSERT
  5
234DC
330
218AC
100
AcDbEntity
  8
寸法
 62
     0
 48
50.0
370
    -2
100
AcDbBlockReference
  2
_DOTSMALL
 10
12669.14054641192
 20
4872.839090797057
 30
0.0
 41
125.0
 42
125.0
 43
125.0
 50
90.0
  0
INSERT
  5
234DD
330
218AC
100
AcDbEntity
  8
寸法
 62
     0
 48
50.0
370
    -2
100
AcDbBlockReference
  2
_DOTSMALL
 10
12669.14054641191
 20
3997.83909079706
 30
0.0
 41
125.0
 42
125.0
 43
125.0
 50
270.0
  0
MTEXT
  5
234DE
330
218AC
100
AcDbEntity
  8
寸法
 62
     7
 48
50.0
100
AcDbMText
 10
12444.14054641191
 20
4435.33909079706
 30
0.0
 40
150.0
 41
0.0
 71
     5
 72
     1
  1
\A1;基礎天ヨリ\P350
  7
STYLE1
 11
0.0000000000000001
 21
1.0
 31
0.0
 73
     1
 44
1.0
1001
ACAD
1000
MTEXTBEGIN
1070
    73
1070
     1
1070
    44
1040
1.0
1070
    74
1070
     0
1000
MTEXTEND
  0
POINT
  5
234DF
330
218AC
100
AcDbEntity
  8
DEFPOINTS
 62
     0
 48
50.0
100
AcDbPoint
 10
13394.32924049869
 20
4872.839090797057
 30
0.0
  0
POINT
  5
234E0
330
218AC
100
AcDbEntity
  8
DEFPOINTS
 62
     0
 48
50.0
100
AcDbPoint
 10
14226.04968699118
 20
3997.83909079706
 30
0.0
  0
POINT
  5
234E1
330
218AC
100
AcDbEntity
  8
DEFPOINTS
 62
     0
 48
50.0
100
AcDbPoint
 10
12669.14054641191
 20
3997.83909079706
 30
0.0
  0
ENDBLK
  5
218B7
330
218AC
100
AcDbEntity
  8
0
 48
50.0
100
AcDbBlockEnd
  0
BLOCK
  5
21F48
330
21F3E
100
AcDbEntity
  8
0
 48
50.0
100
AcDbBlockBegin
  2
*D42
 70
     1
 10
0.0
 20
0.0
 30
0.0
  3
*D42
  1

  0
LINE
  5
25405
330
21F3E
100
AcDbEntity
  8
寸法
 62
     0
 48
50.0
370
    -2
100
AcDbLine
 10
11304.5
 20
9499.999999999998
 30
0.0
 11
11582.65573588008
 21
9499.999999999998
 31
0.0
  0
LINE
  5
25406
330
21F3E
100
AcDbEntity
  8
寸法
 62
     0
 48
50.0
370
    -2
100
AcDbLine
 10
11304.5
 20
8599.999999999997
 30
0.0
 11
11582.65573588008
 21
8599.999999999997
 31
0.0
  0
LINE
  5
25407
330
21F3E
100
AcDbEntity
  8
寸法
 62
     0
 48
50.0
370
    -2
100
AcDbLine
 10
11507.65573588008
 20
9499.999999999998
 30
0.0
 11
11507.65573588008
 21
8599.999999999997
 31
0.0
  0
INSERT
  5
25408
330
21F3E
100
AcDbEntity
  8
寸法
 62
     0
 48
50.0
370
    -2
100
AcDbBlockReference
  2
_DOTSMALL
 10
11507.65573588008
 20
9499.999999999998
 30
0.0
 41
125.0
 42
125.0
 43
125.0
 50
90.0
  0
INSERT
  5
25409
330
21F3E
100
AcDbEntity
  8
寸法
 62
     0
 48
50.0
370
    -2
100
AcDbBlockReference
  2
_DOTSMALL
 10
11507.65573588008
 20
8599.999999999997
 30
0.0
 41
125.0
 42
125.0
 43
125.0
 50
270.0
  0
MTEXT
  5
2540A
330
21F3E
100
AcDbEntity
  8
寸法
 62
     7
 48
50.0
100
AcDbMText
 10
11407.65573588008
 20
9050.0
 30
0.0
 40
150.0
 41
0.0
 71
     5
 72
     1
  1
\A1;900
  7
STYLE1
 11
0.0000000000000001
 21
1.0
 31
0.0
 73
     1
 44
1.0
1001
ACAD
1000
MTEXTBEGIN
1070
    73
1070
     1
1070
    44
1040
1.0
1070
    74
1070
     0
1000
MTEXTEND
  0
POINT
  5
2540B
330
21F3E
100
AcDbEntity
  8
DEFPOINTS
 62
     0
 48
50.0
100
AcDbPoint
 10
11279.5
 20
9499.999999999998
 30
0.0
  0
POINT
  5
2540C
330
21F3E
100
AcDbEntity
  8
DEFPOINTS
 62
     0
 48
50.0
100
AcDbPoint
 10
11279.5
 20
8599.999999999997
 30
0.0
  0
POINT
  5
2540D
330
21F3E
100
AcDbEntity
  8
DEFPOINTS
 62
     0
 48
50.0
100
AcDbPoint
 10
11507.65573588008
 20
8599.999999999997
 30
0.0
  0
ENDBLK
  5
21F49
330
21F3E
100
AcDbEntity
  8
0
 48
50.0
100
AcDbBlockEnd
  0
BLOCK
  5
22078
330
2206C
100
AcDbEntity
  8
0
 48
50.0
100
AcDbBlockBegin
  2
*D43
 70
     1
 10
0.0
 20
0.0
 30
0.0
  3
*D43
  1

  0
LINE
  5
25479
330
2206C
100
AcDbEntity
  8
寸法
 62
     0
 48
50.0
370
    -2
100
AcDbLine
 10
12914.5
 20
10424.99999999999
 30
0.0
 11
12914.5
 21
11693.74755453192
 31
0.0
  0
LINE
  5
2547A
330
2206C
100
AcDbEntity
  8
寸法
 62
     0
 48
50.0
370
    -2
100
AcDbLine
 10
12959.5
 20
11511.73197023835
 30
0.0
 11
12959.5
 21
11693.74755453192
 31
0.0
  0
LINE
  5
2547B
330
2206C
100
AcDbEntity
  8
寸法
 62
     0
 48
50.0
370
    -2
100
AcDbLine
 10
12914.5
 20
11618.74755453192
 30
0.0
 11
12789.5
 21
11618.74755453192
 31
0.0
  0
LINE
  5
2547C
330
2206C
100
AcDbEntity
  8
寸法
 62
     0
 48
50.0
370
    -2
100
AcDbLine
 10
12959.5
 20
11618.74755453192
 30
0.0
 11
13324.93655300615
 21
11618.74755453192
 31
0.0
  0
LINE
  5
2547D
330
2206C
100
AcDbEntity
  8
寸法
 62
     0
 48
50.0
370
    -2
100
AcDbLine
 10
12914.5
 20
11618.74755453192
 30
0.0
 11
12959.5
 21
11618.74755453192
 31
0.0
  0
INSERT
  5
2547E
330
2206C
100
AcDbEntity
  8
寸法
 62
     0
 48
50.0
370
    -2
100
AcDbBlockReference
  2
_DOTSMALL
 10
12914.5
 20
11618.74755453192
 30
0.0
 41
125.0
 42
125.0
 43
125.0
  0
INSERT
  5
2547F
330
2206C
100
AcDbEntity
  8
寸法
 62
     0
 48
50.0
370
    -2
100
AcDbBlockReference
  2
_DOTSMALL
 10
12959.5
 20
11618.74755453192
 30
0.0
 41
125.0
 42
125.0
 43
125.0
 50
180.0
  0
MTEXT
  5
25480
330
2206C
100
AcDbEntity
  8
寸法
 62
     7
 48
50.0
100
AcDbMText
 10
13267.21827650308
 20
11718.74755453192
 30
0.0
 40
150.0
 41
0.0
 71
     5
 72
     1
  1
\A1;a
  7
STYLE1
 73
     1
 44
1.0
1001
ACAD
1000
MTEXTBEGIN
1070
    73
1070
     1
1070
    44
1040
1.0
1070
    74
1070
     0
1000
MTEXTEND
  0
POINT
  5
25481
330
2206C
100
AcDbEntity
  8
DEFPOINTS
 62
     0
 48
50.0
100
AcDbPoint
 10
12914.5
 20
10399.99999999999
 30
0.0
  0
POINT
  5
25482
330
2206C
100
AcDbEntity
  8
DEFPOINTS
 62
     0
 48
50.0
100
AcDbPoint
 10
12959.5
 20
11486.73197023835
 30
0.0
  0
POINT
  5
25483
330
2206C
100
AcDbEntity
  8
DEFPOINTS
 62
     0
 48
50.0
100
AcDbPoint
 10
12959.5
 20
11618.74755453192
 30
0.0
  0
ENDBLK
  5
22079
330
2206C
100
AcDbEntity
  8
0
 48
50.0
100
AcDbBlockEnd
  0
BLOCK
  5
22086
330
2207A
100
AcDbEntity
  8
0
 48
50.0
100
AcDbBlockBegin
  2
*D44
 70
     1
 10
0.0
 20
0.0
 30
0.0
  3
*D44
  1

  0
LINE
  5
253B9
330
2207A
100
AcDbEntity
  8
寸法
 62
     0
 48
50.0
370
    -2
100
AcDbLine
 10
7599.5
 20
11509.16175784589
 30
0.0
 11
7599.5
 21
11693.74755453192
 31
0.0
  0
LINE
  5
253BA
330
2207A
100
AcDbEntity
  8
寸法
 62
     0
 48
50.0
370
    -2
100
AcDbLine
 10
7644.5
 20
10424.99999999999
 30
0.0
 11
7644.5
 21
11693.74755453192
 31
0.0
  0
LINE
  5
253BB
330
2207A
100
AcDbEntity
  8
寸法
 62
     0
 48
50.0
370
    -2
100
AcDbLine
 10
7644.5
 20
11618.74755453192
 30
0.0
 11
7769.5
 21
11618.74755453192
 31
0.0
  0
LINE
  5
253BC
330
2207A
100
AcDbEntity
  8
寸法
 62
     0
 48
50.0
370
    -2
100
AcDbLine
 10
7599.5
 20
11618.74755453192
 30
0.0
 11
7234.063446993854
 21
11618.74755453192
 31
0.0
  0
LINE
  5
253BD
330
2207A
100
AcDbEntity
  8
寸法
 62
     0
 48
50.0
370
    -2
100
AcDbLine
 10
7644.5
 20
11618.74755453192
 30
0.0
 11
7599.5
 21
11618.74755453192
 31
0.0
  0
INSERT
  5
253BE
330
2207A
100
AcDbEntity
  8
寸法
 62
     0
 48
50.0
370
    -2
100
AcDbBlockReference
  2
_DOTSMALL
 10
7644.5
 20
11618.74755453192
 30
0.0
 41
125.0
 42
125.0
 43
125.0
 50
180.0
  0
INSERT
  5
253BF
330
2207A
100
AcDbEntity
  8
寸法
 62
     0
 48
50.0
370
    -2
100
AcDbBlockReference
  2
_DOTSMALL
 10
7599.5
 20
11618.74755453192
 30
0.0
 41
125.0
 42
125.0
 43
125.0
  0
MTEXT
  5
253C0
330
2207A
100
AcDbEntity
  8
寸法
 62
     7
 48
50.0
100
AcDbMText
 10
7291.781723496926
 20
11718.74755453192
 30
0.0
 40
150.0
 41
0.0
 71
     5
 72
     1
  1
\A1;a
  7
STYLE1
 73
     1
 44
1.0
1001
ACAD
1000
MTEXTBEGIN
1070
    73
1070
     1
1070
    44
1040
1.0
1070
    74
1070
     0
1000
MTEXTEND
  0
POINT
  5
253C1
330
2207A
100
AcDbEntity
  8
DEFPOINTS
 62
     0
 48
50.0
100
AcDbPoint
 10
7599.5
 20
11484.16175784589
 30
0.0
  0
POINT
  5
253C2
330
2207A
100
AcDbEntity
  8
DEFPOINTS
 62
     0
 48
50.0
100
AcDbPoint
 10
7644.5
 20
10399.99999999999
 30
0.0
  0
POINT
  5
253C3
330
2207A
100
AcDbEntity
  8
DEFPOINTS
 62
     0
 48
50.0
100
AcDbPoint
 10
7644.5
 20
11618.74755453192
 30
0.0
  0
ENDBLK
  5
22087
330
2207A
100
AcDbEntity
  8
0
 48
50.0
100
AcDbBlockEnd
  0
BLOCK
  5
22094
330
22088
100
AcDbEntity
  8
0
 48
50.0
100
AcDbBlockBegin
  2
*D45
 70
     1
 10
0.0
 20
0.0
 30
0.0
  3
*D45
  1

  0
LINE
  5
253A4
330
22088
100
AcDbEntity
  8
寸法
 62
     0
 48
50.0
370
    -2
100
AcDbLine
 10
6619.847327740179
 20
10475.0
 30
0.0
 11
6369.077758871935
 21
10475.0
 31
0.0
  0
LINE
  5
253A5
330
22088
100
AcDbEntity
  8
寸法
 62
     0
 48
50.0
370
    -2
100
AcDbLine
 10
7619.500000000001
 20
10399.99999999999
 30
0.0
 11
6369.077758871935
 21
10399.99999999999
 31
0.0
  0
LINE
  5
253A6
330
22088
100
AcDbEntity
  8
寸法
 62
     0
 48
50.0
370
    -2
100
AcDbLine
 10
6444.077758871936
 20
10475.0
 30
0.0
 11
6444.077758871936
 21
10600.0
 31
0.0
  0
LINE
  5
253A7
330
22088
100
AcDbEntity
  8
寸法
 62
     0
 48
50.0
370
    -2
100
AcDbLine
 10
6444.077758871936
 20
10399.99999999999
 30
0.0
 11
6444.077758871936
 21
10274.99999999999
 31
0.0
  0
LINE
  5
253A8
330
22088
100
AcDbEntity
  8
寸法
 62
     0
 48
50.0
370
    -2
100
AcDbLine
 10
6444.077758871936
 20
10475.0
 30
0.0
 11
6444.077758871936
 21
10399.99999999999
 31
0.0
  0
INSERT
  5
253A9
330
22088
100
AcDbEntity
  8
寸法
 62
     0
 48
50.0
370
    -2
100
AcDbBlockReference
  2
_DOTSMALL
 10
6444.077758871936
 20
10475.0
 30
0.0
 41
125.0
 42
125.0
 43
125.0
 50
270.0
  0
INSERT
  5
253AA
330
22088
100
AcDbEntity
  8
寸法
 62
     0
 48
50.0
370
    -2
100
AcDbBlockReference
  2
_DOTSMALL
 10
6444.077758871936
 20
10399.99999999999
 30
0.0
 41
125.0
 42
125.0
 43
125.0
 50
90.0
  0
MTEXT
  5
253AB
330
22088
100
AcDbEntity
  8
寸法
 62
     7
 48
50.0
100
AcDbMText
 10
6344.077758871934
 20
10437.5
 30
0.0
 40
150.0
 41
0.0
 71
     5
 72
     1
  1
\A1;c
  7
STYLE1
 11
0.0000000000000001
 21
1.0
 31
0.0
 73
     1
 44
1.0
1001
ACAD
1000
MTEXTBEGIN
1070
    73
1070
     1
1070
    44
1040
1.0
1070
    74
1070
     0
1000
MTEXTEND
  0
POINT
  5
253AC
330
22088
100
AcDbEntity
  8
DEFPOINTS
 62
     0
 48
50.0
100
AcDbPoint
 10
6644.847327740179
 20
10475.0
 30
0.0
  0
POINT
  5
253AD
330
22088
100
AcDbEntity
  8
DEFPOINTS
 62
     0
 48
50.0
100
AcDbPoint
 10
7644.5
 20
10399.99999999999
 30
0.0
  0
POINT
  5
253AE
330
22088
100
AcDbEntity
  8
DEFPOINTS
 62
     0
 48
50.0
100
AcDbPoint
 10
6444.077758871936
 20
10399.99999999999
 30
0.0
  0
ENDBLK
  5
22095
330
22088
100
AcDbEntity
  8
0
 48
50.0
100
AcDbBlockEnd
  0
BLOCK
  5
220A0
330
22096
100
AcDbEntity
  8
0
 48
50.0
100
AcDbBlockBegin
  2
*D46
 70
     1
 10
0.0
 20
0.0
 30
0.0
  3
*D46
  1

  0
LINE
  5
25399
330
22096
100
AcDbEntity
  8
寸法
 62
     0
 48
50.0
370
    -2
100
AcDbLine
 10
7680.500000000001
 20
8599.999999999997
 30
0.0
 11
6369.077758871934
 21
8599.999999999997
 31
0.0
  0
LINE
  5
2539A
330
22096
100
AcDbEntity
  8
寸法
 62
     0
 48
50.0
370
    -2
100
AcDbLine
 10
6626.355528014632
 20
8544.999999999994
 30
0.0
 11
6369.077758871934
 21
8544.999999999994
 31
0.0
  0
LINE
  5
2539B
330
22096
100
AcDbEntity
  8
寸法
 62
     0
 48
50.0
370
    -2
100
AcDbLine
 10
6444.077758871934
 20
8599.999999999997
 30
0.0
 11
6444.077758871934
 21
8724.999999999997
 31
0.0
  0
LINE
  5
2539C
330
22096
100
AcDbEntity
  8
寸法
 62
     0
 48
50.0
370
    -2
100
AcDbLine
 10
6444.077758871934
 20
8544.999999999994
 30
0.0
 11
6444.077758871934
 21
8419.999999999994
 31
0.0
  0
LINE
  5
2539D
330
22096
100
AcDbEntity
  8
寸法
 62
     0
 48
50.0
370
    -2
100
AcDbLine
 10
6444.077758871934
 20
8599.999999999997
 30
0.0
 11
6444.077758871934
 21
8544.999999999994
 31
0.0
  0
INSERT
  5
2539E
330
22096
100
AcDbEntity
  8
寸法
 62
     0
 48
50.0
370
    -2
100
AcDbBlockReference
  2
_DOTSMALL
 10
6444.077758871934
 20
8599.999999999997
 30
0.0
 41
125.0
 42
125.0
 43
125.0
 50
270.0
  0
INSERT
  5
2539F
330
22096
100
AcDbEntity
  8
寸法
 62
     0
 48
50.0
370
    -2
100
AcDbBlockReference
  2
_DOTSMALL
 10
6444.077758871934
 20
8544.999999999994
 30
0.0
 41
125.0
 42
125.0
 43
125.0
 50
90.0
  0
MTEXT
  5
253A0
330
22096
100
AcDbEntity
  8
寸法
 62
     7
 48
50.0
100
AcDbMText
 10
6344.077758871932
 20
8572.499999999996
 30
0.0
 40
150.0
 41
0.0
 71
     5
 72
     1
  1
\A1;b
  7
STYLE1
 11
0.0000000000000001
 21
1.0
 31
0.0
 73
     1
 44
1.0
1001
ACAD
1000
MTEXTBEGIN
1070
    73
1070
     1
1070
    44
1040
1.0
1070
    74
1070
     0
1000
MTEXTEND
  0
POINT
  5
253A1
330
22096
100
AcDbEntity
  8
DEFPOINTS
 62
     0
 48
50.0
100
AcDbPoint
 10
7705.5
 20
8599.999999999997
 30
0.0
  0
POINT
  5
253A2
330
22096
100
AcDbEntity
  8
DEFPOINTS
 62
     0
 48
50.0
100
AcDbPoint
 10
6651.355528014632
 20
8544.999999999994
 30
0.0
  0
POINT
  5
253A3
330
22096
100
AcDbEntity
  8
DEFPOINTS
 62
     0
 48
50.0
100
AcDbPoint
 10
6444.077758871934
 20
8544.999999999994
 30
0.0
  0
ENDBLK
  5
220A1
330
22096
100
AcDbEntity
  8
0
 48
50.0
100
AcDbBlockEnd
  0
BLOCK
  5
22B03
330
22AF7
100
AcDbEntity
  8
0
 48
50.0
100
AcDbBlockBegin
  2
*D47
 70
     1
 10
0.0
 20
0.0
 30
0.0
  3
*D47
  1

  0
LINE
  5
2543D
330
22AF7
100
AcDbEntity
  8
寸法
 62
     0
 48
50.0
370
    -2
100
AcDbLine
 10
13094.5
 20
8795.000000000007
 30
0.0
 11
13094.5
 21
9080.448898959394
 31
0.0
  0
LINE
  5
2543E
330
22AF7
100
AcDbEntity
  8
寸法
 62
     0
 48
50.0
370
    -2
100
AcDbLine
 10
12914.5
 20
8795.000000000007
 30
0.0
 11
12914.5
 21
9080.448898959394
 31
0.0
  0
LINE
  5
2543F
330
22AF7
100
AcDbEntity
  8
寸法
 62
     0
 48
50.0
370
    -2
100
AcDbLine
 10
12914.5
 20
9005.448898959393
 30
0.0
 11
13094.5
 21
9005.448898959393
 31
0.0
  0
LINE
  5
25440
330
22AF7
100
AcDbEntity
  8
寸法
 62
     0
 48
50.0
370
    -2
100
AcDbLine
 10
13094.5
 20
9005.448898959393
 30
0.0
 11
13509.61811023622
 21
9005.448898959393
 31
0.0
  0
INSERT
  5
25441
330
22AF7
100
AcDbEntity
  8
寸法
 62
     0
 48
50.0
370
    -2
100
AcDbBlockReference
  2
_DOTSMALL
 10
12914.5
 20
9005.448898959393
 30
0.0
 41
125.0
 42
125.0
 43
125.0
 50
180.0
  0
INSERT
  5
25442
330
22AF7
100
AcDbEntity
  8
寸法
 62
     0
 48
50.0
370
    -2
100
AcDbBlockReference
  2
_DOTSMALL
 10
13094.5
 20
9005.448898959393
 30
0.0
 41
125.0
 42
125.0
 43
125.0
  0
MTEXT
  5
25443
330
22AF7
100
AcDbEntity
  8
寸法
 62
     7
 48
50.0
100
AcDbMText
 10
13364.55905511811
 20
9105.448898959393
 30
0.0
 40
150.0
 41
0.0
 71
     5
 72
     1
  1
\A1;180
  7
STYLE1
 73
     1
 44
1.0
1001
ACAD
1000
MTEXTBEGIN
1070
    73
1070
     1
1070
    44
1040
1.0
1070
    74
1070
     0
1000
MTEXTEND
  0
POINT
  5
25444
330
22AF7
100
AcDbEntity
  8
DEFPOINTS
 62
     0
 48
50.0
100
AcDbPoint
 10
13094.5
 20
8770.000000000008
 30
0.0
  0
POINT
  5
25445
330
22AF7
100
AcDbEntity
  8
DEFPOINTS
 62
     0
 48
50.0
100
AcDbPoint
 10
12914.5
 20
8770.000000000008
 30
0.0
  0
POINT
  5
25446
330
22AF7
100
AcDbEntity
  8
DEFPOINTS
 62
     0
 48
50.0
100
AcDbPoint
 10
12914.5
 20
9005.448898959393
 30
0.0
  0
ENDBLK
  5
22B04
330
22AF7
100
AcDbEntity
  8
0
 48
50.0
100
AcDbBlockEnd
  0
BLOCK
  5
22B27
330
22B1B
100
AcDbEntity
  8
0
 48
50.0
100
AcDbBlockBegin
  2
*D48
 70
     1
 10
0.0
 20
0.0
 30
0.0
  3
*D48
  1

  0
LINE
  5
2545C
330
22B1B
100
AcDbEntity
  8
寸法
 62
     0
 48
50.0
370
    -2
100
AcDbLine
 10
12719.5
 20
8420.000000000007
 30
0.0
 11
12316.55370230484
 21
8420.000000000007
 31
0.0
  0
LINE
  5
2545D
330
22B1B
100
AcDbEntity
  8
寸法
 62
     0
 48
50.0
370
    -2
100
AcDbLine
 10
12719.5
 20
8599.999999999997
 30
0.0
 11
12316.55370230484
 21
8599.999999999997
 31
0.0
  0
LINE
  5
2545E
330
22B1B
100
AcDbEntity
  8
寸法
 62
     0
 48
50.0
370
    -2
100
AcDbLine
 10
12391.55370230484
 20
8599.999999999997
 30
0.0
 11
12391.55370230484
 21
8420.000000000007
 31
0.0
  0
LINE
  5
2545F
330
22B1B
100
AcDbEntity
  8
寸法
 62
     0
 48
50.0
370
    -2
100
AcDbLine
 10
12391.55370230484
 20
8420.000000000007
 30
0.0
 11
12391.55370230484
 21
8004.881889763785
 31
0.0
  0
INSERT
  5
25460
330
22B1B
100
AcDbEntity
  8
寸法
 62
     0
 48
50.0
370
    -2
100
AcDbBlockReference
  2
_DOTSMALL
 10
12391.55370230484
 20
8599.999999999997
 30
0.0
 41
125.0
 42
125.0
 43
125.0
 50
90.0
  0
INSERT
  5
25461
330
22B1B
100
AcDbEntity
  8
寸法
 62
     0
 48
50.0
370
    -2
100
AcDbBlockReference
  2
_DOTSMALL
 10
12391.55370230484
 20
8420.000000000007
 30
0.0
 41
125.0
 42
125.0
 43
125.0
 50
270.0
  0
MTEXT
  5
25462
330
22B1B
100
AcDbEntity
  8
寸法
 62
     7
 48
50.0
100
AcDbMText
 10
12291.55370230483
 20
8149.940944881898
 30
0.0
 40
150.0
 41
0.0
 71
     5
 72
     1
  1
\A1;180
  7
STYLE1
 11
0.0000000000000001
 21
1.0
 31
0.0
 73
     1
 44
1.0
1001
ACAD
1000
MTEXTBEGIN
1070
    73
1070
     1
1070
    44
1040
1.0
1070
    74
1070
     0
1000
MTEXTEND
  0
POINT
  5
25463
330
22B1B
100
AcDbEntity
  8
DEFPOINTS
 62
     0
 48
50.0
100
AcDbPoint
 10
12744.5
 20
8420.000000000007
 30
0.0
  0
POINT
  5
25464
330
22B1B
100
AcDbEntity
  8
DEFPOINTS
 62
     0
 48
50.0
100
AcDbPoint
 10
12744.5
 20
8599.999999999997
 30
0.0
  0
POINT
  5
25465
330
22B1B
100
AcDbEntity
  8
DEFPOINTS
 62
     0
 48
50.0
100
AcDbPoint
 10
12391.55370230484
 20
8599.999999999997
 30
0.0
  0
ENDBLK
  5
22B28
330
22B1B
100
AcDbEntity
  8
0
 48
50.0
100
AcDbBlockEnd
  0
BLOCK
  5
22E43
330
22E39
100
AcDbEntity
  8
0
 48
50.0
100
AcDbBlockBegin
  2
*D49
 70
     1
 10
0.0
 20
0.0
 30
0.0
  3
*D49
  1

  0
LINE
  5
233DB
330
22E39
100
AcDbEntity
  8
寸法
 62
     0
 48
50.0
370
    -2
100
AcDbLine
 10
9119.457011870236
 20
1764.226218645135
 30
0.0
 11
9119.457011870236
 21
1981.353806238956
 31
0.0
  0
LINE
  5
233DC
330
22E39
100
AcDbEntity
  8
寸法
 62
     0
 48
50.0
370
    -2
100
AcDbLine
 10
9569.457011870236
 20
1764.226218645135
 30
0.0
 11
9569.457011870236
 21
1981.353806238956
 31
0.0
  0
LINE
  5
233DD
330
22E39
100
AcDbEntity
  8
寸法
 62
     0
 48
50.0
370
    -2
100
AcDbLine
 10
9119.457011870236
 20
1946.353806238956
 30
0.0
 11
9569.457011870236
 21
1946.353806238956
 31
0.0
  0
INSERT
  5
233DE
330
22E39
100
AcDbEntity
  8
寸法
 62
     0
 48
50.0
370
    -2
100
AcDbBlockReference
  2
_DOTSMALL
 10
9119.457011870236
 20
1946.353806238956
 30
0.0
 41
125.0
 42
125.0
 43
125.0
 50
180.0
  0
INSERT
  5
233DF
330
22E39
100
AcDbEntity
  8
寸法
 62
     0
 48
50.0
370
    -2
100
AcDbBlockReference
  2
_DOTSMALL
 10
9569.457011870236
 20
1946.353806238956
 30
0.0
 41
125.0
 42
125.0
 43
125.0
  0
MTEXT
  5
233E0
330
22E39
100
AcDbEntity
  8
寸法
 62
     7
 48
50.0
100
AcDbMText
 10
9344.457011870236
 20
2046.353806238956
 30
0.0
 40
150.0
 41
0.0
 71
     5
 72
     1
  1
\A1;180
  7
STYLE1
 73
     1
 44
1.0
1001
ACAD
1000
MTEXTBEGIN
1070
    73
1070
     1
1070
    44
1040
1.0
1070
    74
1070
     0
1000
MTEXTEND
  0
POINT
  5
233E1
330
22E39
100
AcDbEntity
  8
DEFPOINTS
 62
     0
 48
50.0
100
AcDbPoint
 10
9119.457011870236
 20
1739.226218645135
 30
0.0
  0
POINT
  5
233E2
330
22E39
100
AcDbEntity
  8
DEFPOINTS
 62
     0
 48
50.0
100
AcDbPoint
 10
9569.457011870236
 20
1739.226218645135
 30
0.0
  0
POINT
  5
233E3
330
22E39
100
AcDbEntity
  8
DEFPOINTS
 62
     0
 48
50.0
100
AcDbPoint
 10
9569.457011870236
 20
1946.353806238956
 30
0.0
  0
ENDBLK
  5
22E44
330
22E39
100
AcDbEntity
  8
0
 48
50.0
100
AcDbBlockEnd
  0
BLOCK
  5
22E50
330
22E46
100
AcDbEntity
  8
0
 48
50.0
100
AcDbBlockBegin
  2
*D50
 70
     1
 10
0.0
 20
0.0
 30
0.0
  3
*D50
  1

  0
LINE
  5
23396
330
22E46
100
AcDbEntity
  8
寸法
 62
     0
 48
50.0
370
    -2
100
AcDbLine
 10
10019.45701187024
 20
864.2262186451352
 30
0.0
 11
10308.33262845975
 21
864.2262186451352
 31
0.0
  0
LINE
  5
23397
330
22E46
100
AcDbEntity
  8
寸法
 62
     0
 48
50.0
370
    -2
100
AcDbLine
 10
10019.45701187024
 20
1314.226218645137
 30
0.0
 11
10308.33262845975
 21
1314.226218645137
 31
0.0
  0
LINE
  5
23398
330
22E46
100
AcDbEntity
  8
寸法
 62
     0
 48
50.0
370
    -2
100
AcDbLine
 10
10273.33262845975
 20
864.2262186451352
 30
0.0
 11
10273.33262845975
 21
1314.226218645137
 31
0.0
  0
INSERT
  5
23399
330
22E46
100
AcDbEntity
  8
寸法
 62
     0
 48
50.0
370
    -2
100
AcDbBlockReference
  2
_DOTSMALL
 10
10273.33262845975
 20
864.2262186451352
 30
0.0
 41
125.0
 42
125.0
 43
125.0
 50
270.0
  0
INSERT
  5
2339A
330
22E46
100
AcDbEntity
  8
寸法
 62
     0
 48
50.0
370
    -2
100
AcDbBlockReference
  2
_DOTSMALL
 10
10273.33262845975
 20
1314.226218645137
 30
0.0
 41
125.0
 42
125.0
 43
125.0
 50
90.0
  0
MTEXT
  5
2339B
330
22E46
100
AcDbEntity
  8
寸法
 62
     7
 48
50.0
100
AcDbMText
 10
10173.33262845975
 20
1089.226218645138
 30
0.0
 40
150.0
 41
0.0
 71
     5
 72
     1
  1
\A1;180
  7
STYLE1
 11
0.0000000000000001
 21
1.0
 31
0.0
 73
     1
 44
1.0
1001
ACAD
1000
MTEXTBEGIN
1070
    73
1070
     1
1070
    44
1040
1.0
1070
    74
1070
     0
1000
MTEXTEND
  0
POINT
  5
2339C
330
22E46
100
AcDbEntity
  8
DEFPOINTS
 62
     0
 48
50.0
100
AcDbPoint
 10
9994.457011870242
 20
864.2262186451352
 30
0.0
  0
POINT
  5
2339D
330
22E46
100
AcDbEntity
  8
DEFPOINTS
 62
     0
 48
50.0
100
AcDbPoint
 10
9994.457011870242
 20
1314.226218645137
 30
0.0
  0
POINT
  5
2339E
330
22E46
100
AcDbEntity
  8
DEFPOINTS
 62
     0
 48
50.0
100
AcDbPoint
 10
10273.33262845975
 20
1314.226218645137
 30
0.0
  0
ENDBLK
  5
22E51
330
22E46
100
AcDbEntity
  8
0
 48
50.0
100
AcDbBlockEnd
  0
BLOCK
  5
22EA3
330
22E97
100
AcDbEntity
  8
0
 48
50.0
100
AcDbBlockBegin
  2
*D51
 70
     1
 10
0.0
 20
0.0
 30
0.0
  3
*D51
  1

  0
LINE
  5
233B2
330
22E97
100
AcDbEntity
  8
寸法
 62
     0
 48
50.0
370
    -2
100
AcDbLine
 10
9563.207011870238
 20
1464.226218645135
 30
0.0
 11
8970.682731468274
 21
1464.226218645135
 31
0.0
  0
LINE
  5
233B3
330
22E97
100
AcDbEntity
  8
寸法
 62
     0
 48
50.0
370
    -2
100
AcDbLine
 10
9544.457011870235
 20
1466.726218645137
 30
0.0
 11
8970.682731468274
 21
1466.726218645137
 31
0.0
  0
LINE
  5
233B4
330
22E97
100
AcDbEntity
  8
寸法
 62
     0
 48
50.0
370
    -2
100
AcDbLine
 10
9005.682731468274
 20
1464.226218645135
 30
0.0
 11
9005.682731468274
 21
1339.226218645135
 31
0.0
  0
LINE
  5
233B5
330
22E97
100
AcDbEntity
  8
寸法
 62
     0
 48
50.0
370
    -2
100
AcDbLine
 10
9005.682731468274
 20
1466.726218645137
 30
0.0
 11
9005.682731468274
 21
1796.726218645137
 31
0.0
  0
LINE
  5
233B6
330
22E97
100
AcDbEntity
  8
寸法
 62
     0
 48
50.0
370
    -2
100
AcDbLine
 10
9005.682731468274
 20
1464.226218645135
 30
0.0
 11
9005.682731468274
 21
1466.726218645137
 31
0.0
  0
INSERT
  5
233B7
330
22E97
100
AcDbEntity
  8
寸法
 62
     0
 48
50.0
370
    -2
100
AcDbBlockReference
  2
_DOTSMALL
 10
9005.682731468274
 20
1464.226218645135
 30
0.0
 41
125.0
 42
125.0
 43
125.0
 50
90.0
  0
INSERT
  5
233B8
330
22E97
100
AcDbEntity
  8
寸法
 62
     0
 48
50.0
370
    -2
100
AcDbBlockReference
  2
_DOTSMALL
 10
9005.682731468274
 20
1466.726218645137
 30
0.0
 41
125.0
 42
125.0
 43
125.0
 50
270.0
  0
MTEXT
  5
233B9
330
22E97
100
AcDbEntity
  8
寸法
 62
     7
 48
50.0
100
AcDbMText
 10
8905.682731468274
 20
1756.726218645139
 30
0.0
 40
150.0
 41
0.0
 71
     5
 72
     1
  1
\A1;1
  7
STYLE1
 11
0.0000000000000001
 21
1.0
 31
0.0
 73
     1
 44
1.0
1001
ACAD
1000
MTEXTBEGIN
1070
    73
1070
     1
1070
    44
1040
1.0
1070
    74
1070
     0
1000
MTEXTEND
  0
POINT
  5
233BA
330
22E97
100
AcDbEntity
  8
DEFPOINTS
 62
     0
 48
50.0
100
AcDbPoint
 10
9588.207011870236
 20
1464.226218645135
 30
0.0
  0
POINT
  5
233BB
330
22E97
100
AcDbEntity
  8
DEFPOINTS
 62
     0
 48
50.0
100
AcDbPoint
 10
9569.457011870236
 20
1466.726218645137
 30
0.0
  0
POINT
  5
233BC
330
22E97
100
AcDbEntity
  8
DEFPOINTS
 62
     0
 48
50.0
100
AcDbPoint
 10
9005.682731468274
 20
1466.726218645137
 30
0.0
  0
ENDBLK
  5
22EA4
330
22E97
100
AcDbEntity
  8
0
 48
50.0
100
AcDbBlockEnd
  0
BLOCK
  5
22EBD
330
22EB1
100
AcDbEntity
  8
0
 48
50.0
100
AcDbBlockBegin
  2
*D52
 70
     1
 10
0.0
 20
0.0
 30
0.0
  3
*D52
  1

  0
LINE
  5
233BD
330
22EB1
100
AcDbEntity
  8
寸法
 62
     0
 48
50.0
370
    -2
100
AcDbLine
 10
9563.207011870238
 20
1326.726218645135
 30
0.0
 11
8970.682731468274
 21
1326.726218645135
 31
0.0
  0
LINE
  5
233BE
330
22EB1
100
AcDbEntity
  8
寸法
 62
     0
 48
50.0
370
    -2
100
AcDbLine
 10
9696.957011870237
 20
1314.226218645137
 30
0.0
 11
8970.682731468274
 21
1314.226218645137
 31
0.0
  0
LINE
  5
233BF
330
22EB1
100
AcDbEntity
  8
寸法
 62
     0
 48
50.0
370
    -2
100
AcDbLine
 10
9005.682731468274
 20
1326.726218645135
 30
0.0
 11
9005.682731468274
 21
1451.726218645135
 31
0.0
  0
LINE
  5
233C0
330
22EB1
100
AcDbEntity
  8
寸法
 62
     0
 48
50.0
370
    -2
100
AcDbLine
 10
9005.682731468274
 20
1314.226218645137
 30
0.0
 11
9005.682731468274
 21
948.0130152095403
 31
0.0
  0
LINE
  5
233C1
330
22EB1
100
AcDbEntity
  8
寸法
 62
     0
 48
50.0
370
    -2
100
AcDbLine
 10
9005.682731468274
 20
1326.726218645135
 30
0.0
 11
9005.682731468274
 21
1314.226218645137
 31
0.0
  0
INSERT
  5
233C2
330
22EB1
100
AcDbEntity
  8
寸法
 62
     0
 48
50.0
370
    -2
100
AcDbBlockReference
  2
_DOTSMALL
 10
9005.682731468274
 20
1326.726218645135
 30
0.0
 41
125.0
 42
125.0
 43
125.0
 50
270.0
  0
INSERT
  5
233C3
330
22EB1
100
AcDbEntity
  8
寸法
 62
     0
 48
50.0
370
    -2
100
AcDbBlockReference
  2
_DOTSMALL
 10
9005.682731468274
 20
1314.226218645137
 30
0.0
 41
125.0
 42
125.0
 43
125.0
 50
90.0
  0
MTEXT
  5
233C4
330
22EB1
100
AcDbEntity
  8
寸法
 62
     7
 48
50.0
100
AcDbMText
 10
8905.682731468274
 20
1006.11961692734
 30
0.0
 40
150.0
 41
0.0
 71
     5
 72
     1
  1
\A1;5
  7
STYLE1
 11
0.0000000000000001
 21
1.0
 31
0.0
 73
     1
 44
1.0
1001
ACAD
1000
MTEXTBEGIN
1070
    73
1070
     1
1070
    44
1040
1.0
1070
    74
1070
     0
1000
MTEXTEND
  0
POINT
  5
233C5
330
22EB1
100
AcDbEntity
  8
DEFPOINTS
 62
     0
 48
50.0
100
AcDbPoint
 10
9588.207011870236
 20
1326.726218645135
 30
0.0
  0
POINT
  5
233C6
330
22EB1
100
AcDbEntity
  8
DEFPOINTS
 62
     0
 48
50.0
100
AcDbPoint
 10
9721.957011870237
 20
1314.226218645137
 30
0.0
  0
POINT
  5
233C7
330
22EB1
100
AcDbEntity
  8
DEFPOINTS
 62
     0
 48
50.0
100
AcDbPoint
 10
9005.682731468274
 20
1314.226218645137
 30
0.0
  0
ENDBLK
  5
22EBE
330
22EB1
100
AcDbEntity
  8
0
 48
50.0
100
AcDbBlockEnd
  0
BLOCK
  5
230E4
330
230D9
100
AcDbEntity
  8
0
 48
50.0
100
AcDbBlockBegin
  2
*D53
 70
     1
 10
0.0
 20
0.0
 30
0.0
  3
*D53
  1

  0
LINE
  5
233A8
330
230D9
100
AcDbEntity
  8
寸法
 62
     0
 48
50.0
370
    -2
100
AcDbLine
 10
9746.957011870234
 20
1466.726218645137
 30
0.0
 11
10142.57448829355
 21
1466.726218645137
 31
0.0
  0
LINE
  5
233A9
330
230D9
100
AcDbEntity
  8
寸法
 62
     0
 48
50.0
370
    -2
100
AcDbLine
 10
9746.957011870234
 20
1314.226218645137
 30
0.0
 11
10142.57448829355
 21
1314.226218645137
 31
0.0
  0
LINE
  5
233AA
330
230D9
100
AcDbEntity
  8
寸法
 62
     0
 48
50.0
370
    -2
100
AcDbLine
 10
10107.57448829355
 20
1314.226218645137
 30
0.0
 11
10107.57448829355
 21
1466.726218645137
 31
0.0
  0
LINE
  5
233AB
330
230D9
100
AcDbEntity
  8
寸法
 62
     0
 48
50.0
370
    -2
100
AcDbLine
 10
10107.57448829355
 20
1466.726218645137
 30
0.0
 11
10107.57448829355
 21
1979.512685882871
 31
0.0
  0
INSERT
  5
233AC
330
230D9
100
AcDbEntity
  8
寸法
 62
     0
 48
50.0
370
    -2
100
AcDbBlockReference
  2
_DOTSMALL
 10
10107.57448829355
 20
1314.226218645137
 30
0.0
 41
125.0
 42
125.0
 43
125.0
 50
270.0
  0
INSERT
  5
233AD
330
230D9
100
AcDbEntity
  8
寸法
 62
     0
 48
50.0
370
    -2
100
AcDbBlockReference
  2
_DOTSMALL
 10
10107.57448829355
 20
1466.726218645137
 30
0.0
 41
125.0
 42
125.0
 43
125.0
 50
90.0
  0
MTEXT
  5
233AE
330
230D9
100
AcDbEntity
  8
寸法
 62
     7
 48
50.0
100
AcDbMText
 10
10007.57448829355
 20
1882.524496906495
 30
0.0
 40
150.0
 41
0.0
 71
     5
 72
     1
  1
\A1;61
  7
STYLE1
 11
0.0000000000000001
 21
1.0
 31
0.0
 73
     1
 44
1.0
1001
ACAD
1000
MTEXTBEGIN
1070
    73
1070
     1
1070
    44
1040
1.0
1070
    74
1070
     0
1000
MTEXTEND
  0
POINT
  5
233AF
330
230D9
100
AcDbEntity
  8
DEFPOINTS
 62
     0
 48
50.0
100
AcDbPoint
 10
9721.957011870234
 20
1466.726218645137
 30
0.0
  0
POINT
  5
233B0
330
230D9
100
AcDbEntity
  8
DEFPOINTS
 62
     0
 48
50.0
100
AcDbPoint
 10
9721.957011870234
 20
1314.226218645137
 30
0.0
  0
POINT
  5
233B1
330
230D9
100
AcDbEntity
  8
DEFPOINTS
 62
     0
 48
50.0
100
AcDbPoint
 10
10107.57448829355
 20
1314.226218645137
 30
0.0
  0
ENDBLK
  5
230E5
330
230D9
100
AcDbEntity
  8
0
 48
50.0
100
AcDbBlockEnd
  0
BLOCK
  5
23106
330
230FB
100
AcDbEntity
  8
0
 48
50.0
100
AcDbBlockBegin
  2
*D54
 70
     1
 10
0.0
 20
0.0
 30
0.0
  3
*D54
  1

  0
LINE
  5
233D1
330
230FB
100
AcDbEntity
  8
寸法
 62
     0
 48
50.0
370
    -2
100
AcDbLine
 10
9569.457011870236
 20
1441.726218645137
 30
0.0
 11
9569.457011870236
 21
524.763275934165
 31
0.0
  0
LINE
  5
233D2
330
230FB
100
AcDbEntity
  8
寸法
 62
     0
 48
50.0
370
    -2
100
AcDbLine
 10
9721.957011870234
 20
1289.226218645137
 30
0.0
 11
9721.957011870234
 21
524.763275934165
 31
0.0
  0
LINE
  5
233D3
330
230FB
100
AcDbEntity
  8
寸法
 62
     0
 48
50.0
370
    -2
100
AcDbLine
 10
9569.457011870236
 20
559.7632759341649
 30
0.0
 11
9721.957011870234
 21
559.7632759341649
 31
0.0
  0
LINE
  5
233D4
330
230FB
100
AcDbEntity
  8
寸法
 62
     0
 48
50.0
370
    -2
100
AcDbLine
 10
9721.957011870234
 20
559.7632759341649
 30
0.0
 11
10040.93338982299
 21
559.7632759341649
 31
0.0
  0
INSERT
  5
233D5
330
230FB
100
AcDbEntity
  8
寸法
 62
     0
 48
50.0
370
    -2
100
AcDbBlockReference
  2
_DOTSMALL
 10
9569.457011870236
 20
559.7632759341649
 30
0.0
 41
125.0
 42
125.0
 43
125.0
 50
180.0
  0
INSERT
  5
233D6
330
230FB
100
AcDbEntity
  8
寸法
 62
     0
 48
50.0
370
    -2
100
AcDbBlockReference
  2
_DOTSMALL
 10
9721.957011870234
 20
559.7632759341649
 30
0.0
 41
125.0
 42
125.0
 43
125.0
  0
MTEXT
  5
233D7
330
230FB
100
AcDbEntity
  8
寸法
 62
     7
 48
50.0
100
AcDbMText
 10
9943.945200846613
 20
659.7632759341649
 30
0.0
 40
150.0
 41
0.0
 71
     5
 72
     1
  1
\A1;61
  7
STYLE1
 73
     1
 44
1.0
1001
ACAD
1000
MTEXTBEGIN
1070
    73
1070
     1
1070
    44
1040
1.0
1070
    74
1070
     0
1000
MTEXTEND
  0
POINT
  5
233D8
330
230FB
100
AcDbEntity
  8
DEFPOINTS
 62
     0
 48
50.0
100
AcDbPoint
 10
9569.457011870236
 20
1466.726218645137
 30
0.0
  0
POINT
  5
233D9
330
230FB
100
AcDbEntity
  8
DEFPOINTS
 62
     0
 48
50.0
100
AcDbPoint
 10
9721.957011870234
 20
1314.226218645137
 30
0.0
  0
POINT
  5
233DA
330
230FB
100
AcDbEntity
  8
DEFPOINTS
 62
     0
 48
50.0
100
AcDbPoint
 10
9721.957011870234
 20
559.7632759341649
 30
0.0
  0
ENDBLK
  5
23107
330
230FB
100
AcDbEntity
  8
0
 48
50.0
100
AcDbBlockEnd
  0
BLOCK
  5
23114
330
2310A
100
AcDbEntity
  8
0
 48
50.0
100
AcDbBlockBegin
  2
*D55
 70
     1
 10
0.0
 20
0.0
 30
0.0
  3
*D55
  1

  0
LINE
  5
234F4
330
2310A
100
AcDbEntity
  8
寸法
 62
     0
 48
50.0
370
    -2
100
AcDbLine
 10
13728.54968699118
 20
739.2262186451371
 30
0.0
 11
13498.27230808204
 21
739.2262186451372
 31
0.0
  0
LINE
  5
234F5
330
2310A
100
AcDbEntity
  8
寸法
 62
     0
 48
50.0
370
    -2
100
AcDbLine
 10
13728.54968699118
 20
1314.226218645137
 30
0.0
 11
13498.27230808204
 21
1314.226218645137
 31
0.0
  0
LINE
  5
234F6
330
2310A
100
AcDbEntity
  8
寸法
 62
     0
 48
50.0
370
    -2
100
AcDbLine
 10
13533.27230808204
 20
739.2262186451372
 30
0.0
 11
13533.27230808204
 21
1314.226218645137
 31
0.0
  0
INSERT
  5
234F7
330
2310A
100
AcDbEntity
  8
寸法
 62
     0
 48
50.0
370
    -2
100
AcDbBlockReference
  2
_DOTSMALL
 10
13533.27230808204
 20
739.2262186451372
 30
0.0
 41
125.0
 42
125.0
 43
125.0
 50
270.0
  0
INSERT
  5
234F8
330
2310A
100
AcDbEntity
  8
寸法
 62
     0
 48
50.0
370
    -2
100
AcDbBlockReference
  2
_DOTSMALL
 10
13533.27230808204
 20
1314.226218645137
 30
0.0
 41
125.0
 42
125.0
 43
125.0
 50
90.0
  0
MTEXT
  5
234F9
330
2310A
100
AcDbEntity
  8
寸法
 62
     7
 48
50.0
100
AcDbMText
 10
13433.25754430251
 20
1026.726218645139
 30
0.0
 40
150.0
 41
0.0
 71
     5
 72
     1
  1
\A1;230
  7
STYLE1
 11
0.0000000000000001
 21
1.0
 31
0.0
 73
     1
 44
1.0
1001
ACAD
1000
MTEXTBEGIN
1070
    73
1070
     1
1070
    44
1040
1.0
1070
    74
1070
     0
1000
MTEXTEND
  0
POINT
  5
234FA
330
2310A
100
AcDbEntity
  8
DEFPOINTS
 62
     0
 48
50.0
100
AcDbPoint
 10
13753.54968699118
 20
739.2262186451371
 30
0.0
  0
POINT
  5
234FB
330
2310A
100
AcDbEntity
  8
DEFPOINTS
 62
     0
 48
50.0
100
AcDbPoint
 10
13753.54968699118
 20
1314.226218645137
 30
0.0
  0
POINT
  5
234FC
330
2310A
100
AcDbEntity
  8
DEFPOINTS
 62
     0
 48
50.0
100
AcDbPoint
 10
13533.27230808204
 20
1314.226218645137
 30
0.0
  0
ENDBLK
  5
23115
330
2310A
100
AcDbEntity
  8
0
 48
50.0
100
AcDbBlockEnd
  0
BLOCK
  5
23121
330
23117
100
AcDbEntity
  8
0
 48
50.0
100
AcDbBlockBegin
  2
*D56
 70
     1
 10
0.0
 20
0.0
 30
0.0
  3
*D56
  1

  0
LINE
  5
234FD
330
23117
100
AcDbEntity
  8
寸法
 62
     0
 48
50.0
370
    -2
100
AcDbLine
 10
13753.54968699118
 20
714.2262186451371
 30
0.0
 11
13753.54968699118
 21
469.9507237507059
 31
0.0
  0
LINE
  5
234FE
330
23117
100
AcDbEntity
  8
寸法
 62
     0
 48
50.0
370
    -2
100
AcDbLine
 10
14753.54968699118
 20
714.2262186451371
 30
0.0
 11
14753.54968699118
 21
469.9507237507059
 31
0.0
  0
LINE
  5
234FF
330
23117
100
AcDbEntity
  8
寸法
 62
     0
 48
50.0
370
    -2
100
AcDbLine
 10
13753.54968699118
 20
504.9507237507059
 30
0.0
 11
14753.54968699118
 21
504.9507237507059
 31
0.0
  0
INSERT
  5
23500
330
23117
100
AcDbEntity
  8
寸法
 62
     0
 48
50.0
370
    -2
100
AcDbBlockReference
  2
_DOTSMALL
 10
13753.54968699118
 20
504.9507237507059
 30
0.0
 41
125.0
 42
125.0
 43
125.0
 50
180.0
  0
INSERT
  5
23501
330
23117
100
AcDbEntity
  8
寸法
 62
     0
 48
50.0
370
    -2
100
AcDbBlockReference
  2
_DOTSMALL
 10
14753.54968699118
 20
504.9507237507059
 30
0.0
 41
125.0
 42
125.0
 43
125.0
  0
MTEXT
  5
23502
330
23117
100
AcDbEntity
  8
寸法
 62
     7
 48
50.0
100
AcDbMText
 10
14253.54968699118
 20
604.9507237507059
 30
0.0
 40
150.0
 41
0.0
 71
     5
 72
     1
  1
\A1;400穴
  7
STYLE1
 73
     1
 44
1.0
1001
ACAD
1000
MTEXTBEGIN
1070
    73
1070
     1
1070
    44
1040
1.0
1070
    74
1070
     0
1000
MTEXTEND
  0
POINT
  5
23503
330
23117
100
AcDbEntity
  8
DEFPOINTS
 62
     0
 48
50.0
100
AcDbPoint
 10
13753.54968699118
 20
739.2262186451371
 30
0.0
  0
POINT
  5
23504
330
23117
100
AcDbEntity
  8
DEFPOINTS
 62
     0
 48
50.0
100
AcDbPoint
 10
14753.54968699118
 20
739.2262186451371
 30
0.0
  0
POINT
  5
23505
330
23117
100
AcDbEntity
  8
DEFPOINTS
 62
     0
 48
50.0
100
AcDbPoint
 10
14753.54968699118
 20
504.9507237507059
 30
0.0
  0
ENDBLK
  5
23122
330
23117
100
AcDbEntity
  8
0
 48
50.0
100
AcDbBlockEnd
  0
BLOCK
  5
2316E
330
23163
100
AcDbEntity
  8
0
 48
50.0
100
AcDbBlockBegin
  2
*D57
 70
     1
 10
0.0
 20
0.0
 30
0.0
  3
*D57
  1

  0
LINE
  5
234BD
330
23163
100
AcDbEntity
  8
寸法
 62
     0
 48
50.0
370
    -2
100
AcDbLine
 10
14541.04968699119
 20
1314.226218645137
 30
0.0
 11
15073.01817639508
 21
1314.226218645137
 31
0.0
  0
LINE
  5
234BE
330
23163
100
AcDbEntity
  8
寸法
 62
     0
 48
50.0
370
    -2
100
AcDbLine
 10
14541.04968699119
 20
1466.726218645137
 30
0.0
 11
15073.01817639508
 21
1466.726218645137
 31
0.0
  0
LINE
  5
234BF
330
23163
100
AcDbEntity
  8
寸法
 62
     0
 48
50.0
370
    -2
100
AcDbLine
 10
15038.01817639508
 20
1466.726218645137
 30
0.0
 11
15038.01817639508
 21
1314.226218645137
 31
0.0
  0
LINE
  5
234C0
330
23163
100
AcDbEntity
  8
寸法
 62
     0
 48
50.0
370
    -2
100
AcDbLine
 10
15038.01817639508
 20
1314.226218645137
 30
0.0
 11
15038.01817639508
 21
995.2498406923808
 31
0.0
  0
INSERT
  5
234C1
330
23163
100
AcDbEntity
  8
寸法
 62
     0
 48
50.0
370
    -2
100
AcDbBlockReference
  2
_DOTSMALL
 10
15038.01817639508
 20
1466.726218645137
 30
0.0
 41
125.0
 42
125.0
 43
125.0
 50
90.0
  0
INSERT
  5
234C2
330
23163
100
AcDbEntity
  8
寸法
 62
     0
 48
50.0
370
    -2
100
AcDbBlockReference
  2
_DOTSMALL
 10
15038.01817639508
 20
1314.226218645137
 30
0.0
 41
125.0
 42
125.0
 43
125.0
 50
270.0
  0
MTEXT
  5
234C3
330
23163
100
AcDbEntity
  8
寸法
 62
     7
 48
50.0
100
AcDbMText
 10
14938.01817639508
 20
1092.238029668761
 30
0.0
 40
150.0
 41
0.0
 71
     5
 72
     1
  1
\A1;61
  7
STYLE1
 11
0.0000000000000001
 21
1.0
 31
0.0
 73
     1
 44
1.0
1001
ACAD
1000
MTEXTBEGIN
1070
    73
1070
     1
1070
    44
1040
1.0
1070
    74
1070
     0
1000
MTEXTEND
  0
POINT
  5
234C4
330
23163
100
AcDbEntity
  8
DEFPOINTS
 62
     0
 48
50.0
100
AcDbPoint
 10
14516.04968699118
 20
1314.226218645137
 30
0.0
  0
POINT
  5
234C5
330
23163
100
AcDbEntity
  8
DEFPOINTS
 62
     0
 48
50.0
100
AcDbPoint
 10
14516.04968699118
 20
1466.726218645137
 30
0.0
  0
POINT
  5
234C6
330
23163
100
AcDbEntity
  8
DEFPOINTS
 62
     0
 48
50.0
100
AcDbPoint
 10
15038.01817639508
 20
1466.726218645137
 30
0.0
  0
ENDBLK
  5
2316F
330
23163
100
AcDbEntity
  8
0
 48
50.0
100
AcDbBlockEnd
  0
BLOCK
  5
2319C
330
23192
100
AcDbEntity
  8
0
 48
50.0
100
AcDbBlockBegin
  2
*D58
 70
     1
 10
0.0
 20
0.0
 30
0.0
  3
*D58
  1

  0
LINE
  5
234E2
330
23192
100
AcDbEntity
  8
寸法
 62
     0
 48
50.0
370
    -2
100
AcDbLine
 10
14516.04968699118
 20
1491.726218645137
 30
0.0
 11
14516.04968699118
 21
2156.166199109808
 31
0.0
  0
LINE
  5
234E3
330
23192
100
AcDbEntity
  8
寸法
 62
     0
 48
50.0
370
    -2
100
AcDbLine
 10
13991.04968699118
 20
1491.726218645149
 30
0.0
 11
13991.04968699118
 21
2156.166199109808
 31
0.0
  0
LINE
  5
234E4
330
23192
100
AcDbEntity
  8
寸法
 62
     0
 48
50.0
370
    -2
100
AcDbLine
 10
14516.04968699118
 20
2121.166199109808
 30
0.0
 11
13991.04968699118
 21
2121.166199109808
 31
0.0
  0
INSERT
  5
234E5
330
23192
100
AcDbEntity
  8
寸法
 62
     0
 48
50.0
370
    -2
100
AcDbBlockReference
  2
_DOTSMALL
 10
14516.04968699118
 20
2121.166199109808
 30
0.0
 41
125.0
 42
125.0
 43
125.0
  0
INSERT
  5
234E6
330
23192
100
AcDbEntity
  8
寸法
 62
     0
 48
50.0
370
    -2
100
AcDbBlockReference
  2
_DOTSMALL
 10
13991.04968699118
 20
2121.166199109808
 30
0.0
 41
125.0
 42
125.0
 43
125.0
 50
180.0
  0
MTEXT
  5
234E7
330
23192
100
AcDbEntity
  8
寸法
 62
     7
 48
50.0
100
AcDbMText
 10
14253.54968699118
 20
2221.180962889336
 30
0.0
 40
150.0
 41
0.0
 71
     5
 72
     1
  1
\A1;210
  7
STYLE1
 73
     1
 44
1.0
1001
ACAD
1000
MTEXTBEGIN
1070
    73
1070
     1
1070
    44
1040
1.0
1070
    74
1070
     0
1000
MTEXTEND
  0
POINT
  5
234E8
330
23192
100
AcDbEntity
  8
DEFPOINTS
 62
     0
 48
50.0
100
AcDbPoint
 10
14516.04968699118
 20
1466.726218645137
 30
0.0
  0
POINT
  5
234E9
330
23192
100
AcDbEntity
  8
DEFPOINTS
 62
     0
 48
50.0
100
AcDbPoint
 10
13991.04968699118
 20
1466.726218645149
 30
0.0
  0
POINT
  5
234EA
330
23192
100
AcDbEntity
  8
DEFPOINTS
 62
     0
 48
50.0
100
AcDbPoint
 10
13991.04968699118
 20
2121.166199109808
 30
0.0
  0
ENDBLK
  5
2319D
330
23192
100
AcDbEntity
  8
0
 48
50.0
100
AcDbBlockEnd
  0
BLOCK
  5
23497
330
2348D
100
AcDbEntity
  8
0
 48
50.0
100
AcDbBlockBegin
  2
*D59
 70
     1
 10
0.0
 20
0.0
 30
0.0
  3
*D59
  1

  0
LINE
  5
234D0
330
2348D
100
AcDbEntity
  8
寸法
 62
     0
 48
50.0
370
    -2
100
AcDbLine
 10
13603.54968699119
 20
3747.83909079706
 30
0.0
 11
13407.12938787052
 21
3747.83909079706
 31
0.0
  0
LINE
  5
234D1
330
2348D
100
AcDbEntity
  8
寸法
 62
     0
 48
50.0
370
    -2
100
AcDbLine
 10
13456.49420334603
 20
4497.83909079706
 30
0.0
 11
13407.12938787052
 21
4497.83909079706
 31
0.0
  0
LINE
  5
234D2
330
2348D
100
AcDbEntity
  8
寸法
 62
     0
 48
50.0
370
    -2
100
AcDbLine
 10
13442.12938787052
 20
3747.83909079706
 30
0.0
 11
13442.12938787052
 21
4497.83909079706
 31
0.0
  0
INSERT
  5
234D3
330
2348D
100
AcDbEntity
  8
寸法
 62
     0
 48
50.0
370
    -2
100
AcDbBlockReference
  2
_DOTSMALL
 10
13442.12938787052
 20
3747.83909079706
 30
0.0
 41
125.0
 42
125.0
 43
125.0
 50
270.0
  0
INSERT
  5
234D4
330
2348D
100
AcDbEntity
  8
寸法
 62
     0
 48
50.0
370
    -2
100
AcDbBlockReference
  2
_DOTSMALL
 10
13442.12938787052
 20
4497.83909079706
 30
0.0
 41
125.0
 42
125.0
 43
125.0
 50
90.0
  0
MTEXT
  5
234D5
330
2348D
100
AcDbEntity
  8
寸法
 62
     7
 48
50.0
100
AcDbMText
 10
13342.12938787052
 20
4178.395020035357
 30
0.0
 40
150.0
 41
0.0
 71
     5
 72
     1
  1
\A1;300
  7
STYLE1
 11
0.0000000000000001
 21
1.0
 31
0.0
 73
     1
 44
1.0
1001
ACAD
1000
MTEXTBEGIN
1070
    73
1070
     1
1070
    44
1040
1.0
1070
    74
1070
     0
1000
MTEXTEND
  0
POINT
  5
234D6
330
2348D
100
AcDbEntity
  8
DEFPOINTS
 62
     0
 48
50.0
100
AcDbPoint
 10
13628.54968699119
 20
3747.83909079706
 30
0.0
  0
POINT
  5
234D7
330
2348D
100
AcDbEntity
  8
DEFPOINTS
 62
     0
 48
50.0
100
AcDbPoint
 10
13481.49420334603
 20
4497.83909079706
 30
0.0
  0
POINT
  5
234D8
330
2348D
100
AcDbEntity
  8
DEFPOINTS
 62
     0
 48
50.0
100
AcDbPoint
 10
13442.12938787052
 20
4497.83909079706
 30
0.0
  0
ENDBLK
  5
23498
330
2348D
100
AcDbEntity
  8
0
 48
50.0
100
AcDbBlockEnd
  0
BLOCK
  5
23520
330
23516
100
AcDbEntity
  8
0
 48
50.0
100
AcDbBlockBegin
  2
*D60
 70
     1
 10
0.0
 20
0.0
 30
0.0
  3
*D60
  1

  0
LINE
  5
23517
330
23516
100
AcDbEntity
  8
寸法
 62
     0
 48
50.0
370
    -2
100
AcDbLine
 10
10518.38854530347
 20
1739.226218645137
 30
0.0
 11
10879.28634880716
 21
1739.226218645137
 31
0.0
  0
LINE
  5
23518
330
23516
100
AcDbEntity
  8
寸法
 62
     0
 48
50.0
370
    -2
100
AcDbLine
 10
10578.88266470749
 20
1314.226218645137
 30
0.0
 11
10879.28634880716
 21
1314.226218645137
 31
0.0
  0
LINE
  5
23519
330
23516
100
AcDbEntity
  8
寸法
 62
     0
 48
50.0
370
    -2
100
AcDbLine
 10
10844.28634880716
 20
1739.226218645137
 30
0.0
 11
10844.28634880716
 21
1314.226218645137
 31
0.0
  0
INSERT
  5
2351A
330
23516
100
AcDbEntity
  8
寸法
 62
     0
 48
50.0
370
    -2
100
AcDbBlockReference
  2
_DOTSMALL
 10
10844.28634880716
 20
1739.226218645137
 30
0.0
 41
125.0
 42
125.0
 43
125.0
 50
90.0
  0
INSERT
  5
2351B
330
23516
100
AcDbEntity
  8
寸法
 62
     0
 48
50.0
370
    -2
100
AcDbBlockReference
  2
_DOTSMALL
 10
10844.28634880716
 20
1314.226218645137
 30
0.0
 41
125.0
 42
125.0
 43
125.0
 50
270.0
  0
MTEXT
  5
2351C
330
23516
100
AcDbEntity
  8
寸法
 62
     7
 48
50.0
100
AcDbMText
 10
10744.28634880716
 20
1526.726218645139
 30
0.0
 40
150.0
 41
0.0
 71
     5
 72
     1
  1
\A1;170
  7
STYLE1
 11
0.0000000000000001
 21
1.0
 31
0.0
 73
     1
 44
1.0
1001
ACAD
1000
MTEXTBEGIN
1070
    73
1070
     1
1070
    44
1040
1.0
1070
    74
1070
     0
1000
MTEXTEND
  0
POINT
  5
2351D
330
23516
100
AcDbEntity
  8
DEFPOINTS
 62
     0
 48
50.0
100
AcDbPoint
 10
10493.38854530347
 20
1739.226218645137
 30
0.0
  0
POINT
  5
2351E
330
23516
100
AcDbEntity
  8
DEFPOINTS
 62
     0
 48
50.0
100
AcDbPoint
 10
10553.88266470749
 20
1314.226218645137
 30
0.0
  0
POINT
  5
2351F
330
23516
100
AcDbEntity
  8
DEFPOINTS
 62
     0
 48
50.0
100
AcDbPoint
 10
10844.28634880716
 20
1314.226218645137
 30
0.0
  0
ENDBLK
  5
23521
330
23516
100
AcDbEntity
  8
0
 48
50.0
100
AcDbBlockEnd
  0
BLOCK
  5
2352D
330
23523
100
AcDbEntity
  8
0
 48
50.0
100
AcDbBlockBegin
  2
*D61
 70
     1
 10
0.0
 20
0.0
 30
0.0
  3
*D61
  1

  0
LINE
  5
23524
330
23523
100
AcDbEntity
  8
寸法
 62
     0
 48
50.0
370
    -2
100
AcDbLine
 10
13277.76614531827
 20
1314.226218645137
 30
0.0
 11
13022.74858729652
 21
1314.226218645137
 31
0.0
  0
LINE
  5
23525
330
23523
100
AcDbEntity
  8
寸法
 62
     0
 48
50.0
370
    -2
100
AcDbLine
 10
13218.55512520059
 20
1739.226218645137
 30
0.0
 11
13022.74858729652
 21
1739.226218645137
 31
0.0
  0
LINE
  5
23526
330
23523
100
AcDbEntity
  8
寸法
 62
     0
 48
50.0
370
    -2
100
AcDbLine
 10
13057.74858729652
 20
1314.226218645137
 30
0.0
 11
13057.74858729652
 21
1739.226218645137
 31
0.0
  0
INSERT
  5
23527
330
23523
100
AcDbEntity
  8
寸法
 62
     0
 48
50.0
370
    -2
100
AcDbBlockReference
  2
_DOTSMALL
 10
13057.74858729652
 20
1314.226218645137
 30
0.0
 41
125.0
 42
125.0
 43
125.0
 50
270.0
  0
INSERT
  5
23528
330
23523
100
AcDbEntity
  8
寸法
 62
     0
 48
50.0
370
    -2
100
AcDbBlockReference
  2
_DOTSMALL
 10
13057.74858729652
 20
1739.226218645137
 30
0.0
 41
125.0
 42
125.0
 43
125.0
 50
90.0
  0
MTEXT
  5
23529
330
23523
100
AcDbEntity
  8
寸法
 62
     7
 48
50.0
100
AcDbMText
 10
12957.74858729652
 20
1526.726218645139
 30
0.0
 40
150.0
 41
0.0
 71
     5
 72
     1
  1
\A1;170
  7
STYLE1
 11
0.0000000000000001
 21
1.0
 31
0.0
 73
     1
 44
1.0
1001
ACAD
1000
MTEXTBEGIN
1070
    73
1070
     1
1070
    44
1040
1.0
1070
    74
1070
     0
1000
MTEXTEND
  0
POINT
  5
2352A
330
23523
100
AcDbEntity
  8
DEFPOINTS
 62
     0
 48
50.0
100
AcDbPoint
 10
13302.76614531826
 20
1314.226218645137
 30
0.0
  0
POINT
  5
2352B
330
23523
100
AcDbEntity
  8
DEFPOINTS
 62
     0
 48
50.0
100
AcDbPoint
 10
13243.55512520059
 20
1739.226218645137
 30
0.0
  0
POINT
  5
2352C
330
23523
100
AcDbEntity
  8
DEFPOINTS
 62
     0
 48
50.0
100
AcDbPoint
 10
13057.74858729652
 20
1739.226218645137
 30
0.0
  0
ENDBLK
  5
2352E
330
23523
100
AcDbEntity
  8
0
 48
50.0
100
AcDbBlockEnd
  0
BLOCK
  5
23721
330
23717
100
AcDbEntity
  8
0
 48
50.0
100
AcDbBlockBegin
  2
*D62
 70
     1
 10
0.0
 20
0.0
 30
0.0
  3
*D62
  1

  0
LINE
  5
25344
330
23717
100
AcDbEntity
  8
寸法
 62
     0
 48
50.0
370
    -2
100
AcDbLine
 10
10209.5
 20
10424.99999999999
 30
0.0
 11
10209.5
 21
11393.58135479056
 31
0.0
  0
LINE
  5
25345
330
23717
100
AcDbEntity
  8
寸法
 62
     0
 48
50.0
370
    -2
100
AcDbLine
 10
12839.5
 20
10424.99999999999
 30
0.0
 11
12839.5
 21
11393.58135479056
 31
0.0
  0
LINE
  5
25346
330
23717
100
AcDbEntity
  8
寸法
 62
     0
 48
50.0
370
    -2
100
AcDbLine
 10
10209.5
 20
11318.58135479056
 30
0.0
 11
12839.5
 21
11318.58135479056
 31
0.0
  0
INSERT
  5
25347
330
23717
100
AcDbEntity
  8
寸法
 62
     0
 48
50.0
370
    -2
100
AcDbBlockReference
  2
_DOTSMALL
 10
10209.5
 20
11318.58135479056
 30
0.0
 41
125.0
 42
125.0
 43
125.0
 50
180.0
  0
INSERT
  5
25348
330
23717
100
AcDbEntity
  8
寸法
 62
     0
 48
50.0
370
    -2
100
AcDbBlockReference
  2
_DOTSMALL
 10
12839.5
 20
11318.58135479056
 30
0.0
 41
125.0
 42
125.0
 43
125.0
  0
MTEXT
  5
25349
330
23717
100
AcDbEntity
  8
寸法
 62
     7
 48
50.0
100
AcDbMText
 10
11524.5
 20
11418.59611857009
 30
0.0
 40
150.0
 41
0.0
 71
     5
 72
     1
  1
\A1;2630
  7
STYLE1
 73
     1
 44
1.0
1001
ACAD
1000
MTEXTBEGIN
1070
    73
1070
     1
1070
    44
1040
1.0
1070
    74
1070
     0
1000
MTEXTEND
  0
POINT
  5
2534A
330
23717
100
AcDbEntity
  8
DEFPOINTS
 62
     0
 48
50.0
100
AcDbPoint
 10
10209.5
 20
10399.99999999999
 30
0.0
  0
POINT
  5
2534B
330
23717
100
AcDbEntity
  8
DEFPOINTS
 62
     0
 48
50.0
100
AcDbPoint
 10
12839.5
 20
10399.99999999999
 30
0.0
  0
POINT
  5
2534C
330
23717
100
AcDbEntity
  8
DEFPOINTS
 62
     0
 48
50.0
100
AcDbPoint
 10
12839.5
 20
11318.58135479056
 30
0.0
  0
ENDBLK
  5
23722
330
23717
100
AcDbEntity
  8
0
 48
50.0
100
AcDbBlockEnd
  0
BLOCK
  5
2372D
330
23723
100
AcDbEntity
  8
0
 48
50.0
100
AcDbBlockBegin
  2
*D63
 70
     1
 10
0.0
 20
0.0
 30
0.0
  3
*D63
  1

  0
LINE
  5
25329
330
23723
100
AcDbEntity
  8
寸法
 62
     0
 48
50.0
370
    -2
100
AcDbLine
 10
12853.5
 20
8106.4504228966
 30
0.0
 11
12853.5
 21
6999.404554952453
 31
0.0
  0
LINE
  5
2532A
330
23723
100
AcDbEntity
  8
寸法
 62
     0
 48
50.0
370
    -2
100
AcDbLine
 10
10384.5
 20
8026.288726084299
 30
0.0
 11
10384.5
 21
6999.404554952453
 31
0.0
  0
LINE
  5
2532B
330
23723
100
AcDbEntity
  8
寸法
 62
     0
 48
50.0
370
    -2
100
AcDbLine
 10
12853.5
 20
7074.404554952453
 30
0.0
 11
10384.5
 21
7074.404554952453
 31
0.0
  0
INSERT
  5
2532C
330
23723
100
AcDbEntity
  8
寸法
 62
     0
 48
50.0
370
    -2
100
AcDbBlockReference
  2
_DOTSMALL
 10
12853.5
 20
7074.404554952453
 30
0.0
 41
125.0
 42
125.0
 43
125.0
  0
INSERT
  5
2532D
330
23723
100
AcDbEntity
  8
寸法
 62
     0
 48
50.0
370
    -2
100
AcDbBlockReference
  2
_DOTSMALL
 10
10384.5
 20
7074.404554952453
 30
0.0
 41
125.0
 42
125.0
 43
125.0
 50
180.0
  0
MTEXT
  5
2532E
330
23723
100
AcDbEntity
  8
寸法
 62
     7
 48
50.0
100
AcDbMText
 10
11619.0
 20
7174.419318731979
 30
0.0
 40
150.0
 41
0.0
 71
     5
 72
     1
  1
\A1;2469
  7
STYLE1
 73
     1
 44
1.0
1001
ACAD
1000
MTEXTBEGIN
1070
    73
1070
     1
1070
    44
1040
1.0
1070
    74
1070
     0
1000
MTEXTEND
  0
POINT
  5
2532F
330
23723
100
AcDbEntity
  8
DEFPOINTS
 62
     0
 48
50.0
100
AcDbPoint
 10
12853.5
 20
8131.4504228966
 30
0.0
  0
POINT
  5
25330
330
23723
100
AcDbEntity
  8
DEFPOINTS
 62
     0
 48
50.0
100
AcDbPoint
 10
10384.5
 20
8051.288726084299
 30
0.0
  0
POINT
  5
25331
330
23723
100
AcDbEntity
  8
DEFPOINTS
 62
     0
 48
50.0
100
AcDbPoint
 10
10384.5
 20
7074.404554952453
 30
0.0
  0
ENDBLK
  5
2372E
330
23723
100
AcDbEntity
  8
0
 48
50.0
100
AcDbBlockEnd
  0
BLOCK
  5
23822
330
23818
100
AcDbEntity
  8
0
 48
50.0
100
AcDbBlockBegin
  2
*D64
 70
     1
 10
0.0
 20
0.0
 30
0.0
  3
*D64
  1

  0
LINE
  5
2533B
330
23818
100
AcDbEntity
  8
寸法
 62
     0
 48
50.0
370
    -2
100
AcDbLine
 10
12009.5
 20
9725.000000000001
 30
0.0
 11
12009.5
 21
9863.206426863662
 31
0.0
  0
LINE
  5
2533C
330
23818
100
AcDbEntity
  8
寸法
 62
     0
 48
50.0
370
    -2
100
AcDbLine
 10
11179.5
 20
9725.000000000001
 30
0.0
 11
11179.5
 21
9863.206426863662
 31
0.0
  0
LINE
  5
2533D
330
23818
100
AcDbEntity
  8
寸法
 62
     0
 48
50.0
370
    -2
100
AcDbLine
 10
12009.5
 20
9788.206426863661
 30
0.0
 11
11179.5
 21
9788.206426863661
 31
0.0
  0
INSERT
  5
2533E
330
23818
100
AcDbEntity
  8
寸法
 62
     0
 48
50.0
370
    -2
100
AcDbBlockReference
  2
_DOTSMALL
 10
12009.5
 20
9788.206426863661
 30
0.0
 41
125.0
 42
125.0
 43
125.0
  0
INSERT
  5
2533F
330
23818
100
AcDbEntity
  8
寸法
 62
     0
 48
50.0
370
    -2
100
AcDbBlockReference
  2
_DOTSMALL
 10
11179.5
 20
9788.206426863661
 30
0.0
 41
125.0
 42
125.0
 43
125.0
 50
180.0
  0
MTEXT
  5
25340
330
23818
100
AcDbEntity
  8
寸法
 62
     7
 48
50.0
100
AcDbMText
 10
11691.24726666848
 20
9888.206426863661
 30
0.0
 40
150.0
 41
0.0
 71
     5
 72
     1
  1
\A1;830
  7
STYLE1
 73
     1
 44
1.0
1001
ACAD
1000
MTEXTBEGIN
1070
    73
1070
     1
1070
    44
1040
1.0
1070
    74
1070
     0
1000
MTEXTEND
  0
POINT
  5
25341
330
23818
100
AcDbEntity
  8
DEFPOINTS
 62
     0
 48
50.0
100
AcDbPoint
 10
12009.5
 20
9700.000000000002
 30
0.0
  0
POINT
  5
25342
330
23818
100
AcDbEntity
  8
DEFPOINTS
 62
     0
 48
50.0
100
AcDbPoint
 10
11179.5
 20
9700.000000000002
 30
0.0
  0
POINT
  5
25343
330
23818
100
AcDbEntity
  8
DEFPOINTS
 62
     0
 48
50.0
100
AcDbPoint
 10
11179.5
 20
9788.206426863661
 30
0.0
  0
ENDBLK
  5
23823
330
23818
100
AcDbEntity
  8
0
 48
50.0
100
AcDbBlockEnd
  0
BLOCK
  5
2382E
330
23824
100
AcDbEntity
  8
0
 48
50.0
100
AcDbBlockBegin
  2
*D65
 70
     1
 10
0.0
 20
0.0
 30
0.0
  3
*D65
  1

  0
LINE
  5
253CE
330
23824
100
AcDbEntity
  8
寸法
 62
     0
 48
50.0
370
    -2
100
AcDbLine
 10
11179.5
 20
9725.000000000001
 30
0.0
 11
11179.5
 21
9863.206426863662
 31
0.0
  0
LINE
  5
253CF
330
23824
100
AcDbEntity
  8
寸法
 62
     0
 48
50.0
370
    -2
100
AcDbLine
 10
10279.50000000018
 20
9725.000000000001
 30
0.0
 11
10279.50000000018
 21
9863.206426863662
 31
0.0
  0
LINE
  5
253D0
330
23824
100
AcDbEntity
  8
寸法
 62
     0
 48
50.0
370
    -2
100
AcDbLine
 10
11179.5
 20
9788.206426863661
 30
0.0
 11
10279.50000000018
 21
9788.206426863661
 31
0.0
  0
INSERT
  5
253D1
330
23824
100
AcDbEntity
  8
寸法
 62
     0
 48
50.0
370
    -2
100
AcDbBlockReference
  2
_DOTSMALL
 10
11179.5
 20
9788.206426863661
 30
0.0
 41
125.0
 42
125.0
 43
125.0
  0
INSERT
  5
253D2
330
23824
100
AcDbEntity
  8
寸法
 62
     0
 48
50.0
370
    -2
100
AcDbBlockReference
  2
_DOTSMALL
 10
10279.50000000018
 20
9788.206426863661
 30
0.0
 41
125.0
 42
125.0
 43
125.0
 50
180.0
  0
MTEXT
  5
253D3
330
23824
100
AcDbEntity
  8
寸法
 62
     7
 48
50.0
100
AcDbMText
 10
10729.50000000009
 20
9888.206426863661
 30
0.0
 40
150.0
 41
0.0
 71
     5
 72
     1
  1
\A1;900
  7
STYLE1
 73
     1
 44
1.0
1001
ACAD
1000
MTEXTBEGIN
1070
    73
1070
     1
1070
    44
1040
1.0
1070
    74
1070
     0
1000
MTEXTEND
  0
POINT
  5
253D4
330
23824
100
AcDbEntity
  8
DEFPOINTS
 62
     0
 48
50.0
100
AcDbPoint
 10
11179.5
 20
9700.000000000002
 30
0.0
  0
POINT
  5
253D5
330
23824
100
AcDbEntity
  8
DEFPOINTS
 62
     0
 48
50.0
100
AcDbPoint
 10
10279.50000000018
 20
9700.000000000002
 30
0.0
  0
POINT
  5
253D6
330
23824
100
AcDbEntity
  8
DEFPOINTS
 62
     0
 48
50.0
100
AcDbPoint
 10
10279.50000000018
 20
9788.206426863661
 30
0.0
  0
ENDBLK
  5
2382F
330
23824
100
AcDbEntity
  8
0
 48
50.0
100
AcDbBlockEnd
  0
BLOCK
  5
2383A
330
23830
100
AcDbEntity
  8
0
 48
50.0
100
AcDbBlockBegin
  2
*D66
 70
     1
 10
0.0
 20
0.0
 30
0.0
  3
*D66
  1

  0
LINE
  5
2542B
330
23830
100
AcDbEntity
  8
寸法
 62
     0
 48
50.0
370
    -2
100
AcDbLine
 10
12914.5
 20
9719.951329288841
 30
0.0
 11
12914.5
 21
9863.206426863662
 31
0.0
  0
LINE
  5
2542C
330
23830
100
AcDbEntity
  8
寸法
 62
     0
 48
50.0
370
    -2
100
AcDbLine
 10
12009.5
 20
9725.000000000001
 30
0.0
 11
12009.5
 21
9863.206426863662
 31
0.0
  0
LINE
  5
2542D
330
23830
100
AcDbEntity
  8
寸法
 62
     0
 48
50.0
370
    -2
100
AcDbLine
 10
12914.5
 20
9788.206426863661
 30
0.0
 11
12009.5
 21
9788.206426863661
 31
0.0
  0
INSERT
  5
2542E
330
23830
100
AcDbEntity
  8
寸法
 62
     0
 48
50.0
370
    -2
100
AcDbBlockReference
  2
_DOTSMALL
 10
12914.5
 20
9788.206426863661
 30
0.0
 41
125.0
 42
125.0
 43
125.0
  0
INSERT
  5
2542F
330
23830
100
AcDbEntity
  8
寸法
 62
     0
 48
50.0
370
    -2
100
AcDbBlockReference
  2
_DOTSMALL
 10
12009.5
 20
9788.206426863661
 30
0.0
 41
125.0
 42
125.0
 43
125.0
 50
180.0
  0
MTEXT
  5
25430
330
23830
100
AcDbEntity
  8
寸法
 62
     7
 48
50.0
100
AcDbMText
 10
12462.0
 20
9888.206426863661
 30
0.0
 40
150.0
 41
0.0
 71
     5
 72
     1
  1
\A1;905
  7
STYLE1
 73
     1
 44
1.0
1001
ACAD
1000
MTEXTBEGIN
1070
    73
1070
     1
1070
    44
1040
1.0
1070
    74
1070
     0
1000
MTEXTEND
  0
POINT
  5
25431
330
23830
100
AcDbEntity
  8
DEFPOINTS
 62
     0
 48
50.0
100
AcDbPoint
 10
12914.5
 20
9694.951329288841
 30
0.0
  0
POINT
  5
25432
330
23830
100
AcDbEntity
  8
DEFPOINTS
 62
     0
 48
50.0
100
AcDbPoint
 10
12009.5
 20
9700.000000000002
 30
0.0
  0
POINT
  5
25433
330
23830
100
AcDbEntity
  8
DEFPOINTS
 62
     0
 48
50.0
100
AcDbPoint
 10
12009.5
 20
9788.206426863661
 30
0.0
  0
ENDBLK
  5
2383B
330
23830
100
AcDbEntity
  8
0
 48
50.0
100
AcDbBlockEnd
  0
BLOCK
  5
23F93
330
23F89
100
AcDbEntity
  8
0
 48
50.0
100
AcDbBlockBegin
  2
*D67
 70
     1
 10
0.0
 20
0.0
 30
0.0
  3
*D67
  1

  0
LINE
  5
25332
330
23F89
100
AcDbEntity
  8
寸法
 62
     0
 48
50.0
370
    -2
100
AcDbLine
 10
7644.5
 20
10424.99999999999
 30
0.0
 11
7644.5
 21
11693.74755453192
 31
0.0
  0
LINE
  5
25333
330
23F89
100
AcDbEntity
  8
寸法
 62
     0
 48
50.0
370
    -2
100
AcDbLine
 10
12914.5
 20
10424.99999999999
 30
0.0
 11
12914.5
 21
11693.74755453192
 31
0.0
  0
LINE
  5
25334
330
23F89
100
AcDbEntity
  8
寸法
 62
     0
 48
50.0
370
    -2
100
AcDbLine
 10
7644.5
 20
11618.74755453192
 30
0.0
 11
12914.5
 21
11618.74755453192
 31
0.0
  0
INSERT
  5
25335
330
23F89
100
AcDbEntity
  8
寸法
 62
     0
 48
50.0
370
    -2
100
AcDbBlockReference
  2
_DOTSMALL
 10
7644.5
 20
11618.74755453192
 30
0.0
 41
125.0
 42
125.0
 43
125.0
 50
180.0
  0
INSERT
  5
25336
330
23F89
100
AcDbEntity
  8
寸法
 62
     0
 48
50.0
370
    -2
100
AcDbBlockReference
  2
_DOTSMALL
 10
12914.5
 20
11618.74755453192
 30
0.0
 41
125.0
 42
125.0
 43
125.0
  0
MTEXT
  5
25337
330
23F89
100
AcDbEntity
  8
寸法
 62
     7
 48
50.0
100
AcDbMText
 10
10279.5
 20
11718.76231831145
 30
0.0
 40
150.0
 41
0.0
 71
     5
 72
     1
  1
\A1;5270
  7
STYLE1
 73
     1
 44
1.0
1001
ACAD
1000
MTEXTBEGIN
1070
    73
1070
     1
1070
    44
1040
1.0
1070
    74
1070
     0
1000
MTEXTEND
  0
POINT
  5
25338
330
23F89
100
AcDbEntity
  8
DEFPOINTS
 62
     0
 48
50.0
100
AcDbPoint
 10
7644.5
 20
10399.99999999999
 30
0.0
  0
POINT
  5
25339
330
23F89
100
AcDbEntity
  8
DEFPOINTS
 62
     0
 48
50.0
100
AcDbPoint
 10
12914.5
 20
10399.99999999999
 30
0.0
  0
POINT
  5
2533A
330
23F89
100
AcDbEntity
  8
DEFPOINTS
 62
     0
 48
50.0
100
AcDbPoint
 10
12914.5
 20
11618.74755453192
 30
0.0
  0
ENDBLK
  5
23F94
330
23F89
100
AcDbEntity
  8
0
 48
50.0
100
AcDbBlockEnd
  0
BLOCK
  5
24C92
330
24C88
100
AcDbEntity
  8
0
 48
50.0
100
AcDbBlockBegin
  2
*D68
 70
     1
 10
0.0
 20
0.0
 30
0.0
  3
*D68
  1

  0
LINE
  5
253D7
330
24C88
100
AcDbEntity
  8
寸法
 62
     0
 48
50.0
370
    -2
100
AcDbLine
 10
11304.5
 20
10400.0
 30
0.0
 11
11582.65573588008
 21
10400.0
 31
0.0
  0
LINE
  5
253D8
330
24C88
100
AcDbEntity
  8
寸法
 62
     0
 48
50.0
370
    -2
100
AcDbLine
 10
11304.5
 20
9499.999999999998
 30
0.0
 11
11582.65573588008
 21
9499.999999999998
 31
0.0
  0
LINE
  5
253D9
330
24C88
100
AcDbEntity
  8
寸法
 62
     0
 48
50.0
370
    -2
100
AcDbLine
 10
11507.65573588008
 20
10400.0
 30
0.0
 11
11507.65573588008
 21
9499.999999999998
 31
0.0
  0
INSERT
  5
253DA
330
24C88
100
AcDbEntity
  8
寸法
 62
     0
 48
50.0
370
    -2
100
AcDbBlockReference
  2
_DOTSMALL
 10
11507.65573588008
 20
10400.0
 30
0.0
 41
125.0
 42
125.0
 43
125.0
 50
90.0
  0
INSERT
  5
253DB
330
24C88
100
AcDbEntity
  8
寸法
 62
     0
 48
50.0
370
    -2
100
AcDbBlockReference
  2
_DOTSMALL
 10
11507.65573588008
 20
9499.999999999998
 30
0.0
 41
125.0
 42
125.0
 43
125.0
 50
270.0
  0
MTEXT
  5
253DC
330
24C88
100
AcDbEntity
  8
寸法
 62
     7
 48
50.0
100
AcDbMText
 10
11407.65573588008
 20
9950.0
 30
0.0
 40
150.0
 41
0.0
 71
     5
 72
     1
  1
\A1;900
  7
STYLE1
 11
0.0000000000000001
 21
1.0
 31
0.0
 73
     1
 44
1.0
1001
ACAD
1000
MTEXTBEGIN
1070
    73
1070
     1
1070
    44
1040
1.0
1070
    74
1070
     0
1000
MTEXTEND
  0
POINT
  5
253DD
330
24C88
100
AcDbEntity
  8
DEFPOINTS
 62
     0
 48
50.0
100
AcDbPoint
 10
11279.5
 20
10400.0
 30
0.0
  0
POINT
  5
253DE
330
24C88
100
AcDbEntity
  8
DEFPOINTS
 62
     0
 48
50.0
100
AcDbPoint
 10
11279.5
 20
9499.999999999998
 30
0.0
  0
POINT
  5
253DF
330
24C88
100
AcDbEntity
  8
DEFPOINTS
 62
     0
 48
50.0
100
AcDbPoint
 10
11507.65573588008
 20
9499.999999999998
 30
0.0
  0
ENDBLK
  5
24C93
330
24C88
100
AcDbEntity
  8
0
 48
50.0
100
AcDbBlockEnd
  0
BLOCK
  5
254A3
330
25499
100
AcDbEntity
  8
0
 48
50.0
100
AcDbBlockBegin
  2
*D69
 70
     1
 10
0.0
 20
0.0
 30
0.0
  3
*D69
  1

  0
LINE
  5
2549A
330
25499
100
AcDbEntity
  8
寸法
 62
     0
 48
50.0
370
    -2
100
AcDbLine
 10
12922.66514309224
 20
10376.37098312914
 30
0.0
 11
13081.42617490097
 21
9916.934197189322
 31
0.0
  0
LINE
  5
2549B
330
25499
100
AcDbEntity
  8
寸法
 62
     0
 48
50.0
370
    -2
100
AcDbLine
 10
7713.665143092253
 20
8576.370983129143
 30
0.0
 11
7872.426174900983
 21
8116.934197189321
 31
0.0
  0
LINE
  5
2549C
330
25499
100
AcDbEntity
  8
寸法
 62
     0
 48
50.0
370
    -2
100
AcDbLine
 10
13056.93074562422
 20
9987.82124780188
 30
0.0
 11
7847.930745624229
 21
8187.821247801879
 31
0.0
  0
INSERT
  5
2549D
330
25499
100
AcDbEntity
  8
寸法
 62
     0
 48
50.0
370
    -2
100
AcDbBlockReference
  2
_DOTSMALL
 10
13056.93074562422
 20
9987.82124780188
 30
0.0
 41
125.0
 42
125.0
 43
125.0
 50
19.06288568726347
  0
INSERT
  5
2549E
330
25499
100
AcDbEntity
  8
寸法
 62
     0
 48
50.0
370
    -2
100
AcDbBlockReference
  2
_DOTSMALL
 10
7847.930745624229
 20
8187.821247801879
 30
0.0
 41
125.0
 42
125.0
 43
125.0
 50
199.0628856872634
  0
MTEXT
  5
2549F
330
25499
100
AcDbEntity
  8
寸法
 62
     7
 48
50.0
100
AcDbMText
 10
10419.76535132032
 20
9182.351269429112
 30
0.0
 40
150.0
 41
0.0
 71
     5
 72
     1
  1
\A1;5511.2
  7
STYLE1
 11
0.9451606748341278
 21
0.3266057236900427
 31
0.0
 73
     1
 44
1.0
1001
ACAD
1000
MTEXTBEGIN
1070
    73
1070
     1
1070
    44
1040
1.0
1070
    74
1070
     0
1000
MTEXTEND
  0
POINT
  5
254A0
330
25499
100
AcDbEntity
  8
DEFPOINTS
 62
     0
 48
50.0
100
AcDbPoint
 10
12914.49999999999
 20
10399.99999999999
 30
0.0
  0
POINT
  5
254A1
330
25499
100
AcDbEntity
  8
DEFPOINTS
 62
     0
 48
50.0
100
AcDbPoint
 10
7705.5
 20
8599.999999999997
 30
0.0
  0
POINT
  5
254A2
330
25499
100
AcDbEntity
  8
DEFPOINTS
 62
     0
 48
50.0
100
AcDbPoint
 10
7847.930745624229
 20
8187.821247801879
 30
0.0
  0
ENDBLK
  5
254A4
330
25499
100
AcDbEntity
  8
0
 48
50.0
100
AcDbBlockEnd
  0
ENDSEC
  0
SECTION
  2
ENTITIES
  0
MTEXT
  5
763F
330
747D
100
AcDbEntity
  8
0
100
AcDbMText
 10
302.846345836809
 20
280.1983726409901
 30
0.0
 40
3.5
 41
5.323721266742722
 71
     1
 72
     5
  1

  7
MSMINCHO
 73
     1
 44
1.0
1001
ACAD
1000
MTEXTBEGIN
1070
    73
1070
     1
1070
    44
1040
1.0
1070
    74
1070
     0
1000
MTEXTEND
  0
INSERT
  5
F235
330
747D
100
AcDbEntity
  8
0
100
AcDbBlockReference
  2
作図枠S50
 10
0.0
 20
0.0
 30
0.0
  0
LINE
  5
10B56
330
747D
100
AcDbEntity
  8
補助
  6
PHANTOM
 62
   230
 48
50.0
100
AcDbLine
 10
175.0
 20
0.0
 30
0.0
 11
174.9999999999993
 21
14262.0
 31
0.0
  0
LINE
  5
10B57
330
747D
100
AcDbEntity
  8
補助
  6
PHANTOM
 62
   230
 48
50.0
100
AcDbLine
 10
174.9999999999993
 20
14262.0
 30
0.0
 11
20384.0
 21
14262.0
 31
0.0
  0
LINE
  5
10B5C
330
747D
100
AcDbEntity
  8
仕様書枠
 48
50.0
100
AcDbLine
 10
20384.0
 20
1500.0
 30
0.0
 11
20384.0
 21
-0.0000000000001137
 31
0.0
  0
LINE
  5
10B5D
330
747D
100
AcDbEntity
  8
仕様書枠
 48
50.0
100
AcDbLine
 10
175.0
 20
0.0
 30
0.0
 11
20384.0
 21
-0.0000000000001137
 31
0.0
  0
LINE
  5
10B5E
330
747D
100
AcDbEntity
  8
補助
  6
PHANTOM
 62
   230
 48
50.0
100
AcDbLine
 10
20384.0
 20
14262.0
 30
0.0
 11
20384.0
 21
1500.0
 31
0.0
  0
LINE
  5
10B6C
330
747D
100
AcDbEntity
  8
仕様書枠
 48
50.0
100
AcDbLine
 10
16384.0
 20
1500.0
 30
0.0
 11
20384.0
 21
1500.0
 31
0.0
  0
LINE
  5
10B6D
330
747D
100
AcDbEntity
  8
補助
  6
PHANTOM
 62
   230
 48
50.0
100
AcDbLine
 10
16384.0
 20
14262.0
 30
0.0
 11
16384.0
 21
6000.0
 31
0.0
  0
LINE
  5
10B6F
330
747D
100
AcDbEntity
  8
補助
  6
PHANTOM
 62
   230
 48
50.0
100
AcDbLine
 10
16384.0
 20
6000.0
 30
0.0
 11
20384.0
 21
6000.0
 31
0.0
  0
LINE
  5
10B72
330
747D
100
AcDbEntity
  8
文字
 62
     7
 48
50.0
100
AcDbLine
 10
16484.0
 20
500.0
 30
0.0
 11
20284.0
 21
500.0
 31
0.0
  0
TEXT
  5
10B73
330
747D
100
AcDbEntity
  8
文字
 62
     7
 48
50.0
100
AcDbText
 10
16453.72382072112
 20
1118.863259287425
 30
0.0
 40
250.0
  1
基 礎 図
  7
STYLE2
100
AcDbText
  0
LINE
  5
10B7B
330
747D
100
AcDbEntity
  8
仕様書枠
 48
50.0
100
AcDbLine
 10
16384.0
 20
1000.0
 30
0.0
 11
17814.0
 21
1000.0
 31
0.0
  0
LINE
  5
10B88
330
747D
100
AcDbEntity
  8
仕様書枠
  6
Continuous
 48
50.0
100
AcDbLine
 10
17814.0
 20
1500.0
 30
0.0
 11
17814.0
 21
1000.0
 31
0.0
  0
TEXT
  5
10BB0
330
747D
100
AcDbEntity
  8
文字
 62
     7
 48
50.0
100
AcDbText
 10
18056.94996155369
 20
604.8708912389265
 30
0.0
 40
200.0
  1
ＦＸＮ-５０ＨＹＬ-２
  7
STYLE2
100
AcDbText
  0
TEXT
  5
17483
330
747D
100
AcDbEntity
  8
文字
 62
     7
 48
50.0
100
AcDbText
 10
16511.75668531126
 20
270.5931184260625
 30
0.0
 40
100.0
  1
※寒冷地等は、地域の実情に合わせた基礎にしてください。
  7
STYLE2
100
AcDbText
  0
LINE
  5
17484
330
747D
100
AcDbEntity
  8
仕様書枠
  6
Continuous
 48
50.0
100
AcDbLine
 10
16384.00000503976
 20
1499.999992498709
 30
0.0
 11
16384.00000503976
 21
-0.0000075012905659
 31
0.0
  0
TEXT
  5
1A873
330
747D
100
AcDbEntity
  8
文字
 62
     7
 48
50.0
100
AcDbText
 10
18155.16479652749
 20
1289.447132864036
 30
0.0
 40
125.0
  1
NO.04      <縮尺> S=1/50
  7
STYLE2
100
AcDbText
  0
TEXT
  5
1A874
330
747D
100
AcDbEntity
  8
文字
 62
     7
 48
50.0
100
AcDbText
 10
18282.32565866817
 20
1089.955080760453
 30
0.0
 40
125.0
  1
～一般型･多雪地型～
  7
STYLE2
100
AcDbText
  0
TEXT
  5
1A875
330
747D
100
AcDbEntity
  8
文字
 62
     7
 48
50.0
100
AcDbText
 10
16501.79587498051
 20
596.5925826289069
 30
0.0
 40
200.0
  1
機種名
  7
STYLE2
100
AcDbText
  0
MTEXT
  5
1D656
102
{ACAD_REACTORS
330
1D657
102
}
330
747D
100
AcDbEntity
  8
部品1
 62
     7
 48
50.0
100
AcDbMText
 10
7246.304243954508
 20
11022.0497954854
 30
0.0
 40
150.0
 41
0.0
 71
     6
 72
     1
  1
アンカーボルト芯
  7
STYLE1
 73
     1
 44
1.0
1001
ACAD
1000
MTEXTBEGIN
1070
    73
1070
     1
1070
    44
1040
1.0
1070
    74
1070
     0
1000
MTEXTEND
  0
LEADER
  5
1D657
330
747D
100
AcDbEntity
  8
寸法
 48
50.0
100
AcDbLeader
  3
INABA_S50G
 71
     0
 73
     0
 75
     1
 40
150.0
 41
1417.499999999999
 76
     3
 10
7719.500000000191
 20
10349.99999999999
 30
0.0
 10
7396.304243954507
 20
10922.0497954854
 30
0.0
 10
7271.304243954507
 20
10922.0497954854
 30
0.0
340
1D656
1001
ACAD
1000
DSTYLE
1002
{
1070
   341
1005
11750
1070
    40
1040
1.0
1070
   343
1005
11750
1070
   344
1005
11750
1002
}
  0
DIMENSION
  5
1D658
330
747D
100
AcDbEntity
  8
寸法
 48
50.0
100
AcDbDimension
  2
*D3
 10
7644.5
 20
11318.58135479056
 30
0.0
 11
7404.5
 21
11318.58135479056
 31
0.0
 70
   160
 71
     5
 42
75.00000000019099
  3
INABA_S50G
100
AcDbAlignedDimension
 13
7719.500000000191
 23
10399.99999999999
 33
0.0
 14
7644.5
 24
10399.99999999999
 34
0.0
100
AcDbRotatedDimension
1001
ACAD
1000
DSTYLE
1002
{
1070
    40
1040
1.0
1002
}
  0
DIMENSION
  5
1D659
330
747D
100
AcDbEntity
  8
寸法
 48
50.0
100
AcDbDimension
  2
*D4
 10
7719.500000000191
 20
11318.58135479056
 30
0.0
 11
8964.500000000191
 21
11418.59611857009
 31
0.0
 70
    32
 71
     5
 42
2490.0
  3
INABA_S50G
100
AcDbAlignedDimension
 13
10209.50000000019
 23
10391.88193109354
 33
0.0
 14
7719.500000000191
 24
10399.99999999999
 34
0.0
100
AcDbRotatedDimension
1001
ACAD
1000
DSTYLE
1002
{
1070
    40
1040
1.0
1002
}
  0
DIMENSION
  5
1D665
330
747D
100
AcDbEntity
  8
寸法
 48
50.0
100
AcDbDimension
  2
*D5
 10
7705.5
 20
7074.404554952453
 30
0.0
 11
8940.0
 21
7174.419318731979
 31
0.0
 70
    32
 71
     5
 42
2469.0
  3
INABA_S50G
100
AcDbAlignedDimension
 13
10174.5
 23
8051.288726084299
 33
0.0
 14
7705.5
 24
8599.999999999997
 34
0.0
100
AcDbRotatedDimension
1001
ACAD
1000
DSTYLE
1002
{
1070
    40
1040
1.0
1070
   341
1005
0
1002
}
  0
LINE
  5
1D667
330
747D
100
AcDbEntity
  8
部品1
 48
50.0
100
AcDbLine
 10
10174.5
 20
8599.999999999997
 30
0.0
 11
7705.5
 21
8599.999999999997
 31
0.0
  0
DIMENSION
  5
1D668
330
747D
100
AcDbEntity
  8
寸法
 48
50.0
100
AcDbDimension
  2
*D6
 10
6827.193633210164
 20
10349.99999999999
 30
0.0
 11
6727.193633210162
 21
9505.499999999997
 31
0.0
 70
    32
 71
     5
 42
1689.0
  3
INABA_S50G
100
AcDbAlignedDimension
 13
7644.5
 23
8660.999999999997
 33
0.0
 14
7669.500000000191
 24
10349.99999999999
 34
0.0
 50
90.0
100
AcDbRotatedDimension
1001
ACAD
1000
DSTYLE
1002
{
1070
    40
1040
1.0
1070
   341
1005
0
1002
}
  0
DIMENSION
  5
1D669
330
747D
100
AcDbEntity
  8
寸法
 48
50.0
100
AcDbDimension
  2
*D7
 10
6444.077758871933
 20
8599.999999999997
 30
0.0
 11
6344.077758871931
 21
9499.999999999998
 31
0.0
 70
    32
 71
     5
 42
1800.0
  3
INABA_S50G
100
AcDbAlignedDimension
 13
7644.5
 23
10399.99999999999
 33
0.0
 14
7705.5
 24
8599.999999999997
 34
0.0
 50
90.0
100
AcDbRotatedDimension
1001
ACAD
1000
DSTYLE
1002
{
1070
    40
1040
1.0
1002
}
  0
LINE
  5
1D66A
330
747D
100
AcDbEntity
  8
部品1
 48
50.0
100
AcDbLine
 10
7764.499999999999
 20
8769.999999999996
 30
0.0
 11
7764.499999999999
 21
10279.99999999998
 31
0.0
  0
LINE
  5
1D66B
330
747D
100
AcDbEntity
  8
部品1
 48
50.0
100
AcDbLine
 10
7644.5
 20
8660.999999999997
 30
0.0
 11
7644.5
 21
10399.99999999999
 31
0.0
  0
DIMENSION
  5
1D66C
330
747D
100
AcDbEntity
  8
寸法
 48
50.0
100
AcDbDimension
  2
*D8
 10
6827.193633210163
 20
8660.999999999997
 30
0.0
 11
6827.193633210161
 21
8378.01181102362
 31
0.0
 70
   160
 71
     5
 42
61.0
  3
INABA_S50G
100
AcDbAlignedDimension
 13
7705.5
 23
8599.999999999997
 33
0.0
 14
7644.5
 24
8660.999999999997
 34
0.0
 50
90.0
100
AcDbRotatedDimension
1001
ACAD
1000
DSTYLE
1002
{
1070
    40
1040
1.0
1070
   341
1005
0
1002
}
  0
DIMENSION
  5
1D66D
330
747D
100
AcDbEntity
  8
寸法
 48
50.0
100
AcDbDimension
  2
*D9
 10
7705.5
 20
7074.404554952453
 30
0.0
 11
7422.511811023622
 21
7074.404554952453
 31
0.0
 70
   160
 71
     5
 42
61.0
  3
INABA_S50G
100
AcDbAlignedDimension
 13
7644.5
 23
8660.999999999997
 33
0.0
 14
7705.5
 24
8599.999999999997
 34
0.0
100
AcDbRotatedDimension
1001
ACAD
1000
DSTYLE
1002
{
1070
    40
1040
1.0
1070
   341
1005
0
1002
}
  0
LINE
  5
1D66F
330
747D
100
AcDbEntity
  8
センター
 48
8.0
100
AcDbLine
 10
7498.49851475226
 20
8632.999999999997
 30
0.0
 11
7898.498514752261
 21
8632.999999999997
 31
0.0
  0
LINE
  5
1D673
330
747D
100
AcDbEntity
  8
部品1
 48
50.0
100
AcDbLine
 10
7705.5
 20
8660.999999999997
 30
0.0
 11
7644.5
 21
8660.999999999997
 31
0.0
  0
LINE
  5
1D674
330
747D
100
AcDbEntity
  8
部品1
 48
50.0
100
AcDbLine
 10
7705.5
 20
8599.999999999997
 30
0.0
 11
7705.5
 21
8660.999999999997
 31
0.0
  0
DIMENSION
  5
1D67F
330
747D
100
AcDbEntity
  8
寸法
 48
50.0
100
AcDbDimension
  2
*D10
 10
6827.193633210164
 20
10399.99999999999
 30
0.0
 11
6827.193633210161
 21
10632.55905511811
 31
0.0
 70
   160
 71
     5
 42
50.0
  3
INABA_S50G
100
AcDbAlignedDimension
 13
7669.500000000191
 23
10349.99999999999
 33
0.0
 14
7644.5
 24
10399.99999999999
 34
0.0
 50
90.0
100
AcDbRotatedDimension
1001
ACAD
1000
DSTYLE
1002
{
1070
    40
1040
1.0
1070
   341
1005
0
1002
}
  0
LINE
  5
1D680
330
747D
100
AcDbEntity
  8
細線
 48
50.0
100
AcDbLine
 10
7644.5
 20
9411.121086790743
 30
0.0
 11
7764.499999999999
 21
9531.121086790754
 31
0.0
  0
LINE
  5
1D681
330
747D
100
AcDbEntity
  8
細線
 48
50.0
100
AcDbLine
 10
7696.240706056745
 20
9400.000000000002
 30
0.0
 11
7764.499999999999
 21
9468.259293943265
 31
0.0
  0
LINE
  5
1D683
330
747D
100
AcDbEntity
  8
部品1
 48
50.0
100
AcDbLine
 10
7764.499999999999
 20
9399.999999999996
 30
0.0
 11
7644.500000000163
 21
9400.000000000007
 31
0.0
  0
LINE
  5
1D684
330
747D
100
AcDbEntity
  8
細線
 48
50.0
100
AcDbLine
 10
7759.102498904212
 20
9399.999999999996
 30
0.0
 11
7764.499999999999
 21
9405.397501095784
 31
0.0
  0
LINE
  5
1D685
330
747D
100
AcDbEntity
  8
細線
 48
50.0
100
AcDbLine
 10
7644.5
 20
9536.844672485717
 30
0.0
 11
7707.655327514283
 21
9600.000000000001
 31
0.0
  0
LINE
  5
1D686
330
747D
100
AcDbEntity
  8
細線
 48
50.0
100
AcDbLine
 10
7644.5
 20
9599.706465333195
 30
0.0
 11
7644.793534666813
 21
9600.000000000006
 31
0.0
  0
LINE
  5
1D687
330
747D
100
AcDbEntity
  8
細線
 48
50.0
100
AcDbLine
 10
7644.5
 20
9473.982879638224
 30
0.0
 11
7764.499999999999
 21
9593.982879638236
 31
0.0
  0
LINE
  5
1D688
330
747D
100
AcDbEntity
  8
部品1
 48
50.0
100
AcDbLine
 10
7764.499999999999
 20
9599.999999999997
 30
0.0
 11
7644.500000000163
 21
9600.000000000008
 31
0.0
  0
LINE
  5
1D68E
330
747D
100
AcDbEntity
  8
センター
 48
2.0
100
AcDbLine
 10
7769.500000000191
 20
10349.99999999999
 30
0.0
 11
7669.500000000191
 21
10349.99999999999
 31
0.0
  0
LINE
  5
1D68F
330
747D
100
AcDbEntity
  8
センター
 48
2.0
100
AcDbLine
 10
7719.500000000191
 20
10399.99999999999
 30
0.0
 11
7719.500000000191
 21
10299.99999999999
 31
0.0
  0
LINE
  5
1D6A1
330
747D
100
AcDbEntity
  8
部品1
 48
50.0
100
AcDbLine
 10
9064.50000000037
 20
8769.999999999996
 30
0.0
 11
9064.50000000037
 21
8599.999999999997
 31
0.0
  0
LINE
  5
1D6CA
330
747D
100
AcDbEntity
  8
部品1
 48
50.0
100
AcDbLine
 10
9064.50000000037
 20
10399.99999999999
 30
0.0
 11
9064.50000000037
 21
10279.99999999998
 31
0.0
  0
DIMENSION
  5
1D6E3
330
747D
100
AcDbEntity
  8
寸法
 48
50.0
100
AcDbDimension
  2
*D11
 10
12839.5
 20
11318.58135479056
 30
0.0
 11
13154.5
 21
11318.58135479056
 31
0.0
 70
   160
 71
     5
 42
74.99999999999818
  3
INABA_S50G
100
AcDbAlignedDimension
 13
12914.5
 23
10399.99999999998
 33
0.0
 14
12839.5
 24
10399.99999999999
 34
0.0
100
AcDbRotatedDimension
1001
ACAD
1000
DSTYLE
1002
{
1070
    40
1040
1.0
1002
}
  0
DIMENSION
  5
1D6E5
330
747D
100
AcDbEntity
  8
寸法
 48
50.0
100
AcDbDimension
  2
*D12
 10
9342.664792683953
 20
10399.99999999998
 30
0.0
 11
9342.664792683951
 21
10670.05905511811
 31
0.0
 70
   160
 71
     5
 42
120.0
  3
INABA_S50G
100
AcDbAlignedDimension
 13
9370.000000000011
 23
10279.99999999998
 33
0.0
 14
9370.000000000011
 24
10399.99999999998
 34
0.0
 50
90.0
100
AcDbRotatedDimension
1001
ACAD
1000
DSTYLE
1002
{
1070
    40
1040
1.0
1070
   341
1005
0
1002
}
  0
LINE
  5
1D6EA
330
747D
100
AcDbEntity
  8
部品1
 48
50.0
100
AcDbLine
 10
12853.5
 20
8599.999999999997
 30
0.0
 11
10384.5
 21
8599.999999999997
 31
0.0
  0
DIMENSION
  5
1D6EE
330
747D
100
AcDbEntity
  8
寸法
 48
50.0
100
AcDbDimension
  2
*D13
 10
11036.52505950111
 20
8769.999999999996
 30
0.0
 11
10936.5250595011
 21
8569.999999999998
 31
0.0
 70
    32
 71
     5
 42
400.0
  3
INABA_S50G
100
AcDbAlignedDimension
 13
10479.5
 23
8369.999999999995
 33
0.0
 14
10479.5
 24
8769.999999999996
 34
0.0
 50
90.0
100
AcDbRotatedDimension
1001
ACAD
1000
DSTYLE
1002
{
1070
    40
1040
1.0
1002
}
  0
DIMENSION
  5
1D6EF
330
747D
100
AcDbEntity
  8
寸法
 48
50.0
100
AcDbDimension
  2
*D14
 10
10174.5
 20
7074.404554952453
 30
0.0
 11
10279.5
 21
7174.419318731979
 31
0.0
 70
    32
 71
     5
 42
210.0
  3
INABA_S50G
100
AcDbAlignedDimension
 13
10384.5
 23
8051.288726084299
 33
0.0
 14
10174.5
 24
8051.288726084299
 34
0.0
100
AcDbRotatedDimension
1001
ACAD
1000
DSTYLE
1002
{
1070
    40
1040
1.0
1070
   341
1005
0
1002
}
  0
DIMENSION
  5
1D6F1
330
747D
100
AcDbEntity
  8
寸法
 48
50.0
100
AcDbDimension
  2
*D15
 10
10479.5
 20
8051.288726084299
 30
0.0
 11
10279.5
 21
8151.288726084299
 31
0.0
 70
    32
 71
     5
 42
400.0
  3
INABA_S50G
100
AcDbAlignedDimension
 13
10079.5
 23
8369.999999999995
 33
0.0
 14
10479.5
 24
8369.999999999995
 34
0.0
100
AcDbRotatedDimension
1001
ACAD
1000
DSTYLE
1002
{
1070
    40
1040
1.0
1002
}
  0
LINE
  5
1D6F2
330
747D
100
AcDbEntity
  8
センター
 48
8.0
100
AcDbLine
 10
10279.5
 20
8404.428571428569
 30
0.0
 11
10279.5
 21
8861.571428571432
 31
0.0
  0
LINE
  5
1D6F4
330
747D
100
AcDbEntity
  8
部品1
 48
50.0
100
AcDbLine
 10
10174.5
 20
8660.999999999997
 30
0.0
 11
10384.5
 21
8660.999999999997
 31
0.0
  0
LINE
  5
1D6F5
330
747D
100
AcDbEntity
  8
センター
 48
8.0
100
AcDbLine
 10
10050.92857142857
 20
8632.999999999986
 30
0.0
 11
10508.07142857143
 21
8632.999999999986
 31
0.0
  0
LINE
  5
1D6F6
330
747D
100
AcDbEntity
  8
部品1
 48
10.0
100
AcDbLine
 10
10479.5
 20
8369.999999999995
 30
0.0
 11
10079.5
 21
8369.999999999995
 31
0.0
  0
LINE
  5
1D6F7
330
747D
100
AcDbEntity
  8
部品1
 48
50.0
100
AcDbLine
 10
10174.5
 20
8599.999999999997
 30
0.0
 11
10174.5
 21
8660.999999999997
 31
0.0
  0
LINE
  5
1D6F8
330
747D
100
AcDbEntity
  8
部品1
 48
10.0
100
AcDbLine
 10
10079.5
 20
8369.999999999995
 30
0.0
 11
10079.5
 21
8599.999999999997
 31
0.0
  0
LINE
  5
1D6FB
330
747D
100
AcDbEntity
  8
部品1
 48
10.0
100
AcDbLine
 10
10479.5
 20
8369.999999999995
 30
0.0
 11
10479.49999999998
 21
8599.999999999994
 31
0.0
  0
LINE
  5
1D6FD
330
747D
100
AcDbEntity
  8
部品1
 48
50.0
100
AcDbLine
 10
10384.5
 20
8660.999999999997
 30
0.0
 11
10384.5
 21
8599.999999999997
 31
0.0
  0
TEXT
  5
1D714
330
747D
100
AcDbEntity
  8
文字
 48
50.0
100
AcDbText
 10
9870.48058621108
 20
10078.63968474635
 30
0.0
 40
150.0
  1
A
 50
90.0
  7
STYLE1
100
AcDbText
  0
TEXT
  5
1D71F
330
747D
100
AcDbEntity
  8
文字
 48
50.0
100
AcDbText
 10
9870.48058621108
 20
10656.92776751999
 30
0.0
 40
150.0
  1
A'
 50
90.0
  7
STYLE1
100
AcDbText
  0
LINE
  5
1D721
330
747D
100
AcDbEntity
  8
寸法
 48
50.0
100
AcDbLine
 10
10209.50000000018
 20
10117.41673903016
 30
0.0
 11
9909.500000000182
 21
10117.41673903016
 31
0.0
  0
LINE
  5
1D722
330
747D
100
AcDbEntity
  8
寸法
 48
50.0
100
AcDbLine
 10
9909.500000000182
 20
10117.41673903016
 30
0.0
 11
10054.38887394354
 21
10078.59388226478
 31
0.0
  0
LINE
  5
1D723
330
747D
100
AcDbEntity
  8
寸法
 48
50.0
100
AcDbLine
 10
10054.38887394354
 20
10078.59388226478
 30
0.0
 11
10054.38887394354
 21
10178.59388226479
 31
0.0
  0
LINE
  5
1D724
330
747D
100
AcDbEntity
  8
寸法
 48
50.0
100
AcDbLine
 10
10209.50000000019
 20
10310.11806890643
 30
0.0
 11
10209.50000000018
 21
10117.41673903017
 31
0.0
  0
LINE
  5
1D726
330
747D
100
AcDbEntity
  8
寸法
 48
50.0
100
AcDbLine
 10
10209.50000000018
 20
10650.99999999998
 30
0.0
 11
9909.500000000182
 21
10650.99999999998
 31
0.0
  0
LINE
  5
1D727
330
747D
100
AcDbEntity
  8
寸法
 48
50.0
100
AcDbLine
 10
9909.500000000182
 20
10650.99999999998
 30
0.0
 11
10054.38887394354
 21
10612.17714323462
 31
0.0
  0
LINE
  5
1D728
330
747D
100
AcDbEntity
  8
寸法
 48
50.0
100
AcDbLine
 10
10054.38887394354
 20
10617.17714323462
 30
0.0
 11
10054.38887394354
 21
10717.17714323462
 31
0.0
  0
DIMENSION
  5
1D742
330
747D
100
AcDbEntity
  8
寸法
 48
50.0
100
AcDbDimension
  2
*D16
 10
12914.5
 20
10073.94399230745
 30
0.0
 11
13184.62287219428
 21
10073.94399230745
 31
0.0
 70
   160
 71
     5
 42
119.9999999999981
  3
INABA_S50G
100
AcDbAlignedDimension
 13
12794.5
 23
10197.23467012658
 33
0.0
 14
12914.5
 24
10197.23467012658
 34
0.0
100
AcDbRotatedDimension
1001
ACAD
1000
DSTYLE
1002
{
1070
    40
1040
1.0
1070
   341
1005
0
1002
}
  0
DIMENSION
  5
1D743
330
747D
100
AcDbEntity
  8
寸法
 48
50.0
100
AcDbDimension
  2
*D17
 10
14365.92407367218
 20
10349.99999999999
 30
0.0
 11
14265.92407367218
 21
9505.500000000001
 31
0.0
 70
    32
 71
     5
 42
1689.0
  3
INABA_S50G
100
AcDbAlignedDimension
 13
12914.5
 23
8660.999999999997
 33
0.0
 14
12889.5
 24
10349.99999999999
 34
0.0
 50
90.0
100
AcDbRotatedDimension
1001
ACAD
1000
DSTYLE
1002
{
1070
    40
1040
1.0
1070
   341
1005
0
1002
}
  0
LINE
  5
1D744
330
747D
100
AcDbEntity
  8
部品1
 48
50.0
100
AcDbLine
 10
12794.5
 20
8769.999999999996
 30
0.0
 11
12794.5
 21
10279.99999999998
 31
0.0
  0
LINE
  5
1D745
330
747D
100
AcDbEntity
  8
部品1
 48
50.0
100
AcDbLine
 10
12914.5
 20
8660.999999999997
 30
0.0
 11
12914.5
 21
10399.99999999999
 31
0.0
  0
DIMENSION
  5
1D746
330
747D
100
AcDbEntity
  8
寸法
 48
50.0
100
AcDbDimension
  2
*D18
 10
14365.92407367218
 20
8632.999999999997
 30
0.0
 11
14365.92407367217
 21
8077.880489074866
 31
0.0
 70
   160
  1
柱芯<>
 71
     5
 42
28.0
  3
INABA_S50G
100
AcDbAlignedDimension
 13
12914.5
 23
8660.999999999997
 33
0.0
 14
13060.49851475226
 24
8632.999999999997
 34
0.0
 50
90.0
100
AcDbRotatedDimension
1001
ACAD
1000
DSTYLE
1002
{
1070
    40
1040
1.0
1002
}
  0
DIMENSION
  5
1D747
330
747D
100
AcDbEntity
  8
寸法
 48
50.0
100
AcDbDimension
  2
*D19
 10
12853.5
 20
7074.404554952453
 30
0.0
 11
13136.48818897637
 21
7074.404554952453
 31
0.0
 70
   160
 71
     5
 42
60.99999999999818
  3
INABA_S50G
100
AcDbAlignedDimension
 13
12914.5
 23
8131.4504228966
 33
0.0
 14
12853.5
 24
8131.4504228966
 34
0.0
 50
180.0
100
AcDbRotatedDimension
1001
ACAD
1000
DSTYLE
1002
{
1070
    40
1040
1.0
1070
   341
1005
0
1002
}
  0
LINE
  5
1D749
330
747D
100
AcDbEntity
  8
部品1
 48
10.0
100
AcDbLine
 10
13094.5
 20
8420.000000000007
 30
0.0
 11
12744.5
 21
8419.999999999996
 31
0.0
  0
LINE
  5
1D74A
330
747D
100
AcDbEntity
  8
センター
 48
8.0
100
AcDbLine
 10
12660.49851475225
 20
8632.999999999997
 30
0.0
 11
13060.49851475226
 21
8632.999999999997
 31
0.0
  0
DIMENSION
  5
1D74B
330
747D
100
AcDbEntity
  8
寸法
 48
50.0
100
AcDbDimension
  2
*D20
 10
13094.50000000001
 20
8131.4504228966
 30
0.0
 11
12919.50000000001
 21
8231.4504228966
 31
0.0
 70
    32
 71
     5
 42
350.0000000000109
  3
INABA_S50G
100
AcDbAlignedDimension
 13
12744.5
 23
8420.000000000007
 33
0.0
 14
13094.50000000001
 24
8419.999999999996
 34
0.0
 50
180.0
100
AcDbRotatedDimension
1001
ACAD
1000
DSTYLE
1002
{
1070
    40
1040
1.0
1002
}
  0
LINE
  5
1D74C
330
747D
100
AcDbEntity
  8
部品1
 48
10.0
100
AcDbLine
 10
12744.5
 20
8419.999999999996
 30
0.0
 11
12744.5
 21
8599.999999999997
 31
0.0
  0
DIMENSION
  5
1D74F
330
747D
100
AcDbEntity
  8
寸法
 48
50.0
100
AcDbDimension
  2
*D21
 10
13447.09093176127
 20
8770.000000000008
 30
0.0
 11
13447.09093176127
 21
8134.940944881897
 31
0.0
 70
   160
 71
     5
 42
350.0
  3
INABA_S50G
100
AcDbAlignedDimension
 13
13094.5
 23
8420.000000000007
 33
0.0
 14
13094.5
 24
8770.000000000008
 34
0.0
 50
90.0
100
AcDbRotatedDimension
1001
ACAD
1000
DSTYLE
1002
{
1070
    40
1040
1.0
1002
}
  0
LINE
  5
1D751
330
747D
100
AcDbEntity
  8
部品1
 48
10.0
100
AcDbLine
 10
13094.5
 20
8770.000000000008
 30
0.0
 11
12914.5
 21
8770.000000000008
 31
0.0
  0
LINE
  5
1D752
330
747D
100
AcDbEntity
  8
部品1
 48
50.0
100
AcDbLine
 10
12853.5
 20
8660.999999999997
 30
0.0
 11
12914.5
 21
8660.999999999997
 31
0.0
  0
LINE
  5
1D753
330
747D
100
AcDbEntity
  8
部品1
 48
50.0
100
AcDbLine
 10
12853.5
 20
8599.999999999997
 30
0.0
 11
12853.5
 21
8660.999999999997
 31
0.0
  0
LINE
  5
1D754
330
747D
100
AcDbEntity
  8
部品1
 48
10.0
100
AcDbLine
 10
13094.5
 20
8420.000000000007
 30
0.0
 11
13094.5
 21
8770.000000000008
 31
0.0
  0
DIMENSION
  5
1D755
330
747D
100
AcDbEntity
  8
寸法
 48
50.0
100
AcDbDimension
  2
*D22
 10
14365.92407367218
 20
10349.99999999999
 30
0.0
 11
14365.92407367217
 21
10770.36951092513
 31
0.0
 70
   160
 71
     5
 42
50.0
  3
INABA_S50G
100
AcDbAlignedDimension
 13
12914.5
 23
10399.99999999999
 33
0.0
 14
12889.5
 24
10349.99999999999
 34
0.0
 50
90.0
100
AcDbRotatedDimension
1001
ACAD
1000
DSTYLE
1002
{
1070
    40
1040
1.0
1002
}
  0
LINE
  5
1D757
330
747D
100
AcDbEntity
  8
細線
 48
50.0
100
AcDbLine
 10
12794.49999999984
 20
9411.121086790755
 30
0.0
 11
12914.49999999984
 21
9531.121086790765
 31
0.0
  0
LINE
  5
1D758
330
747D
100
AcDbEntity
  8
細線
 48
50.0
100
AcDbLine
 10
12846.24070605658
 20
9400.000000000012
 30
0.0
 11
12914.49999999984
 21
9468.259293943276
 31
0.0
  0
LINE
  5
1D759
330
747D
100
AcDbEntity
  8
部品1
 48
50.0
100
AcDbLine
 10
12914.49999999984
 20
9400.000000000007
 30
0.0
 11
12794.5
 21
9400.000000000018
 31
0.0
  0
LINE
  5
1D75B
330
747D
100
AcDbEntity
  8
細線
 48
50.0
100
AcDbLine
 10
12909.10249890405
 20
9400.000000000007
 30
0.0
 11
12914.49999999984
 21
9405.397501095796
 31
0.0
  0
LINE
  5
1D75C
330
747D
100
AcDbEntity
  8
細線
 48
50.0
100
AcDbLine
 10
12794.49999999984
 20
9536.844672485727
 30
0.0
 11
12857.65532751413
 21
9600.000000000015
 31
0.0
  0
LINE
  5
1D75D
330
747D
100
AcDbEntity
  8
細線
 48
50.0
100
AcDbLine
 10
12794.49999999984
 20
9599.706465333206
 30
0.0
 11
12794.79353466665
 21
9600.000000000019
 31
0.0
  0
LINE
  5
1D75E
330
747D
100
AcDbEntity
  8
細線
 48
50.0
100
AcDbLine
 10
12794.49999999984
 20
9473.982879638235
 30
0.0
 11
12914.49999999984
 21
9593.982879638247
 31
0.0
  0
LINE
  5
1D75F
330
747D
100
AcDbEntity
  8
部品1
 48
50.0
100
AcDbLine
 10
12914.49999999984
 20
9600.000000000008
 30
0.0
 11
12794.5
 21
9600.000000000019
 31
0.0
  0
LINE
  5
1D761
330
747D
100
AcDbEntity
  8
センター
 48
2.0
100
AcDbLine
 10
12789.5
 20
10349.99999999999
 30
0.0
 11
12889.5
 21
10349.99999999999
 31
0.0
  0
LINE
  5
1D762
330
747D
100
AcDbEntity
  8
センター
 48
2.0
100
AcDbLine
 10
12839.5
 20
10399.99999999999
 30
0.0
 11
12839.5
 21
10299.99999999999
 31
0.0
  0
LEADER
  5
1DA21
330
747D
100
AcDbEntity
  8
寸法
 48
50.0
100
AcDbLeader
  3
INABA_S50G
 71
     0
 73
     0
 75
     1
 40
150.0
 41
262.5
 76
     3
 10
10150.65599656852
 20
8941.678097105556
 30
0.0
 10
10107.85735987928
 20
9203.980216203301
 30
0.0
 10
9982.857359879284
 20
9203.980216203301
 30
0.0
340
1DA22
213
-6.654425256279864
223
-6.941639128017413
233
0.0
1001
ACAD
1000
DSTYLE
1002
{
1070
    40
1040
1.0
1002
}
  0
MTEXT
  5
1DA22
102
{ACAD_REACTORS
330
1DA21
102
}
330
747D
100
AcDbEntity
  8
寸法
 62
     7
 48
50.0
100
AcDbMText
 10
9964.511785135565
 20
9310.921855331319
 30
0.0
 40
150.0
 41
0.0
 71
     6
 72
     1
  1
E部
  7
STYLE1
 73
     1
 44
1.0
1001
ACAD
1000
MTEXTBEGIN
1070
    73
1070
     1
1070
    44
1040
1.0
1070
    74
1070
     0
1000
MTEXTEND
  0
CIRCLE
  5
1DA23
330
747D
100
AcDbEntity
  8
想像線
 48
10.0
100
AcDbCircle
 10
10279.5
 20
8632.000000000015
 30
0.0
 40
335.4121361059542
  0
DIMENSION
  5
1E143
330
747D
100
AcDbEntity
  8
寸法
 48
50.0
100
AcDbDimension
  2
*D23
 10
9699.25310699717
 20
8599.999999999997
 30
0.0
 11
9699.253106997169
 21
8329.940944881888
 31
0.0
 70
   160
 71
     5
 42
170.0
  3
INABA_S50G
100
AcDbAlignedDimension
 13
9621.154171508045
 23
8769.999999999996
 33
0.0
 14
9621.154171508045
 24
8599.999999999997
 34
0.0
 50
90.0
100
AcDbRotatedDimension
1001
ACAD
1000
DSTYLE
1002
{
1070
    40
1040
1.0
1070
   341
1005
0
1002
}
  0
DIMENSION
  5
1EE45
330
747D
100
AcDbEntity
  8
寸法
 48
50.0
100
AcDbDimension
  2
*D24
 10
7644.5
 20
9788.206426863661
 30
0.0
 11
8097.000000000184
 21
9888.206426863661
 31
0.0
 70
    32
 71
     5
 42
905.0000000003691
  3
INABA_S50G
100
AcDbAlignedDimension
 13
8549.500000000369
 23
9700.000000000002
 33
0.0
 14
7644.5
 24
9621.073587573164
 34
0.0
100
AcDbRotatedDimension
1001
ACAD
1000
DSTYLE
1002
{
1070
    40
1040
1.0
1070
   341
1005
0
1002
}
  0
DIMENSION
  5
1EE47
330
747D
100
AcDbEntity
  8
寸法
 48
50.0
100
AcDbDimension
  2
*D25
 10
8549.500000000369
 20
9788.206426863661
 30
0.0
 11
8964.500000000185
 21
9888.206426863661
 31
0.0
 70
    32
 71
     5
 42
829.9999999996343
  3
INABA_S50G
100
AcDbAlignedDimension
 13
9379.500000000005
 23
9700.000000000002
 33
0.0
 14
8549.500000000369
 24
9700.000000000002
 34
0.0
100
AcDbRotatedDimension
1001
ACAD
1000
DSTYLE
1002
{
1070
    40
1040
1.0
1070
   341
1005
0
1002
}
  0
DIMENSION
  5
1EE48
330
747D
100
AcDbEntity
  8
寸法
 48
50.0
100
AcDbDimension
  2
*D26
 10
9379.500000000367
 20
9788.206426863661
 30
0.0
 11
9829.500000000182
 21
9888.206426863661
 31
0.0
 70
    32
 71
     5
 42
899.9999999996289
  3
INABA_S50G
100
AcDbAlignedDimension
 13
10279.49999999999
 23
9700.000000000002
 33
0.0
 14
9379.500000000367
 24
9700.000000000002
 34
0.0
100
AcDbRotatedDimension
1001
ACAD
1000
DSTYLE
1002
{
1070
    40
1040
1.0
1070
   341
1005
0
1002
}
  0
LEADER
  5
202EE
330
747D
100
AcDbEntity
  8
寸法
 48
50.0
100
AcDbLeader
  3
INABA_S50G
 73
     0
 74
     0
 75
     1
 40
150.0
 41
231.9898538650463
 76
     3
 10
12048.10054629991
 20
9360.54746919302
 30
0.0
 10
12082.28890291156
 20
9135.587483894102
 30
0.0
 10
12207.28890291156
 20
9135.587483894102
 30
0.0
340
202EF
1001
ACAD
1000
DSTYLE
1002
{
1070
    40
1040
1.0
1002
}
  0
MTEXT
  5
202EF
102
{ACAD_REACTORS
330
202EE
102
}
330
747D
100
AcDbEntity
  8
部品1
 62
     7
 48
50.0
100
AcDbMText
 10
12232.28890291156
 20
9235.587483894102
 30
0.0
 40
150.0
 41
0.0
 71
     4
 72
     1
  1
\A1;C.B
  7
STYLE1
 73
     1
 44
1.0
1001
ACAD
1000
MTEXTBEGIN
1070
    73
1070
     1
1070
    44
1040
1.0
1070
    74
1070
     0
1000
MTEXTEND
  0
LINE
  5
20BA1
330
747D
100
AcDbEntity
  8
細線
 48
50.0
100
AcDbLine
 10
8864.500000000372
 20
8699.971406250037
 30
0.0
 11
8934.52859375033
 21
8769.999999999996
 31
0.0
  0
LINE
  5
20BA2
330
747D
100
AcDbEntity
  8
細線
 48
50.0
100
AcDbLine
 10
8864.500000000372
 20
8637.109613402548
 30
0.0
 11
8997.390386597819
 21
8769.999999999996
 31
0.0
  0
LINE
  5
20BA3
330
747D
100
AcDbEntity
  8
細線
 48
50.0
100
AcDbLine
 10
9015.975765140266
 20
8599.999999999997
 30
0.0
 11
9064.50000000037
 21
8648.524234860097
 31
0.0
  0
LINE
  5
20BA4
330
747D
100
AcDbEntity
  8
細線
 48
50.0
100
AcDbLine
 10
8953.113972292788
 20
8599.999999999997
 30
0.0
 11
9064.500000000371
 21
8711.386027707579
 31
0.0
  0
LINE
  5
20BA5
330
747D
100
AcDbEntity
  8
細線
 48
50.0
100
AcDbLine
 10
8890.252179445301
 20
8599.999999999997
 30
0.0
 11
9060.252179445301
 21
8769.999999999996
 31
0.0
  0
LINE
  5
20BA9
330
747D
100
AcDbEntity
  8
部品1
 48
50.0
100
AcDbLine
 10
8864.500000000369
 20
8769.999999999996
 30
0.0
 11
8864.500000000369
 21
8599.999999999997
 31
0.0
  0
LINE
  5
20BAB
330
747D
100
AcDbEntity
  8
細線
 48
50.0
100
AcDbLine
 10
8864.500000000369
 20
8762.833199097517
 30
0.0
 11
8871.666800902849
 21
8769.999999999996
 31
0.0
  0
LINE
  5
20BAC
330
747D
100
AcDbEntity
  8
細線
 48
50.0
100
AcDbLine
 10
8864.500000000367
 20
10359.64642716668
 30
0.0
 11
8904.853572833678
 21
10399.99999999999
 31
0.0
  0
LINE
  5
20BAD
330
747D
100
AcDbEntity
  8
細線
 48
50.0
100
AcDbLine
 10
8864.500000000367
 20
10296.78463431919
 30
0.0
 11
8967.715365681163
 21
10399.99999999999
 31
0.0
  0
LINE
  5
20BB0
330
747D
100
AcDbEntity
  8
部品1
 48
50.0
100
AcDbLine
 10
8864.500000000369
 20
10399.99999999999
 30
0.0
 11
8864.500000000369
 21
10279.99999999998
 31
0.0
  0
LINE
  5
20BB2
330
747D
100
AcDbEntity
  8
細線
 48
50.0
100
AcDbLine
 10
9036.300744223611
 20
10279.99999999998
 30
0.0
 11
9064.50000000037
 21
10308.19925577674
 31
0.0
  0
LINE
  5
20BB3
330
747D
100
AcDbEntity
  8
細線
 48
50.0
100
AcDbLine
 10
8910.57715852864
 20
10279.99999999998
 30
0.0
 11
9030.57715852865
 21
10399.99999999999
 31
0.0
  0
LINE
  5
20BB4
330
747D
100
AcDbEntity
  8
細線
 48
50.0
100
AcDbLine
 10
8973.438951376119
 20
10279.99999999998
 30
0.0
 11
9064.50000000037
 21
10371.06104862423
 31
0.0
  0
TEXT
  5
20C84
330
747D
100
AcDbEntity
  8
文字
 62
     7
 48
50.0
100
AcDbText
 10
16511.28370703062
 20
88.05691871135051
 30
0.0
 40
100.0
  1
※布基礎には換気口を設けてください。
  7
STYLE2
100
AcDbText
  0
TEXT
  5
21353
330
747D
100
AcDbEntity
  8
文字
 62
     7
 48
50.0
100
AcDbText
 10
9615.215589723685
 20
5831.098194421624
 30
0.0
 40
125.0
  1
S=1/20
  7
STYLE2
100
AcDbText
  0
LINE
  5
21354
330
747D
100
AcDbEntity
  8
部品1
 48
50.0
100
AcDbLine
 10
9869.093292556936
 20
432.2209976231533
 30
0.0
 11
9417.079395803302
 21
432.2209976231533
 31
0.0
  0
LINE
  5
21355
330
747D
100
AcDbEntity
  8
部品1
 48
50.0
100
AcDbLine
 10
9869.093292556936
 20
232.2209976231534
 30
0.0
 11
9417.079395803302
 21
232.2209976231534
 31
0.0
  0
TEXT
  5
21356
330
747D
100
AcDbEntity
  8
部品1
 48
50.0
100
AcDbText
 10
9494.082439726101
 20
274.7113622887737
 30
0.0
 40
120.0
  1
Ｃ部
  7
STYLE2
100
AcDbText
  0
TEXT
  5
21357
330
747D
100
AcDbEntity
  8
部品1
 48
50.0
100
AcDbText
 10
9206.339388102918
 20
2553.858127577209
 30
0.0
 40
120.0
  1
Ｂ－Ｂ’断面
  7
STYLE2
100
AcDbText
  0
LINE
  5
21358
330
747D
100
AcDbEntity
  8
部品1
 48
50.0
100
AcDbLine
 10
10129.33634418011
 20
2511.367762911588
 30
0.0
 11
9129.336344180119
 21
2511.367762911588
 31
0.0
  0
LINE
  5
21359
330
747D
100
AcDbEntity
  8
部品1
 48
50.0
100
AcDbLine
 10
10129.33634418011
 20
2711.367762911589
 30
0.0
 11
9129.336344180119
 21
2711.367762911589
 31
0.0
  0
LINE
  5
2135A
330
747D
100
AcDbEntity
  8
細線
 48
50.0
100
AcDbLine
 10
16201.19820779696
 20
135.8143065415861
 30
0.0
 11
2256.322591272325
 21
135.8143065415861
 31
0.0
  0
LINE
  5
2135B
330
747D
100
AcDbEntity
  8
細線
 48
50.0
100
AcDbLine
 10
10183.16050040816
 20
5742.422182553771
 30
0.0
 11
8274.360298661132
 21
5742.422182553771
 31
0.0
  0
LINE
  5
2135C
330
747D
100
AcDbEntity
  8
細線
 48
50.0
100
AcDbLine
 10
8274.360298661132
 20
6042.422182553771
 30
0.0
 11
10183.16050040816
 21
6042.422182553771
 31
0.0
  0
DIMENSION
  5
2135D
330
747D
100
AcDbEntity
  8
寸法
 48
50.0
100
AcDbDimension
  2
*D28
 10
9005.682731468274
 20
1326.726218645135
 30
0.0
 11
8969.660831618602
 21
1402.430870114986
 31
0.0
 70
   160
  1
55
 71
     5
 42
55.0
  3
INABA_S50G詳細S20用
100
AcDbAlignedDimension
 13
9589.890140993766
 23
1464.226218645135
 33
0.0
 14
9588.207011870236
 24
1326.726218645135
 34
0.0
 50
90.0
100
AcDbRotatedDimension
1001
ACAD
1000
DSTYLE
1002
{
1070
    40
1040
1.0
1070
   279
1070
     1
1002
}
  0
LEADER
  5
2135E
330
747D
100
AcDbEntity
  8
寸法
 48
50.0
100
AcDbLeader
  3
INABA_S50G詳細用
 71
     0
 73
     0
 75
     1
 40
150.0
 41
509.9999999999997
 76
     3
 10
9623.678558336925
 20
1326.726218645137
 30
0.0
 10
9056.935476280749
 20
582.7514257238497
 30
0.0
 10
8931.935476280749
 20
582.7514257238497
 30
0.0
340
2135F
1001
ACAD
1000
DSTYLE
1002
{
1070
    40
1040
1.0
1070
    77
1070
     1
1002
}
  0
MTEXT
  5
2135F
102
{ACAD_REACTORS
330
2135E
102
}
330
747D
100
AcDbEntity
  8
寸法
 62
     7
 48
50.0
100
AcDbMText
 10
8906.935476280748
 20
607.7514257238497
 30
0.0
 40
150.0
 41
0.0
 71
     9
 72
     1
  1
\A1;柱前左
  7
STYLE1
 73
     1
 44
1.0
1001
ACAD
1000
MTEXTBEGIN
1070
    73
1070
     1
1070
    44
1040
1.0
1070
    74
1070
     0
1000
MTEXTEND
  0
SPLINE
  5
21361
102
{ACAD_REACTORS
330
22F27
102
}
330
747D
100
AcDbEntity
  8
部品1
 48
50.0
100
AcDbSpline
210
0.0
220
0.0
230
1.0
 70
     8
 71
     3
 72
    11
 73
     7
 74
     5
 42
0.0000000001
 43
0.0000000001
 44
0.0000000001
 40
0.0
 40
0.0
 40
0.0
 40
0.0
 40
142.4562004170196
 40
249.0971287921331
 40
365.1670311020035
 40
496.9286002756863
 40
496.9286002756863
 40
496.9286002756863
 40
496.9286002756863
 10
9952.790345203572
 20
2237.710153076671
 30
0.0
 10
9906.922221707761
 20
2261.804886960238
 30
0.0
 10
9826.717795137049
 20
2303.936637012798
 30
0.0
 10
9717.29993438903
 20
2234.828010293739
 30
0.0
 10
9606.448038794043
 20
2175.363374458977
 30
0.0
 10
9527.889793347254
 20
2216.068793768902
 30
0.0
 10
9486.123678536904
 20
2237.710153076671
 30
0.0
 11
9952.790345203572
 21
2237.710153076671
 31
0.0
 11
9817.006218324303
 21
2280.796576981291
 31
0.0
 11
9719.45701187024
 21
2237.710153076671
 31
0.0
 11
9611.123678536905
 21
2196.043486410003
 31
0.0
 11
9486.123678536904
 21
2237.710153076671
 31
0.0
  0
LINE
  5
21362
330
747D
100
AcDbEntity
  8
部品1
 48
50.0
100
AcDbLine
 10
9119.457011870236
 20
1739.226218645135
 30
0.0
 11
9569.457011870236
 21
1739.226218645135
 31
0.0
  0
LINE
  5
21365
330
747D
100
AcDbEntity
  8
部品1
 48
50.0
100
AcDbLine
 10
9119.457011870242
 20
864.2262186451354
 30
0.0
 11
9994.457011870242
 21
864.2262186451368
 31
0.0
  0
LINE
  5
21366
102
{ACAD_REACTORS
330
22CD6
102
}
330
747D
100
AcDbEntity
  8
部品1
 48
50.0
100
AcDbLine
 10
9719.457011870238
 20
4111.589090797055
 30
0.0
 11
9900.707011870238
 21
4111.58909079706
 31
0.0
  0
LINE
  5
21367
102
{ACAD_REACTORS
330
22CD6
102
}
330
747D
100
AcDbEntity
  8
部品1
 48
50.0
100
AcDbLine
 10
9719.457011870238
 20
4134.089090797058
 30
0.0
 11
9900.707011870238
 21
4134.08909079706
 31
0.0
  0
LINE
  5
21368
330
747D
100
AcDbEntity
  8
部品1
 48
50.0
100
AcDbLine
 10
9719.457011870229
 20
4997.839090797061
 30
0.0
 11
9839.457011870235
 21
4997.839090797057
 31
0.0
  0
DIMENSION
  5
21369
330
747D
100
AcDbEntity
  8
寸法
 48
50.0
100
AcDbDimension
  2
*D29
 10
11106.56112043082
 20
3997.839090797058
 30
0.0
 11
11092.06268643508
 21
4467.244393864806
 31
0.0
 70
   160
  1
基礎天ヨリ\P<>
 71
     5
 42
350.0000000000002
  3
INABA_S50G詳細S20用
100
AcDbAlignedDimension
 13
10441.17745836272
 23
4872.839090797057
 33
0.0
 14
9719.457011870238
 24
3997.839090797058
 34
0.0
 50
90.0
100
AcDbRotatedDimension
1001
ACAD
1000
DSTYLE
1002
{
1070
    40
1040
1.0
1070
   279
1070
     1
1002
}
  0
LINE
  5
2136A
330
747D
100
AcDbEntity
  8
部品1
 48
50.0
100
AcDbLine
 10
9119.457011870236
 20
3747.839090797056
 30
0.0
 11
9994.457011870224
 21
3747.839090797061
 31
0.0
  0
HATCH
  5
2136B
330
747D
100
AcDbEntity
  8
細線
 48
50.0
100
AcDbHatch
 10
0.0
 20
0.0
 30
0.0
210
0.0
220
0.0
230
1.0
  2
LINE
 70
     0
 71
     1
 91
        1
 92
        7
 72
     0
 73
     1
 93
        4
 10
10056.95701187023
 20
3547.839090797059
 10
10056.95701187023
 20
3747.839090797059
 10
9056.957011870229
 20
3747.83909079706
 10
9056.957011870229
 20
3547.839090797056
 97
        4
330
2136D
330
2158B
330
2136C
330
21666
 75
     0
 76
     1
 52
75.0
 41
37.5
 77
     0
 78
     1
 53
75.0
 43
-8012.637122175361
 44
15941.29717755309
 45
-115.0055436925422
 46
30.81564255751887
 79
     0
 47
2.300206460912943
 98
        1
 10
9568.453328826675
 20
3638.372856022468
  0
LINE
  5
2136C
102
{ACAD_REACTORS
330
2136B
102
}
330
747D
100
AcDbEntity
  8
部品1
 48
50.0
100
AcDbLine
 10
10056.95701187023
 20
3547.839090797059
 30
0.0
 11
9056.957011870229
 21
3547.839090797057
 31
0.0
  0
LINE
  5
2136D
102
{ACAD_REACTORS
330
2136B
330
22CD6
102
}
330
747D
100
AcDbEntity
  8
部品1
 48
50.0
100
AcDbLine
 10
10056.95701187023
 20
3747.83909079706
 30
0.0
 11
9056.957011870229
 21
3747.83909079706
 31
0.0
  0
DIMENSION
  5
2136E
330
747D
100
AcDbEntity
  8
寸法
 48
50.0
100
AcDbDimension
  2
*D30
 10
9994.457011870224
 20
3171.535829983347
 30
0.0
 11
9556.957011870229
 21
3271.535829983347
 31
0.0
 70
    32
  1
\U+25A1<>
 71
     5
 42
349.9999999999949
  3
INABA_S50G詳細S20用
100
AcDbAlignedDimension
 13
9119.457011870236
 23
3547.839090797057
 33
0.0
 14
9994.457011870224
 24
3547.839090797059
 34
0.0
100
AcDbRotatedDimension
1001
ACAD
1000
DSTYLE
1002
{
1070
    40
1040
1.0
1002
}
  0
LINE
  5
21370
330
747D
100
AcDbEntity
  8
細線
 48
50.0
100
AcDbLine
 10
2256.322591272325
 20
135.8143065415861
 30
0.0
 11
2256.322591272325
 21
5892.422182553771
 31
0.0
  0
DIMENSION
  5
2149E
330
747D
100
AcDbEntity
  8
寸法
 48
50.0
100
AcDbDimension
  2
*D31
 10
8617.647383049888
 20
1739.226218645135
 30
0.0
 11
8517.647383049888
 21
1301.726218645137
 31
0.0
 70
    32
  1
\U+25A1<>穴
 71
     5
 42
350.0
  3
INABA_S50G詳細S20用
100
AcDbAlignedDimension
 13
9119.457011870242
 23
864.2262186451354
 33
0.0
 14
8765.827105956764
 24
1739.226218645135
 34
0.0
 50
90.0
100
AcDbRotatedDimension
1001
ACAD
1000
DSTYLE
1002
{
1070
    40
1040
1.0
1002
}
  0
LINE
  5
2149F
330
747D
100
AcDbEntity
  8
部品1
 48
50.0
100
AcDbLine
 10
9119.457011870242
 20
864.2262186451354
 30
0.0
 11
9119.457011870236
 21
1739.226218645135
 31
0.0
  0
LINE
  5
214A0
330
747D
100
AcDbEntity
  8
部品1
 48
50.0
100
AcDbLine
 10
9417.079395803302
 20
432.2209976231533
 30
0.0
 11
9417.079395803302
 21
232.2209976231534
 31
0.0
  0
LINE
  5
214A1
330
747D
100
AcDbEntity
  8
細線
 48
50.0
100
AcDbLine
 10
2256.322591272325
 20
5892.422182553771
 30
0.0
 11
8174.360298661133
 21
5892.422182553771
 31
0.0
  0
MTEXT
  5
214A2
102
{ACAD_REACTORS
330
214A3
102
}
330
747D
100
AcDbEntity
  8
寸法
 62
     7
 48
50.0
100
AcDbMText
 10
5578.494109735115
 20
5278.231088855838
 30
0.0
 40
150.0
 41
0.0
 71
     7
 72
     1
  1
アンカーボルト
  7
STYLE1
 73
     1
 44
0.6800000000000001
1001
ACAD
1000
MTEXTBEGIN
1070
    73
1070
     1
1070
    44
1040
0.6800000000000001
1070
    74
1070
     0
1000
MTEXTEND
  0
LEADER
  5
214A3
330
747D
100
AcDbEntity
  8
寸法
 48
50.0
100
AcDbLeader
  3
INABA_S50G詳細用
 71
     0
 73
     0
 75
     1
 40
150.0
 41
1242.936553006146
 76
     3
 10
7244.74479979293
 20
4767.92406657
 30
0.0
 10
6971.430662741261
 20
5253.231088855837
 30
0.0
 10
6846.430662741261
 20
5253.231088855837
 30
0.0
340
214A2
1001
ACAD
1000
DSTYLE
1002
{
1070
    40
1040
1.0
1070
    77
1070
     1
1002
}
  0
TEXT
  5
214A4
330
747D
100
AcDbEntity
  8
部品1
 48
50.0
100
AcDbText
 10
5619.371800812827
 20
5054.62991236121
 30
0.0
 40
150.0
  1
M10×160
  7
STYLE1
100
AcDbText
  0
MTEXT
  5
214A7
102
{ACAD_REACTORS
330
214B1
102
}
330
747D
100
AcDbEntity
  8
寸法
 62
     7
 48
50.0
100
AcDbMText
 10
3643.374735014926
 20
5212.423428338389
 30
0.0
 40
150.0
 41
0.0
 71
     9
 72
     1
  1
金コテ押エ
  7
STYLE1
 73
     1
 44
1.0
1001
ACAD
1000
MTEXTBEGIN
1070
    73
1070
     1
1070
    44
1040
1.0
1070
    74
1070
     0
1000
MTEXTEND
  0
DIMENSION
  5
214A8
330
747D
100
AcDbEntity
  8
寸法
 48
50.0
100
AcDbDimension
  2
*D32
 10
3977.294157204975
 20
5272.65982963964
 30
0.0
 11
4127.294157204975
 21
5497.674593419167
 31
0.0
 70
    32
  1
<>\P170
 71
     5
 42
120.0
  3
INABA_S50G詳細S20用
100
AcDbAlignedDimension
 13
4277.294157204975
 23
4872.839090797059
 33
0.0
 14
3977.294157204975
 24
4872.839090797059
 34
0.0
100
AcDbRotatedDimension
1001
ACAD
1000
DSTYLE
1002
{
1070
    40
1040
1.0
1002
}
  0
TEXT
  5
214AA
330
747D
100
AcDbEntity
  8
寸法
 62
     7
 48
50.0
100
AcDbText
 10
3279.010002065486
 20
2822.945773980013
 30
0.0
 40
100.0
  1
基礎天は面取しないでください
  7
STYLE1
100
AcDbText
  0
LEADER
  5
214AB
330
747D
100
AcDbEntity
  8
寸法
 48
50.0
100
AcDbLeader
  3
INABA_S50G詳細用
 71
     0
 73
     0
 75
     1
 40
152.0863094478901
 41
255.1181102362205
 76
     3
 10
3927.294157204975
 20
3722.839090797059
 30
0.0
 10
3621.185132353405
 20
3140.834453481717
 30
0.0
 10
3496.185132353405
 20
3140.834453481717
 30
0.0
340
214AC
1001
ACAD
1000
DSTYLE
1002
{
1070
    40
1040
1.0
1070
    77
1070
     1
1002
}
  0
MTEXT
  5
214AC
102
{ACAD_REACTORS
330
214AB
102
}
330
747D
100
AcDbEntity
  8
寸法
 62
     7
 48
50.0
100
AcDbMText
 10
3471.185132353405
 20
3165.834453481717
 30
0.0
 40
150.0
 41
0.0
 71
     9
 72
     1
  1
D10
  7
STYLE1
 73
     1
 44
1.0
1001
ACAD
1000
MTEXTBEGIN
1070
    73
1070
     1
1070
    44
1040
1.0
1070
    74
1070
     0
1000
MTEXTEND
  0
LEADER
  5
214AD
330
747D
100
AcDbEntity
  8
寸法
 48
50.0
100
AcDbLeader
  3
INABA_S50G詳細用
 71
     0
 73
     0
 75
     1
 40
199.416260736239
 41
735.1181102362204
 76
     3
 10
4155.316565353111
 20
4265.675122551164
 30
0.0
 10
3813.35928628692
 20
4016.742178201037
 30
0.0
 10
3688.35928628692
 20
4016.742178201037
 30
0.0
340
214AE
1001
ACAD
1000
DSTYLE
1002
{
1070
    40
1040
1.0
1070
    77
1070
     1
1002
}
  0
MTEXT
  5
214AE
102
{ACAD_REACTORS
330
214AD
102
}
330
747D
100
AcDbEntity
  8
寸法
 62
     7
 48
50.0
100
AcDbMText
 10
3663.359286286919
 20
4041.742178201038
 30
0.0
 40
150.0
 41
0.0
 71
     9
 72
     1
  1
D10@300
  7
STYLE1
 73
     1
 44
1.0
1001
ACAD
1000
MTEXTBEGIN
1070
    73
1070
     1
1070
    44
1040
1.0
1070
    74
1070
     0
1000
MTEXTEND
  0
MTEXT
  5
214AF
102
{ACAD_REACTORS
330
214B0
102
}
330
747D
100
AcDbEntity
  8
寸法
 62
     7
 48
50.0
100
AcDbMText
 10
3717.697805324664
 20
4985.725938077428
 30
0.0
 40
150.0
 41
0.0
 71
     9
 72
     1
  1
D13
  7
STYLE1
 73
     1
 44
1.0
1001
ACAD
1000
MTEXTBEGIN
1070
    73
1070
     1
1070
    44
1040
1.0
1070
    74
1070
     0
1000
MTEXTEND
  0
LEADER
  5
214B0
330
747D
100
AcDbEntity
  8
寸法
 48
50.0
100
AcDbLeader
  3
INABA_S50G
 71
     0
 73
     0
 75
     1
 40
152.0863094478901
 41
261.2132034355964
 76
     3
 10
4127.294157204975
 20
4731.589090797059
 30
0.0
 10
3867.697805324664
 20
4960.725938077428
 30
0.0
 10
3742.697805324664
 20
4960.725938077428
 30
0.0
340
214AF
1001
ACAD
1000
DSTYLE
1002
{
1070
    40
1040
1.0
1070
    77
1070
     1
1070
   341
1005
11750
1002
}
  0
LEADER
  5
214B1
330
747D
100
AcDbEntity
  8
寸法
 48
50.0
100
AcDbLeader
  3
INABA_S50G
 71
     0
 73
     0
 75
     1
 40
150.0
 41
877.5000000000002
 76
     3
 10
4127.294157204975
 20
4872.839090797059
 30
0.0
 10
3793.374735014926
 20
5187.423428338388
 30
0.0
 10
3668.374735014926
 20
5187.423428338388
 30
0.0
340
214A7
1001
ACAD
1000
DSTYLE
1002
{
1070
    40
1040
1.0
1070
    77
1070
     1
1070
   341
1005
11750
1002
}
  0
LWPOLYLINE
  5
214B2
330
747D
100
AcDbEntity
  8
部品1
 48
50.0
100
AcDbPolyline
 90
        2
 70
     0
 10
2814.716384230662
 20
4497.839090797059
 40
18.75
 41
18.75
 10
3977.294157204975
 20
4497.839090797059
 40
12.5
 41
12.5
  0
LINE
  5
214B3
102
{ACAD_REACTORS
330
214BE
330
214B5
102
}
330
747D
100
AcDbEntity
  8
部品1
 48
50.0
100
AcDbLine
 10
4627.294157204975
 20
3522.839090797059
 30
0.0
 11
3627.294157204975
 21
3522.839090797059
 31
0.0
  0
LINE
  5
214B4
102
{ACAD_REACTORS
330
214B5
102
}
330
747D
100
AcDbEntity
  8
部品1
 48
50.0
100
AcDbLine
 10
4627.294157204975
 20
3322.839090797059
 30
0.0
 11
3627.294157204975
 21
3322.839090797057
 31
0.0
  0
HATCH
  5
214B5
330
747D
100
AcDbEntity
  8
細線
 48
50.0
100
AcDbHatch
 10
0.0
 20
0.0
 30
0.0
210
0.0
220
0.0
230
1.0
  2
LINE
 70
     0
 71
     1
 91
        1
 92
        7
 72
     0
 73
     1
 93
        4
 10
4627.294157204975
 20
3322.839090797059
 10
4627.294157204975
 20
3522.839090797059
 10
3627.294157204975
 20
3522.839090797059
 10
3627.294157204975
 20
3322.839090797057
 97
        4
330
214B3
330
214B7
330
214B4
330
214DB
 75
     0
 76
     1
 52
75.0
 41
37.5
 77
     0
 78
     1
 53
75.0
 43
-13442.29997684061
 44
15716.29717755309
 45
-115.0055436925422
 46
30.81564255751887
 79
     0
 47
2.300206460912943
 98
        1
 10
4138.790474161422
 20
3413.372856022468
  0
DIMENSION
  5
214B6
330
747D
100
AcDbEntity
  8
寸法
 48
50.0
100
AcDbDimension
  2
*D33
 10
2743.8003303585
 20
3522.839090797059
 30
0.0
 11
2643.8003303585
 21
4197.839090797059
 31
0.0
 70
    32
 71
     5
 42
540.0
  3
INABA_S50G詳細S20用
100
AcDbAlignedDimension
 13
3977.294157204975
 23
4872.839090797059
 33
0.0
 14
3627.294157204975
 24
3522.839090797059
 34
0.0
 50
90.0
100
AcDbRotatedDimension
1001
ACAD
1000
DSTYLE
1002
{
1070
    40
1040
1.0
1002
}
  0
LINE
  5
214B7
102
{ACAD_REACTORS
330
214B5
102
}
330
747D
100
AcDbEntity
  8
部品1
 48
50.0
100
AcDbLine
 10
3627.294157204975
 20
3322.839090797057
 30
0.0
 11
3627.294157204975
 21
3522.839090797059
 31
0.0
  0
TEXT
  5
214B8
330
747D
100
AcDbEntity
  8
寸法
 62
     7
 48
50.0
100
AcDbText
 10
2866.977488717891
 20
4517.133817628801
 30
0.0
 40
150.0
  1
▽G.L
  7
STYLE1
100
AcDbText
  0
DIMENSION
  5
214B9
330
747D
100
AcDbEntity
  8
寸法
 48
50.0
100
AcDbDimension
  2
*D34
 10
5091.032200302115
 20
3897.839090797059
 30
0.0
 11
5091.032200302113
 21
3710.339090797059
 31
0.0
 70
   160
 71
     5
 42
150.0
  3
INABA_S50G詳細S20用
100
AcDbAlignedDimension
 13
4627.294157204975
 23
3522.839090797059
 33
0.0
 14
4502.294157204975
 24
3897.839090797059
 34
0.0
 50
90.0
100
AcDbRotatedDimension
1001
ACAD
1000
DSTYLE
1002
{
1070
    40
1040
1.0
1002
}
  0
LINE
  5
214BA
102
{ACAD_REACTORS
330
214BE
102
}
330
747D
100
AcDbEntity
  8
部品1
 48
50.0
100
AcDbLine
 10
4502.294157204975
 20
3897.839090797059
 30
0.0
 11
4502.294157204975
 21
3522.839090797059
 31
0.0
  0
LINE
  5
214BB
102
{ACAD_REACTORS
330
214BE
102
}
330
747D
100
AcDbEntity
  8
部品1
 48
50.0
100
AcDbLine
 10
3752.294157204975
 20
3522.839090797059
 30
0.0
 11
3752.294157204975
 21
3897.839090797059
 31
0.0
  0
LINE
  5
214BC
102
{ACAD_REACTORS
330
214BE
102
}
330
747D
100
AcDbEntity
  8
部品1
 48
50.0
100
AcDbLine
 10
4168.544157204983
 20
4732.839090797059
 30
0.0
 11
4168.544157204966
 21
3725.339090797059
 31
0.0
  0
LINE
  5
214BD
102
{ACAD_REACTORS
330
214BE
102
}
330
747D
100
AcDbEntity
  8
部品1
 48
50.0
100
AcDbLine
 10
4143.544157204974
 20
4732.839090797059
 30
0.0
 11
4143.544157204966
 21
3725.33909079706
 31
0.0
  0
HATCH
  5
214BE
330
747D
100
AcDbEntity
  8
細線
 48
50.0
100
AcDbHatch
 10
0.0
 20
0.0
 30
0.0
210
0.0
220
0.0
230
1.0
  2
PLAST
 70
     0
 71
     1
 91
        2
 92
        7
 72
     0
 73
     1
 93
        8
 10
4277.294157204975
 20
4872.839090797059
 10
3977.294157204975
 20
4872.83909079706
 10
3977.294157204975
 20
3897.839090797059
 10
3752.294157204975
 20
3897.839090797059
 10
3752.294157204975
 20
3522.839090797059
 10
4502.294157204976
 20
3522.839090797059
 10
4502.294157204976
 20
3897.839090797059
 10
4277.294157204975
 20
3897.839090797059
 97
        8
330
214FE
330
214F2
330
214F3
330
214BB
330
214B3
330
214BA
330
214FD
330
214F1
 92
       22
 72
     1
 73
     1
 93
       28
 10
4168.544157204966
 20
3725.339090797059
 42
-0.0963961176292894
 10
4165.625149640462
 20
3710.33909079706
 42
0.0
 10
4327.294157204975
 20
3710.339090797061
 42
-0.4142135623730525
 10
4314.794157204975
 20
3722.839090797059
 42
-1.0
 10
4339.794157204975
 20
3722.839090797059
 42
-0.4142135623730525
 10
4327.294157204975
 20
3710.339090797061
 42
0.0
 10
4352.294157204985
 20
3710.339090797061
 42
0.0
 10
4352.294157204975
 20
3685.339090797059
 42
0.0
 10
3902.294157204975
 20
3685.33909079706
 42
0.0
 10
3902.294157204975
 20
3710.339090797059
 42
0.0
 10
3927.294157204975
 20
3710.339090797059
 42
-0.4142135623730844
 10
3914.794157204975
 20
3722.839090797059
 42
-1.0
 10
3939.794157204975
 20
3722.839090797059
 42
-0.4142135623730951
 10
3927.294157204975
 20
3710.339090797059
 42
0.0
 10
4088.963164769479
 20
3710.33909079706
 42
-0.0963961176293067
 10
4086.044157204956
 20
3725.339090797058
 42
0.0
 10
4086.044157204947
 20
3826.589090797063
 42
0.0
 10
4111.044157204974
 20
3826.58909079706
 42
0.0
 10
4111.044157204984
 20
3726.589090797058
 42
-1.0
 10
4143.544157204966
 20
3726.589090797059
 42
0.0
 10
4143.544157204974
 20
4731.589090797059
 42
-1.0
 10
4111.044157204984
 20
4731.589090797061
 42
0.0
 10
4111.044157204974
 20
4631.589090797059
 42
0.0
 10
4086.044157204947
 20
4631.589090797056
 42
0.0
 10
4086.044157204956
 20
4732.839090797057
 42
-0.414213562372882
 10
4126.044157204927
 20
4772.839090797057
 42
0.0
 10
4128.544157204983
 20
4772.839090797059
 42
-0.4142135623731017
 10
4168.544157204983
 20
4732.839090797058
 42
0.0
 97
       21
330
214CC
330
214C9
330
214DE
330
214DF
330
214CA
330
214CF
330
214CE
330
214D0
330
214D1
330
214D2
330
214CD
330
214CB
330
214BD
330
214FF
330
21504
330
21503
330
21505
330
21502
330
21500
330
21501
330
214BC
 75
     0
 76
     1
 52
45.0
 41
37.5
 77
     0
 78
     3
 53
45.0
 43
-13442.29997684061
 44
15716.29717755309
 45
-168.3798022700466
 46
168.3798022700466
 79
     0
 53
45.0
 43
-13463.34745212437
 44
15737.34465283684
 45
-168.3798022700466
 46
168.3798022700466
 79
     0
 53
45.0
 43
-13484.39492740812
 44
15758.3921281206
 45
-168.3798022700466
 46
168.3798022700466
 79
     0
 47
4.554250812093354
 98
        2
 10
4203.706356669125
 20
4543.373842879935
 10
4203.706356669125
 20
4543.373842879935
  0
LEADER
  5
214BF
330
747D
100
AcDbEntity
  8
寸法
 48
50.0
100
AcDbLeader
  3
INABA_S50G詳細用
 71
     0
 73
     0
 74
     0
 75
     1
 40
152.0863094478901
 41
261.2132034355964
 76
     3
 10
4127.294157204975
 20
3726.589090797059
 30
0.0
 10
4627.905838847055
 20
3015.342413359442
 30
0.0
 10
4752.905838847055
 20
3015.342413359442
 30
0.0
340
214C0
1001
ACAD
1000
DSTYLE
1002
{
1070
    40
1040
1.0
1070
    77
1070
     1
1002
}
  0
MTEXT
  5
214C0
102
{ACAD_REACTORS
330
214BF
102
}
330
747D
100
AcDbEntity
  8
寸法
 62
     7
 48
50.0
100
AcDbMText
 10
4777.905838847056
 20
3040.342413359442
 30
0.0
 40
150.0
 41
0.0
 71
     7
 72
     1
  1
\A1;D13
  7
STYLE1
 73
     1
 44
1.0
1001
ACAD
1000
MTEXTBEGIN
1070
    73
1070
     1
1070
    44
1040
1.0
1070
    74
1070
     0
1000
MTEXTEND
  0
LEADER
  5
214C1
330
747D
100
AcDbEntity
  8
寸法
 48
50.0
100
AcDbLeader
  3
INABA_S50G詳細用
 71
     0
 73
     0
 74
     0
 75
     1
 40
199.416260736239
 41
735.1181102362204
 76
     3
 10
4288.493857106096
 20
3697.523032970329
 30
0.0
 10
4627.181328143647
 20
3231.814496303012
 30
0.0
 10
4752.181328143647
 20
3231.814496303012
 30
0.0
340
214C2
1001
ACAD
1000
DSTYLE
1002
{
1070
    40
1040
1.0
1070
    77
1070
     1
1002
}
  0
MTEXT
  5
214C2
102
{ACAD_REACTORS
330
214C1
102
}
330
747D
100
AcDbEntity
  8
寸法
 62
     7
 48
50.0
100
AcDbMText
 10
4777.181328143647
 20
3256.814496303012
 30
0.0
 40
150.0
 41
0.0
 71
     7
 72
     1
  1
\A1;D10@300
  7
STYLE1
 73
     1
 44
1.0
1001
ACAD
1000
MTEXTBEGIN
1070
    73
1070
     1
1070
    44
1040
1.0
1070
    74
1070
     0
1000
MTEXTEND
  0
DIMENSION
  5
214C3
330
747D
100
AcDbEntity
  8
寸法
 48
50.0
100
AcDbDimension
  2
*D35
 10
4502.294157204975
 20
3048.215541294103
 30
0.0
 11
4127.294157204975
 21
3148.215541294103
 31
0.0
 70
    32
 71
     5
 42
300.0
  3
INABA_S50G詳細S20用
100
AcDbAlignedDimension
 13
3752.294157204975
 23
3322.839090797057
 33
0.0
 14
4502.294157204975
 24
3322.839090797058
 34
0.0
100
AcDbRotatedDimension
1001
ACAD
1000
DSTYLE
1002
{
1070
    40
1040
1.0
1002
}
  0
TEXT
  5
214C4
330
747D
100
AcDbEntity
  8
部品1
 48
50.0
100
AcDbText
 10
3762.252549738489
 20
2550.377495667428
 30
0.0
 40
120.0
  1
基礎断面
  7
STYLE2
100
AcDbText
  0
LINE
  5
214C5
330
747D
100
AcDbEntity
  8
部品1
 48
50.0
100
AcDbLine
 10
4509.514423058219
 20
2511.367762911588
 30
0.0
 11
3709.514423058219
 21
2511.367762911588
 31
0.0
  0
LINE
  5
214C6
330
747D
100
AcDbEntity
  8
部品1
 48
50.0
100
AcDbLine
 10
4509.514423058219
 20
2711.367762911589
 30
0.0
 11
3709.514423058219
 21
2711.367762911589
 31
0.0
  0
LINE
  5
214C7
330
747D
100
AcDbEntity
  8
部品1
 48
50.0
100
AcDbLine
 10
3709.514423058219
 20
2711.367762911589
 30
0.0
 11
3709.514423058219
 21
2511.367762911588
 31
0.0
  0
LINE
  5
214C8
330
747D
100
AcDbEntity
  8
部品1
 48
50.0
100
AcDbLine
 10
4509.514423058219
 20
2711.367762911589
 30
0.0
 11
4509.514423058219
 21
2511.367762911588
 31
0.0
  0
LINE
  5
214C9
102
{ACAD_REACTORS
330
214BE
102
}
330
747D
100
AcDbEntity
  8
部品1
 48
50.0
100
AcDbLine
 10
3902.294157204975
 20
3710.339090797059
 30
0.0
 11
4352.294157204993
 21
3710.339090797061
 31
0.0
  0
LINE
  5
214CA
102
{ACAD_REACTORS
330
214BE
102
}
330
747D
100
AcDbEntity
  8
部品1
 48
50.0
100
AcDbLine
 10
3902.294157204975
 20
3685.33909079706
 30
0.0
 11
4352.294157204975
 21
3685.33909079706
 31
0.0
  0
CIRCLE
  5
214CB
102
{ACAD_REACTORS
330
214BE
102
}
330
747D
100
AcDbEntity
  8
部品1
 48
50.0
100
AcDbCircle
 10
4127.294157204975
 20
3726.589090797059
 30
0.0
 40
16.25
  0
ARC
  5
214CC
102
{ACAD_REACTORS
330
214BE
102
}
330
747D
100
AcDbEntity
  8
部品1
 48
50.0
100
AcDbCircle
 10
4128.544157204983
 20
3725.33909079706
 30
0.0
 40
40.0
100
AcDbArc
 50
337.9756871629567
 51
0.0
  0
LINE
  5
214CD
102
{ACAD_REACTORS
330
214BE
102
}
330
747D
100
AcDbEntity
  8
部品1
 48
50.0
100
AcDbLine
 10
4111.044157204984
 20
3725.339090797063
 30
0.0
 11
4111.044157204974
 21
3826.589090797062
 31
0.0
  0
CIRCLE
  5
214CE
102
{ACAD_REACTORS
330
214BE
102
}
330
747D
100
AcDbEntity
  8
部品1
 48
50.0
100
AcDbCircle
 10
3927.294157204975
 20
3722.839090797059
 30
0.0
 40
12.5
  0
LINE
  5
214CF
102
{ACAD_REACTORS
330
214BE
102
}
330
747D
100
AcDbEntity
  8
部品1
 48
50.0
100
AcDbLine
 10
3902.294157204975
 20
3685.33909079706
 30
0.0
 11
3902.294157204975
 21
3710.339090797059
 31
0.0
  0
ARC
  5
214D0
102
{ACAD_REACTORS
330
214BE
102
}
330
747D
100
AcDbEntity
  8
部品1
 48
50.0
100
AcDbCircle
 10
4126.044157204956
 20
3725.339090797063
 30
0.0
 40
40.0
100
AcDbArc
 50
180.0
 51
202.0243128370433
  0
LINE
  5
214D1
102
{ACAD_REACTORS
330
214BE
102
}
330
747D
100
AcDbEntity
  8
部品1
 48
50.0
100
AcDbLine
 10
4086.044157204956
 20
3725.339090797063
 30
0.0
 11
4086.044157204947
 21
3826.589090797062
 31
0.0
  0
LINE
  5
214D2
102
{ACAD_REACTORS
330
214BE
102
}
330
747D
100
AcDbEntity
  8
部品1
 48
50.0
100
AcDbLine
 10
4086.044157204947
 20
3826.589090797062
 30
0.0
 11
4111.044157204984
 21
3826.589090797061
 31
0.0
  0
LINE
  5
214D3
330
747D
100
AcDbEntity
  8
細線
 48
50.0
100
AcDbLine
 10
4081.654765888463
 20
3322.839090797053
 30
0.0
 11
4074.956036077679
 21
3347.839090797065
 31
0.0
  0
LINE
  5
214D4
330
747D
100
AcDbEntity
  8
細線
 48
50.0
100
AcDbLine
 10
3958.392195658387
 20
3322.839090797053
 30
0.0
 11
3951.693465847606
 21
3347.839090797061
 31
0.0
  0
LINE
  5
214D5
330
747D
100
AcDbEntity
  8
細線
 48
50.0
100
AcDbLine
 10
3868.623274482197
 20
3497.83909079706
 30
0.0
 11
3861.92454467142
 21
3522.839090797059
 31
0.0
  0
LINE
  5
214D6
330
747D
100
AcDbEntity
  8
細線
 48
50.0
100
AcDbLine
 10
4115.148414942345
 20
3497.839090797054
 30
0.0
 11
4108.449685131563
 21
3522.839090797059
 31
0.0
  0
LINE
  5
214D7
330
747D
100
AcDbEntity
  8
細線
 48
50.0
100
AcDbLine
 10
3991.88584471227
 20
3497.839090797054
 30
0.0
 11
3985.187114901492
 21
3522.839090797059
 31
0.0
  0
LINE
  5
214D8
330
747D
100
AcDbEntity
  8
細線
 48
50.0
100
AcDbLine
 10
3835.129625428312
 20
3322.839090797057
 30
0.0
 11
3828.43089561753
 21
3347.839090797068
 31
0.0
  0
LINE
  5
214D9
330
747D
100
AcDbEntity
  8
細線
 48
50.0
100
AcDbLine
 10
3711.867055198236
 20
3322.839090797057
 30
0.0
 11
3705.168325387454
 21
3347.839090797063
 31
0.0
  0
LINE
  5
214DA
330
747D
100
AcDbEntity
  8
細線
 48
50.0
100
AcDbLine
 10
3745.360704252126
 20
3497.83909079706
 30
0.0
 11
3738.661974441348
 21
3522.839090797059
 31
0.0
  0
LINE
  5
214DB
102
{ACAD_REACTORS
330
214B5
102
}
330
747D
100
AcDbEntity
  8
部品1
 48
50.0
100
AcDbLine
 10
4627.294157204975
 20
3522.839090797059
 30
0.0
 11
4627.294157204975
 21
3322.839090797059
 31
0.0
  0
LINE
  5
214DC
330
747D
100
AcDbEntity
  8
細線
 48
50.0
100
AcDbLine
 10
4574.705046808761
 20
3322.839090797053
 30
0.0
 11
4568.00631699798
 21
3347.839090797059
 31
0.0
  0
LINE
  5
214DD
330
747D
100
AcDbEntity
  8
細線
 48
50.0
100
AcDbLine
 10
4608.198695862646
 20
3497.839090797052
 30
0.0
 11
4601.499966051868
 21
3522.839090797054
 31
0.0
  0
CIRCLE
  5
214DE
102
{ACAD_REACTORS
330
214BE
102
}
330
747D
100
AcDbEntity
  8
部品1
 48
50.0
100
AcDbCircle
 10
4327.294157204975
 20
3722.839090797059
 30
0.0
 40
12.5
  0
LINE
  5
214DF
102
{ACAD_REACTORS
330
214BE
102
}
330
747D
100
AcDbEntity
  8
部品1
 48
50.0
100
AcDbLine
 10
4352.294157204983
 20
3710.339090797059
 30
0.0
 11
4352.294157204975
 21
3685.33909079706
 31
0.0
  0
LINE
  5
214E0
330
747D
100
AcDbEntity
  8
細線
 48
50.0
100
AcDbLine
 10
4451.442476578686
 20
3322.839090797053
 30
0.0
 11
4444.743746767906
 21
3347.839090797061
 31
0.0
  0
LINE
  5
214E1
330
747D
100
AcDbEntity
  8
細線
 48
50.0
100
AcDbLine
 10
4328.179906348612
 20
3322.839090797053
 30
0.0
 11
4321.481176537832
 21
3347.839090797065
 31
0.0
  0
LINE
  5
214E2
330
747D
100
AcDbEntity
  8
細線
 48
50.0
100
AcDbLine
 10
4204.917336118536
 20
3322.839090797053
 30
0.0
 11
4198.218606307757
 21
3347.839090797061
 31
0.0
  0
LINE
  5
214E3
330
747D
100
AcDbEntity
  8
細線
 48
50.0
100
AcDbLine
 10
4484.936125632572
 20
3497.83909079705
 30
0.0
 11
4478.237395821792
 21
3522.839090797056
 31
0.0
  0
LINE
  5
214E4
330
747D
100
AcDbEntity
  8
細線
 48
50.0
100
AcDbLine
 10
4361.673555402496
 20
3497.839090797054
 30
0.0
 11
4354.974825591718
 21
3522.839090797054
 31
0.0
  0
LINE
  5
214E5
330
747D
100
AcDbEntity
  8
細線
 48
50.0
100
AcDbLine
 10
4238.410985172419
 20
3497.83909079705
 30
0.0
 11
4231.712255361639
 21
3522.839090797056
 31
0.0
  0
LINE
  5
214F1
102
{ACAD_REACTORS
330
214BE
102
}
330
747D
100
AcDbEntity
  8
部品1
 48
50.0
100
AcDbLine
 10
4277.294157204975
 20
4872.839090797059
 30
0.0
 11
4277.294157204975
 21
3897.839090797059
 31
0.0
  0
LINE
  5
214F2
102
{ACAD_REACTORS
330
214BE
102
}
330
747D
100
AcDbEntity
  8
部品1
 48
50.0
100
AcDbLine
 10
3977.294157204975
 20
3897.839090797059
 30
0.0
 11
3977.294157204975
 21
4872.839090797059
 31
0.0
  0
LINE
  5
214F3
102
{ACAD_REACTORS
330
214BE
102
}
330
747D
100
AcDbEntity
  8
部品1
 48
50.0
100
AcDbLine
 10
3752.294157204975
 20
3897.839090797059
 30
0.0
 11
3977.294157204975
 21
3897.839090797059
 31
0.0
  0
LINE
  5
214FD
102
{ACAD_REACTORS
330
214BE
102
}
330
747D
100
AcDbEntity
  8
部品1
 48
50.0
100
AcDbLine
 10
4277.294157204975
 20
3897.839090797059
 30
0.0
 11
4502.294157204975
 21
3897.839090797059
 31
0.0
  0
LINE
  5
214FE
102
{ACAD_REACTORS
330
214BE
102
}
330
747D
100
AcDbEntity
  8
部品1
 48
50.0
100
AcDbLine
 10
3977.294157204975
 20
4872.839090797059
 30
0.0
 11
4277.294157204975
 21
4872.839090797059
 31
0.0
  0
CIRCLE
  5
214FF
102
{ACAD_REACTORS
330
214BE
102
}
330
747D
100
AcDbEntity
  8
部品1
 48
50.0
100
AcDbCircle
 10
4127.294157204975
 20
4731.589090797059
 30
0.0
 40
16.25
  0
LINE
  5
21500
102
{ACAD_REACTORS
330
214BE
102
}
330
747D
100
AcDbEntity
  8
部品1
 48
50.0
100
AcDbLine
 10
4126.044157204956
 20
4772.839090797057
 30
0.0
 11
4128.544157204983
 21
4772.839090797059
 31
0.0
  0
ARC
  5
21501
102
{ACAD_REACTORS
330
214BE
102
}
330
747D
100
AcDbEntity
  8
部品1
 48
50.0
100
AcDbCircle
 10
4128.544157204983
 20
4732.839090797059
 30
0.0
 40
40.0
100
AcDbArc
 50
0.0
 51
90.0
  0
ARC
  5
21502
102
{ACAD_REACTORS
330
214BE
102
}
330
747D
100
AcDbEntity
  8
部品1
 48
50.0
100
AcDbCircle
 10
4126.044157204956
 20
4732.839090797057
 30
0.0
 40
40.0
100
AcDbArc
 50
90.0
 51
180.0
  0
LINE
  5
21503
102
{ACAD_REACTORS
330
214BE
102
}
330
747D
100
AcDbEntity
  8
部品1
 48
50.0
100
AcDbLine
 10
4086.044157204947
 20
4631.589090797056
 30
0.0
 11
4111.044157204984
 21
4631.589090797059
 31
0.0
  0
LINE
  5
21504
102
{ACAD_REACTORS
330
214BE
102
}
330
747D
100
AcDbEntity
  8
部品1
 48
50.0
100
AcDbLine
 10
4111.044157204984
 20
4732.839090797057
 30
0.0
 11
4111.044157204974
 21
4631.589090797056
 31
0.0
  0
LINE
  5
21505
102
{ACAD_REACTORS
330
214BE
102
}
330
747D
100
AcDbEntity
  8
部品1
 48
50.0
100
AcDbLine
 10
4086.044157204956
 20
4732.839090797057
 30
0.0
 11
4086.044157204947
 21
4631.589090797056
 31
0.0
  0
LINE
  5
2150D
330
747D
100
AcDbEntity
  8
寸法
 48
50.0
100
AcDbLine
 10
7979.086926109768
 20
4948.223706181672
 30
0.0
 11
7979.086926109768
 21
5786.728434533172
 31
0.0
  0
MTEXT
  5
2150E
102
{ACAD_REACTORS
330
2159D
102
}
330
747D
100
AcDbEntity
  8
寸法
 62
     7
 48
50.0
100
AcDbMText
 10
9390.00244700527
 20
5111.316117484085
 30
0.0
 40
150.0
 41
0.0
 71
     9
 72
     1
  1
柱前左
  7
STYLE1
 73
     1
 44
1.0
1001
ACAD
1000
MTEXTBEGIN
1070
    73
1070
     1
1070
    44
1040
1.0
1070
    74
1070
     0
1000
MTEXTEND
  0
DIMENSION
  5
2150F
330
747D
100
AcDbEntity
  8
寸法
 48
50.0
100
AcDbDimension
  2
*D36
 10
7979.086926109768
 20
4872.839090797057
 30
0.0
 11
7979.086926109768
 21
5398.758063945813
 31
0.0
 70
   160
  1
出20～25
 71
     5
 42
30.15384615384574
  3
INABA_S50G詳細S20用
100
AcDbAlignedDimension
 13
7262.941409670154
 23
4948.223706181672
 33
0.0
 14
7346.745877891541
 24
4872.839090797057
 34
0.0
 50
90.0
100
AcDbRotatedDimension
1001
ACAD
1000
DSTYLE
1002
{
1070
   279
1070
     1
1070
    40
1040
1.0
1002
}
  0
DIMENSION
  5
21510
330
747D
100
AcDbEntity
  8
寸法
 48
50.0
100
AcDbDimension
  2
*D37
 10
7246.066409670153
 20
5147.936038945103
 30
0.0
 11
7579.304933009654
 21
5147.936038945103
 31
0.0
 70
   160
  1
50
 71
     5
 42
40.27178728855579
  3
INABA_S50G詳細S20用
100
AcDbAlignedDimension
 13
7346.745877891542
 23
4872.839090797057
 33
0.0
 14
7246.066409670153
 24
4948.223706181672
 34
0.0
100
AcDbRotatedDimension
1001
ACAD
1000
DSTYLE
1002
{
1070
    40
1040
1.0
1002
}
  0
LINE
  5
21511
102
{ACAD_REACTORS
330
22CD6
102
}
330
747D
100
AcDbEntity
  8
部品1
 48
50.0
100
AcDbLine
 10
9719.457011870238
 20
3997.839090797058
 30
0.0
 11
9719.457011870233
 21
5551.217479783947
 31
0.0
  0
LINE
  5
21512
102
{ACAD_REACTORS
330
22CD6
102
}
330
747D
100
AcDbEntity
  8
部品1
 48
50.0
100
AcDbLine
 10
9581.957011870237
 20
3997.839090797058
 30
0.0
 11
9581.957011870233
 21
5551.217479783947
 31
0.0
  0
LWPOLYLINE
  5
21513
330
747D
100
AcDbEntity
  8
部品1
 48
50.0
100
AcDbPolyline
 90
        2
 70
     0
 10
7346.745877891541
 20
4497.839090797057
 40
18.75
 41
18.75
 10
8086.431121007437
 20
4497.839090797057
 40
12.5
 41
12.5
  0
TEXT
  5
21514
330
747D
100
AcDbEntity
  8
寸法
 62
     7
 48
50.0
100
AcDbText
 10
7628.434234062142
 20
4523.83852755053
 30
0.0
 40
150.0
  1
▽G.L
  7
STYLE1
100
AcDbText
  0
TEXT
  5
21515
330
747D
100
AcDbEntity
  8
寸法
 62
     7
 48
50.0
100
AcDbText
 10
6572.894603541218
 20
3094.271244602628
 30
0.0
 40
150.0
  1
アンカーボルトは
  7
STYLE1
100
AcDbText
  0
LINE
  5
21516
330
747D
100
AcDbEntity
  8
部品1
 48
50.0
100
AcDbLine
 10
7571.745877891541
 20
3897.839090797058
 30
0.0
 11
7571.745877891541
 21
3522.839090797058
 31
0.0
  0
LINE
  5
21517
330
747D
100
AcDbEntity
  8
部品1
 48
50.0
100
AcDbLine
 10
6821.745877891541
 20
3522.839090797058
 30
0.0
 11
6821.745877891541
 21
3897.839090797058
 31
0.0
  0
LINE
  5
21518
330
747D
100
AcDbEntity
  8
部品1
 48
50.0
100
AcDbLine
 10
7180.495877891541
 20
4514.08909079706
 30
0.0
 11
7180.495877891551
 21
3725.33909079706
 31
0.0
  0
LINE
  5
21519
330
747D
100
AcDbEntity
  8
部品1
 48
50.0
100
AcDbLine
 10
7155.495877891535
 20
4514.089090797058
 30
0.0
 11
7155.49587789155
 21
3725.339090797058
 31
0.0
  0
HATCH
  5
2151A
330
747D
100
AcDbEntity
  8
細線
 48
50.0
100
AcDbHatch
 10
0.0
 20
0.0
 30
0.0
210
0.0
220
0.0
230
1.0
  2
PLAST
 70
     0
 71
     0
 91
        2
 92
        7
 72
     1
 73
     1
 93
       41
 10
7046.745877891542
 20
3897.839090797058
 42
0.0
 10
6821.745877891543
 20
3897.839090797058
 42
0.0
 10
6821.745877891544
 20
3522.839090797058
 42
0.0
 10
7571.745877891541
 20
3522.839090797058
 42
0.0
 10
7571.745877891541
 20
3897.839090797058
 42
0.0
 10
7346.745877891541
 20
3897.839090797057
 42
0.0
 10
7346.745877891539
 20
4872.839090797057
 42
0.0
 10
7262.941409670151
 20
4872.839090797057
 42
0.0
 10
7262.941409670154
 20
4560.339090797057
 42
-0.4142135623730951
 10
7216.691409670153
 20
4514.089090797058
 42
0.0
 10
7180.495877891542
 20
4514.089090797058
 42
0.0
 10
7180.495877891551
 20
3726.589090797058
 42
-1.0
 10
7212.995877891533
 20
3726.589090797057
 42
0.0
 10
7212.995877891542
 20
3826.58909079706
 42
0.0
 10
7237.995877891568
 20
3826.589090797062
 42
0.0
 10
7237.99587789156
 20
3725.339090797063
 42
-0.096396117629342
 10
7235.076870327034
 20
3710.33909079706
 42
0.0
 10
7396.745877891541
 20
3710.339090797058
 42
-0.4142135623730951
 10
7384.245877891541
 20
3722.839090797058
 42
-1.0
 10
7409.245877891541
 20
3722.839090797058
 42
-0.4142135623730951
 10
7396.745877891541
 20
3710.339090797058
 42
0.0
 10
7421.745877891542
 20
3710.339090797058
 42
0.0
 10
7421.745877891538
 20
3685.339090797058
 42
0.0
 10
6971.745877891541
 20
3685.339090797057
 42
0.0
 10
6971.745877891532
 20
3710.33909079706
 42
0.0
 10
6996.745877891541
 20
3710.33909079706
 42
-0.4142135623730551
 10
6984.245877891542
 20
3722.839090797058
 42
-1.0
 10
7009.245877891541
 20
3722.839090797058
 42
-0.4142135623730418
 10
6996.745877891541
 20
3710.339090797061
 42
0.0
 10
7158.414885456055
 20
3710.33909079706
 42
-0.0963961176292885
 10
7155.49587789155
 20
3725.339090797058
 42
0.0
 10
7155.495877891538
 20
4514.089090797058
 42
0.0
 10
7154.191409670153
 20
4514.089090797058
 42
0.0
 10
7154.191409670153
 20
4547.839090797057
 42
0.0
 10
7155.495877891538
 20
4547.839090797057
 42
0.0
 10
7155.495877891532
 20
4732.839090797058
 42
-0.4142135623730934
 10
7195.495877891531
 20
4772.839090797058
 42
0.0
 10
7197.995877891559
 20
4772.839090797056
 42
-0.2274254655226908
 10
7229.191409670153
 20
4757.875839728391
 42
0.0
 10
7229.191409670153
 20
4872.839090797057
 42
0.0
 10
7046.745877891542
 20
4872.839090797057
 42
0.0
 97
        0
 92
       23
 72
     1
 73
     1
 93
        7
 10
7180.495877891541
 20
4547.839090797057
 42
0.0
 10
7216.691409670153
 20
4547.839090797057
 42
0.4142135623730951
 10
7229.191409670153
 20
4560.339090797057
 42
0.0
 10
7229.191409670153
 20
4631.589090797057
 42
0.0
 10
7212.995877891542
 20
4631.589090797057
 42
0.0
 10
7212.995877891533
 20
4731.58909079706
 42
-1.0
 10
7180.495877891541
 20
4731.589090797057
 42
0.0
 97
        0
 75
     0
 76
     1
 52
45.0
 41
37.5
 77
     0
 78
     3
 53
45.0
 43
-13619.35006958222
 44
15716.29717755309
 45
-168.3798022700466
 46
168.3798022700466
 79
     0
 53
45.0
 43
-13640.39754486597
 44
15737.34465283684
 45
-168.3798022700466
 46
168.3798022700466
 79
     0
 53
45.0
 43
-13661.44502014972
 44
15758.3921281206
 45
-168.3798022700466
 46
168.3798022700466
 79
     0
 47
2.355910322432788
 98
        2
 10
7094.146709187931
 20
4397.49062296543
 10
7200.209000115425
 20
4585.963451734566
  0
LINE
  5
2151B
330
747D
100
AcDbEntity
  8
部品1
 48
50.0
100
AcDbLine
 10
7678.244353777863
 20
2711.367762911589
 30
0.0
 11
6678.244353777863
 21
2711.367762911589
 31
0.0
  0
LINE
  5
2151C
330
747D
100
AcDbEntity
  8
部品1
 48
50.0
100
AcDbLine
 10
7678.244353777863
 20
2511.367762911588
 30
0.0
 11
6678.244353777863
 21
2511.367762911588
 31
0.0
  0
LINE
  5
2151D
102
{ACAD_REACTORS
330
21520
102
}
330
747D
100
AcDbEntity
  8
部品1
 48
50.0
100
AcDbLine
 10
7696.745877891541
 20
3522.839090797058
 30
0.0
 11
6696.745877891541
 21
3522.839090797058
 31
0.0
  0
TEXT
  5
2151E
330
747D
100
AcDbEntity
  8
寸法
 62
     7
 48
50.0
100
AcDbText
 10
6572.894603541218
 20
2917.408493101678
 30
0.0
 40
150.0
  1
M12でも可
  7
STYLE1
100
AcDbText
  0
LINE
  5
2151F
102
{ACAD_REACTORS
330
21520
102
}
330
747D
100
AcDbEntity
  8
部品1
 48
50.0
100
AcDbLine
 10
7696.745877891541
 20
3322.839090797058
 30
0.0
 11
6696.745877891541
 21
3322.839090797055
 31
0.0
  0
HATCH
  5
21520
330
747D
100
AcDbEntity
  8
細線
 48
50.0
100
AcDbHatch
 10
0.0
 20
0.0
 30
0.0
210
0.0
220
0.0
230
1.0
  2
LINE
 70
     0
 71
     1
 91
        1
 92
        7
 72
     0
 73
     1
 93
        4
 10
7696.74587789154
 20
3322.839090797058
 10
7696.745877891541
 20
3522.839090797058
 10
6696.745877891541
 20
3522.839090797058
 10
6696.745877891541
 20
3322.839090797055
 97
        4
330
2151D
330
21522
330
2151F
330
21541
 75
     0
 76
     1
 52
75.0
 41
37.5
 77
     0
 78
     1
 53
75.0
 43
-10372.84825615405
 44
15716.29717755309
 45
-115.0055436925422
 46
30.81564255751887
 79
     0
 47
2.300206460912943
 98
        1
 10
7208.242194847986
 20
3413.372856022468
  0
LINE
  5
21521
330
747D
100
AcDbEntity
  8
部品1
 48
50.0
100
AcDbLine
 10
6678.244353777863
 20
2711.367762911589
 30
0.0
 11
6678.244353777863
 21
2511.367762911588
 31
0.0
  0
LINE
  5
21522
102
{ACAD_REACTORS
330
21520
102
}
330
747D
100
AcDbEntity
  8
部品1
 48
50.0
100
AcDbLine
 10
6696.745877891541
 20
3322.839090797055
 30
0.0
 11
6696.745877891541
 21
3522.839090797058
 31
0.0
  0
TEXT
  5
21523
330
747D
100
AcDbEntity
  8
部品1
 48
50.0
100
AcDbText
 10
6755.247397700667
 20
2553.858127577209
 30
0.0
 40
120.0
  1
Ａ－Ａ’断面
  7
STYLE2
100
AcDbText
  0
LINE
  5
21524
330
747D
100
AcDbEntity
  8
部品1
 48
50.0
100
AcDbLine
 10
7678.244353777863
 20
2711.367762911589
 30
0.0
 11
7678.244353777863
 21
2511.367762911588
 31
0.0
  0
LINE
  5
21525
330
747D
100
AcDbEntity
  8
部品1
 48
50.0
100
AcDbLine
 10
7421.745877891542
 20
3710.339090797058
 30
0.0
 11
6971.745877891523
 21
3710.339090797061
 31
0.0
  0
LINE
  5
21526
330
747D
100
AcDbEntity
  8
部品1
 48
50.0
100
AcDbLine
 10
7421.745877891542
 20
3685.339090797058
 30
0.0
 11
6971.745877891541
 21
3685.339090797058
 31
0.0
  0
LINE
  5
21527
330
747D
100
AcDbEntity
  8
部品1
 48
50.0
100
AcDbLine
 10
7237.995877891568
 20
3826.589090797062
 30
0.0
 11
7212.995877891533
 21
3826.589090797061
 31
0.0
  0
LINE
  5
21528
330
747D
100
AcDbEntity
  8
細線
 48
50.0
100
AcDbLine
 10
7184.600135628909
 20
3497.839090797054
 30
0.0
 11
7177.901405818126
 21
3522.839090797058
 31
0.0
  0
ARC
  5
21529
330
747D
100
AcDbEntity
  8
部品1
 48
50.0
100
AcDbCircle
 10
7197.995877891559
 20
3725.339090797063
 30
0.0
 40
40.0
100
AcDbArc
 50
337.9756871629567
 51
0.0
  0
CIRCLE
  5
2152A
330
747D
100
AcDbEntity
  8
部品1
 48
50.0
100
AcDbCircle
 10
7196.745877891541
 20
3726.589090797058
 30
0.0
 40
16.25
  0
LINE
  5
2152B
330
747D
100
AcDbEntity
  8
部品1
 48
50.0
100
AcDbLine
 10
7237.99587789156
 20
3725.339090797063
 30
0.0
 11
7237.995877891568
 21
3826.589090797062
 31
0.0
  0
LINE
  5
2152C
330
747D
100
AcDbEntity
  8
部品1
 48
50.0
100
AcDbLine
 10
7212.995877891533
 20
3725.339090797063
 30
0.0
 11
7212.995877891541
 21
3826.589090797062
 31
0.0
  0
LINE
  5
2152D
330
747D
100
AcDbEntity
  8
細線
 48
50.0
100
AcDbLine
 10
7061.337565398831
 20
3497.839090797054
 30
0.0
 11
7054.638835588054
 21
3522.839090797058
 31
0.0
  0
LINE
  5
2152E
330
747D
100
AcDbEntity
  8
細線
 48
50.0
100
AcDbLine
 10
6938.074995168759
 20
3497.839090797058
 30
0.0
 11
6931.376265357982
 21
3522.839090797058
 31
0.0
  0
CIRCLE
  5
2152F
330
747D
100
AcDbEntity
  8
部品1
 48
50.0
100
AcDbCircle
 10
6996.745877891541
 20
3722.839090797058
 30
0.0
 40
12.5
  0
LINE
  5
21530
330
747D
100
AcDbEntity
  8
部品1
 48
50.0
100
AcDbLine
 10
6971.745877891532
 20
3710.339090797058
 30
0.0
 11
6971.745877891541
 21
3685.339090797058
 31
0.0
  0
ARC
  5
21531
330
747D
100
AcDbEntity
  8
部品1
 48
50.0
100
AcDbCircle
 10
7195.495877891531
 20
3725.33909079706
 30
0.0
 40
40.0
100
AcDbArc
 50
180.0
 51
202.0243128370433
  0
LINE
  5
21532
330
747D
100
AcDbEntity
  8
細線
 48
50.0
100
AcDbLine
 10
6814.812424938688
 20
3497.839090797058
 30
0.0
 11
6808.113695127909
 21
3522.839090797058
 31
0.0
  0
LINE
  5
21533
330
747D
100
AcDbEntity
  8
細線
 48
50.0
100
AcDbLine
 10
7027.843916344952
 20
3322.839090797053
 30
0.0
 11
7021.14518653417
 21
3347.839090797061
 31
0.0
  0
LINE
  5
21534
330
747D
100
AcDbEntity
  8
細線
 48
50.0
100
AcDbLine
 10
7151.106486575023
 20
3322.839090797053
 30
0.0
 11
7144.407756764245
 21
3347.839090797064
 31
0.0
  0
LINE
  5
21535
330
747D
100
AcDbEntity
  8
細線
 48
50.0
100
AcDbLine
 10
6781.318775884798
 20
3322.839090797055
 30
0.0
 11
6774.620046074019
 21
3347.839090797063
 31
0.0
  0
LINE
  5
21536
330
747D
100
AcDbEntity
  8
細線
 48
50.0
100
AcDbLine
 10
6904.581346114875
 20
3322.839090797055
 30
0.0
 11
6897.882616304092
 21
3347.839090797067
 31
0.0
  0
LINE
  5
21537
330
747D
100
AcDbEntity
  8
細線
 48
50.0
100
AcDbLine
 10
7554.387846319137
 20
3497.839090797049
 30
0.0
 11
7547.689116508355
 21
3522.839090797055
 31
0.0
  0
LINE
  5
21538
330
747D
100
AcDbEntity
  8
細線
 48
50.0
100
AcDbLine
 10
7677.65041654921
 20
3497.839090797052
 30
0.0
 11
7670.951686738432
 21
3522.839090797054
 31
0.0
  0
LINE
  5
21539
330
747D
100
AcDbEntity
  8
細線
 48
50.0
100
AcDbLine
 10
7307.862705858984
 20
3497.839090797049
 30
0.0
 11
7301.163976048202
 21
3522.839090797055
 31
0.0
  0
LINE
  5
2153A
330
747D
100
AcDbEntity
  8
部品1
 48
50.0
100
AcDbLine
 10
7421.745877891542
 20
3685.339090797058
 30
0.0
 11
7421.745877891542
 21
3710.339090797058
 31
0.0
  0
CIRCLE
  5
2153B
330
747D
100
AcDbEntity
  8
部品1
 48
50.0
100
AcDbCircle
 10
7396.745877891541
 20
3722.839090797058
 30
0.0
 40
12.5
  0
LINE
  5
2153C
330
747D
100
AcDbEntity
  8
細線
 48
50.0
100
AcDbLine
 10
7431.125276089057
 20
3497.839090797054
 30
0.0
 11
7424.426546278279
 21
3522.839090797054
 31
0.0
  0
LINE
  5
2153D
330
747D
100
AcDbEntity
  8
細線
 48
50.0
100
AcDbLine
 10
7520.894197265248
 20
3322.839090797053
 30
0.0
 11
7514.19546745447
 21
3347.839090797061
 31
0.0
  0
LINE
  5
2153E
330
747D
100
AcDbEntity
  8
細線
 48
50.0
100
AcDbLine
 10
7644.156767495326
 20
3322.839090797053
 30
0.0
 11
7637.458037684543
 21
3347.839090797058
 31
0.0
  0
LINE
  5
2153F
330
747D
100
AcDbEntity
  8
細線
 48
50.0
100
AcDbLine
 10
7274.369056805099
 20
3322.839090797053
 30
0.0
 11
7267.670326994317
 21
3347.839090797061
 31
0.0
  0
LINE
  5
21540
330
747D
100
AcDbEntity
  8
細線
 48
50.0
100
AcDbLine
 10
7397.631627035176
 20
3322.839090797053
 30
0.0
 11
7390.932897224399
 21
3347.839090797064
 31
0.0
  0
LINE
  5
21541
102
{ACAD_REACTORS
330
21520
102
}
330
747D
100
AcDbEntity
  8
部品1
 48
50.0
100
AcDbLine
 10
7696.745877891541
 20
3522.839090797058
 30
0.0
 11
7696.745877891541
 21
3322.839090797058
 31
0.0
  0
ARC
  5
21555
330
747D
100
AcDbEntity
  8
部品1
 48
50.0
100
AcDbCircle
 10
7216.691409670153
 20
4560.339090797057
 30
0.0
 40
46.25
100
AcDbArc
 50
270.0
 51
0.0
  0
LINE
  5
21556
330
747D
100
AcDbEntity
  8
部品1
 48
50.0
100
AcDbLine
 10
7154.191409670153
 20
4514.089090797058
 30
0.0
 11
7154.191409670153
 21
4547.839090797057
 31
0.0
  0
LINE
  5
21558
330
747D
100
AcDbEntity
  8
部品1
 48
50.0
100
AcDbLine
 10
7046.745877891542
 20
3897.839090797058
 30
0.0
 11
7046.745877891542
 21
4872.839090797057
 31
0.0
  0
LINE
  5
21559
330
747D
100
AcDbEntity
  8
部品1
 48
50.0
100
AcDbLine
 10
7346.745877891541
 20
4872.839090797057
 30
0.0
 11
7346.745877891541
 21
3897.839090797058
 31
0.0
  0
LINE
  5
2155E
330
747D
100
AcDbEntity
  8
部品1
 48
50.0
100
AcDbLine
 10
7216.691409670153
 20
4514.089090797058
 30
0.0
 11
7154.191409670153
 21
4514.089090797058
 31
0.0
  0
LINE
  5
21562
330
747D
100
AcDbEntity
  8
部品1
 48
50.0
100
AcDbLine
 10
6821.745877891541
 20
3897.839090797058
 30
0.0
 11
7046.745877891542
 21
3897.839090797058
 31
0.0
  0
LINE
  5
21563
330
747D
100
AcDbEntity
  8
部品1
 48
50.0
100
AcDbLine
 10
7346.745877891541
 20
3897.839090797058
 30
0.0
 11
7571.745877891541
 21
3897.839090797058
 31
0.0
  0
LINE
  5
21564
330
747D
100
AcDbEntity
  8
部品1
 48
50.0
100
AcDbLine
 10
7229.191409670153
 20
4948.223706181672
 30
0.0
 11
7262.941409670154
 21
4948.223706181672
 31
0.0
  0
LINE
  5
21565
330
747D
100
AcDbEntity
  8
細線
 48
50.0
100
AcDbLine
 10
7267.941409670154
 20
4942.063452143827
 30
0.0
 11
7223.941409670148
 21
4930.273687676858
 31
0.0
  0
LINE
  5
21566
330
747D
100
AcDbEntity
  8
細線
 48
50.0
100
AcDbLine
 10
7267.941409670154
 20
4927.063452143832
 30
0.0
 11
7223.941409670148
 21
4915.273687676861
 31
0.0
  0
LINE
  5
21567
330
747D
100
AcDbEntity
  8
部品1
100
AcDbLine
 10
7271.643332747077
 20
4905.146783104751
 30
0.0
 11
7220.489486593229
 21
4905.146783104751
 31
0.0
  0
LINE
  5
21568
330
747D
100
AcDbEntity
  8
部品1
100
AcDbLine
 10
7275.681794285538
 20
4901.108321566291
 30
0.0
 11
7216.451025054763
 21
4901.108321566287
 31
0.0
  0
ARC
  5
21569
330
747D
100
AcDbEntity
  8
部品1
100
AcDbCircle
 10
7246.066409670143
 20
4860.335646169691
 30
0.0
 40
43.85610339004736
100
AcDbArc
 50
68.38687878209459
 51
111.6131212179054
  0
LINE
  5
2156A
330
747D
100
AcDbEntity
  8
細線
 48
50.0
100
AcDbLine
 10
7267.941409670154
 20
4912.063452143832
 30
0.0
 11
7242.128049397158
 21
4905.146783104751
 31
0.0
  0
LINE
  5
2156B
330
747D
100
AcDbEntity
  8
部品1
100
AcDbLine
 10
7281.066409670152
 20
4878.223706181672
 30
0.0
 11
7211.066409670152
 21
4878.223706181672
 31
0.0
  0
LINE
  5
2156C
330
747D
100
AcDbEntity
  8
部品1
 48
50.0
100
AcDbLine
 10
7046.745877891542
 20
4872.839090797057
 30
0.0
 11
7346.745877891541
 21
4872.839090797057
 31
0.0
  0
ARC
  5
2156D
330
747D
100
AcDbEntity
  8
部品1
100
AcDbCircle
 10
7223.181794285534
 20
4894.789199177528
 30
0.0
 40
9.232256614826125
100
AcDbArc
 50
43.19325636896715
 51
136.8067436310328
  0
LINE
  5
2156E
330
747D
100
AcDbEntity
  8
部品1
100
AcDbLine
 10
7220.489486593229
 20
4905.146783104751
 30
0.0
 11
7216.451025054763
 21
4901.108321566291
 31
0.0
  0
LINE
  5
2156F
330
747D
100
AcDbEntity
  8
部品1
100
AcDbLine
 10
7211.066409670152
 20
4878.223706181672
 30
0.0
 11
7211.066409670152
 21
4872.839090797057
 31
0.0
  0
LINE
  5
21570
330
747D
100
AcDbEntity
  8
部品1
100
AcDbLine
 10
7229.912563516305
 20
4901.108321566289
 30
0.0
 11
7229.912563516305
 21
4878.223706181672
 31
0.0
  0
LINE
  5
21571
330
747D
100
AcDbEntity
  8
部品1
100
AcDbLine
 10
7216.451025054763
 20
4901.108321566291
 30
0.0
 11
7216.451025054763
 21
4878.223706181672
 31
0.0
  0
LINE
  5
21572
330
747D
100
AcDbEntity
  8
部品1
 48
50.0
100
AcDbLine
 10
7229.191409670159
 20
4905.146783104751
 30
0.0
 11
7229.191409670153
 21
4948.223706181672
 31
0.0
  0
LINE
  5
21573
330
747D
100
AcDbEntity
  8
部品1
 48
50.0
100
AcDbLine
 10
7180.495877891541
 20
4732.839090797058
 30
0.0
 11
7180.495877891541
 21
4547.839090797061
 31
0.0
  0
LINE
  5
21574
330
747D
100
AcDbEntity
  8
部品1
 48
50.0
100
AcDbLine
 10
7212.995877891533
 20
4732.839090797055
 30
0.0
 11
7212.995877891541
 21
4631.589090797056
 31
0.0
  0
LINE
  5
21575
330
747D
100
AcDbEntity
  8
部品1
 48
50.0
100
AcDbLine
 10
7229.191409670153
 20
4631.589090797057
 30
0.0
 11
7212.995877891533
 21
4631.589090797057
 31
0.0
  0
ARC
  5
21576
330
747D
100
AcDbEntity
  8
部品1
 48
50.0
100
AcDbCircle
 10
7216.691409670153
 20
4560.339090797057
 30
0.0
 40
12.5
100
AcDbArc
 50
270.0
 51
0.0
  0
CIRCLE
  5
21577
330
747D
100
AcDbEntity
  8
部品1
 48
50.0
100
AcDbCircle
 10
7196.745877891541
 20
4731.589090797057
 30
0.0
 40
16.25
  0
LINE
  5
21578
330
747D
100
AcDbEntity
  8
部品1
 48
50.0
100
AcDbLine
 10
7197.995877891559
 20
4772.839090797055
 30
0.0
 11
7195.495877891531
 21
4772.839090797058
 31
0.0
  0
ARC
  5
21579
330
747D
100
AcDbEntity
  8
部品1
 48
50.0
100
AcDbCircle
 10
7197.995877891559
 20
4732.839090797055
 30
0.0
 40
40.0
100
AcDbArc
 50
38.74965111338627
 51
90.0
  0
LINE
  5
2157A
330
747D
100
AcDbEntity
  8
部品1
 48
50.0
100
AcDbLine
 10
7155.495877891532
 20
4732.839090797058
 30
0.0
 11
7155.495877891535
 21
4547.839090797057
 31
0.0
  0
LINE
  5
2157B
330
747D
100
AcDbEntity
  8
部品1
 48
50.0
100
AcDbLine
 10
7216.691409670153
 20
4547.839090797057
 30
0.0
 11
7154.191409670153
 21
4547.839090797057
 31
0.0
  0
ARC
  5
2157C
330
747D
100
AcDbEntity
  8
部品1
 48
50.0
100
AcDbCircle
 10
7195.495877891531
 20
4732.839090797058
 30
0.0
 40
40.0
100
AcDbArc
 50
90.0
 51
180.0
  0
LINE
  5
2157D
330
747D
100
AcDbEntity
  8
部品1
 48
50.0
100
AcDbLine
 10
7229.191409670153
 20
4560.339090797057
 30
0.0
 11
7229.191409670153
 21
4872.839090797057
 31
0.0
  0
LINE
  5
2157E
330
747D
100
AcDbEntity
  8
部品1
100
AcDbLine
 10
7275.681794285535
 20
4901.108321566289
 30
0.0
 11
7275.681794285535
 21
4878.223706181672
 31
0.0
  0
LINE
  5
2157F
330
747D
100
AcDbEntity
  8
部品1
100
AcDbLine
 10
7262.220255823992
 20
4901.108321566291
 30
0.0
 11
7262.220255823994
 21
4878.223706181672
 31
0.0
  0
ARC
  5
21580
330
747D
100
AcDbEntity
  8
部品1
100
AcDbCircle
 10
7268.951025054763
 20
4894.789199177528
 30
0.0
 40
9.232256614826125
100
AcDbArc
 50
43.19325636896715
 51
136.8067436310328
  0
LINE
  5
21581
330
747D
100
AcDbEntity
  8
部品1
100
AcDbLine
 10
7275.681794285535
 20
4901.108321566289
 30
0.0
 11
7271.643332747077
 21
4905.146783104751
 31
0.0
  0
LINE
  5
21582
330
747D
100
AcDbEntity
  8
部品1
 48
50.0
100
AcDbLine
 10
7262.941409670148
 20
4905.146783104751
 30
0.0
 11
7262.941409670154
 21
4948.223706181672
 31
0.0
  0
LINE
  5
21583
330
747D
100
AcDbEntity
  8
部品1
100
AcDbLine
 10
7281.066409670152
 20
4878.223706181672
 30
0.0
 11
7281.066409670152
 21
4872.839090797057
 31
0.0
  0
LINE
  5
21584
330
747D
100
AcDbEntity
  8
部品1
 48
50.0
100
AcDbLine
 10
7262.941409670154
 20
4560.339090797057
 30
0.0
 11
7262.941409670154
 21
4872.839090797057
 31
0.0
  0
LEADER
  5
21585
330
747D
100
AcDbEntity
  8
寸法
 48
50.0
100
AcDbLeader
  3
INABA_S50G詳細用
 71
     0
 73
     0
 75
     1
 40
150.0
 41
687.5
 76
     3
 10
9479.953302242041
 20
4124.150386083023
 30
0.0
 10
9016.058119524085
 20
3352.890812833051
 30
0.0
 10
8891.058119524085
 20
3352.890812833051
 30
0.0
340
21586
1001
ACAD
1000
DSTYLE
1002
{
1070
    40
1040
1.0
1070
    77
1070
     1
1002
}
  0
MTEXT
  5
21586
102
{ACAD_REACTORS
330
21585
102
}
330
747D
100
AcDbEntity
  8
寸法
 62
     7
 48
50.0
100
AcDbMText
 10
8866.058119524085
 20
3377.890812833051
 30
0.0
 40
150.0
 41
0.0
 71
     9
 72
     1
  1
\A1;カンザシ
  7
STYLE1
 73
     1
 44
1.0
1001
ACAD
1000
MTEXTBEGIN
1070
    73
1070
     1
1070
    44
1040
1.0
1070
    74
1070
     0
1000
MTEXTEND
  0
LINE
  5
21587
102
{ACAD_REACTORS
330
22CD6
102
}
330
747D
100
AcDbEntity
  8
部品1
 48
50.0
100
AcDbLine
 10
9119.457011870236
 20
3747.839090797056
 30
0.0
 11
9119.457011870229
 21
4497.839090797059
 31
0.0
  0
DIMENSION
  5
21588
330
747D
100
AcDbEntity
  8
寸法
 48
50.0
100
AcDbDimension
  2
*D38
 10
8746.783149537238
 20
3747.839090797058
 30
0.0
 11
8746.783149537238
 21
4122.839090797059
 31
0.0
 70
   160
 71
     5
 42
300.0
  3
INABA_S50G詳細S20用
100
AcDbAlignedDimension
 13
8963.992245163478
 23
4497.839090797057
 33
0.0
 14
9150.707011870236
 24
3747.839090797058
 34
0.0
 50
90.0
100
AcDbRotatedDimension
1001
ACAD
1000
DSTYLE
1002
{
1070
    40
1040
1.0
1002
}
  0
LINE
  5
21589
330
747D
100
AcDbEntity
  8
部品1
 48
50.0
100
AcDbLine
 10
9129.336344180119
 20
2711.367762911589
 30
0.0
 11
9129.336344180119
 21
2511.367762911588
 31
0.0
  0
LINE
  5
2158A
330
747D
100
AcDbEntity
  8
細線
 48
50.0
100
AcDbLine
 10
9141.529909863487
 20
3547.839090797057
 30
0.0
 11
9134.83118005271
 21
3572.839090797064
 31
0.0
  0
LINE
  5
2158B
102
{ACAD_REACTORS
330
2136B
102
}
330
747D
100
AcDbEntity
  8
部品1
 48
50.0
100
AcDbLine
 10
9056.957011870229
 20
3547.839090797057
 30
0.0
 11
9056.957011870229
 21
3747.83909079706
 31
0.0
  0
LINE
  5
2158C
330
747D
100
AcDbEntity
  8
細線
 48
50.0
100
AcDbLine
 10
9175.023558917377
 20
3722.839090797059
 30
0.0
 11
9168.3248291066
 21
3747.83909079706
 31
0.0
  0
LINE
  5
2158D
330
747D
100
AcDbEntity
  8
細線
 48
50.0
100
AcDbLine
 10
9264.792480093566
 20
3547.839090797057
 30
0.0
 11
9258.093750282782
 21
3572.839090797068
 31
0.0
  0
LINE
  5
2158E
330
747D
100
AcDbEntity
  8
細線
 48
50.0
100
AcDbLine
 10
9511.317620553713
 20
3547.839090797054
 30
0.0
 11
9504.618890742936
 21
3572.839090797066
 31
0.0
  0
LINE
  5
2158F
330
747D
100
AcDbEntity
  8
細線
 48
50.0
100
AcDbLine
 10
9388.055050323641
 20
3547.839090797054
 30
0.0
 11
9381.35632051286
 21
3572.839090797061
 31
0.0
  0
LINE
  5
21590
330
747D
100
AcDbEntity
  8
細線
 48
50.0
100
AcDbLine
 10
9421.548699377522
 20
3722.839090797054
 30
0.0
 11
9414.849969566743
 21
3747.83909079706
 31
0.0
  0
LINE
  5
21591
330
747D
100
AcDbEntity
  8
細線
 48
50.0
100
AcDbLine
 10
9544.811269607599
 20
3722.839090797054
 30
0.0
 11
9538.112539796815
 21
3747.83909079706
 31
0.0
  0
LINE
  5
21592
330
747D
100
AcDbEntity
  8
細線
 48
50.0
100
AcDbLine
 10
9298.286129147449
 20
3722.839090797059
 30
0.0
 11
9291.587399336671
 21
3747.83909079706
 31
0.0
  0
LINE
  5
21593
330
747D
100
AcDbEntity
  8
細線
 48
50.0
100
AcDbLine
 10
9634.580190783788
 20
3547.839090797054
 30
0.0
 11
9627.881460973007
 21
3572.839090797061
 31
0.0
  0
LINE
  5
21594
330
747D
100
AcDbEntity
  8
細線
 48
50.0
100
AcDbLine
 10
9668.073839837674
 20
3722.83909079705
 30
0.0
 11
9661.375110026893
 21
3747.839090797056
 31
0.0
  0
LINE
  5
21595
330
747D
100
AcDbEntity
  8
部品1
 48
50.0
100
AcDbLine
 10
9569.45701187023
 20
4497.839090797057
 30
0.0
 11
9569.457011870232
 21
4872.839090797057
 31
0.0
  0
TEXT
  5
21596
330
747D
100
AcDbEntity
  8
寸法
 62
     7
 48
50.0
100
AcDbText
 10
8983.487367279193
 20
4523.897740004517
 30
0.0
 40
150.0
  1
▽G.L
  7
STYLE1
100
AcDbText
  0
LWPOLYLINE
  5
21597
102
{ACAD_REACTORS
330
22CD6
102
}
330
747D
100
AcDbEntity
  8
部品1
 48
50.0
100
AcDbPolyline
 90
        2
 70
     0
 10
8963.992245163478
 20
4497.839090797057
 40
18.75
 41
18.75
 10
9581.957011870237
 20
4497.839090797057
 40
12.5
 41
12.5
  0
LINE
  5
21599
102
{ACAD_REACTORS
330
22CD6
102
}
330
747D
100
AcDbEntity
  8
部品1
 48
50.0
100
AcDbLine
 10
9581.957011870237
 20
3997.839090797058
 30
0.0
 11
9719.457011870238
 21
3997.839090797061
 31
0.0
  0
LINE
  5
2159A
102
{ACAD_REACTORS
330
22CD6
102
}
330
747D
100
AcDbEntity
  8
部品1
 48
50.0
100
AcDbLine
 10
9400.707011870236
 20
4111.589090797055
 30
0.0
 11
9581.957011870242
 21
4111.589090797058
 31
0.0
  0
LINE
  5
2159B
102
{ACAD_REACTORS
330
22CD6
102
}
330
747D
100
AcDbEntity
  8
部品1
 48
50.0
100
AcDbLine
 10
9400.707011870236
 20
4134.089090797055
 30
0.0
 11
9581.957011870242
 21
4134.089090797055
 31
0.0
  0
LINE
  5
2159C
102
{ACAD_REACTORS
330
22CD6
102
}
330
747D
100
AcDbEntity
  8
部品1
 48
50.0
100
AcDbLine
 10
9400.707011870244
 20
4111.589090797055
 30
0.0
 11
9400.707011870236
 21
4134.089090797055
 31
0.0
  0
LEADER
  5
2159D
330
747D
100
AcDbEntity
  8
寸法
 48
50.0
100
AcDbLeader
  3
INABA_S50G詳細用
 71
     0
 73
     0
 75
     1
 40
150.0
 41
509.9999999999997
 76
     3
 10
9607.450633737414
 20
4997.839090797057
 30
0.0
 10
9540.002447005269
 20
5086.316117484084
 30
0.0
 10
9415.002447005269
 20
5086.316117484084
 30
0.0
340
2150E
1001
ACAD
1000
DSTYLE
1002
{
1070
    40
1040
1.0
1070
    77
1070
     1
1002
}
  0
LINE
  5
215A0
330
747D
100
AcDbEntity
  8
部品1
 48
50.0
100
AcDbLine
 10
9569.457011870232
 20
4872.839090797057
 30
0.0
 11
9581.957011870233
 21
4872.839090797061
 31
0.0
  0
LINE
  5
215AB
330
747D
100
AcDbEntity
  8
点線
 48
5.0
100
AcDbLine
 10
9781.957011870236
 20
4872.839090797057
 30
0.0
 11
9761.957011870237
 21
4872.839090797057
 31
0.0
  0
TEXT
  5
215AE
330
747D
100
AcDbEntity
  8
部品1
 48
50.0
100
AcDbText
 10
8300.296642325729
 20
5823.780659820102
 30
0.0
 40
140.0
  1
基礎詳細図
  7
STYLE2
100
AcDbText
  0
ARC
  5
215AF
330
747D
100
AcDbEntity
  8
細線
 48
50.0
100
AcDbCircle
 10
8274.360298661132
 20
5942.422182553771
 30
0.0
 40
100.0
100
AcDbArc
 50
90.0
 51
180.0
  0
LINE
  5
215B0
330
747D
100
AcDbEntity
  8
細線
 48
50.0
100
AcDbLine
 10
8174.360298661133
 20
5842.422182553772
 30
0.0
 11
8174.360298661133
 21
5942.422182553771
 31
0.0
  0
ARC
  5
215B1
330
747D
100
AcDbEntity
  8
細線
 48
50.0
100
AcDbCircle
 10
8274.360298661132
 20
5842.422182553772
 30
0.0
 40
100.0
100
AcDbArc
 50
180.0
 51
270.0
  0
LINE
  5
215B6
330
747D
100
AcDbEntity
  8
細線
 48
50.0
100
AcDbLine
 10
16201.19820779696
 20
5892.422182553771
 30
0.0
 11
16201.19820779696
 21
135.8143065415861
 31
0.0
  0
LINE
  5
215BF
330
747D
100
AcDbEntity
  8
部品1
 48
50.0
100
AcDbLine
 10
9869.093292556936
 20
432.2209976231533
 30
0.0
 11
9869.093292556936
 21
232.2209976231534
 31
0.0
  0
LINE
  5
215C3
102
{ACAD_REACTORS
330
22F27
102
}
330
747D
100
AcDbEntity
  8
部品1
 48
50.0
100
AcDbLine
 10
9569.457011870236
 20
1466.726218645137
 30
0.0
 11
9569.457011870236
 21
2201.348559000775
 31
0.0
  0
LINE
  5
215C4
102
{ACAD_REACTORS
330
22F27
102
}
330
747D
100
AcDbEntity
  8
部品1
 48
50.0
100
AcDbLine
 10
9869.457011870236
 20
1739.226218645137
 30
0.0
 11
9869.457011870236
 21
2275.119808961377
 31
0.0
  0
LINE
  5
215C5
330
747D
100
AcDbEntity
  8
センター
 48
2.0
100
AcDbLine
 10
9650.707011870236
 20
1355.266461299183
 30
0.0
 11
9650.707011870236
 21
1435.685975991091
 31
0.0
  0
LINE
  5
215C6
330
747D
100
AcDbEntity
  8
センター
 48
2.0
100
AcDbLine
 10
9690.91676921619
 20
1395.476218645137
 30
0.0
 11
9610.497254524283
 21
1395.476218645137
 31
0.0
  0
ARC
  5
215C8
330
747D
100
AcDbEntity
  8
部品1
 48
50.0
100
AcDbCircle
 10
9713.207011870236
 20
1410.476218645139
 30
0.0
 40
6.25
100
AcDbArc
 50
0.0
 51
90.0
  0
ARC
  5
215C9
330
747D
100
AcDbEntity
  8
部品1
 48
50.0
100
AcDbCircle
 10
9713.207011870236
 20
1332.976218645137
 30
0.0
 40
6.25
100
AcDbArc
 50
270.0
 51
0.0
  0
ARC
  5
215CA
330
747D
100
AcDbEntity
  8
部品1
 48
50.0
100
AcDbCircle
 10
9588.207011870236
 20
1332.976218645135
 30
0.0
 40
6.25
100
AcDbArc
 50
180.0
 51
270.0
  0
ARC
  5
215CB
330
747D
100
AcDbEntity
  8
部品1
 48
50.0
100
AcDbCircle
 10
9588.207011870236
 20
1457.976218645135
 30
0.0
 40
6.25
100
AcDbArc
 50
90.0
 51
180.0
  0
LINE
  5
215CC
102
{ACAD_REACTORS
330
22F27
102
}
330
747D
100
AcDbEntity
  8
部品1
 48
50.0
100
AcDbLine
 10
9569.457011870236
 20
1466.726218645137
 30
0.0
 11
9721.957011870234
 21
1466.726218645137
 31
0.0
  0
LINE
  5
215CF
330
747D
100
AcDbEntity
  8
部品1
 48
50.0
100
AcDbLine
 10
9581.957011870237
 20
1457.976218645135
 30
0.0
 11
9581.957011870237
 21
1332.976218645135
 31
0.0
  0
LINE
  5
215DA
330
747D
100
AcDbEntity
  8
部品1
 48
50.0
100
AcDbLine
 10
9588.207011870236
 20
1326.726218645135
 30
0.0
 11
9713.207011870236
 21
1326.726218645137
 31
0.0
  0
LINE
  5
215DC
330
747D
100
AcDbEntity
  8
部品1
 48
50.0
100
AcDbLine
 10
9719.457011870236
 20
1411.726218645137
 30
0.0
 11
9719.457011870236
 21
1405.476218645137
 31
0.0
  0
LINE
  5
215E0
330
747D
100
AcDbEntity
  8
部品1
 48
50.0
100
AcDbLine
 10
9719.457011870236
 20
1332.976218645137
 30
0.0
 11
9719.457011870236
 21
1410.476218645139
 31
0.0
  0
LINE
  5
215E3
330
747D
100
AcDbEntity
  8
部品1
 48
50.0
100
AcDbLine
 10
9714.457011870237
 20
1416.726218645137
 30
0.0
 11
9661.957011870235
 21
1416.726218645137
 31
0.0
  0
LINE
  5
215E4
330
747D
100
AcDbEntity
  8
部品1
 48
50.0
100
AcDbLine
 10
9713.207011870236
 20
1416.726218645139
 30
0.0
 11
9661.957011870235
 21
1416.726218645137
 31
0.0
  0
LINE
  5
215EE
330
747D
100
AcDbEntity
  8
部品1
 48
50.0
100
AcDbLine
 10
9639.457011870236
 20
1464.226218645137
 30
0.0
 11
9588.207011870236
 21
1464.226218645135
 31
0.0
  0
LINE
  5
215F0
330
747D
100
AcDbEntity
  8
部品1
 48
50.0
100
AcDbLine
 10
14753.54968699118
 20
1314.226218645137
 30
0.0
 11
14753.54968699118
 21
739.2262186451371
 31
0.0
  0
DIMENSION
  5
215F1
330
747D
100
AcDbEntity
  8
寸法
 48
50.0
100
AcDbDimension
  2
*D39
 10
15489.66512650983
 20
739.226218645137
 30
0.0
 11
15389.66512650983
 21
1239.226218645139
 31
0.0
 70
    32
 71
     5
 42
400.0
  3
INABA_S50G詳細S20用
100
AcDbAlignedDimension
 13
15171.58275786191
 23
1739.226218645137
 33
0.0
 14
14753.54968699118
 24
739.2262186451371
 34
0.0
 50
90.0
100
AcDbRotatedDimension
1001
ACAD
1000
DSTYLE
1002
{
1070
    40
1040
1.0
1002
}
  0
LINE
  5
215F2
330
747D
100
AcDbEntity
  8
部品1
 48
50.0
100
AcDbLine
 10
13753.54968699118
 20
739.2262186451371
 30
0.0
 11
13753.54968699118
 21
1314.226218645137
 31
0.0
  0
DIMENSION
  5
215F4
330
747D
100
AcDbEntity
  8
寸法
 48
50.0
100
AcDbDimension
  2
*D40
 10
14391.04968699118
 20
1897.585925998253
 30
0.0
 11
14253.54968699118
 21
1997.585925998253
 31
0.0
 70
    32
 71
     5
 42
109.9999999999971
  3
INABA_S50G詳細S20用
100
AcDbAlignedDimension
 13
14116.04968699118
 23
1411.726218645133
 33
0.0
 14
14391.04968699118
 24
1411.726218645133
 34
0.0
100
AcDbRotatedDimension
1001
ACAD
1000
DSTYLE
1002
{
1070
    40
1040
1.0
1002
}
  0
LINE
  5
215F6
330
747D
100
AcDbEntity
  8
部品1
 48
50.0
100
AcDbLine
 10
14753.54968699118
 20
739.2262186451371
 30
0.0
 11
13753.54968699118
 21
739.2262186451371
 31
0.0
  0
LINE
  5
215F7
330
747D
100
AcDbEntity
  8
部品1
 48
50.0
100
AcDbLine
 10
14479.556635368
 20
432.2209976231533
 30
0.0
 11
14479.556635368
 21
232.2209976231534
 31
0.0
  0
LINE
  5
215F8
330
747D
100
AcDbEntity
  8
部品1
 48
50.0
100
AcDbLine
 10
14027.54273861436
 20
432.2209976231533
 30
0.0
 11
14027.54273861436
 21
232.2209976231534
 31
0.0
  0
TEXT
  5
215F9
330
747D
100
AcDbEntity
  8
部品1
 48
50.0
100
AcDbText
 10
14104.54578253716
 20
274.7113622887737
 30
0.0
 40
120.0
  1
Ｅ部
  7
STYLE2
100
AcDbText
  0
LINE
  5
215FA
330
747D
100
AcDbEntity
  8
部品1
 48
50.0
100
AcDbLine
 10
14479.556635368
 20
232.2209976231534
 30
0.0
 11
14027.54273861436
 21
232.2209976231534
 31
0.0
  0
LINE
  5
215FB
330
747D
100
AcDbEntity
  8
部品1
 48
50.0
100
AcDbLine
 10
14479.556635368
 20
432.2209976231533
 30
0.0
 11
14027.54273861436
 21
432.2209976231533
 31
0.0
  0
MTEXT
  5
215FC
102
{ACAD_REACTORS
330
215FD
102
}
330
747D
100
AcDbEntity
  8
寸法
 62
     7
 48
50.0
100
AcDbMText
 10
14758.82320334526
 20
2032.26080680988
 30
0.0
 40
150.0
 41
0.0
 71
     7
 72
     1
  1
\A1;柱前中
  7
STYLE1
 73
     1
 44
1.0
1001
ACAD
1000
MTEXTBEGIN
1070
    73
1070
     1
1070
    44
1040
1.0
1070
    74
1070
     0
1000
MTEXTEND
  0
LEADER
  5
215FD
330
747D
100
AcDbEntity
  8
寸法
 48
50.0
100
AcDbLeader
  3
INABA_S50G詳細用
 71
     0
 73
     0
 74
     0
 75
     1
 40
150.0
 41
540.0
 76
     3
 10
14359.79968699118
 20
1416.726218645139
 30
0.0
 10
14608.82320334526
 20
2007.26080680988
 30
0.0
 10
14733.82320334526
 20
2007.26080680988
 30
0.0
340
215FC
1001
ACAD
1000
DSTYLE
1002
{
1070
    40
1040
1.0
1070
    77
1070
     1
1002
}
  0
LINE
  5
215FE
330
747D
100
AcDbEntity
  8
部品1
 48
50.0
100
AcDbLine
 10
13753.54968699118
 20
1739.226218645137
 30
0.0
 11
14753.54968699118
 21
1739.226218645137
 31
0.0
  0
LINE
  5
215FF
330
747D
100
AcDbEntity
  8
センター
 48
2.0
100
AcDbLine
 10
14213.33992964523
 20
1395.476218645141
 30
0.0
 11
14293.75944433714
 21
1395.476218645141
 31
0.0
  0
LINE
  5
21600
330
747D
100
AcDbEntity
  8
部品1
 48
50.0
100
AcDbLine
 10
14384.79968699118
 20
1326.726218645135
 30
0.0
 11
14122.29968699119
 21
1326.726218645139
 31
0.0
  0
LINE
  5
21601
330
747D
100
AcDbEntity
  8
部品1
 48
50.0
100
AcDbLine
 10
14199.79968699119
 20
1464.226218645139
 30
0.0
 11
14307.29968699118
 21
1464.226218645135
 31
0.0
  0
ARC
  5
21602
330
747D
100
AcDbEntity
  8
部品1
 48
50.0
100
AcDbCircle
 10
14199.79968699119
 20
1457.976218645139
 30
0.0
 40
6.25
100
AcDbArc
 50
90.0
 51
180.0
  0
ARC
  5
21603
330
747D
100
AcDbEntity
  8
部品1
 48
50.0
100
AcDbCircle
 10
14122.29968699119
 20
1332.976218645139
 30
0.0
 40
6.25
100
AcDbArc
 50
180.0
 51
270.0
  0
LINE
  5
21604
330
747D
100
AcDbEntity
  8
部品1
 48
50.0
100
AcDbLine
 10
14193.54968699119
 20
1339.226218645137
 30
0.0
 11
14161.04968699119
 21
1339.226218645137
 31
0.0
  0
LINE
  5
21610
330
747D
100
AcDbEntity
  8
部品1
 48
50.0
100
AcDbLine
 10
14116.04968699119
 20
1411.726218645139
 30
0.0
 11
14116.04968699119
 21
1332.976218645139
 31
0.0
  0
LINE
  5
21617
330
747D
100
AcDbEntity
  8
部品1
 48
50.0
100
AcDbLine
 10
14121.04968699119
 20
1416.726218645139
 30
0.0
 11
14173.54968699119
 21
1416.726218645139
 31
0.0
  0
LINE
  5
21618
330
747D
100
AcDbEntity
  8
部品1
 48
50.0
100
AcDbLine
 10
14121.04968699119
 20
1416.72621864514
 30
0.0
 11
14173.54968699119
 21
1416.726218645139
 31
0.0
  0
ARC
  5
21619
330
747D
100
AcDbEntity
  8
部品1
 48
50.0
100
AcDbCircle
 10
14121.04968699119
 20
1411.726218645133
 30
0.0
 40
5.0
100
AcDbArc
 50
90.0
 51
180.0
  0
LINE
  5
21623
330
747D
100
AcDbEntity
  8
部品1
 48
50.0
100
AcDbLine
 10
14193.54968699119
 20
1457.976218645139
 30
0.0
 11
14193.54968699119
 21
1339.226218645137
 31
0.0
  0
LINE
  5
21624
330
747D
100
AcDbEntity
  8
センター
 48
2.0
100
AcDbLine
 10
14253.54968699118
 20
1355.266461299186
 30
0.0
 11
14253.54968699118
 21
1435.685975991095
 31
0.0
  0
ARC
  5
21625
330
747D
100
AcDbEntity
  8
部品1
 48
50.0
100
AcDbCircle
 10
14307.29968699118
 20
1457.976218645135
 30
0.0
 40
6.25
100
AcDbArc
 50
0.0
 51
90.0
  0
ARC
  5
21626
330
747D
100
AcDbEntity
  8
部品1
 48
50.0
100
AcDbCircle
 10
14384.79968699118
 20
1332.976218645135
 30
0.0
 40
6.25
100
AcDbArc
 50
270.0
 51
0.0
  0
LINE
  5
21638
330
747D
100
AcDbEntity
  8
部品1
 48
50.0
100
AcDbLine
 10
14386.04968699118
 20
1416.72621864514
 30
0.0
 11
14333.54968699118
 21
1416.726218645139
 31
0.0
  0
LINE
  5
21639
330
747D
100
AcDbEntity
  8
部品1
 48
50.0
100
AcDbLine
 10
14386.04968699118
 20
1416.726218645139
 30
0.0
 11
14333.54968699118
 21
1416.726218645139
 31
0.0
  0
ARC
  5
2163A
330
747D
100
AcDbEntity
  8
部品1
 48
50.0
100
AcDbCircle
 10
14386.04968699118
 20
1411.726218645133
 30
0.0
 40
5.0
100
AcDbArc
 50
0.0
 51
90.0
  0
LINE
  5
21641
330
747D
100
AcDbEntity
  8
部品1
 48
50.0
100
AcDbLine
 10
14391.04968699118
 20
1411.726218645139
 30
0.0
 11
14391.04968699118
 21
1332.976218645135
 31
0.0
  0
LINE
  5
21643
330
747D
100
AcDbEntity
  8
部品1
 48
50.0
100
AcDbLine
 10
14313.54968699118
 20
1457.976218645135
 30
0.0
 11
14313.54968699119
 21
1339.226218645139
 31
0.0
  0
LINE
  5
21644
330
747D
100
AcDbEntity
  8
部品1
 48
50.0
100
AcDbLine
 10
14346.04968699119
 20
1339.226218645139
 30
0.0
 11
14313.54968699119
 21
1339.226218645139
 31
0.0
  0
LINE
  5
2164C
330
747D
100
AcDbEntity
  8
細線
 48
50.0
100
AcDbLine
 10
10283.16050040816
 20
5892.422182553771
 30
0.0
 11
16201.19820779696
 21
5892.422182553771
 31
0.0
  0
DIMENSION
  5
21654
330
747D
100
AcDbEntity
  8
寸法
 48
50.0
100
AcDbDimension
  2
*D41
 10
12669.14054641191
 20
3997.83909079706
 30
0.0
 11
12669.14054641191
 21
4435.33909079706
 31
0.0
 70
   160
  1
基礎天ヨリ\P<>
 71
     5
 42
349.9999999999991
  3
INABA_S50G詳細S20用
100
AcDbAlignedDimension
 13
13394.32924049869
 23
4872.839090797057
 33
0.0
 14
14226.04968699118
 24
3997.83909079706
 34
0.0
 50
90.0
100
AcDbRotatedDimension
1001
ACAD
1000
DSTYLE
1002
{
1070
    40
1040
1.0
1002
}
  0
MTEXT
  5
2165A
102
{ACAD_REACTORS
330
2166C
102
}
330
747D
100
AcDbEntity
  8
寸法
 62
     7
 48
50.0
100
AcDbMText
 10
10024.79075282055
 20
5217.050527685445
 30
0.0
 40
150.0
 41
0.0
 71
     7
 72
     1
  1
\A1;シャッター\Pレール
  7
STYLE1
 73
     1
 44
0.6800000000000001
1001
ACAD
1000
MTEXTBEGIN
1070
    73
1070
     1
1070
    44
1040
0.6800000000000001
1070
    74
1070
     0
1000
MTEXTEND
  0
LINE
  5
2165B
330
747D
100
AcDbEntity
  8
部品1
 48
50.0
100
AcDbLine
 10
9839.457011870235
 20
4997.839090797057
 30
0.0
 11
9839.457011870232
 21
5551.217479783947
 31
0.0
  0
TEXT
  5
2165D
330
747D
100
AcDbEntity
  8
寸法
 62
     7
 48
50.0
100
AcDbText
 10
12848.17507569242
 20
4530.483192130019
 30
0.0
 40
150.0
  1
▽G.L
  7
STYLE1
100
AcDbText
  0
LWPOLYLINE
  5
2165E
330
747D
100
AcDbEntity
  8
部品1
 48
50.0
100
AcDbPolyline
 90
        2
 70
     0
 10
12846.93871970088
 20
4497.83909079706
 40
25.0
 41
25.0
 10
14116.04968699118
 20
4497.83909079706
 40
12.5
 41
12.5
  0
TEXT
  5
2165F
330
747D
100
AcDbEntity
  8
寸法
 62
     7
 48
50.0
100
AcDbText
 10
10270.51962486555
 20
3727.336658284607
 30
0.0
 40
150.0
  1
柱前部は
  7
STYLE1
100
AcDbText
  0
LINE
  5
21660
102
{ACAD_REACTORS
330
22CD6
102
}
330
747D
100
AcDbEntity
  8
部品1
 48
50.0
100
AcDbLine
 10
9994.457011870224
 20
3747.839090797061
 30
0.0
 11
9994.457011870229
 21
4497.839090797059
 31
0.0
  0
TEXT
  5
21661
330
747D
100
AcDbEntity
  8
寸法
 62
     7
 48
50.0
100
AcDbText
 10
10270.51962486555
 20
3528.903858488398
 30
0.0
 40
150.0
  1
G.L-基礎天を
  7
STYLE1
100
AcDbText
  0
TEXT
  5
21662
330
747D
100
AcDbEntity
  8
寸法
 62
     7
 48
50.0
100
AcDbText
 10
10270.51962486555
 20
3123.867740891875
 30
0.0
 40
150.0
  1
してください
  7
STYLE1
100
AcDbText
  0
TEXT
  5
21663
330
747D
100
AcDbEntity
  8
寸法
 62
     7
 48
50.0
100
AcDbText
 10
10270.51962486555
 20
3318.841986447152
 30
0.0
 40
150.0
  1
200mm以下と
  7
STYLE1
100
AcDbText
  0
LINE
  5
21664
330
747D
100
AcDbEntity
  8
部品1
 48
50.0
100
AcDbLine
 10
10129.33634418011
 20
2711.367762911589
 30
0.0
 11
10129.33634418011
 21
2511.367762911588
 31
0.0
  0
LINE
  5
21665
330
747D
100
AcDbEntity
  8
細線
 48
50.0
100
AcDbLine
 10
10037.8615505279
 20
3722.839090797053
 30
0.0
 11
10031.16282071712
 21
3747.839090797054
 31
0.0
  0
LINE
  5
21666
102
{ACAD_REACTORS
330
2136B
102
}
330
747D
100
AcDbEntity
  8
部品1
 48
50.0
100
AcDbLine
 10
10056.95701187023
 20
3747.83909079706
 30
0.0
 11
10056.95701187023
 21
3547.839090797059
 31
0.0
  0
LINE
  5
21667
330
747D
100
AcDbEntity
  8
細線
 48
50.0
100
AcDbLine
 10
10004.36790147401
 20
3547.839090797054
 30
0.0
 11
9997.669171663233
 21
3572.839090797059
 31
0.0
  0
LINE
  5
21668
330
747D
100
AcDbEntity
  8
細線
 48
50.0
100
AcDbLine
 10
9757.842761013867
 20
3547.839090797054
 30
0.0
 11
9751.144031203089
 21
3572.839090797066
 31
0.0
  0
LINE
  5
21669
330
747D
100
AcDbEntity
  8
細線
 48
50.0
100
AcDbLine
 10
9791.336410067748
 20
3722.839090797054
 30
0.0
 11
9784.63768025697
 21
3747.839090797054
 31
0.0
  0
LINE
  5
2166A
330
747D
100
AcDbEntity
  8
細線
 48
50.0
100
AcDbLine
 10
9881.105331243938
 20
3547.839090797054
 30
0.0
 11
9874.406601433161
 21
3572.839090797061
 31
0.0
  0
LINE
  5
2166B
330
747D
100
AcDbEntity
  8
細線
 48
50.0
100
AcDbLine
 10
9914.598980297828
 20
3722.83909079705
 30
0.0
 11
9907.900250487045
 21
3747.839090797056
 31
0.0
  0
LEADER
  5
2166C
330
747D
100
AcDbEntity
  8
寸法
 48
50.0
100
AcDbLeader
  3
INABA_S50G詳細用
 71
     0
 73
     0
 74
     0
 75
     1
 40
320.0
 41
857.4999999999995
 76
     3
 10
9809.133768316762
 20
5105.077449278702
 30
0.0
 10
9874.790752820551
 20
5192.050527685445
 30
0.0
 10
9999.790752820551
 20
5192.050527685445
 30
0.0
340
2165A
1001
ACAD
1000
DSTYLE
1002
{
1070
    40
1040
1.0
1070
    77
1070
     1
1002
}
  0
LINE
  5
21677
102
{ACAD_REACTORS
330
22CD6
102
}
330
747D
100
AcDbEntity
  8
部品1
 48
50.0
100
AcDbLine
 10
9719.457011870238
 20
4497.83909079706
 30
0.0
 11
9994.457011870229
 21
4497.839090797057
 31
0.0
  0
LINE
  5
21680
102
{ACAD_REACTORS
330
22CD6
102
}
330
747D
100
AcDbEntity
  8
部品1
 48
50.0
100
AcDbLine
 10
9900.707011870233
 20
4111.589090797058
 30
0.0
 11
9900.707011870233
 21
4134.089090797058
 31
0.0
  0
LINE
  5
21685
330
747D
100
AcDbEntity
  8
部品1
 48
50.0
100
AcDbLine
 10
9719.457011870234
 20
4872.839090797057
 30
0.0
 11
10441.17745836272
 21
4872.839090797057
 31
0.0
  0
ARC
  5
216E1
330
747D
100
AcDbEntity
  8
細線
 48
50.0
100
AcDbCircle
 10
10183.16050040816
 20
5942.422182553771
 30
0.0
 40
100.0
100
AcDbArc
 50
0.0
 51
90.0
  0
LINE
  5
216E2
330
747D
100
AcDbEntity
  8
細線
 48
50.0
100
AcDbLine
 10
10283.16050040816
 20
5942.422182553771
 30
0.0
 11
10283.16050040816
 21
5842.422182553772
 31
0.0
  0
LINE
  5
216E3
330
747D
100
AcDbEntity
  8
細線
 48
50.0
100
AcDbLine
 10
10283.16050040816
 20
5842.422182553772
 30
0.0
 11
10283.16050040816
 21
5842.422182553772
 31
0.0
  0
ARC
  5
216E4
330
747D
100
AcDbEntity
  8
細線
 48
50.0
100
AcDbCircle
 10
10183.16050040816
 20
5842.422182553772
 30
0.0
 40
100.0
100
AcDbArc
 50
270.0
 51
0.0
  0
LEADER
  5
216E5
330
747D
100
AcDbEntity
  8
寸法
 48
50.0
100
AcDbLeader
  3
INABA_S50G詳細用
 71
     0
 73
     0
 74
     0
 75
     1
 40
150.0
 41
540.0
 76
     3
 10
14313.4223875728
 20
5220.489355064721
 30
0.0
 10
14559.03733742672
 20
5376.186056694013
 30
0.0
 10
14684.03733742672
 20
5376.186056694013
 30
0.0
340
216E6
1001
ACAD
1000
DSTYLE
1002
{
1070
    40
1040
1.0
1070
    77
1070
     1
1002
}
  0
MTEXT
  5
216E6
102
{ACAD_REACTORS
330
216E5
102
}
330
747D
100
AcDbEntity
  8
寸法
 62
     7
 48
50.0
100
AcDbMText
 10
14709.03733742671
 20
5401.186056694013
 30
0.0
 40
150.0
 41
0.0
 71
     7
 72
     1
  1
\A1;柱前中
  7
STYLE1
 73
     1
 44
1.0
1001
ACAD
1000
MTEXTBEGIN
1070
    73
1070
     1
1070
    44
1040
1.0
1070
    74
1070
     0
1000
MTEXTEND
  0
LINE
  5
216E7
330
747D
100
AcDbEntity
  8
部品1
 48
50.0
100
AcDbLine
 10
14116.04968699118
 20
4172.839090797054
 30
0.0
 11
14116.04968699118
 21
5551.217479783946
 31
0.0
  0
LINE
  5
216E8
330
747D
100
AcDbEntity
  8
部品1
 48
50.0
100
AcDbLine
 10
14391.04968699118
 20
4172.839090797054
 30
0.0
 11
14391.04968699118
 21
5551.217479783946
 31
0.0
  0
LINE
  5
216E9
330
747D
100
AcDbEntity
  8
部品1
 48
50.0
100
AcDbLine
 10
13996.04968699119
 20
4997.839090797057
 30
0.0
 11
13996.04968699119
 21
5551.217479783946
 31
0.0
  0
LINE
  5
216EA
330
747D
100
AcDbEntity
  8
部品1
 48
50.0
100
AcDbLine
 10
14511.04968699118
 20
4997.839090797057
 30
0.0
 11
14511.04968699118
 21
5551.217479783946
 31
0.0
  0
MTEXT
  5
216EB
102
{ACAD_REACTORS
330
216EC
102
}
330
747D
100
AcDbEntity
  8
寸法
 62
     7
 48
50.0
100
AcDbMText
 10
14996.73489126029
 20
4073.022440984196
 30
0.0
 40
150.0
 41
0.0
 71
     7
 72
     1
  1
カンザシ
  7
STYLE1
 73
     1
 44
1.0
1001
ACAD
1000
MTEXTBEGIN
1070
    73
1070
     1
1070
    44
1040
1.0
1070
    74
1070
     0
1000
MTEXTEND
  0
LEADER
  5
216EC
330
747D
100
AcDbEntity
  8
寸法
 48
50.0
100
AcDbLeader
  3
INABA_S50G詳細用
 71
     0
 73
     0
 74
     0
 75
     1
 40
150.0
 41
687.5
 76
     3
 10
14484.66179650002
 20
4221.386219145298
 30
0.0
 10
14846.73489126029
 20
4048.022440984197
 30
0.0
 10
14971.73489126029
 20
4048.022440984197
 30
0.0
340
216EB
1001
ACAD
1000
DSTYLE
1002
{
1070
    40
1040
1.0
1070
    77
1070
     1
1002
}
  0
LINE
  5
216F0
102
{ACAD_REACTORS
330
216F7
102
}
330
747D
100
AcDbEntity
  8
部品1
 48
50.0
100
AcDbLine
 10
13628.54968699119
 20
3747.83909079706
 30
0.0
 11
13628.54968699119
 21
3547.839090797057
 31
0.0
  0
LINE
  5
216F1
102
{ACAD_REACTORS
330
216F7
102
}
330
747D
100
AcDbEntity
  8
部品1
 48
50.0
100
AcDbLine
 10
14878.54968699117
 20
3747.839090797054
 30
0.0
 11
14878.54968699117
 21
3547.839090797057
 31
0.0
  0
LINE
  5
216F3
330
747D
100
AcDbEntity
  8
部品1
 48
50.0
100
AcDbLine
 10
14753.54968699118
 20
2703.983031997614
 30
0.0
 11
13753.54968699118
 21
2703.983031997614
 31
0.0
  0
LINE
  5
216F4
330
747D
100
AcDbEntity
  8
部品1
 48
50.0
100
AcDbLine
 10
14753.54968699118
 20
2503.983031997614
 30
0.0
 11
13753.54968699118
 21
2503.983031997614
 31
0.0
  0
LINE
  5
216F5
102
{ACAD_REACTORS
330
216F7
102
}
330
747D
100
AcDbEntity
  8
部品1
 48
50.0
100
AcDbLine
 10
13628.5496869912
 20
3747.83909079706
 30
0.0
 11
14878.54968699117
 21
3747.839090797054
 31
0.0
  0
LINE
  5
216F6
102
{ACAD_REACTORS
330
216F7
102
}
330
747D
100
AcDbEntity
  8
部品1
 48
50.0
100
AcDbLine
 10
14878.54968699117
 20
3547.839090797057
 30
0.0
 11
13628.54968699119
 21
3547.839090797051
 31
0.0
  0
HATCH
  5
216F7
330
747D
100
AcDbEntity
  8
細線
 48
50.0
100
AcDbHatch
 10
0.0
 20
0.0
 30
0.0
210
0.0
220
0.0
230
1.0
  2
LINE
 70
     0
 71
     1
 91
        1
 92
        7
 72
     0
 73
     1
 93
        4
 10
13628.5496869912
 20
3747.83909079706
 10
13628.54968699119
 20
3547.839090797051
 10
14878.54968699117
 20
3547.839090797057
 10
14878.54968699117
 20
3747.839090797054
 97
        4
330
216F5
330
216F0
330
216F6
330
216F1
 75
     0
 76
     1
 52
75.0
 41
37.5
 77
     0
 78
     1
 53
75.0
 43
-9058.827740064375
 44
15791.29717755308
 45
-115.0055436925422
 46
30.81564255751887
 79
     0
 47
4.991354361593743
 98
        1
 10
13696.68611163186
 20
3697.491568793923
  0
DIMENSION
  5
216F8
330
747D
100
AcDbEntity
  8
寸法
 48
50.0
100
AcDbDimension
  2
*D27
 10
13753.54968699118
 20
3229.614202761368
 30
0.0
 11
14253.54968699118
 21
3229.614202761368
 31
0.0
 70
   160
 71
     5
 42
400.0000000000029
  3
INABA_S50G詳細S20用
100
AcDbAlignedDimension
 13
14753.54968699119
 23
3547.839090797055
 33
0.0
 14
13753.54968699118
 24
3547.839090797051
 34
0.0
100
AcDbRotatedDimension
1001
ACAD
1000
DSTYLE
1002
{
1070
    40
1040
1.0
1002
}
  0
TEXT
  5
216F9
330
747D
100
AcDbEntity
  8
部品1
 48
50.0
100
AcDbText
 10
13830.55273091398
 20
2546.473396663234
 30
0.0
 40
120.0
  1
Ｄ－Ｄ’断面
  7
STYLE2
100
AcDbText
  0
LINE
  5
216FA
330
747D
100
AcDbEntity
  8
部品1
 48
50.0
100
AcDbLine
 10
13753.54968699118
 20
2703.983031997614
 30
0.0
 11
13753.54968699118
 21
2503.983031997614
 31
0.0
  0
LINE
  5
216FB
330
747D
100
AcDbEntity
  8
細線
 48
50.0
100
AcDbLine
 10
14085.62869093666
 20
3722.839090797059
 30
0.0
 11
14078.92996112588
 21
3747.83909079706
 31
0.0
  0
LINE
  5
216FC
330
747D
100
AcDbEntity
  8
細線
 48
50.0
100
AcDbLine
 10
13962.36612070658
 20
3722.839090797059
 30
0.0
 11
13955.6673908958
 21
3747.83909079706
 31
0.0
  0
LINE
  5
216FD
330
747D
100
AcDbEntity
  8
細線
 48
50.0
100
AcDbLine
 10
14052.13504188277
 20
3547.839090797057
 30
0.0
 11
14045.43631207199
 21
3572.839090797068
 31
0.0
  0
LINE
  5
216FE
330
747D
100
AcDbEntity
  8
細線
 48
50.0
100
AcDbLine
 10
13928.87247165269
 20
3547.839090797057
 30
0.0
 11
13922.17374184192
 21
3572.839090797063
 31
0.0
  0
LINE
  5
216FF
330
747D
100
AcDbEntity
  8
細線
 48
50.0
100
AcDbLine
 10
13839.10355047651
 20
3722.839090797056
 30
0.0
 11
13832.40482066573
 21
3747.839090797056
 31
0.0
  0
LINE
  5
21700
330
747D
100
AcDbEntity
  8
細線
 48
50.0
100
AcDbLine
 10
13805.60990142262
 20
3547.839090797054
 30
0.0
 11
13798.91117161184
 21
3572.839090797066
 31
0.0
  0
LINE
  5
21701
330
747D
100
AcDbEntity
  8
細線
 48
50.0
100
AcDbLine
 10
13682.34733119255
 20
3547.839090797054
 30
0.0
 11
13675.64860138177
 21
3572.839090797061
 31
0.0
  0
LINE
  5
21702
330
747D
100
AcDbEntity
  8
細線
 48
50.0
100
AcDbLine
 10
13715.84098024644
 20
3722.839090797056
 30
0.0
 11
13709.14225043566
 21
3747.839090797056
 31
0.0
  0
LINE
  5
21703
330
747D
100
AcDbEntity
  8
細線
 48
50.0
100
AcDbLine
 10
14421.922752573
 20
3547.839090797054
 30
0.0
 11
14415.22402276222
 21
3572.839090797061
 31
0.0
  0
LINE
  5
21704
330
747D
100
AcDbEntity
  8
細線
 48
50.0
100
AcDbLine
 10
14455.41640162688
 20
3722.83909079705
 30
0.0
 11
14448.7176718161
 21
3747.839090797056
 31
0.0
  0
LINE
  5
21705
330
747D
100
AcDbEntity
  8
細線
 48
50.0
100
AcDbLine
 10
14545.18532280307
 20
3547.839090797054
 30
0.0
 11
14538.48659299229
 21
3572.839090797066
 31
0.0
  0
LINE
  5
21706
330
747D
100
AcDbEntity
  8
細線
 48
50.0
100
AcDbLine
 10
14578.67897185695
 20
3722.839090797054
 30
0.0
 11
14571.98024204618
 21
3747.839090797054
 31
0.0
  0
LINE
  5
21707
330
747D
100
AcDbEntity
  8
細線
 48
50.0
100
AcDbLine
 10
14298.66018234292
 20
3547.839090797054
 30
0.0
 11
14291.96145253214
 21
3572.839090797066
 31
0.0
  0
LINE
  5
21708
330
747D
100
AcDbEntity
  8
細線
 48
50.0
100
AcDbLine
 10
14332.1538313968
 20
3722.839090797054
 30
0.0
 11
14325.45510158602
 21
3747.83909079706
 31
0.0
  0
LINE
  5
21709
330
747D
100
AcDbEntity
  8
細線
 48
50.0
100
AcDbLine
 10
14175.39761211285
 20
3547.839090797054
 30
0.0
 11
14168.69888230207
 21
3572.839090797061
 31
0.0
  0
LINE
  5
2170A
330
747D
100
AcDbEntity
  8
細線
 48
50.0
100
AcDbLine
 10
14208.89126116673
 20
3722.839090797054
 30
0.0
 11
14202.19253135595
 21
3747.83909079706
 31
0.0
  0
LINE
  5
2170D
330
747D
100
AcDbEntity
  8
部品1
 48
50.0
100
AcDbLine
 10
14753.54968699118
 20
2703.983031997614
 30
0.0
 11
14753.54968699118
 21
2503.983031997614
 31
0.0
  0
LINE
  5
2170E
330
747D
100
AcDbEntity
  8
細線
 48
50.0
100
AcDbLine
 10
14825.2041123171
 20
3722.839090797052
 30
0.0
 11
14818.50538250633
 21
3747.839090797054
 31
0.0
  0
LINE
  5
2170F
330
747D
100
AcDbEntity
  8
細線
 48
50.0
100
AcDbLine
 10
14701.94154208703
 20
3722.83909079705
 30
0.0
 11
14695.24281227625
 21
3747.839090797056
 31
0.0
  0
LINE
  5
21710
330
747D
100
AcDbEntity
  8
細線
 48
50.0
100
AcDbLine
 10
14791.71046326322
 20
3547.839090797054
 30
0.0
 11
14785.01173345244
 21
3572.839090797059
 31
0.0
  0
LINE
  5
21711
330
747D
100
AcDbEntity
  8
細線
 48
50.0
100
AcDbLine
 10
14668.44789303315
 20
3547.839090797054
 30
0.0
 11
14661.74916322237
 21
3572.839090797061
 31
0.0
  0
LINE
  5
2171C
330
747D
100
AcDbEntity
  8
部品1
 48
50.0
100
AcDbLine
 10
14003.54968699118
 20
4234.089090797055
 30
0.0
 11
14116.04968699118
 21
4234.089090797055
 31
0.0
  0
LINE
  5
2171D
330
747D
100
AcDbEntity
  8
部品1
 48
50.0
100
AcDbLine
 10
14003.54968699118
 20
4211.589090797055
 30
0.0
 11
14116.04968699118
 21
4211.589090797056
 31
0.0
  0
LINE
  5
2171F
330
747D
100
AcDbEntity
  8
部品1
 48
50.0
100
AcDbLine
 10
14003.54968699119
 20
4211.589090797055
 30
0.0
 11
14003.54968699118
 21
4234.089090797055
 31
0.0
  0
LINE
  5
21720
330
747D
100
AcDbEntity
  8
部品1
 48
50.0
100
AcDbLine
 10
13753.54968699117
 20
3747.839090797059
 30
0.0
 11
13753.54968699119
 21
4497.83909079706
 31
0.0
  0
LINE
  5
2172A
330
747D
100
AcDbEntity
  8
細線
 48
50.0
100
AcDbLine
 10
14268.54968699118
 20
4135.882424197838
 30
0.0
 11
14238.54968699118
 21
4127.843948424906
 31
0.0
  0
LINE
  5
2172B
330
747D
100
AcDbEntity
  8
細線
 48
50.0
100
AcDbLine
 10
14268.54968699118
 20
4150.882424197837
 30
0.0
 11
14238.54968699118
 21
4142.843948424905
 31
0.0
  0
LINE
  5
2172C
330
747D
100
AcDbEntity
  8
細線
 48
50.0
100
AcDbLine
 10
14268.54968699118
 20
4105.882424197838
 30
0.0
 11
14238.54968699118
 21
4097.843948424905
 31
0.0
  0
LINE
  5
2172D
330
747D
100
AcDbEntity
  8
細線
 48
50.0
100
AcDbLine
 10
14268.54968699118
 20
4120.882424197838
 30
0.0
 11
14238.54968699118
 21
4112.843948424905
 31
0.0
  0
LINE
  5
2172E
330
747D
100
AcDbEntity
  8
細線
 48
50.0
100
AcDbLine
 10
14268.54968699118
 20
4075.882424197838
 30
0.0
 11
14238.54968699118
 21
4067.843948424905
 31
0.0
  0
LINE
  5
2172F
330
747D
100
AcDbEntity
  8
細線
 48
50.0
100
AcDbLine
 10
14268.54968699118
 20
4090.882424197838
 30
0.0
 11
14238.54968699118
 21
4082.843948424906
 31
0.0
  0
LINE
  5
21730
330
747D
100
AcDbEntity
  8
細線
 48
50.0
100
AcDbLine
 10
14268.54968699118
 20
4060.882424197838
 30
0.0
 11
14238.54968699118
 21
4052.843948424905
 31
0.0
  0
LINE
  5
21731
330
747D
100
AcDbEntity
  8
細線
 48
50.0
100
AcDbLine
 10
14268.54968699118
 20
4045.882424197838
 30
0.0
 11
14238.54968699118
 21
4037.843948424906
 31
0.0
  0
LINE
  5
21732
330
747D
100
AcDbEntity
  8
部品1
 48
50.0
100
AcDbLine
 10
14503.54968699118
 20
4211.589090797057
 30
0.0
 11
14503.54968699118
 21
4234.089090797056
 31
0.0
  0
LINE
  5
21733
330
747D
100
AcDbEntity
  8
部品1
 48
50.0
100
AcDbLine
 10
14391.04968699118
 20
4211.589090797057
 30
0.0
 11
14503.54968699118
 21
4211.589090797059
 31
0.0
  0
LINE
  5
21734
330
747D
100
AcDbEntity
  8
部品1
 48
50.0
100
AcDbLine
 10
14391.04968699118
 20
4234.089090797058
 30
0.0
 11
14503.54968699118
 21
4234.089090797059
 31
0.0
  0
LINE
  5
21738
330
747D
100
AcDbEntity
  8
部品1
 48
50.0
100
AcDbLine
 10
14281.04968699118
 20
4017.83909079706
 30
0.0
 11
14226.04968699118
 21
4017.83909079706
 31
0.0
  0
LINE
  5
21739
330
747D
100
AcDbEntity
  8
部品1
 48
50.0
100
AcDbLine
 10
14226.04968699118
 20
4017.83909079706
 30
0.0
 11
14226.04968699118
 21
3997.83909079706
 31
0.0
  0
LINE
  5
2173A
330
747D
100
AcDbEntity
  8
部品1
 48
50.0
100
AcDbLine
 10
14281.04968699118
 20
4017.83909079706
 30
0.0
 11
14281.04968699118
 21
3997.83909079706
 31
0.0
  0
LINE
  5
2173B
330
747D
100
AcDbEntity
  8
部品1
 48
50.0
100
AcDbLine
 10
14238.54968699118
 20
4152.839090797057
 30
0.0
 11
14238.54968699118
 21
4017.83909079706
 31
0.0
  0
LINE
  5
2173C
330
747D
100
AcDbEntity
  8
部品1
 48
50.0
100
AcDbLine
 10
14268.54968699118
 20
4152.839090797057
 30
0.0
 11
14268.54968699118
 21
4017.83909079706
 31
0.0
  0
LINE
  5
2173D
330
747D
100
AcDbEntity
  8
部品1
 48
50.0
100
AcDbLine
 10
14281.04968699118
 20
4152.839090797057
 30
0.0
 11
14226.04968699118
 21
4152.839090797057
 31
0.0
  0
LINE
  5
2173E
330
747D
100
AcDbEntity
  8
部品1
 48
50.0
100
AcDbLine
 10
14281.04968699118
 20
4172.839090797057
 30
0.0
 11
14281.04968699118
 21
4152.839090797057
 31
0.0
  0
LINE
  5
2173F
330
747D
100
AcDbEntity
  8
部品1
 48
50.0
100
AcDbLine
 10
14226.04968699118
 20
4172.839090797057
 30
0.0
 11
14226.04968699118
 21
4152.839090797057
 31
0.0
  0
LINE
  5
21740
330
747D
100
AcDbEntity
  8
部品1
 48
50.0
100
AcDbLine
 10
14391.04968699118
 20
4172.839090797057
 30
0.0
 11
14116.04968699118
 21
4172.839090797057
 31
0.0
  0
LINE
  5
21745
330
747D
100
AcDbEntity
  8
部品1
 48
50.0
100
AcDbLine
 10
14753.54968699119
 20
3747.839090797055
 30
0.0
 11
14753.54968699117
 21
4497.839090797067
 31
0.0
  0
DIMENSION
  5
21F3D
330
747D
100
AcDbEntity
  8
寸法
 48
50.0
100
AcDbDimension
  2
*D42
 10
11507.65573588008
 20
8599.999999999997
 30
0.0
 11
11407.65573588008
 21
9050.0
 31
0.0
 70
    32
 71
     5
 42
900.0000000000017
  3
INABA_S50G
100
AcDbAlignedDimension
 13
11279.5
 23
9499.999999999998
 33
0.0
 14
11279.5
 24
8599.999999999997
 34
0.0
 50
90.0
100
AcDbRotatedDimension
1001
ACAD
1000
DSTYLE
1002
{
1070
    40
1040
1.0
1070
   272
1070
     1
1070
   279
1070
     1
1070
   341
1005
0
1002
}
  0
LEADER
  5
21FA5
330
747D
100
AcDbEntity
  8
寸法
 48
50.0
100
AcDbLeader
  3
INABA_S50G
 71
     0
 73
     0
 74
     0
 75
     1
 40
150.0
 41
900.0000000000001
 76
     3
 10
12894.34142141804
 20
9486.301956524512
 30
0.0
 10
13039.04738327915
 20
9753.87187723421
 30
0.0
 10
13164.04738327915
 20
9753.87187723421
 30
0.0
340
21FA6
1001
ACAD
1000
DSTYLE
1002
{
1070
   341
1005
11750
1070
    40
1040
1.0
1070
   343
1005
11750
1070
   344
1005
11750
1002
}
  0
MTEXT
  5
21FA6
102
{ACAD_REACTORS
330
21FA5
102
}
330
747D
100
AcDbEntity
  8
部品1
 62
     7
 48
50.0
100
AcDbMText
 10
14089.04738327915
 20
9853.871877234212
 30
0.0
 40
150.0
 41
0.0
 71
     6
 72
     1
  1
床下換気口
  7
STYLE1
 73
     1
 44
1.0
1001
ACAD
1000
MTEXTBEGIN
1070
    73
1070
     1
1070
    44
1040
1.0
1070
    74
1070
     0
1000
MTEXTEND
  0
LINE
  5
21FB5
330
747D
100
AcDbEntity
  8
想像線
 48
10.0
100
AcDbLine
 10
12959.5
 20
10475.0
 30
0.0
 11
7599.500000000002
 21
10475.0
 31
0.0
  0
LINE
  5
21FB6
330
747D
100
AcDbEntity
  8
想像線
 48
10.0
100
AcDbLine
 10
7599.500000000003
 20
8544.999999999994
 30
0.0
 11
7599.500000000002
 21
10474.99999999999
 31
0.0
  0
LINE
  5
21FB7
330
747D
100
AcDbEntity
  8
想像線
 48
10.0
100
AcDbLine
 10
12959.5
 20
8544.999999999994
 30
0.0
 11
7599.500000000002
 21
8544.999999999994
 31
0.0
  0
TEXT
  5
22009
330
747D
100
AcDbEntity
  8
部品1
 48
50.0
100
AcDbText
 10
8324.039804864709
 20
8036.836822419633
 30
0.0
 40
100.0
  1
※a,b,cは屋根の出幅です。
  7
STYLE1
100
AcDbText
  0
TEXT
  5
2200A
330
747D
100
AcDbEntity
  8
部品1
 48
50.0
100
AcDbText
 10
8522.263565807588
 20
7903.280296333689
 30
0.0
 40
100.0
  1
(a=45,b=55,c=75)
  7
STYLE1
100
AcDbText
  0
LEADER
  5
2200B
330
747D
100
AcDbEntity
  8
寸法
 48
50.0
100
AcDbLeader
  3
INABA_S50G
 71
     0
 73
     0
 74
     0
 75
     1
 40
150.0
 41
840.0
 76
     3
 10
8244.651957349539
 20
8544.999999999994
 30
0.0
 10
8360.318072141211
 20
8211.146681545377
 30
0.0
 10
8485.318072141211
 20
8211.146681545377
 30
0.0
340
2200C
1001
ACAD
1000
DSTYLE
1002
{
1070
   341
1005
11750
1070
    40
1040
1.0
1070
   343
1005
11750
1070
   344
1005
11750
1002
}
  0
MTEXT
  5
2200C
102
{ACAD_REACTORS
330
2200B
102
}
330
747D
100
AcDbEntity
  8
部品1
 62
     7
 48
50.0
100
AcDbMText
 10
9350.318072141211
 20
8311.146681545377
 30
0.0
 40
150.0
 41
0.0
 71
     6
 72
     1
  1
\A1;屋根の外寸
  7
STYLE1
 73
     1
 44
1.0
1001
ACAD
1000
MTEXTBEGIN
1070
    73
1070
     1
1070
    44
1040
1.0
1070
    74
1070
     0
1000
MTEXTEND
  0
DIMENSION
  5
22068
330
747D
100
AcDbEntity
  8
寸法
 48
50.0
100
AcDbDimension
  2
*D43
 10
12959.5
 20
11618.74755453192
 30
0.0
 11
13267.21827650308
 21
11618.74755453192
 31
0.0
 70
   160
  1
a
 71
     5
 42
45.00000000000364
  3
INABA_S50G
100
AcDbAlignedDimension
 13
12914.5
 23
10399.99999999999
 33
0.0
 14
12959.5
 24
11486.73197023835
 34
0.0
100
AcDbRotatedDimension
1001
ACAD
1000
DSTYLE
1002
{
1070
    40
1040
1.0
1002
}
  0
DIMENSION
  5
22069
330
747D
100
AcDbEntity
  8
寸法
 48
50.0
100
AcDbDimension
  2
*D44
 10
7644.5
 20
11618.74755453192
 30
0.0
 11
7291.781723496926
 21
11618.74755453192
 31
0.0
 70
   160
  1
a
 71
     5
 42
45.0
  3
INABA_S50G
100
AcDbAlignedDimension
 13
7599.5
 23
11484.16175784589
 33
0.0
 14
7644.5
 24
10399.99999999999
 34
0.0
100
AcDbRotatedDimension
1001
ACAD
1000
DSTYLE
1002
{
1070
    40
1040
1.0
1002
}
  0
DIMENSION
  5
2206A
330
747D
100
AcDbEntity
  8
寸法
 48
50.0
100
AcDbDimension
  2
*D45
 10
6444.077758871936
 20
10399.99999999999
 30
0.0
 11
6344.077758871934
 21
10437.5
 31
0.0
 70
    32
  1
c
 71
     5
 42
75.00000000000182
  3
INABA_S50G
100
AcDbAlignedDimension
 13
6644.847327740179
 23
10475.0
 33
0.0
 14
7644.5
 24
10399.99999999999
 34
0.0
 50
90.0
100
AcDbRotatedDimension
1001
ACAD
1000
DSTYLE
1002
{
1070
    40
1040
1.0
1002
}
  0
DIMENSION
  5
2206B
330
747D
100
AcDbEntity
  8
寸法
 48
50.0
100
AcDbDimension
  2
*D46
 10
6444.077758871934
 20
8544.999999999994
 30
0.0
 11
6344.077758871932
 21
8572.499999999996
 31
0.0
 70
    32
  1
b
 71
     5
 42
55.00000000000182
  3
INABA_S50G
100
AcDbAlignedDimension
 13
7705.5
 23
8599.999999999997
 33
0.0
 14
6651.355528014632
 24
8544.999999999994
 34
0.0
 50
90.0
100
AcDbRotatedDimension
1001
ACAD
1000
DSTYLE
1002
{
1070
    40
1040
1.0
1002
}
  0
LINE
  5
2218D
330
747D
100
AcDbEntity
  8
想像線
 48
10.0
100
AcDbLine
 10
12959.5
 20
8544.999999999994
 30
0.0
 11
12959.5
 21
10474.99999999999
 31
0.0
  0
LEADER
  5
22538
330
747D
100
AcDbEntity
  8
寸法
 48
50.0
100
AcDbLeader
  3
INABA_S50G
 71
     0
 73
     0
 75
     1
 40
165.0000000000001
 41
2347.440944881889
 76
     3
 10
7601.435226723224
 20
8501.000417470498
 30
0.0
 10
7101.428852650073
 20
7639.373617873089
 30
0.0
 10
6976.428852650073
 20
7639.373617873089
 30
0.0
340
22539
1001
ACAD
1000
DSTYLE
1002
{
1070
    40
1040
1.0
1002
}
  0
MTEXT
  5
22539
102
{ACAD_REACTORS
330
22538
102
}
330
747D
100
AcDbEntity
  8
寸法
 62
     7
 48
50.0
100
AcDbMText
 10
6951.428852650074
 20
7746.873617873089
 30
0.0
 40
150.0
 41
0.0
 71
     6
 72
     1
  1
柱埋込用穴(深サ:300mm以上)
  7
STYLE1
 73
     1
 44
1.0
1001
ACAD
1000
MTEXTBEGIN
1070
    73
1070
     1
1070
    44
1040
1.0
1070
    74
1070
     0
1000
MTEXTEND
  0
MTEXT
  5
2253A
330
747D
100
AcDbEntity
  8
寸法
 62
     7
 48
50.0
100
AcDbMText
 10
4606.13283782031
 20
7511.861850697838
 30
0.0
 40
150.0
 41
0.0
 71
     4
 72
     1
  1
\A1;組立後現場打コンクリート
  7
STYLE1
 73
     1
 44
1.0
1001
ACAD
1000
MTEXTBEGIN
1070
    73
1070
     1
1070
    44
1040
1.0
1070
    74
1070
     0
1000
MTEXTEND
  0
DIMENSION
  5
22AF6
330
747D
100
AcDbEntity
  8
寸法
 48
50.0
100
AcDbDimension
  2
*D47
 10
12914.5
 20
9005.448898959393
 30
0.0
 11
13364.55905511811
 21
9005.448898959393
 31
0.0
 70
   160
 71
     5
 42
180.0000000000036
  3
INABA_S50G
100
AcDbAlignedDimension
 13
13094.5
 23
8770.000000000008
 33
0.0
 14
12914.5
 24
8770.000000000008
 34
0.0
100
AcDbRotatedDimension
1001
ACAD
1000
DSTYLE
1002
{
1070
    40
1040
1.0
1070
   272
1070
     1
1070
   341
1005
0
1002
}
  0
DIMENSION
  5
22B1A
330
747D
100
AcDbEntity
  8
寸法
 48
50.0
100
AcDbDimension
  2
*D48
 10
12391.55370230484
 20
8599.999999999997
 30
0.0
 11
12391.55370230483
 21
8149.940944881898
 31
0.0
 70
   160
 71
     5
 42
179.9999999999891
  3
INABA_S50G
100
AcDbAlignedDimension
 13
12744.5
 23
8420.000000000007
 33
0.0
 14
12744.5
 24
8599.999999999997
 34
0.0
 50
90.0
100
AcDbRotatedDimension
1001
ACAD
1000
DSTYLE
1002
{
1070
    40
1040
1.0
1070
   272
1070
     1
1070
   341
1005
0
1002
}
  0
LINE
  5
22B50
330
747D
100
AcDbEntity
  8
部品1
 48
10.0
100
AcDbLine
 10
7464.499999999998
 20
8770.000000000008
 30
0.0
 11
7644.5
 21
8770.000000000008
 31
0.0
  0
LINE
  5
22B51
330
747D
100
AcDbEntity
  8
部品1
 48
10.0
100
AcDbLine
 10
7464.499999999998
 20
8420.000000000007
 30
0.0
 11
7464.499999999998
 21
8770.000000000008
 31
0.0
  0
LINE
  5
22B52
330
747D
100
AcDbEntity
  8
部品1
 48
10.0
100
AcDbLine
 10
7464.499999999998
 20
8420.000000000007
 30
0.0
 11
7814.499999999998
 21
8419.999999999996
 31
0.0
  0
LINE
  5
22B53
330
747D
100
AcDbEntity
  8
部品1
 48
10.0
100
AcDbLine
 10
7814.499999999998
 20
8419.999999999996
 30
0.0
 11
7814.499999999998
 21
8599.999999999997
 31
0.0
  0
LWPOLYLINE
  5
22BB7
102
{ACAD_REACTORS
330
22C89
102
}
330
747D
100
AcDbEntity
  8
部品1
 48
50.0
100
AcDbPolyline
 90
        2
 70
     0
 10
4470.182970506372
 20
4497.839090797059
 40
18.75
 41
18.75
 10
6055.14943451692
 20
4497.839090797059
 40
12.5
 41
12.5
  0
LEADER
  5
22BE5
330
747D
100
AcDbEntity
  8
寸法
 48
50.0
100
AcDbLeader
  3
INABA_S50G
 71
     0
 73
     0
 74
     0
 75
     1
 40
150.0
 41
231.9898538650463
 76
     3
 10
4897.850946944976
 20
4872.839090797057
 30
0.0
 10
4987.963126273729
 20
5005.539605363402
 30
0.0
 10
5112.963126273729
 20
5005.539605363402
 30
0.0
340
22BE6
213
67.73172584638814
223
0.0
233
0.0
1001
ACAD
1000
DSTYLE
1002
{
1070
    40
1040
1.0
1002
}
  0
MTEXT
  5
22BE6
102
{ACAD_REACTORS
330
22BE5
102
}
330
747D
100
AcDbEntity
  8
寸法
 62
     7
 48
50.0
100
AcDbMText
 10
5070.231400427341
 20
5105.539605363402
 30
0.0
 40
150.0
 41
1.0
 71
     4
 72
     1
  1
\A1;C.B
  7
STYLE1
 73
     1
 44
1.0
1001
ACAD
1000
MTEXTBEGIN
1070
    73
1070
     1
1070
    44
1040
1.0
1070
    74
1070
     0
1000
MTEXTEND
  0
LINE
  5
22BE9
330
747D
100
AcDbEntity
  8
部品1
100
AcDbLine
 10
4786.018372335282
 20
4872.839090797057
 30
0.0
 11
5786.018372335278
 21
4872.839090797057
 31
0.0
  0
LINE
  5
22BF5
330
747D
100
AcDbEntity
  8
部品1
100
AcDbLine
 10
4786.018372335282
 20
4497.839090797059
 30
0.0
 11
4786.018372335282
 21
4872.839090797057
 31
0.0
  0
LINE
  5
22C04
330
747D
100
AcDbEntity
  8
部品1
100
AcDbLine
 10
5786.018372335278
 20
4872.839090797057
 30
0.0
 11
5786.018372335278
 21
4497.839090797059
 31
0.0
  0
LINE
  5
22C49
330
747D
100
AcDbEntity
  8
細線
 48
50.0
100
AcDbLine
 10
4786.018372335283
 20
4645.60859542168
 30
0.0
 11
5013.248867710661
 21
4872.839090797057
 31
0.0
  0
LINE
  5
22C4A
330
747D
100
AcDbEntity
  8
細線
 48
50.0
100
AcDbLine
 10
4907.656551342736
 20
4497.839090797059
 30
0.0
 11
5282.656551342735
 21
4872.839090797057
 31
0.0
  0
LINE
  5
22C4B
330
747D
100
AcDbEntity
  8
細線
 48
50.0
100
AcDbLine
 10
5177.06423497481
 20
4497.839090797057
 30
0.0
 11
5552.064234974809
 21
4872.839090797057
 31
0.0
  0
LINE
  5
22C4C
330
747D
100
AcDbEntity
  8
細線
 48
50.0
100
AcDbLine
 10
5446.471918606885
 20
4497.839090797057
 30
0.0
 11
5786.018372335277
 21
4837.38554452545
 31
0.0
  0
LINE
  5
22C4D
330
747D
100
AcDbEntity
  8
細線
 48
50.0
100
AcDbLine
 10
4786.018372335283
 20
4679.284555875688
 30
0.0
 11
4979.572907256651
 21
4872.839090797057
 31
0.0
  0
LINE
  5
22C4E
330
747D
100
AcDbEntity
  8
細線
 48
50.0
100
AcDbLine
 10
4873.980590888726
 20
4497.839090797059
 30
0.0
 11
5248.980590888725
 21
4872.839090797057
 31
0.0
  0
LINE
  5
22C4F
330
747D
100
AcDbEntity
  8
細線
 48
50.0
100
AcDbLine
 10
5143.388274520801
 20
4497.839090797057
 30
0.0
 11
5518.3882745208
 21
4872.839090797057
 31
0.0
  0
LINE
  5
22C50
330
747D
100
AcDbEntity
  8
細線
 48
50.0
100
AcDbLine
 10
5412.795958152876
 20
4497.839090797057
 30
0.0
 11
5786.018372335277
 21
4871.06150497946
 31
0.0
  0
LINE
  5
22C52
102
{ACAD_REACTORS
330
22C89
102
}
330
747D
100
AcDbEntity
  8
部品1
100
AcDbLine
 10
5911.018372335278
 20
4497.839090797059
 30
0.0
 11
5911.018372335278
 21
4372.83909079706
 31
0.0
  0
LINE
  5
22C53
102
{ACAD_REACTORS
330
22C89
102
}
330
747D
100
AcDbEntity
  8
部品1
100
AcDbLine
 10
4661.018372335282
 20
4372.839090797059
 30
0.0
 11
4661.018372335282
 21
4497.839090797059
 31
0.0
  0
HATCH
  5
22C56
330
747D
100
AcDbEntity
  8
細線
 48
50.0
100
AcDbHatch
 10
0.0
 20
0.0
 30
0.0
210
0.0
220
0.0
230
1.0
  2
LINE
 70
     0
 71
     1
 91
        1
 92
        7
 72
     0
 73
     1
 93
        4
 10
5911.018372335278
 20
4172.83909079706
 10
5911.018372335277
 20
4372.839090797057
 10
4661.018372335281
 20
4372.839090797057
 10
4661.018372335282
 20
4172.839090797056
 97
        4
330
22C6A
330
22C58
330
22C57
330
22C68
 75
     0
 76
     1
 52
75.0
 41
37.5
 77
     0
 78
     1
 53
75.0
 43
-12408.57576171031
 44
16566.29717755309
 45
-115.0055436925422
 46
30.81564255751887
 79
     0
 47
2.300206460912943
 98
        1
 10
5172.514689291727
 20
4263.372856022468
  0
LINE
  5
22C57
102
{ACAD_REACTORS
330
22C56
102
}
330
747D
100
AcDbEntity
  8
部品1
 48
50.0
100
AcDbLine
 10
5911.018372335278
 20
4172.839090797059
 30
0.0
 11
4661.018372335282
 21
4172.839090797056
 31
0.0
  0
LINE
  5
22C58
102
{ACAD_REACTORS
330
22C56
102
}
330
747D
100
AcDbEntity
  8
部品1
 48
50.0
100
AcDbLine
 10
4661.018372335282
 20
4172.839090797056
 30
0.0
 11
4661.018372335282
 21
4372.839090797059
 31
0.0
  0
LINE
  5
22C59
330
747D
100
AcDbEntity
  8
細線
 48
50.0
100
AcDbLine
 10
4868.853840558617
 20
4172.839090797056
 30
0.0
 11
4862.155110747834
 21
4197.839090797067
 31
0.0
  0
LINE
  5
22C5A
330
747D
100
AcDbEntity
  8
細線
 48
50.0
100
AcDbLine
 10
4745.591270328539
 20
4172.839090797056
 30
0.0
 11
4738.892540517761
 21
4197.839090797063
 31
0.0
  0
LINE
  5
22C5B
330
747D
100
AcDbEntity
  8
細線
 48
50.0
100
AcDbLine
 10
4779.084919382428
 20
4347.839090797059
 30
0.0
 11
4772.38618957165
 21
4372.839090797059
 31
0.0
  0
LINE
  5
22C5C
330
747D
100
AcDbEntity
  8
細線
 48
50.0
100
AcDbLine
 10
4902.347489612501
 20
4347.839090797059
 30
0.0
 11
4895.648759801723
 21
4372.839090797059
 31
0.0
  0
LINE
  5
22C5D
330
747D
100
AcDbEntity
  8
細線
 48
50.0
100
AcDbLine
 10
5238.64155124884
 20
4172.839090797054
 30
0.0
 11
5231.942821438058
 21
4197.839090797061
 31
0.0
  0
LINE
  5
22C5E
330
747D
100
AcDbEntity
  8
細線
 48
50.0
100
AcDbLine
 10
5272.135200302726
 20
4347.83909079705
 30
0.0
 11
5265.436470491945
 21
4372.839090797056
 31
0.0
  0
LINE
  5
22C5F
330
747D
100
AcDbEntity
  8
細線
 48
50.0
100
AcDbLine
 10
5115.378981018764
 20
4172.839090797054
 30
0.0
 11
5108.680251207987
 21
4197.839090797065
 31
0.0
  0
LINE
  5
22C60
330
747D
100
AcDbEntity
  8
細線
 48
50.0
100
AcDbLine
 10
4992.116410788693
 20
4172.839090797054
 30
0.0
 11
4985.417680977911
 21
4197.839090797061
 31
0.0
  0
LINE
  5
22C61
330
747D
100
AcDbEntity
  8
細線
 48
50.0
100
AcDbLine
 10
5025.610059842573
 20
4347.839090797054
 30
0.0
 11
5018.911330031794
 21
4372.839090797059
 31
0.0
  0
LINE
  5
22C62
330
747D
100
AcDbEntity
  8
細線
 48
50.0
100
AcDbLine
 10
5148.87263007265
 20
4347.839090797054
 30
0.0
 11
5142.173900261867
 21
4372.839090797059
 31
0.0
  0
LINE
  5
22C63
330
747D
100
AcDbEntity
  8
細線
 48
50.0
100
AcDbLine
 10
5361.904121478918
 20
4172.839090797054
 30
0.0
 11
5355.20539166814
 21
4197.839090797065
 31
0.0
  0
LINE
  5
22C64
330
747D
100
AcDbEntity
  8
細線
 48
50.0
100
AcDbLine
 10
5608.429261939067
 20
4172.839090797054
 30
0.0
 11
5601.730532128284
 21
4197.839090797059
 31
0.0
  0
LINE
  5
22C65
330
747D
100
AcDbEntity
  8
細線
 48
50.0
100
AcDbLine
 10
5485.16669170899
 20
4172.839090797054
 30
0.0
 11
5478.467961898211
 21
4197.839090797061
 31
0.0
  0
LINE
  5
22C66
330
747D
100
AcDbEntity
  8
細線
 48
50.0
100
AcDbLine
 10
5395.397770532798
 20
4347.839090797054
 30
0.0
 11
5388.69904072202
 21
4372.839090797054
 31
0.0
  0
LINE
  5
22C67
330
747D
100
AcDbEntity
  8
細線
 48
50.0
100
AcDbLine
 10
5518.660340762879
 20
4347.83909079705
 30
0.0
 11
5511.961610952096
 21
4372.839090797056
 31
0.0
  0
LINE
  5
22C68
102
{ACAD_REACTORS
330
22C56
102
}
330
747D
100
AcDbEntity
  8
部品1
 48
50.0
100
AcDbLine
 10
5911.018372335278
 20
4372.839090797059
 30
0.0
 11
5911.018372335278
 21
4172.839090797059
 31
0.0
  0
LINE
  5
22C69
330
747D
100
AcDbEntity
  8
細線
 48
50.0
100
AcDbLine
 10
5641.922910992951
 20
4347.839090797052
 30
0.0
 11
5635.224181182174
 21
4372.839090797054
 31
0.0
  0
LINE
  5
22C6A
102
{ACAD_REACTORS
330
22C56
330
22C89
102
}
330
747D
100
AcDbEntity
  8
部品1
 48
50.0
100
AcDbLine
 10
5911.018372335278
 20
4372.839090797059
 30
0.0
 11
4661.018372335282
 21
4372.839090797059
 31
0.0
  0
LINE
  5
22C6B
330
747D
100
AcDbEntity
  8
細線
 48
50.0
100
AcDbLine
 10
5765.185481223024
 20
4347.839090797052
 30
0.0
 11
5758.486751412246
 21
4372.839090797054
 31
0.0
  0
LINE
  5
22C6C
330
747D
100
AcDbEntity
  8
細線
 48
50.0
100
AcDbLine
 10
5731.69183216914
 20
4172.839090797054
 30
0.0
 11
5724.993102358357
 21
4197.839090797059
 31
0.0
  0
LINE
  5
22C7A
330
747D
100
AcDbEntity
  8
部品1
 48
50.0
100
AcDbLine
 10
4430.182970506371
 20
4555.30717974808
 30
0.0
 11
4430.182970506371
 21
4434.818943726801
 31
0.0
  0
LINE
  5
22C7B
330
747D
100
AcDbEntity
  8
部品1
 48
50.0
100
AcDbLine
 10
4470.182970506372
 20
4555.30717974808
 30
0.0
 11
4470.182970506372
 21
4434.818943726801
 31
0.0
  0
LWPOLYLINE
  5
22C7C
330
747D
100
AcDbEntity
  8
部品1
 48
50.0
100
AcDbPolyline
 90
        2
 70
     0
 10
4277.294157204975
 20
4497.839090797059
 40
18.75
 41
18.75
 10
4430.182970506371
 20
4497.839090797059
 40
12.5
 41
12.5
  0
HATCH
  5
22C89
330
747D
100
AcDbEntity
  8
細線
 48
50.0
100
AcDbHatch
 10
0.0
 20
0.0
 30
0.0
210
0.0
220
0.0
230
1.0
  2
PLAST
 70
     0
 71
     1
 91
        1
 92
        7
 72
     0
 73
     1
 93
        4
 10
4661.018372335281
 20
4497.839090797059
 10
4661.018372335282
 20
4372.839090797059
 10
5911.018372335278
 20
4372.839090797059
 10
5911.01837233528
 20
4497.83909079706
 97
        4
330
22BB7
330
22C53
330
22C6A
330
22C52
 75
     0
 76
     1
 52
45.0
 41
30.0
 77
     0
 78
     3
 53
45.0
 43
0.0
 44
0.0
 45
-134.7038418160373
 46
134.7038418160373
 79
     0
 53
45.0
 43
-16.83798022700466
 44
16.83798022700466
 45
-134.7038418160373
 46
134.7038418160373
 79
     0
 53
45.0
 43
-33.67596045400932
 44
33.67596045400933
 45
-134.7038418160373
 46
134.7038418160373
 79
     0
 47
5.582266304280636
 98
        1
 10
5468.136173619932
 20
4443.14801779075
  0
LWPOLYLINE
  5
22C8A
330
747D
100
AcDbEntity
  8
部品1
 48
50.0
100
AcDbPolyline
 90
        2
 70
     0
 10
6557.806047441786
 20
4497.839090797057
 40
18.75
 41
18.75
 10
7046.745877891542
 20
4497.839090797057
 40
12.5
 41
12.5
  0
LINE
  5
22C8B
330
747D
100
AcDbEntity
  8
細線
 48
50.0
100
AcDbLine
 10
5715.879602238961
 20
4497.839090797059
 30
0.0
 11
5786.018372335277
 21
4567.977860893375
 31
0.0
  0
LINE
  5
22C8C
330
747D
100
AcDbEntity
  8
細線
 48
50.0
100
AcDbLine
 10
5682.203641784951
 20
4497.839090797059
 30
0.0
 11
5786.018372335278
 21
4601.653821347386
 31
0.0
  0
LINE
  5
22C8D
330
747D
100
AcDbEntity
  8
細線
 48
50.0
100
AcDbLine
 10
5888.4480514531
 20
4347.839090797054
 30
0.0
 11
5881.749321642323
 21
4372.839090797056
 31
0.0
  0
LINE
  5
22C8E
330
747D
100
AcDbEntity
  8
細線
 48
50.0
100
AcDbLine
 10
5854.954402399217
 20
4172.839090797056
 30
0.0
 11
5848.255672588433
 21
4197.83909079706
 31
0.0
  0
LINE
  5
22C90
330
747D
100
AcDbEntity
  8
部品1
 48
50.0
100
AcDbLine
 10
9719.457011870236
 20
4997.839090797057
 30
0.0
 11
10441.17745836271
 21
4997.839090797057
 31
0.0
  0
LINE
  5
22C9A
330
747D
100
AcDbEntity
  8
部品1
 48
50.0
100
AcDbLine
 10
9839.457011870235
 20
5027.839090797058
 30
0.0
 11
10441.17745836272
 21
5027.839090797058
 31
0.0
  0
HATCH
  5
22CD6
330
747D
100
AcDbEntity
  8
細線
 48
50.0
100
AcDbHatch
 10
0.0
 20
0.0
 30
0.0
210
0.0
220
0.0
230
1.0
  2
PLAST
 70
     0
 71
     1
 91
        1
 92
        7
 72
     0
 73
     1
 93
       16
 10
9719.457011870236
 20
4134.089090797058
 10
9900.707011870233
 20
4134.08909079706
 10
9900.707011870233
 20
4111.58909079706
 10
9719.457011870236
 20
4111.589090797055
 10
9719.457011870236
 20
3997.839090797061
 10
9581.957011870237
 20
3997.839090797058
 10
9581.957011870235
 20
4111.589090797058
 10
9400.707011870244
 20
4111.589090797055
 10
9400.707011870236
 20
4134.089090797055
 10
9581.957011870235
 20
4134.089090797055
 10
9581.957011870235
 20
4497.839090797057
 10
9119.457011870229
 20
4497.839090797056
 10
9119.457011870236
 20
3747.83909079706
 10
9994.457011870224
 20
3747.83909079706
 10
9994.457011870229
 20
4497.839090797057
 10
9719.457011870236
 20
4497.83909079706
 97
       14
330
21677
330
21511
330
21367
330
21680
330
21366
330
21599
330
21512
330
2159A
330
2159C
330
2159B
330
21597
330
21587
330
2136D
330
21660
 75
     0
 76
     1
 52
45.0
 41
30.0
 77
     0
 78
     3
 53
45.0
 43
0.0
 44
0.0
 45
-134.7038418160373
 46
134.7038418160373
 79
     0
 53
45.0
 43
-16.83798022700466
 44
16.83798022700466
 45
-134.7038418160373
 46
134.7038418160373
 79
     0
 53
45.0
 43
-33.67596045400932
 44
33.67596045400933
 45
-134.7038418160373
 46
134.7038418160373
 79
     0
 47
3.640240147443791
 98
        1
 10
9853.170221962209
 20
4315.859827962237
  0
HATCH
  5
22CE0
330
747D
100
AcDbEntity
  8
細線
 48
50.0
100
AcDbHatch
 10
0.0
 20
0.0
 30
0.0
210
0.0
220
0.0
230
1.0
  2
PLAST
 70
     0
 71
     0
 91
        1
 92
        7
 72
     0
 73
     1
 93
        4
 10
10441.17745836272
 20
4872.839090797059
 10
9719.457011870236
 20
4872.839090797057
 10
9719.457011870236
 20
4497.839090797059
 10
10441.17745836271
 20
4497.839090797056
 97
        0
 75
     0
 76
     1
 52
135.0
 41
30.0
 77
     0
 78
     3
 53
135.0
 43
0.0
 44
0.0
 45
-134.7038418160373
 46
-134.7038418160373
 79
     0
 53
135.0
 43
-16.83798022700466
 44
-16.83798022700466
 45
-134.7038418160373
 46
-134.7038418160373
 79
     0
 53
135.0
 43
-33.67596045400933
 44
-33.67596045400932
 45
-134.7038418160373
 46
-134.7038418160373
 79
     0
 47
3.640240147443791
 98
        1
 10
9853.170221962209
 20
4694.444804068363
  0
LINE
  5
22CE1
330
747D
100
AcDbEntity
  8
寸法
 48
50.0
100
AcDbLine
 10
7256.520099240391
 20
8599.999999999997
 30
0.0
 11
7256.520099240391
 21
8932.999999999998
 31
0.0
  0
LINE
  5
22CE2
330
747D
100
AcDbEntity
  8
寸法
 48
50.0
100
AcDbLine
 10
7256.520099240391
 20
8932.999999999998
 30
0.0
 11
7217.697242475013
 21
8788.111126056636
 31
0.0
  0
LINE
  5
22CE3
330
747D
100
AcDbEntity
  8
寸法
 48
50.0
100
AcDbLine
 10
7217.697242475013
 20
8788.111126056636
 30
0.0
 11
7317.697242475013
 21
8788.111126056636
 31
0.0
  0
TEXT
  5
22CE4
330
747D
100
AcDbEntity
  8
文字
 48
50.0
100
AcDbText
 10
7124.79707908977
 20
8972.019413789103
 30
0.0
 40
150.0
  1
B
  7
STYLE1
100
AcDbText
  0
TEXT
  5
22CE5
330
747D
100
AcDbEntity
  8
文字
 48
50.0
100
AcDbText
 10
8146.40469778414
 20
8972.019413789102
 30
0.0
 40
150.0
  1
B'
  7
STYLE1
100
AcDbText
  0
LINE
  5
22CE6
330
747D
100
AcDbEntity
  8
寸法
 48
50.0
100
AcDbLine
 10
8140.476930264133
 20
8599.999999999997
 30
0.0
 11
8140.476930264133
 21
8932.999999999998
 31
0.0
  0
LINE
  5
22CE7
330
747D
100
AcDbEntity
  8
寸法
 48
50.0
100
AcDbLine
 10
8140.476930264133
 20
8932.999999999998
 30
0.0
 11
8101.654073498757
 21
8788.111126056636
 31
0.0
  0
LINE
  5
22CE8
330
747D
100
AcDbEntity
  8
寸法
 48
50.0
100
AcDbLine
 10
8101.654073498757
 20
8788.111126056636
 30
0.0
 11
8206.654073498759
 21
8788.111126056636
 31
0.0
  0
LEADER
  5
22CEA
330
747D
100
AcDbEntity
  8
寸法
 48
50.0
100
AcDbLeader
  3
INABA_S50G
 71
     0
 73
     0
 75
     1
 40
150.0
 41
269.489853865046
 76
     3
 10
7497.602727357648
 20
8927.594181032874
 30
0.0
 10
7410.684025650692
 20
9175.208306395294
 30
0.0
 10
7285.684025650692
 20
9175.208306395294
 30
0.0
340
22CEB
213
-6.654425256279864
223
-6.941639128017413
233
0.0
1001
ACAD
1000
DSTYLE
1002
{
1070
    40
1040
1.0
1002
}
  0
MTEXT
  5
22CEB
102
{ACAD_REACTORS
330
22CEA
102
}
330
747D
100
AcDbEntity
  8
寸法
 62
     7
 48
50.0
100
AcDbMText
 10
7267.338450906973
 20
9282.149945523313
 30
0.0
 40
150.0
 41
0.0
 71
     6
 72
     1
  1
C部
  7
STYLE1
 73
     1
 44
1.0
1001
ACAD
1000
MTEXTBEGIN
1070
    73
1070
     1
1070
    44
1040
1.0
1070
    74
1070
     0
1000
MTEXTEND
  0
CIRCLE
  5
22CEC
330
747D
100
AcDbEntity
  8
想像線
 48
10.0
100
AcDbCircle
 10
7657.963475512321
 20
8632.999999999997
 30
0.0
 40
335.4121361059542
  0
LWPOLYLINE
  5
22CEE
330
747D
100
AcDbEntity
  8
部品1
 48
50.0
100
AcDbPolyline
 90
        2
 70
     0
 10
9719.457011870238
 20
4497.83909079706
 40
18.75
 41
18.75
 10
10441.17745836271
 20
4497.83909079706
 40
12.5
 41
12.5
  0
LINE
  5
22D5A
102
{ACAD_REACTORS
330
22F27
102
}
330
747D
100
AcDbEntity
  8
部品1
 48
50.0
100
AcDbLine
 10
9721.957011870237
 20
1314.226218645137
 30
0.0
 11
10553.88266470749
 21
1314.226218645137
 31
0.0
  0
LINE
  5
22D5B
102
{ACAD_REACTORS
330
22F27
102
}
330
747D
100
AcDbEntity
  8
部品1
 48
50.0
100
AcDbLine
 10
9721.957011870237
 20
1314.226218645137
 30
0.0
 11
9721.957011870234
 21
1466.726218645137
 31
0.0
  0
LINE
  5
22DA7
102
{ACAD_REACTORS
330
22F27
102
}
330
747D
100
AcDbEntity
  8
部品1
 48
50.0
100
AcDbLine
 10
9869.457011870236
 20
1739.226218645137
 30
0.0
 11
10493.38854530347
 21
1739.226218645137
 31
0.0
  0
SPLINE
  5
22DAB
102
{ACAD_REACTORS
330
22F27
102
}
330
747D
100
AcDbEntity
  8
部品1
 48
50.0
100
AcDbSpline
210
0.0
220
0.0
230
1.0
 70
     8
 71
     3
 72
    11
 73
     7
 74
     5
 42
0.0000000001
 43
0.0000000001
 44
0.0000000001
 40
0.0
 40
0.0
 40
0.0
 40
0.0
 40
144.7568414096168
 40
299.314699781309
 40
429.3301754671687
 40
600.2078569462721
 40
600.2078569462721
 40
600.2078569462721
 40
600.2078569462721
 10
10529.75013937936
 20
1251.395626705824
 30
0.0
 10
10548.00287118616
 20
1296.568420983636
 30
0.0
 10
10585.7441681621
 20
1389.972513155599
 30
0.0
 10
10568.30167360221
 20
1540.369146660451
 30
0.0
 10
10455.06167379906
 20
1664.448854220156
 30
0.0
 10
10502.69761559838
 20
1765.291091876874
 30
0.0
 10
10529.75013937936
 20
1822.559551978469
 30
0.0
 11
10529.75013937936
 21
1251.395626705824
 31
0.0
 11
10572.83656328398
 21
1389.591513800919
 31
0.0
 11
10549.84384368135
 21
1542.429553665734
 31
0.0
 11
10488.0834727127
 21
1656.839695242583
 31
0.0
 11
10529.75013937936
 21
1822.559551978469
 31
0.0
  0
LINE
  5
22DAD
330
747D
100
AcDbEntity
  8
部品1
 48
50.0
100
AcDbLine
 10
9721.957011870237
 20
864.2262186451368
 30
0.0
 11
9994.457011870242
 21
864.2262186451372
 31
0.0
  0
LINE
  5
22DD3
330
747D
100
AcDbEntity
  8
部品1
 48
50.0
100
AcDbLine
 10
9994.457011870242
 20
864.2262186451352
 30
0.0
 11
9994.45701187024
 21
1314.226218645137
 31
0.0
  0
DIMENSION
  5
22E38
330
747D
100
AcDbEntity
  8
寸法
 48
50.0
100
AcDbDimension
  2
*D49
 10
9569.457011870236
 20
1946.353806238956
 30
0.0
 11
9344.457011870236
 21
2046.353806238956
 31
0.0
 70
    32
 71
     5
 42
180.0
  3
INABA_S50G詳細S20用
100
AcDbAlignedDimension
 13
9119.457011870236
 23
1739.226218645135
 33
0.0
 14
9569.457011870236
 24
1739.226218645135
 34
0.0
100
AcDbRotatedDimension
1001
ACAD
1000
DSTYLE
1002
{
1070
    40
1040
1.0
1002
}
  0
DIMENSION
  5
22E45
330
747D
100
AcDbEntity
  8
寸法
 48
50.0
100
AcDbDimension
  2
*D50
 10
10273.33262845975
 20
1314.226218645137
 30
0.0
 11
10173.33262845975
 21
1089.226218645138
 31
0.0
 70
    32
 71
     5
 42
180.0000000000006
  3
INABA_S50G詳細S20用
100
AcDbAlignedDimension
 13
9994.457011870242
 23
864.2262186451352
 33
0.0
 14
9994.457011870242
 24
1314.226218645137
 34
0.0
 50
90.0
100
AcDbRotatedDimension
1001
ACAD
1000
DSTYLE
1002
{
1070
    40
1040
1.0
1002
}
  0
DIMENSION
  5
22E96
330
747D
100
AcDbEntity
  8
寸法
 48
50.0
100
AcDbDimension
  2
*D51
 10
9005.682731468274
 20
1466.726218645137
 30
0.0
 11
8905.682731468274
 21
1756.726218645139
 31
0.0
 70
    32
 71
     5
 42
1.000000000000727
  3
INABA_S50G詳細S20用
100
AcDbAlignedDimension
 13
9588.207011870236
 23
1464.226218645135
 33
0.0
 14
9569.457011870236
 24
1466.726218645137
 34
0.0
 50
90.0
100
AcDbRotatedDimension
1001
ACAD
1000
DSTYLE
1002
{
1070
    40
1040
1.0
1002
}
  0
DIMENSION
  5
22EB0
330
747D
100
AcDbEntity
  8
寸法
 48
50.0
100
AcDbDimension
  2
*D52
 10
9005.682731468274
 20
1314.226218645137
 30
0.0
 11
8905.682731468274
 21
1006.11961692734
 31
0.0
 70
    32
 71
     5
 42
4.999999999999364
  3
INABA_S50G詳細S20用
100
AcDbAlignedDimension
 13
9588.207011870236
 23
1326.726218645135
 33
0.0
 14
9721.957011870237
 24
1314.226218645137
 34
0.0
 50
90.0
100
AcDbRotatedDimension
1001
ACAD
1000
DSTYLE
1002
{
1070
    40
1040
1.0
1002
}
  0
HATCH
  5
22F27
330
747D
100
AcDbEntity
  8
細線
 48
50.0
100
AcDbHatch
 10
0.0
 20
0.0
 30
0.0
210
0.0
220
0.0
230
1.0
  2
PLAST
 70
     0
 71
     1
 91
        1
 92
        5
 93
        8
 72
     1
 10
9869.457011870235
 20
1739.22621864514
 11
9869.457011870238
 21
2275.119808961378
 72
     4
 94
        3
 73
     0
 74
     0
 95
       11
 96
        7
 40
86.69635969091279
 40
86.69635969091279
 40
86.69635969091279
 40
86.69635969091279
 40
142.4562004170196
 40
249.0971287921331
 40
365.1670311020035
 40
409.2041214600674
 40
409.2041214600674
 40
409.2041214600674
 40
409.2041214600674
 10
9869.45701187024
 20
2275.119808961377
 10
9851.767309919811
 20
2280.31809594617
 10
9800.740285109943
 20
2287.529169061216
 10
9717.29993438903
 20
2234.82801029374
 10
9633.881556243276
 20
2190.079623703333
 10
9583.371800995744
 20
2197.561151030788
 10
9569.457011870234
 20
2201.348559000775
 72
     1
 10
9569.457011870236
 20
2201.348559000775
 11
9569.457011870236
 21
1466.726218645137
 72
     1
 10
9569.457011870236
 20
1466.726218645137
 11
9721.957011870234
 21
1466.726218645137
 72
     1
 10
9721.957011870234
 20
1466.726218645137
 11
9721.957011870234
 21
1314.226218645137
 72
     1
 10
9721.957011870234
 20
1314.226218645137
 11
10553.88266470749
 21
1314.226218645137
 72
     4
 94
        3
 73
     0
 74
     0
 95
       11
 96
        7
 40
66.83237386611544
 40
66.83237386611544
 40
66.83237386611544
 40
66.83237386611544
 40
144.7568414096168
 40
299.314699781309
 40
429.3301754671687
 40
600.2078569462721
 40
600.2078569462721
 40
600.2078569462721
 40
600.2078569462721
 10
10553.88266470749
 20
1314.226218645137
 10
10562.36907795381
 20
1338.850541965888
 10
10583.02895412825
 20
1413.384247557133
 10
10568.30167360221
 20
1540.369146660451
 10
10455.06167379906
 20
1664.448854220156
 10
10502.69761559838
 20
1765.291091876874
 10
10529.75013937936
 20
1822.559551978469
 72
     1
 10
10495.95104630089
 20
1739.226218645137
 11
9869.457011870235
 21
1739.22621864514
 97
        8
330
22DAB
330
22DA7
330
215C4
330
21361
330
215C3
330
215CC
330
22D5B
330
22D5A
 75
     0
 76
     1
 52
135.0
 41
30.0
 77
     0
 78
     3
 53
135.0
 43
0.0
 44
27.39996063482249
 45
-134.7038418160373
 46
-134.7038418160373
 79
     0
 53
135.0
 43
-16.83798022700466
 44
10.56198040781783
 45
-134.7038418160373
 46
-134.7038418160373
 79
     0
 53
135.0
 43
-33.67596045400933
 44
-6.275999819186836
 45
-134.7038418160373
 46
-134.7038418160373
 79
     0
 47
9.034573746928248
 98
        1
 10
9862.323404071766
 20
1640.422158225847
  0
LINE
  5
22F80
102
{ACAD_REACTORS
330
2305B
102
}
330
747D
100
AcDbEntity
  8
部品1
 48
50.0
100
AcDbLine
 10
13243.55512520059
 20
1739.226218645137
 30
0.0
 11
15171.58275786191
 21
1739.226218645137
 31
0.0
  0
LINE
  5
22F81
102
{ACAD_REACTORS
330
2305B
102
}
330
747D
100
AcDbEntity
  8
部品1
 48
50.0
100
AcDbLine
 10
13302.76614531826
 20
1314.226218645137
 30
0.0
 11
13991.04968699118
 21
1314.226218645137
 31
0.0
  0
LINE
  5
22FAF
102
{ACAD_REACTORS
330
2305B
102
}
330
747D
100
AcDbEntity
  8
部品1
 48
50.0
100
AcDbLine
 10
14516.04968699118
 20
1314.226218645137
 30
0.0
 11
14516.04968699118
 21
1466.726218645137
 31
0.0
  0
LINE
  5
22FB0
102
{ACAD_REACTORS
330
2305B
102
}
330
747D
100
AcDbEntity
  8
部品1
 48
50.0
100
AcDbLine
 10
13991.04968699118
 20
1314.226218645137
 30
0.0
 11
13991.04968699119
 21
1466.726218645137
 31
0.0
  0
LINE
  5
22FB1
102
{ACAD_REACTORS
330
2305B
102
}
330
747D
100
AcDbEntity
  8
部品1
 48
50.0
100
AcDbLine
 10
13991.04968699119
 20
1466.726218645137
 30
0.0
 11
14516.04968699118
 21
1466.726218645137
 31
0.0
  0
LINE
  5
22FB2
102
{ACAD_REACTORS
330
2305B
102
}
330
747D
100
AcDbEntity
  8
部品1
 48
50.0
100
AcDbLine
 10
14516.04968699118
 20
1314.226218645137
 30
0.0
 11
15230.79377797958
 21
1314.226218645137
 31
0.0
  0
SPLINE
  5
22FB3
102
{ACAD_REACTORS
330
2305B
102
}
330
747D
100
AcDbEntity
  8
部品1
 48
50.0
100
AcDbSpline
210
0.0
220
0.0
230
1.0
 70
     8
 71
     3
 72
    11
 73
     7
 74
     5
 42
0.0000000001
 43
0.0000000001
 44
0.0000000001
 40
0.0
 40
0.0
 40
0.0
 40
0.0
 40
144.7568414096168
 40
299.314699781309
 40
429.3301754671687
 40
600.2078569462721
 40
600.2078569462721
 40
600.2078569462721
 40
600.2078569462721
 10
15206.66125265145
 20
1251.395626705824
 30
0.0
 10
15224.91398445824
 20
1296.568420983636
 30
0.0
 10
15262.65528143419
 20
1389.972513155599
 30
0.0
 10
15245.21278687429
 20
1540.369146660451
 30
0.0
 10
15131.97278707115
 20
1664.448854220156
 30
0.0
 10
15179.60872887046
 20
1765.291091876874
 30
0.0
 10
15206.66125265145
 20
1822.559551978469
 30
0.0
 11
15206.66125265145
 21
1251.395626705824
 31
0.0
 11
15249.74767655607
 21
1389.591513800919
 31
0.0
 11
15226.75495695343
 21
1542.429553665734
 31
0.0
 11
15164.99458598478
 21
1656.839695242583
 31
0.0
 11
15206.66125265145
 21
1822.559551978469
 31
0.0
  0
SPLINE
  5
22FB4
102
{ACAD_REACTORS
330
2305B
102
}
330
747D
100
AcDbEntity
  8
部品1
 48
50.0
100
AcDbSpline
210
0.0
220
0.0
230
1.0
 70
     8
 71
     3
 72
    11
 73
     7
 74
     5
 42
0.0000000001
 43
0.0000000001
 44
0.0000000001
 40
0.0
 40
0.0
 40
0.0
 40
0.0
 40
144.7568414096168
 40
299.314699781309
 40
429.3301754671687
 40
600.2078569462721
 40
600.2078569462721
 40
600.2078569462721
 40
600.2078569462721
 10
13278.63361999014
 20
1251.395626705824
 30
0.0
 10
13296.88635179693
 20
1296.568420983636
 30
0.0
 10
13334.62764877287
 20
1389.972513155599
 30
0.0
 10
13317.18515421298
 20
1540.369146660452
 30
0.0
 10
13203.94515440984
 20
1664.448854220156
 30
0.0
 10
13251.58109620916
 20
1765.291091876874
 30
0.0
 10
13278.63361999014
 20
1822.559551978469
 30
0.0
 11
13278.63361999014
 21
1251.395626705824
 31
0.0
 11
13321.72004389476
 21
1389.591513800919
 31
0.0
 11
13298.72732429213
 21
1542.429553665734
 31
0.0
 11
13236.96695332347
 21
1656.839695242583
 31
0.0
 11
13278.63361999014
 21
1822.559551978469
 31
0.0
  0
HATCH
  5
2305B
330
747D
100
AcDbEntity
  8
細線
 48
50.0
100
AcDbHatch
 10
0.0
 20
0.0
 30
0.0
210
0.0
220
0.0
230
1.0
  2
PLAST
 70
     0
 71
     1
 91
        1
 92
        5
 93
        8
 72
     4
 94
        3
 73
     0
 74
     0
 95
       11
 96
        7
 40
66.83237386611551
 40
66.83237386611551
 40
66.83237386611551
 40
66.83237386611551
 40
154.118126370448
 40
284.1336020563078
 40
438.6914604279999
 40
516.6159279715012
 40
516.6159279715012
 40
516.6159279715012
 40
516.6159279715012
 10
13243.5551252006
 20
1739.226218645137
 10
13234.56386725391
 20
1710.716908031304
 10
13224.72883848944
 20
1641.675687078746
 10
13317.18515421299
 20
1540.369146660452
 10
13331.91243473902
 20
1413.384247557133
 10
13311.25255856459
 20
1338.850541965888
 10
13302.76614531826
 20
1314.226218645137
 72
     1
 10
13302.76614531826
 20
1314.226218645137
 11
13991.04968699118
 21
1314.226218645136
 72
     1
 10
13991.04968699118
 20
1314.226218645136
 11
13991.04968699119
 21
1466.726218645137
 72
     1
 10
13991.04968699119
 20
1466.726218645137
 11
14516.04968699119
 21
1466.726218645137
 72
     1
 10
14516.04968699119
 20
1466.726218645137
 11
14516.04968699118
 21
1314.226218645137
 72
     1
 10
14516.04968699118
 20
1314.226218645137
 11
15230.79377797957
 21
1314.226218645137
 72
     4
 94
        3
 73
     0
 74
     0
 95
       11
 96
        7
 40
66.8323738661153
 40
66.8323738661153
 40
66.8323738661153
 40
66.8323738661153
 40
144.7568414096168
 40
299.314699781309
 40
429.3301754671687
 40
516.6159279715019
 40
516.6159279715019
 40
516.6159279715019
 40
516.6159279715019
 10
15230.79377797957
 20
1314.226218645137
 10
15239.2801912259
 20
1338.850541965888
 10
15259.94006740033
 20
1413.384247557133
 10
15245.21278687429
 20
1540.369146660451
 10
15152.75647115075
 20
1641.675687078746
 10
15162.59149991523
 20
1710.716908031305
 10
15171.58275786191
 20
1739.226218645137
 72
     1
 10
15171.58275786191
 20
1739.226218645137
 11
13243.5551252006
 21
1739.226218645136
 97
        8
330
22FB3
330
22F80
330
22FB4
330
22F81
330
22FB0
330
22FB1
330
22FAF
330
22FB2
 75
     0
 76
     1
 52
135.0
 41
30.0
 77
     0
 78
     3
 53
135.0
 43
-190.0932167834417
 44
27.39996063482249
 45
-134.7038418160373
 46
-134.7038418160373
 79
     0
 53
135.0
 43
-206.9311970104463
 44
10.56198040781783
 45
-134.7038418160373
 46
-134.7038418160373
 79
     0
 53
135.0
 43
-223.769177237451
 44
-6.275999819186836
 45
-134.7038418160373
 46
-134.7038418160373
 79
     0
 47
7.032489281685056
 98
        1
 10
13740.23818630226
 20
1563.453579789813
  0
DIMENSION
  5
230D8
330
747D
100
AcDbEntity
  8
寸法
 48
50.0
100
AcDbDimension
  2
*D53
 10
10107.57448829355
 20
1314.226218645137
 30
0.0
 11
10107.57448829355
 21
1882.524496906495
 31
0.0
 70
   160
 71
     5
 42
61.0
  3
INABA_S50G詳細S20用
100
AcDbAlignedDimension
 13
9721.957011870234
 23
1466.726218645137
 33
0.0
 14
9721.957011870234
 24
1314.226218645137
 34
0.0
 50
90.0
100
AcDbRotatedDimension
1001
ACAD
1000
DSTYLE
1002
{
1070
    40
1040
1.0
1002
}
  0
DIMENSION
  5
230FA
330
747D
100
AcDbEntity
  8
寸法
 48
50.0
100
AcDbDimension
  2
*D54
 10
9721.957011870234
 20
559.7632759341649
 30
0.0
 11
9943.945200846613
 21
659.7632759341649
 31
0.0
 70
    32
 71
     5
 42
60.99999999999927
  3
INABA_S50G詳細S20用
100
AcDbAlignedDimension
 13
9569.457011870236
 23
1466.726218645137
 33
0.0
 14
9721.957011870234
 24
1314.226218645137
 34
0.0
100
AcDbRotatedDimension
1001
ACAD
1000
DSTYLE
1002
{
1070
    40
1040
1.0
1002
}
  0
DIMENSION
  5
23109
330
747D
100
AcDbEntity
  8
寸法
 48
50.0
100
AcDbDimension
  2
*D55
 10
13533.27230808204
 20
1314.226218645137
 30
0.0
 11
13433.25754430251
 21
1026.726218645139
 31
0.0
 70
    32
 71
     5
 42
229.9999999999998
  3
INABA_S50G詳細S20用
100
AcDbAlignedDimension
 13
13753.54968699118
 23
739.2262186451371
 33
0.0
 14
13753.54968699118
 24
1314.226218645137
 34
0.0
 50
90.0
100
AcDbRotatedDimension
1001
ACAD
1000
DSTYLE
1002
{
1070
    40
1040
1.0
1002
}
  0
DIMENSION
  5
23116
330
747D
100
AcDbEntity
  8
寸法
 48
50.0
100
AcDbDimension
  2
*D56
 10
14753.54968699118
 20
504.9507237507059
 30
0.0
 11
14253.54968699118
 21
604.9507237507059
 31
0.0
 70
    32
  1
<>穴
 71
     5
 42
400.0
  3
INABA_S50G詳細S20用
100
AcDbAlignedDimension
 13
13753.54968699118
 23
739.2262186451371
 33
0.0
 14
14753.54968699118
 24
739.2262186451371
 34
0.0
100
AcDbRotatedDimension
1001
ACAD
1000
DSTYLE
1002
{
1070
    40
1040
1.0
1002
}
  0
DIMENSION
  5
23162
330
747D
100
AcDbEntity
  8
寸法
 48
50.0
100
AcDbDimension
  2
*D57
 10
15038.01817639508
 20
1466.726218645137
 30
0.0
 11
15038.01817639508
 21
1092.238029668761
 31
0.0
 70
   160
 71
     5
 42
61.0
  3
INABA_S50G詳細S20用
100
AcDbAlignedDimension
 13
14516.04968699118
 23
1314.226218645137
 33
0.0
 14
14516.04968699118
 24
1466.726218645137
 34
0.0
 50
90.0
100
AcDbRotatedDimension
1001
ACAD
1000
DSTYLE
1002
{
1070
    40
1040
1.0
1002
}
  0
DIMENSION
  5
23191
330
747D
100
AcDbEntity
  8
寸法
 48
50.0
100
AcDbDimension
  2
*D58
 10
13991.04968699118
 20
2121.166199109808
 30
0.0
 11
14253.54968699118
 21
2221.180962889336
 31
0.0
 70
    32
 71
     5
 42
210.0
  3
INABA_S50G詳細S20用
100
AcDbAlignedDimension
 13
14516.04968699118
 23
1466.726218645137
 33
0.0
 14
13991.04968699118
 24
1466.726218645149
 34
0.0
100
AcDbRotatedDimension
1001
ACAD
1000
DSTYLE
1002
{
1070
    40
1040
1.0
1002
}
  0
LINE
  5
23249
330
747D
100
AcDbEntity
  8
寸法
 48
50.0
100
AcDbLine
 10
10723.47919391783
 20
8599.999999999997
 30
0.0
 11
10723.47919391783
 21
9002.999999999996
 31
0.0
  0
LINE
  5
2324A
330
747D
100
AcDbEntity
  8
寸法
 48
50.0
100
AcDbLine
 10
10684.65633715246
 20
8858.111126056636
 30
0.0
 11
10789.65633715246
 21
8858.111126056636
 31
0.0
  0
LINE
  5
2324B
330
747D
100
AcDbEntity
  8
寸法
 48
50.0
100
AcDbLine
 10
10723.47919391783
 20
9002.999999999996
 30
0.0
 11
10684.65633715246
 21
8858.111126056636
 31
0.0
  0
TEXT
  5
2324C
330
747D
100
AcDbEntity
  8
文字
 48
50.0
100
AcDbText
 10
10749.44876339918
 20
8967.61085648853
 30
0.0
 40
150.0
  1
D'
  7
STYLE1
100
AcDbText
  0
LINE
  5
2324D
330
747D
100
AcDbEntity
  8
寸法
 48
50.0
100
AcDbLine
 10
9839.522362894095
 20
8599.999999999997
 30
0.0
 11
9839.522362894095
 21
9002.999999999996
 31
0.0
  0
LINE
  5
2324E
330
747D
100
AcDbEntity
  8
寸法
 48
50.0
100
AcDbLine
 10
9800.699506128717
 20
8858.111126056636
 30
0.0
 11
9900.699506128717
 21
8858.111126056636
 31
0.0
  0
LINE
  5
2324F
330
747D
100
AcDbEntity
  8
寸法
 48
50.0
100
AcDbLine
 10
9839.522362894095
 20
9002.999999999996
 30
0.0
 11
9800.699506128717
 21
8858.111126056636
 31
0.0
  0
TEXT
  5
23250
330
747D
100
AcDbEntity
  8
文字
 48
50.0
100
AcDbText
 10
9679.98189849529
 20
8967.610856488532
 30
0.0
 40
150.0
  1
D
  7
STYLE1
100
AcDbText
  0
LINE
  5
2325A
330
747D
100
AcDbEntity
  8
部品1
 48
50.0
100
AcDbLine
 10
13394.3292404987
 20
4997.839090797057
 30
0.0
 11
14116.04968699118
 21
4997.839090797057
 31
0.0
  0
LINE
  5
2325B
330
747D
100
AcDbEntity
  8
部品1
 48
50.0
100
AcDbLine
 10
13394.3292404987
 20
5027.839090797058
 30
0.0
 11
13996.04968699119
 21
5027.839090797058
 31
0.0
  0
LINE
  5
2325C
330
747D
100
AcDbEntity
  8
部品1
 48
50.0
100
AcDbLine
 10
13394.32924049869
 20
4872.839090797057
 30
0.0
 11
14116.04968699118
 21
4872.839090797057
 31
0.0
  0
LINE
  5
2325D
330
747D
100
AcDbEntity
  8
部品1
 48
50.0
100
AcDbLine
 10
15112.77013348367
 20
4872.839090797057
 30
0.0
 11
14391.04968699119
 21
4872.839090797057
 31
0.0
  0
LINE
  5
2325E
330
747D
100
AcDbEntity
  8
部品1
 48
50.0
100
AcDbLine
 10
15112.77013348367
 20
5027.839090797058
 30
0.0
 11
14511.04968699118
 21
5027.839090797058
 31
0.0
  0
LINE
  5
2325F
330
747D
100
AcDbEntity
  8
部品1
 48
50.0
100
AcDbLine
 10
15112.77013348367
 20
4997.839090797057
 30
0.0
 11
14391.04968699119
 21
4997.839090797057
 31
0.0
  0
LWPOLYLINE
  5
23285
330
747D
100
AcDbEntity
  8
部品1
 48
50.0
100
AcDbPolyline
 90
        2
 70
     0
 10
14391.04968699118
 20
4497.839090797067
 40
25.0
 41
25.0
 10
15169.22305691253
 20
4497.839090797067
 40
12.5
 41
12.5
  0
LINE
  5
232C8
330
747D
100
AcDbEntity
  8
部品1
 48
50.0
100
AcDbLine
 10
14516.04968699118
 20
4497.83909079706
 30
0.0
 11
14516.04968699119
 21
4872.839090797057
 31
0.0
  0
LINE
  5
232C9
330
747D
100
AcDbEntity
  8
部品1
 48
50.0
100
AcDbLine
 10
13991.04968699118
 20
4497.83909079706
 30
0.0
 11
13991.04968699119
 21
4872.839090797057
 31
0.0
  0
HATCH
  5
23320
330
747D
100
AcDbEntity
  8
細線
 48
50.0
100
AcDbHatch
 10
0.0
 20
0.0
 30
0.0
210
0.0
220
0.0
230
1.0
  2
PLAST
 70
     0
 71
     0
 91
        4
 92
        7
 72
     0
 73
     1
 93
        4
 10
13394.3292404987
 20
4872.839090797057
 10
13394.3292404987
 20
4497.83909079706
 10
13991.04968699118
 20
4497.83909079706
 10
13991.04968699119
 20
4872.839090797057
 97
        0
 92
        7
 72
     0
 73
     1
 93
        4
 10
14116.04968699117
 20
4872.839090797057
 10
13991.04968699119
 20
4872.839090797057
 10
13991.04968699118
 20
4497.83909079706
 10
14116.04968699118
 20
4497.83909079706
 97
        0
 92
        7
 72
     0
 73
     1
 93
        4
 10
14391.04968699118
 20
4497.839090797067
 10
14516.04968699118
 20
4497.839090797067
 10
14516.04968699119
 20
4872.839090797057
 10
14391.04968699118
 20
4872.839090797057
 97
        0
 92
        7
 72
     0
 73
     1
 93
        4
 10
14516.04968699119
 20
4872.839090797057
 10
14516.04968699118
 20
4497.839090797067
 10
15112.77013348367
 20
4497.839090797067
 10
15112.77013348367
 20
4872.839090797057
 97
        0
 75
     0
 76
     1
 52
135.0
 41
30.0
 77
     0
 78
     3
 53
135.0
 43
-324.1711267640931
 44
0.0
 45
-134.7038418160373
 46
-134.7038418160373
 79
     0
 53
135.0
 43
-341.0091069910977
 44
-16.83798022700466
 45
-134.7038418160373
 46
-134.7038418160373
 79
     0
 53
135.0
 43
-357.8470872181024
 44
-33.67596045400932
 45
-134.7038418160373
 46
-134.7038418160373
 79
     0
 47
6.35837379513628
 98
        4
 10
13755.42862798524
 20
4727.233252876787
 10
14054.40256146513
 20
4739.950010116649
 10
14442.43252437818
 20
4720.874913241161
 10
14785.93447257465
 20
4714.51649563694
  0
LINE
  5
23439
330
747D
100
AcDbEntity
  8
部品1
 48
50.0
100
AcDbLine
 10
14281.04968699118
 20
3997.83909079706
 30
0.0
 11
14226.04968699118
 21
3997.83909079706
 31
0.0
  0
LINE
  5
2344D
330
747D
100
AcDbEntity
  8
細線
 48
50.0
100
AcDbLine
 10
14268.54968699118
 20
4030.882424197838
 30
0.0
 11
14238.54968699118
 21
4022.843948424905
 31
0.0
  0
HATCH
  5
2348B
330
747D
100
AcDbEntity
  8
細線
 48
50.0
100
AcDbHatch
 10
0.0
 20
0.0
 30
0.0
210
0.0
220
0.0
230
1.0
  2
PLAST
 70
     0
 71
     0
 91
        1
 92
        7
 72
     0
 73
     1
 93
       28
 10
13753.54968699117
 20
3747.83909079706
 10
14753.54968699119
 20
3747.83909079706
 10
14753.54968699118
 20
4497.839090797067
 10
14391.04968699118
 20
4497.839090797066
 10
14391.04968699118
 20
4234.089090797058
 10
14503.54968699118
 20
4234.089090797059
 10
14503.54968699118
 20
4211.589090797059
 10
14391.04968699118
 20
4211.589090797057
 10
14391.04968699118
 20
4172.839090797057
 10
14281.04968699118
 20
4172.839090797057
 10
14281.04968699118
 20
4152.839090797057
 10
14268.54968699118
 20
4152.839090797057
 10
14268.54968699118
 20
4017.83909079706
 10
14281.04968699118
 20
4017.83909079706
 10
14281.04968699118
 20
3997.83909079706
 10
14226.04968699118
 20
3997.83909079706
 10
14226.04968699118
 20
4017.83909079706
 10
14238.54968699118
 20
4017.83909079706
 10
14238.54968699118
 20
4152.839090797057
 10
14226.04968699118
 20
4152.839090797058
 10
14226.04968699118
 20
4172.839090797057
 10
14116.04968699118
 20
4172.839090797057
 10
14116.04968699118
 20
4211.589090797056
 10
14003.54968699119
 20
4211.589090797054
 10
14003.54968699118
 20
4234.089090797055
 10
14116.04968699117
 20
4234.089090797055
 10
14116.04968699117
 20
4497.83909079706
 10
13753.54968699119
 20
4497.83909079706
 97
        0
 75
     0
 76
     1
 52
45.0
 41
30.0
 77
     0
 78
     3
 53
45.0
 43
-324.1711267640931
 44
0.0
 45
-134.7038418160373
 46
134.7038418160373
 79
     0
 53
45.0
 43
-341.0091069910977
 44
16.83798022700466
 45
-134.7038418160373
 46
134.7038418160373
 79
     0
 53
45.0
 43
-357.8470872181024
 44
33.67596045400933
 45
-134.7038418160373
 46
134.7038418160373
 79
     0
 47
8.278118590032091
 98
        1
 10
13842.76318407536
 20
4176.946207440516
  0
DIMENSION
  5
2348C
330
747D
100
AcDbEntity
  8
寸法
 48
50.0
100
AcDbDimension
  2
*D59
 10
13442.12938787052
 20
4497.83909079706
 30
0.0
 11
13442.12938787052
 21
4178.395020035357
 31
0.0
 70
   160
 71
     5
 42
300.0000000000002
  3
INABA_S50G詳細S20用
100
AcDbAlignedDimension
 13
13628.54968699119
 23
3747.83909079706
 33
0.0
 14
13481.49420334603
 24
4497.83909079706
 34
0.0
 50
90.0
100
AcDbRotatedDimension
1001
ACAD
1000
DSTYLE
1002
{
1070
    40
1040
1.0
1002
}
  0
DIMENSION
  5
23515
330
747D
100
AcDbEntity
  8
寸法
 48
50.0
100
AcDbDimension
  2
*D60
 10
10844.28634880716
 20
1314.226218645137
 30
0.0
 11
10744.28634880716
 21
1526.726218645139
 31
0.0
 70
    32
 71
     5
 42
170.0
  3
INABA_S50G詳細S20用
100
AcDbAlignedDimension
 13
10493.38854530347
 23
1739.226218645137
 33
0.0
 14
10553.88266470749
 24
1314.226218645137
 34
0.0
 50
90.0
100
AcDbRotatedDimension
1001
ACAD
1000
DSTYLE
1002
{
1070
    40
1040
1.0
1002
}
  0
DIMENSION
  5
23522
330
747D
100
AcDbEntity
  8
寸法
 48
50.0
100
AcDbDimension
  2
*D61
 10
13057.74858729652
 20
1739.226218645137
 30
0.0
 11
12957.74858729652
 21
1526.726218645139
 31
0.0
 70
    32
 71
     5
 42
169.9999999999998
  3
INABA_S50G詳細S20用
100
AcDbAlignedDimension
 13
13302.76614531826
 23
1314.226218645137
 33
0.0
 14
13243.55512520059
 24
1739.226218645137
 34
0.0
 50
90.0
100
AcDbRotatedDimension
1001
ACAD
1000
DSTYLE
1002
{
1070
    40
1040
1.0
1002
}
  0
MTEXT
  5
2352F
330
747D
100
AcDbEntity
  8
寸法
 62
     7
 48
50.0
100
AcDbMText
 10
10785.14758649919
 20
7472.903064721865
 30
0.0
 40
150.0
 41
0.0
 71
     4
 72
     1
  1
\A1;組立後現場打コンクリート
  7
STYLE1
 73
     1
 44
1.0
1001
ACAD
1000
MTEXTBEGIN
1070
    73
1070
     1
1070
    44
1040
1.0
1070
    74
1070
     0
1000
MTEXTEND
  0
MTEXT
  5
23530
102
{ACAD_REACTORS
330
23531
102
}
330
747D
100
AcDbEntity
  8
寸法
 62
     7
 48
50.0
100
AcDbMText
 10
10800.14758649919
 20
7707.914831897115
 30
0.0
 40
150.0
 41
0.0
 71
     4
 72
     1
  1
柱埋込用穴(深サ:300mm以上)
  7
STYLE1
 73
     1
 44
1.0
1001
ACAD
1000
MTEXTBEGIN
1070
    73
1070
     1
1070
    44
1040
1.0
1070
    74
1070
     0
1000
MTEXTEND
  0
LEADER
  5
23531
330
747D
100
AcDbEntity
  8
寸法
 48
50.0
100
AcDbLeader
  3
INABA_S50G
 71
     0
 73
     0
 74
     0
 75
     1
 40
165.0000000000001
 41
2347.440944881889
 76
     3
 10
10442.69289464151
 20
8462.041631494523
 30
0.0
 10
10650.14758649919
 20
7600.414831897115
 30
0.0
 10
10775.14758649919
 20
7600.414831897115
 30
0.0
340
23530
1001
ACAD
1000
DSTYLE
1002
{
1070
    40
1040
1.0
1002
}
  0
DIMENSION
  5
236CD
330
747D
100
AcDbEntity
  8
寸法
 48
50.0
100
AcDbDimension
  2
*D62
 10
12839.5
 20
11318.58135479056
 30
0.0
 11
11524.5
 21
11418.59611857009
 31
0.0
 70
    32
 71
     5
 42
2630.0
  3
INABA_S50G
100
AcDbAlignedDimension
 13
10209.5
 23
10399.99999999999
 33
0.0
 14
12839.5
 24
10399.99999999999
 34
0.0
100
AcDbRotatedDimension
1001
ACAD
1000
DSTYLE
1002
{
1070
    40
1040
1.0
1070
   341
1005
0
1002
}
  0
LINE
  5
236CE
330
747D
100
AcDbEntity
  8
細線
 48
50.0
100
AcDbLine
 10
11494.5
 20
10359.64642716668
 30
0.0
 11
11534.85357283331
 21
10399.99999999999
 31
0.0
  0
LINE
  5
236CF
330
747D
100
AcDbEntity
  8
細線
 48
50.0
100
AcDbLine
 10
11494.5
 20
10296.78463431919
 30
0.0
 11
11597.71536568079
 21
10399.99999999999
 31
0.0
  0
LINE
  5
236D0
330
747D
100
AcDbEntity
  8
細線
 48
50.0
100
AcDbLine
 10
11540.57715852827
 20
10279.99999999998
 30
0.0
 11
11660.57715852828
 21
10399.99999999999
 31
0.0
  0
LINE
  5
236D1
330
747D
100
AcDbEntity
  8
部品1
 48
50.0
100
AcDbLine
 10
11494.5
 20
10399.99999999999
 30
0.0
 11
11494.5
 21
10279.99999999998
 31
0.0
  0
LINE
  5
236D2
330
747D
100
AcDbEntity
  8
部品1
 48
50.0
100
AcDbLine
 10
11694.5
 20
10399.99999999999
 30
0.0
 11
11694.5
 21
10279.99999999998
 31
0.0
  0
LINE
  5
236D3
330
747D
100
AcDbEntity
  8
細線
 48
50.0
100
AcDbLine
 10
11666.30074422324
 20
10279.99999999998
 30
0.0
 11
11694.5
 21
10308.19925577674
 31
0.0
  0
LINE
  5
236D4
330
747D
100
AcDbEntity
  8
細線
 48
50.0
100
AcDbLine
 10
11603.43895137575
 20
10279.99999999998
 30
0.0
 11
11694.5
 21
10371.06104862424
 31
0.0
  0
LINE
  5
236D5
330
747D
100
AcDbEntity
  8
細線
 48
50.0
100
AcDbLine
 10
11494.5
 20
8699.971406250035
 30
0.0
 11
11564.52859374996
 21
8769.999999999996
 31
0.0
  0
LINE
  5
236D6
330
747D
100
AcDbEntity
  8
細線
 48
50.0
100
AcDbLine
 10
11494.5
 20
8637.109613402547
 30
0.0
 11
11627.39038659745
 21
8769.999999999996
 31
0.0
  0
LINE
  5
236D7
330
747D
100
AcDbEntity
  8
細線
 48
50.0
100
AcDbLine
 10
11520.25217944493
 20
8599.999999999997
 30
0.0
 11
11690.25217944493
 21
8769.999999999996
 31
0.0
  0
LINE
  5
236D8
330
747D
100
AcDbEntity
  8
細線
 48
50.0
100
AcDbLine
 10
11494.5
 20
8762.833199097515
 30
0.0
 11
11501.66680090248
 21
8769.999999999996
 31
0.0
  0
LINE
  5
236D9
330
747D
100
AcDbEntity
  8
部品1
 48
50.0
100
AcDbLine
 10
11494.5
 20
8769.999999999996
 30
0.0
 11
11494.5
 21
8599.999999999997
 31
0.0
  0
LINE
  5
236DA
330
747D
100
AcDbEntity
  8
細線
 48
50.0
100
AcDbLine
 10
11645.9757651399
 20
8599.999999999997
 30
0.0
 11
11694.5
 21
8648.524234860099
 31
0.0
  0
LINE
  5
236DB
330
747D
100
AcDbEntity
  8
細線
 48
50.0
100
AcDbLine
 10
11583.11397229242
 20
8599.999999999997
 30
0.0
 11
11694.5
 21
8711.386027707577
 31
0.0
  0
LINE
  5
236DC
330
747D
100
AcDbEntity
  8
部品1
 48
50.0
100
AcDbLine
 10
11694.5
 20
8769.999999999996
 30
0.0
 11
11694.5
 21
8599.999999999997
 31
0.0
  0
DIMENSION
  5
236DD
330
747D
100
AcDbEntity
  8
寸法
 48
50.0
100
AcDbDimension
  2
*D63
 10
10384.5
 20
7074.404554952453
 30
0.0
 11
11619.0
 21
7174.419318731979
 31
0.0
 70
    32
 71
     5
 42
2469.0
  3
INABA_S50G
100
AcDbAlignedDimension
 13
12853.5
 23
8131.4504228966
 33
0.0
 14
10384.5
 24
8051.288726084299
 34
0.0
100
AcDbRotatedDimension
1001
ACAD
1000
DSTYLE
1002
{
1070
    40
1040
1.0
1002
}
  0
LINE
  5
2375A
330
747D
100
AcDbEntity
  8
センター
 48
2.0
100
AcDbLine
 10
10259.50000000019
 20
10349.99999999999
 30
0.0
 11
10159.50000000019
 21
10349.99999999999
 31
0.0
  0
LINE
  5
2375B
330
747D
100
AcDbEntity
  8
センター
 48
2.0
100
AcDbLine
 10
10209.50000000019
 20
10399.99999999999
 30
0.0
 11
10209.50000000019
 21
10299.99999999999
 31
0.0
  0
DIMENSION
  5
23808
330
747D
100
AcDbEntity
  8
寸法
 48
50.0
100
AcDbDimension
  2
*D66
 10
12009.5
 20
9788.206426863661
 30
0.0
 11
12462.0
 21
9888.206426863661
 31
0.0
 70
    32
 71
     5
 42
905.0000000000018
  3
INABA_S50G
100
AcDbAlignedDimension
 13
12914.5
 23
9694.951329288841
 33
0.0
 14
12009.5
 24
9700.000000000002
 34
0.0
100
AcDbRotatedDimension
1001
ACAD
1000
DSTYLE
1002
{
1070
    40
1040
1.0
1070
   272
1070
     1
1070
   341
1005
0
1002
}
  0
DIMENSION
  5
23809
330
747D
100
AcDbEntity
  8
寸法
 48
50.0
100
AcDbDimension
  2
*D64
 10
11179.5
 20
9788.206426863661
 30
0.0
 11
11691.24726666848
 21
9788.206426863661
 31
0.0
 70
   160
 71
     5
 42
829.9999999999981
  3
INABA_S50G
100
AcDbAlignedDimension
 13
12009.5
 23
9700.000000000002
 33
0.0
 14
11179.5
 24
9700.000000000002
 34
0.0
100
AcDbRotatedDimension
1001
ACAD
1000
DSTYLE
1002
{
1070
    40
1040
1.0
1070
   341
1005
0
1002
}
  0
DIMENSION
  5
2380A
330
747D
100
AcDbEntity
  8
寸法
 48
50.0
100
AcDbDimension
  2
*D65
 10
10279.50000000018
 20
9788.206426863661
 30
0.0
 11
10729.50000000009
 21
9888.206426863661
 31
0.0
 70
    32
 71
     5
 42
899.9999999998198
  3
INABA_S50G
100
AcDbAlignedDimension
 13
11179.5
 23
9700.000000000002
 33
0.0
 14
10279.50000000018
 24
9700.000000000002
 34
0.0
100
AcDbRotatedDimension
1001
ACAD
1000
DSTYLE
1002
{
1070
    40
1040
1.0
1070
   341
1005
0
1002
}
  0
DIMENSION
  5
23F7E
330
747D
100
AcDbEntity
  8
寸法
 48
50.0
100
AcDbDimension
  2
*D67
 10
12914.5
 20
11618.74755453192
 30
0.0
 11
10279.5
 21
11718.76231831145
 31
0.0
 70
    32
 71
     5
 42
5269.999999999998
  3
INABA_S50G
100
AcDbAlignedDimension
 13
7644.5
 23
10399.99999999999
 33
0.0
 14
12914.5
 24
10399.99999999999
 34
0.0
100
AcDbRotatedDimension
1001
ACAD
1000
DSTYLE
1002
{
1070
    40
1040
1.0
1002
}
  0
LINE
  5
241BA
330
747D
100
AcDbEntity
  8
部品1
 48
50.0
100
AcDbLine
 10
12794.5
 20
8770.0
 30
0.0
 11
7764.499999999999
 21
8770.0
 31
0.0
  0
LINE
  5
241BC
330
747D
100
AcDbEntity
  8
部品1
 48
50.0
100
AcDbLine
 10
12794.5
 20
10279.99999999998
 30
0.0
 11
7764.499999999999
 21
10279.99999999998
 31
0.0
  0
LINE
  5
241BD
330
747D
100
AcDbEntity
  8
部品1
 48
50.0
100
AcDbLine
 10
12914.49999999999
 20
10399.99999999999
 30
0.0
 11
7644.5
 21
10399.99999999999
 31
0.0
  0
DIMENSION
  5
24C87
330
747D
100
AcDbEntity
  8
寸法
 48
50.0
100
AcDbDimension
  2
*D68
 10
11507.65573588008
 20
9499.999999999998
 30
0.0
 11
11407.65573588008
 21
9950.0
 31
0.0
 70
    32
 71
     5
 42
900.0
  3
INABA_S50G
100
AcDbAlignedDimension
 13
11279.5
 23
10400.0
 33
0.0
 14
11279.5
 24
9499.999999999998
 34
0.0
 50
90.0
100
AcDbRotatedDimension
1001
ACAD
1000
DSTYLE
1002
{
1070
    40
1040
1.0
1002
}
  0
LINE
  5
24C9D
330
747D
100
AcDbEntity
  8
部品1
 48
50.0
100
AcDbLine
 10
8449.500000000369
 20
9699.999999999995
 30
0.0
 11
8649.500000000371
 21
9699.999999999995
 31
0.0
  0
LINE
  5
24C9E
330
747D
100
AcDbEntity
  8
部品1
 48
50.0
100
AcDbLine
 10
8449.500000000369
 20
9299.999999999995
 30
0.0
 11
8649.500000000371
 21
9299.999999999995
 31
0.0
  0
LINE
  5
24C9F
330
747D
100
AcDbEntity
  8
部品1
 48
50.0
100
AcDbLine
 10
8449.500000000369
 20
9299.999999999998
 30
0.0
 11
8449.500000000369
 21
9699.999999999999
 31
0.0
  0
LINE
  5
24CA0
330
747D
100
AcDbEntity
  8
部品1
 48
50.0
100
AcDbLine
 10
9279.50000000037
 20
9699.999999999995
 30
0.0
 11
9479.500000000369
 21
9699.999999999995
 31
0.0
  0
LINE
  5
24CA1
330
747D
100
AcDbEntity
  8
部品1
 48
50.0
100
AcDbLine
 10
9279.50000000037
 20
9299.999999999995
 30
0.0
 11
9479.500000000369
 21
9299.999999999995
 31
0.0
  0
LINE
  5
24CA2
330
747D
100
AcDbEntity
  8
部品1
 48
50.0
100
AcDbLine
 10
8649.500000000371
 20
9299.999999999998
 30
0.0
 11
8649.500000000371
 21
9699.999999999999
 31
0.0
  0
LINE
  5
24CA3
330
747D
100
AcDbEntity
  8
部品1
 48
50.0
100
AcDbLine
 10
9279.50000000037
 20
9299.999999999998
 30
0.0
 11
9279.50000000037
 21
9699.999999999999
 31
0.0
  0
LINE
  5
24CA4
330
747D
100
AcDbEntity
  8
部品1
 48
50.0
100
AcDbLine
 10
9479.500000000369
 20
9299.999999999998
 30
0.0
 11
9479.500000000369
 21
9699.999999999999
 31
0.0
  0
LINE
  5
24CA7
330
747D
100
AcDbEntity
  8
部品1
 48
50.0
100
AcDbLine
 10
10379.50000000018
 20
9299.999999999998
 30
0.0
 11
10379.50000000018
 21
9699.999999999999
 31
0.0
  0
LINE
  5
24CA8
330
747D
100
AcDbEntity
  8
部品1
 48
50.0
100
AcDbLine
 10
10179.50000000018
 20
9299.999999999998
 30
0.0
 11
10179.50000000018
 21
9699.999999999999
 31
0.0
  0
LINE
  5
24CA9
330
747D
100
AcDbEntity
  8
部品1
 48
50.0
100
AcDbLine
 10
10179.50000000018
 20
9299.999999999995
 30
0.0
 11
10379.50000000018
 21
9299.999999999995
 31
0.0
  0
LINE
  5
24CAA
330
747D
100
AcDbEntity
  8
部品1
 48
50.0
100
AcDbLine
 10
10179.50000000018
 20
9699.999999999995
 30
0.0
 11
10379.50000000018
 21
9699.999999999995
 31
0.0
  0
LINE
  5
24CB7
330
747D
100
AcDbEntity
  8
部品1
 48
50.0
100
AcDbLine
 10
11079.5
 20
9299.999999999998
 30
0.0
 11
11079.5
 21
9699.999999999999
 31
0.0
  0
LINE
  5
24CB8
330
747D
100
AcDbEntity
  8
部品1
 48
50.0
100
AcDbLine
 10
11279.5
 20
9299.999999999998
 30
0.0
 11
11279.5
 21
9699.999999999999
 31
0.0
  0
LINE
  5
24CB9
330
747D
100
AcDbEntity
  8
部品1
 48
50.0
100
AcDbLine
 10
11279.5
 20
9299.999999999995
 30
0.0
 11
11079.5
 21
9299.999999999995
 31
0.0
  0
LINE
  5
24CBA
330
747D
100
AcDbEntity
  8
部品1
 48
50.0
100
AcDbLine
 10
11279.5
 20
9699.999999999995
 30
0.0
 11
11079.5
 21
9699.999999999995
 31
0.0
  0
LINE
  5
24CBB
330
747D
100
AcDbEntity
  8
部品1
 48
50.0
100
AcDbLine
 10
12109.5
 20
9299.999999999998
 30
0.0
 11
12109.5
 21
9699.999999999999
 31
0.0
  0
LINE
  5
24CBC
330
747D
100
AcDbEntity
  8
部品1
 48
50.0
100
AcDbLine
 10
11909.5
 20
9299.999999999998
 30
0.0
 11
11909.5
 21
9699.999999999999
 31
0.0
  0
LINE
  5
24CBD
330
747D
100
AcDbEntity
  8
部品1
 48
50.0
100
AcDbLine
 10
12109.5
 20
9299.999999999995
 30
0.0
 11
11909.5
 21
9299.999999999995
 31
0.0
  0
LINE
  5
24CBE
330
747D
100
AcDbEntity
  8
部品1
 48
50.0
100
AcDbLine
 10
12109.5
 20
9699.999999999995
 30
0.0
 11
11909.5
 21
9699.999999999995
 31
0.0
  0
LEADER
  5
2521C
330
747D
100
AcDbEntity
  8
寸法
 48
50.0
100
AcDbLeader
  3
INABA_S50G
 71
     0
 73
     0
 74
     0
 75
     1
 40
165.0
 41
2002.44094488189
 76
     3
 10
10209.50000000019
 20
10350.99999999999
 30
0.0
 10
10537.51778514234
 20
10922.85396198018
 30
0.0
 10
10662.51778514234
 20
10922.85396198018
 30
0.0
340
2521D
1001
ACAD
1000
DSTYLE
1002
{
1070
   341
1005
11750
1070
    40
1040
1.0
1070
   343
1005
11750
1070
   344
1005
11750
1002
}
  0
MTEXT
  5
2521D
102
{ACAD_REACTORS
330
2521C
102
}
330
747D
100
AcDbEntity
  8
部品1
 62
     7
 48
50.0
100
AcDbMText
 10
10687.51778514234
 20
11030.35396198018
 30
0.0
 40
150.0
 41
0.0
 71
     4
 72
     1
  1
アンカーボルト芯(3ヶ所)
  7
STYLE1
 73
     1
 44
1.0
1001
ACAD
1000
MTEXTBEGIN
1070
    73
1070
     1
1070
    44
1040
1.0
1070
    74
1070
     0
1000
MTEXTEND
  0
DIMENSION
  5
25498
330
747D
100
AcDbEntity
  8
寸法
 48
50.0
100
AcDbDimension
  2
*D69
 10
7847.930745624229
 20
8187.821247801879
 30
0.0
 11
10419.76535132032
 21
9182.351269429112
 31
0.0
 70
    33
 71
     5
 42
5511.232257853042
  3
INABA_S50G
100
AcDbAlignedDimension
 13
12914.49999999999
 23
10399.99999999999
 33
0.0
 14
7705.5
 24
8599.999999999997
 34
0.0
1001
ACAD
1000
DSTYLE
1002
{
1070
    40
1040
1.0
1002
}
  0
ENDSEC
  0
SECTION
  2
OBJECTS
  0
DICTIONARY
  5
7471
330
0
100
AcDbDictionary
281
     1
  3
ACAD_COLOR
350
1C067
  3
ACAD_GROUP
350
7472
  3
ACAD_LAYOUT
350
1C068
  3
ACAD_MATERIAL
350
1C066
  3
ACAD_MLINESTYLE
350
7473
  3
ACAD_PLOTSETTINGS
350
1C069
  3
ACAD_PLOTSTYLENAME
350
1C064
  3
ACDBHEADERROUNDTRIPXREC
350
254E7
  3
ACDBVARIABLEDICTIONARY
350
141CA
  3
CONTENTDICTIONARY
350
E71C
  3
DRAWINGVARIABLESDICT
350
F3B9
  0
DICTIONARY
  5
254D2
330
7467
100
AcDbDictionary
280
     1
281
     1
  3
ACAD_LAYERSTATES
360
254D3
  0
DICTIONARY
  5
1C067
102
{ACAD_REACTORS
330
7471
102
}
330
7471
100
AcDbDictionary
281
     1
  0
DICTIONARY
  5
7472
102
{ACAD_REACTORS
330
7471
102
}
330
7471
100
AcDbDictionary
281
     1
  3
*A1
350
1F6D8
  3
*A2
350
20102
  3
*A3
350
20103
  3
*A4
350
209D6
  0
DICTIONARY
  5
1C068
102
{ACAD_REACTORS
330
7471
102
}
330
7471
100
AcDbDictionary
281
     1
  3
Model
350
1C06A
  3
レイアウト1
350
1C06B
  0
DICTIONARY
  5
1C066
102
{ACAD_REACTORS
330
7471
102
}
330
7471
100
AcDbDictionary
281
     1
  0
DICTIONARY
  5
7473
102
{ACAD_REACTORS
330
7471
102
}
330
7471
100
AcDbDictionary
281
     1
  3
STANDARD
350
7480
  0
DICTIONARY
  5
1C069
102
{ACAD_REACTORS
330
7471
102
}
330
7471
100
AcDbDictionary
281
     1
  0
ACDBDICTIONARYWDFLT
  5
1C064
102
{ACAD_REACTORS
330
7471
102
}
330
7471
100
AcDbDictionary
281
     1
  3
Normal
350
1C065
100
AcDbDictionaryWithDefault
340
1C065
  0
DICTIONARY
  5
254E7
102
{ACAD_REACTORS
330
7471
102
}
330
7471
100
AcDbDictionary
281
     1
  3
COLORDICT
350
254E9
  3
MATERIALDICT
350
254E8
  0
DICTIONARY
  5
141CA
102
{ACAD_REACTORS
330
7471
102
}
330
7471
100
AcDbDictionary
281
     1
  3
DIMASSOC
350
254E4
  3
PROJECTNAME
350
254E5
  3
SORTENTS
350
141CB
  0
DICTIONARY
  5
E71C
102
{ACAD_REACTORS
330
7471
102
}
330
7471
100
AcDbDictionary
281
     1
  0
DICTIONARY
  5
F3B9
102
{ACAD_REACTORS
330
7471
102
}
330
7471
100
AcDbDictionary
281
     1
1001
DRAWINGVARIABLESXDATA
1000
POLARMODE
1000
1
  0
DICTIONARY
  5
254D3
102
{ACAD_REACTORS
330
254D2
102
}
330
254D2
100
AcDbDictionary
281
     1
  0
GROUP
  5
1F6D8
102
{ACAD_REACTORS
330
7472
102
}
330
7472
100
AcDbGroup
300

 70
     1
 71
     1
  0
GROUP
  5
20102
102
{ACAD_REACTORS
330
7472
102
}
330
7472
100
AcDbGroup
300

 70
     1
 71
     1
  0
GROUP
  5
20103
102
{ACAD_REACTORS
330
7472
102
}
330
7472
100
AcDbGroup
300

 70
     1
 71
     1
  0
GROUP
  5
209D6
102
{ACAD_REACTORS
330
7472
102
}
330
7472
100
AcDbGroup
300

 70
     1
 71
     1
  0
LAYOUT
  5
1C06A
102
{ACAD_XDICTIONARY
360
254EA
102
}
102
{ACAD_REACTORS
330
1C068
102
}
330
1C068
100
AcDbPlotSettings
  1

  2
クセロPDF
  4
A3
  6

 40
3.174999999999999
 41
3.174999999999999
 42
3.174987999999999
 43
3.174987999999999
 44
419.946655
 45
296.925995
 46
0.0
 47
0.0
 48
0.0
 49
0.0
140
0.0
141
0.0
142
1.0
143
50.39051776619688
 70
 11952
 72
     1
 73
     0
 74
     2
  7
inaba.ctb
 75
     0
147
0.019845003471483
148
161.6812653104498
149
194.5236301608711
100
AcDbLayout
  1
Model
 70
     1
 71
     0
 10
0.0
 20
0.0
 11
12.0
 21
9.0
 12
0.0
 22
0.0
 32
0.0
 14
0.0
 24
0.0
 34
0.0
 15
0.0
 25
0.0
 35
0.0
146
0.0
 13
0.0
 23
0.0
 33
0.0
 16
1.0
 26
0.0
 36
0.0
 17
0.0
 27
1.0
 37
0.0
 76
     0
330
747D
  0
LAYOUT
  5
1C06B
102
{ACAD_XDICTIONARY
360
254EC
102
}
102
{ACAD_REACTORS
330
1C068
102
}
330
1C068
100
AcDbPlotSettings
  1

  2
EPSON LP-7000C
  4

  6

 40
0.0
 41
0.0
 42
0.0
 43
0.0
 44
0.0
 45
0.0
 46
0.0
 47
0.0
 48
0.0
 49
0.0
140
0.0
141
0.0
142
1.0
143
1.0
 70
   688
 72
     0
 73
     0
 74
     5
  7
inaba.ctb
 75
    16
147
1.0
148
0.0
149
0.0
100
AcDbLayout
  1
レイアウト1
 70
     0
 71
     1
 10
0.0
 20
0.0
 11
420.0
 21
297.0
 12
0.0
 22
0.0
 32
0.0
 14
1.000000000000000E+20
 24
1.000000000000000E+20
 34
1.000000000000000E+20
 15
-1.000000000000000E+20
 25
-1.000000000000000E+20
 35
-1.000000000000000E+20
146
0.0
 13
0.0
 23
0.0
 33
0.0
 16
1.0
 26
0.0
 36
0.0
 17
0.0
 27
1.0
 37
0.0
 76
     0
330
747A
  0
MLINESTYLE
  5
7480
102
{ACAD_REACTORS
330
7473
102
}
330
7473
100
AcDbMlineStyle
  2
STANDARD
 70
     0
  3

 62
     0
 51
90.0
 52
90.0
 71
     2
 49
0.5
 62
   256
  6
BYLAYER
 49
-0.5
 62
   256
  6
BYLAYER
  0
ACDBPLACEHOLDER
  5
1C065
102
{ACAD_REACTORS
330
1C064
102
}
330
1C064
  0
XRECORD
  5
254E9
102
{ACAD_REACTORS
330
254E7
102
}
330
254E7
100
AcDbXrecord
280
     1
340
1C067
  0
XRECORD
  5
254E8
102
{ACAD_REACTORS
330
254E7
102
}
330
254E7
100
AcDbXrecord
280
     1
340
1C066
  0
DICTIONARYVAR
  5
254E4
102
{ACAD_REACTORS
330
141CA
102
}
330
141CA
100
DictionaryVariables
280
     0
  1
1
  0
DICTIONARYVAR
  5
254E5
102
{ACAD_REACTORS
330
141CA
102
}
330
141CA
100
DictionaryVariables
280
     0
  1

  0
DICTIONARYVAR
  5
141CB
102
{ACAD_REACTORS
330
141CA
102
}
330
141CA
100
DictionaryVariables
280
     0
  1
96
  0
DICTIONARY
  5
254EA
330
1C06A
100
AcDbDictionary
280
     1
281
     1
  3
ACAD_XREC_ROUNDTRIP
360
254EB
  0
DICTIONARY
  5
254EC
330
1C06B
100
AcDbDictionary
280
     1
281
     1
  3
ACAD_XREC_ROUNDTRIP
360
254ED
  0
XRECORD
  5
254EB
102
{ACAD_REACTORS
330
254EA
102
}
330
254EA
100
AcDbXrecord
280
     1
102
SHADEPLOT
 70
     1
102
SHADEPLOTRESLEVEL
 70
     2
102
SHADEPLOTCUSTOMDPI
 70
   300
  0
XRECORD
  5
254ED
102
{ACAD_REACTORS
330
254EC
102
}
330
254EC
100
AcDbXrecord
280
     1
102
SHADEPLOT
 70
     0
102
SHADEPLOTRESLEVEL
 70
     2
102
SHADEPLOTCUSTOMDPI
 70
   300
  0
ENDSEC
  0
EOF
