  0
SECTION
  2
HEADER
  9
$ACADVER
  1
AC1015
  9
$ACADMAINTVER
 70
    20
  9
$DWGCODEPAGE
  3
ANSI_932
  9
$INSBASE
 10
0.0
 20
0.0
 30
0.0
  9
$EXTMIN
 10
174.9999999999993
 20
-0.0000075012905659
 30
0.0
  9
$EXTMAX
 10
20384.0
 20
14262.0
 30
0.0
  9
$LIMMIN
 10
-161.681260270685
 20
-194.5236376621615
  9
$LIMMAX
 10
20542.28442125524
 20
14447.75180550189
  9
$ORTHOMODE
 70
     0
  9
$REGENMODE
 70
     1
  9
$FILLMODE
 70
     1
  9
$QTEXTMODE
 70
     0
  9
$MIRRTEXT
 70
     1
  9
$LTSCALE
 40
20.0
  9
$ATTMODE
 70
     1
  9
$TEXTSIZE
 40
150.0
  9
$TRACEWID
 40
1.0
  9
$TEXTSTYLE
  7
STYLE1
  9
$CLAYER
  8
仕様書枠
  9
$CELTYPE
  6
BYLAYER
  9
$CECOLOR
 62
   256
  9
$CELTSCALE
 40
50.0
  9
$DISPSILH
 70
     0
  9
$DIMSCALE
 40
0.0
  9
$DIMASZ
 40
125.0
  9
$DIMEXO
 40
25.0
  9
$DIMDLI
 40
7.0
  9
$DIMRND
 40
0.0
  9
$DIMDLE
 40
0.0
  9
$DIMEXE
 40
75.0
  9
$DIMTP
 40
0.0
  9
$DIMTM
 40
0.0
  9
$DIMTXT
 40
150.0
  9
$DIMCEN
 40
0.0
  9
$DIMTSZ
 40
0.0
  9
$DIMTOL
 70
     0
  9
$DIMLIM
 70
     0
  9
$DIMTIH
 70
     0
  9
$DIMTOH
 70
     0
  9
$DIMSE1
 70
     0
  9
$DIMSE2
 70
     0
  9
$DIMTAD
 70
     3
  9
$DIMZIN
 70
     8
  9
$DIMBLK
  1

  9
$DIMASO
 70
     1
  9
$DIMSHO
 70
     1
  9
$DIMPOST
  1

  9
$DIMAPOST
  1

  9
$DIMALT
 70
     0
  9
$DIMALTD
 70
     2
  9
$DIMALTF
 40
0.0394
  9
$DIMLFAC
 40
1.0
  9
$DIMTOFL
 70
     1
  9
$DIMTVP
 40
0.0
  9
$DIMTIX
 70
     1
  9
$DIMSOXD
 70
     0
  9
$DIMSAH
 70
     1
  9
$DIMBLK1
  1
DOTSMALL
  9
$DIMBLK2
  1
DOTSMALL
  9
$DIMSTYLE
  2
INABA_S50G
  9
$DIMCLRD
 70
     0
  9
$DIMCLRE
 70
     0
  9
$DIMCLRT
 70
     7
  9
$DIMTFAC
 40
1.0
  9
$DIMGAP
 40
25.0
  9
$DIMJUST
 70
     0
  9
$DIMSD1
 70
     0
  9
$DIMSD2
 70
     0
  9
$DIMTOLJ
 70
     1
  9
$DIMTZIN
 70
     0
  9
$DIMALTZ
 70
     0
  9
$DIMALTTZ
 70
     0
  9
$DIMUPT
 70
     0
  9
$DIMDEC
 70
     1
  9
$DIMTDEC
 70
     4
  9
$DIMALTU
 70
     2
  9
$DIMALTTD
 70
     2
  9
$DIMTXSTY
  7
STYLE1
  9
$DIMAUNIT
 70
     0
  9
$DIMADEC
 70
     0
  9
$DIMALTRND
 40
0.0
  9
$DIMAZIN
 70
     0
  9
$DIMDSEP
 70
    46
  9
$DIMATFIT
 70
     3
  9
$DIMFRAC
 70
     0
  9
$DIMLDRBLK
  1
DOTSMALL
  9
$DIMLUNIT
 70
     2
  9
$DIMLWD
 70
    -2
  9
$DIMLWE
 70
    -2
  9
$DIMTMOVE
 70
     0
  9
$LUNITS
 70
     2
  9
$LUPREC
 70
     1
  9
$SKETCHINC
 40
1.0
  9
$FILLETRAD
 40
0.0
  9
$AUNITS
 70
     0
  9
$AUPREC
 70
     0
  9
$MENU
  1
acad
  9
$ELEVATION
 40
0.0
  9
$PELEVATION
 40
0.0
  9
$THICKNESS
 40
0.0
  9
$LIMCHECK
 70
     0
  9
$CHAMFERA
 40
0.0
  9
$CHAMFERB
 40
0.0
  9
$CHAMFERC
 40
0.0
  9
$CHAMFERD
 40
0.0
  9
$SKPOLY
 70
     0
  9
$TDCREATE
 40
2451376.453362153
  9
$TDUCREATE
 40
2451376.078362153
  9
$TDUPDATE
 40
2455569.634650243
  9
$TDUUPDATE
 40
2455569.259650243
  9
$TDINDWG
 40
2.0646481481
  9
$TDUSRTIMER
 40
2.0646481481
  9
$USRTIMER
 70
     1
  9
$ANGBASE
 50
0.0
  9
$ANGDIR
 70
     0
  9
$PDMODE
 70
     3
  9
$PDSIZE
 40
2.0
  9
$PLINEWID
 40
0.0
  9
$SPLFRAME
 70
     0
  9
$SPLINETYPE
 70
     6
  9
$SPLINESEGS
 70
     8
  9
$HANDSEED
  5
26631
  9
$SURFTAB1
 70
     6
  9
$SURFTAB2
 70
     6
  9
$SURFTYPE
 70
     6
  9
$SURFU
 70
     6
  9
$SURFV
 70
     6
  9
$UCSBASE
  2

  9
$UCSNAME
  2

  9
$UCSORG
 10
0.0
 20
0.0
 30
0.0
  9
$UCSXDIR
 10
1.0
 20
0.0
 30
0.0
  9
$UCSYDIR
 10
0.0
 20
1.0
 30
0.0
  9
$UCSORTHOREF
  2

  9
$UCSORTHOVIEW
 70
     0
  9
$UCSORGTOP
 10
0.0
 20
0.0
 30
0.0
  9
$UCSORGBOTTOM
 10
0.0
 20
0.0
 30
0.0
  9
$UCSORGLEFT
 10
0.0
 20
0.0
 30
0.0
  9
$UCSORGRIGHT
 10
0.0
 20
0.0
 30
0.0
  9
$UCSORGFRONT
 10
0.0
 20
0.0
 30
0.0
  9
$UCSORGBACK
 10
0.0
 20
0.0
 30
0.0
  9
$PUCSBASE
  2

  9
$PUCSNAME
  2

  9
$PUCSORG
 10
0.0
 20
0.0
 30
0.0
  9
$PUCSXDIR
 10
1.0
 20
0.0
 30
0.0
  9
$PUCSYDIR
 10
0.0
 20
1.0
 30
0.0
  9
$PUCSORTHOREF
  2

  9
$PUCSORTHOVIEW
 70
     0
  9
$PUCSORGTOP
 10
0.0
 20
0.0
 30
0.0
  9
$PUCSORGBOTTOM
 10
0.0
 20
0.0
 30
0.0
  9
$PUCSORGLEFT
 10
0.0
 20
0.0
 30
0.0
  9
$PUCSORGRIGHT
 10
0.0
 20
0.0
 30
0.0
  9
$PUCSORGFRONT
 10
0.0
 20
0.0
 30
0.0
  9
$PUCSORGBACK
 10
0.0
 20
0.0
 30
0.0
  9
$USERI1
 70
     0
  9
$USERI2
 70
     0
  9
$USERI3
 70
     0
  9
$USERI4
 70
     0
  9
$USERI5
 70
     0
  9
$USERR1
 40
0.0
  9
$USERR2
 40
0.0
  9
$USERR3
 40
0.0
  9
$USERR4
 40
0.0
  9
$USERR5
 40
0.0
  9
$WORLDVIEW
 70
     1
  9
$SHADEDGE
 70
     3
  9
$SHADEDIF
 70
    70
  9
$TILEMODE
 70
     1
  9
$MAXACTVP
 70
    16
  9
$PINSBASE
 10
0.0
 20
0.0
 30
0.0
  9
$PLIMCHECK
 70
     0
  9
$PEXTMIN
 10
1.000000000000000E+20
 20
1.000000000000000E+20
 30
1.000000000000000E+20
  9
$PEXTMAX
 10
-1.000000000000000E+20
 20
-1.000000000000000E+20
 30
-1.000000000000000E+20
  9
$PLIMMIN
 10
0.0
 20
0.0
  9
$PLIMMAX
 10
420.0
 20
297.0
  9
$UNITMODE
 70
     0
  9
$VISRETAIN
 70
     0
  9
$PLINEGEN
 70
     0
  9
$PSLTSCALE
 70
     0
  9
$TREEDEPTH
 70
  3020
  9
$CMLSTYLE
  2
STANDARD
  9
$CMLJUST
 70
     0
  9
$CMLSCALE
 40
1.0
  9
$PROXYGRAPHICS
 70
     1
  9
$MEASUREMENT
 70
     1
  9
$CELWEIGHT
370
    -1
  9
$ENDCAPS
280
     0
  9
$JOINSTYLE
280
     0
  9
$LWDISPLAY
290
     0
  9
$INSUNITS
 70
     0
  9
$HYPERLINKBASE
  1

  9
$STYLESHEET
  1
inaba.ctb
  9
$XEDIT
290
     1
  9
$CEPSNTYPE
380
     0
  9
$PSTYLEMODE
290
     1
  9
$FINGERPRINTGUID
  2
{5A87F933-F3E7-4E5A-B693-1B108A8B4DAE}
  9
$VERSIONGUID
  2
{E4AD1B79-6CC6-4DD6-B432-224D12F4AC29}
  9
$EXTNAMES
290
     1
  9
$PSVPSCALE
 40
0.0
  9
$OLESTARTUP
290
     0
  0
ENDSEC
  0
SECTION
  2
CLASSES
  0
CLASS
  1
DICTIONARYVAR
  2
AcDbDictionaryVar
  3
ObjectDBX Classes
 90
        0
280
     0
281
     0
  0
CLASS
  1
ACDBDICTIONARYWDFLT
  2
AcDbDictionaryWithDefault
  3
ObjectDBX Classes
 90
        0
280
     0
281
     0
  0
CLASS
  1
ACDBPLACEHOLDER
  2
AcDbPlaceHolder
  3
ObjectDBX Classes
 90
        0
280
     0
281
     0
  0
CLASS
  1
LAYOUT
  2
AcDbLayout
  3
ObjectDBX Classes
 90
        0
280
     0
281
     0
  0
ENDSEC
  0
SECTION
  2
TABLES
  0
TABLE
  2
VPORT
  5
746D
330
0
100
AcDbSymbolTable
 70
     2
  0
VPORT
  5
26629
330
746D
100
AcDbSymbolTableRecord
100
AcDbViewportTableRecord
  2
*Active
 70
     0
 10
0.0
 20
0.0
 11
1.0
 21
1.0
 12
11009.07850770919
 22
7130.995590026313
 13
0.0
 23
0.0
 14
500.0
 24
500.0
 15
500.0
 25
500.0
 16
0.0
 26
0.0
 36
1.0
 17
0.0
 27
0.0
 37
0.0
 40
14368.41831793669
 41
1.627450980392156
 42
50.0
 43
0.0
 44
0.0
 50
0.0
 51
0.0
 71
     0
 72
     0
 73
     1
 74
     0
 75
     0
 76
     0
 77
     0
 78
     0
281
     0
 65
     1
110
0.0
120
0.0
130
0.0
111
1.0
121
0.0
131
0.0
112
0.0
122
1.0
132
0.0
 79
     0
146
0.0
  0
ENDTAB
  0
TABLE
  2
LTYPE
  5
746A
330
0
100
AcDbSymbolTable
 70
     4
  0
LTYPE
  5
7477
330
746A
100
AcDbSymbolTableRecord
100
AcDbLinetypeTableRecord
  2
BYBLOCK
 70
     0
  3

 72
    65
 73
     0
 40
0.0
  0
LTYPE
  5
7478
330
746A
100
AcDbSymbolTableRecord
100
AcDbLinetypeTableRecord
  2
BYLAYER
 70
     0
  3

 72
    65
 73
     0
 40
0.0
  0
LTYPE
  5
7479
330
746A
100
AcDbSymbolTableRecord
100
AcDbLinetypeTableRecord
  2
CONTINUOUS
 70
     0
  3
Solid line
 72
    65
 73
     0
 40
0.0
  0
LTYPE
  5
7816
330
746A
100
AcDbSymbolTableRecord
100
AcDbLinetypeTableRecord
  2
CENTER
 70
     0
  3
____ _ ____ _ ____ _ ____ _ ____ _ ____ _ ____ 
 72
    65
 73
     4
 40
2.0
 49
1.25
 74
     0
 49
-0.25
 74
     0
 49
0.25
 74
     0
 49
-0.25
 74
     0
  0
LTYPE
  5
781A
330
746A
100
AcDbSymbolTableRecord
100
AcDbLinetypeTableRecord
  2
HIDDEN
 70
     0
  3
__ __ __ __ __ __ __ __ __ __ __ __ __ __ __ __
 72
    65
 73
     2
 40
0.375
 49
0.25
 74
     0
 49
-0.125
 74
     0
  0
LTYPE
  5
781B
330
746A
100
AcDbSymbolTableRecord
100
AcDbLinetypeTableRecord
  2
PHANTOM
 70
     0
  3
______  __  __  ______  __  __  ______  __  __ 
 72
    65
 73
     6
 40
2.5
 49
1.25
 74
     0
 49
-0.25
 74
     0
 49
0.25
 74
     0
 49
-0.25
 74
     0
 49
0.25
 74
     0
 49
-0.25
 74
     0
  0
ENDTAB
  0
TABLE
  2
LAYER
  5
7467
102
{ACAD_XDICTIONARY
360
24BEB
102
}
330
0
100
AcDbSymbolTable
 70
    12
  0
LAYER
  5
7474
330
7467
100
AcDbSymbolTableRecord
100
AcDbLayerTableRecord
  2
0
 70
     0
 62
     7
  6
CONTINUOUS
370
    -3
390
1C065
  0
LAYER
  5
DEB2
330
7467
100
AcDbSymbolTableRecord
100
AcDbLayerTableRecord
  2
センター
 70
     0
 62
     3
  6
CENTER
370
    -3
390
1C065
  0
LAYER
  5
DEB3
330
7467
100
AcDbSymbolTableRecord
100
AcDbLayerTableRecord
  2
寸法
 70
     0
 62
     4
  6
CONTINUOUS
370
    -3
390
1C065
  0
LAYER
  5
DEB4
330
7467
100
AcDbSymbolTableRecord
100
AcDbLayerTableRecord
  2
部品1
 70
     0
 62
     7
  6
CONTINUOUS
370
    -3
390
1C065
  0
LAYER
  5
DEB5
330
7467
100
AcDbSymbolTableRecord
100
AcDbLayerTableRecord
  2
補助
 70
     0
 62
    -1
  6
CONTINUOUS
370
    -3
390
1C065
  0
LAYER
  5
DEB6
330
7467
100
AcDbSymbolTableRecord
100
AcDbLayerTableRecord
  2
文字
 70
     0
 62
     7
  6
CONTINUOUS
370
    -3
390
1C065
  0
LAYER
  5
F255
330
7467
100
AcDbSymbolTableRecord
100
AcDbLayerTableRecord
  2
DEFPOINTS
 70
     0
 62
     7
  6
CONTINUOUS
290
     0
370
    -3
390
1C065
  0
LAYER
  5
10B54
330
7467
100
AcDbSymbolTableRecord
100
AcDbLayerTableRecord
  2
仕様書枠
 70
     0
 62
   230
  6
CONTINUOUS
370
    -3
390
1C065
  0
LAYER
  5
1173F
330
7467
100
AcDbSymbolTableRecord
100
AcDbLayerTableRecord
  2
細線
 70
     0
 62
     5
  6
CONTINUOUS
370
    -3
390
1C065
  0
LAYER
  5
1180C
330
7467
100
AcDbSymbolTableRecord
100
AcDbLayerTableRecord
  2
想像線
 70
     0
 62
     6
  6
PHANTOM
370
    -3
390
1C065
  0
LAYER
  5
1D520
330
7467
100
AcDbSymbolTableRecord
100
AcDbLayerTableRecord
  2
点線
 70
     0
 62
     2
  6
HIDDEN
370
    -3
390
1C065
  0
LAYER
  5
23EBF
330
7467
100
AcDbSymbolTableRecord
100
AcDbLayerTableRecord
  2
Ｇ．Ｌ
 70
     0
 62
    30
  6
CONTINUOUS
370
    -3
390
1C065
  0
ENDTAB
  0
TABLE
  2
STYLE
  5
7468
330
0
100
AcDbSymbolTable
 70
     4
  0
STYLE
  5
7475
330
7468
100
AcDbSymbolTableRecord
100
AcDbTextStyleTableRecord
  2
STANDARD
 70
     0
 40
0.0
 41
1.0
 50
0.0
 71
     0
 42
4.0
  3
txt
  4
C:\AutoCAD LT\bigfont.shx
  0
STYLE
  5
763C
330
7468
100
AcDbSymbolTableRecord
100
AcDbTextStyleTableRecord
  2
MSMINCHO
 70
     0
 40
0.0
 41
1.0
 50
0.0
 71
     0
 42
1.199999999999999
  3
C:\AutoCAD LT\msminch2.TTF
  4

  0
STYLE
  5
F706
330
7468
100
AcDbSymbolTableRecord
100
AcDbTextStyleTableRecord
  2
STYLE1
 70
     0
 40
0.0
 41
1.0
 50
0.0
 71
     0
 42
150.0
  3
isocp.shx
  4
bigfont.shx
  0
STYLE
  5
103BF
330
7468
100
AcDbSymbolTableRecord
100
AcDbTextStyleTableRecord
  2
STYLE2
 70
     0
 40
0.0
 41
1.0
 50
0.0
 71
     0
 42
100.0
  3
MS PGothic.ttf
  4

1001
ACAD
1000
MS PGothic
1071
    32818
  0
ENDTAB
  0
TABLE
  2
VIEW
  5
746B
330
0
100
AcDbSymbolTable
 70
     0
  0
ENDTAB
  0
TABLE
  2
UCS
  5
746C
330
0
100
AcDbSymbolTable
 70
     0
  0
ENDTAB
  0
TABLE
  2
APPID
  5
746E
330
0
100
AcDbSymbolTable
 70
     6
  0
APPID
  5
7476
330
746E
100
AcDbSymbolTableRecord
100
AcDbRegAppTableRecord
  2
ACAD
 70
     0
  0
APPID
  5
DEA9
330
746E
100
AcDbSymbolTableRecord
100
AcDbRegAppTableRecord
  2
CONTENTBLOCKICON
 70
     0
  0
APPID
  5
DEAA
330
746E
100
AcDbSymbolTableRecord
100
AcDbRegAppTableRecord
  2
CONTENTBLOCKDESCRIPTION
 70
     0
  0
APPID
  5
E71D
330
746E
100
AcDbSymbolTableRecord
100
AcDbRegAppTableRecord
  2
CONTENTTABDATA
 70
     0
  0
APPID
  5
E71E
330
746E
100
AcDbSymbolTableRecord
100
AcDbRegAppTableRecord
  2
CONTENTCURRENTTAB
 70
     0
  0
APPID
  5
F3BA
330
746E
100
AcDbSymbolTableRecord
100
AcDbRegAppTableRecord
  2
DRAWINGVARIABLESXDATA
 70
     0
  0
ENDTAB
  0
TABLE
  2
DIMSTYLE
  5
746F
330
0
100
AcDbSymbolTable
 70
     1
100
AcDbDimStyleTable
 71
     1
340
F71F
  0
DIMSTYLE
105
F71F
102
{ACAD_REACTORS
330
24172
330
24183
330
24184
330
24185
330
24186
330
24189
330
241C8
330
24222
330
24225
330
2422B
330
2424F
330
24265
330
24266
330
24268
330
242A1
330
242A4
330
242CE
330
242D5
330
242F6
330
24367
330
243B2
102
}
330
746F
100
AcDbSymbolTableRecord
100
AcDbDimStyleTableRecord
  2
INABA_S50G
 70
     0
 40
0.0
 41
125.0
 42
25.0
 43
7.0
 44
75.0
 73
     0
 74
     0
 77
     3
 78
     8
140
150.0
141
0.0
143
0.0394
147
25.0
172
     1
173
     1
174
     1
178
     7
271
     1
340
F706
341
F770
343
F770
344
F770
  0
ENDTAB
  0
TABLE
  2
BLOCK_RECORD
  5
7466
330
0
100
AcDbSymbolTable
 70
    24
  0
BLOCK_RECORD
  5
747D
330
7466
100
AcDbSymbolTableRecord
100
AcDbBlockTableRecord
  2
*MODEL_SPACE
340
1C06A
  0
BLOCK_RECORD
  5
747A
330
7466
100
AcDbSymbolTableRecord
100
AcDbBlockTableRecord
  2
*PAPER_SPACE
340
1C06B
  0
BLOCK_RECORD
  5
ECB3
330
7466
100
AcDbSymbolTableRecord
100
AcDbBlockTableRecord
  2
作図枠S50
340
0
310
2800000020000000200000000100040000000000000200000000000000000000000000000000000000000000000080000080000000808000800000008000800080800000C0C0C000808080000000FF0000FF000000FFFF00FF000000FF00FF00FFFF0000FFFFFF00FFFFFFFFFFFFFFFFFFFFFFFFFFFFFFFFFFFFFFFFFFFFFF
310
FFFFFFFFFFFFFFFFFFFFFFFFFFFFFFFFFFFFFFFFFFFFFFFFFFFFFFFFFFFFFFFFFFFFFFFFFFFFFFFFFFFFFFFFFFFFFFFFFFFFFFFFFFFFFFFFFFFFFFFFFFFFFFFFFFFFFFFFFFFFFFFFFF999999999999999999999999999999999FFFFFFFFFFFFFFFFFFFFFFFFFFFFFF99FFFFFFFFFFFFFFFFFFFFFFFFFFFFFF99FFFFFFFFFFF
310
FFFFFFFFFFFFFFFFFFF99FFFFFFFFFFFFFFFFFFFFFFFFFFFFFF99FFFFFFFFFFFFFFFFFFFFFFFFFFFFFF99FFFFFFFFFFFFFFFFFFFFFFFFFFFFFF99FFFFFFFFFFFFFFFFFFFFFFFFFFFFFF99FFFFFFFFFFFFFFFFFFFFFFFFFFFFFF99FFFFFFFFFFFFFFFFFFFFFFFFFFFFFF99FFFFFFFFFFFFFFFFFFFFFFFFFFFFFF99FFFFFFFFF
310
FFFFFFFFFFFFFFFFFFFFF99FFFFFFFFFFFFFFFFFFFFFFFFFFFFFF99FFFFFFFFFFFFFFFFFFFFFFFFFFFFFF99FFFFFFFFFFFFFFFFFFFFFFFFFFFFFF99FFFFFFFFFFFFFFFFFFFFFFFFFFFFFF99FFFFFFFFFFFFFFFFFFFFFFFFFFFFFF99FFFFFFFFFFFFFFFFFFFFFFFFFFFFFF99FFFFFFFFFFFFFFFFFFFFF99999999999FFFFFFF
310
FFFFFFFFFFFFFF9FFFFFFFFF99999999999999999999999FFFFFFFFFFFFFFFFFFFFFFFFFFFFFFFFFFFFFFFFFFFFFFFFFFFFFFFFFFFFFFFFFFFFFFFFFFFFFFFFFFFFFFFFFFFFFFFFFFFFFFFFFFFFFFFFFFFFFFFFFFFFFFFFFFFFFFFFFFFFFFFFFFFFFFFFFFFFFFFFFFFFFFFFF
102
{BLKREFS
331
F235
102
}
  0
BLOCK_RECORD
  5
F770
330
7466
100
AcDbSymbolTableRecord
100
AcDbBlockTableRecord
  2
_DOTSMALL
340
0
102
{BLKREFS
331
24B9B
331
24B9C
331
24BA4
331
24BA5
331
24BAD
331
24BAE
331
24BB6
331
24BB7
331
24BBF
331
24BC0
331
261D2
331
261D3
331
261DD
331
261DE
331
261E7
331
261E8
331
2620E
331
2620F
331
26217
331
26218
331
26583
331
26584
331
2658C
331
2658D
331
2659E
331
2659F
331
265A6
331
265A7
331
265B1
331
265B2
331
265BC
331
265BD
331
265C4
331
265C5
331
265CC
331
265CD
331
265D7
331
265D8
331
265E1
331
265E2
331
265EB
331
265EC
102
}
  0
BLOCK_RECORD
  5
23CF2
330
7466
100
AcDbSymbolTableRecord
100
AcDbBlockTableRecord
  2
A$C1BA55281
340
0
102
{BLKREFS
331
242B3
102
}
  0
BLOCK_RECORD
  5
24420
330
7466
100
AcDbSymbolTableRecord
100
AcDbBlockTableRecord
  2
*D3
340
0
  0
BLOCK_RECORD
  5
2442C
330
7466
100
AcDbSymbolTableRecord
100
AcDbBlockTableRecord
  2
*D4
340
0
  0
BLOCK_RECORD
  5
24439
330
7466
100
AcDbSymbolTableRecord
100
AcDbBlockTableRecord
  2
*D5
340
0
  0
BLOCK_RECORD
  5
24445
330
7466
100
AcDbSymbolTableRecord
100
AcDbBlockTableRecord
  2
*D6
340
0
  0
BLOCK_RECORD
  5
24451
330
7466
100
AcDbSymbolTableRecord
100
AcDbBlockTableRecord
  2
*D7
340
0
  0
BLOCK_RECORD
  5
2445C
330
7466
100
AcDbSymbolTableRecord
100
AcDbBlockTableRecord
  2
*D8
340
0
  0
BLOCK_RECORD
  5
244BD
330
7466
100
AcDbSymbolTableRecord
100
AcDbBlockTableRecord
  2
*D9
340
0
  0
BLOCK_RECORD
  5
24545
330
7466
100
AcDbSymbolTableRecord
100
AcDbBlockTableRecord
  2
*D10
340
0
  0
BLOCK_RECORD
  5
24552
330
7466
100
AcDbSymbolTableRecord
100
AcDbBlockTableRecord
  2
*D11
340
0
  0
BLOCK_RECORD
  5
24560
330
7466
100
AcDbSymbolTableRecord
100
AcDbBlockTableRecord
  2
*D12
340
0
  0
BLOCK_RECORD
  5
2456C
330
7466
100
AcDbSymbolTableRecord
100
AcDbBlockTableRecord
  2
*D13
340
0
  0
BLOCK_RECORD
  5
24578
330
7466
100
AcDbSymbolTableRecord
100
AcDbBlockTableRecord
  2
*D14
340
0
  0
BLOCK_RECORD
  5
24584
330
7466
100
AcDbSymbolTableRecord
100
AcDbBlockTableRecord
  2
*D15
340
0
  0
BLOCK_RECORD
  5
2459A
330
7466
100
AcDbSymbolTableRecord
100
AcDbBlockTableRecord
  2
*D16
340
0
  0
BLOCK_RECORD
  5
245A5
330
7466
100
AcDbSymbolTableRecord
100
AcDbBlockTableRecord
  2
*D17
340
0
  0
BLOCK_RECORD
  5
245B3
330
7466
100
AcDbSymbolTableRecord
100
AcDbBlockTableRecord
  2
*D18
340
0
  0
BLOCK_RECORD
  5
245C0
330
7466
100
AcDbSymbolTableRecord
100
AcDbBlockTableRecord
  2
*D19
340
0
  0
BLOCK_RECORD
  5
245CC
330
7466
100
AcDbSymbolTableRecord
100
AcDbBlockTableRecord
  2
*D20
340
0
  0
BLOCK_RECORD
  5
245D8
330
7466
100
AcDbSymbolTableRecord
100
AcDbBlockTableRecord
  2
*D21
340
0
  0
BLOCK_RECORD
  5
245E4
330
7466
100
AcDbSymbolTableRecord
100
AcDbBlockTableRecord
  2
*D22
340
0
  0
BLOCK_RECORD
  5
245F0
330
7466
100
AcDbSymbolTableRecord
100
AcDbBlockTableRecord
  2
*D23
340
0
  0
ENDTAB
  0
ENDSEC
  0
SECTION
  2
BLOCKS
  0
BLOCK
  5
7489
330
747D
100
AcDbEntity
  8
0
100
AcDbBlockBegin
  2
*MODEL_SPACE
 70
     0
 10
0.0
 20
0.0
 30
0.0
  3
*MODEL_SPACE
  1

  0
ENDBLK
  5
748A
330
747D
100
AcDbEntity
  8
0
100
AcDbBlockEnd
  0
BLOCK
  5
7487
330
747A
100
AcDbEntity
 67
     1
  8
0
100
AcDbBlockBegin
  2
*PAPER_SPACE
 70
     0
 10
0.0
 20
0.0
 30
0.0
  3
*PAPER_SPACE
  1

  0
ENDBLK
  5
7488
330
747A
100
AcDbEntity
 67
     1
  8
0
100
AcDbBlockEnd
  0
BLOCK
  5
ECB4
330
ECB3
100
AcDbEntity
  8
0
100
AcDbBlockBegin
  2
作図枠S50
 70
     0
 10
0.0
 20
0.0
 30
0.0
  3
作図枠S50
  1

  4
作図領域枠 縮尺 1/50
  0
LINE
  5
ECB5
330
ECB3
100
AcDbEntity
  8
補助
100
AcDbLine
 10
14364.0
 20
14262.0
 30
0.0
 11
174.9999999999993
 21
14262.0
 31
0.0
  0
LINE
  5
ECB6
330
ECB3
100
AcDbEntity
  8
補助
100
AcDbLine
 10
174.9999999999993
 20
14262.0
 30
0.0
 11
174.9999999999993
 21
1520.0
 31
0.0
  0
LINE
  5
ECB7
330
ECB3
100
AcDbEntity
  8
補助
100
AcDbLine
 10
174.9999999999993
 20
1520.0
 30
0.0
 11
20384.0
 21
1520.0
 31
0.0
  0
LINE
  5
ECB8
330
ECB3
100
AcDbEntity
  8
補助
100
AcDbLine
 10
20384.0
 20
1520.0
 30
0.0
 11
20384.0
 21
13042.0
 31
0.0
  0
LINE
  5
ECB9
330
ECB3
100
AcDbEntity
  8
補助
100
AcDbLine
 10
20384.0
 20
13042.0
 30
0.0
 11
14364.0
 21
13042.0
 31
0.0
  0
LINE
  5
ECBA
330
ECB3
100
AcDbEntity
  8
補助
100
AcDbLine
 10
14364.0
 20
13042.0
 30
0.0
 11
14364.0
 21
14262.0
 31
0.0
  0
ENDBLK
  5
ECBB
330
ECB3
100
AcDbEntity
  8
0
100
AcDbBlockEnd
  0
BLOCK
  5
F771
330
F770
100
AcDbEntity
  8
0
 48
50.0
100
AcDbBlockBegin
  2
_DOTSMALL
 70
     0
 10
0.0
 20
0.0
 30
0.0
  3
_DOTSMALL
  1

  0
LWPOLYLINE
  5
F772
330
F770
100
AcDbEntity
  8
0
  6
ByBlock
 62
     0
 48
50.0
100
AcDbPolyline
 90
        2
 70
     1
 43
0.5
 10
-0.0625
 20
0.0
 42
1.0
 10
0.0625
 20
0.0
 42
1.0
  0
ENDBLK
  5
F776
330
F770
100
AcDbEntity
  8
0
 48
50.0
100
AcDbBlockEnd
  0
BLOCK
  5
23CF3
330
23CF2
100
AcDbEntity
  8
0
 48
50.0
100
AcDbBlockBegin
  2
A$C1BA55281
 70
     0
 10
0.0
 20
0.0
 30
0.0
  3
A$C1BA55281
  1

  0
LINE
  5
23CF4
330
23CF2
100
AcDbEntity
  8
細線
100
AcDbLine
 10
646.0422180577734
 20
299.9999987719807
 30
0.0
 11
446.0422180577752
 21
499.9999987719802
 31
0.0
  0
LINE
  5
23CF5
330
23CF2
100
AcDbEntity
  8
Ｇ．Ｌ
100
AcDbLine
 10
0.0000102186186268
 20
299.9999987719807
 30
0.0
 11
1368.538394350012
 21
299.9999987719807
 31
0.0
  0
LINE
  5
23CF6
330
23CF2
100
AcDbEntity
  8
部品1
100
AcDbLine
 10
300.0000102186186
 20
499.9999987719802
 30
0.0
 11
700.0000102186167
 21
499.9999987719802
 31
0.0
  0
LINE
  5
23CF7
330
23CF2
100
AcDbEntity
  8
部品1
100
AcDbLine
 10
200.0000102186168
 20
199.9999987719775
 30
0.0
 11
800.0000102186177
 21
199.9999987719802
 31
0.0
  0
LINE
  5
23CF8
330
23CF2
100
AcDbEntity
  8
部品1
100
AcDbLine
 10
200.0000102186168
 20
-0.0000012280233932
 30
0.0
 11
800.0000102186177
 21
-0.0000012280206647
 31
0.0
  0
LINE
  5
23CF9
330
23CF2
100
AcDbEntity
  8
細線
100
AcDbLine
 10
270.6127686791824
 20
199.9999987719777
 30
0.0
 11
370.6127686791824
 21
299.9999987719805
 31
0.0
  0
LINE
  5
23CFA
330
23CF2
100
AcDbEntity
  8
細線
100
AcDbLine
 10
327.1813111741085
 20
199.9999987719782
 30
0.0
 11
427.1813111741058
 21
299.9999987719807
 31
0.0
  0
LINE
  5
23CFB
330
23CF2
100
AcDbEntity
  8
細線
100
AcDbLine
 10
298.8970399266473
 20
199.9999987719802
 30
0.0
 11
398.8970399266436
 21
299.9999987719807
 31
0.0
  0
LINE
  5
23CFC
330
23CF2
100
AcDbEntity
  8
部品1
100
AcDbLine
 10
200.0000102186168
 20
-0.0000012280233932
 30
0.0
 11
200.0000102186168
 21
299.9999987719807
 31
0.0
  0
LINE
  5
23CFD
330
23CF2
100
AcDbEntity
  8
細線
100
AcDbLine
 10
200.0000102186168
 20
199.9999987719775
 30
0.0
 11
253.5898487048417
 21
-0.0000012280261217
 31
0.0
  0
LINE
  5
23CFE
330
23CF2
100
AcDbEntity
  8
細線
100
AcDbLine
 10
240.1923890832841
 20
49.99999877197751
 30
0.0
 11
226.7949294617283
 21
-0.0000012280233932
 31
0.0
  0
LINE
  5
23CFF
330
23CF2
100
AcDbEntity
  8
細線
100
AcDbLine
 10
226.7949294617283
 20
199.9999987719775
 30
0.0
 11
213.3974698401744
 21
149.9999987719766
 31
0.0
  0
LINE
  5
23D00
330
23CF2
100
AcDbEntity
  8
細線
100
AcDbLine
 10
300.0000102186186
 20
199.9999987719775
 30
0.0
 11
353.5898487048398
 21
-0.0000012280261217
 31
0.0
  0
LINE
  5
23D01
330
23CF2
100
AcDbEntity
  8
細線
100
AcDbLine
 10
400.0000102186167
 20
199.9999987719802
 30
0.0
 11
453.5898487048398
 21
-0.0000012280233932
 31
0.0
  0
LINE
  5
23D02
330
23CF2
100
AcDbEntity
  8
細線
100
AcDbLine
 10
340.1923890832859
 20
49.99999877197751
 30
0.0
 11
326.7949294617283
 21
-0.0000012280233932
 31
0.0
  0
LINE
  5
23D03
330
23CF2
100
AcDbEntity
  8
細線
100
AcDbLine
 10
440.192389083284
 20
49.99999877198025
 30
0.0
 11
426.7949294617301
 21
-0.0000012280206647
 31
0.0
  0
LINE
  5
23D04
330
23CF2
100
AcDbEntity
  8
細線
100
AcDbLine
 10
326.7949294617283
 20
199.9999987719775
 30
0.0
 11
313.3974698401726
 21
149.9999987719766
 31
0.0
  0
LINE
  5
23D05
330
23CF2
100
AcDbEntity
  8
細線
100
AcDbLine
 10
426.7949294617301
 20
199.9999987719802
 30
0.0
 11
413.3974698401726
 21
149.9999987719807
 31
0.0
  0
LINE
  5
23D06
330
23CF2
100
AcDbEntity
  8
細線
100
AcDbLine
 10
419.7680480780782
 20
299.9999987719807
 30
0.0
 11
300.0000102186186
 21
419.7680366314409
 31
0.0
  0
LINE
  5
23D07
330
23CF2
100
AcDbEntity
  8
部品1
100
AcDbLine
 10
300.0000102186186
 20
299.9999987719807
 30
0.0
 11
300.0000102186186
 21
499.9999987719802
 31
0.0
  0
LINE
  5
23D08
330
23CF2
100
AcDbEntity
  8
細線
100
AcDbLine
 10
462.1944549492709
 20
299.9999987719807
 30
0.0
 11
300.0000102186177
 21
462.194443502633
 31
0.0
  0
MTEXT
  5
23D09
102
{ACAD_REACTORS
330
23D0A
102
}
330
23CF2
100
AcDbEntity
  8
寸法
 62
     7
 48
50.0
100
AcDbMText
 10
728.9227685106716
 20
821.432899623403
 30
0.0
 40
150.0
 41
1.0
 71
     4
 72
     1
  1
\A1;C.B
  7
STYLE1
 73
     1
 44
1.0
1001
ACAD
1000
MTEXTBEGIN
1070
    73
1070
     1
1070
    44
1040
1.0
1070
    74
1070
     0
1000
MTEXTEND
  0
LEADER
  5
23D0A
330
23CF2
100
AcDbEntity
  8
寸法
 48
50.0
100
AcDbLeader
  3
INABA_S50G
 73
     0
 74
     0
 75
     1
 40
150.0
 41
231.9898538650463
 76
     3
 10
500.0000102186176
 20
499.9999987719802
 30
0.0
 10
578.9227685106716
 20
721.432899623403
 30
0.0
 10
703.9227685106716
 20
721.432899623403
 30
0.0
340
23D09
1001
ACAD
1000
DSTYLE
1002
{
1070
    40
1040
1.0
1002
}
  0
LINE
  5
23D0B
330
23CF2
100
AcDbEntity
  8
文字
 48
50.0
100
AcDbLine
 10
1023.74179387398
 20
428.9872899549959
 30
0.0
 11
875.8807454884063
 21
428.9872899549959
 31
0.0
  0
LINE
  5
23D0C
330
23CF2
100
AcDbEntity
  8
文字
 48
50.0
100
AcDbLine
 10
875.8807454884063
 20
428.9872899549959
 30
0.0
 11
949.8112696811931
 21
300.9358658228894
 31
0.0
  0
LINE
  5
23D0D
330
23CF2
100
AcDbEntity
  8
細線
100
AcDbLine
 10
570.6127686791842
 20
199.9999987719791
 30
0.0
 11
670.6127686791814
 21
299.9999987719807
 31
0.0
  0
LINE
  5
23D0E
330
23CF2
100
AcDbEntity
  8
細線
100
AcDbLine
 10
627.1813111741066
 20
199.9999987719795
 30
0.0
 11
727.1813111741048
 21
299.9999987719807
 31
0.0
  0
LINE
  5
23D0F
330
23CF2
100
AcDbEntity
  8
細線
100
AcDbLine
 10
598.8970399266472
 20
199.9999987719802
 30
0.0
 11
698.8970399266436
 21
299.9999987719807
 31
0.0
  0
LINE
  5
23D10
330
23CF2
100
AcDbEntity
  8
部品1
100
AcDbLine
 10
800.0000102186177
 20
299.9999987719807
 30
0.0
 11
800.0000102186177
 21
-0.0000012280206647
 31
0.0
  0
LINE
  5
23D11
330
23CF2
100
AcDbEntity
  8
細線
100
AcDbLine
 10
500.0000102186167
 20
199.9999987719802
 30
0.0
 11
553.5898487048416
 21
-0.0000012280233932
 31
0.0
  0
LINE
  5
23D12
330
23CF2
100
AcDbEntity
  8
細線
100
AcDbLine
 10
600.0000102186186
 20
199.9999987719802
 30
0.0
 11
653.5898487048398
 21
-0.0000012280233932
 31
0.0
  0
LINE
  5
23D13
330
23CF2
100
AcDbEntity
  8
細線
100
AcDbLine
 10
540.192389083284
 20
49.99999877198025
 30
0.0
 11
526.7949294617283
 21
-0.0000012280206647
 31
0.0
  0
LINE
  5
23D14
330
23CF2
100
AcDbEntity
  8
細線
100
AcDbLine
 10
640.1923890832859
 20
49.99999877198025
 30
0.0
 11
626.7949294617283
 21
-0.0000012280206647
 31
0.0
  0
LINE
  5
23D15
330
23CF2
100
AcDbEntity
  8
細線
100
AcDbLine
 10
526.7949294617283
 20
199.9999987719802
 30
0.0
 11
513.3974698401743
 21
149.9999987719807
 31
0.0
  0
LINE
  5
23D16
330
23CF2
100
AcDbEntity
  8
細線
100
AcDbLine
 10
626.7949294617283
 20
199.9999987719802
 30
0.0
 11
613.3974698401726
 21
149.9999987719807
 31
0.0
  0
LINE
  5
23D17
330
23CF2
100
AcDbEntity
  8
細線
100
AcDbLine
 10
700.0000102186167
 20
199.9999987719802
 30
0.0
 11
753.5898487048398
 21
-0.0000012280206647
 31
0.0
  0
LINE
  5
23D18
330
23CF2
100
AcDbEntity
  8
細線
100
AcDbLine
 10
740.192389083284
 20
49.99999877198025
 30
0.0
 11
726.7949294617301
 21
-0.0000012280206647
 31
0.0
  0
LINE
  5
23D19
330
23CF2
100
AcDbEntity
  8
細線
100
AcDbLine
 10
726.7949294617301
 20
199.9999987719802
 30
0.0
 11
713.3974698401726
 21
149.9999987719807
 31
0.0
  0
LINE
  5
23D1A
330
23CF2
100
AcDbEntity
  8
細線
100
AcDbLine
 10
688.468624928967
 20
299.9999987719809
 30
0.0
 11
488.4686249289679
 21
499.9999987719802
 31
0.0
  0
LINE
  5
23D1B
330
23CF2
100
AcDbEntity
  8
部品1
100
AcDbLine
 10
700.0000102186167
 20
499.9999987719802
 30
0.0
 11
700.0000102186167
 21
299.9999987719807
 31
0.0
  0
TEXT
  5
23D1C
330
23CF2
100
AcDbEntity
  8
部品1
100
AcDbText
 10
1044.344543432127
 20
322.7965089842533
 30
0.0
 40
150.0
  1
G.L
  7
STYLE1
100
AcDbText
  0
LINE
  5
23D1D
330
23CF2
100
AcDbEntity
  8
文字
 48
50.0
100
AcDbLine
 10
949.8112696811922
 20
300.9358658228889
 30
0.0
 11
1023.74179387398
 21
428.9872899549959
 31
0.0
  0
ENDBLK
  5
23D1E
330
23CF2
100
AcDbEntity
  8
0
 48
50.0
100
AcDbBlockEnd
  0
BLOCK
  5
2442A
330
24420
100
AcDbEntity
  8
0
 48
50.0
100
AcDbBlockBegin
  2
*D3
 70
     1
 10
0.0
 20
0.0
 30
0.0
  3
*D3
  1

  0
LINE
  5
261D8
330
24420
100
AcDbEntity
  8
寸法
 62
     0
 48
50.0
370
    -2
100
AcDbLine
 10
9348.500000000091
 20
6579.25686088479
 30
0.0
 11
8297.895577864052
 21
6579.25686088479
 31
0.0
  0
LINE
  5
261D9
330
24420
100
AcDbEntity
  8
寸法
 62
     0
 48
50.0
370
    -2
100
AcDbLine
 10
8598.429938063452
 20
6520.256860884791
 30
0.0
 11
8297.895577864052
 21
6520.256860884791
 31
0.0
  0
LINE
  5
261DA
330
24420
100
AcDbEntity
  8
寸法
 62
     0
 48
50.0
370
    -2
100
AcDbLine
 10
8372.895577864053
 20
6579.25686088479
 30
0.0
 11
8372.895577864053
 21
6704.25686088479
 31
0.0
  0
LINE
  5
261DB
330
24420
100
AcDbEntity
  8
寸法
 62
     0
 48
50.0
370
    -2
100
AcDbLine
 10
8372.895577864053
 20
6520.256860884791
 30
0.0
 11
8372.895577864053
 21
6395.25686088479
 31
0.0
  0
LINE
  5
261DC
330
24420
100
AcDbEntity
  8
寸法
 62
     0
 48
50.0
370
    -2
100
AcDbLine
 10
8372.895577864053
 20
6579.25686088479
 30
0.0
 11
8372.895577864053
 21
6520.256860884791
 31
0.0
  0
INSERT
  5
261DD
330
24420
100
AcDbEntity
  8
寸法
 62
     0
 48
50.0
370
    -2
100
AcDbBlockReference
  2
_DOTSMALL
 10
8372.895577864053
 20
6579.25686088479
 30
0.0
 41
125.0
 42
125.0
 43
125.0
 50
270.0
  0
INSERT
  5
261DE
330
24420
100
AcDbEntity
  8
寸法
 62
     0
 48
50.0
370
    -2
100
AcDbBlockReference
  2
_DOTSMALL
 10
8372.895577864053
 20
6520.256860884791
 30
0.0
 41
125.0
 42
125.0
 43
125.0
 50
90.0
  0
MTEXT
  5
261DF
330
24420
100
AcDbEntity
  8
寸法
 62
     7
 48
50.0
100
AcDbMText
 10
8272.89557786405
 20
6549.756860884791
 30
0.0
 40
150.0
 41
0.0
 71
     5
 72
     1
  1
\A1;b
  7
STYLE1
 11
0.0000000000000001
 21
1.0
 31
0.0
 73
     1
 44
1.0
1001
ACAD
1000
MTEXTBEGIN
1070
    73
1070
     1
1070
    44
1040
1.0
1070
    74
1070
     0
1000
MTEXTEND
  0
POINT
  5
261E0
330
24420
100
AcDbEntity
  8
DEFPOINTS
 62
     0
 48
50.0
100
AcDbPoint
 10
9373.50000000009
 20
6579.25686088479
 30
0.0
  0
POINT
  5
261E1
330
24420
100
AcDbEntity
  8
DEFPOINTS
 62
     0
 48
50.0
100
AcDbPoint
 10
8623.429938063452
 20
6520.256860884791
 30
0.0
  0
POINT
  5
261E2
330
24420
100
AcDbEntity
  8
DEFPOINTS
 62
     0
 48
50.0
100
AcDbPoint
 10
8372.895577864053
 20
6520.256860884791
 30
0.0
  0
ENDBLK
  5
2442B
330
24420
100
AcDbEntity
  8
0
 48
50.0
100
AcDbBlockEnd
  0
BLOCK
  5
24437
330
2442C
100
AcDbEntity
  8
0
 48
50.0
100
AcDbBlockBegin
  2
*D4
 70
     1
 10
0.0
 20
0.0
 30
0.0
  3
*D4
  1

  0
LINE
  5
261E3
330
2442C
100
AcDbEntity
  8
寸法
 62
     0
 48
50.0
370
    -2
100
AcDbLine
 10
9348.500000000091
 20
6579.256860884794
 30
0.0
 11
8548.429938063453
 21
6579.256860884794
 31
0.0
  0
LINE
  5
261E4
330
2442C
100
AcDbEntity
  8
寸法
 62
     0
 48
50.0
370
    -2
100
AcDbLine
 10
9148.50000000009
 20
6636.256860884791
 30
0.0
 11
8548.429938063453
 21
6636.256860884791
 31
0.0
  0
LINE
  5
261E5
330
2442C
100
AcDbEntity
  8
寸法
 62
     0
 48
50.0
370
    -2
100
AcDbLine
 10
8623.429938063452
 20
6636.256860884791
 30
0.0
 11
8623.429938063452
 21
6579.256860884794
 31
0.0
  0
LINE
  5
261E6
330
2442C
100
AcDbEntity
  8
寸法
 62
     0
 48
50.0
370
    -2
100
AcDbLine
 10
8623.429938063452
 20
6579.256860884794
 30
0.0
 11
8623.429938063452
 21
6234.768671908415
 31
0.0
  0
INSERT
  5
261E7
330
2442C
100
AcDbEntity
  8
寸法
 62
     0
 48
50.0
370
    -2
100
AcDbBlockReference
  2
_DOTSMALL
 10
8623.429938063452
 20
6636.256860884791
 30
0.0
 41
125.0
 42
125.0
 43
125.0
 50
90.0
  0
INSERT
  5
261E8
330
2442C
100
AcDbEntity
  8
寸法
 62
     0
 48
50.0
370
    -2
100
AcDbBlockReference
  2
_DOTSMALL
 10
8623.429938063452
 20
6579.256860884794
 30
0.0
 41
125.0
 42
125.0
 43
125.0
 50
270.0
  0
MTEXT
  5
261E9
330
2442C
100
AcDbEntity
  8
寸法
 62
     7
 48
50.0
100
AcDbMText
 10
8523.429938063451
 20
6342.268671908416
 30
0.0
 40
150.0
 41
0.0
 71
     5
 72
     1
  1
\A1;57
  7
STYLE1
 11
0.0000000000000001
 21
1.0
 31
0.0
 73
     1
 44
1.0
1001
ACAD
1000
MTEXTBEGIN
1070
    73
1070
     1
1070
    44
1040
1.0
1070
    74
1070
     0
1000
MTEXTEND
  0
POINT
  5
261EA
330
2442C
100
AcDbEntity
  8
DEFPOINTS
 62
     0
 48
50.0
100
AcDbPoint
 10
9373.50000000009
 20
6579.256860884794
 30
0.0
  0
POINT
  5
261EB
330
2442C
100
AcDbEntity
  8
DEFPOINTS
 62
     0
 48
50.0
100
AcDbPoint
 10
9173.500000000091
 20
6636.256860884791
 30
0.0
  0
POINT
  5
261EC
330
2442C
100
AcDbEntity
  8
DEFPOINTS
 62
     0
 48
50.0
100
AcDbPoint
 10
8623.429938063452
 20
6636.256860884791
 30
0.0
  0
ENDBLK
  5
24438
330
2442C
100
AcDbEntity
  8
0
 48
50.0
100
AcDbBlockEnd
  0
BLOCK
  5
24443
330
24439
100
AcDbEntity
  8
0
 48
50.0
100
AcDbBlockBegin
  2
*D5
 70
     1
 10
0.0
 20
0.0
 30
0.0
  3
*D5
  1

  0
LINE
  5
2659B
330
24439
100
AcDbEntity
  8
寸法
 62
     0
 48
50.0
370
    -2
100
AcDbLine
 10
9148.50000000009
 20
7951.25686088479
 30
0.0
 11
8297.895577864052
 21
7951.25686088479
 31
0.0
  0
LINE
  5
2659C
330
24439
100
AcDbEntity
  8
寸法
 62
     0
 48
50.0
370
    -2
100
AcDbLine
 10
9348.500000000091
 20
6579.25686088479
 30
0.0
 11
8297.895577864052
 21
6579.25686088479
 31
0.0
  0
LINE
  5
2659D
330
24439
100
AcDbEntity
  8
寸法
 62
     0
 48
50.0
370
    -2
100
AcDbLine
 10
8372.895577864053
 20
7951.25686088479
 30
0.0
 11
8372.895577864053
 21
6579.25686088479
 31
0.0
  0
INSERT
  5
2659E
330
24439
100
AcDbEntity
  8
寸法
 62
     0
 48
50.0
370
    -2
100
AcDbBlockReference
  2
_DOTSMALL
 10
8372.895577864053
 20
7951.25686088479
 30
0.0
 41
125.0
 42
125.0
 43
125.0
 50
90.0
  0
INSERT
  5
2659F
330
24439
100
AcDbEntity
  8
寸法
 62
     0
 48
50.0
370
    -2
100
AcDbBlockReference
  2
_DOTSMALL
 10
8372.895577864053
 20
6579.25686088479
 30
0.0
 41
125.0
 42
125.0
 43
125.0
 50
270.0
  0
MTEXT
  5
265A0
330
24439
100
AcDbEntity
  8
寸法
 62
     7
 48
50.0
100
AcDbMText
 10
8272.880814084523
 20
7265.256860884791
 30
0.0
 40
150.0
 41
0.0
 71
     5
 72
     1
  1
\A1;1372
  7
STYLE1
 11
0.0000000000000001
 21
1.0
 31
0.0
 73
     1
 44
1.0
1001
ACAD
1000
MTEXTBEGIN
1070
    73
1070
     1
1070
    44
1040
1.0
1070
    74
1070
     0
1000
MTEXTEND
  0
POINT
  5
265A1
330
24439
100
AcDbEntity
  8
DEFPOINTS
 62
     0
 48
50.0
100
AcDbPoint
 10
9173.500000000091
 20
7951.25686088479
 30
0.0
  0
POINT
  5
265A2
330
24439
100
AcDbEntity
  8
DEFPOINTS
 62
     0
 48
50.0
100
AcDbPoint
 10
9373.50000000009
 20
6579.25686088479
 30
0.0
  0
POINT
  5
265A3
330
24439
100
AcDbEntity
  8
DEFPOINTS
 62
     0
 48
50.0
100
AcDbPoint
 10
8372.895577864053
 20
6579.25686088479
 30
0.0
  0
ENDBLK
  5
24444
330
24439
100
AcDbEntity
  8
0
 48
50.0
100
AcDbBlockEnd
  0
BLOCK
  5
2444F
330
24445
100
AcDbEntity
  8
0
 48
50.0
100
AcDbBlockBegin
  2
*D6
 70
     1
 10
0.0
 20
0.0
 30
0.0
  3
*D6
  1

  0
LINE
  5
26589
330
24445
100
AcDbEntity
  8
寸法
 62
     0
 48
50.0
370
    -2
100
AcDbLine
 10
9173.500000000091
 20
7976.25686088479
 30
0.0
 11
9173.500000000091
 21
8813.799248455264
 31
0.0
  0
LINE
  5
2658A
330
24445
100
AcDbEntity
  8
寸法
 62
     0
 48
50.0
370
    -2
100
AcDbLine
 10
11385.49999999991
 20
8422.81374180812
 30
0.0
 11
11385.49999999991
 21
8813.799248455264
 31
0.0
  0
LINE
  5
2658B
330
24445
100
AcDbEntity
  8
寸法
 62
     0
 48
50.0
370
    -2
100
AcDbLine
 10
9173.500000000091
 20
8738.799248455263
 30
0.0
 11
11385.49999999991
 21
8738.799248455263
 31
0.0
  0
INSERT
  5
2658C
330
24445
100
AcDbEntity
  8
寸法
 62
     0
 48
50.0
370
    -2
100
AcDbBlockReference
  2
_DOTSMALL
 10
9173.500000000091
 20
8738.799248455263
 30
0.0
 41
125.0
 42
125.0
 43
125.0
 50
180.0
  0
INSERT
  5
2658D
330
24445
100
AcDbEntity
  8
寸法
 62
     0
 48
50.0
370
    -2
100
AcDbBlockReference
  2
_DOTSMALL
 10
11385.49999999991
 20
8738.799248455263
 30
0.0
 41
125.0
 42
125.0
 43
125.0
  0
MTEXT
  5
2658E
330
24445
100
AcDbEntity
  8
寸法
 62
     7
 48
50.0
100
AcDbMText
 10
10279.5
 20
8838.81401223479
 30
0.0
 40
150.0
 41
0.0
 71
     5
 72
     1
  1
\A1;2212
  7
STYLE1
 73
     1
 44
1.0
1001
ACAD
1000
MTEXTBEGIN
1070
    73
1070
     1
1070
    44
1040
1.0
1070
    74
1070
     0
1000
MTEXTEND
  0
POINT
  5
2658F
330
24445
100
AcDbEntity
  8
DEFPOINTS
 62
     0
 48
50.0
100
AcDbPoint
 10
9173.500000000091
 20
7951.25686088479
 30
0.0
  0
POINT
  5
26590
330
24445
100
AcDbEntity
  8
DEFPOINTS
 62
     0
 48
50.0
100
AcDbPoint
 10
11385.49999999991
 20
8397.81374180812
 30
0.0
  0
POINT
  5
26591
330
24445
100
AcDbEntity
  8
DEFPOINTS
 62
     0
 48
50.0
100
AcDbPoint
 10
11385.49999999991
 20
8738.799248455263
 30
0.0
  0
ENDBLK
  5
24450
330
24445
100
AcDbEntity
  8
0
 48
50.0
100
AcDbBlockEnd
  0
BLOCK
  5
2445A
330
24451
100
AcDbEntity
  8
0
 48
50.0
100
AcDbBlockBegin
  2
*D7
 70
     1
 10
0.0
 20
0.0
 30
0.0
  3
*D7
  1

  0
LINE
  5
265C2
330
24451
100
AcDbEntity
  8
寸法
 62
     0
 48
50.0
370
    -2
100
AcDbLine
 10
9933.500000000092
 20
7976.25686088479
 30
0.0
 11
9933.500000000092
 21
8541.794218051505
 31
0.0
  0
LINE
  5
265C3
330
24451
100
AcDbEntity
  8
寸法
 62
     0
 48
50.0
370
    -2
100
AcDbLine
 10
9173.500000000091
 20
8466.794218051505
 30
0.0
 11
9933.500000000092
 21
8466.794218051505
 31
0.0
  0
INSERT
  5
265C4
330
24451
100
AcDbEntity
  8
寸法
 62
     0
 48
50.0
370
    -2
100
AcDbBlockReference
  2
_DOTSMALL
 10
9173.500000000091
 20
8466.794218051505
 30
0.0
 41
125.0
 42
125.0
 43
125.0
 50
180.0
  0
INSERT
  5
265C5
330
24451
100
AcDbEntity
  8
寸法
 62
     0
 48
50.0
370
    -2
100
AcDbBlockReference
  2
_DOTSMALL
 10
9933.500000000092
 20
8466.794218051505
 30
0.0
 41
125.0
 42
125.0
 43
125.0
  0
MTEXT
  5
265C6
330
24451
100
AcDbEntity
  8
寸法
 62
     7
 48
50.0
100
AcDbMText
 10
9553.50000000009
 20
8566.794218051505
 30
0.0
 40
150.0
 41
0.0
 71
     5
 72
     1
  1
\A1;760
  7
STYLE1
 73
     1
 44
1.0
1001
ACAD
1000
MTEXTBEGIN
1070
    73
1070
     1
1070
    44
1040
1.0
1070
    74
1070
     0
1000
MTEXTEND
  0
POINT
  5
265C7
330
24451
100
AcDbEntity
  8
DEFPOINTS
 62
     0
 48
50.0
100
AcDbPoint
 10
9173.500000000091
 20
7951.25686088479
 30
0.0
  0
POINT
  5
265C8
330
24451
100
AcDbEntity
  8
DEFPOINTS
 62
     0
 48
50.0
100
AcDbPoint
 10
9933.500000000092
 20
7951.25686088479
 30
0.0
  0
POINT
  5
265C9
330
24451
100
AcDbEntity
  8
DEFPOINTS
 62
     0
 48
50.0
100
AcDbPoint
 10
9933.500000000092
 20
8466.794218051505
 30
0.0
  0
ENDBLK
  5
2445B
330
24451
100
AcDbEntity
  8
0
 48
50.0
100
AcDbBlockEnd
  0
BLOCK
  5
24465
330
2445C
100
AcDbEntity
  8
0
 48
50.0
100
AcDbBlockBegin
  2
*D8
 70
     1
 10
0.0
 20
0.0
 30
0.0
  3
*D8
  1

  0
LINE
  5
265A4
330
2445C
100
AcDbEntity
  8
寸法
 62
     0
 48
50.0
370
    -2
100
AcDbLine
 10
9148.50000000009
 20
7951.25686088479
 30
0.0
 11
8548.429938063451
 21
7951.25686088479
 31
0.0
  0
LINE
  5
265A5
330
2445C
100
AcDbEntity
  8
寸法
 62
     0
 48
50.0
370
    -2
100
AcDbLine
 10
8623.42993806345
 20
6636.256860884791
 30
0.0
 11
8623.42993806345
 21
7951.25686088479
 31
0.0
  0
INSERT
  5
265A6
330
2445C
100
AcDbEntity
  8
寸法
 62
     0
 48
50.0
370
    -2
100
AcDbBlockReference
  2
_DOTSMALL
 10
8623.42993806345
 20
6636.256860884791
 30
0.0
 41
125.0
 42
125.0
 43
125.0
 50
270.0
  0
INSERT
  5
265A7
330
2445C
100
AcDbEntity
  8
寸法
 62
     0
 48
50.0
370
    -2
100
AcDbBlockReference
  2
_DOTSMALL
 10
8623.42993806345
 20
7951.25686088479
 30
0.0
 41
125.0
 42
125.0
 43
125.0
 50
90.0
  0
MTEXT
  5
265A8
330
2445C
100
AcDbEntity
  8
寸法
 62
     7
 48
50.0
100
AcDbMText
 10
8523.429938063449
 20
7293.756860884791
 30
0.0
 40
150.0
 41
0.0
 71
     5
 72
     1
  1
\A1;1315
  7
STYLE1
 11
0.0000000000000001
 21
1.0
 31
0.0
 73
     1
 44
1.0
1001
ACAD
1000
MTEXTBEGIN
1070
    73
1070
     1
1070
    44
1040
1.0
1070
    74
1070
     0
1000
MTEXTEND
  0
POINT
  5
265A9
330
2445C
100
AcDbEntity
  8
DEFPOINTS
 62
     0
 48
50.0
100
AcDbPoint
 10
9173.500000000091
 20
6636.256860884791
 30
0.0
  0
POINT
  5
265AA
330
2445C
100
AcDbEntity
  8
DEFPOINTS
 62
     0
 48
50.0
100
AcDbPoint
 10
9173.500000000091
 20
7951.25686088479
 30
0.0
  0
POINT
  5
265AB
330
2445C
100
AcDbEntity
  8
DEFPOINTS
 62
     0
 48
50.0
100
AcDbPoint
 10
8623.42993806345
 20
7951.25686088479
 30
0.0
  0
ENDBLK
  5
24466
330
2445C
100
AcDbEntity
  8
0
 48
50.0
100
AcDbBlockEnd
  0
BLOCK
  5
244C9
330
244BD
100
AcDbEntity
  8
0
 48
50.0
100
AcDbBlockBegin
  2
*D9
 70
     1
 10
0.0
 20
0.0
 30
0.0
  3
*D9
  1

  0
LINE
  5
261CD
330
244BD
100
AcDbEntity
  8
寸法
 62
     0
 48
50.0
370
    -2
100
AcDbLine
 10
8998.50000000009
 20
6608.25686088479
 30
0.0
 11
8807.498129379563
 21
6608.25686088479
 31
0.0
  0
LINE
  5
261CE
330
244BD
100
AcDbEntity
  8
寸法
 62
     0
 48
50.0
370
    -2
100
AcDbLine
 10
9148.50000000009
 20
6636.256860884791
 30
0.0
 11
8807.498129379563
 21
6636.256860884791
 31
0.0
  0
LINE
  5
261CF
330
244BD
100
AcDbEntity
  8
寸法
 62
     0
 48
50.0
370
    -2
100
AcDbLine
 10
8882.498129379563
 20
6608.25686088479
 30
0.0
 11
8882.498129379563
 21
6483.25686088479
 31
0.0
  0
LINE
  5
261D0
330
244BD
100
AcDbEntity
  8
寸法
 62
     0
 48
50.0
370
    -2
100
AcDbLine
 10
8882.498129379563
 20
6636.256860884791
 30
0.0
 11
8882.498129379563
 21
7483.756860884793
 31
0.0
  0
LINE
  5
261D1
330
244BD
100
AcDbEntity
  8
寸法
 62
     0
 48
50.0
370
    -2
100
AcDbLine
 10
8882.498129379563
 20
6608.25686088479
 30
0.0
 11
8882.498129379563
 21
6636.256860884791
 31
0.0
  0
INSERT
  5
261D2
330
244BD
100
AcDbEntity
  8
寸法
 62
     0
 48
50.0
370
    -2
100
AcDbBlockReference
  2
_DOTSMALL
 10
8882.498129379563
 20
6608.25686088479
 30
0.0
 41
125.0
 42
125.0
 43
125.0
 50
90.0
  0
INSERT
  5
261D3
330
244BD
100
AcDbEntity
  8
寸法
 62
     0
 48
50.0
370
    -2
100
AcDbBlockReference
  2
_DOTSMALL
 10
8882.498129379563
 20
6636.256860884791
 30
0.0
 41
125.0
 42
125.0
 43
125.0
 50
270.0
  0
MTEXT
  5
261D4
330
244BD
100
AcDbEntity
  8
寸法
 62
     7
 48
50.0
100
AcDbMText
 10
8782.483365600034
 20
7185.006860884795
 30
0.0
 40
150.0
 41
0.0
 71
     5
 72
     1
  1
\A1;柱芯28
  7
STYLE1
 11
0.0000000000000001
 21
1.0
 31
0.0
 73
     1
 44
1.0
1001
ACAD
1000
MTEXTBEGIN
1070
    73
1070
     1
1070
    44
1040
1.0
1070
    74
1070
     0
1000
MTEXTEND
  0
POINT
  5
261D5
330
244BD
100
AcDbEntity
  8
DEFPOINTS
 62
     0
 48
50.0
100
AcDbPoint
 10
9023.50000000009
 20
6608.25686088479
 30
0.0
  0
POINT
  5
261D6
330
244BD
100
AcDbEntity
  8
DEFPOINTS
 62
     0
 48
50.0
100
AcDbPoint
 10
9173.500000000091
 20
6636.256860884791
 30
0.0
  0
POINT
  5
261D7
330
244BD
100
AcDbEntity
  8
DEFPOINTS
 62
     0
 48
50.0
100
AcDbPoint
 10
8882.498129379563
 20
6636.256860884791
 30
0.0
  0
ENDBLK
  5
244CA
330
244BD
100
AcDbEntity
  8
0
 48
50.0
100
AcDbBlockEnd
  0
BLOCK
  5
24550
330
24545
100
AcDbEntity
  8
0
 48
50.0
100
AcDbBlockBegin
  2
*D10
 70
     1
 10
0.0
 20
0.0
 30
0.0
  3
*D10
  1

  0
LINE
  5
265AC
330
24545
100
AcDbEntity
  8
寸法
 62
     0
 48
50.0
370
    -2
100
AcDbLine
 10
9124.500000000091
 20
8055.25686088479
 30
0.0
 11
9124.500000000091
 21
8813.799248455264
 31
0.0
  0
LINE
  5
265AD
330
24545
100
AcDbEntity
  8
寸法
 62
     0
 48
50.0
370
    -2
100
AcDbLine
 10
9173.500000000091
 20
7976.25686088479
 30
0.0
 11
9173.500000000091
 21
8813.799248455264
 31
0.0
  0
LINE
  5
265AE
330
24545
100
AcDbEntity
  8
寸法
 62
     0
 48
50.0
370
    -2
100
AcDbLine
 10
9173.500000000091
 20
8738.799248455263
 30
0.0
 11
9298.500000000091
 21
8738.799248455263
 31
0.0
  0
LINE
  5
265AF
330
24545
100
AcDbEntity
  8
寸法
 62
     0
 48
50.0
370
    -2
100
AcDbLine
 10
9124.500000000091
 20
8738.799248455263
 30
0.0
 11
8759.063446993943
 21
8738.799248455263
 31
0.0
  0
LINE
  5
265B0
330
24545
100
AcDbEntity
  8
寸法
 62
     0
 48
50.0
370
    -2
100
AcDbLine
 10
9173.500000000091
 20
8738.799248455263
 30
0.0
 11
9124.500000000091
 21
8738.799248455263
 31
0.0
  0
INSERT
  5
265B1
330
24545
100
AcDbEntity
  8
寸法
 62
     0
 48
50.0
370
    -2
100
AcDbBlockReference
  2
_DOTSMALL
 10
9173.500000000091
 20
8738.799248455263
 30
0.0
 41
125.0
 42
125.0
 43
125.0
 50
180.0
  0
INSERT
  5
265B2
330
24545
100
AcDbEntity
  8
寸法
 62
     0
 48
50.0
370
    -2
100
AcDbBlockReference
  2
_DOTSMALL
 10
9124.500000000091
 20
8738.799248455263
 30
0.0
 41
125.0
 42
125.0
 43
125.0
  0
MTEXT
  5
265B3
330
24545
100
AcDbEntity
  8
寸法
 62
     7
 48
50.0
100
AcDbMText
 10
8816.781723497017
 20
8838.799248455265
 30
0.0
 40
150.0
 41
0.0
 71
     5
 72
     1
  1
\A1;a
  7
STYLE1
 73
     1
 44
1.0
1001
ACAD
1000
MTEXTBEGIN
1070
    73
1070
     1
1070
    44
1040
1.0
1070
    74
1070
     0
1000
MTEXTEND
  0
POINT
  5
265B4
330
24545
100
AcDbEntity
  8
DEFPOINTS
 62
     0
 48
50.0
100
AcDbPoint
 10
9124.500000000091
 20
8030.25686088479
 30
0.0
  0
POINT
  5
265B5
330
24545
100
AcDbEntity
  8
DEFPOINTS
 62
     0
 48
50.0
100
AcDbPoint
 10
9173.500000000091
 20
7951.25686088479
 30
0.0
  0
POINT
  5
265B6
330
24545
100
AcDbEntity
  8
DEFPOINTS
 62
     0
 48
50.0
100
AcDbPoint
 10
9173.500000000091
 20
8738.799248455263
 30
0.0
  0
ENDBLK
  5
24551
330
24545
100
AcDbEntity
  8
0
 48
50.0
100
AcDbBlockEnd
  0
BLOCK
  5
2455E
330
24552
100
AcDbEntity
  8
0
 48
50.0
100
AcDbBlockBegin
  2
*D11
 70
     1
 10
0.0
 20
0.0
 30
0.0
  3
*D11
  1

  0
LINE
  5
265B7
330
24552
100
AcDbEntity
  8
寸法
 62
     0
 48
50.0
370
    -2
100
AcDbLine
 10
9048.500000000272
 20
8030.25686088479
 30
0.0
 11
8297.895577864052
 21
8030.25686088479
 31
0.0
  0
LINE
  5
265B8
330
24552
100
AcDbEntity
  8
寸法
 62
     0
 48
50.0
370
    -2
100
AcDbLine
 10
9148.50000000009
 20
7951.25686088479
 30
0.0
 11
8297.895577864052
 21
7951.25686088479
 31
0.0
  0
LINE
  5
265B9
330
24552
100
AcDbEntity
  8
寸法
 62
     0
 48
50.0
370
    -2
100
AcDbLine
 10
8372.895577864053
 20
8030.25686088479
 30
0.0
 11
8372.895577864053
 21
8155.25686088479
 31
0.0
  0
LINE
  5
265BA
330
24552
100
AcDbEntity
  8
寸法
 62
     0
 48
50.0
370
    -2
100
AcDbLine
 10
8372.895577864053
 20
7951.25686088479
 30
0.0
 11
8372.895577864053
 21
7826.25686088479
 31
0.0
  0
LINE
  5
265BB
330
24552
100
AcDbEntity
  8
寸法
 62
     0
 48
50.0
370
    -2
100
AcDbLine
 10
8372.895577864053
 20
8030.25686088479
 30
0.0
 11
8372.895577864053
 21
7951.25686088479
 31
0.0
  0
INSERT
  5
265BC
330
24552
100
AcDbEntity
  8
寸法
 62
     0
 48
50.0
370
    -2
100
AcDbBlockReference
  2
_DOTSMALL
 10
8372.895577864053
 20
8030.25686088479
 30
0.0
 41
125.0
 42
125.0
 43
125.0
 50
270.0
  0
INSERT
  5
265BD
330
24552
100
AcDbEntity
  8
寸法
 62
     0
 48
50.0
370
    -2
100
AcDbBlockReference
  2
_DOTSMALL
 10
8372.895577864053
 20
7951.25686088479
 30
0.0
 41
125.0
 42
125.0
 43
125.0
 50
90.0
  0
MTEXT
  5
265BE
330
24552
100
AcDbEntity
  8
寸法
 62
     7
 48
50.0
100
AcDbMText
 10
8272.89557786405
 20
7990.756860884791
 30
0.0
 40
150.0
 41
0.0
 71
     5
 72
     1
  1
\A1;c
  7
STYLE1
 11
0.0000000000000001
 21
1.0
 31
0.0
 73
     1
 44
1.0
1001
ACAD
1000
MTEXTBEGIN
1070
    73
1070
     1
1070
    44
1040
1.0
1070
    74
1070
     0
1000
MTEXTEND
  0
POINT
  5
265BF
330
24552
100
AcDbEntity
  8
DEFPOINTS
 62
     0
 48
50.0
100
AcDbPoint
 10
9073.500000000272
 20
8030.25686088479
 30
0.0
  0
POINT
  5
265C0
330
24552
100
AcDbEntity
  8
DEFPOINTS
 62
     0
 48
50.0
100
AcDbPoint
 10
9173.500000000091
 20
7951.25686088479
 30
0.0
  0
POINT
  5
265C1
330
24552
100
AcDbEntity
  8
DEFPOINTS
 62
     0
 48
50.0
100
AcDbPoint
 10
8372.895577864053
 20
7951.25686088479
 30
0.0
  0
ENDBLK
  5
2455F
330
24552
100
AcDbEntity
  8
0
 48
50.0
100
AcDbBlockEnd
  0
BLOCK
  5
2456A
330
24560
100
AcDbEntity
  8
0
 48
50.0
100
AcDbBlockBegin
  2
*D12
 70
     1
 10
0.0
 20
0.0
 30
0.0
  3
*D12
  1

  0
LINE
  5
26214
330
24560
100
AcDbEntity
  8
寸法
 62
     0
 48
50.0
370
    -2
100
AcDbLine
 10
11535.50000000009
 20
6433.256860884791
 30
0.0
 11
11881.71128886166
 21
6433.256860884791
 31
0.0
  0
LINE
  5
26215
330
24560
100
AcDbEntity
  8
寸法
 62
     0
 48
50.0
370
    -2
100
AcDbLine
 10
11535.50000000009
 20
6783.25686088479
 30
0.0
 11
11881.71128886166
 21
6783.25686088479
 31
0.0
  0
LINE
  5
26216
330
24560
100
AcDbEntity
  8
寸法
 62
     0
 48
50.0
370
    -2
100
AcDbLine
 10
11806.71128886166
 20
6433.256860884791
 30
0.0
 11
11806.71128886166
 21
6783.25686088479
 31
0.0
  0
INSERT
  5
26217
330
24560
100
AcDbEntity
  8
寸法
 62
     0
 48
50.0
370
    -2
100
AcDbBlockReference
  2
_DOTSMALL
 10
11806.71128886166
 20
6433.256860884791
 30
0.0
 41
125.0
 42
125.0
 43
125.0
 50
270.0
  0
INSERT
  5
26218
330
24560
100
AcDbEntity
  8
寸法
 62
     0
 48
50.0
370
    -2
100
AcDbBlockReference
  2
_DOTSMALL
 10
11806.71128886166
 20
6783.25686088479
 30
0.0
 41
125.0
 42
125.0
 43
125.0
 50
90.0
  0
MTEXT
  5
26219
330
24560
100
AcDbEntity
  8
寸法
 62
     7
 48
50.0
100
AcDbMText
 10
11706.71128886166
 20
6607.756860884791
 30
0.0
 40
150.0
 41
0.0
 71
     5
 72
     1
  1
\A1;350
  7
STYLE1
 11
0.0000000000000001
 21
1.0
 31
0.0
 73
     1
 44
1.0
1001
ACAD
1000
MTEXTBEGIN
1070
    73
1070
     1
1070
    44
1040
1.0
1070
    74
1070
     0
1000
MTEXTEND
  0
POINT
  5
2621A
330
24560
100
AcDbEntity
  8
DEFPOINTS
 62
     0
 48
50.0
100
AcDbPoint
 10
11510.50000000009
 20
6433.256860884791
 30
0.0
  0
POINT
  5
2621B
330
24560
100
AcDbEntity
  8
DEFPOINTS
 62
     0
 48
50.0
100
AcDbPoint
 10
11510.50000000009
 20
6783.25686088479
 30
0.0
  0
POINT
  5
2621C
330
24560
100
AcDbEntity
  8
DEFPOINTS
 62
     0
 48
50.0
100
AcDbPoint
 10
11806.71128886166
 20
6783.25686088479
 30
0.0
  0
ENDBLK
  5
2456B
330
24560
100
AcDbEntity
  8
0
 48
50.0
100
AcDbBlockEnd
  0
BLOCK
  5
24576
330
2456C
100
AcDbEntity
  8
0
 48
50.0
100
AcDbBlockBegin
  2
*D13
 70
     1
 10
0.0
 20
0.0
 30
0.0
  3
*D13
  1

  0
LINE
  5
2620B
330
2456C
100
AcDbEntity
  8
寸法
 62
     0
 48
50.0
370
    -2
100
AcDbLine
 10
11510.50000000009
 20
6408.25686088479
 30
0.0
 11
11510.50000000009
 21
6069.707283781379
 31
0.0
  0
LINE
  5
2620C
330
2456C
100
AcDbEntity
  8
寸法
 62
     0
 48
50.0
370
    -2
100
AcDbLine
 10
11160.50000000009
 20
6408.256860884789
 30
0.0
 11
11160.50000000009
 21
6069.707283781379
 31
0.0
  0
LINE
  5
2620D
330
2456C
100
AcDbEntity
  8
寸法
 62
     0
 48
50.0
370
    -2
100
AcDbLine
 10
11510.50000000009
 20
6144.707283781379
 30
0.0
 11
11160.50000000009
 21
6144.707283781379
 31
0.0
  0
INSERT
  5
2620E
330
2456C
100
AcDbEntity
  8
寸法
 62
     0
 48
50.0
370
    -2
100
AcDbBlockReference
  2
_DOTSMALL
 10
11510.50000000009
 20
6144.707283781379
 30
0.0
 41
125.0
 42
125.0
 43
125.0
  0
INSERT
  5
2620F
330
2456C
100
AcDbEntity
  8
寸法
 62
     0
 48
50.0
370
    -2
100
AcDbBlockReference
  2
_DOTSMALL
 10
11160.50000000009
 20
6144.707283781379
 30
0.0
 41
125.0
 42
125.0
 43
125.0
 50
180.0
  0
MTEXT
  5
26210
330
2456C
100
AcDbEntity
  8
寸法
 62
     7
 48
50.0
100
AcDbMText
 10
11335.50000000009
 20
6244.707283781379
 30
0.0
 40
150.0
 41
0.0
 71
     5
 72
     1
  1
\A1;350
  7
STYLE1
 73
     1
 44
1.0
1001
ACAD
1000
MTEXTBEGIN
1070
    73
1070
     1
1070
    44
1040
1.0
1070
    74
1070
     0
1000
MTEXTEND
  0
POINT
  5
26211
330
2456C
100
AcDbEntity
  8
DEFPOINTS
 62
     0
 48
50.0
100
AcDbPoint
 10
11510.50000000009
 20
6433.256860884791
 30
0.0
  0
POINT
  5
26212
330
2456C
100
AcDbEntity
  8
DEFPOINTS
 62
     0
 48
50.0
100
AcDbPoint
 10
11160.50000000009
 20
6433.256860884789
 30
0.0
  0
POINT
  5
26213
330
2456C
100
AcDbEntity
  8
DEFPOINTS
 62
     0
 48
50.0
100
AcDbPoint
 10
11160.50000000009
 20
6144.707283781379
 30
0.0
  0
ENDBLK
  5
24577
330
2456C
100
AcDbEntity
  8
0
 48
50.0
100
AcDbBlockEnd
  0
BLOCK
  5
24582
330
24578
100
AcDbEntity
  8
0
 48
50.0
100
AcDbBlockBegin
  2
*D14
 70
     1
 10
0.0
 20
0.0
 30
0.0
  3
*D14
  1

  0
LINE
  5
265DD
330
24578
100
AcDbEntity
  8
寸法
 62
     0
 48
50.0
370
    -2
100
AcDbLine
 10
11510.50000000009
 20
8051.256860884789
 30
0.0
 11
11715.80282221548
 21
8051.256860884789
 31
0.0
  0
LINE
  5
265DE
330
24578
100
AcDbEntity
  8
寸法
 62
     0
 48
50.0
370
    -2
100
AcDbLine
 10
11510.50000000009
 20
7851.256860884788
 30
0.0
 11
11715.80282221548
 21
7851.256860884788
 31
0.0
  0
LINE
  5
265DF
330
24578
100
AcDbEntity
  8
寸法
 62
     0
 48
50.0
370
    -2
100
AcDbLine
 10
11640.80282221548
 20
8051.256860884789
 30
0.0
 11
11640.80282221548
 21
7851.256860884788
 31
0.0
  0
MTEXT
  5
265E0
330
24578
100
AcDbEntity
  8
寸法
 62
     7
 48
50.0
100
AcDbMText
 10
11806.71128886166
 20
7951.256860884789
 30
0.0
 40
150.0
 41
0.0
 71
     5
 72
     1
  1
\A1;200
  7
STYLE1
 11
0.0000000000000001
 21
1.0
 31
0.0
 73
     1
 44
1.0
1001
ACAD
1000
MTEXTBEGIN
1070
    73
1070
     1
1070
    44
1040
1.0
1070
    74
1070
     0
1000
MTEXTEND
  0
INSERT
  5
265E1
330
24578
100
AcDbEntity
  8
寸法
 62
     0
 48
50.0
370
    -2
100
AcDbBlockReference
  2
_DOTSMALL
 10
11640.80282221548
 20
8051.256860884789
 30
0.0
 41
125.0
 42
125.0
 43
125.0
 50
90.0
  0
INSERT
  5
265E2
330
24578
100
AcDbEntity
  8
寸法
 62
     0
 48
50.0
370
    -2
100
AcDbBlockReference
  2
_DOTSMALL
 10
11640.80282221548
 20
7851.256860884788
 30
0.0
 41
125.0
 42
125.0
 43
125.0
 50
270.0
  0
POINT
  5
265E3
330
24578
100
AcDbEntity
  8
DEFPOINTS
 62
     0
 48
50.0
100
AcDbPoint
 10
11485.50000000009
 20
8051.256860884789
 30
0.0
  0
POINT
  5
265E4
330
24578
100
AcDbEntity
  8
DEFPOINTS
 62
     0
 48
50.0
100
AcDbPoint
 10
11485.50000000009
 20
7851.256860884788
 30
0.0
  0
POINT
  5
265E5
330
24578
100
AcDbEntity
  8
DEFPOINTS
 62
     0
 48
50.0
100
AcDbPoint
 10
11640.80282221548
 20
7851.256860884788
 30
0.0
  0
ENDBLK
  5
24583
330
24578
100
AcDbEntity
  8
0
 48
50.0
100
AcDbBlockEnd
  0
BLOCK
  5
2458D
330
24584
100
AcDbEntity
  8
0
 48
50.0
100
AcDbBlockBegin
  2
*D15
 70
     1
 10
0.0
 20
0.0
 30
0.0
  3
*D15
  1

  0
LINE
  5
26581
330
24584
100
AcDbEntity
  8
寸法
 62
     0
 48
50.0
370
    -2
100
AcDbLine
 10
10625.50000000009
 20
7976.25686088479
 30
0.0
 11
10625.50000000009
 21
8541.794218051505
 31
0.0
  0
LINE
  5
26582
330
24584
100
AcDbEntity
  8
寸法
 62
     0
 48
50.0
370
    -2
100
AcDbLine
 10
9933.500000000092
 20
8466.794218051505
 30
0.0
 11
10625.50000000009
 21
8466.794218051505
 31
0.0
  0
INSERT
  5
26583
330
24584
100
AcDbEntity
  8
寸法
 62
     0
 48
50.0
370
    -2
100
AcDbBlockReference
  2
_DOTSMALL
 10
9933.500000000092
 20
8466.794218051505
 30
0.0
 41
125.0
 42
125.0
 43
125.0
 50
180.0
  0
INSERT
  5
26584
330
24584
100
AcDbEntity
  8
寸法
 62
     0
 48
50.0
370
    -2
100
AcDbBlockReference
  2
_DOTSMALL
 10
10625.50000000009
 20
8466.794218051505
 30
0.0
 41
125.0
 42
125.0
 43
125.0
  0
MTEXT
  5
26585
330
24584
100
AcDbEntity
  8
寸法
 62
     7
 48
50.0
100
AcDbMText
 10
10279.50000000009
 20
8566.84523375751
 30
0.0
 40
150.0
 41
0.0
 71
     5
 72
     1
  1
\A1;692
  7
STYLE1
 73
     1
 44
1.0
1001
ACAD
1000
MTEXTBEGIN
1070
    73
1070
     1
1070
    44
1040
1.0
1070
    74
1070
     0
1000
MTEXTEND
  0
POINT
  5
26586
330
24584
100
AcDbEntity
  8
DEFPOINTS
 62
     0
 48
50.0
100
AcDbPoint
 10
9933.500000000092
 20
7951.25686088479
 30
0.0
  0
POINT
  5
26587
330
24584
100
AcDbEntity
  8
DEFPOINTS
 62
     0
 48
50.0
100
AcDbPoint
 10
10625.50000000009
 20
7951.25686088479
 30
0.0
  0
POINT
  5
26588
330
24584
100
AcDbEntity
  8
DEFPOINTS
 62
     0
 48
50.0
100
AcDbPoint
 10
10625.50000000009
 20
8466.794218051505
 30
0.0
  0
ENDBLK
  5
2458E
330
24584
100
AcDbEntity
  8
0
 48
50.0
100
AcDbBlockEnd
  0
BLOCK
  5
245A3
330
2459A
100
AcDbEntity
  8
0
 48
50.0
100
AcDbBlockBegin
  2
*D16
 70
     1
 10
0.0
 20
0.0
 30
0.0
  3
*D16
  1

  0
LINE
  5
265CA
330
2459A
100
AcDbEntity
  8
寸法
 62
     0
 48
50.0
370
    -2
100
AcDbLine
 10
11385.49999999991
 20
8422.81374180812
 30
0.0
 11
11385.49999999991
 21
8541.794218051505
 31
0.0
  0
LINE
  5
265CB
330
2459A
100
AcDbEntity
  8
寸法
 62
     0
 48
50.0
370
    -2
100
AcDbLine
 10
10625.50000000009
 20
8466.794218051505
 30
0.0
 11
11385.49999999991
 21
8466.794218051505
 31
0.0
  0
INSERT
  5
265CC
330
2459A
100
AcDbEntity
  8
寸法
 62
     0
 48
50.0
370
    -2
100
AcDbBlockReference
  2
_DOTSMALL
 10
10625.50000000009
 20
8466.794218051505
 30
0.0
 41
125.0
 42
125.0
 43
125.0
 50
180.0
  0
INSERT
  5
265CD
330
2459A
100
AcDbEntity
  8
寸法
 62
     0
 48
50.0
370
    -2
100
AcDbBlockReference
  2
_DOTSMALL
 10
11385.49999999991
 20
8466.794218051505
 30
0.0
 41
125.0
 42
125.0
 43
125.0
  0
MTEXT
  5
265CE
330
2459A
100
AcDbEntity
  8
寸法
 62
     7
 48
50.0
100
AcDbMText
 10
11005.5
 20
8566.794218051505
 30
0.0
 40
150.0
 41
0.0
 71
     5
 72
     1
  1
\A1;760
  7
STYLE1
 73
     1
 44
1.0
1001
ACAD
1000
MTEXTBEGIN
1070
    73
1070
     1
1070
    44
1040
1.0
1070
    74
1070
     0
1000
MTEXTEND
  0
POINT
  5
265CF
330
2459A
100
AcDbEntity
  8
DEFPOINTS
 62
     0
 48
50.0
100
AcDbPoint
 10
10625.50000000009
 20
7951.25686088479
 30
0.0
  0
POINT
  5
265D0
330
2459A
100
AcDbEntity
  8
DEFPOINTS
 62
     0
 48
50.0
100
AcDbPoint
 10
11385.49999999991
 20
8397.81374180812
 30
0.0
  0
POINT
  5
265D1
330
2459A
100
AcDbEntity
  8
DEFPOINTS
 62
     0
 48
50.0
100
AcDbPoint
 10
11385.49999999991
 20
8466.794218051505
 30
0.0
  0
ENDBLK
  5
245A4
330
2459A
100
AcDbEntity
  8
0
 48
50.0
100
AcDbBlockEnd
  0
BLOCK
  5
245B1
330
245A5
100
AcDbEntity
  8
0
 48
50.0
100
AcDbBlockBegin
  2
*D17
 70
     1
 10
0.0
 20
0.0
 30
0.0
  3
*D17
  1

  0
LINE
  5
265D2
330
245A5
100
AcDbEntity
  8
寸法
 62
     0
 48
50.0
370
    -2
100
AcDbLine
 10
11285.50000000009
 20
8076.256860884788
 30
0.0
 11
11285.50000000009
 21
8282.904264638567
 31
0.0
  0
LINE
  5
265D3
330
245A5
100
AcDbEntity
  8
寸法
 62
     0
 48
50.0
370
    -2
100
AcDbLine
 10
11485.50000000009
 20
8076.256860884788
 30
0.0
 11
11485.50000000009
 21
8282.904264638567
 31
0.0
  0
LINE
  5
265D4
330
245A5
100
AcDbEntity
  8
寸法
 62
     0
 48
50.0
370
    -2
100
AcDbLine
 10
11285.50000000009
 20
8207.904264638568
 30
0.0
 11
11160.50000000009
 21
8207.904264638568
 31
0.0
  0
LINE
  5
265D5
330
245A5
100
AcDbEntity
  8
寸法
 62
     0
 48
50.0
370
    -2
100
AcDbLine
 10
11485.50000000009
 20
8207.904264638568
 30
0.0
 11
11610.50000000009
 21
8207.904264638568
 31
0.0
  0
LINE
  5
265D6
330
245A5
100
AcDbEntity
  8
寸法
 62
     0
 48
50.0
370
    -2
100
AcDbLine
 10
11285.50000000009
 20
8207.904264638568
 30
0.0
 11
11485.50000000009
 21
8207.904264638568
 31
0.0
  0
INSERT
  5
265D7
330
245A5
100
AcDbEntity
  8
寸法
 62
     0
 48
50.0
370
    -2
100
AcDbBlockReference
  2
_DOTSMALL
 10
11285.50000000009
 20
8207.904264638568
 30
0.0
 41
125.0
 42
125.0
 43
125.0
  0
INSERT
  5
265D8
330
245A5
100
AcDbEntity
  8
寸法
 62
     0
 48
50.0
370
    -2
100
AcDbBlockReference
  2
_DOTSMALL
 10
11485.50000000009
 20
8207.904264638568
 30
0.0
 41
125.0
 42
125.0
 43
125.0
 50
180.0
  0
MTEXT
  5
265D9
330
245A5
100
AcDbEntity
  8
寸法
 62
     7
 48
50.0
100
AcDbMText
 10
11385.50000000009
 20
8307.919028418096
 30
0.0
 40
150.0
 41
0.0
 71
     5
 72
     1
  1
\A1;200
  7
STYLE1
 73
     1
 44
1.0
1001
ACAD
1000
MTEXTBEGIN
1070
    73
1070
     1
1070
    44
1040
1.0
1070
    74
1070
     0
1000
MTEXTEND
  0
POINT
  5
265DA
330
245A5
100
AcDbEntity
  8
DEFPOINTS
 62
     0
 48
50.0
100
AcDbPoint
 10
11285.50000000009
 20
8051.256860884789
 30
0.0
  0
POINT
  5
265DB
330
245A5
100
AcDbEntity
  8
DEFPOINTS
 62
     0
 48
50.0
100
AcDbPoint
 10
11485.50000000009
 20
8051.256860884789
 30
0.0
  0
POINT
  5
265DC
330
245A5
100
AcDbEntity
  8
DEFPOINTS
 62
     0
 48
50.0
100
AcDbPoint
 10
11485.50000000009
 20
8207.904264638568
 30
0.0
  0
ENDBLK
  5
245B2
330
245A5
100
AcDbEntity
  8
0
 48
50.0
100
AcDbBlockEnd
  0
BLOCK
  5
245BE
330
245B3
100
AcDbEntity
  8
0
 48
50.0
100
AcDbBlockBegin
  2
*D18
 70
     1
 10
0.0
 20
0.0
 30
0.0
  3
*D18
  1

  0
LINE
  5
265E6
330
245B3
100
AcDbEntity
  8
寸法
 62
     0
 48
50.0
370
    -2
100
AcDbLine
 10
11385.49999999991
 20
8422.81374180812
 30
0.0
 11
11385.49999999991
 21
8813.799248455264
 31
0.0
  0
LINE
  5
265E7
330
245B3
100
AcDbEntity
  8
寸法
 62
     0
 48
50.0
370
    -2
100
AcDbLine
 10
11434.49999999991
 20
8422.86288226167
 30
0.0
 11
11434.49999999991
 21
8813.799248455264
 31
0.0
  0
LINE
  5
265E8
330
245B3
100
AcDbEntity
  8
寸法
 62
     0
 48
50.0
370
    -2
100
AcDbLine
 10
11385.49999999991
 20
8738.799248455263
 30
0.0
 11
11260.49999999991
 21
8738.799248455263
 31
0.0
  0
LINE
  5
265E9
330
245B3
100
AcDbEntity
  8
寸法
 62
     0
 48
50.0
370
    -2
100
AcDbLine
 10
11434.49999999991
 20
8738.799248455263
 30
0.0
 11
11799.93655300605
 21
8738.799248455263
 31
0.0
  0
LINE
  5
265EA
330
245B3
100
AcDbEntity
  8
寸法
 62
     0
 48
50.0
370
    -2
100
AcDbLine
 10
11385.49999999991
 20
8738.799248455263
 30
0.0
 11
11434.49999999991
 21
8738.799248455263
 31
0.0
  0
INSERT
  5
265EB
330
245B3
100
AcDbEntity
  8
寸法
 62
     0
 48
50.0
370
    -2
100
AcDbBlockReference
  2
_DOTSMALL
 10
11385.49999999991
 20
8738.799248455263
 30
0.0
 41
125.0
 42
125.0
 43
125.0
  0
INSERT
  5
265EC
330
245B3
100
AcDbEntity
  8
寸法
 62
     0
 48
50.0
370
    -2
100
AcDbBlockReference
  2
_DOTSMALL
 10
11434.49999999991
 20
8738.799248455263
 30
0.0
 41
125.0
 42
125.0
 43
125.0
 50
180.0
  0
MTEXT
  5
265ED
330
245B3
100
AcDbEntity
  8
寸法
 62
     7
 48
50.0
100
AcDbMText
 10
11742.21827650298
 20
8838.799248455265
 30
0.0
 40
150.0
 41
0.0
 71
     5
 72
     1
  1
\A1;a
  7
STYLE1
 73
     1
 44
1.0
1001
ACAD
1000
MTEXTBEGIN
1070
    73
1070
     1
1070
    44
1040
1.0
1070
    74
1070
     0
1000
MTEXTEND
  0
POINT
  5
265EE
330
245B3
100
AcDbEntity
  8
DEFPOINTS
 62
     0
 48
50.0
100
AcDbPoint
 10
11385.49999999991
 20
8397.81374180812
 30
0.0
  0
POINT
  5
265EF
330
245B3
100
AcDbEntity
  8
DEFPOINTS
 62
     0
 48
50.0
100
AcDbPoint
 10
11434.49999999991
 20
8397.862882261669
 30
0.0
  0
POINT
  5
265F0
330
245B3
100
AcDbEntity
  8
DEFPOINTS
 62
     0
 48
50.0
100
AcDbPoint
 10
11434.49999999991
 20
8738.799248455263
 30
0.0
  0
ENDBLK
  5
245BF
330
245B3
100
AcDbEntity
  8
0
 48
50.0
100
AcDbBlockEnd
  0
BLOCK
  5
245CA
330
245C0
100
AcDbEntity
  8
0
 48
50.0
100
AcDbBlockBegin
  2
*D19
 70
     1
 10
0.0
 20
0.0
 30
0.0
  3
*D19
  1

  0
LINE
  5
24BA1
330
245C0
100
AcDbEntity
  8
寸法
 62
     0
 48
50.0
370
    -2
100
AcDbLine
 10
8063.381463585221
 20
685.1879678114191
 30
0.0
 11
7158.528134205872
 21
685.1879678114195
 31
0.0
  0
LINE
  5
24BA2
330
245C0
100
AcDbEntity
  8
寸法
 62
     0
 48
50.0
370
    -2
100
AcDbLine
 10
7574.656226769878
 20
1285.187967811419
 30
0.0
 11
7158.528134205872
 21
1285.187967811419
 31
0.0
  0
LINE
  5
24BA3
330
245C0
100
AcDbEntity
  8
寸法
 62
     0
 48
50.0
370
    -2
100
AcDbLine
 10
7233.528134205872
 20
685.1879678114194
 30
0.0
 11
7233.528134205872
 21
1285.187967811419
 31
0.0
  0
INSERT
  5
24BA4
330
245C0
100
AcDbEntity
  8
寸法
 62
     0
 48
50.0
370
    -2
100
AcDbBlockReference
  2
_DOTSMALL
 10
7233.528134205872
 20
685.1879678114194
 30
0.0
 41
125.0
 42
125.0
 43
125.0
 50
270.0
  0
INSERT
  5
24BA5
330
245C0
100
AcDbEntity
  8
寸法
 62
     0
 48
50.0
370
    -2
100
AcDbBlockReference
  2
_DOTSMALL
 10
7233.528134205872
 20
1285.187967811419
 30
0.0
 41
125.0
 42
125.0
 43
125.0
 50
90.0
  0
MTEXT
  5
24BA6
330
245C0
100
AcDbEntity
  8
寸法
 62
     7
 48
50.0
100
AcDbMText
 10
7133.528134205872
 20
1005.557081074304
 30
0.0
 40
150.0
 41
0.0
 71
     5
 72
     1
  1
\A1;300
  7
STYLE1
 11
0.0000000000000001
 21
1.0
 31
0.0
 73
     1
 44
1.0
1001
ACAD
1000
MTEXTBEGIN
1070
    73
1070
     1
1070
    44
1040
1.0
1070
    74
1070
     0
1000
MTEXTEND
  0
POINT
  5
24BA7
330
245C0
100
AcDbEntity
  8
DEFPOINTS
 62
     0
 48
50.0
100
AcDbPoint
 10
8088.38146358522
 20
685.1879678114191
 30
0.0
  0
POINT
  5
24BA8
330
245C0
100
AcDbEntity
  8
DEFPOINTS
 62
     0
 48
50.0
100
AcDbPoint
 10
7599.656226769877
 20
1285.187967811419
 30
0.0
  0
POINT
  5
24BA9
330
245C0
100
AcDbEntity
  8
DEFPOINTS
 62
     0
 48
50.0
100
AcDbPoint
 10
7233.528134205872
 20
1285.187967811419
 30
0.0
  0
ENDBLK
  5
245CB
330
245C0
100
AcDbEntity
  8
0
 48
50.0
100
AcDbBlockEnd
  0
BLOCK
  5
245D6
330
245CC
100
AcDbEntity
  8
0
 48
50.0
100
AcDbBlockBegin
  2
*D20
 70
     1
 10
0.0
 20
0.0
 30
0.0
  3
*D20
  1

  0
LINE
  5
24B98
330
245CC
100
AcDbEntity
  8
寸法
 62
     0
 48
50.0
370
    -2
100
AcDbLine
 10
8303.381463585219
 20
1485.187967811419
 30
0.0
 11
7786.745174064773
 21
1485.187967811419
 31
0.0
  0
LINE
  5
24B99
330
245CC
100
AcDbEntity
  8
寸法
 62
     0
 48
50.0
370
    -2
100
AcDbLine
 10
8303.381463585219
 20
835.1879678114192
 30
0.0
 11
7786.745174064773
 21
835.1879678114192
 31
0.0
  0
LINE
  5
24B9A
330
245CC
100
AcDbEntity
  8
寸法
 62
     0
 48
50.0
370
    -2
100
AcDbLine
 10
7861.745174064772
 20
1485.187967811419
 30
0.0
 11
7861.745174064772
 21
835.1879678114192
 31
0.0
  0
INSERT
  5
24B9B
330
245CC
100
AcDbEntity
  8
寸法
 62
     0
 48
50.0
370
    -2
100
AcDbBlockReference
  2
_DOTSMALL
 10
7861.745174064772
 20
1485.187967811419
 30
0.0
 41
125.0
 42
125.0
 43
125.0
 50
90.0
  0
INSERT
  5
24B9C
330
245CC
100
AcDbEntity
  8
寸法
 62
     0
 48
50.0
370
    -2
100
AcDbBlockReference
  2
_DOTSMALL
 10
7861.745174064772
 20
835.1879678114192
 30
0.0
 41
125.0
 42
125.0
 43
125.0
 50
270.0
  0
MTEXT
  5
24B9D
330
245CC
100
AcDbEntity
  8
寸法
 62
     7
 48
50.0
100
AcDbMText
 10
7761.745174064772
 20
1105.480611396759
 30
0.0
 40
150.0
 41
0.0
 71
     5
 72
     1
  1
\A1;350
  7
STYLE1
 11
0.0000000000000001
 21
1.0
 31
0.0
 73
     1
 44
1.0
1001
ACAD
1000
MTEXTBEGIN
1070
    73
1070
     1
1070
    44
1040
1.0
1070
    74
1070
     0
1000
MTEXTEND
  0
POINT
  5
24B9E
330
245CC
100
AcDbEntity
  8
DEFPOINTS
 62
     0
 48
50.0
100
AcDbPoint
 10
8328.38146358522
 20
1485.187967811419
 30
0.0
  0
POINT
  5
24B9F
330
245CC
100
AcDbEntity
  8
DEFPOINTS
 62
     0
 48
50.0
100
AcDbPoint
 10
8328.38146358522
 20
835.1879678114192
 30
0.0
  0
POINT
  5
24BA0
330
245CC
100
AcDbEntity
  8
DEFPOINTS
 62
     0
 48
50.0
100
AcDbPoint
 10
7861.745174064772
 20
835.1879678114192
 30
0.0
  0
ENDBLK
  5
245D7
330
245CC
100
AcDbEntity
  8
0
 48
50.0
100
AcDbBlockEnd
  0
BLOCK
  5
245E2
330
245D8
100
AcDbEntity
  8
0
 48
50.0
100
AcDbBlockBegin
  2
*D21
 70
     1
 10
0.0
 20
0.0
 30
0.0
  3
*D21
  1

  0
LINE
  5
24BAA
330
245D8
100
AcDbEntity
  8
寸法
 62
     0
 48
50.0
370
    -2
100
AcDbLine
 10
9801.220012528261
 20
1285.187967811421
 30
0.0
 11
9644.754645344967
 21
1285.187967811421
 31
0.0
  0
LINE
  5
24BAB
330
245D8
100
AcDbEntity
  8
寸法
 62
     0
 48
50.0
370
    -2
100
AcDbLine
 10
9924.973385238793
 20
685.1879678114191
 30
0.0
 11
9644.754645344967
 21
685.1879678114191
 31
0.0
  0
LINE
  5
24BAC
330
245D8
100
AcDbEntity
  8
寸法
 62
     0
 48
50.0
370
    -2
100
AcDbLine
 10
9719.754645344968
 20
1285.187967811421
 30
0.0
 11
9719.754645344968
 21
685.1879678114191
 31
0.0
  0
INSERT
  5
24BAD
330
245D8
100
AcDbEntity
  8
寸法
 62
     0
 48
50.0
370
    -2
100
AcDbBlockReference
  2
_DOTSMALL
 10
9719.754645344968
 20
1285.187967811421
 30
0.0
 41
125.0
 42
125.0
 43
125.0
 50
90.0
  0
INSERT
  5
24BAE
330
245D8
100
AcDbEntity
  8
寸法
 62
     0
 48
50.0
370
    -2
100
AcDbBlockReference
  2
_DOTSMALL
 10
9719.754645344968
 20
685.1879678114191
 30
0.0
 41
125.0
 42
125.0
 43
125.0
 50
270.0
  0
MTEXT
  5
24BAF
330
245D8
100
AcDbEntity
  8
寸法
 62
     7
 48
50.0
100
AcDbMText
 10
9619.73988156544
 20
985.1879678114217
 30
0.0
 40
150.0
 41
0.0
 71
     5
 72
     1
  1
\A1;200
  7
STYLE1
 11
0.0000000000000001
 21
1.0
 31
0.0
 73
     1
 44
1.0
1001
ACAD
1000
MTEXTBEGIN
1070
    73
1070
     1
1070
    44
1040
1.0
1070
    74
1070
     0
1000
MTEXTEND
  0
POINT
  5
24BB0
330
245D8
100
AcDbEntity
  8
DEFPOINTS
 62
     0
 48
50.0
100
AcDbPoint
 10
9826.22001252826
 20
1285.187967811421
 30
0.0
  0
POINT
  5
24BB1
330
245D8
100
AcDbEntity
  8
DEFPOINTS
 62
     0
 48
50.0
100
AcDbPoint
 10
9949.973385238793
 20
685.1879678114191
 30
0.0
  0
POINT
  5
24BB2
330
245D8
100
AcDbEntity
  8
DEFPOINTS
 62
     0
 48
50.0
100
AcDbPoint
 10
9719.754645344968
 20
685.1879678114191
 30
0.0
  0
ENDBLK
  5
245E3
330
245D8
100
AcDbEntity
  8
0
 48
50.0
100
AcDbBlockEnd
  0
BLOCK
  5
245EE
330
245E4
100
AcDbEntity
  8
0
 48
50.0
100
AcDbBlockBegin
  2
*D22
 70
     1
 10
0.0
 20
0.0
 30
0.0
  3
*D22
  1

  0
LINE
  5
24BB3
330
245E4
100
AcDbEntity
  8
寸法
 62
     0
 48
50.0
370
    -2
100
AcDbLine
 10
12025.56311996842
 20
1776.230276739118
 30
0.0
 11
12310.50584395843
 21
1776.230276739118
 31
0.0
  0
LINE
  5
24BB4
330
245E4
100
AcDbEntity
  8
寸法
 62
     0
 48
50.0
370
    -2
100
AcDbLine
 10
12365.01235686292
 20
1576.230276739116
 30
0.0
 11
12160.50584395844
 21
1576.230276739116
 31
0.0
  0
LINE
  5
24BB5
330
245E4
100
AcDbEntity
  8
寸法
 62
     0
 48
50.0
370
    -2
100
AcDbLine
 10
12235.50584395844
 20
1776.230276739118
 30
0.0
 11
12235.50584395844
 21
1576.230276739116
 31
0.0
  0
INSERT
  5
24BB6
330
245E4
100
AcDbEntity
  8
寸法
 62
     0
 48
50.0
370
    -2
100
AcDbBlockReference
  2
_DOTSMALL
 10
12235.50584395844
 20
1776.230276739118
 30
0.0
 41
125.0
 42
125.0
 43
125.0
 50
90.0
  0
INSERT
  5
24BB7
330
245E4
100
AcDbEntity
  8
寸法
 62
     0
 48
50.0
370
    -2
100
AcDbBlockReference
  2
_DOTSMALL
 10
12235.50584395844
 20
1576.230276739116
 30
0.0
 41
125.0
 42
125.0
 43
125.0
 50
270.0
  0
MTEXT
  5
24BB8
330
245E4
100
AcDbEntity
  8
寸法
 62
     7
 48
50.0
100
AcDbMText
 10
12135.50584395844
 20
1664.827349887956
 30
0.0
 40
150.0
 41
0.0
 71
     5
 72
     1
  1
\A1;a
  7
STYLE1
 11
0.0000000000000001
 21
1.0
 31
0.0
 73
     1
 44
1.0
1001
ACAD
1000
MTEXTBEGIN
1070
    73
1070
     1
1070
    44
1040
1.0
1070
    74
1070
     0
1000
MTEXTEND
  0
POINT
  5
24BB9
330
245E4
100
AcDbEntity
  8
DEFPOINTS
 62
     0
 48
50.0
100
AcDbPoint
 10
12000.56311996843
 20
1776.230276739118
 30
0.0
  0
POINT
  5
24BBA
330
245E4
100
AcDbEntity
  8
DEFPOINTS
 62
     0
 48
50.0
100
AcDbPoint
 10
12390.01235686292
 20
1576.230276739116
 30
0.0
  0
POINT
  5
24BBB
330
245E4
100
AcDbEntity
  8
DEFPOINTS
 62
     0
 48
50.0
100
AcDbPoint
 10
12235.50584395844
 20
1576.230276739116
 30
0.0
  0
ENDBLK
  5
245EF
330
245E4
100
AcDbEntity
  8
0
 48
50.0
100
AcDbBlockEnd
  0
BLOCK
  5
245FA
330
245F0
100
AcDbEntity
  8
0
 48
50.0
100
AcDbBlockBegin
  2
*D23
 70
     1
 10
0.0
 20
0.0
 30
0.0
  3
*D23
  1

  0
LINE
  5
24BBC
330
245F0
100
AcDbEntity
  8
寸法
 62
     0
 48
50.0
370
    -2
100
AcDbLine
 10
14157.73947339999
 20
1776.230276739118
 30
0.0
 11
14506.70268173461
 21
1776.230276739118
 31
0.0
  0
LINE
  5
24BBD
330
245F0
100
AcDbEntity
  8
寸法
 62
     0
 48
50.0
370
    -2
100
AcDbLine
 10
14507.62838149032
 20
1476.230276739118
 30
0.0
 11
14356.70268173462
 21
1476.230276739118
 31
0.0
  0
LINE
  5
24BBE
330
245F0
100
AcDbEntity
  8
寸法
 62
     0
 48
50.0
370
    -2
100
AcDbLine
 10
14431.70268173462
 20
1776.230276739118
 30
0.0
 11
14431.70268173462
 21
1476.230276739118
 31
0.0
  0
INSERT
  5
24BBF
330
245F0
100
AcDbEntity
  8
寸法
 62
     0
 48
50.0
370
    -2
100
AcDbBlockReference
  2
_DOTSMALL
 10
14431.70268173462
 20
1776.230276739118
 30
0.0
 41
125.0
 42
125.0
 43
125.0
 50
90.0
  0
INSERT
  5
24BC0
330
245F0
100
AcDbEntity
  8
寸法
 62
     0
 48
50.0
370
    -2
100
AcDbBlockReference
  2
_DOTSMALL
 10
14431.70268173462
 20
1476.230276739118
 30
0.0
 41
125.0
 42
125.0
 43
125.0
 50
270.0
  0
MTEXT
  5
24BC1
330
245F0
100
AcDbEntity
  8
寸法
 62
     7
 48
50.0
100
AcDbMText
 10
14331.70268173462
 20
1626.230276739118
 30
0.0
 40
150.0
 41
0.0
 71
     5
 72
     1
  1
\A1;b
  7
STYLE1
 11
0.0000000000000001
 21
1.0
 31
0.0
 73
     1
 44
1.0
1001
ACAD
1000
MTEXTBEGIN
1070
    73
1070
     1
1070
    44
1040
1.0
1070
    74
1070
     0
1000
MTEXTEND
  0
POINT
  5
24BC2
330
245F0
100
AcDbEntity
  8
DEFPOINTS
 62
     0
 48
50.0
100
AcDbPoint
 10
14132.73947339999
 20
1776.230276739118
 30
0.0
  0
POINT
  5
24BC3
330
245F0
100
AcDbEntity
  8
DEFPOINTS
 62
     0
 48
50.0
100
AcDbPoint
 10
14532.62838149033
 20
1476.230276739118
 30
0.0
  0
POINT
  5
24BC4
330
245F0
100
AcDbEntity
  8
DEFPOINTS
 62
     0
 48
50.0
100
AcDbPoint
 10
14431.70268173462
 20
1476.230276739118
 30
0.0
  0
ENDBLK
  5
245FB
330
245F0
100
AcDbEntity
  8
0
 48
50.0
100
AcDbBlockEnd
  0
ENDSEC
  0
SECTION
  2
ENTITIES
  0
MTEXT
  5
763F
330
747D
100
AcDbEntity
  8
0
100
AcDbMText
 10
302.846345836809
 20
280.1983726409901
 30
0.0
 40
3.5
 41
5.323721266742722
 71
     1
 72
     5
  1

  7
MSMINCHO
 73
     1
 44
1.0
1001
ACAD
1000
MTEXTBEGIN
1070
    73
1070
     1
1070
    44
1040
1.0
1070
    74
1070
     0
1000
MTEXTEND
  0
INSERT
  5
F235
330
747D
100
AcDbEntity
  8
0
100
AcDbBlockReference
  2
作図枠S50
 10
0.0
 20
0.0
 30
0.0
  0
LINE
  5
10B56
330
747D
100
AcDbEntity
  8
補助
  6
PHANTOM
 62
   230
 48
50.0
100
AcDbLine
 10
175.0
 20
0.0
 30
0.0
 11
174.9999999999993
 21
14262.0
 31
0.0
  0
LINE
  5
10B57
330
747D
100
AcDbEntity
  8
補助
  6
PHANTOM
 62
   230
 48
50.0
100
AcDbLine
 10
174.9999999999993
 20
14262.0
 30
0.0
 11
20384.0
 21
14262.0
 31
0.0
  0
LINE
  5
10B5C
330
747D
100
AcDbEntity
  8
仕様書枠
 48
50.0
100
AcDbLine
 10
20384.0
 20
1500.0
 30
0.0
 11
20384.0
 21
-0.0000000000001137
 31
0.0
  0
LINE
  5
10B5D
330
747D
100
AcDbEntity
  8
仕様書枠
 48
50.0
100
AcDbLine
 10
175.0
 20
0.0
 30
0.0
 11
20384.0
 21
-0.0000000000001137
 31
0.0
  0
LINE
  5
10B5E
330
747D
100
AcDbEntity
  8
補助
  6
PHANTOM
 62
   230
 48
50.0
100
AcDbLine
 10
20384.0
 20
14262.0
 30
0.0
 11
20384.0
 21
1500.0
 31
0.0
  0
LINE
  5
10B6C
330
747D
100
AcDbEntity
  8
仕様書枠
 48
50.0
100
AcDbLine
 10
16384.0
 20
1500.0
 30
0.0
 11
20384.0
 21
1500.0
 31
0.0
  0
LINE
  5
10B6D
330
747D
100
AcDbEntity
  8
補助
  6
PHANTOM
 62
   230
 48
50.0
100
AcDbLine
 10
16384.0
 20
14262.0
 30
0.0
 11
16384.0
 21
6000.0
 31
0.0
  0
LINE
  5
10B6F
330
747D
100
AcDbEntity
  8
補助
  6
PHANTOM
 62
   230
 48
50.0
100
AcDbLine
 10
16384.0
 20
6000.0
 30
0.0
 11
20384.0
 21
6000.0
 31
0.0
  0
LINE
  5
10B72
330
747D
100
AcDbEntity
  8
文字
 62
     7
 48
50.0
100
AcDbLine
 10
16484.0
 20
500.0
 30
0.0
 11
20284.0
 21
500.0
 31
0.0
  0
TEXT
  5
10B73
330
747D
100
AcDbEntity
  8
文字
 62
     7
 48
50.0
100
AcDbText
 10
16453.72382072112
 20
1118.863259287425
 30
0.0
 40
250.0
  1
基 礎 図
  7
STYLE2
100
AcDbText
  0
LINE
  5
10B7B
330
747D
100
AcDbEntity
  8
仕様書枠
 48
50.0
100
AcDbLine
 10
16384.0
 20
1000.0
 30
0.0
 11
17814.0
 21
1000.0
 31
0.0
  0
LINE
  5
10B88
330
747D
100
AcDbEntity
  8
仕様書枠
  6
Continuous
 48
50.0
100
AcDbLine
 10
17814.0
 20
1500.0
 30
0.0
 11
17814.0
 21
1000.0
 31
0.0
  0
TEXT
  5
10BB0
330
747D
100
AcDbEntity
  8
文字
 62
     7
 48
50.0
100
AcDbText
 10
17799.22747163624
 20
604.8708912389265
 30
0.0
 40
200.0
  1
ＦＸＮ-３０ＨＹ
  7
STYLE2
100
AcDbText
  0
TEXT
  5
17483
330
747D
100
AcDbEntity
  8
文字
 62
     7
 48
50.0
100
AcDbText
 10
16511.75668531126
 20
270.5931184260625
 30
0.0
 40
100.0
  1
※寒冷地等は、地域の実情に合わせた基礎にしてください。
  7
STYLE2
100
AcDbText
  0
LINE
  5
17484
330
747D
100
AcDbEntity
  8
仕様書枠
  6
Continuous
 48
50.0
100
AcDbLine
 10
16384.00000503976
 20
1499.999992498709
 30
0.0
 11
16384.00000503976
 21
-0.0000075012905659
 31
0.0
  0
TEXT
  5
1A873
330
747D
100
AcDbEntity
  8
文字
 62
     7
 48
50.0
100
AcDbText
 10
18155.16479652749
 20
1289.447132864036
 30
0.0
 40
125.0
  1
NO.01      <縮尺> S=1/50
  7
STYLE2
100
AcDbText
  0
TEXT
  5
1A874
330
747D
100
AcDbEntity
  8
文字
 62
     7
 48
50.0
100
AcDbText
 10
18282.32565866817
 20
1089.955080760453
 30
0.0
 40
125.0
  1
～一般型･多雪地型～
  7
STYLE2
100
AcDbText
  0
TEXT
  5
1A875
330
747D
100
AcDbEntity
  8
文字
 62
     7
 48
50.0
100
AcDbText
 10
16501.79587498051
 20
596.5925826289069
 30
0.0
 40
200.0
  1
機種名
  7
STYLE2
100
AcDbText
  0
DIMENSION
  5
24172
330
747D
100
AcDbEntity
  8
寸法
 48
50.0
100
AcDbDimension
  2
*D3
 10
8372.895577864053
 20
6520.256860884791
 30
0.0
 11
8272.89557786405
 21
6549.756860884791
 31
0.0
 70
    32
  1
b
 71
     5
 42
59.0
  3
INABA_S50G
100
AcDbAlignedDimension
 13
9373.50000000009
 23
6579.25686088479
 33
0.0
 14
8623.429938063452
 24
6520.256860884791
 34
0.0
 50
90.0
100
AcDbRotatedDimension
1001
ACAD
1000
DSTYLE
1002
{
1070
    40
1040
1.0
1002
}
  0
LINE
  5
24173
330
747D
100
AcDbEntity
  8
想像線
 48
10.0
100
AcDbLine
 10
10069.49999999991
 20
6520.256860884791
 30
0.0
 11
9124.500000000091
 21
6520.256860884791
 31
0.0
  0
LINE
  5
24174
330
747D
100
AcDbEntity
  8
想像線
 48
10.0
100
AcDbLine
 10
10489.49999999991
 20
8030.25686088479
 30
0.0
 11
9124.500000000091
 21
8030.25686088479
 31
0.0
  0
LINE
  5
24175
330
747D
100
AcDbEntity
  8
部品1
 48
50.0
100
AcDbLine
 10
9373.50000000009
 20
7165.256860884788
 30
0.0
 11
9173.500000000089
 21
7165.256860884788
 31
0.0
  0
LINE
  5
24176
330
747D
100
AcDbEntity
  8
部品1
 48
50.0
100
AcDbLine
 10
9373.50000000009
 20
7365.256860884788
 30
0.0
 11
9173.500000000089
 21
7365.256860884788
 31
0.0
  0
LINE
  5
24177
330
747D
100
AcDbEntity
  8
部品1
 48
50.0
100
AcDbLine
 10
9573.500000000091
 20
7951.256860884787
 30
0.0
 11
9173.500000000091
 21
7951.25686088479
 31
0.0
  0
LINE
  5
24178
330
747D
100
AcDbEntity
  8
部品1
 48
50.0
100
AcDbLine
 10
9573.500000000091
 20
7951.25686088479
 30
0.0
 11
9173.500000000091
 21
7951.25686088479
 31
0.0
  0
LINE
  5
24179
330
747D
100
AcDbEntity
  8
部品1
 48
50.0
100
AcDbLine
 10
9573.500000000091
 20
7751.25686088479
 30
0.0
 11
9173.500000000091
 21
7751.25686088479
 31
0.0
  0
LINE
  5
2417E
330
747D
100
AcDbEntity
  8
部品1
 48
50.0
100
AcDbLine
 10
9373.50000000009
 20
7036.25686088479
 30
0.0
 11
9173.500000000091
 21
7036.25686088479
 31
0.0
  0
LINE
  5
2417F
330
747D
100
AcDbEntity
  8
点線
 48
10.0
100
AcDbLine
 10
9173.500000000091
 20
6783.25686088479
 30
0.0
 11
9373.50000000009
 21
6783.25686088479
 31
0.0
  0
LINE
  5
24180
330
747D
100
AcDbEntity
  8
部品1
 48
50.0
100
AcDbLine
 10
9373.50000000009
 20
6636.256860884791
 30
0.0
 11
9173.500000000091
 21
6636.256860884791
 31
0.0
  0
LINE
  5
24181
330
747D
100
AcDbEntity
  8
部品1
 48
10.0
100
AcDbLine
 10
9398.50000000009
 20
6433.256860884791
 30
0.0
 11
9048.500000000091
 21
6433.256860884789
 31
0.0
  0
LINE
  5
24182
330
747D
100
AcDbEntity
  8
センター
 48
8.0
100
AcDbLine
 10
9023.50000000009
 20
6608.25686088479
 30
0.0
 11
9423.500000000091
 21
6608.25686088479
 31
0.0
  0
DIMENSION
  5
24183
330
747D
100
AcDbEntity
  8
寸法
 48
50.0
100
AcDbDimension
  2
*D4
 10
8623.429938063452
 20
6636.256860884791
 30
0.0
 11
8623.42993806345
 21
6342.268671908416
 31
0.0
 70
   160
 71
     5
 42
56.99999999999636
  3
INABA_S50G
100
AcDbAlignedDimension
 13
9373.50000000009
 23
6579.256860884794
 33
0.0
 14
9173.500000000091
 24
6636.256860884791
 34
0.0
 50
90.0
100
AcDbRotatedDimension
1001
ACAD
1000
DSTYLE
1002
{
1070
    40
1040
1.0
1002
}
  0
DIMENSION
  5
24184
330
747D
100
AcDbEntity
  8
寸法
 48
50.0
100
AcDbDimension
  2
*D5
 10
8372.895577864053
 20
6579.25686088479
 30
0.0
 11
8272.880814084523
 21
7265.256860884791
 31
0.0
 70
    32
 71
     5
 42
1372.0
  3
INABA_S50G
100
AcDbAlignedDimension
 13
9173.500000000091
 23
7951.25686088479
 33
0.0
 14
9373.50000000009
 24
6579.25686088479
 34
0.0
 50
90.0
100
AcDbRotatedDimension
1001
ACAD
1000
DSTYLE
1002
{
1070
    40
1040
1.0
1002
}
  0
DIMENSION
  5
24185
330
747D
100
AcDbEntity
  8
寸法
 48
50.0
100
AcDbDimension
  2
*D6
 10
11385.49999999991
 20
8738.799248455263
 30
0.0
 11
10279.5
 21
8838.81401223479
 31
0.0
 70
    32
 71
     5
 42
2211.999999999818
  3
INABA_S50G
100
AcDbAlignedDimension
 13
9173.500000000091
 23
7951.25686088479
 33
0.0
 14
11385.49999999991
 24
8397.81374180812
 34
0.0
100
AcDbRotatedDimension
1001
ACAD
1000
DSTYLE
1002
{
1070
    40
1040
1.0
1002
}
  0
DIMENSION
  5
24186
330
747D
100
AcDbEntity
  8
寸法
 48
50.0
100
AcDbDimension
  2
*D7
 10
9933.500000000092
 20
8466.794218051505
 30
0.0
 11
9553.50000000009
 21
8566.794218051505
 31
0.0
 70
    32
 71
     5
 42
760.0
  3
INABA_S50G
100
AcDbAlignedDimension
 13
9173.500000000091
 23
7951.25686088479
 33
0.0
 14
9933.500000000092
 24
7951.25686088479
 34
0.0
100
AcDbRotatedDimension
1001
ACAD
1000
DSTYLE
1002
{
1070
    40
1040
1.0
1070
    75
1070
     1
1070
   279
1070
     2
1002
}
  0
LINE
  5
24187
330
747D
100
AcDbEntity
  8
想像線
 48
10.0
100
AcDbLine
 10
9124.500000000091
 20
6520.256860884791
 30
0.0
 11
9124.500000000091
 21
8030.25686088479
 31
0.0
  0
DIMENSION
  5
24189
330
747D
100
AcDbEntity
  8
寸法
 48
50.0
100
AcDbDimension
  2
*D8
 10
8623.42993806345
 20
7951.25686088479
 30
0.0
 11
8523.429938063449
 21
7293.756860884791
 31
0.0
 70
    32
 71
     5
 42
1315.0
  3
INABA_S50G
100
AcDbAlignedDimension
 13
9173.500000000091
 23
6636.256860884791
 33
0.0
 14
9173.500000000091
 24
7951.25686088479
 34
0.0
 50
90.0
100
AcDbRotatedDimension
1001
ACAD
1000
DSTYLE
1002
{
1070
    40
1040
1.0
1070
    75
1070
     1
1070
   279
1070
     1
1002
}
  0
MTEXT
  5
241A1
102
{ACAD_REACTORS
330
241A2
102
}
330
747D
100
AcDbEntity
  8
寸法
 62
     7
 48
50.0
100
AcDbMText
 10
11851.33182540678
 20
6064.457100127158
 30
0.0
 40
150.0
 41
0.0
 71
     4
 72
     1
  1
\A1;柱埋込用穴(深サ:300)\P組立後現場打コンクリート
  7
STYLE1
 73
     1
 44
1.0
1001
ACAD
1000
MTEXTBEGIN
1070
    73
1070
     1
1070
    44
1040
1.0
1070
    74
1070
     0
1000
MTEXTEND
  0
LEADER
  5
241A2
330
747D
100
AcDbEntity
  8
寸法
 48
50.0
100
AcDbLeader
  3
INABA_S50G
 73
     0
 74
     0
 75
     1
 40
407.5000000000002
 41
2162.936553006148
 76
     3
 10
11450.61303503063
 20
6518.71023629772
 30
0.0
 10
11701.33182540677
 20
5835.707100127158
 30
0.0
 10
11826.33182540678
 20
5835.707100127158
 30
0.0
340
241A1
1001
ACAD
1000
DSTYLE
1002
{
1070
   341
1005
0
1070
    40
1040
1.0
1070
   343
1005
0
1070
   344
1005
0
1002
}
  0
TEXT
  5
241A3
330
747D
100
AcDbEntity
  8
部品1
 48
50.0
100
AcDbText
 10
9734.396999042473
 20
5866.766164040035
 30
0.0
 40
100.0
  1
※a,b,cは屋根の出幅です。
  7
STYLE1
100
AcDbText
  0
MTEXT
  5
241A6
102
{ACAD_REACTORS
330
241A7
102
}
330
747D
100
AcDbEntity
  8
部品1
 62
     7
 48
50.0
100
AcDbMText
 10
10731.63099402823
 20
6090.904522706379
 30
0.0
 40
150.0
 41
0.0
 71
     6
 72
     1
  1
\A1;屋根の外寸
  7
STYLE1
 73
     1
 44
1.0
1001
ACAD
1000
MTEXTBEGIN
1070
    73
1070
     1
1070
    44
1040
1.0
1070
    74
1070
     0
1000
MTEXTEND
  0
LEADER
  5
241A7
330
747D
100
AcDbEntity
  8
寸法
 48
50.0
100
AcDbLeader
  3
INABA_S50G
 73
     0
 74
     0
 75
     1
 40
150.0
 41
840.0
 76
     3
 10
9792.740251365842
 20
6520.256860884791
 30
0.0
 10
9741.630994028236
 20
5990.904522706379
 30
0.0
 10
9866.630994028236
 20
5990.904522706379
 30
0.0
340
241A6
1001
ACAD
1000
DSTYLE
1002
{
1070
   341
1005
0
1070
    40
1040
1.0
1070
   343
1005
0
1070
   344
1005
0
1002
}
  0
TEXT
  5
241A8
330
747D
100
AcDbEntity
  8
部品1
 48
50.0
100
AcDbText
 10
9932.620759985351
 20
5733.209637954092
 30
0.0
 40
100.0
  1
(a=49,b=59,c=79)
  7
STYLE1
100
AcDbText
  0
LINE
  5
241C7
330
747D
100
AcDbEntity
  8
部品1
 48
10.0
100
AcDbLine
 10
9048.500000000091
 20
6433.256860884789
 30
0.0
 11
9048.500000000091
 21
6783.25686088479
 31
0.0
  0
DIMENSION
  5
241C8
330
747D
100
AcDbEntity
  8
寸法
 48
50.0
100
AcDbDimension
  2
*D9
 10
8882.498129379563
 20
6636.256860884791
 30
0.0
 11
8882.498129379561
 21
7185.006860884795
 31
0.0
 70
   160
  1
柱芯<>
 71
     5
 42
28.0
  3
INABA_S50G
100
AcDbAlignedDimension
 13
9023.50000000009
 23
6608.25686088479
 33
0.0
 14
9173.500000000091
 24
6636.256860884791
 34
0.0
 50
90.0
100
AcDbRotatedDimension
1001
ACAD
1000
DSTYLE
1002
{
1070
    40
1040
1.0
1002
}
  0
LINE
  5
241C9
330
747D
100
AcDbEntity
  8
部品1
 48
50.0
100
AcDbLine
 10
9173.500000000091
 20
7036.25686088479
 30
0.0
 11
9173.500000000091
 21
6636.256860884791
 31
0.0
  0
LINE
  5
241CA
330
747D
100
AcDbEntity
  8
部品1
 48
10.0
100
AcDbLine
 10
9173.500000000091
 20
6783.25686088479
 30
0.0
 11
9048.500000000091
 21
6783.25686088479
 31
0.0
  0
LINE
  5
241CB
330
747D
100
AcDbEntity
  8
部品1
 48
50.0
100
AcDbLine
 10
9173.500000000089
 20
7165.256860884793
 30
0.0
 11
9173.500000000089
 21
7365.256860884793
 31
0.0
  0
MTEXT
  5
241E2
102
{ACAD_REACTORS
330
241E4
102
}
330
747D
100
AcDbEntity
  8
部品1
 62
     7
 48
50.0
100
AcDbMText
 10
11830.57582651522
 20
8301.232093914398
 30
0.0
 40
150.0
 41
0.0
 71
     4
 72
     1
  1
現場打コンクリート
  7
STYLE1
 73
     1
 44
1.0
1001
ACAD
1000
MTEXTBEGIN
1070
    73
1070
     1
1070
    44
1040
1.0
1070
    74
1070
     0
1000
MTEXTEND
  0
TEXT
  5
241E3
330
747D
100
AcDbEntity
  8
部品1
 48
50.0
100
AcDbText
 10
11838.69975861033
 20
8427.709682386474
 30
0.0
 40
150.0
  1
組立後
  7
STYLE1
100
AcDbText
  0
LEADER
  5
241E4
330
747D
100
AcDbEntity
  8
寸法
 48
50.0
100
AcDbLeader
  3
INABA_S50G
 73
     0
 74
     0
 75
     1
 40
150.0
 41
1602.936553006147
 76
     3
 10
11424.18861493282
 20
8019.888156298257
 30
0.0
 10
11680.57582651522
 20
8201.232093914397
 30
0.0
 10
11805.57582651522
 20
8201.232093914397
 30
0.0
340
241E2
1001
ACAD
1000
DSTYLE
1002
{
1070
   341
1005
0
1070
    40
1040
1.0
1070
   343
1005
0
1070
   344
1005
0
1002
}
  0
DIMENSION
  5
24222
330
747D
100
AcDbEntity
  8
寸法
 48
50.0
100
AcDbDimension
  2
*D10
 10
9173.500000000091
 20
8738.799248455263
 30
0.0
 11
8816.781723497017
 21
8738.799248455263
 31
0.0
 70
   160
  1
a
 71
     5
 42
49.0
  3
INABA_S50G
100
AcDbAlignedDimension
 13
9124.500000000091
 23
8030.25686088479
 33
0.0
 14
9173.500000000091
 24
7951.25686088479
 34
0.0
100
AcDbRotatedDimension
1001
ACAD
1000
DSTYLE
1002
{
1070
    40
1040
1.0
1002
}
  0
DIMENSION
  5
24225
330
747D
100
AcDbEntity
  8
寸法
 48
50.0
100
AcDbDimension
  2
*D11
 10
8372.895577864053
 20
7951.25686088479
 30
0.0
 11
8272.89557786405
 21
7990.756860884791
 31
0.0
 70
    32
  1
c
 71
     5
 42
79.0
  3
INABA_S50G
100
AcDbAlignedDimension
 13
9073.500000000272
 23
8030.25686088479
 33
0.0
 14
9173.500000000091
 24
7951.25686088479
 34
0.0
 50
90.0
100
AcDbRotatedDimension
1001
ACAD
1000
DSTYLE
1002
{
1070
    40
1040
1.0
1002
}
  0
LINE
  5
24226
330
747D
100
AcDbEntity
  8
部品1
 48
50.0
100
AcDbLine
 10
9173.500000000091
 20
7751.25686088479
 30
0.0
 11
9173.500000000091
 21
7951.25686088479
 31
0.0
  0
LINE
  5
24227
330
747D
100
AcDbEntity
  8
点線
 48
10.0
100
AcDbLine
 10
9073.500000000272
 20
8051.256860884789
 30
0.0
 11
9273.500000000273
 21
8051.256860884789
 31
0.0
  0
LINE
  5
24228
330
747D
100
AcDbEntity
  8
点線
 48
10.0
100
AcDbLine
 10
9073.500000000272
 20
7851.256860884788
 30
0.0
 11
9273.500000000273
 21
7851.256860884787
 31
0.0
  0
LINE
  5
24229
330
747D
100
AcDbEntity
  8
点線
 48
10.0
100
AcDbLine
 10
9073.500000000272
 20
7851.256860884788
 30
0.0
 11
9073.500000000272
 21
8051.256860884789
 31
0.0
  0
LINE
  5
2422A
330
747D
100
AcDbEntity
  8
点線
 48
10.0
100
AcDbLine
 10
9273.500000000273
 20
7851.256860884787
 30
0.0
 11
9273.500000000273
 21
8051.256860884789
 31
0.0
  0
DIMENSION
  5
2422B
330
747D
100
AcDbEntity
  8
寸法
 48
50.0
100
AcDbDimension
  2
*D12
 10
11806.71128886166
 20
6783.25686088479
 30
0.0
 11
11806.71128886166
 21
6607.756860884791
 31
0.0
 70
   160
 71
     5
 42
350.0
  3
INABA_S50G
100
AcDbAlignedDimension
 13
11510.50000000009
 23
6433.256860884791
 33
0.0
 14
11510.50000000009
 24
6783.25686088479
 34
0.0
 50
90.0
100
AcDbRotatedDimension
1001
ACAD
1000
DSTYLE
1002
{
1070
    40
1040
1.0
1002
}
  0
LINE
  5
2422F
330
747D
100
AcDbEntity
  8
部品1
 48
50.0
100
AcDbLine
 10
10033.50000000009
 20
7165.256860884795
 30
0.0
 11
10033.50000000009
 21
7365.256860884795
 31
0.0
  0
LINE
  5
24230
330
747D
100
AcDbEntity
  8
部品1
 48
50.0
100
AcDbLine
 10
9573.500000000091
 20
6579.256860884794
 30
0.0
 11
9573.500000000091
 21
6779.256860884794
 31
0.0
  0
LINE
  5
24231
330
747D
100
AcDbEntity
  8
点線
 48
10.0
100
AcDbLine
 10
9398.500000000096
 20
6579.25686088479
 30
0.0
 11
9398.500000000096
 21
6779.25686088479
 31
0.0
  0
LINE
  5
24232
330
747D
100
AcDbEntity
  8
部品1
 48
50.0
100
AcDbLine
 10
9373.50000000009
 20
6579.256860884794
 30
0.0
 11
9373.50000000009
 21
6779.256860884794
 31
0.0
  0
LINE
  5
24233
330
747D
100
AcDbEntity
  8
部品1
 48
50.0
100
AcDbLine
 10
9833.500000000089
 20
7165.256860884795
 30
0.0
 11
9833.500000000089
 21
7365.256860884795
 31
0.0
  0
LINE
  5
24234
330
747D
100
AcDbEntity
  8
部品1
 48
50.0
100
AcDbLine
 10
9573.500000000091
 20
6579.25686088479
 30
0.0
 11
9373.50000000009
 21
6579.25686088479
 31
0.0
  0
LINE
  5
24235
330
747D
100
AcDbEntity
  8
部品1
 48
10.0
100
AcDbLine
 10
9398.50000000009
 20
6433.256860884791
 30
0.0
 11
9398.500000000096
 21
6579.25686088479
 31
0.0
  0
LINE
  5
24236
330
747D
100
AcDbEntity
  8
部品1
 48
50.0
100
AcDbLine
 10
10033.50000000009
 20
6579.25686088479
 30
0.0
 11
9833.500000000093
 21
6579.25686088479
 31
0.0
  0
LINE
  5
24238
330
747D
100
AcDbEntity
  8
部品1
 48
50.0
100
AcDbLine
 10
9373.50000000009
 20
7036.25686088479
 30
0.0
 11
9373.50000000009
 21
6636.256860884791
 31
0.0
  0
LINE
  5
24239
330
747D
100
AcDbEntity
  8
部品1
 48
50.0
100
AcDbLine
 10
9573.500000000091
 20
6779.25686088479
 30
0.0
 11
9373.50000000009
 21
6779.25686088479
 31
0.0
  0
LINE
  5
2423A
330
747D
100
AcDbEntity
  8
部品1
 48
10.0
100
AcDbLine
 10
9398.500000000096
 20
6779.25686088479
 30
0.0
 11
9398.50000000009
 21
6783.25686088479
 31
0.0
  0
LINE
  5
2423B
330
747D
100
AcDbEntity
  8
部品1
 48
10.0
100
AcDbLine
 10
9398.50000000009
 20
6783.25686088479
 30
0.0
 11
9373.50000000009
 21
6783.25686088479
 31
0.0
  0
LINE
  5
2423C
330
747D
100
AcDbEntity
  8
部品1
 48
50.0
100
AcDbLine
 10
10033.50000000009
 20
7365.256860884793
 30
0.0
 11
9833.500000000089
 21
7365.256860884793
 31
0.0
  0
LINE
  5
2423D
330
747D
100
AcDbEntity
  8
部品1
 48
50.0
100
AcDbLine
 10
9373.50000000009
 20
7165.256860884793
 30
0.0
 11
9373.50000000009
 21
7365.256860884793
 31
0.0
  0
LINE
  5
2423E
330
747D
100
AcDbEntity
  8
部品1
 48
50.0
100
AcDbLine
 10
10033.50000000009
 20
6579.256860884791
 30
0.0
 11
10033.50000000009
 21
6779.256860884792
 31
0.0
  0
LINE
  5
2423F
330
747D
100
AcDbEntity
  8
部品1
 48
50.0
100
AcDbLine
 10
9833.500000000093
 20
6579.256860884791
 30
0.0
 11
9833.500000000093
 21
6779.256860884792
 31
0.0
  0
LINE
  5
24240
330
747D
100
AcDbEntity
  8
部品1
 48
50.0
100
AcDbLine
 10
10033.50000000009
 20
7165.256860884795
 30
0.0
 11
9833.500000000089
 21
7165.256860884795
 31
0.0
  0
LINE
  5
24241
330
747D
100
AcDbEntity
  8
部品1
 48
50.0
100
AcDbLine
 10
10033.50000000009
 20
6779.256860884787
 30
0.0
 11
9833.500000000093
 21
6779.256860884787
 31
0.0
  0
LINE
  5
24247
330
747D
100
AcDbEntity
  8
部品1
 48
10.0
100
AcDbLine
 10
11510.50000000009
 20
6433.256860884791
 30
0.0
 11
11510.50000000009
 21
6783.25686088479
 31
0.0
  0
LINE
  5
24248
330
747D
100
AcDbEntity
  8
点線
 48
10.0
100
AcDbLine
 10
11160.50000000009
 20
6579.25686088479
 30
0.0
 11
11160.50000000009
 21
6779.25686088479
 31
0.0
  0
LINE
  5
24249
330
747D
100
AcDbEntity
  8
部品1
 48
50.0
100
AcDbLine
 10
11185.50000000009
 20
6579.256860884794
 30
0.0
 11
11185.50000000009
 21
6779.256860884794
 31
0.0
  0
LINE
  5
2424A
330
747D
100
AcDbEntity
  8
部品1
 48
50.0
100
AcDbLine
 10
10985.50000000009
 20
6579.256860884794
 30
0.0
 11
10985.50000000009
 21
6779.256860884794
 31
0.0
  0
LINE
  5
2424E
330
747D
100
AcDbEntity
  8
部品1
 48
10.0
100
AcDbLine
 10
11510.50000000009
 20
6433.256860884791
 30
0.0
 11
11160.50000000009
 21
6433.256860884789
 31
0.0
  0
DIMENSION
  5
2424F
330
747D
100
AcDbEntity
  8
寸法
 48
50.0
100
AcDbDimension
  2
*D13
 10
11160.50000000009
 20
6144.707283781379
 30
0.0
 11
11335.50000000009
 21
6244.707283781379
 31
0.0
 70
    32
 71
     5
 42
350.0
  3
INABA_S50G
100
AcDbAlignedDimension
 13
11510.50000000009
 23
6433.256860884791
 33
0.0
 14
11160.50000000009
 24
6433.256860884789
 34
0.0
100
AcDbRotatedDimension
1001
ACAD
1000
DSTYLE
1002
{
1070
    40
1040
1.0
1002
}
  0
LINE
  5
24250
330
747D
100
AcDbEntity
  8
部品1
 48
50.0
100
AcDbLine
 10
11185.50000000009
 20
6579.25686088479
 30
0.0
 11
10985.50000000009
 21
6579.25686088479
 31
0.0
  0
LINE
  5
24251
330
747D
100
AcDbEntity
  8
部品1
 48
10.0
100
AcDbLine
 10
11160.50000000009
 20
6433.256860884789
 30
0.0
 11
11160.50000000009
 21
6579.25686088479
 31
0.0
  0
LINE
  5
24257
330
747D
100
AcDbEntity
  8
部品1
 48
50.0
100
AcDbLine
 10
11185.50000000009
 20
7036.25686088479
 30
0.0
 11
11385.50000000009
 21
7036.25686088479
 31
0.0
  0
LINE
  5
24258
330
747D
100
AcDbEntity
  8
部品1
 48
50.0
100
AcDbLine
 10
11185.50000000009
 20
6636.256860884794
 30
0.0
 11
11385.50000000009
 21
6636.256860884791
 31
0.0
  0
LINE
  5
24259
330
747D
100
AcDbEntity
  8
点線
 48
10.0
100
AcDbLine
 10
11185.50000000009
 20
6783.25686088479
 30
0.0
 11
11385.50000000009
 21
6783.25686088479
 31
0.0
  0
LINE
  5
2425A
330
747D
100
AcDbEntity
  8
センター
 48
8.0
100
AcDbLine
 10
11135.50000000009
 20
6608.25686088479
 30
0.0
 11
11535.50000000009
 21
6608.25686088479
 31
0.0
  0
LINE
  5
2425B
330
747D
100
AcDbEntity
  8
部品1
 48
50.0
100
AcDbLine
 10
11185.50000000009
 20
7036.25686088479
 30
0.0
 11
11185.50000000009
 21
6636.256860884791
 31
0.0
  0
LINE
  5
2425C
330
747D
100
AcDbEntity
  8
部品1
 48
50.0
100
AcDbLine
 10
11185.50000000009
 20
6779.25686088479
 30
0.0
 11
10985.50000000009
 21
6779.25686088479
 31
0.0
  0
LINE
  5
2425D
330
747D
100
AcDbEntity
  8
部品1
 48
10.0
100
AcDbLine
 10
11185.50000000009
 20
6783.25686088479
 30
0.0
 11
11160.50000000009
 21
6783.25686088479
 31
0.0
  0
LINE
  5
2425E
330
747D
100
AcDbEntity
  8
部品1
 48
10.0
100
AcDbLine
 10
11160.50000000009
 20
6779.25686088479
 30
0.0
 11
11160.50000000009
 21
6783.25686088479
 31
0.0
  0
LINE
  5
2425F
330
747D
100
AcDbEntity
  8
部品1
 48
50.0
100
AcDbLine
 10
11385.50000000009
 20
7036.25686088479
 30
0.0
 11
11385.50000000009
 21
6636.256860884791
 31
0.0
  0
LINE
  5
24260
330
747D
100
AcDbEntity
  8
部品1
 48
10.0
100
AcDbLine
 10
11510.50000000009
 20
6783.25686088479
 30
0.0
 11
11385.50000000009
 21
6783.25686088479
 31
0.0
  0
LINE
  5
24261
330
747D
100
AcDbEntity
  8
部品1
 48
50.0
100
AcDbLine
 10
11385.50000000009
 20
7165.256860884788
 30
0.0
 11
11185.50000000009
 21
7165.256860884788
 31
0.0
  0
LINE
  5
24262
330
747D
100
AcDbEntity
  8
部品1
 48
50.0
100
AcDbLine
 10
11385.50000000009
 20
7365.256860884788
 30
0.0
 11
11185.50000000009
 21
7365.256860884788
 31
0.0
  0
LINE
  5
24263
330
747D
100
AcDbEntity
  8
部品1
 48
50.0
100
AcDbLine
 10
11185.50000000009
 20
7165.256860884793
 30
0.0
 11
11185.50000000009
 21
7365.256860884793
 31
0.0
  0
LINE
  5
24264
330
747D
100
AcDbEntity
  8
部品1
 48
50.0
100
AcDbLine
 10
11385.50000000009
 20
7165.256860884793
 30
0.0
 11
11385.50000000009
 21
7365.256860884793
 31
0.0
  0
DIMENSION
  5
24265
330
747D
100
AcDbEntity
  8
寸法
 48
50.0
100
AcDbDimension
  2
*D14
 10
11640.80282221548
 20
7851.256860884788
 30
0.0
 11
11806.71128886166
 21
7951.256860884789
 31
0.0
 70
   160
 71
     5
 42
200.0
  3
INABA_S50G
100
AcDbAlignedDimension
 13
11485.50000000009
 23
8051.256860884789
 33
0.0
 14
11485.50000000009
 24
7851.256860884788
 34
0.0
 50
90.0
100
AcDbRotatedDimension
1001
ACAD
1000
DSTYLE
1002
{
1070
    40
1040
1.0
1070
   279
1070
     2
1002
}
  0
DIMENSION
  5
24266
330
747D
100
AcDbEntity
  8
寸法
 48
50.0
100
AcDbDimension
  2
*D15
 10
10625.50000000009
 20
8466.794218051505
 30
0.0
 11
10279.50000000009
 21
8566.84523375751
 31
0.0
 70
    32
 71
     5
 42
692.0
  3
INABA_S50G
100
AcDbAlignedDimension
 13
9933.500000000092
 23
7951.25686088479
 33
0.0
 14
10625.50000000009
 24
7951.25686088479
 34
0.0
100
AcDbRotatedDimension
1001
ACAD
1000
DSTYLE
1002
{
1070
    40
1040
1.0
1070
    75
1070
     1
1070
   279
1070
     2
1002
}
  0
DIMENSION
  5
24268
330
747D
100
AcDbEntity
  8
寸法
 48
50.0
100
AcDbDimension
  2
*D16
 10
11385.49999999991
 20
8466.794218051505
 30
0.0
 11
11005.5
 21
8566.794218051505
 31
0.0
 70
    32
 71
     5
 42
759.9999999998181
  3
INABA_S50G
100
AcDbAlignedDimension
 13
10625.50000000009
 23
7951.25686088479
 33
0.0
 14
11385.49999999991
 24
8397.81374180812
 34
0.0
100
AcDbRotatedDimension
1001
ACAD
1000
DSTYLE
1002
{
1070
    40
1040
1.0
1070
    75
1070
     1
1070
   279
1070
     2
1002
}
  0
LINE
  5
2426B
330
747D
100
AcDbEntity
  8
部品1
 48
50.0
100
AcDbLine
 10
10033.50000000009
 20
7751.256860884794
 30
0.0
 11
10033.50000000009
 21
7951.256860884794
 31
0.0
  0
LINE
  5
2426C
330
747D
100
AcDbEntity
  8
部品1
 48
50.0
100
AcDbLine
 10
9833.500000000093
 20
7751.256860884794
 30
0.0
 11
9833.500000000093
 21
7951.256860884794
 31
0.0
  0
LEADER
  5
2426E
330
747D
100
AcDbEntity
  8
寸法
 48
50.0
100
AcDbLeader
  3
INABA_S50G
 73
     0
 74
     0
 75
     1
 40
150.0
 41
231.9898538650463
 76
     3
 10
9988.774736334509
 20
7793.228635766488
 30
0.0
 10
10057.15144955781
 20
7644.428050226693
 30
0.0
 10
10182.15144955781
 20
7644.428050226693
 30
0.0
340
2426F
1001
ACAD
1000
DSTYLE
1002
{
1070
    40
1040
1.0
1070
    75
1070
     1
1002
}
  0
MTEXT
  5
2426F
102
{ACAD_REACTORS
330
2426E
102
}
330
747D
100
AcDbEntity
  8
部品1
 62
     7
 48
50.0
100
AcDbMText
 10
10207.15144955781
 20
7744.428050226694
 30
0.0
 40
150.0
 41
0.0
 71
     4
 72
     1
  1
\A1;C.B
  7
STYLE1
 73
     1
 44
1.0
1001
ACAD
1000
MTEXTBEGIN
1070
    73
1070
     1
1070
    44
1040
1.0
1070
    74
1070
     0
1000
MTEXTEND
  0
LINE
  5
24275
330
747D
100
AcDbEntity
  8
部品1
 48
50.0
100
AcDbLine
 10
10033.50000000009
 20
7751.25686088479
 30
0.0
 11
9833.500000000093
 21
7751.25686088479
 31
0.0
  0
LINE
  5
2427C
330
747D
100
AcDbEntity
  8
部品1
 48
50.0
100
AcDbLine
 10
9573.500000000091
 20
7751.25686088479
 30
0.0
 11
9573.500000000091
 21
7951.25686088479
 31
0.0
  0
LINE
  5
2427E
330
747D
100
AcDbEntity
  8
部品1
 48
50.0
100
AcDbLine
 10
10033.50000000009
 20
7951.25686088479
 30
0.0
 11
9833.500000000093
 21
7951.25686088479
 31
0.0
  0
LINE
  5
24299
330
747D
100
AcDbEntity
  8
部品1
 48
50.0
100
AcDbLine
 10
11385.50000000009
 20
7751.25686088479
 30
0.0
 11
11385.50000000009
 21
7951.25686088479
 31
0.0
  0
LINE
  5
2429A
330
747D
100
AcDbEntity
  8
部品1
 48
50.0
100
AcDbLine
 10
10985.50000000009
 20
7751.25686088479
 30
0.0
 11
10985.50000000009
 21
7951.25686088479
 31
0.0
  0
LINE
  5
2429B
330
747D
100
AcDbEntity
  8
部品1
 48
50.0
100
AcDbLine
 10
10985.50000000009
 20
7751.25686088479
 30
0.0
 11
11385.50000000009
 21
7751.25686088479
 31
0.0
  0
LINE
  5
2429D
330
747D
100
AcDbEntity
  8
点線
 48
10.0
100
AcDbLine
 10
11485.50000000009
 20
8051.256860884789
 30
0.0
 11
11285.50000000009
 21
8051.256860884789
 31
0.0
  0
LINE
  5
2429E
330
747D
100
AcDbEntity
  8
点線
 48
10.0
100
AcDbLine
 10
11485.50000000009
 20
7851.256860884788
 30
0.0
 11
11285.50000000009
 21
7851.256860884788
 31
0.0
  0
LINE
  5
2429F
330
747D
100
AcDbEntity
  8
部品1
 48
50.0
100
AcDbLine
 10
10985.50000000009
 20
7951.256860884787
 30
0.0
 11
11385.50000000009
 21
7951.25686088479
 31
0.0
  0
DIMENSION
  5
242A1
330
747D
100
AcDbEntity
  8
寸法
 48
50.0
100
AcDbDimension
  2
*D17
 10
11485.50000000009
 20
8207.904264638568
 30
0.0
 11
11385.50000000009
 21
8307.919028418096
 31
0.0
 70
    32
 71
     5
 42
200.0
  3
INABA_S50G
100
AcDbAlignedDimension
 13
11285.50000000009
 23
8051.256860884789
 33
0.0
 14
11485.50000000009
 24
8051.256860884789
 34
0.0
100
AcDbRotatedDimension
1001
ACAD
1000
DSTYLE
1002
{
1070
    40
1040
1.0
1002
}
  0
LINE
  5
242A2
330
747D
100
AcDbEntity
  8
点線
 48
10.0
100
AcDbLine
 10
11285.50000000009
 20
7851.256860884788
 30
0.0
 11
11285.50000000009
 21
8051.256860884789
 31
0.0
  0
LINE
  5
242A3
330
747D
100
AcDbEntity
  8
点線
 48
10.0
100
AcDbLine
 10
11485.50000000009
 20
7851.256860884788
 30
0.0
 11
11485.50000000009
 21
8051.256860884789
 31
0.0
  0
DIMENSION
  5
242A4
330
747D
100
AcDbEntity
  8
寸法
 48
50.0
100
AcDbDimension
  2
*D18
 10
11434.49999999991
 20
8738.799248455263
 30
0.0
 11
11742.21827650298
 21
8738.799248455263
 31
0.0
 70
   160
  1
a
 71
     5
 42
49.0
  3
INABA_S50G
100
AcDbAlignedDimension
 13
11385.49999999991
 23
8397.81374180812
 33
0.0
 14
11434.49999999991
 24
8397.862882261669
 34
0.0
100
AcDbRotatedDimension
1001
ACAD
1000
DSTYLE
1002
{
1070
    40
1040
1.0
1002
}
  0
LINE
  5
242A5
330
747D
100
AcDbEntity
  8
細線
 48
10.0
100
AcDbLine
 10
13180.97076776005
 20
1195.431524066408
 30
0.0
 11
13461.76952043274
 21
1476.230276739118
 31
0.0
  0
LINE
  5
242A6
330
747D
100
AcDbEntity
  8
細線
 48
10.0
100
AcDbLine
 10
13180.97076776005
 20
1252.000066561332
 30
0.0
 11
13405.20097793783
 21
1476.230276739118
 31
0.0
  0
LINE
  5
242A7
330
747D
100
AcDbEntity
  8
細線
 48
10.0
100
AcDbLine
 10
13180.97076776005
 20
1223.715795313869
 30
0.0
 11
13433.48524918528
 21
1476.230276739118
 31
0.0
  0
LINE
  5
242A8
330
747D
100
AcDbEntity
  8
部品1
100
AcDbLine
 10
13180.97076776005
 20
1876.230276739116
 30
0.0
 11
14052.51728958066
 21
1876.230276739116
 31
0.0
  0
LINE
  5
242A9
330
747D
100
AcDbEntity
  8
部品1
100
AcDbLine
 10
13180.97076776005
 20
1776.230276739118
 30
0.0
 11
14052.51728958066
 21
1776.230276739118
 31
0.0
  0
LINE
  5
242AA
330
747D
100
AcDbEntity
  8
Ｇ．Ｌ
100
AcDbLine
 10
13180.97076776005
 20
1476.230276739118
 30
0.0
 11
14924.52398276596
 21
1476.230276739118
 31
0.0
  0
LINE
  5
242AB
330
747D
100
AcDbEntity
  8
部品1
100
AcDbLine
 10
13180.97076776004
 20
1898.730276739117
 30
0.0
 11
14022.62838149033
 21
1898.730276739117
 31
0.0
  0
LINE
  5
242AC
330
747D
100
AcDbEntity
  8
部品1
100
AcDbLine
 10
12935.02497347595
 20
2835.814306541587
 30
0.0
 11
15055.8489518825
 21
2835.814306541587
 31
0.0
  0
MTEXT
  5
242AD
330
747D
100
AcDbEntity
  8
文字
 48
50.0
100
AcDbMText
 10
13090.13085266931
 20
844.6979665777444
 30
0.0
 40
100.0
 41
1.0
 71
     1
 72
     5
  1
b寸法：135～175,190mmに対応\P\U+203BオールアンカーM10(市販品)\P  が2本必要になります。
  7
STYLE2
 73
     1
 44
1.0
1001
ACAD
1000
MTEXTBEGIN
1070
    73
1070
     1
1070
    44
1040
1.0
1070
    74
1070
     0
1000
MTEXTEND
  0
TEXT
  5
242AE
330
747D
100
AcDbEntity
  8
部品1
100
AcDbText
 10
11886.70594953254
 20
2605.646868422388
 30
0.0
 40
150.0
  1
地盤がコンクリートの場合
  7
STYLE2
100
AcDbText
  0
LINE
  5
242AF
330
747D
100
AcDbEntity
  8
部品1
100
AcDbLine
 10
15055.8489518825
 20
2535.814306541585
 30
0.0
 11
4935.02497347594
 21
2535.814306541589
 31
0.0
  0
LINE
  5
242B0
330
747D
100
AcDbEntity
  8
部品1
100
AcDbLine
 10
15055.8489518825
 20
3135.814306541589
 30
0.0
 11
4935.02497347594
 21
3135.814306541591
 31
0.0
  0
LINE
  5
242B1
330
747D
100
AcDbEntity
  8
部品1
100
AcDbLine
 10
4935.02497347594
 20
135.8143065415834
 30
0.0
 11
15055.8489518825
 21
135.8143065415888
 31
0.0
  0
TEXT
  5
242B2
330
747D
100
AcDbEntity
  8
部品1
100
AcDbText
 10
5126.386579360011
 20
2608.670701968094
 30
0.0
 40
150.0
  1
ブロック置基礎の場合
 41
0.8
  7
STYLE2
100
AcDbText
  0
INSERT
  5
242B3
330
747D
100
AcDbEntity
  8
部品1
 48
50.0
100
AcDbBlockReference
  2
A$C1BA55281
 10
5355.420379398069
 20
985.1879690394408
 30
0.0
  0
LINE
  5
242B4
330
747D
100
AcDbEntity
  8
部品1
100
AcDbLine
 10
4935.02497347594
 20
2835.814306541593
 30
0.0
 11
12935.02497347595
 21
2835.814306541587
 31
0.0
  0
LINE
  5
242B5
330
747D
100
AcDbEntity
  8
部品1
 48
50.0
100
AcDbLine
 10
4935.02497347594
 20
3135.814306541589
 30
0.0
 11
4935.02497347594
 21
135.814306541587
 31
0.0
  0
TEXT
  5
242B6
330
747D
100
AcDbEntity
  8
部品1
100
AcDbText
 10
9220.283221327241
 20
2608.670701968094
 30
0.0
 40
150.0
  1
地盤が土の場合
  7
STYLE2
100
AcDbText
  0
TEXT
  5
242B7
330
747D
100
AcDbEntity
  8
部品1
100
AcDbText
 10
7596.32285676342
 20
2603.528642484374
 30
0.0
 40
150.0
  1
柱前部
  7
STYLE2
100
AcDbText
  0
LINE
  5
242B8
330
747D
100
AcDbEntity
  8
部品1
 48
50.0
100
AcDbLine
 10
6935.024973475944
 20
2835.814306541591
 30
0.0
 11
6935.024973475944
 21
135.814306541587
 31
0.0
  0
LINE
  5
242B9
330
747D
100
AcDbEntity
  8
部品1
100
AcDbLine
 10
8935.024973475947
 20
135.814306541587
 30
0.0
 11
8935.024973475947
 21
2835.814306541587
 31
0.0
  0
LINE
  5
242BA
330
747D
100
AcDbEntity
  8
部品1
100
AcDbLine
 10
10935.02497347595
 20
135.814306541587
 30
0.0
 11
10935.02497347595
 21
2835.814306541587
 31
0.0
  0
LINE
  5
242BB
330
747D
100
AcDbEntity
  8
細線
  6
HIDDEN
 48
10.0
100
AcDbLine
 10
9949.973385238793
 20
898.8353565148273
 30
0.0
 11
10210.13254559259
 21
1158.994516868641
 31
0.0
  0
LINE
  5
242BC
330
747D
100
AcDbEntity
  8
細線
  6
HIDDEN
 48
10.0
100
AcDbLine
 10
9949.973385238793
 20
955.4038990097515
 30
0.0
 11
10216.5663459858
 21
1221.996859756767
 31
0.0
  0
LWPOLYLINE
  5
242BD
330
747D
100
AcDbEntity
  8
部品1
100
AcDbPolyline
 90
        3
 70
     0
 43
0.0
 10
9949.973385238793
 20
685.187967811421
 10
9949.973385238793
 20
1285.187967811421
 10
10219.97338523879
 20
1285.187967811421
  0
LINE
  5
242BE
330
747D
100
AcDbEntity
  8
細線
  6
HIDDEN
 48
10.0
100
AcDbLine
 10
9949.973385238793
 20
927.1196277622903
 30
0.0
 11
10213.34944578919
 21
1190.495688312706
 31
0.0
  0
LINE
  5
242BF
330
747D
100
AcDbEntity
  8
部品1
100
AcDbLine
 10
9398.196187177555
 20
1585.187967811421
 30
0.0
 11
10299.97338523879
 21
1585.187967811421
 31
0.0
  0
LINE
  5
242C1
330
747D
100
AcDbEntity
  8
Ｇ．Ｌ
100
AcDbLine
 10
9398.196187177555
 20
1285.187967811421
 30
0.0
 11
10219.97338523879
 21
1285.187967811421
 31
0.0
  0
LINE
  5
242C2
330
747D
100
AcDbEntity
  8
部品1
100
AcDbLine
 10
9398.196187177555
 20
1485.187967811421
 30
0.0
 11
10219.97338523879
 21
1485.187967811421
 31
0.0
  0
LWPOLYLINE
  5
242C3
330
747D
100
AcDbEntity
  8
部品1
100
AcDbPolyline
 90
        4
 70
     0
 43
0.0
 10
10299.97338523879
 20
1285.187967811421
 10
10549.97338523879
 20
1285.187967811421
 10
10549.97338523879
 20
685.187967811421
 10
9949.973385238793
 20
685.187967811421
  0
LINE
  5
242C4
330
747D
100
AcDbEntity
  8
部品1
 48
50.0
100
AcDbLine
 10
8328.38146358522
 20
835.1879678114192
 30
0.0
 11
8438.381463585221
 21
835.1879678114192
 31
0.0
  0
LINE
  5
242C5
330
747D
100
AcDbEntity
  8
細線
  6
HIDDEN
 48
10.0
100
AcDbLine
 10
8294.823921239723
 20
685.1879678114191
 30
0.0
 11
8688.381463585221
 21
1078.745510156934
 31
0.0
  0
LINE
  5
242C6
330
747D
100
AcDbEntity
  8
細線
  6
HIDDEN
 48
10.0
100
AcDbLine
 10
8323.108192487177
 20
685.1879678114191
 30
0.0
 11
8688.381463585221
 21
1050.461238909472
 31
0.0
  0
LINE
  5
242C7
330
747D
100
AcDbEntity
  8
細線
  6
HIDDEN
 48
10.0
100
AcDbLine
 10
8351.39246373464
 20
685.1879678114191
 30
0.0
 11
8688.381463585221
 21
1022.176967662007
 31
0.0
  0
LINE
  5
242C8
330
747D
100
AcDbEntity
  8
部品1
100
AcDbLine
 10
8088.38146358522
 20
485.1879678114155
 30
0.0
 11
8688.381463585221
 21
485.1879678114191
 31
0.0
  0
LINE
  5
242C9
330
747D
100
AcDbEntity
  8
部品1
100
AcDbLine
 10
8688.381463585221
 20
685.1879678114191
 30
0.0
 11
8088.38146358522
 21
685.1879678114191
 31
0.0
  0
LEADER
  5
242CA
330
747D
100
AcDbEntity
  8
寸法
 48
50.0
100
AcDbLeader
  3
INABA_S50G
 73
     0
 75
     1
 40
132.3863636363636
 41
512.5
 76
     3
 10
8407.819058526357
 20
943.1917839209154
 30
0.0
 10
8236.642784281061
 20
1670.196516502515
 30
0.0
 10
8111.642784281061
 20
1670.196516502515
 30
0.0
340
242CB
1001
ACAD
1000
DSTYLE
1002
{
1070
   341
1005
0
1070
    40
1040
1.0
1070
   343
1005
0
1070
   344
1005
0
1002
}
  0
MTEXT
  5
242CB
102
{ACAD_REACTORS
330
242CA
102
}
330
747D
100
AcDbEntity
  8
寸法
 62
     7
 48
50.0
100
AcDbMText
 10
8086.64278428106
 20
1761.389698320697
 30
0.0
 40
100.0
 41
1.0
 71
     6
 72
     1
  1
\A1;カンザシ
  7
STYLE2
 73
     1
 44
1.0
1001
ACAD
1000
MTEXTBEGIN
1070
    73
1070
     1
1070
    44
1040
1.0
1070
    74
1070
     0
1000
MTEXTEND
  0
LINE
  5
242CC
330
747D
100
AcDbEntity
  8
部品1
100
AcDbLine
 10
8328.38146358522
 20
2085.187967811419
 30
0.0
 11
8328.38146358522
 21
835.1879678114192
 31
0.0
  0
TEXT
  5
242CD
330
747D
100
AcDbEntity
  8
文字
 48
50.0
100
AcDbText
 10
7654.822625646897
 20
729.459230264084
 30
0.0
 40
150.0
  1
基礎天ヨリ
 50
90.0
 41
0.6
  7
STYLE1
100
AcDbText
  0
DIMENSION
  5
242CE
330
747D
100
AcDbEntity
  8
寸法
 48
50.0
100
AcDbDimension
  2
*D19
 10
7233.528134205872
 20
1285.187967811419
 30
0.0
 11
7233.528134205872
 21
1005.557081074304
 31
0.0
 70
   160
  1
300
 71
     5
 42
599.9999999999998
  3
INABA_S50G
100
AcDbAlignedDimension
 13
8088.38146358522
 23
685.1879678114191
 33
0.0
 14
7599.656226769877
 24
1285.187967811419
 34
0.0
 50
90.0
100
AcDbRotatedDimension
1001
ACAD
1000
DSTYLE
1002
{
1070
    40
1040
1.0
1002
}
  0
LINE
  5
242CF
330
747D
100
AcDbEntity
  8
Ｇ．Ｌ
100
AcDbLine
 10
7053.882972045494
 20
1285.187967811421
 30
0.0
 11
8328.38146358522
 21
1285.187967811421
 31
0.0
  0
LINE
  5
242D0
330
747D
100
AcDbEntity
  8
文字
 48
50.0
100
AcDbLine
 10
7085.039199886249
 20
1414.175258994436
 30
0.0
 11
7158.969724079035
 21
1286.123834862329
 31
0.0
  0
LINE
  5
242D1
330
747D
100
AcDbEntity
  8
文字
 48
50.0
100
AcDbLine
 10
7232.900248271822
 20
1414.175258994436
 30
0.0
 11
7085.039199886249
 21
1414.175258994436
 31
0.0
  0
TEXT
  5
242D2
330
747D
100
AcDbEntity
  8
部品1
100
AcDbText
 10
7253.50299782997
 20
1307.984478023693
 30
0.0
 40
150.0
  1
G.L
  7
STYLE1
100
AcDbText
  0
LINE
  5
242D3
330
747D
100
AcDbEntity
  8
文字
 48
50.0
100
AcDbLine
 10
7158.969724079035
 20
1286.123834862329
 30
0.0
 11
7232.900248271822
 21
1414.175258994436
 31
0.0
  0
LINE
  5
242D4
330
747D
100
AcDbEntity
  8
部品1
100
AcDbLine
 10
8088.38146358522
 20
485.1879678114155
 30
0.0
 11
8088.38146358522
 21
1285.187967811419
 31
0.0
  0
DIMENSION
  5
242D5
330
747D
100
AcDbEntity
  8
寸法
 48
50.0
100
AcDbDimension
  2
*D20
 10
7861.745174064772
 20
835.1879678114192
 30
0.0
 11
7861.745174064772
 21
1105.480611396759
 31
0.0
 70
   160
  1
350
 71
     5
 42
650.0
  3
INABA_S50G
100
AcDbAlignedDimension
 13
8328.38146358522
 23
1485.187967811419
 33
0.0
 14
8328.38146358522
 24
835.1879678114192
 34
0.0
 50
90.0
100
AcDbRotatedDimension
1001
ACAD
1000
DSTYLE
1002
{
1070
    40
1040
1.0
1002
}
  0
LINE
  5
242D6
330
747D
100
AcDbEntity
  8
細線
100
AcDbLine
 10
8288.381463585215
 20
685.1879678114191
 30
0.0
 11
8341.97130207144
 21
485.1879678114155
 31
0.0
  0
LINE
  5
242D7
330
747D
100
AcDbEntity
  8
細線
100
AcDbLine
 10
8315.176382828331
 20
685.1879678114191
 30
0.0
 11
8301.778923206772
 21
635.1879678114191
 31
0.0
  0
LINE
  5
242D8
330
747D
100
AcDbEntity
  8
細線
100
AcDbLine
 10
8115.176382828328
 20
685.1879678114155
 30
0.0
 11
8101.778923206776
 21
635.1879678114155
 31
0.0
  0
LINE
  5
242D9
330
747D
100
AcDbEntity
  8
細線
100
AcDbLine
 10
8088.381463585216
 20
685.1879678114155
 30
0.0
 11
8141.971302071443
 21
485.1879678114118
 31
0.0
  0
LINE
  5
242DA
330
747D
100
AcDbEntity
  8
細線
100
AcDbLine
 10
8215.176382828328
 20
685.1879678114155
 30
0.0
 11
8201.778923206772
 21
635.1879678114155
 31
0.0
  0
LINE
  5
242DB
330
747D
100
AcDbEntity
  8
細線
100
AcDbLine
 10
8188.381463585221
 20
685.1879678114155
 30
0.0
 11
8241.971302071439
 21
485.1879678114118
 31
0.0
  0
LINE
  5
242DC
330
747D
100
AcDbEntity
  8
細線
100
AcDbLine
 10
8128.573842449883
 20
535.1879678114155
 30
0.0
 11
8115.176382828328
 21
485.1879678114155
 31
0.0
  0
LINE
  5
242DD
330
747D
100
AcDbEntity
  8
細線
100
AcDbLine
 10
8328.573842449882
 20
535.1879678114191
 30
0.0
 11
8315.176382828331
 21
485.1879678114191
 31
0.0
  0
LINE
  5
242DE
330
747D
100
AcDbEntity
  8
細線
100
AcDbLine
 10
8228.573842449888
 20
535.1879678114155
 30
0.0
 11
8215.176382828328
 21
485.1879678114155
 31
0.0
  0
LINE
  5
242DF
330
747D
100
AcDbEntity
  8
細線
  6
HIDDEN
 48
10.0
100
AcDbLine
 10
8088.38146358522
 20
1005.40389900975
 30
0.0
 11
8328.38146358522
 21
1245.40389900976
 31
0.0
  0
LINE
  5
242E0
330
747D
100
AcDbEntity
  8
細線
  6
HIDDEN
 48
10.0
100
AcDbLine
 10
8088.38146358522
 20
977.1196277622903
 30
0.0
 11
8328.38146358522
 21
1217.119627762305
 31
0.0
  0
LINE
  5
242E1
330
747D
100
AcDbEntity
  8
細線
  6
HIDDEN
 48
10.0
100
AcDbLine
 10
8088.38146358522
 20
948.835356514829
 30
0.0
 11
8328.38146358522
 21
1188.835356514849
 31
0.0
  0
MTEXT
  5
242E2
102
{ACAD_REACTORS
330
242E3
102
}
330
747D
100
AcDbEntity
  8
寸法
 62
     7
 48
50.0
100
AcDbMText
 10
8151.505810762449
 20
2023.748375388826
 30
0.0
 40
100.0
 41
1.0
 71
     6
 72
     1
  1
\A1;柱前
  7
STYLE2
 73
     1
 44
1.0
1001
ACAD
1000
MTEXTBEGIN
1070
    73
1070
     1
1070
    44
1040
1.0
1070
    74
1070
     0
1000
MTEXTEND
  0
LEADER
  5
242E3
330
747D
100
AcDbEntity
  8
寸法
 48
50.0
100
AcDbLeader
  3
INABA_S50G
 73
     0
 75
     1
 40
131.25
 41
275.0
 76
     3
 10
8354.076738934677
 20
1783.264284982858
 30
0.0
 10
8301.505810762447
 20
1933.123375388825
 30
0.0
 10
8176.505810762447
 20
1933.123375388825
 30
0.0
340
242E2
1001
ACAD
1000
DSTYLE
1002
{
1070
   341
1005
0
1070
    40
1040
1.0
1070
   343
1005
0
1070
   344
1005
0
1002
}
  0
LINE
  5
242E4
330
747D
100
AcDbEntity
  8
部品1
100
AcDbLine
 10
8438.381463585221
 20
2085.187967811419
 30
0.0
 11
8438.381463585221
 21
835.1879678114192
 31
0.0
  0
CIRCLE
  5
242E5
330
747D
100
AcDbEntity
  8
部品1
 48
50.0
100
AcDbCircle
 10
8407.023546156647
 20
928.2128934389866
 30
0.0
 40
15.0
  0
LINE
  5
242E6
330
747D
100
AcDbEntity
  8
部品1
100
AcDbLine
 10
8688.381463585221
 20
1285.187967811419
 30
0.0
 11
8688.381463585221
 21
485.1879678114173
 31
0.0
  0
LINE
  5
242E7
330
747D
100
AcDbEntity
  8
細線
100
AcDbLine
 10
8488.38146358522
 20
685.1879678114191
 30
0.0
 11
8541.97130207144
 21
485.1879678114155
 31
0.0
  0
LINE
  5
242E8
330
747D
100
AcDbEntity
  8
細線
100
AcDbLine
 10
8515.176382828327
 20
685.1879678114191
 30
0.0
 11
8501.778923206771
 21
635.1879678114191
 31
0.0
  0
LINE
  5
242E9
330
747D
100
AcDbEntity
  8
細線
100
AcDbLine
 10
8615.17638282833
 20
685.1879678114191
 30
0.0
 11
8601.77892320677
 21
635.1879678114191
 31
0.0
  0
LINE
  5
242EA
330
747D
100
AcDbEntity
  8
細線
100
AcDbLine
 10
8588.381463585216
 20
685.1879678114191
 30
0.0
 11
8641.971302071439
 21
485.1879678114191
 31
0.0
  0
LINE
  5
242EB
330
747D
100
AcDbEntity
  8
細線
100
AcDbLine
 10
8415.176382828327
 20
685.1879678114191
 30
0.0
 11
8401.778923206775
 21
635.1879678114191
 31
0.0
  0
LINE
  5
242EC
330
747D
100
AcDbEntity
  8
細線
100
AcDbLine
 10
8388.381463585217
 20
685.1879678114191
 30
0.0
 11
8441.971302071442
 21
485.1879678114155
 31
0.0
  0
LINE
  5
242ED
330
747D
100
AcDbEntity
  8
細線
100
AcDbLine
 10
8528.573842449887
 20
535.1879678114191
 30
0.0
 11
8515.176382828327
 21
485.1879678114191
 31
0.0
  0
LINE
  5
242EE
330
747D
100
AcDbEntity
  8
細線
100
AcDbLine
 10
8428.573842449884
 20
535.1879678114191
 30
0.0
 11
8415.176382828327
 21
485.1879678114191
 31
0.0
  0
LINE
  5
242EF
330
747D
100
AcDbEntity
  8
細線
100
AcDbLine
 10
8628.573842449883
 20
535.1879678114191
 30
0.0
 11
8615.17638282833
 21
485.1879678114191
 31
0.0
  0
LINE
  5
242F0
330
747D
100
AcDbEntity
  8
Ｇ．Ｌ
100
AcDbLine
 10
8438.381463585221
 20
1285.187967811421
 30
0.0
 11
8814.201333579161
 21
1285.187967811421
 31
0.0
  0
LINE
  5
242F1
330
747D
100
AcDbEntity
  8
細線
100
AcDbLine
 10
8814.201333579161
 20
1345.86161065
 30
0.0
 11
8674.874976417738
 21
1485.187967811421
 31
0.0
  0
LINE
  5
242F2
330
747D
100
AcDbEntity
  8
細線
100
AcDbLine
 10
8814.201333579161
 20
1303.435203778805
 30
0.0
 11
8632.448569546546
 21
1485.187967811421
 31
0.0
  0
LINE
  5
242F3
330
747D
100
AcDbEntity
  8
部品1
100
AcDbLine
 10
8814.201333579161
 20
1485.187967811421
 30
0.0
 11
8438.381463585221
 21
1485.187967811419
 31
0.0
  0
LINE
  5
242F4
330
747D
100
AcDbEntity
  8
細線
100
AcDbLine
 10
8566.836133148607
 20
1285.187967811421
 30
0.0
 11
8438.381463585216
 21
1413.642637374813
 31
0.0
  0
LINE
  5
242F5
330
747D
100
AcDbEntity
  8
細線
100
AcDbLine
 10
8524.409726277415
 20
1285.187967811421
 30
0.0
 11
8438.381463585216
 21
1371.216230503621
 31
0.0
  0
DIMENSION
  5
242F6
330
747D
100
AcDbEntity
  8
寸法
 48
50.0
100
AcDbDimension
  2
*D21
 10
9719.754645344968
 20
685.1879678114191
 30
0.0
 11
9619.73988156544
 21
985.1879678114217
 31
0.0
 70
    32
  1
200
 71
     5
 42
600.0000000000019
  3
INABA_S50G
100
AcDbAlignedDimension
 13
9826.22001252826
 23
1285.187967811421
 33
0.0
 14
9949.973385238793
 24
685.1879678114191
 34
0.0
 50
90.0
100
AcDbRotatedDimension
1001
ACAD
1000
DSTYLE
1002
{
1070
    40
1040
1.0
1002
}
  0
LINE
  5
242F7
330
747D
100
AcDbEntity
  8
部品1
 48
50.0
100
AcDbLine
 10
9895.759967924108
 20
1485.187967811421
 30
0.0
 11
9895.759967924108
 21
1285.187967811421
 31
0.0
  0
LINE
  5
242F8
330
747D
100
AcDbEntity
  8
細線
100
AcDbLine
 10
9972.608184808237
 20
1285.187967811423
 30
0.0
 11
9895.759967924108
 21
1362.036184695555
 31
0.0
  0
LINE
  5
242F9
330
747D
100
AcDbEntity
  8
細線
100
AcDbLine
 10
9930.181777937045
 20
1285.187967811423
 30
0.0
 11
9895.759967924108
 21
1319.609777824359
 31
0.0
  0
LINE
  5
242FA
330
747D
100
AcDbEntity
  8
部品1
100
AcDbLine
 10
8814.201333579161
 20
1585.187967811421
 30
0.0
 11
8438.381463585221
 21
1585.187967811421
 31
0.0
  0
LINE
  5
242FB
330
747D
100
AcDbEntity
  8
部品1
100
AcDbLine
 10
8814.201333579161
 20
1607.687967811423
 30
0.0
 11
8438.381463585221
 21
1607.687967811421
 31
0.0
  0
LINE
  5
24302
330
747D
100
AcDbEntity
  8
部品1
100
AcDbLine
 10
12935.02497347595
 20
2535.814306541587
 30
0.0
 11
12935.02497347595
 21
135.814306541587
 31
0.0
  0
MTEXT
  5
24303
330
747D
100
AcDbEntity
  8
文字
 48
50.0
100
AcDbMText
 10
11053.87040867305
 20
844.6979665777444
 30
0.0
 40
100.0
 41
1.0
 71
     1
 72
     5
  1
a寸法：100～120mmに対応\P\U+203BオールアンカーM10(市販品)\P  が2本必要になります。
  7
STYLE2
 73
     1
 44
1.0
1001
ACAD
1000
MTEXTBEGIN
1070
    73
1070
     1
1070
    44
1040
1.0
1070
    74
1070
     0
1000
MTEXTEND
  0
LINE
  5
24304
330
747D
100
AcDbEntity
  8
細線
100
AcDbLine
 10
11826.48239476906
 20
1576.230276739115
 30
0.0
 11
11626.48239476906
 21
1776.230276739118
 31
0.0
  0
LINE
  5
24305
330
747D
100
AcDbEntity
  8
部品1
100
AcDbLine
 10
11088.23515880168
 20
1876.230276739116
 30
0.0
 11
11909.90126495325
 21
1876.230276739116
 31
0.0
  0
LINE
  5
24306
330
747D
100
AcDbEntity
  8
部品1
100
AcDbLine
 10
11088.23515880168
 20
1776.230276739118
 30
0.0
 11
11899.46159375741
 21
1776.230276739118
 31
0.0
  0
LINE
  5
24307
330
747D
100
AcDbEntity
  8
部品1
100
AcDbLine
 10
11088.23515880168
 20
1898.730276739117
 30
0.0
 11
11880.01235686292
 21
1898.730276739117
 31
0.0
  0
LINE
  5
24308
330
747D
100
AcDbEntity
  8
細線
 48
10.0
100
AcDbLine
 10
11306.16990173989
 20
1086.707878151762
 30
0.0
 11
11795.6923003272
 21
1576.230276739116
 31
0.0
  0
LINE
  5
24309
330
747D
100
AcDbEntity
  8
細線
 48
10.0
100
AcDbLine
 10
11249.60135924496
 20
1086.707878151762
 30
0.0
 11
11739.12375783229
 21
1576.230276739116
 31
0.0
  0
LINE
  5
2430A
330
747D
100
AcDbEntity
  8
細線
 48
10.0
100
AcDbLine
 10
11277.88563049242
 20
1086.707878151762
 30
0.0
 11
11767.40802907975
 21
1576.230276739116
 31
0.0
  0
LINE
  5
2430B
330
747D
100
AcDbEntity
  8
Ｇ．Ｌ
100
AcDbLine
 10
11088.23515880168
 20
1576.230276739116
 30
0.0
 11
12816.19205905708
 21
1576.230276739116
 31
0.0
  0
LINE
  5
2430C
330
747D
100
AcDbEntity
  8
細線
 48
10.0
100
AcDbLine
 10
11088.23515880168
 20
1323.715795313868
 30
0.0
 11
11340.74964022691
 21
1576.230276739115
 31
0.0
  0
LINE
  5
2430D
330
747D
100
AcDbEntity
  8
細線
 48
10.0
100
AcDbLine
 10
11088.23515880168
 20
1295.431524066406
 30
0.0
 11
11369.03391147437
 21
1576.230276739116
 31
0.0
  0
LINE
  5
2430E
330
747D
100
AcDbEntity
  8
細線
 48
10.0
100
AcDbLine
 10
11088.23515880168
 20
1352.00006656133
 30
0.0
 11
11312.46536897946
 21
1576.230276739116
 31
0.0
  0
LINE
  5
2430F
330
747D
100
AcDbEntity
  8
部品1
100
AcDbLine
 10
10219.97338523879
 20
1548.187967811421
 30
0.0
 11
10219.97338523879
 21
1249.833436799429
 31
0.0
  0
LINE
  5
24310
330
747D
100
AcDbEntity
  8
部品1
100
AcDbLine
 10
10299.97338523879
 20
1548.187967811421
 30
0.0
 11
10299.97338523879
 21
1249.833436799429
 31
0.0
  0
LINE
  5
24311
330
747D
100
AcDbEntity
  8
部品1
100
AcDbLine
 10
10299.97338523879
 20
2085.187967811419
 30
0.0
 11
10299.97338523879
 21
1285.187967811421
 31
0.0
  0
LINE
  5
24312
330
747D
100
AcDbEntity
  8
Ｇ．Ｌ
100
AcDbLine
 10
10299.97338523879
 20
1285.187967811421
 30
0.0
 11
10831.76944717187
 21
1285.187967811421
 31
0.0
  0
LINE
  5
24313
330
747D
100
AcDbEntity
  8
細線
  6
HIDDEN
 48
10.0
100
AcDbLine
 10
10162.98438538821
 20
685.1879678114228
 30
0.0
 11
10549.97338523879
 21
1072.17696766201
 31
0.0
  0
LINE
  5
24314
330
747D
100
AcDbEntity
  8
細線
  6
HIDDEN
 48
10.0
100
AcDbLine
 10
10106.41584289329
 20
685.187967811421
 30
0.0
 11
10549.97338523879
 21
1128.745510156935
 31
0.0
  0
LINE
  5
24315
330
747D
100
AcDbEntity
  8
細線
  6
HIDDEN
 48
10.0
100
AcDbLine
 10
10134.70011414075
 20
685.1879678114228
 30
0.0
 11
10549.97338523879
 21
1100.461238909475
 31
0.0
  0
LINE
  5
24316
330
747D
100
AcDbEntity
  8
文字
 48
50.0
100
AcDbLine
 10
10375.03195913137
 20
1413.239391943528
 30
0.0
 11
10448.96248332416
 21
1285.187967811421
 31
0.0
  0
LINE
  5
24317
330
747D
100
AcDbEntity
  8
文字
 48
50.0
100
AcDbLine
 10
10522.89300751694
 20
1413.239391943528
 30
0.0
 11
10375.03195913137
 21
1413.239391943528
 31
0.0
  0
CIRCLE
  5
24318
330
747D
100
AcDbEntity
  8
細線
100
AcDbCircle
 10
10259.97338523879
 20
1233.187967811421
 30
0.0
 40
16.0
  0
LINE
  5
24319
330
747D
100
AcDbEntity
  8
部品1
100
AcDbLine
 10
10300.87015424686
 20
1246.578428510322
 30
0.0
 11
10329.97338523879
 21
961.5879678114206
 31
0.0
  0
LINE
  5
2431A
330
747D
100
AcDbEntity
  8
部品1
100
AcDbLine
 10
10219.07661623072
 20
1246.578428510322
 30
0.0
 11
10189.97338523879
 21
961.5879678114206
 31
0.0
  0
LINE
  5
2431B
330
747D
100
AcDbEntity
  8
部品1
100
AcDbLine
 10
10189.97338523879
 20
949.5879678114206
 30
0.0
 11
10329.97338523879
 21
949.5879678114206
 31
0.0
  0
LINE
  5
2431C
330
747D
100
AcDbEntity
  8
部品1
100
AcDbLine
 10
10189.97338523879
 20
961.5879678114206
 30
0.0
 11
10329.97338523879
 21
961.5879678114206
 31
0.0
  0
LINE
  5
2431D
330
747D
100
AcDbEntity
  8
部品1
100
AcDbLine
 10
10189.97338523879
 20
961.587967811417
 30
0.0
 11
10189.97338523879
 21
949.5879678114206
 31
0.0
  0
LINE
  5
2431E
330
747D
100
AcDbEntity
  8
細線
100
AcDbLine
 10
10244.97338523879
 20
1168.187967811415
 30
0.0
 11
10274.97338523879
 21
1168.187967811421
 31
0.0
  0
ARC
  5
2431F
330
747D
100
AcDbEntity
  8
細線
100
AcDbCircle
 10
10259.97338523879
 20
1193.587967811417
 30
0.0
 40
8.0
100
AcDbArc
 50
180.0
 51
0.0
  0
LINE
  5
24320
330
747D
100
AcDbEntity
  8
細線
100
AcDbLine
 10
10244.97338523879
 20
1169.587967811422
 30
0.0
 11
10274.97338523879
 21
1169.587967811419
 31
0.0
  0
LINE
  5
24321
330
747D
100
AcDbEntity
  8
細線
100
AcDbLine
 10
10251.97338523879
 20
1219.33156135087
 30
0.0
 11
10251.97338523879
 21
1193.587967811417
 31
0.0
  0
LINE
  5
24322
330
747D
100
AcDbEntity
  8
細線
100
AcDbLine
 10
10267.97338523879
 20
1219.33156135087
 30
0.0
 11
10267.97338523879
 21
1193.587967811417
 31
0.0
  0
LINE
  5
24323
330
747D
100
AcDbEntity
  8
部品1
100
AcDbLine
 10
10329.97338523879
 20
961.5879678114206
 30
0.0
 11
10329.97338523879
 21
949.5879678114206
 31
0.0
  0
LINE
  5
24324
330
747D
100
AcDbEntity
  8
細線
100
AcDbLine
 10
10273.97338523879
 20
1163.587967811422
 30
0.0
 11
10274.97338523879
 21
1163.587967811419
 31
0.0
  0
ARC
  5
24325
330
747D
100
AcDbEntity
  8
細線
100
AcDbCircle
 10
10267.85027961317
 20
1155.587967811415
 30
0.0
 40
4.0
100
AcDbArc
 50
270.0
 51
345.9637565320483
  0
LINE
  5
24326
330
747D
100
AcDbEntity
  8
細線
100
AcDbLine
 10
10273.97338523879
 20
1163.587967811417
 30
0.0
 11
10271.73084961375
 21
1154.617825311267
 31
0.0
  0
ARC
  5
24327
330
747D
100
AcDbEntity
  8
細線
100
AcDbCircle
 10
10252.09649086441
 20
1155.587967811413
 30
0.0
 40
4.0
100
AcDbArc
 50
194.0362434679517
 51
270.0
  0
LINE
  5
24328
330
747D
100
AcDbEntity
  8
細線
100
AcDbLine
 10
10245.97338523879
 20
1163.587967811417
 30
0.0
 11
10248.21592086383
 21
1154.617825311267
 31
0.0
  0
LINE
  5
24329
330
747D
100
AcDbEntity
  8
細線
100
AcDbLine
 10
10252.09649086441
 20
1151.587967811411
 30
0.0
 11
10267.85027961317
 21
1151.587967811417
 31
0.0
  0
LINE
  5
2432A
330
747D
100
AcDbEntity
  8
細線
100
AcDbLine
 10
10244.97338523879
 20
1163.587967811422
 30
0.0
 11
10245.97338523879
 21
1163.587967811422
 31
0.0
  0
LINE
  5
2432B
330
747D
100
AcDbEntity
  8
細線
100
AcDbLine
 10
10274.97338523879
 20
1019.587967811415
 30
0.0
 11
10274.97338523879
 21
1013.587967811415
 31
0.0
  0
LINE
  5
2432C
330
747D
100
AcDbEntity
  8
細線
100
AcDbLine
 10
10274.97338523879
 20
979.587967811417
 30
0.0
 11
10274.97338523879
 21
973.5879678114169
 31
0.0
  0
LINE
  5
2432D
330
747D
100
AcDbEntity
  8
細線
100
AcDbLine
 10
10244.97338523879
 20
1019.587967811424
 30
0.0
 11
10244.97338523879
 21
1013.587967811417
 31
0.0
  0
LINE
  5
2432E
330
747D
100
AcDbEntity
  8
細線
100
AcDbLine
 10
10244.97338523879
 20
979.5879678114205
 30
0.0
 11
10244.97338523879
 21
973.5879678114187
 31
0.0
  0
LINE
  5
2432F
330
747D
100
AcDbEntity
  8
細線
100
AcDbLine
 10
10244.97338523879
 20
1013.587967811424
 30
0.0
 11
10274.97338523879
 21
1013.587967811417
 31
0.0
  0
LINE
  5
24330
330
747D
100
AcDbEntity
  8
細線
100
AcDbLine
 10
10244.97338523879
 20
1019.587967811424
 30
0.0
 11
10274.97338523879
 21
1019.587967811417
 31
0.0
  0
LINE
  5
24331
330
747D
100
AcDbEntity
  8
細線
100
AcDbLine
 10
10244.97338523879
 20
979.5879678114205
 30
0.0
 11
10274.97338523879
 21
979.5879678114188
 31
0.0
  0
LINE
  5
24332
330
747D
100
AcDbEntity
  8
細線
100
AcDbLine
 10
10244.97338523879
 20
973.5879678114207
 30
0.0
 11
10274.97338523879
 21
973.5879678114187
 31
0.0
  0
LINE
  5
24333
330
747D
100
AcDbEntity
  8
細線
100
AcDbLine
 10
10274.97338523879
 20
1169.587967811417
 30
0.0
 11
10274.97338523879
 21
1163.587967811417
 31
0.0
  0
LINE
  5
24334
330
747D
100
AcDbEntity
  8
細線
100
AcDbLine
 10
10273.97338523879
 20
1168.187967811417
 30
0.0
 11
10273.97338523879
 21
1163.587967811419
 31
0.0
  0
LINE
  5
24335
330
747D
100
AcDbEntity
  8
細線
100
AcDbLine
 10
10245.97338523879
 20
1168.187967811415
 30
0.0
 11
10245.97338523879
 21
1163.587967811419
 31
0.0
  0
LINE
  5
24336
330
747D
100
AcDbEntity
  8
細線
100
AcDbLine
 10
10244.97338523879
 20
1169.587967811422
 30
0.0
 11
10244.97338523879
 21
1163.587967811419
 31
0.0
  0
LINE
  5
24337
330
747D
100
AcDbEntity
  8
細線
100
AcDbLine
 10
10219.97338523879
 20
1345.861610650002
 30
0.0
 11
10080.64702807737
 21
1485.187967811422
 31
0.0
  0
LINE
  5
24338
330
747D
100
AcDbEntity
  8
細線
100
AcDbLine
 10
10219.97338523879
 20
1303.435203778807
 30
0.0
 11
10038.22062120617
 21
1485.187967811422
 31
0.0
  0
ARC
  5
24339
330
747D
100
AcDbEntity
  8
部品1
100
AcDbCircle
 10
10290.91932575855
 20
1245.587967811415
 30
0.0
 40
10.0
100
AcDbArc
 50
5.68424159818561
 51
90.0
  0
LINE
  5
2433A
330
747D
100
AcDbEntity
  8
細線
  6
HIDDEN
 48
10.0
100
AcDbLine
 10
10299.97338523879
 20
1277.119627762308
 30
0.0
 11
10308.0417252879
 21
1285.187967811421
 31
0.0
  0
LINE
  5
2433B
330
747D
100
AcDbEntity
  8
細線
  6
HIDDEN
 48
10.0
100
AcDbLine
 10
10300.27019118739
 20
1249.132162463457
 30
0.0
 11
10336.32599653536
 21
1285.187967811423
 31
0.0
  0
LINE
  5
2433C
330
747D
100
AcDbEntity
  8
細線
100
AcDbLine
 10
10267.97338523879
 20
1498.187967811421
 30
0.0
 11
10267.97338523879
 21
1458.187967811421
 31
0.0
  0
LINE
  5
2433D
330
747D
100
AcDbEntity
  8
細線
100
AcDbLine
 10
10251.97338523879
 20
1498.187967811421
 30
0.0
 11
10251.97338523879
 21
1458.187967811421
 31
0.0
  0
ARC
  5
2433E
330
747D
100
AcDbEntity
  8
細線
100
AcDbCircle
 10
10259.97338523879
 20
1458.187967811421
 30
0.0
 40
8.0
100
AcDbArc
 50
180.0
 51
0.0
  0
ARC
  5
2433F
330
747D
100
AcDbEntity
  8
細線
100
AcDbCircle
 10
10259.97338523879
 20
1498.187967811421
 30
0.0
 40
8.0
100
AcDbArc
 50
0.0
 51
180.0
  0
CIRCLE
  5
24340
330
747D
100
AcDbEntity
  8
細線
100
AcDbCircle
 10
10259.97338523879
 20
1388.187967811423
 30
0.0
 40
7.0
  0
CIRCLE
  5
24341
330
747D
100
AcDbEntity
  8
細線
100
AcDbCircle
 10
10259.97338523879
 20
1388.187967811423
 30
0.0
 40
6.0
  0
ARC
  5
24342
330
747D
100
AcDbEntity
  8
部品1
100
AcDbCircle
 10
10229.02744471903
 20
1245.587967811419
 30
0.0
 40
10.0
100
AcDbArc
 50
90.0
 51
174.3157584018144
  0
LINE
  5
24343
330
747D
100
AcDbEntity
  8
部品1
100
AcDbLine
 10
10229.02744471903
 20
1255.587967811421
 30
0.0
 11
10290.91932575855
 21
1255.587967811415
 31
0.0
  0
TEXT
  5
24344
330
747D
100
AcDbEntity
  8
部品1
100
AcDbText
 10
10543.49575707509
 20
1307.048610972785
 30
0.0
 40
150.0
  1
G.L
  7
STYLE1
100
AcDbText
  0
LINE
  5
24345
330
747D
100
AcDbEntity
  8
文字
 48
50.0
100
AcDbLine
 10
10448.96248332416
 20
1285.187967811421
 30
0.0
 11
10522.89300751694
 21
1413.239391943528
 31
0.0
  0
LINE
  5
24346
330
747D
100
AcDbEntity
  8
部品1
100
AcDbLine
 10
10189.97338523879
 20
2085.187967811419
 30
0.0
 11
10189.97338523879
 21
1585.187967811421
 31
0.0
  0
ARC
  5
24347
330
747D
100
AcDbEntity
  8
部品1
100
AcDbCircle
 10
10289.97338523879
 20
1548.187967811421
 30
0.0
 40
10.0
100
AcDbArc
 50
0.0
 51
90.0
  0
ARC
  5
24348
330
747D
100
AcDbEntity
  8
部品1
100
AcDbCircle
 10
10229.97338523879
 20
1548.187967811421
 30
0.0
 40
10.0
100
AcDbArc
 50
90.0
 51
180.0
  0
LINE
  5
24349
330
747D
100
AcDbEntity
  8
部品1
100
AcDbLine
 10
10229.97338523879
 20
1558.187967811421
 30
0.0
 11
10289.97338523879
 21
1558.187967811421
 31
0.0
  0
CIRCLE
  5
2434A
330
747D
100
AcDbEntity
  8
部品1
100
AcDbCircle
 10
10259.97338523879
 20
1528.187967811421
 30
0.0
 40
16.0
  0
LINE
  5
24351
330
747D
100
AcDbEntity
  8
部品1
 48
50.0
100
AcDbLine
 10
11585.79893954823
 20
1776.230276739116
 30
0.0
 11
11585.79893954823
 21
1576.230276739116
 31
0.0
  0
LINE
  5
24352
330
747D
100
AcDbEntity
  8
細線
 48
10.0
100
AcDbLine
 10
12131.20240819806
 20
1086.707878151762
 30
0.0
 11
12620.7248067854
 21
1576.230276739116
 31
0.0
  0
LINE
  5
24353
330
747D
100
AcDbEntity
  8
細線
 48
10.0
100
AcDbLine
 10
12159.48667944552
 20
1086.707878151762
 30
0.0
 11
12649.00907803287
 21
1576.230276739116
 31
0.0
  0
LINE
  5
24354
330
747D
100
AcDbEntity
  8
部品1
100
AcDbLine
 10
11958.10086603997
 20
1499.643553115677
 30
0.0
 11
11951.92285749645
 21
1540.830276739117
 31
0.0
  0
LINE
  5
24355
330
747D
100
AcDbEntity
  8
部品1
100
AcDbLine
 10
11948.10185622938
 20
1540.830276739117
 30
0.0
 11
11941.92384768586
 21
1499.643553115677
 31
0.0
  0
LINE
  5
24356
330
747D
100
AcDbEntity
  8
部品1
100
AcDbLine
 10
11966.01235686292
 20
1500.830276739115
 30
0.0
 11
11960.01235686292
 21
1540.830276739117
 31
0.0
  0
LINE
  5
24357
330
747D
100
AcDbEntity
  8
部品1
100
AcDbLine
 10
11940.01235686292
 20
1540.830276739117
 30
0.0
 11
11934.01235686292
 21
1500.830276739115
 31
0.0
  0
LINE
  5
24358
330
747D
100
AcDbEntity
  8
細線
 48
10.0
100
AcDbLine
 10
12102.9181369506
 20
1086.707878151762
 30
0.0
 11
12592.44053553794
 21
1576.230276739116
 31
0.0
  0
LINE
  5
24359
330
747D
100
AcDbEntity
  8
細線
 48
10.0
100
AcDbLine
 10
11732.8282905927
 20
1086.707878151762
 30
0.0
 11
12222.35068918004
 21
1576.230276739116
 31
0.0
  0
LINE
  5
2435A
330
747D
100
AcDbEntity
  8
細線
 48
10.0
100
AcDbLine
 10
11676.25974809778
 20
1086.707878151762
 30
0.0
 11
12165.78214668512
 21
1576.230276739116
 31
0.0
  0
LINE
  5
2435B
330
747D
100
AcDbEntity
  8
細線
 48
10.0
100
AcDbLine
 10
11704.54401934524
 20
1086.707878151762
 30
0.0
 11
12194.06641793258
 21
1576.230276739116
 31
0.0
  0
LINE
  5
2435C
330
747D
100
AcDbEntity
  8
部品1
100
AcDbLine
 10
11957.21082332239
 20
1505.577171232883
 30
0.0
 11
11965.12231414534
 21
1506.763894856326
 31
0.0
  0
LINE
  5
2435D
330
747D
100
AcDbEntity
  8
部品1
100
AcDbLine
 10
11934.9023995805
 20
1506.763894856326
 30
0.0
 11
11942.81389040344
 21
1505.577171232883
 31
0.0
  0
LINE
  5
2435E
330
747D
100
AcDbEntity
  8
部品1
100
AcDbLine
 10
11958.10086603997
 20
1499.643553115677
 30
0.0
 11
11966.01235686292
 21
1500.830276739115
 31
0.0
  0
LINE
  5
2435F
330
747D
100
AcDbEntity
  8
部品1
100
AcDbLine
 10
11934.01235686292
 20
1500.830276739115
 30
0.0
 11
11941.92384768586
 21
1499.643553115677
 31
0.0
  0
LINE
  5
24360
330
747D
100
AcDbEntity
  8
細線
 48
10.0
100
AcDbLine
 10
12586.14506829834
 20
1086.707878151762
 30
0.0
 11
12816.19205905708
 21
1316.754868910509
 31
0.0
  0
LINE
  5
24361
330
747D
100
AcDbEntity
  8
細線
 48
10.0
100
AcDbLine
 10
12557.86079705088
 20
1086.707878151762
 30
0.0
 11
12816.19205905708
 21
1345.039140157975
 31
0.0
  0
LINE
  5
24362
330
747D
100
AcDbEntity
  8
細線
 48
10.0
100
AcDbLine
 10
12529.57652580342
 20
1086.707878151762
 30
0.0
 11
12816.19205905708
 21
1373.323411405437
 31
0.0
  0
LINE
  5
24363
330
747D
100
AcDbEntity
  8
文字
 48
50.0
100
AcDbLine
 10
12442.20903875376
 20
1576.230276739115
 30
0.0
 11
12516.13956294654
 21
1704.281700871222
 31
0.0
  0
LINE
  5
24364
330
747D
100
AcDbEntity
  8
文字
 48
50.0
100
AcDbLine
 10
12516.13956294654
 20
1704.281700871222
 30
0.0
 11
12368.27851456097
 21
1704.281700871222
 31
0.0
  0
LINE
  5
24365
330
747D
100
AcDbEntity
  8
部品1
100
AcDbLine
 10
11990.01235686292
 20
2376.230276739113
 30
0.0
 11
11990.01235686292
 21
1876.475745727127
 31
0.0
  0
LINE
  5
24366
330
747D
100
AcDbEntity
  8
部品1
100
AcDbLine
 10
11880.01235686292
 20
2376.230276739113
 30
0.0
 11
11880.01235686292
 21
1876.230276739116
 31
0.0
  0
DIMENSION
  5
24367
330
747D
100
AcDbEntity
  8
寸法
 48
50.0
100
AcDbDimension
  2
*D22
 10
12235.50584395844
 20
1576.230276739116
 30
0.0
 11
12235.50584395844
 21
1664.827349887956
 31
0.0
 70
   160
  1
a
 71
     5
 42
200.0000000000018
  3
INABA_S50G
100
AcDbAlignedDimension
 13
12000.56311996843
 23
1776.230276739118
 33
0.0
 14
12390.01235686292
 24
1576.230276739116
 34
0.0
 50
90.0
100
AcDbRotatedDimension
1001
ACAD
1000
DSTYLE
1002
{
1070
    40
1040
1.0
1002
}
  0
LINE
  5
24368
330
747D
100
AcDbEntity
  8
部品1
100
AcDbLine
 10
11990.90912587099
 20
1873.220737438017
 30
0.0
 11
12020.01235686292
 21
1588.230276739117
 31
0.0
  0
LINE
  5
24369
330
747D
100
AcDbEntity
  8
部品1
100
AcDbLine
 10
11909.11558785485
 20
1873.220737438017
 30
0.0
 11
11880.01235686292
 21
1588.230276739117
 31
0.0
  0
LINE
  5
2436A
330
747D
100
AcDbEntity
  8
細線
100
AcDbLine
 10
11868.90880164026
 20
1576.230276739115
 30
0.0
 11
11668.90880164026
 21
1776.230276739118
 31
0.0
  0
LINE
  5
2436B
330
747D
100
AcDbEntity
  8
部品1
100
AcDbLine
 10
11970.01235686292
 20
1591.23027673912
 30
0.0
 11
11970.01235686292
 21
1604.230276739117
 31
0.0
  0
LINE
  5
2436C
330
747D
100
AcDbEntity
  8
部品1
100
AcDbLine
 10
11930.01235686292
 20
1591.230276739116
 30
0.0
 11
11930.01235686292
 21
1604.230276739117
 31
0.0
  0
LINE
  5
2436D
330
747D
100
AcDbEntity
  8
部品1
100
AcDbLine
 10
11960.01235686292
 20
1591.230276739116
 30
0.0
 11
11960.01235686292
 21
1628.230276739116
 31
0.0
  0
LINE
  5
2436E
330
747D
100
AcDbEntity
  8
部品1
100
AcDbLine
 10
11940.01235686292
 20
1591.230276739116
 30
0.0
 11
11940.01235686292
 21
1628.230276739116
 31
0.0
  0
LINE
  5
2436F
330
747D
100
AcDbEntity
  8
部品1
100
AcDbLine
 10
11980.01235686292
 20
1588.230276739117
 30
0.0
 11
11980.01235686292
 21
1591.230276739126
 31
0.0
  0
LINE
  5
24370
330
747D
100
AcDbEntity
  8
部品1
100
AcDbLine
 10
12020.01235686292
 20
1588.230276739117
 30
0.0
 11
12020.01235686292
 21
1576.230276739116
 31
0.0
  0
LINE
  5
24371
330
747D
100
AcDbEntity
  8
細線
100
AcDbLine
 10
11965.01235686292
 20
1796.230276739113
 30
0.0
 11
11965.01235686292
 21
1790.230276739113
 31
0.0
  0
LINE
  5
24372
330
747D
100
AcDbEntity
  8
細線
100
AcDbLine
 10
11935.01235686292
 20
1796.230276739116
 30
0.0
 11
11935.01235686292
 21
1790.230276739116
 31
0.0
  0
LINE
  5
24373
330
747D
100
AcDbEntity
  8
細線
100
AcDbLine
 10
11935.01235686292
 20
1790.230276739116
 30
0.0
 11
11965.01235686292
 21
1790.230276739116
 31
0.0
  0
LINE
  5
24374
330
747D
100
AcDbEntity
  8
部品1
100
AcDbLine
 10
11943.01235686292
 20
1636.483172762776
 30
0.0
 11
11957.01235686292
 21
1636.483172762776
 31
0.0
  0
LINE
  5
24375
330
747D
100
AcDbEntity
  8
部品1
100
AcDbLine
 10
11957.01235686292
 20
1636.483172762776
 30
0.0
 11
11957.01235686292
 21
1640.483172762778
 31
0.0
  0
LINE
  5
24376
330
747D
100
AcDbEntity
  8
部品1
100
AcDbLine
 10
11943.01235686292
 20
1636.483172762776
 30
0.0
 11
11943.01235686292
 21
1640.483172762778
 31
0.0
  0
LINE
  5
24377
330
747D
100
AcDbEntity
  8
部品1
100
AcDbLine
 10
11955.01235686292
 20
1628.230276739116
 30
0.0
 11
11955.01235686292
 21
1636.483172762776
 31
0.0
  0
LINE
  5
24378
330
747D
100
AcDbEntity
  8
部品1
100
AcDbLine
 10
11945.01235686292
 20
1628.230276739116
 30
0.0
 11
11945.01235686292
 21
1636.483172762776
 31
0.0
  0
LINE
  5
24379
330
747D
100
AcDbEntity
  8
部品1
100
AcDbLine
 10
11943.01235686292
 20
1640.483172762778
 30
0.0
 11
11957.01235686292
 21
1640.483172762778
 31
0.0
  0
ARC
  5
2437A
330
747D
100
AcDbEntity
  8
部品1
100
AcDbCircle
 10
11950.01235686292
 20
1583.141643518299
 30
0.0
 40
23.33946124318486
100
AcDbArc
 50
64.63020194519632
 51
115.3697980548037
  0
ARC
  5
2437B
330
747D
100
AcDbEntity
  8
部品1
100
AcDbCircle
 10
11965.01235686292
 20
1599.715521948798
 30
0.0
 40
6.736691384996243
100
AcDbArc
 50
42.08048849856768
 51
137.9195115014323
  0
ARC
  5
2437C
330
747D
100
AcDbEntity
  8
部品1
100
AcDbCircle
 10
11935.01235686292
 20
1599.715521948798
 30
0.0
 40
6.736691384996243
100
AcDbArc
 50
42.08048849856768
 51
137.9195115014323
  0
LINE
  5
2437D
330
747D
100
AcDbEntity
  8
部品1
100
AcDbLine
 10
11930.01235686292
 20
1604.230276739117
 30
0.0
 11
11970.01235686292
 21
1604.230276739117
 31
0.0
  0
LINE
  5
2437E
330
747D
100
AcDbEntity
  8
部品1
100
AcDbLine
 10
11960.01235686292
 20
1608.630276739118
 30
0.0
 11
11965.01235686292
 21
1608.630276739118
 31
0.0
  0
LINE
  5
2437F
330
747D
100
AcDbEntity
  8
部品1
100
AcDbLine
 10
11967.01235686292
 20
1607.230276739116
 30
0.0
 11
11970.01235686292
 21
1604.230276739117
 31
0.0
  0
LINE
  5
24380
330
747D
100
AcDbEntity
  8
部品1
100
AcDbLine
 10
11933.01235686292
 20
1607.230276739116
 30
0.0
 11
11930.01235686292
 21
1604.230276739117
 31
0.0
  0
LINE
  5
24381
330
747D
100
AcDbEntity
  8
部品1
100
AcDbLine
 10
11933.01235686292
 20
1607.230276739116
 30
0.0
 11
11967.01235686292
 21
1607.230276739116
 31
0.0
  0
LINE
  5
24382
330
747D
100
AcDbEntity
  8
部品1
100
AcDbLine
 10
11940.01235686292
 20
1628.230276739116
 30
0.0
 11
11960.01235686292
 21
1628.230276739116
 31
0.0
  0
LINE
  5
24383
330
747D
100
AcDbEntity
  8
部品1
100
AcDbLine
 10
11965.01235686292
 20
1608.630276739114
 30
0.0
 11
11965.01235686292
 21
1607.230276739116
 31
0.0
  0
LINE
  5
24384
330
747D
100
AcDbEntity
  8
部品1
100
AcDbLine
 10
11965.01235686292
 20
1648.630276739114
 30
0.0
 11
11965.01235686292
 21
1642.630276739114
 31
0.0
  0
LINE
  5
24385
330
747D
100
AcDbEntity
  8
部品1
100
AcDbLine
 10
11935.01235686292
 20
1608.630276739118
 30
0.0
 11
11935.01235686292
 21
1607.230276739116
 31
0.0
  0
LINE
  5
24386
330
747D
100
AcDbEntity
  8
部品1
100
AcDbLine
 10
11935.01235686292
 20
1648.63027673912
 30
0.0
 11
11935.01235686292
 21
1642.63027673912
 31
0.0
  0
LINE
  5
24387
330
747D
100
AcDbEntity
  8
部品1
100
AcDbLine
 10
11935.01235686292
 20
1608.630276739118
 30
0.0
 11
11940.01235686292
 21
1608.630276739118
 31
0.0
  0
LINE
  5
24388
330
747D
100
AcDbEntity
  8
部品1
100
AcDbLine
 10
11935.01235686292
 20
1648.63027673912
 30
0.0
 11
11965.01235686292
 21
1648.63027673912
 31
0.0
  0
LINE
  5
24389
330
747D
100
AcDbEntity
  8
部品1
100
AcDbLine
 10
11935.01235686292
 20
1642.63027673912
 30
0.0
 11
11965.01235686292
 21
1642.63027673912
 31
0.0
  0
LINE
  5
2438A
330
747D
100
AcDbEntity
  8
細線
100
AcDbLine
 10
11935.01235686292
 20
1796.230276739116
 30
0.0
 11
11965.01235686292
 21
1796.230276739116
 31
0.0
  0
LINE
  5
2438B
330
747D
100
AcDbEntity
  8
部品1
100
AcDbLine
 10
11920.01235686292
 20
1588.230276739117
 30
0.0
 11
11920.01235686292
 21
1591.230276739116
 31
0.0
  0
LINE
  5
2438C
330
747D
100
AcDbEntity
  8
部品1
100
AcDbLine
 10
11880.01235686292
 20
1588.230276739117
 30
0.0
 11
11880.01235686292
 21
1576.230276739116
 31
0.0
  0
LINE
  5
2438D
330
747D
100
AcDbEntity
  8
部品1
100
AcDbLine
 10
11920.01235686292
 20
1591.230276739116
 30
0.0
 11
11980.01235686292
 21
1591.23027673912
 31
0.0
  0
LINE
  5
2438E
330
747D
100
AcDbEntity
  8
部品1
100
AcDbLine
 10
11880.01235686292
 20
1576.230276739116
 30
0.0
 11
12020.01235686292
 21
1576.230276739116
 31
0.0
  0
LINE
  5
2438F
330
747D
100
AcDbEntity
  8
部品1
100
AcDbLine
 10
11880.01235686292
 20
1588.230276739117
 30
0.0
 11
12020.01235686292
 21
1588.230276739117
 31
0.0
  0
LINE
  5
24390
330
747D
100
AcDbEntity
  8
部品1
100
AcDbLine
 10
11952.76060973449
 20
1535.245261818928
 30
0.0
 11
11960.67210055743
 21
1536.431985442371
 31
0.0
  0
LINE
  5
24391
330
747D
100
AcDbEntity
  8
部品1
100
AcDbLine
 10
11953.65065245207
 20
1529.31164370172
 30
0.0
 11
11961.56214327501
 21
1530.498367325163
 31
0.0
  0
LINE
  5
24392
330
747D
100
AcDbEntity
  8
部品1
100
AcDbLine
 10
11954.54069516965
 20
1523.378025584515
 30
0.0
 11
11962.4521859926
 21
1524.564749207952
 31
0.0
  0
LINE
  5
24393
330
747D
100
AcDbEntity
  8
部品1
100
AcDbLine
 10
11955.43073788723
 20
1517.444407467302
 30
0.0
 11
11963.34222871017
 21
1518.631131090743
 31
0.0
  0
LINE
  5
24394
330
747D
100
AcDbEntity
  8
部品1
100
AcDbLine
 10
11956.32078060481
 20
1511.510789350091
 30
0.0
 11
11964.23227142776
 21
1512.697512973534
 31
0.0
  0
LINE
  5
24395
330
747D
100
AcDbEntity
  8
部品1
100
AcDbLine
 10
11939.3526131684
 20
1536.431985442371
 30
0.0
 11
11947.26410399135
 21
1535.245261818928
 31
0.0
  0
LINE
  5
24396
330
747D
100
AcDbEntity
  8
部品1
100
AcDbLine
 10
11938.46257045082
 20
1530.498367325163
 30
0.0
 11
11946.37406127376
 21
1529.31164370172
 31
0.0
  0
LINE
  5
24397
330
747D
100
AcDbEntity
  8
部品1
100
AcDbLine
 10
11937.57252773324
 20
1524.564749207952
 30
0.0
 11
11945.48401855618
 21
1523.378025584515
 31
0.0
  0
LINE
  5
24398
330
747D
100
AcDbEntity
  8
部品1
100
AcDbLine
 10
11936.68248501566
 20
1518.631131090743
 30
0.0
 11
11944.5939758386
 21
1517.444407467302
 31
0.0
  0
LINE
  5
24399
330
747D
100
AcDbEntity
  8
部品1
100
AcDbLine
 10
11935.79244229808
 20
1512.697512973534
 30
0.0
 11
11943.70393312102
 21
1511.510789350091
 31
0.0
  0
LINE
  5
2439A
330
747D
100
AcDbEntity
  8
部品1
100
AcDbLine
 10
11948.10185622938
 20
1540.830276739117
 30
0.0
 11
11951.92285749645
 21
1540.830276739117
 31
0.0
  0
LINE
  5
2439B
330
747D
100
AcDbEntity
  8
部品1
100
AcDbLine
 10
11960.01235686292
 20
1576.230276739116
 30
0.0
 11
11960.01235686292
 21
1540.830276739117
 31
0.0
  0
LINE
  5
2439C
330
747D
100
AcDbEntity
  8
部品1
100
AcDbLine
 10
11940.01235686292
 20
1576.230276739116
 30
0.0
 11
11940.01235686292
 21
1540.830276739117
 31
0.0
  0
ARC
  5
2439D
330
747D
100
AcDbEntity
  8
部品1
100
AcDbCircle
 10
11980.95829738267
 20
1872.230276739113
 30
0.0
 40
10.0
100
AcDbArc
 50
5.68424159818561
 51
90.0
  0
ARC
  5
2439E
330
747D
100
AcDbEntity
  8
細線
100
AcDbCircle
 10
11950.01235686292
 20
1860.230276739113
 30
0.0
 40
8.0
100
AcDbArc
 50
0.0
 51
180.0
  0
LINE
  5
2439F
330
747D
100
AcDbEntity
  8
細線
100
AcDbLine
 10
11958.01235686292
 20
1860.230276739113
 30
0.0
 11
11958.01235686292
 21
1833.086683199669
 31
0.0
  0
LINE
  5
243A0
330
747D
100
AcDbEntity
  8
細線
100
AcDbLine
 10
11942.01235686292
 20
1860.230276739113
 30
0.0
 11
11942.01235686292
 21
1833.086683199669
 31
0.0
  0
CIRCLE
  5
243A1
330
747D
100
AcDbEntity
  8
部品1
100
AcDbCircle
 10
11950.01235686292
 20
1819.230276739116
 30
0.0
 40
16.0
  0
ARC
  5
243A2
330
747D
100
AcDbEntity
  8
部品1
100
AcDbCircle
 10
11919.06641634316
 20
1872.230276739118
 30
0.0
 40
10.0
100
AcDbArc
 50
90.0
 51
174.3157584018144
  0
LINE
  5
243A3
330
747D
100
AcDbEntity
  8
部品1
100
AcDbLine
 10
11919.06641634316
 20
1882.230276739116
 30
0.0
 11
11980.95829738267
 21
1882.230276739115
 31
0.0
  0
LINE
  5
243A4
330
747D
100
AcDbEntity
  8
文字
 48
50.0
100
AcDbLine
 10
12368.27851456097
 20
1704.281700871222
 30
0.0
 11
12442.20903875376
 21
1576.230276739115
 31
0.0
  0
TEXT
  5
243A5
330
747D
100
AcDbEntity
  8
部品1
100
AcDbText
 10
12536.74231250469
 20
1598.090919900481
 30
0.0
 40
150.0
  1
G.L
  7
STYLE1
100
AcDbText
  0
TEXT
  5
243A6
330
747D
100
AcDbEntity
  8
部品1
100
AcDbText
 10
9506.662188806373
 20
2911.374391602304
 30
0.0
 40
150.0
  1
基礎詳細
  7
STYLE2
100
AcDbText
  0
LINE
  5
243A7
330
747D
100
AcDbEntity
  8
部品1
 48
50.0
100
AcDbLine
 10
15055.8489518825
 20
3135.814306541589
 30
0.0
 11
15055.8489518825
 21
135.8143065415888
 31
0.0
  0
LINE
  5
243A8
330
747D
100
AcDbEntity
  8
細線
 48
10.0
100
AcDbLine
 10
14750.59640600924
 20
1086.707878151762
 30
0.0
 11
14924.52398276596
 21
1260.635454908489
 31
0.0
  0
LINE
  5
243A9
330
747D
100
AcDbEntity
  8
細線
 48
10.0
100
AcDbLine
 10
14722.31213476178
 20
1086.707878151762
 30
0.0
 11
14924.52398276596
 21
1288.919726155948
 31
0.0
  0
LINE
  5
243AA
330
747D
100
AcDbEntity
  8
細線
 48
10.0
100
AcDbLine
 10
14778.88067725671
 20
1086.707878151762
 30
0.0
 11
14924.52398276596
 21
1232.35118366102
 31
0.0
  0
LINE
  5
243AB
330
747D
100
AcDbEntity
  8
部品1
 48
50.0
100
AcDbLine
 10
13728.41496417564
 20
1776.230276739116
 30
0.0
 11
13728.41496417564
 21
1476.230276739118
 31
0.0
  0
TEXT
  5
243AC
330
747D
100
AcDbEntity
  8
部品1
100
AcDbText
 10
14655.65706386795
 20
1498.090919900481
 30
0.0
 40
150.0
  1
G.L
  7
STYLE1
100
AcDbText
  0
LINE
  5
243AD
330
747D
100
AcDbEntity
  8
文字
 48
50.0
100
AcDbLine
 10
14487.19326592423
 20
1604.281700871225
 30
0.0
 11
14561.12379011702
 21
1476.230276739118
 31
0.0
  0
LINE
  5
243AE
330
747D
100
AcDbEntity
  8
部品1
100
AcDbLine
 10
14082.62838149032
 20
1491.230276739118
 30
0.0
 11
14082.62838149032
 21
1528.230276739116
 31
0.0
  0
LINE
  5
243AF
330
747D
100
AcDbEntity
  8
部品1
100
AcDbLine
 10
14102.62838149033
 20
1491.230276739118
 30
0.0
 11
14102.62838149033
 21
1528.230276739116
 31
0.0
  0
LINE
  5
243B0
330
747D
100
AcDbEntity
  8
部品1
100
AcDbLine
 10
14133.52515049839
 20
1773.220737438017
 30
0.0
 11
14162.62838149032
 21
1488.230276739118
 31
0.0
  0
LINE
  5
243B1
330
747D
100
AcDbEntity
  8
部品1
100
AcDbLine
 10
14051.73161248225
 20
1773.220737438017
 30
0.0
 11
14022.62838149033
 21
1488.230276739118
 31
0.0
  0
DIMENSION
  5
243B2
330
747D
100
AcDbEntity
  8
寸法
 48
50.0
100
AcDbDimension
  2
*D23
 10
14431.70268173462
 20
1476.230276739118
 30
0.0
 11
14431.70268173462
 21
1626.230276739118
 31
0.0
 70
   160
  1
b
 71
     5
 42
300.0
  3
INABA_S50G
100
AcDbAlignedDimension
 13
14132.73947339999
 23
1776.230276739118
 33
0.0
 14
14532.62838149033
 24
1476.230276739118
 34
0.0
 50
90.0
100
AcDbRotatedDimension
1001
ACAD
1000
DSTYLE
1002
{
1070
    40
1040
1.0
1002
}
  0
LINE
  5
243B3
330
747D
100
AcDbEntity
  8
文字
 48
50.0
100
AcDbLine
 10
14561.12379011702
 20
1476.230276739118
 30
0.0
 11
14635.05431430981
 21
1604.281700871225
 31
0.0
  0
LINE
  5
243B4
330
747D
100
AcDbEntity
  8
細線
100
AcDbLine
 10
13919.21800372743
 20
1476.230276739116
 30
0.0
 11
13728.41496417564
 21
1667.033316290914
 31
0.0
  0
LINE
  5
243B5
330
747D
100
AcDbEntity
  8
細線
100
AcDbLine
 10
13961.64441059863
 20
1476.230276739116
 30
0.0
 11
13728.41496417564
 21
1709.459723162105
 31
0.0
  0
LINE
  5
243B6
330
747D
100
AcDbEntity
  8
部品1
100
AcDbLine
 10
14075.62838149033
 20
1507.230276739116
 30
0.0
 11
14109.62838149033
 21
1507.230276739116
 31
0.0
  0
LINE
  5
243B7
330
747D
100
AcDbEntity
  8
部品1
100
AcDbLine
 10
14062.62838149032
 20
1491.230276739118
 30
0.0
 11
14122.62838149032
 21
1491.23027673912
 31
0.0
  0
LINE
  5
243B8
330
747D
100
AcDbEntity
  8
部品1
100
AcDbLine
 10
14072.62838149033
 20
1504.230276739116
 30
0.0
 11
14112.62838149033
 21
1504.230276739116
 31
0.0
  0
ARC
  5
243B9
330
747D
100
AcDbEntity
  8
部品1
100
AcDbCircle
 10
14092.62838149033
 20
1483.141643518301
 30
0.0
 40
23.33946124318486
100
AcDbArc
 50
64.63020194519632
 51
115.3697980548037
  0
LINE
  5
243BA
330
747D
100
AcDbEntity
  8
部品1
100
AcDbLine
 10
14096.26667707948
 20
1429.311643701722
 30
0.0
 11
14104.17816790242
 21
1430.498367325165
 31
0.0
  0
LINE
  5
243BB
330
747D
100
AcDbEntity
  8
部品1
100
AcDbLine
 10
14095.37663436189
 20
1435.245261818928
 30
0.0
 11
14103.28812518484
 21
1436.431985442371
 31
0.0
  0
LINE
  5
243BC
330
747D
100
AcDbEntity
  8
部品1
100
AcDbLine
 10
14077.62838149032
 20
1507.230276739116
 30
0.0
 11
14107.62838149032
 21
1507.230276739116
 31
0.0
  0
LINE
  5
243BD
330
747D
100
AcDbEntity
  8
部品1
100
AcDbLine
 10
14022.62838149033
 20
1476.230276739118
 30
0.0
 11
14162.62838149032
 21
1476.230276739118
 31
0.0
  0
LINE
  5
243BE
330
747D
100
AcDbEntity
  8
部品1
100
AcDbLine
 10
14100.71689066738
 20
1399.643553115676
 30
0.0
 11
14094.53888212386
 21
1440.830276739115
 31
0.0
  0
LINE
  5
243BF
330
747D
100
AcDbEntity
  8
部品1
100
AcDbLine
 10
14022.62838149033
 20
1488.230276739118
 30
0.0
 11
14162.62838149032
 21
1488.230276739118
 31
0.0
  0
LINE
  5
243C0
330
747D
100
AcDbEntity
  8
細線
 48
10.0
100
AcDbLine
 10
13897.2796283036
 20
1086.707878151762
 30
0.0
 11
14286.80202689095
 21
1476.230276739118
 31
0.0
  0
LINE
  5
243C1
330
747D
100
AcDbEntity
  8
細線
 48
10.0
100
AcDbLine
 10
13925.56389955107
 20
1086.707878151762
 30
0.0
 11
14315.08629813841
 21
1476.230276739118
 31
0.0
  0
LINE
  5
243C2
330
747D
100
AcDbEntity
  8
細線
 48
10.0
100
AcDbLine
 10
13868.99535705614
 20
1086.707878151762
 30
0.0
 11
14258.51775564349
 21
1476.230276739118
 31
0.0
  0
LINE
  5
243C3
330
747D
100
AcDbEntity
  8
細線
 48
10.0
100
AcDbLine
 10
13498.90551069824
 20
1086.707878151762
 30
0.0
 11
13888.42790928558
 21
1476.230276739118
 31
0.0
  0
LINE
  5
243C4
330
747D
100
AcDbEntity
  8
細線
 48
10.0
100
AcDbLine
 10
13470.62123945079
 20
1086.707878151762
 30
0.0
 11
13860.14363803812
 21
1476.230276739118
 31
0.0
  0
LINE
  5
243C5
330
747D
100
AcDbEntity
  8
細線
 48
10.0
100
AcDbLine
 10
13442.33696820333
 20
1086.707878151762
 30
0.0
 11
13831.85936679066
 21
1476.230276739118
 31
0.0
  0
LINE
  5
243C6
330
747D
100
AcDbEntity
  8
部品1
100
AcDbLine
 10
14075.62838149033
 20
1507.230276739116
 30
0.0
 11
14072.62838149033
 21
1504.230276739116
 31
0.0
  0
LINE
  5
243C7
330
747D
100
AcDbEntity
  8
部品1
100
AcDbLine
 10
14077.62838149032
 20
1508.630276739118
 30
0.0
 11
14077.62838149032
 21
1507.230276739116
 31
0.0
  0
LINE
  5
243C8
330
747D
100
AcDbEntity
  8
部品1
100
AcDbLine
 10
14062.62838149032
 20
1488.230276739118
 30
0.0
 11
14062.62838149032
 21
1491.230276739118
 31
0.0
  0
LINE
  5
243C9
330
747D
100
AcDbEntity
  8
部品1
100
AcDbLine
 10
14072.62838149033
 20
1491.230276739118
 30
0.0
 11
14072.62838149033
 21
1504.230276739116
 31
0.0
  0
LINE
  5
243CA
330
747D
100
AcDbEntity
  8
部品1
100
AcDbLine
 10
14077.62838149032
 20
1508.630276739118
 30
0.0
 11
14082.62838149032
 21
1508.630276739118
 31
0.0
  0
ARC
  5
243CB
330
747D
100
AcDbEntity
  8
部品1
100
AcDbCircle
 10
14077.62838149032
 20
1499.715521948798
 30
0.0
 40
6.736691384996243
100
AcDbArc
 50
42.08048849856768
 51
137.9195115014323
  0
LINE
  5
243CC
330
747D
100
AcDbEntity
  8
部品1
100
AcDbLine
 10
14082.62838149032
 20
1476.230276739118
 30
0.0
 11
14082.62838149032
 21
1440.830276739115
 31
0.0
  0
LINE
  5
243CD
330
747D
100
AcDbEntity
  8
部品1
100
AcDbLine
 10
14090.71788085679
 20
1440.830276739115
 30
0.0
 11
14094.53888212386
 21
1440.830276739115
 31
0.0
  0
LINE
  5
243CE
330
747D
100
AcDbEntity
  8
部品1
100
AcDbLine
 10
14079.29850964307
 20
1418.631131090741
 30
0.0
 11
14087.21000046601
 21
1417.444407467304
 31
0.0
  0
LINE
  5
243CF
330
747D
100
AcDbEntity
  8
部品1
100
AcDbLine
 10
14080.18855236065
 20
1424.564749207952
 30
0.0
 11
14088.10004318359
 21
1423.378025584513
 31
0.0
  0
LINE
  5
243D0
330
747D
100
AcDbEntity
  8
部品1
100
AcDbLine
 10
14081.07859507823
 20
1430.498367325165
 30
0.0
 11
14088.99008590117
 21
1429.311643701722
 31
0.0
  0
LINE
  5
243D1
330
747D
100
AcDbEntity
  8
部品1
100
AcDbLine
 10
14081.9686377958
 20
1436.431985442371
 30
0.0
 11
14089.88012861875
 21
1435.245261818928
 31
0.0
  0
LINE
  5
243D2
330
747D
100
AcDbEntity
  8
部品1
100
AcDbLine
 10
14077.62838149032
 20
1508.630276739118
 30
0.0
 11
14077.62838149032
 21
1507.230276739115
 31
0.0
  0
LINE
  5
243D3
330
747D
100
AcDbEntity
  8
部品1
100
AcDbLine
 10
14077.62838149032
 20
1508.630276739118
 30
0.0
 11
14082.62838149032
 21
1508.630276739118
 31
0.0
  0
LINE
  5
243D4
330
747D
100
AcDbEntity
  8
部品1
100
AcDbLine
 10
14022.62838149033
 20
1488.230276739118
 30
0.0
 11
14022.62838149033
 21
1476.230276739118
 31
0.0
  0
LINE
  5
243D5
330
747D
100
AcDbEntity
  8
部品1
100
AcDbLine
 10
14076.62838149033
 20
1400.830276739115
 30
0.0
 11
14084.53987231327
 21
1399.643553115676
 31
0.0
  0
LINE
  5
243D6
330
747D
100
AcDbEntity
  8
部品1
100
AcDbLine
 10
14077.5184242079
 20
1406.763894856328
 30
0.0
 11
14085.42991503085
 21
1405.577171232885
 31
0.0
  0
LINE
  5
243D7
330
747D
100
AcDbEntity
  8
部品1
100
AcDbLine
 10
14078.40846692548
 20
1412.697512973534
 30
0.0
 11
14086.31995774843
 21
1411.510789350091
 31
0.0
  0
LINE
  5
243D8
330
747D
100
AcDbEntity
  8
部品1
100
AcDbLine
 10
14082.62838149032
 20
1440.830276739115
 30
0.0
 11
14076.62838149033
 21
1400.830276739115
 31
0.0
  0
LINE
  5
243D9
330
747D
100
AcDbEntity
  8
部品1
100
AcDbLine
 10
14090.71788085679
 20
1440.830276739115
 30
0.0
 11
14084.53987231327
 21
1399.643553115676
 31
0.0
  0
LINE
  5
243DA
330
747D
100
AcDbEntity
  8
細線
 48
10.0
100
AcDbLine
 10
14352.22228840389
 20
1086.707878151762
 30
0.0
 11
14741.74468699124
 21
1476.230276739118
 31
0.0
  0
LINE
  5
243DB
330
747D
100
AcDbEntity
  8
細線
 48
10.0
100
AcDbLine
 10
14323.93801715642
 20
1086.707878151762
 30
0.0
 11
14713.46041574377
 21
1476.230276739118
 31
0.0
  0
LINE
  5
243DC
330
747D
100
AcDbEntity
  8
細線
 48
10.0
100
AcDbLine
 10
14295.65374590896
 20
1086.707878151762
 30
0.0
 11
14685.17614449631
 21
1476.230276739118
 31
0.0
  0
LINE
  5
243DD
330
747D
100
AcDbEntity
  8
部品1
100
AcDbLine
 10
14102.62838149033
 20
1508.630276739118
 30
0.0
 11
14107.62838149032
 21
1508.630276739118
 31
0.0
  0
LINE
  5
243DE
330
747D
100
AcDbEntity
  8
部品1
100
AcDbLine
 10
14109.62838149033
 20
1507.230276739116
 30
0.0
 11
14112.62838149033
 21
1504.230276739116
 31
0.0
  0
LINE
  5
243DF
330
747D
100
AcDbEntity
  8
部品1
100
AcDbLine
 10
14107.62838149032
 20
1508.630276739116
 30
0.0
 11
14107.62838149032
 21
1507.230276739116
 31
0.0
  0
LINE
  5
243E0
330
747D
100
AcDbEntity
  8
部品1
100
AcDbLine
 10
14122.62838149032
 20
1488.230276739118
 30
0.0
 11
14122.62838149032
 21
1491.230276739124
 31
0.0
  0
LINE
  5
243E1
330
747D
100
AcDbEntity
  8
部品1
100
AcDbLine
 10
14112.62838149033
 20
1491.23027673912
 30
0.0
 11
14112.62838149033
 21
1504.230276739116
 31
0.0
  0
LINE
  5
243E2
330
747D
100
AcDbEntity
  8
部品1
100
AcDbLine
 10
14102.62838149033
 20
1508.630276739118
 30
0.0
 11
14107.62838149032
 21
1508.630276739118
 31
0.0
  0
ARC
  5
243E3
330
747D
100
AcDbEntity
  8
部品1
100
AcDbCircle
 10
14107.62838149032
 20
1499.715521948798
 30
0.0
 40
6.736691384996243
100
AcDbArc
 50
42.08048849856768
 51
137.9195115014323
  0
LINE
  5
243E4
330
747D
100
AcDbEntity
  8
部品1
100
AcDbLine
 10
14102.62838149033
 20
1476.230276739118
 30
0.0
 11
14102.62838149033
 21
1440.830276739115
 31
0.0
  0
LINE
  5
243E5
330
747D
100
AcDbEntity
  8
部品1
100
AcDbLine
 10
14098.04676251464
 20
1417.444407467304
 30
0.0
 11
14105.95825333758
 21
1418.631131090741
 31
0.0
  0
LINE
  5
243E6
330
747D
100
AcDbEntity
  8
部品1
100
AcDbLine
 10
14097.15671979706
 20
1423.378025584513
 30
0.0
 11
14105.06821062
 21
1424.564749207952
 31
0.0
  0
LINE
  5
243E7
330
747D
100
AcDbEntity
  8
部品1
100
AcDbLine
 10
14107.62838149032
 20
1508.630276739116
 30
0.0
 11
14107.62838149032
 21
1507.230276739116
 31
0.0
  0
LINE
  5
243E8
330
747D
100
AcDbEntity
  8
部品1
100
AcDbLine
 10
14162.62838149032
 20
1488.230276739118
 30
0.0
 11
14162.62838149032
 21
1476.230276739118
 31
0.0
  0
LINE
  5
243E9
330
747D
100
AcDbEntity
  8
部品1
100
AcDbLine
 10
14100.71689066738
 20
1399.643553115676
 30
0.0
 11
14108.62838149032
 21
1400.830276739115
 31
0.0
  0
LINE
  5
243EA
330
747D
100
AcDbEntity
  8
部品1
100
AcDbLine
 10
14099.8268479498
 20
1405.577171232885
 30
0.0
 11
14107.73833877274
 21
1406.763894856328
 31
0.0
  0
LINE
  5
243EB
330
747D
100
AcDbEntity
  8
部品1
100
AcDbLine
 10
14098.93680523222
 20
1411.510789350091
 30
0.0
 11
14106.84829605517
 21
1412.697512973534
 31
0.0
  0
LINE
  5
243EC
330
747D
100
AcDbEntity
  8
部品1
100
AcDbLine
 10
14108.62838149032
 20
1400.830276739115
 30
0.0
 11
14102.62838149033
 21
1440.830276739115
 31
0.0
  0
LINE
  5
243ED
330
747D
100
AcDbEntity
  8
部品1
100
AcDbLine
 10
14077.62838149032
 20
1542.630276739118
 30
0.0
 11
14107.62838149032
 21
1542.630276739118
 31
0.0
  0
LINE
  5
243EE
330
747D
100
AcDbEntity
  8
部品1
100
AcDbLine
 10
14077.62838149032
 20
1548.630276739118
 30
0.0
 11
14107.62838149032
 21
1548.630276739118
 31
0.0
  0
LINE
  5
243EF
330
747D
100
AcDbEntity
  8
部品1
100
AcDbLine
 10
14077.62838149032
 20
1548.630276739118
 30
0.0
 11
14107.62838149032
 21
1548.630276739118
 31
0.0
  0
LINE
  5
243F0
330
747D
100
AcDbEntity
  8
部品1
100
AcDbLine
 10
14077.62838149032
 20
1542.630276739118
 30
0.0
 11
14107.62838149032
 21
1542.630276739118
 31
0.0
  0
CIRCLE
  5
243F1
330
747D
100
AcDbEntity
  8
細線
100
AcDbCircle
 10
14092.62838149033
 20
1859.830276739115
 30
0.0
 40
8.0
  0
CIRCLE
  5
243F2
330
747D
100
AcDbEntity
  8
部品1
100
AcDbCircle
 10
14092.62838149033
 20
1819.230276739116
 30
0.0
 40
16.0
  0
ARC
  5
243F3
330
747D
100
AcDbEntity
  8
部品1
100
AcDbCircle
 10
14092.62838149033
 20
1829.830276739115
 30
0.0
 40
8.0
100
AcDbArc
 50
28.00674301447729
 51
151.9932569855227
  0
LINE
  5
243F4
330
747D
100
AcDbEntity
  8
部品1
100
AcDbLine
 10
14062.62838149032
 20
1889.830276739115
 30
0.0
 11
14122.62838149032
 21
1889.830276739118
 31
0.0
  0
ARC
  5
243F5
330
747D
100
AcDbEntity
  8
部品1
100
AcDbCircle
 10
14092.62838149033
 20
1789.830276739117
 30
0.0
 40
8.0
100
AcDbArc
 50
288.1948723386625
 51
0.0
  0
LINE
  5
243F6
330
747D
100
AcDbEntity
  8
部品1
100
AcDbLine
 10
14061.68244097057
 20
1782.230276739118
 30
0.0
 11
14123.57432201008
 21
1782.230276739113
 31
0.0
  0
CIRCLE
  5
243F7
330
747D
100
AcDbEntity
  8
部品1
100
AcDbCircle
 10
14092.62838149033
 20
1719.830276739115
 30
0.0
 40
16.0
  0
LINE
  5
243F8
330
747D
100
AcDbEntity
  8
細線
100
AcDbLine
 10
14077.62838149032
 20
1696.230276739116
 30
0.0
 11
14107.62838149032
 21
1696.230276739116
 31
0.0
  0
LINE
  5
243F9
330
747D
100
AcDbEntity
  8
細線
100
AcDbLine
 10
14077.62838149032
 20
1690.230276739116
 30
0.0
 11
14107.62838149032
 21
1690.230276739116
 31
0.0
  0
ARC
  5
243FA
330
747D
100
AcDbEntity
  8
細線
100
AcDbCircle
 10
14092.62838149033
 20
1760.230276739113
 30
0.0
 40
8.0
100
AcDbArc
 50
0.0
 51
180.0
  0
LINE
  5
243FB
330
747D
100
AcDbEntity
  8
部品1
100
AcDbLine
 10
14085.62838149032
 20
1540.483172762776
 30
0.0
 11
14099.62838149033
 21
1540.483172762776
 31
0.0
  0
LINE
  5
243FC
330
747D
100
AcDbEntity
  8
部品1
100
AcDbLine
 10
14082.62838149032
 20
1528.230276739116
 30
0.0
 11
14102.62838149033
 21
1528.230276739116
 31
0.0
  0
LINE
  5
243FD
330
747D
100
AcDbEntity
  8
部品1
100
AcDbLine
 10
14085.62838149032
 20
1536.483172762776
 30
0.0
 11
14099.62838149033
 21
1536.483172762776
 31
0.0
  0
LINE
  5
243FE
330
747D
100
AcDbEntity
  8
部品1
100
AcDbLine
 10
14022.62838149033
 20
2376.230276739113
 30
0.0
 11
14022.62838149033
 21
1876.230276739116
 31
0.0
  0
LINE
  5
243FF
330
747D
100
AcDbEntity
  8
細線
100
AcDbLine
 10
13617.62838149032
 20
2376.230276739113
 30
0.0
 11
13617.62838149032
 21
1898.730276739117
 31
0.0
  0
LINE
  5
24400
330
747D
100
AcDbEntity
  8
細線
100
AcDbLine
 10
13587.62838149033
 20
2376.230276739113
 30
0.0
 11
13587.62838149033
 21
1898.730276739117
 31
0.0
  0
LINE
  5
24401
330
747D
100
AcDbEntity
  8
細線
100
AcDbLine
 10
13867.62838149032
 20
2376.230276739113
 30
0.0
 11
13867.62838149032
 21
1898.730276739117
 31
0.0
  0
LINE
  5
24402
330
747D
100
AcDbEntity
  8
細線
100
AcDbLine
 10
13337.62838149032
 20
2376.230276739113
 30
0.0
 11
13337.62838149032
 21
1898.730276739117
 31
0.0
  0
LINE
  5
24403
330
747D
100
AcDbEntity
  8
細線
100
AcDbLine
 10
13897.62838149033
 20
2376.230276739113
 30
0.0
 11
13897.62838149033
 21
1898.730276739117
 31
0.0
  0
LINE
  5
24404
330
747D
100
AcDbEntity
  8
細線
100
AcDbLine
 10
13307.62838149033
 20
2376.230276739113
 30
0.0
 11
13307.62838149033
 21
1898.730276739117
 31
0.0
  0
LINE
  5
24405
330
747D
100
AcDbEntity
  8
部品1
100
AcDbLine
 10
14084.62838149032
 20
1805.373870278566
 30
0.0
 11
14084.62838149032
 21
1789.830276739117
 31
0.0
  0
LINE
  5
24406
330
747D
100
AcDbEntity
  8
部品1
100
AcDbLine
 10
14052.62838149033
 20
1879.830276739117
 30
0.0
 11
14052.62838149033
 21
1776.475745727125
 31
0.0
  0
LINE
  5
24407
330
747D
100
AcDbEntity
  8
部品1
100
AcDbLine
 10
14077.62838149032
 20
1548.630276739118
 30
0.0
 11
14077.62838149032
 21
1542.630276739118
 31
0.0
  0
LINE
  5
24408
330
747D
100
AcDbEntity
  8
部品1
100
AcDbLine
 10
14077.62838149032
 20
1548.630276739118
 30
0.0
 11
14077.62838149032
 21
1542.630276739118
 31
0.0
  0
ARC
  5
24409
330
747D
100
AcDbEntity
  8
部品1
100
AcDbCircle
 10
14092.62838149033
 20
1789.830276739117
 30
0.0
 40
8.0
100
AcDbArc
 50
180.0
 51
251.8051276613376
  0
ARC
  5
2440A
330
747D
100
AcDbEntity
  8
部品1
100
AcDbCircle
 10
14061.68244097057
 20
1772.230276739116
 30
0.0
 40
10.0
100
AcDbArc
 50
90.0
 51
174.3157584018144
  0
LINE
  5
2440B
330
747D
100
AcDbEntity
  8
細線
100
AcDbLine
 10
14084.62838149032
 20
1760.230276739113
 30
0.0
 11
14084.62838149032
 21
1733.686683199669
 31
0.0
  0
LINE
  5
2440C
330
747D
100
AcDbEntity
  8
細線
100
AcDbLine
 10
14077.62838149032
 20
1696.230276739116
 30
0.0
 11
14077.62838149032
 21
1690.230276739116
 31
0.0
  0
LINE
  5
2440D
330
747D
100
AcDbEntity
  8
細線
100
AcDbLine
 10
14044.40804923772
 20
1701.505481369154
 30
0.0
 11
13969.68325386775
 21
1776.230276739118
 31
0.0
  0
LINE
  5
2440E
330
747D
100
AcDbEntity
  8
細線
100
AcDbLine
 10
14040.47691164408
 20
1663.010212091597
 30
0.0
 11
13927.25684699657
 21
1776.230276739118
 31
0.0
  0
LINE
  5
2440F
330
747D
100
AcDbEntity
  8
部品1
100
AcDbLine
 10
14087.62838149032
 20
1528.230276739116
 30
0.0
 11
14087.62838149032
 21
1536.483172762776
 31
0.0
  0
LINE
  5
24410
330
747D
100
AcDbEntity
  8
部品1
100
AcDbLine
 10
14085.62838149032
 20
1536.483172762776
 30
0.0
 11
14085.62838149032
 21
1540.483172762776
 31
0.0
  0
ARC
  5
24411
330
747D
100
AcDbEntity
  8
部品1
100
AcDbCircle
 10
14062.62838149032
 20
1879.830276739117
 30
0.0
 40
10.0
100
AcDbArc
 50
90.0
 51
180.0
  0
LINE
  5
24412
330
747D
100
AcDbEntity
  8
部品1
100
AcDbLine
 10
14132.62838149033
 20
2376.230276739113
 30
0.0
 11
14132.62838149033
 21
1876.475745727127
 31
0.0
  0
LINE
  5
24413
330
747D
100
AcDbEntity
  8
文字
 48
50.0
100
AcDbLine
 10
14635.05431430981
 20
1604.281700871225
 30
0.0
 11
14487.19326592423
 21
1604.281700871225
 31
0.0
  0
LINE
  5
24414
330
747D
100
AcDbEntity
  8
部品1
100
AcDbLine
 10
14100.62838149032
 20
1805.373870278566
 30
0.0
 11
14100.62838149032
 21
1789.830276739117
 31
0.0
  0
LINE
  5
24415
330
747D
100
AcDbEntity
  8
部品1
100
AcDbLine
 10
14132.62838149033
 20
1879.830276739119
 30
0.0
 11
14132.62838149033
 21
1776.475745727129
 31
0.0
  0
LINE
  5
24416
330
747D
100
AcDbEntity
  8
部品1
100
AcDbLine
 10
14107.62838149032
 20
1548.630276739114
 30
0.0
 11
14107.62838149032
 21
1542.630276739114
 31
0.0
  0
LINE
  5
24417
330
747D
100
AcDbEntity
  8
部品1
100
AcDbLine
 10
14107.62838149032
 20
1548.630276739114
 30
0.0
 11
14107.62838149032
 21
1542.630276739114
 31
0.0
  0
ARC
  5
24418
330
747D
100
AcDbEntity
  8
部品1
100
AcDbCircle
 10
14123.57432201008
 20
1772.230276739113
 30
0.0
 40
10.0
100
AcDbArc
 50
5.68424159818561
 51
90.0
  0
LINE
  5
24419
330
747D
100
AcDbEntity
  8
細線
100
AcDbLine
 10
14100.62838149032
 20
1760.230276739113
 30
0.0
 11
14100.62838149032
 21
1733.686683199669
 31
0.0
  0
LINE
  5
2441A
330
747D
100
AcDbEntity
  8
細線
100
AcDbLine
 10
14107.62838149032
 20
1696.230276739115
 30
0.0
 11
14107.62838149032
 21
1690.230276739115
 31
0.0
  0
LINE
  5
2441B
330
747D
100
AcDbEntity
  8
部品1
100
AcDbLine
 10
14097.62838149033
 20
1528.230276739116
 30
0.0
 11
14097.62838149033
 21
1536.483172762776
 31
0.0
  0
LINE
  5
2441C
330
747D
100
AcDbEntity
  8
部品1
100
AcDbLine
 10
14099.62838149033
 20
1536.483172762776
 30
0.0
 11
14099.62838149033
 21
1540.483172762776
 31
0.0
  0
ARC
  5
2441D
330
747D
100
AcDbEntity
  8
部品1
100
AcDbCircle
 10
14122.62838149032
 20
1879.830276739119
 30
0.0
 40
10.0
100
AcDbArc
 50
0.0
 51
90.0
  0
LINE
  5
2441E
330
747D
100
AcDbEntity
  8
部品1
100
AcDbLine
 10
15055.8489518825
 20
2835.814306541587
 30
0.0
 11
15055.8489518825
 21
3135.814306541589
 31
0.0
  0
LINE
  5
2441F
330
747D
100
AcDbEntity
  8
部品1
100
AcDbLine
 10
15055.8489518825
 20
2835.814306541587
 30
0.0
 11
15055.8489518825
 21
2835.814306541587
 31
0.0
  0
LINE
  5
24CCE
330
747D
100
AcDbEntity
  8
細線
100
AcDbLine
 10
11195.01235686292
 20
2376.230276739113
 30
0.0
 11
11195.01235686292
 21
1898.730276739117
 31
0.0
  0
LINE
  5
24CCF
330
747D
100
AcDbEntity
  8
細線
100
AcDbLine
 10
11165.01235686292
 20
2376.230276739113
 30
0.0
 11
11165.01235686292
 21
1898.730276739117
 31
0.0
  0
LINE
  5
24CD0
330
747D
100
AcDbEntity
  8
細線
100
AcDbLine
 10
11445.01235686292
 20
2376.230276739113
 30
0.0
 11
11445.01235686292
 21
1898.730276739117
 31
0.0
  0
LINE
  5
24CD1
330
747D
100
AcDbEntity
  8
細線
100
AcDbLine
 10
11475.01235686292
 20
2376.230276739113
 30
0.0
 11
11475.01235686292
 21
1898.730276739117
 31
0.0
  0
LINE
  5
24CD2
330
747D
100
AcDbEntity
  8
細線
100
AcDbLine
 10
11725.01235686292
 20
2376.230276739113
 30
0.0
 11
11725.01235686292
 21
1898.730276739117
 31
0.0
  0
LINE
  5
24CD3
330
747D
100
AcDbEntity
  8
細線
100
AcDbLine
 10
11755.01235686292
 20
2376.230276739113
 30
0.0
 11
11755.01235686292
 21
1898.730276739117
 31
0.0
  0
LINE
  5
24CD4
330
747D
100
AcDbEntity
  8
細線
100
AcDbLine
 10
9474.973385238794
 20
2085.187967811418
 30
0.0
 11
9474.973385238794
 21
1607.687967811421
 31
0.0
  0
LINE
  5
24CD5
330
747D
100
AcDbEntity
  8
細線
100
AcDbLine
 10
9504.973385238793
 20
2085.187967811418
 30
0.0
 11
9504.973385238793
 21
1607.687967811421
 31
0.0
  0
LINE
  5
24CD6
330
747D
100
AcDbEntity
  8
細線
100
AcDbLine
 10
10064.97338523879
 20
2085.187967811418
 30
0.0
 11
10064.97338523879
 21
1607.687967811421
 31
0.0
  0
LINE
  5
24CD7
330
747D
100
AcDbEntity
  8
細線
100
AcDbLine
 10
10034.97338523879
 20
2085.187967811418
 30
0.0
 11
10034.97338523879
 21
1607.687967811421
 31
0.0
  0
LINE
  5
24CD8
330
747D
100
AcDbEntity
  8
細線
100
AcDbLine
 10
9784.973385238792
 20
2085.187967811418
 30
0.0
 11
9784.973385238792
 21
1607.687967811421
 31
0.0
  0
LINE
  5
24CD9
330
747D
100
AcDbEntity
  8
細線
100
AcDbLine
 10
9754.973385238793
 20
2085.187967811418
 30
0.0
 11
9754.973385238793
 21
1607.687967811421
 31
0.0
  0
LINE
  5
24CDA
330
747D
100
AcDbEntity
  8
部品1
100
AcDbLine
 10
9398.196187177555
 20
1607.687967811421
 30
0.0
 11
10189.97338523879
 21
1607.687967811421
 31
0.0
  0
LINE
  5
252E8
330
747D
100
AcDbEntity
  8
部品1
 48
50.0
100
AcDbLine
 10
10725.50000000009
 20
7751.256860884794
 30
0.0
 11
10725.50000000009
 21
7951.256860884794
 31
0.0
  0
LINE
  5
252E9
330
747D
100
AcDbEntity
  8
部品1
 48
50.0
100
AcDbLine
 10
10525.50000000009
 20
7751.256860884794
 30
0.0
 11
10525.50000000009
 21
7951.256860884794
 31
0.0
  0
LINE
  5
252EA
330
747D
100
AcDbEntity
  8
部品1
 48
50.0
100
AcDbLine
 10
10725.50000000009
 20
7751.25686088479
 30
0.0
 11
10525.50000000009
 21
7751.25686088479
 31
0.0
  0
LINE
  5
252EB
330
747D
100
AcDbEntity
  8
部品1
 48
50.0
100
AcDbLine
 10
10725.50000000009
 20
7951.25686088479
 30
0.0
 11
10525.50000000009
 21
7951.25686088479
 31
0.0
  0
LINE
  5
252EC
330
747D
100
AcDbEntity
  8
部品1
 48
50.0
100
AcDbLine
 10
10725.50000000009
 20
7165.256860884795
 30
0.0
 11
10725.50000000009
 21
7365.256860884795
 31
0.0
  0
LINE
  5
252ED
330
747D
100
AcDbEntity
  8
部品1
 48
50.0
100
AcDbLine
 10
10525.50000000009
 20
7165.256860884795
 30
0.0
 11
10525.50000000009
 21
7365.256860884795
 31
0.0
  0
LINE
  5
252EE
330
747D
100
AcDbEntity
  8
部品1
 48
50.0
100
AcDbLine
 10
10725.50000000009
 20
6779.256860884787
 30
0.0
 11
10525.50000000009
 21
6779.256860884787
 31
0.0
  0
LINE
  5
252EF
330
747D
100
AcDbEntity
  8
部品1
 48
50.0
100
AcDbLine
 10
10725.50000000009
 20
6579.25686088479
 30
0.0
 11
10525.50000000009
 21
6579.25686088479
 31
0.0
  0
LINE
  5
252F0
330
747D
100
AcDbEntity
  8
部品1
 48
50.0
100
AcDbLine
 10
10525.50000000009
 20
6579.256860884791
 30
0.0
 11
10525.50000000009
 21
6779.256860884792
 31
0.0
  0
LINE
  5
252F1
330
747D
100
AcDbEntity
  8
部品1
 48
50.0
100
AcDbLine
 10
10725.50000000009
 20
6579.256860884791
 30
0.0
 11
10725.50000000009
 21
6779.256860884792
 31
0.0
  0
LINE
  5
252F2
330
747D
100
AcDbEntity
  8
部品1
 48
50.0
100
AcDbLine
 10
10725.50000000009
 20
7165.256860884795
 30
0.0
 11
10525.50000000009
 21
7165.256860884795
 31
0.0
  0
LINE
  5
252F3
330
747D
100
AcDbEntity
  8
部品1
 48
50.0
100
AcDbLine
 10
10725.50000000009
 20
7365.256860884793
 30
0.0
 11
10525.50000000009
 21
7365.256860884793
 31
0.0
  0
ENDSEC
  0
SECTION
  2
OBJECTS
  0
DICTIONARY
  5
7471
330
0
100
AcDbDictionary
281
     1
  3
ACAD_COLOR
350
1C067
  3
ACAD_GROUP
350
7472
  3
ACAD_LAYOUT
350
1C068
  3
ACAD_MATERIAL
350
1C066
  3
ACAD_MLINESTYLE
350
7473
  3
ACAD_PLOTSETTINGS
350
1C069
  3
ACAD_PLOTSTYLENAME
350
1C064
  3
ACDBHEADERROUNDTRIPXREC
350
2662A
  3
ACDBVARIABLEDICTIONARY
350
141CA
  3
CONTENTDICTIONARY
350
E71C
  3
DRAWINGVARIABLESDICT
350
F3B9
  0
DICTIONARY
  5
24BEB
330
7467
100
AcDbDictionary
280
     1
281
     1
  3
ACAD_LAYERSTATES
360
24BEC
  0
DICTIONARY
  5
1C067
102
{ACAD_REACTORS
330
7471
102
}
330
7471
100
AcDbDictionary
281
     1
  0
DICTIONARY
  5
7472
102
{ACAD_REACTORS
330
7471
102
}
330
7471
100
AcDbDictionary
281
     1
  3
*A1
350
1F6D8
  3
*A2
350
20102
  3
*A3
350
20103
  3
*A4
350
209D6
  3
*A5
350
24C63
  0
DICTIONARY
  5
1C068
102
{ACAD_REACTORS
330
7471
102
}
330
7471
100
AcDbDictionary
281
     1
  3
Model
350
1C06A
  3
レイアウト1
350
1C06B
  0
DICTIONARY
  5
1C066
102
{ACAD_REACTORS
330
7471
102
}
330
7471
100
AcDbDictionary
281
     1
  0
DICTIONARY
  5
7473
102
{ACAD_REACTORS
330
7471
102
}
330
7471
100
AcDbDictionary
281
     1
  3
STANDARD
350
7480
  0
DICTIONARY
  5
1C069
102
{ACAD_REACTORS
330
7471
102
}
330
7471
100
AcDbDictionary
281
     1
  0
ACDBDICTIONARYWDFLT
  5
1C064
102
{ACAD_REACTORS
330
7471
102
}
330
7471
100
AcDbDictionary
281
     1
  3
Normal
350
1C065
100
AcDbDictionaryWithDefault
340
1C065
  0
DICTIONARY
  5
2662A
102
{ACAD_REACTORS
330
7471
102
}
330
7471
100
AcDbDictionary
281
     1
  3
COLORDICT
350
2662C
  3
MATERIALDICT
350
2662B
  0
DICTIONARY
  5
141CA
102
{ACAD_REACTORS
330
7471
102
}
330
7471
100
AcDbDictionary
281
     1
  3
DIMASSOC
350
26627
  3
PROJECTNAME
350
26628
  3
SORTENTS
350
141CB
  0
DICTIONARY
  5
E71C
102
{ACAD_REACTORS
330
7471
102
}
330
7471
100
AcDbDictionary
281
     1
  0
DICTIONARY
  5
F3B9
102
{ACAD_REACTORS
330
7471
102
}
330
7471
100
AcDbDictionary
281
     1
1001
DRAWINGVARIABLESXDATA
1000
POLARMODE
1000
1
  0
DICTIONARY
  5
24BEC
102
{ACAD_REACTORS
330
24BEB
102
}
330
24BEB
100
AcDbDictionary
281
     1
  0
GROUP
  5
1F6D8
102
{ACAD_REACTORS
330
7472
102
}
330
7472
100
AcDbGroup
300

 70
     1
 71
     1
  0
GROUP
  5
20102
102
{ACAD_REACTORS
330
7472
102
}
330
7472
100
AcDbGroup
300

 70
     1
 71
     1
  0
GROUP
  5
20103
102
{ACAD_REACTORS
330
7472
102
}
330
7472
100
AcDbGroup
300

 70
     1
 71
     1
  0
GROUP
  5
209D6
102
{ACAD_REACTORS
330
7472
102
}
330
7472
100
AcDbGroup
300

 70
     1
 71
     1
  0
GROUP
  5
24C63
102
{ACAD_REACTORS
330
7472
102
}
330
7472
100
AcDbGroup
300

 70
     1
 71
     1
  0
LAYOUT
  5
1C06A
102
{ACAD_XDICTIONARY
360
2662D
102
}
102
{ACAD_REACTORS
330
1C068
102
}
330
1C068
100
AcDbPlotSettings
  1

  2
クセロPDF
  4
A3
  6

 40
3.174999999999999
 41
3.174999999999999
 42
3.174987999999999
 43
3.174987999999999
 44
419.946655
 45
296.925995
 46
0.0
 47
0.0
 48
0.0
 49
0.0
140
0.0
141
0.0
142
1.0
143
50.39051776619688
 70
 11952
 72
     1
 73
     0
 74
     2
  7
inaba.ctb
 75
     0
147
0.019845003471483
148
161.681260270685
149
194.5236376621615
100
AcDbLayout
  1
Model
 70
     1
 71
     0
 10
0.0
 20
0.0
 11
12.0
 21
9.0
 12
0.0
 22
0.0
 32
0.0
 14
0.0
 24
0.0
 34
0.0
 15
0.0
 25
0.0
 35
0.0
146
0.0
 13
0.0
 23
0.0
 33
0.0
 16
1.0
 26
0.0
 36
0.0
 17
0.0
 27
1.0
 37
0.0
 76
     0
330
747D
  0
LAYOUT
  5
1C06B
102
{ACAD_XDICTIONARY
360
2662F
102
}
102
{ACAD_REACTORS
330
1C068
102
}
330
1C068
100
AcDbPlotSettings
  1

  2
EPSON LP-7000C
  4

  6

 40
0.0
 41
0.0
 42
0.0
 43
0.0
 44
0.0
 45
0.0
 46
0.0
 47
0.0
 48
0.0
 49
0.0
140
0.0
141
0.0
142
1.0
143
1.0
 70
   688
 72
     0
 73
     0
 74
     5
  7
inaba.ctb
 75
    16
147
1.0
148
0.0
149
0.0
100
AcDbLayout
  1
レイアウト1
 70
     0
 71
     1
 10
0.0
 20
0.0
 11
420.0
 21
297.0
 12
0.0
 22
0.0
 32
0.0
 14
1.000000000000000E+20
 24
1.000000000000000E+20
 34
1.000000000000000E+20
 15
-1.000000000000000E+20
 25
-1.000000000000000E+20
 35
-1.000000000000000E+20
146
0.0
 13
0.0
 23
0.0
 33
0.0
 16
1.0
 26
0.0
 36
0.0
 17
0.0
 27
1.0
 37
0.0
 76
     0
330
747A
  0
MLINESTYLE
  5
7480
102
{ACAD_REACTORS
330
7473
102
}
330
7473
100
AcDbMlineStyle
  2
STANDARD
 70
     0
  3

 62
     0
 51
90.0
 52
90.0
 71
     2
 49
0.5
 62
   256
  6
BYLAYER
 49
-0.5
 62
   256
  6
BYLAYER
  0
ACDBPLACEHOLDER
  5
1C065
102
{ACAD_REACTORS
330
1C064
102
}
330
1C064
  0
XRECORD
  5
2662C
102
{ACAD_REACTORS
330
2662A
102
}
330
2662A
100
AcDbXrecord
280
     1
340
1C067
  0
XRECORD
  5
2662B
102
{ACAD_REACTORS
330
2662A
102
}
330
2662A
100
AcDbXrecord
280
     1
340
1C066
  0
DICTIONARYVAR
  5
26627
102
{ACAD_REACTORS
330
141CA
102
}
330
141CA
100
DictionaryVariables
280
     0
  1
1
  0
DICTIONARYVAR
  5
26628
102
{ACAD_REACTORS
330
141CA
102
}
330
141CA
100
DictionaryVariables
280
     0
  1

  0
DICTIONARYVAR
  5
141CB
102
{ACAD_REACTORS
330
141CA
102
}
330
141CA
100
DictionaryVariables
280
     0
  1
96
  0
DICTIONARY
  5
2662D
330
1C06A
100
AcDbDictionary
280
     1
281
     1
  3
ACAD_XREC_ROUNDTRIP
360
2662E
  0
DICTIONARY
  5
2662F
330
1C06B
100
AcDbDictionary
280
     1
281
     1
  3
ACAD_XREC_ROUNDTRIP
360
26630
  0
XRECORD
  5
2662E
102
{ACAD_REACTORS
330
2662D
102
}
330
2662D
100
AcDbXrecord
280
     1
102
SHADEPLOT
 70
     1
102
SHADEPLOTRESLEVEL
 70
     2
102
SHADEPLOTCUSTOMDPI
 70
   300
  0
XRECORD
  5
26630
102
{ACAD_REACTORS
330
2662F
102
}
330
2662F
100
AcDbXrecord
280
     1
102
SHADEPLOT
 70
     0
102
SHADEPLOTRESLEVEL
 70
     2
102
SHADEPLOTCUSTOMDPI
 70
   300
  0
ENDSEC
  0
EOF
