  0
SECTION
  2
HEADER
  9
$ACADVER
  1
AC1015
  9
$ACADMAINTVER
 70
    20
  9
$DWGCODEPAGE
  3
ANSI_932
  9
$INSBASE
 10
0.0
 20
0.0
 30
0.0
  9
$EXTMIN
 10
174.9999999999993
 20
-0.0000075012905659
 30
0.0
  9
$EXTMAX
 10
20384.0
 20
14262.0
 30
0.0
  9
$LIMMIN
 10
-52.70172628566069
 20
-165.9934453319874
  9
$LIMMAX
 10
20416.16943707576
 20
14405.55431772587
  9
$ORTHOMODE
 70
     0
  9
$REGENMODE
 70
     1
  9
$FILLMODE
 70
     1
  9
$QTEXTMODE
 70
     0
  9
$MIRRTEXT
 70
     1
  9
$LTSCALE
 40
20.0
  9
$ATTMODE
 70
     1
  9
$TEXTSIZE
 40
150.0
  9
$TRACEWID
 40
1.0
  9
$TEXTSTYLE
  7
STYLE1
  9
$CLAYER
  8
寸法
  9
$CELTYPE
  6
BYLAYER
  9
$CECOLOR
 62
   256
  9
$CELTSCALE
 40
50.0
  9
$DISPSILH
 70
     0
  9
$DIMSCALE
 40
0.0
  9
$DIMASZ
 40
125.0
  9
$DIMEXO
 40
25.0
  9
$DIMDLI
 40
7.0
  9
$DIMRND
 40
0.0
  9
$DIMDLE
 40
0.0
  9
$DIMEXE
 40
75.0
  9
$DIMTP
 40
0.0
  9
$DIMTM
 40
0.0
  9
$DIMTXT
 40
150.0
  9
$DIMCEN
 40
0.0
  9
$DIMTSZ
 40
0.0
  9
$DIMTOL
 70
     0
  9
$DIMLIM
 70
     0
  9
$DIMTIH
 70
     0
  9
$DIMTOH
 70
     0
  9
$DIMSE1
 70
     0
  9
$DIMSE2
 70
     0
  9
$DIMTAD
 70
     3
  9
$DIMZIN
 70
     8
  9
$DIMBLK
  1

  9
$DIMASO
 70
     1
  9
$DIMSHO
 70
     1
  9
$DIMPOST
  1

  9
$DIMAPOST
  1

  9
$DIMALT
 70
     0
  9
$DIMALTD
 70
     2
  9
$DIMALTF
 40
0.0394
  9
$DIMLFAC
 40
1.0
  9
$DIMTOFL
 70
     1
  9
$DIMTVP
 40
0.0
  9
$DIMTIX
 70
     1
  9
$DIMSOXD
 70
     0
  9
$DIMSAH
 70
     1
  9
$DIMBLK1
  1
DOTSMALL
  9
$DIMBLK2
  1
DOTSMALL
  9
$DIMSTYLE
  2
INABA_S50G
  9
$DIMCLRD
 70
     0
  9
$DIMCLRE
 70
     0
  9
$DIMCLRT
 70
     7
  9
$DIMTFAC
 40
1.0
  9
$DIMGAP
 40
25.0
  9
$DIMJUST
 70
     0
  9
$DIMSD1
 70
     0
  9
$DIMSD2
 70
     0
  9
$DIMTOLJ
 70
     1
  9
$DIMTZIN
 70
     0
  9
$DIMALTZ
 70
     0
  9
$DIMALTTZ
 70
     0
  9
$DIMUPT
 70
     0
  9
$DIMDEC
 70
     1
  9
$DIMTDEC
 70
     4
  9
$DIMALTU
 70
     2
  9
$DIMALTTD
 70
     2
  9
$DIMTXSTY
  7
STYLE1
  9
$DIMAUNIT
 70
     0
  9
$DIMADEC
 70
     0
  9
$DIMALTRND
 40
0.0
  9
$DIMAZIN
 70
     0
  9
$DIMDSEP
 70
    46
  9
$DIMATFIT
 70
     3
  9
$DIMFRAC
 70
     0
  9
$DIMLDRBLK
  1
DOTSMALL
  9
$DIMLUNIT
 70
     2
  9
$DIMLWD
 70
    -2
  9
$DIMLWE
 70
    -2
  9
$DIMTMOVE
 70
     0
  9
$LUNITS
 70
     2
  9
$LUPREC
 70
     1
  9
$SKETCHINC
 40
1.0
  9
$FILLETRAD
 40
5.0
  9
$AUNITS
 70
     0
  9
$AUPREC
 70
     0
  9
$MENU
  1
acad
  9
$ELEVATION
 40
0.0
  9
$PELEVATION
 40
0.0
  9
$THICKNESS
 40
0.0
  9
$LIMCHECK
 70
     0
  9
$CHAMFERA
 40
0.0
  9
$CHAMFERB
 40
0.0
  9
$CHAMFERC
 40
0.0
  9
$CHAMFERD
 40
0.0
  9
$SKPOLY
 70
     0
  9
$TDCREATE
 40
2451376.453362153
  9
$TDUCREATE
 40
2451376.078362153
  9
$TDUPDATE
 40
2455569.641652732
  9
$TDUUPDATE
 40
2455569.266652732
  9
$TDINDWG
 40
2.2166220139
  9
$TDUSRTIMER
 40
2.2166220139
  9
$USRTIMER
 70
     1
  9
$ANGBASE
 50
0.0
  9
$ANGDIR
 70
     0
  9
$PDMODE
 70
     3
  9
$PDSIZE
 40
2.0
  9
$PLINEWID
 40
0.0
  9
$SPLFRAME
 70
     0
  9
$SPLINETYPE
 70
     6
  9
$SPLINESEGS
 70
     8
  9
$HANDSEED
  5
2617F
  9
$SURFTAB1
 70
     6
  9
$SURFTAB2
 70
     6
  9
$SURFTYPE
 70
     6
  9
$SURFU
 70
     6
  9
$SURFV
 70
     6
  9
$UCSBASE
  2

  9
$UCSNAME
  2

  9
$UCSORG
 10
0.0
 20
0.0
 30
0.0
  9
$UCSXDIR
 10
1.0
 20
0.0
 30
0.0
  9
$UCSYDIR
 10
0.0
 20
1.0
 30
0.0
  9
$UCSORTHOREF
  2

  9
$UCSORTHOVIEW
 70
     0
  9
$UCSORGTOP
 10
0.0
 20
0.0
 30
0.0
  9
$UCSORGBOTTOM
 10
0.0
 20
0.0
 30
0.0
  9
$UCSORGLEFT
 10
0.0
 20
0.0
 30
0.0
  9
$UCSORGRIGHT
 10
0.0
 20
0.0
 30
0.0
  9
$UCSORGFRONT
 10
0.0
 20
0.0
 30
0.0
  9
$UCSORGBACK
 10
0.0
 20
0.0
 30
0.0
  9
$PUCSBASE
  2

  9
$PUCSNAME
  2

  9
$PUCSORG
 10
0.0
 20
0.0
 30
0.0
  9
$PUCSXDIR
 10
1.0
 20
0.0
 30
0.0
  9
$PUCSYDIR
 10
0.0
 20
1.0
 30
0.0
  9
$PUCSORTHOREF
  2

  9
$PUCSORTHOVIEW
 70
     0
  9
$PUCSORGTOP
 10
0.0
 20
0.0
 30
0.0
  9
$PUCSORGBOTTOM
 10
0.0
 20
0.0
 30
0.0
  9
$PUCSORGLEFT
 10
0.0
 20
0.0
 30
0.0
  9
$PUCSORGRIGHT
 10
0.0
 20
0.0
 30
0.0
  9
$PUCSORGFRONT
 10
0.0
 20
0.0
 30
0.0
  9
$PUCSORGBACK
 10
0.0
 20
0.0
 30
0.0
  9
$USERI1
 70
     0
  9
$USERI2
 70
     0
  9
$USERI3
 70
     0
  9
$USERI4
 70
     0
  9
$USERI5
 70
     0
  9
$USERR1
 40
0.0
  9
$USERR2
 40
0.0
  9
$USERR3
 40
0.0
  9
$USERR4
 40
0.0
  9
$USERR5
 40
0.0
  9
$WORLDVIEW
 70
     1
  9
$SHADEDGE
 70
     3
  9
$SHADEDIF
 70
    70
  9
$TILEMODE
 70
     1
  9
$MAXACTVP
 70
    16
  9
$PINSBASE
 10
0.0
 20
0.0
 30
0.0
  9
$PLIMCHECK
 70
     0
  9
$PEXTMIN
 10
1.000000000000000E+20
 20
1.000000000000000E+20
 30
1.000000000000000E+20
  9
$PEXTMAX
 10
-1.000000000000000E+20
 20
-1.000000000000000E+20
 30
-1.000000000000000E+20
  9
$PLIMMIN
 10
0.0
 20
0.0
  9
$PLIMMAX
 10
420.0
 20
297.0
  9
$UNITMODE
 70
     0
  9
$VISRETAIN
 70
     0
  9
$PLINEGEN
 70
     0
  9
$PSLTSCALE
 70
     0
  9
$TREEDEPTH
 70
  3020
  9
$CMLSTYLE
  2
STANDARD
  9
$CMLJUST
 70
     0
  9
$CMLSCALE
 40
1.0
  9
$PROXYGRAPHICS
 70
     1
  9
$MEASUREMENT
 70
     1
  9
$CELWEIGHT
370
    -1
  9
$ENDCAPS
280
     0
  9
$JOINSTYLE
280
     0
  9
$LWDISPLAY
290
     0
  9
$INSUNITS
 70
     0
  9
$HYPERLINKBASE
  1

  9
$STYLESHEET
  1
inaba.ctb
  9
$XEDIT
290
     1
  9
$CEPSNTYPE
380
     0
  9
$PSTYLEMODE
290
     1
  9
$FINGERPRINTGUID
  2
{8A9045F4-6790-4200-B653-50126A12A1CF}
  9
$VERSIONGUID
  2
{5180C2F3-5CD9-4835-BB56-175F5720A293}
  9
$EXTNAMES
290
     1
  9
$PSVPSCALE
 40
0.0
  9
$OLESTARTUP
290
     0
  0
ENDSEC
  0
SECTION
  2
CLASSES
  0
CLASS
  1
DICTIONARYVAR
  2
AcDbDictionaryVar
  3
ObjectDBX Classes
 90
        0
280
     0
281
     0
  0
CLASS
  1
ACDBDICTIONARYWDFLT
  2
AcDbDictionaryWithDefault
  3
ObjectDBX Classes
 90
        0
280
     0
281
     0
  0
CLASS
  1
ACDBPLACEHOLDER
  2
AcDbPlaceHolder
  3
ObjectDBX Classes
 90
        0
280
     0
281
     0
  0
CLASS
  1
LAYOUT
  2
AcDbLayout
  3
ObjectDBX Classes
 90
        0
280
     0
281
     0
  0
ENDSEC
  0
SECTION
  2
TABLES
  0
TABLE
  2
VPORT
  5
746D
330
0
100
AcDbSymbolTable
 70
     2
  0
VPORT
  5
26177
330
746D
100
AcDbSymbolTableRecord
100
AcDbViewportTableRecord
  2
*Active
 70
     0
 10
0.0
 20
0.0
 11
1.0
 21
1.0
 12
11009.07850770919
 22
7130.995590026313
 13
0.0
 23
0.0
 14
500.0
 24
500.0
 15
500.0
 25
500.0
 16
0.0
 26
0.0
 36
1.0
 17
0.0
 27
0.0
 37
0.0
 40
14368.41831793669
 41
1.627450980392156
 42
50.0
 43
0.0
 44
0.0
 50
0.0
 51
0.0
 71
     0
 72
     0
 73
     1
 74
     0
 75
     0
 76
     0
 77
     0
 78
     0
281
     0
 65
     1
110
0.0
120
0.0
130
0.0
111
1.0
121
0.0
131
0.0
112
0.0
122
1.0
132
0.0
 79
     0
146
0.0
  0
ENDTAB
  0
TABLE
  2
LTYPE
  5
746A
330
0
100
AcDbSymbolTable
 70
     4
  0
LTYPE
  5
7477
330
746A
100
AcDbSymbolTableRecord
100
AcDbLinetypeTableRecord
  2
BYBLOCK
 70
     0
  3

 72
    65
 73
     0
 40
0.0
  0
LTYPE
  5
7478
330
746A
100
AcDbSymbolTableRecord
100
AcDbLinetypeTableRecord
  2
BYLAYER
 70
     0
  3

 72
    65
 73
     0
 40
0.0
  0
LTYPE
  5
7479
330
746A
100
AcDbSymbolTableRecord
100
AcDbLinetypeTableRecord
  2
CONTINUOUS
 70
     0
  3
Solid line
 72
    65
 73
     0
 40
0.0
  0
LTYPE
  5
7816
330
746A
100
AcDbSymbolTableRecord
100
AcDbLinetypeTableRecord
  2
CENTER
 70
     0
  3
____ _ ____ _ ____ _ ____ _ ____ _ ____ _ ____ 
 72
    65
 73
     4
 40
2.0
 49
1.25
 74
     0
 49
-0.25
 74
     0
 49
0.25
 74
     0
 49
-0.25
 74
     0
  0
LTYPE
  5
781A
330
746A
100
AcDbSymbolTableRecord
100
AcDbLinetypeTableRecord
  2
HIDDEN
 70
     0
  3
__ __ __ __ __ __ __ __ __ __ __ __ __ __ __ __
 72
    65
 73
     2
 40
0.375
 49
0.25
 74
     0
 49
-0.125
 74
     0
  0
LTYPE
  5
781B
330
746A
100
AcDbSymbolTableRecord
100
AcDbLinetypeTableRecord
  2
PHANTOM
 70
     0
  3
______  __  __  ______  __  __  ______  __  __ 
 72
    65
 73
     6
 40
2.5
 49
1.25
 74
     0
 49
-0.25
 74
     0
 49
0.25
 74
     0
 49
-0.25
 74
     0
 49
0.25
 74
     0
 49
-0.25
 74
     0
  0
ENDTAB
  0
TABLE
  2
LAYER
  5
7467
330
0
100
AcDbSymbolTable
 70
    11
  0
LAYER
  5
7474
330
7467
100
AcDbSymbolTableRecord
100
AcDbLayerTableRecord
  2
0
 70
     0
 62
     7
  6
CONTINUOUS
370
    -3
390
1BE95
  0
LAYER
  5
DEB2
330
7467
100
AcDbSymbolTableRecord
100
AcDbLayerTableRecord
  2
センター
 70
     0
 62
     3
  6
CENTER
370
    -3
390
1BE95
  0
LAYER
  5
DEB3
330
7467
100
AcDbSymbolTableRecord
100
AcDbLayerTableRecord
  2
寸法
 70
     0
 62
     4
  6
CONTINUOUS
370
    -3
390
1BE95
  0
LAYER
  5
DEB4
330
7467
100
AcDbSymbolTableRecord
100
AcDbLayerTableRecord
  2
部品1
 70
     0
 62
     7
  6
CONTINUOUS
370
    -3
390
1BE95
  0
LAYER
  5
DEB5
330
7467
100
AcDbSymbolTableRecord
100
AcDbLayerTableRecord
  2
補助
 70
     0
 62
    -1
  6
CONTINUOUS
370
    -3
390
1BE95
  0
LAYER
  5
DEB6
330
7467
100
AcDbSymbolTableRecord
100
AcDbLayerTableRecord
  2
文字
 70
     0
 62
     7
  6
CONTINUOUS
370
    -3
390
1BE95
  0
LAYER
  5
F255
330
7467
100
AcDbSymbolTableRecord
100
AcDbLayerTableRecord
  2
DEFPOINTS
 70
     0
 62
     7
  6
CONTINUOUS
290
     0
370
    -3
390
1BE95
  0
LAYER
  5
10B54
330
7467
100
AcDbSymbolTableRecord
100
AcDbLayerTableRecord
  2
仕様書枠
 70
     0
 62
   230
  6
CONTINUOUS
370
    -3
390
1BE95
  0
LAYER
  5
1173F
330
7467
100
AcDbSymbolTableRecord
100
AcDbLayerTableRecord
  2
細線
 70
     0
 62
     5
  6
CONTINUOUS
370
    -3
390
1BE95
  0
LAYER
  5
1180C
330
7467
100
AcDbSymbolTableRecord
100
AcDbLayerTableRecord
  2
想像線
 70
     0
 62
     6
  6
PHANTOM
370
    -3
390
1BE95
  0
LAYER
  5
1E63D
330
7467
100
AcDbSymbolTableRecord
100
AcDbLayerTableRecord
  2
点線
 70
     0
 62
     2
  6
HIDDEN
370
    -3
390
1BE95
  0
ENDTAB
  0
TABLE
  2
STYLE
  5
7468
330
0
100
AcDbSymbolTable
 70
     4
  0
STYLE
  5
7475
330
7468
100
AcDbSymbolTableRecord
100
AcDbTextStyleTableRecord
  2
STANDARD
 70
     0
 40
0.0
 41
1.0
 50
0.0
 71
     0
 42
4.0
  3
txt
  4
C:\AutoCAD LT\bigfont.shx
  0
STYLE
  5
763C
330
7468
100
AcDbSymbolTableRecord
100
AcDbTextStyleTableRecord
  2
MSMINCHO
 70
     0
 40
0.0
 41
1.0
 50
0.0
 71
     0
 42
1.199999999999999
  3
MS PMincho.ttf
  4

1001
ACAD
1000
MS PMincho
1071
    32786
  0
STYLE
  5
F706
330
7468
100
AcDbSymbolTableRecord
100
AcDbTextStyleTableRecord
  2
STYLE1
 70
     0
 40
0.0
 41
1.0
 50
0.0
 71
     0
 42
150.0
  3
isocp.shx
  4
bigfont.shx
  0
STYLE
  5
103BF
330
7468
100
AcDbSymbolTableRecord
100
AcDbTextStyleTableRecord
  2
STYLE2
 70
     0
 40
0.0
 41
1.0
 50
0.0
 71
     0
 42
100.0
  3
MS PGothic.ttf
  4

1001
ACAD
1000
MS PGothic
1071
    32818
  0
ENDTAB
  0
TABLE
  2
VIEW
  5
746B
330
0
100
AcDbSymbolTable
 70
     0
  0
ENDTAB
  0
TABLE
  2
UCS
  5
746C
330
0
100
AcDbSymbolTable
 70
     0
  0
ENDTAB
  0
TABLE
  2
APPID
  5
746E
330
0
100
AcDbSymbolTable
 70
     6
  0
APPID
  5
7476
330
746E
100
AcDbSymbolTableRecord
100
AcDbRegAppTableRecord
  2
ACAD
 70
     0
  0
APPID
  5
DEA9
330
746E
100
AcDbSymbolTableRecord
100
AcDbRegAppTableRecord
  2
CONTENTBLOCKICON
 70
     0
  0
APPID
  5
DEAA
330
746E
100
AcDbSymbolTableRecord
100
AcDbRegAppTableRecord
  2
CONTENTBLOCKDESCRIPTION
 70
     0
  0
APPID
  5
E71D
330
746E
100
AcDbSymbolTableRecord
100
AcDbRegAppTableRecord
  2
CONTENTTABDATA
 70
     0
  0
APPID
  5
E71E
330
746E
100
AcDbSymbolTableRecord
100
AcDbRegAppTableRecord
  2
CONTENTCURRENTTAB
 70
     0
  0
APPID
  5
F3BA
330
746E
100
AcDbSymbolTableRecord
100
AcDbRegAppTableRecord
  2
DRAWINGVARIABLESXDATA
 70
     0
  0
ENDTAB
  0
TABLE
  2
DIMSTYLE
  5
746F
330
0
100
AcDbSymbolTable
 70
     3
100
AcDbDimStyleTable
 71
     3
340
F71F
340
24575
340
214DF
  0
DIMSTYLE
105
F71F
102
{ACAD_REACTORS
330
25778
330
2577D
330
2577E
330
2577F
330
25789
330
2578F
330
257A0
330
257A1
330
257A2
330
257A8
330
257A9
330
257AA
330
257AB
330
257AE
330
257B2
330
257B3
330
257B4
330
257BB
330
257BC
330
257BD
330
257BE
102
}
330
746F
100
AcDbSymbolTableRecord
100
AcDbDimStyleTableRecord
  2
INABA_S50G
 70
     0
 40
0.0
 41
125.0
 42
25.0
 43
7.0
 44
75.0
 73
     0
 74
     0
 77
     3
 78
     8
140
150.0
141
0.0
143
0.0394
147
25.0
172
     1
173
     1
174
     1
178
     7
271
     1
340
F706
341
F770
343
F770
344
F770
  0
DIMSTYLE
105
214DF
102
{ACAD_REACTORS
330
1EB95
330
2153B
330
2156A
330
2156D
330
2156F
330
21595
102
}
330
746F
100
AcDbSymbolTableRecord
100
AcDbDimStyleTableRecord
  2
INABA_S50G詳細用
 70
     0
 40
0.0
 41
125.0
 42
25.0
 43
7.0
 44
35.0
 73
     0
 74
     0
 77
     3
 78
     8
140
150.0
141
0.0
143
0.0394
144
0.5
147
25.0
172
     1
173
     1
178
     7
271
     1
272
     1
340
F706
341
11750
343
F770
344
F770
  0
DIMSTYLE
105
24575
102
{ACAD_REACTORS
330
1EC6A
330
1EC0C
330
1EC14
330
225D2
330
1ED2C
330
1EDE4
330
1ED33
330
1EDE5
330
1EB84
330
1EF1A
330
22F34
330
222A9
330
22FA3
330
1EEAD
330
1EF2B
330
21FF8
330
1EEAC
330
25FBA
330
25FBB
102
}
330
746F
100
AcDbSymbolTableRecord
100
AcDbDimStyleTableRecord
  2
INABA_S50G詳細S20用
 70
     0
 40
0.0
 41
125.0
 42
25.0
 43
7.0
 44
35.0
 73
     0
 74
     0
 77
     3
 78
     8
140
150.0
141
0.0
143
0.0394
144
0.4
147
25.0
172
     1
173
     1
178
     7
271
     1
272
     1
340
F706
341
11750
343
F770
344
F770
  0
ENDTAB
  0
TABLE
  2
BLOCK_RECORD
  5
7466
330
0
100
AcDbSymbolTable
 70
    45
  0
BLOCK_RECORD
  5
747D
330
7466
100
AcDbSymbolTableRecord
100
AcDbBlockTableRecord
  2
*MODEL_SPACE
340
1BE9A
  0
BLOCK_RECORD
  5
747A
330
7466
100
AcDbSymbolTableRecord
100
AcDbBlockTableRecord
  2
*PAPER_SPACE
340
1BE9B
  0
BLOCK_RECORD
  5
ECB3
330
7466
100
AcDbSymbolTableRecord
100
AcDbBlockTableRecord
  2
作図枠S50
340
0
310
2800000020000000200000000100040000000000000200000000000000000000000000000000000000000000000080000080000000808000800000008000800080800000C0C0C000808080000000FF0000FF000000FFFF00FF000000FF00FF00FFFF0000FFFFFF00FFFFFFFFFFFFFFFFFFFFFFFFFFFFFFFFFFFFFFFFFFFFFF
310
FFFFFFFFFFFFFFFFFFFFFFFFFFFFFFFFFFFFFFFFFFFFFFFFFFFFFFFFFFFFFFFFFFFFFFFFFFFFFFFFFFFFFFFFFFFFFFFFFFFFFFFFFFFFFFFFFFFFFFFFFFFFFFFFFFFFFFFFFFFFFFFFFF999999999999999999999999999999999FFFFFFFFFFFFFFFFFFFFFFFFFFFFFF99FFFFFFFFFFFFFFFFFFFFFFFFFFFFFF99FFFFFFFFFFF
310
FFFFFFFFFFFFFFFFFFF99FFFFFFFFFFFFFFFFFFFFFFFFFFFFFF99FFFFFFFFFFFFFFFFFFFFFFFFFFFFFF99FFFFFFFFFFFFFFFFFFFFFFFFFFFFFF99FFFFFFFFFFFFFFFFFFFFFFFFFFFFFF99FFFFFFFFFFFFFFFFFFFFFFFFFFFFFF99FFFFFFFFFFFFFFFFFFFFFFFFFFFFFF99FFFFFFFFFFFFFFFFFFFFFFFFFFFFFF99FFFFFFFFF
310
FFFFFFFFFFFFFFFFFFFFF99FFFFFFFFFFFFFFFFFFFFFFFFFFFFFF99FFFFFFFFFFFFFFFFFFFFFFFFFFFFFF99FFFFFFFFFFFFFFFFFFFFFFFFFFFFFF99FFFFFFFFFFFFFFFFFFFFFFFFFFFFFF99FFFFFFFFFFFFFFFFFFFFFFFFFFFFFF99FFFFFFFFFFFFFFFFFFFFFFFFFFFFFF99FFFFFFFFFFFFFFFFFFFFF99999999999FFFFFFF
310
FFFFFFFFFFFFFF9FFFFFFFFF99999999999999999999999FFFFFFFFFFFFFFFFFFFFFFFFFFFFFFFFFFFFFFFFFFFFFFFFFFFFFFFFFFFFFFFFFFFFFFFFFFFFFFFFFFFFFFFFFFFFFFFFFFFFFFFFFFFFFFFFFFFFFFFFFFFFFFFFFFFFFFFFFFFFFFFFFFFFFFFFFFFFFFFFFFFFFFFFF
102
{BLKREFS
331
F235
102
}
  0
BLOCK_RECORD
  5
F770
330
7466
100
AcDbSymbolTableRecord
100
AcDbBlockTableRecord
  2
_DOTSMALL
340
0
102
{BLKREFS
331
25E47
331
25E48
331
25E52
331
25E53
331
25E5B
331
25E5C
331
25E64
331
25E65
331
25E6D
331
25E6E
331
25E77
331
25E78
331
25E80
331
25E81
331
25E89
331
25E8A
331
25E92
331
25E93
331
25EAE
331
25EAF
331
25EC0
331
25EC1
331
25EC9
331
25ECA
331
25ED3
331
25ED4
331
25EDD
331
25EDE
331
25EF3
331
25EF4
331
25EFD
331
25EFE
331
25F0B
331
25F0C
331
25F15
331
25F16
331
2604A
331
2604B
331
26053
331
26054
331
2609E
331
2609F
331
260A7
331
260A8
331
260B0
331
260B1
331
260BA
331
260BB
331
260C5
331
260C6
331
260D0
331
260D1
331
260D9
331
260DA
331
260E2
331
260E3
331
260EC
331
260ED
331
260F7
331
260F8
331
26101
331
26102
331
2610B
331
2610C
331
26114
331
26115
331
2611D
331
2611E
331
26127
331
26128
331
26132
331
26133
331
2613C
331
2613D
331
26145
331
26146
331
26150
331
26151
331
26159
331
2615A
331
26164
331
26165
102
}
  0
BLOCK_RECORD
  5
11750
330
7466
100
AcDbSymbolTableRecord
100
AcDbBlockTableRecord
  2
_NONE
340
0
  0
BLOCK_RECORD
  5
1F0C5
330
7466
100
AcDbSymbolTableRecord
100
AcDbBlockTableRecord
  2
*D3
340
0
  0
BLOCK_RECORD
  5
1F0D1
330
7466
100
AcDbSymbolTableRecord
100
AcDbBlockTableRecord
  2
*D4
340
0
  0
BLOCK_RECORD
  5
1F0EA
330
7466
100
AcDbSymbolTableRecord
100
AcDbBlockTableRecord
  2
*D5
340
0
  0
BLOCK_RECORD
  5
1F0F6
330
7466
100
AcDbSymbolTableRecord
100
AcDbBlockTableRecord
  2
*D6
340
0
  0
BLOCK_RECORD
  5
1F10F
330
7466
100
AcDbSymbolTableRecord
100
AcDbBlockTableRecord
  2
*D7
340
0
  0
BLOCK_RECORD
  5
1F11C
330
7466
100
AcDbSymbolTableRecord
100
AcDbBlockTableRecord
  2
*D8
340
0
  0
BLOCK_RECORD
  5
1F135
330
7466
100
AcDbSymbolTableRecord
100
AcDbBlockTableRecord
  2
*D9
340
0
  0
BLOCK_RECORD
  5
1F142
330
7466
100
AcDbSymbolTableRecord
100
AcDbBlockTableRecord
  2
*D10
340
0
  0
BLOCK_RECORD
  5
1F14F
330
7466
100
AcDbSymbolTableRecord
100
AcDbBlockTableRecord
  2
*D11
340
0
  0
BLOCK_RECORD
  5
1F15B
330
7466
100
AcDbSymbolTableRecord
100
AcDbBlockTableRecord
  2
*D12
340
0
  0
BLOCK_RECORD
  5
1F173
330
7466
100
AcDbSymbolTableRecord
100
AcDbBlockTableRecord
  2
*D13
340
0
  0
BLOCK_RECORD
  5
1F1B0
330
7466
100
AcDbSymbolTableRecord
100
AcDbBlockTableRecord
  2
*D14
340
0
  0
BLOCK_RECORD
  5
1F1ED
330
7466
100
AcDbSymbolTableRecord
100
AcDbBlockTableRecord
  2
*D15
340
0
  0
BLOCK_RECORD
  5
21FF9
330
7466
100
AcDbSymbolTableRecord
100
AcDbBlockTableRecord
  2
*D16
340
0
  0
BLOCK_RECORD
  5
222AA
330
7466
100
AcDbSymbolTableRecord
100
AcDbBlockTableRecord
  2
*D17
340
0
  0
BLOCK_RECORD
  5
225D3
330
7466
100
AcDbSymbolTableRecord
100
AcDbBlockTableRecord
  2
*D18
340
0
  0
BLOCK_RECORD
  5
228B7
330
7466
100
AcDbSymbolTableRecord
100
AcDbBlockTableRecord
  2
_Open
340
0
  0
BLOCK_RECORD
  5
22F35
330
7466
100
AcDbSymbolTableRecord
100
AcDbBlockTableRecord
  2
*D20
340
0
  0
BLOCK_RECORD
  5
22FA4
330
7466
100
AcDbSymbolTableRecord
100
AcDbBlockTableRecord
  2
*D21
340
0
  0
BLOCK_RECORD
  5
257CA
330
7466
100
AcDbSymbolTableRecord
100
AcDbBlockTableRecord
  2
*D22
340
0
  0
BLOCK_RECORD
  5
257D7
330
7466
100
AcDbSymbolTableRecord
100
AcDbBlockTableRecord
  2
*D23
340
0
  0
BLOCK_RECORD
  5
257E3
330
7466
100
AcDbSymbolTableRecord
100
AcDbBlockTableRecord
  2
*D24
340
0
  0
BLOCK_RECORD
  5
257EF
330
7466
100
AcDbSymbolTableRecord
100
AcDbBlockTableRecord
  2
*D25
340
0
  0
BLOCK_RECORD
  5
257FB
330
7466
100
AcDbSymbolTableRecord
100
AcDbBlockTableRecord
  2
*D26
340
0
  0
BLOCK_RECORD
  5
25807
330
7466
100
AcDbSymbolTableRecord
100
AcDbBlockTableRecord
  2
*D27
340
0
  0
BLOCK_RECORD
  5
25813
330
7466
100
AcDbSymbolTableRecord
100
AcDbBlockTableRecord
  2
*D28
340
0
  0
BLOCK_RECORD
  5
25821
330
7466
100
AcDbSymbolTableRecord
100
AcDbBlockTableRecord
  2
*D29
340
0
  0
BLOCK_RECORD
  5
2582F
330
7466
100
AcDbSymbolTableRecord
100
AcDbBlockTableRecord
  2
*D30
340
0
  0
BLOCK_RECORD
  5
2583C
330
7466
100
AcDbSymbolTableRecord
100
AcDbBlockTableRecord
  2
*D31
340
0
  0
BLOCK_RECORD
  5
25848
330
7466
100
AcDbSymbolTableRecord
100
AcDbBlockTableRecord
  2
*D32
340
0
  0
BLOCK_RECORD
  5
25854
330
7466
100
AcDbSymbolTableRecord
100
AcDbBlockTableRecord
  2
*D33
340
0
  0
BLOCK_RECORD
  5
25861
330
7466
100
AcDbSymbolTableRecord
100
AcDbBlockTableRecord
  2
*D34
340
0
  0
BLOCK_RECORD
  5
2586F
330
7466
100
AcDbSymbolTableRecord
100
AcDbBlockTableRecord
  2
*D35
340
0
  0
BLOCK_RECORD
  5
2587D
330
7466
100
AcDbSymbolTableRecord
100
AcDbBlockTableRecord
  2
*D36
340
0
  0
BLOCK_RECORD
  5
25889
330
7466
100
AcDbSymbolTableRecord
100
AcDbBlockTableRecord
  2
*D37
340
0
  0
BLOCK_RECORD
  5
25897
330
7466
100
AcDbSymbolTableRecord
100
AcDbBlockTableRecord
  2
*D38
340
0
  0
BLOCK_RECORD
  5
258A3
330
7466
100
AcDbSymbolTableRecord
100
AcDbBlockTableRecord
  2
*D39
340
0
  0
BLOCK_RECORD
  5
258B0
330
7466
100
AcDbSymbolTableRecord
100
AcDbBlockTableRecord
  2
*D40
340
0
  0
BLOCK_RECORD
  5
258BE
330
7466
100
AcDbSymbolTableRecord
100
AcDbBlockTableRecord
  2
*D41
340
0
  0
BLOCK_RECORD
  5
258CB
330
7466
100
AcDbSymbolTableRecord
100
AcDbBlockTableRecord
  2
*D42
340
0
  0
BLOCK_RECORD
  5
2601A
330
7466
100
AcDbSymbolTableRecord
100
AcDbBlockTableRecord
  2
*D43
340
0
  0
BLOCK_RECORD
  5
26027
330
7466
100
AcDbSymbolTableRecord
100
AcDbBlockTableRecord
  2
*D44
340
0
  0
ENDTAB
  0
ENDSEC
  0
SECTION
  2
BLOCKS
  0
BLOCK
  5
7489
330
747D
100
AcDbEntity
  8
0
100
AcDbBlockBegin
  2
*MODEL_SPACE
 70
     0
 10
0.0
 20
0.0
 30
0.0
  3
*MODEL_SPACE
  1

  0
ENDBLK
  5
748A
330
747D
100
AcDbEntity
  8
0
100
AcDbBlockEnd
  0
BLOCK
  5
7487
330
747A
100
AcDbEntity
 67
     1
  8
0
100
AcDbBlockBegin
  2
*PAPER_SPACE
 70
     0
 10
0.0
 20
0.0
 30
0.0
  3
*PAPER_SPACE
  1

  0
ENDBLK
  5
7488
330
747A
100
AcDbEntity
 67
     1
  8
0
100
AcDbBlockEnd
  0
BLOCK
  5
ECB4
330
ECB3
100
AcDbEntity
  8
0
100
AcDbBlockBegin
  2
作図枠S50
 70
     0
 10
0.0
 20
0.0
 30
0.0
  3
作図枠S50
  1

  4
作図領域枠 縮尺 1/50
  0
LINE
  5
ECB5
330
ECB3
100
AcDbEntity
  8
補助
100
AcDbLine
 10
14364.0
 20
14262.0
 30
0.0
 11
174.9999999999993
 21
14262.0
 31
0.0
  0
LINE
  5
ECB6
330
ECB3
100
AcDbEntity
  8
補助
100
AcDbLine
 10
174.9999999999993
 20
14262.0
 30
0.0
 11
174.9999999999993
 21
1520.0
 31
0.0
  0
LINE
  5
ECB7
330
ECB3
100
AcDbEntity
  8
補助
100
AcDbLine
 10
174.9999999999993
 20
1520.0
 30
0.0
 11
20384.0
 21
1520.0
 31
0.0
  0
LINE
  5
ECB8
330
ECB3
100
AcDbEntity
  8
補助
100
AcDbLine
 10
20384.0
 20
1520.0
 30
0.0
 11
20384.0
 21
13042.0
 31
0.0
  0
LINE
  5
ECB9
330
ECB3
100
AcDbEntity
  8
補助
100
AcDbLine
 10
20384.0
 20
13042.0
 30
0.0
 11
14364.0
 21
13042.0
 31
0.0
  0
LINE
  5
ECBA
330
ECB3
100
AcDbEntity
  8
補助
100
AcDbLine
 10
14364.0
 20
13042.0
 30
0.0
 11
14364.0
 21
14262.0
 31
0.0
  0
ENDBLK
  5
ECBB
330
ECB3
100
AcDbEntity
  8
0
100
AcDbBlockEnd
  0
BLOCK
  5
F771
330
F770
100
AcDbEntity
  8
0
 48
50.0
100
AcDbBlockBegin
  2
_DOTSMALL
 70
     0
 10
0.0
 20
0.0
 30
0.0
  3
_DOTSMALL
  1

  0
LWPOLYLINE
  5
F772
330
F770
100
AcDbEntity
  8
0
  6
ByBlock
 62
     0
 48
50.0
100
AcDbPolyline
 90
        2
 70
     1
 43
0.5
 10
-0.0625
 20
0.0
 42
1.0
 10
0.0625
 20
0.0
 42
1.0
  0
ENDBLK
  5
F776
330
F770
100
AcDbEntity
  8
0
 48
50.0
100
AcDbBlockEnd
  0
BLOCK
  5
11752
330
11750
100
AcDbEntity
  8
0
 48
50.0
100
AcDbBlockBegin
  2
_NONE
 70
     0
 10
0.0
 20
0.0
 30
0.0
  3
_NONE
  1

  0
CIRCLE
  5
11751
330
11750
100
AcDbEntity
  8
0
  6
ByBlock
 62
     0
 48
50.0
100
AcDbCircle
 10
0.0
 20
0.0
 30
0.0
 40
0.25
  0
ENDBLK
  5
11753
330
11750
100
AcDbEntity
  8
0
 48
50.0
100
AcDbBlockEnd
  0
BLOCK
  5
1F0CF
330
1F0C5
100
AcDbEntity
  8
0
 48
50.0
100
AcDbBlockBegin
  2
*D3
 70
     1
 10
0.0
 20
0.0
 30
0.0
  3
*D3
  1

  0
LINE
  5
25E8F
330
1F0C5
100
AcDbEntity
  8
寸法
 62
     0
 48
50.0
370
    -2
100
AcDbLine
 10
7233.475886326829
 20
1212.836257816044
 30
0.0
 11
7233.475886326829
 21
826.5329970023344
 31
0.0
  0
LINE
  5
25E90
330
1F0C5
100
AcDbEntity
  8
寸法
 62
     0
 48
50.0
370
    -2
100
AcDbLine
 10
8108.475886326816
 20
1212.836257816046
 30
0.0
 11
8108.475886326816
 21
826.5329970023344
 31
0.0
  0
LINE
  5
25E91
330
1F0C5
100
AcDbEntity
  8
寸法
 62
     0
 48
50.0
370
    -2
100
AcDbLine
 10
7233.475886326829
 20
861.5329970023344
 30
0.0
 11
8108.475886326816
 21
861.5329970023344
 31
0.0
  0
INSERT
  5
25E92
330
1F0C5
100
AcDbEntity
  8
寸法
 62
     0
 48
50.0
370
    -2
100
AcDbBlockReference
  2
_DOTSMALL
 10
7233.475886326829
 20
861.5329970023344
 30
0.0
 41
125.0
 42
125.0
 43
125.0
 50
180.0
  0
INSERT
  5
25E93
330
1F0C5
100
AcDbEntity
  8
寸法
 62
     0
 48
50.0
370
    -2
100
AcDbBlockReference
  2
_DOTSMALL
 10
8108.475886326816
 20
861.5329970023344
 30
0.0
 41
125.0
 42
125.0
 43
125.0
  0
MTEXT
  5
25E94
330
1F0C5
100
AcDbEntity
  8
寸法
 62
     7
 48
50.0
100
AcDbMText
 10
7670.975886326822
 20
961.5329970023344
 30
0.0
 40
150.0
 41
0.0
 71
     5
 72
     1
  1
\A1;\U+25A1350
  7
STYLE1
 73
     1
 44
1.0
1001
ACAD
1000
MTEXTBEGIN
1070
    73
1070
     1
1070
    44
1040
1.0
1070
    74
1070
     0
1000
MTEXTEND
  0
POINT
  5
25E95
330
1F0C5
100
AcDbEntity
  8
DEFPOINTS
 62
     0
 48
50.0
100
AcDbPoint
 10
7233.475886326829
 20
1237.836257816044
 30
0.0
  0
POINT
  5
25E96
330
1F0C5
100
AcDbEntity
  8
DEFPOINTS
 62
     0
 48
50.0
100
AcDbPoint
 10
8108.475886326816
 20
1237.836257816046
 30
0.0
  0
POINT
  5
25E97
330
1F0C5
100
AcDbEntity
  8
DEFPOINTS
 62
     0
 48
50.0
100
AcDbPoint
 10
8108.475886326816
 20
861.5329970023344
 30
0.0
  0
ENDBLK
  5
1F0D0
330
1F0C5
100
AcDbEntity
  8
0
 48
50.0
100
AcDbBlockEnd
  0
BLOCK
  5
1F0DB
330
1F0D1
100
AcDbEntity
  8
0
 48
50.0
100
AcDbBlockBegin
  2
*D4
 70
     1
 10
0.0
 20
0.0
 30
0.0
  3
*D4
  1

  0
LINE
  5
25EAB
330
1F0D1
100
AcDbEntity
  8
寸法
 62
     0
 48
50.0
370
    -2
100
AcDbLine
 10
6959.261119620063
 20
2187.836257816046
 30
0.0
 11
6732.052023993825
 21
2187.836257816046
 31
0.0
  0
LINE
  5
25EAC
330
1F0D1
100
AcDbEntity
  8
寸法
 62
     0
 48
50.0
370
    -2
100
AcDbLine
 10
7145.975886326823
 20
1437.836257816046
 30
0.0
 11
6732.052023993823
 21
1437.836257816046
 31
0.0
  0
LINE
  5
25EAD
330
1F0D1
100
AcDbEntity
  8
寸法
 62
     0
 48
50.0
370
    -2
100
AcDbLine
 10
6767.052023993824
 20
2187.836257816046
 30
0.0
 11
6767.052023993823
 21
1437.836257816046
 31
0.0
  0
INSERT
  5
25EAE
330
1F0D1
100
AcDbEntity
  8
寸法
 62
     0
 48
50.0
370
    -2
100
AcDbBlockReference
  2
_DOTSMALL
 10
6767.052023993824
 20
2187.836257816046
 30
0.0
 41
125.0
 42
125.0
 43
125.0
 50
90.0
  0
INSERT
  5
25EAF
330
1F0D1
100
AcDbEntity
  8
寸法
 62
     0
 48
50.0
370
    -2
100
AcDbBlockReference
  2
_DOTSMALL
 10
6767.052023993823
 20
1437.836257816046
 30
0.0
 41
125.0
 42
125.0
 43
125.0
 50
270.0
  0
MTEXT
  5
25EB0
330
1F0D1
100
AcDbEntity
  8
寸法
 62
     7
 48
50.0
100
AcDbMText
 10
6667.052023993822
 20
1812.836257816048
 30
0.0
 40
150.0
 41
0.0
 71
     5
 72
     1
  1
\A1;300
  7
STYLE1
 11
0.0000000000000001
 21
1.0
 31
0.0
 73
     1
 44
1.0
1001
ACAD
1000
MTEXTBEGIN
1070
    73
1070
     1
1070
    44
1040
1.0
1070
    74
1070
     0
1000
MTEXTEND
  0
POINT
  5
25EB1
330
1F0D1
100
AcDbEntity
  8
DEFPOINTS
 62
     0
 48
50.0
100
AcDbPoint
 10
6984.261119620064
 20
2187.836257816046
 30
0.0
  0
POINT
  5
25EB2
330
1F0D1
100
AcDbEntity
  8
DEFPOINTS
 62
     0
 48
50.0
100
AcDbPoint
 10
7170.975886326823
 20
1437.836257816046
 30
0.0
  0
POINT
  5
25EB3
330
1F0D1
100
AcDbEntity
  8
DEFPOINTS
 62
     0
 48
50.0
100
AcDbPoint
 10
6767.052023993823
 20
1437.836257816046
 30
0.0
  0
ENDBLK
  5
1F0DC
330
1F0D1
100
AcDbEntity
  8
0
 48
50.0
100
AcDbBlockEnd
  0
BLOCK
  5
1F0F4
330
1F0EA
100
AcDbEntity
  8
0
 48
50.0
100
AcDbBlockBegin
  2
*D5
 70
     1
 10
0.0
 20
0.0
 30
0.0
  3
*D5
  1

  0
LINE
  5
25EBD
330
1F0EA
100
AcDbEntity
  8
寸法
 62
     0
 48
50.0
370
    -2
100
AcDbLine
 10
7914.725886326817
 20
2687.836257816046
 30
0.0
 11
8834.265250238326
 21
2687.836257816046
 31
0.0
  0
LINE
  5
25EBE
330
1F0EA
100
AcDbEntity
  8
寸法
 62
     0
 48
50.0
370
    -2
100
AcDbLine
 10
7884.725886326823
 20
2062.836257816046
 30
0.0
 11
8834.265250238326
 21
2062.836257816046
 31
0.0
  0
LINE
  5
25EBF
330
1F0EA
100
AcDbEntity
  8
寸法
 62
     0
 48
50.0
370
    -2
100
AcDbLine
 10
8799.265250238326
 20
2687.836257816046
 30
0.0
 11
8799.265250238326
 21
2062.836257816046
 31
0.0
  0
INSERT
  5
25EC0
330
1F0EA
100
AcDbEntity
  8
寸法
 62
     0
 48
50.0
370
    -2
100
AcDbBlockReference
  2
_DOTSMALL
 10
8799.265250238326
 20
2687.836257816046
 30
0.0
 41
125.0
 42
125.0
 43
125.0
 50
90.0
  0
INSERT
  5
25EC1
330
1F0EA
100
AcDbEntity
  8
寸法
 62
     0
 48
50.0
370
    -2
100
AcDbBlockReference
  2
_DOTSMALL
 10
8799.265250238326
 20
2062.836257816046
 30
0.0
 41
125.0
 42
125.0
 43
125.0
 50
270.0
  0
MTEXT
  5
25EC2
330
1F0EA
100
AcDbEntity
  8
寸法
 62
     7
 48
50.0
100
AcDbMText
 10
8699.250486458799
 20
2375.336257816047
 30
0.0
 40
150.0
 41
0.0
 71
     5
 72
     1
  1
\A1;250
  7
STYLE1
 11
0.0000000000000001
 21
1.0
 31
0.0
 73
     1
 44
1.0
1001
ACAD
1000
MTEXTBEGIN
1070
    73
1070
     1
1070
    44
1040
1.0
1070
    74
1070
     0
1000
MTEXTEND
  0
POINT
  5
25EC3
330
1F0EA
100
AcDbEntity
  8
DEFPOINTS
 62
     0
 48
50.0
100
AcDbPoint
 10
7889.725886326818
 20
2687.836257816046
 30
0.0
  0
POINT
  5
25EC4
330
1F0EA
100
AcDbEntity
  8
DEFPOINTS
 62
     0
 48
50.0
100
AcDbPoint
 10
7859.725886326824
 20
2062.836257816046
 30
0.0
  0
POINT
  5
25EC5
330
1F0EA
100
AcDbEntity
  8
DEFPOINTS
 62
     0
 48
50.0
100
AcDbPoint
 10
8799.265250238326
 20
2062.836257816046
 30
0.0
  0
ENDBLK
  5
1F0F5
330
1F0EA
100
AcDbEntity
  8
0
 48
50.0
100
AcDbBlockEnd
  0
BLOCK
  5
1F100
330
1F0F6
100
AcDbEntity
  8
0
 48
50.0
100
AcDbBlockBegin
  2
*D6
 70
     1
 10
0.0
 20
0.0
 30
0.0
  3
*D6
  1

  0
LINE
  5
25F11
330
1F0F6
100
AcDbEntity
  8
寸法
 62
     0
 48
50.0
370
    -2
100
AcDbLine
 10
7914.725886326817
 20
2687.836257816046
 30
0.0
 11
9424.753868908421
 21
2687.836257816046
 31
0.0
  0
LINE
  5
25F12
330
1F0F6
100
AcDbEntity
  8
寸法
 62
     0
 48
50.0
370
    -2
100
AcDbLine
 10
7764.725886326823
 20
1812.836257816046
 30
0.0
 11
9424.753868908421
 21
1812.836257816046
 31
0.0
  0
LINE
  5
25F13
330
1F0F6
100
AcDbEntity
  8
寸法
 62
     0
 48
50.0
370
    -2
100
AcDbLine
 10
9389.753868908421
 20
2687.836257816046
 30
0.0
 11
9389.753868908421
 21
1812.836257816046
 31
0.0
  0
MTEXT
  5
25F14
330
1F0F6
100
AcDbEntity
  8
寸法
 62
     7
 48
50.0
100
AcDbMText
 10
9150.255434912677
 20
2282.241560883795
 30
0.0
 40
150.0
 41
0.0
 71
     5
 72
     1
  1
\A1;基礎天ヨリ\P350
  7
STYLE1
 11
0.0000000000000001
 21
1.0
 31
0.0
 73
     1
 44
1.0
1001
ACAD
1000
MTEXTBEGIN
1070
    73
1070
     1
1070
    44
1040
1.0
1070
    74
1070
     0
1000
MTEXTEND
  0
INSERT
  5
25F15
330
1F0F6
100
AcDbEntity
  8
寸法
 62
     0
 48
50.0
370
    -2
100
AcDbBlockReference
  2
_DOTSMALL
 10
9389.753868908421
 20
2687.836257816046
 30
0.0
 41
125.0
 42
125.0
 43
125.0
 50
90.0
  0
INSERT
  5
25F16
330
1F0F6
100
AcDbEntity
  8
寸法
 62
     0
 48
50.0
370
    -2
100
AcDbBlockReference
  2
_DOTSMALL
 10
9389.753868908421
 20
1812.836257816046
 30
0.0
 41
125.0
 42
125.0
 43
125.0
 50
270.0
  0
POINT
  5
25F17
330
1F0F6
100
AcDbEntity
  8
DEFPOINTS
 62
     0
 48
50.0
100
AcDbPoint
 10
7889.725886326818
 20
2687.836257816046
 30
0.0
  0
POINT
  5
25F18
330
1F0F6
100
AcDbEntity
  8
DEFPOINTS
 62
     0
 48
50.0
100
AcDbPoint
 10
7739.725886326823
 20
1812.836257816046
 30
0.0
  0
POINT
  5
25F19
330
1F0F6
100
AcDbEntity
  8
DEFPOINTS
 62
     0
 48
50.0
100
AcDbPoint
 10
9389.753868908421
 20
1812.836257816046
 30
0.0
  0
ENDBLK
  5
1F101
330
1F0F6
100
AcDbEntity
  8
0
 48
50.0
100
AcDbBlockEnd
  0
BLOCK
  5
1F11A
330
1F10F
100
AcDbEntity
  8
0
 48
50.0
100
AcDbBlockBegin
  2
*D7
 70
     1
 10
0.0
 20
0.0
 30
0.0
  3
*D7
  1

  0
LINE
  5
25ED9
330
1F10F
100
AcDbEntity
  8
寸法
 62
     0
 48
50.0
370
    -2
100
AcDbLine
 10
10958.08719874705
 20
1583.470190317737
 30
0.0
 11
11663.82501406269
 21
1583.470190317737
 31
0.0
  0
LINE
  5
25EDA
330
1F10F
100
AcDbEntity
  8
寸法
 62
     0
 48
50.0
370
    -2
100
AcDbLine
 10
10908.08719874705
 20
1533.470190317737
 30
0.0
 11
11663.82501406269
 21
1533.470190317737
 31
0.0
  0
LINE
  5
25EDB
330
1F10F
100
AcDbEntity
  8
寸法
 62
     0
 48
50.0
370
    -2
100
AcDbLine
 10
11628.82501406269
 20
1533.470190317737
 30
0.0
 11
11628.82501406269
 21
1583.470190317737
 31
0.0
  0
LINE
  5
25EDC
330
1F10F
100
AcDbEntity
  8
寸法
 62
     0
 48
50.0
370
    -2
100
AcDbLine
 10
11628.82501406269
 20
1583.470190317737
 30
0.0
 11
11628.82501406269
 21
2019.080484795598
 31
0.0
  0
INSERT
  5
25EDD
330
1F10F
100
AcDbEntity
  8
寸法
 62
     0
 48
50.0
370
    -2
100
AcDbBlockReference
  2
_DOTSMALL
 10
11628.82501406269
 20
1533.470190317737
 30
0.0
 41
125.0
 42
125.0
 43
125.0
 50
270.0
  0
INSERT
  5
25EDE
330
1F10F
100
AcDbEntity
  8
寸法
 62
     0
 48
50.0
370
    -2
100
AcDbBlockReference
  2
_DOTSMALL
 10
11628.82501406269
 20
1583.470190317737
 30
0.0
 41
125.0
 42
125.0
 43
125.0
 50
90.0
  0
MTEXT
  5
25EDF
330
1F10F
100
AcDbEntity
  8
寸法
 62
     7
 48
50.0
100
AcDbMText
 10
11528.81025028316
 20
1909.616902118434
 30
0.0
 40
150.0
 41
0.0
 71
     5
 72
     1
  1
\A1;20
  7
STYLE1
 11
0.0000000000000001
 21
1.0
 31
0.0
 73
     1
 44
1.0
1001
ACAD
1000
MTEXTBEGIN
1070
    73
1070
     1
1070
    44
1040
1.0
1070
    74
1070
     0
1000
MTEXTEND
  0
POINT
  5
25EE0
330
1F10F
100
AcDbEntity
  8
DEFPOINTS
 62
     0
 48
50.0
100
AcDbPoint
 10
10933.08719874706
 20
1583.470190317737
 30
0.0
  0
POINT
  5
25EE1
330
1F10F
100
AcDbEntity
  8
DEFPOINTS
 62
     0
 48
50.0
100
AcDbPoint
 10
10883.08719874705
 20
1533.470190317737
 30
0.0
  0
POINT
  5
25EE2
330
1F10F
100
AcDbEntity
  8
DEFPOINTS
 62
     0
 48
50.0
100
AcDbPoint
 10
11628.82501406269
 20
1533.470190317737
 30
0.0
  0
ENDBLK
  5
1F11B
330
1F10F
100
AcDbEntity
  8
0
 48
50.0
100
AcDbBlockEnd
  0
BLOCK
  5
1F127
330
1F11C
100
AcDbEntity
  8
0
 48
50.0
100
AcDbBlockBegin
  2
*D8
 70
     1
 10
0.0
 20
0.0
 30
0.0
  3
*D8
  1

  0
LINE
  5
25ECF
330
1F11C
100
AcDbEntity
  8
寸法
 62
     0
 48
50.0
370
    -2
100
AcDbLine
 10
10883.08719874705
 20
1608.470190317738
 30
0.0
 11
10883.08719874705
 21
1973.785736691844
 31
0.0
  0
LINE
  5
25ED0
330
1F11C
100
AcDbEntity
  8
寸法
 62
     0
 48
50.0
370
    -2
100
AcDbLine
 10
10933.08719874706
 20
1928.437542289062
 30
0.0
 11
10933.08719874706
 21
1973.785736691844
 31
0.0
  0
LINE
  5
25ED1
330
1F11C
100
AcDbEntity
  8
寸法
 62
     0
 48
50.0
370
    -2
100
AcDbLine
 10
10883.08719874705
 20
1938.785736691844
 30
0.0
 11
10933.08719874706
 21
1938.785736691844
 31
0.0
  0
LINE
  5
25ED2
330
1F11C
100
AcDbEntity
  8
寸法
 62
     0
 48
50.0
370
    -2
100
AcDbLine
 10
10933.08719874706
 20
1938.785736691844
 30
0.0
 11
11277.01436410138
 21
1938.785736691844
 31
0.0
  0
INSERT
  5
25ED3
330
1F11C
100
AcDbEntity
  8
寸法
 62
     0
 48
50.0
370
    -2
100
AcDbBlockReference
  2
_DOTSMALL
 10
10883.08719874705
 20
1938.785736691844
 30
0.0
 41
125.0
 42
125.0
 43
125.0
 50
180.0
  0
INSERT
  5
25ED4
330
1F11C
100
AcDbEntity
  8
寸法
 62
     0
 48
50.0
370
    -2
100
AcDbBlockReference
  2
_DOTSMALL
 10
10933.08719874706
 20
1938.785736691844
 30
0.0
 41
125.0
 42
125.0
 43
125.0
  0
MTEXT
  5
25ED5
330
1F11C
100
AcDbEntity
  8
寸法
 62
     7
 48
50.0
100
AcDbMText
 10
11167.55078142422
 20
2038.800500471372
 30
0.0
 40
150.0
 41
0.0
 71
     5
 72
     1
  1
\A1;20
  7
STYLE1
 73
     1
 44
1.0
1001
ACAD
1000
MTEXTBEGIN
1070
    73
1070
     1
1070
    44
1040
1.0
1070
    74
1070
     0
1000
MTEXTEND
  0
POINT
  5
25ED6
330
1F11C
100
AcDbEntity
  8
DEFPOINTS
 62
     0
 48
50.0
100
AcDbPoint
 10
10883.08719874705
 20
1583.470190317738
 30
0.0
  0
POINT
  5
25ED7
330
1F11C
100
AcDbEntity
  8
DEFPOINTS
 62
     0
 48
50.0
100
AcDbPoint
 10
10933.08719874706
 20
1903.437542289062
 30
0.0
  0
POINT
  5
25ED8
330
1F11C
100
AcDbEntity
  8
DEFPOINTS
 62
     0
 48
50.0
100
AcDbPoint
 10
10933.08719874706
 20
1938.785736691844
 30
0.0
  0
ENDBLK
  5
1F128
330
1F11C
100
AcDbEntity
  8
0
 48
50.0
100
AcDbBlockEnd
  0
BLOCK
  5
1F140
330
1F135
100
AcDbEntity
  8
0
 48
50.0
100
AcDbBlockBegin
  2
*D9
 70
     1
 10
0.0
 20
0.0
 30
0.0
  3
*D9
  1

  0
LINE
  5
25EF8
330
1F135
100
AcDbEntity
  8
寸法
 62
     0
 48
50.0
370
    -2
100
AcDbLine
 10
13989.50248231424
 20
1350.833239281674
 30
0.0
 11
13989.50248231424
 21
636.7250777562631
 31
0.0
  0
LINE
  5
25EF9
330
1F135
100
AcDbEntity
  8
寸法
 62
     0
 48
50.0
370
    -2
100
AcDbLine
 10
13939.50248231425
 20
1350.833239281674
 30
0.0
 11
13939.50248231425
 21
636.7250777562631
 31
0.0
  0
LINE
  5
25EFA
330
1F135
100
AcDbEntity
  8
寸法
 62
     0
 48
50.0
370
    -2
100
AcDbLine
 10
13939.50248231425
 20
671.7250777562631
 30
0.0
 11
13814.50248231425
 21
671.7250777562631
 31
0.0
  0
LINE
  5
25EFB
330
1F135
100
AcDbEntity
  8
寸法
 62
     0
 48
50.0
370
    -2
100
AcDbLine
 10
13989.50248231424
 20
671.7250777562631
 30
0.0
 11
15380.16813915016
 21
671.7250777562631
 31
0.0
  0
LINE
  5
25EFC
330
1F135
100
AcDbEntity
  8
寸法
 62
     0
 48
50.0
370
    -2
100
AcDbLine
 10
13939.50248231425
 20
671.7250777562631
 30
0.0
 11
13989.50248231424
 21
671.7250777562631
 31
0.0
  0
INSERT
  5
25EFD
330
1F135
100
AcDbEntity
  8
寸法
 62
     0
 48
50.0
370
    -2
100
AcDbBlockReference
  2
_DOTSMALL
 10
13939.50248231425
 20
671.7250777562631
 30
0.0
 41
125.0
 42
125.0
 43
125.0
  0
INSERT
  5
25EFE
330
1F135
100
AcDbEntity
  8
寸法
 62
     0
 48
50.0
370
    -2
100
AcDbBlockReference
  2
_DOTSMALL
 10
13989.50248231424
 20
671.7250777562631
 30
0.0
 41
125.0
 42
125.0
 43
125.0
 50
180.0
  0
MTEXT
  5
25EFF
330
1F135
100
AcDbEntity
  8
寸法
 62
     7
 48
50.0
100
AcDbMText
 10
14811.35908403205
 20
771.7398415357906
 30
0.0
 40
150.0
 41
0.0
 71
     5
 72
     1
  1
\A1;基礎面ヨリ20
  7
STYLE1
 73
     1
 44
1.0
1001
ACAD
1000
MTEXTBEGIN
1070
    73
1070
     1
1070
    44
1040
1.0
1070
    74
1070
     0
1000
MTEXTEND
  0
POINT
  5
25F00
330
1F135
100
AcDbEntity
  8
DEFPOINTS
 62
     0
 48
50.0
100
AcDbPoint
 10
13989.50248231424
 20
1375.833239281674
 30
0.0
  0
POINT
  5
25F01
330
1F135
100
AcDbEntity
  8
DEFPOINTS
 62
     0
 48
50.0
100
AcDbPoint
 10
13939.50248231425
 20
1375.833239281674
 30
0.0
  0
POINT
  5
25F02
330
1F135
100
AcDbEntity
  8
DEFPOINTS
 62
     0
 48
50.0
100
AcDbPoint
 10
13939.50248231425
 20
671.7250777562631
 30
0.0
  0
ENDBLK
  5
1F141
330
1F135
100
AcDbEntity
  8
0
 48
50.0
100
AcDbBlockEnd
  0
BLOCK
  5
1F14D
330
1F142
100
AcDbEntity
  8
0
 48
50.0
100
AcDbBlockBegin
  2
*D10
 70
     1
 10
0.0
 20
0.0
 30
0.0
  3
*D10
  1

  0
LINE
  5
25E73
330
1F142
100
AcDbEntity
  8
寸法
 62
     0
 48
50.0
370
    -2
100
AcDbLine
 10
2322.563031661561
 20
2687.836257816047
 30
0.0
 11
2606.064010982187
 21
2687.836257816047
 31
0.0
  0
LINE
  5
25E74
330
1F142
100
AcDbEntity
  8
寸法
 62
     0
 48
50.0
370
    -2
100
AcDbLine
 10
2362.56303166156
 20
2437.836257816047
 30
0.0
 11
2606.064010982187
 21
2437.836257816047
 31
0.0
  0
LINE
  5
25E75
330
1F142
100
AcDbEntity
  8
寸法
 62
     0
 48
50.0
370
    -2
100
AcDbLine
 10
2571.064010982187
 20
2437.836257816047
 30
0.0
 11
2571.064010982187
 21
2687.836257816047
 31
0.0
  0
LINE
  5
25E76
330
1F142
100
AcDbEntity
  8
寸法
 62
     0
 48
50.0
370
    -2
100
AcDbLine
 10
2571.064010982187
 20
2687.836257816047
 30
0.0
 11
2571.064010982187
 21
3492.954368052268
 31
0.0
  0
INSERT
  5
25E77
330
1F142
100
AcDbEntity
  8
寸法
 62
     0
 48
50.0
370
    -2
100
AcDbBlockReference
  2
_DOTSMALL
 10
2571.064010982187
 20
2437.836257816047
 30
0.0
 41
125.0
 42
125.0
 43
125.0
 50
270.0
  0
INSERT
  5
25E78
330
1F142
100
AcDbEntity
  8
寸法
 62
     0
 48
50.0
370
    -2
100
AcDbBlockReference
  2
_DOTSMALL
 10
2571.064010982187
 20
2687.836257816047
 30
0.0
 41
125.0
 42
125.0
 43
125.0
 50
90.0
  0
MTEXT
  5
25E79
330
1F142
100
AcDbEntity
  8
寸法
 62
     7
 48
50.0
100
AcDbMText
 10
2471.064010982187
 20
3152.895312934158
 30
0.0
 40
150.0
 41
0.0
 71
     5
 72
     1
  1
\A1;50～180
  7
STYLE1
 11
0.0000000000000001
 21
1.0
 31
0.0
 73
     1
 44
1.0
1001
ACAD
1000
MTEXTBEGIN
1070
    73
1070
     1
1070
    44
1040
1.0
1070
    74
1070
     0
1000
MTEXTEND
  0
POINT
  5
25E7A
330
1F142
100
AcDbEntity
  8
DEFPOINTS
 62
     0
 48
50.0
100
AcDbPoint
 10
2297.56303166156
 20
2687.836257816047
 30
0.0
  0
POINT
  5
25E7B
330
1F142
100
AcDbEntity
  8
DEFPOINTS
 62
     0
 48
50.0
100
AcDbPoint
 10
2337.56303166156
 20
2437.836257816047
 30
0.0
  0
POINT
  5
25E7C
330
1F142
100
AcDbEntity
  8
DEFPOINTS
 62
     0
 48
50.0
100
AcDbPoint
 10
2571.064010982187
 20
2437.836257816047
 30
0.0
  0
ENDBLK
  5
1F14E
330
1F142
100
AcDbEntity
  8
0
 48
50.0
100
AcDbBlockEnd
  0
BLOCK
  5
1F159
330
1F14F
100
AcDbEntity
  8
0
 48
50.0
100
AcDbBlockBegin
  2
*D11
 70
     1
 10
0.0
 20
0.0
 30
0.0
  3
*D11
  1

  0
LINE
  5
25E61
330
1F14F
100
AcDbEntity
  8
寸法
 62
     0
 48
50.0
370
    -2
100
AcDbLine
 10
1972.56303166156
 20
2687.836257816047
 30
0.0
 11
729.0692048150857
 21
2687.836257816047
 31
0.0
  0
LINE
  5
25E62
330
1F14F
100
AcDbEntity
  8
寸法
 62
     0
 48
50.0
370
    -2
100
AcDbLine
 10
1622.56303166156
 20
1337.836257816047
 30
0.0
 11
729.0692048150853
 21
1337.836257816047
 31
0.0
  0
LINE
  5
25E63
330
1F14F
100
AcDbEntity
  8
寸法
 62
     0
 48
50.0
370
    -2
100
AcDbLine
 10
764.0692048150856
 20
2687.836257816047
 30
0.0
 11
764.0692048150854
 21
1337.836257816047
 31
0.0
  0
INSERT
  5
25E64
330
1F14F
100
AcDbEntity
  8
寸法
 62
     0
 48
50.0
370
    -2
100
AcDbBlockReference
  2
_DOTSMALL
 10
764.0692048150856
 20
2687.836257816047
 30
0.0
 41
125.0
 42
125.0
 43
125.0
 50
90.0
  0
INSERT
  5
25E65
330
1F14F
100
AcDbEntity
  8
寸法
 62
     0
 48
50.0
370
    -2
100
AcDbBlockReference
  2
_DOTSMALL
 10
764.0692048150854
 20
1337.836257816047
 30
0.0
 41
125.0
 42
125.0
 43
125.0
 50
270.0
  0
MTEXT
  5
25E66
330
1F14F
100
AcDbEntity
  8
寸法
 62
     7
 48
50.0
100
AcDbMText
 10
664.0692048150851
 20
2012.836257816047
 30
0.0
 40
150.0
 41
0.0
 71
     5
 72
     1
  1
\A1;540
  7
STYLE1
 11
0.0000000000000001
 21
1.0
 31
0.0
 73
     1
 44
1.0
1001
ACAD
1000
MTEXTBEGIN
1070
    73
1070
     1
1070
    44
1040
1.0
1070
    74
1070
     0
1000
MTEXTEND
  0
POINT
  5
25E67
330
1F14F
100
AcDbEntity
  8
DEFPOINTS
 62
     0
 48
50.0
100
AcDbPoint
 10
1997.56303166156
 20
2687.836257816047
 30
0.0
  0
POINT
  5
25E68
330
1F14F
100
AcDbEntity
  8
DEFPOINTS
 62
     0
 48
50.0
100
AcDbPoint
 10
1647.56303166156
 20
1337.836257816047
 30
0.0
  0
POINT
  5
25E69
330
1F14F
100
AcDbEntity
  8
DEFPOINTS
 62
     0
 48
50.0
100
AcDbPoint
 10
764.0692048150854
 20
1337.836257816047
 30
0.0
  0
ENDBLK
  5
1F15A
330
1F14F
100
AcDbEntity
  8
0
 48
50.0
100
AcDbBlockEnd
  0
BLOCK
  5
1F165
330
1F15B
100
AcDbEntity
  8
0
 48
50.0
100
AcDbBlockBegin
  2
*D12
 70
     1
 10
0.0
 20
0.0
 30
0.0
  3
*D12
  1

  0
LINE
  5
25E7D
330
1F15B
100
AcDbEntity
  8
寸法
 62
     0
 48
50.0
370
    -2
100
AcDbLine
 10
1772.563031661561
 20
1112.836257816045
 30
0.0
 11
1772.563031661561
 21
828.2127083130912
 31
0.0
  0
LINE
  5
25E7E
330
1F15B
100
AcDbEntity
  8
寸法
 62
     0
 48
50.0
370
    -2
100
AcDbLine
 10
2522.56303166156
 20
1112.836257816046
 30
0.0
 11
2522.56303166156
 21
828.2127083130912
 31
0.0
  0
LINE
  5
25E7F
330
1F15B
100
AcDbEntity
  8
寸法
 62
     0
 48
50.0
370
    -2
100
AcDbLine
 10
1772.563031661561
 20
863.2127083130912
 30
0.0
 11
2522.56303166156
 21
863.2127083130912
 31
0.0
  0
INSERT
  5
25E80
330
1F15B
100
AcDbEntity
  8
寸法
 62
     0
 48
50.0
370
    -2
100
AcDbBlockReference
  2
_DOTSMALL
 10
1772.563031661561
 20
863.2127083130912
 30
0.0
 41
125.0
 42
125.0
 43
125.0
 50
180.0
  0
INSERT
  5
25E81
330
1F15B
100
AcDbEntity
  8
寸法
 62
     0
 48
50.0
370
    -2
100
AcDbBlockReference
  2
_DOTSMALL
 10
2522.56303166156
 20
863.2127083130912
 30
0.0
 41
125.0
 42
125.0
 43
125.0
  0
MTEXT
  5
25E82
330
1F15B
100
AcDbEntity
  8
寸法
 62
     7
 48
50.0
100
AcDbMText
 10
2147.563031661561
 20
963.2127083130912
 30
0.0
 40
150.0
 41
0.0
 71
     5
 72
     1
  1
\A1;300
  7
STYLE1
 73
     1
 44
1.0
1001
ACAD
1000
MTEXTBEGIN
1070
    73
1070
     1
1070
    44
1040
1.0
1070
    74
1070
     0
1000
MTEXTEND
  0
POINT
  5
25E83
330
1F15B
100
AcDbEntity
  8
DEFPOINTS
 62
     0
 48
50.0
100
AcDbPoint
 10
1772.563031661561
 20
1137.836257816045
 30
0.0
  0
POINT
  5
25E84
330
1F15B
100
AcDbEntity
  8
DEFPOINTS
 62
     0
 48
50.0
100
AcDbPoint
 10
2522.56303166156
 20
1137.836257816046
 30
0.0
  0
POINT
  5
25E85
330
1F15B
100
AcDbEntity
  8
DEFPOINTS
 62
     0
 48
50.0
100
AcDbPoint
 10
2522.56303166156
 20
863.2127083130912
 30
0.0
  0
ENDBLK
  5
1F166
330
1F15B
100
AcDbEntity
  8
0
 48
50.0
100
AcDbBlockEnd
  0
BLOCK
  5
1F17D
330
1F173
100
AcDbEntity
  8
0
 48
50.0
100
AcDbBlockBegin
  2
*D13
 70
     1
 10
0.0
 20
0.0
 30
0.0
  3
*D13
  1

  0
LINE
  5
25E6A
330
1F173
100
AcDbEntity
  8
寸法
 62
     0
 48
50.0
370
    -2
100
AcDbLine
 10
2297.56303166156
 20
2712.836257816047
 30
0.0
 11
2297.56303166156
 21
3122.656996658629
 31
0.0
  0
LINE
  5
25E6B
330
1F173
100
AcDbEntity
  8
寸法
 62
     0
 48
50.0
370
    -2
100
AcDbLine
 10
1997.56303166156
 20
2712.836257816047
 30
0.0
 11
1997.56303166156
 21
3122.656996658629
 31
0.0
  0
LINE
  5
25E6C
330
1F173
100
AcDbEntity
  8
寸法
 62
     0
 48
50.0
370
    -2
100
AcDbLine
 10
2297.56303166156
 20
3087.656996658628
 30
0.0
 11
1997.56303166156
 21
3087.656996658628
 31
0.0
  0
INSERT
  5
25E6D
330
1F173
100
AcDbEntity
  8
寸法
 62
     0
 48
50.0
370
    -2
100
AcDbBlockReference
  2
_DOTSMALL
 10
2297.56303166156
 20
3087.656996658628
 30
0.0
 41
125.0
 42
125.0
 43
125.0
  0
INSERT
  5
25E6E
330
1F173
100
AcDbEntity
  8
寸法
 62
     0
 48
50.0
370
    -2
100
AcDbBlockReference
  2
_DOTSMALL
 10
1997.56303166156
 20
3087.656996658628
 30
0.0
 41
125.0
 42
125.0
 43
125.0
 50
180.0
  0
MTEXT
  5
25E6F
330
1F173
100
AcDbEntity
  8
寸法
 62
     7
 48
50.0
100
AcDbMText
 10
2147.56303166156
 20
3187.671760438156
 30
0.0
 40
150.0
 41
0.0
 71
     5
 72
     1
  1
\A1;120
  7
STYLE1
 73
     1
 44
1.0
1001
ACAD
1000
MTEXTBEGIN
1070
    73
1070
     1
1070
    44
1040
1.0
1070
    74
1070
     0
1000
MTEXTEND
  0
POINT
  5
25E70
330
1F173
100
AcDbEntity
  8
DEFPOINTS
 62
     0
 48
50.0
100
AcDbPoint
 10
2297.56303166156
 20
2687.836257816047
 30
0.0
  0
POINT
  5
25E71
330
1F173
100
AcDbEntity
  8
DEFPOINTS
 62
     0
 48
50.0
100
AcDbPoint
 10
1997.56303166156
 20
2687.836257816047
 30
0.0
  0
POINT
  5
25E72
330
1F173
100
AcDbEntity
  8
DEFPOINTS
 62
     0
 48
50.0
100
AcDbPoint
 10
1997.56303166156
 20
3087.656996658628
 30
0.0
  0
ENDBLK
  5
1F17E
330
1F173
100
AcDbEntity
  8
0
 48
50.0
100
AcDbBlockEnd
  0
BLOCK
  5
1F1BB
330
1F1B0
100
AcDbEntity
  8
0
 48
50.0
100
AcDbBlockBegin
  2
*D14
 70
     1
 10
0.0
 20
0.0
 30
0.0
  3
*D14
  1

  0
LINE
  5
25EED
330
1F1B0
100
AcDbEntity
  8
寸法
 62
     0
 48
50.0
370
    -2
100
AcDbLine
 10
10633.08719874705
 20
1508.470190317737
 30
0.0
 11
10633.08719874705
 21
728.8726854292685
 31
0.0
  0
LINE
  5
25EEE
330
1F1B0
100
AcDbEntity
  8
寸法
 62
     0
 48
50.0
370
    -2
100
AcDbLine
 10
10645.58719874706
 20
1339.720190317735
 30
0.0
 11
10645.58719874706
 21
728.8726854292685
 31
0.0
  0
LINE
  5
25EEF
330
1F1B0
100
AcDbEntity
  8
寸法
 62
     0
 48
50.0
370
    -2
100
AcDbLine
 10
10633.08719874705
 20
763.8726854292685
 30
0.0
 11
10508.08719874705
 21
763.8726854292685
 31
0.0
  0
LINE
  5
25EF0
330
1F1B0
100
AcDbEntity
  8
寸法
 62
     0
 48
50.0
370
    -2
100
AcDbLine
 10
10645.58719874706
 20
763.8726854292685
 30
0.0
 11
10770.58719874706
 21
763.8726854292685
 31
0.0
  0
MTEXT
  5
25EF1
330
1F1B0
100
AcDbEntity
  8
寸法
 62
     7
 48
50.0
100
AcDbMText
 10
10552.14911054411
 20
863.4648895107888
 30
0.0
 40
150.0
 41
0.0
 71
     5
 72
     1
  1
\A1;5
  7
STYLE1
 73
     1
 44
1.0
1001
ACAD
1000
MTEXTBEGIN
1070
    73
1070
     1
1070
    44
1040
1.0
1070
    74
1070
     0
1000
MTEXTEND
  0
LINE
  5
25EF2
330
1F1B0
100
AcDbEntity
  8
寸法
 62
     0
 48
50.0
370
    -2
100
AcDbLine
 10
10633.08719874705
 20
763.8726854292685
 30
0.0
 11
10645.58719874706
 21
763.8726854292685
 31
0.0
  0
INSERT
  5
25EF3
330
1F1B0
100
AcDbEntity
  8
寸法
 62
     0
 48
50.0
370
    -2
100
AcDbBlockReference
  2
_DOTSMALL
 10
10633.08719874705
 20
763.8726854292685
 30
0.0
 41
125.0
 42
125.0
 43
125.0
  0
INSERT
  5
25EF4
330
1F1B0
100
AcDbEntity
  8
寸法
 62
     0
 48
50.0
370
    -2
100
AcDbBlockReference
  2
_DOTSMALL
 10
10645.58719874706
 20
763.8726854292685
 30
0.0
 41
125.0
 42
125.0
 43
125.0
 50
180.0
  0
POINT
  5
25EF5
330
1F1B0
100
AcDbEntity
  8
DEFPOINTS
 62
     0
 48
50.0
100
AcDbPoint
 10
10633.08719874705
 20
1533.470190317737
 30
0.0
  0
POINT
  5
25EF6
330
1F1B0
100
AcDbEntity
  8
DEFPOINTS
 62
     0
 48
50.0
100
AcDbPoint
 10
10645.58719874706
 20
1364.720190317735
 30
0.0
  0
POINT
  5
25EF7
330
1F1B0
100
AcDbEntity
  8
DEFPOINTS
 62
     0
 48
50.0
100
AcDbPoint
 10
10645.58719874706
 20
763.8726854292685
 30
0.0
  0
ENDBLK
  5
1F1BC
330
1F1B0
100
AcDbEntity
  8
0
 48
50.0
100
AcDbBlockEnd
  0
BLOCK
  5
1F1F8
330
1F1ED
100
AcDbEntity
  8
0
 48
50.0
100
AcDbBlockBegin
  2
*D15
 70
     1
 10
0.0
 20
0.0
 30
0.0
  3
*D15
  1

  0
LINE
  5
25E57
330
1F1ED
100
AcDbEntity
  8
寸法
 62
     0
 48
50.0
370
    -2
100
AcDbLine
 10
10633.08719874705
 20
1889.720190317735
 30
0.0
 11
10633.08719874705
 21
1973.785736691844
 31
0.0
  0
LINE
  5
25E58
330
1F1ED
100
AcDbEntity
  8
寸法
 62
     0
 48
50.0
370
    -2
100
AcDbLine
 10
10883.08719874705
 20
1608.470190317738
 30
0.0
 11
10883.08719874705
 21
1973.785736691844
 31
0.0
  0
LINE
  5
25E59
330
1F1ED
100
AcDbEntity
  8
寸法
 62
     0
 48
50.0
370
    -2
100
AcDbLine
 10
10883.08719874705
 20
1938.785736691844
 30
0.0
 11
10633.08719874705
 21
1938.785736691844
 31
0.0
  0
LINE
  5
25E5A
330
1F1ED
100
AcDbEntity
  8
寸法
 62
     0
 48
50.0
370
    -2
100
AcDbLine
 10
10633.08719874705
 20
1938.785736691844
 30
0.0
 11
10158.02814362894
 21
1938.785736691844
 31
0.0
  0
INSERT
  5
25E5B
330
1F1ED
100
AcDbEntity
  8
寸法
 62
     0
 48
50.0
370
    -2
100
AcDbBlockReference
  2
_DOTSMALL
 10
10883.08719874705
 20
1938.785736691844
 30
0.0
 41
125.0
 42
125.0
 43
125.0
  0
INSERT
  5
25E5C
330
1F1ED
100
AcDbEntity
  8
寸法
 62
     0
 48
50.0
370
    -2
100
AcDbBlockReference
  2
_DOTSMALL
 10
10633.08719874705
 20
1938.785736691844
 30
0.0
 41
125.0
 42
125.0
 43
125.0
 50
180.0
  0
MTEXT
  5
25E5D
330
1F1ED
100
AcDbEntity
  8
寸法
 62
     7
 48
50.0
100
AcDbMText
 10
10303.08719874705
 20
2038.785736691844
 30
0.0
 40
150.0
 41
0.0
 71
     5
 72
     1
  1
\A1;100
  7
STYLE1
 73
     1
 44
1.0
1001
ACAD
1000
MTEXTBEGIN
1070
    73
1070
     1
1070
    44
1040
1.0
1070
    74
1070
     0
1000
MTEXTEND
  0
POINT
  5
25E5E
330
1F1ED
100
AcDbEntity
  8
DEFPOINTS
 62
     0
 48
50.0
100
AcDbPoint
 10
10633.08719874705
 20
1864.720190317735
 30
0.0
  0
POINT
  5
25E5F
330
1F1ED
100
AcDbEntity
  8
DEFPOINTS
 62
     0
 48
50.0
100
AcDbPoint
 10
10883.08719874705
 20
1583.470190317738
 30
0.0
  0
POINT
  5
25E60
330
1F1ED
100
AcDbEntity
  8
DEFPOINTS
 62
     0
 48
50.0
100
AcDbPoint
 10
10883.08719874705
 20
1938.785736691844
 30
0.0
  0
ENDBLK
  5
1F1F9
330
1F1ED
100
AcDbEntity
  8
0
 48
50.0
100
AcDbBlockEnd
  0
BLOCK
  5
22003
330
21FF9
100
AcDbEntity
  8
0
 48
50.0
100
AcDbBlockBegin
  2
*D16
 70
     1
 10
0.0
 20
0.0
 30
0.0
  3
*D16
  1

  0
LINE
  5
25EC6
330
21FF9
100
AcDbEntity
  8
寸法
 62
     0
 48
50.0
370
    -2
100
AcDbLine
 10
10251.83719874706
 20
989.7201903177379
 30
0.0
 11
9646.277569926709
 21
989.720190317738
 31
0.0
  0
LINE
  5
25EC7
330
21FF9
100
AcDbEntity
  8
寸法
 62
     0
 48
50.0
370
    -2
100
AcDbLine
 10
10251.83719874706
 20
1864.720190317736
 30
0.0
 11
9646.277569926709
 21
1864.720190317736
 31
0.0
  0
LINE
  5
25EC8
330
21FF9
100
AcDbEntity
  8
寸法
 62
     0
 48
50.0
370
    -2
100
AcDbLine
 10
9681.277569926708
 20
989.720190317738
 30
0.0
 11
9681.277569926708
 21
1864.720190317736
 31
0.0
  0
INSERT
  5
25EC9
330
21FF9
100
AcDbEntity
  8
寸法
 62
     0
 48
50.0
370
    -2
100
AcDbBlockReference
  2
_DOTSMALL
 10
9681.277569926708
 20
989.720190317738
 30
0.0
 41
125.0
 42
125.0
 43
125.0
 50
270.0
  0
INSERT
  5
25ECA
330
21FF9
100
AcDbEntity
  8
寸法
 62
     0
 48
50.0
370
    -2
100
AcDbBlockReference
  2
_DOTSMALL
 10
9681.277569926708
 20
1864.720190317736
 30
0.0
 41
125.0
 42
125.0
 43
125.0
 50
90.0
  0
MTEXT
  5
25ECB
330
21FF9
100
AcDbEntity
  8
寸法
 62
     7
 48
50.0
100
AcDbMText
 10
9581.277569926708
 20
1468.903319441269
 30
0.0
 40
150.0
 41
0.0
 71
     5
 72
     1
  1
\A1;\U+25A1350穴
  7
STYLE1
 11
0.0000000000000001
 21
1.0
 31
0.0
 73
     1
 44
1.0
1001
ACAD
1000
MTEXTBEGIN
1070
    73
1070
     1
1070
    44
1040
1.0
1070
    74
1070
     0
1000
MTEXTEND
  0
POINT
  5
25ECC
330
21FF9
100
AcDbEntity
  8
DEFPOINTS
 62
     0
 48
50.0
100
AcDbPoint
 10
10276.83719874706
 20
989.7201903177379
 30
0.0
  0
POINT
  5
25ECD
330
21FF9
100
AcDbEntity
  8
DEFPOINTS
 62
     0
 48
50.0
100
AcDbPoint
 10
10276.83719874706
 20
1864.720190317736
 30
0.0
  0
POINT
  5
25ECE
330
21FF9
100
AcDbEntity
  8
DEFPOINTS
 62
     0
 48
50.0
100
AcDbPoint
 10
9681.277569926708
 20
1864.720190317736
 30
0.0
  0
ENDBLK
  5
22004
330
21FF9
100
AcDbEntity
  8
0
 48
50.0
100
AcDbBlockEnd
  0
BLOCK
  5
222B5
330
222AA
100
AcDbEntity
  8
0
 48
50.0
100
AcDbBlockBegin
  2
*D17
 70
     1
 10
0.0
 20
0.0
 30
0.0
  3
*D17
  1

  0
LINE
  5
25E43
330
222AA
100
AcDbEntity
  8
寸法
 62
     0
 48
50.0
370
    -2
100
AcDbLine
 10
10628.52032787058
 20
1495.970190317736
 30
0.0
 11
10123.41084097573
 21
1495.970190317736
 31
0.0
  0
LINE
  5
25E44
330
222AA
100
AcDbEntity
  8
寸法
 62
     0
 48
50.0
370
    -2
100
AcDbLine
 10
10626.83719874706
 20
1358.470190317736
 30
0.0
 11
10123.41084097573
 21
1358.470190317736
 31
0.0
  0
LINE
  5
25E45
330
222AA
100
AcDbEntity
  8
寸法
 62
     0
 48
50.0
370
    -2
100
AcDbLine
 10
10158.41084097573
 20
1495.970190317736
 30
0.0
 11
10158.41084097573
 21
1358.470190317736
 31
0.0
  0
MTEXT
  5
25E46
330
222AA
100
AcDbEntity
  8
寸法
 62
     7
 48
50.0
100
AcDbMText
 10
10058.37957421122
 20
1370.970190317736
 30
0.0
 40
150.0
 41
0.0
 71
     5
 72
     1
  1
\A1;55
  7
STYLE1
 11
0.0000000000000001
 21
1.0
 31
0.0
 73
     1
 44
1.0
1001
ACAD
1000
MTEXTBEGIN
1070
    73
1070
     1
1070
    44
1040
1.0
1070
    74
1070
     0
1000
MTEXTEND
  0
INSERT
  5
25E47
330
222AA
100
AcDbEntity
  8
寸法
 62
     0
 48
50.0
370
    -2
100
AcDbBlockReference
  2
_DOTSMALL
 10
10158.41084097573
 20
1495.970190317736
 30
0.0
 41
125.0
 42
125.0
 43
125.0
 50
90.0
  0
INSERT
  5
25E48
330
222AA
100
AcDbEntity
  8
寸法
 62
     0
 48
50.0
370
    -2
100
AcDbBlockReference
  2
_DOTSMALL
 10
10158.41084097573
 20
1358.470190317736
 30
0.0
 41
125.0
 42
125.0
 43
125.0
 50
270.0
  0
POINT
  5
25E49
330
222AA
100
AcDbEntity
  8
DEFPOINTS
 62
     0
 48
50.0
100
AcDbPoint
 10
10653.52032787058
 20
1495.970190317736
 30
0.0
  0
POINT
  5
25E4A
330
222AA
100
AcDbEntity
  8
DEFPOINTS
 62
     0
 48
50.0
100
AcDbPoint
 10
10651.83719874706
 20
1358.470190317736
 30
0.0
  0
POINT
  5
25E4B
330
222AA
100
AcDbEntity
  8
DEFPOINTS
 62
     0
 48
50.0
100
AcDbPoint
 10
10158.41084097573
 20
1358.470190317736
 30
0.0
  0
ENDBLK
  5
222B6
330
222AA
100
AcDbEntity
  8
0
 48
50.0
100
AcDbBlockEnd
  0
BLOCK
  5
225DD
330
225D3
100
AcDbEntity
  8
0
 48
50.0
100
AcDbBlockBegin
  2
*D18
 70
     1
 10
0.0
 20
0.0
 30
0.0
  3
*D18
  1

  0
LINE
  5
25E86
330
225D3
100
AcDbEntity
  8
寸法
 62
     0
 48
50.0
370
    -2
100
AcDbLine
 10
2672.563031661561
 20
1337.836257816047
 30
0.0
 11
3146.3010747587
 21
1337.836257816047
 31
0.0
  0
LINE
  5
25E87
330
225D3
100
AcDbEntity
  8
寸法
 62
     0
 48
50.0
370
    -2
100
AcDbLine
 10
2547.563031661561
 20
1712.836257816047
 30
0.0
 11
3146.3010747587
 21
1712.836257816046
 31
0.0
  0
LINE
  5
25E88
330
225D3
100
AcDbEntity
  8
寸法
 62
     0
 48
50.0
370
    -2
100
AcDbLine
 10
3111.3010747587
 20
1337.836257816047
 30
0.0
 11
3111.3010747587
 21
1712.836257816046
 31
0.0
  0
INSERT
  5
25E89
330
225D3
100
AcDbEntity
  8
寸法
 62
     0
 48
50.0
370
    -2
100
AcDbBlockReference
  2
_DOTSMALL
 10
3111.3010747587
 20
1337.836257816047
 30
0.0
 41
125.0
 42
125.0
 43
125.0
 50
270.0
  0
INSERT
  5
25E8A
330
225D3
100
AcDbEntity
  8
寸法
 62
     0
 48
50.0
370
    -2
100
AcDbBlockReference
  2
_DOTSMALL
 10
3111.3010747587
 20
1712.836257816046
 30
0.0
 41
125.0
 42
125.0
 43
125.0
 50
90.0
  0
MTEXT
  5
25E8B
330
225D3
100
AcDbEntity
  8
寸法
 62
     7
 48
50.0
100
AcDbMText
 10
3011.301074758699
 20
1525.336257816047
 30
0.0
 40
150.0
 41
0.0
 71
     5
 72
     1
  1
\A1;150
  7
STYLE1
 11
0.0000000000000001
 21
1.0
 31
0.0
 73
     1
 44
1.0
1001
ACAD
1000
MTEXTBEGIN
1070
    73
1070
     1
1070
    44
1040
1.0
1070
    74
1070
     0
1000
MTEXTEND
  0
POINT
  5
25E8C
330
225D3
100
AcDbEntity
  8
DEFPOINTS
 62
     0
 48
50.0
100
AcDbPoint
 10
2647.56303166156
 20
1337.836257816047
 30
0.0
  0
POINT
  5
25E8D
330
225D3
100
AcDbEntity
  8
DEFPOINTS
 62
     0
 48
50.0
100
AcDbPoint
 10
2522.56303166156
 20
1712.836257816047
 30
0.0
  0
POINT
  5
25E8E
330
225D3
100
AcDbEntity
  8
DEFPOINTS
 62
     0
 48
50.0
100
AcDbPoint
 10
3111.3010747587
 20
1712.836257816046
 30
0.0
  0
ENDBLK
  5
225DE
330
225D3
100
AcDbEntity
  8
0
 48
50.0
100
AcDbBlockEnd
  0
BLOCK
  5
228BB
330
228B7
100
AcDbEntity
  8
0
 48
50.0
100
AcDbBlockBegin
  2
_Open
 70
     0
 10
0.0
 20
0.0
 30
0.0
  3
_Open
  1

  0
LINE
  5
228B8
330
228B7
100
AcDbEntity
  8
0
  6
ByBlock
 62
     0
370
    -2
100
AcDbLine
 10
-1.0
 20
0.1666666666666666
 30
0.0
 11
0.0
 21
0.0
 31
0.0
  0
LINE
  5
228B9
330
228B7
100
AcDbEntity
  8
0
  6
ByBlock
 62
     0
370
    -2
100
AcDbLine
 10
-1.0
 20
-0.1666666666666666
 30
0.0
 11
0.0
 21
0.0
 31
0.0
  0
LINE
  5
228BA
330
228B7
100
AcDbEntity
  8
0
  6
ByBlock
 62
     0
370
    -2
100
AcDbLine
 10
0.0
 20
0.0
 30
0.0
 11
-1.0
 21
0.0
 31
0.0
  0
ENDBLK
  5
228BC
330
228B7
100
AcDbEntity
  8
0
 48
50.0
100
AcDbBlockEnd
  0
BLOCK
  5
22F41
330
22F35
100
AcDbEntity
  8
0
 48
50.0
100
AcDbBlockBegin
  2
*D20
 70
     1
 10
0.0
 20
0.0
 30
0.0
  3
*D20
  1

  0
LINE
  5
25E4C
330
22F35
100
AcDbEntity
  8
寸法
 62
     0
 48
50.0
370
    -2
100
AcDbLine
 10
10628.52032787058
 20
1495.970190317736
 30
0.0
 11
10123.37957421122
 21
1495.970190317736
 31
0.0
  0
LINE
  5
25E4D
330
22F35
100
AcDbEntity
  8
寸法
 62
     0
 48
50.0
370
    -2
100
AcDbLine
 10
10608.08719874705
 20
1533.470190317737
 30
0.0
 11
10123.37957421122
 21
1533.470190317737
 31
0.0
  0
LINE
  5
25E4E
330
22F35
100
AcDbEntity
  8
寸法
 62
     0
 48
50.0
370
    -2
100
AcDbLine
 10
10158.37957421122
 20
1495.970190317736
 30
0.0
 11
10158.37957421122
 21
1370.970190317736
 31
0.0
  0
LINE
  5
25E4F
330
22F35
100
AcDbEntity
  8
寸法
 62
     0
 48
50.0
370
    -2
100
AcDbLine
 10
10158.37957421122
 20
1533.470190317737
 30
0.0
 11
10158.37957421122
 21
1658.470190317737
 31
0.0
  0
MTEXT
  5
25E50
330
22F35
100
AcDbEntity
  8
寸法
 62
     7
 48
50.0
100
AcDbMText
 10
10059.39767522289
 20
1627.317810013548
 30
0.0
 40
150.0
 41
0.0
 71
     5
 72
     1
  1
\A1;15
  7
STYLE1
 11
0.0000000000000001
 21
1.0
 31
0.0
 73
     1
 44
1.0
1001
ACAD
1000
MTEXTBEGIN
1070
    73
1070
     1
1070
    44
1040
1.0
1070
    74
1070
     0
1000
MTEXTEND
  0
LINE
  5
25E51
330
22F35
100
AcDbEntity
  8
寸法
 62
     0
 48
50.0
370
    -2
100
AcDbLine
 10
10158.37957421122
 20
1495.970190317736
 30
0.0
 11
10158.37957421122
 21
1533.470190317737
 31
0.0
  0
INSERT
  5
25E52
330
22F35
100
AcDbEntity
  8
寸法
 62
     0
 48
50.0
370
    -2
100
AcDbBlockReference
  2
_DOTSMALL
 10
10158.37957421122
 20
1495.970190317736
 30
0.0
 41
125.0
 42
125.0
 43
125.0
 50
90.0
  0
INSERT
  5
25E53
330
22F35
100
AcDbEntity
  8
寸法
 62
     0
 48
50.0
370
    -2
100
AcDbBlockReference
  2
_DOTSMALL
 10
10158.37957421122
 20
1533.470190317737
 30
0.0
 41
125.0
 42
125.0
 43
125.0
 50
270.0
  0
POINT
  5
25E54
330
22F35
100
AcDbEntity
  8
DEFPOINTS
 62
     0
 48
50.0
100
AcDbPoint
 10
10653.52032787058
 20
1495.970190317736
 30
0.0
  0
POINT
  5
25E55
330
22F35
100
AcDbEntity
  8
DEFPOINTS
 62
     0
 48
50.0
100
AcDbPoint
 10
10633.08719874705
 20
1533.470190317737
 30
0.0
  0
POINT
  5
25E56
330
22F35
100
AcDbEntity
  8
DEFPOINTS
 62
     0
 48
50.0
100
AcDbPoint
 10
10158.37957421122
 20
1533.470190317737
 30
0.0
  0
ENDBLK
  5
22F42
330
22F35
100
AcDbEntity
  8
0
 48
50.0
100
AcDbBlockEnd
  0
BLOCK
  5
22FB0
330
22FA4
100
AcDbEntity
  8
0
 48
50.0
100
AcDbBlockBegin
  2
*D21
 70
     1
 10
0.0
 20
0.0
 30
0.0
  3
*D21
  1

  0
LINE
  5
25F07
330
22FA4
100
AcDbEntity
  8
寸法
 62
     0
 48
50.0
370
    -2
100
AcDbLine
 10
10645.58719874706
 20
1339.720190317735
 30
0.0
 11
10645.58719874706
 21
728.8726854292685
 31
0.0
  0
LINE
  5
25F08
330
22FA4
100
AcDbEntity
  8
寸法
 62
     0
 48
50.0
370
    -2
100
AcDbLine
 10
10783.08719874706
 20
1339.720190317737
 30
0.0
 11
10783.08719874706
 21
728.8726854292685
 31
0.0
  0
LINE
  5
25F09
330
22FA4
100
AcDbEntity
  8
寸法
 62
     0
 48
50.0
370
    -2
100
AcDbLine
 10
10645.58719874706
 20
763.8726854292685
 30
0.0
 11
10783.08719874706
 21
763.8726854292685
 31
0.0
  0
LINE
  5
25F0A
330
22FA4
100
AcDbEntity
  8
寸法
 62
     0
 48
50.0
370
    -2
100
AcDbLine
 10
10783.08719874706
 20
763.8726854292685
 30
0.0
 11
11205.68198944123
 21
763.8726854292685
 31
0.0
  0
INSERT
  5
25F0B
330
22FA4
100
AcDbEntity
  8
寸法
 62
     0
 48
50.0
370
    -2
100
AcDbBlockReference
  2
_DOTSMALL
 10
10645.58719874706
 20
763.8726854292685
 30
0.0
 41
125.0
 42
125.0
 43
125.0
 50
180.0
  0
INSERT
  5
25F0C
330
22FA4
100
AcDbEntity
  8
寸法
 62
     0
 48
50.0
370
    -2
100
AcDbBlockReference
  2
_DOTSMALL
 10
10783.08719874706
 20
763.8726854292685
 30
0.0
 41
125.0
 42
125.0
 43
125.0
  0
MTEXT
  5
25F0D
330
22FA4
100
AcDbEntity
  8
寸法
 62
     7
 48
50.0
100
AcDbMText
 10
11095.07538772343
 20
863.8726854292686
 30
0.0
 40
150.0
 41
0.0
 71
     5
 72
     1
  1
\A1;55
  7
STYLE1
 73
     1
 44
1.0
1001
ACAD
1000
MTEXTBEGIN
1070
    73
1070
     1
1070
    44
1040
1.0
1070
    74
1070
     0
1000
MTEXTEND
  0
POINT
  5
25F0E
330
22FA4
100
AcDbEntity
  8
DEFPOINTS
 62
     0
 48
50.0
100
AcDbPoint
 10
10645.58719874706
 20
1364.720190317735
 30
0.0
  0
POINT
  5
25F0F
330
22FA4
100
AcDbEntity
  8
DEFPOINTS
 62
     0
 48
50.0
100
AcDbPoint
 10
10783.08719874706
 20
1364.720190317737
 30
0.0
  0
POINT
  5
25F10
330
22FA4
100
AcDbEntity
  8
DEFPOINTS
 62
     0
 48
50.0
100
AcDbPoint
 10
10783.08719874706
 20
763.8726854292685
 30
0.0
  0
ENDBLK
  5
22FB1
330
22FA4
100
AcDbEntity
  8
0
 48
50.0
100
AcDbBlockEnd
  0
BLOCK
  5
257D5
330
257CA
100
AcDbEntity
  8
0
 48
50.0
100
AcDbBlockBegin
  2
*D22
 70
     1
 10
0.0
 20
0.0
 30
0.0
  3
*D22
  1

  0
LINE
  5
26107
330
257CA
100
AcDbEntity
  8
寸法
 62
     0
 48
50.0
370
    -2
100
AcDbLine
 10
10772.85097834982
 20
10721.48319019589
 30
0.0
 11
10695.51577103377
 21
10721.48319019589
 31
0.0
  0
LINE
  5
26108
330
257CA
100
AcDbEntity
  8
寸法
 62
     0
 48
50.0
370
    -2
100
AcDbLine
 10
10772.85097834982
 20
10841.48319019589
 30
0.0
 11
10695.51577103377
 21
10841.48319019589
 31
0.0
  0
LINE
  5
26109
330
257CA
100
AcDbEntity
  8
寸法
 62
     0
 48
50.0
370
    -2
100
AcDbLine
 10
10770.51577103376
 20
10721.48319019589
 30
0.0
 11
10770.51577103376
 21
10841.48319019589
 31
0.0
  0
LINE
  5
2610A
330
257CA
100
AcDbEntity
  8
寸法
 62
     0
 48
50.0
370
    -2
100
AcDbLine
 10
10770.51577103376
 20
10841.48319019589
 30
0.0
 11
10770.51577103376
 21
11256.60130043211
 31
0.0
  0
INSERT
  5
2610B
330
257CA
100
AcDbEntity
  8
寸法
 62
     0
 48
50.0
370
    -2
100
AcDbBlockReference
  2
_DOTSMALL
 10
10770.51577103376
 20
10721.48319019589
 30
0.0
 41
125.0
 42
125.0
 43
125.0
 50
270.0
  0
INSERT
  5
2610C
330
257CA
100
AcDbEntity
  8
寸法
 62
     0
 48
50.0
370
    -2
100
AcDbBlockReference
  2
_DOTSMALL
 10
10770.51577103376
 20
10841.48319019589
 30
0.0
 41
125.0
 42
125.0
 43
125.0
 50
90.0
  0
MTEXT
  5
2610D
330
257CA
100
AcDbEntity
  8
寸法
 62
     7
 48
50.0
100
AcDbMText
 10
10670.50100725424
 20
11111.54224531401
 30
0.0
 40
150.0
 41
0.0
 71
     5
 72
     1
  1
\A1;120
  7
STYLE1
 11
0.0000000000000001
 21
1.0
 31
0.0
 73
     1
 44
1.0
1001
ACAD
1000
MTEXTBEGIN
1070
    73
1070
     1
1070
    44
1040
1.0
1070
    74
1070
     0
1000
MTEXTEND
  0
POINT
  5
2610E
330
257CA
100
AcDbEntity
  8
DEFPOINTS
 62
     0
 48
50.0
100
AcDbPoint
 10
10797.85097834982
 20
10721.48319019589
 30
0.0
  0
POINT
  5
2610F
330
257CA
100
AcDbEntity
  8
DEFPOINTS
 62
     0
 48
50.0
100
AcDbPoint
 10
10797.85097834982
 20
10841.48319019589
 30
0.0
  0
POINT
  5
26110
330
257CA
100
AcDbEntity
  8
DEFPOINTS
 62
     0
 48
50.0
100
AcDbPoint
 10
10770.51577103376
 20
10841.48319019589
 30
0.0
  0
ENDBLK
  5
257D6
330
257CA
100
AcDbEntity
  8
0
 48
50.0
100
AcDbBlockEnd
  0
BLOCK
  5
257E1
330
257D7
100
AcDbEntity
  8
0
 48
50.0
100
AcDbBlockBegin
  2
*D23
 70
     1
 10
0.0
 20
0.0
 30
0.0
  3
*D23
  1

  0
LINE
  5
260AD
330
257D7
100
AcDbEntity
  8
寸法
 62
     0
 48
50.0
370
    -2
100
AcDbLine
 10
8768.094567970839
 20
7419.772653341041
 30
0.0
 11
9152.286002375745
 21
7074.508104360422
 31
0.0
  0
LINE
  5
260AE
330
257D7
100
AcDbEntity
  8
寸法
 62
     0
 48
50.0
370
    -2
100
AcDbLine
 10
11828.09456797084
 20
10824.77265334104
 30
0.0
 11
12212.28600237574
 21
10479.50810436042
 31
0.0
  0
LINE
  5
260AF
330
257D7
100
AcDbEntity
  8
寸法
 62
     0
 48
50.0
370
    -2
100
AcDbLine
 10
9096.502298463205
 20
7124.639714924995
 30
0.0
 11
12156.5022984632
 21
10529.63971492499
 31
0.0
  0
INSERT
  5
260B0
330
257D7
100
AcDbEntity
  8
寸法
 62
     0
 48
50.0
370
    -2
100
AcDbBlockReference
  2
_DOTSMALL
 10
9096.502298463205
 20
7124.639714924995
 30
0.0
 41
125.0
 42
125.0
 43
125.0
 50
228.054649975677
  0
INSERT
  5
260B1
330
257D7
100
AcDbEntity
  8
寸法
 62
     0
 48
50.0
370
    -2
100
AcDbBlockReference
  2
_DOTSMALL
 10
12156.5022984632
 20
10529.63971492499
 30
0.0
 41
125.0
 42
125.0
 43
125.0
 50
48.054649975677
  0
MTEXT
  5
260B2
330
257D7
100
AcDbEntity
  8
寸法
 62
     7
 48
50.0
100
AcDbMText
 10
10552.12402657981
 20
8893.981862344423
 30
0.0
 40
150.0
 41
0.0
 71
     5
 72
     1
  1
\A1;4577.9
  7
STYLE1
 11
0.6684214741943134
 21
0.7437827188338682
 31
0.0
 73
     1
 44
1.0
1001
ACAD
1000
MTEXTBEGIN
1070
    73
1070
     1
1070
    44
1040
1.0
1070
    74
1070
     0
1000
MTEXTEND
  0
POINT
  5
260B3
330
257D7
100
AcDbEntity
  8
DEFPOINTS
 62
     0
 48
50.0
100
AcDbPoint
 10
8749.499999999994
 20
7436.483190195899
 30
0.0
  0
POINT
  5
260B4
330
257D7
100
AcDbEntity
  8
DEFPOINTS
 62
     0
 48
50.0
100
AcDbPoint
 10
11809.49999999999
 20
10841.4831901959
 30
0.0
  0
POINT
  5
260B5
330
257D7
100
AcDbEntity
  8
DEFPOINTS
 62
     0
 48
50.0
100
AcDbPoint
 10
12156.5022984632
 20
10529.63971492499
 30
0.0
  0
ENDBLK
  5
257E2
330
257D7
100
AcDbEntity
  8
0
 48
50.0
100
AcDbBlockEnd
  0
BLOCK
  5
257ED
330
257E3
100
AcDbEntity
  8
0
 48
50.0
100
AcDbBlockBegin
  2
*D24
 70
     1
 10
0.0
 20
0.0
 30
0.0
  3
*D24
  1

  0
LINE
  5
260A4
330
257E3
100
AcDbEntity
  8
寸法
 62
     0
 48
50.0
370
    -2
100
AcDbLine
 10
8749.499999999995
 20
10866.4831901959
 30
0.0
 11
8749.499999999995
 21
11936.75904984403
 31
0.0
  0
LINE
  5
260A5
330
257E3
100
AcDbEntity
  8
寸法
 62
     0
 48
50.0
370
    -2
100
AcDbLine
 10
11809.49999999999
 20
10866.4831901959
 30
0.0
 11
11809.49999999999
 21
11936.75904984403
 31
0.0
  0
LINE
  5
260A6
330
257E3
100
AcDbEntity
  8
寸法
 62
     0
 48
50.0
370
    -2
100
AcDbLine
 10
8749.499999999995
 20
11861.75904984403
 30
0.0
 11
11809.49999999999
 21
11861.75904984403
 31
0.0
  0
INSERT
  5
260A7
330
257E3
100
AcDbEntity
  8
寸法
 62
     0
 48
50.0
370
    -2
100
AcDbBlockReference
  2
_DOTSMALL
 10
8749.499999999995
 20
11861.75904984403
 30
0.0
 41
125.0
 42
125.0
 43
125.0
 50
180.0
  0
INSERT
  5
260A8
330
257E3
100
AcDbEntity
  8
寸法
 62
     0
 48
50.0
370
    -2
100
AcDbBlockReference
  2
_DOTSMALL
 10
11809.49999999999
 20
11861.75904984403
 30
0.0
 41
125.0
 42
125.0
 43
125.0
  0
MTEXT
  5
260A9
330
257E3
100
AcDbEntity
  8
寸法
 62
     7
 48
50.0
100
AcDbMText
 10
10279.49999999999
 20
11961.75904984403
 30
0.0
 40
150.0
 41
0.0
 71
     5
 72
     1
  1
\A1;3060
  7
STYLE1
 73
     1
 44
1.0
1001
ACAD
1000
MTEXTBEGIN
1070
    73
1070
     1
1070
    44
1040
1.0
1070
    74
1070
     0
1000
MTEXTEND
  0
POINT
  5
260AA
330
257E3
100
AcDbEntity
  8
DEFPOINTS
 62
     0
 48
50.0
100
AcDbPoint
 10
8749.499999999995
 20
10841.4831901959
 30
0.0
  0
POINT
  5
260AB
330
257E3
100
AcDbEntity
  8
DEFPOINTS
 62
     0
 48
50.0
100
AcDbPoint
 10
11809.49999999999
 20
10841.4831901959
 30
0.0
  0
POINT
  5
260AC
330
257E3
100
AcDbEntity
  8
DEFPOINTS
 62
     0
 48
50.0
100
AcDbPoint
 10
11809.49999999999
 20
11861.75904984403
 30
0.0
  0
ENDBLK
  5
257EE
330
257E3
100
AcDbEntity
  8
0
 48
50.0
100
AcDbBlockEnd
  0
BLOCK
  5
257F9
330
257EF
100
AcDbEntity
  8
0
 48
50.0
100
AcDbBlockBegin
  2
*D25
 70
     1
 10
0.0
 20
0.0
 30
0.0
  3
*D25
  1

  0
LINE
  5
2609B
330
257EF
100
AcDbEntity
  8
寸法
 62
     0
 48
50.0
370
    -2
100
AcDbLine
 10
11734.49999999999
 20
10866.4831901959
 30
0.0
 11
11734.49999999999
 21
11636.59285010267
 31
0.0
  0
LINE
  5
2609C
330
257EF
100
AcDbEntity
  8
寸法
 62
     0
 48
50.0
370
    -2
100
AcDbLine
 10
8824.500000000181
 20
10866.4831901959
 30
0.0
 11
8824.500000000181
 21
11636.59285010267
 31
0.0
  0
LINE
  5
2609D
330
257EF
100
AcDbEntity
  8
寸法
 62
     0
 48
50.0
370
    -2
100
AcDbLine
 10
11734.49999999999
 20
11561.59285010267
 30
0.0
 11
8824.500000000181
 21
11561.59285010267
 31
0.0
  0
INSERT
  5
2609E
330
257EF
100
AcDbEntity
  8
寸法
 62
     0
 48
50.0
370
    -2
100
AcDbBlockReference
  2
_DOTSMALL
 10
11734.49999999999
 20
11561.59285010267
 30
0.0
 41
125.0
 42
125.0
 43
125.0
  0
INSERT
  5
2609F
330
257EF
100
AcDbEntity
  8
寸法
 62
     0
 48
50.0
370
    -2
100
AcDbBlockReference
  2
_DOTSMALL
 10
8824.500000000181
 20
11561.59285010267
 30
0.0
 41
125.0
 42
125.0
 43
125.0
 50
180.0
  0
MTEXT
  5
260A0
330
257EF
100
AcDbEntity
  8
寸法
 62
     7
 48
50.0
100
AcDbMText
 10
10279.50000000009
 20
11661.6076138822
 30
0.0
 40
150.0
 41
0.0
 71
     5
 72
     1
  1
\A1;2910
  7
STYLE1
 73
     1
 44
1.0
1001
ACAD
1000
MTEXTBEGIN
1070
    73
1070
     1
1070
    44
1040
1.0
1070
    74
1070
     0
1000
MTEXTEND
  0
POINT
  5
260A1
330
257EF
100
AcDbEntity
  8
DEFPOINTS
 62
     0
 48
50.0
100
AcDbPoint
 10
11734.49999999999
 20
10841.4831901959
 30
0.0
  0
POINT
  5
260A2
330
257EF
100
AcDbEntity
  8
DEFPOINTS
 62
     0
 48
50.0
100
AcDbPoint
 10
8824.500000000181
 20
10841.4831901959
 30
0.0
  0
POINT
  5
260A3
330
257EF
100
AcDbEntity
  8
DEFPOINTS
 62
     0
 48
50.0
100
AcDbPoint
 10
8824.500000000181
 20
11561.59285010267
 30
0.0
  0
ENDBLK
  5
257FA
330
257EF
100
AcDbEntity
  8
0
 48
50.0
100
AcDbBlockEnd
  0
BLOCK
  5
25805
330
257FB
100
AcDbEntity
  8
0
 48
50.0
100
AcDbBlockBegin
  2
*D26
 70
     1
 10
0.0
 20
0.0
 30
0.0
  3
*D26
  1

  0
LINE
  5
260D6
330
257FB
100
AcDbEntity
  8
寸法
 62
     0
 48
50.0
370
    -2
100
AcDbLine
 10
8724.499999999995
 20
10841.4831901959
 30
0.0
 11
7867.389251624229
 21
10841.4831901959
 31
0.0
  0
LINE
  5
260D7
330
257FB
100
AcDbEntity
  8
寸法
 62
     0
 48
50.0
370
    -2
100
AcDbLine
 10
8724.499999999999
 20
7436.483190195899
 30
0.0
 11
7867.389251624229
 21
7436.483190195899
 31
0.0
  0
LINE
  5
260D8
330
257FB
100
AcDbEntity
  8
寸法
 62
     0
 48
50.0
370
    -2
100
AcDbLine
 10
7942.389251624229
 20
10841.4831901959
 30
0.0
 11
7942.389251624229
 21
7436.483190195899
 31
0.0
  0
INSERT
  5
260D9
330
257FB
100
AcDbEntity
  8
寸法
 62
     0
 48
50.0
370
    -2
100
AcDbBlockReference
  2
_DOTSMALL
 10
7942.389251624229
 20
10841.4831901959
 30
0.0
 41
125.0
 42
125.0
 43
125.0
 50
90.0
  0
INSERT
  5
260DA
330
257FB
100
AcDbEntity
  8
寸法
 62
     0
 48
50.0
370
    -2
100
AcDbBlockReference
  2
_DOTSMALL
 10
7942.389251624229
 20
7436.483190195899
 30
0.0
 41
125.0
 42
125.0
 43
125.0
 50
270.0
  0
MTEXT
  5
260DB
330
257FB
100
AcDbEntity
  8
寸法
 62
     7
 48
50.0
100
AcDbMText
 10
7842.389251624227
 20
9138.983190195901
 30
0.0
 40
150.0
 41
0.0
 71
     5
 72
     1
  1
\A1;3405
  7
STYLE1
 11
0.0000000000000001
 21
1.0
 31
0.0
 73
     1
 44
1.0
1001
ACAD
1000
MTEXTBEGIN
1070
    73
1070
     1
1070
    44
1040
1.0
1070
    74
1070
     0
1000
MTEXTEND
  0
POINT
  5
260DC
330
257FB
100
AcDbEntity
  8
DEFPOINTS
 62
     0
 48
50.0
100
AcDbPoint
 10
8749.499999999995
 20
10841.4831901959
 30
0.0
  0
POINT
  5
260DD
330
257FB
100
AcDbEntity
  8
DEFPOINTS
 62
     0
 48
50.0
100
AcDbPoint
 10
8749.499999999999
 20
7436.483190195899
 30
0.0
  0
POINT
  5
260DE
330
257FB
100
AcDbEntity
  8
DEFPOINTS
 62
     0
 48
50.0
100
AcDbPoint
 10
7942.389251624229
 20
7436.483190195899
 30
0.0
  0
ENDBLK
  5
25806
330
257FB
100
AcDbEntity
  8
0
 48
50.0
100
AcDbBlockEnd
  0
BLOCK
  5
25811
330
25807
100
AcDbEntity
  8
0
 48
50.0
100
AcDbBlockBegin
  2
*D27
 70
     1
 10
0.0
 20
0.0
 30
0.0
  3
*D27
  1

  0
LINE
  5
260DF
330
25807
100
AcDbEntity
  8
寸法
 62
     0
 48
50.0
370
    -2
100
AcDbLine
 10
8724.499999999995
 20
7436.483190195899
 30
0.0
 11
7867.389251624229
 21
7436.483190195899
 31
0.0
  0
LINE
  5
260E0
330
25807
100
AcDbEntity
  8
寸法
 62
     0
 48
50.0
370
    -2
100
AcDbLine
 10
8679.499999999995
 20
7306.483190195901
 30
0.0
 11
7867.389251624229
 21
7306.483190195901
 31
0.0
  0
LINE
  5
260E1
330
25807
100
AcDbEntity
  8
寸法
 62
     0
 48
50.0
370
    -2
100
AcDbLine
 10
7942.389251624229
 20
7436.483190195899
 30
0.0
 11
7942.389251624229
 21
7306.483190195901
 31
0.0
  0
INSERT
  5
260E2
330
25807
100
AcDbEntity
  8
寸法
 62
     0
 48
50.0
370
    -2
100
AcDbBlockReference
  2
_DOTSMALL
 10
7942.389251624229
 20
7436.483190195899
 30
0.0
 41
125.0
 42
125.0
 43
125.0
 50
90.0
  0
INSERT
  5
260E3
330
25807
100
AcDbEntity
  8
寸法
 62
     0
 48
50.0
370
    -2
100
AcDbBlockReference
  2
_DOTSMALL
 10
7942.389251624229
 20
7306.483190195901
 30
0.0
 41
125.0
 42
125.0
 43
125.0
 50
270.0
  0
MTEXT
  5
260E4
330
25807
100
AcDbEntity
  8
寸法
 62
     7
 48
50.0
100
AcDbMText
 10
7842.389251624227
 20
7371.4831901959
 30
0.0
 40
150.0
 41
0.0
 71
     5
 72
     1
  1
\A1;b
  7
STYLE1
 11
0.0000000000000001
 21
1.0
 31
0.0
 73
     1
 44
1.0
1001
ACAD
1000
MTEXTBEGIN
1070
    73
1070
     1
1070
    44
1040
1.0
1070
    74
1070
     0
1000
MTEXTEND
  0
POINT
  5
260E5
330
25807
100
AcDbEntity
  8
DEFPOINTS
 62
     0
 48
50.0
100
AcDbPoint
 10
8749.499999999995
 20
7436.483190195899
 30
0.0
  0
POINT
  5
260E6
330
25807
100
AcDbEntity
  8
DEFPOINTS
 62
     0
 48
50.0
100
AcDbPoint
 10
8704.499999999994
 20
7306.483190195901
 30
0.0
  0
POINT
  5
260E7
330
25807
100
AcDbEntity
  8
DEFPOINTS
 62
     0
 48
50.0
100
AcDbPoint
 10
7942.389251624229
 20
7306.483190195901
 30
0.0
  0
ENDBLK
  5
25812
330
25807
100
AcDbEntity
  8
0
 48
50.0
100
AcDbBlockEnd
  0
BLOCK
  5
2581F
330
25813
100
AcDbEntity
  8
0
 48
50.0
100
AcDbBlockBegin
  2
*D28
 70
     1
 10
0.0
 20
0.0
 30
0.0
  3
*D28
  1

  0
LINE
  5
260CB
330
25813
100
AcDbEntity
  8
寸法
 62
     0
 48
50.0
370
    -2
100
AcDbLine
 10
8704.499999999994
 20
11719.0391668873
 30
0.0
 11
8704.499999999994
 21
11936.75904984403
 31
0.0
  0
LINE
  5
260CC
330
25813
100
AcDbEntity
  8
寸法
 62
     0
 48
50.0
370
    -2
100
AcDbLine
 10
8749.499999999995
 20
10866.4831901959
 30
0.0
 11
8749.499999999995
 21
11936.75904984403
 31
0.0
  0
LINE
  5
260CD
330
25813
100
AcDbEntity
  8
寸法
 62
     0
 48
50.0
370
    -2
100
AcDbLine
 10
8749.499999999995
 20
11861.75904984403
 30
0.0
 11
8874.499999999995
 21
11861.75904984403
 31
0.0
  0
LINE
  5
260CE
330
25813
100
AcDbEntity
  8
寸法
 62
     0
 48
50.0
370
    -2
100
AcDbLine
 10
8704.499999999994
 20
11861.75904984403
 30
0.0
 11
8339.063446993847
 21
11861.75904984403
 31
0.0
  0
LINE
  5
260CF
330
25813
100
AcDbEntity
  8
寸法
 62
     0
 48
50.0
370
    -2
100
AcDbLine
 10
8749.499999999995
 20
11861.75904984403
 30
0.0
 11
8704.499999999994
 21
11861.75904984403
 31
0.0
  0
INSERT
  5
260D0
330
25813
100
AcDbEntity
  8
寸法
 62
     0
 48
50.0
370
    -2
100
AcDbBlockReference
  2
_DOTSMALL
 10
8749.499999999995
 20
11861.75904984403
 30
0.0
 41
125.0
 42
125.0
 43
125.0
 50
180.0
  0
INSERT
  5
260D1
330
25813
100
AcDbEntity
  8
寸法
 62
     0
 48
50.0
370
    -2
100
AcDbBlockReference
  2
_DOTSMALL
 10
8704.499999999994
 20
11861.75904984403
 30
0.0
 41
125.0
 42
125.0
 43
125.0
  0
MTEXT
  5
260D2
330
25813
100
AcDbEntity
  8
寸法
 62
     7
 48
50.0
100
AcDbMText
 10
8396.781723496919
 20
11961.75904984403
 30
0.0
 40
150.0
 41
0.0
 71
     5
 72
     1
  1
\A1;a
  7
STYLE1
 73
     1
 44
1.0
1001
ACAD
1000
MTEXTBEGIN
1070
    73
1070
     1
1070
    44
1040
1.0
1070
    74
1070
     0
1000
MTEXTEND
  0
POINT
  5
260D3
330
25813
100
AcDbEntity
  8
DEFPOINTS
 62
     0
 48
50.0
100
AcDbPoint
 10
8704.499999999994
 20
11694.0391668873
 30
0.0
  0
POINT
  5
260D4
330
25813
100
AcDbEntity
  8
DEFPOINTS
 62
     0
 48
50.0
100
AcDbPoint
 10
8749.499999999995
 20
10841.4831901959
 30
0.0
  0
POINT
  5
260D5
330
25813
100
AcDbEntity
  8
DEFPOINTS
 62
     0
 48
50.0
100
AcDbPoint
 10
8749.499999999995
 20
11861.75904984403
 30
0.0
  0
ENDBLK
  5
25820
330
25813
100
AcDbEntity
  8
0
 48
50.0
100
AcDbBlockEnd
  0
BLOCK
  5
2582D
330
25821
100
AcDbEntity
  8
0
 48
50.0
100
AcDbBlockBegin
  2
*D29
 70
     1
 10
0.0
 20
0.0
 30
0.0
  3
*D29
  1

  0
LINE
  5
260C0
330
25821
100
AcDbEntity
  8
寸法
 62
     0
 48
50.0
370
    -2
100
AcDbLine
 10
8679.499999999995
 20
10916.4831901959
 30
0.0
 11
7867.389251624229
 21
10916.4831901959
 31
0.0
  0
LINE
  5
260C1
330
25821
100
AcDbEntity
  8
寸法
 62
     0
 48
50.0
370
    -2
100
AcDbLine
 10
8724.499999999995
 20
10841.4831901959
 30
0.0
 11
7867.389251624229
 21
10841.4831901959
 31
0.0
  0
LINE
  5
260C2
330
25821
100
AcDbEntity
  8
寸法
 62
     0
 48
50.0
370
    -2
100
AcDbLine
 10
7942.389251624229
 20
10916.4831901959
 30
0.0
 11
7942.389251624229
 21
11041.4831901959
 31
0.0
  0
LINE
  5
260C3
330
25821
100
AcDbEntity
  8
寸法
 62
     0
 48
50.0
370
    -2
100
AcDbLine
 10
7942.389251624229
 20
10841.4831901959
 30
0.0
 11
7942.389251624229
 21
10716.4831901959
 31
0.0
  0
LINE
  5
260C4
330
25821
100
AcDbEntity
  8
寸法
 62
     0
 48
50.0
370
    -2
100
AcDbLine
 10
7942.389251624229
 20
10916.4831901959
 30
0.0
 11
7942.389251624229
 21
10841.4831901959
 31
0.0
  0
INSERT
  5
260C5
330
25821
100
AcDbEntity
  8
寸法
 62
     0
 48
50.0
370
    -2
100
AcDbBlockReference
  2
_DOTSMALL
 10
7942.389251624229
 20
10916.4831901959
 30
0.0
 41
125.0
 42
125.0
 43
125.0
 50
270.0
  0
INSERT
  5
260C6
330
25821
100
AcDbEntity
  8
寸法
 62
     0
 48
50.0
370
    -2
100
AcDbBlockReference
  2
_DOTSMALL
 10
7942.389251624229
 20
10841.4831901959
 30
0.0
 41
125.0
 42
125.0
 43
125.0
 50
90.0
  0
MTEXT
  5
260C7
330
25821
100
AcDbEntity
  8
寸法
 62
     7
 48
50.0
100
AcDbMText
 10
7842.389251624227
 20
10878.9831901959
 30
0.0
 40
150.0
 41
0.0
 71
     5
 72
     1
  1
\A1;c
  7
STYLE1
 11
0.0000000000000001
 21
1.0
 31
0.0
 73
     1
 44
1.0
1001
ACAD
1000
MTEXTBEGIN
1070
    73
1070
     1
1070
    44
1040
1.0
1070
    74
1070
     0
1000
MTEXTEND
  0
POINT
  5
260C8
330
25821
100
AcDbEntity
  8
DEFPOINTS
 62
     0
 48
50.0
100
AcDbPoint
 10
8704.499999999994
 20
10916.4831901959
 30
0.0
  0
POINT
  5
260C9
330
25821
100
AcDbEntity
  8
DEFPOINTS
 62
     0
 48
50.0
100
AcDbPoint
 10
8749.499999999995
 20
10841.4831901959
 30
0.0
  0
POINT
  5
260CA
330
25821
100
AcDbEntity
  8
DEFPOINTS
 62
     0
 48
50.0
100
AcDbPoint
 10
7942.389251624229
 20
10841.4831901959
 30
0.0
  0
ENDBLK
  5
2582E
330
25821
100
AcDbEntity
  8
0
 48
50.0
100
AcDbBlockEnd
  0
BLOCK
  5
2583A
330
2582F
100
AcDbEntity
  8
0
 48
50.0
100
AcDbBlockBegin
  2
*D30
 70
     1
 10
0.0
 20
0.0
 30
0.0
  3
*D30
  1

  0
LINE
  5
260B6
330
2582F
100
AcDbEntity
  8
寸法
 62
     0
 48
50.0
370
    -2
100
AcDbLine
 10
8824.500000000181
 20
10866.4831901959
 30
0.0
 11
8824.500000000181
 21
11636.59285010267
 31
0.0
  0
LINE
  5
260B7
330
2582F
100
AcDbEntity
  8
寸法
 62
     0
 48
50.0
370
    -2
100
AcDbLine
 10
8749.499999999995
 20
10866.4831901959
 30
0.0
 11
8749.499999999995
 21
11636.59285010267
 31
0.0
  0
LINE
  5
260B8
330
2582F
100
AcDbEntity
  8
寸法
 62
     0
 48
50.0
370
    -2
100
AcDbLine
 10
8824.500000000181
 20
11561.59285010267
 30
0.0
 11
8749.499999999995
 21
11561.59285010267
 31
0.0
  0
LINE
  5
260B9
330
2582F
100
AcDbEntity
  8
寸法
 62
     0
 48
50.0
370
    -2
100
AcDbLine
 10
8749.499999999995
 20
11561.59285010267
 30
0.0
 11
8398.893398282195
 21
11561.59285010267
 31
0.0
  0
INSERT
  5
260BA
330
2582F
100
AcDbEntity
  8
寸法
 62
     0
 48
50.0
370
    -2
100
AcDbBlockReference
  2
_DOTSMALL
 10
8824.500000000181
 20
11561.59285010267
 30
0.0
 41
125.0
 42
125.0
 43
125.0
  0
INSERT
  5
260BB
330
2582F
100
AcDbEntity
  8
寸法
 62
     0
 48
50.0
370
    -2
100
AcDbBlockReference
  2
_DOTSMALL
 10
8749.499999999995
 20
11561.59285010267
 30
0.0
 41
125.0
 42
125.0
 43
125.0
 50
180.0
  0
MTEXT
  5
260BC
330
2582F
100
AcDbEntity
  8
寸法
 62
     7
 48
50.0
100
AcDbMText
 10
8509.499999999993
 20
11661.59285010267
 30
0.0
 40
150.0
 41
0.0
 71
     5
 72
     1
  1
\A1;75
  7
STYLE1
 73
     1
 44
1.0
1001
ACAD
1000
MTEXTBEGIN
1070
    73
1070
     1
1070
    44
1040
1.0
1070
    74
1070
     0
1000
MTEXTEND
  0
POINT
  5
260BD
330
2582F
100
AcDbEntity
  8
DEFPOINTS
 62
     0
 48
50.0
100
AcDbPoint
 10
8824.500000000181
 20
10841.4831901959
 30
0.0
  0
POINT
  5
260BE
330
2582F
100
AcDbEntity
  8
DEFPOINTS
 62
     0
 48
50.0
100
AcDbPoint
 10
8749.499999999995
 20
10841.4831901959
 30
0.0
  0
POINT
  5
260BF
330
2582F
100
AcDbEntity
  8
DEFPOINTS
 62
     0
 48
50.0
100
AcDbPoint
 10
8749.499999999995
 20
11561.59285010267
 30
0.0
  0
ENDBLK
  5
2583B
330
2582F
100
AcDbEntity
  8
0
 48
50.0
100
AcDbBlockEnd
  0
BLOCK
  5
25846
330
2583C
100
AcDbEntity
  8
0
 48
50.0
100
AcDbBlockBegin
  2
*D31
 70
     1
 10
0.0
 20
0.0
 30
0.0
  3
*D31
  1

  0
LINE
  5
2611A
330
2583C
100
AcDbEntity
  8
寸法
 62
     0
 48
50.0
370
    -2
100
AcDbLine
 10
11834.49999999999
 20
7436.483190195899
 30
0.0
 11
12876.63815053224
 21
7436.483190195899
 31
0.0
  0
LINE
  5
2611B
330
2583C
100
AcDbEntity
  8
寸法
 62
     0
 48
50.0
370
    -2
100
AcDbLine
 10
11834.49999999999
 20
10841.48319019589
 30
0.0
 11
12876.63815053224
 21
10841.48319019589
 31
0.0
  0
LINE
  5
2611C
330
2583C
100
AcDbEntity
  8
寸法
 62
     0
 48
50.0
370
    -2
100
AcDbLine
 10
12801.63815053223
 20
7436.483190195899
 30
0.0
 11
12801.63815053223
 21
10841.48319019589
 31
0.0
  0
INSERT
  5
2611D
330
2583C
100
AcDbEntity
  8
寸法
 62
     0
 48
50.0
370
    -2
100
AcDbBlockReference
  2
_DOTSMALL
 10
12801.63815053223
 20
7436.483190195899
 30
0.0
 41
125.0
 42
125.0
 43
125.0
 50
270.0
  0
INSERT
  5
2611E
330
2583C
100
AcDbEntity
  8
寸法
 62
     0
 48
50.0
370
    -2
100
AcDbBlockReference
  2
_DOTSMALL
 10
12801.63815053223
 20
10841.48319019589
 30
0.0
 41
125.0
 42
125.0
 43
125.0
 50
90.0
  0
MTEXT
  5
2611F
330
2583C
100
AcDbEntity
  8
寸法
 62
     7
 48
50.0
100
AcDbMText
 10
12701.63815053223
 20
9138.983190195901
 30
0.0
 40
150.0
 41
0.0
 71
     5
 72
     1
  1
\A1;3405
  7
STYLE1
 11
0.0000000000000001
 21
1.0
 31
0.0
 73
     1
 44
1.0
1001
ACAD
1000
MTEXTBEGIN
1070
    73
1070
     1
1070
    44
1040
1.0
1070
    74
1070
     0
1000
MTEXTEND
  0
POINT
  5
26120
330
2583C
100
AcDbEntity
  8
DEFPOINTS
 62
     0
 48
50.0
100
AcDbPoint
 10
11809.49999999999
 20
7436.483190195899
 30
0.0
  0
POINT
  5
26121
330
2583C
100
AcDbEntity
  8
DEFPOINTS
 62
     0
 48
50.0
100
AcDbPoint
 10
11809.49999999999
 20
10841.48319019589
 30
0.0
  0
POINT
  5
26122
330
2583C
100
AcDbEntity
  8
DEFPOINTS
 62
     0
 48
50.0
100
AcDbPoint
 10
12801.63815053223
 20
10841.48319019589
 30
0.0
  0
ENDBLK
  5
25847
330
2583C
100
AcDbEntity
  8
0
 48
50.0
100
AcDbBlockEnd
  0
BLOCK
  5
25852
330
25848
100
AcDbEntity
  8
0
 48
50.0
100
AcDbBlockBegin
  2
*D32
 70
     1
 10
0.0
 20
0.0
 30
0.0
  3
*D32
  1

  0
LINE
  5
26111
330
25848
100
AcDbEntity
  8
寸法
 62
     0
 48
50.0
370
    -2
100
AcDbLine
 10
11834.49999999999
 20
7436.483190195899
 30
0.0
 11
12583.53220691701
 21
7436.483190195899
 31
0.0
  0
LINE
  5
26112
330
25848
100
AcDbEntity
  8
寸法
 62
     0
 48
50.0
370
    -2
100
AcDbLine
 10
11809.49999999999
 20
10791.4831901959
 30
0.0
 11
12583.53220691701
 21
10791.4831901959
 31
0.0
  0
LINE
  5
26113
330
25848
100
AcDbEntity
  8
寸法
 62
     0
 48
50.0
370
    -2
100
AcDbLine
 10
12508.53220691701
 20
7436.483190195899
 30
0.0
 11
12508.53220691701
 21
10791.4831901959
 31
0.0
  0
INSERT
  5
26114
330
25848
100
AcDbEntity
  8
寸法
 62
     0
 48
50.0
370
    -2
100
AcDbBlockReference
  2
_DOTSMALL
 10
12508.53220691701
 20
7436.483190195899
 30
0.0
 41
125.0
 42
125.0
 43
125.0
 50
270.0
  0
INSERT
  5
26115
330
25848
100
AcDbEntity
  8
寸法
 62
     0
 48
50.0
370
    -2
100
AcDbBlockReference
  2
_DOTSMALL
 10
12508.53220691701
 20
10791.4831901959
 30
0.0
 41
125.0
 42
125.0
 43
125.0
 50
90.0
  0
MTEXT
  5
26116
330
25848
100
AcDbEntity
  8
寸法
 62
     7
 48
50.0
100
AcDbMText
 10
12408.532206917
 20
9113.9831901959
 30
0.0
 40
150.0
 41
0.0
 71
     5
 72
     1
  1
\A1;3355
  7
STYLE1
 11
0.0000000000000001
 21
1.0
 31
0.0
 73
     1
 44
1.0
1001
ACAD
1000
MTEXTBEGIN
1070
    73
1070
     1
1070
    44
1040
1.0
1070
    74
1070
     0
1000
MTEXTEND
  0
POINT
  5
26117
330
25848
100
AcDbEntity
  8
DEFPOINTS
 62
     0
 48
50.0
100
AcDbPoint
 10
11809.49999999999
 20
7436.483190195899
 30
0.0
  0
POINT
  5
26118
330
25848
100
AcDbEntity
  8
DEFPOINTS
 62
     0
 48
50.0
100
AcDbPoint
 10
11784.49999999999
 20
10791.4831901959
 30
0.0
  0
POINT
  5
26119
330
25848
100
AcDbEntity
  8
DEFPOINTS
 62
     0
 48
50.0
100
AcDbPoint
 10
12508.53220691701
 20
10791.4831901959
 30
0.0
  0
ENDBLK
  5
25853
330
25848
100
AcDbEntity
  8
0
 48
50.0
100
AcDbBlockEnd
  0
BLOCK
  5
2585F
330
25854
100
AcDbEntity
  8
0
 48
50.0
100
AcDbBlockBegin
  2
*D33
 70
     1
 10
0.0
 20
0.0
 30
0.0
  3
*D33
  1

  0
LINE
  5
26138
330
25854
100
AcDbEntity
  8
寸法
 62
     0
 48
50.0
370
    -2
100
AcDbLine
 10
11719.49999999999
 20
7491.4831901959
 30
0.0
 11
11719.49999999999
 21
7868.495136544861
 31
0.0
  0
LINE
  5
26139
330
25854
100
AcDbEntity
  8
寸法
 62
     0
 48
50.0
370
    -2
100
AcDbLine
 10
11809.49999999999
 20
7461.483190195899
 30
0.0
 11
11809.49999999999
 21
7868.495136544861
 31
0.0
  0
LINE
  5
2613A
330
25854
100
AcDbEntity
  8
寸法
 62
     0
 48
50.0
370
    -2
100
AcDbLine
 10
11719.49999999999
 20
7793.495136544861
 30
0.0
 11
11809.49999999999
 21
7793.495136544861
 31
0.0
  0
LINE
  5
2613B
330
25854
100
AcDbEntity
  8
寸法
 62
     0
 48
50.0
370
    -2
100
AcDbLine
 10
11809.49999999999
 20
7793.495136544861
 30
0.0
 11
12224.61811023622
 21
7793.495136544861
 31
0.0
  0
INSERT
  5
2613C
330
25854
100
AcDbEntity
  8
寸法
 62
     0
 48
50.0
370
    -2
100
AcDbBlockReference
  2
_DOTSMALL
 10
11719.49999999999
 20
7793.495136544861
 30
0.0
 41
125.0
 42
125.0
 43
125.0
 50
180.0
  0
INSERT
  5
2613D
330
25854
100
AcDbEntity
  8
寸法
 62
     0
 48
50.0
370
    -2
100
AcDbBlockReference
  2
_DOTSMALL
 10
11809.49999999999
 20
7793.495136544861
 30
0.0
 41
125.0
 42
125.0
 43
125.0
  0
MTEXT
  5
2613E
330
25854
100
AcDbEntity
  8
寸法
 62
     7
 48
50.0
100
AcDbMText
 10
12079.5590551181
 20
7893.495136544861
 30
0.0
 40
150.0
 41
0.0
 71
     5
 72
     1
  1
\A1;100
  7
STYLE1
 73
     1
 44
1.0
1001
ACAD
1000
MTEXTBEGIN
1070
    73
1070
     1
1070
    44
1040
1.0
1070
    74
1070
     0
1000
MTEXTEND
  0
POINT
  5
2613F
330
25854
100
AcDbEntity
  8
DEFPOINTS
 62
     0
 48
50.0
100
AcDbPoint
 10
11719.49999999999
 20
7466.483190195901
 30
0.0
  0
POINT
  5
26140
330
25854
100
AcDbEntity
  8
DEFPOINTS
 62
     0
 48
50.0
100
AcDbPoint
 10
11809.49999999999
 20
7436.483190195899
 30
0.0
  0
POINT
  5
26141
330
25854
100
AcDbEntity
  8
DEFPOINTS
 62
     0
 48
50.0
100
AcDbPoint
 10
11809.49999999999
 20
7793.495136544861
 30
0.0
  0
ENDBLK
  5
25860
330
25854
100
AcDbEntity
  8
0
 48
50.0
100
AcDbBlockEnd
  0
BLOCK
  5
2586D
330
25861
100
AcDbEntity
  8
0
 48
50.0
100
AcDbBlockBegin
  2
*D34
 70
     1
 10
0.0
 20
0.0
 30
0.0
  3
*D34
  1

  0
LINE
  5
2615F
330
25861
100
AcDbEntity
  8
寸法
 62
     0
 48
50.0
370
    -2
100
AcDbLine
 10
11689.5
 20
7491.4831901959
 30
0.0
 11
11689.5
 21
7868.495136544861
 31
0.0
  0
LINE
  5
26160
330
25861
100
AcDbEntity
  8
寸法
 62
     0
 48
50.0
370
    -2
100
AcDbLine
 10
11719.49999999999
 20
7491.4831901959
 30
0.0
 11
11719.49999999999
 21
7868.495136544861
 31
0.0
  0
LINE
  5
26161
330
25861
100
AcDbEntity
  8
寸法
 62
     0
 48
50.0
370
    -2
100
AcDbLine
 10
11719.49999999999
 20
7793.495136544861
 30
0.0
 11
11844.49999999999
 21
7793.495136544861
 31
0.0
  0
LINE
  5
26162
330
25861
100
AcDbEntity
  8
寸法
 62
     0
 48
50.0
370
    -2
100
AcDbLine
 10
11689.5
 20
7793.495136544861
 30
0.0
 11
11220.57283464566
 21
7793.495136544861
 31
0.0
  0
LINE
  5
26163
330
25861
100
AcDbEntity
  8
寸法
 62
     0
 48
50.0
370
    -2
100
AcDbLine
 10
11719.49999999999
 20
7793.495136544861
 30
0.0
 11
11689.5
 21
7793.495136544861
 31
0.0
  0
INSERT
  5
26164
330
25861
100
AcDbEntity
  8
寸法
 62
     0
 48
50.0
370
    -2
100
AcDbBlockReference
  2
_DOTSMALL
 10
11719.49999999999
 20
7793.495136544861
 30
0.0
 41
125.0
 42
125.0
 43
125.0
 50
180.0
  0
INSERT
  5
26165
330
25861
100
AcDbEntity
  8
寸法
 62
     0
 48
50.0
370
    -2
100
AcDbBlockReference
  2
_DOTSMALL
 10
11689.5
 20
7793.495136544861
 30
0.0
 41
125.0
 42
125.0
 43
125.0
  0
MTEXT
  5
26166
330
25861
100
AcDbEntity
  8
寸法
 62
     7
 48
50.0
100
AcDbMText
 10
11330.03641732283
 20
7893.509900324389
 30
0.0
 40
150.0
 41
0.0
 71
     5
 72
     1
  1
\A1;20
  7
STYLE1
 73
     1
 44
1.0
1001
ACAD
1000
MTEXTBEGIN
1070
    73
1070
     1
1070
    44
1040
1.0
1070
    74
1070
     0
1000
MTEXTEND
  0
POINT
  5
26167
330
25861
100
AcDbEntity
  8
DEFPOINTS
 62
     0
 48
50.0
100
AcDbPoint
 10
11689.5
 20
7466.483190195901
 30
0.0
  0
POINT
  5
26168
330
25861
100
AcDbEntity
  8
DEFPOINTS
 62
     0
 48
50.0
100
AcDbPoint
 10
11719.49999999999
 20
7466.483190195901
 30
0.0
  0
POINT
  5
26169
330
25861
100
AcDbEntity
  8
DEFPOINTS
 62
     0
 48
50.0
100
AcDbPoint
 10
11719.49999999999
 20
7793.495136544861
 30
0.0
  0
ENDBLK
  5
2586E
330
25861
100
AcDbEntity
  8
0
 48
50.0
100
AcDbBlockEnd
  0
BLOCK
  5
2587B
330
2586F
100
AcDbEntity
  8
0
 48
50.0
100
AcDbBlockBegin
  2
*D35
 70
     1
 10
0.0
 20
0.0
 30
0.0
  3
*D35
  1

  0
LINE
  5
2612D
330
2586F
100
AcDbEntity
  8
寸法
 62
     0
 48
50.0
370
    -2
100
AcDbLine
 10
11834.49999999999
 20
7436.483190195899
 30
0.0
 11
12583.53220691701
 21
7436.483190195899
 31
0.0
  0
LINE
  5
2612E
330
2586F
100
AcDbEntity
  8
寸法
 62
     0
 48
50.0
370
    -2
100
AcDbLine
 10
11980.49851475225
 20
7394.483190195899
 30
0.0
 11
12583.53220691701
 21
7394.483190195899
 31
0.0
  0
LINE
  5
2612F
330
2586F
100
AcDbEntity
  8
寸法
 62
     0
 48
50.0
370
    -2
100
AcDbLine
 10
12508.53220691701
 20
7436.483190195899
 30
0.0
 11
12508.53220691701
 21
7561.483190195899
 31
0.0
  0
LINE
  5
26130
330
2586F
100
AcDbEntity
  8
寸法
 62
     0
 48
50.0
370
    -2
100
AcDbLine
 10
12508.53220691701
 20
7394.483190195899
 30
0.0
 11
12508.53220691701
 21
6522.974331928181
 31
0.0
  0
LINE
  5
26131
330
2586F
100
AcDbEntity
  8
寸法
 62
     0
 48
50.0
370
    -2
100
AcDbLine
 10
12508.53220691701
 20
7436.483190195899
 30
0.0
 11
12508.53220691701
 21
7394.483190195899
 31
0.0
  0
INSERT
  5
26132
330
2586F
100
AcDbEntity
  8
寸法
 62
     0
 48
50.0
370
    -2
100
AcDbBlockReference
  2
_DOTSMALL
 10
12508.53220691701
 20
7436.483190195899
 30
0.0
 41
125.0
 42
125.0
 43
125.0
 50
270.0
  0
INSERT
  5
26133
330
2586F
100
AcDbEntity
  8
寸法
 62
     0
 48
50.0
370
    -2
100
AcDbBlockReference
  2
_DOTSMALL
 10
12508.53220691701
 20
7394.483190195899
 30
0.0
 41
125.0
 42
125.0
 43
125.0
 50
90.0
  0
MTEXT
  5
26134
330
2586F
100
AcDbEntity
  8
寸法
 62
     7
 48
50.0
100
AcDbMText
 10
12408.51744313748
 20
6833.72876106204
 30
0.0
 40
150.0
 41
0.0
 71
     5
 72
     1
  1
\A1;柱芯42
  7
STYLE1
 11
0.0000000000000001
 21
1.0
 31
0.0
 73
     1
 44
1.0
1001
ACAD
1000
MTEXTBEGIN
1070
    73
1070
     1
1070
    44
1040
1.0
1070
    74
1070
     0
1000
MTEXTEND
  0
POINT
  5
26135
330
2586F
100
AcDbEntity
  8
DEFPOINTS
 62
     0
 48
50.0
100
AcDbPoint
 10
11809.49999999999
 20
7436.483190195899
 30
0.0
  0
POINT
  5
26136
330
2586F
100
AcDbEntity
  8
DEFPOINTS
 62
     0
 48
50.0
100
AcDbPoint
 10
11955.49851475225
 20
7394.483190195899
 30
0.0
  0
POINT
  5
26137
330
2586F
100
AcDbEntity
  8
DEFPOINTS
 62
     0
 48
50.0
100
AcDbPoint
 10
12508.53220691701
 20
7394.483190195899
 30
0.0
  0
ENDBLK
  5
2587C
330
2586F
100
AcDbEntity
  8
0
 48
50.0
100
AcDbBlockEnd
  0
BLOCK
  5
25887
330
2587D
100
AcDbEntity
  8
0
 48
50.0
100
AcDbBlockBegin
  2
*D36
 70
     1
 10
0.0
 20
0.0
 30
0.0
  3
*D36
  1

  0
LINE
  5
26156
330
2587D
100
AcDbEntity
  8
寸法
 62
     0
 48
50.0
370
    -2
100
AcDbLine
 10
11580.49999999999
 20
7194.983190195898
 30
0.0
 11
11580.49999999999
 21
6868.256086277473
 31
0.0
  0
LINE
  5
26157
330
2587D
100
AcDbEntity
  8
寸法
 62
     0
 48
50.0
370
    -2
100
AcDbLine
 10
11930.49999999999
 20
7194.983190195897
 30
0.0
 11
11930.49999999999
 21
6868.256086277473
 31
0.0
  0
LINE
  5
26158
330
2587D
100
AcDbEntity
  8
寸法
 62
     0
 48
50.0
370
    -2
100
AcDbLine
 10
11580.49999999999
 20
6943.256086277473
 30
0.0
 11
11930.49999999999
 21
6943.256086277473
 31
0.0
  0
INSERT
  5
26159
330
2587D
100
AcDbEntity
  8
寸法
 62
     0
 48
50.0
370
    -2
100
AcDbBlockReference
  2
_DOTSMALL
 10
11580.49999999999
 20
6943.256086277473
 30
0.0
 41
125.0
 42
125.0
 43
125.0
 50
180.0
  0
INSERT
  5
2615A
330
2587D
100
AcDbEntity
  8
寸法
 62
     0
 48
50.0
370
    -2
100
AcDbBlockReference
  2
_DOTSMALL
 10
11930.49999999999
 20
6943.256086277473
 30
0.0
 41
125.0
 42
125.0
 43
125.0
  0
MTEXT
  5
2615B
330
2587D
100
AcDbEntity
  8
寸法
 62
     7
 48
50.0
100
AcDbMText
 10
11755.49999999999
 20
7043.256086277473
 30
0.0
 40
150.0
 41
0.0
 71
     5
 72
     1
  1
\A1;350
  7
STYLE1
 73
     1
 44
1.0
1001
ACAD
1000
MTEXTBEGIN
1070
    73
1070
     1
1070
    44
1040
1.0
1070
    74
1070
     0
1000
MTEXTEND
  0
POINT
  5
2615C
330
2587D
100
AcDbEntity
  8
DEFPOINTS
 62
     0
 48
50.0
100
AcDbPoint
 10
11580.49999999999
 20
7219.983190195899
 30
0.0
  0
POINT
  5
2615D
330
2587D
100
AcDbEntity
  8
DEFPOINTS
 62
     0
 48
50.0
100
AcDbPoint
 10
11930.49999999999
 20
7219.983190195897
 30
0.0
  0
POINT
  5
2615E
330
2587D
100
AcDbEntity
  8
DEFPOINTS
 62
     0
 48
50.0
100
AcDbPoint
 10
11930.49999999999
 20
6943.256086277473
 30
0.0
  0
ENDBLK
  5
25888
330
2587D
100
AcDbEntity
  8
0
 48
50.0
100
AcDbBlockEnd
  0
BLOCK
  5
25895
330
25889
100
AcDbEntity
  8
0
 48
50.0
100
AcDbBlockBegin
  2
*D37
 70
     1
 10
0.0
 20
0.0
 30
0.0
  3
*D37
  1

  0
LINE
  5
2614B
330
25889
100
AcDbEntity
  8
寸法
 62
     0
 48
50.0
370
    -2
100
AcDbLine
 10
11664.49999999999
 20
7466.483190195901
 30
0.0
 11
11388.33554877879
 21
7466.483190195901
 31
0.0
  0
LINE
  5
2614C
330
25889
100
AcDbEntity
  8
寸法
 62
     0
 48
50.0
370
    -2
100
AcDbLine
 10
11694.49999999999
 20
7436.483190195899
 30
0.0
 11
11388.33554877879
 21
7436.483190195899
 31
0.0
  0
LINE
  5
2614D
330
25889
100
AcDbEntity
  8
寸法
 62
     0
 48
50.0
370
    -2
100
AcDbLine
 10
11463.33554877879
 20
7466.483190195901
 30
0.0
 11
11463.33554877879
 21
7591.483190195901
 31
0.0
  0
LINE
  5
2614E
330
25889
100
AcDbEntity
  8
寸法
 62
     0
 48
50.0
370
    -2
100
AcDbLine
 10
11463.33554877879
 20
7436.483190195899
 30
0.0
 11
11463.33554877879
 21
6967.556024841567
 31
0.0
  0
LINE
  5
2614F
330
25889
100
AcDbEntity
  8
寸法
 62
     0
 48
50.0
370
    -2
100
AcDbLine
 10
11463.33554877879
 20
7466.483190195901
 30
0.0
 11
11463.33554877879
 21
7436.483190195899
 31
0.0
  0
INSERT
  5
26150
330
25889
100
AcDbEntity
  8
寸法
 62
     0
 48
50.0
370
    -2
100
AcDbBlockReference
  2
_DOTSMALL
 10
11463.33554877879
 20
7466.483190195901
 30
0.0
 41
125.0
 42
125.0
 43
125.0
 50
270.0
  0
INSERT
  5
26151
330
25889
100
AcDbEntity
  8
寸法
 62
     0
 48
50.0
370
    -2
100
AcDbBlockReference
  2
_DOTSMALL
 10
11463.33554877879
 20
7436.483190195899
 30
0.0
 41
125.0
 42
125.0
 43
125.0
 50
90.0
  0
MTEXT
  5
26152
330
25889
100
AcDbEntity
  8
寸法
 62
     7
 48
50.0
100
AcDbMText
 10
11363.32078499926
 20
7077.019607518734
 30
0.0
 40
150.0
 41
0.0
 71
     5
 72
     1
  1
\A1;20
  7
STYLE1
 11
0.0000000000000001
 21
1.0
 31
0.0
 73
     1
 44
1.0
1001
ACAD
1000
MTEXTBEGIN
1070
    73
1070
     1
1070
    44
1040
1.0
1070
    74
1070
     0
1000
MTEXTEND
  0
POINT
  5
26153
330
25889
100
AcDbEntity
  8
DEFPOINTS
 62
     0
 48
50.0
100
AcDbPoint
 10
11689.5
 20
7466.483190195901
 30
0.0
  0
POINT
  5
26154
330
25889
100
AcDbEntity
  8
DEFPOINTS
 62
     0
 48
50.0
100
AcDbPoint
 10
11719.49999999999
 20
7436.483190195899
 30
0.0
  0
POINT
  5
26155
330
25889
100
AcDbEntity
  8
DEFPOINTS
 62
     0
 48
50.0
100
AcDbPoint
 10
11463.33554877879
 20
7436.483190195899
 30
0.0
  0
ENDBLK
  5
25896
330
25889
100
AcDbEntity
  8
0
 48
50.0
100
AcDbBlockEnd
  0
BLOCK
  5
258A1
330
25897
100
AcDbEntity
  8
0
 48
50.0
100
AcDbBlockBegin
  2
*D38
 70
     1
 10
0.0
 20
0.0
 30
0.0
  3
*D38
  1

  0
LINE
  5
26142
330
25897
100
AcDbEntity
  8
寸法
 62
     0
 48
50.0
370
    -2
100
AcDbLine
 10
11555.49999999999
 20
7219.983190195899
 30
0.0
 11
11181.86148081477
 21
7219.983190195899
 31
0.0
  0
LINE
  5
26143
330
25897
100
AcDbEntity
  8
寸法
 62
     0
 48
50.0
370
    -2
100
AcDbLine
 10
11555.49999999999
 20
7569.983190195898
 30
0.0
 11
11181.86148081477
 21
7569.983190195898
 31
0.0
  0
LINE
  5
26144
330
25897
100
AcDbEntity
  8
寸法
 62
     0
 48
50.0
370
    -2
100
AcDbLine
 10
11256.86148081477
 20
7219.983190195899
 30
0.0
 11
11256.86148081477
 21
7569.983190195898
 31
0.0
  0
INSERT
  5
26145
330
25897
100
AcDbEntity
  8
寸法
 62
     0
 48
50.0
370
    -2
100
AcDbBlockReference
  2
_DOTSMALL
 10
11256.86148081477
 20
7219.983190195899
 30
0.0
 41
125.0
 42
125.0
 43
125.0
 50
270.0
  0
INSERT
  5
26146
330
25897
100
AcDbEntity
  8
寸法
 62
     0
 48
50.0
370
    -2
100
AcDbBlockReference
  2
_DOTSMALL
 10
11256.86148081477
 20
7569.983190195898
 30
0.0
 41
125.0
 42
125.0
 43
125.0
 50
90.0
  0
MTEXT
  5
26147
330
25897
100
AcDbEntity
  8
寸法
 62
     7
 48
50.0
100
AcDbMText
 10
11156.86148081477
 20
7414.748575628092
 30
0.0
 40
150.0
 41
0.0
 71
     5
 72
     1
  1
\A1;350
  7
STYLE1
 11
0.0000000000000001
 21
1.0
 31
0.0
 73
     1
 44
1.0
1001
ACAD
1000
MTEXTBEGIN
1070
    73
1070
     1
1070
    44
1040
1.0
1070
    74
1070
     0
1000
MTEXTEND
  0
POINT
  5
26148
330
25897
100
AcDbEntity
  8
DEFPOINTS
 62
     0
 48
50.0
100
AcDbPoint
 10
11580.49999999999
 20
7219.983190195899
 30
0.0
  0
POINT
  5
26149
330
25897
100
AcDbEntity
  8
DEFPOINTS
 62
     0
 48
50.0
100
AcDbPoint
 10
11580.49999999999
 20
7569.983190195898
 30
0.0
  0
POINT
  5
2614A
330
25897
100
AcDbEntity
  8
DEFPOINTS
 62
     0
 48
50.0
100
AcDbPoint
 10
11256.86148081477
 20
7569.983190195898
 30
0.0
  0
ENDBLK
  5
258A2
330
25897
100
AcDbEntity
  8
0
 48
50.0
100
AcDbBlockEnd
  0
BLOCK
  5
258AE
330
258A3
100
AcDbEntity
  8
0
 48
50.0
100
AcDbBlockBegin
  2
*D39
 70
     1
 10
0.0
 20
0.0
 30
0.0
  3
*D39
  1

  0
LINE
  5
260FD
330
258A3
100
AcDbEntity
  8
寸法
 62
     0
 48
50.0
370
    -2
100
AcDbLine
 10
11834.49999999998
 20
10841.4831901959
 30
0.0
 11
12583.53220691701
 21
10841.48319019589
 31
0.0
  0
LINE
  5
260FE
330
258A3
100
AcDbEntity
  8
寸法
 62
     0
 48
50.0
370
    -2
100
AcDbLine
 10
11809.49999999999
 20
10791.4831901959
 30
0.0
 11
12583.53220691701
 21
10791.4831901959
 31
0.0
  0
LINE
  5
260FF
330
258A3
100
AcDbEntity
  8
寸法
 62
     0
 48
50.0
370
    -2
100
AcDbLine
 10
12508.53220691701
 20
10791.4831901959
 30
0.0
 11
12508.53220691701
 21
10841.48319019589
 31
0.0
  0
LINE
  5
26100
330
258A3
100
AcDbEntity
  8
寸法
 62
     0
 48
50.0
370
    -2
100
AcDbLine
 10
12508.53220691701
 20
10841.48319019589
 30
0.0
 11
12508.53220691701
 21
11319.41175623914
 31
0.0
  0
INSERT
  5
26101
330
258A3
100
AcDbEntity
  8
寸法
 62
     0
 48
50.0
370
    -2
100
AcDbBlockReference
  2
_DOTSMALL
 10
12508.53220691701
 20
10791.4831901959
 30
0.0
 41
125.0
 42
125.0
 43
125.0
 50
270.0
  0
INSERT
  5
26102
330
258A3
100
AcDbEntity
  8
寸法
 62
     0
 48
50.0
370
    -2
100
AcDbBlockReference
  2
_DOTSMALL
 10
12508.53220691701
 20
10841.48319019589
 30
0.0
 41
125.0
 42
125.0
 43
125.0
 50
90.0
  0
MTEXT
  5
26103
330
258A3
100
AcDbEntity
  8
寸法
 62
     7
 48
50.0
100
AcDbMText
 10
12408.53220691701
 20
11211.85270112103
 30
0.0
 40
150.0
 41
0.0
 71
     5
 72
     1
  1
\A1;50
  7
STYLE1
 11
0.0000000000000001
 21
1.0
 31
0.0
 73
     1
 44
1.0
1001
ACAD
1000
MTEXTBEGIN
1070
    73
1070
     1
1070
    44
1040
1.0
1070
    74
1070
     0
1000
MTEXTEND
  0
POINT
  5
26104
330
258A3
100
AcDbEntity
  8
DEFPOINTS
 62
     0
 48
50.0
100
AcDbPoint
 10
11809.49999999999
 20
10841.4831901959
 30
0.0
  0
POINT
  5
26105
330
258A3
100
AcDbEntity
  8
DEFPOINTS
 62
     0
 48
50.0
100
AcDbPoint
 10
11784.49999999999
 20
10791.4831901959
 30
0.0
  0
POINT
  5
26106
330
258A3
100
AcDbEntity
  8
DEFPOINTS
 62
     0
 48
50.0
100
AcDbPoint
 10
12508.53220691701
 20
10791.4831901959
 30
0.0
  0
ENDBLK
  5
258AF
330
258A3
100
AcDbEntity
  8
0
 48
50.0
100
AcDbBlockEnd
  0
BLOCK
  5
258BC
330
258B0
100
AcDbEntity
  8
0
 48
50.0
100
AcDbBlockBegin
  2
*D40
 70
     1
 10
0.0
 20
0.0
 30
0.0
  3
*D40
  1

  0
LINE
  5
260F2
330
258B0
100
AcDbEntity
  8
寸法
 62
     0
 48
50.0
370
    -2
100
AcDbLine
 10
11809.49999999999
 20
10866.4831901959
 30
0.0
 11
11809.49999999999
 21
11936.75904984403
 31
0.0
  0
LINE
  5
260F3
330
258B0
100
AcDbEntity
  8
寸法
 62
     0
 48
50.0
370
    -2
100
AcDbLine
 10
11854.49999999999
 20
11719.0391668873
 30
0.0
 11
11854.49999999999
 21
11936.75904984403
 31
0.0
  0
LINE
  5
260F4
330
258B0
100
AcDbEntity
  8
寸法
 62
     0
 48
50.0
370
    -2
100
AcDbLine
 10
11809.49999999999
 20
11861.75904984403
 30
0.0
 11
11684.49999999999
 21
11861.75904984403
 31
0.0
  0
LINE
  5
260F5
330
258B0
100
AcDbEntity
  8
寸法
 62
     0
 48
50.0
370
    -2
100
AcDbLine
 10
11854.49999999999
 20
11861.75904984403
 30
0.0
 11
12219.93655300614
 21
11861.75904984403
 31
0.0
  0
LINE
  5
260F6
330
258B0
100
AcDbEntity
  8
寸法
 62
     0
 48
50.0
370
    -2
100
AcDbLine
 10
11809.49999999999
 20
11861.75904984403
 30
0.0
 11
11854.49999999999
 21
11861.75904984403
 31
0.0
  0
INSERT
  5
260F7
330
258B0
100
AcDbEntity
  8
寸法
 62
     0
 48
50.0
370
    -2
100
AcDbBlockReference
  2
_DOTSMALL
 10
11809.49999999999
 20
11861.75904984403
 30
0.0
 41
125.0
 42
125.0
 43
125.0
  0
INSERT
  5
260F8
330
258B0
100
AcDbEntity
  8
寸法
 62
     0
 48
50.0
370
    -2
100
AcDbBlockReference
  2
_DOTSMALL
 10
11854.49999999999
 20
11861.75904984403
 30
0.0
 41
125.0
 42
125.0
 43
125.0
 50
180.0
  0
MTEXT
  5
260F9
330
258B0
100
AcDbEntity
  8
寸法
 62
     7
 48
50.0
100
AcDbMText
 10
12162.21827650307
 20
11961.75904984403
 30
0.0
 40
150.0
 41
0.0
 71
     5
 72
     1
  1
\A1;a
  7
STYLE1
 73
     1
 44
1.0
1001
ACAD
1000
MTEXTBEGIN
1070
    73
1070
     1
1070
    44
1040
1.0
1070
    74
1070
     0
1000
MTEXTEND
  0
POINT
  5
260FA
330
258B0
100
AcDbEntity
  8
DEFPOINTS
 62
     0
 48
50.0
100
AcDbPoint
 10
11809.49999999999
 20
10841.4831901959
 30
0.0
  0
POINT
  5
260FB
330
258B0
100
AcDbEntity
  8
DEFPOINTS
 62
     0
 48
50.0
100
AcDbPoint
 10
11854.49999999999
 20
11694.0391668873
 30
0.0
  0
POINT
  5
260FC
330
258B0
100
AcDbEntity
  8
DEFPOINTS
 62
     0
 48
50.0
100
AcDbPoint
 10
11854.49999999999
 20
11861.75904984403
 30
0.0
  0
ENDBLK
  5
258BD
330
258B0
100
AcDbEntity
  8
0
 48
50.0
100
AcDbBlockEnd
  0
BLOCK
  5
258C9
330
258BE
100
AcDbEntity
  8
0
 48
50.0
100
AcDbBlockBegin
  2
*D41
 70
     1
 10
0.0
 20
0.0
 30
0.0
  3
*D41
  1

  0
LINE
  5
260E8
330
258BE
100
AcDbEntity
  8
寸法
 62
     0
 48
50.0
370
    -2
100
AcDbLine
 10
11809.49999999999
 20
10866.48319019589
 30
0.0
 11
11809.49999999999
 21
11636.59285010267
 31
0.0
  0
LINE
  5
260E9
330
258BE
100
AcDbEntity
  8
寸法
 62
     0
 48
50.0
370
    -2
100
AcDbLine
 10
11734.49999999999
 20
10866.4831901959
 30
0.0
 11
11734.49999999999
 21
11636.59285010267
 31
0.0
  0
LINE
  5
260EA
330
258BE
100
AcDbEntity
  8
寸法
 62
     0
 48
50.0
370
    -2
100
AcDbLine
 10
11734.49999999999
 20
11561.59285010267
 30
0.0
 11
11809.49999999999
 21
11561.59285010267
 31
0.0
  0
LINE
  5
260EB
330
258BE
100
AcDbEntity
  8
寸法
 62
     0
 48
50.0
370
    -2
100
AcDbLine
 10
11809.49999999999
 20
11561.59285010267
 30
0.0
 11
12160.10660171779
 21
11561.59285010267
 31
0.0
  0
INSERT
  5
260EC
330
258BE
100
AcDbEntity
  8
寸法
 62
     0
 48
50.0
370
    -2
100
AcDbBlockReference
  2
_DOTSMALL
 10
11734.49999999999
 20
11561.59285010267
 30
0.0
 41
125.0
 42
125.0
 43
125.0
 50
180.0
  0
INSERT
  5
260ED
330
258BE
100
AcDbEntity
  8
寸法
 62
     0
 48
50.0
370
    -2
100
AcDbBlockReference
  2
_DOTSMALL
 10
11809.49999999999
 20
11561.59285010267
 30
0.0
 41
125.0
 42
125.0
 43
125.0
  0
MTEXT
  5
260EE
330
258BE
100
AcDbEntity
  8
寸法
 62
     7
 48
50.0
100
AcDbMText
 10
12049.49999999999
 20
11661.59285010267
 30
0.0
 40
150.0
 41
0.0
 71
     5
 72
     1
  1
\A1;75
  7
STYLE1
 73
     1
 44
1.0
1001
ACAD
1000
MTEXTBEGIN
1070
    73
1070
     1
1070
    44
1040
1.0
1070
    74
1070
     0
1000
MTEXTEND
  0
POINT
  5
260EF
330
258BE
100
AcDbEntity
  8
DEFPOINTS
 62
     0
 48
50.0
100
AcDbPoint
 10
11809.49999999999
 20
10841.48319019589
 30
0.0
  0
POINT
  5
260F0
330
258BE
100
AcDbEntity
  8
DEFPOINTS
 62
     0
 48
50.0
100
AcDbPoint
 10
11734.49999999999
 20
10841.4831901959
 30
0.0
  0
POINT
  5
260F1
330
258BE
100
AcDbEntity
  8
DEFPOINTS
 62
     0
 48
50.0
100
AcDbPoint
 10
11734.49999999999
 20
11561.59285010267
 30
0.0
  0
ENDBLK
  5
258CA
330
258BE
100
AcDbEntity
  8
0
 48
50.0
100
AcDbBlockEnd
  0
BLOCK
  5
258D6
330
258CB
100
AcDbEntity
  8
0
 48
50.0
100
AcDbBlockBegin
  2
*D42
 70
     1
 10
0.0
 20
0.0
 30
0.0
  3
*D42
  1

  0
LINE
  5
26123
330
258CB
100
AcDbEntity
  8
寸法
 62
     0
 48
50.0
370
    -2
100
AcDbLine
 10
11689.49999999999
 20
8061.983190195899
 30
0.0
 11
11689.49999999999
 21
8139.318397511956
 31
0.0
  0
LINE
  5
26124
330
258CB
100
AcDbEntity
  8
寸法
 62
     0
 48
50.0
370
    -2
100
AcDbLine
 10
11809.49999999999
 20
8061.983190195899
 30
0.0
 11
11809.49999999999
 21
8139.318397511956
 31
0.0
  0
LINE
  5
26125
330
258CB
100
AcDbEntity
  8
寸法
 62
     0
 48
50.0
370
    -2
100
AcDbLine
 10
11689.49999999999
 20
8064.318397511957
 30
0.0
 11
11809.49999999999
 21
8064.318397511957
 31
0.0
  0
LINE
  5
26126
330
258CB
100
AcDbEntity
  8
寸法
 62
     0
 48
50.0
370
    -2
100
AcDbLine
 10
11809.49999999999
 20
8064.318397511957
 30
0.0
 11
12224.61811023621
 21
8064.318397511957
 31
0.0
  0
INSERT
  5
26127
330
258CB
100
AcDbEntity
  8
寸法
 62
     0
 48
50.0
370
    -2
100
AcDbBlockReference
  2
_DOTSMALL
 10
11689.49999999999
 20
8064.318397511957
 30
0.0
 41
125.0
 42
125.0
 43
125.0
 50
180.0
  0
INSERT
  5
26128
330
258CB
100
AcDbEntity
  8
寸法
 62
     0
 48
50.0
370
    -2
100
AcDbBlockReference
  2
_DOTSMALL
 10
11809.49999999999
 20
8064.318397511957
 30
0.0
 41
125.0
 42
125.0
 43
125.0
  0
MTEXT
  5
26129
330
258CB
100
AcDbEntity
  8
寸法
 62
     7
 48
50.0
100
AcDbMText
 10
12079.5590551181
 20
8164.333161291486
 30
0.0
 40
150.0
 41
0.0
 71
     5
 72
     1
  1
\A1;120
  7
STYLE1
 73
     1
 44
1.0
1001
ACAD
1000
MTEXTBEGIN
1070
    73
1070
     1
1070
    44
1040
1.0
1070
    74
1070
     0
1000
MTEXTEND
  0
POINT
  5
2612A
330
258CB
100
AcDbEntity
  8
DEFPOINTS
 62
     0
 48
50.0
100
AcDbPoint
 10
11689.49999999999
 20
8036.983190195899
 30
0.0
  0
POINT
  5
2612B
330
258CB
100
AcDbEntity
  8
DEFPOINTS
 62
     0
 48
50.0
100
AcDbPoint
 10
11809.49999999999
 20
8036.983190195899
 30
0.0
  0
POINT
  5
2612C
330
258CB
100
AcDbEntity
  8
DEFPOINTS
 62
     0
 48
50.0
100
AcDbPoint
 10
11809.49999999999
 20
8064.318397511957
 30
0.0
  0
ENDBLK
  5
258D7
330
258CB
100
AcDbEntity
  8
0
 48
50.0
100
AcDbBlockEnd
  0
BLOCK
  5
26025
330
2601A
100
AcDbEntity
  8
0
 48
50.0
100
AcDbBlockBegin
  2
*D43
 70
     1
 10
0.0
 20
0.0
 30
0.0
  3
*D43
  1

  0
LINE
  5
2604F
330
2601A
100
AcDbEntity
  8
寸法
 62
     0
 48
50.0
370
    -2
100
AcDbLine
 10
5367.014752348128
 20
2712.836257816046
 30
0.0
 11
5367.014752348128
 21
2997.933205964091
 31
0.0
  0
LINE
  5
26050
330
2601A
100
AcDbEntity
  8
寸法
 62
     0
 48
50.0
370
    -2
100
AcDbLine
 10
5266.335284126739
 20
2788.220873200661
 30
0.0
 11
5266.335284126739
 21
2997.933205964091
 31
0.0
  0
LINE
  5
26051
330
2601A
100
AcDbEntity
  8
寸法
 62
     0
 48
50.0
370
    -2
100
AcDbLine
 10
5266.335284126739
 20
2962.933205964091
 30
0.0
 11
5367.014752348128
 21
2962.933205964091
 31
0.0
  0
LINE
  5
26052
330
2601A
100
AcDbEntity
  8
寸法
 62
     0
 48
50.0
370
    -2
100
AcDbLine
 10
5367.014752348128
 20
2962.933205964091
 30
0.0
 11
5707.132862584349
 21
2962.933205964091
 31
0.0
  0
INSERT
  5
26053
330
2601A
100
AcDbEntity
  8
寸法
 62
     0
 48
50.0
370
    -2
100
AcDbBlockReference
  2
_DOTSMALL
 10
5266.335284126739
 20
2962.933205964091
 30
0.0
 41
125.0
 42
125.0
 43
125.0
 50
180.0
  0
INSERT
  5
26054
330
2601A
100
AcDbEntity
  8
寸法
 62
     0
 48
50.0
370
    -2
100
AcDbBlockReference
  2
_DOTSMALL
 10
5367.014752348128
 20
2962.933205964091
 30
0.0
 41
125.0
 42
125.0
 43
125.0
  0
MTEXT
  5
26055
330
2601A
100
AcDbEntity
  8
寸法
 62
     7
 48
50.0
100
AcDbMText
 10
5599.573807466239
 20
3062.933205964091
 30
0.0
 40
150.0
 41
0.0
 71
     5
 72
     1
  1
\A1;50
  7
STYLE1
 73
     1
 44
1.0
1001
ACAD
1000
MTEXTBEGIN
1070
    73
1070
     1
1070
    44
1040
1.0
1070
    74
1070
     0
1000
MTEXTEND
  0
POINT
  5
26056
330
2601A
100
AcDbEntity
  8
DEFPOINTS
 62
     0
 48
50.0
100
AcDbPoint
 10
5367.014752348128
 20
2687.836257816046
 30
0.0
  0
POINT
  5
26057
330
2601A
100
AcDbEntity
  8
DEFPOINTS
 62
     0
 48
50.0
100
AcDbPoint
 10
5266.335284126739
 20
2763.220873200661
 30
0.0
  0
POINT
  5
26058
330
2601A
100
AcDbEntity
  8
DEFPOINTS
 62
     0
 48
50.0
100
AcDbPoint
 10
5266.335284126739
 20
2962.933205964091
 30
0.0
  0
ENDBLK
  5
26026
330
2601A
100
AcDbEntity
  8
0
 48
50.0
100
AcDbBlockEnd
  0
BLOCK
  5
26031
330
26027
100
AcDbEntity
  8
0
 48
50.0
100
AcDbBlockBegin
  2
*D44
 70
     1
 10
0.0
 20
0.0
 30
0.0
  3
*D44
  1

  0
LINE
  5
26046
330
26027
100
AcDbEntity
  8
寸法
 62
     0
 48
50.0
370
    -2
100
AcDbLine
 10
5308.210284126738
 20
2763.220873200661
 30
0.0
 11
6034.355800566355
 21
2763.220873200661
 31
0.0
  0
LINE
  5
26047
330
26027
100
AcDbEntity
  8
寸法
 62
     0
 48
50.0
370
    -2
100
AcDbLine
 10
5392.014752348126
 20
2687.836257816046
 30
0.0
 11
6034.355800566355
 21
2687.836257816046
 31
0.0
  0
LINE
  5
26048
330
26027
100
AcDbEntity
  8
寸法
 62
     0
 48
50.0
370
    -2
100
AcDbLine
 10
5999.355800566354
 20
2763.220873200661
 30
0.0
 11
5999.355800566354
 21
2687.836257816046
 31
0.0
  0
MTEXT
  5
26049
330
26027
100
AcDbEntity
  8
寸法
 62
     7
 48
50.0
100
AcDbMText
 10
5899.341036786827
 20
3213.755230964802
 30
0.0
 40
150.0
 41
0.0
 71
     5
 72
     1
  1
\A1;出20～25
  7
STYLE1
 11
0.0000000000000001
 21
1.0
 31
0.0
 73
     1
 44
1.0
1001
ACAD
1000
MTEXTBEGIN
1070
    73
1070
     1
1070
    44
1040
1.0
1070
    74
1070
     0
1000
MTEXTEND
  0
INSERT
  5
2604A
330
26027
100
AcDbEntity
  8
寸法
 62
     0
 48
50.0
370
    -2
100
AcDbBlockReference
  2
_DOTSMALL
 10
5999.355800566354
 20
2763.220873200661
 30
0.0
 41
125.0
 42
125.0
 43
125.0
 50
90.0
  0
INSERT
  5
2604B
330
26027
100
AcDbEntity
  8
寸法
 62
     0
 48
50.0
370
    -2
100
AcDbBlockReference
  2
_DOTSMALL
 10
5999.355800566354
 20
2687.836257816046
 30
0.0
 41
125.0
 42
125.0
 43
125.0
 50
270.0
  0
POINT
  5
2604C
330
26027
100
AcDbEntity
  8
DEFPOINTS
 62
     0
 48
50.0
100
AcDbPoint
 10
5283.210284126738
 20
2763.220873200661
 30
0.0
  0
POINT
  5
2604D
330
26027
100
AcDbEntity
  8
DEFPOINTS
 62
     0
 48
50.0
100
AcDbPoint
 10
5367.014752348126
 20
2687.836257816046
 30
0.0
  0
POINT
  5
2604E
330
26027
100
AcDbEntity
  8
DEFPOINTS
 62
     0
 48
50.0
100
AcDbPoint
 10
5999.355800566354
 20
2687.836257816046
 30
0.0
  0
ENDBLK
  5
26032
330
26027
100
AcDbEntity
  8
0
 48
50.0
100
AcDbBlockEnd
  0
ENDSEC
  0
SECTION
  2
ENTITIES
  0
MTEXT
  5
763F
330
747D
100
AcDbEntity
  8
0
100
AcDbMText
 10
302.846345836809
 20
280.1983726409901
 30
0.0
 40
3.5
 41
5.323721266742722
 71
     1
 72
     5
  1

  7
MSMINCHO
 73
     1
 44
1.0
1001
ACAD
1000
MTEXTBEGIN
1070
    73
1070
     1
1070
    44
1040
1.0
1070
    74
1070
     0
1000
MTEXTEND
  0
INSERT
  5
F235
330
747D
100
AcDbEntity
  8
0
100
AcDbBlockReference
  2
作図枠S50
 10
0.0
 20
0.0
 30
0.0
  0
LINE
  5
10B56
330
747D
100
AcDbEntity
  8
補助
  6
PHANTOM
 62
   230
 48
50.0
100
AcDbLine
 10
175.0
 20
0.0
 30
0.0
 11
174.9999999999993
 21
14262.0
 31
0.0
  0
LINE
  5
10B57
330
747D
100
AcDbEntity
  8
補助
  6
PHANTOM
 62
   230
 48
50.0
100
AcDbLine
 10
174.9999999999993
 20
14262.0
 30
0.0
 11
20384.0
 21
14262.0
 31
0.0
  0
LINE
  5
10B5C
330
747D
100
AcDbEntity
  8
仕様書枠
 48
50.0
100
AcDbLine
 10
20384.0
 20
1500.0
 30
0.0
 11
20384.0
 21
-0.0000000000001137
 31
0.0
  0
LINE
  5
10B5D
330
747D
100
AcDbEntity
  8
仕様書枠
 48
50.0
100
AcDbLine
 10
175.0
 20
0.0
 30
0.0
 11
20384.0
 21
-0.0000000000001137
 31
0.0
  0
LINE
  5
10B5E
330
747D
100
AcDbEntity
  8
補助
  6
PHANTOM
 62
   230
 48
50.0
100
AcDbLine
 10
20384.0
 20
14262.0
 30
0.0
 11
20384.0
 21
1500.0
 31
0.0
  0
LINE
  5
10B6C
330
747D
100
AcDbEntity
  8
仕様書枠
 48
50.0
100
AcDbLine
 10
16384.0
 20
1500.0
 30
0.0
 11
20384.0
 21
1500.0
 31
0.0
  0
LINE
  5
10B6D
330
747D
100
AcDbEntity
  8
補助
  6
PHANTOM
 62
   230
 48
50.0
100
AcDbLine
 10
16384.0
 20
14262.0
 30
0.0
 11
16384.0
 21
6000.0
 31
0.0
  0
LINE
  5
10B6F
330
747D
100
AcDbEntity
  8
補助
  6
PHANTOM
 62
   230
 48
50.0
100
AcDbLine
 10
16384.0
 20
6000.0
 30
0.0
 11
20384.0
 21
6000.0
 31
0.0
  0
LINE
  5
10B72
330
747D
100
AcDbEntity
  8
文字
 62
     7
 48
50.0
100
AcDbLine
 10
16484.0
 20
500.0
 30
0.0
 11
20284.0
 21
500.0
 31
0.0
  0
TEXT
  5
10B73
330
747D
100
AcDbEntity
  8
文字
 62
     7
 48
50.0
100
AcDbText
 10
16453.72382072112
 20
1118.863259287425
 30
0.0
 40
250.0
  1
基 礎 図
  7
STYLE2
100
AcDbText
  0
LINE
  5
10B7B
330
747D
100
AcDbEntity
  8
仕様書枠
 48
50.0
100
AcDbLine
 10
16384.0
 20
1000.0
 30
0.0
 11
17814.0
 21
1000.0
 31
0.0
  0
LINE
  5
10B88
330
747D
100
AcDbEntity
  8
仕様書枠
  6
Continuous
 48
50.0
100
AcDbLine
 10
17814.0
 20
1500.0
 30
0.0
 11
17814.0
 21
1000.0
 31
0.0
  0
TEXT
  5
10BB0
330
747D
100
AcDbEntity
  8
文字
 62
     7
 48
50.0
100
AcDbText
 10
18011.04151481741
 20
604.8708912389265
 30
0.0
 40
200.0
  1
ＦＸＮ-１０５ＨＤ
  7
STYLE2
100
AcDbText
  0
TEXT
  5
17483
330
747D
100
AcDbEntity
  8
文字
 62
     7
 48
50.0
100
AcDbText
 10
16511.75668531126
 20
270.5931184260625
 30
0.0
 40
100.0
  1
※寒冷地等は、地域の実情に合わせた基礎にしてください。
  7
STYLE2
100
AcDbText
  0
LINE
  5
17484
330
747D
100
AcDbEntity
  8
仕様書枠
  6
Continuous
 48
50.0
100
AcDbLine
 10
16384.00000503976
 20
1499.999992498709
 30
0.0
 11
16384.00000503976
 21
-0.0000075012905659
 31
0.0
  0
TEXT
  5
1A873
330
747D
100
AcDbEntity
  8
文字
 62
     7
 48
50.0
100
AcDbText
 10
18155.16479652749
 20
1289.447132864036
 30
0.0
 40
125.0
  1
NO.33      <縮尺> S=1/50
  7
STYLE2
100
AcDbText
  0
TEXT
  5
1A874
330
747D
100
AcDbEntity
  8
文字
 62
     7
 48
50.0
100
AcDbText
 10
18586.44115196376
 20
1089.955080760453
 30
0.0
 40
125.0
  1
～一般型～
  7
STYLE2
100
AcDbText
  0
TEXT
  5
1A875
330
747D
100
AcDbEntity
  8
文字
 62
     7
 48
50.0
100
AcDbText
 10
16501.79587498051
 20
596.5925826289069
 30
0.0
 40
200.0
  1
機種名
  7
STYLE2
100
AcDbText
  0
LEADER
  5
1D031
330
747D
100
AcDbEntity
  8
寸法
 48
50.0
100
AcDbLeader
  3
INABA_S50G
 71
     0
 73
     0
 74
     0
 75
     1
 40
150.0
 41
840.0
 76
     3
 10
9379.733670939542
 20
7306.483190195901
 30
0.0
 10
9582.509651468035
 20
6795.797560950039
 30
0.0
 10
9707.509651468035
 20
6795.797560950039
 30
0.0
340
1D032
1001
ACAD
1000
DSTYLE
1002
{
1070
   341
1005
11750
1070
    40
1040
1.0
1070
   343
1005
11750
1070
   344
1005
11750
1002
}
  0
MTEXT
  5
1D032
102
{ACAD_REACTORS
330
1D031
102
}
330
747D
100
AcDbEntity
  8
部品1
 62
     7
 48
50.0
100
AcDbMText
 10
10572.50965146803
 20
6895.79756095004
 30
0.0
 40
150.0
 41
0.0
 71
     6
 72
     1
  1
\A1;屋根の外寸
  7
STYLE1
 73
     1
 44
1.0
1001
ACAD
1000
MTEXTBEGIN
1070
    73
1070
     1
1070
    44
1040
1.0
1070
    74
1070
     0
1000
MTEXTEND
  0
TEXT
  5
1D038
330
747D
100
AcDbEntity
  8
部品1
 48
50.0
100
AcDbText
 10
9546.231384191532
 20
6671.659202283696
 30
0.0
 40
100.0
  1
※a,b,cは屋根の出幅です。
  7
STYLE1
100
AcDbText
  0
TEXT
  5
1D039
330
747D
100
AcDbEntity
  8
部品1
 48
50.0
100
AcDbText
 10
9744.455145134409
 20
6538.102676197752
 30
0.0
 40
100.0
  1
(a=45,b=130,c=75)
  7
STYLE1
100
AcDbText
  0
DIMENSION
  5
1EB84
330
747D
100
AcDbEntity
  8
寸法
 48
50.0
100
AcDbDimension
  2
*D9
 10
13939.50248231425
 20
671.7250777562631
 30
0.0
 11
14811.35908403205
 21
671.7250777562631
 31
0.0
 70
   160
  1
基礎面ヨリ<>
 71
     5
 42
19.99999999999855
  3
INABA_S50G詳細S20用
100
AcDbAlignedDimension
 13
13989.50248231424
 23
1375.833239281674
 33
0.0
 14
13939.50248231425
 24
1375.833239281674
 34
0.0
100
AcDbRotatedDimension
1001
ACAD
1000
DSTYLE
1002
{
1070
    40
1040
1.0
1002
}
  0
LINE
  5
1EB89
330
747D
100
AcDbEntity
  8
部品1
 48
50.0
100
AcDbLine
 10
13759.27778669574
 20
1107.228054272188
 30
0.0
 11
16033.91016177418
 21
1107.228054272188
 31
0.0
  0
LINE
  5
1EB8B
330
747D
100
AcDbEntity
  8
部品1
 48
50.0
100
AcDbLine
 10
16033.91016177418
 20
1443.01390645804
 30
0.0
 11
13989.50248231424
 21
1415.080039823297
 31
0.0
  0
LINE
  5
1EB8C
330
747D
100
AcDbEntity
  8
細線
 48
50.0
100
AcDbLine
 10
16033.91016177418
 20
1625.833239281673
 30
0.0
 11
13939.50248231424
 21
1625.833239281673
 31
0.0
  0
LINE
  5
1EB8D
330
747D
100
AcDbEntity
  8
点線
 48
10.0
100
AcDbLine
 10
16033.91016177418
 20
1225.81326423747
 30
0.0
 11
13923.34202623158
 21
1225.81326423747
 31
0.0
  0
LINE
  5
1EB8E
330
747D
100
AcDbEntity
  8
点線
 48
10.0
100
AcDbLine
 10
16033.91016177418
 20
1250.813264237471
 30
0.0
 11
13921.62283794095
 21
1250.813264237472
 31
0.0
  0
LWPOLYLINE
  5
1EB8F
330
747D
100
AcDbEntity
  8
部品1
 48
50.0
100
AcDbPolyline
 90
        4
 70
     0
 43
18.75
 10
2297.56303166156
 20
2116.586257816047
 10
3047.563031661561
 20
2116.586257816047
 42
0.1316524975873961
 10
3201.203048801038
 20
2157.753976333674
 42
-0.1896952380106286
 10
3433.019184262242
 20
2217.442301302959
 42
0.0000000000000023
  0
DIMENSION
  5
1EB95
330
747D
100
AcDbEntity
  8
寸法
 48
50.0
100
AcDbDimension
  2
*D10
 10
2571.064010982187
 20
2437.836257816047
 30
0.0
 11
2571.064010982187
 21
3152.895312934158
 31
0.0
 70
   160
  1
50～180
 71
     5
 42
125.0
  3
INABA_S50G詳細用
100
AcDbAlignedDimension
 13
2297.56303166156
 23
2687.836257816047
 33
0.0
 14
2337.56303166156
 24
2437.836257816047
 34
0.0
 50
90.0
100
AcDbRotatedDimension
1001
ACAD
1000
DSTYLE
1002
{
1070
    40
1040
1.0
1002
}
  0
LINE
  5
1EB9C
330
747D
100
AcDbEntity
  8
部品1
 48
50.0
100
AcDbLine
 10
12816.7544422101
 20
777.8412467600692
 30
0.0
 11
12628.59593629507
 21
777.8412467600692
 31
0.0
  0
LWPOLYLINE
  5
1EB9F
330
747D
100
AcDbEntity
  8
部品1
 48
50.0
100
AcDbPolyline
 90
        2
 70
     0
 10
12343.8299073289
 20
1125.833239281674
 40
18.75
 41
18.75
 10
12816.09593629506
 20
1125.833239281674
 40
12.5
 41
12.5
  0
LINE
  5
1EBA1
330
747D
100
AcDbEntity
  8
部品1
 48
50.0
100
AcDbLine
 10
12628.59593629507
 20
927.7456090520328
 30
0.0
 11
12628.59593629507
 21
777.8412467600692
 31
0.0
  0
TEXT
  5
1EBA2
330
747D
100
AcDbEntity
  8
寸法
 62
     7
 48
50.0
100
AcDbText
 10
12336.34299777372
 20
1148.835224576307
 30
0.0
 40
150.0
  1
▽G.L
  7
STYLE1
100
AcDbText
  0
LINE
  5
1EBA3
330
747D
100
AcDbEntity
  8
部品1
 48
50.0
100
AcDbLine
 10
13727.00248231424
 20
1375.833239281674
 30
0.0
 11
12863.46247700408
 21
1250.417529233225
 31
0.0
  0
LINE
  5
1EBA7
330
747D
100
AcDbEntity
  8
部品1
 48
50.0
100
AcDbLine
 10
13759.27778669574
 20
1107.228054272188
 30
0.0
 11
12816.09593629506
 21
970.2456090520326
 31
0.0
  0
LINE
  5
1EBA8
330
747D
100
AcDbEntity
  8
点線
 48
10.0
100
AcDbLine
 10
13921.62283794095
 20
1250.813264237472
 30
0.0
 11
12907.67596816881
 21
1110.69741323693
 31
0.0
  0
LINE
  5
1EBA9
330
747D
100
AcDbEntity
  8
点線
 48
10.0
100
AcDbLine
 10
13923.34202623159
 20
1225.81326423747
 30
0.0
 11
12911.09816128983
 21
1085.932749010607
 31
0.0
  0
CIRCLE
  5
1EBAD
330
747D
100
AcDbEntity
  8
点線
 48
10.0
100
AcDbCircle
 10
13253.05969011358
 20
1120.569131872702
 30
0.0
 40
12.5
  0
LINE
  5
1EBB0
330
747D
100
AcDbEntity
  8
部品1
 48
50.0
100
AcDbLine
 10
12863.46247700408
 20
1250.417529233225
 30
0.0
 11
12816.09593629506
 21
1207.083239281675
 31
0.0
  0
LINE
  5
1EBB1
330
747D
100
AcDbEntity
  8
部品1
 48
50.0
100
AcDbLine
 10
12816.09593629506
 20
1207.083239281675
 30
0.0
 11
12816.09593629506
 21
970.2456090520326
 31
0.0
  0
CIRCLE
  5
1EBB2
330
747D
100
AcDbEntity
  8
点線
 48
10.0
100
AcDbCircle
 10
13005.41304785037
 20
1086.347200662504
 30
0.0
 40
12.5
  0
LINE
  5
1EBB3
330
747D
100
AcDbEntity
  8
点線
 48
10.0
100
AcDbLine
 10
12907.67596816881
 20
1110.69741323693
 30
0.0
 11
12911.09816128983
 21
1085.932749010607
 31
0.0
  0
CIRCLE
  5
1EBC2
330
747D
100
AcDbEntity
  8
点線
 48
10.0
100
AcDbCircle
 10
13995.99961690323
 20
1223.234925503293
 30
0.0
 40
12.5
  0
CIRCLE
  5
1EBC6
330
747D
100
AcDbEntity
  8
点線
 48
10.0
100
AcDbCircle
 10
13748.35297464001
 20
1189.012994293096
 30
0.0
 40
12.5
  0
CIRCLE
  5
1EBC7
330
747D
100
AcDbEntity
  8
点線
 48
10.0
100
AcDbCircle
 10
13500.7063323768
 20
1154.791063082898
 30
0.0
 40
12.5
  0
ARC
  5
1EBD0
330
747D
100
AcDbEntity
  8
細線
 48
50.0
100
AcDbCircle
 10
13893.07392731424
 20
1536.817191779729
 30
0.0
 40
3.571427749999999
100
AcDbArc
 50
107.4168835437145
 51
180.0
  0
LINE
  5
1EBF4
330
747D
100
AcDbEntity
  8
細線
 48
50.0
100
AcDbLine
 10
13892.00492052962
 20
1540.22487730922
 30
0.0
 11
13902.41725216582
 21
1543.49127412502
 31
0.0
  0
ARC
  5
1EBF6
330
747D
100
AcDbEntity
  8
細線
 48
50.0
100
AcDbCircle
 10
13900.21174070959
 20
1553.976100531673
 30
0.0
 40
10.71428325
100
AcDbArc
 50
281.8791319701481
 51
159.0160211803571
  0
LINE
  5
1EC07
330
747D
100
AcDbEntity
  8
部品1
 48
50.0
100
AcDbLine
 10
13989.50248231424
 20
1415.080039823297
 30
0.0
 11
13989.50248231424
 21
1375.833239281674
 31
0.0
  0
LINE
  5
1EC08
330
747D
100
AcDbEntity
  8
細線
 48
50.0
100
AcDbLine
 10
13939.50248231425
 20
1375.833239281674
 30
0.0
 11
13939.50248231424
 21
1625.833239281673
 31
0.0
  0
LINE
  5
1EC0A
330
747D
100
AcDbEntity
  8
部品1
 48
50.0
100
AcDbLine
 10
13727.00248231424
 20
1375.833239281674
 30
0.0
 11
13989.50248231424
 21
1375.833239281674
 31
0.0
  0
DIMENSION
  5
1EC0C
330
747D
100
AcDbEntity
  8
寸法
 48
50.0
100
AcDbDimension
  2
*D11
 10
764.0692048150854
 20
1337.836257816047
 30
0.0
 11
664.0692048150851
 21
2012.836257816047
 31
0.0
 70
    32
 71
     5
 42
540.0
  3
INABA_S50G詳細S20用
100
AcDbAlignedDimension
 13
1997.56303166156
 23
2687.836257816047
 33
0.0
 14
1647.56303166156
 24
1337.836257816047
 34
0.0
 50
90.0
100
AcDbRotatedDimension
1001
ACAD
1000
DSTYLE
1002
{
1070
    40
1040
1.0
1002
}
  0
HATCH
  5
1EC0D
330
747D
100
AcDbEntity
  8
細線
 48
50.0
100
AcDbHatch
 10
0.0
 20
0.0
 30
0.0
210
0.0
220
0.0
230
1.0
  2
PLAST
 70
     0
 71
     1
 91
        2
 92
        7
 72
     0
 73
     1
 93
        8
 10
2297.56303166156
 20
2687.836257816047
 10
1997.56303166156
 20
2687.836257816048
 10
1997.56303166156
 20
1712.836257816047
 10
1772.56303166156
 20
1712.836257816047
 10
1772.56303166156
 20
1337.836257816047
 10
2522.56303166156
 20
1337.836257816047
 10
2522.56303166156
 20
1712.836257816047
 10
2297.56303166156
 20
1712.836257816047
 97
        8
330
1EC6F
330
1EC10
330
1EC16
330
1EC1C
330
1EC18
330
1EC37
330
1EC38
330
1EC11
 92
       22
 72
     1
 73
     1
 93
       28
 10
2188.813031661551
 20
1540.336257816047
 42
-0.0963961176292879
 10
2185.894024097047
 20
1525.336257816048
 42
0.0
 10
2347.56303166156
 20
1525.336257816049
 42
-0.4142135623730472
 10
2335.06303166156
 20
1537.836257816047
 42
-1.0
 10
2360.06303166156
 20
1537.836257816047
 42
-0.4142135623730472
 10
2347.56303166156
 20
1525.336257816049
 42
0.0
 10
2372.563031661569
 20
1525.336257816049
 42
0.0
 10
2372.56303166156
 20
1500.336257816047
 42
0.0
 10
1922.56303166156
 20
1500.336257816047
 42
0.0
 10
1922.56303166156
 20
1525.336257816046
 42
0.0
 10
1947.56303166156
 20
1525.336257816047
 42
-0.4142135623730951
 10
1935.06303166156
 20
1537.836257816047
 42
-1.0
 10
1960.06303166156
 20
1537.836257816047
 42
-0.4142135623730898
 10
1947.56303166156
 20
1525.336257816047
 42
0.0
 10
2109.232039226065
 20
1525.336257816048
 42
-0.0963961176293235
 10
2106.313031661542
 20
1540.336257816048
 42
0.0
 10
2106.313031661533
 20
1641.586257816051
 42
0.0
 10
2131.31303166156
 20
1641.586257816049
 42
0.0
 10
2131.313031661569
 20
1541.586257816045
 42
-1.0
 10
2163.813031661551
 20
1541.586257816046
 42
0.0
 10
2163.81303166156
 20
2546.586257816047
 42
-1.0
 10
2131.313031661569
 20
2546.586257816048
 42
0.0
 10
2131.31303166156
 20
2446.586257816047
 42
0.0
 10
2106.313031661533
 20
2446.586257816045
 42
0.0
 10
2106.313031661542
 20
2547.836257816045
 42
-0.414213562372882
 10
2146.313031661513
 20
2587.836257816045
 42
0.0
 10
2148.813031661569
 20
2587.836257816047
 42
-0.4142135623731017
 10
2188.813031661569
 20
2547.836257816046
 42
0.0
 97
       21
330
1EC3F
330
1EC42
330
1EC36
330
1EC35
330
1EC41
330
1EC3C
330
1EC3D
330
1EC3B
330
1EC3A
330
1EC39
330
1EC3E
330
1EC40
330
1EC0E
330
1EC6E
330
1EC4F
330
1EC5E
330
1EC4E
330
1EC6B
330
1EC6D
330
1EC6C
330
1EC0F
 75
     0
 76
     1
 52
45.0
 41
37.5
 77
     0
 78
     3
 53
45.0
 43
-15422.03110238403
 44
13531.29434457208
 45
-168.3798022700466
 46
168.3798022700466
 79
     0
 53
45.0
 43
-15443.07857766778
 44
13552.34181985583
 45
-168.3798022700466
 46
168.3798022700466
 79
     0
 53
45.0
 43
-15464.12605295154
 44
13573.38929513959
 45
-168.3798022700466
 46
168.3798022700466
 79
     0
 47
4.554250812093354
 98
        2
 10
2223.97523112571
 20
2358.371009898923
 10
2223.97523112571
 20
2358.371009898923
  0
LINE
  5
1EC0E
102
{ACAD_REACTORS
330
1EC0D
102
}
330
747D
100
AcDbEntity
  8
部品1
 48
50.0
100
AcDbLine
 10
2163.81303166156
 20
2547.836257816047
 30
0.0
 11
2163.813031661551
 21
1540.336257816049
 31
0.0
  0
LINE
  5
1EC0F
102
{ACAD_REACTORS
330
1EC0D
102
}
330
747D
100
AcDbEntity
  8
部品1
 48
50.0
100
AcDbLine
 10
2188.813031661569
 20
2547.836257816047
 30
0.0
 11
2188.813031661551
 21
1540.336257816047
 31
0.0
  0
LINE
  5
1EC10
102
{ACAD_REACTORS
330
1EC0D
102
}
330
747D
100
AcDbEntity
  8
部品1
 48
50.0
100
AcDbLine
 10
1997.56303166156
 20
1712.836257816047
 30
0.0
 11
1997.56303166156
 21
2687.836257816047
 31
0.0
  0
LINE
  5
1EC11
102
{ACAD_REACTORS
330
1EC0D
102
}
330
747D
100
AcDbEntity
  8
部品1
 48
50.0
100
AcDbLine
 10
2297.56303166156
 20
2687.836257816047
 30
0.0
 11
2297.56303166156
 21
1712.836257816047
 31
0.0
  0
DIMENSION
  5
1EC14
330
747D
100
AcDbEntity
  8
寸法
 48
50.0
100
AcDbDimension
  2
*D12
 10
2522.56303166156
 20
863.2127083130912
 30
0.0
 11
2147.563031661561
 21
963.2127083130912
 31
0.0
 70
    32
 71
     5
 42
299.9999999999998
  3
INABA_S50G詳細S20用
100
AcDbAlignedDimension
 13
1772.563031661561
 23
1137.836257816045
 33
0.0
 14
2522.56303166156
 24
1137.836257816046
 34
0.0
100
AcDbRotatedDimension
1001
ACAD
1000
DSTYLE
1002
{
1070
    40
1040
1.0
1002
}
  0
HATCH
  5
1EC15
330
747D
100
AcDbEntity
  8
細線
 48
50.0
100
AcDbHatch
 10
0.0
 20
0.0
 30
0.0
210
0.0
220
0.0
230
1.0
  2
LINE
 70
     0
 71
     1
 91
        1
 92
        7
 72
     0
 73
     1
 93
        4
 10
2647.56303166156
 20
1137.836257816047
 10
2647.563031661561
 20
1337.836257816047
 10
1647.56303166156
 20
1337.836257816047
 10
1647.56303166156
 20
1137.836257816044
 97
        4
330
1EC18
330
1EC1D
330
1EC17
330
1EC45
 75
     0
 76
     1
 52
75.0
 41
37.5
 77
     0
 78
     1
 53
75.0
 43
-15422.03110238403
 44
13531.29434457208
 45
-115.0055436925422
 46
30.81564255751887
 79
     0
 47
2.300206460912943
 98
        1
 10
2159.059348618007
 20
1228.370023041456
  0
LINE
  5
1EC16
102
{ACAD_REACTORS
330
1EC0D
102
}
330
747D
100
AcDbEntity
  8
部品1
 48
50.0
100
AcDbLine
 10
1772.56303166156
 20
1712.836257816047
 30
0.0
 11
1997.56303166156
 21
1712.836257816047
 31
0.0
  0
LINE
  5
1EC17
102
{ACAD_REACTORS
330
1EC15
102
}
330
747D
100
AcDbEntity
  8
部品1
 48
50.0
100
AcDbLine
 10
2647.56303166156
 20
1137.836257816047
 30
0.0
 11
1647.56303166156
 21
1137.836257816044
 31
0.0
  0
LINE
  5
1EC18
102
{ACAD_REACTORS
330
1EC0D
330
1EC15
102
}
330
747D
100
AcDbEntity
  8
部品1
 48
50.0
100
AcDbLine
 10
2647.56303166156
 20
1337.836257816047
 30
0.0
 11
1647.56303166156
 21
1337.836257816047
 31
0.0
  0
LINE
  5
1EC1A
330
747D
100
AcDbEntity
  8
細線
 48
50.0
100
AcDbLine
 10
1765.629578708709
 20
1312.836257816047
 30
0.0
 11
1758.930848897931
 21
1337.836257816047
 31
0.0
  0
LINE
  5
1EC1B
330
747D
100
AcDbEntity
  8
細線
 48
50.0
100
AcDbLine
 10
1732.13592965482
 20
1137.836257816044
 30
0.0
 11
1725.43719984404
 21
1162.836257816051
 31
0.0
  0
LINE
  5
1EC1C
102
{ACAD_REACTORS
330
1EC0D
102
}
330
747D
100
AcDbEntity
  8
部品1
 48
50.0
100
AcDbLine
 10
1772.56303166156
 20
1337.836257816047
 30
0.0
 11
1772.56303166156
 21
1712.836257816047
 31
0.0
  0
LINE
  5
1EC1D
102
{ACAD_REACTORS
330
1EC15
102
}
330
747D
100
AcDbEntity
  8
部品1
 48
50.0
100
AcDbLine
 10
1647.56303166156
 20
1137.836257816044
 30
0.0
 11
1647.56303166156
 21
1337.836257816047
 31
0.0
  0
LINE
  5
1EC29
330
747D
100
AcDbEntity
  8
細線
 48
50.0
100
AcDbLine
 10
1855.398499884896
 20
1137.836257816044
 30
0.0
 11
1848.699770074114
 21
1162.836257816056
 31
0.0
  0
LINE
  5
1EC2A
330
747D
100
AcDbEntity
  8
細線
 48
50.0
100
AcDbLine
 10
2012.154719168856
 20
1312.836257816042
 30
0.0
 11
2005.455989358075
 21
1337.836257816047
 31
0.0
  0
LINE
  5
1EC2B
330
747D
100
AcDbEntity
  8
細線
 48
50.0
100
AcDbLine
 10
2135.41728939893
 20
1312.836257816042
 30
0.0
 11
2128.71855958815
 21
1337.836257816047
 31
0.0
  0
LINE
  5
1EC2C
330
747D
100
AcDbEntity
  8
細線
 48
50.0
100
AcDbLine
 10
2258.679859629004
 20
1312.836257816037
 30
0.0
 11
2251.981129818224
 21
1337.836257816044
 31
0.0
  0
LINE
  5
1EC2D
330
747D
100
AcDbEntity
  8
細線
 48
50.0
100
AcDbLine
 10
2381.942429859081
 20
1312.836257816042
 30
0.0
 11
2375.243700048303
 21
1337.836257816042
 31
0.0
  0
LINE
  5
1EC2E
330
747D
100
AcDbEntity
  8
細線
 48
50.0
100
AcDbLine
 10
2505.205000089157
 20
1312.836257816037
 30
0.0
 11
2498.506270278378
 21
1337.836257816044
 31
0.0
  0
LINE
  5
1EC2F
330
747D
100
AcDbEntity
  8
細線
 48
50.0
100
AcDbLine
 10
1888.892148938781
 20
1312.836257816047
 30
0.0
 11
1882.193419128003
 21
1337.836257816047
 31
0.0
  0
LINE
  5
1EC30
330
747D
100
AcDbEntity
  8
細線
 48
50.0
100
AcDbLine
 10
1978.661070114971
 20
1137.836257816042
 30
0.0
 11
1971.96234030419
 21
1162.836257816049
 31
0.0
  0
LINE
  5
1EC31
330
747D
100
AcDbEntity
  8
細線
 48
50.0
100
AcDbLine
 10
2101.923640345047
 20
1137.836257816042
 30
0.0
 11
2095.224910534265
 21
1162.836257816053
 31
0.0
  0
LINE
  5
1EC32
330
747D
100
AcDbEntity
  8
細線
 48
50.0
100
AcDbLine
 10
2225.186210575122
 20
1137.836257816042
 30
0.0
 11
2218.487480764341
 21
1162.836257816049
 31
0.0
  0
LINE
  5
1EC33
330
747D
100
AcDbEntity
  8
細線
 48
50.0
100
AcDbLine
 10
2348.448780805198
 20
1137.836257816042
 30
0.0
 11
2341.750050994418
 21
1162.836257816053
 31
0.0
  0
LINE
  5
1EC34
330
747D
100
AcDbEntity
  8
細線
 48
50.0
100
AcDbLine
 10
2471.711351035273
 20
1137.836257816042
 30
0.0
 11
2465.012621224492
 21
1162.836257816049
 31
0.0
  0
LINE
  5
1EC35
102
{ACAD_REACTORS
330
1EC0D
102
}
330
747D
100
AcDbEntity
  8
部品1
 48
50.0
100
AcDbLine
 10
2372.563031661569
 20
1525.336257816047
 30
0.0
 11
2372.56303166156
 21
1500.336257816047
 31
0.0
  0
CIRCLE
  5
1EC36
102
{ACAD_REACTORS
330
1EC0D
102
}
330
747D
100
AcDbEntity
  8
部品1
 48
50.0
100
AcDbCircle
 10
2347.56303166156
 20
1537.836257816047
 30
0.0
 40
12.5
  0
LINE
  5
1EC37
102
{ACAD_REACTORS
330
1EC0D
102
}
330
747D
100
AcDbEntity
  8
部品1
 48
50.0
100
AcDbLine
 10
2522.56303166156
 20
1712.836257816047
 30
0.0
 11
2522.56303166156
 21
1337.836257816047
 31
0.0
  0
LINE
  5
1EC38
102
{ACAD_REACTORS
330
1EC0D
102
}
330
747D
100
AcDbEntity
  8
部品1
 48
50.0
100
AcDbLine
 10
2297.56303166156
 20
1712.836257816047
 30
0.0
 11
2522.56303166156
 21
1712.836257816047
 31
0.0
  0
LINE
  5
1EC39
102
{ACAD_REACTORS
330
1EC0D
102
}
330
747D
100
AcDbEntity
  8
部品1
 48
50.0
100
AcDbLine
 10
2106.313031661533
 20
1641.586257816051
 30
0.0
 11
2131.313031661569
 21
1641.586257816049
 31
0.0
  0
LINE
  5
1EC3A
102
{ACAD_REACTORS
330
1EC0D
102
}
330
747D
100
AcDbEntity
  8
部品1
 48
50.0
100
AcDbLine
 10
2106.313031661542
 20
1540.336257816051
 30
0.0
 11
2106.313031661533
 21
1641.586257816051
 31
0.0
  0
ARC
  5
1EC3B
102
{ACAD_REACTORS
330
1EC0D
102
}
330
747D
100
AcDbEntity
  8
部品1
 48
50.0
100
AcDbCircle
 10
2146.313031661542
 20
1540.336257816051
 30
0.0
 40
40.0
100
AcDbArc
 50
180.0
 51
202.0243128370433
  0
LINE
  5
1EC3C
102
{ACAD_REACTORS
330
1EC0D
102
}
330
747D
100
AcDbEntity
  8
部品1
 48
50.0
100
AcDbLine
 10
1922.56303166156
 20
1500.336257816047
 30
0.0
 11
1922.56303166156
 21
1525.336257816047
 31
0.0
  0
CIRCLE
  5
1EC3D
102
{ACAD_REACTORS
330
1EC0D
102
}
330
747D
100
AcDbEntity
  8
部品1
 48
50.0
100
AcDbCircle
 10
1947.56303166156
 20
1537.836257816047
 30
0.0
 40
12.5
  0
LINE
  5
1EC3E
102
{ACAD_REACTORS
330
1EC0D
102
}
330
747D
100
AcDbEntity
  8
部品1
 48
50.0
100
AcDbLine
 10
2131.313031661569
 20
1540.336257816051
 30
0.0
 11
2131.31303166156
 21
1641.586257816051
 31
0.0
  0
ARC
  5
1EC3F
102
{ACAD_REACTORS
330
1EC0D
102
}
330
747D
100
AcDbEntity
  8
部品1
 48
50.0
100
AcDbCircle
 10
2148.813031661569
 20
1540.336257816049
 30
0.0
 40
40.0
100
AcDbArc
 50
337.9756871629567
 51
0.0
  0
CIRCLE
  5
1EC40
102
{ACAD_REACTORS
330
1EC0D
102
}
330
747D
100
AcDbEntity
  8
部品1
 48
50.0
100
AcDbCircle
 10
2147.56303166156
 20
1541.586257816047
 30
0.0
 40
16.25
  0
LINE
  5
1EC41
102
{ACAD_REACTORS
330
1EC0D
102
}
330
747D
100
AcDbEntity
  8
部品1
 48
50.0
100
AcDbLine
 10
1922.56303166156
 20
1500.336257816047
 30
0.0
 11
2372.56303166156
 21
1500.336257816047
 31
0.0
  0
LINE
  5
1EC42
102
{ACAD_REACTORS
330
1EC0D
102
}
330
747D
100
AcDbEntity
  8
部品1
 48
50.0
100
AcDbLine
 10
1922.56303166156
 20
1525.336257816047
 30
0.0
 11
2372.563031661579
 21
1525.336257816049
 31
0.0
  0
LINE
  5
1EC43
330
747D
100
AcDbEntity
  8
細線
 48
50.0
100
AcDbLine
 10
2628.467570319231
 20
1312.83625781604
 30
0.0
 11
2621.768840508453
 21
1337.836257816042
 31
0.0
  0
LINE
  5
1EC44
330
747D
100
AcDbEntity
  8
細線
 48
50.0
100
AcDbLine
 10
2594.973921265347
 20
1137.836257816042
 30
0.0
 11
2588.275191454567
 21
1162.836257816047
 31
0.0
  0
LINE
  5
1EC45
102
{ACAD_REACTORS
330
1EC15
102
}
330
747D
100
AcDbEntity
  8
部品1
 48
50.0
100
AcDbLine
 10
2647.56303166156
 20
1337.836257816047
 30
0.0
 11
2647.56303166156
 21
1137.836257816047
 31
0.0
  0
LWPOLYLINE
  5
1EC4C
330
747D
100
AcDbEntity
  8
部品1
 48
50.0
100
AcDbPolyline
 90
        2
 70
     0
 10
834.985258687247
 20
2187.836257816047
 40
18.75
 41
18.75
 10
1997.56303166156
 20
2187.836257816047
 40
12.5
 41
12.5
  0
TEXT
  5
1EC4D
330
747D
100
AcDbEntity
  8
寸法
 62
     7
 48
50.0
100
AcDbText
 10
887.2463631744754
 20
2207.130984647789
 30
0.0
 40
150.0
  1
▽G.L
  7
STYLE1
100
AcDbText
  0
LINE
  5
1EC4E
102
{ACAD_REACTORS
330
1EC0D
102
}
330
747D
100
AcDbEntity
  8
部品1
 48
50.0
100
AcDbLine
 10
2106.313031661542
 20
2547.836257816045
 30
0.0
 11
2106.313031661533
 21
2446.586257816045
 31
0.0
  0
LINE
  5
1EC4F
102
{ACAD_REACTORS
330
1EC0D
102
}
330
747D
100
AcDbEntity
  8
部品1
 48
50.0
100
AcDbLine
 10
2131.313031661569
 20
2547.836257816045
 30
0.0
 11
2131.31303166156
 21
2446.586257816045
 31
0.0
  0
LINE
  5
1EC50
330
747D
100
AcDbEntity
  8
点線
 48
10.0
100
AcDbLine
 10
2447.563031661562
 20
2265.110237413943
 30
0.0
 11
3072.233527919128
 21
2265.110237413941
 31
0.0
  0
LINE
  5
1EC51
330
747D
100
AcDbEntity
  8
点線
 48
10.0
100
AcDbLine
 10
2447.563031661562
 20
2290.110237413943
 30
0.0
 11
3072.233527919128
 21
2290.110237413943
 31
0.0
  0
HATCH
  5
1EC52
330
747D
100
AcDbEntity
  8
細線
 48
50.0
100
AcDbHatch
 10
0.0
 20
0.0
 30
0.0
210
0.0
220
0.0
230
1.0
  2
LINE
 70
     0
 71
     0
 91
        1
 92
        7
 72
     0
 73
     1
 93
        4
 10
3072.233527919128
 20
1945.336257816047
 10
3072.233527919128
 20
2095.336257816047
 10
2297.56303166156
 20
2095.336257816045
 10
2297.56303166156
 20
1945.336257816047
 97
        0
 75
     0
 76
     1
 52
75.0
 41
37.5
 77
     0
 78
     1
 53
75.0
 43
-15422.03110238403
 44
13656.29434457208
 45
-115.0055436925422
 46
30.81564255751887
 79
     0
 47
3.779414263666604
 98
        1
 10
2490.761563230313
 20
1992.113012399472
  0
HATCH
  5
1EC53
330
747D
100
AcDbEntity
  8
細線
 48
50.0
100
AcDbHatch
 10
0.0
 20
0.0
 30
0.0
210
0.0
220
0.0
230
1.0
  2
PLAST
 70
     0
 71
     0
 91
        1
 92
        7
 72
     0
 73
     1
 93
        4
 10
2297.56303166156
 20
2437.836257816045
 10
2297.563031661558
 20
2137.836257816047
 10
3072.233527919128
 20
2137.836257816045
 10
3072.233527919126
 20
2437.836257816047
 97
        0
 75
     0
 76
     1
 52
135.0
 41
37.5
 77
     0
 78
     3
 53
135.0
 43
-15422.03110238403
 44
13656.29434457208
 45
-168.3798022700466
 46
-168.3798022700466
 79
     0
 53
135.0
 43
-15443.07857766778
 44
13635.24686928832
 45
-168.3798022700466
 46
-168.3798022700466
 79
     0
 53
135.0
 43
-15464.12605295154
 44
13614.19939400457
 45
-168.3798022700466
 46
-168.3798022700466
 79
     0
 47
2.426480319498133
 98
        1
 10
2578.300424994955
 20
2310.549080274517
  0
LINE
  5
1EC54
330
747D
100
AcDbEntity
  8
部品1
 48
50.0
100
AcDbLine
 10
2297.56303166156
 20
1945.336257816047
 30
0.0
 11
3072.233527919128
 21
1945.336257816047
 31
0.0
  0
LINE
  5
1EC55
330
747D
100
AcDbEntity
  8
部品1
 48
50.0
100
AcDbLine
 10
2297.56303166156
 20
2095.336257816047
 30
0.0
 11
3072.233527919128
 21
2095.336257816047
 31
0.0
  0
LINE
  5
1EC56
330
747D
100
AcDbEntity
  8
部品1
 48
50.0
100
AcDbLine
 10
2297.56303166156
 20
2137.836257816047
 30
0.0
 11
3072.233527919128
 21
2137.836257816047
 31
0.0
  0
LINE
  5
1EC57
330
747D
100
AcDbEntity
  8
部品1
 48
50.0
100
AcDbLine
 10
2297.56303166156
 20
2437.836257816047
 30
0.0
 11
3072.233527919128
 21
2437.836257816047
 31
0.0
  0
LINE
  5
1EC58
330
747D
100
AcDbEntity
  8
細線
 48
50.0
100
AcDbLine
 10
2551.420294071767
 20
2070.336257816042
 30
0.0
 11
2544.721564260986
 21
2095.336257816047
 31
0.0
  0
LINE
  5
1EC59
330
747D
100
AcDbEntity
  8
細線
 48
50.0
100
AcDbLine
 10
2428.157723841692
 20
2070.336257816042
 30
0.0
 11
2421.458994030912
 21
2095.336257816047
 31
0.0
  0
LINE
  5
1EC5A
330
747D
100
AcDbEntity
  8
細線
 48
50.0
100
AcDbLine
 10
2304.895153611618
 20
2070.336257816047
 30
0.0
 11
2298.19642380084
 21
2095.336257816047
 31
0.0
  0
LINE
  5
1EC5B
330
747D
100
AcDbEntity
  8
細線
 48
50.0
100
AcDbLine
 10
2531.324104639439
 20
1945.336257816047
 30
0.0
 11
2524.625374828658
 21
1970.336257816057
 31
0.0
  0
LINE
  5
1EC5C
330
747D
100
AcDbEntity
  8
細線
 48
50.0
100
AcDbLine
 10
2408.061534409364
 20
1945.336257816047
 30
0.0
 11
2401.362804598583
 21
1970.336257816054
 31
0.0
  0
CIRCLE
  5
1EC5D
330
747D
100
AcDbEntity
  8
点線
 48
10.0
100
AcDbCircle
 10
2478.749734686831
 20
2302.610237413941
 30
0.0
 40
12.5
  0
LINE
  5
1EC5E
102
{ACAD_REACTORS
330
1EC0D
102
}
330
747D
100
AcDbEntity
  8
部品1
 48
50.0
100
AcDbLine
 10
2106.313031661533
 20
2446.586257816045
 30
0.0
 11
2131.313031661569
 21
2446.586257816047
 31
0.0
  0
LINE
  5
1EC5F
330
747D
100
AcDbEntity
  8
細線
 48
50.0
100
AcDbLine
 10
3044.470574992069
 20
2070.336257816039
 30
0.0
 11
3037.77184518129
 21
2095.336257816042
 31
0.0
  0
LINE
  5
1EC60
330
747D
100
AcDbEntity
  8
細線
 48
50.0
100
AcDbLine
 10
2921.208004761994
 20
2070.336257816038
 30
0.0
 11
2914.509274951214
 21
2095.336257816045
 31
0.0
  0
LINE
  5
1EC61
330
747D
100
AcDbEntity
  8
細線
 48
50.0
100
AcDbLine
 10
2797.945434531917
 20
2070.336257816042
 30
0.0
 11
2791.246704721139
 21
2095.336257816042
 31
0.0
  0
LINE
  5
1EC62
330
747D
100
AcDbEntity
  8
細線
 48
50.0
100
AcDbLine
 10
2674.682864301841
 20
2070.336257816038
 30
0.0
 11
2667.984134491061
 21
2095.336257816045
 31
0.0
  0
LINE
  5
1EC63
330
747D
100
AcDbEntity
  8
細線
 48
50.0
100
AcDbLine
 10
3024.374385559739
 20
1945.336257816047
 30
0.0
 11
3017.675655748959
 21
1970.336257816051
 31
0.0
  0
LINE
  5
1EC64
330
747D
100
AcDbEntity
  8
細線
 48
50.0
100
AcDbLine
 10
2901.111815329664
 20
1945.336257816047
 30
0.0
 11
2894.413085518884
 21
1970.336257816054
 31
0.0
  0
LINE
  5
1EC65
330
747D
100
AcDbEntity
  8
細線
 48
50.0
100
AcDbLine
 10
2777.849245099591
 20
1945.336257816047
 30
0.0
 11
2771.150515288811
 21
1970.336257816057
 31
0.0
  0
LINE
  5
1EC66
330
747D
100
AcDbEntity
  8
細線
 48
50.0
100
AcDbLine
 10
2654.586674869514
 20
1945.336257816047
 30
0.0
 11
2647.887945058733
 21
1970.336257816054
 31
0.0
  0
CIRCLE
  5
1EC67
330
747D
100
AcDbEntity
  8
点線
 48
10.0
100
AcDbCircle
 10
2978.749734686831
 20
2302.610237413941
 30
0.0
 40
12.5
  0
CIRCLE
  5
1EC68
330
747D
100
AcDbEntity
  8
点線
 48
10.0
100
AcDbCircle
 10
2728.749734686831
 20
2302.610237413941
 30
0.0
 40
12.5
  0
TEXT
  5
1EC69
330
747D
100
AcDbEntity
  8
寸法
 62
     7
 48
50.0
100
AcDbText
 10
2640.944311759501
 20
2458.762019832338
 30
0.0
 40
150.0
  1
▽F.L
  7
STYLE1
100
AcDbText
  0
DIMENSION
  5
1EC6A
330
747D
100
AcDbEntity
  8
寸法
 48
50.0
100
AcDbDimension
  2
*D13
 10
1997.56303166156
 20
3087.656996658628
 30
0.0
 11
2147.56303166156
 21
3187.671760438156
 31
0.0
 70
    32
 71
     5
 42
120.0
  3
INABA_S50G詳細S20用
100
AcDbAlignedDimension
 13
2297.56303166156
 23
2687.836257816047
 33
0.0
 14
1997.56303166156
 24
2687.836257816047
 34
0.0
100
AcDbRotatedDimension
1001
ACAD
1000
DSTYLE
1002
{
1070
    40
1040
1.0
1002
}
  0
ARC
  5
1EC6B
102
{ACAD_REACTORS
330
1EC0D
102
}
330
747D
100
AcDbEntity
  8
部品1
 48
50.0
100
AcDbCircle
 10
2146.313031661542
 20
2547.836257816045
 30
0.0
 40
40.0
100
AcDbArc
 50
90.0
 51
180.0
  0
ARC
  5
1EC6C
102
{ACAD_REACTORS
330
1EC0D
102
}
330
747D
100
AcDbEntity
  8
部品1
 48
50.0
100
AcDbCircle
 10
2148.813031661569
 20
2547.836257816047
 30
0.0
 40
40.0
100
AcDbArc
 50
0.0
 51
90.0
  0
LINE
  5
1EC6D
102
{ACAD_REACTORS
330
1EC0D
102
}
330
747D
100
AcDbEntity
  8
部品1
 48
50.0
100
AcDbLine
 10
2146.313031661542
 20
2587.836257816045
 30
0.0
 11
2148.813031661569
 21
2587.836257816047
 31
0.0
  0
CIRCLE
  5
1EC6E
102
{ACAD_REACTORS
330
1EC0D
102
}
330
747D
100
AcDbEntity
  8
部品1
 48
50.0
100
AcDbCircle
 10
2147.56303166156
 20
2546.586257816047
 30
0.0
 40
16.25
  0
LINE
  5
1EC6F
102
{ACAD_REACTORS
330
1EC0D
102
}
330
747D
100
AcDbEntity
  8
部品1
 48
50.0
100
AcDbLine
 10
1997.56303166156
 20
2687.836257816047
 30
0.0
 11
2297.56303166156
 21
2687.836257816047
 31
0.0
  0
LINE
  5
1EC81
102
{ACAD_REACTORS
330
22EF4
102
}
330
747D
100
AcDbEntity
  8
部品1
 48
50.0
100
AcDbLine
 10
10933.08719874706
 20
1583.470190317738
 30
0.0
 11
10933.08719874706
 21
2341.863780633977
 31
0.0
  0
LINE
  5
1EC82
102
{ACAD_REACTORS
330
22EF4
102
}
330
747D
100
AcDbEntity
  8
部品1
 48
50.0
100
AcDbLine
 10
10633.08719874705
 20
1533.470190317737
 30
0.0
 11
10633.08719874705
 21
2268.092530673375
 31
0.0
  0
LINE
  5
1EC89
102
{ACAD_REACTORS
330
21D4E
102
}
330
747D
100
AcDbEntity
  8
部品1
 48
50.0
100
AcDbLine
 10
7602.225886326824
 20
1812.836257816046
 30
0.0
 11
7602.225886326817
 21
3366.214646802934
 31
0.0
  0
LINE
  5
1EC8A
102
{ACAD_REACTORS
330
21D4E
102
}
330
747D
100
AcDbEntity
  8
部品1
 48
50.0
100
AcDbLine
 10
7739.725886326823
 20
1812.836257816046
 30
0.0
 11
7739.725886326818
 21
3366.214646802934
 31
0.0
  0
LINE
  5
1EC8B
102
{ACAD_REACTORS
330
21D4E
102
}
330
747D
100
AcDbEntity
  8
部品1
 48
50.0
100
AcDbLine
 10
7859.725886326824
 20
2062.836257816046
 30
0.0
 11
7859.725886326818
 21
3366.214646802934
 31
0.0
  0
CIRCLE
  5
1ECA7
330
747D
100
AcDbEntity
  8
点線
 48
10.0
100
AcDbCircle
 10
14726.4459985151
 20
1213.313264237472
 30
0.0
 40
12.5
  0
CIRCLE
  5
1ECA8
330
747D
100
AcDbEntity
  8
点線
 48
10.0
100
AcDbCircle
 10
14476.4459985151
 20
1213.313264237472
 30
0.0
 40
12.5
  0
CIRCLE
  5
1ECAC
330
747D
100
AcDbEntity
  8
点線
 48
10.0
100
AcDbCircle
 10
14226.4459985151
 20
1213.313264237472
 30
0.0
 40
12.5
  0
CIRCLE
  5
1ECB3
330
747D
100
AcDbEntity
  8
点線
 48
10.0
100
AcDbCircle
 10
15226.4459985151
 20
1213.313264237472
 30
0.0
 40
12.5
  0
CIRCLE
  5
1ECB4
330
747D
100
AcDbEntity
  8
点線
 48
10.0
100
AcDbCircle
 10
15476.4459985151
 20
1213.313264237472
 30
0.0
 40
12.5
  0
CIRCLE
  5
1ECB6
330
747D
100
AcDbEntity
  8
点線
 48
10.0
100
AcDbCircle
 10
14976.4459985151
 20
1213.313264237472
 30
0.0
 40
12.5
  0
CIRCLE
  5
1ECCE
330
747D
100
AcDbEntity
  8
点線
 48
10.0
100
AcDbCircle
 10
15976.4459985151
 20
1213.313264237472
 30
0.0
 40
12.5
  0
CIRCLE
  5
1ECD0
330
747D
100
AcDbEntity
  8
点線
 48
10.0
100
AcDbCircle
 10
15726.4459985151
 20
1213.313264237472
 30
0.0
 40
12.5
  0
DIMENSION
  5
1ED2C
330
747D
100
AcDbEntity
  8
寸法
 48
50.0
100
AcDbDimension
  2
*D3
 10
8108.475886326816
 20
861.5329970023344
 30
0.0
 11
7670.975886326822
 21
961.5329970023344
 31
0.0
 70
    32
  1
\U+25A1<>
 71
     5
 42
349.9999999999949
  3
INABA_S50G詳細S20用
100
AcDbAlignedDimension
 13
7233.475886326829
 23
1237.836257816044
 33
0.0
 14
8108.475886326816
 24
1237.836257816046
 34
0.0
100
AcDbRotatedDimension
1001
ACAD
1000
DSTYLE
1002
{
1070
    40
1040
1.0
1002
}
  0
LINE
  5
1ED2D
102
{ACAD_REACTORS
330
1ED2F
102
}
330
747D
100
AcDbEntity
  8
部品1
 48
50.0
100
AcDbLine
 10
8170.975886326823
 20
1437.836257816046
 30
0.0
 11
7170.975886326823
 21
1437.836257816046
 31
0.0
  0
LINE
  5
1ED2E
102
{ACAD_REACTORS
330
1ED2F
102
}
330
747D
100
AcDbEntity
  8
部品1
 48
50.0
100
AcDbLine
 10
8170.975886326823
 20
1237.836257816046
 30
0.0
 11
7170.975886326823
 21
1237.836257816044
 31
0.0
  0
HATCH
  5
1ED2F
330
747D
100
AcDbEntity
  8
細線
 48
50.0
100
AcDbHatch
 10
0.0
 20
0.0
 30
0.0
210
0.0
220
0.0
230
1.0
  2
LINE
 70
     0
 71
     1
 91
        1
 92
        7
 72
     0
 73
     1
 93
        4
 10
8170.975886326825
 20
1237.836257816046
 10
8170.975886326825
 20
1437.836257816046
 10
7170.975886326822
 20
1437.836257816046
 10
7170.975886326823
 20
1237.836257816044
 97
        4
330
1ED2D
330
1ED62
330
1ED2E
330
1EDBD
 75
     0
 76
     1
 52
75.0
 41
37.5
 77
     0
 78
     1
 53
75.0
 43
-9898.618247718767
 44
13631.29434457208
 45
-115.0055436925422
 46
30.81564255751887
 79
     0
 47
2.300206460912943
 98
        1
 10
7682.472203283269
 20
1328.370023041455
  0
LWPOLYLINE
  5
1ED31
102
{ACAD_REACTORS
330
21D4E
102
}
330
747D
100
AcDbEntity
  8
部品1
 48
50.0
100
AcDbPolyline
 90
        2
 70
     0
 10
6984.261119620064
 20
2187.836257816046
 40
18.75
 41
18.75
 10
7602.225886326824
 20
2187.836257816046
 40
12.5
 41
12.5
  0
LINE
  5
1ED32
102
{ACAD_REACTORS
330
21D4E
102
}
330
747D
100
AcDbEntity
  8
部品1
 48
50.0
100
AcDbLine
 10
7233.475886326829
 20
1437.836257816044
 30
0.0
 11
8108.475886326818
 21
1437.836257816048
 31
0.0
  0
DIMENSION
  5
1ED33
330
747D
100
AcDbEntity
  8
寸法
 48
50.0
100
AcDbDimension
  2
*D4
 10
6767.052023993823
 20
1437.836257816046
 30
0.0
 11
6767.052023993823
 21
1812.836257816048
 31
0.0
 70
   160
 71
     5
 42
299.9999999999997
  3
INABA_S50G詳細S20用
100
AcDbAlignedDimension
 13
6984.261119620064
 23
2187.836257816046
 33
0.0
 14
7170.975886326823
 24
1437.836257816046
 34
0.0
 50
90.0
100
AcDbRotatedDimension
1001
ACAD
1000
DSTYLE
1002
{
1070
    40
1040
1.0
1002
}
  0
LINE
  5
1ED34
102
{ACAD_REACTORS
330
21D4E
102
}
330
747D
100
AcDbEntity
  8
部品1
 48
50.0
100
AcDbLine
 10
7233.475886326829
 20
1437.836257816044
 30
0.0
 11
7233.475886326823
 21
2187.836257816046
 31
0.0
  0
LINE
  5
1ED61
330
747D
100
AcDbEntity
  8
細線
 48
50.0
100
AcDbLine
 10
7289.04243337397
 20
1412.836257816046
 30
0.0
 11
7282.343703563192
 21
1437.836257816046
 31
0.0
  0
LINE
  5
1ED62
102
{ACAD_REACTORS
330
1ED2F
102
}
330
747D
100
AcDbEntity
  8
部品1
 48
50.0
100
AcDbLine
 10
7170.975886326823
 20
1237.836257816044
 30
0.0
 11
7170.975886326823
 21
1437.836257816046
 31
0.0
  0
LINE
  5
1ED63
330
747D
100
AcDbEntity
  8
細線
 48
50.0
100
AcDbLine
 10
7255.54878432008
 20
1237.836257816044
 30
0.0
 11
7248.850054509303
 21
1262.836257816051
 31
0.0
  0
TEXT
  5
1EDA7
330
747D
100
AcDbEntity
  8
寸法
 62
     7
 48
50.0
100
AcDbText
 10
7003.756241735779
 20
2213.894907023506
 30
0.0
 40
150.0
  1
▽G.L
  7
STYLE1
100
AcDbText
  0
LINE
  5
1EDAF
102
{ACAD_REACTORS
330
21D4E
102
}
330
747D
100
AcDbEntity
  8
部品1
 48
50.0
100
AcDbLine
 10
8108.475886326818
 20
1437.836257816048
 30
0.0
 11
8108.475886326822
 21
2187.836257816046
 31
0.0
  0
LINE
  5
1EDB0
330
747D
100
AcDbEntity
  8
細線
 48
50.0
100
AcDbLine
 10
7782.092714294268
 20
1412.836257816037
 30
0.0
 11
7775.393984483486
 21
1437.836257816044
 31
0.0
  0
LINE
  5
1EDB1
330
747D
100
AcDbEntity
  8
細線
 48
50.0
100
AcDbLine
 10
7748.599065240381
 20
1237.836257816042
 30
0.0
 11
7741.900335429601
 21
1262.836257816048
 31
0.0
  0
LINE
  5
1EDB2
330
747D
100
AcDbEntity
  8
細線
 48
50.0
100
AcDbLine
 10
8028.61785475442
 20
1412.836257816037
 30
0.0
 11
8021.919124943638
 21
1437.836257816044
 31
0.0
  0
LINE
  5
1EDB3
330
747D
100
AcDbEntity
  8
細線
 48
50.0
100
AcDbLine
 10
7995.124205700531
 20
1237.836257816042
 30
0.0
 11
7988.425475889754
 21
1262.836257816048
 31
0.0
  0
LINE
  5
1EDB4
330
747D
100
AcDbEntity
  8
細線
 48
50.0
100
AcDbLine
 10
7905.35528452434
 20
1412.836257816042
 30
0.0
 11
7898.656554713561
 21
1437.836257816042
 31
0.0
  0
LINE
  5
1EDB5
330
747D
100
AcDbEntity
  8
細線
 48
50.0
100
AcDbLine
 10
7871.861635470459
 20
1237.836257816042
 30
0.0
 11
7865.162905659682
 21
1262.836257816053
 31
0.0
  0
LINE
  5
1EDB6
330
747D
100
AcDbEntity
  8
細線
 48
50.0
100
AcDbLine
 10
7412.305003604043
 20
1412.836257816046
 30
0.0
 11
7405.606273793265
 21
1437.836257816046
 31
0.0
  0
LINE
  5
1EDB7
330
747D
100
AcDbEntity
  8
細線
 48
50.0
100
AcDbLine
 10
7658.830144064191
 20
1412.836257816042
 30
0.0
 11
7652.131414253408
 21
1437.836257816046
 31
0.0
  0
LINE
  5
1EDB8
330
747D
100
AcDbEntity
  8
細線
 48
50.0
100
AcDbLine
 10
7535.567573834114
 20
1412.836257816042
 30
0.0
 11
7528.868844023337
 21
1437.836257816046
 31
0.0
  0
LINE
  5
1EDB9
330
747D
100
AcDbEntity
  8
細線
 48
50.0
100
AcDbLine
 10
7502.073924780233
 20
1237.836257816042
 30
0.0
 11
7495.375194969452
 21
1262.836257816048
 31
0.0
  0
LINE
  5
1EDBA
330
747D
100
AcDbEntity
  8
細線
 48
50.0
100
AcDbLine
 10
7625.336495010306
 20
1237.836257816042
 30
0.0
 11
7618.637765199529
 21
1262.836257816053
 31
0.0
  0
LINE
  5
1EDBB
330
747D
100
AcDbEntity
  8
細線
 48
50.0
100
AcDbLine
 10
7378.811354550158
 20
1237.836257816044
 30
0.0
 11
7372.112624739376
 21
1262.836257816055
 31
0.0
  0
LINE
  5
1EDBC
330
747D
100
AcDbEntity
  8
細線
 48
50.0
100
AcDbLine
 10
8118.386775930607
 20
1237.836257816042
 30
0.0
 11
8111.688046119825
 21
1262.836257816046
 31
0.0
  0
LINE
  5
1EDBD
102
{ACAD_REACTORS
330
1ED2F
102
}
330
747D
100
AcDbEntity
  8
部品1
 48
50.0
100
AcDbLine
 10
8170.975886326823
 20
1437.836257816046
 30
0.0
 11
8170.975886326823
 21
1237.836257816046
 31
0.0
  0
LINE
  5
1EDBE
330
747D
100
AcDbEntity
  8
細線
 48
50.0
100
AcDbLine
 10
8151.880424984494
 20
1412.836257816039
 30
0.0
 11
8145.181695173715
 21
1437.836257816042
 31
0.0
  0
DIMENSION
  5
1EDE4
330
747D
100
AcDbEntity
  8
寸法
 48
50.0
100
AcDbDimension
  2
*D5
 10
8799.265250238326
 20
2062.836257816046
 30
0.0
 11
8699.250486458799
 21
2375.336257816047
 31
0.0
 70
    32
 71
     5
 42
250.0
  3
INABA_S50G詳細S20用
100
AcDbAlignedDimension
 13
7889.725886326818
 23
2687.836257816046
 33
0.0
 14
7859.725886326824
 24
2062.836257816046
 34
0.0
 50
90.0
100
AcDbRotatedDimension
1001
ACAD
1000
DSTYLE
1002
{
1070
    40
1040
1.0
1002
}
  0
DIMENSION
  5
1EDE5
330
747D
100
AcDbEntity
  8
寸法
 48
50.0
100
AcDbDimension
  2
*D6
 10
9389.753868908421
 20
1812.836257816046
 30
0.0
 11
9375.255434912677
 21
2282.241560883795
 31
0.0
 70
   160
  1
基礎天ヨリ\P<>
 71
     5
 42
349.9999999999998
  3
INABA_S50G詳細S20用
100
AcDbAlignedDimension
 13
7889.725886326818
 23
2687.836257816046
 33
0.0
 14
7739.725886326823
 24
1812.836257816046
 34
0.0
 50
90.0
100
AcDbRotatedDimension
1001
ACAD
1000
DSTYLE
1002
{
1070
    40
1040
1.0
1070
   279
1070
     1
1002
}
  0
LINE
  5
1EDE6
330
747D
100
AcDbEntity
  8
部品1
 48
50.0
100
AcDbLine
 10
7589.725886326816
 20
2187.836257816046
 30
0.0
 11
7589.725886326817
 21
2687.836257816046
 31
0.0
  0
LINE
  5
1EDE7
330
747D
100
AcDbEntity
  8
部品1
 48
50.0
100
AcDbLine
 10
7889.725886326818
 20
2687.836257816046
 30
0.0
 11
7889.725886326816
 21
2437.836257816051
 31
0.0
  0
LINE
  5
1EDE9
102
{ACAD_REACTORS
330
21D4E
102
}
330
747D
100
AcDbEntity
  8
部品1
 48
50.0
100
AcDbLine
 10
7920.975886326818
 20
1926.586257816046
 30
0.0
 11
7920.975886326818
 21
1949.086257816046
 31
0.0
  0
LINE
  5
1EDEA
102
{ACAD_REACTORS
330
21D4E
102
}
330
747D
100
AcDbEntity
  8
部品1
 48
50.0
100
AcDbLine
 10
7739.725886326818
 20
2062.836257816049
 30
0.0
 11
7859.725886326824
 21
2062.836257816046
 31
0.0
  0
LINE
  5
1EDEB
102
{ACAD_REACTORS
330
21D4E
102
}
330
747D
100
AcDbEntity
  8
部品1
 48
50.0
100
AcDbLine
 10
7420.975886326829
 20
1926.586257816043
 30
0.0
 11
7420.975886326823
 21
1949.086257816043
 31
0.0
  0
LINE
  5
1EDEC
102
{ACAD_REACTORS
330
21D4E
102
}
330
747D
100
AcDbEntity
  8
部品1
 48
50.0
100
AcDbLine
 10
7420.975886326823
 20
1949.086257816043
 30
0.0
 11
7602.225886326829
 21
1949.086257816043
 31
0.0
  0
LINE
  5
1EDED
102
{ACAD_REACTORS
330
21D4E
102
}
330
747D
100
AcDbEntity
  8
部品1
 48
50.0
100
AcDbLine
 10
7420.975886326823
 20
1926.586257816043
 30
0.0
 11
7602.225886326829
 21
1926.586257816046
 31
0.0
  0
LINE
  5
1EDEE
102
{ACAD_REACTORS
330
21D4E
102
}
330
747D
100
AcDbEntity
  8
部品1
 48
50.0
100
AcDbLine
 10
7602.225886326824
 20
1812.836257816046
 30
0.0
 11
7739.725886326823
 21
1812.836257816049
 31
0.0
  0
LINE
  5
1EDEF
102
{ACAD_REACTORS
330
21D4E
102
}
330
747D
100
AcDbEntity
  8
部品1
 48
50.0
100
AcDbLine
 10
7739.725886326823
 20
1949.086257816046
 30
0.0
 11
7920.975886326823
 21
1949.086257816048
 31
0.0
  0
LINE
  5
1EDF0
102
{ACAD_REACTORS
330
21D4E
102
}
330
747D
100
AcDbEntity
  8
部品1
 48
50.0
100
AcDbLine
 10
7739.725886326823
 20
1926.586257816043
 30
0.0
 11
7920.975886326823
 21
1926.586257816049
 31
0.0
  0
LINE
  5
1EDF2
330
747D
100
AcDbEntity
  8
点線
 48
5.0
100
AcDbLine
 10
7617.225886326821
 20
2797.836257816046
 30
0.0
 11
7617.225886326821
 21
2812.836257816046
 31
0.0
  0
LINE
  5
1EDF3
330
747D
100
AcDbEntity
  8
点線
 48
5.0
100
AcDbLine
 10
7602.225886326822
 20
2794.086257816046
 30
0.0
 11
7617.225886326821
 21
2797.836257816046
 31
0.0
  0
LINE
  5
1EDF4
330
747D
100
AcDbEntity
  8
点線
 48
5.0
100
AcDbLine
 10
7802.225886326822
 20
2687.836257816046
 30
0.0
 11
7782.225886326822
 21
2687.836257816046
 31
0.0
  0
LINE
  5
1EDF5
330
747D
100
AcDbEntity
  8
点線
 48
5.0
100
AcDbLine
 10
7802.225886326822
 20
2767.836257816046
 30
0.0
 11
7802.225886326822
 21
2687.836257816046
 31
0.0
  0
LINE
  5
1EDF6
330
747D
100
AcDbEntity
  8
点線
 48
5.0
100
AcDbLine
 10
7743.475886326821
 20
2767.836257816046
 30
0.0
 11
7802.225886326822
 21
2767.836257816046
 31
0.0
  0
LINE
  5
1EDF7
330
747D
100
AcDbEntity
  8
点線
 48
5.0
100
AcDbLine
 10
7743.475886326821
 20
2842.836257816046
 30
0.0
 11
7743.475886326821
 21
2767.836257816046
 31
0.0
  0
LINE
  5
1EDF8
330
747D
100
AcDbEntity
  8
点線
 48
5.0
100
AcDbLine
 10
7677.225886326822
 20
2842.836257816046
 30
0.0
 11
7743.475886326821
 21
2842.836257816046
 31
0.0
  0
LINE
  5
1EDF9
330
747D
100
AcDbEntity
  8
点線
 48
5.0
100
AcDbLine
 10
7677.225886326822
 20
2827.836257816046
 30
0.0
 11
7677.225886326822
 21
2842.836257816046
 31
0.0
  0
LINE
  5
1EDFA
330
747D
100
AcDbEntity
  8
点線
 48
5.0
100
AcDbLine
 10
7673.475886326821
 20
2827.836257816046
 30
0.0
 11
7677.225886326822
 21
2827.836257816046
 31
0.0
  0
LINE
  5
1EDFB
330
747D
100
AcDbEntity
  8
点線
 48
5.0
100
AcDbLine
 10
7673.475886326821
 20
2812.836257816046
 30
0.0
 11
7673.475886326821
 21
2827.836257816046
 31
0.0
  0
LINE
  5
1EDFC
330
747D
100
AcDbEntity
  8
点線
 48
5.0
100
AcDbLine
 10
7617.225886326821
 20
2812.836257816046
 30
0.0
 11
7673.475886326821
 21
2812.836257816046
 31
0.0
  0
LINE
  5
1EDFD
330
747D
100
AcDbEntity
  8
点線
 48
5.0
100
AcDbLine
 10
7602.225886326822
 20
2687.836257816046
 30
0.0
 11
7602.225886326822
 21
2794.086257816046
 31
0.0
  0
LINE
  5
1EDFE
330
747D
100
AcDbEntity
  8
点線
 48
5.0
100
AcDbLine
 10
7622.225886326822
 20
2700.336257816047
 30
0.0
 11
7602.225886326822
 21
2700.336257816047
 31
0.0
  0
LINE
  5
1EDFF
330
747D
100
AcDbEntity
  8
部品1
 48
50.0
100
AcDbLine
 10
7589.725886326817
 20
2687.836257816046
 30
0.0
 11
7602.225886326817
 21
2687.836257816049
 31
0.0
  0
LINE
  5
1EE00
330
747D
100
AcDbEntity
  8
部品1
 48
50.0
100
AcDbLine
 10
7859.725886326818
 20
2687.836257816046
 30
0.0
 11
7889.725886326818
 21
2687.836257816046
 31
0.0
  0
DIMENSION
  5
1EEAC
330
747D
100
AcDbEntity
  8
寸法
 48
50.0
100
AcDbDimension
  2
*D7
 10
11628.82501406269
 20
1533.470190317737
 30
0.0
 11
11628.82501406269
 21
1909.616902118434
 31
0.0
 70
   160
 71
     5
 42
20.0
  3
INABA_S50G詳細S20用
100
AcDbAlignedDimension
 13
10933.08719874706
 23
1583.470190317737
 33
0.0
 14
10883.08719874705
 24
1533.470190317737
 34
0.0
 50
90.0
100
AcDbRotatedDimension
1001
ACAD
1000
DSTYLE
1002
{
1070
    40
1040
1.0
1002
}
  0
DIMENSION
  5
1EEAD
330
747D
100
AcDbEntity
  8
寸法
 48
50.0
100
AcDbDimension
  2
*D8
 10
10933.08719874706
 20
1938.785736691844
 30
0.0
 11
11167.55078142422
 21
2038.800500471372
 31
0.0
 70
    32
 71
     5
 42
20.0
  3
INABA_S50G詳細S20用
100
AcDbAlignedDimension
 13
10883.08719874705
 23
1583.470190317738
 33
0.0
 14
10933.08719874706
 24
1903.437542289062
 34
0.0
 50
180.0
100
AcDbRotatedDimension
1001
ACAD
1000
DSTYLE
1002
{
1070
    40
1040
1.0
1002
}
  0
LINE
  5
1EEB4
330
747D
100
AcDbEntity
  8
部品1
 48
50.0
100
AcDbLine
 10
10933.08719874706
 20
1864.720190317735
 30
0.0
 11
11151.83719874706
 21
1864.720190317737
 31
0.0
  0
LINE
  5
1EEB5
330
747D
100
AcDbEntity
  8
部品1
 48
50.0
100
AcDbLine
 10
10276.83719874706
 20
989.7201903177379
 30
0.0
 11
11151.83719874705
 21
989.7201903177387
 31
0.0
  0
LINE
  5
1EEB7
330
747D
100
AcDbEntity
  8
部品1
 48
50.0
100
AcDbLine
 10
11151.83719874705
 20
989.7201903177387
 30
0.0
 11
11151.83719874706
 21
1864.720190317737
 31
0.0
  0
DIMENSION
  5
1EF1A
330
747D
100
AcDbEntity
  8
寸法
 48
50.0
100
AcDbDimension
  2
*D14
 10
10645.58719874706
 20
763.8726854292685
 30
0.0
 11
10552.14911054411
 21
763.4648895107889
 31
0.0
 70
   160
 71
     5
 42
5.000000000000728
  3
INABA_S50G詳細S20用
100
AcDbAlignedDimension
 13
10633.08719874705
 23
1533.470190317737
 33
0.0
 14
10645.58719874706
 24
1364.720190317735
 34
0.0
 50
180.0
100
AcDbRotatedDimension
1001
ACAD
1000
DSTYLE
1002
{
1070
    40
1040
1.0
1070
   279
1070
     1
1002
}
  0
LINE
  5
1EF22
330
747D
100
AcDbEntity
  8
センター
 48
2.0
100
AcDbLine
 10
10714.33719874705
 20
1387.010432971783
 30
0.0
 11
10714.33719874705
 21
1467.42994766369
 31
0.0
  0
LINE
  5
1EF28
330
747D
100
AcDbEntity
  8
部品1
 48
50.0
100
AcDbLine
 10
10276.83719874706
 20
989.7201903177379
 30
0.0
 11
10276.83719874706
 21
1864.720190317736
 31
0.0
  0
DIMENSION
  5
1EF2B
330
747D
100
AcDbEntity
  8
寸法
 48
50.0
100
AcDbDimension
  2
*D15
 10
10883.08719874705
 20
1938.785736691844
 30
0.0
 11
10303.08719874705
 21
1938.785736691844
 31
0.0
 70
   160
 71
     5
 42
100.0
  3
INABA_S50G詳細S20用
100
AcDbAlignedDimension
 13
10633.08719874705
 23
1864.720190317735
 33
0.0
 14
10883.08719874705
 24
1583.470190317738
 34
0.0
 50
180.0
100
AcDbRotatedDimension
1001
ACAD
1000
DSTYLE
1002
{
1070
    40
1040
1.0
1002
}
  0
LINE
  5
1EF33
330
747D
100
AcDbEntity
  8
センター
 48
2.0
100
AcDbLine
 10
10754.54695609301
 20
1427.220190317737
 30
0.0
 11
10674.1274414011
 21
1427.220190317737
 31
0.0
  0
LINE
  5
1EF37
330
747D
100
AcDbEntity
  8
部品1
 48
50.0
100
AcDbLine
 10
10703.08719874705
 20
1495.970190317737
 30
0.0
 11
10651.83719874706
 21
1495.970190317736
 31
0.0
  0
ARC
  5
1EF57
330
747D
100
AcDbEntity
  8
部品1
 48
50.0
100
AcDbCircle
 10
10790.58719874705
 20
1513.464556864376
 30
0.0
 40
7.5
100
AcDbArc
 50
89.91392718914937
 51
180.0
  0
ARC
  5
1EF58
330
747D
100
AcDbEntity
  8
部品1
 48
50.0
100
AcDbCircle
 10
10783.08719874705
 20
-3479.02980968227
 30
0.0
 40
5000.0
100
AcDbArc
 50
88.70879903510363
 51
89.91392718914937
  0
ARC
  5
1EF59
330
747D
100
AcDbEntity
  8
部品1
 48
50.0
100
AcDbCircle
 10
10900.58719874705
 20
1500.970190317732
 30
0.0
 40
2.5
100
AcDbArc
 50
270.0
 51
0.0
  0
LINE
  5
1EF5D
330
747D
100
AcDbEntity
  8
部品1
 48
50.0
100
AcDbLine
 10
10903.08719874705
 20
1512.202503083788
 30
0.0
 11
10903.08719874705
 21
1500.970190317737
 31
0.0
  0
LINE
  5
1EF5E
330
747D
100
AcDbEntity
  8
部品1
 48
50.0
100
AcDbLine
 10
10903.08719874705
 20
1512.202503083788
 30
0.0
 11
10903.08719874705
 21
1500.970190317737
 31
0.0
  0
ARC
  5
1EF60
330
747D
100
AcDbEntity
  8
部品1
 48
50.0
100
AcDbCircle
 10
10895.58719874705
 20
1512.202503083783
 30
0.0
 40
7.5
100
AcDbArc
 50
0.0
 51
88.70879903499945
  0
LINE
  5
1EF62
330
747D
100
AcDbEntity
  8
部品1
 48
50.0
100
AcDbLine
 10
10894.96219874704
 20
1498.470190317737
 30
0.0
 11
10900.58719874704
 21
1498.470190317737
 31
0.0
  0
LINE
  5
1EF64
330
747D
100
AcDbEntity
  8
部品1
 48
50.0
100
AcDbLine
 10
10895.58719874705
 20
1498.470190317737
 30
0.0
 11
10900.58719874705
 21
1498.470190317737
 31
0.0
  0
LINE
  5
1EF68
330
747D
100
AcDbEntity
  8
部品1
 48
50.0
100
AcDbLine
 10
10783.08719874705
 20
1460.970190317735
 30
0.0
 11
10725.58719874705
 21
1460.970190317737
 31
0.0
  0
LINE
  5
1EF6B
330
747D
100
AcDbEntity
  8
部品1
 48
50.0
100
AcDbLine
 10
10776.83719874706
 20
1448.470190317738
 30
0.0
 11
10725.58719874705
 21
1448.470190317737
 31
0.0
  0
LINE
  5
1EF70
330
747D
100
AcDbEntity
  8
部品1
 48
50.0
100
AcDbLine
 10
10778.08719874705
 20
1448.470190317737
 30
0.0
 11
10725.58719874705
 21
1448.470190317737
 31
0.0
  0
ARC
  5
1EF71
330
747D
100
AcDbEntity
  8
部品1
 48
50.0
100
AcDbCircle
 10
10796.83719874706
 20
1437.220190317732
 30
0.0
 40
13.75
100
AcDbArc
 50
180.0
 51
267.1447544771254
  0
LINE
  5
1EF72
330
747D
100
AcDbEntity
  8
部品1
 48
50.0
100
AcDbLine
 10
10783.08719874706
 20
1370.970190317737
 30
0.0
 11
10785.50284861212
 21
1370.970190317737
 31
0.0
  0
LINE
  5
1EF74
330
747D
100
AcDbEntity
  8
部品1
 48
50.0
100
AcDbLine
 10
10783.08719874705
 20
1364.720190317737
 30
0.0
 11
10783.08719874705
 21
1442.220190317738
 31
0.0
  0
ARC
  5
1EF98
330
747D
100
AcDbEntity
  8
部品1
 48
50.0
100
AcDbCircle
 10
10813.28999262347
 20
1416.061275395561
 30
0.0
 40
7.5
100
AcDbArc
 50
90.34558224883921
 51
159.1461180001587
  0
ARC
  5
1EF99
330
747D
100
AcDbEntity
  8
部品1
 48
50.0
100
AcDbCircle
 10
10785.50284861212
 20
1374.720190317732
 30
0.0
 40
3.75
100
AcDbArc
 50
270.0
 51
339.1461180001588
  0
LINE
  5
1EF9A
330
747D
100
AcDbEntity
  8
部品1
 48
50.0
100
AcDbLine
 10
10789.00719103957
 20
1373.385243071123
 30
0.0
 11
10806.28130776859
 21
1418.731169888777
 31
0.0
  0
LINE
  5
1EF9B
330
747D
100
AcDbEntity
  8
部品1
 48
50.0
100
AcDbLine
 10
10783.08719874705
 20
1443.470190317737
 30
0.0
 11
10783.08719874705
 21
1437.220190317737
 31
0.0
  0
ARC
  5
1EF9C
330
747D
100
AcDbEntity
  8
部品1
 48
50.0
100
AcDbCircle
 10
10783.08719874705
 20
6423.470190317729
 30
0.0
 40
5000.0
100
AcDbArc
 50
270.1497148883158
 51
271.2912009648964
  0
LINE
  5
1EF9D
330
747D
100
AcDbEntity
  8
部品1
 48
50.0
100
AcDbLine
 10
10651.83719874706
 20
1358.470190317735
 30
0.0
 11
10776.83719874706
 21
1358.470190317737
 31
0.0
  0
ARC
  5
1EF9F
330
747D
100
AcDbEntity
  8
部品1
 48
50.0
100
AcDbCircle
 10
10900.58719874705
 20
1443.470190317732
 30
0.0
 40
2.5
100
AcDbArc
 50
0.0
 51
89.99999999999998
  0
ARC
  5
1EFA0
330
747D
100
AcDbEntity
  8
部品1
 48
50.0
100
AcDbCircle
 10
10900.58719874705
 20
1443.470190317732
 30
0.0
 40
2.5
100
AcDbArc
 50
0.0
 51
89.99999999999998
  0
LINE
  5
1EFA5
330
747D
100
AcDbEntity
  8
部品1
 48
50.0
100
AcDbLine
 10
10903.08719874705
 20
1432.237877551677
 30
0.0
 11
10903.08719874705
 21
1443.470190317737
 31
0.0
  0
LINE
  5
1EFA6
330
747D
100
AcDbEntity
  8
部品1
 48
50.0
100
AcDbLine
 10
10903.08719874705
 20
1432.237877551677
 30
0.0
 11
10903.08719874705
 21
1443.470190317737
 31
0.0
  0
LINE
  5
1EFA7
330
747D
100
AcDbEntity
  8
部品1
 48
50.0
100
AcDbLine
 10
10903.08719874705
 20
1432.237877551677
 30
0.0
 11
10903.08719874705
 21
1443.470190317737
 31
0.0
  0
LINE
  5
1EFA9
330
747D
100
AcDbEntity
  8
部品1
 48
50.0
100
AcDbLine
 10
10894.96219874704
 20
1445.970190317737
 30
0.0
 11
10900.58719874704
 21
1445.970190317737
 31
0.0
  0
LINE
  5
1EFAC
330
747D
100
AcDbEntity
  8
部品1
 48
50.0
100
AcDbLine
 10
10895.58719874705
 20
1445.970190317737
 30
0.0
 11
10897.46219874705
 21
1445.970190317737
 31
0.0
  0
LINE
  5
1EFAD
330
747D
100
AcDbEntity
  8
部品1
 48
50.0
100
AcDbLine
 10
10895.58719874705
 20
1445.970190317737
 30
0.0
 11
10900.58719874705
 21
1445.970190317737
 31
0.0
  0
LINE
  5
1EFAE
330
747D
100
AcDbEntity
  8
部品1
 48
50.0
100
AcDbLine
 10
10895.58719874705
 20
1445.970190317737
 30
0.0
 11
10900.58719874705
 21
1445.970190317737
 31
0.0
  0
ARC
  5
1EFAF
330
747D
100
AcDbEntity
  8
部品1
 48
50.0
100
AcDbCircle
 10
10895.58719874705
 20
1432.237877551672
 30
0.0
 40
7.5
100
AcDbArc
 50
271.2912009648964
 51
0.0
  0
LINE
  5
1EFB4
330
747D
100
AcDbEntity
  8
部品1
 48
50.0
100
AcDbLine
 10
10645.58719874706
 20
1489.720190317736
 30
0.0
 11
10645.58719874706
 21
1364.720190317735
 31
0.0
  0
LINE
  5
1EFB6
102
{ACAD_REACTORS
330
22EF4
102
}
330
747D
100
AcDbEntity
  8
部品1
 48
50.0
100
AcDbLine
 10
10883.08719874705
 20
1533.470190317737
 30
0.0
 11
10883.08719874705
 21
1583.470190317738
 31
0.0
  0
LINE
  5
1EFB7
102
{ACAD_REACTORS
330
22EF4
102
}
330
747D
100
AcDbEntity
  8
部品1
 48
50.0
100
AcDbLine
 10
10883.08719874705
 20
1583.470190317738
 30
0.0
 11
10933.08719874706
 21
1583.470190317737
 31
0.0
  0
LINE
  5
1EFB8
330
747D
100
AcDbEntity
  8
部品1
 48
50.0
100
AcDbLine
 10
10276.83719874706
 20
1864.720190317736
 30
0.0
 11
10633.08719874705
 21
1864.720190317735
 31
0.0
  0
SPLINE
  5
1F05E
102
{ACAD_REACTORS
330
22EF4
102
}
330
747D
100
AcDbEntity
  8
部品1
 48
50.0
100
AcDbSpline
210
0.0
220
0.0
230
1.0
 70
     8
 71
     3
 72
    11
 73
     7
 74
     5
 42
0.0000000001
 43
0.0000000001
 44
0.0000000001
 40
0.0
 40
0.0
 40
0.0
 40
0.0
 40
142.4562004170196
 40
249.0971287921331
 40
365.1670311020028
 40
496.9286002756851
 40
496.9286002756851
 40
496.9286002756851
 40
496.9286002756851
 10
11016.42053208039
 20
2304.454124749269
 30
0.0
 10
10970.55240858458
 20
2328.548858632837
 30
0.0
 10
10890.34798201387
 20
2370.680608685397
 30
0.0
 10
10780.93012126585
 20
2301.571981966338
 30
0.0
 10
10670.07822567087
 20
2242.107346131579
 30
0.0
 10
10591.51998022408
 20
2282.812765441502
 30
0.0
 10
10549.75386541372
 20
2304.454124749269
 30
0.0
 11
11016.42053208039
 21
2304.454124749269
 31
0.0
 11
10880.63640520112
 21
2347.540548653889
 31
0.0
 11
10783.08719874706
 21
2304.454124749269
 31
0.0
 11
10674.75386541372
 21
2262.787458082603
 31
0.0
 11
10549.75386541372
 21
2304.454124749269
 31
0.0
  0
LEADER
  5
214B1
330
747D
100
AcDbEntity
  8
寸法
 48
50.0
100
AcDbLeader
  3
INABA_S50G
 71
     0
 73
     0
 75
     1
 40
150.0
 41
877.5000000000002
 76
     3
 10
2147.56303166156
 20
2687.836257816047
 30
0.0
 10
1813.643609471511
 20
3002.420595357377
 30
0.0
 10
1688.643609471511
 20
3002.420595357377
 30
0.0
340
214B2
1001
ACAD
1000
DSTYLE
1002
{
1070
    40
1040
1.0
1070
    77
1070
     1
1070
   341
1005
11750
1002
}
  0
MTEXT
  5
214B2
102
{ACAD_REACTORS
330
214B1
102
}
330
747D
100
AcDbEntity
  8
寸法
 62
     7
 48
50.0
100
AcDbMText
 10
1663.643609471511
 20
3027.420595357377
 30
0.0
 40
150.0
 41
0.0
 71
     9
 72
     1
  1
金コテ押エ
  7
STYLE1
 73
     1
 44
1.0
1001
ACAD
1000
MTEXTBEGIN
1070
    73
1070
     1
1070
    44
1040
1.0
1070
    74
1070
     0
1000
MTEXTEND
  0
LEADER
  5
214DD
330
747D
100
AcDbEntity
  8
寸法
 48
50.0
100
AcDbLeader
  3
INABA_S50G
 71
     0
 73
     0
 75
     1
 40
152.0863094478901
 41
261.2132034355964
 76
     3
 10
2147.56303166156
 20
2546.586257816047
 30
0.0
 10
1887.966679781248
 20
2775.723105096416
 30
0.0
 10
1762.966679781248
 20
2775.723105096416
 30
0.0
340
214DE
1001
ACAD
1000
DSTYLE
1002
{
1070
    40
1040
1.0
1070
    77
1070
     1
1070
   341
1005
11750
1002
}
  0
MTEXT
  5
214DE
102
{ACAD_REACTORS
330
214DD
102
}
330
747D
100
AcDbEntity
  8
寸法
 62
     7
 48
50.0
100
AcDbMText
 10
1737.966679781249
 20
2800.723105096416
 30
0.0
 40
150.0
 41
0.0
 71
     9
 72
     1
  1
D13
  7
STYLE1
 73
     1
 44
1.0
1001
ACAD
1000
MTEXTBEGIN
1070
    73
1070
     1
1070
    44
1040
1.0
1070
    74
1070
     0
1000
MTEXTEND
  0
LEADER
  5
2153B
330
747D
100
AcDbEntity
  8
寸法
 48
50.0
100
AcDbLeader
  3
INABA_S50G詳細用
 71
     0
 73
     0
 75
     1
 40
199.416260736239
 41
735.1181102362204
 76
     3
 10
2175.585439809697
 20
2080.672289570152
 30
0.0
 10
1833.628160743504
 20
1831.739345220026
 30
0.0
 10
1708.628160743504
 20
1831.739345220026
 30
0.0
340
2153C
1001
ACAD
1000
DSTYLE
1002
{
1070
    40
1040
1.0
1070
    77
1070
     1
1002
}
  0
MTEXT
  5
2153C
102
{ACAD_REACTORS
330
2153B
102
}
330
747D
100
AcDbEntity
  8
寸法
 62
     7
 48
50.0
100
AcDbMText
 10
1683.628160743504
 20
1856.739345220026
 30
0.0
 40
150.0
 41
0.0
 71
     9
 72
     1
  1
D10@300
  7
STYLE1
 73
     1
 44
1.0
1001
ACAD
1000
MTEXTBEGIN
1070
    73
1070
     1
1070
    44
1040
1.0
1070
    74
1070
     0
1000
MTEXTEND
  0
LEADER
  5
2156A
330
747D
100
AcDbEntity
  8
寸法
 48
50.0
100
AcDbLeader
  3
INABA_S50G詳細用
 71
     0
 73
     0
 75
     1
 40
152.0863094478901
 41
255.1181102362205
 76
     3
 10
1947.56303166156
 20
1537.836257816047
 30
0.0
 10
1641.45400680999
 20
955.8316205007049
 30
0.0
 10
1516.45400680999
 20
955.8316205007049
 30
0.0
340
2156B
1001
ACAD
1000
DSTYLE
1002
{
1070
    40
1040
1.0
1070
    77
1070
     1
1002
}
  0
MTEXT
  5
2156B
102
{ACAD_REACTORS
330
2156A
102
}
330
747D
100
AcDbEntity
  8
寸法
 62
     7
 48
50.0
100
AcDbMText
 10
1491.45400680999
 20
980.8316205007049
 30
0.0
 40
150.0
 41
0.0
 71
     9
 72
     1
  1
D10
  7
STYLE1
 73
     1
 44
1.0
1001
ACAD
1000
MTEXTBEGIN
1070
    73
1070
     1
1070
    44
1040
1.0
1070
    74
1070
     0
1000
MTEXTEND
  0
LEADER
  5
2156D
330
747D
100
AcDbEntity
  8
寸法
 48
50.0
100
AcDbLeader
  3
INABA_S50G詳細用
 71
     0
 73
     0
 74
     0
 75
     1
 40
199.416260736239
 41
735.1181102362204
 76
     3
 10
2308.762731562681
 20
1512.520199989317
 30
0.0
 10
2647.450202600233
 20
1046.811663322
 30
0.0
 10
2772.450202600233
 20
1046.811663322
 30
0.0
340
2156E
1001
ACAD
1000
DSTYLE
1002
{
1070
    40
1040
1.0
1070
    77
1070
     1
1002
}
  0
MTEXT
  5
2156E
102
{ACAD_REACTORS
330
2156D
102
}
330
747D
100
AcDbEntity
  8
寸法
 62
     7
 48
50.0
100
AcDbMText
 10
2797.450202600233
 20
1071.811663322
 30
0.0
 40
150.0
 41
0.0
 71
     7
 72
     1
  1
\A1;D10@300
  7
STYLE1
 73
     1
 44
1.0
1001
ACAD
1000
MTEXTBEGIN
1070
    73
1070
     1
1070
    44
1040
1.0
1070
    74
1070
     0
1000
MTEXTEND
  0
LEADER
  5
2156F
330
747D
100
AcDbEntity
  8
寸法
 48
50.0
100
AcDbLeader
  3
INABA_S50G詳細用
 71
     0
 73
     0
 74
     0
 75
     1
 40
152.0863094478901
 41
261.2132034355964
 76
     3
 10
2147.56303166156
 20
1541.586257816047
 30
0.0
 10
2648.174713303641
 20
830.3395803784301
 30
0.0
 10
2773.174713303641
 20
830.3395803784301
 30
0.0
340
21570
1001
ACAD
1000
DSTYLE
1002
{
1070
    40
1040
1.0
1070
    77
1070
     1
1002
}
  0
MTEXT
  5
21570
102
{ACAD_REACTORS
330
2156F
102
}
330
747D
100
AcDbEntity
  8
寸法
 62
     7
 48
50.0
100
AcDbMText
 10
2798.174713303641
 20
855.3395803784301
 30
0.0
 40
150.0
 41
0.0
 71
     7
 72
     1
  1
\A1;D13
  7
STYLE1
 73
     1
 44
1.0
1001
ACAD
1000
MTEXTBEGIN
1070
    73
1070
     1
1070
    44
1040
1.0
1070
    74
1070
     0
1000
MTEXTEND
  0
LEADER
  5
21595
330
747D
100
AcDbEntity
  8
寸法
 48
50.0
100
AcDbLeader
  3
INABA_S50G詳細用
 71
     0
 73
     0
 74
     0
 75
     1
 40
150.0
 41
872.9365530061468
 76
     3
 10
3127.092956712709
 20
2127.056571081968
 30
0.0
 10
3264.868303842314
 20
1663.951799588199
 30
0.0
 10
3389.868303842314
 20
1663.951799588199
 30
0.0
340
21596
1001
ACAD
1000
DSTYLE
1002
{
1070
    40
1040
1.0
1070
    77
1070
     1
1002
}
  0
MTEXT
  5
21596
102
{ACAD_REACTORS
330
21595
102
}
330
747D
100
AcDbEntity
  8
寸法
 62
     7
 48
50.0
100
AcDbMText
 10
3414.868303842314
 20
1688.951799588199
 30
0.0
 40
150.0
 41
0.0
 71
     7
 72
     1
  1
\A1;防湿シート
  7
STYLE1
 73
     1
 44
1.0
1001
ACAD
1000
MTEXTBEGIN
1070
    73
1070
     1
1070
    44
1040
1.0
1070
    74
1070
     0
1000
MTEXTEND
  0
LINE
  5
21B17
102
{ACAD_REACTORS
330
22EF4
102
}
330
747D
100
AcDbEntity
  8
部品1
 48
50.0
100
AcDbLine
 10
10633.08719874705
 20
1533.470190317737
 30
0.0
 11
10883.08719874705
 21
1533.470190317737
 31
0.0
  0
LINE
  5
21CBC
330
747D
100
AcDbEntity
  8
部品1
 48
50.0
100
AcDbLine
 10
7859.725886326822
 20
2437.836257816051
 30
0.0
 11
8458.475886326816
 21
2437.83625781605
 31
0.0
  0
LWPOLYLINE
  5
21CBD
330
747D
100
AcDbEntity
  8
部品1
 48
50.0
100
AcDbPolyline
 90
        3
 70
     0
 43
18.75
 10
8108.475886326823
 20
2116.58625781605
 10
8458.475886326821
 20
2116.58625781605
 42
-0.0003106600707159
 10
8458.475886326821
 20
2116.58625781605
 42
0.0022790066601718
  0
LINE
  5
21CBE
330
747D
100
AcDbEntity
  8
点線
 48
10.0
100
AcDbLine
 10
8009.725886326823
 20
2265.110237413946
 30
0.0
 11
8458.475886326818
 21
2265.110237413943
 31
0.0
  0
LINE
  5
21CBF
330
747D
100
AcDbEntity
  8
点線
 48
10.0
100
AcDbLine
 10
8009.725886326823
 20
2290.110237413946
 30
0.0
 11
8458.475886326818
 21
2290.110237413944
 31
0.0
  0
LINE
  5
21CC0
330
747D
100
AcDbEntity
  8
部品1
 48
50.0
100
AcDbLine
 10
8108.475886326822
 20
2095.336257816049
 30
0.0
 11
8458.475886326816
 21
2095.336257816049
 31
0.0
  0
LINE
  5
21CC1
330
747D
100
AcDbEntity
  8
部品1
 48
50.0
100
AcDbLine
 10
8108.475886326822
 20
2137.836257816045
 30
0.0
 11
8458.475886326816
 21
2137.836257816051
 31
0.0
  0
LINE
  5
21CC5
330
747D
100
AcDbEntity
  8
部品1
 48
50.0
100
AcDbLine
 10
8108.475886326822
 20
1945.336257816049
 30
0.0
 11
8458.475886326816
 21
1945.336257816049
 31
0.0
  0
LINE
  5
21CC6
330
747D
100
AcDbEntity
  8
細線
 48
50.0
100
AcDbLine
 10
8205.576929453057
 20
1945.336257816051
 30
0.0
 11
8245.769308317724
 21
2095.336257816047
 31
0.0
  0
LINE
  5
21CC7
330
747D
100
AcDbEntity
  8
細線
 48
50.0
100
AcDbLine
 10
8108.475886326816
 20
2042.972406171145
 30
0.0
 11
8122.506738087652
 21
2095.336257816047
 31
0.0
  0
LINE
  5
21CC8
330
747D
100
AcDbEntity
  8
細線
 48
50.0
100
AcDbLine
 10
8218.974389074622
 20
1945.336257816049
 30
0.0
 11
8212.275659263839
 21
1970.336257816056
 31
0.0
  0
LINE
  5
21CC9
330
747D
100
AcDbEntity
  8
細線
 48
50.0
100
AcDbLine
 10
8239.070578506952
 20
2070.336257816045
 30
0.0
 11
8232.371848696173
 21
2095.336257816049
 31
0.0
  0
LINE
  5
21CCA
330
747D
100
AcDbEntity
  8
細線
 48
50.0
100
AcDbLine
 10
8115.808008276879
 20
2070.33625781605
 30
0.0
 11
8109.109278466101
 21
2095.336257816049
 31
0.0
  0
LINE
  5
21CCC
330
747D
100
AcDbEntity
  8
細線
 48
50.0
100
AcDbLine
 10
8328.839499683134
 20
1945.336257816051
 30
0.0
 11
8369.031878547801
 21
2095.336257816047
 31
0.0
  0
LINE
  5
21CCD
330
747D
100
AcDbEntity
  8
細線
 48
50.0
100
AcDbLine
 10
8342.236959304699
 20
1945.336257816049
 30
0.0
 11
8335.538229493916
 21
1970.33625781606
 31
0.0
  0
LINE
  5
21CCE
330
747D
100
AcDbEntity
  8
細線
 48
50.0
100
AcDbLine
 10
8452.102069913214
 20
1945.336257816049
 30
0.0
 11
8458.475886326825
 21
1969.12366450974
 31
0.0
  0
CIRCLE
  5
21CD1
330
747D
100
AcDbEntity
  8
点線
 48
10.0
100
AcDbCircle
 10
8289.662589352092
 20
2302.610237413943
 30
0.0
 40
12.5
  0
LINE
  5
21CD2
330
747D
100
AcDbEntity
  8
細線
 48
50.0
100
AcDbLine
 10
8362.333148737024
 20
2070.336257816045
 30
0.0
 11
8355.634418926246
 21
2095.336257816049
 31
0.0
  0
CIRCLE
  5
21D07
330
747D
100
AcDbEntity
  8
点線
 48
10.0
100
AcDbCircle
 10
8039.662589352092
 20
2302.610237413944
 30
0.0
 40
12.5
  0
LINE
  5
21D0A
330
747D
100
AcDbEntity
  8
点線
 48
10.0
100
AcDbLine
 10
2447.563031661562
 20
2290.110237413943
 30
0.0
 11
2447.563031661562
 21
2265.110237413943
 31
0.0
  0
LINE
  5
21D0C
330
747D
100
AcDbEntity
  8
点線
 48
10.0
100
AcDbLine
 10
8009.725886326823
 20
2290.110237413946
 30
0.0
 11
8009.725886326824
 21
2265.110237413944
 31
0.0
  0
LINE
  5
21D30
102
{ACAD_REACTORS
330
21D4E
102
}
330
747D
100
AcDbEntity
  8
部品1
 48
50.0
100
AcDbLine
 10
7541.064547118359
 20
2187.836257816045
 30
0.0
 11
7602.225886326822
 21
2187.836257816046
 31
0.0
  0
LINE
  5
21D31
102
{ACAD_REACTORS
330
21D4E
102
}
330
747D
100
AcDbEntity
  8
部品1
 48
50.0
100
AcDbLine
 10
7859.725886326822
 20
2187.836257816047
 30
0.0
 11
8108.475886326822
 21
2187.836257816046
 31
0.0
  0
HATCH
  5
21D4E
330
747D
100
AcDbEntity
  8
細線
 48
50.0
100
AcDbHatch
 10
0.0
 20
0.0
 30
0.0
210
0.0
220
0.0
230
1.0
  2
PLAST
 70
     0
 71
     1
 91
        1
 92
        7
 72
     0
 73
     1
 93
       19
 10
7602.225886326824
 20
1812.836257816044
 10
7602.225886326824
 20
1926.586257816046
 10
7420.975886326828
 20
1926.586257816043
 10
7420.975886326822
 20
1949.086257816043
 10
7602.225886326822
 20
1949.086257816043
 10
7602.225886326822
 20
2187.836257816046
 10
7541.064547118359
 20
2187.836257816045
 10
7233.475886326823
 20
2187.836257816045
 10
7233.475886326828
 20
1437.836257816044
 10
8108.475886326818
 20
1437.836257816048
 10
8108.47588632682
 20
2187.836257816045
 10
7859.725886326824
 20
2187.836257816047
 10
7859.725886326822
 20
2062.836257816046
 10
7739.725886326822
 20
2062.836257816049
 10
7739.725886326822
 20
1949.086257816045
 10
7920.975886326818
 20
1949.086257816049
 10
7920.975886326818
 20
1926.586257816048
 10
7739.725886326823
 20
1926.586257816043
 10
7739.725886326825
 20
1812.836257816049
 97
       17
330
21D31
330
1EC8B
330
1EDEA
330
1EC8A
330
1EDEF
330
1EDE9
330
1EDF0
330
1EDEE
330
1EC89
330
1EDED
330
1EDEB
330
1EDEC
330
21D30
330
1ED31
330
1ED34
330
1ED32
330
1EDAF
 75
     0
 76
     1
 52
45.0
 41
37.5
 77
     0
 78
     3
 53
45.0
 43
11166.02103998051
 44
-2269.437758284037
 45
-168.3798022700466
 46
168.3798022700466
 79
     0
 53
45.0
 43
11144.97356469676
 44
-2248.390283000281
 45
-168.3798022700466
 46
168.3798022700466
 79
     0
 53
45.0
 43
11123.926089413
 44
-2227.342807716525
 45
-168.3798022700466
 46
168.3798022700466
 79
     0
 47
2.647452413107734
 98
        1
 10
7571.456574607511
 20
1680.59316265995
  0
HATCH
  5
21D7B
330
747D
100
AcDbEntity
  8
細線
 48
50.0
100
AcDbHatch
 10
0.0
 20
0.0
 30
0.0
210
0.0
220
0.0
230
1.0
  2
PLAST
 70
     0
 71
     0
 91
        1
 92
        7
 72
     0
 73
     1
 93
        6
 10
7859.725886326822
 20
2437.836257816051
 10
7859.725886326824
 20
2187.836257816046
 10
8108.475886326822
 20
2187.836257816046
 10
8108.475886326822
 20
2137.836257816045
 10
8458.475886326816
 20
2137.836257816051
 10
8458.475886326816
 20
2437.83625781605
 97
        0
 75
     0
 76
     1
 52
135.0
 41
37.5
 77
     0
 78
     3
 53
135.0
 43
11166.02103998051
 44
-2269.437758284037
 45
-168.3798022700466
 46
-168.3798022700466
 79
     0
 53
135.0
 43
11144.97356469676
 44
-2290.485233567792
 45
-168.3798022700466
 46
-168.3798022700466
 79
     0
 53
135.0
 43
11123.926089413
 44
-2311.532708851548
 45
-168.3798022700466
 46
-168.3798022700466
 79
     0
 47
6.775378687366009
 98
        1
 10
8220.400006515122
 20
2310.850673757074
  0
LEADER
  5
21D99
330
747D
100
AcDbEntity
  8
寸法
 48
50.0
100
AcDbLeader
  3
INABA_S50G詳細用
 71
     0
 73
     0
 75
     1
 40
150.0
 41
687.5
 76
     3
 10
7500.222176698627
 20
1939.147553102012
 30
0.0
 10
7036.326993980671
 20
1167.887979852039
 30
0.0
 10
6911.326993980671
 20
1167.887979852039
 30
0.0
340
21D9A
1001
ACAD
1000
DSTYLE
1002
{
1070
    40
1040
1.0
1070
    77
1070
     1
1002
}
  0
MTEXT
  5
21D9A
102
{ACAD_REACTORS
330
21D99
102
}
330
747D
100
AcDbEntity
  8
寸法
 62
     7
 48
50.0
100
AcDbMText
 10
6886.326993980671
 20
1192.887979852039
 30
0.0
 40
150.0
 41
0.0
 71
     9
 72
     1
  1
\A1;カンザシ
  7
STYLE1
 73
     1
 44
1.0
1001
ACAD
1000
MTEXTBEGIN
1070
    73
1070
     1
1070
    44
1040
1.0
1070
    74
1070
     0
1000
MTEXTEND
  0
LEADER
  5
21DB7
330
747D
100
AcDbEntity
  8
寸法
 48
50.0
100
AcDbLeader
  3
INABA_S50G詳細用
 71
     0
 73
     0
 75
     1
 40
150.0
 41
509.9999999999997
 76
     3
 10
7645.350886326821
 20
2941.99980239822
 30
0.0
 10
7577.902699594677
 20
3030.476829085246
 30
0.0
 10
7452.902699594677
 20
3030.476829085246
 30
0.0
340
21DB8
1001
ACAD
1000
DSTYLE
1002
{
1070
    40
1040
1.0
1070
    77
1070
     1
1002
}
  0
MTEXT
  5
21DB8
102
{ACAD_REACTORS
330
21DB7
102
}
330
747D
100
AcDbEntity
  8
寸法
 62
     7
 48
50.0
100
AcDbMText
 10
7427.902699594676
 20
3055.476829085246
 30
0.0
 40
150.0
 41
0.0
 71
     9
 72
     1
  1
柱前左
  7
STYLE1
 73
     1
 44
1.0
1001
ACAD
1000
MTEXTBEGIN
1070
    73
1070
     1
1070
    44
1040
1.0
1070
    74
1070
     0
1000
MTEXTEND
  0
LEADER
  5
21DB9
330
747D
100
AcDbEntity
  8
寸法
 48
50.0
100
AcDbLeader
  3
INABA_S50G詳細用
 71
     0
 73
     0
 74
     0
 75
     1
 40
320.0
 41
857.4999999999995
 76
     3
 10
7829.402642773345
 20
2826.104306968948
 30
0.0
 10
7895.059627277136
 20
3007.047694704434
 30
0.0
 10
8020.059627277136
 20
3007.047694704434
 30
0.0
340
21DBA
1001
ACAD
1000
DSTYLE
1002
{
1070
    40
1040
1.0
1070
    77
1070
     1
1002
}
  0
MTEXT
  5
21DBA
102
{ACAD_REACTORS
330
21DB9
102
}
330
747D
100
AcDbEntity
  8
寸法
 62
     7
 48
50.0
100
AcDbMText
 10
8045.059627277137
 20
3032.047694704434
 30
0.0
 40
150.0
 41
0.0
 71
     7
 72
     1
  1
\A1;シャッター\Pレール
  7
STYLE1
 73
     1
 44
0.6800000000000001
1001
ACAD
1000
MTEXTBEGIN
1070
    73
1070
     1
1070
    44
1040
0.6800000000000001
1070
    74
1070
     0
1000
MTEXTEND
  0
TEXT
  5
21DCD
330
747D
100
AcDbEntity
  8
寸法
 62
     7
 48
50.0
100
AcDbText
 10
8046.672346489208
 20
2461.244084369988
 30
0.0
 40
150.0
  1
▽F.L
  7
STYLE1
100
AcDbText
  0
DIMENSION
  5
21FF8
330
747D
100
AcDbEntity
  8
寸法
 48
50.0
100
AcDbDimension
  2
*D16
 10
9681.277569926708
 20
1864.720190317736
 30
0.0
 11
9681.277569926708
 21
1468.903319441269
 31
0.0
 70
   160
  1
\U+25A1<>穴
 71
     5
 42
349.9999999999993
  3
INABA_S50G詳細S20用
100
AcDbAlignedDimension
 13
10276.83719874706
 23
989.7201903177379
 33
0.0
 14
10276.83719874706
 24
1864.720190317736
 34
0.0
 50
90.0
100
AcDbRotatedDimension
1001
ACAD
1000
DSTYLE
1002
{
1070
    40
1040
1.0
1002
}
  0
LEADER
  5
2220B
330
747D
100
AcDbEntity
  8
寸法
 48
50.0
100
AcDbLeader
  3
INABA_S50G詳細用
 71
     0
 73
     0
 75
     1
 40
150.0
 41
509.9999999999997
 76
     3
 10
10687.30874521374
 20
1358.470190317736
 30
0.0
 10
10160.56291449726
 20
718.772668879907
 30
0.0
 10
10035.56291449726
 20
718.772668879907
 30
0.0
340
2220C
1001
ACAD
1000
DSTYLE
1002
{
1070
    40
1040
1.0
1070
    77
1070
     1
1002
}
  0
MTEXT
  5
2220C
102
{ACAD_REACTORS
330
2220B
102
}
330
747D
100
AcDbEntity
  8
寸法
 62
     7
 48
50.0
100
AcDbMText
 10
10010.56291449726
 20
743.772668879907
 30
0.0
 40
150.0
 41
0.0
 71
     9
 72
     1
  1
\A1;柱前左
  7
STYLE1
 73
     1
 44
1.0
1001
ACAD
1000
MTEXTBEGIN
1070
    73
1070
     1
1070
    44
1040
1.0
1070
    74
1070
     0
1000
MTEXTEND
  0
LEADER
  5
2220D
330
747D
100
AcDbEntity
  8
寸法
 48
50.0
100
AcDbLeader
  3
INABA_S50G詳細用
 71
     0
 73
     0
 74
     0
 75
     1
 40
320.0
 41
857.4999999999995
 76
     3
 10
10844.61248326024
 20
1423.848740711215
 30
0.0
 10
11159.00170339546
 20
961.4621930764705
 30
0.0
 10
11284.00170339546
 20
961.4621930764705
 30
0.0
340
2220E
213
5.875519862805958
223
0.0
233
0.0
1001
ACAD
1000
DSTYLE
1002
{
1070
    40
1040
1.0
1070
    77
1070
     1
1002
}
  0
MTEXT
  5
2220E
102
{ACAD_REACTORS
330
2220D
102
}
330
747D
100
AcDbEntity
  8
寸法
 62
     7
 48
50.0
100
AcDbMText
 10
11303.12618353266
 20
986.4621930764705
 30
0.0
 40
150.0
 41
0.0
 71
     7
 72
     1
  1
\A1;シャッター\Pレール
  7
STYLE1
 73
     1
 44
0.6800000000000001
1001
ACAD
1000
MTEXTBEGIN
1070
    73
1070
     1
1070
    44
1040
0.6800000000000001
1070
    74
1070
     0
1000
MTEXTEND
  0
DIMENSION
  5
222A9
330
747D
100
AcDbEntity
  8
寸法
 48
50.0
100
AcDbDimension
  2
*D17
 10
10158.41084097573
 20
1358.470190317736
 30
0.0
 11
10158.37957421122
 21
1370.970190317736
 31
0.0
 70
   160
  1
55
 71
     5
 42
55.0
  3
INABA_S50G詳細S20用
100
AcDbAlignedDimension
 13
10653.52032787058
 23
1495.970190317736
 33
0.0
 14
10651.83719874706
 24
1358.470190317736
 34
0.0
 50
90.0
100
AcDbRotatedDimension
1001
ACAD
1000
DSTYLE
1002
{
1070
    40
1040
1.0
1070
   279
1070
     1
1002
}
  0
LEADER
  5
22309
330
747D
100
AcDbEntity
  8
寸法
 48
50.0
100
AcDbLeader
  3
INABA_S50G詳細用
 71
     0
 73
     0
 75
     1
 40
150.0
 41
857.4999999999995
 76
     3
 10
13871.08247800052
 20
1785.910452440408
 30
0.0
 10
13674.99640653765
 20
1645.235502297715
 30
0.0
 10
13549.99640653765
 20
1645.235502297715
 30
0.0
340
2230A
1001
ACAD
1000
DSTYLE
1002
{
1070
    40
1040
1.0
1070
    77
1070
     1
1002
}
  0
MTEXT
  5
2230A
102
{ACAD_REACTORS
330
22309
102
}
330
747D
100
AcDbEntity
  8
寸法
 62
     7
 48
50.0
100
AcDbMText
 10
13524.99640653765
 20
1670.235502297715
 30
0.0
 40
150.0
 41
0.0
 71
     9
 72
     1
  1
\A1;シャッター
  7
STYLE1
 73
     1
 44
1.0
1001
ACAD
1000
MTEXTBEGIN
1070
    73
1070
     1
1070
    44
1040
1.0
1070
    74
1070
     0
1000
MTEXTEND
  0
LEADER
  5
2230F
330
747D
100
AcDbEntity
  8
寸法
 48
50.0
100
AcDbLeader
  3
INABA_S50G詳細用
 71
     0
 73
     0
 74
     0
 75
     1
 40
400.0
 41
1057.5
 76
     3
 10
14407.64729708439
 20
1420.793382424751
 30
0.0
 10
14614.9577317285
 20
1717.15061887248
 30
0.0
 10
14739.9577317285
 20
1717.15061887248
 30
0.0
340
22310
1001
ACAD
1000
DSTYLE
1002
{
1070
    40
1040
1.0
1070
    77
1070
     1
1002
}
  0
MTEXT
  5
22310
102
{ACAD_REACTORS
330
2230F
102
}
330
747D
100
AcDbEntity
  8
寸法
 62
     7
 48
50.0
100
AcDbMText
 10
14764.9577317285
 20
1742.15061887248
 30
0.0
 40
150.0
 41
0.0
 71
     7
 72
     1
  1
\A1;F.L 勾配{\H0.7x;\S1#100;}\P表面コテ押エ
  7
STYLE1
 73
     1
 44
1.0
1001
ACAD
1000
MTEXTBEGIN
1070
    73
1070
     1
1070
    44
1040
1.0
1070
    74
1070
     1
1000
MTEXTEND
  0
LINE
  5
22515
330
747D
100
AcDbEntity
  8
細線
 48
50.0
100
AcDbLine
 10
276.59146572891
 20
3707.41934957276
 30
0.0
 11
7184.494735889424
 21
3707.41934957276
 31
0.0
  0
LINE
  5
22516
330
747D
100
AcDbEntity
  8
細線
 48
50.0
100
AcDbLine
 10
9293.294937636451
 20
3707.41934957276
 30
0.0
 11
16201.19820779696
 21
3707.41934957276
 31
0.0
  0
ARC
  5
22517
330
747D
100
AcDbEntity
  8
細線
 48
50.0
100
AcDbCircle
 10
7284.494735889424
 20
3757.41934957276
 30
0.0
 40
100.0
100
AcDbArc
 50
90.0
 51
180.0
  0
ARC
  5
22518
330
747D
100
AcDbEntity
  8
細線
 48
50.0
100
AcDbCircle
 10
7284.494735889424
 20
3657.41934957276
 30
0.0
 40
100.0
100
AcDbArc
 50
180.0
 51
270.0
  0
LINE
  5
22519
330
747D
100
AcDbEntity
  8
細線
 48
50.0
100
AcDbLine
 10
7184.494735889424
 20
3657.41934957276
 30
0.0
 11
7184.494735889424
 21
3757.41934957276
 31
0.0
  0
TEXT
  5
2251A
330
747D
100
AcDbEntity
  8
部品1
 48
50.0
100
AcDbText
 10
7310.431079554023
 20
3638.777826839091
 30
0.0
 40
140.0
  1
基礎詳細図
  7
STYLE2
100
AcDbText
  0
LINE
  5
2251B
330
747D
100
AcDbEntity
  8
細線
 48
50.0
100
AcDbLine
 10
7284.494735889424
 20
3857.41934957276
 30
0.0
 11
9193.294937636451
 21
3857.41934957276
 31
0.0
  0
LINE
  5
2251C
330
747D
100
AcDbEntity
  8
細線
 48
50.0
100
AcDbLine
 10
9193.294937636451
 20
3557.41934957276
 30
0.0
 11
7284.494735889424
 21
3557.41934957276
 31
0.0
  0
ARC
  5
2251D
330
747D
100
AcDbEntity
  8
細線
 48
50.0
100
AcDbCircle
 10
9193.294937636451
 20
3657.41934957276
 30
0.0
 40
100.0
100
AcDbArc
 50
270.0
 51
0.0
  0
ARC
  5
2251E
330
747D
100
AcDbEntity
  8
細線
 48
50.0
100
AcDbCircle
 10
9193.294937636451
 20
3757.41934957276
 30
0.0
 40
100.0
100
AcDbArc
 50
0.0
 51
90.0
  0
LINE
  5
2251F
330
747D
100
AcDbEntity
  8
細線
 48
50.0
100
AcDbLine
 10
9293.294937636451
 20
3657.41934957276
 30
0.0
 11
9293.294937636451
 21
3657.41934957276
 31
0.0
  0
LINE
  5
22520
330
747D
100
AcDbEntity
  8
細線
 48
50.0
100
AcDbLine
 10
9293.294937636451
 20
3757.41934957276
 30
0.0
 11
9293.294937636451
 21
3657.41934957276
 31
0.0
  0
LINE
  5
22521
330
747D
100
AcDbEntity
  8
細線
 48
50.0
100
AcDbLine
 10
276.5914657289104
 20
135.8143065415863
 30
0.0
 11
276.59146572891
 21
3707.41934957276
 31
0.0
  0
LINE
  5
22522
330
747D
100
AcDbEntity
  8
細線
 48
50.0
100
AcDbLine
 10
16201.19820779696
 20
3707.41934957276
 30
0.0
 11
16201.19820779696
 21
135.8143065415861
 31
0.0
  0
LINE
  5
22523
330
747D
100
AcDbEntity
  8
細線
 48
50.0
100
AcDbLine
 10
16201.19820779696
 20
135.8143065415861
 30
0.0
 11
276.5914657289104
 21
135.8143065415863
 31
0.0
  0
DIMENSION
  5
225D2
330
747D
100
AcDbEntity
  8
寸法
 48
50.0
100
AcDbDimension
  2
*D18
 10
3111.3010747587
 20
1712.836257816046
 30
0.0
 11
3111.301074758699
 21
1525.336257816047
 31
0.0
 70
   160
 71
     5
 42
149.9999999999999
  3
INABA_S50G詳細S20用
100
AcDbAlignedDimension
 13
2647.56303166156
 23
1337.836257816047
 33
0.0
 14
2522.56303166156
 24
1712.836257816047
 34
0.0
 50
90.0
100
AcDbRotatedDimension
1001
ACAD
1000
DSTYLE
1002
{
1070
    40
1040
1.0
1002
}
  0
LINE
  5
225DF
330
747D
100
AcDbEntity
  8
部品1
 48
50.0
100
AcDbLine
 10
2529.783297514804
 20
526.3649299305771
 30
0.0
 11
1729.783297514804
 21
526.3649299305771
 31
0.0
  0
LINE
  5
225E0
330
747D
100
AcDbEntity
  8
部品1
 48
50.0
100
AcDbLine
 10
2529.783297514804
 20
326.3649299305771
 30
0.0
 11
1729.783297514804
 21
326.3649299305771
 31
0.0
  0
TEXT
  5
225E1
330
747D
100
AcDbEntity
  8
部品1
 48
50.0
100
AcDbText
 10
1782.521424195073
 20
365.3746626864168
 30
0.0
 40
120.0
  1
基礎断面
  7
STYLE2
100
AcDbText
  0
LINE
  5
225E2
330
747D
100
AcDbEntity
  8
部品1
 48
50.0
100
AcDbLine
 10
1729.783297514804
 20
526.3649299305771
 30
0.0
 11
1729.783297514804
 21
326.3649299305771
 31
0.0
  0
LINE
  5
225E3
330
747D
100
AcDbEntity
  8
部品1
 48
50.0
100
AcDbLine
 10
2529.783297514804
 20
526.3649299305771
 30
0.0
 11
2529.783297514804
 21
326.3649299305771
 31
0.0
  0
LINE
  5
225E9
330
747D
100
AcDbEntity
  8
部品1
 48
50.0
100
AcDbLine
 10
8149.6052186367
 20
526.3649299305766
 30
0.0
 11
7149.605218636705
 21
526.3649299305766
 31
0.0
  0
LINE
  5
225EA
330
747D
100
AcDbEntity
  8
部品1
 48
50.0
100
AcDbLine
 10
8149.6052186367
 20
326.3649299305766
 30
0.0
 11
7149.605218636705
 21
326.3649299305766
 31
0.0
  0
TEXT
  5
225EB
330
747D
100
AcDbEntity
  8
部品1
 48
50.0
100
AcDbText
 10
7226.608262559505
 20
368.8552945961969
 30
0.0
 40
120.0
  1
Ｂ－Ｂ’断面
  7
STYLE2
100
AcDbText
  0
LINE
  5
225EC
330
747D
100
AcDbEntity
  8
部品1
 48
50.0
100
AcDbLine
 10
7149.605218636705
 20
526.3649299305766
 30
0.0
 11
7149.605218636705
 21
326.3649299305766
 31
0.0
  0
LINE
  5
225ED
330
747D
100
AcDbEntity
  8
部品1
 48
50.0
100
AcDbLine
 10
8149.6052186367
 20
526.3649299305766
 30
0.0
 11
8149.6052186367
 21
326.3649299305766
 31
0.0
  0
LINE
  5
22832
330
747D
100
AcDbEntity
  8
部品1
 48
50.0
100
AcDbLine
 10
10932.72347943375
 20
526.3649299305757
 30
0.0
 11
10932.72347943375
 21
326.3649299305757
 31
0.0
  0
LINE
  5
22833
330
747D
100
AcDbEntity
  8
部品1
 48
50.0
100
AcDbLine
 10
10480.70958268012
 20
526.3649299305757
 30
0.0
 11
10480.70958268012
 21
326.3649299305757
 31
0.0
  0
TEXT
  5
22834
330
747D
100
AcDbEntity
  8
部品1
 48
50.0
100
AcDbText
 10
10557.71262660292
 20
368.855294596196
 30
0.0
 40
120.0
  1
Ｃ部
  7
STYLE2
100
AcDbText
  0
LINE
  5
22835
330
747D
100
AcDbEntity
  8
部品1
 48
50.0
100
AcDbLine
 10
10932.72347943375
 20
326.3649299305757
 30
0.0
 11
10480.70958268012
 21
326.3649299305757
 31
0.0
  0
LINE
  5
22836
330
747D
100
AcDbEntity
  8
部品1
 48
50.0
100
AcDbLine
 10
10932.72347943375
 20
526.3649299305757
 30
0.0
 11
10480.70958268012
 21
526.3649299305757
 31
0.0
  0
TEXT
  5
2283D
330
747D
100
AcDbEntity
  8
部品1
 48
50.0
100
AcDbText
 10
12867.91969880341
 20
372.91910369789
 30
0.0
 40
120.0
  1
入口床面コンクリート仕上断面
  7
STYLE2
100
AcDbText
  0
LINE
  5
2283E
330
747D
100
AcDbEntity
  8
部品1
 48
50.0
100
AcDbLine
 10
15152.24914529866
 20
326.3649299305744
 30
0.0
 11
12829.84557389071
 21
326.3649299305744
 31
0.0
  0
LINE
  5
2283F
330
747D
100
AcDbEntity
  8
部品1
 48
50.0
100
AcDbLine
 10
15152.24914529866
 20
526.3649299305743
 30
0.0
 11
12829.84557389071
 21
526.3649299305743
 31
0.0
  0
LINE
  5
22840
330
747D
100
AcDbEntity
  8
部品1
 48
50.0
100
AcDbLine
 10
12829.84557389071
 20
526.3649299305743
 30
0.0
 11
12829.84557389071
 21
326.3649299305744
 31
0.0
  0
LINE
  5
22841
330
747D
100
AcDbEntity
  8
部品1
 48
50.0
100
AcDbLine
 10
15152.24914529866
 20
526.3649299305743
 30
0.0
 11
15152.24914529866
 21
326.3649299305744
 31
0.0
  0
TEXT
  5
228B4
330
747D
100
AcDbEntity
  8
文字
 48
50.0
100
AcDbText
 10
9419.015768579416
 20
8804.808177768984
 30
0.0
 40
150.0
  1
水勾配1/100
 50
90.0
  7
STYLE1
100
AcDbText
  0
LEADER
  5
228B5
330
747D
100
AcDbEntity
  8
寸法
 48
50.0
100
AcDbLeader
  3
INABA_S50G
 76
     2
 10
9483.924729104385
 20
8625.86361827816
 30
0.0
 10
9483.924729104385
 20
9825.863618278161
 30
0.0
1001
ACAD
1000
DSTYLE
1002
{
1070
    40
1040
1.0
1070
   173
1070
     0
1070
   341
1005
228B7
1070
   343
1005
0
1070
   344
1005
0
1002
}
  0
MTEXT
  5
228B6
330
747D
100
AcDbEntity
  8
寸法
 48
50.0
100
AcDbMText
 10
9136.922902893273
 20
10570.23980628396
 30
0.0
 40
150.0
 41
1687.1
 71
     1
 72
     5
  1
\C7;床コンクリート打\P    コテ押エ
  7
STYLE1
 73
     1
 44
1.0
1001
ACAD
1000
MTEXTBEGIN
1070
    73
1070
     1
1070
    44
1040
1.0
1070
    74
1070
     0
1000
MTEXTEND
  0
TEXT
  5
22D46
330
747D
100
AcDbEntity
  8
文字
 62
     7
 48
50.0
100
AcDbText
 10
8625.350026951977
 20
3646.095361440611
 30
0.0
 40
125.0
  1
S=1/20
  7
STYLE2
100
AcDbText
  0
HATCH
  5
22EF4
330
747D
100
AcDbEntity
  8
細線
 48
50.0
100
AcDbHatch
 10
0.0
 20
0.0
 30
0.0
210
0.0
220
0.0
230
1.0
  2
PLAST
 70
     0
 71
     1
 91
        1
 92
        5
 93
        6
 72
     1
 10
10633.08719874705
 20
1533.470190317737
 11
10883.08719874705
 21
1533.470190317737
 72
     1
 10
10883.08719874705
 20
1533.470190317737
 11
10883.08719874706
 21
1583.470190317738
 72
     1
 10
10883.08719874706
 20
1583.470190317738
 11
10933.08719874706
 21
1583.470190317737
 72
     1
 10
10933.08719874706
 20
1583.470190317737
 11
10933.08719874705
 21
2341.863780633977
 72
     4
 94
        3
 73
     0
 74
     0
 95
       11
 96
        7
 40
86.69635969091361
 40
86.69635969091361
 40
86.69635969091361
 40
86.69635969091361
 40
142.4562004170196
 40
249.0971287921331
 40
365.1670311020028
 40
409.2041214600675
 40
409.2041214600675
 40
409.2041214600675
 40
409.2041214600675
 10
10933.08719874706
 20
2341.863780633977
 10
10915.39749679663
 20
2347.06206761877
 10
10864.37047198676
 20
2354.273140733815
 10
10780.93012126585
 20
2301.571981966338
 10
10697.5117431201
 20
2256.823595375934
 10
10647.00198787256
 20
2264.30512270339
 10
10633.08719874705
 20
2268.092530673376
 72
     1
 10
10633.08719874705
 20
2268.092530673376
 11
10633.08719874705
 21
1533.470190317737
 97
        6
330
1F05E
330
1EC82
330
21B17
330
1EFB6
330
1EFB7
330
1EC81
 75
     0
 76
     1
 52
45.0
 41
37.5
 77
     0
 78
     3
 53
45.0
 43
-1648.463189616988
 44
-418.8668191096519
 45
-168.3798022700466
 46
168.3798022700466
 79
     0
 53
45.0
 43
-1669.510664900744
 44
-397.8193438258961
 45
-168.3798022700466
 46
168.3798022700466
 79
     0
 53
45.0
 43
-1690.558140184499
 44
-376.7718685421403
 45
-168.3798022700466
 46
168.3798022700466
 79
     0
 47
1.850719366036337
 98
        1
 10
10742.16903740517
 20
1844.972138546028
  0
DIMENSION
  5
22F34
330
747D
100
AcDbEntity
  8
寸法
 48
50.0
100
AcDbDimension
  2
*D20
 10
10158.37957421122
 20
1533.470190317737
 30
0.0
 11
10159.39767522289
 21
1627.317810013548
 31
0.0
 70
   160
 71
     5
 42
15.00000000000036
  3
INABA_S50G詳細S20用
100
AcDbAlignedDimension
 13
10653.52032787058
 23
1495.970190317736
 33
0.0
 14
10633.08719874705
 24
1533.470190317737
 34
0.0
 50
90.0
100
AcDbRotatedDimension
1001
ACAD
1000
DSTYLE
1002
{
1070
    40
1040
1.0
1070
   279
1070
     1
1002
}
  0
DIMENSION
  5
22FA3
330
747D
100
AcDbEntity
  8
寸法
 48
50.0
100
AcDbDimension
  2
*D21
 10
10783.08719874706
 20
763.8726854292685
 30
0.0
 11
11095.07538772343
 21
763.8726854292685
 31
0.0
 70
   160
 71
     5
 42
55.0
  3
INABA_S50G詳細S20用
100
AcDbAlignedDimension
 13
10645.58719874706
 23
1364.720190317735
 33
0.0
 14
10783.08719874706
 24
1364.720190317737
 34
0.0
 50
180.0
100
AcDbRotatedDimension
1001
ACAD
1000
DSTYLE
1002
{
1070
    40
1040
1.0
1002
}
  0
ARC
  5
232E3
330
747D
100
AcDbEntity
  8
部品1
 48
50.0
100
AcDbCircle
 10
10651.83719874706
 20
1489.720190317736
 30
0.0
 40
6.25
100
AcDbArc
 50
90.00000000000142
 51
180.0000000000009
  0
ARC
  5
232E5
330
747D
100
AcDbEntity
  8
部品1
 48
50.0
100
AcDbCircle
 10
10651.83719874706
 20
1364.720190317735
 30
0.0
 40
6.25
100
AcDbArc
 50
180.0
 51
270.0000000000006
  0
ARC
  5
232E6
330
747D
100
AcDbEntity
  8
部品1
 48
50.0
100
AcDbCircle
 10
10776.83719874706
 20
1364.720190317737
 30
0.0
 40
6.25
100
AcDbArc
 50
270.0000000000006
 51
0.0
  0
ARC
  5
232E7
330
747D
100
AcDbEntity
  8
部品1
 48
50.0
100
AcDbCircle
 10
10776.83719874706
 20
1442.220190317738
 30
0.0
 40
6.25
100
AcDbArc
 50
0.0
 51
90.00000000000175
  0
LINE
  5
232E8
330
747D
100
AcDbEntity
  8
部品1
 48
50.0
100
AcDbLine
 10
10783.08719874705
 20
1513.464556864376
 30
0.0
 11
10783.08719874705
 21
1437.220190317732
 31
0.0
  0
LINE
  5
23300
330
747D
100
AcDbEntity
  8
部品1
 48
50.0
100
AcDbLine
 10
13759.27778669574
 20
914.7280542721883
 30
0.0
 11
16033.91016177418
 21
914.7280542721883
 31
0.0
  0
LINE
  5
23301
330
747D
100
AcDbEntity
  8
部品1
 48
50.0
100
AcDbLine
 10
13759.27778669574
 20
914.7280542721883
 30
0.0
 11
12816.09593629506
 21
777.7456090520327
 31
0.0
  0
LWPOLYLINE
  5
23304
330
747D
100
AcDbEntity
  8
部品1
 48
50.0
100
AcDbPolyline
 90
        5
 70
     0
 43
18.75
 10
16033.91016177418
 20
1085.978054272188
 10
13759.27778669574
 20
1085.978054272188
 10
12816.09593629506
 20
948.9956090520326
 10
12628.59593629507
 20
948.9956090520326
 42
-0.0003106600707159
 10
12628.59593629507
 20
948.9956090520326
 42
-3218.952463694237
  0
LINE
  5
23305
330
747D
100
AcDbEntity
  8
部品1
 48
50.0
100
AcDbLine
 10
13759.27778669574
 20
1064.728054272188
 30
0.0
 11
16033.91016177418
 21
1064.728054272188
 31
0.0
  0
LINE
  5
23306
330
747D
100
AcDbEntity
  8
部品1
 48
50.0
100
AcDbLine
 10
13759.27778669574
 20
1064.728054272188
 30
0.0
 11
12816.09593629506
 21
927.7456090520328
 31
0.0
  0
LINE
  5
23307
330
747D
100
AcDbEntity
  8
部品1
 48
50.0
100
AcDbLine
 10
12816.09593629506
 20
927.7456090520328
 30
0.0
 11
12628.59593629507
 21
927.7456090520328
 31
0.0
  0
HATCH
  5
23314
330
747D
100
AcDbEntity
  8
細線
 48
50.0
100
AcDbHatch
 10
0.0
 20
0.0
 30
0.0
210
0.0
220
0.0
230
1.0
  2
LINE
 70
     0
 71
     0
 91
        1
 92
        7
 72
     0
 73
     1
 93
        8
 10
13759.27778669574
 20
1064.728054272188
 10
12816.09593629506
 20
927.7456090520328
 10
12628.59593629507
 20
927.7456090520328
 10
12628.59593629507
 20
777.8412467600692
 10
12816.7544422101
 20
777.8412467600692
 10
13759.27778669574
 20
914.7280542721883
 10
16033.91016177418
 20
914.7280542721883
 10
16033.91016177418
 20
1064.728054272189
 97
        0
 75
     0
 76
     1
 52
75.0
 41
37.5
 77
     0
 78
     1
 53
75.0
 43
7257.792617909307
 44
-356.1036699462274
 45
-115.0055436925422
 46
30.81564255751887
 79
     0
 47
4.464951060972777
 98
        1
 10
14488.47327232397
 20
993.417999008885
  0
LINE
  5
23315
330
747D
100
AcDbEntity
  8
細線
 48
50.0
100
AcDbLine
 10
15274.08395544805
 20
1039.728054272189
 30
0.0
 11
15267.38522563728
 21
1064.728054272189
 31
0.0
  0
LINE
  5
23316
330
747D
100
AcDbEntity
  8
細線
 48
50.0
100
AcDbLine
 10
15150.82138521798
 20
1039.728054272189
 30
0.0
 11
15144.1226554072
 21
1064.728054272189
 31
0.0
  0
LINE
  5
23317
330
747D
100
AcDbEntity
  8
細線
 48
50.0
100
AcDbLine
 10
15890.39680659843
 20
1039.72805427218
 30
0.0
 11
15883.69807678765
 21
1064.728054272187
 31
0.0
  0
LINE
  5
23318
330
747D
100
AcDbEntity
  8
細線
 48
50.0
100
AcDbLine
 10
16013.6593768285
 20
1039.728054272183
 30
0.0
 11
16006.96064701773
 21
1064.728054272184
 31
0.0
  0
LINE
  5
23319
330
747D
100
AcDbEntity
  8
細線
 48
50.0
100
AcDbLine
 10
15520.6090959082
 20
1039.728054272184
 30
0.0
 11
15513.91036609742
 21
1064.728054272189
 31
0.0
  0
LINE
  5
2331A
330
747D
100
AcDbEntity
  8
細線
 48
50.0
100
AcDbLine
 10
15643.87166613828
 20
1039.72805427218
 30
0.0
 11
15637.17293632749
 21
1064.728054272187
 31
0.0
  0
LINE
  5
2331B
330
747D
100
AcDbEntity
  8
細線
 48
50.0
100
AcDbLine
 10
15767.13423636835
 20
1039.728054272184
 30
0.0
 11
15760.43550655757
 21
1064.728054272184
 31
0.0
  0
LINE
  5
2331C
330
747D
100
AcDbEntity
  8
細線
 48
50.0
100
AcDbLine
 10
15397.34652567813
 20
1039.728054272184
 30
0.0
 11
15390.64779586735
 21
1064.728054272189
 31
0.0
  0
LINE
  5
2331D
330
747D
100
AcDbEntity
  8
細線
 48
50.0
100
AcDbLine
 10
15377.2503362458
 20
914.7280542721846
 30
0.0
 11
15370.55160643502
 21
939.7280542721919
 31
0.0
  0
LINE
  5
2331E
330
747D
100
AcDbEntity
  8
細線
 48
50.0
100
AcDbLine
 10
15130.72519578565
 20
914.7280542721873
 30
0.0
 11
15124.02646597487
 21
939.7280542721937
 31
0.0
  0
LINE
  5
2331F
330
747D
100
AcDbEntity
  8
細線
 48
50.0
100
AcDbLine
 10
15253.98776601573
 20
914.7280542721873
 30
0.0
 11
15247.28903620494
 21
939.7280542721983
 31
0.0
  0
LINE
  5
23320
330
747D
100
AcDbEntity
  8
細線
 48
50.0
100
AcDbLine
 10
15870.3006171661
 20
914.7280542721846
 30
0.0
 11
15863.60188735532
 21
939.7280542721919
 31
0.0
  0
LINE
  5
23321
330
747D
100
AcDbEntity
  8
細線
 48
50.0
100
AcDbLine
 10
15993.56318739618
 20
914.7280542721846
 30
0.0
 11
15986.8644575854
 21
939.7280542721892
 31
0.0
  0
LINE
  5
23322
330
747D
100
AcDbEntity
  8
細線
 48
50.0
100
AcDbLine
 10
15623.77547670595
 20
914.7280542721846
 30
0.0
 11
15617.07674689517
 21
939.7280542721919
 31
0.0
  0
LINE
  5
23323
330
747D
100
AcDbEntity
  8
細線
 48
50.0
100
AcDbLine
 10
15747.03804693603
 20
914.7280542721846
 30
0.0
 11
15740.33931712525
 21
939.7280542721965
 31
0.0
  0
LINE
  5
23324
330
747D
100
AcDbEntity
  8
細線
 48
50.0
100
AcDbLine
 10
15500.51290647588
 20
914.7280542721846
 30
0.0
 11
15493.8141766651
 21
939.7280542721965
 31
0.0
  0
LINE
  5
23326
330
747D
100
AcDbEntity
  8
細線
 48
50.0
100
AcDbLine
 10
14514.41234463527
 20
914.7280542721846
 30
0.0
 11
14507.71361482449
 21
939.7280542721965
 31
0.0
  0
LINE
  5
23327
330
747D
100
AcDbEntity
  8
細線
 48
50.0
100
AcDbLine
 10
14637.67491486535
 20
914.7280542721846
 30
0.0
 11
14630.97618505457
 21
939.7280542721919
 31
0.0
  0
LINE
  5
23328
330
747D
100
AcDbEntity
  8
細線
 48
50.0
100
AcDbLine
 10
14267.88720417512
 20
914.7280542721873
 30
0.0
 11
14261.18847436434
 21
939.7280542721983
 31
0.0
  0
LINE
  5
23329
330
747D
100
AcDbEntity
  8
細線
 48
50.0
100
AcDbLine
 10
14144.62463394505
 20
914.7280542721873
 30
0.0
 11
14137.92590413427
 21
939.7280542721937
 31
0.0
  0
LINE
  5
2332A
330
747D
100
AcDbEntity
  8
細線
 48
50.0
100
AcDbLine
 10
14391.1497744052
 20
914.7280542721846
 30
0.0
 11
14384.45104459442
 21
939.7280542721919
 31
0.0
  0
LINE
  5
2332B
330
747D
100
AcDbEntity
  8
細線
 48
50.0
100
AcDbLine
 10
14760.93748509542
 20
914.7280542721846
 30
0.0
 11
14754.23875528465
 21
939.7280542721965
 31
0.0
  0
LINE
  5
2332C
330
747D
100
AcDbEntity
  8
細線
 48
50.0
100
AcDbLine
 10
15007.46262555558
 20
914.7280542721846
 30
0.0
 11
15000.76389574479
 21
939.7280542721892
 31
0.0
  0
LINE
  5
2332D
330
747D
100
AcDbEntity
  8
細線
 48
50.0
100
AcDbLine
 10
14884.2000553255
 20
914.7280542721846
 30
0.0
 11
14877.50132551472
 21
939.7280542721919
 31
0.0
  0
LINE
  5
2332E
330
747D
100
AcDbEntity
  8
細線
 48
50.0
100
AcDbLine
 10
14411.24596383752
 20
1039.728054272184
 30
0.0
 11
14404.54723402674
 21
1064.728054272189
 31
0.0
  0
LINE
  5
2332F
330
747D
100
AcDbEntity
  8
細線
 48
50.0
100
AcDbLine
 10
14657.77110429768
 20
1039.72805427218
 30
0.0
 11
14651.07237448689
 21
1064.728054272187
 31
0.0
  0
LINE
  5
23330
330
747D
100
AcDbEntity
  8
細線
 48
50.0
100
AcDbLine
 10
14534.5085340676
 20
1039.728054272184
 30
0.0
 11
14527.80980425681
 21
1064.728054272189
 31
0.0
  0
LINE
  5
23331
330
747D
100
AcDbEntity
  8
細線
 48
50.0
100
AcDbLine
 10
14164.72082337738
 20
1039.728054272189
 30
0.0
 11
14158.0220935666
 21
1064.728054272189
 31
0.0
  0
LINE
  5
23332
330
747D
100
AcDbEntity
  8
細線
 48
50.0
100
AcDbLine
 10
14287.98339360745
 20
1039.728054272189
 30
0.0
 11
14281.28466379667
 21
1064.728054272189
 31
0.0
  0
LINE
  5
23333
330
747D
100
AcDbEntity
  8
細線
 48
50.0
100
AcDbLine
 10
14781.03367452775
 20
1039.728054272184
 30
0.0
 11
14774.33494471697
 21
1064.728054272184
 31
0.0
  0
LINE
  5
23334
330
747D
100
AcDbEntity
  8
細線
 48
50.0
100
AcDbLine
 10
14904.29624475783
 20
1039.72805427218
 30
0.0
 11
14897.59751494704
 21
1064.728054272187
 31
0.0
  0
LINE
  5
23335
330
747D
100
AcDbEntity
  8
細線
 48
50.0
100
AcDbLine
 10
15027.5588149879
 20
1039.728054272183
 30
0.0
 11
15020.86008517713
 21
1064.728054272184
 31
0.0
  0
LINE
  5
2333C
330
747D
100
AcDbEntity
  8
細線
 48
50.0
100
AcDbLine
 10
12772.15384131919
 20
902.8412467600656
 30
0.0
 11
12765.45511150842
 21
927.8412467600656
 31
0.0
  0
LINE
  5
2333E
330
747D
100
AcDbEntity
  8
細線
 48
50.0
100
AcDbLine
 10
12648.89127108912
 20
902.841246760061
 30
0.0
 11
12642.19254127834
 21
927.8412467600682
 31
0.0
  0
LINE
  5
2333F
330
747D
100
AcDbEntity
  8
細線
 48
50.0
100
AcDbLine
 10
12752.05765188687
 20
777.8412467600656
 30
0.0
 11
12745.35892207609
 21
802.8412467600773
 31
0.0
  0
LINE
  5
23342
330
747D
100
AcDbEntity
  8
細線
 48
50.0
100
AcDbLine
 10
13918.19568291722
 20
1039.728054272184
 30
0.0
 11
13911.49695310644
 21
1064.728054272189
 31
0.0
  0
LINE
  5
23343
330
747D
100
AcDbEntity
  8
細線
 48
50.0
100
AcDbLine
 10
13794.93311268715
 20
1039.728054272189
 30
0.0
 11
13788.23438287637
 21
1064.728054272189
 31
0.0
  0
LINE
  5
23344
330
747D
100
AcDbEntity
  8
細線
 48
50.0
100
AcDbLine
 10
13667.85198318613
 20
1025.47699706132
 30
0.0
 11
13661.15325337535
 21
1050.476997061321
 31
0.0
  0
LINE
  5
23345
330
747D
100
AcDbEntity
  8
細線
 48
50.0
100
AcDbLine
 10
13898.0994934849
 20
914.7280542721846
 30
0.0
 11
13891.40076367412
 21
939.7280542721919
 31
0.0
  0
LINE
  5
23346
330
747D
100
AcDbEntity
  8
細線
 48
50.0
100
AcDbLine
 10
13647.21331493249
 20
898.4524385381574
 30
0.0
 11
13640.51458512171
 21
923.4524385381638
 31
0.0
  0
LINE
  5
23347
330
747D
100
AcDbEntity
  8
細線
 48
50.0
100
AcDbLine
 10
13774.83692325482
 20
914.7280542721873
 30
0.0
 11
13768.13819344404
 21
939.7280542721983
 31
0.0
  0
LINE
  5
23348
330
747D
100
AcDbEntity
  8
細線
 48
50.0
100
AcDbLine
 10
14041.4582531473
 20
1039.728054272184
 30
0.0
 11
14034.75952333651
 21
1064.728054272189
 31
0.0
  0
LINE
  5
23349
330
747D
100
AcDbEntity
  8
細線
 48
50.0
100
AcDbLine
 10
14021.36206371497
 20
914.7280542721846
 30
0.0
 11
14014.66333390419
 21
939.7280542721965
 31
0.0
  0
LINE
  5
2334B
330
747D
100
AcDbEntity
  8
細線
 48
50.0
100
AcDbLine
 10
13539.59836721313
 20
1006.850160765812
 30
0.0
 11
13532.89963740235
 21
1031.850160765812
 31
0.0
  0
LINE
  5
2334C
330
747D
100
AcDbEntity
  8
細線
 48
50.0
100
AcDbLine
 10
13518.95969895949
 20
879.8256022426476
 30
0.0
 11
13512.26096914871
 21
904.8256022426549
 31
0.0
  0
LINE
  5
2334D
330
747D
100
AcDbEntity
  8
細線
 48
50.0
100
AcDbLine
 10
13411.34475124012
 20
988.2233244703019
 30
0.0
 11
13404.64602142934
 21
1013.223324470302
 31
0.0
  0
LINE
  5
2334E
330
747D
100
AcDbEntity
  8
細線
 48
50.0
100
AcDbLine
 10
13390.70608298648
 20
861.1987659471379
 30
0.0
 11
13384.00735317571
 21
886.198765947145
 31
0.0
  0
LINE
  5
2334F
330
747D
100
AcDbEntity
  8
細線
 48
50.0
100
AcDbLine
 10
13283.09113526712
 20
969.5964881747931
 30
0.0
 11
13276.39240545634
 21
994.5964881747931
 31
0.0
  0
LINE
  5
23350
330
747D
100
AcDbEntity
  8
細線
 48
50.0
100
AcDbLine
 10
13262.45246701348
 20
842.5719296516289
 30
0.0
 11
13255.7537372027
 21
867.5719296516353
 31
0.0
  0
LINE
  5
23351
330
747D
100
AcDbEntity
  8
細線
 48
50.0
100
AcDbLine
 10
13154.83751929412
 20
950.9696518792834
 30
0.0
 11
13148.13878948334
 21
975.9696518792834
 31
0.0
  0
LINE
  5
23352
330
747D
100
AcDbEntity
  8
細線
 48
50.0
100
AcDbLine
 10
13134.19885104047
 20
823.9450933561192
 30
0.0
 11
13127.5001212297
 21
848.9450933561256
 31
0.0
  0
LINE
  5
23353
330
747D
100
AcDbEntity
  8
細線
 48
50.0
100
AcDbLine
 10
13026.58390332111
 20
932.3428155837737
 30
0.0
 11
13019.88517351034
 21
957.3428155837737
 31
0.0
  0
LINE
  5
23354
330
747D
100
AcDbEntity
  8
細線
 48
50.0
100
AcDbLine
 10
13005.94523506747
 20
805.3182570606095
 30
0.0
 11
12999.24650525669
 21
830.3182570606159
 31
0.0
  0
LINE
  5
23355
330
747D
100
AcDbEntity
  8
細線
 48
50.0
100
AcDbLine
 10
12898.33028734811
 20
913.7159792882648
 30
0.0
 11
12891.63155753733
 21
938.7159792882648
 31
0.0
  0
LINE
  5
23356
330
747D
100
AcDbEntity
  8
細線
 48
50.0
100
AcDbLine
 10
12877.69161909447
 20
786.6914207651007
 30
0.0
 11
12870.99288928369
 21
811.6914207651079
 31
0.0
  0
HATCH
  5
23369
330
747D
100
AcDbEntity
  8
細線
 48
50.0
100
AcDbHatch
 10
0.0
 20
0.0
 30
0.0
210
0.0
220
0.0
230
1.0
  2
AR-SAND
 70
     0
 71
     0
 91
        2
 92
        7
 72
     1
 73
     1
 93
       11
 10
16033.91016177418
 20
1625.833239281673
 42
0.0
 10
13939.50248231424
 20
1625.833239281673
 42
0.0
 10
13939.50248231425
 20
1395.476094781674
 42
0.0
 10
13957.35962681424
 20
1395.476094781675
 42
-0.4142135623731417
 10
13964.50248231424
 20
1388.333239281674
 42
-0.5239529462182031
 10
13954.84534167825
 20
1381.647526533671
 42
0.0
 10
13939.50248231424
 20
1384.437137327127
 42
0.0
 10
13939.50248231425
 20
1375.833239281674
 42
0.0
 10
13989.50248231424
 20
1375.833239281674
 42
0.0
 10
13989.50248231424
 20
1415.080039823297
 42
0.0
 10
16033.91016177418
 20
1443.01390645804
 42
0.0
 97
        0
 92
       23
 72
     1
 73
     1
 93
        5
 10
13957.35962681424
 20
1395.476094781675
 42
0.0
 10
13939.50248231424
 20
1395.476094781674
 42
0.0
 10
13939.50248231424
 20
1384.437137327128
 42
0.0
 10
13957.35962681424
 20
1381.190383781673
 42
0.4142135623731417
 10
13964.50248231424
 20
1388.333239281674
 42
0.4142135623731417
 97
        0
 75
     0
 76
     1
 52
0.0
 41
2.5
 77
     0
 78
     4
 53
37.5
 43
7257.792617909307
 44
-163.7783944361435
 45
-4.000078239960114
 46
122.3533093323356
 79
     6
 49
0.0
 49
-96.52000000000001
 49
0.0
 49
-107.95
 49
0.0
 49
-103.1875
 53
7.499999999999999
 43
7257.792617909307
 44
-163.7783944361435
 45
112.3808207845006
 46
179.2062751420886
 79
     6
 49
0.0
 49
-52.07
 49
0.0
 49
-86.995
 49
0.0
 49
-33.33750000000001
 53
327.5
 43
7179.687617909308
 44
-163.7783944361435
 45
197.7480925603645
 46
0.3592961696364227
 79
     6
 49
0.0
 49
-31.75
 49
0.0
 49
-114.3
 49
0.0
 49
-149.225
 53
317.5
 43
7179.687617909308
 44
-163.7783944361435
 45
190.8891131180743
 46
55.73233081430405
 79
     6
 49
0.0
 49
-15.875
 49
0.0
 49
-74.92999999999999
 49
0.0
 49
-85.72499999999999
 47
0.1817197188422509
 98
        2
 10
14677.32951588002
 20
1580.373410776061
 10
13954.64505802727
 20
1390.261500099819
  0
HATCH
  5
23374
330
747D
100
AcDbEntity
  8
細線
 48
50.0
100
AcDbHatch
 10
0.0
 20
0.0
 30
0.0
210
0.0
220
0.0
230
1.0
  2
PLAST
 70
     0
 71
     0
 91
        1
 92
        7
 72
     0
 73
     1
 93
        9
 10
13989.50248231425
 20
1415.080039823297
 10
13989.50248231425
 20
1375.833239281674
 10
13727.00248231424
 20
1375.833239281674
 10
12863.46247700408
 20
1250.417529233225
 10
12816.09593629506
 20
1207.083239281676
 10
12816.09593629506
 20
970.2456090520326
 10
13759.27778669574
 20
1107.228054272188
 10
16033.91016177418
 20
1107.228054272189
 10
16033.91016177418
 20
1443.01390645804
 97
        0
 75
     0
 76
     1
 52
135.0
 41
37.5
 77
     0
 78
     3
 53
135.0
 43
7257.792617909307
 44
-356.1036699462274
 45
-168.3798022700466
 46
-168.3798022700466
 79
     0
 53
135.0
 43
7236.74514262555
 44
-377.1511452299833
 45
-168.3798022700466
 46
-168.3798022700466
 79
     0
 53
135.0
 43
7215.697667341796
 44
-398.1986205137391
 45
-168.3798022700466
 46
-168.3798022700466
 79
     0
 47
3.18285661301141
 98
        1
 10
14571.45774221002
 20
1277.116965509682
  0
LINE
  5
2339F
330
747D
100
AcDbEntity
  8
細線
 48
50.0
100
AcDbLine
 10
13814.50249956424
 20
1381.190383781673
 30
0.0
 11
13814.50249956424
 21
1394.940383781673
 31
0.0
  0
LINE
  5
233A0
330
747D
100
AcDbEntity
  8
細線
 48
50.0
100
AcDbLine
 10
13839.50249956424
 20
1398.690383781673
 30
0.0
 11
13939.50249956424
 21
1398.690383781673
 31
0.0
  0
LINE
  5
233A1
330
747D
100
AcDbEntity
  8
細線
 48
50.0
100
AcDbLine
 10
13964.50249956424
 20
1394.940383781673
 30
0.0
 11
13964.50249956424
 21
1381.190383781673
 31
0.0
  0
LINE
  5
233A3
330
747D
100
AcDbEntity
  8
細線
 48
50.0
100
AcDbLine
 10
13818.25249956424
 20
1381.190383781673
 30
0.0
 11
13818.25249956424
 21
1391.190383781673
 31
0.0
  0
LINE
  5
233A4
330
747D
100
AcDbEntity
  8
細線
 48
50.0
100
AcDbLine
 10
13818.25249956424
 20
1391.190383781673
 30
0.0
 11
13880.75249956424
 21
1391.190383781673
 31
0.0
  0
LINE
  5
233A5
330
747D
100
AcDbEntity
  8
細線
 48
50.0
100
AcDbLine
 10
13964.50249956424
 20
1381.190383781673
 30
0.0
 11
13960.75249956424
 21
1381.190383781673
 31
0.0
  0
LINE
  5
233A6
330
747D
100
AcDbEntity
  8
細線
 48
50.0
100
AcDbLine
 10
13814.50249956424
 20
1381.190383781673
 30
0.0
 11
13818.25249956424
 21
1381.190383781673
 31
0.0
  0
LINE
  5
233A9
330
747D
100
AcDbEntity
  8
細線
 48
50.0
100
AcDbLine
 10
13964.50249956424
 20
1394.940383781673
 30
0.0
 11
13939.50249956424
 21
1398.690383781673
 31
0.0
  0
LINE
  5
233AA
330
747D
100
AcDbEntity
  8
細線
 48
50.0
100
AcDbLine
 10
13814.50249956424
 20
1394.940383781673
 30
0.0
 11
13839.50249956424
 21
1398.690383781673
 31
0.0
  0
LINE
  5
233AC
330
747D
100
AcDbEntity
  8
細線
 48
50.0
100
AcDbLine
 10
13960.75249956424
 20
1391.190383781673
 30
0.0
 11
13960.75249956424
 21
1381.190383781673
 31
0.0
  0
LINE
  5
233AD
330
747D
100
AcDbEntity
  8
細線
 48
50.0
100
AcDbLine
 10
13889.50249956424
 20
1398.690383781673
 30
0.0
 11
13889.50249956424
 21
1536.817191779729
 31
0.0
  0
LINE
  5
233AE
330
747D
100
AcDbEntity
  8
細線
 48
50.0
100
AcDbLine
 10
13898.25249956424
 20
1381.190383781673
 30
0.0
 11
13880.75249956424
 21
1381.190383781673
 31
0.0
  0
LINE
  5
233B3
330
747D
100
AcDbEntity
  8
細線
 48
50.0
100
AcDbLine
 10
13898.25249956424
 20
1391.190383781673
 30
0.0
 11
13898.25249956424
 21
1381.190383781673
 31
0.0
  0
LINE
  5
233B4
330
747D
100
AcDbEntity
  8
細線
 48
50.0
100
AcDbLine
 10
13880.75249956424
 20
1391.190383781673
 30
0.0
 11
13880.75249956424
 21
1381.190383781673
 31
0.0
  0
LINE
  5
233B5
330
747D
100
AcDbEntity
  8
細線
 48
50.0
100
AcDbLine
 10
13898.25249956424
 20
1391.190383781673
 30
0.0
 11
13960.75249956424
 21
1391.190383781673
 31
0.0
  0
ARC
  5
233DB
330
747D
100
AcDbEntity
  8
細線
 48
50.0
100
AcDbCircle
 10
13898.26745881149
 20
1715.174154609973
 30
0.0
 40
9.375
100
AcDbArc
 50
0.0
 51
90.0
  0
LINE
  5
233EB
330
747D
100
AcDbEntity
  8
細線
 48
50.0
100
AcDbLine
 10
13889.93213004438
 20
1554.970062269372
 30
0.0
 11
13891.90221286795
 21
1551.807018134549
 31
0.0
  0
ARC
  5
233EC
330
747D
100
AcDbEntity
  8
細線
 48
50.0
100
AcDbCircle
 10
13896.8960264932
 20
1556.424154609973
 30
0.0
 40
6.875
100
AcDbArc
 50
226.6764927581371
 51
32.97249425048595
  0
ARC
  5
233ED
330
747D
100
AcDbEntity
  8
細線
 48
50.0
100
AcDbCircle
 10
13893.03661901559
 20
1552.332015936641
 30
0.0
 40
1.25
100
AcDbArc
 50
204.8344764793232
 51
226.6764927581399
  0
LINE
  5
233EE
330
747D
100
AcDbEntity
  8
細線
 48
50.0
100
AcDbLine
 10
13884.88386268782
 20
1700.897045705913
 30
0.0
 11
13871.81157513927
 21
1690.756230262874
 31
0.0
  0
LINE
  5
233EF
330
747D
100
AcDbEntity
  8
細線
 48
50.0
100
AcDbLine
 10
13888.67812123016
 20
1556.425101381273
 30
0.0
 11
13871.59276735957
 21
1570.968140478435
 31
0.0
  0
LINE
  5
233F1
330
747D
100
AcDbEntity
  8
細線
 48
50.0
100
AcDbLine
 10
13900.23064926251
 20
1705.514896347082
 30
0.0
 11
13887.09712732814
 21
1701.995779750991
 31
0.0
  0
ARC
  5
233F6
330
747D
100
AcDbEntity
  8
細線
 48
50.0
100
AcDbCircle
 10
13899.9911235441
 20
1557.584704063097
 30
0.0
 40
3.75
100
AcDbArc
 50
49.49171241444783
 51
163.5378536913867
  0
ARC
  5
233F7
330
747D
100
AcDbEntity
  8
細線
 48
50.0
100
AcDbCircle
 10
13901.61501862149
 20
1559.485484107615
 30
0.0
 40
1.25
100
AcDbArc
 50
32.97249425047584
 51
49.49171241444783
  0
ARC
  5
23408
330
747D
100
AcDbEntity
  8
細線
 48
50.0
100
AcDbCircle
 10
13897.64245881149
 20
1715.174154609973
 30
0.0
 40
10.0
100
AcDbArc
 50
285.0000000000037
 51
0.0
  0
ARC
  5
2340B
330
747D
100
AcDbEntity
  8
細線
 48
50.0
100
AcDbCircle
 10
13896.92817556149
 20
1718.924154609973
 30
0.0
 40
5.625
100
AcDbArc
 50
90.0
 51
236.3688917191613
  0
LINE
  5
2342A
330
747D
100
AcDbEntity
  8
細線
 48
50.0
100
AcDbLine
 10
13869.45811369578
 20
1684.914392897145
 30
0.0
 11
13871.53769492801
 21
1670.680469378893
 31
0.0
  0
LINE
  5
2342B
330
747D
100
AcDbEntity
  8
細線
 48
50.0
100
AcDbLine
 10
13871.28262042512
 20
1667.800510844789
 30
0.0
 11
13869.9764858347
 21
1663.882107073522
 31
0.0
  0
LINE
  5
2342D
330
747D
100
AcDbEntity
  8
細線
 48
50.0
100
AcDbLine
 10
13870.10277712948
 20
1659.584491808702
 30
0.0
 11
13870.8240296842
 21
1657.781360421905
 31
0.0
  0
LINE
  5
2342E
330
747D
100
AcDbEntity
  8
細線
 48
50.0
100
AcDbLine
 10
13870.82402968421
 20
1653.138976967477
 30
0.0
 11
13870.18098306598
 21
1651.5313604219
 31
0.0
  0
LINE
  5
2342F
330
747D
100
AcDbEntity
  8
細線
 48
50.0
100
AcDbLine
 10
13870.18098306598
 20
1646.888976967474
 30
0.0
 11
13871.18425668078
 21
1644.380792930468
 31
0.0
  0
LINE
  5
23430
330
747D
100
AcDbEntity
  8
細線
 48
50.0
100
AcDbLine
 10
13871.60025980156
 20
1641.437702959371
 30
0.0
 11
13870.56469619948
 21
1631.082066938574
 31
0.0
  0
LINE
  5
23431
330
747D
100
AcDbEntity
  8
細線
 48
50.0
100
AcDbLine
 10
13869.46491820517
 20
1576.66707244094
 30
0.0
 11
13871.52621356654
 21
1590.22207545077
 31
0.0
  0
LINE
  5
23432
330
747D
100
AcDbEntity
  8
細線
 48
50.0
100
AcDbLine
 10
13870.18098306598
 20
1614.031360421902
 30
0.0
 11
13871.18425668078
 21
1616.539544458909
 31
0.0
  0
LINE
  5
23433
330
747D
100
AcDbEntity
  8
細線
 48
50.0
100
AcDbLine
 10
13870.82402968421
 20
1607.781360421902
 30
0.0
 11
13870.18098306598
 21
1609.388976967474
 31
0.0
  0
LINE
  5
23434
330
747D
100
AcDbEntity
  8
細線
 48
50.0
100
AcDbLine
 10
13870.10277712949
 20
1601.335845580677
 30
0.0
 11
13870.82402968421
 21
1603.138976967476
 31
0.0
  0
LINE
  5
23435
330
747D
100
AcDbEntity
  8
細線
 48
50.0
100
AcDbLine
 10
13871.27652003728
 20
1593.138127708111
 30
0.0
 11
13869.9764858347
 21
1597.038230315855
 31
0.0
  0
LINE
  5
23436
330
747D
100
AcDbEntity
  8
細線
 48
50.0
100
AcDbLine
 10
13871.60025980156
 20
1619.482634430005
 30
0.0
 11
13870.56469619948
 21
1629.838270450811
 31
0.0
  0
ARC
  5
2343C
330
747D
100
AcDbEntity
  8
細線
 48
50.0
100
AcDbCircle
 10
13865.35334981231
 20
1669.776934382394
 30
0.0
 40
6.25
100
AcDbArc
 50
341.5650511770765
 51
8.312124830096573
  0
ARC
  5
2343D
330
747D
100
AcDbEntity
  8
細線
 48
50.0
100
AcDbCircle
 10
13875.90575644752
 20
1661.905683535916
 30
0.0
 40
6.25
100
AcDbArc
 50
161.5650511770716
 51
201.8014094863518
  0
ARC
  5
2343E
330
747D
100
AcDbEntity
  8
細線
 48
50.0
100
AcDbCircle
 10
13865.02105036617
 20
1655.46016869469
 30
0.0
 40
6.25
100
AcDbArc
 50
338.1985905136482
 51
21.80140948637495
  0
ARC
  5
2343F
330
747D
100
AcDbEntity
  8
細線
 48
50.0
100
AcDbCircle
 10
13875.98396238401
 20
1649.210168694687
 30
0.0
 40
6.25
100
AcDbArc
 50
158.1985905136567
 51
201.8014094863518
  0
ARC
  5
23440
330
747D
100
AcDbEntity
  8
細線
 48
50.0
100
AcDbCircle
 10
13865.38127736275
 20
1642.059601203253
 30
0.0
 40
6.25
100
AcDbArc
 50
354.2894068625003
 51
21.80140948637325
  0
ARC
  5
23441
330
747D
100
AcDbEntity
  8
細線
 48
50.0
100
AcDbCircle
 10
13876.78367863829
 20
1630.460168694693
 30
0.0
 40
6.25
100
AcDbArc
 50
174.2894068625018
 51
185.7105931374996
  0
ARC
  5
23442
330
747D
100
AcDbEntity
  8
細線
 48
50.0
100
AcDbCircle
 10
13865.38127736275
 20
1618.860736186122
 30
0.0
 40
6.25
100
AcDbArc
 50
338.1985905136482
 51
5.710593137504798
  0
ARC
  5
23443
330
747D
100
AcDbEntity
  8
細線
 48
50.0
100
AcDbCircle
 10
13875.98396238401
 20
1611.710168694688
 30
0.0
 40
6.25
100
AcDbArc
 50
158.1985905136377
 51
201.8014094863518
  0
ARC
  5
23444
330
747D
100
AcDbEntity
  8
細線
 48
50.0
100
AcDbCircle
 10
13865.02105036617
 20
1605.46016869469
 30
0.0
 40
6.25
100
AcDbArc
 50
338.1985905136482
 51
21.80140948634324
  0
ARC
  5
23445
330
747D
100
AcDbEntity
  8
細線
 48
50.0
100
AcDbCircle
 10
13875.90575644752
 20
1599.014653853461
 30
0.0
 40
6.25
100
AcDbArc
 50
158.1985905136224
 51
198.434948822922
  0
ARC
  5
23446
330
747D
100
AcDbEntity
  8
細線
 48
50.0
100
AcDbCircle
 10
13865.34724942447
 20
1591.161704170506
 30
0.0
 40
6.25
100
AcDbArc
 50
351.3533349444596
 51
18.43494882292109
  0
ARC
  5
23447
330
747D
100
AcDbEntity
  8
細線
 48
50.0
100
AcDbCircle
 10
13875.64245881148
 20
1685.817927893645
 30
0.0
 40
6.25
100
AcDbArc
 50
127.8024896644311
 51
188.3121248300987
  0
ARC
  5
23448
330
747D
100
AcDbEntity
  8
細線
 48
50.0
100
AcDbCircle
 10
13875.64388234725
 20
1575.727443721204
 30
0.0
 40
6.25
100
AcDbArc
 50
171.3533349444593
 51
229.5955987259874
  0
ARC
  5
2344A
330
747D
100
AcDbEntity
  8
細線
 48
50.0
100
AcDbCircle
 10
13884.62700624248
 20
1551.665798138503
 30
0.0
 40
6.25
100
AcDbArc
 50
31.9164636737319
 51
49.59559872598679
  0
ARC
  5
2344B
330
747D
100
AcDbEntity
  8
細線
 48
50.0
100
AcDbCircle
 10
13888.71474636003
 20
1695.958743336684
 30
0.0
 40
6.25
100
AcDbArc
 50
105.0000000000052
 51
127.8024896644288
  0
LINE
  5
2344C
330
747D
100
AcDbEntity
  8
細線
 48
50.0
100
AcDbLine
 10
13900.23064926251
 20
1866.764896347082
 30
0.0
 11
13887.09712732814
 21
1863.245779750991
 31
0.0
  0
LINE
  5
2344D
330
747D
100
AcDbEntity
  8
細線
 48
50.0
100
AcDbLine
 10
13884.88386268782
 20
1862.147045705913
 30
0.0
 11
13871.81157513927
 21
1852.006230262874
 31
0.0
  0
ARC
  5
2344E
330
747D
100
AcDbEntity
  8
細線
 48
50.0
100
AcDbCircle
 10
13888.71474636003
 20
1857.208743336684
 30
0.0
 40
6.25
100
AcDbArc
 50
105.0000000000052
 51
127.8024896644288
  0
LINE
  5
2344F
330
747D
100
AcDbEntity
  8
細線
 48
50.0
100
AcDbLine
 10
13888.67812123016
 20
1717.675101381272
 30
0.0
 11
13871.59276735957
 21
1732.218140478435
 31
0.0
  0
LINE
  5
23450
330
747D
100
AcDbEntity
  8
細線
 48
50.0
100
AcDbLine
 10
13889.93213004438
 20
1716.220062269371
 30
0.0
 11
13891.90221286795
 21
1713.057018134549
 31
0.0
  0
ARC
  5
23451
330
747D
100
AcDbEntity
  8
細線
 48
50.0
100
AcDbCircle
 10
13884.62700624248
 20
1712.915798138503
 30
0.0
 40
6.25
100
AcDbArc
 50
31.9164636737319
 51
49.59559872598679
  0
ARC
  5
23452
330
747D
100
AcDbEntity
  8
細線
 48
50.0
100
AcDbCircle
 10
13865.35334981231
 20
1831.026934382394
 30
0.0
 40
6.25
100
AcDbArc
 50
341.5650511770765
 51
8.312124830096573
  0
ARC
  5
23453
330
747D
100
AcDbEntity
  8
細線
 48
50.0
100
AcDbCircle
 10
13875.90575644752
 20
1823.155683535916
 30
0.0
 40
6.25
100
AcDbArc
 50
161.5650511770716
 51
201.8014094863518
  0
LINE
  5
23454
330
747D
100
AcDbEntity
  8
細線
 48
50.0
100
AcDbLine
 10
13871.28262042512
 20
1829.050510844789
 30
0.0
 11
13869.9764858347
 21
1825.132107073522
 31
0.0
  0
ARC
  5
23455
330
747D
100
AcDbEntity
  8
細線
 48
50.0
100
AcDbCircle
 10
13865.02105036617
 20
1816.71016869469
 30
0.0
 40
6.25
100
AcDbArc
 50
338.1985905136482
 51
21.80140948637495
  0
LINE
  5
23456
330
747D
100
AcDbEntity
  8
細線
 48
50.0
100
AcDbLine
 10
13870.10277712948
 20
1820.834491808702
 30
0.0
 11
13870.8240296842
 21
1819.031360421905
 31
0.0
  0
ARC
  5
23457
330
747D
100
AcDbEntity
  8
細線
 48
50.0
100
AcDbCircle
 10
13875.98396238401
 20
1810.460168694687
 30
0.0
 40
6.25
100
AcDbArc
 50
158.1985905136567
 51
201.8014094863518
  0
LINE
  5
23458
330
747D
100
AcDbEntity
  8
細線
 48
50.0
100
AcDbLine
 10
13870.82402968421
 20
1814.388976967477
 30
0.0
 11
13870.18098306598
 21
1812.7813604219
 31
0.0
  0
ARC
  5
23459
330
747D
100
AcDbEntity
  8
細線
 48
50.0
100
AcDbCircle
 10
13865.38127736275
 20
1803.309601203253
 30
0.0
 40
6.25
100
AcDbArc
 50
354.2894068625003
 51
21.80140948637325
  0
LINE
  5
2345A
330
747D
100
AcDbEntity
  8
細線
 48
50.0
100
AcDbLine
 10
13870.18098306598
 20
1808.138976967474
 30
0.0
 11
13871.18425668078
 21
1805.630792930468
 31
0.0
  0
ARC
  5
2345B
330
747D
100
AcDbEntity
  8
細線
 48
50.0
100
AcDbCircle
 10
13876.78367863829
 20
1791.710168694692
 30
0.0
 40
6.25
100
AcDbArc
 50
174.2894068625018
 51
185.7105931374996
  0
LINE
  5
2345C
330
747D
100
AcDbEntity
  8
細線
 48
50.0
100
AcDbLine
 10
13871.60025980156
 20
1802.687702959372
 30
0.0
 11
13870.56469619948
 21
1792.332066938574
 31
0.0
  0
ARC
  5
2345D
330
747D
100
AcDbEntity
  8
細線
 48
50.0
100
AcDbCircle
 10
13865.38127736275
 20
1780.110736186122
 30
0.0
 40
6.25
100
AcDbArc
 50
338.1985905136482
 51
5.710593137504798
  0
LINE
  5
2345E
330
747D
100
AcDbEntity
  8
細線
 48
50.0
100
AcDbLine
 10
13871.60025980156
 20
1780.732634430004
 30
0.0
 11
13870.56469619948
 21
1791.088270450811
 31
0.0
  0
ARC
  5
2345F
330
747D
100
AcDbEntity
  8
細線
 48
50.0
100
AcDbCircle
 10
13875.98396238401
 20
1772.960168694688
 30
0.0
 40
6.25
100
AcDbArc
 50
158.1985905136377
 51
201.8014094863518
  0
LINE
  5
23460
330
747D
100
AcDbEntity
  8
細線
 48
50.0
100
AcDbLine
 10
13870.18098306598
 20
1775.281360421901
 30
0.0
 11
13871.18425668078
 21
1777.789544458909
 31
0.0
  0
ARC
  5
23461
330
747D
100
AcDbEntity
  8
細線
 48
50.0
100
AcDbCircle
 10
13865.02105036617
 20
1766.71016869469
 30
0.0
 40
6.25
100
AcDbArc
 50
338.1985905136482
 51
21.80140948634324
  0
LINE
  5
23462
330
747D
100
AcDbEntity
  8
細線
 48
50.0
100
AcDbLine
 10
13870.82402968421
 20
1769.031360421902
 30
0.0
 11
13870.18098306598
 21
1770.638976967474
 31
0.0
  0
ARC
  5
23463
330
747D
100
AcDbEntity
  8
細線
 48
50.0
100
AcDbCircle
 10
13875.90575644752
 20
1760.264653853461
 30
0.0
 40
6.25
100
AcDbArc
 50
158.1985905136224
 51
198.434948822922
  0
LINE
  5
23464
330
747D
100
AcDbEntity
  8
細線
 48
50.0
100
AcDbLine
 10
13870.10277712949
 20
1762.585845580676
 30
0.0
 11
13870.82402968421
 21
1764.388976967476
 31
0.0
  0
ARC
  5
23465
330
747D
100
AcDbEntity
  8
細線
 48
50.0
100
AcDbCircle
 10
13865.34724942447
 20
1752.411704170506
 30
0.0
 40
6.25
100
AcDbArc
 50
351.3533349444596
 51
18.43494882292109
  0
LINE
  5
23466
330
747D
100
AcDbEntity
  8
細線
 48
50.0
100
AcDbLine
 10
13871.27652003728
 20
1754.388127708111
 30
0.0
 11
13869.9764858347
 21
1758.288230315855
 31
0.0
  0
ARC
  5
23467
330
747D
100
AcDbEntity
  8
細線
 48
50.0
100
AcDbCircle
 10
13875.64245881148
 20
1847.067927893645
 30
0.0
 40
6.25
100
AcDbArc
 50
127.8024896644311
 51
188.3121248300987
  0
LINE
  5
23468
330
747D
100
AcDbEntity
  8
細線
 48
50.0
100
AcDbLine
 10
13869.45811369578
 20
1846.164392897145
 30
0.0
 11
13871.53769492801
 21
1831.930469378892
 31
0.0
  0
ARC
  5
23469
330
747D
100
AcDbEntity
  8
細線
 48
50.0
100
AcDbCircle
 10
13875.64388234725
 20
1736.977443721204
 30
0.0
 40
6.25
100
AcDbArc
 50
171.3533349444593
 51
229.5955987259874
  0
LINE
  5
2346A
330
747D
100
AcDbEntity
  8
細線
 48
50.0
100
AcDbLine
 10
13869.46491820517
 20
1737.91707244094
 30
0.0
 11
13871.52621356654
 21
1751.47207545077
 31
0.0
  0
ARC
  5
2346B
330
747D
100
AcDbEntity
  8
細線
 48
50.0
100
AcDbCircle
 10
13897.64245881149
 20
1876.424154609973
 30
0.0
 40
10.0
100
AcDbArc
 50
285.0000000000037
 51
0.0
  0
ARC
  5
2346C
330
747D
100
AcDbEntity
  8
細線
 48
50.0
100
AcDbCircle
 10
13898.26745881149
 20
1876.424154609973
 30
0.0
 40
9.375
100
AcDbArc
 50
0.0
 51
90.0
  0
ARC
  5
2346D
330
747D
100
AcDbEntity
  8
細線
 48
50.0
100
AcDbCircle
 10
13896.92817556149
 20
1880.174154609973
 30
0.0
 40
5.625
100
AcDbArc
 50
90.0
 51
236.3688917191613
  0
ARC
  5
2346E
330
747D
100
AcDbEntity
  8
細線
 48
50.0
100
AcDbCircle
 10
13899.9911235441
 20
1718.834704063097
 30
0.0
 40
3.75
100
AcDbArc
 50
49.49171241444783
 51
163.5378536913867
  0
ARC
  5
2346F
330
747D
100
AcDbEntity
  8
細線
 48
50.0
100
AcDbCircle
 10
13896.8960264932
 20
1717.674154609973
 30
0.0
 40
6.875
100
AcDbArc
 50
226.6764927581371
 51
32.97249425048595
  0
ARC
  5
23470
330
747D
100
AcDbEntity
  8
細線
 48
50.0
100
AcDbCircle
 10
13901.61501862149
 20
1720.735484107615
 30
0.0
 40
1.25
100
AcDbArc
 50
32.97249425047584
 51
49.49171241444783
  0
ARC
  5
23471
330
747D
100
AcDbEntity
  8
細線
 48
50.0
100
AcDbCircle
 10
13893.03661901559
 20
1713.582015936641
 30
0.0
 40
1.25
100
AcDbArc
 50
204.8344764793232
 51
226.6764927581399
  0
LINE
  5
23472
330
747D
100
AcDbEntity
  8
細線
 48
50.0
100
AcDbLine
 10
13898.26745881149
 20
1724.549154609973
 30
0.0
 11
13896.92817556149
 21
1724.549154609973
 31
0.0
  0
LINE
  5
23473
330
747D
100
AcDbEntity
  8
細線
 48
50.0
100
AcDbLine
 10
13898.26745881149
 20
1885.799154609973
 30
0.0
 11
13896.92817556149
 21
1885.799154609973
 31
0.0
  0
LINE
  5
23474
330
747D
100
AcDbEntity
  8
細線
 48
50.0
100
AcDbLine
 10
13871.60025980156
 20
2125.187702959371
 30
0.0
 11
13870.56469619948
 21
2114.832066938574
 31
0.0
  0
LINE
  5
23475
330
747D
100
AcDbEntity
  8
細線
 48
50.0
100
AcDbLine
 10
13898.26745881149
 20
2047.049154609973
 30
0.0
 11
13896.92817556149
 21
2047.049154609973
 31
0.0
  0
ARC
  5
23476
330
747D
100
AcDbEntity
  8
細線
 48
50.0
100
AcDbCircle
 10
13893.03661901559
 20
2036.082015936641
 30
0.0
 40
1.25
100
AcDbArc
 50
204.8344764793232
 51
226.6764927581399
  0
ARC
  5
23477
330
747D
100
AcDbEntity
  8
細線
 48
50.0
100
AcDbCircle
 10
13901.61501862149
 20
2043.235484107615
 30
0.0
 40
1.25
100
AcDbArc
 50
32.97249425047584
 51
49.49171241444783
  0
ARC
  5
23478
330
747D
100
AcDbEntity
  8
細線
 48
50.0
100
AcDbCircle
 10
13896.8960264932
 20
2040.174154609973
 30
0.0
 40
6.875
100
AcDbArc
 50
226.6764927581371
 51
32.97249425048595
  0
ARC
  5
23479
330
747D
100
AcDbEntity
  8
細線
 48
50.0
100
AcDbCircle
 10
13899.9911235441
 20
2041.334704063096
 30
0.0
 40
3.75
100
AcDbArc
 50
49.49171241444783
 51
163.5378536913867
  0
LINE
  5
2347A
330
747D
100
AcDbEntity
  8
細線
 48
50.0
100
AcDbLine
 10
13869.46491820517
 20
2060.417072440941
 30
0.0
 11
13871.52621356654
 21
2073.972075450769
 31
0.0
  0
ARC
  5
2347B
330
747D
100
AcDbEntity
  8
細線
 48
50.0
100
AcDbCircle
 10
13875.64388234725
 20
2059.477443721204
 30
0.0
 40
6.25
100
AcDbArc
 50
171.3533349444593
 51
229.5955987259874
  0
LINE
  5
2347C
330
747D
100
AcDbEntity
  8
細線
 48
50.0
100
AcDbLine
 10
13871.27652003728
 20
2076.88812770811
 30
0.0
 11
13869.9764858347
 21
2080.788230315855
 31
0.0
  0
ARC
  5
2347D
330
747D
100
AcDbEntity
  8
細線
 48
50.0
100
AcDbCircle
 10
13865.34724942447
 20
2074.911704170506
 30
0.0
 40
6.25
100
AcDbArc
 50
351.3533349444596
 51
18.43494882292109
  0
LINE
  5
2347E
330
747D
100
AcDbEntity
  8
細線
 48
50.0
100
AcDbLine
 10
13870.10277712949
 20
2085.085845580676
 30
0.0
 11
13870.82402968421
 21
2086.888976967476
 31
0.0
  0
ARC
  5
2347F
330
747D
100
AcDbEntity
  8
細線
 48
50.0
100
AcDbCircle
 10
13875.90575644752
 20
2082.764653853461
 30
0.0
 40
6.25
100
AcDbArc
 50
158.1985905136224
 51
198.434948822922
  0
LINE
  5
23480
330
747D
100
AcDbEntity
  8
細線
 48
50.0
100
AcDbLine
 10
13870.82402968421
 20
2091.531360421902
 30
0.0
 11
13870.18098306598
 21
2093.138976967475
 31
0.0
  0
ARC
  5
23481
330
747D
100
AcDbEntity
  8
細線
 48
50.0
100
AcDbCircle
 10
13865.02105036617
 20
2089.21016869469
 30
0.0
 40
6.25
100
AcDbArc
 50
338.1985905136482
 51
21.80140948634324
  0
LINE
  5
23482
330
747D
100
AcDbEntity
  8
細線
 48
50.0
100
AcDbLine
 10
13870.18098306598
 20
2097.781360421902
 30
0.0
 11
13871.18425668078
 21
2100.28954445891
 31
0.0
  0
ARC
  5
23483
330
747D
100
AcDbEntity
  8
細線
 48
50.0
100
AcDbCircle
 10
13875.98396238401
 20
2095.460168694688
 30
0.0
 40
6.25
100
AcDbArc
 50
158.1985905136377
 51
201.8014094863518
  0
LINE
  5
23484
330
747D
100
AcDbEntity
  8
細線
 48
50.0
100
AcDbLine
 10
13871.60025980156
 20
2103.232634430005
 30
0.0
 11
13870.56469619948
 21
2113.588270450811
 31
0.0
  0
ARC
  5
23485
330
747D
100
AcDbEntity
  8
細線
 48
50.0
100
AcDbCircle
 10
13865.38127736275
 20
2102.610736186122
 30
0.0
 40
6.25
100
AcDbArc
 50
338.1985905136482
 51
5.710593137504798
  0
ARC
  5
23486
330
747D
100
AcDbEntity
  8
細線
 48
50.0
100
AcDbCircle
 10
13876.78367863829
 20
2114.210168694693
 30
0.0
 40
6.25
100
AcDbArc
 50
174.2894068625018
 51
185.7105931374996
  0
ARC
  5
23487
330
747D
100
AcDbEntity
  8
細線
 48
50.0
100
AcDbCircle
 10
13884.62700624248
 20
2035.415798138503
 30
0.0
 40
6.25
100
AcDbArc
 50
31.9164636737319
 51
49.59559872598679
  0
LINE
  5
23488
330
747D
100
AcDbEntity
  8
細線
 48
50.0
100
AcDbLine
 10
13889.93213004438
 20
2038.720062269371
 30
0.0
 11
13891.90221286795
 21
2035.557018134548
 31
0.0
  0
LINE
  5
23489
330
747D
100
AcDbEntity
  8
細線
 48
50.0
100
AcDbLine
 10
13888.67812123016
 20
2040.175101381273
 30
0.0
 11
13871.59276735957
 21
2054.718140478435
 31
0.0
  0
LINE
  5
2348A
330
747D
100
AcDbEntity
  8
細線
 48
50.0
100
AcDbLine
 10
13900.23064926251
 20
2028.014896347082
 30
0.0
 11
13887.09712732814
 21
2024.49577975099
 31
0.0
  0
LINE
  5
2348B
330
747D
100
AcDbEntity
  8
細線
 48
50.0
100
AcDbLine
 10
13884.88386268782
 20
2023.397045705913
 30
0.0
 11
13871.81157513927
 21
2013.256230262874
 31
0.0
  0
ARC
  5
2348C
330
747D
100
AcDbEntity
  8
細線
 48
50.0
100
AcDbCircle
 10
13888.71474636003
 20
2018.458743336684
 30
0.0
 40
6.25
100
AcDbArc
 50
105.0000000000052
 51
127.8024896644288
  0
LINE
  5
2348D
330
747D
100
AcDbEntity
  8
細線
 48
50.0
100
AcDbLine
 10
13888.67812123016
 20
1878.925101381273
 30
0.0
 11
13871.59276735957
 21
1893.468140478435
 31
0.0
  0
LINE
  5
2348E
330
747D
100
AcDbEntity
  8
細線
 48
50.0
100
AcDbLine
 10
13889.93213004438
 20
1877.470062269372
 30
0.0
 11
13891.90221286795
 21
1874.307018134549
 31
0.0
  0
ARC
  5
2348F
330
747D
100
AcDbEntity
  8
細線
 48
50.0
100
AcDbCircle
 10
13884.62700624248
 20
1874.165798138503
 30
0.0
 40
6.25
100
AcDbArc
 50
31.9164636737319
 51
49.59559872598679
  0
ARC
  5
23490
330
747D
100
AcDbEntity
  8
細線
 48
50.0
100
AcDbCircle
 10
13865.35334981231
 20
1992.276934382394
 30
0.0
 40
6.25
100
AcDbArc
 50
341.5650511770765
 51
8.312124830096573
  0
ARC
  5
23491
330
747D
100
AcDbEntity
  8
細線
 48
50.0
100
AcDbCircle
 10
13875.90575644752
 20
1984.405683535916
 30
0.0
 40
6.25
100
AcDbArc
 50
161.5650511770716
 51
201.8014094863518
  0
LINE
  5
23492
330
747D
100
AcDbEntity
  8
細線
 48
50.0
100
AcDbLine
 10
13871.28262042512
 20
1990.300510844789
 30
0.0
 11
13869.9764858347
 21
1986.382107073521
 31
0.0
  0
ARC
  5
23493
330
747D
100
AcDbEntity
  8
細線
 48
50.0
100
AcDbCircle
 10
13865.02105036617
 20
1977.96016869469
 30
0.0
 40
6.25
100
AcDbArc
 50
338.1985905136482
 51
21.80140948637495
  0
LINE
  5
23494
330
747D
100
AcDbEntity
  8
細線
 48
50.0
100
AcDbLine
 10
13870.10277712948
 20
1982.084491808702
 30
0.0
 11
13870.8240296842
 21
1980.281360421905
 31
0.0
  0
ARC
  5
23495
330
747D
100
AcDbEntity
  8
細線
 48
50.0
100
AcDbCircle
 10
13875.98396238401
 20
1971.710168694687
 30
0.0
 40
6.25
100
AcDbArc
 50
158.1985905136567
 51
201.8014094863518
  0
LINE
  5
23496
330
747D
100
AcDbEntity
  8
細線
 48
50.0
100
AcDbLine
 10
13870.82402968421
 20
1975.638976967477
 30
0.0
 11
13870.18098306598
 21
1974.031360421899
 31
0.0
  0
ARC
  5
23497
330
747D
100
AcDbEntity
  8
細線
 48
50.0
100
AcDbCircle
 10
13865.38127736275
 20
1964.559601203253
 30
0.0
 40
6.25
100
AcDbArc
 50
354.2894068625003
 51
21.80140948637325
  0
LINE
  5
23498
330
747D
100
AcDbEntity
  8
細線
 48
50.0
100
AcDbLine
 10
13870.18098306598
 20
1969.388976967473
 30
0.0
 11
13871.18425668078
 21
1966.880792930467
 31
0.0
  0
ARC
  5
23499
330
747D
100
AcDbEntity
  8
細線
 48
50.0
100
AcDbCircle
 10
13876.78367863829
 20
1952.960168694692
 30
0.0
 40
6.25
100
AcDbArc
 50
174.2894068625018
 51
185.7105931374996
  0
LINE
  5
2349A
330
747D
100
AcDbEntity
  8
細線
 48
50.0
100
AcDbLine
 10
13871.60025980156
 20
1963.937702959372
 30
0.0
 11
13870.56469619948
 21
1953.582066938574
 31
0.0
  0
ARC
  5
2349B
330
747D
100
AcDbEntity
  8
細線
 48
50.0
100
AcDbCircle
 10
13865.38127736275
 20
1941.360736186122
 30
0.0
 40
6.25
100
AcDbArc
 50
338.1985905136482
 51
5.710593137504798
  0
LINE
  5
2349C
330
747D
100
AcDbEntity
  8
細線
 48
50.0
100
AcDbLine
 10
13871.60025980156
 20
1941.982634430004
 30
0.0
 11
13870.56469619948
 21
1952.338270450811
 31
0.0
  0
ARC
  5
2349D
330
747D
100
AcDbEntity
  8
細線
 48
50.0
100
AcDbCircle
 10
13875.98396238401
 20
1934.210168694688
 30
0.0
 40
6.25
100
AcDbArc
 50
158.1985905136377
 51
201.8014094863518
  0
LINE
  5
2349E
330
747D
100
AcDbEntity
  8
細線
 48
50.0
100
AcDbLine
 10
13870.18098306598
 20
1936.531360421902
 30
0.0
 11
13871.18425668078
 21
1939.039544458909
 31
0.0
  0
ARC
  5
2349F
330
747D
100
AcDbEntity
  8
細線
 48
50.0
100
AcDbCircle
 10
13865.02105036617
 20
1927.96016869469
 30
0.0
 40
6.25
100
AcDbArc
 50
338.1985905136482
 51
21.80140948634324
  0
LINE
  5
234A0
330
747D
100
AcDbEntity
  8
細線
 48
50.0
100
AcDbLine
 10
13870.82402968421
 20
1930.281360421902
 30
0.0
 11
13870.18098306598
 21
1931.888976967474
 31
0.0
  0
ARC
  5
234A1
330
747D
100
AcDbEntity
  8
細線
 48
50.0
100
AcDbCircle
 10
13875.90575644752
 20
1921.514653853461
 30
0.0
 40
6.25
100
AcDbArc
 50
158.1985905136224
 51
198.434948822922
  0
LINE
  5
234A2
330
747D
100
AcDbEntity
  8
細線
 48
50.0
100
AcDbLine
 10
13870.10277712949
 20
1923.835845580676
 30
0.0
 11
13870.82402968421
 21
1925.638976967476
 31
0.0
  0
ARC
  5
234A3
330
747D
100
AcDbEntity
  8
細線
 48
50.0
100
AcDbCircle
 10
13865.34724942447
 20
1913.661704170505
 30
0.0
 40
6.25
100
AcDbArc
 50
351.3533349444596
 51
18.43494882292109
  0
LINE
  5
234A4
330
747D
100
AcDbEntity
  8
細線
 48
50.0
100
AcDbLine
 10
13871.27652003728
 20
1915.638127708111
 30
0.0
 11
13869.9764858347
 21
1919.538230315855
 31
0.0
  0
ARC
  5
234A5
330
747D
100
AcDbEntity
  8
細線
 48
50.0
100
AcDbCircle
 10
13875.64245881148
 20
2008.317927893644
 30
0.0
 40
6.25
100
AcDbArc
 50
127.8024896644311
 51
188.3121248300987
  0
LINE
  5
234A6
330
747D
100
AcDbEntity
  8
細線
 48
50.0
100
AcDbLine
 10
13869.45811369578
 20
2007.414392897145
 30
0.0
 11
13871.53769492801
 21
1993.180469378892
 31
0.0
  0
ARC
  5
234A7
330
747D
100
AcDbEntity
  8
細線
 48
50.0
100
AcDbCircle
 10
13875.64388234725
 20
1898.227443721204
 30
0.0
 40
6.25
100
AcDbArc
 50
171.3533349444593
 51
229.5955987259874
  0
LINE
  5
234A8
330
747D
100
AcDbEntity
  8
細線
 48
50.0
100
AcDbLine
 10
13869.46491820517
 20
1899.16707244094
 30
0.0
 11
13871.52621356654
 21
1912.72207545077
 31
0.0
  0
ARC
  5
234A9
330
747D
100
AcDbEntity
  8
細線
 48
50.0
100
AcDbCircle
 10
13897.64245881149
 20
2037.674154609973
 30
0.0
 40
10.0
100
AcDbArc
 50
285.0000000000037
 51
0.0
  0
ARC
  5
234AA
330
747D
100
AcDbEntity
  8
細線
 48
50.0
100
AcDbCircle
 10
13898.26745881149
 20
2037.674154609973
 30
0.0
 40
9.375
100
AcDbArc
 50
0.0
 51
90.0
  0
ARC
  5
234AB
330
747D
100
AcDbEntity
  8
細線
 48
50.0
100
AcDbCircle
 10
13896.92817556149
 20
2041.424154609973
 30
0.0
 40
5.625
100
AcDbArc
 50
90.0
 51
236.3688917191613
  0
ARC
  5
234AC
330
747D
100
AcDbEntity
  8
細線
 48
50.0
100
AcDbCircle
 10
13899.9911235441
 20
1880.084704063097
 30
0.0
 40
3.75
100
AcDbArc
 50
49.49171241444783
 51
163.5378536913867
  0
ARC
  5
234AD
330
747D
100
AcDbEntity
  8
細線
 48
50.0
100
AcDbCircle
 10
13896.8960264932
 20
1878.924154609973
 30
0.0
 40
6.875
100
AcDbArc
 50
226.6764927581371
 51
32.97249425048595
  0
ARC
  5
234AE
330
747D
100
AcDbEntity
  8
細線
 48
50.0
100
AcDbCircle
 10
13901.61501862149
 20
1881.985484107615
 30
0.0
 40
1.25
100
AcDbArc
 50
32.97249425047584
 51
49.49171241444783
  0
ARC
  5
234AF
330
747D
100
AcDbEntity
  8
細線
 48
50.0
100
AcDbCircle
 10
13893.03661901559
 20
1874.832015936641
 30
0.0
 40
1.25
100
AcDbArc
 50
204.8344764793232
 51
226.6764927581399
  0
LINE
  5
234B0
330
747D
100
AcDbEntity
  8
細線
 48
50.0
100
AcDbLine
 10
13898.26745881149
 20
2208.299154609973
 30
0.0
 11
13896.92817556149
 21
2208.299154609973
 31
0.0
  0
ARC
  5
234B1
330
747D
100
AcDbEntity
  8
細線
 48
50.0
100
AcDbCircle
 10
13896.92817556149
 20
2202.674154609973
 30
0.0
 40
5.625
100
AcDbArc
 50
90.0
 51
236.3688917191613
  0
ARC
  5
234B2
330
747D
100
AcDbEntity
  8
細線
 48
50.0
100
AcDbCircle
 10
13898.26745881149
 20
2198.924154609973
 30
0.0
 40
9.375
100
AcDbArc
 50
0.0
 51
90.0
  0
ARC
  5
234B3
330
747D
100
AcDbEntity
  8
細線
 48
50.0
100
AcDbCircle
 10
13897.64245881149
 20
2198.924154609973
 30
0.0
 40
10.0
100
AcDbArc
 50
285.0000000000037
 51
0.0
  0
LINE
  5
234B4
330
747D
100
AcDbEntity
  8
細線
 48
50.0
100
AcDbLine
 10
13869.45811369578
 20
2168.664392897146
 30
0.0
 11
13871.53769492801
 21
2154.430469378893
 31
0.0
  0
ARC
  5
234B5
330
747D
100
AcDbEntity
  8
細線
 48
50.0
100
AcDbCircle
 10
13875.64245881148
 20
2169.567927893644
 30
0.0
 40
6.25
100
AcDbArc
 50
127.8024896644311
 51
188.3121248300987
  0
LINE
  5
234B6
330
747D
100
AcDbEntity
  8
細線
 48
50.0
100
AcDbLine
 10
13870.18098306598
 20
2130.638976967473
 30
0.0
 11
13871.18425668078
 21
2128.130792930468
 31
0.0
  0
ARC
  5
234B7
330
747D
100
AcDbEntity
  8
細線
 48
50.0
100
AcDbCircle
 10
13865.38127736275
 20
2125.809601203253
 30
0.0
 40
6.25
100
AcDbArc
 50
354.2894068625003
 51
21.80140948637325
  0
LINE
  5
234B8
330
747D
100
AcDbEntity
  8
細線
 48
50.0
100
AcDbLine
 10
13870.82402968421
 20
2136.888976967477
 30
0.0
 11
13870.18098306598
 21
2135.281360421899
 31
0.0
  0
ARC
  5
234B9
330
747D
100
AcDbEntity
  8
細線
 48
50.0
100
AcDbCircle
 10
13875.98396238401
 20
2132.960168694687
 30
0.0
 40
6.25
100
AcDbArc
 50
158.1985905136567
 51
201.8014094863518
  0
LINE
  5
234BA
330
747D
100
AcDbEntity
  8
細線
 48
50.0
100
AcDbLine
 10
13870.10277712948
 20
2143.334491808702
 30
0.0
 11
13870.8240296842
 21
2141.531360421906
 31
0.0
  0
ARC
  5
234BB
330
747D
100
AcDbEntity
  8
細線
 48
50.0
100
AcDbCircle
 10
13865.02105036617
 20
2139.210168694691
 30
0.0
 40
6.25
100
AcDbArc
 50
338.1985905136482
 51
21.80140948637495
  0
LINE
  5
234BC
330
747D
100
AcDbEntity
  8
細線
 48
50.0
100
AcDbLine
 10
13871.28262042512
 20
2151.550510844788
 30
0.0
 11
13869.9764858347
 21
2147.632107073521
 31
0.0
  0
ARC
  5
234BD
330
747D
100
AcDbEntity
  8
細線
 48
50.0
100
AcDbCircle
 10
13875.90575644752
 20
2145.655683535915
 30
0.0
 40
6.25
100
AcDbArc
 50
161.5650511770716
 51
201.8014094863518
  0
ARC
  5
234BE
330
747D
100
AcDbEntity
  8
細線
 48
50.0
100
AcDbCircle
 10
13865.35334981231
 20
2153.526934382393
 30
0.0
 40
6.25
100
AcDbArc
 50
341.5650511770765
 51
8.312124830096573
  0
ARC
  5
234BF
330
747D
100
AcDbEntity
  8
細線
 48
50.0
100
AcDbCircle
 10
13888.71474636003
 20
2179.708743336684
 30
0.0
 40
6.25
100
AcDbArc
 50
105.0000000000052
 51
127.8024896644288
  0
LINE
  5
234C0
330
747D
100
AcDbEntity
  8
細線
 48
50.0
100
AcDbLine
 10
13884.88386268782
 20
2184.647045705913
 30
0.0
 11
13871.81157513927
 21
2174.506230262874
 31
0.0
  0
LINE
  5
234C1
330
747D
100
AcDbEntity
  8
細線
 48
50.0
100
AcDbLine
 10
13900.23064926251
 20
2189.264896347082
 30
0.0
 11
13887.09712732814
 21
2185.745779750991
 31
0.0
  0
LINE
  5
234D9
330
747D
100
AcDbEntity
  8
細線
 48
50.0
100
AcDbLine
 10
13871.27652003728
 20
2238.138127708111
 30
0.0
 11
13869.9764858347
 21
2242.038230315855
 31
0.0
  0
LINE
  5
234DA
330
747D
100
AcDbEntity
  8
細線
 48
50.0
100
AcDbLine
 10
13870.10277712949
 20
2246.335845580677
 30
0.0
 11
13870.82402968421
 21
2248.138976967475
 31
0.0
  0
ARC
  5
234DB
330
747D
100
AcDbEntity
  8
細線
 48
50.0
100
AcDbCircle
 10
13875.90575644752
 20
2244.014653853461
 30
0.0
 40
6.25
100
AcDbArc
 50
158.1985905136224
 51
198.434948822922
  0
LINE
  5
234DC
330
747D
100
AcDbEntity
  8
細線
 48
50.0
100
AcDbLine
 10
13870.82402968421
 20
2252.781360421902
 30
0.0
 11
13870.18098306598
 21
2254.388976967475
 31
0.0
  0
ARC
  5
234DD
330
747D
100
AcDbEntity
  8
細線
 48
50.0
100
AcDbCircle
 10
13865.02105036617
 20
2250.46016869469
 30
0.0
 40
6.25
100
AcDbArc
 50
338.1985905136482
 51
21.80140948634324
  0
LINE
  5
234DE
330
747D
100
AcDbEntity
  8
細線
 48
50.0
100
AcDbLine
 10
13870.18098306598
 20
2259.031360421902
 30
0.0
 11
13871.18425668078
 21
2261.539544458909
 31
0.0
  0
ARC
  5
234DF
330
747D
100
AcDbEntity
  8
細線
 48
50.0
100
AcDbCircle
 10
13875.98396238401
 20
2256.710168694688
 30
0.0
 40
6.25
100
AcDbArc
 50
158.1985905136377
 51
201.8014094863518
  0
LINE
  5
234E0
330
747D
100
AcDbEntity
  8
細線
 48
50.0
100
AcDbLine
 10
13871.60025980156
 20
2264.482634430004
 30
0.0
 11
13870.56469619948
 21
2274.838270450811
 31
0.0
  0
ARC
  5
234E1
330
747D
100
AcDbEntity
  8
細線
 48
50.0
100
AcDbCircle
 10
13865.38127736275
 20
2263.860736186122
 30
0.0
 40
6.25
100
AcDbArc
 50
338.1985905136482
 51
5.710593137504798
  0
LINE
  5
234E2
330
747D
100
AcDbEntity
  8
細線
 48
50.0
100
AcDbLine
 10
13871.60025980156
 20
2286.437702959371
 30
0.0
 11
13870.56469619948
 21
2276.082066938574
 31
0.0
  0
ARC
  5
234E3
330
747D
100
AcDbEntity
  8
細線
 48
50.0
100
AcDbCircle
 10
13876.78367863829
 20
2275.460168694694
 30
0.0
 40
6.25
100
AcDbArc
 50
174.2894068625018
 51
185.7105931374996
  0
LINE
  5
23506
330
747D
100
AcDbEntity
  8
細線
 48
50.0
100
AcDbLine
 10
13869.46491820517
 20
2221.667072440942
 30
0.0
 11
13871.52621356654
 21
2235.222075450769
 31
0.0
  0
ARC
  5
23507
330
747D
100
AcDbEntity
  8
細線
 48
50.0
100
AcDbCircle
 10
13875.64388234725
 20
2220.727443721205
 30
0.0
 40
6.25
100
AcDbArc
 50
171.3533349444593
 51
229.5955987259874
  0
ARC
  5
23508
330
747D
100
AcDbEntity
  8
細線
 48
50.0
100
AcDbCircle
 10
13865.34724942447
 20
2236.161704170506
 30
0.0
 40
6.25
100
AcDbArc
 50
351.3533349444596
 51
18.43494882292109
  0
LINE
  5
23509
330
747D
100
AcDbEntity
  8
細線
 48
50.0
100
AcDbLine
 10
13888.67812123016
 20
2201.425101381272
 30
0.0
 11
13871.59276735957
 21
2215.968140478435
 31
0.0
  0
ARC
  5
2350A
330
747D
100
AcDbEntity
  8
細線
 48
50.0
100
AcDbCircle
 10
13884.62700624248
 20
2196.665798138504
 30
0.0
 40
6.25
100
AcDbArc
 50
31.9164636737319
 51
49.59559872598679
  0
LINE
  5
2350B
330
747D
100
AcDbEntity
  8
細線
 48
50.0
100
AcDbLine
 10
13889.93213004438
 20
2199.970062269371
 30
0.0
 11
13891.90221286795
 21
2196.807018134549
 31
0.0
  0
ARC
  5
2350C
330
747D
100
AcDbEntity
  8
細線
 48
50.0
100
AcDbCircle
 10
13896.8960264932
 20
2201.424154609973
 30
0.0
 40
6.875
100
AcDbArc
 50
226.6764927581371
 51
32.97249425048595
  0
ARC
  5
2350D
330
747D
100
AcDbEntity
  8
細線
 48
50.0
100
AcDbCircle
 10
13899.9911235441
 20
2202.584704063096
 30
0.0
 40
3.75
100
AcDbArc
 50
49.49171241444783
 51
163.5378536913867
  0
ARC
  5
2350E
330
747D
100
AcDbEntity
  8
細線
 48
50.0
100
AcDbCircle
 10
13901.61501862149
 20
2204.485484107615
 30
0.0
 40
1.25
100
AcDbArc
 50
32.97249425047584
 51
49.49171241444783
  0
ARC
  5
2350F
330
747D
100
AcDbEntity
  8
細線
 48
50.0
100
AcDbCircle
 10
13893.03661901559
 20
2197.332015936641
 30
0.0
 40
1.25
100
AcDbArc
 50
204.8344764793232
 51
226.6764927581399
  0
MTEXT
  5
2372D
102
{ACAD_REACTORS
330
2372E
102
}
330
747D
100
AcDbEntity
  8
部品1
 62
     7
 48
50.0
100
AcDbMText
 10
8169.955934276622
 20
11323.08338700196
 30
0.0
 40
150.0
 41
0.0
 71
     6
 72
     1
  1
アンカーボルト芯(2ヶ所)
  7
STYLE1
 73
     1
 44
1.0
1001
ACAD
1000
MTEXTBEGIN
1070
    73
1070
     1
1070
    44
1040
1.0
1070
    74
1070
     0
1000
MTEXTEND
  0
LEADER
  5
2372E
330
747D
100
AcDbEntity
  8
寸法
 48
50.0
100
AcDbLeader
  3
INABA_S50G
 71
     0
 73
     0
 75
     1
 40
165.0
 41
2002.44094488189
 76
     3
 10
8824.500000000181
 20
10791.4831901959
 30
0.0
 10
8319.955934276622
 20
11215.58338700197
 30
0.0
 10
8194.955934276622
 20
11215.58338700197
 30
0.0
340
2372D
1001
ACAD
1000
DSTYLE
1002
{
1070
   341
1005
11750
1070
    40
1040
1.0
1070
   343
1005
11750
1070
   344
1005
11750
1002
}
  0
TEXT
  5
2385A
330
747D
100
AcDbEntity
  8
寸法
 62
     7
 48
50.0
100
AcDbText
 10
1299.278876522073
 20
637.942940999002
 30
0.0
 40
100.0
  1
基礎天は面取しないでください
  7
STYLE1
100
AcDbText
  0
TEXT
  5
2385B
330
747D
100
AcDbEntity
  8
寸法
 62
     7
 48
50.0
100
AcDbText
 10
8290.788499322136
 20
1133.83915346614
 30
0.0
 40
150.0
  1
200mm以下と
  7
STYLE1
100
AcDbText
  0
TEXT
  5
2385C
330
747D
100
AcDbEntity
  8
寸法
 62
     7
 48
50.0
100
AcDbText
 10
8290.788499322136
 20
1542.333825303596
 30
0.0
 40
150.0
  1
柱前部は
  7
STYLE1
100
AcDbText
  0
TEXT
  5
2504E
330
747D
100
AcDbEntity
  8
寸法
 62
     7
 48
50.0
100
AcDbText
 10
8290.788499322136
 20
938.8649079108631
 30
0.0
 40
150.0
  1
してください
  7
STYLE1
100
AcDbText
  0
TEXT
  5
2504F
330
747D
100
AcDbEntity
  8
寸法
 62
     7
 48
50.0
100
AcDbText
 10
8290.788499322136
 20
1343.901025507386
 30
0.0
 40
150.0
  1
G.L-基礎天を
  7
STYLE1
100
AcDbText
  0
LINE
  5
253E1
330
747D
100
AcDbEntity
  8
部品1
 48
50.0
100
AcDbLine
 10
7565.975886326819
 20
2662.836257816046
 30
0.0
 11
7565.975886326818
 21
2700.336257816045
 31
0.0
  0
LINE
  5
253E2
330
747D
100
AcDbEntity
  8
部品1
 48
50.0
100
AcDbLine
 10
7602.22588632682
 20
2700.336257816047
 30
0.0
 11
7565.975886326819
 21
2700.336257816046
 31
0.0
  0
DIMENSION
  5
25778
330
747D
100
AcDbEntity
  8
寸法
 48
50.0
100
AcDbDimension
  2
*D22
 10
10770.51577103376
 20
10841.48319019589
 30
0.0
 11
10770.51577103376
 21
11111.54224531401
 31
0.0
 70
   160
 71
     5
 42
119.9999999999981
  3
INABA_S50G
100
AcDbAlignedDimension
 13
10797.85097834982
 23
10721.48319019589
 33
0.0
 14
10797.85097834982
 24
10841.48319019589
 34
0.0
 50
90.0
100
AcDbRotatedDimension
1001
ACAD
1000
DSTYLE
1002
{
1070
    40
1040
1.0
1070
   341
1005
0
1002
}
  0
DIMENSION
  5
2577D
330
747D
100
AcDbEntity
  8
寸法
 48
50.0
100
AcDbDimension
  2
*D23
 10
12156.5022984632
 20
10529.63971492499
 30
0.0
 11
10626.5022984632
 21
8827.139714924992
 31
0.0
 70
   161
 71
     5
 42
4577.94986866392
  3
INABA_S50G
100
AcDbAlignedDimension
 13
8749.499999999995
 23
7436.483190195899
 33
0.0
 14
11809.49999999999
 24
10841.4831901959
 34
0.0
1001
ACAD
1000
DSTYLE
1002
{
1070
    78
1070
     0
1070
    40
1040
1.0
1002
}
  0
DIMENSION
  5
2577E
330
747D
100
AcDbEntity
  8
寸法
 48
50.0
100
AcDbDimension
  2
*D24
 10
11809.49999999999
 20
11861.75904984403
 30
0.0
 11
10279.49999999999
 21
11961.75904984403
 31
0.0
 70
    32
 71
     5
 42
3060.0
  3
INABA_S50G
100
AcDbAlignedDimension
 13
8749.499999999995
 23
10841.4831901959
 33
0.0
 14
11809.49999999999
 24
10841.4831901959
 34
0.0
100
AcDbRotatedDimension
1001
ACAD
1000
DSTYLE
1002
{
1070
    40
1040
1.0
1002
}
  0
DIMENSION
  5
2577F
330
747D
100
AcDbEntity
  8
寸法
 48
50.0
100
AcDbDimension
  2
*D25
 10
8824.500000000181
 20
11561.59285010267
 30
0.0
 11
10279.50000000009
 21
11661.6076138822
 31
0.0
 70
    32
 71
     5
 42
2909.999999999815
  3
INABA_S50G
100
AcDbAlignedDimension
 13
11734.49999999999
 23
10841.4831901959
 33
0.0
 14
8824.500000000181
 24
10841.4831901959
 34
0.0
100
AcDbRotatedDimension
1001
ACAD
1000
DSTYLE
1002
{
1070
    40
1040
1.0
1002
}
  0
LINE
  5
25780
330
747D
100
AcDbEntity
  8
部品1
 48
50.0
100
AcDbLine
 10
11809.49999999999
 20
10841.4831901959
 30
0.0
 11
8749.499999999995
 21
10841.4831901959
 31
0.0
  0
LINE
  5
25781
330
747D
100
AcDbEntity
  8
部品1
 48
50.0
100
AcDbLine
 10
11689.49999999999
 20
10721.48319019589
 30
0.0
 11
8869.499999999995
 21
10721.48319019589
 31
0.0
  0
MTEXT
  5
25782
102
{ACAD_REACTORS
330
25783
102
}
330
747D
100
AcDbEntity
  8
寸法
 62
     7
 48
50.0
100
AcDbMText
 10
8185.786469868531
 20
6727.389646056898
 30
0.0
 40
150.0
 41
0.0
 71
     6
 72
     1
  1
\A1;柱埋込用穴(深サ:300)\P組立後現場打コンクリート
  7
STYLE1
 73
     1
 44
1.0
1001
ACAD
1000
MTEXTBEGIN
1070
    73
1070
     1
1070
    44
1040
1.0
1070
    74
1070
     0
1000
MTEXTEND
  0
LEADER
  5
25783
330
747D
100
AcDbEntity
  8
寸法
 48
50.0
100
AcDbLeader
  3
INABA_S50G
 73
     0
 75
     1
 40
407.5000000000002
 41
2162.936553006148
 76
     3
 10
8719.61832082561
 20
7268.02807078768
 30
0.0
 10
8335.786469868532
 20
6498.639646056898
 30
0.0
 10
8210.786469868532
 20
6498.639646056898
 30
0.0
340
25782
1001
ACAD
1000
DSTYLE
1002
{
1070
   341
1005
0
1070
    40
1040
1.0
1070
   343
1005
0
1070
   344
1005
0
1002
}
  0
TEXT
  5
25784
330
747D
100
AcDbEntity
  8
文字
 48
50.0
100
AcDbText
 10
9128.960242186456
 20
7719.07507740552
 30
0.0
 40
150.0
  1
B'
  7
STYLE1
100
AcDbText
  0
TEXT
  5
25785
330
747D
100
AcDbEntity
  8
文字
 48
50.0
100
AcDbText
 10
8292.841193294599
 20
7719.07507740552
 30
0.0
 40
150.0
  1
B
  7
STYLE1
100
AcDbText
  0
CIRCLE
  5
25786
330
747D
100
AcDbEntity
  8
想像線
 48
10.0
100
AcDbCircle
 10
8799.499999999994
 20
7432.483190195897
 30
0.0
 40
335.4121361059542
  0
LEADER
  5
25787
330
747D
100
AcDbEntity
  8
寸法
 48
50.0
100
AcDbLeader
  3
INABA_S50G
 71
     0
 73
     0
 75
     1
 40
150.0
 41
269.489853865046
 76
     3
 10
8605.875115294567
 20
7706.364012945446
 30
0.0
 10
8511.685510898427
 20
7962.51291499301
 30
0.0
 10
8386.685510898427
 20
7962.51291499301
 30
0.0
340
25788
213
-6.654425256279864
223
-6.941639128017413
233
0.0
1001
ACAD
1000
DSTYLE
1002
{
1070
    40
1040
1.0
1002
}
  0
MTEXT
  5
25788
102
{ACAD_REACTORS
330
25787
102
}
330
747D
100
AcDbEntity
  8
寸法
 62
     7
 48
50.0
100
AcDbMText
 10
8368.339936154708
 20
8069.454554121028
 30
0.0
 40
150.0
 41
0.0
 71
     6
 72
     1
  1
C部
  7
STYLE1
 73
     1
 44
1.0
1001
ACAD
1000
MTEXTBEGIN
1070
    73
1070
     1
1070
    44
1040
1.0
1070
    74
1070
     0
1000
MTEXTEND
  0
DIMENSION
  5
25789
330
747D
100
AcDbEntity
  8
寸法
 48
50.0
100
AcDbDimension
  2
*D26
 10
7942.389251624229
 20
7436.483190195899
 30
0.0
 11
7842.389251624227
 21
9138.983190195901
 31
0.0
 70
    32
 71
     5
 42
3405.0
  3
INABA_S50G
100
AcDbAlignedDimension
 13
8749.499999999995
 23
10841.4831901959
 33
0.0
 14
8749.499999999999
 24
7436.483190195899
 34
0.0
 50
90.0
100
AcDbRotatedDimension
1001
ACAD
1000
DSTYLE
1002
{
1070
    40
1040
1.0
1002
}
  0
LINE
  5
2578A
330
747D
100
AcDbEntity
  8
想像線
 48
10.0
100
AcDbLine
 10
8704.499999999994
 20
7306.483190195901
 30
0.0
 11
8704.499999999994
 21
10916.4831901959
 31
0.0
  0
LINE
  5
2578B
330
747D
100
AcDbEntity
  8
部品1
 48
50.0
100
AcDbLine
 10
8749.499999999995
 20
7436.483190195899
 30
0.0
 11
8749.499999999995
 21
10841.4831901959
 31
0.0
  0
LINE
  5
2578C
330
747D
100
AcDbEntity
  8
部品1
 48
50.0
100
AcDbLine
 10
8869.499999999995
 20
7466.483190195901
 30
0.0
 11
8869.499999999995
 21
10721.48319019589
 31
0.0
  0
LINE
  5
2578D
330
747D
100
AcDbEntity
  8
寸法
 48
50.0
100
AcDbLine
 10
8603.498514752255
 20
7394.483190195899
 30
0.0
 11
8403.498514752255
 21
7394.483190195899
 31
0.0
  0
LINE
  5
2578E
330
747D
100
AcDbEntity
  8
寸法
 48
50.0
100
AcDbLine
 10
8364.675657986877
 20
7549.594316252537
 30
0.0
 11
8464.675657986877
 21
7549.594316252537
 31
0.0
  0
DIMENSION
  5
2578F
330
747D
100
AcDbEntity
  8
寸法
 48
50.0
100
AcDbDimension
  2
*D27
 10
7942.389251624229
 20
7306.483190195901
 30
0.0
 11
7842.389251624227
 21
7371.4831901959
 31
0.0
 70
    32
  1
b
 71
     5
 42
129.9999999999982
  3
INABA_S50G
100
AcDbAlignedDimension
 13
8749.499999999995
 23
7436.483190195899
 33
0.0
 14
8704.499999999994
 24
7306.483190195901
 34
0.0
 50
90.0
100
AcDbRotatedDimension
1001
ACAD
1000
DSTYLE
1002
{
1070
    40
1040
1.0
1002
}
  0
LINE
  5
25790
330
747D
100
AcDbEntity
  8
寸法
 48
50.0
100
AcDbLine
 10
8403.498514752255
 20
7694.483190195899
 30
0.0
 11
8364.675657986877
 21
7549.594316252537
 31
0.0
  0
LINE
  5
25791
330
747D
100
AcDbEntity
  8
寸法
 48
50.0
100
AcDbLine
 10
8403.498514752255
 20
7394.483190195899
 30
0.0
 11
8403.498514752255
 21
7694.483190195899
 31
0.0
  0
LINE
  5
25792
330
747D
100
AcDbEntity
  8
寸法
 48
50.0
100
AcDbLine
 10
9164.675657986879
 20
7549.594316252537
 30
0.0
 11
9264.675657986879
 21
7549.594316252537
 31
0.0
  0
LINE
  5
25793
330
747D
100
AcDbEntity
  8
想像線
 48
10.0
100
AcDbLine
 10
9848.131637849963
 20
7306.483190195901
 30
0.0
 11
8704.499999999994
 21
7306.483190195901
 31
0.0
  0
LINE
  5
25794
330
747D
100
AcDbEntity
  8
部品1
 48
50.0
100
AcDbLine
 10
8839.499999999995
 20
7466.483190195901
 30
0.0
 11
8869.499999999995
 21
7466.483190195901
 31
0.0
  0
LINE
  5
25795
330
747D
100
AcDbEntity
  8
センター
 48
8.0
100
AcDbLine
 10
8603.498514752255
 20
7394.483190195899
 30
0.0
 11
9003.498514752259
 21
7394.483190195899
 31
0.0
  0
LINE
  5
25796
330
747D
100
AcDbEntity
  8
部品1
 48
10.0
100
AcDbLine
 10
8978.499999999995
 20
7219.983190195899
 30
0.0
 11
8628.499999999995
 21
7219.983190195897
 31
0.0
  0
LINE
  5
25797
330
747D
100
AcDbEntity
  8
部品1
 48
10.0
100
AcDbLine
 10
8628.499999999995
 20
7219.983190195897
 30
0.0
 11
8628.499999999995
 21
7569.983190195898
 31
0.0
  0
LINE
  5
25798
330
747D
100
AcDbEntity
  8
部品1
 48
10.0
100
AcDbLine
 10
8749.499999999995
 20
7569.9831901959
 30
0.0
 11
8628.499999999995
 21
7569.983190195898
 31
0.0
  0
LINE
  5
25799
330
747D
100
AcDbEntity
  8
部品1
 48
50.0
100
AcDbLine
 10
8839.499999999995
 20
7436.4831901959
 30
0.0
 11
8839.499999999995
 21
7466.483190195901
 31
0.0
  0
LINE
  5
2579A
330
747D
100
AcDbEntity
  8
部品1
 48
50.0
100
AcDbLine
 10
8749.499999999995
 20
7436.483190195899
 30
0.0
 11
8839.499999999995
 21
7436.483190195899
 31
0.0
  0
LINE
  5
2579B
330
747D
100
AcDbEntity
  8
部品1
 48
10.0
100
AcDbLine
 10
8978.499999999995
 20
7219.983190195899
 30
0.0
 11
8978.499999999995
 21
7569.983190195898
 31
0.0
  0
LINE
  5
2579C
330
747D
100
AcDbEntity
  8
寸法
 48
50.0
100
AcDbLine
 10
9203.498514752254
 20
7394.4831901959
 30
0.0
 11
9003.498514752259
 21
7394.483190195899
 31
0.0
  0
LINE
  5
2579D
330
747D
100
AcDbEntity
  8
部品1
 48
10.0
100
AcDbLine
 10
8978.499999999995
 20
7569.983190195898
 30
0.0
 11
8869.499999999995
 21
7569.983190195897
 31
0.0
  0
LINE
  5
2579E
330
747D
100
AcDbEntity
  8
寸法
 48
50.0
100
AcDbLine
 10
9203.498514752254
 20
7694.483190195899
 30
0.0
 11
9164.675657986879
 21
7549.594316252537
 31
0.0
  0
LINE
  5
2579F
330
747D
100
AcDbEntity
  8
寸法
 48
50.0
100
AcDbLine
 10
9203.498514752254
 20
7394.483190195899
 30
0.0
 11
9203.498514752254
 21
7694.483190195899
 31
0.0
  0
DIMENSION
  5
257A0
330
747D
100
AcDbEntity
  8
寸法
 48
50.0
100
AcDbDimension
  2
*D28
 10
8749.499999999995
 20
11861.75904984403
 30
0.0
 11
8396.781723496919
 21
11861.75904984403
 31
0.0
 70
   160
  1
a
 71
     5
 42
45.0
  3
INABA_S50G
100
AcDbAlignedDimension
 13
8704.499999999994
 23
11694.0391668873
 33
0.0
 14
8749.499999999995
 24
10841.4831901959
 34
0.0
100
AcDbRotatedDimension
1001
ACAD
1000
DSTYLE
1002
{
1070
    40
1040
1.0
1002
}
  0
DIMENSION
  5
257A1
330
747D
100
AcDbEntity
  8
寸法
 48
50.0
100
AcDbDimension
  2
*D29
 10
7942.389251624229
 20
10841.4831901959
 30
0.0
 11
7842.389251624227
 21
10878.9831901959
 31
0.0
 70
    32
  1
c
 71
     5
 42
75.0
  3
INABA_S50G
100
AcDbAlignedDimension
 13
8704.499999999994
 23
10916.4831901959
 33
0.0
 14
8749.499999999995
 24
10841.4831901959
 34
0.0
 50
90.0
100
AcDbRotatedDimension
1001
ACAD
1000
DSTYLE
1002
{
1070
    40
1040
1.0
1002
}
  0
DIMENSION
  5
257A2
330
747D
100
AcDbEntity
  8
寸法
 48
50.0
100
AcDbDimension
  2
*D30
 10
8749.499999999995
 20
11561.59285010267
 30
0.0
 11
8509.499999999993
 21
11561.59285010267
 31
0.0
 70
   160
 71
     5
 42
75.00000000018554
  3
INABA_S50G
100
AcDbAlignedDimension
 13
8824.500000000181
 23
10841.4831901959
 33
0.0
 14
8749.499999999995
 24
10841.4831901959
 34
0.0
100
AcDbRotatedDimension
1001
ACAD
1000
DSTYLE
1002
{
1070
    40
1040
1.0
1002
}
  0
LINE
  5
257A5
330
747D
100
AcDbEntity
  8
想像線
 48
10.0
100
AcDbLine
 10
9859.499999999995
 20
10916.4831901959
 30
0.0
 11
8704.499999999994
 21
10916.4831901959
 31
0.0
  0
LINE
  5
257A6
330
747D
100
AcDbEntity
  8
センター
 48
2.0
100
AcDbLine
 10
8874.50000000018
 20
10791.4831901959
 30
0.0
 11
8774.50000000018
 21
10791.4831901959
 31
0.0
  0
LINE
  5
257A7
330
747D
100
AcDbEntity
  8
センター
 48
2.0
100
AcDbLine
 10
8824.500000000181
 20
10841.4831901959
 30
0.0
 11
8824.500000000181
 21
10741.4831901959
 31
0.0
  0
DIMENSION
  5
257A8
330
747D
100
AcDbEntity
  8
寸法
 48
50.0
100
AcDbDimension
  2
*D31
 10
12801.63815053223
 20
10841.48319019589
 30
0.0
 11
12701.63815053223
 21
9138.983190195901
 31
0.0
 70
    32
 71
     5
 42
3404.999999999998
  3
INABA_S50G
100
AcDbAlignedDimension
 13
11809.49999999999
 23
7436.483190195899
 33
0.0
 14
11809.49999999999
 24
10841.48319019589
 34
0.0
 50
90.0
100
AcDbRotatedDimension
1001
ACAD
1000
DSTYLE
1002
{
1070
    40
1040
1.0
1070
   341
1005
0
1002
}
  0
DIMENSION
  5
257A9
330
747D
100
AcDbEntity
  8
寸法
 48
50.0
100
AcDbDimension
  2
*D32
 10
12508.53220691701
 20
10791.4831901959
 30
0.0
 11
12408.532206917
 21
9113.9831901959
 31
0.0
 70
    32
 71
     5
 42
3354.999999999999
  3
INABA_S50G
100
AcDbAlignedDimension
 13
11809.49999999999
 23
7436.483190195899
 33
0.0
 14
11784.49999999999
 24
10791.4831901959
 34
0.0
 50
90.0
100
AcDbRotatedDimension
1001
ACAD
1000
DSTYLE
1002
{
1070
    40
1040
1.0
1070
   341
1005
0
1002
}
  0
DIMENSION
  5
257AA
330
747D
100
AcDbEntity
  8
寸法
 48
50.0
100
AcDbDimension
  2
*D33
 10
11809.49999999999
 20
7793.495136544861
 30
0.0
 11
12079.5590551181
 21
7793.495136544861
 31
0.0
 70
   160
  1
100
 71
     5
 42
90.0
  3
INABA_S50G
100
AcDbAlignedDimension
 13
11719.49999999999
 23
7466.483190195901
 33
0.0
 14
11809.49999999999
 24
7436.483190195899
 34
0.0
100
AcDbRotatedDimension
1001
ACAD
1000
DSTYLE
1002
{
1070
    40
1040
1.0
1002
}
  0
DIMENSION
  5
257AB
330
747D
100
AcDbEntity
  8
寸法
 48
50.0
100
AcDbDimension
  2
*D34
 10
11719.49999999999
 20
7793.495136544861
 30
0.0
 11
11330.03641732283
 21
7793.495136544861
 31
0.0
 70
   160
  1
20
 71
     5
 42
29.99999999999636
  3
INABA_S50G
100
AcDbAlignedDimension
 13
11689.5
 23
7466.483190195901
 33
0.0
 14
11719.49999999999
 24
7466.483190195901
 34
0.0
100
AcDbRotatedDimension
1001
ACAD
1000
DSTYLE
1002
{
1070
    40
1040
1.0
1002
}
  0
LINE
  5
257AC
330
747D
100
AcDbEntity
  8
部品1
 48
50.0
100
AcDbLine
 10
11809.49999999999
 20
7436.483190195899
 30
0.0
 11
11809.49999999999
 21
10841.4831901959
 31
0.0
  0
LINE
  5
257AD
330
747D
100
AcDbEntity
  8
部品1
 48
50.0
100
AcDbLine
 10
11689.49999999999
 20
7466.483190195901
 30
0.0
 11
11689.49999999999
 21
10721.48319019589
 31
0.0
  0
DIMENSION
  5
257AE
330
747D
100
AcDbEntity
  8
寸法
 48
50.0
100
AcDbDimension
  2
*D35
 10
12508.53220691701
 20
7394.483190195899
 30
0.0
 11
12508.53220691701
 21
6833.72876106204
 31
0.0
 70
   160
  1
柱芯<>
 71
     5
 42
42.0
  3
INABA_S50G
100
AcDbAlignedDimension
 13
11809.49999999999
 23
7436.483190195899
 33
0.0
 14
11955.49851475225
 24
7394.483190195899
 34
0.0
 50
90.0
100
AcDbRotatedDimension
1001
ACAD
1000
DSTYLE
1002
{
1070
    40
1040
1.0
1002
}
  0
LINE
  5
257AF
330
747D
100
AcDbEntity
  8
部品1
 48
50.0
100
AcDbLine
 10
11719.49999999999
 20
7436.4831901959
 30
0.0
 11
11809.49999999999
 21
7436.483190195899
 31
0.0
  0
LINE
  5
257B0
330
747D
100
AcDbEntity
  8
部品1
 48
10.0
100
AcDbLine
 10
11930.49999999999
 20
7219.983190195899
 30
0.0
 11
11580.49999999999
 21
7219.983190195897
 31
0.0
  0
LINE
  5
257B1
330
747D
100
AcDbEntity
  8
センター
 48
8.0
100
AcDbLine
 10
11555.49851475225
 20
7394.483190195899
 30
0.0
 11
11955.49851475225
 21
7394.483190195899
 31
0.0
  0
DIMENSION
  5
257B2
330
747D
100
AcDbEntity
  8
寸法
 48
50.0
100
AcDbDimension
  2
*D36
 10
11930.49999999999
 20
6943.256086277473
 30
0.0
 11
11755.49999999999
 21
7043.256086277473
 31
0.0
 70
    32
 71
     5
 42
350.0
  3
INABA_S50G
100
AcDbAlignedDimension
 13
11580.49999999999
 23
7219.983190195899
 33
0.0
 14
11930.49999999999
 24
7219.983190195897
 34
0.0
 50
180.0
100
AcDbRotatedDimension
1001
ACAD
1000
DSTYLE
1002
{
1070
    40
1040
1.0
1002
}
  0
DIMENSION
  5
257B3
330
747D
100
AcDbEntity
  8
寸法
 48
50.0
100
AcDbDimension
  2
*D37
 10
11463.33554877879
 20
7436.483190195899
 30
0.0
 11
11463.33554877879
 21
7077.019607518734
 31
0.0
 70
   160
  1
20
 71
     5
 42
30.00000000000182
  3
INABA_S50G
100
AcDbAlignedDimension
 13
11689.5
 23
7466.483190195901
 33
0.0
 14
11719.49999999999
 24
7436.483190195899
 34
0.0
 50
270.0
100
AcDbRotatedDimension
1001
ACAD
1000
DSTYLE
1002
{
1070
    40
1040
1.0
1002
}
  0
DIMENSION
  5
257B4
330
747D
100
AcDbEntity
  8
寸法
 48
50.0
100
AcDbDimension
  2
*D38
 10
11256.86148081477
 20
7569.983190195898
 30
0.0
 11
11256.86148081477
 21
7414.748575628092
 31
0.0
 70
   160
 71
     5
 42
350.0
  3
INABA_S50G
100
AcDbAlignedDimension
 13
11580.49999999999
 23
7219.983190195899
 33
0.0
 14
11580.49999999999
 24
7569.983190195898
 34
0.0
 50
90.0
100
AcDbRotatedDimension
1001
ACAD
1000
DSTYLE
1002
{
1070
    40
1040
1.0
1002
}
  0
LINE
  5
257B5
330
747D
100
AcDbEntity
  8
部品1
 48
10.0
100
AcDbLine
 10
11580.49999999999
 20
7219.983190195897
 30
0.0
 11
11580.49999999999
 21
7569.983190195898
 31
0.0
  0
LINE
  5
257B6
330
747D
100
AcDbEntity
  8
部品1
 48
50.0
100
AcDbLine
 10
11719.49999999999
 20
7466.483190195901
 30
0.0
 11
11689.49999999999
 21
7466.483190195901
 31
0.0
  0
LINE
  5
257B7
330
747D
100
AcDbEntity
  8
部品1
 48
50.0
100
AcDbLine
 10
11719.49999999999
 20
7436.4831901959
 30
0.0
 11
11719.49999999999
 21
7466.483190195901
 31
0.0
  0
LINE
  5
257B8
330
747D
100
AcDbEntity
  8
部品1
 48
10.0
100
AcDbLine
 10
11689.49999999999
 20
7569.983190195897
 30
0.0
 11
11580.49999999999
 21
7569.983190195898
 31
0.0
  0
LINE
  5
257B9
330
747D
100
AcDbEntity
  8
部品1
 48
10.0
100
AcDbLine
 10
11930.49999999999
 20
7219.983190195899
 30
0.0
 11
11930.49999999999
 21
7569.983190195898
 31
0.0
  0
LINE
  5
257BA
330
747D
100
AcDbEntity
  8
部品1
 48
10.0
100
AcDbLine
 10
11930.49999999999
 20
7569.983190195898
 30
0.0
 11
11809.49999999999
 21
7569.983190195898
 31
0.0
  0
DIMENSION
  5
257BB
330
747D
100
AcDbEntity
  8
寸法
 48
50.0
100
AcDbDimension
  2
*D39
 10
12508.53220691701
 20
10791.4831901959
 30
0.0
 11
12508.53220691701
 21
11211.85270112103
 31
0.0
 70
   160
 71
     5
 42
50.0
  3
INABA_S50G
100
AcDbAlignedDimension
 13
11809.49999999999
 23
10841.4831901959
 33
0.0
 14
11784.49999999999
 24
10791.4831901959
 34
0.0
 50
90.0
100
AcDbRotatedDimension
1001
ACAD
1000
DSTYLE
1002
{
1070
    40
1040
1.0
1002
}
  0
DIMENSION
  5
257BC
330
747D
100
AcDbEntity
  8
寸法
 48
50.0
100
AcDbDimension
  2
*D40
 10
11854.49999999999
 20
11861.75904984403
 30
0.0
 11
12162.21827650307
 21
11861.75904984403
 31
0.0
 70
   160
  1
a
 71
     5
 42
45.0
  3
INABA_S50G
100
AcDbAlignedDimension
 13
11809.49999999999
 23
10841.4831901959
 33
0.0
 14
11854.49999999999
 24
11694.0391668873
 34
0.0
100
AcDbRotatedDimension
1001
ACAD
1000
DSTYLE
1002
{
1070
    40
1040
1.0
1002
}
  0
DIMENSION
  5
257BD
330
747D
100
AcDbEntity
  8
寸法
 48
50.0
100
AcDbDimension
  2
*D41
 10
11734.49999999999
 20
11561.59285010267
 30
0.0
 11
12049.49999999999
 21
11561.59285010267
 31
0.0
 70
   160
 71
     5
 42
75.0
  3
INABA_S50G
100
AcDbAlignedDimension
 13
11809.49999999999
 23
10841.48319019589
 33
0.0
 14
11734.49999999999
 24
10841.4831901959
 34
0.0
100
AcDbRotatedDimension
1001
ACAD
1000
DSTYLE
1002
{
1070
    40
1040
1.0
1002
}
  0
DIMENSION
  5
257BE
330
747D
100
AcDbEntity
  8
寸法
 48
50.0
100
AcDbDimension
  2
*D42
 10
11809.49999999999
 20
8064.318397511957
 30
0.0
 11
12079.5590551181
 21
8064.318397511957
 31
0.0
 70
   160
 71
     5
 42
120.0
  3
INABA_S50G
100
AcDbAlignedDimension
 13
11689.49999999999
 23
8036.983190195899
 33
0.0
 14
11809.49999999999
 24
8036.983190195899
 34
0.0
100
AcDbRotatedDimension
1001
ACAD
1000
DSTYLE
1002
{
1070
    40
1040
1.0
1070
   341
1005
0
1002
}
  0
LINE
  5
257BF
330
747D
100
AcDbEntity
  8
センター
 48
2.0
100
AcDbLine
 10
11684.49999999999
 20
10791.4831901959
 30
0.0
 11
11784.49999999999
 21
10791.4831901959
 31
0.0
  0
LINE
  5
257C0
330
747D
100
AcDbEntity
  8
寸法
 48
50.0
100
AcDbLine
 10
11734.49999999999
 20
10722.40114967661
 30
0.0
 11
11734.49999999999
 21
10491.4831901959
 31
0.0
  0
TEXT
  5
257C1
330
747D
100
AcDbEntity
  8
文字
 48
50.0
100
AcDbText
 10
11393.60381404984
 20
10353.69656133449
 30
0.0
 40
150.0
  1
A
 50
90.0
  7
STYLE1
100
AcDbText
  0
LINE
  5
257C2
330
747D
100
AcDbEntity
  8
寸法
 48
50.0
100
AcDbLine
 10
11734.49999999999
 20
10491.4831901959
 30
0.0
 11
11434.49999999999
 21
10491.4831901959
 31
0.0
  0
LINE
  5
257C3
330
747D
100
AcDbEntity
  8
寸法
 48
50.0
100
AcDbLine
 10
11434.49999999999
 20
10491.4831901959
 30
0.0
 11
11579.38887394335
 21
10452.66033343052
 31
0.0
  0
LINE
  5
257C4
330
747D
100
AcDbEntity
  8
寸法
 48
50.0
100
AcDbLine
 10
11579.38887394335
 20
10452.66033343052
 30
0.0
 11
11579.38887394335
 21
10552.66033343052
 31
0.0
  0
TEXT
  5
257C5
330
747D
100
AcDbEntity
  8
文字
 48
50.0
100
AcDbText
 10
11393.60381404984
 20
11092.41095771591
 30
0.0
 40
150.0
  1
A'
 50
90.0
  7
STYLE1
100
AcDbText
  0
LINE
  5
257C6
330
747D
100
AcDbEntity
  8
センター
 48
2.0
100
AcDbLine
 10
11734.49999999999
 20
10841.4831901959
 30
0.0
 11
11734.49999999999
 21
10741.4831901959
 31
0.0
  0
LINE
  5
257C7
330
747D
100
AcDbEntity
  8
寸法
 48
50.0
100
AcDbLine
 10
11434.49999999999
 20
11091.4831901959
 30
0.0
 11
11579.38887394335
 21
11052.66033343052
 31
0.0
  0
LINE
  5
257C8
330
747D
100
AcDbEntity
  8
寸法
 48
50.0
100
AcDbLine
 10
11734.49999999999
 20
11091.4831901959
 30
0.0
 11
11434.49999999999
 21
11091.4831901959
 31
0.0
  0
LINE
  5
257C9
330
747D
100
AcDbEntity
  8
寸法
 48
50.0
100
AcDbLine
 10
11579.38887394335
 20
11052.66033343052
 30
0.0
 11
11579.38887394335
 21
11152.66033343052
 31
0.0
  0
DIMENSION
  5
25FBA
330
747D
100
AcDbEntity
  8
寸法
 48
50.0
100
AcDbDimension
  2
*D43
 10
5266.335284126739
 20
2962.933205964091
 30
0.0
 11
5599.573807466239
 21
2962.933205964091
 31
0.0
 70
   160
  1
50
 71
     5
 42
40.27178728855579
  3
INABA_S50G詳細S20用
100
AcDbAlignedDimension
 13
5367.014752348128
 23
2687.836257816046
 33
0.0
 14
5266.335284126739
 24
2763.220873200661
 34
0.0
100
AcDbRotatedDimension
1001
ACAD
1000
DSTYLE
1002
{
1070
    40
1040
1.0
1002
}
  0
DIMENSION
  5
25FBB
330
747D
100
AcDbEntity
  8
寸法
 48
50.0
100
AcDbDimension
  2
*D44
 10
5999.355800566354
 20
2687.836257816046
 30
0.0
 11
5999.355800566354
 21
3213.755230964802
 31
0.0
 70
   160
  1
出20～25
 71
     5
 42
30.15384615384574
  3
INABA_S50G詳細S20用
100
AcDbAlignedDimension
 13
5283.210284126738
 23
2763.220873200661
 33
0.0
 14
5367.014752348126
 24
2687.836257816046
 34
0.0
 50
90.0
100
AcDbRotatedDimension
1001
ACAD
1000
DSTYLE
1002
{
1070
   279
1070
     1
1070
    40
1040
1.0
1002
}
  0
LEADER
  5
25FBC
330
747D
100
AcDbEntity
  8
寸法
 48
50.0
100
AcDbLeader
  3
INABA_S50G詳細用
 71
     0
 73
     0
 75
     1
 40
150.0
 41
1242.936553006146
 76
     3
 10
5265.013674249516
 20
2582.921233588988
 30
0.0
 10
4991.699537197846
 20
3068.228255874826
 30
0.0
 10
4866.699537197846
 20
3068.228255874826
 30
0.0
340
25FBD
1001
ACAD
1000
DSTYLE
1002
{
1070
    40
1040
1.0
1070
    77
1070
     1
1002
}
  0
MTEXT
  5
25FBD
102
{ACAD_REACTORS
330
25FBC
102
}
330
747D
100
AcDbEntity
  8
寸法
 62
     7
 48
50.0
100
AcDbMText
 10
3598.762984191701
 20
3093.228255874826
 30
0.0
 40
150.0
 41
0.0
 71
     7
 72
     1
  1
アンカーボルト
  7
STYLE1
 73
     1
 44
0.6800000000000001
1001
ACAD
1000
MTEXTBEGIN
1070
    73
1070
     1
1070
    44
1040
0.6800000000000001
1070
    74
1070
     0
1000
MTEXTEND
  0
LINE
  5
25FBE
330
747D
100
AcDbEntity
  8
部品1
 48
50.0
100
AcDbLine
 10
5283.210284126734
 20
2720.143950123738
 30
0.0
 11
5283.210284126738
 21
2763.220873200661
 31
0.0
  0
LINE
  5
25FBF
330
747D
100
AcDbEntity
  8
部品1
 48
50.0
100
AcDbLine
 10
5249.460284126744
 20
2720.143950123738
 30
0.0
 11
5249.460284126739
 21
2763.220873200661
 31
0.0
  0
LINE
  5
25FC0
330
747D
100
AcDbEntity
  8
細線
 48
50.0
100
AcDbLine
 10
5288.210284126739
 20
2757.060619162815
 30
0.0
 11
5244.210284126733
 21
2745.270854695846
 31
0.0
  0
LINE
  5
25FC1
330
747D
100
AcDbEntity
  8
部品1
 48
50.0
100
AcDbLine
 10
5698.51322823445
 20
526.3649299305761
 30
0.0
 11
5698.51322823445
 21
326.3649299305762
 31
0.0
  0
LINE
  5
25FC2
330
747D
100
AcDbEntity
  8
部品1
 48
50.0
100
AcDbLine
 10
4698.513228234449
 20
526.3649299305761
 30
0.0
 11
4698.513228234449
 21
326.3649299305762
 31
0.0
  0
TEXT
  5
25FC3
330
747D
100
AcDbEntity
  8
部品1
 48
50.0
100
AcDbText
 10
4775.516272157252
 20
368.8552945961965
 30
0.0
 40
120.0
  1
Ａ－Ａ’断面
  7
STYLE2
100
AcDbText
  0
LINE
  5
25FC4
330
747D
100
AcDbEntity
  8
部品1
 48
50.0
100
AcDbLine
 10
5698.51322823445
 20
326.3649299305762
 30
0.0
 11
4698.513228234449
 21
326.3649299305762
 31
0.0
  0
HATCH
  5
25FC5
330
747D
100
AcDbEntity
  8
細線
 48
50.0
100
AcDbHatch
 10
0.0
 20
0.0
 30
0.0
210
0.0
220
0.0
230
1.0
  2
LINE
 70
     0
 71
     0
 91
        1
 92
        7
 72
     0
 73
     1
 93
        4
 10
4578.07492189837
 20
1337.836257816046
 10
4578.074921898375
 20
1137.836257816043
 10
5717.014752348124
 20
1137.836257816047
 10
5717.014752348123
 20
1337.836257816047
 97
        0
 75
     0
 76
     1
 52
75.0
 41
37.5
 77
     0
 78
     1
 53
75.0
 43
-5279.649907368799
 44
3569.431276675514
 45
-115.0055436925422
 46
30.81564255751887
 79
     0
 47
6.829112558776185
 98
        1
 10
4701.678832606882
 20
1268.56062114935
  0
HATCH
  5
25FC6
330
747D
100
AcDbEntity
  8
細線
 48
50.0
100
AcDbHatch
 10
0.0
 20
0.0
 30
0.0
210
0.0
220
0.0
230
1.0
  2
PLAST
 70
     0
 71
     0
 91
        2
 92
        7
 72
     1
 73
     1
 93
       39
 10
5175.764752348121
 20
2329.086257816046
 42
0.0
 10
5174.460284126738
 20
2329.086257816046
 42
0.0
 10
5174.460284126738
 20
2362.836257816046
 42
0.0
 10
5175.764752348118
 20
2362.836257816046
 42
0.0
 10
5175.764752348118
 20
2547.836257816046
 42
-0.4142135623730951
 10
5215.764752348118
 20
2587.836257816046
 42
0.0
 10
5218.264752348145
 20
2587.836257816043
 42
-0.2274254655226983
 10
5249.460284126739
 20
2572.873006747379
 42
0.0
 10
5249.460284126739
 20
2687.836257816046
 42
0.0
 10
4578.074921898372
 20
2687.836257816047
 42
0.0
 10
4578.07492189837
 20
1337.836257816046
 42
0.0
 10
5592.014752348124
 20
1337.836257816046
 42
0.0
 10
5592.014752348128
 20
1712.836257816046
 42
0.0
 10
5367.014752348128
 20
1712.836257816046
 42
0.0
 10
5367.014752348128
 20
2687.836257816046
 42
0.0
 10
5283.210284126738
 20
2687.836257816046
 42
0.0
 10
5283.210284126738
 20
2375.336257816046
 42
-0.4142135623730951
 10
5236.960284126738
 20
2329.086257816046
 42
0.0
 10
5200.764752348127
 20
2329.086257816046
 42
0.0
 10
5200.764752348135
 20
1541.586257816046
 42
-1.0
 10
5233.264752348117
 20
1541.586257816045
 42
0.0
 10
5233.264752348127
 20
1641.586257816048
 42
0.0
 10
5258.264752348154
 20
1641.58625781605
 42
0.0
 10
5258.264752348145
 20
1540.33625781605
 42
-0.0963961176293404
 10
5255.345744783623
 20
1525.336257816047
 42
0.0
 10
5417.014752348126
 20
1525.336257816046
 42
-0.4142135623730898
 10
5404.514752348126
 20
1537.836257816046
 42
-1.0
 10
5429.514752348126
 20
1537.836257816046
 42
-0.4142135623730898
 10
5417.014752348126
 20
1525.336257816046
 42
0.0
 10
5442.014752348126
 20
1525.336257816046
 42
0.0
 10
5442.014752348126
 20
1500.336257816046
 42
0.0
 10
4992.014752348126
 20
1500.336257816046
 42
0.0
 10
4992.014752348118
 20
1525.336257816048
 42
0.0
 10
5017.014752348126
 20
1525.336257816048
 42
-0.4142135623730472
 10
5004.514752348126
 20
1537.836257816046
 42
-1.0
 10
5029.514752348126
 20
1537.836257816046
 42
-0.4142135623730364
 10
5017.014752348126
 20
1525.336257816048
 42
0.0
 10
5178.683759912639
 20
1525.336257816048
 42
-0.0963961176292866
 10
5175.764752348135
 20
1540.336257816046
 42
0.0
 97
        0
 92
       23
 72
     1
 73
     1
 93
        7
 10
5249.460284126737
 20
2446.586257816046
 42
0.0
 10
5233.264752348125
 20
2446.586257816046
 42
0.0
 10
5233.264752348117
 20
2546.586257816047
 42
-1.0
 10
5200.764752348127
 20
2546.586257816046
 42
0.0
 10
5200.764752348127
 20
2362.836257816046
 42
0.0
 10
5236.960284126738
 20
2362.836257816046
 42
0.4142135623730951
 10
5249.460284126739
 20
2375.336257816046
 42
0.0
 97
        0
 75
     0
 76
     1
 52
45.0
 41
37.5
 77
     0
 78
     3
 53
45.0
 43
-3513.08425183257
 44
3569.431276675514
 45
-168.3798022700466
 46
168.3798022700466
 79
     0
 53
45.0
 43
-3534.131727116326
 44
3590.47875195927
 45
-168.3798022700466
 46
168.3798022700466
 79
     0
 53
45.0
 43
-3555.179202400082
 44
3611.526227243026
 45
-168.3798022700466
 46
168.3798022700466
 79
     0
 47
1.910103703933306
 98
        3
 10
-3513.08425183257
 20
3569.431276675514
 10
5027.673698586262
 20
2169.225587304958
 10
5218.759843028315
 20
2409.898655672856
  0
LINE
  5
25FC7
330
747D
100
AcDbEntity
  8
部品1
 48
50.0
100
AcDbLine
 10
5717.014752348126
 20
1337.836257816046
 30
0.0
 11
4578.074921898372
 21
1337.836257816046
 31
0.0
  0
LINE
  5
25FC8
330
747D
100
AcDbEntity
  8
部品1
 48
50.0
100
AcDbLine
 10
5717.014752348126
 20
1137.836257816046
 30
0.0
 11
4578.074921898372
 21
1137.836257816043
 31
0.0
  0
LINE
  5
25FC9
330
747D
100
AcDbEntity
  8
部品1
 48
50.0
100
AcDbLine
 10
5442.014752348126
 20
1500.336257816046
 30
0.0
 11
4992.014752348126
 21
1500.336257816046
 31
0.0
  0
LINE
  5
25FCA
330
747D
100
AcDbEntity
  8
部品1
 48
50.0
100
AcDbLine
 10
5442.014752348126
 20
1525.336257816046
 30
0.0
 11
4992.014752348108
 21
1525.336257816048
 31
0.0
  0
LINE
  5
25FCB
330
747D
100
AcDbEntity
  8
部品1
 48
50.0
100
AcDbLine
 10
4578.074921898372
 20
2687.836257816047
 30
0.0
 11
5367.014752348126
 21
2687.836257816046
 31
0.0
  0
TEXT
  5
25FCC
330
747D
100
AcDbEntity
  8
寸法
 62
     7
 48
50.0
100
AcDbText
 10
4593.163477997803
 20
732.4056601206657
 30
0.0
 40
150.0
  1
M12でも可
  7
STYLE1
100
AcDbText
  0
TEXT
  5
25FCD
330
747D
100
AcDbEntity
  8
寸法
 62
     7
 48
50.0
100
AcDbText
 10
4593.163477997803
 20
909.268411621616
 30
0.0
 40
150.0
  1
アンカーボルトは
  7
STYLE1
100
AcDbText
  0
LINE
  5
25FCE
330
747D
100
AcDbEntity
  8
部品1
 48
50.0
100
AcDbLine
 10
5698.51322823445
 20
526.3649299305761
 30
0.0
 11
4698.513228234449
 21
526.3649299305761
 31
0.0
  0
LINE
  5
25FCF
330
747D
100
AcDbEntity
  8
点線
 48
25.0
100
AcDbLine
 10
4842.014752348126
 20
1337.836257816046
 30
0.0
 11
4842.014752348126
 21
1712.836257816046
 31
0.0
  0
LINE
  5
25FD0
330
747D
100
AcDbEntity
  8
部品1
 48
50.0
100
AcDbLine
 10
5233.264752348117
 20
1540.33625781605
 30
0.0
 11
5233.264752348127
 21
1641.58625781605
 31
0.0
  0
LINE
  5
25FD1
330
747D
100
AcDbEntity
  8
部品1
 48
50.0
100
AcDbLine
 10
5258.264752348145
 20
1540.33625781605
 30
0.0
 11
5258.264752348154
 21
1641.58625781605
 31
0.0
  0
LINE
  5
25FD2
330
747D
100
AcDbEntity
  8
部品1
 48
50.0
100
AcDbLine
 10
5175.764752348121
 20
2329.086257816046
 30
0.0
 11
5175.764752348135
 21
1540.336257816046
 31
0.0
  0
LINE
  5
25FD3
330
747D
100
AcDbEntity
  8
部品1
 48
50.0
100
AcDbLine
 10
5200.764752348127
 20
2329.086257816049
 30
0.0
 11
5200.764752348135
 21
1540.336257816048
 31
0.0
  0
LINE
  5
25FD4
330
747D
100
AcDbEntity
  8
点線
 48
25.0
100
AcDbLine
 10
4717.014752348126
 20
1137.836257816043
 30
0.0
 11
4717.014752348126
 21
1337.836257816046
 31
0.0
  0
LINE
  5
25FD5
330
747D
100
AcDbEntity
  8
細線
 48
50.0
100
AcDbLine
 10
4682.784670416324
 20
1137.836257816043
 30
0.0
 11
4676.085940605545
 21
1162.83625781605
 31
0.0
  0
LINE
  5
25FD6
330
747D
100
AcDbEntity
  8
細線
 48
50.0
100
AcDbLine
 10
4929.309810876475
 20
1137.836257816043
 30
0.0
 11
4922.611081065692
 21
1162.836257816055
 31
0.0
  0
LINE
  5
25FD7
330
747D
100
AcDbEntity
  8
細線
 48
50.0
100
AcDbLine
 10
4806.047240646398
 20
1137.836257816043
 30
0.0
 11
4799.34851083562
 21
1162.83625781605
 31
0.0
  0
LINE
  5
25FD8
330
747D
100
AcDbEntity
  8
細線
 48
50.0
100
AcDbLine
 10
4716.278319470205
 20
1312.836257816046
 30
0.0
 11
4709.579589659428
 21
1337.836257816046
 31
0.0
  0
LINE
  5
25FD9
330
747D
100
AcDbEntity
  8
細線
 48
50.0
100
AcDbLine
 10
4593.015749240134
 20
1312.836257816046
 30
0.0
 11
4586.317019429356
 21
1337.836257816046
 31
0.0
  0
LINE
  5
25FDA
330
747D
100
AcDbEntity
  8
細線
 48
50.0
100
AcDbLine
 10
4839.540889700288
 20
1312.836257816046
 30
0.0
 11
4832.842159889509
 21
1337.836257816046
 31
0.0
  0
LINE
  5
25FDB
330
747D
100
AcDbEntity
  8
細線
 48
50.0
100
AcDbLine
 10
5052.572381106551
 20
1137.836257816041
 30
0.0
 11
5045.873651295769
 21
1162.836257816048
 31
0.0
  0
LINE
  5
25FDC
330
747D
100
AcDbEntity
  8
細線
 48
50.0
100
AcDbLine
 10
5299.097521566698
 20
1137.836257816041
 30
0.0
 11
5292.398791755918
 21
1162.836257816048
 31
0.0
  0
LINE
  5
25FDD
330
747D
100
AcDbEntity
  8
細線
 48
50.0
100
AcDbLine
 10
5175.834951336622
 20
1137.836257816041
 30
0.0
 11
5169.136221525845
 21
1162.836257816052
 31
0.0
  0
LINE
  5
25FDE
330
747D
100
AcDbEntity
  8
細線
 48
50.0
100
AcDbLine
 10
5086.066030160431
 20
1312.836257816041
 30
0.0
 11
5079.367300349654
 21
1337.836257816046
 31
0.0
  0
LINE
  5
25FDF
330
747D
100
AcDbEntity
  8
細線
 48
50.0
100
AcDbLine
 10
4962.803459930359
 20
1312.836257816046
 30
0.0
 11
4956.104730119581
 21
1337.836257816046
 31
0.0
  0
LINE
  5
25FE0
330
747D
100
AcDbEntity
  8
部品1
 48
50.0
100
AcDbLine
 10
4992.014752348118
 20
1525.336257816046
 30
0.0
 11
4992.014752348126
 21
1500.336257816046
 31
0.0
  0
CIRCLE
  5
25FE1
330
747D
100
AcDbEntity
  8
部品1
 48
50.0
100
AcDbCircle
 10
5017.014752348126
 20
1537.836257816046
 30
0.0
 40
12.5
  0
LINE
  5
25FE2
330
747D
100
AcDbEntity
  8
細線
 48
50.0
100
AcDbLine
 10
5332.591170620585
 20
1312.836257816037
 30
0.0
 11
5325.892440809803
 21
1337.836257816043
 31
0.0
  0
LINE
  5
25FE3
330
747D
100
AcDbEntity
  8
細線
 48
50.0
100
AcDbLine
 10
5209.328600390509
 20
1312.836257816041
 30
0.0
 11
5202.629870579725
 21
1337.836257816046
 31
0.0
  0
ARC
  5
25FE4
330
747D
100
AcDbEntity
  8
部品1
 48
50.0
100
AcDbCircle
 10
5218.264752348145
 20
1540.33625781605
 30
0.0
 40
40.0
100
AcDbArc
 50
337.9756871629567
 51
0.0
  0
ARC
  5
25FE5
330
747D
100
AcDbEntity
  8
部品1
 48
50.0
100
AcDbCircle
 10
5215.764752348118
 20
1540.336257816048
 30
0.0
 40
40.0
100
AcDbArc
 50
180.0
 51
202.0243128370433
  0
CIRCLE
  5
25FE6
330
747D
100
AcDbEntity
  8
部品1
 48
50.0
100
AcDbCircle
 10
5217.014752348126
 20
1541.586257816046
 30
0.0
 40
16.25
  0
LINE
  5
25FE7
330
747D
100
AcDbEntity
  8
点線
 48
25.0
100
AcDbLine
 10
5067.014752348126
 20
1712.836257816046
 30
0.0
 11
5067.014752348126
 21
2687.836257816046
 31
0.0
  0
LINE
  5
25FE8
330
747D
100
AcDbEntity
  8
点線
 48
25.0
100
AcDbLine
 10
4842.014752348126
 20
1712.836257816046
 30
0.0
 11
5067.014752348126
 21
1712.836257816046
 31
0.0
  0
LINE
  5
25FE9
330
747D
100
AcDbEntity
  8
部品1
 48
50.0
100
AcDbLine
 10
5258.264752348154
 20
1641.58625781605
 30
0.0
 11
5233.264752348117
 21
1641.586257816048
 31
0.0
  0
LINE
  5
25FEA
330
747D
100
AcDbEntity
  8
部品1
 48
50.0
100
AcDbLine
 10
5233.264752348117
 20
2547.836257816043
 30
0.0
 11
5233.264752348127
 21
2446.586257816043
 31
0.0
  0
LINE
  5
25FEB
330
747D
100
AcDbEntity
  8
部品1
 48
50.0
100
AcDbLine
 10
5175.764752348118
 20
2547.836257816046
 30
0.0
 11
5175.764752348121
 21
2362.836257816046
 31
0.0
  0
LINE
  5
25FEC
330
747D
100
AcDbEntity
  8
部品1
 48
50.0
100
AcDbLine
 10
5200.764752348127
 20
2547.836257816046
 30
0.0
 11
5200.764752348127
 21
2362.836257816049
 31
0.0
  0
LINE
  5
25FED
330
747D
100
AcDbEntity
  8
部品1
 48
50.0
100
AcDbLine
 10
5283.210284126738
 20
2375.336257816046
 30
0.0
 11
5283.210284126738
 21
2687.836257816046
 31
0.0
  0
LINE
  5
25FEE
330
747D
100
AcDbEntity
  8
部品1
 48
50.0
100
AcDbLine
 10
5249.460284126739
 20
2375.336257816046
 30
0.0
 11
5249.460284126739
 21
2687.836257816046
 31
0.0
  0
LINE
  5
25FEF
330
747D
100
AcDbEntity
  8
部品1
 48
50.0
100
AcDbLine
 10
5249.460284126739
 20
2446.586257816046
 30
0.0
 11
5233.264752348117
 21
2446.586257816046
 31
0.0
  0
ARC
  5
25FF0
330
747D
100
AcDbEntity
  8
部品1
 48
50.0
100
AcDbCircle
 10
5236.960284126738
 20
2375.336257816046
 30
0.0
 40
12.5
100
AcDbArc
 50
270.0
 51
0.0
  0
LINE
  5
25FF1
330
747D
100
AcDbEntity
  8
部品1
 48
50.0
100
AcDbLine
 10
5236.960284126738
 20
2362.836257816046
 30
0.0
 11
5174.460284126738
 21
2362.836257816046
 31
0.0
  0
LINE
  5
25FF2
330
747D
100
AcDbEntity
  8
部品1
 48
50.0
100
AcDbLine
 10
5236.960284126738
 20
2329.086257816046
 30
0.0
 11
5174.460284126738
 21
2329.086257816046
 31
0.0
  0
ARC
  5
25FF3
330
747D
100
AcDbEntity
  8
部品1
 48
50.0
100
AcDbCircle
 10
5236.960284126738
 20
2375.336257816046
 30
0.0
 40
46.25
100
AcDbArc
 50
270.0
 51
0.0
  0
LINE
  5
25FF4
330
747D
100
AcDbEntity
  8
部品1
 48
50.0
100
AcDbLine
 10
5174.460284126738
 20
2329.086257816046
 30
0.0
 11
5174.460284126738
 21
2362.836257816046
 31
0.0
  0
CIRCLE
  5
25FF5
330
747D
100
AcDbEntity
  8
部品1
 48
50.0
100
AcDbCircle
 10
5217.014752348126
 20
2546.586257816046
 30
0.0
 40
16.25
  0
ARC
  5
25FF6
330
747D
100
AcDbEntity
  8
部品1
 48
50.0
100
AcDbCircle
 10
5215.764752348118
 20
2547.836257816046
 30
0.0
 40
40.0
100
AcDbArc
 50
90.0
 51
180.0
  0
ARC
  5
25FF7
330
747D
100
AcDbEntity
  8
部品1
 48
50.0
100
AcDbCircle
 10
5218.264752348145
 20
2547.836257816043
 30
0.0
 40
40.0
100
AcDbArc
 50
38.74965111339442
 51
90.0
  0
LINE
  5
25FF8
330
747D
100
AcDbEntity
  8
部品1
 48
50.0
100
AcDbLine
 10
5218.264752348145
 20
2587.836257816043
 30
0.0
 11
5215.764752348118
 21
2587.836257816046
 31
0.0
  0
LINE
  5
25FF9
330
747D
100
AcDbEntity
  8
部品1
100
AcDbLine
 10
5240.758361049815
 20
2720.143950123738
 30
0.0
 11
5236.719899511348
 21
2716.10548858528
 31
0.0
  0
ARC
  5
25FFA
330
747D
100
AcDbEntity
  8
部品1
100
AcDbCircle
 10
5243.45066874212
 20
2709.786366196516
 30
0.0
 40
9.232256614826125
100
AcDbArc
 50
43.19325636896715
 51
136.8067436310328
  0
LINE
  5
25FFB
330
747D
100
AcDbEntity
  8
部品1
100
AcDbLine
 10
5301.335284126739
 20
2693.22087320066
 30
0.0
 11
5231.335284126739
 21
2693.22087320066
 31
0.0
  0
LINE
  5
25FFC
330
747D
100
AcDbEntity
  8
部品1
100
AcDbLine
 10
5295.950668742124
 20
2716.10548858528
 30
0.0
 11
5236.719899511348
 21
2716.105488585275
 31
0.0
  0
LINE
  5
25FFD
330
747D
100
AcDbEntity
  8
部品1
100
AcDbLine
 10
5236.719899511348
 20
2716.10548858528
 30
0.0
 11
5236.719899511348
 21
2693.22087320066
 31
0.0
  0
LINE
  5
25FFE
330
747D
100
AcDbEntity
  8
部品1
100
AcDbLine
 10
5231.335284126739
 20
2693.22087320066
 30
0.0
 11
5231.335284126739
 21
2687.836257816046
 31
0.0
  0
LINE
  5
25FFF
330
747D
100
AcDbEntity
  8
部品1
100
AcDbLine
 10
5301.335284126739
 20
2693.22087320066
 30
0.0
 11
5301.335284126739
 21
2687.836257816046
 31
0.0
  0
LINE
  5
26000
330
747D
100
AcDbEntity
  8
部品1
100
AcDbLine
 10
5295.950668742119
 20
2716.105488585278
 30
0.0
 11
5291.912207203663
 21
2720.143950123738
 31
0.0
  0
ARC
  5
26001
330
747D
100
AcDbEntity
  8
部品1
100
AcDbCircle
 10
5289.219899511349
 20
2709.786366196516
 30
0.0
 40
9.232256614826125
100
AcDbArc
 50
43.19325636896715
 51
136.8067436310328
  0
LINE
  5
26002
330
747D
100
AcDbEntity
  8
部品1
100
AcDbLine
 10
5282.489130280577
 20
2716.10548858528
 30
0.0
 11
5282.48913028058
 21
2693.22087320066
 31
0.0
  0
LINE
  5
26003
330
747D
100
AcDbEntity
  8
部品1
100
AcDbLine
 10
5295.950668742119
 20
2716.105488585278
 30
0.0
 11
5295.950668742119
 21
2693.22087320066
 31
0.0
  0
LINE
  5
26004
330
747D
100
AcDbEntity
  8
部品1
100
AcDbLine
 10
5250.181437972891
 20
2716.105488585278
 30
0.0
 11
5250.181437972891
 21
2693.22087320066
 31
0.0
  0
LINE
  5
26005
330
747D
100
AcDbEntity
  8
細線
 48
50.0
100
AcDbLine
 10
5288.210284126739
 20
2727.060619162819
 30
0.0
 11
5262.396923853742
 21
2720.143950123738
 31
0.0
  0
ARC
  5
26006
330
747D
100
AcDbEntity
  8
部品1
100
AcDbCircle
 10
5266.335284126729
 20
2675.332813188679
 30
0.0
 40
43.85610339004736
100
AcDbArc
 50
68.38687878209459
 51
111.6131212179054
  0
LINE
  5
26007
330
747D
100
AcDbEntity
  8
部品1
100
AcDbLine
 10
5291.912207203663
 20
2720.143950123738
 30
0.0
 11
5240.758361049815
 21
2720.143950123738
 31
0.0
  0
LINE
  5
26008
330
747D
100
AcDbEntity
  8
細線
 48
50.0
100
AcDbLine
 10
5288.210284126739
 20
2742.06061916282
 30
0.0
 11
5244.210284126733
 21
2730.270854695849
 31
0.0
  0
LINE
  5
26009
330
747D
100
AcDbEntity
  8
部品1
 48
50.0
100
AcDbLine
 10
5592.014752348126
 20
1712.836257816046
 30
0.0
 11
5592.014752348126
 21
1337.836257816046
 31
0.0
  0
LINE
  5
2600A
330
747D
100
AcDbEntity
  8
部品1
 48
50.0
100
AcDbLine
 10
5717.014752348126
 20
1337.836257816046
 30
0.0
 11
5717.014752348126
 21
1137.836257816046
 31
0.0
  0
LINE
  5
2600B
330
747D
100
AcDbEntity
  8
細線
 48
50.0
100
AcDbLine
 10
5545.622662026848
 20
1137.836257816041
 30
0.0
 11
5538.923932216071
 21
1162.836257816048
 31
0.0
  0
LINE
  5
2600C
330
747D
100
AcDbEntity
  8
細線
 48
50.0
100
AcDbLine
 10
5422.360091796775
 20
1137.836257816041
 30
0.0
 11
5415.661361985998
 21
1162.836257816052
 31
0.0
  0
LINE
  5
2600D
330
747D
100
AcDbEntity
  8
細線
 48
50.0
100
AcDbLine
 10
5668.885232256926
 20
1137.836257816041
 30
0.0
 11
5662.186502446142
 21
1162.836257816046
 31
0.0
  0
LINE
  5
2600E
330
747D
100
AcDbEntity
  8
細線
 48
50.0
100
AcDbLine
 10
5455.853740850656
 20
1312.836257816041
 30
0.0
 11
5449.155011039878
 21
1337.836257816041
 31
0.0
  0
CIRCLE
  5
2600F
330
747D
100
AcDbEntity
  8
部品1
 48
50.0
100
AcDbCircle
 10
5417.014752348126
 20
1537.836257816046
 30
0.0
 40
12.5
  0
LINE
  5
26010
330
747D
100
AcDbEntity
  8
部品1
 48
50.0
100
AcDbLine
 10
5442.014752348126
 20
1500.336257816046
 30
0.0
 11
5442.014752348126
 21
1525.336257816046
 31
0.0
  0
LINE
  5
26011
330
747D
100
AcDbEntity
  8
細線
 48
50.0
100
AcDbLine
 10
5702.37888131081
 20
1312.836257816039
 30
0.0
 11
5695.680151500031
 21
1337.836257816041
 31
0.0
  0
LINE
  5
26012
330
747D
100
AcDbEntity
  8
細線
 48
50.0
100
AcDbLine
 10
5579.116311080738
 20
1312.836257816037
 30
0.0
 11
5572.417581269954
 21
1337.836257816043
 31
0.0
  0
LINE
  5
26013
330
747D
100
AcDbEntity
  8
部品1
 48
50.0
100
AcDbLine
 10
5367.014752348126
 20
2687.836257816046
 30
0.0
 11
5367.014752348126
 21
1712.836257816046
 31
0.0
  0
LINE
  5
26014
330
747D
100
AcDbEntity
  8
部品1
 48
50.0
100
AcDbLine
 10
5367.014752348126
 20
1712.836257816046
 30
0.0
 11
5592.014752348126
 21
1712.836257816046
 31
0.0
  0
LWPOLYLINE
  5
26015
330
747D
100
AcDbEntity
  8
部品1
 48
50.0
100
AcDbPolyline
 90
        2
 70
     0
 10
5367.014752348126
 20
2312.836257816046
 40
18.75
 41
18.75
 10
6106.699995464023
 20
2312.836257816046
 40
12.5
 41
12.5
  0
TEXT
  5
26016
330
747D
100
AcDbEntity
  8
寸法
 62
     7
 48
50.0
100
AcDbText
 10
5648.703108518728
 20
2338.835694569519
 30
0.0
 40
150.0
  1
▽G.L
  7
STYLE1
100
AcDbText
  0
TEXT
  5
26017
330
747D
100
AcDbEntity
  8
部品1
 48
50.0
100
AcDbText
 10
3639.640675269413
 20
2869.627079380198
 30
0.0
 40
150.0
  1
M10×160
  7
STYLE1
100
AcDbText
  0
LINE
  5
26018
330
747D
100
AcDbEntity
  8
部品1
 48
50.0
100
AcDbLine
 10
5249.460284126739
 20
2763.220873200661
 30
0.0
 11
5283.210284126738
 21
2763.220873200661
 31
0.0
  0
LINE
  5
26019
330
747D
100
AcDbEntity
  8
寸法
 48
50.0
100
AcDbLine
 10
5999.355800566354
 20
2763.220873200661
 30
0.0
 11
5999.355800566354
 21
3601.72560155216
 31
0.0
  0
ENDSEC
  0
SECTION
  2
OBJECTS
  0
DICTIONARY
  5
7471
330
0
100
AcDbDictionary
281
     1
  3
ACAD_COLOR
350
1BE97
  3
ACAD_GROUP
350
7472
  3
ACAD_LAYOUT
350
1BE98
  3
ACAD_MATERIAL
350
1BE96
  3
ACAD_MLINESTYLE
350
7473
  3
ACAD_PLOTSETTINGS
350
1BE99
  3
ACAD_PLOTSTYLENAME
350
1BE94
  3
AcadDim
350
2230C
  3
ACDBHEADERROUNDTRIPXREC
350
26178
  3
ACDBVARIABLEDICTIONARY
350
141CA
  3
CONTENTDICTIONARY
350
E71C
  3
DRAWINGVARIABLESDICT
350
F3B9
  0
DICTIONARY
  5
1BE97
102
{ACAD_REACTORS
330
7471
102
}
330
7471
100
AcDbDictionary
281
     1
  0
DICTIONARY
  5
7472
102
{ACAD_REACTORS
330
7471
102
}
330
7471
100
AcDbDictionary
281
     1
  0
DICTIONARY
  5
1BE98
102
{ACAD_REACTORS
330
7471
102
}
330
7471
100
AcDbDictionary
281
     1
  3
Model
350
1BE9A
  3
レイアウト1
350
1BE9B
  0
DICTIONARY
  5
1BE96
102
{ACAD_REACTORS
330
7471
102
}
330
7471
100
AcDbDictionary
281
     1
  0
DICTIONARY
  5
7473
102
{ACAD_REACTORS
330
7471
102
}
330
7471
100
AcDbDictionary
281
     1
  3
STANDARD
350
7480
  0
DICTIONARY
  5
1BE99
102
{ACAD_REACTORS
330
7471
102
}
330
7471
100
AcDbDictionary
281
     1
  0
ACDBDICTIONARYWDFLT
  5
1BE94
102
{ACAD_REACTORS
330
7471
102
}
330
7471
100
AcDbDictionary
281
     1
  3
Normal
350
1BE95
100
AcDbDictionaryWithDefault
340
1BE95
  0
XRECORD
  5
2230C
102
{ACAD_REACTORS
330
7471
102
}
330
7471
100
AcDbXrecord
280
     1
 90
   990106
  3
DOTSMALL
 60
     0
 61
     0
 62
     4
 63
     4
 64
     1
 65
     0
 66
     0
 67
     2
 68
     0
 69
     0
 70
     0
 71
     0
 72
     0
 40
0.0
170
     2
340
0
  0
DICTIONARY
  5
26178
102
{ACAD_REACTORS
330
7471
102
}
330
7471
100
AcDbDictionary
281
     1
  3
COLORDICT
350
2617A
  3
MATERIALDICT
350
26179
  0
DICTIONARY
  5
141CA
102
{ACAD_REACTORS
330
7471
102
}
330
7471
100
AcDbDictionary
281
     1
  3
DIMASSOC
350
26175
  3
PROJECTNAME
350
26176
  3
SORTENTS
350
141CB
  0
DICTIONARY
  5
E71C
102
{ACAD_REACTORS
330
7471
102
}
330
7471
100
AcDbDictionary
281
     1
  0
DICTIONARY
  5
F3B9
102
{ACAD_REACTORS
330
7471
102
}
330
7471
100
AcDbDictionary
281
     1
1001
DRAWINGVARIABLESXDATA
1000
POLARMODE
1000
1
  0
LAYOUT
  5
1BE9A
102
{ACAD_XDICTIONARY
360
2617B
102
}
102
{ACAD_REACTORS
330
1BE98
102
}
330
1BE98
100
AcDbPlotSettings
  1

  2
クセロPDF
  4
A3
  6

 40
3.174999999999999
 41
3.174999999999999
 42
3.174987999999999
 43
3.174987999999999
 44
419.946655
 45
296.925995
 46
0.0
 47
0.0
 48
0.0
 49
0.0
140
0.0
141
0.0
142
1.0
143
50.14711267285692
 70
 11952
 72
     1
 73
     0
 74
     2
  7
inaba.ctb
 75
     0
147
0.0199413275600465
148
52.70172628566069
149
165.9934453319874
100
AcDbLayout
  1
Model
 70
     1
 71
     0
 10
0.0
 20
0.0
 11
12.0
 21
9.0
 12
0.0
 22
0.0
 32
0.0
 14
0.0
 24
0.0
 34
0.0
 15
0.0
 25
0.0
 35
0.0
146
0.0
 13
0.0
 23
0.0
 33
0.0
 16
1.0
 26
0.0
 36
0.0
 17
0.0
 27
1.0
 37
0.0
 76
     0
330
747D
  0
LAYOUT
  5
1BE9B
102
{ACAD_XDICTIONARY
360
2617D
102
}
102
{ACAD_REACTORS
330
1BE98
102
}
330
1BE98
100
AcDbPlotSettings
  1

  2
EPSON LP-7000C
  4

  6

 40
0.0
 41
0.0
 42
0.0
 43
0.0
 44
0.0
 45
0.0
 46
0.0
 47
0.0
 48
0.0
 49
0.0
140
0.0
141
0.0
142
1.0
143
1.0
 70
   688
 72
     0
 73
     0
 74
     5
  7
inaba.ctb
 75
    16
147
1.0
148
0.0
149
0.0
100
AcDbLayout
  1
レイアウト1
 70
     0
 71
     1
 10
0.0
 20
0.0
 11
420.0
 21
297.0
 12
0.0
 22
0.0
 32
0.0
 14
1.000000000000000E+20
 24
1.000000000000000E+20
 34
1.000000000000000E+20
 15
-1.000000000000000E+20
 25
-1.000000000000000E+20
 35
-1.000000000000000E+20
146
0.0
 13
0.0
 23
0.0
 33
0.0
 16
1.0
 26
0.0
 36
0.0
 17
0.0
 27
1.0
 37
0.0
 76
     0
330
747A
  0
MLINESTYLE
  5
7480
102
{ACAD_REACTORS
330
7473
102
}
330
7473
100
AcDbMlineStyle
  2
STANDARD
 70
     0
  3

 62
     0
 51
90.0
 52
90.0
 71
     2
 49
0.5
 62
   256
  6
BYLAYER
 49
-0.5
 62
   256
  6
BYLAYER
  0
ACDBPLACEHOLDER
  5
1BE95
102
{ACAD_REACTORS
330
1BE94
102
}
330
1BE94
  0
XRECORD
  5
2617A
102
{ACAD_REACTORS
330
26178
102
}
330
26178
100
AcDbXrecord
280
     1
340
1BE97
  0
XRECORD
  5
26179
102
{ACAD_REACTORS
330
26178
102
}
330
26178
100
AcDbXrecord
280
     1
340
1BE96
  0
DICTIONARYVAR
  5
26175
102
{ACAD_REACTORS
330
141CA
102
}
330
141CA
100
DictionaryVariables
280
     0
  1
1
  0
DICTIONARYVAR
  5
26176
102
{ACAD_REACTORS
330
141CA
102
}
330
141CA
100
DictionaryVariables
280
     0
  1

  0
DICTIONARYVAR
  5
141CB
102
{ACAD_REACTORS
330
141CA
102
}
330
141CA
100
DictionaryVariables
280
     0
  1
96
  0
DICTIONARY
  5
2617B
330
1BE9A
100
AcDbDictionary
280
     1
281
     1
  3
ACAD_XREC_ROUNDTRIP
360
2617C
  0
DICTIONARY
  5
2617D
330
1BE9B
100
AcDbDictionary
280
     1
281
     1
  3
ACAD_XREC_ROUNDTRIP
360
2617E
  0
XRECORD
  5
2617C
102
{ACAD_REACTORS
330
2617B
102
}
330
2617B
100
AcDbXrecord
280
     1
102
SHADEPLOT
 70
     1
102
SHADEPLOTRESLEVEL
 70
     2
102
SHADEPLOTCUSTOMDPI
 70
   300
  0
XRECORD
  5
2617E
102
{ACAD_REACTORS
330
2617D
102
}
330
2617D
100
AcDbXrecord
280
     1
102
SHADEPLOT
 70
     0
102
SHADEPLOTRESLEVEL
 70
     2
102
SHADEPLOTCUSTOMDPI
 70
   300
  0
ENDSEC
  0
EOF
