  0
SECTION
  2
HEADER
  9
$ACADVER
  1
AC1015
  9
$ACADMAINTVER
 70
    20
  9
$DWGCODEPAGE
  3
ANSI_932
  9
$INSBASE
 10
0.0
 20
0.0
 30
0.0
  9
$EXTMIN
 10
139.9999999999995
 20
-0.0000000000000909
 30
0.0
  9
$EXTMAX
 10
16307.2
 20
11409.6
 30
0.0
  9
$LIMMIN
 10
0.0
 20
0.0
  9
$LIMMAX
 10
16800.0
 20
11880.0
  9
$ORTHOMODE
 70
     0
  9
$REGENMODE
 70
     1
  9
$FILLMODE
 70
     1
  9
$QTEXTMODE
 70
     0
  9
$MIRRTEXT
 70
     1
  9
$LTSCALE
 40
20.0
  9
$ATTMODE
 70
     1
  9
$TEXTSIZE
 40
4.0
  9
$TRACEWID
 40
1.0
  9
$TEXTSTYLE
  7
MSPゴシック
  9
$CLAYER
  8
寸法
  9
$CELTYPE
  6
BYLAYER
  9
$CECOLOR
 62
   256
  9
$CELTSCALE
 40
50.0
  9
$DISPSILH
 70
     0
  9
$DIMSCALE
 40
40.0
  9
$DIMASZ
 40
2.5
  9
$DIMEXO
 40
0.5
  9
$DIMDLI
 40
7.0
  9
$DIMRND
 40
0.0
  9
$DIMDLE
 40
0.0
  9
$DIMEXE
 40
1.5
  9
$DIMTP
 40
0.0
  9
$DIMTM
 40
0.0
  9
$DIMTXT
 40
3.0
  9
$DIMCEN
 40
0.0
  9
$DIMTSZ
 40
0.0
  9
$DIMTOL
 70
     0
  9
$DIMLIM
 70
     0
  9
$DIMTIH
 70
     0
  9
$DIMTOH
 70
     0
  9
$DIMSE1
 70
     0
  9
$DIMSE2
 70
     0
  9
$DIMTAD
 70
     3
  9
$DIMZIN
 70
     8
  9
$DIMBLK
  1

  9
$DIMASO
 70
     1
  9
$DIMSHO
 70
     1
  9
$DIMPOST
  1

  9
$DIMAPOST
  1

  9
$DIMALT
 70
     0
  9
$DIMALTD
 70
     2
  9
$DIMALTF
 40
0.0394
  9
$DIMLFAC
 40
1.0
  9
$DIMTOFL
 70
     1
  9
$DIMTVP
 40
0.0
  9
$DIMTIX
 70
     1
  9
$DIMSOXD
 70
     0
  9
$DIMSAH
 70
     1
  9
$DIMBLK1
  1
DOTSMALL
  9
$DIMBLK2
  1
DOTSMALL
  9
$DIMSTYLE
  2
INABA_S40G
  9
$DIMCLRD
 70
     0
  9
$DIMCLRE
 70
     0
  9
$DIMCLRT
 70
     7
  9
$DIMTFAC
 40
1.0
  9
$DIMGAP
 40
1.0
  9
$DIMJUST
 70
     0
  9
$DIMSD1
 70
     0
  9
$DIMSD2
 70
     0
  9
$DIMTOLJ
 70
     1
  9
$DIMTZIN
 70
     0
  9
$DIMALTZ
 70
     0
  9
$DIMALTTZ
 70
     0
  9
$DIMUPT
 70
     0
  9
$DIMDEC
 70
     1
  9
$DIMTDEC
 70
     4
  9
$DIMALTU
 70
     2
  9
$DIMALTTD
 70
     2
  9
$DIMTXSTY
  7
STYLE1
  9
$DIMAUNIT
 70
     0
  9
$DIMADEC
 70
     0
  9
$DIMALTRND
 40
0.0
  9
$DIMAZIN
 70
     0
  9
$DIMDSEP
 70
    46
  9
$DIMATFIT
 70
     3
  9
$DIMFRAC
 70
     0
  9
$DIMLDRBLK
  1

  9
$DIMLUNIT
 70
     2
  9
$DIMLWD
 70
    -2
  9
$DIMLWE
 70
    -2
  9
$DIMTMOVE
 70
     2
  9
$LUNITS
 70
     2
  9
$LUPREC
 70
     1
  9
$SKETCHINC
 40
1.0
  9
$FILLETRAD
 40
3.0
  9
$AUNITS
 70
     0
  9
$AUPREC
 70
     0
  9
$MENU
  1
acad
  9
$ELEVATION
 40
0.0
  9
$PELEVATION
 40
0.0
  9
$THICKNESS
 40
0.0
  9
$LIMCHECK
 70
     0
  9
$CHAMFERA
 40
0.0
  9
$CHAMFERB
 40
0.0
  9
$CHAMFERC
 40
0.0
  9
$CHAMFERD
 40
0.0
  9
$SKPOLY
 70
     0
  9
$TDCREATE
 40
2451368.612993866
  9
$TDUCREATE
 40
2451368.237993866
  9
$TDUPDATE
 40
2455569.647955903
  9
$TDUUPDATE
 40
2455569.272955903
  9
$TDINDWG
 40
0.8560517245
  9
$TDUSRTIMER
 40
0.8560511921
  9
$USRTIMER
 70
     1
  9
$ANGBASE
 50
0.0
  9
$ANGDIR
 70
     0
  9
$PDMODE
 70
     3
  9
$PDSIZE
 40
2.0
  9
$PLINEWID
 40
0.0
  9
$SPLFRAME
 70
     0
  9
$SPLINETYPE
 70
     6
  9
$SPLINESEGS
 70
     8
  9
$HANDSEED
  5
1BF7E
  9
$SURFTAB1
 70
     6
  9
$SURFTAB2
 70
     6
  9
$SURFTYPE
 70
     6
  9
$SURFU
 70
     6
  9
$SURFV
 70
     6
  9
$UCSBASE
  2

  9
$UCSNAME
  2

  9
$UCSORG
 10
0.0
 20
0.0
 30
0.0
  9
$UCSXDIR
 10
1.0
 20
0.0
 30
0.0
  9
$UCSYDIR
 10
0.0
 20
1.0
 30
0.0
  9
$UCSORTHOREF
  2

  9
$UCSORTHOVIEW
 70
     0
  9
$UCSORGTOP
 10
0.0
 20
0.0
 30
0.0
  9
$UCSORGBOTTOM
 10
0.0
 20
0.0
 30
0.0
  9
$UCSORGLEFT
 10
0.0
 20
0.0
 30
0.0
  9
$UCSORGRIGHT
 10
0.0
 20
0.0
 30
0.0
  9
$UCSORGFRONT
 10
0.0
 20
0.0
 30
0.0
  9
$UCSORGBACK
 10
0.0
 20
0.0
 30
0.0
  9
$PUCSBASE
  2

  9
$PUCSNAME
  2

  9
$PUCSORG
 10
0.0
 20
0.0
 30
0.0
  9
$PUCSXDIR
 10
1.0
 20
0.0
 30
0.0
  9
$PUCSYDIR
 10
0.0
 20
1.0
 30
0.0
  9
$PUCSORTHOREF
  2

  9
$PUCSORTHOVIEW
 70
     0
  9
$PUCSORGTOP
 10
0.0
 20
0.0
 30
0.0
  9
$PUCSORGBOTTOM
 10
0.0
 20
0.0
 30
0.0
  9
$PUCSORGLEFT
 10
0.0
 20
0.0
 30
0.0
  9
$PUCSORGRIGHT
 10
0.0
 20
0.0
 30
0.0
  9
$PUCSORGFRONT
 10
0.0
 20
0.0
 30
0.0
  9
$PUCSORGBACK
 10
0.0
 20
0.0
 30
0.0
  9
$USERI1
 70
     0
  9
$USERI2
 70
     0
  9
$USERI3
 70
     0
  9
$USERI4
 70
     0
  9
$USERI5
 70
     0
  9
$USERR1
 40
0.0
  9
$USERR2
 40
0.0
  9
$USERR3
 40
0.0
  9
$USERR4
 40
0.0
  9
$USERR5
 40
0.0
  9
$WORLDVIEW
 70
     1
  9
$SHADEDGE
 70
     3
  9
$SHADEDIF
 70
    70
  9
$TILEMODE
 70
     1
  9
$MAXACTVP
 70
    16
  9
$PINSBASE
 10
0.0
 20
0.0
 30
0.0
  9
$PLIMCHECK
 70
     0
  9
$PEXTMIN
 10
1.000000000000000E+20
 20
1.000000000000000E+20
 30
1.000000000000000E+20
  9
$PEXTMAX
 10
-1.000000000000000E+20
 20
-1.000000000000000E+20
 30
-1.000000000000000E+20
  9
$PLIMMIN
 10
0.0
 20
0.0
  9
$PLIMMAX
 10
420.0
 20
297.0
  9
$UNITMODE
 70
     0
  9
$VISRETAIN
 70
     0
  9
$PLINEGEN
 70
     0
  9
$PSLTSCALE
 70
     0
  9
$TREEDEPTH
 70
  3020
  9
$CMLSTYLE
  2
STANDARD
  9
$CMLJUST
 70
     0
  9
$CMLSCALE
 40
1.0
  9
$PROXYGRAPHICS
 70
     1
  9
$MEASUREMENT
 70
     1
  9
$CELWEIGHT
370
    -1
  9
$ENDCAPS
280
     0
  9
$JOINSTYLE
280
     0
  9
$LWDISPLAY
290
     0
  9
$INSUNITS
 70
     0
  9
$HYPERLINKBASE
  1

  9
$STYLESHEET
  1
inaba.ctb
  9
$XEDIT
290
     1
  9
$CEPSNTYPE
380
     0
  9
$PSTYLEMODE
290
     1
  9
$FINGERPRINTGUID
  2
{0E4A3AB3-ADAA-44DC-861C-9525B65BB1EC}
  9
$VERSIONGUID
  2
{FB77BAA6-2642-4C12-950C-4C7BC7886ABA}
  9
$EXTNAMES
290
     1
  9
$PSVPSCALE
 40
0.0
  9
$OLESTARTUP
290
     0
  0
ENDSEC
  0
SECTION
  2
CLASSES
  0
CLASS
  1
ACDBDICTIONARYWDFLT
  2
AcDbDictionaryWithDefault
  3
ObjectDBX Classes
 90
        0
280
     0
281
     0
  0
CLASS
  1
DICTIONARYVAR
  2
AcDbDictionaryVar
  3
ObjectDBX Classes
 90
        0
280
     0
281
     0
  0
CLASS
  1
ACDBPLACEHOLDER
  2
AcDbPlaceHolder
  3
ObjectDBX Classes
 90
        0
280
     0
281
     0
  0
CLASS
  1
LAYOUT
  2
AcDbLayout
  3
ObjectDBX Classes
 90
        0
280
     0
281
     0
  0
ENDSEC
  0
SECTION
  2
TABLES
  0
TABLE
  2
VPORT
  5
746D
330
0
100
AcDbSymbolTable
 70
     2
  0
VPORT
  5
1BF76
330
746D
100
AcDbSymbolTableRecord
100
AcDbViewportTableRecord
  2
*Active
 70
     0
 10
0.0
 20
0.0
 11
1.0
 21
1.0
 12
11720.15228811286
 22
5704.702397105601
 13
0.0
 23
0.0
 14
10.0
 24
10.0
 15
10.0
 25
10.0
 16
0.0
 26
0.0
 36
1.0
 17
0.0
 27
0.0
 37
0.0
 40
11513.59868046627
 41
2.234800838574423
 42
50.0
 43
0.0
 44
0.0
 50
0.0
 51
0.0
 71
     0
 72
     0
 73
     1
 74
     0
 75
     0
 76
     0
 77
     0
 78
     0
281
     0
 65
     1
110
0.0
120
0.0
130
0.0
111
1.0
121
0.0
131
0.0
112
0.0
122
1.0
132
0.0
 79
     0
146
0.0
  0
ENDTAB
  0
TABLE
  2
LTYPE
  5
746A
330
0
100
AcDbSymbolTable
 70
     3
  0
LTYPE
  5
7477
330
746A
100
AcDbSymbolTableRecord
100
AcDbLinetypeTableRecord
  2
BYBLOCK
 70
     0
  3

 72
    65
 73
     0
 40
0.0
  0
LTYPE
  5
7478
330
746A
100
AcDbSymbolTableRecord
100
AcDbLinetypeTableRecord
  2
BYLAYER
 70
     0
  3

 72
    65
 73
     0
 40
0.0
  0
LTYPE
  5
7479
330
746A
100
AcDbSymbolTableRecord
100
AcDbLinetypeTableRecord
  2
CONTINUOUS
 70
     0
  3
Solid line
 72
    65
 73
     0
 40
0.0
  0
LTYPE
  5
781A
330
746A
100
AcDbSymbolTableRecord
100
AcDbLinetypeTableRecord
  2
HIDDEN
 70
     0
  3
__ __ __ __ __ __ __ __ __ __ __ __ __ __ __ __
 72
    65
 73
     2
 40
0.375
 49
0.25
 74
     0
 49
-0.125
 74
     0
  0
LTYPE
  5
781B
330
746A
100
AcDbSymbolTableRecord
100
AcDbLinetypeTableRecord
  2
PHANTOM
 70
     0
  3
______  __  __  ______  __  __  ______  __  __ 
 72
    65
 73
     6
 40
2.5
 49
1.25
 74
     0
 49
-0.25
 74
     0
 49
0.25
 74
     0
 49
-0.25
 74
     0
 49
0.25
 74
     0
 49
-0.25
 74
     0
  0
ENDTAB
  0
TABLE
  2
LAYER
  5
7467
102
{ACAD_XDICTIONARY
360
18AAA
102
}
330
0
100
AcDbSymbolTable
 70
    10
  0
LAYER
  5
7474
330
7467
100
AcDbSymbolTableRecord
100
AcDbLayerTableRecord
  2
0
 70
     0
 62
     7
  6
CONTINUOUS
370
    -3
390
17AE0
  0
LAYER
  5
DEB3
330
7467
100
AcDbSymbolTableRecord
100
AcDbLayerTableRecord
  2
寸法
 70
     0
 62
     4
  6
CONTINUOUS
370
    -3
390
17AE0
  0
LAYER
  5
DEB4
330
7467
100
AcDbSymbolTableRecord
100
AcDbLayerTableRecord
  2
部品1
 70
     0
 62
     7
  6
CONTINUOUS
370
    -3
390
17AE0
  0
LAYER
  5
DEB5
330
7467
100
AcDbSymbolTableRecord
100
AcDbLayerTableRecord
  2
補助
 70
     0
 62
    -1
  6
CONTINUOUS
370
    -3
390
17AE0
  0
LAYER
  5
DEB6
330
7467
100
AcDbSymbolTableRecord
100
AcDbLayerTableRecord
  2
文字
 70
     0
 62
     7
  6
CONTINUOUS
370
    -3
390
17AE0
  0
LAYER
  5
F255
330
7467
100
AcDbSymbolTableRecord
100
AcDbLayerTableRecord
  2
DEFPOINTS
 70
     0
 62
     7
  6
CONTINUOUS
290
     0
370
    -3
390
17AE0
  0
LAYER
  5
10B54
330
7467
100
AcDbSymbolTableRecord
100
AcDbLayerTableRecord
  2
仕様書枠
 70
     0
 62
   230
  6
CONTINUOUS
370
    -3
390
17AE0
  0
LAYER
  5
11729
330
7467
100
AcDbSymbolTableRecord
100
AcDbLayerTableRecord
  2
Ｇ．Ｌ
 70
     0
 62
    30
  6
CONTINUOUS
370
    -3
390
17AE0
  0
LAYER
  5
1173F
330
7467
100
AcDbSymbolTableRecord
100
AcDbLayerTableRecord
  2
細線
 70
     0
 62
     5
  6
CONTINUOUS
370
    -3
390
17AE0
  0
LAYER
  5
142E2
330
7467
100
AcDbSymbolTableRecord
100
AcDbLayerTableRecord
  2
破線
 70
     0
 62
     2
  6
HIDDEN
370
    -3
390
17AE0
  0
ENDTAB
  0
TABLE
  2
STYLE
  5
7468
330
0
100
AcDbSymbolTable
 70
     7
  0
STYLE
  5
7475
330
7468
100
AcDbSymbolTableRecord
100
AcDbTextStyleTableRecord
  2
STANDARD
 70
     0
 40
0.0
 41
1.0
 50
0.0
 71
     0
 42
4.0
  3
txt
  4
C:\AutoCAD LT\bigfont.shx
  0
STYLE
  5
763C
330
7468
100
AcDbSymbolTableRecord
100
AcDbTextStyleTableRecord
  2
MSMINCHO
 70
     0
 40
0.0
 41
1.0
 50
0.0
 71
     0
 42
1.199999999999999
  3
MS PMincho.ttf
  4

1001
ACAD
1000
MS PMincho
1071
    32786
  0
STYLE
  5
F706
330
7468
100
AcDbSymbolTableRecord
100
AcDbTextStyleTableRecord
  2
STYLE1
 70
     0
 40
0.0
 41
1.0
 50
0.0
 71
     0
 42
4.0
  3
isocp.shx
  4
bigfont.shx
  0
STYLE
  5
103BF
330
7468
100
AcDbSymbolTableRecord
100
AcDbTextStyleTableRecord
  2
STYLE2
 70
     0
 40
0.0
 41
1.0
 50
0.0
 71
     0
 42
100.0
  3
MS PGothic.ttf
  4

1001
ACAD
1000
MS PGothic
1071
    32818
  0
STYLE
  5
10BAA
330
7468
100
AcDbSymbolTableRecord
100
AcDbTextStyleTableRecord
  2
STYLE3
 70
     0
 40
0.0
 41
1.0
 50
0.0
 71
     0
 42
100.0
  3
DFPGothic-EB.ttf
  4

1001
ACAD
1000
DFPGothic-EB
1071
    32818
  0
STYLE
  5
11A15
330
7468
100
AcDbSymbolTableRecord
100
AcDbTextStyleTableRecord
  2
MSGOTHIC
 70
     0
 40
0.0
 41
1.0
 50
0.0
 71
     0
 42
3.5
  3
MS PGothic.ttf
  4

1001
ACAD
1000
MS PGothic
1071
    32818
  0
STYLE
  5
13E96
330
7468
100
AcDbSymbolTableRecord
100
AcDbTextStyleTableRecord
  2
MSPゴシック
 70
     0
 40
0.0
 41
1.0
 50
0.0
 71
     0
 42
4.0
  3
MS PGothic.ttf
  4

1001
ACAD
1000
MS PGothic
1071
    32818
  0
ENDTAB
  0
TABLE
  2
VIEW
  5
746B
330
0
100
AcDbSymbolTable
 70
     0
  0
ENDTAB
  0
TABLE
  2
UCS
  5
746C
330
0
100
AcDbSymbolTable
 70
     0
  0
ENDTAB
  0
TABLE
  2
APPID
  5
746E
330
0
100
AcDbSymbolTable
 70
     6
  0
APPID
  5
7476
330
746E
100
AcDbSymbolTableRecord
100
AcDbRegAppTableRecord
  2
ACAD
 70
     0
  0
APPID
  5
DEA9
330
746E
100
AcDbSymbolTableRecord
100
AcDbRegAppTableRecord
  2
CONTENTBLOCKICON
 70
     0
  0
APPID
  5
DEAA
330
746E
100
AcDbSymbolTableRecord
100
AcDbRegAppTableRecord
  2
CONTENTBLOCKDESCRIPTION
 70
     0
  0
APPID
  5
E71D
330
746E
100
AcDbSymbolTableRecord
100
AcDbRegAppTableRecord
  2
CONTENTTABDATA
 70
     0
  0
APPID
  5
E71E
330
746E
100
AcDbSymbolTableRecord
100
AcDbRegAppTableRecord
  2
CONTENTCURRENTTAB
 70
     0
  0
APPID
  5
F3BA
330
746E
100
AcDbSymbolTableRecord
100
AcDbRegAppTableRecord
  2
DRAWINGVARIABLESXDATA
 70
     0
  0
ENDTAB
  0
TABLE
  2
DIMSTYLE
  5
746F
330
0
100
AcDbSymbolTable
 70
     1
100
AcDbDimStyleTable
 71
     1
340
F71F
  0
DIMSTYLE
105
F71F
102
{ACAD_REACTORS
330
162CD
330
162CE
330
162CF
330
162D0
330
162E4
330
162E7
330
162EA
330
162EB
330
16301
330
16302
330
1631F
330
16320
330
16333
330
1659C
330
1659A
330
165E9
330
166DD
330
16913
330
17BC4
330
17BC3
330
17B87
330
17B88
330
17B86
330
17C47
330
17C46
330
195FF
330
19600
330
19601
330
19611
330
19C22
330
19C31
330
19C3F
330
19C40
330
19C41
330
19C45
330
19C75
330
19C76
330
19C77
330
1A5CB
330
1A5CC
330
1A5CD
102
}
330
746F
100
AcDbSymbolTableRecord
100
AcDbDimStyleTableRecord
  2
INABA_S40G
 70
     0
 40
40.0
 41
2.5
 42
0.5
 43
7.0
 44
1.5
 73
     0
 74
     0
 77
     3
 78
     8
140
3.0
141
0.0
143
0.0394
147
1.0
172
     1
173
     1
174
     1
178
     7
271
     1
340
F706
341
F770
343
F770
344
F770
  0
ENDTAB
  0
TABLE
  2
BLOCK_RECORD
  5
7466
330
0
100
AcDbSymbolTable
 70
    43
  0
BLOCK_RECORD
  5
747D
330
7466
100
AcDbSymbolTableRecord
100
AcDbBlockTableRecord
  2
*MODEL_SPACE
340
17AE5
  0
BLOCK_RECORD
  5
747A
330
7466
100
AcDbSymbolTableRecord
100
AcDbBlockTableRecord
  2
*PAPER_SPACE
340
17AE6
  0
BLOCK_RECORD
  5
F770
330
7466
100
AcDbSymbolTableRecord
100
AcDbBlockTableRecord
  2
_DOTSMALL
340
0
102
{BLKREFS
331
1BB61
331
1BB62
331
1BB6A
331
1BB6B
331
1BB73
331
1BB74
331
1BB7E
331
1BB7F
331
1BB87
331
1BB88
331
1BB92
331
1BB93
331
1BB9B
331
1BB9C
331
1BBA5
331
1BBA6
331
1BBAF
331
1BBB0
331
1BC74
331
1BC75
331
1BC7F
331
1BC80
331
1BC99
331
1BC9A
331
1BCA4
331
1BCA5
331
1BCAE
331
1BCAF
331
1BCB9
331
1BCBA
331
1BCC3
331
1BCC4
331
1BCD7
331
1BCD8
331
1BCE3
331
1BCE4
331
1BCEE
331
1BCEF
331
1BCFE
331
1BCFF
331
1BD07
331
1BD08
331
1BD12
331
1BD13
331
1BD1D
331
1BD1E
331
1BD26
331
1BD27
331
1BD93
331
1BD94
331
1BD9C
331
1BD9D
331
1BDA7
331
1BDA8
331
1BDAE
331
1BDAF
331
1BDB9
331
1BDBA
331
1BDCB
331
1BDCC
331
1BDD7
331
1BDD8
331
1BDE1
331
1BDE2
331
1BDEC
331
1BDED
331
1BE00
331
1BE01
331
1BEF3
331
1BEF4
331
1BEFC
331
1BEFD
331
1BF32
331
1BF33
331
1BF3B
331
1BF3C
331
1BF44
331
1BF45
331
1BF5A
331
1BF5B
331
1BF66
331
1BF67
102
}
  0
BLOCK_RECORD
  5
16338
330
7466
100
AcDbSymbolTableRecord
100
AcDbBlockTableRecord
  2
*D1
340
0
  0
BLOCK_RECORD
  5
16344
330
7466
100
AcDbSymbolTableRecord
100
AcDbBlockTableRecord
  2
*D2
340
0
  0
BLOCK_RECORD
  5
16352
330
7466
100
AcDbSymbolTableRecord
100
AcDbBlockTableRecord
  2
*D3
340
0
  0
BLOCK_RECORD
  5
16360
330
7466
100
AcDbSymbolTableRecord
100
AcDbBlockTableRecord
  2
*D4
340
0
  0
BLOCK_RECORD
  5
16384
330
7466
100
AcDbSymbolTableRecord
100
AcDbBlockTableRecord
  2
*D5
340
0
  0
BLOCK_RECORD
  5
1638F
330
7466
100
AcDbSymbolTableRecord
100
AcDbBlockTableRecord
  2
*D6
340
0
  0
BLOCK_RECORD
  5
1639B
330
7466
100
AcDbSymbolTableRecord
100
AcDbBlockTableRecord
  2
*D7
340
0
  0
BLOCK_RECORD
  5
163A9
330
7466
100
AcDbSymbolTableRecord
100
AcDbBlockTableRecord
  2
*D8
340
0
  0
BLOCK_RECORD
  5
163B8
330
7466
100
AcDbSymbolTableRecord
100
AcDbBlockTableRecord
  2
*D9
340
0
  0
BLOCK_RECORD
  5
163C7
330
7466
100
AcDbSymbolTableRecord
100
AcDbBlockTableRecord
  2
*D10
340
0
  0
BLOCK_RECORD
  5
163E1
330
7466
100
AcDbSymbolTableRecord
100
AcDbBlockTableRecord
  2
*D11
340
0
  0
BLOCK_RECORD
  5
163ED
330
7466
100
AcDbSymbolTableRecord
100
AcDbBlockTableRecord
  2
*D12
340
0
  0
BLOCK_RECORD
  5
163FB
330
7466
100
AcDbSymbolTableRecord
100
AcDbBlockTableRecord
  2
*D13
340
0
  0
BLOCK_RECORD
  5
165B5
330
7466
100
AcDbSymbolTableRecord
100
AcDbBlockTableRecord
  2
*D14
340
0
  0
BLOCK_RECORD
  5
165C4
330
7466
100
AcDbSymbolTableRecord
100
AcDbBlockTableRecord
  2
*D15
340
0
  0
BLOCK_RECORD
  5
165EA
330
7466
100
AcDbSymbolTableRecord
100
AcDbBlockTableRecord
  2
*D16
340
0
  0
BLOCK_RECORD
  5
166CF
330
7466
100
AcDbSymbolTableRecord
100
AcDbBlockTableRecord
  2
*D17
340
0
  0
BLOCK_RECORD
  5
16908
330
7466
100
AcDbSymbolTableRecord
100
AcDbBlockTableRecord
  2
*D18
340
0
  0
BLOCK_RECORD
  5
17BC5
330
7466
100
AcDbSymbolTableRecord
100
AcDbBlockTableRecord
  2
*D19
340
0
  0
BLOCK_RECORD
  5
17BD3
330
7466
100
AcDbSymbolTableRecord
100
AcDbBlockTableRecord
  2
*D20
340
0
  0
BLOCK_RECORD
  5
17BDE
330
7466
100
AcDbSymbolTableRecord
100
AcDbBlockTableRecord
  2
*D21
340
0
  0
BLOCK_RECORD
  5
17BEA
330
7466
100
AcDbSymbolTableRecord
100
AcDbBlockTableRecord
  2
*D22
340
0
  0
BLOCK_RECORD
  5
17BF8
330
7466
100
AcDbSymbolTableRecord
100
AcDbBlockTableRecord
  2
*D23
340
0
  0
BLOCK_RECORD
  5
17C48
330
7466
100
AcDbSymbolTableRecord
100
AcDbBlockTableRecord
  2
*D24
340
0
  0
BLOCK_RECORD
  5
17C56
330
7466
100
AcDbSymbolTableRecord
100
AcDbBlockTableRecord
  2
*D25
340
0
  0
BLOCK_RECORD
  5
196ED
330
7466
100
AcDbSymbolTableRecord
100
AcDbBlockTableRecord
  2
*D26
340
0
  0
BLOCK_RECORD
  5
196F9
330
7466
100
AcDbSymbolTableRecord
100
AcDbBlockTableRecord
  2
*D27
340
0
  0
BLOCK_RECORD
  5
19705
330
7466
100
AcDbSymbolTableRecord
100
AcDbBlockTableRecord
  2
*D28
340
0
  0
BLOCK_RECORD
  5
19713
330
7466
100
AcDbSymbolTableRecord
100
AcDbBlockTableRecord
  2
*D29
340
0
  0
BLOCK_RECORD
  5
19E6B
330
7466
100
AcDbSymbolTableRecord
100
AcDbBlockTableRecord
  2
*D30
340
0
  0
BLOCK_RECORD
  5
19E78
330
7466
100
AcDbSymbolTableRecord
100
AcDbBlockTableRecord
  2
*D31
340
0
  0
BLOCK_RECORD
  5
19E85
330
7466
100
AcDbSymbolTableRecord
100
AcDbBlockTableRecord
  2
*D32
340
0
  0
BLOCK_RECORD
  5
19E91
330
7466
100
AcDbSymbolTableRecord
100
AcDbBlockTableRecord
  2
*D33
340
0
  0
BLOCK_RECORD
  5
19E9F
330
7466
100
AcDbSymbolTableRecord
100
AcDbBlockTableRecord
  2
*D34
340
0
  0
BLOCK_RECORD
  5
19EAB
330
7466
100
AcDbSymbolTableRecord
100
AcDbBlockTableRecord
  2
*D35
340
0
  0
BLOCK_RECORD
  5
19EB9
330
7466
100
AcDbSymbolTableRecord
100
AcDbBlockTableRecord
  2
*D36
340
0
  0
BLOCK_RECORD
  5
19EC5
330
7466
100
AcDbSymbolTableRecord
100
AcDbBlockTableRecord
  2
*D37
340
0
  0
BLOCK_RECORD
  5
19ED1
330
7466
100
AcDbSymbolTableRecord
100
AcDbBlockTableRecord
  2
*D38
340
0
  0
BLOCK_RECORD
  5
1A62B
330
7466
100
AcDbSymbolTableRecord
100
AcDbBlockTableRecord
  2
*D39
340
0
  0
BLOCK_RECORD
  5
1A637
330
7466
100
AcDbSymbolTableRecord
100
AcDbBlockTableRecord
  2
*D40
340
0
  0
BLOCK_RECORD
  5
1A645
330
7466
100
AcDbSymbolTableRecord
100
AcDbBlockTableRecord
  2
*D41
340
0
  0
BLOCK_RECORD
  5
1BA1E
330
7466
100
AcDbSymbolTableRecord
100
AcDbBlockTableRecord
  2
A$C559B7BF4
340
0
  0
ENDTAB
  0
ENDSEC
  0
SECTION
  2
BLOCKS
  0
BLOCK
  5
7489
330
747D
100
AcDbEntity
  8
0
100
AcDbBlockBegin
  2
*MODEL_SPACE
 70
     0
 10
0.0
 20
0.0
 30
0.0
  3
*MODEL_SPACE
  1

  0
ENDBLK
  5
748A
330
747D
100
AcDbEntity
  8
0
100
AcDbBlockEnd
  0
BLOCK
  5
7487
330
747A
100
AcDbEntity
 67
     1
  8
0
100
AcDbBlockBegin
  2
*PAPER_SPACE
 70
     0
 10
0.0
 20
0.0
 30
0.0
  3
*PAPER_SPACE
  1

  0
ENDBLK
  5
7488
330
747A
100
AcDbEntity
 67
     1
  8
0
100
AcDbBlockEnd
  0
BLOCK
  5
F771
330
F770
100
AcDbEntity
  8
0
 48
50.0
100
AcDbBlockBegin
  2
_DOTSMALL
 70
     0
 10
0.0
 20
0.0
 30
0.0
  3
_DOTSMALL
  1

  0
LWPOLYLINE
  5
F772
330
F770
100
AcDbEntity
  8
0
  6
ByBlock
 62
     0
 48
50.0
100
AcDbPolyline
 90
        2
 70
     1
 43
0.5
 10
-0.0625
 20
0.0
 42
1.0
 10
0.0625
 20
0.0
 42
1.0
  0
ENDBLK
  5
F776
330
F770
100
AcDbEntity
  8
0
 48
50.0
100
AcDbBlockEnd
  0
BLOCK
  5
164EB
330
16338
100
AcDbEntity
  8
0
 48
50.0
100
AcDbBlockBegin
  2
*D1
 70
     1
 10
0.0
 20
0.0
 30
0.0
  3
*D1
  1

  0
LINE
  5
1BD23
330
16338
100
AcDbEntity
  8
寸法
 62
     0
 48
50.0
370
    -2
100
AcDbLine
 10
9339.673057123665
 20
10282.57393184605
 30
0.0
 11
10027.09940285807
 21
10282.57393184605
 31
0.0
  0
LINE
  5
1BD24
330
16338
100
AcDbEntity
  8
寸法
 62
     0
 48
50.0
370
    -2
100
AcDbLine
 10
9339.67305712364
 20
6922.57393184604
 30
0.0
 11
10027.09940285807
 21
6922.57393184604
 31
0.0
  0
LINE
  5
1BD25
330
16338
100
AcDbEntity
  8
寸法
 62
     0
 48
50.0
370
    -2
100
AcDbLine
 10
9967.099402858071
 20
10282.57393184605
 30
0.0
 11
9967.099402858071
 21
6922.57393184604
 31
0.0
  0
INSERT
  5
1BD26
330
16338
100
AcDbEntity
  8
寸法
 62
     0
 48
50.0
370
    -2
100
AcDbBlockReference
  2
_DOTSMALL
 10
9967.099402858071
 20
10282.57393184605
 30
0.0
 41
100.0
 42
100.0
 43
100.0
 50
90.0
  0
INSERT
  5
1BD27
330
16338
100
AcDbEntity
  8
寸法
 62
     0
 48
50.0
370
    -2
100
AcDbBlockReference
  2
_DOTSMALL
 10
9967.099402858071
 20
6922.57393184604
 30
0.0
 41
100.0
 42
100.0
 43
100.0
 50
270.0
  0
MTEXT
  5
1BD28
330
16338
100
AcDbEntity
  8
寸法
 62
     7
 48
50.0
100
AcDbMText
 10
9867.087591834447
 20
8602.573931846048
 30
0.0
 40
120.0
 41
0.0
 71
     5
 72
     1
  1
\A1;8X420=3360
  7
STYLE1
 11
0.0000000000000001
 21
1.0
 31
0.0
 73
     1
 44
1.0
1001
ACAD
1000
MTEXTBEGIN
1070
    73
1070
     1
1070
    44
1040
1.0
1070
    74
1070
     0
1000
MTEXTEND
  0
POINT
  5
1BD29
330
16338
100
AcDbEntity
  8
DEFPOINTS
 62
     0
 48
50.0
100
AcDbPoint
 10
9319.673057123663
 20
10282.57393184605
 30
0.0
  0
POINT
  5
1BD2A
330
16338
100
AcDbEntity
  8
DEFPOINTS
 62
     0
 48
50.0
100
AcDbPoint
 10
9319.67305712364
 20
6922.57393184604
 30
0.0
  0
POINT
  5
1BD2B
330
16338
100
AcDbEntity
  8
DEFPOINTS
 62
     0
 48
50.0
100
AcDbPoint
 10
9967.099402858071
 20
6922.57393184604
 30
0.0
  0
ENDBLK
  5
164F5
330
16338
100
AcDbEntity
  8
0
 48
50.0
100
AcDbBlockEnd
  0
BLOCK
  5
16414
330
16344
100
AcDbEntity
  8
0
 48
50.0
100
AcDbBlockBegin
  2
*D2
 70
     1
 10
0.0
 20
0.0
 30
0.0
  3
*D2
  1

  0
LINE
  5
1BD18
330
16344
100
AcDbEntity
  8
寸法
 62
     0
 48
50.0
370
    -2
100
AcDbLine
 10
9339.67305712364
 20
6922.57393184604
 30
0.0
 11
10027.09940285805
 21
6922.57393184604
 31
0.0
  0
LINE
  5
1BD19
330
16344
100
AcDbEntity
  8
寸法
 62
     0
 48
50.0
370
    -2
100
AcDbLine
 10
9339.67305712364
 20
6867.573931846043
 30
0.0
 11
10027.09940285805
 21
6867.573931846043
 31
0.0
  0
LINE
  5
1BD1A
330
16344
100
AcDbEntity
  8
寸法
 62
     0
 48
50.0
370
    -2
100
AcDbLine
 10
9967.09940285805
 20
6922.57393184604
 30
0.0
 11
9967.09940285805
 21
7022.573931846039
 31
0.0
  0
LINE
  5
1BD1B
330
16344
100
AcDbEntity
  8
寸法
 62
     0
 48
50.0
370
    -2
100
AcDbLine
 10
9967.09940285805
 20
6867.573931846043
 30
0.0
 11
9967.09940285805
 21
6381.227183566942
 31
0.0
  0
LINE
  5
1BD1C
330
16344
100
AcDbEntity
  8
寸法
 62
     0
 48
50.0
370
    -2
100
AcDbLine
 10
9967.09940285805
 20
6922.57393184604
 30
0.0
 11
9967.09940285805
 21
6867.573931846043
 31
0.0
  0
INSERT
  5
1BD1D
330
16344
100
AcDbEntity
  8
寸法
 62
     0
 48
50.0
370
    -2
100
AcDbBlockReference
  2
_DOTSMALL
 10
9967.09940285805
 20
6922.57393184604
 30
0.0
 41
100.0
 42
100.0
 43
100.0
 50
270.0
  0
INSERT
  5
1BD1E
330
16344
100
AcDbEntity
  8
寸法
 62
     0
 48
50.0
370
    -2
100
AcDbBlockReference
  2
_DOTSMALL
 10
9967.09940285805
 20
6867.573931846043
 30
0.0
 41
100.0
 42
100.0
 43
100.0
 50
90.0
  0
MTEXT
  5
1BD1F
330
16344
100
AcDbEntity
  8
寸法
 62
     7
 48
50.0
100
AcDbMText
 10
9867.099402858048
 20
6489.712464941182
 30
0.0
 40
120.0
 41
0.0
 71
     5
 72
     1
  1
\A1;55
  7
STYLE1
 11
0.0000000000000001
 21
1.0
 31
0.0
 73
     1
 44
1.0
1001
ACAD
1000
MTEXTBEGIN
1070
    73
1070
     1
1070
    44
1040
1.0
1070
    74
1070
     0
1000
MTEXTEND
  0
POINT
  5
1BD20
330
16344
100
AcDbEntity
  8
DEFPOINTS
 62
     0
 48
50.0
100
AcDbPoint
 10
9319.67305712364
 20
6922.57393184604
 30
0.0
  0
POINT
  5
1BD21
330
16344
100
AcDbEntity
  8
DEFPOINTS
 62
     0
 48
50.0
100
AcDbPoint
 10
9319.67305712364
 20
6867.573931846043
 30
0.0
  0
POINT
  5
1BD22
330
16344
100
AcDbEntity
  8
DEFPOINTS
 62
     0
 48
50.0
100
AcDbPoint
 10
9967.09940285805
 20
6867.573931846043
 30
0.0
  0
ENDBLK
  5
16420
330
16344
100
AcDbEntity
  8
0
 48
50.0
100
AcDbBlockEnd
  0
BLOCK
  5
16421
330
16352
100
AcDbEntity
  8
0
 48
50.0
100
AcDbBlockBegin
  2
*D3
 70
     1
 10
0.0
 20
0.0
 30
0.0
  3
*D3
  1

  0
LINE
  5
1BD0D
330
16352
100
AcDbEntity
  8
寸法
 62
     0
 48
50.0
370
    -2
100
AcDbLine
 10
9339.673057123665
 20
10337.57393184605
 30
0.0
 11
10027.09940285807
 21
10337.57393184605
 31
0.0
  0
LINE
  5
1BD0E
330
16352
100
AcDbEntity
  8
寸法
 62
     0
 48
50.0
370
    -2
100
AcDbLine
 10
9339.673057123665
 20
10282.57393184605
 30
0.0
 11
10027.09940285807
 21
10282.57393184605
 31
0.0
  0
LINE
  5
1BD0F
330
16352
100
AcDbEntity
  8
寸法
 62
     0
 48
50.0
370
    -2
100
AcDbLine
 10
9967.099402858075
 20
10282.57393184605
 30
0.0
 11
9967.099402858075
 21
10182.57393184605
 31
0.0
  0
LINE
  5
1BD10
330
16352
100
AcDbEntity
  8
寸法
 62
     0
 48
50.0
370
    -2
100
AcDbLine
 10
9967.099402858075
 20
10337.57393184605
 30
0.0
 11
9967.099402858075
 21
10754.54449459452
 31
0.0
  0
LINE
  5
1BD11
330
16352
100
AcDbEntity
  8
寸法
 62
     0
 48
50.0
370
    -2
100
AcDbLine
 10
9967.099402858075
 20
10282.57393184605
 30
0.0
 11
9967.099402858075
 21
10337.57393184605
 31
0.0
  0
INSERT
  5
1BD12
330
16352
100
AcDbEntity
  8
寸法
 62
     0
 48
50.0
370
    -2
100
AcDbBlockReference
  2
_DOTSMALL
 10
9967.099402858075
 20
10282.57393184605
 30
0.0
 41
100.0
 42
100.0
 43
100.0
 50
90.0
  0
INSERT
  5
1BD13
330
16352
100
AcDbEntity
  8
寸法
 62
     0
 48
50.0
370
    -2
100
AcDbBlockReference
  2
_DOTSMALL
 10
9967.099402858075
 20
10337.57393184605
 30
0.0
 41
100.0
 42
100.0
 43
100.0
 50
270.0
  0
MTEXT
  5
1BD14
330
16352
100
AcDbEntity
  8
寸法
 62
     7
 48
50.0
100
AcDbMText
 10
9867.099402858073
 20
10646.05921322029
 30
0.0
 40
120.0
 41
0.0
 71
     5
 72
     1
  1
\A1;55
  7
STYLE1
 11
0.0000000000000001
 21
1.0
 31
0.0
 73
     1
 44
1.0
1001
ACAD
1000
MTEXTBEGIN
1070
    73
1070
     1
1070
    44
1040
1.0
1070
    74
1070
     0
1000
MTEXTEND
  0
POINT
  5
1BD15
330
16352
100
AcDbEntity
  8
DEFPOINTS
 62
     0
 48
50.0
100
AcDbPoint
 10
9319.673057123663
 20
10337.57393184605
 30
0.0
  0
POINT
  5
1BD16
330
16352
100
AcDbEntity
  8
DEFPOINTS
 62
     0
 48
50.0
100
AcDbPoint
 10
9319.673057123663
 20
10282.57393184605
 30
0.0
  0
POINT
  5
1BD17
330
16352
100
AcDbEntity
  8
DEFPOINTS
 62
     0
 48
50.0
100
AcDbPoint
 10
9967.099402858075
 20
10282.57393184605
 30
0.0
  0
ENDBLK
  5
1642D
330
16352
100
AcDbEntity
  8
0
 48
50.0
100
AcDbBlockEnd
  0
BLOCK
  5
164CA
330
16360
100
AcDbEntity
  8
0
 48
50.0
100
AcDbBlockBegin
  2
*D4
 70
     1
 10
0.0
 20
0.0
 30
0.0
  3
*D4
  1

  0
LINE
  5
1BD04
330
16360
100
AcDbEntity
  8
寸法
 62
     0
 48
50.0
370
    -2
100
AcDbLine
 10
9339.673057123665
 20
10337.57393184605
 30
0.0
 11
10392.20634459771
 21
10337.57393184605
 31
0.0
  0
LINE
  5
1BD05
330
16360
100
AcDbEntity
  8
寸法
 62
     0
 48
50.0
370
    -2
100
AcDbLine
 10
9339.67305712364
 20
6867.573931846043
 30
0.0
 11
10392.20634459771
 21
6867.573931846042
 31
0.0
  0
LINE
  5
1BD06
330
16360
100
AcDbEntity
  8
寸法
 62
     0
 48
50.0
370
    -2
100
AcDbLine
 10
10332.20634459771
 20
10337.57393184605
 30
0.0
 11
10332.20634459771
 21
6867.573931846042
 31
0.0
  0
INSERT
  5
1BD07
330
16360
100
AcDbEntity
  8
寸法
 62
     0
 48
50.0
370
    -2
100
AcDbBlockReference
  2
_DOTSMALL
 10
10332.20634459771
 20
10337.57393184605
 30
0.0
 41
100.0
 42
100.0
 43
100.0
 50
90.0
  0
INSERT
  5
1BD08
330
16360
100
AcDbEntity
  8
寸法
 62
     0
 48
50.0
370
    -2
100
AcDbBlockReference
  2
_DOTSMALL
 10
10332.20634459771
 20
6867.573931846042
 30
0.0
 41
100.0
 42
100.0
 43
100.0
 50
270.0
  0
MTEXT
  5
1BD09
330
16360
100
AcDbEntity
  8
寸法
 62
     7
 48
50.0
100
AcDbMText
 10
10232.2063445977
 20
8602.573931846048
 30
0.0
 40
120.0
 41
0.0
 71
     5
 72
     1
  1
\A1;3470
  7
STYLE1
 11
0.0000000000000001
 21
1.0
 31
0.0
 73
     1
 44
1.0
1001
ACAD
1000
MTEXTBEGIN
1070
    73
1070
     1
1070
    44
1040
1.0
1070
    74
1070
     0
1000
MTEXTEND
  0
POINT
  5
1BD0A
330
16360
100
AcDbEntity
  8
DEFPOINTS
 62
     0
 48
50.0
100
AcDbPoint
 10
9319.673057123663
 20
10337.57393184605
 30
0.0
  0
POINT
  5
1BD0B
330
16360
100
AcDbEntity
  8
DEFPOINTS
 62
     0
 48
50.0
100
AcDbPoint
 10
9319.67305712364
 20
6867.573931846043
 30
0.0
  0
POINT
  5
1BD0C
330
16360
100
AcDbEntity
  8
DEFPOINTS
 62
     0
 48
50.0
100
AcDbPoint
 10
10332.20634459771
 20
6867.573931846042
 30
0.0
  0
ENDBLK
  5
164D4
330
16360
100
AcDbEntity
  8
0
 48
50.0
100
AcDbBlockEnd
  0
BLOCK
  5
1728C
330
16384
100
AcDbEntity
  8
0
 48
50.0
100
AcDbBlockBegin
  2
*D5
 70
     1
 10
0.0
 20
0.0
 30
0.0
  3
*D5
  1

  0
LINE
  5
1BCFC
330
16384
100
AcDbEntity
  8
寸法
 62
     0
 48
50.0
370
    -2
100
AcDbLine
 10
6792.673057123654
 20
6873.573931845951
 30
0.0
 11
6792.673057123654
 21
6273.143161079786
 31
0.0
  0
LINE
  5
1BCFD
330
16384
100
AcDbEntity
  8
寸法
 62
     0
 48
50.0
370
    -2
100
AcDbLine
 10
9216.673057123639
 20
6333.143161079786
 30
0.0
 11
6792.673057123654
 21
6333.143161079786
 31
0.0
  0
INSERT
  5
1BCFE
330
16384
100
AcDbEntity
  8
寸法
 62
     0
 48
50.0
370
    -2
100
AcDbBlockReference
  2
_DOTSMALL
 10
9216.673057123639
 20
6333.143161079786
 30
0.0
 41
100.0
 42
100.0
 43
100.0
  0
INSERT
  5
1BCFF
330
16384
100
AcDbEntity
  8
寸法
 62
     0
 48
50.0
370
    -2
100
AcDbBlockReference
  2
_DOTSMALL
 10
6792.673057123654
 20
6333.143161079786
 30
0.0
 41
100.0
 42
100.0
 43
100.0
 50
180.0
  0
MTEXT
  5
1BD00
330
16384
100
AcDbEntity
  8
寸法
 62
     7
 48
50.0
100
AcDbMText
 10
8004.673057123646
 20
6433.154972103408
 30
0.0
 40
120.0
 41
0.0
 71
     5
 72
     1
  1
\A1;有効開口部間口 2424
  7
STYLE1
 73
     1
 44
1.0
1001
ACAD
1000
MTEXTBEGIN
1070
    73
1070
     1
1070
    44
1040
1.0
1070
    74
1070
     0
1000
MTEXTEND
  0
POINT
  5
1BD01
330
16384
100
AcDbEntity
  8
DEFPOINTS
 62
     0
 48
50.0
100
AcDbPoint
 10
9216.673057123639
 20
6893.573931845955
 30
0.0
  0
POINT
  5
1BD02
330
16384
100
AcDbEntity
  8
DEFPOINTS
 62
     0
 48
50.0
100
AcDbPoint
 10
6792.673057123654
 20
6893.573931845951
 30
0.0
  0
POINT
  5
1BD03
330
16384
100
AcDbEntity
  8
DEFPOINTS
 62
     0
 48
50.0
100
AcDbPoint
 10
6792.673057123654
 20
6333.143161079786
 30
0.0
  0
ENDBLK
  5
17295
330
16384
100
AcDbEntity
  8
0
 48
50.0
100
AcDbBlockEnd
  0
BLOCK
  5
17261
330
1638F
100
AcDbEntity
  8
0
 48
50.0
100
AcDbBlockBegin
  2
*D6
 70
     1
 10
0.0
 20
0.0
 30
0.0
  3
*D6
  1

  0
LINE
  5
1BF2F
330
1638F
100
AcDbEntity
  8
寸法
 62
     0
 48
50.0
370
    -2
100
AcDbLine
 10
1429.673057123657
 20
6847.573931845952
 30
0.0
 11
1429.673057123657
 21
5826.970165488916
 31
0.0
  0
LINE
  5
1BF30
330
1638F
100
AcDbEntity
  8
寸法
 62
     0
 48
50.0
370
    -2
100
AcDbLine
 10
9319.673057123628
 20
6847.573931846042
 30
0.0
 11
9319.673057123628
 21
5826.970165488916
 31
0.0
  0
LINE
  5
1BF31
330
1638F
100
AcDbEntity
  8
寸法
 62
     0
 48
50.0
370
    -2
100
AcDbLine
 10
1429.673057123657
 20
5886.970165488914
 30
0.0
 11
9319.673057123628
 21
5886.970165488914
 31
0.0
  0
INSERT
  5
1BF32
330
1638F
100
AcDbEntity
  8
寸法
 62
     0
 48
50.0
370
    -2
100
AcDbBlockReference
  2
_DOTSMALL
 10
1429.673057123657
 20
5886.970165488914
 30
0.0
 41
100.0
 42
100.0
 43
100.0
 50
180.0
  0
INSERT
  5
1BF33
330
1638F
100
AcDbEntity
  8
寸法
 62
     0
 48
50.0
370
    -2
100
AcDbBlockReference
  2
_DOTSMALL
 10
9319.673057123628
 20
5886.970165488914
 30
0.0
 41
100.0
 42
100.0
 43
100.0
  0
MTEXT
  5
1BF34
330
1638F
100
AcDbEntity
  8
寸法
 62
     7
 48
50.0
100
AcDbMText
 10
5374.673057123642
 20
5986.981976512537
 30
0.0
 40
120.0
 41
0.0
 71
     5
 72
     1
  1
\A1;N X 2630
  7
STYLE1
 73
     1
 44
1.0
1001
ACAD
1000
MTEXTBEGIN
1070
    73
1070
     1
1070
    44
1040
1.0
1070
    74
1070
     0
1000
MTEXTEND
  0
POINT
  5
1BF35
330
1638F
100
AcDbEntity
  8
DEFPOINTS
 62
     0
 48
50.0
100
AcDbPoint
 10
1429.673057123657
 20
6867.57393184595
 30
0.0
  0
POINT
  5
1BF36
330
1638F
100
AcDbEntity
  8
DEFPOINTS
 62
     0
 48
50.0
100
AcDbPoint
 10
9319.673057123628
 20
6867.573931846043
 30
0.0
  0
POINT
  5
1BF37
330
1638F
100
AcDbEntity
  8
DEFPOINTS
 62
     0
 48
50.0
100
AcDbPoint
 10
9319.673057123628
 20
5886.970165488914
 30
0.0
  0
ENDBLK
  5
1726B
330
1638F
100
AcDbEntity
  8
0
 48
50.0
100
AcDbBlockEnd
  0
BLOCK
  5
16464
330
1639B
100
AcDbEntity
  8
0
 48
50.0
100
AcDbBlockBegin
  2
*D7
 70
     1
 10
0.0
 20
0.0
 30
0.0
  3
*D7
  1

  0
LINE
  5
1BDE7
330
1639B
100
AcDbEntity
  8
寸法
 62
     0
 48
50.0
370
    -2
100
AcDbLine
 10
1484.673057123653
 20
6847.573931845952
 30
0.0
 11
1484.673057123653
 21
6273.143161079786
 31
0.0
  0
LINE
  5
1BDE8
330
1639B
100
AcDbEntity
  8
寸法
 62
     0
 48
50.0
370
    -2
100
AcDbLine
 10
1429.673057123657
 20
6847.573931845952
 30
0.0
 11
1429.673057123657
 21
6273.143161079786
 31
0.0
  0
LINE
  5
1BDE9
330
1639B
100
AcDbEntity
  8
寸法
 62
     0
 48
50.0
370
    -2
100
AcDbLine
 10
1484.673057123653
 20
6333.143161079786
 30
0.0
 11
1584.673057123653
 21
6333.143161079786
 31
0.0
  0
LINE
  5
1BDEA
330
1639B
100
AcDbEntity
  8
寸法
 62
     0
 48
50.0
370
    -2
100
AcDbLine
 10
1429.673057123657
 20
6333.143161079786
 30
0.0
 11
1012.702494375179
 21
6333.143161079786
 31
0.0
  0
LINE
  5
1BDEB
330
1639B
100
AcDbEntity
  8
寸法
 62
     0
 48
50.0
370
    -2
100
AcDbLine
 10
1484.673057123653
 20
6333.143161079786
 30
0.0
 11
1429.673057123657
 21
6333.143161079786
 31
0.0
  0
INSERT
  5
1BDEC
330
1639B
100
AcDbEntity
  8
寸法
 62
     0
 48
50.0
370
    -2
100
AcDbBlockReference
  2
_DOTSMALL
 10
1484.673057123653
 20
6333.143161079786
 30
0.0
 41
100.0
 42
100.0
 43
100.0
 50
180.0
  0
INSERT
  5
1BDED
330
1639B
100
AcDbEntity
  8
寸法
 62
     0
 48
50.0
370
    -2
100
AcDbBlockReference
  2
_DOTSMALL
 10
1429.673057123657
 20
6333.143161079786
 30
0.0
 41
100.0
 42
100.0
 43
100.0
  0
MTEXT
  5
1BDEE
330
1639B
100
AcDbEntity
  8
寸法
 62
     7
 48
50.0
100
AcDbMText
 10
1121.187775749418
 20
6433.143161079787
 30
0.0
 40
120.0
 41
0.0
 71
     5
 72
     1
  1
\A1;55
  7
STYLE1
 73
     1
 44
1.0
1001
ACAD
1000
MTEXTBEGIN
1070
    73
1070
     1
1070
    44
1040
1.0
1070
    74
1070
     0
1000
MTEXTEND
  0
POINT
  5
1BDEF
330
1639B
100
AcDbEntity
  8
DEFPOINTS
 62
     0
 48
50.0
100
AcDbPoint
 10
1484.673057123653
 20
6867.573931845952
 30
0.0
  0
POINT
  5
1BDF0
330
1639B
100
AcDbEntity
  8
DEFPOINTS
 62
     0
 48
50.0
100
AcDbPoint
 10
1429.673057123657
 20
6867.57393184595
 30
0.0
  0
POINT
  5
1BDF1
330
1639B
100
AcDbEntity
  8
DEFPOINTS
 62
     0
 48
50.0
100
AcDbPoint
 10
1429.673057123657
 20
6333.143161079786
 30
0.0
  0
ENDBLK
  5
16470
330
1639B
100
AcDbEntity
  8
0
 48
50.0
100
AcDbBlockEnd
  0
BLOCK
  5
16471
330
163A9
100
AcDbEntity
  8
0
 48
50.0
100
AcDbBlockBegin
  2
*D8
 70
     1
 10
0.0
 20
0.0
 30
0.0
  3
*D8
  1

  0
LINE
  5
1BCE8
330
163A9
100
AcDbEntity
  8
寸法
 62
     0
 48
50.0
370
    -2
100
AcDbLine
 10
6792.673057123654
 20
6873.573931845951
 30
0.0
 11
6792.673057123654
 21
6273.143161079786
 31
0.0
  0
LINE
  5
1BCE9
330
163A9
100
AcDbEntity
  8
寸法
 62
     0
 48
50.0
370
    -2
100
AcDbLine
 10
6744.673057123654
 20
6847.573931845952
 30
0.0
 11
6744.673057123654
 21
6273.143161079786
 31
0.0
  0
LINE
  5
1BCEA
330
163A9
100
AcDbEntity
  8
寸法
 62
     0
 48
50.0
370
    -2
100
AcDbLine
 10
6792.673057123654
 20
6333.143161079786
 30
0.0
 11
6892.673057123655
 21
6333.143161079786
 31
0.0
  0
LINE
  5
1BCEB
330
163A9
100
AcDbEntity
  8
寸法
 62
     0
 48
50.0
370
    -2
100
AcDbLine
 10
6744.673057123654
 20
6333.143161079786
 30
0.0
 11
6644.673057123654
 21
6333.143161079786
 31
0.0
  0
MTEXT
  5
1BCEC
330
163A9
100
AcDbEntity
  8
寸法
 62
     7
 48
50.0
100
AcDbMText
 10
6905.575028123713
 20
6433.143161079788
 30
0.0
 40
120.0
 41
0.0
 71
     5
 72
     1
  1
\A1;48
  7
STYLE1
 73
     1
 44
1.0
1001
ACAD
1000
MTEXTBEGIN
1070
    73
1070
     1
1070
    44
1040
1.0
1070
    74
1070
     0
1000
MTEXTEND
  0
LINE
  5
1BCED
330
163A9
100
AcDbEntity
  8
寸法
 62
     0
 48
50.0
370
    -2
100
AcDbLine
 10
6792.673057123654
 20
6333.143161079786
 30
0.0
 11
6744.673057123654
 21
6333.143161079786
 31
0.0
  0
INSERT
  5
1BCEE
330
163A9
100
AcDbEntity
  8
寸法
 62
     0
 48
50.0
370
    -2
100
AcDbBlockReference
  2
_DOTSMALL
 10
6792.673057123654
 20
6333.143161079786
 30
0.0
 41
100.0
 42
100.0
 43
100.0
 50
180.0
  0
INSERT
  5
1BCEF
330
163A9
100
AcDbEntity
  8
寸法
 62
     0
 48
50.0
370
    -2
100
AcDbBlockReference
  2
_DOTSMALL
 10
6744.673057123654
 20
6333.143161079786
 30
0.0
 41
100.0
 42
100.0
 43
100.0
  0
POINT
  5
1BCF0
330
163A9
100
AcDbEntity
  8
DEFPOINTS
 62
     0
 48
50.0
100
AcDbPoint
 10
6792.673057123654
 20
6893.573931845951
 30
0.0
  0
POINT
  5
1BCF1
330
163A9
100
AcDbEntity
  8
DEFPOINTS
 62
     0
 48
50.0
100
AcDbPoint
 10
6744.673057123654
 20
6867.573931845952
 30
0.0
  0
POINT
  5
1BCF2
330
163A9
100
AcDbEntity
  8
DEFPOINTS
 62
     0
 48
50.0
100
AcDbPoint
 10
6744.673057123654
 20
6333.143161079786
 30
0.0
  0
ENDBLK
  5
1647E
330
163A9
100
AcDbEntity
  8
0
 48
50.0
100
AcDbBlockEnd
  0
BLOCK
  5
1647F
330
163B8
100
AcDbEntity
  8
0
 48
50.0
100
AcDbBlockBegin
  2
*D9
 70
     1
 10
0.0
 20
0.0
 30
0.0
  3
*D9
  1

  0
LINE
  5
1BCDD
330
163B8
100
AcDbEntity
  8
寸法
 62
     0
 48
50.0
370
    -2
100
AcDbLine
 10
9264.673057123641
 20
6847.57393184604
 30
0.0
 11
9264.673057123641
 21
6273.143161079786
 31
0.0
  0
LINE
  5
1BCDE
330
163B8
100
AcDbEntity
  8
寸法
 62
     0
 48
50.0
370
    -2
100
AcDbLine
 10
9216.673057123639
 20
6873.573931845955
 30
0.0
 11
9216.673057123639
 21
6273.143161079786
 31
0.0
  0
LINE
  5
1BCDF
330
163B8
100
AcDbEntity
  8
寸法
 62
     0
 48
50.0
370
    -2
100
AcDbLine
 10
9264.673057123641
 20
6333.143161079786
 30
0.0
 11
9364.67305712364
 21
6333.143161079786
 31
0.0
  0
LINE
  5
1BCE0
330
163B8
100
AcDbEntity
  8
寸法
 62
     0
 48
50.0
370
    -2
100
AcDbLine
 10
9216.673057123639
 20
6333.143161079786
 30
0.0
 11
9116.673057123639
 21
6333.143161079786
 31
0.0
  0
MTEXT
  5
1BCE1
330
163B8
100
AcDbEntity
  8
寸法
 62
     7
 48
50.0
100
AcDbMText
 10
9105.710159474892
 20
6433.143161079788
 30
0.0
 40
120.0
 41
0.0
 71
     5
 72
     1
  1
\A1;48
  7
STYLE1
 73
     1
 44
1.0
1001
ACAD
1000
MTEXTBEGIN
1070
    73
1070
     1
1070
    44
1040
1.0
1070
    74
1070
     0
1000
MTEXTEND
  0
LINE
  5
1BCE2
330
163B8
100
AcDbEntity
  8
寸法
 62
     0
 48
50.0
370
    -2
100
AcDbLine
 10
9264.673057123641
 20
6333.143161079786
 30
0.0
 11
9216.673057123639
 21
6333.143161079786
 31
0.0
  0
INSERT
  5
1BCE3
330
163B8
100
AcDbEntity
  8
寸法
 62
     0
 48
50.0
370
    -2
100
AcDbBlockReference
  2
_DOTSMALL
 10
9264.673057123641
 20
6333.143161079786
 30
0.0
 41
100.0
 42
100.0
 43
100.0
 50
180.0
  0
INSERT
  5
1BCE4
330
163B8
100
AcDbEntity
  8
寸法
 62
     0
 48
50.0
370
    -2
100
AcDbBlockReference
  2
_DOTSMALL
 10
9216.673057123639
 20
6333.143161079786
 30
0.0
 41
100.0
 42
100.0
 43
100.0
  0
POINT
  5
1BCE5
330
163B8
100
AcDbEntity
  8
DEFPOINTS
 62
     0
 48
50.0
100
AcDbPoint
 10
9264.673057123641
 20
6867.57393184604
 30
0.0
  0
POINT
  5
1BCE6
330
163B8
100
AcDbEntity
  8
DEFPOINTS
 62
     0
 48
50.0
100
AcDbPoint
 10
9216.673057123639
 20
6893.573931845955
 30
0.0
  0
POINT
  5
1BCE7
330
163B8
100
AcDbEntity
  8
DEFPOINTS
 62
     0
 48
50.0
100
AcDbPoint
 10
9216.673057123639
 20
6333.143161079786
 30
0.0
  0
ENDBLK
  5
1648C
330
163B8
100
AcDbEntity
  8
0
 48
50.0
100
AcDbBlockEnd
  0
BLOCK
  5
1648D
330
163C7
100
AcDbEntity
  8
0
 48
50.0
100
AcDbBlockBegin
  2
*D10
 70
     1
 10
0.0
 20
0.0
 30
0.0
  3
*D10
  1

  0
LINE
  5
1BCD2
330
163C7
100
AcDbEntity
  8
寸法
 62
     0
 48
50.0
370
    -2
100
AcDbLine
 10
9319.67305712364
 20
6847.573931846042
 30
0.0
 11
9319.67305712364
 21
6273.143161079789
 31
0.0
  0
LINE
  5
1BCD3
330
163C7
100
AcDbEntity
  8
寸法
 62
     0
 48
50.0
370
    -2
100
AcDbLine
 10
9264.673057123641
 20
6847.57393184604
 30
0.0
 11
9264.673057123641
 21
6273.143161079789
 31
0.0
  0
LINE
  5
1BCD4
330
163C7
100
AcDbEntity
  8
寸法
 62
     0
 48
50.0
370
    -2
100
AcDbLine
 10
9264.673057123641
 20
6333.143161079789
 30
0.0
 11
9164.673057123641
 21
6333.143161079789
 31
0.0
  0
LINE
  5
1BCD5
330
163C7
100
AcDbEntity
  8
寸法
 62
     0
 48
50.0
370
    -2
100
AcDbLine
 10
9319.67305712364
 20
6333.143161079789
 30
0.0
 11
9736.643619872118
 21
6333.143161079789
 31
0.0
  0
LINE
  5
1BCD6
330
163C7
100
AcDbEntity
  8
寸法
 62
     0
 48
50.0
370
    -2
100
AcDbLine
 10
9264.673057123641
 20
6333.143161079789
 30
0.0
 11
9319.67305712364
 21
6333.143161079789
 31
0.0
  0
INSERT
  5
1BCD7
330
163C7
100
AcDbEntity
  8
寸法
 62
     0
 48
50.0
370
    -2
100
AcDbBlockReference
  2
_DOTSMALL
 10
9264.673057123641
 20
6333.143161079789
 30
0.0
 41
100.0
 42
100.0
 43
100.0
  0
INSERT
  5
1BCD8
330
163C7
100
AcDbEntity
  8
寸法
 62
     0
 48
50.0
370
    -2
100
AcDbBlockReference
  2
_DOTSMALL
 10
9319.67305712364
 20
6333.143161079789
 30
0.0
 41
100.0
 42
100.0
 43
100.0
 50
180.0
  0
MTEXT
  5
1BCD9
330
163C7
100
AcDbEntity
  8
寸法
 62
     7
 48
50.0
100
AcDbMText
 10
9628.158338497879
 20
6433.143161079789
 30
0.0
 40
120.0
 41
0.0
 71
     5
 72
     1
  1
\A1;55
  7
STYLE1
 73
     1
 44
1.0
1001
ACAD
1000
MTEXTBEGIN
1070
    73
1070
     1
1070
    44
1040
1.0
1070
    74
1070
     0
1000
MTEXTEND
  0
POINT
  5
1BCDA
330
163C7
100
AcDbEntity
  8
DEFPOINTS
 62
     0
 48
50.0
100
AcDbPoint
 10
9319.67305712364
 20
6867.573931846043
 30
0.0
  0
POINT
  5
1BCDB
330
163C7
100
AcDbEntity
  8
DEFPOINTS
 62
     0
 48
50.0
100
AcDbPoint
 10
9264.673057123641
 20
6867.57393184604
 30
0.0
  0
POINT
  5
1BCDC
330
163C7
100
AcDbEntity
  8
DEFPOINTS
 62
     0
 48
50.0
100
AcDbPoint
 10
9264.673057123641
 20
6333.143161079789
 30
0.0
  0
ENDBLK
  5
16499
330
163C7
100
AcDbEntity
  8
0
 48
50.0
100
AcDbBlockEnd
  0
BLOCK
  5
172A1
330
163E1
100
AcDbEntity
  8
0
 48
50.0
100
AcDbBlockBegin
  2
*D11
 70
     1
 10
0.0
 20
0.0
 30
0.0
  3
*D11
  1

  0
LINE
  5
1BEF0
330
163E1
100
AcDbEntity
  8
寸法
 62
     0
 48
50.0
370
    -2
100
AcDbLine
 10
6744.673057123662
 20
10357.57393184595
 30
0.0
 11
6744.673057123662
 21
10613.38215147105
 31
0.0
  0
LINE
  5
1BEF1
330
163E1
100
AcDbEntity
  8
寸法
 62
     0
 48
50.0
370
    -2
100
AcDbLine
 10
9264.673057123664
 20
10357.57393184605
 30
0.0
 11
9264.673057123664
 21
10613.38215147105
 31
0.0
  0
LINE
  5
1BEF2
330
163E1
100
AcDbEntity
  8
寸法
 62
     0
 48
50.0
370
    -2
100
AcDbLine
 10
6744.673057123662
 20
10553.38215147105
 30
0.0
 11
9264.673057123664
 21
10553.38215147105
 31
0.0
  0
INSERT
  5
1BEF3
330
163E1
100
AcDbEntity
  8
寸法
 62
     0
 48
50.0
370
    -2
100
AcDbBlockReference
  2
_DOTSMALL
 10
6744.673057123662
 20
10553.38215147105
 30
0.0
 41
100.0
 42
100.0
 43
100.0
 50
180.0
  0
INSERT
  5
1BEF4
330
163E1
100
AcDbEntity
  8
寸法
 62
     0
 48
50.0
370
    -2
100
AcDbBlockReference
  2
_DOTSMALL
 10
9264.673057123664
 20
10553.38215147105
 30
0.0
 41
100.0
 42
100.0
 43
100.0
  0
MTEXT
  5
1BEF5
330
163E1
100
AcDbEntity
  8
寸法
 62
     7
 48
50.0
100
AcDbMText
 10
8004.673057123664
 20
10653.39396249467
 30
0.0
 40
120.0
 41
0.0
 71
     5
 72
     1
  1
\A1;6X420=2520
  7
STYLE1
 73
     1
 44
1.0
1001
ACAD
1000
MTEXTBEGIN
1070
    73
1070
     1
1070
    44
1040
1.0
1070
    74
1070
     0
1000
MTEXTEND
  0
POINT
  5
1BEF6
330
163E1
100
AcDbEntity
  8
DEFPOINTS
 62
     0
 48
50.0
100
AcDbPoint
 10
6744.673057123662
 20
10337.57393184595
 30
0.0
  0
POINT
  5
1BEF7
330
163E1
100
AcDbEntity
  8
DEFPOINTS
 62
     0
 48
50.0
100
AcDbPoint
 10
9264.673057123664
 20
10337.57393184605
 30
0.0
  0
POINT
  5
1BEF8
330
163E1
100
AcDbEntity
  8
DEFPOINTS
 62
     0
 48
50.0
100
AcDbPoint
 10
9264.673057123664
 20
10553.38215147105
 30
0.0
  0
ENDBLK
  5
172AB
330
163E1
100
AcDbEntity
  8
0
 48
50.0
100
AcDbBlockEnd
  0
BLOCK
  5
164B0
330
163ED
100
AcDbEntity
  8
0
 48
50.0
100
AcDbBlockBegin
  2
*D12
 70
     1
 10
0.0
 20
0.0
 30
0.0
  3
*D12
  1

  0
LINE
  5
1BDDC
330
163ED
100
AcDbEntity
  8
寸法
 62
     0
 48
50.0
370
    -2
100
AcDbLine
 10
1429.673057123629
 20
10357.57393184595
 30
0.0
 11
1429.673057123629
 21
10613.38215147094
 31
0.0
  0
LINE
  5
1BDDD
330
163ED
100
AcDbEntity
  8
寸法
 62
     0
 48
50.0
370
    -2
100
AcDbLine
 10
1484.673057123663
 20
10357.57393184595
 30
0.0
 11
1484.673057123663
 21
10613.38215147094
 31
0.0
  0
LINE
  5
1BDDE
330
163ED
100
AcDbEntity
  8
寸法
 62
     0
 48
50.0
370
    -2
100
AcDbLine
 10
1484.673057123663
 20
10553.38215147094
 30
0.0
 11
1584.673057123663
 21
10553.38215147094
 31
0.0
  0
LINE
  5
1BDDF
330
163ED
100
AcDbEntity
  8
寸法
 62
     0
 48
50.0
370
    -2
100
AcDbLine
 10
1429.673057123629
 20
10553.38215147094
 30
0.0
 11
1012.702494375151
 21
10553.38215147094
 31
0.0
  0
LINE
  5
1BDE0
330
163ED
100
AcDbEntity
  8
寸法
 62
     0
 48
50.0
370
    -2
100
AcDbLine
 10
1484.673057123663
 20
10553.38215147094
 30
0.0
 11
1429.673057123629
 21
10553.38215147094
 31
0.0
  0
INSERT
  5
1BDE1
330
163ED
100
AcDbEntity
  8
寸法
 62
     0
 48
50.0
370
    -2
100
AcDbBlockReference
  2
_DOTSMALL
 10
1484.673057123663
 20
10553.38215147094
 30
0.0
 41
100.0
 42
100.0
 43
100.0
 50
180.0
  0
INSERT
  5
1BDE2
330
163ED
100
AcDbEntity
  8
寸法
 62
     0
 48
50.0
370
    -2
100
AcDbBlockReference
  2
_DOTSMALL
 10
1429.673057123629
 20
10553.38215147094
 30
0.0
 41
100.0
 42
100.0
 43
100.0
  0
MTEXT
  5
1BDE3
330
163ED
100
AcDbEntity
  8
寸法
 62
     7
 48
50.0
100
AcDbMText
 10
1121.187775749389
 20
10653.38215147094
 30
0.0
 40
120.0
 41
0.0
 71
     5
 72
     1
  1
\A1;55
  7
STYLE1
 73
     1
 44
1.0
1001
ACAD
1000
MTEXTBEGIN
1070
    73
1070
     1
1070
    44
1040
1.0
1070
    74
1070
     0
1000
MTEXTEND
  0
POINT
  5
1BDE4
330
163ED
100
AcDbEntity
  8
DEFPOINTS
 62
     0
 48
50.0
100
AcDbPoint
 10
1429.673057123629
 20
10337.57393184595
 30
0.0
  0
POINT
  5
1BDE5
330
163ED
100
AcDbEntity
  8
DEFPOINTS
 62
     0
 48
50.0
100
AcDbPoint
 10
1484.673057123663
 20
10337.57393184595
 30
0.0
  0
POINT
  5
1BDE6
330
163ED
100
AcDbEntity
  8
DEFPOINTS
 62
     0
 48
50.0
100
AcDbPoint
 10
1484.673057123663
 20
10553.38215147094
 30
0.0
  0
ENDBLK
  5
164BC
330
163ED
100
AcDbEntity
  8
0
 48
50.0
100
AcDbBlockEnd
  0
BLOCK
  5
164BD
330
163FB
100
AcDbEntity
  8
0
 48
50.0
100
AcDbBlockBegin
  2
*D13
 70
     1
 10
0.0
 20
0.0
 30
0.0
  3
*D13
  1

  0
LINE
  5
1BCBE
330
163FB
100
AcDbEntity
  8
寸法
 62
     0
 48
50.0
370
    -2
100
AcDbLine
 10
9264.673057123664
 20
10357.57393184605
 30
0.0
 11
9264.673057123664
 21
10613.38215147103
 31
0.0
  0
LINE
  5
1BCBF
330
163FB
100
AcDbEntity
  8
寸法
 62
     0
 48
50.0
370
    -2
100
AcDbLine
 10
9319.673057123663
 20
10357.57393184605
 30
0.0
 11
9319.673057123663
 21
10613.38215147103
 31
0.0
  0
LINE
  5
1BCC0
330
163FB
100
AcDbEntity
  8
寸法
 62
     0
 48
50.0
370
    -2
100
AcDbLine
 10
9264.673057123664
 20
10553.38215147103
 30
0.0
 11
9164.673057123664
 21
10553.38215147103
 31
0.0
  0
LINE
  5
1BCC1
330
163FB
100
AcDbEntity
  8
寸法
 62
     0
 48
50.0
370
    -2
100
AcDbLine
 10
9319.673057123663
 20
10553.38215147103
 30
0.0
 11
9736.64361987214
 21
10553.38215147103
 31
0.0
  0
LINE
  5
1BCC2
330
163FB
100
AcDbEntity
  8
寸法
 62
     0
 48
50.0
370
    -2
100
AcDbLine
 10
9264.673057123664
 20
10553.38215147103
 30
0.0
 11
9319.673057123663
 21
10553.38215147103
 31
0.0
  0
INSERT
  5
1BCC3
330
163FB
100
AcDbEntity
  8
寸法
 62
     0
 48
50.0
370
    -2
100
AcDbBlockReference
  2
_DOTSMALL
 10
9264.673057123664
 20
10553.38215147103
 30
0.0
 41
100.0
 42
100.0
 43
100.0
  0
INSERT
  5
1BCC4
330
163FB
100
AcDbEntity
  8
寸法
 62
     0
 48
50.0
370
    -2
100
AcDbBlockReference
  2
_DOTSMALL
 10
9319.673057123663
 20
10553.38215147103
 30
0.0
 41
100.0
 42
100.0
 43
100.0
 50
180.0
  0
MTEXT
  5
1BCC5
330
163FB
100
AcDbEntity
  8
寸法
 62
     7
 48
50.0
100
AcDbMText
 10
9628.158338497904
 20
10653.38215147103
 30
0.0
 40
120.0
 41
0.0
 71
     5
 72
     1
  1
\A1;55
  7
STYLE1
 73
     1
 44
1.0
1001
ACAD
1000
MTEXTBEGIN
1070
    73
1070
     1
1070
    44
1040
1.0
1070
    74
1070
     0
1000
MTEXTEND
  0
POINT
  5
1BCC6
330
163FB
100
AcDbEntity
  8
DEFPOINTS
 62
     0
 48
50.0
100
AcDbPoint
 10
9264.673057123664
 20
10337.57393184605
 30
0.0
  0
POINT
  5
1BCC7
330
163FB
100
AcDbEntity
  8
DEFPOINTS
 62
     0
 48
50.0
100
AcDbPoint
 10
9319.673057123663
 20
10337.57393184605
 30
0.0
  0
POINT
  5
1BCC8
330
163FB
100
AcDbEntity
  8
DEFPOINTS
 62
     0
 48
50.0
100
AcDbPoint
 10
9319.673057123663
 20
10553.38215147103
 30
0.0
  0
ENDBLK
  5
164C9
330
163FB
100
AcDbEntity
  8
0
 48
50.0
100
AcDbBlockEnd
  0
BLOCK
  5
165B6
330
165B5
100
AcDbEntity
  8
0
 48
50.0
100
AcDbBlockBegin
  2
*D14
 70
     1
 10
0.0
 20
0.0
 30
0.0
  3
*D14
  1

  0
LINE
  5
1BDD1
330
165B5
100
AcDbEntity
  8
寸法
 62
     0
 48
50.0
370
    -2
100
AcDbLine
 10
1532.673057123657
 20
6873.573931845951
 30
0.0
 11
1532.673057123657
 21
6273.143161079786
 31
0.0
  0
LINE
  5
1BDD2
330
165B5
100
AcDbEntity
  8
寸法
 62
     0
 48
50.0
370
    -2
100
AcDbLine
 10
1484.673057123653
 20
6847.573931845952
 30
0.0
 11
1484.673057123653
 21
6273.143161079786
 31
0.0
  0
LINE
  5
1BDD3
330
165B5
100
AcDbEntity
  8
寸法
 62
     0
 48
50.0
370
    -2
100
AcDbLine
 10
1532.673057123657
 20
6333.143161079786
 30
0.0
 11
1632.673057123657
 21
6333.143161079786
 31
0.0
  0
LINE
  5
1BDD4
330
165B5
100
AcDbEntity
  8
寸法
 62
     0
 48
50.0
370
    -2
100
AcDbLine
 10
1484.673057123653
 20
6333.143161079786
 30
0.0
 11
1384.673057123653
 21
6333.143161079786
 31
0.0
  0
MTEXT
  5
1BDD5
330
165B5
100
AcDbEntity
  8
寸法
 62
     7
 48
50.0
100
AcDbMText
 10
1645.575028123714
 20
6433.143161079788
 30
0.0
 40
120.0
 41
0.0
 71
     5
 72
     1
  1
\A1;48
  7
STYLE1
 73
     1
 44
1.0
1001
ACAD
1000
MTEXTBEGIN
1070
    73
1070
     1
1070
    44
1040
1.0
1070
    74
1070
     0
1000
MTEXTEND
  0
LINE
  5
1BDD6
330
165B5
100
AcDbEntity
  8
寸法
 62
     0
 48
50.0
370
    -2
100
AcDbLine
 10
1532.673057123657
 20
6333.143161079786
 30
0.0
 11
1484.673057123653
 21
6333.143161079786
 31
0.0
  0
INSERT
  5
1BDD7
330
165B5
100
AcDbEntity
  8
寸法
 62
     0
 48
50.0
370
    -2
100
AcDbBlockReference
  2
_DOTSMALL
 10
1532.673057123657
 20
6333.143161079786
 30
0.0
 41
100.0
 42
100.0
 43
100.0
 50
180.0
  0
INSERT
  5
1BDD8
330
165B5
100
AcDbEntity
  8
寸法
 62
     0
 48
50.0
370
    -2
100
AcDbBlockReference
  2
_DOTSMALL
 10
1484.673057123653
 20
6333.143161079786
 30
0.0
 41
100.0
 42
100.0
 43
100.0
  0
POINT
  5
1BDD9
330
165B5
100
AcDbEntity
  8
DEFPOINTS
 62
     0
 48
50.0
100
AcDbPoint
 10
1532.673057123657
 20
6893.573931845951
 30
0.0
  0
POINT
  5
1BDDA
330
165B5
100
AcDbEntity
  8
DEFPOINTS
 62
     0
 48
50.0
100
AcDbPoint
 10
1484.673057123653
 20
6867.573931845952
 30
0.0
  0
POINT
  5
1BDDB
330
165B5
100
AcDbEntity
  8
DEFPOINTS
 62
     0
 48
50.0
100
AcDbPoint
 10
1484.673057123653
 20
6333.143161079786
 30
0.0
  0
ENDBLK
  5
165C3
330
165B5
100
AcDbEntity
  8
0
 48
50.0
100
AcDbBlockEnd
  0
BLOCK
  5
165C5
330
165C4
100
AcDbEntity
  8
0
 48
50.0
100
AcDbBlockBegin
  2
*D15
 70
     1
 10
0.0
 20
0.0
 30
0.0
  3
*D15
  1

  0
LINE
  5
1BCB3
330
165C4
100
AcDbEntity
  8
寸法
 62
     0
 48
50.0
370
    -2
100
AcDbLine
 10
6634.673057123641
 20
6847.57393184604
 30
0.0
 11
6634.673057123641
 21
6273.143161079786
 31
0.0
  0
LINE
  5
1BCB4
330
165C4
100
AcDbEntity
  8
寸法
 62
     0
 48
50.0
370
    -2
100
AcDbLine
 10
6586.673057123639
 20
6873.573931845955
 30
0.0
 11
6586.673057123639
 21
6273.143161079786
 31
0.0
  0
LINE
  5
1BCB5
330
165C4
100
AcDbEntity
  8
寸法
 62
     0
 48
50.0
370
    -2
100
AcDbLine
 10
6634.673057123641
 20
6333.143161079786
 30
0.0
 11
6734.67305712364
 21
6333.143161079786
 31
0.0
  0
LINE
  5
1BCB6
330
165C4
100
AcDbEntity
  8
寸法
 62
     0
 48
50.0
370
    -2
100
AcDbLine
 10
6586.673057123639
 20
6333.143161079786
 30
0.0
 11
6486.673057123638
 21
6333.143161079786
 31
0.0
  0
MTEXT
  5
1BCB7
330
165C4
100
AcDbEntity
  8
寸法
 62
     7
 48
50.0
100
AcDbMText
 10
6475.710159474892
 20
6433.143161079788
 30
0.0
 40
120.0
 41
0.0
 71
     5
 72
     1
  1
\A1;48
  7
STYLE1
 73
     1
 44
1.0
1001
ACAD
1000
MTEXTBEGIN
1070
    73
1070
     1
1070
    44
1040
1.0
1070
    74
1070
     0
1000
MTEXTEND
  0
LINE
  5
1BCB8
330
165C4
100
AcDbEntity
  8
寸法
 62
     0
 48
50.0
370
    -2
100
AcDbLine
 10
6634.673057123641
 20
6333.143161079786
 30
0.0
 11
6586.673057123639
 21
6333.143161079786
 31
0.0
  0
INSERT
  5
1BCB9
330
165C4
100
AcDbEntity
  8
寸法
 62
     0
 48
50.0
370
    -2
100
AcDbBlockReference
  2
_DOTSMALL
 10
6634.673057123641
 20
6333.143161079786
 30
0.0
 41
100.0
 42
100.0
 43
100.0
 50
180.0
  0
INSERT
  5
1BCBA
330
165C4
100
AcDbEntity
  8
寸法
 62
     0
 48
50.0
370
    -2
100
AcDbBlockReference
  2
_DOTSMALL
 10
6586.673057123639
 20
6333.143161079786
 30
0.0
 41
100.0
 42
100.0
 43
100.0
  0
POINT
  5
1BCBB
330
165C4
100
AcDbEntity
  8
DEFPOINTS
 62
     0
 48
50.0
100
AcDbPoint
 10
6634.673057123641
 20
6867.57393184604
 30
0.0
  0
POINT
  5
1BCBC
330
165C4
100
AcDbEntity
  8
DEFPOINTS
 62
     0
 48
50.0
100
AcDbPoint
 10
6586.673057123639
 20
6893.573931845955
 30
0.0
  0
POINT
  5
1BCBD
330
165C4
100
AcDbEntity
  8
DEFPOINTS
 62
     0
 48
50.0
100
AcDbPoint
 10
6586.673057123639
 20
6333.143161079786
 30
0.0
  0
ENDBLK
  5
165D2
330
165C4
100
AcDbEntity
  8
0
 48
50.0
100
AcDbBlockEnd
  0
BLOCK
  5
1663F
330
165EA
100
AcDbEntity
  8
0
 48
50.0
100
AcDbBlockBegin
  2
*D16
 70
     1
 10
0.0
 20
0.0
 30
0.0
  3
*D16
  1

  0
LINE
  5
1BCAA
330
165EA
100
AcDbEntity
  8
寸法
 62
     0
 48
50.0
370
    -2
100
AcDbLine
 10
6744.673057123654
 20
6847.573931845952
 30
0.0
 11
6744.673057123654
 21
6273.143161079789
 31
0.0
  0
LINE
  5
1BCAB
330
165EA
100
AcDbEntity
  8
寸法
 62
     0
 48
50.0
370
    -2
100
AcDbLine
 10
6634.673057123641
 20
6847.57393184604
 30
0.0
 11
6634.673057123641
 21
6273.143161079789
 31
0.0
  0
LINE
  5
1BCAC
330
165EA
100
AcDbEntity
  8
寸法
 62
     0
 48
50.0
370
    -2
100
AcDbLine
 10
6744.673057123654
 20
6333.143161079789
 30
0.0
 11
6634.673057123641
 21
6333.143161079789
 31
0.0
  0
MTEXT
  5
1BCAD
330
165EA
100
AcDbEntity
  8
寸法
 62
     7
 48
50.0
100
AcDbMText
 10
6689.673057123648
 20
6181.451266043559
 30
0.0
 40
120.0
 41
0.0
 71
     5
 72
     1
  1
\A1;110
  7
STYLE1
 73
     1
 44
1.0
1001
ACAD
1000
MTEXTBEGIN
1070
    73
1070
     1
1070
    44
1040
1.0
1070
    74
1070
     0
1000
MTEXTEND
  0
INSERT
  5
1BCAE
330
165EA
100
AcDbEntity
  8
寸法
 62
     0
 48
50.0
370
    -2
100
AcDbBlockReference
  2
_DOTSMALL
 10
6744.673057123654
 20
6333.143161079789
 30
0.0
 41
100.0
 42
100.0
 43
100.0
  0
INSERT
  5
1BCAF
330
165EA
100
AcDbEntity
  8
寸法
 62
     0
 48
50.0
370
    -2
100
AcDbBlockReference
  2
_DOTSMALL
 10
6634.673057123641
 20
6333.143161079789
 30
0.0
 41
100.0
 42
100.0
 43
100.0
 50
180.0
  0
POINT
  5
1BCB0
330
165EA
100
AcDbEntity
  8
DEFPOINTS
 62
     0
 48
50.0
100
AcDbPoint
 10
6744.673057123654
 20
6867.573931845952
 30
0.0
  0
POINT
  5
1BCB1
330
165EA
100
AcDbEntity
  8
DEFPOINTS
 62
     0
 48
50.0
100
AcDbPoint
 10
6634.673057123641
 20
6867.57393184604
 30
0.0
  0
POINT
  5
1BCB2
330
165EA
100
AcDbEntity
  8
DEFPOINTS
 62
     0
 48
50.0
100
AcDbPoint
 10
6634.673057123641
 20
6333.143161079789
 30
0.0
  0
ENDBLK
  5
16649
330
165EA
100
AcDbEntity
  8
0
 48
50.0
100
AcDbBlockEnd
  0
BLOCK
  5
166D0
330
166CF
100
AcDbEntity
  8
0
 48
50.0
100
AcDbBlockBegin
  2
*D17
 70
     1
 10
0.0
 20
0.0
 30
0.0
  3
*D17
  1

  0
LINE
  5
1BC9F
330
166CF
100
AcDbEntity
  8
寸法
 62
     0
 48
50.0
370
    -2
100
AcDbLine
 10
6744.673057123662
 20
10357.573931846
 30
0.0
 11
6744.673057123662
 21
10613.38215147105
 31
0.0
  0
LINE
  5
1BCA0
330
166CF
100
AcDbEntity
  8
寸法
 62
     0
 48
50.0
370
    -2
100
AcDbLine
 10
6634.673057123666
 20
10357.573931846
 30
0.0
 11
6634.673057123666
 21
10613.38215147105
 31
0.0
  0
LINE
  5
1BCA1
330
166CF
100
AcDbEntity
  8
寸法
 62
     0
 48
50.0
370
    -2
100
AcDbLine
 10
6744.673057123662
 20
10553.38215147105
 30
0.0
 11
6844.673057123663
 21
10553.38215147105
 31
0.0
  0
LINE
  5
1BCA2
330
166CF
100
AcDbEntity
  8
寸法
 62
     0
 48
50.0
370
    -2
100
AcDbLine
 10
6634.673057123666
 20
10553.38215147105
 30
0.0
 11
6534.673057123666
 21
10553.38215147105
 31
0.0
  0
LINE
  5
1BCA3
330
166CF
100
AcDbEntity
  8
寸法
 62
     0
 48
50.0
370
    -2
100
AcDbLine
 10
6744.673057123662
 20
10553.38215147105
 30
0.0
 11
6634.673057123666
 21
10553.38215147105
 31
0.0
  0
INSERT
  5
1BCA4
330
166CF
100
AcDbEntity
  8
寸法
 62
     0
 48
50.0
370
    -2
100
AcDbBlockReference
  2
_DOTSMALL
 10
6744.673057123662
 20
10553.38215147105
 30
0.0
 41
100.0
 42
100.0
 43
100.0
 50
180.0
  0
INSERT
  5
1BCA5
330
166CF
100
AcDbEntity
  8
寸法
 62
     0
 48
50.0
370
    -2
100
AcDbBlockReference
  2
_DOTSMALL
 10
6634.673057123666
 20
10553.38215147105
 30
0.0
 41
100.0
 42
100.0
 43
100.0
  0
MTEXT
  5
1BCA6
330
166CF
100
AcDbEntity
  8
寸法
 62
     7
 48
50.0
100
AcDbMText
 10
6689.673057123664
 20
10653.38215147105
 30
0.0
 40
120.0
 41
0.0
 71
     5
 72
     1
  1
\A1;110
  7
STYLE1
 73
     1
 44
1.0
1001
ACAD
1000
MTEXTBEGIN
1070
    73
1070
     1
1070
    44
1040
1.0
1070
    74
1070
     0
1000
MTEXTEND
  0
POINT
  5
1BCA7
330
166CF
100
AcDbEntity
  8
DEFPOINTS
 62
     0
 48
50.0
100
AcDbPoint
 10
6744.673057123662
 20
10337.573931846
 30
0.0
  0
POINT
  5
1BCA8
330
166CF
100
AcDbEntity
  8
DEFPOINTS
 62
     0
 48
50.0
100
AcDbPoint
 10
6634.673057123666
 20
10337.573931846
 30
0.0
  0
POINT
  5
1BCA9
330
166CF
100
AcDbEntity
  8
DEFPOINTS
 62
     0
 48
50.0
100
AcDbPoint
 10
6634.673057123666
 20
10553.38215147105
 30
0.0
  0
ENDBLK
  5
166DC
330
166CF
100
AcDbEntity
  8
0
 48
50.0
100
AcDbBlockEnd
  0
BLOCK
  5
1726C
330
16908
100
AcDbEntity
  8
0
 48
50.0
100
AcDbBlockBegin
  2
*D18
 70
     1
 10
0.0
 20
0.0
 30
0.0
  3
*D18
  1

  0
LINE
  5
1BC97
330
16908
100
AcDbEntity
  8
寸法
 62
     0
 48
50.0
370
    -2
100
AcDbLine
 10
9319.673057123663
 20
10357.57393184605
 30
0.0
 11
9319.673057123663
 21
10862.70362502735
 31
0.0
  0
LINE
  5
1BC98
330
16908
100
AcDbEntity
  8
寸法
 62
     0
 48
50.0
370
    -2
100
AcDbLine
 10
6689.673057123664
 20
10802.70362502735
 30
0.0
 11
9319.673057123663
 21
10802.70362502735
 31
0.0
  0
INSERT
  5
1BC99
330
16908
100
AcDbEntity
  8
寸法
 62
     0
 48
50.0
370
    -2
100
AcDbBlockReference
  2
_DOTSMALL
 10
6689.673057123664
 20
10802.70362502735
 30
0.0
 41
100.0
 42
100.0
 43
100.0
 50
180.0
  0
INSERT
  5
1BC9A
330
16908
100
AcDbEntity
  8
寸法
 62
     0
 48
50.0
370
    -2
100
AcDbBlockReference
  2
_DOTSMALL
 10
9319.673057123663
 20
10802.70362502735
 30
0.0
 41
100.0
 42
100.0
 43
100.0
  0
MTEXT
  5
1BC9B
330
16908
100
AcDbEntity
  8
寸法
 62
     7
 48
50.0
100
AcDbMText
 10
8004.673057123664
 20
10902.71543605097
 30
0.0
 40
120.0
 41
0.0
 71
     5
 72
     1
  1
\A1;2630
  7
STYLE1
 73
     1
 44
1.0
1001
ACAD
1000
MTEXTBEGIN
1070
    73
1070
     1
1070
    44
1040
1.0
1070
    74
1070
     0
1000
MTEXTEND
  0
POINT
  5
1BC9C
330
16908
100
AcDbEntity
  8
DEFPOINTS
 62
     0
 48
50.0
100
AcDbPoint
 10
6689.673057123664
 20
10712.370065829
 30
0.0
  0
POINT
  5
1BC9D
330
16908
100
AcDbEntity
  8
DEFPOINTS
 62
     0
 48
50.0
100
AcDbPoint
 10
9319.673057123663
 20
10337.57393184605
 30
0.0
  0
POINT
  5
1BC9E
330
16908
100
AcDbEntity
  8
DEFPOINTS
 62
     0
 48
50.0
100
AcDbPoint
 10
9319.673057123663
 20
10802.70362502735
 30
0.0
  0
ENDBLK
  5
17275
330
16908
100
AcDbEntity
  8
0
 48
50.0
100
AcDbBlockEnd
  0
BLOCK
  5
17BD1
330
17BC5
100
AcDbEntity
  8
0
 48
50.0
100
AcDbBlockBegin
  2
*D19
 70
     1
 10
0.0
 20
0.0
 30
0.0
  3
*D19
  1

  0
LINE
  5
1BDA1
330
17BC5
100
AcDbEntity
  8
寸法
 62
     0
 48
50.0
370
    -2
100
AcDbLine
 10
4004.67305712364
 20
6847.57393184604
 30
0.0
 11
4004.67305712364
 21
6273.143161079786
 31
0.0
  0
LINE
  5
1BDA2
330
17BC5
100
AcDbEntity
  8
寸法
 62
     0
 48
50.0
370
    -2
100
AcDbLine
 10
3956.673057123637
 20
6873.573931845955
 30
0.0
 11
3956.673057123637
 21
6273.143161079786
 31
0.0
  0
LINE
  5
1BDA3
330
17BC5
100
AcDbEntity
  8
寸法
 62
     0
 48
50.0
370
    -2
100
AcDbLine
 10
4004.67305712364
 20
6333.143161079786
 30
0.0
 11
4104.67305712364
 21
6333.143161079786
 31
0.0
  0
LINE
  5
1BDA4
330
17BC5
100
AcDbEntity
  8
寸法
 62
     0
 48
50.0
370
    -2
100
AcDbLine
 10
3956.673057123637
 20
6333.143161079786
 30
0.0
 11
3856.673057123637
 21
6333.143161079786
 31
0.0
  0
MTEXT
  5
1BDA5
330
17BC5
100
AcDbEntity
  8
寸法
 62
     7
 48
50.0
100
AcDbMText
 10
3845.71015947489
 20
6433.143161079788
 30
0.0
 40
120.0
 41
0.0
 71
     5
 72
     1
  1
\A1;48
  7
STYLE1
 73
     1
 44
1.0
1001
ACAD
1000
MTEXTBEGIN
1070
    73
1070
     1
1070
    44
1040
1.0
1070
    74
1070
     0
1000
MTEXTEND
  0
LINE
  5
1BDA6
330
17BC5
100
AcDbEntity
  8
寸法
 62
     0
 48
50.0
370
    -2
100
AcDbLine
 10
4004.67305712364
 20
6333.143161079786
 30
0.0
 11
3956.673057123637
 21
6333.143161079786
 31
0.0
  0
INSERT
  5
1BDA7
330
17BC5
100
AcDbEntity
  8
寸法
 62
     0
 48
50.0
370
    -2
100
AcDbBlockReference
  2
_DOTSMALL
 10
4004.67305712364
 20
6333.143161079786
 30
0.0
 41
100.0
 42
100.0
 43
100.0
 50
180.0
  0
INSERT
  5
1BDA8
330
17BC5
100
AcDbEntity
  8
寸法
 62
     0
 48
50.0
370
    -2
100
AcDbBlockReference
  2
_DOTSMALL
 10
3956.673057123637
 20
6333.143161079786
 30
0.0
 41
100.0
 42
100.0
 43
100.0
  0
POINT
  5
1BDA9
330
17BC5
100
AcDbEntity
  8
DEFPOINTS
 62
     0
 48
50.0
100
AcDbPoint
 10
4004.67305712364
 20
6867.57393184604
 30
0.0
  0
POINT
  5
1BDAA
330
17BC5
100
AcDbEntity
  8
DEFPOINTS
 62
     0
 48
50.0
100
AcDbPoint
 10
3956.673057123637
 20
6893.573931845955
 30
0.0
  0
POINT
  5
1BDAB
330
17BC5
100
AcDbEntity
  8
DEFPOINTS
 62
     0
 48
50.0
100
AcDbPoint
 10
3956.673057123637
 20
6333.143161079786
 30
0.0
  0
ENDBLK
  5
17BD2
330
17BC5
100
AcDbEntity
  8
0
 48
50.0
100
AcDbBlockEnd
  0
BLOCK
  5
17BDC
330
17BD3
100
AcDbEntity
  8
0
 48
50.0
100
AcDbBlockBegin
  2
*D20
 70
     1
 10
0.0
 20
0.0
 30
0.0
  3
*D20
  1

  0
LINE
  5
1BDAC
330
17BD3
100
AcDbEntity
  8
寸法
 62
     0
 48
50.0
370
    -2
100
AcDbLine
 10
1532.673057123657
 20
6873.573931845951
 30
0.0
 11
1532.673057123657
 21
6273.143161079786
 31
0.0
  0
LINE
  5
1BDAD
330
17BD3
100
AcDbEntity
  8
寸法
 62
     0
 48
50.0
370
    -2
100
AcDbLine
 10
3956.673057123637
 20
6333.143161079786
 30
0.0
 11
1532.673057123657
 21
6333.143161079786
 31
0.0
  0
INSERT
  5
1BDAE
330
17BD3
100
AcDbEntity
  8
寸法
 62
     0
 48
50.0
370
    -2
100
AcDbBlockReference
  2
_DOTSMALL
 10
3956.673057123637
 20
6333.143161079786
 30
0.0
 41
100.0
 42
100.0
 43
100.0
  0
INSERT
  5
1BDAF
330
17BD3
100
AcDbEntity
  8
寸法
 62
     0
 48
50.0
370
    -2
100
AcDbBlockReference
  2
_DOTSMALL
 10
1532.673057123657
 20
6333.143161079786
 30
0.0
 41
100.0
 42
100.0
 43
100.0
 50
180.0
  0
MTEXT
  5
1BDB0
330
17BD3
100
AcDbEntity
  8
寸法
 62
     7
 48
50.0
100
AcDbMText
 10
2744.673057123647
 20
6433.154972103408
 30
0.0
 40
120.0
 41
0.0
 71
     5
 72
     1
  1
\A1;有効開口部間口 2424
  7
STYLE1
 73
     1
 44
1.0
1001
ACAD
1000
MTEXTBEGIN
1070
    73
1070
     1
1070
    44
1040
1.0
1070
    74
1070
     0
1000
MTEXTEND
  0
POINT
  5
1BDB1
330
17BD3
100
AcDbEntity
  8
DEFPOINTS
 62
     0
 48
50.0
100
AcDbPoint
 10
3956.673057123637
 20
6893.573931845955
 30
0.0
  0
POINT
  5
1BDB2
330
17BD3
100
AcDbEntity
  8
DEFPOINTS
 62
     0
 48
50.0
100
AcDbPoint
 10
1532.673057123657
 20
6893.573931845951
 30
0.0
  0
POINT
  5
1BDB3
330
17BD3
100
AcDbEntity
  8
DEFPOINTS
 62
     0
 48
50.0
100
AcDbPoint
 10
1532.673057123657
 20
6333.143161079786
 30
0.0
  0
ENDBLK
  5
17BDD
330
17BD3
100
AcDbEntity
  8
0
 48
50.0
100
AcDbBlockEnd
  0
BLOCK
  5
17BE8
330
17BDE
100
AcDbEntity
  8
0
 48
50.0
100
AcDbBlockBegin
  2
*D21
 70
     1
 10
0.0
 20
0.0
 30
0.0
  3
*D21
  1

  0
LINE
  5
1BEF9
330
17BDE
100
AcDbEntity
  8
寸法
 62
     0
 48
50.0
370
    -2
100
AcDbLine
 10
1484.673057123663
 20
10357.57393184595
 30
0.0
 11
1484.673057123663
 21
10613.38215147105
 31
0.0
  0
LINE
  5
1BEFA
330
17BDE
100
AcDbEntity
  8
寸法
 62
     0
 48
50.0
370
    -2
100
AcDbLine
 10
4004.673057123664
 20
10357.57393184605
 30
0.0
 11
4004.673057123664
 21
10613.38215147105
 31
0.0
  0
LINE
  5
1BEFB
330
17BDE
100
AcDbEntity
  8
寸法
 62
     0
 48
50.0
370
    -2
100
AcDbLine
 10
1484.673057123663
 20
10553.38215147105
 30
0.0
 11
4004.673057123664
 21
10553.38215147105
 31
0.0
  0
INSERT
  5
1BEFC
330
17BDE
100
AcDbEntity
  8
寸法
 62
     0
 48
50.0
370
    -2
100
AcDbBlockReference
  2
_DOTSMALL
 10
1484.673057123663
 20
10553.38215147105
 30
0.0
 41
100.0
 42
100.0
 43
100.0
 50
180.0
  0
INSERT
  5
1BEFD
330
17BDE
100
AcDbEntity
  8
寸法
 62
     0
 48
50.0
370
    -2
100
AcDbBlockReference
  2
_DOTSMALL
 10
4004.673057123664
 20
10553.38215147105
 30
0.0
 41
100.0
 42
100.0
 43
100.0
  0
MTEXT
  5
1BEFE
330
17BDE
100
AcDbEntity
  8
寸法
 62
     7
 48
50.0
100
AcDbMText
 10
2744.673057123664
 20
10653.39396249467
 30
0.0
 40
120.0
 41
0.0
 71
     5
 72
     1
  1
\A1;6X420=2520
  7
STYLE1
 73
     1
 44
1.0
1001
ACAD
1000
MTEXTBEGIN
1070
    73
1070
     1
1070
    44
1040
1.0
1070
    74
1070
     0
1000
MTEXTEND
  0
POINT
  5
1BEFF
330
17BDE
100
AcDbEntity
  8
DEFPOINTS
 62
     0
 48
50.0
100
AcDbPoint
 10
1484.673057123663
 20
10337.57393184595
 30
0.0
  0
POINT
  5
1BF00
330
17BDE
100
AcDbEntity
  8
DEFPOINTS
 62
     0
 48
50.0
100
AcDbPoint
 10
4004.673057123664
 20
10337.57393184605
 30
0.0
  0
POINT
  5
1BF01
330
17BDE
100
AcDbEntity
  8
DEFPOINTS
 62
     0
 48
50.0
100
AcDbPoint
 10
4004.673057123664
 20
10553.38215147105
 30
0.0
  0
ENDBLK
  5
17BE9
330
17BDE
100
AcDbEntity
  8
0
 48
50.0
100
AcDbBlockEnd
  0
BLOCK
  5
17BF6
330
17BEA
100
AcDbEntity
  8
0
 48
50.0
100
AcDbBlockBegin
  2
*D22
 70
     1
 10
0.0
 20
0.0
 30
0.0
  3
*D22
  1

  0
LINE
  5
1BDB4
330
17BEA
100
AcDbEntity
  8
寸法
 62
     0
 48
50.0
370
    -2
100
AcDbLine
 10
4114.673057123662
 20
10357.573931846
 30
0.0
 11
4114.673057123662
 21
10613.38215147105
 31
0.0
  0
LINE
  5
1BDB5
330
17BEA
100
AcDbEntity
  8
寸法
 62
     0
 48
50.0
370
    -2
100
AcDbLine
 10
4004.673057123664
 20
10357.573931846
 30
0.0
 11
4004.673057123664
 21
10613.38215147105
 31
0.0
  0
LINE
  5
1BDB6
330
17BEA
100
AcDbEntity
  8
寸法
 62
     0
 48
50.0
370
    -2
100
AcDbLine
 10
4114.673057123662
 20
10553.38215147105
 30
0.0
 11
4214.673057123663
 21
10553.38215147105
 31
0.0
  0
LINE
  5
1BDB7
330
17BEA
100
AcDbEntity
  8
寸法
 62
     0
 48
50.0
370
    -2
100
AcDbLine
 10
4004.673057123664
 20
10553.38215147105
 30
0.0
 11
3904.673057123665
 21
10553.38215147105
 31
0.0
  0
LINE
  5
1BDB8
330
17BEA
100
AcDbEntity
  8
寸法
 62
     0
 48
50.0
370
    -2
100
AcDbLine
 10
4114.673057123662
 20
10553.38215147105
 30
0.0
 11
4004.673057123664
 21
10553.38215147105
 31
0.0
  0
INSERT
  5
1BDB9
330
17BEA
100
AcDbEntity
  8
寸法
 62
     0
 48
50.0
370
    -2
100
AcDbBlockReference
  2
_DOTSMALL
 10
4114.673057123662
 20
10553.38215147105
 30
0.0
 41
100.0
 42
100.0
 43
100.0
 50
180.0
  0
INSERT
  5
1BDBA
330
17BEA
100
AcDbEntity
  8
寸法
 62
     0
 48
50.0
370
    -2
100
AcDbBlockReference
  2
_DOTSMALL
 10
4004.673057123664
 20
10553.38215147105
 30
0.0
 41
100.0
 42
100.0
 43
100.0
  0
MTEXT
  5
1BDBB
330
17BEA
100
AcDbEntity
  8
寸法
 62
     7
 48
50.0
100
AcDbMText
 10
4059.673057123663
 20
10653.38215147105
 30
0.0
 40
120.0
 41
0.0
 71
     5
 72
     1
  1
\A1;110
  7
STYLE1
 73
     1
 44
1.0
1001
ACAD
1000
MTEXTBEGIN
1070
    73
1070
     1
1070
    44
1040
1.0
1070
    74
1070
     0
1000
MTEXTEND
  0
POINT
  5
1BDBC
330
17BEA
100
AcDbEntity
  8
DEFPOINTS
 62
     0
 48
50.0
100
AcDbPoint
 10
4114.673057123662
 20
10337.573931846
 30
0.0
  0
POINT
  5
1BDBD
330
17BEA
100
AcDbEntity
  8
DEFPOINTS
 62
     0
 48
50.0
100
AcDbPoint
 10
4004.673057123664
 20
10337.573931846
 30
0.0
  0
POINT
  5
1BDBE
330
17BEA
100
AcDbEntity
  8
DEFPOINTS
 62
     0
 48
50.0
100
AcDbPoint
 10
4004.673057123664
 20
10553.38215147105
 30
0.0
  0
ENDBLK
  5
17BF7
330
17BEA
100
AcDbEntity
  8
0
 48
50.0
100
AcDbBlockEnd
  0
BLOCK
  5
17C02
330
17BF8
100
AcDbEntity
  8
0
 48
50.0
100
AcDbBlockBegin
  2
*D23
 70
     1
 10
0.0
 20
0.0
 30
0.0
  3
*D23
  1

  0
LINE
  5
1BDC8
330
17BF8
100
AcDbEntity
  8
寸法
 62
     0
 48
50.0
370
    -2
100
AcDbLine
 10
1429.673057123629
 20
10357.57393184592
 30
0.0
 11
1429.673057123629
 21
10862.70362502735
 31
0.0
  0
LINE
  5
1BDC9
330
17BF8
100
AcDbEntity
  8
寸法
 62
     0
 48
50.0
370
    -2
100
AcDbLine
 10
4059.673057123664
 20
10732.370065829
 30
0.0
 11
4059.673057123664
 21
10862.70362502735
 31
0.0
  0
LINE
  5
1BDCA
330
17BF8
100
AcDbEntity
  8
寸法
 62
     0
 48
50.0
370
    -2
100
AcDbLine
 10
1429.673057123629
 20
10802.70362502735
 30
0.0
 11
4059.673057123664
 21
10802.70362502735
 31
0.0
  0
INSERT
  5
1BDCB
330
17BF8
100
AcDbEntity
  8
寸法
 62
     0
 48
50.0
370
    -2
100
AcDbBlockReference
  2
_DOTSMALL
 10
1429.673057123629
 20
10802.70362502735
 30
0.0
 41
100.0
 42
100.0
 43
100.0
 50
180.0
  0
INSERT
  5
1BDCC
330
17BF8
100
AcDbEntity
  8
寸法
 62
     0
 48
50.0
370
    -2
100
AcDbBlockReference
  2
_DOTSMALL
 10
4059.673057123664
 20
10802.70362502735
 30
0.0
 41
100.0
 42
100.0
 43
100.0
  0
MTEXT
  5
1BDCD
330
17BF8
100
AcDbEntity
  8
寸法
 62
     7
 48
50.0
100
AcDbMText
 10
2744.673057123647
 20
10902.71543605097
 30
0.0
 40
120.0
 41
0.0
 71
     5
 72
     1
  1
\A1;2630
  7
STYLE1
 73
     1
 44
1.0
1001
ACAD
1000
MTEXTBEGIN
1070
    73
1070
     1
1070
    44
1040
1.0
1070
    74
1070
     0
1000
MTEXTEND
  0
POINT
  5
1BDCE
330
17BF8
100
AcDbEntity
  8
DEFPOINTS
 62
     0
 48
50.0
100
AcDbPoint
 10
1429.673057123629
 20
10337.57393184592
 30
0.0
  0
POINT
  5
1BDCF
330
17BF8
100
AcDbEntity
  8
DEFPOINTS
 62
     0
 48
50.0
100
AcDbPoint
 10
4059.673057123664
 20
10712.370065829
 30
0.0
  0
POINT
  5
1BDD0
330
17BF8
100
AcDbEntity
  8
DEFPOINTS
 62
     0
 48
50.0
100
AcDbPoint
 10
4059.673057123664
 20
10802.70362502735
 30
0.0
  0
ENDBLK
  5
17C03
330
17BF8
100
AcDbEntity
  8
0
 48
50.0
100
AcDbBlockEnd
  0
BLOCK
  5
17C54
330
17C48
100
AcDbEntity
  8
0
 48
50.0
100
AcDbBlockBegin
  2
*D24
 70
     1
 10
0.0
 20
0.0
 30
0.0
  3
*D24
  1

  0
LINE
  5
1BD8D
330
17C48
100
AcDbEntity
  8
寸法
 62
     0
 48
50.0
370
    -2
100
AcDbLine
 10
4162.673057123654
 20
6873.573931845951
 30
0.0
 11
4162.673057123654
 21
6273.143161079786
 31
0.0
  0
LINE
  5
1BD8E
330
17C48
100
AcDbEntity
  8
寸法
 62
     0
 48
50.0
370
    -2
100
AcDbLine
 10
4114.673057123653
 20
6847.573931845952
 30
0.0
 11
4114.673057123653
 21
6273.143161079786
 31
0.0
  0
LINE
  5
1BD8F
330
17C48
100
AcDbEntity
  8
寸法
 62
     0
 48
50.0
370
    -2
100
AcDbLine
 10
4162.673057123654
 20
6333.143161079786
 30
0.0
 11
4262.673057123655
 21
6333.143161079786
 31
0.0
  0
LINE
  5
1BD90
330
17C48
100
AcDbEntity
  8
寸法
 62
     0
 48
50.0
370
    -2
100
AcDbLine
 10
4114.673057123653
 20
6333.143161079786
 30
0.0
 11
4014.673057123653
 21
6333.143161079786
 31
0.0
  0
MTEXT
  5
1BD91
330
17C48
100
AcDbEntity
  8
寸法
 62
     7
 48
50.0
100
AcDbMText
 10
4275.575028123713
 20
6433.143161079788
 30
0.0
 40
120.0
 41
0.0
 71
     5
 72
     1
  1
\A1;48
  7
STYLE1
 73
     1
 44
1.0
1001
ACAD
1000
MTEXTBEGIN
1070
    73
1070
     1
1070
    44
1040
1.0
1070
    74
1070
     0
1000
MTEXTEND
  0
LINE
  5
1BD92
330
17C48
100
AcDbEntity
  8
寸法
 62
     0
 48
50.0
370
    -2
100
AcDbLine
 10
4162.673057123654
 20
6333.143161079786
 30
0.0
 11
4114.673057123653
 21
6333.143161079786
 31
0.0
  0
INSERT
  5
1BD93
330
17C48
100
AcDbEntity
  8
寸法
 62
     0
 48
50.0
370
    -2
100
AcDbBlockReference
  2
_DOTSMALL
 10
4162.673057123654
 20
6333.143161079786
 30
0.0
 41
100.0
 42
100.0
 43
100.0
 50
180.0
  0
INSERT
  5
1BD94
330
17C48
100
AcDbEntity
  8
寸法
 62
     0
 48
50.0
370
    -2
100
AcDbBlockReference
  2
_DOTSMALL
 10
4114.673057123653
 20
6333.143161079786
 30
0.0
 41
100.0
 42
100.0
 43
100.0
  0
POINT
  5
1BD95
330
17C48
100
AcDbEntity
  8
DEFPOINTS
 62
     0
 48
50.0
100
AcDbPoint
 10
4162.673057123654
 20
6893.573931845951
 30
0.0
  0
POINT
  5
1BD96
330
17C48
100
AcDbEntity
  8
DEFPOINTS
 62
     0
 48
50.0
100
AcDbPoint
 10
4114.673057123653
 20
6867.573931845952
 30
0.0
  0
POINT
  5
1BD97
330
17C48
100
AcDbEntity
  8
DEFPOINTS
 62
     0
 48
50.0
100
AcDbPoint
 10
4114.673057123653
 20
6333.143161079786
 30
0.0
  0
ENDBLK
  5
17C55
330
17C48
100
AcDbEntity
  8
0
 48
50.0
100
AcDbBlockEnd
  0
BLOCK
  5
17C60
330
17C56
100
AcDbEntity
  8
0
 48
50.0
100
AcDbBlockBegin
  2
*D25
 70
     1
 10
0.0
 20
0.0
 30
0.0
  3
*D25
  1

  0
LINE
  5
1BD98
330
17C56
100
AcDbEntity
  8
寸法
 62
     0
 48
50.0
370
    -2
100
AcDbLine
 10
4114.673057123653
 20
6847.573931845952
 30
0.0
 11
4114.673057123653
 21
6273.143161079789
 31
0.0
  0
LINE
  5
1BD99
330
17C56
100
AcDbEntity
  8
寸法
 62
     0
 48
50.0
370
    -2
100
AcDbLine
 10
4004.67305712364
 20
6847.57393184604
 30
0.0
 11
4004.67305712364
 21
6273.143161079789
 31
0.0
  0
LINE
  5
1BD9A
330
17C56
100
AcDbEntity
  8
寸法
 62
     0
 48
50.0
370
    -2
100
AcDbLine
 10
4114.673057123653
 20
6333.143161079789
 30
0.0
 11
4004.67305712364
 21
6333.143161079789
 31
0.0
  0
MTEXT
  5
1BD9B
330
17C56
100
AcDbEntity
  8
寸法
 62
     7
 48
50.0
100
AcDbMText
 10
4059.673057123647
 20
6181.451266043559
 30
0.0
 40
120.0
 41
0.0
 71
     5
 72
     1
  1
\A1;110
  7
STYLE1
 73
     1
 44
1.0
1001
ACAD
1000
MTEXTBEGIN
1070
    73
1070
     1
1070
    44
1040
1.0
1070
    74
1070
     0
1000
MTEXTEND
  0
INSERT
  5
1BD9C
330
17C56
100
AcDbEntity
  8
寸法
 62
     0
 48
50.0
370
    -2
100
AcDbBlockReference
  2
_DOTSMALL
 10
4114.673057123653
 20
6333.143161079789
 30
0.0
 41
100.0
 42
100.0
 43
100.0
  0
INSERT
  5
1BD9D
330
17C56
100
AcDbEntity
  8
寸法
 62
     0
 48
50.0
370
    -2
100
AcDbBlockReference
  2
_DOTSMALL
 10
4004.67305712364
 20
6333.143161079789
 30
0.0
 41
100.0
 42
100.0
 43
100.0
 50
180.0
  0
POINT
  5
1BD9E
330
17C56
100
AcDbEntity
  8
DEFPOINTS
 62
     0
 48
50.0
100
AcDbPoint
 10
4114.673057123653
 20
6867.573931845952
 30
0.0
  0
POINT
  5
1BD9F
330
17C56
100
AcDbEntity
  8
DEFPOINTS
 62
     0
 48
50.0
100
AcDbPoint
 10
4004.67305712364
 20
6867.57393184604
 30
0.0
  0
POINT
  5
1BDA0
330
17C56
100
AcDbEntity
  8
DEFPOINTS
 62
     0
 48
50.0
100
AcDbPoint
 10
4004.67305712364
 20
6333.143161079789
 30
0.0
  0
ENDBLK
  5
17C61
330
17C56
100
AcDbEntity
  8
0
 48
50.0
100
AcDbBlockEnd
  0
BLOCK
  5
196F7
330
196ED
100
AcDbEntity
  8
0
 48
50.0
100
AcDbBlockBegin
  2
*D26
 70
     1
 10
0.0
 20
0.0
 30
0.0
  3
*D26
  1

  0
LINE
  5
1BF41
330
196ED
100
AcDbEntity
  8
寸法
 62
     0
 48
50.0
370
    -2
100
AcDbLine
 10
9319.673057123658
 20
4492.435711496324
 30
0.0
 11
9319.673057123658
 21
4938.161983228226
 31
0.0
  0
LINE
  5
1BF42
330
196ED
100
AcDbEntity
  8
寸法
 62
     0
 48
50.0
370
    -2
100
AcDbLine
 10
1429.673057123653
 20
4492.435711496323
 30
0.0
 11
1429.673057123653
 21
4938.161983228226
 31
0.0
  0
LINE
  5
1BF43
330
196ED
100
AcDbEntity
  8
寸法
 62
     0
 48
50.0
370
    -2
100
AcDbLine
 10
9319.673057123658
 20
4878.161983228226
 30
0.0
 11
1429.673057123653
 21
4878.161983228226
 31
0.0
  0
INSERT
  5
1BF44
330
196ED
100
AcDbEntity
  8
寸法
 62
     0
 48
50.0
370
    -2
100
AcDbBlockReference
  2
_DOTSMALL
 10
9319.673057123658
 20
4878.161983228226
 30
0.0
 41
100.0
 42
100.0
 43
100.0
  0
INSERT
  5
1BF45
330
196ED
100
AcDbEntity
  8
寸法
 62
     0
 48
50.0
370
    -2
100
AcDbBlockReference
  2
_DOTSMALL
 10
1429.673057123653
 20
4878.161983228226
 30
0.0
 41
100.0
 42
100.0
 43
100.0
 50
180.0
  0
MTEXT
  5
1BF46
330
196ED
100
AcDbEntity
  8
寸法
 62
     7
 48
50.0
100
AcDbMText
 10
5374.673057123656
 20
4978.173794251848
 30
0.0
 40
120.0
 41
0.0
 71
     5
 72
     1
  1
\A1;柱外寸法 N X 2630
  7
STYLE1
 73
     1
 44
1.0
1001
ACAD
1000
MTEXTBEGIN
1070
    73
1070
     1
1070
    44
1040
1.0
1070
    74
1070
     0
1000
MTEXTEND
  0
POINT
  5
1BF47
330
196ED
100
AcDbEntity
  8
DEFPOINTS
 62
     0
 48
50.0
100
AcDbPoint
 10
9319.673057123658
 20
4472.435711496324
 30
0.0
  0
POINT
  5
1BF48
330
196ED
100
AcDbEntity
  8
DEFPOINTS
 62
     0
 48
50.0
100
AcDbPoint
 10
1429.673057123653
 20
4472.435711496323
 30
0.0
  0
POINT
  5
1BF49
330
196ED
100
AcDbEntity
  8
DEFPOINTS
 62
     0
 48
50.0
100
AcDbPoint
 10
1429.673057123653
 20
4878.161983228226
 30
0.0
  0
ENDBLK
  5
196F8
330
196ED
100
AcDbEntity
  8
0
 48
50.0
100
AcDbBlockEnd
  0
BLOCK
  5
19703
330
196F9
100
AcDbEntity
  8
0
 48
50.0
100
AcDbBlockBegin
  2
*D27
 70
     1
 10
0.0
 20
0.0
 30
0.0
  3
*D27
  1

  0
LINE
  5
1BF38
330
196F9
100
AcDbEntity
  8
寸法
 62
     0
 48
50.0
370
    -2
100
AcDbLine
 10
1379.673057123653
 20
4492.435711496322
 30
0.0
 11
1379.673057123653
 21
5138.070904442316
 31
0.0
  0
LINE
  5
1BF39
330
196F9
100
AcDbEntity
  8
寸法
 62
     0
 48
50.0
370
    -2
100
AcDbLine
 10
9369.673057123653
 20
4492.43571149632
 30
0.0
 11
9369.673057123653
 21
5138.070904442316
 31
0.0
  0
LINE
  5
1BF3A
330
196F9
100
AcDbEntity
  8
寸法
 62
     0
 48
50.0
370
    -2
100
AcDbLine
 10
1379.673057123653
 20
5078.070904442316
 30
0.0
 11
9369.673057123653
 21
5078.070904442316
 31
0.0
  0
INSERT
  5
1BF3B
330
196F9
100
AcDbEntity
  8
寸法
 62
     0
 48
50.0
370
    -2
100
AcDbBlockReference
  2
_DOTSMALL
 10
1379.673057123653
 20
5078.070904442316
 30
0.0
 41
100.0
 42
100.0
 43
100.0
 50
180.0
  0
INSERT
  5
1BF3C
330
196F9
100
AcDbEntity
  8
寸法
 62
     0
 48
50.0
370
    -2
100
AcDbBlockReference
  2
_DOTSMALL
 10
9369.673057123653
 20
5078.070904442316
 30
0.0
 41
100.0
 42
100.0
 43
100.0
  0
MTEXT
  5
1BF3D
330
196F9
100
AcDbEntity
  8
寸法
 62
     7
 48
50.0
100
AcDbMText
 10
5374.673057123653
 20
5178.082715465938
 30
0.0
 40
120.0
 41
0.0
 71
     5
 72
     1
  1
\A1;N X 2630+100
  7
STYLE1
 73
     1
 44
1.0
1001
ACAD
1000
MTEXTBEGIN
1070
    73
1070
     1
1070
    44
1040
1.0
1070
    74
1070
     0
1000
MTEXTEND
  0
POINT
  5
1BF3E
330
196F9
100
AcDbEntity
  8
DEFPOINTS
 62
     0
 48
50.0
100
AcDbPoint
 10
1379.673057123653
 20
4472.435711496323
 30
0.0
  0
POINT
  5
1BF3F
330
196F9
100
AcDbEntity
  8
DEFPOINTS
 62
     0
 48
50.0
100
AcDbPoint
 10
9369.673057123653
 20
4472.43571149632
 30
0.0
  0
POINT
  5
1BF40
330
196F9
100
AcDbEntity
  8
DEFPOINTS
 62
     0
 48
50.0
100
AcDbPoint
 10
9369.673057123653
 20
5078.070904442316
 30
0.0
  0
ENDBLK
  5
19704
330
196F9
100
AcDbEntity
  8
0
 48
50.0
100
AcDbBlockEnd
  0
BLOCK
  5
19711
330
19705
100
AcDbEntity
  8
0
 48
50.0
100
AcDbBlockBegin
  2
*D28
 70
     1
 10
0.0
 20
0.0
 30
0.0
  3
*D28
  1

  0
LINE
  5
1BDFB
330
19705
100
AcDbEntity
  8
寸法
 62
     0
 48
50.0
370
    -2
100
AcDbLine
 10
1429.673057123653
 20
4492.435711496324
 30
0.0
 11
1429.673057123653
 21
4938.161983228226
 31
0.0
  0
LINE
  5
1BDFC
330
19705
100
AcDbEntity
  8
寸法
 62
     0
 48
50.0
370
    -2
100
AcDbLine
 10
1379.673057123653
 20
4492.435711496324
 30
0.0
 11
1379.673057123653
 21
4938.161983228226
 31
0.0
  0
LINE
  5
1BDFD
330
19705
100
AcDbEntity
  8
寸法
 62
     0
 48
50.0
370
    -2
100
AcDbLine
 10
1429.673057123653
 20
4878.161983228226
 30
0.0
 11
1529.673057123653
 21
4878.161983228226
 31
0.0
  0
LINE
  5
1BDFE
330
19705
100
AcDbEntity
  8
寸法
 62
     0
 48
50.0
370
    -2
100
AcDbLine
 10
1379.673057123653
 20
4878.161983228226
 30
0.0
 11
960.1405316549181
 21
4878.161983228226
 31
0.0
  0
LINE
  5
1BDFF
330
19705
100
AcDbEntity
  8
寸法
 62
     0
 48
50.0
370
    -2
100
AcDbLine
 10
1429.673057123653
 20
4878.161983228226
 30
0.0
 11
1379.673057123653
 21
4878.161983228226
 31
0.0
  0
INSERT
  5
1BE00
330
19705
100
AcDbEntity
  8
寸法
 62
     0
 48
50.0
370
    -2
100
AcDbBlockReference
  2
_DOTSMALL
 10
1429.673057123653
 20
4878.161983228226
 30
0.0
 41
100.0
 42
100.0
 43
100.0
 50
180.0
  0
INSERT
  5
1BE01
330
19705
100
AcDbEntity
  8
寸法
 62
     0
 48
50.0
370
    -2
100
AcDbBlockReference
  2
_DOTSMALL
 10
1379.673057123653
 20
4878.161983228226
 30
0.0
 41
100.0
 42
100.0
 43
100.0
  0
MTEXT
  5
1BE02
330
19705
100
AcDbEntity
  8
寸法
 62
     7
 48
50.0
100
AcDbMText
 10
1066.187775749406
 20
4978.161983228226
 30
0.0
 40
120.0
 41
0.0
 71
     5
 72
     1
  1
\A1;50
  7
STYLE1
 73
     1
 44
1.0
1001
ACAD
1000
MTEXTBEGIN
1070
    73
1070
     1
1070
    44
1040
1.0
1070
    74
1070
     0
1000
MTEXTEND
  0
POINT
  5
1BE03
330
19705
100
AcDbEntity
  8
DEFPOINTS
 62
     0
 48
50.0
100
AcDbPoint
 10
1429.673057123653
 20
4472.435711496324
 30
0.0
  0
POINT
  5
1BE04
330
19705
100
AcDbEntity
  8
DEFPOINTS
 62
     0
 48
50.0
100
AcDbPoint
 10
1379.673057123653
 20
4472.435711496324
 30
0.0
  0
POINT
  5
1BE05
330
19705
100
AcDbEntity
  8
DEFPOINTS
 62
     0
 48
50.0
100
AcDbPoint
 10
1379.673057123653
 20
4878.161983228226
 30
0.0
  0
ENDBLK
  5
19712
330
19705
100
AcDbEntity
  8
0
 48
50.0
100
AcDbBlockEnd
  0
BLOCK
  5
1971F
330
19713
100
AcDbEntity
  8
0
 48
50.0
100
AcDbBlockBegin
  2
*D29
 70
     1
 10
0.0
 20
0.0
 30
0.0
  3
*D29
  1

  0
LINE
  5
1BC7A
330
19713
100
AcDbEntity
  8
寸法
 62
     0
 48
50.0
370
    -2
100
AcDbLine
 10
9369.673057123653
 20
4492.43571149632
 30
0.0
 11
9369.673057123653
 21
4938.161983228233
 31
0.0
  0
LINE
  5
1BC7B
330
19713
100
AcDbEntity
  8
寸法
 62
     0
 48
50.0
370
    -2
100
AcDbLine
 10
9319.673057123658
 20
4492.435711496324
 30
0.0
 11
9319.673057123658
 21
4938.161983228233
 31
0.0
  0
LINE
  5
1BC7C
330
19713
100
AcDbEntity
  8
寸法
 62
     0
 48
50.0
370
    -2
100
AcDbLine
 10
9319.673057123658
 20
4878.161983228232
 30
0.0
 11
9219.673057123658
 21
4878.161983228232
 31
0.0
  0
LINE
  5
1BC7D
330
19713
100
AcDbEntity
  8
寸法
 62
     0
 48
50.0
370
    -2
100
AcDbLine
 10
9369.673057123653
 20
4878.161983228232
 30
0.0
 11
9789.205582592382
 21
4878.161983228232
 31
0.0
  0
LINE
  5
1BC7E
330
19713
100
AcDbEntity
  8
寸法
 62
     0
 48
50.0
370
    -2
100
AcDbLine
 10
9319.673057123658
 20
4878.161983228232
 30
0.0
 11
9369.673057123653
 21
4878.161983228232
 31
0.0
  0
INSERT
  5
1BC7F
330
19713
100
AcDbEntity
  8
寸法
 62
     0
 48
50.0
370
    -2
100
AcDbBlockReference
  2
_DOTSMALL
 10
9319.673057123658
 20
4878.161983228232
 30
0.0
 41
100.0
 42
100.0
 43
100.0
  0
INSERT
  5
1BC80
330
19713
100
AcDbEntity
  8
寸法
 62
     0
 48
50.0
370
    -2
100
AcDbBlockReference
  2
_DOTSMALL
 10
9369.673057123653
 20
4878.161983228232
 30
0.0
 41
100.0
 42
100.0
 43
100.0
 50
180.0
  0
MTEXT
  5
1BC81
330
19713
100
AcDbEntity
  8
寸法
 62
     7
 48
50.0
100
AcDbMText
 10
9683.158338497896
 20
4978.161983228233
 30
0.0
 40
120.0
 41
0.0
 71
     5
 72
     1
  1
\A1;50
  7
STYLE1
 73
     1
 44
1.0
1001
ACAD
1000
MTEXTBEGIN
1070
    73
1070
     1
1070
    44
1040
1.0
1070
    74
1070
     0
1000
MTEXTEND
  0
POINT
  5
1BC82
330
19713
100
AcDbEntity
  8
DEFPOINTS
 62
     0
 48
50.0
100
AcDbPoint
 10
9369.673057123653
 20
4472.43571149632
 30
0.0
  0
POINT
  5
1BC83
330
19713
100
AcDbEntity
  8
DEFPOINTS
 62
     0
 48
50.0
100
AcDbPoint
 10
9319.673057123658
 20
4472.435711496324
 30
0.0
  0
POINT
  5
1BC84
330
19713
100
AcDbEntity
  8
DEFPOINTS
 62
     0
 48
50.0
100
AcDbPoint
 10
9319.673057123658
 20
4878.161983228232
 30
0.0
  0
ENDBLK
  5
19720
330
19713
100
AcDbEntity
  8
0
 48
50.0
100
AcDbBlockEnd
  0
BLOCK
  5
19E76
330
19E6B
100
AcDbEntity
  8
0
 48
50.0
100
AcDbBlockBegin
  2
*D30
 70
     1
 10
0.0
 20
0.0
 30
0.0
  3
*D30
  1

  0
LINE
  5
1BBAB
330
19E6B
100
AcDbEntity
  8
寸法
 62
     0
 48
50.0
370
    -2
100
AcDbLine
 10
11844.62577063551
 20
4471.733418565979
 30
0.0
 11
11228.69133153022
 21
4489.447568840325
 31
0.0
  0
LINE
  5
1BBAC
330
19E6B
100
AcDbEntity
  8
寸法
 62
     0
 48
50.0
370
    -2
100
AcDbLine
 10
11840.57231507888
 20
4330.791694800267
 30
0.0
 11
11224.63787597359
 21
4348.505845074613
 31
0.0
  0
LINE
  5
1BBAD
330
19E6B
100
AcDbEntity
  8
寸法
 62
     0
 48
50.0
370
    -2
100
AcDbLine
 10
11284.61307757602
 20
4346.780970369663
 30
0.0
 11
11288.66653313265
 21
4487.722694135377
 31
0.0
  0
LINE
  5
1BBAE
330
19E6B
100
AcDbEntity
  8
寸法
 62
     0
 48
50.0
370
    -2
100
AcDbLine
 10
11288.66653313265
 20
4487.722694135377
 30
0.0
 11
11299.01578136234
 21
4847.573903749963
 31
0.0
  0
INSERT
  5
1BBAF
330
19E6B
100
AcDbEntity
  8
寸法
 62
     0
 48
50.0
370
    -2
100
AcDbBlockReference
  2
_DOTSMALL
 10
11284.61307757602
 20
4346.780970369663
 30
0.0
 41
100.0
 42
100.0
 43
100.0
 50
268.3526390256363
  0
INSERT
  5
1BBB0
330
19E6B
100
AcDbEntity
  8
寸法
 62
     0
 48
50.0
370
    -2
100
AcDbBlockReference
  2
_DOTSMALL
 10
11288.66653313265
 20
4487.722694135377
 30
0.0
 41
100.0
 42
100.0
 43
100.0
 50
88.35263902563632
  0
MTEXT
  5
1BBB1
330
19E6B
100
AcDbEntity
  8
寸法
 62
     7
 48
50.0
100
AcDbMText
 10
11195.31988349757
 20
4720.502424786277
 30
0.0
 40
120.0
 41
0.0
 71
     5
 72
     1
  1
\A1;141
  7
STYLE1
 11
0.0287479117491494
 21
0.9995866933738479
 31
0.0
 73
     1
 44
1.0
1001
ACAD
1000
MTEXTBEGIN
1070
    73
1070
     1
1070
    44
1040
1.0
1070
    74
1070
     0
1000
MTEXTEND
  0
POINT
  5
1BBB2
330
19E6B
100
AcDbEntity
  8
DEFPOINTS
 62
     0
 48
50.0
100
AcDbPoint
 10
11864.61750450299
 20
4471.158460330996
 30
0.0
  0
POINT
  5
1BBB3
330
19E6B
100
AcDbEntity
  8
DEFPOINTS
 62
     0
 48
50.0
100
AcDbPoint
 10
11860.56404894636
 20
4330.216736565284
 30
0.0
  0
POINT
  5
1BBB4
330
19E6B
100
AcDbEntity
  8
DEFPOINTS
 62
     0
 48
50.0
100
AcDbPoint
 10
11284.61307757602
 20
4346.780970369663
 30
0.0
  0
ENDBLK
  5
19E77
330
19E6B
100
AcDbEntity
  8
0
 48
50.0
100
AcDbBlockEnd
  0
BLOCK
  5
19E83
330
19E78
100
AcDbEntity
  8
0
 48
50.0
100
AcDbBlockBegin
  2
*D31
 70
     1
 10
0.0
 20
0.0
 30
0.0
  3
*D31
  1

  0
LINE
  5
1BBA1
330
19E78
100
AcDbEntity
  8
寸法
 62
     0
 48
50.0
370
    -2
100
AcDbLine
 10
15375.22148434441
 20
4439.246391107972
 30
0.0
 11
15375.22148434441
 21
4931.093165075623
 31
0.0
  0
LINE
  5
1BBA2
330
19E78
100
AcDbEntity
  8
寸法
 62
     0
 48
50.0
370
    -2
100
AcDbLine
 10
15455.22148434441
 20
4437.43571149632
 30
0.0
 11
15455.22148434441
 21
4931.093165075623
 31
0.0
  0
LINE
  5
1BBA3
330
19E78
100
AcDbEntity
  8
寸法
 62
     0
 48
50.0
370
    -2
100
AcDbLine
 10
15375.22148434441
 20
4871.093165075622
 30
0.0
 11
15455.22148434441
 21
4871.093165075622
 31
0.0
  0
LINE
  5
1BBA4
330
19E78
100
AcDbEntity
  8
寸法
 62
     0
 48
50.0
370
    -2
100
AcDbLine
 10
15455.22148434441
 20
4871.093165075622
 30
0.0
 11
15767.31597253339
 21
4871.093165075622
 31
0.0
  0
INSERT
  5
1BBA5
330
19E78
100
AcDbEntity
  8
寸法
 62
     0
 48
50.0
370
    -2
100
AcDbBlockReference
  2
_DOTSMALL
 10
15375.22148434441
 20
4871.093165075622
 30
0.0
 41
100.0
 42
100.0
 43
100.0
 50
180.0
  0
INSERT
  5
1BBA6
330
19E78
100
AcDbEntity
  8
寸法
 62
     0
 48
50.0
370
    -2
100
AcDbBlockReference
  2
_DOTSMALL
 10
15455.22148434441
 20
4871.093165075622
 30
0.0
 41
100.0
 42
100.0
 43
100.0
  0
MTEXT
  5
1BBA7
330
19E78
100
AcDbEntity
  8
寸法
 62
     7
 48
50.0
100
AcDbMText
 10
15661.2687284389
 20
4971.093165075622
 30
0.0
 40
120.0
 41
0.0
 71
     5
 72
     1
  1
\A1;80
  7
STYLE1
 73
     1
 44
1.0
1001
ACAD
1000
MTEXTBEGIN
1070
    73
1070
     1
1070
    44
1040
1.0
1070
    74
1070
     0
1000
MTEXTEND
  0
POINT
  5
1BBA8
330
19E78
100
AcDbEntity
  8
DEFPOINTS
 62
     0
 48
50.0
100
AcDbPoint
 10
15375.22148434441
 20
4419.246391107972
 30
0.0
  0
POINT
  5
1BBA9
330
19E78
100
AcDbEntity
  8
DEFPOINTS
 62
     0
 48
50.0
100
AcDbPoint
 10
15455.22148434441
 20
4417.43571149632
 30
0.0
  0
POINT
  5
1BBAA
330
19E78
100
AcDbEntity
  8
DEFPOINTS
 62
     0
 48
50.0
100
AcDbPoint
 10
15455.22148434441
 20
4871.093165075622
 30
0.0
  0
ENDBLK
  5
19E84
330
19E78
100
AcDbEntity
  8
0
 48
50.0
100
AcDbBlockEnd
  0
BLOCK
  5
19E8F
330
19E85
100
AcDbEntity
  8
0
 48
50.0
100
AcDbBlockBegin
  2
*D32
 70
     1
 10
0.0
 20
0.0
 30
0.0
  3
*D32
  1

  0
LINE
  5
1BB98
330
19E85
100
AcDbEntity
  8
寸法
 62
     0
 48
50.0
370
    -2
100
AcDbLine
 10
15455.22148434441
 20
4437.435711496316
 30
0.0
 11
15455.22148434441
 21
5161.206757861899
 31
0.0
  0
LINE
  5
1BB99
330
19E85
100
AcDbEntity
  8
寸法
 62
     0
 48
50.0
370
    -2
100
AcDbLine
 10
11845.22148434441
 20
4492.43571149632
 30
0.0
 11
11845.22148434441
 21
5161.206757861899
 31
0.0
  0
LINE
  5
1BB9A
330
19E85
100
AcDbEntity
  8
寸法
 62
     0
 48
50.0
370
    -2
100
AcDbLine
 10
15455.22148434441
 20
5101.206757861898
 30
0.0
 11
11845.22148434441
 21
5101.206757861898
 31
0.0
  0
INSERT
  5
1BB9B
330
19E85
100
AcDbEntity
  8
寸法
 62
     0
 48
50.0
370
    -2
100
AcDbBlockReference
  2
_DOTSMALL
 10
15455.22148434441
 20
5101.206757861898
 30
0.0
 41
100.0
 42
100.0
 43
100.0
  0
INSERT
  5
1BB9C
330
19E85
100
AcDbEntity
  8
寸法
 62
     0
 48
50.0
370
    -2
100
AcDbBlockReference
  2
_DOTSMALL
 10
11845.22148434441
 20
5101.206757861898
 30
0.0
 41
100.0
 42
100.0
 43
100.0
 50
180.0
  0
MTEXT
  5
1BB9D
330
19E85
100
AcDbEntity
  8
寸法
 62
     7
 48
50.0
100
AcDbMText
 10
13650.22148434441
 20
5201.206757861899
 30
0.0
 40
120.0
 41
0.0
 71
     5
 72
     1
  1
\A1;3610
  7
STYLE1
 73
     1
 44
1.0
1001
ACAD
1000
MTEXTBEGIN
1070
    73
1070
     1
1070
    44
1040
1.0
1070
    74
1070
     0
1000
MTEXTEND
  0
POINT
  5
1BB9E
330
19E85
100
AcDbEntity
  8
DEFPOINTS
 62
     0
 48
50.0
100
AcDbPoint
 10
15455.22148434441
 20
4417.435711496317
 30
0.0
  0
POINT
  5
1BB9F
330
19E85
100
AcDbEntity
  8
DEFPOINTS
 62
     0
 48
50.0
100
AcDbPoint
 10
11845.22148434441
 20
4472.43571149632
 30
0.0
  0
POINT
  5
1BBA0
330
19E85
100
AcDbEntity
  8
DEFPOINTS
 62
     0
 48
50.0
100
AcDbPoint
 10
11845.22148434441
 20
5101.206757861898
 30
0.0
  0
ENDBLK
  5
19E90
330
19E85
100
AcDbEntity
  8
0
 48
50.0
100
AcDbBlockEnd
  0
BLOCK
  5
19E9D
330
19E91
100
AcDbEntity
  8
0
 48
50.0
100
AcDbBlockBegin
  2
*D33
 70
     1
 10
0.0
 20
0.0
 30
0.0
  3
*D33
  1

  0
LINE
  5
1BB8D
330
19E91
100
AcDbEntity
  8
寸法
 62
     0
 48
50.0
370
    -2
100
AcDbLine
 10
11905.22148434441
 20
4488.437329619293
 30
0.0
 11
11905.22148434441
 21
4931.093165075621
 31
0.0
  0
LINE
  5
1BB8E
330
19E91
100
AcDbEntity
  8
寸法
 62
     0
 48
50.0
370
    -2
100
AcDbLine
 10
11845.22148434441
 20
4492.43571149632
 30
0.0
 11
11845.22148434441
 21
4931.093165075621
 31
0.0
  0
LINE
  5
1BB8F
330
19E91
100
AcDbEntity
  8
寸法
 62
     0
 48
50.0
370
    -2
100
AcDbLine
 10
11905.22148434441
 20
4871.09316507562
 30
0.0
 11
12005.22148434441
 21
4871.09316507562
 31
0.0
  0
LINE
  5
1BB90
330
19E91
100
AcDbEntity
  8
寸法
 62
     0
 48
50.0
370
    -2
100
AcDbLine
 10
11845.22148434441
 20
4871.09316507562
 30
0.0
 11
11425.94589379323
 21
4871.09316507562
 31
0.0
  0
LINE
  5
1BB91
330
19E91
100
AcDbEntity
  8
寸法
 62
     0
 48
50.0
370
    -2
100
AcDbLine
 10
11905.22148434441
 20
4871.09316507562
 30
0.0
 11
11845.22148434441
 21
4871.09316507562
 31
0.0
  0
INSERT
  5
1BB92
330
19E91
100
AcDbEntity
  8
寸法
 62
     0
 48
50.0
370
    -2
100
AcDbBlockReference
  2
_DOTSMALL
 10
11905.22148434441
 20
4871.09316507562
 30
0.0
 41
100.0
 42
100.0
 43
100.0
 50
180.0
  0
INSERT
  5
1BB93
330
19E91
100
AcDbEntity
  8
寸法
 62
     0
 48
50.0
370
    -2
100
AcDbBlockReference
  2
_DOTSMALL
 10
11845.22148434441
 20
4871.09316507562
 30
0.0
 41
100.0
 42
100.0
 43
100.0
  0
MTEXT
  5
1BB94
330
19E91
100
AcDbEntity
  8
寸法
 62
     7
 48
50.0
100
AcDbMText
 10
11535.58368906882
 20
4971.093165075621
 30
0.0
 40
120.0
 41
0.0
 71
     5
 72
     1
  1
\A1;60
  7
STYLE1
 73
     1
 44
1.0
1001
ACAD
1000
MTEXTBEGIN
1070
    73
1070
     1
1070
    44
1040
1.0
1070
    74
1070
     0
1000
MTEXTEND
  0
POINT
  5
1BB95
330
19E91
100
AcDbEntity
  8
DEFPOINTS
 62
     0
 48
50.0
100
AcDbPoint
 10
11905.22148434441
 20
4468.437329619294
 30
0.0
  0
POINT
  5
1BB96
330
19E91
100
AcDbEntity
  8
DEFPOINTS
 62
     0
 48
50.0
100
AcDbPoint
 10
11845.22148434441
 20
4472.43571149632
 30
0.0
  0
POINT
  5
1BB97
330
19E91
100
AcDbEntity
  8
DEFPOINTS
 62
     0
 48
50.0
100
AcDbPoint
 10
11845.22148434441
 20
4871.09316507562
 30
0.0
  0
ENDBLK
  5
19E9E
330
19E91
100
AcDbEntity
  8
0
 48
50.0
100
AcDbBlockEnd
  0
BLOCK
  5
19EA9
330
19E9F
100
AcDbEntity
  8
0
 48
50.0
100
AcDbBlockBegin
  2
*D34
 70
     1
 10
0.0
 20
0.0
 30
0.0
  3
*D34
  1

  0
LINE
  5
1BB84
330
19E9F
100
AcDbEntity
  8
寸法
 62
     0
 48
50.0
370
    -2
100
AcDbLine
 10
15375.22148434441
 20
4439.246391107972
 30
0.0
 11
15375.22148434441
 21
4931.093165075623
 31
0.0
  0
LINE
  5
1BB85
330
19E9F
100
AcDbEntity
  8
寸法
 62
     0
 48
50.0
370
    -2
100
AcDbLine
 10
11905.22148434441
 20
4488.437329619293
 30
0.0
 11
11905.22148434441
 21
4931.093165075623
 31
0.0
  0
LINE
  5
1BB86
330
19E9F
100
AcDbEntity
  8
寸法
 62
     0
 48
50.0
370
    -2
100
AcDbLine
 10
15375.22148434441
 20
4871.093165075622
 30
0.0
 11
11905.22148434441
 21
4871.093165075622
 31
0.0
  0
INSERT
  5
1BB87
330
19E9F
100
AcDbEntity
  8
寸法
 62
     0
 48
50.0
370
    -2
100
AcDbBlockReference
  2
_DOTSMALL
 10
15375.22148434441
 20
4871.093165075622
 30
0.0
 41
100.0
 42
100.0
 43
100.0
  0
INSERT
  5
1BB88
330
19E9F
100
AcDbEntity
  8
寸法
 62
     0
 48
50.0
370
    -2
100
AcDbBlockReference
  2
_DOTSMALL
 10
11905.22148434441
 20
4871.093165075622
 30
0.0
 41
100.0
 42
100.0
 43
100.0
 50
180.0
  0
MTEXT
  5
1BB89
330
19E9F
100
AcDbEntity
  8
寸法
 62
     7
 48
50.0
100
AcDbMText
 10
13640.22148434441
 20
4971.093165075622
 30
0.0
 40
120.0
 41
0.0
 71
     5
 72
     1
  1
\A1;柱外寸法3470
  7
STYLE1
 73
     1
 44
1.0
1001
ACAD
1000
MTEXTBEGIN
1070
    73
1070
     1
1070
    44
1040
1.0
1070
    74
1070
     0
1000
MTEXTEND
  0
POINT
  5
1BB8A
330
19E9F
100
AcDbEntity
  8
DEFPOINTS
 62
     0
 48
50.0
100
AcDbPoint
 10
15375.22148434441
 20
4419.246391107972
 30
0.0
  0
POINT
  5
1BB8B
330
19E9F
100
AcDbEntity
  8
DEFPOINTS
 62
     0
 48
50.0
100
AcDbPoint
 10
11905.22148434441
 20
4468.437329619294
 30
0.0
  0
POINT
  5
1BB8C
330
19E9F
100
AcDbEntity
  8
DEFPOINTS
 62
     0
 48
50.0
100
AcDbPoint
 10
11905.22148434441
 20
4871.093165075622
 30
0.0
  0
ENDBLK
  5
19EAA
330
19E9F
100
AcDbEntity
  8
0
 48
50.0
100
AcDbBlockEnd
  0
BLOCK
  5
19EB7
330
19EAB
100
AcDbEntity
  8
0
 48
50.0
100
AcDbBlockBegin
  2
*D35
 70
     1
 10
0.0
 20
0.0
 30
0.0
  3
*D35
  1

  0
LINE
  5
1BB79
330
19EAB
100
AcDbEntity
  8
寸法
 62
     0
 48
50.0
370
    -2
100
AcDbLine
 10
11885.22148434441
 20
2447.435711496317
 30
0.0
 11
11001.47135516115
 21
2447.435711496317
 31
0.0
  0
LINE
  5
1BB7A
330
19EAB
100
AcDbEntity
  8
寸法
 62
     0
 48
50.0
370
    -2
100
AcDbLine
 10
11830.22148434441
 20
2397.435711496317
 30
0.0
 11
11001.47135516115
 21
2397.435711496317
 31
0.0
  0
LINE
  5
1BB7B
330
19EAB
100
AcDbEntity
  8
寸法
 62
     0
 48
50.0
370
    -2
100
AcDbLine
 10
11061.47135516115
 20
2447.435711496317
 30
0.0
 11
11061.47135516115
 21
2547.435711496317
 31
0.0
  0
LINE
  5
1BB7C
330
19EAB
100
AcDbEntity
  8
寸法
 62
     0
 48
50.0
370
    -2
100
AcDbLine
 10
11061.47135516115
 20
2397.435711496317
 30
0.0
 11
11061.47135516115
 21
1985.341223307336
 31
0.0
  0
LINE
  5
1BB7D
330
19EAB
100
AcDbEntity
  8
寸法
 62
     0
 48
50.0
370
    -2
100
AcDbLine
 10
11061.47135516115
 20
2447.435711496317
 30
0.0
 11
11061.47135516115
 21
2397.435711496317
 31
0.0
  0
INSERT
  5
1BB7E
330
19EAB
100
AcDbEntity
  8
寸法
 62
     0
 48
50.0
370
    -2
100
AcDbBlockReference
  2
_DOTSMALL
 10
11061.47135516115
 20
2447.435711496317
 30
0.0
 41
100.0
 42
100.0
 43
100.0
 50
270.0
  0
INSERT
  5
1BB7F
330
19EAB
100
AcDbEntity
  8
寸法
 62
     0
 48
50.0
370
    -2
100
AcDbBlockReference
  2
_DOTSMALL
 10
11061.47135516115
 20
2397.435711496317
 30
0.0
 41
100.0
 42
100.0
 43
100.0
 50
90.0
  0
MTEXT
  5
1BB80
330
19EAB
100
AcDbEntity
  8
寸法
 62
     7
 48
50.0
100
AcDbMText
 10
10961.47135516115
 20
2091.388467401826
 30
0.0
 40
120.0
 41
0.0
 71
     5
 72
     1
  1
\A1;50
  7
STYLE1
 11
0.0000000000000001
 21
1.0
 31
0.0
 73
     1
 44
1.0
1001
ACAD
1000
MTEXTBEGIN
1070
    73
1070
     1
1070
    44
1040
1.0
1070
    74
1070
     0
1000
MTEXTEND
  0
POINT
  5
1BB81
330
19EAB
100
AcDbEntity
  8
DEFPOINTS
 62
     0
 48
50.0
100
AcDbPoint
 10
11905.22148434441
 20
2447.435711496317
 30
0.0
  0
POINT
  5
1BB82
330
19EAB
100
AcDbEntity
  8
DEFPOINTS
 62
     0
 48
50.0
100
AcDbPoint
 10
11850.22148434441
 20
2397.435711496317
 30
0.0
  0
POINT
  5
1BB83
330
19EAB
100
AcDbEntity
  8
DEFPOINTS
 62
     0
 48
50.0
100
AcDbPoint
 10
11061.47135516115
 20
2397.435711496317
 30
0.0
  0
ENDBLK
  5
19EB8
330
19EAB
100
AcDbEntity
  8
0
 48
50.0
100
AcDbBlockEnd
  0
BLOCK
  5
19EC3
330
19EB9
100
AcDbEntity
  8
0
 48
50.0
100
AcDbBlockBegin
  2
*D36
 70
     1
 10
0.0
 20
0.0
 30
0.0
  3
*D36
  1

  0
LINE
  5
1BB70
330
19EB9
100
AcDbEntity
  8
寸法
 62
     0
 48
50.0
370
    -2
100
AcDbLine
 10
15395.22148434441
 20
2397.435711496319
 30
0.0
 11
16140.14864231653
 21
2397.435711496319
 31
0.0
  0
LINE
  5
1BB71
330
19EB9
100
AcDbEntity
  8
寸法
 62
     0
 48
50.0
370
    -2
100
AcDbLine
 10
15475.22148434441
 20
4417.435711496317
 30
0.0
 11
16140.14864231653
 21
4417.435711496317
 31
0.0
  0
LINE
  5
1BB72
330
19EB9
100
AcDbEntity
  8
寸法
 62
     0
 48
50.0
370
    -2
100
AcDbLine
 10
16080.14864231653
 20
2397.435711496319
 30
0.0
 11
16080.14864231653
 21
4417.435711496317
 31
0.0
  0
INSERT
  5
1BB73
330
19EB9
100
AcDbEntity
  8
寸法
 62
     0
 48
50.0
370
    -2
100
AcDbBlockReference
  2
_DOTSMALL
 10
16080.14864231653
 20
2397.435711496319
 30
0.0
 41
100.0
 42
100.0
 43
100.0
 50
270.0
  0
INSERT
  5
1BB74
330
19EB9
100
AcDbEntity
  8
寸法
 62
     0
 48
50.0
370
    -2
100
AcDbBlockReference
  2
_DOTSMALL
 10
16080.14864231653
 20
4417.435711496317
 30
0.0
 41
100.0
 42
100.0
 43
100.0
 50
90.0
  0
MTEXT
  5
1BB75
330
19EB9
100
AcDbEntity
  8
寸法
 62
     7
 48
50.0
100
AcDbMText
 10
15980.1368312929
 20
3407.435711496321
 30
0.0
 40
120.0
 41
0.0
 71
     5
 72
     1
  1
\A1;2020
  7
STYLE1
 11
0.0000000000000001
 21
1.0
 31
0.0
 73
     1
 44
1.0
1001
ACAD
1000
MTEXTBEGIN
1070
    73
1070
     1
1070
    44
1040
1.0
1070
    74
1070
     0
1000
MTEXTEND
  0
POINT
  5
1BB76
330
19EB9
100
AcDbEntity
  8
DEFPOINTS
 62
     0
 48
50.0
100
AcDbPoint
 10
15375.22148434441
 20
2397.435711496319
 30
0.0
  0
POINT
  5
1BB77
330
19EB9
100
AcDbEntity
  8
DEFPOINTS
 62
     0
 48
50.0
100
AcDbPoint
 10
15455.22148434441
 20
4417.435711496317
 30
0.0
  0
POINT
  5
1BB78
330
19EB9
100
AcDbEntity
  8
DEFPOINTS
 62
     0
 48
50.0
100
AcDbPoint
 10
16080.14864231653
 20
4417.435711496317
 30
0.0
  0
ENDBLK
  5
19EC4
330
19EB9
100
AcDbEntity
  8
0
 48
50.0
100
AcDbBlockEnd
  0
BLOCK
  5
19ECF
330
19EC5
100
AcDbEntity
  8
0
 48
50.0
100
AcDbBlockBegin
  2
*D37
 70
     1
 10
0.0
 20
0.0
 30
0.0
  3
*D37
  1

  0
LINE
  5
1BB67
330
19EC5
100
AcDbEntity
  8
寸法
 62
     0
 48
50.0
370
    -2
100
AcDbLine
 10
11885.22148434441
 20
2397.435711496312
 30
0.0
 11
10701.47135516114
 21
2397.435711496313
 31
0.0
  0
LINE
  5
1BB68
330
19EC5
100
AcDbEntity
  8
寸法
 62
     0
 48
50.0
370
    -2
100
AcDbLine
 10
11825.22148434441
 20
4472.435711496316
 30
0.0
 11
10701.47135516115
 21
4472.435711496316
 31
0.0
  0
LINE
  5
1BB69
330
19EC5
100
AcDbEntity
  8
寸法
 62
     0
 48
50.0
370
    -2
100
AcDbLine
 10
10761.47135516114
 20
2397.435711496313
 30
0.0
 11
10761.47135516115
 21
4472.435711496316
 31
0.0
  0
INSERT
  5
1BB6A
330
19EC5
100
AcDbEntity
  8
寸法
 62
     0
 48
50.0
370
    -2
100
AcDbBlockReference
  2
_DOTSMALL
 10
10761.47135516114
 20
2397.435711496313
 30
0.0
 41
100.0
 42
100.0
 43
100.0
 50
270.0
  0
INSERT
  5
1BB6B
330
19EC5
100
AcDbEntity
  8
寸法
 62
     0
 48
50.0
370
    -2
100
AcDbBlockReference
  2
_DOTSMALL
 10
10761.47135516115
 20
4472.435711496316
 30
0.0
 41
100.0
 42
100.0
 43
100.0
 50
90.0
  0
MTEXT
  5
1BB6C
330
19EC5
100
AcDbEntity
  8
寸法
 62
     7
 48
50.0
100
AcDbMText
 10
10661.45954413752
 20
3434.935711496317
 30
0.0
 40
120.0
 41
0.0
 71
     5
 72
     1
  1
\A1;2075
  7
STYLE1
 11
0.0000000000000001
 21
1.0
 31
0.0
 73
     1
 44
1.0
1001
ACAD
1000
MTEXTBEGIN
1070
    73
1070
     1
1070
    44
1040
1.0
1070
    74
1070
     0
1000
MTEXTEND
  0
POINT
  5
1BB6D
330
19EC5
100
AcDbEntity
  8
DEFPOINTS
 62
     0
 48
50.0
100
AcDbPoint
 10
11905.22148434441
 20
2397.435711496312
 30
0.0
  0
POINT
  5
1BB6E
330
19EC5
100
AcDbEntity
  8
DEFPOINTS
 62
     0
 48
50.0
100
AcDbPoint
 10
11845.22148434441
 20
4472.435711496316
 30
0.0
  0
POINT
  5
1BB6F
330
19EC5
100
AcDbEntity
  8
DEFPOINTS
 62
     0
 48
50.0
100
AcDbPoint
 10
10761.47135516115
 20
4472.435711496316
 30
0.0
  0
ENDBLK
  5
19ED0
330
19EC5
100
AcDbEntity
  8
0
 48
50.0
100
AcDbBlockEnd
  0
BLOCK
  5
19EDB
330
19ED1
100
AcDbEntity
  8
0
 48
50.0
100
AcDbBlockBegin
  2
*D38
 70
     1
 10
0.0
 20
0.0
 30
0.0
  3
*D38
  1

  0
LINE
  5
1BB5E
330
19ED1
100
AcDbEntity
  8
寸法
 62
     0
 48
50.0
370
    -2
100
AcDbLine
 10
11885.22148434441
 20
4237.435711496313
 30
0.0
 11
11001.47135516115
 21
4237.435711496313
 31
0.0
  0
LINE
  5
1BB5F
330
19ED1
100
AcDbEntity
  8
寸法
 62
     0
 48
50.0
370
    -2
100
AcDbLine
 10
11885.22148434441
 20
2447.435711496313
 30
0.0
 11
11001.47135516115
 21
2447.435711496313
 31
0.0
  0
LINE
  5
1BB60
330
19ED1
100
AcDbEntity
  8
寸法
 62
     0
 48
50.0
370
    -2
100
AcDbLine
 10
11061.47135516115
 20
4237.435711496313
 30
0.0
 11
11061.47135516115
 21
2447.435711496313
 31
0.0
  0
INSERT
  5
1BB61
330
19ED1
100
AcDbEntity
  8
寸法
 62
     0
 48
50.0
370
    -2
100
AcDbBlockReference
  2
_DOTSMALL
 10
11061.47135516115
 20
4237.435711496313
 30
0.0
 41
100.0
 42
100.0
 43
100.0
 50
90.0
  0
INSERT
  5
1BB62
330
19ED1
100
AcDbEntity
  8
寸法
 62
     0
 48
50.0
370
    -2
100
AcDbBlockReference
  2
_DOTSMALL
 10
11061.47135516115
 20
2447.435711496313
 30
0.0
 41
100.0
 42
100.0
 43
100.0
 50
270.0
  0
MTEXT
  5
1BB63
330
19ED1
100
AcDbEntity
  8
寸法
 62
     7
 48
50.0
100
AcDbMText
 10
10961.47135516115
 20
3342.435711496315
 30
0.0
 40
120.0
 41
0.0
 71
     5
 72
     1
  1
\A1;1790
  7
STYLE1
 11
0.0000000000000001
 21
1.0
 31
0.0
 73
     1
 44
1.0
1001
ACAD
1000
MTEXTBEGIN
1070
    73
1070
     1
1070
    44
1040
1.0
1070
    74
1070
     0
1000
MTEXTEND
  0
POINT
  5
1BB64
330
19ED1
100
AcDbEntity
  8
DEFPOINTS
 62
     0
 48
50.0
100
AcDbPoint
 10
11905.22148434441
 20
4237.435711496313
 30
0.0
  0
POINT
  5
1BB65
330
19ED1
100
AcDbEntity
  8
DEFPOINTS
 62
     0
 48
50.0
100
AcDbPoint
 10
11905.22148434441
 20
2447.435711496313
 30
0.0
  0
POINT
  5
1BB66
330
19ED1
100
AcDbEntity
  8
DEFPOINTS
 62
     0
 48
50.0
100
AcDbPoint
 10
11061.47135516115
 20
2447.435711496313
 30
0.0
  0
ENDBLK
  5
19EDC
330
19ED1
100
AcDbEntity
  8
0
 48
50.0
100
AcDbBlockEnd
  0
BLOCK
  5
1A635
330
1A62B
100
AcDbEntity
  8
0
 48
50.0
100
AcDbBlockBegin
  2
*D39
 70
     1
 10
0.0
 20
0.0
 30
0.0
  3
*D39
  1

  0
LINE
  5
1BC71
330
1A62B
100
AcDbEntity
  8
寸法
 62
     0
 48
50.0
370
    -2
100
AcDbLine
 10
9339.673057123658
 20
2397.435711496317
 30
0.0
 11
9667.216159445402
 21
2397.435711496317
 31
0.0
  0
LINE
  5
1BC72
330
1A62B
100
AcDbEntity
  8
寸法
 62
     0
 48
50.0
370
    -2
100
AcDbLine
 10
9339.673057123658
 20
4045.435711496317
 30
0.0
 11
9667.216159445402
 21
4045.435711496317
 31
0.0
  0
LINE
  5
1BC73
330
1A62B
100
AcDbEntity
  8
寸法
 62
     0
 48
50.0
370
    -2
100
AcDbLine
 10
9607.216159445401
 20
2397.435711496317
 30
0.0
 11
9607.216159445401
 21
4045.435711496317
 31
0.0
  0
INSERT
  5
1BC74
330
1A62B
100
AcDbEntity
  8
寸法
 62
     0
 48
50.0
370
    -2
100
AcDbBlockReference
  2
_DOTSMALL
 10
9607.216159445401
 20
2397.435711496317
 30
0.0
 41
100.0
 42
100.0
 43
100.0
 50
270.0
  0
INSERT
  5
1BC75
330
1A62B
100
AcDbEntity
  8
寸法
 62
     0
 48
50.0
370
    -2
100
AcDbBlockReference
  2
_DOTSMALL
 10
9607.216159445401
 20
4045.435711496317
 30
0.0
 41
100.0
 42
100.0
 43
100.0
 50
90.0
  0
MTEXT
  5
1BC76
330
1A62B
100
AcDbEntity
  8
寸法
 62
     7
 48
50.0
100
AcDbMText
 10
9507.216159445402
 20
3221.435711496319
 30
0.0
 40
120.0
 41
0.0
 71
     5
 72
     1
  1
\A1;有効開口部高サ 1648
  7
STYLE1
 11
0.0000000000000001
 21
1.0
 31
0.0
 73
     1
 44
1.0
1001
ACAD
1000
MTEXTBEGIN
1070
    73
1070
     1
1070
    44
1040
1.0
1070
    74
1070
     0
1000
MTEXTEND
  0
POINT
  5
1BC77
330
1A62B
100
AcDbEntity
  8
DEFPOINTS
 62
     0
 48
50.0
100
AcDbPoint
 10
9319.673057123656
 20
2397.435711496317
 30
0.0
  0
POINT
  5
1BC78
330
1A62B
100
AcDbEntity
  8
DEFPOINTS
 62
     0
 48
50.0
100
AcDbPoint
 10
9319.673057123656
 20
4045.435711496317
 30
0.0
  0
POINT
  5
1BC79
330
1A62B
100
AcDbEntity
  8
DEFPOINTS
 62
     0
 48
50.0
100
AcDbPoint
 10
9607.216159445401
 20
4045.435711496317
 30
0.0
  0
ENDBLK
  5
1A636
330
1A62B
100
AcDbEntity
  8
0
 48
50.0
100
AcDbBlockEnd
  0
BLOCK
  5
1A643
330
1A637
100
AcDbEntity
  8
0
 48
50.0
100
AcDbBlockBegin
  2
*D40
 70
     1
 10
0.0
 20
0.0
 30
0.0
  3
*D40
  1

  0
LINE
  5
1BF60
330
1A637
100
AcDbEntity
  8
寸法
 62
     0
 48
50.0
370
    -2
100
AcDbLine
 10
9339.673057123658
 20
4045.435711496317
 30
0.0
 11
9667.216159445402
 21
4045.435711496317
 31
0.0
  0
LINE
  5
1BF61
330
1A637
100
AcDbEntity
  8
寸法
 62
     0
 48
50.0
370
    -2
100
AcDbLine
 10
9339.673057123654
 20
4072.435711496317
 30
0.0
 11
9667.216159445402
 21
4072.435711496317
 31
0.0
  0
LINE
  5
1BF62
330
1A637
100
AcDbEntity
  8
寸法
 62
     0
 48
50.0
370
    -2
100
AcDbLine
 10
9607.216159445401
 20
4045.435711496317
 30
0.0
 11
9607.216159445401
 21
3945.435711496318
 31
0.0
  0
LINE
  5
1BF63
330
1A637
100
AcDbEntity
  8
寸法
 62
     0
 48
50.0
370
    -2
100
AcDbLine
 10
9607.216159445401
 20
4072.435711496317
 30
0.0
 11
9607.216159445403
 21
4172.435711496317
 31
0.0
  0
MTEXT
  5
1BF64
330
1A637
100
AcDbEntity
  8
寸法
 62
     7
 48
50.0
100
AcDbMText
 10
9747.385982691771
 20
4073.402911335976
 30
0.0
 40
120.0
 41
0.0
 71
     5
 72
     1
  1
\A1;27
  7
STYLE1
 11
0.0000000000000001
 21
1.0
 31
0.0
 73
     1
 44
1.0
1001
ACAD
1000
MTEXTBEGIN
1070
    73
1070
     1
1070
    44
1040
1.0
1070
    74
1070
     0
1000
MTEXTEND
  0
LINE
  5
1BF65
330
1A637
100
AcDbEntity
  8
寸法
 62
     0
 48
50.0
370
    -2
100
AcDbLine
 10
9607.216159445401
 20
4045.435711496317
 30
0.0
 11
9607.216159445401
 21
4072.435711496317
 31
0.0
  0
INSERT
  5
1BF66
330
1A637
100
AcDbEntity
  8
寸法
 62
     0
 48
50.0
370
    -2
100
AcDbBlockReference
  2
_DOTSMALL
 10
9607.216159445401
 20
4045.435711496317
 30
0.0
 41
100.0
 42
100.0
 43
100.0
 50
90.0
  0
INSERT
  5
1BF67
330
1A637
100
AcDbEntity
  8
寸法
 62
     0
 48
50.0
370
    -2
100
AcDbBlockReference
  2
_DOTSMALL
 10
9607.216159445401
 20
4072.435711496317
 30
0.0
 41
100.0
 42
100.0
 43
100.0
 50
270.0
  0
POINT
  5
1BF68
330
1A637
100
AcDbEntity
  8
DEFPOINTS
 62
     0
 48
50.0
100
AcDbPoint
 10
9319.673057123656
 20
4045.435711496317
 30
0.0
  0
POINT
  5
1BF69
330
1A637
100
AcDbEntity
  8
DEFPOINTS
 62
     0
 48
50.0
100
AcDbPoint
 10
9319.673057123656
 20
4072.435711496317
 30
0.0
  0
POINT
  5
1BF6A
330
1A637
100
AcDbEntity
  8
DEFPOINTS
 62
     0
 48
50.0
100
AcDbPoint
 10
9607.216159445401
 20
4072.435711496317
 30
0.0
  0
ENDBLK
  5
1A644
330
1A637
100
AcDbEntity
  8
0
 48
50.0
100
AcDbBlockEnd
  0
BLOCK
  5
1A650
330
1A645
100
AcDbEntity
  8
0
 48
50.0
100
AcDbBlockBegin
  2
*D41
 70
     1
 10
0.0
 20
0.0
 30
0.0
  3
*D41
  1

  0
LINE
  5
1BF56
330
1A645
100
AcDbEntity
  8
寸法
 62
     0
 48
50.0
370
    -2
100
AcDbLine
 10
9339.673057123654
 20
4072.435711496317
 30
0.0
 11
9667.216159445402
 21
4072.435711496317
 31
0.0
  0
LINE
  5
1BF57
330
1A645
100
AcDbEntity
  8
寸法
 62
     0
 48
50.0
370
    -2
100
AcDbLine
 10
9339.673057123658
 20
4237.435711496316
 30
0.0
 11
9667.216159445402
 21
4237.435711496316
 31
0.0
  0
LINE
  5
1BF58
330
1A645
100
AcDbEntity
  8
寸法
 62
     0
 48
50.0
370
    -2
100
AcDbLine
 10
9607.216159445401
 20
4072.435711496317
 30
0.0
 11
9607.216159445403
 21
4237.435711496316
 31
0.0
  0
LINE
  5
1BF59
330
1A645
100
AcDbEntity
  8
寸法
 62
     0
 48
50.0
370
    -2
100
AcDbLine
 10
9607.216159445403
 20
4237.435711496316
 30
0.0
 11
9607.216159445403
 21
4614.406274244794
 31
0.0
  0
INSERT
  5
1BF5A
330
1A645
100
AcDbEntity
  8
寸法
 62
     0
 48
50.0
370
    -2
100
AcDbBlockReference
  2
_DOTSMALL
 10
9607.216159445401
 20
4072.435711496317
 30
0.0
 41
100.0
 42
100.0
 43
100.0
 50
270.0
  0
INSERT
  5
1BF5B
330
1A645
100
AcDbEntity
  8
寸法
 62
     0
 48
50.0
370
    -2
100
AcDbBlockReference
  2
_DOTSMALL
 10
9607.216159445403
 20
4237.435711496316
 30
0.0
 41
100.0
 42
100.0
 43
100.0
 50
90.0
  0
MTEXT
  5
1BF5C
330
1A645
100
AcDbEntity
  8
寸法
 62
     7
 48
50.0
100
AcDbMText
 10
9507.216159445402
 20
4475.920992870555
 30
0.0
 40
120.0
 41
0.0
 71
     5
 72
     1
  1
\A1;165
  7
STYLE1
 11
0.0000000000000001
 21
1.0
 31
0.0
 73
     1
 44
1.0
1001
ACAD
1000
MTEXTBEGIN
1070
    73
1070
     1
1070
    44
1040
1.0
1070
    74
1070
     0
1000
MTEXTEND
  0
POINT
  5
1BF5D
330
1A645
100
AcDbEntity
  8
DEFPOINTS
 62
     0
 48
50.0
100
AcDbPoint
 10
9319.673057123656
 20
4072.435711496317
 30
0.0
  0
POINT
  5
1BF5E
330
1A645
100
AcDbEntity
  8
DEFPOINTS
 62
     0
 48
50.0
100
AcDbPoint
 10
9319.673057123656
 20
4237.435711496316
 30
0.0
  0
POINT
  5
1BF5F
330
1A645
100
AcDbEntity
  8
DEFPOINTS
 62
     0
 48
50.0
100
AcDbPoint
 10
9607.216159445403
 20
4237.435711496316
 30
0.0
  0
ENDBLK
  5
1A651
330
1A645
100
AcDbEntity
  8
0
 48
50.0
100
AcDbBlockEnd
  0
BLOCK
  5
1BA42
330
1BA1E
100
AcDbEntity
  8
0
 48
50.0
100
AcDbBlockBegin
  2
A$C559B7BF4
 70
     0
 10
0.0
 20
0.0
 30
0.0
  3
A$C559B7BF4
  1

  0
LINE
  5
1BA1F
330
1BA1E
100
AcDbEntity
  8
細線
 48
50.0
100
AcDbLine
 10
-300.0000000000018
 20
-1097.499999999999
 30
0.0
 11
-200.0000000000018
 21
-1097.499999999999
 31
0.0
  0
LINE
  5
1BA20
330
1BA1E
100
AcDbEntity
  8
細線
 48
50.0
100
AcDbLine
 10
-200.0000000000018
 20
-1127.499999999999
 30
0.0
 11
-300.0000000000018
 21
-1127.499999999999
 31
0.0
  0
LINE
  5
1BA21
330
1BA1E
100
AcDbEntity
  8
細線
100
AcDbLine
 10
-1002.000000000003
 20
-1144.999999999999
 30
0.0
 11
1001.999999999998
 21
-1144.999999999999
 31
0.0
  0
LINE
  5
1BA22
330
1BA1E
100
AcDbEntity
  8
細線
100
AcDbLine
 10
-1002.000000000003
 20
-1209.999999999999
 30
0.0
 11
1001.999999999998
 21
-1209.999999999999
 31
0.0
  0
LINE
  5
1BA23
330
1BA1E
100
AcDbEntity
  8
細線
100
AcDbLine
 10
-1002.000000000003
 20
-1274.999999999999
 30
0.0
 11
1001.999999999998
 21
-1274.999999999999
 31
0.0
  0
LINE
  5
1BA24
330
1BA1E
100
AcDbEntity
  8
細線
100
AcDbLine
 10
-1002.000000000003
 20
-1339.999999999999
 30
0.0
 11
1001.999999999998
 21
-1339.999999999999
 31
0.0
  0
LINE
  5
1BA25
330
1BA1E
100
AcDbEntity
  8
細線
100
AcDbLine
 10
-1002.000000000003
 20
-1404.999999999999
 30
0.0
 11
1001.999999999998
 21
-1404.999999999999
 31
0.0
  0
LINE
  5
1BA26
330
1BA1E
100
AcDbEntity
  8
細線
100
AcDbLine
 10
-1002.000000000003
 20
-1469.999999999999
 30
0.0
 11
1001.999999999998
 21
-1469.999999999999
 31
0.0
  0
LINE
  5
1BA27
330
1BA1E
100
AcDbEntity
  8
細線
100
AcDbLine
 10
-1002.000000000003
 20
-1534.999999999999
 30
0.0
 11
1001.999999999998
 21
-1534.999999999999
 31
0.0
  0
LINE
  5
1BA28
330
1BA1E
100
AcDbEntity
  8
細線
100
AcDbLine
 10
-1002.000000000003
 20
-1599.999999999999
 30
0.0
 11
1001.999999999998
 21
-1599.999999999999
 31
0.0
  0
LINE
  5
1BA29
330
1BA1E
100
AcDbEntity
  8
細線
100
AcDbLine
 10
-1002.000000000003
 20
-494.9999999999995
 30
0.0
 11
1001.999999999998
 21
-494.9999999999995
 31
0.0
  0
LINE
  5
1BA2A
330
1BA1E
100
AcDbEntity
  8
細線
100
AcDbLine
 10
-1002.000000000003
 20
-559.9999999999995
 30
0.0
 11
1001.999999999998
 21
-559.9999999999995
 31
0.0
  0
LINE
  5
1BA2B
330
1BA1E
100
AcDbEntity
  8
細線
100
AcDbLine
 10
-1002.000000000003
 20
-624.9999999999995
 30
0.0
 11
1001.999999999998
 21
-624.9999999999995
 31
0.0
  0
LINE
  5
1BA2C
330
1BA1E
100
AcDbEntity
  8
細線
100
AcDbLine
 10
-1002.000000000003
 20
-689.9999999999995
 30
0.0
 11
1001.999999999998
 21
-689.9999999999995
 31
0.0
  0
LINE
  5
1BA2D
330
1BA1E
100
AcDbEntity
  8
細線
100
AcDbLine
 10
-1002.000000000003
 20
-754.9999999999995
 30
0.0
 11
1001.999999999998
 21
-754.9999999999995
 31
0.0
  0
LINE
  5
1BA2E
330
1BA1E
100
AcDbEntity
  8
細線
100
AcDbLine
 10
-1002.000000000003
 20
-819.9999999999995
 30
0.0
 11
1001.999999999998
 21
-819.9999999999995
 31
0.0
  0
LINE
  5
1BA2F
330
1BA1E
100
AcDbEntity
  8
細線
100
AcDbLine
 10
-1002.000000000003
 20
-884.9999999999996
 30
0.0
 11
1001.999999999998
 21
-884.9999999999996
 31
0.0
  0
LINE
  5
1BA30
330
1BA1E
100
AcDbEntity
  8
細線
100
AcDbLine
 10
-1002.000000000003
 20
-949.9999999999996
 30
0.0
 11
1001.999999999998
 21
-949.9999999999996
 31
0.0
  0
LINE
  5
1BA31
330
1BA1E
100
AcDbEntity
  8
細線
100
AcDbLine
 10
-1002.000000000003
 20
-1014.999999999999
 30
0.0
 11
1001.999999999998
 21
-1014.999999999999
 31
0.0
  0
LINE
  5
1BA32
330
1BA1E
100
AcDbEntity
  8
細線
100
AcDbLine
 10
-1002.000000000003
 20
-1079.999999999999
 30
0.0
 11
1001.999999999998
 21
-1079.999999999999
 31
0.0
  0
LINE
  5
1BA33
330
1BA1E
100
AcDbEntity
  8
細線
100
AcDbLine
 10
-1002.000000000003
 20
-105.0
 30
0.0
 11
1001.999999999998
 21
-105.0
 31
0.0
  0
LINE
  5
1BA34
330
1BA1E
100
AcDbEntity
  8
細線
100
AcDbLine
 10
-1002.000000000003
 20
-169.9999999999995
 30
0.0
 11
1001.999999999998
 21
-169.9999999999995
 31
0.0
  0
LINE
  5
1BA35
330
1BA1E
100
AcDbEntity
  8
細線
100
AcDbLine
 10
-1002.000000000003
 20
-234.9999999999996
 30
0.0
 11
1001.999999999998
 21
-234.9999999999996
 31
0.0
  0
LINE
  5
1BA36
330
1BA1E
100
AcDbEntity
  8
細線
100
AcDbLine
 10
-1002.000000000003
 20
-299.9999999999996
 30
0.0
 11
1001.999999999998
 21
-299.9999999999996
 31
0.0
  0
LINE
  5
1BA37
330
1BA1E
100
AcDbEntity
  8
細線
100
AcDbLine
 10
-1002.000000000003
 20
-364.9999999999995
 30
0.0
 11
1001.999999999998
 21
-364.9999999999995
 31
0.0
  0
LINE
  5
1BA38
330
1BA1E
100
AcDbEntity
  8
細線
100
AcDbLine
 10
-1002.000000000003
 20
-429.9999999999995
 30
0.0
 11
1001.999999999998
 21
-429.9999999999995
 31
0.0
  0
LINE
  5
1BA39
330
1BA1E
100
AcDbEntity
  8
細線
100
AcDbLine
 10
-1002.000000000003
 20
-40.0
 30
0.0
 11
1001.999999999998
 21
-40.0
 31
0.0
  0
ARC
  5
1BA3A
330
1BA1E
100
AcDbEntity
  8
細線
 48
50.0
100
AcDbCircle
 10
-300.0000000000018
 20
-1112.499999999999
 30
0.0
 40
15.0
100
AcDbArc
 50
90.0
 51
270.0
  0
ARC
  5
1BA3B
330
1BA1E
100
AcDbEntity
  8
細線
 48
50.0
100
AcDbCircle
 10
-200.0000000000018
 20
-1112.499999999999
 30
0.0
 40
15.0
100
AcDbArc
 50
270.0
 51
90.0
  0
LINE
  5
1BA3C
330
1BA1E
100
AcDbEntity
  8
細線
 48
50.0
100
AcDbLine
 10
299.9999999999982
 20
-1127.499999999999
 30
0.0
 11
199.9999999999982
 21
-1127.499999999999
 31
0.0
  0
LINE
  5
1BA3D
330
1BA1E
100
AcDbEntity
  8
細線
 48
50.0
100
AcDbLine
 10
199.9999999999982
 20
-1097.499999999999
 30
0.0
 11
299.9999999999982
 21
-1097.499999999999
 31
0.0
  0
ARC
  5
1BA3E
330
1BA1E
100
AcDbEntity
  8
細線
 48
50.0
100
AcDbCircle
 10
199.9999999999982
 20
-1112.499999999999
 30
0.0
 40
15.0
100
AcDbArc
 50
90.0
 51
270.0
  0
ARC
  5
1BA3F
330
1BA1E
100
AcDbEntity
  8
細線
 48
50.0
100
AcDbCircle
 10
299.9999999999982
 20
-1112.499999999999
 30
0.0
 40
15.0
100
AcDbArc
 50
270.0
 51
90.0
  0
CIRCLE
  5
1BA40
330
1BA1E
100
AcDbEntity
  8
細線
 48
50.0
100
AcDbCircle
 10
-0.000000000001819
 20
-787.4999999999995
 30
0.0
 40
18.0
  0
LINE
  5
1BA41
330
1BA1E
100
AcDbEntity
  8
細線
100
AcDbLine
 10
1002.0
 20
-1664.999999999999
 30
0.0
 11
-1002.000000000005
 21
-1664.999999999999
 31
0.0
  0
ENDBLK
  5
1BA43
330
1BA1E
100
AcDbEntity
  8
0
 48
50.0
100
AcDbBlockEnd
  0
ENDSEC
  0
SECTION
  2
ENTITIES
  0
MTEXT
  5
763F
330
747D
100
AcDbEntity
  8
0
100
AcDbMText
 10
302.846345836809
 20
280.1983726409901
 30
0.0
 40
3.5
 41
5.323721266742722
 71
     1
 72
     5
  1

  7
MSMINCHO
 73
     1
 44
1.0
1001
ACAD
1000
MTEXTBEGIN
1070
    73
1070
     1
1070
    44
1040
1.0
1070
    74
1070
     0
1000
MTEXTEND
  0
LINE
  5
10B57
330
747D
100
AcDbEntity
  8
補助
  6
PHANTOM
 62
   230
 48
50.0
100
AcDbLine
 10
139.9999999999995
 20
11409.6
 30
0.0
 11
16307.2
 21
11409.6
 31
0.0
  0
LINE
  5
10B59
330
747D
100
AcDbEntity
  8
仕様書枠
  6
Continuous
 48
50.0
100
AcDbLine
 10
13107.2
 20
1200.0
 30
0.0
 11
13107.2
 21
-0.0000000000000729
 31
0.0
  0
LINE
  5
10B5C
330
747D
100
AcDbEntity
  8
仕様書枠
 48
50.0
100
AcDbLine
 10
16307.2
 20
1200.0
 30
0.0
 11
16307.2
 21
-0.0000000000000909
 31
0.0
  0
LINE
  5
10B5D
330
747D
100
AcDbEntity
  8
仕様書枠
 48
50.0
100
AcDbLine
 10
140.0
 20
0.0
 30
0.0
 11
16307.2
 21
-0.0000000000000909
 31
0.0
  0
LINE
  5
10B5E
330
747D
100
AcDbEntity
  8
補助
  6
PHANTOM
 62
   230
 48
50.0
100
AcDbLine
 10
16307.2
 20
11409.6
 30
0.0
 11
16307.2
 21
1200.0
 31
0.0
  0
LINE
  5
10B6C
330
747D
100
AcDbEntity
  8
仕様書枠
 48
50.0
100
AcDbLine
 10
13107.2
 20
1200.0
 30
0.0
 11
16307.2
 21
1200.0
 31
0.0
  0
LINE
  5
10B6D
330
747D
100
AcDbEntity
  8
補助
  6
PHANTOM
 62
   230
 48
50.0
100
AcDbLine
 10
13107.2
 20
11409.6
 30
0.0
 11
13107.2
 21
4800.0
 31
0.0
  0
LINE
  5
10B6F
330
747D
100
AcDbEntity
  8
補助
  6
PHANTOM
 62
   230
 48
50.0
100
AcDbLine
 10
13107.2
 20
4800.0
 30
0.0
 11
16307.2
 21
4800.0
 31
0.0
  0
LINE
  5
10B72
330
747D
100
AcDbEntity
  8
文字
 62
     7
 48
50.0
100
AcDbLine
 10
13187.2
 20
400.0
 30
0.0
 11
16227.2
 21
400.0
 31
0.0
  0
TEXT
  5
10B73
330
747D
100
AcDbEntity
  8
文字
 62
     7
 48
50.0
100
AcDbText
 10
13162.9790565769
 20
895.0906074299405
 30
0.0
 40
200.0
  1
外 形 図
  7
STYLE2
100
AcDbText
  0
TEXT
  5
10B74
330
747D
100
AcDbEntity
  8
文字
 62
     7
 48
50.0
100
AcDbText
 10
13201.43669998441
 20
477.2740661031255
 30
0.0
 40
160.0
  1
機種名
  7
STYLE2
100
AcDbText
  0
TEXT
  5
10B75
330
747D
100
AcDbEntity
  8
文字
 62
     7
 48
50.0
100
AcDbText
 10
13209.4053442172
 20
228.5435242569016
 30
0.0
 40
100.0
  1
○有効開口寸法 ： 2424×1648(mm)
  7
STYLE2
100
AcDbText
  0
TEXT
  5
10B76
330
747D
100
AcDbEntity
  8
文字
 62
     7
 48
50.0
100
AcDbText
 10
13209.4053442172
 20
76.09434707649343
 30
0.0
 40
100.0
  1
○床面積 ： Ｎ［連続数］×9.13㎡(2.77坪)
  7
STYLE2
100
AcDbText
  0
TEXT
  5
10B79
330
747D
100
AcDbEntity
  8
文字
 62
     7
 48
50.0
100
AcDbText
 10
14524.131837222
 20
1031.557706291228
 30
0.0
 40
100.0
  1
NO.57      <縮尺> S=1/40
  7
STYLE2
100
AcDbText
  0
LINE
  5
10B7B
330
747D
100
AcDbEntity
  8
仕様書枠
 48
50.0
100
AcDbLine
 10
13107.2
 20
800.0
 30
0.0
 11
14251.2
 21
800.0
 31
0.0
  0
LINE
  5
10B88
330
747D
100
AcDbEntity
  8
仕様書枠
  6
Continuous
 48
50.0
100
AcDbLine
 10
14251.2
 20
1200.0
 30
0.0
 11
14251.2
 21
800.0
 31
0.0
  0
LINE
  5
127A8
330
747D
100
AcDbEntity
  8
部品1
100
AcDbLine
 10
440.903465777274
 20
2427.339522063981
 30
0.0
 11
590.9034657772728
 21
2427.339522063981
 31
0.0
  0
LINE
  5
127A9
330
747D
100
AcDbEntity
  8
部品1
100
AcDbLine
 10
515.9034657772728
 20
2297.435711496317
 30
0.0
 11
440.903465777274
 21
2427.339522063981
 31
0.0
  0
TEXT
  5
127AA
330
747D
100
AcDbEntity
  8
部品1
100
AcDbText
 10
619.0084079020468
 20
2333.542615102218
 30
0.0
 40
125.0
  1
G.L
  7
MSGOTHIC
100
AcDbText
  0
LINE
  5
127AB
330
747D
100
AcDbEntity
  8
部品1
100
AcDbLine
 10
590.9034657772728
 20
2427.339522063981
 30
0.0
 11
515.9034657772728
 21
2297.435711496317
 31
0.0
  0
LINE
  5
13C1F
330
747D
100
AcDbEntity
  8
部品1
100
AcDbLine
 10
1429.673057123657
 20
4331.435711496323
 30
0.0
 11
1429.673057123657
 21
2297.435711496317
 31
0.0
  0
LINE
  5
13CFC
330
747D
100
AcDbEntity
  8
部品1
100
AcDbLine
 10
9264.673057123655
 20
4072.435711496319
 30
0.0
 11
9264.673057123653
 21
2397.435711496317
 31
0.0
  0
LINE
  5
13CFE
330
747D
100
AcDbEntity
  8
部品1
100
AcDbLine
 10
1484.673057123657
 20
4072.435711496317
 30
0.0
 11
1484.673057123657
 21
2397.435711496317
 31
0.0
  0
LINE
  5
13D18
330
747D
100
AcDbEntity
  8
部品1
100
AcDbLine
 10
9319.673057123656
 20
4331.435711496321
 30
0.0
 11
9319.673057123656
 21
2297.435711496317
 31
0.0
  0
LINE
  5
146B2
330
747D
100
AcDbEntity
  8
破線
 48
5.0
100
AcDbLine
 10
9319.673057123656
 20
2297.435711496317
 30
0.0
 11
9319.673057123656
 21
2047.435711496317
 31
0.0
  0
LINE
  5
146B3
330
747D
100
AcDbEntity
  8
破線
 48
5.0
100
AcDbLine
 10
1429.673057123657
 20
2297.435711496317
 30
0.0
 11
1429.673057123655
 21
2047.435711496317
 31
0.0
  0
TEXT
  5
149A1
330
747D
100
AcDbEntity
  8
部品1
100
AcDbText
 10
5083.463127747398
 20
1454.542182277793
 30
0.0
 40
135.0
  1
正面図
  7
MSGOTHIC
100
AcDbText
  0
LWPOLYLINE
  5
149A2
330
747D
100
AcDbEntity
  8
部品1
100
AcDbPolyline
 90
        4
 70
     1
 43
0.0
 10
4992.937724009443
 20
1647.435711496317
 10
4992.937724009443
 20
1407.543389950785
 10
5756.408390237883
 20
1407.543389950785
 10
5756.408390237883
 20
1647.435711496317
  0
TEXT
  5
14E88
330
747D
100
AcDbEntity
  8
部品1
100
AcDbText
 10
5082.857333838481
 20
5527.4553661511
 30
0.0
 40
135.0
  1
平面図
  7
MSGOTHIC
100
AcDbText
  0
LWPOLYLINE
  5
14E89
330
747D
100
AcDbEntity
  8
部品1
100
AcDbPolyline
 90
        4
 70
     1
 43
0.0
 10
4992.937724009443
 20
5720.348895369621
 10
4992.937724009443
 20
5480.456573824088
 10
5756.408390237883
 20
5480.456573824088
 10
5756.408390237883
 20
5720.348895369621
  0
TEXT
  5
15550
330
747D
100
AcDbEntity
  8
文字
 62
     7
 48
50.0
100
AcDbText
 10
14938.61930330734
 20
871.9640646083622
 30
0.0
 40
100.0
  1
～一般型～
  7
STYLE2
100
AcDbText
  0
LINE
  5
15CE5
330
747D
100
AcDbEntity
  8
破線
 48
5.0
100
AcDbLine
 10
9264.673057123653
 20
2397.435711496317
 30
0.0
 11
9264.673057123657
 21
2047.435711496317
 31
0.0
  0
LINE
  5
15CE6
330
747D
100
AcDbEntity
  8
破線
 48
5.0
100
AcDbLine
 10
1484.673057123657
 20
2397.435711496317
 30
0.0
 11
1484.673057123655
 21
2047.435711496317
 31
0.0
  0
LINE
  5
15CE7
330
747D
100
AcDbEntity
  8
破線
 48
5.0
100
AcDbLine
 10
9319.673057123653
 20
2047.435711496317
 30
0.0
 11
9264.673057123657
 21
2047.435711496317
 31
0.0
  0
LINE
  5
15CE8
330
747D
100
AcDbEntity
  8
破線
 48
5.0
100
AcDbLine
 10
1484.673057123655
 20
2047.435711496324
 30
0.0
 11
1429.673057123655
 21
2047.435711496324
 31
0.0
  0
LINE
  5
15CE9
330
747D
100
AcDbEntity
  8
部品1
100
AcDbLine
 10
1532.673057123657
 20
4072.435711496317
 30
0.0
 11
1532.673057123657
 21
2397.435711496317
 31
0.0
  0
LINE
  5
15CEA
330
747D
100
AcDbEntity
  8
破線
 48
5.0
100
AcDbLine
 10
1532.673057123657
 20
2397.435711496317
 30
0.0
 11
1532.673057123655
 21
2147.435711496322
 31
0.0
  0
LINE
  5
15CEB
330
747D
100
AcDbEntity
  8
部品1
100
AcDbLine
 10
9216.673057123658
 20
4072.435711496317
 30
0.0
 11
9216.673057123653
 21
2397.435711496317
 31
0.0
  0
LINE
  5
15CEC
330
747D
100
AcDbEntity
  8
破線
 48
5.0
100
AcDbLine
 10
9216.673057123653
 20
2397.435711496317
 30
0.0
 11
9216.673057123655
 21
2147.435711496317
 31
0.0
  0
LINE
  5
15CED
330
747D
100
AcDbEntity
  8
破線
 48
5.0
100
AcDbLine
 10
9264.673057123658
 20
2147.435711496317
 30
0.0
 11
9216.673057123658
 21
2147.435711496317
 31
0.0
  0
LINE
  5
15CEE
330
747D
100
AcDbEntity
  8
破線
 48
5.0
100
AcDbLine
 10
1532.673057123655
 20
2147.435711496322
 30
0.0
 11
1484.673057123655
 21
2147.435711496322
 31
0.0
  0
DIMENSION
  5
162CD
330
747D
100
AcDbEntity
  8
寸法
100
AcDbDimension
  2
*D1
 10
9967.099402858071
 20
6922.57393184604
 30
0.0
 11
9867.087591834447
 21
8602.573931846048
 31
0.0
 70
    32
  1
8X420=<>
 71
     5
 42
3360.00000000001
  3
INABA_S40G
100
AcDbAlignedDimension
 13
9319.673057123663
 23
10282.57393184605
 33
0.0
 14
9319.67305712364
 24
6922.57393184604
 34
0.0
 50
90.0
100
AcDbRotatedDimension
1001
ACAD
1000
DSTYLE
1002
{
1002
}
  0
DIMENSION
  5
162CE
330
747D
100
AcDbEntity
  8
寸法
100
AcDbDimension
  2
*D2
 10
9967.09940285805
 20
6867.573931846043
 30
0.0
 11
9967.099402858048
 21
6489.712464941182
 31
0.0
 70
   160
 71
     5
 42
54.99999999999727
  3
INABA_S40G
100
AcDbAlignedDimension
 13
9319.67305712364
 23
6922.57393184604
 33
0.0
 14
9319.67305712364
 24
6867.573931846043
 34
0.0
 50
90.0
100
AcDbRotatedDimension
1001
ACAD
1000
DSTYLE
1002
{
1002
}
  0
DIMENSION
  5
162CF
330
747D
100
AcDbEntity
  8
寸法
100
AcDbDimension
  2
*D3
 10
9967.099402858075
 20
10282.57393184605
 30
0.0
 11
9967.099402858075
 21
10646.05921322029
 31
0.0
 70
   160
 71
     5
 42
55.0
  3
INABA_S40G
100
AcDbAlignedDimension
 13
9319.673057123663
 23
10337.57393184605
 33
0.0
 14
9319.673057123663
 24
10282.57393184605
 34
0.0
 50
90.0
100
AcDbRotatedDimension
1001
ACAD
1000
DSTYLE
1002
{
1002
}
  0
DIMENSION
  5
162D0
330
747D
100
AcDbEntity
  8
寸法
100
AcDbDimension
  2
*D4
 10
10332.20634459771
 20
6867.573931846042
 30
0.0
 11
10232.2063445977
 21
8602.573931846048
 31
0.0
 70
    32
 71
     5
 42
3470.000000000007
  3
INABA_S40G
100
AcDbAlignedDimension
 13
9319.673057123663
 23
10337.57393184605
 33
0.0
 14
9319.67305712364
 24
6867.573931846043
 34
0.0
 50
90.0
100
AcDbRotatedDimension
1001
ACAD
1000
DSTYLE
1002
{
1002
}
  0
LINE
  5
162DC
330
747D
100
AcDbEntity
  8
部品1
100
AcDbLine
 10
9291.673057123647
 20
10309.57393184605
 30
0.0
 11
9291.673057123643
 21
6922.57393184604
 31
0.0
  0
LINE
  5
162DD
330
747D
100
AcDbEntity
  8
部品1
100
AcDbLine
 10
1457.673057123638
 20
6922.573931845909
 30
0.0
 11
1457.673057123649
 21
10309.57393184596
 31
0.0
  0
LINE
  5
162DE
330
747D
100
AcDbEntity
  8
部品1
100
AcDbLine
 10
9319.673057123663
 20
10337.57393184605
 30
0.0
 11
9319.67305712364
 21
6867.573931846043
 31
0.0
  0
LINE
  5
162DF
330
747D
100
AcDbEntity
  8
部品1
100
AcDbLine
 10
1429.673057123629
 20
10337.57393184592
 30
0.0
 11
1429.673057123657
 21
6867.573931845912
 31
0.0
  0
DIMENSION
  5
162E4
330
747D
100
AcDbEntity
  8
寸法
 48
50.0
100
AcDbDimension
  2
*D5
 10
6792.673057123654
 20
6333.143161079786
 30
0.0
 11
8004.673057123646
 21
6433.154972103408
 31
0.0
 70
    32
  1
有効開口部間口 <>
 71
     5
 42
2423.999999999984
  3
INABA_S40G
100
AcDbAlignedDimension
 13
9216.673057123639
 23
6893.573931845955
 33
0.0
 14
6792.673057123654
 24
6893.573931845951
 34
0.0
100
AcDbRotatedDimension
1001
ACAD
1000
DSTYLE
1002
{
1070
    75
1070
     1
1070
   279
1070
     2
1002
}
  0
LINE
  5
162E6
330
747D
100
AcDbEntity
  8
部品1
 48
50.0
100
AcDbLine
 10
6756.673057123655
 20
6913.07393184595
 30
0.0
 11
9252.673057123638
 21
6913.07393184595
 31
0.0
  0
DIMENSION
  5
162E7
330
747D
100
AcDbEntity
  8
寸法
100
AcDbDimension
  2
*D6
 10
9319.673057123628
 20
5886.970165488914
 30
0.0
 11
5374.673057123642
 21
5986.981976512537
 31
0.0
 70
    32
  1
N X 2630
 71
     5
 42
7889.999999999971
  3
INABA_S40G
100
AcDbAlignedDimension
 13
1429.673057123657
 23
6867.57393184595
 33
0.0
 14
9319.673057123628
 24
6867.573931846043
 34
0.0
100
AcDbRotatedDimension
1001
ACAD
1000
DSTYLE
1002
{
1002
}
  0
LINE
  5
162E8
330
747D
100
AcDbEntity
  8
部品1
100
AcDbLine
 10
1484.673057123633
 20
10282.57393184597
 30
0.0
 11
1484.673057123655
 21
6932.573931845951
 31
0.0
  0
LINE
  5
162E9
330
747D
100
AcDbEntity
  8
部品1
100
AcDbLine
 10
1509.673057123635
 20
10282.57393184597
 30
0.0
 11
1509.673057123655
 21
6932.573931845951
 31
0.0
  0
DIMENSION
  5
162EA
330
747D
100
AcDbEntity
  8
寸法
 48
50.0
100
AcDbDimension
  2
*D7
 10
1429.673057123657
 20
6333.143161079786
 30
0.0
 11
1121.187775749418
 21
6333.143161079786
 31
0.0
 70
   160
 71
     5
 42
54.99999999999591
  3
INABA_S40G
100
AcDbAlignedDimension
 13
1484.673057123653
 23
6867.573931845952
 33
0.0
 14
1429.673057123657
 24
6867.57393184595
 34
0.0
100
AcDbRotatedDimension
1001
ACAD
1000
DSTYLE
1002
{
1002
}
  0
DIMENSION
  5
162EB
330
747D
100
AcDbEntity
  8
寸法
 48
50.0
100
AcDbDimension
  2
*D8
 10
6744.673057123654
 20
6333.143161079786
 30
0.0
 11
6905.575028123713
 21
6433.143161079788
 31
0.0
 70
   160
 71
     5
 42
48.00000000000091
  3
INABA_S40G
100
AcDbAlignedDimension
 13
6792.673057123654
 23
6893.573931845951
 33
0.0
 14
6744.673057123654
 24
6867.573931845952
 34
0.0
100
AcDbRotatedDimension
1001
ACAD
1000
DSTYLE
1002
{
1070
   279
1070
     2
1002
}
  0
LINE
  5
162EC
330
747D
100
AcDbEntity
  8
部品1
100
AcDbLine
 10
1484.673057123651
 20
6867.573931845952
 30
0.0
 11
1429.673057123657
 21
6867.57393184595
 31
0.0
  0
LINE
  5
162ED
330
747D
100
AcDbEntity
  8
部品1
 48
50.0
100
AcDbLine
 10
1484.673057123657
 20
6903.573931845951
 30
0.0
 11
1461.673057123657
 21
6903.573931845951
 31
0.0
  0
LINE
  5
162EE
330
747D
100
AcDbEntity
  8
部品1
 48
50.0
100
AcDbLine
 10
1494.673057123657
 20
6893.573931845951
 30
0.0
 11
1484.673057123657
 21
6872.573931845952
 31
0.0
  0
LINE
  5
162EF
330
747D
100
AcDbEntity
  8
部品1
 48
50.0
100
AcDbLine
 10
1484.673057123657
 20
6932.573931845951
 30
0.0
 11
1484.673057123653
 21
6867.573931845952
 31
0.0
  0
LINE
  5
162F0
330
747D
100
AcDbEntity
  8
部品1
 48
50.0
100
AcDbLine
 10
1532.673057123657
 20
6893.573931845955
 30
0.0
 11
1532.673057123657
 21
6902.573931845954
 31
0.0
  0
LINE
  5
162F1
330
747D
100
AcDbEntity
  8
部品1
 48
50.0
100
AcDbLine
 10
1532.673057123657
 20
6932.573931845955
 30
0.0
 11
1532.673057123657
 21
6923.573931845952
 31
0.0
  0
LINE
  5
162F2
330
747D
100
AcDbEntity
  8
部品1
100
AcDbLine
 10
1532.673057123657
 20
6932.573931845955
 30
0.0
 11
1484.673057123657
 21
6932.573931845951
 31
0.0
  0
LINE
  5
162F3
330
747D
100
AcDbEntity
  8
部品1
100
AcDbLine
 10
1532.673057123657
 20
6893.573931845955
 30
0.0
 11
1484.673057123657
 21
6893.573931845951
 31
0.0
  0
LINE
  5
162F4
330
747D
100
AcDbEntity
  8
部品1
100
AcDbLine
 10
1484.673057123655
 20
6903.573931845951
 30
0.0
 11
1461.673057123657
 21
6903.573931845951
 31
0.0
  0
LINE
  5
162F5
330
747D
100
AcDbEntity
  8
部品1
100
AcDbLine
 10
1484.673057123655
 20
6922.573931845876
 30
0.0
 11
1429.673057123655
 21
6922.573931845876
 31
0.0
  0
LINE
  5
162F6
330
747D
100
AcDbEntity
  8
部品1
100
AcDbLine
 10
1457.673057123638
 20
6922.573931845912
 30
0.0
 11
1429.673057123655
 21
6922.573931845912
 31
0.0
  0
LINE
  5
162F7
330
747D
100
AcDbEntity
  8
部品1
100
AcDbLine
 10
1457.673057123655
 20
6922.573931845928
 30
0.0
 11
1429.673057123655
 21
6922.573931845928
 31
0.0
  0
LINE
  5
162FB
330
747D
100
AcDbEntity
  8
部品1
100
AcDbLine
 10
1457.673057123644
 20
7342.573931845928
 30
0.0
 11
1429.673057123644
 21
7342.573931845928
 31
0.0
  0
LINE
  5
162FC
330
747D
100
AcDbEntity
  8
部品1
100
AcDbLine
 10
1457.673057123644
 20
7762.573931845928
 30
0.0
 11
1429.673057123644
 21
7762.573931845928
 31
0.0
  0
LINE
  5
162FE
330
747D
100
AcDbEntity
  8
部品1
100
AcDbLine
 10
1457.673057123637
 20
8182.573931845928
 30
0.0
 11
1429.673057123636
 21
8182.573931845928
 31
0.0
  0
LINE
  5
162FF
330
747D
100
AcDbEntity
  8
部品1
100
AcDbLine
 10
9264.67305712366
 20
10282.57393184597
 30
0.0
 11
9264.673057123641
 21
6867.57393184604
 31
0.0
  0
LINE
  5
16300
330
747D
100
AcDbEntity
  8
部品1
100
AcDbLine
 10
9239.673057123665
 20
10282.57393184597
 30
0.0
 11
9239.673057123642
 21
6932.573931845951
 31
0.0
  0
DIMENSION
  5
16301
330
747D
100
AcDbEntity
  8
寸法
 48
50.0
100
AcDbDimension
  2
*D9
 10
9216.673057123639
 20
6333.143161079786
 30
0.0
 11
9105.710159474892
 21
6433.143161079788
 31
0.0
 70
   160
 71
     5
 42
48.00000000000181
  3
INABA_S40G
100
AcDbAlignedDimension
 13
9264.673057123641
 23
6867.57393184604
 33
0.0
 14
9216.673057123639
 24
6893.573931845955
 34
0.0
100
AcDbRotatedDimension
1001
ACAD
1000
DSTYLE
1002
{
1070
   279
1070
     2
1002
}
  0
DIMENSION
  5
16302
330
747D
100
AcDbEntity
  8
寸法
 48
50.0
100
AcDbDimension
  2
*D10
 10
9264.673057123641
 20
6333.143161079789
 30
0.0
 11
9628.158338497879
 21
6333.143161079789
 31
0.0
 70
   160
 71
     5
 42
55.0
  3
INABA_S40G
100
AcDbAlignedDimension
 13
9319.67305712364
 23
6867.573931846043
 33
0.0
 14
9264.673057123641
 24
6867.57393184604
 34
0.0
100
AcDbRotatedDimension
1001
ACAD
1000
DSTYLE
1002
{
1002
}
  0
LINE
  5
16303
330
747D
100
AcDbEntity
  8
部品1
 48
50.0
100
AcDbLine
 10
9254.673057123637
 20
6893.573931845951
 30
0.0
 11
9264.673057123641
 21
6872.573931845952
 31
0.0
  0
LINE
  5
16304
330
747D
100
AcDbEntity
  8
部品1
100
AcDbLine
 10
9216.673057123639
 20
6932.573931845955
 30
0.0
 11
9264.673057123641
 21
6932.573931845951
 31
0.0
  0
LINE
  5
16305
330
747D
100
AcDbEntity
  8
部品1
100
AcDbLine
 10
9216.673057123639
 20
6893.573931845955
 30
0.0
 11
9264.673057123641
 21
6893.573931845951
 31
0.0
  0
LINE
  5
16306
330
747D
100
AcDbEntity
  8
部品1
 48
50.0
100
AcDbLine
 10
9216.673057123639
 20
6932.573931845955
 30
0.0
 11
9216.673057123639
 21
6923.573931845952
 31
0.0
  0
LINE
  5
16307
330
747D
100
AcDbEntity
  8
部品1
 48
50.0
100
AcDbLine
 10
9216.673057123639
 20
6893.573931845955
 30
0.0
 11
9216.673057123639
 21
6902.573931845954
 31
0.0
  0
LINE
  5
16308
330
747D
100
AcDbEntity
  8
部品1
100
AcDbLine
 10
9264.673057123641
 20
6903.573931845951
 30
0.0
 11
9287.673057123638
 21
6903.573931845951
 31
0.0
  0
LINE
  5
16309
330
747D
100
AcDbEntity
  8
部品1
100
AcDbLine
 10
9264.673057123641
 20
6922.573931846054
 30
0.0
 11
9319.673057123671
 21
6922.573931846054
 31
0.0
  0
LINE
  5
1630A
330
747D
100
AcDbEntity
  8
部品1
100
AcDbLine
 10
9319.67305712364
 20
6867.573931846043
 30
0.0
 11
9264.673057123641
 21
6867.573931846043
 31
0.0
  0
LINE
  5
16317
330
747D
100
AcDbEntity
  8
部品1
100
AcDbLine
 10
9291.673057123668
 20
7342.573931846054
 30
0.0
 11
9319.673057123667
 21
7342.573931846054
 31
0.0
  0
LINE
  5
16319
330
747D
100
AcDbEntity
  8
部品1
100
AcDbLine
 10
9291.673057123668
 20
7762.573931846055
 30
0.0
 11
9319.673057123667
 21
7762.573931846055
 31
0.0
  0
LINE
  5
1631A
330
747D
100
AcDbEntity
  8
部品1
100
AcDbLine
 10
9291.673057123665
 20
8182.573931846055
 30
0.0
 11
9319.673057123663
 21
8182.573931846055
 31
0.0
  0
LINE
  5
1631B
330
747D
100
AcDbEntity
  8
部品1
100
AcDbLine
 10
6717.673057123665
 20
10309.57393184607
 30
0.0
 11
7992.173057123661
 21
10309.57393184607
 31
0.0
  0
LINE
  5
1631D
330
747D
100
AcDbEntity
  8
部品1
100
AcDbLine
 10
1429.673057123662
 20
10337.57393184595
 30
0.0
 11
9319.673057123663
 21
10337.57393184604
 31
0.0
  0
DIMENSION
  5
1631F
330
747D
100
AcDbEntity
  8
寸法
100
AcDbDimension
  2
*D11
 10
9264.673057123664
 20
10553.38215147105
 30
0.0
 11
8004.673057123664
 21
10653.39396249467
 31
0.0
 70
    32
  1
6X420=<>
 71
     5
 42
2520.000000000001
  3
INABA_S40G
100
AcDbAlignedDimension
 13
6744.673057123662
 23
10337.57393184595
 33
0.0
 14
9264.673057123664
 24
10337.57393184605
 34
0.0
100
AcDbRotatedDimension
1001
ACAD
1000
DSTYLE
1002
{
1002
}
  0
DIMENSION
  5
16320
330
747D
100
AcDbEntity
  8
寸法
100
AcDbDimension
  2
*D12
 10
1484.673057123663
 20
10553.38215147094
 30
0.0
 11
1121.187775749389
 21
10553.38215147094
 31
0.0
 70
   160
 71
     5
 42
55.0000000000341
  3
INABA_S40G
100
AcDbAlignedDimension
 13
1429.673057123629
 23
10337.57393184595
 33
0.0
 14
1484.673057123663
 24
10337.57393184595
 34
0.0
100
AcDbRotatedDimension
1001
ACAD
1000
DSTYLE
1002
{
1002
}
  0
LINE
  5
16321
330
747D
100
AcDbEntity
  8
部品1
100
AcDbLine
 10
1484.673057123629
 20
10337.57393184592
 30
0.0
 11
1484.673057123629
 21
10309.57393184592
 31
0.0
  0
LINE
  5
16322
330
747D
100
AcDbEntity
  8
部品1
100
AcDbLine
 10
1484.673057123662
 20
10337.57393184595
 30
0.0
 11
1484.673057123662
 21
10309.57393184596
 31
0.0
  0
LINE
  5
16323
330
747D
100
AcDbEntity
  8
部品1
100
AcDbLine
 10
1457.673057123629
 20
10282.57393184592
 30
0.0
 11
1429.673057123629
 21
10282.57393184592
 31
0.0
  0
LINE
  5
16324
330
747D
100
AcDbEntity
  8
部品1
100
AcDbLine
 10
7164.673057123663
 20
10337.57393184607
 30
0.0
 11
7164.673057123663
 21
10309.57393184607
 31
0.0
  0
LINE
  5
16325
330
747D
100
AcDbEntity
  8
部品1
100
AcDbLine
 10
7164.673057123663
 20
10337.57393184595
 30
0.0
 11
7164.673057123663
 21
10309.57393184596
 31
0.0
  0
LINE
  5
16326
330
747D
100
AcDbEntity
  8
部品1
100
AcDbLine
 10
7164.673057123663
 20
10337.57393184595
 30
0.0
 11
7164.673057123663
 21
10309.57393184596
 31
0.0
  0
LINE
  5
16327
330
747D
100
AcDbEntity
  8
部品1
100
AcDbLine
 10
8017.173057123661
 20
10309.57393184607
 30
0.0
 11
9291.673057123665
 21
10309.57393184605
 31
0.0
  0
LINE
  5
16329
330
747D
100
AcDbEntity
  8
部品1
100
AcDbLine
 10
7584.673057123662
 20
10337.57393184607
 30
0.0
 11
7584.673057123662
 21
10309.57393184607
 31
0.0
  0
LINE
  5
1632A
330
747D
100
AcDbEntity
  8
部品1
100
AcDbLine
 10
7584.673057123662
 20
10337.57393184595
 30
0.0
 11
7584.673057123662
 21
10309.57393184596
 31
0.0
  0
LINE
  5
1632B
330
747D
100
AcDbEntity
  8
部品1
100
AcDbLine
 10
7584.673057123662
 20
10337.57393184595
 30
0.0
 11
7584.673057123662
 21
10309.57393184596
 31
0.0
  0
LINE
  5
1632C
330
747D
100
AcDbEntity
  8
部品1
100
AcDbLine
 10
8004.673057123664
 20
10337.57393184607
 30
0.0
 11
8004.673057123664
 21
10309.57393184607
 31
0.0
  0
LINE
  5
1632D
330
747D
100
AcDbEntity
  8
部品1
100
AcDbLine
 10
7992.173057123664
 20
10301.57393184605
 30
0.0
 11
8017.173057123661
 21
10301.57393184606
 31
0.0
  0
LINE
  5
1632E
330
747D
100
AcDbEntity
  8
部品1
100
AcDbLine
 10
8033.673057123662
 20
10327.57393184606
 30
0.0
 11
8039.673057123662
 21
10327.57393184606
 31
0.0
  0
LINE
  5
1632F
330
747D
100
AcDbEntity
  8
部品1
100
AcDbLine
 10
8039.673057123662
 20
10327.57393184606
 30
0.0
 11
8039.673057123662
 21
10309.57393184606
 31
0.0
  0
LINE
  5
16330
330
747D
100
AcDbEntity
  8
部品1
100
AcDbLine
 10
7969.673057123663
 20
10327.57393184606
 30
0.0
 11
7975.673057123663
 21
10327.57393184606
 31
0.0
  0
LINE
  5
16331
330
747D
100
AcDbEntity
  8
部品1
100
AcDbLine
 10
7969.673057123663
 20
10327.57393184606
 30
0.0
 11
7969.673057123663
 21
10309.57393184606
 31
0.0
  0
DIMENSION
  5
16333
330
747D
100
AcDbEntity
  8
寸法
100
AcDbDimension
  2
*D13
 10
9319.673057123663
 20
10553.38215147103
 30
0.0
 11
9628.158338497904
 21
10553.38215147103
 31
0.0
 70
   160
 71
     5
 42
55.0
  3
INABA_S40G
100
AcDbAlignedDimension
 13
9264.673057123664
 23
10337.57393184605
 33
0.0
 14
9319.673057123663
 24
10337.57393184605
 34
0.0
100
AcDbRotatedDimension
1001
ACAD
1000
DSTYLE
1002
{
1002
}
  0
LINE
  5
16334
330
747D
100
AcDbEntity
  8
部品1
100
AcDbLine
 10
8424.673057123658
 20
10337.57393184607
 30
0.0
 11
8424.673057123658
 21
10309.57393184607
 31
0.0
  0
LINE
  5
16335
330
747D
100
AcDbEntity
  8
部品1
100
AcDbLine
 10
9264.673057123664
 20
10337.57393184605
 30
0.0
 11
9264.673057123664
 21
10309.57393184605
 31
0.0
  0
LINE
  5
16336
330
747D
100
AcDbEntity
  8
部品1
100
AcDbLine
 10
9264.673057123664
 20
10337.57393184607
 30
0.0
 11
9264.673057123664
 21
10309.57393184607
 31
0.0
  0
LINE
  5
16337
330
747D
100
AcDbEntity
  8
部品1
100
AcDbLine
 10
9291.673057123665
 20
10282.57393184605
 30
0.0
 11
9319.673057123663
 21
10282.57393184605
 31
0.0
  0
LINE
  5
1655C
330
747D
100
AcDbEntity
  8
部品1
100
AcDbLine
 10
6586.673057123658
 20
4072.435711496317
 30
0.0
 11
6586.673057123654
 21
2397.435711496317
 31
0.0
  0
LINE
  5
1655D
330
747D
100
AcDbEntity
  8
部品1
100
AcDbLine
 10
6634.673057123658
 20
4072.435711496319
 30
0.0
 11
6634.673057123655
 21
2397.435711496317
 31
0.0
  0
LINE
  5
1655E
330
747D
100
AcDbEntity
  8
破線
 48
5.0
100
AcDbLine
 10
6586.673057123654
 20
2397.435711496317
 30
0.0
 11
6586.673057123658
 21
2147.435711496317
 31
0.0
  0
LINE
  5
1655F
330
747D
100
AcDbEntity
  8
破線
 48
5.0
100
AcDbLine
 10
6634.673057123659
 20
2147.435711496317
 30
0.0
 11
6586.673057123658
 21
2147.435711496317
 31
0.0
  0
LINE
  5
16560
330
747D
100
AcDbEntity
  8
破線
 48
5.0
100
AcDbLine
 10
6634.673057123655
 20
2397.435711496317
 30
0.0
 11
6634.673057123659
 21
2122.435711496317
 31
0.0
  0
LINE
  5
16561
330
747D
100
AcDbEntity
  8
破線
 48
5.0
100
AcDbLine
 10
6744.673057123654
 20
2122.435711496317
 30
0.0
 11
6634.673057123659
 21
2122.435711496317
 31
0.0
  0
LINE
  5
16562
330
747D
100
AcDbEntity
  8
部品1
100
AcDbLine
 10
6792.673057123654
 20
4072.435711496317
 30
0.0
 11
6792.673057123654
 21
2397.435711496317
 31
0.0
  0
LINE
  5
16563
330
747D
100
AcDbEntity
  8
破線
 48
5.0
100
AcDbLine
 10
6792.673057123654
 20
2397.435711496317
 30
0.0
 11
6792.673057123654
 21
2147.435711496322
 31
0.0
  0
LINE
  5
16564
330
747D
100
AcDbEntity
  8
破線
 48
5.0
100
AcDbLine
 10
6792.673057123654
 20
2147.435711496322
 30
0.0
 11
6744.673057123654
 21
2147.435711496322
 31
0.0
  0
LINE
  5
16565
330
747D
100
AcDbEntity
  8
破線
 48
5.0
100
AcDbLine
 10
6744.673057123655
 20
2397.435711496317
 30
0.0
 11
6744.673057123654
 21
2122.435711496317
 31
0.0
  0
LINE
  5
16566
330
747D
100
AcDbEntity
  8
部品1
100
AcDbLine
 10
6744.673057123654
 20
4072.435711496319
 30
0.0
 11
6744.673057123655
 21
2397.435711496317
 31
0.0
  0
LINE
  5
16567
330
747D
100
AcDbEntity
  8
部品1
100
AcDbLine
 10
6744.673057123655
 20
4072.435711496317
 30
0.0
 11
9319.673057123656
 21
4072.435711496317
 31
0.0
  0
DIMENSION
  5
1659A
330
747D
100
AcDbEntity
  8
寸法
 48
50.0
100
AcDbDimension
  2
*D15
 10
6586.673057123639
 20
6333.143161079786
 30
0.0
 11
6475.710159474892
 21
6433.143161079788
 31
0.0
 70
   160
 71
     5
 42
48.00000000000181
  3
INABA_S40G
100
AcDbAlignedDimension
 13
6634.673057123641
 23
6867.57393184604
 33
0.0
 14
6586.673057123639
 24
6893.573931845955
 34
0.0
100
AcDbRotatedDimension
1001
ACAD
1000
DSTYLE
1002
{
1070
   279
1070
     2
1002
}
  0
DIMENSION
  5
1659C
330
747D
100
AcDbEntity
  8
寸法
 48
50.0
100
AcDbDimension
  2
*D14
 10
1484.673057123653
 20
6333.143161079786
 30
0.0
 11
1645.575028123714
 21
6433.143161079788
 31
0.0
 70
   160
 71
     5
 42
48.00000000000409
  3
INABA_S40G
100
AcDbAlignedDimension
 13
1532.673057123657
 23
6893.573931845951
 33
0.0
 14
1484.673057123653
 24
6867.573931845952
 34
0.0
100
AcDbRotatedDimension
1001
ACAD
1000
DSTYLE
1002
{
1070
   279
1070
     2
1002
}
  0
DIMENSION
  5
165E9
330
747D
100
AcDbEntity
  8
寸法
 48
50.0
100
AcDbDimension
  2
*D16
 10
6634.673057123641
 20
6333.143161079789
 30
0.0
 11
6689.673057123648
 21
6181.451266043559
 31
0.0
 70
   160
 71
     5
 42
110.0000000000136
  3
INABA_S40G
100
AcDbAlignedDimension
 13
6744.673057123654
 23
6867.573931845952
 33
0.0
 14
6634.673057123641
 24
6867.57393184604
 34
0.0
100
AcDbRotatedDimension
1001
ACAD
1000
DSTYLE
1002
{
1070
   279
1070
     2
1002
}
  0
LINE
  5
16656
330
747D
100
AcDbEntity
  8
部品1
100
AcDbLine
 10
6586.673057123639
 20
6932.573931845955
 30
0.0
 11
6634.673057123641
 21
6932.573931845951
 31
0.0
  0
LINE
  5
16657
330
747D
100
AcDbEntity
  8
部品1
 48
50.0
100
AcDbLine
 10
6586.673057123639
 20
6932.573931845955
 30
0.0
 11
6586.673057123639
 21
6923.573931845952
 31
0.0
  0
LINE
  5
16658
330
747D
100
AcDbEntity
  8
部品1
100
AcDbLine
 10
6586.673057123639
 20
6893.573931845955
 30
0.0
 11
6634.673057123638
 21
6893.573931845951
 31
0.0
  0
LINE
  5
16659
330
747D
100
AcDbEntity
  8
部品1
 48
50.0
100
AcDbLine
 10
6586.673057123639
 20
6893.573931845955
 30
0.0
 11
6586.673057123639
 21
6902.573931845954
 31
0.0
  0
LINE
  5
1665A
330
747D
100
AcDbEntity
  8
部品1
 48
50.0
100
AcDbLine
 10
6624.673057123638
 20
6893.573931845951
 30
0.0
 11
6634.673057123638
 21
6872.573931845952
 31
0.0
  0
LINE
  5
1665B
330
747D
100
AcDbEntity
  8
部品1
100
AcDbLine
 10
6634.673057123638
 20
6903.573931845951
 30
0.0
 11
6657.673057123638
 21
6903.573931845951
 31
0.0
  0
LINE
  5
1665C
330
747D
100
AcDbEntity
  8
部品1
100
AcDbLine
 10
6792.673057123654
 20
6932.573931845955
 30
0.0
 11
6744.673057123655
 21
6932.573931845951
 31
0.0
  0
LINE
  5
1665D
330
747D
100
AcDbEntity
  8
部品1
 48
50.0
100
AcDbLine
 10
6792.673057123654
 20
6932.573931845955
 30
0.0
 11
6792.673057123654
 21
6923.573931845952
 31
0.0
  0
LINE
  5
1665E
330
747D
100
AcDbEntity
  8
部品1
100
AcDbLine
 10
6792.673057123654
 20
6893.573931845955
 30
0.0
 11
6744.673057123655
 21
6893.573931845951
 31
0.0
  0
LINE
  5
1665F
330
747D
100
AcDbEntity
  8
部品1
 48
50.0
100
AcDbLine
 10
6754.673057123658
 20
6893.573931845951
 30
0.0
 11
6744.673057123655
 21
6872.573931845952
 31
0.0
  0
LINE
  5
16660
330
747D
100
AcDbEntity
  8
部品1
100
AcDbLine
 10
6744.673057123655
 20
6903.573931845951
 30
0.0
 11
6721.673057123658
 21
6903.573931845951
 31
0.0
  0
LINE
  5
16661
330
747D
100
AcDbEntity
  8
部品1
 48
50.0
100
AcDbLine
 10
6744.673057123655
 20
6932.573931845951
 30
0.0
 11
6744.673057123654
 21
6867.573931845952
 31
0.0
  0
LINE
  5
16662
330
747D
100
AcDbEntity
  8
部品1
 48
50.0
100
AcDbLine
 10
6792.673057123654
 20
6893.573931845955
 30
0.0
 11
6792.673057123654
 21
6902.573931845954
 31
0.0
  0
LINE
  5
16663
330
747D
100
AcDbEntity
  8
部品1
100
AcDbLine
 10
6744.673057123653
 20
6867.573931845952
 30
0.0
 11
6634.673057123642
 21
6867.573931845946
 31
0.0
  0
LINE
  5
16664
330
747D
100
AcDbEntity
  8
部品1
 48
50.0
100
AcDbLine
 10
6634.673057123645
 20
6932.57393184604
 30
0.0
 11
6634.673057123641
 21
6867.57393184604
 31
0.0
  0
LINE
  5
16666
330
747D
100
AcDbEntity
  8
部品1
100
AcDbLine
 10
6744.673057123662
 20
10337.57393184595
 30
0.0
 11
6744.673057123662
 21
10309.57393184596
 31
0.0
  0
LINE
  5
16692
330
747D
100
AcDbEntity
  8
部品1
100
AcDbLine
 10
6634.673057123666
 20
10337.57393184605
 30
0.0
 11
6634.673057123666
 21
10309.57393184605
 31
0.0
  0
DIMENSION
  5
166DD
330
747D
100
AcDbEntity
  8
寸法
 48
50.0
100
AcDbDimension
  2
*D17
 10
6634.673057123666
 20
10553.38215147105
 30
0.0
 11
6689.673057123664
 21
10653.38215147105
 31
0.0
 70
    32
 71
     5
 42
109.9999999999972
  3
INABA_S40G
100
AcDbAlignedDimension
 13
6744.673057123662
 23
10337.573931846
 33
0.0
 14
6634.673057123666
 24
10337.573931846
 34
0.0
100
AcDbRotatedDimension
1001
ACAD
1000
DSTYLE
1002
{
1070
   279
1070
     2
1002
}
  0
LINE
  5
16760
330
747D
100
AcDbEntity
  8
部品1
 48
50.0
100
AcDbLine
 10
6689.673057123629
 20
10309.573931846
 30
0.0
 11
6661.673057123632
 21
10337.57393184605
 31
0.0
  0
LINE
  5
16761
330
747D
100
AcDbEntity
  8
部品1
100
AcDbLine
 10
9264.673057123658
 20
10282.57393184597
 30
0.0
 11
6744.673057123645
 21
10282.57393184597
 31
0.0
  0
LINE
  5
16762
330
747D
100
AcDbEntity
  8
部品1
 48
50.0
100
AcDbLine
 10
6661.673057123632
 20
10309.5739318461
 30
0.0
 11
6661.673057123632
 21
10337.57393184605
 31
0.0
  0
LINE
  5
16763
330
747D
100
AcDbEntity
  8
部品1
 48
50.0
100
AcDbLine
 10
6661.673057123632
 20
10309.573931846
 30
0.0
 11
6689.673057123629
 21
10309.573931846
 31
0.0
  0
LINE
  5
168C3
330
747D
100
AcDbEntity
  8
部品1
100
AcDbLine
 10
6713.673057123648
 20
6922.573931845949
 30
0.0
 11
6665.673057123647
 21
6922.573931845949
 31
0.0
  0
LINE
  5
168C4
330
747D
100
AcDbEntity
  8
部品1
 48
50.0
100
AcDbLine
 10
6665.673057123647
 20
6922.573931845949
 30
0.0
 11
6665.673057123651
 21
6867.57393184595
 31
0.0
  0
LINE
  5
168C5
330
747D
100
AcDbEntity
  8
部品1
 48
50.0
100
AcDbLine
 10
6713.673057123648
 20
6922.573931845949
 30
0.0
 11
6713.673057123649
 21
6867.57393184595
 31
0.0
  0
DIMENSION
  5
16913
330
747D
100
AcDbEntity
  8
寸法
 48
50.0
100
AcDbDimension
  2
*D18
 10
9319.673057123663
 20
10802.70362502735
 30
0.0
 11
8004.673057123664
 21
10902.71543605097
 31
0.0
 70
    32
 71
     5
 42
2629.999999999999
  3
INABA_S40G
100
AcDbAlignedDimension
 13
6689.673057123664
 23
10712.370065829
 33
0.0
 14
9319.673057123663
 24
10337.57393184605
 34
0.0
100
AcDbRotatedDimension
1001
ACAD
1000
DSTYLE
1002
{
1070
    75
1070
     1
1070
   279
1070
     2
1002
}
  0
LINE
  5
172BC
330
747D
100
AcDbEntity
  8
部品1
 48
50.0
100
AcDbLine
 10
6717.673057123632
 20
10282.57393184597
 30
0.0
 11
6717.673057123697
 21
10337.573931846
 31
0.0
  0
LINE
  5
172BD
330
747D
100
AcDbEntity
  8
部品1
 48
50.0
100
AcDbLine
 10
6661.673057123632
 20
10282.57393184597
 30
0.0
 11
6661.673057123632
 21
10309.573931846
 31
0.0
  0
LINE
  5
174C8
330
747D
100
AcDbEntity
  8
部品1
 48
50.0
100
AcDbLine
 10
9239.673057123665
 20
10257.57393184593
 30
0.0
 11
6769.673057123617
 21
10257.5739318459
 31
0.0
  0
LINE
  5
174C9
330
747D
100
AcDbEntity
  8
部品1
 48
50.0
100
AcDbLine
 10
9291.673057123665
 20
10309.57393184605
 30
0.0
 11
9264.673057123658
 21
10282.57393184597
 31
0.0
  0
LINE
  5
174CA
330
747D
100
AcDbEntity
  8
部品1
 48
50.0
100
AcDbLine
 10
1484.673057123633
 20
10282.57393184597
 30
0.0
 11
1457.673057123649
 21
10309.57393184607
 31
0.0
  0
LINE
  5
174CB
330
747D
100
AcDbEntity
  8
部品1
 48
50.0
100
AcDbLine
 10
7992.173057123664
 20
10301.57393184605
 30
0.0
 11
7992.173057123664
 21
10309.57393184607
 31
0.0
  0
LINE
  5
174CC
330
747D
100
AcDbEntity
  8
部品1
 48
50.0
100
AcDbLine
 10
8017.173057123661
 20
10301.57393184606
 30
0.0
 11
8017.173057123661
 21
10309.57393184607
 31
0.0
  0
LINE
  5
17B13
330
747D
100
AcDbEntity
  8
部品1
100
AcDbLine
 10
4114.673057123655
 20
4072.435711496319
 30
0.0
 11
4114.673057123655
 21
2397.435711496317
 31
0.0
  0
LINE
  5
17B14
330
747D
100
AcDbEntity
  8
部品1
100
AcDbLine
 10
4162.673057123654
 20
4072.435711496317
 30
0.0
 11
4162.673057123654
 21
2397.435711496317
 31
0.0
  0
LINE
  5
17B15
330
747D
100
AcDbEntity
  8
部品1
100
AcDbLine
 10
4004.673057123658
 20
4072.435711496319
 30
0.0
 11
4004.673057123655
 21
2397.435711496317
 31
0.0
  0
LINE
  5
17B16
330
747D
100
AcDbEntity
  8
部品1
100
AcDbLine
 10
3956.673057123658
 20
4072.435711496319
 30
0.0
 11
3956.673057123655
 21
2397.435711496317
 31
0.0
  0
LINE
  5
17B5A
330
747D
100
AcDbEntity
  8
部品1
100
AcDbLine
 10
1429.673057123657
 20
4072.435711496317
 30
0.0
 11
4114.673057123655
 21
4072.435711496318
 31
0.0
  0
LINE
  5
17B5E
330
747D
100
AcDbEntity
  8
破線
 48
5.0
100
AcDbLine
 10
4114.673057123655
 20
2397.435711496317
 30
0.0
 11
4114.673057123654
 21
2122.435711496317
 31
0.0
  0
LINE
  5
17B5F
330
747D
100
AcDbEntity
  8
破線
 48
5.0
100
AcDbLine
 10
4162.673057123654
 20
2147.435711496322
 30
0.0
 11
4114.673057123654
 21
2147.435711496322
 31
0.0
  0
LINE
  5
17B60
330
747D
100
AcDbEntity
  8
破線
 48
5.0
100
AcDbLine
 10
4162.673057123654
 20
2397.435711496317
 30
0.0
 11
4162.673057123653
 21
2147.435711496322
 31
0.0
  0
LINE
  5
17B61
330
747D
100
AcDbEntity
  8
破線
 48
5.0
100
AcDbLine
 10
4114.673057123654
 20
2122.435711496317
 30
0.0
 11
4004.673057123658
 21
2122.435711496317
 31
0.0
  0
LINE
  5
17B62
330
747D
100
AcDbEntity
  8
破線
 48
5.0
100
AcDbLine
 10
4004.673057123655
 20
2397.435711496317
 30
0.0
 11
4004.673057123656
 21
2122.435711496317
 31
0.0
  0
LINE
  5
17B63
330
747D
100
AcDbEntity
  8
破線
 48
5.0
100
AcDbLine
 10
4004.673057123659
 20
2147.435711496317
 30
0.0
 11
3956.673057123658
 21
2147.435711496317
 31
0.0
  0
LINE
  5
17B64
330
747D
100
AcDbEntity
  8
破線
 48
5.0
100
AcDbLine
 10
3956.673057123655
 20
2397.435711496317
 30
0.0
 11
3956.673057123657
 21
2147.435711496317
 31
0.0
  0
DIMENSION
  5
17B86
330
747D
100
AcDbEntity
  8
寸法
 48
50.0
100
AcDbDimension
  2
*D23
 10
4059.673057123664
 20
10802.70362502735
 30
0.0
 11
2744.673057123647
 21
10902.71543605097
 31
0.0
 70
    32
 71
     5
 42
2630.000000000035
  3
INABA_S40G
100
AcDbAlignedDimension
 13
1429.673057123629
 23
10337.57393184592
 33
0.0
 14
4059.673057123664
 24
10712.370065829
 34
0.0
100
AcDbRotatedDimension
1001
ACAD
1000
DSTYLE
1002
{
1070
   279
1070
     2
1002
}
  0
DIMENSION
  5
17B87
330
747D
100
AcDbEntity
  8
寸法
100
AcDbDimension
  2
*D21
 10
4004.673057123664
 20
10553.38215147105
 30
0.0
 11
2744.673057123664
 21
10653.39396249467
 31
0.0
 70
    32
  1
6X420=<>
 71
     5
 42
2520.000000000001
  3
INABA_S40G
100
AcDbAlignedDimension
 13
1484.673057123663
 23
10337.57393184595
 33
0.0
 14
4004.673057123664
 24
10337.57393184605
 34
0.0
100
AcDbRotatedDimension
1001
ACAD
1000
DSTYLE
1002
{
1002
}
  0
DIMENSION
  5
17B88
330
747D
100
AcDbEntity
  8
寸法
 48
50.0
100
AcDbDimension
  2
*D22
 10
4004.673057123664
 20
10553.38215147105
 30
0.0
 11
4059.673057123663
 21
10653.38215147105
 31
0.0
 70
    32
 71
     5
 42
109.9999999999991
  3
INABA_S40G
100
AcDbAlignedDimension
 13
4114.673057123662
 23
10337.573931846
 33
0.0
 14
4004.673057123664
 24
10337.573931846
 34
0.0
100
AcDbRotatedDimension
1001
ACAD
1000
DSTYLE
1002
{
1070
   279
1070
     2
1002
}
  0
LINE
  5
17B89
330
747D
100
AcDbEntity
  8
部品1
100
AcDbLine
 10
4087.673057123629
 20
10282.57393184597
 30
0.0
 11
4031.673057123631
 21
10282.57393184597
 31
0.0
  0
LINE
  5
17B8B
330
747D
100
AcDbEntity
  8
部品1
 48
50.0
100
AcDbLine
 10
3979.673057123633
 20
10257.57393184588
 30
0.0
 11
1509.673057123633
 21
10257.57393184587
 31
0.0
  0
LINE
  5
17B9A
330
747D
100
AcDbEntity
  8
部品1
 48
50.0
100
AcDbLine
 10
4031.673057123631
 20
10282.57393184597
 30
0.0
 11
4031.673057123631
 21
10309.573931846
 31
0.0
  0
LINE
  5
17B9B
330
747D
100
AcDbEntity
  8
部品1
 48
50.0
100
AcDbLine
 10
4087.673057123629
 20
10282.57393184597
 30
0.0
 11
4087.673057123697
 21
10337.573931846
 31
0.0
  0
LINE
  5
17B9C
330
747D
100
AcDbEntity
  8
部品1
 48
50.0
100
AcDbLine
 10
4083.673057123648
 20
6922.573931845949
 30
0.0
 11
4083.673057123651
 21
6867.57393184595
 31
0.0
  0
LINE
  5
17B9D
330
747D
100
AcDbEntity
  8
部品1
 48
50.0
100
AcDbLine
 10
4035.673057123648
 20
6922.573931845949
 30
0.0
 11
4035.673057123651
 21
6867.57393184595
 31
0.0
  0
LINE
  5
17B9E
330
747D
100
AcDbEntity
  8
部品1
100
AcDbLine
 10
4083.673057123648
 20
6922.573931845949
 30
0.0
 11
4035.673057123648
 21
6922.573931845949
 31
0.0
  0
LINE
  5
17B9F
330
747D
100
AcDbEntity
  8
部品1
 48
50.0
100
AcDbLine
 10
4031.673057123631
 20
10309.573931846
 30
0.0
 11
4059.673057123629
 21
10309.573931846
 31
0.0
  0
LINE
  5
17BA0
330
747D
100
AcDbEntity
  8
部品1
 48
50.0
100
AcDbLine
 10
4031.673057123631
 20
10309.5739318461
 30
0.0
 11
4031.673057123629
 21
10337.57393184605
 31
0.0
  0
LINE
  5
17BA1
330
747D
100
AcDbEntity
  8
部品1
 48
50.0
100
AcDbLine
 10
4059.673057123629
 20
10309.573931846
 30
0.0
 11
4031.673057123631
 21
10337.57393184605
 31
0.0
  0
LINE
  5
17BA2
330
747D
100
AcDbEntity
  8
部品1
100
AcDbLine
 10
4004.673057123664
 20
10337.57393184605
 30
0.0
 11
4004.673057123664
 21
10309.57393184605
 31
0.0
  0
LINE
  5
17BB2
330
747D
100
AcDbEntity
  8
部品1
100
AcDbLine
 10
4114.673057123662
 20
10337.57393184595
 30
0.0
 11
4114.673057123662
 21
10309.57393184596
 31
0.0
  0
LINE
  5
17BB3
330
747D
100
AcDbEntity
  8
部品1
 48
50.0
100
AcDbLine
 10
4004.673057123643
 20
6932.57393184604
 30
0.0
 11
4004.67305712364
 21
6867.57393184604
 31
0.0
  0
LINE
  5
17BB4
330
747D
100
AcDbEntity
  8
部品1
100
AcDbLine
 10
4114.673057123651
 20
6867.573931845952
 30
0.0
 11
4004.673057123643
 21
6867.573931845946
 31
0.0
  0
LINE
  5
17BB5
330
747D
100
AcDbEntity
  8
部品1
 48
50.0
100
AcDbLine
 10
4162.673057123654
 20
6893.573931845955
 30
0.0
 11
4162.673057123654
 21
6902.573931845954
 31
0.0
  0
LINE
  5
17BB6
330
747D
100
AcDbEntity
  8
部品1
 48
50.0
100
AcDbLine
 10
4114.673057123655
 20
6932.573931845951
 30
0.0
 11
4114.673057123653
 21
6867.573931845952
 31
0.0
  0
LINE
  5
17BB7
330
747D
100
AcDbEntity
  8
部品1
100
AcDbLine
 10
4114.673057123655
 20
6903.573931845951
 30
0.0
 11
4091.673057123655
 21
6903.573931845951
 31
0.0
  0
LINE
  5
17BB8
330
747D
100
AcDbEntity
  8
部品1
 48
50.0
100
AcDbLine
 10
4124.673057123658
 20
6893.573931845951
 30
0.0
 11
4114.673057123655
 21
6872.573931845952
 31
0.0
  0
LINE
  5
17BB9
330
747D
100
AcDbEntity
  8
部品1
100
AcDbLine
 10
4162.673057123654
 20
6893.573931845955
 30
0.0
 11
4114.673057123655
 21
6893.573931845951
 31
0.0
  0
LINE
  5
17BBA
330
747D
100
AcDbEntity
  8
部品1
 48
50.0
100
AcDbLine
 10
4162.673057123654
 20
6932.573931845955
 30
0.0
 11
4162.673057123654
 21
6923.573931845952
 31
0.0
  0
LINE
  5
17BBB
330
747D
100
AcDbEntity
  8
部品1
100
AcDbLine
 10
4162.673057123654
 20
6932.573931845955
 30
0.0
 11
4114.673057123655
 21
6932.573931845951
 31
0.0
  0
LINE
  5
17BBC
330
747D
100
AcDbEntity
  8
部品1
100
AcDbLine
 10
4004.673057123636
 20
6903.573931845951
 30
0.0
 11
4027.673057123638
 21
6903.573931845951
 31
0.0
  0
LINE
  5
17BBD
330
747D
100
AcDbEntity
  8
部品1
 48
50.0
100
AcDbLine
 10
3994.673057123637
 20
6893.573931845951
 30
0.0
 11
4004.673057123636
 21
6872.573931845952
 31
0.0
  0
LINE
  5
17BBE
330
747D
100
AcDbEntity
  8
部品1
 48
50.0
100
AcDbLine
 10
3956.673057123637
 20
6893.573931845955
 30
0.0
 11
3956.673057123637
 21
6902.573931845954
 31
0.0
  0
LINE
  5
17BBF
330
747D
100
AcDbEntity
  8
部品1
100
AcDbLine
 10
3956.673057123637
 20
6893.573931845955
 30
0.0
 11
4004.673057123636
 21
6893.573931845951
 31
0.0
  0
LINE
  5
17BC0
330
747D
100
AcDbEntity
  8
部品1
 48
50.0
100
AcDbLine
 10
3956.673057123637
 20
6932.573931845955
 30
0.0
 11
3956.673057123637
 21
6923.573931845952
 31
0.0
  0
LINE
  5
17BC1
330
747D
100
AcDbEntity
  8
部品1
100
AcDbLine
 10
3956.673057123637
 20
6932.573931845955
 30
0.0
 11
4004.67305712364
 21
6932.573931845951
 31
0.0
  0
LINE
  5
17BC2
330
747D
100
AcDbEntity
  8
部品1
 48
50.0
100
AcDbLine
 10
1496.673057123655
 20
6913.07393184595
 30
0.0
 11
3992.673057123641
 21
6913.07393184595
 31
0.0
  0
DIMENSION
  5
17BC3
330
747D
100
AcDbEntity
  8
寸法
 48
50.0
100
AcDbDimension
  2
*D20
 10
1532.673057123657
 20
6333.143161079786
 30
0.0
 11
2744.673057123647
 21
6433.154972103408
 31
0.0
 70
    32
  1
有効開口部間口 <>
 71
     5
 42
2423.99999999998
  3
INABA_S40G
100
AcDbAlignedDimension
 13
3956.673057123637
 23
6893.573931845955
 33
0.0
 14
1532.673057123657
 24
6893.573931845951
 34
0.0
100
AcDbRotatedDimension
1001
ACAD
1000
DSTYLE
1002
{
1070
    75
1070
     1
1070
   279
1070
     2
1002
}
  0
DIMENSION
  5
17BC4
330
747D
100
AcDbEntity
  8
寸法
 48
50.0
100
AcDbDimension
  2
*D19
 10
3956.673057123637
 20
6333.143161079786
 30
0.0
 11
3845.71015947489
 21
6433.143161079788
 31
0.0
 70
   160
 71
     5
 42
48.00000000000363
  3
INABA_S40G
100
AcDbAlignedDimension
 13
4004.67305712364
 23
6867.57393184604
 33
0.0
 14
3956.673057123637
 24
6893.573931845955
 34
0.0
100
AcDbRotatedDimension
1001
ACAD
1000
DSTYLE
1002
{
1070
   279
1070
     2
1002
}
  0
DIMENSION
  5
17C46
330
747D
100
AcDbEntity
  8
寸法
 48
50.0
100
AcDbDimension
  2
*D25
 10
4004.67305712364
 20
6333.143161079789
 30
0.0
 11
4059.673057123647
 21
6181.451266043559
 31
0.0
 70
   160
 71
     5
 42
110.0000000000127
  3
INABA_S40G
100
AcDbAlignedDimension
 13
4114.673057123653
 23
6867.573931845952
 33
0.0
 14
4004.67305712364
 24
6867.57393184604
 34
0.0
100
AcDbRotatedDimension
1001
ACAD
1000
DSTYLE
1002
{
1070
   279
1070
     2
1002
}
  0
DIMENSION
  5
17C47
330
747D
100
AcDbEntity
  8
寸法
 48
50.0
100
AcDbDimension
  2
*D24
 10
4114.673057123653
 20
6333.143161079786
 30
0.0
 11
4275.575028123713
 21
6433.143161079788
 31
0.0
 70
   160
 71
     5
 42
48.00000000000181
  3
INABA_S40G
100
AcDbAlignedDimension
 13
4162.673057123654
 23
6893.573931845951
 33
0.0
 14
4114.673057123653
 24
6867.573931845952
 34
0.0
100
AcDbRotatedDimension
1001
ACAD
1000
DSTYLE
1002
{
1070
   279
1070
     2
1002
}
  0
LINE
  5
17D0F
330
747D
100
AcDbEntity
  8
部品1
100
AcDbLine
 10
9291.673057123656
 20
9862.57393184605
 30
0.0
 11
9319.673057123653
 21
9862.57393184605
 31
0.0
  0
LINE
  5
17D10
330
747D
100
AcDbEntity
  8
部品1
100
AcDbLine
 10
9291.673057123658
 20
8602.573931846045
 30
0.0
 11
9319.673057123658
 21
8602.573931846045
 31
0.0
  0
LINE
  5
17D11
330
747D
100
AcDbEntity
  8
部品1
100
AcDbLine
 10
1457.673057123629
 20
9862.57393184592
 30
0.0
 11
1429.673057123629
 21
9862.57393184592
 31
0.0
  0
LINE
  5
17D12
330
747D
100
AcDbEntity
  8
部品1
100
AcDbLine
 10
1457.673057123633
 20
8602.57393184592
 30
0.0
 11
1429.673057123633
 21
8602.57393184592
 31
0.0
  0
LINE
  5
18097
330
747D
100
AcDbEntity
  8
寸法
 48
50.0
100
AcDbLine
 10
6534.673057123665
 20
10553.38215147105
 30
0.0
 11
5617.901097968022
 21
10553.38215147105
 31
0.0
  0
LINE
  5
18098
330
747D
100
AcDbEntity
  8
寸法
 48
50.0
100
AcDbLine
 10
5131.445016279303
 20
10553.38215147105
 30
0.0
 11
4214.673057123662
 21
10553.38215147105
 31
0.0
  0
TEXT
  5
180AB
330
747D
100
AcDbEntity
  8
文字
 48
50.0
100
AcDbText
 10
5744.946326482197
 20
10584.06691699998
 30
0.0
 40
120.0
  1
2520
  7
STYLE1
100
AcDbText
  0
TEXT
  5
180AD
330
747D
100
AcDbEntity
  8
文字
 48
50.0
100
AcDbText
 10
5600.652295359538
 20
6368.612285683537
 30
0.0
 40
120.0
  1
2424
  7
STYLE1
100
AcDbText
  0
TEXT
  5
180D7
330
747D
100
AcDbEntity
  8
文字
 48
50.0
100
AcDbText
 10
4713.401826075933
 20
10584.06691699998
 30
0.0
 40
120.0
  1
2520
  7
STYLE1
100
AcDbText
  0
LINE
  5
180D8
330
747D
100
AcDbEntity
  8
寸法
 48
50.0
100
AcDbLine
 10
6486.673057123637
 20
6333.143161079786
 30
0.0
 11
5569.901097967999
 21
6333.143161079786
 31
0.0
  0
LINE
  5
180D9
330
747D
100
AcDbEntity
  8
寸法
 48
50.0
100
AcDbLine
 10
5083.445016279276
 20
6333.143161079786
 30
0.0
 11
4166.673057123636
 21
6333.143161079786
 31
0.0
  0
TEXT
  5
180DA
330
747D
100
AcDbEntity
  8
文字
 48
50.0
100
AcDbText
 10
4729.811617545234
 20
6368.612285683537
 30
0.0
 40
120.0
  1
2424
  7
STYLE1
100
AcDbText
  0
LINE
  5
180FF
330
747D
100
AcDbEntity
  8
部品1
100
AcDbLine
 10
1429.673057123657
 20
2397.435711496317
 30
0.0
 11
9319.673057123656
 21
2397.435711496317
 31
0.0
  0
LINE
  5
18100
330
747D
100
AcDbEntity
  8
Ｇ．Ｌ
100
AcDbLine
 10
341.4064544531742
 20
2297.435711496317
 30
0.0
 11
15697.85959757071
 21
2297.435711496317
 31
0.0
  0
LINE
  5
18102
330
747D
100
AcDbEntity
  8
部品1
 48
50.0
100
AcDbLine
 10
6609.673057123633
 20
10257.57393184591
 30
0.0
 11
4139.673057123633
 21
10257.57393184587
 31
0.0
  0
LINE
  5
18103
330
747D
100
AcDbEntity
  8
部品1
100
AcDbLine
 10
6634.673057123642
 20
10282.57393184597
 30
0.0
 11
4114.673057123642
 21
10282.57393184597
 31
0.0
  0
LINE
  5
18106
330
747D
100
AcDbEntity
  8
寸法
 48
50.0
100
AcDbLine
 10
6689.563357233137
 20
10729.84636281196
 30
0.0
 11
6689.563357233137
 21
10868.99749041991
 31
0.0
  0
LINE
  5
18107
330
747D
100
AcDbEntity
  8
寸法
 48
50.0
100
AcDbLine
 10
6689.673057123664
 20
10802.70362502735
 30
0.0
 11
5622.238647055863
 21
10802.70362502735
 31
0.0
  0
LINE
  5
18108
330
747D
100
AcDbEntity
  8
寸法
 48
50.0
100
AcDbLine
 10
4059.673057123664
 20
10802.70362502735
 30
0.0
 11
5137.161027911186
 21
10802.70362502735
 31
0.0
  0
TEXT
  5
18109
330
747D
100
AcDbEntity
  8
文字
 48
50.0
100
AcDbText
 10
5744.946326482197
 20
10846.5608377546
 30
0.0
 40
120.0
  1
2630
  7
STYLE1
100
AcDbText
  0
TEXT
  5
1810A
330
747D
100
AcDbEntity
  8
文字
 48
50.0
100
AcDbText
 10
4713.401826075933
 20
10846.5608377546
 30
0.0
 40
120.0
  1
2630
  7
STYLE1
100
AcDbText
  0
LINE
  5
18157
330
747D
100
AcDbEntity
  8
部品1
100
AcDbLine
 10
4031.673057123651
 20
9862.573931846002
 30
0.0
 11
4059.673057123651
 21
9862.573931846002
 31
0.0
  0
LINE
  5
18158
330
747D
100
AcDbEntity
  8
部品1
100
AcDbLine
 10
4031.673057123651
 20
8602.573931846002
 30
0.0
 11
4059.673057123651
 21
8602.573931846002
 31
0.0
  0
LINE
  5
18159
330
747D
100
AcDbEntity
  8
部品1
100
AcDbLine
 10
4031.673057123651
 20
8182.573931846002
 30
0.0
 11
4059.673057123651
 21
8182.573931846002
 31
0.0
  0
LINE
  5
1815A
330
747D
100
AcDbEntity
  8
部品1
100
AcDbLine
 10
4004.673057123651
 20
6932.5739318459
 30
0.0
 11
4004.673057123643
 21
10282.5739318459
 31
0.0
  0
LINE
  5
1815B
330
747D
100
AcDbEntity
  8
部品1
 48
10.0
100
AcDbLine
 10
3979.673057123659
 20
6932.5739318459
 30
0.0
 11
3979.673057123633
 21
10282.5739318459
 31
0.0
  0
LINE
  5
1815C
330
747D
100
AcDbEntity
  8
部品1
100
AcDbLine
 10
4031.673057123631
 20
10309.573931846
 30
0.0
 11
4031.673057123614
 21
6867.573931845893
 31
0.0
  0
LINE
  5
1815D
330
747D
100
AcDbEntity
  8
部品1
100
AcDbLine
 10
4114.67305712367
 20
6932.5739318459
 30
0.0
 11
4114.673057123642
 21
10282.57393184589
 31
0.0
  0
LINE
  5
1815E
330
747D
100
AcDbEntity
  8
部品1
 48
10.0
100
AcDbLine
 10
4139.673057123664
 20
6932.5739318459
 30
0.0
 11
4139.673057123617
 21
10282.57393184592
 31
0.0
  0
LINE
  5
1815F
330
747D
100
AcDbEntity
  8
部品1
100
AcDbLine
 10
4087.673057123609
 20
6867.573931845901
 30
0.0
 11
4087.673057123633
 21
10337.57393184595
 31
0.0
  0
LINE
  5
18160
330
747D
100
AcDbEntity
  8
部品1
100
AcDbLine
 10
4059.673057123649
 20
10282.57393184592
 30
0.0
 11
4059.673057123622
 21
6922.573931845895
 31
0.0
  0
LINE
  5
18161
330
747D
100
AcDbEntity
  8
部品1
100
AcDbLine
 10
6689.673057123648
 20
10282.57393184592
 30
0.0
 11
6689.673057123624
 21
6922.573931845895
 31
0.0
  0
LINE
  5
18162
330
747D
100
AcDbEntity
  8
部品1
100
AcDbLine
 10
6717.673057123609
 20
6867.573931845901
 30
0.0
 11
6717.673057123632
 21
10337.57393184595
 31
0.0
  0
LINE
  5
18163
330
747D
100
AcDbEntity
  8
部品1
 48
10.0
100
AcDbLine
 10
6769.673057123665
 20
6932.5739318459
 30
0.0
 11
6769.673057123617
 21
10282.57393184592
 31
0.0
  0
LINE
  5
18164
330
747D
100
AcDbEntity
  8
部品1
100
AcDbLine
 10
6744.673057123669
 20
6932.5739318459
 30
0.0
 11
6744.673057123643
 21
10282.57393184589
 31
0.0
  0
LINE
  5
18165
330
747D
100
AcDbEntity
  8
部品1
100
AcDbLine
 10
6661.673057123632
 20
10309.573931846
 30
0.0
 11
6661.673057123614
 21
6867.573931845893
 31
0.0
  0
LINE
  5
18166
330
747D
100
AcDbEntity
  8
部品1
 48
10.0
100
AcDbLine
 10
6609.673057123659
 20
6932.5739318459
 30
0.0
 11
6609.673057123633
 21
10282.5739318459
 31
0.0
  0
LINE
  5
18167
330
747D
100
AcDbEntity
  8
部品1
100
AcDbLine
 10
6634.67305712365
 20
6932.5739318459
 30
0.0
 11
6634.673057123642
 21
10282.5739318459
 31
0.0
  0
LINE
  5
18168
330
747D
100
AcDbEntity
  8
部品1
100
AcDbLine
 10
6661.673057123651
 20
8182.573931846002
 30
0.0
 11
6689.673057123652
 21
8182.573931846002
 31
0.0
  0
LINE
  5
18169
330
747D
100
AcDbEntity
  8
部品1
100
AcDbLine
 10
6661.673057123651
 20
8602.573931846002
 30
0.0
 11
6689.673057123652
 21
8602.573931846002
 31
0.0
  0
LINE
  5
1816A
330
747D
100
AcDbEntity
  8
部品1
100
AcDbLine
 10
6661.673057123651
 20
9862.573931846002
 30
0.0
 11
6689.673057123652
 21
9862.573931846002
 31
0.0
  0
LINE
  5
1816B
330
747D
100
AcDbEntity
  8
部品1
 48
50.0
100
AcDbLine
 10
6717.673057123684
 20
10309.57393184581
 30
0.0
 11
6744.673057123673
 21
10282.57393184582
 31
0.0
  0
LINE
  5
1816C
330
747D
100
AcDbEntity
  8
部品1
 48
50.0
100
AcDbLine
 10
6661.673057123699
 20
10309.5739318459
 30
0.0
 11
6634.673057123695
 21
10282.5739318459
 31
0.0
  0
LINE
  5
1816D
330
747D
100
AcDbEntity
  8
部品1
 48
50.0
100
AcDbLine
 10
4087.673057123684
 20
10309.57393184581
 30
0.0
 11
4114.673057123673
 21
10282.57393184582
 31
0.0
  0
LINE
  5
1816E
330
747D
100
AcDbEntity
  8
部品1
 48
50.0
100
AcDbLine
 10
4031.673057123699
 20
10309.5739318459
 30
0.0
 11
4004.673057123695
 21
10282.5739318459
 31
0.0
  0
LINE
  5
1816F
330
747D
100
AcDbEntity
  8
部品1
100
AcDbLine
 10
4004.673057123643
 20
10282.57393184597
 30
0.0
 11
1484.673057123633
 21
10282.57393184597
 31
0.0
  0
LINE
  5
18170
330
747D
100
AcDbEntity
  8
部品1
100
AcDbLine
 10
6717.673057123632
 20
10282.57393184597
 30
0.0
 11
6661.673057123632
 21
10282.57393184597
 31
0.0
  0
LINE
  5
18171
330
747D
100
AcDbEntity
  8
部品1
100
AcDbLine
 10
6661.67305712366
 20
7762.573931846003
 30
0.0
 11
6689.673057123659
 21
7762.573931846003
 31
0.0
  0
LINE
  5
18172
330
747D
100
AcDbEntity
  8
部品1
100
AcDbLine
 10
6661.67305712366
 20
7342.573931846001
 30
0.0
 11
6689.673057123659
 21
7342.573931846001
 31
0.0
  0
LINE
  5
18173
330
747D
100
AcDbEntity
  8
部品1
100
AcDbLine
 10
4031.673057123658
 20
7342.573931846001
 30
0.0
 11
4059.673057123658
 21
7342.573931846001
 31
0.0
  0
LINE
  5
18174
330
747D
100
AcDbEntity
  8
部品1
100
AcDbLine
 10
4031.673057123658
 20
7762.573931846003
 30
0.0
 11
4059.673057123658
 21
7762.573931846003
 31
0.0
  0
LINE
  5
181F6
330
747D
100
AcDbEntity
  8
部品1
100
AcDbLine
 10
9291.673057123658
 20
9022.573931846045
 30
0.0
 11
9319.673057123658
 21
9022.573931846045
 31
0.0
  0
LINE
  5
181F7
330
747D
100
AcDbEntity
  8
部品1
100
AcDbLine
 10
6661.673057123651
 20
9022.573931846002
 30
0.0
 11
6689.673057123652
 21
9022.573931846002
 31
0.0
  0
LINE
  5
181F8
330
747D
100
AcDbEntity
  8
部品1
100
AcDbLine
 10
4031.673057123651
 20
9022.573931846002
 30
0.0
 11
4059.673057123651
 21
9022.573931846002
 31
0.0
  0
LINE
  5
181F9
330
747D
100
AcDbEntity
  8
部品1
100
AcDbLine
 10
1457.673057123633
 20
9022.573931845917
 30
0.0
 11
1429.673057123633
 21
9022.573931845917
 31
0.0
  0
TEXT
  5
1875B
330
747D
100
AcDbEntity
  8
文字
 62
     7
 48
50.0
100
AcDbText
 10
15022.63965474516
 20
9910.01374588372
 30
0.0
 40
100.0
  1
F12,Y10      1.2+1.6
  7
STYLE1
100
AcDbText
  0
TEXT
  5
1875C
330
747D
100
AcDbEntity
  8
文字
 62
     7
 48
50.0
100
AcDbText
 10
13583.11819016569
 20
9910.01374588373
 30
0.0
 40
100.0
  1
梁中
  7
STYLE1
100
AcDbText
  0
TEXT
  5
1875D
330
747D
100
AcDbEntity
  8
文字
 62
     7
 48
50.0
100
AcDbText
 10
13248.77747366448
 20
8720.013745883731
 30
0.0
 40
100.0
  1
14
  7
STYLE1
100
AcDbText
  0
LINE
  5
1875E
330
747D
100
AcDbEntity
  8
仕様書枠
 48
50.0
100
AcDbLine
 10
16307.19999999999
 20
9879.600000000001
 30
0.0
 11
13127.2
 21
9879.600000000001
 31
0.0
  0
LINE
  5
1875F
330
747D
100
AcDbEntity
  8
仕様書枠
 48
50.0
100
AcDbLine
 10
16307.19999999999
 20
11239.6
 30
0.0
 11
13127.2
 21
11239.6
 31
0.0
  0
LINE
  5
18760
330
747D
100
AcDbEntity
  8
仕様書枠
 48
50.0
100
AcDbLine
 10
16307.19999999999
 20
8179.6
 30
0.0
 11
16307.2
 21
11239.6
 31
0.0
  0
LINE
  5
18761
330
747D
100
AcDbEntity
  8
仕様書枠
 48
50.0
100
AcDbLine
 10
14785.2
 20
11239.59999999999
 30
0.0
 11
14785.2
 21
8689.6
 31
0.0
  0
LINE
  5
18762
330
747D
100
AcDbEntity
  8
仕様書枠
 48
50.0
100
AcDbLine
 10
13490.2
 20
11239.6
 30
0.0
 11
13490.20000000001
 21
8689.600000000003
 31
0.0
  0
LINE
  5
18763
330
747D
100
AcDbEntity
  8
仕様書枠
 48
50.0
100
AcDbLine
 10
16307.19999999999
 20
11069.6
 30
0.0
 11
13127.2
 21
11069.6
 31
0.0
  0
LINE
  5
18764
330
747D
100
AcDbEntity
  8
仕様書枠
 48
50.0
100
AcDbLine
 10
16307.19999999999
 20
10729.6
 30
0.0
 11
13127.2
 21
10729.6
 31
0.0
  0
LINE
  5
18765
330
747D
100
AcDbEntity
  8
仕様書枠
 48
50.0
100
AcDbLine
 10
16307.19999999999
 20
10899.6
 30
0.0
 11
13127.2
 21
10899.6
 31
0.0
  0
LINE
  5
18766
330
747D
100
AcDbEntity
  8
仕様書枠
 48
50.0
100
AcDbLine
 10
16307.19999999999
 20
10389.6
 30
0.0
 11
13127.19999999999
 21
10389.6
 31
0.0
  0
LINE
  5
18767
330
747D
100
AcDbEntity
  8
仕様書枠
 48
50.0
100
AcDbLine
 10
16307.19999999999
 20
10219.6
 30
0.0
 11
13127.19999999999
 21
10219.6
 31
0.0
  0
LINE
  5
18768
330
747D
100
AcDbEntity
  8
仕様書枠
 48
50.0
100
AcDbLine
 10
16307.19999999999
 20
10559.6
 30
0.0
 11
13127.19999999999
 21
10559.6
 31
0.0
  0
TEXT
  5
18769
330
747D
100
AcDbEntity
  8
文字
 62
     7
 48
50.0
100
AcDbText
 10
13197.42518560407
 20
11100.01374588372
 30
0.0
 40
100.0
  1
品番
  7
STYLE1
100
AcDbText
  0
TEXT
  5
1876A
330
747D
100
AcDbEntity
  8
文字
 62
     7
 48
50.0
100
AcDbText
 10
13271.19032244792
 20
10930.01374588373
 30
0.0
 40
100.0
  1
1
  7
STYLE1
100
AcDbText
  0
TEXT
  5
1876B
330
747D
100
AcDbEntity
  8
文字
 62
     7
 48
50.0
100
AcDbText
 10
13271.19032244792
 20
10760.01374588373
 30
0.0
 40
100.0
  1
2
  7
STYLE1
100
AcDbText
  0
TEXT
  5
1876C
330
747D
100
AcDbEntity
  8
文字
 62
     7
 48
50.0
100
AcDbText
 10
13271.19032244792
 20
10420.01374588373
 30
0.0
 40
100.0
  1
4
  7
STYLE1
100
AcDbText
  0
TEXT
  5
1876D
330
747D
100
AcDbEntity
  8
文字
 62
     7
 48
50.0
100
AcDbText
 10
13271.19032244792
 20
10590.01374588373
 30
0.0
 40
100.0
  1
3
  7
STYLE1
100
AcDbText
  0
TEXT
  5
1876E
330
747D
100
AcDbEntity
  8
文字
 62
     7
 48
50.0
100
AcDbText
 10
13732.03840939434
 20
11100.01374588372
 30
0.0
 40
100.0
  1
部　　品　　名
  7
STYLE1
100
AcDbText
  0
TEXT
  5
1876F
330
747D
100
AcDbEntity
  8
文字
 62
     7
 48
50.0
100
AcDbText
 10
14859.79774614482
 20
11100.01374588372
 30
0.0
 40
100.0
  1
材料（材質）　　単位mm
  7
STYLE1
100
AcDbText
  0
TEXT
  5
18770
330
747D
100
AcDbEntity
  8
文字
 62
     7
 48
50.0
100
AcDbText
 10
13583.11819016569
 20
10930.01374588373
 30
0.0
 40
100.0
  1
土台枠
  7
STYLE1
100
AcDbText
  0
TEXT
  5
18771
330
747D
100
AcDbEntity
  8
文字
 62
     7
 48
50.0
100
AcDbText
 10
13583.11819016569
 20
10760.01374588372
 30
0.0
 40
100.0
  1
柱
  7
STYLE1
100
AcDbText
  0
TEXT
  5
18772
330
747D
100
AcDbEntity
  8
文字
 62
     7
 48
50.0
100
AcDbText
 10
13583.11819016569
 20
10590.01374588372
 30
0.0
 40
100.0
  1
桁前
  7
STYLE1
100
AcDbText
  0
TEXT
  5
18773
330
747D
100
AcDbEntity
  8
文字
 62
     7
 48
50.0
100
AcDbText
 10
13583.11819016569
 20
10420.01374588373
 30
0.0
 40
100.0
  1
桁後
  7
STYLE1
100
AcDbText
  0
TEXT
  5
18774
330
747D
100
AcDbEntity
  8
文字
 62
     7
 48
50.0
100
AcDbText
 10
13271.19032244792
 20
10250.01374588372
 30
0.0
 40
100.0
  1
5
  7
STYLE1
100
AcDbText
  0
TEXT
  5
18775
330
747D
100
AcDbEntity
  8
文字
 62
     7
 48
50.0
100
AcDbText
 10
13583.11819016569
 20
10250.01374588372
 30
0.0
 40
100.0
  1
妻板左右
  7
STYLE1
100
AcDbText
  0
TEXT
  5
18776
330
747D
100
AcDbEntity
  8
文字
 62
     7
 48
50.0
100
AcDbText
 10
13583.11819016569
 20
8890.013745883729
 30
0.0
 40
100.0
  1
シャッターレール
  7
STYLE1
100
AcDbText
  0
TEXT
  5
18777
330
747D
100
AcDbEntity
  8
文字
 62
     7
 48
50.0
100
AcDbText
 10
13248.77747366448
 20
9400.013745883729
 30
0.0
 40
100.0
  1
10
  7
STYLE1
100
AcDbText
  0
TEXT
  5
18778
330
747D
100
AcDbEntity
  8
文字
 62
     7
 48
50.0
100
AcDbText
 10
13583.11819016569
 20
9400.013745883729
 30
0.0
 40
100.0
  1
壁パネル
  7
STYLE1
100
AcDbText
  0
TEXT
  5
18779
330
747D
100
AcDbEntity
  8
文字
 62
     7
 48
50.0
100
AcDbText
 10
13583.11819016569
 20
9570.013745883729
 30
0.0
 40
100.0
  1
屋根パネル
  7
STYLE1
100
AcDbText
  0
TEXT
  5
1877A
330
747D
100
AcDbEntity
  8
文字
 62
     7
 48
50.0
100
AcDbText
 10
13583.11819016569
 20
9740.013745883729
 30
0.0
 40
100.0
  1
母屋中
  7
STYLE1
100
AcDbText
  0
TEXT
  5
1877B
330
747D
100
AcDbEntity
  8
文字
 62
     7
 48
50.0
100
AcDbText
 10
13583.11819016569
 20
10080.01374588373
 30
0.0
 40
100.0
  1
鼻隠シ前後
  7
STYLE1
100
AcDbText
  0
TEXT
  5
1877C
330
747D
100
AcDbEntity
  8
文字
 62
     7
 48
50.0
100
AcDbText
 10
13271.19032244792
 20
9740.013745883729
 30
0.0
 40
100.0
  1
8
  7
STYLE1
100
AcDbText
  0
TEXT
  5
1877D
330
747D
100
AcDbEntity
  8
文字
 62
     7
 48
50.0
100
AcDbText
 10
13271.19032244792
 20
9570.013745883729
 30
0.0
 40
100.0
  1
9
  7
STYLE1
100
AcDbText
  0
TEXT
  5
1877E
330
747D
100
AcDbEntity
  8
文字
 62
     7
 48
50.0
100
AcDbText
 10
13271.19032244792
 20
9910.01374588373
 30
0.0
 40
100.0
  1
7
  7
STYLE1
100
AcDbText
  0
TEXT
  5
1877F
330
747D
100
AcDbEntity
  8
文字
 62
     7
 48
50.0
100
AcDbText
 10
13271.19032244792
 20
10080.01374588373
 30
0.0
 40
100.0
  1
6
  7
STYLE1
100
AcDbText
  0
LINE
  5
18780
330
747D
100
AcDbEntity
  8
仕様書枠
 48
50.0
100
AcDbLine
 10
16307.19999999999
 20
9539.6
 30
0.0
 11
13127.19999999999
 21
9539.6
 31
0.0
  0
LINE
  5
18781
330
747D
100
AcDbEntity
  8
仕様書枠
 48
50.0
100
AcDbLine
 10
16307.19999999999
 20
9199.599999999996
 30
0.0
 11
13127.19999999999
 21
9199.600000000001
 31
0.0
  0
LINE
  5
18782
330
747D
100
AcDbEntity
  8
仕様書枠
 48
50.0
100
AcDbLine
 10
16307.19999999999
 20
9369.599999999996
 30
0.0
 11
13127.19999999999
 21
9369.600000000001
 31
0.0
  0
LINE
  5
18783
330
747D
100
AcDbEntity
  8
仕様書枠
 48
50.0
100
AcDbLine
 10
16307.19999999999
 20
10049.6
 30
0.0
 11
13127.2
 21
10049.6
 31
0.0
  0
LINE
  5
18784
330
747D
100
AcDbEntity
  8
仕様書枠
 48
50.0
100
AcDbLine
 10
16307.19999999999
 20
9709.600000000001
 30
0.0
 11
13127.2
 21
9709.600000000001
 31
0.0
  0
TEXT
  5
18785
330
747D
100
AcDbEntity
  8
文字
 62
     7
 48
50.0
100
AcDbText
 10
13248.77747366448
 20
9230.013745883729
 30
0.0
 40
100.0
  1
11
  7
STYLE1
100
AcDbText
  0
TEXT
  5
18786
330
747D
100
AcDbEntity
  8
文字
 62
     7
 48
50.0
100
AcDbText
 10
13583.11819016569
 20
9060.013745883729
 30
0.0
 40
100.0
  1
シャッターカバー
 41
0.9
  7
STYLE1
100
AcDbText
  0
LINE
  5
18787
330
747D
100
AcDbEntity
  8
仕様書枠
 48
50.0
100
AcDbLine
 10
16307.19999999999
 20
9029.599999999996
 30
0.0
 11
13127.19999999999
 21
9029.6
 31
0.0
  0
TEXT
  5
18789
330
747D
100
AcDbEntity
  8
文字
 62
     7
 48
50.0
100
AcDbText
 10
13583.11819016569
 20
8720.013745883729
 30
0.0
 40
100.0
  1
棚板（別売）
  7
STYLE1
100
AcDbText
  0
LINE
  5
1878A
330
747D
100
AcDbEntity
  8
仕様書枠
 48
50.0
100
AcDbLine
 10
16307.19999999999
 20
8859.6
 30
0.0
 11
13127.19999999999
 21
8859.600000000002
 31
0.0
  0
TEXT
  5
1878B
330
747D
100
AcDbEntity
  8
文字
 62
     7
 48
50.0
100
AcDbText
 10
13583.1181901657
 20
9230.013745883731
 30
0.0
 40
100.0
  1
シャッター
  7
STYLE1
100
AcDbText
  0
TEXT
  5
1878C
330
747D
100
AcDbEntity
  8
文字
 62
     7
 48
50.0
100
AcDbText
 10
13248.77747366448
 20
8890.013745883729
 30
0.0
 40
100.0
  1
13
  7
STYLE1
100
AcDbText
  0
TEXT
  5
1878D
330
747D
100
AcDbEntity
  8
文字
 62
     7
 48
50.0
100
AcDbText
 10
13248.77747366448
 20
9060.013745883729
 30
0.0
 40
100.0
  1
12
  7
STYLE1
100
AcDbText
  0
TEXT
  5
1878E
330
747D
100
AcDbEntity
  8
文字
 62
     7
 48
50.0
100
AcDbText
 10
15022.63965474517
 20
10930.01374588372
 30
0.0
 40
100.0
  1
F12            1.2
  7
STYLE1
100
AcDbText
  0
TEXT
  5
18790
330
747D
100
AcDbEntity
  8
文字
 62
     7
 48
50.0
100
AcDbText
 10
15022.63965474516
 20
10590.01374588372
 30
0.0
 40
100.0
  1
Y10            1.0
  7
STYLE1
100
AcDbText
  0
TEXT
  5
18791
330
747D
100
AcDbEntity
  8
文字
 62
     7
 48
50.0
100
AcDbText
 10
15022.63965474516
 20
10420.01374588372
 30
0.0
 40
100.0
  1
Y10            1.0
  7
STYLE1
100
AcDbText
  0
TEXT
  5
18792
330
747D
100
AcDbEntity
  8
文字
 62
     7
 48
50.0
100
AcDbText
 10
15022.63965474516
 20
10250.01374588372
 30
0.0
 40
100.0
  1
Y10            0.7
  7
STYLE1
100
AcDbText
  0
TEXT
  5
18793
330
747D
100
AcDbEntity
  8
文字
 62
     7
 48
50.0
100
AcDbText
 10
15022.63965474516
 20
10080.01374588372
 30
0.0
 40
100.0
  1
Y10            0.7
  7
STYLE1
100
AcDbText
  0
TEXT
  5
18795
330
747D
100
AcDbEntity
  8
文字
 62
     7
 48
50.0
100
AcDbText
 10
15022.63965474517
 20
9570.013745883723
 30
0.0
 40
100.0
  1
Y10            0.5
  7
STYLE1
100
AcDbText
  0
TEXT
  5
18796
330
747D
100
AcDbEntity
  8
文字
 62
     7
 48
50.0
100
AcDbText
 10
15022.63965474516
 20
9400.013745883724
 30
0.0
 40
100.0
  1
F12            0.6
  7
STYLE1
100
AcDbText
  0
TEXT
  5
18797
330
747D
100
AcDbEntity
  8
文字
 62
     7
 48
50.0
100
AcDbText
 10
14850.83183167176
 20
8890.013745883724
 30
0.0
 40
100.0
  1
アルミニウム合金押出形材
  7
STYLE1
100
AcDbText
  0
TEXT
  5
18799
330
747D
100
AcDbEntity
  8
文字
 62
     7
 48
50.0
100
AcDbText
 10
15022.63965474516
 20
9230.013745883724
 30
0.0
 40
100.0
  1
Z08            0.5
  7
STYLE1
100
AcDbText
  0
TEXT
  5
1879A
330
747D
100
AcDbEntity
  8
文字
 62
     7
 48
50.0
100
AcDbText
 10
15022.63965474515
 20
8720.013745883727
 30
0.0
 40
100.0
  1
F12            0.6
  7
STYLE1
100
AcDbText
  0
LINE
  5
1879B
330
747D
100
AcDbEntity
  8
仕様書枠
 48
50.0
100
AcDbLine
 10
16307.19999999999
 20
8519.599999999998
 30
0.0
 11
13127.19999999999
 21
8519.600000000002
 31
0.0
  0
LINE
  5
1879C
330
747D
100
AcDbEntity
  8
仕様書枠
 48
50.0
100
AcDbLine
 10
16307.19999999999
 20
8349.6
 30
0.0
 11
13127.19999999999
 21
8349.6
 31
0.0
  0
LINE
  5
1879D
330
747D
100
AcDbEntity
  8
仕様書枠
 48
50.0
100
AcDbLine
 10
16307.19999999999
 20
8179.599999999998
 30
0.0
 11
13127.19999999999
 21
8179.6
 31
0.0
  0
TEXT
  5
1879E
330
747D
100
AcDbEntity
  8
文字
 62
     7
 48
50.0
100
AcDbText
 10
13229.83081656555
 20
8550.013745883727
 30
0.0
 40
100.0
  1
F12→溶融亜鉛めっき鋼板(JIS G 3302)
  7
STYLE1
100
AcDbText
  0
TEXT
  5
1879F
330
747D
100
AcDbEntity
  8
文字
 62
     7
 48
50.0
100
AcDbText
 10
13229.83081656554
 20
8380.013745883728
 30
0.0
 40
100.0
  1
Y10→溶融亜鉛-5％アルミニウム合金めっき鋼板(JIS G 3317)
 41
0.9
  7
STYLE1
100
AcDbText
  0
TEXT
  5
187A0
330
747D
100
AcDbEntity
  8
文字
 62
     7
 48
50.0
100
AcDbText
 10
13229.83081656555
 20
8210.013745883729
 30
0.0
 40
100.0
  1
Z08→塗装溶融亜鉛めっき鋼板(JIS G 3313)
  7
STYLE1
100
AcDbText
  0
LINE
  5
187A1
330
747D
100
AcDbEntity
  8
仕様書枠
 48
50.0
100
AcDbLine
 10
13127.2
 20
11239.6
 30
0.0
 11
13127.2
 21
8179.600000000002
 31
0.0
  0
TEXT
  5
18DE2
330
747D
100
AcDbEntity
  8
文字
 62
     7
 48
50.0
100
AcDbText
 10
14243.55185591683
 20
483.8967129911416
 30
0.0
 40
160.0
  1
FXN-2634SL-N
  7
MSPゴシック
100
AcDbText
  0
LINE
  5
192DE
330
747D
100
AcDbEntity
  8
補助
  6
PHANTOM
 62
   230
 48
50.0
100
AcDbLine
 10
140.0
 20
0.0
 30
0.0
 11
140.0
 21
11409.6
 31
0.0
  0
DIMENSION
  5
195FF
330
747D
100
AcDbEntity
  8
寸法
 48
50.0
100
AcDbDimension
  2
*D26
 10
1429.673057123653
 20
4878.161983228226
 30
0.0
 11
5374.673057123656
 21
4978.173794251848
 31
0.0
 70
    32
  1
柱外寸法 N X 2630
 71
     5
 42
7890.000000000006
  3
INABA_S40G
100
AcDbAlignedDimension
 13
9319.673057123658
 23
4472.435711496324
 33
0.0
 14
1429.673057123653
 24
4472.435711496323
 34
0.0
100
AcDbRotatedDimension
  0
DIMENSION
  5
19600
330
747D
100
AcDbEntity
  8
寸法
 48
50.0
100
AcDbDimension
  2
*D27
 10
9369.673057123653
 20
5078.070904442316
 30
0.0
 11
5374.673057123653
 21
5078.070904442316
 31
0.0
 70
   160
  1
N X 2630+100
 71
     5
 42
7990.0
  3
INABA_S40G
100
AcDbAlignedDimension
 13
1379.673057123653
 23
4472.435711496323
 33
0.0
 14
9369.673057123653
 24
4472.43571149632
 34
0.0
100
AcDbRotatedDimension
  0
DIMENSION
  5
19601
330
747D
100
AcDbEntity
  8
寸法
 48
50.0
100
AcDbDimension
  2
*D28
 10
1379.673057123653
 20
4878.161983228226
 30
0.0
 11
1066.187775749406
 21
4878.161983228226
 31
0.0
 70
   160
 71
     5
 42
50.0
  3
INABA_S40G
100
AcDbAlignedDimension
 13
1429.673057123653
 23
4472.435711496324
 33
0.0
 14
1379.673057123653
 24
4472.435711496324
 34
0.0
100
AcDbRotatedDimension
1001
ACAD
1000
DSTYLE
1002
{
1002
}
  0
LINE
  5
19602
330
747D
100
AcDbEntity
  8
部品1
100
AcDbLine
 10
1380.092718138984
 20
4465.039186101082
 30
0.0
 11
1381.226115471332
 21
4445.063058118481
 31
0.0
  0
LINE
  5
19603
330
747D
100
AcDbEntity
  8
部品1
100
AcDbLine
 10
1392.663135792913
 20
4349.405650951423
 30
0.0
 11
1393.308041600021
 21
4338.039186101082
 31
0.0
  0
LINE
  5
19604
330
747D
100
AcDbEntity
  8
部品1
100
AcDbLine
 10
1384.427105268062
 20
4441.605650951422
 30
0.0
 11
1389.462145996176
 21
4352.86305811848
 31
0.0
  0
ARC
  5
19605
330
747D
100
AcDbEntity
  8
部品1
 48
50.0
100
AcDbCircle
 10
1381.431922371876
 20
4441.435711496324
 30
0.0
 40
3.0
100
AcDbArc
 50
3.247342790331776
 51
82.34187279263656
  0
ARC
  5
19606
330
747D
100
AcDbEntity
  8
部品1
 48
50.0
100
AcDbCircle
 10
1389.66795289672
 20
4349.23571149632
 30
0.0
 40
3.0
100
AcDbArc
 50
3.247342790331776
 51
82.34187279263656
  0
ARC
  5
19607
330
747D
100
AcDbEntity
  8
部品1
 48
50.0
100
AcDbCircle
 10
1390.161022005281
 20
4352.902710658002
 30
0.0
 40
0.7
100
AcDbArc
 50
183.2473427903316
 51
262.3418727926365
  0
ARC
  5
19608
330
747D
100
AcDbEntity
  8
部品1
 48
50.0
100
AcDbCircle
 10
1381.924991480444
 20
4445.102710658008
 30
0.0
 40
0.7
100
AcDbArc
 50
183.2473427903316
 51
262.3418727926365
  0
ARC
  5
19609
330
747D
100
AcDbEntity
  8
部品1
100
AcDbCircle
 10
1400.296801691116
 20
4338.435711496325
 30
0.0
 40
7.0
100
AcDbArc
 50
183.2473427903316
 51
270.0
  0
ARC
  5
1960A
330
747D
100
AcDbEntity
  8
部品1
100
AcDbCircle
 10
1387.081478230086
 20
4465.43571149632
 30
0.0
 40
7.0
100
AcDbArc
 50
90.0
 51
183.2473427903316
  0
LINE
  5
1960B
330
747D
100
AcDbEntity
  8
細線
 48
50.0
100
AcDbLine
 10
1412.673057123653
 20
4472.43571149632
 30
0.0
 11
1412.673057123653
 21
4331.435711496321
 31
0.0
  0
LINE
  5
1960C
330
747D
100
AcDbEntity
  8
部品1
100
AcDbLine
 10
1429.673057123653
 20
4237.435711496316
 30
0.0
 11
9319.673057123656
 21
4237.435711496316
 31
0.0
  0
DIMENSION
  5
19611
330
747D
100
AcDbEntity
  8
寸法
 48
50.0
100
AcDbDimension
  2
*D29
 10
9319.673057123658
 20
4878.161983228232
 30
0.0
 11
9683.158338497896
 21
4878.161983228232
 31
0.0
 70
   160
 71
     5
 42
49.99999999999454
  3
INABA_S40G
100
AcDbAlignedDimension
 13
9369.673057123653
 23
4472.43571149632
 33
0.0
 14
9319.673057123658
 24
4472.435711496324
 34
0.0
100
AcDbRotatedDimension
  0
ARC
  5
19612
330
747D
100
AcDbEntity
  8
部品1
100
AcDbCircle
 10
9362.264636017226
 20
4465.435711496325
 30
0.0
 40
7.0
100
AcDbArc
 50
356.7526572096682
 51
90.0
  0
ARC
  5
19613
330
747D
100
AcDbEntity
  8
部品1
100
AcDbCircle
 10
9349.049312556191
 20
4338.435711496325
 30
0.0
 40
7.0
100
AcDbArc
 50
270.0
 51
356.7526572096682
  0
ARC
  5
19614
330
747D
100
AcDbEntity
  8
部品1
 48
50.0
100
AcDbCircle
 10
9367.421122766868
 20
4445.102710658008
 30
0.0
 40
0.7
100
AcDbArc
 50
277.6581272073635
 51
356.7526572096682
  0
ARC
  5
19615
330
747D
100
AcDbEntity
  8
部品1
 48
50.0
100
AcDbCircle
 10
9359.185092242027
 20
4352.902710658008
 30
0.0
 40
0.7
100
AcDbArc
 50
277.6581272073635
 51
356.7526572096682
  0
ARC
  5
19616
330
747D
100
AcDbEntity
  8
部品1
 48
50.0
100
AcDbCircle
 10
9359.67816135059
 20
4349.23571149632
 30
0.0
 40
3.0
100
AcDbArc
 50
97.65812720736349
 51
176.7526572096682
  0
ARC
  5
19617
330
747D
100
AcDbEntity
  8
部品1
 48
50.0
100
AcDbCircle
 10
9367.914191875433
 20
4441.435711496325
 30
0.0
 40
3.0
100
AcDbArc
 50
97.65812720736349
 51
176.7526572096682
  0
LINE
  5
19618
330
747D
100
AcDbEntity
  8
部品1
100
AcDbLine
 10
9364.919008979248
 20
4441.605650951428
 30
0.0
 11
9359.883968251136
 21
4352.86305811848
 31
0.0
  0
LINE
  5
19619
330
747D
100
AcDbEntity
  8
部品1
100
AcDbLine
 10
9356.682978454399
 20
4349.405650951423
 30
0.0
 11
9356.038072647288
 21
4338.039186101084
 31
0.0
  0
LINE
  5
1961A
330
747D
100
AcDbEntity
  8
細線
 48
50.0
100
AcDbLine
 10
9336.673057123654
 20
4472.435711496324
 30
0.0
 11
9336.673057123654
 21
4331.435711496324
 31
0.0
  0
LINE
  5
1961B
330
747D
100
AcDbEntity
  8
部品1
100
AcDbLine
 10
9369.253396108325
 20
4465.039186101083
 30
0.0
 11
9368.119998775977
 21
4445.063058118485
 31
0.0
  0
LINE
  5
1961C
330
747D
100
AcDbEntity
  8
部品1
 48
50.0
100
AcDbLine
 10
4049.673057123658
 20
4331.435711496321
 30
0.0
 11
4049.673057123658
 21
4472.43571149632
 31
0.0
  0
LINE
  5
1961D
330
747D
100
AcDbEntity
  8
部品1
 48
50.0
100
AcDbLine
 10
4059.673057123657
 20
4072.435711496317
 30
0.0
 11
4059.673057123657
 21
4331.435711496321
 31
0.0
  0
LINE
  5
1961E
330
747D
100
AcDbEntity
  8
部品1
 48
50.0
100
AcDbLine
 10
6689.673057123659
 20
4072.435711496317
 30
0.0
 11
6689.673057123659
 21
4331.435711496321
 31
0.0
  0
LINE
  5
1961F
330
747D
100
AcDbEntity
  8
部品1
 48
50.0
100
AcDbLine
 10
6679.673057123657
 20
4331.435711496321
 30
0.0
 11
6679.673057123657
 21
4472.43571149632
 31
0.0
  0
LINE
  5
19621
330
747D
100
AcDbEntity
  8
部品1
 48
50.0
100
AcDbLine
 10
9349.049312556191
 20
4331.435711496317
 30
0.0
 11
1400.296801691116
 21
4331.435711496324
 31
0.0
  0
LINE
  5
19622
330
747D
100
AcDbEntity
  8
細線
 48
50.0
100
AcDbLine
 10
9359.397488377341
 20
4352.235711496311
 30
0.0
 11
1389.948625869924
 21
4352.235711496323
 31
0.0
  0
LINE
  5
19623
330
747D
100
AcDbEntity
  8
細線
 48
50.0
100
AcDbLine
 10
9367.633518902209
 20
4444.43571149632
 30
0.0
 11
1381.712595345094
 21
4444.43571149632
 31
0.0
  0
LINE
  5
19624
330
747D
100
AcDbEntity
  8
部品1
 48
50.0
100
AcDbLine
 10
9362.264636017226
 20
4472.435711496316
 30
0.0
 11
1387.081478230086
 21
4472.435711496324
 31
0.0
  0
TEXT
  5
19C11
330
747D
100
AcDbEntity
  8
部品1
100
AcDbText
 10
13357.9322526538
 20
1454.542182277793
 30
0.0
 40
135.0
  1
側面図
  7
STYLE2
100
AcDbText
  0
LWPOLYLINE
  5
19C12
330
747D
100
AcDbEntity
  8
部品1
100
AcDbPolyline
 90
        4
 70
     1
 43
0.0
 10
13268.48615123019
 20
1647.435711496317
 10
13268.48615123019
 20
1407.543389950785
 10
14031.95681745863
 20
1407.543389950785
 10
14031.95681745863
 20
1647.435711496317
  0
LINE
  5
19C13
330
747D
100
AcDbEntity
  8
細線
 48
50.0
100
AcDbLine
 10
14977.72148434443
 20
4237.43571149632
 30
0.0
 11
14977.72148434443
 21
2447.435711496322
 31
0.0
  0
LINE
  5
19C14
330
747D
100
AcDbEntity
  8
細線
 48
50.0
100
AcDbLine
 10
14962.72148434443
 20
4237.43571149632
 30
0.0
 11
14962.72148434443
 21
2447.435711496322
 31
0.0
  0
LINE
  5
19C15
330
747D
100
AcDbEntity
  8
細線
 48
50.0
100
AcDbLine
 10
15102.72148434443
 20
4237.43571149632
 30
0.0
 11
15102.72148434443
 21
2447.435711496322
 31
0.0
  0
LINE
  5
19C16
330
747D
100
AcDbEntity
  8
細線
 48
50.0
100
AcDbLine
 10
15117.72148434443
 20
4237.43571149632
 30
0.0
 11
15117.72148434443
 21
2447.435711496322
 31
0.0
  0
LINE
  5
19C17
330
747D
100
AcDbEntity
  8
細線
 48
50.0
100
AcDbLine
 10
15257.72148434443
 20
4237.43571149632
 30
0.0
 11
15257.72148434443
 21
2447.435711496322
 31
0.0
  0
LINE
  5
19C18
330
747D
100
AcDbEntity
  8
細線
 48
50.0
100
AcDbLine
 10
15242.72148434443
 20
4237.43571149632
 30
0.0
 11
15242.72148434443
 21
2447.435711496322
 31
0.0
  0
LINE
  5
19C19
330
747D
100
AcDbEntity
  8
部品1
100
AcDbLine
 10
14900.22148434438
 20
4237.435711496317
 30
0.0
 11
14900.22148434438
 21
2447.435711496322
 31
0.0
  0
LINE
  5
19C1A
330
747D
100
AcDbEntity
  8
部品1
100
AcDbLine
 10
14480.22148434439
 20
4237.435711496317
 30
0.0
 11
14480.22148434439
 21
2447.435711496322
 31
0.0
  0
LINE
  5
19C1B
330
747D
100
AcDbEntity
  8
細線
 48
50.0
100
AcDbLine
 10
14402.72148434441
 20
4237.435711496316
 30
0.0
 11
14402.72148434441
 21
2447.435711496319
 31
0.0
  0
LINE
  5
19C1C
330
747D
100
AcDbEntity
  8
細線
 48
50.0
100
AcDbLine
 10
14417.72148434441
 20
4237.435711496316
 30
0.0
 11
14417.72148434441
 21
2447.435711496319
 31
0.0
  0
LINE
  5
19C1D
330
747D
100
AcDbEntity
  8
細線
 48
50.0
100
AcDbLine
 10
14277.72148434441
 20
4237.435711496316
 30
0.0
 11
14277.72148434441
 21
2447.435711496319
 31
0.0
  0
LINE
  5
19C1E
330
747D
100
AcDbEntity
  8
細線
 48
50.0
100
AcDbLine
 10
14262.72148434441
 20
4237.435711496316
 30
0.0
 11
14262.72148434441
 21
2447.435711496319
 31
0.0
  0
LINE
  5
19C1F
330
747D
100
AcDbEntity
  8
細線
 48
50.0
100
AcDbLine
 10
14122.7214843444
 20
4237.435711496316
 30
0.0
 11
14122.7214843444
 21
2447.435711496319
 31
0.0
  0
LINE
  5
19C20
330
747D
100
AcDbEntity
  8
細線
 48
50.0
100
AcDbLine
 10
14137.72148434441
 20
4237.435711496316
 30
0.0
 11
14137.72148434441
 21
2447.435711496319
 31
0.0
  0
LINE
  5
19C21
330
747D
100
AcDbEntity
  8
部品1
100
AcDbLine
 10
14060.2214843444
 20
4237.435711496316
 30
0.0
 11
14060.2214843444
 21
2447.435711496319
 31
0.0
  0
DIMENSION
  5
19C22
330
747D
100
AcDbEntity
  8
寸法
 48
50.0
100
AcDbDimension
  2
*D30
 10
11284.61307757602
 20
4346.780970369663
 30
0.0
 11
11295.27855283495
 21
4717.627633611361
 31
0.0
 70
   161
 71
     5
 42
141.0
  3
INABA_S40G
100
AcDbAlignedDimension
 13
11864.61750450299
 23
4471.158460330996
 33
0.0
 14
11860.56404894636
 24
4330.216736565284
 34
0.0
1001
ACAD
1000
DSTYLE
1002
{
1070
   174
1070
     0
1070
   272
1070
     1
1070
   288
1070
     0
1070
   341
1005
0
1002
}
  0
LINE
  5
19C23
330
747D
100
AcDbEntity
  8
細線
 48
50.0
100
AcDbLine
 10
14822.72148434441
 20
4237.435711496317
 30
0.0
 11
14822.72148434441
 21
2447.435711496319
 31
0.0
  0
LINE
  5
19C24
330
747D
100
AcDbEntity
  8
細線
 48
50.0
100
AcDbLine
 10
14837.72148434441
 20
4237.435711496317
 30
0.0
 11
14837.72148434441
 21
2447.435711496319
 31
0.0
  0
LINE
  5
19C25
330
747D
100
AcDbEntity
  8
細線
 48
50.0
100
AcDbLine
 10
14697.72148434441
 20
4237.435711496317
 30
0.0
 11
14697.72148434441
 21
2447.435711496319
 31
0.0
  0
LINE
  5
19C26
330
747D
100
AcDbEntity
  8
細線
 48
50.0
100
AcDbLine
 10
14682.7214843444
 20
4237.435711496317
 30
0.0
 11
14682.7214843444
 21
2447.435711496319
 31
0.0
  0
LINE
  5
19C27
330
747D
100
AcDbEntity
  8
細線
 48
50.0
100
AcDbLine
 10
14542.72148434441
 20
4237.435711496317
 30
0.0
 11
14542.72148434441
 21
2447.435711496319
 31
0.0
  0
LINE
  5
19C28
330
747D
100
AcDbEntity
  8
細線
 48
50.0
100
AcDbLine
 10
14557.72148434441
 20
4237.435711496317
 30
0.0
 11
14557.72148434441
 21
2447.435711496319
 31
0.0
  0
LINE
  5
19C29
330
747D
100
AcDbEntity
  8
部品1
100
AcDbLine
 10
13220.22148434441
 20
4237.435711496316
 30
0.0
 11
13220.22148434441
 21
2447.435711496317
 31
0.0
  0
LINE
  5
19C2A
330
747D
100
AcDbEntity
  8
細線
 48
50.0
100
AcDbLine
 10
12877.7214843444
 20
4237.435711496316
 30
0.0
 11
12877.72148434441
 21
2447.435711496317
 31
0.0
  0
LINE
  5
19C2B
330
747D
100
AcDbEntity
  8
細線
 48
50.0
100
AcDbLine
 10
12862.72148434441
 20
4237.435711496316
 30
0.0
 11
12862.72148434441
 21
2447.435711496317
 31
0.0
  0
LINE
  5
19C2C
330
747D
100
AcDbEntity
  8
細線
 48
50.0
100
AcDbLine
 10
13002.7214843444
 20
4237.435711496316
 30
0.0
 11
13002.72148434441
 21
2447.435711496317
 31
0.0
  0
LINE
  5
19C2D
330
747D
100
AcDbEntity
  8
細線
 48
50.0
100
AcDbLine
 10
13017.7214843444
 20
4237.435711496316
 30
0.0
 11
13017.72148434441
 21
2447.435711496317
 31
0.0
  0
LINE
  5
19C2E
330
747D
100
AcDbEntity
  8
細線
 48
50.0
100
AcDbLine
 10
13157.7214843444
 20
4237.435711496316
 30
0.0
 11
13157.72148434441
 21
2447.435711496317
 31
0.0
  0
LINE
  5
19C2F
330
747D
100
AcDbEntity
  8
細線
 48
50.0
100
AcDbLine
 10
13142.7214843444
 20
4237.435711496316
 30
0.0
 11
13142.72148434441
 21
2447.435711496317
 31
0.0
  0
LINE
  5
19C30
330
747D
100
AcDbEntity
  8
部品1
100
AcDbLine
 10
12800.22148434441
 20
4237.435711496316
 30
0.0
 11
12800.22148434441
 21
2447.435711496317
 31
0.0
  0
DIMENSION
  5
19C31
330
747D
100
AcDbEntity
  8
寸法
 48
50.0
100
AcDbDimension
  2
*D31
 10
15455.22148434441
 20
4871.093165075622
 30
0.0
 11
15661.2687284389
 21
4871.093165075622
 31
0.0
 70
   160
 71
     5
 42
80.0
  3
INABA_S40G
100
AcDbAlignedDimension
 13
15375.22148434441
 23
4419.246391107972
 33
0.0
 14
15455.22148434441
 24
4417.43571149632
 34
0.0
100
AcDbRotatedDimension
1001
ACAD
1000
DSTYLE
1002
{
1070
   174
1070
     0
1070
   272
1070
     1
1070
   288
1070
     0
1070
   341
1005
0
1002
}
  0
LINE
  5
19C32
330
747D
100
AcDbEntity
  8
細線
 48
50.0
100
AcDbLine
 10
12037.72148434441
 20
4237.435711496316
 30
0.0
 11
12037.72148434441
 21
2447.435711496317
 31
0.0
  0
LINE
  5
19C33
330
747D
100
AcDbEntity
  8
細線
 48
50.0
100
AcDbLine
 10
12022.72148434441
 20
4237.435711496316
 30
0.0
 11
12022.72148434441
 21
2447.435711496317
 31
0.0
  0
LINE
  5
19C34
330
747D
100
AcDbEntity
  8
細線
 48
50.0
100
AcDbLine
 10
12162.72148434441
 20
4237.435711496316
 30
0.0
 11
12162.72148434441
 21
2447.435711496317
 31
0.0
  0
LINE
  5
19C35
330
747D
100
AcDbEntity
  8
細線
 48
50.0
100
AcDbLine
 10
12177.72148434441
 20
4237.435711496316
 30
0.0
 11
12177.72148434441
 21
2447.435711496317
 31
0.0
  0
LINE
  5
19C36
330
747D
100
AcDbEntity
  8
細線
 48
50.0
100
AcDbLine
 10
12317.7214843444
 20
4237.435711496316
 30
0.0
 11
12317.7214843444
 21
2447.435711496317
 31
0.0
  0
LINE
  5
19C37
330
747D
100
AcDbEntity
  8
細線
 48
50.0
100
AcDbLine
 10
12302.72148434441
 20
4237.435711496316
 30
0.0
 11
12302.72148434441
 21
2447.435711496317
 31
0.0
  0
LINE
  5
19C38
330
747D
100
AcDbEntity
  8
細線
 48
50.0
100
AcDbLine
 10
12722.72148434441
 20
4237.435711496316
 30
0.0
 11
12722.72148434441
 21
2447.435711496317
 31
0.0
  0
LINE
  5
19C39
330
747D
100
AcDbEntity
  8
細線
 48
50.0
100
AcDbLine
 10
12737.7214843444
 20
4237.435711496316
 30
0.0
 11
12737.7214843444
 21
2447.435711496317
 31
0.0
  0
LINE
  5
19C3A
330
747D
100
AcDbEntity
  8
細線
 48
50.0
100
AcDbLine
 10
12597.7214843444
 20
4237.435711496316
 30
0.0
 11
12597.7214843444
 21
2447.435711496317
 31
0.0
  0
LINE
  5
19C3B
330
747D
100
AcDbEntity
  8
細線
 48
50.0
100
AcDbLine
 10
12582.72148434441
 20
4237.435711496316
 30
0.0
 11
12582.72148434441
 21
2447.435711496317
 31
0.0
  0
LINE
  5
19C3C
330
747D
100
AcDbEntity
  8
細線
 48
50.0
100
AcDbLine
 10
12442.72148434441
 20
4237.435711496316
 30
0.0
 11
12442.72148434441
 21
2447.435711496317
 31
0.0
  0
LINE
  5
19C3D
330
747D
100
AcDbEntity
  8
細線
 48
50.0
100
AcDbLine
 10
12457.7214843444
 20
4237.435711496316
 30
0.0
 11
12457.7214843444
 21
2447.435711496317
 31
0.0
  0
LINE
  5
19C3E
330
747D
100
AcDbEntity
  8
部品1
100
AcDbLine
 10
11960.22148434441
 20
2397.435711496317
 30
0.0
 11
15375.22148434441
 21
2397.435711496317
 31
0.0
  0
DIMENSION
  5
19C3F
330
747D
100
AcDbEntity
  8
寸法
 48
50.0
100
AcDbDimension
  2
*D32
 10
11845.22148434441
 20
5101.206757861898
 30
0.0
 11
13650.22148434441
 21
5101.206757861898
 31
0.0
 70
   160
 71
     5
 42
3610.0
  3
INABA_S40G
100
AcDbAlignedDimension
 13
15455.22148434441
 23
4417.435711496317
 33
0.0
 14
11845.22148434441
 24
4472.43571149632
 34
0.0
100
AcDbRotatedDimension
1001
ACAD
1000
DSTYLE
1002
{
1070
   174
1070
     0
1070
   272
1070
     1
1070
   288
1070
     0
1070
   341
1005
0
1002
}
  0
DIMENSION
  5
19C40
330
747D
100
AcDbEntity
  8
寸法
 48
50.0
100
AcDbDimension
  2
*D33
 10
11845.22148434441
 20
4871.09316507562
 30
0.0
 11
11535.58368906882
 21
4871.09316507562
 31
0.0
 70
   160
 71
     5
 42
60.0
  3
INABA_S40G
100
AcDbAlignedDimension
 13
11905.22148434441
 23
4468.437329619294
 33
0.0
 14
11845.22148434441
 24
4472.43571149632
 34
0.0
100
AcDbRotatedDimension
1001
ACAD
1000
DSTYLE
1002
{
1070
   174
1070
     0
1070
   272
1070
     1
1070
   288
1070
     0
1070
   341
1005
0
1002
}
  0
DIMENSION
  5
19C41
330
747D
100
AcDbEntity
  8
寸法
 48
50.0
100
AcDbDimension
  2
*D34
 10
11905.22148434441
 20
4871.093165075622
 30
0.0
 11
13640.22148434441
 21
4871.093165075622
 31
0.0
 70
   160
  1
柱外寸法<>
 71
     5
 42
3470.0
  3
INABA_S40G
100
AcDbAlignedDimension
 13
15375.22148434441
 23
4419.246391107972
 33
0.0
 14
11905.22148434441
 24
4468.437329619294
 34
0.0
100
AcDbRotatedDimension
1001
ACAD
1000
DSTYLE
1002
{
1070
   174
1070
     0
1070
   272
1070
     1
1070
   288
1070
     0
1070
   341
1005
0
1002
}
  0
LINE
  5
19C42
330
747D
100
AcDbEntity
  8
部品1
100
AcDbLine
 10
15320.22148434441
 20
4237.435711496317
 30
0.0
 11
15320.22148434441
 21
2447.435711496319
 31
0.0
  0
LINE
  5
19C43
330
747D
100
AcDbEntity
  8
部品1
100
AcDbLine
 10
15375.22148434441
 20
4291.865739277437
 30
0.0
 11
15375.22148434441
 21
2297.435711496319
 31
0.0
  0
LINE
  5
19C44
330
747D
100
AcDbEntity
  8
部品1
100
AcDbLine
 10
12380.2214843444
 20
4237.435711496316
 30
0.0
 11
12380.2214843444
 21
2447.435711496317
 31
0.0
  0
DIMENSION
  5
19C45
330
747D
100
AcDbEntity
  8
寸法
100
AcDbDimension
  2
*D35
 10
11061.47135516115
 20
2397.435711496317
 30
0.0
 11
11061.47135516115
 21
2091.388467401826
 31
0.0
 70
   160
 71
     5
 42
50.0
  3
INABA_S40G
100
AcDbAlignedDimension
 13
11905.22148434441
 23
2447.435711496317
 33
0.0
 14
11850.22148434441
 24
2397.435711496317
 34
0.0
 50
90.0
100
AcDbRotatedDimension
1001
ACAD
1000
DSTYLE
1002
{
1070
   174
1070
     0
1070
   272
1070
     1
1070
   288
1070
     0
1070
   341
1005
0
1002
}
  0
LINE
  5
19C46
330
747D
100
AcDbEntity
  8
部品1
100
AcDbLine
 10
11905.22148434441
 20
4329.578149425196
 30
0.0
 11
11905.22148434441
 21
2297.435711496317
 31
0.0
  0
LINE
  5
19C47
330
747D
100
AcDbEntity
  8
部品1
100
AcDbLine
 10
11960.2214843444
 20
4237.435711496316
 30
0.0
 11
11960.22148434441
 21
2297.435711496317
 31
0.0
  0
LINE
  5
19C48
330
747D
100
AcDbEntity
  8
部品1
100
AcDbLine
 10
11960.22148434441
 20
2447.435711496317
 30
0.0
 11
15375.22148434441
 21
2447.435711496319
 31
0.0
  0
LINE
  5
19C49
330
747D
100
AcDbEntity
  8
部品1
100
AcDbLine
 10
11905.22148434441
 20
4237.435711496316
 30
0.0
 11
15375.2214843444
 21
4237.435711496316
 31
0.0
  0
LINE
  5
19C4A
330
747D
100
AcDbEntity
  8
部品1
100
AcDbLine
 10
15320.2214843444
 20
4237.43571149632
 30
0.0
 11
15320.2214843444
 21
2447.435711496322
 31
0.0
  0
LINE
  5
19C4B
330
747D
100
AcDbEntity
  8
細線
 48
50.0
100
AcDbLine
 10
13562.7214843444
 20
4237.435711496316
 30
0.0
 11
13562.7214843444
 21
2447.435711496317
 31
0.0
  0
LINE
  5
19C4C
330
747D
100
AcDbEntity
  8
細線
 48
50.0
100
AcDbLine
 10
13577.7214843444
 20
4237.435711496316
 30
0.0
 11
13577.7214843444
 21
2447.435711496317
 31
0.0
  0
LINE
  5
19C4D
330
747D
100
AcDbEntity
  8
細線
 48
50.0
100
AcDbLine
 10
13437.7214843444
 20
4237.435711496316
 30
0.0
 11
13437.7214843444
 21
2447.435711496317
 31
0.0
  0
LINE
  5
19C4E
330
747D
100
AcDbEntity
  8
細線
 48
50.0
100
AcDbLine
 10
13422.7214843444
 20
4237.435711496316
 30
0.0
 11
13422.7214843444
 21
2447.435711496317
 31
0.0
  0
LINE
  5
19C4F
330
747D
100
AcDbEntity
  8
細線
 48
50.0
100
AcDbLine
 10
13282.7214843444
 20
4237.435711496316
 30
0.0
 11
13282.7214843444
 21
2447.435711496317
 31
0.0
  0
LINE
  5
19C50
330
747D
100
AcDbEntity
  8
細線
 48
50.0
100
AcDbLine
 10
13297.7214843444
 20
4237.435711496316
 30
0.0
 11
13297.7214843444
 21
2447.435711496317
 31
0.0
  0
TEXT
  5
19C51
330
747D
100
AcDbEntity
  8
部品1
 48
50.0
100
AcDbText
 10
13966.12234223322
 20
4494.704804434623
 30
0.0
 40
120.0
  1
28
 50
90.0
  7
STYLE1
100
AcDbText
  0
TEXT
  5
19C52
330
747D
100
AcDbEntity
  8
部品1
 48
50.0
100
AcDbText
 10
13488.48931956813
 20
4632.206062652906
 30
0.0
 40
120.0
  1
1000
  7
STYLE1
100
AcDbText
  0
LINE
  5
19C53
330
747D
100
AcDbEntity
  8
部品1
 48
50.0
100
AcDbLine
 10
13800.22148434441
 20
4596.322040500472
 30
0.0
 11
13800.22148434441
 21
4580.122040500473
 31
0.0
  0
LINE
  5
19C54
330
747D
100
AcDbEntity
  8
部品1
 48
50.0
100
AcDbLine
 10
13500.22148434441
 20
4596.322040500472
 30
0.0
 11
13800.22148434441
 21
4596.322040500472
 31
0.0
  0
LINE
  5
19C55
330
747D
100
AcDbEntity
  8
部品1
100
AcDbLine
 10
11852.76647070137
 20
4471.153446830583
 30
0.0
 11
15447.83336120587
 21
4416.076509205457
 31
0.0
  0
LINE
  5
19C56
330
747D
100
AcDbEntity
  8
部品1
100
AcDbLine
 10
11860.56404894636
 20
4330.216736565284
 30
0.0
 11
15429.88518488426
 21
4291.18831133108
 31
0.0
  0
LINE
  5
19C57
330
747D
100
AcDbEntity
  8
細線
 48
50.0
100
AcDbLine
 10
11878.2214843444
 20
4469.835387871721
 30
0.0
 11
11872.9323827889
 21
4329.749755244368
 31
0.0
  0
LINE
  5
19C58
330
747D
100
AcDbEntity
  8
細線
 48
50.0
100
AcDbLine
 10
15422.1907675381
 20
4416.589133975786
 30
0.0
 11
15417.47380145641
 21
4291.656918040871
 31
0.0
  0
LINE
  5
19C59
330
747D
100
AcDbEntity
  8
部品1
 48
50.0
100
AcDbLine
 10
11845.40577025751
 20
4464.029257661009
 30
0.0
 11
11845.78603003532
 21
4444.102293214596
 31
0.0
  0
LINE
  5
19C5A
330
747D
100
AcDbEntity
  8
部品1
 48
50.0
100
AcDbLine
 10
11848.85480214157
 20
4440.527011721125
 30
0.0
 11
11850.55870363293
 21
4351.236515014479
 31
0.0
  0
LINE
  5
19C5B
330
747D
100
AcDbEntity
  8
細線
 48
50.0
100
AcDbLine
 10
11846.26090744522
 20
4443.452793337677
 30
0.0
 11
15451.89689219039
 21
4387.828588696851
 31
0.0
  0
LINE
  5
19C5C
330
747D
100
AcDbEntity
  8
細線
 48
50.0
100
AcDbLine
 10
11851.02138268251
 20
4350.591281639816
 30
0.0
 11
15441.02504711315
 21
4310.781962665321
 31
0.0
  0
LINE
  5
19C5D
330
747D
100
AcDbEntity
  8
部品1
 48
50.0
100
AcDbLine
 10
11853.62747573918
 20
4347.661233521005
 30
0.0
 11
11853.82942835961
 21
4337.078198127914
 31
0.0
  0
ARC
  5
19C5E
330
747D
100
AcDbEntity
  8
部品1
 48
50.0
100
AcDbCircle
 10
11852.40449608585
 20
4464.162812068436
 30
0.0
 40
7.0
100
AcDbArc
 50
87.03587545283095
 51
181.0932240293156
  0
ARC
  5
19C5F
330
747D
100
AcDbEntity
  8
部品1
 48
50.0
100
AcDbCircle
 10
11860.82815418795
 20
4337.211752535342
 30
0.0
 40
7.0
100
AcDbArc
 50
181.0932240293156
 51
267.8377559869487
  0
ARC
  5
19C60
330
747D
100
AcDbEntity
  8
部品1
100
AcDbCircle
 10
11850.62802181275
 20
4347.603995917822
 30
0.0
 40
3.0
100
AcDbArc
 50
1.093224029315636
 51
80.18775403169653
  0
ARC
  5
19C61
330
747D
100
AcDbEntity
  8
部品1
100
AcDbCircle
 10
11845.85534821514
 20
4440.469774117942
 30
0.0
 40
3.0
100
AcDbArc
 50
1.093224029315636
 51
80.18775403169653
  0
ARC
  5
19C62
330
747D
100
AcDbEntity
  8
部品1
100
AcDbCircle
 10
11846.48590261816
 20
4444.115648655341
 30
0.0
 40
0.7
100
AcDbArc
 50
181.0932240292114
 51
260.1877540314867
  0
ARC
  5
19C63
330
747D
100
AcDbEntity
  8
部品1
100
AcDbCircle
 10
11851.25857621577
 20
4351.24987045522
 30
0.0
 40
0.7
100
AcDbArc
 50
181.0932240292635
 51
260.1877540314867
  0
LINE
  5
19C64
330
747D
100
AcDbEntity
  8
部品1
 48
50.0
100
AcDbLine
 10
15454.43538715511
 20
4408.376863770535
 30
0.0
 11
15452.40476596414
 21
4388.431822512757
 31
0.0
  0
LINE
  5
19C65
330
747D
100
AcDbEntity
  8
部品1
 48
50.0
100
AcDbLine
 10
15449.05219947965
 20
4385.121188439848
 30
0.0
 11
15441.54542021482
 21
4311.388567694834
 31
0.0
  0
LINE
  5
19C66
330
747D
100
AcDbEntity
  8
部品1
 48
50.0
100
AcDbLine
 10
15438.19285373033
 20
4308.077933621923
 30
0.0
 11
15437.11329069059
 21
4297.474316628364
 31
0.0
  0
ARC
  5
19C67
330
747D
100
AcDbEntity
  8
部品1
 48
50.0
100
AcDbCircle
 10
15447.47138659036
 20
4409.085874443309
 30
0.0
 40
7.0
100
AcDbArc
 50
354.1866997665791
 51
87.03587545283095
  0
ARC
  5
19C68
330
747D
100
AcDbEntity
  8
部品1
 48
50.0
100
AcDbCircle
 10
15430.14929012584
 20
4298.183327301138
 30
0.0
 40
7.0
100
AcDbArc
 50
267.8377559869487
 51
354.1866997665791
  0
ARC
  5
19C69
330
747D
100
AcDbEntity
  8
部品1
100
AcDbCircle
 10
15441.17742540095
 20
4307.774071905019
 30
0.0
 40
3.0
100
AcDbArc
 50
95.0921697642102
 51
174.1866997665791
  0
ARC
  5
19C6A
330
747D
100
AcDbEntity
  8
部品1
100
AcDbCircle
 10
15452.03677115027
 20
4384.817326722943
 30
0.0
 40
3.0
100
AcDbArc
 50
95.0921697642102
 51
174.1866997665791
  0
ARC
  5
19C6B
330
747D
100
AcDbEntity
  8
部品1
100
AcDbCircle
 10
15451.70836590767
 20
4388.502723580034
 30
0.0
 40
0.7
100
AcDbArc
 50
275.0921697642102
 51
354.1866997665791
  0
ARC
  5
19C6C
330
747D
100
AcDbEntity
  8
部品1
100
AcDbCircle
 10
15440.84902015834
 20
4311.45946876211
 30
0.0
 40
0.7
100
AcDbArc
 50
275.0921697642102
 51
354.1866997667087
  0
LINE
  5
19C6D
330
747D
100
AcDbEntity
  8
部品1
100
AcDbLine
 10
13474.76647070137
 20
4597.640099459333
 30
0.0
 11
13800.22148434441
 21
4580.122040500473
 31
0.0
  0
LINE
  5
19C6E
330
747D
100
AcDbEntity
  8
部品1
100
AcDbLine
 10
13640.22148434441
 20
4237.435711496316
 30
0.0
 11
13640.22148434441
 21
2447.435711496319
 31
0.0
  0
LINE
  5
19C6F
330
747D
100
AcDbEntity
  8
細線
 48
50.0
100
AcDbLine
 10
13717.72148434441
 20
4237.435711496316
 30
0.0
 11
13717.72148434441
 21
2447.435711496319
 31
0.0
  0
LINE
  5
19C70
330
747D
100
AcDbEntity
  8
細線
 48
50.0
100
AcDbLine
 10
13702.7214843444
 20
4237.435711496316
 30
0.0
 11
13702.7214843444
 21
2447.435711496319
 31
0.0
  0
LINE
  5
19C71
330
747D
100
AcDbEntity
  8
細線
 48
50.0
100
AcDbLine
 10
13842.7214843444
 20
4237.435711496316
 30
0.0
 11
13842.7214843444
 21
2447.435711496319
 31
0.0
  0
LINE
  5
19C72
330
747D
100
AcDbEntity
  8
細線
 48
50.0
100
AcDbLine
 10
13857.72148434441
 20
4237.435711496316
 30
0.0
 11
13857.72148434441
 21
2447.435711496319
 31
0.0
  0
LINE
  5
19C73
330
747D
100
AcDbEntity
  8
細線
 48
50.0
100
AcDbLine
 10
13997.72148434441
 20
4237.435711496316
 30
0.0
 11
13997.72148434441
 21
2447.435711496319
 31
0.0
  0
LINE
  5
19C74
330
747D
100
AcDbEntity
  8
細線
 48
50.0
100
AcDbLine
 10
13982.7214843444
 20
4237.435711496316
 30
0.0
 11
13982.7214843444
 21
2447.435711496319
 31
0.0
  0
DIMENSION
  5
19C75
330
747D
100
AcDbEntity
  8
寸法
100
AcDbDimension
  2
*D36
 10
16080.14864231653
 20
4417.435711496317
 30
0.0
 11
15980.1368312929
 21
3407.435711496321
 31
0.0
 70
    32
 71
     5
 42
2019.999999999998
  3
INABA_S40G
100
AcDbAlignedDimension
 13
15375.22148434441
 23
2397.435711496319
 33
0.0
 14
15455.22148434441
 24
4417.435711496317
 34
0.0
 50
90.0
100
AcDbRotatedDimension
1001
ACAD
1000
DSTYLE
1002
{
1070
   174
1070
     0
1070
   272
1070
     1
1070
   288
1070
     0
1070
   341
1005
0
1002
}
  0
DIMENSION
  5
19C76
330
747D
100
AcDbEntity
  8
寸法
100
AcDbDimension
  2
*D37
 10
10761.47135516115
 20
4472.435711496316
 30
0.0
 11
10661.45954413752
 21
3434.935711496317
 31
0.0
 70
    32
 71
     5
 42
2075.000000000005
  3
INABA_S40G
100
AcDbAlignedDimension
 13
11905.22148434441
 23
2397.435711496312
 33
0.0
 14
11845.22148434441
 24
4472.435711496316
 34
0.0
 50
90.0
100
AcDbRotatedDimension
1001
ACAD
1000
DSTYLE
1002
{
1070
   174
1070
     0
1070
   272
1070
     1
1070
   288
1070
     0
1070
   341
1005
0
1002
}
  0
DIMENSION
  5
19C77
330
747D
100
AcDbEntity
  8
寸法
100
AcDbDimension
  2
*D38
 10
11061.47135516115
 20
2447.435711496313
 30
0.0
 11
10961.47135516115
 21
3342.435711496315
 31
0.0
 70
    32
 71
     5
 42
1790.000000000001
  3
INABA_S40G
100
AcDbAlignedDimension
 13
11905.22148434441
 23
4237.435711496313
 33
0.0
 14
11905.22148434441
 24
2447.435711496313
 34
0.0
 50
90.0
100
AcDbRotatedDimension
1001
ACAD
1000
DSTYLE
1002
{
1070
   174
1070
     0
1070
   272
1070
     1
1070
   288
1070
     0
1070
   341
1005
0
1002
}
  0
LINE
  5
19C7C
330
747D
100
AcDbEntity
  8
破線
 48
5.0
100
AcDbLine
 10
11905.22148434441
 20
2297.435711496317
 30
0.0
 11
11905.22148434441
 21
2047.435711496317
 31
0.0
  0
LINE
  5
19C7D
330
747D
100
AcDbEntity
  8
破線
 48
5.0
100
AcDbLine
 10
11960.22148434441
 20
2297.435711496317
 30
0.0
 11
11960.22148434441
 21
2047.435711496317
 31
0.0
  0
LINE
  5
19C7E
330
747D
100
AcDbEntity
  8
破線
 48
5.0
100
AcDbLine
 10
11905.22148434441
 20
2047.435711496317
 30
0.0
 11
11960.2214843444
 21
2047.435711496317
 31
0.0
  0
LINE
  5
19C7F
330
747D
100
AcDbEntity
  8
部品1
100
AcDbLine
 10
11905.22148434441
 20
2397.435711496317
 30
0.0
 11
11512.22427013556
 21
2297.435711496317
 31
0.0
  0
LINE
  5
1A2C0
330
747D
100
AcDbEntity
  8
部品1
100
AcDbLine
 10
1457.673057123629
 20
9442.57393184592
 30
0.0
 11
1429.673057123629
 21
9442.57393184592
 31
0.0
  0
LINE
  5
1A2C1
330
747D
100
AcDbEntity
  8
部品1
100
AcDbLine
 10
4031.673057123647
 20
9442.573931846002
 30
0.0
 11
4059.673057123648
 21
9442.573931846002
 31
0.0
  0
LINE
  5
1A2C2
330
747D
100
AcDbEntity
  8
部品1
100
AcDbLine
 10
6661.673057123647
 20
9442.573931846002
 30
0.0
 11
6689.673057123648
 21
9442.573931846002
 31
0.0
  0
LINE
  5
1A2C3
330
747D
100
AcDbEntity
  8
部品1
100
AcDbLine
 10
9291.673057123656
 20
9442.573931846048
 30
0.0
 11
9319.673057123653
 21
9442.573931846048
 31
0.0
  0
DIMENSION
  5
1A5CB
330
747D
100
AcDbEntity
  8
寸法
 48
50.0
100
AcDbDimension
  2
*D39
 10
9607.216159445401
 20
4045.435711496317
 30
0.0
 11
9507.216159445402
 21
3221.435711496319
 31
0.0
 70
    32
  1
有効開口部高サ <>
 71
     5
 42
1648.0
  3
INABA_S40G
100
AcDbAlignedDimension
 13
9319.673057123656
 23
2397.435711496317
 33
0.0
 14
9319.673057123656
 24
4045.435711496317
 34
0.0
 50
90.0
100
AcDbRotatedDimension
  0
DIMENSION
  5
1A5CC
330
747D
100
AcDbEntity
  8
寸法
 48
50.0
100
AcDbDimension
  2
*D40
 10
9607.216159445401
 20
4072.435711496317
 30
0.0
 11
9747.385982691771
 21
4073.402911335976
 31
0.0
 70
   160
 71
     5
 42
26.99999999999955
  3
INABA_S40G
100
AcDbAlignedDimension
 13
9319.673057123656
 23
4045.435711496317
 33
0.0
 14
9319.673057123656
 24
4072.435711496317
 34
0.0
 50
90.0
100
AcDbRotatedDimension
1001
ACAD
1000
DSTYLE
1002
{
1070
   279
1070
     2
1002
}
  0
DIMENSION
  5
1A5CD
330
747D
100
AcDbEntity
  8
寸法
 48
50.0
100
AcDbDimension
  2
*D41
 10
9607.216159445403
 20
4237.435711496316
 30
0.0
 11
9607.216159445401
 21
4475.920992870555
 31
0.0
 70
   160
 71
     5
 42
164.9999999999986
  3
INABA_S40G
100
AcDbAlignedDimension
 13
9319.673057123656
 23
4072.435711496317
 33
0.0
 14
9319.673057123656
 24
4237.435711496316
 34
0.0
 50
90.0
100
AcDbRotatedDimension
1001
ACAD
1000
DSTYLE
1002
{
1002
}
  0
TEXT
  5
1B45D
330
747D
100
AcDbEntity
  8
文字
 62
     7
 48
50.0
100
AcDbText
 10
15022.63965474516
 20
9740.013745883723
 30
0.0
 40
100.0
  1
F12            1.2
  7
STYLE1
100
AcDbText
  0
LINE
  5
1B477
330
747D
100
AcDbEntity
  8
仕様書枠
 48
50.0
100
AcDbLine
 10
16307.19999999999
 20
8689.599999999998
 30
0.0
 11
13127.19999999999
 21
8689.600000000003
 31
0.0
  0
TEXT
  5
1B47E
330
747D
100
AcDbEntity
  8
文字
 62
     7
 48
50.0
100
AcDbText
 10
15022.63965474517
 20
10760.01374588372
 30
0.0
 40
100.0
  1
F12         1.0,1.2
  7
STYLE1
100
AcDbText
  0
TEXT
  5
1B481
330
747D
100
AcDbEntity
  8
文字
 62
     7
 48
50.0
100
AcDbText
 10
15022.63965474516
 20
9060.013745883725
 30
0.0
 40
100.0
  1
F12            0.7
  7
STYLE1
100
AcDbText
  0
LINE
  5
1B483
330
747D
100
AcDbEntity
  8
破線
 48
5.0
100
AcDbLine
 10
4059.673057123656
 20
2122.435711496317
 30
0.0
 11
4059.673057123656
 21
2047.435711496317
 31
0.0
  0
LINE
  5
1B484
330
747D
100
AcDbEntity
  8
破線
 48
5.0
100
AcDbLine
 10
4009.673057123655
 20
2047.435711496317
 30
0.0
 11
4109.673057123655
 21
2047.435711496317
 31
0.0
  0
LINE
  5
1B485
330
747D
100
AcDbEntity
  8
破線
 48
5.0
100
AcDbLine
 10
6639.673057123657
 20
2047.435711496317
 30
0.0
 11
6739.673057123657
 21
2047.435711496317
 31
0.0
  0
LINE
  5
1B486
330
747D
100
AcDbEntity
  8
破線
 48
5.0
100
AcDbLine
 10
6689.673057123657
 20
2122.435711496317
 30
0.0
 11
6689.673057123657
 21
2047.435711496317
 31
0.0
  0
LINE
  5
1BA1D
330
747D
100
AcDbEntity
  8
部品1
 48
50.0
100
AcDbLine
 10
4126.673057123655
 20
6913.07393184595
 30
0.0
 11
6622.67305712364
 21
6913.07393184595
 31
0.0
  0
LINE
  5
1BA6D
330
747D
100
AcDbEntity
  8
細線
100
AcDbLine
 10
1532.673057123654
 20
2927.435711496318
 30
0.0
 11
3956.673057123656
 21
2927.435711496318
 31
0.0
  0
LINE
  5
1BA6E
330
747D
100
AcDbEntity
  8
細線
100
AcDbLine
 10
1532.673057123654
 20
2862.435711496318
 30
0.0
 11
3956.673057123656
 21
2862.435711496318
 31
0.0
  0
LINE
  5
1BA6F
330
747D
100
AcDbEntity
  8
細線
100
AcDbLine
 10
1532.673057123654
 20
2797.435711496318
 30
0.0
 11
3956.673057123656
 21
2797.435711496318
 31
0.0
  0
LINE
  5
1BA70
330
747D
100
AcDbEntity
  8
細線
100
AcDbLine
 10
1532.673057123654
 20
2732.435711496318
 30
0.0
 11
3956.673057123656
 21
2732.435711496318
 31
0.0
  0
LINE
  5
1BA71
330
747D
100
AcDbEntity
  8
細線
100
AcDbLine
 10
1532.673057123654
 20
2667.435711496318
 30
0.0
 11
3956.673057123656
 21
2667.435711496318
 31
0.0
  0
LINE
  5
1BA72
330
747D
100
AcDbEntity
  8
細線
100
AcDbLine
 10
1532.673057123654
 20
2602.435711496318
 30
0.0
 11
3956.673057123656
 21
2602.435711496318
 31
0.0
  0
LINE
  5
1BA73
330
747D
100
AcDbEntity
  8
細線
100
AcDbLine
 10
1532.673057123654
 20
2537.435711496318
 30
0.0
 11
3956.673057123656
 21
2537.435711496318
 31
0.0
  0
LINE
  5
1BA74
330
747D
100
AcDbEntity
  8
細線
100
AcDbLine
 10
1532.673057123654
 20
2472.435711496319
 30
0.0
 11
3956.673057123656
 21
2472.435711496319
 31
0.0
  0
LINE
  5
1BA75
330
747D
100
AcDbEntity
  8
細線
100
AcDbLine
 10
1532.673057123654
 20
3577.435711496318
 30
0.0
 11
3956.673057123656
 21
3577.435711496318
 31
0.0
  0
LINE
  5
1BA76
330
747D
100
AcDbEntity
  8
細線
100
AcDbLine
 10
1532.673057123654
 20
3512.435711496318
 30
0.0
 11
3956.673057123656
 21
3512.435711496318
 31
0.0
  0
LINE
  5
1BA77
330
747D
100
AcDbEntity
  8
細線
100
AcDbLine
 10
1532.673057123654
 20
3447.435711496318
 30
0.0
 11
3956.673057123656
 21
3447.435711496318
 31
0.0
  0
LINE
  5
1BA78
330
747D
100
AcDbEntity
  8
細線
100
AcDbLine
 10
1532.673057123654
 20
3382.435711496319
 30
0.0
 11
3956.673057123656
 21
3382.435711496319
 31
0.0
  0
LINE
  5
1BA79
330
747D
100
AcDbEntity
  8
細線
100
AcDbLine
 10
1532.673057123654
 20
3317.435711496318
 30
0.0
 11
3956.673057123656
 21
3317.435711496318
 31
0.0
  0
LINE
  5
1BA7A
330
747D
100
AcDbEntity
  8
細線
100
AcDbLine
 10
1532.673057123654
 20
3252.435711496318
 30
0.0
 11
3956.673057123656
 21
3252.435711496318
 31
0.0
  0
LINE
  5
1BA7B
330
747D
100
AcDbEntity
  8
細線
100
AcDbLine
 10
1532.673057123654
 20
3187.435711496318
 30
0.0
 11
3956.673057123656
 21
3187.435711496318
 31
0.0
  0
LINE
  5
1BA7C
330
747D
100
AcDbEntity
  8
細線
100
AcDbLine
 10
1532.673057123654
 20
3122.435711496319
 30
0.0
 11
3956.673057123656
 21
3122.435711496319
 31
0.0
  0
LINE
  5
1BA7D
330
747D
100
AcDbEntity
  8
細線
100
AcDbLine
 10
1532.673057123654
 20
3057.435711496318
 30
0.0
 11
3956.673057123656
 21
3057.435711496318
 31
0.0
  0
LINE
  5
1BA7E
330
747D
100
AcDbEntity
  8
細線
100
AcDbLine
 10
1532.673057123654
 20
2992.435711496318
 30
0.0
 11
3956.673057123656
 21
2992.435711496318
 31
0.0
  0
LINE
  5
1BA7F
330
747D
100
AcDbEntity
  8
細線
100
AcDbLine
 10
1532.673057123654
 20
3967.435711496318
 30
0.0
 11
3956.673057123656
 21
3967.435711496318
 31
0.0
  0
LINE
  5
1BA80
330
747D
100
AcDbEntity
  8
細線
100
AcDbLine
 10
1532.673057123654
 20
3902.435711496318
 30
0.0
 11
3956.673057123656
 21
3902.435711496318
 31
0.0
  0
LINE
  5
1BA81
330
747D
100
AcDbEntity
  8
細線
100
AcDbLine
 10
1532.673057123654
 20
3837.435711496318
 30
0.0
 11
3956.673057123656
 21
3837.435711496318
 31
0.0
  0
LINE
  5
1BA82
330
747D
100
AcDbEntity
  8
細線
100
AcDbLine
 10
1532.673057123654
 20
3772.435711496318
 30
0.0
 11
3956.673057123656
 21
3772.435711496318
 31
0.0
  0
LINE
  5
1BA83
330
747D
100
AcDbEntity
  8
細線
100
AcDbLine
 10
1532.673057123654
 20
3707.435711496319
 30
0.0
 11
3956.673057123656
 21
3707.435711496319
 31
0.0
  0
LINE
  5
1BA84
330
747D
100
AcDbEntity
  8
細線
100
AcDbLine
 10
1532.673057123654
 20
3642.435711496318
 30
0.0
 11
3956.673057123656
 21
3642.435711496318
 31
0.0
  0
LINE
  5
1BA85
330
747D
100
AcDbEntity
  8
細線
100
AcDbLine
 10
1532.673057123654
 20
4032.435711496318
 30
0.0
 11
3956.673057123656
 21
4032.435711496318
 31
0.0
  0
LINE
  5
1BA8D
330
747D
100
AcDbEntity
  8
細線
100
AcDbLine
 10
3956.673057123658
 20
2407.435711496318
 30
0.0
 11
1532.673057123652
 21
2407.435711496318
 31
0.0
  0
LINE
  5
1BA8E
330
747D
100
AcDbEntity
  8
細線
100
AcDbLine
 10
4162.673057123654
 20
4032.435711496318
 30
0.0
 11
6586.673057123656
 21
4032.435711496318
 31
0.0
  0
LINE
  5
1BA96
330
747D
100
AcDbEntity
  8
細線
100
AcDbLine
 10
4162.673057123654
 20
3642.435711496318
 30
0.0
 11
6586.673057123656
 21
3642.435711496318
 31
0.0
  0
LINE
  5
1BA97
330
747D
100
AcDbEntity
  8
細線
100
AcDbLine
 10
4162.673057123654
 20
3707.435711496319
 30
0.0
 11
6586.673057123656
 21
3707.435711496319
 31
0.0
  0
LINE
  5
1BA98
330
747D
100
AcDbEntity
  8
細線
100
AcDbLine
 10
4162.673057123654
 20
3772.435711496318
 30
0.0
 11
6586.673057123656
 21
3772.435711496318
 31
0.0
  0
LINE
  5
1BA99
330
747D
100
AcDbEntity
  8
細線
100
AcDbLine
 10
4162.673057123654
 20
3837.435711496318
 30
0.0
 11
6586.673057123656
 21
3837.435711496318
 31
0.0
  0
LINE
  5
1BA9A
330
747D
100
AcDbEntity
  8
細線
100
AcDbLine
 10
4162.673057123654
 20
3902.435711496318
 30
0.0
 11
6586.673057123656
 21
3902.435711496318
 31
0.0
  0
LINE
  5
1BA9B
330
747D
100
AcDbEntity
  8
細線
100
AcDbLine
 10
4162.673057123654
 20
3967.435711496318
 30
0.0
 11
6586.673057123656
 21
3967.435711496318
 31
0.0
  0
LINE
  5
1BA9C
330
747D
100
AcDbEntity
  8
細線
100
AcDbLine
 10
4162.673057123654
 20
2992.435711496318
 30
0.0
 11
6586.673057123656
 21
2992.435711496318
 31
0.0
  0
LINE
  5
1BA9D
330
747D
100
AcDbEntity
  8
細線
100
AcDbLine
 10
4162.673057123654
 20
3057.435711496318
 30
0.0
 11
6586.673057123656
 21
3057.435711496318
 31
0.0
  0
LINE
  5
1BA9E
330
747D
100
AcDbEntity
  8
細線
100
AcDbLine
 10
4162.673057123654
 20
3122.435711496319
 30
0.0
 11
6586.673057123656
 21
3122.435711496319
 31
0.0
  0
LINE
  5
1BA9F
330
747D
100
AcDbEntity
  8
細線
100
AcDbLine
 10
4162.673057123654
 20
3187.435711496318
 30
0.0
 11
6586.673057123656
 21
3187.435711496318
 31
0.0
  0
LINE
  5
1BAA0
330
747D
100
AcDbEntity
  8
細線
100
AcDbLine
 10
4162.673057123654
 20
3252.435711496318
 30
0.0
 11
6586.673057123656
 21
3252.435711496318
 31
0.0
  0
LINE
  5
1BAA1
330
747D
100
AcDbEntity
  8
細線
100
AcDbLine
 10
4162.673057123654
 20
3317.435711496318
 30
0.0
 11
6586.673057123656
 21
3317.435711496318
 31
0.0
  0
LINE
  5
1BAA2
330
747D
100
AcDbEntity
  8
細線
100
AcDbLine
 10
4162.673057123654
 20
3382.435711496319
 30
0.0
 11
6586.673057123656
 21
3382.435711496319
 31
0.0
  0
LINE
  5
1BAA3
330
747D
100
AcDbEntity
  8
細線
100
AcDbLine
 10
4162.673057123654
 20
3447.435711496318
 30
0.0
 11
6586.673057123656
 21
3447.435711496318
 31
0.0
  0
LINE
  5
1BAA4
330
747D
100
AcDbEntity
  8
細線
100
AcDbLine
 10
4162.673057123654
 20
3512.435711496318
 30
0.0
 11
6586.673057123656
 21
3512.435711496318
 31
0.0
  0
LINE
  5
1BAA5
330
747D
100
AcDbEntity
  8
細線
100
AcDbLine
 10
4162.673057123654
 20
3577.435711496318
 30
0.0
 11
6586.673057123656
 21
3577.435711496318
 31
0.0
  0
LINE
  5
1BAA6
330
747D
100
AcDbEntity
  8
細線
100
AcDbLine
 10
4162.673057123654
 20
2472.435711496319
 30
0.0
 11
6586.673057123656
 21
2472.435711496319
 31
0.0
  0
LINE
  5
1BAA7
330
747D
100
AcDbEntity
  8
細線
100
AcDbLine
 10
4162.673057123654
 20
2537.435711496318
 30
0.0
 11
6586.673057123656
 21
2537.435711496318
 31
0.0
  0
LINE
  5
1BAA8
330
747D
100
AcDbEntity
  8
細線
100
AcDbLine
 10
4162.673057123654
 20
2602.435711496318
 30
0.0
 11
6586.673057123656
 21
2602.435711496318
 31
0.0
  0
LINE
  5
1BAA9
330
747D
100
AcDbEntity
  8
細線
100
AcDbLine
 10
4162.673057123654
 20
2667.435711496318
 30
0.0
 11
6586.673057123656
 21
2667.435711496318
 31
0.0
  0
LINE
  5
1BAAA
330
747D
100
AcDbEntity
  8
細線
100
AcDbLine
 10
4162.673057123654
 20
2732.435711496318
 30
0.0
 11
6586.673057123656
 21
2732.435711496318
 31
0.0
  0
LINE
  5
1BAAB
330
747D
100
AcDbEntity
  8
細線
100
AcDbLine
 10
4162.673057123654
 20
2797.435711496318
 30
0.0
 11
6586.673057123656
 21
2797.435711496318
 31
0.0
  0
LINE
  5
1BAAC
330
747D
100
AcDbEntity
  8
細線
100
AcDbLine
 10
4162.673057123654
 20
2862.435711496318
 30
0.0
 11
6586.673057123656
 21
2862.435711496318
 31
0.0
  0
LINE
  5
1BAAD
330
747D
100
AcDbEntity
  8
細線
100
AcDbLine
 10
4162.673057123654
 20
2927.435711496318
 30
0.0
 11
6586.673057123656
 21
2927.435711496318
 31
0.0
  0
LINE
  5
1BAB0
330
747D
100
AcDbEntity
  8
細線
100
AcDbLine
 10
6586.673057123658
 20
2407.435711496318
 30
0.0
 11
4162.673057123652
 21
2407.435711496318
 31
0.0
  0
LINE
  5
1BAB1
330
747D
100
AcDbEntity
  8
部品1
100
AcDbLine
 10
4114.673057123656
 20
4072.435711496317
 30
0.0
 11
6744.673057123657
 21
4072.435711496318
 31
0.0
  0
LINE
  5
1BADE
330
747D
100
AcDbEntity
  8
細線
100
AcDbLine
 10
6792.673057123654
 20
4032.435711496318
 30
0.0
 11
9216.673057123655
 21
4032.435711496318
 31
0.0
  0
LINE
  5
1BAE1
330
747D
100
AcDbEntity
  8
細線
100
AcDbLine
 10
6792.673057123654
 20
2927.435711496318
 30
0.0
 11
9216.673057123655
 21
2927.435711496318
 31
0.0
  0
LINE
  5
1BAE2
330
747D
100
AcDbEntity
  8
細線
100
AcDbLine
 10
6792.673057123654
 20
2862.435711496318
 30
0.0
 11
9216.673057123655
 21
2862.435711496318
 31
0.0
  0
LINE
  5
1BAE3
330
747D
100
AcDbEntity
  8
細線
100
AcDbLine
 10
6792.673057123654
 20
2797.435711496318
 30
0.0
 11
9216.673057123655
 21
2797.435711496318
 31
0.0
  0
LINE
  5
1BAE4
330
747D
100
AcDbEntity
  8
細線
100
AcDbLine
 10
6792.673057123654
 20
2732.435711496318
 30
0.0
 11
9216.673057123655
 21
2732.435711496318
 31
0.0
  0
LINE
  5
1BAE5
330
747D
100
AcDbEntity
  8
細線
100
AcDbLine
 10
6792.673057123654
 20
2667.435711496318
 30
0.0
 11
9216.673057123655
 21
2667.435711496318
 31
0.0
  0
LINE
  5
1BAE6
330
747D
100
AcDbEntity
  8
細線
100
AcDbLine
 10
6792.673057123654
 20
2602.435711496318
 30
0.0
 11
9216.673057123655
 21
2602.435711496318
 31
0.0
  0
LINE
  5
1BAE7
330
747D
100
AcDbEntity
  8
細線
100
AcDbLine
 10
6792.673057123654
 20
2537.435711496318
 30
0.0
 11
9216.673057123655
 21
2537.435711496318
 31
0.0
  0
LINE
  5
1BAE8
330
747D
100
AcDbEntity
  8
細線
100
AcDbLine
 10
6792.673057123654
 20
2472.435711496319
 30
0.0
 11
9216.673057123655
 21
2472.435711496319
 31
0.0
  0
LINE
  5
1BAE9
330
747D
100
AcDbEntity
  8
細線
100
AcDbLine
 10
6792.673057123654
 20
3577.435711496318
 30
0.0
 11
9216.673057123655
 21
3577.435711496318
 31
0.0
  0
LINE
  5
1BAEA
330
747D
100
AcDbEntity
  8
細線
100
AcDbLine
 10
6792.673057123654
 20
3512.435711496318
 30
0.0
 11
9216.673057123655
 21
3512.435711496318
 31
0.0
  0
LINE
  5
1BAEB
330
747D
100
AcDbEntity
  8
細線
100
AcDbLine
 10
6792.673057123654
 20
3447.435711496318
 30
0.0
 11
9216.673057123655
 21
3447.435711496318
 31
0.0
  0
LINE
  5
1BAEC
330
747D
100
AcDbEntity
  8
細線
100
AcDbLine
 10
6792.673057123654
 20
3382.435711496319
 30
0.0
 11
9216.673057123655
 21
3382.435711496319
 31
0.0
  0
LINE
  5
1BAED
330
747D
100
AcDbEntity
  8
細線
100
AcDbLine
 10
6792.673057123654
 20
3317.435711496318
 30
0.0
 11
9216.673057123655
 21
3317.435711496318
 31
0.0
  0
LINE
  5
1BAEE
330
747D
100
AcDbEntity
  8
細線
100
AcDbLine
 10
6792.673057123654
 20
3252.435711496318
 30
0.0
 11
9216.673057123655
 21
3252.435711496318
 31
0.0
  0
LINE
  5
1BAEF
330
747D
100
AcDbEntity
  8
細線
100
AcDbLine
 10
6792.673057123654
 20
3187.435711496318
 30
0.0
 11
9216.673057123655
 21
3187.435711496318
 31
0.0
  0
LINE
  5
1BAF0
330
747D
100
AcDbEntity
  8
細線
100
AcDbLine
 10
6792.673057123654
 20
3122.435711496319
 30
0.0
 11
9216.673057123655
 21
3122.435711496319
 31
0.0
  0
LINE
  5
1BAF1
330
747D
100
AcDbEntity
  8
細線
100
AcDbLine
 10
6792.673057123654
 20
3057.435711496318
 30
0.0
 11
9216.673057123655
 21
3057.435711496318
 31
0.0
  0
LINE
  5
1BAF2
330
747D
100
AcDbEntity
  8
細線
100
AcDbLine
 10
6792.673057123654
 20
2992.435711496318
 30
0.0
 11
9216.673057123655
 21
2992.435711496318
 31
0.0
  0
LINE
  5
1BAF3
330
747D
100
AcDbEntity
  8
細線
100
AcDbLine
 10
6792.673057123654
 20
3967.435711496318
 30
0.0
 11
9216.673057123655
 21
3967.435711496318
 31
0.0
  0
LINE
  5
1BAF4
330
747D
100
AcDbEntity
  8
細線
100
AcDbLine
 10
6792.673057123654
 20
3902.435711496318
 30
0.0
 11
9216.673057123655
 21
3902.435711496318
 31
0.0
  0
LINE
  5
1BAF5
330
747D
100
AcDbEntity
  8
細線
100
AcDbLine
 10
6792.673057123654
 20
3837.435711496318
 30
0.0
 11
9216.673057123655
 21
3837.435711496318
 31
0.0
  0
LINE
  5
1BAF6
330
747D
100
AcDbEntity
  8
細線
100
AcDbLine
 10
6792.673057123654
 20
3772.435711496318
 30
0.0
 11
9216.673057123655
 21
3772.435711496318
 31
0.0
  0
LINE
  5
1BAF7
330
747D
100
AcDbEntity
  8
細線
100
AcDbLine
 10
6792.673057123654
 20
3707.435711496319
 30
0.0
 11
9216.673057123655
 21
3707.435711496319
 31
0.0
  0
LINE
  5
1BAF8
330
747D
100
AcDbEntity
  8
細線
100
AcDbLine
 10
6792.673057123654
 20
3642.435711496318
 30
0.0
 11
9216.673057123655
 21
3642.435711496318
 31
0.0
  0
LINE
  5
1BB00
330
747D
100
AcDbEntity
  8
細線
100
AcDbLine
 10
9216.673057123658
 20
2407.435711496318
 30
0.0
 11
6792.673057123652
 21
2407.435711496318
 31
0.0
  0
LINE
  5
1BB07
330
747D
100
AcDbEntity
  8
部品1
 48
50.0
100
AcDbLine
 10
5421.205796679192
 20
10469.73648008265
 30
0.0
 11
5328.140317568092
 21
10122.41138360929
 31
0.0
  0
SPLINE
  5
1BB08
330
747D
100
AcDbEntity
  8
部品1
 48
50.0
100
AcDbSpline
210
0.0
220
0.0
230
1.0
 70
     8
 71
     3
 72
    10
 73
     6
 74
     4
 42
0.0000000001
 43
0.0000000001
 44
0.0000000001
 40
0.0
 40
0.0
 40
0.0
 40
0.0
 40
147.8767566010009
 40
301.8091093202477
 40
466.5049223087716
 40
466.5049223087716
 40
466.5049223087716
 40
466.5049223087716
 10
5442.243384856692
 20
10377.31508437176
 30
0.0
 10
5365.361702361857
 20
10368.41065071393
 30
0.0
 10
5208.450010151729
 20
10350.23714425459
 30
0.0
 10
5531.263420096075
 20
10247.71655961525
 30
0.0
 10
5361.4208004267
 20
10229.08147090305
 30
0.0
 10
5273.630795219808
 20
10219.44917402574
 30
0.0
 11
5442.243384856692
 21
10377.31508437176
 31
0.0
 11
5299.405406547923
 21
10339.04176343544
 31
0.0
 11
5432.714734467097
 21
10262.07558707581
 31
0.0
 11
5273.630795219808
 21
10219.44917402574
 31
0.0
  0
LINE
  5
1BB0F
330
747D
100
AcDbEntity
  8
部品1
 48
50.0
100
AcDbLine
 10
5421.205796679198
 20
7086.736480082634
 30
0.0
 11
5328.140317568097
 21
6739.411383609269
 31
0.0
  0
SPLINE
  5
1BB10
330
747D
100
AcDbEntity
  8
部品1
 48
50.0
100
AcDbSpline
210
0.0
220
0.0
230
1.0
 70
     8
 71
     3
 72
    10
 73
     6
 74
     4
 42
0.0000000001
 43
0.0000000001
 44
0.0000000001
 40
0.0
 40
0.0
 40
0.0
 40
0.0
 40
147.8767566010009
 40
301.8091093202477
 40
466.5049223087716
 40
466.5049223087716
 40
466.5049223087716
 40
466.5049223087716
 10
5442.243384856698
 20
6994.315084371745
 30
0.0
 10
5365.361702361862
 20
6985.410650713906
 30
0.0
 10
5208.450010151735
 20
6967.237144254572
 30
0.0
 10
5531.263420096078
 20
6864.716559615233
 30
0.0
 10
5361.420800426705
 20
6846.081470903029
 30
0.0
 10
5273.630795219813
 20
6836.44917402572
 30
0.0
 11
5442.243384856698
 21
6994.315084371745
 31
0.0
 11
5299.405406547929
 21
6956.041763435415
 31
0.0
 11
5432.714734467103
 21
6879.075587075792
 31
0.0
 11
5273.630795219813
 21
6836.44917402572
 31
0.0
  0
SPLINE
  5
1BB17
330
747D
100
AcDbEntity
  8
部品1
 48
50.0
100
AcDbSpline
210
0.0
220
0.0
230
1.0
 70
     8
 71
     3
 72
    10
 73
     6
 74
     4
 42
0.0000000001
 43
0.0000000001
 44
0.0000000001
 40
0.0
 40
0.0
 40
0.0
 40
0.0
 40
147.8767566010009
 40
301.8091093202477
 40
466.5049223087734
 40
466.5049223087734
 40
466.5049223087734
 40
466.5049223087734
 10
5442.243384856706
 20
3366.176864022112
 30
0.0
 10
5365.36170236187
 20
3357.272430364274
 30
0.0
 10
5208.450010151741
 20
3339.098923904943
 30
0.0
 10
5531.263420096087
 20
3236.578339265599
 30
0.0
 10
5361.420800426714
 20
3217.943250553396
 30
0.0
 10
5273.630795219819
 20
3208.310953676087
 30
0.0
 11
5442.243384856706
 21
3366.176864022112
 31
0.0
 11
5299.405406547936
 21
3327.903543085783
 31
0.0
 11
5432.71473446711
 21
3250.937366726161
 31
0.0
 11
5273.630795219819
 21
3208.310953676087
 31
0.0
  0
LINE
  5
1BB18
330
747D
100
AcDbEntity
  8
部品1
 48
50.0
100
AcDbLine
 10
5729.962621336508
 20
4610.894416537698
 30
0.0
 11
5019.383492910799
 21
1958.977006454941
 31
0.0
  0
LINE
  5
1BC20
330
747D
100
AcDbEntity
  8
部品1
100
AcDbLine
 10
8844.673057123658
 20
10337.57393184607
 30
0.0
 11
8844.673057123658
 21
10309.57393184607
 31
0.0
  0
ARC
  5
1BE51
330
747D
100
AcDbEntity
  8
部品1
 48
0.01
100
AcDbCircle
 10
3271.673057123657
 20
4269.935711496315
 30
0.0
 40
2.0
100
AcDbArc
 50
180.0
 51
270.0
  0
ARC
  5
1BE52
330
747D
100
AcDbEntity
  8
部品1
 48
0.01
100
AcDbCircle
 10
3271.673057123653
 20
4301.435711496316
 30
0.0
 40
2.0
100
AcDbArc
 50
90.0
 51
180.0
  0
ARC
  5
1BE53
330
747D
100
AcDbEntity
  8
部品1
 48
0.01
100
AcDbCircle
 10
3447.673057123653
 20
4269.935711496315
 30
0.0
 40
2.0
100
AcDbArc
 50
270.0
 51
0.0
  0
ARC
  5
1BE54
330
747D
100
AcDbEntity
  8
部品1
 48
0.01
100
AcDbCircle
 10
3447.673057123653
 20
4301.435711496316
 30
0.0
 40
2.0
100
AcDbArc
 50
0.0
 51
90.0
  0
LINE
  5
1BE55
330
747D
100
AcDbEntity
  8
細線
100
AcDbLine
 10
3359.673057123657
 20
4273.935711496316
 30
0.0
 11
3285.673057123653
 21
4273.935711496316
 31
0.0
  0
LINE
  5
1BE56
330
747D
100
AcDbEntity
  8
細線
100
AcDbLine
 10
3359.673057123654
 20
4296.935711496316
 30
0.0
 11
3433.673057123653
 21
4296.935711496316
 31
0.0
  0
LINE
  5
1BE57
330
747D
100
AcDbEntity
  8
細線
100
AcDbLine
 10
3433.673057123653
 20
4273.935711496316
 30
0.0
 11
3359.673057123654
 21
4273.935711496316
 31
0.0
  0
LINE
  5
1BE58
330
747D
100
AcDbEntity
  8
細線
100
AcDbLine
 10
3285.673057123653
 20
4296.935711496316
 30
0.0
 11
3359.673057123654
 21
4296.935711496316
 31
0.0
  0
LINE
  5
1BE59
330
747D
100
AcDbEntity
  8
細線
100
AcDbLine
 10
3285.673057123653
 20
4273.935711496316
 30
0.0
 11
3285.673057123653
 21
4296.935711496316
 31
0.0
  0
LINE
  5
1BE5A
330
747D
100
AcDbEntity
  8
細線
100
AcDbLine
 10
3433.673057123653
 20
4296.935711496316
 30
0.0
 11
3433.673057123653
 21
4273.935711496316
 31
0.0
  0
LINE
  5
1BE5B
330
747D
100
AcDbEntity
  8
部品1
 48
0.01
100
AcDbLine
 10
3269.673057123656
 20
4269.935711496315
 30
0.0
 11
3269.673057123653
 21
4301.435711496316
 31
0.0
  0
LINE
  5
1BE5C
330
747D
100
AcDbEntity
  8
部品1
 48
0.01
100
AcDbLine
 10
3447.673057123653
 20
4267.935711496316
 30
0.0
 11
3271.673057123657
 21
4267.935711496316
 31
0.0
  0
LINE
  5
1BE5D
330
747D
100
AcDbEntity
  8
部品1
 48
0.01
100
AcDbLine
 10
3449.673057123654
 20
4301.435711496316
 30
0.0
 11
3449.673057123654
 21
4269.935711496315
 31
0.0
  0
LINE
  5
1BE5E
330
747D
100
AcDbEntity
  8
部品1
 48
0.01
100
AcDbLine
 10
3271.673057123653
 20
4303.435711496315
 30
0.0
 11
3447.673057123653
 21
4303.435711496315
 31
0.0
  0
LINE
  5
1BE5F
330
747D
100
AcDbEntity
  8
細線
100
AcDbLine
 10
3433.673057123653
 20
4290.935711496316
 30
0.0
 11
3359.673057123654
 21
4290.935711496316
 31
0.0
  0
LINE
  5
1BE60
330
747D
100
AcDbEntity
  8
細線
100
AcDbLine
 10
3433.673057123653
 20
4284.935711496316
 30
0.0
 11
3359.673057123654
 21
4284.935711496316
 31
0.0
  0
LINE
  5
1BE61
330
747D
100
AcDbEntity
  8
細線
100
AcDbLine
 10
3433.673057123657
 20
4278.935711496315
 30
0.0
 11
3359.673057123654
 21
4278.935711496315
 31
0.0
  0
LINE
  5
1BE62
330
747D
100
AcDbEntity
  8
細線
100
AcDbLine
 10
3433.673057123653
 20
4290.935711496316
 30
0.0
 11
3364.673057123653
 21
4290.935711496316
 31
0.0
  0
LINE
  5
1BE63
330
747D
100
AcDbEntity
  8
細線
100
AcDbLine
 10
3285.673057123657
 20
4290.935711496316
 30
0.0
 11
3359.673057123654
 21
4290.935711496316
 31
0.0
  0
LINE
  5
1BE64
330
747D
100
AcDbEntity
  8
細線
100
AcDbLine
 10
3285.673057123657
 20
4278.935711496315
 30
0.0
 11
3359.673057123654
 21
4278.935711496315
 31
0.0
  0
LINE
  5
1BE65
330
747D
100
AcDbEntity
  8
細線
100
AcDbLine
 10
3285.673057123657
 20
4284.935711496316
 30
0.0
 11
3359.673057123654
 21
4284.935711496316
 31
0.0
  0
LINE
  5
1BE66
330
747D
100
AcDbEntity
  8
細線
100
AcDbLine
 10
3359.673057123654
 20
4296.935711496316
 30
0.0
 11
3359.673057123657
 21
4273.935711496316
 31
0.0
  0
LINE
  5
1BE67
330
747D
100
AcDbEntity
  8
細線
100
AcDbLine
 10
2129.673057123657
 20
4296.935711496316
 30
0.0
 11
2129.673057123653
 21
4273.935711496316
 31
0.0
  0
LINE
  5
1BE68
330
747D
100
AcDbEntity
  8
細線
100
AcDbLine
 10
2203.673057123653
 20
4284.935711496316
 30
0.0
 11
2129.673057123657
 21
4284.935711496316
 31
0.0
  0
LINE
  5
1BE69
330
747D
100
AcDbEntity
  8
細線
100
AcDbLine
 10
2203.673057123653
 20
4278.935711496315
 30
0.0
 11
2129.673057123657
 21
4278.935711496315
 31
0.0
  0
LINE
  5
1BE6A
330
747D
100
AcDbEntity
  8
細線
100
AcDbLine
 10
2203.673057123653
 20
4290.935711496316
 30
0.0
 11
2129.673057123657
 21
4290.935711496316
 31
0.0
  0
LINE
  5
1BE6B
330
747D
100
AcDbEntity
  8
細線
100
AcDbLine
 10
2055.673057123657
 20
4290.935711496316
 30
0.0
 11
2124.673057123657
 21
4290.935711496316
 31
0.0
  0
LINE
  5
1BE6C
330
747D
100
AcDbEntity
  8
細線
100
AcDbLine
 10
2055.673057123653
 20
4278.935711496315
 30
0.0
 11
2129.673057123657
 21
4278.935711496315
 31
0.0
  0
LINE
  5
1BE6D
330
747D
100
AcDbEntity
  8
細線
100
AcDbLine
 10
2055.673057123657
 20
4284.935711496316
 30
0.0
 11
2129.673057123657
 21
4284.935711496316
 31
0.0
  0
LINE
  5
1BE6E
330
747D
100
AcDbEntity
  8
細線
100
AcDbLine
 10
2055.673057123657
 20
4290.935711496316
 30
0.0
 11
2129.673057123657
 21
4290.935711496316
 31
0.0
  0
LINE
  5
1BE6F
330
747D
100
AcDbEntity
  8
部品1
 48
0.01
100
AcDbLine
 10
2217.673057123657
 20
4303.435711496315
 30
0.0
 11
2041.673057123657
 21
4303.435711496315
 31
0.0
  0
LINE
  5
1BE70
330
747D
100
AcDbEntity
  8
部品1
 48
0.01
100
AcDbLine
 10
2039.673057123657
 20
4301.435711496316
 30
0.0
 11
2039.673057123657
 21
4269.935711496315
 31
0.0
  0
LINE
  5
1BE71
330
747D
100
AcDbEntity
  8
部品1
 48
0.01
100
AcDbLine
 10
2041.673057123657
 20
4267.935711496316
 30
0.0
 11
2217.673057123653
 21
4267.935711496316
 31
0.0
  0
LINE
  5
1BE72
330
747D
100
AcDbEntity
  8
部品1
 48
0.01
100
AcDbLine
 10
2219.673057123653
 20
4269.935711496315
 30
0.0
 11
2219.673057123657
 21
4301.435711496316
 31
0.0
  0
LINE
  5
1BE73
330
747D
100
AcDbEntity
  8
細線
100
AcDbLine
 10
2055.673057123657
 20
4296.935711496316
 30
0.0
 11
2055.673057123657
 21
4273.935711496316
 31
0.0
  0
LINE
  5
1BE74
330
747D
100
AcDbEntity
  8
細線
100
AcDbLine
 10
2203.673057123657
 20
4273.935711496316
 30
0.0
 11
2203.673057123657
 21
4296.935711496316
 31
0.0
  0
LINE
  5
1BE75
330
747D
100
AcDbEntity
  8
細線
100
AcDbLine
 10
2203.673057123657
 20
4296.935711496316
 30
0.0
 11
2129.673057123657
 21
4296.935711496316
 31
0.0
  0
LINE
  5
1BE76
330
747D
100
AcDbEntity
  8
細線
100
AcDbLine
 10
2055.673057123657
 20
4273.935711496316
 30
0.0
 11
2129.673057123657
 21
4273.935711496316
 31
0.0
  0
LINE
  5
1BE77
330
747D
100
AcDbEntity
  8
細線
100
AcDbLine
 10
2129.673057123657
 20
4296.935711496316
 30
0.0
 11
2055.673057123657
 21
4296.935711496316
 31
0.0
  0
LINE
  5
1BE78
330
747D
100
AcDbEntity
  8
細線
100
AcDbLine
 10
2129.673057123653
 20
4273.935711496316
 30
0.0
 11
2203.673057123657
 21
4273.935711496316
 31
0.0
  0
ARC
  5
1BE79
330
747D
100
AcDbEntity
  8
部品1
 48
0.01
100
AcDbCircle
 10
2041.673057123657
 20
4301.435711496316
 30
0.0
 40
2.0
100
AcDbArc
 50
90.0
 51
180.0
  0
ARC
  5
1BE7A
330
747D
100
AcDbEntity
  8
部品1
 48
0.01
100
AcDbCircle
 10
2041.673057123657
 20
4269.935711496315
 30
0.0
 40
2.0
100
AcDbArc
 50
180.0
 51
270.0
  0
ARC
  5
1BE7B
330
747D
100
AcDbEntity
  8
部品1
 48
0.01
100
AcDbCircle
 10
2217.673057123657
 20
4301.435711496316
 30
0.0
 40
2.0
100
AcDbArc
 50
0.0
 51
90.0
  0
ARC
  5
1BE7C
330
747D
100
AcDbEntity
  8
部品1
 48
0.01
100
AcDbCircle
 10
2217.673057123653
 20
4269.935711496315
 30
0.0
 40
2.0
100
AcDbArc
 50
270.0
 51
0.0
  0
ARC
  5
1BE7D
330
747D
100
AcDbEntity
  8
細線
 48
50.0
100
AcDbCircle
 10
2444.673057123651
 20
2959.935711496316
 30
0.0
 40
15.0
100
AcDbArc
 50
90.0
 51
270.0
  0
ARC
  5
1BE7E
330
747D
100
AcDbEntity
  8
細線
 48
50.0
100
AcDbCircle
 10
2544.673057123651
 20
2959.935711496316
 30
0.0
 40
15.0
100
AcDbArc
 50
270.0
 51
90.0
  0
LINE
  5
1BE7F
330
747D
100
AcDbEntity
  8
細線
 48
50.0
100
AcDbLine
 10
2444.673057123651
 20
2974.935711496316
 30
0.0
 11
2544.673057123651
 21
2974.935711496316
 31
0.0
  0
LINE
  5
1BE80
330
747D
100
AcDbEntity
  8
細線
 48
50.0
100
AcDbLine
 10
2544.673057123651
 20
2944.935711496316
 30
0.0
 11
2444.673057123651
 21
2944.935711496316
 31
0.0
  0
LINE
  5
1BE81
330
747D
100
AcDbEntity
  8
細線
 48
50.0
100
AcDbLine
 10
3044.673057123651
 20
2944.935711496316
 30
0.0
 11
2944.673057123651
 21
2944.935711496316
 31
0.0
  0
LINE
  5
1BE82
330
747D
100
AcDbEntity
  8
細線
 48
50.0
100
AcDbLine
 10
2944.673057123651
 20
2974.935711496316
 30
0.0
 11
3044.673057123651
 21
2974.935711496316
 31
0.0
  0
ARC
  5
1BE83
330
747D
100
AcDbEntity
  8
細線
 48
50.0
100
AcDbCircle
 10
2944.673057123651
 20
2959.935711496316
 30
0.0
 40
15.0
100
AcDbArc
 50
90.0
 51
270.0
  0
ARC
  5
1BE84
330
747D
100
AcDbEntity
  8
細線
 48
50.0
100
AcDbCircle
 10
3044.673057123651
 20
2959.935711496316
 30
0.0
 40
15.0
100
AcDbArc
 50
270.0
 51
90.0
  0
CIRCLE
  5
1BE85
330
747D
100
AcDbEntity
  8
細線
 48
50.0
100
AcDbCircle
 10
2744.67305712365
 20
3284.935711496316
 30
0.0
 40
18.0
  0
CIRCLE
  5
1BE86
330
747D
100
AcDbEntity
  8
細線
 48
50.0
100
AcDbCircle
 10
5374.673057123651
 20
3284.935711496316
 30
0.0
 40
18.0
  0
ARC
  5
1BE87
330
747D
100
AcDbEntity
  8
細線
 48
50.0
100
AcDbCircle
 10
5674.67305712365
 20
2959.935711496316
 30
0.0
 40
15.0
100
AcDbArc
 50
270.0
 51
90.0
  0
ARC
  5
1BE88
330
747D
100
AcDbEntity
  8
細線
 48
50.0
100
AcDbCircle
 10
5574.67305712365
 20
2959.935711496316
 30
0.0
 40
15.0
100
AcDbArc
 50
90.0
 51
270.0
  0
LINE
  5
1BE89
330
747D
100
AcDbEntity
  8
細線
 48
50.0
100
AcDbLine
 10
5574.67305712365
 20
2974.935711496316
 30
0.0
 11
5674.67305712365
 21
2974.935711496316
 31
0.0
  0
LINE
  5
1BE8A
330
747D
100
AcDbEntity
  8
細線
 48
50.0
100
AcDbLine
 10
5674.67305712365
 20
2944.935711496316
 30
0.0
 11
5574.67305712365
 21
2944.935711496316
 31
0.0
  0
LINE
  5
1BE8B
330
747D
100
AcDbEntity
  8
細線
 48
50.0
100
AcDbLine
 10
5174.67305712365
 20
2944.935711496316
 30
0.0
 11
5074.67305712365
 21
2944.935711496316
 31
0.0
  0
LINE
  5
1BE8C
330
747D
100
AcDbEntity
  8
細線
 48
50.0
100
AcDbLine
 10
5074.67305712365
 20
2974.935711496316
 30
0.0
 11
5174.67305712365
 21
2974.935711496316
 31
0.0
  0
ARC
  5
1BE8D
330
747D
100
AcDbEntity
  8
細線
 48
50.0
100
AcDbCircle
 10
5174.67305712365
 20
2959.935711496316
 30
0.0
 40
15.0
100
AcDbArc
 50
270.0
 51
90.0
  0
ARC
  5
1BE8E
330
747D
100
AcDbEntity
  8
細線
 48
50.0
100
AcDbCircle
 10
5074.67305712365
 20
2959.935711496316
 30
0.0
 40
15.0
100
AcDbArc
 50
90.0
 51
270.0
  0
ARC
  5
1BE8F
330
747D
100
AcDbEntity
  8
部品1
 48
0.01
100
AcDbCircle
 10
4847.673057123653
 20
4269.935711496315
 30
0.0
 40
2.0
100
AcDbArc
 50
270.0
 51
0.0
  0
ARC
  5
1BE90
330
747D
100
AcDbEntity
  8
部品1
 48
0.01
100
AcDbCircle
 10
4847.673057123657
 20
4301.435711496316
 30
0.0
 40
2.0
100
AcDbArc
 50
0.0
 51
90.0
  0
ARC
  5
1BE91
330
747D
100
AcDbEntity
  8
部品1
 48
0.01
100
AcDbCircle
 10
4671.673057123657
 20
4269.935711496315
 30
0.0
 40
2.0
100
AcDbArc
 50
180.0
 51
270.0
  0
ARC
  5
1BE92
330
747D
100
AcDbEntity
  8
部品1
 48
0.01
100
AcDbCircle
 10
4671.673057123657
 20
4301.435711496316
 30
0.0
 40
2.0
100
AcDbArc
 50
90.0
 51
180.0
  0
LINE
  5
1BE93
330
747D
100
AcDbEntity
  8
細線
100
AcDbLine
 10
4759.673057123653
 20
4273.935711496316
 30
0.0
 11
4833.673057123657
 21
4273.935711496316
 31
0.0
  0
LINE
  5
1BE94
330
747D
100
AcDbEntity
  8
細線
100
AcDbLine
 10
4759.673057123657
 20
4296.935711496316
 30
0.0
 11
4685.673057123657
 21
4296.935711496316
 31
0.0
  0
LINE
  5
1BE95
330
747D
100
AcDbEntity
  8
細線
100
AcDbLine
 10
4685.673057123657
 20
4273.935711496316
 30
0.0
 11
4759.673057123657
 21
4273.935711496316
 31
0.0
  0
LINE
  5
1BE96
330
747D
100
AcDbEntity
  8
細線
100
AcDbLine
 10
4833.673057123657
 20
4296.935711496316
 30
0.0
 11
4759.673057123657
 21
4296.935711496316
 31
0.0
  0
LINE
  5
1BE97
330
747D
100
AcDbEntity
  8
細線
100
AcDbLine
 10
4833.673057123657
 20
4273.935711496316
 30
0.0
 11
4833.673057123657
 21
4296.935711496316
 31
0.0
  0
LINE
  5
1BE98
330
747D
100
AcDbEntity
  8
細線
100
AcDbLine
 10
4685.673057123657
 20
4296.935711496316
 30
0.0
 11
4685.673057123657
 21
4273.935711496316
 31
0.0
  0
LINE
  5
1BE99
330
747D
100
AcDbEntity
  8
部品1
 48
0.01
100
AcDbLine
 10
4849.673057123653
 20
4269.935711496315
 30
0.0
 11
4849.673057123657
 21
4301.435711496316
 31
0.0
  0
LINE
  5
1BE9A
330
747D
100
AcDbEntity
  8
部品1
 48
0.01
100
AcDbLine
 10
4671.673057123657
 20
4267.935711496316
 30
0.0
 11
4847.673057123653
 21
4267.935711496316
 31
0.0
  0
LINE
  5
1BE9B
330
747D
100
AcDbEntity
  8
部品1
 48
0.01
100
AcDbLine
 10
4669.673057123656
 20
4301.435711496316
 30
0.0
 11
4669.673057123656
 21
4269.935711496315
 31
0.0
  0
LINE
  5
1BE9C
330
747D
100
AcDbEntity
  8
部品1
 48
0.01
100
AcDbLine
 10
4847.673057123657
 20
4303.435711496315
 30
0.0
 11
4671.673057123657
 21
4303.435711496315
 31
0.0
  0
LINE
  5
1BE9D
330
747D
100
AcDbEntity
  8
細線
100
AcDbLine
 10
4685.673057123657
 20
4290.935711496316
 30
0.0
 11
4759.673057123657
 21
4290.935711496316
 31
0.0
  0
LINE
  5
1BE9E
330
747D
100
AcDbEntity
  8
細線
100
AcDbLine
 10
4685.673057123657
 20
4284.935711496316
 30
0.0
 11
4759.673057123657
 21
4284.935711496316
 31
0.0
  0
LINE
  5
1BE9F
330
747D
100
AcDbEntity
  8
細線
100
AcDbLine
 10
4685.673057123653
 20
4278.935711496315
 30
0.0
 11
4759.673057123657
 21
4278.935711496315
 31
0.0
  0
LINE
  5
1BEA0
330
747D
100
AcDbEntity
  8
細線
100
AcDbLine
 10
4685.673057123657
 20
4290.935711496316
 30
0.0
 11
4754.673057123656
 21
4290.935711496316
 31
0.0
  0
LINE
  5
1BEA1
330
747D
100
AcDbEntity
  8
細線
100
AcDbLine
 10
4833.673057123653
 20
4290.935711496316
 30
0.0
 11
4759.673057123657
 21
4290.935711496316
 31
0.0
  0
LINE
  5
1BEA2
330
747D
100
AcDbEntity
  8
細線
100
AcDbLine
 10
4833.673057123653
 20
4278.935711496315
 30
0.0
 11
4759.673057123657
 21
4278.935711496315
 31
0.0
  0
LINE
  5
1BEA3
330
747D
100
AcDbEntity
  8
細線
100
AcDbLine
 10
4833.673057123653
 20
4284.935711496316
 30
0.0
 11
4759.673057123657
 21
4284.935711496316
 31
0.0
  0
LINE
  5
1BEA4
330
747D
100
AcDbEntity
  8
細線
100
AcDbLine
 10
4759.673057123657
 20
4296.935711496316
 30
0.0
 11
4759.673057123653
 21
4273.935711496316
 31
0.0
  0
LINE
  5
1BEA5
330
747D
100
AcDbEntity
  8
細線
100
AcDbLine
 10
5989.673057123653
 20
4296.935711496316
 30
0.0
 11
5989.673057123656
 21
4273.935711496316
 31
0.0
  0
LINE
  5
1BEA6
330
747D
100
AcDbEntity
  8
細線
100
AcDbLine
 10
5915.673057123656
 20
4284.935711496316
 30
0.0
 11
5989.673057123653
 21
4284.935711496316
 31
0.0
  0
LINE
  5
1BEA7
330
747D
100
AcDbEntity
  8
細線
100
AcDbLine
 10
5915.673057123656
 20
4278.935711496315
 30
0.0
 11
5989.673057123653
 21
4278.935711496315
 31
0.0
  0
LINE
  5
1BEA8
330
747D
100
AcDbEntity
  8
細線
100
AcDbLine
 10
5915.673057123656
 20
4290.935711496316
 30
0.0
 11
5989.673057123653
 21
4290.935711496316
 31
0.0
  0
LINE
  5
1BEA9
330
747D
100
AcDbEntity
  8
細線
100
AcDbLine
 10
6063.673057123653
 20
4290.935711496316
 30
0.0
 11
5994.673057123653
 21
4290.935711496316
 31
0.0
  0
LINE
  5
1BEAA
330
747D
100
AcDbEntity
  8
細線
100
AcDbLine
 10
6063.673057123657
 20
4278.935711496315
 30
0.0
 11
5989.673057123653
 21
4278.935711496315
 31
0.0
  0
LINE
  5
1BEAB
330
747D
100
AcDbEntity
  8
細線
100
AcDbLine
 10
6063.673057123653
 20
4284.935711496316
 30
0.0
 11
5989.673057123653
 21
4284.935711496316
 31
0.0
  0
LINE
  5
1BEAC
330
747D
100
AcDbEntity
  8
細線
100
AcDbLine
 10
6063.673057123653
 20
4290.935711496316
 30
0.0
 11
5989.673057123653
 21
4290.935711496316
 31
0.0
  0
LINE
  5
1BEAD
330
747D
100
AcDbEntity
  8
部品1
 48
0.01
100
AcDbLine
 10
5901.673057123653
 20
4303.435711496315
 30
0.0
 11
6077.673057123654
 21
4303.435711496315
 31
0.0
  0
LINE
  5
1BEAE
330
747D
100
AcDbEntity
  8
部品1
 48
0.01
100
AcDbLine
 10
6079.673057123653
 20
4301.435711496316
 30
0.0
 11
6079.673057123653
 21
4269.935711496315
 31
0.0
  0
LINE
  5
1BEAF
330
747D
100
AcDbEntity
  8
部品1
 48
0.01
100
AcDbLine
 10
6077.673057123654
 20
4267.935711496316
 30
0.0
 11
5901.673057123656
 21
4267.935711496316
 31
0.0
  0
LINE
  5
1BEB0
330
747D
100
AcDbEntity
  8
部品1
 48
0.01
100
AcDbLine
 10
5899.673057123656
 20
4269.935711496315
 30
0.0
 11
5899.673057123653
 21
4301.435711496316
 31
0.0
  0
LINE
  5
1BEB1
330
747D
100
AcDbEntity
  8
細線
100
AcDbLine
 10
6063.673057123653
 20
4296.935711496316
 30
0.0
 11
6063.673057123653
 21
4273.935711496316
 31
0.0
  0
LINE
  5
1BEB2
330
747D
100
AcDbEntity
  8
細線
100
AcDbLine
 10
5915.673057123653
 20
4273.935711496316
 30
0.0
 11
5915.673057123653
 21
4296.935711496316
 31
0.0
  0
LINE
  5
1BEB3
330
747D
100
AcDbEntity
  8
細線
100
AcDbLine
 10
5915.673057123653
 20
4296.935711496316
 30
0.0
 11
5989.673057123653
 21
4296.935711496316
 31
0.0
  0
LINE
  5
1BEB4
330
747D
100
AcDbEntity
  8
細線
100
AcDbLine
 10
6063.673057123653
 20
4273.935711496316
 30
0.0
 11
5989.673057123653
 21
4273.935711496316
 31
0.0
  0
LINE
  5
1BEB5
330
747D
100
AcDbEntity
  8
細線
100
AcDbLine
 10
5989.673057123653
 20
4296.935711496316
 30
0.0
 11
6063.673057123653
 21
4296.935711496316
 31
0.0
  0
LINE
  5
1BEB6
330
747D
100
AcDbEntity
  8
細線
100
AcDbLine
 10
5989.673057123656
 20
4273.935711496316
 30
0.0
 11
5915.673057123653
 21
4273.935711496316
 31
0.0
  0
ARC
  5
1BEB7
330
747D
100
AcDbEntity
  8
部品1
 48
0.01
100
AcDbCircle
 10
6077.673057123654
 20
4301.435711496316
 30
0.0
 40
2.0
100
AcDbArc
 50
0.0
 51
90.0
  0
ARC
  5
1BEB8
330
747D
100
AcDbEntity
  8
部品1
 48
0.01
100
AcDbCircle
 10
6077.673057123654
 20
4269.935711496315
 30
0.0
 40
2.0
100
AcDbArc
 50
270.0
 51
0.0
  0
ARC
  5
1BEB9
330
747D
100
AcDbEntity
  8
部品1
 48
0.01
100
AcDbCircle
 10
5901.673057123653
 20
4301.435711496316
 30
0.0
 40
2.0
100
AcDbArc
 50
90.0
 51
180.0
  0
ARC
  5
1BEBA
330
747D
100
AcDbEntity
  8
部品1
 48
0.01
100
AcDbCircle
 10
5901.673057123656
 20
4269.935711496315
 30
0.0
 40
2.0
100
AcDbArc
 50
180.0
 51
270.0
  0
ARC
  5
1BEBB
330
747D
100
AcDbEntity
  8
部品1
 48
0.01
100
AcDbCircle
 10
8531.673057123656
 20
4269.935711496315
 30
0.0
 40
2.0
100
AcDbArc
 50
180.0
 51
270.0
  0
ARC
  5
1BEBC
330
747D
100
AcDbEntity
  8
部品1
 48
0.01
100
AcDbCircle
 10
8531.673057123652
 20
4301.435711496316
 30
0.0
 40
2.0
100
AcDbArc
 50
90.0
 51
180.0
  0
ARC
  5
1BEBD
330
747D
100
AcDbEntity
  8
部品1
 48
0.01
100
AcDbCircle
 10
8707.673057123654
 20
4269.935711496315
 30
0.0
 40
2.0
100
AcDbArc
 50
270.0
 51
0.0
  0
ARC
  5
1BEBE
330
747D
100
AcDbEntity
  8
部品1
 48
0.01
100
AcDbCircle
 10
8707.673057123654
 20
4301.435711496316
 30
0.0
 40
2.0
100
AcDbArc
 50
0.0
 51
90.0
  0
LINE
  5
1BEBF
330
747D
100
AcDbEntity
  8
細線
100
AcDbLine
 10
8619.673057123657
 20
4273.935711496316
 30
0.0
 11
8545.673057123654
 21
4273.935711496316
 31
0.0
  0
LINE
  5
1BEC0
330
747D
100
AcDbEntity
  8
細線
100
AcDbLine
 10
8619.673057123653
 20
4296.935711496316
 30
0.0
 11
8693.673057123653
 21
4296.935711496316
 31
0.0
  0
LINE
  5
1BEC1
330
747D
100
AcDbEntity
  8
細線
100
AcDbLine
 10
8693.673057123653
 20
4273.935711496316
 30
0.0
 11
8619.673057123653
 21
4273.935711496316
 31
0.0
  0
LINE
  5
1BEC2
330
747D
100
AcDbEntity
  8
細線
100
AcDbLine
 10
8545.673057123654
 20
4296.935711496316
 30
0.0
 11
8619.673057123653
 21
4296.935711496316
 31
0.0
  0
LINE
  5
1BEC3
330
747D
100
AcDbEntity
  8
細線
100
AcDbLine
 10
8545.673057123654
 20
4273.935711496316
 30
0.0
 11
8545.673057123654
 21
4296.935711496316
 31
0.0
  0
LINE
  5
1BEC4
330
747D
100
AcDbEntity
  8
細線
100
AcDbLine
 10
8693.673057123653
 20
4296.935711496316
 30
0.0
 11
8693.673057123653
 21
4273.935711496316
 31
0.0
  0
LINE
  5
1BEC5
330
747D
100
AcDbEntity
  8
部品1
 48
0.01
100
AcDbLine
 10
8529.673057123657
 20
4269.935711496315
 30
0.0
 11
8529.673057123654
 21
4301.435711496316
 31
0.0
  0
LINE
  5
1BEC6
330
747D
100
AcDbEntity
  8
部品1
 48
0.01
100
AcDbLine
 10
8707.673057123654
 20
4267.935711496316
 30
0.0
 11
8531.673057123656
 21
4267.935711496316
 31
0.0
  0
LINE
  5
1BEC7
330
747D
100
AcDbEntity
  8
部品1
 48
0.01
100
AcDbLine
 10
8709.673057123653
 20
4301.435711496316
 30
0.0
 11
8709.673057123653
 21
4269.935711496315
 31
0.0
  0
LINE
  5
1BEC8
330
747D
100
AcDbEntity
  8
部品1
 48
0.01
100
AcDbLine
 10
8531.673057123652
 20
4303.435711496315
 30
0.0
 11
8707.673057123654
 21
4303.435711496315
 31
0.0
  0
LINE
  5
1BEC9
330
747D
100
AcDbEntity
  8
細線
100
AcDbLine
 10
8693.673057123653
 20
4290.935711496316
 30
0.0
 11
8619.673057123653
 21
4290.935711496316
 31
0.0
  0
LINE
  5
1BECA
330
747D
100
AcDbEntity
  8
細線
100
AcDbLine
 10
8693.673057123653
 20
4284.935711496316
 30
0.0
 11
8619.673057123653
 21
4284.935711496316
 31
0.0
  0
LINE
  5
1BECB
330
747D
100
AcDbEntity
  8
細線
100
AcDbLine
 10
8693.673057123657
 20
4278.935711496315
 30
0.0
 11
8619.673057123653
 21
4278.935711496315
 31
0.0
  0
LINE
  5
1BECC
330
747D
100
AcDbEntity
  8
細線
100
AcDbLine
 10
8693.673057123653
 20
4290.935711496316
 30
0.0
 11
8624.673057123652
 21
4290.935711496316
 31
0.0
  0
LINE
  5
1BECD
330
747D
100
AcDbEntity
  8
細線
100
AcDbLine
 10
8545.673057123655
 20
4290.935711496316
 30
0.0
 11
8619.673057123653
 21
4290.935711496316
 31
0.0
  0
LINE
  5
1BECE
330
747D
100
AcDbEntity
  8
細線
100
AcDbLine
 10
8545.673057123655
 20
4278.935711496315
 30
0.0
 11
8619.673057123653
 21
4278.935711496315
 31
0.0
  0
LINE
  5
1BECF
330
747D
100
AcDbEntity
  8
細線
100
AcDbLine
 10
8545.673057123655
 20
4284.935711496316
 30
0.0
 11
8619.673057123653
 21
4284.935711496316
 31
0.0
  0
LINE
  5
1BED0
330
747D
100
AcDbEntity
  8
細線
100
AcDbLine
 10
8619.673057123653
 20
4296.935711496316
 30
0.0
 11
8619.673057123657
 21
4273.935711496316
 31
0.0
  0
LINE
  5
1BED1
330
747D
100
AcDbEntity
  8
細線
100
AcDbLine
 10
7389.673057123657
 20
4296.935711496316
 30
0.0
 11
7389.673057123653
 21
4273.935711496316
 31
0.0
  0
LINE
  5
1BED2
330
747D
100
AcDbEntity
  8
細線
100
AcDbLine
 10
7463.673057123653
 20
4284.935711496316
 30
0.0
 11
7389.673057123657
 21
4284.935711496316
 31
0.0
  0
LINE
  5
1BED3
330
747D
100
AcDbEntity
  8
細線
100
AcDbLine
 10
7463.673057123653
 20
4278.935711496315
 30
0.0
 11
7389.673057123657
 21
4278.935711496315
 31
0.0
  0
LINE
  5
1BED4
330
747D
100
AcDbEntity
  8
細線
100
AcDbLine
 10
7463.673057123653
 20
4290.935711496316
 30
0.0
 11
7389.673057123657
 21
4290.935711496316
 31
0.0
  0
LINE
  5
1BED5
330
747D
100
AcDbEntity
  8
細線
100
AcDbLine
 10
7315.673057123657
 20
4290.935711496316
 30
0.0
 11
7384.673057123656
 21
4290.935711496316
 31
0.0
  0
LINE
  5
1BED6
330
747D
100
AcDbEntity
  8
細線
100
AcDbLine
 10
7315.673057123653
 20
4278.935711496315
 30
0.0
 11
7389.673057123657
 21
4278.935711496315
 31
0.0
  0
LINE
  5
1BED7
330
747D
100
AcDbEntity
  8
細線
100
AcDbLine
 10
7315.673057123657
 20
4284.935711496316
 30
0.0
 11
7389.673057123657
 21
4284.935711496316
 31
0.0
  0
LINE
  5
1BED8
330
747D
100
AcDbEntity
  8
細線
100
AcDbLine
 10
7315.673057123657
 20
4290.935711496316
 30
0.0
 11
7389.673057123657
 21
4290.935711496316
 31
0.0
  0
LINE
  5
1BED9
330
747D
100
AcDbEntity
  8
部品1
 48
0.01
100
AcDbLine
 10
7477.673057123657
 20
4303.435711496315
 30
0.0
 11
7301.673057123656
 21
4303.435711496315
 31
0.0
  0
LINE
  5
1BEDA
330
747D
100
AcDbEntity
  8
部品1
 48
0.01
100
AcDbLine
 10
7299.673057123657
 20
4301.435711496316
 30
0.0
 11
7299.673057123657
 21
4269.935711496315
 31
0.0
  0
LINE
  5
1BEDB
330
747D
100
AcDbEntity
  8
部品1
 48
0.01
100
AcDbLine
 10
7301.673057123656
 20
4267.935711496316
 30
0.0
 11
7477.673057123652
 21
4267.935711496316
 31
0.0
  0
LINE
  5
1BEDC
330
747D
100
AcDbEntity
  8
部品1
 48
0.01
100
AcDbLine
 10
7479.673057123654
 20
4269.935711496315
 30
0.0
 11
7479.673057123656
 21
4301.435711496316
 31
0.0
  0
LINE
  5
1BEDD
330
747D
100
AcDbEntity
  8
細線
100
AcDbLine
 10
7315.673057123657
 20
4296.935711496316
 30
0.0
 11
7315.673057123657
 21
4273.935711496316
 31
0.0
  0
LINE
  5
1BEDE
330
747D
100
AcDbEntity
  8
細線
100
AcDbLine
 10
7463.673057123656
 20
4273.935711496316
 30
0.0
 11
7463.673057123656
 21
4296.935711496316
 31
0.0
  0
LINE
  5
1BEDF
330
747D
100
AcDbEntity
  8
細線
100
AcDbLine
 10
7463.673057123656
 20
4296.935711496316
 30
0.0
 11
7389.673057123657
 21
4296.935711496316
 31
0.0
  0
LINE
  5
1BEE0
330
747D
100
AcDbEntity
  8
細線
100
AcDbLine
 10
7315.673057123657
 20
4273.935711496316
 30
0.0
 11
7389.673057123657
 21
4273.935711496316
 31
0.0
  0
LINE
  5
1BEE1
330
747D
100
AcDbEntity
  8
細線
100
AcDbLine
 10
7389.673057123657
 20
4296.935711496316
 30
0.0
 11
7315.673057123657
 21
4296.935711496316
 31
0.0
  0
LINE
  5
1BEE2
330
747D
100
AcDbEntity
  8
細線
100
AcDbLine
 10
7389.673057123653
 20
4273.935711496316
 30
0.0
 11
7463.673057123656
 21
4273.935711496316
 31
0.0
  0
ARC
  5
1BEE3
330
747D
100
AcDbEntity
  8
部品1
 48
0.01
100
AcDbCircle
 10
7301.673057123656
 20
4301.435711496316
 30
0.0
 40
2.0
100
AcDbArc
 50
90.0
 51
180.0
  0
ARC
  5
1BEE4
330
747D
100
AcDbEntity
  8
部品1
 48
0.01
100
AcDbCircle
 10
7301.673057123656
 20
4269.935711496315
 30
0.0
 40
2.0
100
AcDbArc
 50
180.0
 51
270.0
  0
ARC
  5
1BEE5
330
747D
100
AcDbEntity
  8
部品1
 48
0.01
100
AcDbCircle
 10
7477.673057123657
 20
4301.435711496316
 30
0.0
 40
2.0
100
AcDbArc
 50
0.0
 51
90.0
  0
ARC
  5
1BEE6
330
747D
100
AcDbEntity
  8
部品1
 48
0.01
100
AcDbCircle
 10
7477.673057123652
 20
4269.935711496315
 30
0.0
 40
2.0
100
AcDbArc
 50
270.0
 51
0.0
  0
ARC
  5
1BEE7
330
747D
100
AcDbEntity
  8
細線
 48
50.0
100
AcDbCircle
 10
7704.673057123651
 20
2959.935711496316
 30
0.0
 40
15.0
100
AcDbArc
 50
90.0
 51
270.0
  0
ARC
  5
1BEE8
330
747D
100
AcDbEntity
  8
細線
 48
50.0
100
AcDbCircle
 10
7804.67305712365
 20
2959.935711496316
 30
0.0
 40
15.0
100
AcDbArc
 50
270.0
 51
90.0
  0
LINE
  5
1BEE9
330
747D
100
AcDbEntity
  8
細線
 48
50.0
100
AcDbLine
 10
7704.673057123651
 20
2974.935711496316
 30
0.0
 11
7804.67305712365
 21
2974.935711496316
 31
0.0
  0
LINE
  5
1BEEA
330
747D
100
AcDbEntity
  8
細線
 48
50.0
100
AcDbLine
 10
7804.67305712365
 20
2944.935711496316
 30
0.0
 11
7704.673057123651
 21
2944.935711496316
 31
0.0
  0
LINE
  5
1BEEB
330
747D
100
AcDbEntity
  8
細線
 48
50.0
100
AcDbLine
 10
8304.67305712365
 20
2944.935711496316
 30
0.0
 11
8204.673057123651
 21
2944.935711496316
 31
0.0
  0
LINE
  5
1BEEC
330
747D
100
AcDbEntity
  8
細線
 48
50.0
100
AcDbLine
 10
8204.673057123651
 20
2974.935711496316
 30
0.0
 11
8304.67305712365
 21
2974.935711496316
 31
0.0
  0
ARC
  5
1BEED
330
747D
100
AcDbEntity
  8
細線
 48
50.0
100
AcDbCircle
 10
8204.673057123651
 20
2959.935711496316
 30
0.0
 40
15.0
100
AcDbArc
 50
90.0
 51
270.0
  0
ARC
  5
1BEEE
330
747D
100
AcDbEntity
  8
細線
 48
50.0
100
AcDbCircle
 10
8304.67305712365
 20
2959.935711496316
 30
0.0
 40
15.0
100
AcDbArc
 50
270.0
 51
90.0
  0
CIRCLE
  5
1BEEF
330
747D
100
AcDbEntity
  8
細線
 48
50.0
100
AcDbCircle
 10
8004.673057123651
 20
3284.935711496316
 30
0.0
 40
18.0
  0
LINE
  5
1BF02
330
747D
100
AcDbEntity
  8
部品1
100
AcDbLine
 10
6214.673057123659
 20
10337.57393184607
 30
0.0
 11
6214.673057123659
 21
10309.57393184607
 31
0.0
  0
LINE
  5
1BF03
330
747D
100
AcDbEntity
  8
部品1
 48
50.0
100
AcDbLine
 10
5387.173057123662
 20
10301.57393184606
 30
0.0
 11
5387.173057123662
 21
10309.57393184607
 31
0.0
  0
LINE
  5
1BF04
330
747D
100
AcDbEntity
  8
部品1
 48
50.0
100
AcDbLine
 10
5362.173057123663
 20
10301.57393184605
 30
0.0
 11
5362.173057123663
 21
10309.57393184607
 31
0.0
  0
LINE
  5
1BF05
330
747D
100
AcDbEntity
  8
部品1
100
AcDbLine
 10
5794.673057123659
 20
10337.57393184607
 30
0.0
 11
5794.673057123659
 21
10309.57393184607
 31
0.0
  0
LINE
  5
1BF06
330
747D
100
AcDbEntity
  8
部品1
100
AcDbLine
 10
5339.673057123663
 20
10327.57393184606
 30
0.0
 11
5339.673057123663
 21
10309.57393184606
 31
0.0
  0
LINE
  5
1BF07
330
747D
100
AcDbEntity
  8
部品1
100
AcDbLine
 10
5339.673057123663
 20
10327.57393184606
 30
0.0
 11
5345.673057123663
 21
10327.57393184606
 31
0.0
  0
LINE
  5
1BF08
330
747D
100
AcDbEntity
  8
部品1
100
AcDbLine
 10
5409.673057123663
 20
10327.57393184606
 30
0.0
 11
5409.673057123663
 21
10309.57393184606
 31
0.0
  0
LINE
  5
1BF09
330
747D
100
AcDbEntity
  8
部品1
100
AcDbLine
 10
5403.673057123663
 20
10327.57393184606
 30
0.0
 11
5409.673057123663
 21
10327.57393184606
 31
0.0
  0
LINE
  5
1BF0A
330
747D
100
AcDbEntity
  8
部品1
100
AcDbLine
 10
5362.173057123663
 20
10301.57393184605
 30
0.0
 11
5387.173057123662
 21
10301.57393184606
 31
0.0
  0
LINE
  5
1BF0B
330
747D
100
AcDbEntity
  8
部品1
100
AcDbLine
 10
5374.673057123663
 20
10337.57393184607
 30
0.0
 11
5374.673057123663
 21
10309.57393184607
 31
0.0
  0
LINE
  5
1BF0C
330
747D
100
AcDbEntity
  8
部品1
100
AcDbLine
 10
4954.673057123662
 20
10337.57393184595
 30
0.0
 11
4954.673057123662
 21
10309.57393184596
 31
0.0
  0
LINE
  5
1BF0D
330
747D
100
AcDbEntity
  8
部品1
100
AcDbLine
 10
4954.673057123662
 20
10337.57393184595
 30
0.0
 11
4954.673057123662
 21
10309.57393184596
 31
0.0
  0
LINE
  5
1BF0E
330
747D
100
AcDbEntity
  8
部品1
100
AcDbLine
 10
4954.673057123662
 20
10337.57393184607
 30
0.0
 11
4954.673057123662
 21
10309.57393184607
 31
0.0
  0
LINE
  5
1BF0F
330
747D
100
AcDbEntity
  8
部品1
100
AcDbLine
 10
4534.673057123663
 20
10337.57393184595
 30
0.0
 11
4534.673057123663
 21
10309.57393184596
 31
0.0
  0
LINE
  5
1BF10
330
747D
100
AcDbEntity
  8
部品1
100
AcDbLine
 10
4534.673057123663
 20
10337.57393184595
 30
0.0
 11
4534.673057123663
 21
10309.57393184596
 31
0.0
  0
LINE
  5
1BF11
330
747D
100
AcDbEntity
  8
部品1
100
AcDbLine
 10
4534.673057123663
 20
10337.57393184607
 30
0.0
 11
4534.673057123663
 21
10309.57393184607
 31
0.0
  0
LINE
  5
1BF12
330
747D
100
AcDbEntity
  8
部品1
100
AcDbLine
 10
5387.173057123662
 20
10309.57393184607
 30
0.0
 11
6661.673057123664
 21
10309.57393184605
 31
0.0
  0
LINE
  5
1BF13
330
747D
100
AcDbEntity
  8
部品1
100
AcDbLine
 10
4087.673057123664
 20
10309.57393184607
 30
0.0
 11
5362.173057123661
 21
10309.57393184607
 31
0.0
  0
LINE
  5
1BF14
330
747D
100
AcDbEntity
  8
部品1
100
AcDbLine
 10
1904.673057123663
 20
10337.57393184607
 30
0.0
 11
1904.673057123663
 21
10309.57393184607
 31
0.0
  0
LINE
  5
1BF15
330
747D
100
AcDbEntity
  8
部品1
100
AcDbLine
 10
1904.673057123663
 20
10337.57393184595
 30
0.0
 11
1904.673057123663
 21
10309.57393184596
 31
0.0
  0
LINE
  5
1BF16
330
747D
100
AcDbEntity
  8
部品1
100
AcDbLine
 10
1904.673057123663
 20
10337.57393184595
 30
0.0
 11
1904.673057123663
 21
10309.57393184596
 31
0.0
  0
LINE
  5
1BF17
330
747D
100
AcDbEntity
  8
部品1
100
AcDbLine
 10
2324.673057123662
 20
10337.57393184607
 30
0.0
 11
2324.673057123662
 21
10309.57393184607
 31
0.0
  0
LINE
  5
1BF18
330
747D
100
AcDbEntity
  8
部品1
100
AcDbLine
 10
2324.673057123662
 20
10337.57393184595
 30
0.0
 11
2324.673057123662
 21
10309.57393184596
 31
0.0
  0
LINE
  5
1BF19
330
747D
100
AcDbEntity
  8
部品1
100
AcDbLine
 10
2324.673057123662
 20
10337.57393184595
 30
0.0
 11
2324.673057123662
 21
10309.57393184596
 31
0.0
  0
LINE
  5
1BF1A
330
747D
100
AcDbEntity
  8
部品1
100
AcDbLine
 10
2744.673057123663
 20
10337.57393184607
 30
0.0
 11
2744.673057123663
 21
10309.57393184607
 31
0.0
  0
LINE
  5
1BF1B
330
747D
100
AcDbEntity
  8
部品1
100
AcDbLine
 10
2732.173057123663
 20
10301.57393184605
 30
0.0
 11
2757.173057123662
 21
10301.57393184606
 31
0.0
  0
LINE
  5
1BF1C
330
747D
100
AcDbEntity
  8
部品1
100
AcDbLine
 10
2773.673057123663
 20
10327.57393184606
 30
0.0
 11
2779.673057123663
 21
10327.57393184606
 31
0.0
  0
LINE
  5
1BF1D
330
747D
100
AcDbEntity
  8
部品1
100
AcDbLine
 10
2779.673057123663
 20
10327.57393184606
 30
0.0
 11
2779.673057123663
 21
10309.57393184606
 31
0.0
  0
LINE
  5
1BF1E
330
747D
100
AcDbEntity
  8
部品1
100
AcDbLine
 10
2709.673057123663
 20
10327.57393184606
 30
0.0
 11
2715.673057123663
 21
10327.57393184606
 31
0.0
  0
LINE
  5
1BF1F
330
747D
100
AcDbEntity
  8
部品1
100
AcDbLine
 10
2709.673057123663
 20
10327.57393184606
 30
0.0
 11
2709.673057123663
 21
10309.57393184606
 31
0.0
  0
LINE
  5
1BF20
330
747D
100
AcDbEntity
  8
部品1
 48
50.0
100
AcDbLine
 10
2732.173057123663
 20
10301.57393184605
 30
0.0
 11
2732.173057123663
 21
10309.57393184607
 31
0.0
  0
LINE
  5
1BF21
330
747D
100
AcDbEntity
  8
部品1
 48
50.0
100
AcDbLine
 10
2757.173057123662
 20
10301.57393184606
 30
0.0
 11
2757.173057123662
 21
10309.57393184607
 31
0.0
  0
LINE
  5
1BF22
330
747D
100
AcDbEntity
  8
部品1
100
AcDbLine
 10
3164.673057123659
 20
10337.57393184607
 30
0.0
 11
3164.673057123659
 21
10309.57393184607
 31
0.0
  0
LINE
  5
1BF23
330
747D
100
AcDbEntity
  8
部品1
100
AcDbLine
 10
3584.673057123659
 20
10337.57393184607
 30
0.0
 11
3584.673057123659
 21
10309.57393184607
 31
0.0
  0
LINE
  5
1BF24
330
747D
100
AcDbEntity
  8
部品1
100
AcDbLine
 10
2757.173057123662
 20
10309.57393184607
 30
0.0
 11
4031.673057123664
 21
10309.57393184605
 31
0.0
  0
LINE
  5
1BF25
330
747D
100
AcDbEntity
  8
部品1
100
AcDbLine
 10
1457.673057123664
 20
10309.57393184607
 30
0.0
 11
2732.173057123662
 21
10309.57393184607
 31
0.0
  0
ENDSEC
  0
SECTION
  2
OBJECTS
  0
DICTIONARY
  5
7471
330
0
100
AcDbDictionary
281
     1
  3
ACAD_COLOR
350
17AE2
  3
ACAD_GROUP
350
7472
  3
ACAD_LAYOUT
350
17AE3
  3
ACAD_MATERIAL
350
17AE1
  3
ACAD_MLINESTYLE
350
7473
  3
ACAD_PLOTSETTINGS
350
17AE4
  3
ACAD_PLOTSTYLENAME
350
17ADF
  3
ACDBHEADERROUNDTRIPXREC
350
1BF77
  3
AcDbVariableDictionary
350
1A70A
  3
CONTENTDICTIONARY
350
E71C
  3
DRAWINGVARIABLESDICT
350
F3B9
  0
DICTIONARY
  5
18AAA
330
7467
100
AcDbDictionary
280
     1
281
     1
  3
ACAD_LAYERSTATES
360
18AAB
  0
DICTIONARY
  5
17AE2
102
{ACAD_REACTORS
330
7471
102
}
330
7471
100
AcDbDictionary
281
     1
  0
DICTIONARY
  5
7472
102
{ACAD_REACTORS
330
7471
102
}
330
7471
100
AcDbDictionary
281
     1
  3
*A1
350
17FA7
  3
*A2
350
180C7
  3
*A3
350
180D2
  0
DICTIONARY
  5
17AE3
102
{ACAD_REACTORS
330
7471
102
}
330
7471
100
AcDbDictionary
281
     1
  3
Model
350
17AE5
  3
レイアウト1
350
17AE6
  0
DICTIONARY
  5
17AE1
102
{ACAD_REACTORS
330
7471
102
}
330
7471
100
AcDbDictionary
281
     1
  0
DICTIONARY
  5
7473
102
{ACAD_REACTORS
330
7471
102
}
330
7471
100
AcDbDictionary
281
     1
  3
STANDARD
350
7480
  0
DICTIONARY
  5
17AE4
102
{ACAD_REACTORS
330
7471
102
}
330
7471
100
AcDbDictionary
281
     1
  0
ACDBDICTIONARYWDFLT
  5
17ADF
102
{ACAD_REACTORS
330
7471
102
}
330
7471
100
AcDbDictionary
281
     1
  3
Normal
350
17AE0
100
AcDbDictionaryWithDefault
340
17AE0
  0
DICTIONARY
  5
1BF77
102
{ACAD_REACTORS
330
7471
102
}
330
7471
100
AcDbDictionary
281
     1
  3
COLORDICT
350
1BF79
  3
MATERIALDICT
350
1BF78
  0
DICTIONARY
  5
1A70A
102
{ACAD_REACTORS
330
7471
102
}
330
7471
100
AcDbDictionary
281
     1
  3
DIMASSOC
350
1A70B
  3
PROJECTNAME
350
1A70C
  0
DICTIONARY
  5
E71C
102
{ACAD_REACTORS
330
7471
102
}
330
7471
100
AcDbDictionary
281
     1
  0
DICTIONARY
  5
F3B9
102
{ACAD_REACTORS
330
7471
102
}
330
7471
100
AcDbDictionary
281
     1
1001
DRAWINGVARIABLESXDATA
1000
POLARMODE
1000
1
  0
DICTIONARY
  5
18AAB
102
{ACAD_REACTORS
330
18AAA
102
}
330
18AAA
100
AcDbDictionary
281
     1
  0
GROUP
  5
17FA7
102
{ACAD_REACTORS
330
7472
102
}
330
7472
100
AcDbGroup
300

 70
     1
 71
     1
  0
GROUP
  5
180C7
102
{ACAD_REACTORS
330
7472
102
}
330
7472
100
AcDbGroup
300

 70
     1
 71
     1
  0
GROUP
  5
180D2
102
{ACAD_REACTORS
330
7472
102
}
330
7472
100
AcDbGroup
300

 70
     1
 71
     1
  0
LAYOUT
  5
17AE5
102
{ACAD_XDICTIONARY
360
1BF7A
102
}
102
{ACAD_REACTORS
330
17AE3
102
}
330
17AE3
100
AcDbPlotSettings
  1

  2
Canon iR C3880/C4580 LIPSLX
  4
A3
  6

 40
5.873749732971191
 41
5.873747825622558
 42
5.873748779296875
 43
5.873748779296875
 44
296.9259948730469
 45
419.9466552734374
 46
0.0
 47
0.0
 48
0.0
 49
0.0
140
0.0
141
0.0
142
1.0
143
40.0
 70
 11952
 72
     1
 73
     1
 74
     2
  7
inaba.ctb
 75
    24
147
0.025
148
0.0
149
0.0
100
AcDbLayout
  1
Model
 70
     1
 71
     0
 10
0.0
 20
0.0
 11
12.0
 21
9.0
 12
0.0
 22
0.0
 32
0.0
 14
0.0
 24
0.0
 34
0.0
 15
0.0
 25
0.0
 35
0.0
146
0.0
 13
0.0
 23
0.0
 33
0.0
 16
1.0
 26
0.0
 36
0.0
 17
0.0
 27
1.0
 37
0.0
 76
     0
330
747D
  0
LAYOUT
  5
17AE6
102
{ACAD_XDICTIONARY
360
1BF7C
102
}
102
{ACAD_REACTORS
330
17AE3
102
}
330
17AE3
100
AcDbPlotSettings
  1

  2
EPSON LP-8300
  4

  6

 40
0.0
 41
0.0
 42
0.0
 43
0.0
 44
0.0
 45
0.0
 46
0.0
 47
0.0
 48
0.0
 49
0.0
140
0.0
141
0.0
142
1.0
143
1.0
 70
   688
 72
     0
 73
     0
 74
     5
  7
inaba.ctb
 75
    16
147
1.0
148
0.0
149
0.0
100
AcDbLayout
  1
レイアウト1
 70
     0
 71
     1
 10
0.0
 20
0.0
 11
420.0
 21
297.0
 12
0.0
 22
0.0
 32
0.0
 14
1.000000000000000E+20
 24
1.000000000000000E+20
 34
1.000000000000000E+20
 15
-1.000000000000000E+20
 25
-1.000000000000000E+20
 35
-1.000000000000000E+20
146
0.0
 13
0.0
 23
0.0
 33
0.0
 16
1.0
 26
0.0
 36
0.0
 17
0.0
 27
1.0
 37
0.0
 76
     0
330
747A
  0
MLINESTYLE
  5
7480
102
{ACAD_REACTORS
330
7473
102
}
330
7473
100
AcDbMlineStyle
  2
STANDARD
 70
     0
  3

 62
     0
 51
90.0
 52
90.0
 71
     2
 49
0.5
 62
   256
  6
BYLAYER
 49
-0.5
 62
   256
  6
BYLAYER
  0
ACDBPLACEHOLDER
  5
17AE0
102
{ACAD_REACTORS
330
17ADF
102
}
330
17ADF
  0
XRECORD
  5
1BF79
102
{ACAD_REACTORS
330
1BF77
102
}
330
1BF77
100
AcDbXrecord
280
     1
340
17AE2
  0
XRECORD
  5
1BF78
102
{ACAD_REACTORS
330
1BF77
102
}
330
1BF77
100
AcDbXrecord
280
     1
340
17AE1
  0
DICTIONARYVAR
  5
1A70B
102
{ACAD_REACTORS
330
1A70A
102
}
330
1A70A
100
DictionaryVariables
280
     0
  1
1
  0
DICTIONARYVAR
  5
1A70C
102
{ACAD_REACTORS
330
1A70A
102
}
330
1A70A
100
DictionaryVariables
280
     0
  1

  0
DICTIONARY
  5
1BF7A
330
17AE5
100
AcDbDictionary
280
     1
281
     1
  3
ACAD_XREC_ROUNDTRIP
360
1BF7B
  0
DICTIONARY
  5
1BF7C
330
17AE6
100
AcDbDictionary
280
     1
281
     1
  3
ACAD_XREC_ROUNDTRIP
360
1BF7D
  0
XRECORD
  5
1BF7B
102
{ACAD_REACTORS
330
1BF7A
102
}
330
1BF7A
100
AcDbXrecord
280
     1
102
SHADEPLOT
 70
     0
102
SHADEPLOTRESLEVEL
 70
     2
102
SHADEPLOTCUSTOMDPI
 70
   300
  0
XRECORD
  5
1BF7D
102
{ACAD_REACTORS
330
1BF7C
102
}
330
1BF7C
100
AcDbXrecord
280
     1
102
SHADEPLOT
 70
     0
102
SHADEPLOTRESLEVEL
 70
     2
102
SHADEPLOTCUSTOMDPI
 70
   300
  0
ENDSEC
  0
EOF
