  0
SECTION
  2
HEADER
  9
$ACADVER
  1
AC1015
  9
$ACADMAINTVER
 70
    20
  9
$DWGCODEPAGE
  3
ANSI_932
  9
$INSBASE
 10
0.0
 20
0.0
 30
0.0
  9
$EXTMIN
 10
139.9999999999995
 20
-0.0000000000000909
 30
0.0
  9
$EXTMAX
 10
16307.2
 20
11409.6
 30
0.0
  9
$LIMMIN
 10
0.0
 20
0.0
  9
$LIMMAX
 10
16800.0
 20
11880.0
  9
$ORTHOMODE
 70
     0
  9
$REGENMODE
 70
     1
  9
$FILLMODE
 70
     1
  9
$QTEXTMODE
 70
     0
  9
$MIRRTEXT
 70
     1
  9
$LTSCALE
 40
20.0
  9
$ATTMODE
 70
     1
  9
$TEXTSIZE
 40
4.0
  9
$TRACEWID
 40
1.0
  9
$TEXTSTYLE
  7
MSPゴシック
  9
$CLAYER
  8
寸法
  9
$CELTYPE
  6
BYLAYER
  9
$CECOLOR
 62
   256
  9
$CELTSCALE
 40
50.0
  9
$DISPSILH
 70
     0
  9
$DIMSCALE
 40
40.0
  9
$DIMASZ
 40
2.5
  9
$DIMEXO
 40
0.5
  9
$DIMDLI
 40
7.0
  9
$DIMRND
 40
0.0
  9
$DIMDLE
 40
0.0
  9
$DIMEXE
 40
1.5
  9
$DIMTP
 40
0.0
  9
$DIMTM
 40
0.0
  9
$DIMTXT
 40
3.0
  9
$DIMCEN
 40
0.0
  9
$DIMTSZ
 40
0.0
  9
$DIMTOL
 70
     0
  9
$DIMLIM
 70
     0
  9
$DIMTIH
 70
     0
  9
$DIMTOH
 70
     0
  9
$DIMSE1
 70
     0
  9
$DIMSE2
 70
     0
  9
$DIMTAD
 70
     3
  9
$DIMZIN
 70
     8
  9
$DIMBLK
  1

  9
$DIMASO
 70
     1
  9
$DIMSHO
 70
     1
  9
$DIMPOST
  1

  9
$DIMAPOST
  1

  9
$DIMALT
 70
     0
  9
$DIMALTD
 70
     2
  9
$DIMALTF
 40
0.0394
  9
$DIMLFAC
 40
1.0
  9
$DIMTOFL
 70
     1
  9
$DIMTVP
 40
0.0
  9
$DIMTIX
 70
     1
  9
$DIMSOXD
 70
     0
  9
$DIMSAH
 70
     1
  9
$DIMBLK1
  1
DOTSMALL
  9
$DIMBLK2
  1
DOTSMALL
  9
$DIMSTYLE
  2
INABA_S40G
  9
$DIMCLRD
 70
     0
  9
$DIMCLRE
 70
     0
  9
$DIMCLRT
 70
     7
  9
$DIMTFAC
 40
1.0
  9
$DIMGAP
 40
1.0
  9
$DIMJUST
 70
     0
  9
$DIMSD1
 70
     0
  9
$DIMSD2
 70
     0
  9
$DIMTOLJ
 70
     1
  9
$DIMTZIN
 70
     0
  9
$DIMALTZ
 70
     0
  9
$DIMALTTZ
 70
     0
  9
$DIMUPT
 70
     0
  9
$DIMDEC
 70
     1
  9
$DIMTDEC
 70
     4
  9
$DIMALTU
 70
     2
  9
$DIMALTTD
 70
     2
  9
$DIMTXSTY
  7
STYLE1
  9
$DIMAUNIT
 70
     0
  9
$DIMADEC
 70
     0
  9
$DIMALTRND
 40
0.0
  9
$DIMAZIN
 70
     0
  9
$DIMDSEP
 70
    46
  9
$DIMATFIT
 70
     3
  9
$DIMFRAC
 70
     0
  9
$DIMLDRBLK
  1

  9
$DIMLUNIT
 70
     2
  9
$DIMLWD
 70
    -2
  9
$DIMLWE
 70
    -2
  9
$DIMTMOVE
 70
     2
  9
$LUNITS
 70
     2
  9
$LUPREC
 70
     1
  9
$SKETCHINC
 40
1.0
  9
$FILLETRAD
 40
3.0
  9
$AUNITS
 70
     0
  9
$AUPREC
 70
     0
  9
$MENU
  1
acad
  9
$ELEVATION
 40
0.0
  9
$PELEVATION
 40
0.0
  9
$THICKNESS
 40
0.0
  9
$LIMCHECK
 70
     0
  9
$CHAMFERA
 40
0.0
  9
$CHAMFERB
 40
0.0
  9
$CHAMFERC
 40
0.0
  9
$CHAMFERD
 40
0.0
  9
$SKPOLY
 70
     0
  9
$TDCREATE
 40
2451368.612993866
  9
$TDUCREATE
 40
2451368.237993866
  9
$TDUPDATE
 40
2455569.648191910
  9
$TDUUPDATE
 40
2455569.273191910
  9
$TDINDWG
 40
0.8464837500
  9
$TDUSRTIMER
 40
0.8464830324
  9
$USRTIMER
 70
     1
  9
$ANGBASE
 50
0.0
  9
$ANGDIR
 70
     0
  9
$PDMODE
 70
     3
  9
$PDSIZE
 40
2.0
  9
$PLINEWID
 40
0.0
  9
$SPLFRAME
 70
     0
  9
$SPLINETYPE
 70
     6
  9
$SPLINESEGS
 70
     8
  9
$HANDSEED
  5
1A9EC
  9
$SURFTAB1
 70
     6
  9
$SURFTAB2
 70
     6
  9
$SURFTYPE
 70
     6
  9
$SURFU
 70
     6
  9
$SURFV
 70
     6
  9
$UCSBASE
  2

  9
$UCSNAME
  2

  9
$UCSORG
 10
0.0
 20
0.0
 30
0.0
  9
$UCSXDIR
 10
1.0
 20
0.0
 30
0.0
  9
$UCSYDIR
 10
0.0
 20
1.0
 30
0.0
  9
$UCSORTHOREF
  2

  9
$UCSORTHOVIEW
 70
     0
  9
$UCSORGTOP
 10
0.0
 20
0.0
 30
0.0
  9
$UCSORGBOTTOM
 10
0.0
 20
0.0
 30
0.0
  9
$UCSORGLEFT
 10
0.0
 20
0.0
 30
0.0
  9
$UCSORGRIGHT
 10
0.0
 20
0.0
 30
0.0
  9
$UCSORGFRONT
 10
0.0
 20
0.0
 30
0.0
  9
$UCSORGBACK
 10
0.0
 20
0.0
 30
0.0
  9
$PUCSBASE
  2

  9
$PUCSNAME
  2

  9
$PUCSORG
 10
0.0
 20
0.0
 30
0.0
  9
$PUCSXDIR
 10
1.0
 20
0.0
 30
0.0
  9
$PUCSYDIR
 10
0.0
 20
1.0
 30
0.0
  9
$PUCSORTHOREF
  2

  9
$PUCSORTHOVIEW
 70
     0
  9
$PUCSORGTOP
 10
0.0
 20
0.0
 30
0.0
  9
$PUCSORGBOTTOM
 10
0.0
 20
0.0
 30
0.0
  9
$PUCSORGLEFT
 10
0.0
 20
0.0
 30
0.0
  9
$PUCSORGRIGHT
 10
0.0
 20
0.0
 30
0.0
  9
$PUCSORGFRONT
 10
0.0
 20
0.0
 30
0.0
  9
$PUCSORGBACK
 10
0.0
 20
0.0
 30
0.0
  9
$USERI1
 70
     0
  9
$USERI2
 70
     0
  9
$USERI3
 70
     0
  9
$USERI4
 70
     0
  9
$USERI5
 70
     0
  9
$USERR1
 40
0.0
  9
$USERR2
 40
0.0
  9
$USERR3
 40
0.0
  9
$USERR4
 40
0.0
  9
$USERR5
 40
0.0
  9
$WORLDVIEW
 70
     1
  9
$SHADEDGE
 70
     3
  9
$SHADEDIF
 70
    70
  9
$TILEMODE
 70
     1
  9
$MAXACTVP
 70
    16
  9
$PINSBASE
 10
0.0
 20
0.0
 30
0.0
  9
$PLIMCHECK
 70
     0
  9
$PEXTMIN
 10
1.000000000000000E+20
 20
1.000000000000000E+20
 30
1.000000000000000E+20
  9
$PEXTMAX
 10
-1.000000000000000E+20
 20
-1.000000000000000E+20
 30
-1.000000000000000E+20
  9
$PLIMMIN
 10
0.0
 20
0.0
  9
$PLIMMAX
 10
420.0
 20
297.0
  9
$UNITMODE
 70
     0
  9
$VISRETAIN
 70
     0
  9
$PLINEGEN
 70
     0
  9
$PSLTSCALE
 70
     0
  9
$TREEDEPTH
 70
  3020
  9
$CMLSTYLE
  2
STANDARD
  9
$CMLJUST
 70
     0
  9
$CMLSCALE
 40
1.0
  9
$PROXYGRAPHICS
 70
     1
  9
$MEASUREMENT
 70
     1
  9
$CELWEIGHT
370
    -1
  9
$ENDCAPS
280
     0
  9
$JOINSTYLE
280
     0
  9
$LWDISPLAY
290
     0
  9
$INSUNITS
 70
     0
  9
$HYPERLINKBASE
  1

  9
$STYLESHEET
  1
inaba.ctb
  9
$XEDIT
290
     1
  9
$CEPSNTYPE
380
     0
  9
$PSTYLEMODE
290
     1
  9
$FINGERPRINTGUID
  2
{0E4A3AB3-ADAA-44DC-861C-9525B65BB1EC}
  9
$VERSIONGUID
  2
{A15A20DD-E38E-4F97-8191-90541097C70E}
  9
$EXTNAMES
290
     1
  9
$PSVPSCALE
 40
0.0
  9
$OLESTARTUP
290
     0
  0
ENDSEC
  0
SECTION
  2
CLASSES
  0
CLASS
  1
ACDBDICTIONARYWDFLT
  2
AcDbDictionaryWithDefault
  3
ObjectDBX Classes
 90
        0
280
     0
281
     0
  0
CLASS
  1
DICTIONARYVAR
  2
AcDbDictionaryVar
  3
ObjectDBX Classes
 90
        0
280
     0
281
     0
  0
CLASS
  1
ACDBPLACEHOLDER
  2
AcDbPlaceHolder
  3
ObjectDBX Classes
 90
        0
280
     0
281
     0
  0
CLASS
  1
LAYOUT
  2
AcDbLayout
  3
ObjectDBX Classes
 90
        0
280
     0
281
     0
  0
ENDSEC
  0
SECTION
  2
TABLES
  0
TABLE
  2
VPORT
  5
746D
330
0
100
AcDbSymbolTable
 70
     2
  0
VPORT
  5
1A9E4
330
746D
100
AcDbSymbolTableRecord
100
AcDbViewportTableRecord
  2
*Active
 70
     0
 10
0.0
 20
0.0
 11
1.0
 21
1.0
 12
11720.08792708764
 22
5704.778730455632
 13
0.0
 23
0.0
 14
10.0
 24
10.0
 15
10.0
 25
10.0
 16
0.0
 26
0.0
 36
1.0
 17
0.0
 27
0.0
 37
0.0
 40
11513.3867399369
 41
2.234800838574423
 42
50.0
 43
0.0
 44
0.0
 50
0.0
 51
0.0
 71
     0
 72
     0
 73
     1
 74
     0
 75
     0
 76
     0
 77
     0
 78
     0
281
     0
 65
     1
110
0.0
120
0.0
130
0.0
111
1.0
121
0.0
131
0.0
112
0.0
122
1.0
132
0.0
 79
     0
146
0.0
  0
ENDTAB
  0
TABLE
  2
LTYPE
  5
746A
330
0
100
AcDbSymbolTable
 70
     3
  0
LTYPE
  5
7477
330
746A
100
AcDbSymbolTableRecord
100
AcDbLinetypeTableRecord
  2
BYBLOCK
 70
     0
  3

 72
    65
 73
     0
 40
0.0
  0
LTYPE
  5
7478
330
746A
100
AcDbSymbolTableRecord
100
AcDbLinetypeTableRecord
  2
BYLAYER
 70
     0
  3

 72
    65
 73
     0
 40
0.0
  0
LTYPE
  5
7479
330
746A
100
AcDbSymbolTableRecord
100
AcDbLinetypeTableRecord
  2
CONTINUOUS
 70
     0
  3
Solid line
 72
    65
 73
     0
 40
0.0
  0
LTYPE
  5
781A
330
746A
100
AcDbSymbolTableRecord
100
AcDbLinetypeTableRecord
  2
HIDDEN
 70
     0
  3
__ __ __ __ __ __ __ __ __ __ __ __ __ __ __ __
 72
    65
 73
     2
 40
0.375
 49
0.25
 74
     0
 49
-0.125
 74
     0
  0
LTYPE
  5
781B
330
746A
100
AcDbSymbolTableRecord
100
AcDbLinetypeTableRecord
  2
PHANTOM
 70
     0
  3
______  __  __  ______  __  __  ______  __  __ 
 72
    65
 73
     6
 40
2.5
 49
1.25
 74
     0
 49
-0.25
 74
     0
 49
0.25
 74
     0
 49
-0.25
 74
     0
 49
0.25
 74
     0
 49
-0.25
 74
     0
  0
ENDTAB
  0
TABLE
  2
LAYER
  5
7467
102
{ACAD_XDICTIONARY
360
18C51
102
}
330
0
100
AcDbSymbolTable
 70
    10
  0
LAYER
  5
7474
330
7467
100
AcDbSymbolTableRecord
100
AcDbLayerTableRecord
  2
0
 70
     0
 62
     7
  6
CONTINUOUS
370
    -3
390
17AE0
  0
LAYER
  5
DEB3
330
7467
100
AcDbSymbolTableRecord
100
AcDbLayerTableRecord
  2
寸法
 70
     0
 62
     4
  6
CONTINUOUS
370
    -3
390
17AE0
  0
LAYER
  5
DEB4
330
7467
100
AcDbSymbolTableRecord
100
AcDbLayerTableRecord
  2
部品1
 70
     0
 62
     7
  6
CONTINUOUS
370
    -3
390
17AE0
  0
LAYER
  5
DEB5
330
7467
100
AcDbSymbolTableRecord
100
AcDbLayerTableRecord
  2
補助
 70
     0
 62
    -1
  6
CONTINUOUS
370
    -3
390
17AE0
  0
LAYER
  5
DEB6
330
7467
100
AcDbSymbolTableRecord
100
AcDbLayerTableRecord
  2
文字
 70
     0
 62
     7
  6
CONTINUOUS
370
    -3
390
17AE0
  0
LAYER
  5
F255
330
7467
100
AcDbSymbolTableRecord
100
AcDbLayerTableRecord
  2
DEFPOINTS
 70
     0
 62
     7
  6
CONTINUOUS
290
     0
370
    -3
390
17AE0
  0
LAYER
  5
10B54
330
7467
100
AcDbSymbolTableRecord
100
AcDbLayerTableRecord
  2
仕様書枠
 70
     0
 62
   230
  6
CONTINUOUS
370
    -3
390
17AE0
  0
LAYER
  5
11729
330
7467
100
AcDbSymbolTableRecord
100
AcDbLayerTableRecord
  2
Ｇ．Ｌ
 70
     0
 62
    30
  6
CONTINUOUS
370
    -3
390
17AE0
  0
LAYER
  5
1173F
330
7467
100
AcDbSymbolTableRecord
100
AcDbLayerTableRecord
  2
細線
 70
     0
 62
     5
  6
CONTINUOUS
370
    -3
390
17AE0
  0
LAYER
  5
142E2
330
7467
100
AcDbSymbolTableRecord
100
AcDbLayerTableRecord
  2
破線
 70
     0
 62
     2
  6
HIDDEN
370
    -3
390
17AE0
  0
ENDTAB
  0
TABLE
  2
STYLE
  5
7468
330
0
100
AcDbSymbolTable
 70
     7
  0
STYLE
  5
7475
330
7468
100
AcDbSymbolTableRecord
100
AcDbTextStyleTableRecord
  2
STANDARD
 70
     0
 40
0.0
 41
1.0
 50
0.0
 71
     0
 42
4.0
  3
txt
  4
C:\AutoCAD LT\bigfont.shx
  0
STYLE
  5
763C
330
7468
100
AcDbSymbolTableRecord
100
AcDbTextStyleTableRecord
  2
MSMINCHO
 70
     0
 40
0.0
 41
1.0
 50
0.0
 71
     0
 42
1.199999999999999
  3
MS PMincho.ttf
  4

1001
ACAD
1000
MS PMincho
1071
    32786
  0
STYLE
  5
F706
330
7468
100
AcDbSymbolTableRecord
100
AcDbTextStyleTableRecord
  2
STYLE1
 70
     0
 40
0.0
 41
1.0
 50
0.0
 71
     0
 42
4.0
  3
isocp.shx
  4
bigfont.shx
  0
STYLE
  5
103BF
330
7468
100
AcDbSymbolTableRecord
100
AcDbTextStyleTableRecord
  2
STYLE2
 70
     0
 40
0.0
 41
1.0
 50
0.0
 71
     0
 42
100.0
  3
MS PGothic.ttf
  4

1001
ACAD
1000
MS PGothic
1071
    32818
  0
STYLE
  5
10BAA
330
7468
100
AcDbSymbolTableRecord
100
AcDbTextStyleTableRecord
  2
STYLE3
 70
     0
 40
0.0
 41
1.0
 50
0.0
 71
     0
 42
100.0
  3
DFPGothic-EB.ttf
  4

1001
ACAD
1000
DFPGothic-EB
1071
    32818
  0
STYLE
  5
11A15
330
7468
100
AcDbSymbolTableRecord
100
AcDbTextStyleTableRecord
  2
MSGOTHIC
 70
     0
 40
0.0
 41
1.0
 50
0.0
 71
     0
 42
3.5
  3
MS PGothic.ttf
  4

1001
ACAD
1000
MS PGothic
1071
    32818
  0
STYLE
  5
13E96
330
7468
100
AcDbSymbolTableRecord
100
AcDbTextStyleTableRecord
  2
MSPゴシック
 70
     0
 40
0.0
 41
1.0
 50
0.0
 71
     0
 42
4.0
  3
MS PGothic.ttf
  4

1001
ACAD
1000
MS PGothic
1071
    32818
  0
ENDTAB
  0
TABLE
  2
VIEW
  5
746B
330
0
100
AcDbSymbolTable
 70
     0
  0
ENDTAB
  0
TABLE
  2
UCS
  5
746C
330
0
100
AcDbSymbolTable
 70
     0
  0
ENDTAB
  0
TABLE
  2
APPID
  5
746E
330
0
100
AcDbSymbolTable
 70
     6
  0
APPID
  5
7476
330
746E
100
AcDbSymbolTableRecord
100
AcDbRegAppTableRecord
  2
ACAD
 70
     0
  0
APPID
  5
DEA9
330
746E
100
AcDbSymbolTableRecord
100
AcDbRegAppTableRecord
  2
CONTENTBLOCKICON
 70
     0
  0
APPID
  5
DEAA
330
746E
100
AcDbSymbolTableRecord
100
AcDbRegAppTableRecord
  2
CONTENTBLOCKDESCRIPTION
 70
     0
  0
APPID
  5
E71D
330
746E
100
AcDbSymbolTableRecord
100
AcDbRegAppTableRecord
  2
CONTENTTABDATA
 70
     0
  0
APPID
  5
E71E
330
746E
100
AcDbSymbolTableRecord
100
AcDbRegAppTableRecord
  2
CONTENTCURRENTTAB
 70
     0
  0
APPID
  5
F3BA
330
746E
100
AcDbSymbolTableRecord
100
AcDbRegAppTableRecord
  2
DRAWINGVARIABLESXDATA
 70
     0
  0
ENDTAB
  0
TABLE
  2
DIMSTYLE
  5
746F
330
0
100
AcDbSymbolTable
 70
     1
100
AcDbDimStyleTable
 71
     1
340
F71F
  0
DIMSTYLE
105
F71F
102
{ACAD_REACTORS
330
162CD
330
162CE
330
162CF
330
162D0
330
162E4
330
162E7
330
162EA
330
162EB
330
16301
330
16302
330
1631F
330
16320
330
16333
330
1659C
330
1659A
330
165E9
330
166DD
330
16913
330
17BC3
330
17B87
330
17B86
330
195D0
330
195D1
330
195D2
330
195E2
330
19AA1
330
19AA2
330
19AA3
330
19AD3
330
19AD7
330
19AD8
330
19AD9
330
19AE7
330
19AF6
330
1A3DA
330
1A3DB
330
1A3DC
102
}
330
746F
100
AcDbSymbolTableRecord
100
AcDbDimStyleTableRecord
  2
INABA_S40G
 70
     0
 40
40.0
 41
2.5
 42
0.5
 43
7.0
 44
1.5
 73
     0
 74
     0
 77
     3
 78
     8
140
3.0
141
0.0
143
0.0394
147
1.0
172
     1
173
     1
174
     1
178
     7
271
     1
340
F706
341
F770
343
F770
344
F770
  0
ENDTAB
  0
TABLE
  2
BLOCK_RECORD
  5
7466
330
0
100
AcDbSymbolTable
 70
    38
  0
BLOCK_RECORD
  5
747D
330
7466
100
AcDbSymbolTableRecord
100
AcDbBlockTableRecord
  2
*MODEL_SPACE
340
17AE5
  0
BLOCK_RECORD
  5
747A
330
7466
100
AcDbSymbolTableRecord
100
AcDbBlockTableRecord
  2
*PAPER_SPACE
340
17AE6
  0
BLOCK_RECORD
  5
F770
330
7466
100
AcDbSymbolTableRecord
100
AcDbBlockTableRecord
  2
_DOTSMALL
340
0
102
{BLKREFS
331
1A6AB
331
1A6AC
331
1A6B5
331
1A6B6
331
1A6CB
331
1A6CC
331
1A70B
331
1A70C
331
1A78C
331
1A78D
331
1A797
331
1A798
331
1A7A2
331
1A7A3
331
1A7AB
331
1A7AC
331
1A7B4
331
1A7B5
331
1A7BE
331
1A7BF
331
1A7C7
331
1A7C8
331
1A7D0
331
1A7D1
331
1A7D9
331
1A7DA
331
1A7E1
331
1A7E2
331
1A7EC
331
1A7ED
331
1A800
331
1A801
331
1A80C
331
1A80D
331
1A81C
331
1A81D
331
1A825
331
1A826
331
1A830
331
1A831
331
1A83B
331
1A83C
331
1A844
331
1A845
331
1A84E
331
1A84F
331
1A85F
331
1A860
331
1A868
331
1A869
331
1A871
331
1A872
331
1A87D
331
1A87E
331
1A887
331
1A888
331
1A892
331
1A893
331
1A89B
331
1A89C
331
1A8CB
331
1A8CC
331
1A8D6
331
1A8D7
331
1A8F3
331
1A8F4
331
1A8FC
331
1A8FD
331
1A905
331
1A906
331
1A9C8
331
1A9C9
331
1A9D4
331
1A9D5
102
}
  0
BLOCK_RECORD
  5
16338
330
7466
100
AcDbSymbolTableRecord
100
AcDbBlockTableRecord
  2
*D1
340
0
  0
BLOCK_RECORD
  5
16344
330
7466
100
AcDbSymbolTableRecord
100
AcDbBlockTableRecord
  2
*D2
340
0
  0
BLOCK_RECORD
  5
16352
330
7466
100
AcDbSymbolTableRecord
100
AcDbBlockTableRecord
  2
*D3
340
0
  0
BLOCK_RECORD
  5
16360
330
7466
100
AcDbSymbolTableRecord
100
AcDbBlockTableRecord
  2
*D4
340
0
  0
BLOCK_RECORD
  5
16384
330
7466
100
AcDbSymbolTableRecord
100
AcDbBlockTableRecord
  2
*D5
340
0
  0
BLOCK_RECORD
  5
1638F
330
7466
100
AcDbSymbolTableRecord
100
AcDbBlockTableRecord
  2
*D6
340
0
  0
BLOCK_RECORD
  5
1639B
330
7466
100
AcDbSymbolTableRecord
100
AcDbBlockTableRecord
  2
*D7
340
0
  0
BLOCK_RECORD
  5
163A9
330
7466
100
AcDbSymbolTableRecord
100
AcDbBlockTableRecord
  2
*D8
340
0
  0
BLOCK_RECORD
  5
163B8
330
7466
100
AcDbSymbolTableRecord
100
AcDbBlockTableRecord
  2
*D9
340
0
  0
BLOCK_RECORD
  5
163C7
330
7466
100
AcDbSymbolTableRecord
100
AcDbBlockTableRecord
  2
*D10
340
0
  0
BLOCK_RECORD
  5
163E1
330
7466
100
AcDbSymbolTableRecord
100
AcDbBlockTableRecord
  2
*D11
340
0
  0
BLOCK_RECORD
  5
163ED
330
7466
100
AcDbSymbolTableRecord
100
AcDbBlockTableRecord
  2
*D12
340
0
  0
BLOCK_RECORD
  5
163FB
330
7466
100
AcDbSymbolTableRecord
100
AcDbBlockTableRecord
  2
*D13
340
0
  0
BLOCK_RECORD
  5
165B5
330
7466
100
AcDbSymbolTableRecord
100
AcDbBlockTableRecord
  2
*D14
340
0
  0
BLOCK_RECORD
  5
165C4
330
7466
100
AcDbSymbolTableRecord
100
AcDbBlockTableRecord
  2
*D15
340
0
  0
BLOCK_RECORD
  5
165EA
330
7466
100
AcDbSymbolTableRecord
100
AcDbBlockTableRecord
  2
*D16
340
0
  0
BLOCK_RECORD
  5
166CF
330
7466
100
AcDbSymbolTableRecord
100
AcDbBlockTableRecord
  2
*D17
340
0
  0
BLOCK_RECORD
  5
16908
330
7466
100
AcDbSymbolTableRecord
100
AcDbBlockTableRecord
  2
*D18
340
0
  0
BLOCK_RECORD
  5
17BD3
330
7466
100
AcDbSymbolTableRecord
100
AcDbBlockTableRecord
  2
*D19
340
0
  0
BLOCK_RECORD
  5
17BDE
330
7466
100
AcDbSymbolTableRecord
100
AcDbBlockTableRecord
  2
*D20
340
0
  0
BLOCK_RECORD
  5
17BF8
330
7466
100
AcDbSymbolTableRecord
100
AcDbBlockTableRecord
  2
*D21
340
0
  0
BLOCK_RECORD
  5
1968A
330
7466
100
AcDbSymbolTableRecord
100
AcDbBlockTableRecord
  2
*D22
340
0
  0
BLOCK_RECORD
  5
19696
330
7466
100
AcDbSymbolTableRecord
100
AcDbBlockTableRecord
  2
*D23
340
0
  0
BLOCK_RECORD
  5
196A2
330
7466
100
AcDbSymbolTableRecord
100
AcDbBlockTableRecord
  2
*D24
340
0
  0
BLOCK_RECORD
  5
196B0
330
7466
100
AcDbSymbolTableRecord
100
AcDbBlockTableRecord
  2
*D25
340
0
  0
BLOCK_RECORD
  5
19C4F
330
7466
100
AcDbSymbolTableRecord
100
AcDbBlockTableRecord
  2
*D26
340
0
  0
BLOCK_RECORD
  5
19C5B
330
7466
100
AcDbSymbolTableRecord
100
AcDbBlockTableRecord
  2
*D27
340
0
  0
BLOCK_RECORD
  5
19C67
330
7466
100
AcDbSymbolTableRecord
100
AcDbBlockTableRecord
  2
*D28
340
0
  0
BLOCK_RECORD
  5
19C73
330
7466
100
AcDbSymbolTableRecord
100
AcDbBlockTableRecord
  2
*D29
340
0
  0
BLOCK_RECORD
  5
19C81
330
7466
100
AcDbSymbolTableRecord
100
AcDbBlockTableRecord
  2
*D30
340
0
  0
BLOCK_RECORD
  5
19C8D
330
7466
100
AcDbSymbolTableRecord
100
AcDbBlockTableRecord
  2
*D31
340
0
  0
BLOCK_RECORD
  5
19C9B
330
7466
100
AcDbSymbolTableRecord
100
AcDbBlockTableRecord
  2
*D32
340
0
  0
BLOCK_RECORD
  5
19CA7
330
7466
100
AcDbSymbolTableRecord
100
AcDbBlockTableRecord
  2
*D33
340
0
  0
BLOCK_RECORD
  5
19CB4
330
7466
100
AcDbSymbolTableRecord
100
AcDbBlockTableRecord
  2
*D34
340
0
  0
BLOCK_RECORD
  5
1A43A
330
7466
100
AcDbSymbolTableRecord
100
AcDbBlockTableRecord
  2
*D35
340
0
  0
BLOCK_RECORD
  5
1A446
330
7466
100
AcDbSymbolTableRecord
100
AcDbBlockTableRecord
  2
*D36
340
0
  0
BLOCK_RECORD
  5
1A454
330
7466
100
AcDbSymbolTableRecord
100
AcDbBlockTableRecord
  2
*D37
340
0
  0
ENDTAB
  0
ENDSEC
  0
SECTION
  2
BLOCKS
  0
BLOCK
  5
7489
330
747D
100
AcDbEntity
  8
0
100
AcDbBlockBegin
  2
*MODEL_SPACE
 70
     0
 10
0.0
 20
0.0
 30
0.0
  3
*MODEL_SPACE
  1

  0
ENDBLK
  5
748A
330
747D
100
AcDbEntity
  8
0
100
AcDbBlockEnd
  0
BLOCK
  5
7487
330
747A
100
AcDbEntity
 67
     1
  8
0
100
AcDbBlockBegin
  2
*PAPER_SPACE
 70
     0
 10
0.0
 20
0.0
 30
0.0
  3
*PAPER_SPACE
  1

  0
ENDBLK
  5
7488
330
747A
100
AcDbEntity
 67
     1
  8
0
100
AcDbBlockEnd
  0
BLOCK
  5
F771
330
F770
100
AcDbEntity
  8
0
 48
50.0
100
AcDbBlockBegin
  2
_DOTSMALL
 70
     0
 10
0.0
 20
0.0
 30
0.0
  3
_DOTSMALL
  1

  0
LWPOLYLINE
  5
F772
330
F770
100
AcDbEntity
  8
0
  6
ByBlock
 62
     0
 48
50.0
100
AcDbPolyline
 90
        2
 70
     1
 43
0.5
 10
-0.0625
 20
0.0
 42
1.0
 10
0.0625
 20
0.0
 42
1.0
  0
ENDBLK
  5
F776
330
F770
100
AcDbEntity
  8
0
 48
50.0
100
AcDbBlockEnd
  0
BLOCK
  5
164EB
330
16338
100
AcDbEntity
  8
0
 48
50.0
100
AcDbBlockBegin
  2
*D1
 70
     1
 10
0.0
 20
0.0
 30
0.0
  3
*D1
  1

  0
LINE
  5
1A841
330
16338
100
AcDbEntity
  8
寸法
 62
     0
 48
50.0
370
    -2
100
AcDbLine
 10
8024.673057123674
 20
10436.06398349157
 30
0.0
 11
8712.099402858079
 21
10436.06398349157
 31
0.0
  0
LINE
  5
1A842
330
16338
100
AcDbEntity
  8
寸法
 62
     0
 48
50.0
370
    -2
100
AcDbLine
 10
8024.673057123647
 20
7076.063983491557
 30
0.0
 11
8712.099402858079
 21
7076.063983491557
 31
0.0
  0
LINE
  5
1A843
330
16338
100
AcDbEntity
  8
寸法
 62
     0
 48
50.0
370
    -2
100
AcDbLine
 10
8652.099402858079
 20
10436.06398349157
 30
0.0
 11
8652.099402858079
 21
7076.063983491557
 31
0.0
  0
INSERT
  5
1A844
330
16338
100
AcDbEntity
  8
寸法
 62
     0
 48
50.0
370
    -2
100
AcDbBlockReference
  2
_DOTSMALL
 10
8652.099402858079
 20
10436.06398349157
 30
0.0
 41
100.0
 42
100.0
 43
100.0
 50
90.0
  0
INSERT
  5
1A845
330
16338
100
AcDbEntity
  8
寸法
 62
     0
 48
50.0
370
    -2
100
AcDbBlockReference
  2
_DOTSMALL
 10
8652.099402858079
 20
7076.063983491557
 30
0.0
 41
100.0
 42
100.0
 43
100.0
 50
270.0
  0
MTEXT
  5
1A846
330
16338
100
AcDbEntity
  8
寸法
 62
     7
 48
50.0
100
AcDbMText
 10
8552.087591834455
 20
8756.063983491563
 30
0.0
 40
120.0
 41
0.0
 71
     5
 72
     1
  1
\A1;8X420=3360
  7
STYLE1
 11
0.0000000000000001
 21
1.0
 31
0.0
 73
     1
 44
1.0
1001
ACAD
1000
MTEXTBEGIN
1070
    73
1070
     1
1070
    44
1040
1.0
1070
    74
1070
     0
1000
MTEXTEND
  0
POINT
  5
1A847
330
16338
100
AcDbEntity
  8
DEFPOINTS
 62
     0
 48
50.0
100
AcDbPoint
 10
8004.673057123673
 20
10436.06398349157
 30
0.0
  0
POINT
  5
1A848
330
16338
100
AcDbEntity
  8
DEFPOINTS
 62
     0
 48
50.0
100
AcDbPoint
 10
8004.673057123648
 20
7076.063983491557
 30
0.0
  0
POINT
  5
1A849
330
16338
100
AcDbEntity
  8
DEFPOINTS
 62
     0
 48
50.0
100
AcDbPoint
 10
8652.099402858079
 20
7076.063983491557
 30
0.0
  0
ENDBLK
  5
164F5
330
16338
100
AcDbEntity
  8
0
 48
50.0
100
AcDbBlockEnd
  0
BLOCK
  5
16414
330
16344
100
AcDbEntity
  8
0
 48
50.0
100
AcDbBlockBegin
  2
*D2
 70
     1
 10
0.0
 20
0.0
 30
0.0
  3
*D2
  1

  0
LINE
  5
1A836
330
16344
100
AcDbEntity
  8
寸法
 62
     0
 48
50.0
370
    -2
100
AcDbLine
 10
8024.673057123647
 20
7076.063983491557
 30
0.0
 11
8712.09940285806
 21
7076.063983491557
 31
0.0
  0
LINE
  5
1A837
330
16344
100
AcDbEntity
  8
寸法
 62
     0
 48
50.0
370
    -2
100
AcDbLine
 10
8024.673057123647
 20
7021.06398349156
 30
0.0
 11
8712.09940285806
 21
7021.06398349156
 31
0.0
  0
LINE
  5
1A838
330
16344
100
AcDbEntity
  8
寸法
 62
     0
 48
50.0
370
    -2
100
AcDbLine
 10
8652.099402858059
 20
7076.063983491557
 30
0.0
 11
8652.099402858059
 21
7176.063983491556
 31
0.0
  0
LINE
  5
1A839
330
16344
100
AcDbEntity
  8
寸法
 62
     0
 48
50.0
370
    -2
100
AcDbLine
 10
8652.099402858059
 20
7021.06398349156
 30
0.0
 11
8652.099402858059
 21
6534.717235212458
 31
0.0
  0
LINE
  5
1A83A
330
16344
100
AcDbEntity
  8
寸法
 62
     0
 48
50.0
370
    -2
100
AcDbLine
 10
8652.099402858059
 20
7076.063983491557
 30
0.0
 11
8652.099402858059
 21
7021.06398349156
 31
0.0
  0
INSERT
  5
1A83B
330
16344
100
AcDbEntity
  8
寸法
 62
     0
 48
50.0
370
    -2
100
AcDbBlockReference
  2
_DOTSMALL
 10
8652.099402858059
 20
7076.063983491557
 30
0.0
 41
100.0
 42
100.0
 43
100.0
 50
270.0
  0
INSERT
  5
1A83C
330
16344
100
AcDbEntity
  8
寸法
 62
     0
 48
50.0
370
    -2
100
AcDbBlockReference
  2
_DOTSMALL
 10
8652.099402858059
 20
7021.06398349156
 30
0.0
 41
100.0
 42
100.0
 43
100.0
 50
90.0
  0
MTEXT
  5
1A83D
330
16344
100
AcDbEntity
  8
寸法
 62
     7
 48
50.0
100
AcDbMText
 10
8552.099402858058
 20
6643.202516586697
 30
0.0
 40
120.0
 41
0.0
 71
     5
 72
     1
  1
\A1;55
  7
STYLE1
 11
0.0000000000000001
 21
1.0
 31
0.0
 73
     1
 44
1.0
1001
ACAD
1000
MTEXTBEGIN
1070
    73
1070
     1
1070
    44
1040
1.0
1070
    74
1070
     0
1000
MTEXTEND
  0
POINT
  5
1A83E
330
16344
100
AcDbEntity
  8
DEFPOINTS
 62
     0
 48
50.0
100
AcDbPoint
 10
8004.673057123648
 20
7076.063983491557
 30
0.0
  0
POINT
  5
1A83F
330
16344
100
AcDbEntity
  8
DEFPOINTS
 62
     0
 48
50.0
100
AcDbPoint
 10
8004.673057123648
 20
7021.06398349156
 30
0.0
  0
POINT
  5
1A840
330
16344
100
AcDbEntity
  8
DEFPOINTS
 62
     0
 48
50.0
100
AcDbPoint
 10
8652.099402858059
 20
7021.06398349156
 30
0.0
  0
ENDBLK
  5
16420
330
16344
100
AcDbEntity
  8
0
 48
50.0
100
AcDbBlockEnd
  0
BLOCK
  5
16421
330
16352
100
AcDbEntity
  8
0
 48
50.0
100
AcDbBlockBegin
  2
*D3
 70
     1
 10
0.0
 20
0.0
 30
0.0
  3
*D3
  1

  0
LINE
  5
1A82B
330
16352
100
AcDbEntity
  8
寸法
 62
     0
 48
50.0
370
    -2
100
AcDbLine
 10
8024.673057123674
 20
10491.06398349157
 30
0.0
 11
8712.099402858084
 21
10491.06398349157
 31
0.0
  0
LINE
  5
1A82C
330
16352
100
AcDbEntity
  8
寸法
 62
     0
 48
50.0
370
    -2
100
AcDbLine
 10
8024.673057123674
 20
10436.06398349157
 30
0.0
 11
8712.099402858084
 21
10436.06398349157
 31
0.0
  0
LINE
  5
1A82D
330
16352
100
AcDbEntity
  8
寸法
 62
     0
 48
50.0
370
    -2
100
AcDbLine
 10
8652.099402858084
 20
10436.06398349157
 30
0.0
 11
8652.099402858084
 21
10336.06398349157
 31
0.0
  0
LINE
  5
1A82E
330
16352
100
AcDbEntity
  8
寸法
 62
     0
 48
50.0
370
    -2
100
AcDbLine
 10
8652.099402858084
 20
10491.06398349157
 30
0.0
 11
8652.099402858084
 21
10908.03454624004
 31
0.0
  0
LINE
  5
1A82F
330
16352
100
AcDbEntity
  8
寸法
 62
     0
 48
50.0
370
    -2
100
AcDbLine
 10
8652.099402858084
 20
10436.06398349157
 30
0.0
 11
8652.099402858084
 21
10491.06398349157
 31
0.0
  0
INSERT
  5
1A830
330
16352
100
AcDbEntity
  8
寸法
 62
     0
 48
50.0
370
    -2
100
AcDbBlockReference
  2
_DOTSMALL
 10
8652.099402858084
 20
10436.06398349157
 30
0.0
 41
100.0
 42
100.0
 43
100.0
 50
90.0
  0
INSERT
  5
1A831
330
16352
100
AcDbEntity
  8
寸法
 62
     0
 48
50.0
370
    -2
100
AcDbBlockReference
  2
_DOTSMALL
 10
8652.099402858084
 20
10491.06398349157
 30
0.0
 41
100.0
 42
100.0
 43
100.0
 50
270.0
  0
MTEXT
  5
1A832
330
16352
100
AcDbEntity
  8
寸法
 62
     7
 48
50.0
100
AcDbMText
 10
8552.099402858083
 20
10799.54926486581
 30
0.0
 40
120.0
 41
0.0
 71
     5
 72
     1
  1
\A1;55
  7
STYLE1
 11
0.0000000000000001
 21
1.0
 31
0.0
 73
     1
 44
1.0
1001
ACAD
1000
MTEXTBEGIN
1070
    73
1070
     1
1070
    44
1040
1.0
1070
    74
1070
     0
1000
MTEXTEND
  0
POINT
  5
1A833
330
16352
100
AcDbEntity
  8
DEFPOINTS
 62
     0
 48
50.0
100
AcDbPoint
 10
8004.673057123673
 20
10491.06398349157
 30
0.0
  0
POINT
  5
1A834
330
16352
100
AcDbEntity
  8
DEFPOINTS
 62
     0
 48
50.0
100
AcDbPoint
 10
8004.673057123673
 20
10436.06398349157
 30
0.0
  0
POINT
  5
1A835
330
16352
100
AcDbEntity
  8
DEFPOINTS
 62
     0
 48
50.0
100
AcDbPoint
 10
8652.099402858084
 20
10436.06398349157
 30
0.0
  0
ENDBLK
  5
1642D
330
16352
100
AcDbEntity
  8
0
 48
50.0
100
AcDbBlockEnd
  0
BLOCK
  5
164CA
330
16360
100
AcDbEntity
  8
0
 48
50.0
100
AcDbBlockBegin
  2
*D4
 70
     1
 10
0.0
 20
0.0
 30
0.0
  3
*D4
  1

  0
LINE
  5
1A822
330
16360
100
AcDbEntity
  8
寸法
 62
     0
 48
50.0
370
    -2
100
AcDbLine
 10
8024.673057123674
 20
10491.06398349157
 30
0.0
 11
9077.206344597717
 21
10491.06398349157
 31
0.0
  0
LINE
  5
1A823
330
16360
100
AcDbEntity
  8
寸法
 62
     0
 48
50.0
370
    -2
100
AcDbLine
 10
8024.673057123647
 20
7021.06398349156
 30
0.0
 11
9077.206344597717
 21
7021.06398349156
 31
0.0
  0
LINE
  5
1A824
330
16360
100
AcDbEntity
  8
寸法
 62
     0
 48
50.0
370
    -2
100
AcDbLine
 10
9017.206344597719
 20
10491.06398349157
 30
0.0
 11
9017.206344597719
 21
7021.06398349156
 31
0.0
  0
INSERT
  5
1A825
330
16360
100
AcDbEntity
  8
寸法
 62
     0
 48
50.0
370
    -2
100
AcDbBlockReference
  2
_DOTSMALL
 10
9017.206344597719
 20
10491.06398349157
 30
0.0
 41
100.0
 42
100.0
 43
100.0
 50
90.0
  0
INSERT
  5
1A826
330
16360
100
AcDbEntity
  8
寸法
 62
     0
 48
50.0
370
    -2
100
AcDbBlockReference
  2
_DOTSMALL
 10
9017.206344597719
 20
7021.06398349156
 30
0.0
 41
100.0
 42
100.0
 43
100.0
 50
270.0
  0
MTEXT
  5
1A827
330
16360
100
AcDbEntity
  8
寸法
 62
     7
 48
50.0
100
AcDbMText
 10
8917.206344597717
 20
8756.063983491566
 30
0.0
 40
120.0
 41
0.0
 71
     5
 72
     1
  1
\A1;3470
  7
STYLE1
 11
0.0000000000000001
 21
1.0
 31
0.0
 73
     1
 44
1.0
1001
ACAD
1000
MTEXTBEGIN
1070
    73
1070
     1
1070
    44
1040
1.0
1070
    74
1070
     0
1000
MTEXTEND
  0
POINT
  5
1A828
330
16360
100
AcDbEntity
  8
DEFPOINTS
 62
     0
 48
50.0
100
AcDbPoint
 10
8004.673057123673
 20
10491.06398349157
 30
0.0
  0
POINT
  5
1A829
330
16360
100
AcDbEntity
  8
DEFPOINTS
 62
     0
 48
50.0
100
AcDbPoint
 10
8004.673057123648
 20
7021.06398349156
 30
0.0
  0
POINT
  5
1A82A
330
16360
100
AcDbEntity
  8
DEFPOINTS
 62
     0
 48
50.0
100
AcDbPoint
 10
9017.206344597719
 20
7021.06398349156
 30
0.0
  0
ENDBLK
  5
164D4
330
16360
100
AcDbEntity
  8
0
 48
50.0
100
AcDbBlockEnd
  0
BLOCK
  5
1728C
330
16384
100
AcDbEntity
  8
0
 48
50.0
100
AcDbBlockBegin
  2
*D5
 70
     1
 10
0.0
 20
0.0
 30
0.0
  3
*D5
  1

  0
LINE
  5
1A81A
330
16384
100
AcDbEntity
  8
寸法
 62
     0
 48
50.0
370
    -2
100
AcDbLine
 10
5477.673057123666
 20
7027.063983491467
 30
0.0
 11
5477.673057123666
 21
6426.633212725305
 31
0.0
  0
LINE
  5
1A81B
330
16384
100
AcDbEntity
  8
寸法
 62
     0
 48
50.0
370
    -2
100
AcDbLine
 10
7901.673057123648
 20
6486.633212725305
 30
0.0
 11
5477.673057123666
 21
6486.633212725305
 31
0.0
  0
INSERT
  5
1A81C
330
16384
100
AcDbEntity
  8
寸法
 62
     0
 48
50.0
370
    -2
100
AcDbBlockReference
  2
_DOTSMALL
 10
7901.673057123648
 20
6486.633212725305
 30
0.0
 41
100.0
 42
100.0
 43
100.0
  0
INSERT
  5
1A81D
330
16384
100
AcDbEntity
  8
寸法
 62
     0
 48
50.0
370
    -2
100
AcDbBlockReference
  2
_DOTSMALL
 10
5477.673057123666
 20
6486.633212725305
 30
0.0
 41
100.0
 42
100.0
 43
100.0
 50
180.0
  0
MTEXT
  5
1A81E
330
16384
100
AcDbEntity
  8
寸法
 62
     7
 48
50.0
100
AcDbMText
 10
6689.673057123657
 20
6586.645023748926
 30
0.0
 40
120.0
 41
0.0
 71
     5
 72
     1
  1
\A1;有効開口部間口 2424
  7
STYLE1
 73
     1
 44
1.0
1001
ACAD
1000
MTEXTBEGIN
1070
    73
1070
     1
1070
    44
1040
1.0
1070
    74
1070
     0
1000
MTEXTEND
  0
POINT
  5
1A81F
330
16384
100
AcDbEntity
  8
DEFPOINTS
 62
     0
 48
50.0
100
AcDbPoint
 10
7901.673057123648
 20
7047.063983491471
 30
0.0
  0
POINT
  5
1A820
330
16384
100
AcDbEntity
  8
DEFPOINTS
 62
     0
 48
50.0
100
AcDbPoint
 10
5477.673057123666
 20
7047.063983491468
 30
0.0
  0
POINT
  5
1A821
330
16384
100
AcDbEntity
  8
DEFPOINTS
 62
     0
 48
50.0
100
AcDbPoint
 10
5477.673057123666
 20
6486.633212725305
 30
0.0
  0
ENDBLK
  5
17295
330
16384
100
AcDbEntity
  8
0
 48
50.0
100
AcDbBlockEnd
  0
BLOCK
  5
17261
330
1638F
100
AcDbEntity
  8
0
 48
50.0
100
AcDbBlockBegin
  2
*D6
 70
     1
 10
0.0
 20
0.0
 30
0.0
  3
*D6
  1

  0
LINE
  5
1A898
330
1638F
100
AcDbEntity
  8
寸法
 62
     0
 48
50.0
370
    -2
100
AcDbLine
 10
2744.673057123666
 20
7001.063983491466
 30
0.0
 11
2744.673057123666
 21
5980.460217134428
 31
0.0
  0
LINE
  5
1A899
330
1638F
100
AcDbEntity
  8
寸法
 62
     0
 48
50.0
370
    -2
100
AcDbLine
 10
8004.673057123637
 20
7001.063983491559
 30
0.0
 11
8004.673057123637
 21
5980.460217134428
 31
0.0
  0
LINE
  5
1A89A
330
1638F
100
AcDbEntity
  8
寸法
 62
     0
 48
50.0
370
    -2
100
AcDbLine
 10
2744.673057123666
 20
6040.460217134429
 30
0.0
 11
8004.673057123637
 21
6040.460217134429
 31
0.0
  0
INSERT
  5
1A89B
330
1638F
100
AcDbEntity
  8
寸法
 62
     0
 48
50.0
370
    -2
100
AcDbBlockReference
  2
_DOTSMALL
 10
2744.673057123666
 20
6040.460217134429
 30
0.0
 41
100.0
 42
100.0
 43
100.0
 50
180.0
  0
INSERT
  5
1A89C
330
1638F
100
AcDbEntity
  8
寸法
 62
     0
 48
50.0
370
    -2
100
AcDbBlockReference
  2
_DOTSMALL
 10
8004.673057123637
 20
6040.460217134429
 30
0.0
 41
100.0
 42
100.0
 43
100.0
  0
MTEXT
  5
1A89D
330
1638F
100
AcDbEntity
  8
寸法
 62
     7
 48
50.0
100
AcDbMText
 10
5374.673057123651
 20
6140.47202815805
 30
0.0
 40
120.0
 41
0.0
 71
     5
 72
     1
  1
\A1;5260
  7
STYLE1
 73
     1
 44
1.0
1001
ACAD
1000
MTEXTBEGIN
1070
    73
1070
     1
1070
    44
1040
1.0
1070
    74
1070
     0
1000
MTEXTEND
  0
POINT
  5
1A89E
330
1638F
100
AcDbEntity
  8
DEFPOINTS
 62
     0
 48
50.0
100
AcDbPoint
 10
2744.673057123666
 20
7021.063983491465
 30
0.0
  0
POINT
  5
1A89F
330
1638F
100
AcDbEntity
  8
DEFPOINTS
 62
     0
 48
50.0
100
AcDbPoint
 10
8004.673057123637
 20
7021.06398349156
 30
0.0
  0
POINT
  5
1A8A0
330
1638F
100
AcDbEntity
  8
DEFPOINTS
 62
     0
 48
50.0
100
AcDbPoint
 10
8004.673057123637
 20
6040.460217134429
 30
0.0
  0
ENDBLK
  5
1726B
330
1638F
100
AcDbEntity
  8
0
 48
50.0
100
AcDbBlockEnd
  0
BLOCK
  5
16464
330
1639B
100
AcDbEntity
  8
0
 48
50.0
100
AcDbBlockBegin
  2
*D7
 70
     1
 10
0.0
 20
0.0
 30
0.0
  3
*D7
  1

  0
LINE
  5
1A88D
330
1639B
100
AcDbEntity
  8
寸法
 62
     0
 48
50.0
370
    -2
100
AcDbLine
 10
2799.673057123662
 20
7001.063983491469
 30
0.0
 11
2799.673057123662
 21
6426.633212725305
 31
0.0
  0
LINE
  5
1A88E
330
1639B
100
AcDbEntity
  8
寸法
 62
     0
 48
50.0
370
    -2
100
AcDbLine
 10
2744.673057123666
 20
7001.063983491466
 30
0.0
 11
2744.673057123666
 21
6426.633212725305
 31
0.0
  0
LINE
  5
1A88F
330
1639B
100
AcDbEntity
  8
寸法
 62
     0
 48
50.0
370
    -2
100
AcDbLine
 10
2799.673057123662
 20
6486.633212725305
 30
0.0
 11
2899.673057123662
 21
6486.633212725305
 31
0.0
  0
LINE
  5
1A890
330
1639B
100
AcDbEntity
  8
寸法
 62
     0
 48
50.0
370
    -2
100
AcDbLine
 10
2744.673057123666
 20
6486.633212725305
 30
0.0
 11
2327.702494375188
 21
6486.633212725305
 31
0.0
  0
LINE
  5
1A891
330
1639B
100
AcDbEntity
  8
寸法
 62
     0
 48
50.0
370
    -2
100
AcDbLine
 10
2799.673057123662
 20
6486.633212725305
 30
0.0
 11
2744.673057123666
 21
6486.633212725305
 31
0.0
  0
INSERT
  5
1A892
330
1639B
100
AcDbEntity
  8
寸法
 62
     0
 48
50.0
370
    -2
100
AcDbBlockReference
  2
_DOTSMALL
 10
2799.673057123662
 20
6486.633212725305
 30
0.0
 41
100.0
 42
100.0
 43
100.0
 50
180.0
  0
INSERT
  5
1A893
330
1639B
100
AcDbEntity
  8
寸法
 62
     0
 48
50.0
370
    -2
100
AcDbBlockReference
  2
_DOTSMALL
 10
2744.673057123666
 20
6486.633212725305
 30
0.0
 41
100.0
 42
100.0
 43
100.0
  0
MTEXT
  5
1A894
330
1639B
100
AcDbEntity
  8
寸法
 62
     7
 48
50.0
100
AcDbMText
 10
2436.187775749427
 20
6586.633212725304
 30
0.0
 40
120.0
 41
0.0
 71
     5
 72
     1
  1
\A1;55
  7
STYLE1
 73
     1
 44
1.0
1001
ACAD
1000
MTEXTBEGIN
1070
    73
1070
     1
1070
    44
1040
1.0
1070
    74
1070
     0
1000
MTEXTEND
  0
POINT
  5
1A895
330
1639B
100
AcDbEntity
  8
DEFPOINTS
 62
     0
 48
50.0
100
AcDbPoint
 10
2799.673057123662
 20
7021.063983491469
 30
0.0
  0
POINT
  5
1A896
330
1639B
100
AcDbEntity
  8
DEFPOINTS
 62
     0
 48
50.0
100
AcDbPoint
 10
2744.673057123666
 20
7021.063983491465
 30
0.0
  0
POINT
  5
1A897
330
1639B
100
AcDbEntity
  8
DEFPOINTS
 62
     0
 48
50.0
100
AcDbPoint
 10
2744.673057123666
 20
6486.633212725305
 30
0.0
  0
ENDBLK
  5
16470
330
1639B
100
AcDbEntity
  8
0
 48
50.0
100
AcDbBlockEnd
  0
BLOCK
  5
16471
330
163A9
100
AcDbEntity
  8
0
 48
50.0
100
AcDbBlockBegin
  2
*D8
 70
     1
 10
0.0
 20
0.0
 30
0.0
  3
*D8
  1

  0
LINE
  5
1A705
330
163A9
100
AcDbEntity
  8
寸法
 62
     0
 48
50.0
370
    -2
100
AcDbLine
 10
5477.673057123666
 20
7027.063983491467
 30
0.0
 11
5477.673057123666
 21
6426.633212725305
 31
0.0
  0
LINE
  5
1A706
330
163A9
100
AcDbEntity
  8
寸法
 62
     0
 48
50.0
370
    -2
100
AcDbLine
 10
5429.673057123662
 20
7001.063983491469
 30
0.0
 11
5429.673057123662
 21
6426.633212725305
 31
0.0
  0
LINE
  5
1A707
330
163A9
100
AcDbEntity
  8
寸法
 62
     0
 48
50.0
370
    -2
100
AcDbLine
 10
5477.673057123666
 20
6486.633212725305
 30
0.0
 11
5577.673057123666
 21
6486.633212725305
 31
0.0
  0
LINE
  5
1A708
330
163A9
100
AcDbEntity
  8
寸法
 62
     0
 48
50.0
370
    -2
100
AcDbLine
 10
5429.673057123662
 20
6486.633212725305
 30
0.0
 11
5329.673057123662
 21
6486.633212725305
 31
0.0
  0
MTEXT
  5
1A709
330
163A9
100
AcDbEntity
  8
寸法
 62
     7
 48
50.0
100
AcDbMText
 10
5590.575028123723
 20
6586.633212725304
 30
0.0
 40
120.0
 41
0.0
 71
     5
 72
     1
  1
\A1;48
  7
STYLE1
 73
     1
 44
1.0
1001
ACAD
1000
MTEXTBEGIN
1070
    73
1070
     1
1070
    44
1040
1.0
1070
    74
1070
     0
1000
MTEXTEND
  0
LINE
  5
1A70A
330
163A9
100
AcDbEntity
  8
寸法
 62
     0
 48
50.0
370
    -2
100
AcDbLine
 10
5477.673057123666
 20
6486.633212725305
 30
0.0
 11
5429.673057123662
 21
6486.633212725305
 31
0.0
  0
INSERT
  5
1A70B
330
163A9
100
AcDbEntity
  8
寸法
 62
     0
 48
50.0
370
    -2
100
AcDbBlockReference
  2
_DOTSMALL
 10
5477.673057123666
 20
6486.633212725305
 30
0.0
 41
100.0
 42
100.0
 43
100.0
 50
180.0
  0
INSERT
  5
1A70C
330
163A9
100
AcDbEntity
  8
寸法
 62
     0
 48
50.0
370
    -2
100
AcDbBlockReference
  2
_DOTSMALL
 10
5429.673057123662
 20
6486.633212725305
 30
0.0
 41
100.0
 42
100.0
 43
100.0
  0
POINT
  5
1A70D
330
163A9
100
AcDbEntity
  8
DEFPOINTS
 62
     0
 48
50.0
100
AcDbPoint
 10
5477.673057123666
 20
7047.063983491468
 30
0.0
  0
POINT
  5
1A70E
330
163A9
100
AcDbEntity
  8
DEFPOINTS
 62
     0
 48
50.0
100
AcDbPoint
 10
5429.673057123662
 20
7021.063983491469
 30
0.0
  0
POINT
  5
1A70F
330
163A9
100
AcDbEntity
  8
DEFPOINTS
 62
     0
 48
50.0
100
AcDbPoint
 10
5429.673057123662
 20
6486.633212725305
 30
0.0
  0
ENDBLK
  5
1647E
330
163A9
100
AcDbEntity
  8
0
 48
50.0
100
AcDbBlockEnd
  0
BLOCK
  5
1647F
330
163B8
100
AcDbEntity
  8
0
 48
50.0
100
AcDbBlockBegin
  2
*D9
 70
     1
 10
0.0
 20
0.0
 30
0.0
  3
*D9
  1

  0
LINE
  5
1A806
330
163B8
100
AcDbEntity
  8
寸法
 62
     0
 48
50.0
370
    -2
100
AcDbLine
 10
7949.673057123648
 20
7001.063983491556
 30
0.0
 11
7949.673057123648
 21
6426.633212725305
 31
0.0
  0
LINE
  5
1A807
330
163B8
100
AcDbEntity
  8
寸法
 62
     0
 48
50.0
370
    -2
100
AcDbLine
 10
7901.673057123648
 20
7027.06398349147
 30
0.0
 11
7901.673057123648
 21
6426.633212725305
 31
0.0
  0
LINE
  5
1A808
330
163B8
100
AcDbEntity
  8
寸法
 62
     0
 48
50.0
370
    -2
100
AcDbLine
 10
7949.673057123648
 20
6486.633212725305
 30
0.0
 11
8049.673057123648
 21
6486.633212725305
 31
0.0
  0
LINE
  5
1A809
330
163B8
100
AcDbEntity
  8
寸法
 62
     0
 48
50.0
370
    -2
100
AcDbLine
 10
7901.673057123648
 20
6486.633212725305
 30
0.0
 11
7801.673057123648
 21
6486.633212725305
 31
0.0
  0
MTEXT
  5
1A80A
330
163B8
100
AcDbEntity
  8
寸法
 62
     7
 48
50.0
100
AcDbMText
 10
7790.710159474901
 20
6586.633212725304
 30
0.0
 40
120.0
 41
0.0
 71
     5
 72
     1
  1
\A1;48
  7
STYLE1
 73
     1
 44
1.0
1001
ACAD
1000
MTEXTBEGIN
1070
    73
1070
     1
1070
    44
1040
1.0
1070
    74
1070
     0
1000
MTEXTEND
  0
LINE
  5
1A80B
330
163B8
100
AcDbEntity
  8
寸法
 62
     0
 48
50.0
370
    -2
100
AcDbLine
 10
7949.673057123648
 20
6486.633212725305
 30
0.0
 11
7901.673057123648
 21
6486.633212725305
 31
0.0
  0
INSERT
  5
1A80C
330
163B8
100
AcDbEntity
  8
寸法
 62
     0
 48
50.0
370
    -2
100
AcDbBlockReference
  2
_DOTSMALL
 10
7949.673057123648
 20
6486.633212725305
 30
0.0
 41
100.0
 42
100.0
 43
100.0
 50
180.0
  0
INSERT
  5
1A80D
330
163B8
100
AcDbEntity
  8
寸法
 62
     0
 48
50.0
370
    -2
100
AcDbBlockReference
  2
_DOTSMALL
 10
7901.673057123648
 20
6486.633212725305
 30
0.0
 41
100.0
 42
100.0
 43
100.0
  0
POINT
  5
1A80E
330
163B8
100
AcDbEntity
  8
DEFPOINTS
 62
     0
 48
50.0
100
AcDbPoint
 10
7949.673057123648
 20
7021.063983491557
 30
0.0
  0
POINT
  5
1A80F
330
163B8
100
AcDbEntity
  8
DEFPOINTS
 62
     0
 48
50.0
100
AcDbPoint
 10
7901.673057123648
 20
7047.063983491471
 30
0.0
  0
POINT
  5
1A810
330
163B8
100
AcDbEntity
  8
DEFPOINTS
 62
     0
 48
50.0
100
AcDbPoint
 10
7901.673057123648
 20
6486.633212725305
 30
0.0
  0
ENDBLK
  5
1648C
330
163B8
100
AcDbEntity
  8
0
 48
50.0
100
AcDbBlockEnd
  0
BLOCK
  5
1648D
330
163C7
100
AcDbEntity
  8
0
 48
50.0
100
AcDbBlockBegin
  2
*D10
 70
     1
 10
0.0
 20
0.0
 30
0.0
  3
*D10
  1

  0
LINE
  5
1A7FB
330
163C7
100
AcDbEntity
  8
寸法
 62
     0
 48
50.0
370
    -2
100
AcDbLine
 10
8004.673057123648
 20
7001.063983491559
 30
0.0
 11
8004.673057123648
 21
6426.633212725305
 31
0.0
  0
LINE
  5
1A7FC
330
163C7
100
AcDbEntity
  8
寸法
 62
     0
 48
50.0
370
    -2
100
AcDbLine
 10
7949.673057123648
 20
7001.063983491556
 30
0.0
 11
7949.673057123648
 21
6426.633212725305
 31
0.0
  0
LINE
  5
1A7FD
330
163C7
100
AcDbEntity
  8
寸法
 62
     0
 48
50.0
370
    -2
100
AcDbLine
 10
7949.673057123648
 20
6486.633212725306
 30
0.0
 11
7849.673057123649
 21
6486.633212725306
 31
0.0
  0
LINE
  5
1A7FE
330
163C7
100
AcDbEntity
  8
寸法
 62
     0
 48
50.0
370
    -2
100
AcDbLine
 10
8004.673057123648
 20
6486.633212725306
 30
0.0
 11
8421.643619872126
 21
6486.633212725306
 31
0.0
  0
LINE
  5
1A7FF
330
163C7
100
AcDbEntity
  8
寸法
 62
     0
 48
50.0
370
    -2
100
AcDbLine
 10
7949.673057123648
 20
6486.633212725306
 30
0.0
 11
8004.673057123648
 21
6486.633212725306
 31
0.0
  0
INSERT
  5
1A800
330
163C7
100
AcDbEntity
  8
寸法
 62
     0
 48
50.0
370
    -2
100
AcDbBlockReference
  2
_DOTSMALL
 10
7949.673057123648
 20
6486.633212725306
 30
0.0
 41
100.0
 42
100.0
 43
100.0
  0
INSERT
  5
1A801
330
163C7
100
AcDbEntity
  8
寸法
 62
     0
 48
50.0
370
    -2
100
AcDbBlockReference
  2
_DOTSMALL
 10
8004.673057123648
 20
6486.633212725306
 30
0.0
 41
100.0
 42
100.0
 43
100.0
 50
180.0
  0
MTEXT
  5
1A802
330
163C7
100
AcDbEntity
  8
寸法
 62
     7
 48
50.0
100
AcDbMText
 10
8313.158338497888
 20
6586.633212725306
 30
0.0
 40
120.0
 41
0.0
 71
     5
 72
     1
  1
\A1;55
  7
STYLE1
 73
     1
 44
1.0
1001
ACAD
1000
MTEXTBEGIN
1070
    73
1070
     1
1070
    44
1040
1.0
1070
    74
1070
     0
1000
MTEXTEND
  0
POINT
  5
1A803
330
163C7
100
AcDbEntity
  8
DEFPOINTS
 62
     0
 48
50.0
100
AcDbPoint
 10
8004.673057123648
 20
7021.06398349156
 30
0.0
  0
POINT
  5
1A804
330
163C7
100
AcDbEntity
  8
DEFPOINTS
 62
     0
 48
50.0
100
AcDbPoint
 10
7949.673057123648
 20
7021.063983491557
 30
0.0
  0
POINT
  5
1A805
330
163C7
100
AcDbEntity
  8
DEFPOINTS
 62
     0
 48
50.0
100
AcDbPoint
 10
7949.673057123648
 20
6486.633212725306
 30
0.0
  0
ENDBLK
  5
16499
330
163C7
100
AcDbEntity
  8
0
 48
50.0
100
AcDbBlockEnd
  0
BLOCK
  5
172A1
330
163E1
100
AcDbEntity
  8
0
 48
50.0
100
AcDbBlockBegin
  2
*D11
 70
     1
 10
0.0
 20
0.0
 30
0.0
  3
*D11
  1

  0
LINE
  5
1A84B
330
163E1
100
AcDbEntity
  8
寸法
 62
     0
 48
50.0
370
    -2
100
AcDbLine
 10
5429.673057123672
 20
10511.06398349146
 30
0.0
 11
5429.673057123672
 21
10766.87220311657
 31
0.0
  0
LINE
  5
1A84C
330
163E1
100
AcDbEntity
  8
寸法
 62
     0
 48
50.0
370
    -2
100
AcDbLine
 10
7949.673057123674
 20
10511.06398349157
 30
0.0
 11
7949.673057123674
 21
10766.87220311657
 31
0.0
  0
LINE
  5
1A84D
330
163E1
100
AcDbEntity
  8
寸法
 62
     0
 48
50.0
370
    -2
100
AcDbLine
 10
5429.673057123672
 20
10706.87220311657
 30
0.0
 11
7949.673057123674
 21
10706.87220311657
 31
0.0
  0
INSERT
  5
1A84E
330
163E1
100
AcDbEntity
  8
寸法
 62
     0
 48
50.0
370
    -2
100
AcDbBlockReference
  2
_DOTSMALL
 10
5429.673057123672
 20
10706.87220311657
 30
0.0
 41
100.0
 42
100.0
 43
100.0
 50
180.0
  0
INSERT
  5
1A84F
330
163E1
100
AcDbEntity
  8
寸法
 62
     0
 48
50.0
370
    -2
100
AcDbBlockReference
  2
_DOTSMALL
 10
7949.673057123674
 20
10706.87220311657
 30
0.0
 41
100.0
 42
100.0
 43
100.0
  0
MTEXT
  5
1A850
330
163E1
100
AcDbEntity
  8
寸法
 62
     7
 48
50.0
100
AcDbMText
 10
6689.673057123673
 20
10806.88401414019
 30
0.0
 40
120.0
 41
0.0
 71
     5
 72
     1
  1
\A1;6X420=2520
  7
STYLE1
 73
     1
 44
1.0
1001
ACAD
1000
MTEXTBEGIN
1070
    73
1070
     1
1070
    44
1040
1.0
1070
    74
1070
     0
1000
MTEXTEND
  0
POINT
  5
1A851
330
163E1
100
AcDbEntity
  8
DEFPOINTS
 62
     0
 48
50.0
100
AcDbPoint
 10
5429.673057123672
 20
10491.06398349146
 30
0.0
  0
POINT
  5
1A852
330
163E1
100
AcDbEntity
  8
DEFPOINTS
 62
     0
 48
50.0
100
AcDbPoint
 10
7949.673057123674
 20
10491.06398349157
 30
0.0
  0
POINT
  5
1A853
330
163E1
100
AcDbEntity
  8
DEFPOINTS
 62
     0
 48
50.0
100
AcDbPoint
 10
7949.673057123674
 20
10706.87220311657
 30
0.0
  0
ENDBLK
  5
172AB
330
163E1
100
AcDbEntity
  8
0
 48
50.0
100
AcDbBlockEnd
  0
BLOCK
  5
164B0
330
163ED
100
AcDbEntity
  8
0
 48
50.0
100
AcDbBlockBegin
  2
*D12
 70
     1
 10
0.0
 20
0.0
 30
0.0
  3
*D12
  1

  0
LINE
  5
1A882
330
163ED
100
AcDbEntity
  8
寸法
 62
     0
 48
50.0
370
    -2
100
AcDbLine
 10
2744.673057123638
 20
10511.06398349146
 30
0.0
 11
2744.673057123638
 21
10766.87220311644
 31
0.0
  0
LINE
  5
1A883
330
163ED
100
AcDbEntity
  8
寸法
 62
     0
 48
50.0
370
    -2
100
AcDbLine
 10
2799.673057123672
 20
10511.06398349146
 30
0.0
 11
2799.673057123672
 21
10766.87220311644
 31
0.0
  0
LINE
  5
1A884
330
163ED
100
AcDbEntity
  8
寸法
 62
     0
 48
50.0
370
    -2
100
AcDbLine
 10
2799.673057123672
 20
10706.87220311644
 30
0.0
 11
2899.673057123672
 21
10706.87220311644
 31
0.0
  0
LINE
  5
1A885
330
163ED
100
AcDbEntity
  8
寸法
 62
     0
 48
50.0
370
    -2
100
AcDbLine
 10
2744.673057123638
 20
10706.87220311644
 30
0.0
 11
2327.70249437516
 21
10706.87220311644
 31
0.0
  0
LINE
  5
1A886
330
163ED
100
AcDbEntity
  8
寸法
 62
     0
 48
50.0
370
    -2
100
AcDbLine
 10
2799.673057123672
 20
10706.87220311644
 30
0.0
 11
2744.673057123638
 21
10706.87220311644
 31
0.0
  0
INSERT
  5
1A887
330
163ED
100
AcDbEntity
  8
寸法
 62
     0
 48
50.0
370
    -2
100
AcDbBlockReference
  2
_DOTSMALL
 10
2799.673057123672
 20
10706.87220311644
 30
0.0
 41
100.0
 42
100.0
 43
100.0
 50
180.0
  0
INSERT
  5
1A888
330
163ED
100
AcDbEntity
  8
寸法
 62
     0
 48
50.0
370
    -2
100
AcDbBlockReference
  2
_DOTSMALL
 10
2744.673057123638
 20
10706.87220311644
 30
0.0
 41
100.0
 42
100.0
 43
100.0
  0
MTEXT
  5
1A889
330
163ED
100
AcDbEntity
  8
寸法
 62
     7
 48
50.0
100
AcDbMText
 10
2436.187775749399
 20
10806.87220311644
 30
0.0
 40
120.0
 41
0.0
 71
     5
 72
     1
  1
\A1;55
  7
STYLE1
 73
     1
 44
1.0
1001
ACAD
1000
MTEXTBEGIN
1070
    73
1070
     1
1070
    44
1040
1.0
1070
    74
1070
     0
1000
MTEXTEND
  0
POINT
  5
1A88A
330
163ED
100
AcDbEntity
  8
DEFPOINTS
 62
     0
 48
50.0
100
AcDbPoint
 10
2744.673057123638
 20
10491.06398349146
 30
0.0
  0
POINT
  5
1A88B
330
163ED
100
AcDbEntity
  8
DEFPOINTS
 62
     0
 48
50.0
100
AcDbPoint
 10
2799.673057123672
 20
10491.06398349146
 30
0.0
  0
POINT
  5
1A88C
330
163ED
100
AcDbEntity
  8
DEFPOINTS
 62
     0
 48
50.0
100
AcDbPoint
 10
2799.673057123672
 20
10706.87220311644
 30
0.0
  0
ENDBLK
  5
164BC
330
163ED
100
AcDbEntity
  8
0
 48
50.0
100
AcDbBlockEnd
  0
BLOCK
  5
164BD
330
163FB
100
AcDbEntity
  8
0
 48
50.0
100
AcDbBlockBegin
  2
*D13
 70
     1
 10
0.0
 20
0.0
 30
0.0
  3
*D13
  1

  0
LINE
  5
1A7E7
330
163FB
100
AcDbEntity
  8
寸法
 62
     0
 48
50.0
370
    -2
100
AcDbLine
 10
7949.673057123674
 20
10511.06398349157
 30
0.0
 11
7949.673057123674
 21
10766.87220311654
 31
0.0
  0
LINE
  5
1A7E8
330
163FB
100
AcDbEntity
  8
寸法
 62
     0
 48
50.0
370
    -2
100
AcDbLine
 10
8004.673057123673
 20
10511.06398349157
 30
0.0
 11
8004.673057123673
 21
10766.87220311654
 31
0.0
  0
LINE
  5
1A7E9
330
163FB
100
AcDbEntity
  8
寸法
 62
     0
 48
50.0
370
    -2
100
AcDbLine
 10
7949.673057123674
 20
10706.87220311654
 30
0.0
 11
7849.673057123673
 21
10706.87220311654
 31
0.0
  0
LINE
  5
1A7EA
330
163FB
100
AcDbEntity
  8
寸法
 62
     0
 48
50.0
370
    -2
100
AcDbLine
 10
8004.673057123673
 20
10706.87220311654
 30
0.0
 11
8421.643619872151
 21
10706.87220311654
 31
0.0
  0
LINE
  5
1A7EB
330
163FB
100
AcDbEntity
  8
寸法
 62
     0
 48
50.0
370
    -2
100
AcDbLine
 10
7949.673057123674
 20
10706.87220311654
 30
0.0
 11
8004.673057123673
 21
10706.87220311654
 31
0.0
  0
INSERT
  5
1A7EC
330
163FB
100
AcDbEntity
  8
寸法
 62
     0
 48
50.0
370
    -2
100
AcDbBlockReference
  2
_DOTSMALL
 10
7949.673057123674
 20
10706.87220311654
 30
0.0
 41
100.0
 42
100.0
 43
100.0
  0
INSERT
  5
1A7ED
330
163FB
100
AcDbEntity
  8
寸法
 62
     0
 48
50.0
370
    -2
100
AcDbBlockReference
  2
_DOTSMALL
 10
8004.673057123673
 20
10706.87220311654
 30
0.0
 41
100.0
 42
100.0
 43
100.0
 50
180.0
  0
MTEXT
  5
1A7EE
330
163FB
100
AcDbEntity
  8
寸法
 62
     7
 48
50.0
100
AcDbMText
 10
8313.158338497913
 20
10806.87220311654
 30
0.0
 40
120.0
 41
0.0
 71
     5
 72
     1
  1
\A1;55
  7
STYLE1
 73
     1
 44
1.0
1001
ACAD
1000
MTEXTBEGIN
1070
    73
1070
     1
1070
    44
1040
1.0
1070
    74
1070
     0
1000
MTEXTEND
  0
POINT
  5
1A7EF
330
163FB
100
AcDbEntity
  8
DEFPOINTS
 62
     0
 48
50.0
100
AcDbPoint
 10
7949.673057123674
 20
10491.06398349157
 30
0.0
  0
POINT
  5
1A7F0
330
163FB
100
AcDbEntity
  8
DEFPOINTS
 62
     0
 48
50.0
100
AcDbPoint
 10
8004.673057123673
 20
10491.06398349157
 30
0.0
  0
POINT
  5
1A7F1
330
163FB
100
AcDbEntity
  8
DEFPOINTS
 62
     0
 48
50.0
100
AcDbPoint
 10
8004.673057123673
 20
10706.87220311654
 30
0.0
  0
ENDBLK
  5
164C9
330
163FB
100
AcDbEntity
  8
0
 48
50.0
100
AcDbBlockEnd
  0
BLOCK
  5
165B6
330
165B5
100
AcDbEntity
  8
0
 48
50.0
100
AcDbBlockBegin
  2
*D14
 70
     1
 10
0.0
 20
0.0
 30
0.0
  3
*D14
  1

  0
LINE
  5
1A877
330
165B5
100
AcDbEntity
  8
寸法
 62
     0
 48
50.0
370
    -2
100
AcDbLine
 10
2847.673057123666
 20
7027.063983491467
 30
0.0
 11
2847.673057123666
 21
6426.633212725305
 31
0.0
  0
LINE
  5
1A878
330
165B5
100
AcDbEntity
  8
寸法
 62
     0
 48
50.0
370
    -2
100
AcDbLine
 10
2799.673057123662
 20
7001.063983491469
 30
0.0
 11
2799.673057123662
 21
6426.633212725305
 31
0.0
  0
LINE
  5
1A879
330
165B5
100
AcDbEntity
  8
寸法
 62
     0
 48
50.0
370
    -2
100
AcDbLine
 10
2847.673057123666
 20
6486.633212725305
 30
0.0
 11
2947.673057123666
 21
6486.633212725305
 31
0.0
  0
LINE
  5
1A87A
330
165B5
100
AcDbEntity
  8
寸法
 62
     0
 48
50.0
370
    -2
100
AcDbLine
 10
2799.673057123662
 20
6486.633212725305
 30
0.0
 11
2699.673057123662
 21
6486.633212725305
 31
0.0
  0
MTEXT
  5
1A87B
330
165B5
100
AcDbEntity
  8
寸法
 62
     7
 48
50.0
100
AcDbMText
 10
2960.575028123724
 20
6586.633212725304
 30
0.0
 40
120.0
 41
0.0
 71
     5
 72
     1
  1
\A1;48
  7
STYLE1
 73
     1
 44
1.0
1001
ACAD
1000
MTEXTBEGIN
1070
    73
1070
     1
1070
    44
1040
1.0
1070
    74
1070
     0
1000
MTEXTEND
  0
LINE
  5
1A87C
330
165B5
100
AcDbEntity
  8
寸法
 62
     0
 48
50.0
370
    -2
100
AcDbLine
 10
2847.673057123666
 20
6486.633212725305
 30
0.0
 11
2799.673057123662
 21
6486.633212725305
 31
0.0
  0
INSERT
  5
1A87D
330
165B5
100
AcDbEntity
  8
寸法
 62
     0
 48
50.0
370
    -2
100
AcDbBlockReference
  2
_DOTSMALL
 10
2847.673057123666
 20
6486.633212725305
 30
0.0
 41
100.0
 42
100.0
 43
100.0
 50
180.0
  0
INSERT
  5
1A87E
330
165B5
100
AcDbEntity
  8
寸法
 62
     0
 48
50.0
370
    -2
100
AcDbBlockReference
  2
_DOTSMALL
 10
2799.673057123662
 20
6486.633212725305
 30
0.0
 41
100.0
 42
100.0
 43
100.0
  0
POINT
  5
1A87F
330
165B5
100
AcDbEntity
  8
DEFPOINTS
 62
     0
 48
50.0
100
AcDbPoint
 10
2847.673057123666
 20
7047.063983491468
 30
0.0
  0
POINT
  5
1A880
330
165B5
100
AcDbEntity
  8
DEFPOINTS
 62
     0
 48
50.0
100
AcDbPoint
 10
2799.673057123662
 20
7021.063983491469
 30
0.0
  0
POINT
  5
1A881
330
165B5
100
AcDbEntity
  8
DEFPOINTS
 62
     0
 48
50.0
100
AcDbPoint
 10
2799.673057123662
 20
6486.633212725305
 30
0.0
  0
ENDBLK
  5
165C3
330
165B5
100
AcDbEntity
  8
0
 48
50.0
100
AcDbBlockEnd
  0
BLOCK
  5
165C5
330
165C4
100
AcDbEntity
  8
0
 48
50.0
100
AcDbBlockBegin
  2
*D15
 70
     1
 10
0.0
 20
0.0
 30
0.0
  3
*D15
  1

  0
LINE
  5
1A6C5
330
165C4
100
AcDbEntity
  8
寸法
 62
     0
 48
50.0
370
    -2
100
AcDbLine
 10
5319.673057123649
 20
7001.063983491556
 30
0.0
 11
5319.673057123649
 21
6426.633212725305
 31
0.0
  0
LINE
  5
1A6C6
330
165C4
100
AcDbEntity
  8
寸法
 62
     0
 48
50.0
370
    -2
100
AcDbLine
 10
5271.673057123646
 20
7027.06398349147
 30
0.0
 11
5271.673057123646
 21
6426.633212725305
 31
0.0
  0
LINE
  5
1A6C7
330
165C4
100
AcDbEntity
  8
寸法
 62
     0
 48
50.0
370
    -2
100
AcDbLine
 10
5319.673057123649
 20
6486.633212725305
 30
0.0
 11
5419.673057123649
 21
6486.633212725305
 31
0.0
  0
LINE
  5
1A6C8
330
165C4
100
AcDbEntity
  8
寸法
 62
     0
 48
50.0
370
    -2
100
AcDbLine
 10
5271.673057123646
 20
6486.633212725305
 30
0.0
 11
5171.673057123647
 21
6486.633212725305
 31
0.0
  0
MTEXT
  5
1A6C9
330
165C4
100
AcDbEntity
  8
寸法
 62
     7
 48
50.0
100
AcDbMText
 10
5160.7101594749
 20
6586.633212725304
 30
0.0
 40
120.0
 41
0.0
 71
     5
 72
     1
  1
\A1;48
  7
STYLE1
 73
     1
 44
1.0
1001
ACAD
1000
MTEXTBEGIN
1070
    73
1070
     1
1070
    44
1040
1.0
1070
    74
1070
     0
1000
MTEXTEND
  0
LINE
  5
1A6CA
330
165C4
100
AcDbEntity
  8
寸法
 62
     0
 48
50.0
370
    -2
100
AcDbLine
 10
5319.673057123649
 20
6486.633212725305
 30
0.0
 11
5271.673057123646
 21
6486.633212725305
 31
0.0
  0
INSERT
  5
1A6CB
330
165C4
100
AcDbEntity
  8
寸法
 62
     0
 48
50.0
370
    -2
100
AcDbBlockReference
  2
_DOTSMALL
 10
5319.673057123649
 20
6486.633212725305
 30
0.0
 41
100.0
 42
100.0
 43
100.0
 50
180.0
  0
INSERT
  5
1A6CC
330
165C4
100
AcDbEntity
  8
寸法
 62
     0
 48
50.0
370
    -2
100
AcDbBlockReference
  2
_DOTSMALL
 10
5271.673057123646
 20
6486.633212725305
 30
0.0
 41
100.0
 42
100.0
 43
100.0
  0
POINT
  5
1A6CD
330
165C4
100
AcDbEntity
  8
DEFPOINTS
 62
     0
 48
50.0
100
AcDbPoint
 10
5319.673057123649
 20
7021.063983491557
 30
0.0
  0
POINT
  5
1A6CE
330
165C4
100
AcDbEntity
  8
DEFPOINTS
 62
     0
 48
50.0
100
AcDbPoint
 10
5271.673057123646
 20
7047.063983491471
 30
0.0
  0
POINT
  5
1A6CF
330
165C4
100
AcDbEntity
  8
DEFPOINTS
 62
     0
 48
50.0
100
AcDbPoint
 10
5271.673057123646
 20
6486.633212725305
 30
0.0
  0
ENDBLK
  5
165D2
330
165C4
100
AcDbEntity
  8
0
 48
50.0
100
AcDbBlockEnd
  0
BLOCK
  5
1663F
330
165EA
100
AcDbEntity
  8
0
 48
50.0
100
AcDbBlockBegin
  2
*D16
 70
     1
 10
0.0
 20
0.0
 30
0.0
  3
*D16
  1

  0
LINE
  5
1A6B1
330
165EA
100
AcDbEntity
  8
寸法
 62
     0
 48
50.0
370
    -2
100
AcDbLine
 10
5429.673057123662
 20
7001.063983491469
 30
0.0
 11
5429.673057123662
 21
6426.633212725305
 31
0.0
  0
LINE
  5
1A6B2
330
165EA
100
AcDbEntity
  8
寸法
 62
     0
 48
50.0
370
    -2
100
AcDbLine
 10
5319.673057123649
 20
7001.063983491556
 30
0.0
 11
5319.673057123649
 21
6426.633212725305
 31
0.0
  0
LINE
  5
1A6B3
330
165EA
100
AcDbEntity
  8
寸法
 62
     0
 48
50.0
370
    -2
100
AcDbLine
 10
5429.673057123662
 20
6486.633212725306
 30
0.0
 11
5319.673057123649
 21
6486.633212725306
 31
0.0
  0
MTEXT
  5
1A6B4
330
165EA
100
AcDbEntity
  8
寸法
 62
     7
 48
50.0
100
AcDbMText
 10
5374.673057123656
 20
6334.941317689074
 30
0.0
 40
120.0
 41
0.0
 71
     5
 72
     1
  1
\A1;110
  7
STYLE1
 73
     1
 44
1.0
1001
ACAD
1000
MTEXTBEGIN
1070
    73
1070
     1
1070
    44
1040
1.0
1070
    74
1070
     0
1000
MTEXTEND
  0
INSERT
  5
1A6B5
330
165EA
100
AcDbEntity
  8
寸法
 62
     0
 48
50.0
370
    -2
100
AcDbBlockReference
  2
_DOTSMALL
 10
5429.673057123662
 20
6486.633212725306
 30
0.0
 41
100.0
 42
100.0
 43
100.0
  0
INSERT
  5
1A6B6
330
165EA
100
AcDbEntity
  8
寸法
 62
     0
 48
50.0
370
    -2
100
AcDbBlockReference
  2
_DOTSMALL
 10
5319.673057123649
 20
6486.633212725306
 30
0.0
 41
100.0
 42
100.0
 43
100.0
 50
180.0
  0
POINT
  5
1A6B7
330
165EA
100
AcDbEntity
  8
DEFPOINTS
 62
     0
 48
50.0
100
AcDbPoint
 10
5429.673057123662
 20
7021.063983491469
 30
0.0
  0
POINT
  5
1A6B8
330
165EA
100
AcDbEntity
  8
DEFPOINTS
 62
     0
 48
50.0
100
AcDbPoint
 10
5319.673057123649
 20
7021.063983491557
 30
0.0
  0
POINT
  5
1A6B9
330
165EA
100
AcDbEntity
  8
DEFPOINTS
 62
     0
 48
50.0
100
AcDbPoint
 10
5319.673057123649
 20
6486.633212725306
 30
0.0
  0
ENDBLK
  5
16649
330
165EA
100
AcDbEntity
  8
0
 48
50.0
100
AcDbBlockEnd
  0
BLOCK
  5
166D0
330
166CF
100
AcDbEntity
  8
0
 48
50.0
100
AcDbBlockBegin
  2
*D17
 70
     1
 10
0.0
 20
0.0
 30
0.0
  3
*D17
  1

  0
LINE
  5
1A6A6
330
166CF
100
AcDbEntity
  8
寸法
 62
     0
 48
50.0
370
    -2
100
AcDbLine
 10
5429.673057123672
 20
10511.06398349151
 30
0.0
 11
5429.673057123672
 21
10766.87220311657
 31
0.0
  0
LINE
  5
1A6A7
330
166CF
100
AcDbEntity
  8
寸法
 62
     0
 48
50.0
370
    -2
100
AcDbLine
 10
5319.673057123673
 20
10511.06398349151
 30
0.0
 11
5319.673057123673
 21
10766.87220311657
 31
0.0
  0
LINE
  5
1A6A8
330
166CF
100
AcDbEntity
  8
寸法
 62
     0
 48
50.0
370
    -2
100
AcDbLine
 10
5429.673057123672
 20
10706.87220311657
 30
0.0
 11
5529.673057123672
 21
10706.87220311657
 31
0.0
  0
LINE
  5
1A6A9
330
166CF
100
AcDbEntity
  8
寸法
 62
     0
 48
50.0
370
    -2
100
AcDbLine
 10
5319.673057123673
 20
10706.87220311657
 30
0.0
 11
5219.673057123674
 21
10706.87220311657
 31
0.0
  0
LINE
  5
1A6AA
330
166CF
100
AcDbEntity
  8
寸法
 62
     0
 48
50.0
370
    -2
100
AcDbLine
 10
5429.673057123672
 20
10706.87220311657
 30
0.0
 11
5319.673057123673
 21
10706.87220311657
 31
0.0
  0
INSERT
  5
1A6AB
330
166CF
100
AcDbEntity
  8
寸法
 62
     0
 48
50.0
370
    -2
100
AcDbBlockReference
  2
_DOTSMALL
 10
5429.673057123672
 20
10706.87220311657
 30
0.0
 41
100.0
 42
100.0
 43
100.0
 50
180.0
  0
INSERT
  5
1A6AC
330
166CF
100
AcDbEntity
  8
寸法
 62
     0
 48
50.0
370
    -2
100
AcDbBlockReference
  2
_DOTSMALL
 10
5319.673057123673
 20
10706.87220311657
 30
0.0
 41
100.0
 42
100.0
 43
100.0
  0
MTEXT
  5
1A6AD
330
166CF
100
AcDbEntity
  8
寸法
 62
     7
 48
50.0
100
AcDbMText
 10
5374.673057123673
 20
10806.87220311657
 30
0.0
 40
120.0
 41
0.0
 71
     5
 72
     1
  1
\A1;110
  7
STYLE1
 73
     1
 44
1.0
1001
ACAD
1000
MTEXTBEGIN
1070
    73
1070
     1
1070
    44
1040
1.0
1070
    74
1070
     0
1000
MTEXTEND
  0
POINT
  5
1A6AE
330
166CF
100
AcDbEntity
  8
DEFPOINTS
 62
     0
 48
50.0
100
AcDbPoint
 10
5429.673057123672
 20
10491.06398349151
 30
0.0
  0
POINT
  5
1A6AF
330
166CF
100
AcDbEntity
  8
DEFPOINTS
 62
     0
 48
50.0
100
AcDbPoint
 10
5319.673057123673
 20
10491.06398349151
 30
0.0
  0
POINT
  5
1A6B0
330
166CF
100
AcDbEntity
  8
DEFPOINTS
 62
     0
 48
50.0
100
AcDbPoint
 10
5319.673057123673
 20
10706.87220311657
 30
0.0
  0
ENDBLK
  5
166DC
330
166CF
100
AcDbEntity
  8
0
 48
50.0
100
AcDbBlockEnd
  0
BLOCK
  5
1726C
330
16908
100
AcDbEntity
  8
0
 48
50.0
100
AcDbBlockBegin
  2
*D18
 70
     1
 10
0.0
 20
0.0
 30
0.0
  3
*D18
  1

  0
LINE
  5
1A7DF
330
16908
100
AcDbEntity
  8
寸法
 62
     0
 48
50.0
370
    -2
100
AcDbLine
 10
8004.673057123673
 20
10511.06398349157
 30
0.0
 11
8004.673057123673
 21
11016.19367667286
 31
0.0
  0
LINE
  5
1A7E0
330
16908
100
AcDbEntity
  8
寸法
 62
     0
 48
50.0
370
    -2
100
AcDbLine
 10
5374.673057123673
 20
10956.19367667286
 30
0.0
 11
8004.673057123673
 21
10956.19367667286
 31
0.0
  0
INSERT
  5
1A7E1
330
16908
100
AcDbEntity
  8
寸法
 62
     0
 48
50.0
370
    -2
100
AcDbBlockReference
  2
_DOTSMALL
 10
5374.673057123673
 20
10956.19367667286
 30
0.0
 41
100.0
 42
100.0
 43
100.0
 50
180.0
  0
INSERT
  5
1A7E2
330
16908
100
AcDbEntity
  8
寸法
 62
     0
 48
50.0
370
    -2
100
AcDbBlockReference
  2
_DOTSMALL
 10
8004.673057123673
 20
10956.19367667286
 30
0.0
 41
100.0
 42
100.0
 43
100.0
  0
MTEXT
  5
1A7E3
330
16908
100
AcDbEntity
  8
寸法
 62
     7
 48
50.0
100
AcDbMText
 10
6689.673057123673
 20
11056.20548769649
 30
0.0
 40
120.0
 41
0.0
 71
     5
 72
     1
  1
\A1;2630
  7
STYLE1
 73
     1
 44
1.0
1001
ACAD
1000
MTEXTBEGIN
1070
    73
1070
     1
1070
    44
1040
1.0
1070
    74
1070
     0
1000
MTEXTEND
  0
POINT
  5
1A7E4
330
16908
100
AcDbEntity
  8
DEFPOINTS
 62
     0
 48
50.0
100
AcDbPoint
 10
5374.673057123673
 20
10865.86011747451
 30
0.0
  0
POINT
  5
1A7E5
330
16908
100
AcDbEntity
  8
DEFPOINTS
 62
     0
 48
50.0
100
AcDbPoint
 10
8004.673057123673
 20
10491.06398349157
 30
0.0
  0
POINT
  5
1A7E6
330
16908
100
AcDbEntity
  8
DEFPOINTS
 62
     0
 48
50.0
100
AcDbPoint
 10
8004.673057123673
 20
10956.19367667286
 30
0.0
  0
ENDBLK
  5
17275
330
16908
100
AcDbEntity
  8
0
 48
50.0
100
AcDbBlockEnd
  0
BLOCK
  5
17BDC
330
17BD3
100
AcDbEntity
  8
0
 48
50.0
100
AcDbBlockBegin
  2
*D19
 70
     1
 10
0.0
 20
0.0
 30
0.0
  3
*D19
  1

  0
LINE
  5
1A85D
330
17BD3
100
AcDbEntity
  8
寸法
 62
     0
 48
50.0
370
    -2
100
AcDbLine
 10
2847.673057123666
 20
7027.063983491467
 30
0.0
 11
2847.673057123666
 21
6426.633212725305
 31
0.0
  0
LINE
  5
1A85E
330
17BD3
100
AcDbEntity
  8
寸法
 62
     0
 48
50.0
370
    -2
100
AcDbLine
 10
5271.673057123646
 20
6486.633212725305
 30
0.0
 11
2847.673057123666
 21
6486.633212725305
 31
0.0
  0
INSERT
  5
1A85F
330
17BD3
100
AcDbEntity
  8
寸法
 62
     0
 48
50.0
370
    -2
100
AcDbBlockReference
  2
_DOTSMALL
 10
5271.673057123646
 20
6486.633212725305
 30
0.0
 41
100.0
 42
100.0
 43
100.0
  0
INSERT
  5
1A860
330
17BD3
100
AcDbEntity
  8
寸法
 62
     0
 48
50.0
370
    -2
100
AcDbBlockReference
  2
_DOTSMALL
 10
2847.673057123666
 20
6486.633212725305
 30
0.0
 41
100.0
 42
100.0
 43
100.0
 50
180.0
  0
MTEXT
  5
1A861
330
17BD3
100
AcDbEntity
  8
寸法
 62
     7
 48
50.0
100
AcDbMText
 10
4059.673057123656
 20
6586.645023748926
 30
0.0
 40
120.0
 41
0.0
 71
     5
 72
     1
  1
\A1;有効開口部間口 2424
  7
STYLE1
 73
     1
 44
1.0
1001
ACAD
1000
MTEXTBEGIN
1070
    73
1070
     1
1070
    44
1040
1.0
1070
    74
1070
     0
1000
MTEXTEND
  0
POINT
  5
1A862
330
17BD3
100
AcDbEntity
  8
DEFPOINTS
 62
     0
 48
50.0
100
AcDbPoint
 10
5271.673057123646
 20
7047.063983491471
 30
0.0
  0
POINT
  5
1A863
330
17BD3
100
AcDbEntity
  8
DEFPOINTS
 62
     0
 48
50.0
100
AcDbPoint
 10
2847.673057123666
 20
7047.063983491468
 30
0.0
  0
POINT
  5
1A864
330
17BD3
100
AcDbEntity
  8
DEFPOINTS
 62
     0
 48
50.0
100
AcDbPoint
 10
2847.673057123666
 20
6486.633212725305
 30
0.0
  0
ENDBLK
  5
17BDD
330
17BD3
100
AcDbEntity
  8
0
 48
50.0
100
AcDbBlockEnd
  0
BLOCK
  5
17BE8
330
17BDE
100
AcDbEntity
  8
0
 48
50.0
100
AcDbBlockBegin
  2
*D20
 70
     1
 10
0.0
 20
0.0
 30
0.0
  3
*D20
  1

  0
LINE
  5
1A865
330
17BDE
100
AcDbEntity
  8
寸法
 62
     0
 48
50.0
370
    -2
100
AcDbLine
 10
2799.673057123672
 20
10511.06398349146
 30
0.0
 11
2799.673057123672
 21
10766.87220311657
 31
0.0
  0
LINE
  5
1A866
330
17BDE
100
AcDbEntity
  8
寸法
 62
     0
 48
50.0
370
    -2
100
AcDbLine
 10
5319.673057123673
 20
10511.06398349157
 30
0.0
 11
5319.673057123673
 21
10766.87220311657
 31
0.0
  0
LINE
  5
1A867
330
17BDE
100
AcDbEntity
  8
寸法
 62
     0
 48
50.0
370
    -2
100
AcDbLine
 10
2799.673057123672
 20
10706.87220311657
 30
0.0
 11
5319.673057123673
 21
10706.87220311657
 31
0.0
  0
INSERT
  5
1A868
330
17BDE
100
AcDbEntity
  8
寸法
 62
     0
 48
50.0
370
    -2
100
AcDbBlockReference
  2
_DOTSMALL
 10
2799.673057123672
 20
10706.87220311657
 30
0.0
 41
100.0
 42
100.0
 43
100.0
 50
180.0
  0
INSERT
  5
1A869
330
17BDE
100
AcDbEntity
  8
寸法
 62
     0
 48
50.0
370
    -2
100
AcDbBlockReference
  2
_DOTSMALL
 10
5319.673057123673
 20
10706.87220311657
 30
0.0
 41
100.0
 42
100.0
 43
100.0
  0
MTEXT
  5
1A86A
330
17BDE
100
AcDbEntity
  8
寸法
 62
     7
 48
50.0
100
AcDbMText
 10
4059.673057123672
 20
10806.88401414019
 30
0.0
 40
120.0
 41
0.0
 71
     5
 72
     1
  1
\A1;6X420=2520
  7
STYLE1
 73
     1
 44
1.0
1001
ACAD
1000
MTEXTBEGIN
1070
    73
1070
     1
1070
    44
1040
1.0
1070
    74
1070
     0
1000
MTEXTEND
  0
POINT
  5
1A86B
330
17BDE
100
AcDbEntity
  8
DEFPOINTS
 62
     0
 48
50.0
100
AcDbPoint
 10
2799.673057123672
 20
10491.06398349146
 30
0.0
  0
POINT
  5
1A86C
330
17BDE
100
AcDbEntity
  8
DEFPOINTS
 62
     0
 48
50.0
100
AcDbPoint
 10
5319.673057123673
 20
10491.06398349157
 30
0.0
  0
POINT
  5
1A86D
330
17BDE
100
AcDbEntity
  8
DEFPOINTS
 62
     0
 48
50.0
100
AcDbPoint
 10
5319.673057123673
 20
10706.87220311657
 30
0.0
  0
ENDBLK
  5
17BE9
330
17BDE
100
AcDbEntity
  8
0
 48
50.0
100
AcDbBlockEnd
  0
BLOCK
  5
17C02
330
17BF8
100
AcDbEntity
  8
0
 48
50.0
100
AcDbBlockBegin
  2
*D21
 70
     1
 10
0.0
 20
0.0
 30
0.0
  3
*D21
  1

  0
LINE
  5
1A86E
330
17BF8
100
AcDbEntity
  8
寸法
 62
     0
 48
50.0
370
    -2
100
AcDbLine
 10
2744.673057123638
 20
10511.06398349143
 30
0.0
 11
2744.673057123638
 21
11016.19367667286
 31
0.0
  0
LINE
  5
1A86F
330
17BF8
100
AcDbEntity
  8
寸法
 62
     0
 48
50.0
370
    -2
100
AcDbLine
 10
5374.673057123673
 20
10885.86011747451
 30
0.0
 11
5374.673057123673
 21
11016.19367667286
 31
0.0
  0
LINE
  5
1A870
330
17BF8
100
AcDbEntity
  8
寸法
 62
     0
 48
50.0
370
    -2
100
AcDbLine
 10
2744.673057123638
 20
10956.19367667286
 30
0.0
 11
5374.673057123673
 21
10956.19367667286
 31
0.0
  0
INSERT
  5
1A871
330
17BF8
100
AcDbEntity
  8
寸法
 62
     0
 48
50.0
370
    -2
100
AcDbBlockReference
  2
_DOTSMALL
 10
2744.673057123638
 20
10956.19367667286
 30
0.0
 41
100.0
 42
100.0
 43
100.0
 50
180.0
  0
INSERT
  5
1A872
330
17BF8
100
AcDbEntity
  8
寸法
 62
     0
 48
50.0
370
    -2
100
AcDbBlockReference
  2
_DOTSMALL
 10
5374.673057123673
 20
10956.19367667286
 30
0.0
 41
100.0
 42
100.0
 43
100.0
  0
MTEXT
  5
1A873
330
17BF8
100
AcDbEntity
  8
寸法
 62
     7
 48
50.0
100
AcDbMText
 10
4059.673057123656
 20
11056.20548769649
 30
0.0
 40
120.0
 41
0.0
 71
     5
 72
     1
  1
\A1;2630
  7
STYLE1
 73
     1
 44
1.0
1001
ACAD
1000
MTEXTBEGIN
1070
    73
1070
     1
1070
    44
1040
1.0
1070
    74
1070
     0
1000
MTEXTEND
  0
POINT
  5
1A874
330
17BF8
100
AcDbEntity
  8
DEFPOINTS
 62
     0
 48
50.0
100
AcDbPoint
 10
2744.673057123638
 20
10491.06398349143
 30
0.0
  0
POINT
  5
1A875
330
17BF8
100
AcDbEntity
  8
DEFPOINTS
 62
     0
 48
50.0
100
AcDbPoint
 10
5374.673057123673
 20
10865.86011747451
 30
0.0
  0
POINT
  5
1A876
330
17BF8
100
AcDbEntity
  8
DEFPOINTS
 62
     0
 48
50.0
100
AcDbPoint
 10
5374.673057123673
 20
10956.19367667286
 30
0.0
  0
ENDBLK
  5
17C03
330
17BF8
100
AcDbEntity
  8
0
 48
50.0
100
AcDbBlockEnd
  0
BLOCK
  5
19694
330
1968A
100
AcDbEntity
  8
0
 48
50.0
100
AcDbBlockBegin
  2
*D22
 70
     1
 10
0.0
 20
0.0
 30
0.0
  3
*D22
  1

  0
LINE
  5
1A902
330
1968A
100
AcDbEntity
  8
寸法
 62
     0
 48
50.0
370
    -2
100
AcDbLine
 10
8004.673057123669
 20
4357.025570836423
 30
0.0
 11
8004.673057123669
 21
4802.751842568327
 31
0.0
  0
LINE
  5
1A903
330
1968A
100
AcDbEntity
  8
寸法
 62
     0
 48
50.0
370
    -2
100
AcDbLine
 10
2744.673057123664
 20
4357.025570836423
 30
0.0
 11
2744.673057123664
 21
4802.751842568327
 31
0.0
  0
LINE
  5
1A904
330
1968A
100
AcDbEntity
  8
寸法
 62
     0
 48
50.0
370
    -2
100
AcDbLine
 10
8004.673057123669
 20
4742.751842568327
 30
0.0
 11
2744.673057123664
 21
4742.751842568327
 31
0.0
  0
INSERT
  5
1A905
330
1968A
100
AcDbEntity
  8
寸法
 62
     0
 48
50.0
370
    -2
100
AcDbBlockReference
  2
_DOTSMALL
 10
8004.673057123669
 20
4742.751842568327
 30
0.0
 41
100.0
 42
100.0
 43
100.0
  0
INSERT
  5
1A906
330
1968A
100
AcDbEntity
  8
寸法
 62
     0
 48
50.0
370
    -2
100
AcDbBlockReference
  2
_DOTSMALL
 10
2744.673057123664
 20
4742.751842568327
 30
0.0
 41
100.0
 42
100.0
 43
100.0
 50
180.0
  0
MTEXT
  5
1A907
330
1968A
100
AcDbEntity
  8
寸法
 62
     7
 48
50.0
100
AcDbMText
 10
5374.673057123665
 20
4842.763653591949
 30
0.0
 40
120.0
 41
0.0
 71
     5
 72
     1
  1
\A1;柱外寸法5260
  7
STYLE1
 73
     1
 44
1.0
1001
ACAD
1000
MTEXTBEGIN
1070
    73
1070
     1
1070
    44
1040
1.0
1070
    74
1070
     0
1000
MTEXTEND
  0
POINT
  5
1A908
330
1968A
100
AcDbEntity
  8
DEFPOINTS
 62
     0
 48
50.0
100
AcDbPoint
 10
8004.673057123669
 20
4337.025570836424
 30
0.0
  0
POINT
  5
1A909
330
1968A
100
AcDbEntity
  8
DEFPOINTS
 62
     0
 48
50.0
100
AcDbPoint
 10
2744.673057123664
 20
4337.025570836424
 30
0.0
  0
POINT
  5
1A90A
330
1968A
100
AcDbEntity
  8
DEFPOINTS
 62
     0
 48
50.0
100
AcDbPoint
 10
2744.673057123664
 20
4742.751842568327
 30
0.0
  0
ENDBLK
  5
19695
330
1968A
100
AcDbEntity
  8
0
 48
50.0
100
AcDbBlockEnd
  0
BLOCK
  5
196A0
330
19696
100
AcDbEntity
  8
0
 48
50.0
100
AcDbBlockBegin
  2
*D23
 70
     1
 10
0.0
 20
0.0
 30
0.0
  3
*D23
  1

  0
LINE
  5
1A8F9
330
19696
100
AcDbEntity
  8
寸法
 62
     0
 48
50.0
370
    -2
100
AcDbLine
 10
2694.673057123664
 20
4357.025570836423
 30
0.0
 11
2694.673057123664
 21
5002.660763782415
 31
0.0
  0
LINE
  5
1A8FA
330
19696
100
AcDbEntity
  8
寸法
 62
     0
 48
50.0
370
    -2
100
AcDbLine
 10
8054.673057123666
 20
4357.02557083642
 30
0.0
 11
8054.673057123666
 21
5002.660763782415
 31
0.0
  0
LINE
  5
1A8FB
330
19696
100
AcDbEntity
  8
寸法
 62
     0
 48
50.0
370
    -2
100
AcDbLine
 10
2694.673057123664
 20
4942.660763782416
 30
0.0
 11
8054.673057123666
 21
4942.660763782416
 31
0.0
  0
INSERT
  5
1A8FC
330
19696
100
AcDbEntity
  8
寸法
 62
     0
 48
50.0
370
    -2
100
AcDbBlockReference
  2
_DOTSMALL
 10
2694.673057123664
 20
4942.660763782416
 30
0.0
 41
100.0
 42
100.0
 43
100.0
 50
180.0
  0
INSERT
  5
1A8FD
330
19696
100
AcDbEntity
  8
寸法
 62
     0
 48
50.0
370
    -2
100
AcDbBlockReference
  2
_DOTSMALL
 10
8054.673057123666
 20
4942.660763782416
 30
0.0
 41
100.0
 42
100.0
 43
100.0
  0
MTEXT
  5
1A8FE
330
19696
100
AcDbEntity
  8
寸法
 62
     7
 48
50.0
100
AcDbMText
 10
5374.673057123665
 20
5042.660763782415
 30
0.0
 40
120.0
 41
0.0
 71
     5
 72
     1
  1
\A1;5360
  7
STYLE1
 73
     1
 44
1.0
1001
ACAD
1000
MTEXTBEGIN
1070
    73
1070
     1
1070
    44
1040
1.0
1070
    74
1070
     0
1000
MTEXTEND
  0
POINT
  5
1A8FF
330
19696
100
AcDbEntity
  8
DEFPOINTS
 62
     0
 48
50.0
100
AcDbPoint
 10
2694.673057123664
 20
4337.025570836424
 30
0.0
  0
POINT
  5
1A900
330
19696
100
AcDbEntity
  8
DEFPOINTS
 62
     0
 48
50.0
100
AcDbPoint
 10
8054.673057123666
 20
4337.02557083642
 30
0.0
  0
POINT
  5
1A901
330
19696
100
AcDbEntity
  8
DEFPOINTS
 62
     0
 48
50.0
100
AcDbPoint
 10
8054.673057123666
 20
4942.660763782416
 30
0.0
  0
ENDBLK
  5
196A1
330
19696
100
AcDbEntity
  8
0
 48
50.0
100
AcDbBlockEnd
  0
BLOCK
  5
196AE
330
196A2
100
AcDbEntity
  8
0
 48
50.0
100
AcDbBlockBegin
  2
*D24
 70
     1
 10
0.0
 20
0.0
 30
0.0
  3
*D24
  1

  0
LINE
  5
1A8EE
330
196A2
100
AcDbEntity
  8
寸法
 62
     0
 48
50.0
370
    -2
100
AcDbLine
 10
2744.673057123664
 20
4357.025570836423
 30
0.0
 11
2744.673057123664
 21
4802.751842568327
 31
0.0
  0
LINE
  5
1A8EF
330
196A2
100
AcDbEntity
  8
寸法
 62
     0
 48
50.0
370
    -2
100
AcDbLine
 10
2694.673057123664
 20
4357.025570836423
 30
0.0
 11
2694.673057123664
 21
4802.751842568327
 31
0.0
  0
LINE
  5
1A8F0
330
196A2
100
AcDbEntity
  8
寸法
 62
     0
 48
50.0
370
    -2
100
AcDbLine
 10
2744.673057123664
 20
4742.751842568327
 30
0.0
 11
2844.673057123664
 21
4742.751842568327
 31
0.0
  0
LINE
  5
1A8F1
330
196A2
100
AcDbEntity
  8
寸法
 62
     0
 48
50.0
370
    -2
100
AcDbLine
 10
2694.673057123664
 20
4742.751842568327
 30
0.0
 11
2275.140531654929
 21
4742.751842568327
 31
0.0
  0
LINE
  5
1A8F2
330
196A2
100
AcDbEntity
  8
寸法
 62
     0
 48
50.0
370
    -2
100
AcDbLine
 10
2744.673057123664
 20
4742.751842568327
 30
0.0
 11
2694.673057123664
 21
4742.751842568327
 31
0.0
  0
INSERT
  5
1A8F3
330
196A2
100
AcDbEntity
  8
寸法
 62
     0
 48
50.0
370
    -2
100
AcDbBlockReference
  2
_DOTSMALL
 10
2744.673057123664
 20
4742.751842568327
 30
0.0
 41
100.0
 42
100.0
 43
100.0
 50
180.0
  0
INSERT
  5
1A8F4
330
196A2
100
AcDbEntity
  8
寸法
 62
     0
 48
50.0
370
    -2
100
AcDbBlockReference
  2
_DOTSMALL
 10
2694.673057123664
 20
4742.751842568327
 30
0.0
 41
100.0
 42
100.0
 43
100.0
  0
MTEXT
  5
1A8F5
330
196A2
100
AcDbEntity
  8
寸法
 62
     7
 48
50.0
100
AcDbMText
 10
2381.187775749417
 20
4842.751842568327
 30
0.0
 40
120.0
 41
0.0
 71
     5
 72
     1
  1
\A1;50
  7
STYLE1
 73
     1
 44
1.0
1001
ACAD
1000
MTEXTBEGIN
1070
    73
1070
     1
1070
    44
1040
1.0
1070
    74
1070
     0
1000
MTEXTEND
  0
POINT
  5
1A8F6
330
196A2
100
AcDbEntity
  8
DEFPOINTS
 62
     0
 48
50.0
100
AcDbPoint
 10
2744.673057123664
 20
4337.025570836424
 30
0.0
  0
POINT
  5
1A8F7
330
196A2
100
AcDbEntity
  8
DEFPOINTS
 62
     0
 48
50.0
100
AcDbPoint
 10
2694.673057123664
 20
4337.025570836424
 30
0.0
  0
POINT
  5
1A8F8
330
196A2
100
AcDbEntity
  8
DEFPOINTS
 62
     0
 48
50.0
100
AcDbPoint
 10
2694.673057123664
 20
4742.751842568327
 30
0.0
  0
ENDBLK
  5
196AF
330
196A2
100
AcDbEntity
  8
0
 48
50.0
100
AcDbBlockEnd
  0
BLOCK
  5
196BC
330
196B0
100
AcDbEntity
  8
0
 48
50.0
100
AcDbBlockBegin
  2
*D25
 70
     1
 10
0.0
 20
0.0
 30
0.0
  3
*D25
  1

  0
LINE
  5
1A8D1
330
196B0
100
AcDbEntity
  8
寸法
 62
     0
 48
50.0
370
    -2
100
AcDbLine
 10
8054.673057123666
 20
4357.02557083642
 30
0.0
 11
8054.673057123666
 21
4802.75184256833
 31
0.0
  0
LINE
  5
1A8D2
330
196B0
100
AcDbEntity
  8
寸法
 62
     0
 48
50.0
370
    -2
100
AcDbLine
 10
8004.673057123669
 20
4357.025570836423
 30
0.0
 11
8004.673057123669
 21
4802.75184256833
 31
0.0
  0
LINE
  5
1A8D3
330
196B0
100
AcDbEntity
  8
寸法
 62
     0
 48
50.0
370
    -2
100
AcDbLine
 10
8004.673057123669
 20
4742.751842568329
 30
0.0
 11
7904.67305712367
 21
4742.751842568329
 31
0.0
  0
LINE
  5
1A8D4
330
196B0
100
AcDbEntity
  8
寸法
 62
     0
 48
50.0
370
    -2
100
AcDbLine
 10
8054.673057123666
 20
4742.751842568329
 30
0.0
 11
8474.205582592396
 21
4742.751842568329
 31
0.0
  0
LINE
  5
1A8D5
330
196B0
100
AcDbEntity
  8
寸法
 62
     0
 48
50.0
370
    -2
100
AcDbLine
 10
8004.673057123669
 20
4742.751842568329
 30
0.0
 11
8054.673057123666
 21
4742.751842568329
 31
0.0
  0
INSERT
  5
1A8D6
330
196B0
100
AcDbEntity
  8
寸法
 62
     0
 48
50.0
370
    -2
100
AcDbBlockReference
  2
_DOTSMALL
 10
8004.673057123669
 20
4742.751842568329
 30
0.0
 41
100.0
 42
100.0
 43
100.0
  0
INSERT
  5
1A8D7
330
196B0
100
AcDbEntity
  8
寸法
 62
     0
 48
50.0
370
    -2
100
AcDbBlockReference
  2
_DOTSMALL
 10
8054.673057123666
 20
4742.751842568329
 30
0.0
 41
100.0
 42
100.0
 43
100.0
 50
180.0
  0
MTEXT
  5
1A8D8
330
196B0
100
AcDbEntity
  8
寸法
 62
     7
 48
50.0
100
AcDbMText
 10
8368.158338497908
 20
4842.751842568329
 30
0.0
 40
120.0
 41
0.0
 71
     5
 72
     1
  1
\A1;50
  7
STYLE1
 73
     1
 44
1.0
1001
ACAD
1000
MTEXTBEGIN
1070
    73
1070
     1
1070
    44
1040
1.0
1070
    74
1070
     0
1000
MTEXTEND
  0
POINT
  5
1A8D9
330
196B0
100
AcDbEntity
  8
DEFPOINTS
 62
     0
 48
50.0
100
AcDbPoint
 10
8054.673057123666
 20
4337.02557083642
 30
0.0
  0
POINT
  5
1A8DA
330
196B0
100
AcDbEntity
  8
DEFPOINTS
 62
     0
 48
50.0
100
AcDbPoint
 10
8004.673057123669
 20
4337.025570836424
 30
0.0
  0
POINT
  5
1A8DB
330
196B0
100
AcDbEntity
  8
DEFPOINTS
 62
     0
 48
50.0
100
AcDbPoint
 10
8004.673057123669
 20
4742.751842568329
 30
0.0
  0
ENDBLK
  5
196BD
330
196B0
100
AcDbEntity
  8
0
 48
50.0
100
AcDbBlockEnd
  0
BLOCK
  5
19C59
330
19C4F
100
AcDbEntity
  8
0
 48
50.0
100
AcDbBlockBegin
  2
*D26
 70
     1
 10
0.0
 20
0.0
 30
0.0
  3
*D26
  1

  0
LINE
  5
1A7B1
330
19C4F
100
AcDbEntity
  8
寸法
 62
     0
 48
50.0
370
    -2
100
AcDbLine
 10
10570.22148434441
 20
4102.025570836413
 30
0.0
 11
9686.47135516116
 21
4102.025570836413
 31
0.0
  0
LINE
  5
1A7B2
330
19C4F
100
AcDbEntity
  8
寸法
 62
     0
 48
50.0
370
    -2
100
AcDbLine
 10
10570.22148434441
 20
2012.025570836412
 30
0.0
 11
9686.471355161158
 21
2012.025570836412
 31
0.0
  0
LINE
  5
1A7B3
330
19C4F
100
AcDbEntity
  8
寸法
 62
     0
 48
50.0
370
    -2
100
AcDbLine
 10
9746.471355161158
 20
4102.025570836413
 30
0.0
 11
9746.471355161157
 21
2012.025570836412
 31
0.0
  0
INSERT
  5
1A7B4
330
19C4F
100
AcDbEntity
  8
寸法
 62
     0
 48
50.0
370
    -2
100
AcDbBlockReference
  2
_DOTSMALL
 10
9746.471355161158
 20
4102.025570836413
 30
0.0
 41
100.0
 42
100.0
 43
100.0
 50
90.0
  0
INSERT
  5
1A7B5
330
19C4F
100
AcDbEntity
  8
寸法
 62
     0
 48
50.0
370
    -2
100
AcDbBlockReference
  2
_DOTSMALL
 10
9746.471355161157
 20
2012.025570836412
 30
0.0
 41
100.0
 42
100.0
 43
100.0
 50
270.0
  0
MTEXT
  5
1A7B6
330
19C4F
100
AcDbEntity
  8
寸法
 62
     7
 48
50.0
100
AcDbMText
 10
9646.459544137535
 20
3057.025570836414
 30
0.0
 40
120.0
 41
0.0
 71
     5
 72
     1
  1
\A1;2090
  7
STYLE1
 11
0.0000000000000001
 21
1.0
 31
0.0
 73
     1
 44
1.0
1001
ACAD
1000
MTEXTBEGIN
1070
    73
1070
     1
1070
    44
1040
1.0
1070
    74
1070
     0
1000
MTEXTEND
  0
POINT
  5
1A7B7
330
19C4F
100
AcDbEntity
  8
DEFPOINTS
 62
     0
 48
50.0
100
AcDbPoint
 10
10590.22148434441
 20
4102.025570836413
 30
0.0
  0
POINT
  5
1A7B8
330
19C4F
100
AcDbEntity
  8
DEFPOINTS
 62
     0
 48
50.0
100
AcDbPoint
 10
10590.22148434441
 20
2012.025570836412
 30
0.0
  0
POINT
  5
1A7B9
330
19C4F
100
AcDbEntity
  8
DEFPOINTS
 62
     0
 48
50.0
100
AcDbPoint
 10
9746.471355161157
 20
2012.025570836412
 30
0.0
  0
ENDBLK
  5
19C5A
330
19C4F
100
AcDbEntity
  8
0
 48
50.0
100
AcDbBlockEnd
  0
BLOCK
  5
19C65
330
19C5B
100
AcDbEntity
  8
0
 48
50.0
100
AcDbBlockBegin
  2
*D27
 70
     1
 10
0.0
 20
0.0
 30
0.0
  3
*D27
  1

  0
LINE
  5
1A7A8
330
19C5B
100
AcDbEntity
  8
寸法
 62
     0
 48
50.0
370
    -2
100
AcDbLine
 10
10570.22148434441
 20
1962.025570836412
 30
0.0
 11
9386.471355161152
 21
1962.025570836412
 31
0.0
  0
LINE
  5
1A7A9
330
19C5B
100
AcDbEntity
  8
寸法
 62
     0
 48
50.0
370
    -2
100
AcDbLine
 10
10510.22148434441
 20
4337.025570836416
 30
0.0
 11
9386.471355161154
 21
4337.025570836416
 31
0.0
  0
LINE
  5
1A7AA
330
19C5B
100
AcDbEntity
  8
寸法
 62
     0
 48
50.0
370
    -2
100
AcDbLine
 10
9446.47135516115
 20
1962.025570836412
 30
0.0
 11
9446.471355161154
 21
4337.025570836416
 31
0.0
  0
INSERT
  5
1A7AB
330
19C5B
100
AcDbEntity
  8
寸法
 62
     0
 48
50.0
370
    -2
100
AcDbBlockReference
  2
_DOTSMALL
 10
9446.47135516115
 20
1962.025570836412
 30
0.0
 41
100.0
 42
100.0
 43
100.0
 50
270.0
  0
INSERT
  5
1A7AC
330
19C5B
100
AcDbEntity
  8
寸法
 62
     0
 48
50.0
370
    -2
100
AcDbBlockReference
  2
_DOTSMALL
 10
9446.471355161154
 20
4337.025570836416
 30
0.0
 41
100.0
 42
100.0
 43
100.0
 50
90.0
  0
MTEXT
  5
1A7AD
330
19C5B
100
AcDbEntity
  8
寸法
 62
     7
 48
50.0
100
AcDbMText
 10
9346.459544137529
 20
3149.525570836416
 30
0.0
 40
120.0
 41
0.0
 71
     5
 72
     1
  1
\A1;2375
  7
STYLE1
 11
0.0000000000000001
 21
1.0
 31
0.0
 73
     1
 44
1.0
1001
ACAD
1000
MTEXTBEGIN
1070
    73
1070
     1
1070
    44
1040
1.0
1070
    74
1070
     0
1000
MTEXTEND
  0
POINT
  5
1A7AE
330
19C5B
100
AcDbEntity
  8
DEFPOINTS
 62
     0
 48
50.0
100
AcDbPoint
 10
10590.22148434441
 20
1962.025570836412
 30
0.0
  0
POINT
  5
1A7AF
330
19C5B
100
AcDbEntity
  8
DEFPOINTS
 62
     0
 48
50.0
100
AcDbPoint
 10
10530.22148434441
 20
4337.025570836416
 30
0.0
  0
POINT
  5
1A7B0
330
19C5B
100
AcDbEntity
  8
DEFPOINTS
 62
     0
 48
50.0
100
AcDbPoint
 10
9446.471355161154
 20
4337.025570836416
 30
0.0
  0
ENDBLK
  5
19C66
330
19C5B
100
AcDbEntity
  8
0
 48
50.0
100
AcDbBlockEnd
  0
BLOCK
  5
19C71
330
19C67
100
AcDbEntity
  8
0
 48
50.0
100
AcDbBlockBegin
  2
*D28
 70
     1
 10
0.0
 20
0.0
 30
0.0
  3
*D28
  1

  0
LINE
  5
1A7D6
330
19C67
100
AcDbEntity
  8
寸法
 62
     0
 48
50.0
370
    -2
100
AcDbLine
 10
14080.22148434441
 20
1962.025570836418
 30
0.0
 11
14825.14864231654
 21
1962.025570836418
 31
0.0
  0
LINE
  5
1A7D7
330
19C67
100
AcDbEntity
  8
寸法
 62
     0
 48
50.0
370
    -2
100
AcDbLine
 10
14160.22148434441
 20
4282.025570836418
 30
0.0
 11
14825.14864231654
 21
4282.025570836416
 31
0.0
  0
LINE
  5
1A7D8
330
19C67
100
AcDbEntity
  8
寸法
 62
     0
 48
50.0
370
    -2
100
AcDbLine
 10
14765.14864231654
 20
1962.025570836418
 30
0.0
 11
14765.14864231654
 21
4282.025570836416
 31
0.0
  0
INSERT
  5
1A7D9
330
19C67
100
AcDbEntity
  8
寸法
 62
     0
 48
50.0
370
    -2
100
AcDbBlockReference
  2
_DOTSMALL
 10
14765.14864231654
 20
1962.025570836418
 30
0.0
 41
100.0
 42
100.0
 43
100.0
 50
270.0
  0
INSERT
  5
1A7DA
330
19C67
100
AcDbEntity
  8
寸法
 62
     0
 48
50.0
370
    -2
100
AcDbBlockReference
  2
_DOTSMALL
 10
14765.14864231654
 20
4282.025570836416
 30
0.0
 41
100.0
 42
100.0
 43
100.0
 50
90.0
  0
MTEXT
  5
1A7DB
330
19C67
100
AcDbEntity
  8
寸法
 62
     7
 48
50.0
100
AcDbMText
 10
14665.13683129291
 20
3122.02557083642
 30
0.0
 40
120.0
 41
0.0
 71
     5
 72
     1
  1
\A1;2320
  7
STYLE1
 11
0.0000000000000001
 21
1.0
 31
0.0
 73
     1
 44
1.0
1001
ACAD
1000
MTEXTBEGIN
1070
    73
1070
     1
1070
    44
1040
1.0
1070
    74
1070
     0
1000
MTEXTEND
  0
POINT
  5
1A7DC
330
19C67
100
AcDbEntity
  8
DEFPOINTS
 62
     0
 48
50.0
100
AcDbPoint
 10
14060.22148434441
 20
1962.025570836418
 30
0.0
  0
POINT
  5
1A7DD
330
19C67
100
AcDbEntity
  8
DEFPOINTS
 62
     0
 48
50.0
100
AcDbPoint
 10
14140.22148434441
 20
4282.025570836418
 30
0.0
  0
POINT
  5
1A7DE
330
19C67
100
AcDbEntity
  8
DEFPOINTS
 62
     0
 48
50.0
100
AcDbPoint
 10
14765.14864231654
 20
4282.025570836416
 30
0.0
  0
ENDBLK
  5
19C72
330
19C67
100
AcDbEntity
  8
0
 48
50.0
100
AcDbBlockEnd
  0
BLOCK
  5
19C7F
330
19C73
100
AcDbEntity
  8
0
 48
50.0
100
AcDbBlockBegin
  2
*D29
 70
     1
 10
0.0
 20
0.0
 30
0.0
  3
*D29
  1

  0
LINE
  5
1A79D
330
19C73
100
AcDbEntity
  8
寸法
 62
     0
 48
50.0
370
    -2
100
AcDbLine
 10
10570.22148434441
 20
2012.025570836417
 30
0.0
 11
9686.471355161158
 21
2012.025570836417
 31
0.0
  0
LINE
  5
1A79E
330
19C73
100
AcDbEntity
  8
寸法
 62
     0
 48
50.0
370
    -2
100
AcDbLine
 10
10515.22148434441
 20
1962.025570836416
 30
0.0
 11
9686.471355161158
 21
1962.025570836416
 31
0.0
  0
LINE
  5
1A79F
330
19C73
100
AcDbEntity
  8
寸法
 62
     0
 48
50.0
370
    -2
100
AcDbLine
 10
9746.471355161157
 20
2012.025570836417
 30
0.0
 11
9746.471355161157
 21
2112.025570836417
 31
0.0
  0
LINE
  5
1A7A0
330
19C73
100
AcDbEntity
  8
寸法
 62
     0
 48
50.0
370
    -2
100
AcDbLine
 10
9746.471355161157
 20
1962.025570836416
 30
0.0
 11
9746.471355161157
 21
1549.931082647436
 31
0.0
  0
LINE
  5
1A7A1
330
19C73
100
AcDbEntity
  8
寸法
 62
     0
 48
50.0
370
    -2
100
AcDbLine
 10
9746.471355161157
 20
2012.025570836417
 30
0.0
 11
9746.471355161157
 21
1962.025570836416
 31
0.0
  0
INSERT
  5
1A7A2
330
19C73
100
AcDbEntity
  8
寸法
 62
     0
 48
50.0
370
    -2
100
AcDbBlockReference
  2
_DOTSMALL
 10
9746.471355161157
 20
2012.025570836417
 30
0.0
 41
100.0
 42
100.0
 43
100.0
 50
270.0
  0
INSERT
  5
1A7A3
330
19C73
100
AcDbEntity
  8
寸法
 62
     0
 48
50.0
370
    -2
100
AcDbBlockReference
  2
_DOTSMALL
 10
9746.471355161157
 20
1962.025570836416
 30
0.0
 41
100.0
 42
100.0
 43
100.0
 50
90.0
  0
MTEXT
  5
1A7A4
330
19C73
100
AcDbEntity
  8
寸法
 62
     7
 48
50.0
100
AcDbMText
 10
9646.471355161157
 20
1655.978326741926
 30
0.0
 40
120.0
 41
0.0
 71
     5
 72
     1
  1
\A1;50
  7
STYLE1
 11
0.0000000000000001
 21
1.0
 31
0.0
 73
     1
 44
1.0
1001
ACAD
1000
MTEXTBEGIN
1070
    73
1070
     1
1070
    44
1040
1.0
1070
    74
1070
     0
1000
MTEXTEND
  0
POINT
  5
1A7A5
330
19C73
100
AcDbEntity
  8
DEFPOINTS
 62
     0
 48
50.0
100
AcDbPoint
 10
10590.22148434441
 20
2012.025570836417
 30
0.0
  0
POINT
  5
1A7A6
330
19C73
100
AcDbEntity
  8
DEFPOINTS
 62
     0
 48
50.0
100
AcDbPoint
 10
10535.22148434441
 20
1962.025570836416
 30
0.0
  0
POINT
  5
1A7A7
330
19C73
100
AcDbEntity
  8
DEFPOINTS
 62
     0
 48
50.0
100
AcDbPoint
 10
9746.471355161157
 20
1962.025570836416
 30
0.0
  0
ENDBLK
  5
19C80
330
19C73
100
AcDbEntity
  8
0
 48
50.0
100
AcDbBlockEnd
  0
BLOCK
  5
19C8B
330
19C81
100
AcDbEntity
  8
0
 48
50.0
100
AcDbBlockBegin
  2
*D30
 70
     1
 10
0.0
 20
0.0
 30
0.0
  3
*D30
  1

  0
LINE
  5
1A7CD
330
19C81
100
AcDbEntity
  8
寸法
 62
     0
 48
50.0
370
    -2
100
AcDbLine
 10
14060.22148434441
 20
4303.836250448072
 30
0.0
 11
14060.22148434441
 21
4795.683024415724
 31
0.0
  0
LINE
  5
1A7CE
330
19C81
100
AcDbEntity
  8
寸法
 62
     0
 48
50.0
370
    -2
100
AcDbLine
 10
10590.22148434441
 20
4353.027188959393
 30
0.0
 11
10590.22148434441
 21
4795.683024415724
 31
0.0
  0
LINE
  5
1A7CF
330
19C81
100
AcDbEntity
  8
寸法
 62
     0
 48
50.0
370
    -2
100
AcDbLine
 10
14060.22148434441
 20
4735.683024415723
 30
0.0
 11
10590.22148434441
 21
4735.683024415723
 31
0.0
  0
INSERT
  5
1A7D0
330
19C81
100
AcDbEntity
  8
寸法
 62
     0
 48
50.0
370
    -2
100
AcDbBlockReference
  2
_DOTSMALL
 10
14060.22148434441
 20
4735.683024415723
 30
0.0
 41
100.0
 42
100.0
 43
100.0
  0
INSERT
  5
1A7D1
330
19C81
100
AcDbEntity
  8
寸法
 62
     0
 48
50.0
370
    -2
100
AcDbBlockReference
  2
_DOTSMALL
 10
10590.22148434441
 20
4735.683024415723
 30
0.0
 41
100.0
 42
100.0
 43
100.0
 50
180.0
  0
MTEXT
  5
1A7D2
330
19C81
100
AcDbEntity
  8
寸法
 62
     7
 48
50.0
100
AcDbMText
 10
12325.22148434441
 20
4835.683024415724
 30
0.0
 40
120.0
 41
0.0
 71
     5
 72
     1
  1
\A1;柱外寸法3470
  7
STYLE1
 73
     1
 44
1.0
1001
ACAD
1000
MTEXTBEGIN
1070
    73
1070
     1
1070
    44
1040
1.0
1070
    74
1070
     0
1000
MTEXTEND
  0
POINT
  5
1A7D3
330
19C81
100
AcDbEntity
  8
DEFPOINTS
 62
     0
 48
50.0
100
AcDbPoint
 10
14060.22148434441
 20
4283.836250448072
 30
0.0
  0
POINT
  5
1A7D4
330
19C81
100
AcDbEntity
  8
DEFPOINTS
 62
     0
 48
50.0
100
AcDbPoint
 10
10590.22148434441
 20
4333.027188959392
 30
0.0
  0
POINT
  5
1A7D5
330
19C81
100
AcDbEntity
  8
DEFPOINTS
 62
     0
 48
50.0
100
AcDbPoint
 10
10590.22148434441
 20
4735.683024415723
 30
0.0
  0
ENDBLK
  5
19C8C
330
19C81
100
AcDbEntity
  8
0
 48
50.0
100
AcDbBlockEnd
  0
BLOCK
  5
19C99
330
19C8D
100
AcDbEntity
  8
0
 48
50.0
100
AcDbBlockBegin
  2
*D31
 70
     1
 10
0.0
 20
0.0
 30
0.0
  3
*D31
  1

  0
LINE
  5
1A792
330
19C8D
100
AcDbEntity
  8
寸法
 62
     0
 48
50.0
370
    -2
100
AcDbLine
 10
10590.22148434441
 20
4353.027188959393
 30
0.0
 11
10590.22148434441
 21
4795.683024415718
 31
0.0
  0
LINE
  5
1A793
330
19C8D
100
AcDbEntity
  8
寸法
 62
     0
 48
50.0
370
    -2
100
AcDbLine
 10
10530.22148434441
 20
4357.025570836421
 30
0.0
 11
10530.22148434441
 21
4795.683024415718
 31
0.0
  0
LINE
  5
1A794
330
19C8D
100
AcDbEntity
  8
寸法
 62
     0
 48
50.0
370
    -2
100
AcDbLine
 10
10590.22148434441
 20
4735.683024415719
 30
0.0
 11
10690.22148434441
 21
4735.683024415719
 31
0.0
  0
LINE
  5
1A795
330
19C8D
100
AcDbEntity
  8
寸法
 62
     0
 48
50.0
370
    -2
100
AcDbLine
 10
10530.22148434441
 20
4735.683024415719
 30
0.0
 11
10110.94589379323
 21
4735.683024415719
 31
0.0
  0
LINE
  5
1A796
330
19C8D
100
AcDbEntity
  8
寸法
 62
     0
 48
50.0
370
    -2
100
AcDbLine
 10
10590.22148434441
 20
4735.683024415719
 30
0.0
 11
10530.22148434441
 21
4735.683024415719
 31
0.0
  0
INSERT
  5
1A797
330
19C8D
100
AcDbEntity
  8
寸法
 62
     0
 48
50.0
370
    -2
100
AcDbBlockReference
  2
_DOTSMALL
 10
10590.22148434441
 20
4735.683024415719
 30
0.0
 41
100.0
 42
100.0
 43
100.0
 50
180.0
  0
INSERT
  5
1A798
330
19C8D
100
AcDbEntity
  8
寸法
 62
     0
 48
50.0
370
    -2
100
AcDbBlockReference
  2
_DOTSMALL
 10
10530.22148434441
 20
4735.683024415719
 30
0.0
 41
100.0
 42
100.0
 43
100.0
  0
MTEXT
  5
1A799
330
19C8D
100
AcDbEntity
  8
寸法
 62
     7
 48
50.0
100
AcDbMText
 10
10220.58368906882
 20
4835.683024415719
 30
0.0
 40
120.0
 41
0.0
 71
     5
 72
     1
  1
\A1;60
  7
STYLE1
 73
     1
 44
1.0
1001
ACAD
1000
MTEXTBEGIN
1070
    73
1070
     1
1070
    44
1040
1.0
1070
    74
1070
     0
1000
MTEXTEND
  0
POINT
  5
1A79A
330
19C8D
100
AcDbEntity
  8
DEFPOINTS
 62
     0
 48
50.0
100
AcDbPoint
 10
10590.22148434441
 20
4333.027188959392
 30
0.0
  0
POINT
  5
1A79B
330
19C8D
100
AcDbEntity
  8
DEFPOINTS
 62
     0
 48
50.0
100
AcDbPoint
 10
10530.22148434441
 20
4337.025570836421
 30
0.0
  0
POINT
  5
1A79C
330
19C8D
100
AcDbEntity
  8
DEFPOINTS
 62
     0
 48
50.0
100
AcDbPoint
 10
10530.22148434441
 20
4735.683024415719
 30
0.0
  0
ENDBLK
  5
19C9A
330
19C8D
100
AcDbEntity
  8
0
 48
50.0
100
AcDbBlockEnd
  0
BLOCK
  5
19CA5
330
19C9B
100
AcDbEntity
  8
0
 48
50.0
100
AcDbBlockBegin
  2
*D32
 70
     1
 10
0.0
 20
0.0
 30
0.0
  3
*D32
  1

  0
LINE
  5
1A7C4
330
19C9B
100
AcDbEntity
  8
寸法
 62
     0
 48
50.0
370
    -2
100
AcDbLine
 10
14140.22148434441
 20
4302.025570836417
 30
0.0
 11
14140.22148434441
 21
5025.796617201999
 31
0.0
  0
LINE
  5
1A7C5
330
19C9B
100
AcDbEntity
  8
寸法
 62
     0
 48
50.0
370
    -2
100
AcDbLine
 10
10530.22148434441
 20
4357.025570836421
 30
0.0
 11
10530.22148434441
 21
5025.796617201999
 31
0.0
  0
LINE
  5
1A7C6
330
19C9B
100
AcDbEntity
  8
寸法
 62
     0
 48
50.0
370
    -2
100
AcDbLine
 10
14140.22148434441
 20
4965.796617201998
 30
0.0
 11
10530.22148434441
 21
4965.796617201998
 31
0.0
  0
INSERT
  5
1A7C7
330
19C9B
100
AcDbEntity
  8
寸法
 62
     0
 48
50.0
370
    -2
100
AcDbBlockReference
  2
_DOTSMALL
 10
14140.22148434441
 20
4965.796617201998
 30
0.0
 41
100.0
 42
100.0
 43
100.0
  0
INSERT
  5
1A7C8
330
19C9B
100
AcDbEntity
  8
寸法
 62
     0
 48
50.0
370
    -2
100
AcDbBlockReference
  2
_DOTSMALL
 10
10530.22148434441
 20
4965.796617201998
 30
0.0
 41
100.0
 42
100.0
 43
100.0
 50
180.0
  0
MTEXT
  5
1A7C9
330
19C9B
100
AcDbEntity
  8
寸法
 62
     7
 48
50.0
100
AcDbMText
 10
12335.22148434441
 20
5065.796617201999
 30
0.0
 40
120.0
 41
0.0
 71
     5
 72
     1
  1
\A1;3610
  7
STYLE1
 73
     1
 44
1.0
1001
ACAD
1000
MTEXTBEGIN
1070
    73
1070
     1
1070
    44
1040
1.0
1070
    74
1070
     0
1000
MTEXTEND
  0
POINT
  5
1A7CA
330
19C9B
100
AcDbEntity
  8
DEFPOINTS
 62
     0
 48
50.0
100
AcDbPoint
 10
14140.22148434441
 20
4282.025570836418
 30
0.0
  0
POINT
  5
1A7CB
330
19C9B
100
AcDbEntity
  8
DEFPOINTS
 62
     0
 48
50.0
100
AcDbPoint
 10
10530.22148434441
 20
4337.025570836421
 30
0.0
  0
POINT
  5
1A7CC
330
19C9B
100
AcDbEntity
  8
DEFPOINTS
 62
     0
 48
50.0
100
AcDbPoint
 10
10530.22148434441
 20
4965.796617201998
 30
0.0
  0
ENDBLK
  5
19CA6
330
19C9B
100
AcDbEntity
  8
0
 48
50.0
100
AcDbBlockEnd
  0
BLOCK
  5
19CB2
330
19CA7
100
AcDbEntity
  8
0
 48
50.0
100
AcDbBlockBegin
  2
*D33
 70
     1
 10
0.0
 20
0.0
 30
0.0
  3
*D33
  1

  0
LINE
  5
1A7BA
330
19CA7
100
AcDbEntity
  8
寸法
 62
     0
 48
50.0
370
    -2
100
AcDbLine
 10
14060.22148434441
 20
4303.836250448072
 30
0.0
 11
14060.22148434441
 21
4795.683024415724
 31
0.0
  0
LINE
  5
1A7BB
330
19CA7
100
AcDbEntity
  8
寸法
 62
     0
 48
50.0
370
    -2
100
AcDbLine
 10
14140.22148434441
 20
4302.025570836419
 30
0.0
 11
14140.22148434441
 21
4795.683024415724
 31
0.0
  0
LINE
  5
1A7BC
330
19CA7
100
AcDbEntity
  8
寸法
 62
     0
 48
50.0
370
    -2
100
AcDbLine
 10
14060.22148434441
 20
4735.683024415723
 30
0.0
 11
14140.22148434441
 21
4735.683024415723
 31
0.0
  0
LINE
  5
1A7BD
330
19CA7
100
AcDbEntity
  8
寸法
 62
     0
 48
50.0
370
    -2
100
AcDbLine
 10
14140.22148434441
 20
4735.683024415723
 30
0.0
 11
14452.31597253339
 21
4735.683024415723
 31
0.0
  0
INSERT
  5
1A7BE
330
19CA7
100
AcDbEntity
  8
寸法
 62
     0
 48
50.0
370
    -2
100
AcDbBlockReference
  2
_DOTSMALL
 10
14060.22148434441
 20
4735.683024415723
 30
0.0
 41
100.0
 42
100.0
 43
100.0
 50
180.0
  0
INSERT
  5
1A7BF
330
19CA7
100
AcDbEntity
  8
寸法
 62
     0
 48
50.0
370
    -2
100
AcDbBlockReference
  2
_DOTSMALL
 10
14140.22148434441
 20
4735.683024415723
 30
0.0
 41
100.0
 42
100.0
 43
100.0
  0
MTEXT
  5
1A7C0
330
19CA7
100
AcDbEntity
  8
寸法
 62
     7
 48
50.0
100
AcDbMText
 10
14346.2687284389
 20
4835.683024415724
 30
0.0
 40
120.0
 41
0.0
 71
     5
 72
     1
  1
\A1;80
  7
STYLE1
 73
     1
 44
1.0
1001
ACAD
1000
MTEXTBEGIN
1070
    73
1070
     1
1070
    44
1040
1.0
1070
    74
1070
     0
1000
MTEXTEND
  0
POINT
  5
1A7C1
330
19CA7
100
AcDbEntity
  8
DEFPOINTS
 62
     0
 48
50.0
100
AcDbPoint
 10
14060.22148434441
 20
4283.836250448072
 30
0.0
  0
POINT
  5
1A7C2
330
19CA7
100
AcDbEntity
  8
DEFPOINTS
 62
     0
 48
50.0
100
AcDbPoint
 10
14140.22148434441
 20
4282.025570836419
 30
0.0
  0
POINT
  5
1A7C3
330
19CA7
100
AcDbEntity
  8
DEFPOINTS
 62
     0
 48
50.0
100
AcDbPoint
 10
14140.22148434441
 20
4735.683024415723
 30
0.0
  0
ENDBLK
  5
19CB3
330
19CA7
100
AcDbEntity
  8
0
 48
50.0
100
AcDbBlockEnd
  0
BLOCK
  5
19CBF
330
19CB4
100
AcDbEntity
  8
0
 48
50.0
100
AcDbBlockBegin
  2
*D34
 70
     1
 10
0.0
 20
0.0
 30
0.0
  3
*D34
  1

  0
LINE
  5
1A788
330
19CB4
100
AcDbEntity
  8
寸法
 62
     0
 48
50.0
370
    -2
100
AcDbLine
 10
10529.62577063551
 20
4336.32327790608
 30
0.0
 11
9913.691331530229
 21
4354.037428180425
 31
0.0
  0
LINE
  5
1A789
330
19CB4
100
AcDbEntity
  8
寸法
 62
     0
 48
50.0
370
    -2
100
AcDbLine
 10
10525.57231507888
 20
4195.381554140367
 30
0.0
 11
9909.637875973599
 21
4213.095704414712
 31
0.0
  0
LINE
  5
1A78A
330
19CB4
100
AcDbEntity
  8
寸法
 62
     0
 48
50.0
370
    -2
100
AcDbLine
 10
9969.613077576028
 20
4211.370829709763
 30
0.0
 11
9973.666533132659
 21
4352.312553475476
 31
0.0
  0
LINE
  5
1A78B
330
19CB4
100
AcDbEntity
  8
寸法
 62
     0
 48
50.0
370
    -2
100
AcDbLine
 10
9973.666533132659
 20
4352.312553475476
 30
0.0
 11
9984.015781362352
 21
4712.163763090061
 31
0.0
  0
INSERT
  5
1A78C
330
19CB4
100
AcDbEntity
  8
寸法
 62
     0
 48
50.0
370
    -2
100
AcDbBlockReference
  2
_DOTSMALL
 10
9969.613077576028
 20
4211.370829709763
 30
0.0
 41
100.0
 42
100.0
 43
100.0
 50
268.3526390256363
  0
INSERT
  5
1A78D
330
19CB4
100
AcDbEntity
  8
寸法
 62
     0
 48
50.0
370
    -2
100
AcDbBlockReference
  2
_DOTSMALL
 10
9973.666533132659
 20
4352.312553475476
 30
0.0
 41
100.0
 42
100.0
 43
100.0
 50
88.35263902563632
  0
MTEXT
  5
1A78E
330
19CB4
100
AcDbEntity
  8
寸法
 62
     7
 48
50.0
100
AcDbMText
 10
9880.319883497579
 20
4585.092284126377
 30
0.0
 40
120.0
 41
0.0
 71
     5
 72
     1
  1
\A1;141
  7
STYLE1
 11
0.0287479117491494
 21
0.9995866933738479
 31
0.0
 73
     1
 44
1.0
1001
ACAD
1000
MTEXTBEGIN
1070
    73
1070
     1
1070
    44
1040
1.0
1070
    74
1070
     0
1000
MTEXTEND
  0
POINT
  5
1A78F
330
19CB4
100
AcDbEntity
  8
DEFPOINTS
 62
     0
 48
50.0
100
AcDbPoint
 10
10549.61750450299
 20
4335.748319671096
 30
0.0
  0
POINT
  5
1A790
330
19CB4
100
AcDbEntity
  8
DEFPOINTS
 62
     0
 48
50.0
100
AcDbPoint
 10
10545.56404894636
 20
4194.806595905384
 30
0.0
  0
POINT
  5
1A791
330
19CB4
100
AcDbEntity
  8
DEFPOINTS
 62
     0
 48
50.0
100
AcDbPoint
 10
9969.613077576028
 20
4211.370829709763
 30
0.0
  0
ENDBLK
  5
19CC0
330
19CB4
100
AcDbEntity
  8
0
 48
50.0
100
AcDbBlockEnd
  0
BLOCK
  5
1A444
330
1A43A
100
AcDbEntity
  8
0
 48
50.0
100
AcDbBlockBegin
  2
*D35
 70
     1
 10
0.0
 20
0.0
 30
0.0
  3
*D35
  1

  0
LINE
  5
1A8C8
330
1A43A
100
AcDbEntity
  8
寸法
 62
     0
 48
50.0
370
    -2
100
AcDbLine
 10
8024.673057123665
 20
1962.025570836416
 30
0.0
 11
8352.216159445413
 21
1962.025570836416
 31
0.0
  0
LINE
  5
1A8C9
330
1A43A
100
AcDbEntity
  8
寸法
 62
     0
 48
50.0
370
    -2
100
AcDbLine
 10
8024.673057123665
 20
3910.025570836417
 30
0.0
 11
8352.216159445413
 21
3910.025570836417
 31
0.0
  0
LINE
  5
1A8CA
330
1A43A
100
AcDbEntity
  8
寸法
 62
     0
 48
50.0
370
    -2
100
AcDbLine
 10
8292.216159445414
 20
1962.025570836416
 30
0.0
 11
8292.216159445414
 21
3910.025570836417
 31
0.0
  0
INSERT
  5
1A8CB
330
1A43A
100
AcDbEntity
  8
寸法
 62
     0
 48
50.0
370
    -2
100
AcDbBlockReference
  2
_DOTSMALL
 10
8292.216159445414
 20
1962.025570836416
 30
0.0
 41
100.0
 42
100.0
 43
100.0
 50
270.0
  0
INSERT
  5
1A8CC
330
1A43A
100
AcDbEntity
  8
寸法
 62
     0
 48
50.0
370
    -2
100
AcDbBlockReference
  2
_DOTSMALL
 10
8292.216159445414
 20
3910.025570836417
 30
0.0
 41
100.0
 42
100.0
 43
100.0
 50
90.0
  0
MTEXT
  5
1A8CD
330
1A43A
100
AcDbEntity
  8
寸法
 62
     7
 48
50.0
100
AcDbMText
 10
8192.216159445413
 20
2936.025570836418
 30
0.0
 40
120.0
 41
0.0
 71
     5
 72
     1
  1
\A1;有効開口部高サ 1948
  7
STYLE1
 11
0.0000000000000001
 21
1.0
 31
0.0
 73
     1
 44
1.0
1001
ACAD
1000
MTEXTBEGIN
1070
    73
1070
     1
1070
    44
1040
1.0
1070
    74
1070
     0
1000
MTEXTEND
  0
POINT
  5
1A8CE
330
1A43A
100
AcDbEntity
  8
DEFPOINTS
 62
     0
 48
50.0
100
AcDbPoint
 10
8004.673057123666
 20
1962.025570836416
 30
0.0
  0
POINT
  5
1A8CF
330
1A43A
100
AcDbEntity
  8
DEFPOINTS
 62
     0
 48
50.0
100
AcDbPoint
 10
8004.673057123666
 20
3910.025570836417
 30
0.0
  0
POINT
  5
1A8D0
330
1A43A
100
AcDbEntity
  8
DEFPOINTS
 62
     0
 48
50.0
100
AcDbPoint
 10
8292.216159445414
 20
3910.025570836417
 30
0.0
  0
ENDBLK
  5
1A445
330
1A43A
100
AcDbEntity
  8
0
 48
50.0
100
AcDbBlockEnd
  0
BLOCK
  5
1A452
330
1A446
100
AcDbEntity
  8
0
 48
50.0
100
AcDbBlockBegin
  2
*D36
 70
     1
 10
0.0
 20
0.0
 30
0.0
  3
*D36
  1

  0
LINE
  5
1A9CE
330
1A446
100
AcDbEntity
  8
寸法
 62
     0
 48
50.0
370
    -2
100
AcDbLine
 10
8024.673057123665
 20
3910.025570836417
 30
0.0
 11
8352.216159445413
 21
3910.025570836417
 31
0.0
  0
LINE
  5
1A9CF
330
1A446
100
AcDbEntity
  8
寸法
 62
     0
 48
50.0
370
    -2
100
AcDbLine
 10
8024.673057123663
 20
3937.025570836418
 30
0.0
 11
8352.216159445413
 21
3937.025570836418
 31
0.0
  0
LINE
  5
1A9D0
330
1A446
100
AcDbEntity
  8
寸法
 62
     0
 48
50.0
370
    -2
100
AcDbLine
 10
8292.216159445414
 20
3910.025570836417
 30
0.0
 11
8292.216159445414
 21
3810.025570836418
 31
0.0
  0
LINE
  5
1A9D1
330
1A446
100
AcDbEntity
  8
寸法
 62
     0
 48
50.0
370
    -2
100
AcDbLine
 10
8292.216159445414
 20
3937.025570836418
 30
0.0
 11
8292.216159445414
 21
4037.025570836417
 31
0.0
  0
MTEXT
  5
1A9D2
330
1A446
100
AcDbEntity
  8
寸法
 62
     7
 48
50.0
100
AcDbMText
 10
8432.38598269178
 20
3937.992770676075
 30
0.0
 40
120.0
 41
0.0
 71
     5
 72
     1
  1
\A1;27
  7
STYLE1
 11
0.0000000000000001
 21
1.0
 31
0.0
 73
     1
 44
1.0
1001
ACAD
1000
MTEXTBEGIN
1070
    73
1070
     1
1070
    44
1040
1.0
1070
    74
1070
     0
1000
MTEXTEND
  0
LINE
  5
1A9D3
330
1A446
100
AcDbEntity
  8
寸法
 62
     0
 48
50.0
370
    -2
100
AcDbLine
 10
8292.216159445414
 20
3910.025570836417
 30
0.0
 11
8292.216159445414
 21
3937.025570836418
 31
0.0
  0
INSERT
  5
1A9D4
330
1A446
100
AcDbEntity
  8
寸法
 62
     0
 48
50.0
370
    -2
100
AcDbBlockReference
  2
_DOTSMALL
 10
8292.216159445414
 20
3910.025570836417
 30
0.0
 41
100.0
 42
100.0
 43
100.0
 50
90.0
  0
INSERT
  5
1A9D5
330
1A446
100
AcDbEntity
  8
寸法
 62
     0
 48
50.0
370
    -2
100
AcDbBlockReference
  2
_DOTSMALL
 10
8292.216159445414
 20
3937.025570836418
 30
0.0
 41
100.0
 42
100.0
 43
100.0
 50
270.0
  0
POINT
  5
1A9D6
330
1A446
100
AcDbEntity
  8
DEFPOINTS
 62
     0
 48
50.0
100
AcDbPoint
 10
8004.673057123666
 20
3910.025570836417
 30
0.0
  0
POINT
  5
1A9D7
330
1A446
100
AcDbEntity
  8
DEFPOINTS
 62
     0
 48
50.0
100
AcDbPoint
 10
8004.673057123664
 20
3937.025570836418
 30
0.0
  0
POINT
  5
1A9D8
330
1A446
100
AcDbEntity
  8
DEFPOINTS
 62
     0
 48
50.0
100
AcDbPoint
 10
8292.216159445414
 20
3937.025570836418
 30
0.0
  0
ENDBLK
  5
1A453
330
1A446
100
AcDbEntity
  8
0
 48
50.0
100
AcDbBlockEnd
  0
BLOCK
  5
1A45F
330
1A454
100
AcDbEntity
  8
0
 48
50.0
100
AcDbBlockBegin
  2
*D37
 70
     1
 10
0.0
 20
0.0
 30
0.0
  3
*D37
  1

  0
LINE
  5
1A9C4
330
1A454
100
AcDbEntity
  8
寸法
 62
     0
 48
50.0
370
    -2
100
AcDbLine
 10
8024.673057123663
 20
3937.025570836418
 30
0.0
 11
8352.216159445413
 21
3937.025570836418
 31
0.0
  0
LINE
  5
1A9C5
330
1A454
100
AcDbEntity
  8
寸法
 62
     0
 48
50.0
370
    -2
100
AcDbLine
 10
8024.673057123665
 20
4102.025570836416
 30
0.0
 11
8352.216159445417
 21
4102.025570836416
 31
0.0
  0
LINE
  5
1A9C6
330
1A454
100
AcDbEntity
  8
寸法
 62
     0
 48
50.0
370
    -2
100
AcDbLine
 10
8292.216159445414
 20
3937.025570836418
 30
0.0
 11
8292.216159445414
 21
4102.025570836416
 31
0.0
  0
LINE
  5
1A9C7
330
1A454
100
AcDbEntity
  8
寸法
 62
     0
 48
50.0
370
    -2
100
AcDbLine
 10
8292.216159445414
 20
4102.025570836416
 30
0.0
 11
8292.216159445414
 21
4478.996133584892
 31
0.0
  0
INSERT
  5
1A9C8
330
1A454
100
AcDbEntity
  8
寸法
 62
     0
 48
50.0
370
    -2
100
AcDbBlockReference
  2
_DOTSMALL
 10
8292.216159445414
 20
3937.025570836418
 30
0.0
 41
100.0
 42
100.0
 43
100.0
 50
270.0
  0
INSERT
  5
1A9C9
330
1A454
100
AcDbEntity
  8
寸法
 62
     0
 48
50.0
370
    -2
100
AcDbBlockReference
  2
_DOTSMALL
 10
8292.216159445414
 20
4102.025570836416
 30
0.0
 41
100.0
 42
100.0
 43
100.0
 50
90.0
  0
MTEXT
  5
1A9CA
330
1A454
100
AcDbEntity
  8
寸法
 62
     7
 48
50.0
100
AcDbMText
 10
8192.216159445413
 20
4340.510852210655
 30
0.0
 40
120.0
 41
0.0
 71
     5
 72
     1
  1
\A1;165
  7
STYLE1
 11
0.0000000000000001
 21
1.0
 31
0.0
 73
     1
 44
1.0
1001
ACAD
1000
MTEXTBEGIN
1070
    73
1070
     1
1070
    44
1040
1.0
1070
    74
1070
     0
1000
MTEXTEND
  0
POINT
  5
1A9CB
330
1A454
100
AcDbEntity
  8
DEFPOINTS
 62
     0
 48
50.0
100
AcDbPoint
 10
8004.673057123664
 20
3937.025570836418
 30
0.0
  0
POINT
  5
1A9CC
330
1A454
100
AcDbEntity
  8
DEFPOINTS
 62
     0
 48
50.0
100
AcDbPoint
 10
8004.673057123666
 20
4102.025570836416
 30
0.0
  0
POINT
  5
1A9CD
330
1A454
100
AcDbEntity
  8
DEFPOINTS
 62
     0
 48
50.0
100
AcDbPoint
 10
8292.216159445414
 20
4102.025570836416
 30
0.0
  0
ENDBLK
  5
1A460
330
1A454
100
AcDbEntity
  8
0
 48
50.0
100
AcDbBlockEnd
  0
ENDSEC
  0
SECTION
  2
ENTITIES
  0
MTEXT
  5
763F
330
747D
100
AcDbEntity
  8
0
100
AcDbMText
 10
302.846345836809
 20
280.1983726409901
 30
0.0
 40
3.5
 41
5.323721266742722
 71
     1
 72
     5
  1

  7
MSMINCHO
 73
     1
 44
1.0
1001
ACAD
1000
MTEXTBEGIN
1070
    73
1070
     1
1070
    44
1040
1.0
1070
    74
1070
     0
1000
MTEXTEND
  0
LINE
  5
10B57
330
747D
100
AcDbEntity
  8
補助
  6
PHANTOM
 62
   230
 48
50.0
100
AcDbLine
 10
139.9999999999995
 20
11409.6
 30
0.0
 11
16307.2
 21
11409.6
 31
0.0
  0
LINE
  5
10B59
330
747D
100
AcDbEntity
  8
仕様書枠
  6
Continuous
 48
50.0
100
AcDbLine
 10
13107.2
 20
1200.0
 30
0.0
 11
13107.2
 21
-0.0000000000000729
 31
0.0
  0
LINE
  5
10B5C
330
747D
100
AcDbEntity
  8
仕様書枠
 48
50.0
100
AcDbLine
 10
16307.2
 20
1200.0
 30
0.0
 11
16307.2
 21
-0.0000000000000909
 31
0.0
  0
LINE
  5
10B5D
330
747D
100
AcDbEntity
  8
仕様書枠
 48
50.0
100
AcDbLine
 10
140.0
 20
0.0
 30
0.0
 11
16307.2
 21
-0.0000000000000909
 31
0.0
  0
LINE
  5
10B5E
330
747D
100
AcDbEntity
  8
補助
  6
PHANTOM
 62
   230
 48
50.0
100
AcDbLine
 10
16307.2
 20
11409.6
 30
0.0
 11
16307.2
 21
1200.0
 31
0.0
  0
LINE
  5
10B6C
330
747D
100
AcDbEntity
  8
仕様書枠
 48
50.0
100
AcDbLine
 10
13107.2
 20
1200.0
 30
0.0
 11
16307.2
 21
1200.0
 31
0.0
  0
LINE
  5
10B6D
330
747D
100
AcDbEntity
  8
補助
  6
PHANTOM
 62
   230
 48
50.0
100
AcDbLine
 10
13107.2
 20
11409.6
 30
0.0
 11
13107.2
 21
4800.0
 31
0.0
  0
LINE
  5
10B6F
330
747D
100
AcDbEntity
  8
補助
  6
PHANTOM
 62
   230
 48
50.0
100
AcDbLine
 10
13107.2
 20
4800.0
 30
0.0
 11
16307.2
 21
4800.0
 31
0.0
  0
LINE
  5
10B72
330
747D
100
AcDbEntity
  8
文字
 62
     7
 48
50.0
100
AcDbLine
 10
13187.2
 20
400.0
 30
0.0
 11
16227.2
 21
400.0
 31
0.0
  0
TEXT
  5
10B73
330
747D
100
AcDbEntity
  8
文字
 62
     7
 48
50.0
100
AcDbText
 10
13162.9790565769
 20
895.0906074299405
 30
0.0
 40
200.0
  1
外 形 図
  7
STYLE2
100
AcDbText
  0
TEXT
  5
10B74
330
747D
100
AcDbEntity
  8
文字
 62
     7
 48
50.0
100
AcDbText
 10
13201.43669998441
 20
477.2740661031255
 30
0.0
 40
160.0
  1
機種名
  7
STYLE2
100
AcDbText
  0
TEXT
  5
10B75
330
747D
100
AcDbEntity
  8
文字
 62
     7
 48
50.0
100
AcDbText
 10
13209.4053442172
 20
228.5435242569016
 30
0.0
 40
100.0
  1
○有効開口寸法 ： 2424×1948(mm)
  7
STYLE2
100
AcDbText
  0
TEXT
  5
10B76
330
747D
100
AcDbEntity
  8
文字
 62
     7
 48
50.0
100
AcDbText
 10
13209.4053442172
 20
76.09434707649343
 30
0.0
 40
100.0
  1
○床面積 ： 18.25㎡(5.53坪)
  7
STYLE2
100
AcDbText
  0
TEXT
  5
10B79
330
747D
100
AcDbEntity
  8
文字
 62
     7
 48
50.0
100
AcDbText
 10
14524.131837222
 20
1031.557706291228
 30
0.0
 40
100.0
  1
NO.59      <縮尺> S=1/40
  7
STYLE2
100
AcDbText
  0
LINE
  5
10B7B
330
747D
100
AcDbEntity
  8
仕様書枠
 48
50.0
100
AcDbLine
 10
13107.2
 20
800.0
 30
0.0
 11
14251.2
 21
800.0
 31
0.0
  0
LINE
  5
10B88
330
747D
100
AcDbEntity
  8
仕様書枠
  6
Continuous
 48
50.0
100
AcDbLine
 10
14251.2
 20
1200.0
 30
0.0
 11
14251.2
 21
800.0
 31
0.0
  0
LINE
  5
127A8
330
747D
100
AcDbEntity
  8
部品1
100
AcDbLine
 10
1755.903465777283
 20
1991.929381404081
 30
0.0
 11
1905.903465777283
 21
1991.929381404081
 31
0.0
  0
LINE
  5
127A9
330
747D
100
AcDbEntity
  8
部品1
100
AcDbLine
 10
1830.903465777283
 20
1862.025570836416
 30
0.0
 11
1755.903465777283
 21
1991.929381404081
 31
0.0
  0
TEXT
  5
127AA
330
747D
100
AcDbEntity
  8
部品1
100
AcDbText
 10
1934.008407902055
 20
1898.132474442318
 30
0.0
 40
125.0
  1
G.L
  7
MSGOTHIC
100
AcDbText
  0
LINE
  5
127AB
330
747D
100
AcDbEntity
  8
部品1
100
AcDbLine
 10
1905.903465777283
 20
1991.929381404081
 30
0.0
 11
1830.903465777283
 21
1862.025570836416
 31
0.0
  0
LINE
  5
13C1F
330
747D
100
AcDbEntity
  8
部品1
100
AcDbLine
 10
2744.673057123666
 20
4196.025570836424
 30
0.0
 11
2744.673057123666
 21
1862.025570836416
 31
0.0
  0
LINE
  5
13CFC
330
747D
100
AcDbEntity
  8
部品1
100
AcDbLine
 10
7949.673057123665
 20
3937.025570836418
 30
0.0
 11
7949.673057123662
 21
1962.025570836416
 31
0.0
  0
LINE
  5
13CFE
330
747D
100
AcDbEntity
  8
部品1
100
AcDbLine
 10
2799.673057123666
 20
3937.025570836416
 30
0.0
 11
2799.673057123666
 21
1962.025570836416
 31
0.0
  0
LINE
  5
13D18
330
747D
100
AcDbEntity
  8
部品1
100
AcDbLine
 10
8004.673057123666
 20
4196.025570836424
 30
0.0
 11
8004.673057123666
 21
1862.025570836416
 31
0.0
  0
LINE
  5
146B2
330
747D
100
AcDbEntity
  8
破線
 48
5.0
100
AcDbLine
 10
8004.673057123666
 20
1862.025570836416
 30
0.0
 11
8004.673057123666
 21
1612.025570836416
 31
0.0
  0
LINE
  5
146B3
330
747D
100
AcDbEntity
  8
破線
 48
5.0
100
AcDbLine
 10
2744.673057123666
 20
1862.025570836416
 30
0.0
 11
2744.673057123664
 21
1612.025570836416
 31
0.0
  0
TEXT
  5
149A1
330
747D
100
AcDbEntity
  8
部品1
100
AcDbText
 10
5083.463127747398
 20
1019.132041617891
 30
0.0
 40
135.0
  1
正面図
  7
MSGOTHIC
100
AcDbText
  0
LWPOLYLINE
  5
149A2
330
747D
100
AcDbEntity
  8
部品1
100
AcDbPolyline
 90
        4
 70
     1
 43
0.0
 10
4992.937724009443
 20
1212.025570836416
 10
4992.937724009443
 20
972.1332492908826
 10
5756.408390237883
 20
972.1332492908826
 10
5756.408390237883
 20
1212.025570836416
  0
TEXT
  5
14E88
330
747D
100
AcDbEntity
  8
部品1
100
AcDbText
 10
5082.857333838481
 20
5562.0452254912
 30
0.0
 40
135.0
  1
平面図
  7
MSGOTHIC
100
AcDbText
  0
LWPOLYLINE
  5
14E89
330
747D
100
AcDbEntity
  8
部品1
100
AcDbPolyline
 90
        4
 70
     1
 43
0.0
 10
4992.937724009443
 20
5754.938754709723
 10
4992.937724009443
 20
5515.04643316419
 10
5756.408390237883
 20
5515.04643316419
 10
5756.408390237883
 20
5754.938754709723
  0
TEXT
  5
15550
330
747D
100
AcDbEntity
  8
文字
 62
     7
 48
50.0
100
AcDbText
 10
14936.52312336886
 20
871.9640646083622
 30
0.0
 40
100.0
  1
～一般型～
  7
STYLE2
100
AcDbText
  0
LINE
  5
15CE5
330
747D
100
AcDbEntity
  8
破線
 48
5.0
100
AcDbLine
 10
7949.673057123662
 20
1962.025570836416
 30
0.0
 11
7949.673057123665
 21
1612.025570836416
 31
0.0
  0
LINE
  5
15CE6
330
747D
100
AcDbEntity
  8
破線
 48
5.0
100
AcDbLine
 10
2799.673057123666
 20
1962.025570836416
 30
0.0
 11
2799.673057123664
 21
1612.025570836416
 31
0.0
  0
LINE
  5
15CE7
330
747D
100
AcDbEntity
  8
破線
 48
5.0
100
AcDbLine
 10
8004.673057123666
 20
1612.025570836416
 30
0.0
 11
7949.673057123665
 21
1612.025570836416
 31
0.0
  0
LINE
  5
15CE8
330
747D
100
AcDbEntity
  8
破線
 48
5.0
100
AcDbLine
 10
2799.673057123664
 20
1612.025570836424
 30
0.0
 11
2744.673057123664
 21
1612.025570836424
 31
0.0
  0
LINE
  5
15CE9
330
747D
100
AcDbEntity
  8
部品1
100
AcDbLine
 10
2847.673057123666
 20
3937.025570836417
 30
0.0
 11
2847.673057123666
 21
1962.025570836416
 31
0.0
  0
LINE
  5
15CEA
330
747D
100
AcDbEntity
  8
破線
 48
5.0
100
AcDbLine
 10
2847.673057123666
 20
1962.025570836416
 30
0.0
 11
2847.673057123664
 21
1712.025570836422
 31
0.0
  0
LINE
  5
15CEB
330
747D
100
AcDbEntity
  8
部品1
100
AcDbLine
 10
7901.673057123669
 20
3937.025570836418
 30
0.0
 11
7901.673057123665
 21
1962.025570836416
 31
0.0
  0
LINE
  5
15CEC
330
747D
100
AcDbEntity
  8
破線
 48
5.0
100
AcDbLine
 10
7901.673057123665
 20
1962.025570836416
 30
0.0
 11
7901.673057123666
 21
1712.025570836416
 31
0.0
  0
LINE
  5
15CED
330
747D
100
AcDbEntity
  8
破線
 48
5.0
100
AcDbLine
 10
7949.673057123671
 20
1712.025570836416
 30
0.0
 11
7901.673057123666
 21
1712.025570836416
 31
0.0
  0
LINE
  5
15CEE
330
747D
100
AcDbEntity
  8
破線
 48
5.0
100
AcDbLine
 10
2847.673057123664
 20
1712.025570836422
 30
0.0
 11
2799.673057123664
 21
1712.025570836422
 31
0.0
  0
LINE
  5
15D20
330
747D
100
AcDbEntity
  8
細線
100
AcDbLine
 10
5477.673057123662
 20
3597.025570836417
 30
0.0
 11
7901.673057123665
 21
3597.025570836417
 31
0.0
  0
LINE
  5
15D21
330
747D
100
AcDbEntity
  8
細線
100
AcDbLine
 10
5477.673057123662
 20
3662.025570836417
 30
0.0
 11
7901.673057123665
 21
3662.025570836417
 31
0.0
  0
LINE
  5
15D22
330
747D
100
AcDbEntity
  8
細線
100
AcDbLine
 10
5477.673057123662
 20
3727.025570836417
 30
0.0
 11
7901.673057123665
 21
3727.025570836417
 31
0.0
  0
LINE
  5
15D23
330
747D
100
AcDbEntity
  8
細線
100
AcDbLine
 10
5477.673057123662
 20
3207.025570836417
 30
0.0
 11
7901.673057123665
 21
3207.025570836417
 31
0.0
  0
LINE
  5
15D24
330
747D
100
AcDbEntity
  8
細線
100
AcDbLine
 10
5477.673057123662
 20
3272.025570836416
 30
0.0
 11
7901.673057123665
 21
3272.025570836416
 31
0.0
  0
LINE
  5
15D25
330
747D
100
AcDbEntity
  8
細線
100
AcDbLine
 10
5477.673057123662
 20
3337.025570836417
 30
0.0
 11
7901.673057123665
 21
3337.025570836417
 31
0.0
  0
LINE
  5
15D26
330
747D
100
AcDbEntity
  8
細線
100
AcDbLine
 10
5477.673057123662
 20
3402.025570836417
 30
0.0
 11
7901.673057123665
 21
3402.025570836417
 31
0.0
  0
LINE
  5
15D27
330
747D
100
AcDbEntity
  8
細線
100
AcDbLine
 10
5477.673057123662
 20
3467.025570836418
 30
0.0
 11
7901.673057123665
 21
3467.025570836418
 31
0.0
  0
LINE
  5
15D28
330
747D
100
AcDbEntity
  8
細線
100
AcDbLine
 10
5477.673057123662
 20
3532.025570836417
 30
0.0
 11
7901.673057123665
 21
3532.025570836417
 31
0.0
  0
LINE
  5
15D29
330
747D
100
AcDbEntity
  8
細線
100
AcDbLine
 10
5477.673057123662
 20
2557.025570836418
 30
0.0
 11
7901.673057123665
 21
2557.025570836418
 31
0.0
  0
LINE
  5
15D2A
330
747D
100
AcDbEntity
  8
細線
100
AcDbLine
 10
5477.673057123662
 20
2622.025570836417
 30
0.0
 11
7901.673057123665
 21
2622.025570836417
 31
0.0
  0
LINE
  5
15D2B
330
747D
100
AcDbEntity
  8
細線
100
AcDbLine
 10
5477.673057123662
 20
2687.025570836417
 30
0.0
 11
7901.673057123665
 21
2687.025570836417
 31
0.0
  0
LINE
  5
15D2C
330
747D
100
AcDbEntity
  8
細線
100
AcDbLine
 10
5477.673057123662
 20
2752.025570836417
 30
0.0
 11
7901.673057123665
 21
2752.025570836417
 31
0.0
  0
LINE
  5
15D2D
330
747D
100
AcDbEntity
  8
細線
100
AcDbLine
 10
5477.673057123662
 20
2817.025570836417
 30
0.0
 11
7901.673057123665
 21
2817.025570836417
 31
0.0
  0
LINE
  5
15D2E
330
747D
100
AcDbEntity
  8
細線
100
AcDbLine
 10
5477.673057123662
 20
2882.025570836417
 30
0.0
 11
7901.673057123665
 21
2882.025570836417
 31
0.0
  0
LINE
  5
15D2F
330
747D
100
AcDbEntity
  8
細線
100
AcDbLine
 10
5477.673057123662
 20
2947.025570836417
 30
0.0
 11
7901.673057123665
 21
2947.025570836417
 31
0.0
  0
LINE
  5
15D30
330
747D
100
AcDbEntity
  8
細線
100
AcDbLine
 10
5477.673057123662
 20
3012.025570836417
 30
0.0
 11
7901.673057123665
 21
3012.025570836417
 31
0.0
  0
LINE
  5
15D31
330
747D
100
AcDbEntity
  8
細線
100
AcDbLine
 10
5477.673057123662
 20
3077.025570836417
 30
0.0
 11
7901.673057123665
 21
3077.025570836417
 31
0.0
  0
LINE
  5
15D32
330
747D
100
AcDbEntity
  8
細線
100
AcDbLine
 10
5477.673057123662
 20
3142.025570836417
 30
0.0
 11
7901.673057123665
 21
3142.025570836417
 31
0.0
  0
LINE
  5
15D33
330
747D
100
AcDbEntity
  8
細線
100
AcDbLine
 10
5477.673057123662
 20
3857.025570836416
 30
0.0
 11
7901.673057123665
 21
3857.025570836416
 31
0.0
  0
LINE
  5
15D34
330
747D
100
AcDbEntity
  8
細線
100
AcDbLine
 10
5477.673057123662
 20
3922.025570836416
 30
0.0
 11
7901.673057123665
 21
3922.025570836416
 31
0.0
  0
LINE
  5
15D35
330
747D
100
AcDbEntity
  8
細線
100
AcDbLine
 10
5477.673057123662
 20
3792.025570836417
 30
0.0
 11
7901.673057123665
 21
3792.025570836417
 31
0.0
  0
LINE
  5
15D36
330
747D
100
AcDbEntity
  8
細線
100
AcDbLine
 10
5477.673057123662
 20
1972.025570836416
 30
0.0
 11
7901.673057123665
 21
1972.025570836416
 31
0.0
  0
LINE
  5
15D37
330
747D
100
AcDbEntity
  8
細線
100
AcDbLine
 10
5477.673057123662
 20
2037.025570836417
 30
0.0
 11
7901.673057123665
 21
2037.025570836417
 31
0.0
  0
LINE
  5
15D38
330
747D
100
AcDbEntity
  8
細線
100
AcDbLine
 10
5477.673057123662
 20
2102.025570836417
 30
0.0
 11
7901.673057123665
 21
2102.025570836417
 31
0.0
  0
LINE
  5
15D39
330
747D
100
AcDbEntity
  8
細線
100
AcDbLine
 10
5477.673057123662
 20
2167.025570836417
 30
0.0
 11
7901.673057123665
 21
2167.025570836417
 31
0.0
  0
LINE
  5
15D3A
330
747D
100
AcDbEntity
  8
細線
100
AcDbLine
 10
5477.673057123662
 20
2232.025570836416
 30
0.0
 11
7901.673057123665
 21
2232.025570836416
 31
0.0
  0
LINE
  5
15D3B
330
747D
100
AcDbEntity
  8
細線
100
AcDbLine
 10
5477.673057123662
 20
2297.025570836417
 30
0.0
 11
7901.673057123665
 21
2297.025570836417
 31
0.0
  0
LINE
  5
15D3C
330
747D
100
AcDbEntity
  8
細線
100
AcDbLine
 10
5477.673057123662
 20
2362.025570836417
 30
0.0
 11
7901.673057123665
 21
2362.025570836417
 31
0.0
  0
LINE
  5
15D3D
330
747D
100
AcDbEntity
  8
細線
100
AcDbLine
 10
5477.673057123662
 20
2427.025570836417
 30
0.0
 11
7901.673057123665
 21
2427.025570836417
 31
0.0
  0
LINE
  5
15D3E
330
747D
100
AcDbEntity
  8
細線
100
AcDbLine
 10
5477.673057123662
 20
2492.025570836417
 30
0.0
 11
7901.673057123665
 21
2492.025570836417
 31
0.0
  0
LINE
  5
15D3F
330
747D
100
AcDbEntity
  8
細線
100
AcDbLine
 10
7901.673057123666
 20
1972.025570836416
 30
0.0
 11
5477.67305712366
 21
1972.025570836416
 31
0.0
  0
DIMENSION
  5
162CD
330
747D
100
AcDbEntity
  8
寸法
100
AcDbDimension
  2
*D1
 10
8652.099402858079
 20
7076.063983491557
 30
0.0
 11
8552.087591834455
 21
8756.063983491563
 31
0.0
 70
    32
  1
8X420=<>
 71
     5
 42
3360.000000000011
  3
INABA_S40G
100
AcDbAlignedDimension
 13
8004.673057123673
 23
10436.06398349157
 33
0.0
 14
8004.673057123648
 24
7076.063983491557
 34
0.0
 50
90.0
100
AcDbRotatedDimension
1001
ACAD
1000
DSTYLE
1002
{
1002
}
  0
DIMENSION
  5
162CE
330
747D
100
AcDbEntity
  8
寸法
100
AcDbDimension
  2
*D2
 10
8652.099402858059
 20
7021.06398349156
 30
0.0
 11
8652.099402858057
 21
6643.202516586697
 31
0.0
 70
   160
 71
     5
 42
54.99999999999727
  3
INABA_S40G
100
AcDbAlignedDimension
 13
8004.673057123648
 23
7076.063983491557
 33
0.0
 14
8004.673057123648
 24
7021.06398349156
 34
0.0
 50
90.0
100
AcDbRotatedDimension
1001
ACAD
1000
DSTYLE
1002
{
1002
}
  0
DIMENSION
  5
162CF
330
747D
100
AcDbEntity
  8
寸法
100
AcDbDimension
  2
*D3
 10
8652.099402858084
 20
10436.06398349157
 30
0.0
 11
8652.099402858082
 21
10799.54926486581
 31
0.0
 70
   160
 71
     5
 42
55.0
  3
INABA_S40G
100
AcDbAlignedDimension
 13
8004.673057123673
 23
10491.06398349157
 33
0.0
 14
8004.673057123673
 24
10436.06398349157
 34
0.0
 50
90.0
100
AcDbRotatedDimension
1001
ACAD
1000
DSTYLE
1002
{
1002
}
  0
DIMENSION
  5
162D0
330
747D
100
AcDbEntity
  8
寸法
100
AcDbDimension
  2
*D4
 10
9017.206344597719
 20
7021.06398349156
 30
0.0
 11
8917.206344597717
 21
8756.063983491566
 31
0.0
 70
    32
 71
     5
 42
3470.000000000008
  3
INABA_S40G
100
AcDbAlignedDimension
 13
8004.673057123673
 23
10491.06398349157
 33
0.0
 14
8004.673057123648
 24
7021.06398349156
 34
0.0
 50
90.0
100
AcDbRotatedDimension
1001
ACAD
1000
DSTYLE
1002
{
1002
}
  0
LINE
  5
162DC
330
747D
100
AcDbEntity
  8
部品1
100
AcDbLine
 10
7976.673057123656
 20
10463.06398349156
 30
0.0
 11
7976.673057123649
 21
7076.063983491557
 31
0.0
  0
LINE
  5
162DD
330
747D
100
AcDbEntity
  8
部品1
100
AcDbLine
 10
2772.673057123648
 20
7076.063983491427
 30
0.0
 11
2772.673057123659
 21
10463.06398349147
 31
0.0
  0
LINE
  5
162DE
330
747D
100
AcDbEntity
  8
部品1
100
AcDbLine
 10
8004.673057123673
 20
10491.06398349157
 30
0.0
 11
8004.673057123648
 21
7021.06398349156
 31
0.0
  0
LINE
  5
162DF
330
747D
100
AcDbEntity
  8
部品1
100
AcDbLine
 10
2744.673057123637
 20
10491.06398349143
 30
0.0
 11
2744.673057123666
 21
7021.063983491427
 31
0.0
  0
DIMENSION
  5
162E4
330
747D
100
AcDbEntity
  8
寸法
 48
50.0
100
AcDbDimension
  2
*D5
 10
5477.673057123666
 20
6486.633212725305
 30
0.0
 11
6689.673057123657
 21
6586.645023748926
 31
0.0
 70
    32
  1
有効開口部間口 <>
 71
     5
 42
2423.999999999982
  3
INABA_S40G
100
AcDbAlignedDimension
 13
7901.673057123648
 23
7047.063983491471
 33
0.0
 14
5477.673057123666
 24
7047.063983491468
 34
0.0
100
AcDbRotatedDimension
1001
ACAD
1000
DSTYLE
1002
{
1070
    75
1070
     1
1070
   279
1070
     2
1002
}
  0
LINE
  5
162E6
330
747D
100
AcDbEntity
  8
部品1
 48
50.0
100
AcDbLine
 10
5441.673057123665
 20
7066.563983491467
 30
0.0
 11
7937.67305712365
 21
7066.563983491467
 31
0.0
  0
DIMENSION
  5
162E7
330
747D
100
AcDbEntity
  8
寸法
100
AcDbDimension
  2
*D6
 10
8004.673057123637
 20
6040.460217134429
 30
0.0
 11
5374.673057123651
 21
6140.47202815805
 31
0.0
 70
    32
 71
     5
 42
5259.999999999971
  3
INABA_S40G
100
AcDbAlignedDimension
 13
2744.673057123666
 23
7021.063983491465
 33
0.0
 14
8004.673057123637
 24
7021.06398349156
 34
0.0
100
AcDbRotatedDimension
1001
ACAD
1000
DSTYLE
1002
{
1002
}
  0
LINE
  5
162E8
330
747D
100
AcDbEntity
  8
部品1
100
AcDbLine
 10
2799.673057123644
 20
10436.06398349149
 30
0.0
 11
2799.673057123666
 21
7086.063983491469
 31
0.0
  0
LINE
  5
162E9
330
747D
100
AcDbEntity
  8
部品1
100
AcDbLine
 10
2824.673057123644
 20
10436.06398349149
 30
0.0
 11
2824.673057123666
 21
7086.063983491469
 31
0.0
  0
DIMENSION
  5
162EA
330
747D
100
AcDbEntity
  8
寸法
 48
50.0
100
AcDbDimension
  2
*D7
 10
2744.673057123666
 20
6486.633212725305
 30
0.0
 11
2436.187775749427
 21
6486.633212725305
 31
0.0
 70
   160
 71
     5
 42
54.99999999999636
  3
INABA_S40G
100
AcDbAlignedDimension
 13
2799.673057123662
 23
7021.063983491469
 33
0.0
 14
2744.673057123666
 24
7021.063983491465
 34
0.0
100
AcDbRotatedDimension
1001
ACAD
1000
DSTYLE
1002
{
1002
}
  0
DIMENSION
  5
162EB
330
747D
100
AcDbEntity
  8
寸法
 48
50.0
100
AcDbDimension
  2
*D8
 10
5429.673057123662
 20
6486.633212725305
 30
0.0
 11
5590.575028123723
 21
6586.633212725304
 31
0.0
 70
   160
 71
     5
 42
48.00000000000363
  3
INABA_S40G
100
AcDbAlignedDimension
 13
5477.673057123666
 23
7047.063983491468
 33
0.0
 14
5429.673057123662
 24
7021.063983491469
 34
0.0
100
AcDbRotatedDimension
1001
ACAD
1000
DSTYLE
1002
{
1070
   279
1070
     2
1002
}
  0
LINE
  5
162EC
330
747D
100
AcDbEntity
  8
部品1
100
AcDbLine
 10
2799.673057123662
 20
7021.063983491469
 30
0.0
 11
2744.673057123666
 21
7021.063983491465
 31
0.0
  0
LINE
  5
162ED
330
747D
100
AcDbEntity
  8
部品1
 48
50.0
100
AcDbLine
 10
2799.673057123666
 20
7057.063983491467
 30
0.0
 11
2776.673057123666
 21
7057.063983491467
 31
0.0
  0
LINE
  5
162EE
330
747D
100
AcDbEntity
  8
部品1
 48
50.0
100
AcDbLine
 10
2809.673057123666
 20
7047.063983491468
 30
0.0
 11
2799.673057123666
 21
7026.06398349147
 31
0.0
  0
LINE
  5
162EF
330
747D
100
AcDbEntity
  8
部品1
 48
50.0
100
AcDbLine
 10
2799.673057123666
 20
7086.063983491469
 30
0.0
 11
2799.673057123662
 21
7021.063983491469
 31
0.0
  0
LINE
  5
162F0
330
747D
100
AcDbEntity
  8
部品1
 48
50.0
100
AcDbLine
 10
2847.673057123666
 20
7047.063983491471
 30
0.0
 11
2847.673057123666
 21
7056.063983491469
 31
0.0
  0
LINE
  5
162F1
330
747D
100
AcDbEntity
  8
部品1
 48
50.0
100
AcDbLine
 10
2847.673057123666
 20
7086.063983491469
 30
0.0
 11
2847.673057123666
 21
7077.063983491469
 31
0.0
  0
LINE
  5
162F2
330
747D
100
AcDbEntity
  8
部品1
100
AcDbLine
 10
2847.673057123666
 20
7086.063983491469
 30
0.0
 11
2799.673057123666
 21
7086.063983491469
 31
0.0
  0
LINE
  5
162F3
330
747D
100
AcDbEntity
  8
部品1
100
AcDbLine
 10
2847.673057123666
 20
7047.063983491471
 30
0.0
 11
2799.673057123666
 21
7047.063983491468
 31
0.0
  0
LINE
  5
162F4
330
747D
100
AcDbEntity
  8
部品1
100
AcDbLine
 10
2799.673057123666
 20
7057.063983491467
 30
0.0
 11
2776.673057123666
 21
7057.063983491467
 31
0.0
  0
LINE
  5
162F5
330
747D
100
AcDbEntity
  8
部品1
100
AcDbLine
 10
2799.673057123666
 20
7076.063983491393
 30
0.0
 11
2744.673057123664
 21
7076.063983491393
 31
0.0
  0
LINE
  5
162F6
330
747D
100
AcDbEntity
  8
部品1
100
AcDbLine
 10
2772.673057123648
 20
7076.063983491429
 30
0.0
 11
2744.673057123664
 21
7076.063983491429
 31
0.0
  0
LINE
  5
162F7
330
747D
100
AcDbEntity
  8
部品1
100
AcDbLine
 10
2772.673057123664
 20
7076.063983491444
 30
0.0
 11
2744.673057123664
 21
7076.063983491444
 31
0.0
  0
LINE
  5
162FB
330
747D
100
AcDbEntity
  8
部品1
100
AcDbLine
 10
2772.673057123653
 20
7496.063983491443
 30
0.0
 11
2744.673057123652
 21
7496.063983491443
 31
0.0
  0
LINE
  5
162FC
330
747D
100
AcDbEntity
  8
部品1
100
AcDbLine
 10
2772.673057123653
 20
7916.063983491444
 30
0.0
 11
2744.673057123652
 21
7916.063983491444
 31
0.0
  0
LINE
  5
162FE
330
747D
100
AcDbEntity
  8
部品1
100
AcDbLine
 10
2772.673057123648
 20
8336.063983491444
 30
0.0
 11
2744.673057123648
 21
8336.063983491444
 31
0.0
  0
LINE
  5
162FF
330
747D
100
AcDbEntity
  8
部品1
100
AcDbLine
 10
7949.673057123671
 20
10436.06398349149
 30
0.0
 11
7949.673057123648
 21
7021.063983491557
 31
0.0
  0
LINE
  5
16300
330
747D
100
AcDbEntity
  8
部品1
100
AcDbLine
 10
7924.673057123674
 20
10436.06398349149
 30
0.0
 11
7924.673057123651
 21
7086.063983491469
 31
0.0
  0
DIMENSION
  5
16301
330
747D
100
AcDbEntity
  8
寸法
 48
50.0
100
AcDbDimension
  2
*D9
 10
7901.673057123648
 20
6486.633212725305
 30
0.0
 11
7790.710159474901
 21
6586.633212725304
 31
0.0
 70
   160
 71
     5
 42
48.0
  3
INABA_S40G
100
AcDbAlignedDimension
 13
7949.673057123648
 23
7021.063983491557
 33
0.0
 14
7901.673057123648
 24
7047.063983491471
 34
0.0
100
AcDbRotatedDimension
1001
ACAD
1000
DSTYLE
1002
{
1070
   279
1070
     2
1002
}
  0
DIMENSION
  5
16302
330
747D
100
AcDbEntity
  8
寸法
 48
50.0
100
AcDbDimension
  2
*D10
 10
7949.673057123648
 20
6486.633212725306
 30
0.0
 11
8313.158338497888
 21
6486.633212725306
 31
0.0
 70
   160
 71
     5
 42
55.0
  3
INABA_S40G
100
AcDbAlignedDimension
 13
8004.673057123648
 23
7021.06398349156
 33
0.0
 14
7949.673057123648
 24
7021.063983491557
 34
0.0
100
AcDbRotatedDimension
1001
ACAD
1000
DSTYLE
1002
{
1002
}
  0
LINE
  5
16303
330
747D
100
AcDbEntity
  8
部品1
 48
50.0
100
AcDbLine
 10
7939.673057123648
 20
7047.063983491468
 30
0.0
 11
7949.673057123648
 21
7026.06398349147
 31
0.0
  0
LINE
  5
16304
330
747D
100
AcDbEntity
  8
部品1
100
AcDbLine
 10
7901.673057123648
 20
7086.063983491469
 30
0.0
 11
7949.673057123648
 21
7086.063983491469
 31
0.0
  0
LINE
  5
16305
330
747D
100
AcDbEntity
  8
部品1
100
AcDbLine
 10
7901.673057123648
 20
7047.063983491471
 30
0.0
 11
7949.673057123648
 21
7047.063983491468
 31
0.0
  0
LINE
  5
16306
330
747D
100
AcDbEntity
  8
部品1
 48
50.0
100
AcDbLine
 10
7901.673057123648
 20
7086.063983491469
 30
0.0
 11
7901.673057123648
 21
7077.063983491469
 31
0.0
  0
LINE
  5
16307
330
747D
100
AcDbEntity
  8
部品1
 48
50.0
100
AcDbLine
 10
7901.673057123648
 20
7047.063983491471
 30
0.0
 11
7901.673057123648
 21
7056.063983491469
 31
0.0
  0
LINE
  5
16308
330
747D
100
AcDbEntity
  8
部品1
100
AcDbLine
 10
7949.673057123648
 20
7057.063983491466
 30
0.0
 11
7972.673057123647
 21
7057.063983491467
 31
0.0
  0
LINE
  5
16309
330
747D
100
AcDbEntity
  8
部品1
100
AcDbLine
 10
7949.673057123648
 20
7076.063983491571
 30
0.0
 11
8004.67305712368
 21
7076.063983491571
 31
0.0
  0
LINE
  5
1630A
330
747D
100
AcDbEntity
  8
部品1
100
AcDbLine
 10
8004.673057123648
 20
7021.06398349156
 30
0.0
 11
7949.673057123648
 21
7021.063983491557
 31
0.0
  0
LINE
  5
16317
330
747D
100
AcDbEntity
  8
部品1
100
AcDbLine
 10
7976.673057123678
 20
7496.063983491571
 30
0.0
 11
8004.673057123676
 21
7496.063983491571
 31
0.0
  0
LINE
  5
16319
330
747D
100
AcDbEntity
  8
部品1
100
AcDbLine
 10
7976.673057123678
 20
7916.063983491572
 30
0.0
 11
8004.673057123676
 21
7916.063983491572
 31
0.0
  0
LINE
  5
1631A
330
747D
100
AcDbEntity
  8
部品1
100
AcDbLine
 10
7976.673057123673
 20
8336.063983491571
 30
0.0
 11
8004.673057123673
 21
8336.063983491571
 31
0.0
  0
LINE
  5
1631B
330
747D
100
AcDbEntity
  8
部品1
100
AcDbLine
 10
5402.673057123672
 20
10463.06398349158
 30
0.0
 11
6677.17305712367
 21
10463.06398349158
 31
0.0
  0
DIMENSION
  5
1631F
330
747D
100
AcDbEntity
  8
寸法
100
AcDbDimension
  2
*D11
 10
7949.673057123674
 20
10706.87220311657
 30
0.0
 11
6689.673057123673
 21
10806.88401414019
 31
0.0
 70
    32
  1
6X420=<>
 71
     5
 42
2520.000000000001
  3
INABA_S40G
100
AcDbAlignedDimension
 13
5429.673057123672
 23
10491.06398349146
 33
0.0
 14
7949.673057123674
 24
10491.06398349157
 34
0.0
100
AcDbRotatedDimension
1001
ACAD
1000
DSTYLE
1002
{
1002
}
  0
DIMENSION
  5
16320
330
747D
100
AcDbEntity
  8
寸法
100
AcDbDimension
  2
*D12
 10
2799.673057123672
 20
10706.87220311644
 30
0.0
 11
2436.187775749399
 21
10706.87220311644
 31
0.0
 70
   160
 71
     5
 42
55.0000000000341
  3
INABA_S40G
100
AcDbAlignedDimension
 13
2744.673057123638
 23
10491.06398349146
 33
0.0
 14
2799.673057123672
 24
10491.06398349146
 34
0.0
100
AcDbRotatedDimension
1001
ACAD
1000
DSTYLE
1002
{
1002
}
  0
LINE
  5
16321
330
747D
100
AcDbEntity
  8
部品1
100
AcDbLine
 10
2799.673057123637
 20
10491.06398349143
 30
0.0
 11
2799.673057123639
 21
10463.06398349143
 31
0.0
  0
LINE
  5
16322
330
747D
100
AcDbEntity
  8
部品1
100
AcDbLine
 10
2799.673057123671
 20
10491.06398349146
 30
0.0
 11
2799.673057123671
 21
10463.06398349146
 31
0.0
  0
LINE
  5
16323
330
747D
100
AcDbEntity
  8
部品1
100
AcDbLine
 10
2772.67305712364
 20
10436.06398349145
 30
0.0
 11
2744.673057123641
 21
10436.06398349145
 31
0.0
  0
LINE
  5
16324
330
747D
100
AcDbEntity
  8
部品1
100
AcDbLine
 10
5849.673057123673
 20
10491.06398349159
 30
0.0
 11
5849.673057123673
 21
10463.06398349158
 31
0.0
  0
LINE
  5
16325
330
747D
100
AcDbEntity
  8
部品1
100
AcDbLine
 10
5849.673057123673
 20
10491.06398349146
 30
0.0
 11
5849.673057123673
 21
10463.06398349146
 31
0.0
  0
LINE
  5
16326
330
747D
100
AcDbEntity
  8
部品1
100
AcDbLine
 10
5849.673057123673
 20
10491.06398349146
 30
0.0
 11
5849.673057123673
 21
10463.06398349146
 31
0.0
  0
LINE
  5
16327
330
747D
100
AcDbEntity
  8
部品1
100
AcDbLine
 10
6702.173057123672
 20
10463.06398349158
 30
0.0
 11
7976.673057123673
 21
10463.06398349156
 31
0.0
  0
LINE
  5
16329
330
747D
100
AcDbEntity
  8
部品1
100
AcDbLine
 10
6269.673057123672
 20
10491.06398349159
 30
0.0
 11
6269.673057123672
 21
10463.06398349158
 31
0.0
  0
LINE
  5
1632A
330
747D
100
AcDbEntity
  8
部品1
100
AcDbLine
 10
6269.673057123672
 20
10491.06398349146
 30
0.0
 11
6269.673057123672
 21
10463.06398349146
 31
0.0
  0
LINE
  5
1632B
330
747D
100
AcDbEntity
  8
部品1
100
AcDbLine
 10
6269.673057123672
 20
10491.06398349146
 30
0.0
 11
6269.673057123672
 21
10463.06398349146
 31
0.0
  0
LINE
  5
1632C
330
747D
100
AcDbEntity
  8
部品1
100
AcDbLine
 10
6689.67305712367
 20
10491.06398349159
 30
0.0
 11
6689.67305712367
 21
10463.06398349158
 31
0.0
  0
LINE
  5
1632D
330
747D
100
AcDbEntity
  8
部品1
100
AcDbLine
 10
6677.17305712367
 20
10455.06398349157
 30
0.0
 11
6702.173057123672
 21
10455.06398349157
 31
0.0
  0
LINE
  5
1632E
330
747D
100
AcDbEntity
  8
部品1
100
AcDbLine
 10
6718.673057123672
 20
10481.06398349157
 30
0.0
 11
6724.673057123673
 21
10481.06398349157
 31
0.0
  0
LINE
  5
1632F
330
747D
100
AcDbEntity
  8
部品1
100
AcDbLine
 10
6724.673057123673
 20
10481.06398349157
 30
0.0
 11
6724.673057123673
 21
10463.06398349157
 31
0.0
  0
LINE
  5
16330
330
747D
100
AcDbEntity
  8
部品1
100
AcDbLine
 10
6654.673057123672
 20
10481.06398349157
 30
0.0
 11
6660.673057123672
 21
10481.06398349157
 31
0.0
  0
LINE
  5
16331
330
747D
100
AcDbEntity
  8
部品1
100
AcDbLine
 10
6654.673057123672
 20
10481.06398349157
 30
0.0
 11
6654.673057123672
 21
10463.06398349157
 31
0.0
  0
DIMENSION
  5
16333
330
747D
100
AcDbEntity
  8
寸法
100
AcDbDimension
  2
*D13
 10
8004.673057123673
 20
10706.87220311654
 30
0.0
 11
8313.158338497913
 21
10706.87220311654
 31
0.0
 70
   160
 71
     5
 42
55.0
  3
INABA_S40G
100
AcDbAlignedDimension
 13
7949.673057123674
 23
10491.06398349157
 33
0.0
 14
8004.673057123673
 24
10491.06398349157
 34
0.0
100
AcDbRotatedDimension
1001
ACAD
1000
DSTYLE
1002
{
1002
}
  0
LINE
  5
16334
330
747D
100
AcDbEntity
  8
部品1
100
AcDbLine
 10
7109.673057123671
 20
10491.06398349159
 30
0.0
 11
7109.673057123671
 21
10463.06398349158
 31
0.0
  0
LINE
  5
16335
330
747D
100
AcDbEntity
  8
部品1
100
AcDbLine
 10
7949.673057123674
 20
10491.06398349157
 30
0.0
 11
7949.673057123674
 21
10463.06398349156
 31
0.0
  0
LINE
  5
16336
330
747D
100
AcDbEntity
  8
部品1
100
AcDbLine
 10
7949.673057123674
 20
10491.06398349159
 30
0.0
 11
7949.673057123674
 21
10463.06398349158
 31
0.0
  0
LINE
  5
16337
330
747D
100
AcDbEntity
  8
部品1
100
AcDbLine
 10
7976.673057123673
 20
10436.06398349157
 30
0.0
 11
8004.673057123673
 21
10436.06398349157
 31
0.0
  0
LINE
  5
1655C
330
747D
100
AcDbEntity
  8
部品1
100
AcDbLine
 10
5271.673057123667
 20
3937.025570836418
 30
0.0
 11
5271.673057123663
 21
1962.025570836416
 31
0.0
  0
LINE
  5
1655D
330
747D
100
AcDbEntity
  8
部品1
100
AcDbLine
 10
5319.673057123665
 20
3937.025570836417
 30
0.0
 11
5319.673057123664
 21
1962.025570836416
 31
0.0
  0
LINE
  5
1655E
330
747D
100
AcDbEntity
  8
破線
 48
5.0
100
AcDbLine
 10
5271.673057123663
 20
1962.025570836416
 30
0.0
 11
5271.673057123666
 21
1712.025570836416
 31
0.0
  0
LINE
  5
1655F
330
747D
100
AcDbEntity
  8
破線
 48
5.0
100
AcDbLine
 10
5319.673057123669
 20
1712.025570836416
 30
0.0
 11
5271.673057123666
 21
1712.025570836416
 31
0.0
  0
LINE
  5
16560
330
747D
100
AcDbEntity
  8
破線
 48
5.0
100
AcDbLine
 10
5319.673057123664
 20
1962.025570836416
 30
0.0
 11
5319.673057123665
 21
1687.025570836416
 31
0.0
  0
LINE
  5
16561
330
747D
100
AcDbEntity
  8
破線
 48
5.0
100
AcDbLine
 10
5429.673057123665
 20
1687.025570836416
 30
0.0
 11
5319.673057123665
 21
1687.025570836416
 31
0.0
  0
LINE
  5
16562
330
747D
100
AcDbEntity
  8
部品1
100
AcDbLine
 10
5477.673057123666
 20
3937.025570836417
 30
0.0
 11
5477.673057123666
 21
1962.025570836416
 31
0.0
  0
LINE
  5
16563
330
747D
100
AcDbEntity
  8
破線
 48
5.0
100
AcDbLine
 10
5477.673057123666
 20
1962.025570836416
 30
0.0
 11
5477.673057123665
 21
1712.025570836422
 31
0.0
  0
LINE
  5
16564
330
747D
100
AcDbEntity
  8
破線
 48
5.0
100
AcDbLine
 10
5477.673057123664
 20
1712.025570836422
 30
0.0
 11
5429.673057123665
 21
1712.025570836422
 31
0.0
  0
LINE
  5
16565
330
747D
100
AcDbEntity
  8
破線
 48
5.0
100
AcDbLine
 10
5429.673057123665
 20
1962.025570836416
 30
0.0
 11
5429.673057123665
 21
1687.025570836416
 31
0.0
  0
LINE
  5
16566
330
747D
100
AcDbEntity
  8
部品1
100
AcDbLine
 10
5429.673057123665
 20
3937.025570836417
 30
0.0
 11
5429.673057123665
 21
1962.025570836416
 31
0.0
  0
LINE
  5
16567
330
747D
100
AcDbEntity
  8
部品1
100
AcDbLine
 10
5429.673057123665
 20
3937.025570836417
 30
0.0
 11
8004.673057123666
 21
3937.025570836418
 31
0.0
  0
DIMENSION
  5
1659A
330
747D
100
AcDbEntity
  8
寸法
 48
50.0
100
AcDbDimension
  2
*D15
 10
5271.673057123646
 20
6486.633212725305
 30
0.0
 11
5160.7101594749
 21
6586.633212725304
 31
0.0
 70
   160
 71
     5
 42
48.00000000000273
  3
INABA_S40G
100
AcDbAlignedDimension
 13
5319.673057123649
 23
7021.063983491557
 33
0.0
 14
5271.673057123646
 24
7047.063983491471
 34
0.0
100
AcDbRotatedDimension
1001
ACAD
1000
DSTYLE
1002
{
1070
   279
1070
     2
1002
}
  0
DIMENSION
  5
1659C
330
747D
100
AcDbEntity
  8
寸法
 48
50.0
100
AcDbDimension
  2
*D14
 10
2799.673057123662
 20
6486.633212725305
 30
0.0
 11
2960.575028123724
 21
6586.633212725304
 31
0.0
 70
   160
 71
     5
 42
48.00000000000363
  3
INABA_S40G
100
AcDbAlignedDimension
 13
2847.673057123666
 23
7047.063983491468
 33
0.0
 14
2799.673057123662
 24
7021.063983491469
 34
0.0
100
AcDbRotatedDimension
1001
ACAD
1000
DSTYLE
1002
{
1070
   279
1070
     2
1002
}
  0
DIMENSION
  5
165E9
330
747D
100
AcDbEntity
  8
寸法
 48
50.0
100
AcDbDimension
  2
*D16
 10
5319.673057123649
 20
6486.633212725306
 30
0.0
 11
5374.673057123656
 21
6334.941317689074
 31
0.0
 70
   160
 71
     5
 42
110.0000000000127
  3
INABA_S40G
100
AcDbAlignedDimension
 13
5429.673057123662
 23
7021.063983491469
 33
0.0
 14
5319.673057123649
 24
7021.063983491557
 34
0.0
100
AcDbRotatedDimension
1001
ACAD
1000
DSTYLE
1002
{
1070
   279
1070
     2
1002
}
  0
LINE
  5
16656
330
747D
100
AcDbEntity
  8
部品1
100
AcDbLine
 10
5271.673057123646
 20
7086.063983491469
 30
0.0
 11
5319.673057123649
 21
7086.063983491469
 31
0.0
  0
LINE
  5
16657
330
747D
100
AcDbEntity
  8
部品1
 48
50.0
100
AcDbLine
 10
5271.673057123646
 20
7086.063983491469
 30
0.0
 11
5271.673057123646
 21
7077.063983491469
 31
0.0
  0
LINE
  5
16658
330
747D
100
AcDbEntity
  8
部品1
100
AcDbLine
 10
5271.673057123646
 20
7047.063983491471
 30
0.0
 11
5319.673057123647
 21
7047.063983491468
 31
0.0
  0
LINE
  5
16659
330
747D
100
AcDbEntity
  8
部品1
 48
50.0
100
AcDbLine
 10
5271.673057123646
 20
7047.063983491471
 30
0.0
 11
5271.673057123646
 21
7056.063983491469
 31
0.0
  0
LINE
  5
1665A
330
747D
100
AcDbEntity
  8
部品1
 48
50.0
100
AcDbLine
 10
5309.673057123649
 20
7047.063983491468
 30
0.0
 11
5319.673057123647
 21
7026.06398349147
 31
0.0
  0
LINE
  5
1665B
330
747D
100
AcDbEntity
  8
部品1
100
AcDbLine
 10
5319.673057123647
 20
7057.063983491466
 30
0.0
 11
5342.673057123647
 21
7057.063983491467
 31
0.0
  0
LINE
  5
1665C
330
747D
100
AcDbEntity
  8
部品1
100
AcDbLine
 10
5477.673057123666
 20
7086.063983491469
 30
0.0
 11
5429.673057123665
 21
7086.063983491469
 31
0.0
  0
LINE
  5
1665D
330
747D
100
AcDbEntity
  8
部品1
 48
50.0
100
AcDbLine
 10
5477.673057123666
 20
7086.063983491469
 30
0.0
 11
5477.673057123666
 21
7077.063983491469
 31
0.0
  0
LINE
  5
1665E
330
747D
100
AcDbEntity
  8
部品1
100
AcDbLine
 10
5477.673057123666
 20
7047.063983491471
 30
0.0
 11
5429.673057123665
 21
7047.063983491468
 31
0.0
  0
LINE
  5
1665F
330
747D
100
AcDbEntity
  8
部品1
 48
50.0
100
AcDbLine
 10
5439.673057123666
 20
7047.063983491468
 30
0.0
 11
5429.673057123665
 21
7026.06398349147
 31
0.0
  0
LINE
  5
16660
330
747D
100
AcDbEntity
  8
部品1
100
AcDbLine
 10
5429.673057123665
 20
7057.063983491467
 30
0.0
 11
5406.673057123666
 21
7057.063983491467
 31
0.0
  0
LINE
  5
16661
330
747D
100
AcDbEntity
  8
部品1
 48
50.0
100
AcDbLine
 10
5429.673057123665
 20
7086.063983491469
 30
0.0
 11
5429.673057123662
 21
7021.063983491469
 31
0.0
  0
LINE
  5
16662
330
747D
100
AcDbEntity
  8
部品1
 48
50.0
100
AcDbLine
 10
5477.673057123666
 20
7047.063983491471
 30
0.0
 11
5477.673057123666
 21
7056.063983491469
 31
0.0
  0
LINE
  5
16663
330
747D
100
AcDbEntity
  8
部品1
100
AcDbLine
 10
5429.673057123661
 20
7021.063983491469
 30
0.0
 11
5319.673057123651
 21
7021.063983491464
 31
0.0
  0
LINE
  5
16664
330
747D
100
AcDbEntity
  8
部品1
 48
50.0
100
AcDbLine
 10
5319.673057123655
 20
7086.063983491555
 30
0.0
 11
5319.673057123651
 21
7021.063983491557
 31
0.0
  0
LINE
  5
16666
330
747D
100
AcDbEntity
  8
部品1
100
AcDbLine
 10
5429.673057123672
 20
10491.06398349146
 30
0.0
 11
5429.673057123672
 21
10463.06398349146
 31
0.0
  0
LINE
  5
16692
330
747D
100
AcDbEntity
  8
部品1
100
AcDbLine
 10
5319.673057123673
 20
10491.06398349157
 30
0.0
 11
5319.673057123673
 21
10463.06398349156
 31
0.0
  0
DIMENSION
  5
166DD
330
747D
100
AcDbEntity
  8
寸法
 48
50.0
100
AcDbDimension
  2
*D17
 10
5319.673057123673
 20
10706.87220311657
 30
0.0
 11
5374.673057123673
 21
10806.87220311657
 31
0.0
 70
    32
 71
     5
 42
109.9999999999991
  3
INABA_S40G
100
AcDbAlignedDimension
 13
5429.673057123672
 23
10491.06398349151
 33
0.0
 14
5319.673057123673
 24
10491.06398349151
 34
0.0
100
AcDbRotatedDimension
1001
ACAD
1000
DSTYLE
1002
{
1070
   279
1070
     2
1002
}
  0
LINE
  5
16760
330
747D
100
AcDbEntity
  8
部品1
 48
50.0
100
AcDbLine
 10
5374.673057123636
 20
10463.06398349151
 30
0.0
 11
5346.67305712364
 21
10491.06398349157
 31
0.0
  0
LINE
  5
16761
330
747D
100
AcDbEntity
  8
部品1
100
AcDbLine
 10
7949.673057123671
 20
10436.06398349149
 30
0.0
 11
5429.673057123652
 21
10436.06398349149
 31
0.0
  0
LINE
  5
16762
330
747D
100
AcDbEntity
  8
部品1
 48
50.0
100
AcDbLine
 10
5346.67305712364
 20
10463.06398349161
 30
0.0
 11
5346.67305712364
 21
10491.06398349157
 31
0.0
  0
LINE
  5
16763
330
747D
100
AcDbEntity
  8
部品1
 48
50.0
100
AcDbLine
 10
5346.67305712364
 20
10463.06398349151
 30
0.0
 11
5374.673057123636
 21
10463.06398349151
 31
0.0
  0
LINE
  5
168C3
330
747D
100
AcDbEntity
  8
部品1
100
AcDbLine
 10
5398.673057123658
 20
7076.063983491464
 30
0.0
 11
5350.673057123656
 21
7076.063983491464
 31
0.0
  0
LINE
  5
168C4
330
747D
100
AcDbEntity
  8
部品1
 48
50.0
100
AcDbLine
 10
5350.673057123657
 20
7076.063983491465
 30
0.0
 11
5350.67305712366
 21
7021.063983491465
 31
0.0
  0
LINE
  5
168C5
330
747D
100
AcDbEntity
  8
部品1
 48
50.0
100
AcDbLine
 10
5398.673057123658
 20
7076.063983491465
 30
0.0
 11
5398.673057123659
 21
7021.063983491465
 31
0.0
  0
DIMENSION
  5
16913
330
747D
100
AcDbEntity
  8
寸法
 48
50.0
100
AcDbDimension
  2
*D18
 10
8004.673057123673
 20
10956.19367667286
 30
0.0
 11
6689.673057123673
 21
11056.20548769649
 31
0.0
 70
    32
 71
     5
 42
2630.0
  3
INABA_S40G
100
AcDbAlignedDimension
 13
5374.673057123673
 23
10865.86011747451
 33
0.0
 14
8004.673057123673
 24
10491.06398349157
 34
0.0
100
AcDbRotatedDimension
1001
ACAD
1000
DSTYLE
1002
{
1070
    75
1070
     1
1070
   279
1070
     2
1002
}
  0
LINE
  5
172BC
330
747D
100
AcDbEntity
  8
部品1
 48
50.0
100
AcDbLine
 10
5402.67305712364
 20
10436.06398349149
 30
0.0
 11
5402.673057123706
 21
10491.06398349151
 31
0.0
  0
LINE
  5
172BD
330
747D
100
AcDbEntity
  8
部品1
 48
50.0
100
AcDbLine
 10
5346.67305712364
 20
10436.06398349149
 30
0.0
 11
5346.67305712364
 21
10463.06398349151
 31
0.0
  0
LINE
  5
174C8
330
747D
100
AcDbEntity
  8
部品1
 48
50.0
100
AcDbLine
 10
7924.673057123674
 20
10411.06398349145
 30
0.0
 11
5454.673057123626
 21
10411.06398349141
 31
0.0
  0
LINE
  5
174C9
330
747D
100
AcDbEntity
  8
部品1
 48
50.0
100
AcDbLine
 10
7976.673057123673
 20
10463.06398349156
 30
0.0
 11
7949.673057123671
 21
10436.06398349149
 31
0.0
  0
LINE
  5
174CA
330
747D
100
AcDbEntity
  8
部品1
 48
50.0
100
AcDbLine
 10
2799.673057123644
 20
10436.06398349149
 30
0.0
 11
2772.673057123659
 21
10463.06398349158
 31
0.0
  0
LINE
  5
174CB
330
747D
100
AcDbEntity
  8
部品1
 48
50.0
100
AcDbLine
 10
6677.17305712367
 20
10455.06398349157
 30
0.0
 11
6677.17305712367
 21
10463.06398349158
 31
0.0
  0
LINE
  5
174CC
330
747D
100
AcDbEntity
  8
部品1
 48
50.0
100
AcDbLine
 10
6702.173057123672
 20
10455.06398349157
 30
0.0
 11
6702.173057123672
 21
10463.06398349158
 31
0.0
  0
LINE
  5
17B10
330
747D
100
AcDbEntity
  8
細線
100
AcDbLine
 10
5271.673057123666
 20
1972.025570836416
 30
0.0
 11
2847.673057123661
 21
1972.025570836416
 31
0.0
  0
LINE
  5
17B1E
330
747D
100
AcDbEntity
  8
細線
100
AcDbLine
 10
2847.673057123662
 20
3597.025570836417
 30
0.0
 11
5271.673057123663
 21
3597.025570836417
 31
0.0
  0
LINE
  5
17B1F
330
747D
100
AcDbEntity
  8
細線
100
AcDbLine
 10
2847.673057123662
 20
3662.025570836417
 30
0.0
 11
5271.673057123663
 21
3662.025570836417
 31
0.0
  0
LINE
  5
17B20
330
747D
100
AcDbEntity
  8
細線
100
AcDbLine
 10
2847.673057123662
 20
3727.025570836417
 30
0.0
 11
5271.673057123663
 21
3727.025570836417
 31
0.0
  0
LINE
  5
17B21
330
747D
100
AcDbEntity
  8
細線
100
AcDbLine
 10
2847.673057123662
 20
3207.025570836417
 30
0.0
 11
5271.673057123663
 21
3207.025570836417
 31
0.0
  0
LINE
  5
17B22
330
747D
100
AcDbEntity
  8
細線
100
AcDbLine
 10
2847.673057123662
 20
3272.025570836416
 30
0.0
 11
5271.673057123663
 21
3272.025570836416
 31
0.0
  0
LINE
  5
17B23
330
747D
100
AcDbEntity
  8
細線
100
AcDbLine
 10
2847.673057123662
 20
3337.025570836417
 30
0.0
 11
5271.673057123663
 21
3337.025570836417
 31
0.0
  0
LINE
  5
17B24
330
747D
100
AcDbEntity
  8
細線
100
AcDbLine
 10
2847.673057123662
 20
3402.025570836417
 30
0.0
 11
5271.673057123663
 21
3402.025570836417
 31
0.0
  0
LINE
  5
17B25
330
747D
100
AcDbEntity
  8
細線
100
AcDbLine
 10
2847.673057123662
 20
3467.025570836418
 30
0.0
 11
5271.673057123663
 21
3467.025570836418
 31
0.0
  0
LINE
  5
17B26
330
747D
100
AcDbEntity
  8
細線
100
AcDbLine
 10
2847.673057123662
 20
3532.025570836417
 30
0.0
 11
5271.673057123663
 21
3532.025570836417
 31
0.0
  0
LINE
  5
17B27
330
747D
100
AcDbEntity
  8
細線
100
AcDbLine
 10
2847.673057123662
 20
2557.025570836418
 30
0.0
 11
5271.673057123663
 21
2557.025570836418
 31
0.0
  0
LINE
  5
17B28
330
747D
100
AcDbEntity
  8
細線
100
AcDbLine
 10
2847.673057123662
 20
2622.025570836417
 30
0.0
 11
5271.673057123663
 21
2622.025570836417
 31
0.0
  0
LINE
  5
17B29
330
747D
100
AcDbEntity
  8
細線
100
AcDbLine
 10
2847.673057123662
 20
2687.025570836417
 30
0.0
 11
5271.673057123663
 21
2687.025570836417
 31
0.0
  0
LINE
  5
17B2A
330
747D
100
AcDbEntity
  8
細線
100
AcDbLine
 10
2847.673057123662
 20
2752.025570836417
 30
0.0
 11
5271.673057123663
 21
2752.025570836417
 31
0.0
  0
LINE
  5
17B2B
330
747D
100
AcDbEntity
  8
細線
100
AcDbLine
 10
2847.673057123662
 20
2817.025570836417
 30
0.0
 11
5271.673057123663
 21
2817.025570836417
 31
0.0
  0
LINE
  5
17B2C
330
747D
100
AcDbEntity
  8
細線
100
AcDbLine
 10
2847.673057123662
 20
2882.025570836417
 30
0.0
 11
5271.673057123663
 21
2882.025570836417
 31
0.0
  0
LINE
  5
17B2D
330
747D
100
AcDbEntity
  8
細線
100
AcDbLine
 10
2847.673057123662
 20
2947.025570836417
 30
0.0
 11
5271.673057123663
 21
2947.025570836417
 31
0.0
  0
LINE
  5
17B2E
330
747D
100
AcDbEntity
  8
細線
100
AcDbLine
 10
2847.673057123662
 20
3012.025570836417
 30
0.0
 11
5271.673057123663
 21
3012.025570836417
 31
0.0
  0
LINE
  5
17B2F
330
747D
100
AcDbEntity
  8
細線
100
AcDbLine
 10
2847.673057123662
 20
3077.025570836417
 30
0.0
 11
5271.673057123663
 21
3077.025570836417
 31
0.0
  0
LINE
  5
17B30
330
747D
100
AcDbEntity
  8
細線
100
AcDbLine
 10
2847.673057123662
 20
3142.025570836417
 30
0.0
 11
5271.673057123663
 21
3142.025570836417
 31
0.0
  0
LINE
  5
17B31
330
747D
100
AcDbEntity
  8
細線
100
AcDbLine
 10
2847.673057123662
 20
3857.025570836416
 30
0.0
 11
5271.673057123663
 21
3857.025570836416
 31
0.0
  0
LINE
  5
17B32
330
747D
100
AcDbEntity
  8
細線
100
AcDbLine
 10
2847.673057123662
 20
3792.025570836417
 30
0.0
 11
5271.673057123663
 21
3792.025570836417
 31
0.0
  0
LINE
  5
17B33
330
747D
100
AcDbEntity
  8
細線
100
AcDbLine
 10
2847.673057123662
 20
2037.025570836417
 30
0.0
 11
5271.673057123663
 21
2037.025570836417
 31
0.0
  0
LINE
  5
17B34
330
747D
100
AcDbEntity
  8
細線
100
AcDbLine
 10
2847.673057123662
 20
2102.025570836417
 30
0.0
 11
5271.673057123663
 21
2102.025570836417
 31
0.0
  0
LINE
  5
17B35
330
747D
100
AcDbEntity
  8
細線
100
AcDbLine
 10
2847.673057123662
 20
2167.025570836417
 30
0.0
 11
5271.673057123663
 21
2167.025570836417
 31
0.0
  0
LINE
  5
17B36
330
747D
100
AcDbEntity
  8
細線
100
AcDbLine
 10
2847.673057123662
 20
2232.025570836416
 30
0.0
 11
5271.673057123663
 21
2232.025570836416
 31
0.0
  0
LINE
  5
17B37
330
747D
100
AcDbEntity
  8
細線
100
AcDbLine
 10
2847.673057123662
 20
2297.025570836417
 30
0.0
 11
5271.673057123663
 21
2297.025570836417
 31
0.0
  0
LINE
  5
17B38
330
747D
100
AcDbEntity
  8
細線
100
AcDbLine
 10
2847.673057123662
 20
2362.025570836417
 30
0.0
 11
5271.673057123663
 21
2362.025570836417
 31
0.0
  0
LINE
  5
17B39
330
747D
100
AcDbEntity
  8
細線
100
AcDbLine
 10
2847.673057123662
 20
2427.025570836417
 30
0.0
 11
5271.673057123663
 21
2427.025570836417
 31
0.0
  0
LINE
  5
17B3A
330
747D
100
AcDbEntity
  8
細線
100
AcDbLine
 10
2847.673057123662
 20
2492.025570836417
 30
0.0
 11
5271.673057123663
 21
2492.025570836417
 31
0.0
  0
LINE
  5
17B3D
330
747D
100
AcDbEntity
  8
細線
100
AcDbLine
 10
2847.673057123662
 20
3922.025570836416
 30
0.0
 11
5271.673057123663
 21
3922.025570836416
 31
0.0
  0
LINE
  5
17B5A
330
747D
100
AcDbEntity
  8
部品1
100
AcDbLine
 10
2744.673057123666
 20
3937.025570836416
 30
0.0
 11
5429.673057123665
 21
3937.025570836418
 31
0.0
  0
DIMENSION
  5
17B86
330
747D
100
AcDbEntity
  8
寸法
 48
50.0
100
AcDbDimension
  2
*D21
 10
5374.673057123673
 20
10956.19367667286
 30
0.0
 11
4059.673057123656
 21
11056.20548769649
 31
0.0
 70
    32
 71
     5
 42
2630.000000000036
  3
INABA_S40G
100
AcDbAlignedDimension
 13
2744.673057123638
 23
10491.06398349143
 33
0.0
 14
5374.673057123673
 24
10865.86011747451
 34
0.0
100
AcDbRotatedDimension
1001
ACAD
1000
DSTYLE
1002
{
1070
   279
1070
     2
1002
}
  0
DIMENSION
  5
17B87
330
747D
100
AcDbEntity
  8
寸法
100
AcDbDimension
  2
*D20
 10
5319.673057123673
 20
10706.87220311657
 30
0.0
 11
4059.673057123672
 21
10806.88401414019
 31
0.0
 70
    32
  1
6X420=<>
 71
     5
 42
2520.000000000001
  3
INABA_S40G
100
AcDbAlignedDimension
 13
2799.673057123672
 23
10491.06398349146
 33
0.0
 14
5319.673057123673
 24
10491.06398349157
 34
0.0
100
AcDbRotatedDimension
1001
ACAD
1000
DSTYLE
1002
{
1002
}
  0
LINE
  5
17B8B
330
747D
100
AcDbEntity
  8
部品1
 48
50.0
100
AcDbLine
 10
5294.673057123643
 20
10411.06398349139
 30
0.0
 11
2824.673057123644
 21
10411.06398349139
 31
0.0
  0
LINE
  5
17BC2
330
747D
100
AcDbEntity
  8
部品1
 48
50.0
100
AcDbLine
 10
2811.673057123666
 20
7066.563983491467
 30
0.0
 11
5307.673057123651
 21
7066.563983491467
 31
0.0
  0
DIMENSION
  5
17BC3
330
747D
100
AcDbEntity
  8
寸法
 48
50.0
100
AcDbDimension
  2
*D19
 10
2847.673057123666
 20
6486.633212725305
 30
0.0
 11
4059.673057123656
 21
6586.645023748926
 31
0.0
 70
    32
  1
有効開口部間口 <>
 71
     5
 42
2423.999999999981
  3
INABA_S40G
100
AcDbAlignedDimension
 13
5271.673057123646
 23
7047.063983491471
 33
0.0
 14
2847.673057123666
 24
7047.063983491468
 34
0.0
100
AcDbRotatedDimension
1001
ACAD
1000
DSTYLE
1002
{
1070
    75
1070
     1
1070
   279
1070
     2
1002
}
  0
LINE
  5
17D0F
330
747D
100
AcDbEntity
  8
部品1
100
AcDbLine
 10
7976.673057123665
 20
9596.063983491564
 30
0.0
 11
8004.673057123666
 21
9596.063983491564
 31
0.0
  0
LINE
  5
17D10
330
747D
100
AcDbEntity
  8
部品1
100
AcDbLine
 10
7976.673057123666
 20
8756.063983491563
 30
0.0
 11
8004.673057123669
 21
8756.063983491563
 31
0.0
  0
LINE
  5
17D11
330
747D
100
AcDbEntity
  8
部品1
100
AcDbLine
 10
2772.673057123637
 20
9596.063983491434
 30
0.0
 11
2744.673057123637
 21
9596.063983491434
 31
0.0
  0
LINE
  5
17D12
330
747D
100
AcDbEntity
  8
部品1
100
AcDbLine
 10
2772.673057123644
 20
8756.063983491433
 30
0.0
 11
2744.673057123644
 21
8756.063983491433
 31
0.0
  0
LINE
  5
180FF
330
747D
100
AcDbEntity
  8
部品1
100
AcDbLine
 10
2744.673057123666
 20
1962.025570836416
 30
0.0
 11
8004.673057123666
 21
1962.025570836416
 31
0.0
  0
LINE
  5
18100
330
747D
100
AcDbEntity
  8
Ｇ．Ｌ
100
AcDbLine
 10
1656.406454453183
 20
1862.025570836416
 30
0.0
 11
14280.86855961702
 21
1862.025570836416
 31
0.0
  0
LINE
  5
18105
330
747D
100
AcDbEntity
  8
部品1
100
AcDbLine
 10
2744.673057123637
 20
10491.06398349151
 30
0.0
 11
8004.673057123673
 21
10491.06398349157
 31
0.0
  0
LINE
  5
18106
330
747D
100
AcDbEntity
  8
寸法
 48
50.0
100
AcDbLine
 10
5374.563357233142
 20
10883.33641445747
 30
0.0
 11
5374.563357233142
 21
11022.48754206542
 31
0.0
  0
LINE
  5
18161
330
747D
100
AcDbEntity
  8
部品1
100
AcDbLine
 10
5374.673057123658
 20
10436.06398349143
 30
0.0
 11
5374.673057123631
 21
7076.063983491412
 31
0.0
  0
LINE
  5
18162
330
747D
100
AcDbEntity
  8
部品1
100
AcDbLine
 10
5402.673057123618
 20
7021.063983491416
 30
0.0
 11
5402.673057123642
 21
10491.06398349146
 31
0.0
  0
LINE
  5
18163
330
747D
100
AcDbEntity
  8
部品1
 48
10.0
100
AcDbLine
 10
5454.673057123673
 20
7086.063983491417
 30
0.0
 11
5454.673057123626
 21
10436.06398349143
 31
0.0
  0
LINE
  5
18164
330
747D
100
AcDbEntity
  8
部品1
100
AcDbLine
 10
5429.673057123679
 20
7086.063983491417
 30
0.0
 11
5429.673057123651
 21
10436.06398349141
 31
0.0
  0
LINE
  5
18165
330
747D
100
AcDbEntity
  8
部品1
100
AcDbLine
 10
5346.67305712364
 20
10463.06398349151
 30
0.0
 11
5346.673057123624
 21
7021.06398349141
 31
0.0
  0
LINE
  5
18166
330
747D
100
AcDbEntity
  8
部品1
 48
10.0
100
AcDbLine
 10
5294.673057123667
 20
7086.063983491417
 30
0.0
 11
5294.673057123642
 21
10436.06398349141
 31
0.0
  0
LINE
  5
18167
330
747D
100
AcDbEntity
  8
部品1
100
AcDbLine
 10
5319.673057123658
 20
7086.063983491417
 30
0.0
 11
5319.673057123651
 21
10436.06398349141
 31
0.0
  0
LINE
  5
18168
330
747D
100
AcDbEntity
  8
部品1
100
AcDbLine
 10
5346.67305712366
 20
8336.063983491516
 30
0.0
 11
5374.67305712366
 21
8336.063983491516
 31
0.0
  0
LINE
  5
18169
330
747D
100
AcDbEntity
  8
部品1
100
AcDbLine
 10
5346.67305712366
 20
8756.063983491518
 30
0.0
 11
5374.67305712366
 21
8756.063983491518
 31
0.0
  0
LINE
  5
1816A
330
747D
100
AcDbEntity
  8
部品1
100
AcDbLine
 10
5346.67305712366
 20
9596.063983491518
 30
0.0
 11
5374.67305712366
 21
9596.063983491518
 31
0.0
  0
LINE
  5
1816B
330
747D
100
AcDbEntity
  8
部品1
 48
50.0
100
AcDbLine
 10
5402.673057123693
 20
10463.06398349132
 30
0.0
 11
5429.673057123682
 21
10436.06398349133
 31
0.0
  0
LINE
  5
1816C
330
747D
100
AcDbEntity
  8
部品1
 48
50.0
100
AcDbLine
 10
5346.673057123708
 20
10463.06398349141
 30
0.0
 11
5319.673057123704
 21
10436.06398349141
 31
0.0
  0
LINE
  5
1816F
330
747D
100
AcDbEntity
  8
部品1
100
AcDbLine
 10
5319.673057123651
 20
10436.06398349149
 30
0.0
 11
2799.673057123644
 21
10436.06398349149
 31
0.0
  0
LINE
  5
18170
330
747D
100
AcDbEntity
  8
部品1
100
AcDbLine
 10
5402.67305712364
 20
10436.06398349149
 30
0.0
 11
5346.67305712364
 21
10436.06398349149
 31
0.0
  0
LINE
  5
18171
330
747D
100
AcDbEntity
  8
部品1
100
AcDbLine
 10
5346.673057123666
 20
7916.063983491518
 30
0.0
 11
5374.673057123667
 21
7916.063983491518
 31
0.0
  0
LINE
  5
18172
330
747D
100
AcDbEntity
  8
部品1
100
AcDbLine
 10
5346.673057123666
 20
7496.06398349152
 30
0.0
 11
5374.673057123667
 21
7496.06398349152
 31
0.0
  0
LINE
  5
181F6
330
747D
100
AcDbEntity
  8
部品1
100
AcDbLine
 10
7976.673057123666
 20
9176.063983491564
 30
0.0
 11
8004.673057123669
 21
9176.063983491564
 31
0.0
  0
LINE
  5
181F7
330
747D
100
AcDbEntity
  8
部品1
100
AcDbLine
 10
5346.67305712366
 20
9176.063983491518
 30
0.0
 11
5374.67305712366
 21
9176.063983491518
 31
0.0
  0
LINE
  5
181F9
330
747D
100
AcDbEntity
  8
部品1
100
AcDbLine
 10
2772.673057123644
 20
9176.063983491435
 30
0.0
 11
2744.673057123644
 21
9176.063983491435
 31
0.0
  0
TEXT
  5
1875B
330
747D
100
AcDbEntity
  8
文字
 62
     7
 48
50.0
100
AcDbText
 10
15022.63965474516
 20
9910.01374588372
 30
0.0
 40
100.0
  1
F12,Y10      1.2+1.6
  7
STYLE1
100
AcDbText
  0
TEXT
  5
1875C
330
747D
100
AcDbEntity
  8
文字
 62
     7
 48
50.0
100
AcDbText
 10
13583.11819016569
 20
9910.01374588373
 30
0.0
 40
100.0
  1
梁中
  7
STYLE1
100
AcDbText
  0
TEXT
  5
1875D
330
747D
100
AcDbEntity
  8
文字
 62
     7
 48
50.0
100
AcDbText
 10
13248.77747366448
 20
8720.013745883731
 30
0.0
 40
100.0
  1
14
  7
STYLE1
100
AcDbText
  0
LINE
  5
1875E
330
747D
100
AcDbEntity
  8
仕様書枠
 48
50.0
100
AcDbLine
 10
16307.19999999999
 20
9879.600000000001
 30
0.0
 11
13127.2
 21
9879.600000000001
 31
0.0
  0
LINE
  5
1875F
330
747D
100
AcDbEntity
  8
仕様書枠
 48
50.0
100
AcDbLine
 10
16307.19999999999
 20
11239.6
 30
0.0
 11
13127.2
 21
11239.6
 31
0.0
  0
LINE
  5
18760
330
747D
100
AcDbEntity
  8
仕様書枠
 48
50.0
100
AcDbLine
 10
16307.19999999999
 20
8179.6
 30
0.0
 11
16307.2
 21
11239.6
 31
0.0
  0
LINE
  5
18761
330
747D
100
AcDbEntity
  8
仕様書枠
 48
50.0
100
AcDbLine
 10
14785.2
 20
11239.59999999999
 30
0.0
 11
14785.2
 21
8689.6
 31
0.0
  0
LINE
  5
18762
330
747D
100
AcDbEntity
  8
仕様書枠
 48
50.0
100
AcDbLine
 10
13490.2
 20
11239.6
 30
0.0
 11
13490.20000000001
 21
8689.600000000003
 31
0.0
  0
LINE
  5
18763
330
747D
100
AcDbEntity
  8
仕様書枠
 48
50.0
100
AcDbLine
 10
16307.19999999999
 20
11069.6
 30
0.0
 11
13127.2
 21
11069.6
 31
0.0
  0
LINE
  5
18764
330
747D
100
AcDbEntity
  8
仕様書枠
 48
50.0
100
AcDbLine
 10
16307.19999999999
 20
10729.6
 30
0.0
 11
13127.2
 21
10729.6
 31
0.0
  0
LINE
  5
18765
330
747D
100
AcDbEntity
  8
仕様書枠
 48
50.0
100
AcDbLine
 10
16307.19999999999
 20
10899.6
 30
0.0
 11
13127.2
 21
10899.6
 31
0.0
  0
LINE
  5
18766
330
747D
100
AcDbEntity
  8
仕様書枠
 48
50.0
100
AcDbLine
 10
16307.19999999999
 20
10389.6
 30
0.0
 11
13127.19999999999
 21
10389.6
 31
0.0
  0
LINE
  5
18767
330
747D
100
AcDbEntity
  8
仕様書枠
 48
50.0
100
AcDbLine
 10
16307.19999999999
 20
10219.6
 30
0.0
 11
13127.19999999999
 21
10219.6
 31
0.0
  0
LINE
  5
18768
330
747D
100
AcDbEntity
  8
仕様書枠
 48
50.0
100
AcDbLine
 10
16307.19999999999
 20
10559.6
 30
0.0
 11
13127.19999999999
 21
10559.6
 31
0.0
  0
TEXT
  5
18769
330
747D
100
AcDbEntity
  8
文字
 62
     7
 48
50.0
100
AcDbText
 10
13197.42518560407
 20
11100.01374588372
 30
0.0
 40
100.0
  1
品番
  7
STYLE1
100
AcDbText
  0
TEXT
  5
1876A
330
747D
100
AcDbEntity
  8
文字
 62
     7
 48
50.0
100
AcDbText
 10
13271.19032244792
 20
10930.01374588373
 30
0.0
 40
100.0
  1
1
  7
STYLE1
100
AcDbText
  0
TEXT
  5
1876B
330
747D
100
AcDbEntity
  8
文字
 62
     7
 48
50.0
100
AcDbText
 10
13271.19032244792
 20
10760.01374588373
 30
0.0
 40
100.0
  1
2
  7
STYLE1
100
AcDbText
  0
TEXT
  5
1876C
330
747D
100
AcDbEntity
  8
文字
 62
     7
 48
50.0
100
AcDbText
 10
13271.19032244792
 20
10420.01374588373
 30
0.0
 40
100.0
  1
4
  7
STYLE1
100
AcDbText
  0
TEXT
  5
1876D
330
747D
100
AcDbEntity
  8
文字
 62
     7
 48
50.0
100
AcDbText
 10
13271.19032244792
 20
10590.01374588373
 30
0.0
 40
100.0
  1
3
  7
STYLE1
100
AcDbText
  0
TEXT
  5
1876E
330
747D
100
AcDbEntity
  8
文字
 62
     7
 48
50.0
100
AcDbText
 10
13732.03840939434
 20
11100.01374588372
 30
0.0
 40
100.0
  1
部　　品　　名
  7
STYLE1
100
AcDbText
  0
TEXT
  5
1876F
330
747D
100
AcDbEntity
  8
文字
 62
     7
 48
50.0
100
AcDbText
 10
14859.79774614482
 20
11100.01374588372
 30
0.0
 40
100.0
  1
材料（材質）　　単位mm
  7
STYLE1
100
AcDbText
  0
TEXT
  5
18770
330
747D
100
AcDbEntity
  8
文字
 62
     7
 48
50.0
100
AcDbText
 10
13583.11819016569
 20
10930.01374588373
 30
0.0
 40
100.0
  1
土台枠
  7
STYLE1
100
AcDbText
  0
TEXT
  5
18771
330
747D
100
AcDbEntity
  8
文字
 62
     7
 48
50.0
100
AcDbText
 10
13583.11819016569
 20
10760.01374588372
 30
0.0
 40
100.0
  1
柱
  7
STYLE1
100
AcDbText
  0
TEXT
  5
18772
330
747D
100
AcDbEntity
  8
文字
 62
     7
 48
50.0
100
AcDbText
 10
13583.11819016569
 20
10590.01374588372
 30
0.0
 40
100.0
  1
桁前
  7
STYLE1
100
AcDbText
  0
TEXT
  5
18773
330
747D
100
AcDbEntity
  8
文字
 62
     7
 48
50.0
100
AcDbText
 10
13583.11819016569
 20
10420.01374588373
 30
0.0
 40
100.0
  1
桁後
  7
STYLE1
100
AcDbText
  0
TEXT
  5
18774
330
747D
100
AcDbEntity
  8
文字
 62
     7
 48
50.0
100
AcDbText
 10
13271.19032244792
 20
10250.01374588372
 30
0.0
 40
100.0
  1
5
  7
STYLE1
100
AcDbText
  0
TEXT
  5
18775
330
747D
100
AcDbEntity
  8
文字
 62
     7
 48
50.0
100
AcDbText
 10
13583.11819016569
 20
10250.01374588372
 30
0.0
 40
100.0
  1
妻板左右
  7
STYLE1
100
AcDbText
  0
TEXT
  5
18776
330
747D
100
AcDbEntity
  8
文字
 62
     7
 48
50.0
100
AcDbText
 10
13583.11819016569
 20
8890.013745883729
 30
0.0
 40
100.0
  1
シャッターレール
  7
STYLE1
100
AcDbText
  0
TEXT
  5
18777
330
747D
100
AcDbEntity
  8
文字
 62
     7
 48
50.0
100
AcDbText
 10
13248.77747366448
 20
9400.013745883729
 30
0.0
 40
100.0
  1
10
  7
STYLE1
100
AcDbText
  0
TEXT
  5
18778
330
747D
100
AcDbEntity
  8
文字
 62
     7
 48
50.0
100
AcDbText
 10
13583.11819016569
 20
9400.013745883729
 30
0.0
 40
100.0
  1
壁パネル
  7
STYLE1
100
AcDbText
  0
TEXT
  5
18779
330
747D
100
AcDbEntity
  8
文字
 62
     7
 48
50.0
100
AcDbText
 10
13583.11819016569
 20
9570.013745883729
 30
0.0
 40
100.0
  1
屋根パネル
  7
STYLE1
100
AcDbText
  0
TEXT
  5
1877A
330
747D
100
AcDbEntity
  8
文字
 62
     7
 48
50.0
100
AcDbText
 10
13583.11819016569
 20
9740.013745883729
 30
0.0
 40
100.0
  1
母屋中
  7
STYLE1
100
AcDbText
  0
TEXT
  5
1877B
330
747D
100
AcDbEntity
  8
文字
 62
     7
 48
50.0
100
AcDbText
 10
13583.11819016569
 20
10080.01374588373
 30
0.0
 40
100.0
  1
鼻隠シ前後
  7
STYLE1
100
AcDbText
  0
TEXT
  5
1877C
330
747D
100
AcDbEntity
  8
文字
 62
     7
 48
50.0
100
AcDbText
 10
13271.19032244792
 20
9740.013745883729
 30
0.0
 40
100.0
  1
8
  7
STYLE1
100
AcDbText
  0
TEXT
  5
1877D
330
747D
100
AcDbEntity
  8
文字
 62
     7
 48
50.0
100
AcDbText
 10
13271.19032244792
 20
9570.013745883729
 30
0.0
 40
100.0
  1
9
  7
STYLE1
100
AcDbText
  0
TEXT
  5
1877E
330
747D
100
AcDbEntity
  8
文字
 62
     7
 48
50.0
100
AcDbText
 10
13271.19032244792
 20
9910.01374588373
 30
0.0
 40
100.0
  1
7
  7
STYLE1
100
AcDbText
  0
TEXT
  5
1877F
330
747D
100
AcDbEntity
  8
文字
 62
     7
 48
50.0
100
AcDbText
 10
13271.19032244792
 20
10080.01374588373
 30
0.0
 40
100.0
  1
6
  7
STYLE1
100
AcDbText
  0
LINE
  5
18780
330
747D
100
AcDbEntity
  8
仕様書枠
 48
50.0
100
AcDbLine
 10
16307.19999999999
 20
9539.6
 30
0.0
 11
13127.19999999999
 21
9539.6
 31
0.0
  0
LINE
  5
18781
330
747D
100
AcDbEntity
  8
仕様書枠
 48
50.0
100
AcDbLine
 10
16307.19999999999
 20
9199.599999999996
 30
0.0
 11
13127.19999999999
 21
9199.600000000001
 31
0.0
  0
LINE
  5
18782
330
747D
100
AcDbEntity
  8
仕様書枠
 48
50.0
100
AcDbLine
 10
16307.19999999999
 20
9369.599999999996
 30
0.0
 11
13127.19999999999
 21
9369.600000000001
 31
0.0
  0
LINE
  5
18783
330
747D
100
AcDbEntity
  8
仕様書枠
 48
50.0
100
AcDbLine
 10
16307.19999999999
 20
10049.6
 30
0.0
 11
13127.2
 21
10049.6
 31
0.0
  0
LINE
  5
18784
330
747D
100
AcDbEntity
  8
仕様書枠
 48
50.0
100
AcDbLine
 10
16307.19999999999
 20
9709.600000000001
 30
0.0
 11
13127.2
 21
9709.600000000001
 31
0.0
  0
TEXT
  5
18785
330
747D
100
AcDbEntity
  8
文字
 62
     7
 48
50.0
100
AcDbText
 10
13248.77747366448
 20
9230.013745883729
 30
0.0
 40
100.0
  1
11
  7
STYLE1
100
AcDbText
  0
TEXT
  5
18786
330
747D
100
AcDbEntity
  8
文字
 62
     7
 48
50.0
100
AcDbText
 10
13583.11819016569
 20
9060.013745883729
 30
0.0
 40
100.0
  1
シャッターカバー
 41
0.9
  7
STYLE1
100
AcDbText
  0
LINE
  5
18787
330
747D
100
AcDbEntity
  8
仕様書枠
 48
50.0
100
AcDbLine
 10
16307.19999999999
 20
9029.599999999996
 30
0.0
 11
13127.19999999999
 21
9029.6
 31
0.0
  0
LINE
  5
18788
330
747D
100
AcDbEntity
  8
仕様書枠
 48
50.0
100
AcDbLine
 10
16307.19999999999
 20
8689.599999999998
 30
0.0
 11
13127.19999999999
 21
8689.600000000003
 31
0.0
  0
TEXT
  5
18789
330
747D
100
AcDbEntity
  8
文字
 62
     7
 48
50.0
100
AcDbText
 10
13583.11819016569
 20
8720.013745883729
 30
0.0
 40
100.0
  1
棚板（別売）
  7
STYLE1
100
AcDbText
  0
LINE
  5
1878A
330
747D
100
AcDbEntity
  8
仕様書枠
 48
50.0
100
AcDbLine
 10
16307.19999999999
 20
8859.6
 30
0.0
 11
13127.19999999999
 21
8859.600000000002
 31
0.0
  0
TEXT
  5
1878B
330
747D
100
AcDbEntity
  8
文字
 62
     7
 48
50.0
100
AcDbText
 10
13583.1181901657
 20
9230.013745883731
 30
0.0
 40
100.0
  1
シャッター
  7
STYLE1
100
AcDbText
  0
TEXT
  5
1878C
330
747D
100
AcDbEntity
  8
文字
 62
     7
 48
50.0
100
AcDbText
 10
13248.77747366448
 20
8890.013745883729
 30
0.0
 40
100.0
  1
13
  7
STYLE1
100
AcDbText
  0
TEXT
  5
1878D
330
747D
100
AcDbEntity
  8
文字
 62
     7
 48
50.0
100
AcDbText
 10
13248.77747366448
 20
9060.013745883729
 30
0.0
 40
100.0
  1
12
  7
STYLE1
100
AcDbText
  0
TEXT
  5
1878E
330
747D
100
AcDbEntity
  8
文字
 62
     7
 48
50.0
100
AcDbText
 10
15022.63965474517
 20
10930.01374588372
 30
0.0
 40
100.0
  1
F12            1.2
  7
STYLE1
100
AcDbText
  0
TEXT
  5
18790
330
747D
100
AcDbEntity
  8
文字
 62
     7
 48
50.0
100
AcDbText
 10
15022.63965474516
 20
10590.01374588372
 30
0.0
 40
100.0
  1
Y10            1.0
  7
STYLE1
100
AcDbText
  0
TEXT
  5
18791
330
747D
100
AcDbEntity
  8
文字
 62
     7
 48
50.0
100
AcDbText
 10
15022.63965474516
 20
10420.01374588372
 30
0.0
 40
100.0
  1
Y10            1.0
  7
STYLE1
100
AcDbText
  0
TEXT
  5
18792
330
747D
100
AcDbEntity
  8
文字
 62
     7
 48
50.0
100
AcDbText
 10
15022.63965474516
 20
10250.01374588372
 30
0.0
 40
100.0
  1
Y10            0.7
  7
STYLE1
100
AcDbText
  0
TEXT
  5
18793
330
747D
100
AcDbEntity
  8
文字
 62
     7
 48
50.0
100
AcDbText
 10
15022.63965474516
 20
10080.01374588372
 30
0.0
 40
100.0
  1
Y10            0.7
  7
STYLE1
100
AcDbText
  0
TEXT
  5
18795
330
747D
100
AcDbEntity
  8
文字
 62
     7
 48
50.0
100
AcDbText
 10
15022.63965474517
 20
9570.013745883723
 30
0.0
 40
100.0
  1
Y10            0.5
  7
STYLE1
100
AcDbText
  0
TEXT
  5
18796
330
747D
100
AcDbEntity
  8
文字
 62
     7
 48
50.0
100
AcDbText
 10
15022.63965474516
 20
9400.013745883724
 30
0.0
 40
100.0
  1
F12            0.7
  7
STYLE1
100
AcDbText
  0
TEXT
  5
18797
330
747D
100
AcDbEntity
  8
文字
 62
     7
 48
50.0
100
AcDbText
 10
14850.83183167176
 20
8890.013745883724
 30
0.0
 40
100.0
  1
アルミニウム合金押出形材
  7
STYLE1
100
AcDbText
  0
TEXT
  5
18799
330
747D
100
AcDbEntity
  8
文字
 62
     7
 48
50.0
100
AcDbText
 10
15022.63965474516
 20
9230.013745883724
 30
0.0
 40
100.0
  1
Z08            0.5
  7
STYLE1
100
AcDbText
  0
TEXT
  5
1879A
330
747D
100
AcDbEntity
  8
文字
 62
     7
 48
50.0
100
AcDbText
 10
15022.63965474515
 20
8720.013745883727
 30
0.0
 40
100.0
  1
F12            0.6
  7
STYLE1
100
AcDbText
  0
LINE
  5
1879B
330
747D
100
AcDbEntity
  8
仕様書枠
 48
50.0
100
AcDbLine
 10
16307.19999999999
 20
8519.599999999998
 30
0.0
 11
13127.19999999999
 21
8519.600000000002
 31
0.0
  0
LINE
  5
1879C
330
747D
100
AcDbEntity
  8
仕様書枠
 48
50.0
100
AcDbLine
 10
16307.19999999999
 20
8349.600000000002
 30
0.0
 11
13127.19999999999
 21
8349.600000000002
 31
0.0
  0
LINE
  5
1879D
330
747D
100
AcDbEntity
  8
仕様書枠
 48
50.0
100
AcDbLine
 10
16307.19999999999
 20
8179.599999999998
 30
0.0
 11
13127.19999999999
 21
8179.600000000002
 31
0.0
  0
TEXT
  5
1879E
330
747D
100
AcDbEntity
  8
文字
 62
     7
 48
50.0
100
AcDbText
 10
13229.83081656555
 20
8550.013745883727
 30
0.0
 40
100.0
  1
F12→溶融亜鉛めっき鋼板(JIS G 3302)
  7
STYLE1
100
AcDbText
  0
TEXT
  5
1879F
330
747D
100
AcDbEntity
  8
文字
 62
     7
 48
50.0
100
AcDbText
 10
13229.83081656554
 20
8380.013745883728
 30
0.0
 40
100.0
  1
Y10→溶融亜鉛-5％アルミニウム合金めっき鋼板(JIS G 3317)
 41
0.9
  7
STYLE1
100
AcDbText
  0
TEXT
  5
187A0
330
747D
100
AcDbEntity
  8
文字
 62
     7
 48
50.0
100
AcDbText
 10
13229.83081656555
 20
8210.013745883731
 30
0.0
 40
100.0
  1
Z08→塗装溶融亜鉛めっき鋼板(JIS G 3313)
  7
STYLE1
100
AcDbText
  0
LINE
  5
187A1
330
747D
100
AcDbEntity
  8
仕様書枠
 48
50.0
100
AcDbLine
 10
13127.2
 20
11239.6
 30
0.0
 11
13127.2
 21
8179.600000000004
 31
0.0
  0
TEXT
  5
18E43
330
747D
100
AcDbEntity
  8
文字
 62
     7
 48
50.0
100
AcDbText
 10
14243.55185591683
 20
483.8967129911416
 30
0.0
 40
160.0
  1
FXN-2634HL-2
  7
MSPゴシック
100
AcDbText
  0
LINE
  5
19260
330
747D
100
AcDbEntity
  8
補助
  6
PHANTOM
 62
   230
 48
50.0
100
AcDbLine
 10
140.0
 20
0.0
 30
0.0
 11
139.9999999999995
 21
11409.6
 31
0.0
  0
DIMENSION
  5
195D0
330
747D
100
AcDbEntity
  8
寸法
 48
50.0
100
AcDbDimension
  2
*D22
 10
2744.673057123664
 20
4742.751842568327
 30
0.0
 11
5374.673057123665
 21
4742.751842568327
 31
0.0
 70
   160
  1
柱外寸法<>
 71
     5
 42
5260.000000000006
  3
INABA_S40G
100
AcDbAlignedDimension
 13
8004.673057123669
 23
4337.025570836424
 33
0.0
 14
2744.673057123664
 24
4337.025570836424
 34
0.0
100
AcDbRotatedDimension
  0
DIMENSION
  5
195D1
330
747D
100
AcDbEntity
  8
寸法
 48
50.0
100
AcDbDimension
  2
*D23
 10
8054.673057123666
 20
4942.660763782416
 30
0.0
 11
5374.673057123665
 21
4942.660763782416
 31
0.0
 70
   160
 71
     5
 42
5360.000000000002
  3
INABA_S40G
100
AcDbAlignedDimension
 13
2694.673057123664
 23
4337.025570836424
 33
0.0
 14
8054.673057123666
 24
4337.02557083642
 34
0.0
100
AcDbRotatedDimension
  0
DIMENSION
  5
195D2
330
747D
100
AcDbEntity
  8
寸法
 48
50.0
100
AcDbDimension
  2
*D24
 10
2694.673057123664
 20
4742.751842568327
 30
0.0
 11
2381.187775749417
 21
4742.751842568327
 31
0.0
 70
   160
 71
     5
 42
50.0
  3
INABA_S40G
100
AcDbAlignedDimension
 13
2744.673057123664
 23
4337.025570836424
 33
0.0
 14
2694.673057123664
 24
4337.025570836424
 34
0.0
100
AcDbRotatedDimension
1001
ACAD
1000
DSTYLE
1002
{
1002
}
  0
LINE
  5
195D3
330
747D
100
AcDbEntity
  8
部品1
100
AcDbLine
 10
2695.092718138994
 20
4329.629045441182
 30
0.0
 11
2696.226115471344
 21
4309.65291745858
 31
0.0
  0
LINE
  5
195D4
330
747D
100
AcDbEntity
  8
部品1
100
AcDbLine
 10
2707.663135792924
 20
4213.995510291523
 30
0.0
 11
2708.308041600032
 21
4202.629045441183
 31
0.0
  0
LINE
  5
195D5
330
747D
100
AcDbEntity
  8
部品1
100
AcDbLine
 10
2699.427105268073
 20
4306.195510291522
 30
0.0
 11
2704.462145996187
 21
4217.452917458579
 31
0.0
  0
ARC
  5
195D6
330
747D
100
AcDbEntity
  8
部品1
 48
50.0
100
AcDbCircle
 10
2696.431922371888
 20
4306.025570836424
 30
0.0
 40
3.0
100
AcDbArc
 50
3.24734279033473
 51
82.34187279263609
  0
ARC
  5
195D7
330
747D
100
AcDbEntity
  8
部品1
 48
50.0
100
AcDbCircle
 10
2704.667952896731
 20
4213.825570836419
 30
0.0
 40
3.0
100
AcDbArc
 50
3.24734279033473
 51
82.34187279263609
  0
ARC
  5
195D8
330
747D
100
AcDbEntity
  8
部品1
 48
50.0
100
AcDbCircle
 10
2705.161022005292
 20
4217.492569998102
 30
0.0
 40
0.7
100
AcDbArc
 50
183.2473427903347
 51
262.3418727926361
  0
ARC
  5
195D9
330
747D
100
AcDbEntity
  8
部品1
 48
50.0
100
AcDbCircle
 10
2696.924991480455
 20
4309.692569998108
 30
0.0
 40
0.7
100
AcDbArc
 50
183.2473427903347
 51
262.3418727926361
  0
ARC
  5
195DA
330
747D
100
AcDbEntity
  8
部品1
100
AcDbCircle
 10
2715.296801691128
 20
4203.025570836422
 30
0.0
 40
7.0
100
AcDbArc
 50
183.2473427903347
 51
270.0
  0
ARC
  5
195DB
330
747D
100
AcDbEntity
  8
部品1
100
AcDbCircle
 10
2702.081478230097
 20
4330.02557083642
 30
0.0
 40
7.0
100
AcDbArc
 50
90.0
 51
183.2473427903347
  0
LINE
  5
195DC
330
747D
100
AcDbEntity
  8
細線
 48
50.0
100
AcDbLine
 10
2727.673057123664
 20
4337.02557083642
 30
0.0
 11
2727.673057123664
 21
4196.02557083642
 31
0.0
  0
LINE
  5
195DD
330
747D
100
AcDbEntity
  8
細線
 48
50.0
100
AcDbLine
 10
8044.397488377358
 20
4216.825570836411
 30
0.0
 11
2704.948625869935
 21
4216.825570836423
 31
0.0
  0
LINE
  5
195DE
330
747D
100
AcDbEntity
  8
細線
 48
50.0
100
AcDbLine
 10
8052.633518902238
 20
4309.025570836426
 30
0.0
 11
2696.712595345105
 21
4309.02557083642
 31
0.0
  0
LINE
  5
195DF
330
747D
100
AcDbEntity
  8
部品1
 48
50.0
100
AcDbLine
 10
8034.049312556202
 20
4196.025570836424
 30
0.0
 11
2715.296801691128
 21
4196.025570836424
 31
0.0
  0
LINE
  5
195E0
330
747D
100
AcDbEntity
  8
部品1
 48
50.0
100
AcDbLine
 10
8047.264636017237
 20
4337.02557083642
 30
0.0
 11
2702.081478230097
 21
4337.025570836424
 31
0.0
  0
LINE
  5
195E1
330
747D
100
AcDbEntity
  8
部品1
100
AcDbLine
 10
2744.673057123664
 20
4102.025570836416
 30
0.0
 11
8004.673057123666
 21
4102.025570836413
 31
0.0
  0
DIMENSION
  5
195E2
330
747D
100
AcDbEntity
  8
寸法
 48
50.0
100
AcDbDimension
  2
*D25
 10
8004.673057123669
 20
4742.751842568329
 30
0.0
 11
8368.158338497908
 21
4742.751842568329
 31
0.0
 70
   160
 71
     5
 42
49.99999999999636
  3
INABA_S40G
100
AcDbAlignedDimension
 13
8054.673057123666
 23
4337.02557083642
 33
0.0
 14
8004.673057123669
 24
4337.025570836424
 34
0.0
100
AcDbRotatedDimension
  0
ARC
  5
195E3
330
747D
100
AcDbEntity
  8
部品1
100
AcDbCircle
 10
8047.264636017237
 20
4330.025570836424
 30
0.0
 40
7.0
100
AcDbArc
 50
356.7526572096653
 51
90.0
  0
ARC
  5
195E4
330
747D
100
AcDbEntity
  8
部品1
100
AcDbCircle
 10
8034.049312556202
 20
4203.025570836422
 30
0.0
 40
7.0
100
AcDbArc
 50
270.0
 51
356.7526572096653
  0
ARC
  5
195E5
330
747D
100
AcDbEntity
  8
部品1
 48
50.0
100
AcDbCircle
 10
8052.421122766878
 20
4309.692569998108
 30
0.0
 40
0.7
100
AcDbArc
 50
277.6581272073639
 51
356.7526572096653
  0
ARC
  5
195E6
330
747D
100
AcDbEntity
  8
部品1
 48
50.0
100
AcDbCircle
 10
8044.185092242042
 20
4217.492569998106
 30
0.0
 40
0.7
100
AcDbArc
 50
277.6581272073639
 51
356.7526572096653
  0
ARC
  5
195E7
330
747D
100
AcDbEntity
  8
部品1
 48
50.0
100
AcDbCircle
 10
8044.678161350599
 20
4213.825570836419
 30
0.0
 40
3.0
100
AcDbArc
 50
97.65812720736393
 51
176.7526572096653
  0
ARC
  5
195E8
330
747D
100
AcDbEntity
  8
部品1
 48
50.0
100
AcDbCircle
 10
8052.914191875442
 20
4306.025570836424
 30
0.0
 40
3.0
100
AcDbArc
 50
97.65812720736393
 51
176.7526572096653
  0
LINE
  5
195E9
330
747D
100
AcDbEntity
  8
部品1
100
AcDbLine
 10
8049.919008979257
 20
4306.195510291527
 30
0.0
 11
8044.883968251147
 21
4217.452917458579
 31
0.0
  0
LINE
  5
195EA
330
747D
100
AcDbEntity
  8
部品1
100
AcDbLine
 10
8041.682978454408
 20
4213.995510291523
 30
0.0
 11
8041.038072647301
 21
4202.629045441183
 31
0.0
  0
LINE
  5
195EB
330
747D
100
AcDbEntity
  8
細線
 48
50.0
100
AcDbLine
 10
8021.673057123665
 20
4337.025570836424
 30
0.0
 11
8021.673057123665
 21
4196.025570836424
 31
0.0
  0
LINE
  5
195EC
330
747D
100
AcDbEntity
  8
部品1
100
AcDbLine
 10
8054.253396108336
 20
4329.629045441182
 30
0.0
 11
8053.119998775986
 21
4309.652917458584
 31
0.0
  0
LINE
  5
195ED
330
747D
100
AcDbEntity
  8
部品1
 48
50.0
100
AcDbLine
 10
5364.673057123669
 20
4196.02557083642
 30
0.0
 11
5364.673057123667
 21
4337.02557083642
 31
0.0
  0
LINE
  5
195EE
330
747D
100
AcDbEntity
  8
部品1
 48
50.0
100
AcDbLine
 10
5374.673057123668
 20
3937.025570836417
 30
0.0
 11
5374.673057123668
 21
4196.02557083642
 31
0.0
  0
LINE
  5
19A99
330
747D
100
AcDbEntity
  8
部品1
100
AcDbLine
 10
10590.22148434442
 20
1962.025570836416
 30
0.0
 11
10197.22427013557
 21
1862.025570836416
 31
0.0
  0
LINE
  5
19A9A
330
747D
100
AcDbEntity
  8
破線
 48
5.0
100
AcDbLine
 10
10590.22148434442
 20
1612.025570836416
 30
0.0
 11
10645.22148434441
 21
1612.025570836416
 31
0.0
  0
LINE
  5
19A9B
330
747D
100
AcDbEntity
  8
破線
 48
5.0
100
AcDbLine
 10
10645.22148434442
 20
1862.025570836416
 30
0.0
 11
10645.22148434442
 21
1612.025570836416
 31
0.0
  0
LINE
  5
19A9C
330
747D
100
AcDbEntity
  8
破線
 48
5.0
100
AcDbLine
 10
10590.22148434442
 20
1862.025570836416
 30
0.0
 11
10590.22148434442
 21
1612.025570836416
 31
0.0
  0
DIMENSION
  5
19AA1
330
747D
100
AcDbEntity
  8
寸法
100
AcDbDimension
  2
*D26
 10
9746.471355161157
 20
2012.025570836412
 30
0.0
 11
9646.459544137535
 21
3057.025570836414
 31
0.0
 70
    32
 71
     5
 42
2090.000000000001
  3
INABA_S40G
100
AcDbAlignedDimension
 13
10590.22148434441
 23
4102.025570836413
 33
0.0
 14
10590.22148434441
 24
2012.025570836412
 34
0.0
 50
90.0
100
AcDbRotatedDimension
1001
ACAD
1000
DSTYLE
1002
{
1070
   174
1070
     0
1070
   272
1070
     1
1070
   288
1070
     0
1070
   341
1005
0
1002
}
  0
DIMENSION
  5
19AA2
330
747D
100
AcDbEntity
  8
寸法
100
AcDbDimension
  2
*D27
 10
9446.471355161154
 20
4337.025570836416
 30
0.0
 11
9346.459544137529
 21
3149.525570836416
 31
0.0
 70
    32
 71
     5
 42
2375.000000000004
  3
INABA_S40G
100
AcDbAlignedDimension
 13
10590.22148434441
 23
1962.025570836412
 33
0.0
 14
10530.22148434441
 24
4337.025570836416
 34
0.0
 50
90.0
100
AcDbRotatedDimension
1001
ACAD
1000
DSTYLE
1002
{
1070
   174
1070
     0
1070
   272
1070
     1
1070
   288
1070
     0
1070
   341
1005
0
1002
}
  0
DIMENSION
  5
19AA3
330
747D
100
AcDbEntity
  8
寸法
100
AcDbDimension
  2
*D28
 10
14765.14864231654
 20
4282.025570836416
 30
0.0
 11
14665.13683129291
 21
3122.02557083642
 31
0.0
 70
    32
 71
     5
 42
2319.999999999999
  3
INABA_S40G
100
AcDbAlignedDimension
 13
14060.22148434441
 23
1962.025570836418
 33
0.0
 14
14140.22148434441
 24
4282.025570836418
 34
0.0
 50
90.0
100
AcDbRotatedDimension
1001
ACAD
1000
DSTYLE
1002
{
1070
   174
1070
     0
1070
   272
1070
     1
1070
   288
1070
     0
1070
   341
1005
0
1002
}
  0
LINE
  5
19AA4
330
747D
100
AcDbEntity
  8
細線
 48
50.0
100
AcDbLine
 10
12667.72148434441
 20
4102.025570836416
 30
0.0
 11
12667.72148434441
 21
2012.025570836418
 31
0.0
  0
LINE
  5
19AA5
330
747D
100
AcDbEntity
  8
細線
 48
50.0
100
AcDbLine
 10
12682.72148434441
 20
4102.025570836416
 30
0.0
 11
12682.72148434441
 21
2012.025570836418
 31
0.0
  0
LINE
  5
19AA6
330
747D
100
AcDbEntity
  8
細線
 48
50.0
100
AcDbLine
 10
12542.72148434441
 20
4102.025570836416
 30
0.0
 11
12542.72148434441
 21
2012.025570836418
 31
0.0
  0
LINE
  5
19AA7
330
747D
100
AcDbEntity
  8
細線
 48
50.0
100
AcDbLine
 10
12527.72148434441
 20
4102.025570836416
 30
0.0
 11
12527.72148434441
 21
2012.025570836418
 31
0.0
  0
LINE
  5
19AA8
330
747D
100
AcDbEntity
  8
細線
 48
50.0
100
AcDbLine
 10
12387.72148434441
 20
4102.025570836416
 30
0.0
 11
12387.72148434441
 21
2012.025570836418
 31
0.0
  0
LINE
  5
19AA9
330
747D
100
AcDbEntity
  8
細線
 48
50.0
100
AcDbLine
 10
12402.72148434441
 20
4102.025570836416
 30
0.0
 11
12402.72148434441
 21
2012.025570836418
 31
0.0
  0
LINE
  5
19AAA
330
747D
100
AcDbEntity
  8
部品1
100
AcDbLine
 10
12325.22148434441
 20
4102.025570836416
 30
0.0
 11
12325.22148434441
 21
2012.025570836418
 31
0.0
  0
LINE
  5
19AAB
330
747D
100
AcDbEntity
  8
部品1
100
AcDbLine
 10
12159.76647070138
 20
4462.229958799435
 30
0.0
 11
12485.22148434441
 21
4444.711899840575
 31
0.0
  0
ARC
  5
19AAC
330
747D
100
AcDbEntity
  8
部品1
100
AcDbCircle
 10
14125.84902015835
 20
4176.04932810221
 30
0.0
 40
0.7
100
AcDbArc
 50
275.0921697642102
 51
354.186699766712
  0
ARC
  5
19AAD
330
747D
100
AcDbEntity
  8
部品1
100
AcDbCircle
 10
14136.70836590768
 20
4253.092582920134
 30
0.0
 40
0.7
100
AcDbArc
 50
275.0921697642102
 51
354.186699766571
  0
ARC
  5
19AAE
330
747D
100
AcDbEntity
  8
部品1
100
AcDbCircle
 10
14137.03677115028
 20
4249.407186063042
 30
0.0
 40
3.0
100
AcDbArc
 50
95.0921697642102
 51
174.186699766571
  0
ARC
  5
19AAF
330
747D
100
AcDbEntity
  8
部品1
100
AcDbCircle
 10
14126.17742540095
 20
4172.363931245119
 30
0.0
 40
3.0
100
AcDbArc
 50
95.0921697642102
 51
174.186699766571
  0
ARC
  5
19AB0
330
747D
100
AcDbEntity
  8
部品1
 48
50.0
100
AcDbCircle
 10
14115.14929012585
 20
4162.773186641238
 30
0.0
 40
7.0
100
AcDbArc
 50
267.8377559869488
 51
354.186699766571
  0
ARC
  5
19AB1
330
747D
100
AcDbEntity
  8
部品1
 48
50.0
100
AcDbCircle
 10
14132.47138659037
 20
4273.675733783409
 30
0.0
 40
7.0
100
AcDbArc
 50
354.186699766571
 51
87.03587545283102
  0
LINE
  5
19AB2
330
747D
100
AcDbEntity
  8
部品1
 48
50.0
100
AcDbLine
 10
14123.19285373034
 20
4172.667792962021
 30
0.0
 11
14122.1132906906
 21
4162.064175968462
 31
0.0
  0
LINE
  5
19AB3
330
747D
100
AcDbEntity
  8
部品1
 48
50.0
100
AcDbLine
 10
14134.05219947966
 20
4249.711047779947
 30
0.0
 11
14126.54542021483
 21
4175.978427034933
 31
0.0
  0
LINE
  5
19AB4
330
747D
100
AcDbEntity
  8
部品1
 48
50.0
100
AcDbLine
 10
14139.43538715512
 20
4272.966723110636
 30
0.0
 11
14137.40476596415
 21
4253.021681852857
 31
0.0
  0
ARC
  5
19AB5
330
747D
100
AcDbEntity
  8
部品1
100
AcDbCircle
 10
10536.25857621578
 20
4215.83972979532
 30
0.0
 40
0.7
100
AcDbArc
 50
181.0932240292635
 51
260.1877540314855
  0
ARC
  5
19AB6
330
747D
100
AcDbEntity
  8
部品1
100
AcDbCircle
 10
10531.48590261817
 20
4308.705507995441
 30
0.0
 40
0.7
100
AcDbArc
 50
181.0932240292114
 51
260.1877540314855
  0
ARC
  5
19AB7
330
747D
100
AcDbEntity
  8
部品1
100
AcDbCircle
 10
10530.85534821515
 20
4305.059633458042
 30
0.0
 40
3.0
100
AcDbArc
 50
1.093224029315636
 51
80.18775403169739
  0
ARC
  5
19AB8
330
747D
100
AcDbEntity
  8
部品1
100
AcDbCircle
 10
10535.62802181275
 20
4212.193855257923
 30
0.0
 40
3.0
100
AcDbArc
 50
1.093224029315636
 51
80.18775403169739
  0
ARC
  5
19AB9
330
747D
100
AcDbEntity
  8
部品1
 48
50.0
100
AcDbCircle
 10
10545.82815418795
 20
4201.801611875442
 30
0.0
 40
7.0
100
AcDbArc
 50
181.0932240293156
 51
267.8377559869488
  0
ARC
  5
19ABA
330
747D
100
AcDbEntity
  8
部品1
 48
50.0
100
AcDbCircle
 10
10537.40449608586
 20
4328.752671408536
 30
0.0
 40
7.0
100
AcDbArc
 50
87.03587545283102
 51
181.0932240293156
  0
LINE
  5
19ABB
330
747D
100
AcDbEntity
  8
部品1
 48
50.0
100
AcDbLine
 10
10538.62747573918
 20
4212.251092861106
 30
0.0
 11
10538.82942835961
 21
4201.668057468014
 31
0.0
  0
LINE
  5
19ABC
330
747D
100
AcDbEntity
  8
細線
 48
50.0
100
AcDbLine
 10
10536.02138268251
 20
4215.181140979916
 30
0.0
 11
14126.02504711315
 21
4175.371822005422
 31
0.0
  0
LINE
  5
19ABD
330
747D
100
AcDbEntity
  8
細線
 48
50.0
100
AcDbLine
 10
10531.26090744523
 20
4308.042652677777
 30
0.0
 11
14136.8968921904
 21
4252.418448036951
 31
0.0
  0
LINE
  5
19ABE
330
747D
100
AcDbEntity
  8
部品1
 48
50.0
100
AcDbLine
 10
10533.85480214158
 20
4305.116871061223
 30
0.0
 11
10535.55870363294
 21
4215.82637435458
 31
0.0
  0
LINE
  5
19ABF
330
747D
100
AcDbEntity
  8
部品1
 48
50.0
100
AcDbLine
 10
10530.40577025752
 20
4328.619117001109
 30
0.0
 11
10530.78603003533
 21
4308.692152554697
 31
0.0
  0
LINE
  5
19AC0
330
747D
100
AcDbEntity
  8
細線
 48
50.0
100
AcDbLine
 10
14107.1907675381
 20
4281.178993315887
 30
0.0
 11
14102.47380145642
 21
4156.246777380969
 31
0.0
  0
LINE
  5
19AC1
330
747D
100
AcDbEntity
  8
細線
 48
50.0
100
AcDbLine
 10
10563.22148434441
 20
4334.425247211821
 30
0.0
 11
10557.93238278891
 21
4194.339614584467
 31
0.0
  0
LINE
  5
19AC2
330
747D
100
AcDbEntity
  8
部品1
100
AcDbLine
 10
10545.56404894636
 20
4194.806595905384
 30
0.0
 11
14114.88518488426
 21
4155.778170671179
 31
0.0
  0
LINE
  5
19AC3
330
747D
100
AcDbEntity
  8
部品1
100
AcDbLine
 10
10537.76647070137
 20
4335.743306170683
 30
0.0
 11
14132.83336120588
 21
4280.666368545555
 31
0.0
  0
LINE
  5
19AC4
330
747D
100
AcDbEntity
  8
部品1
 48
50.0
100
AcDbLine
 10
12185.22148434441
 20
4460.911899840572
 30
0.0
 11
12485.22148434441
 21
4460.911899840572
 31
0.0
  0
LINE
  5
19AC5
330
747D
100
AcDbEntity
  8
部品1
 48
50.0
100
AcDbLine
 10
12485.22148434441
 20
4460.911899840572
 30
0.0
 11
12485.22148434441
 21
4444.711899840575
 31
0.0
  0
TEXT
  5
19AC6
330
747D
100
AcDbEntity
  8
部品1
 48
50.0
100
AcDbText
 10
12173.48931956814
 20
4496.795921993004
 30
0.0
 40
120.0
  1
1000
  7
STYLE1
100
AcDbText
  0
TEXT
  5
19AC7
330
747D
100
AcDbEntity
  8
部品1
 48
50.0
100
AcDbText
 10
12651.12234223323
 20
4359.294663774722
 30
0.0
 40
120.0
  1
28
 50
90.0
  7
STYLE1
100
AcDbText
  0
LINE
  5
19AC8
330
747D
100
AcDbEntity
  8
細線
 48
50.0
100
AcDbLine
 10
11982.72148434441
 20
4102.025570836416
 30
0.0
 11
11982.72148434441
 21
2012.025570836417
 31
0.0
  0
LINE
  5
19AC9
330
747D
100
AcDbEntity
  8
細線
 48
50.0
100
AcDbLine
 10
11967.72148434441
 20
4102.025570836416
 30
0.0
 11
11967.72148434441
 21
2012.025570836417
 31
0.0
  0
LINE
  5
19ACA
330
747D
100
AcDbEntity
  8
細線
 48
50.0
100
AcDbLine
 10
12107.72148434441
 20
4102.025570836416
 30
0.0
 11
12107.72148434441
 21
2012.025570836417
 31
0.0
  0
LINE
  5
19ACB
330
747D
100
AcDbEntity
  8
細線
 48
50.0
100
AcDbLine
 10
12122.72148434441
 20
4102.025570836416
 30
0.0
 11
12122.72148434441
 21
2012.025570836417
 31
0.0
  0
LINE
  5
19ACC
330
747D
100
AcDbEntity
  8
細線
 48
50.0
100
AcDbLine
 10
12262.72148434441
 20
4102.025570836416
 30
0.0
 11
12262.72148434441
 21
2012.025570836417
 31
0.0
  0
LINE
  5
19ACD
330
747D
100
AcDbEntity
  8
細線
 48
50.0
100
AcDbLine
 10
12247.72148434441
 20
4102.025570836416
 30
0.0
 11
12247.72148434441
 21
2012.025570836417
 31
0.0
  0
LINE
  5
19ACE
330
747D
100
AcDbEntity
  8
部品1
100
AcDbLine
 10
14005.2214843444
 20
4102.02557083642
 30
0.0
 11
14005.2214843444
 21
2012.02557083642
 31
0.0
  0
LINE
  5
19ACF
330
747D
100
AcDbEntity
  8
部品1
100
AcDbLine
 10
10590.22148434441
 20
4102.025570836416
 30
0.0
 11
14060.22148434441
 21
4102.025570836416
 31
0.0
  0
LINE
  5
19AD0
330
747D
100
AcDbEntity
  8
部品1
100
AcDbLine
 10
10645.22148434442
 20
2012.025570836417
 30
0.0
 11
14060.22148434441
 21
2012.025570836418
 31
0.0
  0
LINE
  5
19AD1
330
747D
100
AcDbEntity
  8
部品1
100
AcDbLine
 10
10645.22148434441
 20
4102.025570836416
 30
0.0
 11
10645.22148434442
 21
1862.025570836416
 31
0.0
  0
LINE
  5
19AD2
330
747D
100
AcDbEntity
  8
部品1
100
AcDbLine
 10
10590.22148434441
 20
4194.168008765294
 30
0.0
 11
10590.22148434441
 21
1862.025570836416
 31
0.0
  0
DIMENSION
  5
19AD3
330
747D
100
AcDbEntity
  8
寸法
100
AcDbDimension
  2
*D29
 10
9746.471355161157
 20
1962.025570836416
 30
0.0
 11
9746.471355161157
 21
1655.978326741926
 31
0.0
 70
   160
 71
     5
 42
50.00000000000091
  3
INABA_S40G
100
AcDbAlignedDimension
 13
10590.22148434441
 23
2012.025570836417
 33
0.0
 14
10535.22148434441
 24
1962.025570836416
 34
0.0
 50
90.0
100
AcDbRotatedDimension
1001
ACAD
1000
DSTYLE
1002
{
1070
   174
1070
     0
1070
   272
1070
     1
1070
   288
1070
     0
1070
   341
1005
0
1002
}
  0
LINE
  5
19AD4
330
747D
100
AcDbEntity
  8
部品1
100
AcDbLine
 10
11065.22148434441
 20
4102.025570836416
 30
0.0
 11
11065.22148434441
 21
2012.025570836417
 31
0.0
  0
LINE
  5
19AD5
330
747D
100
AcDbEntity
  8
部品1
100
AcDbLine
 10
14060.22148434441
 20
4156.455598617536
 30
0.0
 11
14060.22148434441
 21
1862.025570836418
 31
0.0
  0
LINE
  5
19AD6
330
747D
100
AcDbEntity
  8
部品1
100
AcDbLine
 10
14005.22148434441
 20
4102.025570836417
 30
0.0
 11
14005.22148434441
 21
2012.025570836418
 31
0.0
  0
DIMENSION
  5
19AD7
330
747D
100
AcDbEntity
  8
寸法
 48
50.0
100
AcDbDimension
  2
*D30
 10
10590.22148434441
 20
4735.683024415723
 30
0.0
 11
12325.22148434441
 21
4735.683024415723
 31
0.0
 70
   160
  1
柱外寸法<>
 71
     5
 42
3470.0
  3
INABA_S40G
100
AcDbAlignedDimension
 13
14060.22148434441
 23
4283.836250448072
 33
0.0
 14
10590.22148434441
 24
4333.027188959392
 34
0.0
100
AcDbRotatedDimension
1001
ACAD
1000
DSTYLE
1002
{
1070
   174
1070
     0
1070
   272
1070
     1
1070
   288
1070
     0
1070
   341
1005
0
1002
}
  0
DIMENSION
  5
19AD8
330
747D
100
AcDbEntity
  8
寸法
 48
50.0
100
AcDbDimension
  2
*D31
 10
10530.22148434441
 20
4735.683024415719
 30
0.0
 11
10220.58368906882
 21
4735.683024415719
 31
0.0
 70
   160
 71
     5
 42
60.0
  3
INABA_S40G
100
AcDbAlignedDimension
 13
10590.22148434441
 23
4333.027188959392
 33
0.0
 14
10530.22148434441
 24
4337.025570836421
 34
0.0
100
AcDbRotatedDimension
1001
ACAD
1000
DSTYLE
1002
{
1070
   174
1070
     0
1070
   272
1070
     1
1070
   288
1070
     0
1070
   341
1005
0
1002
}
  0
DIMENSION
  5
19AD9
330
747D
100
AcDbEntity
  8
寸法
 48
50.0
100
AcDbDimension
  2
*D32
 10
10530.22148434441
 20
4965.796617201998
 30
0.0
 11
12335.22148434441
 21
4965.796617201998
 31
0.0
 70
   160
 71
     5
 42
3610.0
  3
INABA_S40G
100
AcDbAlignedDimension
 13
14140.22148434441
 23
4282.025570836418
 33
0.0
 14
10530.22148434441
 24
4337.025570836421
 34
0.0
100
AcDbRotatedDimension
1001
ACAD
1000
DSTYLE
1002
{
1070
   174
1070
     0
1070
   272
1070
     1
1070
   288
1070
     0
1070
   341
1005
0
1002
}
  0
LINE
  5
19ADA
330
747D
100
AcDbEntity
  8
部品1
100
AcDbLine
 10
10645.22148434442
 20
1962.025570836416
 30
0.0
 11
14060.22148434441
 21
1962.025570836416
 31
0.0
  0
LINE
  5
19ADB
330
747D
100
AcDbEntity
  8
細線
 48
50.0
100
AcDbLine
 10
11142.72148434441
 20
4102.025570836416
 30
0.0
 11
11142.72148434441
 21
2012.025570836417
 31
0.0
  0
LINE
  5
19ADC
330
747D
100
AcDbEntity
  8
細線
 48
50.0
100
AcDbLine
 10
11127.72148434441
 20
4102.025570836416
 30
0.0
 11
11127.72148434441
 21
2012.025570836417
 31
0.0
  0
LINE
  5
19ADD
330
747D
100
AcDbEntity
  8
細線
 48
50.0
100
AcDbLine
 10
11267.72148434441
 20
4102.025570836416
 30
0.0
 11
11267.72148434441
 21
2012.025570836417
 31
0.0
  0
LINE
  5
19ADE
330
747D
100
AcDbEntity
  8
細線
 48
50.0
100
AcDbLine
 10
11282.72148434441
 20
4102.025570836416
 30
0.0
 11
11282.72148434441
 21
2012.025570836417
 31
0.0
  0
LINE
  5
19ADF
330
747D
100
AcDbEntity
  8
細線
 48
50.0
100
AcDbLine
 10
11422.72148434441
 20
4102.025570836416
 30
0.0
 11
11422.72148434441
 21
2012.025570836417
 31
0.0
  0
LINE
  5
19AE0
330
747D
100
AcDbEntity
  8
細線
 48
50.0
100
AcDbLine
 10
11407.72148434441
 20
4102.025570836416
 30
0.0
 11
11407.72148434441
 21
2012.025570836417
 31
0.0
  0
LINE
  5
19AE1
330
747D
100
AcDbEntity
  8
細線
 48
50.0
100
AcDbLine
 10
10987.72148434441
 20
4102.025570836416
 30
0.0
 11
10987.72148434441
 21
2012.025570836417
 31
0.0
  0
LINE
  5
19AE2
330
747D
100
AcDbEntity
  8
細線
 48
50.0
100
AcDbLine
 10
11002.72148434441
 20
4102.025570836416
 30
0.0
 11
11002.72148434441
 21
2012.025570836417
 31
0.0
  0
LINE
  5
19AE3
330
747D
100
AcDbEntity
  8
細線
 48
50.0
100
AcDbLine
 10
10862.72148434441
 20
4102.025570836416
 30
0.0
 11
10862.72148434441
 21
2012.025570836417
 31
0.0
  0
LINE
  5
19AE4
330
747D
100
AcDbEntity
  8
細線
 48
50.0
100
AcDbLine
 10
10847.72148434441
 20
4102.025570836416
 30
0.0
 11
10847.72148434441
 21
2012.025570836417
 31
0.0
  0
LINE
  5
19AE5
330
747D
100
AcDbEntity
  8
細線
 48
50.0
100
AcDbLine
 10
10707.72148434441
 20
4102.025570836416
 30
0.0
 11
10707.72148434441
 21
2012.025570836417
 31
0.0
  0
LINE
  5
19AE6
330
747D
100
AcDbEntity
  8
細線
 48
50.0
100
AcDbLine
 10
10722.72148434441
 20
4102.025570836416
 30
0.0
 11
10722.72148434441
 21
2012.025570836417
 31
0.0
  0
DIMENSION
  5
19AE7
330
747D
100
AcDbEntity
  8
寸法
 48
50.0
100
AcDbDimension
  2
*D33
 10
14140.22148434441
 20
4735.683024415723
 30
0.0
 11
14346.2687284389
 21
4735.683024415723
 31
0.0
 70
   160
 71
     5
 42
80.0
  3
INABA_S40G
100
AcDbAlignedDimension
 13
14060.22148434441
 23
4283.836250448072
 33
0.0
 14
14140.22148434441
 24
4282.025570836419
 34
0.0
100
AcDbRotatedDimension
1001
ACAD
1000
DSTYLE
1002
{
1070
   174
1070
     0
1070
   272
1070
     1
1070
   288
1070
     0
1070
   341
1005
0
1002
}
  0
LINE
  5
19AE8
330
747D
100
AcDbEntity
  8
部品1
100
AcDbLine
 10
11485.22148434441
 20
4102.025570836416
 30
0.0
 11
11485.22148434441
 21
2012.025570836417
 31
0.0
  0
LINE
  5
19AE9
330
747D
100
AcDbEntity
  8
細線
 48
50.0
100
AcDbLine
 10
11827.72148434441
 20
4102.025570836416
 30
0.0
 11
11827.72148434442
 21
2012.025570836417
 31
0.0
  0
LINE
  5
19AEA
330
747D
100
AcDbEntity
  8
細線
 48
50.0
100
AcDbLine
 10
11842.72148434441
 20
4102.025570836416
 30
0.0
 11
11842.72148434442
 21
2012.025570836417
 31
0.0
  0
LINE
  5
19AEB
330
747D
100
AcDbEntity
  8
細線
 48
50.0
100
AcDbLine
 10
11702.72148434441
 20
4102.025570836416
 30
0.0
 11
11702.72148434442
 21
2012.025570836417
 31
0.0
  0
LINE
  5
19AEC
330
747D
100
AcDbEntity
  8
細線
 48
50.0
100
AcDbLine
 10
11687.72148434441
 20
4102.025570836416
 30
0.0
 11
11687.72148434442
 21
2012.025570836417
 31
0.0
  0
LINE
  5
19AED
330
747D
100
AcDbEntity
  8
細線
 48
50.0
100
AcDbLine
 10
11547.72148434441
 20
4102.025570836416
 30
0.0
 11
11547.72148434442
 21
2012.025570836417
 31
0.0
  0
LINE
  5
19AEE
330
747D
100
AcDbEntity
  8
細線
 48
50.0
100
AcDbLine
 10
11562.72148434441
 20
4102.025570836416
 30
0.0
 11
11562.72148434442
 21
2012.025570836417
 31
0.0
  0
LINE
  5
19AEF
330
747D
100
AcDbEntity
  8
部品1
100
AcDbLine
 10
11905.22148434441
 20
4102.025570836416
 30
0.0
 11
11905.22148434441
 21
2012.025570836417
 31
0.0
  0
LINE
  5
19AF0
330
747D
100
AcDbEntity
  8
細線
 48
50.0
100
AcDbLine
 10
13242.72148434441
 20
4102.025570836417
 30
0.0
 11
13242.72148434441
 21
2012.025570836418
 31
0.0
  0
LINE
  5
19AF1
330
747D
100
AcDbEntity
  8
細線
 48
50.0
100
AcDbLine
 10
13227.72148434441
 20
4102.025570836417
 30
0.0
 11
13227.72148434441
 21
2012.025570836418
 31
0.0
  0
LINE
  5
19AF2
330
747D
100
AcDbEntity
  8
細線
 48
50.0
100
AcDbLine
 10
13367.72148434441
 20
4102.025570836417
 30
0.0
 11
13367.72148434441
 21
2012.025570836418
 31
0.0
  0
LINE
  5
19AF3
330
747D
100
AcDbEntity
  8
細線
 48
50.0
100
AcDbLine
 10
13382.72148434441
 20
4102.025570836417
 30
0.0
 11
13382.72148434441
 21
2012.025570836418
 31
0.0
  0
LINE
  5
19AF4
330
747D
100
AcDbEntity
  8
細線
 48
50.0
100
AcDbLine
 10
13522.72148434441
 20
4102.025570836417
 30
0.0
 11
13522.72148434441
 21
2012.025570836418
 31
0.0
  0
LINE
  5
19AF5
330
747D
100
AcDbEntity
  8
細線
 48
50.0
100
AcDbLine
 10
13507.72148434441
 20
4102.025570836417
 30
0.0
 11
13507.72148434441
 21
2012.025570836418
 31
0.0
  0
DIMENSION
  5
19AF6
330
747D
100
AcDbEntity
  8
寸法
 48
50.0
100
AcDbDimension
  2
*D34
 10
9969.613077576028
 20
4211.370829709763
 30
0.0
 11
9980.278552834963
 21
4582.217492951461
 31
0.0
 70
   161
 71
     5
 42
141.0
  3
INABA_S40G
100
AcDbAlignedDimension
 13
10549.61750450299
 23
4335.748319671096
 33
0.0
 14
10545.56404894636
 24
4194.806595905384
 34
0.0
1001
ACAD
1000
DSTYLE
1002
{
1070
   174
1070
     0
1070
   272
1070
     1
1070
   288
1070
     0
1070
   341
1005
0
1002
}
  0
LINE
  5
19AF7
330
747D
100
AcDbEntity
  8
部品1
100
AcDbLine
 10
12745.22148434441
 20
4102.025570836416
 30
0.0
 11
12745.22148434441
 21
2012.025570836418
 31
0.0
  0
LINE
  5
19AF8
330
747D
100
AcDbEntity
  8
細線
 48
50.0
100
AcDbLine
 10
12822.72148434441
 20
4102.025570836416
 30
0.0
 11
12822.72148434441
 21
2012.025570836418
 31
0.0
  0
LINE
  5
19AF9
330
747D
100
AcDbEntity
  8
細線
 48
50.0
100
AcDbLine
 10
12807.72148434441
 20
4102.025570836416
 30
0.0
 11
12807.72148434441
 21
2012.025570836418
 31
0.0
  0
LINE
  5
19AFA
330
747D
100
AcDbEntity
  8
細線
 48
50.0
100
AcDbLine
 10
12947.72148434441
 20
4102.025570836416
 30
0.0
 11
12947.72148434441
 21
2012.025570836418
 31
0.0
  0
LINE
  5
19AFB
330
747D
100
AcDbEntity
  8
細線
 48
50.0
100
AcDbLine
 10
12962.72148434441
 20
4102.025570836416
 30
0.0
 11
12962.72148434441
 21
2012.025570836418
 31
0.0
  0
LINE
  5
19AFC
330
747D
100
AcDbEntity
  8
細線
 48
50.0
100
AcDbLine
 10
13102.72148434441
 20
4102.025570836416
 30
0.0
 11
13102.72148434441
 21
2012.025570836418
 31
0.0
  0
LINE
  5
19AFD
330
747D
100
AcDbEntity
  8
細線
 48
50.0
100
AcDbLine
 10
13087.72148434441
 20
4102.025570836416
 30
0.0
 11
13087.72148434441
 21
2012.025570836418
 31
0.0
  0
LINE
  5
19AFE
330
747D
100
AcDbEntity
  8
部品1
100
AcDbLine
 10
13165.2214843444
 20
4102.025570836417
 30
0.0
 11
13165.2214843444
 21
2012.02557083642
 31
0.0
  0
LINE
  5
19AFF
330
747D
100
AcDbEntity
  8
部品1
100
AcDbLine
 10
13585.22148434439
 20
4102.025570836417
 30
0.0
 11
13585.22148434439
 21
2012.02557083642
 31
0.0
  0
LINE
  5
19B00
330
747D
100
AcDbEntity
  8
細線
 48
50.0
100
AcDbLine
 10
13927.72148434443
 20
4102.02557083642
 30
0.0
 11
13927.72148434443
 21
2012.02557083642
 31
0.0
  0
LINE
  5
19B01
330
747D
100
AcDbEntity
  8
細線
 48
50.0
100
AcDbLine
 10
13942.72148434443
 20
4102.02557083642
 30
0.0
 11
13942.72148434443
 21
2012.02557083642
 31
0.0
  0
LINE
  5
19B02
330
747D
100
AcDbEntity
  8
細線
 48
50.0
100
AcDbLine
 10
13802.72148434443
 20
4102.02557083642
 30
0.0
 11
13802.72148434443
 21
2012.02557083642
 31
0.0
  0
LINE
  5
19B03
330
747D
100
AcDbEntity
  8
細線
 48
50.0
100
AcDbLine
 10
13787.72148434443
 20
4102.02557083642
 30
0.0
 11
13787.72148434443
 21
2012.02557083642
 31
0.0
  0
LINE
  5
19B04
330
747D
100
AcDbEntity
  8
細線
 48
50.0
100
AcDbLine
 10
13647.72148434443
 20
4102.02557083642
 30
0.0
 11
13647.72148434443
 21
2012.02557083642
 31
0.0
  0
LINE
  5
19B05
330
747D
100
AcDbEntity
  8
細線
 48
50.0
100
AcDbLine
 10
13662.72148434443
 20
4102.02557083642
 30
0.0
 11
13662.72148434443
 21
2012.02557083642
 31
0.0
  0
LWPOLYLINE
  5
19B50
330
747D
100
AcDbEntity
  8
部品1
100
AcDbPolyline
 90
        4
 70
     1
 43
0.0
 10
11953.48615123019
 20
1212.025570836416
 10
11953.48615123019
 20
972.1332492908826
 10
12716.95681745863
 20
972.1332492908826
 10
12716.95681745863
 20
1212.025570836416
  0
TEXT
  5
19B51
330
747D
100
AcDbEntity
  8
部品1
100
AcDbText
 10
12042.9322526538
 20
1019.132041617891
 30
0.0
 40
135.0
  1
側面図
  7
STYLE2
100
AcDbText
  0
LINE
  5
1A0FA
330
747D
100
AcDbEntity
  8
部品1
100
AcDbLine
 10
5346.673057123664
 20
10016.06398349152
 30
0.0
 11
5374.673057123664
 21
10016.06398349152
 31
0.0
  0
LINE
  5
1A0FB
330
747D
100
AcDbEntity
  8
部品1
100
AcDbLine
 10
2772.67305712364
 20
10016.06398349143
 30
0.0
 11
2744.673057123641
 21
10016.06398349143
 31
0.0
  0
LINE
  5
1A0FC
330
747D
100
AcDbEntity
  8
部品1
100
AcDbLine
 10
7976.673057123666
 20
10016.06398349156
 30
0.0
 11
8004.673057123669
 21
10016.06398349156
 31
0.0
  0
DIMENSION
  5
1A3DA
330
747D
100
AcDbEntity
  8
寸法
 48
50.0
100
AcDbDimension
  2
*D35
 10
8292.216159445414
 20
3910.025570836417
 30
0.0
 11
8192.216159445413
 21
2936.025570836418
 31
0.0
 70
    32
  1
有効開口部高サ <>
 71
     5
 42
1948.000000000001
  3
INABA_S40G
100
AcDbAlignedDimension
 13
8004.673057123666
 23
1962.025570836416
 33
0.0
 14
8004.673057123666
 24
3910.025570836417
 34
0.0
 50
90.0
100
AcDbRotatedDimension
  0
DIMENSION
  5
1A3DB
330
747D
100
AcDbEntity
  8
寸法
 48
50.0
100
AcDbDimension
  2
*D36
 10
8292.216159445414
 20
3937.025570836418
 30
0.0
 11
8432.38598269178
 21
3937.992770676075
 31
0.0
 70
   160
 71
     5
 42
27.00000000000045
  3
INABA_S40G
100
AcDbAlignedDimension
 13
8004.673057123666
 23
3910.025570836417
 33
0.0
 14
8004.673057123664
 24
3937.025570836418
 34
0.0
 50
90.0
100
AcDbRotatedDimension
1001
ACAD
1000
DSTYLE
1002
{
1070
   279
1070
     2
1002
}
  0
DIMENSION
  5
1A3DC
330
747D
100
AcDbEntity
  8
寸法
 48
50.0
100
AcDbDimension
  2
*D37
 10
8292.216159445414
 20
4102.025570836416
 30
0.0
 11
8292.216159445414
 21
4340.510852210655
 31
0.0
 70
   160
 71
     5
 42
164.9999999999982
  3
INABA_S40G
100
AcDbAlignedDimension
 13
8004.673057123664
 23
3937.025570836418
 33
0.0
 14
8004.673057123666
 24
4102.025570836416
 34
0.0
 50
90.0
100
AcDbRotatedDimension
1001
ACAD
1000
DSTYLE
1002
{
1002
}
  0
TEXT
  5
1A554
330
747D
100
AcDbEntity
  8
文字
 62
     7
 48
50.0
100
AcDbText
 10
15022.63965474516
 20
9740.013745883723
 30
0.0
 40
100.0
  1
F12            1.2
  7
STYLE1
100
AcDbText
  0
TEXT
  5
1A66B
330
747D
100
AcDbEntity
  8
文字
 62
     7
 48
50.0
100
AcDbText
 10
15022.63965474517
 20
10760.01374588372
 30
0.0
 40
100.0
  1
F12         1.0,1.2
  7
STYLE1
100
AcDbText
  0
TEXT
  5
1A674
330
747D
100
AcDbEntity
  8
文字
 62
     7
 48
50.0
100
AcDbText
 10
15022.63965474516
 20
9060.013745883725
 30
0.0
 40
100.0
  1
F12            0.7
  7
STYLE1
100
AcDbText
  0
LINE
  5
1A676
330
747D
100
AcDbEntity
  8
破線
 48
5.0
100
AcDbLine
 10
5374.673057123665
 20
1687.025570836416
 30
0.0
 11
5374.673057123665
 21
1612.025570836416
 31
0.0
  0
LINE
  5
1A677
330
747D
100
AcDbEntity
  8
破線
 48
5.0
100
AcDbLine
 10
5324.673057123664
 20
1612.025570836416
 30
0.0
 11
5424.673057123665
 21
1612.025570836416
 31
0.0
  0
LINE
  5
1A84A
330
747D
100
AcDbEntity
  8
部品1
100
AcDbLine
 10
7529.67305712367
 20
10491.06398349159
 30
0.0
 11
7529.67305712367
 21
10463.06398349158
 31
0.0
  0
LINE
  5
1A8A1
330
747D
100
AcDbEntity
  8
部品1
100
AcDbLine
 10
4899.673057123671
 20
10491.06398349159
 30
0.0
 11
4899.673057123671
 21
10463.06398349158
 31
0.0
  0
LINE
  5
1A8A2
330
747D
100
AcDbEntity
  8
部品1
 48
50.0
100
AcDbLine
 10
4072.173057123672
 20
10455.06398349157
 30
0.0
 11
4072.173057123672
 21
10463.06398349158
 31
0.0
  0
LINE
  5
1A8A3
330
747D
100
AcDbEntity
  8
部品1
 48
50.0
100
AcDbLine
 10
4047.173057123671
 20
10455.06398349157
 30
0.0
 11
4047.173057123671
 21
10463.06398349158
 31
0.0
  0
LINE
  5
1A8A4
330
747D
100
AcDbEntity
  8
部品1
100
AcDbLine
 10
4479.67305712367
 20
10491.06398349159
 30
0.0
 11
4479.67305712367
 21
10463.06398349158
 31
0.0
  0
LINE
  5
1A8A5
330
747D
100
AcDbEntity
  8
部品1
100
AcDbLine
 10
4024.673057123672
 20
10481.06398349157
 30
0.0
 11
4024.673057123672
 21
10463.06398349157
 31
0.0
  0
LINE
  5
1A8A6
330
747D
100
AcDbEntity
  8
部品1
100
AcDbLine
 10
4024.673057123672
 20
10481.06398349157
 30
0.0
 11
4030.673057123672
 21
10481.06398349157
 31
0.0
  0
LINE
  5
1A8A7
330
747D
100
AcDbEntity
  8
部品1
100
AcDbLine
 10
4094.673057123674
 20
10481.06398349157
 30
0.0
 11
4094.673057123674
 21
10463.06398349157
 31
0.0
  0
LINE
  5
1A8A8
330
747D
100
AcDbEntity
  8
部品1
100
AcDbLine
 10
4088.673057123672
 20
10481.06398349157
 30
0.0
 11
4094.673057123674
 21
10481.06398349157
 31
0.0
  0
LINE
  5
1A8A9
330
747D
100
AcDbEntity
  8
部品1
100
AcDbLine
 10
4047.173057123671
 20
10455.06398349157
 30
0.0
 11
4072.173057123672
 21
10455.06398349157
 31
0.0
  0
LINE
  5
1A8AA
330
747D
100
AcDbEntity
  8
部品1
100
AcDbLine
 10
4059.67305712367
 20
10491.06398349159
 30
0.0
 11
4059.67305712367
 21
10463.06398349158
 31
0.0
  0
LINE
  5
1A8AB
330
747D
100
AcDbEntity
  8
部品1
100
AcDbLine
 10
3639.673057123673
 20
10491.06398349146
 30
0.0
 11
3639.673057123673
 21
10463.06398349146
 31
0.0
  0
LINE
  5
1A8AC
330
747D
100
AcDbEntity
  8
部品1
100
AcDbLine
 10
3639.673057123673
 20
10491.06398349146
 30
0.0
 11
3639.673057123673
 21
10463.06398349146
 31
0.0
  0
LINE
  5
1A8AD
330
747D
100
AcDbEntity
  8
部品1
100
AcDbLine
 10
3639.673057123673
 20
10491.06398349159
 30
0.0
 11
3639.673057123673
 21
10463.06398349158
 31
0.0
  0
LINE
  5
1A8AE
330
747D
100
AcDbEntity
  8
部品1
100
AcDbLine
 10
3219.673057123673
 20
10491.06398349146
 30
0.0
 11
3219.673057123673
 21
10463.06398349146
 31
0.0
  0
LINE
  5
1A8AF
330
747D
100
AcDbEntity
  8
部品1
100
AcDbLine
 10
3219.673057123673
 20
10491.06398349146
 30
0.0
 11
3219.673057123673
 21
10463.06398349146
 31
0.0
  0
LINE
  5
1A8B0
330
747D
100
AcDbEntity
  8
部品1
100
AcDbLine
 10
3219.673057123673
 20
10491.06398349159
 30
0.0
 11
3219.673057123673
 21
10463.06398349158
 31
0.0
  0
LINE
  5
1A8B1
330
747D
100
AcDbEntity
  8
部品1
100
AcDbLine
 10
4072.173057123672
 20
10463.06398349158
 30
0.0
 11
5346.673057123673
 21
10463.06398349156
 31
0.0
  0
LINE
  5
1A8B2
330
747D
100
AcDbEntity
  8
部品1
100
AcDbLine
 10
2772.673057123672
 20
10463.06398349158
 30
0.0
 11
4047.173057123671
 21
10463.06398349158
 31
0.0
  0
ARC
  5
1A94F
330
747D
100
AcDbEntity
  8
部品1
 48
0.01
100
AcDbCircle
 10
4586.673057123667
 20
4134.525570836415
 30
0.0
 40
2.0
100
AcDbArc
 50
180.0
 51
270.0
  0
ARC
  5
1A950
330
747D
100
AcDbEntity
  8
部品1
 48
0.01
100
AcDbCircle
 10
4586.673057123664
 20
4166.025570836415
 30
0.0
 40
2.0
100
AcDbArc
 50
90.0
 51
180.0
  0
ARC
  5
1A951
330
747D
100
AcDbEntity
  8
部品1
 48
0.01
100
AcDbCircle
 10
4762.673057123664
 20
4134.525570836415
 30
0.0
 40
2.0
100
AcDbArc
 50
270.0
 51
0.0
  0
ARC
  5
1A952
330
747D
100
AcDbEntity
  8
部品1
 48
0.01
100
AcDbCircle
 10
4762.673057123664
 20
4166.025570836415
 30
0.0
 40
2.0
100
AcDbArc
 50
0.0
 51
90.0
  0
LINE
  5
1A953
330
747D
100
AcDbEntity
  8
細線
100
AcDbLine
 10
4674.673057123667
 20
4138.525570836415
 30
0.0
 11
4600.673057123663
 21
4138.525570836415
 31
0.0
  0
LINE
  5
1A954
330
747D
100
AcDbEntity
  8
細線
100
AcDbLine
 10
4674.673057123664
 20
4161.525570836416
 30
0.0
 11
4748.673057123664
 21
4161.525570836416
 31
0.0
  0
LINE
  5
1A955
330
747D
100
AcDbEntity
  8
細線
100
AcDbLine
 10
4748.673057123664
 20
4138.525570836415
 30
0.0
 11
4674.673057123664
 21
4138.525570836415
 31
0.0
  0
LINE
  5
1A956
330
747D
100
AcDbEntity
  8
細線
100
AcDbLine
 10
4600.673057123663
 20
4161.525570836416
 30
0.0
 11
4674.673057123664
 21
4161.525570836416
 31
0.0
  0
LINE
  5
1A957
330
747D
100
AcDbEntity
  8
細線
100
AcDbLine
 10
4600.673057123663
 20
4138.525570836415
 30
0.0
 11
4600.673057123663
 21
4161.525570836416
 31
0.0
  0
LINE
  5
1A958
330
747D
100
AcDbEntity
  8
細線
100
AcDbLine
 10
4748.673057123664
 20
4161.525570836416
 30
0.0
 11
4748.673057123664
 21
4138.525570836415
 31
0.0
  0
LINE
  5
1A959
330
747D
100
AcDbEntity
  8
部品1
 48
0.01
100
AcDbLine
 10
4584.673057123668
 20
4134.525570836415
 30
0.0
 11
4584.673057123664
 21
4166.025570836415
 31
0.0
  0
LINE
  5
1A95A
330
747D
100
AcDbEntity
  8
部品1
 48
0.01
100
AcDbLine
 10
4762.673057123664
 20
4132.525570836416
 30
0.0
 11
4586.673057123667
 21
4132.525570836416
 31
0.0
  0
LINE
  5
1A95B
330
747D
100
AcDbEntity
  8
部品1
 48
0.01
100
AcDbLine
 10
4764.673057123664
 20
4166.025570836415
 30
0.0
 11
4764.673057123664
 21
4134.525570836415
 31
0.0
  0
LINE
  5
1A95C
330
747D
100
AcDbEntity
  8
部品1
 48
0.01
100
AcDbLine
 10
4586.673057123664
 20
4168.025570836415
 30
0.0
 11
4762.673057123664
 21
4168.025570836415
 31
0.0
  0
LINE
  5
1A95D
330
747D
100
AcDbEntity
  8
細線
100
AcDbLine
 10
4748.673057123664
 20
4155.525570836416
 30
0.0
 11
4674.673057123664
 21
4155.525570836416
 31
0.0
  0
LINE
  5
1A95E
330
747D
100
AcDbEntity
  8
細線
100
AcDbLine
 10
4748.673057123664
 20
4149.525570836416
 30
0.0
 11
4674.673057123664
 21
4149.525570836416
 31
0.0
  0
LINE
  5
1A95F
330
747D
100
AcDbEntity
  8
細線
100
AcDbLine
 10
4748.673057123667
 20
4143.525570836415
 30
0.0
 11
4674.673057123664
 21
4143.525570836415
 31
0.0
  0
LINE
  5
1A960
330
747D
100
AcDbEntity
  8
細線
100
AcDbLine
 10
4748.673057123664
 20
4155.525570836416
 30
0.0
 11
4679.673057123664
 21
4155.525570836416
 31
0.0
  0
LINE
  5
1A961
330
747D
100
AcDbEntity
  8
細線
100
AcDbLine
 10
4600.673057123668
 20
4155.525570836416
 30
0.0
 11
4674.673057123664
 21
4155.525570836416
 31
0.0
  0
LINE
  5
1A962
330
747D
100
AcDbEntity
  8
細線
100
AcDbLine
 10
4600.673057123668
 20
4143.525570836415
 30
0.0
 11
4674.673057123664
 21
4143.525570836415
 31
0.0
  0
LINE
  5
1A963
330
747D
100
AcDbEntity
  8
細線
100
AcDbLine
 10
4600.673057123668
 20
4149.525570836416
 30
0.0
 11
4674.673057123664
 21
4149.525570836416
 31
0.0
  0
LINE
  5
1A964
330
747D
100
AcDbEntity
  8
細線
100
AcDbLine
 10
4674.673057123664
 20
4161.525570836416
 30
0.0
 11
4674.673057123667
 21
4138.525570836415
 31
0.0
  0
LINE
  5
1A965
330
747D
100
AcDbEntity
  8
細線
100
AcDbLine
 10
3444.673057123668
 20
4161.525570836416
 30
0.0
 11
3444.673057123664
 21
4138.525570836415
 31
0.0
  0
LINE
  5
1A966
330
747D
100
AcDbEntity
  8
細線
100
AcDbLine
 10
3518.673057123664
 20
4149.525570836416
 30
0.0
 11
3444.673057123668
 21
4149.525570836416
 31
0.0
  0
LINE
  5
1A967
330
747D
100
AcDbEntity
  8
細線
100
AcDbLine
 10
3518.673057123664
 20
4143.525570836415
 30
0.0
 11
3444.673057123668
 21
4143.525570836415
 31
0.0
  0
LINE
  5
1A968
330
747D
100
AcDbEntity
  8
細線
100
AcDbLine
 10
3518.673057123664
 20
4155.525570836416
 30
0.0
 11
3444.673057123668
 21
4155.525570836416
 31
0.0
  0
LINE
  5
1A969
330
747D
100
AcDbEntity
  8
細線
100
AcDbLine
 10
3370.673057123668
 20
4155.525570836416
 30
0.0
 11
3439.673057123667
 21
4155.525570836416
 31
0.0
  0
LINE
  5
1A96A
330
747D
100
AcDbEntity
  8
細線
100
AcDbLine
 10
3370.673057123664
 20
4143.525570836415
 30
0.0
 11
3444.673057123668
 21
4143.525570836415
 31
0.0
  0
LINE
  5
1A96B
330
747D
100
AcDbEntity
  8
細線
100
AcDbLine
 10
3370.673057123668
 20
4149.525570836416
 30
0.0
 11
3444.673057123668
 21
4149.525570836416
 31
0.0
  0
LINE
  5
1A96C
330
747D
100
AcDbEntity
  8
細線
100
AcDbLine
 10
3370.673057123668
 20
4155.525570836416
 30
0.0
 11
3444.673057123668
 21
4155.525570836416
 31
0.0
  0
LINE
  5
1A96D
330
747D
100
AcDbEntity
  8
部品1
 48
0.01
100
AcDbLine
 10
3532.673057123667
 20
4168.025570836415
 30
0.0
 11
3356.673057123668
 21
4168.025570836415
 31
0.0
  0
LINE
  5
1A96E
330
747D
100
AcDbEntity
  8
部品1
 48
0.01
100
AcDbLine
 10
3354.673057123668
 20
4166.025570836415
 30
0.0
 11
3354.673057123668
 21
4134.525570836415
 31
0.0
  0
LINE
  5
1A96F
330
747D
100
AcDbEntity
  8
部品1
 48
0.01
100
AcDbLine
 10
3356.673057123668
 20
4132.525570836416
 30
0.0
 11
3532.673057123664
 21
4132.525570836416
 31
0.0
  0
LINE
  5
1A970
330
747D
100
AcDbEntity
  8
部品1
 48
0.01
100
AcDbLine
 10
3534.673057123664
 20
4134.525570836415
 30
0.0
 11
3534.673057123668
 21
4166.025570836415
 31
0.0
  0
LINE
  5
1A971
330
747D
100
AcDbEntity
  8
細線
100
AcDbLine
 10
3370.673057123668
 20
4161.525570836416
 30
0.0
 11
3370.673057123668
 21
4138.525570836415
 31
0.0
  0
LINE
  5
1A972
330
747D
100
AcDbEntity
  8
細線
100
AcDbLine
 10
3518.673057123668
 20
4138.525570836415
 30
0.0
 11
3518.673057123668
 21
4161.525570836416
 31
0.0
  0
LINE
  5
1A973
330
747D
100
AcDbEntity
  8
細線
100
AcDbLine
 10
3518.673057123668
 20
4161.525570836416
 30
0.0
 11
3444.673057123668
 21
4161.525570836416
 31
0.0
  0
LINE
  5
1A974
330
747D
100
AcDbEntity
  8
細線
100
AcDbLine
 10
3370.673057123668
 20
4138.525570836415
 30
0.0
 11
3444.673057123668
 21
4138.525570836415
 31
0.0
  0
LINE
  5
1A975
330
747D
100
AcDbEntity
  8
細線
100
AcDbLine
 10
3444.673057123668
 20
4161.525570836416
 30
0.0
 11
3370.673057123668
 21
4161.525570836416
 31
0.0
  0
LINE
  5
1A976
330
747D
100
AcDbEntity
  8
細線
100
AcDbLine
 10
3444.673057123664
 20
4138.525570836415
 30
0.0
 11
3518.673057123668
 21
4138.525570836415
 31
0.0
  0
ARC
  5
1A977
330
747D
100
AcDbEntity
  8
部品1
 48
0.01
100
AcDbCircle
 10
3356.673057123668
 20
4166.025570836415
 30
0.0
 40
2.0
100
AcDbArc
 50
90.0
 51
180.0
  0
ARC
  5
1A978
330
747D
100
AcDbEntity
  8
部品1
 48
0.01
100
AcDbCircle
 10
3356.673057123668
 20
4134.525570836415
 30
0.0
 40
2.0
100
AcDbArc
 50
180.0
 51
270.0
  0
ARC
  5
1A979
330
747D
100
AcDbEntity
  8
部品1
 48
0.01
100
AcDbCircle
 10
3532.673057123667
 20
4166.025570836415
 30
0.0
 40
2.0
100
AcDbArc
 50
0.0
 51
90.0
  0
ARC
  5
1A97A
330
747D
100
AcDbEntity
  8
部品1
 48
0.01
100
AcDbCircle
 10
3532.673057123664
 20
4134.525570836415
 30
0.0
 40
2.0
100
AcDbArc
 50
270.0
 51
0.0
  0
ARC
  5
1A97B
330
747D
100
AcDbEntity
  8
細線
 48
50.0
100
AcDbCircle
 10
3759.673057123662
 20
2524.525570836416
 30
0.0
 40
15.0
100
AcDbArc
 50
90.0
 51
270.0
  0
ARC
  5
1A97C
330
747D
100
AcDbEntity
  8
細線
 48
50.0
100
AcDbCircle
 10
3859.673057123661
 20
2524.525570836416
 30
0.0
 40
15.0
100
AcDbArc
 50
270.0
 51
90.0
  0
LINE
  5
1A97D
330
747D
100
AcDbEntity
  8
細線
 48
50.0
100
AcDbLine
 10
3759.673057123662
 20
2539.525570836416
 30
0.0
 11
3859.673057123661
 21
2539.525570836416
 31
0.0
  0
LINE
  5
1A97E
330
747D
100
AcDbEntity
  8
細線
 48
50.0
100
AcDbLine
 10
3859.673057123661
 20
2509.525570836416
 30
0.0
 11
3759.673057123662
 21
2509.525570836416
 31
0.0
  0
LINE
  5
1A97F
330
747D
100
AcDbEntity
  8
細線
 48
50.0
100
AcDbLine
 10
4359.673057123661
 20
2509.525570836416
 30
0.0
 11
4259.673057123661
 21
2509.525570836416
 31
0.0
  0
LINE
  5
1A980
330
747D
100
AcDbEntity
  8
細線
 48
50.0
100
AcDbLine
 10
4259.673057123661
 20
2539.525570836416
 30
0.0
 11
4359.673057123661
 21
2539.525570836416
 31
0.0
  0
ARC
  5
1A981
330
747D
100
AcDbEntity
  8
細線
 48
50.0
100
AcDbCircle
 10
4259.673057123661
 20
2524.525570836416
 30
0.0
 40
15.0
100
AcDbArc
 50
90.0
 51
270.0
  0
ARC
  5
1A982
330
747D
100
AcDbEntity
  8
細線
 48
50.0
100
AcDbCircle
 10
4359.673057123661
 20
2524.525570836416
 30
0.0
 40
15.0
100
AcDbArc
 50
270.0
 51
90.0
  0
CIRCLE
  5
1A983
330
747D
100
AcDbEntity
  8
細線
 48
50.0
100
AcDbCircle
 10
4059.673057123661
 20
2849.525570836416
 30
0.0
 40
18.0
  0
CIRCLE
  5
1A984
330
747D
100
AcDbEntity
  8
細線
 48
50.0
100
AcDbCircle
 10
6689.673057123662
 20
2849.525570836416
 30
0.0
 40
18.0
  0
ARC
  5
1A985
330
747D
100
AcDbEntity
  8
細線
 48
50.0
100
AcDbCircle
 10
6989.673057123662
 20
2524.525570836416
 30
0.0
 40
15.0
100
AcDbArc
 50
270.0
 51
90.0
  0
ARC
  5
1A986
330
747D
100
AcDbEntity
  8
細線
 48
50.0
100
AcDbCircle
 10
6889.673057123662
 20
2524.525570836416
 30
0.0
 40
15.0
100
AcDbArc
 50
90.0
 51
270.0
  0
LINE
  5
1A987
330
747D
100
AcDbEntity
  8
細線
 48
50.0
100
AcDbLine
 10
6889.673057123662
 20
2539.525570836416
 30
0.0
 11
6989.673057123662
 21
2539.525570836416
 31
0.0
  0
LINE
  5
1A988
330
747D
100
AcDbEntity
  8
細線
 48
50.0
100
AcDbLine
 10
6989.673057123662
 20
2509.525570836416
 30
0.0
 11
6889.673057123662
 21
2509.525570836416
 31
0.0
  0
LINE
  5
1A989
330
747D
100
AcDbEntity
  8
細線
 48
50.0
100
AcDbLine
 10
6489.673057123662
 20
2509.525570836416
 30
0.0
 11
6389.673057123662
 21
2509.525570836416
 31
0.0
  0
LINE
  5
1A98A
330
747D
100
AcDbEntity
  8
細線
 48
50.0
100
AcDbLine
 10
6389.673057123662
 20
2539.525570836416
 30
0.0
 11
6489.673057123662
 21
2539.525570836416
 31
0.0
  0
ARC
  5
1A98B
330
747D
100
AcDbEntity
  8
細線
 48
50.0
100
AcDbCircle
 10
6489.673057123662
 20
2524.525570836416
 30
0.0
 40
15.0
100
AcDbArc
 50
270.0
 51
90.0
  0
ARC
  5
1A98C
330
747D
100
AcDbEntity
  8
細線
 48
50.0
100
AcDbCircle
 10
6389.673057123662
 20
2524.525570836416
 30
0.0
 40
15.0
100
AcDbArc
 50
90.0
 51
270.0
  0
ARC
  5
1A98D
330
747D
100
AcDbEntity
  8
部品1
 48
0.01
100
AcDbCircle
 10
6162.673057123664
 20
4134.525570836415
 30
0.0
 40
2.0
100
AcDbArc
 50
270.0
 51
0.0
  0
ARC
  5
1A98E
330
747D
100
AcDbEntity
  8
部品1
 48
0.01
100
AcDbCircle
 10
6162.673057123668
 20
4166.025570836415
 30
0.0
 40
2.0
100
AcDbArc
 50
0.0
 51
90.0
  0
ARC
  5
1A98F
330
747D
100
AcDbEntity
  8
部品1
 48
0.01
100
AcDbCircle
 10
5986.673057123668
 20
4134.525570836415
 30
0.0
 40
2.0
100
AcDbArc
 50
180.0
 51
270.0
  0
ARC
  5
1A990
330
747D
100
AcDbEntity
  8
部品1
 48
0.01
100
AcDbCircle
 10
5986.673057123668
 20
4166.025570836415
 30
0.0
 40
2.0
100
AcDbArc
 50
90.0
 51
180.0
  0
LINE
  5
1A991
330
747D
100
AcDbEntity
  8
細線
100
AcDbLine
 10
6074.673057123664
 20
4138.525570836415
 30
0.0
 11
6148.673057123668
 21
4138.525570836415
 31
0.0
  0
LINE
  5
1A992
330
747D
100
AcDbEntity
  8
細線
100
AcDbLine
 10
6074.673057123668
 20
4161.525570836416
 30
0.0
 11
6000.673057123668
 21
4161.525570836416
 31
0.0
  0
LINE
  5
1A993
330
747D
100
AcDbEntity
  8
細線
100
AcDbLine
 10
6000.673057123668
 20
4138.525570836415
 30
0.0
 11
6074.673057123668
 21
4138.525570836415
 31
0.0
  0
LINE
  5
1A994
330
747D
100
AcDbEntity
  8
細線
100
AcDbLine
 10
6148.673057123668
 20
4161.525570836416
 30
0.0
 11
6074.673057123668
 21
4161.525570836416
 31
0.0
  0
LINE
  5
1A995
330
747D
100
AcDbEntity
  8
細線
100
AcDbLine
 10
6148.673057123668
 20
4138.525570836415
 30
0.0
 11
6148.673057123668
 21
4161.525570836416
 31
0.0
  0
LINE
  5
1A996
330
747D
100
AcDbEntity
  8
細線
100
AcDbLine
 10
6000.673057123668
 20
4161.525570836416
 30
0.0
 11
6000.673057123668
 21
4138.525570836415
 31
0.0
  0
LINE
  5
1A997
330
747D
100
AcDbEntity
  8
部品1
 48
0.01
100
AcDbLine
 10
6164.673057123664
 20
4134.525570836415
 30
0.0
 11
6164.673057123668
 21
4166.025570836415
 31
0.0
  0
LINE
  5
1A998
330
747D
100
AcDbEntity
  8
部品1
 48
0.01
100
AcDbLine
 10
5986.673057123668
 20
4132.525570836416
 30
0.0
 11
6162.673057123664
 21
4132.525570836416
 31
0.0
  0
LINE
  5
1A999
330
747D
100
AcDbEntity
  8
部品1
 48
0.01
100
AcDbLine
 10
5984.673057123668
 20
4166.025570836415
 30
0.0
 11
5984.673057123668
 21
4134.525570836415
 31
0.0
  0
LINE
  5
1A99A
330
747D
100
AcDbEntity
  8
部品1
 48
0.01
100
AcDbLine
 10
6162.673057123668
 20
4168.025570836415
 30
0.0
 11
5986.673057123668
 21
4168.025570836415
 31
0.0
  0
LINE
  5
1A99B
330
747D
100
AcDbEntity
  8
細線
100
AcDbLine
 10
6000.673057123668
 20
4155.525570836416
 30
0.0
 11
6074.673057123668
 21
4155.525570836416
 31
0.0
  0
LINE
  5
1A99C
330
747D
100
AcDbEntity
  8
細線
100
AcDbLine
 10
6000.673057123668
 20
4149.525570836416
 30
0.0
 11
6074.673057123668
 21
4149.525570836416
 31
0.0
  0
LINE
  5
1A99D
330
747D
100
AcDbEntity
  8
細線
100
AcDbLine
 10
6000.673057123663
 20
4143.525570836415
 30
0.0
 11
6074.673057123668
 21
4143.525570836415
 31
0.0
  0
LINE
  5
1A99E
330
747D
100
AcDbEntity
  8
細線
100
AcDbLine
 10
6000.673057123668
 20
4155.525570836416
 30
0.0
 11
6069.673057123668
 21
4155.525570836416
 31
0.0
  0
LINE
  5
1A99F
330
747D
100
AcDbEntity
  8
細線
100
AcDbLine
 10
6148.673057123664
 20
4155.525570836416
 30
0.0
 11
6074.673057123668
 21
4155.525570836416
 31
0.0
  0
LINE
  5
1A9A0
330
747D
100
AcDbEntity
  8
細線
100
AcDbLine
 10
6148.673057123664
 20
4143.525570836415
 30
0.0
 11
6074.673057123668
 21
4143.525570836415
 31
0.0
  0
LINE
  5
1A9A1
330
747D
100
AcDbEntity
  8
細線
100
AcDbLine
 10
6148.673057123664
 20
4149.525570836416
 30
0.0
 11
6074.673057123668
 21
4149.525570836416
 31
0.0
  0
LINE
  5
1A9A2
330
747D
100
AcDbEntity
  8
細線
100
AcDbLine
 10
6074.673057123668
 20
4161.525570836416
 30
0.0
 11
6074.673057123664
 21
4138.525570836415
 31
0.0
  0
LINE
  5
1A9A3
330
747D
100
AcDbEntity
  8
細線
100
AcDbLine
 10
7304.673057123664
 20
4161.525570836416
 30
0.0
 11
7304.673057123668
 21
4138.525570836415
 31
0.0
  0
LINE
  5
1A9A4
330
747D
100
AcDbEntity
  8
細線
100
AcDbLine
 10
7230.673057123668
 20
4149.525570836416
 30
0.0
 11
7304.673057123664
 21
4149.525570836416
 31
0.0
  0
LINE
  5
1A9A5
330
747D
100
AcDbEntity
  8
細線
100
AcDbLine
 10
7230.673057123668
 20
4143.525570836415
 30
0.0
 11
7304.673057123664
 21
4143.525570836415
 31
0.0
  0
LINE
  5
1A9A6
330
747D
100
AcDbEntity
  8
細線
100
AcDbLine
 10
7230.673057123668
 20
4155.525570836416
 30
0.0
 11
7304.673057123664
 21
4155.525570836416
 31
0.0
  0
LINE
  5
1A9A7
330
747D
100
AcDbEntity
  8
細線
100
AcDbLine
 10
7378.673057123664
 20
4155.525570836416
 30
0.0
 11
7309.673057123664
 21
4155.525570836416
 31
0.0
  0
LINE
  5
1A9A8
330
747D
100
AcDbEntity
  8
細線
100
AcDbLine
 10
7378.673057123667
 20
4143.525570836415
 30
0.0
 11
7304.673057123664
 21
4143.525570836415
 31
0.0
  0
LINE
  5
1A9A9
330
747D
100
AcDbEntity
  8
細線
100
AcDbLine
 10
7378.673057123664
 20
4149.525570836416
 30
0.0
 11
7304.673057123664
 21
4149.525570836416
 31
0.0
  0
LINE
  5
1A9AA
330
747D
100
AcDbEntity
  8
細線
100
AcDbLine
 10
7378.673057123664
 20
4155.525570836416
 30
0.0
 11
7304.673057123664
 21
4155.525570836416
 31
0.0
  0
LINE
  5
1A9AB
330
747D
100
AcDbEntity
  8
部品1
 48
0.01
100
AcDbLine
 10
7216.673057123664
 20
4168.025570836415
 30
0.0
 11
7392.673057123665
 21
4168.025570836415
 31
0.0
  0
LINE
  5
1A9AC
330
747D
100
AcDbEntity
  8
部品1
 48
0.01
100
AcDbLine
 10
7394.673057123664
 20
4166.025570836415
 30
0.0
 11
7394.673057123664
 21
4134.525570836415
 31
0.0
  0
LINE
  5
1A9AD
330
747D
100
AcDbEntity
  8
部品1
 48
0.01
100
AcDbLine
 10
7392.673057123665
 20
4132.525570836416
 30
0.0
 11
7216.673057123668
 21
4132.525570836416
 31
0.0
  0
LINE
  5
1A9AE
330
747D
100
AcDbEntity
  8
部品1
 48
0.01
100
AcDbLine
 10
7214.673057123667
 20
4134.525570836415
 30
0.0
 11
7214.673057123665
 21
4166.025570836415
 31
0.0
  0
LINE
  5
1A9AF
330
747D
100
AcDbEntity
  8
細線
100
AcDbLine
 10
7378.673057123664
 20
4161.525570836416
 30
0.0
 11
7378.673057123664
 21
4138.525570836415
 31
0.0
  0
LINE
  5
1A9B0
330
747D
100
AcDbEntity
  8
細線
100
AcDbLine
 10
7230.673057123664
 20
4138.525570836415
 30
0.0
 11
7230.673057123664
 21
4161.525570836416
 31
0.0
  0
LINE
  5
1A9B1
330
747D
100
AcDbEntity
  8
細線
100
AcDbLine
 10
7230.673057123664
 20
4161.525570836416
 30
0.0
 11
7304.673057123664
 21
4161.525570836416
 31
0.0
  0
LINE
  5
1A9B2
330
747D
100
AcDbEntity
  8
細線
100
AcDbLine
 10
7378.673057123664
 20
4138.525570836415
 30
0.0
 11
7304.673057123664
 21
4138.525570836415
 31
0.0
  0
LINE
  5
1A9B3
330
747D
100
AcDbEntity
  8
細線
100
AcDbLine
 10
7304.673057123664
 20
4161.525570836416
 30
0.0
 11
7378.673057123664
 21
4161.525570836416
 31
0.0
  0
LINE
  5
1A9B4
330
747D
100
AcDbEntity
  8
細線
100
AcDbLine
 10
7304.673057123668
 20
4138.525570836415
 30
0.0
 11
7230.673057123664
 21
4138.525570836415
 31
0.0
  0
ARC
  5
1A9B5
330
747D
100
AcDbEntity
  8
部品1
 48
0.01
100
AcDbCircle
 10
7392.673057123665
 20
4166.025570836415
 30
0.0
 40
2.0
100
AcDbArc
 50
0.0
 51
90.0
  0
ARC
  5
1A9B6
330
747D
100
AcDbEntity
  8
部品1
 48
0.01
100
AcDbCircle
 10
7392.673057123665
 20
4134.525570836415
 30
0.0
 40
2.0
100
AcDbArc
 50
270.0
 51
0.0
  0
ARC
  5
1A9B7
330
747D
100
AcDbEntity
  8
部品1
 48
0.01
100
AcDbCircle
 10
7216.673057123664
 20
4166.025570836415
 30
0.0
 40
2.0
100
AcDbArc
 50
90.0
 51
180.0
  0
ARC
  5
1A9B8
330
747D
100
AcDbEntity
  8
部品1
 48
0.01
100
AcDbCircle
 10
7216.673057123668
 20
4134.525570836415
 30
0.0
 40
2.0
100
AcDbArc
 50
180.0
 51
270.0
  0
ENDSEC
  0
SECTION
  2
OBJECTS
  0
DICTIONARY
  5
7471
330
0
100
AcDbDictionary
281
     1
  3
ACAD_COLOR
350
17AE2
  3
ACAD_GROUP
350
7472
  3
ACAD_LAYOUT
350
17AE3
  3
ACAD_MATERIAL
350
17AE1
  3
ACAD_MLINESTYLE
350
7473
  3
ACAD_PLOTSETTINGS
350
17AE4
  3
ACAD_PLOTSTYLENAME
350
17ADF
  3
ACDBHEADERROUNDTRIPXREC
350
1A9E5
  3
AcDbVariableDictionary
350
1A519
  3
CONTENTDICTIONARY
350
E71C
  3
DRAWINGVARIABLESDICT
350
F3B9
  0
DICTIONARY
  5
18C51
330
7467
100
AcDbDictionary
280
     1
281
     1
  3
ACAD_LAYERSTATES
360
18C52
  0
DICTIONARY
  5
17AE2
102
{ACAD_REACTORS
330
7471
102
}
330
7471
100
AcDbDictionary
281
     1
  0
DICTIONARY
  5
7472
102
{ACAD_REACTORS
330
7471
102
}
330
7471
100
AcDbDictionary
281
     1
  3
*A1
350
17FA7
  3
*A2
350
180C7
  3
*A3
350
180D2
  0
DICTIONARY
  5
17AE3
102
{ACAD_REACTORS
330
7471
102
}
330
7471
100
AcDbDictionary
281
     1
  3
Model
350
17AE5
  3
レイアウト1
350
17AE6
  0
DICTIONARY
  5
17AE1
102
{ACAD_REACTORS
330
7471
102
}
330
7471
100
AcDbDictionary
281
     1
  0
DICTIONARY
  5
7473
102
{ACAD_REACTORS
330
7471
102
}
330
7471
100
AcDbDictionary
281
     1
  3
STANDARD
350
7480
  0
DICTIONARY
  5
17AE4
102
{ACAD_REACTORS
330
7471
102
}
330
7471
100
AcDbDictionary
281
     1
  0
ACDBDICTIONARYWDFLT
  5
17ADF
102
{ACAD_REACTORS
330
7471
102
}
330
7471
100
AcDbDictionary
281
     1
  3
Normal
350
17AE0
100
AcDbDictionaryWithDefault
340
17AE0
  0
DICTIONARY
  5
1A9E5
102
{ACAD_REACTORS
330
7471
102
}
330
7471
100
AcDbDictionary
281
     1
  3
COLORDICT
350
1A9E7
  3
MATERIALDICT
350
1A9E6
  0
DICTIONARY
  5
1A519
102
{ACAD_REACTORS
330
7471
102
}
330
7471
100
AcDbDictionary
281
     1
  3
DIMASSOC
350
1A51A
  3
PROJECTNAME
350
1A51B
  0
DICTIONARY
  5
E71C
102
{ACAD_REACTORS
330
7471
102
}
330
7471
100
AcDbDictionary
281
     1
  0
DICTIONARY
  5
F3B9
102
{ACAD_REACTORS
330
7471
102
}
330
7471
100
AcDbDictionary
281
     1
1001
DRAWINGVARIABLESXDATA
1000
POLARMODE
1000
1
  0
DICTIONARY
  5
18C52
102
{ACAD_REACTORS
330
18C51
102
}
330
18C51
100
AcDbDictionary
281
     1
  0
GROUP
  5
17FA7
102
{ACAD_REACTORS
330
7472
102
}
330
7472
100
AcDbGroup
300

 70
     1
 71
     1
  0
GROUP
  5
180C7
102
{ACAD_REACTORS
330
7472
102
}
330
7472
100
AcDbGroup
300

 70
     1
 71
     1
  0
GROUP
  5
180D2
102
{ACAD_REACTORS
330
7472
102
}
330
7472
100
AcDbGroup
300

 70
     1
 71
     1
  0
LAYOUT
  5
17AE5
102
{ACAD_XDICTIONARY
360
1A9E8
102
}
102
{ACAD_REACTORS
330
17AE3
102
}
330
17AE3
100
AcDbPlotSettings
  1

  2
Canon iR C3880/C4580 LIPSLX
  4
A3
  6

 40
5.873749732971191
 41
5.873747825622558
 42
5.873748779296875
 43
5.873748779296875
 44
296.9259948730469
 45
419.9466552734374
 46
0.0
 47
0.0
 48
0.0
 49
0.0
140
0.0
141
0.0
142
1.0
143
40.0
 70
 11952
 72
     1
 73
     1
 74
     2
  7
inaba.ctb
 75
    24
147
0.025
148
0.0
149
0.0
100
AcDbLayout
  1
Model
 70
     1
 71
     0
 10
0.0
 20
0.0
 11
12.0
 21
9.0
 12
0.0
 22
0.0
 32
0.0
 14
0.0
 24
0.0
 34
0.0
 15
0.0
 25
0.0
 35
0.0
146
0.0
 13
0.0
 23
0.0
 33
0.0
 16
1.0
 26
0.0
 36
0.0
 17
0.0
 27
1.0
 37
0.0
 76
     0
330
747D
  0
LAYOUT
  5
17AE6
102
{ACAD_XDICTIONARY
360
1A9EA
102
}
102
{ACAD_REACTORS
330
17AE3
102
}
330
17AE3
100
AcDbPlotSettings
  1

  2
EPSON LP-8300
  4

  6

 40
0.0
 41
0.0
 42
0.0
 43
0.0
 44
0.0
 45
0.0
 46
0.0
 47
0.0
 48
0.0
 49
0.0
140
0.0
141
0.0
142
1.0
143
1.0
 70
   688
 72
     0
 73
     0
 74
     5
  7
inaba.ctb
 75
    16
147
1.0
148
0.0
149
0.0
100
AcDbLayout
  1
レイアウト1
 70
     0
 71
     1
 10
0.0
 20
0.0
 11
420.0
 21
297.0
 12
0.0
 22
0.0
 32
0.0
 14
1.000000000000000E+20
 24
1.000000000000000E+20
 34
1.000000000000000E+20
 15
-1.000000000000000E+20
 25
-1.000000000000000E+20
 35
-1.000000000000000E+20
146
0.0
 13
0.0
 23
0.0
 33
0.0
 16
1.0
 26
0.0
 36
0.0
 17
0.0
 27
1.0
 37
0.0
 76
     0
330
747A
  0
MLINESTYLE
  5
7480
102
{ACAD_REACTORS
330
7473
102
}
330
7473
100
AcDbMlineStyle
  2
STANDARD
 70
     0
  3

 62
     0
 51
90.0
 52
90.0
 71
     2
 49
0.5
 62
   256
  6
BYLAYER
 49
-0.5
 62
   256
  6
BYLAYER
  0
ACDBPLACEHOLDER
  5
17AE0
102
{ACAD_REACTORS
330
17ADF
102
}
330
17ADF
  0
XRECORD
  5
1A9E7
102
{ACAD_REACTORS
330
1A9E5
102
}
330
1A9E5
100
AcDbXrecord
280
     1
340
17AE2
  0
XRECORD
  5
1A9E6
102
{ACAD_REACTORS
330
1A9E5
102
}
330
1A9E5
100
AcDbXrecord
280
     1
340
17AE1
  0
DICTIONARYVAR
  5
1A51A
102
{ACAD_REACTORS
330
1A519
102
}
330
1A519
100
DictionaryVariables
280
     0
  1
1
  0
DICTIONARYVAR
  5
1A51B
102
{ACAD_REACTORS
330
1A519
102
}
330
1A519
100
DictionaryVariables
280
     0
  1

  0
DICTIONARY
  5
1A9E8
330
17AE5
100
AcDbDictionary
280
     1
281
     1
  3
ACAD_XREC_ROUNDTRIP
360
1A9E9
  0
DICTIONARY
  5
1A9EA
330
17AE6
100
AcDbDictionary
280
     1
281
     1
  3
ACAD_XREC_ROUNDTRIP
360
1A9EB
  0
XRECORD
  5
1A9E9
102
{ACAD_REACTORS
330
1A9E8
102
}
330
1A9E8
100
AcDbXrecord
280
     1
102
SHADEPLOT
 70
     0
102
SHADEPLOTRESLEVEL
 70
     2
102
SHADEPLOTCUSTOMDPI
 70
   300
  0
XRECORD
  5
1A9EB
102
{ACAD_REACTORS
330
1A9EA
102
}
330
1A9EA
100
AcDbXrecord
280
     1
102
SHADEPLOT
 70
     0
102
SHADEPLOTRESLEVEL
 70
     2
102
SHADEPLOTCUSTOMDPI
 70
   300
  0
ENDSEC
  0
EOF
