  0
SECTION
  2
HEADER
  9
$ACADVER
  1
AC1015
  9
$ACADMAINTVER
 70
    20
  9
$DWGCODEPAGE
  3
ANSI_932
  9
$INSBASE
 10
0.0
 20
0.0
 30
0.0
  9
$EXTMIN
 10
139.9999999999995
 20
-0.0000000000000909
 30
0.0
  9
$EXTMAX
 10
16307.2
 20
11409.6
 30
0.0
  9
$LIMMIN
 10
0.0
 20
0.0
  9
$LIMMAX
 10
16800.0
 20
11880.0
  9
$ORTHOMODE
 70
     0
  9
$REGENMODE
 70
     1
  9
$FILLMODE
 70
     1
  9
$QTEXTMODE
 70
     0
  9
$MIRRTEXT
 70
     1
  9
$LTSCALE
 40
20.0
  9
$ATTMODE
 70
     1
  9
$TEXTSIZE
 40
4.0
  9
$TRACEWID
 40
1.0
  9
$TEXTSTYLE
  7
MSPゴシック
  9
$CLAYER
  8
寸法
  9
$CELTYPE
  6
BYLAYER
  9
$CECOLOR
 62
   256
  9
$CELTSCALE
 40
50.0
  9
$DISPSILH
 70
     0
  9
$DIMSCALE
 40
40.0
  9
$DIMASZ
 40
2.5
  9
$DIMEXO
 40
0.5
  9
$DIMDLI
 40
7.0
  9
$DIMRND
 40
0.0
  9
$DIMDLE
 40
0.0
  9
$DIMEXE
 40
1.5
  9
$DIMTP
 40
0.0
  9
$DIMTM
 40
0.0
  9
$DIMTXT
 40
3.0
  9
$DIMCEN
 40
0.0
  9
$DIMTSZ
 40
0.0
  9
$DIMTOL
 70
     0
  9
$DIMLIM
 70
     0
  9
$DIMTIH
 70
     0
  9
$DIMTOH
 70
     0
  9
$DIMSE1
 70
     0
  9
$DIMSE2
 70
     0
  9
$DIMTAD
 70
     3
  9
$DIMZIN
 70
     8
  9
$DIMBLK
  1

  9
$DIMASO
 70
     1
  9
$DIMSHO
 70
     1
  9
$DIMPOST
  1

  9
$DIMAPOST
  1

  9
$DIMALT
 70
     0
  9
$DIMALTD
 70
     2
  9
$DIMALTF
 40
0.0394
  9
$DIMLFAC
 40
1.0
  9
$DIMTOFL
 70
     1
  9
$DIMTVP
 40
0.0
  9
$DIMTIX
 70
     1
  9
$DIMSOXD
 70
     0
  9
$DIMSAH
 70
     1
  9
$DIMBLK1
  1
DOTSMALL
  9
$DIMBLK2
  1
DOTSMALL
  9
$DIMSTYLE
  2
INABA_S40G
  9
$DIMCLRD
 70
     0
  9
$DIMCLRE
 70
     0
  9
$DIMCLRT
 70
     7
  9
$DIMTFAC
 40
1.0
  9
$DIMGAP
 40
1.0
  9
$DIMJUST
 70
     0
  9
$DIMSD1
 70
     0
  9
$DIMSD2
 70
     0
  9
$DIMTOLJ
 70
     1
  9
$DIMTZIN
 70
     0
  9
$DIMALTZ
 70
     0
  9
$DIMALTTZ
 70
     0
  9
$DIMUPT
 70
     0
  9
$DIMDEC
 70
     1
  9
$DIMTDEC
 70
     4
  9
$DIMALTU
 70
     2
  9
$DIMALTTD
 70
     2
  9
$DIMTXSTY
  7
STYLE1
  9
$DIMAUNIT
 70
     0
  9
$DIMADEC
 70
     0
  9
$DIMALTRND
 40
0.0
  9
$DIMAZIN
 70
     0
  9
$DIMDSEP
 70
    46
  9
$DIMATFIT
 70
     3
  9
$DIMFRAC
 70
     0
  9
$DIMLDRBLK
  1

  9
$DIMLUNIT
 70
     2
  9
$DIMLWD
 70
    -2
  9
$DIMLWE
 70
    -2
  9
$DIMTMOVE
 70
     2
  9
$LUNITS
 70
     2
  9
$LUPREC
 70
     1
  9
$SKETCHINC
 40
1.0
  9
$FILLETRAD
 40
3.0
  9
$AUNITS
 70
     0
  9
$AUPREC
 70
     0
  9
$MENU
  1
acad
  9
$ELEVATION
 40
0.0
  9
$PELEVATION
 40
0.0
  9
$THICKNESS
 40
0.0
  9
$LIMCHECK
 70
     0
  9
$CHAMFERA
 40
0.0
  9
$CHAMFERB
 40
0.0
  9
$CHAMFERC
 40
0.0
  9
$CHAMFERD
 40
0.0
  9
$SKPOLY
 70
     0
  9
$TDCREATE
 40
2451368.612993866
  9
$TDUCREATE
 40
2451368.237993866
  9
$TDUPDATE
 40
2455569.647662755
  9
$TDUUPDATE
 40
2455569.272662755
  9
$TDINDWG
 40
0.8473021528
  9
$TDUSRTIMER
 40
0.8473021528
  9
$USRTIMER
 70
     1
  9
$ANGBASE
 50
0.0
  9
$ANGDIR
 70
     0
  9
$PDMODE
 70
     3
  9
$PDSIZE
 40
2.0
  9
$PLINEWID
 40
0.0
  9
$SPLFRAME
 70
     0
  9
$SPLINETYPE
 70
     6
  9
$SPLINESEGS
 70
     8
  9
$HANDSEED
  5
1AB0F
  9
$SURFTAB1
 70
     6
  9
$SURFTAB2
 70
     6
  9
$SURFTYPE
 70
     6
  9
$SURFU
 70
     6
  9
$SURFV
 70
     6
  9
$UCSBASE
  2

  9
$UCSNAME
  2

  9
$UCSORG
 10
0.0
 20
0.0
 30
0.0
  9
$UCSXDIR
 10
1.0
 20
0.0
 30
0.0
  9
$UCSYDIR
 10
0.0
 20
1.0
 30
0.0
  9
$UCSORTHOREF
  2

  9
$UCSORTHOVIEW
 70
     0
  9
$UCSORGTOP
 10
0.0
 20
0.0
 30
0.0
  9
$UCSORGBOTTOM
 10
0.0
 20
0.0
 30
0.0
  9
$UCSORGLEFT
 10
0.0
 20
0.0
 30
0.0
  9
$UCSORGRIGHT
 10
0.0
 20
0.0
 30
0.0
  9
$UCSORGFRONT
 10
0.0
 20
0.0
 30
0.0
  9
$UCSORGBACK
 10
0.0
 20
0.0
 30
0.0
  9
$PUCSBASE
  2

  9
$PUCSNAME
  2

  9
$PUCSORG
 10
0.0
 20
0.0
 30
0.0
  9
$PUCSXDIR
 10
1.0
 20
0.0
 30
0.0
  9
$PUCSYDIR
 10
0.0
 20
1.0
 30
0.0
  9
$PUCSORTHOREF
  2

  9
$PUCSORTHOVIEW
 70
     0
  9
$PUCSORGTOP
 10
0.0
 20
0.0
 30
0.0
  9
$PUCSORGBOTTOM
 10
0.0
 20
0.0
 30
0.0
  9
$PUCSORGLEFT
 10
0.0
 20
0.0
 30
0.0
  9
$PUCSORGRIGHT
 10
0.0
 20
0.0
 30
0.0
  9
$PUCSORGFRONT
 10
0.0
 20
0.0
 30
0.0
  9
$PUCSORGBACK
 10
0.0
 20
0.0
 30
0.0
  9
$USERI1
 70
     0
  9
$USERI2
 70
     0
  9
$USERI3
 70
     0
  9
$USERI4
 70
     0
  9
$USERI5
 70
     0
  9
$USERR1
 40
0.0
  9
$USERR2
 40
0.0
  9
$USERR3
 40
0.0
  9
$USERR4
 40
0.0
  9
$USERR5
 40
0.0
  9
$WORLDVIEW
 70
     1
  9
$SHADEDGE
 70
     3
  9
$SHADEDIF
 70
    70
  9
$TILEMODE
 70
     1
  9
$MAXACTVP
 70
    16
  9
$PINSBASE
 10
0.0
 20
0.0
 30
0.0
  9
$PLIMCHECK
 70
     0
  9
$PEXTMIN
 10
1.000000000000000E+20
 20
1.000000000000000E+20
 30
1.000000000000000E+20
  9
$PEXTMAX
 10
-1.000000000000000E+20
 20
-1.000000000000000E+20
 30
-1.000000000000000E+20
  9
$PLIMMIN
 10
0.0
 20
0.0
  9
$PLIMMAX
 10
420.0
 20
297.0
  9
$UNITMODE
 70
     0
  9
$VISRETAIN
 70
     0
  9
$PLINEGEN
 70
     0
  9
$PSLTSCALE
 70
     0
  9
$TREEDEPTH
 70
  3020
  9
$CMLSTYLE
  2
STANDARD
  9
$CMLJUST
 70
     0
  9
$CMLSCALE
 40
1.0
  9
$PROXYGRAPHICS
 70
     1
  9
$MEASUREMENT
 70
     1
  9
$CELWEIGHT
370
    -1
  9
$ENDCAPS
280
     0
  9
$JOINSTYLE
280
     0
  9
$LWDISPLAY
290
     0
  9
$INSUNITS
 70
     0
  9
$HYPERLINKBASE
  1

  9
$STYLESHEET
  1
inaba.ctb
  9
$XEDIT
290
     1
  9
$CEPSNTYPE
380
     0
  9
$PSTYLEMODE
290
     1
  9
$FINGERPRINTGUID
  2
{0E4A3AB3-ADAA-44DC-861C-9525B65BB1EC}
  9
$VERSIONGUID
  2
{A67F87CF-B33A-4ECC-99C8-1AE6F342D1C9}
  9
$EXTNAMES
290
     1
  9
$PSVPSCALE
 40
0.0
  9
$OLESTARTUP
290
     0
  0
ENDSEC
  0
SECTION
  2
CLASSES
  0
CLASS
  1
ACDBDICTIONARYWDFLT
  2
AcDbDictionaryWithDefault
  3
ObjectDBX Classes
 90
        0
280
     0
281
     0
  0
CLASS
  1
DICTIONARYVAR
  2
AcDbDictionaryVar
  3
ObjectDBX Classes
 90
        0
280
     0
281
     0
  0
CLASS
  1
ACDBPLACEHOLDER
  2
AcDbPlaceHolder
  3
ObjectDBX Classes
 90
        0
280
     0
281
     0
  0
CLASS
  1
LAYOUT
  2
AcDbLayout
  3
ObjectDBX Classes
 90
        0
280
     0
281
     0
  0
ENDSEC
  0
SECTION
  2
TABLES
  0
TABLE
  2
VPORT
  5
746D
330
0
100
AcDbSymbolTable
 70
     2
  0
VPORT
  5
1AB07
330
746D
100
AcDbSymbolTableRecord
100
AcDbViewportTableRecord
  2
*Active
 70
     0
 10
0.0
 20
0.0
 11
1.0
 21
1.0
 12
11720.20566079003
 22
5704.608130720468
 13
0.0
 23
0.0
 14
10.0
 24
10.0
 15
10.0
 25
10.0
 16
0.0
 26
0.0
 36
1.0
 17
0.0
 27
0.0
 37
0.0
 40
11513.77443642125
 41
2.234800838574423
 42
50.0
 43
0.0
 44
0.0
 50
0.0
 51
0.0
 71
     0
 72
     0
 73
     1
 74
     0
 75
     0
 76
     0
 77
     0
 78
     0
281
     0
 65
     1
110
0.0
120
0.0
130
0.0
111
1.0
121
0.0
131
0.0
112
0.0
122
1.0
132
0.0
 79
     0
146
0.0
  0
ENDTAB
  0
TABLE
  2
LTYPE
  5
746A
330
0
100
AcDbSymbolTable
 70
     3
  0
LTYPE
  5
7477
330
746A
100
AcDbSymbolTableRecord
100
AcDbLinetypeTableRecord
  2
BYBLOCK
 70
     0
  3

 72
    65
 73
     0
 40
0.0
  0
LTYPE
  5
7478
330
746A
100
AcDbSymbolTableRecord
100
AcDbLinetypeTableRecord
  2
BYLAYER
 70
     0
  3

 72
    65
 73
     0
 40
0.0
  0
LTYPE
  5
7479
330
746A
100
AcDbSymbolTableRecord
100
AcDbLinetypeTableRecord
  2
CONTINUOUS
 70
     0
  3
Solid line
 72
    65
 73
     0
 40
0.0
  0
LTYPE
  5
781A
330
746A
100
AcDbSymbolTableRecord
100
AcDbLinetypeTableRecord
  2
HIDDEN
 70
     0
  3
__ __ __ __ __ __ __ __ __ __ __ __ __ __ __ __
 72
    65
 73
     2
 40
0.375
 49
0.25
 74
     0
 49
-0.125
 74
     0
  0
LTYPE
  5
781B
330
746A
100
AcDbSymbolTableRecord
100
AcDbLinetypeTableRecord
  2
PHANTOM
 70
     0
  3
______  __  __  ______  __  __  ______  __  __ 
 72
    65
 73
     6
 40
2.5
 49
1.25
 74
     0
 49
-0.25
 74
     0
 49
0.25
 74
     0
 49
-0.25
 74
     0
 49
0.25
 74
     0
 49
-0.25
 74
     0
  0
ENDTAB
  0
TABLE
  2
LAYER
  5
7467
102
{ACAD_XDICTIONARY
360
18B81
102
}
330
0
100
AcDbSymbolTable
 70
    10
  0
LAYER
  5
7474
330
7467
100
AcDbSymbolTableRecord
100
AcDbLayerTableRecord
  2
0
 70
     0
 62
     7
  6
CONTINUOUS
370
    -3
390
17AE0
  0
LAYER
  5
DEB3
330
7467
100
AcDbSymbolTableRecord
100
AcDbLayerTableRecord
  2
寸法
 70
     0
 62
     4
  6
CONTINUOUS
370
    -3
390
17AE0
  0
LAYER
  5
DEB4
330
7467
100
AcDbSymbolTableRecord
100
AcDbLayerTableRecord
  2
部品1
 70
     0
 62
     7
  6
CONTINUOUS
370
    -3
390
17AE0
  0
LAYER
  5
DEB5
330
7467
100
AcDbSymbolTableRecord
100
AcDbLayerTableRecord
  2
補助
 70
     0
 62
    -1
  6
CONTINUOUS
370
    -3
390
17AE0
  0
LAYER
  5
DEB6
330
7467
100
AcDbSymbolTableRecord
100
AcDbLayerTableRecord
  2
文字
 70
     0
 62
     7
  6
CONTINUOUS
370
    -3
390
17AE0
  0
LAYER
  5
F255
330
7467
100
AcDbSymbolTableRecord
100
AcDbLayerTableRecord
  2
DEFPOINTS
 70
     0
 62
     7
  6
CONTINUOUS
290
     0
370
    -3
390
17AE0
  0
LAYER
  5
10B54
330
7467
100
AcDbSymbolTableRecord
100
AcDbLayerTableRecord
  2
仕様書枠
 70
     0
 62
   230
  6
CONTINUOUS
370
    -3
390
17AE0
  0
LAYER
  5
11729
330
7467
100
AcDbSymbolTableRecord
100
AcDbLayerTableRecord
  2
Ｇ．Ｌ
 70
     0
 62
    30
  6
CONTINUOUS
370
    -3
390
17AE0
  0
LAYER
  5
1173F
330
7467
100
AcDbSymbolTableRecord
100
AcDbLayerTableRecord
  2
細線
 70
     0
 62
     5
  6
CONTINUOUS
370
    -3
390
17AE0
  0
LAYER
  5
142E2
330
7467
100
AcDbSymbolTableRecord
100
AcDbLayerTableRecord
  2
破線
 70
     0
 62
     2
  6
HIDDEN
370
    -3
390
17AE0
  0
ENDTAB
  0
TABLE
  2
STYLE
  5
7468
330
0
100
AcDbSymbolTable
 70
     7
  0
STYLE
  5
7475
330
7468
100
AcDbSymbolTableRecord
100
AcDbTextStyleTableRecord
  2
STANDARD
 70
     0
 40
0.0
 41
1.0
 50
0.0
 71
     0
 42
4.0
  3
txt
  4
C:\AutoCAD LT\bigfont.shx
  0
STYLE
  5
763C
330
7468
100
AcDbSymbolTableRecord
100
AcDbTextStyleTableRecord
  2
MSMINCHO
 70
     0
 40
0.0
 41
1.0
 50
0.0
 71
     0
 42
1.199999999999999
  3
MS PMincho.ttf
  4

1001
ACAD
1000
MS PMincho
1071
    32786
  0
STYLE
  5
F706
330
7468
100
AcDbSymbolTableRecord
100
AcDbTextStyleTableRecord
  2
STYLE1
 70
     0
 40
0.0
 41
1.0
 50
0.0
 71
     0
 42
4.0
  3
isocp.shx
  4
bigfont.shx
  0
STYLE
  5
103BF
330
7468
100
AcDbSymbolTableRecord
100
AcDbTextStyleTableRecord
  2
STYLE2
 70
     0
 40
0.0
 41
1.0
 50
0.0
 71
     0
 42
100.0
  3
MS PGothic.ttf
  4

1001
ACAD
1000
MS PGothic
1071
    32818
  0
STYLE
  5
10BAA
330
7468
100
AcDbSymbolTableRecord
100
AcDbTextStyleTableRecord
  2
STYLE3
 70
     0
 40
0.0
 41
1.0
 50
0.0
 71
     0
 42
100.0
  3
DFPGothic-EB.ttf
  4

1001
ACAD
1000
DFPGothic-EB
1071
    32818
  0
STYLE
  5
11A15
330
7468
100
AcDbSymbolTableRecord
100
AcDbTextStyleTableRecord
  2
MSGOTHIC
 70
     0
 40
0.0
 41
1.0
 50
0.0
 71
     0
 42
3.5
  3
MS PGothic.ttf
  4

1001
ACAD
1000
MS PGothic
1071
    32818
  0
STYLE
  5
13E96
330
7468
100
AcDbSymbolTableRecord
100
AcDbTextStyleTableRecord
  2
MSPゴシック
 70
     0
 40
0.0
 41
1.0
 50
0.0
 71
     0
 42
4.0
  3
MS PGothic.ttf
  4

1001
ACAD
1000
MS PGothic
1071
    32818
  0
ENDTAB
  0
TABLE
  2
VIEW
  5
746B
330
0
100
AcDbSymbolTable
 70
     0
  0
ENDTAB
  0
TABLE
  2
UCS
  5
746C
330
0
100
AcDbSymbolTable
 70
     0
  0
ENDTAB
  0
TABLE
  2
APPID
  5
746E
330
0
100
AcDbSymbolTable
 70
     6
  0
APPID
  5
7476
330
746E
100
AcDbSymbolTableRecord
100
AcDbRegAppTableRecord
  2
ACAD
 70
     0
  0
APPID
  5
DEA9
330
746E
100
AcDbSymbolTableRecord
100
AcDbRegAppTableRecord
  2
CONTENTBLOCKICON
 70
     0
  0
APPID
  5
DEAA
330
746E
100
AcDbSymbolTableRecord
100
AcDbRegAppTableRecord
  2
CONTENTBLOCKDESCRIPTION
 70
     0
  0
APPID
  5
E71D
330
746E
100
AcDbSymbolTableRecord
100
AcDbRegAppTableRecord
  2
CONTENTTABDATA
 70
     0
  0
APPID
  5
E71E
330
746E
100
AcDbSymbolTableRecord
100
AcDbRegAppTableRecord
  2
CONTENTCURRENTTAB
 70
     0
  0
APPID
  5
F3BA
330
746E
100
AcDbSymbolTableRecord
100
AcDbRegAppTableRecord
  2
DRAWINGVARIABLESXDATA
 70
     0
  0
ENDTAB
  0
TABLE
  2
DIMSTYLE
  5
746F
330
0
100
AcDbSymbolTable
 70
     1
100
AcDbDimStyleTable
 71
     1
340
F71F
  0
DIMSTYLE
105
F71F
102
{ACAD_REACTORS
330
162CD
330
162CE
330
162CF
330
162D0
330
162E4
330
162E7
330
162EA
330
162EB
330
16301
330
16302
330
1631F
330
16320
330
16333
330
1659C
330
1659A
330
165E9
330
166DD
330
16913
330
17BC4
330
17BC3
330
17B87
330
17B88
330
17B86
330
17C47
330
17C46
330
18EC5
330
18EC6
330
18EC7
330
18EF7
330
18EFB
330
18EFC
330
18EFD
330
18F0B
330
18F1A
330
19A02
330
19A12
330
19A13
330
19A14
330
1A299
330
1A29A
330
1A29B
102
}
330
746F
100
AcDbSymbolTableRecord
100
AcDbDimStyleTableRecord
  2
INABA_S40G
 70
     0
 40
40.0
 41
2.5
 42
0.5
 43
7.0
 44
1.5
 73
     0
 74
     0
 77
     3
 78
     8
140
3.0
141
0.0
143
0.0394
147
1.0
172
     1
173
     1
174
     1
178
     7
271
     1
340
F706
341
F770
343
F770
344
F770
  0
ENDTAB
  0
TABLE
  2
BLOCK_RECORD
  5
7466
330
0
100
AcDbSymbolTable
 70
    43
  0
BLOCK_RECORD
  5
747D
330
7466
100
AcDbSymbolTableRecord
100
AcDbBlockTableRecord
  2
*MODEL_SPACE
340
17AE5
  0
BLOCK_RECORD
  5
747A
330
7466
100
AcDbSymbolTableRecord
100
AcDbBlockTableRecord
  2
*PAPER_SPACE
340
17AE6
  0
BLOCK_RECORD
  5
F770
330
7466
100
AcDbSymbolTableRecord
100
AcDbBlockTableRecord
  2
_DOTSMALL
340
0
102
{BLKREFS
331
1A68C
331
1A68D
331
1A696
331
1A697
331
1A69F
331
1A6A0
331
1A6AA
331
1A6AB
331
1A6B3
331
1A6B4
331
1A6BE
331
1A6BF
331
1A6C7
331
1A6C8
331
1A6D0
331
1A6D1
331
1A6D9
331
1A6DA
331
1A756
331
1A757
331
1A761
331
1A762
331
1A76B
331
1A76C
331
1A776
331
1A777
331
1A780
331
1A781
331
1A789
331
1A78A
331
1A794
331
1A795
331
1A7A0
331
1A7A1
331
1A7AB
331
1A7AC
331
1A7BB
331
1A7BC
331
1A7C4
331
1A7C5
331
1A7CF
331
1A7D0
331
1A7DA
331
1A7DB
331
1A7E3
331
1A7E4
331
1A85D
331
1A85E
331
1A866
331
1A867
331
1A871
331
1A872
331
1A883
331
1A884
331
1A8C7
331
1A8C8
331
1A8D9
331
1A8DA
331
1A8E5
331
1A8E6
331
1A8EF
331
1A8F0
331
1A8FA
331
1A8FB
331
1A947
331
1A948
331
1A979
331
1A97A
331
1A9B3
331
1A9B4
331
1AA94
331
1AA95
331
1AA9D
331
1AA9E
331
1AAA6
331
1AAA7
331
1AAD3
331
1AAD4
331
1AAEA
331
1AAEB
331
1AAF3
331
1AAF4
102
}
  0
BLOCK_RECORD
  5
16338
330
7466
100
AcDbSymbolTableRecord
100
AcDbBlockTableRecord
  2
*D1
340
0
  0
BLOCK_RECORD
  5
16344
330
7466
100
AcDbSymbolTableRecord
100
AcDbBlockTableRecord
  2
*D2
340
0
  0
BLOCK_RECORD
  5
16352
330
7466
100
AcDbSymbolTableRecord
100
AcDbBlockTableRecord
  2
*D3
340
0
  0
BLOCK_RECORD
  5
16360
330
7466
100
AcDbSymbolTableRecord
100
AcDbBlockTableRecord
  2
*D4
340
0
  0
BLOCK_RECORD
  5
16384
330
7466
100
AcDbSymbolTableRecord
100
AcDbBlockTableRecord
  2
*D5
340
0
  0
BLOCK_RECORD
  5
1638F
330
7466
100
AcDbSymbolTableRecord
100
AcDbBlockTableRecord
  2
*D6
340
0
  0
BLOCK_RECORD
  5
1639B
330
7466
100
AcDbSymbolTableRecord
100
AcDbBlockTableRecord
  2
*D7
340
0
  0
BLOCK_RECORD
  5
163A9
330
7466
100
AcDbSymbolTableRecord
100
AcDbBlockTableRecord
  2
*D8
340
0
  0
BLOCK_RECORD
  5
163B8
330
7466
100
AcDbSymbolTableRecord
100
AcDbBlockTableRecord
  2
*D9
340
0
  0
BLOCK_RECORD
  5
163C7
330
7466
100
AcDbSymbolTableRecord
100
AcDbBlockTableRecord
  2
*D10
340
0
  0
BLOCK_RECORD
  5
163E1
330
7466
100
AcDbSymbolTableRecord
100
AcDbBlockTableRecord
  2
*D11
340
0
  0
BLOCK_RECORD
  5
163ED
330
7466
100
AcDbSymbolTableRecord
100
AcDbBlockTableRecord
  2
*D12
340
0
  0
BLOCK_RECORD
  5
163FB
330
7466
100
AcDbSymbolTableRecord
100
AcDbBlockTableRecord
  2
*D13
340
0
  0
BLOCK_RECORD
  5
165B5
330
7466
100
AcDbSymbolTableRecord
100
AcDbBlockTableRecord
  2
*D14
340
0
  0
BLOCK_RECORD
  5
165C4
330
7466
100
AcDbSymbolTableRecord
100
AcDbBlockTableRecord
  2
*D15
340
0
  0
BLOCK_RECORD
  5
165EA
330
7466
100
AcDbSymbolTableRecord
100
AcDbBlockTableRecord
  2
*D16
340
0
  0
BLOCK_RECORD
  5
166CF
330
7466
100
AcDbSymbolTableRecord
100
AcDbBlockTableRecord
  2
*D17
340
0
  0
BLOCK_RECORD
  5
16908
330
7466
100
AcDbSymbolTableRecord
100
AcDbBlockTableRecord
  2
*D18
340
0
  0
BLOCK_RECORD
  5
17BC5
330
7466
100
AcDbSymbolTableRecord
100
AcDbBlockTableRecord
  2
*D19
340
0
  0
BLOCK_RECORD
  5
17BD3
330
7466
100
AcDbSymbolTableRecord
100
AcDbBlockTableRecord
  2
*D20
340
0
  0
BLOCK_RECORD
  5
17BDE
330
7466
100
AcDbSymbolTableRecord
100
AcDbBlockTableRecord
  2
*D21
340
0
  0
BLOCK_RECORD
  5
17BEA
330
7466
100
AcDbSymbolTableRecord
100
AcDbBlockTableRecord
  2
*D22
340
0
  0
BLOCK_RECORD
  5
17BF8
330
7466
100
AcDbSymbolTableRecord
100
AcDbBlockTableRecord
  2
*D23
340
0
  0
BLOCK_RECORD
  5
17C48
330
7466
100
AcDbSymbolTableRecord
100
AcDbBlockTableRecord
  2
*D24
340
0
  0
BLOCK_RECORD
  5
17C56
330
7466
100
AcDbSymbolTableRecord
100
AcDbBlockTableRecord
  2
*D25
340
0
  0
BLOCK_RECORD
  5
19098
330
7466
100
AcDbSymbolTableRecord
100
AcDbBlockTableRecord
  2
*D26
340
0
  0
BLOCK_RECORD
  5
190A4
330
7466
100
AcDbSymbolTableRecord
100
AcDbBlockTableRecord
  2
*D27
340
0
  0
BLOCK_RECORD
  5
190B0
330
7466
100
AcDbSymbolTableRecord
100
AcDbBlockTableRecord
  2
*D28
340
0
  0
BLOCK_RECORD
  5
190BC
330
7466
100
AcDbSymbolTableRecord
100
AcDbBlockTableRecord
  2
*D29
340
0
  0
BLOCK_RECORD
  5
190CA
330
7466
100
AcDbSymbolTableRecord
100
AcDbBlockTableRecord
  2
*D30
340
0
  0
BLOCK_RECORD
  5
190D6
330
7466
100
AcDbSymbolTableRecord
100
AcDbBlockTableRecord
  2
*D31
340
0
  0
BLOCK_RECORD
  5
190E4
330
7466
100
AcDbSymbolTableRecord
100
AcDbBlockTableRecord
  2
*D32
340
0
  0
BLOCK_RECORD
  5
190F0
330
7466
100
AcDbSymbolTableRecord
100
AcDbBlockTableRecord
  2
*D33
340
0
  0
BLOCK_RECORD
  5
190FD
330
7466
100
AcDbSymbolTableRecord
100
AcDbBlockTableRecord
  2
*D34
340
0
  0
BLOCK_RECORD
  5
19C97
330
7466
100
AcDbSymbolTableRecord
100
AcDbBlockTableRecord
  2
*D35
340
0
  0
BLOCK_RECORD
  5
19CA5
330
7466
100
AcDbSymbolTableRecord
100
AcDbBlockTableRecord
  2
*D36
340
0
  0
BLOCK_RECORD
  5
19CB3
330
7466
100
AcDbSymbolTableRecord
100
AcDbBlockTableRecord
  2
*D37
340
0
  0
BLOCK_RECORD
  5
19CBF
330
7466
100
AcDbSymbolTableRecord
100
AcDbBlockTableRecord
  2
*D38
340
0
  0
BLOCK_RECORD
  5
1A309
330
7466
100
AcDbSymbolTableRecord
100
AcDbBlockTableRecord
  2
*D39
340
0
  0
BLOCK_RECORD
  5
1A316
330
7466
100
AcDbSymbolTableRecord
100
AcDbBlockTableRecord
  2
*D40
340
0
  0
BLOCK_RECORD
  5
1A324
330
7466
100
AcDbSymbolTableRecord
100
AcDbBlockTableRecord
  2
*D41
340
0
  0
BLOCK_RECORD
  5
1A5E0
330
7466
100
AcDbSymbolTableRecord
100
AcDbBlockTableRecord
  2
A$C000C328B
340
0
  0
ENDTAB
  0
ENDSEC
  0
SECTION
  2
BLOCKS
  0
BLOCK
  5
7489
330
747D
100
AcDbEntity
  8
0
100
AcDbBlockBegin
  2
*MODEL_SPACE
 70
     0
 10
0.0
 20
0.0
 30
0.0
  3
*MODEL_SPACE
  1

  0
ENDBLK
  5
748A
330
747D
100
AcDbEntity
  8
0
100
AcDbBlockEnd
  0
BLOCK
  5
7487
330
747A
100
AcDbEntity
 67
     1
  8
0
100
AcDbBlockBegin
  2
*PAPER_SPACE
 70
     0
 10
0.0
 20
0.0
 30
0.0
  3
*PAPER_SPACE
  1

  0
ENDBLK
  5
7488
330
747A
100
AcDbEntity
 67
     1
  8
0
100
AcDbBlockEnd
  0
BLOCK
  5
F771
330
F770
100
AcDbEntity
  8
0
 48
50.0
100
AcDbBlockBegin
  2
_DOTSMALL
 70
     0
 10
0.0
 20
0.0
 30
0.0
  3
_DOTSMALL
  1

  0
LWPOLYLINE
  5
F772
330
F770
100
AcDbEntity
  8
0
  6
ByBlock
 62
     0
 48
50.0
100
AcDbPolyline
 90
        2
 70
     1
 43
0.5
 10
-0.0625
 20
0.0
 42
1.0
 10
0.0625
 20
0.0
 42
1.0
  0
ENDBLK
  5
F776
330
F770
100
AcDbEntity
  8
0
 48
50.0
100
AcDbBlockEnd
  0
BLOCK
  5
164EB
330
16338
100
AcDbEntity
  8
0
 48
50.0
100
AcDbBlockBegin
  2
*D1
 70
     1
 10
0.0
 20
0.0
 30
0.0
  3
*D1
  1

  0
LINE
  5
1A7E0
330
16338
100
AcDbEntity
  8
寸法
 62
     0
 48
50.0
370
    -2
100
AcDbLine
 10
9339.673057123665
 20
10237.49742454596
 30
0.0
 11
10027.09940285807
 21
10237.49742454596
 31
0.0
  0
LINE
  5
1A7E1
330
16338
100
AcDbEntity
  8
寸法
 62
     0
 48
50.0
370
    -2
100
AcDbLine
 10
9339.673057123638
 20
7297.497424545952
 30
0.0
 11
10027.09940285807
 21
7297.497424545952
 31
0.0
  0
LINE
  5
1A7E2
330
16338
100
AcDbEntity
  8
寸法
 62
     0
 48
50.0
370
    -2
100
AcDbLine
 10
9967.099402858071
 20
10237.49742454596
 30
0.0
 11
9967.099402858071
 21
7297.497424545952
 31
0.0
  0
INSERT
  5
1A7E3
330
16338
100
AcDbEntity
  8
寸法
 62
     0
 48
50.0
370
    -2
100
AcDbBlockReference
  2
_DOTSMALL
 10
9967.099402858071
 20
10237.49742454596
 30
0.0
 41
100.0
 42
100.0
 43
100.0
 50
90.0
  0
INSERT
  5
1A7E4
330
16338
100
AcDbEntity
  8
寸法
 62
     0
 48
50.0
370
    -2
100
AcDbBlockReference
  2
_DOTSMALL
 10
9967.099402858071
 20
7297.497424545952
 30
0.0
 41
100.0
 42
100.0
 43
100.0
 50
270.0
  0
MTEXT
  5
1A7E5
330
16338
100
AcDbEntity
  8
寸法
 62
     7
 48
50.0
100
AcDbMText
 10
9867.087591834447
 20
8767.497424545963
 30
0.0
 40
120.0
 41
0.0
 71
     5
 72
     1
  1
\A1;7X420=2940
  7
STYLE1
 11
0.0000000000000001
 21
1.0
 31
0.0
 73
     1
 44
1.0
1001
ACAD
1000
MTEXTBEGIN
1070
    73
1070
     1
1070
    44
1040
1.0
1070
    74
1070
     0
1000
MTEXTEND
  0
POINT
  5
1A7E6
330
16338
100
AcDbEntity
  8
DEFPOINTS
 62
     0
 48
50.0
100
AcDbPoint
 10
9319.673057123663
 20
10237.49742454596
 30
0.0
  0
POINT
  5
1A7E7
330
16338
100
AcDbEntity
  8
DEFPOINTS
 62
     0
 48
50.0
100
AcDbPoint
 10
9319.673057123639
 20
7297.497424545952
 30
0.0
  0
POINT
  5
1A7E8
330
16338
100
AcDbEntity
  8
DEFPOINTS
 62
     0
 48
50.0
100
AcDbPoint
 10
9967.099402858071
 20
7297.497424545952
 30
0.0
  0
ENDBLK
  5
164F5
330
16338
100
AcDbEntity
  8
0
 48
50.0
100
AcDbBlockEnd
  0
BLOCK
  5
16414
330
16344
100
AcDbEntity
  8
0
 48
50.0
100
AcDbBlockBegin
  2
*D2
 70
     1
 10
0.0
 20
0.0
 30
0.0
  3
*D2
  1

  0
LINE
  5
1A7D5
330
16344
100
AcDbEntity
  8
寸法
 62
     0
 48
50.0
370
    -2
100
AcDbLine
 10
9339.673057123638
 20
7297.497424545952
 30
0.0
 11
10027.09940285805
 21
7297.497424545952
 31
0.0
  0
LINE
  5
1A7D6
330
16344
100
AcDbEntity
  8
寸法
 62
     0
 48
50.0
370
    -2
100
AcDbLine
 10
9339.673057123638
 20
7242.497424545956
 30
0.0
 11
10027.09940285805
 21
7242.497424545956
 31
0.0
  0
LINE
  5
1A7D7
330
16344
100
AcDbEntity
  8
寸法
 62
     0
 48
50.0
370
    -2
100
AcDbLine
 10
9967.09940285805
 20
7297.497424545952
 30
0.0
 11
9967.09940285805
 21
7397.497424545952
 31
0.0
  0
LINE
  5
1A7D8
330
16344
100
AcDbEntity
  8
寸法
 62
     0
 48
50.0
370
    -2
100
AcDbLine
 10
9967.09940285805
 20
7242.497424545956
 30
0.0
 11
9967.09940285805
 21
6756.150676266854
 31
0.0
  0
LINE
  5
1A7D9
330
16344
100
AcDbEntity
  8
寸法
 62
     0
 48
50.0
370
    -2
100
AcDbLine
 10
9967.09940285805
 20
7297.497424545952
 30
0.0
 11
9967.09940285805
 21
7242.497424545956
 31
0.0
  0
INSERT
  5
1A7DA
330
16344
100
AcDbEntity
  8
寸法
 62
     0
 48
50.0
370
    -2
100
AcDbBlockReference
  2
_DOTSMALL
 10
9967.09940285805
 20
7297.497424545952
 30
0.0
 41
100.0
 42
100.0
 43
100.0
 50
270.0
  0
INSERT
  5
1A7DB
330
16344
100
AcDbEntity
  8
寸法
 62
     0
 48
50.0
370
    -2
100
AcDbBlockReference
  2
_DOTSMALL
 10
9967.09940285805
 20
7242.497424545956
 30
0.0
 41
100.0
 42
100.0
 43
100.0
 50
90.0
  0
MTEXT
  5
1A7DC
330
16344
100
AcDbEntity
  8
寸法
 62
     7
 48
50.0
100
AcDbMText
 10
9867.099402858048
 20
6864.635957641095
 30
0.0
 40
120.0
 41
0.0
 71
     5
 72
     1
  1
\A1;55
  7
STYLE1
 11
0.0000000000000001
 21
1.0
 31
0.0
 73
     1
 44
1.0
1001
ACAD
1000
MTEXTBEGIN
1070
    73
1070
     1
1070
    44
1040
1.0
1070
    74
1070
     0
1000
MTEXTEND
  0
POINT
  5
1A7DD
330
16344
100
AcDbEntity
  8
DEFPOINTS
 62
     0
 48
50.0
100
AcDbPoint
 10
9319.673057123639
 20
7297.497424545952
 30
0.0
  0
POINT
  5
1A7DE
330
16344
100
AcDbEntity
  8
DEFPOINTS
 62
     0
 48
50.0
100
AcDbPoint
 10
9319.673057123639
 20
7242.497424545956
 30
0.0
  0
POINT
  5
1A7DF
330
16344
100
AcDbEntity
  8
DEFPOINTS
 62
     0
 48
50.0
100
AcDbPoint
 10
9967.09940285805
 20
7242.497424545956
 30
0.0
  0
ENDBLK
  5
16420
330
16344
100
AcDbEntity
  8
0
 48
50.0
100
AcDbBlockEnd
  0
BLOCK
  5
16421
330
16352
100
AcDbEntity
  8
0
 48
50.0
100
AcDbBlockBegin
  2
*D3
 70
     1
 10
0.0
 20
0.0
 30
0.0
  3
*D3
  1

  0
LINE
  5
1A7CA
330
16352
100
AcDbEntity
  8
寸法
 62
     0
 48
50.0
370
    -2
100
AcDbLine
 10
9339.673057123665
 20
10292.49742454596
 30
0.0
 11
10027.09940285807
 21
10292.49742454596
 31
0.0
  0
LINE
  5
1A7CB
330
16352
100
AcDbEntity
  8
寸法
 62
     0
 48
50.0
370
    -2
100
AcDbLine
 10
9339.673057123665
 20
10237.49742454596
 30
0.0
 11
10027.09940285807
 21
10237.49742454596
 31
0.0
  0
LINE
  5
1A7CC
330
16352
100
AcDbEntity
  8
寸法
 62
     0
 48
50.0
370
    -2
100
AcDbLine
 10
9967.099402858075
 20
10237.49742454596
 30
0.0
 11
9967.099402858075
 21
10137.49742454596
 31
0.0
  0
LINE
  5
1A7CD
330
16352
100
AcDbEntity
  8
寸法
 62
     0
 48
50.0
370
    -2
100
AcDbLine
 10
9967.099402858075
 20
10292.49742454596
 30
0.0
 11
9967.099402858075
 21
10709.46798729444
 31
0.0
  0
LINE
  5
1A7CE
330
16352
100
AcDbEntity
  8
寸法
 62
     0
 48
50.0
370
    -2
100
AcDbLine
 10
9967.099402858075
 20
10237.49742454596
 30
0.0
 11
9967.099402858075
 21
10292.49742454596
 31
0.0
  0
INSERT
  5
1A7CF
330
16352
100
AcDbEntity
  8
寸法
 62
     0
 48
50.0
370
    -2
100
AcDbBlockReference
  2
_DOTSMALL
 10
9967.099402858075
 20
10237.49742454596
 30
0.0
 41
100.0
 42
100.0
 43
100.0
 50
90.0
  0
INSERT
  5
1A7D0
330
16352
100
AcDbEntity
  8
寸法
 62
     0
 48
50.0
370
    -2
100
AcDbBlockReference
  2
_DOTSMALL
 10
9967.099402858075
 20
10292.49742454596
 30
0.0
 41
100.0
 42
100.0
 43
100.0
 50
270.0
  0
MTEXT
  5
1A7D1
330
16352
100
AcDbEntity
  8
寸法
 62
     7
 48
50.0
100
AcDbMText
 10
9867.099402858073
 20
10600.9827059202
 30
0.0
 40
120.0
 41
0.0
 71
     5
 72
     1
  1
\A1;55
  7
STYLE1
 11
0.0000000000000001
 21
1.0
 31
0.0
 73
     1
 44
1.0
1001
ACAD
1000
MTEXTBEGIN
1070
    73
1070
     1
1070
    44
1040
1.0
1070
    74
1070
     0
1000
MTEXTEND
  0
POINT
  5
1A7D2
330
16352
100
AcDbEntity
  8
DEFPOINTS
 62
     0
 48
50.0
100
AcDbPoint
 10
9319.673057123663
 20
10292.49742454596
 30
0.0
  0
POINT
  5
1A7D3
330
16352
100
AcDbEntity
  8
DEFPOINTS
 62
     0
 48
50.0
100
AcDbPoint
 10
9319.673057123663
 20
10237.49742454596
 30
0.0
  0
POINT
  5
1A7D4
330
16352
100
AcDbEntity
  8
DEFPOINTS
 62
     0
 48
50.0
100
AcDbPoint
 10
9967.099402858075
 20
10237.49742454596
 30
0.0
  0
ENDBLK
  5
1642D
330
16352
100
AcDbEntity
  8
0
 48
50.0
100
AcDbBlockEnd
  0
BLOCK
  5
164CA
330
16360
100
AcDbEntity
  8
0
 48
50.0
100
AcDbBlockBegin
  2
*D4
 70
     1
 10
0.0
 20
0.0
 30
0.0
  3
*D4
  1

  0
LINE
  5
1A7C1
330
16360
100
AcDbEntity
  8
寸法
 62
     0
 48
50.0
370
    -2
100
AcDbLine
 10
9339.673057123665
 20
10292.49742454596
 30
0.0
 11
10392.20634459771
 21
10292.49742454596
 31
0.0
  0
LINE
  5
1A7C2
330
16360
100
AcDbEntity
  8
寸法
 62
     0
 48
50.0
370
    -2
100
AcDbLine
 10
9339.673057123638
 20
7242.497424545956
 30
0.0
 11
10392.20634459771
 21
7242.497424545955
 31
0.0
  0
LINE
  5
1A7C3
330
16360
100
AcDbEntity
  8
寸法
 62
     0
 48
50.0
370
    -2
100
AcDbLine
 10
10332.20634459771
 20
10292.49742454596
 30
0.0
 11
10332.20634459771
 21
7242.497424545955
 31
0.0
  0
INSERT
  5
1A7C4
330
16360
100
AcDbEntity
  8
寸法
 62
     0
 48
50.0
370
    -2
100
AcDbBlockReference
  2
_DOTSMALL
 10
10332.20634459771
 20
10292.49742454596
 30
0.0
 41
100.0
 42
100.0
 43
100.0
 50
90.0
  0
INSERT
  5
1A7C5
330
16360
100
AcDbEntity
  8
寸法
 62
     0
 48
50.0
370
    -2
100
AcDbBlockReference
  2
_DOTSMALL
 10
10332.20634459771
 20
7242.497424545955
 30
0.0
 41
100.0
 42
100.0
 43
100.0
 50
270.0
  0
MTEXT
  5
1A7C6
330
16360
100
AcDbEntity
  8
寸法
 62
     7
 48
50.0
100
AcDbMText
 10
10232.2063445977
 20
8767.497424545963
 30
0.0
 40
120.0
 41
0.0
 71
     5
 72
     1
  1
\A1;3050
  7
STYLE1
 11
0.0000000000000001
 21
1.0
 31
0.0
 73
     1
 44
1.0
1001
ACAD
1000
MTEXTBEGIN
1070
    73
1070
     1
1070
    44
1040
1.0
1070
    74
1070
     0
1000
MTEXTEND
  0
POINT
  5
1A7C7
330
16360
100
AcDbEntity
  8
DEFPOINTS
 62
     0
 48
50.0
100
AcDbPoint
 10
9319.673057123663
 20
10292.49742454596
 30
0.0
  0
POINT
  5
1A7C8
330
16360
100
AcDbEntity
  8
DEFPOINTS
 62
     0
 48
50.0
100
AcDbPoint
 10
9319.673057123639
 20
7242.497424545956
 30
0.0
  0
POINT
  5
1A7C9
330
16360
100
AcDbEntity
  8
DEFPOINTS
 62
     0
 48
50.0
100
AcDbPoint
 10
10332.20634459771
 20
7242.497424545955
 30
0.0
  0
ENDBLK
  5
164D4
330
16360
100
AcDbEntity
  8
0
 48
50.0
100
AcDbBlockEnd
  0
BLOCK
  5
1728C
330
16384
100
AcDbEntity
  8
0
 48
50.0
100
AcDbBlockBegin
  2
*D5
 70
     1
 10
0.0
 20
0.0
 30
0.0
  3
*D5
  1

  0
LINE
  5
1A7B9
330
16384
100
AcDbEntity
  8
寸法
 62
     0
 48
50.0
370
    -2
100
AcDbLine
 10
6792.673057123656
 20
7248.497424545864
 30
0.0
 11
6792.673057123656
 21
6648.0666537797
 31
0.0
  0
LINE
  5
1A7BA
330
16384
100
AcDbEntity
  8
寸法
 62
     0
 48
50.0
370
    -2
100
AcDbLine
 10
9216.673057123639
 20
6708.0666537797
 30
0.0
 11
6792.673057123656
 21
6708.0666537797
 31
0.0
  0
INSERT
  5
1A7BB
330
16384
100
AcDbEntity
  8
寸法
 62
     0
 48
50.0
370
    -2
100
AcDbBlockReference
  2
_DOTSMALL
 10
9216.673057123639
 20
6708.0666537797
 30
0.0
 41
100.0
 42
100.0
 43
100.0
  0
INSERT
  5
1A7BC
330
16384
100
AcDbEntity
  8
寸法
 62
     0
 48
50.0
370
    -2
100
AcDbBlockReference
  2
_DOTSMALL
 10
6792.673057123656
 20
6708.0666537797
 30
0.0
 41
100.0
 42
100.0
 43
100.0
 50
180.0
  0
MTEXT
  5
1A7BD
330
16384
100
AcDbEntity
  8
寸法
 62
     7
 48
50.0
100
AcDbMText
 10
8004.673057123648
 20
6808.078464803323
 30
0.0
 40
120.0
 41
0.0
 71
     5
 72
     1
  1
\A1;有効開口部間口 2424
  7
STYLE1
 73
     1
 44
1.0
1001
ACAD
1000
MTEXTBEGIN
1070
    73
1070
     1
1070
    44
1040
1.0
1070
    74
1070
     0
1000
MTEXTEND
  0
POINT
  5
1A7BE
330
16384
100
AcDbEntity
  8
DEFPOINTS
 62
     0
 48
50.0
100
AcDbPoint
 10
9216.673057123639
 20
7268.497424545865
 30
0.0
  0
POINT
  5
1A7BF
330
16384
100
AcDbEntity
  8
DEFPOINTS
 62
     0
 48
50.0
100
AcDbPoint
 10
6792.673057123656
 20
7268.497424545865
 30
0.0
  0
POINT
  5
1A7C0
330
16384
100
AcDbEntity
  8
DEFPOINTS
 62
     0
 48
50.0
100
AcDbPoint
 10
6792.673057123656
 20
6708.0666537797
 30
0.0
  0
ENDBLK
  5
17295
330
16384
100
AcDbEntity
  8
0
 48
50.0
100
AcDbBlockEnd
  0
BLOCK
  5
17261
330
1638F
100
AcDbEntity
  8
0
 48
50.0
100
AcDbBlockBegin
  2
*D6
 70
     1
 10
0.0
 20
0.0
 30
0.0
  3
*D6
  1

  0
LINE
  5
1AAD0
330
1638F
100
AcDbEntity
  8
寸法
 62
     0
 48
50.0
370
    -2
100
AcDbLine
 10
1429.673057123657
 20
7222.497424545861
 30
0.0
 11
1429.673057123657
 21
6201.893658188827
 31
0.0
  0
LINE
  5
1AAD1
330
1638F
100
AcDbEntity
  8
寸法
 62
     0
 48
50.0
370
    -2
100
AcDbLine
 10
9319.673057123628
 20
7222.497424545956
 30
0.0
 11
9319.673057123628
 21
6201.893658188827
 31
0.0
  0
LINE
  5
1AAD2
330
1638F
100
AcDbEntity
  8
寸法
 62
     0
 48
50.0
370
    -2
100
AcDbLine
 10
1429.673057123657
 20
6261.893658188826
 30
0.0
 11
9319.673057123628
 21
6261.893658188826
 31
0.0
  0
INSERT
  5
1AAD3
330
1638F
100
AcDbEntity
  8
寸法
 62
     0
 48
50.0
370
    -2
100
AcDbBlockReference
  2
_DOTSMALL
 10
1429.673057123657
 20
6261.893658188826
 30
0.0
 41
100.0
 42
100.0
 43
100.0
 50
180.0
  0
INSERT
  5
1AAD4
330
1638F
100
AcDbEntity
  8
寸法
 62
     0
 48
50.0
370
    -2
100
AcDbBlockReference
  2
_DOTSMALL
 10
9319.673057123628
 20
6261.893658188826
 30
0.0
 41
100.0
 42
100.0
 43
100.0
  0
MTEXT
  5
1AAD5
330
1638F
100
AcDbEntity
  8
寸法
 62
     7
 48
50.0
100
AcDbMText
 10
5374.673057123642
 20
6361.905469212448
 30
0.0
 40
120.0
 41
0.0
 71
     5
 72
     1
  1
\A1;N X 2630
  7
STYLE1
 73
     1
 44
1.0
1001
ACAD
1000
MTEXTBEGIN
1070
    73
1070
     1
1070
    44
1040
1.0
1070
    74
1070
     0
1000
MTEXTEND
  0
POINT
  5
1AAD6
330
1638F
100
AcDbEntity
  8
DEFPOINTS
 62
     0
 48
50.0
100
AcDbPoint
 10
1429.673057123657
 20
7242.497424545861
 30
0.0
  0
POINT
  5
1AAD7
330
1638F
100
AcDbEntity
  8
DEFPOINTS
 62
     0
 48
50.0
100
AcDbPoint
 10
9319.673057123628
 20
7242.497424545956
 30
0.0
  0
POINT
  5
1AAD8
330
1638F
100
AcDbEntity
  8
DEFPOINTS
 62
     0
 48
50.0
100
AcDbPoint
 10
9319.673057123628
 20
6261.893658188826
 30
0.0
  0
ENDBLK
  5
1726B
330
1638F
100
AcDbEntity
  8
0
 48
50.0
100
AcDbBlockEnd
  0
BLOCK
  5
16464
330
1639B
100
AcDbEntity
  8
0
 48
50.0
100
AcDbBlockBegin
  2
*D7
 70
     1
 10
0.0
 20
0.0
 30
0.0
  3
*D7
  1

  0
LINE
  5
1A8F5
330
1639B
100
AcDbEntity
  8
寸法
 62
     0
 48
50.0
370
    -2
100
AcDbLine
 10
1484.673057123653
 20
7222.497424545863
 30
0.0
 11
1484.673057123653
 21
6648.0666537797
 31
0.0
  0
LINE
  5
1A8F6
330
1639B
100
AcDbEntity
  8
寸法
 62
     0
 48
50.0
370
    -2
100
AcDbLine
 10
1429.673057123657
 20
7222.497424545861
 30
0.0
 11
1429.673057123657
 21
6648.0666537797
 31
0.0
  0
LINE
  5
1A8F7
330
1639B
100
AcDbEntity
  8
寸法
 62
     0
 48
50.0
370
    -2
100
AcDbLine
 10
1484.673057123653
 20
6708.0666537797
 30
0.0
 11
1584.673057123653
 21
6708.0666537797
 31
0.0
  0
LINE
  5
1A8F8
330
1639B
100
AcDbEntity
  8
寸法
 62
     0
 48
50.0
370
    -2
100
AcDbLine
 10
1429.673057123657
 20
6708.0666537797
 30
0.0
 11
1012.702494375179
 21
6708.0666537797
 31
0.0
  0
LINE
  5
1A8F9
330
1639B
100
AcDbEntity
  8
寸法
 62
     0
 48
50.0
370
    -2
100
AcDbLine
 10
1484.673057123653
 20
6708.0666537797
 30
0.0
 11
1429.673057123657
 21
6708.0666537797
 31
0.0
  0
INSERT
  5
1A8FA
330
1639B
100
AcDbEntity
  8
寸法
 62
     0
 48
50.0
370
    -2
100
AcDbBlockReference
  2
_DOTSMALL
 10
1484.673057123653
 20
6708.0666537797
 30
0.0
 41
100.0
 42
100.0
 43
100.0
 50
180.0
  0
INSERT
  5
1A8FB
330
1639B
100
AcDbEntity
  8
寸法
 62
     0
 48
50.0
370
    -2
100
AcDbBlockReference
  2
_DOTSMALL
 10
1429.673057123657
 20
6708.0666537797
 30
0.0
 41
100.0
 42
100.0
 43
100.0
  0
MTEXT
  5
1A8FC
330
1639B
100
AcDbEntity
  8
寸法
 62
     7
 48
50.0
100
AcDbMText
 10
1121.187775749418
 20
6808.0666537797
 30
0.0
 40
120.0
 41
0.0
 71
     5
 72
     1
  1
\A1;55
  7
STYLE1
 73
     1
 44
1.0
1001
ACAD
1000
MTEXTBEGIN
1070
    73
1070
     1
1070
    44
1040
1.0
1070
    74
1070
     0
1000
MTEXTEND
  0
POINT
  5
1A8FD
330
1639B
100
AcDbEntity
  8
DEFPOINTS
 62
     0
 48
50.0
100
AcDbPoint
 10
1484.673057123653
 20
7242.497424545864
 30
0.0
  0
POINT
  5
1A8FE
330
1639B
100
AcDbEntity
  8
DEFPOINTS
 62
     0
 48
50.0
100
AcDbPoint
 10
1429.673057123657
 20
7242.497424545861
 30
0.0
  0
POINT
  5
1A8FF
330
1639B
100
AcDbEntity
  8
DEFPOINTS
 62
     0
 48
50.0
100
AcDbPoint
 10
1429.673057123657
 20
6708.0666537797
 30
0.0
  0
ENDBLK
  5
16470
330
1639B
100
AcDbEntity
  8
0
 48
50.0
100
AcDbBlockEnd
  0
BLOCK
  5
16471
330
163A9
100
AcDbEntity
  8
0
 48
50.0
100
AcDbBlockBegin
  2
*D8
 70
     1
 10
0.0
 20
0.0
 30
0.0
  3
*D8
  1

  0
LINE
  5
1A7A5
330
163A9
100
AcDbEntity
  8
寸法
 62
     0
 48
50.0
370
    -2
100
AcDbLine
 10
6792.673057123656
 20
7248.497424545864
 30
0.0
 11
6792.673057123656
 21
6648.0666537797
 31
0.0
  0
LINE
  5
1A7A6
330
163A9
100
AcDbEntity
  8
寸法
 62
     0
 48
50.0
370
    -2
100
AcDbLine
 10
6744.673057123653
 20
7222.497424545863
 30
0.0
 11
6744.673057123653
 21
6648.0666537797
 31
0.0
  0
LINE
  5
1A7A7
330
163A9
100
AcDbEntity
  8
寸法
 62
     0
 48
50.0
370
    -2
100
AcDbLine
 10
6792.673057123656
 20
6708.0666537797
 30
0.0
 11
6892.673057123658
 21
6708.0666537797
 31
0.0
  0
LINE
  5
1A7A8
330
163A9
100
AcDbEntity
  8
寸法
 62
     0
 48
50.0
370
    -2
100
AcDbLine
 10
6744.673057123653
 20
6708.0666537797
 30
0.0
 11
6644.673057123653
 21
6708.0666537797
 31
0.0
  0
MTEXT
  5
1A7A9
330
163A9
100
AcDbEntity
  8
寸法
 62
     7
 48
50.0
100
AcDbMText
 10
6905.575028123713
 20
6808.0666537797
 30
0.0
 40
120.0
 41
0.0
 71
     5
 72
     1
  1
\A1;48
  7
STYLE1
 73
     1
 44
1.0
1001
ACAD
1000
MTEXTBEGIN
1070
    73
1070
     1
1070
    44
1040
1.0
1070
    74
1070
     0
1000
MTEXTEND
  0
LINE
  5
1A7AA
330
163A9
100
AcDbEntity
  8
寸法
 62
     0
 48
50.0
370
    -2
100
AcDbLine
 10
6792.673057123656
 20
6708.0666537797
 30
0.0
 11
6744.673057123653
 21
6708.0666537797
 31
0.0
  0
INSERT
  5
1A7AB
330
163A9
100
AcDbEntity
  8
寸法
 62
     0
 48
50.0
370
    -2
100
AcDbBlockReference
  2
_DOTSMALL
 10
6792.673057123656
 20
6708.0666537797
 30
0.0
 41
100.0
 42
100.0
 43
100.0
 50
180.0
  0
INSERT
  5
1A7AC
330
163A9
100
AcDbEntity
  8
寸法
 62
     0
 48
50.0
370
    -2
100
AcDbBlockReference
  2
_DOTSMALL
 10
6744.673057123653
 20
6708.0666537797
 30
0.0
 41
100.0
 42
100.0
 43
100.0
  0
POINT
  5
1A7AD
330
163A9
100
AcDbEntity
  8
DEFPOINTS
 62
     0
 48
50.0
100
AcDbPoint
 10
6792.673057123656
 20
7268.497424545865
 30
0.0
  0
POINT
  5
1A7AE
330
163A9
100
AcDbEntity
  8
DEFPOINTS
 62
     0
 48
50.0
100
AcDbPoint
 10
6744.673057123653
 20
7242.497424545864
 30
0.0
  0
POINT
  5
1A7AF
330
163A9
100
AcDbEntity
  8
DEFPOINTS
 62
     0
 48
50.0
100
AcDbPoint
 10
6744.673057123653
 20
6708.0666537797
 30
0.0
  0
ENDBLK
  5
1647E
330
163A9
100
AcDbEntity
  8
0
 48
50.0
100
AcDbBlockEnd
  0
BLOCK
  5
1647F
330
163B8
100
AcDbEntity
  8
0
 48
50.0
100
AcDbBlockBegin
  2
*D9
 70
     1
 10
0.0
 20
0.0
 30
0.0
  3
*D9
  1

  0
LINE
  5
1A79A
330
163B8
100
AcDbEntity
  8
寸法
 62
     0
 48
50.0
370
    -2
100
AcDbLine
 10
9264.673057123641
 20
7222.497424545952
 30
0.0
 11
9264.673057123641
 21
6648.0666537797
 31
0.0
  0
LINE
  5
1A79B
330
163B8
100
AcDbEntity
  8
寸法
 62
     0
 48
50.0
370
    -2
100
AcDbLine
 10
9216.673057123639
 20
7248.497424545866
 30
0.0
 11
9216.673057123639
 21
6648.0666537797
 31
0.0
  0
LINE
  5
1A79C
330
163B8
100
AcDbEntity
  8
寸法
 62
     0
 48
50.0
370
    -2
100
AcDbLine
 10
9264.673057123641
 20
6708.0666537797
 30
0.0
 11
9364.67305712364
 21
6708.0666537797
 31
0.0
  0
LINE
  5
1A79D
330
163B8
100
AcDbEntity
  8
寸法
 62
     0
 48
50.0
370
    -2
100
AcDbLine
 10
9216.673057123639
 20
6708.0666537797
 30
0.0
 11
9116.673057123639
 21
6708.0666537797
 31
0.0
  0
MTEXT
  5
1A79E
330
163B8
100
AcDbEntity
  8
寸法
 62
     7
 48
50.0
100
AcDbMText
 10
9105.710159474892
 20
6808.0666537797
 30
0.0
 40
120.0
 41
0.0
 71
     5
 72
     1
  1
\A1;48
  7
STYLE1
 73
     1
 44
1.0
1001
ACAD
1000
MTEXTBEGIN
1070
    73
1070
     1
1070
    44
1040
1.0
1070
    74
1070
     0
1000
MTEXTEND
  0
LINE
  5
1A79F
330
163B8
100
AcDbEntity
  8
寸法
 62
     0
 48
50.0
370
    -2
100
AcDbLine
 10
9264.673057123641
 20
6708.0666537797
 30
0.0
 11
9216.673057123639
 21
6708.0666537797
 31
0.0
  0
INSERT
  5
1A7A0
330
163B8
100
AcDbEntity
  8
寸法
 62
     0
 48
50.0
370
    -2
100
AcDbBlockReference
  2
_DOTSMALL
 10
9264.673057123641
 20
6708.0666537797
 30
0.0
 41
100.0
 42
100.0
 43
100.0
 50
180.0
  0
INSERT
  5
1A7A1
330
163B8
100
AcDbEntity
  8
寸法
 62
     0
 48
50.0
370
    -2
100
AcDbBlockReference
  2
_DOTSMALL
 10
9216.673057123639
 20
6708.0666537797
 30
0.0
 41
100.0
 42
100.0
 43
100.0
  0
POINT
  5
1A7A2
330
163B8
100
AcDbEntity
  8
DEFPOINTS
 62
     0
 48
50.0
100
AcDbPoint
 10
9264.673057123641
 20
7242.497424545952
 30
0.0
  0
POINT
  5
1A7A3
330
163B8
100
AcDbEntity
  8
DEFPOINTS
 62
     0
 48
50.0
100
AcDbPoint
 10
9216.673057123639
 20
7268.497424545865
 30
0.0
  0
POINT
  5
1A7A4
330
163B8
100
AcDbEntity
  8
DEFPOINTS
 62
     0
 48
50.0
100
AcDbPoint
 10
9216.673057123639
 20
6708.0666537797
 30
0.0
  0
ENDBLK
  5
1648C
330
163B8
100
AcDbEntity
  8
0
 48
50.0
100
AcDbBlockEnd
  0
BLOCK
  5
1648D
330
163C7
100
AcDbEntity
  8
0
 48
50.0
100
AcDbBlockBegin
  2
*D10
 70
     1
 10
0.0
 20
0.0
 30
0.0
  3
*D10
  1

  0
LINE
  5
1A78F
330
163C7
100
AcDbEntity
  8
寸法
 62
     0
 48
50.0
370
    -2
100
AcDbLine
 10
9319.673057123639
 20
7222.497424545956
 30
0.0
 11
9319.673057123639
 21
6648.066653779702
 31
0.0
  0
LINE
  5
1A790
330
163C7
100
AcDbEntity
  8
寸法
 62
     0
 48
50.0
370
    -2
100
AcDbLine
 10
9264.673057123641
 20
7222.497424545952
 30
0.0
 11
9264.673057123641
 21
6648.066653779702
 31
0.0
  0
LINE
  5
1A791
330
163C7
100
AcDbEntity
  8
寸法
 62
     0
 48
50.0
370
    -2
100
AcDbLine
 10
9264.673057123641
 20
6708.066653779702
 30
0.0
 11
9164.673057123641
 21
6708.066653779702
 31
0.0
  0
LINE
  5
1A792
330
163C7
100
AcDbEntity
  8
寸法
 62
     0
 48
50.0
370
    -2
100
AcDbLine
 10
9319.673057123639
 20
6708.066653779702
 30
0.0
 11
9736.643619872115
 21
6708.066653779702
 31
0.0
  0
LINE
  5
1A793
330
163C7
100
AcDbEntity
  8
寸法
 62
     0
 48
50.0
370
    -2
100
AcDbLine
 10
9264.673057123641
 20
6708.066653779702
 30
0.0
 11
9319.673057123639
 21
6708.066653779702
 31
0.0
  0
INSERT
  5
1A794
330
163C7
100
AcDbEntity
  8
寸法
 62
     0
 48
50.0
370
    -2
100
AcDbBlockReference
  2
_DOTSMALL
 10
9264.673057123641
 20
6708.066653779702
 30
0.0
 41
100.0
 42
100.0
 43
100.0
  0
INSERT
  5
1A795
330
163C7
100
AcDbEntity
  8
寸法
 62
     0
 48
50.0
370
    -2
100
AcDbBlockReference
  2
_DOTSMALL
 10
9319.673057123639
 20
6708.066653779702
 30
0.0
 41
100.0
 42
100.0
 43
100.0
 50
180.0
  0
MTEXT
  5
1A796
330
163C7
100
AcDbEntity
  8
寸法
 62
     7
 48
50.0
100
AcDbMText
 10
9628.158338497877
 20
6808.066653779701
 30
0.0
 40
120.0
 41
0.0
 71
     5
 72
     1
  1
\A1;55
  7
STYLE1
 73
     1
 44
1.0
1001
ACAD
1000
MTEXTBEGIN
1070
    73
1070
     1
1070
    44
1040
1.0
1070
    74
1070
     0
1000
MTEXTEND
  0
POINT
  5
1A797
330
163C7
100
AcDbEntity
  8
DEFPOINTS
 62
     0
 48
50.0
100
AcDbPoint
 10
9319.673057123639
 20
7242.497424545956
 30
0.0
  0
POINT
  5
1A798
330
163C7
100
AcDbEntity
  8
DEFPOINTS
 62
     0
 48
50.0
100
AcDbPoint
 10
9264.673057123641
 20
7242.497424545952
 30
0.0
  0
POINT
  5
1A799
330
163C7
100
AcDbEntity
  8
DEFPOINTS
 62
     0
 48
50.0
100
AcDbPoint
 10
9264.673057123641
 20
6708.066653779702
 30
0.0
  0
ENDBLK
  5
16499
330
163C7
100
AcDbEntity
  8
0
 48
50.0
100
AcDbBlockEnd
  0
BLOCK
  5
172A1
330
163E1
100
AcDbEntity
  8
0
 48
50.0
100
AcDbBlockBegin
  2
*D11
 70
     1
 10
0.0
 20
0.0
 30
0.0
  3
*D11
  1

  0
LINE
  5
1A786
330
163E1
100
AcDbEntity
  8
寸法
 62
     0
 48
50.0
370
    -2
100
AcDbLine
 10
6744.673057123662
 20
10312.49742454587
 30
0.0
 11
6744.673057123662
 21
10568.30564417096
 31
0.0
  0
LINE
  5
1A787
330
163E1
100
AcDbEntity
  8
寸法
 62
     0
 48
50.0
370
    -2
100
AcDbLine
 10
9264.673057123664
 20
10312.49742454596
 30
0.0
 11
9264.673057123664
 21
10568.30564417096
 31
0.0
  0
LINE
  5
1A788
330
163E1
100
AcDbEntity
  8
寸法
 62
     0
 48
50.0
370
    -2
100
AcDbLine
 10
6744.673057123662
 20
10508.30564417096
 30
0.0
 11
9264.673057123664
 21
10508.30564417096
 31
0.0
  0
INSERT
  5
1A789
330
163E1
100
AcDbEntity
  8
寸法
 62
     0
 48
50.0
370
    -2
100
AcDbBlockReference
  2
_DOTSMALL
 10
6744.673057123662
 20
10508.30564417096
 30
0.0
 41
100.0
 42
100.0
 43
100.0
 50
180.0
  0
INSERT
  5
1A78A
330
163E1
100
AcDbEntity
  8
寸法
 62
     0
 48
50.0
370
    -2
100
AcDbBlockReference
  2
_DOTSMALL
 10
9264.673057123664
 20
10508.30564417096
 30
0.0
 41
100.0
 42
100.0
 43
100.0
  0
MTEXT
  5
1A78B
330
163E1
100
AcDbEntity
  8
寸法
 62
     7
 48
50.0
100
AcDbMText
 10
8004.673057123664
 20
10608.31745519459
 30
0.0
 40
120.0
 41
0.0
 71
     5
 72
     1
  1
\A1;6X420=2520
  7
STYLE1
 73
     1
 44
1.0
1001
ACAD
1000
MTEXTBEGIN
1070
    73
1070
     1
1070
    44
1040
1.0
1070
    74
1070
     0
1000
MTEXTEND
  0
POINT
  5
1A78C
330
163E1
100
AcDbEntity
  8
DEFPOINTS
 62
     0
 48
50.0
100
AcDbPoint
 10
6744.673057123662
 20
10292.49742454587
 30
0.0
  0
POINT
  5
1A78D
330
163E1
100
AcDbEntity
  8
DEFPOINTS
 62
     0
 48
50.0
100
AcDbPoint
 10
9264.673057123664
 20
10292.49742454596
 30
0.0
  0
POINT
  5
1A78E
330
163E1
100
AcDbEntity
  8
DEFPOINTS
 62
     0
 48
50.0
100
AcDbPoint
 10
9264.673057123664
 20
10508.30564417096
 30
0.0
  0
ENDBLK
  5
172AB
330
163E1
100
AcDbEntity
  8
0
 48
50.0
100
AcDbBlockEnd
  0
BLOCK
  5
164B0
330
163ED
100
AcDbEntity
  8
0
 48
50.0
100
AcDbBlockBegin
  2
*D12
 70
     1
 10
0.0
 20
0.0
 30
0.0
  3
*D12
  1

  0
LINE
  5
1A8EA
330
163ED
100
AcDbEntity
  8
寸法
 62
     0
 48
50.0
370
    -2
100
AcDbLine
 10
1429.673057123628
 20
10312.49742454587
 30
0.0
 11
1429.673057123628
 21
10568.30564417085
 31
0.0
  0
LINE
  5
1A8EB
330
163ED
100
AcDbEntity
  8
寸法
 62
     0
 48
50.0
370
    -2
100
AcDbLine
 10
1484.673057123663
 20
10312.49742454587
 30
0.0
 11
1484.673057123663
 21
10568.30564417085
 31
0.0
  0
LINE
  5
1A8EC
330
163ED
100
AcDbEntity
  8
寸法
 62
     0
 48
50.0
370
    -2
100
AcDbLine
 10
1484.673057123663
 20
10508.30564417085
 30
0.0
 11
1584.673057123663
 21
10508.30564417085
 31
0.0
  0
LINE
  5
1A8ED
330
163ED
100
AcDbEntity
  8
寸法
 62
     0
 48
50.0
370
    -2
100
AcDbLine
 10
1429.673057123628
 20
10508.30564417085
 30
0.0
 11
1012.702494375151
 21
10508.30564417085
 31
0.0
  0
LINE
  5
1A8EE
330
163ED
100
AcDbEntity
  8
寸法
 62
     0
 48
50.0
370
    -2
100
AcDbLine
 10
1484.673057123663
 20
10508.30564417085
 30
0.0
 11
1429.673057123628
 21
10508.30564417085
 31
0.0
  0
INSERT
  5
1A8EF
330
163ED
100
AcDbEntity
  8
寸法
 62
     0
 48
50.0
370
    -2
100
AcDbBlockReference
  2
_DOTSMALL
 10
1484.673057123663
 20
10508.30564417085
 30
0.0
 41
100.0
 42
100.0
 43
100.0
 50
180.0
  0
INSERT
  5
1A8F0
330
163ED
100
AcDbEntity
  8
寸法
 62
     0
 48
50.0
370
    -2
100
AcDbBlockReference
  2
_DOTSMALL
 10
1429.673057123628
 20
10508.30564417085
 30
0.0
 41
100.0
 42
100.0
 43
100.0
  0
MTEXT
  5
1A8F1
330
163ED
100
AcDbEntity
  8
寸法
 62
     7
 48
50.0
100
AcDbMText
 10
1121.187775749389
 20
10608.30564417085
 30
0.0
 40
120.0
 41
0.0
 71
     5
 72
     1
  1
\A1;55
  7
STYLE1
 73
     1
 44
1.0
1001
ACAD
1000
MTEXTBEGIN
1070
    73
1070
     1
1070
    44
1040
1.0
1070
    74
1070
     0
1000
MTEXTEND
  0
POINT
  5
1A8F2
330
163ED
100
AcDbEntity
  8
DEFPOINTS
 62
     0
 48
50.0
100
AcDbPoint
 10
1429.673057123628
 20
10292.49742454587
 30
0.0
  0
POINT
  5
1A8F3
330
163ED
100
AcDbEntity
  8
DEFPOINTS
 62
     0
 48
50.0
100
AcDbPoint
 10
1484.673057123663
 20
10292.49742454587
 30
0.0
  0
POINT
  5
1A8F4
330
163ED
100
AcDbEntity
  8
DEFPOINTS
 62
     0
 48
50.0
100
AcDbPoint
 10
1484.673057123663
 20
10508.30564417085
 30
0.0
  0
ENDBLK
  5
164BC
330
163ED
100
AcDbEntity
  8
0
 48
50.0
100
AcDbBlockEnd
  0
BLOCK
  5
164BD
330
163FB
100
AcDbEntity
  8
0
 48
50.0
100
AcDbBlockBegin
  2
*D13
 70
     1
 10
0.0
 20
0.0
 30
0.0
  3
*D13
  1

  0
LINE
  5
1A77B
330
163FB
100
AcDbEntity
  8
寸法
 62
     0
 48
50.0
370
    -2
100
AcDbLine
 10
9264.673057123664
 20
10312.49742454596
 30
0.0
 11
9264.673057123664
 21
10568.30564417095
 31
0.0
  0
LINE
  5
1A77C
330
163FB
100
AcDbEntity
  8
寸法
 62
     0
 48
50.0
370
    -2
100
AcDbLine
 10
9319.673057123663
 20
10312.49742454596
 30
0.0
 11
9319.673057123663
 21
10568.30564417095
 31
0.0
  0
LINE
  5
1A77D
330
163FB
100
AcDbEntity
  8
寸法
 62
     0
 48
50.0
370
    -2
100
AcDbLine
 10
9264.673057123664
 20
10508.30564417095
 30
0.0
 11
9164.673057123664
 21
10508.30564417095
 31
0.0
  0
LINE
  5
1A77E
330
163FB
100
AcDbEntity
  8
寸法
 62
     0
 48
50.0
370
    -2
100
AcDbLine
 10
9319.673057123663
 20
10508.30564417095
 30
0.0
 11
9736.64361987214
 21
10508.30564417095
 31
0.0
  0
LINE
  5
1A77F
330
163FB
100
AcDbEntity
  8
寸法
 62
     0
 48
50.0
370
    -2
100
AcDbLine
 10
9264.673057123664
 20
10508.30564417095
 30
0.0
 11
9319.673057123663
 21
10508.30564417095
 31
0.0
  0
INSERT
  5
1A780
330
163FB
100
AcDbEntity
  8
寸法
 62
     0
 48
50.0
370
    -2
100
AcDbBlockReference
  2
_DOTSMALL
 10
9264.673057123664
 20
10508.30564417095
 30
0.0
 41
100.0
 42
100.0
 43
100.0
  0
INSERT
  5
1A781
330
163FB
100
AcDbEntity
  8
寸法
 62
     0
 48
50.0
370
    -2
100
AcDbBlockReference
  2
_DOTSMALL
 10
9319.673057123663
 20
10508.30564417095
 30
0.0
 41
100.0
 42
100.0
 43
100.0
 50
180.0
  0
MTEXT
  5
1A782
330
163FB
100
AcDbEntity
  8
寸法
 62
     7
 48
50.0
100
AcDbMText
 10
9628.158338497904
 20
10608.30564417095
 30
0.0
 40
120.0
 41
0.0
 71
     5
 72
     1
  1
\A1;55
  7
STYLE1
 73
     1
 44
1.0
1001
ACAD
1000
MTEXTBEGIN
1070
    73
1070
     1
1070
    44
1040
1.0
1070
    74
1070
     0
1000
MTEXTEND
  0
POINT
  5
1A783
330
163FB
100
AcDbEntity
  8
DEFPOINTS
 62
     0
 48
50.0
100
AcDbPoint
 10
9264.673057123664
 20
10292.49742454596
 30
0.0
  0
POINT
  5
1A784
330
163FB
100
AcDbEntity
  8
DEFPOINTS
 62
     0
 48
50.0
100
AcDbPoint
 10
9319.673057123663
 20
10292.49742454596
 30
0.0
  0
POINT
  5
1A785
330
163FB
100
AcDbEntity
  8
DEFPOINTS
 62
     0
 48
50.0
100
AcDbPoint
 10
9319.673057123663
 20
10508.30564417095
 30
0.0
  0
ENDBLK
  5
164C9
330
163FB
100
AcDbEntity
  8
0
 48
50.0
100
AcDbBlockEnd
  0
BLOCK
  5
165B6
330
165B5
100
AcDbEntity
  8
0
 48
50.0
100
AcDbBlockBegin
  2
*D14
 70
     1
 10
0.0
 20
0.0
 30
0.0
  3
*D14
  1

  0
LINE
  5
1A8DF
330
165B5
100
AcDbEntity
  8
寸法
 62
     0
 48
50.0
370
    -2
100
AcDbLine
 10
1532.673057123657
 20
7248.497424545864
 30
0.0
 11
1532.673057123657
 21
6648.0666537797
 31
0.0
  0
LINE
  5
1A8E0
330
165B5
100
AcDbEntity
  8
寸法
 62
     0
 48
50.0
370
    -2
100
AcDbLine
 10
1484.673057123653
 20
7222.497424545863
 30
0.0
 11
1484.673057123653
 21
6648.0666537797
 31
0.0
  0
LINE
  5
1A8E1
330
165B5
100
AcDbEntity
  8
寸法
 62
     0
 48
50.0
370
    -2
100
AcDbLine
 10
1532.673057123657
 20
6708.0666537797
 30
0.0
 11
1632.673057123656
 21
6708.0666537797
 31
0.0
  0
LINE
  5
1A8E2
330
165B5
100
AcDbEntity
  8
寸法
 62
     0
 48
50.0
370
    -2
100
AcDbLine
 10
1484.673057123653
 20
6708.0666537797
 30
0.0
 11
1384.673057123653
 21
6708.0666537797
 31
0.0
  0
MTEXT
  5
1A8E3
330
165B5
100
AcDbEntity
  8
寸法
 62
     7
 48
50.0
100
AcDbMText
 10
1645.575028123714
 20
6808.0666537797
 30
0.0
 40
120.0
 41
0.0
 71
     5
 72
     1
  1
\A1;48
  7
STYLE1
 73
     1
 44
1.0
1001
ACAD
1000
MTEXTBEGIN
1070
    73
1070
     1
1070
    44
1040
1.0
1070
    74
1070
     0
1000
MTEXTEND
  0
LINE
  5
1A8E4
330
165B5
100
AcDbEntity
  8
寸法
 62
     0
 48
50.0
370
    -2
100
AcDbLine
 10
1532.673057123657
 20
6708.0666537797
 30
0.0
 11
1484.673057123653
 21
6708.0666537797
 31
0.0
  0
INSERT
  5
1A8E5
330
165B5
100
AcDbEntity
  8
寸法
 62
     0
 48
50.0
370
    -2
100
AcDbBlockReference
  2
_DOTSMALL
 10
1532.673057123657
 20
6708.0666537797
 30
0.0
 41
100.0
 42
100.0
 43
100.0
 50
180.0
  0
INSERT
  5
1A8E6
330
165B5
100
AcDbEntity
  8
寸法
 62
     0
 48
50.0
370
    -2
100
AcDbBlockReference
  2
_DOTSMALL
 10
1484.673057123653
 20
6708.0666537797
 30
0.0
 41
100.0
 42
100.0
 43
100.0
  0
POINT
  5
1A8E7
330
165B5
100
AcDbEntity
  8
DEFPOINTS
 62
     0
 48
50.0
100
AcDbPoint
 10
1532.673057123657
 20
7268.497424545865
 30
0.0
  0
POINT
  5
1A8E8
330
165B5
100
AcDbEntity
  8
DEFPOINTS
 62
     0
 48
50.0
100
AcDbPoint
 10
1484.673057123653
 20
7242.497424545864
 30
0.0
  0
POINT
  5
1A8E9
330
165B5
100
AcDbEntity
  8
DEFPOINTS
 62
     0
 48
50.0
100
AcDbPoint
 10
1484.673057123653
 20
6708.0666537797
 30
0.0
  0
ENDBLK
  5
165C3
330
165B5
100
AcDbEntity
  8
0
 48
50.0
100
AcDbBlockEnd
  0
BLOCK
  5
165C5
330
165C4
100
AcDbEntity
  8
0
 48
50.0
100
AcDbBlockBegin
  2
*D15
 70
     1
 10
0.0
 20
0.0
 30
0.0
  3
*D15
  1

  0
LINE
  5
1A770
330
165C4
100
AcDbEntity
  8
寸法
 62
     0
 48
50.0
370
    -2
100
AcDbLine
 10
6634.673057123641
 20
7222.497424545952
 30
0.0
 11
6634.673057123641
 21
6648.0666537797
 31
0.0
  0
LINE
  5
1A771
330
165C4
100
AcDbEntity
  8
寸法
 62
     0
 48
50.0
370
    -2
100
AcDbLine
 10
6586.673057123639
 20
7248.497424545866
 30
0.0
 11
6586.673057123639
 21
6648.0666537797
 31
0.0
  0
LINE
  5
1A772
330
165C4
100
AcDbEntity
  8
寸法
 62
     0
 48
50.0
370
    -2
100
AcDbLine
 10
6634.673057123641
 20
6708.0666537797
 30
0.0
 11
6734.67305712364
 21
6708.0666537797
 31
0.0
  0
LINE
  5
1A773
330
165C4
100
AcDbEntity
  8
寸法
 62
     0
 48
50.0
370
    -2
100
AcDbLine
 10
6586.673057123639
 20
6708.0666537797
 30
0.0
 11
6486.673057123638
 21
6708.0666537797
 31
0.0
  0
MTEXT
  5
1A774
330
165C4
100
AcDbEntity
  8
寸法
 62
     7
 48
50.0
100
AcDbMText
 10
6475.710159474892
 20
6808.0666537797
 30
0.0
 40
120.0
 41
0.0
 71
     5
 72
     1
  1
\A1;48
  7
STYLE1
 73
     1
 44
1.0
1001
ACAD
1000
MTEXTBEGIN
1070
    73
1070
     1
1070
    44
1040
1.0
1070
    74
1070
     0
1000
MTEXTEND
  0
LINE
  5
1A775
330
165C4
100
AcDbEntity
  8
寸法
 62
     0
 48
50.0
370
    -2
100
AcDbLine
 10
6634.673057123641
 20
6708.0666537797
 30
0.0
 11
6586.673057123639
 21
6708.0666537797
 31
0.0
  0
INSERT
  5
1A776
330
165C4
100
AcDbEntity
  8
寸法
 62
     0
 48
50.0
370
    -2
100
AcDbBlockReference
  2
_DOTSMALL
 10
6634.673057123641
 20
6708.0666537797
 30
0.0
 41
100.0
 42
100.0
 43
100.0
 50
180.0
  0
INSERT
  5
1A777
330
165C4
100
AcDbEntity
  8
寸法
 62
     0
 48
50.0
370
    -2
100
AcDbBlockReference
  2
_DOTSMALL
 10
6586.673057123639
 20
6708.0666537797
 30
0.0
 41
100.0
 42
100.0
 43
100.0
  0
POINT
  5
1A778
330
165C4
100
AcDbEntity
  8
DEFPOINTS
 62
     0
 48
50.0
100
AcDbPoint
 10
6634.673057123641
 20
7242.497424545952
 30
0.0
  0
POINT
  5
1A779
330
165C4
100
AcDbEntity
  8
DEFPOINTS
 62
     0
 48
50.0
100
AcDbPoint
 10
6586.673057123639
 20
7268.497424545865
 30
0.0
  0
POINT
  5
1A77A
330
165C4
100
AcDbEntity
  8
DEFPOINTS
 62
     0
 48
50.0
100
AcDbPoint
 10
6586.673057123639
 20
6708.0666537797
 30
0.0
  0
ENDBLK
  5
165D2
330
165C4
100
AcDbEntity
  8
0
 48
50.0
100
AcDbBlockEnd
  0
BLOCK
  5
1663F
330
165EA
100
AcDbEntity
  8
0
 48
50.0
100
AcDbBlockBegin
  2
*D16
 70
     1
 10
0.0
 20
0.0
 30
0.0
  3
*D16
  1

  0
LINE
  5
1A767
330
165EA
100
AcDbEntity
  8
寸法
 62
     0
 48
50.0
370
    -2
100
AcDbLine
 10
6744.673057123653
 20
7222.497424545863
 30
0.0
 11
6744.673057123653
 21
6648.066653779702
 31
0.0
  0
LINE
  5
1A768
330
165EA
100
AcDbEntity
  8
寸法
 62
     0
 48
50.0
370
    -2
100
AcDbLine
 10
6634.673057123641
 20
7222.497424545952
 30
0.0
 11
6634.673057123641
 21
6648.066653779702
 31
0.0
  0
LINE
  5
1A769
330
165EA
100
AcDbEntity
  8
寸法
 62
     0
 48
50.0
370
    -2
100
AcDbLine
 10
6744.673057123653
 20
6708.066653779702
 30
0.0
 11
6634.673057123641
 21
6708.066653779702
 31
0.0
  0
MTEXT
  5
1A76A
330
165EA
100
AcDbEntity
  8
寸法
 62
     7
 48
50.0
100
AcDbMText
 10
6689.673057123648
 20
6556.37475874347
 30
0.0
 40
120.0
 41
0.0
 71
     5
 72
     1
  1
\A1;110
  7
STYLE1
 73
     1
 44
1.0
1001
ACAD
1000
MTEXTBEGIN
1070
    73
1070
     1
1070
    44
1040
1.0
1070
    74
1070
     0
1000
MTEXTEND
  0
INSERT
  5
1A76B
330
165EA
100
AcDbEntity
  8
寸法
 62
     0
 48
50.0
370
    -2
100
AcDbBlockReference
  2
_DOTSMALL
 10
6744.673057123653
 20
6708.066653779702
 30
0.0
 41
100.0
 42
100.0
 43
100.0
  0
INSERT
  5
1A76C
330
165EA
100
AcDbEntity
  8
寸法
 62
     0
 48
50.0
370
    -2
100
AcDbBlockReference
  2
_DOTSMALL
 10
6634.673057123641
 20
6708.066653779702
 30
0.0
 41
100.0
 42
100.0
 43
100.0
 50
180.0
  0
POINT
  5
1A76D
330
165EA
100
AcDbEntity
  8
DEFPOINTS
 62
     0
 48
50.0
100
AcDbPoint
 10
6744.673057123653
 20
7242.497424545864
 30
0.0
  0
POINT
  5
1A76E
330
165EA
100
AcDbEntity
  8
DEFPOINTS
 62
     0
 48
50.0
100
AcDbPoint
 10
6634.673057123641
 20
7242.497424545952
 30
0.0
  0
POINT
  5
1A76F
330
165EA
100
AcDbEntity
  8
DEFPOINTS
 62
     0
 48
50.0
100
AcDbPoint
 10
6634.673057123641
 20
6708.066653779702
 30
0.0
  0
ENDBLK
  5
16649
330
165EA
100
AcDbEntity
  8
0
 48
50.0
100
AcDbBlockEnd
  0
BLOCK
  5
166D0
330
166CF
100
AcDbEntity
  8
0
 48
50.0
100
AcDbBlockBegin
  2
*D17
 70
     1
 10
0.0
 20
0.0
 30
0.0
  3
*D17
  1

  0
LINE
  5
1A75C
330
166CF
100
AcDbEntity
  8
寸法
 62
     0
 48
50.0
370
    -2
100
AcDbLine
 10
6744.673057123662
 20
10312.49742454592
 30
0.0
 11
6744.673057123662
 21
10568.30564417096
 31
0.0
  0
LINE
  5
1A75D
330
166CF
100
AcDbEntity
  8
寸法
 62
     0
 48
50.0
370
    -2
100
AcDbLine
 10
6634.673057123663
 20
10312.49742454591
 30
0.0
 11
6634.673057123663
 21
10568.30564417096
 31
0.0
  0
LINE
  5
1A75E
330
166CF
100
AcDbEntity
  8
寸法
 62
     0
 48
50.0
370
    -2
100
AcDbLine
 10
6744.673057123662
 20
10508.30564417096
 30
0.0
 11
6844.673057123663
 21
10508.30564417096
 31
0.0
  0
LINE
  5
1A75F
330
166CF
100
AcDbEntity
  8
寸法
 62
     0
 48
50.0
370
    -2
100
AcDbLine
 10
6634.673057123663
 20
10508.30564417096
 30
0.0
 11
6534.673057123663
 21
10508.30564417096
 31
0.0
  0
LINE
  5
1A760
330
166CF
100
AcDbEntity
  8
寸法
 62
     0
 48
50.0
370
    -2
100
AcDbLine
 10
6744.673057123662
 20
10508.30564417096
 30
0.0
 11
6634.673057123663
 21
10508.30564417096
 31
0.0
  0
INSERT
  5
1A761
330
166CF
100
AcDbEntity
  8
寸法
 62
     0
 48
50.0
370
    -2
100
AcDbBlockReference
  2
_DOTSMALL
 10
6744.673057123662
 20
10508.30564417096
 30
0.0
 41
100.0
 42
100.0
 43
100.0
 50
180.0
  0
INSERT
  5
1A762
330
166CF
100
AcDbEntity
  8
寸法
 62
     0
 48
50.0
370
    -2
100
AcDbBlockReference
  2
_DOTSMALL
 10
6634.673057123663
 20
10508.30564417096
 30
0.0
 41
100.0
 42
100.0
 43
100.0
  0
MTEXT
  5
1A763
330
166CF
100
AcDbEntity
  8
寸法
 62
     7
 48
50.0
100
AcDbMText
 10
6689.673057123664
 20
10608.30564417096
 30
0.0
 40
120.0
 41
0.0
 71
     5
 72
     1
  1
\A1;110
  7
STYLE1
 73
     1
 44
1.0
1001
ACAD
1000
MTEXTBEGIN
1070
    73
1070
     1
1070
    44
1040
1.0
1070
    74
1070
     0
1000
MTEXTEND
  0
POINT
  5
1A764
330
166CF
100
AcDbEntity
  8
DEFPOINTS
 62
     0
 48
50.0
100
AcDbPoint
 10
6744.673057123662
 20
10292.49742454592
 30
0.0
  0
POINT
  5
1A765
330
166CF
100
AcDbEntity
  8
DEFPOINTS
 62
     0
 48
50.0
100
AcDbPoint
 10
6634.673057123663
 20
10292.49742454591
 30
0.0
  0
POINT
  5
1A766
330
166CF
100
AcDbEntity
  8
DEFPOINTS
 62
     0
 48
50.0
100
AcDbPoint
 10
6634.673057123663
 20
10508.30564417096
 30
0.0
  0
ENDBLK
  5
166DC
330
166CF
100
AcDbEntity
  8
0
 48
50.0
100
AcDbBlockEnd
  0
BLOCK
  5
1726C
330
16908
100
AcDbEntity
  8
0
 48
50.0
100
AcDbBlockBegin
  2
*D18
 70
     1
 10
0.0
 20
0.0
 30
0.0
  3
*D18
  1

  0
LINE
  5
1A754
330
16908
100
AcDbEntity
  8
寸法
 62
     0
 48
50.0
370
    -2
100
AcDbLine
 10
9319.673057123663
 20
10312.49742454596
 30
0.0
 11
9319.673057123663
 21
10817.62711772726
 31
0.0
  0
LINE
  5
1A755
330
16908
100
AcDbEntity
  8
寸法
 62
     0
 48
50.0
370
    -2
100
AcDbLine
 10
6689.673057123664
 20
10757.62711772726
 30
0.0
 11
9319.673057123663
 21
10757.62711772726
 31
0.0
  0
INSERT
  5
1A756
330
16908
100
AcDbEntity
  8
寸法
 62
     0
 48
50.0
370
    -2
100
AcDbBlockReference
  2
_DOTSMALL
 10
6689.673057123664
 20
10757.62711772726
 30
0.0
 41
100.0
 42
100.0
 43
100.0
 50
180.0
  0
INSERT
  5
1A757
330
16908
100
AcDbEntity
  8
寸法
 62
     0
 48
50.0
370
    -2
100
AcDbBlockReference
  2
_DOTSMALL
 10
9319.673057123663
 20
10757.62711772726
 30
0.0
 41
100.0
 42
100.0
 43
100.0
  0
MTEXT
  5
1A758
330
16908
100
AcDbEntity
  8
寸法
 62
     7
 48
50.0
100
AcDbMText
 10
8004.673057123664
 20
10857.63892875088
 30
0.0
 40
120.0
 41
0.0
 71
     5
 72
     1
  1
\A1;2630
  7
STYLE1
 73
     1
 44
1.0
1001
ACAD
1000
MTEXTBEGIN
1070
    73
1070
     1
1070
    44
1040
1.0
1070
    74
1070
     0
1000
MTEXTEND
  0
POINT
  5
1A759
330
16908
100
AcDbEntity
  8
DEFPOINTS
 62
     0
 48
50.0
100
AcDbPoint
 10
6689.673057123664
 20
10667.29355852891
 30
0.0
  0
POINT
  5
1A75A
330
16908
100
AcDbEntity
  8
DEFPOINTS
 62
     0
 48
50.0
100
AcDbPoint
 10
9319.673057123663
 20
10292.49742454596
 30
0.0
  0
POINT
  5
1A75B
330
16908
100
AcDbEntity
  8
DEFPOINTS
 62
     0
 48
50.0
100
AcDbPoint
 10
9319.673057123663
 20
10757.62711772726
 30
0.0
  0
ENDBLK
  5
17275
330
16908
100
AcDbEntity
  8
0
 48
50.0
100
AcDbBlockEnd
  0
BLOCK
  5
17BD1
330
17BC5
100
AcDbEntity
  8
0
 48
50.0
100
AcDbBlockBegin
  2
*D19
 70
     1
 10
0.0
 20
0.0
 30
0.0
  3
*D19
  1

  0
LINE
  5
1A86B
330
17BC5
100
AcDbEntity
  8
寸法
 62
     0
 48
50.0
370
    -2
100
AcDbLine
 10
4004.67305712364
 20
7222.497424545952
 30
0.0
 11
4004.67305712364
 21
6648.0666537797
 31
0.0
  0
LINE
  5
1A86C
330
17BC5
100
AcDbEntity
  8
寸法
 62
     0
 48
50.0
370
    -2
100
AcDbLine
 10
3956.673057123639
 20
7248.497424545866
 30
0.0
 11
3956.673057123639
 21
6648.0666537797
 31
0.0
  0
LINE
  5
1A86D
330
17BC5
100
AcDbEntity
  8
寸法
 62
     0
 48
50.0
370
    -2
100
AcDbLine
 10
4004.67305712364
 20
6708.0666537797
 30
0.0
 11
4104.67305712364
 21
6708.0666537797
 31
0.0
  0
LINE
  5
1A86E
330
17BC5
100
AcDbEntity
  8
寸法
 62
     0
 48
50.0
370
    -2
100
AcDbLine
 10
3956.673057123639
 20
6708.0666537797
 30
0.0
 11
3856.673057123638
 21
6708.0666537797
 31
0.0
  0
MTEXT
  5
1A86F
330
17BC5
100
AcDbEntity
  8
寸法
 62
     7
 48
50.0
100
AcDbMText
 10
3845.710159474892
 20
6808.0666537797
 30
0.0
 40
120.0
 41
0.0
 71
     5
 72
     1
  1
\A1;48
  7
STYLE1
 73
     1
 44
1.0
1001
ACAD
1000
MTEXTBEGIN
1070
    73
1070
     1
1070
    44
1040
1.0
1070
    74
1070
     0
1000
MTEXTEND
  0
LINE
  5
1A870
330
17BC5
100
AcDbEntity
  8
寸法
 62
     0
 48
50.0
370
    -2
100
AcDbLine
 10
4004.67305712364
 20
6708.0666537797
 30
0.0
 11
3956.673057123639
 21
6708.0666537797
 31
0.0
  0
INSERT
  5
1A871
330
17BC5
100
AcDbEntity
  8
寸法
 62
     0
 48
50.0
370
    -2
100
AcDbBlockReference
  2
_DOTSMALL
 10
4004.67305712364
 20
6708.0666537797
 30
0.0
 41
100.0
 42
100.0
 43
100.0
 50
180.0
  0
INSERT
  5
1A872
330
17BC5
100
AcDbEntity
  8
寸法
 62
     0
 48
50.0
370
    -2
100
AcDbBlockReference
  2
_DOTSMALL
 10
3956.673057123639
 20
6708.0666537797
 30
0.0
 41
100.0
 42
100.0
 43
100.0
  0
POINT
  5
1A873
330
17BC5
100
AcDbEntity
  8
DEFPOINTS
 62
     0
 48
50.0
100
AcDbPoint
 10
4004.67305712364
 20
7242.497424545952
 30
0.0
  0
POINT
  5
1A874
330
17BC5
100
AcDbEntity
  8
DEFPOINTS
 62
     0
 48
50.0
100
AcDbPoint
 10
3956.673057123639
 20
7268.497424545865
 30
0.0
  0
POINT
  5
1A875
330
17BC5
100
AcDbEntity
  8
DEFPOINTS
 62
     0
 48
50.0
100
AcDbPoint
 10
3956.673057123639
 20
6708.0666537797
 30
0.0
  0
ENDBLK
  5
17BD2
330
17BC5
100
AcDbEntity
  8
0
 48
50.0
100
AcDbBlockEnd
  0
BLOCK
  5
17BDC
330
17BD3
100
AcDbEntity
  8
0
 48
50.0
100
AcDbBlockBegin
  2
*D20
 70
     1
 10
0.0
 20
0.0
 30
0.0
  3
*D20
  1

  0
LINE
  5
1A8C5
330
17BD3
100
AcDbEntity
  8
寸法
 62
     0
 48
50.0
370
    -2
100
AcDbLine
 10
1532.673057123657
 20
7248.497424545864
 30
0.0
 11
1532.673057123657
 21
6648.0666537797
 31
0.0
  0
LINE
  5
1A8C6
330
17BD3
100
AcDbEntity
  8
寸法
 62
     0
 48
50.0
370
    -2
100
AcDbLine
 10
3956.673057123639
 20
6708.0666537797
 30
0.0
 11
1532.673057123657
 21
6708.0666537797
 31
0.0
  0
INSERT
  5
1A8C7
330
17BD3
100
AcDbEntity
  8
寸法
 62
     0
 48
50.0
370
    -2
100
AcDbBlockReference
  2
_DOTSMALL
 10
3956.673057123639
 20
6708.0666537797
 30
0.0
 41
100.0
 42
100.0
 43
100.0
  0
INSERT
  5
1A8C8
330
17BD3
100
AcDbEntity
  8
寸法
 62
     0
 48
50.0
370
    -2
100
AcDbBlockReference
  2
_DOTSMALL
 10
1532.673057123657
 20
6708.0666537797
 30
0.0
 41
100.0
 42
100.0
 43
100.0
 50
180.0
  0
MTEXT
  5
1A8C9
330
17BD3
100
AcDbEntity
  8
寸法
 62
     7
 48
50.0
100
AcDbMText
 10
2744.673057123648
 20
6808.078464803323
 30
0.0
 40
120.0
 41
0.0
 71
     5
 72
     1
  1
\A1;有効開口部間口 2424
  7
STYLE1
 73
     1
 44
1.0
1001
ACAD
1000
MTEXTBEGIN
1070
    73
1070
     1
1070
    44
1040
1.0
1070
    74
1070
     0
1000
MTEXTEND
  0
POINT
  5
1A8CA
330
17BD3
100
AcDbEntity
  8
DEFPOINTS
 62
     0
 48
50.0
100
AcDbPoint
 10
3956.673057123639
 20
7268.497424545865
 30
0.0
  0
POINT
  5
1A8CB
330
17BD3
100
AcDbEntity
  8
DEFPOINTS
 62
     0
 48
50.0
100
AcDbPoint
 10
1532.673057123657
 20
7268.497424545865
 30
0.0
  0
POINT
  5
1A8CC
330
17BD3
100
AcDbEntity
  8
DEFPOINTS
 62
     0
 48
50.0
100
AcDbPoint
 10
1532.673057123657
 20
6708.0666537797
 30
0.0
  0
ENDBLK
  5
17BDD
330
17BD3
100
AcDbEntity
  8
0
 48
50.0
100
AcDbBlockEnd
  0
BLOCK
  5
17BE8
330
17BDE
100
AcDbEntity
  8
0
 48
50.0
100
AcDbBlockBegin
  2
*D21
 70
     1
 10
0.0
 20
0.0
 30
0.0
  3
*D21
  1

  0
LINE
  5
1AAA3
330
17BDE
100
AcDbEntity
  8
寸法
 62
     0
 48
50.0
370
    -2
100
AcDbLine
 10
1484.673057123663
 20
10312.49742454587
 30
0.0
 11
1484.673057123663
 21
10568.30564417096
 31
0.0
  0
LINE
  5
1AAA4
330
17BDE
100
AcDbEntity
  8
寸法
 62
     0
 48
50.0
370
    -2
100
AcDbLine
 10
4004.673057123664
 20
10312.49742454596
 30
0.0
 11
4004.673057123664
 21
10568.30564417096
 31
0.0
  0
LINE
  5
1AAA5
330
17BDE
100
AcDbEntity
  8
寸法
 62
     0
 48
50.0
370
    -2
100
AcDbLine
 10
1484.673057123663
 20
10508.30564417096
 30
0.0
 11
4004.673057123664
 21
10508.30564417096
 31
0.0
  0
INSERT
  5
1AAA6
330
17BDE
100
AcDbEntity
  8
寸法
 62
     0
 48
50.0
370
    -2
100
AcDbBlockReference
  2
_DOTSMALL
 10
1484.673057123663
 20
10508.30564417096
 30
0.0
 41
100.0
 42
100.0
 43
100.0
 50
180.0
  0
INSERT
  5
1AAA7
330
17BDE
100
AcDbEntity
  8
寸法
 62
     0
 48
50.0
370
    -2
100
AcDbBlockReference
  2
_DOTSMALL
 10
4004.673057123664
 20
10508.30564417096
 30
0.0
 41
100.0
 42
100.0
 43
100.0
  0
MTEXT
  5
1AAA8
330
17BDE
100
AcDbEntity
  8
寸法
 62
     7
 48
50.0
100
AcDbMText
 10
2744.673057123664
 20
10608.31745519459
 30
0.0
 40
120.0
 41
0.0
 71
     5
 72
     1
  1
\A1;6X420=2520
  7
STYLE1
 73
     1
 44
1.0
1001
ACAD
1000
MTEXTBEGIN
1070
    73
1070
     1
1070
    44
1040
1.0
1070
    74
1070
     0
1000
MTEXTEND
  0
POINT
  5
1AAA9
330
17BDE
100
AcDbEntity
  8
DEFPOINTS
 62
     0
 48
50.0
100
AcDbPoint
 10
1484.673057123663
 20
10292.49742454587
 30
0.0
  0
POINT
  5
1AAAA
330
17BDE
100
AcDbEntity
  8
DEFPOINTS
 62
     0
 48
50.0
100
AcDbPoint
 10
4004.673057123664
 20
10292.49742454596
 30
0.0
  0
POINT
  5
1AAAB
330
17BDE
100
AcDbEntity
  8
DEFPOINTS
 62
     0
 48
50.0
100
AcDbPoint
 10
4004.673057123664
 20
10508.30564417096
 30
0.0
  0
ENDBLK
  5
17BE9
330
17BDE
100
AcDbEntity
  8
0
 48
50.0
100
AcDbBlockEnd
  0
BLOCK
  5
17BF6
330
17BEA
100
AcDbEntity
  8
0
 48
50.0
100
AcDbBlockBegin
  2
*D22
 70
     1
 10
0.0
 20
0.0
 30
0.0
  3
*D22
  1

  0
LINE
  5
1A87E
330
17BEA
100
AcDbEntity
  8
寸法
 62
     0
 48
50.0
370
    -2
100
AcDbLine
 10
4114.673057123662
 20
10312.49742454592
 30
0.0
 11
4114.673057123662
 21
10568.30564417096
 31
0.0
  0
LINE
  5
1A87F
330
17BEA
100
AcDbEntity
  8
寸法
 62
     0
 48
50.0
370
    -2
100
AcDbLine
 10
4004.673057123664
 20
10312.49742454591
 30
0.0
 11
4004.673057123664
 21
10568.30564417096
 31
0.0
  0
LINE
  5
1A880
330
17BEA
100
AcDbEntity
  8
寸法
 62
     0
 48
50.0
370
    -2
100
AcDbLine
 10
4114.673057123662
 20
10508.30564417096
 30
0.0
 11
4214.673057123663
 21
10508.30564417096
 31
0.0
  0
LINE
  5
1A881
330
17BEA
100
AcDbEntity
  8
寸法
 62
     0
 48
50.0
370
    -2
100
AcDbLine
 10
4004.673057123664
 20
10508.30564417096
 30
0.0
 11
3904.673057123665
 21
10508.30564417096
 31
0.0
  0
LINE
  5
1A882
330
17BEA
100
AcDbEntity
  8
寸法
 62
     0
 48
50.0
370
    -2
100
AcDbLine
 10
4114.673057123662
 20
10508.30564417096
 30
0.0
 11
4004.673057123664
 21
10508.30564417096
 31
0.0
  0
INSERT
  5
1A883
330
17BEA
100
AcDbEntity
  8
寸法
 62
     0
 48
50.0
370
    -2
100
AcDbBlockReference
  2
_DOTSMALL
 10
4114.673057123662
 20
10508.30564417096
 30
0.0
 41
100.0
 42
100.0
 43
100.0
 50
180.0
  0
INSERT
  5
1A884
330
17BEA
100
AcDbEntity
  8
寸法
 62
     0
 48
50.0
370
    -2
100
AcDbBlockReference
  2
_DOTSMALL
 10
4004.673057123664
 20
10508.30564417096
 30
0.0
 41
100.0
 42
100.0
 43
100.0
  0
MTEXT
  5
1A885
330
17BEA
100
AcDbEntity
  8
寸法
 62
     7
 48
50.0
100
AcDbMText
 10
4059.673057123663
 20
10608.30564417096
 30
0.0
 40
120.0
 41
0.0
 71
     5
 72
     1
  1
\A1;110
  7
STYLE1
 73
     1
 44
1.0
1001
ACAD
1000
MTEXTBEGIN
1070
    73
1070
     1
1070
    44
1040
1.0
1070
    74
1070
     0
1000
MTEXTEND
  0
POINT
  5
1A886
330
17BEA
100
AcDbEntity
  8
DEFPOINTS
 62
     0
 48
50.0
100
AcDbPoint
 10
4114.673057123662
 20
10292.49742454592
 30
0.0
  0
POINT
  5
1A887
330
17BEA
100
AcDbEntity
  8
DEFPOINTS
 62
     0
 48
50.0
100
AcDbPoint
 10
4004.673057123664
 20
10292.49742454591
 30
0.0
  0
POINT
  5
1A888
330
17BEA
100
AcDbEntity
  8
DEFPOINTS
 62
     0
 48
50.0
100
AcDbPoint
 10
4004.673057123664
 20
10508.30564417096
 30
0.0
  0
ENDBLK
  5
17BF7
330
17BEA
100
AcDbEntity
  8
0
 48
50.0
100
AcDbBlockEnd
  0
BLOCK
  5
17C02
330
17BF8
100
AcDbEntity
  8
0
 48
50.0
100
AcDbBlockBegin
  2
*D23
 70
     1
 10
0.0
 20
0.0
 30
0.0
  3
*D23
  1

  0
LINE
  5
1A8D6
330
17BF8
100
AcDbEntity
  8
寸法
 62
     0
 48
50.0
370
    -2
100
AcDbLine
 10
1429.673057123628
 20
10312.49742454583
 30
0.0
 11
1429.673057123628
 21
10817.62711772726
 31
0.0
  0
LINE
  5
1A8D7
330
17BF8
100
AcDbEntity
  8
寸法
 62
     0
 48
50.0
370
    -2
100
AcDbLine
 10
4059.673057123664
 20
10687.29355852891
 30
0.0
 11
4059.673057123664
 21
10817.62711772726
 31
0.0
  0
LINE
  5
1A8D8
330
17BF8
100
AcDbEntity
  8
寸法
 62
     0
 48
50.0
370
    -2
100
AcDbLine
 10
1429.673057123628
 20
10757.62711772726
 30
0.0
 11
4059.673057123664
 21
10757.62711772726
 31
0.0
  0
INSERT
  5
1A8D9
330
17BF8
100
AcDbEntity
  8
寸法
 62
     0
 48
50.0
370
    -2
100
AcDbBlockReference
  2
_DOTSMALL
 10
1429.673057123628
 20
10757.62711772726
 30
0.0
 41
100.0
 42
100.0
 43
100.0
 50
180.0
  0
INSERT
  5
1A8DA
330
17BF8
100
AcDbEntity
  8
寸法
 62
     0
 48
50.0
370
    -2
100
AcDbBlockReference
  2
_DOTSMALL
 10
4059.673057123664
 20
10757.62711772726
 30
0.0
 41
100.0
 42
100.0
 43
100.0
  0
MTEXT
  5
1A8DB
330
17BF8
100
AcDbEntity
  8
寸法
 62
     7
 48
50.0
100
AcDbMText
 10
2744.673057123646
 20
10857.63892875088
 30
0.0
 40
120.0
 41
0.0
 71
     5
 72
     1
  1
\A1;2630
  7
STYLE1
 73
     1
 44
1.0
1001
ACAD
1000
MTEXTBEGIN
1070
    73
1070
     1
1070
    44
1040
1.0
1070
    74
1070
     0
1000
MTEXTEND
  0
POINT
  5
1A8DC
330
17BF8
100
AcDbEntity
  8
DEFPOINTS
 62
     0
 48
50.0
100
AcDbPoint
 10
1429.673057123628
 20
10292.49742454583
 30
0.0
  0
POINT
  5
1A8DD
330
17BF8
100
AcDbEntity
  8
DEFPOINTS
 62
     0
 48
50.0
100
AcDbPoint
 10
4059.673057123664
 20
10667.29355852891
 30
0.0
  0
POINT
  5
1A8DE
330
17BF8
100
AcDbEntity
  8
DEFPOINTS
 62
     0
 48
50.0
100
AcDbPoint
 10
4059.673057123664
 20
10757.62711772726
 30
0.0
  0
ENDBLK
  5
17C03
330
17BF8
100
AcDbEntity
  8
0
 48
50.0
100
AcDbBlockEnd
  0
BLOCK
  5
17C54
330
17C48
100
AcDbEntity
  8
0
 48
50.0
100
AcDbBlockBegin
  2
*D24
 70
     1
 10
0.0
 20
0.0
 30
0.0
  3
*D24
  1

  0
LINE
  5
1A857
330
17C48
100
AcDbEntity
  8
寸法
 62
     0
 48
50.0
370
    -2
100
AcDbLine
 10
4162.673057123657
 20
7248.497424545864
 30
0.0
 11
4162.673057123657
 21
6648.0666537797
 31
0.0
  0
LINE
  5
1A858
330
17C48
100
AcDbEntity
  8
寸法
 62
     0
 48
50.0
370
    -2
100
AcDbLine
 10
4114.673057123653
 20
7222.497424545863
 30
0.0
 11
4114.673057123653
 21
6648.0666537797
 31
0.0
  0
LINE
  5
1A859
330
17C48
100
AcDbEntity
  8
寸法
 62
     0
 48
50.0
370
    -2
100
AcDbLine
 10
4162.673057123657
 20
6708.0666537797
 30
0.0
 11
4262.673057123657
 21
6708.0666537797
 31
0.0
  0
LINE
  5
1A85A
330
17C48
100
AcDbEntity
  8
寸法
 62
     0
 48
50.0
370
    -2
100
AcDbLine
 10
4114.673057123653
 20
6708.0666537797
 30
0.0
 11
4014.673057123653
 21
6708.0666537797
 31
0.0
  0
MTEXT
  5
1A85B
330
17C48
100
AcDbEntity
  8
寸法
 62
     7
 48
50.0
100
AcDbMText
 10
4275.575028123713
 20
6808.0666537797
 30
0.0
 40
120.0
 41
0.0
 71
     5
 72
     1
  1
\A1;48
  7
STYLE1
 73
     1
 44
1.0
1001
ACAD
1000
MTEXTBEGIN
1070
    73
1070
     1
1070
    44
1040
1.0
1070
    74
1070
     0
1000
MTEXTEND
  0
LINE
  5
1A85C
330
17C48
100
AcDbEntity
  8
寸法
 62
     0
 48
50.0
370
    -2
100
AcDbLine
 10
4162.673057123657
 20
6708.0666537797
 30
0.0
 11
4114.673057123653
 21
6708.0666537797
 31
0.0
  0
INSERT
  5
1A85D
330
17C48
100
AcDbEntity
  8
寸法
 62
     0
 48
50.0
370
    -2
100
AcDbBlockReference
  2
_DOTSMALL
 10
4162.673057123657
 20
6708.0666537797
 30
0.0
 41
100.0
 42
100.0
 43
100.0
 50
180.0
  0
INSERT
  5
1A85E
330
17C48
100
AcDbEntity
  8
寸法
 62
     0
 48
50.0
370
    -2
100
AcDbBlockReference
  2
_DOTSMALL
 10
4114.673057123653
 20
6708.0666537797
 30
0.0
 41
100.0
 42
100.0
 43
100.0
  0
POINT
  5
1A85F
330
17C48
100
AcDbEntity
  8
DEFPOINTS
 62
     0
 48
50.0
100
AcDbPoint
 10
4162.673057123657
 20
7268.497424545865
 30
0.0
  0
POINT
  5
1A860
330
17C48
100
AcDbEntity
  8
DEFPOINTS
 62
     0
 48
50.0
100
AcDbPoint
 10
4114.673057123653
 20
7242.497424545864
 30
0.0
  0
POINT
  5
1A861
330
17C48
100
AcDbEntity
  8
DEFPOINTS
 62
     0
 48
50.0
100
AcDbPoint
 10
4114.673057123653
 20
6708.0666537797
 30
0.0
  0
ENDBLK
  5
17C55
330
17C48
100
AcDbEntity
  8
0
 48
50.0
100
AcDbBlockEnd
  0
BLOCK
  5
17C60
330
17C56
100
AcDbEntity
  8
0
 48
50.0
100
AcDbBlockBegin
  2
*D25
 70
     1
 10
0.0
 20
0.0
 30
0.0
  3
*D25
  1

  0
LINE
  5
1A862
330
17C56
100
AcDbEntity
  8
寸法
 62
     0
 48
50.0
370
    -2
100
AcDbLine
 10
4114.673057123653
 20
7222.497424545863
 30
0.0
 11
4114.673057123653
 21
6648.066653779702
 31
0.0
  0
LINE
  5
1A863
330
17C56
100
AcDbEntity
  8
寸法
 62
     0
 48
50.0
370
    -2
100
AcDbLine
 10
4004.67305712364
 20
7222.497424545952
 30
0.0
 11
4004.67305712364
 21
6648.066653779702
 31
0.0
  0
LINE
  5
1A864
330
17C56
100
AcDbEntity
  8
寸法
 62
     0
 48
50.0
370
    -2
100
AcDbLine
 10
4114.673057123653
 20
6708.066653779702
 30
0.0
 11
4004.67305712364
 21
6708.066653779702
 31
0.0
  0
MTEXT
  5
1A865
330
17C56
100
AcDbEntity
  8
寸法
 62
     7
 48
50.0
100
AcDbMText
 10
4059.673057123647
 20
6556.37475874347
 30
0.0
 40
120.0
 41
0.0
 71
     5
 72
     1
  1
\A1;110
  7
STYLE1
 73
     1
 44
1.0
1001
ACAD
1000
MTEXTBEGIN
1070
    73
1070
     1
1070
    44
1040
1.0
1070
    74
1070
     0
1000
MTEXTEND
  0
INSERT
  5
1A866
330
17C56
100
AcDbEntity
  8
寸法
 62
     0
 48
50.0
370
    -2
100
AcDbBlockReference
  2
_DOTSMALL
 10
4114.673057123653
 20
6708.066653779702
 30
0.0
 41
100.0
 42
100.0
 43
100.0
  0
INSERT
  5
1A867
330
17C56
100
AcDbEntity
  8
寸法
 62
     0
 48
50.0
370
    -2
100
AcDbBlockReference
  2
_DOTSMALL
 10
4004.67305712364
 20
6708.066653779702
 30
0.0
 41
100.0
 42
100.0
 43
100.0
 50
180.0
  0
POINT
  5
1A868
330
17C56
100
AcDbEntity
  8
DEFPOINTS
 62
     0
 48
50.0
100
AcDbPoint
 10
4114.673057123653
 20
7242.497424545864
 30
0.0
  0
POINT
  5
1A869
330
17C56
100
AcDbEntity
  8
DEFPOINTS
 62
     0
 48
50.0
100
AcDbPoint
 10
4004.67305712364
 20
7242.497424545952
 30
0.0
  0
POINT
  5
1A86A
330
17C56
100
AcDbEntity
  8
DEFPOINTS
 62
     0
 48
50.0
100
AcDbPoint
 10
4004.67305712364
 20
6708.066653779702
 30
0.0
  0
ENDBLK
  5
17C61
330
17C56
100
AcDbEntity
  8
0
 48
50.0
100
AcDbBlockEnd
  0
BLOCK
  5
190A2
330
19098
100
AcDbEntity
  8
0
 48
50.0
100
AcDbBlockBegin
  2
*D26
 70
     1
 10
0.0
 20
0.0
 30
0.0
  3
*D26
  1

  0
LINE
  5
1A6D6
330
19098
100
AcDbEntity
  8
寸法
 62
     0
 48
50.0
370
    -2
100
AcDbLine
 10
11990.50894806608
 20
4142.359204196226
 30
0.0
 11
11106.75881888282
 21
4142.359204196226
 31
0.0
  0
LINE
  5
1A6D7
330
19098
100
AcDbEntity
  8
寸法
 62
     0
 48
50.0
370
    -2
100
AcDbLine
 10
11990.50894806608
 20
2352.359204196224
 30
0.0
 11
11106.75881888282
 21
2352.359204196224
 31
0.0
  0
LINE
  5
1A6D8
330
19098
100
AcDbEntity
  8
寸法
 62
     0
 48
50.0
370
    -2
100
AcDbLine
 10
11166.75881888282
 20
4142.359204196226
 30
0.0
 11
11166.75881888282
 21
2352.359204196224
 31
0.0
  0
INSERT
  5
1A6D9
330
19098
100
AcDbEntity
  8
寸法
 62
     0
 48
50.0
370
    -2
100
AcDbBlockReference
  2
_DOTSMALL
 10
11166.75881888282
 20
4142.359204196226
 30
0.0
 41
100.0
 42
100.0
 43
100.0
 50
90.0
  0
INSERT
  5
1A6DA
330
19098
100
AcDbEntity
  8
寸法
 62
     0
 48
50.0
370
    -2
100
AcDbBlockReference
  2
_DOTSMALL
 10
11166.75881888282
 20
2352.359204196224
 30
0.0
 41
100.0
 42
100.0
 43
100.0
 50
270.0
  0
MTEXT
  5
1A6DB
330
19098
100
AcDbEntity
  8
寸法
 62
     7
 48
50.0
100
AcDbMText
 10
11066.75881888282
 20
3247.359204196227
 30
0.0
 40
120.0
 41
0.0
 71
     5
 72
     1
  1
\A1;1790
  7
STYLE1
 11
0.0000000000000001
 21
1.0
 31
0.0
 73
     1
 44
1.0
1001
ACAD
1000
MTEXTBEGIN
1070
    73
1070
     1
1070
    44
1040
1.0
1070
    74
1070
     0
1000
MTEXTEND
  0
POINT
  5
1A6DC
330
19098
100
AcDbEntity
  8
DEFPOINTS
 62
     0
 48
50.0
100
AcDbPoint
 10
12010.50894806608
 20
4142.359204196226
 30
0.0
  0
POINT
  5
1A6DD
330
19098
100
AcDbEntity
  8
DEFPOINTS
 62
     0
 48
50.0
100
AcDbPoint
 10
12010.50894806608
 20
2352.359204196224
 30
0.0
  0
POINT
  5
1A6DE
330
19098
100
AcDbEntity
  8
DEFPOINTS
 62
     0
 48
50.0
100
AcDbPoint
 10
11166.75881888282
 20
2352.359204196224
 30
0.0
  0
ENDBLK
  5
190A3
330
19098
100
AcDbEntity
  8
0
 48
50.0
100
AcDbBlockEnd
  0
BLOCK
  5
190AE
330
190A4
100
AcDbEntity
  8
0
 48
50.0
100
AcDbBlockBegin
  2
*D27
 70
     1
 10
0.0
 20
0.0
 30
0.0
  3
*D27
  1

  0
LINE
  5
1A6CD
330
190A4
100
AcDbEntity
  8
寸法
 62
     0
 48
50.0
370
    -2
100
AcDbLine
 10
11990.50894806608
 20
2302.359204196224
 30
0.0
 11
10806.75881888282
 21
2302.359204196224
 31
0.0
  0
LINE
  5
1A6CE
330
190A4
100
AcDbEntity
  8
寸法
 62
     0
 48
50.0
370
    -2
100
AcDbLine
 10
11930.50894806608
 20
4377.359204196229
 30
0.0
 11
10806.75881888282
 21
4377.359204196229
 31
0.0
  0
LINE
  5
1A6CF
330
190A4
100
AcDbEntity
  8
寸法
 62
     0
 48
50.0
370
    -2
100
AcDbLine
 10
10866.75881888282
 20
2302.359204196224
 30
0.0
 11
10866.75881888282
 21
4377.359204196229
 31
0.0
  0
INSERT
  5
1A6D0
330
190A4
100
AcDbEntity
  8
寸法
 62
     0
 48
50.0
370
    -2
100
AcDbBlockReference
  2
_DOTSMALL
 10
10866.75881888282
 20
2302.359204196224
 30
0.0
 41
100.0
 42
100.0
 43
100.0
 50
270.0
  0
INSERT
  5
1A6D1
330
190A4
100
AcDbEntity
  8
寸法
 62
     0
 48
50.0
370
    -2
100
AcDbBlockReference
  2
_DOTSMALL
 10
10866.75881888282
 20
4377.359204196229
 30
0.0
 41
100.0
 42
100.0
 43
100.0
 50
90.0
  0
MTEXT
  5
1A6D2
330
190A4
100
AcDbEntity
  8
寸法
 62
     7
 48
50.0
100
AcDbMText
 10
10766.7470078592
 20
3339.859204196229
 30
0.0
 40
120.0
 41
0.0
 71
     5
 72
     1
  1
\A1;2075
  7
STYLE1
 11
0.0000000000000001
 21
1.0
 31
0.0
 73
     1
 44
1.0
1001
ACAD
1000
MTEXTBEGIN
1070
    73
1070
     1
1070
    44
1040
1.0
1070
    74
1070
     0
1000
MTEXTEND
  0
POINT
  5
1A6D3
330
190A4
100
AcDbEntity
  8
DEFPOINTS
 62
     0
 48
50.0
100
AcDbPoint
 10
12010.50894806608
 20
2302.359204196224
 30
0.0
  0
POINT
  5
1A6D4
330
190A4
100
AcDbEntity
  8
DEFPOINTS
 62
     0
 48
50.0
100
AcDbPoint
 10
11950.50894806608
 20
4377.359204196229
 30
0.0
  0
POINT
  5
1A6D5
330
190A4
100
AcDbEntity
  8
DEFPOINTS
 62
     0
 48
50.0
100
AcDbPoint
 10
10866.75881888282
 20
4377.359204196229
 30
0.0
  0
ENDBLK
  5
190AF
330
190A4
100
AcDbEntity
  8
0
 48
50.0
100
AcDbBlockEnd
  0
BLOCK
  5
190BA
330
190B0
100
AcDbEntity
  8
0
 48
50.0
100
AcDbBlockBegin
  2
*D28
 70
     1
 10
0.0
 20
0.0
 30
0.0
  3
*D28
  1

  0
LINE
  5
1A6C4
330
190B0
100
AcDbEntity
  8
寸法
 62
     0
 48
50.0
370
    -2
100
AcDbLine
 10
15080.50894806608
 20
2302.359204196231
 30
0.0
 11
15825.4361060382
 21
2302.359204196231
 31
0.0
  0
LINE
  5
1A6C5
330
190B0
100
AcDbEntity
  8
寸法
 62
     0
 48
50.0
370
    -2
100
AcDbLine
 10
15160.50894806608
 20
4322.359204196231
 30
0.0
 11
15825.43610603821
 21
4322.359204196231
 31
0.0
  0
LINE
  5
1A6C6
330
190B0
100
AcDbEntity
  8
寸法
 62
     0
 48
50.0
370
    -2
100
AcDbLine
 10
15765.4361060382
 20
2302.359204196231
 30
0.0
 11
15765.43610603821
 21
4322.359204196231
 31
0.0
  0
INSERT
  5
1A6C7
330
190B0
100
AcDbEntity
  8
寸法
 62
     0
 48
50.0
370
    -2
100
AcDbBlockReference
  2
_DOTSMALL
 10
15765.4361060382
 20
2302.359204196231
 30
0.0
 41
100.0
 42
100.0
 43
100.0
 50
270.0
  0
INSERT
  5
1A6C8
330
190B0
100
AcDbEntity
  8
寸法
 62
     0
 48
50.0
370
    -2
100
AcDbBlockReference
  2
_DOTSMALL
 10
15765.43610603821
 20
4322.359204196231
 30
0.0
 41
100.0
 42
100.0
 43
100.0
 50
90.0
  0
MTEXT
  5
1A6C9
330
190B0
100
AcDbEntity
  8
寸法
 62
     7
 48
50.0
100
AcDbMText
 10
15665.42429501458
 20
3312.359204196234
 30
0.0
 40
120.0
 41
0.0
 71
     5
 72
     1
  1
\A1;2020
  7
STYLE1
 11
0.0000000000000001
 21
1.0
 31
0.0
 73
     1
 44
1.0
1001
ACAD
1000
MTEXTBEGIN
1070
    73
1070
     1
1070
    44
1040
1.0
1070
    74
1070
     0
1000
MTEXTEND
  0
POINT
  5
1A6CA
330
190B0
100
AcDbEntity
  8
DEFPOINTS
 62
     0
 48
50.0
100
AcDbPoint
 10
15060.50894806608
 20
2302.359204196231
 30
0.0
  0
POINT
  5
1A6CB
330
190B0
100
AcDbEntity
  8
DEFPOINTS
 62
     0
 48
50.0
100
AcDbPoint
 10
15140.50894806608
 20
4322.359204196231
 30
0.0
  0
POINT
  5
1A6CC
330
190B0
100
AcDbEntity
  8
DEFPOINTS
 62
     0
 48
50.0
100
AcDbPoint
 10
15765.43610603821
 20
4322.359204196231
 30
0.0
  0
ENDBLK
  5
190BB
330
190B0
100
AcDbEntity
  8
0
 48
50.0
100
AcDbBlockEnd
  0
BLOCK
  5
190C8
330
190BC
100
AcDbEntity
  8
0
 48
50.0
100
AcDbBlockBegin
  2
*D29
 70
     1
 10
0.0
 20
0.0
 30
0.0
  3
*D29
  1

  0
LINE
  5
1A6B9
330
190BC
100
AcDbEntity
  8
寸法
 62
     0
 48
50.0
370
    -2
100
AcDbLine
 10
11990.50894806608
 20
2352.359204196229
 30
0.0
 11
11106.75881888282
 21
2352.35920419623
 31
0.0
  0
LINE
  5
1A6BA
330
190BC
100
AcDbEntity
  8
寸法
 62
     0
 48
50.0
370
    -2
100
AcDbLine
 10
11935.50894806608
 20
2302.359204196229
 30
0.0
 11
11106.75881888282
 21
2302.35920419623
 31
0.0
  0
LINE
  5
1A6BB
330
190BC
100
AcDbEntity
  8
寸法
 62
     0
 48
50.0
370
    -2
100
AcDbLine
 10
11166.75881888282
 20
2352.35920419623
 30
0.0
 11
11166.75881888282
 21
2452.35920419623
 31
0.0
  0
LINE
  5
1A6BC
330
190BC
100
AcDbEntity
  8
寸法
 62
     0
 48
50.0
370
    -2
100
AcDbLine
 10
11166.75881888282
 20
2302.35920419623
 30
0.0
 11
11166.75881888282
 21
1890.264716007249
 31
0.0
  0
LINE
  5
1A6BD
330
190BC
100
AcDbEntity
  8
寸法
 62
     0
 48
50.0
370
    -2
100
AcDbLine
 10
11166.75881888282
 20
2352.35920419623
 30
0.0
 11
11166.75881888282
 21
2302.35920419623
 31
0.0
  0
INSERT
  5
1A6BE
330
190BC
100
AcDbEntity
  8
寸法
 62
     0
 48
50.0
370
    -2
100
AcDbBlockReference
  2
_DOTSMALL
 10
11166.75881888282
 20
2352.35920419623
 30
0.0
 41
100.0
 42
100.0
 43
100.0
 50
270.0
  0
INSERT
  5
1A6BF
330
190BC
100
AcDbEntity
  8
寸法
 62
     0
 48
50.0
370
    -2
100
AcDbBlockReference
  2
_DOTSMALL
 10
11166.75881888282
 20
2302.35920419623
 30
0.0
 41
100.0
 42
100.0
 43
100.0
 50
90.0
  0
MTEXT
  5
1A6C0
330
190BC
100
AcDbEntity
  8
寸法
 62
     7
 48
50.0
100
AcDbMText
 10
11066.75881888282
 20
1996.311960101739
 30
0.0
 40
120.0
 41
0.0
 71
     5
 72
     1
  1
\A1;50
  7
STYLE1
 11
0.0000000000000001
 21
1.0
 31
0.0
 73
     1
 44
1.0
1001
ACAD
1000
MTEXTBEGIN
1070
    73
1070
     1
1070
    44
1040
1.0
1070
    74
1070
     0
1000
MTEXTEND
  0
POINT
  5
1A6C1
330
190BC
100
AcDbEntity
  8
DEFPOINTS
 62
     0
 48
50.0
100
AcDbPoint
 10
12010.50894806608
 20
2352.359204196229
 30
0.0
  0
POINT
  5
1A6C2
330
190BC
100
AcDbEntity
  8
DEFPOINTS
 62
     0
 48
50.0
100
AcDbPoint
 10
11955.50894806608
 20
2302.359204196229
 30
0.0
  0
POINT
  5
1A6C3
330
190BC
100
AcDbEntity
  8
DEFPOINTS
 62
     0
 48
50.0
100
AcDbPoint
 10
11166.75881888282
 20
2302.35920419623
 30
0.0
  0
ENDBLK
  5
190C9
330
190BC
100
AcDbEntity
  8
0
 48
50.0
100
AcDbBlockEnd
  0
BLOCK
  5
190D4
330
190CA
100
AcDbEntity
  8
0
 48
50.0
100
AcDbBlockBegin
  2
*D30
 70
     1
 10
0.0
 20
0.0
 30
0.0
  3
*D30
  1

  0
LINE
  5
1A6B0
330
190CA
100
AcDbEntity
  8
寸法
 62
     0
 48
50.0
370
    -2
100
AcDbLine
 10
15060.50894806608
 20
4344.169883807885
 30
0.0
 11
15060.50894806608
 21
4836.016657775536
 31
0.0
  0
LINE
  5
1A6B1
330
190CA
100
AcDbEntity
  8
寸法
 62
     0
 48
50.0
370
    -2
100
AcDbLine
 10
12010.50894806608
 20
4393.360822319205
 30
0.0
 11
12010.50894806608
 21
4836.016657775536
 31
0.0
  0
LINE
  5
1A6B2
330
190CA
100
AcDbEntity
  8
寸法
 62
     0
 48
50.0
370
    -2
100
AcDbLine
 10
15060.50894806608
 20
4776.016657775535
 30
0.0
 11
12010.50894806608
 21
4776.016657775535
 31
0.0
  0
INSERT
  5
1A6B3
330
190CA
100
AcDbEntity
  8
寸法
 62
     0
 48
50.0
370
    -2
100
AcDbBlockReference
  2
_DOTSMALL
 10
15060.50894806608
 20
4776.016657775535
 30
0.0
 41
100.0
 42
100.0
 43
100.0
  0
INSERT
  5
1A6B4
330
190CA
100
AcDbEntity
  8
寸法
 62
     0
 48
50.0
370
    -2
100
AcDbBlockReference
  2
_DOTSMALL
 10
12010.50894806608
 20
4776.016657775535
 30
0.0
 41
100.0
 42
100.0
 43
100.0
 50
180.0
  0
MTEXT
  5
1A6B5
330
190CA
100
AcDbEntity
  8
寸法
 62
     7
 48
50.0
100
AcDbMText
 10
13535.50894806608
 20
4876.016657775536
 30
0.0
 40
120.0
 41
0.0
 71
     5
 72
     1
  1
\A1;柱外寸法3050
  7
STYLE1
 73
     1
 44
1.0
1001
ACAD
1000
MTEXTBEGIN
1070
    73
1070
     1
1070
    44
1040
1.0
1070
    74
1070
     0
1000
MTEXTEND
  0
POINT
  5
1A6B6
330
190CA
100
AcDbEntity
  8
DEFPOINTS
 62
     0
 48
50.0
100
AcDbPoint
 10
15060.50894806608
 20
4324.169883807885
 30
0.0
  0
POINT
  5
1A6B7
330
190CA
100
AcDbEntity
  8
DEFPOINTS
 62
     0
 48
50.0
100
AcDbPoint
 10
12010.50894806608
 20
4373.360822319205
 30
0.0
  0
POINT
  5
1A6B8
330
190CA
100
AcDbEntity
  8
DEFPOINTS
 62
     0
 48
50.0
100
AcDbPoint
 10
12010.50894806608
 20
4776.016657775535
 30
0.0
  0
ENDBLK
  5
190D5
330
190CA
100
AcDbEntity
  8
0
 48
50.0
100
AcDbBlockEnd
  0
BLOCK
  5
190E2
330
190D6
100
AcDbEntity
  8
0
 48
50.0
100
AcDbBlockBegin
  2
*D31
 70
     1
 10
0.0
 20
0.0
 30
0.0
  3
*D31
  1

  0
LINE
  5
1A6A5
330
190D6
100
AcDbEntity
  8
寸法
 62
     0
 48
50.0
370
    -2
100
AcDbLine
 10
12010.50894806608
 20
4393.360822319205
 30
0.0
 11
12010.50894806608
 21
4836.016657775534
 31
0.0
  0
LINE
  5
1A6A6
330
190D6
100
AcDbEntity
  8
寸法
 62
     0
 48
50.0
370
    -2
100
AcDbLine
 10
11950.50894806608
 20
4397.359204196233
 30
0.0
 11
11950.50894806608
 21
4836.016657775534
 31
0.0
  0
LINE
  5
1A6A7
330
190D6
100
AcDbEntity
  8
寸法
 62
     0
 48
50.0
370
    -2
100
AcDbLine
 10
12010.50894806608
 20
4776.016657775533
 30
0.0
 11
12110.50894806608
 21
4776.016657775533
 31
0.0
  0
LINE
  5
1A6A8
330
190D6
100
AcDbEntity
  8
寸法
 62
     0
 48
50.0
370
    -2
100
AcDbLine
 10
11950.50894806608
 20
4776.016657775533
 30
0.0
 11
11531.2333575149
 21
4776.016657775533
 31
0.0
  0
LINE
  5
1A6A9
330
190D6
100
AcDbEntity
  8
寸法
 62
     0
 48
50.0
370
    -2
100
AcDbLine
 10
12010.50894806608
 20
4776.016657775533
 30
0.0
 11
11950.50894806608
 21
4776.016657775533
 31
0.0
  0
INSERT
  5
1A6AA
330
190D6
100
AcDbEntity
  8
寸法
 62
     0
 48
50.0
370
    -2
100
AcDbBlockReference
  2
_DOTSMALL
 10
12010.50894806608
 20
4776.016657775533
 30
0.0
 41
100.0
 42
100.0
 43
100.0
 50
180.0
  0
INSERT
  5
1A6AB
330
190D6
100
AcDbEntity
  8
寸法
 62
     0
 48
50.0
370
    -2
100
AcDbBlockReference
  2
_DOTSMALL
 10
11950.50894806608
 20
4776.016657775533
 30
0.0
 41
100.0
 42
100.0
 43
100.0
  0
MTEXT
  5
1A6AC
330
190D6
100
AcDbEntity
  8
寸法
 62
     7
 48
50.0
100
AcDbMText
 10
11640.87115279049
 20
4876.016657775533
 30
0.0
 40
120.0
 41
0.0
 71
     5
 72
     1
  1
\A1;60
  7
STYLE1
 73
     1
 44
1.0
1001
ACAD
1000
MTEXTBEGIN
1070
    73
1070
     1
1070
    44
1040
1.0
1070
    74
1070
     0
1000
MTEXTEND
  0
POINT
  5
1A6AD
330
190D6
100
AcDbEntity
  8
DEFPOINTS
 62
     0
 48
50.0
100
AcDbPoint
 10
12010.50894806608
 20
4373.360822319205
 30
0.0
  0
POINT
  5
1A6AE
330
190D6
100
AcDbEntity
  8
DEFPOINTS
 62
     0
 48
50.0
100
AcDbPoint
 10
11950.50894806608
 20
4377.359204196234
 30
0.0
  0
POINT
  5
1A6AF
330
190D6
100
AcDbEntity
  8
DEFPOINTS
 62
     0
 48
50.0
100
AcDbPoint
 10
11950.50894806608
 20
4776.016657775533
 30
0.0
  0
ENDBLK
  5
190E3
330
190D6
100
AcDbEntity
  8
0
 48
50.0
100
AcDbBlockEnd
  0
BLOCK
  5
190EE
330
190E4
100
AcDbEntity
  8
0
 48
50.0
100
AcDbBlockBegin
  2
*D32
 70
     1
 10
0.0
 20
0.0
 30
0.0
  3
*D32
  1

  0
LINE
  5
1A69C
330
190E4
100
AcDbEntity
  8
寸法
 62
     0
 48
50.0
370
    -2
100
AcDbLine
 10
15140.50894806608
 20
4342.35920419623
 30
0.0
 11
15140.50894806608
 21
5066.130250561812
 31
0.0
  0
LINE
  5
1A69D
330
190E4
100
AcDbEntity
  8
寸法
 62
     0
 48
50.0
370
    -2
100
AcDbLine
 10
11950.50894806608
 20
4397.359204196233
 30
0.0
 11
11950.50894806608
 21
5066.130250561812
 31
0.0
  0
LINE
  5
1A69E
330
190E4
100
AcDbEntity
  8
寸法
 62
     0
 48
50.0
370
    -2
100
AcDbLine
 10
15140.50894806608
 20
5006.130250561811
 30
0.0
 11
11950.50894806608
 21
5006.130250561811
 31
0.0
  0
INSERT
  5
1A69F
330
190E4
100
AcDbEntity
  8
寸法
 62
     0
 48
50.0
370
    -2
100
AcDbBlockReference
  2
_DOTSMALL
 10
15140.50894806608
 20
5006.130250561811
 30
0.0
 41
100.0
 42
100.0
 43
100.0
  0
INSERT
  5
1A6A0
330
190E4
100
AcDbEntity
  8
寸法
 62
     0
 48
50.0
370
    -2
100
AcDbBlockReference
  2
_DOTSMALL
 10
11950.50894806608
 20
5006.130250561811
 30
0.0
 41
100.0
 42
100.0
 43
100.0
 50
180.0
  0
MTEXT
  5
1A6A1
330
190E4
100
AcDbEntity
  8
寸法
 62
     7
 48
50.0
100
AcDbMText
 10
13545.50894806608
 20
5106.130250561811
 30
0.0
 40
120.0
 41
0.0
 71
     5
 72
     1
  1
\A1;3190
  7
STYLE1
 73
     1
 44
1.0
1001
ACAD
1000
MTEXTBEGIN
1070
    73
1070
     1
1070
    44
1040
1.0
1070
    74
1070
     0
1000
MTEXTEND
  0
POINT
  5
1A6A2
330
190E4
100
AcDbEntity
  8
DEFPOINTS
 62
     0
 48
50.0
100
AcDbPoint
 10
15140.50894806608
 20
4322.359204196231
 30
0.0
  0
POINT
  5
1A6A3
330
190E4
100
AcDbEntity
  8
DEFPOINTS
 62
     0
 48
50.0
100
AcDbPoint
 10
11950.50894806608
 20
4377.359204196234
 30
0.0
  0
POINT
  5
1A6A4
330
190E4
100
AcDbEntity
  8
DEFPOINTS
 62
     0
 48
50.0
100
AcDbPoint
 10
11950.50894806608
 20
5006.130250561811
 30
0.0
  0
ENDBLK
  5
190EF
330
190E4
100
AcDbEntity
  8
0
 48
50.0
100
AcDbBlockEnd
  0
BLOCK
  5
190FB
330
190F0
100
AcDbEntity
  8
0
 48
50.0
100
AcDbBlockBegin
  2
*D33
 70
     1
 10
0.0
 20
0.0
 30
0.0
  3
*D33
  1

  0
LINE
  5
1A692
330
190F0
100
AcDbEntity
  8
寸法
 62
     0
 48
50.0
370
    -2
100
AcDbLine
 10
15060.50894806608
 20
4344.169883807885
 30
0.0
 11
15060.50894806608
 21
4836.016657775536
 31
0.0
  0
LINE
  5
1A693
330
190F0
100
AcDbEntity
  8
寸法
 62
     0
 48
50.0
370
    -2
100
AcDbLine
 10
15140.50894806608
 20
4342.359204196233
 30
0.0
 11
15140.50894806608
 21
4836.016657775536
 31
0.0
  0
LINE
  5
1A694
330
190F0
100
AcDbEntity
  8
寸法
 62
     0
 48
50.0
370
    -2
100
AcDbLine
 10
15060.50894806608
 20
4776.016657775535
 30
0.0
 11
15140.50894806608
 21
4776.016657775535
 31
0.0
  0
LINE
  5
1A695
330
190F0
100
AcDbEntity
  8
寸法
 62
     0
 48
50.0
370
    -2
100
AcDbLine
 10
15140.50894806608
 20
4776.016657775535
 30
0.0
 11
15452.60343625506
 21
4776.016657775535
 31
0.0
  0
INSERT
  5
1A696
330
190F0
100
AcDbEntity
  8
寸法
 62
     0
 48
50.0
370
    -2
100
AcDbBlockReference
  2
_DOTSMALL
 10
15060.50894806608
 20
4776.016657775535
 30
0.0
 41
100.0
 42
100.0
 43
100.0
 50
180.0
  0
INSERT
  5
1A697
330
190F0
100
AcDbEntity
  8
寸法
 62
     0
 48
50.0
370
    -2
100
AcDbBlockReference
  2
_DOTSMALL
 10
15140.50894806608
 20
4776.016657775535
 30
0.0
 41
100.0
 42
100.0
 43
100.0
  0
MTEXT
  5
1A698
330
190F0
100
AcDbEntity
  8
寸法
 62
     7
 48
50.0
100
AcDbMText
 10
15346.55619216057
 20
4876.016657775536
 30
0.0
 40
120.0
 41
0.0
 71
     5
 72
     1
  1
\A1;80
  7
STYLE1
 73
     1
 44
1.0
1001
ACAD
1000
MTEXTBEGIN
1070
    73
1070
     1
1070
    44
1040
1.0
1070
    74
1070
     0
1000
MTEXTEND
  0
POINT
  5
1A699
330
190F0
100
AcDbEntity
  8
DEFPOINTS
 62
     0
 48
50.0
100
AcDbPoint
 10
15060.50894806608
 20
4324.169883807885
 30
0.0
  0
POINT
  5
1A69A
330
190F0
100
AcDbEntity
  8
DEFPOINTS
 62
     0
 48
50.0
100
AcDbPoint
 10
15140.50894806608
 20
4322.359204196232
 30
0.0
  0
POINT
  5
1A69B
330
190F0
100
AcDbEntity
  8
DEFPOINTS
 62
     0
 48
50.0
100
AcDbPoint
 10
15140.50894806608
 20
4776.016657775535
 30
0.0
  0
ENDBLK
  5
190FC
330
190F0
100
AcDbEntity
  8
0
 48
50.0
100
AcDbBlockEnd
  0
BLOCK
  5
19108
330
190FD
100
AcDbEntity
  8
0
 48
50.0
100
AcDbBlockBegin
  2
*D34
 70
     1
 10
0.0
 20
0.0
 30
0.0
  3
*D34
  1

  0
LINE
  5
1A688
330
190FD
100
AcDbEntity
  8
寸法
 62
     0
 48
50.0
370
    -2
100
AcDbLine
 10
11949.91323435718
 20
4376.656911265892
 30
0.0
 11
11333.97879525188
 21
4394.371061540222
 31
0.0
  0
LINE
  5
1A689
330
190FD
100
AcDbEntity
  8
寸法
 62
     0
 48
50.0
370
    -2
100
AcDbLine
 10
11945.85977880056
 20
4235.715187500178
 30
0.0
 11
11329.92533969525
 21
4253.429337774508
 31
0.0
  0
LINE
  5
1A68A
330
190FD
100
AcDbEntity
  8
寸法
 62
     0
 48
50.0
370
    -2
100
AcDbLine
 10
11389.90054129769
 20
4251.704463069562
 30
0.0
 11
11393.95399685431
 21
4392.646186835274
 31
0.0
  0
LINE
  5
1A68B
330
190FD
100
AcDbEntity
  8
寸法
 62
     0
 48
50.0
370
    -2
100
AcDbLine
 10
11393.95399685431
 20
4392.646186835274
 30
0.0
 11
11404.303245084
 21
4752.497396449861
 31
0.0
  0
INSERT
  5
1A68C
330
190FD
100
AcDbEntity
  8
寸法
 62
     0
 48
50.0
370
    -2
100
AcDbBlockReference
  2
_DOTSMALL
 10
11389.90054129769
 20
4251.704463069562
 30
0.0
 41
100.0
 42
100.0
 43
100.0
 50
268.3526390256378
  0
INSERT
  5
1A68D
330
190FD
100
AcDbEntity
  8
寸法
 62
     0
 48
50.0
370
    -2
100
AcDbBlockReference
  2
_DOTSMALL
 10
11393.95399685431
 20
4392.646186835274
 30
0.0
 41
100.0
 42
100.0
 43
100.0
 50
88.35263902563776
  0
MTEXT
  5
1A68E
330
190FD
100
AcDbEntity
  8
寸法
 62
     7
 48
50.0
100
AcDbMText
 10
11300.60734721922
 20
4625.425917486174
 30
0.0
 40
120.0
 41
0.0
 71
     5
 72
     1
  1
\A1;141
  7
STYLE1
 11
0.0287479117491237
 21
0.9995866933738488
 31
0.0
 73
     1
 44
1.0
1001
ACAD
1000
MTEXTBEGIN
1070
    73
1070
     1
1070
    44
1040
1.0
1070
    74
1070
     0
1000
MTEXTEND
  0
POINT
  5
1A68F
330
190FD
100
AcDbEntity
  8
DEFPOINTS
 62
     0
 48
50.0
100
AcDbPoint
 10
11969.90496822466
 20
4376.081953030909
 30
0.0
  0
POINT
  5
1A690
330
190FD
100
AcDbEntity
  8
DEFPOINTS
 62
     0
 48
50.0
100
AcDbPoint
 10
11965.85151266803
 20
4235.140229265197
 30
0.0
  0
POINT
  5
1A691
330
190FD
100
AcDbEntity
  8
DEFPOINTS
 62
     0
 48
50.0
100
AcDbPoint
 10
11389.90054129769
 20
4251.704463069562
 30
0.0
  0
ENDBLK
  5
19109
330
190FD
100
AcDbEntity
  8
0
 48
50.0
100
AcDbBlockEnd
  0
BLOCK
  5
19CA3
330
19C97
100
AcDbEntity
  8
0
 48
50.0
100
AcDbBlockBegin
  2
*D35
 70
     1
 10
0.0
 20
0.0
 30
0.0
  3
*D35
  1

  0
LINE
  5
1A974
330
19C97
100
AcDbEntity
  8
寸法
 62
     0
 48
50.0
370
    -2
100
AcDbLine
 10
9369.673057123662
 20
4397.359204196233
 30
0.0
 11
9369.673057123662
 21
4843.085475928144
 31
0.0
  0
LINE
  5
1A975
330
19C97
100
AcDbEntity
  8
寸法
 62
     0
 48
50.0
370
    -2
100
AcDbLine
 10
9319.673057123665
 20
4397.359204196237
 30
0.0
 11
9319.673057123665
 21
4843.085475928144
 31
0.0
  0
LINE
  5
1A976
330
19C97
100
AcDbEntity
  8
寸法
 62
     0
 48
50.0
370
    -2
100
AcDbLine
 10
9319.673057123665
 20
4783.085475928143
 30
0.0
 11
9219.673057123666
 21
4783.085475928143
 31
0.0
  0
LINE
  5
1A977
330
19C97
100
AcDbEntity
  8
寸法
 62
     0
 48
50.0
370
    -2
100
AcDbLine
 10
9369.673057123662
 20
4783.085475928143
 30
0.0
 11
9789.205582592389
 21
4783.085475928143
 31
0.0
  0
LINE
  5
1A978
330
19C97
100
AcDbEntity
  8
寸法
 62
     0
 48
50.0
370
    -2
100
AcDbLine
 10
9319.673057123665
 20
4783.085475928143
 30
0.0
 11
9369.673057123662
 21
4783.085475928143
 31
0.0
  0
INSERT
  5
1A979
330
19C97
100
AcDbEntity
  8
寸法
 62
     0
 48
50.0
370
    -2
100
AcDbBlockReference
  2
_DOTSMALL
 10
9319.673057123665
 20
4783.085475928143
 30
0.0
 41
100.0
 42
100.0
 43
100.0
  0
INSERT
  5
1A97A
330
19C97
100
AcDbEntity
  8
寸法
 62
     0
 48
50.0
370
    -2
100
AcDbBlockReference
  2
_DOTSMALL
 10
9369.673057123662
 20
4783.085475928143
 30
0.0
 41
100.0
 42
100.0
 43
100.0
 50
180.0
  0
MTEXT
  5
1A97B
330
19C97
100
AcDbEntity
  8
寸法
 62
     7
 48
50.0
100
AcDbMText
 10
9683.158338497904
 20
4883.085475928144
 30
0.0
 40
120.0
 41
0.0
 71
     5
 72
     1
  1
\A1;50
  7
STYLE1
 73
     1
 44
1.0
1001
ACAD
1000
MTEXTBEGIN
1070
    73
1070
     1
1070
    44
1040
1.0
1070
    74
1070
     0
1000
MTEXTEND
  0
POINT
  5
1A97C
330
19C97
100
AcDbEntity
  8
DEFPOINTS
 62
     0
 48
50.0
100
AcDbPoint
 10
9369.673057123662
 20
4377.359204196234
 30
0.0
  0
POINT
  5
1A97D
330
19C97
100
AcDbEntity
  8
DEFPOINTS
 62
     0
 48
50.0
100
AcDbPoint
 10
9319.673057123665
 20
4377.359204196237
 30
0.0
  0
POINT
  5
1A97E
330
19C97
100
AcDbEntity
  8
DEFPOINTS
 62
     0
 48
50.0
100
AcDbPoint
 10
9319.673057123665
 20
4783.085475928143
 30
0.0
  0
ENDBLK
  5
19CA4
330
19C97
100
AcDbEntity
  8
0
 48
50.0
100
AcDbBlockEnd
  0
BLOCK
  5
19CB1
330
19CA5
100
AcDbEntity
  8
0
 48
50.0
100
AcDbBlockBegin
  2
*D36
 70
     1
 10
0.0
 20
0.0
 30
0.0
  3
*D36
  1

  0
LINE
  5
1A9AE
330
19CA5
100
AcDbEntity
  8
寸法
 62
     0
 48
50.0
370
    -2
100
AcDbLine
 10
1429.67305712366
 20
4397.359204196237
 30
0.0
 11
1429.67305712366
 21
4843.085475928139
 31
0.0
  0
LINE
  5
1A9AF
330
19CA5
100
AcDbEntity
  8
寸法
 62
     0
 48
50.0
370
    -2
100
AcDbLine
 10
1379.67305712366
 20
4397.359204196237
 30
0.0
 11
1379.67305712366
 21
4843.085475928139
 31
0.0
  0
LINE
  5
1A9B0
330
19CA5
100
AcDbEntity
  8
寸法
 62
     0
 48
50.0
370
    -2
100
AcDbLine
 10
1429.67305712366
 20
4783.085475928139
 30
0.0
 11
1529.67305712366
 21
4783.085475928139
 31
0.0
  0
LINE
  5
1A9B1
330
19CA5
100
AcDbEntity
  8
寸法
 62
     0
 48
50.0
370
    -2
100
AcDbLine
 10
1379.67305712366
 20
4783.085475928139
 30
0.0
 11
960.1405316549248
 21
4783.085475928139
 31
0.0
  0
LINE
  5
1A9B2
330
19CA5
100
AcDbEntity
  8
寸法
 62
     0
 48
50.0
370
    -2
100
AcDbLine
 10
1429.67305712366
 20
4783.085475928139
 30
0.0
 11
1379.67305712366
 21
4783.085475928139
 31
0.0
  0
INSERT
  5
1A9B3
330
19CA5
100
AcDbEntity
  8
寸法
 62
     0
 48
50.0
370
    -2
100
AcDbBlockReference
  2
_DOTSMALL
 10
1429.67305712366
 20
4783.085475928139
 30
0.0
 41
100.0
 42
100.0
 43
100.0
 50
180.0
  0
INSERT
  5
1A9B4
330
19CA5
100
AcDbEntity
  8
寸法
 62
     0
 48
50.0
370
    -2
100
AcDbBlockReference
  2
_DOTSMALL
 10
1379.67305712366
 20
4783.085475928139
 30
0.0
 41
100.0
 42
100.0
 43
100.0
  0
MTEXT
  5
1A9B5
330
19CA5
100
AcDbEntity
  8
寸法
 62
     7
 48
50.0
100
AcDbMText
 10
1066.187775749413
 20
4883.085475928139
 30
0.0
 40
120.0
 41
0.0
 71
     5
 72
     1
  1
\A1;50
  7
STYLE1
 73
     1
 44
1.0
1001
ACAD
1000
MTEXTBEGIN
1070
    73
1070
     1
1070
    44
1040
1.0
1070
    74
1070
     0
1000
MTEXTEND
  0
POINT
  5
1A9B6
330
19CA5
100
AcDbEntity
  8
DEFPOINTS
 62
     0
 48
50.0
100
AcDbPoint
 10
1429.67305712366
 20
4377.359204196237
 30
0.0
  0
POINT
  5
1A9B7
330
19CA5
100
AcDbEntity
  8
DEFPOINTS
 62
     0
 48
50.0
100
AcDbPoint
 10
1379.67305712366
 20
4377.359204196237
 30
0.0
  0
POINT
  5
1A9B8
330
19CA5
100
AcDbEntity
  8
DEFPOINTS
 62
     0
 48
50.0
100
AcDbPoint
 10
1379.67305712366
 20
4783.085475928139
 30
0.0
  0
ENDBLK
  5
19CB2
330
19CA5
100
AcDbEntity
  8
0
 48
50.0
100
AcDbBlockEnd
  0
BLOCK
  5
19CBD
330
19CB3
100
AcDbEntity
  8
0
 48
50.0
100
AcDbBlockBegin
  2
*D37
 70
     1
 10
0.0
 20
0.0
 30
0.0
  3
*D37
  1

  0
LINE
  5
1AA91
330
19CB3
100
AcDbEntity
  8
寸法
 62
     0
 48
50.0
370
    -2
100
AcDbLine
 10
1379.67305712366
 20
4397.359204196234
 30
0.0
 11
1379.67305712366
 21
5042.994397142229
 31
0.0
  0
LINE
  5
1AA92
330
19CB3
100
AcDbEntity
  8
寸法
 62
     0
 48
50.0
370
    -2
100
AcDbLine
 10
9369.673057123662
 20
4397.359204196233
 30
0.0
 11
9369.673057123662
 21
5042.994397142229
 31
0.0
  0
LINE
  5
1AA93
330
19CB3
100
AcDbEntity
  8
寸法
 62
     0
 48
50.0
370
    -2
100
AcDbLine
 10
1379.67305712366
 20
4982.994397142229
 30
0.0
 11
9369.673057123662
 21
4982.994397142229
 31
0.0
  0
INSERT
  5
1AA94
330
19CB3
100
AcDbEntity
  8
寸法
 62
     0
 48
50.0
370
    -2
100
AcDbBlockReference
  2
_DOTSMALL
 10
1379.67305712366
 20
4982.994397142229
 30
0.0
 41
100.0
 42
100.0
 43
100.0
 50
180.0
  0
INSERT
  5
1AA95
330
19CB3
100
AcDbEntity
  8
寸法
 62
     0
 48
50.0
370
    -2
100
AcDbBlockReference
  2
_DOTSMALL
 10
9369.673057123662
 20
4982.994397142229
 30
0.0
 41
100.0
 42
100.0
 43
100.0
  0
MTEXT
  5
1AA96
330
19CB3
100
AcDbEntity
  8
寸法
 62
     7
 48
50.0
100
AcDbMText
 10
5374.67305712366
 20
5083.006208165851
 30
0.0
 40
120.0
 41
0.0
 71
     5
 72
     1
  1
\A1;N X 2630+100
  7
STYLE1
 73
     1
 44
1.0
1001
ACAD
1000
MTEXTBEGIN
1070
    73
1070
     1
1070
    44
1040
1.0
1070
    74
1070
     0
1000
MTEXTEND
  0
POINT
  5
1AA97
330
19CB3
100
AcDbEntity
  8
DEFPOINTS
 62
     0
 48
50.0
100
AcDbPoint
 10
1379.67305712366
 20
4377.359204196234
 30
0.0
  0
POINT
  5
1AA98
330
19CB3
100
AcDbEntity
  8
DEFPOINTS
 62
     0
 48
50.0
100
AcDbPoint
 10
9369.673057123662
 20
4377.359204196234
 30
0.0
  0
POINT
  5
1AA99
330
19CB3
100
AcDbEntity
  8
DEFPOINTS
 62
     0
 48
50.0
100
AcDbPoint
 10
9369.673057123662
 20
4982.994397142229
 30
0.0
  0
ENDBLK
  5
19CBE
330
19CB3
100
AcDbEntity
  8
0
 48
50.0
100
AcDbBlockEnd
  0
BLOCK
  5
19CC9
330
19CBF
100
AcDbEntity
  8
0
 48
50.0
100
AcDbBlockBegin
  2
*D38
 70
     1
 10
0.0
 20
0.0
 30
0.0
  3
*D38
  1

  0
LINE
  5
1AA9A
330
19CBF
100
AcDbEntity
  8
寸法
 62
     0
 48
50.0
370
    -2
100
AcDbLine
 10
9319.673057123665
 20
4397.359204196237
 30
0.0
 11
9319.673057123665
 21
4843.085475928139
 31
0.0
  0
LINE
  5
1AA9B
330
19CBF
100
AcDbEntity
  8
寸法
 62
     0
 48
50.0
370
    -2
100
AcDbLine
 10
1429.67305712366
 20
4397.359204196235
 30
0.0
 11
1429.67305712366
 21
4843.085475928139
 31
0.0
  0
LINE
  5
1AA9C
330
19CBF
100
AcDbEntity
  8
寸法
 62
     0
 48
50.0
370
    -2
100
AcDbLine
 10
9319.673057123665
 20
4783.085475928139
 30
0.0
 11
1429.67305712366
 21
4783.085475928139
 31
0.0
  0
INSERT
  5
1AA9D
330
19CBF
100
AcDbEntity
  8
寸法
 62
     0
 48
50.0
370
    -2
100
AcDbBlockReference
  2
_DOTSMALL
 10
9319.673057123665
 20
4783.085475928139
 30
0.0
 41
100.0
 42
100.0
 43
100.0
  0
INSERT
  5
1AA9E
330
19CBF
100
AcDbEntity
  8
寸法
 62
     0
 48
50.0
370
    -2
100
AcDbBlockReference
  2
_DOTSMALL
 10
1429.67305712366
 20
4783.085475928139
 30
0.0
 41
100.0
 42
100.0
 43
100.0
 50
180.0
  0
MTEXT
  5
1AA9F
330
19CBF
100
AcDbEntity
  8
寸法
 62
     7
 48
50.0
100
AcDbMText
 10
5374.673057123663
 20
4883.097286951761
 30
0.0
 40
120.0
 41
0.0
 71
     5
 72
     1
  1
\A1;柱外寸法 N X 2630
  7
STYLE1
 73
     1
 44
1.0
1001
ACAD
1000
MTEXTBEGIN
1070
    73
1070
     1
1070
    44
1040
1.0
1070
    74
1070
     0
1000
MTEXTEND
  0
POINT
  5
1AAA0
330
19CBF
100
AcDbEntity
  8
DEFPOINTS
 62
     0
 48
50.0
100
AcDbPoint
 10
9319.673057123665
 20
4377.359204196237
 30
0.0
  0
POINT
  5
1AAA1
330
19CBF
100
AcDbEntity
  8
DEFPOINTS
 62
     0
 48
50.0
100
AcDbPoint
 10
1429.67305712366
 20
4377.359204196236
 30
0.0
  0
POINT
  5
1AAA2
330
19CBF
100
AcDbEntity
  8
DEFPOINTS
 62
     0
 48
50.0
100
AcDbPoint
 10
1429.67305712366
 20
4783.085475928139
 30
0.0
  0
ENDBLK
  5
19CCA
330
19CBF
100
AcDbEntity
  8
0
 48
50.0
100
AcDbBlockEnd
  0
BLOCK
  5
1A314
330
1A309
100
AcDbEntity
  8
0
 48
50.0
100
AcDbBlockBegin
  2
*D39
 70
     1
 10
0.0
 20
0.0
 30
0.0
  3
*D39
  1

  0
LINE
  5
1AAEF
330
1A309
100
AcDbEntity
  8
寸法
 62
     0
 48
50.0
370
    -2
100
AcDbLine
 10
9339.673057123659
 20
3977.359204196231
 30
0.0
 11
9667.216159445409
 21
3977.359204196231
 31
0.0
  0
LINE
  5
1AAF0
330
1A309
100
AcDbEntity
  8
寸法
 62
     0
 48
50.0
370
    -2
100
AcDbLine
 10
9339.673057123661
 20
4142.359204196229
 30
0.0
 11
9667.216159445411
 21
4142.359204196229
 31
0.0
  0
LINE
  5
1AAF1
330
1A309
100
AcDbEntity
  8
寸法
 62
     0
 48
50.0
370
    -2
100
AcDbLine
 10
9607.216159445409
 20
3977.359204196231
 30
0.0
 11
9607.21615944541
 21
4142.359204196229
 31
0.0
  0
LINE
  5
1AAF2
330
1A309
100
AcDbEntity
  8
寸法
 62
     0
 48
50.0
370
    -2
100
AcDbLine
 10
9607.21615944541
 20
4142.359204196229
 30
0.0
 11
9607.21615944541
 21
4519.329766944706
 31
0.0
  0
INSERT
  5
1AAF3
330
1A309
100
AcDbEntity
  8
寸法
 62
     0
 48
50.0
370
    -2
100
AcDbBlockReference
  2
_DOTSMALL
 10
9607.216159445409
 20
3977.359204196231
 30
0.0
 41
100.0
 42
100.0
 43
100.0
 50
270.0
  0
INSERT
  5
1AAF4
330
1A309
100
AcDbEntity
  8
寸法
 62
     0
 48
50.0
370
    -2
100
AcDbBlockReference
  2
_DOTSMALL
 10
9607.21615944541
 20
4142.359204196229
 30
0.0
 41
100.0
 42
100.0
 43
100.0
 50
90.0
  0
MTEXT
  5
1AAF5
330
1A309
100
AcDbEntity
  8
寸法
 62
     7
 48
50.0
100
AcDbMText
 10
9507.216159445409
 20
4380.844485570468
 30
0.0
 40
120.0
 41
0.0
 71
     5
 72
     1
  1
\A1;165
  7
STYLE1
 11
0.0000000000000001
 21
1.0
 31
0.0
 73
     1
 44
1.0
1001
ACAD
1000
MTEXTBEGIN
1070
    73
1070
     1
1070
    44
1040
1.0
1070
    74
1070
     0
1000
MTEXTEND
  0
POINT
  5
1AAF6
330
1A309
100
AcDbEntity
  8
DEFPOINTS
 62
     0
 48
50.0
100
AcDbPoint
 10
9319.67305712366
 20
3977.359204196231
 30
0.0
  0
POINT
  5
1AAF7
330
1A309
100
AcDbEntity
  8
DEFPOINTS
 62
     0
 48
50.0
100
AcDbPoint
 10
9319.673057123663
 20
4142.359204196229
 30
0.0
  0
POINT
  5
1AAF8
330
1A309
100
AcDbEntity
  8
DEFPOINTS
 62
     0
 48
50.0
100
AcDbPoint
 10
9607.21615944541
 20
4142.359204196229
 30
0.0
  0
ENDBLK
  5
1A315
330
1A309
100
AcDbEntity
  8
0
 48
50.0
100
AcDbBlockEnd
  0
BLOCK
  5
1A322
330
1A316
100
AcDbEntity
  8
0
 48
50.0
100
AcDbBlockBegin
  2
*D40
 70
     1
 10
0.0
 20
0.0
 30
0.0
  3
*D40
  1

  0
LINE
  5
1AAE4
330
1A316
100
AcDbEntity
  8
寸法
 62
     0
 48
50.0
370
    -2
100
AcDbLine
 10
9339.673057123661
 20
3950.359204196229
 30
0.0
 11
9667.216159445409
 21
3950.359204196229
 31
0.0
  0
LINE
  5
1AAE5
330
1A316
100
AcDbEntity
  8
寸法
 62
     0
 48
50.0
370
    -2
100
AcDbLine
 10
9339.673057123659
 20
3977.359204196231
 30
0.0
 11
9667.216159445409
 21
3977.359204196231
 31
0.0
  0
LINE
  5
1AAE6
330
1A316
100
AcDbEntity
  8
寸法
 62
     0
 48
50.0
370
    -2
100
AcDbLine
 10
9607.216159445409
 20
3950.359204196229
 30
0.0
 11
9607.216159445409
 21
3850.359204196229
 31
0.0
  0
LINE
  5
1AAE7
330
1A316
100
AcDbEntity
  8
寸法
 62
     0
 48
50.0
370
    -2
100
AcDbLine
 10
9607.216159445409
 20
3977.359204196231
 30
0.0
 11
9607.216159445409
 21
4077.35920419623
 31
0.0
  0
MTEXT
  5
1AAE8
330
1A316
100
AcDbEntity
  8
寸法
 62
     7
 48
50.0
100
AcDbMText
 10
9747.385982691774
 20
3978.326404035888
 30
0.0
 40
120.0
 41
0.0
 71
     5
 72
     1
  1
\A1;27
  7
STYLE1
 11
0.0000000000000001
 21
1.0
 31
0.0
 73
     1
 44
1.0
1001
ACAD
1000
MTEXTBEGIN
1070
    73
1070
     1
1070
    44
1040
1.0
1070
    74
1070
     0
1000
MTEXTEND
  0
LINE
  5
1AAE9
330
1A316
100
AcDbEntity
  8
寸法
 62
     0
 48
50.0
370
    -2
100
AcDbLine
 10
9607.216159445409
 20
3950.359204196229
 30
0.0
 11
9607.216159445409
 21
3977.359204196231
 31
0.0
  0
INSERT
  5
1AAEA
330
1A316
100
AcDbEntity
  8
寸法
 62
     0
 48
50.0
370
    -2
100
AcDbBlockReference
  2
_DOTSMALL
 10
9607.216159445409
 20
3950.359204196229
 30
0.0
 41
100.0
 42
100.0
 43
100.0
 50
90.0
  0
INSERT
  5
1AAEB
330
1A316
100
AcDbEntity
  8
寸法
 62
     0
 48
50.0
370
    -2
100
AcDbBlockReference
  2
_DOTSMALL
 10
9607.216159445409
 20
3977.359204196231
 30
0.0
 41
100.0
 42
100.0
 43
100.0
 50
270.0
  0
POINT
  5
1AAEC
330
1A316
100
AcDbEntity
  8
DEFPOINTS
 62
     0
 48
50.0
100
AcDbPoint
 10
9319.673057123663
 20
3950.359204196229
 30
0.0
  0
POINT
  5
1AAED
330
1A316
100
AcDbEntity
  8
DEFPOINTS
 62
     0
 48
50.0
100
AcDbPoint
 10
9319.67305712366
 20
3977.359204196231
 30
0.0
  0
POINT
  5
1AAEE
330
1A316
100
AcDbEntity
  8
DEFPOINTS
 62
     0
 48
50.0
100
AcDbPoint
 10
9607.216159445409
 20
3977.359204196231
 30
0.0
  0
ENDBLK
  5
1A323
330
1A316
100
AcDbEntity
  8
0
 48
50.0
100
AcDbBlockEnd
  0
BLOCK
  5
1A32E
330
1A324
100
AcDbEntity
  8
0
 48
50.0
100
AcDbBlockBegin
  2
*D41
 70
     1
 10
0.0
 20
0.0
 30
0.0
  3
*D41
  1

  0
LINE
  5
1A944
330
1A324
100
AcDbEntity
  8
寸法
 62
     0
 48
50.0
370
    -2
100
AcDbLine
 10
9339.673057123661
 20
2302.359204196229
 30
0.0
 11
9667.216159445409
 21
2302.359204196229
 31
0.0
  0
LINE
  5
1A945
330
1A324
100
AcDbEntity
  8
寸法
 62
     0
 48
50.0
370
    -2
100
AcDbLine
 10
9339.673057123661
 20
3950.359204196229
 30
0.0
 11
9667.216159445409
 21
3950.359204196229
 31
0.0
  0
LINE
  5
1A946
330
1A324
100
AcDbEntity
  8
寸法
 62
     0
 48
50.0
370
    -2
100
AcDbLine
 10
9607.216159445409
 20
2302.359204196229
 30
0.0
 11
9607.216159445409
 21
3950.359204196229
 31
0.0
  0
INSERT
  5
1A947
330
1A324
100
AcDbEntity
  8
寸法
 62
     0
 48
50.0
370
    -2
100
AcDbBlockReference
  2
_DOTSMALL
 10
9607.216159445409
 20
2302.359204196229
 30
0.0
 41
100.0
 42
100.0
 43
100.0
 50
270.0
  0
INSERT
  5
1A948
330
1A324
100
AcDbEntity
  8
寸法
 62
     0
 48
50.0
370
    -2
100
AcDbBlockReference
  2
_DOTSMALL
 10
9607.216159445409
 20
3950.359204196229
 30
0.0
 41
100.0
 42
100.0
 43
100.0
 50
90.0
  0
MTEXT
  5
1A949
330
1A324
100
AcDbEntity
  8
寸法
 62
     7
 48
50.0
100
AcDbMText
 10
9507.216159445409
 20
3126.359204196231
 30
0.0
 40
120.0
 41
0.0
 71
     5
 72
     1
  1
\A1;有効開口部高サ 1648
  7
STYLE1
 11
0.0000000000000001
 21
1.0
 31
0.0
 73
     1
 44
1.0
1001
ACAD
1000
MTEXTBEGIN
1070
    73
1070
     1
1070
    44
1040
1.0
1070
    74
1070
     0
1000
MTEXTEND
  0
POINT
  5
1A94A
330
1A324
100
AcDbEntity
  8
DEFPOINTS
 62
     0
 48
50.0
100
AcDbPoint
 10
9319.673057123663
 20
2302.359204196229
 30
0.0
  0
POINT
  5
1A94B
330
1A324
100
AcDbEntity
  8
DEFPOINTS
 62
     0
 48
50.0
100
AcDbPoint
 10
9319.673057123663
 20
3950.359204196229
 30
0.0
  0
POINT
  5
1A94C
330
1A324
100
AcDbEntity
  8
DEFPOINTS
 62
     0
 48
50.0
100
AcDbPoint
 10
9607.216159445409
 20
3950.359204196229
 30
0.0
  0
ENDBLK
  5
1A32F
330
1A324
100
AcDbEntity
  8
0
 48
50.0
100
AcDbBlockEnd
  0
BLOCK
  5
1A5E3
330
1A5E0
100
AcDbEntity
  8
0
 48
50.0
100
AcDbBlockBegin
  2
A$C000C328B
 70
     0
 10
0.0
 20
0.0
 30
0.0
  3
A$C000C328B
  1

  0
LINE
  5
1A5E1
330
1A5E0
100
AcDbEntity
  8
部品1
 48
50.0
100
AcDbLine
 10
432.9352777436733
 20
1615.736452928082
 30
0.0
 11
-355.2895642128551
 21
-1325.958705041378
 31
0.0
  0
SPLINE
  5
1A5E2
330
1A5E0
100
AcDbEntity
  8
部品1
 48
50.0
100
AcDbSpline
210
0.0
220
0.0
230
1.0
 70
     8
 71
     3
 72
    10
 73
     6
 74
     4
 42
0.0000000001
 43
0.0000000001
 44
0.0000000001
 40
0.0
 40
0.0
 40
0.0
 40
0.0
 40
147.8767566010009
 40
301.8091093202477
 40
466.5049223087734
 40
466.5049223087734
 40
466.5049223087734
 40
466.5049223087734
 10
67.57032773305127
 20
81.24115252579304
 30
0.0
 10
-9.311354761783512
 20
72.33671886795507
 30
0.0
 10
-166.2230469719107
 20
54.16321240862338
 30
0.0
 10
156.5903629724318
 20
-48.35737223072001
 30
0.0
 10
-13.25225669694147
 20
-66.99246094292316
 30
0.0
 10
-101.0422619038354
 20
-76.62475782023193
 30
0.0
 11
67.57032773305127
 21
81.24115252579304
 31
0.0
 11
-75.26765057571811
 21
42.96783158946436
 31
0.0
 11
58.04167734345629
 21
-33.99834477015884
 31
0.0
 11
-101.0422619038354
 21
-76.62475782023193
 31
0.0
  0
ENDBLK
  5
1A5E4
330
1A5E0
100
AcDbEntity
  8
0
 48
50.0
100
AcDbBlockEnd
  0
ENDSEC
  0
SECTION
  2
ENTITIES
  0
MTEXT
  5
763F
330
747D
100
AcDbEntity
  8
0
100
AcDbMText
 10
302.846345836809
 20
280.1983726409901
 30
0.0
 40
3.5
 41
5.323721266742722
 71
     1
 72
     5
  1

  7
MSMINCHO
 73
     1
 44
1.0
1001
ACAD
1000
MTEXTBEGIN
1070
    73
1070
     1
1070
    44
1040
1.0
1070
    74
1070
     0
1000
MTEXTEND
  0
LINE
  5
10B57
330
747D
100
AcDbEntity
  8
補助
  6
PHANTOM
 62
   230
 48
50.0
100
AcDbLine
 10
139.9999999999995
 20
11409.6
 30
0.0
 11
16307.2
 21
11409.6
 31
0.0
  0
LINE
  5
10B59
330
747D
100
AcDbEntity
  8
仕様書枠
  6
Continuous
 48
50.0
100
AcDbLine
 10
13107.2
 20
1200.0
 30
0.0
 11
13107.2
 21
-0.0000000000000729
 31
0.0
  0
LINE
  5
10B5C
330
747D
100
AcDbEntity
  8
仕様書枠
 48
50.0
100
AcDbLine
 10
16307.2
 20
1200.0
 30
0.0
 11
16307.2
 21
-0.0000000000000909
 31
0.0
  0
LINE
  5
10B5D
330
747D
100
AcDbEntity
  8
仕様書枠
 48
50.0
100
AcDbLine
 10
140.0
 20
0.0
 30
0.0
 11
16307.2
 21
-0.0000000000000909
 31
0.0
  0
LINE
  5
10B5E
330
747D
100
AcDbEntity
  8
補助
  6
PHANTOM
 62
   230
 48
50.0
100
AcDbLine
 10
16307.2
 20
11409.6
 30
0.0
 11
16307.2
 21
1200.0
 31
0.0
  0
LINE
  5
10B6C
330
747D
100
AcDbEntity
  8
仕様書枠
 48
50.0
100
AcDbLine
 10
13107.2
 20
1200.0
 30
0.0
 11
16307.2
 21
1200.0
 31
0.0
  0
LINE
  5
10B6D
330
747D
100
AcDbEntity
  8
補助
  6
PHANTOM
 62
   230
 48
50.0
100
AcDbLine
 10
13107.2
 20
11409.6
 30
0.0
 11
13107.2
 21
4800.0
 31
0.0
  0
LINE
  5
10B6F
330
747D
100
AcDbEntity
  8
補助
  6
PHANTOM
 62
   230
 48
50.0
100
AcDbLine
 10
13107.2
 20
4800.0
 30
0.0
 11
16307.2
 21
4800.0
 31
0.0
  0
LINE
  5
10B72
330
747D
100
AcDbEntity
  8
文字
 62
     7
 48
50.0
100
AcDbLine
 10
13187.2
 20
400.0
 30
0.0
 11
16227.2
 21
400.0
 31
0.0
  0
TEXT
  5
10B73
330
747D
100
AcDbEntity
  8
文字
 62
     7
 48
50.0
100
AcDbText
 10
13162.9790565769
 20
895.0906074299405
 30
0.0
 40
200.0
  1
外 形 図
  7
STYLE2
100
AcDbText
  0
TEXT
  5
10B74
330
747D
100
AcDbEntity
  8
文字
 62
     7
 48
50.0
100
AcDbText
 10
13201.43669998441
 20
477.2740661031255
 30
0.0
 40
160.0
  1
機種名
  7
STYLE2
100
AcDbText
  0
TEXT
  5
10B75
330
747D
100
AcDbEntity
  8
文字
 62
     7
 48
50.0
100
AcDbText
 10
13209.4053442172
 20
228.5435242569016
 30
0.0
 40
100.0
  1
○有効開口寸法 ： 2424×1648(mm)
  7
STYLE2
100
AcDbText
  0
TEXT
  5
10B76
330
747D
100
AcDbEntity
  8
文字
 62
     7
 48
50.0
100
AcDbText
 10
13209.4053442172
 20
76.09434707649343
 30
0.0
 40
100.0
  1
○床面積 ： Ｎ［連続数］×8.02㎡(2.43坪)
  7
STYLE2
100
AcDbText
  0
TEXT
  5
10B79
330
747D
100
AcDbEntity
  8
文字
 62
     7
 48
50.0
100
AcDbText
 10
14524.131837222
 20
1031.557706291228
 30
0.0
 40
100.0
  1
NO.51      <縮尺> S=1/40
  7
STYLE2
100
AcDbText
  0
LINE
  5
10B7B
330
747D
100
AcDbEntity
  8
仕様書枠
 48
50.0
100
AcDbLine
 10
13107.2
 20
800.0
 30
0.0
 11
14251.2
 21
800.0
 31
0.0
  0
LINE
  5
10B88
330
747D
100
AcDbEntity
  8
仕様書枠
  6
Continuous
 48
50.0
100
AcDbLine
 10
14251.2
 20
1200.0
 30
0.0
 11
14251.2
 21
800.0
 31
0.0
  0
LINE
  5
127A8
330
747D
100
AcDbEntity
  8
部品1
100
AcDbLine
 10
377.2443482244744
 20
2332.263014763894
 30
0.0
 11
527.2443482244743
 21
2332.263014763894
 31
0.0
  0
LINE
  5
127A9
330
747D
100
AcDbEntity
  8
部品1
100
AcDbLine
 10
452.2443482244743
 20
2202.359204196229
 30
0.0
 11
377.2443482244744
 21
2332.263014763894
 31
0.0
  0
TEXT
  5
127AA
330
747D
100
AcDbEntity
  8
部品1
100
AcDbText
 10
555.3492903492479
 20
2238.466107802131
 30
0.0
 40
125.0
  1
G.L
  7
MSGOTHIC
100
AcDbText
  0
LINE
  5
127AB
330
747D
100
AcDbEntity
  8
部品1
100
AcDbLine
 10
527.2443482244743
 20
2332.263014763894
 30
0.0
 11
452.2443482244743
 21
2202.359204196229
 31
0.0
  0
TEXT
  5
14E88
330
747D
100
AcDbEntity
  8
部品1
100
AcDbText
 10
5082.857333838481
 20
5902.378858851012
 30
0.0
 40
135.0
  1
平面図
  7
MSGOTHIC
100
AcDbText
  0
LWPOLYLINE
  5
14E89
330
747D
100
AcDbEntity
  8
部品1
100
AcDbPolyline
 90
        4
 70
     1
 43
0.0
 10
4992.937724009443
 20
6095.272388069536
 10
4992.937724009443
 20
5855.380066524003
 10
5756.408390237883
 20
5855.380066524003
 10
5756.408390237883
 20
6095.272388069536
  0
TEXT
  5
15550
330
747D
100
AcDbEntity
  8
文字
 62
     7
 48
50.0
100
AcDbText
 10
14772.26530907216
 20
871.9640646083623
 30
0.0
 40
100.0
  1
～一般型・多雪地型～
  7
STYLE2
100
AcDbText
  0
DIMENSION
  5
162CD
330
747D
100
AcDbEntity
  8
寸法
100
AcDbDimension
  2
*D1
 10
9967.099402858071
 20
7297.497424545952
 30
0.0
 11
9867.087591834447
 21
8767.497424545963
 31
0.0
 70
    32
  1
7X420=<>
 71
     5
 42
2940.000000000015
  3
INABA_S40G
100
AcDbAlignedDimension
 13
9319.673057123663
 23
10237.49742454596
 33
0.0
 14
9319.673057123639
 24
7297.497424545952
 34
0.0
 50
90.0
100
AcDbRotatedDimension
1001
ACAD
1000
DSTYLE
1002
{
1002
}
  0
DIMENSION
  5
162CE
330
747D
100
AcDbEntity
  8
寸法
100
AcDbDimension
  2
*D2
 10
9967.09940285805
 20
7242.497424545956
 30
0.0
 11
9967.099402858048
 21
6864.635957641095
 31
0.0
 70
   160
 71
     5
 42
54.99999999999636
  3
INABA_S40G
100
AcDbAlignedDimension
 13
9319.673057123639
 23
7297.497424545952
 33
0.0
 14
9319.673057123639
 24
7242.497424545956
 34
0.0
 50
90.0
100
AcDbRotatedDimension
1001
ACAD
1000
DSTYLE
1002
{
1002
}
  0
DIMENSION
  5
162CF
330
747D
100
AcDbEntity
  8
寸法
100
AcDbDimension
  2
*D3
 10
9967.099402858075
 20
10237.49742454596
 30
0.0
 11
9967.099402858075
 21
10600.9827059202
 31
0.0
 70
   160
 71
     5
 42
54.99999999999636
  3
INABA_S40G
100
AcDbAlignedDimension
 13
9319.673057123663
 23
10292.49742454596
 33
0.0
 14
9319.673057123663
 24
10237.49742454596
 34
0.0
 50
90.0
100
AcDbRotatedDimension
1001
ACAD
1000
DSTYLE
1002
{
1002
}
  0
DIMENSION
  5
162D0
330
747D
100
AcDbEntity
  8
寸法
100
AcDbDimension
  2
*D4
 10
10332.20634459771
 20
7242.497424545955
 30
0.0
 11
10232.2063445977
 21
8767.497424545963
 31
0.0
 70
    32
 71
     5
 42
3050.000000000008
  3
INABA_S40G
100
AcDbAlignedDimension
 13
9319.673057123663
 23
10292.49742454596
 33
0.0
 14
9319.673057123639
 24
7242.497424545956
 34
0.0
 50
90.0
100
AcDbRotatedDimension
1001
ACAD
1000
DSTYLE
1002
{
1002
}
  0
LINE
  5
162DC
330
747D
100
AcDbEntity
  8
部品1
100
AcDbLine
 10
9291.673057123647
 20
10264.49742454596
 30
0.0
 11
9291.67305712364
 21
7297.497424545952
 31
0.0
  0
LINE
  5
162DD
330
747D
100
AcDbEntity
  8
部品1
100
AcDbLine
 10
1457.673057123638
 20
7297.497424545821
 30
0.0
 11
1457.673057123649
 21
10264.49742454587
 31
0.0
  0
LINE
  5
162DE
330
747D
100
AcDbEntity
  8
部品1
100
AcDbLine
 10
9319.673057123663
 20
10292.49742454596
 30
0.0
 11
9319.673057123639
 21
7242.497424545956
 31
0.0
  0
LINE
  5
162DF
330
747D
100
AcDbEntity
  8
部品1
100
AcDbLine
 10
1429.673057123628
 20
10292.49742454583
 30
0.0
 11
1429.673057123657
 21
7242.497424545826
 31
0.0
  0
DIMENSION
  5
162E4
330
747D
100
AcDbEntity
  8
寸法
 48
50.0
100
AcDbDimension
  2
*D5
 10
6792.673057123656
 20
6708.0666537797
 30
0.0
 11
8004.673057123648
 21
6808.078464803323
 31
0.0
 70
    32
  1
有効開口部間口 <>
 71
     5
 42
2423.999999999982
  3
INABA_S40G
100
AcDbAlignedDimension
 13
9216.673057123639
 23
7268.497424545865
 33
0.0
 14
6792.673057123656
 24
7268.497424545865
 34
0.0
100
AcDbRotatedDimension
1001
ACAD
1000
DSTYLE
1002
{
1070
    75
1070
     1
1070
   279
1070
     2
1002
}
  0
LINE
  5
162E6
330
747D
100
AcDbEntity
  8
部品1
 48
50.0
100
AcDbLine
 10
6756.673057123656
 20
7287.997424545864
 30
0.0
 11
9252.67305712364
 21
7287.997424545864
 31
0.0
  0
DIMENSION
  5
162E7
330
747D
100
AcDbEntity
  8
寸法
100
AcDbDimension
  2
*D6
 10
9319.673057123628
 20
6261.893658188826
 30
0.0
 11
5374.673057123642
 21
6361.905469212448
 31
0.0
 70
    32
  1
N X 2630
 71
     5
 42
7889.999999999971
  3
INABA_S40G
100
AcDbAlignedDimension
 13
1429.673057123657
 23
7242.497424545861
 33
0.0
 14
9319.673057123628
 24
7242.497424545956
 34
0.0
100
AcDbRotatedDimension
1001
ACAD
1000
DSTYLE
1002
{
1002
}
  0
LINE
  5
162E8
330
747D
100
AcDbEntity
  8
部品1
100
AcDbLine
 10
1484.673057123634
 20
10237.49742454588
 30
0.0
 11
1484.673057123656
 21
7307.497424545863
 31
0.0
  0
LINE
  5
162E9
330
747D
100
AcDbEntity
  8
部品1
100
AcDbLine
 10
1509.673057123635
 20
10237.49742454588
 30
0.0
 11
1509.673057123656
 21
7307.497424545863
 31
0.0
  0
DIMENSION
  5
162EA
330
747D
100
AcDbEntity
  8
寸法
 48
50.0
100
AcDbDimension
  2
*D7
 10
1429.673057123657
 20
6708.0666537797
 30
0.0
 11
1121.187775749418
 21
6708.0666537797
 31
0.0
 70
   160
 71
     5
 42
54.99999999999636
  3
INABA_S40G
100
AcDbAlignedDimension
 13
1484.673057123653
 23
7242.497424545864
 33
0.0
 14
1429.673057123657
 24
7242.497424545861
 34
0.0
100
AcDbRotatedDimension
1001
ACAD
1000
DSTYLE
1002
{
1002
}
  0
DIMENSION
  5
162EB
330
747D
100
AcDbEntity
  8
寸法
 48
50.0
100
AcDbDimension
  2
*D8
 10
6744.673057123653
 20
6708.0666537797
 30
0.0
 11
6905.575028123713
 21
6808.0666537797
 31
0.0
 70
   160
 71
     5
 42
48.00000000000363
  3
INABA_S40G
100
AcDbAlignedDimension
 13
6792.673057123656
 23
7268.497424545865
 33
0.0
 14
6744.673057123653
 24
7242.497424545864
 34
0.0
100
AcDbRotatedDimension
1001
ACAD
1000
DSTYLE
1002
{
1070
   279
1070
     2
1002
}
  0
LINE
  5
162EC
330
747D
100
AcDbEntity
  8
部品1
100
AcDbLine
 10
1484.673057123652
 20
7242.497424545864
 30
0.0
 11
1429.673057123657
 21
7242.497424545861
 31
0.0
  0
LINE
  5
162ED
330
747D
100
AcDbEntity
  8
部品1
 48
50.0
100
AcDbLine
 10
1484.673057123657
 20
7278.497424545864
 30
0.0
 11
1461.673057123657
 21
7278.497424545864
 31
0.0
  0
LINE
  5
162EE
330
747D
100
AcDbEntity
  8
部品1
 48
50.0
100
AcDbLine
 10
1494.673057123657
 20
7268.497424545865
 30
0.0
 11
1484.673057123657
 21
7247.497424545864
 31
0.0
  0
LINE
  5
162EF
330
747D
100
AcDbEntity
  8
部品1
 48
50.0
100
AcDbLine
 10
1484.673057123657
 20
7307.497424545863
 30
0.0
 11
1484.673057123653
 21
7242.497424545864
 31
0.0
  0
LINE
  5
162F0
330
747D
100
AcDbEntity
  8
部品1
 48
50.0
100
AcDbLine
 10
1532.673057123657
 20
7268.497424545865
 30
0.0
 11
1532.673057123657
 21
7277.497424545865
 31
0.0
  0
LINE
  5
162F1
330
747D
100
AcDbEntity
  8
部品1
 48
50.0
100
AcDbLine
 10
1532.673057123657
 20
7307.497424545864
 30
0.0
 11
1532.673057123657
 21
7298.497424545866
 31
0.0
  0
LINE
  5
162F2
330
747D
100
AcDbEntity
  8
部品1
100
AcDbLine
 10
1532.673057123657
 20
7307.497424545864
 30
0.0
 11
1484.673057123657
 21
7307.497424545864
 31
0.0
  0
LINE
  5
162F3
330
747D
100
AcDbEntity
  8
部品1
100
AcDbLine
 10
1532.673057123657
 20
7268.497424545865
 30
0.0
 11
1484.673057123657
 21
7268.497424545865
 31
0.0
  0
LINE
  5
162F4
330
747D
100
AcDbEntity
  8
部品1
100
AcDbLine
 10
1484.673057123656
 20
7278.497424545864
 30
0.0
 11
1461.673057123657
 21
7278.497424545864
 31
0.0
  0
LINE
  5
162F5
330
747D
100
AcDbEntity
  8
部品1
100
AcDbLine
 10
1484.673057123656
 20
7297.497424545788
 30
0.0
 11
1429.673057123655
 21
7297.497424545788
 31
0.0
  0
LINE
  5
162F6
330
747D
100
AcDbEntity
  8
部品1
100
AcDbLine
 10
1457.673057123638
 20
7297.497424545825
 30
0.0
 11
1429.673057123655
 21
7297.497424545825
 31
0.0
  0
LINE
  5
162F7
330
747D
100
AcDbEntity
  8
部品1
100
AcDbLine
 10
1457.673057123655
 20
7297.49742454584
 30
0.0
 11
1429.673057123655
 21
7297.49742454584
 31
0.0
  0
LINE
  5
162FB
330
747D
100
AcDbEntity
  8
部品1
100
AcDbLine
 10
1457.673057123643
 20
7717.49742454584
 30
0.0
 11
1429.673057123643
 21
7717.49742454584
 31
0.0
  0
LINE
  5
162FC
330
747D
100
AcDbEntity
  8
部品1
100
AcDbLine
 10
1457.673057123643
 20
8137.49742454584
 30
0.0
 11
1429.673057123643
 21
8137.49742454584
 31
0.0
  0
LINE
  5
162FE
330
747D
100
AcDbEntity
  8
部品1
100
AcDbLine
 10
1457.673057123638
 20
8557.497424545839
 30
0.0
 11
1429.673057123637
 21
8557.497424545839
 31
0.0
  0
LINE
  5
162FF
330
747D
100
AcDbEntity
  8
部品1
100
AcDbLine
 10
9264.67305712366
 20
10237.49742454588
 30
0.0
 11
9264.673057123641
 21
7242.497424545952
 31
0.0
  0
LINE
  5
16300
330
747D
100
AcDbEntity
  8
部品1
100
AcDbLine
 10
9239.673057123665
 20
10237.49742454588
 30
0.0
 11
9239.67305712364
 21
7307.497424545864
 31
0.0
  0
DIMENSION
  5
16301
330
747D
100
AcDbEntity
  8
寸法
 48
50.0
100
AcDbDimension
  2
*D9
 10
9216.673057123639
 20
6708.0666537797
 30
0.0
 11
9105.710159474892
 21
6808.0666537797
 31
0.0
 70
   160
 71
     5
 42
48.00000000000181
  3
INABA_S40G
100
AcDbAlignedDimension
 13
9264.673057123641
 23
7242.497424545952
 33
0.0
 14
9216.673057123639
 24
7268.497424545865
 34
0.0
100
AcDbRotatedDimension
1001
ACAD
1000
DSTYLE
1002
{
1070
   279
1070
     2
1002
}
  0
DIMENSION
  5
16302
330
747D
100
AcDbEntity
  8
寸法
 48
50.0
100
AcDbDimension
  2
*D10
 10
9264.673057123641
 20
6708.066653779702
 30
0.0
 11
9628.158338497877
 21
6708.066653779702
 31
0.0
 70
   160
 71
     5
 42
54.99999999999818
  3
INABA_S40G
100
AcDbAlignedDimension
 13
9319.673057123639
 23
7242.497424545956
 33
0.0
 14
9264.673057123641
 24
7242.497424545952
 34
0.0
100
AcDbRotatedDimension
1001
ACAD
1000
DSTYLE
1002
{
1002
}
  0
LINE
  5
16303
330
747D
100
AcDbEntity
  8
部品1
 48
50.0
100
AcDbLine
 10
9254.673057123637
 20
7268.497424545865
 30
0.0
 11
9264.673057123639
 21
7247.497424545864
 31
0.0
  0
LINE
  5
16304
330
747D
100
AcDbEntity
  8
部品1
100
AcDbLine
 10
9216.673057123639
 20
7307.497424545864
 30
0.0
 11
9264.673057123641
 21
7307.497424545864
 31
0.0
  0
LINE
  5
16305
330
747D
100
AcDbEntity
  8
部品1
100
AcDbLine
 10
9216.673057123639
 20
7268.497424545865
 30
0.0
 11
9264.673057123639
 21
7268.497424545865
 31
0.0
  0
LINE
  5
16306
330
747D
100
AcDbEntity
  8
部品1
 48
50.0
100
AcDbLine
 10
9216.673057123639
 20
7307.497424545864
 30
0.0
 11
9216.673057123639
 21
7298.497424545866
 31
0.0
  0
LINE
  5
16307
330
747D
100
AcDbEntity
  8
部品1
 48
50.0
100
AcDbLine
 10
9216.673057123639
 20
7268.497424545865
 30
0.0
 11
9216.673057123639
 21
7277.497424545865
 31
0.0
  0
LINE
  5
16308
330
747D
100
AcDbEntity
  8
部品1
100
AcDbLine
 10
9264.673057123639
 20
7278.497424545863
 30
0.0
 11
9287.673057123638
 21
7278.497424545864
 31
0.0
  0
LINE
  5
16309
330
747D
100
AcDbEntity
  8
部品1
100
AcDbLine
 10
9264.673057123639
 20
7297.497424545968
 30
0.0
 11
9319.673057123671
 21
7297.497424545968
 31
0.0
  0
LINE
  5
1630A
330
747D
100
AcDbEntity
  8
部品1
100
AcDbLine
 10
9319.673057123639
 20
7242.497424545956
 30
0.0
 11
9264.673057123641
 21
7242.497424545954
 31
0.0
  0
LINE
  5
16317
330
747D
100
AcDbEntity
  8
部品1
100
AcDbLine
 10
9291.673057123668
 20
7717.497424545967
 30
0.0
 11
9319.673057123667
 21
7717.497424545967
 31
0.0
  0
LINE
  5
16319
330
747D
100
AcDbEntity
  8
部品1
100
AcDbLine
 10
9291.673057123668
 20
8137.497424545967
 30
0.0
 11
9319.673057123667
 21
8137.497424545967
 31
0.0
  0
LINE
  5
1631A
330
747D
100
AcDbEntity
  8
部品1
100
AcDbLine
 10
9291.673057123665
 20
8557.497424545967
 30
0.0
 11
9319.673057123663
 21
8557.497424545967
 31
0.0
  0
LINE
  5
1631B
330
747D
100
AcDbEntity
  8
部品1
100
AcDbLine
 10
6717.673057123663
 20
10264.49742454599
 30
0.0
 11
7992.173057123661
 21
10264.49742454598
 31
0.0
  0
LINE
  5
1631D
330
747D
100
AcDbEntity
  8
部品1
100
AcDbLine
 10
1429.673057123663
 20
10292.49742454587
 30
0.0
 11
9319.673057123663
 21
10292.49742454596
 31
0.0
  0
DIMENSION
  5
1631F
330
747D
100
AcDbEntity
  8
寸法
100
AcDbDimension
  2
*D11
 10
9264.673057123664
 20
10508.30564417096
 30
0.0
 11
8004.673057123664
 21
10608.31745519459
 31
0.0
 70
    32
  1
6X420=<>
 71
     5
 42
2520.000000000001
  3
INABA_S40G
100
AcDbAlignedDimension
 13
6744.673057123662
 23
10292.49742454587
 33
0.0
 14
9264.673057123664
 24
10292.49742454596
 34
0.0
100
AcDbRotatedDimension
1001
ACAD
1000
DSTYLE
1002
{
1002
}
  0
DIMENSION
  5
16320
330
747D
100
AcDbEntity
  8
寸法
100
AcDbDimension
  2
*D12
 10
1484.673057123663
 20
10508.30564417085
 30
0.0
 11
1121.187775749389
 21
10508.30564417085
 31
0.0
 70
   160
 71
     5
 42
55.00000000003456
  3
INABA_S40G
100
AcDbAlignedDimension
 13
1429.673057123628
 23
10292.49742454587
 33
0.0
 14
1484.673057123663
 24
10292.49742454587
 34
0.0
100
AcDbRotatedDimension
1001
ACAD
1000
DSTYLE
1002
{
1002
}
  0
LINE
  5
16321
330
747D
100
AcDbEntity
  8
部品1
100
AcDbLine
 10
1484.673057123628
 20
10292.49742454583
 30
0.0
 11
1484.67305712363
 21
10264.49742454583
 31
0.0
  0
LINE
  5
16322
330
747D
100
AcDbEntity
  8
部品1
100
AcDbLine
 10
1484.673057123663
 20
10292.49742454587
 30
0.0
 11
1484.673057123663
 21
10264.49742454587
 31
0.0
  0
LINE
  5
16323
330
747D
100
AcDbEntity
  8
部品1
100
AcDbLine
 10
1457.67305712363
 20
10237.49742454584
 30
0.0
 11
1429.67305712363
 21
10237.49742454584
 31
0.0
  0
LINE
  5
16324
330
747D
100
AcDbEntity
  8
部品1
100
AcDbLine
 10
7164.673057123663
 20
10292.49742454598
 30
0.0
 11
7164.673057123663
 21
10264.49742454598
 31
0.0
  0
LINE
  5
16325
330
747D
100
AcDbEntity
  8
部品1
100
AcDbLine
 10
7164.673057123663
 20
10292.49742454587
 30
0.0
 11
7164.673057123663
 21
10264.49742454587
 31
0.0
  0
LINE
  5
16326
330
747D
100
AcDbEntity
  8
部品1
100
AcDbLine
 10
7164.673057123663
 20
10292.49742454587
 30
0.0
 11
7164.673057123663
 21
10264.49742454587
 31
0.0
  0
LINE
  5
16327
330
747D
100
AcDbEntity
  8
部品1
100
AcDbLine
 10
8017.173057123663
 20
10264.49742454598
 30
0.0
 11
9291.673057123665
 21
10264.49742454596
 31
0.0
  0
LINE
  5
16329
330
747D
100
AcDbEntity
  8
部品1
100
AcDbLine
 10
7584.673057123663
 20
10292.49742454598
 30
0.0
 11
7584.673057123663
 21
10264.49742454598
 31
0.0
  0
LINE
  5
1632A
330
747D
100
AcDbEntity
  8
部品1
100
AcDbLine
 10
7584.673057123663
 20
10292.49742454587
 30
0.0
 11
7584.673057123663
 21
10264.49742454587
 31
0.0
  0
LINE
  5
1632B
330
747D
100
AcDbEntity
  8
部品1
100
AcDbLine
 10
7584.673057123663
 20
10292.49742454587
 30
0.0
 11
7584.673057123663
 21
10264.49742454587
 31
0.0
  0
LINE
  5
1632C
330
747D
100
AcDbEntity
  8
部品1
100
AcDbLine
 10
8004.673057123664
 20
10292.49742454598
 30
0.0
 11
8004.673057123664
 21
10264.49742454598
 31
0.0
  0
LINE
  5
1632D
330
747D
100
AcDbEntity
  8
部品1
100
AcDbLine
 10
7992.173057123664
 20
10256.49742454596
 30
0.0
 11
8017.173057123663
 21
10256.49742454597
 31
0.0
  0
LINE
  5
1632E
330
747D
100
AcDbEntity
  8
部品1
100
AcDbLine
 10
8033.673057123662
 20
10282.49742454597
 30
0.0
 11
8039.673057123662
 21
10282.49742454597
 31
0.0
  0
LINE
  5
1632F
330
747D
100
AcDbEntity
  8
部品1
100
AcDbLine
 10
8039.673057123662
 20
10282.49742454597
 30
0.0
 11
8039.673057123662
 21
10264.49742454597
 31
0.0
  0
LINE
  5
16330
330
747D
100
AcDbEntity
  8
部品1
100
AcDbLine
 10
7969.673057123663
 20
10282.49742454597
 30
0.0
 11
7975.673057123663
 21
10282.49742454597
 31
0.0
  0
LINE
  5
16331
330
747D
100
AcDbEntity
  8
部品1
100
AcDbLine
 10
7969.673057123663
 20
10282.49742454597
 30
0.0
 11
7969.673057123663
 21
10264.49742454597
 31
0.0
  0
DIMENSION
  5
16333
330
747D
100
AcDbEntity
  8
寸法
100
AcDbDimension
  2
*D13
 10
9319.673057123663
 20
10508.30564417095
 30
0.0
 11
9628.158338497904
 21
10508.30564417095
 31
0.0
 70
   160
 71
     5
 42
55.0
  3
INABA_S40G
100
AcDbAlignedDimension
 13
9264.673057123664
 23
10292.49742454596
 33
0.0
 14
9319.673057123663
 24
10292.49742454596
 34
0.0
100
AcDbRotatedDimension
1001
ACAD
1000
DSTYLE
1002
{
1002
}
  0
LINE
  5
16334
330
747D
100
AcDbEntity
  8
部品1
100
AcDbLine
 10
8424.673057123662
 20
10292.49742454598
 30
0.0
 11
8424.673057123662
 21
10264.49742454598
 31
0.0
  0
LINE
  5
16335
330
747D
100
AcDbEntity
  8
部品1
100
AcDbLine
 10
9264.673057123664
 20
10292.49742454596
 30
0.0
 11
9264.673057123664
 21
10264.49742454596
 31
0.0
  0
LINE
  5
16336
330
747D
100
AcDbEntity
  8
部品1
100
AcDbLine
 10
9264.673057123664
 20
10292.49742454598
 30
0.0
 11
9264.673057123664
 21
10264.49742454598
 31
0.0
  0
LINE
  5
16337
330
747D
100
AcDbEntity
  8
部品1
100
AcDbLine
 10
9291.673057123665
 20
10237.49742454596
 30
0.0
 11
9319.673057123663
 21
10237.49742454596
 31
0.0
  0
DIMENSION
  5
1659A
330
747D
100
AcDbEntity
  8
寸法
 48
50.0
100
AcDbDimension
  2
*D15
 10
6586.673057123639
 20
6708.0666537797
 30
0.0
 11
6475.710159474892
 21
6808.0666537797
 31
0.0
 70
   160
 71
     5
 42
48.00000000000181
  3
INABA_S40G
100
AcDbAlignedDimension
 13
6634.673057123641
 23
7242.497424545952
 33
0.0
 14
6586.673057123639
 24
7268.497424545865
 34
0.0
100
AcDbRotatedDimension
1001
ACAD
1000
DSTYLE
1002
{
1070
   279
1070
     2
1002
}
  0
DIMENSION
  5
1659C
330
747D
100
AcDbEntity
  8
寸法
 48
50.0
100
AcDbDimension
  2
*D14
 10
1484.673057123653
 20
6708.0666537797
 30
0.0
 11
1645.575028123714
 21
6808.0666537797
 31
0.0
 70
   160
 71
     5
 42
48.00000000000363
  3
INABA_S40G
100
AcDbAlignedDimension
 13
1532.673057123657
 23
7268.497424545865
 33
0.0
 14
1484.673057123653
 24
7242.497424545864
 34
0.0
100
AcDbRotatedDimension
1001
ACAD
1000
DSTYLE
1002
{
1070
   279
1070
     2
1002
}
  0
DIMENSION
  5
165E9
330
747D
100
AcDbEntity
  8
寸法
 48
50.0
100
AcDbDimension
  2
*D16
 10
6634.673057123641
 20
6708.066653779702
 30
0.0
 11
6689.673057123648
 21
6556.37475874347
 31
0.0
 70
   160
 71
     5
 42
110.0000000000127
  3
INABA_S40G
100
AcDbAlignedDimension
 13
6744.673057123653
 23
7242.497424545864
 33
0.0
 14
6634.673057123641
 24
7242.497424545952
 34
0.0
100
AcDbRotatedDimension
1001
ACAD
1000
DSTYLE
1002
{
1070
   279
1070
     2
1002
}
  0
LINE
  5
16656
330
747D
100
AcDbEntity
  8
部品1
100
AcDbLine
 10
6586.673057123639
 20
7307.497424545864
 30
0.0
 11
6634.673057123641
 21
7307.497424545864
 31
0.0
  0
LINE
  5
16657
330
747D
100
AcDbEntity
  8
部品1
 48
50.0
100
AcDbLine
 10
6586.673057123639
 20
7307.497424545864
 30
0.0
 11
6586.673057123639
 21
7298.497424545866
 31
0.0
  0
LINE
  5
16658
330
747D
100
AcDbEntity
  8
部品1
100
AcDbLine
 10
6586.673057123639
 20
7268.497424545865
 30
0.0
 11
6634.673057123639
 21
7268.497424545865
 31
0.0
  0
LINE
  5
16659
330
747D
100
AcDbEntity
  8
部品1
 48
50.0
100
AcDbLine
 10
6586.673057123639
 20
7268.497424545865
 30
0.0
 11
6586.673057123639
 21
7277.497424545865
 31
0.0
  0
LINE
  5
1665A
330
747D
100
AcDbEntity
  8
部品1
 48
50.0
100
AcDbLine
 10
6624.673057123638
 20
7268.497424545865
 30
0.0
 11
6634.673057123639
 21
7247.497424545864
 31
0.0
  0
LINE
  5
1665B
330
747D
100
AcDbEntity
  8
部品1
100
AcDbLine
 10
6634.673057123639
 20
7278.497424545863
 30
0.0
 11
6657.673057123638
 21
7278.497424545864
 31
0.0
  0
LINE
  5
1665C
330
747D
100
AcDbEntity
  8
部品1
100
AcDbLine
 10
6792.673057123656
 20
7307.497424545864
 30
0.0
 11
6744.673057123657
 21
7307.497424545864
 31
0.0
  0
LINE
  5
1665D
330
747D
100
AcDbEntity
  8
部品1
 48
50.0
100
AcDbLine
 10
6792.673057123656
 20
7307.497424545864
 30
0.0
 11
6792.673057123656
 21
7298.497424545866
 31
0.0
  0
LINE
  5
1665E
330
747D
100
AcDbEntity
  8
部品1
100
AcDbLine
 10
6792.673057123656
 20
7268.497424545865
 30
0.0
 11
6744.673057123657
 21
7268.497424545865
 31
0.0
  0
LINE
  5
1665F
330
747D
100
AcDbEntity
  8
部品1
 48
50.0
100
AcDbLine
 10
6754.673057123657
 20
7268.497424545865
 30
0.0
 11
6744.673057123657
 21
7247.497424545864
 31
0.0
  0
LINE
  5
16660
330
747D
100
AcDbEntity
  8
部品1
100
AcDbLine
 10
6744.673057123655
 20
7278.497424545864
 30
0.0
 11
6721.673057123656
 21
7278.497424545864
 31
0.0
  0
LINE
  5
16661
330
747D
100
AcDbEntity
  8
部品1
 48
50.0
100
AcDbLine
 10
6744.673057123657
 20
7307.497424545863
 30
0.0
 11
6744.673057123653
 21
7242.497424545864
 31
0.0
  0
LINE
  5
16662
330
747D
100
AcDbEntity
  8
部品1
 48
50.0
100
AcDbLine
 10
6792.673057123656
 20
7268.497424545865
 30
0.0
 11
6792.673057123656
 21
7277.497424545865
 31
0.0
  0
LINE
  5
16663
330
747D
100
AcDbEntity
  8
部品1
100
AcDbLine
 10
6744.673057123653
 20
7242.497424545864
 30
0.0
 11
6634.673057123642
 21
7242.497424545859
 31
0.0
  0
LINE
  5
16664
330
747D
100
AcDbEntity
  8
部品1
 48
50.0
100
AcDbLine
 10
6634.673057123645
 20
7307.497424545951
 30
0.0
 11
6634.673057123641
 21
7242.497424545952
 31
0.0
  0
LINE
  5
16666
330
747D
100
AcDbEntity
  8
部品1
100
AcDbLine
 10
6744.673057123662
 20
10292.49742454587
 30
0.0
 11
6744.673057123662
 21
10264.49742454587
 31
0.0
  0
LINE
  5
16692
330
747D
100
AcDbEntity
  8
部品1
100
AcDbLine
 10
6634.673057123663
 20
10292.49742454596
 30
0.0
 11
6634.673057123663
 21
10264.49742454596
 31
0.0
  0
DIMENSION
  5
166DD
330
747D
100
AcDbEntity
  8
寸法
 48
50.0
100
AcDbDimension
  2
*D17
 10
6634.673057123663
 20
10508.30564417096
 30
0.0
 11
6689.673057123664
 21
10608.30564417096
 31
0.0
 70
    32
 71
     5
 42
109.9999999999991
  3
INABA_S40G
100
AcDbAlignedDimension
 13
6744.673057123662
 23
10292.49742454592
 33
0.0
 14
6634.673057123663
 24
10292.49742454591
 34
0.0
100
AcDbRotatedDimension
1001
ACAD
1000
DSTYLE
1002
{
1070
   279
1070
     2
1002
}
  0
LINE
  5
16760
330
747D
100
AcDbEntity
  8
部品1
 48
50.0
100
AcDbLine
 10
6689.673057123629
 20
10264.49742454591
 30
0.0
 11
6661.673057123632
 21
10292.49742454596
 31
0.0
  0
LINE
  5
16761
330
747D
100
AcDbEntity
  8
部品1
100
AcDbLine
 10
9264.673057123658
 20
10237.49742454588
 30
0.0
 11
6744.673057123643
 21
10237.49742454588
 31
0.0
  0
LINE
  5
16762
330
747D
100
AcDbEntity
  8
部品1
 48
50.0
100
AcDbLine
 10
6661.673057123632
 20
10264.49742454601
 30
0.0
 11
6661.67305712363
 21
10292.49742454596
 31
0.0
  0
LINE
  5
16763
330
747D
100
AcDbEntity
  8
部品1
 48
50.0
100
AcDbLine
 10
6661.673057123632
 20
10264.49742454591
 30
0.0
 11
6689.673057123629
 21
10264.49742454591
 31
0.0
  0
LINE
  5
168C3
330
747D
100
AcDbEntity
  8
部品1
100
AcDbLine
 10
6713.673057123648
 20
7297.497424545861
 30
0.0
 11
6665.673057123647
 21
7297.497424545859
 31
0.0
  0
LINE
  5
168C4
330
747D
100
AcDbEntity
  8
部品1
 48
50.0
100
AcDbLine
 10
6665.673057123647
 20
7297.497424545861
 30
0.0
 11
6665.673057123651
 21
7242.497424545861
 31
0.0
  0
LINE
  5
168C5
330
747D
100
AcDbEntity
  8
部品1
 48
50.0
100
AcDbLine
 10
6713.673057123648
 20
7297.497424545861
 30
0.0
 11
6713.673057123649
 21
7242.497424545861
 31
0.0
  0
DIMENSION
  5
16913
330
747D
100
AcDbEntity
  8
寸法
 48
50.0
100
AcDbDimension
  2
*D18
 10
9319.673057123663
 20
10757.62711772726
 30
0.0
 11
8004.673057123664
 21
10857.63892875088
 31
0.0
 70
    32
 71
     5
 42
2630.0
  3
INABA_S40G
100
AcDbAlignedDimension
 13
6689.673057123664
 23
10667.29355852891
 33
0.0
 14
9319.673057123663
 24
10292.49742454596
 34
0.0
100
AcDbRotatedDimension
1001
ACAD
1000
DSTYLE
1002
{
1070
    75
1070
     1
1070
   279
1070
     2
1002
}
  0
LINE
  5
172BC
330
747D
100
AcDbEntity
  8
部品1
 48
50.0
100
AcDbLine
 10
6717.673057123632
 20
10237.49742454588
 30
0.0
 11
6717.673057123697
 21
10292.49742454591
 31
0.0
  0
LINE
  5
172BD
330
747D
100
AcDbEntity
  8
部品1
 48
50.0
100
AcDbLine
 10
6661.673057123632
 20
10237.49742454588
 30
0.0
 11
6661.673057123632
 21
10264.49742454591
 31
0.0
  0
LINE
  5
174C8
330
747D
100
AcDbEntity
  8
部品1
 48
50.0
100
AcDbLine
 10
9239.673057123665
 20
10212.49742454584
 30
0.0
 11
6769.673057123617
 21
10212.49742454581
 31
0.0
  0
LINE
  5
174C9
330
747D
100
AcDbEntity
  8
部品1
 48
50.0
100
AcDbLine
 10
9291.673057123665
 20
10264.49742454596
 30
0.0
 11
9264.673057123658
 21
10237.49742454588
 31
0.0
  0
LINE
  5
174CA
330
747D
100
AcDbEntity
  8
部品1
 48
50.0
100
AcDbLine
 10
1484.673057123634
 20
10237.49742454588
 30
0.0
 11
1457.673057123649
 21
10264.49742454598
 31
0.0
  0
LINE
  5
174CB
330
747D
100
AcDbEntity
  8
部品1
 48
50.0
100
AcDbLine
 10
7992.173057123664
 20
10256.49742454596
 30
0.0
 11
7992.173057123662
 21
10264.49742454598
 31
0.0
  0
LINE
  5
174CC
330
747D
100
AcDbEntity
  8
部品1
 48
50.0
100
AcDbLine
 10
8017.173057123663
 20
10256.49742454597
 30
0.0
 11
8017.173057123663
 21
10264.49742454598
 31
0.0
  0
DIMENSION
  5
17B86
330
747D
100
AcDbEntity
  8
寸法
 48
50.0
100
AcDbDimension
  2
*D23
 10
4059.673057123664
 20
10757.62711772726
 30
0.0
 11
2744.673057123646
 21
10857.63892875088
 31
0.0
 70
    32
 71
     5
 42
2630.000000000036
  3
INABA_S40G
100
AcDbAlignedDimension
 13
1429.673057123628
 23
10292.49742454583
 33
0.0
 14
4059.673057123664
 24
10667.29355852891
 34
0.0
100
AcDbRotatedDimension
1001
ACAD
1000
DSTYLE
1002
{
1070
   279
1070
     2
1002
}
  0
DIMENSION
  5
17B87
330
747D
100
AcDbEntity
  8
寸法
100
AcDbDimension
  2
*D21
 10
4004.673057123664
 20
10508.30564417096
 30
0.0
 11
2744.673057123664
 21
10608.31745519459
 31
0.0
 70
    32
  1
6X420=<>
 71
     5
 42
2520.000000000001
  3
INABA_S40G
100
AcDbAlignedDimension
 13
1484.673057123663
 23
10292.49742454587
 33
0.0
 14
4004.673057123664
 24
10292.49742454596
 34
0.0
100
AcDbRotatedDimension
1001
ACAD
1000
DSTYLE
1002
{
1002
}
  0
DIMENSION
  5
17B88
330
747D
100
AcDbEntity
  8
寸法
 48
50.0
100
AcDbDimension
  2
*D22
 10
4004.673057123664
 20
10508.30564417096
 30
0.0
 11
4059.673057123663
 21
10608.30564417096
 31
0.0
 70
    32
 71
     5
 42
109.9999999999991
  3
INABA_S40G
100
AcDbAlignedDimension
 13
4114.673057123662
 23
10292.49742454592
 33
0.0
 14
4004.673057123664
 24
10292.49742454591
 34
0.0
100
AcDbRotatedDimension
1001
ACAD
1000
DSTYLE
1002
{
1070
   279
1070
     2
1002
}
  0
LINE
  5
17B89
330
747D
100
AcDbEntity
  8
部品1
100
AcDbLine
 10
4087.673057123629
 20
10237.49742454588
 30
0.0
 11
4031.673057123631
 21
10237.49742454588
 31
0.0
  0
LINE
  5
17B8B
330
747D
100
AcDbEntity
  8
部品1
 48
50.0
100
AcDbLine
 10
3979.673057123634
 20
10212.49742454579
 30
0.0
 11
1509.673057123634
 21
10212.49742454579
 31
0.0
  0
LINE
  5
17B9A
330
747D
100
AcDbEntity
  8
部品1
 48
50.0
100
AcDbLine
 10
4031.673057123631
 20
10237.49742454588
 30
0.0
 11
4031.673057123631
 21
10264.49742454591
 31
0.0
  0
LINE
  5
17B9B
330
747D
100
AcDbEntity
  8
部品1
 48
50.0
100
AcDbLine
 10
4087.673057123631
 20
10237.49742454588
 30
0.0
 11
4087.673057123697
 21
10292.49742454591
 31
0.0
  0
LINE
  5
17B9C
330
747D
100
AcDbEntity
  8
部品1
 48
50.0
100
AcDbLine
 10
4083.673057123648
 20
7297.497424545861
 30
0.0
 11
4083.673057123649
 21
7242.497424545861
 31
0.0
  0
LINE
  5
17B9D
330
747D
100
AcDbEntity
  8
部品1
 48
50.0
100
AcDbLine
 10
4035.673057123648
 20
7297.497424545861
 30
0.0
 11
4035.67305712365
 21
7242.497424545861
 31
0.0
  0
LINE
  5
17B9E
330
747D
100
AcDbEntity
  8
部品1
100
AcDbLine
 10
4083.673057123648
 20
7297.497424545861
 30
0.0
 11
4035.673057123647
 21
7297.497424545859
 31
0.0
  0
LINE
  5
17B9F
330
747D
100
AcDbEntity
  8
部品1
 48
50.0
100
AcDbLine
 10
4031.673057123631
 20
10264.49742454591
 30
0.0
 11
4059.673057123629
 21
10264.49742454591
 31
0.0
  0
LINE
  5
17BA0
330
747D
100
AcDbEntity
  8
部品1
 48
50.0
100
AcDbLine
 10
4031.673057123631
 20
10264.49742454601
 30
0.0
 11
4031.67305712363
 21
10292.49742454596
 31
0.0
  0
LINE
  5
17BA1
330
747D
100
AcDbEntity
  8
部品1
 48
50.0
100
AcDbLine
 10
4059.673057123629
 20
10264.49742454591
 30
0.0
 11
4031.673057123631
 21
10292.49742454596
 31
0.0
  0
LINE
  5
17BA2
330
747D
100
AcDbEntity
  8
部品1
100
AcDbLine
 10
4004.673057123664
 20
10292.49742454596
 30
0.0
 11
4004.673057123664
 21
10264.49742454596
 31
0.0
  0
LINE
  5
17BB2
330
747D
100
AcDbEntity
  8
部品1
100
AcDbLine
 10
4114.673057123662
 20
10292.49742454587
 30
0.0
 11
4114.673057123662
 21
10264.49742454587
 31
0.0
  0
LINE
  5
17BB3
330
747D
100
AcDbEntity
  8
部品1
 48
50.0
100
AcDbLine
 10
4004.673057123645
 20
7307.497424545951
 30
0.0
 11
4004.673057123642
 21
7242.497424545952
 31
0.0
  0
LINE
  5
17BB4
330
747D
100
AcDbEntity
  8
部品1
100
AcDbLine
 10
4114.673057123652
 20
7242.497424545864
 30
0.0
 11
4004.673057123642
 21
7242.497424545859
 31
0.0
  0
LINE
  5
17BB5
330
747D
100
AcDbEntity
  8
部品1
 48
50.0
100
AcDbLine
 10
4162.673057123657
 20
7268.497424545865
 30
0.0
 11
4162.673057123657
 21
7277.497424545865
 31
0.0
  0
LINE
  5
17BB6
330
747D
100
AcDbEntity
  8
部品1
 48
50.0
100
AcDbLine
 10
4114.673057123656
 20
7307.497424545863
 30
0.0
 11
4114.673057123653
 21
7242.497424545864
 31
0.0
  0
LINE
  5
17BB7
330
747D
100
AcDbEntity
  8
部品1
100
AcDbLine
 10
4114.673057123655
 20
7278.497424545864
 30
0.0
 11
4091.673057123657
 21
7278.497424545864
 31
0.0
  0
LINE
  5
17BB8
330
747D
100
AcDbEntity
  8
部品1
 48
50.0
100
AcDbLine
 10
4124.673057123657
 20
7268.497424545865
 30
0.0
 11
4114.673057123656
 21
7247.497424545864
 31
0.0
  0
LINE
  5
17BB9
330
747D
100
AcDbEntity
  8
部品1
100
AcDbLine
 10
4162.673057123657
 20
7268.497424545865
 30
0.0
 11
4114.673057123656
 21
7268.497424545865
 31
0.0
  0
LINE
  5
17BBA
330
747D
100
AcDbEntity
  8
部品1
 48
50.0
100
AcDbLine
 10
4162.673057123657
 20
7307.497424545864
 30
0.0
 11
4162.673057123657
 21
7298.497424545866
 31
0.0
  0
LINE
  5
17BBB
330
747D
100
AcDbEntity
  8
部品1
100
AcDbLine
 10
4162.673057123657
 20
7307.497424545864
 30
0.0
 11
4114.673057123656
 21
7307.497424545864
 31
0.0
  0
LINE
  5
17BBC
330
747D
100
AcDbEntity
  8
部品1
100
AcDbLine
 10
4004.673057123638
 20
7278.497424545863
 30
0.0
 11
4027.673057123638
 21
7278.497424545864
 31
0.0
  0
LINE
  5
17BBD
330
747D
100
AcDbEntity
  8
部品1
 48
50.0
100
AcDbLine
 10
3994.673057123639
 20
7268.497424545865
 30
0.0
 11
4004.673057123638
 21
7247.497424545864
 31
0.0
  0
LINE
  5
17BBE
330
747D
100
AcDbEntity
  8
部品1
 48
50.0
100
AcDbLine
 10
3956.673057123639
 20
7268.497424545865
 30
0.0
 11
3956.673057123639
 21
7277.497424545865
 31
0.0
  0
LINE
  5
17BBF
330
747D
100
AcDbEntity
  8
部品1
100
AcDbLine
 10
3956.673057123639
 20
7268.497424545865
 30
0.0
 11
4004.673057123638
 21
7268.497424545865
 31
0.0
  0
LINE
  5
17BC0
330
747D
100
AcDbEntity
  8
部品1
 48
50.0
100
AcDbLine
 10
3956.673057123639
 20
7307.497424545864
 30
0.0
 11
3956.673057123639
 21
7298.497424545866
 31
0.0
  0
LINE
  5
17BC1
330
747D
100
AcDbEntity
  8
部品1
100
AcDbLine
 10
3956.673057123639
 20
7307.497424545864
 30
0.0
 11
4004.67305712364
 21
7307.497424545864
 31
0.0
  0
LINE
  5
17BC2
330
747D
100
AcDbEntity
  8
部品1
 48
50.0
100
AcDbLine
 10
1496.673057123656
 20
7287.997424545864
 30
0.0
 11
3992.673057123641
 21
7287.997424545864
 31
0.0
  0
DIMENSION
  5
17BC3
330
747D
100
AcDbEntity
  8
寸法
 48
50.0
100
AcDbDimension
  2
*D20
 10
1532.673057123657
 20
6708.0666537797
 30
0.0
 11
2744.673057123648
 21
6808.078464803323
 31
0.0
 70
    32
  1
有効開口部間口 <>
 71
     5
 42
2423.999999999982
  3
INABA_S40G
100
AcDbAlignedDimension
 13
3956.673057123639
 23
7268.497424545865
 33
0.0
 14
1532.673057123657
 24
7268.497424545865
 34
0.0
100
AcDbRotatedDimension
1001
ACAD
1000
DSTYLE
1002
{
1070
    75
1070
     1
1070
   279
1070
     2
1002
}
  0
DIMENSION
  5
17BC4
330
747D
100
AcDbEntity
  8
寸法
 48
50.0
100
AcDbDimension
  2
*D19
 10
3956.673057123639
 20
6708.0666537797
 30
0.0
 11
3845.710159474892
 21
6808.0666537797
 31
0.0
 70
   160
 71
     5
 42
48.00000000000181
  3
INABA_S40G
100
AcDbAlignedDimension
 13
4004.67305712364
 23
7242.497424545952
 33
0.0
 14
3956.673057123639
 24
7268.497424545865
 34
0.0
100
AcDbRotatedDimension
1001
ACAD
1000
DSTYLE
1002
{
1070
   279
1070
     2
1002
}
  0
DIMENSION
  5
17C46
330
747D
100
AcDbEntity
  8
寸法
 48
50.0
100
AcDbDimension
  2
*D25
 10
4004.67305712364
 20
6708.066653779702
 30
0.0
 11
4059.673057123647
 21
6556.37475874347
 31
0.0
 70
   160
 71
     5
 42
110.0000000000127
  3
INABA_S40G
100
AcDbAlignedDimension
 13
4114.673057123653
 23
7242.497424545864
 33
0.0
 14
4004.67305712364
 24
7242.497424545952
 34
0.0
100
AcDbRotatedDimension
1001
ACAD
1000
DSTYLE
1002
{
1070
   279
1070
     2
1002
}
  0
DIMENSION
  5
17C47
330
747D
100
AcDbEntity
  8
寸法
 48
50.0
100
AcDbDimension
  2
*D24
 10
4114.673057123653
 20
6708.0666537797
 30
0.0
 11
4275.575028123713
 21
6808.0666537797
 31
0.0
 70
   160
 71
     5
 42
48.00000000000363
  3
INABA_S40G
100
AcDbAlignedDimension
 13
4162.673057123657
 23
7268.497424545865
 33
0.0
 14
4114.673057123653
 24
7242.497424545864
 34
0.0
100
AcDbRotatedDimension
1001
ACAD
1000
DSTYLE
1002
{
1070
   279
1070
     2
1002
}
  0
LINE
  5
17D0F
330
747D
100
AcDbEntity
  8
部品1
100
AcDbLine
 10
9291.673057123656
 20
9817.497424545958
 30
0.0
 11
9319.673057123656
 21
9817.497424545958
 31
0.0
  0
LINE
  5
17D10
330
747D
100
AcDbEntity
  8
部品1
100
AcDbLine
 10
9291.673057123658
 20
8977.497424545957
 30
0.0
 11
9319.673057123658
 21
8977.497424545957
 31
0.0
  0
LINE
  5
17D11
330
747D
100
AcDbEntity
  8
部品1
100
AcDbLine
 10
1457.673057123628
 20
9817.497424545832
 30
0.0
 11
1429.673057123628
 21
9817.497424545832
 31
0.0
  0
LINE
  5
17D12
330
747D
100
AcDbEntity
  8
部品1
100
AcDbLine
 10
1457.673057123634
 20
8977.49742454583
 30
0.0
 11
1429.673057123634
 21
8977.49742454583
 31
0.0
  0
LINE
  5
18097
330
747D
100
AcDbEntity
  8
寸法
 48
50.0
100
AcDbLine
 10
6534.673057123663
 20
10508.30564417096
 30
0.0
 11
5617.901097968024
 21
10508.30564417096
 31
0.0
  0
LINE
  5
18098
330
747D
100
AcDbEntity
  8
寸法
 48
50.0
100
AcDbLine
 10
5131.445016279303
 20
10508.30564417096
 30
0.0
 11
4214.673057123663
 21
10508.30564417096
 31
0.0
  0
TEXT
  5
180AB
330
747D
100
AcDbEntity
  8
文字
 48
50.0
100
AcDbText
 10
5744.946326482197
 20
10538.9904096999
 30
0.0
 40
120.0
  1
2520
  7
STYLE1
100
AcDbText
  0
TEXT
  5
180AD
330
747D
100
AcDbEntity
  8
文字
 48
50.0
100
AcDbText
 10
5600.652295359538
 20
6743.535778383449
 30
0.0
 40
120.0
  1
2424
  7
STYLE1
100
AcDbText
  0
TEXT
  5
180D7
330
747D
100
AcDbEntity
  8
文字
 48
50.0
100
AcDbText
 10
4713.401826075933
 20
10538.9904096999
 30
0.0
 40
120.0
  1
2520
  7
STYLE1
100
AcDbText
  0
LINE
  5
180D8
330
747D
100
AcDbEntity
  8
寸法
 48
50.0
100
AcDbLine
 10
6486.673057123638
 20
6708.0666537797
 30
0.0
 11
5569.901097967999
 21
6708.0666537797
 31
0.0
  0
LINE
  5
180D9
330
747D
100
AcDbEntity
  8
寸法
 48
50.0
100
AcDbLine
 10
5083.445016279277
 20
6708.0666537797
 30
0.0
 11
4166.673057123637
 21
6708.0666537797
 31
0.0
  0
TEXT
  5
180DA
330
747D
100
AcDbEntity
  8
文字
 48
50.0
100
AcDbText
 10
4729.811617545235
 20
6743.535778383449
 30
0.0
 40
120.0
  1
2424
  7
STYLE1
100
AcDbText
  0
LINE
  5
18100
330
747D
100
AcDbEntity
  8
Ｇ．Ｌ
100
AcDbLine
 10
277.7473369003744
 20
2202.35920419623
 30
0.0
 11
15704.57007304231
 21
2202.359204196229
 31
0.0
  0
LINE
  5
18102
330
747D
100
AcDbEntity
  8
部品1
 48
50.0
100
AcDbLine
 10
6609.673057123633
 20
10212.49742454581
 30
0.0
 11
4139.673057123633
 21
10212.49742454579
 31
0.0
  0
LINE
  5
18103
330
747D
100
AcDbEntity
  8
部品1
100
AcDbLine
 10
6634.673057123643
 20
10237.49742454589
 30
0.0
 11
4114.673057123642
 21
10237.49742454588
 31
0.0
  0
LINE
  5
18106
330
747D
100
AcDbEntity
  8
寸法
 48
50.0
100
AcDbLine
 10
6689.563357233135
 20
10684.76985551187
 30
0.0
 11
6689.563357233135
 21
10823.92098311983
 31
0.0
  0
LINE
  5
18107
330
747D
100
AcDbEntity
  8
寸法
 48
50.0
100
AcDbLine
 10
6689.673057123664
 20
10757.62711772726
 30
0.0
 11
5622.238647055863
 21
10757.62711772726
 31
0.0
  0
LINE
  5
18108
330
747D
100
AcDbEntity
  8
寸法
 48
50.0
100
AcDbLine
 10
4059.673057123664
 20
10757.62711772726
 30
0.0
 11
5137.161027911185
 21
10757.62711772726
 31
0.0
  0
TEXT
  5
18109
330
747D
100
AcDbEntity
  8
文字
 48
50.0
100
AcDbText
 10
5744.946326482197
 20
10801.48433045451
 30
0.0
 40
120.0
  1
2630
  7
STYLE1
100
AcDbText
  0
TEXT
  5
1810A
330
747D
100
AcDbEntity
  8
文字
 48
50.0
100
AcDbText
 10
4713.401826075933
 20
10801.48433045451
 30
0.0
 40
120.0
  1
2630
  7
STYLE1
100
AcDbText
  0
LINE
  5
18157
330
747D
100
AcDbEntity
  8
部品1
100
AcDbLine
 10
4031.673057123651
 20
9817.497424545914
 30
0.0
 11
4059.673057123651
 21
9817.497424545914
 31
0.0
  0
LINE
  5
18158
330
747D
100
AcDbEntity
  8
部品1
100
AcDbLine
 10
4031.673057123651
 20
8977.497424545914
 30
0.0
 11
4059.673057123651
 21
8977.497424545914
 31
0.0
  0
LINE
  5
18159
330
747D
100
AcDbEntity
  8
部品1
100
AcDbLine
 10
4031.673057123651
 20
8557.497424545914
 30
0.0
 11
4059.673057123651
 21
8557.497424545914
 31
0.0
  0
LINE
  5
1815A
330
747D
100
AcDbEntity
  8
部品1
100
AcDbLine
 10
4004.673057123649
 20
7307.497424545812
 30
0.0
 11
4004.673057123642
 21
10237.49742454581
 31
0.0
  0
LINE
  5
1815B
330
747D
100
AcDbEntity
  8
部品1
 48
10.0
100
AcDbLine
 10
3979.673057123659
 20
7307.497424545812
 30
0.0
 11
3979.673057123633
 21
10237.49742454581
 31
0.0
  0
LINE
  5
1815C
330
747D
100
AcDbEntity
  8
部品1
100
AcDbLine
 10
4031.673057123631
 20
10264.49742454591
 30
0.0
 11
4031.673057123614
 21
7242.497424545807
 31
0.0
  0
LINE
  5
1815D
330
747D
100
AcDbEntity
  8
部品1
100
AcDbLine
 10
4114.67305712367
 20
7307.497424545812
 30
0.0
 11
4114.673057123642
 21
10237.49742454581
 31
0.0
  0
LINE
  5
1815E
330
747D
100
AcDbEntity
  8
部品1
 48
10.0
100
AcDbLine
 10
4139.673057123664
 20
7307.497424545812
 30
0.0
 11
4139.673057123617
 21
10237.49742454583
 31
0.0
  0
LINE
  5
1815F
330
747D
100
AcDbEntity
  8
部品1
100
AcDbLine
 10
4087.673057123609
 20
7242.497424545813
 30
0.0
 11
4087.673057123633
 21
10292.49742454586
 31
0.0
  0
LINE
  5
18160
330
747D
100
AcDbEntity
  8
部品1
100
AcDbLine
 10
4059.673057123649
 20
10237.49742454583
 30
0.0
 11
4059.673057123622
 21
7297.497424545807
 31
0.0
  0
LINE
  5
18161
330
747D
100
AcDbEntity
  8
部品1
100
AcDbLine
 10
6689.673057123648
 20
10237.49742454583
 30
0.0
 11
6689.673057123622
 21
7297.497424545807
 31
0.0
  0
LINE
  5
18162
330
747D
100
AcDbEntity
  8
部品1
100
AcDbLine
 10
6717.673057123609
 20
7242.497424545813
 30
0.0
 11
6717.673057123633
 21
10292.49742454586
 31
0.0
  0
LINE
  5
18163
330
747D
100
AcDbEntity
  8
部品1
 48
10.0
100
AcDbLine
 10
6769.673057123664
 20
7307.497424545812
 30
0.0
 11
6769.673057123617
 21
10237.49742454583
 31
0.0
  0
LINE
  5
18164
330
747D
100
AcDbEntity
  8
部品1
100
AcDbLine
 10
6744.673057123669
 20
7307.497424545812
 30
0.0
 11
6744.673057123643
 21
10237.49742454581
 31
0.0
  0
LINE
  5
18165
330
747D
100
AcDbEntity
  8
部品1
100
AcDbLine
 10
6661.673057123632
 20
10264.49742454591
 30
0.0
 11
6661.673057123614
 21
7242.497424545807
 31
0.0
  0
LINE
  5
18166
330
747D
100
AcDbEntity
  8
部品1
 48
10.0
100
AcDbLine
 10
6609.673057123659
 20
7307.497424545812
 30
0.0
 11
6609.673057123633
 21
10237.49742454581
 31
0.0
  0
LINE
  5
18167
330
747D
100
AcDbEntity
  8
部品1
100
AcDbLine
 10
6634.673057123649
 20
7307.497424545812
 30
0.0
 11
6634.673057123642
 21
10237.49742454581
 31
0.0
  0
LINE
  5
18168
330
747D
100
AcDbEntity
  8
部品1
100
AcDbLine
 10
6661.673057123651
 20
8557.497424545914
 30
0.0
 11
6689.673057123652
 21
8557.497424545914
 31
0.0
  0
LINE
  5
18169
330
747D
100
AcDbEntity
  8
部品1
100
AcDbLine
 10
6661.673057123651
 20
8977.497424545914
 30
0.0
 11
6689.673057123652
 21
8977.497424545914
 31
0.0
  0
LINE
  5
1816A
330
747D
100
AcDbEntity
  8
部品1
100
AcDbLine
 10
6661.673057123651
 20
9817.497424545914
 30
0.0
 11
6689.673057123652
 21
9817.497424545914
 31
0.0
  0
LINE
  5
1816B
330
747D
100
AcDbEntity
  8
部品1
 48
50.0
100
AcDbLine
 10
6717.673057123684
 20
10264.49742454572
 30
0.0
 11
6744.673057123673
 21
10237.49742454573
 31
0.0
  0
LINE
  5
1816C
330
747D
100
AcDbEntity
  8
部品1
 48
50.0
100
AcDbLine
 10
6661.673057123699
 20
10264.49742454581
 30
0.0
 11
6634.673057123695
 21
10237.49742454581
 31
0.0
  0
LINE
  5
1816D
330
747D
100
AcDbEntity
  8
部品1
 48
50.0
100
AcDbLine
 10
4087.673057123684
 20
10264.49742454572
 30
0.0
 11
4114.673057123673
 21
10237.49742454573
 31
0.0
  0
LINE
  5
1816E
330
747D
100
AcDbEntity
  8
部品1
 48
50.0
100
AcDbLine
 10
4031.673057123699
 20
10264.49742454581
 30
0.0
 11
4004.673057123695
 21
10237.49742454581
 31
0.0
  0
LINE
  5
1816F
330
747D
100
AcDbEntity
  8
部品1
100
AcDbLine
 10
4004.673057123642
 20
10237.49742454588
 30
0.0
 11
1484.673057123634
 21
10237.49742454588
 31
0.0
  0
LINE
  5
18170
330
747D
100
AcDbEntity
  8
部品1
100
AcDbLine
 10
6717.673057123632
 20
10237.49742454588
 30
0.0
 11
6661.67305712363
 21
10237.49742454588
 31
0.0
  0
LINE
  5
18171
330
747D
100
AcDbEntity
  8
部品1
100
AcDbLine
 10
6661.673057123657
 20
8137.497424545914
 30
0.0
 11
6689.673057123657
 21
8137.497424545914
 31
0.0
  0
LINE
  5
18172
330
747D
100
AcDbEntity
  8
部品1
100
AcDbLine
 10
6661.673057123657
 20
7717.497424545914
 30
0.0
 11
6689.673057123657
 21
7717.497424545914
 31
0.0
  0
LINE
  5
18173
330
747D
100
AcDbEntity
  8
部品1
100
AcDbLine
 10
4031.673057123657
 20
7717.497424545914
 30
0.0
 11
4059.673057123657
 21
7717.497424545914
 31
0.0
  0
LINE
  5
18174
330
747D
100
AcDbEntity
  8
部品1
100
AcDbLine
 10
4031.673057123657
 20
8137.497424545914
 30
0.0
 11
4059.673057123657
 21
8137.497424545914
 31
0.0
  0
LINE
  5
181F6
330
747D
100
AcDbEntity
  8
部品1
100
AcDbLine
 10
9291.673057123658
 20
9397.497424545958
 30
0.0
 11
9319.673057123658
 21
9397.497424545958
 31
0.0
  0
LINE
  5
181F7
330
747D
100
AcDbEntity
  8
部品1
100
AcDbLine
 10
6661.673057123651
 20
9397.497424545916
 30
0.0
 11
6689.673057123652
 21
9397.497424545916
 31
0.0
  0
LINE
  5
181F8
330
747D
100
AcDbEntity
  8
部品1
100
AcDbLine
 10
4031.673057123651
 20
9397.497424545916
 30
0.0
 11
4059.673057123651
 21
9397.497424545916
 31
0.0
  0
LINE
  5
181F9
330
747D
100
AcDbEntity
  8
部品1
100
AcDbLine
 10
1457.673057123634
 20
9397.49742454583
 30
0.0
 11
1429.673057123634
 21
9397.49742454583
 31
0.0
  0
TEXT
  5
1875B
330
747D
100
AcDbEntity
  8
文字
 62
     7
 48
50.0
100
AcDbText
 10
15022.63965474516
 20
9910.013745883727
 30
0.0
 40
100.0
  1
F12,Y10      1.2+1.6
  7
STYLE1
100
AcDbText
  0
TEXT
  5
1875C
330
747D
100
AcDbEntity
  8
文字
 62
     7
 48
50.0
100
AcDbText
 10
13583.11819016569
 20
9910.01374588373
 30
0.0
 40
100.0
  1
梁中
  7
STYLE1
100
AcDbText
  0
TEXT
  5
1875D
330
747D
100
AcDbEntity
  8
文字
 62
     7
 48
50.0
100
AcDbText
 10
13248.77747366448
 20
8720.013745883731
 30
0.0
 40
100.0
  1
14
  7
STYLE1
100
AcDbText
  0
LINE
  5
1875E
330
747D
100
AcDbEntity
  8
仕様書枠
 48
50.0
100
AcDbLine
 10
16307.19999999999
 20
9879.599999999999
 30
0.0
 11
13127.2
 21
9879.600000000001
 31
0.0
  0
LINE
  5
1875F
330
747D
100
AcDbEntity
  8
仕様書枠
 48
50.0
100
AcDbLine
 10
16307.19999999999
 20
11239.6
 30
0.0
 11
13127.2
 21
11239.6
 31
0.0
  0
LINE
  5
18760
330
747D
100
AcDbEntity
  8
仕様書枠
 48
50.0
100
AcDbLine
 10
16307.2
 20
8179.600000000002
 30
0.0
 11
16307.2
 21
11239.6
 31
0.0
  0
LINE
  5
18761
330
747D
100
AcDbEntity
  8
仕様書枠
 48
50.0
100
AcDbLine
 10
14785.2
 20
11239.59999999999
 30
0.0
 11
14785.2
 21
8689.600000000003
 31
0.0
  0
LINE
  5
18762
330
747D
100
AcDbEntity
  8
仕様書枠
 48
50.0
100
AcDbLine
 10
13490.2
 20
11239.6
 30
0.0
 11
13490.20000000001
 21
8689.600000000003
 31
0.0
  0
LINE
  5
18763
330
747D
100
AcDbEntity
  8
仕様書枠
 48
50.0
100
AcDbLine
 10
16307.19999999999
 20
11069.6
 30
0.0
 11
13127.2
 21
11069.6
 31
0.0
  0
LINE
  5
18764
330
747D
100
AcDbEntity
  8
仕様書枠
 48
50.0
100
AcDbLine
 10
16307.19999999999
 20
10729.6
 30
0.0
 11
13127.2
 21
10729.6
 31
0.0
  0
LINE
  5
18765
330
747D
100
AcDbEntity
  8
仕様書枠
 48
50.0
100
AcDbLine
 10
16307.19999999999
 20
10899.6
 30
0.0
 11
13127.2
 21
10899.6
 31
0.0
  0
LINE
  5
18766
330
747D
100
AcDbEntity
  8
仕様書枠
 48
50.0
100
AcDbLine
 10
16307.19999999999
 20
10389.6
 30
0.0
 11
13127.19999999999
 21
10389.6
 31
0.0
  0
LINE
  5
18767
330
747D
100
AcDbEntity
  8
仕様書枠
 48
50.0
100
AcDbLine
 10
16307.19999999999
 20
10219.6
 30
0.0
 11
13127.19999999999
 21
10219.6
 31
0.0
  0
LINE
  5
18768
330
747D
100
AcDbEntity
  8
仕様書枠
 48
50.0
100
AcDbLine
 10
16307.19999999999
 20
10559.6
 30
0.0
 11
13127.19999999999
 21
10559.6
 31
0.0
  0
TEXT
  5
18769
330
747D
100
AcDbEntity
  8
文字
 62
     7
 48
50.0
100
AcDbText
 10
13197.42518560407
 20
11100.01374588373
 30
0.0
 40
100.0
  1
品番
  7
STYLE1
100
AcDbText
  0
TEXT
  5
1876A
330
747D
100
AcDbEntity
  8
文字
 62
     7
 48
50.0
100
AcDbText
 10
13271.19032244792
 20
10930.01374588373
 30
0.0
 40
100.0
  1
1
  7
STYLE1
100
AcDbText
  0
TEXT
  5
1876B
330
747D
100
AcDbEntity
  8
文字
 62
     7
 48
50.0
100
AcDbText
 10
13271.19032244792
 20
10760.01374588373
 30
0.0
 40
100.0
  1
2
  7
STYLE1
100
AcDbText
  0
TEXT
  5
1876C
330
747D
100
AcDbEntity
  8
文字
 62
     7
 48
50.0
100
AcDbText
 10
13271.19032244792
 20
10420.01374588373
 30
0.0
 40
100.0
  1
4
  7
STYLE1
100
AcDbText
  0
TEXT
  5
1876D
330
747D
100
AcDbEntity
  8
文字
 62
     7
 48
50.0
100
AcDbText
 10
13271.19032244792
 20
10590.01374588373
 30
0.0
 40
100.0
  1
3
  7
STYLE1
100
AcDbText
  0
TEXT
  5
1876E
330
747D
100
AcDbEntity
  8
文字
 62
     7
 48
50.0
100
AcDbText
 10
13732.03840939434
 20
11100.01374588373
 30
0.0
 40
100.0
  1
部　　品　　名
  7
STYLE1
100
AcDbText
  0
TEXT
  5
1876F
330
747D
100
AcDbEntity
  8
文字
 62
     7
 48
50.0
100
AcDbText
 10
14859.79774614482
 20
11100.01374588373
 30
0.0
 40
100.0
  1
材料（材質）　　単位mm
  7
STYLE1
100
AcDbText
  0
TEXT
  5
18770
330
747D
100
AcDbEntity
  8
文字
 62
     7
 48
50.0
100
AcDbText
 10
13583.11819016569
 20
10930.01374588372
 30
0.0
 40
100.0
  1
土台枠
  7
STYLE1
100
AcDbText
  0
TEXT
  5
18771
330
747D
100
AcDbEntity
  8
文字
 62
     7
 48
50.0
100
AcDbText
 10
13583.11819016569
 20
10760.01374588372
 30
0.0
 40
100.0
  1
柱
  7
STYLE1
100
AcDbText
  0
TEXT
  5
18772
330
747D
100
AcDbEntity
  8
文字
 62
     7
 48
50.0
100
AcDbText
 10
13583.11819016569
 20
10590.01374588373
 30
0.0
 40
100.0
  1
桁前
  7
STYLE1
100
AcDbText
  0
TEXT
  5
18773
330
747D
100
AcDbEntity
  8
文字
 62
     7
 48
50.0
100
AcDbText
 10
13583.11819016569
 20
10420.01374588373
 30
0.0
 40
100.0
  1
桁後
  7
STYLE1
100
AcDbText
  0
TEXT
  5
18774
330
747D
100
AcDbEntity
  8
文字
 62
     7
 48
50.0
100
AcDbText
 10
13271.19032244792
 20
10250.01374588373
 30
0.0
 40
100.0
  1
5
  7
STYLE1
100
AcDbText
  0
TEXT
  5
18775
330
747D
100
AcDbEntity
  8
文字
 62
     7
 48
50.0
100
AcDbText
 10
13583.11819016569
 20
10250.01374588373
 30
0.0
 40
100.0
  1
妻板左右
  7
STYLE1
100
AcDbText
  0
TEXT
  5
18777
330
747D
100
AcDbEntity
  8
文字
 62
     7
 48
50.0
100
AcDbText
 10
13248.77747366448
 20
9400.013745883727
 30
0.0
 40
100.0
  1
10
  7
STYLE1
100
AcDbText
  0
TEXT
  5
18778
330
747D
100
AcDbEntity
  8
文字
 62
     7
 48
50.0
100
AcDbText
 10
13583.11819016569
 20
9400.013745883729
 30
0.0
 40
100.0
  1
壁パネル
  7
STYLE1
100
AcDbText
  0
TEXT
  5
18779
330
747D
100
AcDbEntity
  8
文字
 62
     7
 48
50.0
100
AcDbText
 10
13583.11819016569
 20
9570.013745883727
 30
0.0
 40
100.0
  1
屋根パネル
  7
STYLE1
100
AcDbText
  0
TEXT
  5
1877A
330
747D
100
AcDbEntity
  8
文字
 62
     7
 48
50.0
100
AcDbText
 10
13583.11819016569
 20
9740.013745883729
 30
0.0
 40
100.0
  1
母屋中
  7
STYLE1
100
AcDbText
  0
TEXT
  5
1877B
330
747D
100
AcDbEntity
  8
文字
 62
     7
 48
50.0
100
AcDbText
 10
13583.11819016569
 20
10080.01374588372
 30
0.0
 40
100.0
  1
鼻隠シ前後
  7
STYLE1
100
AcDbText
  0
TEXT
  5
1877C
330
747D
100
AcDbEntity
  8
文字
 62
     7
 48
50.0
100
AcDbText
 10
13271.19032244792
 20
9740.013745883729
 30
0.0
 40
100.0
  1
8
  7
STYLE1
100
AcDbText
  0
TEXT
  5
1877D
330
747D
100
AcDbEntity
  8
文字
 62
     7
 48
50.0
100
AcDbText
 10
13271.19032244792
 20
9570.013745883729
 30
0.0
 40
100.0
  1
9
  7
STYLE1
100
AcDbText
  0
TEXT
  5
1877E
330
747D
100
AcDbEntity
  8
文字
 62
     7
 48
50.0
100
AcDbText
 10
13271.19032244792
 20
9910.01374588373
 30
0.0
 40
100.0
  1
7
  7
STYLE1
100
AcDbText
  0
TEXT
  5
1877F
330
747D
100
AcDbEntity
  8
文字
 62
     7
 48
50.0
100
AcDbText
 10
13271.19032244792
 20
10080.01374588373
 30
0.0
 40
100.0
  1
6
  7
STYLE1
100
AcDbText
  0
LINE
  5
18780
330
747D
100
AcDbEntity
  8
仕様書枠
 48
50.0
100
AcDbLine
 10
16307.19999999999
 20
9539.599999999998
 30
0.0
 11
13127.19999999999
 21
9539.6
 31
0.0
  0
LINE
  5
18781
330
747D
100
AcDbEntity
  8
仕様書枠
 48
50.0
100
AcDbLine
 10
16307.19999999999
 20
9199.599999999998
 30
0.0
 11
13127.19999999999
 21
9199.600000000001
 31
0.0
  0
LINE
  5
18782
330
747D
100
AcDbEntity
  8
仕様書枠
 48
50.0
100
AcDbLine
 10
16307.19999999999
 20
9369.599999999998
 30
0.0
 11
13127.19999999999
 21
9369.600000000001
 31
0.0
  0
LINE
  5
18783
330
747D
100
AcDbEntity
  8
仕様書枠
 48
50.0
100
AcDbLine
 10
16307.19999999999
 20
10049.6
 30
0.0
 11
13127.2
 21
10049.6
 31
0.0
  0
LINE
  5
18784
330
747D
100
AcDbEntity
  8
仕様書枠
 48
50.0
100
AcDbLine
 10
16307.19999999999
 20
9709.6
 30
0.0
 11
13127.2
 21
9709.600000000001
 31
0.0
  0
TEXT
  5
18785
330
747D
100
AcDbEntity
  8
文字
 62
     7
 48
50.0
100
AcDbText
 10
13248.77747366448
 20
9230.013745883727
 30
0.0
 40
100.0
  1
11
  7
STYLE1
100
AcDbText
  0
TEXT
  5
18786
330
747D
100
AcDbEntity
  8
文字
 62
     7
 48
50.0
100
AcDbText
 10
13583.11819016569
 20
9060.013745883727
 30
0.0
 40
100.0
  1
シャッターカバー
 41
0.9
  7
STYLE1
100
AcDbText
  0
LINE
  5
18787
330
747D
100
AcDbEntity
  8
仕様書枠
 48
50.0
100
AcDbLine
 10
16307.19999999999
 20
9029.6
 30
0.0
 11
13127.19999999999
 21
9029.6
 31
0.0
  0
TEXT
  5
18789
330
747D
100
AcDbEntity
  8
文字
 62
     7
 48
50.0
100
AcDbText
 10
13583.11819016569
 20
8720.013745883729
 30
0.0
 40
100.0
  1
棚板（別売）
  7
STYLE1
100
AcDbText
  0
LINE
  5
1878A
330
747D
100
AcDbEntity
  8
仕様書枠
 48
50.0
100
AcDbLine
 10
16307.19999999999
 20
8859.6
 30
0.0
 11
13127.19999999999
 21
8859.600000000002
 31
0.0
  0
TEXT
  5
1878B
330
747D
100
AcDbEntity
  8
文字
 62
     7
 48
50.0
100
AcDbText
 10
13583.11819016569
 20
9230.013745883731
 30
0.0
 40
100.0
  1
シャッター
  7
STYLE1
100
AcDbText
  0
TEXT
  5
1878C
330
747D
100
AcDbEntity
  8
文字
 62
     7
 48
50.0
100
AcDbText
 10
13248.77747366448
 20
8890.013745883729
 30
0.0
 40
100.0
  1
13
  7
STYLE1
100
AcDbText
  0
TEXT
  5
1878D
330
747D
100
AcDbEntity
  8
文字
 62
     7
 48
50.0
100
AcDbText
 10
13248.77747366448
 20
9060.013745883729
 30
0.0
 40
100.0
  1
12
  7
STYLE1
100
AcDbText
  0
TEXT
  5
1878E
330
747D
100
AcDbEntity
  8
文字
 62
     7
 48
50.0
100
AcDbText
 10
15022.63965474517
 20
10930.01374588372
 30
0.0
 40
100.0
  1
F12            1.2
  7
STYLE1
100
AcDbText
  0
TEXT
  5
18790
330
747D
100
AcDbEntity
  8
文字
 62
     7
 48
50.0
100
AcDbText
 10
15022.63965474516
 20
10590.01374588372
 30
0.0
 40
100.0
  1
Y10            1.0
  7
STYLE1
100
AcDbText
  0
TEXT
  5
18791
330
747D
100
AcDbEntity
  8
文字
 62
     7
 48
50.0
100
AcDbText
 10
15022.63965474516
 20
10420.01374588372
 30
0.0
 40
100.0
  1
Y10            1.0
  7
STYLE1
100
AcDbText
  0
TEXT
  5
18792
330
747D
100
AcDbEntity
  8
文字
 62
     7
 48
50.0
100
AcDbText
 10
15022.63965474516
 20
10250.01374588372
 30
0.0
 40
100.0
  1
Y10            0.7
  7
STYLE1
100
AcDbText
  0
TEXT
  5
18793
330
747D
100
AcDbEntity
  8
文字
 62
     7
 48
50.0
100
AcDbText
 10
15022.63965474516
 20
10080.01374588372
 30
0.0
 40
100.0
  1
Y10            0.7
  7
STYLE1
100
AcDbText
  0
TEXT
  5
18795
330
747D
100
AcDbEntity
  8
文字
 62
     7
 48
50.0
100
AcDbText
 10
15022.63965474517
 20
9570.013745883725
 30
0.0
 40
100.0
  1
Y10            0.5
  7
STYLE1
100
AcDbText
  0
TEXT
  5
18796
330
747D
100
AcDbEntity
  8
文字
 62
     7
 48
50.0
100
AcDbText
 10
15022.63965474516
 20
9400.013745883725
 30
0.0
 40
100.0
  1
F12            0.6
  7
STYLE1
100
AcDbText
  0
TEXT
  5
18799
330
747D
100
AcDbEntity
  8
文字
 62
     7
 48
50.0
100
AcDbText
 10
15022.63965474516
 20
9230.013745883727
 30
0.0
 40
100.0
  1
Z08            0.5
  7
STYLE1
100
AcDbText
  0
TEXT
  5
1879A
330
747D
100
AcDbEntity
  8
文字
 62
     7
 48
50.0
100
AcDbText
 10
15022.63965474515
 20
8720.013745883727
 30
0.0
 40
100.0
  1
F12            0.6
  7
STYLE1
100
AcDbText
  0
LINE
  5
1879B
330
747D
100
AcDbEntity
  8
仕様書枠
 48
50.0
100
AcDbLine
 10
16307.19999999999
 20
8519.599999999998
 30
0.0
 11
13127.19999999999
 21
8519.600000000002
 31
0.0
  0
LINE
  5
1879C
330
747D
100
AcDbEntity
  8
仕様書枠
 48
50.0
100
AcDbLine
 10
16307.19999999999
 20
8349.599999999998
 30
0.0
 11
13127.19999999999
 21
8349.6
 31
0.0
  0
LINE
  5
1879D
330
747D
100
AcDbEntity
  8
仕様書枠
 48
50.0
100
AcDbLine
 10
16307.19999999999
 20
8179.599999999998
 30
0.0
 11
13127.19999999999
 21
8179.6
 31
0.0
  0
TEXT
  5
1879E
330
747D
100
AcDbEntity
  8
文字
 62
     7
 48
50.0
100
AcDbText
 10
13229.83081656555
 20
8550.013745883727
 30
0.0
 40
100.0
  1
F12→溶融亜鉛めっき鋼板(JIS G 3302)
  7
STYLE1
100
AcDbText
  0
TEXT
  5
1879F
330
747D
100
AcDbEntity
  8
文字
 62
     7
 48
50.0
100
AcDbText
 10
13229.83081656555
 20
8380.013745883728
 30
0.0
 40
100.0
  1
Y10→溶融亜鉛-5％アルミニウム合金めっき鋼板(JIS G 3317)
 41
0.9
  7
STYLE1
100
AcDbText
  0
TEXT
  5
187A0
330
747D
100
AcDbEntity
  8
文字
 62
     7
 48
50.0
100
AcDbText
 10
13229.83081656555
 20
8210.013745883729
 30
0.0
 40
100.0
  1
Z08→塗装溶融亜鉛めっき鋼板(JIS G 3313)
  7
STYLE1
100
AcDbText
  0
LINE
  5
187A1
330
747D
100
AcDbEntity
  8
仕様書枠
 48
50.0
100
AcDbLine
 10
13127.2
 20
11239.6
 30
0.0
 11
13127.2
 21
8179.600000000002
 31
0.0
  0
TEXT
  5
18871
330
747D
100
AcDbEntity
  8
文字
 62
     7
 48
50.0
100
AcDbText
 10
14847.53274566167
 20
9741.52081350642
 30
0.0
 40
100.0
  1
F12    1.2(多雪地型  2.3)
  7
STYLE1
100
AcDbText
  0
TEXT
  5
18EBC
330
747D
100
AcDbEntity
  8
文字
 62
     7
 48
50.0
100
AcDbText
 10
14235.64421099482
 20
483.8967129911416
 30
0.0
 40
160.0
  1
FXN-2630SL-N
  7
MSPゴシック
100
AcDbText
  0
LINE
  5
18EBD
330
747D
100
AcDbEntity
  8
部品1
100
AcDbLine
 10
12010.50894806608
 20
2302.359204196229
 30
0.0
 11
11617.51173385724
 21
2202.359204196229
 31
0.0
  0
LINE
  5
18EBE
330
747D
100
AcDbEntity
  8
破線
 48
5.0
100
AcDbLine
 10
12010.50894806608
 20
1952.359204196229
 30
0.0
 11
12065.50894806608
 21
1952.359204196229
 31
0.0
  0
LINE
  5
18EBF
330
747D
100
AcDbEntity
  8
破線
 48
5.0
100
AcDbLine
 10
12065.50894806608
 20
2202.359204196229
 30
0.0
 11
12065.50894806608
 21
1952.359204196229
 31
0.0
  0
LINE
  5
18EC0
330
747D
100
AcDbEntity
  8
破線
 48
5.0
100
AcDbLine
 10
12010.50894806608
 20
2202.359204196229
 30
0.0
 11
12010.50894806608
 21
1952.359204196229
 31
0.0
  0
DIMENSION
  5
18EC5
330
747D
100
AcDbEntity
  8
寸法
100
AcDbDimension
  2
*D26
 10
11166.75881888282
 20
2352.359204196224
 30
0.0
 11
11066.75881888282
 21
3247.359204196227
 31
0.0
 70
    32
 71
     5
 42
1790.000000000002
  3
INABA_S40G
100
AcDbAlignedDimension
 13
12010.50894806608
 23
4142.359204196226
 33
0.0
 14
12010.50894806608
 24
2352.359204196224
 34
0.0
 50
90.0
100
AcDbRotatedDimension
1001
ACAD
1000
DSTYLE
1002
{
1070
   174
1070
     0
1070
   272
1070
     1
1070
   288
1070
     0
1070
   341
1005
0
1002
}
  0
DIMENSION
  5
18EC6
330
747D
100
AcDbEntity
  8
寸法
100
AcDbDimension
  2
*D27
 10
10866.75881888282
 20
4377.359204196229
 30
0.0
 11
10766.7470078592
 21
3339.859204196229
 31
0.0
 70
    32
 71
     5
 42
2075.000000000005
  3
INABA_S40G
100
AcDbAlignedDimension
 13
12010.50894806608
 23
2302.359204196224
 33
0.0
 14
11950.50894806608
 24
4377.359204196229
 34
0.0
 50
90.0
100
AcDbRotatedDimension
1001
ACAD
1000
DSTYLE
1002
{
1070
   174
1070
     0
1070
   272
1070
     1
1070
   288
1070
     0
1070
   341
1005
0
1002
}
  0
DIMENSION
  5
18EC7
330
747D
100
AcDbEntity
  8
寸法
100
AcDbDimension
  2
*D28
 10
15765.43610603821
 20
4322.359204196231
 30
0.0
 11
15665.42429501458
 21
3312.359204196234
 31
0.0
 70
    32
 71
     5
 42
2020.000000000001
  3
INABA_S40G
100
AcDbAlignedDimension
 13
15060.50894806608
 23
2302.359204196231
 33
0.0
 14
15140.50894806608
 24
4322.359204196231
 34
0.0
 50
90.0
100
AcDbRotatedDimension
1001
ACAD
1000
DSTYLE
1002
{
1070
   174
1070
     0
1070
   272
1070
     1
1070
   288
1070
     0
1070
   341
1005
0
1002
}
  0
LINE
  5
18EC8
330
747D
100
AcDbEntity
  8
細線
 48
50.0
100
AcDbLine
 10
14088.00894806608
 20
4142.359204196229
 30
0.0
 11
14088.00894806608
 21
2352.359204196231
 31
0.0
  0
LINE
  5
18EC9
330
747D
100
AcDbEntity
  8
細線
 48
50.0
100
AcDbLine
 10
14103.00894806608
 20
4142.359204196229
 30
0.0
 11
14103.00894806608
 21
2352.359204196231
 31
0.0
  0
LINE
  5
18ECA
330
747D
100
AcDbEntity
  8
細線
 48
50.0
100
AcDbLine
 10
13963.00894806608
 20
4142.359204196229
 30
0.0
 11
13963.00894806608
 21
2352.359204196231
 31
0.0
  0
LINE
  5
18ECB
330
747D
100
AcDbEntity
  8
細線
 48
50.0
100
AcDbLine
 10
13948.00894806608
 20
4142.359204196229
 30
0.0
 11
13948.00894806608
 21
2352.359204196231
 31
0.0
  0
LINE
  5
18ECC
330
747D
100
AcDbEntity
  8
細線
 48
50.0
100
AcDbLine
 10
13808.00894806608
 20
4142.359204196229
 30
0.0
 11
13808.00894806608
 21
2352.359204196231
 31
0.0
  0
LINE
  5
18ECD
330
747D
100
AcDbEntity
  8
細線
 48
50.0
100
AcDbLine
 10
13823.00894806608
 20
4142.359204196229
 30
0.0
 11
13823.00894806608
 21
2352.359204196231
 31
0.0
  0
LINE
  5
18ECE
330
747D
100
AcDbEntity
  8
部品1
100
AcDbLine
 10
13745.50894806608
 20
4142.359204196229
 30
0.0
 11
13745.50894806608
 21
2352.359204196231
 31
0.0
  0
LINE
  5
18ECF
330
747D
100
AcDbEntity
  8
部品1
100
AcDbLine
 10
13389.0222205896
 20
4502.563592159247
 30
0.0
 11
13714.47723423263
 21
4485.045533200387
 31
0.0
  0
ARC
  5
18ED0
330
747D
100
AcDbEntity
  8
部品1
100
AcDbCircle
 10
15126.13648388002
 20
4216.382961462023
 30
0.0
 40
0.7
100
AcDbArc
 50
275.0921697642079
 51
354.1866997667606
  0
ARC
  5
18ED1
330
747D
100
AcDbEntity
  8
部品1
100
AcDbCircle
 10
15136.99582962935
 20
4293.426216279946
 30
0.0
 40
0.7
100
AcDbArc
 50
275.0921697642079
 51
354.1866997665532
  0
ARC
  5
18ED2
330
747D
100
AcDbEntity
  8
部品1
100
AcDbCircle
 10
15137.32423487195
 20
4289.740819422856
 30
0.0
 40
3.0
100
AcDbArc
 50
95.09216976420788
 51
174.1866997665532
  0
ARC
  5
18ED3
330
747D
100
AcDbEntity
  8
部品1
100
AcDbCircle
 10
15126.46488912262
 20
4212.697564604932
 30
0.0
 40
3.0
100
AcDbArc
 50
95.09216976420788
 51
174.1866997665532
  0
ARC
  5
18ED4
330
747D
100
AcDbEntity
  8
部品1
 48
50.0
100
AcDbCircle
 10
15115.43675384752
 20
4203.10682000105
 30
0.0
 40
7.0
100
AcDbArc
 50
267.8377559869492
 51
354.1866997665532
  0
ARC
  5
18ED5
330
747D
100
AcDbEntity
  8
部品1
 48
50.0
100
AcDbCircle
 10
15132.75885031203
 20
4314.009367143223
 30
0.0
 40
7.0
100
AcDbArc
 50
354.1866997665532
 51
87.03587545283228
  0
LINE
  5
18ED6
330
747D
100
AcDbEntity
  8
部品1
 48
50.0
100
AcDbLine
 10
15123.48031745201
 20
4213.001426321835
 30
0.0
 11
15122.40075441227
 21
4202.397809328277
 31
0.0
  0
LINE
  5
18ED7
330
747D
100
AcDbEntity
  8
部品1
 48
50.0
100
AcDbLine
 10
15134.33966320133
 20
4290.04468113976
 30
0.0
 11
15126.8328839365
 21
4216.312060394748
 31
0.0
  0
LINE
  5
18ED8
330
747D
100
AcDbEntity
  8
部品1
 48
50.0
100
AcDbLine
 10
15139.72285087679
 20
4313.300356470448
 30
0.0
 11
15137.69222968582
 21
4293.355315212669
 31
0.0
  0
ARC
  5
18ED9
330
747D
100
AcDbEntity
  8
部品1
100
AcDbCircle
 10
11956.54603993745
 20
4256.173363155133
 30
0.0
 40
0.7
100
AcDbArc
 50
181.0932240292114
 51
260.1877540314845
  0
ARC
  5
18EDA
330
747D
100
AcDbEntity
  8
部品1
100
AcDbCircle
 10
11951.77336633984
 20
4349.039141355252
 30
0.0
 40
0.7
100
AcDbArc
 50
181.0932240292114
 51
260.1877540314845
  0
ARC
  5
18EDB
330
747D
100
AcDbEntity
  8
部品1
100
AcDbCircle
 10
11951.14281193682
 20
4345.393266817855
 30
0.0
 40
3.0
100
AcDbArc
 50
1.093224029315636
 51
80.18775403169875
  0
ARC
  5
18EDC
330
747D
100
AcDbEntity
  8
部品1
100
AcDbCircle
 10
11955.91548553442
 20
4252.527488617736
 30
0.0
 40
3.0
100
AcDbArc
 50
1.093224029315636
 51
80.18775403169875
  0
ARC
  5
18EDD
330
747D
100
AcDbEntity
  8
部品1
 48
50.0
100
AcDbCircle
 10
11966.11561790962
 20
4242.135245235255
 30
0.0
 40
7.0
100
AcDbArc
 50
181.0932240293156
 51
267.8377559869492
  0
ARC
  5
18EDE
330
747D
100
AcDbEntity
  8
部品1
 48
50.0
100
AcDbCircle
 10
11957.69195980753
 20
4369.08630476835
 30
0.0
 40
7.0
100
AcDbArc
 50
87.03587545283228
 51
181.0932240293156
  0
LINE
  5
18EDF
330
747D
100
AcDbEntity
  8
部品1
 48
50.0
100
AcDbLine
 10
11958.91493946085
 20
4252.584726220919
 30
0.0
 11
11959.11689208128
 21
4242.001690827827
 31
0.0
  0
LINE
  5
18EE0
330
747D
100
AcDbEntity
  8
細線
 48
50.0
100
AcDbLine
 10
11956.30884640418
 20
4255.514774339728
 30
0.0
 11
15126.31251083482
 21
4215.705455365234
 31
0.0
  0
LINE
  5
18EE1
330
747D
100
AcDbEntity
  8
細線
 48
50.0
100
AcDbLine
 10
11951.5483711669
 20
4348.37628603759
 30
0.0
 11
15137.18435591207
 21
4292.752081396763
 31
0.0
  0
LINE
  5
18EE2
330
747D
100
AcDbEntity
  8
部品1
 48
50.0
100
AcDbLine
 10
11954.14226586325
 20
4345.450504421038
 30
0.0
 11
11955.84616735461
 21
4256.160007714391
 31
0.0
  0
LINE
  5
18EE3
330
747D
100
AcDbEntity
  8
部品1
 48
50.0
100
AcDbLine
 10
11950.69323397919
 20
4368.952750360922
 30
0.0
 11
11951.073493757
 21
4349.02578591451
 31
0.0
  0
LINE
  5
18EE4
330
747D
100
AcDbEntity
  8
細線
 48
50.0
100
AcDbLine
 10
15107.47823125977
 20
4321.512626675699
 30
0.0
 11
15102.76126517809
 21
4196.580410740781
 31
0.0
  0
LINE
  5
18EE5
330
747D
100
AcDbEntity
  8
細線
 48
50.0
100
AcDbLine
 10
11983.50894806608
 20
4374.758880571634
 30
0.0
 11
11978.21984651057
 21
4234.67324794428
 31
0.0
  0
LINE
  5
18EE6
330
747D
100
AcDbEntity
  8
部品1
100
AcDbLine
 10
11965.85151266803
 20
4235.140229265197
 30
0.0
 11
15115.17264860593
 21
4196.111804030991
 31
0.0
  0
LINE
  5
18EE7
330
747D
100
AcDbEntity
  8
部品1
100
AcDbLine
 10
11958.05393442304
 20
4376.076939530496
 30
0.0
 11
15133.12082492755
 21
4321.000001905368
 31
0.0
  0
LINE
  5
18EE8
330
747D
100
AcDbEntity
  8
部品1
 48
50.0
100
AcDbLine
 10
13414.47723423263
 20
4501.245533200386
 30
0.0
 11
13714.47723423263
 21
4501.245533200386
 31
0.0
  0
LINE
  5
18EE9
330
747D
100
AcDbEntity
  8
部品1
 48
50.0
100
AcDbLine
 10
13714.47723423263
 20
4501.245533200386
 30
0.0
 11
13714.47723423263
 21
4485.045533200387
 31
0.0
  0
TEXT
  5
18EEA
330
747D
100
AcDbEntity
  8
部品1
 48
50.0
100
AcDbText
 10
13402.74506945636
 20
4537.129555352819
 30
0.0
 40
120.0
  1
1000
  7
STYLE1
100
AcDbText
  0
TEXT
  5
18EEB
330
747D
100
AcDbEntity
  8
部品1
 48
50.0
100
AcDbText
 10
13880.37809212145
 20
4399.628297134536
 30
0.0
 40
120.0
  1
32
 50
90.0
  7
STYLE1
100
AcDbText
  0
LINE
  5
18EEC
330
747D
100
AcDbEntity
  8
細線
 48
50.0
100
AcDbLine
 10
13403.00894806608
 20
4142.359204196229
 30
0.0
 11
13403.00894806608
 21
2352.359204196229
 31
0.0
  0
LINE
  5
18EED
330
747D
100
AcDbEntity
  8
細線
 48
50.0
100
AcDbLine
 10
13388.00894806608
 20
4142.359204196229
 30
0.0
 11
13388.00894806608
 21
2352.359204196229
 31
0.0
  0
LINE
  5
18EEE
330
747D
100
AcDbEntity
  8
細線
 48
50.0
100
AcDbLine
 10
13528.00894806608
 20
4142.359204196229
 30
0.0
 11
13528.00894806608
 21
2352.359204196229
 31
0.0
  0
LINE
  5
18EEF
330
747D
100
AcDbEntity
  8
細線
 48
50.0
100
AcDbLine
 10
13543.00894806608
 20
4142.359204196229
 30
0.0
 11
13543.00894806608
 21
2352.359204196229
 31
0.0
  0
LINE
  5
18EF0
330
747D
100
AcDbEntity
  8
細線
 48
50.0
100
AcDbLine
 10
13683.00894806608
 20
4142.359204196229
 30
0.0
 11
13683.00894806608
 21
2352.359204196229
 31
0.0
  0
LINE
  5
18EF1
330
747D
100
AcDbEntity
  8
細線
 48
50.0
100
AcDbLine
 10
13668.00894806608
 20
4142.359204196229
 30
0.0
 11
13668.00894806608
 21
2352.359204196229
 31
0.0
  0
LINE
  5
18EF2
330
747D
100
AcDbEntity
  8
部品1
100
AcDbLine
 10
15005.50894806607
 20
4142.359204196233
 30
0.0
 11
15005.50894806607
 21
2352.359204196233
 31
0.0
  0
LINE
  5
18EF3
330
747D
100
AcDbEntity
  8
部品1
100
AcDbLine
 10
12010.50894806608
 20
4142.359204196229
 30
0.0
 11
15060.50894806607
 21
4142.359204196229
 31
0.0
  0
LINE
  5
18EF4
330
747D
100
AcDbEntity
  8
部品1
100
AcDbLine
 10
12065.50894806609
 20
2352.359204196229
 30
0.0
 11
15060.50894806608
 21
2352.359204196231
 31
0.0
  0
LINE
  5
18EF5
330
747D
100
AcDbEntity
  8
部品1
100
AcDbLine
 10
12065.50894806608
 20
4142.359204196229
 30
0.0
 11
12065.50894806609
 21
2202.359204196229
 31
0.0
  0
LINE
  5
18EF6
330
747D
100
AcDbEntity
  8
部品1
100
AcDbLine
 10
12010.50894806608
 20
4234.501642125107
 30
0.0
 11
12010.50894806608
 21
2202.359204196229
 31
0.0
  0
DIMENSION
  5
18EF7
330
747D
100
AcDbEntity
  8
寸法
100
AcDbDimension
  2
*D29
 10
11166.75881888282
 20
2302.35920419623
 30
0.0
 11
11166.75881888282
 21
1996.311960101739
 31
0.0
 70
   160
 71
     5
 42
50.0
  3
INABA_S40G
100
AcDbAlignedDimension
 13
12010.50894806608
 23
2352.359204196229
 33
0.0
 14
11955.50894806608
 24
2302.359204196229
 34
0.0
 50
90.0
100
AcDbRotatedDimension
1001
ACAD
1000
DSTYLE
1002
{
1070
   174
1070
     0
1070
   272
1070
     1
1070
   288
1070
     0
1070
   341
1005
0
1002
}
  0
LINE
  5
18EF8
330
747D
100
AcDbEntity
  8
部品1
100
AcDbLine
 10
12485.50894806608
 20
4142.359204196229
 30
0.0
 11
12485.50894806608
 21
2352.359204196229
 31
0.0
  0
LINE
  5
18EF9
330
747D
100
AcDbEntity
  8
部品1
100
AcDbLine
 10
15060.50894806608
 20
4196.78923197735
 30
0.0
 11
15060.50894806608
 21
2202.359204196231
 31
0.0
  0
LINE
  5
18EFA
330
747D
100
AcDbEntity
  8
部品1
100
AcDbLine
 10
15005.50894806608
 20
4142.359204196231
 30
0.0
 11
15005.50894806608
 21
2352.359204196231
 31
0.0
  0
DIMENSION
  5
18EFB
330
747D
100
AcDbEntity
  8
寸法
 48
50.0
100
AcDbDimension
  2
*D30
 10
12010.50894806608
 20
4776.016657775535
 30
0.0
 11
13535.50894806608
 21
4776.016657775535
 31
0.0
 70
   160
  1
柱外寸法<>
 71
     5
 42
3050.0
  3
INABA_S40G
100
AcDbAlignedDimension
 13
15060.50894806608
 23
4324.169883807885
 33
0.0
 14
12010.50894806608
 24
4373.360822319205
 34
0.0
100
AcDbRotatedDimension
1001
ACAD
1000
DSTYLE
1002
{
1070
   174
1070
     0
1070
   272
1070
     1
1070
   288
1070
     0
1070
   341
1005
0
1002
}
  0
DIMENSION
  5
18EFC
330
747D
100
AcDbEntity
  8
寸法
 48
50.0
100
AcDbDimension
  2
*D31
 10
11950.50894806608
 20
4776.016657775533
 30
0.0
 11
11640.87115279049
 21
4776.016657775533
 31
0.0
 70
   160
 71
     5
 42
60.0
  3
INABA_S40G
100
AcDbAlignedDimension
 13
12010.50894806608
 23
4373.360822319205
 33
0.0
 14
11950.50894806608
 24
4377.359204196234
 34
0.0
100
AcDbRotatedDimension
1001
ACAD
1000
DSTYLE
1002
{
1070
   174
1070
     0
1070
   272
1070
     1
1070
   288
1070
     0
1070
   341
1005
0
1002
}
  0
DIMENSION
  5
18EFD
330
747D
100
AcDbEntity
  8
寸法
 48
50.0
100
AcDbDimension
  2
*D32
 10
11950.50894806608
 20
5006.130250561811
 30
0.0
 11
13545.50894806608
 21
5006.130250561811
 31
0.0
 70
   160
 71
     5
 42
3190.0
  3
INABA_S40G
100
AcDbAlignedDimension
 13
15140.50894806608
 23
4322.359204196231
 33
0.0
 14
11950.50894806608
 24
4377.359204196234
 34
0.0
100
AcDbRotatedDimension
1001
ACAD
1000
DSTYLE
1002
{
1070
   174
1070
     0
1070
   272
1070
     1
1070
   288
1070
     0
1070
   341
1005
0
1002
}
  0
LINE
  5
18EFE
330
747D
100
AcDbEntity
  8
部品1
100
AcDbLine
 10
12065.50894806609
 20
2302.359204196229
 30
0.0
 11
15060.50894806608
 21
2302.359204196229
 31
0.0
  0
LINE
  5
18EFF
330
747D
100
AcDbEntity
  8
細線
 48
50.0
100
AcDbLine
 10
12563.00894806608
 20
4142.359204196229
 30
0.0
 11
12563.00894806608
 21
2352.359204196229
 31
0.0
  0
LINE
  5
18F00
330
747D
100
AcDbEntity
  8
細線
 48
50.0
100
AcDbLine
 10
12548.00894806608
 20
4142.359204196229
 30
0.0
 11
12548.00894806608
 21
2352.359204196229
 31
0.0
  0
LINE
  5
18F01
330
747D
100
AcDbEntity
  8
細線
 48
50.0
100
AcDbLine
 10
12688.00894806608
 20
4142.359204196229
 30
0.0
 11
12688.00894806608
 21
2352.359204196229
 31
0.0
  0
LINE
  5
18F02
330
747D
100
AcDbEntity
  8
細線
 48
50.0
100
AcDbLine
 10
12703.00894806608
 20
4142.359204196229
 30
0.0
 11
12703.00894806608
 21
2352.359204196229
 31
0.0
  0
LINE
  5
18F03
330
747D
100
AcDbEntity
  8
細線
 48
50.0
100
AcDbLine
 10
12843.00894806608
 20
4142.359204196229
 30
0.0
 11
12843.00894806608
 21
2352.359204196229
 31
0.0
  0
LINE
  5
18F04
330
747D
100
AcDbEntity
  8
細線
 48
50.0
100
AcDbLine
 10
12828.00894806608
 20
4142.359204196229
 30
0.0
 11
12828.00894806608
 21
2352.359204196229
 31
0.0
  0
LINE
  5
18F05
330
747D
100
AcDbEntity
  8
細線
 48
50.0
100
AcDbLine
 10
12408.00894806608
 20
4142.359204196229
 30
0.0
 11
12408.00894806608
 21
2352.359204196229
 31
0.0
  0
LINE
  5
18F06
330
747D
100
AcDbEntity
  8
細線
 48
50.0
100
AcDbLine
 10
12423.00894806608
 20
4142.359204196229
 30
0.0
 11
12423.00894806608
 21
2352.359204196229
 31
0.0
  0
LINE
  5
18F07
330
747D
100
AcDbEntity
  8
細線
 48
50.0
100
AcDbLine
 10
12283.00894806608
 20
4142.359204196229
 30
0.0
 11
12283.00894806608
 21
2352.359204196229
 31
0.0
  0
LINE
  5
18F08
330
747D
100
AcDbEntity
  8
細線
 48
50.0
100
AcDbLine
 10
12268.00894806608
 20
4142.359204196229
 30
0.0
 11
12268.00894806608
 21
2352.359204196229
 31
0.0
  0
LINE
  5
18F09
330
747D
100
AcDbEntity
  8
細線
 48
50.0
100
AcDbLine
 10
12128.00894806608
 20
4142.359204196229
 30
0.0
 11
12128.00894806608
 21
2352.359204196229
 31
0.0
  0
LINE
  5
18F0A
330
747D
100
AcDbEntity
  8
細線
 48
50.0
100
AcDbLine
 10
12143.00894806608
 20
4142.359204196229
 30
0.0
 11
12143.00894806608
 21
2352.359204196229
 31
0.0
  0
DIMENSION
  5
18F0B
330
747D
100
AcDbEntity
  8
寸法
 48
50.0
100
AcDbDimension
  2
*D33
 10
15140.50894806608
 20
4776.016657775535
 30
0.0
 11
15346.55619216057
 21
4776.016657775535
 31
0.0
 70
   160
 71
     5
 42
80.0
  3
INABA_S40G
100
AcDbAlignedDimension
 13
15060.50894806608
 23
4324.169883807885
 33
0.0
 14
15140.50894806608
 24
4322.359204196232
 34
0.0
100
AcDbRotatedDimension
1001
ACAD
1000
DSTYLE
1002
{
1070
   174
1070
     0
1070
   272
1070
     1
1070
   288
1070
     0
1070
   341
1005
0
1002
}
  0
LINE
  5
18F0C
330
747D
100
AcDbEntity
  8
部品1
100
AcDbLine
 10
12905.50894806608
 20
4142.359204196229
 30
0.0
 11
12905.50894806608
 21
2352.359204196229
 31
0.0
  0
LINE
  5
18F0D
330
747D
100
AcDbEntity
  8
細線
 48
50.0
100
AcDbLine
 10
13248.00894806608
 20
4142.359204196229
 30
0.0
 11
13248.00894806609
 21
2352.359204196229
 31
0.0
  0
LINE
  5
18F0E
330
747D
100
AcDbEntity
  8
細線
 48
50.0
100
AcDbLine
 10
13263.00894806608
 20
4142.359204196229
 30
0.0
 11
13263.00894806608
 21
2352.359204196229
 31
0.0
  0
LINE
  5
18F0F
330
747D
100
AcDbEntity
  8
細線
 48
50.0
100
AcDbLine
 10
13123.00894806608
 20
4142.359204196229
 30
0.0
 11
13123.00894806608
 21
2352.359204196229
 31
0.0
  0
LINE
  5
18F10
330
747D
100
AcDbEntity
  8
細線
 48
50.0
100
AcDbLine
 10
13108.00894806608
 20
4142.359204196229
 30
0.0
 11
13108.00894806608
 21
2352.359204196229
 31
0.0
  0
LINE
  5
18F11
330
747D
100
AcDbEntity
  8
細線
 48
50.0
100
AcDbLine
 10
12968.00894806608
 20
4142.359204196229
 30
0.0
 11
12968.00894806608
 21
2352.359204196229
 31
0.0
  0
LINE
  5
18F12
330
747D
100
AcDbEntity
  8
細線
 48
50.0
100
AcDbLine
 10
12983.00894806608
 20
4142.359204196229
 30
0.0
 11
12983.00894806608
 21
2352.359204196229
 31
0.0
  0
LINE
  5
18F13
330
747D
100
AcDbEntity
  8
部品1
100
AcDbLine
 10
13325.50894806608
 20
4142.359204196229
 30
0.0
 11
13325.50894806608
 21
2352.359204196229
 31
0.0
  0
LINE
  5
18F14
330
747D
100
AcDbEntity
  8
細線
 48
50.0
100
AcDbLine
 10
14663.00894806608
 20
4142.359204196231
 30
0.0
 11
14663.00894806608
 21
2352.359204196231
 31
0.0
  0
LINE
  5
18F15
330
747D
100
AcDbEntity
  8
細線
 48
50.0
100
AcDbLine
 10
14648.00894806608
 20
4142.359204196231
 30
0.0
 11
14648.00894806608
 21
2352.359204196231
 31
0.0
  0
LINE
  5
18F16
330
747D
100
AcDbEntity
  8
細線
 48
50.0
100
AcDbLine
 10
14788.00894806608
 20
4142.359204196231
 30
0.0
 11
14788.00894806608
 21
2352.359204196231
 31
0.0
  0
LINE
  5
18F17
330
747D
100
AcDbEntity
  8
細線
 48
50.0
100
AcDbLine
 10
14803.00894806608
 20
4142.359204196231
 30
0.0
 11
14803.00894806608
 21
2352.359204196231
 31
0.0
  0
LINE
  5
18F18
330
747D
100
AcDbEntity
  8
細線
 48
50.0
100
AcDbLine
 10
14943.00894806608
 20
4142.359204196231
 30
0.0
 11
14943.00894806608
 21
2352.359204196231
 31
0.0
  0
LINE
  5
18F19
330
747D
100
AcDbEntity
  8
細線
 48
50.0
100
AcDbLine
 10
14928.00894806608
 20
4142.359204196231
 30
0.0
 11
14928.00894806608
 21
2352.359204196231
 31
0.0
  0
DIMENSION
  5
18F1A
330
747D
100
AcDbEntity
  8
寸法
 48
50.0
100
AcDbDimension
  2
*D34
 10
11389.90054129769
 20
4251.704463069562
 30
0.0
 11
11400.56601655661
 21
4622.551126311262
 31
0.0
 70
   161
 71
     5
 42
141.0
  3
INABA_S40G
100
AcDbAlignedDimension
 13
11969.90496822466
 23
4376.081953030909
 33
0.0
 14
11965.85151266803
 24
4235.140229265197
 34
0.0
1001
ACAD
1000
DSTYLE
1002
{
1070
   174
1070
     0
1070
   272
1070
     1
1070
   288
1070
     0
1070
   341
1005
0
1002
}
  0
LINE
  5
18F1B
330
747D
100
AcDbEntity
  8
部品1
100
AcDbLine
 10
14165.50894806607
 20
4142.359204196229
 30
0.0
 11
14165.50894806607
 21
2352.359204196231
 31
0.0
  0
LINE
  5
18F1C
330
747D
100
AcDbEntity
  8
細線
 48
50.0
100
AcDbLine
 10
14243.00894806608
 20
4142.359204196229
 30
0.0
 11
14243.00894806608
 21
2352.359204196231
 31
0.0
  0
LINE
  5
18F1D
330
747D
100
AcDbEntity
  8
細線
 48
50.0
100
AcDbLine
 10
14228.00894806608
 20
4142.359204196229
 30
0.0
 11
14228.00894806608
 21
2352.359204196231
 31
0.0
  0
LINE
  5
18F1E
330
747D
100
AcDbEntity
  8
細線
 48
50.0
100
AcDbLine
 10
14368.00894806608
 20
4142.359204196229
 30
0.0
 11
14368.00894806608
 21
2352.359204196231
 31
0.0
  0
LINE
  5
18F1F
330
747D
100
AcDbEntity
  8
細線
 48
50.0
100
AcDbLine
 10
14383.00894806608
 20
4142.359204196229
 30
0.0
 11
14383.00894806608
 21
2352.359204196231
 31
0.0
  0
LINE
  5
18F20
330
747D
100
AcDbEntity
  8
細線
 48
50.0
100
AcDbLine
 10
14523.00894806608
 20
4142.359204196229
 30
0.0
 11
14523.00894806608
 21
2352.359204196231
 31
0.0
  0
LINE
  5
18F21
330
747D
100
AcDbEntity
  8
細線
 48
50.0
100
AcDbLine
 10
14508.00894806608
 20
4142.359204196229
 30
0.0
 11
14508.00894806608
 21
2352.359204196231
 31
0.0
  0
LINE
  5
18F22
330
747D
100
AcDbEntity
  8
部品1
100
AcDbLine
 10
14585.50894806607
 20
4142.359204196231
 30
0.0
 11
14585.50894806607
 21
2352.359204196233
 31
0.0
  0
LWPOLYLINE
  5
18F23
330
747D
100
AcDbEntity
  8
部品1
100
AcDbPolyline
 90
        4
 70
     1
 43
0.0
 10
13163.77361495186
 20
1552.359204196229
 10
13163.77361495186
 20
1312.466882650697
 10
13927.2442811803
 20
1312.466882650697
 10
13927.2442811803
 20
1552.359204196229
  0
TEXT
  5
18F24
330
747D
100
AcDbEntity
  8
部品1
100
AcDbText
 10
13253.21971637547
 20
1359.465674977706
 30
0.0
 40
135.0
  1
側面図
  7
STYLE2
100
AcDbText
  0
LINE
  5
193A1
330
747D
100
AcDbEntity
  8
補助
  6
PHANTOM
 62
   230
 48
50.0
100
AcDbLine
 10
140.0
 20
0.0
 30
0.0
 11
140.0
 21
11409.6
 31
0.0
  0
LINE
  5
199EF
330
747D
100
AcDbEntity
  8
部品1
 48
50.0
100
AcDbLine
 10
9362.264636017233
 20
4377.359204196229
 30
0.0
 11
1387.081478230093
 21
4377.359204196237
 31
0.0
  0
LINE
  5
199F0
330
747D
100
AcDbEntity
  8
細線
 48
50.0
100
AcDbLine
 10
9367.633518902222
 20
4349.359204196235
 30
0.0
 11
1381.712595345101
 21
4349.359204196233
 31
0.0
  0
LINE
  5
199F1
330
747D
100
AcDbEntity
  8
細線
 48
50.0
100
AcDbLine
 10
9359.397488377338
 20
4257.15920419622
 30
0.0
 11
1389.948625869931
 21
4257.159204196236
 31
0.0
  0
LINE
  5
199F2
330
747D
100
AcDbEntity
  8
部品1
 48
50.0
100
AcDbLine
 10
9349.0493125562
 20
4236.359204196232
 30
0.0
 11
1400.296801691123
 21
4236.359204196236
 31
0.0
  0
LINE
  5
199F4
330
747D
100
AcDbEntity
  8
部品1
 48
50.0
100
AcDbLine
 10
6679.673057123666
 20
4236.359204196234
 30
0.0
 11
6679.673057123664
 21
4377.359204196234
 31
0.0
  0
LINE
  5
199F5
330
747D
100
AcDbEntity
  8
部品1
 48
50.0
100
AcDbLine
 10
6689.673057123666
 20
3977.359204196229
 30
0.0
 11
6689.673057123666
 21
4236.359204196234
 31
0.0
  0
LINE
  5
199F6
330
747D
100
AcDbEntity
  8
部品1
 48
50.0
100
AcDbLine
 10
4059.673057123665
 20
3977.359204196229
 30
0.0
 11
4059.673057123665
 21
4236.359204196234
 31
0.0
  0
LINE
  5
199F7
330
747D
100
AcDbEntity
  8
部品1
 48
50.0
100
AcDbLine
 10
4049.673057123666
 20
4236.359204196234
 30
0.0
 11
4049.673057123664
 21
4377.359204196234
 31
0.0
  0
LINE
  5
199F8
330
747D
100
AcDbEntity
  8
部品1
100
AcDbLine
 10
9369.253396108332
 20
4369.962678800996
 30
0.0
 11
9368.119998775982
 21
4349.986550818399
 31
0.0
  0
LINE
  5
199F9
330
747D
100
AcDbEntity
  8
細線
 48
50.0
100
AcDbLine
 10
9336.673057123663
 20
4377.359204196237
 30
0.0
 11
9336.673057123663
 21
4236.359204196237
 31
0.0
  0
LINE
  5
199FA
330
747D
100
AcDbEntity
  8
部品1
100
AcDbLine
 10
9356.682978454406
 20
4254.329143651336
 30
0.0
 11
9356.038072647299
 21
4242.962678800996
 31
0.0
  0
LINE
  5
199FB
330
747D
100
AcDbEntity
  8
部品1
100
AcDbLine
 10
9364.919008979255
 20
4346.52914365134
 30
0.0
 11
9359.883968251143
 21
4257.786550818393
 31
0.0
  0
ARC
  5
199FC
330
747D
100
AcDbEntity
  8
部品1
 48
50.0
100
AcDbCircle
 10
9367.91419187544
 20
4346.359204196238
 30
0.0
 40
3.0
100
AcDbArc
 50
97.65812720736347
 51
176.7526572096623
  0
ARC
  5
199FD
330
747D
100
AcDbEntity
  8
部品1
 48
50.0
100
AcDbCircle
 10
9359.678161350595
 20
4254.159204196233
 30
0.0
 40
3.0
100
AcDbArc
 50
97.65812720736347
 51
176.7526572096623
  0
ARC
  5
199FE
330
747D
100
AcDbEntity
  8
部品1
 48
50.0
100
AcDbCircle
 10
9359.185092242034
 20
4257.826203357921
 30
0.0
 40
0.7
100
AcDbArc
 50
277.6581272073635
 51
356.7526572096623
  0
ARC
  5
199FF
330
747D
100
AcDbEntity
  8
部品1
 48
50.0
100
AcDbCircle
 10
9367.421122766875
 20
4350.026203357921
 30
0.0
 40
0.7
100
AcDbArc
 50
277.6581272073635
 51
356.7526572096623
  0
ARC
  5
19A00
330
747D
100
AcDbEntity
  8
部品1
100
AcDbCircle
 10
9349.0493125562
 20
4243.359204196237
 30
0.0
 40
7.0
100
AcDbArc
 50
270.0
 51
356.7526572096623
  0
ARC
  5
19A01
330
747D
100
AcDbEntity
  8
部品1
100
AcDbCircle
 10
9362.264636017233
 20
4370.359204196237
 30
0.0
 40
7.0
100
AcDbArc
 50
356.7526572096623
 51
90.0
  0
DIMENSION
  5
19A02
330
747D
100
AcDbEntity
  8
寸法
 48
50.0
100
AcDbDimension
  2
*D35
 10
9319.673057123665
 20
4783.085475928143
 30
0.0
 11
9683.158338497904
 21
4783.085475928143
 31
0.0
 70
   160
 71
     5
 42
49.99999999999636
  3
INABA_S40G
100
AcDbAlignedDimension
 13
9369.673057123662
 23
4377.359204196234
 33
0.0
 14
9319.673057123665
 24
4377.359204196237
 34
0.0
100
AcDbRotatedDimension
  0
LINE
  5
19A07
330
747D
100
AcDbEntity
  8
部品1
100
AcDbLine
 10
1429.67305712366
 20
4142.359204196229
 30
0.0
 11
9319.673057123663
 21
4142.359204196229
 31
0.0
  0
LINE
  5
19A08
330
747D
100
AcDbEntity
  8
細線
 48
50.0
100
AcDbLine
 10
1412.67305712366
 20
4377.359204196233
 30
0.0
 11
1412.67305712366
 21
4236.359204196232
 31
0.0
  0
ARC
  5
19A09
330
747D
100
AcDbEntity
  8
部品1
100
AcDbCircle
 10
1387.081478230093
 20
4370.359204196232
 30
0.0
 40
7.0
100
AcDbArc
 50
90.0
 51
183.2473427903377
  0
ARC
  5
19A0A
330
747D
100
AcDbEntity
  8
部品1
100
AcDbCircle
 10
1400.296801691123
 20
4243.359204196236
 30
0.0
 40
7.0
100
AcDbArc
 50
183.2473427903377
 51
270.0
  0
ARC
  5
19A0B
330
747D
100
AcDbEntity
  8
部品1
 48
50.0
100
AcDbCircle
 10
1381.924991480451
 20
4350.02620335792
 30
0.0
 40
0.7
100
AcDbArc
 50
183.2473427903377
 51
262.3418727926365
  0
ARC
  5
19A0C
330
747D
100
AcDbEntity
  8
部品1
 48
50.0
100
AcDbCircle
 10
1390.161022005288
 20
4257.826203357915
 30
0.0
 40
0.7
100
AcDbArc
 50
183.2473427903377
 51
262.3418727926365
  0
ARC
  5
19A0D
330
747D
100
AcDbEntity
  8
部品1
 48
50.0
100
AcDbCircle
 10
1389.667952896727
 20
4254.159204196232
 30
0.0
 40
3.0
100
AcDbArc
 50
3.247342790337682
 51
82.34187279263654
  0
ARC
  5
19A0E
330
747D
100
AcDbEntity
  8
部品1
 48
50.0
100
AcDbCircle
 10
1381.431922371883
 20
4346.359204196236
 30
0.0
 40
3.0
100
AcDbArc
 50
3.247342790337682
 51
82.34187279263654
  0
LINE
  5
19A0F
330
747D
100
AcDbEntity
  8
部品1
100
AcDbLine
 10
1384.427105268069
 20
4346.529143651336
 30
0.0
 11
1389.462145996184
 21
4257.786550818393
 31
0.0
  0
LINE
  5
19A10
330
747D
100
AcDbEntity
  8
部品1
100
AcDbLine
 10
1392.66313579292
 20
4254.329143651335
 30
0.0
 11
1393.308041600028
 21
4242.962678800995
 31
0.0
  0
LINE
  5
19A11
330
747D
100
AcDbEntity
  8
部品1
100
AcDbLine
 10
1380.092718138991
 20
4369.962678800995
 30
0.0
 11
1381.22611547134
 21
4349.986550818393
 31
0.0
  0
DIMENSION
  5
19A12
330
747D
100
AcDbEntity
  8
寸法
 48
50.0
100
AcDbDimension
  2
*D36
 10
1379.67305712366
 20
4783.085475928139
 30
0.0
 11
1066.187775749413
 21
4783.085475928139
 31
0.0
 70
   160
 71
     5
 42
50.0
  3
INABA_S40G
100
AcDbAlignedDimension
 13
1429.67305712366
 23
4377.359204196237
 33
0.0
 14
1379.67305712366
 24
4377.359204196237
 34
0.0
100
AcDbRotatedDimension
1001
ACAD
1000
DSTYLE
1002
{
1002
}
  0
DIMENSION
  5
19A13
330
747D
100
AcDbEntity
  8
寸法
 48
50.0
100
AcDbDimension
  2
*D37
 10
9369.673057123662
 20
4982.994397142229
 30
0.0
 11
5374.67305712366
 21
4982.994397142229
 31
0.0
 70
   160
  1
N X 2630+100
 71
     5
 42
7990.000000000001
  3
INABA_S40G
100
AcDbAlignedDimension
 13
1379.67305712366
 23
4377.359204196234
 33
0.0
 14
9369.673057123662
 24
4377.359204196234
 34
0.0
100
AcDbRotatedDimension
  0
DIMENSION
  5
19A14
330
747D
100
AcDbEntity
  8
寸法
 48
50.0
100
AcDbDimension
  2
*D38
 10
1429.67305712366
 20
4783.085475928139
 30
0.0
 11
5374.673057123663
 21
4883.097286951761
 31
0.0
 70
    32
  1
柱外寸法 N X 2630
 71
     5
 42
7890.000000000006
  3
INABA_S40G
100
AcDbAlignedDimension
 13
9319.673057123665
 23
4377.359204196237
 33
0.0
 14
1429.67305712366
 24
4377.359204196236
 34
0.0
100
AcDbRotatedDimension
  0
LINE
  5
19B25
330
747D
100
AcDbEntity
  8
部品1
100
AcDbLine
 10
1429.673057123664
 20
2302.359204196229
 30
0.0
 11
9319.673057123663
 21
2302.359204196229
 31
0.0
  0
LINE
  5
19B75
330
747D
100
AcDbEntity
  8
破線
 48
5.0
100
AcDbLine
 10
3956.673057123661
 20
2302.359204196229
 30
0.0
 11
3956.673057123662
 21
2052.359204196229
 31
0.0
  0
LINE
  5
19B76
330
747D
100
AcDbEntity
  8
破線
 48
5.0
100
AcDbLine
 10
4004.673057123664
 20
2052.359204196229
 30
0.0
 11
3956.673057123662
 21
2052.359204196229
 31
0.0
  0
LINE
  5
19B77
330
747D
100
AcDbEntity
  8
破線
 48
5.0
100
AcDbLine
 10
4004.673057123659
 20
2302.359204196229
 30
0.0
 11
4004.673057123661
 21
2027.359204196229
 31
0.0
  0
LINE
  5
19B78
330
747D
100
AcDbEntity
  8
破線
 48
5.0
100
AcDbLine
 10
4114.67305712366
 20
2027.359204196229
 30
0.0
 11
4004.673057123662
 21
2027.359204196229
 31
0.0
  0
LINE
  5
19B79
330
747D
100
AcDbEntity
  8
破線
 48
5.0
100
AcDbLine
 10
4162.673057123662
 20
2302.359204196229
 30
0.0
 11
4162.673057123661
 21
2052.359204196235
 31
0.0
  0
LINE
  5
19B7A
330
747D
100
AcDbEntity
  8
破線
 48
5.0
100
AcDbLine
 10
4162.673057123661
 20
2052.359204196235
 30
0.0
 11
4114.67305712366
 21
2052.359204196235
 31
0.0
  0
LINE
  5
19B7B
330
747D
100
AcDbEntity
  8
破線
 48
5.0
100
AcDbLine
 10
4114.673057123662
 20
2302.359204196229
 30
0.0
 11
4114.673057123661
 21
2027.359204196229
 31
0.0
  0
LINE
  5
19B7F
330
747D
100
AcDbEntity
  8
部品1
100
AcDbLine
 10
1429.673057123664
 20
3977.359204196229
 30
0.0
 11
4114.673057123662
 21
3977.359204196229
 31
0.0
  0
LINE
  5
19B82
330
747D
100
AcDbEntity
  8
細線
100
AcDbLine
 10
1532.673057123657
 20
2832.359204196229
 30
0.0
 11
3956.673057123661
 21
2832.359204196229
 31
0.0
  0
LINE
  5
19B83
330
747D
100
AcDbEntity
  8
細線
100
AcDbLine
 10
1532.673057123657
 20
2767.35920419623
 30
0.0
 11
3956.673057123661
 21
2767.35920419623
 31
0.0
  0
LINE
  5
19B84
330
747D
100
AcDbEntity
  8
細線
100
AcDbLine
 10
1532.673057123657
 20
2702.359204196229
 30
0.0
 11
3956.673057123661
 21
2702.359204196229
 31
0.0
  0
LINE
  5
19B85
330
747D
100
AcDbEntity
  8
細線
100
AcDbLine
 10
1532.673057123657
 20
2637.35920419623
 30
0.0
 11
3956.673057123661
 21
2637.35920419623
 31
0.0
  0
LINE
  5
19B86
330
747D
100
AcDbEntity
  8
細線
100
AcDbLine
 10
1532.673057123657
 20
2572.359204196229
 30
0.0
 11
3956.673057123661
 21
2572.359204196229
 31
0.0
  0
LINE
  5
19B87
330
747D
100
AcDbEntity
  8
細線
100
AcDbLine
 10
1532.673057123657
 20
2507.359204196229
 30
0.0
 11
3956.673057123661
 21
2507.359204196229
 31
0.0
  0
LINE
  5
19B88
330
747D
100
AcDbEntity
  8
細線
100
AcDbLine
 10
1532.673057123657
 20
2442.359204196229
 30
0.0
 11
3956.673057123661
 21
2442.359204196229
 31
0.0
  0
LINE
  5
19B89
330
747D
100
AcDbEntity
  8
細線
100
AcDbLine
 10
1532.673057123657
 20
2377.359204196229
 30
0.0
 11
3956.673057123661
 21
2377.359204196229
 31
0.0
  0
LINE
  5
19B8A
330
747D
100
AcDbEntity
  8
細線
100
AcDbLine
 10
1532.673057123657
 20
3482.359204196229
 30
0.0
 11
3956.673057123661
 21
3482.359204196229
 31
0.0
  0
LINE
  5
19B8B
330
747D
100
AcDbEntity
  8
細線
100
AcDbLine
 10
1532.673057123657
 20
3417.359204196229
 30
0.0
 11
3956.673057123661
 21
3417.359204196229
 31
0.0
  0
LINE
  5
19B8C
330
747D
100
AcDbEntity
  8
細線
100
AcDbLine
 10
1532.673057123657
 20
3352.35920419623
 30
0.0
 11
3956.673057123661
 21
3352.35920419623
 31
0.0
  0
LINE
  5
19B8D
330
747D
100
AcDbEntity
  8
細線
100
AcDbLine
 10
1532.673057123657
 20
3287.359204196229
 30
0.0
 11
3956.673057123661
 21
3287.359204196229
 31
0.0
  0
LINE
  5
19B8E
330
747D
100
AcDbEntity
  8
細線
100
AcDbLine
 10
1532.673057123657
 20
3222.359204196229
 30
0.0
 11
3956.673057123661
 21
3222.359204196229
 31
0.0
  0
LINE
  5
19B8F
330
747D
100
AcDbEntity
  8
細線
100
AcDbLine
 10
1532.673057123657
 20
3157.359204196229
 30
0.0
 11
3956.673057123661
 21
3157.359204196229
 31
0.0
  0
LINE
  5
19B90
330
747D
100
AcDbEntity
  8
細線
100
AcDbLine
 10
1532.673057123657
 20
3092.35920419623
 30
0.0
 11
3956.673057123661
 21
3092.35920419623
 31
0.0
  0
LINE
  5
19B91
330
747D
100
AcDbEntity
  8
細線
100
AcDbLine
 10
1532.673057123657
 20
3027.359204196229
 30
0.0
 11
3956.673057123661
 21
3027.359204196229
 31
0.0
  0
LINE
  5
19B92
330
747D
100
AcDbEntity
  8
細線
100
AcDbLine
 10
1532.673057123657
 20
2962.359204196229
 30
0.0
 11
3956.673057123661
 21
2962.359204196229
 31
0.0
  0
LINE
  5
19B93
330
747D
100
AcDbEntity
  8
細線
100
AcDbLine
 10
1532.673057123657
 20
2897.359204196229
 30
0.0
 11
3956.673057123661
 21
2897.359204196229
 31
0.0
  0
LINE
  5
19B94
330
747D
100
AcDbEntity
  8
細線
100
AcDbLine
 10
1532.673057123657
 20
3872.359204196229
 30
0.0
 11
3956.673057123661
 21
3872.359204196229
 31
0.0
  0
LINE
  5
19B95
330
747D
100
AcDbEntity
  8
細線
100
AcDbLine
 10
1532.673057123657
 20
3807.359204196229
 30
0.0
 11
3956.673057123661
 21
3807.359204196229
 31
0.0
  0
LINE
  5
19B96
330
747D
100
AcDbEntity
  8
細線
100
AcDbLine
 10
1532.673057123657
 20
3742.35920419623
 30
0.0
 11
3956.673057123661
 21
3742.35920419623
 31
0.0
  0
LINE
  5
19B97
330
747D
100
AcDbEntity
  8
細線
100
AcDbLine
 10
1532.673057123657
 20
3677.35920419623
 30
0.0
 11
3956.673057123661
 21
3677.35920419623
 31
0.0
  0
LINE
  5
19B98
330
747D
100
AcDbEntity
  8
細線
100
AcDbLine
 10
1532.673057123657
 20
3612.359204196229
 30
0.0
 11
3956.673057123661
 21
3612.359204196229
 31
0.0
  0
LINE
  5
19B99
330
747D
100
AcDbEntity
  8
細線
100
AcDbLine
 10
1532.673057123657
 20
3547.359204196229
 30
0.0
 11
3956.673057123661
 21
3547.359204196229
 31
0.0
  0
LINE
  5
19B9A
330
747D
100
AcDbEntity
  8
細線
100
AcDbLine
 10
1532.673057123657
 20
3937.359204196229
 30
0.0
 11
3956.673057123661
 21
3937.359204196229
 31
0.0
  0
LINE
  5
19BA2
330
747D
100
AcDbEntity
  8
部品1
100
AcDbLine
 10
3956.673057123664
 20
3977.359204196231
 30
0.0
 11
3956.673057123661
 21
2302.359204196229
 31
0.0
  0
LINE
  5
19BA3
330
747D
100
AcDbEntity
  8
部品1
100
AcDbLine
 10
4004.673057123663
 20
3977.359204196229
 30
0.0
 11
4004.673057123659
 21
2302.359204196229
 31
0.0
  0
LINE
  5
19BA4
330
747D
100
AcDbEntity
  8
部品1
100
AcDbLine
 10
4162.673057123662
 20
3977.359204196229
 30
0.0
 11
4162.673057123662
 21
2302.359204196229
 31
0.0
  0
LINE
  5
19BA5
330
747D
100
AcDbEntity
  8
部品1
100
AcDbLine
 10
4114.673057123662
 20
3977.359204196229
 30
0.0
 11
4114.673057123662
 21
2302.359204196229
 31
0.0
  0
LINE
  5
19BA6
330
747D
100
AcDbEntity
  8
細線
100
AcDbLine
 10
3956.673057123662
 20
2312.359204196229
 30
0.0
 11
1532.673057123657
 21
2312.359204196229
 31
0.0
  0
LINE
  5
19BE3
330
747D
100
AcDbEntity
  8
部品1
100
AcDbLine
 10
6744.673057123662
 20
3977.359204196229
 30
0.0
 11
9319.67305712366
 21
3977.359204196231
 31
0.0
  0
LINE
  5
19BE4
330
747D
100
AcDbEntity
  8
部品1
100
AcDbLine
 10
6744.673057123662
 20
3977.35920419623
 30
0.0
 11
6744.673057123662
 21
2302.359204196229
 31
0.0
  0
LINE
  5
19BE5
330
747D
100
AcDbEntity
  8
破線
 48
5.0
100
AcDbLine
 10
6744.673057123662
 20
2302.359204196229
 30
0.0
 11
6744.67305712366
 21
2027.359204196229
 31
0.0
  0
LINE
  5
19BE6
330
747D
100
AcDbEntity
  8
破線
 48
5.0
100
AcDbLine
 10
6792.673057123661
 20
2052.359204196235
 30
0.0
 11
6744.67305712366
 21
2052.359204196235
 31
0.0
  0
LINE
  5
19BE7
330
747D
100
AcDbEntity
  8
破線
 48
5.0
100
AcDbLine
 10
6792.673057123661
 20
2302.359204196229
 30
0.0
 11
6792.673057123661
 21
2052.359204196235
 31
0.0
  0
LINE
  5
19BE8
330
747D
100
AcDbEntity
  8
部品1
100
AcDbLine
 10
6792.673057123661
 20
3977.359204196229
 30
0.0
 11
6792.673057123661
 21
2302.359204196229
 31
0.0
  0
LINE
  5
19BE9
330
747D
100
AcDbEntity
  8
破線
 48
5.0
100
AcDbLine
 10
6744.67305712366
 20
2027.359204196229
 30
0.0
 11
6634.673057123662
 21
2027.359204196229
 31
0.0
  0
LINE
  5
19BEA
330
747D
100
AcDbEntity
  8
破線
 48
5.0
100
AcDbLine
 10
6634.67305712366
 20
2302.359204196229
 30
0.0
 11
6634.673057123663
 21
2027.359204196229
 31
0.0
  0
LINE
  5
19BEB
330
747D
100
AcDbEntity
  8
破線
 48
5.0
100
AcDbLine
 10
6634.673057123663
 20
2052.359204196229
 30
0.0
 11
6586.673057123661
 21
2052.359204196229
 31
0.0
  0
LINE
  5
19BEC
330
747D
100
AcDbEntity
  8
破線
 48
5.0
100
AcDbLine
 10
6586.67305712366
 20
2302.359204196229
 30
0.0
 11
6586.673057123661
 21
2052.359204196229
 31
0.0
  0
LINE
  5
19BED
330
747D
100
AcDbEntity
  8
部品1
100
AcDbLine
 10
6634.673057123663
 20
3977.35920419623
 30
0.0
 11
6634.67305712366
 21
2302.359204196229
 31
0.0
  0
LINE
  5
19BEE
330
747D
100
AcDbEntity
  8
部品1
100
AcDbLine
 10
6586.673057123665
 20
3977.35920419623
 30
0.0
 11
6586.67305712366
 21
2302.359204196229
 31
0.0
  0
LINE
  5
19C42
330
747D
100
AcDbEntity
  8
細線
100
AcDbLine
 10
9216.673057123662
 20
2312.359204196229
 30
0.0
 11
6792.673057123656
 21
2312.359204196229
 31
0.0
  0
LINE
  5
19C43
330
747D
100
AcDbEntity
  8
細線
100
AcDbLine
 10
6792.673057123659
 20
2832.359204196229
 30
0.0
 11
9216.67305712366
 21
2832.359204196229
 31
0.0
  0
LINE
  5
19C44
330
747D
100
AcDbEntity
  8
細線
100
AcDbLine
 10
6792.673057123659
 20
2767.35920419623
 30
0.0
 11
9216.67305712366
 21
2767.35920419623
 31
0.0
  0
LINE
  5
19C45
330
747D
100
AcDbEntity
  8
細線
100
AcDbLine
 10
6792.673057123659
 20
2702.359204196229
 30
0.0
 11
9216.67305712366
 21
2702.359204196229
 31
0.0
  0
LINE
  5
19C46
330
747D
100
AcDbEntity
  8
細線
100
AcDbLine
 10
6792.673057123659
 20
2637.35920419623
 30
0.0
 11
9216.67305712366
 21
2637.35920419623
 31
0.0
  0
LINE
  5
19C47
330
747D
100
AcDbEntity
  8
細線
100
AcDbLine
 10
6792.673057123659
 20
2572.359204196229
 30
0.0
 11
9216.67305712366
 21
2572.359204196229
 31
0.0
  0
LINE
  5
19C48
330
747D
100
AcDbEntity
  8
細線
100
AcDbLine
 10
6792.673057123659
 20
2507.359204196229
 30
0.0
 11
9216.67305712366
 21
2507.359204196229
 31
0.0
  0
LINE
  5
19C49
330
747D
100
AcDbEntity
  8
細線
100
AcDbLine
 10
6792.673057123659
 20
2442.359204196229
 30
0.0
 11
9216.67305712366
 21
2442.359204196229
 31
0.0
  0
LINE
  5
19C4A
330
747D
100
AcDbEntity
  8
細線
100
AcDbLine
 10
6792.673057123659
 20
2377.359204196229
 30
0.0
 11
9216.67305712366
 21
2377.359204196229
 31
0.0
  0
LINE
  5
19C4B
330
747D
100
AcDbEntity
  8
細線
100
AcDbLine
 10
6792.673057123659
 20
2312.359204196229
 30
0.0
 11
9216.67305712366
 21
2312.359204196229
 31
0.0
  0
LINE
  5
19C4C
330
747D
100
AcDbEntity
  8
細線
100
AcDbLine
 10
6792.673057123659
 20
3482.359204196229
 30
0.0
 11
9216.67305712366
 21
3482.359204196229
 31
0.0
  0
LINE
  5
19C4D
330
747D
100
AcDbEntity
  8
細線
100
AcDbLine
 10
6792.673057123659
 20
3417.359204196229
 30
0.0
 11
9216.67305712366
 21
3417.359204196229
 31
0.0
  0
LINE
  5
19C4E
330
747D
100
AcDbEntity
  8
細線
100
AcDbLine
 10
6792.673057123659
 20
3352.35920419623
 30
0.0
 11
9216.67305712366
 21
3352.35920419623
 31
0.0
  0
LINE
  5
19C4F
330
747D
100
AcDbEntity
  8
細線
100
AcDbLine
 10
6792.673057123659
 20
3287.359204196229
 30
0.0
 11
9216.67305712366
 21
3287.359204196229
 31
0.0
  0
LINE
  5
19C50
330
747D
100
AcDbEntity
  8
細線
100
AcDbLine
 10
6792.673057123659
 20
3222.359204196229
 30
0.0
 11
9216.67305712366
 21
3222.359204196229
 31
0.0
  0
LINE
  5
19C51
330
747D
100
AcDbEntity
  8
細線
100
AcDbLine
 10
6792.673057123659
 20
3157.359204196229
 30
0.0
 11
9216.67305712366
 21
3157.359204196229
 31
0.0
  0
LINE
  5
19C52
330
747D
100
AcDbEntity
  8
細線
100
AcDbLine
 10
6792.673057123659
 20
3092.35920419623
 30
0.0
 11
9216.67305712366
 21
3092.35920419623
 31
0.0
  0
LINE
  5
19C53
330
747D
100
AcDbEntity
  8
細線
100
AcDbLine
 10
6792.673057123659
 20
3027.359204196229
 30
0.0
 11
9216.67305712366
 21
3027.359204196229
 31
0.0
  0
LINE
  5
19C54
330
747D
100
AcDbEntity
  8
細線
100
AcDbLine
 10
6792.673057123659
 20
2962.359204196229
 30
0.0
 11
9216.67305712366
 21
2962.359204196229
 31
0.0
  0
LINE
  5
19C55
330
747D
100
AcDbEntity
  8
細線
100
AcDbLine
 10
6792.673057123659
 20
2897.359204196229
 30
0.0
 11
9216.67305712366
 21
2897.359204196229
 31
0.0
  0
LINE
  5
19C56
330
747D
100
AcDbEntity
  8
細線
100
AcDbLine
 10
6792.673057123659
 20
3872.359204196229
 30
0.0
 11
9216.67305712366
 21
3872.359204196229
 31
0.0
  0
LINE
  5
19C57
330
747D
100
AcDbEntity
  8
細線
100
AcDbLine
 10
6792.673057123659
 20
3807.359204196229
 30
0.0
 11
9216.67305712366
 21
3807.359204196229
 31
0.0
  0
LINE
  5
19C58
330
747D
100
AcDbEntity
  8
細線
100
AcDbLine
 10
6792.673057123659
 20
3742.35920419623
 30
0.0
 11
9216.67305712366
 21
3742.35920419623
 31
0.0
  0
LINE
  5
19C59
330
747D
100
AcDbEntity
  8
細線
100
AcDbLine
 10
6792.673057123659
 20
3677.35920419623
 30
0.0
 11
9216.67305712366
 21
3677.35920419623
 31
0.0
  0
LINE
  5
19C5A
330
747D
100
AcDbEntity
  8
細線
100
AcDbLine
 10
6792.673057123659
 20
3612.359204196229
 30
0.0
 11
9216.67305712366
 21
3612.359204196229
 31
0.0
  0
LINE
  5
19C5B
330
747D
100
AcDbEntity
  8
細線
100
AcDbLine
 10
6792.673057123659
 20
3547.359204196229
 30
0.0
 11
9216.67305712366
 21
3547.359204196229
 31
0.0
  0
LINE
  5
19C5C
330
747D
100
AcDbEntity
  8
細線
100
AcDbLine
 10
6792.673057123659
 20
3937.359204196229
 30
0.0
 11
9216.67305712366
 21
3937.359204196229
 31
0.0
  0
LINE
  5
19C5E
330
747D
100
AcDbEntity
  8
破線
 48
5.0
100
AcDbLine
 10
1532.67305712366
 20
2052.359204196235
 30
0.0
 11
1484.67305712366
 21
2052.359204196235
 31
0.0
  0
LINE
  5
19C5F
330
747D
100
AcDbEntity
  8
破線
 48
5.0
100
AcDbLine
 10
9264.673057123664
 20
2052.359204196229
 30
0.0
 11
9216.673057123662
 21
2052.359204196229
 31
0.0
  0
LINE
  5
19C60
330
747D
100
AcDbEntity
  8
破線
 48
5.0
100
AcDbLine
 10
9216.67305712366
 20
2302.359204196229
 30
0.0
 11
9216.673057123662
 21
2052.359204196229
 31
0.0
  0
LINE
  5
19C61
330
747D
100
AcDbEntity
  8
部品1
100
AcDbLine
 10
9216.673057123664
 20
3977.35920419623
 30
0.0
 11
9216.67305712366
 21
2302.359204196229
 31
0.0
  0
LINE
  5
19C62
330
747D
100
AcDbEntity
  8
破線
 48
5.0
100
AcDbLine
 10
1532.673057123664
 20
2302.359204196229
 30
0.0
 11
1532.673057123661
 21
2052.359204196235
 31
0.0
  0
LINE
  5
19C63
330
747D
100
AcDbEntity
  8
部品1
100
AcDbLine
 10
1532.673057123664
 20
3977.359204196229
 30
0.0
 11
1532.673057123664
 21
2302.359204196229
 31
0.0
  0
LINE
  5
19C64
330
747D
100
AcDbEntity
  8
破線
 48
5.0
100
AcDbLine
 10
1484.67305712366
 20
1952.359204196237
 30
0.0
 11
1429.67305712366
 21
1952.359204196237
 31
0.0
  0
LINE
  5
19C65
330
747D
100
AcDbEntity
  8
破線
 48
5.0
100
AcDbLine
 10
9319.67305712366
 20
1952.359204196229
 30
0.0
 11
9264.673057123662
 21
1952.359204196229
 31
0.0
  0
LINE
  5
19C66
330
747D
100
AcDbEntity
  8
破線
 48
5.0
100
AcDbLine
 10
1484.673057123664
 20
2302.359204196229
 30
0.0
 11
1484.67305712366
 21
1952.359204196229
 31
0.0
  0
LINE
  5
19C67
330
747D
100
AcDbEntity
  8
破線
 48
5.0
100
AcDbLine
 10
9264.67305712366
 20
2302.359204196229
 30
0.0
 11
9264.673057123662
 21
1952.359204196229
 31
0.0
  0
LWPOLYLINE
  5
19C6B
330
747D
100
AcDbEntity
  8
部品1
100
AcDbPolyline
 90
        4
 70
     1
 43
0.0
 10
4992.937724009449
 20
1552.359204196229
 10
4992.937724009449
 20
1312.466882650697
 10
5756.408390237886
 20
1312.466882650697
 10
5756.408390237886
 20
1552.359204196229
  0
TEXT
  5
19C6C
330
747D
100
AcDbEntity
  8
部品1
100
AcDbText
 10
5083.463127747403
 20
1359.465674977705
 30
0.0
 40
135.0
  1
正面図
  7
MSGOTHIC
100
AcDbText
  0
LINE
  5
19C6E
330
747D
100
AcDbEntity
  8
破線
 48
5.0
100
AcDbLine
 10
1429.673057123664
 20
2202.359204196229
 30
0.0
 11
1429.67305712366
 21
1952.359204196229
 31
0.0
  0
LINE
  5
19C6F
330
747D
100
AcDbEntity
  8
破線
 48
5.0
100
AcDbLine
 10
9319.673057123663
 20
2202.359204196229
 30
0.0
 11
9319.673057123663
 21
1952.359204196229
 31
0.0
  0
LINE
  5
19C76
330
747D
100
AcDbEntity
  8
部品1
100
AcDbLine
 10
9319.673057123663
 20
4236.359204196232
 30
0.0
 11
9319.673057123663
 21
2202.359204196229
 31
0.0
  0
LINE
  5
19C77
330
747D
100
AcDbEntity
  8
部品1
100
AcDbLine
 10
1484.673057123664
 20
3977.359204196229
 30
0.0
 11
1484.673057123664
 21
2302.359204196229
 31
0.0
  0
LINE
  5
19C78
330
747D
100
AcDbEntity
  8
部品1
100
AcDbLine
 10
9264.673057123662
 20
3977.359204196231
 30
0.0
 11
9264.67305712366
 21
2302.359204196229
 31
0.0
  0
LINE
  5
19C79
330
747D
100
AcDbEntity
  8
部品1
100
AcDbLine
 10
1429.673057123664
 20
4236.359204196236
 30
0.0
 11
1429.673057123664
 21
2202.359204196229
 31
0.0
  0
DIMENSION
  5
1A299
330
747D
100
AcDbEntity
  8
寸法
 48
50.0
100
AcDbDimension
  2
*D39
 10
9607.21615944541
 20
4142.359204196229
 30
0.0
 11
9607.216159445409
 21
4380.844485570468
 31
0.0
 70
   160
 71
     5
 42
164.9999999999982
  3
INABA_S40G
100
AcDbAlignedDimension
 13
9319.67305712366
 23
3977.359204196231
 33
0.0
 14
9319.673057123663
 24
4142.359204196229
 34
0.0
 50
90.0
100
AcDbRotatedDimension
1001
ACAD
1000
DSTYLE
1002
{
1002
}
  0
DIMENSION
  5
1A29A
330
747D
100
AcDbEntity
  8
寸法
 48
50.0
100
AcDbDimension
  2
*D40
 10
9607.216159445409
 20
3977.359204196231
 30
0.0
 11
9747.385982691774
 21
3978.326404035888
 31
0.0
 70
   160
 71
     5
 42
27.00000000000136
  3
INABA_S40G
100
AcDbAlignedDimension
 13
9319.673057123663
 23
3950.359204196229
 33
0.0
 14
9319.67305712366
 24
3977.359204196231
 34
0.0
 50
90.0
100
AcDbRotatedDimension
1001
ACAD
1000
DSTYLE
1002
{
1070
   279
1070
     2
1002
}
  0
DIMENSION
  5
1A29B
330
747D
100
AcDbEntity
  8
寸法
 48
50.0
100
AcDbDimension
  2
*D41
 10
9607.216159445409
 20
3950.359204196229
 30
0.0
 11
9507.216159445409
 21
3126.359204196231
 31
0.0
 70
    32
  1
有効開口部高サ <>
 71
     5
 42
1648.0
  3
INABA_S40G
100
AcDbAlignedDimension
 13
9319.673057123663
 23
2302.359204196229
 33
0.0
 14
9319.673057123663
 24
3950.359204196229
 34
0.0
 50
90.0
100
AcDbRotatedDimension
  0
LINE
  5
1A3C2
330
747D
100
AcDbEntity
  8
仕様書枠
 48
50.0
100
AcDbLine
 10
16307.19999999998
 20
8689.6
 30
0.0
 11
13127.19999999999
 21
8689.600000000003
 31
0.0
  0
TEXT
  5
1A3C7
330
747D
100
AcDbEntity
  8
文字
 62
     7
 48
50.0
100
AcDbText
 10
15022.63965474517
 20
10760.01374588372
 30
0.0
 40
100.0
  1
F12         1.0,1.2
  7
STYLE1
100
AcDbText
  0
TEXT
  5
1A3CD
330
747D
100
AcDbEntity
  8
文字
 62
     7
 48
50.0
100
AcDbText
 10
13583.11819016569
 20
8890.013745883727
 30
0.0
 40
100.0
  1
シャッターレール
  7
STYLE1
100
AcDbText
  0
TEXT
  5
1A3CE
330
747D
100
AcDbEntity
  8
文字
 62
     7
 48
50.0
100
AcDbText
 10
14850.83183167176
 20
8890.013745883726
 30
0.0
 40
100.0
  1
アルミニウム合金押出形材
  7
STYLE1
100
AcDbText
  0
TEXT
  5
1A3CF
330
747D
100
AcDbEntity
  8
文字
 62
     7
 48
50.0
100
AcDbText
 10
15022.63965474516
 20
9060.013745883727
 30
0.0
 40
100.0
  1
F12            0.7
  7
STYLE1
100
AcDbText
  0
LINE
  5
1A3D4
330
747D
100
AcDbEntity
  8
破線
 48
5.0
100
AcDbLine
 10
4059.673057123661
 20
2027.359204196229
 30
0.0
 11
4059.673057123661
 21
1952.359204196229
 31
0.0
  0
LINE
  5
1A3D6
330
747D
100
AcDbEntity
  8
破線
 48
5.0
100
AcDbLine
 10
4009.673057123661
 20
1952.359204196229
 30
0.0
 11
4109.673057123661
 21
1952.359204196229
 31
0.0
  0
LINE
  5
1A3DE
330
747D
100
AcDbEntity
  8
破線
 48
5.0
100
AcDbLine
 10
6639.673057123662
 20
1952.359204196229
 30
0.0
 11
6739.673057123662
 21
1952.359204196229
 31
0.0
  0
LINE
  5
1A3DF
330
747D
100
AcDbEntity
  8
破線
 48
5.0
100
AcDbLine
 10
6689.673057123662
 20
2027.359204196229
 30
0.0
 11
6689.673057123662
 21
1952.359204196229
 31
0.0
  0
LINE
  5
1A5BA
330
747D
100
AcDbEntity
  8
細線
100
AcDbLine
 10
4162.673057123657
 20
3937.359204196229
 30
0.0
 11
6586.67305712366
 21
3937.359204196229
 31
0.0
  0
LINE
  5
1A5C2
330
747D
100
AcDbEntity
  8
細線
100
AcDbLine
 10
4162.673057123657
 20
3547.359204196229
 30
0.0
 11
6586.67305712366
 21
3547.359204196229
 31
0.0
  0
LINE
  5
1A5C3
330
747D
100
AcDbEntity
  8
細線
100
AcDbLine
 10
4162.673057123657
 20
3612.359204196229
 30
0.0
 11
6586.67305712366
 21
3612.359204196229
 31
0.0
  0
LINE
  5
1A5C4
330
747D
100
AcDbEntity
  8
細線
100
AcDbLine
 10
4162.673057123657
 20
3677.35920419623
 30
0.0
 11
6586.67305712366
 21
3677.35920419623
 31
0.0
  0
LINE
  5
1A5C5
330
747D
100
AcDbEntity
  8
細線
100
AcDbLine
 10
4162.673057123657
 20
3742.35920419623
 30
0.0
 11
6586.67305712366
 21
3742.35920419623
 31
0.0
  0
LINE
  5
1A5C6
330
747D
100
AcDbEntity
  8
細線
100
AcDbLine
 10
4162.673057123657
 20
3807.359204196229
 30
0.0
 11
6586.67305712366
 21
3807.359204196229
 31
0.0
  0
LINE
  5
1A5C7
330
747D
100
AcDbEntity
  8
細線
100
AcDbLine
 10
4162.673057123657
 20
3872.359204196229
 30
0.0
 11
6586.67305712366
 21
3872.359204196229
 31
0.0
  0
LINE
  5
1A5C8
330
747D
100
AcDbEntity
  8
細線
100
AcDbLine
 10
4162.673057123657
 20
2897.359204196229
 30
0.0
 11
6586.67305712366
 21
2897.359204196229
 31
0.0
  0
LINE
  5
1A5C9
330
747D
100
AcDbEntity
  8
細線
100
AcDbLine
 10
4162.673057123657
 20
2962.359204196229
 30
0.0
 11
6586.67305712366
 21
2962.359204196229
 31
0.0
  0
LINE
  5
1A5CA
330
747D
100
AcDbEntity
  8
細線
100
AcDbLine
 10
4162.673057123657
 20
3027.359204196229
 30
0.0
 11
6586.67305712366
 21
3027.359204196229
 31
0.0
  0
LINE
  5
1A5CB
330
747D
100
AcDbEntity
  8
細線
100
AcDbLine
 10
4162.673057123657
 20
3092.35920419623
 30
0.0
 11
6586.67305712366
 21
3092.35920419623
 31
0.0
  0
LINE
  5
1A5CC
330
747D
100
AcDbEntity
  8
細線
100
AcDbLine
 10
4162.673057123657
 20
3157.359204196229
 30
0.0
 11
6586.67305712366
 21
3157.359204196229
 31
0.0
  0
LINE
  5
1A5CD
330
747D
100
AcDbEntity
  8
細線
100
AcDbLine
 10
4162.673057123657
 20
3222.359204196229
 30
0.0
 11
6586.67305712366
 21
3222.359204196229
 31
0.0
  0
LINE
  5
1A5CE
330
747D
100
AcDbEntity
  8
細線
100
AcDbLine
 10
4162.673057123657
 20
3287.359204196229
 30
0.0
 11
6586.67305712366
 21
3287.359204196229
 31
0.0
  0
LINE
  5
1A5CF
330
747D
100
AcDbEntity
  8
細線
100
AcDbLine
 10
4162.673057123657
 20
3352.35920419623
 30
0.0
 11
6586.67305712366
 21
3352.35920419623
 31
0.0
  0
LINE
  5
1A5D0
330
747D
100
AcDbEntity
  8
細線
100
AcDbLine
 10
4162.673057123657
 20
3417.359204196229
 30
0.0
 11
6586.67305712366
 21
3417.359204196229
 31
0.0
  0
LINE
  5
1A5D1
330
747D
100
AcDbEntity
  8
細線
100
AcDbLine
 10
4162.673057123657
 20
3482.359204196229
 30
0.0
 11
6586.67305712366
 21
3482.359204196229
 31
0.0
  0
LINE
  5
1A5D2
330
747D
100
AcDbEntity
  8
細線
100
AcDbLine
 10
4162.673057123657
 20
2442.359204196229
 30
0.0
 11
6586.67305712366
 21
2442.359204196229
 31
0.0
  0
LINE
  5
1A5D3
330
747D
100
AcDbEntity
  8
細線
100
AcDbLine
 10
4162.673057123657
 20
2507.359204196229
 30
0.0
 11
6586.67305712366
 21
2507.359204196229
 31
0.0
  0
LINE
  5
1A5D4
330
747D
100
AcDbEntity
  8
細線
100
AcDbLine
 10
4162.673057123657
 20
2572.359204196229
 30
0.0
 11
6586.67305712366
 21
2572.359204196229
 31
0.0
  0
LINE
  5
1A5D5
330
747D
100
AcDbEntity
  8
細線
100
AcDbLine
 10
4162.673057123657
 20
2637.35920419623
 30
0.0
 11
6586.67305712366
 21
2637.35920419623
 31
0.0
  0
LINE
  5
1A5D6
330
747D
100
AcDbEntity
  8
細線
100
AcDbLine
 10
4162.673057123657
 20
2702.359204196229
 30
0.0
 11
6586.67305712366
 21
2702.359204196229
 31
0.0
  0
LINE
  5
1A5D7
330
747D
100
AcDbEntity
  8
細線
100
AcDbLine
 10
4162.673057123657
 20
2767.35920419623
 30
0.0
 11
6586.67305712366
 21
2767.35920419623
 31
0.0
  0
LINE
  5
1A5D8
330
747D
100
AcDbEntity
  8
細線
100
AcDbLine
 10
4162.673057123657
 20
2832.359204196229
 30
0.0
 11
6586.67305712366
 21
2832.359204196229
 31
0.0
  0
LINE
  5
1A5DB
330
747D
100
AcDbEntity
  8
部品1
100
AcDbLine
 10
4114.673057123663
 20
3977.359204196229
 30
0.0
 11
6744.673057123662
 21
3977.359204196229
 31
0.0
  0
LINE
  5
1A5DC
330
747D
100
AcDbEntity
  8
細線
100
AcDbLine
 10
4162.673057123657
 20
2377.359204196229
 30
0.0
 11
6586.67305712366
 21
2377.359204196229
 31
0.0
  0
LINE
  5
1A5DD
330
747D
100
AcDbEntity
  8
細線
100
AcDbLine
 10
6586.673057123661
 20
2312.359204196229
 30
0.0
 11
4162.673057123657
 21
2312.359204196229
 31
0.0
  0
LINE
  5
1A5DE
330
747D
100
AcDbEntity
  8
部品1
 48
50.0
100
AcDbLine
 10
4126.673057123656
 20
7287.997424545864
 30
0.0
 11
6622.67305712364
 21
7287.997424545864
 31
0.0
  0
SPLINE
  5
1A5EB
330
747D
100
AcDbEntity
  8
部品1
 48
50.0
100
AcDbSpline
210
0.0
220
0.0
230
1.0
 70
     8
 71
     3
 72
    10
 73
     6
 74
     4
 42
0.0000000001
 43
0.0000000001
 44
0.0000000001
 40
0.0
 40
0.0
 40
0.0
 40
0.0
 40
147.8767566010009
 40
301.8091093202477
 40
466.5049223087716
 40
466.5049223087716
 40
466.5049223087716
 40
466.5049223087716
 10
5442.243384856692
 20
10332.23857707168
 30
0.0
 10
5365.361702361857
 20
10323.33414341384
 30
0.0
 10
5208.450010151729
 20
10305.16063695451
 30
0.0
 10
5531.263420096075
 20
10202.64005231517
 30
0.0
 10
5361.4208004267
 20
10184.00496360296
 30
0.0
 10
5273.630795219808
 20
10174.37266672565
 30
0.0
 11
5442.243384856692
 21
10332.23857707168
 31
0.0
 11
5299.405406547923
 21
10293.96525613535
 31
0.0
 11
5432.714734467097
 21
10216.99907977573
 31
0.0
 11
5273.630795219808
 21
10174.37266672565
 31
0.0
  0
LINE
  5
1A5EC
330
747D
100
AcDbEntity
  8
部品1
 48
50.0
100
AcDbLine
 10
5421.205796679192
 20
10424.65997278257
 30
0.0
 11
5328.140317568092
 21
10077.3348763092
 31
0.0
  0
SPLINE
  5
1A5F3
330
747D
100
AcDbEntity
  8
部品1
 48
50.0
100
AcDbSpline
210
0.0
220
0.0
230
1.0
 70
     8
 71
     3
 72
    10
 73
     6
 74
     4
 42
0.0000000001
 43
0.0000000001
 44
0.0000000001
 40
0.0
 40
0.0
 40
0.0
 40
0.0
 40
147.8767566010009
 40
301.8091093202477
 40
466.5049223087716
 40
466.5049223087716
 40
466.5049223087716
 40
466.5049223087716
 10
5442.243384856698
 20
7369.238577071657
 30
0.0
 10
5365.361702361862
 20
7360.334143413819
 30
0.0
 10
5208.450010151735
 20
7342.160636954488
 30
0.0
 10
5531.263420096078
 20
7239.640052315145
 30
0.0
 10
5361.420800426705
 20
7221.00496360294
 30
0.0
 10
5273.630795219813
 20
7211.372666725633
 30
0.0
 11
5442.243384856698
 21
7369.238577071657
 31
0.0
 11
5299.405406547929
 21
7330.965256135328
 31
0.0
 11
5432.714734467103
 21
7253.999079775706
 31
0.0
 11
5273.630795219813
 21
7211.372666725633
 31
0.0
  0
LINE
  5
1A5F4
330
747D
100
AcDbEntity
  8
部品1
 48
50.0
100
AcDbLine
 10
5421.205796679198
 20
7461.659972782547
 30
0.0
 11
5328.140317568097
 21
7114.334876309182
 31
0.0
  0
LINE
  5
1A5FB
330
747D
100
AcDbEntity
  8
部品1
 48
50.0
100
AcDbLine
 10
5729.962621336516
 20
4515.817909237608
 30
0.0
 11
5019.383492910806
 21
1863.90049915485
 31
0.0
  0
SPLINE
  5
1A5FC
330
747D
100
AcDbEntity
  8
部品1
 48
50.0
100
AcDbSpline
210
0.0
220
0.0
230
1.0
 70
     8
 71
     3
 72
    10
 73
     6
 74
     4
 42
0.0000000001
 43
0.0000000001
 44
0.0000000001
 40
0.0
 40
0.0
 40
0.0
 40
0.0
 40
147.8767566010009
 40
301.8091093202477
 40
466.5049223087734
 40
466.5049223087734
 40
466.5049223087734
 40
466.5049223087734
 10
5442.243384856713
 20
3271.100356722022
 30
0.0
 10
5365.361702361877
 20
3262.195923064183
 30
0.0
 10
5208.45001015175
 20
3244.022416604853
 30
0.0
 10
5531.263420096095
 20
3141.50183196551
 30
0.0
 10
5361.420800426721
 20
3122.866743253306
 30
0.0
 10
5273.630795219826
 20
3113.234446375997
 30
0.0
 11
5442.243384856713
 21
3271.100356722022
 31
0.0
 11
5299.405406547943
 21
3232.827035785693
 31
0.0
 11
5432.714734467118
 21
3155.86085942607
 31
0.0
 11
5273.630795219826
 21
3113.234446375997
 31
0.0
  0
LINE
  5
1A74A
330
747D
100
AcDbEntity
  8
部品1
100
AcDbLine
 10
8844.673057123662
 20
10292.49742454598
 30
0.0
 11
8844.673057123662
 21
10264.49742454598
 31
0.0
  0
ARC
  5
1A9F2
330
747D
100
AcDbEntity
  8
部品1
 48
0.01
100
AcDbCircle
 10
3271.673057123667
 20
4174.859204196229
 30
0.0
 40
2.0
100
AcDbArc
 50
180.0
 51
270.0
  0
ARC
  5
1A9F3
330
747D
100
AcDbEntity
  8
部品1
 48
0.01
100
AcDbCircle
 10
3271.673057123664
 20
4206.359204196229
 30
0.0
 40
2.0
100
AcDbArc
 50
90.0
 51
180.0
  0
ARC
  5
1A9F4
330
747D
100
AcDbEntity
  8
部品1
 48
0.01
100
AcDbCircle
 10
3447.673057123664
 20
4174.859204196229
 30
0.0
 40
2.0
100
AcDbArc
 50
270.0
 51
0.0
  0
ARC
  5
1A9F5
330
747D
100
AcDbEntity
  8
部品1
 48
0.01
100
AcDbCircle
 10
3447.673057123664
 20
4206.359204196229
 30
0.0
 40
2.0
100
AcDbArc
 50
0.0
 51
90.0
  0
LINE
  5
1A9F6
330
747D
100
AcDbEntity
  8
細線
100
AcDbLine
 10
3359.673057123668
 20
4178.859204196229
 30
0.0
 11
3285.673057123664
 21
4178.859204196229
 31
0.0
  0
LINE
  5
1A9F7
330
747D
100
AcDbEntity
  8
細線
100
AcDbLine
 10
3359.673057123664
 20
4201.859204196229
 30
0.0
 11
3433.673057123665
 21
4201.859204196229
 31
0.0
  0
LINE
  5
1A9F8
330
747D
100
AcDbEntity
  8
細線
100
AcDbLine
 10
3433.673057123665
 20
4178.859204196229
 30
0.0
 11
3359.673057123664
 21
4178.859204196229
 31
0.0
  0
LINE
  5
1A9F9
330
747D
100
AcDbEntity
  8
細線
100
AcDbLine
 10
3285.673057123664
 20
4201.859204196229
 30
0.0
 11
3359.673057123664
 21
4201.859204196229
 31
0.0
  0
LINE
  5
1A9FA
330
747D
100
AcDbEntity
  8
細線
100
AcDbLine
 10
3285.673057123664
 20
4178.859204196229
 30
0.0
 11
3285.673057123664
 21
4201.859204196229
 31
0.0
  0
LINE
  5
1A9FB
330
747D
100
AcDbEntity
  8
細線
100
AcDbLine
 10
3433.673057123665
 20
4201.859204196229
 30
0.0
 11
3433.673057123665
 21
4178.859204196229
 31
0.0
  0
LINE
  5
1A9FC
330
747D
100
AcDbEntity
  8
部品1
 48
0.01
100
AcDbLine
 10
3269.673057123668
 20
4174.859204196229
 30
0.0
 11
3269.673057123664
 21
4206.359204196229
 31
0.0
  0
LINE
  5
1A9FD
330
747D
100
AcDbEntity
  8
部品1
 48
0.01
100
AcDbLine
 10
3447.673057123664
 20
4172.859204196229
 30
0.0
 11
3271.673057123667
 21
4172.859204196229
 31
0.0
  0
LINE
  5
1A9FE
330
747D
100
AcDbEntity
  8
部品1
 48
0.01
100
AcDbLine
 10
3449.673057123664
 20
4206.359204196229
 30
0.0
 11
3449.673057123664
 21
4174.859204196229
 31
0.0
  0
LINE
  5
1A9FF
330
747D
100
AcDbEntity
  8
部品1
 48
0.01
100
AcDbLine
 10
3271.673057123664
 20
4208.359204196229
 30
0.0
 11
3447.673057123664
 21
4208.359204196229
 31
0.0
  0
LINE
  5
1AA00
330
747D
100
AcDbEntity
  8
細線
100
AcDbLine
 10
3433.673057123665
 20
4195.859204196229
 30
0.0
 11
3359.673057123664
 21
4195.859204196229
 31
0.0
  0
LINE
  5
1AA01
330
747D
100
AcDbEntity
  8
細線
100
AcDbLine
 10
3433.673057123665
 20
4189.859204196229
 30
0.0
 11
3359.673057123664
 21
4189.859204196229
 31
0.0
  0
LINE
  5
1AA02
330
747D
100
AcDbEntity
  8
細線
100
AcDbLine
 10
3433.673057123668
 20
4183.859204196229
 30
0.0
 11
3359.673057123664
 21
4183.859204196229
 31
0.0
  0
LINE
  5
1AA03
330
747D
100
AcDbEntity
  8
細線
100
AcDbLine
 10
3433.673057123665
 20
4195.859204196229
 30
0.0
 11
3364.673057123664
 21
4195.859204196229
 31
0.0
  0
LINE
  5
1AA04
330
747D
100
AcDbEntity
  8
細線
100
AcDbLine
 10
3285.673057123668
 20
4195.859204196229
 30
0.0
 11
3359.673057123664
 21
4195.859204196229
 31
0.0
  0
LINE
  5
1AA05
330
747D
100
AcDbEntity
  8
細線
100
AcDbLine
 10
3285.673057123668
 20
4183.859204196229
 30
0.0
 11
3359.673057123664
 21
4183.859204196229
 31
0.0
  0
LINE
  5
1AA06
330
747D
100
AcDbEntity
  8
細線
100
AcDbLine
 10
3285.673057123668
 20
4189.859204196229
 30
0.0
 11
3359.673057123664
 21
4189.859204196229
 31
0.0
  0
LINE
  5
1AA07
330
747D
100
AcDbEntity
  8
細線
100
AcDbLine
 10
3359.673057123664
 20
4201.859204196229
 30
0.0
 11
3359.673057123668
 21
4178.859204196229
 31
0.0
  0
LINE
  5
1AA08
330
747D
100
AcDbEntity
  8
細線
100
AcDbLine
 10
2129.673057123667
 20
4201.859204196229
 30
0.0
 11
2129.673057123664
 21
4178.859204196229
 31
0.0
  0
LINE
  5
1AA09
330
747D
100
AcDbEntity
  8
細線
100
AcDbLine
 10
2203.673057123664
 20
4189.859204196229
 30
0.0
 11
2129.673057123667
 21
4189.859204196229
 31
0.0
  0
LINE
  5
1AA0A
330
747D
100
AcDbEntity
  8
細線
100
AcDbLine
 10
2203.673057123664
 20
4183.859204196229
 30
0.0
 11
2129.673057123667
 21
4183.859204196229
 31
0.0
  0
LINE
  5
1AA0B
330
747D
100
AcDbEntity
  8
細線
100
AcDbLine
 10
2203.673057123664
 20
4195.859204196229
 30
0.0
 11
2129.673057123667
 21
4195.859204196229
 31
0.0
  0
LINE
  5
1AA0C
330
747D
100
AcDbEntity
  8
細線
100
AcDbLine
 10
2055.673057123668
 20
4195.859204196229
 30
0.0
 11
2124.673057123668
 21
4195.859204196229
 31
0.0
  0
LINE
  5
1AA0D
330
747D
100
AcDbEntity
  8
細線
100
AcDbLine
 10
2055.673057123664
 20
4183.859204196229
 30
0.0
 11
2129.673057123667
 21
4183.859204196229
 31
0.0
  0
LINE
  5
1AA0E
330
747D
100
AcDbEntity
  8
細線
100
AcDbLine
 10
2055.673057123668
 20
4189.859204196229
 30
0.0
 11
2129.673057123667
 21
4189.859204196229
 31
0.0
  0
LINE
  5
1AA0F
330
747D
100
AcDbEntity
  8
細線
100
AcDbLine
 10
2055.673057123668
 20
4195.859204196229
 30
0.0
 11
2129.673057123667
 21
4195.859204196229
 31
0.0
  0
LINE
  5
1AA10
330
747D
100
AcDbEntity
  8
部品1
 48
0.01
100
AcDbLine
 10
2217.673057123668
 20
4208.359204196229
 30
0.0
 11
2041.673057123668
 21
4208.359204196229
 31
0.0
  0
LINE
  5
1AA11
330
747D
100
AcDbEntity
  8
部品1
 48
0.01
100
AcDbLine
 10
2039.673057123668
 20
4206.359204196229
 30
0.0
 11
2039.673057123668
 21
4174.859204196229
 31
0.0
  0
LINE
  5
1AA12
330
747D
100
AcDbEntity
  8
部品1
 48
0.01
100
AcDbLine
 10
2041.673057123668
 20
4172.859204196229
 30
0.0
 11
2217.673057123664
 21
4172.859204196229
 31
0.0
  0
LINE
  5
1AA13
330
747D
100
AcDbEntity
  8
部品1
 48
0.01
100
AcDbLine
 10
2219.673057123664
 20
4174.859204196229
 30
0.0
 11
2219.673057123668
 21
4206.359204196229
 31
0.0
  0
LINE
  5
1AA14
330
747D
100
AcDbEntity
  8
細線
100
AcDbLine
 10
2055.673057123668
 20
4201.859204196229
 30
0.0
 11
2055.673057123668
 21
4178.859204196229
 31
0.0
  0
LINE
  5
1AA15
330
747D
100
AcDbEntity
  8
細線
100
AcDbLine
 10
2203.673057123668
 20
4178.859204196229
 30
0.0
 11
2203.673057123668
 21
4201.859204196229
 31
0.0
  0
LINE
  5
1AA16
330
747D
100
AcDbEntity
  8
細線
100
AcDbLine
 10
2203.673057123668
 20
4201.859204196229
 30
0.0
 11
2129.673057123667
 21
4201.859204196229
 31
0.0
  0
LINE
  5
1AA17
330
747D
100
AcDbEntity
  8
細線
100
AcDbLine
 10
2055.673057123668
 20
4178.859204196229
 30
0.0
 11
2129.673057123667
 21
4178.859204196229
 31
0.0
  0
LINE
  5
1AA18
330
747D
100
AcDbEntity
  8
細線
100
AcDbLine
 10
2129.673057123667
 20
4201.859204196229
 30
0.0
 11
2055.673057123668
 21
4201.859204196229
 31
0.0
  0
LINE
  5
1AA19
330
747D
100
AcDbEntity
  8
細線
100
AcDbLine
 10
2129.673057123664
 20
4178.859204196229
 30
0.0
 11
2203.673057123668
 21
4178.859204196229
 31
0.0
  0
ARC
  5
1AA1A
330
747D
100
AcDbEntity
  8
部品1
 48
0.01
100
AcDbCircle
 10
2041.673057123668
 20
4206.359204196229
 30
0.0
 40
2.0
100
AcDbArc
 50
90.0
 51
180.0
  0
ARC
  5
1AA1B
330
747D
100
AcDbEntity
  8
部品1
 48
0.01
100
AcDbCircle
 10
2041.673057123668
 20
4174.859204196229
 30
0.0
 40
2.0
100
AcDbArc
 50
180.0
 51
270.0
  0
ARC
  5
1AA1C
330
747D
100
AcDbEntity
  8
部品1
 48
0.01
100
AcDbCircle
 10
2217.673057123668
 20
4206.359204196229
 30
0.0
 40
2.0
100
AcDbArc
 50
0.0
 51
90.0
  0
ARC
  5
1AA1D
330
747D
100
AcDbEntity
  8
部品1
 48
0.01
100
AcDbCircle
 10
2217.673057123664
 20
4174.859204196229
 30
0.0
 40
2.0
100
AcDbArc
 50
270.0
 51
0.0
  0
ARC
  5
1AA1E
330
747D
100
AcDbEntity
  8
細線
 48
50.0
100
AcDbCircle
 10
2444.673057123662
 20
2864.859204196229
 30
0.0
 40
15.0
100
AcDbArc
 50
90.0
 51
270.0
  0
ARC
  5
1AA1F
330
747D
100
AcDbEntity
  8
細線
 48
50.0
100
AcDbCircle
 10
2544.673057123662
 20
2864.859204196229
 30
0.0
 40
15.0
100
AcDbArc
 50
270.0
 51
90.0
  0
LINE
  5
1AA20
330
747D
100
AcDbEntity
  8
細線
 48
50.0
100
AcDbLine
 10
2444.673057123662
 20
2879.859204196229
 30
0.0
 11
2544.673057123662
 21
2879.859204196229
 31
0.0
  0
LINE
  5
1AA21
330
747D
100
AcDbEntity
  8
細線
 48
50.0
100
AcDbLine
 10
2544.673057123662
 20
2849.85920419623
 30
0.0
 11
2444.673057123662
 21
2849.85920419623
 31
0.0
  0
LINE
  5
1AA22
330
747D
100
AcDbEntity
  8
細線
 48
50.0
100
AcDbLine
 10
3044.673057123662
 20
2849.85920419623
 30
0.0
 11
2944.673057123662
 21
2849.85920419623
 31
0.0
  0
LINE
  5
1AA23
330
747D
100
AcDbEntity
  8
細線
 48
50.0
100
AcDbLine
 10
2944.673057123662
 20
2879.859204196229
 30
0.0
 11
3044.673057123662
 21
2879.859204196229
 31
0.0
  0
ARC
  5
1AA24
330
747D
100
AcDbEntity
  8
細線
 48
50.0
100
AcDbCircle
 10
2944.673057123662
 20
2864.859204196229
 30
0.0
 40
15.0
100
AcDbArc
 50
90.0
 51
270.0
  0
ARC
  5
1AA25
330
747D
100
AcDbEntity
  8
細線
 48
50.0
100
AcDbCircle
 10
3044.673057123662
 20
2864.859204196229
 30
0.0
 40
15.0
100
AcDbArc
 50
270.0
 51
90.0
  0
CIRCLE
  5
1AA26
330
747D
100
AcDbEntity
  8
細線
 48
50.0
100
AcDbCircle
 10
2744.673057123661
 20
3189.859204196229
 30
0.0
 40
18.0
  0
CIRCLE
  5
1AA27
330
747D
100
AcDbEntity
  8
細線
 48
50.0
100
AcDbCircle
 10
5374.673057123661
 20
3189.859204196229
 30
0.0
 40
18.0
  0
ARC
  5
1AA28
330
747D
100
AcDbEntity
  8
細線
 48
50.0
100
AcDbCircle
 10
5674.673057123661
 20
2864.859204196229
 30
0.0
 40
15.0
100
AcDbArc
 50
270.0
 51
90.0
  0
ARC
  5
1AA29
330
747D
100
AcDbEntity
  8
細線
 48
50.0
100
AcDbCircle
 10
5574.673057123661
 20
2864.859204196229
 30
0.0
 40
15.0
100
AcDbArc
 50
90.0
 51
270.0
  0
LINE
  5
1AA2A
330
747D
100
AcDbEntity
  8
細線
 48
50.0
100
AcDbLine
 10
5574.673057123661
 20
2879.859204196229
 30
0.0
 11
5674.673057123661
 21
2879.859204196229
 31
0.0
  0
LINE
  5
1AA2B
330
747D
100
AcDbEntity
  8
細線
 48
50.0
100
AcDbLine
 10
5674.673057123661
 20
2849.85920419623
 30
0.0
 11
5574.673057123661
 21
2849.85920419623
 31
0.0
  0
LINE
  5
1AA2C
330
747D
100
AcDbEntity
  8
細線
 48
50.0
100
AcDbLine
 10
5174.673057123661
 20
2849.85920419623
 30
0.0
 11
5074.673057123661
 21
2849.85920419623
 31
0.0
  0
LINE
  5
1AA2D
330
747D
100
AcDbEntity
  8
細線
 48
50.0
100
AcDbLine
 10
5074.673057123661
 20
2879.859204196229
 30
0.0
 11
5174.673057123661
 21
2879.859204196229
 31
0.0
  0
ARC
  5
1AA2E
330
747D
100
AcDbEntity
  8
細線
 48
50.0
100
AcDbCircle
 10
5174.673057123661
 20
2864.859204196229
 30
0.0
 40
15.0
100
AcDbArc
 50
270.0
 51
90.0
  0
ARC
  5
1AA2F
330
747D
100
AcDbEntity
  8
細線
 48
50.0
100
AcDbCircle
 10
5074.673057123661
 20
2864.859204196229
 30
0.0
 40
15.0
100
AcDbArc
 50
90.0
 51
270.0
  0
ARC
  5
1AA30
330
747D
100
AcDbEntity
  8
部品1
 48
0.01
100
AcDbCircle
 10
4847.673057123664
 20
4174.859204196229
 30
0.0
 40
2.0
100
AcDbArc
 50
270.0
 51
0.0
  0
ARC
  5
1AA31
330
747D
100
AcDbEntity
  8
部品1
 48
0.01
100
AcDbCircle
 10
4847.673057123667
 20
4206.359204196229
 30
0.0
 40
2.0
100
AcDbArc
 50
0.0
 51
90.0
  0
ARC
  5
1AA32
330
747D
100
AcDbEntity
  8
部品1
 48
0.01
100
AcDbCircle
 10
4671.673057123667
 20
4174.859204196229
 30
0.0
 40
2.0
100
AcDbArc
 50
180.0
 51
270.0
  0
ARC
  5
1AA33
330
747D
100
AcDbEntity
  8
部品1
 48
0.01
100
AcDbCircle
 10
4671.673057123667
 20
4206.359204196229
 30
0.0
 40
2.0
100
AcDbArc
 50
90.0
 51
180.0
  0
LINE
  5
1AA34
330
747D
100
AcDbEntity
  8
細線
100
AcDbLine
 10
4759.673057123664
 20
4178.859204196229
 30
0.0
 11
4833.673057123668
 21
4178.859204196229
 31
0.0
  0
LINE
  5
1AA35
330
747D
100
AcDbEntity
  8
細線
100
AcDbLine
 10
4759.673057123667
 20
4201.859204196229
 30
0.0
 11
4685.673057123667
 21
4201.859204196229
 31
0.0
  0
LINE
  5
1AA36
330
747D
100
AcDbEntity
  8
細線
100
AcDbLine
 10
4685.673057123667
 20
4178.859204196229
 30
0.0
 11
4759.673057123667
 21
4178.859204196229
 31
0.0
  0
LINE
  5
1AA37
330
747D
100
AcDbEntity
  8
細線
100
AcDbLine
 10
4833.673057123668
 20
4201.859204196229
 30
0.0
 11
4759.673057123667
 21
4201.859204196229
 31
0.0
  0
LINE
  5
1AA38
330
747D
100
AcDbEntity
  8
細線
100
AcDbLine
 10
4833.673057123668
 20
4178.859204196229
 30
0.0
 11
4833.673057123668
 21
4201.859204196229
 31
0.0
  0
LINE
  5
1AA39
330
747D
100
AcDbEntity
  8
細線
100
AcDbLine
 10
4685.673057123667
 20
4201.859204196229
 30
0.0
 11
4685.673057123667
 21
4178.859204196229
 31
0.0
  0
LINE
  5
1AA3A
330
747D
100
AcDbEntity
  8
部品1
 48
0.01
100
AcDbLine
 10
4849.673057123664
 20
4174.859204196229
 30
0.0
 11
4849.673057123667
 21
4206.359204196229
 31
0.0
  0
LINE
  5
1AA3B
330
747D
100
AcDbEntity
  8
部品1
 48
0.01
100
AcDbLine
 10
4671.673057123667
 20
4172.859204196229
 30
0.0
 11
4847.673057123664
 21
4172.859204196229
 31
0.0
  0
LINE
  5
1AA3C
330
747D
100
AcDbEntity
  8
部品1
 48
0.01
100
AcDbLine
 10
4669.673057123667
 20
4206.359204196229
 30
0.0
 11
4669.673057123667
 21
4174.859204196229
 31
0.0
  0
LINE
  5
1AA3D
330
747D
100
AcDbEntity
  8
部品1
 48
0.01
100
AcDbLine
 10
4847.673057123667
 20
4208.359204196229
 30
0.0
 11
4671.673057123667
 21
4208.359204196229
 31
0.0
  0
LINE
  5
1AA3E
330
747D
100
AcDbEntity
  8
細線
100
AcDbLine
 10
4685.673057123667
 20
4195.859204196229
 30
0.0
 11
4759.673057123667
 21
4195.859204196229
 31
0.0
  0
LINE
  5
1AA3F
330
747D
100
AcDbEntity
  8
細線
100
AcDbLine
 10
4685.673057123667
 20
4189.859204196229
 30
0.0
 11
4759.673057123667
 21
4189.859204196229
 31
0.0
  0
LINE
  5
1AA40
330
747D
100
AcDbEntity
  8
細線
100
AcDbLine
 10
4685.673057123664
 20
4183.859204196229
 30
0.0
 11
4759.673057123667
 21
4183.859204196229
 31
0.0
  0
LINE
  5
1AA41
330
747D
100
AcDbEntity
  8
細線
100
AcDbLine
 10
4685.673057123667
 20
4195.859204196229
 30
0.0
 11
4754.673057123667
 21
4195.859204196229
 31
0.0
  0
LINE
  5
1AA42
330
747D
100
AcDbEntity
  8
細線
100
AcDbLine
 10
4833.673057123665
 20
4195.859204196229
 30
0.0
 11
4759.673057123667
 21
4195.859204196229
 31
0.0
  0
LINE
  5
1AA43
330
747D
100
AcDbEntity
  8
細線
100
AcDbLine
 10
4833.673057123665
 20
4183.859204196229
 30
0.0
 11
4759.673057123667
 21
4183.859204196229
 31
0.0
  0
LINE
  5
1AA44
330
747D
100
AcDbEntity
  8
細線
100
AcDbLine
 10
4833.673057123665
 20
4189.859204196229
 30
0.0
 11
4759.673057123667
 21
4189.859204196229
 31
0.0
  0
LINE
  5
1AA45
330
747D
100
AcDbEntity
  8
細線
100
AcDbLine
 10
4759.673057123667
 20
4201.859204196229
 30
0.0
 11
4759.673057123664
 21
4178.859204196229
 31
0.0
  0
LINE
  5
1AA46
330
747D
100
AcDbEntity
  8
細線
100
AcDbLine
 10
5989.673057123663
 20
4201.859204196229
 30
0.0
 11
5989.673057123667
 21
4178.859204196229
 31
0.0
  0
LINE
  5
1AA47
330
747D
100
AcDbEntity
  8
細線
100
AcDbLine
 10
5915.673057123668
 20
4189.859204196229
 30
0.0
 11
5989.673057123663
 21
4189.859204196229
 31
0.0
  0
LINE
  5
1AA48
330
747D
100
AcDbEntity
  8
細線
100
AcDbLine
 10
5915.673057123668
 20
4183.859204196229
 30
0.0
 11
5989.673057123663
 21
4183.859204196229
 31
0.0
  0
LINE
  5
1AA49
330
747D
100
AcDbEntity
  8
細線
100
AcDbLine
 10
5915.673057123668
 20
4195.859204196229
 30
0.0
 11
5989.673057123663
 21
4195.859204196229
 31
0.0
  0
LINE
  5
1AA4A
330
747D
100
AcDbEntity
  8
細線
100
AcDbLine
 10
6063.673057123664
 20
4195.859204196229
 30
0.0
 11
5994.673057123664
 21
4195.859204196229
 31
0.0
  0
LINE
  5
1AA4B
330
747D
100
AcDbEntity
  8
細線
100
AcDbLine
 10
6063.673057123668
 20
4183.859204196229
 30
0.0
 11
5989.673057123663
 21
4183.859204196229
 31
0.0
  0
LINE
  5
1AA4C
330
747D
100
AcDbEntity
  8
細線
100
AcDbLine
 10
6063.673057123664
 20
4189.859204196229
 30
0.0
 11
5989.673057123663
 21
4189.859204196229
 31
0.0
  0
LINE
  5
1AA4D
330
747D
100
AcDbEntity
  8
細線
100
AcDbLine
 10
6063.673057123664
 20
4195.859204196229
 30
0.0
 11
5989.673057123663
 21
4195.859204196229
 31
0.0
  0
LINE
  5
1AA4E
330
747D
100
AcDbEntity
  8
部品1
 48
0.01
100
AcDbLine
 10
5901.673057123664
 20
4208.359204196229
 30
0.0
 11
6077.673057123664
 21
4208.359204196229
 31
0.0
  0
LINE
  5
1AA4F
330
747D
100
AcDbEntity
  8
部品1
 48
0.01
100
AcDbLine
 10
6079.673057123664
 20
4206.359204196229
 30
0.0
 11
6079.673057123664
 21
4174.859204196229
 31
0.0
  0
LINE
  5
1AA50
330
747D
100
AcDbEntity
  8
部品1
 48
0.01
100
AcDbLine
 10
6077.673057123664
 20
4172.859204196229
 30
0.0
 11
5901.673057123668
 21
4172.859204196229
 31
0.0
  0
LINE
  5
1AA51
330
747D
100
AcDbEntity
  8
部品1
 48
0.01
100
AcDbLine
 10
5899.673057123667
 20
4174.859204196229
 30
0.0
 11
5899.673057123663
 21
4206.359204196229
 31
0.0
  0
LINE
  5
1AA52
330
747D
100
AcDbEntity
  8
細線
100
AcDbLine
 10
6063.673057123664
 20
4201.859204196229
 30
0.0
 11
6063.673057123664
 21
4178.859204196229
 31
0.0
  0
LINE
  5
1AA53
330
747D
100
AcDbEntity
  8
細線
100
AcDbLine
 10
5915.673057123664
 20
4178.859204196229
 30
0.0
 11
5915.673057123664
 21
4201.859204196229
 31
0.0
  0
LINE
  5
1AA54
330
747D
100
AcDbEntity
  8
細線
100
AcDbLine
 10
5915.673057123664
 20
4201.859204196229
 30
0.0
 11
5989.673057123663
 21
4201.859204196229
 31
0.0
  0
LINE
  5
1AA55
330
747D
100
AcDbEntity
  8
細線
100
AcDbLine
 10
6063.673057123664
 20
4178.859204196229
 30
0.0
 11
5989.673057123663
 21
4178.859204196229
 31
0.0
  0
LINE
  5
1AA56
330
747D
100
AcDbEntity
  8
細線
100
AcDbLine
 10
5989.673057123663
 20
4201.859204196229
 30
0.0
 11
6063.673057123664
 21
4201.859204196229
 31
0.0
  0
LINE
  5
1AA57
330
747D
100
AcDbEntity
  8
細線
100
AcDbLine
 10
5989.673057123667
 20
4178.859204196229
 30
0.0
 11
5915.673057123664
 21
4178.859204196229
 31
0.0
  0
ARC
  5
1AA58
330
747D
100
AcDbEntity
  8
部品1
 48
0.01
100
AcDbCircle
 10
6077.673057123664
 20
4206.359204196229
 30
0.0
 40
2.0
100
AcDbArc
 50
0.0
 51
90.0
  0
ARC
  5
1AA59
330
747D
100
AcDbEntity
  8
部品1
 48
0.01
100
AcDbCircle
 10
6077.673057123664
 20
4174.859204196229
 30
0.0
 40
2.0
100
AcDbArc
 50
270.0
 51
0.0
  0
ARC
  5
1AA5A
330
747D
100
AcDbEntity
  8
部品1
 48
0.01
100
AcDbCircle
 10
5901.673057123664
 20
4206.359204196229
 30
0.0
 40
2.0
100
AcDbArc
 50
90.0
 51
180.0
  0
ARC
  5
1AA5B
330
747D
100
AcDbEntity
  8
部品1
 48
0.01
100
AcDbCircle
 10
5901.673057123668
 20
4174.859204196229
 30
0.0
 40
2.0
100
AcDbArc
 50
180.0
 51
270.0
  0
ARC
  5
1AA5C
330
747D
100
AcDbEntity
  8
部品1
 48
0.01
100
AcDbCircle
 10
8531.673057123667
 20
4174.859204196229
 30
0.0
 40
2.0
100
AcDbArc
 50
180.0
 51
270.0
  0
ARC
  5
1AA5D
330
747D
100
AcDbEntity
  8
部品1
 48
0.01
100
AcDbCircle
 10
8531.673057123665
 20
4206.359204196229
 30
0.0
 40
2.0
100
AcDbArc
 50
90.0
 51
180.0
  0
ARC
  5
1AA5E
330
747D
100
AcDbEntity
  8
部品1
 48
0.01
100
AcDbCircle
 10
8707.673057123663
 20
4174.859204196229
 30
0.0
 40
2.0
100
AcDbArc
 50
270.0
 51
0.0
  0
ARC
  5
1AA5F
330
747D
100
AcDbEntity
  8
部品1
 48
0.01
100
AcDbCircle
 10
8707.673057123663
 20
4206.359204196229
 30
0.0
 40
2.0
100
AcDbArc
 50
0.0
 51
90.0
  0
LINE
  5
1AA60
330
747D
100
AcDbEntity
  8
細線
100
AcDbLine
 10
8619.673057123668
 20
4178.859204196229
 30
0.0
 11
8545.673057123664
 21
4178.859204196229
 31
0.0
  0
LINE
  5
1AA61
330
747D
100
AcDbEntity
  8
細線
100
AcDbLine
 10
8619.673057123664
 20
4201.859204196229
 30
0.0
 11
8693.673057123664
 21
4201.859204196229
 31
0.0
  0
LINE
  5
1AA62
330
747D
100
AcDbEntity
  8
細線
100
AcDbLine
 10
8693.673057123664
 20
4178.859204196229
 30
0.0
 11
8619.673057123664
 21
4178.859204196229
 31
0.0
  0
LINE
  5
1AA63
330
747D
100
AcDbEntity
  8
細線
100
AcDbLine
 10
8545.673057123664
 20
4201.859204196229
 30
0.0
 11
8619.673057123664
 21
4201.859204196229
 31
0.0
  0
LINE
  5
1AA64
330
747D
100
AcDbEntity
  8
細線
100
AcDbLine
 10
8545.673057123664
 20
4178.859204196229
 30
0.0
 11
8545.673057123664
 21
4201.859204196229
 31
0.0
  0
LINE
  5
1AA65
330
747D
100
AcDbEntity
  8
細線
100
AcDbLine
 10
8693.673057123664
 20
4201.859204196229
 30
0.0
 11
8693.673057123664
 21
4178.859204196229
 31
0.0
  0
LINE
  5
1AA66
330
747D
100
AcDbEntity
  8
部品1
 48
0.01
100
AcDbLine
 10
8529.673057123668
 20
4174.859204196229
 30
0.0
 11
8529.673057123664
 21
4206.359204196229
 31
0.0
  0
LINE
  5
1AA67
330
747D
100
AcDbEntity
  8
部品1
 48
0.01
100
AcDbLine
 10
8707.673057123663
 20
4172.859204196229
 30
0.0
 11
8531.673057123667
 21
4172.859204196229
 31
0.0
  0
LINE
  5
1AA68
330
747D
100
AcDbEntity
  8
部品1
 48
0.01
100
AcDbLine
 10
8709.673057123664
 20
4206.359204196229
 30
0.0
 11
8709.673057123664
 21
4174.859204196229
 31
0.0
  0
LINE
  5
1AA69
330
747D
100
AcDbEntity
  8
部品1
 48
0.01
100
AcDbLine
 10
8531.673057123665
 20
4208.359204196229
 30
0.0
 11
8707.673057123663
 21
4208.359204196229
 31
0.0
  0
LINE
  5
1AA6A
330
747D
100
AcDbEntity
  8
細線
100
AcDbLine
 10
8693.673057123664
 20
4195.859204196229
 30
0.0
 11
8619.673057123664
 21
4195.859204196229
 31
0.0
  0
LINE
  5
1AA6B
330
747D
100
AcDbEntity
  8
細線
100
AcDbLine
 10
8693.673057123664
 20
4189.859204196229
 30
0.0
 11
8619.673057123664
 21
4189.859204196229
 31
0.0
  0
LINE
  5
1AA6C
330
747D
100
AcDbEntity
  8
細線
100
AcDbLine
 10
8693.673057123668
 20
4183.859204196229
 30
0.0
 11
8619.673057123664
 21
4183.859204196229
 31
0.0
  0
LINE
  5
1AA6D
330
747D
100
AcDbEntity
  8
細線
100
AcDbLine
 10
8693.673057123664
 20
4195.859204196229
 30
0.0
 11
8624.673057123663
 21
4195.859204196229
 31
0.0
  0
LINE
  5
1AA6E
330
747D
100
AcDbEntity
  8
細線
100
AcDbLine
 10
8545.673057123668
 20
4195.859204196229
 30
0.0
 11
8619.673057123664
 21
4195.859204196229
 31
0.0
  0
LINE
  5
1AA6F
330
747D
100
AcDbEntity
  8
細線
100
AcDbLine
 10
8545.673057123668
 20
4183.859204196229
 30
0.0
 11
8619.673057123664
 21
4183.859204196229
 31
0.0
  0
LINE
  5
1AA70
330
747D
100
AcDbEntity
  8
細線
100
AcDbLine
 10
8545.673057123668
 20
4189.859204196229
 30
0.0
 11
8619.673057123664
 21
4189.859204196229
 31
0.0
  0
LINE
  5
1AA71
330
747D
100
AcDbEntity
  8
細線
100
AcDbLine
 10
8619.673057123664
 20
4201.859204196229
 30
0.0
 11
8619.673057123668
 21
4178.859204196229
 31
0.0
  0
LINE
  5
1AA72
330
747D
100
AcDbEntity
  8
細線
100
AcDbLine
 10
7389.673057123667
 20
4201.859204196229
 30
0.0
 11
7389.673057123665
 21
4178.859204196229
 31
0.0
  0
LINE
  5
1AA73
330
747D
100
AcDbEntity
  8
細線
100
AcDbLine
 10
7463.673057123664
 20
4189.859204196229
 30
0.0
 11
7389.673057123667
 21
4189.859204196229
 31
0.0
  0
LINE
  5
1AA74
330
747D
100
AcDbEntity
  8
細線
100
AcDbLine
 10
7463.673057123664
 20
4183.859204196229
 30
0.0
 11
7389.673057123667
 21
4183.859204196229
 31
0.0
  0
LINE
  5
1AA75
330
747D
100
AcDbEntity
  8
細線
100
AcDbLine
 10
7463.673057123664
 20
4195.859204196229
 30
0.0
 11
7389.673057123667
 21
4195.859204196229
 31
0.0
  0
LINE
  5
1AA76
330
747D
100
AcDbEntity
  8
細線
100
AcDbLine
 10
7315.673057123667
 20
4195.859204196229
 30
0.0
 11
7384.673057123667
 21
4195.859204196229
 31
0.0
  0
LINE
  5
1AA77
330
747D
100
AcDbEntity
  8
細線
100
AcDbLine
 10
7315.673057123664
 20
4183.859204196229
 30
0.0
 11
7389.673057123667
 21
4183.859204196229
 31
0.0
  0
LINE
  5
1AA78
330
747D
100
AcDbEntity
  8
細線
100
AcDbLine
 10
7315.673057123667
 20
4189.859204196229
 30
0.0
 11
7389.673057123667
 21
4189.859204196229
 31
0.0
  0
LINE
  5
1AA79
330
747D
100
AcDbEntity
  8
細線
100
AcDbLine
 10
7315.673057123667
 20
4195.859204196229
 30
0.0
 11
7389.673057123667
 21
4195.859204196229
 31
0.0
  0
LINE
  5
1AA7A
330
747D
100
AcDbEntity
  8
部品1
 48
0.01
100
AcDbLine
 10
7477.673057123668
 20
4208.359204196229
 30
0.0
 11
7301.673057123668
 21
4208.359204196229
 31
0.0
  0
LINE
  5
1AA7B
330
747D
100
AcDbEntity
  8
部品1
 48
0.01
100
AcDbLine
 10
7299.673057123668
 20
4206.359204196229
 30
0.0
 11
7299.673057123668
 21
4174.859204196229
 31
0.0
  0
LINE
  5
1AA7C
330
747D
100
AcDbEntity
  8
部品1
 48
0.01
100
AcDbLine
 10
7301.673057123668
 20
4172.859204196229
 30
0.0
 11
7477.673057123664
 21
4172.859204196229
 31
0.0
  0
LINE
  5
1AA7D
330
747D
100
AcDbEntity
  8
部品1
 48
0.01
100
AcDbLine
 10
7479.673057123664
 20
4174.859204196229
 30
0.0
 11
7479.673057123668
 21
4206.359204196229
 31
0.0
  0
LINE
  5
1AA7E
330
747D
100
AcDbEntity
  8
細線
100
AcDbLine
 10
7315.673057123667
 20
4201.859204196229
 30
0.0
 11
7315.673057123667
 21
4178.859204196229
 31
0.0
  0
LINE
  5
1AA7F
330
747D
100
AcDbEntity
  8
細線
100
AcDbLine
 10
7463.673057123668
 20
4178.859204196229
 30
0.0
 11
7463.673057123668
 21
4201.859204196229
 31
0.0
  0
LINE
  5
1AA80
330
747D
100
AcDbEntity
  8
細線
100
AcDbLine
 10
7463.673057123668
 20
4201.859204196229
 30
0.0
 11
7389.673057123667
 21
4201.859204196229
 31
0.0
  0
LINE
  5
1AA81
330
747D
100
AcDbEntity
  8
細線
100
AcDbLine
 10
7315.673057123667
 20
4178.859204196229
 30
0.0
 11
7389.673057123667
 21
4178.859204196229
 31
0.0
  0
LINE
  5
1AA82
330
747D
100
AcDbEntity
  8
細線
100
AcDbLine
 10
7389.673057123667
 20
4201.859204196229
 30
0.0
 11
7315.673057123667
 21
4201.859204196229
 31
0.0
  0
LINE
  5
1AA83
330
747D
100
AcDbEntity
  8
細線
100
AcDbLine
 10
7389.673057123665
 20
4178.859204196229
 30
0.0
 11
7463.673057123668
 21
4178.859204196229
 31
0.0
  0
ARC
  5
1AA84
330
747D
100
AcDbEntity
  8
部品1
 48
0.01
100
AcDbCircle
 10
7301.673057123668
 20
4206.359204196229
 30
0.0
 40
2.0
100
AcDbArc
 50
90.0
 51
180.0
  0
ARC
  5
1AA85
330
747D
100
AcDbEntity
  8
部品1
 48
0.01
100
AcDbCircle
 10
7301.673057123668
 20
4174.859204196229
 30
0.0
 40
2.0
100
AcDbArc
 50
180.0
 51
270.0
  0
ARC
  5
1AA86
330
747D
100
AcDbEntity
  8
部品1
 48
0.01
100
AcDbCircle
 10
7477.673057123668
 20
4206.359204196229
 30
0.0
 40
2.0
100
AcDbArc
 50
0.0
 51
90.0
  0
ARC
  5
1AA87
330
747D
100
AcDbEntity
  8
部品1
 48
0.01
100
AcDbCircle
 10
7477.673057123664
 20
4174.859204196229
 30
0.0
 40
2.0
100
AcDbArc
 50
270.0
 51
0.0
  0
ARC
  5
1AA88
330
747D
100
AcDbEntity
  8
細線
 48
50.0
100
AcDbCircle
 10
7704.673057123661
 20
2864.859204196229
 30
0.0
 40
15.0
100
AcDbArc
 50
90.0
 51
270.0
  0
ARC
  5
1AA89
330
747D
100
AcDbEntity
  8
細線
 48
50.0
100
AcDbCircle
 10
7804.673057123661
 20
2864.859204196229
 30
0.0
 40
15.0
100
AcDbArc
 50
270.0
 51
90.0
  0
LINE
  5
1AA8A
330
747D
100
AcDbEntity
  8
細線
 48
50.0
100
AcDbLine
 10
7704.673057123661
 20
2879.859204196229
 30
0.0
 11
7804.673057123661
 21
2879.859204196229
 31
0.0
  0
LINE
  5
1AA8B
330
747D
100
AcDbEntity
  8
細線
 48
50.0
100
AcDbLine
 10
7804.673057123661
 20
2849.85920419623
 30
0.0
 11
7704.673057123661
 21
2849.85920419623
 31
0.0
  0
LINE
  5
1AA8C
330
747D
100
AcDbEntity
  8
細線
 48
50.0
100
AcDbLine
 10
8304.673057123663
 20
2849.85920419623
 30
0.0
 11
8204.673057123661
 21
2849.85920419623
 31
0.0
  0
LINE
  5
1AA8D
330
747D
100
AcDbEntity
  8
細線
 48
50.0
100
AcDbLine
 10
8204.673057123661
 20
2879.859204196229
 30
0.0
 11
8304.673057123663
 21
2879.859204196229
 31
0.0
  0
ARC
  5
1AA8E
330
747D
100
AcDbEntity
  8
細線
 48
50.0
100
AcDbCircle
 10
8204.673057123661
 20
2864.859204196229
 30
0.0
 40
15.0
100
AcDbArc
 50
90.0
 51
270.0
  0
ARC
  5
1AA8F
330
747D
100
AcDbEntity
  8
細線
 48
50.0
100
AcDbCircle
 10
8304.673057123663
 20
2864.859204196229
 30
0.0
 40
15.0
100
AcDbArc
 50
270.0
 51
90.0
  0
CIRCLE
  5
1AA90
330
747D
100
AcDbEntity
  8
細線
 48
50.0
100
AcDbCircle
 10
8004.67305712366
 20
3189.859204196229
 30
0.0
 40
18.0
  0
LINE
  5
1AAAC
330
747D
100
AcDbEntity
  8
部品1
100
AcDbLine
 10
6214.673057123662
 20
10292.49742454598
 30
0.0
 11
6214.673057123662
 21
10264.49742454598
 31
0.0
  0
LINE
  5
1AAAD
330
747D
100
AcDbEntity
  8
部品1
 48
50.0
100
AcDbLine
 10
5387.173057123663
 20
10256.49742454597
 30
0.0
 11
5387.173057123663
 21
10264.49742454598
 31
0.0
  0
LINE
  5
1AAAE
330
747D
100
AcDbEntity
  8
部品1
 48
50.0
100
AcDbLine
 10
5362.173057123663
 20
10256.49742454596
 30
0.0
 11
5362.173057123662
 21
10264.49742454598
 31
0.0
  0
LINE
  5
1AAAF
330
747D
100
AcDbEntity
  8
部品1
100
AcDbLine
 10
5794.673057123662
 20
10292.49742454598
 30
0.0
 11
5794.673057123662
 21
10264.49742454598
 31
0.0
  0
LINE
  5
1AAB0
330
747D
100
AcDbEntity
  8
部品1
100
AcDbLine
 10
5339.673057123663
 20
10282.49742454597
 30
0.0
 11
5339.673057123663
 21
10264.49742454597
 31
0.0
  0
LINE
  5
1AAB1
330
747D
100
AcDbEntity
  8
部品1
100
AcDbLine
 10
5339.673057123663
 20
10282.49742454597
 30
0.0
 11
5345.673057123663
 21
10282.49742454597
 31
0.0
  0
LINE
  5
1AAB2
330
747D
100
AcDbEntity
  8
部品1
100
AcDbLine
 10
5409.673057123663
 20
10282.49742454597
 30
0.0
 11
5409.673057123663
 21
10264.49742454597
 31
0.0
  0
LINE
  5
1AAB3
330
747D
100
AcDbEntity
  8
部品1
100
AcDbLine
 10
5403.673057123663
 20
10282.49742454597
 30
0.0
 11
5409.673057123663
 21
10282.49742454597
 31
0.0
  0
LINE
  5
1AAB4
330
747D
100
AcDbEntity
  8
部品1
100
AcDbLine
 10
5362.173057123663
 20
10256.49742454596
 30
0.0
 11
5387.173057123663
 21
10256.49742454597
 31
0.0
  0
LINE
  5
1AAB5
330
747D
100
AcDbEntity
  8
部品1
100
AcDbLine
 10
5374.673057123663
 20
10292.49742454598
 30
0.0
 11
5374.673057123663
 21
10264.49742454598
 31
0.0
  0
LINE
  5
1AAB6
330
747D
100
AcDbEntity
  8
部品1
100
AcDbLine
 10
4954.673057123663
 20
10292.49742454587
 30
0.0
 11
4954.673057123663
 21
10264.49742454587
 31
0.0
  0
LINE
  5
1AAB7
330
747D
100
AcDbEntity
  8
部品1
100
AcDbLine
 10
4954.673057123663
 20
10292.49742454587
 30
0.0
 11
4954.673057123663
 21
10264.49742454587
 31
0.0
  0
LINE
  5
1AAB8
330
747D
100
AcDbEntity
  8
部品1
100
AcDbLine
 10
4954.673057123663
 20
10292.49742454598
 30
0.0
 11
4954.673057123663
 21
10264.49742454598
 31
0.0
  0
LINE
  5
1AAB9
330
747D
100
AcDbEntity
  8
部品1
100
AcDbLine
 10
4534.673057123663
 20
10292.49742454587
 30
0.0
 11
4534.673057123663
 21
10264.49742454587
 31
0.0
  0
LINE
  5
1AABA
330
747D
100
AcDbEntity
  8
部品1
100
AcDbLine
 10
4534.673057123663
 20
10292.49742454587
 30
0.0
 11
4534.673057123663
 21
10264.49742454587
 31
0.0
  0
LINE
  5
1AABB
330
747D
100
AcDbEntity
  8
部品1
100
AcDbLine
 10
4534.673057123663
 20
10292.49742454598
 30
0.0
 11
4534.673057123663
 21
10264.49742454598
 31
0.0
  0
LINE
  5
1AABC
330
747D
100
AcDbEntity
  8
部品1
100
AcDbLine
 10
5387.173057123663
 20
10264.49742454598
 30
0.0
 11
6661.673057123664
 21
10264.49742454596
 31
0.0
  0
LINE
  5
1AABD
330
747D
100
AcDbEntity
  8
部品1
100
AcDbLine
 10
4087.673057123662
 20
10264.49742454599
 30
0.0
 11
5362.173057123661
 21
10264.49742454598
 31
0.0
  0
LINE
  5
1AABE
330
747D
100
AcDbEntity
  8
部品1
100
AcDbLine
 10
1904.673057123663
 20
10292.49742454598
 30
0.0
 11
1904.673057123663
 21
10264.49742454598
 31
0.0
  0
LINE
  5
1AABF
330
747D
100
AcDbEntity
  8
部品1
100
AcDbLine
 10
1904.673057123663
 20
10292.49742454587
 30
0.0
 11
1904.673057123663
 21
10264.49742454587
 31
0.0
  0
LINE
  5
1AAC0
330
747D
100
AcDbEntity
  8
部品1
100
AcDbLine
 10
1904.673057123663
 20
10292.49742454587
 30
0.0
 11
1904.673057123663
 21
10264.49742454587
 31
0.0
  0
LINE
  5
1AAC1
330
747D
100
AcDbEntity
  8
部品1
100
AcDbLine
 10
2324.673057123663
 20
10292.49742454598
 30
0.0
 11
2324.673057123663
 21
10264.49742454598
 31
0.0
  0
LINE
  5
1AAC2
330
747D
100
AcDbEntity
  8
部品1
100
AcDbLine
 10
2324.673057123663
 20
10292.49742454587
 30
0.0
 11
2324.673057123663
 21
10264.49742454587
 31
0.0
  0
LINE
  5
1AAC3
330
747D
100
AcDbEntity
  8
部品1
100
AcDbLine
 10
2324.673057123663
 20
10292.49742454587
 30
0.0
 11
2324.673057123663
 21
10264.49742454587
 31
0.0
  0
LINE
  5
1AAC4
330
747D
100
AcDbEntity
  8
部品1
100
AcDbLine
 10
2744.673057123663
 20
10292.49742454598
 30
0.0
 11
2744.673057123663
 21
10264.49742454598
 31
0.0
  0
LINE
  5
1AAC5
330
747D
100
AcDbEntity
  8
部品1
100
AcDbLine
 10
2732.173057123663
 20
10256.49742454596
 30
0.0
 11
2757.173057123663
 21
10256.49742454597
 31
0.0
  0
LINE
  5
1AAC6
330
747D
100
AcDbEntity
  8
部品1
100
AcDbLine
 10
2773.673057123663
 20
10282.49742454597
 30
0.0
 11
2779.673057123663
 21
10282.49742454597
 31
0.0
  0
LINE
  5
1AAC7
330
747D
100
AcDbEntity
  8
部品1
100
AcDbLine
 10
2779.673057123663
 20
10282.49742454597
 30
0.0
 11
2779.673057123663
 21
10264.49742454597
 31
0.0
  0
LINE
  5
1AAC8
330
747D
100
AcDbEntity
  8
部品1
100
AcDbLine
 10
2709.673057123663
 20
10282.49742454597
 30
0.0
 11
2715.673057123663
 21
10282.49742454597
 31
0.0
  0
LINE
  5
1AAC9
330
747D
100
AcDbEntity
  8
部品1
100
AcDbLine
 10
2709.673057123663
 20
10282.49742454597
 30
0.0
 11
2709.673057123663
 21
10264.49742454597
 31
0.0
  0
LINE
  5
1AACA
330
747D
100
AcDbEntity
  8
部品1
 48
50.0
100
AcDbLine
 10
2732.173057123663
 20
10256.49742454596
 30
0.0
 11
2732.173057123662
 21
10264.49742454598
 31
0.0
  0
LINE
  5
1AACB
330
747D
100
AcDbEntity
  8
部品1
 48
50.0
100
AcDbLine
 10
2757.173057123663
 20
10256.49742454597
 30
0.0
 11
2757.173057123663
 21
10264.49742454598
 31
0.0
  0
LINE
  5
1AACC
330
747D
100
AcDbEntity
  8
部品1
100
AcDbLine
 10
3164.673057123662
 20
10292.49742454598
 30
0.0
 11
3164.673057123662
 21
10264.49742454598
 31
0.0
  0
LINE
  5
1AACD
330
747D
100
AcDbEntity
  8
部品1
100
AcDbLine
 10
3584.673057123662
 20
10292.49742454598
 30
0.0
 11
3584.673057123662
 21
10264.49742454598
 31
0.0
  0
LINE
  5
1AACE
330
747D
100
AcDbEntity
  8
部品1
100
AcDbLine
 10
2757.173057123663
 20
10264.49742454598
 30
0.0
 11
4031.673057123664
 21
10264.49742454596
 31
0.0
  0
LINE
  5
1AACF
330
747D
100
AcDbEntity
  8
部品1
100
AcDbLine
 10
1457.673057123663
 20
10264.49742454599
 30
0.0
 11
2732.173057123662
 21
10264.49742454598
 31
0.0
  0
ENDSEC
  0
SECTION
  2
OBJECTS
  0
DICTIONARY
  5
7471
330
0
100
AcDbDictionary
281
     1
  3
ACAD_COLOR
350
17AE2
  3
ACAD_GROUP
350
7472
  3
ACAD_LAYOUT
350
17AE3
  3
ACAD_MATERIAL
350
17AE1
  3
ACAD_MLINESTYLE
350
7473
  3
ACAD_PLOTSETTINGS
350
17AE4
  3
ACAD_PLOTSTYLENAME
350
17ADF
  3
ACDBHEADERROUNDTRIPXREC
350
1AB08
  3
AcDbVariableDictionary
350
1AB04
  3
CONTENTDICTIONARY
350
E71C
  3
DRAWINGVARIABLESDICT
350
F3B9
  0
DICTIONARY
  5
18B81
330
7467
100
AcDbDictionary
280
     1
281
     1
  3
ACAD_LAYERSTATES
360
18B82
  0
DICTIONARY
  5
17AE2
102
{ACAD_REACTORS
330
7471
102
}
330
7471
100
AcDbDictionary
281
     1
  0
DICTIONARY
  5
7472
102
{ACAD_REACTORS
330
7471
102
}
330
7471
100
AcDbDictionary
281
     1
  3
*A1
350
17FA7
  3
*A2
350
180C7
  3
*A3
350
180D2
  0
DICTIONARY
  5
17AE3
102
{ACAD_REACTORS
330
7471
102
}
330
7471
100
AcDbDictionary
281
     1
  3
Model
350
17AE5
  3
レイアウト1
350
17AE6
  0
DICTIONARY
  5
17AE1
102
{ACAD_REACTORS
330
7471
102
}
330
7471
100
AcDbDictionary
281
     1
  0
DICTIONARY
  5
7473
102
{ACAD_REACTORS
330
7471
102
}
330
7471
100
AcDbDictionary
281
     1
  3
STANDARD
350
7480
  0
DICTIONARY
  5
17AE4
102
{ACAD_REACTORS
330
7471
102
}
330
7471
100
AcDbDictionary
281
     1
  0
ACDBDICTIONARYWDFLT
  5
17ADF
102
{ACAD_REACTORS
330
7471
102
}
330
7471
100
AcDbDictionary
281
     1
  3
Normal
350
17AE0
100
AcDbDictionaryWithDefault
340
17AE0
  0
DICTIONARY
  5
1AB08
102
{ACAD_REACTORS
330
7471
102
}
330
7471
100
AcDbDictionary
281
     1
  3
COLORDICT
350
1AB0A
  3
MATERIALDICT
350
1AB09
  0
DICTIONARY
  5
1AB04
102
{ACAD_REACTORS
330
7471
102
}
330
7471
100
AcDbDictionary
281
     1
  3
DIMASSOC
350
1AB05
  3
PROJECTNAME
350
1AB06
  0
DICTIONARY
  5
E71C
102
{ACAD_REACTORS
330
7471
102
}
330
7471
100
AcDbDictionary
281
     1
  0
DICTIONARY
  5
F3B9
102
{ACAD_REACTORS
330
7471
102
}
330
7471
100
AcDbDictionary
281
     1
1001
DRAWINGVARIABLESXDATA
1000
POLARMODE
1000
1
  0
DICTIONARY
  5
18B82
102
{ACAD_REACTORS
330
18B81
102
}
330
18B81
100
AcDbDictionary
281
     1
  0
GROUP
  5
17FA7
102
{ACAD_REACTORS
330
7472
102
}
330
7472
100
AcDbGroup
300

 70
     1
 71
     1
  0
GROUP
  5
180C7
102
{ACAD_REACTORS
330
7472
102
}
330
7472
100
AcDbGroup
300

 70
     1
 71
     1
  0
GROUP
  5
180D2
102
{ACAD_REACTORS
330
7472
102
}
330
7472
100
AcDbGroup
300

 70
     1
 71
     1
  0
LAYOUT
  5
17AE5
102
{ACAD_XDICTIONARY
360
1AB0B
102
}
102
{ACAD_REACTORS
330
17AE3
102
}
330
17AE3
100
AcDbPlotSettings
  1

  2
Canon iR C3880/C4580 LIPSLX
  4
A3
  6

 40
5.873749732971191
 41
5.873747825622558
 42
5.873748779296875
 43
5.873748779296875
 44
296.9259948730469
 45
419.9466552734374
 46
0.0
 47
0.0
 48
0.0
 49
0.0
140
0.0
141
0.0
142
1.0
143
40.0
 70
 11952
 72
     1
 73
     1
 74
     2
  7
inaba.ctb
 75
    24
147
0.025
148
0.0
149
0.0
100
AcDbLayout
  1
Model
 70
     1
 71
     0
 10
0.0
 20
0.0
 11
12.0
 21
9.0
 12
0.0
 22
0.0
 32
0.0
 14
0.0
 24
0.0
 34
0.0
 15
0.0
 25
0.0
 35
0.0
146
0.0
 13
0.0
 23
0.0
 33
0.0
 16
1.0
 26
0.0
 36
0.0
 17
0.0
 27
1.0
 37
0.0
 76
     0
330
747D
  0
LAYOUT
  5
17AE6
102
{ACAD_XDICTIONARY
360
1AB0D
102
}
102
{ACAD_REACTORS
330
17AE3
102
}
330
17AE3
100
AcDbPlotSettings
  1

  2
EPSON LP-8300
  4

  6

 40
0.0
 41
0.0
 42
0.0
 43
0.0
 44
0.0
 45
0.0
 46
0.0
 47
0.0
 48
0.0
 49
0.0
140
0.0
141
0.0
142
1.0
143
1.0
 70
   688
 72
     0
 73
     0
 74
     5
  7
inaba.ctb
 75
    16
147
1.0
148
0.0
149
0.0
100
AcDbLayout
  1
レイアウト1
 70
     0
 71
     1
 10
0.0
 20
0.0
 11
420.0
 21
297.0
 12
0.0
 22
0.0
 32
0.0
 14
1.000000000000000E+20
 24
1.000000000000000E+20
 34
1.000000000000000E+20
 15
-1.000000000000000E+20
 25
-1.000000000000000E+20
 35
-1.000000000000000E+20
146
0.0
 13
0.0
 23
0.0
 33
0.0
 16
1.0
 26
0.0
 36
0.0
 17
0.0
 27
1.0
 37
0.0
 76
     0
330
747A
  0
MLINESTYLE
  5
7480
102
{ACAD_REACTORS
330
7473
102
}
330
7473
100
AcDbMlineStyle
  2
STANDARD
 70
     0
  3

 62
     0
 51
90.0
 52
90.0
 71
     2
 49
0.5
 62
   256
  6
BYLAYER
 49
-0.5
 62
   256
  6
BYLAYER
  0
ACDBPLACEHOLDER
  5
17AE0
102
{ACAD_REACTORS
330
17ADF
102
}
330
17ADF
  0
XRECORD
  5
1AB0A
102
{ACAD_REACTORS
330
1AB08
102
}
330
1AB08
100
AcDbXrecord
280
     1
340
17AE2
  0
XRECORD
  5
1AB09
102
{ACAD_REACTORS
330
1AB08
102
}
330
1AB08
100
AcDbXrecord
280
     1
340
17AE1
  0
DICTIONARYVAR
  5
1AB05
102
{ACAD_REACTORS
330
1AB04
102
}
330
1AB04
100
DictionaryVariables
280
     0
  1
1
  0
DICTIONARYVAR
  5
1AB06
102
{ACAD_REACTORS
330
1AB04
102
}
330
1AB04
100
DictionaryVariables
280
     0
  1

  0
DICTIONARY
  5
1AB0B
330
17AE5
100
AcDbDictionary
280
     1
281
     1
  3
ACAD_XREC_ROUNDTRIP
360
1AB0C
  0
DICTIONARY
  5
1AB0D
330
17AE6
100
AcDbDictionary
280
     1
281
     1
  3
ACAD_XREC_ROUNDTRIP
360
1AB0E
  0
XRECORD
  5
1AB0C
102
{ACAD_REACTORS
330
1AB0B
102
}
330
1AB0B
100
AcDbXrecord
280
     1
102
SHADEPLOT
 70
     0
102
SHADEPLOTRESLEVEL
 70
     2
102
SHADEPLOTCUSTOMDPI
 70
   300
  0
XRECORD
  5
1AB0E
102
{ACAD_REACTORS
330
1AB0D
102
}
330
1AB0D
100
AcDbXrecord
280
     1
102
SHADEPLOT
 70
     0
102
SHADEPLOTRESLEVEL
 70
     2
102
SHADEPLOTCUSTOMDPI
 70
   300
  0
ENDSEC
  0
EOF
