  0
SECTION
  2
HEADER
  9
$ACADVER
  1
AC1015
  9
$ACADMAINTVER
 70
    20
  9
$DWGCODEPAGE
  3
ANSI_932
  9
$INSBASE
 10
0.0
 20
0.0
 30
0.0
  9
$EXTMIN
 10
139.9999999999995
 20
-0.0000000000000909
 30
0.0
  9
$EXTMAX
 10
16307.2
 20
11409.6
 30
0.0
  9
$LIMMIN
 10
0.0
 20
0.0
  9
$LIMMAX
 10
16800.0
 20
11880.0
  9
$ORTHOMODE
 70
     0
  9
$REGENMODE
 70
     1
  9
$FILLMODE
 70
     1
  9
$QTEXTMODE
 70
     0
  9
$MIRRTEXT
 70
     1
  9
$LTSCALE
 40
20.0
  9
$ATTMODE
 70
     1
  9
$TEXTSIZE
 40
3.5
  9
$TRACEWID
 40
1.0
  9
$TEXTSTYLE
  7
MSGOTHIC
  9
$CLAYER
  8
部品1
  9
$CELTYPE
  6
BYLAYER
  9
$CECOLOR
 62
   256
  9
$CELTSCALE
 40
50.0
  9
$DISPSILH
 70
     0
  9
$DIMSCALE
 40
40.0
  9
$DIMASZ
 40
2.5
  9
$DIMEXO
 40
0.5
  9
$DIMDLI
 40
7.0
  9
$DIMRND
 40
0.0
  9
$DIMDLE
 40
0.0
  9
$DIMEXE
 40
1.5
  9
$DIMTP
 40
0.0
  9
$DIMTM
 40
0.0
  9
$DIMTXT
 40
3.0
  9
$DIMCEN
 40
0.0
  9
$DIMTSZ
 40
0.0
  9
$DIMTOL
 70
     0
  9
$DIMLIM
 70
     0
  9
$DIMTIH
 70
     0
  9
$DIMTOH
 70
     0
  9
$DIMSE1
 70
     0
  9
$DIMSE2
 70
     0
  9
$DIMTAD
 70
     3
  9
$DIMZIN
 70
     8
  9
$DIMBLK
  1

  9
$DIMASO
 70
     1
  9
$DIMSHO
 70
     1
  9
$DIMPOST
  1

  9
$DIMAPOST
  1

  9
$DIMALT
 70
     0
  9
$DIMALTD
 70
     2
  9
$DIMALTF
 40
0.0394
  9
$DIMLFAC
 40
1.0
  9
$DIMTOFL
 70
     1
  9
$DIMTVP
 40
0.0
  9
$DIMTIX
 70
     1
  9
$DIMSOXD
 70
     0
  9
$DIMSAH
 70
     1
  9
$DIMBLK1
  1
DOTSMALL
  9
$DIMBLK2
  1
DOTSMALL
  9
$DIMSTYLE
  2
INABA_S40G
  9
$DIMCLRD
 70
     0
  9
$DIMCLRE
 70
     0
  9
$DIMCLRT
 70
     7
  9
$DIMTFAC
 40
1.0
  9
$DIMGAP
 40
1.0
  9
$DIMJUST
 70
     0
  9
$DIMSD1
 70
     0
  9
$DIMSD2
 70
     0
  9
$DIMTOLJ
 70
     1
  9
$DIMTZIN
 70
     0
  9
$DIMALTZ
 70
     0
  9
$DIMALTTZ
 70
     0
  9
$DIMUPT
 70
     0
  9
$DIMDEC
 70
     1
  9
$DIMTDEC
 70
     4
  9
$DIMALTU
 70
     2
  9
$DIMALTTD
 70
     2
  9
$DIMTXSTY
  7
STYLE1
  9
$DIMAUNIT
 70
     0
  9
$DIMADEC
 70
     0
  9
$DIMALTRND
 40
0.0
  9
$DIMAZIN
 70
     0
  9
$DIMDSEP
 70
    46
  9
$DIMATFIT
 70
     3
  9
$DIMFRAC
 70
     0
  9
$DIMLDRBLK
  1

  9
$DIMLUNIT
 70
     2
  9
$DIMLWD
 70
    -2
  9
$DIMLWE
 70
    -2
  9
$DIMTMOVE
 70
     0
  9
$LUNITS
 70
     2
  9
$LUPREC
 70
     1
  9
$SKETCHINC
 40
1.0
  9
$FILLETRAD
 40
3.0
  9
$AUNITS
 70
     0
  9
$AUPREC
 70
     0
  9
$MENU
  1
acad
  9
$ELEVATION
 40
0.0
  9
$PELEVATION
 40
0.0
  9
$THICKNESS
 40
0.0
  9
$LIMCHECK
 70
     0
  9
$CHAMFERA
 40
0.0
  9
$CHAMFERB
 40
0.0
  9
$CHAMFERC
 40
0.0
  9
$CHAMFERD
 40
0.0
  9
$SKPOLY
 70
     0
  9
$TDCREATE
 40
2451368.612993866
  9
$TDUCREATE
 40
2451368.237993866
  9
$TDUPDATE
 40
2455569.647552442
  9
$TDUUPDATE
 40
2455569.272552442
  9
$TDINDWG
 40
0.7291432523
  9
$TDUSRTIMER
 40
0.7291432523
  9
$USRTIMER
 70
     1
  9
$ANGBASE
 50
0.0
  9
$ANGDIR
 70
     0
  9
$PDMODE
 70
     3
  9
$PDSIZE
 40
2.0
  9
$PLINEWID
 40
0.0
  9
$SPLFRAME
 70
     0
  9
$SPLINETYPE
 70
     6
  9
$SPLINESEGS
 70
     8
  9
$HANDSEED
  5
17FB3
  9
$SURFTAB1
 70
     6
  9
$SURFTAB2
 70
     6
  9
$SURFTYPE
 70
     6
  9
$SURFU
 70
     6
  9
$SURFV
 70
     6
  9
$UCSBASE
  2

  9
$UCSNAME
  2

  9
$UCSORG
 10
0.0
 20
0.0
 30
0.0
  9
$UCSXDIR
 10
1.0
 20
0.0
 30
0.0
  9
$UCSYDIR
 10
0.0
 20
1.0
 30
0.0
  9
$UCSORTHOREF
  2

  9
$UCSORTHOVIEW
 70
     0
  9
$UCSORGTOP
 10
0.0
 20
0.0
 30
0.0
  9
$UCSORGBOTTOM
 10
0.0
 20
0.0
 30
0.0
  9
$UCSORGLEFT
 10
0.0
 20
0.0
 30
0.0
  9
$UCSORGRIGHT
 10
0.0
 20
0.0
 30
0.0
  9
$UCSORGFRONT
 10
0.0
 20
0.0
 30
0.0
  9
$UCSORGBACK
 10
0.0
 20
0.0
 30
0.0
  9
$PUCSBASE
  2

  9
$PUCSNAME
  2

  9
$PUCSORG
 10
0.0
 20
0.0
 30
0.0
  9
$PUCSXDIR
 10
1.0
 20
0.0
 30
0.0
  9
$PUCSYDIR
 10
0.0
 20
1.0
 30
0.0
  9
$PUCSORTHOREF
  2

  9
$PUCSORTHOVIEW
 70
     0
  9
$PUCSORGTOP
 10
0.0
 20
0.0
 30
0.0
  9
$PUCSORGBOTTOM
 10
0.0
 20
0.0
 30
0.0
  9
$PUCSORGLEFT
 10
0.0
 20
0.0
 30
0.0
  9
$PUCSORGRIGHT
 10
0.0
 20
0.0
 30
0.0
  9
$PUCSORGFRONT
 10
0.0
 20
0.0
 30
0.0
  9
$PUCSORGBACK
 10
0.0
 20
0.0
 30
0.0
  9
$USERI1
 70
     0
  9
$USERI2
 70
     0
  9
$USERI3
 70
     0
  9
$USERI4
 70
     0
  9
$USERI5
 70
     0
  9
$USERR1
 40
0.0
  9
$USERR2
 40
0.0
  9
$USERR3
 40
0.0
  9
$USERR4
 40
0.0
  9
$USERR5
 40
0.0
  9
$WORLDVIEW
 70
     1
  9
$SHADEDGE
 70
     3
  9
$SHADEDIF
 70
    70
  9
$TILEMODE
 70
     1
  9
$MAXACTVP
 70
    16
  9
$PINSBASE
 10
0.0
 20
0.0
 30
0.0
  9
$PLIMCHECK
 70
     0
  9
$PEXTMIN
 10
1.000000000000000E+20
 20
1.000000000000000E+20
 30
1.000000000000000E+20
  9
$PEXTMAX
 10
-1.000000000000000E+20
 20
-1.000000000000000E+20
 30
-1.000000000000000E+20
  9
$PLIMMIN
 10
0.0
 20
0.0
  9
$PLIMMAX
 10
420.0
 20
297.0
  9
$UNITMODE
 70
     0
  9
$VISRETAIN
 70
     0
  9
$PLINEGEN
 70
     0
  9
$PSLTSCALE
 70
     0
  9
$TREEDEPTH
 70
  3020
  9
$CMLSTYLE
  2
STANDARD
  9
$CMLJUST
 70
     0
  9
$CMLSCALE
 40
1.0
  9
$PROXYGRAPHICS
 70
     1
  9
$MEASUREMENT
 70
     1
  9
$CELWEIGHT
370
    -1
  9
$ENDCAPS
280
     0
  9
$JOINSTYLE
280
     0
  9
$LWDISPLAY
290
     0
  9
$INSUNITS
 70
     0
  9
$HYPERLINKBASE
  1

  9
$STYLESHEET
  1
inaba.ctb
  9
$XEDIT
290
     1
  9
$CEPSNTYPE
380
     0
  9
$PSTYLEMODE
290
     1
  9
$FINGERPRINTGUID
  2
{EC090311-9254-4FB8-9BBA-E8C5B2CDFB2F}
  9
$VERSIONGUID
  2
{1600BE80-C8C3-4828-A8C6-0114C9B4AE64}
  9
$EXTNAMES
290
     1
  9
$PSVPSCALE
 40
0.0
  9
$OLESTARTUP
290
     0
  0
ENDSEC
  0
SECTION
  2
CLASSES
  0
CLASS
  1
ACDBDICTIONARYWDFLT
  2
AcDbDictionaryWithDefault
  3
ObjectDBX Classes
 90
        0
280
     0
281
     0
  0
CLASS
  1
DICTIONARYVAR
  2
AcDbDictionaryVar
  3
ObjectDBX Classes
 90
        0
280
     0
281
     0
  0
CLASS
  1
ACDBPLACEHOLDER
  2
AcDbPlaceHolder
  3
ObjectDBX Classes
 90
        0
280
     0
281
     0
  0
CLASS
  1
LAYOUT
  2
AcDbLayout
  3
ObjectDBX Classes
 90
        0
280
     0
281
     0
  0
ENDSEC
  0
SECTION
  2
TABLES
  0
TABLE
  2
VPORT
  5
746D
330
0
100
AcDbSymbolTable
 70
     2
  0
VPORT
  5
17FAB
330
746D
100
AcDbSymbolTableRecord
100
AcDbViewportTableRecord
  2
*Active
 70
     0
 10
0.0
 20
0.0
 11
1.0
 21
1.0
 12
11720.08798000114
 22
5704.77863699966
 13
0.0
 23
0.0
 14
10.0
 24
10.0
 15
10.0
 25
10.0
 16
0.0
 26
0.0
 36
1.0
 17
0.0
 27
0.0
 37
0.0
 40
11513.38691418082
 41
2.234800838574423
 42
50.0
 43
0.0
 44
0.0
 50
0.0
 51
0.0
 71
     0
 72
     0
 73
     1
 74
     0
 75
     0
 76
     0
 77
     0
 78
     0
281
     0
 65
     1
110
0.0
120
0.0
130
0.0
111
1.0
121
0.0
131
0.0
112
0.0
122
1.0
132
0.0
 79
     0
146
0.0
  0
ENDTAB
  0
TABLE
  2
LTYPE
  5
746A
330
0
100
AcDbSymbolTable
 70
     3
  0
LTYPE
  5
7477
330
746A
100
AcDbSymbolTableRecord
100
AcDbLinetypeTableRecord
  2
BYBLOCK
 70
     0
  3

 72
    65
 73
     0
 40
0.0
  0
LTYPE
  5
7478
330
746A
100
AcDbSymbolTableRecord
100
AcDbLinetypeTableRecord
  2
BYLAYER
 70
     0
  3

 72
    65
 73
     0
 40
0.0
  0
LTYPE
  5
7479
330
746A
100
AcDbSymbolTableRecord
100
AcDbLinetypeTableRecord
  2
CONTINUOUS
 70
     0
  3
Solid line
 72
    65
 73
     0
 40
0.0
  0
LTYPE
  5
781A
330
746A
100
AcDbSymbolTableRecord
100
AcDbLinetypeTableRecord
  2
HIDDEN
 70
     0
  3
__ __ __ __ __ __ __ __ __ __ __ __ __ __ __ __
 72
    65
 73
     2
 40
0.375
 49
0.25
 74
     0
 49
-0.125
 74
     0
  0
LTYPE
  5
781B
330
746A
100
AcDbSymbolTableRecord
100
AcDbLinetypeTableRecord
  2
PHANTOM
 70
     0
  3
______  __  __  ______  __  __  ______  __  __ 
 72
    65
 73
     6
 40
2.5
 49
1.25
 74
     0
 49
-0.25
 74
     0
 49
0.25
 74
     0
 49
-0.25
 74
     0
 49
0.25
 74
     0
 49
-0.25
 74
     0
  0
ENDTAB
  0
TABLE
  2
LAYER
  5
7467
102
{ACAD_XDICTIONARY
360
16DD9
102
}
330
0
100
AcDbSymbolTable
 70
    10
  0
LAYER
  5
7474
330
7467
100
AcDbSymbolTableRecord
100
AcDbLayerTableRecord
  2
0
 70
     0
 62
     7
  6
CONTINUOUS
370
    -3
390
1675D
  0
LAYER
  5
DEB3
330
7467
100
AcDbSymbolTableRecord
100
AcDbLayerTableRecord
  2
寸法
 70
     0
 62
     4
  6
CONTINUOUS
370
    -3
390
1675D
  0
LAYER
  5
DEB4
330
7467
100
AcDbSymbolTableRecord
100
AcDbLayerTableRecord
  2
部品1
 70
     0
 62
     7
  6
CONTINUOUS
370
    -3
390
1675D
  0
LAYER
  5
DEB5
330
7467
100
AcDbSymbolTableRecord
100
AcDbLayerTableRecord
  2
補助
 70
     0
 62
    -1
  6
CONTINUOUS
370
    -3
390
1675D
  0
LAYER
  5
DEB6
330
7467
100
AcDbSymbolTableRecord
100
AcDbLayerTableRecord
  2
文字
 70
     0
 62
     7
  6
CONTINUOUS
370
    -3
390
1675D
  0
LAYER
  5
F255
330
7467
100
AcDbSymbolTableRecord
100
AcDbLayerTableRecord
  2
DEFPOINTS
 70
     0
 62
     7
  6
CONTINUOUS
290
     0
370
    -3
390
1675D
  0
LAYER
  5
10B54
330
7467
100
AcDbSymbolTableRecord
100
AcDbLayerTableRecord
  2
仕様書枠
 70
     0
 62
   230
  6
CONTINUOUS
370
    -3
390
1675D
  0
LAYER
  5
11729
330
7467
100
AcDbSymbolTableRecord
100
AcDbLayerTableRecord
  2
Ｇ．Ｌ
 70
     0
 62
    30
  6
CONTINUOUS
370
    -3
390
1675D
  0
LAYER
  5
1173F
330
7467
100
AcDbSymbolTableRecord
100
AcDbLayerTableRecord
  2
細線
 70
     0
 62
     5
  6
CONTINUOUS
370
    -3
390
1675D
  0
LAYER
  5
142E2
330
7467
100
AcDbSymbolTableRecord
100
AcDbLayerTableRecord
  2
破線
 70
     0
 62
     2
  6
HIDDEN
370
    -3
390
1675D
  0
ENDTAB
  0
TABLE
  2
STYLE
  5
7468
330
0
100
AcDbSymbolTable
 70
     6
  0
STYLE
  5
7475
330
7468
100
AcDbSymbolTableRecord
100
AcDbTextStyleTableRecord
  2
STANDARD
 70
     0
 40
0.0
 41
1.0
 50
0.0
 71
     0
 42
4.0
  3
txt
  4
C:\AutoCAD LT\bigfont.shx
  0
STYLE
  5
763C
330
7468
100
AcDbSymbolTableRecord
100
AcDbTextStyleTableRecord
  2
MSMINCHO
 70
     0
 40
0.0
 41
1.0
 50
0.0
 71
     0
 42
1.199999999999999
  3
C:\AutoCAD LT\msminch2.TTF
  4

  0
STYLE
  5
F706
330
7468
100
AcDbSymbolTableRecord
100
AcDbTextStyleTableRecord
  2
STYLE1
 70
     0
 40
0.0
 41
1.0
 50
0.0
 71
     0
 42
4.0
  3
isocp.shx
  4
bigfont.shx
  0
STYLE
  5
103BF
330
7468
100
AcDbSymbolTableRecord
100
AcDbTextStyleTableRecord
  2
STYLE2
 70
     0
 40
0.0
 41
1.0
 50
0.0
 71
     0
 42
100.0
  3
MS PGothic.ttf
  4

1001
ACAD
1000
MS PGothic
1071
    32818
  0
STYLE
  5
10BAA
330
7468
100
AcDbSymbolTableRecord
100
AcDbTextStyleTableRecord
  2
STYLE3
 70
     0
 40
0.0
 41
1.0
 50
0.0
 71
     0
 42
100.0
  3
DFPGothic-EB.ttf
  4

1001
ACAD
1000
DFPGothic-EB
1071
    32818
  0
STYLE
  5
11A15
330
7468
100
AcDbSymbolTableRecord
100
AcDbTextStyleTableRecord
  2
MSGOTHIC
 70
     0
 40
0.0
 41
1.0
 50
0.0
 71
     0
 42
3.5
  3
MS PGothic.ttf
  4

1001
ACAD
1000
MS PGothic
1071
    32818
  0
ENDTAB
  0
TABLE
  2
VIEW
  5
746B
330
0
100
AcDbSymbolTable
 70
     0
  0
ENDTAB
  0
TABLE
  2
UCS
  5
746C
330
0
100
AcDbSymbolTable
 70
     0
  0
ENDTAB
  0
TABLE
  2
APPID
  5
746E
330
0
100
AcDbSymbolTable
 70
     6
  0
APPID
  5
7476
330
746E
100
AcDbSymbolTableRecord
100
AcDbRegAppTableRecord
  2
ACAD
 70
     0
  0
APPID
  5
DEA9
330
746E
100
AcDbSymbolTableRecord
100
AcDbRegAppTableRecord
  2
CONTENTBLOCKICON
 70
     0
  0
APPID
  5
DEAA
330
746E
100
AcDbSymbolTableRecord
100
AcDbRegAppTableRecord
  2
CONTENTBLOCKDESCRIPTION
 70
     0
  0
APPID
  5
E71D
330
746E
100
AcDbSymbolTableRecord
100
AcDbRegAppTableRecord
  2
CONTENTTABDATA
 70
     0
  0
APPID
  5
E71E
330
746E
100
AcDbSymbolTableRecord
100
AcDbRegAppTableRecord
  2
CONTENTCURRENTTAB
 70
     0
  0
APPID
  5
F3BA
330
746E
100
AcDbSymbolTableRecord
100
AcDbRegAppTableRecord
  2
DRAWINGVARIABLESXDATA
 70
     0
  0
ENDTAB
  0
TABLE
  2
DIMSTYLE
  5
746F
330
0
100
AcDbSymbolTable
 70
     1
100
AcDbDimStyleTable
 71
     1
340
F71F
  0
DIMSTYLE
105
F71F
102
{ACAD_REACTORS
330
164EB
330
164F2
330
164F7
330
164F9
330
164FA
330
164FB
330
1650E
330
1650F
330
16510
330
16528
330
1652B
330
16556
330
16557
330
16F7E
330
16FBA
330
16FBB
330
16FBC
330
17669
330
1766A
330
1766B
330
1769B
330
1769F
330
176A0
330
176A1
330
176AF
330
176BE
330
17BEA
330
17BEB
330
17BEC
102
}
330
746F
100
AcDbSymbolTableRecord
100
AcDbDimStyleTableRecord
  2
INABA_S40G
 70
     0
 40
40.0
 41
2.5
 42
0.5
 43
7.0
 44
1.5
 73
     0
 74
     0
 77
     3
 78
     8
140
3.0
141
0.0
143
0.0394
147
1.0
172
     1
173
     1
174
     1
178
     7
271
     1
340
F706
341
F770
343
F770
344
F770
  0
ENDTAB
  0
TABLE
  2
BLOCK_RECORD
  5
7466
330
0
100
AcDbSymbolTable
 70
    32
  0
BLOCK_RECORD
  5
747D
330
7466
100
AcDbSymbolTableRecord
100
AcDbBlockTableRecord
  2
*MODEL_SPACE
340
16762
  0
BLOCK_RECORD
  5
747A
330
7466
100
AcDbSymbolTableRecord
100
AcDbBlockTableRecord
  2
*PAPER_SPACE
340
16763
  0
BLOCK_RECORD
  5
F770
330
7466
100
AcDbSymbolTableRecord
100
AcDbBlockTableRecord
  2
_DOTSMALL
340
0
102
{BLKREFS
331
179ED
331
179EE
331
17A19
331
17A1A
331
17A4F
331
17A50
331
17A59
331
17A5A
331
17D57
331
17D58
331
17D61
331
17D62
331
17D6A
331
17D6B
331
17D75
331
17D76
331
17D7E
331
17D7F
331
17D89
331
17D8A
331
17D92
331
17D93
331
17D9B
331
17D9C
331
17DA4
331
17DA5
331
17DAF
331
17DB0
331
17DBA
331
17DBB
331
17DCE
331
17DCF
331
17DD9
331
17DDA
331
17DE5
331
17DE6
331
17DED
331
17DEE
331
17DF5
331
17DF6
331
17DFE
331
17DFF
331
17E07
331
17E08
331
17E11
331
17E12
331
17E43
331
17E44
331
17E55
331
17E56
331
17E60
331
17E61
331
17F44
331
17F45
331
17F92
331
17F93
331
17F9B
331
17F9C
102
}
  0
BLOCK_RECORD
  5
1655F
330
7466
100
AcDbSymbolTableRecord
100
AcDbBlockTableRecord
  2
*D1
340
0
  0
BLOCK_RECORD
  5
1656B
330
7466
100
AcDbSymbolTableRecord
100
AcDbBlockTableRecord
  2
*D2
340
0
  0
BLOCK_RECORD
  5
1658F
330
7466
100
AcDbSymbolTableRecord
100
AcDbBlockTableRecord
  2
*D3
340
0
  0
BLOCK_RECORD
  5
1659A
330
7466
100
AcDbSymbolTableRecord
100
AcDbBlockTableRecord
  2
*D4
340
0
  0
BLOCK_RECORD
  5
165A6
330
7466
100
AcDbSymbolTableRecord
100
AcDbBlockTableRecord
  2
*D5
340
0
  0
BLOCK_RECORD
  5
165B4
330
7466
100
AcDbSymbolTableRecord
100
AcDbBlockTableRecord
  2
*D6
340
0
  0
BLOCK_RECORD
  5
165C3
330
7466
100
AcDbSymbolTableRecord
100
AcDbBlockTableRecord
  2
*D7
340
0
  0
BLOCK_RECORD
  5
165D2
330
7466
100
AcDbSymbolTableRecord
100
AcDbBlockTableRecord
  2
*D8
340
0
  0
BLOCK_RECORD
  5
165E0
330
7466
100
AcDbSymbolTableRecord
100
AcDbBlockTableRecord
  2
*D9
340
0
  0
BLOCK_RECORD
  5
165EE
330
7466
100
AcDbSymbolTableRecord
100
AcDbBlockTableRecord
  2
*D10
340
0
  0
BLOCK_RECORD
  5
165FA
330
7466
100
AcDbSymbolTableRecord
100
AcDbBlockTableRecord
  2
*D11
340
0
  0
BLOCK_RECORD
  5
16608
330
7466
100
AcDbSymbolTableRecord
100
AcDbBlockTableRecord
  2
*D12
340
0
  0
BLOCK_RECORD
  5
16616
330
7466
100
AcDbSymbolTableRecord
100
AcDbBlockTableRecord
  2
*D13
340
0
  0
BLOCK_RECORD
  5
17109
330
7466
100
AcDbSymbolTableRecord
100
AcDbBlockTableRecord
  2
*D14
340
0
  0
BLOCK_RECORD
  5
17117
330
7466
100
AcDbSymbolTableRecord
100
AcDbBlockTableRecord
  2
*D15
340
0
  0
BLOCK_RECORD
  5
17125
330
7466
100
AcDbSymbolTableRecord
100
AcDbBlockTableRecord
  2
*D16
340
0
  0
BLOCK_RECORD
  5
17131
330
7466
100
AcDbSymbolTableRecord
100
AcDbBlockTableRecord
  2
*D17
340
0
  0
BLOCK_RECORD
  5
17765
330
7466
100
AcDbSymbolTableRecord
100
AcDbBlockTableRecord
  2
*D18
340
0
  0
BLOCK_RECORD
  5
17771
330
7466
100
AcDbSymbolTableRecord
100
AcDbBlockTableRecord
  2
*D19
340
0
  0
BLOCK_RECORD
  5
1777D
330
7466
100
AcDbSymbolTableRecord
100
AcDbBlockTableRecord
  2
*D20
340
0
  0
BLOCK_RECORD
  5
17789
330
7466
100
AcDbSymbolTableRecord
100
AcDbBlockTableRecord
  2
*D21
340
0
  0
BLOCK_RECORD
  5
17797
330
7466
100
AcDbSymbolTableRecord
100
AcDbBlockTableRecord
  2
*D22
340
0
  0
BLOCK_RECORD
  5
177A3
330
7466
100
AcDbSymbolTableRecord
100
AcDbBlockTableRecord
  2
*D23
340
0
  0
BLOCK_RECORD
  5
177B1
330
7466
100
AcDbSymbolTableRecord
100
AcDbBlockTableRecord
  2
*D24
340
0
  0
BLOCK_RECORD
  5
177BD
330
7466
100
AcDbSymbolTableRecord
100
AcDbBlockTableRecord
  2
*D25
340
0
  0
BLOCK_RECORD
  5
177CA
330
7466
100
AcDbSymbolTableRecord
100
AcDbBlockTableRecord
  2
*D26
340
0
  0
BLOCK_RECORD
  5
17C5A
330
7466
100
AcDbSymbolTableRecord
100
AcDbBlockTableRecord
  2
*D27
340
0
  0
BLOCK_RECORD
  5
17C67
330
7466
100
AcDbSymbolTableRecord
100
AcDbBlockTableRecord
  2
*D28
340
0
  0
BLOCK_RECORD
  5
17C75
330
7466
100
AcDbSymbolTableRecord
100
AcDbBlockTableRecord
  2
*D29
340
0
  0
BLOCK_RECORD
  5
17E66
330
7466
100
AcDbSymbolTableRecord
100
AcDbBlockTableRecord
  2
A$C74850521
340
0
  0
BLOCK_RECORD
  5
17F4A
330
7466
100
AcDbSymbolTableRecord
100
AcDbBlockTableRecord
  2
A$C73896021
340
0
  0
ENDTAB
  0
ENDSEC
  0
SECTION
  2
BLOCKS
  0
BLOCK
  5
7489
330
747D
100
AcDbEntity
  8
0
100
AcDbBlockBegin
  2
*MODEL_SPACE
 70
     0
 10
0.0
 20
0.0
 30
0.0
  3
*MODEL_SPACE
  1

  0
ENDBLK
  5
748A
330
747D
100
AcDbEntity
  8
0
100
AcDbBlockEnd
  0
BLOCK
  5
7487
330
747A
100
AcDbEntity
 67
     1
  8
0
100
AcDbBlockBegin
  2
*PAPER_SPACE
 70
     0
 10
0.0
 20
0.0
 30
0.0
  3
*PAPER_SPACE
  1

  0
ENDBLK
  5
7488
330
747A
100
AcDbEntity
 67
     1
  8
0
100
AcDbBlockEnd
  0
BLOCK
  5
F771
330
F770
100
AcDbEntity
  8
0
 48
50.0
100
AcDbBlockBegin
  2
_DOTSMALL
 70
     0
 10
0.0
 20
0.0
 30
0.0
  3
_DOTSMALL
  1

  0
LWPOLYLINE
  5
F772
330
F770
100
AcDbEntity
  8
0
  6
ByBlock
 62
     0
 48
50.0
100
AcDbPolyline
 90
        2
 70
     1
 43
0.5
 10
-0.0625
 20
0.0
 42
1.0
 10
0.0625
 20
0.0
 42
1.0
  0
ENDBLK
  5
F776
330
F770
100
AcDbEntity
  8
0
 48
50.0
100
AcDbBlockEnd
  0
BLOCK
  5
166FC
330
1655F
100
AcDbEntity
  8
0
 48
50.0
100
AcDbBlockBegin
  2
*D1
 70
     1
 10
0.0
 20
0.0
 30
0.0
  3
*D1
  1

  0
LINE
  5
17E04
330
1655F
100
AcDbEntity
  8
寸法
 62
     0
 48
50.0
370
    -2
100
AcDbLine
 10
7216.461099046291
 20
10221.94179196929
 30
0.0
 11
8268.994386520338
 21
10221.94179196929
 31
0.0
  0
LINE
  5
17E05
330
1655F
100
AcDbEntity
  8
寸法
 62
     0
 48
50.0
370
    -2
100
AcDbLine
 10
7216.461099046266
 20
7171.941791969283
 30
0.0
 11
8268.994386520338
 21
7171.941791969283
 31
0.0
  0
LINE
  5
17E06
330
1655F
100
AcDbEntity
  8
寸法
 62
     0
 48
50.0
370
    -2
100
AcDbLine
 10
8208.994386520336
 20
10221.94179196929
 30
0.0
 11
8208.994386520336
 21
7171.941791969283
 31
0.0
  0
INSERT
  5
17E07
330
1655F
100
AcDbEntity
  8
寸法
 62
     0
 48
50.0
370
    -2
100
AcDbBlockReference
  2
_DOTSMALL
 10
8208.994386520336
 20
10221.94179196929
 30
0.0
 41
100.0
 42
100.0
 43
100.0
 50
90.0
  0
INSERT
  5
17E08
330
1655F
100
AcDbEntity
  8
寸法
 62
     0
 48
50.0
370
    -2
100
AcDbBlockReference
  2
_DOTSMALL
 10
8208.994386520336
 20
7171.941791969283
 30
0.0
 41
100.0
 42
100.0
 43
100.0
 50
270.0
  0
MTEXT
  5
17E09
330
1655F
100
AcDbEntity
  8
寸法
 62
     7
 48
50.0
100
AcDbMText
 10
8108.994386520336
 20
8696.941791969287
 30
0.0
 40
120.0
 41
0.0
 71
     5
 72
     1
  1
\A1;3050
  7
STYLE1
 11
0.0000000000000001
 21
1.0
 31
0.0
 73
     1
 44
1.0
1001
ACAD
1000
MTEXTBEGIN
1070
    73
1070
     1
1070
    44
1040
1.0
1070
    74
1070
     0
1000
MTEXTEND
  0
POINT
  5
17E0A
330
1655F
100
AcDbEntity
  8
DEFPOINTS
 62
     0
 48
50.0
100
AcDbPoint
 10
7196.461099046292
 20
10221.94179196929
 30
0.0
  0
POINT
  5
17E0B
330
1655F
100
AcDbEntity
  8
DEFPOINTS
 62
     0
 48
50.0
100
AcDbPoint
 10
7196.461099046266
 20
7171.941791969283
 30
0.0
  0
POINT
  5
17E0C
330
1655F
100
AcDbEntity
  8
DEFPOINTS
 62
     0
 48
50.0
100
AcDbPoint
 10
8208.994386520336
 20
7171.941791969283
 30
0.0
  0
ENDBLK
  5
16706
330
1655F
100
AcDbEntity
  8
0
 48
50.0
100
AcDbBlockEnd
  0
BLOCK
  5
16707
330
1656B
100
AcDbEntity
  8
0
 48
50.0
100
AcDbBlockBegin
  2
*D2
 70
     1
 10
0.0
 20
0.0
 30
0.0
  3
*D2
  1

  0
LINE
  5
17DFB
330
1656B
100
AcDbEntity
  8
寸法
 62
     0
 48
50.0
370
    -2
100
AcDbLine
 10
7216.461099046291
 20
10166.94179196929
 30
0.0
 11
7903.8874447807
 21
10166.94179196929
 31
0.0
  0
LINE
  5
17DFC
330
1656B
100
AcDbEntity
  8
寸法
 62
     0
 48
50.0
370
    -2
100
AcDbLine
 10
7216.461099046266
 20
7226.941791969278
 30
0.0
 11
7903.8874447807
 21
7226.941791969278
 31
0.0
  0
LINE
  5
17DFD
330
1656B
100
AcDbEntity
  8
寸法
 62
     0
 48
50.0
370
    -2
100
AcDbLine
 10
7843.887444780701
 20
10166.94179196929
 30
0.0
 11
7843.887444780701
 21
7226.941791969278
 31
0.0
  0
INSERT
  5
17DFE
330
1656B
100
AcDbEntity
  8
寸法
 62
     0
 48
50.0
370
    -2
100
AcDbBlockReference
  2
_DOTSMALL
 10
7843.887444780701
 20
10166.94179196929
 30
0.0
 41
100.0
 42
100.0
 43
100.0
 50
90.0
  0
INSERT
  5
17DFF
330
1656B
100
AcDbEntity
  8
寸法
 62
     0
 48
50.0
370
    -2
100
AcDbBlockReference
  2
_DOTSMALL
 10
7843.887444780701
 20
7226.941791969278
 30
0.0
 41
100.0
 42
100.0
 43
100.0
 50
270.0
  0
MTEXT
  5
17E00
330
1656B
100
AcDbEntity
  8
寸法
 62
     7
 48
50.0
100
AcDbMText
 10
7743.875633757077
 20
8696.941791969287
 30
0.0
 40
120.0
 41
0.0
 71
     5
 72
     1
  1
\A1;7X420=2940
  7
STYLE1
 11
0.0000000000000001
 21
1.0
 31
0.0
 73
     1
 44
1.0
1001
ACAD
1000
MTEXTBEGIN
1070
    73
1070
     1
1070
    44
1040
1.0
1070
    74
1070
     0
1000
MTEXTEND
  0
POINT
  5
17E01
330
1656B
100
AcDbEntity
  8
DEFPOINTS
 62
     0
 48
50.0
100
AcDbPoint
 10
7196.461099046292
 20
10166.94179196929
 30
0.0
  0
POINT
  5
17E02
330
1656B
100
AcDbEntity
  8
DEFPOINTS
 62
     0
 48
50.0
100
AcDbPoint
 10
7196.461099046266
 20
7226.941791969278
 30
0.0
  0
POINT
  5
17E03
330
1656B
100
AcDbEntity
  8
DEFPOINTS
 62
     0
 48
50.0
100
AcDbPoint
 10
7843.887444780701
 20
7226.941791969278
 30
0.0
  0
ENDBLK
  5
16711
330
1656B
100
AcDbEntity
  8
0
 48
50.0
100
AcDbBlockEnd
  0
BLOCK
  5
1665C
330
1658F
100
AcDbEntity
  8
0
 48
50.0
100
AcDbBlockBegin
  2
*D3
 70
     1
 10
0.0
 20
0.0
 30
0.0
  3
*D3
  1

  0
LINE
  5
17DF3
330
1658F
100
AcDbEntity
  8
寸法
 62
     0
 48
50.0
370
    -2
100
AcDbLine
 10
4669.461099046284
 20
7177.941791969191
 30
0.0
 11
4669.461099046284
 21
6577.511021203027
 31
0.0
  0
LINE
  5
17DF4
330
1658F
100
AcDbEntity
  8
寸法
 62
     0
 48
50.0
370
    -2
100
AcDbLine
 10
7093.461099046265
 20
6637.511021203026
 30
0.0
 11
4669.461099046284
 21
6637.511021203026
 31
0.0
  0
INSERT
  5
17DF5
330
1658F
100
AcDbEntity
  8
寸法
 62
     0
 48
50.0
370
    -2
100
AcDbBlockReference
  2
_DOTSMALL
 10
7093.461099046265
 20
6637.511021203026
 30
0.0
 41
100.0
 42
100.0
 43
100.0
  0
INSERT
  5
17DF6
330
1658F
100
AcDbEntity
  8
寸法
 62
     0
 48
50.0
370
    -2
100
AcDbBlockReference
  2
_DOTSMALL
 10
4669.461099046284
 20
6637.511021203026
 30
0.0
 41
100.0
 42
100.0
 43
100.0
 50
180.0
  0
MTEXT
  5
17DF7
330
1658F
100
AcDbEntity
  8
寸法
 62
     7
 48
50.0
100
AcDbMText
 10
5881.461099046275
 20
6737.522832226648
 30
0.0
 40
120.0
 41
0.0
 71
     5
 72
     1
  1
\A1;有効開口部間口 2424
  7
STYLE1
 73
     1
 44
1.0
1001
ACAD
1000
MTEXTBEGIN
1070
    73
1070
     1
1070
    44
1040
1.0
1070
    74
1070
     0
1000
MTEXTEND
  0
POINT
  5
17DF8
330
1658F
100
AcDbEntity
  8
DEFPOINTS
 62
     0
 48
50.0
100
AcDbPoint
 10
7093.461099046265
 20
7197.941791969191
 30
0.0
  0
POINT
  5
17DF9
330
1658F
100
AcDbEntity
  8
DEFPOINTS
 62
     0
 48
50.0
100
AcDbPoint
 10
4669.461099046284
 20
7197.941791969191
 30
0.0
  0
POINT
  5
17DFA
330
1658F
100
AcDbEntity
  8
DEFPOINTS
 62
     0
 48
50.0
100
AcDbPoint
 10
4669.461099046284
 20
6637.511021203026
 30
0.0
  0
ENDBLK
  5
16665
330
1658F
100
AcDbEntity
  8
0
 48
50.0
100
AcDbBlockEnd
  0
BLOCK
  5
16666
330
1659A
100
AcDbEntity
  8
0
 48
50.0
100
AcDbBlockBegin
  2
*D4
 70
     1
 10
0.0
 20
0.0
 30
0.0
  3
*D4
  1

  0
LINE
  5
17DEA
330
1659A
100
AcDbEntity
  8
寸法
 62
     0
 48
50.0
370
    -2
100
AcDbLine
 10
4566.461099046284
 20
7151.941791969119
 30
0.0
 11
4566.461099046284
 21
6291.338025612152
 31
0.0
  0
LINE
  5
17DEB
330
1659A
100
AcDbEntity
  8
寸法
 62
     0
 48
50.0
370
    -2
100
AcDbLine
 10
7196.461099046266
 20
7151.941791969246
 30
0.0
 11
7196.461099046266
 21
6291.338025612152
 31
0.0
  0
LINE
  5
17DEC
330
1659A
100
AcDbEntity
  8
寸法
 62
     0
 48
50.0
370
    -2
100
AcDbLine
 10
4566.461099046284
 20
6351.338025612153
 30
0.0
 11
7196.461099046266
 21
6351.338025612153
 31
0.0
  0
INSERT
  5
17DED
330
1659A
100
AcDbEntity
  8
寸法
 62
     0
 48
50.0
370
    -2
100
AcDbBlockReference
  2
_DOTSMALL
 10
4566.461099046284
 20
6351.338025612153
 30
0.0
 41
100.0
 42
100.0
 43
100.0
 50
180.0
  0
INSERT
  5
17DEE
330
1659A
100
AcDbEntity
  8
寸法
 62
     0
 48
50.0
370
    -2
100
AcDbBlockReference
  2
_DOTSMALL
 10
7196.461099046266
 20
6351.338025612153
 30
0.0
 41
100.0
 42
100.0
 43
100.0
  0
MTEXT
  5
17DEF
330
1659A
100
AcDbEntity
  8
寸法
 62
     7
 48
50.0
100
AcDbMText
 10
5881.461099046275
 20
6451.349836635775
 30
0.0
 40
120.0
 41
0.0
 71
     5
 72
     1
  1
\A1;2630
  7
STYLE1
 73
     1
 44
1.0
1001
ACAD
1000
MTEXTBEGIN
1070
    73
1070
     1
1070
    44
1040
1.0
1070
    74
1070
     0
1000
MTEXTEND
  0
POINT
  5
17DF0
330
1659A
100
AcDbEntity
  8
DEFPOINTS
 62
     0
 48
50.0
100
AcDbPoint
 10
4566.461099046284
 20
7171.941791969118
 30
0.0
  0
POINT
  5
17DF1
330
1659A
100
AcDbEntity
  8
DEFPOINTS
 62
     0
 48
50.0
100
AcDbPoint
 10
7196.461099046266
 20
7171.941791969246
 30
0.0
  0
POINT
  5
17DF2
330
1659A
100
AcDbEntity
  8
DEFPOINTS
 62
     0
 48
50.0
100
AcDbPoint
 10
7196.461099046266
 20
6351.338025612153
 30
0.0
  0
ENDBLK
  5
16670
330
1659A
100
AcDbEntity
  8
0
 48
50.0
100
AcDbBlockEnd
  0
BLOCK
  5
16671
330
165A6
100
AcDbEntity
  8
0
 48
50.0
100
AcDbBlockBegin
  2
*D5
 70
     1
 10
0.0
 20
0.0
 30
0.0
  3
*D5
  1

  0
LINE
  5
17A54
330
165A6
100
AcDbEntity
  8
寸法
 62
     0
 48
50.0
370
    -2
100
AcDbLine
 10
4621.461099046281
 20
7151.94179196919
 30
0.0
 11
4621.461099046281
 21
6577.511021203027
 31
0.0
  0
LINE
  5
17A55
330
165A6
100
AcDbEntity
  8
寸法
 62
     0
 48
50.0
370
    -2
100
AcDbLine
 10
4566.461099046284
 20
7151.941791969187
 30
0.0
 11
4566.461099046284
 21
6577.511021203027
 31
0.0
  0
LINE
  5
17A56
330
165A6
100
AcDbEntity
  8
寸法
 62
     0
 48
50.0
370
    -2
100
AcDbLine
 10
4621.461099046281
 20
6637.511021203026
 30
0.0
 11
4721.461099046281
 21
6637.511021203026
 31
0.0
  0
LINE
  5
17A57
330
165A6
100
AcDbEntity
  8
寸法
 62
     0
 48
50.0
370
    -2
100
AcDbLine
 10
4566.461099046284
 20
6637.511021203026
 30
0.0
 11
4149.490536297807
 21
6637.511021203026
 31
0.0
  0
LINE
  5
17A58
330
165A6
100
AcDbEntity
  8
寸法
 62
     0
 48
50.0
370
    -2
100
AcDbLine
 10
4621.461099046281
 20
6637.511021203026
 30
0.0
 11
4566.461099046284
 21
6637.511021203026
 31
0.0
  0
INSERT
  5
17A59
330
165A6
100
AcDbEntity
  8
寸法
 62
     0
 48
50.0
370
    -2
100
AcDbBlockReference
  2
_DOTSMALL
 10
4621.461099046281
 20
6637.511021203026
 30
0.0
 41
100.0
 42
100.0
 43
100.0
 50
180.0
  0
INSERT
  5
17A5A
330
165A6
100
AcDbEntity
  8
寸法
 62
     0
 48
50.0
370
    -2
100
AcDbBlockReference
  2
_DOTSMALL
 10
4566.461099046284
 20
6637.511021203026
 30
0.0
 41
100.0
 42
100.0
 43
100.0
  0
MTEXT
  5
17A5B
330
165A6
100
AcDbEntity
  8
寸法
 62
     7
 48
50.0
100
AcDbMText
 10
4257.975817672046
 20
6737.511021203026
 30
0.0
 40
120.0
 41
0.0
 71
     5
 72
     1
  1
\A1;55
  7
STYLE1
 73
     1
 44
1.0
1001
ACAD
1000
MTEXTBEGIN
1070
    73
1070
     1
1070
    44
1040
1.0
1070
    74
1070
     0
1000
MTEXTEND
  0
POINT
  5
17A5C
330
165A6
100
AcDbEntity
  8
DEFPOINTS
 62
     0
 48
50.0
100
AcDbPoint
 10
4621.461099046281
 20
7171.941791969191
 30
0.0
  0
POINT
  5
17A5D
330
165A6
100
AcDbEntity
  8
DEFPOINTS
 62
     0
 48
50.0
100
AcDbPoint
 10
4566.461099046284
 20
7171.941791969188
 30
0.0
  0
POINT
  5
17A5E
330
165A6
100
AcDbEntity
  8
DEFPOINTS
 62
     0
 48
50.0
100
AcDbPoint
 10
4566.461099046284
 20
6637.511021203026
 30
0.0
  0
ENDBLK
  5
1667D
330
165A6
100
AcDbEntity
  8
0
 48
50.0
100
AcDbBlockEnd
  0
BLOCK
  5
1667E
330
165B4
100
AcDbEntity
  8
0
 48
50.0
100
AcDbBlockBegin
  2
*D6
 70
     1
 10
0.0
 20
0.0
 30
0.0
  3
*D6
  1

  0
LINE
  5
17A49
330
165B4
100
AcDbEntity
  8
寸法
 62
     0
 48
50.0
370
    -2
100
AcDbLine
 10
4669.461099046284
 20
7177.941791969191
 30
0.0
 11
4669.461099046284
 21
6577.511021203027
 31
0.0
  0
LINE
  5
17A4A
330
165B4
100
AcDbEntity
  8
寸法
 62
     0
 48
50.0
370
    -2
100
AcDbLine
 10
4621.461099046281
 20
7151.94179196919
 30
0.0
 11
4621.461099046281
 21
6577.511021203027
 31
0.0
  0
LINE
  5
17A4B
330
165B4
100
AcDbEntity
  8
寸法
 62
     0
 48
50.0
370
    -2
100
AcDbLine
 10
4669.461099046284
 20
6637.511021203026
 30
0.0
 11
4769.461099046284
 21
6637.511021203026
 31
0.0
  0
LINE
  5
17A4C
330
165B4
100
AcDbEntity
  8
寸法
 62
     0
 48
50.0
370
    -2
100
AcDbLine
 10
4621.461099046281
 20
6637.511021203026
 30
0.0
 11
4521.46109904628
 21
6637.511021203026
 31
0.0
  0
MTEXT
  5
17A4D
330
165B4
100
AcDbEntity
  8
寸法
 62
     7
 48
50.0
100
AcDbMText
 10
4782.363070046342
 20
6737.511021203026
 30
0.0
 40
120.0
 41
0.0
 71
     5
 72
     1
  1
\A1;48
  7
STYLE1
 73
     1
 44
1.0
1001
ACAD
1000
MTEXTBEGIN
1070
    73
1070
     1
1070
    44
1040
1.0
1070
    74
1070
     0
1000
MTEXTEND
  0
LINE
  5
17A4E
330
165B4
100
AcDbEntity
  8
寸法
 62
     0
 48
50.0
370
    -2
100
AcDbLine
 10
4669.461099046284
 20
6637.511021203026
 30
0.0
 11
4621.461099046281
 21
6637.511021203026
 31
0.0
  0
INSERT
  5
17A4F
330
165B4
100
AcDbEntity
  8
寸法
 62
     0
 48
50.0
370
    -2
100
AcDbBlockReference
  2
_DOTSMALL
 10
4669.461099046284
 20
6637.511021203026
 30
0.0
 41
100.0
 42
100.0
 43
100.0
 50
180.0
  0
INSERT
  5
17A50
330
165B4
100
AcDbEntity
  8
寸法
 62
     0
 48
50.0
370
    -2
100
AcDbBlockReference
  2
_DOTSMALL
 10
4621.461099046281
 20
6637.511021203026
 30
0.0
 41
100.0
 42
100.0
 43
100.0
  0
POINT
  5
17A51
330
165B4
100
AcDbEntity
  8
DEFPOINTS
 62
     0
 48
50.0
100
AcDbPoint
 10
4669.461099046284
 20
7197.941791969191
 30
0.0
  0
POINT
  5
17A52
330
165B4
100
AcDbEntity
  8
DEFPOINTS
 62
     0
 48
50.0
100
AcDbPoint
 10
4621.461099046281
 20
7171.941791969191
 30
0.0
  0
POINT
  5
17A53
330
165B4
100
AcDbEntity
  8
DEFPOINTS
 62
     0
 48
50.0
100
AcDbPoint
 10
4621.461099046281
 20
6637.511021203026
 30
0.0
  0
ENDBLK
  5
1668B
330
165B4
100
AcDbEntity
  8
0
 48
50.0
100
AcDbBlockEnd
  0
BLOCK
  5
1668C
330
165C3
100
AcDbEntity
  8
0
 48
50.0
100
AcDbBlockBegin
  2
*D7
 70
     1
 10
0.0
 20
0.0
 30
0.0
  3
*D7
  1

  0
LINE
  5
17DDF
330
165C3
100
AcDbEntity
  8
寸法
 62
     0
 48
50.0
370
    -2
100
AcDbLine
 10
7141.461099046267
 20
7151.941791969278
 30
0.0
 11
7141.461099046267
 21
6577.511021203027
 31
0.0
  0
LINE
  5
17DE0
330
165C3
100
AcDbEntity
  8
寸法
 62
     0
 48
50.0
370
    -2
100
AcDbLine
 10
7093.461099046265
 20
7177.941791969191
 30
0.0
 11
7093.461099046265
 21
6577.511021203027
 31
0.0
  0
LINE
  5
17DE1
330
165C3
100
AcDbEntity
  8
寸法
 62
     0
 48
50.0
370
    -2
100
AcDbLine
 10
7141.461099046267
 20
6637.511021203026
 30
0.0
 11
7241.461099046268
 21
6637.511021203026
 31
0.0
  0
LINE
  5
17DE2
330
165C3
100
AcDbEntity
  8
寸法
 62
     0
 48
50.0
370
    -2
100
AcDbLine
 10
7093.461099046265
 20
6637.511021203026
 30
0.0
 11
6993.461099046266
 21
6637.511021203026
 31
0.0
  0
MTEXT
  5
17DE3
330
165C3
100
AcDbEntity
  8
寸法
 62
     7
 48
50.0
100
AcDbMText
 10
6982.498201397518
 20
6737.511021203026
 30
0.0
 40
120.0
 41
0.0
 71
     5
 72
     1
  1
\A1;48
  7
STYLE1
 73
     1
 44
1.0
1001
ACAD
1000
MTEXTBEGIN
1070
    73
1070
     1
1070
    44
1040
1.0
1070
    74
1070
     0
1000
MTEXTEND
  0
LINE
  5
17DE4
330
165C3
100
AcDbEntity
  8
寸法
 62
     0
 48
50.0
370
    -2
100
AcDbLine
 10
7141.461099046267
 20
6637.511021203026
 30
0.0
 11
7093.461099046265
 21
6637.511021203026
 31
0.0
  0
INSERT
  5
17DE5
330
165C3
100
AcDbEntity
  8
寸法
 62
     0
 48
50.0
370
    -2
100
AcDbBlockReference
  2
_DOTSMALL
 10
7141.461099046267
 20
6637.511021203026
 30
0.0
 41
100.0
 42
100.0
 43
100.0
 50
180.0
  0
INSERT
  5
17DE6
330
165C3
100
AcDbEntity
  8
寸法
 62
     0
 48
50.0
370
    -2
100
AcDbBlockReference
  2
_DOTSMALL
 10
7093.461099046265
 20
6637.511021203026
 30
0.0
 41
100.0
 42
100.0
 43
100.0
  0
POINT
  5
17DE7
330
165C3
100
AcDbEntity
  8
DEFPOINTS
 62
     0
 48
50.0
100
AcDbPoint
 10
7141.461099046267
 20
7171.941791969278
 30
0.0
  0
POINT
  5
17DE8
330
165C3
100
AcDbEntity
  8
DEFPOINTS
 62
     0
 48
50.0
100
AcDbPoint
 10
7093.461099046265
 20
7197.941791969191
 30
0.0
  0
POINT
  5
17DE9
330
165C3
100
AcDbEntity
  8
DEFPOINTS
 62
     0
 48
50.0
100
AcDbPoint
 10
7093.461099046265
 20
6637.511021203026
 30
0.0
  0
ENDBLK
  5
16699
330
165C3
100
AcDbEntity
  8
0
 48
50.0
100
AcDbBlockEnd
  0
BLOCK
  5
1669A
330
165D2
100
AcDbEntity
  8
0
 48
50.0
100
AcDbBlockBegin
  2
*D8
 70
     1
 10
0.0
 20
0.0
 30
0.0
  3
*D8
  1

  0
LINE
  5
17DD4
330
165D2
100
AcDbEntity
  8
寸法
 62
     0
 48
50.0
370
    -2
100
AcDbLine
 10
7196.461099046266
 20
7151.941791969282
 30
0.0
 11
7196.461099046266
 21
6577.511021203028
 31
0.0
  0
LINE
  5
17DD5
330
165D2
100
AcDbEntity
  8
寸法
 62
     0
 48
50.0
370
    -2
100
AcDbLine
 10
7141.461099046267
 20
7151.941791969278
 30
0.0
 11
7141.461099046267
 21
6577.511021203028
 31
0.0
  0
LINE
  5
17DD6
330
165D2
100
AcDbEntity
  8
寸法
 62
     0
 48
50.0
370
    -2
100
AcDbLine
 10
7141.461099046267
 20
6637.511021203028
 30
0.0
 11
7041.461099046268
 21
6637.511021203028
 31
0.0
  0
LINE
  5
17DD7
330
165D2
100
AcDbEntity
  8
寸法
 62
     0
 48
50.0
370
    -2
100
AcDbLine
 10
7196.461099046266
 20
6637.511021203028
 30
0.0
 11
7613.431661794743
 21
6637.511021203028
 31
0.0
  0
LINE
  5
17DD8
330
165D2
100
AcDbEntity
  8
寸法
 62
     0
 48
50.0
370
    -2
100
AcDbLine
 10
7141.461099046267
 20
6637.511021203028
 30
0.0
 11
7196.461099046266
 21
6637.511021203028
 31
0.0
  0
INSERT
  5
17DD9
330
165D2
100
AcDbEntity
  8
寸法
 62
     0
 48
50.0
370
    -2
100
AcDbBlockReference
  2
_DOTSMALL
 10
7141.461099046267
 20
6637.511021203028
 30
0.0
 41
100.0
 42
100.0
 43
100.0
  0
INSERT
  5
17DDA
330
165D2
100
AcDbEntity
  8
寸法
 62
     0
 48
50.0
370
    -2
100
AcDbBlockReference
  2
_DOTSMALL
 10
7196.461099046266
 20
6637.511021203028
 30
0.0
 41
100.0
 42
100.0
 43
100.0
 50
180.0
  0
MTEXT
  5
17DDB
330
165D2
100
AcDbEntity
  8
寸法
 62
     7
 48
50.0
100
AcDbMText
 10
7504.946380420505
 20
6737.511021203028
 30
0.0
 40
120.0
 41
0.0
 71
     5
 72
     1
  1
\A1;55
  7
STYLE1
 73
     1
 44
1.0
1001
ACAD
1000
MTEXTBEGIN
1070
    73
1070
     1
1070
    44
1040
1.0
1070
    74
1070
     0
1000
MTEXTEND
  0
POINT
  5
17DDC
330
165D2
100
AcDbEntity
  8
DEFPOINTS
 62
     0
 48
50.0
100
AcDbPoint
 10
7196.461099046266
 20
7171.941791969283
 30
0.0
  0
POINT
  5
17DDD
330
165D2
100
AcDbEntity
  8
DEFPOINTS
 62
     0
 48
50.0
100
AcDbPoint
 10
7141.461099046267
 20
7171.941791969278
 30
0.0
  0
POINT
  5
17DDE
330
165D2
100
AcDbEntity
  8
DEFPOINTS
 62
     0
 48
50.0
100
AcDbPoint
 10
7141.461099046267
 20
6637.511021203028
 30
0.0
  0
ENDBLK
  5
166A6
330
165D2
100
AcDbEntity
  8
0
 48
50.0
100
AcDbBlockEnd
  0
BLOCK
  5
166A7
330
165E0
100
AcDbEntity
  8
0
 48
50.0
100
AcDbBlockBegin
  2
*D9
 70
     1
 10
0.0
 20
0.0
 30
0.0
  3
*D9
  1

  0
LINE
  5
17DC9
330
165E0
100
AcDbEntity
  8
寸法
 62
     0
 48
50.0
370
    -2
100
AcDbLine
 10
7216.461099046266
 20
7226.941791969278
 30
0.0
 11
7903.887444780678
 21
7226.941791969278
 31
0.0
  0
LINE
  5
17DCA
330
165E0
100
AcDbEntity
  8
寸法
 62
     0
 48
50.0
370
    -2
100
AcDbLine
 10
7216.461099046266
 20
7171.941791969283
 30
0.0
 11
7903.887444780678
 21
7171.941791969283
 31
0.0
  0
LINE
  5
17DCB
330
165E0
100
AcDbEntity
  8
寸法
 62
     0
 48
50.0
370
    -2
100
AcDbLine
 10
7843.887444780678
 20
7226.941791969278
 30
0.0
 11
7843.887444780678
 21
7326.941791969279
 31
0.0
  0
LINE
  5
17DCC
330
165E0
100
AcDbEntity
  8
寸法
 62
     0
 48
50.0
370
    -2
100
AcDbLine
 10
7843.887444780678
 20
7171.941791969283
 30
0.0
 11
7843.887444780678
 21
6685.595043690181
 31
0.0
  0
LINE
  5
17DCD
330
165E0
100
AcDbEntity
  8
寸法
 62
     0
 48
50.0
370
    -2
100
AcDbLine
 10
7843.887444780678
 20
7226.941791969278
 30
0.0
 11
7843.887444780678
 21
7171.941791969283
 31
0.0
  0
INSERT
  5
17DCE
330
165E0
100
AcDbEntity
  8
寸法
 62
     0
 48
50.0
370
    -2
100
AcDbBlockReference
  2
_DOTSMALL
 10
7843.887444780678
 20
7226.941791969278
 30
0.0
 41
100.0
 42
100.0
 43
100.0
 50
270.0
  0
INSERT
  5
17DCF
330
165E0
100
AcDbEntity
  8
寸法
 62
     0
 48
50.0
370
    -2
100
AcDbBlockReference
  2
_DOTSMALL
 10
7843.887444780678
 20
7171.941791969283
 30
0.0
 41
100.0
 42
100.0
 43
100.0
 50
90.0
  0
MTEXT
  5
17DD0
330
165E0
100
AcDbEntity
  8
寸法
 62
     7
 48
50.0
100
AcDbMText
 10
7743.887444780675
 20
6794.08032506442
 30
0.0
 40
120.0
 41
0.0
 71
     5
 72
     1
  1
\A1;55
  7
STYLE1
 11
0.0000000000000001
 21
1.0
 31
0.0
 73
     1
 44
1.0
1001
ACAD
1000
MTEXTBEGIN
1070
    73
1070
     1
1070
    44
1040
1.0
1070
    74
1070
     0
1000
MTEXTEND
  0
POINT
  5
17DD1
330
165E0
100
AcDbEntity
  8
DEFPOINTS
 62
     0
 48
50.0
100
AcDbPoint
 10
7196.461099046266
 20
7226.941791969278
 30
0.0
  0
POINT
  5
17DD2
330
165E0
100
AcDbEntity
  8
DEFPOINTS
 62
     0
 48
50.0
100
AcDbPoint
 10
7196.461099046266
 20
7171.941791969283
 30
0.0
  0
POINT
  5
17DD3
330
165E0
100
AcDbEntity
  8
DEFPOINTS
 62
     0
 48
50.0
100
AcDbPoint
 10
7843.887444780678
 20
7171.941791969283
 30
0.0
  0
ENDBLK
  5
166B3
330
165E0
100
AcDbEntity
  8
0
 48
50.0
100
AcDbBlockEnd
  0
BLOCK
  5
166B4
330
165EE
100
AcDbEntity
  8
0
 48
50.0
100
AcDbBlockBegin
  2
*D10
 70
     1
 10
0.0
 20
0.0
 30
0.0
  3
*D10
  1

  0
LINE
  5
17E5D
330
165EE
100
AcDbEntity
  8
寸法
 62
     0
 48
50.0
370
    -2
100
AcDbLine
 10
4621.461099046291
 20
10241.94179196919
 30
0.0
 11
4621.461099046291
 21
10497.75001159429
 31
0.0
  0
LINE
  5
17E5E
330
165EE
100
AcDbEntity
  8
寸法
 62
     0
 48
50.0
370
    -2
100
AcDbLine
 10
7141.461099046292
 20
10241.94179196929
 30
0.0
 11
7141.461099046292
 21
10497.75001159429
 31
0.0
  0
LINE
  5
17E5F
330
165EE
100
AcDbEntity
  8
寸法
 62
     0
 48
50.0
370
    -2
100
AcDbLine
 10
4621.461099046291
 20
10437.75001159429
 30
0.0
 11
7141.461099046292
 21
10437.75001159429
 31
0.0
  0
INSERT
  5
17E60
330
165EE
100
AcDbEntity
  8
寸法
 62
     0
 48
50.0
370
    -2
100
AcDbBlockReference
  2
_DOTSMALL
 10
4621.461099046291
 20
10437.75001159429
 30
0.0
 41
100.0
 42
100.0
 43
100.0
 50
180.0
  0
INSERT
  5
17E61
330
165EE
100
AcDbEntity
  8
寸法
 62
     0
 48
50.0
370
    -2
100
AcDbBlockReference
  2
_DOTSMALL
 10
7141.461099046292
 20
10437.75001159429
 30
0.0
 41
100.0
 42
100.0
 43
100.0
  0
MTEXT
  5
17E62
330
165EE
100
AcDbEntity
  8
寸法
 62
     7
 48
50.0
100
AcDbMText
 10
5881.461099046291
 20
10537.76182261791
 30
0.0
 40
120.0
 41
0.0
 71
     5
 72
     1
  1
\A1;6X420=2520
  7
STYLE1
 73
     1
 44
1.0
1001
ACAD
1000
MTEXTBEGIN
1070
    73
1070
     1
1070
    44
1040
1.0
1070
    74
1070
     0
1000
MTEXTEND
  0
POINT
  5
17E63
330
165EE
100
AcDbEntity
  8
DEFPOINTS
 62
     0
 48
50.0
100
AcDbPoint
 10
4621.461099046291
 20
10221.94179196919
 30
0.0
  0
POINT
  5
17E64
330
165EE
100
AcDbEntity
  8
DEFPOINTS
 62
     0
 48
50.0
100
AcDbPoint
 10
7141.461099046292
 20
10221.94179196929
 30
0.0
  0
POINT
  5
17E65
330
165EE
100
AcDbEntity
  8
DEFPOINTS
 62
     0
 48
50.0
100
AcDbPoint
 10
7141.461099046292
 20
10437.75001159429
 30
0.0
  0
ENDBLK
  5
166BE
330
165EE
100
AcDbEntity
  8
0
 48
50.0
100
AcDbBlockEnd
  0
BLOCK
  5
166BF
330
165FA
100
AcDbEntity
  8
0
 48
50.0
100
AcDbBlockBegin
  2
*D11
 70
     1
 10
0.0
 20
0.0
 30
0.0
  3
*D11
  1

  0
LINE
  5
17A14
330
165FA
100
AcDbEntity
  8
寸法
 62
     0
 48
50.0
370
    -2
100
AcDbLine
 10
4566.461099046256
 20
10241.94179196919
 30
0.0
 11
4566.461099046256
 21
10497.75001159418
 31
0.0
  0
LINE
  5
17A15
330
165FA
100
AcDbEntity
  8
寸法
 62
     0
 48
50.0
370
    -2
100
AcDbLine
 10
4621.461099046291
 20
10241.94179196919
 30
0.0
 11
4621.461099046291
 21
10497.75001159418
 31
0.0
  0
LINE
  5
17A16
330
165FA
100
AcDbEntity
  8
寸法
 62
     0
 48
50.0
370
    -2
100
AcDbLine
 10
4621.461099046291
 20
10437.75001159418
 30
0.0
 11
4721.46109904629
 21
10437.75001159418
 31
0.0
  0
LINE
  5
17A17
330
165FA
100
AcDbEntity
  8
寸法
 62
     0
 48
50.0
370
    -2
100
AcDbLine
 10
4566.461099046256
 20
10437.75001159418
 30
0.0
 11
4149.490536297778
 21
10437.75001159418
 31
0.0
  0
LINE
  5
17A18
330
165FA
100
AcDbEntity
  8
寸法
 62
     0
 48
50.0
370
    -2
100
AcDbLine
 10
4621.461099046291
 20
10437.75001159418
 30
0.0
 11
4566.461099046256
 21
10437.75001159418
 31
0.0
  0
INSERT
  5
17A19
330
165FA
100
AcDbEntity
  8
寸法
 62
     0
 48
50.0
370
    -2
100
AcDbBlockReference
  2
_DOTSMALL
 10
4621.461099046291
 20
10437.75001159418
 30
0.0
 41
100.0
 42
100.0
 43
100.0
 50
180.0
  0
INSERT
  5
17A1A
330
165FA
100
AcDbEntity
  8
寸法
 62
     0
 48
50.0
370
    -2
100
AcDbBlockReference
  2
_DOTSMALL
 10
4566.461099046256
 20
10437.75001159418
 30
0.0
 41
100.0
 42
100.0
 43
100.0
  0
MTEXT
  5
17A1B
330
165FA
100
AcDbEntity
  8
寸法
 62
     7
 48
50.0
100
AcDbMText
 10
4257.975817672017
 20
10537.75001159418
 30
0.0
 40
120.0
 41
0.0
 71
     5
 72
     1
  1
\A1;55
  7
STYLE1
 73
     1
 44
1.0
1001
ACAD
1000
MTEXTBEGIN
1070
    73
1070
     1
1070
    44
1040
1.0
1070
    74
1070
     0
1000
MTEXTEND
  0
POINT
  5
17A1C
330
165FA
100
AcDbEntity
  8
DEFPOINTS
 62
     0
 48
50.0
100
AcDbPoint
 10
4566.461099046256
 20
10221.94179196919
 30
0.0
  0
POINT
  5
17A1D
330
165FA
100
AcDbEntity
  8
DEFPOINTS
 62
     0
 48
50.0
100
AcDbPoint
 10
4621.461099046291
 20
10221.94179196919
 30
0.0
  0
POINT
  5
17A1E
330
165FA
100
AcDbEntity
  8
DEFPOINTS
 62
     0
 48
50.0
100
AcDbPoint
 10
4621.461099046291
 20
10437.75001159418
 30
0.0
  0
ENDBLK
  5
166CB
330
165FA
100
AcDbEntity
  8
0
 48
50.0
100
AcDbBlockEnd
  0
BLOCK
  5
166CC
330
16608
100
AcDbEntity
  8
0
 48
50.0
100
AcDbBlockBegin
  2
*D12
 70
     1
 10
0.0
 20
0.0
 30
0.0
  3
*D12
  1

  0
LINE
  5
17DB5
330
16608
100
AcDbEntity
  8
寸法
 62
     0
 48
50.0
370
    -2
100
AcDbLine
 10
7216.461099046291
 20
10221.94179196929
 30
0.0
 11
7903.887444780702
 21
10221.94179196929
 31
0.0
  0
LINE
  5
17DB6
330
16608
100
AcDbEntity
  8
寸法
 62
     0
 48
50.0
370
    -2
100
AcDbLine
 10
7216.461099046291
 20
10166.94179196929
 30
0.0
 11
7903.887444780702
 21
10166.94179196929
 31
0.0
  0
LINE
  5
17DB7
330
16608
100
AcDbEntity
  8
寸法
 62
     0
 48
50.0
370
    -2
100
AcDbLine
 10
7843.887444780702
 20
10166.94179196929
 30
0.0
 11
7843.887444780702
 21
10066.94179196929
 31
0.0
  0
LINE
  5
17DB8
330
16608
100
AcDbEntity
  8
寸法
 62
     0
 48
50.0
370
    -2
100
AcDbLine
 10
7843.887444780702
 20
10221.94179196929
 30
0.0
 11
7843.887444780704
 21
10638.91235471776
 31
0.0
  0
LINE
  5
17DB9
330
16608
100
AcDbEntity
  8
寸法
 62
     0
 48
50.0
370
    -2
100
AcDbLine
 10
7843.887444780702
 20
10166.94179196929
 30
0.0
 11
7843.887444780702
 21
10221.94179196929
 31
0.0
  0
INSERT
  5
17DBA
330
16608
100
AcDbEntity
  8
寸法
 62
     0
 48
50.0
370
    -2
100
AcDbBlockReference
  2
_DOTSMALL
 10
7843.887444780702
 20
10166.94179196929
 30
0.0
 41
100.0
 42
100.0
 43
100.0
 50
90.0
  0
INSERT
  5
17DBB
330
16608
100
AcDbEntity
  8
寸法
 62
     0
 48
50.0
370
    -2
100
AcDbBlockReference
  2
_DOTSMALL
 10
7843.887444780702
 20
10221.94179196929
 30
0.0
 41
100.0
 42
100.0
 43
100.0
 50
270.0
  0
MTEXT
  5
17DBC
330
16608
100
AcDbEntity
  8
寸法
 62
     7
 48
50.0
100
AcDbMText
 10
7743.887444780701
 20
10530.42707334353
 30
0.0
 40
120.0
 41
0.0
 71
     5
 72
     1
  1
\A1;55
  7
STYLE1
 11
0.0000000000000001
 21
1.0
 31
0.0
 73
     1
 44
1.0
1001
ACAD
1000
MTEXTBEGIN
1070
    73
1070
     1
1070
    44
1040
1.0
1070
    74
1070
     0
1000
MTEXTEND
  0
POINT
  5
17DBD
330
16608
100
AcDbEntity
  8
DEFPOINTS
 62
     0
 48
50.0
100
AcDbPoint
 10
7196.461099046292
 20
10221.94179196929
 30
0.0
  0
POINT
  5
17DBE
330
16608
100
AcDbEntity
  8
DEFPOINTS
 62
     0
 48
50.0
100
AcDbPoint
 10
7196.461099046292
 20
10166.94179196929
 30
0.0
  0
POINT
  5
17DBF
330
16608
100
AcDbEntity
  8
DEFPOINTS
 62
     0
 48
50.0
100
AcDbPoint
 10
7843.887444780702
 20
10166.94179196929
 30
0.0
  0
ENDBLK
  5
166D8
330
16608
100
AcDbEntity
  8
0
 48
50.0
100
AcDbBlockEnd
  0
BLOCK
  5
166D9
330
16616
100
AcDbEntity
  8
0
 48
50.0
100
AcDbBlockBegin
  2
*D13
 70
     1
 10
0.0
 20
0.0
 30
0.0
  3
*D13
  1

  0
LINE
  5
17DAA
330
16616
100
AcDbEntity
  8
寸法
 62
     0
 48
50.0
370
    -2
100
AcDbLine
 10
7141.461099046292
 20
10241.94179196929
 30
0.0
 11
7141.461099046292
 21
10497.75001159427
 31
0.0
  0
LINE
  5
17DAB
330
16616
100
AcDbEntity
  8
寸法
 62
     0
 48
50.0
370
    -2
100
AcDbLine
 10
7196.461099046292
 20
10241.94179196929
 30
0.0
 11
7196.461099046292
 21
10497.75001159427
 31
0.0
  0
LINE
  5
17DAC
330
16616
100
AcDbEntity
  8
寸法
 62
     0
 48
50.0
370
    -2
100
AcDbLine
 10
7141.461099046292
 20
10437.75001159427
 30
0.0
 11
7041.461099046292
 21
10437.75001159427
 31
0.0
  0
LINE
  5
17DAD
330
16616
100
AcDbEntity
  8
寸法
 62
     0
 48
50.0
370
    -2
100
AcDbLine
 10
7196.461099046292
 20
10437.75001159427
 30
0.0
 11
7613.431661794769
 21
10437.75001159427
 31
0.0
  0
LINE
  5
17DAE
330
16616
100
AcDbEntity
  8
寸法
 62
     0
 48
50.0
370
    -2
100
AcDbLine
 10
7141.461099046292
 20
10437.75001159427
 30
0.0
 11
7196.461099046292
 21
10437.75001159427
 31
0.0
  0
INSERT
  5
17DAF
330
16616
100
AcDbEntity
  8
寸法
 62
     0
 48
50.0
370
    -2
100
AcDbBlockReference
  2
_DOTSMALL
 10
7141.461099046292
 20
10437.75001159427
 30
0.0
 41
100.0
 42
100.0
 43
100.0
  0
INSERT
  5
17DB0
330
16616
100
AcDbEntity
  8
寸法
 62
     0
 48
50.0
370
    -2
100
AcDbBlockReference
  2
_DOTSMALL
 10
7196.461099046292
 20
10437.75001159427
 30
0.0
 41
100.0
 42
100.0
 43
100.0
 50
180.0
  0
MTEXT
  5
17DB1
330
16616
100
AcDbEntity
  8
寸法
 62
     7
 48
50.0
100
AcDbMText
 10
7504.94638042053
 20
10537.75001159427
 30
0.0
 40
120.0
 41
0.0
 71
     5
 72
     1
  1
\A1;55
  7
STYLE1
 73
     1
 44
1.0
1001
ACAD
1000
MTEXTBEGIN
1070
    73
1070
     1
1070
    44
1040
1.0
1070
    74
1070
     0
1000
MTEXTEND
  0
POINT
  5
17DB2
330
16616
100
AcDbEntity
  8
DEFPOINTS
 62
     0
 48
50.0
100
AcDbPoint
 10
7141.461099046292
 20
10221.94179196929
 30
0.0
  0
POINT
  5
17DB3
330
16616
100
AcDbEntity
  8
DEFPOINTS
 62
     0
 48
50.0
100
AcDbPoint
 10
7196.461099046292
 20
10221.94179196929
 30
0.0
  0
POINT
  5
17DB4
330
16616
100
AcDbEntity
  8
DEFPOINTS
 62
     0
 48
50.0
100
AcDbPoint
 10
7196.461099046292
 20
10437.75001159427
 30
0.0
  0
ENDBLK
  5
166E5
330
16616
100
AcDbEntity
  8
0
 48
50.0
100
AcDbBlockEnd
  0
BLOCK
  5
17115
330
17109
100
AcDbEntity
  8
0
 48
50.0
100
AcDbBlockBegin
  2
*D14
 70
     1
 10
0.0
 20
0.0
 30
0.0
  3
*D14
  1

  0
LINE
  5
17E3E
330
17109
100
AcDbEntity
  8
寸法
 62
     0
 48
50.0
370
    -2
100
AcDbLine
 10
7246.461099046289
 20
4348.772320667838
 30
0.0
 11
7246.461099046289
 21
4794.498592399746
 31
0.0
  0
LINE
  5
17E3F
330
17109
100
AcDbEntity
  8
寸法
 62
     0
 48
50.0
370
    -2
100
AcDbLine
 10
7196.461099046292
 20
4348.772320667841
 30
0.0
 11
7196.461099046292
 21
4794.498592399746
 31
0.0
  0
LINE
  5
17E40
330
17109
100
AcDbEntity
  8
寸法
 62
     0
 48
50.0
370
    -2
100
AcDbLine
 10
7196.461099046292
 20
4734.498592399745
 30
0.0
 11
7096.461099046291
 21
4734.498592399745
 31
0.0
  0
LINE
  5
17E41
330
17109
100
AcDbEntity
  8
寸法
 62
     0
 48
50.0
370
    -2
100
AcDbLine
 10
7246.461099046289
 20
4734.498592399745
 30
0.0
 11
7665.993624515016
 21
4734.498592399745
 31
0.0
  0
LINE
  5
17E42
330
17109
100
AcDbEntity
  8
寸法
 62
     0
 48
50.0
370
    -2
100
AcDbLine
 10
7196.461099046292
 20
4734.498592399745
 30
0.0
 11
7246.461099046289
 21
4734.498592399745
 31
0.0
  0
INSERT
  5
17E43
330
17109
100
AcDbEntity
  8
寸法
 62
     0
 48
50.0
370
    -2
100
AcDbBlockReference
  2
_DOTSMALL
 10
7196.461099046292
 20
4734.498592399745
 30
0.0
 41
100.0
 42
100.0
 43
100.0
  0
INSERT
  5
17E44
330
17109
100
AcDbEntity
  8
寸法
 62
     0
 48
50.0
370
    -2
100
AcDbBlockReference
  2
_DOTSMALL
 10
7246.461099046289
 20
4734.498592399745
 30
0.0
 41
100.0
 42
100.0
 43
100.0
 50
180.0
  0
MTEXT
  5
17E45
330
17109
100
AcDbEntity
  8
寸法
 62
     7
 48
50.0
100
AcDbMText
 10
7559.946380420528
 20
4834.498592399746
 30
0.0
 40
120.0
 41
0.0
 71
     5
 72
     1
  1
\A1;50
  7
STYLE1
 73
     1
 44
1.0
1001
ACAD
1000
MTEXTBEGIN
1070
    73
1070
     1
1070
    44
1040
1.0
1070
    74
1070
     0
1000
MTEXTEND
  0
POINT
  5
17E46
330
17109
100
AcDbEntity
  8
DEFPOINTS
 62
     0
 48
50.0
100
AcDbPoint
 10
7246.461099046289
 20
4328.772320667838
 30
0.0
  0
POINT
  5
17E47
330
17109
100
AcDbEntity
  8
DEFPOINTS
 62
     0
 48
50.0
100
AcDbPoint
 10
7196.461099046292
 20
4328.772320667841
 30
0.0
  0
POINT
  5
17E48
330
17109
100
AcDbEntity
  8
DEFPOINTS
 62
     0
 48
50.0
100
AcDbPoint
 10
7196.461099046292
 20
4734.498592399745
 30
0.0
  0
ENDBLK
  5
17116
330
17109
100
AcDbEntity
  8
0
 48
50.0
100
AcDbBlockEnd
  0
BLOCK
  5
17123
330
17117
100
AcDbEntity
  8
0
 48
50.0
100
AcDbBlockBegin
  2
*D15
 70
     1
 10
0.0
 20
0.0
 30
0.0
  3
*D15
  1

  0
LINE
  5
179E8
330
17117
100
AcDbEntity
  8
寸法
 62
     0
 48
50.0
370
    -2
100
AcDbLine
 10
4566.461099046292
 20
4348.772320667841
 30
0.0
 11
4566.461099046292
 21
4794.498592399746
 31
0.0
  0
LINE
  5
179E9
330
17117
100
AcDbEntity
  8
寸法
 62
     0
 48
50.0
370
    -2
100
AcDbLine
 10
4516.461099046291
 20
4348.772320667841
 30
0.0
 11
4516.461099046291
 21
4794.498592399746
 31
0.0
  0
LINE
  5
179EA
330
17117
100
AcDbEntity
  8
寸法
 62
     0
 48
50.0
370
    -2
100
AcDbLine
 10
4566.461099046292
 20
4734.498592399745
 30
0.0
 11
4666.461099046292
 21
4734.498592399745
 31
0.0
  0
LINE
  5
179EB
330
17117
100
AcDbEntity
  8
寸法
 62
     0
 48
50.0
370
    -2
100
AcDbLine
 10
4516.461099046291
 20
4734.498592399745
 30
0.0
 11
4096.928573577556
 21
4734.498592399745
 31
0.0
  0
LINE
  5
179EC
330
17117
100
AcDbEntity
  8
寸法
 62
     0
 48
50.0
370
    -2
100
AcDbLine
 10
4566.461099046292
 20
4734.498592399745
 30
0.0
 11
4516.461099046291
 21
4734.498592399745
 31
0.0
  0
INSERT
  5
179ED
330
17117
100
AcDbEntity
  8
寸法
 62
     0
 48
50.0
370
    -2
100
AcDbBlockReference
  2
_DOTSMALL
 10
4566.461099046292
 20
4734.498592399745
 30
0.0
 41
100.0
 42
100.0
 43
100.0
 50
180.0
  0
INSERT
  5
179EE
330
17117
100
AcDbEntity
  8
寸法
 62
     0
 48
50.0
370
    -2
100
AcDbBlockReference
  2
_DOTSMALL
 10
4516.461099046291
 20
4734.498592399745
 30
0.0
 41
100.0
 42
100.0
 43
100.0
  0
MTEXT
  5
179EF
330
17117
100
AcDbEntity
  8
寸法
 62
     7
 48
50.0
100
AcDbMText
 10
4202.975817672044
 20
4834.498592399746
 30
0.0
 40
120.0
 41
0.0
 71
     5
 72
     1
  1
\A1;50
  7
STYLE1
 73
     1
 44
1.0
1001
ACAD
1000
MTEXTBEGIN
1070
    73
1070
     1
1070
    44
1040
1.0
1070
    74
1070
     0
1000
MTEXTEND
  0
POINT
  5
179F0
330
17117
100
AcDbEntity
  8
DEFPOINTS
 62
     0
 48
50.0
100
AcDbPoint
 10
4566.461099046292
 20
4328.772320667842
 30
0.0
  0
POINT
  5
179F1
330
17117
100
AcDbEntity
  8
DEFPOINTS
 62
     0
 48
50.0
100
AcDbPoint
 10
4516.461099046291
 20
4328.772320667841
 30
0.0
  0
POINT
  5
179F2
330
17117
100
AcDbEntity
  8
DEFPOINTS
 62
     0
 48
50.0
100
AcDbPoint
 10
4516.461099046291
 20
4734.498592399745
 30
0.0
  0
ENDBLK
  5
17124
330
17117
100
AcDbEntity
  8
0
 48
50.0
100
AcDbBlockEnd
  0
BLOCK
  5
1712F
330
17125
100
AcDbEntity
  8
0
 48
50.0
100
AcDbBlockBegin
  2
*D16
 70
     1
 10
0.0
 20
0.0
 30
0.0
  3
*D16
  1

  0
LINE
  5
17F41
330
17125
100
AcDbEntity
  8
寸法
 62
     0
 48
50.0
370
    -2
100
AcDbLine
 10
4516.461099046291
 20
4348.772320667841
 30
0.0
 11
4516.461099046291
 21
4994.407513613835
 31
0.0
  0
LINE
  5
17F42
330
17125
100
AcDbEntity
  8
寸法
 62
     0
 48
50.0
370
    -2
100
AcDbLine
 10
7246.461099046289
 20
4348.772320667838
 30
0.0
 11
7246.461099046289
 21
4994.407513613835
 31
0.0
  0
LINE
  5
17F43
330
17125
100
AcDbEntity
  8
寸法
 62
     0
 48
50.0
370
    -2
100
AcDbLine
 10
4516.461099046291
 20
4934.407513613836
 30
0.0
 11
7246.461099046289
 21
4934.407513613836
 31
0.0
  0
INSERT
  5
17F44
330
17125
100
AcDbEntity
  8
寸法
 62
     0
 48
50.0
370
    -2
100
AcDbBlockReference
  2
_DOTSMALL
 10
4516.461099046291
 20
4934.407513613836
 30
0.0
 41
100.0
 42
100.0
 43
100.0
 50
180.0
  0
INSERT
  5
17F45
330
17125
100
AcDbEntity
  8
寸法
 62
     0
 48
50.0
370
    -2
100
AcDbBlockReference
  2
_DOTSMALL
 10
7246.461099046289
 20
4934.407513613836
 30
0.0
 41
100.0
 42
100.0
 43
100.0
  0
MTEXT
  5
17F46
330
17125
100
AcDbEntity
  8
寸法
 62
     7
 48
50.0
100
AcDbMText
 10
5881.46109904629
 20
5034.419324637458
 30
0.0
 40
120.0
 41
0.0
 71
     5
 72
     1
  1
\A1;2730
  7
STYLE1
 73
     1
 44
1.0
1001
ACAD
1000
MTEXTBEGIN
1070
    73
1070
     1
1070
    44
1040
1.0
1070
    74
1070
     0
1000
MTEXTEND
  0
POINT
  5
17F47
330
17125
100
AcDbEntity
  8
DEFPOINTS
 62
     0
 48
50.0
100
AcDbPoint
 10
4516.461099046291
 20
4328.772320667841
 30
0.0
  0
POINT
  5
17F48
330
17125
100
AcDbEntity
  8
DEFPOINTS
 62
     0
 48
50.0
100
AcDbPoint
 10
7246.461099046289
 20
4328.772320667838
 30
0.0
  0
POINT
  5
17F49
330
17125
100
AcDbEntity
  8
DEFPOINTS
 62
     0
 48
50.0
100
AcDbPoint
 10
7246.461099046289
 20
4934.407513613836
 30
0.0
  0
ENDBLK
  5
17130
330
17125
100
AcDbEntity
  8
0
 48
50.0
100
AcDbBlockEnd
  0
BLOCK
  5
1713B
330
17131
100
AcDbEntity
  8
0
 48
50.0
100
AcDbBlockBegin
  2
*D17
 70
     1
 10
0.0
 20
0.0
 30
0.0
  3
*D17
  1

  0
LINE
  5
17E52
330
17131
100
AcDbEntity
  8
寸法
 62
     0
 48
50.0
370
    -2
100
AcDbLine
 10
7196.461099046292
 20
4348.772320667841
 30
0.0
 11
7196.461099046292
 21
4794.498592399746
 31
0.0
  0
LINE
  5
17E53
330
17131
100
AcDbEntity
  8
寸法
 62
     0
 48
50.0
370
    -2
100
AcDbLine
 10
4566.461099046292
 20
4348.772320667841
 30
0.0
 11
4566.461099046292
 21
4794.498592399746
 31
0.0
  0
LINE
  5
17E54
330
17131
100
AcDbEntity
  8
寸法
 62
     0
 48
50.0
370
    -2
100
AcDbLine
 10
7196.461099046292
 20
4734.498592399745
 30
0.0
 11
4566.461099046292
 21
4734.498592399745
 31
0.0
  0
INSERT
  5
17E55
330
17131
100
AcDbEntity
  8
寸法
 62
     0
 48
50.0
370
    -2
100
AcDbBlockReference
  2
_DOTSMALL
 10
7196.461099046292
 20
4734.498592399745
 30
0.0
 41
100.0
 42
100.0
 43
100.0
  0
INSERT
  5
17E56
330
17131
100
AcDbEntity
  8
寸法
 62
     0
 48
50.0
370
    -2
100
AcDbBlockReference
  2
_DOTSMALL
 10
4566.461099046292
 20
4734.498592399745
 30
0.0
 41
100.0
 42
100.0
 43
100.0
 50
180.0
  0
MTEXT
  5
17E57
330
17131
100
AcDbEntity
  8
寸法
 62
     7
 48
50.0
100
AcDbMText
 10
5881.461099046291
 20
4834.510403423367
 30
0.0
 40
120.0
 41
0.0
 71
     5
 72
     1
  1
\A1;柱外寸法2630
  7
STYLE1
 73
     1
 44
1.0
1001
ACAD
1000
MTEXTBEGIN
1070
    73
1070
     1
1070
    44
1040
1.0
1070
    74
1070
     0
1000
MTEXTEND
  0
POINT
  5
17E58
330
17131
100
AcDbEntity
  8
DEFPOINTS
 62
     0
 48
50.0
100
AcDbPoint
 10
7196.461099046292
 20
4328.772320667841
 30
0.0
  0
POINT
  5
17E59
330
17131
100
AcDbEntity
  8
DEFPOINTS
 62
     0
 48
50.0
100
AcDbPoint
 10
4566.461099046292
 20
4328.772320667842
 30
0.0
  0
POINT
  5
17E5A
330
17131
100
AcDbEntity
  8
DEFPOINTS
 62
     0
 48
50.0
100
AcDbPoint
 10
4566.461099046292
 20
4734.498592399745
 30
0.0
  0
ENDBLK
  5
1713C
330
17131
100
AcDbEntity
  8
0
 48
50.0
100
AcDbBlockEnd
  0
BLOCK
  5
1776F
330
17765
100
AcDbEntity
  8
0
 48
50.0
100
AcDbBlockBegin
  2
*D18
 70
     1
 10
0.0
 20
0.0
 30
0.0
  3
*D18
  1

  0
LINE
  5
17DA1
330
17765
100
AcDbEntity
  8
寸法
 62
     0
 48
50.0
370
    -2
100
AcDbLine
 10
9867.296989988718
 20
4093.772320667831
 30
0.0
 11
8983.546860805459
 21
4093.772320667831
 31
0.0
  0
LINE
  5
17DA2
330
17765
100
AcDbEntity
  8
寸法
 62
     0
 48
50.0
370
    -2
100
AcDbLine
 10
9867.296989988718
 20
2303.772320667829
 30
0.0
 11
8983.546860805459
 21
2303.77232066783
 31
0.0
  0
LINE
  5
17DA3
330
17765
100
AcDbEntity
  8
寸法
 62
     0
 48
50.0
370
    -2
100
AcDbLine
 10
9043.546860805458
 20
4093.772320667831
 30
0.0
 11
9043.546860805458
 21
2303.77232066783
 31
0.0
  0
INSERT
  5
17DA4
330
17765
100
AcDbEntity
  8
寸法
 62
     0
 48
50.0
370
    -2
100
AcDbBlockReference
  2
_DOTSMALL
 10
9043.546860805458
 20
4093.772320667831
 30
0.0
 41
100.0
 42
100.0
 43
100.0
 50
90.0
  0
INSERT
  5
17DA5
330
17765
100
AcDbEntity
  8
寸法
 62
     0
 48
50.0
370
    -2
100
AcDbBlockReference
  2
_DOTSMALL
 10
9043.546860805458
 20
2303.77232066783
 30
0.0
 41
100.0
 42
100.0
 43
100.0
 50
270.0
  0
MTEXT
  5
17DA6
330
17765
100
AcDbEntity
  8
寸法
 62
     7
 48
50.0
100
AcDbMText
 10
8943.546860805458
 20
3198.772320667832
 30
0.0
 40
120.0
 41
0.0
 71
     5
 72
     1
  1
\A1;1790
  7
STYLE1
 11
0.0000000000000001
 21
1.0
 31
0.0
 73
     1
 44
1.0
1001
ACAD
1000
MTEXTBEGIN
1070
    73
1070
     1
1070
    44
1040
1.0
1070
    74
1070
     0
1000
MTEXTEND
  0
POINT
  5
17DA7
330
17765
100
AcDbEntity
  8
DEFPOINTS
 62
     0
 48
50.0
100
AcDbPoint
 10
9887.296989988719
 20
4093.772320667831
 30
0.0
  0
POINT
  5
17DA8
330
17765
100
AcDbEntity
  8
DEFPOINTS
 62
     0
 48
50.0
100
AcDbPoint
 10
9887.296989988719
 20
2303.772320667829
 30
0.0
  0
POINT
  5
17DA9
330
17765
100
AcDbEntity
  8
DEFPOINTS
 62
     0
 48
50.0
100
AcDbPoint
 10
9043.546860805458
 20
2303.77232066783
 30
0.0
  0
ENDBLK
  5
17770
330
17765
100
AcDbEntity
  8
0
 48
50.0
100
AcDbBlockEnd
  0
BLOCK
  5
1777B
330
17771
100
AcDbEntity
  8
0
 48
50.0
100
AcDbBlockBegin
  2
*D19
 70
     1
 10
0.0
 20
0.0
 30
0.0
  3
*D19
  1

  0
LINE
  5
17D98
330
17771
100
AcDbEntity
  8
寸法
 62
     0
 48
50.0
370
    -2
100
AcDbLine
 10
9867.296989988718
 20
2253.772320667829
 30
0.0
 11
8683.546860805456
 21
2253.77232066783
 31
0.0
  0
LINE
  5
17D99
330
17771
100
AcDbEntity
  8
寸法
 62
     0
 48
50.0
370
    -2
100
AcDbLine
 10
9807.296989988719
 20
4328.772320667835
 30
0.0
 11
8683.546860805458
 21
4328.772320667835
 31
0.0
  0
LINE
  5
17D9A
330
17771
100
AcDbEntity
  8
寸法
 62
     0
 48
50.0
370
    -2
100
AcDbLine
 10
8743.546860805457
 20
2253.77232066783
 30
0.0
 11
8743.546860805457
 21
4328.772320667835
 31
0.0
  0
INSERT
  5
17D9B
330
17771
100
AcDbEntity
  8
寸法
 62
     0
 48
50.0
370
    -2
100
AcDbBlockReference
  2
_DOTSMALL
 10
8743.546860805457
 20
2253.77232066783
 30
0.0
 41
100.0
 42
100.0
 43
100.0
 50
270.0
  0
INSERT
  5
17D9C
330
17771
100
AcDbEntity
  8
寸法
 62
     0
 48
50.0
370
    -2
100
AcDbBlockReference
  2
_DOTSMALL
 10
8743.546860805457
 20
4328.772320667835
 30
0.0
 41
100.0
 42
100.0
 43
100.0
 50
90.0
  0
MTEXT
  5
17D9D
330
17771
100
AcDbEntity
  8
寸法
 62
     7
 48
50.0
100
AcDbMText
 10
8643.535049781835
 20
3291.272320667834
 30
0.0
 40
120.0
 41
0.0
 71
     5
 72
     1
  1
\A1;2075
  7
STYLE1
 11
0.0000000000000001
 21
1.0
 31
0.0
 73
     1
 44
1.0
1001
ACAD
1000
MTEXTBEGIN
1070
    73
1070
     1
1070
    44
1040
1.0
1070
    74
1070
     0
1000
MTEXTEND
  0
POINT
  5
17D9E
330
17771
100
AcDbEntity
  8
DEFPOINTS
 62
     0
 48
50.0
100
AcDbPoint
 10
9887.296989988719
 20
2253.772320667829
 30
0.0
  0
POINT
  5
17D9F
330
17771
100
AcDbEntity
  8
DEFPOINTS
 62
     0
 48
50.0
100
AcDbPoint
 10
9827.296989988717
 20
4328.772320667835
 30
0.0
  0
POINT
  5
17DA0
330
17771
100
AcDbEntity
  8
DEFPOINTS
 62
     0
 48
50.0
100
AcDbPoint
 10
8743.546860805457
 20
4328.772320667835
 30
0.0
  0
ENDBLK
  5
1777C
330
17771
100
AcDbEntity
  8
0
 48
50.0
100
AcDbBlockEnd
  0
BLOCK
  5
17787
330
1777D
100
AcDbEntity
  8
0
 48
50.0
100
AcDbBlockBegin
  2
*D20
 70
     1
 10
0.0
 20
0.0
 30
0.0
  3
*D20
  1

  0
LINE
  5
17D8F
330
1777D
100
AcDbEntity
  8
寸法
 62
     0
 48
50.0
370
    -2
100
AcDbLine
 10
12957.29698998872
 20
2253.772320667836
 30
0.0
 11
13702.22414796084
 21
2253.772320667836
 31
0.0
  0
LINE
  5
17D90
330
1777D
100
AcDbEntity
  8
寸法
 62
     0
 48
50.0
370
    -2
100
AcDbLine
 10
13037.29698998872
 20
4273.772320667837
 30
0.0
 11
13702.22414796084
 21
4273.772320667837
 31
0.0
  0
LINE
  5
17D91
330
1777D
100
AcDbEntity
  8
寸法
 62
     0
 48
50.0
370
    -2
100
AcDbLine
 10
13642.22414796084
 20
2253.772320667836
 30
0.0
 11
13642.22414796084
 21
4273.772320667837
 31
0.0
  0
INSERT
  5
17D92
330
1777D
100
AcDbEntity
  8
寸法
 62
     0
 48
50.0
370
    -2
100
AcDbBlockReference
  2
_DOTSMALL
 10
13642.22414796084
 20
2253.772320667836
 30
0.0
 41
100.0
 42
100.0
 43
100.0
 50
270.0
  0
INSERT
  5
17D93
330
1777D
100
AcDbEntity
  8
寸法
 62
     0
 48
50.0
370
    -2
100
AcDbBlockReference
  2
_DOTSMALL
 10
13642.22414796084
 20
4273.772320667837
 30
0.0
 41
100.0
 42
100.0
 43
100.0
 50
90.0
  0
MTEXT
  5
17D94
330
1777D
100
AcDbEntity
  8
寸法
 62
     7
 48
50.0
100
AcDbMText
 10
13542.21233693722
 20
3263.772320667839
 30
0.0
 40
120.0
 41
0.0
 71
     5
 72
     1
  1
\A1;2020
  7
STYLE1
 11
0.0000000000000001
 21
1.0
 31
0.0
 73
     1
 44
1.0
1001
ACAD
1000
MTEXTBEGIN
1070
    73
1070
     1
1070
    44
1040
1.0
1070
    74
1070
     0
1000
MTEXTEND
  0
POINT
  5
17D95
330
1777D
100
AcDbEntity
  8
DEFPOINTS
 62
     0
 48
50.0
100
AcDbPoint
 10
12937.29698998872
 20
2253.772320667836
 30
0.0
  0
POINT
  5
17D96
330
1777D
100
AcDbEntity
  8
DEFPOINTS
 62
     0
 48
50.0
100
AcDbPoint
 10
13017.29698998872
 20
4273.772320667837
 30
0.0
  0
POINT
  5
17D97
330
1777D
100
AcDbEntity
  8
DEFPOINTS
 62
     0
 48
50.0
100
AcDbPoint
 10
13642.22414796084
 20
4273.772320667837
 30
0.0
  0
ENDBLK
  5
17788
330
1777D
100
AcDbEntity
  8
0
 48
50.0
100
AcDbBlockEnd
  0
BLOCK
  5
17795
330
17789
100
AcDbEntity
  8
0
 48
50.0
100
AcDbBlockBegin
  2
*D21
 70
     1
 10
0.0
 20
0.0
 30
0.0
  3
*D21
  1

  0
LINE
  5
17D84
330
17789
100
AcDbEntity
  8
寸法
 62
     0
 48
50.0
370
    -2
100
AcDbLine
 10
9867.296989988718
 20
2303.772320667835
 30
0.0
 11
8983.546860805459
 21
2303.772320667835
 31
0.0
  0
LINE
  5
17D85
330
17789
100
AcDbEntity
  8
寸法
 62
     0
 48
50.0
370
    -2
100
AcDbLine
 10
9812.296989988718
 20
2253.772320667835
 30
0.0
 11
8983.546860805459
 21
2253.772320667835
 31
0.0
  0
LINE
  5
17D86
330
17789
100
AcDbEntity
  8
寸法
 62
     0
 48
50.0
370
    -2
100
AcDbLine
 10
9043.546860805458
 20
2303.772320667835
 30
0.0
 11
9043.546860805458
 21
2403.772320667835
 31
0.0
  0
LINE
  5
17D87
330
17789
100
AcDbEntity
  8
寸法
 62
     0
 48
50.0
370
    -2
100
AcDbLine
 10
9043.546860805458
 20
2253.772320667835
 30
0.0
 11
9043.546860805458
 21
1841.677832478856
 31
0.0
  0
LINE
  5
17D88
330
17789
100
AcDbEntity
  8
寸法
 62
     0
 48
50.0
370
    -2
100
AcDbLine
 10
9043.546860805458
 20
2303.772320667835
 30
0.0
 11
9043.546860805458
 21
2253.772320667835
 31
0.0
  0
INSERT
  5
17D89
330
17789
100
AcDbEntity
  8
寸法
 62
     0
 48
50.0
370
    -2
100
AcDbBlockReference
  2
_DOTSMALL
 10
9043.546860805458
 20
2303.772320667835
 30
0.0
 41
100.0
 42
100.0
 43
100.0
 50
270.0
  0
INSERT
  5
17D8A
330
17789
100
AcDbEntity
  8
寸法
 62
     0
 48
50.0
370
    -2
100
AcDbBlockReference
  2
_DOTSMALL
 10
9043.546860805458
 20
2253.772320667835
 30
0.0
 41
100.0
 42
100.0
 43
100.0
 50
90.0
  0
MTEXT
  5
17D8B
330
17789
100
AcDbEntity
  8
寸法
 62
     7
 48
50.0
100
AcDbMText
 10
8943.546860805458
 20
1947.725076573346
 30
0.0
 40
120.0
 41
0.0
 71
     5
 72
     1
  1
\A1;50
  7
STYLE1
 11
0.0000000000000001
 21
1.0
 31
0.0
 73
     1
 44
1.0
1001
ACAD
1000
MTEXTBEGIN
1070
    73
1070
     1
1070
    44
1040
1.0
1070
    74
1070
     0
1000
MTEXTEND
  0
POINT
  5
17D8C
330
17789
100
AcDbEntity
  8
DEFPOINTS
 62
     0
 48
50.0
100
AcDbPoint
 10
9887.296989988719
 20
2303.772320667835
 30
0.0
  0
POINT
  5
17D8D
330
17789
100
AcDbEntity
  8
DEFPOINTS
 62
     0
 48
50.0
100
AcDbPoint
 10
9832.296989988719
 20
2253.772320667835
 30
0.0
  0
POINT
  5
17D8E
330
17789
100
AcDbEntity
  8
DEFPOINTS
 62
     0
 48
50.0
100
AcDbPoint
 10
9043.546860805458
 20
2253.772320667835
 30
0.0
  0
ENDBLK
  5
17796
330
17789
100
AcDbEntity
  8
0
 48
50.0
100
AcDbBlockEnd
  0
BLOCK
  5
177A1
330
17797
100
AcDbEntity
  8
0
 48
50.0
100
AcDbBlockBegin
  2
*D22
 70
     1
 10
0.0
 20
0.0
 30
0.0
  3
*D22
  1

  0
LINE
  5
17D7B
330
17797
100
AcDbEntity
  8
寸法
 62
     0
 48
50.0
370
    -2
100
AcDbLine
 10
12937.29698998872
 20
4295.58300027949
 30
0.0
 11
12937.29698998872
 21
4787.429774247141
 31
0.0
  0
LINE
  5
17D7C
330
17797
100
AcDbEntity
  8
寸法
 62
     0
 48
50.0
370
    -2
100
AcDbLine
 10
9887.296989988719
 20
4344.773938790811
 30
0.0
 11
9887.296989988719
 21
4787.429774247141
 31
0.0
  0
LINE
  5
17D7D
330
17797
100
AcDbEntity
  8
寸法
 62
     0
 48
50.0
370
    -2
100
AcDbLine
 10
12937.29698998872
 20
4727.42977424714
 30
0.0
 11
9887.296989988719
 21
4727.42977424714
 31
0.0
  0
INSERT
  5
17D7E
330
17797
100
AcDbEntity
  8
寸法
 62
     0
 48
50.0
370
    -2
100
AcDbBlockReference
  2
_DOTSMALL
 10
12937.29698998872
 20
4727.42977424714
 30
0.0
 41
100.0
 42
100.0
 43
100.0
  0
INSERT
  5
17D7F
330
17797
100
AcDbEntity
  8
寸法
 62
     0
 48
50.0
370
    -2
100
AcDbBlockReference
  2
_DOTSMALL
 10
9887.296989988719
 20
4727.42977424714
 30
0.0
 41
100.0
 42
100.0
 43
100.0
 50
180.0
  0
MTEXT
  5
17D80
330
17797
100
AcDbEntity
  8
寸法
 62
     7
 48
50.0
100
AcDbMText
 10
11412.29698998871
 20
4827.429774247141
 30
0.0
 40
120.0
 41
0.0
 71
     5
 72
     1
  1
\A1;柱外寸法3050
  7
STYLE1
 73
     1
 44
1.0
1001
ACAD
1000
MTEXTBEGIN
1070
    73
1070
     1
1070
    44
1040
1.0
1070
    74
1070
     0
1000
MTEXTEND
  0
POINT
  5
17D81
330
17797
100
AcDbEntity
  8
DEFPOINTS
 62
     0
 48
50.0
100
AcDbPoint
 10
12937.29698998872
 20
4275.58300027949
 30
0.0
  0
POINT
  5
17D82
330
17797
100
AcDbEntity
  8
DEFPOINTS
 62
     0
 48
50.0
100
AcDbPoint
 10
9887.296989988719
 20
4324.773938790811
 30
0.0
  0
POINT
  5
17D83
330
17797
100
AcDbEntity
  8
DEFPOINTS
 62
     0
 48
50.0
100
AcDbPoint
 10
9887.296989988719
 20
4727.42977424714
 30
0.0
  0
ENDBLK
  5
177A2
330
17797
100
AcDbEntity
  8
0
 48
50.0
100
AcDbBlockEnd
  0
BLOCK
  5
177AF
330
177A3
100
AcDbEntity
  8
0
 48
50.0
100
AcDbBlockBegin
  2
*D23
 70
     1
 10
0.0
 20
0.0
 30
0.0
  3
*D23
  1

  0
LINE
  5
17D70
330
177A3
100
AcDbEntity
  8
寸法
 62
     0
 48
50.0
370
    -2
100
AcDbLine
 10
9887.296989988719
 20
4344.773938790811
 30
0.0
 11
9887.296989988719
 21
4787.429774247139
 31
0.0
  0
LINE
  5
17D71
330
177A3
100
AcDbEntity
  8
寸法
 62
     0
 48
50.0
370
    -2
100
AcDbLine
 10
9827.296989988717
 20
4348.77232066784
 30
0.0
 11
9827.296989988717
 21
4787.429774247139
 31
0.0
  0
LINE
  5
17D72
330
177A3
100
AcDbEntity
  8
寸法
 62
     0
 48
50.0
370
    -2
100
AcDbLine
 10
9887.296989988719
 20
4727.429774247139
 30
0.0
 11
9987.296989988719
 21
4727.429774247139
 31
0.0
  0
LINE
  5
17D73
330
177A3
100
AcDbEntity
  8
寸法
 62
     0
 48
50.0
370
    -2
100
AcDbLine
 10
9827.296989988717
 20
4727.429774247139
 30
0.0
 11
9408.021399437537
 21
4727.429774247139
 31
0.0
  0
LINE
  5
17D74
330
177A3
100
AcDbEntity
  8
寸法
 62
     0
 48
50.0
370
    -2
100
AcDbLine
 10
9887.296989988719
 20
4727.429774247139
 30
0.0
 11
9827.296989988717
 21
4727.429774247139
 31
0.0
  0
INSERT
  5
17D75
330
177A3
100
AcDbEntity
  8
寸法
 62
     0
 48
50.0
370
    -2
100
AcDbBlockReference
  2
_DOTSMALL
 10
9887.296989988719
 20
4727.429774247139
 30
0.0
 41
100.0
 42
100.0
 43
100.0
 50
180.0
  0
INSERT
  5
17D76
330
177A3
100
AcDbEntity
  8
寸法
 62
     0
 48
50.0
370
    -2
100
AcDbBlockReference
  2
_DOTSMALL
 10
9827.296989988717
 20
4727.429774247139
 30
0.0
 41
100.0
 42
100.0
 43
100.0
  0
MTEXT
  5
17D77
330
177A3
100
AcDbEntity
  8
寸法
 62
     7
 48
50.0
100
AcDbMText
 10
9517.659194713127
 20
4827.429774247139
 30
0.0
 40
120.0
 41
0.0
 71
     5
 72
     1
  1
\A1;60
  7
STYLE1
 73
     1
 44
1.0
1001
ACAD
1000
MTEXTBEGIN
1070
    73
1070
     1
1070
    44
1040
1.0
1070
    74
1070
     0
1000
MTEXTEND
  0
POINT
  5
17D78
330
177A3
100
AcDbEntity
  8
DEFPOINTS
 62
     0
 48
50.0
100
AcDbPoint
 10
9887.296989988719
 20
4324.773938790811
 30
0.0
  0
POINT
  5
17D79
330
177A3
100
AcDbEntity
  8
DEFPOINTS
 62
     0
 48
50.0
100
AcDbPoint
 10
9827.296989988717
 20
4328.772320667839
 30
0.0
  0
POINT
  5
17D7A
330
177A3
100
AcDbEntity
  8
DEFPOINTS
 62
     0
 48
50.0
100
AcDbPoint
 10
9827.296989988717
 20
4727.429774247139
 30
0.0
  0
ENDBLK
  5
177B0
330
177A3
100
AcDbEntity
  8
0
 48
50.0
100
AcDbBlockEnd
  0
BLOCK
  5
177BB
330
177B1
100
AcDbEntity
  8
0
 48
50.0
100
AcDbBlockBegin
  2
*D24
 70
     1
 10
0.0
 20
0.0
 30
0.0
  3
*D24
  1

  0
LINE
  5
17D67
330
177B1
100
AcDbEntity
  8
寸法
 62
     0
 48
50.0
370
    -2
100
AcDbLine
 10
13017.29698998872
 20
4293.772320667836
 30
0.0
 11
13017.29698998872
 21
5017.543367033417
 31
0.0
  0
LINE
  5
17D68
330
177B1
100
AcDbEntity
  8
寸法
 62
     0
 48
50.0
370
    -2
100
AcDbLine
 10
9827.296989988717
 20
4348.77232066784
 30
0.0
 11
9827.296989988717
 21
5017.543367033417
 31
0.0
  0
LINE
  5
17D69
330
177B1
100
AcDbEntity
  8
寸法
 62
     0
 48
50.0
370
    -2
100
AcDbLine
 10
13017.29698998872
 20
4957.543367033417
 30
0.0
 11
9827.296989988717
 21
4957.543367033417
 31
0.0
  0
INSERT
  5
17D6A
330
177B1
100
AcDbEntity
  8
寸法
 62
     0
 48
50.0
370
    -2
100
AcDbBlockReference
  2
_DOTSMALL
 10
13017.29698998872
 20
4957.543367033417
 30
0.0
 41
100.0
 42
100.0
 43
100.0
  0
INSERT
  5
17D6B
330
177B1
100
AcDbEntity
  8
寸法
 62
     0
 48
50.0
370
    -2
100
AcDbBlockReference
  2
_DOTSMALL
 10
9827.296989988717
 20
4957.543367033417
 30
0.0
 41
100.0
 42
100.0
 43
100.0
 50
180.0
  0
MTEXT
  5
17D6C
330
177B1
100
AcDbEntity
  8
寸法
 62
     7
 48
50.0
100
AcDbMText
 10
11422.29698998872
 20
5057.543367033417
 30
0.0
 40
120.0
 41
0.0
 71
     5
 72
     1
  1
\A1;3190
  7
STYLE1
 73
     1
 44
1.0
1001
ACAD
1000
MTEXTBEGIN
1070
    73
1070
     1
1070
    44
1040
1.0
1070
    74
1070
     0
1000
MTEXTEND
  0
POINT
  5
17D6D
330
177B1
100
AcDbEntity
  8
DEFPOINTS
 62
     0
 48
50.0
100
AcDbPoint
 10
13017.29698998872
 20
4273.772320667837
 30
0.0
  0
POINT
  5
17D6E
330
177B1
100
AcDbEntity
  8
DEFPOINTS
 62
     0
 48
50.0
100
AcDbPoint
 10
9827.296989988717
 20
4328.772320667839
 30
0.0
  0
POINT
  5
17D6F
330
177B1
100
AcDbEntity
  8
DEFPOINTS
 62
     0
 48
50.0
100
AcDbPoint
 10
9827.296989988717
 20
4957.543367033417
 30
0.0
  0
ENDBLK
  5
177BC
330
177B1
100
AcDbEntity
  8
0
 48
50.0
100
AcDbBlockEnd
  0
BLOCK
  5
177C8
330
177BD
100
AcDbEntity
  8
0
 48
50.0
100
AcDbBlockBegin
  2
*D25
 70
     1
 10
0.0
 20
0.0
 30
0.0
  3
*D25
  1

  0
LINE
  5
17D5D
330
177BD
100
AcDbEntity
  8
寸法
 62
     0
 48
50.0
370
    -2
100
AcDbLine
 10
12937.29698998872
 20
4295.58300027949
 30
0.0
 11
12937.29698998872
 21
4787.429774247141
 31
0.0
  0
LINE
  5
17D5E
330
177BD
100
AcDbEntity
  8
寸法
 62
     0
 48
50.0
370
    -2
100
AcDbLine
 10
13017.29698998872
 20
4293.772320667838
 30
0.0
 11
13017.29698998872
 21
4787.429774247141
 31
0.0
  0
LINE
  5
17D5F
330
177BD
100
AcDbEntity
  8
寸法
 62
     0
 48
50.0
370
    -2
100
AcDbLine
 10
12937.29698998872
 20
4727.42977424714
 30
0.0
 11
13017.29698998872
 21
4727.42977424714
 31
0.0
  0
LINE
  5
17D60
330
177BD
100
AcDbEntity
  8
寸法
 62
     0
 48
50.0
370
    -2
100
AcDbLine
 10
13017.29698998872
 20
4727.42977424714
 30
0.0
 11
13329.39147817769
 21
4727.42977424714
 31
0.0
  0
INSERT
  5
17D61
330
177BD
100
AcDbEntity
  8
寸法
 62
     0
 48
50.0
370
    -2
100
AcDbBlockReference
  2
_DOTSMALL
 10
12937.29698998872
 20
4727.42977424714
 30
0.0
 41
100.0
 42
100.0
 43
100.0
 50
180.0
  0
INSERT
  5
17D62
330
177BD
100
AcDbEntity
  8
寸法
 62
     0
 48
50.0
370
    -2
100
AcDbBlockReference
  2
_DOTSMALL
 10
13017.29698998872
 20
4727.42977424714
 30
0.0
 41
100.0
 42
100.0
 43
100.0
  0
MTEXT
  5
17D63
330
177BD
100
AcDbEntity
  8
寸法
 62
     7
 48
50.0
100
AcDbMText
 10
13223.34423408321
 20
4827.429774247141
 30
0.0
 40
120.0
 41
0.0
 71
     5
 72
     1
  1
\A1;80
  7
STYLE1
 73
     1
 44
1.0
1001
ACAD
1000
MTEXTBEGIN
1070
    73
1070
     1
1070
    44
1040
1.0
1070
    74
1070
     0
1000
MTEXTEND
  0
POINT
  5
17D64
330
177BD
100
AcDbEntity
  8
DEFPOINTS
 62
     0
 48
50.0
100
AcDbPoint
 10
12937.29698998872
 20
4275.58300027949
 30
0.0
  0
POINT
  5
17D65
330
177BD
100
AcDbEntity
  8
DEFPOINTS
 62
     0
 48
50.0
100
AcDbPoint
 10
13017.29698998872
 20
4273.772320667838
 30
0.0
  0
POINT
  5
17D66
330
177BD
100
AcDbEntity
  8
DEFPOINTS
 62
     0
 48
50.0
100
AcDbPoint
 10
13017.29698998872
 20
4727.42977424714
 30
0.0
  0
ENDBLK
  5
177C9
330
177BD
100
AcDbEntity
  8
0
 48
50.0
100
AcDbBlockEnd
  0
BLOCK
  5
177D5
330
177CA
100
AcDbEntity
  8
0
 48
50.0
100
AcDbBlockBegin
  2
*D26
 70
     1
 10
0.0
 20
0.0
 30
0.0
  3
*D26
  1

  0
LINE
  5
17D53
330
177CA
100
AcDbEntity
  8
寸法
 62
     0
 48
50.0
370
    -2
100
AcDbLine
 10
9826.70127627982
 20
4328.070027737497
 30
0.0
 11
9210.766837174521
 21
4345.784178011827
 31
0.0
  0
LINE
  5
17D54
330
177CA
100
AcDbEntity
  8
寸法
 62
     0
 48
50.0
370
    -2
100
AcDbLine
 10
9822.647820723192
 20
4187.128303971784
 30
0.0
 11
9206.713381617893
 21
4204.842454246113
 31
0.0
  0
LINE
  5
17D55
330
177CA
100
AcDbEntity
  8
寸法
 62
     0
 48
50.0
370
    -2
100
AcDbLine
 10
9266.688583220327
 20
4203.117579541166
 30
0.0
 11
9270.742038776953
 21
4344.05930330688
 31
0.0
  0
LINE
  5
17D56
330
177CA
100
AcDbEntity
  8
寸法
 62
     0
 48
50.0
370
    -2
100
AcDbLine
 10
9270.742038776953
 20
4344.05930330688
 30
0.0
 11
9281.091287006638
 21
4703.910512921467
 31
0.0
  0
INSERT
  5
17D57
330
177CA
100
AcDbEntity
  8
寸法
 62
     0
 48
50.0
370
    -2
100
AcDbBlockReference
  2
_DOTSMALL
 10
9266.688583220327
 20
4203.117579541166
 30
0.0
 41
100.0
 42
100.0
 43
100.0
 50
268.3526390256378
  0
INSERT
  5
17D58
330
177CA
100
AcDbEntity
  8
寸法
 62
     0
 48
50.0
370
    -2
100
AcDbBlockReference
  2
_DOTSMALL
 10
9270.742038776953
 20
4344.05930330688
 30
0.0
 41
100.0
 42
100.0
 43
100.0
 50
88.35263902563776
  0
MTEXT
  5
17D59
330
177CA
100
AcDbEntity
  8
寸法
 62
     7
 48
50.0
100
AcDbMText
 10
9177.395389141866
 20
4576.83903395778
 30
0.0
 40
120.0
 41
0.0
 71
     5
 72
     1
  1
\A1;141
  7
STYLE1
 11
0.0287479117491237
 21
0.9995866933738488
 31
0.0
 73
     1
 44
1.0
1001
ACAD
1000
MTEXTBEGIN
1070
    73
1070
     1
1070
    44
1040
1.0
1070
    74
1070
     0
1000
MTEXTEND
  0
POINT
  5
17D5A
330
177CA
100
AcDbEntity
  8
DEFPOINTS
 62
     0
 48
50.0
100
AcDbPoint
 10
9846.693010147296
 20
4327.495069502514
 30
0.0
  0
POINT
  5
17D5B
330
177CA
100
AcDbEntity
  8
DEFPOINTS
 62
     0
 48
50.0
100
AcDbPoint
 10
9842.639554590668
 20
4186.5533457368
 30
0.0
  0
POINT
  5
17D5C
330
177CA
100
AcDbEntity
  8
DEFPOINTS
 62
     0
 48
50.0
100
AcDbPoint
 10
9266.688583220327
 20
4203.117579541166
 30
0.0
  0
ENDBLK
  5
177D6
330
177CA
100
AcDbEntity
  8
0
 48
50.0
100
AcDbBlockEnd
  0
BLOCK
  5
17C65
330
17C5A
100
AcDbEntity
  8
0
 48
50.0
100
AcDbBlockBegin
  2
*D27
 70
     1
 10
0.0
 20
0.0
 30
0.0
  3
*D27
  1

  0
LINE
  5
17F97
330
17C5A
100
AcDbEntity
  8
寸法
 62
     0
 48
50.0
370
    -2
100
AcDbLine
 10
7216.461099046289
 20
3928.772320667835
 30
0.0
 11
7544.004201368036
 21
3928.772320667835
 31
0.0
  0
LINE
  5
17F98
330
17C5A
100
AcDbEntity
  8
寸法
 62
     0
 48
50.0
370
    -2
100
AcDbLine
 10
7216.461099046288
 20
4093.772320667834
 30
0.0
 11
7544.004201368036
 21
4093.772320667834
 31
0.0
  0
LINE
  5
17F99
330
17C5A
100
AcDbEntity
  8
寸法
 62
     0
 48
50.0
370
    -2
100
AcDbLine
 10
7484.004201368034
 20
3928.772320667835
 30
0.0
 11
7484.004201368034
 21
4093.772320667834
 31
0.0
  0
LINE
  5
17F9A
330
17C5A
100
AcDbEntity
  8
寸法
 62
     0
 48
50.0
370
    -2
100
AcDbLine
 10
7484.004201368034
 20
4093.772320667834
 30
0.0
 11
7484.004201368034
 21
4470.742883416312
 31
0.0
  0
INSERT
  5
17F9B
330
17C5A
100
AcDbEntity
  8
寸法
 62
     0
 48
50.0
370
    -2
100
AcDbBlockReference
  2
_DOTSMALL
 10
7484.004201368034
 20
3928.772320667835
 30
0.0
 41
100.0
 42
100.0
 43
100.0
 50
270.0
  0
INSERT
  5
17F9C
330
17C5A
100
AcDbEntity
  8
寸法
 62
     0
 48
50.0
370
    -2
100
AcDbBlockReference
  2
_DOTSMALL
 10
7484.004201368034
 20
4093.772320667834
 30
0.0
 41
100.0
 42
100.0
 43
100.0
 50
90.0
  0
MTEXT
  5
17F9D
330
17C5A
100
AcDbEntity
  8
寸法
 62
     7
 48
50.0
100
AcDbMText
 10
7384.004201368035
 20
4332.257602042075
 30
0.0
 40
120.0
 41
0.0
 71
     5
 72
     1
  1
\A1;165
  7
STYLE1
 11
0.0000000000000001
 21
1.0
 31
0.0
 73
     1
 44
1.0
1001
ACAD
1000
MTEXTBEGIN
1070
    73
1070
     1
1070
    44
1040
1.0
1070
    74
1070
     0
1000
MTEXTEND
  0
POINT
  5
17F9E
330
17C5A
100
AcDbEntity
  8
DEFPOINTS
 62
     0
 48
50.0
100
AcDbPoint
 10
7196.461099046288
 20
3928.772320667835
 30
0.0
  0
POINT
  5
17F9F
330
17C5A
100
AcDbEntity
  8
DEFPOINTS
 62
     0
 48
50.0
100
AcDbPoint
 10
7196.461099046288
 20
4093.772320667834
 30
0.0
  0
POINT
  5
17FA0
330
17C5A
100
AcDbEntity
  8
DEFPOINTS
 62
     0
 48
50.0
100
AcDbPoint
 10
7484.004201368034
 20
4093.772320667834
 30
0.0
  0
ENDBLK
  5
17C66
330
17C5A
100
AcDbEntity
  8
0
 48
50.0
100
AcDbBlockEnd
  0
BLOCK
  5
17C73
330
17C67
100
AcDbEntity
  8
0
 48
50.0
100
AcDbBlockBegin
  2
*D28
 70
     1
 10
0.0
 20
0.0
 30
0.0
  3
*D28
  1

  0
LINE
  5
17F8C
330
17C67
100
AcDbEntity
  8
寸法
 62
     0
 48
50.0
370
    -2
100
AcDbLine
 10
7216.461099046288
 20
3901.772320667835
 30
0.0
 11
7544.004201368034
 21
3901.772320667835
 31
0.0
  0
LINE
  5
17F8D
330
17C67
100
AcDbEntity
  8
寸法
 62
     0
 48
50.0
370
    -2
100
AcDbLine
 10
7216.461099046289
 20
3928.772320667835
 30
0.0
 11
7544.004201368034
 21
3928.772320667835
 31
0.0
  0
LINE
  5
17F8E
330
17C67
100
AcDbEntity
  8
寸法
 62
     0
 48
50.0
370
    -2
100
AcDbLine
 10
7484.004201368034
 20
3901.772320667835
 30
0.0
 11
7484.004201368034
 21
3801.772320667835
 31
0.0
  0
LINE
  5
17F8F
330
17C67
100
AcDbEntity
  8
寸法
 62
     0
 48
50.0
370
    -2
100
AcDbLine
 10
7484.004201368034
 20
3928.772320667835
 30
0.0
 11
7484.004201368034
 21
4028.772320667835
 31
0.0
  0
MTEXT
  5
17F90
330
17C67
100
AcDbEntity
  8
寸法
 62
     7
 48
50.0
100
AcDbMText
 10
7624.174024614401
 20
3929.739520507494
 30
0.0
 40
120.0
 41
0.0
 71
     5
 72
     1
  1
\A1;27
  7
STYLE1
 11
0.0000000000000001
 21
1.0
 31
0.0
 73
     1
 44
1.0
1001
ACAD
1000
MTEXTBEGIN
1070
    73
1070
     1
1070
    44
1040
1.0
1070
    74
1070
     0
1000
MTEXTEND
  0
LINE
  5
17F91
330
17C67
100
AcDbEntity
  8
寸法
 62
     0
 48
50.0
370
    -2
100
AcDbLine
 10
7484.004201368034
 20
3901.772320667835
 30
0.0
 11
7484.004201368034
 21
3928.772320667835
 31
0.0
  0
INSERT
  5
17F92
330
17C67
100
AcDbEntity
  8
寸法
 62
     0
 48
50.0
370
    -2
100
AcDbBlockReference
  2
_DOTSMALL
 10
7484.004201368034
 20
3901.772320667835
 30
0.0
 41
100.0
 42
100.0
 43
100.0
 50
90.0
  0
INSERT
  5
17F93
330
17C67
100
AcDbEntity
  8
寸法
 62
     0
 48
50.0
370
    -2
100
AcDbBlockReference
  2
_DOTSMALL
 10
7484.004201368034
 20
3928.772320667835
 30
0.0
 41
100.0
 42
100.0
 43
100.0
 50
270.0
  0
POINT
  5
17F94
330
17C67
100
AcDbEntity
  8
DEFPOINTS
 62
     0
 48
50.0
100
AcDbPoint
 10
7196.461099046288
 20
3901.772320667835
 30
0.0
  0
POINT
  5
17F95
330
17C67
100
AcDbEntity
  8
DEFPOINTS
 62
     0
 48
50.0
100
AcDbPoint
 10
7196.461099046288
 20
3928.772320667835
 30
0.0
  0
POINT
  5
17F96
330
17C67
100
AcDbEntity
  8
DEFPOINTS
 62
     0
 48
50.0
100
AcDbPoint
 10
7484.004201368034
 20
3928.772320667835
 30
0.0
  0
ENDBLK
  5
17C74
330
17C67
100
AcDbEntity
  8
0
 48
50.0
100
AcDbBlockEnd
  0
BLOCK
  5
17C7F
330
17C75
100
AcDbEntity
  8
0
 48
50.0
100
AcDbBlockBegin
  2
*D29
 70
     1
 10
0.0
 20
0.0
 30
0.0
  3
*D29
  1

  0
LINE
  5
17E0E
330
17C75
100
AcDbEntity
  8
寸法
 62
     0
 48
50.0
370
    -2
100
AcDbLine
 10
7216.461099046288
 20
2253.772320667835
 30
0.0
 11
7544.004201368034
 21
2253.772320667835
 31
0.0
  0
LINE
  5
17E0F
330
17C75
100
AcDbEntity
  8
寸法
 62
     0
 48
50.0
370
    -2
100
AcDbLine
 10
7216.461099046288
 20
3901.772320667835
 30
0.0
 11
7544.004201368034
 21
3901.772320667835
 31
0.0
  0
LINE
  5
17E10
330
17C75
100
AcDbEntity
  8
寸法
 62
     0
 48
50.0
370
    -2
100
AcDbLine
 10
7484.004201368034
 20
2253.772320667835
 30
0.0
 11
7484.004201368034
 21
3901.772320667835
 31
0.0
  0
INSERT
  5
17E11
330
17C75
100
AcDbEntity
  8
寸法
 62
     0
 48
50.0
370
    -2
100
AcDbBlockReference
  2
_DOTSMALL
 10
7484.004201368034
 20
2253.772320667835
 30
0.0
 41
100.0
 42
100.0
 43
100.0
 50
270.0
  0
INSERT
  5
17E12
330
17C75
100
AcDbEntity
  8
寸法
 62
     0
 48
50.0
370
    -2
100
AcDbBlockReference
  2
_DOTSMALL
 10
7484.004201368034
 20
3901.772320667835
 30
0.0
 41
100.0
 42
100.0
 43
100.0
 50
90.0
  0
MTEXT
  5
17E13
330
17C75
100
AcDbEntity
  8
寸法
 62
     7
 48
50.0
100
AcDbMText
 10
7384.004201368033
 20
3077.772320667837
 30
0.0
 40
120.0
 41
0.0
 71
     5
 72
     1
  1
\A1;有効開口部高サ 1648
  7
STYLE1
 11
0.0000000000000001
 21
1.0
 31
0.0
 73
     1
 44
1.0
1001
ACAD
1000
MTEXTBEGIN
1070
    73
1070
     1
1070
    44
1040
1.0
1070
    74
1070
     0
1000
MTEXTEND
  0
POINT
  5
17E14
330
17C75
100
AcDbEntity
  8
DEFPOINTS
 62
     0
 48
50.0
100
AcDbPoint
 10
7196.461099046288
 20
2253.772320667835
 30
0.0
  0
POINT
  5
17E15
330
17C75
100
AcDbEntity
  8
DEFPOINTS
 62
     0
 48
50.0
100
AcDbPoint
 10
7196.461099046288
 20
3901.772320667835
 30
0.0
  0
POINT
  5
17E16
330
17C75
100
AcDbEntity
  8
DEFPOINTS
 62
     0
 48
50.0
100
AcDbPoint
 10
7484.004201368034
 20
3901.772320667835
 30
0.0
  0
ENDBLK
  5
17C80
330
17C75
100
AcDbEntity
  8
0
 48
50.0
100
AcDbBlockEnd
  0
BLOCK
  5
17ED1
330
17E66
100
AcDbEntity
  8
0
 48
50.0
100
AcDbBlockBegin
  2
A$C74850521
 70
     0
 10
0.0
 20
0.0
 30
0.0
  3
A$C74850521
  1

  0
ARC
  5
17E67
330
17E66
100
AcDbEntity
  8
部品1
 48
0.01
100
AcDbCircle
 10
788.0000000000036
 20
64.0
 30
0.0
 40
2.0
100
AcDbArc
 50
0.0
 51
90.0
  0
ARC
  5
17E68
330
17E66
100
AcDbEntity
  8
部品1
 48
0.01
100
AcDbCircle
 10
612.0000000000036
 20
64.0
 30
0.0
 40
2.0
100
AcDbArc
 50
90.0
 51
180.0
  0
LINE
  5
17E69
330
17E66
100
AcDbEntity
  8
細線
100
AcDbLine
 10
700.0
 20
36.5
 30
0.0
 11
774.0000000000036
 21
36.5
 31
0.0
  0
LINE
  5
17E6A
330
17E66
100
AcDbEntity
  8
細線
100
AcDbLine
 10
700.0000000000036
 20
59.5
 30
0.0
 11
626.0000000000036
 21
59.5
 31
0.0
  0
LINE
  5
17E6B
330
17E66
100
AcDbEntity
  8
細線
100
AcDbLine
 10
626.0000000000036
 20
36.5
 30
0.0
 11
700.0000000000036
 21
36.5
 31
0.0
  0
LINE
  5
17E6C
330
17E66
100
AcDbEntity
  8
細線
100
AcDbLine
 10
774.0000000000036
 20
59.5
 30
0.0
 11
700.0000000000036
 21
59.5
 31
0.0
  0
LINE
  5
17E6D
330
17E66
100
AcDbEntity
  8
細線
100
AcDbLine
 10
774.0000000000036
 20
36.5
 30
0.0
 11
774.0000000000036
 21
59.5
 31
0.0
  0
LINE
  5
17E6E
330
17E66
100
AcDbEntity
  8
細線
100
AcDbLine
 10
626.0000000000036
 20
59.5
 30
0.0
 11
626.0000000000036
 21
36.5
 31
0.0
  0
LINE
  5
17E6F
330
17E66
100
AcDbEntity
  8
部品1
 48
0.01
100
AcDbLine
 10
790.0
 20
32.5
 30
0.0
 11
790.0000000000036
 21
64.0
 31
0.0
  0
LINE
  5
17E70
330
17E66
100
AcDbEntity
  8
部品1
 48
0.01
100
AcDbLine
 10
610.0000000000036
 20
64.0
 30
0.0
 11
610.0000000000036
 21
32.5
 31
0.0
  0
LINE
  5
17E71
330
17E66
100
AcDbEntity
  8
部品1
 48
0.01
100
AcDbLine
 10
788.0000000000036
 20
66.0
 30
0.0
 11
612.0000000000036
 21
66.0
 31
0.0
  0
LINE
  5
17E72
330
17E66
100
AcDbEntity
  8
細線
100
AcDbLine
 10
626.0000000000036
 20
53.5
 30
0.0
 11
700.0000000000036
 21
53.5
 31
0.0
  0
LINE
  5
17E73
330
17E66
100
AcDbEntity
  8
細線
100
AcDbLine
 10
626.0000000000036
 20
47.5
 30
0.0
 11
700.0000000000036
 21
47.5
 31
0.0
  0
LINE
  5
17E74
330
17E66
100
AcDbEntity
  8
細線
100
AcDbLine
 10
626.0
 20
41.5
 30
0.0
 11
700.0000000000036
 21
41.5
 31
0.0
  0
LINE
  5
17E75
330
17E66
100
AcDbEntity
  8
細線
100
AcDbLine
 10
626.0000000000036
 20
53.5
 30
0.0
 11
695.0000000000036
 21
53.5
 31
0.0
  0
LINE
  5
17E76
330
17E66
100
AcDbEntity
  8
細線
100
AcDbLine
 10
774.0
 20
53.5
 30
0.0
 11
700.0000000000036
 21
53.5
 31
0.0
  0
LINE
  5
17E77
330
17E66
100
AcDbEntity
  8
細線
100
AcDbLine
 10
774.0
 20
41.5
 30
0.0
 11
700.0000000000036
 21
41.5
 31
0.0
  0
LINE
  5
17E78
330
17E66
100
AcDbEntity
  8
細線
100
AcDbLine
 10
774.0
 20
47.5
 30
0.0
 11
700.0000000000036
 21
47.5
 31
0.0
  0
LINE
  5
17E79
330
17E66
100
AcDbEntity
  8
細線
100
AcDbLine
 10
700.0000000000036
 20
59.5
 30
0.0
 11
700.0
 21
36.5
 31
0.0
  0
LINE
  5
17E7A
330
17E66
100
AcDbEntity
  8
細線
100
AcDbLine
 10
1930.000000000003
 20
59.5
 30
0.0
 11
1930.000000000003
 21
36.5
 31
0.0
  0
LINE
  5
17E7B
330
17E66
100
AcDbEntity
  8
細線
100
AcDbLine
 10
1856.000000000004
 20
47.5
 30
0.0
 11
1930.000000000003
 21
47.5
 31
0.0
  0
LINE
  5
17E7C
330
17E66
100
AcDbEntity
  8
細線
100
AcDbLine
 10
1856.000000000004
 20
41.5
 30
0.0
 11
1930.000000000003
 21
41.5
 31
0.0
  0
LINE
  5
17E7D
330
17E66
100
AcDbEntity
  8
細線
100
AcDbLine
 10
1856.000000000004
 20
53.5
 30
0.0
 11
1930.000000000003
 21
53.5
 31
0.0
  0
LINE
  5
17E7E
330
17E66
100
AcDbEntity
  8
細線
100
AcDbLine
 10
2004.000000000004
 20
53.5
 30
0.0
 11
1935.000000000004
 21
53.5
 31
0.0
  0
LINE
  5
17E7F
330
17E66
100
AcDbEntity
  8
細線
100
AcDbLine
 10
2004.000000000004
 20
41.5
 30
0.0
 11
1930.000000000003
 21
41.5
 31
0.0
  0
LINE
  5
17E80
330
17E66
100
AcDbEntity
  8
細線
100
AcDbLine
 10
2004.000000000004
 20
47.5
 30
0.0
 11
1930.000000000003
 21
47.5
 31
0.0
  0
LINE
  5
17E81
330
17E66
100
AcDbEntity
  8
細線
100
AcDbLine
 10
2004.000000000004
 20
53.5
 30
0.0
 11
1930.000000000003
 21
53.5
 31
0.0
  0
LINE
  5
17E82
330
17E66
100
AcDbEntity
  8
部品1
 48
0.01
100
AcDbLine
 10
1842.000000000004
 20
66.0
 30
0.0
 11
2018.000000000004
 21
66.0
 31
0.0
  0
LINE
  5
17E83
330
17E66
100
AcDbEntity
  8
部品1
 48
0.01
100
AcDbLine
 10
2020.000000000004
 20
64.0
 30
0.0
 11
2020.000000000004
 21
32.5
 31
0.0
  0
LINE
  5
17E84
330
17E66
100
AcDbEntity
  8
部品1
 48
0.01
100
AcDbLine
 10
1840.000000000004
 20
32.5
 30
0.0
 11
1840.000000000004
 21
64.0
 31
0.0
  0
LINE
  5
17E85
330
17E66
100
AcDbEntity
  8
細線
100
AcDbLine
 10
2004.000000000004
 20
59.5
 30
0.0
 11
2004.000000000004
 21
36.5
 31
0.0
  0
LINE
  5
17E86
330
17E66
100
AcDbEntity
  8
細線
100
AcDbLine
 10
1856.000000000004
 20
36.5
 30
0.0
 11
1856.000000000004
 21
59.5
 31
0.0
  0
LINE
  5
17E87
330
17E66
100
AcDbEntity
  8
細線
100
AcDbLine
 10
1856.000000000004
 20
59.5
 30
0.0
 11
1930.000000000003
 21
59.5
 31
0.0
  0
LINE
  5
17E88
330
17E66
100
AcDbEntity
  8
細線
100
AcDbLine
 10
2004.000000000004
 20
36.5
 30
0.0
 11
1930.000000000003
 21
36.5
 31
0.0
  0
LINE
  5
17E89
330
17E66
100
AcDbEntity
  8
細線
100
AcDbLine
 10
1930.000000000003
 20
59.5
 30
0.0
 11
2004.000000000004
 21
59.5
 31
0.0
  0
LINE
  5
17E8A
330
17E66
100
AcDbEntity
  8
細線
100
AcDbLine
 10
1930.000000000003
 20
36.5
 30
0.0
 11
1856.000000000004
 21
36.5
 31
0.0
  0
ARC
  5
17E8B
330
17E66
100
AcDbEntity
  8
部品1
 48
0.01
100
AcDbCircle
 10
2018.000000000004
 20
64.0
 30
0.0
 40
2.0
100
AcDbArc
 50
0.0
 51
90.0
  0
ARC
  5
17E8C
330
17E66
100
AcDbEntity
  8
部品1
 48
0.01
100
AcDbCircle
 10
1842.000000000004
 20
64.0
 30
0.0
 40
2.0
100
AcDbArc
 50
90.0
 51
180.0
  0
ARC
  5
17E8D
330
17E66
100
AcDbEntity
  8
部品1
 48
0.01
100
AcDbCircle
 10
788.0
 20
32.5
 30
0.0
 40
2.0
100
AcDbArc
 50
270.0
 51
0.0
  0
ARC
  5
17E8E
330
17E66
100
AcDbEntity
  8
部品1
 48
0.01
100
AcDbCircle
 10
612.0000000000036
 20
32.5
 30
0.0
 40
2.0
100
AcDbArc
 50
180.0
 51
270.0
  0
LINE
  5
17E8F
330
17E66
100
AcDbEntity
  8
部品1
 48
0.01
100
AcDbLine
 10
612.0000000000036
 20
30.5
 30
0.0
 11
788.0
 21
30.5
 31
0.0
  0
LINE
  5
17E90
330
17E66
100
AcDbEntity
  8
部品1
 48
0.01
100
AcDbLine
 10
2018.000000000004
 20
30.5
 30
0.0
 11
1842.000000000004
 21
30.5
 31
0.0
  0
ARC
  5
17E91
330
17E66
100
AcDbEntity
  8
部品1
 48
0.01
100
AcDbCircle
 10
2018.000000000004
 20
32.5
 30
0.0
 40
2.0
100
AcDbArc
 50
270.0
 51
0.0
  0
ARC
  5
17E92
330
17E66
100
AcDbEntity
  8
部品1
 48
0.01
100
AcDbCircle
 10
1842.000000000004
 20
32.5
 30
0.0
 40
2.0
100
AcDbArc
 50
180.0
 51
270.0
  0
ARC
  5
17E93
330
17E66
100
AcDbEntity
  8
部品1
 48
0.01
100
AcDbCircle
 10
4472.000000000002
 20
32.5
 30
0.0
 40
2.0
100
AcDbArc
 50
180.0
 51
270.0
  0
ARC
  5
17E94
330
17E66
100
AcDbEntity
  8
部品1
 48
0.01
100
AcDbCircle
 10
4648.000000000002
 20
32.5
 30
0.0
 40
2.0
100
AcDbArc
 50
270.0
 51
0.0
  0
LINE
  5
17E95
330
17E66
100
AcDbEntity
  8
部品1
 48
0.01
100
AcDbLine
 10
4648.000000000002
 20
30.5
 30
0.0
 11
4472.000000000002
 21
30.5
 31
0.0
  0
LINE
  5
17E96
330
17E66
100
AcDbEntity
  8
部品1
 48
0.01
100
AcDbLine
 10
3242.000000000002
 20
30.5
 30
0.0
 11
3417.999999999999
 21
30.5
 31
0.0
  0
ARC
  5
17E97
330
17E66
100
AcDbEntity
  8
部品1
 48
0.01
100
AcDbCircle
 10
3242.000000000002
 20
32.5
 30
0.0
 40
2.0
100
AcDbArc
 50
180.0
 51
270.0
  0
ARC
  5
17E98
330
17E66
100
AcDbEntity
  8
部品1
 48
0.01
100
AcDbCircle
 10
3417.999999999999
 20
32.5
 30
0.0
 40
2.0
100
AcDbArc
 50
270.0
 51
0.0
  0
ARC
  5
17E99
330
17E66
100
AcDbEntity
  8
部品1
 48
0.01
100
AcDbCircle
 10
4472.000000000002
 20
64.0
 30
0.0
 40
2.0
100
AcDbArc
 50
90.0
 51
180.0
  0
ARC
  5
17E9A
330
17E66
100
AcDbEntity
  8
部品1
 48
0.01
100
AcDbCircle
 10
4648.000000000002
 20
64.0
 30
0.0
 40
2.0
100
AcDbArc
 50
0.0
 51
90.0
  0
LINE
  5
17E9B
330
17E66
100
AcDbEntity
  8
細線
100
AcDbLine
 10
4560.000000000001
 20
36.5
 30
0.0
 11
4486.000000000002
 21
36.5
 31
0.0
  0
LINE
  5
17E9C
330
17E66
100
AcDbEntity
  8
細線
100
AcDbLine
 10
4560.000000000001
 20
59.5
 30
0.0
 11
4634.000000000002
 21
59.5
 31
0.0
  0
LINE
  5
17E9D
330
17E66
100
AcDbEntity
  8
細線
100
AcDbLine
 10
4634.000000000002
 20
36.5
 30
0.0
 11
4560.000000000001
 21
36.5
 31
0.0
  0
LINE
  5
17E9E
330
17E66
100
AcDbEntity
  8
細線
100
AcDbLine
 10
4486.000000000002
 20
59.5
 30
0.0
 11
4560.000000000001
 21
59.5
 31
0.0
  0
LINE
  5
17E9F
330
17E66
100
AcDbEntity
  8
細線
100
AcDbLine
 10
4486.000000000002
 20
36.5
 30
0.0
 11
4486.000000000002
 21
59.5
 31
0.0
  0
LINE
  5
17EA0
330
17E66
100
AcDbEntity
  8
細線
100
AcDbLine
 10
4634.000000000002
 20
59.5
 30
0.0
 11
4634.000000000002
 21
36.5
 31
0.0
  0
LINE
  5
17EA1
330
17E66
100
AcDbEntity
  8
部品1
 48
0.01
100
AcDbLine
 10
4470.000000000001
 20
32.5
 30
0.0
 11
4470.000000000001
 21
64.0
 31
0.0
  0
LINE
  5
17EA2
330
17E66
100
AcDbEntity
  8
部品1
 48
0.01
100
AcDbLine
 10
4650.000000000002
 20
64.0
 30
0.0
 11
4650.000000000002
 21
32.5
 31
0.0
  0
LINE
  5
17EA3
330
17E66
100
AcDbEntity
  8
部品1
 48
0.01
100
AcDbLine
 10
4472.000000000002
 20
66.0
 30
0.0
 11
4648.000000000002
 21
66.0
 31
0.0
  0
LINE
  5
17EA4
330
17E66
100
AcDbEntity
  8
細線
100
AcDbLine
 10
4634.000000000002
 20
53.5
 30
0.0
 11
4560.000000000001
 21
53.5
 31
0.0
  0
LINE
  5
17EA5
330
17E66
100
AcDbEntity
  8
細線
100
AcDbLine
 10
4634.000000000002
 20
47.5
 30
0.0
 11
4560.000000000001
 21
47.5
 31
0.0
  0
LINE
  5
17EA6
330
17E66
100
AcDbEntity
  8
細線
100
AcDbLine
 10
4634.000000000002
 20
41.5
 30
0.0
 11
4560.000000000001
 21
41.5
 31
0.0
  0
LINE
  5
17EA7
330
17E66
100
AcDbEntity
  8
細線
100
AcDbLine
 10
4634.000000000002
 20
53.5
 30
0.0
 11
4565.000000000002
 21
53.5
 31
0.0
  0
LINE
  5
17EA8
330
17E66
100
AcDbEntity
  8
細線
100
AcDbLine
 10
4486.000000000002
 20
53.5
 30
0.0
 11
4560.000000000001
 21
53.5
 31
0.0
  0
LINE
  5
17EA9
330
17E66
100
AcDbEntity
  8
細線
100
AcDbLine
 10
4486.000000000002
 20
41.5
 30
0.0
 11
4560.000000000001
 21
41.5
 31
0.0
  0
LINE
  5
17EAA
330
17E66
100
AcDbEntity
  8
細線
100
AcDbLine
 10
4486.000000000002
 20
47.5
 30
0.0
 11
4560.000000000001
 21
47.5
 31
0.0
  0
LINE
  5
17EAB
330
17E66
100
AcDbEntity
  8
細線
100
AcDbLine
 10
4560.000000000001
 20
59.5
 30
0.0
 11
4560.000000000001
 21
36.5
 31
0.0
  0
LINE
  5
17EAC
330
17E66
100
AcDbEntity
  8
細線
100
AcDbLine
 10
3330.000000000002
 20
59.5
 30
0.0
 11
3329.999999999998
 21
36.5
 31
0.0
  0
LINE
  5
17EAD
330
17E66
100
AcDbEntity
  8
細線
100
AcDbLine
 10
3403.999999999999
 20
47.5
 30
0.0
 11
3330.000000000002
 21
47.5
 31
0.0
  0
LINE
  5
17EAE
330
17E66
100
AcDbEntity
  8
細線
100
AcDbLine
 10
3403.999999999999
 20
41.5
 30
0.0
 11
3330.000000000002
 21
41.5
 31
0.0
  0
LINE
  5
17EAF
330
17E66
100
AcDbEntity
  8
細線
100
AcDbLine
 10
3403.999999999999
 20
53.5
 30
0.0
 11
3330.000000000002
 21
53.5
 31
0.0
  0
LINE
  5
17EB0
330
17E66
100
AcDbEntity
  8
細線
100
AcDbLine
 10
3256.000000000002
 20
53.5
 30
0.0
 11
3325.000000000002
 21
53.5
 31
0.0
  0
LINE
  5
17EB1
330
17E66
100
AcDbEntity
  8
細線
100
AcDbLine
 10
3255.999999999998
 20
41.5
 30
0.0
 11
3330.000000000002
 21
41.5
 31
0.0
  0
LINE
  5
17EB2
330
17E66
100
AcDbEntity
  8
細線
100
AcDbLine
 10
3256.000000000002
 20
47.5
 30
0.0
 11
3330.000000000002
 21
47.5
 31
0.0
  0
LINE
  5
17EB3
330
17E66
100
AcDbEntity
  8
細線
100
AcDbLine
 10
3256.000000000002
 20
53.5
 30
0.0
 11
3330.000000000002
 21
53.5
 31
0.0
  0
LINE
  5
17EB4
330
17E66
100
AcDbEntity
  8
部品1
 48
0.01
100
AcDbLine
 10
3418.000000000002
 20
66.0
 30
0.0
 11
3242.000000000002
 21
66.0
 31
0.0
  0
LINE
  5
17EB5
330
17E66
100
AcDbEntity
  8
部品1
 48
0.01
100
AcDbLine
 10
3240.000000000002
 20
64.0
 30
0.0
 11
3240.000000000002
 21
32.5
 31
0.0
  0
LINE
  5
17EB6
330
17E66
100
AcDbEntity
  8
部品1
 48
0.01
100
AcDbLine
 10
3419.999999999998
 20
32.5
 30
0.0
 11
3420.000000000002
 21
64.0
 31
0.0
  0
LINE
  5
17EB7
330
17E66
100
AcDbEntity
  8
細線
100
AcDbLine
 10
3256.000000000002
 20
59.5
 30
0.0
 11
3256.000000000002
 21
36.5
 31
0.0
  0
LINE
  5
17EB8
330
17E66
100
AcDbEntity
  8
細線
100
AcDbLine
 10
3404.000000000002
 20
36.5
 30
0.0
 11
3404.000000000002
 21
59.5
 31
0.0
  0
LINE
  5
17EB9
330
17E66
100
AcDbEntity
  8
細線
100
AcDbLine
 10
3404.000000000002
 20
59.5
 30
0.0
 11
3330.000000000002
 21
59.5
 31
0.0
  0
LINE
  5
17EBA
330
17E66
100
AcDbEntity
  8
細線
100
AcDbLine
 10
3256.000000000002
 20
36.5
 30
0.0
 11
3330.000000000002
 21
36.5
 31
0.0
  0
LINE
  5
17EBB
330
17E66
100
AcDbEntity
  8
細線
100
AcDbLine
 10
3330.000000000002
 20
59.5
 30
0.0
 11
3256.000000000002
 21
59.5
 31
0.0
  0
LINE
  5
17EBC
330
17E66
100
AcDbEntity
  8
細線
100
AcDbLine
 10
3329.999999999998
 20
36.5
 30
0.0
 11
3404.000000000002
 21
36.5
 31
0.0
  0
ARC
  5
17EBD
330
17E66
100
AcDbEntity
  8
部品1
 48
0.01
100
AcDbCircle
 10
3242.000000000002
 20
64.0
 30
0.0
 40
2.0
100
AcDbArc
 50
90.0
 51
180.0
  0
ARC
  5
17EBE
330
17E66
100
AcDbEntity
  8
部品1
 48
0.01
100
AcDbCircle
 10
3418.000000000002
 20
64.0
 30
0.0
 40
2.0
100
AcDbArc
 50
0.0
 51
90.0
  0
CIRCLE
  5
17EBF
330
17E66
100
AcDbEntity
  8
細線
 48
50.0
100
AcDbCircle
 10
3944.999999999997
 20
-1252.5
 30
0.0
 40
18.0
  0
ARC
  5
17EC0
330
17E66
100
AcDbEntity
  8
細線
 48
50.0
100
AcDbCircle
 10
4244.999999999996
 20
-1577.5
 30
0.0
 40
15.0
100
AcDbArc
 50
270.0
 51
90.0
  0
ARC
  5
17EC1
330
17E66
100
AcDbEntity
  8
細線
 48
50.0
100
AcDbCircle
 10
4144.999999999996
 20
-1577.5
 30
0.0
 40
15.0
100
AcDbArc
 50
90.0
 51
270.0
  0
LINE
  5
17EC2
330
17E66
100
AcDbEntity
  8
細線
 48
50.0
100
AcDbLine
 10
4144.999999999996
 20
-1562.5
 30
0.0
 11
4244.999999999996
 21
-1562.5
 31
0.0
  0
LINE
  5
17EC3
330
17E66
100
AcDbEntity
  8
細線
 48
50.0
100
AcDbLine
 10
4244.999999999996
 20
-1592.5
 30
0.0
 11
4144.999999999996
 21
-1592.5
 31
0.0
  0
LINE
  5
17EC4
330
17E66
100
AcDbEntity
  8
細線
 48
50.0
100
AcDbLine
 10
3744.999999999997
 20
-1592.5
 30
0.0
 11
3644.999999999997
 21
-1592.5
 31
0.0
  0
LINE
  5
17EC5
330
17E66
100
AcDbEntity
  8
細線
 48
50.0
100
AcDbLine
 10
3644.999999999997
 20
-1562.5
 30
0.0
 11
3744.999999999997
 21
-1562.5
 31
0.0
  0
ARC
  5
17EC6
330
17E66
100
AcDbEntity
  8
細線
 48
50.0
100
AcDbCircle
 10
3744.999999999997
 20
-1577.5
 30
0.0
 40
15.0
100
AcDbArc
 50
270.0
 51
90.0
  0
ARC
  5
17EC7
330
17E66
100
AcDbEntity
  8
細線
 48
50.0
100
AcDbCircle
 10
3644.999999999997
 20
-1577.5
 30
0.0
 40
15.0
100
AcDbArc
 50
90.0
 51
270.0
  0
ARC
  5
17EC8
330
17E66
100
AcDbEntity
  8
細線
 48
50.0
100
AcDbCircle
 10
1015.0
 20
-1577.5
 30
0.0
 40
15.0
100
AcDbArc
 50
90.0
 51
270.0
  0
ARC
  5
17EC9
330
17E66
100
AcDbEntity
  8
細線
 48
50.0
100
AcDbCircle
 10
1115.0
 20
-1577.5
 30
0.0
 40
15.0
100
AcDbArc
 50
270.0
 51
90.0
  0
LINE
  5
17ECA
330
17E66
100
AcDbEntity
  8
細線
 48
50.0
100
AcDbLine
 10
1015.0
 20
-1562.5
 30
0.0
 11
1115.0
 21
-1562.5
 31
0.0
  0
LINE
  5
17ECB
330
17E66
100
AcDbEntity
  8
細線
 48
50.0
100
AcDbLine
 10
1115.0
 20
-1592.5
 30
0.0
 11
1015.0
 21
-1592.5
 31
0.0
  0
LINE
  5
17ECC
330
17E66
100
AcDbEntity
  8
細線
 48
50.0
100
AcDbLine
 10
1615.0
 20
-1592.5
 30
0.0
 11
1515.0
 21
-1592.5
 31
0.0
  0
LINE
  5
17ECD
330
17E66
100
AcDbEntity
  8
細線
 48
50.0
100
AcDbLine
 10
1515.0
 20
-1562.5
 30
0.0
 11
1615.0
 21
-1562.5
 31
0.0
  0
ARC
  5
17ECE
330
17E66
100
AcDbEntity
  8
細線
 48
50.0
100
AcDbCircle
 10
1515.0
 20
-1577.5
 30
0.0
 40
15.0
100
AcDbArc
 50
90.0
 51
270.0
  0
ARC
  5
17ECF
330
17E66
100
AcDbEntity
  8
細線
 48
50.0
100
AcDbCircle
 10
1615.0
 20
-1577.5
 30
0.0
 40
15.0
100
AcDbArc
 50
270.0
 51
90.0
  0
CIRCLE
  5
17ED0
330
17E66
100
AcDbEntity
  8
細線
 48
50.0
100
AcDbCircle
 10
1315.0
 20
-1252.5
 30
0.0
 40
18.0
  0
ENDBLK
  5
17ED2
330
17E66
100
AcDbEntity
  8
0
 48
50.0
100
AcDbBlockEnd
  0
BLOCK
  5
17F80
330
17F4A
100
AcDbEntity
  8
0
 48
50.0
100
AcDbBlockBegin
  2
A$C73896021
 70
     0
 10
0.0
 20
0.0
 30
0.0
  3
A$C73896021
  1

  0
ARC
  5
17F4B
330
17F4A
100
AcDbEntity
  8
部品1
 48
0.01
100
AcDbCircle
 10
1842.000000000004
 20
32.5
 30
0.0
 40
2.0
100
AcDbArc
 50
180.0
 51
270.0
  0
ARC
  5
17F4C
330
17F4A
100
AcDbEntity
  8
部品1
 48
0.01
100
AcDbCircle
 10
1842.0
 20
64.0
 30
0.0
 40
2.0
100
AcDbArc
 50
90.0
 51
180.0
  0
ARC
  5
17F4D
330
17F4A
100
AcDbEntity
  8
部品1
 48
0.01
100
AcDbCircle
 10
2018.0
 20
32.5
 30
0.0
 40
2.0
100
AcDbArc
 50
270.0
 51
0.0
  0
ARC
  5
17F4E
330
17F4A
100
AcDbEntity
  8
部品1
 48
0.01
100
AcDbCircle
 10
2018.0
 20
64.0
 30
0.0
 40
2.0
100
AcDbArc
 50
0.0
 51
90.0
  0
LINE
  5
17F4F
330
17F4A
100
AcDbEntity
  8
細線
100
AcDbLine
 10
1930.000000000003
 20
36.5
 30
0.0
 11
1856.0
 21
36.5
 31
0.0
  0
LINE
  5
17F50
330
17F4A
100
AcDbEntity
  8
細線
100
AcDbLine
 10
1930.0
 20
59.5
 30
0.0
 11
2004.0
 21
59.5
 31
0.0
  0
LINE
  5
17F51
330
17F4A
100
AcDbEntity
  8
細線
100
AcDbLine
 10
2004.0
 20
36.5
 30
0.0
 11
1930.0
 21
36.5
 31
0.0
  0
LINE
  5
17F52
330
17F4A
100
AcDbEntity
  8
細線
100
AcDbLine
 10
1856.0
 20
59.5
 30
0.0
 11
1930.0
 21
59.5
 31
0.0
  0
LINE
  5
17F53
330
17F4A
100
AcDbEntity
  8
細線
100
AcDbLine
 10
1856.0
 20
36.5
 30
0.0
 11
1856.0
 21
59.5
 31
0.0
  0
LINE
  5
17F54
330
17F4A
100
AcDbEntity
  8
細線
100
AcDbLine
 10
2004.0
 20
59.5
 30
0.0
 11
2004.0
 21
36.5
 31
0.0
  0
LINE
  5
17F55
330
17F4A
100
AcDbEntity
  8
部品1
 48
0.01
100
AcDbLine
 10
1840.000000000004
 20
32.5
 30
0.0
 11
1840.0
 21
64.0
 31
0.0
  0
LINE
  5
17F56
330
17F4A
100
AcDbEntity
  8
部品1
 48
0.01
100
AcDbLine
 10
2018.0
 20
30.5
 30
0.0
 11
1842.000000000004
 21
30.5
 31
0.0
  0
LINE
  5
17F57
330
17F4A
100
AcDbEntity
  8
部品1
 48
0.01
100
AcDbLine
 10
2020.0
 20
64.0
 30
0.0
 11
2020.0
 21
32.5
 31
0.0
  0
LINE
  5
17F58
330
17F4A
100
AcDbEntity
  8
部品1
 48
0.01
100
AcDbLine
 10
1842.0
 20
66.0
 30
0.0
 11
2018.0
 21
66.0
 31
0.0
  0
LINE
  5
17F59
330
17F4A
100
AcDbEntity
  8
細線
100
AcDbLine
 10
2004.0
 20
53.5
 30
0.0
 11
1930.0
 21
53.5
 31
0.0
  0
LINE
  5
17F5A
330
17F4A
100
AcDbEntity
  8
細線
100
AcDbLine
 10
2004.0
 20
47.5
 30
0.0
 11
1930.0
 21
47.5
 31
0.0
  0
LINE
  5
17F5B
330
17F4A
100
AcDbEntity
  8
細線
100
AcDbLine
 10
2004.000000000004
 20
41.5
 30
0.0
 11
1930.0
 21
41.5
 31
0.0
  0
LINE
  5
17F5C
330
17F4A
100
AcDbEntity
  8
細線
100
AcDbLine
 10
2004.0
 20
53.5
 30
0.0
 11
1935.0
 21
53.5
 31
0.0
  0
LINE
  5
17F5D
330
17F4A
100
AcDbEntity
  8
細線
100
AcDbLine
 10
1856.000000000004
 20
53.5
 30
0.0
 11
1930.0
 21
53.5
 31
0.0
  0
LINE
  5
17F5E
330
17F4A
100
AcDbEntity
  8
細線
100
AcDbLine
 10
1856.000000000004
 20
41.5
 30
0.0
 11
1930.0
 21
41.5
 31
0.0
  0
LINE
  5
17F5F
330
17F4A
100
AcDbEntity
  8
細線
100
AcDbLine
 10
1856.000000000004
 20
47.5
 30
0.0
 11
1930.0
 21
47.5
 31
0.0
  0
LINE
  5
17F60
330
17F4A
100
AcDbEntity
  8
細線
100
AcDbLine
 10
1930.0
 20
59.5
 30
0.0
 11
1930.000000000003
 21
36.5
 31
0.0
  0
LINE
  5
17F61
330
17F4A
100
AcDbEntity
  8
細線
100
AcDbLine
 10
700.0000000000036
 20
59.5
 30
0.0
 11
700.0
 21
36.5
 31
0.0
  0
LINE
  5
17F62
330
17F4A
100
AcDbEntity
  8
細線
100
AcDbLine
 10
774.0
 20
47.5
 30
0.0
 11
700.0000000000036
 21
47.5
 31
0.0
  0
LINE
  5
17F63
330
17F4A
100
AcDbEntity
  8
細線
100
AcDbLine
 10
774.0
 20
41.5
 30
0.0
 11
700.0000000000036
 21
41.5
 31
0.0
  0
LINE
  5
17F64
330
17F4A
100
AcDbEntity
  8
細線
100
AcDbLine
 10
774.0
 20
53.5
 30
0.0
 11
700.0000000000036
 21
53.5
 31
0.0
  0
LINE
  5
17F65
330
17F4A
100
AcDbEntity
  8
細線
100
AcDbLine
 10
626.0000000000036
 20
53.5
 30
0.0
 11
695.0000000000036
 21
53.5
 31
0.0
  0
LINE
  5
17F66
330
17F4A
100
AcDbEntity
  8
細線
100
AcDbLine
 10
626.0
 20
41.5
 30
0.0
 11
700.0000000000036
 21
41.5
 31
0.0
  0
LINE
  5
17F67
330
17F4A
100
AcDbEntity
  8
細線
100
AcDbLine
 10
626.0000000000036
 20
47.5
 30
0.0
 11
700.0000000000036
 21
47.5
 31
0.0
  0
LINE
  5
17F68
330
17F4A
100
AcDbEntity
  8
細線
100
AcDbLine
 10
626.0000000000036
 20
53.5
 30
0.0
 11
700.0000000000036
 21
53.5
 31
0.0
  0
LINE
  5
17F69
330
17F4A
100
AcDbEntity
  8
部品1
 48
0.01
100
AcDbLine
 10
788.0000000000036
 20
66.0
 30
0.0
 11
612.0000000000036
 21
66.0
 31
0.0
  0
LINE
  5
17F6A
330
17F4A
100
AcDbEntity
  8
部品1
 48
0.01
100
AcDbLine
 10
610.0000000000036
 20
64.0
 30
0.0
 11
610.0000000000036
 21
32.5
 31
0.0
  0
LINE
  5
17F6B
330
17F4A
100
AcDbEntity
  8
部品1
 48
0.01
100
AcDbLine
 10
612.0000000000036
 20
30.5
 30
0.0
 11
788.0
 21
30.5
 31
0.0
  0
LINE
  5
17F6C
330
17F4A
100
AcDbEntity
  8
部品1
 48
0.01
100
AcDbLine
 10
790.0
 20
32.5
 30
0.0
 11
790.0000000000036
 21
64.0
 31
0.0
  0
LINE
  5
17F6D
330
17F4A
100
AcDbEntity
  8
細線
100
AcDbLine
 10
626.0000000000036
 20
59.5
 30
0.0
 11
626.0000000000036
 21
36.5
 31
0.0
  0
LINE
  5
17F6E
330
17F4A
100
AcDbEntity
  8
細線
100
AcDbLine
 10
774.0000000000036
 20
36.5
 30
0.0
 11
774.0000000000036
 21
59.5
 31
0.0
  0
LINE
  5
17F6F
330
17F4A
100
AcDbEntity
  8
細線
100
AcDbLine
 10
774.0000000000036
 20
59.5
 30
0.0
 11
700.0000000000036
 21
59.5
 31
0.0
  0
LINE
  5
17F70
330
17F4A
100
AcDbEntity
  8
細線
100
AcDbLine
 10
626.0000000000036
 20
36.5
 30
0.0
 11
700.0000000000036
 21
36.5
 31
0.0
  0
LINE
  5
17F71
330
17F4A
100
AcDbEntity
  8
細線
100
AcDbLine
 10
700.0000000000036
 20
59.5
 30
0.0
 11
626.0000000000036
 21
59.5
 31
0.0
  0
LINE
  5
17F72
330
17F4A
100
AcDbEntity
  8
細線
100
AcDbLine
 10
700.0
 20
36.5
 30
0.0
 11
774.0000000000036
 21
36.5
 31
0.0
  0
ARC
  5
17F73
330
17F4A
100
AcDbEntity
  8
部品1
 48
0.01
100
AcDbCircle
 10
612.0000000000036
 20
64.0
 30
0.0
 40
2.0
100
AcDbArc
 50
90.0
 51
180.0
  0
ARC
  5
17F74
330
17F4A
100
AcDbEntity
  8
部品1
 48
0.01
100
AcDbCircle
 10
612.0000000000036
 20
32.5
 30
0.0
 40
2.0
100
AcDbArc
 50
180.0
 51
270.0
  0
ARC
  5
17F75
330
17F4A
100
AcDbEntity
  8
部品1
 48
0.01
100
AcDbCircle
 10
788.0000000000036
 20
64.0
 30
0.0
 40
2.0
100
AcDbArc
 50
0.0
 51
90.0
  0
ARC
  5
17F76
330
17F4A
100
AcDbEntity
  8
部品1
 48
0.01
100
AcDbCircle
 10
788.0
 20
32.5
 30
0.0
 40
2.0
100
AcDbArc
 50
270.0
 51
0.0
  0
ARC
  5
17F77
330
17F4A
100
AcDbEntity
  8
細線
 48
50.0
100
AcDbCircle
 10
1014.999999999997
 20
-1277.5
 30
0.0
 40
15.0
100
AcDbArc
 50
90.0
 51
270.0
  0
ARC
  5
17F78
330
17F4A
100
AcDbEntity
  8
細線
 48
50.0
100
AcDbCircle
 10
1114.999999999997
 20
-1277.5
 30
0.0
 40
15.0
100
AcDbArc
 50
270.0
 51
90.0
  0
LINE
  5
17F79
330
17F4A
100
AcDbEntity
  8
細線
 48
50.0
100
AcDbLine
 10
1014.999999999997
 20
-1262.5
 30
0.0
 11
1114.999999999997
 21
-1262.5
 31
0.0
  0
LINE
  5
17F7A
330
17F4A
100
AcDbEntity
  8
細線
 48
50.0
100
AcDbLine
 10
1114.999999999997
 20
-1292.5
 30
0.0
 11
1014.999999999997
 21
-1292.5
 31
0.0
  0
LINE
  5
17F7B
330
17F4A
100
AcDbEntity
  8
細線
 48
50.0
100
AcDbLine
 10
1614.999999999997
 20
-1292.5
 30
0.0
 11
1514.999999999997
 21
-1292.5
 31
0.0
  0
LINE
  5
17F7C
330
17F4A
100
AcDbEntity
  8
細線
 48
50.0
100
AcDbLine
 10
1514.999999999997
 20
-1262.5
 30
0.0
 11
1614.999999999997
 21
-1262.5
 31
0.0
  0
ARC
  5
17F7D
330
17F4A
100
AcDbEntity
  8
細線
 48
50.0
100
AcDbCircle
 10
1514.999999999997
 20
-1277.5
 30
0.0
 40
15.0
100
AcDbArc
 50
90.0
 51
270.0
  0
ARC
  5
17F7E
330
17F4A
100
AcDbEntity
  8
細線
 48
50.0
100
AcDbCircle
 10
1614.999999999997
 20
-1277.5
 30
0.0
 40
15.0
100
AcDbArc
 50
270.0
 51
90.0
  0
CIRCLE
  5
17F7F
330
17F4A
100
AcDbEntity
  8
細線
 48
50.0
100
AcDbCircle
 10
1314.999999999997
 20
-952.5
 30
0.0
 40
18.0
  0
ENDBLK
  5
17F81
330
17F4A
100
AcDbEntity
  8
0
 48
50.0
100
AcDbBlockEnd
  0
ENDSEC
  0
SECTION
  2
ENTITIES
  0
MTEXT
  5
763F
330
747D
100
AcDbEntity
  8
0
100
AcDbMText
 10
302.846345836809
 20
280.1983726409901
 30
0.0
 40
3.5
 41
5.323721266742722
 71
     1
 72
     5
  1

  7
MSMINCHO
 73
     1
 44
1.0
1001
ACAD
1000
MTEXTBEGIN
1070
    73
1070
     1
1070
    44
1040
1.0
1070
    74
1070
     0
1000
MTEXTEND
  0
LINE
  5
10B57
330
747D
100
AcDbEntity
  8
補助
  6
PHANTOM
 62
   230
 48
50.0
100
AcDbLine
 10
139.9999999999995
 20
11409.6
 30
0.0
 11
16307.2
 21
11409.6
 31
0.0
  0
LINE
  5
10B59
330
747D
100
AcDbEntity
  8
仕様書枠
  6
Continuous
 48
50.0
100
AcDbLine
 10
13107.2
 20
1200.0
 30
0.0
 11
13107.2
 21
-0.0000000000000729
 31
0.0
  0
LINE
  5
10B5C
330
747D
100
AcDbEntity
  8
仕様書枠
 48
50.0
100
AcDbLine
 10
16307.2
 20
1200.0
 30
0.0
 11
16307.2
 21
-0.0000000000000909
 31
0.0
  0
LINE
  5
10B5D
330
747D
100
AcDbEntity
  8
仕様書枠
 48
50.0
100
AcDbLine
 10
140.0
 20
0.0
 30
0.0
 11
16307.2
 21
-0.0000000000000909
 31
0.0
  0
LINE
  5
10B5E
330
747D
100
AcDbEntity
  8
補助
  6
PHANTOM
 62
   230
 48
50.0
100
AcDbLine
 10
16307.2
 20
11409.6
 30
0.0
 11
16307.2
 21
1200.0
 31
0.0
  0
LINE
  5
10B6C
330
747D
100
AcDbEntity
  8
仕様書枠
 48
50.0
100
AcDbLine
 10
13107.2
 20
1200.0
 30
0.0
 11
16307.2
 21
1200.0
 31
0.0
  0
LINE
  5
10B6D
330
747D
100
AcDbEntity
  8
補助
  6
PHANTOM
 62
   230
 48
50.0
100
AcDbLine
 10
13107.2
 20
11409.6
 30
0.0
 11
13107.2
 21
4800.0
 31
0.0
  0
LINE
  5
10B6F
330
747D
100
AcDbEntity
  8
補助
  6
PHANTOM
 62
   230
 48
50.0
100
AcDbLine
 10
13107.2
 20
4800.0
 30
0.0
 11
16307.2
 21
4800.0
 31
0.0
  0
LINE
  5
10B72
330
747D
100
AcDbEntity
  8
文字
 62
     7
 48
50.0
100
AcDbLine
 10
13187.2
 20
400.0
 30
0.0
 11
16227.2
 21
400.0
 31
0.0
  0
TEXT
  5
10B73
330
747D
100
AcDbEntity
  8
文字
 62
     7
 48
50.0
100
AcDbText
 10
13162.9790565769
 20
895.0906074299405
 30
0.0
 40
200.0
  1
外 形 図
  7
STYLE2
100
AcDbText
  0
TEXT
  5
10B74
330
747D
100
AcDbEntity
  8
文字
 62
     7
 48
50.0
100
AcDbText
 10
13201.43669998441
 20
477.2740661031255
 30
0.0
 40
160.0
  1
機種名
  7
STYLE2
100
AcDbText
  0
TEXT
  5
10B75
330
747D
100
AcDbEntity
  8
文字
 62
     7
 48
50.0
100
AcDbText
 10
13209.4053442172
 20
228.5435242569016
 30
0.0
 40
100.0
  1
○有効開口寸法 ： 2424×1648(mm)
  7
STYLE2
100
AcDbText
  0
TEXT
  5
10B76
330
747D
100
AcDbEntity
  8
文字
 62
     7
 48
50.0
100
AcDbText
 10
13209.4053442172
 20
76.09434707649343
 30
0.0
 40
100.0
  1
○床面積 ： 8.02㎡(2.43坪) 　
  7
STYLE2
100
AcDbText
  0
TEXT
  5
10B79
330
747D
100
AcDbEntity
  8
文字
 62
     7
 48
50.0
100
AcDbText
 10
14524.131837222
 20
1031.557706291228
 30
0.0
 40
100.0
  1
NO.49      <縮尺> S=1/40
  7
STYLE2
100
AcDbText
  0
LINE
  5
10B7B
330
747D
100
AcDbEntity
  8
仕様書枠
 48
50.0
100
AcDbLine
 10
13107.2
 20
800.0
 30
0.0
 11
14251.2
 21
800.0
 31
0.0
  0
LINE
  5
10B88
330
747D
100
AcDbEntity
  8
仕様書枠
  6
Continuous
 48
50.0
100
AcDbLine
 10
14251.2
 20
1200.0
 30
0.0
 11
14251.2
 21
800.0
 31
0.0
  0
LINE
  5
12765
330
747D
100
AcDbEntity
  8
Ｇ．Ｌ
100
AcDbLine
 10
3225.948927466986
 20
2153.772320667835
 30
0.0
 11
13620.33601856064
 21
2153.772320667835
 31
0.0
  0
LINE
  5
127A8
330
747D
100
AcDbEntity
  8
部品1
100
AcDbLine
 10
3410.973378019002
 20
2283.6761312355
 30
0.0
 11
3560.973378019002
 21
2283.6761312355
 31
0.0
  0
LINE
  5
127A9
330
747D
100
AcDbEntity
  8
部品1
100
AcDbLine
 10
3485.973378019002
 20
2153.772320667835
 30
0.0
 11
3410.973378019002
 21
2283.6761312355
 31
0.0
  0
TEXT
  5
127AA
330
747D
100
AcDbEntity
  8
部品1
100
AcDbText
 10
3589.078320143776
 20
2189.879224273736
 30
0.0
 40
125.0
  1
G.L
  7
MSGOTHIC
100
AcDbText
  0
LINE
  5
127AB
330
747D
100
AcDbEntity
  8
部品1
100
AcDbLine
 10
3560.973378019002
 20
2283.6761312355
 30
0.0
 11
3485.973378019002
 21
2153.772320667835
 31
0.0
  0
TEXT
  5
14E88
330
747D
100
AcDbEntity
  8
部品1
100
AcDbText
 10
5587.720539853042
 20
5991.823226274371
 30
0.0
 40
135.0
  1
平面図
  7
MSGOTHIC
100
AcDbText
  0
LWPOLYLINE
  5
14E89
330
747D
100
AcDbEntity
  8
部品1
100
AcDbPolyline
 90
        4
 70
     1
 43
0.0
 10
5499.725765932056
 20
6184.716755492895
 10
5499.725765932056
 20
5944.824433947363
 10
6263.196432160494
 20
5944.824433947363
 10
6263.196432160494
 20
6184.716755492895
  0
TEXT
  5
15550
330
747D
100
AcDbEntity
  8
文字
 62
     7
 48
50.0
100
AcDbText
 10
14577.93463116741
 20
871.9640646083623
 30
0.0
 40
100.0
  1
～一般型・多雪地型～
  7
STYLE2
100
AcDbText
  0
DIMENSION
  5
164EB
330
747D
100
AcDbEntity
  8
寸法
100
AcDbDimension
  2
*D1
 10
8208.994386520336
 20
7171.941791969283
 30
0.0
 11
8108.994386520336
 21
8696.941791969287
 31
0.0
 70
    32
 71
     5
 42
3050.000000000008
  3
INABA_S40G
100
AcDbAlignedDimension
 13
7196.461099046292
 23
10221.94179196929
 33
0.0
 14
7196.461099046266
 24
7171.941791969283
 34
0.0
 50
90.0
100
AcDbRotatedDimension
1001
ACAD
1000
DSTYLE
1002
{
1002
}
  0
LINE
  5
164EC
330
747D
100
AcDbEntity
  8
部品1
100
AcDbLine
 10
7116.461099046283
 20
10166.94179196929
 30
0.0
 11
7116.461099046268
 21
7236.941791969191
 31
0.0
  0
LINE
  5
164ED
330
747D
100
AcDbEntity
  8
部品1
100
AcDbLine
 10
4646.461099046265
 20
10166.94179196929
 30
0.0
 11
4646.461099046283
 21
7236.94179196919
 31
0.0
  0
LINE
  5
164EE
330
747D
100
AcDbEntity
  8
部品1
100
AcDbLine
 10
4621.461099046267
 20
10166.94179196933
 30
0.0
 11
4621.461099046284
 21
7236.94179196919
 31
0.0
  0
LINE
  5
164EF
330
747D
100
AcDbEntity
  8
部品1
100
AcDbLine
 10
7141.461099046281
 20
10166.94179196929
 30
0.0
 11
7141.461099046267
 21
7171.941791969278
 31
0.0
  0
LINE
  5
164F0
330
747D
100
AcDbEntity
  8
部品1
100
AcDbLine
 10
7168.461099046279
 20
10193.94179196929
 30
0.0
 11
7168.461099046268
 21
7226.941791969278
 31
0.0
  0
LINE
  5
164F1
330
747D
100
AcDbEntity
  8
部品1
100
AcDbLine
 10
7196.461099046292
 20
10221.94179196929
 30
0.0
 11
7196.461099046266
 21
7171.941791969283
 31
0.0
  0
DIMENSION
  5
164F2
330
747D
100
AcDbEntity
  8
寸法
100
AcDbDimension
  2
*D2
 10
7843.887444780701
 20
7226.941791969278
 30
0.0
 11
7743.875633757077
 21
8696.941791969287
 31
0.0
 70
    32
  1
7X420=<>
 71
     5
 42
2940.000000000015
  3
INABA_S40G
100
AcDbAlignedDimension
 13
7196.461099046292
 23
10166.94179196929
 33
0.0
 14
7196.461099046266
 24
7226.941791969278
 34
0.0
 50
90.0
100
AcDbRotatedDimension
1001
ACAD
1000
DSTYLE
1002
{
1002
}
  0
LINE
  5
164F4
330
747D
100
AcDbEntity
  8
部品1
100
AcDbLine
 10
4566.461099046256
 20
10221.94179196916
 30
0.0
 11
4566.461099046284
 21
7171.941791969151
 31
0.0
  0
LINE
  5
164F5
330
747D
100
AcDbEntity
  8
部品1
100
AcDbLine
 10
4594.461099046266
 20
7226.941791969148
 30
0.0
 11
4594.461099046279
 21
10193.94179196919
 31
0.0
  0
DIMENSION
  5
164F7
330
747D
100
AcDbEntity
  8
寸法
 48
50.0
100
AcDbDimension
  2
*D3
 10
4669.461099046284
 20
6637.511021203026
 30
0.0
 11
5881.461099046275
 21
6737.522832226648
 31
0.0
 70
    32
  1
有効開口部間口 <>
 71
     5
 42
2423.999999999982
  3
INABA_S40G
100
AcDbAlignedDimension
 13
7093.461099046265
 23
7197.941791969191
 33
0.0
 14
4669.461099046284
 24
7197.941791969191
 34
0.0
100
AcDbRotatedDimension
1001
ACAD
1000
DSTYLE
1002
{
1070
    75
1070
     1
1070
   279
1070
     2
1002
}
  0
LINE
  5
164F8
330
747D
100
AcDbEntity
  8
部品1
 48
50.0
100
AcDbLine
 10
4633.461099046283
 20
7217.441791969189
 30
0.0
 11
7129.461099046267
 21
7217.441791969189
 31
0.0
  0
DIMENSION
  5
164F9
330
747D
100
AcDbEntity
  8
寸法
100
AcDbDimension
  2
*D4
 10
7196.461099046266
 20
6351.338025612153
 30
0.0
 11
5881.461099046275
 21
6451.349836635775
 31
0.0
 70
    32
 71
     5
 42
2629.999999999982
  3
INABA_S40G
100
AcDbAlignedDimension
 13
4566.461099046284
 23
7171.941791969118
 33
0.0
 14
7196.461099046266
 24
7171.941791969246
 34
0.0
100
AcDbRotatedDimension
1001
ACAD
1000
DSTYLE
1002
{
1002
}
  0
DIMENSION
  5
164FA
330
747D
100
AcDbEntity
  8
寸法
 48
50.0
100
AcDbDimension
  2
*D5
 10
4566.461099046284
 20
6637.511021203026
 30
0.0
 11
4257.975817672046
 21
6637.511021203026
 31
0.0
 70
   160
 71
     5
 42
54.99999999999636
  3
INABA_S40G
100
AcDbAlignedDimension
 13
4621.461099046281
 23
7171.941791969191
 33
0.0
 14
4566.461099046284
 24
7171.941791969188
 34
0.0
100
AcDbRotatedDimension
1001
ACAD
1000
DSTYLE
1002
{
1002
}
  0
DIMENSION
  5
164FB
330
747D
100
AcDbEntity
  8
寸法
 48
50.0
100
AcDbDimension
  2
*D6
 10
4621.461099046281
 20
6637.511021203026
 30
0.0
 11
4782.363070046342
 21
6737.511021203026
 31
0.0
 70
   160
 71
     5
 42
48.00000000000363
  3
INABA_S40G
100
AcDbAlignedDimension
 13
4669.461099046284
 23
7197.941791969191
 33
0.0
 14
4621.461099046281
 24
7171.941791969191
 34
0.0
100
AcDbRotatedDimension
1001
ACAD
1000
DSTYLE
1002
{
1070
   279
1070
     2
1002
}
  0
LINE
  5
164FC
330
747D
100
AcDbEntity
  8
部品1
100
AcDbLine
 10
4621.461099046279
 20
7171.941791969191
 30
0.0
 11
4566.461099046284
 21
7171.941791969188
 31
0.0
  0
LINE
  5
164FD
330
747D
100
AcDbEntity
  8
部品1
 48
50.0
100
AcDbLine
 10
4621.461099046284
 20
7207.941791969189
 30
0.0
 11
4598.461099046284
 21
7207.941791969189
 31
0.0
  0
LINE
  5
164FE
330
747D
100
AcDbEntity
  8
部品1
 48
50.0
100
AcDbLine
 10
4631.461099046284
 20
7197.941791969191
 30
0.0
 11
4621.461099046284
 21
7176.94179196919
 31
0.0
  0
LINE
  5
164FF
330
747D
100
AcDbEntity
  8
部品1
 48
50.0
100
AcDbLine
 10
4621.461099046284
 20
7236.94179196919
 30
0.0
 11
4621.461099046281
 21
7171.941791969191
 31
0.0
  0
LINE
  5
16500
330
747D
100
AcDbEntity
  8
部品1
 48
50.0
100
AcDbLine
 10
4669.461099046284
 20
7197.941791969191
 30
0.0
 11
4669.461099046284
 21
7206.941791969192
 31
0.0
  0
LINE
  5
16501
330
747D
100
AcDbEntity
  8
部品1
 48
50.0
100
AcDbLine
 10
4669.461099046284
 20
7236.941791969191
 30
0.0
 11
4669.461099046284
 21
7227.941791969191
 31
0.0
  0
LINE
  5
16502
330
747D
100
AcDbEntity
  8
部品1
100
AcDbLine
 10
4669.461099046284
 20
7236.941791969191
 30
0.0
 11
4621.461099046284
 21
7236.941791969191
 31
0.0
  0
LINE
  5
16503
330
747D
100
AcDbEntity
  8
部品1
100
AcDbLine
 10
4669.461099046284
 20
7197.941791969191
 30
0.0
 11
4621.461099046284
 21
7197.941791969191
 31
0.0
  0
LINE
  5
16504
330
747D
100
AcDbEntity
  8
部品1
100
AcDbLine
 10
4621.461099046284
 20
7207.941791969189
 30
0.0
 11
4598.461099046284
 21
7207.941791969189
 31
0.0
  0
LINE
  5
16505
330
747D
100
AcDbEntity
  8
部品1
100
AcDbLine
 10
4621.461099046284
 20
7226.941791969115
 30
0.0
 11
4566.461099046282
 21
7226.941791969115
 31
0.0
  0
LINE
  5
16506
330
747D
100
AcDbEntity
  8
部品1
100
AcDbLine
 10
4594.461099046266
 20
7226.941791969152
 30
0.0
 11
4566.461099046282
 21
7226.941791969152
 31
0.0
  0
LINE
  5
16507
330
747D
100
AcDbEntity
  8
部品1
100
AcDbLine
 10
4594.461099046283
 20
7226.941791969166
 30
0.0
 11
4566.461099046282
 21
7226.941791969166
 31
0.0
  0
LINE
  5
16508
330
747D
100
AcDbEntity
  8
部品1
100
AcDbLine
 10
4566.461099046267
 20
7646.941791969306
 30
0.0
 11
4594.461099046267
 21
7646.941791969306
 31
0.0
  0
LINE
  5
1650A
330
747D
100
AcDbEntity
  8
部品1
100
AcDbLine
 10
4566.461099046267
 20
8066.941791969304
 30
0.0
 11
4594.461099046267
 21
8066.941791969304
 31
0.0
  0
LINE
  5
1650B
330
747D
100
AcDbEntity
  8
部品1
100
AcDbLine
 10
4566.461099046267
 20
8486.941791969305
 30
0.0
 11
4594.461099046267
 21
8486.941791969305
 31
0.0
  0
LINE
  5
1650C
330
747D
100
AcDbEntity
  8
部品1
100
AcDbLine
 10
4566.461099046267
 20
8906.941791969304
 30
0.0
 11
4594.461099046267
 21
8906.941791969304
 31
0.0
  0
LINE
  5
1650D
330
747D
100
AcDbEntity
  8
部品1
100
AcDbLine
 10
4594.46109904627
 20
9326.941791969167
 30
0.0
 11
4566.461099046271
 21
9326.941791969167
 31
0.0
  0
DIMENSION
  5
1650E
330
747D
100
AcDbEntity
  8
寸法
 48
50.0
100
AcDbDimension
  2
*D7
 10
7093.461099046265
 20
6637.511021203026
 30
0.0
 11
6982.498201397518
 21
6737.511021203026
 31
0.0
 70
   160
 71
     5
 42
48.00000000000181
  3
INABA_S40G
100
AcDbAlignedDimension
 13
7141.461099046267
 23
7171.941791969278
 33
0.0
 14
7093.461099046265
 24
7197.941791969191
 34
0.0
100
AcDbRotatedDimension
1001
ACAD
1000
DSTYLE
1002
{
1070
   279
1070
     2
1002
}
  0
DIMENSION
  5
1650F
330
747D
100
AcDbEntity
  8
寸法
 48
50.0
100
AcDbDimension
  2
*D8
 10
7141.461099046267
 20
6637.511021203028
 30
0.0
 11
7504.946380420505
 21
6637.511021203028
 31
0.0
 70
   160
 71
     5
 42
54.99999999999818
  3
INABA_S40G
100
AcDbAlignedDimension
 13
7196.461099046266
 23
7171.941791969283
 33
0.0
 14
7141.461099046267
 24
7171.941791969278
 34
0.0
100
AcDbRotatedDimension
1001
ACAD
1000
DSTYLE
1002
{
1002
}
  0
DIMENSION
  5
16510
330
747D
100
AcDbEntity
  8
寸法
100
AcDbDimension
  2
*D9
 10
7843.887444780678
 20
7171.941791969283
 30
0.0
 11
7843.887444780675
 21
6794.08032506442
 31
0.0
 70
   160
 71
     5
 42
54.99999999999636
  3
INABA_S40G
100
AcDbAlignedDimension
 13
7196.461099046266
 23
7226.941791969278
 33
0.0
 14
7196.461099046266
 24
7171.941791969283
 34
0.0
 50
90.0
100
AcDbRotatedDimension
1001
ACAD
1000
DSTYLE
1002
{
1002
}
  0
LINE
  5
16511
330
747D
100
AcDbEntity
  8
部品1
 48
50.0
100
AcDbLine
 10
7131.461099046267
 20
7197.941791969191
 30
0.0
 11
7141.461099046266
 21
7176.94179196919
 31
0.0
  0
LINE
  5
16512
330
747D
100
AcDbEntity
  8
部品1
100
AcDbLine
 10
7141.461099046266
 20
7207.941791969189
 30
0.0
 11
7164.461099046267
 21
7207.941791969189
 31
0.0
  0
LINE
  5
16513
330
747D
100
AcDbEntity
  8
部品1
 48
50.0
100
AcDbLine
 10
7093.461099046265
 20
7236.941791969191
 30
0.0
 11
7093.461099046265
 21
7227.941791969191
 31
0.0
  0
LINE
  5
16514
330
747D
100
AcDbEntity
  8
部品1
100
AcDbLine
 10
7093.461099046265
 20
7236.941791969191
 30
0.0
 11
7141.461099046267
 21
7236.941791969191
 31
0.0
  0
LINE
  5
16515
330
747D
100
AcDbEntity
  8
部品1
 48
50.0
100
AcDbLine
 10
7093.461099046265
 20
7197.941791969191
 30
0.0
 11
7093.461099046265
 21
7206.941791969192
 31
0.0
  0
LINE
  5
16516
330
747D
100
AcDbEntity
  8
部品1
100
AcDbLine
 10
7093.461099046265
 20
7197.941791969191
 30
0.0
 11
7141.461099046266
 21
7197.941791969191
 31
0.0
  0
LINE
  5
16517
330
747D
100
AcDbEntity
  8
部品1
100
AcDbLine
 10
7141.461099046266
 20
7226.941791969294
 30
0.0
 11
7196.461099046299
 21
7226.941791969294
 31
0.0
  0
LINE
  5
16518
330
747D
100
AcDbEntity
  8
部品1
100
AcDbLine
 10
7196.461099046266
 20
7171.941791969283
 30
0.0
 11
7141.461099046267
 21
7171.94179196928
 31
0.0
  0
LINE
  5
16519
330
747D
100
AcDbEntity
  8
部品1
100
AcDbLine
 10
7168.461099046296
 20
7646.941791969293
 30
0.0
 11
7196.461099046295
 21
7646.941791969293
 31
0.0
  0
LINE
  5
1651B
330
747D
100
AcDbEntity
  8
部品1
100
AcDbLine
 10
7168.461099046296
 20
8066.941791969293
 30
0.0
 11
7196.461099046295
 21
8066.941791969293
 31
0.0
  0
LINE
  5
1651C
330
747D
100
AcDbEntity
  8
部品1
100
AcDbLine
 10
7168.461099046296
 20
8486.941791969293
 30
0.0
 11
7196.461099046295
 21
8486.941791969293
 31
0.0
  0
LINE
  5
1651D
330
747D
100
AcDbEntity
  8
部品1
100
AcDbLine
 10
7168.461099046296
 20
8906.941791969293
 30
0.0
 11
7196.461099046295
 21
8906.941791969293
 31
0.0
  0
LINE
  5
1651E
330
747D
100
AcDbEntity
  8
部品1
100
AcDbLine
 10
7168.461099046296
 20
9326.941791969295
 30
0.0
 11
7196.461099046295
 21
9326.941791969295
 31
0.0
  0
LINE
  5
16523
330
747D
100
AcDbEntity
  8
部品1
100
AcDbLine
 10
4566.46109904629
 20
10221.94179196919
 30
0.0
 11
7196.461099046292
 21
10221.94179196929
 31
0.0
  0
DIMENSION
  5
16528
330
747D
100
AcDbEntity
  8
寸法
100
AcDbDimension
  2
*D10
 10
7141.461099046292
 20
10437.75001159429
 30
0.0
 11
5881.461099046291
 21
10537.76182261791
 31
0.0
 70
    32
  1
6X420=<>
 71
     5
 42
2520.000000000001
  3
INABA_S40G
100
AcDbAlignedDimension
 13
4621.461099046291
 23
10221.94179196919
 33
0.0
 14
7141.461099046292
 24
10221.94179196929
 34
0.0
100
AcDbRotatedDimension
1001
ACAD
1000
DSTYLE
1002
{
1002
}
  0
DIMENSION
  5
1652B
330
747D
100
AcDbEntity
  8
寸法
100
AcDbDimension
  2
*D11
 10
4621.461099046291
 20
10437.75001159418
 30
0.0
 11
4257.975817672017
 21
10437.75001159418
 31
0.0
 70
   160
 71
     5
 42
55.00000000003456
  3
INABA_S40G
100
AcDbAlignedDimension
 13
4566.461099046256
 23
10221.94179196919
 33
0.0
 14
4621.461099046291
 24
10221.94179196919
 34
0.0
100
AcDbRotatedDimension
1001
ACAD
1000
DSTYLE
1002
{
1002
}
  0
LINE
  5
1652E
330
747D
100
AcDbEntity
  8
部品1
100
AcDbLine
 10
4594.461099046265
 20
9746.941791969167
 30
0.0
 11
4566.461099046265
 21
9746.941791969167
 31
0.0
  0
LINE
  5
1652F
330
747D
100
AcDbEntity
  8
部品1
100
AcDbLine
 10
4621.461099046256
 20
10221.94179196916
 30
0.0
 11
4621.461099046258
 21
10193.94179196916
 31
0.0
  0
LINE
  5
16530
330
747D
100
AcDbEntity
  8
部品1
100
AcDbLine
 10
4621.461099046291
 20
10221.94179196919
 30
0.0
 11
4621.461099046291
 21
10193.94179196919
 31
0.0
  0
LINE
  5
16531
330
747D
100
AcDbEntity
  8
部品1
100
AcDbLine
 10
4594.461099046258
 20
10166.94179196916
 30
0.0
 11
4566.461099046257
 21
10166.94179196916
 31
0.0
  0
LINE
  5
16533
330
747D
100
AcDbEntity
  8
部品1
100
AcDbLine
 10
5041.461099046291
 20
10221.94179196931
 30
0.0
 11
5041.461099046291
 21
10193.94179196931
 31
0.0
  0
LINE
  5
16534
330
747D
100
AcDbEntity
  8
部品1
100
AcDbLine
 10
5041.461099046291
 20
10221.94179196919
 30
0.0
 11
5041.461099046291
 21
10193.94179196919
 31
0.0
  0
LINE
  5
16535
330
747D
100
AcDbEntity
  8
部品1
100
AcDbLine
 10
5041.461099046291
 20
10221.94179196919
 30
0.0
 11
5041.461099046291
 21
10193.94179196919
 31
0.0
  0
LINE
  5
16537
330
747D
100
AcDbEntity
  8
部品1
100
AcDbLine
 10
5461.461099046291
 20
10221.94179196931
 30
0.0
 11
5461.461099046291
 21
10193.94179196931
 31
0.0
  0
LINE
  5
16538
330
747D
100
AcDbEntity
  8
部品1
100
AcDbLine
 10
5461.461099046291
 20
10221.94179196919
 30
0.0
 11
5461.461099046291
 21
10193.94179196919
 31
0.0
  0
LINE
  5
16539
330
747D
100
AcDbEntity
  8
部品1
100
AcDbLine
 10
5461.461099046291
 20
10221.94179196919
 30
0.0
 11
5461.461099046291
 21
10193.94179196919
 31
0.0
  0
LINE
  5
1653E
330
747D
100
AcDbEntity
  8
部品1
100
AcDbLine
 10
4594.461099046287
 20
10193.9417919693
 30
0.0
 11
5868.961099046289
 21
10193.94179196929
 31
0.0
  0
LINE
  5
16554
330
747D
100
AcDbEntity
  8
部品1
100
AcDbLine
 10
5881.46109904629
 20
10221.94179196931
 30
0.0
 11
5881.46109904629
 21
10193.94179196931
 31
0.0
  0
LINE
  5
16555
330
747D
100
AcDbEntity
  8
部品1
100
AcDbLine
 10
6301.46109904629
 20
10221.94179196931
 30
0.0
 11
6301.46109904629
 21
10193.94179196931
 31
0.0
  0
DIMENSION
  5
16556
330
747D
100
AcDbEntity
  8
寸法
100
AcDbDimension
  2
*D12
 10
7843.887444780702
 20
10166.94179196929
 30
0.0
 11
7843.887444780701
 21
10530.42707334353
 31
0.0
 70
   160
 71
     5
 42
54.99999999999636
  3
INABA_S40G
100
AcDbAlignedDimension
 13
7196.461099046292
 23
10221.94179196929
 33
0.0
 14
7196.461099046292
 24
10166.94179196929
 34
0.0
 50
90.0
100
AcDbRotatedDimension
1001
ACAD
1000
DSTYLE
1002
{
1002
}
  0
DIMENSION
  5
16557
330
747D
100
AcDbEntity
  8
寸法
100
AcDbDimension
  2
*D13
 10
7196.461099046292
 20
10437.75001159427
 30
0.0
 11
7504.94638042053
 21
10437.75001159427
 31
0.0
 70
   160
 71
     5
 42
55.0
  3
INABA_S40G
100
AcDbAlignedDimension
 13
7141.461099046292
 23
10221.94179196929
 33
0.0
 14
7196.461099046292
 24
10221.94179196929
 34
0.0
100
AcDbRotatedDimension
1001
ACAD
1000
DSTYLE
1002
{
1002
}
  0
LINE
  5
1655B
330
747D
100
AcDbEntity
  8
部品1
100
AcDbLine
 10
7168.461099046291
 20
9746.941791969293
 30
0.0
 11
7196.461099046292
 21
9746.941791969293
 31
0.0
  0
LINE
  5
1655C
330
747D
100
AcDbEntity
  8
部品1
100
AcDbLine
 10
7141.461099046292
 20
10221.94179196929
 30
0.0
 11
7141.461099046292
 21
10193.94179196929
 31
0.0
  0
LINE
  5
1655D
330
747D
100
AcDbEntity
  8
部品1
100
AcDbLine
 10
7141.461099046292
 20
10221.94179196931
 30
0.0
 11
7141.461099046292
 21
10193.94179196931
 31
0.0
  0
LINE
  5
1655E
330
747D
100
AcDbEntity
  8
部品1
100
AcDbLine
 10
7168.461099046291
 20
10166.94179196929
 30
0.0
 11
7196.461099046292
 21
10166.94179196929
 31
0.0
  0
LINE
  5
1673B
330
747D
100
AcDbEntity
  8
部品1
 48
50.0
100
AcDbLine
 10
7168.461099046279
 20
10193.94179196929
 30
0.0
 11
7141.461099046281
 21
10166.94179196929
 31
0.0
  0
LINE
  5
1673C
330
747D
100
AcDbEntity
  8
部品1
 48
50.0
100
AcDbLine
 10
4646.461099046267
 20
10141.9417919693
 30
0.0
 11
7116.461099046283
 21
10141.94179196929
 31
0.0
  0
LINE
  5
1673D
330
747D
100
AcDbEntity
  8
部品1
 48
50.0
100
AcDbLine
 10
4594.461099046305
 20
10193.94179196929
 30
0.0
 11
4621.461099046302
 21
10166.94179196929
 31
0.0
  0
LINE
  5
1673E
330
747D
100
AcDbEntity
  8
部品1
 48
50.0
100
AcDbLine
 10
4621.461099046302
 20
10166.94179196929
 30
0.0
 11
7141.461099046281
 21
10166.94179196929
 31
0.0
  0
LINE
  5
1684A
330
747D
100
AcDbEntity
  8
部品1
100
AcDbLine
 10
5881.46109904629
 20
10221.94179196925
 30
0.0
 11
5881.46109904629
 21
10193.94179196925
 31
0.0
  0
LINE
  5
1684B
330
747D
100
AcDbEntity
  8
部品1
100
AcDbLine
 10
5868.961099046291
 20
10185.94179196923
 30
0.0
 11
5893.961099046291
 21
10185.94179196923
 31
0.0
  0
LINE
  5
1684C
330
747D
100
AcDbEntity
  8
部品1
100
AcDbLine
 10
5910.46109904629
 20
10211.94179196923
 30
0.0
 11
5916.461099046291
 21
10211.94179196923
 31
0.0
  0
LINE
  5
1684D
330
747D
100
AcDbEntity
  8
部品1
100
AcDbLine
 10
5916.461099046291
 20
10211.94179196923
 30
0.0
 11
5916.461099046291
 21
10193.94179196923
 31
0.0
  0
LINE
  5
1684E
330
747D
100
AcDbEntity
  8
部品1
100
AcDbLine
 10
5846.46109904629
 20
10211.94179196923
 30
0.0
 11
5852.461099046291
 21
10211.94179196923
 31
0.0
  0
LINE
  5
1684F
330
747D
100
AcDbEntity
  8
部品1
100
AcDbLine
 10
5846.46109904629
 20
10211.94179196923
 30
0.0
 11
5846.46109904629
 21
10193.94179196923
 31
0.0
  0
LINE
  5
16850
330
747D
100
AcDbEntity
  8
部品1
 48
50.0
100
AcDbLine
 10
5868.961099046291
 20
10185.94179196923
 30
0.0
 11
5868.961099046289
 21
10193.94179196925
 31
0.0
  0
LINE
  5
16851
330
747D
100
AcDbEntity
  8
部品1
 48
50.0
100
AcDbLine
 10
5893.961099046291
 20
10185.94179196923
 30
0.0
 11
5893.961099046291
 21
10193.94179196924
 31
0.0
  0
LINE
  5
16852
330
747D
100
AcDbEntity
  8
部品1
100
AcDbLine
 10
5893.96109904629
 20
10193.94179196929
 30
0.0
 11
7168.461099046291
 21
10193.94179196929
 31
0.0
  0
LINE
  5
1690D
330
747D
100
AcDbEntity
  8
仕様書枠
 48
50.0
100
AcDbLine
 10
16307.2
 20
11239.6
 30
0.0
 11
13127.2
 21
11239.6
 31
0.0
  0
LINE
  5
1690E
330
747D
100
AcDbEntity
  8
仕様書枠
 48
50.0
100
AcDbLine
 10
13127.2
 20
11239.6
 30
0.0
 11
13127.2
 21
8349.600000000004
 31
0.0
  0
LINE
  5
1690F
330
747D
100
AcDbEntity
  8
仕様書枠
 48
50.0
100
AcDbLine
 10
16307.2
 20
8349.600000000002
 30
0.0
 11
16307.2
 21
11239.6
 31
0.0
  0
LINE
  5
16910
330
747D
100
AcDbEntity
  8
仕様書枠
 48
50.0
100
AcDbLine
 10
14785.2
 20
11239.6
 30
0.0
 11
14785.2
 21
8859.600000000007
 31
0.0
  0
LINE
  5
16911
330
747D
100
AcDbEntity
  8
仕様書枠
 48
50.0
100
AcDbLine
 10
13490.2
 20
11239.6
 30
0.0
 11
13490.20000000001
 21
8859.600000000005
 31
0.0
  0
LINE
  5
16912
330
747D
100
AcDbEntity
  8
仕様書枠
 48
50.0
100
AcDbLine
 10
16307.2
 20
11069.6
 30
0.0
 11
13127.2
 21
11069.6
 31
0.0
  0
LINE
  5
16913
330
747D
100
AcDbEntity
  8
仕様書枠
 48
50.0
100
AcDbLine
 10
16307.2
 20
10729.6
 30
0.0
 11
13127.2
 21
10729.6
 31
0.0
  0
LINE
  5
16914
330
747D
100
AcDbEntity
  8
仕様書枠
 48
50.0
100
AcDbLine
 10
16307.2
 20
10899.6
 30
0.0
 11
13127.2
 21
10899.6
 31
0.0
  0
LINE
  5
16915
330
747D
100
AcDbEntity
  8
仕様書枠
 48
50.0
100
AcDbLine
 10
16307.19999999999
 20
10389.6
 30
0.0
 11
13127.2
 21
10389.6
 31
0.0
  0
LINE
  5
16916
330
747D
100
AcDbEntity
  8
仕様書枠
 48
50.0
100
AcDbLine
 10
16307.19999999999
 20
10219.6
 30
0.0
 11
13127.2
 21
10219.6
 31
0.0
  0
LINE
  5
16917
330
747D
100
AcDbEntity
  8
仕様書枠
 48
50.0
100
AcDbLine
 10
16307.19999999999
 20
10559.6
 30
0.0
 11
13127.2
 21
10559.6
 31
0.0
  0
TEXT
  5
16918
330
747D
100
AcDbEntity
  8
文字
 62
     7
 48
50.0
100
AcDbText
 10
13197.42518560407
 20
11100.01374588373
 30
0.0
 40
100.0
  1
品番
  7
STYLE1
100
AcDbText
  0
TEXT
  5
16919
330
747D
100
AcDbEntity
  8
文字
 62
     7
 48
50.0
100
AcDbText
 10
13271.19032244792
 20
10930.01374588373
 30
0.0
 40
100.0
  1
1
  7
STYLE1
100
AcDbText
  0
TEXT
  5
1691A
330
747D
100
AcDbEntity
  8
文字
 62
     7
 48
50.0
100
AcDbText
 10
13271.19032244792
 20
10760.01374588373
 30
0.0
 40
100.0
  1
2
  7
STYLE1
100
AcDbText
  0
TEXT
  5
1691B
330
747D
100
AcDbEntity
  8
文字
 62
     7
 48
50.0
100
AcDbText
 10
13271.19032244792
 20
10420.01374588373
 30
0.0
 40
100.0
  1
4
  7
STYLE1
100
AcDbText
  0
TEXT
  5
1691C
330
747D
100
AcDbEntity
  8
文字
 62
     7
 48
50.0
100
AcDbText
 10
13271.19032244792
 20
10590.01374588373
 30
0.0
 40
100.0
  1
3
  7
STYLE1
100
AcDbText
  0
TEXT
  5
1691D
330
747D
100
AcDbEntity
  8
文字
 62
     7
 48
50.0
100
AcDbText
 10
13732.03840939435
 20
11100.01374588373
 30
0.0
 40
100.0
  1
部　　品　　名
  7
STYLE1
100
AcDbText
  0
TEXT
  5
1691E
330
747D
100
AcDbEntity
  8
文字
 62
     7
 48
50.0
100
AcDbText
 10
14859.79774614482
 20
11100.01374588373
 30
0.0
 40
100.0
  1
材料（材質）　　単位mm
  7
STYLE1
100
AcDbText
  0
TEXT
  5
1691F
330
747D
100
AcDbEntity
  8
文字
 62
     7
 48
50.0
100
AcDbText
 10
13583.11819016569
 20
10930.01374588373
 30
0.0
 40
100.0
  1
土台枠
  7
STYLE1
100
AcDbText
  0
TEXT
  5
16921
330
747D
100
AcDbEntity
  8
文字
 62
     7
 48
50.0
100
AcDbText
 10
13583.11819016569
 20
10590.01374588373
 30
0.0
 40
100.0
  1
桁前
  7
STYLE1
100
AcDbText
  0
TEXT
  5
16922
330
747D
100
AcDbEntity
  8
文字
 62
     7
 48
50.0
100
AcDbText
 10
13583.11819016569
 20
10420.01374588373
 30
0.0
 40
100.0
  1
桁後
  7
STYLE1
100
AcDbText
  0
TEXT
  5
16923
330
747D
100
AcDbEntity
  8
文字
 62
     7
 48
50.0
100
AcDbText
 10
13271.19032244792
 20
10250.01374588373
 30
0.0
 40
100.0
  1
5
  7
STYLE1
100
AcDbText
  0
TEXT
  5
16924
330
747D
100
AcDbEntity
  8
文字
 62
     7
 48
50.0
100
AcDbText
 10
13583.11819016569
 20
10250.01374588373
 30
0.0
 40
100.0
  1
妻板左右
  7
STYLE1
100
AcDbText
  0
TEXT
  5
16925
330
747D
100
AcDbEntity
  8
文字
 62
     7
 48
50.0
100
AcDbText
 10
13583.1181901657
 20
9060.013745883731
 30
0.0
 40
100.0
  1
シャッターレール
  7
STYLE1
100
AcDbText
  0
TEXT
  5
16926
330
747D
100
AcDbEntity
  8
文字
 62
     7
 48
50.0
100
AcDbText
 10
13248.77747366448
 20
9400.013745883729
 30
0.0
 40
100.0
  1
10
  7
STYLE1
100
AcDbText
  0
TEXT
  5
16927
330
747D
100
AcDbEntity
  8
文字
 62
     7
 48
50.0
100
AcDbText
 10
13583.11819016569
 20
9570.013745883731
 30
0.0
 40
100.0
  1
壁パネル
  7
STYLE1
100
AcDbText
  0
TEXT
  5
16928
330
747D
100
AcDbEntity
  8
文字
 62
     7
 48
50.0
100
AcDbText
 10
13583.11819016569
 20
9740.013745883729
 30
0.0
 40
100.0
  1
屋根パネル
  7
STYLE1
100
AcDbText
  0
TEXT
  5
16929
330
747D
100
AcDbEntity
  8
文字
 62
     7
 48
50.0
100
AcDbText
 10
13583.11819016569
 20
9910.01374588373
 30
0.0
 40
100.0
  1
母屋中
  7
STYLE1
100
AcDbText
  0
TEXT
  5
1692A
330
747D
100
AcDbEntity
  8
文字
 62
     7
 48
50.0
100
AcDbText
 10
13583.11819016569
 20
10080.01374588373
 30
0.0
 40
100.0
  1
鼻隠シ前後
  7
STYLE1
100
AcDbText
  0
TEXT
  5
1692B
330
747D
100
AcDbEntity
  8
文字
 62
     7
 48
50.0
100
AcDbText
 10
13271.19032244792
 20
9740.013745883731
 30
0.0
 40
100.0
  1
8
  7
STYLE1
100
AcDbText
  0
TEXT
  5
1692C
330
747D
100
AcDbEntity
  8
文字
 62
     7
 48
50.0
100
AcDbText
 10
13271.19032244792
 20
9570.013745883731
 30
0.0
 40
100.0
  1
9
  7
STYLE1
100
AcDbText
  0
TEXT
  5
1692D
330
747D
100
AcDbEntity
  8
文字
 62
     7
 48
50.0
100
AcDbText
 10
13271.19032244792
 20
9910.01374588373
 30
0.0
 40
100.0
  1
7
  7
STYLE1
100
AcDbText
  0
TEXT
  5
1692E
330
747D
100
AcDbEntity
  8
文字
 62
     7
 48
50.0
100
AcDbText
 10
13271.19032244792
 20
10080.01374588373
 30
0.0
 40
100.0
  1
6
  7
STYLE1
100
AcDbText
  0
LINE
  5
1692F
330
747D
100
AcDbEntity
  8
仕様書枠
 48
50.0
100
AcDbLine
 10
16307.19999999999
 20
9369.600000000001
 30
0.0
 11
13127.2
 21
9369.600000000003
 31
0.0
  0
LINE
  5
16930
330
747D
100
AcDbEntity
  8
仕様書枠
 48
50.0
100
AcDbLine
 10
16307.19999999999
 20
9539.6
 30
0.0
 11
13127.2
 21
9539.600000000003
 31
0.0
  0
LINE
  5
16931
330
747D
100
AcDbEntity
  8
仕様書枠
 48
50.0
100
AcDbLine
 10
16307.2
 20
10049.6
 30
0.0
 11
13127.2
 21
10049.6
 31
0.0
  0
LINE
  5
16932
330
747D
100
AcDbEntity
  8
仕様書枠
 48
50.0
100
AcDbLine
 10
16307.2
 20
9879.600000000001
 30
0.0
 11
13127.2
 21
9879.600000000003
 31
0.0
  0
TEXT
  5
16933
330
747D
100
AcDbEntity
  8
文字
 62
     7
 48
50.0
100
AcDbText
 10
13248.77747366448
 20
9230.013745883729
 30
0.0
 40
100.0
  1
11
  7
STYLE1
100
AcDbText
  0
TEXT
  5
16934
330
747D
100
AcDbEntity
  8
文字
 62
     7
 48
50.0
100
AcDbText
 10
13583.11819016569
 20
9230.013745883729
 30
0.0
 40
100.0
  1
シャッターカバー
 41
0.9
  7
STYLE1
100
AcDbText
  0
LINE
  5
16935
330
747D
100
AcDbEntity
  8
仕様書枠
 48
50.0
100
AcDbLine
 10
16307.19999999999
 20
9199.600000000001
 30
0.0
 11
13127.2
 21
9199.600000000001
 31
0.0
  0
TEXT
  5
16937
330
747D
100
AcDbEntity
  8
文字
 62
     7
 48
50.0
100
AcDbText
 10
13583.11819016569
 20
8890.013745883731
 30
0.0
 40
100.0
  1
棚板（別売）
  7
STYLE1
100
AcDbText
  0
LINE
  5
16938
330
747D
100
AcDbEntity
  8
仕様書枠
 48
50.0
100
AcDbLine
 10
16307.19999999999
 20
9029.600000000002
 30
0.0
 11
13127.2
 21
9029.600000000003
 31
0.0
  0
TEXT
  5
16939
330
747D
100
AcDbEntity
  8
文字
 62
     7
 48
50.0
100
AcDbText
 10
13583.11819016569
 20
9400.013745883731
 30
0.0
 40
100.0
  1
シャッター
  7
STYLE1
100
AcDbText
  0
TEXT
  5
1693A
330
747D
100
AcDbEntity
  8
文字
 62
     7
 48
50.0
100
AcDbText
 10
13248.77747366448
 20
8890.013745883731
 30
0.0
 40
100.0
  1
13
  7
STYLE1
100
AcDbText
  0
TEXT
  5
1693B
330
747D
100
AcDbEntity
  8
文字
 62
     7
 48
50.0
100
AcDbText
 10
13248.77747366448
 20
9060.013745883731
 30
0.0
 40
100.0
  1
12
  7
STYLE1
100
AcDbText
  0
TEXT
  5
1693C
330
747D
100
AcDbEntity
  8
文字
 62
     7
 48
50.0
100
AcDbText
 10
15022.63965474517
 20
10930.01374588372
 30
0.0
 40
100.0
  1
F12            1.2
  7
STYLE1
100
AcDbText
  0
TEXT
  5
1693E
330
747D
100
AcDbEntity
  8
文字
 62
     7
 48
50.0
100
AcDbText
 10
15022.63965474517
 20
10590.01374588373
 30
0.0
 40
100.0
  1
Y10            1.0
  7
STYLE1
100
AcDbText
  0
TEXT
  5
1693F
330
747D
100
AcDbEntity
  8
文字
 62
     7
 48
50.0
100
AcDbText
 10
15022.63965474516
 20
10420.01374588372
 30
0.0
 40
100.0
  1
Y10            1.0
  7
STYLE1
100
AcDbText
  0
TEXT
  5
16940
330
747D
100
AcDbEntity
  8
文字
 62
     7
 48
50.0
100
AcDbText
 10
15022.63965474517
 20
10250.01374588373
 30
0.0
 40
100.0
  1
Y10            0.7
  7
STYLE1
100
AcDbText
  0
TEXT
  5
16941
330
747D
100
AcDbEntity
  8
文字
 62
     7
 48
50.0
100
AcDbText
 10
15022.63965474516
 20
10080.01374588372
 30
0.0
 40
100.0
  1
Y10            0.7
  7
STYLE1
100
AcDbText
  0
TEXT
  5
16942
330
747D
100
AcDbEntity
  8
文字
 62
     7
 48
50.0
100
AcDbText
 10
14834.39215341525
 20
9910.013745883727
 30
0.0
 40
100.0
  1
F12    1.2(多雪地型  2.3)
  7
STYLE1
100
AcDbText
  0
TEXT
  5
16943
330
747D
100
AcDbEntity
  8
文字
 62
     7
 48
50.0
100
AcDbText
 10
15022.63965474517
 20
9740.013745883729
 30
0.0
 40
100.0
  1
Y10            0.5
  7
STYLE1
100
AcDbText
  0
TEXT
  5
16944
330
747D
100
AcDbEntity
  8
文字
 62
     7
 48
50.0
100
AcDbText
 10
15022.63965474516
 20
9570.013745883727
 30
0.0
 40
100.0
  1
F12            0.6
  7
STYLE1
100
AcDbText
  0
TEXT
  5
16945
330
747D
100
AcDbEntity
  8
文字
 62
     7
 48
50.0
100
AcDbText
 10
14850.83183167177
 20
9060.013745883729
 30
0.0
 40
100.0
  1
アルミニウム合金押出形材
  7
STYLE1
100
AcDbText
  0
TEXT
  5
16947
330
747D
100
AcDbEntity
  8
文字
 62
     7
 48
50.0
100
AcDbText
 10
15022.63965474516
 20
9400.013745883727
 30
0.0
 40
100.0
  1
Z08            0.5
  7
STYLE1
100
AcDbText
  0
TEXT
  5
16948
330
747D
100
AcDbEntity
  8
文字
 62
     7
 48
50.0
100
AcDbText
 10
15022.63965474516
 20
8890.013745883729
 30
0.0
 40
100.0
  1
F12            0.6
  7
STYLE1
100
AcDbText
  0
LINE
  5
16949
330
747D
100
AcDbEntity
  8
仕様書枠
 48
50.0
100
AcDbLine
 10
16307.19999999999
 20
8689.6
 30
0.0
 11
13127.19999999999
 21
8689.600000000003
 31
0.0
  0
LINE
  5
1694A
330
747D
100
AcDbEntity
  8
仕様書枠
 48
50.0
100
AcDbLine
 10
16307.19999999999
 20
8519.600000000002
 30
0.0
 11
13127.19999999999
 21
8519.600000000002
 31
0.0
  0
LINE
  5
1694B
330
747D
100
AcDbEntity
  8
仕様書枠
 48
50.0
100
AcDbLine
 10
16307.19999999999
 20
8349.6
 30
0.0
 11
13127.19999999999
 21
8349.600000000002
 31
0.0
  0
TEXT
  5
1694C
330
747D
100
AcDbEntity
  8
文字
 62
     7
 48
50.0
100
AcDbText
 10
13229.83081656555
 20
8720.013745883729
 30
0.0
 40
100.0
  1
F12→溶融亜鉛めっき鋼板(JIS G 3302)
  7
STYLE1
100
AcDbText
  0
TEXT
  5
1694D
330
747D
100
AcDbEntity
  8
文字
 62
     7
 48
50.0
100
AcDbText
 10
13229.83081656554
 20
8550.013745883729
 30
0.0
 40
100.0
  1
Y10→溶融亜鉛-5％アルミニウム合金めっき鋼板(JIS G 3317)
 41
0.9
  7
STYLE1
100
AcDbText
  0
TEXT
  5
1694E
330
747D
100
AcDbEntity
  8
文字
 62
     7
 48
50.0
100
AcDbText
 10
13229.83081656555
 20
8380.013745883731
 30
0.0
 40
100.0
  1
Z08→塗装溶融亜鉛めっき鋼板(JIS G 3313)
  7
STYLE1
100
AcDbText
  0
LINE
  5
1694F
330
747D
100
AcDbEntity
  8
仕様書枠
 48
50.0
100
AcDbLine
 10
16307.19999999999
 20
9709.600000000001
 30
0.0
 11
13127.2
 21
9709.600000000001
 31
0.0
  0
LINE
  5
16C3C
330
747D
100
AcDbEntity
  8
補助
  6
PHANTOM
 62
   230
 48
50.0
100
AcDbLine
 10
140.0
 20
0.0
 30
0.0
 11
139.9999999999995
 21
11409.6
 31
0.0
  0
LINE
  5
16F74
330
747D
100
AcDbEntity
  8
部品1
100
AcDbLine
 10
7246.041438030957
 20
4321.375795272601
 30
0.0
 11
7244.908040698608
 21
4301.399667290001
 31
0.0
  0
LINE
  5
16F75
330
747D
100
AcDbEntity
  8
細線
 48
50.0
100
AcDbLine
 10
7213.461099046288
 20
4328.77232066784
 30
0.0
 11
7213.461099046288
 21
4187.77232066784
 31
0.0
  0
LINE
  5
16F76
330
747D
100
AcDbEntity
  8
部品1
100
AcDbLine
 10
7233.471020377031
 20
4205.742260122941
 30
0.0
 11
7232.826114569923
 21
4194.375795272601
 31
0.0
  0
LINE
  5
16F77
330
747D
100
AcDbEntity
  8
部品1
100
AcDbLine
 10
7241.707050901879
 20
4297.942260122943
 30
0.0
 11
7236.672010173768
 21
4209.199667289999
 31
0.0
  0
ARC
  5
16F78
330
747D
100
AcDbEntity
  8
部品1
 48
50.0
100
AcDbCircle
 10
7244.702233798065
 20
4297.772320667841
 30
0.0
 40
3.0
100
AcDbArc
 50
97.65812720736519
 51
176.7526572096623
  0
ARC
  5
16F79
330
747D
100
AcDbEntity
  8
部品1
 48
50.0
100
AcDbCircle
 10
7236.466203273221
 20
4205.572320667838
 30
0.0
 40
3.0
100
AcDbArc
 50
97.65812720736519
 51
176.7526572096623
  0
ARC
  5
16F7A
330
747D
100
AcDbEntity
  8
部品1
 48
50.0
100
AcDbCircle
 10
7235.973134164661
 20
4209.239319829523
 30
0.0
 40
0.7
100
AcDbArc
 50
277.6581272073652
 51
356.7526572097143
  0
ARC
  5
16F7B
330
747D
100
AcDbEntity
  8
部品1
 48
50.0
100
AcDbCircle
 10
7244.2091646895
 20
4301.439319829525
 30
0.0
 40
0.7
100
AcDbArc
 50
277.6581272073652
 51
356.7526572096103
  0
ARC
  5
16F7C
330
747D
100
AcDbEntity
  8
部品1
100
AcDbCircle
 10
7225.837354478824
 20
4194.772320667842
 30
0.0
 40
7.0
100
AcDbArc
 50
270.0
 51
356.7526572096623
  0
ARC
  5
16F7D
330
747D
100
AcDbEntity
  8
部品1
100
AcDbCircle
 10
7239.052677939858
 20
4321.77232066784
 30
0.0
 40
7.0
100
AcDbArc
 50
356.7526572096623
 51
90.0
  0
DIMENSION
  5
16F7E
330
747D
100
AcDbEntity
  8
寸法
 48
50.0
100
AcDbDimension
  2
*D14
 10
7196.461099046292
 20
4734.498592399745
 30
0.0
 11
7559.946380420528
 21
4734.498592399745
 31
0.0
 70
   160
 71
     5
 42
49.99999999999636
  3
INABA_S40G
100
AcDbAlignedDimension
 13
7246.461099046289
 23
4328.772320667838
 33
0.0
 14
7196.461099046292
 24
4328.772320667841
 34
0.0
100
AcDbRotatedDimension
  0
LINE
  5
16F7F
330
747D
100
AcDbEntity
  8
部品1
100
AcDbLine
 10
4566.461099046288
 20
4093.772320667834
 30
0.0
 11
7196.461099046288
 21
4093.772320667834
 31
0.0
  0
LINE
  5
16F80
330
747D
100
AcDbEntity
  8
部品1
 48
50.0
100
AcDbLine
 10
7239.052677939858
 20
4328.772320667839
 30
0.0
 11
4523.869520152721
 21
4328.772320667842
 31
0.0
  0
LINE
  5
16F81
330
747D
100
AcDbEntity
  8
部品1
 48
50.0
100
AcDbLine
 10
7225.837354478824
 20
4187.772320667842
 30
0.0
 11
4537.084843613754
 21
4187.772320667842
 31
0.0
  0
LINE
  5
16F82
330
747D
100
AcDbEntity
  8
細線
 48
50.0
100
AcDbLine
 10
7244.421560824855
 20
4300.772320667841
 30
0.0
 11
4518.500637267733
 21
4300.772320667838
 31
0.0
  0
LINE
  5
16F83
330
747D
100
AcDbEntity
  8
細線
 48
50.0
100
AcDbLine
 10
7236.18553029999
 20
4208.572320667832
 30
0.0
 11
4526.736667792562
 21
4208.572320667841
 31
0.0
  0
LINE
  5
16F84
330
747D
100
AcDbEntity
  8
細線
 48
50.0
100
AcDbLine
 10
4549.461099046292
 20
4328.77232066784
 30
0.0
 11
4549.461099046292
 21
4187.77232066784
 31
0.0
  0
ARC
  5
16F85
330
747D
100
AcDbEntity
  8
部品1
100
AcDbCircle
 10
4523.869520152721
 20
4321.77232066784
 30
0.0
 40
7.0
100
AcDbArc
 50
90.0
 51
183.2473427903377
  0
ARC
  5
16F86
330
747D
100
AcDbEntity
  8
部品1
100
AcDbCircle
 10
4537.084843613754
 20
4194.772320667842
 30
0.0
 40
7.0
100
AcDbArc
 50
183.2473427903377
 51
270.0
  0
ARC
  5
16F87
330
747D
100
AcDbEntity
  8
部品1
 48
50.0
100
AcDbCircle
 10
4518.713033403079
 20
4301.439319829525
 30
0.0
 40
0.7
100
AcDbArc
 50
183.2473427903897
 51
262.3418727926349
  0
ARC
  5
16F88
330
747D
100
AcDbEntity
  8
部品1
 48
50.0
100
AcDbCircle
 10
4526.949063927919
 20
4209.239319829523
 30
0.0
 40
0.7
100
AcDbArc
 50
183.2473427902856
 51
262.3418727926349
  0
ARC
  5
16F89
330
747D
100
AcDbEntity
  8
部品1
 48
50.0
100
AcDbCircle
 10
4526.455994819358
 20
4205.572320667838
 30
0.0
 40
3.0
100
AcDbArc
 50
3.247342790337682
 51
82.3418727926348
  0
ARC
  5
16F8A
330
747D
100
AcDbEntity
  8
部品1
 48
50.0
100
AcDbCircle
 10
4518.219964294514
 20
4297.772320667841
 30
0.0
 40
3.0
100
AcDbArc
 50
3.247342790337682
 51
82.3418727926348
  0
LINE
  5
16F8B
330
747D
100
AcDbEntity
  8
部品1
100
AcDbLine
 10
4521.2151471907
 20
4297.942260122943
 30
0.0
 11
4526.250187918811
 21
4209.199667289999
 31
0.0
  0
LINE
  5
16F8C
330
747D
100
AcDbEntity
  8
部品1
100
AcDbLine
 10
4529.451177715547
 20
4205.742260122941
 30
0.0
 11
4530.096083522656
 21
4194.375795272601
 31
0.0
  0
LINE
  5
16F8D
330
747D
100
AcDbEntity
  8
部品1
100
AcDbLine
 10
4516.880760061622
 20
4321.375795272601
 30
0.0
 11
4518.01415739397
 21
4301.399667290001
 31
0.0
  0
DIMENSION
  5
16FBA
330
747D
100
AcDbEntity
  8
寸法
 48
50.0
100
AcDbDimension
  2
*D15
 10
4516.461099046291
 20
4734.498592399745
 30
0.0
 11
4202.975817672044
 21
4734.498592399745
 31
0.0
 70
   160
 71
     5
 42
50.0
  3
INABA_S40G
100
AcDbAlignedDimension
 13
4566.461099046292
 23
4328.772320667842
 33
0.0
 14
4516.461099046291
 24
4328.772320667841
 34
0.0
100
AcDbRotatedDimension
1001
ACAD
1000
DSTYLE
1002
{
1002
}
  0
DIMENSION
  5
16FBB
330
747D
100
AcDbEntity
  8
寸法
 48
50.0
100
AcDbDimension
  2
*D16
 10
7246.461099046289
 20
4934.407513613836
 30
0.0
 11
5881.46109904629
 21
4934.407513613836
 31
0.0
 70
   160
 71
     5
 42
2729.999999999997
  3
INABA_S40G
100
AcDbAlignedDimension
 13
4516.461099046291
 23
4328.772320667841
 33
0.0
 14
7246.461099046289
 24
4328.772320667838
 34
0.0
100
AcDbRotatedDimension
  0
DIMENSION
  5
16FBC
330
747D
100
AcDbEntity
  8
寸法
 48
50.0
100
AcDbDimension
  2
*D17
 10
4566.461099046292
 20
4734.498592399745
 30
0.0
 11
5881.461099046291
 21
4734.498592399745
 31
0.0
 70
   160
  1
柱外寸法<>
 71
     5
 42
2630.0
  3
INABA_S40G
100
AcDbAlignedDimension
 13
7196.461099046292
 23
4328.772320667841
 33
0.0
 14
4566.461099046292
 24
4328.772320667842
 34
0.0
100
AcDbRotatedDimension
  0
TEXT
  5
1701C
330
747D
100
AcDbEntity
  8
文字
 62
     7
 48
50.0
100
AcDbText
 10
14528.81784699908
 20
483.8967129911416
 30
0.0
 40
160.0
  1
FXN-2630S
  7
MSGOTHIC
100
AcDbText
  0
LINE
  5
170BF
330
747D
100
AcDbEntity
  8
細線
100
AcDbLine
 10
7093.461099046288
 20
2263.772320667835
 30
0.0
 11
4669.461099046283
 21
2263.772320667835
 31
0.0
  0
LINE
  5
170C0
330
747D
100
AcDbEntity
  8
細線
100
AcDbLine
 10
4669.461099046284
 20
2783.772320667835
 30
0.0
 11
7093.461099046286
 21
2783.772320667835
 31
0.0
  0
LINE
  5
170C1
330
747D
100
AcDbEntity
  8
細線
100
AcDbLine
 10
4669.461099046284
 20
2718.772320667835
 30
0.0
 11
7093.461099046286
 21
2718.772320667835
 31
0.0
  0
LINE
  5
170C2
330
747D
100
AcDbEntity
  8
細線
100
AcDbLine
 10
4669.461099046284
 20
2653.772320667835
 30
0.0
 11
7093.461099046286
 21
2653.772320667835
 31
0.0
  0
LINE
  5
170C3
330
747D
100
AcDbEntity
  8
細線
100
AcDbLine
 10
4669.461099046284
 20
2588.772320667835
 30
0.0
 11
7093.461099046286
 21
2588.772320667835
 31
0.0
  0
LINE
  5
170C4
330
747D
100
AcDbEntity
  8
細線
100
AcDbLine
 10
4669.461099046284
 20
2523.772320667835
 30
0.0
 11
7093.461099046286
 21
2523.772320667835
 31
0.0
  0
LINE
  5
170C5
330
747D
100
AcDbEntity
  8
細線
100
AcDbLine
 10
4669.461099046284
 20
2458.772320667835
 30
0.0
 11
7093.461099046286
 21
2458.772320667835
 31
0.0
  0
LINE
  5
170C6
330
747D
100
AcDbEntity
  8
細線
100
AcDbLine
 10
4669.461099046284
 20
2393.772320667835
 30
0.0
 11
7093.461099046286
 21
2393.772320667835
 31
0.0
  0
LINE
  5
170C7
330
747D
100
AcDbEntity
  8
細線
100
AcDbLine
 10
4669.461099046284
 20
2328.772320667835
 30
0.0
 11
7093.461099046286
 21
2328.772320667835
 31
0.0
  0
LINE
  5
170C8
330
747D
100
AcDbEntity
  8
細線
100
AcDbLine
 10
4669.461099046284
 20
2263.772320667835
 30
0.0
 11
7093.461099046286
 21
2263.772320667835
 31
0.0
  0
LINE
  5
170C9
330
747D
100
AcDbEntity
  8
細線
100
AcDbLine
 10
4669.461099046284
 20
3433.772320667835
 30
0.0
 11
7093.461099046286
 21
3433.772320667835
 31
0.0
  0
LINE
  5
170CA
330
747D
100
AcDbEntity
  8
細線
100
AcDbLine
 10
4669.461099046284
 20
3368.772320667835
 30
0.0
 11
7093.461099046286
 21
3368.772320667835
 31
0.0
  0
LINE
  5
170CB
330
747D
100
AcDbEntity
  8
細線
100
AcDbLine
 10
4669.461099046284
 20
3303.772320667835
 30
0.0
 11
7093.461099046286
 21
3303.772320667835
 31
0.0
  0
LINE
  5
170CC
330
747D
100
AcDbEntity
  8
細線
100
AcDbLine
 10
4669.461099046284
 20
3238.772320667834
 30
0.0
 11
7093.461099046286
 21
3238.772320667834
 31
0.0
  0
LINE
  5
170CD
330
747D
100
AcDbEntity
  8
細線
100
AcDbLine
 10
4669.461099046284
 20
3173.772320667835
 30
0.0
 11
7093.461099046286
 21
3173.772320667835
 31
0.0
  0
LINE
  5
170CE
330
747D
100
AcDbEntity
  8
細線
100
AcDbLine
 10
4669.461099046284
 20
3108.772320667835
 30
0.0
 11
7093.461099046286
 21
3108.772320667835
 31
0.0
  0
LINE
  5
170CF
330
747D
100
AcDbEntity
  8
細線
100
AcDbLine
 10
4669.461099046284
 20
3043.772320667835
 30
0.0
 11
7093.461099046286
 21
3043.772320667835
 31
0.0
  0
LINE
  5
170D0
330
747D
100
AcDbEntity
  8
細線
100
AcDbLine
 10
4669.461099046284
 20
2978.772320667835
 30
0.0
 11
7093.461099046286
 21
2978.772320667835
 31
0.0
  0
LINE
  5
170D1
330
747D
100
AcDbEntity
  8
細線
100
AcDbLine
 10
4669.461099046284
 20
2913.772320667835
 30
0.0
 11
7093.461099046286
 21
2913.772320667835
 31
0.0
  0
LINE
  5
170D2
330
747D
100
AcDbEntity
  8
細線
100
AcDbLine
 10
4669.461099046284
 20
2848.772320667835
 30
0.0
 11
7093.461099046286
 21
2848.772320667835
 31
0.0
  0
LINE
  5
170D3
330
747D
100
AcDbEntity
  8
細線
100
AcDbLine
 10
4669.461099046284
 20
3823.772320667835
 30
0.0
 11
7093.461099046286
 21
3823.772320667835
 31
0.0
  0
LINE
  5
170D4
330
747D
100
AcDbEntity
  8
細線
100
AcDbLine
 10
4669.461099046284
 20
3758.772320667835
 30
0.0
 11
7093.461099046286
 21
3758.772320667835
 31
0.0
  0
LINE
  5
170D5
330
747D
100
AcDbEntity
  8
細線
100
AcDbLine
 10
4669.461099046284
 20
3693.772320667835
 30
0.0
 11
7093.461099046286
 21
3693.772320667835
 31
0.0
  0
LINE
  5
170D6
330
747D
100
AcDbEntity
  8
細線
100
AcDbLine
 10
4669.461099046284
 20
3628.772320667835
 30
0.0
 11
7093.461099046286
 21
3628.772320667835
 31
0.0
  0
LINE
  5
170D7
330
747D
100
AcDbEntity
  8
細線
100
AcDbLine
 10
4669.461099046284
 20
3563.772320667835
 30
0.0
 11
7093.461099046286
 21
3563.772320667835
 31
0.0
  0
LINE
  5
170D8
330
747D
100
AcDbEntity
  8
細線
100
AcDbLine
 10
4669.461099046284
 20
3498.772320667835
 30
0.0
 11
7093.461099046286
 21
3498.772320667835
 31
0.0
  0
LINE
  5
170D9
330
747D
100
AcDbEntity
  8
細線
100
AcDbLine
 10
4669.461099046284
 20
3888.772320667835
 30
0.0
 11
7093.461099046286
 21
3888.772320667835
 31
0.0
  0
LINE
  5
170DA
330
747D
100
AcDbEntity
  8
部品1
100
AcDbLine
 10
4566.461099046288
 20
3928.772320667834
 30
0.0
 11
7196.46109904629
 21
3928.772320667836
 31
0.0
  0
LINE
  5
170DB
330
747D
100
AcDbEntity
  8
破線
 48
5.0
100
AcDbLine
 10
4669.461099046286
 20
2003.77232066784
 30
0.0
 11
4621.461099046285
 21
2003.77232066784
 31
0.0
  0
LINE
  5
170DC
330
747D
100
AcDbEntity
  8
破線
 48
5.0
100
AcDbLine
 10
7141.46109904629
 20
2003.772320667835
 30
0.0
 11
7093.461099046288
 21
2003.772320667835
 31
0.0
  0
LINE
  5
170DD
330
747D
100
AcDbEntity
  8
破線
 48
5.0
100
AcDbLine
 10
7093.461099046286
 20
2253.772320667835
 30
0.0
 11
7093.461099046288
 21
2003.772320667835
 31
0.0
  0
LINE
  5
170DE
330
747D
100
AcDbEntity
  8
部品1
100
AcDbLine
 10
7093.46109904629
 20
3928.772320667836
 30
0.0
 11
7093.461099046286
 21
2253.772320667835
 31
0.0
  0
LINE
  5
170DF
330
747D
100
AcDbEntity
  8
破線
 48
5.0
100
AcDbLine
 10
4669.461099046287
 20
2253.772320667835
 30
0.0
 11
4669.461099046286
 21
2003.77232066784
 31
0.0
  0
LINE
  5
170E0
330
747D
100
AcDbEntity
  8
部品1
100
AcDbLine
 10
4669.461099046287
 20
3928.772320667835
 30
0.0
 11
4669.461099046287
 21
2253.772320667835
 31
0.0
  0
LINE
  5
170E1
330
747D
100
AcDbEntity
  8
破線
 48
5.0
100
AcDbLine
 10
4621.461099046285
 20
1903.772320667842
 30
0.0
 11
4566.461099046286
 21
1903.772320667842
 31
0.0
  0
LINE
  5
170E2
330
747D
100
AcDbEntity
  8
破線
 48
5.0
100
AcDbLine
 10
7196.461099046286
 20
1903.772320667835
 30
0.0
 11
7141.461099046288
 21
1903.772320667835
 31
0.0
  0
LINE
  5
170E3
330
747D
100
AcDbEntity
  8
破線
 48
5.0
100
AcDbLine
 10
4621.461099046288
 20
2253.772320667835
 30
0.0
 11
4621.461099046285
 21
1903.772320667835
 31
0.0
  0
LINE
  5
170E4
330
747D
100
AcDbEntity
  8
破線
 48
5.0
100
AcDbLine
 10
7141.461099046286
 20
2253.772320667835
 30
0.0
 11
7141.461099046288
 21
1903.772320667835
 31
0.0
  0
LWPOLYLINE
  5
170E8
330
747D
100
AcDbEntity
  8
部品1
100
AcDbPolyline
 90
        4
 70
     1
 43
0.0
 10
5499.725765932056
 20
1503.772320667842
 10
5499.725765932056
 20
1263.879999122309
 10
6263.196432160493
 20
1263.879999122309
 10
6263.196432160493
 20
1503.772320667842
  0
TEXT
  5
170E9
330
747D
100
AcDbEntity
  8
部品1
100
AcDbText
 10
5583.547742950018
 20
1310.878791449318
 30
0.0
 40
135.0
  1
正面図
  7
MSGOTHIC
100
AcDbText
  0
LINE
  5
170EB
330
747D
100
AcDbEntity
  8
破線
 48
5.0
100
AcDbLine
 10
4566.461099046288
 20
2153.772320667835
 30
0.0
 11
4566.461099046286
 21
1903.772320667835
 31
0.0
  0
LINE
  5
170EC
330
747D
100
AcDbEntity
  8
破線
 48
5.0
100
AcDbLine
 10
7196.461099046288
 20
2153.772320667835
 30
0.0
 11
7196.461099046288
 21
1903.772320667835
 31
0.0
  0
LINE
  5
170F3
330
747D
100
AcDbEntity
  8
部品1
100
AcDbLine
 10
7196.46109904629
 20
4187.772320667843
 30
0.0
 11
7196.461099046288
 21
2153.772320667835
 31
0.0
  0
LINE
  5
170F4
330
747D
100
AcDbEntity
  8
部品1
100
AcDbLine
 10
4621.461099046288
 20
3928.772320667835
 30
0.0
 11
4621.461099046288
 21
2253.772320667835
 31
0.0
  0
LINE
  5
170F5
330
747D
100
AcDbEntity
  8
部品1
100
AcDbLine
 10
7141.461099046288
 20
3928.772320667837
 30
0.0
 11
7141.461099046286
 21
2253.772320667835
 31
0.0
  0
LINE
  5
170F6
330
747D
100
AcDbEntity
  8
部品1
100
AcDbLine
 10
4566.461099046288
 20
4187.772320667842
 30
0.0
 11
4566.461099046288
 21
2153.772320667835
 31
0.0
  0
LINE
  5
170F7
330
747D
100
AcDbEntity
  8
部品1
100
AcDbLine
 10
4566.461099046288
 20
2253.772320667835
 30
0.0
 11
7196.461099046288
 21
2253.772320667835
 31
0.0
  0
LINE
  5
17661
330
747D
100
AcDbEntity
  8
部品1
100
AcDbLine
 10
9887.296989988721
 20
2253.772320667835
 30
0.0
 11
9494.299775779873
 21
2153.772320667835
 31
0.0
  0
LINE
  5
17662
330
747D
100
AcDbEntity
  8
破線
 48
5.0
100
AcDbLine
 10
9887.296989988721
 20
1903.772320667835
 30
0.0
 11
9942.296989988719
 21
1903.772320667835
 31
0.0
  0
LINE
  5
17663
330
747D
100
AcDbEntity
  8
破線
 48
5.0
100
AcDbLine
 10
9942.296989988722
 20
2153.772320667835
 30
0.0
 11
9942.296989988722
 21
1903.772320667835
 31
0.0
  0
LINE
  5
17664
330
747D
100
AcDbEntity
  8
破線
 48
5.0
100
AcDbLine
 10
9887.296989988721
 20
2153.772320667835
 30
0.0
 11
9887.296989988721
 21
1903.772320667835
 31
0.0
  0
DIMENSION
  5
17669
330
747D
100
AcDbEntity
  8
寸法
100
AcDbDimension
  2
*D18
 10
9043.546860805458
 20
2303.77232066783
 30
0.0
 11
8943.546860805458
 21
3198.772320667832
 31
0.0
 70
    32
 71
     5
 42
1790.000000000002
  3
INABA_S40G
100
AcDbAlignedDimension
 13
9887.296989988719
 23
4093.772320667831
 33
0.0
 14
9887.296989988719
 24
2303.772320667829
 34
0.0
 50
90.0
100
AcDbRotatedDimension
1001
ACAD
1000
DSTYLE
1002
{
1070
   174
1070
     0
1070
   272
1070
     1
1070
   288
1070
     0
1070
   341
1005
0
1002
}
  0
DIMENSION
  5
1766A
330
747D
100
AcDbEntity
  8
寸法
100
AcDbDimension
  2
*D19
 10
8743.546860805457
 20
4328.772320667835
 30
0.0
 11
8643.535049781835
 21
3291.272320667834
 31
0.0
 70
    32
 71
     5
 42
2075.000000000005
  3
INABA_S40G
100
AcDbAlignedDimension
 13
9887.296989988719
 23
2253.772320667829
 33
0.0
 14
9827.296989988717
 24
4328.772320667835
 34
0.0
 50
90.0
100
AcDbRotatedDimension
1001
ACAD
1000
DSTYLE
1002
{
1070
   174
1070
     0
1070
   272
1070
     1
1070
   288
1070
     0
1070
   341
1005
0
1002
}
  0
DIMENSION
  5
1766B
330
747D
100
AcDbEntity
  8
寸法
100
AcDbDimension
  2
*D20
 10
13642.22414796084
 20
4273.772320667837
 30
0.0
 11
13542.21233693722
 21
3263.772320667839
 31
0.0
 70
    32
 71
     5
 42
2020.0
  3
INABA_S40G
100
AcDbAlignedDimension
 13
12937.29698998872
 23
2253.772320667836
 33
0.0
 14
13017.29698998872
 24
4273.772320667837
 34
0.0
 50
90.0
100
AcDbRotatedDimension
1001
ACAD
1000
DSTYLE
1002
{
1070
   174
1070
     0
1070
   272
1070
     1
1070
   288
1070
     0
1070
   341
1005
0
1002
}
  0
LINE
  5
1766C
330
747D
100
AcDbEntity
  8
細線
 48
50.0
100
AcDbLine
 10
11964.79698998871
 20
4093.772320667834
 30
0.0
 11
11964.79698998871
 21
2303.772320667837
 31
0.0
  0
LINE
  5
1766D
330
747D
100
AcDbEntity
  8
細線
 48
50.0
100
AcDbLine
 10
11979.79698998872
 20
4093.772320667834
 30
0.0
 11
11979.79698998872
 21
2303.772320667837
 31
0.0
  0
LINE
  5
1766E
330
747D
100
AcDbEntity
  8
細線
 48
50.0
100
AcDbLine
 10
11839.79698998872
 20
4093.772320667834
 30
0.0
 11
11839.79698998872
 21
2303.772320667837
 31
0.0
  0
LINE
  5
1766F
330
747D
100
AcDbEntity
  8
細線
 48
50.0
100
AcDbLine
 10
11824.79698998871
 20
4093.772320667834
 30
0.0
 11
11824.79698998871
 21
2303.772320667837
 31
0.0
  0
LINE
  5
17670
330
747D
100
AcDbEntity
  8
細線
 48
50.0
100
AcDbLine
 10
11684.79698998871
 20
4093.772320667834
 30
0.0
 11
11684.79698998871
 21
2303.772320667837
 31
0.0
  0
LINE
  5
17671
330
747D
100
AcDbEntity
  8
細線
 48
50.0
100
AcDbLine
 10
11699.79698998871
 20
4093.772320667834
 30
0.0
 11
11699.79698998871
 21
2303.772320667837
 31
0.0
  0
LINE
  5
17672
330
747D
100
AcDbEntity
  8
部品1
100
AcDbLine
 10
11622.29698998872
 20
4093.772320667834
 30
0.0
 11
11622.29698998872
 21
2303.772320667837
 31
0.0
  0
LINE
  5
17673
330
747D
100
AcDbEntity
  8
部品1
100
AcDbLine
 10
11265.81026251223
 20
4453.976708630853
 30
0.0
 11
11591.26527615526
 21
4436.458649671992
 31
0.0
  0
ARC
  5
17674
330
747D
100
AcDbEntity
  8
部品1
100
AcDbCircle
 10
13002.92452580265
 20
4167.796077933628
 30
0.0
 40
0.7
100
AcDbArc
 50
275.0921697642079
 51
354.1866997667579
  0
ARC
  5
17675
330
747D
100
AcDbEntity
  8
部品1
100
AcDbCircle
 10
13013.78387155198
 20
4244.839332751552
 30
0.0
 40
0.7
100
AcDbArc
 50
275.0921697642079
 51
354.1866997665479
  0
ARC
  5
17676
330
747D
100
AcDbEntity
  8
部品1
100
AcDbCircle
 10
13014.11227679458
 20
4241.153935894462
 30
0.0
 40
3.0
100
AcDbArc
 50
95.09216976420788
 51
174.1866997665479
  0
ARC
  5
17677
330
747D
100
AcDbEntity
  8
部品1
100
AcDbCircle
 10
13003.25293104526
 20
4164.110681076538
 30
0.0
 40
3.0
100
AcDbArc
 50
95.09216976420788
 51
174.1866997665479
  0
ARC
  5
17678
330
747D
100
AcDbEntity
  8
部品1
 48
50.0
100
AcDbCircle
 10
12992.22479577015
 20
4154.519936472655
 30
0.0
 40
7.0
100
AcDbArc
 50
267.8377559869492
 51
354.1866997665479
  0
ARC
  5
17679
330
747D
100
AcDbEntity
  8
部品1
 48
50.0
100
AcDbCircle
 10
13009.54689223467
 20
4265.422483614829
 30
0.0
 40
7.0
100
AcDbArc
 50
354.1866997665479
 51
87.03587545283228
  0
LINE
  5
1767A
330
747D
100
AcDbEntity
  8
部品1
 48
50.0
100
AcDbLine
 10
13000.26835937465
 20
4164.414542793441
 30
0.0
 11
12999.18879633491
 21
4153.810925799882
 31
0.0
  0
LINE
  5
1767B
330
747D
100
AcDbEntity
  8
部品1
 48
50.0
100
AcDbLine
 10
13011.12770512397
 20
4241.457797611365
 30
0.0
 11
13003.62092585913
 21
4167.725176866353
 31
0.0
  0
LINE
  5
1767C
330
747D
100
AcDbEntity
  8
部品1
 48
50.0
100
AcDbLine
 10
13016.51089279942
 20
4264.713472942054
 30
0.0
 11
13014.48027160845
 21
4244.768431684274
 31
0.0
  0
ARC
  5
1767D
330
747D
100
AcDbEntity
  8
部品1
100
AcDbCircle
 10
9833.334081860085
 20
4207.586479626739
 30
0.0
 40
0.7
100
AcDbArc
 50
181.0932240292109
 51
260.1877540314845
  0
ARC
  5
1767E
330
747D
100
AcDbEntity
  8
部品1
100
AcDbCircle
 10
9828.561408262475
 20
4300.452257826857
 30
0.0
 40
0.7
100
AcDbArc
 50
181.0932240292109
 51
260.1877540314845
  0
ARC
  5
1767F
330
747D
100
AcDbEntity
  8
部品1
100
AcDbCircle
 10
9827.930853859452
 20
4296.80638328946
 30
0.0
 40
3.0
100
AcDbArc
 50
1.093224029315139
 51
80.18775403169875
  0
ARC
  5
17680
330
747D
100
AcDbEntity
  8
部品1
100
AcDbCircle
 10
9832.703527457059
 20
4203.940605089341
 30
0.0
 40
3.0
100
AcDbArc
 50
1.093224029315139
 51
80.18775403169875
  0
ARC
  5
17681
330
747D
100
AcDbEntity
  8
部品1
 48
50.0
100
AcDbCircle
 10
9842.903659832259
 20
4193.54836170686
 30
0.0
 40
7.0
100
AcDbArc
 50
181.0932240293151
 51
267.8377559869492
  0
ARC
  5
17682
330
747D
100
AcDbEntity
  8
部品1
 48
50.0
100
AcDbCircle
 10
9834.480001730163
 20
4320.499421239955
 30
0.0
 40
7.0
100
AcDbArc
 50
87.03587545283228
 51
181.0932240293151
  0
LINE
  5
17683
330
747D
100
AcDbEntity
  8
部品1
 48
50.0
100
AcDbLine
 10
9835.702981383489
 20
4203.997842692524
 30
0.0
 11
9835.90493400392
 21
4193.414807299432
 31
0.0
  0
LINE
  5
17684
330
747D
100
AcDbEntity
  8
細線
 48
50.0
100
AcDbLine
 10
9833.096888326819
 20
4206.927890811333
 30
0.0
 11
13003.10055275746
 21
4167.11857183684
 31
0.0
  0
LINE
  5
17685
330
747D
100
AcDbEntity
  8
細線
 48
50.0
100
AcDbLine
 10
9828.336413089532
 20
4299.789402509197
 30
0.0
 11
13013.9723978347
 21
4244.165197868368
 31
0.0
  0
LINE
  5
17686
330
747D
100
AcDbEntity
  8
部品1
 48
50.0
100
AcDbLine
 10
9830.930307785884
 20
4296.863620892644
 30
0.0
 11
9832.634209277246
 21
4207.573124185997
 31
0.0
  0
LINE
  5
17687
330
747D
100
AcDbEntity
  8
部品1
 48
50.0
100
AcDbLine
 10
9827.481275901824
 20
4320.365866832528
 30
0.0
 11
9827.861535679637
 21
4300.438902386115
 31
0.0
  0
LINE
  5
17688
330
747D
100
AcDbEntity
  8
細線
 48
50.0
100
AcDbLine
 10
12984.26627318241
 20
4272.925743147304
 30
0.0
 11
12979.54930710072
 21
4147.993527212388
 31
0.0
  0
LINE
  5
17689
330
747D
100
AcDbEntity
  8
細線
 48
50.0
100
AcDbLine
 10
9860.296989988718
 20
4326.171997043239
 30
0.0
 11
9855.007888433211
 21
4186.086364415885
 31
0.0
  0
LINE
  5
1768A
330
747D
100
AcDbEntity
  8
部品1
100
AcDbLine
 10
9842.639554590672
 20
4186.553345736802
 30
0.0
 11
12991.96069052857
 21
4147.524920502596
 31
0.0
  0
LINE
  5
1768B
330
747D
100
AcDbEntity
  8
部品1
100
AcDbLine
 10
9834.84197634568
 20
4327.490056002101
 30
0.0
 11
13009.90886685018
 21
4272.413118376974
 31
0.0
  0
LINE
  5
1768C
330
747D
100
AcDbEntity
  8
部品1
 48
50.0
100
AcDbLine
 10
11291.26527615526
 20
4452.658649671991
 30
0.0
 11
11591.26527615526
 21
4452.658649671991
 31
0.0
  0
LINE
  5
1768D
330
747D
100
AcDbEntity
  8
部品1
 48
50.0
100
AcDbLine
 10
11591.26527615526
 20
4452.658649671991
 30
0.0
 11
11591.26527615526
 21
4436.458649671992
 31
0.0
  0
TEXT
  5
1768E
330
747D
100
AcDbEntity
  8
部品1
 48
50.0
100
AcDbText
 10
11279.53311137899
 20
4488.542671824425
 30
0.0
 40
120.0
  1
1000
  7
STYLE1
100
AcDbText
  0
TEXT
  5
1768F
330
747D
100
AcDbEntity
  8
部品1
 48
50.0
100
AcDbText
 10
11757.16613404408
 20
4351.041413606142
 30
0.0
 40
120.0
  1
32
 50
90.0
  7
STYLE1
100
AcDbText
  0
LINE
  5
17690
330
747D
100
AcDbEntity
  8
細線
 48
50.0
100
AcDbLine
 10
11279.79698998871
 20
4093.772320667834
 30
0.0
 11
11279.79698998871
 21
2303.772320667835
 31
0.0
  0
LINE
  5
17691
330
747D
100
AcDbEntity
  8
細線
 48
50.0
100
AcDbLine
 10
11264.79698998872
 20
4093.772320667834
 30
0.0
 11
11264.79698998872
 21
2303.772320667835
 31
0.0
  0
LINE
  5
17692
330
747D
100
AcDbEntity
  8
細線
 48
50.0
100
AcDbLine
 10
11404.79698998872
 20
4093.772320667834
 30
0.0
 11
11404.79698998872
 21
2303.772320667835
 31
0.0
  0
LINE
  5
17693
330
747D
100
AcDbEntity
  8
細線
 48
50.0
100
AcDbLine
 10
11419.79698998871
 20
4093.772320667834
 30
0.0
 11
11419.79698998871
 21
2303.772320667835
 31
0.0
  0
LINE
  5
17694
330
747D
100
AcDbEntity
  8
細線
 48
50.0
100
AcDbLine
 10
11559.79698998871
 20
4093.772320667834
 30
0.0
 11
11559.79698998871
 21
2303.772320667835
 31
0.0
  0
LINE
  5
17695
330
747D
100
AcDbEntity
  8
細線
 48
50.0
100
AcDbLine
 10
11544.79698998871
 20
4093.772320667834
 30
0.0
 11
11544.79698998871
 21
2303.772320667835
 31
0.0
  0
LINE
  5
17696
330
747D
100
AcDbEntity
  8
部品1
100
AcDbLine
 10
12882.29698998871
 20
4093.772320667838
 30
0.0
 11
12882.29698998871
 21
2303.772320667838
 31
0.0
  0
LINE
  5
17697
330
747D
100
AcDbEntity
  8
部品1
100
AcDbLine
 10
9887.296989988719
 20
4093.772320667834
 30
0.0
 11
12937.29698998871
 21
4093.772320667834
 31
0.0
  0
LINE
  5
17698
330
747D
100
AcDbEntity
  8
部品1
100
AcDbLine
 10
9942.296989988726
 20
2303.772320667835
 30
0.0
 11
12937.29698998872
 21
2303.772320667837
 31
0.0
  0
LINE
  5
17699
330
747D
100
AcDbEntity
  8
部品1
100
AcDbLine
 10
9942.296989988719
 20
4093.772320667834
 30
0.0
 11
9942.296989988726
 21
2153.772320667835
 31
0.0
  0
LINE
  5
1769A
330
747D
100
AcDbEntity
  8
部品1
100
AcDbLine
 10
9887.296989988719
 20
4185.914758596712
 30
0.0
 11
9887.296989988719
 21
2153.772320667835
 31
0.0
  0
DIMENSION
  5
1769B
330
747D
100
AcDbEntity
  8
寸法
100
AcDbDimension
  2
*D21
 10
9043.546860805458
 20
2253.772320667835
 30
0.0
 11
9043.546860805458
 21
1947.725076573346
 31
0.0
 70
   160
 71
     5
 42
50.0
  3
INABA_S40G
100
AcDbAlignedDimension
 13
9887.296989988719
 23
2303.772320667835
 33
0.0
 14
9832.296989988719
 24
2253.772320667835
 34
0.0
 50
90.0
100
AcDbRotatedDimension
1001
ACAD
1000
DSTYLE
1002
{
1070
   174
1070
     0
1070
   272
1070
     1
1070
   288
1070
     0
1070
   341
1005
0
1002
}
  0
LINE
  5
1769C
330
747D
100
AcDbEntity
  8
部品1
100
AcDbLine
 10
10362.29698998871
 20
4093.772320667834
 30
0.0
 11
10362.29698998871
 21
2303.772320667835
 31
0.0
  0
LINE
  5
1769D
330
747D
100
AcDbEntity
  8
部品1
100
AcDbLine
 10
12937.29698998872
 20
4148.202348448955
 30
0.0
 11
12937.29698998872
 21
2153.772320667837
 31
0.0
  0
LINE
  5
1769E
330
747D
100
AcDbEntity
  8
部品1
100
AcDbLine
 10
12882.29698998871
 20
4093.772320667836
 30
0.0
 11
12882.29698998871
 21
2303.772320667837
 31
0.0
  0
DIMENSION
  5
1769F
330
747D
100
AcDbEntity
  8
寸法
 48
50.0
100
AcDbDimension
  2
*D22
 10
9887.296989988719
 20
4727.42977424714
 30
0.0
 11
11412.29698998871
 21
4727.42977424714
 31
0.0
 70
   160
  1
柱外寸法<>
 71
     5
 42
3050.0
  3
INABA_S40G
100
AcDbAlignedDimension
 13
12937.29698998872
 23
4275.58300027949
 33
0.0
 14
9887.296989988719
 24
4324.773938790811
 34
0.0
100
AcDbRotatedDimension
1001
ACAD
1000
DSTYLE
1002
{
1070
   174
1070
     0
1070
   272
1070
     1
1070
   288
1070
     0
1070
   341
1005
0
1002
}
  0
DIMENSION
  5
176A0
330
747D
100
AcDbEntity
  8
寸法
 48
50.0
100
AcDbDimension
  2
*D23
 10
9827.296989988717
 20
4727.429774247139
 30
0.0
 11
9517.659194713127
 21
4727.429774247139
 31
0.0
 70
   160
 71
     5
 42
60.0
  3
INABA_S40G
100
AcDbAlignedDimension
 13
9887.296989988719
 23
4324.773938790811
 33
0.0
 14
9827.296989988717
 24
4328.772320667839
 34
0.0
100
AcDbRotatedDimension
1001
ACAD
1000
DSTYLE
1002
{
1070
   174
1070
     0
1070
   272
1070
     1
1070
   288
1070
     0
1070
   341
1005
0
1002
}
  0
DIMENSION
  5
176A1
330
747D
100
AcDbEntity
  8
寸法
 48
50.0
100
AcDbDimension
  2
*D24
 10
9827.296989988717
 20
4957.543367033417
 30
0.0
 11
11422.29698998872
 21
4957.543367033417
 31
0.0
 70
   160
 71
     5
 42
3190.0
  3
INABA_S40G
100
AcDbAlignedDimension
 13
13017.29698998872
 23
4273.772320667837
 33
0.0
 14
9827.296989988717
 24
4328.772320667839
 34
0.0
100
AcDbRotatedDimension
1001
ACAD
1000
DSTYLE
1002
{
1070
   174
1070
     0
1070
   272
1070
     1
1070
   288
1070
     0
1070
   341
1005
0
1002
}
  0
LINE
  5
176A2
330
747D
100
AcDbEntity
  8
部品1
100
AcDbLine
 10
9942.296989988726
 20
2253.772320667835
 30
0.0
 11
12937.29698998872
 21
2253.772320667835
 31
0.0
  0
LINE
  5
176A3
330
747D
100
AcDbEntity
  8
細線
 48
50.0
100
AcDbLine
 10
10439.79698998872
 20
4093.772320667834
 30
0.0
 11
10439.79698998872
 21
2303.772320667835
 31
0.0
  0
LINE
  5
176A4
330
747D
100
AcDbEntity
  8
細線
 48
50.0
100
AcDbLine
 10
10424.79698998872
 20
4093.772320667834
 30
0.0
 11
10424.79698998872
 21
2303.772320667835
 31
0.0
  0
LINE
  5
176A5
330
747D
100
AcDbEntity
  8
細線
 48
50.0
100
AcDbLine
 10
10564.79698998872
 20
4093.772320667834
 30
0.0
 11
10564.79698998872
 21
2303.772320667835
 31
0.0
  0
LINE
  5
176A6
330
747D
100
AcDbEntity
  8
細線
 48
50.0
100
AcDbLine
 10
10579.79698998872
 20
4093.772320667834
 30
0.0
 11
10579.79698998872
 21
2303.772320667835
 31
0.0
  0
LINE
  5
176A7
330
747D
100
AcDbEntity
  8
細線
 48
50.0
100
AcDbLine
 10
10719.79698998872
 20
4093.772320667834
 30
0.0
 11
10719.79698998872
 21
2303.772320667835
 31
0.0
  0
LINE
  5
176A8
330
747D
100
AcDbEntity
  8
細線
 48
50.0
100
AcDbLine
 10
10704.79698998872
 20
4093.772320667834
 30
0.0
 11
10704.79698998872
 21
2303.772320667835
 31
0.0
  0
LINE
  5
176A9
330
747D
100
AcDbEntity
  8
細線
 48
50.0
100
AcDbLine
 10
10284.79698998872
 20
4093.772320667834
 30
0.0
 11
10284.79698998872
 21
2303.772320667835
 31
0.0
  0
LINE
  5
176AA
330
747D
100
AcDbEntity
  8
細線
 48
50.0
100
AcDbLine
 10
10299.79698998872
 20
4093.772320667834
 30
0.0
 11
10299.79698998872
 21
2303.772320667835
 31
0.0
  0
LINE
  5
176AB
330
747D
100
AcDbEntity
  8
細線
 48
50.0
100
AcDbLine
 10
10159.79698998872
 20
4093.772320667834
 30
0.0
 11
10159.79698998872
 21
2303.772320667835
 31
0.0
  0
LINE
  5
176AC
330
747D
100
AcDbEntity
  8
細線
 48
50.0
100
AcDbLine
 10
10144.79698998872
 20
4093.772320667834
 30
0.0
 11
10144.79698998872
 21
2303.772320667835
 31
0.0
  0
LINE
  5
176AD
330
747D
100
AcDbEntity
  8
細線
 48
50.0
100
AcDbLine
 10
10004.79698998872
 20
4093.772320667834
 30
0.0
 11
10004.79698998872
 21
2303.772320667835
 31
0.0
  0
LINE
  5
176AE
330
747D
100
AcDbEntity
  8
細線
 48
50.0
100
AcDbLine
 10
10019.79698998872
 20
4093.772320667834
 30
0.0
 11
10019.79698998872
 21
2303.772320667835
 31
0.0
  0
DIMENSION
  5
176AF
330
747D
100
AcDbEntity
  8
寸法
 48
50.0
100
AcDbDimension
  2
*D25
 10
13017.29698998872
 20
4727.42977424714
 30
0.0
 11
13223.34423408321
 21
4727.42977424714
 31
0.0
 70
   160
 71
     5
 42
80.0
  3
INABA_S40G
100
AcDbAlignedDimension
 13
12937.29698998872
 23
4275.58300027949
 33
0.0
 14
13017.29698998872
 24
4273.772320667838
 34
0.0
100
AcDbRotatedDimension
1001
ACAD
1000
DSTYLE
1002
{
1070
   174
1070
     0
1070
   272
1070
     1
1070
   288
1070
     0
1070
   341
1005
0
1002
}
  0
LINE
  5
176B0
330
747D
100
AcDbEntity
  8
部品1
100
AcDbLine
 10
10782.29698998871
 20
4093.772320667834
 30
0.0
 11
10782.29698998871
 21
2303.772320667835
 31
0.0
  0
LINE
  5
176B1
330
747D
100
AcDbEntity
  8
細線
 48
50.0
100
AcDbLine
 10
11124.79698998872
 20
4093.772320667834
 30
0.0
 11
11124.79698998872
 21
2303.772320667835
 31
0.0
  0
LINE
  5
176B2
330
747D
100
AcDbEntity
  8
細線
 48
50.0
100
AcDbLine
 10
11139.79698998871
 20
4093.772320667834
 30
0.0
 11
11139.79698998872
 21
2303.772320667835
 31
0.0
  0
LINE
  5
176B3
330
747D
100
AcDbEntity
  8
細線
 48
50.0
100
AcDbLine
 10
10999.79698998871
 20
4093.772320667834
 30
0.0
 11
10999.79698998872
 21
2303.772320667835
 31
0.0
  0
LINE
  5
176B4
330
747D
100
AcDbEntity
  8
細線
 48
50.0
100
AcDbLine
 10
10984.79698998872
 20
4093.772320667834
 30
0.0
 11
10984.79698998872
 21
2303.772320667835
 31
0.0
  0
LINE
  5
176B5
330
747D
100
AcDbEntity
  8
細線
 48
50.0
100
AcDbLine
 10
10844.79698998872
 20
4093.772320667834
 30
0.0
 11
10844.79698998872
 21
2303.772320667835
 31
0.0
  0
LINE
  5
176B6
330
747D
100
AcDbEntity
  8
細線
 48
50.0
100
AcDbLine
 10
10859.79698998871
 20
4093.772320667834
 30
0.0
 11
10859.79698998872
 21
2303.772320667835
 31
0.0
  0
LINE
  5
176B7
330
747D
100
AcDbEntity
  8
部品1
100
AcDbLine
 10
11202.29698998872
 20
4093.772320667834
 30
0.0
 11
11202.29698998872
 21
2303.772320667835
 31
0.0
  0
LINE
  5
176B8
330
747D
100
AcDbEntity
  8
細線
 48
50.0
100
AcDbLine
 10
12539.79698998872
 20
4093.772320667836
 30
0.0
 11
12539.79698998872
 21
2303.772320667837
 31
0.0
  0
LINE
  5
176B9
330
747D
100
AcDbEntity
  8
細線
 48
50.0
100
AcDbLine
 10
12524.79698998872
 20
4093.772320667836
 30
0.0
 11
12524.79698998872
 21
2303.772320667837
 31
0.0
  0
LINE
  5
176BA
330
747D
100
AcDbEntity
  8
細線
 48
50.0
100
AcDbLine
 10
12664.79698998872
 20
4093.772320667836
 30
0.0
 11
12664.79698998872
 21
2303.772320667837
 31
0.0
  0
LINE
  5
176BB
330
747D
100
AcDbEntity
  8
細線
 48
50.0
100
AcDbLine
 10
12679.79698998872
 20
4093.772320667836
 30
0.0
 11
12679.79698998872
 21
2303.772320667837
 31
0.0
  0
LINE
  5
176BC
330
747D
100
AcDbEntity
  8
細線
 48
50.0
100
AcDbLine
 10
12819.79698998872
 20
4093.772320667836
 30
0.0
 11
12819.79698998872
 21
2303.772320667837
 31
0.0
  0
LINE
  5
176BD
330
747D
100
AcDbEntity
  8
細線
 48
50.0
100
AcDbLine
 10
12804.79698998872
 20
4093.772320667836
 30
0.0
 11
12804.79698998872
 21
2303.772320667837
 31
0.0
  0
DIMENSION
  5
176BE
330
747D
100
AcDbEntity
  8
寸法
 48
50.0
100
AcDbDimension
  2
*D26
 10
9266.688583220327
 20
4203.117579541166
 30
0.0
 11
9277.354058479252
 21
4573.964242782868
 31
0.0
 70
   161
 71
     5
 42
141.0
  3
INABA_S40G
100
AcDbAlignedDimension
 13
9846.693010147298
 23
4327.495069502514
 33
0.0
 14
9842.639554590672
 24
4186.553345736802
 34
0.0
1001
ACAD
1000
DSTYLE
1002
{
1070
   174
1070
     0
1070
   272
1070
     1
1070
   288
1070
     0
1070
   341
1005
0
1002
}
  0
LINE
  5
176BF
330
747D
100
AcDbEntity
  8
部品1
100
AcDbLine
 10
12042.29698998871
 20
4093.772320667834
 30
0.0
 11
12042.29698998871
 21
2303.772320667837
 31
0.0
  0
LINE
  5
176C0
330
747D
100
AcDbEntity
  8
細線
 48
50.0
100
AcDbLine
 10
12119.79698998872
 20
4093.772320667834
 30
0.0
 11
12119.79698998872
 21
2303.772320667837
 31
0.0
  0
LINE
  5
176C1
330
747D
100
AcDbEntity
  8
細線
 48
50.0
100
AcDbLine
 10
12104.79698998871
 20
4093.772320667834
 30
0.0
 11
12104.79698998871
 21
2303.772320667837
 31
0.0
  0
LINE
  5
176C2
330
747D
100
AcDbEntity
  8
細線
 48
50.0
100
AcDbLine
 10
12244.79698998871
 20
4093.772320667834
 30
0.0
 11
12244.79698998871
 21
2303.772320667837
 31
0.0
  0
LINE
  5
176C3
330
747D
100
AcDbEntity
  8
細線
 48
50.0
100
AcDbLine
 10
12259.79698998872
 20
4093.772320667834
 30
0.0
 11
12259.79698998872
 21
2303.772320667837
 31
0.0
  0
LINE
  5
176C4
330
747D
100
AcDbEntity
  8
細線
 48
50.0
100
AcDbLine
 10
12399.79698998872
 20
4093.772320667834
 30
0.0
 11
12399.79698998872
 21
2303.772320667837
 31
0.0
  0
LINE
  5
176C5
330
747D
100
AcDbEntity
  8
細線
 48
50.0
100
AcDbLine
 10
12384.79698998872
 20
4093.772320667834
 30
0.0
 11
12384.79698998872
 21
2303.772320667837
 31
0.0
  0
LINE
  5
176C6
330
747D
100
AcDbEntity
  8
部品1
100
AcDbLine
 10
12462.2969899887
 20
4093.772320667836
 30
0.0
 11
12462.2969899887
 21
2303.772320667838
 31
0.0
  0
LWPOLYLINE
  5
176C7
330
747D
100
AcDbEntity
  8
部品1
100
AcDbPolyline
 90
        4
 70
     1
 43
0.0
 10
11040.5616568745
 20
1503.772320667842
 10
11040.5616568745
 20
1263.879999122309
 10
11804.03232310293
 20
1263.879999122309
 10
11804.03232310293
 20
1503.772320667842
  0
TEXT
  5
176C8
330
747D
100
AcDbEntity
  8
部品1
100
AcDbText
 10
11130.0077582981
 20
1310.878791449318
 30
0.0
 40
135.0
  1
側面図
  7
STYLE2
100
AcDbText
  0
DIMENSION
  5
17BEA
330
747D
100
AcDbEntity
  8
寸法
 48
50.0
100
AcDbDimension
  2
*D27
 10
7484.004201368034
 20
4093.772320667834
 30
0.0
 11
7484.004201368034
 21
4332.257602042075
 31
0.0
 70
   160
 71
     5
 42
164.9999999999995
  3
INABA_S40G
100
AcDbAlignedDimension
 13
7196.461099046288
 23
3928.772320667835
 33
0.0
 14
7196.461099046288
 24
4093.772320667834
 34
0.0
 50
90.0
100
AcDbRotatedDimension
1001
ACAD
1000
DSTYLE
1002
{
1002
}
  0
DIMENSION
  5
17BEB
330
747D
100
AcDbEntity
  8
寸法
 48
50.0
100
AcDbDimension
  2
*D28
 10
7484.004201368034
 20
3928.772320667835
 30
0.0
 11
7624.174024614401
 21
3929.739520507494
 31
0.0
 70
   160
 71
     5
 42
27.00000000000045
  3
INABA_S40G
100
AcDbAlignedDimension
 13
7196.461099046288
 23
3901.772320667835
 33
0.0
 14
7196.461099046288
 24
3928.772320667835
 34
0.0
 50
90.0
100
AcDbRotatedDimension
1001
ACAD
1000
DSTYLE
1002
{
1070
   279
1070
     2
1002
}
  0
DIMENSION
  5
17BEC
330
747D
100
AcDbEntity
  8
寸法
 48
50.0
100
AcDbDimension
  2
*D29
 10
7484.004201368034
 20
3901.772320667835
 30
0.0
 11
7384.004201368033
 21
3077.772320667837
 31
0.0
 70
    32
  1
有効開口部高サ <>
 71
     5
 42
1648.0
  3
INABA_S40G
100
AcDbAlignedDimension
 13
7196.461099046288
 23
2253.772320667835
 33
0.0
 14
7196.461099046288
 24
3901.772320667835
 34
0.0
 50
90.0
100
AcDbRotatedDimension
  0
LINE
  5
17D0F
330
747D
100
AcDbEntity
  8
仕様書枠
 48
50.0
100
AcDbLine
 10
16307.19999999999
 20
8859.600000000005
 30
0.0
 11
13127.2
 21
8859.600000000005
 31
0.0
  0
TEXT
  5
17D11
330
747D
100
AcDbEntity
  8
文字
 62
     7
 48
50.0
100
AcDbText
 10
13583.11819016569
 20
10760.01374588373
 30
0.0
 40
100.0
  1
柱
  7
STYLE1
100
AcDbText
  0
TEXT
  5
17D13
330
747D
100
AcDbEntity
  8
文字
 62
     7
 48
50.0
100
AcDbText
 10
15022.63965474517
 20
10760.01374588372
 30
0.0
 40
100.0
  1
F12         1.0,1.2
  7
STYLE1
100
AcDbText
  0
TEXT
  5
17D15
330
747D
100
AcDbEntity
  8
文字
 62
     7
 48
50.0
100
AcDbText
 10
15022.63965474516
 20
9230.013745883727
 30
0.0
 40
100.0
  1
F12            0.7
  7
STYLE1
100
AcDbText
  0
LINE
  5
17E0D
330
747D
100
AcDbEntity
  8
部品1
100
AcDbLine
 10
6721.46109904629
 20
10221.94179196931
 30
0.0
 11
6721.46109904629
 21
10193.94179196931
 31
0.0
  0
ARC
  5
17F0C
330
747D
100
AcDbEntity
  8
部品1
 48
0.01
100
AcDbCircle
 10
6408.461099046292
 20
4126.272320667834
 30
0.0
 40
2.0
100
AcDbArc
 50
180.0
 51
270.0
  0
ARC
  5
17F0D
330
747D
100
AcDbEntity
  8
部品1
 48
0.01
100
AcDbCircle
 10
6408.461099046288
 20
4157.772320667834
 30
0.0
 40
2.0
100
AcDbArc
 50
90.0
 51
180.0
  0
ARC
  5
17F0E
330
747D
100
AcDbEntity
  8
部品1
 48
0.01
100
AcDbCircle
 10
6584.461099046288
 20
4126.272320667834
 30
0.0
 40
2.0
100
AcDbArc
 50
270.0
 51
0.0
  0
ARC
  5
17F0F
330
747D
100
AcDbEntity
  8
部品1
 48
0.01
100
AcDbCircle
 10
6584.461099046288
 20
4157.772320667834
 30
0.0
 40
2.0
100
AcDbArc
 50
0.0
 51
90.0
  0
LINE
  5
17F10
330
747D
100
AcDbEntity
  8
細線
100
AcDbLine
 10
6496.461099046292
 20
4130.272320667835
 30
0.0
 11
6422.461099046287
 21
4130.272320667835
 31
0.0
  0
LINE
  5
17F11
330
747D
100
AcDbEntity
  8
細線
100
AcDbLine
 10
6496.461099046289
 20
4153.272320667834
 30
0.0
 11
6570.461099046288
 21
4153.272320667834
 31
0.0
  0
LINE
  5
17F12
330
747D
100
AcDbEntity
  8
細線
100
AcDbLine
 10
6570.461099046288
 20
4130.272320667835
 30
0.0
 11
6496.461099046289
 21
4130.272320667835
 31
0.0
  0
LINE
  5
17F13
330
747D
100
AcDbEntity
  8
細線
100
AcDbLine
 10
6422.461099046287
 20
4153.272320667834
 30
0.0
 11
6496.461099046289
 21
4153.272320667834
 31
0.0
  0
LINE
  5
17F14
330
747D
100
AcDbEntity
  8
細線
100
AcDbLine
 10
6422.461099046287
 20
4130.272320667835
 30
0.0
 11
6422.461099046287
 21
4153.272320667834
 31
0.0
  0
LINE
  5
17F15
330
747D
100
AcDbEntity
  8
細線
100
AcDbLine
 10
6570.461099046288
 20
4153.272320667834
 30
0.0
 11
6570.461099046288
 21
4130.272320667835
 31
0.0
  0
LINE
  5
17F16
330
747D
100
AcDbEntity
  8
部品1
 48
0.01
100
AcDbLine
 10
6406.461099046291
 20
4126.272320667834
 30
0.0
 11
6406.461099046288
 21
4157.772320667834
 31
0.0
  0
LINE
  5
17F17
330
747D
100
AcDbEntity
  8
部品1
 48
0.01
100
AcDbLine
 10
6584.461099046288
 20
4124.272320667834
 30
0.0
 11
6408.461099046292
 21
4124.272320667834
 31
0.0
  0
LINE
  5
17F18
330
747D
100
AcDbEntity
  8
部品1
 48
0.01
100
AcDbLine
 10
6586.461099046288
 20
4157.772320667834
 30
0.0
 11
6586.461099046288
 21
4126.272320667834
 31
0.0
  0
LINE
  5
17F19
330
747D
100
AcDbEntity
  8
部品1
 48
0.01
100
AcDbLine
 10
6408.461099046288
 20
4159.772320667834
 30
0.0
 11
6584.461099046288
 21
4159.772320667834
 31
0.0
  0
LINE
  5
17F1A
330
747D
100
AcDbEntity
  8
細線
100
AcDbLine
 10
6570.461099046288
 20
4147.272320667834
 30
0.0
 11
6496.461099046289
 21
4147.272320667834
 31
0.0
  0
LINE
  5
17F1B
330
747D
100
AcDbEntity
  8
細線
100
AcDbLine
 10
6570.461099046288
 20
4141.272320667835
 30
0.0
 11
6496.461099046289
 21
4141.272320667835
 31
0.0
  0
LINE
  5
17F1C
330
747D
100
AcDbEntity
  8
細線
100
AcDbLine
 10
6570.461099046291
 20
4135.272320667835
 30
0.0
 11
6496.461099046289
 21
4135.272320667835
 31
0.0
  0
LINE
  5
17F1D
330
747D
100
AcDbEntity
  8
細線
100
AcDbLine
 10
6570.461099046288
 20
4147.272320667834
 30
0.0
 11
6501.461099046288
 21
4147.272320667834
 31
0.0
  0
LINE
  5
17F1E
330
747D
100
AcDbEntity
  8
細線
100
AcDbLine
 10
6422.461099046292
 20
4147.272320667834
 30
0.0
 11
6496.461099046289
 21
4147.272320667834
 31
0.0
  0
LINE
  5
17F1F
330
747D
100
AcDbEntity
  8
細線
100
AcDbLine
 10
6422.461099046292
 20
4135.272320667835
 30
0.0
 11
6496.461099046289
 21
4135.272320667835
 31
0.0
  0
LINE
  5
17F20
330
747D
100
AcDbEntity
  8
細線
100
AcDbLine
 10
6422.461099046292
 20
4141.272320667835
 30
0.0
 11
6496.461099046289
 21
4141.272320667835
 31
0.0
  0
LINE
  5
17F21
330
747D
100
AcDbEntity
  8
細線
100
AcDbLine
 10
6496.461099046289
 20
4153.272320667834
 30
0.0
 11
6496.461099046292
 21
4130.272320667835
 31
0.0
  0
LINE
  5
17F22
330
747D
100
AcDbEntity
  8
細線
100
AcDbLine
 10
5266.461099046292
 20
4153.272320667834
 30
0.0
 11
5266.461099046289
 21
4130.272320667835
 31
0.0
  0
LINE
  5
17F23
330
747D
100
AcDbEntity
  8
細線
100
AcDbLine
 10
5340.461099046287
 20
4141.272320667835
 30
0.0
 11
5266.461099046292
 21
4141.272320667835
 31
0.0
  0
LINE
  5
17F24
330
747D
100
AcDbEntity
  8
細線
100
AcDbLine
 10
5340.461099046287
 20
4135.272320667835
 30
0.0
 11
5266.461099046292
 21
4135.272320667835
 31
0.0
  0
LINE
  5
17F25
330
747D
100
AcDbEntity
  8
細線
100
AcDbLine
 10
5340.461099046287
 20
4147.272320667834
 30
0.0
 11
5266.461099046292
 21
4147.272320667834
 31
0.0
  0
LINE
  5
17F26
330
747D
100
AcDbEntity
  8
細線
100
AcDbLine
 10
5192.461099046291
 20
4147.272320667834
 30
0.0
 11
5261.461099046291
 21
4147.272320667834
 31
0.0
  0
LINE
  5
17F27
330
747D
100
AcDbEntity
  8
細線
100
AcDbLine
 10
5192.461099046288
 20
4135.272320667835
 30
0.0
 11
5266.461099046292
 21
4135.272320667835
 31
0.0
  0
LINE
  5
17F28
330
747D
100
AcDbEntity
  8
細線
100
AcDbLine
 10
5192.461099046291
 20
4141.272320667835
 30
0.0
 11
5266.461099046292
 21
4141.272320667835
 31
0.0
  0
LINE
  5
17F29
330
747D
100
AcDbEntity
  8
細線
100
AcDbLine
 10
5192.461099046291
 20
4147.272320667834
 30
0.0
 11
5266.461099046292
 21
4147.272320667834
 31
0.0
  0
LINE
  5
17F2A
330
747D
100
AcDbEntity
  8
部品1
 48
0.01
100
AcDbLine
 10
5354.461099046291
 20
4159.772320667834
 30
0.0
 11
5178.461099046291
 21
4159.772320667834
 31
0.0
  0
LINE
  5
17F2B
330
747D
100
AcDbEntity
  8
部品1
 48
0.01
100
AcDbLine
 10
5176.461099046292
 20
4157.772320667834
 30
0.0
 11
5176.461099046292
 21
4126.272320667834
 31
0.0
  0
LINE
  5
17F2C
330
747D
100
AcDbEntity
  8
部品1
 48
0.01
100
AcDbLine
 10
5178.461099046291
 20
4124.272320667834
 30
0.0
 11
5354.461099046288
 21
4124.272320667834
 31
0.0
  0
LINE
  5
17F2D
330
747D
100
AcDbEntity
  8
部品1
 48
0.01
100
AcDbLine
 10
5356.461099046288
 20
4126.272320667834
 30
0.0
 11
5356.461099046292
 21
4157.772320667834
 31
0.0
  0
LINE
  5
17F2E
330
747D
100
AcDbEntity
  8
細線
100
AcDbLine
 10
5192.461099046291
 20
4153.272320667834
 30
0.0
 11
5192.461099046291
 21
4130.272320667835
 31
0.0
  0
LINE
  5
17F2F
330
747D
100
AcDbEntity
  8
細線
100
AcDbLine
 10
5340.461099046291
 20
4130.272320667835
 30
0.0
 11
5340.461099046291
 21
4153.272320667834
 31
0.0
  0
LINE
  5
17F30
330
747D
100
AcDbEntity
  8
細線
100
AcDbLine
 10
5340.461099046291
 20
4153.272320667834
 30
0.0
 11
5266.461099046292
 21
4153.272320667834
 31
0.0
  0
LINE
  5
17F31
330
747D
100
AcDbEntity
  8
細線
100
AcDbLine
 10
5192.461099046291
 20
4130.272320667835
 30
0.0
 11
5266.461099046292
 21
4130.272320667835
 31
0.0
  0
LINE
  5
17F32
330
747D
100
AcDbEntity
  8
細線
100
AcDbLine
 10
5266.461099046292
 20
4153.272320667834
 30
0.0
 11
5192.461099046291
 21
4153.272320667834
 31
0.0
  0
LINE
  5
17F33
330
747D
100
AcDbEntity
  8
細線
100
AcDbLine
 10
5266.461099046289
 20
4130.272320667835
 30
0.0
 11
5340.461099046291
 21
4130.272320667835
 31
0.0
  0
ARC
  5
17F34
330
747D
100
AcDbEntity
  8
部品1
 48
0.01
100
AcDbCircle
 10
5178.461099046291
 20
4157.772320667834
 30
0.0
 40
2.0
100
AcDbArc
 50
90.0
 51
180.0
  0
ARC
  5
17F35
330
747D
100
AcDbEntity
  8
部品1
 48
0.01
100
AcDbCircle
 10
5178.461099046291
 20
4126.272320667834
 30
0.0
 40
2.0
100
AcDbArc
 50
180.0
 51
270.0
  0
ARC
  5
17F36
330
747D
100
AcDbEntity
  8
部品1
 48
0.01
100
AcDbCircle
 10
5354.461099046291
 20
4157.772320667834
 30
0.0
 40
2.0
100
AcDbArc
 50
0.0
 51
90.0
  0
ARC
  5
17F37
330
747D
100
AcDbEntity
  8
部品1
 48
0.01
100
AcDbCircle
 10
5354.461099046288
 20
4126.272320667834
 30
0.0
 40
2.0
100
AcDbArc
 50
270.0
 51
0.0
  0
ARC
  5
17F38
330
747D
100
AcDbEntity
  8
細線
 48
50.0
100
AcDbCircle
 10
5581.461099046285
 20
2816.272320667835
 30
0.0
 40
15.0
100
AcDbArc
 50
90.0
 51
270.0
  0
ARC
  5
17F39
330
747D
100
AcDbEntity
  8
細線
 48
50.0
100
AcDbCircle
 10
5681.461099046285
 20
2816.272320667835
 30
0.0
 40
15.0
100
AcDbArc
 50
270.0
 51
90.0
  0
LINE
  5
17F3A
330
747D
100
AcDbEntity
  8
細線
 48
50.0
100
AcDbLine
 10
5581.461099046285
 20
2831.272320667835
 30
0.0
 11
5681.461099046285
 21
2831.272320667835
 31
0.0
  0
LINE
  5
17F3B
330
747D
100
AcDbEntity
  8
細線
 48
50.0
100
AcDbLine
 10
5681.461099046285
 20
2801.272320667835
 30
0.0
 11
5581.461099046285
 21
2801.272320667835
 31
0.0
  0
LINE
  5
17F3C
330
747D
100
AcDbEntity
  8
細線
 48
50.0
100
AcDbLine
 10
6181.461099046285
 20
2801.272320667835
 30
0.0
 11
6081.461099046285
 21
2801.272320667835
 31
0.0
  0
LINE
  5
17F3D
330
747D
100
AcDbEntity
  8
細線
 48
50.0
100
AcDbLine
 10
6081.461099046285
 20
2831.272320667835
 30
0.0
 11
6181.461099046285
 21
2831.272320667835
 31
0.0
  0
ARC
  5
17F3E
330
747D
100
AcDbEntity
  8
細線
 48
50.0
100
AcDbCircle
 10
6081.461099046285
 20
2816.272320667835
 30
0.0
 40
15.0
100
AcDbArc
 50
90.0
 51
270.0
  0
ARC
  5
17F3F
330
747D
100
AcDbEntity
  8
細線
 48
50.0
100
AcDbCircle
 10
6181.461099046285
 20
2816.272320667835
 30
0.0
 40
15.0
100
AcDbArc
 50
270.0
 51
90.0
  0
CIRCLE
  5
17F40
330
747D
100
AcDbEntity
  8
細線
 48
50.0
100
AcDbCircle
 10
5881.461099046285
 20
3141.272320667835
 30
0.0
 40
18.0
  0
ENDSEC
  0
SECTION
  2
OBJECTS
  0
DICTIONARY
  5
7471
330
0
100
AcDbDictionary
281
     1
  3
ACAD_COLOR
350
1675F
  3
ACAD_GROUP
350
7472
  3
ACAD_LAYOUT
350
16760
  3
ACAD_MATERIAL
350
1675E
  3
ACAD_MLINESTYLE
350
7473
  3
ACAD_PLOTSETTINGS
350
16761
  3
ACAD_PLOTSTYLENAME
350
1675C
  3
ACDBHEADERROUNDTRIPXREC
350
17FAC
  3
AcDbVariableDictionary
350
168BB
  3
CONTENTDICTIONARY
350
E71C
  3
DRAWINGVARIABLESDICT
350
F3B9
  0
DICTIONARY
  5
16DD9
330
7467
100
AcDbDictionary
280
     1
281
     1
  3
ACAD_LAYERSTATES
360
16DDA
  0
DICTIONARY
  5
1675F
102
{ACAD_REACTORS
330
7471
102
}
330
7471
100
AcDbDictionary
281
     1
  0
DICTIONARY
  5
7472
102
{ACAD_REACTORS
330
7471
102
}
330
7471
100
AcDbDictionary
281
     1
  0
DICTIONARY
  5
16760
102
{ACAD_REACTORS
330
7471
102
}
330
7471
100
AcDbDictionary
281
     1
  3
Model
350
16762
  3
レイアウト1
350
16763
  0
DICTIONARY
  5
1675E
102
{ACAD_REACTORS
330
7471
102
}
330
7471
100
AcDbDictionary
281
     1
  0
DICTIONARY
  5
7473
102
{ACAD_REACTORS
330
7471
102
}
330
7471
100
AcDbDictionary
281
     1
  3
STANDARD
350
7480
  0
DICTIONARY
  5
16761
102
{ACAD_REACTORS
330
7471
102
}
330
7471
100
AcDbDictionary
281
     1
  0
ACDBDICTIONARYWDFLT
  5
1675C
102
{ACAD_REACTORS
330
7471
102
}
330
7471
100
AcDbDictionary
281
     1
  3
Normal
350
1675D
100
AcDbDictionaryWithDefault
340
1675D
  0
DICTIONARY
  5
17FAC
102
{ACAD_REACTORS
330
7471
102
}
330
7471
100
AcDbDictionary
281
     1
  3
COLORDICT
350
17FAE
  3
MATERIALDICT
350
17FAD
  0
DICTIONARY
  5
168BB
102
{ACAD_REACTORS
330
7471
102
}
330
7471
100
AcDbDictionary
281
     1
  3
DIMASSOC
350
168BC
  3
PROJECTNAME
350
168BD
  0
DICTIONARY
  5
E71C
102
{ACAD_REACTORS
330
7471
102
}
330
7471
100
AcDbDictionary
281
     1
  0
DICTIONARY
  5
F3B9
102
{ACAD_REACTORS
330
7471
102
}
330
7471
100
AcDbDictionary
281
     1
1001
DRAWINGVARIABLESXDATA
1000
POLARMODE
1000
1
  0
DICTIONARY
  5
16DDA
102
{ACAD_REACTORS
330
16DD9
102
}
330
16DD9
100
AcDbDictionary
281
     1
  0
LAYOUT
  5
16762
102
{ACAD_XDICTIONARY
360
17FAF
102
}
102
{ACAD_REACTORS
330
16760
102
}
330
16760
100
AcDbPlotSettings
  1

  2
Canon iR C3880/C4580 LIPSLX
  4
A3
  6

 40
5.873749732971191
 41
5.873747825622558
 42
5.873748779296875
 43
5.873748779296875
 44
296.9259948730469
 45
419.9466552734374
 46
0.0
 47
0.0
 48
0.0
 49
0.0
140
0.0
141
0.0
142
1.0
143
40.0
 70
 11952
 72
     1
 73
     1
 74
     2
  7
inaba.ctb
 75
    24
147
0.025
148
0.0
149
0.0
100
AcDbLayout
  1
Model
 70
     1
 71
     0
 10
0.0
 20
0.0
 11
12.0
 21
9.0
 12
0.0
 22
0.0
 32
0.0
 14
0.0
 24
0.0
 34
0.0
 15
0.0
 25
0.0
 35
0.0
146
0.0
 13
0.0
 23
0.0
 33
0.0
 16
1.0
 26
0.0
 36
0.0
 17
0.0
 27
1.0
 37
0.0
 76
     0
330
747D
  0
LAYOUT
  5
16763
102
{ACAD_XDICTIONARY
360
17FB1
102
}
102
{ACAD_REACTORS
330
16760
102
}
330
16760
100
AcDbPlotSettings
  1

  2
EPSON LP-7000C
  4

  6

 40
0.0
 41
0.0
 42
0.0
 43
0.0
 44
0.0
 45
0.0
 46
0.0
 47
0.0
 48
0.0
 49
0.0
140
0.0
141
0.0
142
1.0
143
1.0
 70
   688
 72
     0
 73
     0
 74
     5
  7
inaba.ctb
 75
    16
147
1.0
148
0.0
149
0.0
100
AcDbLayout
  1
レイアウト1
 70
     0
 71
     1
 10
0.0
 20
0.0
 11
420.0
 21
297.0
 12
0.0
 22
0.0
 32
0.0
 14
1.000000000000000E+20
 24
1.000000000000000E+20
 34
1.000000000000000E+20
 15
-1.000000000000000E+20
 25
-1.000000000000000E+20
 35
-1.000000000000000E+20
146
0.0
 13
0.0
 23
0.0
 33
0.0
 16
1.0
 26
0.0
 36
0.0
 17
0.0
 27
1.0
 37
0.0
 76
     0
330
747A
  0
MLINESTYLE
  5
7480
102
{ACAD_REACTORS
330
7473
102
}
330
7473
100
AcDbMlineStyle
  2
STANDARD
 70
     0
  3

 62
     0
 51
90.0
 52
90.0
 71
     2
 49
0.5
 62
   256
  6
BYLAYER
 49
-0.5
 62
   256
  6
BYLAYER
  0
ACDBPLACEHOLDER
  5
1675D
102
{ACAD_REACTORS
330
1675C
102
}
330
1675C
  0
XRECORD
  5
17FAE
102
{ACAD_REACTORS
330
17FAC
102
}
330
17FAC
100
AcDbXrecord
280
     1
340
1675F
  0
XRECORD
  5
17FAD
102
{ACAD_REACTORS
330
17FAC
102
}
330
17FAC
100
AcDbXrecord
280
     1
340
1675E
  0
DICTIONARYVAR
  5
168BC
102
{ACAD_REACTORS
330
168BB
102
}
330
168BB
100
DictionaryVariables
280
     0
  1
1
  0
DICTIONARYVAR
  5
168BD
102
{ACAD_REACTORS
330
168BB
102
}
330
168BB
100
DictionaryVariables
280
     0
  1

  0
DICTIONARY
  5
17FAF
330
16762
100
AcDbDictionary
280
     1
281
     1
  3
ACAD_XREC_ROUNDTRIP
360
17FB0
  0
DICTIONARY
  5
17FB1
330
16763
100
AcDbDictionary
280
     1
281
     1
  3
ACAD_XREC_ROUNDTRIP
360
17FB2
  0
XRECORD
  5
17FB0
102
{ACAD_REACTORS
330
17FAF
102
}
330
17FAF
100
AcDbXrecord
280
     1
102
SHADEPLOT
 70
     0
102
SHADEPLOTRESLEVEL
 70
     2
102
SHADEPLOTCUSTOMDPI
 70
   300
  0
XRECORD
  5
17FB2
102
{ACAD_REACTORS
330
17FB1
102
}
330
17FB1
100
AcDbXrecord
280
     1
102
SHADEPLOT
 70
     0
102
SHADEPLOTRESLEVEL
 70
     2
102
SHADEPLOTCUSTOMDPI
 70
   300
  0
ENDSEC
  0
EOF
