  0
SECTION
  2
HEADER
  9
$ACADVER
  1
AC1015
  9
$ACADMAINTVER
 70
    20
  9
$DWGCODEPAGE
  3
ANSI_932
  9
$INSBASE
 10
0.0
 20
0.0
 30
0.0
  9
$EXTMIN
 10
139.9999999999995
 20
-0.0000000000000909
 30
0.0
  9
$EXTMAX
 10
16307.2
 20
11409.6
 30
0.0
  9
$LIMMIN
 10
0.0
 20
0.0
  9
$LIMMAX
 10
16800.0
 20
11880.0
  9
$ORTHOMODE
 70
     0
  9
$REGENMODE
 70
     1
  9
$FILLMODE
 70
     1
  9
$QTEXTMODE
 70
     0
  9
$MIRRTEXT
 70
     1
  9
$LTSCALE
 40
20.0
  9
$ATTMODE
 70
     1
  9
$TEXTSIZE
 40
4.0
  9
$TRACEWID
 40
1.0
  9
$TEXTSTYLE
  7
MSPゴシック
  9
$CLAYER
  8
寸法
  9
$CELTYPE
  6
BYLAYER
  9
$CECOLOR
 62
   256
  9
$CELTSCALE
 40
50.0
  9
$DISPSILH
 70
     0
  9
$DIMSCALE
 40
40.0
  9
$DIMASZ
 40
2.5
  9
$DIMEXO
 40
0.5
  9
$DIMDLI
 40
7.0
  9
$DIMRND
 40
0.0
  9
$DIMDLE
 40
0.0
  9
$DIMEXE
 40
1.5
  9
$DIMTP
 40
0.0
  9
$DIMTM
 40
0.0
  9
$DIMTXT
 40
3.0
  9
$DIMCEN
 40
0.0
  9
$DIMTSZ
 40
0.0
  9
$DIMTOL
 70
     0
  9
$DIMLIM
 70
     0
  9
$DIMTIH
 70
     0
  9
$DIMTOH
 70
     0
  9
$DIMSE1
 70
     0
  9
$DIMSE2
 70
     0
  9
$DIMTAD
 70
     3
  9
$DIMZIN
 70
     8
  9
$DIMBLK
  1

  9
$DIMASO
 70
     1
  9
$DIMSHO
 70
     1
  9
$DIMPOST
  1

  9
$DIMAPOST
  1

  9
$DIMALT
 70
     0
  9
$DIMALTD
 70
     2
  9
$DIMALTF
 40
0.0394
  9
$DIMLFAC
 40
1.0
  9
$DIMTOFL
 70
     1
  9
$DIMTVP
 40
0.0
  9
$DIMTIX
 70
     1
  9
$DIMSOXD
 70
     0
  9
$DIMSAH
 70
     1
  9
$DIMBLK1
  1
DOTSMALL
  9
$DIMBLK2
  1
DOTSMALL
  9
$DIMSTYLE
  2
INABA_S40G
  9
$DIMCLRD
 70
     0
  9
$DIMCLRE
 70
     0
  9
$DIMCLRT
 70
     7
  9
$DIMTFAC
 40
1.0
  9
$DIMGAP
 40
1.0
  9
$DIMJUST
 70
     0
  9
$DIMSD1
 70
     0
  9
$DIMSD2
 70
     0
  9
$DIMTOLJ
 70
     1
  9
$DIMTZIN
 70
     0
  9
$DIMALTZ
 70
     0
  9
$DIMALTTZ
 70
     0
  9
$DIMUPT
 70
     0
  9
$DIMDEC
 70
     1
  9
$DIMTDEC
 70
     4
  9
$DIMALTU
 70
     2
  9
$DIMALTTD
 70
     2
  9
$DIMTXSTY
  7
STYLE1
  9
$DIMAUNIT
 70
     0
  9
$DIMADEC
 70
     0
  9
$DIMALTRND
 40
0.0
  9
$DIMAZIN
 70
     0
  9
$DIMDSEP
 70
    46
  9
$DIMATFIT
 70
     3
  9
$DIMFRAC
 70
     0
  9
$DIMLDRBLK
  1

  9
$DIMLUNIT
 70
     2
  9
$DIMLWD
 70
    -2
  9
$DIMLWE
 70
    -2
  9
$DIMTMOVE
 70
     2
  9
$LUNITS
 70
     2
  9
$LUPREC
 70
     1
  9
$SKETCHINC
 40
1.0
  9
$FILLETRAD
 40
3.0
  9
$AUNITS
 70
     0
  9
$AUPREC
 70
     0
  9
$MENU
  1
acad
  9
$ELEVATION
 40
0.0
  9
$PELEVATION
 40
0.0
  9
$THICKNESS
 40
0.0
  9
$LIMCHECK
 70
     0
  9
$CHAMFERA
 40
0.0
  9
$CHAMFERB
 40
0.0
  9
$CHAMFERC
 40
0.0
  9
$CHAMFERD
 40
0.0
  9
$SKPOLY
 70
     0
  9
$TDCREATE
 40
2451368.612993866
  9
$TDUCREATE
 40
2451368.237993866
  9
$TDUPDATE
 40
2455569.647826968
  9
$TDUUPDATE
 40
2455569.272826968
  9
$TDINDWG
 40
0.8382270023
  9
$TDUSRTIMER
 40
0.8382270023
  9
$USRTIMER
 70
     1
  9
$ANGBASE
 50
0.0
  9
$ANGDIR
 70
     0
  9
$PDMODE
 70
     3
  9
$PDSIZE
 40
2.0
  9
$PLINEWID
 40
0.0
  9
$SPLFRAME
 70
     0
  9
$SPLINETYPE
 70
     6
  9
$SPLINESEGS
 70
     8
  9
$HANDSEED
  5
1A0D8
  9
$SURFTAB1
 70
     6
  9
$SURFTAB2
 70
     6
  9
$SURFTYPE
 70
     6
  9
$SURFU
 70
     6
  9
$SURFV
 70
     6
  9
$UCSBASE
  2

  9
$UCSNAME
  2

  9
$UCSORG
 10
0.0
 20
0.0
 30
0.0
  9
$UCSXDIR
 10
1.0
 20
0.0
 30
0.0
  9
$UCSYDIR
 10
0.0
 20
1.0
 30
0.0
  9
$UCSORTHOREF
  2

  9
$UCSORTHOVIEW
 70
     0
  9
$UCSORGTOP
 10
0.0
 20
0.0
 30
0.0
  9
$UCSORGBOTTOM
 10
0.0
 20
0.0
 30
0.0
  9
$UCSORGLEFT
 10
0.0
 20
0.0
 30
0.0
  9
$UCSORGRIGHT
 10
0.0
 20
0.0
 30
0.0
  9
$UCSORGFRONT
 10
0.0
 20
0.0
 30
0.0
  9
$UCSORGBACK
 10
0.0
 20
0.0
 30
0.0
  9
$PUCSBASE
  2

  9
$PUCSNAME
  2

  9
$PUCSORG
 10
0.0
 20
0.0
 30
0.0
  9
$PUCSXDIR
 10
1.0
 20
0.0
 30
0.0
  9
$PUCSYDIR
 10
0.0
 20
1.0
 30
0.0
  9
$PUCSORTHOREF
  2

  9
$PUCSORTHOVIEW
 70
     0
  9
$PUCSORGTOP
 10
0.0
 20
0.0
 30
0.0
  9
$PUCSORGBOTTOM
 10
0.0
 20
0.0
 30
0.0
  9
$PUCSORGLEFT
 10
0.0
 20
0.0
 30
0.0
  9
$PUCSORGRIGHT
 10
0.0
 20
0.0
 30
0.0
  9
$PUCSORGFRONT
 10
0.0
 20
0.0
 30
0.0
  9
$PUCSORGBACK
 10
0.0
 20
0.0
 30
0.0
  9
$USERI1
 70
     0
  9
$USERI2
 70
     0
  9
$USERI3
 70
     0
  9
$USERI4
 70
     0
  9
$USERI5
 70
     0
  9
$USERR1
 40
0.0
  9
$USERR2
 40
0.0
  9
$USERR3
 40
0.0
  9
$USERR4
 40
0.0
  9
$USERR5
 40
0.0
  9
$WORLDVIEW
 70
     1
  9
$SHADEDGE
 70
     3
  9
$SHADEDIF
 70
    70
  9
$TILEMODE
 70
     1
  9
$MAXACTVP
 70
    16
  9
$PINSBASE
 10
0.0
 20
0.0
 30
0.0
  9
$PLIMCHECK
 70
     0
  9
$PEXTMIN
 10
1.000000000000000E+20
 20
1.000000000000000E+20
 30
1.000000000000000E+20
  9
$PEXTMAX
 10
-1.000000000000000E+20
 20
-1.000000000000000E+20
 30
-1.000000000000000E+20
  9
$PLIMMIN
 10
0.0
 20
0.0
  9
$PLIMMAX
 10
420.0
 20
297.0
  9
$UNITMODE
 70
     0
  9
$VISRETAIN
 70
     0
  9
$PLINEGEN
 70
     0
  9
$PSLTSCALE
 70
     0
  9
$TREEDEPTH
 70
  3020
  9
$CMLSTYLE
  2
STANDARD
  9
$CMLJUST
 70
     0
  9
$CMLSCALE
 40
1.0
  9
$PROXYGRAPHICS
 70
     1
  9
$MEASUREMENT
 70
     1
  9
$CELWEIGHT
370
    -1
  9
$ENDCAPS
280
     0
  9
$JOINSTYLE
280
     0
  9
$LWDISPLAY
290
     0
  9
$INSUNITS
 70
     0
  9
$HYPERLINKBASE
  1

  9
$STYLESHEET
  1
inaba.ctb
  9
$XEDIT
290
     1
  9
$CEPSNTYPE
380
     0
  9
$PSTYLEMODE
290
     1
  9
$FINGERPRINTGUID
  2
{0E4A3AB3-ADAA-44DC-861C-9525B65BB1EC}
  9
$VERSIONGUID
  2
{AC06C0D6-81A6-4456-B4C1-15F6AF85A3CE}
  9
$EXTNAMES
290
     1
  9
$PSVPSCALE
 40
0.0
  9
$OLESTARTUP
290
     0
  0
ENDSEC
  0
SECTION
  2
CLASSES
  0
CLASS
  1
ACDBDICTIONARYWDFLT
  2
AcDbDictionaryWithDefault
  3
ObjectDBX Classes
 90
        0
280
     0
281
     0
  0
CLASS
  1
DICTIONARYVAR
  2
AcDbDictionaryVar
  3
ObjectDBX Classes
 90
        0
280
     0
281
     0
  0
CLASS
  1
ACDBPLACEHOLDER
  2
AcDbPlaceHolder
  3
ObjectDBX Classes
 90
        0
280
     0
281
     0
  0
CLASS
  1
LAYOUT
  2
AcDbLayout
  3
ObjectDBX Classes
 90
        0
280
     0
281
     0
  0
ENDSEC
  0
SECTION
  2
TABLES
  0
TABLE
  2
VPORT
  5
746D
330
0
100
AcDbSymbolTable
 70
     2
  0
VPORT
  5
1A0D0
330
746D
100
AcDbSymbolTableRecord
100
AcDbViewportTableRecord
  2
*Active
 70
     0
 10
0.0
 20
0.0
 11
1.0
 21
1.0
 12
11720.03466203306
 22
5704.872807327498
 13
0.0
 23
0.0
 14
10.0
 24
10.0
 15
10.0
 25
10.0
 16
0.0
 26
0.0
 36
1.0
 17
0.0
 27
0.0
 37
0.0
 40
11513.21133838256
 41
2.234800838574423
 42
50.0
 43
0.0
 44
0.0
 50
0.0
 51
0.0
 71
     0
 72
     0
 73
     1
 74
     0
 75
     0
 76
     0
 77
     0
 78
     0
281
     0
 65
     1
110
0.0
120
0.0
130
0.0
111
1.0
121
0.0
131
0.0
112
0.0
122
1.0
132
0.0
 79
     0
146
0.0
  0
ENDTAB
  0
TABLE
  2
LTYPE
  5
746A
330
0
100
AcDbSymbolTable
 70
     3
  0
LTYPE
  5
7477
330
746A
100
AcDbSymbolTableRecord
100
AcDbLinetypeTableRecord
  2
BYBLOCK
 70
     0
  3

 72
    65
 73
     0
 40
0.0
  0
LTYPE
  5
7478
330
746A
100
AcDbSymbolTableRecord
100
AcDbLinetypeTableRecord
  2
BYLAYER
 70
     0
  3

 72
    65
 73
     0
 40
0.0
  0
LTYPE
  5
7479
330
746A
100
AcDbSymbolTableRecord
100
AcDbLinetypeTableRecord
  2
CONTINUOUS
 70
     0
  3
Solid line
 72
    65
 73
     0
 40
0.0
  0
LTYPE
  5
781A
330
746A
100
AcDbSymbolTableRecord
100
AcDbLinetypeTableRecord
  2
HIDDEN
 70
     0
  3
__ __ __ __ __ __ __ __ __ __ __ __ __ __ __ __
 72
    65
 73
     2
 40
0.375
 49
0.25
 74
     0
 49
-0.125
 74
     0
  0
LTYPE
  5
781B
330
746A
100
AcDbSymbolTableRecord
100
AcDbLinetypeTableRecord
  2
PHANTOM
 70
     0
  3
______  __  __  ______  __  __  ______  __  __ 
 72
    65
 73
     6
 40
2.5
 49
1.25
 74
     0
 49
-0.25
 74
     0
 49
0.25
 74
     0
 49
-0.25
 74
     0
 49
0.25
 74
     0
 49
-0.25
 74
     0
  0
ENDTAB
  0
TABLE
  2
LAYER
  5
7467
102
{ACAD_XDICTIONARY
360
18AAA
102
}
330
0
100
AcDbSymbolTable
 70
    10
  0
LAYER
  5
7474
330
7467
100
AcDbSymbolTableRecord
100
AcDbLayerTableRecord
  2
0
 70
     0
 62
     7
  6
CONTINUOUS
370
    -3
390
17AE0
  0
LAYER
  5
DEB3
330
7467
100
AcDbSymbolTableRecord
100
AcDbLayerTableRecord
  2
寸法
 70
     0
 62
     4
  6
CONTINUOUS
370
    -3
390
17AE0
  0
LAYER
  5
DEB4
330
7467
100
AcDbSymbolTableRecord
100
AcDbLayerTableRecord
  2
部品1
 70
     0
 62
     7
  6
CONTINUOUS
370
    -3
390
17AE0
  0
LAYER
  5
DEB5
330
7467
100
AcDbSymbolTableRecord
100
AcDbLayerTableRecord
  2
補助
 70
     0
 62
    -1
  6
CONTINUOUS
370
    -3
390
17AE0
  0
LAYER
  5
DEB6
330
7467
100
AcDbSymbolTableRecord
100
AcDbLayerTableRecord
  2
文字
 70
     0
 62
     7
  6
CONTINUOUS
370
    -3
390
17AE0
  0
LAYER
  5
F255
330
7467
100
AcDbSymbolTableRecord
100
AcDbLayerTableRecord
  2
DEFPOINTS
 70
     0
 62
     7
  6
CONTINUOUS
290
     0
370
    -3
390
17AE0
  0
LAYER
  5
10B54
330
7467
100
AcDbSymbolTableRecord
100
AcDbLayerTableRecord
  2
仕様書枠
 70
     0
 62
   230
  6
CONTINUOUS
370
    -3
390
17AE0
  0
LAYER
  5
11729
330
7467
100
AcDbSymbolTableRecord
100
AcDbLayerTableRecord
  2
Ｇ．Ｌ
 70
     0
 62
    30
  6
CONTINUOUS
370
    -3
390
17AE0
  0
LAYER
  5
1173F
330
7467
100
AcDbSymbolTableRecord
100
AcDbLayerTableRecord
  2
細線
 70
     0
 62
     5
  6
CONTINUOUS
370
    -3
390
17AE0
  0
LAYER
  5
142E2
330
7467
100
AcDbSymbolTableRecord
100
AcDbLayerTableRecord
  2
破線
 70
     0
 62
     2
  6
HIDDEN
370
    -3
390
17AE0
  0
ENDTAB
  0
TABLE
  2
STYLE
  5
7468
330
0
100
AcDbSymbolTable
 70
     7
  0
STYLE
  5
7475
330
7468
100
AcDbSymbolTableRecord
100
AcDbTextStyleTableRecord
  2
STANDARD
 70
     0
 40
0.0
 41
1.0
 50
0.0
 71
     0
 42
4.0
  3
txt
  4
C:\AutoCAD LT\bigfont.shx
  0
STYLE
  5
763C
330
7468
100
AcDbSymbolTableRecord
100
AcDbTextStyleTableRecord
  2
MSMINCHO
 70
     0
 40
0.0
 41
1.0
 50
0.0
 71
     0
 42
1.199999999999999
  3
MS PMincho.ttf
  4

1001
ACAD
1000
MS PMincho
1071
    32786
  0
STYLE
  5
F706
330
7468
100
AcDbSymbolTableRecord
100
AcDbTextStyleTableRecord
  2
STYLE1
 70
     0
 40
0.0
 41
1.0
 50
0.0
 71
     0
 42
4.0
  3
isocp.shx
  4
bigfont.shx
  0
STYLE
  5
103BF
330
7468
100
AcDbSymbolTableRecord
100
AcDbTextStyleTableRecord
  2
STYLE2
 70
     0
 40
0.0
 41
1.0
 50
0.0
 71
     0
 42
100.0
  3
MS PGothic.ttf
  4

1001
ACAD
1000
MS PGothic
1071
    32818
  0
STYLE
  5
10BAA
330
7468
100
AcDbSymbolTableRecord
100
AcDbTextStyleTableRecord
  2
STYLE3
 70
     0
 40
0.0
 41
1.0
 50
0.0
 71
     0
 42
100.0
  3
DFPGothic-EB.ttf
  4

1001
ACAD
1000
DFPGothic-EB
1071
    32818
  0
STYLE
  5
11A15
330
7468
100
AcDbSymbolTableRecord
100
AcDbTextStyleTableRecord
  2
MSGOTHIC
 70
     0
 40
0.0
 41
1.0
 50
0.0
 71
     0
 42
3.5
  3
MS PGothic.ttf
  4

1001
ACAD
1000
MS PGothic
1071
    32818
  0
STYLE
  5
13E96
330
7468
100
AcDbSymbolTableRecord
100
AcDbTextStyleTableRecord
  2
MSPゴシック
 70
     0
 40
0.0
 41
1.0
 50
0.0
 71
     0
 42
4.0
  3
MS PGothic.ttf
  4

1001
ACAD
1000
MS PGothic
1071
    32818
  0
ENDTAB
  0
TABLE
  2
VIEW
  5
746B
330
0
100
AcDbSymbolTable
 70
     0
  0
ENDTAB
  0
TABLE
  2
UCS
  5
746C
330
0
100
AcDbSymbolTable
 70
     0
  0
ENDTAB
  0
TABLE
  2
APPID
  5
746E
330
0
100
AcDbSymbolTable
 70
     6
  0
APPID
  5
7476
330
746E
100
AcDbSymbolTableRecord
100
AcDbRegAppTableRecord
  2
ACAD
 70
     0
  0
APPID
  5
DEA9
330
746E
100
AcDbSymbolTableRecord
100
AcDbRegAppTableRecord
  2
CONTENTBLOCKICON
 70
     0
  0
APPID
  5
DEAA
330
746E
100
AcDbSymbolTableRecord
100
AcDbRegAppTableRecord
  2
CONTENTBLOCKDESCRIPTION
 70
     0
  0
APPID
  5
E71D
330
746E
100
AcDbSymbolTableRecord
100
AcDbRegAppTableRecord
  2
CONTENTTABDATA
 70
     0
  0
APPID
  5
E71E
330
746E
100
AcDbSymbolTableRecord
100
AcDbRegAppTableRecord
  2
CONTENTCURRENTTAB
 70
     0
  0
APPID
  5
F3BA
330
746E
100
AcDbSymbolTableRecord
100
AcDbRegAppTableRecord
  2
DRAWINGVARIABLESXDATA
 70
     0
  0
ENDTAB
  0
TABLE
  2
DIMSTYLE
  5
746F
330
0
100
AcDbSymbolTable
 70
     1
100
AcDbDimStyleTable
 71
     1
340
F71F
  0
DIMSTYLE
105
F71F
102
{ACAD_REACTORS
330
162CD
330
162CE
330
162CF
330
162D0
330
162E4
330
162E7
330
162EA
330
162EB
330
16301
330
16302
330
1631F
330
16320
330
16333
330
1659A
330
165E9
330
166DD
330
16913
330
17BC4
330
17BC3
330
17B87
330
17B88
330
17B86
330
17C47
330
17C46
330
18D84
330
18D93
330
18DA1
330
18DA2
330
18DA3
330
18DA7
330
18DD7
330
18DD8
330
18DD9
330
195FF
330
19600
330
19601
330
19611
330
198ED
330
198EE
330
198EF
330
1A088
102
}
330
746F
100
AcDbSymbolTableRecord
100
AcDbDimStyleTableRecord
  2
INABA_S40G
 70
     0
 40
40.0
 41
2.5
 42
0.5
 43
7.0
 44
1.5
 73
     0
 74
     0
 77
     3
 78
     8
140
3.0
141
0.0
143
0.0394
147
1.0
172
     1
173
     1
174
     1
178
     7
271
     1
340
F706
341
F770
343
F770
344
F770
  0
ENDTAB
  0
TABLE
  2
BLOCK_RECORD
  5
7466
330
0
100
AcDbSymbolTable
 70
    43
  0
BLOCK_RECORD
  5
747D
330
7466
100
AcDbSymbolTableRecord
100
AcDbBlockTableRecord
  2
*MODEL_SPACE
340
17AE5
  0
BLOCK_RECORD
  5
747A
330
7466
100
AcDbSymbolTableRecord
100
AcDbBlockTableRecord
  2
*PAPER_SPACE
340
17AE6
  0
BLOCK_RECORD
  5
F770
330
7466
100
AcDbSymbolTableRecord
100
AcDbBlockTableRecord
  2
_DOTSMALL
340
0
102
{BLKREFS
331
19C9D
331
19C9E
331
19CA6
331
19CA7
331
19CAF
331
19CB0
331
19CBA
331
19CBB
331
19CC3
331
19CC4
331
19CCE
331
19CCF
331
19CD7
331
19CD8
331
19CE1
331
19CE2
331
19CEB
331
19CEC
331
19D5E
331
19D5F
331
19D69
331
19D6A
331
19D73
331
19D74
331
19D7E
331
19D7F
331
19D88
331
19D89
331
19D9C
331
19D9D
331
19DA8
331
19DA9
331
19DB3
331
19DB4
331
19DC3
331
19DC4
331
19DCC
331
19DCD
331
19DD7
331
19DD8
331
19DE2
331
19DE3
331
19DEB
331
19DEC
331
19E44
331
19E45
331
19E4F
331
19E50
331
19EB1
331
19EB2
331
19EBA
331
19EBB
331
19EC5
331
19EC6
331
19ECC
331
19ECD
331
19ED7
331
19ED8
331
19EE9
331
19EEA
331
19EFF
331
19F00
331
19F0A
331
19F0B
331
19F3B
331
19F3C
331
1A053
331
1A054
331
1A05C
331
1A05D
331
1A065
331
1A066
331
1A06E
331
1A06F
331
1A077
331
1A078
331
1A09D
331
1A09E
331
1A0B1
331
1A0B2
331
1A0BD
331
1A0BE
102
}
  0
BLOCK_RECORD
  5
16338
330
7466
100
AcDbSymbolTableRecord
100
AcDbBlockTableRecord
  2
*D1
340
0
  0
BLOCK_RECORD
  5
16344
330
7466
100
AcDbSymbolTableRecord
100
AcDbBlockTableRecord
  2
*D2
340
0
  0
BLOCK_RECORD
  5
16352
330
7466
100
AcDbSymbolTableRecord
100
AcDbBlockTableRecord
  2
*D3
340
0
  0
BLOCK_RECORD
  5
16360
330
7466
100
AcDbSymbolTableRecord
100
AcDbBlockTableRecord
  2
*D4
340
0
  0
BLOCK_RECORD
  5
16384
330
7466
100
AcDbSymbolTableRecord
100
AcDbBlockTableRecord
  2
*D5
340
0
  0
BLOCK_RECORD
  5
1638F
330
7466
100
AcDbSymbolTableRecord
100
AcDbBlockTableRecord
  2
*D6
340
0
  0
BLOCK_RECORD
  5
1639B
330
7466
100
AcDbSymbolTableRecord
100
AcDbBlockTableRecord
  2
*D7
340
0
  0
BLOCK_RECORD
  5
163A9
330
7466
100
AcDbSymbolTableRecord
100
AcDbBlockTableRecord
  2
*D8
340
0
  0
BLOCK_RECORD
  5
163B8
330
7466
100
AcDbSymbolTableRecord
100
AcDbBlockTableRecord
  2
*D9
340
0
  0
BLOCK_RECORD
  5
163C7
330
7466
100
AcDbSymbolTableRecord
100
AcDbBlockTableRecord
  2
*D10
340
0
  0
BLOCK_RECORD
  5
163E1
330
7466
100
AcDbSymbolTableRecord
100
AcDbBlockTableRecord
  2
*D11
340
0
  0
BLOCK_RECORD
  5
163ED
330
7466
100
AcDbSymbolTableRecord
100
AcDbBlockTableRecord
  2
*D12
340
0
  0
BLOCK_RECORD
  5
163FB
330
7466
100
AcDbSymbolTableRecord
100
AcDbBlockTableRecord
  2
*D13
340
0
  0
BLOCK_RECORD
  5
165C4
330
7466
100
AcDbSymbolTableRecord
100
AcDbBlockTableRecord
  2
*D14
340
0
  0
BLOCK_RECORD
  5
165EA
330
7466
100
AcDbSymbolTableRecord
100
AcDbBlockTableRecord
  2
*D15
340
0
  0
BLOCK_RECORD
  5
166CF
330
7466
100
AcDbSymbolTableRecord
100
AcDbBlockTableRecord
  2
*D16
340
0
  0
BLOCK_RECORD
  5
16908
330
7466
100
AcDbSymbolTableRecord
100
AcDbBlockTableRecord
  2
*D17
340
0
  0
BLOCK_RECORD
  5
17BC5
330
7466
100
AcDbSymbolTableRecord
100
AcDbBlockTableRecord
  2
*D18
340
0
  0
BLOCK_RECORD
  5
17BD3
330
7466
100
AcDbSymbolTableRecord
100
AcDbBlockTableRecord
  2
*D19
340
0
  0
BLOCK_RECORD
  5
17BDE
330
7466
100
AcDbSymbolTableRecord
100
AcDbBlockTableRecord
  2
*D20
340
0
  0
BLOCK_RECORD
  5
17BEA
330
7466
100
AcDbSymbolTableRecord
100
AcDbBlockTableRecord
  2
*D21
340
0
  0
BLOCK_RECORD
  5
17BF8
330
7466
100
AcDbSymbolTableRecord
100
AcDbBlockTableRecord
  2
*D22
340
0
  0
BLOCK_RECORD
  5
17C48
330
7466
100
AcDbSymbolTableRecord
100
AcDbBlockTableRecord
  2
*D23
340
0
  0
BLOCK_RECORD
  5
17C56
330
7466
100
AcDbSymbolTableRecord
100
AcDbBlockTableRecord
  2
*D24
340
0
  0
BLOCK_RECORD
  5
18F8A
330
7466
100
AcDbSymbolTableRecord
100
AcDbBlockTableRecord
  2
*D25
340
0
  0
BLOCK_RECORD
  5
18F97
330
7466
100
AcDbSymbolTableRecord
100
AcDbBlockTableRecord
  2
*D26
340
0
  0
BLOCK_RECORD
  5
18FA4
330
7466
100
AcDbSymbolTableRecord
100
AcDbBlockTableRecord
  2
*D27
340
0
  0
BLOCK_RECORD
  5
18FB0
330
7466
100
AcDbSymbolTableRecord
100
AcDbBlockTableRecord
  2
*D28
340
0
  0
BLOCK_RECORD
  5
18FBE
330
7466
100
AcDbSymbolTableRecord
100
AcDbBlockTableRecord
  2
*D29
340
0
  0
BLOCK_RECORD
  5
18FCA
330
7466
100
AcDbSymbolTableRecord
100
AcDbBlockTableRecord
  2
*D30
340
0
  0
BLOCK_RECORD
  5
18FD8
330
7466
100
AcDbSymbolTableRecord
100
AcDbBlockTableRecord
  2
*D31
340
0
  0
BLOCK_RECORD
  5
18FE4
330
7466
100
AcDbSymbolTableRecord
100
AcDbBlockTableRecord
  2
*D32
340
0
  0
BLOCK_RECORD
  5
18FF0
330
7466
100
AcDbSymbolTableRecord
100
AcDbBlockTableRecord
  2
*D33
340
0
  0
BLOCK_RECORD
  5
196ED
330
7466
100
AcDbSymbolTableRecord
100
AcDbBlockTableRecord
  2
*D34
340
0
  0
BLOCK_RECORD
  5
196F9
330
7466
100
AcDbSymbolTableRecord
100
AcDbBlockTableRecord
  2
*D35
340
0
  0
BLOCK_RECORD
  5
19705
330
7466
100
AcDbSymbolTableRecord
100
AcDbBlockTableRecord
  2
*D36
340
0
  0
BLOCK_RECORD
  5
19713
330
7466
100
AcDbSymbolTableRecord
100
AcDbBlockTableRecord
  2
*D37
340
0
  0
BLOCK_RECORD
  5
1994D
330
7466
100
AcDbSymbolTableRecord
100
AcDbBlockTableRecord
  2
*D38
340
0
  0
BLOCK_RECORD
  5
19959
330
7466
100
AcDbSymbolTableRecord
100
AcDbBlockTableRecord
  2
*D39
340
0
  0
BLOCK_RECORD
  5
19967
330
7466
100
AcDbSymbolTableRecord
100
AcDbBlockTableRecord
  2
*D40
340
0
  0
BLOCK_RECORD
  5
19C48
330
7466
100
AcDbSymbolTableRecord
100
AcDbBlockTableRecord
  2
A$C5DBA5C3D
340
0
  0
BLOCK_RECORD
  5
1A089
330
7466
100
AcDbSymbolTableRecord
100
AcDbBlockTableRecord
  2
*D42
340
0
  0
ENDTAB
  0
ENDSEC
  0
SECTION
  2
BLOCKS
  0
BLOCK
  5
7489
330
747D
100
AcDbEntity
  8
0
100
AcDbBlockBegin
  2
*MODEL_SPACE
 70
     0
 10
0.0
 20
0.0
 30
0.0
  3
*MODEL_SPACE
  1

  0
ENDBLK
  5
748A
330
747D
100
AcDbEntity
  8
0
100
AcDbBlockEnd
  0
BLOCK
  5
7487
330
747A
100
AcDbEntity
 67
     1
  8
0
100
AcDbBlockBegin
  2
*PAPER_SPACE
 70
     0
 10
0.0
 20
0.0
 30
0.0
  3
*PAPER_SPACE
  1

  0
ENDBLK
  5
7488
330
747A
100
AcDbEntity
 67
     1
  8
0
100
AcDbBlockEnd
  0
BLOCK
  5
F771
330
F770
100
AcDbEntity
  8
0
 48
50.0
100
AcDbBlockBegin
  2
_DOTSMALL
 70
     0
 10
0.0
 20
0.0
 30
0.0
  3
_DOTSMALL
  1

  0
LWPOLYLINE
  5
F772
330
F770
100
AcDbEntity
  8
0
  6
ByBlock
 62
     0
 48
50.0
100
AcDbPolyline
 90
        2
 70
     1
 43
0.5
 10
-0.0625
 20
0.0
 42
1.0
 10
0.0625
 20
0.0
 42
1.0
  0
ENDBLK
  5
F776
330
F770
100
AcDbEntity
  8
0
 48
50.0
100
AcDbBlockEnd
  0
BLOCK
  5
164EB
330
16338
100
AcDbEntity
  8
0
 48
50.0
100
AcDbBlockBegin
  2
*D1
 70
     1
 10
0.0
 20
0.0
 30
0.0
  3
*D1
  1

  0
LINE
  5
19DE8
330
16338
100
AcDbEntity
  8
寸法
 62
     0
 48
50.0
370
    -2
100
AcDbLine
 10
9339.673057123665
 20
10237.49742454596
 30
0.0
 11
10027.09940285807
 21
10237.49742454596
 31
0.0
  0
LINE
  5
19DE9
330
16338
100
AcDbEntity
  8
寸法
 62
     0
 48
50.0
370
    -2
100
AcDbLine
 10
9339.673057123638
 20
7297.497424545952
 30
0.0
 11
10027.09940285807
 21
7297.497424545952
 31
0.0
  0
LINE
  5
19DEA
330
16338
100
AcDbEntity
  8
寸法
 62
     0
 48
50.0
370
    -2
100
AcDbLine
 10
9967.099402858071
 20
10237.49742454596
 30
0.0
 11
9967.099402858071
 21
7297.497424545952
 31
0.0
  0
INSERT
  5
19DEB
330
16338
100
AcDbEntity
  8
寸法
 62
     0
 48
50.0
370
    -2
100
AcDbBlockReference
  2
_DOTSMALL
 10
9967.099402858071
 20
10237.49742454596
 30
0.0
 41
100.0
 42
100.0
 43
100.0
 50
90.0
  0
INSERT
  5
19DEC
330
16338
100
AcDbEntity
  8
寸法
 62
     0
 48
50.0
370
    -2
100
AcDbBlockReference
  2
_DOTSMALL
 10
9967.099402858071
 20
7297.497424545952
 30
0.0
 41
100.0
 42
100.0
 43
100.0
 50
270.0
  0
MTEXT
  5
19DED
330
16338
100
AcDbEntity
  8
寸法
 62
     7
 48
50.0
100
AcDbMText
 10
9867.087591834447
 20
8767.497424545963
 30
0.0
 40
120.0
 41
0.0
 71
     5
 72
     1
  1
\A1;7X420=2940
  7
STYLE1
 11
0.0000000000000001
 21
1.0
 31
0.0
 73
     1
 44
1.0
1001
ACAD
1000
MTEXTBEGIN
1070
    73
1070
     1
1070
    44
1040
1.0
1070
    74
1070
     0
1000
MTEXTEND
  0
POINT
  5
19DEE
330
16338
100
AcDbEntity
  8
DEFPOINTS
 62
     0
 48
50.0
100
AcDbPoint
 10
9319.673057123663
 20
10237.49742454596
 30
0.0
  0
POINT
  5
19DEF
330
16338
100
AcDbEntity
  8
DEFPOINTS
 62
     0
 48
50.0
100
AcDbPoint
 10
9319.673057123639
 20
7297.497424545952
 30
0.0
  0
POINT
  5
19DF0
330
16338
100
AcDbEntity
  8
DEFPOINTS
 62
     0
 48
50.0
100
AcDbPoint
 10
9967.099402858071
 20
7297.497424545952
 30
0.0
  0
ENDBLK
  5
164F5
330
16338
100
AcDbEntity
  8
0
 48
50.0
100
AcDbBlockEnd
  0
BLOCK
  5
16414
330
16344
100
AcDbEntity
  8
0
 48
50.0
100
AcDbBlockBegin
  2
*D2
 70
     1
 10
0.0
 20
0.0
 30
0.0
  3
*D2
  1

  0
LINE
  5
19DDD
330
16344
100
AcDbEntity
  8
寸法
 62
     0
 48
50.0
370
    -2
100
AcDbLine
 10
9339.673057123638
 20
7297.497424545952
 30
0.0
 11
10027.09940285805
 21
7297.497424545952
 31
0.0
  0
LINE
  5
19DDE
330
16344
100
AcDbEntity
  8
寸法
 62
     0
 48
50.0
370
    -2
100
AcDbLine
 10
9339.673057123638
 20
7242.497424545956
 30
0.0
 11
10027.09940285805
 21
7242.497424545956
 31
0.0
  0
LINE
  5
19DDF
330
16344
100
AcDbEntity
  8
寸法
 62
     0
 48
50.0
370
    -2
100
AcDbLine
 10
9967.09940285805
 20
7297.497424545952
 30
0.0
 11
9967.09940285805
 21
7397.497424545952
 31
0.0
  0
LINE
  5
19DE0
330
16344
100
AcDbEntity
  8
寸法
 62
     0
 48
50.0
370
    -2
100
AcDbLine
 10
9967.09940285805
 20
7242.497424545956
 30
0.0
 11
9967.09940285805
 21
6756.150676266854
 31
0.0
  0
LINE
  5
19DE1
330
16344
100
AcDbEntity
  8
寸法
 62
     0
 48
50.0
370
    -2
100
AcDbLine
 10
9967.09940285805
 20
7297.497424545952
 30
0.0
 11
9967.09940285805
 21
7242.497424545956
 31
0.0
  0
INSERT
  5
19DE2
330
16344
100
AcDbEntity
  8
寸法
 62
     0
 48
50.0
370
    -2
100
AcDbBlockReference
  2
_DOTSMALL
 10
9967.09940285805
 20
7297.497424545952
 30
0.0
 41
100.0
 42
100.0
 43
100.0
 50
270.0
  0
INSERT
  5
19DE3
330
16344
100
AcDbEntity
  8
寸法
 62
     0
 48
50.0
370
    -2
100
AcDbBlockReference
  2
_DOTSMALL
 10
9967.09940285805
 20
7242.497424545956
 30
0.0
 41
100.0
 42
100.0
 43
100.0
 50
90.0
  0
MTEXT
  5
19DE4
330
16344
100
AcDbEntity
  8
寸法
 62
     7
 48
50.0
100
AcDbMText
 10
9867.099402858048
 20
6864.635957641095
 30
0.0
 40
120.0
 41
0.0
 71
     5
 72
     1
  1
\A1;55
  7
STYLE1
 11
0.0000000000000001
 21
1.0
 31
0.0
 73
     1
 44
1.0
1001
ACAD
1000
MTEXTBEGIN
1070
    73
1070
     1
1070
    44
1040
1.0
1070
    74
1070
     0
1000
MTEXTEND
  0
POINT
  5
19DE5
330
16344
100
AcDbEntity
  8
DEFPOINTS
 62
     0
 48
50.0
100
AcDbPoint
 10
9319.673057123639
 20
7297.497424545952
 30
0.0
  0
POINT
  5
19DE6
330
16344
100
AcDbEntity
  8
DEFPOINTS
 62
     0
 48
50.0
100
AcDbPoint
 10
9319.673057123639
 20
7242.497424545956
 30
0.0
  0
POINT
  5
19DE7
330
16344
100
AcDbEntity
  8
DEFPOINTS
 62
     0
 48
50.0
100
AcDbPoint
 10
9967.09940285805
 20
7242.497424545956
 30
0.0
  0
ENDBLK
  5
16420
330
16344
100
AcDbEntity
  8
0
 48
50.0
100
AcDbBlockEnd
  0
BLOCK
  5
16421
330
16352
100
AcDbEntity
  8
0
 48
50.0
100
AcDbBlockBegin
  2
*D3
 70
     1
 10
0.0
 20
0.0
 30
0.0
  3
*D3
  1

  0
LINE
  5
19DD2
330
16352
100
AcDbEntity
  8
寸法
 62
     0
 48
50.0
370
    -2
100
AcDbLine
 10
9339.673057123665
 20
10292.49742454596
 30
0.0
 11
10027.09940285807
 21
10292.49742454596
 31
0.0
  0
LINE
  5
19DD3
330
16352
100
AcDbEntity
  8
寸法
 62
     0
 48
50.0
370
    -2
100
AcDbLine
 10
9339.673057123665
 20
10237.49742454596
 30
0.0
 11
10027.09940285807
 21
10237.49742454596
 31
0.0
  0
LINE
  5
19DD4
330
16352
100
AcDbEntity
  8
寸法
 62
     0
 48
50.0
370
    -2
100
AcDbLine
 10
9967.099402858075
 20
10237.49742454596
 30
0.0
 11
9967.099402858075
 21
10137.49742454596
 31
0.0
  0
LINE
  5
19DD5
330
16352
100
AcDbEntity
  8
寸法
 62
     0
 48
50.0
370
    -2
100
AcDbLine
 10
9967.099402858075
 20
10292.49742454596
 30
0.0
 11
9967.099402858075
 21
10709.46798729444
 31
0.0
  0
LINE
  5
19DD6
330
16352
100
AcDbEntity
  8
寸法
 62
     0
 48
50.0
370
    -2
100
AcDbLine
 10
9967.099402858075
 20
10237.49742454596
 30
0.0
 11
9967.099402858075
 21
10292.49742454596
 31
0.0
  0
INSERT
  5
19DD7
330
16352
100
AcDbEntity
  8
寸法
 62
     0
 48
50.0
370
    -2
100
AcDbBlockReference
  2
_DOTSMALL
 10
9967.099402858075
 20
10237.49742454596
 30
0.0
 41
100.0
 42
100.0
 43
100.0
 50
90.0
  0
INSERT
  5
19DD8
330
16352
100
AcDbEntity
  8
寸法
 62
     0
 48
50.0
370
    -2
100
AcDbBlockReference
  2
_DOTSMALL
 10
9967.099402858075
 20
10292.49742454596
 30
0.0
 41
100.0
 42
100.0
 43
100.0
 50
270.0
  0
MTEXT
  5
19DD9
330
16352
100
AcDbEntity
  8
寸法
 62
     7
 48
50.0
100
AcDbMText
 10
9867.099402858073
 20
10600.9827059202
 30
0.0
 40
120.0
 41
0.0
 71
     5
 72
     1
  1
\A1;55
  7
STYLE1
 11
0.0000000000000001
 21
1.0
 31
0.0
 73
     1
 44
1.0
1001
ACAD
1000
MTEXTBEGIN
1070
    73
1070
     1
1070
    44
1040
1.0
1070
    74
1070
     0
1000
MTEXTEND
  0
POINT
  5
19DDA
330
16352
100
AcDbEntity
  8
DEFPOINTS
 62
     0
 48
50.0
100
AcDbPoint
 10
9319.673057123663
 20
10292.49742454596
 30
0.0
  0
POINT
  5
19DDB
330
16352
100
AcDbEntity
  8
DEFPOINTS
 62
     0
 48
50.0
100
AcDbPoint
 10
9319.673057123663
 20
10237.49742454596
 30
0.0
  0
POINT
  5
19DDC
330
16352
100
AcDbEntity
  8
DEFPOINTS
 62
     0
 48
50.0
100
AcDbPoint
 10
9967.099402858075
 20
10237.49742454596
 30
0.0
  0
ENDBLK
  5
1642D
330
16352
100
AcDbEntity
  8
0
 48
50.0
100
AcDbBlockEnd
  0
BLOCK
  5
164CA
330
16360
100
AcDbEntity
  8
0
 48
50.0
100
AcDbBlockBegin
  2
*D4
 70
     1
 10
0.0
 20
0.0
 30
0.0
  3
*D4
  1

  0
LINE
  5
19DC9
330
16360
100
AcDbEntity
  8
寸法
 62
     0
 48
50.0
370
    -2
100
AcDbLine
 10
9339.673057123665
 20
10292.49742454596
 30
0.0
 11
10392.20634459771
 21
10292.49742454596
 31
0.0
  0
LINE
  5
19DCA
330
16360
100
AcDbEntity
  8
寸法
 62
     0
 48
50.0
370
    -2
100
AcDbLine
 10
9339.673057123638
 20
7242.497424545956
 30
0.0
 11
10392.20634459771
 21
7242.497424545955
 31
0.0
  0
LINE
  5
19DCB
330
16360
100
AcDbEntity
  8
寸法
 62
     0
 48
50.0
370
    -2
100
AcDbLine
 10
10332.20634459771
 20
10292.49742454596
 30
0.0
 11
10332.20634459771
 21
7242.497424545955
 31
0.0
  0
INSERT
  5
19DCC
330
16360
100
AcDbEntity
  8
寸法
 62
     0
 48
50.0
370
    -2
100
AcDbBlockReference
  2
_DOTSMALL
 10
10332.20634459771
 20
10292.49742454596
 30
0.0
 41
100.0
 42
100.0
 43
100.0
 50
90.0
  0
INSERT
  5
19DCD
330
16360
100
AcDbEntity
  8
寸法
 62
     0
 48
50.0
370
    -2
100
AcDbBlockReference
  2
_DOTSMALL
 10
10332.20634459771
 20
7242.497424545955
 30
0.0
 41
100.0
 42
100.0
 43
100.0
 50
270.0
  0
MTEXT
  5
19DCE
330
16360
100
AcDbEntity
  8
寸法
 62
     7
 48
50.0
100
AcDbMText
 10
10232.2063445977
 20
8767.497424545963
 30
0.0
 40
120.0
 41
0.0
 71
     5
 72
     1
  1
\A1;3050
  7
STYLE1
 11
0.0000000000000001
 21
1.0
 31
0.0
 73
     1
 44
1.0
1001
ACAD
1000
MTEXTBEGIN
1070
    73
1070
     1
1070
    44
1040
1.0
1070
    74
1070
     0
1000
MTEXTEND
  0
POINT
  5
19DCF
330
16360
100
AcDbEntity
  8
DEFPOINTS
 62
     0
 48
50.0
100
AcDbPoint
 10
9319.673057123663
 20
10292.49742454596
 30
0.0
  0
POINT
  5
19DD0
330
16360
100
AcDbEntity
  8
DEFPOINTS
 62
     0
 48
50.0
100
AcDbPoint
 10
9319.673057123639
 20
7242.497424545956
 30
0.0
  0
POINT
  5
19DD1
330
16360
100
AcDbEntity
  8
DEFPOINTS
 62
     0
 48
50.0
100
AcDbPoint
 10
10332.20634459771
 20
7242.497424545955
 30
0.0
  0
ENDBLK
  5
164D4
330
16360
100
AcDbEntity
  8
0
 48
50.0
100
AcDbBlockEnd
  0
BLOCK
  5
1728C
330
16384
100
AcDbEntity
  8
0
 48
50.0
100
AcDbBlockBegin
  2
*D5
 70
     1
 10
0.0
 20
0.0
 30
0.0
  3
*D5
  1

  0
LINE
  5
19DC1
330
16384
100
AcDbEntity
  8
寸法
 62
     0
 48
50.0
370
    -2
100
AcDbLine
 10
6792.673057123656
 20
7248.497424545864
 30
0.0
 11
6792.673057123656
 21
6648.0666537797
 31
0.0
  0
LINE
  5
19DC2
330
16384
100
AcDbEntity
  8
寸法
 62
     0
 48
50.0
370
    -2
100
AcDbLine
 10
9216.673057123639
 20
6708.0666537797
 30
0.0
 11
6792.673057123656
 21
6708.0666537797
 31
0.0
  0
INSERT
  5
19DC3
330
16384
100
AcDbEntity
  8
寸法
 62
     0
 48
50.0
370
    -2
100
AcDbBlockReference
  2
_DOTSMALL
 10
9216.673057123639
 20
6708.0666537797
 30
0.0
 41
100.0
 42
100.0
 43
100.0
  0
INSERT
  5
19DC4
330
16384
100
AcDbEntity
  8
寸法
 62
     0
 48
50.0
370
    -2
100
AcDbBlockReference
  2
_DOTSMALL
 10
6792.673057123656
 20
6708.0666537797
 30
0.0
 41
100.0
 42
100.0
 43
100.0
 50
180.0
  0
MTEXT
  5
19DC5
330
16384
100
AcDbEntity
  8
寸法
 62
     7
 48
50.0
100
AcDbMText
 10
8004.673057123648
 20
6808.078464803323
 30
0.0
 40
120.0
 41
0.0
 71
     5
 72
     1
  1
\A1;有効開口部間口 2424
  7
STYLE1
 73
     1
 44
1.0
1001
ACAD
1000
MTEXTBEGIN
1070
    73
1070
     1
1070
    44
1040
1.0
1070
    74
1070
     0
1000
MTEXTEND
  0
POINT
  5
19DC6
330
16384
100
AcDbEntity
  8
DEFPOINTS
 62
     0
 48
50.0
100
AcDbPoint
 10
9216.673057123639
 20
7268.497424545865
 30
0.0
  0
POINT
  5
19DC7
330
16384
100
AcDbEntity
  8
DEFPOINTS
 62
     0
 48
50.0
100
AcDbPoint
 10
6792.673057123656
 20
7268.497424545865
 30
0.0
  0
POINT
  5
19DC8
330
16384
100
AcDbEntity
  8
DEFPOINTS
 62
     0
 48
50.0
100
AcDbPoint
 10
6792.673057123656
 20
6708.0666537797
 30
0.0
  0
ENDBLK
  5
17295
330
16384
100
AcDbEntity
  8
0
 48
50.0
100
AcDbBlockEnd
  0
BLOCK
  5
17261
330
1638F
100
AcDbEntity
  8
0
 48
50.0
100
AcDbBlockBegin
  2
*D6
 70
     1
 10
0.0
 20
0.0
 30
0.0
  3
*D6
  1

  0
LINE
  5
1A062
330
1638F
100
AcDbEntity
  8
寸法
 62
     0
 48
50.0
370
    -2
100
AcDbLine
 10
1429.673057123657
 20
7222.497424545861
 30
0.0
 11
1429.673057123657
 21
6201.893658188827
 31
0.0
  0
LINE
  5
1A063
330
1638F
100
AcDbEntity
  8
寸法
 62
     0
 48
50.0
370
    -2
100
AcDbLine
 10
9319.673057123628
 20
7222.497424545956
 30
0.0
 11
9319.673057123628
 21
6201.893658188827
 31
0.0
  0
LINE
  5
1A064
330
1638F
100
AcDbEntity
  8
寸法
 62
     0
 48
50.0
370
    -2
100
AcDbLine
 10
1429.673057123657
 20
6261.893658188826
 30
0.0
 11
9319.673057123628
 21
6261.893658188826
 31
0.0
  0
INSERT
  5
1A065
330
1638F
100
AcDbEntity
  8
寸法
 62
     0
 48
50.0
370
    -2
100
AcDbBlockReference
  2
_DOTSMALL
 10
1429.673057123657
 20
6261.893658188826
 30
0.0
 41
100.0
 42
100.0
 43
100.0
 50
180.0
  0
INSERT
  5
1A066
330
1638F
100
AcDbEntity
  8
寸法
 62
     0
 48
50.0
370
    -2
100
AcDbBlockReference
  2
_DOTSMALL
 10
9319.673057123628
 20
6261.893658188826
 30
0.0
 41
100.0
 42
100.0
 43
100.0
  0
MTEXT
  5
1A067
330
1638F
100
AcDbEntity
  8
寸法
 62
     7
 48
50.0
100
AcDbMText
 10
5374.673057123642
 20
6361.905469212448
 30
0.0
 40
120.0
 41
0.0
 71
     5
 72
     1
  1
\A1;N X 2630
  7
STYLE1
 73
     1
 44
1.0
1001
ACAD
1000
MTEXTBEGIN
1070
    73
1070
     1
1070
    44
1040
1.0
1070
    74
1070
     0
1000
MTEXTEND
  0
POINT
  5
1A068
330
1638F
100
AcDbEntity
  8
DEFPOINTS
 62
     0
 48
50.0
100
AcDbPoint
 10
1429.673057123657
 20
7242.497424545861
 30
0.0
  0
POINT
  5
1A069
330
1638F
100
AcDbEntity
  8
DEFPOINTS
 62
     0
 48
50.0
100
AcDbPoint
 10
9319.673057123628
 20
7242.497424545956
 30
0.0
  0
POINT
  5
1A06A
330
1638F
100
AcDbEntity
  8
DEFPOINTS
 62
     0
 48
50.0
100
AcDbPoint
 10
9319.673057123628
 20
6261.893658188826
 30
0.0
  0
ENDBLK
  5
1726B
330
1638F
100
AcDbEntity
  8
0
 48
50.0
100
AcDbBlockEnd
  0
BLOCK
  5
16464
330
1639B
100
AcDbEntity
  8
0
 48
50.0
100
AcDbBlockBegin
  2
*D7
 70
     1
 10
0.0
 20
0.0
 30
0.0
  3
*D7
  1

  0
LINE
  5
19F05
330
1639B
100
AcDbEntity
  8
寸法
 62
     0
 48
50.0
370
    -2
100
AcDbLine
 10
1484.673057123653
 20
7222.497424545863
 30
0.0
 11
1484.673057123653
 21
6648.0666537797
 31
0.0
  0
LINE
  5
19F06
330
1639B
100
AcDbEntity
  8
寸法
 62
     0
 48
50.0
370
    -2
100
AcDbLine
 10
1429.673057123657
 20
7222.497424545861
 30
0.0
 11
1429.673057123657
 21
6648.0666537797
 31
0.0
  0
LINE
  5
19F07
330
1639B
100
AcDbEntity
  8
寸法
 62
     0
 48
50.0
370
    -2
100
AcDbLine
 10
1484.673057123653
 20
6708.0666537797
 30
0.0
 11
1584.673057123653
 21
6708.0666537797
 31
0.0
  0
LINE
  5
19F08
330
1639B
100
AcDbEntity
  8
寸法
 62
     0
 48
50.0
370
    -2
100
AcDbLine
 10
1429.673057123657
 20
6708.0666537797
 30
0.0
 11
1012.702494375179
 21
6708.0666537797
 31
0.0
  0
LINE
  5
19F09
330
1639B
100
AcDbEntity
  8
寸法
 62
     0
 48
50.0
370
    -2
100
AcDbLine
 10
1484.673057123653
 20
6708.0666537797
 30
0.0
 11
1429.673057123657
 21
6708.0666537797
 31
0.0
  0
INSERT
  5
19F0A
330
1639B
100
AcDbEntity
  8
寸法
 62
     0
 48
50.0
370
    -2
100
AcDbBlockReference
  2
_DOTSMALL
 10
1484.673057123653
 20
6708.0666537797
 30
0.0
 41
100.0
 42
100.0
 43
100.0
 50
180.0
  0
INSERT
  5
19F0B
330
1639B
100
AcDbEntity
  8
寸法
 62
     0
 48
50.0
370
    -2
100
AcDbBlockReference
  2
_DOTSMALL
 10
1429.673057123657
 20
6708.0666537797
 30
0.0
 41
100.0
 42
100.0
 43
100.0
  0
MTEXT
  5
19F0C
330
1639B
100
AcDbEntity
  8
寸法
 62
     7
 48
50.0
100
AcDbMText
 10
1121.187775749418
 20
6808.0666537797
 30
0.0
 40
120.0
 41
0.0
 71
     5
 72
     1
  1
\A1;55
  7
STYLE1
 73
     1
 44
1.0
1001
ACAD
1000
MTEXTBEGIN
1070
    73
1070
     1
1070
    44
1040
1.0
1070
    74
1070
     0
1000
MTEXTEND
  0
POINT
  5
19F0D
330
1639B
100
AcDbEntity
  8
DEFPOINTS
 62
     0
 48
50.0
100
AcDbPoint
 10
1484.673057123653
 20
7242.497424545864
 30
0.0
  0
POINT
  5
19F0E
330
1639B
100
AcDbEntity
  8
DEFPOINTS
 62
     0
 48
50.0
100
AcDbPoint
 10
1429.673057123657
 20
7242.497424545861
 30
0.0
  0
POINT
  5
19F0F
330
1639B
100
AcDbEntity
  8
DEFPOINTS
 62
     0
 48
50.0
100
AcDbPoint
 10
1429.673057123657
 20
6708.0666537797
 30
0.0
  0
ENDBLK
  5
16470
330
1639B
100
AcDbEntity
  8
0
 48
50.0
100
AcDbBlockEnd
  0
BLOCK
  5
16471
330
163A9
100
AcDbEntity
  8
0
 48
50.0
100
AcDbBlockBegin
  2
*D8
 70
     1
 10
0.0
 20
0.0
 30
0.0
  3
*D8
  1

  0
LINE
  5
19DAD
330
163A9
100
AcDbEntity
  8
寸法
 62
     0
 48
50.0
370
    -2
100
AcDbLine
 10
6792.673057123656
 20
7248.497424545864
 30
0.0
 11
6792.673057123656
 21
6648.0666537797
 31
0.0
  0
LINE
  5
19DAE
330
163A9
100
AcDbEntity
  8
寸法
 62
     0
 48
50.0
370
    -2
100
AcDbLine
 10
6744.673057123653
 20
7222.497424545863
 30
0.0
 11
6744.673057123653
 21
6648.0666537797
 31
0.0
  0
LINE
  5
19DAF
330
163A9
100
AcDbEntity
  8
寸法
 62
     0
 48
50.0
370
    -2
100
AcDbLine
 10
6792.673057123656
 20
6708.0666537797
 30
0.0
 11
6892.673057123658
 21
6708.0666537797
 31
0.0
  0
LINE
  5
19DB0
330
163A9
100
AcDbEntity
  8
寸法
 62
     0
 48
50.0
370
    -2
100
AcDbLine
 10
6744.673057123653
 20
6708.0666537797
 30
0.0
 11
6644.673057123653
 21
6708.0666537797
 31
0.0
  0
MTEXT
  5
19DB1
330
163A9
100
AcDbEntity
  8
寸法
 62
     7
 48
50.0
100
AcDbMText
 10
6905.575028123713
 20
6808.0666537797
 30
0.0
 40
120.0
 41
0.0
 71
     5
 72
     1
  1
\A1;48
  7
STYLE1
 73
     1
 44
1.0
1001
ACAD
1000
MTEXTBEGIN
1070
    73
1070
     1
1070
    44
1040
1.0
1070
    74
1070
     0
1000
MTEXTEND
  0
LINE
  5
19DB2
330
163A9
100
AcDbEntity
  8
寸法
 62
     0
 48
50.0
370
    -2
100
AcDbLine
 10
6792.673057123656
 20
6708.0666537797
 30
0.0
 11
6744.673057123653
 21
6708.0666537797
 31
0.0
  0
INSERT
  5
19DB3
330
163A9
100
AcDbEntity
  8
寸法
 62
     0
 48
50.0
370
    -2
100
AcDbBlockReference
  2
_DOTSMALL
 10
6792.673057123656
 20
6708.0666537797
 30
0.0
 41
100.0
 42
100.0
 43
100.0
 50
180.0
  0
INSERT
  5
19DB4
330
163A9
100
AcDbEntity
  8
寸法
 62
     0
 48
50.0
370
    -2
100
AcDbBlockReference
  2
_DOTSMALL
 10
6744.673057123653
 20
6708.0666537797
 30
0.0
 41
100.0
 42
100.0
 43
100.0
  0
POINT
  5
19DB5
330
163A9
100
AcDbEntity
  8
DEFPOINTS
 62
     0
 48
50.0
100
AcDbPoint
 10
6792.673057123656
 20
7268.497424545865
 30
0.0
  0
POINT
  5
19DB6
330
163A9
100
AcDbEntity
  8
DEFPOINTS
 62
     0
 48
50.0
100
AcDbPoint
 10
6744.673057123653
 20
7242.497424545864
 30
0.0
  0
POINT
  5
19DB7
330
163A9
100
AcDbEntity
  8
DEFPOINTS
 62
     0
 48
50.0
100
AcDbPoint
 10
6744.673057123653
 20
6708.0666537797
 30
0.0
  0
ENDBLK
  5
1647E
330
163A9
100
AcDbEntity
  8
0
 48
50.0
100
AcDbBlockEnd
  0
BLOCK
  5
1647F
330
163B8
100
AcDbEntity
  8
0
 48
50.0
100
AcDbBlockBegin
  2
*D9
 70
     1
 10
0.0
 20
0.0
 30
0.0
  3
*D9
  1

  0
LINE
  5
19DA2
330
163B8
100
AcDbEntity
  8
寸法
 62
     0
 48
50.0
370
    -2
100
AcDbLine
 10
9264.673057123641
 20
7222.497424545952
 30
0.0
 11
9264.673057123641
 21
6648.0666537797
 31
0.0
  0
LINE
  5
19DA3
330
163B8
100
AcDbEntity
  8
寸法
 62
     0
 48
50.0
370
    -2
100
AcDbLine
 10
9216.673057123639
 20
7248.497424545866
 30
0.0
 11
9216.673057123639
 21
6648.0666537797
 31
0.0
  0
LINE
  5
19DA4
330
163B8
100
AcDbEntity
  8
寸法
 62
     0
 48
50.0
370
    -2
100
AcDbLine
 10
9264.673057123641
 20
6708.0666537797
 30
0.0
 11
9364.67305712364
 21
6708.0666537797
 31
0.0
  0
LINE
  5
19DA5
330
163B8
100
AcDbEntity
  8
寸法
 62
     0
 48
50.0
370
    -2
100
AcDbLine
 10
9216.673057123639
 20
6708.0666537797
 30
0.0
 11
9116.673057123639
 21
6708.0666537797
 31
0.0
  0
MTEXT
  5
19DA6
330
163B8
100
AcDbEntity
  8
寸法
 62
     7
 48
50.0
100
AcDbMText
 10
9105.710159474892
 20
6808.0666537797
 30
0.0
 40
120.0
 41
0.0
 71
     5
 72
     1
  1
\A1;48
  7
STYLE1
 73
     1
 44
1.0
1001
ACAD
1000
MTEXTBEGIN
1070
    73
1070
     1
1070
    44
1040
1.0
1070
    74
1070
     0
1000
MTEXTEND
  0
LINE
  5
19DA7
330
163B8
100
AcDbEntity
  8
寸法
 62
     0
 48
50.0
370
    -2
100
AcDbLine
 10
9264.673057123641
 20
6708.0666537797
 30
0.0
 11
9216.673057123639
 21
6708.0666537797
 31
0.0
  0
INSERT
  5
19DA8
330
163B8
100
AcDbEntity
  8
寸法
 62
     0
 48
50.0
370
    -2
100
AcDbBlockReference
  2
_DOTSMALL
 10
9264.673057123641
 20
6708.0666537797
 30
0.0
 41
100.0
 42
100.0
 43
100.0
 50
180.0
  0
INSERT
  5
19DA9
330
163B8
100
AcDbEntity
  8
寸法
 62
     0
 48
50.0
370
    -2
100
AcDbBlockReference
  2
_DOTSMALL
 10
9216.673057123639
 20
6708.0666537797
 30
0.0
 41
100.0
 42
100.0
 43
100.0
  0
POINT
  5
19DAA
330
163B8
100
AcDbEntity
  8
DEFPOINTS
 62
     0
 48
50.0
100
AcDbPoint
 10
9264.673057123641
 20
7242.497424545952
 30
0.0
  0
POINT
  5
19DAB
330
163B8
100
AcDbEntity
  8
DEFPOINTS
 62
     0
 48
50.0
100
AcDbPoint
 10
9216.673057123639
 20
7268.497424545865
 30
0.0
  0
POINT
  5
19DAC
330
163B8
100
AcDbEntity
  8
DEFPOINTS
 62
     0
 48
50.0
100
AcDbPoint
 10
9216.673057123639
 20
6708.0666537797
 30
0.0
  0
ENDBLK
  5
1648C
330
163B8
100
AcDbEntity
  8
0
 48
50.0
100
AcDbBlockEnd
  0
BLOCK
  5
1648D
330
163C7
100
AcDbEntity
  8
0
 48
50.0
100
AcDbBlockBegin
  2
*D10
 70
     1
 10
0.0
 20
0.0
 30
0.0
  3
*D10
  1

  0
LINE
  5
19D97
330
163C7
100
AcDbEntity
  8
寸法
 62
     0
 48
50.0
370
    -2
100
AcDbLine
 10
9319.673057123639
 20
7222.497424545956
 30
0.0
 11
9319.673057123639
 21
6648.066653779702
 31
0.0
  0
LINE
  5
19D98
330
163C7
100
AcDbEntity
  8
寸法
 62
     0
 48
50.0
370
    -2
100
AcDbLine
 10
9264.673057123641
 20
7222.497424545952
 30
0.0
 11
9264.673057123641
 21
6648.066653779702
 31
0.0
  0
LINE
  5
19D99
330
163C7
100
AcDbEntity
  8
寸法
 62
     0
 48
50.0
370
    -2
100
AcDbLine
 10
9264.673057123641
 20
6708.066653779702
 30
0.0
 11
9164.673057123641
 21
6708.066653779702
 31
0.0
  0
LINE
  5
19D9A
330
163C7
100
AcDbEntity
  8
寸法
 62
     0
 48
50.0
370
    -2
100
AcDbLine
 10
9319.673057123639
 20
6708.066653779702
 30
0.0
 11
9736.643619872115
 21
6708.066653779702
 31
0.0
  0
LINE
  5
19D9B
330
163C7
100
AcDbEntity
  8
寸法
 62
     0
 48
50.0
370
    -2
100
AcDbLine
 10
9264.673057123641
 20
6708.066653779702
 30
0.0
 11
9319.673057123639
 21
6708.066653779702
 31
0.0
  0
INSERT
  5
19D9C
330
163C7
100
AcDbEntity
  8
寸法
 62
     0
 48
50.0
370
    -2
100
AcDbBlockReference
  2
_DOTSMALL
 10
9264.673057123641
 20
6708.066653779702
 30
0.0
 41
100.0
 42
100.0
 43
100.0
  0
INSERT
  5
19D9D
330
163C7
100
AcDbEntity
  8
寸法
 62
     0
 48
50.0
370
    -2
100
AcDbBlockReference
  2
_DOTSMALL
 10
9319.673057123639
 20
6708.066653779702
 30
0.0
 41
100.0
 42
100.0
 43
100.0
 50
180.0
  0
MTEXT
  5
19D9E
330
163C7
100
AcDbEntity
  8
寸法
 62
     7
 48
50.0
100
AcDbMText
 10
9628.158338497877
 20
6808.066653779701
 30
0.0
 40
120.0
 41
0.0
 71
     5
 72
     1
  1
\A1;55
  7
STYLE1
 73
     1
 44
1.0
1001
ACAD
1000
MTEXTBEGIN
1070
    73
1070
     1
1070
    44
1040
1.0
1070
    74
1070
     0
1000
MTEXTEND
  0
POINT
  5
19D9F
330
163C7
100
AcDbEntity
  8
DEFPOINTS
 62
     0
 48
50.0
100
AcDbPoint
 10
9319.673057123639
 20
7242.497424545956
 30
0.0
  0
POINT
  5
19DA0
330
163C7
100
AcDbEntity
  8
DEFPOINTS
 62
     0
 48
50.0
100
AcDbPoint
 10
9264.673057123641
 20
7242.497424545952
 30
0.0
  0
POINT
  5
19DA1
330
163C7
100
AcDbEntity
  8
DEFPOINTS
 62
     0
 48
50.0
100
AcDbPoint
 10
9264.673057123641
 20
6708.066653779702
 30
0.0
  0
ENDBLK
  5
16499
330
163C7
100
AcDbEntity
  8
0
 48
50.0
100
AcDbBlockEnd
  0
BLOCK
  5
172A1
330
163E1
100
AcDbEntity
  8
0
 48
50.0
100
AcDbBlockBegin
  2
*D11
 70
     1
 10
0.0
 20
0.0
 30
0.0
  3
*D11
  1

  0
LINE
  5
1A059
330
163E1
100
AcDbEntity
  8
寸法
 62
     0
 48
50.0
370
    -2
100
AcDbLine
 10
6744.673057123662
 20
10312.49742454587
 30
0.0
 11
6744.673057123662
 21
10568.30564417096
 31
0.0
  0
LINE
  5
1A05A
330
163E1
100
AcDbEntity
  8
寸法
 62
     0
 48
50.0
370
    -2
100
AcDbLine
 10
9264.673057123664
 20
10312.49742454596
 30
0.0
 11
9264.673057123664
 21
10568.30564417096
 31
0.0
  0
LINE
  5
1A05B
330
163E1
100
AcDbEntity
  8
寸法
 62
     0
 48
50.0
370
    -2
100
AcDbLine
 10
6744.673057123662
 20
10508.30564417096
 30
0.0
 11
9264.673057123664
 21
10508.30564417096
 31
0.0
  0
INSERT
  5
1A05C
330
163E1
100
AcDbEntity
  8
寸法
 62
     0
 48
50.0
370
    -2
100
AcDbBlockReference
  2
_DOTSMALL
 10
6744.673057123662
 20
10508.30564417096
 30
0.0
 41
100.0
 42
100.0
 43
100.0
 50
180.0
  0
INSERT
  5
1A05D
330
163E1
100
AcDbEntity
  8
寸法
 62
     0
 48
50.0
370
    -2
100
AcDbBlockReference
  2
_DOTSMALL
 10
9264.673057123664
 20
10508.30564417096
 30
0.0
 41
100.0
 42
100.0
 43
100.0
  0
MTEXT
  5
1A05E
330
163E1
100
AcDbEntity
  8
寸法
 62
     7
 48
50.0
100
AcDbMText
 10
8004.673057123664
 20
10608.31745519459
 30
0.0
 40
120.0
 41
0.0
 71
     5
 72
     1
  1
\A1;6X420=2520
  7
STYLE1
 73
     1
 44
1.0
1001
ACAD
1000
MTEXTBEGIN
1070
    73
1070
     1
1070
    44
1040
1.0
1070
    74
1070
     0
1000
MTEXTEND
  0
POINT
  5
1A05F
330
163E1
100
AcDbEntity
  8
DEFPOINTS
 62
     0
 48
50.0
100
AcDbPoint
 10
6744.673057123662
 20
10292.49742454587
 30
0.0
  0
POINT
  5
1A060
330
163E1
100
AcDbEntity
  8
DEFPOINTS
 62
     0
 48
50.0
100
AcDbPoint
 10
9264.673057123664
 20
10292.49742454596
 30
0.0
  0
POINT
  5
1A061
330
163E1
100
AcDbEntity
  8
DEFPOINTS
 62
     0
 48
50.0
100
AcDbPoint
 10
9264.673057123664
 20
10508.30564417096
 30
0.0
  0
ENDBLK
  5
172AB
330
163E1
100
AcDbEntity
  8
0
 48
50.0
100
AcDbBlockEnd
  0
BLOCK
  5
164B0
330
163ED
100
AcDbEntity
  8
0
 48
50.0
100
AcDbBlockBegin
  2
*D12
 70
     1
 10
0.0
 20
0.0
 30
0.0
  3
*D12
  1

  0
LINE
  5
19EFA
330
163ED
100
AcDbEntity
  8
寸法
 62
     0
 48
50.0
370
    -2
100
AcDbLine
 10
1429.673057123628
 20
10312.49742454587
 30
0.0
 11
1429.673057123628
 21
10568.30564417085
 31
0.0
  0
LINE
  5
19EFB
330
163ED
100
AcDbEntity
  8
寸法
 62
     0
 48
50.0
370
    -2
100
AcDbLine
 10
1484.673057123663
 20
10312.49742454587
 30
0.0
 11
1484.673057123663
 21
10568.30564417085
 31
0.0
  0
LINE
  5
19EFC
330
163ED
100
AcDbEntity
  8
寸法
 62
     0
 48
50.0
370
    -2
100
AcDbLine
 10
1484.673057123663
 20
10508.30564417085
 30
0.0
 11
1584.673057123663
 21
10508.30564417085
 31
0.0
  0
LINE
  5
19EFD
330
163ED
100
AcDbEntity
  8
寸法
 62
     0
 48
50.0
370
    -2
100
AcDbLine
 10
1429.673057123628
 20
10508.30564417085
 30
0.0
 11
1012.702494375151
 21
10508.30564417085
 31
0.0
  0
LINE
  5
19EFE
330
163ED
100
AcDbEntity
  8
寸法
 62
     0
 48
50.0
370
    -2
100
AcDbLine
 10
1484.673057123663
 20
10508.30564417085
 30
0.0
 11
1429.673057123628
 21
10508.30564417085
 31
0.0
  0
INSERT
  5
19EFF
330
163ED
100
AcDbEntity
  8
寸法
 62
     0
 48
50.0
370
    -2
100
AcDbBlockReference
  2
_DOTSMALL
 10
1484.673057123663
 20
10508.30564417085
 30
0.0
 41
100.0
 42
100.0
 43
100.0
 50
180.0
  0
INSERT
  5
19F00
330
163ED
100
AcDbEntity
  8
寸法
 62
     0
 48
50.0
370
    -2
100
AcDbBlockReference
  2
_DOTSMALL
 10
1429.673057123628
 20
10508.30564417085
 30
0.0
 41
100.0
 42
100.0
 43
100.0
  0
MTEXT
  5
19F01
330
163ED
100
AcDbEntity
  8
寸法
 62
     7
 48
50.0
100
AcDbMText
 10
1121.187775749389
 20
10608.30564417085
 30
0.0
 40
120.0
 41
0.0
 71
     5
 72
     1
  1
\A1;55
  7
STYLE1
 73
     1
 44
1.0
1001
ACAD
1000
MTEXTBEGIN
1070
    73
1070
     1
1070
    44
1040
1.0
1070
    74
1070
     0
1000
MTEXTEND
  0
POINT
  5
19F02
330
163ED
100
AcDbEntity
  8
DEFPOINTS
 62
     0
 48
50.0
100
AcDbPoint
 10
1429.673057123628
 20
10292.49742454587
 30
0.0
  0
POINT
  5
19F03
330
163ED
100
AcDbEntity
  8
DEFPOINTS
 62
     0
 48
50.0
100
AcDbPoint
 10
1484.673057123663
 20
10292.49742454587
 30
0.0
  0
POINT
  5
19F04
330
163ED
100
AcDbEntity
  8
DEFPOINTS
 62
     0
 48
50.0
100
AcDbPoint
 10
1484.673057123663
 20
10508.30564417085
 30
0.0
  0
ENDBLK
  5
164BC
330
163ED
100
AcDbEntity
  8
0
 48
50.0
100
AcDbBlockEnd
  0
BLOCK
  5
164BD
330
163FB
100
AcDbEntity
  8
0
 48
50.0
100
AcDbBlockBegin
  2
*D13
 70
     1
 10
0.0
 20
0.0
 30
0.0
  3
*D13
  1

  0
LINE
  5
19D83
330
163FB
100
AcDbEntity
  8
寸法
 62
     0
 48
50.0
370
    -2
100
AcDbLine
 10
9264.673057123664
 20
10312.49742454596
 30
0.0
 11
9264.673057123664
 21
10568.30564417095
 31
0.0
  0
LINE
  5
19D84
330
163FB
100
AcDbEntity
  8
寸法
 62
     0
 48
50.0
370
    -2
100
AcDbLine
 10
9319.673057123663
 20
10312.49742454596
 30
0.0
 11
9319.673057123663
 21
10568.30564417095
 31
0.0
  0
LINE
  5
19D85
330
163FB
100
AcDbEntity
  8
寸法
 62
     0
 48
50.0
370
    -2
100
AcDbLine
 10
9264.673057123664
 20
10508.30564417095
 30
0.0
 11
9164.673057123664
 21
10508.30564417095
 31
0.0
  0
LINE
  5
19D86
330
163FB
100
AcDbEntity
  8
寸法
 62
     0
 48
50.0
370
    -2
100
AcDbLine
 10
9319.673057123663
 20
10508.30564417095
 30
0.0
 11
9736.64361987214
 21
10508.30564417095
 31
0.0
  0
LINE
  5
19D87
330
163FB
100
AcDbEntity
  8
寸法
 62
     0
 48
50.0
370
    -2
100
AcDbLine
 10
9264.673057123664
 20
10508.30564417095
 30
0.0
 11
9319.673057123663
 21
10508.30564417095
 31
0.0
  0
INSERT
  5
19D88
330
163FB
100
AcDbEntity
  8
寸法
 62
     0
 48
50.0
370
    -2
100
AcDbBlockReference
  2
_DOTSMALL
 10
9264.673057123664
 20
10508.30564417095
 30
0.0
 41
100.0
 42
100.0
 43
100.0
  0
INSERT
  5
19D89
330
163FB
100
AcDbEntity
  8
寸法
 62
     0
 48
50.0
370
    -2
100
AcDbBlockReference
  2
_DOTSMALL
 10
9319.673057123663
 20
10508.30564417095
 30
0.0
 41
100.0
 42
100.0
 43
100.0
 50
180.0
  0
MTEXT
  5
19D8A
330
163FB
100
AcDbEntity
  8
寸法
 62
     7
 48
50.0
100
AcDbMText
 10
9628.158338497904
 20
10608.30564417095
 30
0.0
 40
120.0
 41
0.0
 71
     5
 72
     1
  1
\A1;55
  7
STYLE1
 73
     1
 44
1.0
1001
ACAD
1000
MTEXTBEGIN
1070
    73
1070
     1
1070
    44
1040
1.0
1070
    74
1070
     0
1000
MTEXTEND
  0
POINT
  5
19D8B
330
163FB
100
AcDbEntity
  8
DEFPOINTS
 62
     0
 48
50.0
100
AcDbPoint
 10
9264.673057123664
 20
10292.49742454596
 30
0.0
  0
POINT
  5
19D8C
330
163FB
100
AcDbEntity
  8
DEFPOINTS
 62
     0
 48
50.0
100
AcDbPoint
 10
9319.673057123663
 20
10292.49742454596
 30
0.0
  0
POINT
  5
19D8D
330
163FB
100
AcDbEntity
  8
DEFPOINTS
 62
     0
 48
50.0
100
AcDbPoint
 10
9319.673057123663
 20
10508.30564417095
 30
0.0
  0
ENDBLK
  5
164C9
330
163FB
100
AcDbEntity
  8
0
 48
50.0
100
AcDbBlockEnd
  0
BLOCK
  5
165C5
330
165C4
100
AcDbEntity
  8
0
 48
50.0
100
AcDbBlockBegin
  2
*D14
 70
     1
 10
0.0
 20
0.0
 30
0.0
  3
*D14
  1

  0
LINE
  5
19D78
330
165C4
100
AcDbEntity
  8
寸法
 62
     0
 48
50.0
370
    -2
100
AcDbLine
 10
6634.673057123641
 20
7222.497424545952
 30
0.0
 11
6634.673057123641
 21
6648.0666537797
 31
0.0
  0
LINE
  5
19D79
330
165C4
100
AcDbEntity
  8
寸法
 62
     0
 48
50.0
370
    -2
100
AcDbLine
 10
6586.673057123639
 20
7248.497424545866
 30
0.0
 11
6586.673057123639
 21
6648.0666537797
 31
0.0
  0
LINE
  5
19D7A
330
165C4
100
AcDbEntity
  8
寸法
 62
     0
 48
50.0
370
    -2
100
AcDbLine
 10
6634.673057123641
 20
6708.0666537797
 30
0.0
 11
6734.67305712364
 21
6708.0666537797
 31
0.0
  0
LINE
  5
19D7B
330
165C4
100
AcDbEntity
  8
寸法
 62
     0
 48
50.0
370
    -2
100
AcDbLine
 10
6586.673057123639
 20
6708.0666537797
 30
0.0
 11
6486.673057123638
 21
6708.0666537797
 31
0.0
  0
MTEXT
  5
19D7C
330
165C4
100
AcDbEntity
  8
寸法
 62
     7
 48
50.0
100
AcDbMText
 10
6475.710159474892
 20
6808.0666537797
 30
0.0
 40
120.0
 41
0.0
 71
     5
 72
     1
  1
\A1;48
  7
STYLE1
 73
     1
 44
1.0
1001
ACAD
1000
MTEXTBEGIN
1070
    73
1070
     1
1070
    44
1040
1.0
1070
    74
1070
     0
1000
MTEXTEND
  0
LINE
  5
19D7D
330
165C4
100
AcDbEntity
  8
寸法
 62
     0
 48
50.0
370
    -2
100
AcDbLine
 10
6634.673057123641
 20
6708.0666537797
 30
0.0
 11
6586.673057123639
 21
6708.0666537797
 31
0.0
  0
INSERT
  5
19D7E
330
165C4
100
AcDbEntity
  8
寸法
 62
     0
 48
50.0
370
    -2
100
AcDbBlockReference
  2
_DOTSMALL
 10
6634.673057123641
 20
6708.0666537797
 30
0.0
 41
100.0
 42
100.0
 43
100.0
 50
180.0
  0
INSERT
  5
19D7F
330
165C4
100
AcDbEntity
  8
寸法
 62
     0
 48
50.0
370
    -2
100
AcDbBlockReference
  2
_DOTSMALL
 10
6586.673057123639
 20
6708.0666537797
 30
0.0
 41
100.0
 42
100.0
 43
100.0
  0
POINT
  5
19D80
330
165C4
100
AcDbEntity
  8
DEFPOINTS
 62
     0
 48
50.0
100
AcDbPoint
 10
6634.673057123641
 20
7242.497424545952
 30
0.0
  0
POINT
  5
19D81
330
165C4
100
AcDbEntity
  8
DEFPOINTS
 62
     0
 48
50.0
100
AcDbPoint
 10
6586.673057123639
 20
7268.497424545865
 30
0.0
  0
POINT
  5
19D82
330
165C4
100
AcDbEntity
  8
DEFPOINTS
 62
     0
 48
50.0
100
AcDbPoint
 10
6586.673057123639
 20
6708.0666537797
 30
0.0
  0
ENDBLK
  5
165D2
330
165C4
100
AcDbEntity
  8
0
 48
50.0
100
AcDbBlockEnd
  0
BLOCK
  5
1663F
330
165EA
100
AcDbEntity
  8
0
 48
50.0
100
AcDbBlockBegin
  2
*D15
 70
     1
 10
0.0
 20
0.0
 30
0.0
  3
*D15
  1

  0
LINE
  5
19D6F
330
165EA
100
AcDbEntity
  8
寸法
 62
     0
 48
50.0
370
    -2
100
AcDbLine
 10
6744.673057123653
 20
7222.497424545863
 30
0.0
 11
6744.673057123653
 21
6648.066653779702
 31
0.0
  0
LINE
  5
19D70
330
165EA
100
AcDbEntity
  8
寸法
 62
     0
 48
50.0
370
    -2
100
AcDbLine
 10
6634.673057123641
 20
7222.497424545952
 30
0.0
 11
6634.673057123641
 21
6648.066653779702
 31
0.0
  0
LINE
  5
19D71
330
165EA
100
AcDbEntity
  8
寸法
 62
     0
 48
50.0
370
    -2
100
AcDbLine
 10
6744.673057123653
 20
6708.066653779702
 30
0.0
 11
6634.673057123641
 21
6708.066653779702
 31
0.0
  0
MTEXT
  5
19D72
330
165EA
100
AcDbEntity
  8
寸法
 62
     7
 48
50.0
100
AcDbMText
 10
6689.673057123648
 20
6556.37475874347
 30
0.0
 40
120.0
 41
0.0
 71
     5
 72
     1
  1
\A1;110
  7
STYLE1
 73
     1
 44
1.0
1001
ACAD
1000
MTEXTBEGIN
1070
    73
1070
     1
1070
    44
1040
1.0
1070
    74
1070
     0
1000
MTEXTEND
  0
INSERT
  5
19D73
330
165EA
100
AcDbEntity
  8
寸法
 62
     0
 48
50.0
370
    -2
100
AcDbBlockReference
  2
_DOTSMALL
 10
6744.673057123653
 20
6708.066653779702
 30
0.0
 41
100.0
 42
100.0
 43
100.0
  0
INSERT
  5
19D74
330
165EA
100
AcDbEntity
  8
寸法
 62
     0
 48
50.0
370
    -2
100
AcDbBlockReference
  2
_DOTSMALL
 10
6634.673057123641
 20
6708.066653779702
 30
0.0
 41
100.0
 42
100.0
 43
100.0
 50
180.0
  0
POINT
  5
19D75
330
165EA
100
AcDbEntity
  8
DEFPOINTS
 62
     0
 48
50.0
100
AcDbPoint
 10
6744.673057123653
 20
7242.497424545864
 30
0.0
  0
POINT
  5
19D76
330
165EA
100
AcDbEntity
  8
DEFPOINTS
 62
     0
 48
50.0
100
AcDbPoint
 10
6634.673057123641
 20
7242.497424545952
 30
0.0
  0
POINT
  5
19D77
330
165EA
100
AcDbEntity
  8
DEFPOINTS
 62
     0
 48
50.0
100
AcDbPoint
 10
6634.673057123641
 20
6708.066653779702
 30
0.0
  0
ENDBLK
  5
16649
330
165EA
100
AcDbEntity
  8
0
 48
50.0
100
AcDbBlockEnd
  0
BLOCK
  5
166D0
330
166CF
100
AcDbEntity
  8
0
 48
50.0
100
AcDbBlockBegin
  2
*D16
 70
     1
 10
0.0
 20
0.0
 30
0.0
  3
*D16
  1

  0
LINE
  5
19D64
330
166CF
100
AcDbEntity
  8
寸法
 62
     0
 48
50.0
370
    -2
100
AcDbLine
 10
6744.673057123662
 20
10312.49742454592
 30
0.0
 11
6744.673057123662
 21
10568.30564417096
 31
0.0
  0
LINE
  5
19D65
330
166CF
100
AcDbEntity
  8
寸法
 62
     0
 48
50.0
370
    -2
100
AcDbLine
 10
6634.673057123663
 20
10312.49742454591
 30
0.0
 11
6634.673057123663
 21
10568.30564417096
 31
0.0
  0
LINE
  5
19D66
330
166CF
100
AcDbEntity
  8
寸法
 62
     0
 48
50.0
370
    -2
100
AcDbLine
 10
6744.673057123662
 20
10508.30564417096
 30
0.0
 11
6844.673057123663
 21
10508.30564417096
 31
0.0
  0
LINE
  5
19D67
330
166CF
100
AcDbEntity
  8
寸法
 62
     0
 48
50.0
370
    -2
100
AcDbLine
 10
6634.673057123663
 20
10508.30564417096
 30
0.0
 11
6534.673057123663
 21
10508.30564417096
 31
0.0
  0
LINE
  5
19D68
330
166CF
100
AcDbEntity
  8
寸法
 62
     0
 48
50.0
370
    -2
100
AcDbLine
 10
6744.673057123662
 20
10508.30564417096
 30
0.0
 11
6634.673057123663
 21
10508.30564417096
 31
0.0
  0
INSERT
  5
19D69
330
166CF
100
AcDbEntity
  8
寸法
 62
     0
 48
50.0
370
    -2
100
AcDbBlockReference
  2
_DOTSMALL
 10
6744.673057123662
 20
10508.30564417096
 30
0.0
 41
100.0
 42
100.0
 43
100.0
 50
180.0
  0
INSERT
  5
19D6A
330
166CF
100
AcDbEntity
  8
寸法
 62
     0
 48
50.0
370
    -2
100
AcDbBlockReference
  2
_DOTSMALL
 10
6634.673057123663
 20
10508.30564417096
 30
0.0
 41
100.0
 42
100.0
 43
100.0
  0
MTEXT
  5
19D6B
330
166CF
100
AcDbEntity
  8
寸法
 62
     7
 48
50.0
100
AcDbMText
 10
6689.673057123664
 20
10608.30564417096
 30
0.0
 40
120.0
 41
0.0
 71
     5
 72
     1
  1
\A1;110
  7
STYLE1
 73
     1
 44
1.0
1001
ACAD
1000
MTEXTBEGIN
1070
    73
1070
     1
1070
    44
1040
1.0
1070
    74
1070
     0
1000
MTEXTEND
  0
POINT
  5
19D6C
330
166CF
100
AcDbEntity
  8
DEFPOINTS
 62
     0
 48
50.0
100
AcDbPoint
 10
6744.673057123662
 20
10292.49742454592
 30
0.0
  0
POINT
  5
19D6D
330
166CF
100
AcDbEntity
  8
DEFPOINTS
 62
     0
 48
50.0
100
AcDbPoint
 10
6634.673057123663
 20
10292.49742454591
 30
0.0
  0
POINT
  5
19D6E
330
166CF
100
AcDbEntity
  8
DEFPOINTS
 62
     0
 48
50.0
100
AcDbPoint
 10
6634.673057123663
 20
10508.30564417096
 30
0.0
  0
ENDBLK
  5
166DC
330
166CF
100
AcDbEntity
  8
0
 48
50.0
100
AcDbBlockEnd
  0
BLOCK
  5
1726C
330
16908
100
AcDbEntity
  8
0
 48
50.0
100
AcDbBlockBegin
  2
*D17
 70
     1
 10
0.0
 20
0.0
 30
0.0
  3
*D17
  1

  0
LINE
  5
19D5C
330
16908
100
AcDbEntity
  8
寸法
 62
     0
 48
50.0
370
    -2
100
AcDbLine
 10
9319.673057123663
 20
10312.49742454596
 30
0.0
 11
9319.673057123663
 21
10817.62711772726
 31
0.0
  0
LINE
  5
19D5D
330
16908
100
AcDbEntity
  8
寸法
 62
     0
 48
50.0
370
    -2
100
AcDbLine
 10
6689.673057123664
 20
10757.62711772726
 30
0.0
 11
9319.673057123663
 21
10757.62711772726
 31
0.0
  0
INSERT
  5
19D5E
330
16908
100
AcDbEntity
  8
寸法
 62
     0
 48
50.0
370
    -2
100
AcDbBlockReference
  2
_DOTSMALL
 10
6689.673057123664
 20
10757.62711772726
 30
0.0
 41
100.0
 42
100.0
 43
100.0
 50
180.0
  0
INSERT
  5
19D5F
330
16908
100
AcDbEntity
  8
寸法
 62
     0
 48
50.0
370
    -2
100
AcDbBlockReference
  2
_DOTSMALL
 10
9319.673057123663
 20
10757.62711772726
 30
0.0
 41
100.0
 42
100.0
 43
100.0
  0
MTEXT
  5
19D60
330
16908
100
AcDbEntity
  8
寸法
 62
     7
 48
50.0
100
AcDbMText
 10
8004.673057123664
 20
10857.63892875088
 30
0.0
 40
120.0
 41
0.0
 71
     5
 72
     1
  1
\A1;2630
  7
STYLE1
 73
     1
 44
1.0
1001
ACAD
1000
MTEXTBEGIN
1070
    73
1070
     1
1070
    44
1040
1.0
1070
    74
1070
     0
1000
MTEXTEND
  0
POINT
  5
19D61
330
16908
100
AcDbEntity
  8
DEFPOINTS
 62
     0
 48
50.0
100
AcDbPoint
 10
6689.673057123664
 20
10667.29355852891
 30
0.0
  0
POINT
  5
19D62
330
16908
100
AcDbEntity
  8
DEFPOINTS
 62
     0
 48
50.0
100
AcDbPoint
 10
9319.673057123663
 20
10292.49742454596
 30
0.0
  0
POINT
  5
19D63
330
16908
100
AcDbEntity
  8
DEFPOINTS
 62
     0
 48
50.0
100
AcDbPoint
 10
9319.673057123663
 20
10757.62711772726
 30
0.0
  0
ENDBLK
  5
17275
330
16908
100
AcDbEntity
  8
0
 48
50.0
100
AcDbBlockEnd
  0
BLOCK
  5
17BD1
330
17BC5
100
AcDbEntity
  8
0
 48
50.0
100
AcDbBlockBegin
  2
*D18
 70
     1
 10
0.0
 20
0.0
 30
0.0
  3
*D18
  1

  0
LINE
  5
19EBF
330
17BC5
100
AcDbEntity
  8
寸法
 62
     0
 48
50.0
370
    -2
100
AcDbLine
 10
4004.67305712364
 20
7222.497424545952
 30
0.0
 11
4004.67305712364
 21
6648.0666537797
 31
0.0
  0
LINE
  5
19EC0
330
17BC5
100
AcDbEntity
  8
寸法
 62
     0
 48
50.0
370
    -2
100
AcDbLine
 10
3956.673057123639
 20
7248.497424545866
 30
0.0
 11
3956.673057123639
 21
6648.0666537797
 31
0.0
  0
LINE
  5
19EC1
330
17BC5
100
AcDbEntity
  8
寸法
 62
     0
 48
50.0
370
    -2
100
AcDbLine
 10
4004.67305712364
 20
6708.0666537797
 30
0.0
 11
4104.67305712364
 21
6708.0666537797
 31
0.0
  0
LINE
  5
19EC2
330
17BC5
100
AcDbEntity
  8
寸法
 62
     0
 48
50.0
370
    -2
100
AcDbLine
 10
3956.673057123639
 20
6708.0666537797
 30
0.0
 11
3856.673057123638
 21
6708.0666537797
 31
0.0
  0
MTEXT
  5
19EC3
330
17BC5
100
AcDbEntity
  8
寸法
 62
     7
 48
50.0
100
AcDbMText
 10
3845.710159474892
 20
6808.0666537797
 30
0.0
 40
120.0
 41
0.0
 71
     5
 72
     1
  1
\A1;48
  7
STYLE1
 73
     1
 44
1.0
1001
ACAD
1000
MTEXTBEGIN
1070
    73
1070
     1
1070
    44
1040
1.0
1070
    74
1070
     0
1000
MTEXTEND
  0
LINE
  5
19EC4
330
17BC5
100
AcDbEntity
  8
寸法
 62
     0
 48
50.0
370
    -2
100
AcDbLine
 10
4004.67305712364
 20
6708.0666537797
 30
0.0
 11
3956.673057123639
 21
6708.0666537797
 31
0.0
  0
INSERT
  5
19EC5
330
17BC5
100
AcDbEntity
  8
寸法
 62
     0
 48
50.0
370
    -2
100
AcDbBlockReference
  2
_DOTSMALL
 10
4004.67305712364
 20
6708.0666537797
 30
0.0
 41
100.0
 42
100.0
 43
100.0
 50
180.0
  0
INSERT
  5
19EC6
330
17BC5
100
AcDbEntity
  8
寸法
 62
     0
 48
50.0
370
    -2
100
AcDbBlockReference
  2
_DOTSMALL
 10
3956.673057123639
 20
6708.0666537797
 30
0.0
 41
100.0
 42
100.0
 43
100.0
  0
POINT
  5
19EC7
330
17BC5
100
AcDbEntity
  8
DEFPOINTS
 62
     0
 48
50.0
100
AcDbPoint
 10
4004.67305712364
 20
7242.497424545952
 30
0.0
  0
POINT
  5
19EC8
330
17BC5
100
AcDbEntity
  8
DEFPOINTS
 62
     0
 48
50.0
100
AcDbPoint
 10
3956.673057123639
 20
7268.497424545865
 30
0.0
  0
POINT
  5
19EC9
330
17BC5
100
AcDbEntity
  8
DEFPOINTS
 62
     0
 48
50.0
100
AcDbPoint
 10
3956.673057123639
 20
6708.0666537797
 30
0.0
  0
ENDBLK
  5
17BD2
330
17BC5
100
AcDbEntity
  8
0
 48
50.0
100
AcDbBlockEnd
  0
BLOCK
  5
17BDC
330
17BD3
100
AcDbEntity
  8
0
 48
50.0
100
AcDbBlockBegin
  2
*D19
 70
     1
 10
0.0
 20
0.0
 30
0.0
  3
*D19
  1

  0
LINE
  5
19ECA
330
17BD3
100
AcDbEntity
  8
寸法
 62
     0
 48
50.0
370
    -2
100
AcDbLine
 10
1532.673057123657
 20
7248.497424545864
 30
0.0
 11
1532.673057123657
 21
6648.0666537797
 31
0.0
  0
LINE
  5
19ECB
330
17BD3
100
AcDbEntity
  8
寸法
 62
     0
 48
50.0
370
    -2
100
AcDbLine
 10
3956.673057123639
 20
6708.0666537797
 30
0.0
 11
1532.673057123657
 21
6708.0666537797
 31
0.0
  0
INSERT
  5
19ECC
330
17BD3
100
AcDbEntity
  8
寸法
 62
     0
 48
50.0
370
    -2
100
AcDbBlockReference
  2
_DOTSMALL
 10
3956.673057123639
 20
6708.0666537797
 30
0.0
 41
100.0
 42
100.0
 43
100.0
  0
INSERT
  5
19ECD
330
17BD3
100
AcDbEntity
  8
寸法
 62
     0
 48
50.0
370
    -2
100
AcDbBlockReference
  2
_DOTSMALL
 10
1532.673057123657
 20
6708.0666537797
 30
0.0
 41
100.0
 42
100.0
 43
100.0
 50
180.0
  0
MTEXT
  5
19ECE
330
17BD3
100
AcDbEntity
  8
寸法
 62
     7
 48
50.0
100
AcDbMText
 10
2744.673057123648
 20
6808.078464803323
 30
0.0
 40
120.0
 41
0.0
 71
     5
 72
     1
  1
\A1;有効開口部間口 2424
  7
STYLE1
 73
     1
 44
1.0
1001
ACAD
1000
MTEXTBEGIN
1070
    73
1070
     1
1070
    44
1040
1.0
1070
    74
1070
     0
1000
MTEXTEND
  0
POINT
  5
19ECF
330
17BD3
100
AcDbEntity
  8
DEFPOINTS
 62
     0
 48
50.0
100
AcDbPoint
 10
3956.673057123639
 20
7268.497424545865
 30
0.0
  0
POINT
  5
19ED0
330
17BD3
100
AcDbEntity
  8
DEFPOINTS
 62
     0
 48
50.0
100
AcDbPoint
 10
1532.673057123657
 20
7268.497424545865
 30
0.0
  0
POINT
  5
19ED1
330
17BD3
100
AcDbEntity
  8
DEFPOINTS
 62
     0
 48
50.0
100
AcDbPoint
 10
1532.673057123657
 20
6708.0666537797
 30
0.0
  0
ENDBLK
  5
17BDD
330
17BD3
100
AcDbEntity
  8
0
 48
50.0
100
AcDbBlockEnd
  0
BLOCK
  5
17BE8
330
17BDE
100
AcDbEntity
  8
0
 48
50.0
100
AcDbBlockBegin
  2
*D20
 70
     1
 10
0.0
 20
0.0
 30
0.0
  3
*D20
  1

  0
LINE
  5
1A050
330
17BDE
100
AcDbEntity
  8
寸法
 62
     0
 48
50.0
370
    -2
100
AcDbLine
 10
1484.673057123663
 20
10312.49742454587
 30
0.0
 11
1484.673057123663
 21
10568.30564417096
 31
0.0
  0
LINE
  5
1A051
330
17BDE
100
AcDbEntity
  8
寸法
 62
     0
 48
50.0
370
    -2
100
AcDbLine
 10
4004.673057123664
 20
10312.49742454596
 30
0.0
 11
4004.673057123664
 21
10568.30564417096
 31
0.0
  0
LINE
  5
1A052
330
17BDE
100
AcDbEntity
  8
寸法
 62
     0
 48
50.0
370
    -2
100
AcDbLine
 10
1484.673057123663
 20
10508.30564417096
 30
0.0
 11
4004.673057123664
 21
10508.30564417096
 31
0.0
  0
INSERT
  5
1A053
330
17BDE
100
AcDbEntity
  8
寸法
 62
     0
 48
50.0
370
    -2
100
AcDbBlockReference
  2
_DOTSMALL
 10
1484.673057123663
 20
10508.30564417096
 30
0.0
 41
100.0
 42
100.0
 43
100.0
 50
180.0
  0
INSERT
  5
1A054
330
17BDE
100
AcDbEntity
  8
寸法
 62
     0
 48
50.0
370
    -2
100
AcDbBlockReference
  2
_DOTSMALL
 10
4004.673057123664
 20
10508.30564417096
 30
0.0
 41
100.0
 42
100.0
 43
100.0
  0
MTEXT
  5
1A055
330
17BDE
100
AcDbEntity
  8
寸法
 62
     7
 48
50.0
100
AcDbMText
 10
2744.673057123664
 20
10608.31745519459
 30
0.0
 40
120.0
 41
0.0
 71
     5
 72
     1
  1
\A1;6X420=2520
  7
STYLE1
 73
     1
 44
1.0
1001
ACAD
1000
MTEXTBEGIN
1070
    73
1070
     1
1070
    44
1040
1.0
1070
    74
1070
     0
1000
MTEXTEND
  0
POINT
  5
1A056
330
17BDE
100
AcDbEntity
  8
DEFPOINTS
 62
     0
 48
50.0
100
AcDbPoint
 10
1484.673057123663
 20
10292.49742454587
 30
0.0
  0
POINT
  5
1A057
330
17BDE
100
AcDbEntity
  8
DEFPOINTS
 62
     0
 48
50.0
100
AcDbPoint
 10
4004.673057123664
 20
10292.49742454596
 30
0.0
  0
POINT
  5
1A058
330
17BDE
100
AcDbEntity
  8
DEFPOINTS
 62
     0
 48
50.0
100
AcDbPoint
 10
4004.673057123664
 20
10508.30564417096
 30
0.0
  0
ENDBLK
  5
17BE9
330
17BDE
100
AcDbEntity
  8
0
 48
50.0
100
AcDbBlockEnd
  0
BLOCK
  5
17BF6
330
17BEA
100
AcDbEntity
  8
0
 48
50.0
100
AcDbBlockBegin
  2
*D21
 70
     1
 10
0.0
 20
0.0
 30
0.0
  3
*D21
  1

  0
LINE
  5
19ED2
330
17BEA
100
AcDbEntity
  8
寸法
 62
     0
 48
50.0
370
    -2
100
AcDbLine
 10
4114.673057123662
 20
10312.49742454592
 30
0.0
 11
4114.673057123662
 21
10568.30564417096
 31
0.0
  0
LINE
  5
19ED3
330
17BEA
100
AcDbEntity
  8
寸法
 62
     0
 48
50.0
370
    -2
100
AcDbLine
 10
4004.673057123664
 20
10312.49742454591
 30
0.0
 11
4004.673057123664
 21
10568.30564417096
 31
0.0
  0
LINE
  5
19ED4
330
17BEA
100
AcDbEntity
  8
寸法
 62
     0
 48
50.0
370
    -2
100
AcDbLine
 10
4114.673057123662
 20
10508.30564417096
 30
0.0
 11
4214.673057123663
 21
10508.30564417096
 31
0.0
  0
LINE
  5
19ED5
330
17BEA
100
AcDbEntity
  8
寸法
 62
     0
 48
50.0
370
    -2
100
AcDbLine
 10
4004.673057123664
 20
10508.30564417096
 30
0.0
 11
3904.673057123665
 21
10508.30564417096
 31
0.0
  0
LINE
  5
19ED6
330
17BEA
100
AcDbEntity
  8
寸法
 62
     0
 48
50.0
370
    -2
100
AcDbLine
 10
4114.673057123662
 20
10508.30564417096
 30
0.0
 11
4004.673057123664
 21
10508.30564417096
 31
0.0
  0
INSERT
  5
19ED7
330
17BEA
100
AcDbEntity
  8
寸法
 62
     0
 48
50.0
370
    -2
100
AcDbBlockReference
  2
_DOTSMALL
 10
4114.673057123662
 20
10508.30564417096
 30
0.0
 41
100.0
 42
100.0
 43
100.0
 50
180.0
  0
INSERT
  5
19ED8
330
17BEA
100
AcDbEntity
  8
寸法
 62
     0
 48
50.0
370
    -2
100
AcDbBlockReference
  2
_DOTSMALL
 10
4004.673057123664
 20
10508.30564417096
 30
0.0
 41
100.0
 42
100.0
 43
100.0
  0
MTEXT
  5
19ED9
330
17BEA
100
AcDbEntity
  8
寸法
 62
     7
 48
50.0
100
AcDbMText
 10
4059.673057123663
 20
10608.30564417096
 30
0.0
 40
120.0
 41
0.0
 71
     5
 72
     1
  1
\A1;110
  7
STYLE1
 73
     1
 44
1.0
1001
ACAD
1000
MTEXTBEGIN
1070
    73
1070
     1
1070
    44
1040
1.0
1070
    74
1070
     0
1000
MTEXTEND
  0
POINT
  5
19EDA
330
17BEA
100
AcDbEntity
  8
DEFPOINTS
 62
     0
 48
50.0
100
AcDbPoint
 10
4114.673057123662
 20
10292.49742454592
 30
0.0
  0
POINT
  5
19EDB
330
17BEA
100
AcDbEntity
  8
DEFPOINTS
 62
     0
 48
50.0
100
AcDbPoint
 10
4004.673057123664
 20
10292.49742454591
 30
0.0
  0
POINT
  5
19EDC
330
17BEA
100
AcDbEntity
  8
DEFPOINTS
 62
     0
 48
50.0
100
AcDbPoint
 10
4004.673057123664
 20
10508.30564417096
 30
0.0
  0
ENDBLK
  5
17BF7
330
17BEA
100
AcDbEntity
  8
0
 48
50.0
100
AcDbBlockEnd
  0
BLOCK
  5
17C02
330
17BF8
100
AcDbEntity
  8
0
 48
50.0
100
AcDbBlockBegin
  2
*D22
 70
     1
 10
0.0
 20
0.0
 30
0.0
  3
*D22
  1

  0
LINE
  5
19EE6
330
17BF8
100
AcDbEntity
  8
寸法
 62
     0
 48
50.0
370
    -2
100
AcDbLine
 10
1429.673057123628
 20
10312.49742454583
 30
0.0
 11
1429.673057123628
 21
10817.62711772726
 31
0.0
  0
LINE
  5
19EE7
330
17BF8
100
AcDbEntity
  8
寸法
 62
     0
 48
50.0
370
    -2
100
AcDbLine
 10
4059.673057123664
 20
10687.29355852891
 30
0.0
 11
4059.673057123664
 21
10817.62711772726
 31
0.0
  0
LINE
  5
19EE8
330
17BF8
100
AcDbEntity
  8
寸法
 62
     0
 48
50.0
370
    -2
100
AcDbLine
 10
1429.673057123628
 20
10757.62711772726
 30
0.0
 11
4059.673057123664
 21
10757.62711772726
 31
0.0
  0
INSERT
  5
19EE9
330
17BF8
100
AcDbEntity
  8
寸法
 62
     0
 48
50.0
370
    -2
100
AcDbBlockReference
  2
_DOTSMALL
 10
1429.673057123628
 20
10757.62711772726
 30
0.0
 41
100.0
 42
100.0
 43
100.0
 50
180.0
  0
INSERT
  5
19EEA
330
17BF8
100
AcDbEntity
  8
寸法
 62
     0
 48
50.0
370
    -2
100
AcDbBlockReference
  2
_DOTSMALL
 10
4059.673057123664
 20
10757.62711772726
 30
0.0
 41
100.0
 42
100.0
 43
100.0
  0
MTEXT
  5
19EEB
330
17BF8
100
AcDbEntity
  8
寸法
 62
     7
 48
50.0
100
AcDbMText
 10
2744.673057123646
 20
10857.63892875088
 30
0.0
 40
120.0
 41
0.0
 71
     5
 72
     1
  1
\A1;2630
  7
STYLE1
 73
     1
 44
1.0
1001
ACAD
1000
MTEXTBEGIN
1070
    73
1070
     1
1070
    44
1040
1.0
1070
    74
1070
     0
1000
MTEXTEND
  0
POINT
  5
19EEC
330
17BF8
100
AcDbEntity
  8
DEFPOINTS
 62
     0
 48
50.0
100
AcDbPoint
 10
1429.673057123628
 20
10292.49742454583
 30
0.0
  0
POINT
  5
19EED
330
17BF8
100
AcDbEntity
  8
DEFPOINTS
 62
     0
 48
50.0
100
AcDbPoint
 10
4059.673057123664
 20
10667.29355852891
 30
0.0
  0
POINT
  5
19EEE
330
17BF8
100
AcDbEntity
  8
DEFPOINTS
 62
     0
 48
50.0
100
AcDbPoint
 10
4059.673057123664
 20
10757.62711772726
 30
0.0
  0
ENDBLK
  5
17C03
330
17BF8
100
AcDbEntity
  8
0
 48
50.0
100
AcDbBlockEnd
  0
BLOCK
  5
17C54
330
17C48
100
AcDbEntity
  8
0
 48
50.0
100
AcDbBlockBegin
  2
*D23
 70
     1
 10
0.0
 20
0.0
 30
0.0
  3
*D23
  1

  0
LINE
  5
19EAB
330
17C48
100
AcDbEntity
  8
寸法
 62
     0
 48
50.0
370
    -2
100
AcDbLine
 10
4162.673057123657
 20
7248.497424545864
 30
0.0
 11
4162.673057123657
 21
6648.0666537797
 31
0.0
  0
LINE
  5
19EAC
330
17C48
100
AcDbEntity
  8
寸法
 62
     0
 48
50.0
370
    -2
100
AcDbLine
 10
4114.673057123653
 20
7222.497424545863
 30
0.0
 11
4114.673057123653
 21
6648.0666537797
 31
0.0
  0
LINE
  5
19EAD
330
17C48
100
AcDbEntity
  8
寸法
 62
     0
 48
50.0
370
    -2
100
AcDbLine
 10
4162.673057123657
 20
6708.0666537797
 30
0.0
 11
4262.673057123657
 21
6708.0666537797
 31
0.0
  0
LINE
  5
19EAE
330
17C48
100
AcDbEntity
  8
寸法
 62
     0
 48
50.0
370
    -2
100
AcDbLine
 10
4114.673057123653
 20
6708.0666537797
 30
0.0
 11
4014.673057123653
 21
6708.0666537797
 31
0.0
  0
MTEXT
  5
19EAF
330
17C48
100
AcDbEntity
  8
寸法
 62
     7
 48
50.0
100
AcDbMText
 10
4275.575028123713
 20
6808.0666537797
 30
0.0
 40
120.0
 41
0.0
 71
     5
 72
     1
  1
\A1;48
  7
STYLE1
 73
     1
 44
1.0
1001
ACAD
1000
MTEXTBEGIN
1070
    73
1070
     1
1070
    44
1040
1.0
1070
    74
1070
     0
1000
MTEXTEND
  0
LINE
  5
19EB0
330
17C48
100
AcDbEntity
  8
寸法
 62
     0
 48
50.0
370
    -2
100
AcDbLine
 10
4162.673057123657
 20
6708.0666537797
 30
0.0
 11
4114.673057123653
 21
6708.0666537797
 31
0.0
  0
INSERT
  5
19EB1
330
17C48
100
AcDbEntity
  8
寸法
 62
     0
 48
50.0
370
    -2
100
AcDbBlockReference
  2
_DOTSMALL
 10
4162.673057123657
 20
6708.0666537797
 30
0.0
 41
100.0
 42
100.0
 43
100.0
 50
180.0
  0
INSERT
  5
19EB2
330
17C48
100
AcDbEntity
  8
寸法
 62
     0
 48
50.0
370
    -2
100
AcDbBlockReference
  2
_DOTSMALL
 10
4114.673057123653
 20
6708.0666537797
 30
0.0
 41
100.0
 42
100.0
 43
100.0
  0
POINT
  5
19EB3
330
17C48
100
AcDbEntity
  8
DEFPOINTS
 62
     0
 48
50.0
100
AcDbPoint
 10
4162.673057123657
 20
7268.497424545865
 30
0.0
  0
POINT
  5
19EB4
330
17C48
100
AcDbEntity
  8
DEFPOINTS
 62
     0
 48
50.0
100
AcDbPoint
 10
4114.673057123653
 20
7242.497424545864
 30
0.0
  0
POINT
  5
19EB5
330
17C48
100
AcDbEntity
  8
DEFPOINTS
 62
     0
 48
50.0
100
AcDbPoint
 10
4114.673057123653
 20
6708.0666537797
 30
0.0
  0
ENDBLK
  5
17C55
330
17C48
100
AcDbEntity
  8
0
 48
50.0
100
AcDbBlockEnd
  0
BLOCK
  5
17C60
330
17C56
100
AcDbEntity
  8
0
 48
50.0
100
AcDbBlockBegin
  2
*D24
 70
     1
 10
0.0
 20
0.0
 30
0.0
  3
*D24
  1

  0
LINE
  5
19EB6
330
17C56
100
AcDbEntity
  8
寸法
 62
     0
 48
50.0
370
    -2
100
AcDbLine
 10
4114.673057123653
 20
7222.497424545863
 30
0.0
 11
4114.673057123653
 21
6648.066653779702
 31
0.0
  0
LINE
  5
19EB7
330
17C56
100
AcDbEntity
  8
寸法
 62
     0
 48
50.0
370
    -2
100
AcDbLine
 10
4004.67305712364
 20
7222.497424545952
 30
0.0
 11
4004.67305712364
 21
6648.066653779702
 31
0.0
  0
LINE
  5
19EB8
330
17C56
100
AcDbEntity
  8
寸法
 62
     0
 48
50.0
370
    -2
100
AcDbLine
 10
4114.673057123653
 20
6708.066653779702
 30
0.0
 11
4004.67305712364
 21
6708.066653779702
 31
0.0
  0
MTEXT
  5
19EB9
330
17C56
100
AcDbEntity
  8
寸法
 62
     7
 48
50.0
100
AcDbMText
 10
4059.673057123647
 20
6556.37475874347
 30
0.0
 40
120.0
 41
0.0
 71
     5
 72
     1
  1
\A1;110
  7
STYLE1
 73
     1
 44
1.0
1001
ACAD
1000
MTEXTBEGIN
1070
    73
1070
     1
1070
    44
1040
1.0
1070
    74
1070
     0
1000
MTEXTEND
  0
INSERT
  5
19EBA
330
17C56
100
AcDbEntity
  8
寸法
 62
     0
 48
50.0
370
    -2
100
AcDbBlockReference
  2
_DOTSMALL
 10
4114.673057123653
 20
6708.066653779702
 30
0.0
 41
100.0
 42
100.0
 43
100.0
  0
INSERT
  5
19EBB
330
17C56
100
AcDbEntity
  8
寸法
 62
     0
 48
50.0
370
    -2
100
AcDbBlockReference
  2
_DOTSMALL
 10
4004.67305712364
 20
6708.066653779702
 30
0.0
 41
100.0
 42
100.0
 43
100.0
 50
180.0
  0
POINT
  5
19EBC
330
17C56
100
AcDbEntity
  8
DEFPOINTS
 62
     0
 48
50.0
100
AcDbPoint
 10
4114.673057123653
 20
7242.497424545864
 30
0.0
  0
POINT
  5
19EBD
330
17C56
100
AcDbEntity
  8
DEFPOINTS
 62
     0
 48
50.0
100
AcDbPoint
 10
4004.67305712364
 20
7242.497424545952
 30
0.0
  0
POINT
  5
19EBE
330
17C56
100
AcDbEntity
  8
DEFPOINTS
 62
     0
 48
50.0
100
AcDbPoint
 10
4004.67305712364
 20
6708.066653779702
 30
0.0
  0
ENDBLK
  5
17C61
330
17C56
100
AcDbEntity
  8
0
 48
50.0
100
AcDbBlockEnd
  0
BLOCK
  5
18F95
330
18F8A
100
AcDbEntity
  8
0
 48
50.0
100
AcDbBlockBegin
  2
*D25
 70
     1
 10
0.0
 20
0.0
 30
0.0
  3
*D25
  1

  0
LINE
  5
19CE7
330
18F8A
100
AcDbEntity
  8
寸法
 62
     0
 48
50.0
370
    -2
100
AcDbLine
 10
11949.91323435718
 20
4676.656911265892
 30
0.0
 11
11333.97879525188
 21
4694.371061540222
 31
0.0
  0
LINE
  5
19CE8
330
18F8A
100
AcDbEntity
  8
寸法
 62
     0
 48
50.0
370
    -2
100
AcDbLine
 10
11945.85977880056
 20
4535.715187500178
 30
0.0
 11
11329.92533969526
 21
4553.429337774509
 31
0.0
  0
LINE
  5
19CE9
330
18F8A
100
AcDbEntity
  8
寸法
 62
     0
 48
50.0
370
    -2
100
AcDbLine
 10
11389.90054129769
 20
4551.704463069561
 30
0.0
 11
11393.95399685432
 21
4692.646186835275
 31
0.0
  0
LINE
  5
19CEA
330
18F8A
100
AcDbEntity
  8
寸法
 62
     0
 48
50.0
370
    -2
100
AcDbLine
 10
11393.95399685432
 20
4692.646186835275
 30
0.0
 11
11404.303245084
 21
5052.49739644986
 31
0.0
  0
INSERT
  5
19CEB
330
18F8A
100
AcDbEntity
  8
寸法
 62
     0
 48
50.0
370
    -2
100
AcDbBlockReference
  2
_DOTSMALL
 10
11389.90054129769
 20
4551.704463069561
 30
0.0
 41
100.0
 42
100.0
 43
100.0
 50
268.3526390256378
  0
INSERT
  5
19CEC
330
18F8A
100
AcDbEntity
  8
寸法
 62
     0
 48
50.0
370
    -2
100
AcDbBlockReference
  2
_DOTSMALL
 10
11393.95399685432
 20
4692.646186835275
 30
0.0
 41
100.0
 42
100.0
 43
100.0
 50
88.35263902563776
  0
MTEXT
  5
19CED
330
18F8A
100
AcDbEntity
  8
寸法
 62
     7
 48
50.0
100
AcDbMText
 10
11300.60734721923
 20
4925.425917486172
 30
0.0
 40
120.0
 41
0.0
 71
     5
 72
     1
  1
\A1;141
  7
STYLE1
 11
0.0287479117491237
 21
0.9995866933738488
 31
0.0
 73
     1
 44
1.0
1001
ACAD
1000
MTEXTBEGIN
1070
    73
1070
     1
1070
    44
1040
1.0
1070
    74
1070
     0
1000
MTEXTEND
  0
POINT
  5
19CEE
330
18F8A
100
AcDbEntity
  8
DEFPOINTS
 62
     0
 48
50.0
100
AcDbPoint
 10
11969.90496822466
 20
4676.081953030909
 30
0.0
  0
POINT
  5
19CEF
330
18F8A
100
AcDbEntity
  8
DEFPOINTS
 62
     0
 48
50.0
100
AcDbPoint
 10
11965.85151266803
 20
4535.140229265195
 30
0.0
  0
POINT
  5
19CF0
330
18F8A
100
AcDbEntity
  8
DEFPOINTS
 62
     0
 48
50.0
100
AcDbPoint
 10
11389.90054129769
 20
4551.704463069561
 30
0.0
  0
ENDBLK
  5
18F96
330
18F8A
100
AcDbEntity
  8
0
 48
50.0
100
AcDbBlockEnd
  0
BLOCK
  5
18FA2
330
18F97
100
AcDbEntity
  8
0
 48
50.0
100
AcDbBlockBegin
  2
*D26
 70
     1
 10
0.0
 20
0.0
 30
0.0
  3
*D26
  1

  0
LINE
  5
19CDD
330
18F97
100
AcDbEntity
  8
寸法
 62
     0
 48
50.0
370
    -2
100
AcDbLine
 10
15060.50894806608
 20
4644.169883807885
 30
0.0
 11
15060.50894806608
 21
5136.016657775535
 31
0.0
  0
LINE
  5
19CDE
330
18F97
100
AcDbEntity
  8
寸法
 62
     0
 48
50.0
370
    -2
100
AcDbLine
 10
15140.50894806608
 20
4642.359204196233
 30
0.0
 11
15140.50894806608
 21
5136.016657775535
 31
0.0
  0
LINE
  5
19CDF
330
18F97
100
AcDbEntity
  8
寸法
 62
     0
 48
50.0
370
    -2
100
AcDbLine
 10
15060.50894806608
 20
5076.016657775536
 30
0.0
 11
15140.50894806608
 21
5076.016657775536
 31
0.0
  0
LINE
  5
19CE0
330
18F97
100
AcDbEntity
  8
寸法
 62
     0
 48
50.0
370
    -2
100
AcDbLine
 10
15140.50894806608
 20
5076.016657775536
 30
0.0
 11
15452.60343625506
 21
5076.016657775536
 31
0.0
  0
INSERT
  5
19CE1
330
18F97
100
AcDbEntity
  8
寸法
 62
     0
 48
50.0
370
    -2
100
AcDbBlockReference
  2
_DOTSMALL
 10
15060.50894806608
 20
5076.016657775536
 30
0.0
 41
100.0
 42
100.0
 43
100.0
 50
180.0
  0
INSERT
  5
19CE2
330
18F97
100
AcDbEntity
  8
寸法
 62
     0
 48
50.0
370
    -2
100
AcDbBlockReference
  2
_DOTSMALL
 10
15140.50894806608
 20
5076.016657775536
 30
0.0
 41
100.0
 42
100.0
 43
100.0
  0
MTEXT
  5
19CE3
330
18F97
100
AcDbEntity
  8
寸法
 62
     7
 48
50.0
100
AcDbMText
 10
15346.55619216057
 20
5176.016657775535
 30
0.0
 40
120.0
 41
0.0
 71
     5
 72
     1
  1
\A1;80
  7
STYLE1
 73
     1
 44
1.0
1001
ACAD
1000
MTEXTBEGIN
1070
    73
1070
     1
1070
    44
1040
1.0
1070
    74
1070
     0
1000
MTEXTEND
  0
POINT
  5
19CE4
330
18F97
100
AcDbEntity
  8
DEFPOINTS
 62
     0
 48
50.0
100
AcDbPoint
 10
15060.50894806608
 20
4624.169883807884
 30
0.0
  0
POINT
  5
19CE5
330
18F97
100
AcDbEntity
  8
DEFPOINTS
 62
     0
 48
50.0
100
AcDbPoint
 10
15140.50894806608
 20
4622.359204196232
 30
0.0
  0
POINT
  5
19CE6
330
18F97
100
AcDbEntity
  8
DEFPOINTS
 62
     0
 48
50.0
100
AcDbPoint
 10
15140.50894806608
 20
5076.016657775536
 30
0.0
  0
ENDBLK
  5
18FA3
330
18F97
100
AcDbEntity
  8
0
 48
50.0
100
AcDbBlockEnd
  0
BLOCK
  5
18FAE
330
18FA4
100
AcDbEntity
  8
0
 48
50.0
100
AcDbBlockBegin
  2
*D27
 70
     1
 10
0.0
 20
0.0
 30
0.0
  3
*D27
  1

  0
LINE
  5
19CD4
330
18FA4
100
AcDbEntity
  8
寸法
 62
     0
 48
50.0
370
    -2
100
AcDbLine
 10
15140.50894806608
 20
4642.359204196231
 30
0.0
 11
15140.50894806608
 21
5366.130250561812
 31
0.0
  0
LINE
  5
19CD5
330
18FA4
100
AcDbEntity
  8
寸法
 62
     0
 48
50.0
370
    -2
100
AcDbLine
 10
11950.50894806608
 20
4697.359204196234
 30
0.0
 11
11950.50894806608
 21
5366.130250561812
 31
0.0
  0
LINE
  5
19CD6
330
18FA4
100
AcDbEntity
  8
寸法
 62
     0
 48
50.0
370
    -2
100
AcDbLine
 10
15140.50894806608
 20
5306.130250561811
 30
0.0
 11
11950.50894806608
 21
5306.130250561811
 31
0.0
  0
INSERT
  5
19CD7
330
18FA4
100
AcDbEntity
  8
寸法
 62
     0
 48
50.0
370
    -2
100
AcDbBlockReference
  2
_DOTSMALL
 10
15140.50894806608
 20
5306.130250561811
 30
0.0
 41
100.0
 42
100.0
 43
100.0
  0
INSERT
  5
19CD8
330
18FA4
100
AcDbEntity
  8
寸法
 62
     0
 48
50.0
370
    -2
100
AcDbBlockReference
  2
_DOTSMALL
 10
11950.50894806608
 20
5306.130250561811
 30
0.0
 41
100.0
 42
100.0
 43
100.0
 50
180.0
  0
MTEXT
  5
19CD9
330
18FA4
100
AcDbEntity
  8
寸法
 62
     7
 48
50.0
100
AcDbMText
 10
13545.50894806608
 20
5406.130250561812
 30
0.0
 40
120.0
 41
0.0
 71
     5
 72
     1
  1
\A1;3190
  7
STYLE1
 73
     1
 44
1.0
1001
ACAD
1000
MTEXTBEGIN
1070
    73
1070
     1
1070
    44
1040
1.0
1070
    74
1070
     0
1000
MTEXTEND
  0
POINT
  5
19CDA
330
18FA4
100
AcDbEntity
  8
DEFPOINTS
 62
     0
 48
50.0
100
AcDbPoint
 10
15140.50894806608
 20
4622.359204196231
 30
0.0
  0
POINT
  5
19CDB
330
18FA4
100
AcDbEntity
  8
DEFPOINTS
 62
     0
 48
50.0
100
AcDbPoint
 10
11950.50894806608
 20
4677.359204196234
 30
0.0
  0
POINT
  5
19CDC
330
18FA4
100
AcDbEntity
  8
DEFPOINTS
 62
     0
 48
50.0
100
AcDbPoint
 10
11950.50894806608
 20
5306.130250561811
 30
0.0
  0
ENDBLK
  5
18FAF
330
18FA4
100
AcDbEntity
  8
0
 48
50.0
100
AcDbBlockEnd
  0
BLOCK
  5
18FBC
330
18FB0
100
AcDbEntity
  8
0
 48
50.0
100
AcDbBlockBegin
  2
*D28
 70
     1
 10
0.0
 20
0.0
 30
0.0
  3
*D28
  1

  0
LINE
  5
19CC9
330
18FB0
100
AcDbEntity
  8
寸法
 62
     0
 48
50.0
370
    -2
100
AcDbLine
 10
12010.50894806608
 20
4693.360822319205
 30
0.0
 11
12010.50894806608
 21
5136.016657775534
 31
0.0
  0
LINE
  5
19CCA
330
18FB0
100
AcDbEntity
  8
寸法
 62
     0
 48
50.0
370
    -2
100
AcDbLine
 10
11950.50894806608
 20
4697.359204196234
 30
0.0
 11
11950.50894806608
 21
5136.016657775534
 31
0.0
  0
LINE
  5
19CCB
330
18FB0
100
AcDbEntity
  8
寸法
 62
     0
 48
50.0
370
    -2
100
AcDbLine
 10
12010.50894806608
 20
5076.016657775533
 30
0.0
 11
12110.50894806608
 21
5076.016657775533
 31
0.0
  0
LINE
  5
19CCC
330
18FB0
100
AcDbEntity
  8
寸法
 62
     0
 48
50.0
370
    -2
100
AcDbLine
 10
11950.50894806608
 20
5076.016657775533
 30
0.0
 11
11531.2333575149
 21
5076.016657775533
 31
0.0
  0
LINE
  5
19CCD
330
18FB0
100
AcDbEntity
  8
寸法
 62
     0
 48
50.0
370
    -2
100
AcDbLine
 10
12010.50894806608
 20
5076.016657775533
 30
0.0
 11
11950.50894806608
 21
5076.016657775533
 31
0.0
  0
INSERT
  5
19CCE
330
18FB0
100
AcDbEntity
  8
寸法
 62
     0
 48
50.0
370
    -2
100
AcDbBlockReference
  2
_DOTSMALL
 10
12010.50894806608
 20
5076.016657775533
 30
0.0
 41
100.0
 42
100.0
 43
100.0
 50
180.0
  0
INSERT
  5
19CCF
330
18FB0
100
AcDbEntity
  8
寸法
 62
     0
 48
50.0
370
    -2
100
AcDbBlockReference
  2
_DOTSMALL
 10
11950.50894806608
 20
5076.016657775533
 30
0.0
 41
100.0
 42
100.0
 43
100.0
  0
MTEXT
  5
19CD0
330
18FB0
100
AcDbEntity
  8
寸法
 62
     7
 48
50.0
100
AcDbMText
 10
11640.87115279049
 20
5176.016657775534
 30
0.0
 40
120.0
 41
0.0
 71
     5
 72
     1
  1
\A1;60
  7
STYLE1
 73
     1
 44
1.0
1001
ACAD
1000
MTEXTBEGIN
1070
    73
1070
     1
1070
    44
1040
1.0
1070
    74
1070
     0
1000
MTEXTEND
  0
POINT
  5
19CD1
330
18FB0
100
AcDbEntity
  8
DEFPOINTS
 62
     0
 48
50.0
100
AcDbPoint
 10
12010.50894806608
 20
4673.360822319206
 30
0.0
  0
POINT
  5
19CD2
330
18FB0
100
AcDbEntity
  8
DEFPOINTS
 62
     0
 48
50.0
100
AcDbPoint
 10
11950.50894806608
 20
4677.359204196234
 30
0.0
  0
POINT
  5
19CD3
330
18FB0
100
AcDbEntity
  8
DEFPOINTS
 62
     0
 48
50.0
100
AcDbPoint
 10
11950.50894806608
 20
5076.016657775533
 30
0.0
  0
ENDBLK
  5
18FBD
330
18FB0
100
AcDbEntity
  8
0
 48
50.0
100
AcDbBlockEnd
  0
BLOCK
  5
18FC8
330
18FBE
100
AcDbEntity
  8
0
 48
50.0
100
AcDbBlockBegin
  2
*D29
 70
     1
 10
0.0
 20
0.0
 30
0.0
  3
*D29
  1

  0
LINE
  5
19CC0
330
18FBE
100
AcDbEntity
  8
寸法
 62
     0
 48
50.0
370
    -2
100
AcDbLine
 10
15060.50894806608
 20
4644.169883807885
 30
0.0
 11
15060.50894806608
 21
5136.016657775535
 31
0.0
  0
LINE
  5
19CC1
330
18FBE
100
AcDbEntity
  8
寸法
 62
     0
 48
50.0
370
    -2
100
AcDbLine
 10
12010.50894806608
 20
4693.360822319205
 30
0.0
 11
12010.50894806608
 21
5136.016657775535
 31
0.0
  0
LINE
  5
19CC2
330
18FBE
100
AcDbEntity
  8
寸法
 62
     0
 48
50.0
370
    -2
100
AcDbLine
 10
15060.50894806608
 20
5076.016657775536
 30
0.0
 11
12010.50894806608
 21
5076.016657775536
 31
0.0
  0
INSERT
  5
19CC3
330
18FBE
100
AcDbEntity
  8
寸法
 62
     0
 48
50.0
370
    -2
100
AcDbBlockReference
  2
_DOTSMALL
 10
15060.50894806608
 20
5076.016657775536
 30
0.0
 41
100.0
 42
100.0
 43
100.0
  0
INSERT
  5
19CC4
330
18FBE
100
AcDbEntity
  8
寸法
 62
     0
 48
50.0
370
    -2
100
AcDbBlockReference
  2
_DOTSMALL
 10
12010.50894806608
 20
5076.016657775536
 30
0.0
 41
100.0
 42
100.0
 43
100.0
 50
180.0
  0
MTEXT
  5
19CC5
330
18FBE
100
AcDbEntity
  8
寸法
 62
     7
 48
50.0
100
AcDbMText
 10
13535.50894806608
 20
5176.016657775535
 30
0.0
 40
120.0
 41
0.0
 71
     5
 72
     1
  1
\A1;柱外寸法3050
  7
STYLE1
 73
     1
 44
1.0
1001
ACAD
1000
MTEXTBEGIN
1070
    73
1070
     1
1070
    44
1040
1.0
1070
    74
1070
     0
1000
MTEXTEND
  0
POINT
  5
19CC6
330
18FBE
100
AcDbEntity
  8
DEFPOINTS
 62
     0
 48
50.0
100
AcDbPoint
 10
15060.50894806608
 20
4624.169883807884
 30
0.0
  0
POINT
  5
19CC7
330
18FBE
100
AcDbEntity
  8
DEFPOINTS
 62
     0
 48
50.0
100
AcDbPoint
 10
12010.50894806608
 20
4673.360822319206
 30
0.0
  0
POINT
  5
19CC8
330
18FBE
100
AcDbEntity
  8
DEFPOINTS
 62
     0
 48
50.0
100
AcDbPoint
 10
12010.50894806608
 20
5076.016657775536
 30
0.0
  0
ENDBLK
  5
18FC9
330
18FBE
100
AcDbEntity
  8
0
 48
50.0
100
AcDbBlockEnd
  0
BLOCK
  5
18FD6
330
18FCA
100
AcDbEntity
  8
0
 48
50.0
100
AcDbBlockBegin
  2
*D30
 70
     1
 10
0.0
 20
0.0
 30
0.0
  3
*D30
  1

  0
LINE
  5
19CB5
330
18FCA
100
AcDbEntity
  8
寸法
 62
     0
 48
50.0
370
    -2
100
AcDbLine
 10
11990.50894806608
 20
2352.359204196229
 30
0.0
 11
11106.75881888282
 21
2352.35920419623
 31
0.0
  0
LINE
  5
19CB6
330
18FCA
100
AcDbEntity
  8
寸法
 62
     0
 48
50.0
370
    -2
100
AcDbLine
 10
11935.50894806608
 20
2302.359204196229
 30
0.0
 11
11106.75881888282
 21
2302.35920419623
 31
0.0
  0
LINE
  5
19CB7
330
18FCA
100
AcDbEntity
  8
寸法
 62
     0
 48
50.0
370
    -2
100
AcDbLine
 10
11166.75881888282
 20
2352.35920419623
 30
0.0
 11
11166.75881888282
 21
2452.35920419623
 31
0.0
  0
LINE
  5
19CB8
330
18FCA
100
AcDbEntity
  8
寸法
 62
     0
 48
50.0
370
    -2
100
AcDbLine
 10
11166.75881888282
 20
2302.35920419623
 30
0.0
 11
11166.75881888282
 21
1890.264716007249
 31
0.0
  0
LINE
  5
19CB9
330
18FCA
100
AcDbEntity
  8
寸法
 62
     0
 48
50.0
370
    -2
100
AcDbLine
 10
11166.75881888282
 20
2352.35920419623
 30
0.0
 11
11166.75881888282
 21
2302.35920419623
 31
0.0
  0
INSERT
  5
19CBA
330
18FCA
100
AcDbEntity
  8
寸法
 62
     0
 48
50.0
370
    -2
100
AcDbBlockReference
  2
_DOTSMALL
 10
11166.75881888282
 20
2352.35920419623
 30
0.0
 41
100.0
 42
100.0
 43
100.0
 50
270.0
  0
INSERT
  5
19CBB
330
18FCA
100
AcDbEntity
  8
寸法
 62
     0
 48
50.0
370
    -2
100
AcDbBlockReference
  2
_DOTSMALL
 10
11166.75881888282
 20
2302.35920419623
 30
0.0
 41
100.0
 42
100.0
 43
100.0
 50
90.0
  0
MTEXT
  5
19CBC
330
18FCA
100
AcDbEntity
  8
寸法
 62
     7
 48
50.0
100
AcDbMText
 10
11066.75881888282
 20
1996.311960101739
 30
0.0
 40
120.0
 41
0.0
 71
     5
 72
     1
  1
\A1;50
  7
STYLE1
 11
0.0000000000000001
 21
1.0
 31
0.0
 73
     1
 44
1.0
1001
ACAD
1000
MTEXTBEGIN
1070
    73
1070
     1
1070
    44
1040
1.0
1070
    74
1070
     0
1000
MTEXTEND
  0
POINT
  5
19CBD
330
18FCA
100
AcDbEntity
  8
DEFPOINTS
 62
     0
 48
50.0
100
AcDbPoint
 10
12010.50894806608
 20
2352.359204196229
 30
0.0
  0
POINT
  5
19CBE
330
18FCA
100
AcDbEntity
  8
DEFPOINTS
 62
     0
 48
50.0
100
AcDbPoint
 10
11955.50894806608
 20
2302.359204196229
 30
0.0
  0
POINT
  5
19CBF
330
18FCA
100
AcDbEntity
  8
DEFPOINTS
 62
     0
 48
50.0
100
AcDbPoint
 10
11166.75881888282
 20
2302.35920419623
 30
0.0
  0
ENDBLK
  5
18FD7
330
18FCA
100
AcDbEntity
  8
0
 48
50.0
100
AcDbBlockEnd
  0
BLOCK
  5
18FE2
330
18FD8
100
AcDbEntity
  8
0
 48
50.0
100
AcDbBlockBegin
  2
*D31
 70
     1
 10
0.0
 20
0.0
 30
0.0
  3
*D31
  1

  0
LINE
  5
19CAC
330
18FD8
100
AcDbEntity
  8
寸法
 62
     0
 48
50.0
370
    -2
100
AcDbLine
 10
15080.50894806608
 20
2302.359204196231
 30
0.0
 11
15825.43610603821
 21
2302.359204196231
 31
0.0
  0
LINE
  5
19CAD
330
18FD8
100
AcDbEntity
  8
寸法
 62
     0
 48
50.0
370
    -2
100
AcDbLine
 10
15160.50894806608
 20
4622.359204196231
 30
0.0
 11
15825.43610603821
 21
4622.359204196231
 31
0.0
  0
LINE
  5
19CAE
330
18FD8
100
AcDbEntity
  8
寸法
 62
     0
 48
50.0
370
    -2
100
AcDbLine
 10
15765.43610603821
 20
2302.359204196231
 30
0.0
 11
15765.43610603821
 21
4622.359204196231
 31
0.0
  0
INSERT
  5
19CAF
330
18FD8
100
AcDbEntity
  8
寸法
 62
     0
 48
50.0
370
    -2
100
AcDbBlockReference
  2
_DOTSMALL
 10
15765.43610603821
 20
2302.359204196231
 30
0.0
 41
100.0
 42
100.0
 43
100.0
 50
270.0
  0
INSERT
  5
19CB0
330
18FD8
100
AcDbEntity
  8
寸法
 62
     0
 48
50.0
370
    -2
100
AcDbBlockReference
  2
_DOTSMALL
 10
15765.43610603821
 20
4622.359204196231
 30
0.0
 41
100.0
 42
100.0
 43
100.0
 50
90.0
  0
MTEXT
  5
19CB1
330
18FD8
100
AcDbEntity
  8
寸法
 62
     7
 48
50.0
100
AcDbMText
 10
15665.42429501458
 20
3462.359204196234
 30
0.0
 40
120.0
 41
0.0
 71
     5
 72
     1
  1
\A1;2320
  7
STYLE1
 11
0.0000000000000001
 21
1.0
 31
0.0
 73
     1
 44
1.0
1001
ACAD
1000
MTEXTBEGIN
1070
    73
1070
     1
1070
    44
1040
1.0
1070
    74
1070
     0
1000
MTEXTEND
  0
POINT
  5
19CB2
330
18FD8
100
AcDbEntity
  8
DEFPOINTS
 62
     0
 48
50.0
100
AcDbPoint
 10
15060.50894806608
 20
2302.359204196231
 30
0.0
  0
POINT
  5
19CB3
330
18FD8
100
AcDbEntity
  8
DEFPOINTS
 62
     0
 48
50.0
100
AcDbPoint
 10
15140.50894806608
 20
4622.359204196231
 30
0.0
  0
POINT
  5
19CB4
330
18FD8
100
AcDbEntity
  8
DEFPOINTS
 62
     0
 48
50.0
100
AcDbPoint
 10
15765.43610603821
 20
4622.359204196231
 30
0.0
  0
ENDBLK
  5
18FE3
330
18FD8
100
AcDbEntity
  8
0
 48
50.0
100
AcDbBlockEnd
  0
BLOCK
  5
18FEE
330
18FE4
100
AcDbEntity
  8
0
 48
50.0
100
AcDbBlockBegin
  2
*D32
 70
     1
 10
0.0
 20
0.0
 30
0.0
  3
*D32
  1

  0
LINE
  5
19CA3
330
18FE4
100
AcDbEntity
  8
寸法
 62
     0
 48
50.0
370
    -2
100
AcDbLine
 10
11990.50894806608
 20
2302.359204196224
 30
0.0
 11
10806.75881888282
 21
2302.359204196224
 31
0.0
  0
LINE
  5
19CA4
330
18FE4
100
AcDbEntity
  8
寸法
 62
     0
 48
50.0
370
    -2
100
AcDbLine
 10
11930.50894806608
 20
4677.359204196229
 30
0.0
 11
10806.75881888282
 21
4677.359204196229
 31
0.0
  0
LINE
  5
19CA5
330
18FE4
100
AcDbEntity
  8
寸法
 62
     0
 48
50.0
370
    -2
100
AcDbLine
 10
10866.75881888282
 20
2302.359204196224
 30
0.0
 11
10866.75881888282
 21
4677.359204196229
 31
0.0
  0
INSERT
  5
19CA6
330
18FE4
100
AcDbEntity
  8
寸法
 62
     0
 48
50.0
370
    -2
100
AcDbBlockReference
  2
_DOTSMALL
 10
10866.75881888282
 20
2302.359204196224
 30
0.0
 41
100.0
 42
100.0
 43
100.0
 50
270.0
  0
INSERT
  5
19CA7
330
18FE4
100
AcDbEntity
  8
寸法
 62
     0
 48
50.0
370
    -2
100
AcDbBlockReference
  2
_DOTSMALL
 10
10866.75881888282
 20
4677.359204196229
 30
0.0
 41
100.0
 42
100.0
 43
100.0
 50
90.0
  0
MTEXT
  5
19CA8
330
18FE4
100
AcDbEntity
  8
寸法
 62
     7
 48
50.0
100
AcDbMText
 10
10766.7470078592
 20
3489.859204196229
 30
0.0
 40
120.0
 41
0.0
 71
     5
 72
     1
  1
\A1;2375
  7
STYLE1
 11
0.0000000000000001
 21
1.0
 31
0.0
 73
     1
 44
1.0
1001
ACAD
1000
MTEXTBEGIN
1070
    73
1070
     1
1070
    44
1040
1.0
1070
    74
1070
     0
1000
MTEXTEND
  0
POINT
  5
19CA9
330
18FE4
100
AcDbEntity
  8
DEFPOINTS
 62
     0
 48
50.0
100
AcDbPoint
 10
12010.50894806608
 20
2302.359204196224
 30
0.0
  0
POINT
  5
19CAA
330
18FE4
100
AcDbEntity
  8
DEFPOINTS
 62
     0
 48
50.0
100
AcDbPoint
 10
11950.50894806608
 20
4677.359204196229
 30
0.0
  0
POINT
  5
19CAB
330
18FE4
100
AcDbEntity
  8
DEFPOINTS
 62
     0
 48
50.0
100
AcDbPoint
 10
10866.75881888282
 20
4677.359204196229
 30
0.0
  0
ENDBLK
  5
18FEF
330
18FE4
100
AcDbEntity
  8
0
 48
50.0
100
AcDbBlockEnd
  0
BLOCK
  5
18FFA
330
18FF0
100
AcDbEntity
  8
0
 48
50.0
100
AcDbBlockBegin
  2
*D33
 70
     1
 10
0.0
 20
0.0
 30
0.0
  3
*D33
  1

  0
LINE
  5
19C9A
330
18FF0
100
AcDbEntity
  8
寸法
 62
     0
 48
50.0
370
    -2
100
AcDbLine
 10
11990.50894806608
 20
4442.359204196225
 30
0.0
 11
11106.75881888282
 21
4442.359204196225
 31
0.0
  0
LINE
  5
19C9B
330
18FF0
100
AcDbEntity
  8
寸法
 62
     0
 48
50.0
370
    -2
100
AcDbLine
 10
11990.50894806608
 20
2352.359204196224
 30
0.0
 11
11106.75881888282
 21
2352.359204196224
 31
0.0
  0
LINE
  5
19C9C
330
18FF0
100
AcDbEntity
  8
寸法
 62
     0
 48
50.0
370
    -2
100
AcDbLine
 10
11166.75881888282
 20
4442.359204196225
 30
0.0
 11
11166.75881888282
 21
2352.359204196224
 31
0.0
  0
INSERT
  5
19C9D
330
18FF0
100
AcDbEntity
  8
寸法
 62
     0
 48
50.0
370
    -2
100
AcDbBlockReference
  2
_DOTSMALL
 10
11166.75881888282
 20
4442.359204196225
 30
0.0
 41
100.0
 42
100.0
 43
100.0
 50
90.0
  0
INSERT
  5
19C9E
330
18FF0
100
AcDbEntity
  8
寸法
 62
     0
 48
50.0
370
    -2
100
AcDbBlockReference
  2
_DOTSMALL
 10
11166.75881888282
 20
2352.359204196224
 30
0.0
 41
100.0
 42
100.0
 43
100.0
 50
270.0
  0
MTEXT
  5
19C9F
330
18FF0
100
AcDbEntity
  8
寸法
 62
     7
 48
50.0
100
AcDbMText
 10
11066.7470078592
 20
3397.359204196227
 30
0.0
 40
120.0
 41
0.0
 71
     5
 72
     1
  1
\A1;2090
  7
STYLE1
 11
0.0000000000000001
 21
1.0
 31
0.0
 73
     1
 44
1.0
1001
ACAD
1000
MTEXTBEGIN
1070
    73
1070
     1
1070
    44
1040
1.0
1070
    74
1070
     0
1000
MTEXTEND
  0
POINT
  5
19CA0
330
18FF0
100
AcDbEntity
  8
DEFPOINTS
 62
     0
 48
50.0
100
AcDbPoint
 10
12010.50894806608
 20
4442.359204196225
 30
0.0
  0
POINT
  5
19CA1
330
18FF0
100
AcDbEntity
  8
DEFPOINTS
 62
     0
 48
50.0
100
AcDbPoint
 10
12010.50894806608
 20
2352.359204196224
 30
0.0
  0
POINT
  5
19CA2
330
18FF0
100
AcDbEntity
  8
DEFPOINTS
 62
     0
 48
50.0
100
AcDbPoint
 10
11166.75881888282
 20
2352.359204196224
 30
0.0
  0
ENDBLK
  5
18FFB
330
18FF0
100
AcDbEntity
  8
0
 48
50.0
100
AcDbBlockEnd
  0
BLOCK
  5
196F7
330
196ED
100
AcDbEntity
  8
0
 48
50.0
100
AcDbBlockBegin
  2
*D34
 70
     1
 10
0.0
 20
0.0
 30
0.0
  3
*D34
  1

  0
LINE
  5
1A074
330
196ED
100
AcDbEntity
  8
寸法
 62
     0
 48
50.0
370
    -2
100
AcDbLine
 10
9319.673057123658
 20
4697.359204196238
 30
0.0
 11
9319.673057123658
 21
5143.085475928139
 31
0.0
  0
LINE
  5
1A075
330
196ED
100
AcDbEntity
  8
寸法
 62
     0
 48
50.0
370
    -2
100
AcDbLine
 10
1429.673057123653
 20
4697.359204196235
 30
0.0
 11
1429.673057123653
 21
5143.085475928139
 31
0.0
  0
LINE
  5
1A076
330
196ED
100
AcDbEntity
  8
寸法
 62
     0
 48
50.0
370
    -2
100
AcDbLine
 10
9319.673057123658
 20
5083.08547592814
 30
0.0
 11
1429.673057123653
 21
5083.08547592814
 31
0.0
  0
INSERT
  5
1A077
330
196ED
100
AcDbEntity
  8
寸法
 62
     0
 48
50.0
370
    -2
100
AcDbBlockReference
  2
_DOTSMALL
 10
9319.673057123658
 20
5083.08547592814
 30
0.0
 41
100.0
 42
100.0
 43
100.0
  0
INSERT
  5
1A078
330
196ED
100
AcDbEntity
  8
寸法
 62
     0
 48
50.0
370
    -2
100
AcDbBlockReference
  2
_DOTSMALL
 10
1429.673057123653
 20
5083.08547592814
 30
0.0
 41
100.0
 42
100.0
 43
100.0
 50
180.0
  0
MTEXT
  5
1A079
330
196ED
100
AcDbEntity
  8
寸法
 62
     7
 48
50.0
100
AcDbMText
 10
5374.673057123656
 20
5183.097286951761
 30
0.0
 40
120.0
 41
0.0
 71
     5
 72
     1
  1
\A1;柱外寸法 N X 2630
  7
STYLE1
 73
     1
 44
1.0
1001
ACAD
1000
MTEXTBEGIN
1070
    73
1070
     1
1070
    44
1040
1.0
1070
    74
1070
     0
1000
MTEXTEND
  0
POINT
  5
1A07A
330
196ED
100
AcDbEntity
  8
DEFPOINTS
 62
     0
 48
50.0
100
AcDbPoint
 10
9319.673057123658
 20
4677.359204196237
 30
0.0
  0
POINT
  5
1A07B
330
196ED
100
AcDbEntity
  8
DEFPOINTS
 62
     0
 48
50.0
100
AcDbPoint
 10
1429.673057123653
 20
4677.359204196235
 30
0.0
  0
POINT
  5
1A07C
330
196ED
100
AcDbEntity
  8
DEFPOINTS
 62
     0
 48
50.0
100
AcDbPoint
 10
1429.673057123653
 20
5083.08547592814
 30
0.0
  0
ENDBLK
  5
196F8
330
196ED
100
AcDbEntity
  8
0
 48
50.0
100
AcDbBlockEnd
  0
BLOCK
  5
19703
330
196F9
100
AcDbEntity
  8
0
 48
50.0
100
AcDbBlockBegin
  2
*D35
 70
     1
 10
0.0
 20
0.0
 30
0.0
  3
*D35
  1

  0
LINE
  5
1A06B
330
196F9
100
AcDbEntity
  8
寸法
 62
     0
 48
50.0
370
    -2
100
AcDbLine
 10
1379.673057123653
 20
4697.359204196234
 30
0.0
 11
1379.673057123653
 21
5342.994397142229
 31
0.0
  0
LINE
  5
1A06C
330
196F9
100
AcDbEntity
  8
寸法
 62
     0
 48
50.0
370
    -2
100
AcDbLine
 10
9369.673057123655
 20
4697.359204196234
 30
0.0
 11
9369.673057123655
 21
5342.994397142229
 31
0.0
  0
LINE
  5
1A06D
330
196F9
100
AcDbEntity
  8
寸法
 62
     0
 48
50.0
370
    -2
100
AcDbLine
 10
1379.673057123653
 20
5282.994397142228
 30
0.0
 11
9369.673057123655
 21
5282.994397142228
 31
0.0
  0
INSERT
  5
1A06E
330
196F9
100
AcDbEntity
  8
寸法
 62
     0
 48
50.0
370
    -2
100
AcDbBlockReference
  2
_DOTSMALL
 10
1379.673057123653
 20
5282.994397142228
 30
0.0
 41
100.0
 42
100.0
 43
100.0
 50
180.0
  0
INSERT
  5
1A06F
330
196F9
100
AcDbEntity
  8
寸法
 62
     0
 48
50.0
370
    -2
100
AcDbBlockReference
  2
_DOTSMALL
 10
9369.673057123655
 20
5282.994397142228
 30
0.0
 41
100.0
 42
100.0
 43
100.0
  0
MTEXT
  5
1A070
330
196F9
100
AcDbEntity
  8
寸法
 62
     7
 48
50.0
100
AcDbMText
 10
5374.673057123653
 20
5383.006208165851
 30
0.0
 40
120.0
 41
0.0
 71
     5
 72
     1
  1
\A1;N X 2630+100
  7
STYLE1
 73
     1
 44
1.0
1001
ACAD
1000
MTEXTBEGIN
1070
    73
1070
     1
1070
    44
1040
1.0
1070
    74
1070
     0
1000
MTEXTEND
  0
POINT
  5
1A071
330
196F9
100
AcDbEntity
  8
DEFPOINTS
 62
     0
 48
50.0
100
AcDbPoint
 10
1379.673057123653
 20
4677.359204196235
 30
0.0
  0
POINT
  5
1A072
330
196F9
100
AcDbEntity
  8
DEFPOINTS
 62
     0
 48
50.0
100
AcDbPoint
 10
9369.673057123655
 20
4677.359204196234
 30
0.0
  0
POINT
  5
1A073
330
196F9
100
AcDbEntity
  8
DEFPOINTS
 62
     0
 48
50.0
100
AcDbPoint
 10
9369.673057123655
 20
5282.994397142228
 30
0.0
  0
ENDBLK
  5
19704
330
196F9
100
AcDbEntity
  8
0
 48
50.0
100
AcDbBlockEnd
  0
BLOCK
  5
19711
330
19705
100
AcDbEntity
  8
0
 48
50.0
100
AcDbBlockBegin
  2
*D36
 70
     1
 10
0.0
 20
0.0
 30
0.0
  3
*D36
  1

  0
LINE
  5
19F36
330
19705
100
AcDbEntity
  8
寸法
 62
     0
 48
50.0
370
    -2
100
AcDbLine
 10
1429.673057123653
 20
4697.359204196237
 30
0.0
 11
1429.673057123653
 21
5143.085475928139
 31
0.0
  0
LINE
  5
19F37
330
19705
100
AcDbEntity
  8
寸法
 62
     0
 48
50.0
370
    -2
100
AcDbLine
 10
1379.673057123653
 20
4697.359204196237
 30
0.0
 11
1379.673057123653
 21
5143.085475928139
 31
0.0
  0
LINE
  5
19F38
330
19705
100
AcDbEntity
  8
寸法
 62
     0
 48
50.0
370
    -2
100
AcDbLine
 10
1429.673057123653
 20
5083.08547592814
 30
0.0
 11
1529.673057123653
 21
5083.08547592814
 31
0.0
  0
LINE
  5
19F39
330
19705
100
AcDbEntity
  8
寸法
 62
     0
 48
50.0
370
    -2
100
AcDbLine
 10
1379.673057123653
 20
5083.08547592814
 30
0.0
 11
960.1405316549175
 21
5083.08547592814
 31
0.0
  0
LINE
  5
19F3A
330
19705
100
AcDbEntity
  8
寸法
 62
     0
 48
50.0
370
    -2
100
AcDbLine
 10
1429.673057123653
 20
5083.08547592814
 30
0.0
 11
1379.673057123653
 21
5083.08547592814
 31
0.0
  0
INSERT
  5
19F3B
330
19705
100
AcDbEntity
  8
寸法
 62
     0
 48
50.0
370
    -2
100
AcDbBlockReference
  2
_DOTSMALL
 10
1429.673057123653
 20
5083.08547592814
 30
0.0
 41
100.0
 42
100.0
 43
100.0
 50
180.0
  0
INSERT
  5
19F3C
330
19705
100
AcDbEntity
  8
寸法
 62
     0
 48
50.0
370
    -2
100
AcDbBlockReference
  2
_DOTSMALL
 10
1379.673057123653
 20
5083.08547592814
 30
0.0
 41
100.0
 42
100.0
 43
100.0
  0
MTEXT
  5
19F3D
330
19705
100
AcDbEntity
  8
寸法
 62
     7
 48
50.0
100
AcDbMText
 10
1066.187775749406
 20
5183.085475928139
 30
0.0
 40
120.0
 41
0.0
 71
     5
 72
     1
  1
\A1;50
  7
STYLE1
 73
     1
 44
1.0
1001
ACAD
1000
MTEXTBEGIN
1070
    73
1070
     1
1070
    44
1040
1.0
1070
    74
1070
     0
1000
MTEXTEND
  0
POINT
  5
19F3E
330
19705
100
AcDbEntity
  8
DEFPOINTS
 62
     0
 48
50.0
100
AcDbPoint
 10
1429.673057123653
 20
4677.359204196236
 30
0.0
  0
POINT
  5
19F3F
330
19705
100
AcDbEntity
  8
DEFPOINTS
 62
     0
 48
50.0
100
AcDbPoint
 10
1379.673057123653
 20
4677.359204196236
 30
0.0
  0
POINT
  5
19F40
330
19705
100
AcDbEntity
  8
DEFPOINTS
 62
     0
 48
50.0
100
AcDbPoint
 10
1379.673057123653
 20
5083.08547592814
 30
0.0
  0
ENDBLK
  5
19712
330
19705
100
AcDbEntity
  8
0
 48
50.0
100
AcDbBlockEnd
  0
BLOCK
  5
1971F
330
19713
100
AcDbEntity
  8
0
 48
50.0
100
AcDbBlockBegin
  2
*D37
 70
     1
 10
0.0
 20
0.0
 30
0.0
  3
*D37
  1

  0
LINE
  5
19E4A
330
19713
100
AcDbEntity
  8
寸法
 62
     0
 48
50.0
370
    -2
100
AcDbLine
 10
9369.673057123655
 20
4697.359204196234
 30
0.0
 11
9369.673057123655
 21
5143.085475928144
 31
0.0
  0
LINE
  5
19E4B
330
19713
100
AcDbEntity
  8
寸法
 62
     0
 48
50.0
370
    -2
100
AcDbLine
 10
9319.673057123658
 20
4697.359204196238
 30
0.0
 11
9319.673057123658
 21
5143.085475928144
 31
0.0
  0
LINE
  5
19E4C
330
19713
100
AcDbEntity
  8
寸法
 62
     0
 48
50.0
370
    -2
100
AcDbLine
 10
9319.673057123658
 20
5083.085475928143
 30
0.0
 11
9219.673057123658
 21
5083.085475928143
 31
0.0
  0
LINE
  5
19E4D
330
19713
100
AcDbEntity
  8
寸法
 62
     0
 48
50.0
370
    -2
100
AcDbLine
 10
9369.673057123655
 20
5083.085475928143
 30
0.0
 11
9789.205582592382
 21
5083.085475928143
 31
0.0
  0
LINE
  5
19E4E
330
19713
100
AcDbEntity
  8
寸法
 62
     0
 48
50.0
370
    -2
100
AcDbLine
 10
9319.673057123658
 20
5083.085475928143
 30
0.0
 11
9369.673057123655
 21
5083.085475928143
 31
0.0
  0
INSERT
  5
19E4F
330
19713
100
AcDbEntity
  8
寸法
 62
     0
 48
50.0
370
    -2
100
AcDbBlockReference
  2
_DOTSMALL
 10
9319.673057123658
 20
5083.085475928143
 30
0.0
 41
100.0
 42
100.0
 43
100.0
  0
INSERT
  5
19E50
330
19713
100
AcDbEntity
  8
寸法
 62
     0
 48
50.0
370
    -2
100
AcDbBlockReference
  2
_DOTSMALL
 10
9369.673057123655
 20
5083.085475928143
 30
0.0
 41
100.0
 42
100.0
 43
100.0
 50
180.0
  0
MTEXT
  5
19E51
330
19713
100
AcDbEntity
  8
寸法
 62
     7
 48
50.0
100
AcDbMText
 10
9683.158338497896
 20
5183.085475928144
 30
0.0
 40
120.0
 41
0.0
 71
     5
 72
     1
  1
\A1;50
  7
STYLE1
 73
     1
 44
1.0
1001
ACAD
1000
MTEXTBEGIN
1070
    73
1070
     1
1070
    44
1040
1.0
1070
    74
1070
     0
1000
MTEXTEND
  0
POINT
  5
19E52
330
19713
100
AcDbEntity
  8
DEFPOINTS
 62
     0
 48
50.0
100
AcDbPoint
 10
9369.673057123655
 20
4677.359204196234
 30
0.0
  0
POINT
  5
19E53
330
19713
100
AcDbEntity
  8
DEFPOINTS
 62
     0
 48
50.0
100
AcDbPoint
 10
9319.673057123658
 20
4677.359204196237
 30
0.0
  0
POINT
  5
19E54
330
19713
100
AcDbEntity
  8
DEFPOINTS
 62
     0
 48
50.0
100
AcDbPoint
 10
9319.673057123658
 20
5083.085475928143
 30
0.0
  0
ENDBLK
  5
19720
330
19713
100
AcDbEntity
  8
0
 48
50.0
100
AcDbBlockEnd
  0
BLOCK
  5
19957
330
1994D
100
AcDbEntity
  8
0
 48
50.0
100
AcDbBlockBegin
  2
*D38
 70
     1
 10
0.0
 20
0.0
 30
0.0
  3
*D38
  1

  0
LINE
  5
19E41
330
1994D
100
AcDbEntity
  8
寸法
 62
     0
 48
50.0
370
    -2
100
AcDbLine
 10
9339.673057123658
 20
2302.359204196229
 30
0.0
 11
9667.216159445402
 21
2302.359204196229
 31
0.0
  0
LINE
  5
19E42
330
1994D
100
AcDbEntity
  8
寸法
 62
     0
 48
50.0
370
    -2
100
AcDbLine
 10
9339.673057123658
 20
4250.359204196229
 30
0.0
 11
9667.216159445402
 21
4250.359204196229
 31
0.0
  0
LINE
  5
19E43
330
1994D
100
AcDbEntity
  8
寸法
 62
     0
 48
50.0
370
    -2
100
AcDbLine
 10
9607.216159445401
 20
2302.359204196229
 30
0.0
 11
9607.216159445403
 21
4250.359204196229
 31
0.0
  0
INSERT
  5
19E44
330
1994D
100
AcDbEntity
  8
寸法
 62
     0
 48
50.0
370
    -2
100
AcDbBlockReference
  2
_DOTSMALL
 10
9607.216159445401
 20
2302.359204196229
 30
0.0
 41
100.0
 42
100.0
 43
100.0
 50
270.0
  0
INSERT
  5
19E45
330
1994D
100
AcDbEntity
  8
寸法
 62
     0
 48
50.0
370
    -2
100
AcDbBlockReference
  2
_DOTSMALL
 10
9607.216159445403
 20
4250.359204196229
 30
0.0
 41
100.0
 42
100.0
 43
100.0
 50
90.0
  0
MTEXT
  5
19E46
330
1994D
100
AcDbEntity
  8
寸法
 62
     7
 48
50.0
100
AcDbMText
 10
9507.216159445402
 20
3276.359204196231
 30
0.0
 40
120.0
 41
0.0
 71
     5
 72
     1
  1
\A1;有効開口部高サ 1948
  7
STYLE1
 11
0.0000000000000001
 21
1.0
 31
0.0
 73
     1
 44
1.0
1001
ACAD
1000
MTEXTBEGIN
1070
    73
1070
     1
1070
    44
1040
1.0
1070
    74
1070
     0
1000
MTEXTEND
  0
POINT
  5
19E47
330
1994D
100
AcDbEntity
  8
DEFPOINTS
 62
     0
 48
50.0
100
AcDbPoint
 10
9319.673057123656
 20
2302.359204196229
 30
0.0
  0
POINT
  5
19E48
330
1994D
100
AcDbEntity
  8
DEFPOINTS
 62
     0
 48
50.0
100
AcDbPoint
 10
9319.673057123656
 20
4250.359204196229
 30
0.0
  0
POINT
  5
19E49
330
1994D
100
AcDbEntity
  8
DEFPOINTS
 62
     0
 48
50.0
100
AcDbPoint
 10
9607.216159445403
 20
4250.359204196229
 30
0.0
  0
ENDBLK
  5
19958
330
1994D
100
AcDbEntity
  8
0
 48
50.0
100
AcDbBlockEnd
  0
BLOCK
  5
19965
330
19959
100
AcDbEntity
  8
0
 48
50.0
100
AcDbBlockBegin
  2
*D39
 70
     1
 10
0.0
 20
0.0
 30
0.0
  3
*D39
  1

  0
LINE
  5
1A0B7
330
19959
100
AcDbEntity
  8
寸法
 62
     0
 48
50.0
370
    -2
100
AcDbLine
 10
9339.673057123658
 20
4250.359204196229
 30
0.0
 11
9667.216159445402
 21
4250.359204196229
 31
0.0
  0
LINE
  5
1A0B8
330
19959
100
AcDbEntity
  8
寸法
 62
     0
 48
50.0
370
    -2
100
AcDbLine
 10
9339.673057123658
 20
4277.35920419623
 30
0.0
 11
9667.216159445402
 21
4277.35920419623
 31
0.0
  0
LINE
  5
1A0B9
330
19959
100
AcDbEntity
  8
寸法
 62
     0
 48
50.0
370
    -2
100
AcDbLine
 10
9607.216159445403
 20
4250.359204196229
 30
0.0
 11
9607.216159445403
 21
4150.359204196229
 31
0.0
  0
LINE
  5
1A0BA
330
19959
100
AcDbEntity
  8
寸法
 62
     0
 48
50.0
370
    -2
100
AcDbLine
 10
9607.216159445403
 20
4277.35920419623
 30
0.0
 11
9607.216159445403
 21
4377.35920419623
 31
0.0
  0
MTEXT
  5
1A0BB
330
19959
100
AcDbEntity
  8
寸法
 62
     7
 48
50.0
100
AcDbMText
 10
9747.385982691769
 20
4278.326404035888
 30
0.0
 40
120.0
 41
0.0
 71
     5
 72
     1
  1
\A1;27
  7
STYLE1
 11
0.0000000000000001
 21
1.0
 31
0.0
 73
     1
 44
1.0
1001
ACAD
1000
MTEXTBEGIN
1070
    73
1070
     1
1070
    44
1040
1.0
1070
    74
1070
     0
1000
MTEXTEND
  0
LINE
  5
1A0BC
330
19959
100
AcDbEntity
  8
寸法
 62
     0
 48
50.0
370
    -2
100
AcDbLine
 10
9607.216159445403
 20
4250.359204196229
 30
0.0
 11
9607.216159445403
 21
4277.35920419623
 31
0.0
  0
INSERT
  5
1A0BD
330
19959
100
AcDbEntity
  8
寸法
 62
     0
 48
50.0
370
    -2
100
AcDbBlockReference
  2
_DOTSMALL
 10
9607.216159445403
 20
4250.359204196229
 30
0.0
 41
100.0
 42
100.0
 43
100.0
 50
90.0
  0
INSERT
  5
1A0BE
330
19959
100
AcDbEntity
  8
寸法
 62
     0
 48
50.0
370
    -2
100
AcDbBlockReference
  2
_DOTSMALL
 10
9607.216159445403
 20
4277.35920419623
 30
0.0
 41
100.0
 42
100.0
 43
100.0
 50
270.0
  0
POINT
  5
1A0BF
330
19959
100
AcDbEntity
  8
DEFPOINTS
 62
     0
 48
50.0
100
AcDbPoint
 10
9319.673057123656
 20
4250.359204196229
 30
0.0
  0
POINT
  5
1A0C0
330
19959
100
AcDbEntity
  8
DEFPOINTS
 62
     0
 48
50.0
100
AcDbPoint
 10
9319.673057123656
 20
4277.35920419623
 30
0.0
  0
POINT
  5
1A0C1
330
19959
100
AcDbEntity
  8
DEFPOINTS
 62
     0
 48
50.0
100
AcDbPoint
 10
9607.216159445403
 20
4277.35920419623
 30
0.0
  0
ENDBLK
  5
19966
330
19959
100
AcDbEntity
  8
0
 48
50.0
100
AcDbBlockEnd
  0
BLOCK
  5
19972
330
19967
100
AcDbEntity
  8
0
 48
50.0
100
AcDbBlockBegin
  2
*D40
 70
     1
 10
0.0
 20
0.0
 30
0.0
  3
*D40
  1

  0
LINE
  5
1A0AD
330
19967
100
AcDbEntity
  8
寸法
 62
     0
 48
50.0
370
    -2
100
AcDbLine
 10
9339.673057123658
 20
4277.35920419623
 30
0.0
 11
9667.216159445406
 21
4277.35920419623
 31
0.0
  0
LINE
  5
1A0AE
330
19967
100
AcDbEntity
  8
寸法
 62
     0
 48
50.0
370
    -2
100
AcDbLine
 10
9339.673057123658
 20
4442.359204196229
 30
0.0
 11
9667.216159445406
 21
4442.359204196229
 31
0.0
  0
LINE
  5
1A0AF
330
19967
100
AcDbEntity
  8
寸法
 62
     0
 48
50.0
370
    -2
100
AcDbLine
 10
9607.216159445405
 20
4277.35920419623
 30
0.0
 11
9607.216159445405
 21
4442.359204196229
 31
0.0
  0
LINE
  5
1A0B0
330
19967
100
AcDbEntity
  8
寸法
 62
     0
 48
50.0
370
    -2
100
AcDbLine
 10
9607.216159445405
 20
4442.359204196229
 30
0.0
 11
9607.216159445405
 21
4819.329766944707
 31
0.0
  0
INSERT
  5
1A0B1
330
19967
100
AcDbEntity
  8
寸法
 62
     0
 48
50.0
370
    -2
100
AcDbBlockReference
  2
_DOTSMALL
 10
9607.216159445405
 20
4277.35920419623
 30
0.0
 41
100.0
 42
100.0
 43
100.0
 50
270.0
  0
INSERT
  5
1A0B2
330
19967
100
AcDbEntity
  8
寸法
 62
     0
 48
50.0
370
    -2
100
AcDbBlockReference
  2
_DOTSMALL
 10
9607.216159445405
 20
4442.359204196229
 30
0.0
 41
100.0
 42
100.0
 43
100.0
 50
90.0
  0
MTEXT
  5
1A0B3
330
19967
100
AcDbEntity
  8
寸法
 62
     7
 48
50.0
100
AcDbMText
 10
9507.216159445404
 20
4680.844485570468
 30
0.0
 40
120.0
 41
0.0
 71
     5
 72
     1
  1
\A1;165
  7
STYLE1
 11
0.0000000000000001
 21
1.0
 31
0.0
 73
     1
 44
1.0
1001
ACAD
1000
MTEXTBEGIN
1070
    73
1070
     1
1070
    44
1040
1.0
1070
    74
1070
     0
1000
MTEXTEND
  0
POINT
  5
1A0B4
330
19967
100
AcDbEntity
  8
DEFPOINTS
 62
     0
 48
50.0
100
AcDbPoint
 10
9319.673057123656
 20
4277.35920419623
 30
0.0
  0
POINT
  5
1A0B5
330
19967
100
AcDbEntity
  8
DEFPOINTS
 62
     0
 48
50.0
100
AcDbPoint
 10
9319.673057123656
 20
4442.359204196229
 30
0.0
  0
POINT
  5
1A0B6
330
19967
100
AcDbEntity
  8
DEFPOINTS
 62
     0
 48
50.0
100
AcDbPoint
 10
9607.216159445405
 20
4442.359204196229
 30
0.0
  0
ENDBLK
  5
19973
330
19967
100
AcDbEntity
  8
0
 48
50.0
100
AcDbBlockEnd
  0
BLOCK
  5
19C4B
330
19C48
100
AcDbEntity
  8
0
 48
50.0
100
AcDbBlockBegin
  2
A$C5DBA5C3D
 70
     0
 10
0.0
 20
0.0
 30
0.0
  3
A$C5DBA5C3D
  1

  0
LINE
  5
19C49
330
19C48
100
AcDbEntity
  8
部品1
 48
50.0
100
AcDbLine
 10
46.5327395555505
 20
173.6625482366835
 30
0.0
 11
-46.5327395555505
 21
-173.6625482366816
 31
0.0
  0
SPLINE
  5
19C4A
330
19C48
100
AcDbEntity
  8
部品1
 48
50.0
100
AcDbSpline
210
0.0
220
0.0
230
1.0
 70
     8
 71
     3
 72
    10
 73
     6
 74
     4
 42
0.0000000001
 43
0.0000000001
 44
0.0000000001
 40
0.0
 40
0.0
 40
0.0
 40
0.0
 40
147.8767566010009
 40
301.8091093202477
 40
466.5049223087716
 40
466.5049223087716
 40
466.5049223087716
 40
466.5049223087716
 10
67.57032773305036
 20
81.24115252579395
 30
0.0
 10
-9.311354761784436
 20
72.33671886795598
 30
0.0
 10
-166.2230469719117
 20
54.16321240862427
 30
0.0
 10
156.5903629724302
 20
-48.3573722307187
 30
0.0
 10
-13.25225669694174
 20
-66.99246094292213
 30
0.0
 10
-101.0422619038345
 20
-76.62475782023102
 30
0.0
 11
67.57032773305036
 21
81.24115252579395
 31
0.0
 11
-75.26765057571902
 21
42.96783158946527
 31
0.0
 11
58.04167734345537
 21
-33.99834477015793
 31
0.0
 11
-101.0422619038345
 21
-76.62475782023102
 31
0.0
  0
ENDBLK
  5
19C4C
330
19C48
100
AcDbEntity
  8
0
 48
50.0
100
AcDbBlockEnd
  0
BLOCK
  5
1A095
330
1A089
100
AcDbEntity
  8
0
 48
50.0
100
AcDbBlockBegin
  2
*D42
 70
     1
 10
0.0
 20
0.0
 30
0.0
  3
*D42
  1

  0
LINE
  5
1A097
330
1A089
100
AcDbEntity
  8
寸法
 62
     0
 48
50.0
370
    -2
100
AcDbLine
 10
1532.673057123657
 20
7248.497424545864
 30
0.0
 11
1532.673057123657
 21
6648.0666537797
 31
0.0
  0
LINE
  5
1A098
330
1A089
100
AcDbEntity
  8
寸法
 62
     0
 48
50.0
370
    -2
100
AcDbLine
 10
1484.673057123653
 20
7222.497424545863
 30
0.0
 11
1484.673057123653
 21
6648.0666537797
 31
0.0
  0
LINE
  5
1A099
330
1A089
100
AcDbEntity
  8
寸法
 62
     0
 48
50.0
370
    -2
100
AcDbLine
 10
1532.673057123657
 20
6708.0666537797
 30
0.0
 11
1632.673057123656
 21
6708.0666537797
 31
0.0
  0
LINE
  5
1A09A
330
1A089
100
AcDbEntity
  8
寸法
 62
     0
 48
50.0
370
    -2
100
AcDbLine
 10
1484.673057123653
 20
6708.0666537797
 30
0.0
 11
1384.673057123653
 21
6708.0666537797
 31
0.0
  0
MTEXT
  5
1A09B
330
1A089
100
AcDbEntity
  8
寸法
 62
     7
 48
50.0
100
AcDbMText
 10
1645.575028123714
 20
6808.0666537797
 30
0.0
 40
120.0
 41
0.0
 71
     5
 72
     1
  1
\A1;48
  7
STYLE1
 73
     1
 44
1.0
1001
ACAD
1000
MTEXTBEGIN
1070
    73
1070
     1
1070
    44
1040
1.0
1070
    74
1070
     0
1000
MTEXTEND
  0
LINE
  5
1A09C
330
1A089
100
AcDbEntity
  8
寸法
 62
     0
 48
50.0
370
    -2
100
AcDbLine
 10
1532.673057123657
 20
6708.0666537797
 30
0.0
 11
1484.673057123653
 21
6708.0666537797
 31
0.0
  0
INSERT
  5
1A09D
330
1A089
100
AcDbEntity
  8
寸法
 62
     0
 48
50.0
370
    -2
100
AcDbBlockReference
  2
_DOTSMALL
 10
1532.673057123657
 20
6708.0666537797
 30
0.0
 41
100.0
 42
100.0
 43
100.0
 50
180.0
  0
INSERT
  5
1A09E
330
1A089
100
AcDbEntity
  8
寸法
 62
     0
 48
50.0
370
    -2
100
AcDbBlockReference
  2
_DOTSMALL
 10
1484.673057123653
 20
6708.0666537797
 30
0.0
 41
100.0
 42
100.0
 43
100.0
  0
POINT
  5
1A09F
330
1A089
100
AcDbEntity
  8
DEFPOINTS
 62
     0
 48
50.0
100
AcDbPoint
 10
1532.673057123657
 20
7268.497424545865
 30
0.0
  0
POINT
  5
1A0A0
330
1A089
100
AcDbEntity
  8
DEFPOINTS
 62
     0
 48
50.0
100
AcDbPoint
 10
1484.673057123653
 20
7242.497424545864
 30
0.0
  0
POINT
  5
1A0A1
330
1A089
100
AcDbEntity
  8
DEFPOINTS
 62
     0
 48
50.0
100
AcDbPoint
 10
1484.673057123653
 20
6708.0666537797
 30
0.0
  0
ENDBLK
  5
1A096
330
1A089
100
AcDbEntity
  8
0
 48
50.0
100
AcDbBlockEnd
  0
ENDSEC
  0
SECTION
  2
ENTITIES
  0
MTEXT
  5
763F
330
747D
100
AcDbEntity
  8
0
100
AcDbMText
 10
302.846345836809
 20
280.1983726409901
 30
0.0
 40
3.5
 41
5.323721266742722
 71
     1
 72
     5
  1

  7
MSMINCHO
 73
     1
 44
1.0
1001
ACAD
1000
MTEXTBEGIN
1070
    73
1070
     1
1070
    44
1040
1.0
1070
    74
1070
     0
1000
MTEXTEND
  0
LINE
  5
10B57
330
747D
100
AcDbEntity
  8
補助
  6
PHANTOM
 62
   230
 48
50.0
100
AcDbLine
 10
139.9999999999995
 20
11409.6
 30
0.0
 11
16307.2
 21
11409.6
 31
0.0
  0
LINE
  5
10B59
330
747D
100
AcDbEntity
  8
仕様書枠
  6
Continuous
 48
50.0
100
AcDbLine
 10
13107.2
 20
1200.0
 30
0.0
 11
13107.2
 21
-0.0000000000000729
 31
0.0
  0
LINE
  5
10B5C
330
747D
100
AcDbEntity
  8
仕様書枠
 48
50.0
100
AcDbLine
 10
16307.2
 20
1200.0
 30
0.0
 11
16307.2
 21
-0.0000000000000909
 31
0.0
  0
LINE
  5
10B5D
330
747D
100
AcDbEntity
  8
仕様書枠
 48
50.0
100
AcDbLine
 10
140.0
 20
0.0
 30
0.0
 11
16307.2
 21
-0.0000000000000909
 31
0.0
  0
LINE
  5
10B5E
330
747D
100
AcDbEntity
  8
補助
  6
PHANTOM
 62
   230
 48
50.0
100
AcDbLine
 10
16307.2
 20
11409.6
 30
0.0
 11
16307.2
 21
1200.0
 31
0.0
  0
LINE
  5
10B6C
330
747D
100
AcDbEntity
  8
仕様書枠
 48
50.0
100
AcDbLine
 10
13107.2
 20
1200.0
 30
0.0
 11
16307.2
 21
1200.0
 31
0.0
  0
LINE
  5
10B6D
330
747D
100
AcDbEntity
  8
補助
  6
PHANTOM
 62
   230
 48
50.0
100
AcDbLine
 10
13107.2
 20
11409.6
 30
0.0
 11
13107.2
 21
4800.0
 31
0.0
  0
LINE
  5
10B6F
330
747D
100
AcDbEntity
  8
補助
  6
PHANTOM
 62
   230
 48
50.0
100
AcDbLine
 10
13107.2
 20
4800.0
 30
0.0
 11
16307.2
 21
4800.0
 31
0.0
  0
LINE
  5
10B72
330
747D
100
AcDbEntity
  8
文字
 62
     7
 48
50.0
100
AcDbLine
 10
13187.2
 20
400.0
 30
0.0
 11
16227.2
 21
400.0
 31
0.0
  0
TEXT
  5
10B73
330
747D
100
AcDbEntity
  8
文字
 62
     7
 48
50.0
100
AcDbText
 10
13162.9790565769
 20
895.0906074299405
 30
0.0
 40
200.0
  1
外 形 図
  7
STYLE2
100
AcDbText
  0
TEXT
  5
10B74
330
747D
100
AcDbEntity
  8
文字
 62
     7
 48
50.0
100
AcDbText
 10
13201.43669998441
 20
477.2740661031255
 30
0.0
 40
160.0
  1
機種名
  7
STYLE2
100
AcDbText
  0
TEXT
  5
10B75
330
747D
100
AcDbEntity
  8
文字
 62
     7
 48
50.0
100
AcDbText
 10
13209.4053442172
 20
228.5435242569016
 30
0.0
 40
100.0
  1
○有効開口寸法 ： 2424×1948(mm)
  7
STYLE2
100
AcDbText
  0
TEXT
  5
10B76
330
747D
100
AcDbEntity
  8
文字
 62
     7
 48
50.0
100
AcDbText
 10
13209.4053442172
 20
76.09434707649343
 30
0.0
 40
100.0
  1
○床面積 ： Ｎ［連続数］×8.02㎡(2.43坪)
  7
STYLE2
100
AcDbText
  0
TEXT
  5
10B79
330
747D
100
AcDbEntity
  8
文字
 62
     7
 48
50.0
100
AcDbText
 10
14524.131837222
 20
1031.557706291228
 30
0.0
 40
100.0
  1
NO.54      <縮尺> S=1/40
  7
STYLE2
100
AcDbText
  0
LINE
  5
10B7B
330
747D
100
AcDbEntity
  8
仕様書枠
 48
50.0
100
AcDbLine
 10
13107.2
 20
800.0
 30
0.0
 11
14251.2
 21
800.0
 31
0.0
  0
LINE
  5
10B88
330
747D
100
AcDbEntity
  8
仕様書枠
  6
Continuous
 48
50.0
100
AcDbLine
 10
14251.2
 20
1200.0
 30
0.0
 11
14251.2
 21
800.0
 31
0.0
  0
LINE
  5
127A8
330
747D
100
AcDbEntity
  8
部品1
100
AcDbLine
 10
440.9034657772735
 20
2332.263014763894
 30
0.0
 11
590.9034657772735
 21
2332.263014763894
 31
0.0
  0
LINE
  5
127A9
330
747D
100
AcDbEntity
  8
部品1
100
AcDbLine
 10
515.9034657772735
 20
2202.359204196229
 30
0.0
 11
440.9034657772735
 21
2332.263014763894
 31
0.0
  0
TEXT
  5
127AA
330
747D
100
AcDbEntity
  8
部品1
100
AcDbText
 10
619.0084079020471
 20
2238.466107802131
 30
0.0
 40
125.0
  1
G.L
  7
MSGOTHIC
100
AcDbText
  0
LINE
  5
127AB
330
747D
100
AcDbEntity
  8
部品1
100
AcDbLine
 10
590.9034657772735
 20
2332.263014763894
 30
0.0
 11
515.9034657772735
 21
2202.359204196229
 31
0.0
  0
LINE
  5
13C1F
330
747D
100
AcDbEntity
  8
部品1
100
AcDbLine
 10
1429.673057123657
 20
4536.359204196235
 30
0.0
 11
1429.673057123657
 21
2202.359204196229
 31
0.0
  0
LINE
  5
13CFC
330
747D
100
AcDbEntity
  8
部品1
100
AcDbLine
 10
9264.673057123657
 20
4277.359204196229
 30
0.0
 11
9264.673057123655
 21
2302.359204196229
 31
0.0
  0
LINE
  5
13CFE
330
747D
100
AcDbEntity
  8
部品1
100
AcDbLine
 10
1484.673057123656
 20
4277.359204196229
 30
0.0
 11
1484.673057123657
 21
2302.359204196229
 31
0.0
  0
LINE
  5
13D18
330
747D
100
AcDbEntity
  8
部品1
100
AcDbLine
 10
9319.673057123656
 20
4536.359204196233
 30
0.0
 11
9319.673057123656
 21
2202.359204196229
 31
0.0
  0
LINE
  5
146B2
330
747D
100
AcDbEntity
  8
破線
 48
5.0
100
AcDbLine
 10
9319.673057123656
 20
2202.359204196229
 30
0.0
 11
9319.673057123656
 21
1952.359204196229
 31
0.0
  0
LINE
  5
146B3
330
747D
100
AcDbEntity
  8
破線
 48
5.0
100
AcDbLine
 10
1429.673057123657
 20
2202.359204196229
 30
0.0
 11
1429.673057123655
 21
1952.359204196229
 31
0.0
  0
TEXT
  5
149A1
330
747D
100
AcDbEntity
  8
部品1
100
AcDbText
 10
5083.463127747398
 20
1359.465674977706
 30
0.0
 40
135.0
  1
正面図
  7
MSGOTHIC
100
AcDbText
  0
LWPOLYLINE
  5
149A2
330
747D
100
AcDbEntity
  8
部品1
100
AcDbPolyline
 90
        4
 70
     1
 43
0.0
 10
4992.937724009443
 20
1552.359204196229
 10
4992.937724009443
 20
1312.466882650697
 10
5756.408390237882
 20
1312.466882650697
 10
5756.408390237882
 20
1552.359204196229
  0
TEXT
  5
14E88
330
747D
100
AcDbEntity
  8
部品1
100
AcDbText
 10
5082.857333838481
 20
5902.378858851012
 30
0.0
 40
135.0
  1
平面図
  7
MSGOTHIC
100
AcDbText
  0
LWPOLYLINE
  5
14E89
330
747D
100
AcDbEntity
  8
部品1
100
AcDbPolyline
 90
        4
 70
     1
 43
0.0
 10
4992.937724009443
 20
6095.272388069536
 10
4992.937724009443
 20
5855.380066524003
 10
5756.408390237883
 20
5855.380066524003
 10
5756.408390237883
 20
6095.272388069536
  0
TEXT
  5
15550
330
747D
100
AcDbEntity
  8
文字
 62
     7
 48
50.0
100
AcDbText
 10
14772.26530907216
 20
871.9640646083623
 30
0.0
 40
100.0
  1
～一般型・多雪地型～
  7
STYLE2
100
AcDbText
  0
LINE
  5
15CE5
330
747D
100
AcDbEntity
  8
破線
 48
5.0
100
AcDbLine
 10
9264.673057123655
 20
2302.359204196229
 30
0.0
 11
9264.673057123657
 21
1952.359204196229
 31
0.0
  0
LINE
  5
15CE6
330
747D
100
AcDbEntity
  8
破線
 48
5.0
100
AcDbLine
 10
1484.673057123657
 20
2302.359204196229
 30
0.0
 11
1484.673057123655
 21
1952.359204196229
 31
0.0
  0
LINE
  5
15CE7
330
747D
100
AcDbEntity
  8
破線
 48
5.0
100
AcDbLine
 10
9319.673057123656
 20
1952.359204196229
 30
0.0
 11
9264.673057123657
 21
1952.359204196229
 31
0.0
  0
LINE
  5
15CE8
330
747D
100
AcDbEntity
  8
破線
 48
5.0
100
AcDbLine
 10
1484.673057123655
 20
1952.359204196237
 30
0.0
 11
1429.673057123655
 21
1952.359204196237
 31
0.0
  0
LINE
  5
15CE9
330
747D
100
AcDbEntity
  8
部品1
100
AcDbLine
 10
1532.673057123657
 20
4277.359204196229
 30
0.0
 11
1532.673057123657
 21
2302.359204196229
 31
0.0
  0
LINE
  5
15CEA
330
747D
100
AcDbEntity
  8
破線
 48
5.0
100
AcDbLine
 10
1532.673057123657
 20
2302.359204196229
 30
0.0
 11
1532.673057123655
 21
2052.359204196235
 31
0.0
  0
LINE
  5
15CEB
330
747D
100
AcDbEntity
  8
部品1
100
AcDbLine
 10
9216.673057123658
 20
4277.35920419623
 30
0.0
 11
9216.673057123655
 21
2302.359204196229
 31
0.0
  0
LINE
  5
15CEC
330
747D
100
AcDbEntity
  8
破線
 48
5.0
100
AcDbLine
 10
9216.673057123655
 20
2302.359204196229
 30
0.0
 11
9216.673057123658
 21
2052.359204196229
 31
0.0
  0
LINE
  5
15CED
330
747D
100
AcDbEntity
  8
破線
 48
5.0
100
AcDbLine
 10
9264.673057123658
 20
2052.359204196229
 30
0.0
 11
9216.673057123657
 21
2052.359204196229
 31
0.0
  0
LINE
  5
15CEE
330
747D
100
AcDbEntity
  8
破線
 48
5.0
100
AcDbLine
 10
1532.673057123655
 20
2052.359204196235
 30
0.0
 11
1484.673057123655
 21
2052.359204196235
 31
0.0
  0
LINE
  5
15D20
330
747D
100
AcDbEntity
  8
細線
100
AcDbLine
 10
6792.673057123653
 20
3937.359204196229
 30
0.0
 11
9216.673057123655
 21
3937.359204196229
 31
0.0
  0
LINE
  5
15D21
330
747D
100
AcDbEntity
  8
細線
100
AcDbLine
 10
6792.673057123653
 20
4002.359204196229
 30
0.0
 11
9216.673057123655
 21
4002.359204196229
 31
0.0
  0
LINE
  5
15D22
330
747D
100
AcDbEntity
  8
細線
100
AcDbLine
 10
6792.673057123653
 20
4067.359204196229
 30
0.0
 11
9216.673057123655
 21
4067.359204196229
 31
0.0
  0
LINE
  5
15D23
330
747D
100
AcDbEntity
  8
細線
100
AcDbLine
 10
6792.673057123653
 20
3547.359204196229
 30
0.0
 11
9216.673057123655
 21
3547.359204196229
 31
0.0
  0
LINE
  5
15D24
330
747D
100
AcDbEntity
  8
細線
100
AcDbLine
 10
6792.673057123653
 20
3612.359204196229
 30
0.0
 11
9216.673057123655
 21
3612.359204196229
 31
0.0
  0
LINE
  5
15D25
330
747D
100
AcDbEntity
  8
細線
100
AcDbLine
 10
6792.673057123653
 20
3677.35920419623
 30
0.0
 11
9216.673057123655
 21
3677.35920419623
 31
0.0
  0
LINE
  5
15D26
330
747D
100
AcDbEntity
  8
細線
100
AcDbLine
 10
6792.673057123653
 20
3742.35920419623
 30
0.0
 11
9216.673057123655
 21
3742.35920419623
 31
0.0
  0
LINE
  5
15D27
330
747D
100
AcDbEntity
  8
細線
100
AcDbLine
 10
6792.673057123653
 20
3807.359204196229
 30
0.0
 11
9216.673057123655
 21
3807.359204196229
 31
0.0
  0
LINE
  5
15D28
330
747D
100
AcDbEntity
  8
細線
100
AcDbLine
 10
6792.673057123653
 20
3872.359204196229
 30
0.0
 11
9216.673057123655
 21
3872.359204196229
 31
0.0
  0
LINE
  5
15D29
330
747D
100
AcDbEntity
  8
細線
100
AcDbLine
 10
6792.673057123653
 20
2897.359204196229
 30
0.0
 11
9216.673057123655
 21
2897.359204196229
 31
0.0
  0
LINE
  5
15D2A
330
747D
100
AcDbEntity
  8
細線
100
AcDbLine
 10
6792.673057123653
 20
2962.359204196229
 30
0.0
 11
9216.673057123655
 21
2962.359204196229
 31
0.0
  0
LINE
  5
15D2B
330
747D
100
AcDbEntity
  8
細線
100
AcDbLine
 10
6792.673057123653
 20
3027.359204196229
 30
0.0
 11
9216.673057123655
 21
3027.359204196229
 31
0.0
  0
LINE
  5
15D2C
330
747D
100
AcDbEntity
  8
細線
100
AcDbLine
 10
6792.673057123653
 20
3092.35920419623
 30
0.0
 11
9216.673057123655
 21
3092.35920419623
 31
0.0
  0
LINE
  5
15D2D
330
747D
100
AcDbEntity
  8
細線
100
AcDbLine
 10
6792.673057123653
 20
3157.359204196229
 30
0.0
 11
9216.673057123655
 21
3157.359204196229
 31
0.0
  0
LINE
  5
15D2E
330
747D
100
AcDbEntity
  8
細線
100
AcDbLine
 10
6792.673057123653
 20
3222.359204196229
 30
0.0
 11
9216.673057123655
 21
3222.359204196229
 31
0.0
  0
LINE
  5
15D2F
330
747D
100
AcDbEntity
  8
細線
100
AcDbLine
 10
6792.673057123653
 20
3287.359204196229
 30
0.0
 11
9216.673057123655
 21
3287.359204196229
 31
0.0
  0
LINE
  5
15D30
330
747D
100
AcDbEntity
  8
細線
100
AcDbLine
 10
6792.673057123653
 20
3352.35920419623
 30
0.0
 11
9216.673057123655
 21
3352.35920419623
 31
0.0
  0
LINE
  5
15D31
330
747D
100
AcDbEntity
  8
細線
100
AcDbLine
 10
6792.673057123653
 20
3417.359204196229
 30
0.0
 11
9216.673057123655
 21
3417.359204196229
 31
0.0
  0
LINE
  5
15D32
330
747D
100
AcDbEntity
  8
細線
100
AcDbLine
 10
6792.673057123653
 20
3482.359204196229
 30
0.0
 11
9216.673057123655
 21
3482.359204196229
 31
0.0
  0
LINE
  5
15D33
330
747D
100
AcDbEntity
  8
細線
100
AcDbLine
 10
6792.673057123653
 20
4197.359204196229
 30
0.0
 11
9216.673057123655
 21
4197.359204196229
 31
0.0
  0
LINE
  5
15D34
330
747D
100
AcDbEntity
  8
細線
100
AcDbLine
 10
6792.673057123653
 20
4262.359204196228
 30
0.0
 11
9216.673057123655
 21
4262.359204196228
 31
0.0
  0
LINE
  5
15D35
330
747D
100
AcDbEntity
  8
細線
100
AcDbLine
 10
6792.673057123653
 20
4132.359204196229
 30
0.0
 11
9216.673057123655
 21
4132.359204196229
 31
0.0
  0
LINE
  5
15D36
330
747D
100
AcDbEntity
  8
細線
100
AcDbLine
 10
6792.673057123653
 20
2312.359204196229
 30
0.0
 11
9216.673057123655
 21
2312.359204196229
 31
0.0
  0
LINE
  5
15D37
330
747D
100
AcDbEntity
  8
細線
100
AcDbLine
 10
6792.673057123653
 20
2377.359204196229
 30
0.0
 11
9216.673057123655
 21
2377.359204196229
 31
0.0
  0
LINE
  5
15D38
330
747D
100
AcDbEntity
  8
細線
100
AcDbLine
 10
6792.673057123653
 20
2442.359204196229
 30
0.0
 11
9216.673057123655
 21
2442.359204196229
 31
0.0
  0
LINE
  5
15D39
330
747D
100
AcDbEntity
  8
細線
100
AcDbLine
 10
6792.673057123653
 20
2507.359204196229
 30
0.0
 11
9216.673057123655
 21
2507.359204196229
 31
0.0
  0
LINE
  5
15D3A
330
747D
100
AcDbEntity
  8
細線
100
AcDbLine
 10
6792.673057123653
 20
2572.359204196229
 30
0.0
 11
9216.673057123655
 21
2572.359204196229
 31
0.0
  0
LINE
  5
15D3B
330
747D
100
AcDbEntity
  8
細線
100
AcDbLine
 10
6792.673057123653
 20
2637.35920419623
 30
0.0
 11
9216.673057123655
 21
2637.35920419623
 31
0.0
  0
LINE
  5
15D3C
330
747D
100
AcDbEntity
  8
細線
100
AcDbLine
 10
6792.673057123653
 20
2702.359204196229
 30
0.0
 11
9216.673057123655
 21
2702.359204196229
 31
0.0
  0
LINE
  5
15D3D
330
747D
100
AcDbEntity
  8
細線
100
AcDbLine
 10
6792.673057123653
 20
2767.35920419623
 30
0.0
 11
9216.673057123655
 21
2767.35920419623
 31
0.0
  0
LINE
  5
15D3E
330
747D
100
AcDbEntity
  8
細線
100
AcDbLine
 10
6792.673057123653
 20
2832.359204196229
 30
0.0
 11
9216.673057123655
 21
2832.359204196229
 31
0.0
  0
LINE
  5
15D3F
330
747D
100
AcDbEntity
  8
細線
100
AcDbLine
 10
9216.673057123657
 20
2312.359204196229
 30
0.0
 11
6792.673057123652
 21
2312.359204196229
 31
0.0
  0
DIMENSION
  5
162CD
330
747D
100
AcDbEntity
  8
寸法
100
AcDbDimension
  2
*D1
 10
9967.099402858071
 20
7297.497424545952
 30
0.0
 11
9867.087591834447
 21
8767.497424545963
 31
0.0
 70
    32
  1
7X420=<>
 71
     5
 42
2940.000000000015
  3
INABA_S40G
100
AcDbAlignedDimension
 13
9319.673057123663
 23
10237.49742454596
 33
0.0
 14
9319.673057123639
 24
7297.497424545952
 34
0.0
 50
90.0
100
AcDbRotatedDimension
1001
ACAD
1000
DSTYLE
1002
{
1002
}
  0
DIMENSION
  5
162CE
330
747D
100
AcDbEntity
  8
寸法
100
AcDbDimension
  2
*D2
 10
9967.09940285805
 20
7242.497424545956
 30
0.0
 11
9967.099402858048
 21
6864.635957641095
 31
0.0
 70
   160
 71
     5
 42
54.99999999999636
  3
INABA_S40G
100
AcDbAlignedDimension
 13
9319.673057123639
 23
7297.497424545952
 33
0.0
 14
9319.673057123639
 24
7242.497424545956
 34
0.0
 50
90.0
100
AcDbRotatedDimension
1001
ACAD
1000
DSTYLE
1002
{
1002
}
  0
DIMENSION
  5
162CF
330
747D
100
AcDbEntity
  8
寸法
100
AcDbDimension
  2
*D3
 10
9967.099402858075
 20
10237.49742454596
 30
0.0
 11
9967.099402858075
 21
10600.9827059202
 31
0.0
 70
   160
 71
     5
 42
54.99999999999636
  3
INABA_S40G
100
AcDbAlignedDimension
 13
9319.673057123663
 23
10292.49742454596
 33
0.0
 14
9319.673057123663
 24
10237.49742454596
 34
0.0
 50
90.0
100
AcDbRotatedDimension
1001
ACAD
1000
DSTYLE
1002
{
1002
}
  0
DIMENSION
  5
162D0
330
747D
100
AcDbEntity
  8
寸法
100
AcDbDimension
  2
*D4
 10
10332.20634459771
 20
7242.497424545955
 30
0.0
 11
10232.2063445977
 21
8767.497424545963
 31
0.0
 70
    32
 71
     5
 42
3050.000000000008
  3
INABA_S40G
100
AcDbAlignedDimension
 13
9319.673057123663
 23
10292.49742454596
 33
0.0
 14
9319.673057123639
 24
7242.497424545956
 34
0.0
 50
90.0
100
AcDbRotatedDimension
1001
ACAD
1000
DSTYLE
1002
{
1002
}
  0
LINE
  5
162DC
330
747D
100
AcDbEntity
  8
部品1
100
AcDbLine
 10
9291.673057123647
 20
10264.49742454596
 30
0.0
 11
9291.67305712364
 21
7297.497424545952
 31
0.0
  0
LINE
  5
162DD
330
747D
100
AcDbEntity
  8
部品1
100
AcDbLine
 10
1457.673057123638
 20
7297.497424545821
 30
0.0
 11
1457.673057123649
 21
10264.49742454587
 31
0.0
  0
LINE
  5
162DE
330
747D
100
AcDbEntity
  8
部品1
100
AcDbLine
 10
9319.673057123663
 20
10292.49742454596
 30
0.0
 11
9319.673057123639
 21
7242.497424545956
 31
0.0
  0
LINE
  5
162DF
330
747D
100
AcDbEntity
  8
部品1
100
AcDbLine
 10
1429.673057123628
 20
10292.49742454583
 30
0.0
 11
1429.673057123657
 21
7242.497424545826
 31
0.0
  0
DIMENSION
  5
162E4
330
747D
100
AcDbEntity
  8
寸法
 48
50.0
100
AcDbDimension
  2
*D5
 10
6792.673057123656
 20
6708.0666537797
 30
0.0
 11
8004.673057123648
 21
6808.078464803323
 31
0.0
 70
    32
  1
有効開口部間口 <>
 71
     5
 42
2423.999999999982
  3
INABA_S40G
100
AcDbAlignedDimension
 13
9216.673057123639
 23
7268.497424545865
 33
0.0
 14
6792.673057123656
 24
7268.497424545865
 34
0.0
100
AcDbRotatedDimension
1001
ACAD
1000
DSTYLE
1002
{
1070
    75
1070
     1
1070
   279
1070
     2
1002
}
  0
LINE
  5
162E6
330
747D
100
AcDbEntity
  8
部品1
 48
50.0
100
AcDbLine
 10
6756.673057123656
 20
7287.997424545864
 30
0.0
 11
9252.67305712364
 21
7287.997424545864
 31
0.0
  0
DIMENSION
  5
162E7
330
747D
100
AcDbEntity
  8
寸法
100
AcDbDimension
  2
*D6
 10
9319.673057123628
 20
6261.893658188826
 30
0.0
 11
5374.673057123642
 21
6361.905469212448
 31
0.0
 70
    32
  1
N X 2630
 71
     5
 42
7889.999999999971
  3
INABA_S40G
100
AcDbAlignedDimension
 13
1429.673057123657
 23
7242.497424545861
 33
0.0
 14
9319.673057123628
 24
7242.497424545956
 34
0.0
100
AcDbRotatedDimension
1001
ACAD
1000
DSTYLE
1002
{
1002
}
  0
LINE
  5
162E8
330
747D
100
AcDbEntity
  8
部品1
100
AcDbLine
 10
1484.673057123634
 20
10237.49742454588
 30
0.0
 11
1484.673057123656
 21
7307.497424545863
 31
0.0
  0
LINE
  5
162E9
330
747D
100
AcDbEntity
  8
部品1
100
AcDbLine
 10
1509.673057123635
 20
10237.49742454588
 30
0.0
 11
1509.673057123656
 21
7307.497424545863
 31
0.0
  0
DIMENSION
  5
162EA
330
747D
100
AcDbEntity
  8
寸法
 48
50.0
100
AcDbDimension
  2
*D7
 10
1429.673057123657
 20
6708.0666537797
 30
0.0
 11
1121.187775749418
 21
6708.0666537797
 31
0.0
 70
   160
 71
     5
 42
54.99999999999636
  3
INABA_S40G
100
AcDbAlignedDimension
 13
1484.673057123653
 23
7242.497424545864
 33
0.0
 14
1429.673057123657
 24
7242.497424545861
 34
0.0
100
AcDbRotatedDimension
1001
ACAD
1000
DSTYLE
1002
{
1002
}
  0
DIMENSION
  5
162EB
330
747D
100
AcDbEntity
  8
寸法
 48
50.0
100
AcDbDimension
  2
*D8
 10
6744.673057123653
 20
6708.0666537797
 30
0.0
 11
6905.575028123713
 21
6808.0666537797
 31
0.0
 70
   160
 71
     5
 42
48.00000000000363
  3
INABA_S40G
100
AcDbAlignedDimension
 13
6792.673057123656
 23
7268.497424545865
 33
0.0
 14
6744.673057123653
 24
7242.497424545864
 34
0.0
100
AcDbRotatedDimension
1001
ACAD
1000
DSTYLE
1002
{
1070
   279
1070
     2
1002
}
  0
LINE
  5
162EC
330
747D
100
AcDbEntity
  8
部品1
100
AcDbLine
 10
1484.673057123652
 20
7242.497424545864
 30
0.0
 11
1429.673057123657
 21
7242.497424545861
 31
0.0
  0
LINE
  5
162ED
330
747D
100
AcDbEntity
  8
部品1
 48
50.0
100
AcDbLine
 10
1484.673057123657
 20
7278.497424545864
 30
0.0
 11
1461.673057123657
 21
7278.497424545864
 31
0.0
  0
LINE
  5
162EE
330
747D
100
AcDbEntity
  8
部品1
 48
50.0
100
AcDbLine
 10
1494.673057123657
 20
7268.497424545865
 30
0.0
 11
1484.673057123657
 21
7247.497424545864
 31
0.0
  0
LINE
  5
162EF
330
747D
100
AcDbEntity
  8
部品1
 48
50.0
100
AcDbLine
 10
1484.673057123657
 20
7307.497424545863
 30
0.0
 11
1484.673057123653
 21
7242.497424545864
 31
0.0
  0
LINE
  5
162F0
330
747D
100
AcDbEntity
  8
部品1
 48
50.0
100
AcDbLine
 10
1532.673057123657
 20
7268.497424545865
 30
0.0
 11
1532.673057123657
 21
7277.497424545865
 31
0.0
  0
LINE
  5
162F1
330
747D
100
AcDbEntity
  8
部品1
 48
50.0
100
AcDbLine
 10
1532.673057123657
 20
7307.497424545864
 30
0.0
 11
1532.673057123657
 21
7298.497424545866
 31
0.0
  0
LINE
  5
162F2
330
747D
100
AcDbEntity
  8
部品1
100
AcDbLine
 10
1532.673057123657
 20
7307.497424545864
 30
0.0
 11
1484.673057123657
 21
7307.497424545864
 31
0.0
  0
LINE
  5
162F3
330
747D
100
AcDbEntity
  8
部品1
100
AcDbLine
 10
1532.673057123657
 20
7268.497424545865
 30
0.0
 11
1484.673057123657
 21
7268.497424545865
 31
0.0
  0
LINE
  5
162F4
330
747D
100
AcDbEntity
  8
部品1
100
AcDbLine
 10
1484.673057123656
 20
7278.497424545864
 30
0.0
 11
1461.673057123657
 21
7278.497424545864
 31
0.0
  0
LINE
  5
162F5
330
747D
100
AcDbEntity
  8
部品1
100
AcDbLine
 10
1484.673057123656
 20
7297.497424545788
 30
0.0
 11
1429.673057123655
 21
7297.497424545788
 31
0.0
  0
LINE
  5
162F6
330
747D
100
AcDbEntity
  8
部品1
100
AcDbLine
 10
1457.673057123638
 20
7297.497424545825
 30
0.0
 11
1429.673057123655
 21
7297.497424545825
 31
0.0
  0
LINE
  5
162F7
330
747D
100
AcDbEntity
  8
部品1
100
AcDbLine
 10
1457.673057123655
 20
7297.49742454584
 30
0.0
 11
1429.673057123655
 21
7297.49742454584
 31
0.0
  0
LINE
  5
162FB
330
747D
100
AcDbEntity
  8
部品1
100
AcDbLine
 10
1457.673057123643
 20
7717.49742454584
 30
0.0
 11
1429.673057123643
 21
7717.49742454584
 31
0.0
  0
LINE
  5
162FC
330
747D
100
AcDbEntity
  8
部品1
100
AcDbLine
 10
1457.673057123643
 20
8137.49742454584
 30
0.0
 11
1429.673057123643
 21
8137.49742454584
 31
0.0
  0
LINE
  5
162FE
330
747D
100
AcDbEntity
  8
部品1
100
AcDbLine
 10
1457.673057123638
 20
8557.497424545839
 30
0.0
 11
1429.673057123637
 21
8557.497424545839
 31
0.0
  0
LINE
  5
162FF
330
747D
100
AcDbEntity
  8
部品1
100
AcDbLine
 10
9264.67305712366
 20
10237.49742454588
 30
0.0
 11
9264.673057123641
 21
7242.497424545952
 31
0.0
  0
LINE
  5
16300
330
747D
100
AcDbEntity
  8
部品1
100
AcDbLine
 10
9239.673057123665
 20
10237.49742454588
 30
0.0
 11
9239.67305712364
 21
7307.497424545864
 31
0.0
  0
DIMENSION
  5
16301
330
747D
100
AcDbEntity
  8
寸法
 48
50.0
100
AcDbDimension
  2
*D9
 10
9216.673057123639
 20
6708.0666537797
 30
0.0
 11
9105.710159474892
 21
6808.0666537797
 31
0.0
 70
   160
 71
     5
 42
48.00000000000181
  3
INABA_S40G
100
AcDbAlignedDimension
 13
9264.673057123641
 23
7242.497424545952
 33
0.0
 14
9216.673057123639
 24
7268.497424545865
 34
0.0
100
AcDbRotatedDimension
1001
ACAD
1000
DSTYLE
1002
{
1070
   279
1070
     2
1002
}
  0
DIMENSION
  5
16302
330
747D
100
AcDbEntity
  8
寸法
 48
50.0
100
AcDbDimension
  2
*D10
 10
9264.673057123641
 20
6708.066653779702
 30
0.0
 11
9628.158338497877
 21
6708.066653779702
 31
0.0
 70
   160
 71
     5
 42
54.99999999999818
  3
INABA_S40G
100
AcDbAlignedDimension
 13
9319.673057123639
 23
7242.497424545956
 33
0.0
 14
9264.673057123641
 24
7242.497424545952
 34
0.0
100
AcDbRotatedDimension
1001
ACAD
1000
DSTYLE
1002
{
1002
}
  0
LINE
  5
16303
330
747D
100
AcDbEntity
  8
部品1
 48
50.0
100
AcDbLine
 10
9254.673057123637
 20
7268.497424545865
 30
0.0
 11
9264.673057123639
 21
7247.497424545864
 31
0.0
  0
LINE
  5
16304
330
747D
100
AcDbEntity
  8
部品1
100
AcDbLine
 10
9216.673057123639
 20
7307.497424545864
 30
0.0
 11
9264.673057123641
 21
7307.497424545864
 31
0.0
  0
LINE
  5
16305
330
747D
100
AcDbEntity
  8
部品1
100
AcDbLine
 10
9216.673057123639
 20
7268.497424545865
 30
0.0
 11
9264.673057123639
 21
7268.497424545865
 31
0.0
  0
LINE
  5
16306
330
747D
100
AcDbEntity
  8
部品1
 48
50.0
100
AcDbLine
 10
9216.673057123639
 20
7307.497424545864
 30
0.0
 11
9216.673057123639
 21
7298.497424545866
 31
0.0
  0
LINE
  5
16307
330
747D
100
AcDbEntity
  8
部品1
 48
50.0
100
AcDbLine
 10
9216.673057123639
 20
7268.497424545865
 30
0.0
 11
9216.673057123639
 21
7277.497424545865
 31
0.0
  0
LINE
  5
16308
330
747D
100
AcDbEntity
  8
部品1
100
AcDbLine
 10
9264.673057123639
 20
7278.497424545863
 30
0.0
 11
9287.673057123638
 21
7278.497424545864
 31
0.0
  0
LINE
  5
16309
330
747D
100
AcDbEntity
  8
部品1
100
AcDbLine
 10
9264.673057123639
 20
7297.497424545968
 30
0.0
 11
9319.673057123671
 21
7297.497424545968
 31
0.0
  0
LINE
  5
1630A
330
747D
100
AcDbEntity
  8
部品1
100
AcDbLine
 10
9319.673057123639
 20
7242.497424545956
 30
0.0
 11
9264.673057123641
 21
7242.497424545954
 31
0.0
  0
LINE
  5
16317
330
747D
100
AcDbEntity
  8
部品1
100
AcDbLine
 10
9291.673057123668
 20
7717.497424545967
 30
0.0
 11
9319.673057123667
 21
7717.497424545967
 31
0.0
  0
LINE
  5
16319
330
747D
100
AcDbEntity
  8
部品1
100
AcDbLine
 10
9291.673057123668
 20
8137.497424545967
 30
0.0
 11
9319.673057123667
 21
8137.497424545967
 31
0.0
  0
LINE
  5
1631A
330
747D
100
AcDbEntity
  8
部品1
100
AcDbLine
 10
9291.673057123665
 20
8557.497424545967
 30
0.0
 11
9319.673057123663
 21
8557.497424545967
 31
0.0
  0
LINE
  5
1631B
330
747D
100
AcDbEntity
  8
部品1
100
AcDbLine
 10
6717.673057123665
 20
10264.49742454599
 30
0.0
 11
7992.173057123661
 21
10264.49742454598
 31
0.0
  0
LINE
  5
1631D
330
747D
100
AcDbEntity
  8
部品1
100
AcDbLine
 10
1429.673057123663
 20
10292.49742454587
 30
0.0
 11
9319.673057123663
 21
10292.49742454596
 31
0.0
  0
DIMENSION
  5
1631F
330
747D
100
AcDbEntity
  8
寸法
100
AcDbDimension
  2
*D11
 10
9264.673057123664
 20
10508.30564417096
 30
0.0
 11
8004.673057123664
 21
10608.31745519459
 31
0.0
 70
    32
  1
6X420=<>
 71
     5
 42
2520.000000000001
  3
INABA_S40G
100
AcDbAlignedDimension
 13
6744.673057123662
 23
10292.49742454587
 33
0.0
 14
9264.673057123664
 24
10292.49742454596
 34
0.0
100
AcDbRotatedDimension
1001
ACAD
1000
DSTYLE
1002
{
1002
}
  0
DIMENSION
  5
16320
330
747D
100
AcDbEntity
  8
寸法
100
AcDbDimension
  2
*D12
 10
1484.673057123663
 20
10508.30564417085
 30
0.0
 11
1121.187775749389
 21
10508.30564417085
 31
0.0
 70
   160
 71
     5
 42
55.00000000003456
  3
INABA_S40G
100
AcDbAlignedDimension
 13
1429.673057123628
 23
10292.49742454587
 33
0.0
 14
1484.673057123663
 24
10292.49742454587
 34
0.0
100
AcDbRotatedDimension
1001
ACAD
1000
DSTYLE
1002
{
1002
}
  0
LINE
  5
16321
330
747D
100
AcDbEntity
  8
部品1
100
AcDbLine
 10
1484.673057123628
 20
10292.49742454583
 30
0.0
 11
1484.67305712363
 21
10264.49742454583
 31
0.0
  0
LINE
  5
16322
330
747D
100
AcDbEntity
  8
部品1
100
AcDbLine
 10
1484.673057123663
 20
10292.49742454587
 30
0.0
 11
1484.673057123663
 21
10264.49742454587
 31
0.0
  0
LINE
  5
16323
330
747D
100
AcDbEntity
  8
部品1
100
AcDbLine
 10
1457.67305712363
 20
10237.49742454584
 30
0.0
 11
1429.67305712363
 21
10237.49742454584
 31
0.0
  0
LINE
  5
16324
330
747D
100
AcDbEntity
  8
部品1
100
AcDbLine
 10
7164.673057123663
 20
10292.49742454598
 30
0.0
 11
7164.673057123663
 21
10264.49742454598
 31
0.0
  0
LINE
  5
16325
330
747D
100
AcDbEntity
  8
部品1
100
AcDbLine
 10
7164.673057123663
 20
10292.49742454587
 30
0.0
 11
7164.673057123663
 21
10264.49742454587
 31
0.0
  0
LINE
  5
16326
330
747D
100
AcDbEntity
  8
部品1
100
AcDbLine
 10
7164.673057123663
 20
10292.49742454587
 30
0.0
 11
7164.673057123663
 21
10264.49742454587
 31
0.0
  0
LINE
  5
16327
330
747D
100
AcDbEntity
  8
部品1
100
AcDbLine
 10
8017.173057123663
 20
10264.49742454598
 30
0.0
 11
9291.673057123665
 21
10264.49742454596
 31
0.0
  0
LINE
  5
16329
330
747D
100
AcDbEntity
  8
部品1
100
AcDbLine
 10
7584.673057123663
 20
10292.49742454598
 30
0.0
 11
7584.673057123663
 21
10264.49742454598
 31
0.0
  0
LINE
  5
1632A
330
747D
100
AcDbEntity
  8
部品1
100
AcDbLine
 10
7584.673057123663
 20
10292.49742454587
 30
0.0
 11
7584.673057123663
 21
10264.49742454587
 31
0.0
  0
LINE
  5
1632B
330
747D
100
AcDbEntity
  8
部品1
100
AcDbLine
 10
7584.673057123663
 20
10292.49742454587
 30
0.0
 11
7584.673057123663
 21
10264.49742454587
 31
0.0
  0
LINE
  5
1632C
330
747D
100
AcDbEntity
  8
部品1
100
AcDbLine
 10
8004.673057123664
 20
10292.49742454598
 30
0.0
 11
8004.673057123664
 21
10264.49742454598
 31
0.0
  0
LINE
  5
1632D
330
747D
100
AcDbEntity
  8
部品1
100
AcDbLine
 10
7992.173057123664
 20
10256.49742454596
 30
0.0
 11
8017.173057123663
 21
10256.49742454597
 31
0.0
  0
LINE
  5
1632E
330
747D
100
AcDbEntity
  8
部品1
100
AcDbLine
 10
8033.673057123662
 20
10282.49742454597
 30
0.0
 11
8039.673057123662
 21
10282.49742454597
 31
0.0
  0
LINE
  5
1632F
330
747D
100
AcDbEntity
  8
部品1
100
AcDbLine
 10
8039.673057123662
 20
10282.49742454597
 30
0.0
 11
8039.673057123662
 21
10264.49742454597
 31
0.0
  0
LINE
  5
16330
330
747D
100
AcDbEntity
  8
部品1
100
AcDbLine
 10
7969.673057123663
 20
10282.49742454597
 30
0.0
 11
7975.673057123663
 21
10282.49742454597
 31
0.0
  0
LINE
  5
16331
330
747D
100
AcDbEntity
  8
部品1
100
AcDbLine
 10
7969.673057123663
 20
10282.49742454597
 30
0.0
 11
7969.673057123663
 21
10264.49742454597
 31
0.0
  0
DIMENSION
  5
16333
330
747D
100
AcDbEntity
  8
寸法
100
AcDbDimension
  2
*D13
 10
9319.673057123663
 20
10508.30564417095
 30
0.0
 11
9628.158338497904
 21
10508.30564417095
 31
0.0
 70
   160
 71
     5
 42
55.0
  3
INABA_S40G
100
AcDbAlignedDimension
 13
9264.673057123664
 23
10292.49742454596
 33
0.0
 14
9319.673057123663
 24
10292.49742454596
 34
0.0
100
AcDbRotatedDimension
1001
ACAD
1000
DSTYLE
1002
{
1002
}
  0
LINE
  5
16334
330
747D
100
AcDbEntity
  8
部品1
100
AcDbLine
 10
8424.673057123662
 20
10292.49742454598
 30
0.0
 11
8424.673057123662
 21
10264.49742454598
 31
0.0
  0
LINE
  5
16335
330
747D
100
AcDbEntity
  8
部品1
100
AcDbLine
 10
9264.673057123664
 20
10292.49742454596
 30
0.0
 11
9264.673057123664
 21
10264.49742454596
 31
0.0
  0
LINE
  5
16336
330
747D
100
AcDbEntity
  8
部品1
100
AcDbLine
 10
9264.673057123664
 20
10292.49742454598
 30
0.0
 11
9264.673057123664
 21
10264.49742454598
 31
0.0
  0
LINE
  5
16337
330
747D
100
AcDbEntity
  8
部品1
100
AcDbLine
 10
9291.673057123665
 20
10237.49742454596
 30
0.0
 11
9319.673057123663
 21
10237.49742454596
 31
0.0
  0
LINE
  5
1655C
330
747D
100
AcDbEntity
  8
部品1
100
AcDbLine
 10
6586.673057123658
 20
4277.35920419623
 30
0.0
 11
6586.673057123654
 21
2302.359204196229
 31
0.0
  0
LINE
  5
1655D
330
747D
100
AcDbEntity
  8
部品1
100
AcDbLine
 10
6634.673057123656
 20
4277.359204196229
 30
0.0
 11
6634.673057123655
 21
2302.359204196229
 31
0.0
  0
LINE
  5
1655E
330
747D
100
AcDbEntity
  8
破線
 48
5.0
100
AcDbLine
 10
6586.673057123654
 20
2302.359204196229
 30
0.0
 11
6586.673057123658
 21
2052.359204196229
 31
0.0
  0
LINE
  5
1655F
330
747D
100
AcDbEntity
  8
破線
 48
5.0
100
AcDbLine
 10
6634.673057123659
 20
2052.359204196229
 30
0.0
 11
6586.673057123658
 21
2052.359204196229
 31
0.0
  0
LINE
  5
16560
330
747D
100
AcDbEntity
  8
破線
 48
5.0
100
AcDbLine
 10
6634.673057123655
 20
2302.359204196229
 30
0.0
 11
6634.673057123658
 21
2027.359204196229
 31
0.0
  0
LINE
  5
16561
330
747D
100
AcDbEntity
  8
破線
 48
5.0
100
AcDbLine
 10
6744.673057123654
 20
2027.359204196229
 30
0.0
 11
6634.673057123656
 21
2027.359204196229
 31
0.0
  0
LINE
  5
16562
330
747D
100
AcDbEntity
  8
部品1
100
AcDbLine
 10
6792.673057123656
 20
4277.359204196229
 30
0.0
 11
6792.673057123656
 21
2302.359204196229
 31
0.0
  0
LINE
  5
16563
330
747D
100
AcDbEntity
  8
破線
 48
5.0
100
AcDbLine
 10
6792.673057123656
 20
2302.359204196229
 30
0.0
 11
6792.673057123654
 21
2052.359204196235
 31
0.0
  0
LINE
  5
16564
330
747D
100
AcDbEntity
  8
破線
 48
5.0
100
AcDbLine
 10
6792.673057123654
 20
2052.359204196235
 30
0.0
 11
6744.673057123654
 21
2052.359204196235
 31
0.0
  0
LINE
  5
16565
330
747D
100
AcDbEntity
  8
破線
 48
5.0
100
AcDbLine
 10
6744.673057123657
 20
2302.359204196229
 30
0.0
 11
6744.673057123654
 21
2027.359204196229
 31
0.0
  0
LINE
  5
16566
330
747D
100
AcDbEntity
  8
部品1
100
AcDbLine
 10
6744.673057123655
 20
4277.359204196229
 30
0.0
 11
6744.673057123657
 21
2302.359204196229
 31
0.0
  0
LINE
  5
16567
330
747D
100
AcDbEntity
  8
部品1
100
AcDbLine
 10
6744.673057123657
 20
4277.359204196229
 30
0.0
 11
9319.673057123656
 21
4277.35920419623
 31
0.0
  0
DIMENSION
  5
1659A
330
747D
100
AcDbEntity
  8
寸法
 48
50.0
100
AcDbDimension
  2
*D14
 10
6586.673057123639
 20
6708.0666537797
 30
0.0
 11
6475.710159474892
 21
6808.0666537797
 31
0.0
 70
   160
 71
     5
 42
48.00000000000181
  3
INABA_S40G
100
AcDbAlignedDimension
 13
6634.673057123641
 23
7242.497424545952
 33
0.0
 14
6586.673057123639
 24
7268.497424545865
 34
0.0
100
AcDbRotatedDimension
1001
ACAD
1000
DSTYLE
1002
{
1070
   279
1070
     2
1002
}
  0
DIMENSION
  5
165E9
330
747D
100
AcDbEntity
  8
寸法
 48
50.0
100
AcDbDimension
  2
*D15
 10
6634.673057123641
 20
6708.066653779702
 30
0.0
 11
6689.673057123648
 21
6556.37475874347
 31
0.0
 70
   160
 71
     5
 42
110.0000000000127
  3
INABA_S40G
100
AcDbAlignedDimension
 13
6744.673057123653
 23
7242.497424545864
 33
0.0
 14
6634.673057123641
 24
7242.497424545952
 34
0.0
100
AcDbRotatedDimension
1001
ACAD
1000
DSTYLE
1002
{
1070
   279
1070
     2
1002
}
  0
LINE
  5
16656
330
747D
100
AcDbEntity
  8
部品1
100
AcDbLine
 10
6586.673057123639
 20
7307.497424545864
 30
0.0
 11
6634.673057123641
 21
7307.497424545864
 31
0.0
  0
LINE
  5
16657
330
747D
100
AcDbEntity
  8
部品1
 48
50.0
100
AcDbLine
 10
6586.673057123639
 20
7307.497424545864
 30
0.0
 11
6586.673057123639
 21
7298.497424545866
 31
0.0
  0
LINE
  5
16658
330
747D
100
AcDbEntity
  8
部品1
100
AcDbLine
 10
6586.673057123639
 20
7268.497424545865
 30
0.0
 11
6634.673057123639
 21
7268.497424545865
 31
0.0
  0
LINE
  5
16659
330
747D
100
AcDbEntity
  8
部品1
 48
50.0
100
AcDbLine
 10
6586.673057123639
 20
7268.497424545865
 30
0.0
 11
6586.673057123639
 21
7277.497424545865
 31
0.0
  0
LINE
  5
1665A
330
747D
100
AcDbEntity
  8
部品1
 48
50.0
100
AcDbLine
 10
6624.673057123638
 20
7268.497424545865
 30
0.0
 11
6634.673057123639
 21
7247.497424545864
 31
0.0
  0
LINE
  5
1665B
330
747D
100
AcDbEntity
  8
部品1
100
AcDbLine
 10
6634.673057123639
 20
7278.497424545863
 30
0.0
 11
6657.673057123638
 21
7278.497424545864
 31
0.0
  0
LINE
  5
1665C
330
747D
100
AcDbEntity
  8
部品1
100
AcDbLine
 10
6792.673057123656
 20
7307.497424545864
 30
0.0
 11
6744.673057123657
 21
7307.497424545864
 31
0.0
  0
LINE
  5
1665D
330
747D
100
AcDbEntity
  8
部品1
 48
50.0
100
AcDbLine
 10
6792.673057123656
 20
7307.497424545864
 30
0.0
 11
6792.673057123656
 21
7298.497424545866
 31
0.0
  0
LINE
  5
1665E
330
747D
100
AcDbEntity
  8
部品1
100
AcDbLine
 10
6792.673057123656
 20
7268.497424545865
 30
0.0
 11
6744.673057123657
 21
7268.497424545865
 31
0.0
  0
LINE
  5
1665F
330
747D
100
AcDbEntity
  8
部品1
 48
50.0
100
AcDbLine
 10
6754.673057123657
 20
7268.497424545865
 30
0.0
 11
6744.673057123657
 21
7247.497424545864
 31
0.0
  0
LINE
  5
16660
330
747D
100
AcDbEntity
  8
部品1
100
AcDbLine
 10
6744.673057123655
 20
7278.497424545864
 30
0.0
 11
6721.673057123656
 21
7278.497424545864
 31
0.0
  0
LINE
  5
16661
330
747D
100
AcDbEntity
  8
部品1
 48
50.0
100
AcDbLine
 10
6744.673057123657
 20
7307.497424545863
 30
0.0
 11
6744.673057123653
 21
7242.497424545864
 31
0.0
  0
LINE
  5
16662
330
747D
100
AcDbEntity
  8
部品1
 48
50.0
100
AcDbLine
 10
6792.673057123656
 20
7268.497424545865
 30
0.0
 11
6792.673057123656
 21
7277.497424545865
 31
0.0
  0
LINE
  5
16663
330
747D
100
AcDbEntity
  8
部品1
100
AcDbLine
 10
6744.673057123653
 20
7242.497424545864
 30
0.0
 11
6634.673057123642
 21
7242.497424545859
 31
0.0
  0
LINE
  5
16664
330
747D
100
AcDbEntity
  8
部品1
 48
50.0
100
AcDbLine
 10
6634.673057123645
 20
7307.497424545951
 30
0.0
 11
6634.673057123641
 21
7242.497424545952
 31
0.0
  0
LINE
  5
16666
330
747D
100
AcDbEntity
  8
部品1
100
AcDbLine
 10
6744.673057123662
 20
10292.49742454587
 30
0.0
 11
6744.673057123662
 21
10264.49742454587
 31
0.0
  0
LINE
  5
16692
330
747D
100
AcDbEntity
  8
部品1
100
AcDbLine
 10
6634.673057123663
 20
10292.49742454596
 30
0.0
 11
6634.673057123663
 21
10264.49742454596
 31
0.0
  0
DIMENSION
  5
166DD
330
747D
100
AcDbEntity
  8
寸法
 48
50.0
100
AcDbDimension
  2
*D16
 10
6634.673057123663
 20
10508.30564417096
 30
0.0
 11
6689.673057123664
 21
10608.30564417096
 31
0.0
 70
    32
 71
     5
 42
109.9999999999991
  3
INABA_S40G
100
AcDbAlignedDimension
 13
6744.673057123662
 23
10292.49742454592
 33
0.0
 14
6634.673057123663
 24
10292.49742454591
 34
0.0
100
AcDbRotatedDimension
1001
ACAD
1000
DSTYLE
1002
{
1070
   279
1070
     2
1002
}
  0
LINE
  5
16760
330
747D
100
AcDbEntity
  8
部品1
 48
50.0
100
AcDbLine
 10
6689.673057123629
 20
10264.49742454591
 30
0.0
 11
6661.673057123632
 21
10292.49742454596
 31
0.0
  0
LINE
  5
16761
330
747D
100
AcDbEntity
  8
部品1
100
AcDbLine
 10
9264.673057123658
 20
10237.49742454588
 30
0.0
 11
6744.673057123643
 21
10237.49742454588
 31
0.0
  0
LINE
  5
16762
330
747D
100
AcDbEntity
  8
部品1
 48
50.0
100
AcDbLine
 10
6661.673057123632
 20
10264.49742454601
 30
0.0
 11
6661.67305712363
 21
10292.49742454596
 31
0.0
  0
LINE
  5
16763
330
747D
100
AcDbEntity
  8
部品1
 48
50.0
100
AcDbLine
 10
6661.673057123632
 20
10264.49742454591
 30
0.0
 11
6689.673057123629
 21
10264.49742454591
 31
0.0
  0
LINE
  5
168C3
330
747D
100
AcDbEntity
  8
部品1
100
AcDbLine
 10
6713.673057123648
 20
7297.497424545861
 30
0.0
 11
6665.673057123647
 21
7297.497424545859
 31
0.0
  0
LINE
  5
168C4
330
747D
100
AcDbEntity
  8
部品1
 48
50.0
100
AcDbLine
 10
6665.673057123647
 20
7297.497424545861
 30
0.0
 11
6665.673057123651
 21
7242.497424545861
 31
0.0
  0
LINE
  5
168C5
330
747D
100
AcDbEntity
  8
部品1
 48
50.0
100
AcDbLine
 10
6713.673057123648
 20
7297.497424545861
 30
0.0
 11
6713.673057123649
 21
7242.497424545861
 31
0.0
  0
DIMENSION
  5
16913
330
747D
100
AcDbEntity
  8
寸法
 48
50.0
100
AcDbDimension
  2
*D17
 10
9319.673057123663
 20
10757.62711772726
 30
0.0
 11
8004.673057123664
 21
10857.63892875088
 31
0.0
 70
    32
 71
     5
 42
2630.0
  3
INABA_S40G
100
AcDbAlignedDimension
 13
6689.673057123664
 23
10667.29355852891
 33
0.0
 14
9319.673057123663
 24
10292.49742454596
 34
0.0
100
AcDbRotatedDimension
1001
ACAD
1000
DSTYLE
1002
{
1070
    75
1070
     1
1070
   279
1070
     2
1002
}
  0
LINE
  5
172BC
330
747D
100
AcDbEntity
  8
部品1
 48
50.0
100
AcDbLine
 10
6717.673057123632
 20
10237.49742454588
 30
0.0
 11
6717.673057123697
 21
10292.49742454591
 31
0.0
  0
LINE
  5
172BD
330
747D
100
AcDbEntity
  8
部品1
 48
50.0
100
AcDbLine
 10
6661.673057123632
 20
10237.49742454588
 30
0.0
 11
6661.673057123632
 21
10264.49742454591
 31
0.0
  0
LINE
  5
174C8
330
747D
100
AcDbEntity
  8
部品1
 48
50.0
100
AcDbLine
 10
9239.673057123665
 20
10212.49742454584
 30
0.0
 11
6769.673057123617
 21
10212.49742454581
 31
0.0
  0
LINE
  5
174C9
330
747D
100
AcDbEntity
  8
部品1
 48
50.0
100
AcDbLine
 10
9291.673057123665
 20
10264.49742454596
 30
0.0
 11
9264.673057123658
 21
10237.49742454588
 31
0.0
  0
LINE
  5
174CA
330
747D
100
AcDbEntity
  8
部品1
 48
50.0
100
AcDbLine
 10
1484.673057123634
 20
10237.49742454588
 30
0.0
 11
1457.673057123649
 21
10264.49742454598
 31
0.0
  0
LINE
  5
174CB
330
747D
100
AcDbEntity
  8
部品1
 48
50.0
100
AcDbLine
 10
7992.173057123664
 20
10256.49742454596
 30
0.0
 11
7992.173057123662
 21
10264.49742454598
 31
0.0
  0
LINE
  5
174CC
330
747D
100
AcDbEntity
  8
部品1
 48
50.0
100
AcDbLine
 10
8017.173057123663
 20
10256.49742454597
 30
0.0
 11
8017.173057123663
 21
10264.49742454598
 31
0.0
  0
LINE
  5
17B10
330
747D
100
AcDbEntity
  8
細線
100
AcDbLine
 10
3956.673057123657
 20
2312.35920419623
 30
0.0
 11
1532.673057123651
 21
2312.35920419623
 31
0.0
  0
LINE
  5
17B13
330
747D
100
AcDbEntity
  8
部品1
100
AcDbLine
 10
4114.673057123656
 20
4277.359204196229
 30
0.0
 11
4114.673057123656
 21
2302.35920419623
 31
0.0
  0
LINE
  5
17B14
330
747D
100
AcDbEntity
  8
部品1
100
AcDbLine
 10
4162.673057123657
 20
4277.359204196229
 30
0.0
 11
4162.673057123657
 21
2302.35920419623
 31
0.0
  0
LINE
  5
17B15
330
747D
100
AcDbEntity
  8
部品1
100
AcDbLine
 10
4004.673057123656
 20
4277.359204196229
 30
0.0
 11
4004.673057123655
 21
2302.35920419623
 31
0.0
  0
LINE
  5
17B16
330
747D
100
AcDbEntity
  8
部品1
100
AcDbLine
 10
3956.673057123659
 20
4277.359204196231
 30
0.0
 11
3956.673057123655
 21
2302.35920419623
 31
0.0
  0
LINE
  5
17B1E
330
747D
100
AcDbEntity
  8
細線
100
AcDbLine
 10
1532.673057123653
 20
3937.359204196229
 30
0.0
 11
3956.673057123655
 21
3937.359204196229
 31
0.0
  0
LINE
  5
17B1F
330
747D
100
AcDbEntity
  8
細線
100
AcDbLine
 10
1532.673057123653
 20
4002.359204196229
 30
0.0
 11
3956.673057123655
 21
4002.359204196229
 31
0.0
  0
LINE
  5
17B20
330
747D
100
AcDbEntity
  8
細線
100
AcDbLine
 10
1532.673057123653
 20
4067.359204196229
 30
0.0
 11
3956.673057123655
 21
4067.359204196229
 31
0.0
  0
LINE
  5
17B21
330
747D
100
AcDbEntity
  8
細線
100
AcDbLine
 10
1532.673057123653
 20
3547.35920419623
 30
0.0
 11
3956.673057123655
 21
3547.35920419623
 31
0.0
  0
LINE
  5
17B22
330
747D
100
AcDbEntity
  8
細線
100
AcDbLine
 10
1532.673057123653
 20
3612.35920419623
 30
0.0
 11
3956.673057123655
 21
3612.35920419623
 31
0.0
  0
LINE
  5
17B23
330
747D
100
AcDbEntity
  8
細線
100
AcDbLine
 10
1532.673057123653
 20
3677.35920419623
 30
0.0
 11
3956.673057123655
 21
3677.35920419623
 31
0.0
  0
LINE
  5
17B24
330
747D
100
AcDbEntity
  8
細線
100
AcDbLine
 10
1532.673057123653
 20
3742.35920419623
 30
0.0
 11
3956.673057123655
 21
3742.35920419623
 31
0.0
  0
LINE
  5
17B25
330
747D
100
AcDbEntity
  8
細線
100
AcDbLine
 10
1532.673057123653
 20
3807.35920419623
 30
0.0
 11
3956.673057123655
 21
3807.35920419623
 31
0.0
  0
LINE
  5
17B26
330
747D
100
AcDbEntity
  8
細線
100
AcDbLine
 10
1532.673057123653
 20
3872.359204196229
 30
0.0
 11
3956.673057123655
 21
3872.359204196229
 31
0.0
  0
LINE
  5
17B27
330
747D
100
AcDbEntity
  8
細線
100
AcDbLine
 10
1532.673057123653
 20
2897.35920419623
 30
0.0
 11
3956.673057123655
 21
2897.35920419623
 31
0.0
  0
LINE
  5
17B28
330
747D
100
AcDbEntity
  8
細線
100
AcDbLine
 10
1532.673057123653
 20
2962.35920419623
 30
0.0
 11
3956.673057123655
 21
2962.35920419623
 31
0.0
  0
LINE
  5
17B29
330
747D
100
AcDbEntity
  8
細線
100
AcDbLine
 10
1532.673057123653
 20
3027.35920419623
 30
0.0
 11
3956.673057123655
 21
3027.35920419623
 31
0.0
  0
LINE
  5
17B2A
330
747D
100
AcDbEntity
  8
細線
100
AcDbLine
 10
1532.673057123653
 20
3092.35920419623
 30
0.0
 11
3956.673057123655
 21
3092.35920419623
 31
0.0
  0
LINE
  5
17B2B
330
747D
100
AcDbEntity
  8
細線
100
AcDbLine
 10
1532.673057123653
 20
3157.35920419623
 30
0.0
 11
3956.673057123655
 21
3157.35920419623
 31
0.0
  0
LINE
  5
17B2C
330
747D
100
AcDbEntity
  8
細線
100
AcDbLine
 10
1532.673057123653
 20
3222.35920419623
 30
0.0
 11
3956.673057123655
 21
3222.35920419623
 31
0.0
  0
LINE
  5
17B2D
330
747D
100
AcDbEntity
  8
細線
100
AcDbLine
 10
1532.673057123653
 20
3287.35920419623
 30
0.0
 11
3956.673057123655
 21
3287.35920419623
 31
0.0
  0
LINE
  5
17B2E
330
747D
100
AcDbEntity
  8
細線
100
AcDbLine
 10
1532.673057123653
 20
3352.35920419623
 30
0.0
 11
3956.673057123655
 21
3352.35920419623
 31
0.0
  0
LINE
  5
17B2F
330
747D
100
AcDbEntity
  8
細線
100
AcDbLine
 10
1532.673057123653
 20
3417.35920419623
 30
0.0
 11
3956.673057123655
 21
3417.35920419623
 31
0.0
  0
LINE
  5
17B30
330
747D
100
AcDbEntity
  8
細線
100
AcDbLine
 10
1532.673057123653
 20
3482.35920419623
 30
0.0
 11
3956.673057123655
 21
3482.35920419623
 31
0.0
  0
LINE
  5
17B31
330
747D
100
AcDbEntity
  8
細線
100
AcDbLine
 10
1532.673057123653
 20
4197.359204196229
 30
0.0
 11
3956.673057123655
 21
4197.359204196229
 31
0.0
  0
LINE
  5
17B32
330
747D
100
AcDbEntity
  8
細線
100
AcDbLine
 10
1532.673057123653
 20
4132.359204196229
 30
0.0
 11
3956.673057123655
 21
4132.359204196229
 31
0.0
  0
LINE
  5
17B33
330
747D
100
AcDbEntity
  8
細線
100
AcDbLine
 10
1532.673057123653
 20
2377.35920419623
 30
0.0
 11
3956.673057123655
 21
2377.35920419623
 31
0.0
  0
LINE
  5
17B34
330
747D
100
AcDbEntity
  8
細線
100
AcDbLine
 10
1532.673057123653
 20
2442.35920419623
 30
0.0
 11
3956.673057123655
 21
2442.35920419623
 31
0.0
  0
LINE
  5
17B35
330
747D
100
AcDbEntity
  8
細線
100
AcDbLine
 10
1532.673057123653
 20
2507.35920419623
 30
0.0
 11
3956.673057123655
 21
2507.35920419623
 31
0.0
  0
LINE
  5
17B36
330
747D
100
AcDbEntity
  8
細線
100
AcDbLine
 10
1532.673057123653
 20
2572.35920419623
 30
0.0
 11
3956.673057123655
 21
2572.35920419623
 31
0.0
  0
LINE
  5
17B37
330
747D
100
AcDbEntity
  8
細線
100
AcDbLine
 10
1532.673057123653
 20
2637.35920419623
 30
0.0
 11
3956.673057123655
 21
2637.35920419623
 31
0.0
  0
LINE
  5
17B38
330
747D
100
AcDbEntity
  8
細線
100
AcDbLine
 10
1532.673057123653
 20
2702.35920419623
 30
0.0
 11
3956.673057123655
 21
2702.35920419623
 31
0.0
  0
LINE
  5
17B39
330
747D
100
AcDbEntity
  8
細線
100
AcDbLine
 10
1532.673057123653
 20
2767.35920419623
 30
0.0
 11
3956.673057123655
 21
2767.35920419623
 31
0.0
  0
LINE
  5
17B3A
330
747D
100
AcDbEntity
  8
細線
100
AcDbLine
 10
1532.673057123653
 20
2832.35920419623
 30
0.0
 11
3956.673057123655
 21
2832.35920419623
 31
0.0
  0
LINE
  5
17B3D
330
747D
100
AcDbEntity
  8
細線
100
AcDbLine
 10
1532.673057123653
 20
4262.359204196228
 30
0.0
 11
3956.673057123655
 21
4262.359204196228
 31
0.0
  0
LINE
  5
17B5A
330
747D
100
AcDbEntity
  8
部品1
100
AcDbLine
 10
1429.673057123657
 20
4277.359204196229
 30
0.0
 11
4114.673057123656
 21
4277.359204196229
 31
0.0
  0
LINE
  5
17B5E
330
747D
100
AcDbEntity
  8
破線
 48
5.0
100
AcDbLine
 10
4114.673057123656
 20
2302.35920419623
 30
0.0
 11
4114.673057123656
 21
2027.35920419623
 31
0.0
  0
LINE
  5
17B5F
330
747D
100
AcDbEntity
  8
破線
 48
5.0
100
AcDbLine
 10
4162.673057123654
 20
2052.359204196235
 30
0.0
 11
4114.673057123655
 21
2052.359204196235
 31
0.0
  0
LINE
  5
17B60
330
747D
100
AcDbEntity
  8
破線
 48
5.0
100
AcDbLine
 10
4162.673057123657
 20
2302.35920419623
 30
0.0
 11
4162.673057123654
 21
2052.359204196235
 31
0.0
  0
LINE
  5
17B61
330
747D
100
AcDbEntity
  8
破線
 48
5.0
100
AcDbLine
 10
4114.673057123655
 20
2027.35920419623
 30
0.0
 11
4004.673057123656
 21
2027.35920419623
 31
0.0
  0
LINE
  5
17B62
330
747D
100
AcDbEntity
  8
破線
 48
5.0
100
AcDbLine
 10
4004.673057123655
 20
2302.35920419623
 30
0.0
 11
4004.673057123656
 21
2027.35920419623
 31
0.0
  0
LINE
  5
17B63
330
747D
100
AcDbEntity
  8
破線
 48
5.0
100
AcDbLine
 10
4004.673057123659
 20
2052.35920419623
 30
0.0
 11
3956.673057123657
 21
2052.35920419623
 31
0.0
  0
LINE
  5
17B64
330
747D
100
AcDbEntity
  8
破線
 48
5.0
100
AcDbLine
 10
3956.673057123655
 20
2302.35920419623
 30
0.0
 11
3956.673057123656
 21
2052.35920419623
 31
0.0
  0
DIMENSION
  5
17B86
330
747D
100
AcDbEntity
  8
寸法
 48
50.0
100
AcDbDimension
  2
*D22
 10
4059.673057123664
 20
10757.62711772726
 30
0.0
 11
2744.673057123646
 21
10857.63892875088
 31
0.0
 70
    32
 71
     5
 42
2630.000000000036
  3
INABA_S40G
100
AcDbAlignedDimension
 13
1429.673057123628
 23
10292.49742454583
 33
0.0
 14
4059.673057123664
 24
10667.29355852891
 34
0.0
100
AcDbRotatedDimension
1001
ACAD
1000
DSTYLE
1002
{
1070
   279
1070
     2
1002
}
  0
DIMENSION
  5
17B87
330
747D
100
AcDbEntity
  8
寸法
100
AcDbDimension
  2
*D20
 10
4004.673057123664
 20
10508.30564417096
 30
0.0
 11
2744.673057123664
 21
10608.31745519459
 31
0.0
 70
    32
  1
6X420=<>
 71
     5
 42
2520.000000000001
  3
INABA_S40G
100
AcDbAlignedDimension
 13
1484.673057123663
 23
10292.49742454587
 33
0.0
 14
4004.673057123664
 24
10292.49742454596
 34
0.0
100
AcDbRotatedDimension
1001
ACAD
1000
DSTYLE
1002
{
1002
}
  0
DIMENSION
  5
17B88
330
747D
100
AcDbEntity
  8
寸法
 48
50.0
100
AcDbDimension
  2
*D21
 10
4004.673057123664
 20
10508.30564417096
 30
0.0
 11
4059.673057123663
 21
10608.30564417096
 31
0.0
 70
    32
 71
     5
 42
109.9999999999991
  3
INABA_S40G
100
AcDbAlignedDimension
 13
4114.673057123662
 23
10292.49742454592
 33
0.0
 14
4004.673057123664
 24
10292.49742454591
 34
0.0
100
AcDbRotatedDimension
1001
ACAD
1000
DSTYLE
1002
{
1070
   279
1070
     2
1002
}
  0
LINE
  5
17B89
330
747D
100
AcDbEntity
  8
部品1
100
AcDbLine
 10
4087.673057123629
 20
10237.49742454588
 30
0.0
 11
4031.673057123631
 21
10237.49742454588
 31
0.0
  0
LINE
  5
17B8B
330
747D
100
AcDbEntity
  8
部品1
 48
50.0
100
AcDbLine
 10
3979.673057123634
 20
10212.49742454579
 30
0.0
 11
1509.673057123634
 21
10212.49742454579
 31
0.0
  0
LINE
  5
17B9A
330
747D
100
AcDbEntity
  8
部品1
 48
50.0
100
AcDbLine
 10
4031.673057123631
 20
10237.49742454588
 30
0.0
 11
4031.673057123631
 21
10264.49742454591
 31
0.0
  0
LINE
  5
17B9B
330
747D
100
AcDbEntity
  8
部品1
 48
50.0
100
AcDbLine
 10
4087.673057123631
 20
10237.49742454588
 30
0.0
 11
4087.673057123697
 21
10292.49742454591
 31
0.0
  0
LINE
  5
17B9C
330
747D
100
AcDbEntity
  8
部品1
 48
50.0
100
AcDbLine
 10
4083.673057123648
 20
7297.497424545861
 30
0.0
 11
4083.673057123649
 21
7242.497424545861
 31
0.0
  0
LINE
  5
17B9D
330
747D
100
AcDbEntity
  8
部品1
 48
50.0
100
AcDbLine
 10
4035.673057123648
 20
7297.497424545861
 30
0.0
 11
4035.67305712365
 21
7242.497424545861
 31
0.0
  0
LINE
  5
17B9E
330
747D
100
AcDbEntity
  8
部品1
100
AcDbLine
 10
4083.673057123648
 20
7297.497424545861
 30
0.0
 11
4035.673057123647
 21
7297.497424545859
 31
0.0
  0
LINE
  5
17B9F
330
747D
100
AcDbEntity
  8
部品1
 48
50.0
100
AcDbLine
 10
4031.673057123631
 20
10264.49742454591
 30
0.0
 11
4059.673057123629
 21
10264.49742454591
 31
0.0
  0
LINE
  5
17BA0
330
747D
100
AcDbEntity
  8
部品1
 48
50.0
100
AcDbLine
 10
4031.673057123631
 20
10264.49742454601
 30
0.0
 11
4031.67305712363
 21
10292.49742454596
 31
0.0
  0
LINE
  5
17BA1
330
747D
100
AcDbEntity
  8
部品1
 48
50.0
100
AcDbLine
 10
4059.673057123629
 20
10264.49742454591
 30
0.0
 11
4031.673057123631
 21
10292.49742454596
 31
0.0
  0
LINE
  5
17BA2
330
747D
100
AcDbEntity
  8
部品1
100
AcDbLine
 10
4004.673057123664
 20
10292.49742454596
 30
0.0
 11
4004.673057123664
 21
10264.49742454596
 31
0.0
  0
LINE
  5
17BB2
330
747D
100
AcDbEntity
  8
部品1
100
AcDbLine
 10
4114.673057123662
 20
10292.49742454587
 30
0.0
 11
4114.673057123662
 21
10264.49742454587
 31
0.0
  0
LINE
  5
17BB3
330
747D
100
AcDbEntity
  8
部品1
 48
50.0
100
AcDbLine
 10
4004.673057123645
 20
7307.497424545951
 30
0.0
 11
4004.673057123642
 21
7242.497424545952
 31
0.0
  0
LINE
  5
17BB4
330
747D
100
AcDbEntity
  8
部品1
100
AcDbLine
 10
4114.673057123652
 20
7242.497424545864
 30
0.0
 11
4004.673057123642
 21
7242.497424545859
 31
0.0
  0
LINE
  5
17BB5
330
747D
100
AcDbEntity
  8
部品1
 48
50.0
100
AcDbLine
 10
4162.673057123657
 20
7268.497424545865
 30
0.0
 11
4162.673057123657
 21
7277.497424545865
 31
0.0
  0
LINE
  5
17BB6
330
747D
100
AcDbEntity
  8
部品1
 48
50.0
100
AcDbLine
 10
4114.673057123656
 20
7307.497424545863
 30
0.0
 11
4114.673057123653
 21
7242.497424545864
 31
0.0
  0
LINE
  5
17BB7
330
747D
100
AcDbEntity
  8
部品1
100
AcDbLine
 10
4114.673057123655
 20
7278.497424545864
 30
0.0
 11
4091.673057123657
 21
7278.497424545864
 31
0.0
  0
LINE
  5
17BB8
330
747D
100
AcDbEntity
  8
部品1
 48
50.0
100
AcDbLine
 10
4124.673057123657
 20
7268.497424545865
 30
0.0
 11
4114.673057123656
 21
7247.497424545864
 31
0.0
  0
LINE
  5
17BB9
330
747D
100
AcDbEntity
  8
部品1
100
AcDbLine
 10
4162.673057123657
 20
7268.497424545865
 30
0.0
 11
4114.673057123656
 21
7268.497424545865
 31
0.0
  0
LINE
  5
17BBA
330
747D
100
AcDbEntity
  8
部品1
 48
50.0
100
AcDbLine
 10
4162.673057123657
 20
7307.497424545864
 30
0.0
 11
4162.673057123657
 21
7298.497424545866
 31
0.0
  0
LINE
  5
17BBB
330
747D
100
AcDbEntity
  8
部品1
100
AcDbLine
 10
4162.673057123657
 20
7307.497424545864
 30
0.0
 11
4114.673057123656
 21
7307.497424545864
 31
0.0
  0
LINE
  5
17BBC
330
747D
100
AcDbEntity
  8
部品1
100
AcDbLine
 10
4004.673057123638
 20
7278.497424545863
 30
0.0
 11
4027.673057123638
 21
7278.497424545864
 31
0.0
  0
LINE
  5
17BBD
330
747D
100
AcDbEntity
  8
部品1
 48
50.0
100
AcDbLine
 10
3994.673057123639
 20
7268.497424545865
 30
0.0
 11
4004.673057123638
 21
7247.497424545864
 31
0.0
  0
LINE
  5
17BBE
330
747D
100
AcDbEntity
  8
部品1
 48
50.0
100
AcDbLine
 10
3956.673057123639
 20
7268.497424545865
 30
0.0
 11
3956.673057123639
 21
7277.497424545865
 31
0.0
  0
LINE
  5
17BBF
330
747D
100
AcDbEntity
  8
部品1
100
AcDbLine
 10
3956.673057123639
 20
7268.497424545865
 30
0.0
 11
4004.673057123638
 21
7268.497424545865
 31
0.0
  0
LINE
  5
17BC0
330
747D
100
AcDbEntity
  8
部品1
 48
50.0
100
AcDbLine
 10
3956.673057123639
 20
7307.497424545864
 30
0.0
 11
3956.673057123639
 21
7298.497424545866
 31
0.0
  0
LINE
  5
17BC1
330
747D
100
AcDbEntity
  8
部品1
100
AcDbLine
 10
3956.673057123639
 20
7307.497424545864
 30
0.0
 11
4004.67305712364
 21
7307.497424545864
 31
0.0
  0
LINE
  5
17BC2
330
747D
100
AcDbEntity
  8
部品1
 48
50.0
100
AcDbLine
 10
1496.673057123656
 20
7287.997424545864
 30
0.0
 11
3992.673057123641
 21
7287.997424545864
 31
0.0
  0
DIMENSION
  5
17BC3
330
747D
100
AcDbEntity
  8
寸法
 48
50.0
100
AcDbDimension
  2
*D19
 10
1532.673057123657
 20
6708.0666537797
 30
0.0
 11
2744.673057123648
 21
6808.078464803323
 31
0.0
 70
    32
  1
有効開口部間口 <>
 71
     5
 42
2423.999999999982
  3
INABA_S40G
100
AcDbAlignedDimension
 13
3956.673057123639
 23
7268.497424545865
 33
0.0
 14
1532.673057123657
 24
7268.497424545865
 34
0.0
100
AcDbRotatedDimension
1001
ACAD
1000
DSTYLE
1002
{
1070
    75
1070
     1
1070
   279
1070
     2
1002
}
  0
DIMENSION
  5
17BC4
330
747D
100
AcDbEntity
  8
寸法
 48
50.0
100
AcDbDimension
  2
*D18
 10
3956.673057123639
 20
6708.0666537797
 30
0.0
 11
3845.710159474892
 21
6808.0666537797
 31
0.0
 70
   160
 71
     5
 42
48.00000000000181
  3
INABA_S40G
100
AcDbAlignedDimension
 13
4004.67305712364
 23
7242.497424545952
 33
0.0
 14
3956.673057123639
 24
7268.497424545865
 34
0.0
100
AcDbRotatedDimension
1001
ACAD
1000
DSTYLE
1002
{
1070
   279
1070
     2
1002
}
  0
DIMENSION
  5
17C46
330
747D
100
AcDbEntity
  8
寸法
 48
50.0
100
AcDbDimension
  2
*D24
 10
4004.67305712364
 20
6708.066653779702
 30
0.0
 11
4059.673057123647
 21
6556.37475874347
 31
0.0
 70
   160
 71
     5
 42
110.0000000000127
  3
INABA_S40G
100
AcDbAlignedDimension
 13
4114.673057123653
 23
7242.497424545864
 33
0.0
 14
4004.67305712364
 24
7242.497424545952
 34
0.0
100
AcDbRotatedDimension
1001
ACAD
1000
DSTYLE
1002
{
1070
   279
1070
     2
1002
}
  0
DIMENSION
  5
17C47
330
747D
100
AcDbEntity
  8
寸法
 48
50.0
100
AcDbDimension
  2
*D23
 10
4114.673057123653
 20
6708.0666537797
 30
0.0
 11
4275.575028123713
 21
6808.0666537797
 31
0.0
 70
   160
 71
     5
 42
48.00000000000363
  3
INABA_S40G
100
AcDbAlignedDimension
 13
4162.673057123657
 23
7268.497424545865
 33
0.0
 14
4114.673057123653
 24
7242.497424545864
 34
0.0
100
AcDbRotatedDimension
1001
ACAD
1000
DSTYLE
1002
{
1070
   279
1070
     2
1002
}
  0
LINE
  5
17D0F
330
747D
100
AcDbEntity
  8
部品1
100
AcDbLine
 10
9291.673057123656
 20
9817.497424545958
 30
0.0
 11
9319.673057123656
 21
9817.497424545958
 31
0.0
  0
LINE
  5
17D10
330
747D
100
AcDbEntity
  8
部品1
100
AcDbLine
 10
9291.673057123658
 20
8977.497424545957
 30
0.0
 11
9319.673057123658
 21
8977.497424545957
 31
0.0
  0
LINE
  5
17D11
330
747D
100
AcDbEntity
  8
部品1
100
AcDbLine
 10
1457.673057123628
 20
9817.497424545832
 30
0.0
 11
1429.673057123628
 21
9817.497424545832
 31
0.0
  0
LINE
  5
17D12
330
747D
100
AcDbEntity
  8
部品1
100
AcDbLine
 10
1457.673057123634
 20
8977.49742454583
 30
0.0
 11
1429.673057123634
 21
8977.49742454583
 31
0.0
  0
LINE
  5
18097
330
747D
100
AcDbEntity
  8
寸法
 48
50.0
100
AcDbLine
 10
6534.673057123663
 20
10508.30564417096
 30
0.0
 11
5617.901097968024
 21
10508.30564417096
 31
0.0
  0
LINE
  5
18098
330
747D
100
AcDbEntity
  8
寸法
 48
50.0
100
AcDbLine
 10
5131.445016279303
 20
10508.30564417096
 30
0.0
 11
4214.673057123663
 21
10508.30564417096
 31
0.0
  0
TEXT
  5
180AB
330
747D
100
AcDbEntity
  8
文字
 48
50.0
100
AcDbText
 10
5744.946326482197
 20
10538.9904096999
 30
0.0
 40
120.0
  1
2520
  7
STYLE1
100
AcDbText
  0
TEXT
  5
180AD
330
747D
100
AcDbEntity
  8
文字
 48
50.0
100
AcDbText
 10
5600.652295359538
 20
6743.535778383449
 30
0.0
 40
120.0
  1
2424
  7
STYLE1
100
AcDbText
  0
TEXT
  5
180D7
330
747D
100
AcDbEntity
  8
文字
 48
50.0
100
AcDbText
 10
4713.401826075933
 20
10538.9904096999
 30
0.0
 40
120.0
  1
2520
  7
STYLE1
100
AcDbText
  0
LINE
  5
180D8
330
747D
100
AcDbEntity
  8
寸法
 48
50.0
100
AcDbLine
 10
6486.673057123638
 20
6708.0666537797
 30
0.0
 11
5569.901097967999
 21
6708.0666537797
 31
0.0
  0
LINE
  5
180D9
330
747D
100
AcDbEntity
  8
寸法
 48
50.0
100
AcDbLine
 10
5083.445016279277
 20
6708.0666537797
 30
0.0
 11
4166.673057123637
 21
6708.0666537797
 31
0.0
  0
TEXT
  5
180DA
330
747D
100
AcDbEntity
  8
文字
 48
50.0
100
AcDbText
 10
4729.811617545235
 20
6743.535778383449
 30
0.0
 40
120.0
  1
2424
  7
STYLE1
100
AcDbText
  0
LINE
  5
180FF
330
747D
100
AcDbEntity
  8
部品1
100
AcDbLine
 10
1429.673057123656
 20
2302.359204196229
 30
0.0
 11
9319.673057123656
 21
2302.359204196229
 31
0.0
  0
LINE
  5
18100
330
747D
100
AcDbEntity
  8
Ｇ．Ｌ
100
AcDbLine
 10
341.4064544531726
 20
2202.35920419623
 30
0.0
 11
15697.85959757071
 21
2202.359204196229
 31
0.0
  0
LINE
  5
18102
330
747D
100
AcDbEntity
  8
部品1
 48
50.0
100
AcDbLine
 10
6609.673057123633
 20
10212.49742454581
 30
0.0
 11
4139.673057123633
 21
10212.49742454579
 31
0.0
  0
LINE
  5
18103
330
747D
100
AcDbEntity
  8
部品1
100
AcDbLine
 10
6634.673057123643
 20
10237.49742454589
 30
0.0
 11
4114.673057123642
 21
10237.49742454588
 31
0.0
  0
LINE
  5
18106
330
747D
100
AcDbEntity
  8
寸法
 48
50.0
100
AcDbLine
 10
6689.563357233135
 20
10684.76985551187
 30
0.0
 11
6689.563357233135
 21
10823.92098311983
 31
0.0
  0
LINE
  5
18107
330
747D
100
AcDbEntity
  8
寸法
 48
50.0
100
AcDbLine
 10
6689.673057123664
 20
10757.62711772726
 30
0.0
 11
5622.238647055863
 21
10757.62711772726
 31
0.0
  0
LINE
  5
18108
330
747D
100
AcDbEntity
  8
寸法
 48
50.0
100
AcDbLine
 10
4059.673057123664
 20
10757.62711772726
 30
0.0
 11
5137.161027911185
 21
10757.62711772726
 31
0.0
  0
TEXT
  5
18109
330
747D
100
AcDbEntity
  8
文字
 48
50.0
100
AcDbText
 10
5744.946326482197
 20
10801.48433045451
 30
0.0
 40
120.0
  1
2630
  7
STYLE1
100
AcDbText
  0
TEXT
  5
1810A
330
747D
100
AcDbEntity
  8
文字
 48
50.0
100
AcDbText
 10
4713.401826075933
 20
10801.48433045451
 30
0.0
 40
120.0
  1
2630
  7
STYLE1
100
AcDbText
  0
LINE
  5
18157
330
747D
100
AcDbEntity
  8
部品1
100
AcDbLine
 10
4031.673057123651
 20
9817.497424545914
 30
0.0
 11
4059.673057123651
 21
9817.497424545914
 31
0.0
  0
LINE
  5
18158
330
747D
100
AcDbEntity
  8
部品1
100
AcDbLine
 10
4031.673057123651
 20
8977.497424545914
 30
0.0
 11
4059.673057123651
 21
8977.497424545914
 31
0.0
  0
LINE
  5
18159
330
747D
100
AcDbEntity
  8
部品1
100
AcDbLine
 10
4031.673057123651
 20
8557.497424545914
 30
0.0
 11
4059.673057123651
 21
8557.497424545914
 31
0.0
  0
LINE
  5
1815A
330
747D
100
AcDbEntity
  8
部品1
100
AcDbLine
 10
4004.673057123649
 20
7307.497424545812
 30
0.0
 11
4004.673057123642
 21
10237.49742454581
 31
0.0
  0
LINE
  5
1815B
330
747D
100
AcDbEntity
  8
部品1
 48
10.0
100
AcDbLine
 10
3979.673057123659
 20
7307.497424545812
 30
0.0
 11
3979.673057123633
 21
10237.49742454581
 31
0.0
  0
LINE
  5
1815C
330
747D
100
AcDbEntity
  8
部品1
100
AcDbLine
 10
4031.673057123631
 20
10264.49742454591
 30
0.0
 11
4031.673057123614
 21
7242.497424545807
 31
0.0
  0
LINE
  5
1815D
330
747D
100
AcDbEntity
  8
部品1
100
AcDbLine
 10
4114.67305712367
 20
7307.497424545812
 30
0.0
 11
4114.673057123642
 21
10237.49742454581
 31
0.0
  0
LINE
  5
1815E
330
747D
100
AcDbEntity
  8
部品1
 48
10.0
100
AcDbLine
 10
4139.673057123664
 20
7307.497424545812
 30
0.0
 11
4139.673057123617
 21
10237.49742454583
 31
0.0
  0
LINE
  5
1815F
330
747D
100
AcDbEntity
  8
部品1
100
AcDbLine
 10
4087.673057123609
 20
7242.497424545813
 30
0.0
 11
4087.673057123633
 21
10292.49742454586
 31
0.0
  0
LINE
  5
18160
330
747D
100
AcDbEntity
  8
部品1
100
AcDbLine
 10
4059.673057123649
 20
10237.49742454583
 30
0.0
 11
4059.673057123622
 21
7297.497424545807
 31
0.0
  0
LINE
  5
18161
330
747D
100
AcDbEntity
  8
部品1
100
AcDbLine
 10
6689.673057123648
 20
10237.49742454583
 30
0.0
 11
6689.673057123622
 21
7297.497424545807
 31
0.0
  0
LINE
  5
18162
330
747D
100
AcDbEntity
  8
部品1
100
AcDbLine
 10
6717.673057123609
 20
7242.497424545813
 30
0.0
 11
6717.673057123633
 21
10292.49742454586
 31
0.0
  0
LINE
  5
18163
330
747D
100
AcDbEntity
  8
部品1
 48
10.0
100
AcDbLine
 10
6769.673057123664
 20
7307.497424545812
 30
0.0
 11
6769.673057123617
 21
10237.49742454583
 31
0.0
  0
LINE
  5
18164
330
747D
100
AcDbEntity
  8
部品1
100
AcDbLine
 10
6744.673057123669
 20
7307.497424545812
 30
0.0
 11
6744.673057123643
 21
10237.49742454581
 31
0.0
  0
LINE
  5
18165
330
747D
100
AcDbEntity
  8
部品1
100
AcDbLine
 10
6661.673057123632
 20
10264.49742454591
 30
0.0
 11
6661.673057123614
 21
7242.497424545807
 31
0.0
  0
LINE
  5
18166
330
747D
100
AcDbEntity
  8
部品1
 48
10.0
100
AcDbLine
 10
6609.673057123659
 20
7307.497424545812
 30
0.0
 11
6609.673057123633
 21
10237.49742454581
 31
0.0
  0
LINE
  5
18167
330
747D
100
AcDbEntity
  8
部品1
100
AcDbLine
 10
6634.673057123649
 20
7307.497424545812
 30
0.0
 11
6634.673057123642
 21
10237.49742454581
 31
0.0
  0
LINE
  5
18168
330
747D
100
AcDbEntity
  8
部品1
100
AcDbLine
 10
6661.673057123651
 20
8557.497424545914
 30
0.0
 11
6689.673057123652
 21
8557.497424545914
 31
0.0
  0
LINE
  5
18169
330
747D
100
AcDbEntity
  8
部品1
100
AcDbLine
 10
6661.673057123651
 20
8977.497424545914
 30
0.0
 11
6689.673057123652
 21
8977.497424545914
 31
0.0
  0
LINE
  5
1816A
330
747D
100
AcDbEntity
  8
部品1
100
AcDbLine
 10
6661.673057123651
 20
9817.497424545914
 30
0.0
 11
6689.673057123652
 21
9817.497424545914
 31
0.0
  0
LINE
  5
1816B
330
747D
100
AcDbEntity
  8
部品1
 48
50.0
100
AcDbLine
 10
6717.673057123684
 20
10264.49742454572
 30
0.0
 11
6744.673057123673
 21
10237.49742454573
 31
0.0
  0
LINE
  5
1816C
330
747D
100
AcDbEntity
  8
部品1
 48
50.0
100
AcDbLine
 10
6661.673057123699
 20
10264.49742454581
 30
0.0
 11
6634.673057123695
 21
10237.49742454581
 31
0.0
  0
LINE
  5
1816D
330
747D
100
AcDbEntity
  8
部品1
 48
50.0
100
AcDbLine
 10
4087.673057123684
 20
10264.49742454572
 30
0.0
 11
4114.673057123673
 21
10237.49742454573
 31
0.0
  0
LINE
  5
1816E
330
747D
100
AcDbEntity
  8
部品1
 48
50.0
100
AcDbLine
 10
4031.673057123699
 20
10264.49742454581
 30
0.0
 11
4004.673057123695
 21
10237.49742454581
 31
0.0
  0
LINE
  5
1816F
330
747D
100
AcDbEntity
  8
部品1
100
AcDbLine
 10
4004.673057123642
 20
10237.49742454588
 30
0.0
 11
1484.673057123634
 21
10237.49742454588
 31
0.0
  0
LINE
  5
18170
330
747D
100
AcDbEntity
  8
部品1
100
AcDbLine
 10
6717.673057123632
 20
10237.49742454588
 30
0.0
 11
6661.67305712363
 21
10237.49742454588
 31
0.0
  0
LINE
  5
18171
330
747D
100
AcDbEntity
  8
部品1
100
AcDbLine
 10
6661.673057123657
 20
8137.497424545914
 30
0.0
 11
6689.673057123657
 21
8137.497424545914
 31
0.0
  0
LINE
  5
18172
330
747D
100
AcDbEntity
  8
部品1
100
AcDbLine
 10
6661.673057123657
 20
7717.497424545914
 30
0.0
 11
6689.673057123657
 21
7717.497424545914
 31
0.0
  0
LINE
  5
18173
330
747D
100
AcDbEntity
  8
部品1
100
AcDbLine
 10
4031.673057123657
 20
7717.497424545914
 30
0.0
 11
4059.673057123657
 21
7717.497424545914
 31
0.0
  0
LINE
  5
18174
330
747D
100
AcDbEntity
  8
部品1
100
AcDbLine
 10
4031.673057123657
 20
8137.497424545914
 30
0.0
 11
4059.673057123657
 21
8137.497424545914
 31
0.0
  0
LINE
  5
181F6
330
747D
100
AcDbEntity
  8
部品1
100
AcDbLine
 10
9291.673057123658
 20
9397.497424545958
 30
0.0
 11
9319.673057123658
 21
9397.497424545958
 31
0.0
  0
LINE
  5
181F7
330
747D
100
AcDbEntity
  8
部品1
100
AcDbLine
 10
6661.673057123651
 20
9397.497424545916
 30
0.0
 11
6689.673057123652
 21
9397.497424545916
 31
0.0
  0
LINE
  5
181F8
330
747D
100
AcDbEntity
  8
部品1
100
AcDbLine
 10
4031.673057123651
 20
9397.497424545916
 30
0.0
 11
4059.673057123651
 21
9397.497424545916
 31
0.0
  0
LINE
  5
181F9
330
747D
100
AcDbEntity
  8
部品1
100
AcDbLine
 10
1457.673057123634
 20
9397.49742454583
 30
0.0
 11
1429.673057123634
 21
9397.49742454583
 31
0.0
  0
TEXT
  5
1875B
330
747D
100
AcDbEntity
  8
文字
 62
     7
 48
50.0
100
AcDbText
 10
15022.63965474516
 20
9910.013745883727
 30
0.0
 40
100.0
  1
F12,Y10      1.2+1.6
  7
STYLE1
100
AcDbText
  0
TEXT
  5
1875C
330
747D
100
AcDbEntity
  8
文字
 62
     7
 48
50.0
100
AcDbText
 10
13583.11819016569
 20
9910.01374588373
 30
0.0
 40
100.0
  1
梁中
  7
STYLE1
100
AcDbText
  0
TEXT
  5
1875D
330
747D
100
AcDbEntity
  8
文字
 62
     7
 48
50.0
100
AcDbText
 10
13248.77747366448
 20
8720.013745883731
 30
0.0
 40
100.0
  1
14
  7
STYLE1
100
AcDbText
  0
LINE
  5
1875E
330
747D
100
AcDbEntity
  8
仕様書枠
 48
50.0
100
AcDbLine
 10
16307.19999999999
 20
9879.599999999999
 30
0.0
 11
13127.2
 21
9879.600000000001
 31
0.0
  0
LINE
  5
1875F
330
747D
100
AcDbEntity
  8
仕様書枠
 48
50.0
100
AcDbLine
 10
16307.19999999999
 20
11239.6
 30
0.0
 11
13127.2
 21
11239.6
 31
0.0
  0
LINE
  5
18760
330
747D
100
AcDbEntity
  8
仕様書枠
 48
50.0
100
AcDbLine
 10
16307.2
 20
8179.600000000002
 30
0.0
 11
16307.2
 21
11239.6
 31
0.0
  0
LINE
  5
18761
330
747D
100
AcDbEntity
  8
仕様書枠
 48
50.0
100
AcDbLine
 10
14785.2
 20
11239.59999999999
 30
0.0
 11
14785.19999999999
 21
8689.600000000003
 31
0.0
  0
LINE
  5
18762
330
747D
100
AcDbEntity
  8
仕様書枠
 48
50.0
100
AcDbLine
 10
13490.2
 20
11239.6
 30
0.0
 11
13490.20000000001
 21
8689.600000000003
 31
0.0
  0
LINE
  5
18763
330
747D
100
AcDbEntity
  8
仕様書枠
 48
50.0
100
AcDbLine
 10
16307.19999999999
 20
11069.6
 30
0.0
 11
13127.2
 21
11069.6
 31
0.0
  0
LINE
  5
18764
330
747D
100
AcDbEntity
  8
仕様書枠
 48
50.0
100
AcDbLine
 10
16307.19999999999
 20
10729.6
 30
0.0
 11
13127.2
 21
10729.6
 31
0.0
  0
LINE
  5
18765
330
747D
100
AcDbEntity
  8
仕様書枠
 48
50.0
100
AcDbLine
 10
16307.19999999999
 20
10899.6
 30
0.0
 11
13127.2
 21
10899.6
 31
0.0
  0
LINE
  5
18766
330
747D
100
AcDbEntity
  8
仕様書枠
 48
50.0
100
AcDbLine
 10
16307.19999999999
 20
10389.6
 30
0.0
 11
13127.19999999999
 21
10389.6
 31
0.0
  0
LINE
  5
18767
330
747D
100
AcDbEntity
  8
仕様書枠
 48
50.0
100
AcDbLine
 10
16307.19999999999
 20
10219.6
 30
0.0
 11
13127.19999999999
 21
10219.6
 31
0.0
  0
LINE
  5
18768
330
747D
100
AcDbEntity
  8
仕様書枠
 48
50.0
100
AcDbLine
 10
16307.19999999999
 20
10559.6
 30
0.0
 11
13127.19999999999
 21
10559.6
 31
0.0
  0
TEXT
  5
18769
330
747D
100
AcDbEntity
  8
文字
 62
     7
 48
50.0
100
AcDbText
 10
13197.42518560407
 20
11100.01374588373
 30
0.0
 40
100.0
  1
品番
  7
STYLE1
100
AcDbText
  0
TEXT
  5
1876A
330
747D
100
AcDbEntity
  8
文字
 62
     7
 48
50.0
100
AcDbText
 10
13271.19032244792
 20
10930.01374588373
 30
0.0
 40
100.0
  1
1
  7
STYLE1
100
AcDbText
  0
TEXT
  5
1876B
330
747D
100
AcDbEntity
  8
文字
 62
     7
 48
50.0
100
AcDbText
 10
13271.19032244792
 20
10760.01374588373
 30
0.0
 40
100.0
  1
2
  7
STYLE1
100
AcDbText
  0
TEXT
  5
1876C
330
747D
100
AcDbEntity
  8
文字
 62
     7
 48
50.0
100
AcDbText
 10
13271.19032244792
 20
10420.01374588373
 30
0.0
 40
100.0
  1
4
  7
STYLE1
100
AcDbText
  0
TEXT
  5
1876D
330
747D
100
AcDbEntity
  8
文字
 62
     7
 48
50.0
100
AcDbText
 10
13271.19032244792
 20
10590.01374588373
 30
0.0
 40
100.0
  1
3
  7
STYLE1
100
AcDbText
  0
TEXT
  5
1876E
330
747D
100
AcDbEntity
  8
文字
 62
     7
 48
50.0
100
AcDbText
 10
13732.03840939434
 20
11100.01374588373
 30
0.0
 40
100.0
  1
部　　品　　名
  7
STYLE1
100
AcDbText
  0
TEXT
  5
1876F
330
747D
100
AcDbEntity
  8
文字
 62
     7
 48
50.0
100
AcDbText
 10
14859.79774614482
 20
11100.01374588373
 30
0.0
 40
100.0
  1
材料（材質）　　単位mm
  7
STYLE1
100
AcDbText
  0
TEXT
  5
18770
330
747D
100
AcDbEntity
  8
文字
 62
     7
 48
50.0
100
AcDbText
 10
13583.11819016569
 20
10930.01374588372
 30
0.0
 40
100.0
  1
土台枠
  7
STYLE1
100
AcDbText
  0
TEXT
  5
18771
330
747D
100
AcDbEntity
  8
文字
 62
     7
 48
50.0
100
AcDbText
 10
13583.11819016569
 20
10760.01374588372
 30
0.0
 40
100.0
  1
柱
  7
STYLE1
100
AcDbText
  0
TEXT
  5
18772
330
747D
100
AcDbEntity
  8
文字
 62
     7
 48
50.0
100
AcDbText
 10
13583.11819016569
 20
10590.01374588373
 30
0.0
 40
100.0
  1
桁前
  7
STYLE1
100
AcDbText
  0
TEXT
  5
18773
330
747D
100
AcDbEntity
  8
文字
 62
     7
 48
50.0
100
AcDbText
 10
13583.11819016569
 20
10420.01374588373
 30
0.0
 40
100.0
  1
桁後
  7
STYLE1
100
AcDbText
  0
TEXT
  5
18774
330
747D
100
AcDbEntity
  8
文字
 62
     7
 48
50.0
100
AcDbText
 10
13271.19032244792
 20
10250.01374588373
 30
0.0
 40
100.0
  1
5
  7
STYLE1
100
AcDbText
  0
TEXT
  5
18775
330
747D
100
AcDbEntity
  8
文字
 62
     7
 48
50.0
100
AcDbText
 10
13583.11819016569
 20
10250.01374588373
 30
0.0
 40
100.0
  1
妻板左右
  7
STYLE1
100
AcDbText
  0
TEXT
  5
18776
330
747D
100
AcDbEntity
  8
文字
 62
     7
 48
50.0
100
AcDbText
 10
13583.11819016569
 20
8890.013745883727
 30
0.0
 40
100.0
  1
シャッターレール
  7
STYLE1
100
AcDbText
  0
TEXT
  5
18777
330
747D
100
AcDbEntity
  8
文字
 62
     7
 48
50.0
100
AcDbText
 10
13248.77747366448
 20
9400.013745883727
 30
0.0
 40
100.0
  1
10
  7
STYLE1
100
AcDbText
  0
TEXT
  5
18778
330
747D
100
AcDbEntity
  8
文字
 62
     7
 48
50.0
100
AcDbText
 10
13583.11819016569
 20
9400.013745883729
 30
0.0
 40
100.0
  1
壁パネル
  7
STYLE1
100
AcDbText
  0
TEXT
  5
18779
330
747D
100
AcDbEntity
  8
文字
 62
     7
 48
50.0
100
AcDbText
 10
13583.11819016569
 20
9570.013745883727
 30
0.0
 40
100.0
  1
屋根パネル
  7
STYLE1
100
AcDbText
  0
TEXT
  5
1877A
330
747D
100
AcDbEntity
  8
文字
 62
     7
 48
50.0
100
AcDbText
 10
13583.11819016569
 20
9740.013745883729
 30
0.0
 40
100.0
  1
母屋中
  7
STYLE1
100
AcDbText
  0
TEXT
  5
1877B
330
747D
100
AcDbEntity
  8
文字
 62
     7
 48
50.0
100
AcDbText
 10
13583.11819016569
 20
10080.01374588372
 30
0.0
 40
100.0
  1
鼻隠シ前後
  7
STYLE1
100
AcDbText
  0
TEXT
  5
1877C
330
747D
100
AcDbEntity
  8
文字
 62
     7
 48
50.0
100
AcDbText
 10
13271.19032244792
 20
9740.013745883729
 30
0.0
 40
100.0
  1
8
  7
STYLE1
100
AcDbText
  0
TEXT
  5
1877D
330
747D
100
AcDbEntity
  8
文字
 62
     7
 48
50.0
100
AcDbText
 10
13271.19032244792
 20
9570.013745883729
 30
0.0
 40
100.0
  1
9
  7
STYLE1
100
AcDbText
  0
TEXT
  5
1877E
330
747D
100
AcDbEntity
  8
文字
 62
     7
 48
50.0
100
AcDbText
 10
13271.19032244792
 20
9910.01374588373
 30
0.0
 40
100.0
  1
7
  7
STYLE1
100
AcDbText
  0
TEXT
  5
1877F
330
747D
100
AcDbEntity
  8
文字
 62
     7
 48
50.0
100
AcDbText
 10
13271.19032244792
 20
10080.01374588373
 30
0.0
 40
100.0
  1
6
  7
STYLE1
100
AcDbText
  0
LINE
  5
18780
330
747D
100
AcDbEntity
  8
仕様書枠
 48
50.0
100
AcDbLine
 10
16307.19999999999
 20
9539.599999999998
 30
0.0
 11
13127.19999999999
 21
9539.6
 31
0.0
  0
LINE
  5
18781
330
747D
100
AcDbEntity
  8
仕様書枠
 48
50.0
100
AcDbLine
 10
16307.19999999999
 20
9199.599999999998
 30
0.0
 11
13127.19999999999
 21
9199.600000000001
 31
0.0
  0
LINE
  5
18782
330
747D
100
AcDbEntity
  8
仕様書枠
 48
50.0
100
AcDbLine
 10
16307.19999999999
 20
9369.599999999998
 30
0.0
 11
13127.19999999999
 21
9369.600000000001
 31
0.0
  0
LINE
  5
18783
330
747D
100
AcDbEntity
  8
仕様書枠
 48
50.0
100
AcDbLine
 10
16307.19999999999
 20
10049.6
 30
0.0
 11
13127.2
 21
10049.6
 31
0.0
  0
LINE
  5
18784
330
747D
100
AcDbEntity
  8
仕様書枠
 48
50.0
100
AcDbLine
 10
16307.19999999999
 20
9709.6
 30
0.0
 11
13127.2
 21
9709.600000000001
 31
0.0
  0
TEXT
  5
18785
330
747D
100
AcDbEntity
  8
文字
 62
     7
 48
50.0
100
AcDbText
 10
13248.77747366448
 20
9230.013745883727
 30
0.0
 40
100.0
  1
11
  7
STYLE1
100
AcDbText
  0
TEXT
  5
18786
330
747D
100
AcDbEntity
  8
文字
 62
     7
 48
50.0
100
AcDbText
 10
13583.11819016569
 20
9060.013745883727
 30
0.0
 40
100.0
  1
シャッターカバー
 41
0.9
  7
STYLE1
100
AcDbText
  0
LINE
  5
18787
330
747D
100
AcDbEntity
  8
仕様書枠
 48
50.0
100
AcDbLine
 10
16307.19999999999
 20
9029.6
 30
0.0
 11
13127.19999999999
 21
9029.6
 31
0.0
  0
TEXT
  5
18789
330
747D
100
AcDbEntity
  8
文字
 62
     7
 48
50.0
100
AcDbText
 10
13583.11819016569
 20
8720.013745883729
 30
0.0
 40
100.0
  1
棚板（別売）
  7
STYLE1
100
AcDbText
  0
LINE
  5
1878A
330
747D
100
AcDbEntity
  8
仕様書枠
 48
50.0
100
AcDbLine
 10
16307.19999999999
 20
8859.6
 30
0.0
 11
13127.19999999999
 21
8859.600000000002
 31
0.0
  0
TEXT
  5
1878B
330
747D
100
AcDbEntity
  8
文字
 62
     7
 48
50.0
100
AcDbText
 10
13583.11819016569
 20
9230.013745883731
 30
0.0
 40
100.0
  1
シャッター
  7
STYLE1
100
AcDbText
  0
TEXT
  5
1878C
330
747D
100
AcDbEntity
  8
文字
 62
     7
 48
50.0
100
AcDbText
 10
13248.77747366448
 20
8890.013745883729
 30
0.0
 40
100.0
  1
13
  7
STYLE1
100
AcDbText
  0
TEXT
  5
1878D
330
747D
100
AcDbEntity
  8
文字
 62
     7
 48
50.0
100
AcDbText
 10
13248.77747366448
 20
9060.013745883729
 30
0.0
 40
100.0
  1
12
  7
STYLE1
100
AcDbText
  0
TEXT
  5
1878E
330
747D
100
AcDbEntity
  8
文字
 62
     7
 48
50.0
100
AcDbText
 10
15022.63965474517
 20
10930.01374588372
 30
0.0
 40
100.0
  1
F12            1.2
  7
STYLE1
100
AcDbText
  0
TEXT
  5
18790
330
747D
100
AcDbEntity
  8
文字
 62
     7
 48
50.0
100
AcDbText
 10
15022.63965474517
 20
10590.01374588372
 30
0.0
 40
100.0
  1
Y10            1.0
  7
STYLE1
100
AcDbText
  0
TEXT
  5
18791
330
747D
100
AcDbEntity
  8
文字
 62
     7
 48
50.0
100
AcDbText
 10
15022.63965474516
 20
10420.01374588372
 30
0.0
 40
100.0
  1
Y10            1.0
  7
STYLE1
100
AcDbText
  0
TEXT
  5
18792
330
747D
100
AcDbEntity
  8
文字
 62
     7
 48
50.0
100
AcDbText
 10
15022.63965474517
 20
10250.01374588372
 30
0.0
 40
100.0
  1
Y10            0.7
  7
STYLE1
100
AcDbText
  0
TEXT
  5
18793
330
747D
100
AcDbEntity
  8
文字
 62
     7
 48
50.0
100
AcDbText
 10
15022.63965474516
 20
10080.01374588372
 30
0.0
 40
100.0
  1
Y10            0.7
  7
STYLE1
100
AcDbText
  0
TEXT
  5
18795
330
747D
100
AcDbEntity
  8
文字
 62
     7
 48
50.0
100
AcDbText
 10
15022.63965474517
 20
9570.013745883725
 30
0.0
 40
100.0
  1
Y10            0.5
  7
STYLE1
100
AcDbText
  0
TEXT
  5
18796
330
747D
100
AcDbEntity
  8
文字
 62
     7
 48
50.0
100
AcDbText
 10
15022.63965474516
 20
9400.013745883725
 30
0.0
 40
100.0
  1
F12            0.7
  7
STYLE1
100
AcDbText
  0
TEXT
  5
18797
330
747D
100
AcDbEntity
  8
文字
 62
     7
 48
50.0
100
AcDbText
 10
14850.83183167176
 20
8890.013745883724
 30
0.0
 40
100.0
  1
アルミニウム合金押出形材
  7
STYLE1
100
AcDbText
  0
TEXT
  5
18799
330
747D
100
AcDbEntity
  8
文字
 62
     7
 48
50.0
100
AcDbText
 10
15022.63965474515
 20
9230.013745883727
 30
0.0
 40
100.0
  1
Z08            0.5
  7
STYLE1
100
AcDbText
  0
TEXT
  5
1879A
330
747D
100
AcDbEntity
  8
文字
 62
     7
 48
50.0
100
AcDbText
 10
15022.63965474515
 20
8720.013745883727
 30
0.0
 40
100.0
  1
F12            0.6
  7
STYLE1
100
AcDbText
  0
LINE
  5
1879B
330
747D
100
AcDbEntity
  8
仕様書枠
 48
50.0
100
AcDbLine
 10
16307.19999999999
 20
8519.599999999998
 30
0.0
 11
13127.19999999999
 21
8519.600000000002
 31
0.0
  0
LINE
  5
1879C
330
747D
100
AcDbEntity
  8
仕様書枠
 48
50.0
100
AcDbLine
 10
16307.19999999999
 20
8349.599999999998
 30
0.0
 11
13127.19999999999
 21
8349.6
 31
0.0
  0
LINE
  5
1879D
330
747D
100
AcDbEntity
  8
仕様書枠
 48
50.0
100
AcDbLine
 10
16307.19999999999
 20
8179.599999999998
 30
0.0
 11
13127.19999999999
 21
8179.6
 31
0.0
  0
TEXT
  5
1879E
330
747D
100
AcDbEntity
  8
文字
 62
     7
 48
50.0
100
AcDbText
 10
13229.83081656555
 20
8550.013745883727
 30
0.0
 40
100.0
  1
F12→溶融亜鉛めっき鋼板(JIS G 3302)
  7
STYLE1
100
AcDbText
  0
TEXT
  5
1879F
330
747D
100
AcDbEntity
  8
文字
 62
     7
 48
50.0
100
AcDbText
 10
13229.83081656555
 20
8380.013745883728
 30
0.0
 40
100.0
  1
Y10→溶融亜鉛-5％アルミニウム合金めっき鋼板(JIS G 3317)
 41
0.9
  7
STYLE1
100
AcDbText
  0
TEXT
  5
187A0
330
747D
100
AcDbEntity
  8
文字
 62
     7
 48
50.0
100
AcDbText
 10
13229.83081656555
 20
8210.013745883729
 30
0.0
 40
100.0
  1
Z08→塗装溶融亜鉛めっき鋼板(JIS G 3313)
  7
STYLE1
100
AcDbText
  0
LINE
  5
187A1
330
747D
100
AcDbEntity
  8
仕様書枠
 48
50.0
100
AcDbLine
 10
13127.2
 20
11239.6
 30
0.0
 11
13127.2
 21
8179.600000000002
 31
0.0
  0
TEXT
  5
18871
330
747D
100
AcDbEntity
  8
文字
 62
     7
 48
50.0
100
AcDbText
 10
14847.53274566167
 20
9741.52081350642
 30
0.0
 40
100.0
  1
F12    1.2(多雪地型  2.3)
  7
STYLE1
100
AcDbText
  0
TEXT
  5
18D7A
330
747D
100
AcDbEntity
  8
部品1
100
AcDbText
 10
13253.21971637547
 20
1359.465674977706
 30
0.0
 40
135.0
  1
側面図
  7
STYLE2
100
AcDbText
  0
LWPOLYLINE
  5
18D7B
330
747D
100
AcDbEntity
  8
部品1
100
AcDbPolyline
 90
        4
 70
     1
 43
0.0
 10
13163.77361495187
 20
1552.359204196229
 10
13163.77361495187
 20
1312.466882650697
 10
13927.2442811803
 20
1312.466882650697
 10
13927.2442811803
 20
1552.359204196229
  0
LINE
  5
18D7C
330
747D
100
AcDbEntity
  8
部品1
100
AcDbLine
 10
14585.50894806607
 20
4442.359204196231
 30
0.0
 11
14585.50894806607
 21
2352.359204196233
 31
0.0
  0
LINE
  5
18D7D
330
747D
100
AcDbEntity
  8
細線
 48
50.0
100
AcDbLine
 10
14508.00894806608
 20
4442.359204196229
 30
0.0
 11
14508.00894806608
 21
2352.359204196231
 31
0.0
  0
LINE
  5
18D7E
330
747D
100
AcDbEntity
  8
細線
 48
50.0
100
AcDbLine
 10
14523.00894806608
 20
4442.359204196229
 30
0.0
 11
14523.00894806608
 21
2352.359204196231
 31
0.0
  0
LINE
  5
18D7F
330
747D
100
AcDbEntity
  8
細線
 48
50.0
100
AcDbLine
 10
14383.00894806608
 20
4442.359204196229
 30
0.0
 11
14383.00894806608
 21
2352.359204196231
 31
0.0
  0
LINE
  5
18D80
330
747D
100
AcDbEntity
  8
細線
 48
50.0
100
AcDbLine
 10
14368.00894806608
 20
4442.359204196229
 30
0.0
 11
14368.00894806608
 21
2352.359204196231
 31
0.0
  0
LINE
  5
18D81
330
747D
100
AcDbEntity
  8
細線
 48
50.0
100
AcDbLine
 10
14228.00894806608
 20
4442.359204196229
 30
0.0
 11
14228.00894806608
 21
2352.359204196231
 31
0.0
  0
LINE
  5
18D82
330
747D
100
AcDbEntity
  8
細線
 48
50.0
100
AcDbLine
 10
14243.00894806608
 20
4442.359204196229
 30
0.0
 11
14243.00894806608
 21
2352.359204196231
 31
0.0
  0
LINE
  5
18D83
330
747D
100
AcDbEntity
  8
部品1
100
AcDbLine
 10
14165.50894806608
 20
4442.359204196229
 30
0.0
 11
14165.50894806608
 21
2352.359204196231
 31
0.0
  0
DIMENSION
  5
18D84
330
747D
100
AcDbEntity
  8
寸法
 48
50.0
100
AcDbDimension
  2
*D25
 10
11389.90054129769
 20
4551.704463069561
 30
0.0
 11
11400.56601655661
 21
4922.55112631126
 31
0.0
 70
   161
 71
     5
 42
141.0
  3
INABA_S40G
100
AcDbAlignedDimension
 13
11969.90496822466
 23
4676.081953030909
 33
0.0
 14
11965.85151266803
 24
4535.140229265197
 34
0.0
1001
ACAD
1000
DSTYLE
1002
{
1070
   174
1070
     0
1070
   272
1070
     1
1070
   288
1070
     0
1070
   341
1005
0
1002
}
  0
LINE
  5
18D85
330
747D
100
AcDbEntity
  8
細線
 48
50.0
100
AcDbLine
 10
14928.00894806608
 20
4442.359204196231
 30
0.0
 11
14928.00894806608
 21
2352.359204196231
 31
0.0
  0
LINE
  5
18D86
330
747D
100
AcDbEntity
  8
細線
 48
50.0
100
AcDbLine
 10
14943.00894806608
 20
4442.359204196231
 30
0.0
 11
14943.00894806608
 21
2352.359204196231
 31
0.0
  0
LINE
  5
18D87
330
747D
100
AcDbEntity
  8
細線
 48
50.0
100
AcDbLine
 10
14803.00894806608
 20
4442.359204196231
 30
0.0
 11
14803.00894806608
 21
2352.359204196231
 31
0.0
  0
LINE
  5
18D88
330
747D
100
AcDbEntity
  8
細線
 48
50.0
100
AcDbLine
 10
14788.00894806608
 20
4442.359204196231
 30
0.0
 11
14788.00894806608
 21
2352.359204196231
 31
0.0
  0
LINE
  5
18D89
330
747D
100
AcDbEntity
  8
細線
 48
50.0
100
AcDbLine
 10
14648.00894806608
 20
4442.359204196231
 30
0.0
 11
14648.00894806608
 21
2352.359204196231
 31
0.0
  0
LINE
  5
18D8A
330
747D
100
AcDbEntity
  8
細線
 48
50.0
100
AcDbLine
 10
14663.00894806608
 20
4442.359204196231
 30
0.0
 11
14663.00894806608
 21
2352.359204196231
 31
0.0
  0
LINE
  5
18D8B
330
747D
100
AcDbEntity
  8
部品1
100
AcDbLine
 10
13325.50894806608
 20
4442.359204196229
 30
0.0
 11
13325.50894806608
 21
2352.359204196229
 31
0.0
  0
LINE
  5
18D8C
330
747D
100
AcDbEntity
  8
細線
 48
50.0
100
AcDbLine
 10
12983.00894806608
 20
4442.359204196229
 30
0.0
 11
12983.00894806609
 21
2352.359204196229
 31
0.0
  0
LINE
  5
18D8D
330
747D
100
AcDbEntity
  8
細線
 48
50.0
100
AcDbLine
 10
12968.00894806608
 20
4442.359204196229
 30
0.0
 11
12968.00894806609
 21
2352.359204196229
 31
0.0
  0
LINE
  5
18D8E
330
747D
100
AcDbEntity
  8
細線
 48
50.0
100
AcDbLine
 10
13108.00894806608
 20
4442.359204196229
 30
0.0
 11
13108.00894806608
 21
2352.359204196229
 31
0.0
  0
LINE
  5
18D8F
330
747D
100
AcDbEntity
  8
細線
 48
50.0
100
AcDbLine
 10
13123.00894806608
 20
4442.359204196229
 30
0.0
 11
13123.00894806609
 21
2352.359204196229
 31
0.0
  0
LINE
  5
18D90
330
747D
100
AcDbEntity
  8
細線
 48
50.0
100
AcDbLine
 10
13263.00894806608
 20
4442.359204196229
 30
0.0
 11
13263.00894806609
 21
2352.359204196229
 31
0.0
  0
LINE
  5
18D91
330
747D
100
AcDbEntity
  8
細線
 48
50.0
100
AcDbLine
 10
13248.00894806608
 20
4442.359204196229
 30
0.0
 11
13248.00894806609
 21
2352.359204196229
 31
0.0
  0
LINE
  5
18D92
330
747D
100
AcDbEntity
  8
部品1
100
AcDbLine
 10
12905.50894806608
 20
4442.359204196229
 30
0.0
 11
12905.50894806608
 21
2352.359204196229
 31
0.0
  0
DIMENSION
  5
18D93
330
747D
100
AcDbEntity
  8
寸法
 48
50.0
100
AcDbDimension
  2
*D26
 10
15140.50894806608
 20
5076.016657775536
 30
0.0
 11
15346.55619216057
 21
5076.016657775536
 31
0.0
 70
   160
 71
     5
 42
80.0
  3
INABA_S40G
100
AcDbAlignedDimension
 13
15060.50894806608
 23
4624.169883807884
 33
0.0
 14
15140.50894806608
 24
4622.359204196232
 34
0.0
100
AcDbRotatedDimension
1001
ACAD
1000
DSTYLE
1002
{
1070
   174
1070
     0
1070
   272
1070
     1
1070
   288
1070
     0
1070
   341
1005
0
1002
}
  0
LINE
  5
18D94
330
747D
100
AcDbEntity
  8
細線
 48
50.0
100
AcDbLine
 10
12143.00894806608
 20
4442.359204196229
 30
0.0
 11
12143.00894806608
 21
2352.359204196229
 31
0.0
  0
LINE
  5
18D95
330
747D
100
AcDbEntity
  8
細線
 48
50.0
100
AcDbLine
 10
12128.00894806608
 20
4442.359204196229
 30
0.0
 11
12128.00894806608
 21
2352.359204196229
 31
0.0
  0
LINE
  5
18D96
330
747D
100
AcDbEntity
  8
細線
 48
50.0
100
AcDbLine
 10
12268.00894806608
 20
4442.359204196229
 30
0.0
 11
12268.00894806608
 21
2352.359204196229
 31
0.0
  0
LINE
  5
18D97
330
747D
100
AcDbEntity
  8
細線
 48
50.0
100
AcDbLine
 10
12283.00894806608
 20
4442.359204196229
 30
0.0
 11
12283.00894806608
 21
2352.359204196229
 31
0.0
  0
LINE
  5
18D98
330
747D
100
AcDbEntity
  8
細線
 48
50.0
100
AcDbLine
 10
12423.00894806608
 20
4442.359204196229
 30
0.0
 11
12423.00894806608
 21
2352.359204196229
 31
0.0
  0
LINE
  5
18D99
330
747D
100
AcDbEntity
  8
細線
 48
50.0
100
AcDbLine
 10
12408.00894806608
 20
4442.359204196229
 30
0.0
 11
12408.00894806608
 21
2352.359204196229
 31
0.0
  0
LINE
  5
18D9A
330
747D
100
AcDbEntity
  8
細線
 48
50.0
100
AcDbLine
 10
12828.00894806608
 20
4442.359204196229
 30
0.0
 11
12828.00894806608
 21
2352.359204196229
 31
0.0
  0
LINE
  5
18D9B
330
747D
100
AcDbEntity
  8
細線
 48
50.0
100
AcDbLine
 10
12843.00894806608
 20
4442.359204196229
 30
0.0
 11
12843.00894806608
 21
2352.359204196229
 31
0.0
  0
LINE
  5
18D9C
330
747D
100
AcDbEntity
  8
細線
 48
50.0
100
AcDbLine
 10
12703.00894806608
 20
4442.359204196229
 30
0.0
 11
12703.00894806608
 21
2352.359204196229
 31
0.0
  0
LINE
  5
18D9D
330
747D
100
AcDbEntity
  8
細線
 48
50.0
100
AcDbLine
 10
12688.00894806608
 20
4442.359204196229
 30
0.0
 11
12688.00894806608
 21
2352.359204196229
 31
0.0
  0
LINE
  5
18D9E
330
747D
100
AcDbEntity
  8
細線
 48
50.0
100
AcDbLine
 10
12548.00894806608
 20
4442.359204196229
 30
0.0
 11
12548.00894806608
 21
2352.359204196229
 31
0.0
  0
LINE
  5
18D9F
330
747D
100
AcDbEntity
  8
細線
 48
50.0
100
AcDbLine
 10
12563.00894806608
 20
4442.359204196229
 30
0.0
 11
12563.00894806608
 21
2352.359204196229
 31
0.0
  0
LINE
  5
18DA0
330
747D
100
AcDbEntity
  8
部品1
100
AcDbLine
 10
12065.50894806609
 20
2302.359204196229
 30
0.0
 11
15060.50894806608
 21
2302.359204196229
 31
0.0
  0
DIMENSION
  5
18DA1
330
747D
100
AcDbEntity
  8
寸法
 48
50.0
100
AcDbDimension
  2
*D27
 10
11950.50894806608
 20
5306.130250561811
 30
0.0
 11
13545.50894806608
 21
5306.130250561811
 31
0.0
 70
   160
 71
     5
 42
3190.0
  3
INABA_S40G
100
AcDbAlignedDimension
 13
15140.50894806608
 23
4622.359204196231
 33
0.0
 14
11950.50894806608
 24
4677.359204196234
 34
0.0
100
AcDbRotatedDimension
1001
ACAD
1000
DSTYLE
1002
{
1070
   174
1070
     0
1070
   272
1070
     1
1070
   288
1070
     0
1070
   341
1005
0
1002
}
  0
DIMENSION
  5
18DA2
330
747D
100
AcDbEntity
  8
寸法
 48
50.0
100
AcDbDimension
  2
*D28
 10
11950.50894806608
 20
5076.016657775533
 30
0.0
 11
11640.87115279049
 21
5076.016657775533
 31
0.0
 70
   160
 71
     5
 42
60.0
  3
INABA_S40G
100
AcDbAlignedDimension
 13
12010.50894806608
 23
4673.360822319206
 33
0.0
 14
11950.50894806608
 24
4677.359204196234
 34
0.0
100
AcDbRotatedDimension
1001
ACAD
1000
DSTYLE
1002
{
1070
   174
1070
     0
1070
   272
1070
     1
1070
   288
1070
     0
1070
   341
1005
0
1002
}
  0
DIMENSION
  5
18DA3
330
747D
100
AcDbEntity
  8
寸法
 48
50.0
100
AcDbDimension
  2
*D29
 10
12010.50894806608
 20
5076.016657775536
 30
0.0
 11
13535.50894806608
 21
5076.016657775536
 31
0.0
 70
   160
  1
柱外寸法<>
 71
     5
 42
3050.0
  3
INABA_S40G
100
AcDbAlignedDimension
 13
15060.50894806608
 23
4624.169883807884
 33
0.0
 14
12010.50894806608
 24
4673.360822319206
 34
0.0
100
AcDbRotatedDimension
1001
ACAD
1000
DSTYLE
1002
{
1070
   174
1070
     0
1070
   272
1070
     1
1070
   288
1070
     0
1070
   341
1005
0
1002
}
  0
LINE
  5
18DA4
330
747D
100
AcDbEntity
  8
部品1
100
AcDbLine
 10
15005.50894806608
 20
4442.359204196231
 30
0.0
 11
15005.50894806608
 21
2352.359204196231
 31
0.0
  0
LINE
  5
18DA5
330
747D
100
AcDbEntity
  8
部品1
100
AcDbLine
 10
15060.50894806608
 20
4496.78923197735
 30
0.0
 11
15060.50894806608
 21
2202.359204196231
 31
0.0
  0
LINE
  5
18DA6
330
747D
100
AcDbEntity
  8
部品1
100
AcDbLine
 10
12485.50894806608
 20
4442.359204196229
 30
0.0
 11
12485.50894806608
 21
2352.359204196229
 31
0.0
  0
DIMENSION
  5
18DA7
330
747D
100
AcDbEntity
  8
寸法
100
AcDbDimension
  2
*D30
 10
11166.75881888282
 20
2302.35920419623
 30
0.0
 11
11166.75881888282
 21
1996.311960101739
 31
0.0
 70
   160
 71
     5
 42
50.0
  3
INABA_S40G
100
AcDbAlignedDimension
 13
12010.50894806608
 23
2352.359204196229
 33
0.0
 14
11955.50894806608
 24
2302.359204196229
 34
0.0
 50
90.0
100
AcDbRotatedDimension
1001
ACAD
1000
DSTYLE
1002
{
1070
   174
1070
     0
1070
   272
1070
     1
1070
   288
1070
     0
1070
   341
1005
0
1002
}
  0
LINE
  5
18DA8
330
747D
100
AcDbEntity
  8
部品1
100
AcDbLine
 10
12010.50894806608
 20
4534.501642125107
 30
0.0
 11
12010.50894806608
 21
2202.359204196229
 31
0.0
  0
LINE
  5
18DA9
330
747D
100
AcDbEntity
  8
部品1
100
AcDbLine
 10
12065.50894806608
 20
4442.359204196229
 30
0.0
 11
12065.50894806609
 21
2202.359204196229
 31
0.0
  0
LINE
  5
18DAA
330
747D
100
AcDbEntity
  8
部品1
100
AcDbLine
 10
12065.50894806609
 20
2352.359204196229
 30
0.0
 11
15060.50894806608
 21
2352.359204196231
 31
0.0
  0
LINE
  5
18DAB
330
747D
100
AcDbEntity
  8
部品1
100
AcDbLine
 10
12010.50894806608
 20
4442.359204196229
 30
0.0
 11
15060.50894806608
 21
4442.359204196229
 31
0.0
  0
LINE
  5
18DAC
330
747D
100
AcDbEntity
  8
部品1
100
AcDbLine
 10
15005.50894806607
 20
4442.359204196232
 30
0.0
 11
15005.50894806607
 21
2352.359204196233
 31
0.0
  0
LINE
  5
18DAD
330
747D
100
AcDbEntity
  8
細線
 48
50.0
100
AcDbLine
 10
13668.00894806608
 20
4442.359204196229
 30
0.0
 11
13668.00894806608
 21
2352.359204196229
 31
0.0
  0
LINE
  5
18DAE
330
747D
100
AcDbEntity
  8
細線
 48
50.0
100
AcDbLine
 10
13683.00894806608
 20
4442.359204196229
 30
0.0
 11
13683.00894806608
 21
2352.359204196229
 31
0.0
  0
LINE
  5
18DAF
330
747D
100
AcDbEntity
  8
細線
 48
50.0
100
AcDbLine
 10
13543.00894806608
 20
4442.359204196229
 30
0.0
 11
13543.00894806608
 21
2352.359204196229
 31
0.0
  0
LINE
  5
18DB0
330
747D
100
AcDbEntity
  8
細線
 48
50.0
100
AcDbLine
 10
13528.00894806608
 20
4442.359204196229
 30
0.0
 11
13528.00894806608
 21
2352.359204196229
 31
0.0
  0
LINE
  5
18DB1
330
747D
100
AcDbEntity
  8
細線
 48
50.0
100
AcDbLine
 10
13388.00894806608
 20
4442.359204196229
 30
0.0
 11
13388.00894806608
 21
2352.359204196229
 31
0.0
  0
LINE
  5
18DB2
330
747D
100
AcDbEntity
  8
細線
 48
50.0
100
AcDbLine
 10
13403.00894806608
 20
4442.359204196229
 30
0.0
 11
13403.00894806608
 21
2352.359204196229
 31
0.0
  0
TEXT
  5
18DB3
330
747D
100
AcDbEntity
  8
部品1
 48
50.0
100
AcDbText
 10
13880.37809212145
 20
4699.628297134537
 30
0.0
 40
120.0
  1
32
 50
90.0
  7
STYLE1
100
AcDbText
  0
TEXT
  5
18DB4
330
747D
100
AcDbEntity
  8
部品1
 48
50.0
100
AcDbText
 10
13402.74506945636
 20
4837.129555352819
 30
0.0
 40
120.0
  1
1000
  7
STYLE1
100
AcDbText
  0
LINE
  5
18DB5
330
747D
100
AcDbEntity
  8
部品1
 48
50.0
100
AcDbLine
 10
13714.47723423263
 20
4801.245533200386
 30
0.0
 11
13714.47723423263
 21
4785.045533200387
 31
0.0
  0
LINE
  5
18DB6
330
747D
100
AcDbEntity
  8
部品1
 48
50.0
100
AcDbLine
 10
13414.47723423263
 20
4801.245533200386
 30
0.0
 11
13714.47723423263
 21
4801.245533200386
 31
0.0
  0
LINE
  5
18DB7
330
747D
100
AcDbEntity
  8
部品1
100
AcDbLine
 10
11958.05393442304
 20
4676.076939530496
 30
0.0
 11
15133.12082492755
 21
4621.000001905368
 31
0.0
  0
LINE
  5
18DB8
330
747D
100
AcDbEntity
  8
部品1
100
AcDbLine
 10
11965.85151266803
 20
4535.140229265197
 30
0.0
 11
15115.17264860593
 21
4496.111804030991
 31
0.0
  0
LINE
  5
18DB9
330
747D
100
AcDbEntity
  8
細線
 48
50.0
100
AcDbLine
 10
11983.50894806608
 20
4674.758880571634
 30
0.0
 11
11978.21984651058
 21
4534.673247944279
 31
0.0
  0
LINE
  5
18DBA
330
747D
100
AcDbEntity
  8
細線
 48
50.0
100
AcDbLine
 10
15107.47823125977
 20
4621.512626675698
 30
0.0
 11
15102.76126517809
 21
4496.580410740782
 31
0.0
  0
LINE
  5
18DBB
330
747D
100
AcDbEntity
  8
部品1
 48
50.0
100
AcDbLine
 10
11950.69323397919
 20
4668.952750360922
 30
0.0
 11
11951.073493757
 21
4649.02578591451
 31
0.0
  0
LINE
  5
18DBC
330
747D
100
AcDbEntity
  8
部品1
 48
50.0
100
AcDbLine
 10
11954.14226586325
 20
4645.450504421038
 30
0.0
 11
11955.84616735461
 21
4556.160007714392
 31
0.0
  0
LINE
  5
18DBD
330
747D
100
AcDbEntity
  8
細線
 48
50.0
100
AcDbLine
 10
11951.5483711669
 20
4648.376286037591
 30
0.0
 11
15137.18435591207
 21
4592.752081396763
 31
0.0
  0
LINE
  5
18DBE
330
747D
100
AcDbEntity
  8
細線
 48
50.0
100
AcDbLine
 10
11956.30884640418
 20
4555.514774339727
 30
0.0
 11
15126.31251083482
 21
4515.705455365234
 31
0.0
  0
LINE
  5
18DBF
330
747D
100
AcDbEntity
  8
部品1
 48
50.0
100
AcDbLine
 10
11958.91493946085
 20
4552.584726220919
 30
0.0
 11
11959.11689208128
 21
4542.001690827826
 31
0.0
  0
ARC
  5
18DC0
330
747D
100
AcDbEntity
  8
部品1
 48
50.0
100
AcDbCircle
 10
11957.69195980753
 20
4669.08630476835
 30
0.0
 40
7.0
100
AcDbArc
 50
87.03587545283093
 51
181.0932240293156
  0
ARC
  5
18DC1
330
747D
100
AcDbEntity
  8
部品1
 48
50.0
100
AcDbCircle
 10
11966.11561790962
 20
4542.135245235255
 30
0.0
 40
7.0
100
AcDbArc
 50
181.0932240293156
 51
267.8377559869492
  0
ARC
  5
18DC2
330
747D
100
AcDbEntity
  8
部品1
100
AcDbCircle
 10
11955.91548553442
 20
4552.527488617736
 30
0.0
 40
3.0
100
AcDbArc
 50
1.093224029315636
 51
80.18775403169875
  0
ARC
  5
18DC3
330
747D
100
AcDbEntity
  8
部品1
100
AcDbCircle
 10
11951.14281193682
 20
4645.393266817855
 30
0.0
 40
3.0
100
AcDbArc
 50
1.093224029315636
 51
80.18775403169875
  0
ARC
  5
18DC4
330
747D
100
AcDbEntity
  8
部品1
100
AcDbCircle
 10
11951.77336633984
 20
4649.039141355252
 30
0.0
 40
0.7
100
AcDbArc
 50
181.0932240292114
 51
260.1877540314845
  0
ARC
  5
18DC5
330
747D
100
AcDbEntity
  8
部品1
100
AcDbCircle
 10
11956.54603993745
 20
4556.173363155133
 30
0.0
 40
0.7
100
AcDbArc
 50
181.0932240292114
 51
260.1877540314845
  0
LINE
  5
18DC6
330
747D
100
AcDbEntity
  8
部品1
 48
50.0
100
AcDbLine
 10
15139.72285087679
 20
4613.300356470449
 30
0.0
 11
15137.69222968582
 21
4593.355315212669
 31
0.0
  0
LINE
  5
18DC7
330
747D
100
AcDbEntity
  8
部品1
 48
50.0
100
AcDbLine
 10
15134.33966320133
 20
4590.04468113976
 30
0.0
 11
15126.8328839365
 21
4516.312060394747
 31
0.0
  0
LINE
  5
18DC8
330
747D
100
AcDbEntity
  8
部品1
 48
50.0
100
AcDbLine
 10
15123.48031745201
 20
4513.001426321835
 30
0.0
 11
15122.40075441227
 21
4502.397809328277
 31
0.0
  0
ARC
  5
18DC9
330
747D
100
AcDbEntity
  8
部品1
 48
50.0
100
AcDbCircle
 10
15132.75885031204
 20
4614.009367143223
 30
0.0
 40
7.0
100
AcDbArc
 50
354.1866997665532
 51
87.03587545283093
  0
ARC
  5
18DCA
330
747D
100
AcDbEntity
  8
部品1
 48
50.0
100
AcDbCircle
 10
15115.43675384752
 20
4503.10682000105
 30
0.0
 40
7.0
100
AcDbArc
 50
267.8377559869492
 51
354.1866997665532
  0
ARC
  5
18DCB
330
747D
100
AcDbEntity
  8
部品1
100
AcDbCircle
 10
15126.46488912262
 20
4512.697564604932
 30
0.0
 40
3.0
100
AcDbArc
 50
95.0921697642102
 51
174.1866997665532
  0
ARC
  5
18DCC
330
747D
100
AcDbEntity
  8
部品1
100
AcDbCircle
 10
15137.32423487195
 20
4589.740819422856
 30
0.0
 40
3.0
100
AcDbArc
 50
95.0921697642102
 51
174.1866997665532
  0
ARC
  5
18DCD
330
747D
100
AcDbEntity
  8
部品1
100
AcDbCircle
 10
15136.99582962935
 20
4593.426216279946
 30
0.0
 40
0.7
100
AcDbArc
 50
275.0921697642102
 51
354.1866997665532
  0
ARC
  5
18DCE
330
747D
100
AcDbEntity
  8
部品1
100
AcDbCircle
 10
15126.13648388002
 20
4516.382961462023
 30
0.0
 40
0.7
100
AcDbArc
 50
275.0921697642102
 51
354.1866997667606
  0
LINE
  5
18DCF
330
747D
100
AcDbEntity
  8
部品1
100
AcDbLine
 10
13389.0222205896
 20
4802.563592159247
 30
0.0
 11
13714.47723423263
 21
4785.045533200387
 31
0.0
  0
LINE
  5
18DD0
330
747D
100
AcDbEntity
  8
部品1
100
AcDbLine
 10
13745.50894806608
 20
4442.359204196229
 30
0.0
 11
13745.50894806608
 21
2352.359204196231
 31
0.0
  0
LINE
  5
18DD1
330
747D
100
AcDbEntity
  8
細線
 48
50.0
100
AcDbLine
 10
13823.00894806608
 20
4442.359204196229
 30
0.0
 11
13823.00894806608
 21
2352.359204196231
 31
0.0
  0
LINE
  5
18DD2
330
747D
100
AcDbEntity
  8
細線
 48
50.0
100
AcDbLine
 10
13808.00894806608
 20
4442.359204196229
 30
0.0
 11
13808.00894806608
 21
2352.359204196231
 31
0.0
  0
LINE
  5
18DD3
330
747D
100
AcDbEntity
  8
細線
 48
50.0
100
AcDbLine
 10
13948.00894806608
 20
4442.359204196229
 30
0.0
 11
13948.00894806608
 21
2352.359204196231
 31
0.0
  0
LINE
  5
18DD4
330
747D
100
AcDbEntity
  8
細線
 48
50.0
100
AcDbLine
 10
13963.00894806608
 20
4442.359204196229
 30
0.0
 11
13963.00894806608
 21
2352.359204196231
 31
0.0
  0
LINE
  5
18DD5
330
747D
100
AcDbEntity
  8
細線
 48
50.0
100
AcDbLine
 10
14103.00894806608
 20
4442.359204196229
 30
0.0
 11
14103.00894806608
 21
2352.359204196231
 31
0.0
  0
LINE
  5
18DD6
330
747D
100
AcDbEntity
  8
細線
 48
50.0
100
AcDbLine
 10
14088.00894806608
 20
4442.359204196229
 30
0.0
 11
14088.00894806608
 21
2352.359204196231
 31
0.0
  0
DIMENSION
  5
18DD7
330
747D
100
AcDbEntity
  8
寸法
100
AcDbDimension
  2
*D31
 10
15765.43610603821
 20
4622.359204196231
 30
0.0
 11
15665.42429501458
 21
3462.359204196234
 31
0.0
 70
    32
 71
     5
 42
2320.000000000001
  3
INABA_S40G
100
AcDbAlignedDimension
 13
15060.50894806608
 23
2302.359204196231
 33
0.0
 14
15140.50894806608
 24
4622.359204196231
 34
0.0
 50
90.0
100
AcDbRotatedDimension
1001
ACAD
1000
DSTYLE
1002
{
1070
   174
1070
     0
1070
   272
1070
     1
1070
   288
1070
     0
1070
   341
1005
0
1002
}
  0
DIMENSION
  5
18DD8
330
747D
100
AcDbEntity
  8
寸法
100
AcDbDimension
  2
*D32
 10
10866.75881888282
 20
4677.359204196229
 30
0.0
 11
10766.7470078592
 21
3489.859204196229
 31
0.0
 70
    32
 71
     5
 42
2375.000000000005
  3
INABA_S40G
100
AcDbAlignedDimension
 13
12010.50894806608
 23
2302.359204196224
 33
0.0
 14
11950.50894806608
 24
4677.359204196229
 34
0.0
 50
90.0
100
AcDbRotatedDimension
1001
ACAD
1000
DSTYLE
1002
{
1070
   174
1070
     0
1070
   272
1070
     1
1070
   288
1070
     0
1070
   341
1005
0
1002
}
  0
DIMENSION
  5
18DD9
330
747D
100
AcDbEntity
  8
寸法
100
AcDbDimension
  2
*D33
 10
11166.75881888282
 20
2352.359204196224
 30
0.0
 11
11066.7470078592
 21
3397.359204196227
 31
0.0
 70
    32
 71
     5
 42
2090.000000000002
  3
INABA_S40G
100
AcDbAlignedDimension
 13
12010.50894806608
 23
4442.359204196225
 33
0.0
 14
12010.50894806608
 24
2352.359204196224
 34
0.0
 50
90.0
100
AcDbRotatedDimension
1001
ACAD
1000
DSTYLE
1002
{
1070
   174
1070
     0
1070
   272
1070
     1
1070
   288
1070
     0
1070
   341
1005
0
1002
}
  0
LINE
  5
18DDE
330
747D
100
AcDbEntity
  8
破線
 48
5.0
100
AcDbLine
 10
12010.50894806608
 20
2202.359204196229
 30
0.0
 11
12010.50894806608
 21
1952.359204196229
 31
0.0
  0
LINE
  5
18DDF
330
747D
100
AcDbEntity
  8
破線
 48
5.0
100
AcDbLine
 10
12065.50894806609
 20
2202.359204196229
 30
0.0
 11
12065.50894806609
 21
1952.359204196229
 31
0.0
  0
LINE
  5
18DE0
330
747D
100
AcDbEntity
  8
破線
 48
5.0
100
AcDbLine
 10
12010.50894806608
 20
1952.359204196229
 30
0.0
 11
12065.50894806608
 21
1952.359204196229
 31
0.0
  0
LINE
  5
18DE1
330
747D
100
AcDbEntity
  8
部品1
100
AcDbLine
 10
12010.50894806608
 20
2302.359204196229
 30
0.0
 11
11617.51173385724
 21
2202.359204196229
 31
0.0
  0
TEXT
  5
18DE2
330
747D
100
AcDbEntity
  8
文字
 62
     7
 48
50.0
100
AcDbText
 10
14243.55185591683
 20
483.8967129911416
 30
0.0
 40
160.0
  1
FXN-2630HL-N
  7
MSPゴシック
100
AcDbText
  0
LINE
  5
192DE
330
747D
100
AcDbEntity
  8
補助
  6
PHANTOM
 62
   230
 48
50.0
100
AcDbLine
 10
140.0
 20
0.0
 30
0.0
 11
140.0
 21
11409.6
 31
0.0
  0
DIMENSION
  5
195FF
330
747D
100
AcDbEntity
  8
寸法
 48
50.0
100
AcDbDimension
  2
*D34
 10
1429.673057123653
 20
5083.08547592814
 30
0.0
 11
5374.673057123656
 21
5183.097286951761
 31
0.0
 70
    32
  1
柱外寸法 N X 2630
 71
     5
 42
7890.000000000006
  3
INABA_S40G
100
AcDbAlignedDimension
 13
9319.673057123658
 23
4677.359204196237
 33
0.0
 14
1429.673057123653
 24
4677.359204196235
 34
0.0
100
AcDbRotatedDimension
  0
DIMENSION
  5
19600
330
747D
100
AcDbEntity
  8
寸法
 48
50.0
100
AcDbDimension
  2
*D35
 10
9369.673057123655
 20
5282.994397142228
 30
0.0
 11
5374.673057123653
 21
5282.994397142228
 31
0.0
 70
   160
  1
N X 2630+100
 71
     5
 42
7990.000000000001
  3
INABA_S40G
100
AcDbAlignedDimension
 13
1379.673057123653
 23
4677.359204196235
 33
0.0
 14
9369.673057123655
 24
4677.359204196234
 34
0.0
100
AcDbRotatedDimension
  0
DIMENSION
  5
19601
330
747D
100
AcDbEntity
  8
寸法
 48
50.0
100
AcDbDimension
  2
*D36
 10
1379.673057123653
 20
5083.08547592814
 30
0.0
 11
1066.187775749406
 21
5083.08547592814
 31
0.0
 70
   160
 71
     5
 42
50.0
  3
INABA_S40G
100
AcDbAlignedDimension
 13
1429.673057123653
 23
4677.359204196236
 33
0.0
 14
1379.673057123653
 24
4677.359204196236
 34
0.0
100
AcDbRotatedDimension
1001
ACAD
1000
DSTYLE
1002
{
1002
}
  0
LINE
  5
19602
330
747D
100
AcDbEntity
  8
部品1
100
AcDbLine
 10
1380.092718138983
 20
4669.962678800995
 30
0.0
 11
1381.226115471332
 21
4649.986550818393
 31
0.0
  0
LINE
  5
19603
330
747D
100
AcDbEntity
  8
部品1
100
AcDbLine
 10
1392.663135792912
 20
4554.329143651336
 30
0.0
 11
1393.308041600021
 21
4542.962678800996
 31
0.0
  0
LINE
  5
19604
330
747D
100
AcDbEntity
  8
部品1
100
AcDbLine
 10
1384.427105268061
 20
4646.529143651336
 30
0.0
 11
1389.462145996176
 21
4557.786550818393
 31
0.0
  0
ARC
  5
19605
330
747D
100
AcDbEntity
  8
部品1
 48
50.0
100
AcDbCircle
 10
1381.431922371876
 20
4646.359204196236
 30
0.0
 40
3.0
100
AcDbArc
 50
3.247342790331777
 51
82.34187279263654
  0
ARC
  5
19606
330
747D
100
AcDbEntity
  8
部品1
 48
50.0
100
AcDbCircle
 10
1389.66795289672
 20
4554.159204196232
 30
0.0
 40
3.0
100
AcDbArc
 50
3.247342790331777
 51
82.34187279263654
  0
ARC
  5
19607
330
747D
100
AcDbEntity
  8
部品1
 48
50.0
100
AcDbCircle
 10
1390.161022005281
 20
4557.826203357915
 30
0.0
 40
0.7
100
AcDbArc
 50
183.2473427903317
 51
262.3418727926365
  0
ARC
  5
19608
330
747D
100
AcDbEntity
  8
部品1
 48
50.0
100
AcDbCircle
 10
1381.924991480444
 20
4650.02620335792
 30
0.0
 40
0.7
100
AcDbArc
 50
183.2473427903317
 51
262.3418727926365
  0
ARC
  5
19609
330
747D
100
AcDbEntity
  8
部品1
100
AcDbCircle
 10
1400.296801691116
 20
4543.359204196236
 30
0.0
 40
7.0
100
AcDbArc
 50
183.2473427903317
 51
270.0
  0
ARC
  5
1960A
330
747D
100
AcDbEntity
  8
部品1
100
AcDbCircle
 10
1387.081478230086
 20
4670.359204196233
 30
0.0
 40
7.0
100
AcDbArc
 50
90.0
 51
183.2473427903317
  0
LINE
  5
1960B
330
747D
100
AcDbEntity
  8
細線
 48
50.0
100
AcDbLine
 10
1412.673057123653
 20
4677.359204196233
 30
0.0
 11
1412.673057123653
 21
4536.359204196233
 31
0.0
  0
LINE
  5
1960C
330
747D
100
AcDbEntity
  8
部品1
100
AcDbLine
 10
1429.673057123653
 20
4442.359204196229
 30
0.0
 11
9319.673057123658
 21
4442.35920419623
 31
0.0
  0
DIMENSION
  5
19611
330
747D
100
AcDbEntity
  8
寸法
 48
50.0
100
AcDbDimension
  2
*D37
 10
9319.673057123658
 20
5083.085475928143
 30
0.0
 11
9683.158338497896
 21
5083.085475928143
 31
0.0
 70
   160
 71
     5
 42
49.99999999999636
  3
INABA_S40G
100
AcDbAlignedDimension
 13
9369.673057123655
 23
4677.359204196234
 33
0.0
 14
9319.673057123658
 24
4677.359204196237
 34
0.0
100
AcDbRotatedDimension
  0
ARC
  5
19612
330
747D
100
AcDbEntity
  8
部品1
100
AcDbCircle
 10
9362.264636017226
 20
4670.359204196237
 30
0.0
 40
7.0
100
AcDbArc
 50
356.7526572096682
 51
90.0
  0
ARC
  5
19613
330
747D
100
AcDbEntity
  8
部品1
100
AcDbCircle
 10
9349.049312556191
 20
4543.359204196238
 30
0.0
 40
7.0
100
AcDbArc
 50
270.0
 51
356.7526572096682
  0
ARC
  5
19614
330
747D
100
AcDbEntity
  8
部品1
 48
50.0
100
AcDbCircle
 10
9367.421122766868
 20
4650.026203357921
 30
0.0
 40
0.7
100
AcDbArc
 50
277.6581272073635
 51
356.7526572096682
  0
ARC
  5
19615
330
747D
100
AcDbEntity
  8
部品1
 48
50.0
100
AcDbCircle
 10
9359.185092242027
 20
4557.826203357921
 30
0.0
 40
0.7
100
AcDbArc
 50
277.6581272073635
 51
356.7526572096682
  0
ARC
  5
19616
330
747D
100
AcDbEntity
  8
部品1
 48
50.0
100
AcDbCircle
 10
9359.678161350588
 20
4554.159204196233
 30
0.0
 40
3.0
100
AcDbArc
 50
97.65812720736347
 51
176.7526572096682
  0
ARC
  5
19617
330
747D
100
AcDbEntity
  8
部品1
 48
50.0
100
AcDbCircle
 10
9367.914191875433
 20
4646.359204196238
 30
0.0
 40
3.0
100
AcDbArc
 50
97.65812720736347
 51
176.7526572096682
  0
LINE
  5
19618
330
747D
100
AcDbEntity
  8
部品1
100
AcDbLine
 10
9364.919008979248
 20
4646.529143651341
 30
0.0
 11
9359.883968251136
 21
4557.786550818394
 31
0.0
  0
LINE
  5
19619
330
747D
100
AcDbEntity
  8
部品1
100
AcDbLine
 10
9356.682978454399
 20
4554.329143651336
 30
0.0
 11
9356.03807264729
 21
4542.962678800996
 31
0.0
  0
LINE
  5
1961A
330
747D
100
AcDbEntity
  8
細線
 48
50.0
100
AcDbLine
 10
9336.673057123654
 20
4677.359204196237
 30
0.0
 11
9336.673057123654
 21
4536.359204196237
 31
0.0
  0
LINE
  5
1961B
330
747D
100
AcDbEntity
  8
部品1
100
AcDbLine
 10
9369.253396108325
 20
4669.962678800996
 30
0.0
 11
9368.119998775975
 21
4649.986550818399
 31
0.0
  0
LINE
  5
1961C
330
747D
100
AcDbEntity
  8
部品1
 48
50.0
100
AcDbLine
 10
4049.673057123658
 20
4536.359204196234
 30
0.0
 11
4049.673057123657
 21
4677.359204196234
 31
0.0
  0
LINE
  5
1961D
330
747D
100
AcDbEntity
  8
部品1
 48
50.0
100
AcDbLine
 10
4059.673057123658
 20
4277.359204196229
 30
0.0
 11
4059.673057123658
 21
4536.359204196234
 31
0.0
  0
LINE
  5
1961E
330
747D
100
AcDbEntity
  8
部品1
 48
50.0
100
AcDbLine
 10
6689.673057123659
 20
4277.359204196229
 30
0.0
 11
6689.673057123659
 21
4536.359204196234
 31
0.0
  0
LINE
  5
1961F
330
747D
100
AcDbEntity
  8
部品1
 48
50.0
100
AcDbLine
 10
6679.673057123657
 20
4536.359204196234
 30
0.0
 11
6679.673057123657
 21
4677.359204196234
 31
0.0
  0
LINE
  5
19621
330
747D
100
AcDbEntity
  8
部品1
 48
50.0
100
AcDbLine
 10
9349.049312556191
 20
4536.359204196236
 30
0.0
 11
1400.296801691116
 21
4536.359204196236
 31
0.0
  0
LINE
  5
19622
330
747D
100
AcDbEntity
  8
細線
 48
50.0
100
AcDbLine
 10
9359.397488377338
 20
4557.159204196223
 30
0.0
 11
1389.948625869923
 21
4557.159204196236
 31
0.0
  0
LINE
  5
19623
330
747D
100
AcDbEntity
  8
細線
 48
50.0
100
AcDbLine
 10
9367.633518902206
 20
4649.359204196232
 30
0.0
 11
1381.712595345094
 21
4649.359204196232
 31
0.0
  0
LINE
  5
19624
330
747D
100
AcDbEntity
  8
部品1
 48
50.0
100
AcDbLine
 10
9362.264636017226
 20
4677.359204196232
 30
0.0
 11
1387.081478230086
 21
4677.359204196236
 31
0.0
  0
DIMENSION
  5
198ED
330
747D
100
AcDbEntity
  8
寸法
 48
50.0
100
AcDbDimension
  2
*D38
 10
9607.216159445403
 20
4250.359204196229
 30
0.0
 11
9507.216159445402
 21
3276.359204196231
 31
0.0
 70
    32
  1
有効開口部高サ <>
 71
     5
 42
1948.0
  3
INABA_S40G
100
AcDbAlignedDimension
 13
9319.673057123656
 23
2302.359204196229
 33
0.0
 14
9319.673057123656
 24
4250.359204196229
 34
0.0
 50
90.0
100
AcDbRotatedDimension
  0
DIMENSION
  5
198EE
330
747D
100
AcDbEntity
  8
寸法
 48
50.0
100
AcDbDimension
  2
*D39
 10
9607.216159445403
 20
4277.35920419623
 30
0.0
 11
9747.385982691769
 21
4278.326404035888
 31
0.0
 70
   160
 71
     5
 42
27.00000000000091
  3
INABA_S40G
100
AcDbAlignedDimension
 13
9319.673057123656
 23
4250.359204196229
 33
0.0
 14
9319.673057123656
 24
4277.35920419623
 34
0.0
 50
90.0
100
AcDbRotatedDimension
1001
ACAD
1000
DSTYLE
1002
{
1070
   279
1070
     2
1002
}
  0
DIMENSION
  5
198EF
330
747D
100
AcDbEntity
  8
寸法
 48
50.0
100
AcDbDimension
  2
*D40
 10
9607.216159445405
 20
4442.359204196229
 30
0.0
 11
9607.216159445403
 21
4680.844485570468
 31
0.0
 70
   160
 71
     5
 42
164.9999999999991
  3
INABA_S40G
100
AcDbAlignedDimension
 13
9319.673057123656
 23
4277.35920419623
 33
0.0
 14
9319.673057123656
 24
4442.359204196229
 34
0.0
 50
90.0
100
AcDbRotatedDimension
1001
ACAD
1000
DSTYLE
1002
{
1002
}
  0
LINE
  5
19A30
330
747D
100
AcDbEntity
  8
仕様書枠
 48
50.0
100
AcDbLine
 10
16307.19999999998
 20
8689.6
 30
0.0
 11
13127.19999999999
 21
8689.600000000003
 31
0.0
  0
TEXT
  5
19A34
330
747D
100
AcDbEntity
  8
文字
 62
     7
 48
50.0
100
AcDbText
 10
15022.63965474517
 20
10760.01374588372
 30
0.0
 40
100.0
  1
F12         1.0,1.2
  7
STYLE1
100
AcDbText
  0
TEXT
  5
19A37
330
747D
100
AcDbEntity
  8
文字
 62
     7
 48
50.0
100
AcDbText
 10
15022.63965474516
 20
9060.013745883727
 30
0.0
 40
100.0
  1
F12            0.7
  7
STYLE1
100
AcDbText
  0
LINE
  5
19A39
330
747D
100
AcDbEntity
  8
破線
 48
5.0
100
AcDbLine
 10
4059.673057123656
 20
2027.35920419623
 30
0.0
 11
4059.673057123656
 21
1952.35920419623
 31
0.0
  0
LINE
  5
19A3A
330
747D
100
AcDbEntity
  8
破線
 48
5.0
100
AcDbLine
 10
4009.673057123655
 20
1952.35920419623
 30
0.0
 11
4109.673057123655
 21
1952.35920419623
 31
0.0
  0
LINE
  5
19A3B
330
747D
100
AcDbEntity
  8
破線
 48
5.0
100
AcDbLine
 10
6639.673057123656
 20
1952.359204196229
 30
0.0
 11
6739.673057123656
 21
1952.359204196229
 31
0.0
  0
LINE
  5
19A3C
330
747D
100
AcDbEntity
  8
破線
 48
5.0
100
AcDbLine
 10
6689.673057123656
 20
2027.359204196229
 30
0.0
 11
6689.673057123656
 21
1952.359204196229
 31
0.0
  0
LINE
  5
19C17
330
747D
100
AcDbEntity
  8
部品1
100
AcDbLine
 10
4114.673057123656
 20
4277.359204196229
 30
0.0
 11
6744.673057123657
 21
4277.359204196229
 31
0.0
  0
LINE
  5
19C18
330
747D
100
AcDbEntity
  8
細線
100
AcDbLine
 10
4162.673057123653
 20
4262.359204196228
 30
0.0
 11
6586.673057123654
 21
4262.359204196228
 31
0.0
  0
LINE
  5
19C1B
330
747D
100
AcDbEntity
  8
細線
100
AcDbLine
 10
4162.673057123653
 20
2832.35920419623
 30
0.0
 11
6586.673057123654
 21
2832.35920419623
 31
0.0
  0
LINE
  5
19C1C
330
747D
100
AcDbEntity
  8
細線
100
AcDbLine
 10
4162.673057123653
 20
2767.35920419623
 30
0.0
 11
6586.673057123654
 21
2767.35920419623
 31
0.0
  0
LINE
  5
19C1D
330
747D
100
AcDbEntity
  8
細線
100
AcDbLine
 10
4162.673057123653
 20
2702.35920419623
 30
0.0
 11
6586.673057123654
 21
2702.35920419623
 31
0.0
  0
LINE
  5
19C1E
330
747D
100
AcDbEntity
  8
細線
100
AcDbLine
 10
4162.673057123653
 20
2637.35920419623
 30
0.0
 11
6586.673057123654
 21
2637.35920419623
 31
0.0
  0
LINE
  5
19C1F
330
747D
100
AcDbEntity
  8
細線
100
AcDbLine
 10
4162.673057123653
 20
2572.35920419623
 30
0.0
 11
6586.673057123654
 21
2572.35920419623
 31
0.0
  0
LINE
  5
19C20
330
747D
100
AcDbEntity
  8
細線
100
AcDbLine
 10
4162.673057123653
 20
2507.35920419623
 30
0.0
 11
6586.673057123654
 21
2507.35920419623
 31
0.0
  0
LINE
  5
19C21
330
747D
100
AcDbEntity
  8
細線
100
AcDbLine
 10
4162.673057123653
 20
2442.35920419623
 30
0.0
 11
6586.673057123654
 21
2442.35920419623
 31
0.0
  0
LINE
  5
19C22
330
747D
100
AcDbEntity
  8
細線
100
AcDbLine
 10
4162.673057123653
 20
2377.35920419623
 30
0.0
 11
6586.673057123654
 21
2377.35920419623
 31
0.0
  0
LINE
  5
19C23
330
747D
100
AcDbEntity
  8
細線
100
AcDbLine
 10
4162.673057123653
 20
4132.359204196229
 30
0.0
 11
6586.673057123654
 21
4132.359204196229
 31
0.0
  0
LINE
  5
19C24
330
747D
100
AcDbEntity
  8
細線
100
AcDbLine
 10
4162.673057123653
 20
4197.359204196229
 30
0.0
 11
6586.673057123654
 21
4197.359204196229
 31
0.0
  0
LINE
  5
19C25
330
747D
100
AcDbEntity
  8
細線
100
AcDbLine
 10
4162.673057123653
 20
3482.35920419623
 30
0.0
 11
6586.673057123654
 21
3482.35920419623
 31
0.0
  0
LINE
  5
19C26
330
747D
100
AcDbEntity
  8
細線
100
AcDbLine
 10
4162.673057123653
 20
3417.35920419623
 30
0.0
 11
6586.673057123654
 21
3417.35920419623
 31
0.0
  0
LINE
  5
19C27
330
747D
100
AcDbEntity
  8
細線
100
AcDbLine
 10
4162.673057123653
 20
3352.35920419623
 30
0.0
 11
6586.673057123654
 21
3352.35920419623
 31
0.0
  0
LINE
  5
19C28
330
747D
100
AcDbEntity
  8
細線
100
AcDbLine
 10
4162.673057123653
 20
3287.35920419623
 30
0.0
 11
6586.673057123654
 21
3287.35920419623
 31
0.0
  0
LINE
  5
19C29
330
747D
100
AcDbEntity
  8
細線
100
AcDbLine
 10
4162.673057123653
 20
3222.35920419623
 30
0.0
 11
6586.673057123654
 21
3222.35920419623
 31
0.0
  0
LINE
  5
19C2A
330
747D
100
AcDbEntity
  8
細線
100
AcDbLine
 10
4162.673057123653
 20
3157.35920419623
 30
0.0
 11
6586.673057123654
 21
3157.35920419623
 31
0.0
  0
LINE
  5
19C2B
330
747D
100
AcDbEntity
  8
細線
100
AcDbLine
 10
4162.673057123653
 20
3092.35920419623
 30
0.0
 11
6586.673057123654
 21
3092.35920419623
 31
0.0
  0
LINE
  5
19C2C
330
747D
100
AcDbEntity
  8
細線
100
AcDbLine
 10
4162.673057123653
 20
3027.35920419623
 30
0.0
 11
6586.673057123654
 21
3027.35920419623
 31
0.0
  0
LINE
  5
19C2D
330
747D
100
AcDbEntity
  8
細線
100
AcDbLine
 10
4162.673057123653
 20
2962.35920419623
 30
0.0
 11
6586.673057123654
 21
2962.35920419623
 31
0.0
  0
LINE
  5
19C2E
330
747D
100
AcDbEntity
  8
細線
100
AcDbLine
 10
4162.673057123653
 20
2897.35920419623
 30
0.0
 11
6586.673057123654
 21
2897.35920419623
 31
0.0
  0
LINE
  5
19C2F
330
747D
100
AcDbEntity
  8
細線
100
AcDbLine
 10
4162.673057123653
 20
3872.359204196229
 30
0.0
 11
6586.673057123654
 21
3872.359204196229
 31
0.0
  0
LINE
  5
19C30
330
747D
100
AcDbEntity
  8
細線
100
AcDbLine
 10
4162.673057123653
 20
3807.35920419623
 30
0.0
 11
6586.673057123654
 21
3807.35920419623
 31
0.0
  0
LINE
  5
19C31
330
747D
100
AcDbEntity
  8
細線
100
AcDbLine
 10
4162.673057123653
 20
3742.35920419623
 30
0.0
 11
6586.673057123654
 21
3742.35920419623
 31
0.0
  0
LINE
  5
19C32
330
747D
100
AcDbEntity
  8
細線
100
AcDbLine
 10
4162.673057123653
 20
3677.35920419623
 30
0.0
 11
6586.673057123654
 21
3677.35920419623
 31
0.0
  0
LINE
  5
19C33
330
747D
100
AcDbEntity
  8
細線
100
AcDbLine
 10
4162.673057123653
 20
3612.35920419623
 30
0.0
 11
6586.673057123654
 21
3612.35920419623
 31
0.0
  0
LINE
  5
19C34
330
747D
100
AcDbEntity
  8
細線
100
AcDbLine
 10
4162.673057123653
 20
3547.35920419623
 30
0.0
 11
6586.673057123654
 21
3547.35920419623
 31
0.0
  0
LINE
  5
19C35
330
747D
100
AcDbEntity
  8
細線
100
AcDbLine
 10
4162.673057123653
 20
4067.359204196229
 30
0.0
 11
6586.673057123654
 21
4067.359204196229
 31
0.0
  0
LINE
  5
19C36
330
747D
100
AcDbEntity
  8
細線
100
AcDbLine
 10
4162.673057123653
 20
4002.359204196229
 30
0.0
 11
6586.673057123654
 21
4002.359204196229
 31
0.0
  0
LINE
  5
19C37
330
747D
100
AcDbEntity
  8
細線
100
AcDbLine
 10
4162.673057123653
 20
3937.359204196229
 30
0.0
 11
6586.673057123654
 21
3937.359204196229
 31
0.0
  0
LINE
  5
19C3F
330
747D
100
AcDbEntity
  8
細線
100
AcDbLine
 10
6586.673057123658
 20
2312.35920419623
 30
0.0
 11
4162.673057123651
 21
2312.35920419623
 31
0.0
  0
LINE
  5
19C46
330
747D
100
AcDbEntity
  8
部品1
 48
50.0
100
AcDbLine
 10
5421.205796679214
 20
10424.65997278266
 30
0.0
 11
5328.140317568113
 21
10077.3348763093
 31
0.0
  0
SPLINE
  5
19C47
330
747D
100
AcDbEntity
  8
部品1
 48
50.0
100
AcDbSpline
210
0.0
220
0.0
230
1.0
 70
     8
 71
     3
 72
    10
 73
     6
 74
     4
 42
0.0000000001
 43
0.0000000001
 44
0.0000000001
 40
0.0
 40
0.0
 40
0.0
 40
0.0
 40
147.8767566010009
 40
301.8091093202477
 40
466.5049223087716
 40
466.5049223087716
 40
466.5049223087716
 40
466.5049223087716
 10
5442.243384856714
 20
10332.23857707177
 30
0.0
 10
5365.361702361879
 20
10323.33414341394
 30
0.0
 10
5208.450010151751
 20
10305.1606369546
 30
0.0
 10
5531.263420096095
 20
10202.64005231526
 30
0.0
 10
5361.420800426722
 20
10184.00496360306
 30
0.0
 10
5273.63079521983
 20
10174.37266672575
 30
0.0
 11
5442.243384856714
 21
10332.23857707177
 31
0.0
 11
5299.405406547945
 21
10293.96525613544
 31
0.0
 11
5432.714734467119
 21
10216.99907977582
 31
0.0
 11
5273.63079521983
 21
10174.37266672575
 31
0.0
  0
LINE
  5
19C4D
330
747D
100
AcDbEntity
  8
部品1
 48
50.0
100
AcDbLine
 10
4126.673057123656
 20
7287.997424545864
 30
0.0
 11
6622.67305712364
 21
7287.997424545864
 31
0.0
  0
LINE
  5
19C4F
330
747D
100
AcDbEntity
  8
部品1
 48
50.0
100
AcDbLine
 10
5421.205796679198
 20
7461.659972782547
 30
0.0
 11
5328.140317568097
 21
7114.334876309182
 31
0.0
  0
SPLINE
  5
19C50
330
747D
100
AcDbEntity
  8
部品1
 48
50.0
100
AcDbSpline
210
0.0
220
0.0
230
1.0
 70
     8
 71
     3
 72
    10
 73
     6
 74
     4
 42
0.0000000001
 43
0.0000000001
 44
0.0000000001
 40
0.0
 40
0.0
 40
0.0
 40
0.0
 40
147.8767566010009
 40
301.8091093202477
 40
466.5049223087716
 40
466.5049223087716
 40
466.5049223087716
 40
466.5049223087716
 10
5442.243384856698
 20
7369.238577071657
 30
0.0
 10
5365.361702361862
 20
7360.334143413819
 30
0.0
 10
5208.450010151735
 20
7342.160636954488
 30
0.0
 10
5531.263420096078
 20
7239.640052315145
 30
0.0
 10
5361.420800426705
 20
7221.00496360294
 30
0.0
 10
5273.630795219813
 20
7211.372666725633
 30
0.0
 11
5442.243384856698
 21
7369.238577071657
 31
0.0
 11
5299.405406547929
 21
7330.965256135328
 31
0.0
 11
5432.714734467103
 21
7253.999079775706
 31
0.0
 11
5273.630795219813
 21
7211.372666725633
 31
0.0
  0
SPLINE
  5
19C57
330
747D
100
AcDbEntity
  8
部品1
 48
50.0
100
AcDbSpline
210
0.0
220
0.0
230
1.0
 70
     8
 71
     3
 72
    10
 73
     6
 74
     4
 42
0.0000000001
 43
0.0000000001
 44
0.0000000001
 40
0.0
 40
0.0
 40
0.0
 40
0.0
 40
147.8767566010009
 40
301.8091093202477
 40
466.5049223087734
 40
466.5049223087734
 40
466.5049223087734
 40
466.5049223087734
 10
5442.243384856679
 20
3271.100356722035
 30
0.0
 10
5365.361702361845
 20
3262.195923064196
 30
0.0
 10
5208.450010151717
 20
3244.022416604864
 30
0.0
 10
5531.26342009606
 20
3141.501831965522
 30
0.0
 10
5361.420800426686
 20
3122.866743253318
 30
0.0
 10
5273.630795219792
 20
3113.234446376009
 30
0.0
 11
5442.243384856679
 21
3271.100356722035
 31
0.0
 11
5299.40540654791
 21
3232.827035785706
 31
0.0
 11
5432.714734467084
 21
3155.860859426082
 31
0.0
 11
5273.630795219792
 21
3113.234446376009
 31
0.0
  0
LINE
  5
19C58
330
747D
100
AcDbEntity
  8
部品1
 48
50.0
100
AcDbLine
 10
5807.608334867301
 20
4805.595657124322
 30
0.0
 11
5019.383492910773
 21
1863.900499154863
 31
0.0
  0
CIRCLE
  5
19F8C
330
747D
100
AcDbEntity
  8
細線
 48
50.0
100
AcDbCircle
 10
2744.673057123649
 20
3189.859204196229
 30
0.0
 40
18.0
  0
ARC
  5
19F8D
330
747D
100
AcDbEntity
  8
細線
 48
50.0
100
AcDbCircle
 10
3044.673057123649
 20
2864.859204196229
 30
0.0
 40
15.0
100
AcDbArc
 50
270.0
 51
90.0
  0
ARC
  5
19F8E
330
747D
100
AcDbEntity
  8
細線
 48
50.0
100
AcDbCircle
 10
2944.67305712365
 20
2864.859204196229
 30
0.0
 40
15.0
100
AcDbArc
 50
90.0
 51
270.0
  0
LINE
  5
19F8F
330
747D
100
AcDbEntity
  8
細線
 48
50.0
100
AcDbLine
 10
2944.67305712365
 20
2879.859204196229
 30
0.0
 11
3044.673057123649
 21
2879.859204196229
 31
0.0
  0
LINE
  5
19F90
330
747D
100
AcDbEntity
  8
細線
 48
50.0
100
AcDbLine
 10
3044.673057123649
 20
2849.85920419623
 30
0.0
 11
2944.67305712365
 21
2849.85920419623
 31
0.0
  0
LINE
  5
19F91
330
747D
100
AcDbEntity
  8
細線
 48
50.0
100
AcDbLine
 10
2544.673057123649
 20
2849.85920419623
 30
0.0
 11
2444.67305712365
 21
2849.85920419623
 31
0.0
  0
LINE
  5
19F92
330
747D
100
AcDbEntity
  8
細線
 48
50.0
100
AcDbLine
 10
2444.67305712365
 20
2879.859204196229
 30
0.0
 11
2544.673057123649
 21
2879.859204196229
 31
0.0
  0
ARC
  5
19F93
330
747D
100
AcDbEntity
  8
細線
 48
50.0
100
AcDbCircle
 10
2544.673057123649
 20
2864.859204196229
 30
0.0
 40
15.0
100
AcDbArc
 50
270.0
 51
90.0
  0
ARC
  5
19F94
330
747D
100
AcDbEntity
  8
細線
 48
50.0
100
AcDbCircle
 10
2444.67305712365
 20
2864.859204196229
 30
0.0
 40
15.0
100
AcDbArc
 50
90.0
 51
270.0
  0
ARC
  5
19F95
330
747D
100
AcDbEntity
  8
部品1
 48
0.01
100
AcDbCircle
 10
2217.673057123652
 20
4474.859204196229
 30
0.0
 40
2.0
100
AcDbArc
 50
270.0
 51
0.0
  0
ARC
  5
19F96
330
747D
100
AcDbEntity
  8
部品1
 48
0.01
100
AcDbCircle
 10
2217.673057123656
 20
4506.359204196229
 30
0.0
 40
2.0
100
AcDbArc
 50
0.0
 51
90.0
  0
ARC
  5
19F97
330
747D
100
AcDbEntity
  8
部品1
 48
0.01
100
AcDbCircle
 10
2041.673057123656
 20
4474.859204196229
 30
0.0
 40
2.0
100
AcDbArc
 50
180.0
 51
270.0
  0
ARC
  5
19F98
330
747D
100
AcDbEntity
  8
部品1
 48
0.01
100
AcDbCircle
 10
2041.673057123656
 20
4506.359204196229
 30
0.0
 40
2.0
100
AcDbArc
 50
90.0
 51
180.0
  0
LINE
  5
19F99
330
747D
100
AcDbEntity
  8
細線
100
AcDbLine
 10
2129.673057123652
 20
4478.859204196229
 30
0.0
 11
2203.673057123656
 21
4478.859204196229
 31
0.0
  0
LINE
  5
19F9A
330
747D
100
AcDbEntity
  8
細線
100
AcDbLine
 10
2129.673057123656
 20
4501.859204196229
 30
0.0
 11
2055.673057123656
 21
4501.859204196229
 31
0.0
  0
LINE
  5
19F9B
330
747D
100
AcDbEntity
  8
細線
100
AcDbLine
 10
2055.673057123656
 20
4478.859204196229
 30
0.0
 11
2129.673057123656
 21
4478.859204196229
 31
0.0
  0
LINE
  5
19F9C
330
747D
100
AcDbEntity
  8
細線
100
AcDbLine
 10
2203.673057123656
 20
4501.859204196229
 30
0.0
 11
2129.673057123656
 21
4501.859204196229
 31
0.0
  0
LINE
  5
19F9D
330
747D
100
AcDbEntity
  8
細線
100
AcDbLine
 10
2203.673057123656
 20
4478.859204196229
 30
0.0
 11
2203.673057123656
 21
4501.859204196229
 31
0.0
  0
LINE
  5
19F9E
330
747D
100
AcDbEntity
  8
細線
100
AcDbLine
 10
2055.673057123656
 20
4501.859204196229
 30
0.0
 11
2055.673057123656
 21
4478.859204196229
 31
0.0
  0
LINE
  5
19F9F
330
747D
100
AcDbEntity
  8
部品1
 48
0.01
100
AcDbLine
 10
2219.673057123652
 20
4474.859204196229
 30
0.0
 11
2219.673057123656
 21
4506.359204196229
 31
0.0
  0
LINE
  5
19FA0
330
747D
100
AcDbEntity
  8
部品1
 48
0.01
100
AcDbLine
 10
2041.673057123656
 20
4472.859204196229
 30
0.0
 11
2217.673057123652
 21
4472.859204196229
 31
0.0
  0
LINE
  5
19FA1
330
747D
100
AcDbEntity
  8
部品1
 48
0.01
100
AcDbLine
 10
2039.673057123656
 20
4506.359204196229
 30
0.0
 11
2039.673057123656
 21
4474.859204196229
 31
0.0
  0
LINE
  5
19FA2
330
747D
100
AcDbEntity
  8
部品1
 48
0.01
100
AcDbLine
 10
2217.673057123656
 20
4508.359204196229
 30
0.0
 11
2041.673057123656
 21
4508.359204196229
 31
0.0
  0
LINE
  5
19FA3
330
747D
100
AcDbEntity
  8
細線
100
AcDbLine
 10
2055.673057123656
 20
4495.859204196229
 30
0.0
 11
2129.673057123656
 21
4495.859204196229
 31
0.0
  0
LINE
  5
19FA4
330
747D
100
AcDbEntity
  8
細線
100
AcDbLine
 10
2055.673057123656
 20
4489.859204196229
 30
0.0
 11
2129.673057123656
 21
4489.859204196229
 31
0.0
  0
LINE
  5
19FA5
330
747D
100
AcDbEntity
  8
細線
100
AcDbLine
 10
2055.673057123652
 20
4483.859204196229
 30
0.0
 11
2129.673057123656
 21
4483.859204196229
 31
0.0
  0
LINE
  5
19FA6
330
747D
100
AcDbEntity
  8
細線
100
AcDbLine
 10
2055.673057123656
 20
4495.859204196229
 30
0.0
 11
2124.673057123656
 21
4495.859204196229
 31
0.0
  0
LINE
  5
19FA7
330
747D
100
AcDbEntity
  8
細線
100
AcDbLine
 10
2203.673057123652
 20
4495.859204196229
 30
0.0
 11
2129.673057123656
 21
4495.859204196229
 31
0.0
  0
LINE
  5
19FA8
330
747D
100
AcDbEntity
  8
細線
100
AcDbLine
 10
2203.673057123652
 20
4483.859204196229
 30
0.0
 11
2129.673057123656
 21
4483.859204196229
 31
0.0
  0
LINE
  5
19FA9
330
747D
100
AcDbEntity
  8
細線
100
AcDbLine
 10
2203.673057123652
 20
4489.859204196229
 30
0.0
 11
2129.673057123656
 21
4489.859204196229
 31
0.0
  0
LINE
  5
19FAA
330
747D
100
AcDbEntity
  8
細線
100
AcDbLine
 10
2129.673057123656
 20
4501.859204196229
 30
0.0
 11
2129.673057123652
 21
4478.859204196229
 31
0.0
  0
LINE
  5
19FAB
330
747D
100
AcDbEntity
  8
細線
100
AcDbLine
 10
3359.673057123652
 20
4501.859204196229
 30
0.0
 11
3359.673057123656
 21
4478.859204196229
 31
0.0
  0
LINE
  5
19FAC
330
747D
100
AcDbEntity
  8
細線
100
AcDbLine
 10
3285.673057123656
 20
4489.859204196229
 30
0.0
 11
3359.673057123652
 21
4489.859204196229
 31
0.0
  0
LINE
  5
19FAD
330
747D
100
AcDbEntity
  8
細線
100
AcDbLine
 10
3285.673057123656
 20
4483.859204196229
 30
0.0
 11
3359.673057123652
 21
4483.859204196229
 31
0.0
  0
LINE
  5
19FAE
330
747D
100
AcDbEntity
  8
細線
100
AcDbLine
 10
3285.673057123656
 20
4495.859204196229
 30
0.0
 11
3359.673057123652
 21
4495.859204196229
 31
0.0
  0
LINE
  5
19FAF
330
747D
100
AcDbEntity
  8
細線
100
AcDbLine
 10
3433.673057123652
 20
4495.859204196229
 30
0.0
 11
3364.673057123653
 21
4495.859204196229
 31
0.0
  0
LINE
  5
19FB0
330
747D
100
AcDbEntity
  8
細線
100
AcDbLine
 10
3433.673057123656
 20
4483.859204196229
 30
0.0
 11
3359.673057123652
 21
4483.859204196229
 31
0.0
  0
LINE
  5
19FB1
330
747D
100
AcDbEntity
  8
細線
100
AcDbLine
 10
3433.673057123652
 20
4489.859204196229
 30
0.0
 11
3359.673057123652
 21
4489.859204196229
 31
0.0
  0
LINE
  5
19FB2
330
747D
100
AcDbEntity
  8
細線
100
AcDbLine
 10
3433.673057123652
 20
4495.859204196229
 30
0.0
 11
3359.673057123652
 21
4495.859204196229
 31
0.0
  0
LINE
  5
19FB3
330
747D
100
AcDbEntity
  8
部品1
 48
0.01
100
AcDbLine
 10
3271.673057123653
 20
4508.359204196229
 30
0.0
 11
3447.673057123652
 21
4508.359204196229
 31
0.0
  0
LINE
  5
19FB4
330
747D
100
AcDbEntity
  8
部品1
 48
0.01
100
AcDbLine
 10
3449.673057123652
 20
4506.359204196229
 30
0.0
 11
3449.673057123652
 21
4474.859204196229
 31
0.0
  0
LINE
  5
19FB5
330
747D
100
AcDbEntity
  8
部品1
 48
0.01
100
AcDbLine
 10
3447.673057123652
 20
4472.859204196229
 30
0.0
 11
3271.673057123656
 21
4472.859204196229
 31
0.0
  0
LINE
  5
19FB6
330
747D
100
AcDbEntity
  8
部品1
 48
0.01
100
AcDbLine
 10
3269.673057123656
 20
4474.859204196229
 30
0.0
 11
3269.673057123652
 21
4506.359204196229
 31
0.0
  0
LINE
  5
19FB7
330
747D
100
AcDbEntity
  8
細線
100
AcDbLine
 10
3433.673057123652
 20
4501.859204196229
 30
0.0
 11
3433.673057123652
 21
4478.859204196229
 31
0.0
  0
LINE
  5
19FB8
330
747D
100
AcDbEntity
  8
細線
100
AcDbLine
 10
3285.673057123652
 20
4478.859204196229
 30
0.0
 11
3285.673057123652
 21
4501.859204196229
 31
0.0
  0
LINE
  5
19FB9
330
747D
100
AcDbEntity
  8
細線
100
AcDbLine
 10
3285.673057123652
 20
4501.859204196229
 30
0.0
 11
3359.673057123652
 21
4501.859204196229
 31
0.0
  0
LINE
  5
19FBA
330
747D
100
AcDbEntity
  8
細線
100
AcDbLine
 10
3433.673057123652
 20
4478.859204196229
 30
0.0
 11
3359.673057123652
 21
4478.859204196229
 31
0.0
  0
LINE
  5
19FBB
330
747D
100
AcDbEntity
  8
細線
100
AcDbLine
 10
3359.673057123652
 20
4501.859204196229
 30
0.0
 11
3433.673057123652
 21
4501.859204196229
 31
0.0
  0
LINE
  5
19FBC
330
747D
100
AcDbEntity
  8
細線
100
AcDbLine
 10
3359.673057123656
 20
4478.859204196229
 30
0.0
 11
3285.673057123652
 21
4478.859204196229
 31
0.0
  0
ARC
  5
19FBD
330
747D
100
AcDbEntity
  8
部品1
 48
0.01
100
AcDbCircle
 10
3447.673057123652
 20
4506.359204196229
 30
0.0
 40
2.0
100
AcDbArc
 50
0.0
 51
90.0
  0
ARC
  5
19FBE
330
747D
100
AcDbEntity
  8
部品1
 48
0.01
100
AcDbCircle
 10
3447.673057123652
 20
4474.859204196229
 30
0.0
 40
2.0
100
AcDbArc
 50
270.0
 51
0.0
  0
ARC
  5
19FBF
330
747D
100
AcDbEntity
  8
部品1
 48
0.01
100
AcDbCircle
 10
3271.673057123653
 20
4506.359204196229
 30
0.0
 40
2.0
100
AcDbArc
 50
90.0
 51
180.0
  0
ARC
  5
19FC0
330
747D
100
AcDbEntity
  8
部品1
 48
0.01
100
AcDbCircle
 10
3271.673057123656
 20
4474.859204196229
 30
0.0
 40
2.0
100
AcDbArc
 50
180.0
 51
270.0
  0
ARC
  5
19FC1
330
747D
100
AcDbEntity
  8
部品1
 48
0.01
100
AcDbCircle
 10
5901.673057123655
 20
4474.859204196229
 30
0.0
 40
2.0
100
AcDbArc
 50
180.0
 51
270.0
  0
ARC
  5
19FC2
330
747D
100
AcDbEntity
  8
部品1
 48
0.01
100
AcDbCircle
 10
5901.673057123652
 20
4506.359204196229
 30
0.0
 40
2.0
100
AcDbArc
 50
90.0
 51
180.0
  0
ARC
  5
19FC3
330
747D
100
AcDbEntity
  8
部品1
 48
0.01
100
AcDbCircle
 10
6077.673057123652
 20
4474.859204196229
 30
0.0
 40
2.0
100
AcDbArc
 50
270.0
 51
0.0
  0
ARC
  5
19FC4
330
747D
100
AcDbEntity
  8
部品1
 48
0.01
100
AcDbCircle
 10
6077.673057123652
 20
4506.359204196229
 30
0.0
 40
2.0
100
AcDbArc
 50
0.0
 51
90.0
  0
LINE
  5
19FC5
330
747D
100
AcDbEntity
  8
細線
100
AcDbLine
 10
5989.673057123656
 20
4478.859204196229
 30
0.0
 11
5915.673057123652
 21
4478.859204196229
 31
0.0
  0
LINE
  5
19FC6
330
747D
100
AcDbEntity
  8
細線
100
AcDbLine
 10
5989.673057123653
 20
4501.859204196229
 30
0.0
 11
6063.673057123652
 21
4501.859204196229
 31
0.0
  0
LINE
  5
19FC7
330
747D
100
AcDbEntity
  8
細線
100
AcDbLine
 10
6063.673057123652
 20
4478.859204196229
 30
0.0
 11
5989.673057123653
 21
4478.859204196229
 31
0.0
  0
LINE
  5
19FC8
330
747D
100
AcDbEntity
  8
細線
100
AcDbLine
 10
5915.673057123652
 20
4501.859204196229
 30
0.0
 11
5989.673057123653
 21
4501.859204196229
 31
0.0
  0
LINE
  5
19FC9
330
747D
100
AcDbEntity
  8
細線
100
AcDbLine
 10
5915.673057123652
 20
4478.859204196229
 30
0.0
 11
5915.673057123652
 21
4501.859204196229
 31
0.0
  0
LINE
  5
19FCA
330
747D
100
AcDbEntity
  8
細線
100
AcDbLine
 10
6063.673057123652
 20
4501.859204196229
 30
0.0
 11
6063.673057123652
 21
4478.859204196229
 31
0.0
  0
LINE
  5
19FCB
330
747D
100
AcDbEntity
  8
部品1
 48
0.01
100
AcDbLine
 10
5899.673057123656
 20
4474.859204196229
 30
0.0
 11
5899.673057123653
 21
4506.359204196229
 31
0.0
  0
LINE
  5
19FCC
330
747D
100
AcDbEntity
  8
部品1
 48
0.01
100
AcDbLine
 10
6077.673057123652
 20
4472.859204196229
 30
0.0
 11
5901.673057123655
 21
4472.859204196229
 31
0.0
  0
LINE
  5
19FCD
330
747D
100
AcDbEntity
  8
部品1
 48
0.01
100
AcDbLine
 10
6079.673057123653
 20
4506.359204196229
 30
0.0
 11
6079.673057123653
 21
4474.859204196229
 31
0.0
  0
LINE
  5
19FCE
330
747D
100
AcDbEntity
  8
部品1
 48
0.01
100
AcDbLine
 10
5901.673057123652
 20
4508.359204196229
 30
0.0
 11
6077.673057123652
 21
4508.359204196229
 31
0.0
  0
LINE
  5
19FCF
330
747D
100
AcDbEntity
  8
細線
100
AcDbLine
 10
6063.673057123652
 20
4495.859204196229
 30
0.0
 11
5989.673057123653
 21
4495.859204196229
 31
0.0
  0
LINE
  5
19FD0
330
747D
100
AcDbEntity
  8
細線
100
AcDbLine
 10
6063.673057123652
 20
4489.859204196229
 30
0.0
 11
5989.673057123653
 21
4489.859204196229
 31
0.0
  0
LINE
  5
19FD1
330
747D
100
AcDbEntity
  8
細線
100
AcDbLine
 10
6063.673057123656
 20
4483.859204196229
 30
0.0
 11
5989.673057123653
 21
4483.859204196229
 31
0.0
  0
LINE
  5
19FD2
330
747D
100
AcDbEntity
  8
細線
100
AcDbLine
 10
6063.673057123652
 20
4495.859204196229
 30
0.0
 11
5994.673057123652
 21
4495.859204196229
 31
0.0
  0
LINE
  5
19FD3
330
747D
100
AcDbEntity
  8
細線
100
AcDbLine
 10
5915.673057123655
 20
4495.859204196229
 30
0.0
 11
5989.673057123653
 21
4495.859204196229
 31
0.0
  0
LINE
  5
19FD4
330
747D
100
AcDbEntity
  8
細線
100
AcDbLine
 10
5915.673057123655
 20
4483.859204196229
 30
0.0
 11
5989.673057123653
 21
4483.859204196229
 31
0.0
  0
LINE
  5
19FD5
330
747D
100
AcDbEntity
  8
細線
100
AcDbLine
 10
5915.673057123655
 20
4489.859204196229
 30
0.0
 11
5989.673057123653
 21
4489.859204196229
 31
0.0
  0
LINE
  5
19FD6
330
747D
100
AcDbEntity
  8
細線
100
AcDbLine
 10
5989.673057123653
 20
4501.859204196229
 30
0.0
 11
5989.673057123656
 21
4478.859204196229
 31
0.0
  0
LINE
  5
19FD7
330
747D
100
AcDbEntity
  8
細線
100
AcDbLine
 10
4759.673057123655
 20
4501.859204196229
 30
0.0
 11
4759.673057123651
 21
4478.859204196229
 31
0.0
  0
LINE
  5
19FD8
330
747D
100
AcDbEntity
  8
細線
100
AcDbLine
 10
4833.673057123652
 20
4489.859204196229
 30
0.0
 11
4759.673057123655
 21
4489.859204196229
 31
0.0
  0
LINE
  5
19FD9
330
747D
100
AcDbEntity
  8
細線
100
AcDbLine
 10
4833.673057123652
 20
4483.859204196229
 30
0.0
 11
4759.673057123655
 21
4483.859204196229
 31
0.0
  0
LINE
  5
19FDA
330
747D
100
AcDbEntity
  8
細線
100
AcDbLine
 10
4833.673057123652
 20
4495.859204196229
 30
0.0
 11
4759.673057123655
 21
4495.859204196229
 31
0.0
  0
LINE
  5
19FDB
330
747D
100
AcDbEntity
  8
細線
100
AcDbLine
 10
4685.673057123656
 20
4495.859204196229
 30
0.0
 11
4754.673057123656
 21
4495.859204196229
 31
0.0
  0
LINE
  5
19FDC
330
747D
100
AcDbEntity
  8
細線
100
AcDbLine
 10
4685.673057123652
 20
4483.859204196229
 30
0.0
 11
4759.673057123655
 21
4483.859204196229
 31
0.0
  0
LINE
  5
19FDD
330
747D
100
AcDbEntity
  8
細線
100
AcDbLine
 10
4685.673057123656
 20
4489.859204196229
 30
0.0
 11
4759.673057123655
 21
4489.859204196229
 31
0.0
  0
LINE
  5
19FDE
330
747D
100
AcDbEntity
  8
細線
100
AcDbLine
 10
4685.673057123656
 20
4495.859204196229
 30
0.0
 11
4759.673057123655
 21
4495.859204196229
 31
0.0
  0
LINE
  5
19FDF
330
747D
100
AcDbEntity
  8
部品1
 48
0.01
100
AcDbLine
 10
4847.673057123656
 20
4508.359204196229
 30
0.0
 11
4671.673057123656
 21
4508.359204196229
 31
0.0
  0
LINE
  5
19FE0
330
747D
100
AcDbEntity
  8
部品1
 48
0.01
100
AcDbLine
 10
4669.673057123655
 20
4506.359204196229
 30
0.0
 11
4669.673057123655
 21
4474.859204196229
 31
0.0
  0
LINE
  5
19FE1
330
747D
100
AcDbEntity
  8
部品1
 48
0.01
100
AcDbLine
 10
4671.673057123656
 20
4472.859204196229
 30
0.0
 11
4847.673057123652
 21
4472.859204196229
 31
0.0
  0
LINE
  5
19FE2
330
747D
100
AcDbEntity
  8
部品1
 48
0.01
100
AcDbLine
 10
4849.673057123652
 20
4474.859204196229
 30
0.0
 11
4849.673057123656
 21
4506.359204196229
 31
0.0
  0
LINE
  5
19FE3
330
747D
100
AcDbEntity
  8
細線
100
AcDbLine
 10
4685.673057123656
 20
4501.859204196229
 30
0.0
 11
4685.673057123656
 21
4478.859204196229
 31
0.0
  0
LINE
  5
19FE4
330
747D
100
AcDbEntity
  8
細線
100
AcDbLine
 10
4833.673057123656
 20
4478.859204196229
 30
0.0
 11
4833.673057123656
 21
4501.859204196229
 31
0.0
  0
LINE
  5
19FE5
330
747D
100
AcDbEntity
  8
細線
100
AcDbLine
 10
4833.673057123656
 20
4501.859204196229
 30
0.0
 11
4759.673057123655
 21
4501.859204196229
 31
0.0
  0
LINE
  5
19FE6
330
747D
100
AcDbEntity
  8
細線
100
AcDbLine
 10
4685.673057123656
 20
4478.859204196229
 30
0.0
 11
4759.673057123655
 21
4478.859204196229
 31
0.0
  0
LINE
  5
19FE7
330
747D
100
AcDbEntity
  8
細線
100
AcDbLine
 10
4759.673057123655
 20
4501.859204196229
 30
0.0
 11
4685.673057123656
 21
4501.859204196229
 31
0.0
  0
LINE
  5
19FE8
330
747D
100
AcDbEntity
  8
細線
100
AcDbLine
 10
4759.673057123651
 20
4478.859204196229
 30
0.0
 11
4833.673057123656
 21
4478.859204196229
 31
0.0
  0
ARC
  5
19FE9
330
747D
100
AcDbEntity
  8
部品1
 48
0.01
100
AcDbCircle
 10
4671.673057123656
 20
4506.359204196229
 30
0.0
 40
2.0
100
AcDbArc
 50
90.0
 51
180.0
  0
ARC
  5
19FEA
330
747D
100
AcDbEntity
  8
部品1
 48
0.01
100
AcDbCircle
 10
4671.673057123656
 20
4474.859204196229
 30
0.0
 40
2.0
100
AcDbArc
 50
180.0
 51
270.0
  0
ARC
  5
19FEB
330
747D
100
AcDbEntity
  8
部品1
 48
0.01
100
AcDbCircle
 10
4847.673057123656
 20
4506.359204196229
 30
0.0
 40
2.0
100
AcDbArc
 50
0.0
 51
90.0
  0
ARC
  5
19FEC
330
747D
100
AcDbEntity
  8
部品1
 48
0.01
100
AcDbCircle
 10
4847.673057123652
 20
4474.859204196229
 30
0.0
 40
2.0
100
AcDbArc
 50
270.0
 51
0.0
  0
ARC
  5
19FED
330
747D
100
AcDbEntity
  8
細線
 48
50.0
100
AcDbCircle
 10
5074.67305712365
 20
2864.859204196229
 30
0.0
 40
15.0
100
AcDbArc
 50
90.0
 51
270.0
  0
ARC
  5
19FEE
330
747D
100
AcDbEntity
  8
細線
 48
50.0
100
AcDbCircle
 10
5174.67305712365
 20
2864.859204196229
 30
0.0
 40
15.0
100
AcDbArc
 50
270.0
 51
90.0
  0
LINE
  5
19FEF
330
747D
100
AcDbEntity
  8
細線
 48
50.0
100
AcDbLine
 10
5074.67305712365
 20
2879.859204196229
 30
0.0
 11
5174.67305712365
 21
2879.859204196229
 31
0.0
  0
LINE
  5
19FF0
330
747D
100
AcDbEntity
  8
細線
 48
50.0
100
AcDbLine
 10
5174.67305712365
 20
2849.85920419623
 30
0.0
 11
5074.67305712365
 21
2849.85920419623
 31
0.0
  0
LINE
  5
19FF1
330
747D
100
AcDbEntity
  8
細線
 48
50.0
100
AcDbLine
 10
5674.67305712365
 20
2849.85920419623
 30
0.0
 11
5574.67305712365
 21
2849.85920419623
 31
0.0
  0
LINE
  5
19FF2
330
747D
100
AcDbEntity
  8
細線
 48
50.0
100
AcDbLine
 10
5574.67305712365
 20
2879.859204196229
 30
0.0
 11
5674.67305712365
 21
2879.859204196229
 31
0.0
  0
ARC
  5
19FF3
330
747D
100
AcDbEntity
  8
細線
 48
50.0
100
AcDbCircle
 10
5574.67305712365
 20
2864.859204196229
 30
0.0
 40
15.0
100
AcDbArc
 50
90.0
 51
270.0
  0
ARC
  5
19FF4
330
747D
100
AcDbEntity
  8
細線
 48
50.0
100
AcDbCircle
 10
5674.67305712365
 20
2864.859204196229
 30
0.0
 40
15.0
100
AcDbArc
 50
270.0
 51
90.0
  0
CIRCLE
  5
19FF5
330
747D
100
AcDbEntity
  8
細線
 48
50.0
100
AcDbCircle
 10
5374.67305712365
 20
3189.859204196229
 30
0.0
 40
18.0
  0
ARC
  5
19FF6
330
747D
100
AcDbEntity
  8
部品1
 48
0.01
100
AcDbCircle
 10
7477.673057123652
 20
4474.859204196229
 30
0.0
 40
2.0
100
AcDbArc
 50
270.0
 51
0.0
  0
ARC
  5
19FF7
330
747D
100
AcDbEntity
  8
部品1
 48
0.01
100
AcDbCircle
 10
7477.673057123656
 20
4506.359204196229
 30
0.0
 40
2.0
100
AcDbArc
 50
0.0
 51
90.0
  0
ARC
  5
19FF8
330
747D
100
AcDbEntity
  8
部品1
 48
0.01
100
AcDbCircle
 10
7301.673057123656
 20
4474.859204196229
 30
0.0
 40
2.0
100
AcDbArc
 50
180.0
 51
270.0
  0
ARC
  5
19FF9
330
747D
100
AcDbEntity
  8
部品1
 48
0.01
100
AcDbCircle
 10
7301.673057123656
 20
4506.359204196229
 30
0.0
 40
2.0
100
AcDbArc
 50
90.0
 51
180.0
  0
LINE
  5
19FFA
330
747D
100
AcDbEntity
  8
細線
100
AcDbLine
 10
7389.673057123651
 20
4478.859204196229
 30
0.0
 11
7463.673057123656
 21
4478.859204196229
 31
0.0
  0
LINE
  5
19FFB
330
747D
100
AcDbEntity
  8
細線
100
AcDbLine
 10
7389.673057123656
 20
4501.859204196229
 30
0.0
 11
7315.673057123657
 21
4501.859204196229
 31
0.0
  0
LINE
  5
19FFC
330
747D
100
AcDbEntity
  8
細線
100
AcDbLine
 10
7315.673057123657
 20
4478.859204196229
 30
0.0
 11
7389.673057123656
 21
4478.859204196229
 31
0.0
  0
LINE
  5
19FFD
330
747D
100
AcDbEntity
  8
細線
100
AcDbLine
 10
7463.673057123656
 20
4501.859204196229
 30
0.0
 11
7389.673057123656
 21
4501.859204196229
 31
0.0
  0
LINE
  5
19FFE
330
747D
100
AcDbEntity
  8
細線
100
AcDbLine
 10
7463.673057123656
 20
4478.859204196229
 30
0.0
 11
7463.673057123656
 21
4501.859204196229
 31
0.0
  0
LINE
  5
19FFF
330
747D
100
AcDbEntity
  8
細線
100
AcDbLine
 10
7315.673057123657
 20
4501.859204196229
 30
0.0
 11
7315.673057123657
 21
4478.859204196229
 31
0.0
  0
LINE
  5
1A000
330
747D
100
AcDbEntity
  8
部品1
 48
0.01
100
AcDbLine
 10
7479.673057123652
 20
4474.859204196229
 30
0.0
 11
7479.673057123656
 21
4506.359204196229
 31
0.0
  0
LINE
  5
1A001
330
747D
100
AcDbEntity
  8
部品1
 48
0.01
100
AcDbLine
 10
7301.673057123656
 20
4472.859204196229
 30
0.0
 11
7477.673057123652
 21
4472.859204196229
 31
0.0
  0
LINE
  5
1A002
330
747D
100
AcDbEntity
  8
部品1
 48
0.01
100
AcDbLine
 10
7299.673057123655
 20
4506.359204196229
 30
0.0
 11
7299.673057123655
 21
4474.859204196229
 31
0.0
  0
LINE
  5
1A003
330
747D
100
AcDbEntity
  8
部品1
 48
0.01
100
AcDbLine
 10
7477.673057123656
 20
4508.359204196229
 30
0.0
 11
7301.673057123656
 21
4508.359204196229
 31
0.0
  0
LINE
  5
1A004
330
747D
100
AcDbEntity
  8
細線
100
AcDbLine
 10
7315.673057123657
 20
4495.859204196229
 30
0.0
 11
7389.673057123656
 21
4495.859204196229
 31
0.0
  0
LINE
  5
1A005
330
747D
100
AcDbEntity
  8
細線
100
AcDbLine
 10
7315.673057123657
 20
4489.859204196229
 30
0.0
 11
7389.673057123656
 21
4489.859204196229
 31
0.0
  0
LINE
  5
1A006
330
747D
100
AcDbEntity
  8
細線
100
AcDbLine
 10
7315.673057123652
 20
4483.859204196229
 30
0.0
 11
7389.673057123656
 21
4483.859204196229
 31
0.0
  0
LINE
  5
1A007
330
747D
100
AcDbEntity
  8
細線
100
AcDbLine
 10
7315.673057123657
 20
4495.859204196229
 30
0.0
 11
7384.673057123656
 21
4495.859204196229
 31
0.0
  0
LINE
  5
1A008
330
747D
100
AcDbEntity
  8
細線
100
AcDbLine
 10
7463.673057123653
 20
4495.859204196229
 30
0.0
 11
7389.673057123656
 21
4495.859204196229
 31
0.0
  0
LINE
  5
1A009
330
747D
100
AcDbEntity
  8
細線
100
AcDbLine
 10
7463.673057123653
 20
4483.859204196229
 30
0.0
 11
7389.673057123656
 21
4483.859204196229
 31
0.0
  0
LINE
  5
1A00A
330
747D
100
AcDbEntity
  8
細線
100
AcDbLine
 10
7463.673057123653
 20
4489.859204196229
 30
0.0
 11
7389.673057123656
 21
4489.859204196229
 31
0.0
  0
LINE
  5
1A00B
330
747D
100
AcDbEntity
  8
細線
100
AcDbLine
 10
7389.673057123656
 20
4501.859204196229
 30
0.0
 11
7389.673057123651
 21
4478.859204196229
 31
0.0
  0
LINE
  5
1A00C
330
747D
100
AcDbEntity
  8
細線
100
AcDbLine
 10
8619.673057123652
 20
4501.859204196229
 30
0.0
 11
8619.673057123655
 21
4478.859204196229
 31
0.0
  0
LINE
  5
1A00D
330
747D
100
AcDbEntity
  8
細線
100
AcDbLine
 10
8545.673057123655
 20
4489.859204196229
 30
0.0
 11
8619.673057123652
 21
4489.859204196229
 31
0.0
  0
LINE
  5
1A00E
330
747D
100
AcDbEntity
  8
細線
100
AcDbLine
 10
8545.673057123655
 20
4483.859204196229
 30
0.0
 11
8619.673057123652
 21
4483.859204196229
 31
0.0
  0
LINE
  5
1A00F
330
747D
100
AcDbEntity
  8
細線
100
AcDbLine
 10
8545.673057123655
 20
4495.859204196229
 30
0.0
 11
8619.673057123652
 21
4495.859204196229
 31
0.0
  0
LINE
  5
1A010
330
747D
100
AcDbEntity
  8
細線
100
AcDbLine
 10
8693.673057123652
 20
4495.859204196229
 30
0.0
 11
8624.673057123651
 21
4495.859204196229
 31
0.0
  0
LINE
  5
1A011
330
747D
100
AcDbEntity
  8
細線
100
AcDbLine
 10
8693.673057123655
 20
4483.859204196229
 30
0.0
 11
8619.673057123652
 21
4483.859204196229
 31
0.0
  0
LINE
  5
1A012
330
747D
100
AcDbEntity
  8
細線
100
AcDbLine
 10
8693.673057123652
 20
4489.859204196229
 30
0.0
 11
8619.673057123652
 21
4489.859204196229
 31
0.0
  0
LINE
  5
1A013
330
747D
100
AcDbEntity
  8
細線
100
AcDbLine
 10
8693.673057123652
 20
4495.859204196229
 30
0.0
 11
8619.673057123652
 21
4495.859204196229
 31
0.0
  0
LINE
  5
1A014
330
747D
100
AcDbEntity
  8
部品1
 48
0.01
100
AcDbLine
 10
8531.673057123652
 20
4508.359204196229
 30
0.0
 11
8707.673057123651
 21
4508.359204196229
 31
0.0
  0
LINE
  5
1A015
330
747D
100
AcDbEntity
  8
部品1
 48
0.01
100
AcDbLine
 10
8709.673057123652
 20
4506.359204196229
 30
0.0
 11
8709.673057123652
 21
4474.859204196229
 31
0.0
  0
LINE
  5
1A016
330
747D
100
AcDbEntity
  8
部品1
 48
0.01
100
AcDbLine
 10
8707.673057123651
 20
4472.859204196229
 30
0.0
 11
8531.673057123654
 21
4472.859204196229
 31
0.0
  0
LINE
  5
1A017
330
747D
100
AcDbEntity
  8
部品1
 48
0.01
100
AcDbLine
 10
8529.673057123655
 20
4474.859204196229
 30
0.0
 11
8529.67305712365
 21
4506.359204196229
 31
0.0
  0
LINE
  5
1A018
330
747D
100
AcDbEntity
  8
細線
100
AcDbLine
 10
8693.673057123652
 20
4501.859204196229
 30
0.0
 11
8693.673057123652
 21
4478.859204196229
 31
0.0
  0
LINE
  5
1A019
330
747D
100
AcDbEntity
  8
細線
100
AcDbLine
 10
8545.673057123652
 20
4478.859204196229
 30
0.0
 11
8545.673057123652
 21
4501.859204196229
 31
0.0
  0
LINE
  5
1A01A
330
747D
100
AcDbEntity
  8
細線
100
AcDbLine
 10
8545.673057123652
 20
4501.859204196229
 30
0.0
 11
8619.673057123652
 21
4501.859204196229
 31
0.0
  0
LINE
  5
1A01B
330
747D
100
AcDbEntity
  8
細線
100
AcDbLine
 10
8693.673057123652
 20
4478.859204196229
 30
0.0
 11
8619.673057123652
 21
4478.859204196229
 31
0.0
  0
LINE
  5
1A01C
330
747D
100
AcDbEntity
  8
細線
100
AcDbLine
 10
8619.673057123652
 20
4501.859204196229
 30
0.0
 11
8693.673057123652
 21
4501.859204196229
 31
0.0
  0
LINE
  5
1A01D
330
747D
100
AcDbEntity
  8
細線
100
AcDbLine
 10
8619.673057123655
 20
4478.859204196229
 30
0.0
 11
8545.673057123652
 21
4478.859204196229
 31
0.0
  0
ARC
  5
1A01E
330
747D
100
AcDbEntity
  8
部品1
 48
0.01
100
AcDbCircle
 10
8707.673057123651
 20
4506.359204196229
 30
0.0
 40
2.0
100
AcDbArc
 50
0.0
 51
90.0
  0
ARC
  5
1A01F
330
747D
100
AcDbEntity
  8
部品1
 48
0.01
100
AcDbCircle
 10
8707.673057123651
 20
4474.859204196229
 30
0.0
 40
2.0
100
AcDbArc
 50
270.0
 51
0.0
  0
ARC
  5
1A020
330
747D
100
AcDbEntity
  8
部品1
 48
0.01
100
AcDbCircle
 10
8531.673057123652
 20
4506.359204196229
 30
0.0
 40
2.0
100
AcDbArc
 50
90.0
 51
180.0
  0
ARC
  5
1A021
330
747D
100
AcDbEntity
  8
部品1
 48
0.01
100
AcDbCircle
 10
8531.673057123654
 20
4474.859204196229
 30
0.0
 40
2.0
100
AcDbArc
 50
180.0
 51
270.0
  0
ARC
  5
1A022
330
747D
100
AcDbEntity
  8
細線
 48
50.0
100
AcDbCircle
 10
8304.673057123649
 20
2864.859204196229
 30
0.0
 40
15.0
100
AcDbArc
 50
270.0
 51
90.0
  0
ARC
  5
1A023
330
747D
100
AcDbEntity
  8
細線
 48
50.0
100
AcDbCircle
 10
8204.673057123649
 20
2864.859204196229
 30
0.0
 40
15.0
100
AcDbArc
 50
90.0
 51
270.0
  0
LINE
  5
1A024
330
747D
100
AcDbEntity
  8
細線
 48
50.0
100
AcDbLine
 10
8204.673057123649
 20
2879.859204196229
 30
0.0
 11
8304.673057123649
 21
2879.859204196229
 31
0.0
  0
LINE
  5
1A025
330
747D
100
AcDbEntity
  8
細線
 48
50.0
100
AcDbLine
 10
8304.673057123649
 20
2849.85920419623
 30
0.0
 11
8204.673057123649
 21
2849.85920419623
 31
0.0
  0
LINE
  5
1A026
330
747D
100
AcDbEntity
  8
細線
 48
50.0
100
AcDbLine
 10
7804.67305712365
 20
2849.85920419623
 30
0.0
 11
7704.673057123649
 21
2849.85920419623
 31
0.0
  0
LINE
  5
1A027
330
747D
100
AcDbEntity
  8
細線
 48
50.0
100
AcDbLine
 10
7704.673057123649
 20
2879.859204196229
 30
0.0
 11
7804.67305712365
 21
2879.859204196229
 31
0.0
  0
ARC
  5
1A028
330
747D
100
AcDbEntity
  8
細線
 48
50.0
100
AcDbCircle
 10
7804.67305712365
 20
2864.859204196229
 30
0.0
 40
15.0
100
AcDbArc
 50
270.0
 51
90.0
  0
ARC
  5
1A029
330
747D
100
AcDbEntity
  8
細線
 48
50.0
100
AcDbCircle
 10
7704.673057123649
 20
2864.859204196229
 30
0.0
 40
15.0
100
AcDbArc
 50
90.0
 51
270.0
  0
CIRCLE
  5
1A02A
330
747D
100
AcDbEntity
  8
細線
 48
50.0
100
AcDbCircle
 10
8004.67305712365
 20
3189.859204196229
 30
0.0
 40
18.0
  0
LINE
  5
1A02B
330
747D
100
AcDbEntity
  8
部品1
100
AcDbLine
 10
8844.673057123662
 20
10292.49742454598
 30
0.0
 11
8844.673057123662
 21
10264.49742454598
 31
0.0
  0
LINE
  5
1A02C
330
747D
100
AcDbEntity
  8
部品1
100
AcDbLine
 10
6214.673057123662
 20
10292.49742454598
 30
0.0
 11
6214.673057123662
 21
10264.49742454598
 31
0.0
  0
LINE
  5
1A02D
330
747D
100
AcDbEntity
  8
部品1
 48
50.0
100
AcDbLine
 10
5387.173057123663
 20
10256.49742454597
 30
0.0
 11
5387.173057123663
 21
10264.49742454598
 31
0.0
  0
LINE
  5
1A02E
330
747D
100
AcDbEntity
  8
部品1
 48
50.0
100
AcDbLine
 10
5362.173057123663
 20
10256.49742454596
 30
0.0
 11
5362.173057123662
 21
10264.49742454598
 31
0.0
  0
LINE
  5
1A02F
330
747D
100
AcDbEntity
  8
部品1
100
AcDbLine
 10
5794.673057123662
 20
10292.49742454598
 30
0.0
 11
5794.673057123662
 21
10264.49742454598
 31
0.0
  0
LINE
  5
1A030
330
747D
100
AcDbEntity
  8
部品1
100
AcDbLine
 10
5339.673057123663
 20
10282.49742454597
 30
0.0
 11
5339.673057123663
 21
10264.49742454597
 31
0.0
  0
LINE
  5
1A031
330
747D
100
AcDbEntity
  8
部品1
100
AcDbLine
 10
5339.673057123663
 20
10282.49742454597
 30
0.0
 11
5345.673057123663
 21
10282.49742454597
 31
0.0
  0
LINE
  5
1A032
330
747D
100
AcDbEntity
  8
部品1
100
AcDbLine
 10
5409.673057123663
 20
10282.49742454597
 30
0.0
 11
5409.673057123663
 21
10264.49742454597
 31
0.0
  0
LINE
  5
1A033
330
747D
100
AcDbEntity
  8
部品1
100
AcDbLine
 10
5403.673057123663
 20
10282.49742454597
 30
0.0
 11
5409.673057123663
 21
10282.49742454597
 31
0.0
  0
LINE
  5
1A034
330
747D
100
AcDbEntity
  8
部品1
100
AcDbLine
 10
5362.173057123663
 20
10256.49742454596
 30
0.0
 11
5387.173057123663
 21
10256.49742454597
 31
0.0
  0
LINE
  5
1A035
330
747D
100
AcDbEntity
  8
部品1
100
AcDbLine
 10
5374.673057123663
 20
10292.49742454598
 30
0.0
 11
5374.673057123663
 21
10264.49742454598
 31
0.0
  0
LINE
  5
1A036
330
747D
100
AcDbEntity
  8
部品1
100
AcDbLine
 10
4954.673057123663
 20
10292.49742454587
 30
0.0
 11
4954.673057123663
 21
10264.49742454587
 31
0.0
  0
LINE
  5
1A037
330
747D
100
AcDbEntity
  8
部品1
100
AcDbLine
 10
4954.673057123663
 20
10292.49742454587
 30
0.0
 11
4954.673057123663
 21
10264.49742454587
 31
0.0
  0
LINE
  5
1A038
330
747D
100
AcDbEntity
  8
部品1
100
AcDbLine
 10
4954.673057123663
 20
10292.49742454598
 30
0.0
 11
4954.673057123663
 21
10264.49742454598
 31
0.0
  0
LINE
  5
1A039
330
747D
100
AcDbEntity
  8
部品1
100
AcDbLine
 10
4534.673057123663
 20
10292.49742454587
 30
0.0
 11
4534.673057123663
 21
10264.49742454587
 31
0.0
  0
LINE
  5
1A03A
330
747D
100
AcDbEntity
  8
部品1
100
AcDbLine
 10
4534.673057123663
 20
10292.49742454587
 30
0.0
 11
4534.673057123663
 21
10264.49742454587
 31
0.0
  0
LINE
  5
1A03B
330
747D
100
AcDbEntity
  8
部品1
100
AcDbLine
 10
4534.673057123663
 20
10292.49742454598
 30
0.0
 11
4534.673057123663
 21
10264.49742454598
 31
0.0
  0
LINE
  5
1A03C
330
747D
100
AcDbEntity
  8
部品1
100
AcDbLine
 10
5387.173057123663
 20
10264.49742454598
 30
0.0
 11
6661.673057123664
 21
10264.49742454596
 31
0.0
  0
LINE
  5
1A03D
330
747D
100
AcDbEntity
  8
部品1
100
AcDbLine
 10
4087.673057123664
 20
10264.49742454599
 30
0.0
 11
5362.173057123661
 21
10264.49742454598
 31
0.0
  0
LINE
  5
1A03E
330
747D
100
AcDbEntity
  8
部品1
100
AcDbLine
 10
1904.673057123663
 20
10292.49742454598
 30
0.0
 11
1904.673057123663
 21
10264.49742454598
 31
0.0
  0
LINE
  5
1A03F
330
747D
100
AcDbEntity
  8
部品1
100
AcDbLine
 10
1904.673057123663
 20
10292.49742454587
 30
0.0
 11
1904.673057123663
 21
10264.49742454587
 31
0.0
  0
LINE
  5
1A040
330
747D
100
AcDbEntity
  8
部品1
100
AcDbLine
 10
1904.673057123663
 20
10292.49742454587
 30
0.0
 11
1904.673057123663
 21
10264.49742454587
 31
0.0
  0
LINE
  5
1A041
330
747D
100
AcDbEntity
  8
部品1
100
AcDbLine
 10
2324.673057123663
 20
10292.49742454598
 30
0.0
 11
2324.673057123663
 21
10264.49742454598
 31
0.0
  0
LINE
  5
1A042
330
747D
100
AcDbEntity
  8
部品1
100
AcDbLine
 10
2324.673057123663
 20
10292.49742454587
 30
0.0
 11
2324.673057123663
 21
10264.49742454587
 31
0.0
  0
LINE
  5
1A043
330
747D
100
AcDbEntity
  8
部品1
100
AcDbLine
 10
2324.673057123663
 20
10292.49742454587
 30
0.0
 11
2324.673057123663
 21
10264.49742454587
 31
0.0
  0
LINE
  5
1A044
330
747D
100
AcDbEntity
  8
部品1
100
AcDbLine
 10
2744.673057123663
 20
10292.49742454598
 30
0.0
 11
2744.673057123663
 21
10264.49742454598
 31
0.0
  0
LINE
  5
1A045
330
747D
100
AcDbEntity
  8
部品1
100
AcDbLine
 10
2732.173057123663
 20
10256.49742454596
 30
0.0
 11
2757.173057123663
 21
10256.49742454597
 31
0.0
  0
LINE
  5
1A046
330
747D
100
AcDbEntity
  8
部品1
100
AcDbLine
 10
2773.673057123663
 20
10282.49742454597
 30
0.0
 11
2779.673057123663
 21
10282.49742454597
 31
0.0
  0
LINE
  5
1A047
330
747D
100
AcDbEntity
  8
部品1
100
AcDbLine
 10
2779.673057123663
 20
10282.49742454597
 30
0.0
 11
2779.673057123663
 21
10264.49742454597
 31
0.0
  0
LINE
  5
1A048
330
747D
100
AcDbEntity
  8
部品1
100
AcDbLine
 10
2709.673057123663
 20
10282.49742454597
 30
0.0
 11
2715.673057123663
 21
10282.49742454597
 31
0.0
  0
LINE
  5
1A049
330
747D
100
AcDbEntity
  8
部品1
100
AcDbLine
 10
2709.673057123663
 20
10282.49742454597
 30
0.0
 11
2709.673057123663
 21
10264.49742454597
 31
0.0
  0
LINE
  5
1A04A
330
747D
100
AcDbEntity
  8
部品1
100
AcDbLine
 10
3164.673057123662
 20
10292.49742454598
 30
0.0
 11
3164.673057123662
 21
10264.49742454598
 31
0.0
  0
LINE
  5
1A04B
330
747D
100
AcDbEntity
  8
部品1
 48
50.0
100
AcDbLine
 10
2732.173057123663
 20
10256.49742454596
 30
0.0
 11
2732.173057123662
 21
10264.49742454598
 31
0.0
  0
LINE
  5
1A04C
330
747D
100
AcDbEntity
  8
部品1
 48
50.0
100
AcDbLine
 10
2757.173057123663
 20
10256.49742454597
 30
0.0
 11
2757.173057123663
 21
10264.49742454598
 31
0.0
  0
LINE
  5
1A04D
330
747D
100
AcDbEntity
  8
部品1
100
AcDbLine
 10
3584.673057123662
 20
10292.49742454598
 30
0.0
 11
3584.673057123662
 21
10264.49742454598
 31
0.0
  0
LINE
  5
1A04E
330
747D
100
AcDbEntity
  8
部品1
100
AcDbLine
 10
2757.173057123663
 20
10264.49742454598
 30
0.0
 11
4031.673057123664
 21
10264.49742454596
 31
0.0
  0
LINE
  5
1A04F
330
747D
100
AcDbEntity
  8
部品1
100
AcDbLine
 10
1457.673057123664
 20
10264.49742454599
 30
0.0
 11
2732.173057123662
 21
10264.49742454598
 31
0.0
  0
DIMENSION
  5
1A088
330
747D
100
AcDbEntity
  8
寸法
 48
50.0
100
AcDbDimension
  2
*D42
 10
1484.673057123653
 20
6708.0666537797
 30
0.0
 11
1645.575028123714
 21
6808.0666537797
 31
0.0
 70
   160
 71
     5
 42
48.00000000000363
  3
INABA_S40G
100
AcDbAlignedDimension
 13
1532.673057123657
 23
7268.497424545865
 33
0.0
 14
1484.673057123653
 24
7242.497424545864
 34
0.0
100
AcDbRotatedDimension
1001
ACAD
1000
DSTYLE
1002
{
1070
   279
1070
     2
1002
}
  0
ENDSEC
  0
SECTION
  2
OBJECTS
  0
DICTIONARY
  5
7471
330
0
100
AcDbDictionary
281
     1
  3
ACAD_COLOR
350
17AE2
  3
ACAD_GROUP
350
7472
  3
ACAD_LAYOUT
350
17AE3
  3
ACAD_MATERIAL
350
17AE1
  3
ACAD_MLINESTYLE
350
7473
  3
ACAD_PLOTSETTINGS
350
17AE4
  3
ACAD_PLOTSTYLENAME
350
17ADF
  3
ACDBHEADERROUNDTRIPXREC
350
1A0D1
  3
AcDbVariableDictionary
350
1A0CD
  3
CONTENTDICTIONARY
350
E71C
  3
DRAWINGVARIABLESDICT
350
F3B9
  0
DICTIONARY
  5
18AAA
330
7467
100
AcDbDictionary
280
     1
281
     1
  3
ACAD_LAYERSTATES
360
18AAB
  0
DICTIONARY
  5
17AE2
102
{ACAD_REACTORS
330
7471
102
}
330
7471
100
AcDbDictionary
281
     1
  0
DICTIONARY
  5
7472
102
{ACAD_REACTORS
330
7471
102
}
330
7471
100
AcDbDictionary
281
     1
  3
*A1
350
17FA7
  3
*A2
350
180C7
  3
*A3
350
180D2
  0
DICTIONARY
  5
17AE3
102
{ACAD_REACTORS
330
7471
102
}
330
7471
100
AcDbDictionary
281
     1
  3
Model
350
17AE5
  3
レイアウト1
350
17AE6
  0
DICTIONARY
  5
17AE1
102
{ACAD_REACTORS
330
7471
102
}
330
7471
100
AcDbDictionary
281
     1
  0
DICTIONARY
  5
7473
102
{ACAD_REACTORS
330
7471
102
}
330
7471
100
AcDbDictionary
281
     1
  3
STANDARD
350
7480
  0
DICTIONARY
  5
17AE4
102
{ACAD_REACTORS
330
7471
102
}
330
7471
100
AcDbDictionary
281
     1
  0
ACDBDICTIONARYWDFLT
  5
17ADF
102
{ACAD_REACTORS
330
7471
102
}
330
7471
100
AcDbDictionary
281
     1
  3
Normal
350
17AE0
100
AcDbDictionaryWithDefault
340
17AE0
  0
DICTIONARY
  5
1A0D1
102
{ACAD_REACTORS
330
7471
102
}
330
7471
100
AcDbDictionary
281
     1
  3
COLORDICT
350
1A0D3
  3
MATERIALDICT
350
1A0D2
  0
DICTIONARY
  5
1A0CD
102
{ACAD_REACTORS
330
7471
102
}
330
7471
100
AcDbDictionary
281
     1
  3
DIMASSOC
350
1A0CE
  3
PROJECTNAME
350
1A0CF
  0
DICTIONARY
  5
E71C
102
{ACAD_REACTORS
330
7471
102
}
330
7471
100
AcDbDictionary
281
     1
  0
DICTIONARY
  5
F3B9
102
{ACAD_REACTORS
330
7471
102
}
330
7471
100
AcDbDictionary
281
     1
1001
DRAWINGVARIABLESXDATA
1000
POLARMODE
1000
1
  0
DICTIONARY
  5
18AAB
102
{ACAD_REACTORS
330
18AAA
102
}
330
18AAA
100
AcDbDictionary
281
     1
  0
GROUP
  5
17FA7
102
{ACAD_REACTORS
330
7472
102
}
330
7472
100
AcDbGroup
300

 70
     1
 71
     1
  0
GROUP
  5
180C7
102
{ACAD_REACTORS
330
7472
102
}
330
7472
100
AcDbGroup
300

 70
     1
 71
     1
  0
GROUP
  5
180D2
102
{ACAD_REACTORS
330
7472
102
}
330
7472
100
AcDbGroup
300

 70
     1
 71
     1
  0
LAYOUT
  5
17AE5
102
{ACAD_XDICTIONARY
360
1A0D4
102
}
102
{ACAD_REACTORS
330
17AE3
102
}
330
17AE3
100
AcDbPlotSettings
  1

  2
Canon iR C3880/C4580 LIPSLX
  4
A3
  6

 40
5.873749732971191
 41
5.873747825622558
 42
5.873748779296875
 43
5.873748779296875
 44
296.9259948730469
 45
419.9466552734374
 46
0.0
 47
0.0
 48
0.0
 49
0.0
140
0.0
141
0.0
142
1.0
143
40.0
 70
 11952
 72
     1
 73
     1
 74
     2
  7
inaba.ctb
 75
    24
147
0.025
148
0.0
149
0.0
100
AcDbLayout
  1
Model
 70
     1
 71
     0
 10
0.0
 20
0.0
 11
12.0
 21
9.0
 12
0.0
 22
0.0
 32
0.0
 14
0.0
 24
0.0
 34
0.0
 15
0.0
 25
0.0
 35
0.0
146
0.0
 13
0.0
 23
0.0
 33
0.0
 16
1.0
 26
0.0
 36
0.0
 17
0.0
 27
1.0
 37
0.0
 76
     0
330
747D
  0
LAYOUT
  5
17AE6
102
{ACAD_XDICTIONARY
360
1A0D6
102
}
102
{ACAD_REACTORS
330
17AE3
102
}
330
17AE3
100
AcDbPlotSettings
  1

  2
EPSON LP-8300
  4

  6

 40
0.0
 41
0.0
 42
0.0
 43
0.0
 44
0.0
 45
0.0
 46
0.0
 47
0.0
 48
0.0
 49
0.0
140
0.0
141
0.0
142
1.0
143
1.0
 70
   688
 72
     0
 73
     0
 74
     5
  7
inaba.ctb
 75
    16
147
1.0
148
0.0
149
0.0
100
AcDbLayout
  1
レイアウト1
 70
     0
 71
     1
 10
0.0
 20
0.0
 11
420.0
 21
297.0
 12
0.0
 22
0.0
 32
0.0
 14
1.000000000000000E+20
 24
1.000000000000000E+20
 34
1.000000000000000E+20
 15
-1.000000000000000E+20
 25
-1.000000000000000E+20
 35
-1.000000000000000E+20
146
0.0
 13
0.0
 23
0.0
 33
0.0
 16
1.0
 26
0.0
 36
0.0
 17
0.0
 27
1.0
 37
0.0
 76
     0
330
747A
  0
MLINESTYLE
  5
7480
102
{ACAD_REACTORS
330
7473
102
}
330
7473
100
AcDbMlineStyle
  2
STANDARD
 70
     0
  3

 62
     0
 51
90.0
 52
90.0
 71
     2
 49
0.5
 62
   256
  6
BYLAYER
 49
-0.5
 62
   256
  6
BYLAYER
  0
ACDBPLACEHOLDER
  5
17AE0
102
{ACAD_REACTORS
330
17ADF
102
}
330
17ADF
  0
XRECORD
  5
1A0D3
102
{ACAD_REACTORS
330
1A0D1
102
}
330
1A0D1
100
AcDbXrecord
280
     1
340
17AE2
  0
XRECORD
  5
1A0D2
102
{ACAD_REACTORS
330
1A0D1
102
}
330
1A0D1
100
AcDbXrecord
280
     1
340
17AE1
  0
DICTIONARYVAR
  5
1A0CE
102
{ACAD_REACTORS
330
1A0CD
102
}
330
1A0CD
100
DictionaryVariables
280
     0
  1
1
  0
DICTIONARYVAR
  5
1A0CF
102
{ACAD_REACTORS
330
1A0CD
102
}
330
1A0CD
100
DictionaryVariables
280
     0
  1

  0
DICTIONARY
  5
1A0D4
330
17AE5
100
AcDbDictionary
280
     1
281
     1
  3
ACAD_XREC_ROUNDTRIP
360
1A0D5
  0
DICTIONARY
  5
1A0D6
330
17AE6
100
AcDbDictionary
280
     1
281
     1
  3
ACAD_XREC_ROUNDTRIP
360
1A0D7
  0
XRECORD
  5
1A0D5
102
{ACAD_REACTORS
330
1A0D4
102
}
330
1A0D4
100
AcDbXrecord
280
     1
102
SHADEPLOT
 70
     0
102
SHADEPLOTRESLEVEL
 70
     2
102
SHADEPLOTCUSTOMDPI
 70
   300
  0
XRECORD
  5
1A0D7
102
{ACAD_REACTORS
330
1A0D6
102
}
330
1A0D6
100
AcDbXrecord
280
     1
102
SHADEPLOT
 70
     0
102
SHADEPLOTRESLEVEL
 70
     2
102
SHADEPLOTCUSTOMDPI
 70
   300
  0
ENDSEC
  0
EOF
