  0
SECTION
  2
HEADER
  9
$ACADVER
  1
AC1015
  9
$ACADMAINTVER
 70
    20
  9
$DWGCODEPAGE
  3
ANSI_932
  9
$INSBASE
 10
0.0
 20
0.0
 30
0.0
  9
$EXTMIN
 10
139.9999999999995
 20
-0.0000000000000909
 30
0.0
  9
$EXTMAX
 10
16307.2
 20
11409.6
 30
0.0
  9
$LIMMIN
 10
0.0
 20
0.0
  9
$LIMMAX
 10
16800.0
 20
11880.0
  9
$ORTHOMODE
 70
     0
  9
$REGENMODE
 70
     1
  9
$FILLMODE
 70
     1
  9
$QTEXTMODE
 70
     0
  9
$MIRRTEXT
 70
     1
  9
$LTSCALE
 40
20.0
  9
$ATTMODE
 70
     1
  9
$TEXTSIZE
 40
4.0
  9
$TRACEWID
 40
1.0
  9
$TEXTSTYLE
  7
MSPゴシック
  9
$CLAYER
  8
寸法
  9
$CELTYPE
  6
BYLAYER
  9
$CECOLOR
 62
   256
  9
$CELTSCALE
 40
50.0
  9
$DISPSILH
 70
     0
  9
$DIMSCALE
 40
40.0
  9
$DIMASZ
 40
2.5
  9
$DIMEXO
 40
0.5
  9
$DIMDLI
 40
7.0
  9
$DIMRND
 40
0.0
  9
$DIMDLE
 40
0.0
  9
$DIMEXE
 40
1.5
  9
$DIMTP
 40
0.0
  9
$DIMTM
 40
0.0
  9
$DIMTXT
 40
3.0
  9
$DIMCEN
 40
0.0
  9
$DIMTSZ
 40
0.0
  9
$DIMTOL
 70
     0
  9
$DIMLIM
 70
     0
  9
$DIMTIH
 70
     0
  9
$DIMTOH
 70
     0
  9
$DIMSE1
 70
     0
  9
$DIMSE2
 70
     0
  9
$DIMTAD
 70
     3
  9
$DIMZIN
 70
     8
  9
$DIMBLK
  1

  9
$DIMASO
 70
     1
  9
$DIMSHO
 70
     1
  9
$DIMPOST
  1

  9
$DIMAPOST
  1

  9
$DIMALT
 70
     0
  9
$DIMALTD
 70
     2
  9
$DIMALTF
 40
0.0394
  9
$DIMLFAC
 40
1.0
  9
$DIMTOFL
 70
     1
  9
$DIMTVP
 40
0.0
  9
$DIMTIX
 70
     1
  9
$DIMSOXD
 70
     0
  9
$DIMSAH
 70
     1
  9
$DIMBLK1
  1
DOTSMALL
  9
$DIMBLK2
  1
DOTSMALL
  9
$DIMSTYLE
  2
INABA_S40G
  9
$DIMCLRD
 70
     0
  9
$DIMCLRE
 70
     0
  9
$DIMCLRT
 70
     7
  9
$DIMTFAC
 40
1.0
  9
$DIMGAP
 40
1.0
  9
$DIMJUST
 70
     0
  9
$DIMSD1
 70
     0
  9
$DIMSD2
 70
     0
  9
$DIMTOLJ
 70
     1
  9
$DIMTZIN
 70
     0
  9
$DIMALTZ
 70
     0
  9
$DIMALTTZ
 70
     0
  9
$DIMUPT
 70
     0
  9
$DIMDEC
 70
     1
  9
$DIMTDEC
 70
     4
  9
$DIMALTU
 70
     2
  9
$DIMALTTD
 70
     2
  9
$DIMTXSTY
  7
STYLE1
  9
$DIMAUNIT
 70
     0
  9
$DIMADEC
 70
     0
  9
$DIMALTRND
 40
0.0
  9
$DIMAZIN
 70
     0
  9
$DIMDSEP
 70
    46
  9
$DIMATFIT
 70
     3
  9
$DIMFRAC
 70
     0
  9
$DIMLDRBLK
  1

  9
$DIMLUNIT
 70
     2
  9
$DIMLWD
 70
    -2
  9
$DIMLWE
 70
    -2
  9
$DIMTMOVE
 70
     2
  9
$LUNITS
 70
     2
  9
$LUPREC
 70
     1
  9
$SKETCHINC
 40
1.0
  9
$FILLETRAD
 40
3.0
  9
$AUNITS
 70
     0
  9
$AUPREC
 70
     0
  9
$MENU
  1
acad
  9
$ELEVATION
 40
0.0
  9
$PELEVATION
 40
0.0
  9
$THICKNESS
 40
0.0
  9
$LIMCHECK
 70
     0
  9
$CHAMFERA
 40
0.0
  9
$CHAMFERB
 40
0.0
  9
$CHAMFERC
 40
0.0
  9
$CHAMFERD
 40
0.0
  9
$SKPOLY
 70
     0
  9
$TDCREATE
 40
2451368.612993866
  9
$TDUCREATE
 40
2451368.237993866
  9
$TDUPDATE
 40
2455569.647777407
  9
$TDUUPDATE
 40
2455569.272777407
  9
$TDINDWG
 40
0.8444106713
  9
$TDUSRTIMER
 40
0.8444106713
  9
$USRTIMER
 70
     1
  9
$ANGBASE
 50
0.0
  9
$ANGDIR
 70
     0
  9
$PDMODE
 70
     3
  9
$PDSIZE
 40
2.0
  9
$PLINEWID
 40
0.0
  9
$SPLFRAME
 70
     0
  9
$SPLINETYPE
 70
     6
  9
$SPLINESEGS
 70
     8
  9
$HANDSEED
  5
19CA4
  9
$SURFTAB1
 70
     6
  9
$SURFTAB2
 70
     6
  9
$SURFTYPE
 70
     6
  9
$SURFU
 70
     6
  9
$SURFV
 70
     6
  9
$UCSBASE
  2

  9
$UCSNAME
  2

  9
$UCSORG
 10
0.0
 20
0.0
 30
0.0
  9
$UCSXDIR
 10
1.0
 20
0.0
 30
0.0
  9
$UCSYDIR
 10
0.0
 20
1.0
 30
0.0
  9
$UCSORTHOREF
  2

  9
$UCSORTHOVIEW
 70
     0
  9
$UCSORGTOP
 10
0.0
 20
0.0
 30
0.0
  9
$UCSORGBOTTOM
 10
0.0
 20
0.0
 30
0.0
  9
$UCSORGLEFT
 10
0.0
 20
0.0
 30
0.0
  9
$UCSORGRIGHT
 10
0.0
 20
0.0
 30
0.0
  9
$UCSORGFRONT
 10
0.0
 20
0.0
 30
0.0
  9
$UCSORGBACK
 10
0.0
 20
0.0
 30
0.0
  9
$PUCSBASE
  2

  9
$PUCSNAME
  2

  9
$PUCSORG
 10
0.0
 20
0.0
 30
0.0
  9
$PUCSXDIR
 10
1.0
 20
0.0
 30
0.0
  9
$PUCSYDIR
 10
0.0
 20
1.0
 30
0.0
  9
$PUCSORTHOREF
  2

  9
$PUCSORTHOVIEW
 70
     0
  9
$PUCSORGTOP
 10
0.0
 20
0.0
 30
0.0
  9
$PUCSORGBOTTOM
 10
0.0
 20
0.0
 30
0.0
  9
$PUCSORGLEFT
 10
0.0
 20
0.0
 30
0.0
  9
$PUCSORGRIGHT
 10
0.0
 20
0.0
 30
0.0
  9
$PUCSORGFRONT
 10
0.0
 20
0.0
 30
0.0
  9
$PUCSORGBACK
 10
0.0
 20
0.0
 30
0.0
  9
$USERI1
 70
     0
  9
$USERI2
 70
     0
  9
$USERI3
 70
     0
  9
$USERI4
 70
     0
  9
$USERI5
 70
     0
  9
$USERR1
 40
0.0
  9
$USERR2
 40
0.0
  9
$USERR3
 40
0.0
  9
$USERR4
 40
0.0
  9
$USERR5
 40
0.0
  9
$WORLDVIEW
 70
     1
  9
$SHADEDGE
 70
     3
  9
$SHADEDIF
 70
    70
  9
$TILEMODE
 70
     1
  9
$MAXACTVP
 70
    16
  9
$PINSBASE
 10
0.0
 20
0.0
 30
0.0
  9
$PLIMCHECK
 70
     0
  9
$PEXTMIN
 10
1.000000000000000E+20
 20
1.000000000000000E+20
 30
1.000000000000000E+20
  9
$PEXTMAX
 10
-1.000000000000000E+20
 20
-1.000000000000000E+20
 30
-1.000000000000000E+20
  9
$PLIMMIN
 10
0.0
 20
0.0
  9
$PLIMMAX
 10
420.0
 20
297.0
  9
$UNITMODE
 70
     0
  9
$VISRETAIN
 70
     0
  9
$PLINEGEN
 70
     0
  9
$PSLTSCALE
 70
     0
  9
$TREEDEPTH
 70
  3020
  9
$CMLSTYLE
  2
STANDARD
  9
$CMLJUST
 70
     0
  9
$CMLSCALE
 40
1.0
  9
$PROXYGRAPHICS
 70
     1
  9
$MEASUREMENT
 70
     1
  9
$CELWEIGHT
370
    -1
  9
$ENDCAPS
280
     0
  9
$JOINSTYLE
280
     0
  9
$LWDISPLAY
290
     0
  9
$INSUNITS
 70
     0
  9
$HYPERLINKBASE
  1

  9
$STYLESHEET
  1
inaba.ctb
  9
$XEDIT
290
     1
  9
$CEPSNTYPE
380
     0
  9
$PSTYLEMODE
290
     1
  9
$FINGERPRINTGUID
  2
{0E4A3AB3-ADAA-44DC-861C-9525B65BB1EC}
  9
$VERSIONGUID
  2
{517C3213-0A14-459A-B447-5A38E306E103}
  9
$EXTNAMES
290
     1
  9
$PSVPSCALE
 40
0.0
  9
$OLESTARTUP
290
     0
  0
ENDSEC
  0
SECTION
  2
CLASSES
  0
CLASS
  1
ACDBDICTIONARYWDFLT
  2
AcDbDictionaryWithDefault
  3
ObjectDBX Classes
 90
        0
280
     0
281
     0
  0
CLASS
  1
DICTIONARYVAR
  2
AcDbDictionaryVar
  3
ObjectDBX Classes
 90
        0
280
     0
281
     0
  0
CLASS
  1
ACDBPLACEHOLDER
  2
AcDbPlaceHolder
  3
ObjectDBX Classes
 90
        0
280
     0
281
     0
  0
CLASS
  1
LAYOUT
  2
AcDbLayout
  3
ObjectDBX Classes
 90
        0
280
     0
281
     0
  0
ENDSEC
  0
SECTION
  2
TABLES
  0
TABLE
  2
VPORT
  5
746D
330
0
100
AcDbSymbolTable
 70
     2
  0
VPORT
  5
19C9C
330
746D
100
AcDbSymbolTableRecord
100
AcDbViewportTableRecord
  2
*Active
 70
     0
 10
0.0
 20
0.0
 11
1.0
 21
1.0
 12
11720.08798000114
 22
5704.77863699966
 13
0.0
 23
0.0
 14
10.0
 24
10.0
 15
10.0
 25
10.0
 16
0.0
 26
0.0
 36
1.0
 17
0.0
 27
0.0
 37
0.0
 40
11513.38691418082
 41
2.234800838574423
 42
50.0
 43
0.0
 44
0.0
 50
0.0
 51
0.0
 71
     0
 72
     0
 73
     1
 74
     0
 75
     0
 76
     0
 77
     0
 78
     0
281
     0
 65
     1
110
0.0
120
0.0
130
0.0
111
1.0
121
0.0
131
0.0
112
0.0
122
1.0
132
0.0
 79
     0
146
0.0
  0
ENDTAB
  0
TABLE
  2
LTYPE
  5
746A
330
0
100
AcDbSymbolTable
 70
     3
  0
LTYPE
  5
7477
330
746A
100
AcDbSymbolTableRecord
100
AcDbLinetypeTableRecord
  2
BYBLOCK
 70
     0
  3

 72
    65
 73
     0
 40
0.0
  0
LTYPE
  5
7478
330
746A
100
AcDbSymbolTableRecord
100
AcDbLinetypeTableRecord
  2
BYLAYER
 70
     0
  3

 72
    65
 73
     0
 40
0.0
  0
LTYPE
  5
7479
330
746A
100
AcDbSymbolTableRecord
100
AcDbLinetypeTableRecord
  2
CONTINUOUS
 70
     0
  3
Solid line
 72
    65
 73
     0
 40
0.0
  0
LTYPE
  5
781A
330
746A
100
AcDbSymbolTableRecord
100
AcDbLinetypeTableRecord
  2
HIDDEN
 70
     0
  3
__ __ __ __ __ __ __ __ __ __ __ __ __ __ __ __
 72
    65
 73
     2
 40
0.375
 49
0.25
 74
     0
 49
-0.125
 74
     0
  0
LTYPE
  5
781B
330
746A
100
AcDbSymbolTableRecord
100
AcDbLinetypeTableRecord
  2
PHANTOM
 70
     0
  3
______  __  __  ______  __  __  ______  __  __ 
 72
    65
 73
     6
 40
2.5
 49
1.25
 74
     0
 49
-0.25
 74
     0
 49
0.25
 74
     0
 49
-0.25
 74
     0
 49
0.25
 74
     0
 49
-0.25
 74
     0
  0
ENDTAB
  0
TABLE
  2
LAYER
  5
7467
102
{ACAD_XDICTIONARY
360
18C51
102
}
330
0
100
AcDbSymbolTable
 70
    10
  0
LAYER
  5
7474
330
7467
100
AcDbSymbolTableRecord
100
AcDbLayerTableRecord
  2
0
 70
     0
 62
     7
  6
CONTINUOUS
370
    -3
390
17AE0
  0
LAYER
  5
DEB3
330
7467
100
AcDbSymbolTableRecord
100
AcDbLayerTableRecord
  2
寸法
 70
     0
 62
     4
  6
CONTINUOUS
370
    -3
390
17AE0
  0
LAYER
  5
DEB4
330
7467
100
AcDbSymbolTableRecord
100
AcDbLayerTableRecord
  2
部品1
 70
     0
 62
     7
  6
CONTINUOUS
370
    -3
390
17AE0
  0
LAYER
  5
DEB5
330
7467
100
AcDbSymbolTableRecord
100
AcDbLayerTableRecord
  2
補助
 70
     0
 62
    -1
  6
CONTINUOUS
370
    -3
390
17AE0
  0
LAYER
  5
DEB6
330
7467
100
AcDbSymbolTableRecord
100
AcDbLayerTableRecord
  2
文字
 70
     0
 62
     7
  6
CONTINUOUS
370
    -3
390
17AE0
  0
LAYER
  5
F255
330
7467
100
AcDbSymbolTableRecord
100
AcDbLayerTableRecord
  2
DEFPOINTS
 70
     0
 62
     7
  6
CONTINUOUS
290
     0
370
    -3
390
17AE0
  0
LAYER
  5
10B54
330
7467
100
AcDbSymbolTableRecord
100
AcDbLayerTableRecord
  2
仕様書枠
 70
     0
 62
   230
  6
CONTINUOUS
370
    -3
390
17AE0
  0
LAYER
  5
11729
330
7467
100
AcDbSymbolTableRecord
100
AcDbLayerTableRecord
  2
Ｇ．Ｌ
 70
     0
 62
    30
  6
CONTINUOUS
370
    -3
390
17AE0
  0
LAYER
  5
1173F
330
7467
100
AcDbSymbolTableRecord
100
AcDbLayerTableRecord
  2
細線
 70
     0
 62
     5
  6
CONTINUOUS
370
    -3
390
17AE0
  0
LAYER
  5
142E2
330
7467
100
AcDbSymbolTableRecord
100
AcDbLayerTableRecord
  2
破線
 70
     0
 62
     2
  6
HIDDEN
370
    -3
390
17AE0
  0
ENDTAB
  0
TABLE
  2
STYLE
  5
7468
330
0
100
AcDbSymbolTable
 70
     7
  0
STYLE
  5
7475
330
7468
100
AcDbSymbolTableRecord
100
AcDbTextStyleTableRecord
  2
STANDARD
 70
     0
 40
0.0
 41
1.0
 50
0.0
 71
     0
 42
4.0
  3
txt
  4
C:\AutoCAD LT\bigfont.shx
  0
STYLE
  5
763C
330
7468
100
AcDbSymbolTableRecord
100
AcDbTextStyleTableRecord
  2
MSMINCHO
 70
     0
 40
0.0
 41
1.0
 50
0.0
 71
     0
 42
1.199999999999999
  3
MS PMincho.ttf
  4

1001
ACAD
1000
MS PMincho
1071
    32786
  0
STYLE
  5
F706
330
7468
100
AcDbSymbolTableRecord
100
AcDbTextStyleTableRecord
  2
STYLE1
 70
     0
 40
0.0
 41
1.0
 50
0.0
 71
     0
 42
4.0
  3
isocp.shx
  4
bigfont.shx
  0
STYLE
  5
103BF
330
7468
100
AcDbSymbolTableRecord
100
AcDbTextStyleTableRecord
  2
STYLE2
 70
     0
 40
0.0
 41
1.0
 50
0.0
 71
     0
 42
100.0
  3
MS PGothic.ttf
  4

1001
ACAD
1000
MS PGothic
1071
    32818
  0
STYLE
  5
10BAA
330
7468
100
AcDbSymbolTableRecord
100
AcDbTextStyleTableRecord
  2
STYLE3
 70
     0
 40
0.0
 41
1.0
 50
0.0
 71
     0
 42
100.0
  3
DFPGothic-EB.ttf
  4

1001
ACAD
1000
DFPGothic-EB
1071
    32818
  0
STYLE
  5
11A15
330
7468
100
AcDbSymbolTableRecord
100
AcDbTextStyleTableRecord
  2
MSGOTHIC
 70
     0
 40
0.0
 41
1.0
 50
0.0
 71
     0
 42
3.5
  3
MS PGothic.ttf
  4

1001
ACAD
1000
MS PGothic
1071
    32818
  0
STYLE
  5
13E96
330
7468
100
AcDbSymbolTableRecord
100
AcDbTextStyleTableRecord
  2
MSPゴシック
 70
     0
 40
0.0
 41
1.0
 50
0.0
 71
     0
 42
4.0
  3
MS PGothic.ttf
  4

1001
ACAD
1000
MS PGothic
1071
    32818
  0
ENDTAB
  0
TABLE
  2
VIEW
  5
746B
330
0
100
AcDbSymbolTable
 70
     0
  0
ENDTAB
  0
TABLE
  2
UCS
  5
746C
330
0
100
AcDbSymbolTable
 70
     0
  0
ENDTAB
  0
TABLE
  2
APPID
  5
746E
330
0
100
AcDbSymbolTable
 70
     6
  0
APPID
  5
7476
330
746E
100
AcDbSymbolTableRecord
100
AcDbRegAppTableRecord
  2
ACAD
 70
     0
  0
APPID
  5
DEA9
330
746E
100
AcDbSymbolTableRecord
100
AcDbRegAppTableRecord
  2
CONTENTBLOCKICON
 70
     0
  0
APPID
  5
DEAA
330
746E
100
AcDbSymbolTableRecord
100
AcDbRegAppTableRecord
  2
CONTENTBLOCKDESCRIPTION
 70
     0
  0
APPID
  5
E71D
330
746E
100
AcDbSymbolTableRecord
100
AcDbRegAppTableRecord
  2
CONTENTTABDATA
 70
     0
  0
APPID
  5
E71E
330
746E
100
AcDbSymbolTableRecord
100
AcDbRegAppTableRecord
  2
CONTENTCURRENTTAB
 70
     0
  0
APPID
  5
F3BA
330
746E
100
AcDbSymbolTableRecord
100
AcDbRegAppTableRecord
  2
DRAWINGVARIABLESXDATA
 70
     0
  0
ENDTAB
  0
TABLE
  2
DIMSTYLE
  5
746F
330
0
100
AcDbSymbolTable
 70
     1
100
AcDbDimStyleTable
 71
     1
340
F71F
  0
DIMSTYLE
105
F71F
102
{ACAD_REACTORS
330
162CD
330
162CE
330
162CF
330
162D0
330
162E4
330
162E7
330
162EA
330
162EB
330
16301
330
16302
330
1631F
330
16320
330
16333
330
1659C
330
1659A
330
165E9
330
166DD
330
16913
330
17BC3
330
17B87
330
17B86
330
18E4C
330
18E4D
330
18E4E
330
18E7E
330
18E82
330
18E83
330
18E84
330
18E92
330
18EA1
330
195D0
330
195D1
330
195D2
330
195E2
330
19897
330
19898
330
19899
102
}
330
746F
100
AcDbSymbolTableRecord
100
AcDbDimStyleTableRecord
  2
INABA_S40G
 70
     0
 40
40.0
 41
2.5
 42
0.5
 43
7.0
 44
1.5
 73
     0
 74
     0
 77
     3
 78
     8
140
3.0
141
0.0
143
0.0394
147
1.0
172
     1
173
     1
174
     1
178
     7
271
     1
340
F706
341
F770
343
F770
344
F770
  0
ENDTAB
  0
TABLE
  2
BLOCK_RECORD
  5
7466
330
0
100
AcDbSymbolTable
 70
    38
  0
BLOCK_RECORD
  5
747D
330
7466
100
AcDbSymbolTableRecord
100
AcDbBlockTableRecord
  2
*MODEL_SPACE
340
17AE5
  0
BLOCK_RECORD
  5
747A
330
7466
100
AcDbSymbolTableRecord
100
AcDbBlockTableRecord
  2
*PAPER_SPACE
340
17AE6
  0
BLOCK_RECORD
  5
F770
330
7466
100
AcDbSymbolTableRecord
100
AcDbBlockTableRecord
  2
_DOTSMALL
340
0
102
{BLKREFS
331
18943
331
18944
331
1894D
331
1894E
331
18963
331
18964
331
189A3
331
189A4
331
19A48
331
19A49
331
19A52
331
19A53
331
19A5B
331
19A5C
331
19A66
331
19A67
331
19A6F
331
19A70
331
19A7A
331
19A7B
331
19A83
331
19A84
331
19A8C
331
19A8D
331
19A95
331
19A96
331
19A9D
331
19A9E
331
19AA8
331
19AA9
331
19ABC
331
19ABD
331
19AC8
331
19AC9
331
19AD8
331
19AD9
331
19AE1
331
19AE2
331
19AEC
331
19AED
331
19AF7
331
19AF8
331
19B00
331
19B01
331
19B1F
331
19B20
331
19B2A
331
19B2B
331
19B47
331
19B48
331
19B50
331
19B51
331
19B59
331
19B5A
331
19B61
331
19B62
331
19B73
331
19B74
331
19B7F
331
19B80
331
19B89
331
19B8A
331
19B94
331
19B95
331
19B9D
331
19B9E
331
19BAA
331
19BAB
331
19BB3
331
19BB4
331
19C7D
331
19C7E
331
19C89
331
19C8A
102
}
  0
BLOCK_RECORD
  5
16338
330
7466
100
AcDbSymbolTableRecord
100
AcDbBlockTableRecord
  2
*D1
340
0
  0
BLOCK_RECORD
  5
16344
330
7466
100
AcDbSymbolTableRecord
100
AcDbBlockTableRecord
  2
*D2
340
0
  0
BLOCK_RECORD
  5
16352
330
7466
100
AcDbSymbolTableRecord
100
AcDbBlockTableRecord
  2
*D3
340
0
  0
BLOCK_RECORD
  5
16360
330
7466
100
AcDbSymbolTableRecord
100
AcDbBlockTableRecord
  2
*D4
340
0
  0
BLOCK_RECORD
  5
16384
330
7466
100
AcDbSymbolTableRecord
100
AcDbBlockTableRecord
  2
*D5
340
0
  0
BLOCK_RECORD
  5
1638F
330
7466
100
AcDbSymbolTableRecord
100
AcDbBlockTableRecord
  2
*D6
340
0
  0
BLOCK_RECORD
  5
1639B
330
7466
100
AcDbSymbolTableRecord
100
AcDbBlockTableRecord
  2
*D7
340
0
  0
BLOCK_RECORD
  5
163A9
330
7466
100
AcDbSymbolTableRecord
100
AcDbBlockTableRecord
  2
*D8
340
0
  0
BLOCK_RECORD
  5
163B8
330
7466
100
AcDbSymbolTableRecord
100
AcDbBlockTableRecord
  2
*D9
340
0
  0
BLOCK_RECORD
  5
163C7
330
7466
100
AcDbSymbolTableRecord
100
AcDbBlockTableRecord
  2
*D10
340
0
  0
BLOCK_RECORD
  5
163E1
330
7466
100
AcDbSymbolTableRecord
100
AcDbBlockTableRecord
  2
*D11
340
0
  0
BLOCK_RECORD
  5
163ED
330
7466
100
AcDbSymbolTableRecord
100
AcDbBlockTableRecord
  2
*D12
340
0
  0
BLOCK_RECORD
  5
163FB
330
7466
100
AcDbSymbolTableRecord
100
AcDbBlockTableRecord
  2
*D13
340
0
  0
BLOCK_RECORD
  5
165B5
330
7466
100
AcDbSymbolTableRecord
100
AcDbBlockTableRecord
  2
*D14
340
0
  0
BLOCK_RECORD
  5
165C4
330
7466
100
AcDbSymbolTableRecord
100
AcDbBlockTableRecord
  2
*D15
340
0
  0
BLOCK_RECORD
  5
165EA
330
7466
100
AcDbSymbolTableRecord
100
AcDbBlockTableRecord
  2
*D16
340
0
  0
BLOCK_RECORD
  5
166CF
330
7466
100
AcDbSymbolTableRecord
100
AcDbBlockTableRecord
  2
*D17
340
0
  0
BLOCK_RECORD
  5
16908
330
7466
100
AcDbSymbolTableRecord
100
AcDbBlockTableRecord
  2
*D18
340
0
  0
BLOCK_RECORD
  5
17BD3
330
7466
100
AcDbSymbolTableRecord
100
AcDbBlockTableRecord
  2
*D19
340
0
  0
BLOCK_RECORD
  5
17BDE
330
7466
100
AcDbSymbolTableRecord
100
AcDbBlockTableRecord
  2
*D20
340
0
  0
BLOCK_RECORD
  5
17BF8
330
7466
100
AcDbSymbolTableRecord
100
AcDbBlockTableRecord
  2
*D21
340
0
  0
BLOCK_RECORD
  5
18FDD
330
7466
100
AcDbSymbolTableRecord
100
AcDbBlockTableRecord
  2
*D22
340
0
  0
BLOCK_RECORD
  5
18FE9
330
7466
100
AcDbSymbolTableRecord
100
AcDbBlockTableRecord
  2
*D23
340
0
  0
BLOCK_RECORD
  5
18FF5
330
7466
100
AcDbSymbolTableRecord
100
AcDbBlockTableRecord
  2
*D24
340
0
  0
BLOCK_RECORD
  5
19001
330
7466
100
AcDbSymbolTableRecord
100
AcDbBlockTableRecord
  2
*D25
340
0
  0
BLOCK_RECORD
  5
1900F
330
7466
100
AcDbSymbolTableRecord
100
AcDbBlockTableRecord
  2
*D26
340
0
  0
BLOCK_RECORD
  5
1901B
330
7466
100
AcDbSymbolTableRecord
100
AcDbBlockTableRecord
  2
*D27
340
0
  0
BLOCK_RECORD
  5
19029
330
7466
100
AcDbSymbolTableRecord
100
AcDbBlockTableRecord
  2
*D28
340
0
  0
BLOCK_RECORD
  5
19035
330
7466
100
AcDbSymbolTableRecord
100
AcDbBlockTableRecord
  2
*D29
340
0
  0
BLOCK_RECORD
  5
19042
330
7466
100
AcDbSymbolTableRecord
100
AcDbBlockTableRecord
  2
*D30
340
0
  0
BLOCK_RECORD
  5
1968A
330
7466
100
AcDbSymbolTableRecord
100
AcDbBlockTableRecord
  2
*D31
340
0
  0
BLOCK_RECORD
  5
19696
330
7466
100
AcDbSymbolTableRecord
100
AcDbBlockTableRecord
  2
*D32
340
0
  0
BLOCK_RECORD
  5
196A2
330
7466
100
AcDbSymbolTableRecord
100
AcDbBlockTableRecord
  2
*D33
340
0
  0
BLOCK_RECORD
  5
196B0
330
7466
100
AcDbSymbolTableRecord
100
AcDbBlockTableRecord
  2
*D34
340
0
  0
BLOCK_RECORD
  5
198F7
330
7466
100
AcDbSymbolTableRecord
100
AcDbBlockTableRecord
  2
*D35
340
0
  0
BLOCK_RECORD
  5
19903
330
7466
100
AcDbSymbolTableRecord
100
AcDbBlockTableRecord
  2
*D36
340
0
  0
BLOCK_RECORD
  5
19911
330
7466
100
AcDbSymbolTableRecord
100
AcDbBlockTableRecord
  2
*D37
340
0
  0
ENDTAB
  0
ENDSEC
  0
SECTION
  2
BLOCKS
  0
BLOCK
  5
7489
330
747D
100
AcDbEntity
  8
0
100
AcDbBlockBegin
  2
*MODEL_SPACE
 70
     0
 10
0.0
 20
0.0
 30
0.0
  3
*MODEL_SPACE
  1

  0
ENDBLK
  5
748A
330
747D
100
AcDbEntity
  8
0
100
AcDbBlockEnd
  0
BLOCK
  5
7487
330
747A
100
AcDbEntity
 67
     1
  8
0
100
AcDbBlockBegin
  2
*PAPER_SPACE
 70
     0
 10
0.0
 20
0.0
 30
0.0
  3
*PAPER_SPACE
  1

  0
ENDBLK
  5
7488
330
747A
100
AcDbEntity
 67
     1
  8
0
100
AcDbBlockEnd
  0
BLOCK
  5
F771
330
F770
100
AcDbEntity
  8
0
 48
50.0
100
AcDbBlockBegin
  2
_DOTSMALL
 70
     0
 10
0.0
 20
0.0
 30
0.0
  3
_DOTSMALL
  1

  0
LWPOLYLINE
  5
F772
330
F770
100
AcDbEntity
  8
0
  6
ByBlock
 62
     0
 48
50.0
100
AcDbPolyline
 90
        2
 70
     1
 43
0.5
 10
-0.0625
 20
0.0
 42
1.0
 10
0.0625
 20
0.0
 42
1.0
  0
ENDBLK
  5
F776
330
F770
100
AcDbEntity
  8
0
 48
50.0
100
AcDbBlockEnd
  0
BLOCK
  5
164EB
330
16338
100
AcDbEntity
  8
0
 48
50.0
100
AcDbBlockBegin
  2
*D1
 70
     1
 10
0.0
 20
0.0
 30
0.0
  3
*D1
  1

  0
LINE
  5
19AFD
330
16338
100
AcDbEntity
  8
寸法
 62
     0
 48
50.0
370
    -2
100
AcDbLine
 10
8024.673057123674
 20
10137.49742454596
 30
0.0
 11
8712.099402858079
 21
10137.49742454596
 31
0.0
  0
LINE
  5
19AFE
330
16338
100
AcDbEntity
  8
寸法
 62
     0
 48
50.0
370
    -2
100
AcDbLine
 10
8024.673057123647
 20
7197.497424545952
 30
0.0
 11
8712.099402858079
 21
7197.497424545952
 31
0.0
  0
LINE
  5
19AFF
330
16338
100
AcDbEntity
  8
寸法
 62
     0
 48
50.0
370
    -2
100
AcDbLine
 10
8652.099402858079
 20
10137.49742454596
 30
0.0
 11
8652.099402858079
 21
7197.497424545952
 31
0.0
  0
INSERT
  5
19B00
330
16338
100
AcDbEntity
  8
寸法
 62
     0
 48
50.0
370
    -2
100
AcDbBlockReference
  2
_DOTSMALL
 10
8652.099402858079
 20
10137.49742454596
 30
0.0
 41
100.0
 42
100.0
 43
100.0
 50
90.0
  0
INSERT
  5
19B01
330
16338
100
AcDbEntity
  8
寸法
 62
     0
 48
50.0
370
    -2
100
AcDbBlockReference
  2
_DOTSMALL
 10
8652.099402858079
 20
7197.497424545952
 30
0.0
 41
100.0
 42
100.0
 43
100.0
 50
270.0
  0
MTEXT
  5
19B02
330
16338
100
AcDbEntity
  8
寸法
 62
     7
 48
50.0
100
AcDbMText
 10
8552.087591834455
 20
8667.497424545961
 30
0.0
 40
120.0
 41
0.0
 71
     5
 72
     1
  1
\A1;7X420=2940
  7
STYLE1
 11
0.0000000000000001
 21
1.0
 31
0.0
 73
     1
 44
1.0
1001
ACAD
1000
MTEXTBEGIN
1070
    73
1070
     1
1070
    44
1040
1.0
1070
    74
1070
     0
1000
MTEXTEND
  0
POINT
  5
19B03
330
16338
100
AcDbEntity
  8
DEFPOINTS
 62
     0
 48
50.0
100
AcDbPoint
 10
8004.673057123673
 20
10137.49742454596
 30
0.0
  0
POINT
  5
19B04
330
16338
100
AcDbEntity
  8
DEFPOINTS
 62
     0
 48
50.0
100
AcDbPoint
 10
8004.673057123648
 20
7197.497424545952
 30
0.0
  0
POINT
  5
19B05
330
16338
100
AcDbEntity
  8
DEFPOINTS
 62
     0
 48
50.0
100
AcDbPoint
 10
8652.099402858079
 20
7197.497424545952
 30
0.0
  0
ENDBLK
  5
164F5
330
16338
100
AcDbEntity
  8
0
 48
50.0
100
AcDbBlockEnd
  0
BLOCK
  5
16414
330
16344
100
AcDbEntity
  8
0
 48
50.0
100
AcDbBlockBegin
  2
*D2
 70
     1
 10
0.0
 20
0.0
 30
0.0
  3
*D2
  1

  0
LINE
  5
19AF2
330
16344
100
AcDbEntity
  8
寸法
 62
     0
 48
50.0
370
    -2
100
AcDbLine
 10
8024.673057123647
 20
7197.497424545952
 30
0.0
 11
8712.09940285806
 21
7197.497424545952
 31
0.0
  0
LINE
  5
19AF3
330
16344
100
AcDbEntity
  8
寸法
 62
     0
 48
50.0
370
    -2
100
AcDbLine
 10
8024.673057123647
 20
7142.497424545957
 30
0.0
 11
8712.09940285806
 21
7142.497424545957
 31
0.0
  0
LINE
  5
19AF4
330
16344
100
AcDbEntity
  8
寸法
 62
     0
 48
50.0
370
    -2
100
AcDbLine
 10
8652.099402858059
 20
7197.497424545952
 30
0.0
 11
8652.099402858059
 21
7297.497424545952
 31
0.0
  0
LINE
  5
19AF5
330
16344
100
AcDbEntity
  8
寸法
 62
     0
 48
50.0
370
    -2
100
AcDbLine
 10
8652.099402858059
 20
7142.497424545957
 30
0.0
 11
8652.099402858059
 21
6656.150676266854
 31
0.0
  0
LINE
  5
19AF6
330
16344
100
AcDbEntity
  8
寸法
 62
     0
 48
50.0
370
    -2
100
AcDbLine
 10
8652.099402858059
 20
7197.497424545952
 30
0.0
 11
8652.099402858059
 21
7142.497424545957
 31
0.0
  0
INSERT
  5
19AF7
330
16344
100
AcDbEntity
  8
寸法
 62
     0
 48
50.0
370
    -2
100
AcDbBlockReference
  2
_DOTSMALL
 10
8652.099402858059
 20
7197.497424545952
 30
0.0
 41
100.0
 42
100.0
 43
100.0
 50
270.0
  0
INSERT
  5
19AF8
330
16344
100
AcDbEntity
  8
寸法
 62
     0
 48
50.0
370
    -2
100
AcDbBlockReference
  2
_DOTSMALL
 10
8652.099402858059
 20
7142.497424545957
 30
0.0
 41
100.0
 42
100.0
 43
100.0
 50
90.0
  0
MTEXT
  5
19AF9
330
16344
100
AcDbEntity
  8
寸法
 62
     7
 48
50.0
100
AcDbMText
 10
8552.099402858058
 20
6764.635957641094
 30
0.0
 40
120.0
 41
0.0
 71
     5
 72
     1
  1
\A1;55
  7
STYLE1
 11
0.0000000000000001
 21
1.0
 31
0.0
 73
     1
 44
1.0
1001
ACAD
1000
MTEXTBEGIN
1070
    73
1070
     1
1070
    44
1040
1.0
1070
    74
1070
     0
1000
MTEXTEND
  0
POINT
  5
19AFA
330
16344
100
AcDbEntity
  8
DEFPOINTS
 62
     0
 48
50.0
100
AcDbPoint
 10
8004.673057123648
 20
7197.497424545952
 30
0.0
  0
POINT
  5
19AFB
330
16344
100
AcDbEntity
  8
DEFPOINTS
 62
     0
 48
50.0
100
AcDbPoint
 10
8004.673057123648
 20
7142.497424545957
 30
0.0
  0
POINT
  5
19AFC
330
16344
100
AcDbEntity
  8
DEFPOINTS
 62
     0
 48
50.0
100
AcDbPoint
 10
8652.099402858059
 20
7142.497424545957
 30
0.0
  0
ENDBLK
  5
16420
330
16344
100
AcDbEntity
  8
0
 48
50.0
100
AcDbBlockEnd
  0
BLOCK
  5
16421
330
16352
100
AcDbEntity
  8
0
 48
50.0
100
AcDbBlockBegin
  2
*D3
 70
     1
 10
0.0
 20
0.0
 30
0.0
  3
*D3
  1

  0
LINE
  5
19AE7
330
16352
100
AcDbEntity
  8
寸法
 62
     0
 48
50.0
370
    -2
100
AcDbLine
 10
8024.673057123674
 20
10192.49742454596
 30
0.0
 11
8712.099402858084
 21
10192.49742454596
 31
0.0
  0
LINE
  5
19AE8
330
16352
100
AcDbEntity
  8
寸法
 62
     0
 48
50.0
370
    -2
100
AcDbLine
 10
8024.673057123674
 20
10137.49742454596
 30
0.0
 11
8712.099402858084
 21
10137.49742454596
 31
0.0
  0
LINE
  5
19AE9
330
16352
100
AcDbEntity
  8
寸法
 62
     0
 48
50.0
370
    -2
100
AcDbLine
 10
8652.099402858084
 20
10137.49742454596
 30
0.0
 11
8652.099402858084
 21
10037.49742454596
 31
0.0
  0
LINE
  5
19AEA
330
16352
100
AcDbEntity
  8
寸法
 62
     0
 48
50.0
370
    -2
100
AcDbLine
 10
8652.099402858084
 20
10192.49742454596
 30
0.0
 11
8652.099402858084
 21
10609.46798729444
 31
0.0
  0
LINE
  5
19AEB
330
16352
100
AcDbEntity
  8
寸法
 62
     0
 48
50.0
370
    -2
100
AcDbLine
 10
8652.099402858084
 20
10137.49742454596
 30
0.0
 11
8652.099402858084
 21
10192.49742454596
 31
0.0
  0
INSERT
  5
19AEC
330
16352
100
AcDbEntity
  8
寸法
 62
     0
 48
50.0
370
    -2
100
AcDbBlockReference
  2
_DOTSMALL
 10
8652.099402858084
 20
10137.49742454596
 30
0.0
 41
100.0
 42
100.0
 43
100.0
 50
90.0
  0
INSERT
  5
19AED
330
16352
100
AcDbEntity
  8
寸法
 62
     0
 48
50.0
370
    -2
100
AcDbBlockReference
  2
_DOTSMALL
 10
8652.099402858084
 20
10192.49742454596
 30
0.0
 41
100.0
 42
100.0
 43
100.0
 50
270.0
  0
MTEXT
  5
19AEE
330
16352
100
AcDbEntity
  8
寸法
 62
     7
 48
50.0
100
AcDbMText
 10
8552.099402858083
 20
10500.9827059202
 30
0.0
 40
120.0
 41
0.0
 71
     5
 72
     1
  1
\A1;55
  7
STYLE1
 11
0.0000000000000001
 21
1.0
 31
0.0
 73
     1
 44
1.0
1001
ACAD
1000
MTEXTBEGIN
1070
    73
1070
     1
1070
    44
1040
1.0
1070
    74
1070
     0
1000
MTEXTEND
  0
POINT
  5
19AEF
330
16352
100
AcDbEntity
  8
DEFPOINTS
 62
     0
 48
50.0
100
AcDbPoint
 10
8004.673057123673
 20
10192.49742454596
 30
0.0
  0
POINT
  5
19AF0
330
16352
100
AcDbEntity
  8
DEFPOINTS
 62
     0
 48
50.0
100
AcDbPoint
 10
8004.673057123673
 20
10137.49742454596
 30
0.0
  0
POINT
  5
19AF1
330
16352
100
AcDbEntity
  8
DEFPOINTS
 62
     0
 48
50.0
100
AcDbPoint
 10
8652.099402858084
 20
10137.49742454596
 30
0.0
  0
ENDBLK
  5
1642D
330
16352
100
AcDbEntity
  8
0
 48
50.0
100
AcDbBlockEnd
  0
BLOCK
  5
164CA
330
16360
100
AcDbEntity
  8
0
 48
50.0
100
AcDbBlockBegin
  2
*D4
 70
     1
 10
0.0
 20
0.0
 30
0.0
  3
*D4
  1

  0
LINE
  5
19ADE
330
16360
100
AcDbEntity
  8
寸法
 62
     0
 48
50.0
370
    -2
100
AcDbLine
 10
8024.673057123674
 20
10192.49742454596
 30
0.0
 11
9077.206344597717
 21
10192.49742454596
 31
0.0
  0
LINE
  5
19ADF
330
16360
100
AcDbEntity
  8
寸法
 62
     0
 48
50.0
370
    -2
100
AcDbLine
 10
8024.673057123647
 20
7142.497424545957
 30
0.0
 11
9077.206344597717
 21
7142.497424545957
 31
0.0
  0
LINE
  5
19AE0
330
16360
100
AcDbEntity
  8
寸法
 62
     0
 48
50.0
370
    -2
100
AcDbLine
 10
9017.206344597719
 20
10192.49742454596
 30
0.0
 11
9017.206344597719
 21
7142.497424545957
 31
0.0
  0
INSERT
  5
19AE1
330
16360
100
AcDbEntity
  8
寸法
 62
     0
 48
50.0
370
    -2
100
AcDbBlockReference
  2
_DOTSMALL
 10
9017.206344597719
 20
10192.49742454596
 30
0.0
 41
100.0
 42
100.0
 43
100.0
 50
90.0
  0
INSERT
  5
19AE2
330
16360
100
AcDbEntity
  8
寸法
 62
     0
 48
50.0
370
    -2
100
AcDbBlockReference
  2
_DOTSMALL
 10
9017.206344597719
 20
7142.497424545957
 30
0.0
 41
100.0
 42
100.0
 43
100.0
 50
270.0
  0
MTEXT
  5
19AE3
330
16360
100
AcDbEntity
  8
寸法
 62
     7
 48
50.0
100
AcDbMText
 10
8917.206344597717
 20
8667.497424545961
 30
0.0
 40
120.0
 41
0.0
 71
     5
 72
     1
  1
\A1;3050
  7
STYLE1
 11
0.0000000000000001
 21
1.0
 31
0.0
 73
     1
 44
1.0
1001
ACAD
1000
MTEXTBEGIN
1070
    73
1070
     1
1070
    44
1040
1.0
1070
    74
1070
     0
1000
MTEXTEND
  0
POINT
  5
19AE4
330
16360
100
AcDbEntity
  8
DEFPOINTS
 62
     0
 48
50.0
100
AcDbPoint
 10
8004.673057123673
 20
10192.49742454596
 30
0.0
  0
POINT
  5
19AE5
330
16360
100
AcDbEntity
  8
DEFPOINTS
 62
     0
 48
50.0
100
AcDbPoint
 10
8004.673057123648
 20
7142.497424545957
 30
0.0
  0
POINT
  5
19AE6
330
16360
100
AcDbEntity
  8
DEFPOINTS
 62
     0
 48
50.0
100
AcDbPoint
 10
9017.206344597719
 20
7142.497424545957
 30
0.0
  0
ENDBLK
  5
164D4
330
16360
100
AcDbEntity
  8
0
 48
50.0
100
AcDbBlockEnd
  0
BLOCK
  5
1728C
330
16384
100
AcDbEntity
  8
0
 48
50.0
100
AcDbBlockBegin
  2
*D5
 70
     1
 10
0.0
 20
0.0
 30
0.0
  3
*D5
  1

  0
LINE
  5
19AD6
330
16384
100
AcDbEntity
  8
寸法
 62
     0
 48
50.0
370
    -2
100
AcDbLine
 10
5477.673057123666
 20
7148.497424545865
 30
0.0
 11
5477.673057123666
 21
6548.0666537797
 31
0.0
  0
LINE
  5
19AD7
330
16384
100
AcDbEntity
  8
寸法
 62
     0
 48
50.0
370
    -2
100
AcDbLine
 10
7901.673057123648
 20
6608.0666537797
 30
0.0
 11
5477.673057123666
 21
6608.0666537797
 31
0.0
  0
INSERT
  5
19AD8
330
16384
100
AcDbEntity
  8
寸法
 62
     0
 48
50.0
370
    -2
100
AcDbBlockReference
  2
_DOTSMALL
 10
7901.673057123648
 20
6608.0666537797
 30
0.0
 41
100.0
 42
100.0
 43
100.0
  0
INSERT
  5
19AD9
330
16384
100
AcDbEntity
  8
寸法
 62
     0
 48
50.0
370
    -2
100
AcDbBlockReference
  2
_DOTSMALL
 10
5477.673057123666
 20
6608.0666537797
 30
0.0
 41
100.0
 42
100.0
 43
100.0
 50
180.0
  0
MTEXT
  5
19ADA
330
16384
100
AcDbEntity
  8
寸法
 62
     7
 48
50.0
100
AcDbMText
 10
6689.673057123657
 20
6708.078464803323
 30
0.0
 40
120.0
 41
0.0
 71
     5
 72
     1
  1
\A1;有効開口部間口 2424
  7
STYLE1
 73
     1
 44
1.0
1001
ACAD
1000
MTEXTBEGIN
1070
    73
1070
     1
1070
    44
1040
1.0
1070
    74
1070
     0
1000
MTEXTEND
  0
POINT
  5
19ADB
330
16384
100
AcDbEntity
  8
DEFPOINTS
 62
     0
 48
50.0
100
AcDbPoint
 10
7901.673057123648
 20
7168.497424545865
 30
0.0
  0
POINT
  5
19ADC
330
16384
100
AcDbEntity
  8
DEFPOINTS
 62
     0
 48
50.0
100
AcDbPoint
 10
5477.673057123666
 20
7168.497424545865
 30
0.0
  0
POINT
  5
19ADD
330
16384
100
AcDbEntity
  8
DEFPOINTS
 62
     0
 48
50.0
100
AcDbPoint
 10
5477.673057123666
 20
6608.0666537797
 30
0.0
  0
ENDBLK
  5
17295
330
16384
100
AcDbEntity
  8
0
 48
50.0
100
AcDbBlockEnd
  0
BLOCK
  5
17261
330
1638F
100
AcDbEntity
  8
0
 48
50.0
100
AcDbBlockBegin
  2
*D6
 70
     1
 10
0.0
 20
0.0
 30
0.0
  3
*D6
  1

  0
LINE
  5
19B9A
330
1638F
100
AcDbEntity
  8
寸法
 62
     0
 48
50.0
370
    -2
100
AcDbLine
 10
2744.673057123666
 20
7122.497424545861
 30
0.0
 11
2744.673057123666
 21
6101.893658188827
 31
0.0
  0
LINE
  5
19B9B
330
1638F
100
AcDbEntity
  8
寸法
 62
     0
 48
50.0
370
    -2
100
AcDbLine
 10
8004.673057123637
 20
7122.497424545956
 30
0.0
 11
8004.673057123637
 21
6101.893658188827
 31
0.0
  0
LINE
  5
19B9C
330
1638F
100
AcDbEntity
  8
寸法
 62
     0
 48
50.0
370
    -2
100
AcDbLine
 10
2744.673057123666
 20
6161.893658188827
 30
0.0
 11
8004.673057123637
 21
6161.893658188827
 31
0.0
  0
INSERT
  5
19B9D
330
1638F
100
AcDbEntity
  8
寸法
 62
     0
 48
50.0
370
    -2
100
AcDbBlockReference
  2
_DOTSMALL
 10
2744.673057123666
 20
6161.893658188827
 30
0.0
 41
100.0
 42
100.0
 43
100.0
 50
180.0
  0
INSERT
  5
19B9E
330
1638F
100
AcDbEntity
  8
寸法
 62
     0
 48
50.0
370
    -2
100
AcDbBlockReference
  2
_DOTSMALL
 10
8004.673057123637
 20
6161.893658188827
 30
0.0
 41
100.0
 42
100.0
 43
100.0
  0
MTEXT
  5
19B9F
330
1638F
100
AcDbEntity
  8
寸法
 62
     7
 48
50.0
100
AcDbMText
 10
5374.673057123651
 20
6261.905469212448
 30
0.0
 40
120.0
 41
0.0
 71
     5
 72
     1
  1
\A1;5260
  7
STYLE1
 73
     1
 44
1.0
1001
ACAD
1000
MTEXTBEGIN
1070
    73
1070
     1
1070
    44
1040
1.0
1070
    74
1070
     0
1000
MTEXTEND
  0
POINT
  5
19BA0
330
1638F
100
AcDbEntity
  8
DEFPOINTS
 62
     0
 48
50.0
100
AcDbPoint
 10
2744.673057123666
 20
7142.497424545862
 30
0.0
  0
POINT
  5
19BA1
330
1638F
100
AcDbEntity
  8
DEFPOINTS
 62
     0
 48
50.0
100
AcDbPoint
 10
8004.673057123637
 20
7142.497424545957
 30
0.0
  0
POINT
  5
19BA2
330
1638F
100
AcDbEntity
  8
DEFPOINTS
 62
     0
 48
50.0
100
AcDbPoint
 10
8004.673057123637
 20
6161.893658188827
 30
0.0
  0
ENDBLK
  5
1726B
330
1638F
100
AcDbEntity
  8
0
 48
50.0
100
AcDbBlockEnd
  0
BLOCK
  5
16464
330
1639B
100
AcDbEntity
  8
0
 48
50.0
100
AcDbBlockBegin
  2
*D7
 70
     1
 10
0.0
 20
0.0
 30
0.0
  3
*D7
  1

  0
LINE
  5
19B8F
330
1639B
100
AcDbEntity
  8
寸法
 62
     0
 48
50.0
370
    -2
100
AcDbLine
 10
2799.673057123662
 20
7122.497424545864
 30
0.0
 11
2799.673057123662
 21
6548.0666537797
 31
0.0
  0
LINE
  5
19B90
330
1639B
100
AcDbEntity
  8
寸法
 62
     0
 48
50.0
370
    -2
100
AcDbLine
 10
2744.673057123666
 20
7122.497424545861
 30
0.0
 11
2744.673057123666
 21
6548.0666537797
 31
0.0
  0
LINE
  5
19B91
330
1639B
100
AcDbEntity
  8
寸法
 62
     0
 48
50.0
370
    -2
100
AcDbLine
 10
2799.673057123662
 20
6608.0666537797
 30
0.0
 11
2899.673057123662
 21
6608.0666537797
 31
0.0
  0
LINE
  5
19B92
330
1639B
100
AcDbEntity
  8
寸法
 62
     0
 48
50.0
370
    -2
100
AcDbLine
 10
2744.673057123666
 20
6608.0666537797
 30
0.0
 11
2327.702494375189
 21
6608.0666537797
 31
0.0
  0
LINE
  5
19B93
330
1639B
100
AcDbEntity
  8
寸法
 62
     0
 48
50.0
370
    -2
100
AcDbLine
 10
2799.673057123662
 20
6608.0666537797
 30
0.0
 11
2744.673057123666
 21
6608.0666537797
 31
0.0
  0
INSERT
  5
19B94
330
1639B
100
AcDbEntity
  8
寸法
 62
     0
 48
50.0
370
    -2
100
AcDbBlockReference
  2
_DOTSMALL
 10
2799.673057123662
 20
6608.0666537797
 30
0.0
 41
100.0
 42
100.0
 43
100.0
 50
180.0
  0
INSERT
  5
19B95
330
1639B
100
AcDbEntity
  8
寸法
 62
     0
 48
50.0
370
    -2
100
AcDbBlockReference
  2
_DOTSMALL
 10
2744.673057123666
 20
6608.0666537797
 30
0.0
 41
100.0
 42
100.0
 43
100.0
  0
MTEXT
  5
19B96
330
1639B
100
AcDbEntity
  8
寸法
 62
     7
 48
50.0
100
AcDbMText
 10
2436.187775749428
 20
6708.0666537797
 30
0.0
 40
120.0
 41
0.0
 71
     5
 72
     1
  1
\A1;55
  7
STYLE1
 73
     1
 44
1.0
1001
ACAD
1000
MTEXTBEGIN
1070
    73
1070
     1
1070
    44
1040
1.0
1070
    74
1070
     0
1000
MTEXTEND
  0
POINT
  5
19B97
330
1639B
100
AcDbEntity
  8
DEFPOINTS
 62
     0
 48
50.0
100
AcDbPoint
 10
2799.673057123662
 20
7142.497424545864
 30
0.0
  0
POINT
  5
19B98
330
1639B
100
AcDbEntity
  8
DEFPOINTS
 62
     0
 48
50.0
100
AcDbPoint
 10
2744.673057123666
 20
7142.497424545862
 30
0.0
  0
POINT
  5
19B99
330
1639B
100
AcDbEntity
  8
DEFPOINTS
 62
     0
 48
50.0
100
AcDbPoint
 10
2744.673057123666
 20
6608.0666537797
 30
0.0
  0
ENDBLK
  5
16470
330
1639B
100
AcDbEntity
  8
0
 48
50.0
100
AcDbBlockEnd
  0
BLOCK
  5
16471
330
163A9
100
AcDbEntity
  8
0
 48
50.0
100
AcDbBlockBegin
  2
*D8
 70
     1
 10
0.0
 20
0.0
 30
0.0
  3
*D8
  1

  0
LINE
  5
1899D
330
163A9
100
AcDbEntity
  8
寸法
 62
     0
 48
50.0
370
    -2
100
AcDbLine
 10
5477.673057123666
 20
7148.497424545865
 30
0.0
 11
5477.673057123666
 21
6548.0666537797
 31
0.0
  0
LINE
  5
1899E
330
163A9
100
AcDbEntity
  8
寸法
 62
     0
 48
50.0
370
    -2
100
AcDbLine
 10
5429.673057123662
 20
7122.497424545864
 30
0.0
 11
5429.673057123662
 21
6548.0666537797
 31
0.0
  0
LINE
  5
1899F
330
163A9
100
AcDbEntity
  8
寸法
 62
     0
 48
50.0
370
    -2
100
AcDbLine
 10
5477.673057123666
 20
6608.0666537797
 30
0.0
 11
5577.673057123666
 21
6608.0666537797
 31
0.0
  0
LINE
  5
189A0
330
163A9
100
AcDbEntity
  8
寸法
 62
     0
 48
50.0
370
    -2
100
AcDbLine
 10
5429.673057123662
 20
6608.0666537797
 30
0.0
 11
5329.673057123662
 21
6608.0666537797
 31
0.0
  0
MTEXT
  5
189A1
330
163A9
100
AcDbEntity
  8
寸法
 62
     7
 48
50.0
100
AcDbMText
 10
5590.575028123723
 20
6708.0666537797
 30
0.0
 40
120.0
 41
0.0
 71
     5
 72
     1
  1
\A1;48
  7
STYLE1
 73
     1
 44
1.0
1001
ACAD
1000
MTEXTBEGIN
1070
    73
1070
     1
1070
    44
1040
1.0
1070
    74
1070
     0
1000
MTEXTEND
  0
LINE
  5
189A2
330
163A9
100
AcDbEntity
  8
寸法
 62
     0
 48
50.0
370
    -2
100
AcDbLine
 10
5477.673057123666
 20
6608.0666537797
 30
0.0
 11
5429.673057123662
 21
6608.0666537797
 31
0.0
  0
INSERT
  5
189A3
330
163A9
100
AcDbEntity
  8
寸法
 62
     0
 48
50.0
370
    -2
100
AcDbBlockReference
  2
_DOTSMALL
 10
5477.673057123666
 20
6608.0666537797
 30
0.0
 41
100.0
 42
100.0
 43
100.0
 50
180.0
  0
INSERT
  5
189A4
330
163A9
100
AcDbEntity
  8
寸法
 62
     0
 48
50.0
370
    -2
100
AcDbBlockReference
  2
_DOTSMALL
 10
5429.673057123662
 20
6608.0666537797
 30
0.0
 41
100.0
 42
100.0
 43
100.0
  0
POINT
  5
189A5
330
163A9
100
AcDbEntity
  8
DEFPOINTS
 62
     0
 48
50.0
100
AcDbPoint
 10
5477.673057123666
 20
7168.497424545865
 30
0.0
  0
POINT
  5
189A6
330
163A9
100
AcDbEntity
  8
DEFPOINTS
 62
     0
 48
50.0
100
AcDbPoint
 10
5429.673057123662
 20
7142.497424545864
 30
0.0
  0
POINT
  5
189A7
330
163A9
100
AcDbEntity
  8
DEFPOINTS
 62
     0
 48
50.0
100
AcDbPoint
 10
5429.673057123662
 20
6608.0666537797
 30
0.0
  0
ENDBLK
  5
1647E
330
163A9
100
AcDbEntity
  8
0
 48
50.0
100
AcDbBlockEnd
  0
BLOCK
  5
1647F
330
163B8
100
AcDbEntity
  8
0
 48
50.0
100
AcDbBlockBegin
  2
*D9
 70
     1
 10
0.0
 20
0.0
 30
0.0
  3
*D9
  1

  0
LINE
  5
19AC2
330
163B8
100
AcDbEntity
  8
寸法
 62
     0
 48
50.0
370
    -2
100
AcDbLine
 10
7949.67305712365
 20
7122.497424545952
 30
0.0
 11
7949.67305712365
 21
6548.0666537797
 31
0.0
  0
LINE
  5
19AC3
330
163B8
100
AcDbEntity
  8
寸法
 62
     0
 48
50.0
370
    -2
100
AcDbLine
 10
7901.673057123648
 20
7148.497424545865
 30
0.0
 11
7901.673057123648
 21
6548.0666537797
 31
0.0
  0
LINE
  5
19AC4
330
163B8
100
AcDbEntity
  8
寸法
 62
     0
 48
50.0
370
    -2
100
AcDbLine
 10
7949.67305712365
 20
6608.0666537797
 30
0.0
 11
8049.67305712365
 21
6608.0666537797
 31
0.0
  0
LINE
  5
19AC5
330
163B8
100
AcDbEntity
  8
寸法
 62
     0
 48
50.0
370
    -2
100
AcDbLine
 10
7901.673057123648
 20
6608.0666537797
 30
0.0
 11
7801.673057123648
 21
6608.0666537797
 31
0.0
  0
MTEXT
  5
19AC6
330
163B8
100
AcDbEntity
  8
寸法
 62
     7
 48
50.0
100
AcDbMText
 10
7790.710159474901
 20
6708.0666537797
 30
0.0
 40
120.0
 41
0.0
 71
     5
 72
     1
  1
\A1;48
  7
STYLE1
 73
     1
 44
1.0
1001
ACAD
1000
MTEXTBEGIN
1070
    73
1070
     1
1070
    44
1040
1.0
1070
    74
1070
     0
1000
MTEXTEND
  0
LINE
  5
19AC7
330
163B8
100
AcDbEntity
  8
寸法
 62
     0
 48
50.0
370
    -2
100
AcDbLine
 10
7949.67305712365
 20
6608.0666537797
 30
0.0
 11
7901.673057123648
 21
6608.0666537797
 31
0.0
  0
INSERT
  5
19AC8
330
163B8
100
AcDbEntity
  8
寸法
 62
     0
 48
50.0
370
    -2
100
AcDbBlockReference
  2
_DOTSMALL
 10
7949.67305712365
 20
6608.0666537797
 30
0.0
 41
100.0
 42
100.0
 43
100.0
 50
180.0
  0
INSERT
  5
19AC9
330
163B8
100
AcDbEntity
  8
寸法
 62
     0
 48
50.0
370
    -2
100
AcDbBlockReference
  2
_DOTSMALL
 10
7901.673057123648
 20
6608.0666537797
 30
0.0
 41
100.0
 42
100.0
 43
100.0
  0
POINT
  5
19ACA
330
163B8
100
AcDbEntity
  8
DEFPOINTS
 62
     0
 48
50.0
100
AcDbPoint
 10
7949.67305712365
 20
7142.497424545952
 30
0.0
  0
POINT
  5
19ACB
330
163B8
100
AcDbEntity
  8
DEFPOINTS
 62
     0
 48
50.0
100
AcDbPoint
 10
7901.673057123648
 20
7168.497424545865
 30
0.0
  0
POINT
  5
19ACC
330
163B8
100
AcDbEntity
  8
DEFPOINTS
 62
     0
 48
50.0
100
AcDbPoint
 10
7901.673057123648
 20
6608.0666537797
 30
0.0
  0
ENDBLK
  5
1648C
330
163B8
100
AcDbEntity
  8
0
 48
50.0
100
AcDbBlockEnd
  0
BLOCK
  5
1648D
330
163C7
100
AcDbEntity
  8
0
 48
50.0
100
AcDbBlockBegin
  2
*D10
 70
     1
 10
0.0
 20
0.0
 30
0.0
  3
*D10
  1

  0
LINE
  5
19AB7
330
163C7
100
AcDbEntity
  8
寸法
 62
     0
 48
50.0
370
    -2
100
AcDbLine
 10
8004.673057123648
 20
7122.497424545956
 30
0.0
 11
8004.673057123648
 21
6548.066653779702
 31
0.0
  0
LINE
  5
19AB8
330
163C7
100
AcDbEntity
  8
寸法
 62
     0
 48
50.0
370
    -2
100
AcDbLine
 10
7949.67305712365
 20
7122.497424545952
 30
0.0
 11
7949.67305712365
 21
6548.066653779702
 31
0.0
  0
LINE
  5
19AB9
330
163C7
100
AcDbEntity
  8
寸法
 62
     0
 48
50.0
370
    -2
100
AcDbLine
 10
7949.67305712365
 20
6608.066653779701
 30
0.0
 11
7849.673057123649
 21
6608.066653779701
 31
0.0
  0
LINE
  5
19ABA
330
163C7
100
AcDbEntity
  8
寸法
 62
     0
 48
50.0
370
    -2
100
AcDbLine
 10
8004.673057123648
 20
6608.066653779701
 30
0.0
 11
8421.643619872124
 21
6608.066653779701
 31
0.0
  0
LINE
  5
19ABB
330
163C7
100
AcDbEntity
  8
寸法
 62
     0
 48
50.0
370
    -2
100
AcDbLine
 10
7949.67305712365
 20
6608.066653779701
 30
0.0
 11
8004.673057123648
 21
6608.066653779701
 31
0.0
  0
INSERT
  5
19ABC
330
163C7
100
AcDbEntity
  8
寸法
 62
     0
 48
50.0
370
    -2
100
AcDbBlockReference
  2
_DOTSMALL
 10
7949.67305712365
 20
6608.066653779701
 30
0.0
 41
100.0
 42
100.0
 43
100.0
  0
INSERT
  5
19ABD
330
163C7
100
AcDbEntity
  8
寸法
 62
     0
 48
50.0
370
    -2
100
AcDbBlockReference
  2
_DOTSMALL
 10
8004.673057123648
 20
6608.066653779701
 30
0.0
 41
100.0
 42
100.0
 43
100.0
 50
180.0
  0
MTEXT
  5
19ABE
330
163C7
100
AcDbEntity
  8
寸法
 62
     7
 48
50.0
100
AcDbMText
 10
8313.158338497885
 20
6708.066653779702
 30
0.0
 40
120.0
 41
0.0
 71
     5
 72
     1
  1
\A1;55
  7
STYLE1
 73
     1
 44
1.0
1001
ACAD
1000
MTEXTBEGIN
1070
    73
1070
     1
1070
    44
1040
1.0
1070
    74
1070
     0
1000
MTEXTEND
  0
POINT
  5
19ABF
330
163C7
100
AcDbEntity
  8
DEFPOINTS
 62
     0
 48
50.0
100
AcDbPoint
 10
8004.673057123648
 20
7142.497424545957
 30
0.0
  0
POINT
  5
19AC0
330
163C7
100
AcDbEntity
  8
DEFPOINTS
 62
     0
 48
50.0
100
AcDbPoint
 10
7949.67305712365
 20
7142.497424545952
 30
0.0
  0
POINT
  5
19AC1
330
163C7
100
AcDbEntity
  8
DEFPOINTS
 62
     0
 48
50.0
100
AcDbPoint
 10
7949.67305712365
 20
6608.066653779701
 30
0.0
  0
ENDBLK
  5
16499
330
163C7
100
AcDbEntity
  8
0
 48
50.0
100
AcDbBlockEnd
  0
BLOCK
  5
172A1
330
163E1
100
AcDbEntity
  8
0
 48
50.0
100
AcDbBlockBegin
  2
*D11
 70
     1
 10
0.0
 20
0.0
 30
0.0
  3
*D11
  1

  0
LINE
  5
19BB0
330
163E1
100
AcDbEntity
  8
寸法
 62
     0
 48
50.0
370
    -2
100
AcDbLine
 10
5429.673057123672
 20
10212.49742454587
 30
0.0
 11
5429.673057123672
 21
10468.30564417096
 31
0.0
  0
LINE
  5
19BB1
330
163E1
100
AcDbEntity
  8
寸法
 62
     0
 48
50.0
370
    -2
100
AcDbLine
 10
7949.673057123674
 20
10212.49742454596
 30
0.0
 11
7949.673057123674
 21
10468.30564417096
 31
0.0
  0
LINE
  5
19BB2
330
163E1
100
AcDbEntity
  8
寸法
 62
     0
 48
50.0
370
    -2
100
AcDbLine
 10
5429.673057123672
 20
10408.30564417096
 30
0.0
 11
7949.673057123674
 21
10408.30564417096
 31
0.0
  0
INSERT
  5
19BB3
330
163E1
100
AcDbEntity
  8
寸法
 62
     0
 48
50.0
370
    -2
100
AcDbBlockReference
  2
_DOTSMALL
 10
5429.673057123672
 20
10408.30564417096
 30
0.0
 41
100.0
 42
100.0
 43
100.0
 50
180.0
  0
INSERT
  5
19BB4
330
163E1
100
AcDbEntity
  8
寸法
 62
     0
 48
50.0
370
    -2
100
AcDbBlockReference
  2
_DOTSMALL
 10
7949.673057123674
 20
10408.30564417096
 30
0.0
 41
100.0
 42
100.0
 43
100.0
  0
MTEXT
  5
19BB5
330
163E1
100
AcDbEntity
  8
寸法
 62
     7
 48
50.0
100
AcDbMText
 10
6689.673057123673
 20
10508.31745519459
 30
0.0
 40
120.0
 41
0.0
 71
     5
 72
     1
  1
\A1;6X420=2520
  7
STYLE1
 73
     1
 44
1.0
1001
ACAD
1000
MTEXTBEGIN
1070
    73
1070
     1
1070
    44
1040
1.0
1070
    74
1070
     0
1000
MTEXTEND
  0
POINT
  5
19BB6
330
163E1
100
AcDbEntity
  8
DEFPOINTS
 62
     0
 48
50.0
100
AcDbPoint
 10
5429.673057123672
 20
10192.49742454587
 30
0.0
  0
POINT
  5
19BB7
330
163E1
100
AcDbEntity
  8
DEFPOINTS
 62
     0
 48
50.0
100
AcDbPoint
 10
7949.673057123674
 20
10192.49742454596
 30
0.0
  0
POINT
  5
19BB8
330
163E1
100
AcDbEntity
  8
DEFPOINTS
 62
     0
 48
50.0
100
AcDbPoint
 10
7949.673057123674
 20
10408.30564417096
 30
0.0
  0
ENDBLK
  5
172AB
330
163E1
100
AcDbEntity
  8
0
 48
50.0
100
AcDbBlockEnd
  0
BLOCK
  5
164B0
330
163ED
100
AcDbEntity
  8
0
 48
50.0
100
AcDbBlockBegin
  2
*D12
 70
     1
 10
0.0
 20
0.0
 30
0.0
  3
*D12
  1

  0
LINE
  5
19B84
330
163ED
100
AcDbEntity
  8
寸法
 62
     0
 48
50.0
370
    -2
100
AcDbLine
 10
2744.673057123638
 20
10212.49742454587
 30
0.0
 11
2744.673057123638
 21
10468.30564417085
 31
0.0
  0
LINE
  5
19B85
330
163ED
100
AcDbEntity
  8
寸法
 62
     0
 48
50.0
370
    -2
100
AcDbLine
 10
2799.673057123672
 20
10212.49742454587
 30
0.0
 11
2799.673057123672
 21
10468.30564417085
 31
0.0
  0
LINE
  5
19B86
330
163ED
100
AcDbEntity
  8
寸法
 62
     0
 48
50.0
370
    -2
100
AcDbLine
 10
2799.673057123672
 20
10408.30564417085
 30
0.0
 11
2899.673057123672
 21
10408.30564417085
 31
0.0
  0
LINE
  5
19B87
330
163ED
100
AcDbEntity
  8
寸法
 62
     0
 48
50.0
370
    -2
100
AcDbLine
 10
2744.673057123638
 20
10408.30564417085
 30
0.0
 11
2327.70249437516
 21
10408.30564417085
 31
0.0
  0
LINE
  5
19B88
330
163ED
100
AcDbEntity
  8
寸法
 62
     0
 48
50.0
370
    -2
100
AcDbLine
 10
2799.673057123672
 20
10408.30564417085
 30
0.0
 11
2744.673057123638
 21
10408.30564417085
 31
0.0
  0
INSERT
  5
19B89
330
163ED
100
AcDbEntity
  8
寸法
 62
     0
 48
50.0
370
    -2
100
AcDbBlockReference
  2
_DOTSMALL
 10
2799.673057123672
 20
10408.30564417085
 30
0.0
 41
100.0
 42
100.0
 43
100.0
 50
180.0
  0
INSERT
  5
19B8A
330
163ED
100
AcDbEntity
  8
寸法
 62
     0
 48
50.0
370
    -2
100
AcDbBlockReference
  2
_DOTSMALL
 10
2744.673057123638
 20
10408.30564417085
 30
0.0
 41
100.0
 42
100.0
 43
100.0
  0
MTEXT
  5
19B8B
330
163ED
100
AcDbEntity
  8
寸法
 62
     7
 48
50.0
100
AcDbMText
 10
2436.187775749399
 20
10508.30564417085
 30
0.0
 40
120.0
 41
0.0
 71
     5
 72
     1
  1
\A1;55
  7
STYLE1
 73
     1
 44
1.0
1001
ACAD
1000
MTEXTBEGIN
1070
    73
1070
     1
1070
    44
1040
1.0
1070
    74
1070
     0
1000
MTEXTEND
  0
POINT
  5
19B8C
330
163ED
100
AcDbEntity
  8
DEFPOINTS
 62
     0
 48
50.0
100
AcDbPoint
 10
2744.673057123638
 20
10192.49742454587
 30
0.0
  0
POINT
  5
19B8D
330
163ED
100
AcDbEntity
  8
DEFPOINTS
 62
     0
 48
50.0
100
AcDbPoint
 10
2799.673057123672
 20
10192.49742454587
 30
0.0
  0
POINT
  5
19B8E
330
163ED
100
AcDbEntity
  8
DEFPOINTS
 62
     0
 48
50.0
100
AcDbPoint
 10
2799.673057123672
 20
10408.30564417085
 30
0.0
  0
ENDBLK
  5
164BC
330
163ED
100
AcDbEntity
  8
0
 48
50.0
100
AcDbBlockEnd
  0
BLOCK
  5
164BD
330
163FB
100
AcDbEntity
  8
0
 48
50.0
100
AcDbBlockBegin
  2
*D13
 70
     1
 10
0.0
 20
0.0
 30
0.0
  3
*D13
  1

  0
LINE
  5
19AA3
330
163FB
100
AcDbEntity
  8
寸法
 62
     0
 48
50.0
370
    -2
100
AcDbLine
 10
7949.673057123674
 20
10212.49742454596
 30
0.0
 11
7949.673057123674
 21
10468.30564417095
 31
0.0
  0
LINE
  5
19AA4
330
163FB
100
AcDbEntity
  8
寸法
 62
     0
 48
50.0
370
    -2
100
AcDbLine
 10
8004.673057123673
 20
10212.49742454596
 30
0.0
 11
8004.673057123673
 21
10468.30564417095
 31
0.0
  0
LINE
  5
19AA5
330
163FB
100
AcDbEntity
  8
寸法
 62
     0
 48
50.0
370
    -2
100
AcDbLine
 10
7949.673057123674
 20
10408.30564417095
 30
0.0
 11
7849.673057123673
 21
10408.30564417095
 31
0.0
  0
LINE
  5
19AA6
330
163FB
100
AcDbEntity
  8
寸法
 62
     0
 48
50.0
370
    -2
100
AcDbLine
 10
8004.673057123673
 20
10408.30564417095
 30
0.0
 11
8421.643619872149
 21
10408.30564417095
 31
0.0
  0
LINE
  5
19AA7
330
163FB
100
AcDbEntity
  8
寸法
 62
     0
 48
50.0
370
    -2
100
AcDbLine
 10
7949.673057123674
 20
10408.30564417095
 30
0.0
 11
8004.673057123673
 21
10408.30564417095
 31
0.0
  0
INSERT
  5
19AA8
330
163FB
100
AcDbEntity
  8
寸法
 62
     0
 48
50.0
370
    -2
100
AcDbBlockReference
  2
_DOTSMALL
 10
7949.673057123674
 20
10408.30564417095
 30
0.0
 41
100.0
 42
100.0
 43
100.0
  0
INSERT
  5
19AA9
330
163FB
100
AcDbEntity
  8
寸法
 62
     0
 48
50.0
370
    -2
100
AcDbBlockReference
  2
_DOTSMALL
 10
8004.673057123673
 20
10408.30564417095
 30
0.0
 41
100.0
 42
100.0
 43
100.0
 50
180.0
  0
MTEXT
  5
19AAA
330
163FB
100
AcDbEntity
  8
寸法
 62
     7
 48
50.0
100
AcDbMText
 10
8313.158338497911
 20
10508.30564417095
 30
0.0
 40
120.0
 41
0.0
 71
     5
 72
     1
  1
\A1;55
  7
STYLE1
 73
     1
 44
1.0
1001
ACAD
1000
MTEXTBEGIN
1070
    73
1070
     1
1070
    44
1040
1.0
1070
    74
1070
     0
1000
MTEXTEND
  0
POINT
  5
19AAB
330
163FB
100
AcDbEntity
  8
DEFPOINTS
 62
     0
 48
50.0
100
AcDbPoint
 10
7949.673057123674
 20
10192.49742454596
 30
0.0
  0
POINT
  5
19AAC
330
163FB
100
AcDbEntity
  8
DEFPOINTS
 62
     0
 48
50.0
100
AcDbPoint
 10
8004.673057123673
 20
10192.49742454596
 30
0.0
  0
POINT
  5
19AAD
330
163FB
100
AcDbEntity
  8
DEFPOINTS
 62
     0
 48
50.0
100
AcDbPoint
 10
8004.673057123673
 20
10408.30564417095
 30
0.0
  0
ENDBLK
  5
164C9
330
163FB
100
AcDbEntity
  8
0
 48
50.0
100
AcDbBlockEnd
  0
BLOCK
  5
165B6
330
165B5
100
AcDbEntity
  8
0
 48
50.0
100
AcDbBlockBegin
  2
*D14
 70
     1
 10
0.0
 20
0.0
 30
0.0
  3
*D14
  1

  0
LINE
  5
19B79
330
165B5
100
AcDbEntity
  8
寸法
 62
     0
 48
50.0
370
    -2
100
AcDbLine
 10
2847.673057123666
 20
7148.497424545865
 30
0.0
 11
2847.673057123666
 21
6548.0666537797
 31
0.0
  0
LINE
  5
19B7A
330
165B5
100
AcDbEntity
  8
寸法
 62
     0
 48
50.0
370
    -2
100
AcDbLine
 10
2799.673057123662
 20
7122.497424545864
 30
0.0
 11
2799.673057123662
 21
6548.0666537797
 31
0.0
  0
LINE
  5
19B7B
330
165B5
100
AcDbEntity
  8
寸法
 62
     0
 48
50.0
370
    -2
100
AcDbLine
 10
2847.673057123666
 20
6608.0666537797
 30
0.0
 11
2947.673057123666
 21
6608.0666537797
 31
0.0
  0
LINE
  5
19B7C
330
165B5
100
AcDbEntity
  8
寸法
 62
     0
 48
50.0
370
    -2
100
AcDbLine
 10
2799.673057123662
 20
6608.0666537797
 30
0.0
 11
2699.673057123662
 21
6608.0666537797
 31
0.0
  0
MTEXT
  5
19B7D
330
165B5
100
AcDbEntity
  8
寸法
 62
     7
 48
50.0
100
AcDbMText
 10
3380.575028123723
 20
6708.0666537797
 30
0.0
 40
120.0
 41
0.0
 71
     5
 72
     1
  1
\A1;48
  7
STYLE1
 73
     1
 44
1.0
1001
ACAD
1000
MTEXTBEGIN
1070
    73
1070
     1
1070
    44
1040
1.0
1070
    74
1070
     0
1000
MTEXTEND
  0
LINE
  5
19B7E
330
165B5
100
AcDbEntity
  8
寸法
 62
     0
 48
50.0
370
    -2
100
AcDbLine
 10
2847.673057123666
 20
6608.0666537797
 30
0.0
 11
2799.673057123662
 21
6608.0666537797
 31
0.0
  0
INSERT
  5
19B7F
330
165B5
100
AcDbEntity
  8
寸法
 62
     0
 48
50.0
370
    -2
100
AcDbBlockReference
  2
_DOTSMALL
 10
2847.673057123666
 20
6608.0666537797
 30
0.0
 41
100.0
 42
100.0
 43
100.0
 50
180.0
  0
INSERT
  5
19B80
330
165B5
100
AcDbEntity
  8
寸法
 62
     0
 48
50.0
370
    -2
100
AcDbBlockReference
  2
_DOTSMALL
 10
2799.673057123662
 20
6608.0666537797
 30
0.0
 41
100.0
 42
100.0
 43
100.0
  0
POINT
  5
19B81
330
165B5
100
AcDbEntity
  8
DEFPOINTS
 62
     0
 48
50.0
100
AcDbPoint
 10
2847.673057123666
 20
7168.497424545865
 30
0.0
  0
POINT
  5
19B82
330
165B5
100
AcDbEntity
  8
DEFPOINTS
 62
     0
 48
50.0
100
AcDbPoint
 10
2799.673057123662
 20
7142.497424545864
 30
0.0
  0
POINT
  5
19B83
330
165B5
100
AcDbEntity
  8
DEFPOINTS
 62
     0
 48
50.0
100
AcDbPoint
 10
2799.673057123662
 20
6608.0666537797
 30
0.0
  0
ENDBLK
  5
165C3
330
165B5
100
AcDbEntity
  8
0
 48
50.0
100
AcDbBlockEnd
  0
BLOCK
  5
165C5
330
165C4
100
AcDbEntity
  8
0
 48
50.0
100
AcDbBlockBegin
  2
*D15
 70
     1
 10
0.0
 20
0.0
 30
0.0
  3
*D15
  1

  0
LINE
  5
1895D
330
165C4
100
AcDbEntity
  8
寸法
 62
     0
 48
50.0
370
    -2
100
AcDbLine
 10
5319.673057123649
 20
7122.497424545952
 30
0.0
 11
5319.673057123649
 21
6548.0666537797
 31
0.0
  0
LINE
  5
1895E
330
165C4
100
AcDbEntity
  8
寸法
 62
     0
 48
50.0
370
    -2
100
AcDbLine
 10
5271.673057123647
 20
7148.497424545865
 30
0.0
 11
5271.673057123647
 21
6548.0666537797
 31
0.0
  0
LINE
  5
1895F
330
165C4
100
AcDbEntity
  8
寸法
 62
     0
 48
50.0
370
    -2
100
AcDbLine
 10
5319.673057123649
 20
6608.0666537797
 30
0.0
 11
5419.673057123649
 21
6608.0666537797
 31
0.0
  0
LINE
  5
18960
330
165C4
100
AcDbEntity
  8
寸法
 62
     0
 48
50.0
370
    -2
100
AcDbLine
 10
5271.673057123647
 20
6608.0666537797
 30
0.0
 11
5171.673057123648
 21
6608.0666537797
 31
0.0
  0
MTEXT
  5
18961
330
165C4
100
AcDbEntity
  8
寸法
 62
     7
 48
50.0
100
AcDbMText
 10
5160.7101594749
 20
6708.0666537797
 30
0.0
 40
120.0
 41
0.0
 71
     5
 72
     1
  1
\A1;48
  7
STYLE1
 73
     1
 44
1.0
1001
ACAD
1000
MTEXTBEGIN
1070
    73
1070
     1
1070
    44
1040
1.0
1070
    74
1070
     0
1000
MTEXTEND
  0
LINE
  5
18962
330
165C4
100
AcDbEntity
  8
寸法
 62
     0
 48
50.0
370
    -2
100
AcDbLine
 10
5319.673057123649
 20
6608.0666537797
 30
0.0
 11
5271.673057123647
 21
6608.0666537797
 31
0.0
  0
INSERT
  5
18963
330
165C4
100
AcDbEntity
  8
寸法
 62
     0
 48
50.0
370
    -2
100
AcDbBlockReference
  2
_DOTSMALL
 10
5319.673057123649
 20
6608.0666537797
 30
0.0
 41
100.0
 42
100.0
 43
100.0
 50
180.0
  0
INSERT
  5
18964
330
165C4
100
AcDbEntity
  8
寸法
 62
     0
 48
50.0
370
    -2
100
AcDbBlockReference
  2
_DOTSMALL
 10
5271.673057123647
 20
6608.0666537797
 30
0.0
 41
100.0
 42
100.0
 43
100.0
  0
POINT
  5
18965
330
165C4
100
AcDbEntity
  8
DEFPOINTS
 62
     0
 48
50.0
100
AcDbPoint
 10
5319.673057123649
 20
7142.497424545952
 30
0.0
  0
POINT
  5
18966
330
165C4
100
AcDbEntity
  8
DEFPOINTS
 62
     0
 48
50.0
100
AcDbPoint
 10
5271.673057123647
 20
7168.497424545865
 30
0.0
  0
POINT
  5
18967
330
165C4
100
AcDbEntity
  8
DEFPOINTS
 62
     0
 48
50.0
100
AcDbPoint
 10
5271.673057123647
 20
6608.0666537797
 30
0.0
  0
ENDBLK
  5
165D2
330
165C4
100
AcDbEntity
  8
0
 48
50.0
100
AcDbBlockEnd
  0
BLOCK
  5
1663F
330
165EA
100
AcDbEntity
  8
0
 48
50.0
100
AcDbBlockBegin
  2
*D16
 70
     1
 10
0.0
 20
0.0
 30
0.0
  3
*D16
  1

  0
LINE
  5
18949
330
165EA
100
AcDbEntity
  8
寸法
 62
     0
 48
50.0
370
    -2
100
AcDbLine
 10
5429.673057123662
 20
7122.497424545864
 30
0.0
 11
5429.673057123662
 21
6548.066653779702
 31
0.0
  0
LINE
  5
1894A
330
165EA
100
AcDbEntity
  8
寸法
 62
     0
 48
50.0
370
    -2
100
AcDbLine
 10
5319.673057123649
 20
7122.497424545952
 30
0.0
 11
5319.673057123649
 21
6548.066653779702
 31
0.0
  0
LINE
  5
1894B
330
165EA
100
AcDbEntity
  8
寸法
 62
     0
 48
50.0
370
    -2
100
AcDbLine
 10
5429.673057123662
 20
6608.066653779701
 30
0.0
 11
5319.673057123649
 21
6608.066653779701
 31
0.0
  0
MTEXT
  5
1894C
330
165EA
100
AcDbEntity
  8
寸法
 62
     7
 48
50.0
100
AcDbMText
 10
5374.673057123656
 20
6456.37475874347
 30
0.0
 40
120.0
 41
0.0
 71
     5
 72
     1
  1
\A1;110
  7
STYLE1
 73
     1
 44
1.0
1001
ACAD
1000
MTEXTBEGIN
1070
    73
1070
     1
1070
    44
1040
1.0
1070
    74
1070
     0
1000
MTEXTEND
  0
INSERT
  5
1894D
330
165EA
100
AcDbEntity
  8
寸法
 62
     0
 48
50.0
370
    -2
100
AcDbBlockReference
  2
_DOTSMALL
 10
5429.673057123662
 20
6608.066653779701
 30
0.0
 41
100.0
 42
100.0
 43
100.0
  0
INSERT
  5
1894E
330
165EA
100
AcDbEntity
  8
寸法
 62
     0
 48
50.0
370
    -2
100
AcDbBlockReference
  2
_DOTSMALL
 10
5319.673057123649
 20
6608.066653779701
 30
0.0
 41
100.0
 42
100.0
 43
100.0
 50
180.0
  0
POINT
  5
1894F
330
165EA
100
AcDbEntity
  8
DEFPOINTS
 62
     0
 48
50.0
100
AcDbPoint
 10
5429.673057123662
 20
7142.497424545864
 30
0.0
  0
POINT
  5
18950
330
165EA
100
AcDbEntity
  8
DEFPOINTS
 62
     0
 48
50.0
100
AcDbPoint
 10
5319.673057123649
 20
7142.497424545952
 30
0.0
  0
POINT
  5
18951
330
165EA
100
AcDbEntity
  8
DEFPOINTS
 62
     0
 48
50.0
100
AcDbPoint
 10
5319.673057123649
 20
6608.066653779701
 30
0.0
  0
ENDBLK
  5
16649
330
165EA
100
AcDbEntity
  8
0
 48
50.0
100
AcDbBlockEnd
  0
BLOCK
  5
166D0
330
166CF
100
AcDbEntity
  8
0
 48
50.0
100
AcDbBlockBegin
  2
*D17
 70
     1
 10
0.0
 20
0.0
 30
0.0
  3
*D17
  1

  0
LINE
  5
1893E
330
166CF
100
AcDbEntity
  8
寸法
 62
     0
 48
50.0
370
    -2
100
AcDbLine
 10
5429.673057123672
 20
10212.49742454592
 30
0.0
 11
5429.673057123672
 21
10468.30564417096
 31
0.0
  0
LINE
  5
1893F
330
166CF
100
AcDbEntity
  8
寸法
 62
     0
 48
50.0
370
    -2
100
AcDbLine
 10
5319.673057123673
 20
10212.49742454591
 30
0.0
 11
5319.673057123673
 21
10468.30564417096
 31
0.0
  0
LINE
  5
18940
330
166CF
100
AcDbEntity
  8
寸法
 62
     0
 48
50.0
370
    -2
100
AcDbLine
 10
5429.673057123672
 20
10408.30564417096
 30
0.0
 11
5529.673057123672
 21
10408.30564417096
 31
0.0
  0
LINE
  5
18941
330
166CF
100
AcDbEntity
  8
寸法
 62
     0
 48
50.0
370
    -2
100
AcDbLine
 10
5319.673057123673
 20
10408.30564417096
 30
0.0
 11
5219.673057123674
 21
10408.30564417096
 31
0.0
  0
LINE
  5
18942
330
166CF
100
AcDbEntity
  8
寸法
 62
     0
 48
50.0
370
    -2
100
AcDbLine
 10
5429.673057123672
 20
10408.30564417096
 30
0.0
 11
5319.673057123673
 21
10408.30564417096
 31
0.0
  0
INSERT
  5
18943
330
166CF
100
AcDbEntity
  8
寸法
 62
     0
 48
50.0
370
    -2
100
AcDbBlockReference
  2
_DOTSMALL
 10
5429.673057123672
 20
10408.30564417096
 30
0.0
 41
100.0
 42
100.0
 43
100.0
 50
180.0
  0
INSERT
  5
18944
330
166CF
100
AcDbEntity
  8
寸法
 62
     0
 48
50.0
370
    -2
100
AcDbBlockReference
  2
_DOTSMALL
 10
5319.673057123673
 20
10408.30564417096
 30
0.0
 41
100.0
 42
100.0
 43
100.0
  0
MTEXT
  5
18945
330
166CF
100
AcDbEntity
  8
寸法
 62
     7
 48
50.0
100
AcDbMText
 10
5374.673057123673
 20
10508.30564417096
 30
0.0
 40
120.0
 41
0.0
 71
     5
 72
     1
  1
\A1;110
  7
STYLE1
 73
     1
 44
1.0
1001
ACAD
1000
MTEXTBEGIN
1070
    73
1070
     1
1070
    44
1040
1.0
1070
    74
1070
     0
1000
MTEXTEND
  0
POINT
  5
18946
330
166CF
100
AcDbEntity
  8
DEFPOINTS
 62
     0
 48
50.0
100
AcDbPoint
 10
5429.673057123672
 20
10192.49742454592
 30
0.0
  0
POINT
  5
18947
330
166CF
100
AcDbEntity
  8
DEFPOINTS
 62
     0
 48
50.0
100
AcDbPoint
 10
5319.673057123673
 20
10192.49742454591
 30
0.0
  0
POINT
  5
18948
330
166CF
100
AcDbEntity
  8
DEFPOINTS
 62
     0
 48
50.0
100
AcDbPoint
 10
5319.673057123673
 20
10408.30564417096
 30
0.0
  0
ENDBLK
  5
166DC
330
166CF
100
AcDbEntity
  8
0
 48
50.0
100
AcDbBlockEnd
  0
BLOCK
  5
1726C
330
16908
100
AcDbEntity
  8
0
 48
50.0
100
AcDbBlockBegin
  2
*D18
 70
     1
 10
0.0
 20
0.0
 30
0.0
  3
*D18
  1

  0
LINE
  5
19A9B
330
16908
100
AcDbEntity
  8
寸法
 62
     0
 48
50.0
370
    -2
100
AcDbLine
 10
8004.673057123673
 20
10212.49742454596
 30
0.0
 11
8004.673057123673
 21
10717.62711772726
 31
0.0
  0
LINE
  5
19A9C
330
16908
100
AcDbEntity
  8
寸法
 62
     0
 48
50.0
370
    -2
100
AcDbLine
 10
5374.673057123673
 20
10657.62711772726
 30
0.0
 11
8004.673057123673
 21
10657.62711772726
 31
0.0
  0
INSERT
  5
19A9D
330
16908
100
AcDbEntity
  8
寸法
 62
     0
 48
50.0
370
    -2
100
AcDbBlockReference
  2
_DOTSMALL
 10
5374.673057123673
 20
10657.62711772726
 30
0.0
 41
100.0
 42
100.0
 43
100.0
 50
180.0
  0
INSERT
  5
19A9E
330
16908
100
AcDbEntity
  8
寸法
 62
     0
 48
50.0
370
    -2
100
AcDbBlockReference
  2
_DOTSMALL
 10
8004.673057123673
 20
10657.62711772726
 30
0.0
 41
100.0
 42
100.0
 43
100.0
  0
MTEXT
  5
19A9F
330
16908
100
AcDbEntity
  8
寸法
 62
     7
 48
50.0
100
AcDbMText
 10
6689.673057123673
 20
10757.63892875088
 30
0.0
 40
120.0
 41
0.0
 71
     5
 72
     1
  1
\A1;2630
  7
STYLE1
 73
     1
 44
1.0
1001
ACAD
1000
MTEXTBEGIN
1070
    73
1070
     1
1070
    44
1040
1.0
1070
    74
1070
     0
1000
MTEXTEND
  0
POINT
  5
19AA0
330
16908
100
AcDbEntity
  8
DEFPOINTS
 62
     0
 48
50.0
100
AcDbPoint
 10
5374.673057123673
 20
10567.29355852891
 30
0.0
  0
POINT
  5
19AA1
330
16908
100
AcDbEntity
  8
DEFPOINTS
 62
     0
 48
50.0
100
AcDbPoint
 10
8004.673057123673
 20
10192.49742454596
 30
0.0
  0
POINT
  5
19AA2
330
16908
100
AcDbEntity
  8
DEFPOINTS
 62
     0
 48
50.0
100
AcDbPoint
 10
8004.673057123673
 20
10657.62711772726
 30
0.0
  0
ENDBLK
  5
17275
330
16908
100
AcDbEntity
  8
0
 48
50.0
100
AcDbBlockEnd
  0
BLOCK
  5
17BDC
330
17BD3
100
AcDbEntity
  8
0
 48
50.0
100
AcDbBlockBegin
  2
*D19
 70
     1
 10
0.0
 20
0.0
 30
0.0
  3
*D19
  1

  0
LINE
  5
19B5F
330
17BD3
100
AcDbEntity
  8
寸法
 62
     0
 48
50.0
370
    -2
100
AcDbLine
 10
2847.673057123666
 20
7148.497424545865
 30
0.0
 11
2847.673057123666
 21
6548.0666537797
 31
0.0
  0
LINE
  5
19B60
330
17BD3
100
AcDbEntity
  8
寸法
 62
     0
 48
50.0
370
    -2
100
AcDbLine
 10
5271.673057123647
 20
6608.0666537797
 30
0.0
 11
2847.673057123666
 21
6608.0666537797
 31
0.0
  0
INSERT
  5
19B61
330
17BD3
100
AcDbEntity
  8
寸法
 62
     0
 48
50.0
370
    -2
100
AcDbBlockReference
  2
_DOTSMALL
 10
5271.673057123647
 20
6608.0666537797
 30
0.0
 41
100.0
 42
100.0
 43
100.0
  0
INSERT
  5
19B62
330
17BD3
100
AcDbEntity
  8
寸法
 62
     0
 48
50.0
370
    -2
100
AcDbBlockReference
  2
_DOTSMALL
 10
2847.673057123666
 20
6608.0666537797
 30
0.0
 41
100.0
 42
100.0
 43
100.0
 50
180.0
  0
MTEXT
  5
19B63
330
17BD3
100
AcDbEntity
  8
寸法
 62
     7
 48
50.0
100
AcDbMText
 10
4059.673057123657
 20
6708.078464803323
 30
0.0
 40
120.0
 41
0.0
 71
     5
 72
     1
  1
\A1;有効開口部間口 2424
  7
STYLE1
 73
     1
 44
1.0
1001
ACAD
1000
MTEXTBEGIN
1070
    73
1070
     1
1070
    44
1040
1.0
1070
    74
1070
     0
1000
MTEXTEND
  0
POINT
  5
19B64
330
17BD3
100
AcDbEntity
  8
DEFPOINTS
 62
     0
 48
50.0
100
AcDbPoint
 10
5271.673057123647
 20
7168.497424545865
 30
0.0
  0
POINT
  5
19B65
330
17BD3
100
AcDbEntity
  8
DEFPOINTS
 62
     0
 48
50.0
100
AcDbPoint
 10
2847.673057123666
 20
7168.497424545865
 30
0.0
  0
POINT
  5
19B66
330
17BD3
100
AcDbEntity
  8
DEFPOINTS
 62
     0
 48
50.0
100
AcDbPoint
 10
2847.673057123666
 20
6608.0666537797
 30
0.0
  0
ENDBLK
  5
17BDD
330
17BD3
100
AcDbEntity
  8
0
 48
50.0
100
AcDbBlockEnd
  0
BLOCK
  5
17BE8
330
17BDE
100
AcDbEntity
  8
0
 48
50.0
100
AcDbBlockBegin
  2
*D20
 70
     1
 10
0.0
 20
0.0
 30
0.0
  3
*D20
  1

  0
LINE
  5
19BA7
330
17BDE
100
AcDbEntity
  8
寸法
 62
     0
 48
50.0
370
    -2
100
AcDbLine
 10
2799.673057123672
 20
10212.49742454587
 30
0.0
 11
2799.673057123672
 21
10468.30564417096
 31
0.0
  0
LINE
  5
19BA8
330
17BDE
100
AcDbEntity
  8
寸法
 62
     0
 48
50.0
370
    -2
100
AcDbLine
 10
5319.673057123673
 20
10212.49742454596
 30
0.0
 11
5319.673057123673
 21
10468.30564417096
 31
0.0
  0
LINE
  5
19BA9
330
17BDE
100
AcDbEntity
  8
寸法
 62
     0
 48
50.0
370
    -2
100
AcDbLine
 10
2799.673057123672
 20
10408.30564417096
 30
0.0
 11
5319.673057123673
 21
10408.30564417096
 31
0.0
  0
INSERT
  5
19BAA
330
17BDE
100
AcDbEntity
  8
寸法
 62
     0
 48
50.0
370
    -2
100
AcDbBlockReference
  2
_DOTSMALL
 10
2799.673057123672
 20
10408.30564417096
 30
0.0
 41
100.0
 42
100.0
 43
100.0
 50
180.0
  0
INSERT
  5
19BAB
330
17BDE
100
AcDbEntity
  8
寸法
 62
     0
 48
50.0
370
    -2
100
AcDbBlockReference
  2
_DOTSMALL
 10
5319.673057123673
 20
10408.30564417096
 30
0.0
 41
100.0
 42
100.0
 43
100.0
  0
MTEXT
  5
19BAC
330
17BDE
100
AcDbEntity
  8
寸法
 62
     7
 48
50.0
100
AcDbMText
 10
4059.673057123672
 20
10508.31745519459
 30
0.0
 40
120.0
 41
0.0
 71
     5
 72
     1
  1
\A1;6X420=2520
  7
STYLE1
 73
     1
 44
1.0
1001
ACAD
1000
MTEXTBEGIN
1070
    73
1070
     1
1070
    44
1040
1.0
1070
    74
1070
     0
1000
MTEXTEND
  0
POINT
  5
19BAD
330
17BDE
100
AcDbEntity
  8
DEFPOINTS
 62
     0
 48
50.0
100
AcDbPoint
 10
2799.673057123672
 20
10192.49742454587
 30
0.0
  0
POINT
  5
19BAE
330
17BDE
100
AcDbEntity
  8
DEFPOINTS
 62
     0
 48
50.0
100
AcDbPoint
 10
5319.673057123673
 20
10192.49742454596
 30
0.0
  0
POINT
  5
19BAF
330
17BDE
100
AcDbEntity
  8
DEFPOINTS
 62
     0
 48
50.0
100
AcDbPoint
 10
5319.673057123673
 20
10408.30564417096
 30
0.0
  0
ENDBLK
  5
17BE9
330
17BDE
100
AcDbEntity
  8
0
 48
50.0
100
AcDbBlockEnd
  0
BLOCK
  5
17C02
330
17BF8
100
AcDbEntity
  8
0
 48
50.0
100
AcDbBlockBegin
  2
*D21
 70
     1
 10
0.0
 20
0.0
 30
0.0
  3
*D21
  1

  0
LINE
  5
19B70
330
17BF8
100
AcDbEntity
  8
寸法
 62
     0
 48
50.0
370
    -2
100
AcDbLine
 10
2744.673057123638
 20
10212.49742454583
 30
0.0
 11
2744.673057123638
 21
10717.62711772726
 31
0.0
  0
LINE
  5
19B71
330
17BF8
100
AcDbEntity
  8
寸法
 62
     0
 48
50.0
370
    -2
100
AcDbLine
 10
5374.673057123673
 20
10587.29355852891
 30
0.0
 11
5374.673057123673
 21
10717.62711772726
 31
0.0
  0
LINE
  5
19B72
330
17BF8
100
AcDbEntity
  8
寸法
 62
     0
 48
50.0
370
    -2
100
AcDbLine
 10
2744.673057123638
 20
10657.62711772726
 30
0.0
 11
5374.673057123673
 21
10657.62711772726
 31
0.0
  0
INSERT
  5
19B73
330
17BF8
100
AcDbEntity
  8
寸法
 62
     0
 48
50.0
370
    -2
100
AcDbBlockReference
  2
_DOTSMALL
 10
2744.673057123638
 20
10657.62711772726
 30
0.0
 41
100.0
 42
100.0
 43
100.0
 50
180.0
  0
INSERT
  5
19B74
330
17BF8
100
AcDbEntity
  8
寸法
 62
     0
 48
50.0
370
    -2
100
AcDbBlockReference
  2
_DOTSMALL
 10
5374.673057123673
 20
10657.62711772726
 30
0.0
 41
100.0
 42
100.0
 43
100.0
  0
MTEXT
  5
19B75
330
17BF8
100
AcDbEntity
  8
寸法
 62
     7
 48
50.0
100
AcDbMText
 10
4059.673057123656
 20
10757.63892875088
 30
0.0
 40
120.0
 41
0.0
 71
     5
 72
     1
  1
\A1;2630
  7
STYLE1
 73
     1
 44
1.0
1001
ACAD
1000
MTEXTBEGIN
1070
    73
1070
     1
1070
    44
1040
1.0
1070
    74
1070
     0
1000
MTEXTEND
  0
POINT
  5
19B76
330
17BF8
100
AcDbEntity
  8
DEFPOINTS
 62
     0
 48
50.0
100
AcDbPoint
 10
2744.673057123638
 20
10192.49742454583
 30
0.0
  0
POINT
  5
19B77
330
17BF8
100
AcDbEntity
  8
DEFPOINTS
 62
     0
 48
50.0
100
AcDbPoint
 10
5374.673057123673
 20
10567.29355852891
 30
0.0
  0
POINT
  5
19B78
330
17BF8
100
AcDbEntity
  8
DEFPOINTS
 62
     0
 48
50.0
100
AcDbPoint
 10
5374.673057123673
 20
10657.62711772726
 30
0.0
  0
ENDBLK
  5
17C03
330
17BF8
100
AcDbEntity
  8
0
 48
50.0
100
AcDbBlockEnd
  0
BLOCK
  5
18FE7
330
18FDD
100
AcDbEntity
  8
0
 48
50.0
100
AcDbBlockBegin
  2
*D22
 70
     1
 10
0.0
 20
0.0
 30
0.0
  3
*D22
  1

  0
LINE
  5
19A92
330
18FDD
100
AcDbEntity
  8
寸法
 62
     0
 48
50.0
370
    -2
100
AcDbLine
 10
10675.50894806609
 20
4342.359204196226
 30
0.0
 11
9791.758818882838
 21
4342.359204196227
 31
0.0
  0
LINE
  5
19A93
330
18FDD
100
AcDbEntity
  8
寸法
 62
     0
 48
50.0
370
    -2
100
AcDbLine
 10
10675.50894806609
 20
2252.359204196224
 30
0.0
 11
9791.758818882836
 21
2252.359204196224
 31
0.0
  0
LINE
  5
19A94
330
18FDD
100
AcDbEntity
  8
寸法
 62
     0
 48
50.0
370
    -2
100
AcDbLine
 10
9851.758818882839
 20
4342.359204196227
 30
0.0
 11
9851.758818882835
 21
2252.359204196224
 31
0.0
  0
INSERT
  5
19A95
330
18FDD
100
AcDbEntity
  8
寸法
 62
     0
 48
50.0
370
    -2
100
AcDbBlockReference
  2
_DOTSMALL
 10
9851.758818882839
 20
4342.359204196227
 30
0.0
 41
100.0
 42
100.0
 43
100.0
 50
90.0
  0
INSERT
  5
19A96
330
18FDD
100
AcDbEntity
  8
寸法
 62
     0
 48
50.0
370
    -2
100
AcDbBlockReference
  2
_DOTSMALL
 10
9851.758818882835
 20
2252.359204196224
 30
0.0
 41
100.0
 42
100.0
 43
100.0
 50
270.0
  0
MTEXT
  5
19A97
330
18FDD
100
AcDbEntity
  8
寸法
 62
     7
 48
50.0
100
AcDbMText
 10
9751.747007859215
 20
3297.359204196227
 30
0.0
 40
120.0
 41
0.0
 71
     5
 72
     1
  1
\A1;2090
  7
STYLE1
 11
0.0000000000000001
 21
1.0
 31
0.0
 73
     1
 44
1.0
1001
ACAD
1000
MTEXTBEGIN
1070
    73
1070
     1
1070
    44
1040
1.0
1070
    74
1070
     0
1000
MTEXTEND
  0
POINT
  5
19A98
330
18FDD
100
AcDbEntity
  8
DEFPOINTS
 62
     0
 48
50.0
100
AcDbPoint
 10
10695.50894806609
 20
4342.359204196226
 30
0.0
  0
POINT
  5
19A99
330
18FDD
100
AcDbEntity
  8
DEFPOINTS
 62
     0
 48
50.0
100
AcDbPoint
 10
10695.50894806609
 20
2252.359204196224
 30
0.0
  0
POINT
  5
19A9A
330
18FDD
100
AcDbEntity
  8
DEFPOINTS
 62
     0
 48
50.0
100
AcDbPoint
 10
9851.758818882835
 20
2252.359204196224
 30
0.0
  0
ENDBLK
  5
18FE8
330
18FDD
100
AcDbEntity
  8
0
 48
50.0
100
AcDbBlockEnd
  0
BLOCK
  5
18FF3
330
18FE9
100
AcDbEntity
  8
0
 48
50.0
100
AcDbBlockBegin
  2
*D23
 70
     1
 10
0.0
 20
0.0
 30
0.0
  3
*D23
  1

  0
LINE
  5
19A89
330
18FE9
100
AcDbEntity
  8
寸法
 62
     0
 48
50.0
370
    -2
100
AcDbLine
 10
10675.50894806609
 20
2202.359204196224
 30
0.0
 11
9491.758818882834
 21
2202.359204196224
 31
0.0
  0
LINE
  5
19A8A
330
18FE9
100
AcDbEntity
  8
寸法
 62
     0
 48
50.0
370
    -2
100
AcDbLine
 10
10615.50894806609
 20
4577.35920419623
 30
0.0
 11
9491.758818882836
 21
4577.35920419623
 31
0.0
  0
LINE
  5
19A8B
330
18FE9
100
AcDbEntity
  8
寸法
 62
     0
 48
50.0
370
    -2
100
AcDbLine
 10
9551.758818882834
 20
2202.359204196224
 30
0.0
 11
9551.758818882836
 21
4577.35920419623
 31
0.0
  0
INSERT
  5
19A8C
330
18FE9
100
AcDbEntity
  8
寸法
 62
     0
 48
50.0
370
    -2
100
AcDbBlockReference
  2
_DOTSMALL
 10
9551.758818882834
 20
2202.359204196224
 30
0.0
 41
100.0
 42
100.0
 43
100.0
 50
270.0
  0
INSERT
  5
19A8D
330
18FE9
100
AcDbEntity
  8
寸法
 62
     0
 48
50.0
370
    -2
100
AcDbBlockReference
  2
_DOTSMALL
 10
9551.758818882836
 20
4577.35920419623
 30
0.0
 41
100.0
 42
100.0
 43
100.0
 50
90.0
  0
MTEXT
  5
19A8E
330
18FE9
100
AcDbEntity
  8
寸法
 62
     7
 48
50.0
100
AcDbMText
 10
9451.747007859212
 20
3389.859204196229
 30
0.0
 40
120.0
 41
0.0
 71
     5
 72
     1
  1
\A1;2375
  7
STYLE1
 11
0.0000000000000001
 21
1.0
 31
0.0
 73
     1
 44
1.0
1001
ACAD
1000
MTEXTBEGIN
1070
    73
1070
     1
1070
    44
1040
1.0
1070
    74
1070
     0
1000
MTEXTEND
  0
POINT
  5
19A8F
330
18FE9
100
AcDbEntity
  8
DEFPOINTS
 62
     0
 48
50.0
100
AcDbPoint
 10
10695.50894806609
 20
2202.359204196224
 30
0.0
  0
POINT
  5
19A90
330
18FE9
100
AcDbEntity
  8
DEFPOINTS
 62
     0
 48
50.0
100
AcDbPoint
 10
10635.50894806609
 20
4577.35920419623
 30
0.0
  0
POINT
  5
19A91
330
18FE9
100
AcDbEntity
  8
DEFPOINTS
 62
     0
 48
50.0
100
AcDbPoint
 10
9551.758818882836
 20
4577.35920419623
 30
0.0
  0
ENDBLK
  5
18FF4
330
18FE9
100
AcDbEntity
  8
0
 48
50.0
100
AcDbBlockEnd
  0
BLOCK
  5
18FFF
330
18FF5
100
AcDbEntity
  8
0
 48
50.0
100
AcDbBlockBegin
  2
*D24
 70
     1
 10
0.0
 20
0.0
 30
0.0
  3
*D24
  1

  0
LINE
  5
19A80
330
18FF5
100
AcDbEntity
  8
寸法
 62
     0
 48
50.0
370
    -2
100
AcDbLine
 10
13765.50894806609
 20
2202.359204196231
 30
0.0
 11
14510.43610603822
 21
2202.359204196231
 31
0.0
  0
LINE
  5
19A81
330
18FF5
100
AcDbEntity
  8
寸法
 62
     0
 48
50.0
370
    -2
100
AcDbLine
 10
13845.50894806609
 20
4522.359204196231
 30
0.0
 11
14510.43610603822
 21
4522.35920419623
 31
0.0
  0
LINE
  5
19A82
330
18FF5
100
AcDbEntity
  8
寸法
 62
     0
 48
50.0
370
    -2
100
AcDbLine
 10
14450.43610603821
 20
2202.359204196231
 30
0.0
 11
14450.43610603822
 21
4522.35920419623
 31
0.0
  0
INSERT
  5
19A83
330
18FF5
100
AcDbEntity
  8
寸法
 62
     0
 48
50.0
370
    -2
100
AcDbBlockReference
  2
_DOTSMALL
 10
14450.43610603821
 20
2202.359204196231
 30
0.0
 41
100.0
 42
100.0
 43
100.0
 50
270.0
  0
INSERT
  5
19A84
330
18FF5
100
AcDbEntity
  8
寸法
 62
     0
 48
50.0
370
    -2
100
AcDbBlockReference
  2
_DOTSMALL
 10
14450.43610603822
 20
4522.35920419623
 30
0.0
 41
100.0
 42
100.0
 43
100.0
 50
90.0
  0
MTEXT
  5
19A85
330
18FF5
100
AcDbEntity
  8
寸法
 62
     7
 48
50.0
100
AcDbMText
 10
14350.42429501459
 20
3362.359204196233
 30
0.0
 40
120.0
 41
0.0
 71
     5
 72
     1
  1
\A1;2320
  7
STYLE1
 11
0.0000000000000001
 21
1.0
 31
0.0
 73
     1
 44
1.0
1001
ACAD
1000
MTEXTBEGIN
1070
    73
1070
     1
1070
    44
1040
1.0
1070
    74
1070
     0
1000
MTEXTEND
  0
POINT
  5
19A86
330
18FF5
100
AcDbEntity
  8
DEFPOINTS
 62
     0
 48
50.0
100
AcDbPoint
 10
13745.50894806609
 20
2202.359204196231
 30
0.0
  0
POINT
  5
19A87
330
18FF5
100
AcDbEntity
  8
DEFPOINTS
 62
     0
 48
50.0
100
AcDbPoint
 10
13825.50894806609
 20
4522.359204196231
 30
0.0
  0
POINT
  5
19A88
330
18FF5
100
AcDbEntity
  8
DEFPOINTS
 62
     0
 48
50.0
100
AcDbPoint
 10
14450.43610603822
 20
4522.35920419623
 30
0.0
  0
ENDBLK
  5
19000
330
18FF5
100
AcDbEntity
  8
0
 48
50.0
100
AcDbBlockEnd
  0
BLOCK
  5
1900D
330
19001
100
AcDbEntity
  8
0
 48
50.0
100
AcDbBlockBegin
  2
*D25
 70
     1
 10
0.0
 20
0.0
 30
0.0
  3
*D25
  1

  0
LINE
  5
19A75
330
19001
100
AcDbEntity
  8
寸法
 62
     0
 48
50.0
370
    -2
100
AcDbLine
 10
10675.50894806609
 20
2252.359204196229
 30
0.0
 11
9791.758818882836
 21
2252.359204196229
 31
0.0
  0
LINE
  5
19A76
330
19001
100
AcDbEntity
  8
寸法
 62
     0
 48
50.0
370
    -2
100
AcDbLine
 10
10620.50894806609
 20
2202.359204196229
 30
0.0
 11
9791.758818882836
 21
2202.359204196229
 31
0.0
  0
LINE
  5
19A77
330
19001
100
AcDbEntity
  8
寸法
 62
     0
 48
50.0
370
    -2
100
AcDbLine
 10
9851.758818882835
 20
2252.359204196229
 30
0.0
 11
9851.758818882835
 21
2352.359204196229
 31
0.0
  0
LINE
  5
19A78
330
19001
100
AcDbEntity
  8
寸法
 62
     0
 48
50.0
370
    -2
100
AcDbLine
 10
9851.758818882835
 20
2202.359204196229
 30
0.0
 11
9851.758818882835
 21
1790.264716007249
 31
0.0
  0
LINE
  5
19A79
330
19001
100
AcDbEntity
  8
寸法
 62
     0
 48
50.0
370
    -2
100
AcDbLine
 10
9851.758818882835
 20
2252.359204196229
 30
0.0
 11
9851.758818882835
 21
2202.359204196229
 31
0.0
  0
INSERT
  5
19A7A
330
19001
100
AcDbEntity
  8
寸法
 62
     0
 48
50.0
370
    -2
100
AcDbBlockReference
  2
_DOTSMALL
 10
9851.758818882835
 20
2252.359204196229
 30
0.0
 41
100.0
 42
100.0
 43
100.0
 50
270.0
  0
INSERT
  5
19A7B
330
19001
100
AcDbEntity
  8
寸法
 62
     0
 48
50.0
370
    -2
100
AcDbBlockReference
  2
_DOTSMALL
 10
9851.758818882835
 20
2202.359204196229
 30
0.0
 41
100.0
 42
100.0
 43
100.0
 50
90.0
  0
MTEXT
  5
19A7C
330
19001
100
AcDbEntity
  8
寸法
 62
     7
 48
50.0
100
AcDbMText
 10
9751.758818882835
 20
1896.311960101739
 30
0.0
 40
120.0
 41
0.0
 71
     5
 72
     1
  1
\A1;50
  7
STYLE1
 11
0.0000000000000001
 21
1.0
 31
0.0
 73
     1
 44
1.0
1001
ACAD
1000
MTEXTBEGIN
1070
    73
1070
     1
1070
    44
1040
1.0
1070
    74
1070
     0
1000
MTEXTEND
  0
POINT
  5
19A7D
330
19001
100
AcDbEntity
  8
DEFPOINTS
 62
     0
 48
50.0
100
AcDbPoint
 10
10695.50894806609
 20
2252.359204196229
 30
0.0
  0
POINT
  5
19A7E
330
19001
100
AcDbEntity
  8
DEFPOINTS
 62
     0
 48
50.0
100
AcDbPoint
 10
10640.50894806609
 20
2202.359204196229
 30
0.0
  0
POINT
  5
19A7F
330
19001
100
AcDbEntity
  8
DEFPOINTS
 62
     0
 48
50.0
100
AcDbPoint
 10
9851.758818882835
 20
2202.359204196229
 30
0.0
  0
ENDBLK
  5
1900E
330
19001
100
AcDbEntity
  8
0
 48
50.0
100
AcDbBlockEnd
  0
BLOCK
  5
19019
330
1900F
100
AcDbEntity
  8
0
 48
50.0
100
AcDbBlockBegin
  2
*D26
 70
     1
 10
0.0
 20
0.0
 30
0.0
  3
*D26
  1

  0
LINE
  5
19A6C
330
1900F
100
AcDbEntity
  8
寸法
 62
     0
 48
50.0
370
    -2
100
AcDbLine
 10
13745.50894806609
 20
4544.169883807884
 30
0.0
 11
13745.50894806609
 21
5036.016657775536
 31
0.0
  0
LINE
  5
19A6D
330
1900F
100
AcDbEntity
  8
寸法
 62
     0
 48
50.0
370
    -2
100
AcDbLine
 10
10695.50894806609
 20
4593.360822319206
 30
0.0
 11
10695.50894806609
 21
5036.016657775536
 31
0.0
  0
LINE
  5
19A6E
330
1900F
100
AcDbEntity
  8
寸法
 62
     0
 48
50.0
370
    -2
100
AcDbLine
 10
13745.50894806609
 20
4976.016657775535
 30
0.0
 11
10695.50894806609
 21
4976.016657775535
 31
0.0
  0
INSERT
  5
19A6F
330
1900F
100
AcDbEntity
  8
寸法
 62
     0
 48
50.0
370
    -2
100
AcDbBlockReference
  2
_DOTSMALL
 10
13745.50894806609
 20
4976.016657775535
 30
0.0
 41
100.0
 42
100.0
 43
100.0
  0
INSERT
  5
19A70
330
1900F
100
AcDbEntity
  8
寸法
 62
     0
 48
50.0
370
    -2
100
AcDbBlockReference
  2
_DOTSMALL
 10
10695.50894806609
 20
4976.016657775535
 30
0.0
 41
100.0
 42
100.0
 43
100.0
 50
180.0
  0
MTEXT
  5
19A71
330
1900F
100
AcDbEntity
  8
寸法
 62
     7
 48
50.0
100
AcDbMText
 10
12220.50894806609
 20
5076.016657775536
 30
0.0
 40
120.0
 41
0.0
 71
     5
 72
     1
  1
\A1;柱外寸法3050
  7
STYLE1
 73
     1
 44
1.0
1001
ACAD
1000
MTEXTBEGIN
1070
    73
1070
     1
1070
    44
1040
1.0
1070
    74
1070
     0
1000
MTEXTEND
  0
POINT
  5
19A72
330
1900F
100
AcDbEntity
  8
DEFPOINTS
 62
     0
 48
50.0
100
AcDbPoint
 10
13745.50894806609
 20
4524.169883807885
 30
0.0
  0
POINT
  5
19A73
330
1900F
100
AcDbEntity
  8
DEFPOINTS
 62
     0
 48
50.0
100
AcDbPoint
 10
10695.50894806609
 20
4573.360822319205
 30
0.0
  0
POINT
  5
19A74
330
1900F
100
AcDbEntity
  8
DEFPOINTS
 62
     0
 48
50.0
100
AcDbPoint
 10
10695.50894806609
 20
4976.016657775535
 30
0.0
  0
ENDBLK
  5
1901A
330
1900F
100
AcDbEntity
  8
0
 48
50.0
100
AcDbBlockEnd
  0
BLOCK
  5
19027
330
1901B
100
AcDbEntity
  8
0
 48
50.0
100
AcDbBlockBegin
  2
*D27
 70
     1
 10
0.0
 20
0.0
 30
0.0
  3
*D27
  1

  0
LINE
  5
19A61
330
1901B
100
AcDbEntity
  8
寸法
 62
     0
 48
50.0
370
    -2
100
AcDbLine
 10
10695.50894806609
 20
4593.360822319206
 30
0.0
 11
10695.50894806609
 21
5036.016657775533
 31
0.0
  0
LINE
  5
19A62
330
1901B
100
AcDbEntity
  8
寸法
 62
     0
 48
50.0
370
    -2
100
AcDbLine
 10
10635.50894806609
 20
4597.359204196234
 30
0.0
 11
10635.50894806609
 21
5036.016657775533
 31
0.0
  0
LINE
  5
19A63
330
1901B
100
AcDbEntity
  8
寸法
 62
     0
 48
50.0
370
    -2
100
AcDbLine
 10
10695.50894806609
 20
4976.016657775534
 30
0.0
 11
10795.50894806609
 21
4976.016657775534
 31
0.0
  0
LINE
  5
19A64
330
1901B
100
AcDbEntity
  8
寸法
 62
     0
 48
50.0
370
    -2
100
AcDbLine
 10
10635.50894806609
 20
4976.016657775534
 30
0.0
 11
10216.23335751491
 21
4976.016657775534
 31
0.0
  0
LINE
  5
19A65
330
1901B
100
AcDbEntity
  8
寸法
 62
     0
 48
50.0
370
    -2
100
AcDbLine
 10
10695.50894806609
 20
4976.016657775534
 30
0.0
 11
10635.50894806609
 21
4976.016657775534
 31
0.0
  0
INSERT
  5
19A66
330
1901B
100
AcDbEntity
  8
寸法
 62
     0
 48
50.0
370
    -2
100
AcDbBlockReference
  2
_DOTSMALL
 10
10695.50894806609
 20
4976.016657775534
 30
0.0
 41
100.0
 42
100.0
 43
100.0
 50
180.0
  0
INSERT
  5
19A67
330
1901B
100
AcDbEntity
  8
寸法
 62
     0
 48
50.0
370
    -2
100
AcDbBlockReference
  2
_DOTSMALL
 10
10635.50894806609
 20
4976.016657775534
 30
0.0
 41
100.0
 42
100.0
 43
100.0
  0
MTEXT
  5
19A68
330
1901B
100
AcDbEntity
  8
寸法
 62
     7
 48
50.0
100
AcDbMText
 10
10325.8711527905
 20
5076.016657775533
 30
0.0
 40
120.0
 41
0.0
 71
     5
 72
     1
  1
\A1;60
  7
STYLE1
 73
     1
 44
1.0
1001
ACAD
1000
MTEXTBEGIN
1070
    73
1070
     1
1070
    44
1040
1.0
1070
    74
1070
     0
1000
MTEXTEND
  0
POINT
  5
19A69
330
1901B
100
AcDbEntity
  8
DEFPOINTS
 62
     0
 48
50.0
100
AcDbPoint
 10
10695.50894806609
 20
4573.360822319205
 30
0.0
  0
POINT
  5
19A6A
330
1901B
100
AcDbEntity
  8
DEFPOINTS
 62
     0
 48
50.0
100
AcDbPoint
 10
10635.50894806609
 20
4577.359204196233
 30
0.0
  0
POINT
  5
19A6B
330
1901B
100
AcDbEntity
  8
DEFPOINTS
 62
     0
 48
50.0
100
AcDbPoint
 10
10635.50894806609
 20
4976.016657775534
 30
0.0
  0
ENDBLK
  5
19028
330
1901B
100
AcDbEntity
  8
0
 48
50.0
100
AcDbBlockEnd
  0
BLOCK
  5
19033
330
19029
100
AcDbEntity
  8
0
 48
50.0
100
AcDbBlockBegin
  2
*D28
 70
     1
 10
0.0
 20
0.0
 30
0.0
  3
*D28
  1

  0
LINE
  5
19A58
330
19029
100
AcDbEntity
  8
寸法
 62
     0
 48
50.0
370
    -2
100
AcDbLine
 10
13825.50894806609
 20
4542.35920419623
 30
0.0
 11
13825.50894806609
 21
5266.130250561811
 31
0.0
  0
LINE
  5
19A59
330
19029
100
AcDbEntity
  8
寸法
 62
     0
 48
50.0
370
    -2
100
AcDbLine
 10
10635.50894806609
 20
4597.359204196234
 30
0.0
 11
10635.50894806609
 21
5266.130250561811
 31
0.0
  0
LINE
  5
19A5A
330
19029
100
AcDbEntity
  8
寸法
 62
     0
 48
50.0
370
    -2
100
AcDbLine
 10
13825.50894806609
 20
5206.130250561812
 30
0.0
 11
10635.50894806609
 21
5206.130250561812
 31
0.0
  0
INSERT
  5
19A5B
330
19029
100
AcDbEntity
  8
寸法
 62
     0
 48
50.0
370
    -2
100
AcDbBlockReference
  2
_DOTSMALL
 10
13825.50894806609
 20
5206.130250561812
 30
0.0
 41
100.0
 42
100.0
 43
100.0
  0
INSERT
  5
19A5C
330
19029
100
AcDbEntity
  8
寸法
 62
     0
 48
50.0
370
    -2
100
AcDbBlockReference
  2
_DOTSMALL
 10
10635.50894806609
 20
5206.130250561812
 30
0.0
 41
100.0
 42
100.0
 43
100.0
 50
180.0
  0
MTEXT
  5
19A5D
330
19029
100
AcDbEntity
  8
寸法
 62
     7
 48
50.0
100
AcDbMText
 10
12230.50894806609
 20
5306.130250561811
 30
0.0
 40
120.0
 41
0.0
 71
     5
 72
     1
  1
\A1;3190
  7
STYLE1
 73
     1
 44
1.0
1001
ACAD
1000
MTEXTBEGIN
1070
    73
1070
     1
1070
    44
1040
1.0
1070
    74
1070
     0
1000
MTEXTEND
  0
POINT
  5
19A5E
330
19029
100
AcDbEntity
  8
DEFPOINTS
 62
     0
 48
50.0
100
AcDbPoint
 10
13825.50894806609
 20
4522.359204196231
 30
0.0
  0
POINT
  5
19A5F
330
19029
100
AcDbEntity
  8
DEFPOINTS
 62
     0
 48
50.0
100
AcDbPoint
 10
10635.50894806609
 20
4577.359204196233
 30
0.0
  0
POINT
  5
19A60
330
19029
100
AcDbEntity
  8
DEFPOINTS
 62
     0
 48
50.0
100
AcDbPoint
 10
10635.50894806609
 20
5206.130250561812
 30
0.0
  0
ENDBLK
  5
19034
330
19029
100
AcDbEntity
  8
0
 48
50.0
100
AcDbBlockEnd
  0
BLOCK
  5
19040
330
19035
100
AcDbEntity
  8
0
 48
50.0
100
AcDbBlockBegin
  2
*D29
 70
     1
 10
0.0
 20
0.0
 30
0.0
  3
*D29
  1

  0
LINE
  5
19A4E
330
19035
100
AcDbEntity
  8
寸法
 62
     0
 48
50.0
370
    -2
100
AcDbLine
 10
13745.50894806609
 20
4544.169883807884
 30
0.0
 11
13745.50894806609
 21
5036.016657775536
 31
0.0
  0
LINE
  5
19A4F
330
19035
100
AcDbEntity
  8
寸法
 62
     0
 48
50.0
370
    -2
100
AcDbLine
 10
13825.50894806609
 20
4542.359204196233
 30
0.0
 11
13825.50894806609
 21
5036.016657775536
 31
0.0
  0
LINE
  5
19A50
330
19035
100
AcDbEntity
  8
寸法
 62
     0
 48
50.0
370
    -2
100
AcDbLine
 10
13745.50894806609
 20
4976.016657775535
 30
0.0
 11
13825.50894806609
 21
4976.016657775535
 31
0.0
  0
LINE
  5
19A51
330
19035
100
AcDbEntity
  8
寸法
 62
     0
 48
50.0
370
    -2
100
AcDbLine
 10
13825.50894806609
 20
4976.016657775535
 30
0.0
 11
14137.60343625507
 21
4976.016657775535
 31
0.0
  0
INSERT
  5
19A52
330
19035
100
AcDbEntity
  8
寸法
 62
     0
 48
50.0
370
    -2
100
AcDbBlockReference
  2
_DOTSMALL
 10
13745.50894806609
 20
4976.016657775535
 30
0.0
 41
100.0
 42
100.0
 43
100.0
 50
180.0
  0
INSERT
  5
19A53
330
19035
100
AcDbEntity
  8
寸法
 62
     0
 48
50.0
370
    -2
100
AcDbBlockReference
  2
_DOTSMALL
 10
13825.50894806609
 20
4976.016657775535
 30
0.0
 41
100.0
 42
100.0
 43
100.0
  0
MTEXT
  5
19A54
330
19035
100
AcDbEntity
  8
寸法
 62
     7
 48
50.0
100
AcDbMText
 10
14031.55619216058
 20
5076.016657775536
 30
0.0
 40
120.0
 41
0.0
 71
     5
 72
     1
  1
\A1;80
  7
STYLE1
 73
     1
 44
1.0
1001
ACAD
1000
MTEXTBEGIN
1070
    73
1070
     1
1070
    44
1040
1.0
1070
    74
1070
     0
1000
MTEXTEND
  0
POINT
  5
19A55
330
19035
100
AcDbEntity
  8
DEFPOINTS
 62
     0
 48
50.0
100
AcDbPoint
 10
13745.50894806609
 20
4524.169883807885
 30
0.0
  0
POINT
  5
19A56
330
19035
100
AcDbEntity
  8
DEFPOINTS
 62
     0
 48
50.0
100
AcDbPoint
 10
13825.50894806609
 20
4522.359204196233
 30
0.0
  0
POINT
  5
19A57
330
19035
100
AcDbEntity
  8
DEFPOINTS
 62
     0
 48
50.0
100
AcDbPoint
 10
13825.50894806609
 20
4976.016657775535
 30
0.0
  0
ENDBLK
  5
19041
330
19035
100
AcDbEntity
  8
0
 48
50.0
100
AcDbBlockEnd
  0
BLOCK
  5
1904D
330
19042
100
AcDbEntity
  8
0
 48
50.0
100
AcDbBlockBegin
  2
*D30
 70
     1
 10
0.0
 20
0.0
 30
0.0
  3
*D30
  1

  0
LINE
  5
19A44
330
19042
100
AcDbEntity
  8
寸法
 62
     0
 48
50.0
370
    -2
100
AcDbLine
 10
10634.91323435719
 20
4576.656911265891
 30
0.0
 11
10018.9787952519
 21
4594.371061540222
 31
0.0
  0
LINE
  5
19A45
330
19042
100
AcDbEntity
  8
寸法
 62
     0
 48
50.0
370
    -2
100
AcDbLine
 10
10630.85977880057
 20
4435.715187500178
 30
0.0
 11
10014.92533969527
 21
4453.429337774508
 31
0.0
  0
LINE
  5
19A46
330
19042
100
AcDbEntity
  8
寸法
 62
     0
 48
50.0
370
    -2
100
AcDbLine
 10
10074.9005412977
 20
4451.70446306956
 30
0.0
 11
10078.95399685433
 21
4592.646186835274
 31
0.0
  0
LINE
  5
19A47
330
19042
100
AcDbEntity
  8
寸法
 62
     0
 48
50.0
370
    -2
100
AcDbLine
 10
10078.95399685433
 20
4592.646186835274
 30
0.0
 11
10089.30324508401
 21
4952.49739644986
 31
0.0
  0
INSERT
  5
19A48
330
19042
100
AcDbEntity
  8
寸法
 62
     0
 48
50.0
370
    -2
100
AcDbBlockReference
  2
_DOTSMALL
 10
10074.9005412977
 20
4451.70446306956
 30
0.0
 41
100.0
 42
100.0
 43
100.0
 50
268.3526390256378
  0
INSERT
  5
19A49
330
19042
100
AcDbEntity
  8
寸法
 62
     0
 48
50.0
370
    -2
100
AcDbBlockReference
  2
_DOTSMALL
 10
10078.95399685433
 20
4592.646186835274
 30
0.0
 41
100.0
 42
100.0
 43
100.0
 50
88.35263902563776
  0
MTEXT
  5
19A4A
330
19042
100
AcDbEntity
  8
寸法
 62
     7
 48
50.0
100
AcDbMText
 10
9985.607347219243
 20
4825.425917486173
 30
0.0
 40
120.0
 41
0.0
 71
     5
 72
     1
  1
\A1;141
  7
STYLE1
 11
0.0287479117491237
 21
0.9995866933738488
 31
0.0
 73
     1
 44
1.0
1001
ACAD
1000
MTEXTBEGIN
1070
    73
1070
     1
1070
    44
1040
1.0
1070
    74
1070
     0
1000
MTEXTEND
  0
POINT
  5
19A4B
330
19042
100
AcDbEntity
  8
DEFPOINTS
 62
     0
 48
50.0
100
AcDbPoint
 10
10654.90496822467
 20
4576.081953030909
 30
0.0
  0
POINT
  5
19A4C
330
19042
100
AcDbEntity
  8
DEFPOINTS
 62
     0
 48
50.0
100
AcDbPoint
 10
10650.85151266805
 20
4435.140229265195
 30
0.0
  0
POINT
  5
19A4D
330
19042
100
AcDbEntity
  8
DEFPOINTS
 62
     0
 48
50.0
100
AcDbPoint
 10
10074.9005412977
 20
4451.70446306956
 30
0.0
  0
ENDBLK
  5
1904E
330
19042
100
AcDbEntity
  8
0
 48
50.0
100
AcDbBlockEnd
  0
BLOCK
  5
19694
330
1968A
100
AcDbEntity
  8
0
 48
50.0
100
AcDbBlockBegin
  2
*D31
 70
     1
 10
0.0
 20
0.0
 30
0.0
  3
*D31
  1

  0
LINE
  5
19B56
330
1968A
100
AcDbEntity
  8
寸法
 62
     0
 48
50.0
370
    -2
100
AcDbLine
 10
8004.673057123669
 20
4597.359204196236
 30
0.0
 11
8004.673057123669
 21
5043.08547592814
 31
0.0
  0
LINE
  5
19B57
330
1968A
100
AcDbEntity
  8
寸法
 62
     0
 48
50.0
370
    -2
100
AcDbLine
 10
2744.673057123664
 20
4597.359204196236
 30
0.0
 11
2744.673057123664
 21
5043.08547592814
 31
0.0
  0
LINE
  5
19B58
330
1968A
100
AcDbEntity
  8
寸法
 62
     0
 48
50.0
370
    -2
100
AcDbLine
 10
8004.673057123669
 20
4983.085475928139
 30
0.0
 11
2744.673057123664
 21
4983.085475928139
 31
0.0
  0
INSERT
  5
19B59
330
1968A
100
AcDbEntity
  8
寸法
 62
     0
 48
50.0
370
    -2
100
AcDbBlockReference
  2
_DOTSMALL
 10
8004.673057123669
 20
4983.085475928139
 30
0.0
 41
100.0
 42
100.0
 43
100.0
  0
INSERT
  5
19B5A
330
1968A
100
AcDbEntity
  8
寸法
 62
     0
 48
50.0
370
    -2
100
AcDbBlockReference
  2
_DOTSMALL
 10
2744.673057123664
 20
4983.085475928139
 30
0.0
 41
100.0
 42
100.0
 43
100.0
 50
180.0
  0
MTEXT
  5
19B5B
330
1968A
100
AcDbEntity
  8
寸法
 62
     7
 48
50.0
100
AcDbMText
 10
5374.673057123665
 20
5083.097286951761
 30
0.0
 40
120.0
 41
0.0
 71
     5
 72
     1
  1
\A1;柱外寸法5260
  7
STYLE1
 73
     1
 44
1.0
1001
ACAD
1000
MTEXTBEGIN
1070
    73
1070
     1
1070
    44
1040
1.0
1070
    74
1070
     0
1000
MTEXTEND
  0
POINT
  5
19B5C
330
1968A
100
AcDbEntity
  8
DEFPOINTS
 62
     0
 48
50.0
100
AcDbPoint
 10
8004.673057123669
 20
4577.359204196237
 30
0.0
  0
POINT
  5
19B5D
330
1968A
100
AcDbEntity
  8
DEFPOINTS
 62
     0
 48
50.0
100
AcDbPoint
 10
2744.673057123664
 20
4577.359204196237
 30
0.0
  0
POINT
  5
19B5E
330
1968A
100
AcDbEntity
  8
DEFPOINTS
 62
     0
 48
50.0
100
AcDbPoint
 10
2744.673057123664
 20
4983.085475928139
 30
0.0
  0
ENDBLK
  5
19695
330
1968A
100
AcDbEntity
  8
0
 48
50.0
100
AcDbBlockEnd
  0
BLOCK
  5
196A0
330
19696
100
AcDbEntity
  8
0
 48
50.0
100
AcDbBlockBegin
  2
*D32
 70
     1
 10
0.0
 20
0.0
 30
0.0
  3
*D32
  1

  0
LINE
  5
19B4D
330
19696
100
AcDbEntity
  8
寸法
 62
     0
 48
50.0
370
    -2
100
AcDbLine
 10
2694.673057123664
 20
4597.359204196236
 30
0.0
 11
2694.673057123664
 21
5242.994397142229
 31
0.0
  0
LINE
  5
19B4E
330
19696
100
AcDbEntity
  8
寸法
 62
     0
 48
50.0
370
    -2
100
AcDbLine
 10
8054.673057123666
 20
4597.359204196233
 30
0.0
 11
8054.673057123666
 21
5242.994397142229
 31
0.0
  0
LINE
  5
19B4F
330
19696
100
AcDbEntity
  8
寸法
 62
     0
 48
50.0
370
    -2
100
AcDbLine
 10
2694.673057123664
 20
5182.994397142229
 30
0.0
 11
8054.673057123666
 21
5182.994397142229
 31
0.0
  0
INSERT
  5
19B50
330
19696
100
AcDbEntity
  8
寸法
 62
     0
 48
50.0
370
    -2
100
AcDbBlockReference
  2
_DOTSMALL
 10
2694.673057123664
 20
5182.994397142229
 30
0.0
 41
100.0
 42
100.0
 43
100.0
 50
180.0
  0
INSERT
  5
19B51
330
19696
100
AcDbEntity
  8
寸法
 62
     0
 48
50.0
370
    -2
100
AcDbBlockReference
  2
_DOTSMALL
 10
8054.673057123666
 20
5182.994397142229
 30
0.0
 41
100.0
 42
100.0
 43
100.0
  0
MTEXT
  5
19B52
330
19696
100
AcDbEntity
  8
寸法
 62
     7
 48
50.0
100
AcDbMText
 10
5374.673057123665
 20
5282.994397142228
 30
0.0
 40
120.0
 41
0.0
 71
     5
 72
     1
  1
\A1;5360
  7
STYLE1
 73
     1
 44
1.0
1001
ACAD
1000
MTEXTBEGIN
1070
    73
1070
     1
1070
    44
1040
1.0
1070
    74
1070
     0
1000
MTEXTEND
  0
POINT
  5
19B53
330
19696
100
AcDbEntity
  8
DEFPOINTS
 62
     0
 48
50.0
100
AcDbPoint
 10
2694.673057123664
 20
4577.359204196237
 30
0.0
  0
POINT
  5
19B54
330
19696
100
AcDbEntity
  8
DEFPOINTS
 62
     0
 48
50.0
100
AcDbPoint
 10
8054.673057123666
 20
4577.359204196233
 30
0.0
  0
POINT
  5
19B55
330
19696
100
AcDbEntity
  8
DEFPOINTS
 62
     0
 48
50.0
100
AcDbPoint
 10
8054.673057123666
 20
5182.994397142229
 30
0.0
  0
ENDBLK
  5
196A1
330
19696
100
AcDbEntity
  8
0
 48
50.0
100
AcDbBlockEnd
  0
BLOCK
  5
196AE
330
196A2
100
AcDbEntity
  8
0
 48
50.0
100
AcDbBlockBegin
  2
*D33
 70
     1
 10
0.0
 20
0.0
 30
0.0
  3
*D33
  1

  0
LINE
  5
19B42
330
196A2
100
AcDbEntity
  8
寸法
 62
     0
 48
50.0
370
    -2
100
AcDbLine
 10
2744.673057123664
 20
4597.359204196236
 30
0.0
 11
2744.673057123664
 21
5043.08547592814
 31
0.0
  0
LINE
  5
19B43
330
196A2
100
AcDbEntity
  8
寸法
 62
     0
 48
50.0
370
    -2
100
AcDbLine
 10
2694.673057123664
 20
4597.359204196236
 30
0.0
 11
2694.673057123664
 21
5043.08547592814
 31
0.0
  0
LINE
  5
19B44
330
196A2
100
AcDbEntity
  8
寸法
 62
     0
 48
50.0
370
    -2
100
AcDbLine
 10
2744.673057123664
 20
4983.085475928139
 30
0.0
 11
2844.673057123664
 21
4983.085475928139
 31
0.0
  0
LINE
  5
19B45
330
196A2
100
AcDbEntity
  8
寸法
 62
     0
 48
50.0
370
    -2
100
AcDbLine
 10
2694.673057123664
 20
4983.085475928139
 30
0.0
 11
2275.140531654928
 21
4983.085475928139
 31
0.0
  0
LINE
  5
19B46
330
196A2
100
AcDbEntity
  8
寸法
 62
     0
 48
50.0
370
    -2
100
AcDbLine
 10
2744.673057123664
 20
4983.085475928139
 30
0.0
 11
2694.673057123664
 21
4983.085475928139
 31
0.0
  0
INSERT
  5
19B47
330
196A2
100
AcDbEntity
  8
寸法
 62
     0
 48
50.0
370
    -2
100
AcDbBlockReference
  2
_DOTSMALL
 10
2744.673057123664
 20
4983.085475928139
 30
0.0
 41
100.0
 42
100.0
 43
100.0
 50
180.0
  0
INSERT
  5
19B48
330
196A2
100
AcDbEntity
  8
寸法
 62
     0
 48
50.0
370
    -2
100
AcDbBlockReference
  2
_DOTSMALL
 10
2694.673057123664
 20
4983.085475928139
 30
0.0
 41
100.0
 42
100.0
 43
100.0
  0
MTEXT
  5
19B49
330
196A2
100
AcDbEntity
  8
寸法
 62
     7
 48
50.0
100
AcDbMText
 10
2381.187775749417
 20
5083.08547592814
 30
0.0
 40
120.0
 41
0.0
 71
     5
 72
     1
  1
\A1;50
  7
STYLE1
 73
     1
 44
1.0
1001
ACAD
1000
MTEXTBEGIN
1070
    73
1070
     1
1070
    44
1040
1.0
1070
    74
1070
     0
1000
MTEXTEND
  0
POINT
  5
19B4A
330
196A2
100
AcDbEntity
  8
DEFPOINTS
 62
     0
 48
50.0
100
AcDbPoint
 10
2744.673057123664
 20
4577.359204196237
 30
0.0
  0
POINT
  5
19B4B
330
196A2
100
AcDbEntity
  8
DEFPOINTS
 62
     0
 48
50.0
100
AcDbPoint
 10
2694.673057123664
 20
4577.359204196237
 30
0.0
  0
POINT
  5
19B4C
330
196A2
100
AcDbEntity
  8
DEFPOINTS
 62
     0
 48
50.0
100
AcDbPoint
 10
2694.673057123664
 20
4983.085475928139
 30
0.0
  0
ENDBLK
  5
196AF
330
196A2
100
AcDbEntity
  8
0
 48
50.0
100
AcDbBlockEnd
  0
BLOCK
  5
196BC
330
196B0
100
AcDbEntity
  8
0
 48
50.0
100
AcDbBlockBegin
  2
*D34
 70
     1
 10
0.0
 20
0.0
 30
0.0
  3
*D34
  1

  0
LINE
  5
19B25
330
196B0
100
AcDbEntity
  8
寸法
 62
     0
 48
50.0
370
    -2
100
AcDbLine
 10
8054.673057123666
 20
4597.359204196233
 30
0.0
 11
8054.673057123666
 21
5043.085475928143
 31
0.0
  0
LINE
  5
19B26
330
196B0
100
AcDbEntity
  8
寸法
 62
     0
 48
50.0
370
    -2
100
AcDbLine
 10
8004.673057123669
 20
4597.359204196236
 30
0.0
 11
8004.673057123669
 21
5043.085475928143
 31
0.0
  0
LINE
  5
19B27
330
196B0
100
AcDbEntity
  8
寸法
 62
     0
 48
50.0
370
    -2
100
AcDbLine
 10
8004.673057123669
 20
4983.085475928143
 30
0.0
 11
7904.67305712367
 21
4983.085475928143
 31
0.0
  0
LINE
  5
19B28
330
196B0
100
AcDbEntity
  8
寸法
 62
     0
 48
50.0
370
    -2
100
AcDbLine
 10
8054.673057123666
 20
4983.085475928143
 30
0.0
 11
8474.205582592393
 21
4983.085475928143
 31
0.0
  0
LINE
  5
19B29
330
196B0
100
AcDbEntity
  8
寸法
 62
     0
 48
50.0
370
    -2
100
AcDbLine
 10
8004.673057123669
 20
4983.085475928143
 30
0.0
 11
8054.673057123666
 21
4983.085475928143
 31
0.0
  0
INSERT
  5
19B2A
330
196B0
100
AcDbEntity
  8
寸法
 62
     0
 48
50.0
370
    -2
100
AcDbBlockReference
  2
_DOTSMALL
 10
8004.673057123669
 20
4983.085475928143
 30
0.0
 41
100.0
 42
100.0
 43
100.0
  0
INSERT
  5
19B2B
330
196B0
100
AcDbEntity
  8
寸法
 62
     0
 48
50.0
370
    -2
100
AcDbBlockReference
  2
_DOTSMALL
 10
8054.673057123666
 20
4983.085475928143
 30
0.0
 41
100.0
 42
100.0
 43
100.0
 50
180.0
  0
MTEXT
  5
19B2C
330
196B0
100
AcDbEntity
  8
寸法
 62
     7
 48
50.0
100
AcDbMText
 10
8368.158338497906
 20
5083.085475928143
 30
0.0
 40
120.0
 41
0.0
 71
     5
 72
     1
  1
\A1;50
  7
STYLE1
 73
     1
 44
1.0
1001
ACAD
1000
MTEXTBEGIN
1070
    73
1070
     1
1070
    44
1040
1.0
1070
    74
1070
     0
1000
MTEXTEND
  0
POINT
  5
19B2D
330
196B0
100
AcDbEntity
  8
DEFPOINTS
 62
     0
 48
50.0
100
AcDbPoint
 10
8054.673057123666
 20
4577.359204196233
 30
0.0
  0
POINT
  5
19B2E
330
196B0
100
AcDbEntity
  8
DEFPOINTS
 62
     0
 48
50.0
100
AcDbPoint
 10
8004.673057123669
 20
4577.359204196237
 30
0.0
  0
POINT
  5
19B2F
330
196B0
100
AcDbEntity
  8
DEFPOINTS
 62
     0
 48
50.0
100
AcDbPoint
 10
8004.673057123669
 20
4983.085475928143
 30
0.0
  0
ENDBLK
  5
196BD
330
196B0
100
AcDbEntity
  8
0
 48
50.0
100
AcDbBlockEnd
  0
BLOCK
  5
19901
330
198F7
100
AcDbEntity
  8
0
 48
50.0
100
AcDbBlockBegin
  2
*D35
 70
     1
 10
0.0
 20
0.0
 30
0.0
  3
*D35
  1

  0
LINE
  5
19B1C
330
198F7
100
AcDbEntity
  8
寸法
 62
     0
 48
50.0
370
    -2
100
AcDbLine
 10
8024.673057123665
 20
2202.359204196229
 30
0.0
 11
8352.21615944541
 21
2202.359204196229
 31
0.0
  0
LINE
  5
19B1D
330
198F7
100
AcDbEntity
  8
寸法
 62
     0
 48
50.0
370
    -2
100
AcDbLine
 10
8024.673057123665
 20
4150.359204196229
 30
0.0
 11
8352.216159445411
 21
4150.359204196229
 31
0.0
  0
LINE
  5
19B1E
330
198F7
100
AcDbEntity
  8
寸法
 62
     0
 48
50.0
370
    -2
100
AcDbLine
 10
8292.216159445409
 20
2202.359204196229
 30
0.0
 11
8292.216159445413
 21
4150.359204196229
 31
0.0
  0
INSERT
  5
19B1F
330
198F7
100
AcDbEntity
  8
寸法
 62
     0
 48
50.0
370
    -2
100
AcDbBlockReference
  2
_DOTSMALL
 10
8292.216159445409
 20
2202.359204196229
 30
0.0
 41
100.0
 42
100.0
 43
100.0
 50
270.0
  0
INSERT
  5
19B20
330
198F7
100
AcDbEntity
  8
寸法
 62
     0
 48
50.0
370
    -2
100
AcDbBlockReference
  2
_DOTSMALL
 10
8292.216159445413
 20
4150.359204196229
 30
0.0
 41
100.0
 42
100.0
 43
100.0
 50
90.0
  0
MTEXT
  5
19B21
330
198F7
100
AcDbEntity
  8
寸法
 62
     7
 48
50.0
100
AcDbMText
 10
8192.216159445409
 20
3176.359204196231
 30
0.0
 40
120.0
 41
0.0
 71
     5
 72
     1
  1
\A1;有効開口部高サ 1948
  7
STYLE1
 11
0.0000000000000001
 21
1.0
 31
0.0
 73
     1
 44
1.0
1001
ACAD
1000
MTEXTBEGIN
1070
    73
1070
     1
1070
    44
1040
1.0
1070
    74
1070
     0
1000
MTEXTEND
  0
POINT
  5
19B22
330
198F7
100
AcDbEntity
  8
DEFPOINTS
 62
     0
 48
50.0
100
AcDbPoint
 10
8004.673057123666
 20
2202.359204196229
 30
0.0
  0
POINT
  5
19B23
330
198F7
100
AcDbEntity
  8
DEFPOINTS
 62
     0
 48
50.0
100
AcDbPoint
 10
8004.673057123666
 20
4150.359204196229
 30
0.0
  0
POINT
  5
19B24
330
198F7
100
AcDbEntity
  8
DEFPOINTS
 62
     0
 48
50.0
100
AcDbPoint
 10
8292.216159445413
 20
4150.359204196229
 30
0.0
  0
ENDBLK
  5
19902
330
198F7
100
AcDbEntity
  8
0
 48
50.0
100
AcDbBlockEnd
  0
BLOCK
  5
1990F
330
19903
100
AcDbEntity
  8
0
 48
50.0
100
AcDbBlockBegin
  2
*D36
 70
     1
 10
0.0
 20
0.0
 30
0.0
  3
*D36
  1

  0
LINE
  5
19C83
330
19903
100
AcDbEntity
  8
寸法
 62
     0
 48
50.0
370
    -2
100
AcDbLine
 10
8024.673057123665
 20
4150.359204196229
 30
0.0
 11
8352.216159445411
 21
4150.359204196229
 31
0.0
  0
LINE
  5
19C84
330
19903
100
AcDbEntity
  8
寸法
 62
     0
 48
50.0
370
    -2
100
AcDbLine
 10
8024.673057123665
 20
4177.359204196229
 30
0.0
 11
8352.216159445411
 21
4177.359204196229
 31
0.0
  0
LINE
  5
19C85
330
19903
100
AcDbEntity
  8
寸法
 62
     0
 48
50.0
370
    -2
100
AcDbLine
 10
8292.216159445413
 20
4150.359204196229
 30
0.0
 11
8292.216159445409
 21
4050.359204196229
 31
0.0
  0
LINE
  5
19C86
330
19903
100
AcDbEntity
  8
寸法
 62
     0
 48
50.0
370
    -2
100
AcDbLine
 10
8292.216159445413
 20
4177.359204196229
 30
0.0
 11
8292.216159445413
 21
4277.359204196229
 31
0.0
  0
MTEXT
  5
19C87
330
19903
100
AcDbEntity
  8
寸法
 62
     7
 48
50.0
100
AcDbMText
 10
8432.385982691778
 20
4178.326404035888
 30
0.0
 40
120.0
 41
0.0
 71
     5
 72
     1
  1
\A1;27
  7
STYLE1
 11
0.0000000000000001
 21
1.0
 31
0.0
 73
     1
 44
1.0
1001
ACAD
1000
MTEXTBEGIN
1070
    73
1070
     1
1070
    44
1040
1.0
1070
    74
1070
     0
1000
MTEXTEND
  0
LINE
  5
19C88
330
19903
100
AcDbEntity
  8
寸法
 62
     0
 48
50.0
370
    -2
100
AcDbLine
 10
8292.216159445413
 20
4150.359204196229
 30
0.0
 11
8292.216159445413
 21
4177.359204196229
 31
0.0
  0
INSERT
  5
19C89
330
19903
100
AcDbEntity
  8
寸法
 62
     0
 48
50.0
370
    -2
100
AcDbBlockReference
  2
_DOTSMALL
 10
8292.216159445413
 20
4150.359204196229
 30
0.0
 41
100.0
 42
100.0
 43
100.0
 50
90.0
  0
INSERT
  5
19C8A
330
19903
100
AcDbEntity
  8
寸法
 62
     0
 48
50.0
370
    -2
100
AcDbBlockReference
  2
_DOTSMALL
 10
8292.216159445413
 20
4177.359204196229
 30
0.0
 41
100.0
 42
100.0
 43
100.0
 50
270.0
  0
POINT
  5
19C8B
330
19903
100
AcDbEntity
  8
DEFPOINTS
 62
     0
 48
50.0
100
AcDbPoint
 10
8004.673057123666
 20
4150.359204196229
 30
0.0
  0
POINT
  5
19C8C
330
19903
100
AcDbEntity
  8
DEFPOINTS
 62
     0
 48
50.0
100
AcDbPoint
 10
8004.673057123666
 20
4177.359204196229
 30
0.0
  0
POINT
  5
19C8D
330
19903
100
AcDbEntity
  8
DEFPOINTS
 62
     0
 48
50.0
100
AcDbPoint
 10
8292.216159445413
 20
4177.359204196229
 30
0.0
  0
ENDBLK
  5
19910
330
19903
100
AcDbEntity
  8
0
 48
50.0
100
AcDbBlockEnd
  0
BLOCK
  5
1991C
330
19911
100
AcDbEntity
  8
0
 48
50.0
100
AcDbBlockBegin
  2
*D37
 70
     1
 10
0.0
 20
0.0
 30
0.0
  3
*D37
  1

  0
LINE
  5
19C79
330
19911
100
AcDbEntity
  8
寸法
 62
     0
 48
50.0
370
    -2
100
AcDbLine
 10
8024.673057123665
 20
4177.359204196229
 30
0.0
 11
8352.216159445413
 21
4177.359204196229
 31
0.0
  0
LINE
  5
19C7A
330
19911
100
AcDbEntity
  8
寸法
 62
     0
 48
50.0
370
    -2
100
AcDbLine
 10
8024.673057123665
 20
4342.359204196229
 30
0.0
 11
8352.216159445413
 21
4342.359204196229
 31
0.0
  0
LINE
  5
19C7B
330
19911
100
AcDbEntity
  8
寸法
 62
     0
 48
50.0
370
    -2
100
AcDbLine
 10
8292.216159445414
 20
4177.359204196229
 30
0.0
 11
8292.216159445414
 21
4342.359204196229
 31
0.0
  0
LINE
  5
19C7C
330
19911
100
AcDbEntity
  8
寸法
 62
     0
 48
50.0
370
    -2
100
AcDbLine
 10
8292.216159445414
 20
4342.359204196229
 30
0.0
 11
8292.216159445414
 21
4719.329766944706
 31
0.0
  0
INSERT
  5
19C7D
330
19911
100
AcDbEntity
  8
寸法
 62
     0
 48
50.0
370
    -2
100
AcDbBlockReference
  2
_DOTSMALL
 10
8292.216159445414
 20
4177.359204196229
 30
0.0
 41
100.0
 42
100.0
 43
100.0
 50
270.0
  0
INSERT
  5
19C7E
330
19911
100
AcDbEntity
  8
寸法
 62
     0
 48
50.0
370
    -2
100
AcDbBlockReference
  2
_DOTSMALL
 10
8292.216159445414
 20
4342.359204196229
 30
0.0
 41
100.0
 42
100.0
 43
100.0
 50
90.0
  0
MTEXT
  5
19C7F
330
19911
100
AcDbEntity
  8
寸法
 62
     7
 48
50.0
100
AcDbMText
 10
8192.216159445413
 20
4580.844485570469
 30
0.0
 40
120.0
 41
0.0
 71
     5
 72
     1
  1
\A1;165
  7
STYLE1
 11
0.0000000000000001
 21
1.0
 31
0.0
 73
     1
 44
1.0
1001
ACAD
1000
MTEXTBEGIN
1070
    73
1070
     1
1070
    44
1040
1.0
1070
    74
1070
     0
1000
MTEXTEND
  0
POINT
  5
19C80
330
19911
100
AcDbEntity
  8
DEFPOINTS
 62
     0
 48
50.0
100
AcDbPoint
 10
8004.673057123666
 20
4177.359204196229
 30
0.0
  0
POINT
  5
19C81
330
19911
100
AcDbEntity
  8
DEFPOINTS
 62
     0
 48
50.0
100
AcDbPoint
 10
8004.673057123666
 20
4342.359204196229
 30
0.0
  0
POINT
  5
19C82
330
19911
100
AcDbEntity
  8
DEFPOINTS
 62
     0
 48
50.0
100
AcDbPoint
 10
8292.216159445414
 20
4342.359204196229
 30
0.0
  0
ENDBLK
  5
1991D
330
19911
100
AcDbEntity
  8
0
 48
50.0
100
AcDbBlockEnd
  0
ENDSEC
  0
SECTION
  2
ENTITIES
  0
MTEXT
  5
763F
330
747D
100
AcDbEntity
  8
0
100
AcDbMText
 10
302.846345836809
 20
280.1983726409901
 30
0.0
 40
3.5
 41
5.323721266742722
 71
     1
 72
     5
  1

  7
MSMINCHO
 73
     1
 44
1.0
1001
ACAD
1000
MTEXTBEGIN
1070
    73
1070
     1
1070
    44
1040
1.0
1070
    74
1070
     0
1000
MTEXTEND
  0
LINE
  5
10B57
330
747D
100
AcDbEntity
  8
補助
  6
PHANTOM
 62
   230
 48
50.0
100
AcDbLine
 10
139.9999999999995
 20
11409.6
 30
0.0
 11
16307.2
 21
11409.6
 31
0.0
  0
LINE
  5
10B59
330
747D
100
AcDbEntity
  8
仕様書枠
  6
Continuous
 48
50.0
100
AcDbLine
 10
13107.2
 20
1200.0
 30
0.0
 11
13107.2
 21
-0.0000000000000729
 31
0.0
  0
LINE
  5
10B5C
330
747D
100
AcDbEntity
  8
仕様書枠
 48
50.0
100
AcDbLine
 10
16307.2
 20
1200.0
 30
0.0
 11
16307.2
 21
-0.0000000000000909
 31
0.0
  0
LINE
  5
10B5D
330
747D
100
AcDbEntity
  8
仕様書枠
 48
50.0
100
AcDbLine
 10
140.0
 20
0.0
 30
0.0
 11
16307.2
 21
-0.0000000000000909
 31
0.0
  0
LINE
  5
10B5E
330
747D
100
AcDbEntity
  8
補助
  6
PHANTOM
 62
   230
 48
50.0
100
AcDbLine
 10
16307.2
 20
11409.6
 30
0.0
 11
16307.2
 21
1200.0
 31
0.0
  0
LINE
  5
10B6C
330
747D
100
AcDbEntity
  8
仕様書枠
 48
50.0
100
AcDbLine
 10
13107.2
 20
1200.0
 30
0.0
 11
16307.2
 21
1200.0
 31
0.0
  0
LINE
  5
10B6D
330
747D
100
AcDbEntity
  8
補助
  6
PHANTOM
 62
   230
 48
50.0
100
AcDbLine
 10
13107.2
 20
11409.6
 30
0.0
 11
13107.2
 21
4800.0
 31
0.0
  0
LINE
  5
10B6F
330
747D
100
AcDbEntity
  8
補助
  6
PHANTOM
 62
   230
 48
50.0
100
AcDbLine
 10
13107.2
 20
4800.0
 30
0.0
 11
16307.2
 21
4800.0
 31
0.0
  0
LINE
  5
10B72
330
747D
100
AcDbEntity
  8
文字
 62
     7
 48
50.0
100
AcDbLine
 10
13187.2
 20
400.0
 30
0.0
 11
16227.2
 21
400.0
 31
0.0
  0
TEXT
  5
10B73
330
747D
100
AcDbEntity
  8
文字
 62
     7
 48
50.0
100
AcDbText
 10
13162.9790565769
 20
895.0906074299405
 30
0.0
 40
200.0
  1
外 形 図
  7
STYLE2
100
AcDbText
  0
TEXT
  5
10B74
330
747D
100
AcDbEntity
  8
文字
 62
     7
 48
50.0
100
AcDbText
 10
13201.43669998441
 20
477.2740661031255
 30
0.0
 40
160.0
  1
機種名
  7
STYLE2
100
AcDbText
  0
TEXT
  5
10B75
330
747D
100
AcDbEntity
  8
文字
 62
     7
 48
50.0
100
AcDbText
 10
13209.4053442172
 20
228.5435242569016
 30
0.0
 40
100.0
  1
○有効開口寸法 ： 2424×1948(mm)
  7
STYLE2
100
AcDbText
  0
TEXT
  5
10B76
330
747D
100
AcDbEntity
  8
文字
 62
     7
 48
50.0
100
AcDbText
 10
13209.4053442172
 20
76.09434707649343
 30
0.0
 40
100.0
  1
○床面積 ： 16.04㎡(4.86坪)
  7
STYLE2
100
AcDbText
  0
TEXT
  5
10B79
330
747D
100
AcDbEntity
  8
文字
 62
     7
 48
50.0
100
AcDbText
 10
14524.131837222
 20
1031.557706291228
 30
0.0
 40
100.0
  1
NO.53      <縮尺> S=1/40
  7
STYLE2
100
AcDbText
  0
LINE
  5
10B7B
330
747D
100
AcDbEntity
  8
仕様書枠
 48
50.0
100
AcDbLine
 10
13107.2
 20
800.0
 30
0.0
 11
14251.2
 21
800.0
 31
0.0
  0
LINE
  5
10B88
330
747D
100
AcDbEntity
  8
仕様書枠
  6
Continuous
 48
50.0
100
AcDbLine
 10
14251.2
 20
1200.0
 30
0.0
 11
14251.2
 21
800.0
 31
0.0
  0
LINE
  5
127A8
330
747D
100
AcDbEntity
  8
部品1
100
AcDbLine
 10
1755.903465777282
 20
2232.263014763894
 30
0.0
 11
1905.903465777283
 21
2232.263014763894
 31
0.0
  0
LINE
  5
127A9
330
747D
100
AcDbEntity
  8
部品1
100
AcDbLine
 10
1830.903465777282
 20
2102.359204196229
 30
0.0
 11
1755.903465777282
 21
2232.263014763894
 31
0.0
  0
TEXT
  5
127AA
330
747D
100
AcDbEntity
  8
部品1
100
AcDbText
 10
1934.008407902056
 20
2138.466107802131
 30
0.0
 40
125.0
  1
G.L
  7
MSGOTHIC
100
AcDbText
  0
LINE
  5
127AB
330
747D
100
AcDbEntity
  8
部品1
100
AcDbLine
 10
1905.903465777283
 20
2232.263014763894
 30
0.0
 11
1830.903465777282
 21
2102.359204196229
 31
0.0
  0
LINE
  5
13C1F
330
747D
100
AcDbEntity
  8
部品1
100
AcDbLine
 10
2744.673057123666
 20
4436.359204196236
 30
0.0
 11
2744.673057123666
 21
2102.359204196229
 31
0.0
  0
LINE
  5
13CFC
330
747D
100
AcDbEntity
  8
部品1
100
AcDbLine
 10
7949.673057123665
 20
4177.359204196229
 30
0.0
 11
7949.673057123664
 21
2202.359204196229
 31
0.0
  0
LINE
  5
13CFE
330
747D
100
AcDbEntity
  8
部品1
100
AcDbLine
 10
2799.673057123666
 20
4177.359204196229
 30
0.0
 11
2799.673057123666
 21
2202.359204196229
 31
0.0
  0
LINE
  5
13D18
330
747D
100
AcDbEntity
  8
部品1
100
AcDbLine
 10
8004.673057123666
 20
4436.359204196236
 30
0.0
 11
8004.673057123666
 21
2102.359204196229
 31
0.0
  0
LINE
  5
146B2
330
747D
100
AcDbEntity
  8
破線
 48
5.0
100
AcDbLine
 10
8004.673057123666
 20
2102.359204196229
 30
0.0
 11
8004.673057123666
 21
1852.359204196229
 31
0.0
  0
LINE
  5
146B3
330
747D
100
AcDbEntity
  8
破線
 48
5.0
100
AcDbLine
 10
2744.673057123666
 20
2102.359204196229
 30
0.0
 11
2744.673057123664
 21
1852.359204196229
 31
0.0
  0
TEXT
  5
149A1
330
747D
100
AcDbEntity
  8
部品1
100
AcDbText
 10
5083.463127747398
 20
1259.465674977705
 30
0.0
 40
135.0
  1
正面図
  7
MSGOTHIC
100
AcDbText
  0
LWPOLYLINE
  5
149A2
330
747D
100
AcDbEntity
  8
部品1
100
AcDbPolyline
 90
        4
 70
     1
 43
0.0
 10
4992.937724009443
 20
1452.359204196229
 10
4992.937724009443
 20
1212.466882650697
 10
5756.408390237882
 20
1212.466882650697
 10
5756.408390237882
 20
1452.359204196229
  0
TEXT
  5
14E88
330
747D
100
AcDbEntity
  8
部品1
100
AcDbText
 10
5082.857333838481
 20
5802.378858851012
 30
0.0
 40
135.0
  1
平面図
  7
MSGOTHIC
100
AcDbText
  0
LWPOLYLINE
  5
14E89
330
747D
100
AcDbEntity
  8
部品1
100
AcDbPolyline
 90
        4
 70
     1
 43
0.0
 10
4992.937724009443
 20
5995.272388069536
 10
4992.937724009443
 20
5755.380066524003
 10
5756.408390237883
 20
5755.380066524003
 10
5756.408390237883
 20
5995.272388069536
  0
TEXT
  5
15550
330
747D
100
AcDbEntity
  8
文字
 62
     7
 48
50.0
100
AcDbText
 10
14772.26530907216
 20
871.9640646083623
 30
0.0
 40
100.0
  1
～一般型・多雪地型～
  7
STYLE2
100
AcDbText
  0
LINE
  5
15CE5
330
747D
100
AcDbEntity
  8
破線
 48
5.0
100
AcDbLine
 10
7949.673057123664
 20
2202.359204196229
 30
0.0
 11
7949.673057123665
 21
1852.359204196229
 31
0.0
  0
LINE
  5
15CE6
330
747D
100
AcDbEntity
  8
破線
 48
5.0
100
AcDbLine
 10
2799.673057123666
 20
2202.359204196229
 30
0.0
 11
2799.673057123664
 21
1852.359204196229
 31
0.0
  0
LINE
  5
15CE7
330
747D
100
AcDbEntity
  8
破線
 48
5.0
100
AcDbLine
 10
8004.673057123664
 20
1852.359204196229
 30
0.0
 11
7949.673057123665
 21
1852.359204196229
 31
0.0
  0
LINE
  5
15CE8
330
747D
100
AcDbEntity
  8
破線
 48
5.0
100
AcDbLine
 10
2799.673057123664
 20
1852.359204196236
 30
0.0
 11
2744.673057123664
 21
1852.359204196236
 31
0.0
  0
LINE
  5
15CE9
330
747D
100
AcDbEntity
  8
部品1
100
AcDbLine
 10
2847.673057123666
 20
4177.359204196229
 30
0.0
 11
2847.673057123666
 21
2202.359204196229
 31
0.0
  0
LINE
  5
15CEA
330
747D
100
AcDbEntity
  8
破線
 48
5.0
100
AcDbLine
 10
2847.673057123666
 20
2202.359204196229
 30
0.0
 11
2847.673057123664
 21
1952.359204196234
 31
0.0
  0
LINE
  5
15CEB
330
747D
100
AcDbEntity
  8
部品1
100
AcDbLine
 10
7901.673057123668
 20
4177.35920419623
 30
0.0
 11
7901.673057123663
 21
2202.359204196229
 31
0.0
  0
LINE
  5
15CEC
330
747D
100
AcDbEntity
  8
破線
 48
5.0
100
AcDbLine
 10
7901.673057123663
 20
2202.359204196229
 30
0.0
 11
7901.673057123666
 21
1952.359204196229
 31
0.0
  0
LINE
  5
15CED
330
747D
100
AcDbEntity
  8
破線
 48
5.0
100
AcDbLine
 10
7949.673057123668
 20
1952.359204196229
 30
0.0
 11
7901.673057123666
 21
1952.359204196229
 31
0.0
  0
LINE
  5
15CEE
330
747D
100
AcDbEntity
  8
破線
 48
5.0
100
AcDbLine
 10
2847.673057123664
 20
1952.359204196235
 30
0.0
 11
2799.673057123664
 21
1952.359204196235
 31
0.0
  0
LINE
  5
15D20
330
747D
100
AcDbEntity
  8
細線
100
AcDbLine
 10
5477.673057123662
 20
3837.359204196229
 30
0.0
 11
7901.673057123663
 21
3837.359204196229
 31
0.0
  0
LINE
  5
15D21
330
747D
100
AcDbEntity
  8
細線
100
AcDbLine
 10
5477.673057123662
 20
3902.35920419623
 30
0.0
 11
7901.673057123663
 21
3902.35920419623
 31
0.0
  0
LINE
  5
15D22
330
747D
100
AcDbEntity
  8
細線
100
AcDbLine
 10
5477.673057123662
 20
3967.35920419623
 30
0.0
 11
7901.673057123663
 21
3967.35920419623
 31
0.0
  0
LINE
  5
15D23
330
747D
100
AcDbEntity
  8
細線
100
AcDbLine
 10
5477.673057123662
 20
3447.359204196229
 30
0.0
 11
7901.673057123663
 21
3447.359204196229
 31
0.0
  0
LINE
  5
15D24
330
747D
100
AcDbEntity
  8
細線
100
AcDbLine
 10
5477.673057123662
 20
3512.359204196229
 30
0.0
 11
7901.673057123663
 21
3512.359204196229
 31
0.0
  0
LINE
  5
15D25
330
747D
100
AcDbEntity
  8
細線
100
AcDbLine
 10
5477.673057123662
 20
3577.35920419623
 30
0.0
 11
7901.673057123663
 21
3577.35920419623
 31
0.0
  0
LINE
  5
15D26
330
747D
100
AcDbEntity
  8
細線
100
AcDbLine
 10
5477.673057123662
 20
3642.35920419623
 30
0.0
 11
7901.673057123663
 21
3642.35920419623
 31
0.0
  0
LINE
  5
15D27
330
747D
100
AcDbEntity
  8
細線
100
AcDbLine
 10
5477.673057123662
 20
3707.359204196229
 30
0.0
 11
7901.673057123663
 21
3707.359204196229
 31
0.0
  0
LINE
  5
15D28
330
747D
100
AcDbEntity
  8
細線
100
AcDbLine
 10
5477.673057123662
 20
3772.359204196229
 30
0.0
 11
7901.673057123663
 21
3772.359204196229
 31
0.0
  0
LINE
  5
15D29
330
747D
100
AcDbEntity
  8
細線
100
AcDbLine
 10
5477.673057123662
 20
2797.359204196229
 30
0.0
 11
7901.673057123663
 21
2797.359204196229
 31
0.0
  0
LINE
  5
15D2A
330
747D
100
AcDbEntity
  8
細線
100
AcDbLine
 10
5477.673057123662
 20
2862.359204196229
 30
0.0
 11
7901.673057123663
 21
2862.359204196229
 31
0.0
  0
LINE
  5
15D2B
330
747D
100
AcDbEntity
  8
細線
100
AcDbLine
 10
5477.673057123662
 20
2927.359204196229
 30
0.0
 11
7901.673057123663
 21
2927.359204196229
 31
0.0
  0
LINE
  5
15D2C
330
747D
100
AcDbEntity
  8
細線
100
AcDbLine
 10
5477.673057123662
 20
2992.35920419623
 30
0.0
 11
7901.673057123663
 21
2992.35920419623
 31
0.0
  0
LINE
  5
15D2D
330
747D
100
AcDbEntity
  8
細線
100
AcDbLine
 10
5477.673057123662
 20
3057.35920419623
 30
0.0
 11
7901.673057123663
 21
3057.35920419623
 31
0.0
  0
LINE
  5
15D2E
330
747D
100
AcDbEntity
  8
細線
100
AcDbLine
 10
5477.673057123662
 20
3122.35920419623
 30
0.0
 11
7901.673057123663
 21
3122.35920419623
 31
0.0
  0
LINE
  5
15D2F
330
747D
100
AcDbEntity
  8
細線
100
AcDbLine
 10
5477.673057123662
 20
3187.359204196229
 30
0.0
 11
7901.673057123663
 21
3187.359204196229
 31
0.0
  0
LINE
  5
15D30
330
747D
100
AcDbEntity
  8
細線
100
AcDbLine
 10
5477.673057123662
 20
3252.35920419623
 30
0.0
 11
7901.673057123663
 21
3252.35920419623
 31
0.0
  0
LINE
  5
15D31
330
747D
100
AcDbEntity
  8
細線
100
AcDbLine
 10
5477.673057123662
 20
3317.359204196229
 30
0.0
 11
7901.673057123663
 21
3317.359204196229
 31
0.0
  0
LINE
  5
15D32
330
747D
100
AcDbEntity
  8
細線
100
AcDbLine
 10
5477.673057123662
 20
3382.359204196229
 30
0.0
 11
7901.673057123663
 21
3382.359204196229
 31
0.0
  0
LINE
  5
15D33
330
747D
100
AcDbEntity
  8
細線
100
AcDbLine
 10
5477.673057123662
 20
4097.359204196229
 30
0.0
 11
7901.673057123663
 21
4097.359204196229
 31
0.0
  0
LINE
  5
15D34
330
747D
100
AcDbEntity
  8
細線
100
AcDbLine
 10
5477.673057123662
 20
4162.359204196229
 30
0.0
 11
7901.673057123663
 21
4162.359204196229
 31
0.0
  0
LINE
  5
15D35
330
747D
100
AcDbEntity
  8
細線
100
AcDbLine
 10
5477.673057123662
 20
4032.359204196229
 30
0.0
 11
7901.673057123663
 21
4032.359204196229
 31
0.0
  0
LINE
  5
15D36
330
747D
100
AcDbEntity
  8
細線
100
AcDbLine
 10
5477.673057123662
 20
2212.359204196229
 30
0.0
 11
7901.673057123663
 21
2212.359204196229
 31
0.0
  0
LINE
  5
15D37
330
747D
100
AcDbEntity
  8
細線
100
AcDbLine
 10
5477.673057123662
 20
2277.359204196229
 30
0.0
 11
7901.673057123663
 21
2277.359204196229
 31
0.0
  0
LINE
  5
15D38
330
747D
100
AcDbEntity
  8
細線
100
AcDbLine
 10
5477.673057123662
 20
2342.359204196229
 30
0.0
 11
7901.673057123663
 21
2342.359204196229
 31
0.0
  0
LINE
  5
15D39
330
747D
100
AcDbEntity
  8
細線
100
AcDbLine
 10
5477.673057123662
 20
2407.359204196229
 30
0.0
 11
7901.673057123663
 21
2407.359204196229
 31
0.0
  0
LINE
  5
15D3A
330
747D
100
AcDbEntity
  8
細線
100
AcDbLine
 10
5477.673057123662
 20
2472.359204196229
 30
0.0
 11
7901.673057123663
 21
2472.359204196229
 31
0.0
  0
LINE
  5
15D3B
330
747D
100
AcDbEntity
  8
細線
100
AcDbLine
 10
5477.673057123662
 20
2537.35920419623
 30
0.0
 11
7901.673057123663
 21
2537.35920419623
 31
0.0
  0
LINE
  5
15D3C
330
747D
100
AcDbEntity
  8
細線
100
AcDbLine
 10
5477.673057123662
 20
2602.35920419623
 30
0.0
 11
7901.673057123663
 21
2602.35920419623
 31
0.0
  0
LINE
  5
15D3D
330
747D
100
AcDbEntity
  8
細線
100
AcDbLine
 10
5477.673057123662
 20
2667.359204196229
 30
0.0
 11
7901.673057123663
 21
2667.359204196229
 31
0.0
  0
LINE
  5
15D3E
330
747D
100
AcDbEntity
  8
細線
100
AcDbLine
 10
5477.673057123662
 20
2732.359204196229
 30
0.0
 11
7901.673057123663
 21
2732.359204196229
 31
0.0
  0
LINE
  5
15D3F
330
747D
100
AcDbEntity
  8
細線
100
AcDbLine
 10
7901.673057123666
 20
2212.359204196229
 30
0.0
 11
5477.67305712366
 21
2212.359204196229
 31
0.0
  0
DIMENSION
  5
162CD
330
747D
100
AcDbEntity
  8
寸法
100
AcDbDimension
  2
*D1
 10
8652.099402858079
 20
7197.497424545952
 30
0.0
 11
8552.087591834455
 21
8667.497424545961
 31
0.0
 70
    32
  1
7X420=<>
 71
     5
 42
2940.000000000015
  3
INABA_S40G
100
AcDbAlignedDimension
 13
8004.673057123673
 23
10137.49742454596
 33
0.0
 14
8004.673057123648
 24
7197.497424545952
 34
0.0
 50
90.0
100
AcDbRotatedDimension
1001
ACAD
1000
DSTYLE
1002
{
1002
}
  0
DIMENSION
  5
162CE
330
747D
100
AcDbEntity
  8
寸法
100
AcDbDimension
  2
*D2
 10
8652.099402858059
 20
7142.497424545957
 30
0.0
 11
8652.099402858057
 21
6764.635957641094
 31
0.0
 70
   160
 71
     5
 42
54.99999999999636
  3
INABA_S40G
100
AcDbAlignedDimension
 13
8004.673057123648
 23
7197.497424545952
 33
0.0
 14
8004.673057123648
 24
7142.497424545957
 34
0.0
 50
90.0
100
AcDbRotatedDimension
1001
ACAD
1000
DSTYLE
1002
{
1002
}
  0
DIMENSION
  5
162CF
330
747D
100
AcDbEntity
  8
寸法
100
AcDbDimension
  2
*D3
 10
8652.099402858084
 20
10137.49742454596
 30
0.0
 11
8652.099402858082
 21
10500.9827059202
 31
0.0
 70
   160
 71
     5
 42
54.99999999999636
  3
INABA_S40G
100
AcDbAlignedDimension
 13
8004.673057123673
 23
10192.49742454596
 33
0.0
 14
8004.673057123673
 24
10137.49742454596
 34
0.0
 50
90.0
100
AcDbRotatedDimension
1001
ACAD
1000
DSTYLE
1002
{
1002
}
  0
DIMENSION
  5
162D0
330
747D
100
AcDbEntity
  8
寸法
100
AcDbDimension
  2
*D4
 10
9017.206344597719
 20
7142.497424545957
 30
0.0
 11
8917.206344597717
 21
8667.497424545961
 31
0.0
 70
    32
 71
     5
 42
3050.000000000008
  3
INABA_S40G
100
AcDbAlignedDimension
 13
8004.673057123673
 23
10192.49742454596
 33
0.0
 14
8004.673057123648
 24
7142.497424545957
 34
0.0
 50
90.0
100
AcDbRotatedDimension
1001
ACAD
1000
DSTYLE
1002
{
1002
}
  0
LINE
  5
162DC
330
747D
100
AcDbEntity
  8
部品1
100
AcDbLine
 10
7976.673057123656
 20
10164.49742454596
 30
0.0
 11
7976.673057123649
 21
7197.497424545952
 31
0.0
  0
LINE
  5
162DD
330
747D
100
AcDbEntity
  8
部品1
100
AcDbLine
 10
2772.673057123648
 20
7197.497424545821
 30
0.0
 11
2772.673057123659
 21
10164.49742454587
 31
0.0
  0
LINE
  5
162DE
330
747D
100
AcDbEntity
  8
部品1
100
AcDbLine
 10
8004.673057123673
 20
10192.49742454596
 30
0.0
 11
8004.673057123648
 21
7142.497424545957
 31
0.0
  0
LINE
  5
162DF
330
747D
100
AcDbEntity
  8
部品1
100
AcDbLine
 10
2744.673057123638
 20
10192.49742454583
 30
0.0
 11
2744.673057123666
 21
7142.497424545826
 31
0.0
  0
DIMENSION
  5
162E4
330
747D
100
AcDbEntity
  8
寸法
 48
50.0
100
AcDbDimension
  2
*D5
 10
5477.673057123666
 20
6608.0666537797
 30
0.0
 11
6689.673057123657
 21
6708.078464803323
 31
0.0
 70
    32
  1
有効開口部間口 <>
 71
     5
 42
2423.999999999982
  3
INABA_S40G
100
AcDbAlignedDimension
 13
7901.673057123648
 23
7168.497424545865
 33
0.0
 14
5477.673057123666
 24
7168.497424545865
 34
0.0
100
AcDbRotatedDimension
1001
ACAD
1000
DSTYLE
1002
{
1070
    75
1070
     1
1070
   279
1070
     2
1002
}
  0
LINE
  5
162E6
330
747D
100
AcDbEntity
  8
部品1
 48
50.0
100
AcDbLine
 10
5441.673057123665
 20
7187.997424545864
 30
0.0
 11
7937.67305712365
 21
7187.997424545864
 31
0.0
  0
DIMENSION
  5
162E7
330
747D
100
AcDbEntity
  8
寸法
100
AcDbDimension
  2
*D6
 10
8004.673057123637
 20
6161.893658188827
 30
0.0
 11
5374.673057123651
 21
6261.905469212448
 31
0.0
 70
    32
 71
     5
 42
5259.999999999971
  3
INABA_S40G
100
AcDbAlignedDimension
 13
2744.673057123666
 23
7142.497424545862
 33
0.0
 14
8004.673057123637
 24
7142.497424545957
 34
0.0
100
AcDbRotatedDimension
1001
ACAD
1000
DSTYLE
1002
{
1002
}
  0
LINE
  5
162E8
330
747D
100
AcDbEntity
  8
部品1
100
AcDbLine
 10
2799.673057123643
 20
10137.49742454588
 30
0.0
 11
2799.673057123665
 21
7207.497424545863
 31
0.0
  0
LINE
  5
162E9
330
747D
100
AcDbEntity
  8
部品1
100
AcDbLine
 10
2824.673057123644
 20
10137.49742454588
 30
0.0
 11
2824.673057123665
 21
7207.497424545863
 31
0.0
  0
DIMENSION
  5
162EA
330
747D
100
AcDbEntity
  8
寸法
 48
50.0
100
AcDbDimension
  2
*D7
 10
2744.673057123666
 20
6608.0666537797
 30
0.0
 11
2436.187775749428
 21
6608.0666537797
 31
0.0
 70
   160
 71
     5
 42
54.99999999999636
  3
INABA_S40G
100
AcDbAlignedDimension
 13
2799.673057123662
 23
7142.497424545864
 33
0.0
 14
2744.673057123666
 24
7142.497424545862
 34
0.0
100
AcDbRotatedDimension
1001
ACAD
1000
DSTYLE
1002
{
1002
}
  0
DIMENSION
  5
162EB
330
747D
100
AcDbEntity
  8
寸法
 48
50.0
100
AcDbDimension
  2
*D8
 10
5429.673057123662
 20
6608.0666537797
 30
0.0
 11
5590.575028123723
 21
6708.0666537797
 31
0.0
 70
   160
 71
     5
 42
48.00000000000363
  3
INABA_S40G
100
AcDbAlignedDimension
 13
5477.673057123666
 23
7168.497424545865
 33
0.0
 14
5429.673057123662
 24
7142.497424545864
 34
0.0
100
AcDbRotatedDimension
1001
ACAD
1000
DSTYLE
1002
{
1070
   279
1070
     2
1002
}
  0
LINE
  5
162EC
330
747D
100
AcDbEntity
  8
部品1
100
AcDbLine
 10
2799.673057123661
 20
7142.497424545864
 30
0.0
 11
2744.673057123666
 21
7142.497424545862
 31
0.0
  0
LINE
  5
162ED
330
747D
100
AcDbEntity
  8
部品1
 48
50.0
100
AcDbLine
 10
2799.673057123666
 20
7178.497424545864
 30
0.0
 11
2776.673057123666
 21
7178.497424545864
 31
0.0
  0
LINE
  5
162EE
330
747D
100
AcDbEntity
  8
部品1
 48
50.0
100
AcDbLine
 10
2809.673057123666
 20
7168.497424545865
 30
0.0
 11
2799.673057123666
 21
7147.497424545864
 31
0.0
  0
LINE
  5
162EF
330
747D
100
AcDbEntity
  8
部品1
 48
50.0
100
AcDbLine
 10
2799.673057123666
 20
7207.497424545863
 30
0.0
 11
2799.673057123662
 21
7142.497424545864
 31
0.0
  0
LINE
  5
162F0
330
747D
100
AcDbEntity
  8
部品1
 48
50.0
100
AcDbLine
 10
2847.673057123666
 20
7168.497424545865
 30
0.0
 11
2847.673057123666
 21
7177.497424545865
 31
0.0
  0
LINE
  5
162F1
330
747D
100
AcDbEntity
  8
部品1
 48
50.0
100
AcDbLine
 10
2847.673057123666
 20
7207.497424545865
 30
0.0
 11
2847.673057123666
 21
7198.497424545866
 31
0.0
  0
LINE
  5
162F2
330
747D
100
AcDbEntity
  8
部品1
100
AcDbLine
 10
2847.673057123666
 20
7207.497424545865
 30
0.0
 11
2799.673057123666
 21
7207.497424545865
 31
0.0
  0
LINE
  5
162F3
330
747D
100
AcDbEntity
  8
部品1
100
AcDbLine
 10
2847.673057123666
 20
7168.497424545865
 30
0.0
 11
2799.673057123666
 21
7168.497424545865
 31
0.0
  0
LINE
  5
162F4
330
747D
100
AcDbEntity
  8
部品1
100
AcDbLine
 10
2799.673057123665
 20
7178.497424545864
 30
0.0
 11
2776.673057123666
 21
7178.497424545864
 31
0.0
  0
LINE
  5
162F5
330
747D
100
AcDbEntity
  8
部品1
100
AcDbLine
 10
2799.673057123665
 20
7197.497424545789
 30
0.0
 11
2744.673057123664
 21
7197.497424545789
 31
0.0
  0
LINE
  5
162F6
330
747D
100
AcDbEntity
  8
部品1
100
AcDbLine
 10
2772.673057123648
 20
7197.497424545826
 30
0.0
 11
2744.673057123664
 21
7197.497424545826
 31
0.0
  0
LINE
  5
162F7
330
747D
100
AcDbEntity
  8
部品1
100
AcDbLine
 10
2772.673057123664
 20
7197.49742454584
 30
0.0
 11
2744.673057123664
 21
7197.49742454584
 31
0.0
  0
LINE
  5
162FB
330
747D
100
AcDbEntity
  8
部品1
100
AcDbLine
 10
2772.673057123653
 20
7617.49742454584
 30
0.0
 11
2744.673057123652
 21
7617.49742454584
 31
0.0
  0
LINE
  5
162FC
330
747D
100
AcDbEntity
  8
部品1
100
AcDbLine
 10
2772.673057123653
 20
8037.49742454584
 30
0.0
 11
2744.673057123652
 21
8037.49742454584
 31
0.0
  0
LINE
  5
162FE
330
747D
100
AcDbEntity
  8
部品1
100
AcDbLine
 10
2772.673057123647
 20
8457.49742454584
 30
0.0
 11
2744.673057123647
 21
8457.49742454584
 31
0.0
  0
LINE
  5
162FF
330
747D
100
AcDbEntity
  8
部品1
100
AcDbLine
 10
7949.67305712367
 20
10137.49742454588
 30
0.0
 11
7949.67305712365
 21
7142.497424545952
 31
0.0
  0
LINE
  5
16300
330
747D
100
AcDbEntity
  8
部品1
100
AcDbLine
 10
7924.673057123674
 20
10137.49742454588
 30
0.0
 11
7924.67305712365
 21
7207.497424545865
 31
0.0
  0
DIMENSION
  5
16301
330
747D
100
AcDbEntity
  8
寸法
 48
50.0
100
AcDbDimension
  2
*D9
 10
7901.673057123648
 20
6608.0666537797
 30
0.0
 11
7790.710159474901
 21
6708.0666537797
 31
0.0
 70
   160
 71
     5
 42
48.00000000000181
  3
INABA_S40G
100
AcDbAlignedDimension
 13
7949.67305712365
 23
7142.497424545952
 33
0.0
 14
7901.673057123648
 24
7168.497424545865
 34
0.0
100
AcDbRotatedDimension
1001
ACAD
1000
DSTYLE
1002
{
1070
   279
1070
     2
1002
}
  0
DIMENSION
  5
16302
330
747D
100
AcDbEntity
  8
寸法
 48
50.0
100
AcDbDimension
  2
*D10
 10
7949.67305712365
 20
6608.066653779701
 30
0.0
 11
8313.158338497885
 21
6608.066653779701
 31
0.0
 70
   160
 71
     5
 42
54.99999999999818
  3
INABA_S40G
100
AcDbAlignedDimension
 13
8004.673057123648
 23
7142.497424545957
 33
0.0
 14
7949.67305712365
 24
7142.497424545952
 34
0.0
100
AcDbRotatedDimension
1001
ACAD
1000
DSTYLE
1002
{
1002
}
  0
LINE
  5
16303
330
747D
100
AcDbEntity
  8
部品1
 48
50.0
100
AcDbLine
 10
7939.673057123648
 20
7168.497424545865
 30
0.0
 11
7949.673057123648
 21
7147.497424545864
 31
0.0
  0
LINE
  5
16304
330
747D
100
AcDbEntity
  8
部品1
100
AcDbLine
 10
7901.673057123648
 20
7207.497424545865
 30
0.0
 11
7949.67305712365
 21
7207.497424545865
 31
0.0
  0
LINE
  5
16305
330
747D
100
AcDbEntity
  8
部品1
100
AcDbLine
 10
7901.673057123648
 20
7168.497424545865
 30
0.0
 11
7949.673057123648
 21
7168.497424545865
 31
0.0
  0
LINE
  5
16306
330
747D
100
AcDbEntity
  8
部品1
 48
50.0
100
AcDbLine
 10
7901.673057123648
 20
7207.497424545865
 30
0.0
 11
7901.673057123648
 21
7198.497424545866
 31
0.0
  0
LINE
  5
16307
330
747D
100
AcDbEntity
  8
部品1
 48
50.0
100
AcDbLine
 10
7901.673057123648
 20
7168.497424545865
 30
0.0
 11
7901.673057123648
 21
7177.497424545865
 31
0.0
  0
LINE
  5
16308
330
747D
100
AcDbEntity
  8
部品1
100
AcDbLine
 10
7949.673057123648
 20
7178.497424545863
 30
0.0
 11
7972.673057123647
 21
7178.497424545864
 31
0.0
  0
LINE
  5
16309
330
747D
100
AcDbEntity
  8
部品1
100
AcDbLine
 10
7949.673057123648
 20
7197.497424545968
 30
0.0
 11
8004.67305712368
 21
7197.497424545968
 31
0.0
  0
LINE
  5
1630A
330
747D
100
AcDbEntity
  8
部品1
100
AcDbLine
 10
8004.673057123648
 20
7142.497424545957
 30
0.0
 11
7949.67305712365
 21
7142.497424545954
 31
0.0
  0
LINE
  5
16317
330
747D
100
AcDbEntity
  8
部品1
100
AcDbLine
 10
7976.673057123676
 20
7617.497424545966
 30
0.0
 11
8004.673057123676
 21
7617.497424545966
 31
0.0
  0
LINE
  5
16319
330
747D
100
AcDbEntity
  8
部品1
100
AcDbLine
 10
7976.673057123676
 20
8037.497424545966
 30
0.0
 11
8004.673057123676
 21
8037.497424545966
 31
0.0
  0
LINE
  5
1631A
330
747D
100
AcDbEntity
  8
部品1
100
AcDbLine
 10
7976.673057123673
 20
8457.497424545968
 30
0.0
 11
8004.673057123673
 21
8457.497424545968
 31
0.0
  0
LINE
  5
1631B
330
747D
100
AcDbEntity
  8
部品1
100
AcDbLine
 10
5402.673057123673
 20
10164.49742454598
 30
0.0
 11
6677.17305712367
 21
10164.49742454598
 31
0.0
  0
DIMENSION
  5
1631F
330
747D
100
AcDbEntity
  8
寸法
100
AcDbDimension
  2
*D11
 10
7949.673057123674
 20
10408.30564417096
 30
0.0
 11
6689.673057123673
 21
10508.31745519459
 31
0.0
 70
    32
  1
6X420=<>
 71
     5
 42
2520.000000000001
  3
INABA_S40G
100
AcDbAlignedDimension
 13
5429.673057123672
 23
10192.49742454587
 33
0.0
 14
7949.673057123674
 24
10192.49742454596
 34
0.0
100
AcDbRotatedDimension
1001
ACAD
1000
DSTYLE
1002
{
1002
}
  0
DIMENSION
  5
16320
330
747D
100
AcDbEntity
  8
寸法
100
AcDbDimension
  2
*D12
 10
2799.673057123672
 20
10408.30564417085
 30
0.0
 11
2436.187775749399
 21
10408.30564417085
 31
0.0
 70
   160
 71
     5
 42
55.00000000003456
  3
INABA_S40G
100
AcDbAlignedDimension
 13
2744.673057123638
 23
10192.49742454587
 33
0.0
 14
2799.673057123672
 24
10192.49742454587
 34
0.0
100
AcDbRotatedDimension
1001
ACAD
1000
DSTYLE
1002
{
1002
}
  0
LINE
  5
16321
330
747D
100
AcDbEntity
  8
部品1
100
AcDbLine
 10
2799.673057123638
 20
10192.49742454583
 30
0.0
 11
2799.673057123639
 21
10164.49742454583
 31
0.0
  0
LINE
  5
16322
330
747D
100
AcDbEntity
  8
部品1
100
AcDbLine
 10
2799.673057123672
 20
10192.49742454587
 30
0.0
 11
2799.673057123672
 21
10164.49742454587
 31
0.0
  0
LINE
  5
16323
330
747D
100
AcDbEntity
  8
部品1
100
AcDbLine
 10
2772.67305712364
 20
10137.49742454584
 30
0.0
 11
2744.67305712364
 21
10137.49742454584
 31
0.0
  0
LINE
  5
16324
330
747D
100
AcDbEntity
  8
部品1
100
AcDbLine
 10
5849.673057123673
 20
10192.49742454598
 30
0.0
 11
5849.673057123673
 21
10164.49742454598
 31
0.0
  0
LINE
  5
16325
330
747D
100
AcDbEntity
  8
部品1
100
AcDbLine
 10
5849.673057123673
 20
10192.49742454587
 30
0.0
 11
5849.673057123673
 21
10164.49742454587
 31
0.0
  0
LINE
  5
16326
330
747D
100
AcDbEntity
  8
部品1
100
AcDbLine
 10
5849.673057123673
 20
10192.49742454587
 30
0.0
 11
5849.673057123673
 21
10164.49742454587
 31
0.0
  0
LINE
  5
16327
330
747D
100
AcDbEntity
  8
部品1
100
AcDbLine
 10
6702.173057123672
 20
10164.49742454598
 30
0.0
 11
7976.673057123673
 21
10164.49742454596
 31
0.0
  0
LINE
  5
16329
330
747D
100
AcDbEntity
  8
部品1
100
AcDbLine
 10
6269.673057123672
 20
10192.49742454598
 30
0.0
 11
6269.673057123672
 21
10164.49742454598
 31
0.0
  0
LINE
  5
1632A
330
747D
100
AcDbEntity
  8
部品1
100
AcDbLine
 10
6269.673057123672
 20
10192.49742454587
 30
0.0
 11
6269.673057123672
 21
10164.49742454587
 31
0.0
  0
LINE
  5
1632B
330
747D
100
AcDbEntity
  8
部品1
100
AcDbLine
 10
6269.673057123672
 20
10192.49742454587
 30
0.0
 11
6269.673057123672
 21
10164.49742454587
 31
0.0
  0
LINE
  5
1632C
330
747D
100
AcDbEntity
  8
部品1
100
AcDbLine
 10
6689.673057123671
 20
10192.49742454598
 30
0.0
 11
6689.673057123671
 21
10164.49742454598
 31
0.0
  0
LINE
  5
1632D
330
747D
100
AcDbEntity
  8
部品1
100
AcDbLine
 10
6677.173057123671
 20
10156.49742454596
 30
0.0
 11
6702.173057123672
 21
10156.49742454597
 31
0.0
  0
LINE
  5
1632E
330
747D
100
AcDbEntity
  8
部品1
100
AcDbLine
 10
6718.673057123672
 20
10182.49742454597
 30
0.0
 11
6724.673057123673
 21
10182.49742454597
 31
0.0
  0
LINE
  5
1632F
330
747D
100
AcDbEntity
  8
部品1
100
AcDbLine
 10
6724.673057123673
 20
10182.49742454597
 30
0.0
 11
6724.673057123673
 21
10164.49742454597
 31
0.0
  0
LINE
  5
16330
330
747D
100
AcDbEntity
  8
部品1
100
AcDbLine
 10
6654.673057123672
 20
10182.49742454597
 30
0.0
 11
6660.673057123672
 21
10182.49742454597
 31
0.0
  0
LINE
  5
16331
330
747D
100
AcDbEntity
  8
部品1
100
AcDbLine
 10
6654.673057123672
 20
10182.49742454597
 30
0.0
 11
6654.673057123672
 21
10164.49742454597
 31
0.0
  0
DIMENSION
  5
16333
330
747D
100
AcDbEntity
  8
寸法
100
AcDbDimension
  2
*D13
 10
8004.673057123673
 20
10408.30564417095
 30
0.0
 11
8313.158338497911
 21
10408.30564417095
 31
0.0
 70
   160
 71
     5
 42
55.0
  3
INABA_S40G
100
AcDbAlignedDimension
 13
7949.673057123674
 23
10192.49742454596
 33
0.0
 14
8004.673057123673
 24
10192.49742454596
 34
0.0
100
AcDbRotatedDimension
1001
ACAD
1000
DSTYLE
1002
{
1002
}
  0
LINE
  5
16334
330
747D
100
AcDbEntity
  8
部品1
100
AcDbLine
 10
7109.673057123671
 20
10192.49742454598
 30
0.0
 11
7109.673057123671
 21
10164.49742454598
 31
0.0
  0
LINE
  5
16335
330
747D
100
AcDbEntity
  8
部品1
100
AcDbLine
 10
7949.673057123674
 20
10192.49742454596
 30
0.0
 11
7949.673057123674
 21
10164.49742454596
 31
0.0
  0
LINE
  5
16336
330
747D
100
AcDbEntity
  8
部品1
100
AcDbLine
 10
7949.673057123674
 20
10192.49742454598
 30
0.0
 11
7949.673057123674
 21
10164.49742454598
 31
0.0
  0
LINE
  5
16337
330
747D
100
AcDbEntity
  8
部品1
100
AcDbLine
 10
7976.673057123673
 20
10137.49742454596
 30
0.0
 11
8004.673057123673
 21
10137.49742454596
 31
0.0
  0
LINE
  5
1655C
330
747D
100
AcDbEntity
  8
部品1
100
AcDbLine
 10
5271.673057123667
 20
4177.35920419623
 30
0.0
 11
5271.673057123663
 21
2202.359204196229
 31
0.0
  0
LINE
  5
1655D
330
747D
100
AcDbEntity
  8
部品1
100
AcDbLine
 10
5319.673057123665
 20
4177.359204196229
 30
0.0
 11
5319.673057123664
 21
2202.359204196229
 31
0.0
  0
LINE
  5
1655E
330
747D
100
AcDbEntity
  8
破線
 48
5.0
100
AcDbLine
 10
5271.673057123663
 20
2202.359204196229
 30
0.0
 11
5271.673057123666
 21
1952.359204196229
 31
0.0
  0
LINE
  5
1655F
330
747D
100
AcDbEntity
  8
破線
 48
5.0
100
AcDbLine
 10
5319.673057123668
 20
1952.359204196229
 30
0.0
 11
5271.673057123666
 21
1952.359204196229
 31
0.0
  0
LINE
  5
16560
330
747D
100
AcDbEntity
  8
破線
 48
5.0
100
AcDbLine
 10
5319.673057123664
 20
2202.359204196229
 30
0.0
 11
5319.673057123665
 21
1927.359204196229
 31
0.0
  0
LINE
  5
16561
330
747D
100
AcDbEntity
  8
破線
 48
5.0
100
AcDbLine
 10
5429.673057123665
 20
1927.359204196229
 30
0.0
 11
5319.673057123665
 21
1927.359204196229
 31
0.0
  0
LINE
  5
16562
330
747D
100
AcDbEntity
  8
部品1
100
AcDbLine
 10
5477.673057123666
 20
4177.359204196229
 30
0.0
 11
5477.673057123666
 21
2202.359204196229
 31
0.0
  0
LINE
  5
16563
330
747D
100
AcDbEntity
  8
破線
 48
5.0
100
AcDbLine
 10
5477.673057123666
 20
2202.359204196229
 30
0.0
 11
5477.673057123664
 21
1952.359204196234
 31
0.0
  0
LINE
  5
16564
330
747D
100
AcDbEntity
  8
破線
 48
5.0
100
AcDbLine
 10
5477.673057123664
 20
1952.359204196235
 30
0.0
 11
5429.673057123665
 21
1952.359204196235
 31
0.0
  0
LINE
  5
16565
330
747D
100
AcDbEntity
  8
破線
 48
5.0
100
AcDbLine
 10
5429.673057123665
 20
2202.359204196229
 30
0.0
 11
5429.673057123665
 21
1927.359204196229
 31
0.0
  0
LINE
  5
16566
330
747D
100
AcDbEntity
  8
部品1
100
AcDbLine
 10
5429.673057123665
 20
4177.359204196229
 30
0.0
 11
5429.673057123665
 21
2202.359204196229
 31
0.0
  0
LINE
  5
16567
330
747D
100
AcDbEntity
  8
部品1
100
AcDbLine
 10
5429.673057123665
 20
4177.359204196229
 30
0.0
 11
8004.673057123666
 21
4177.359204196229
 31
0.0
  0
DIMENSION
  5
1659A
330
747D
100
AcDbEntity
  8
寸法
 48
50.0
100
AcDbDimension
  2
*D15
 10
5271.673057123647
 20
6608.0666537797
 30
0.0
 11
5160.7101594749
 21
6708.0666537797
 31
0.0
 70
   160
 71
     5
 42
48.00000000000181
  3
INABA_S40G
100
AcDbAlignedDimension
 13
5319.673057123649
 23
7142.497424545952
 33
0.0
 14
5271.673057123647
 24
7168.497424545865
 34
0.0
100
AcDbRotatedDimension
1001
ACAD
1000
DSTYLE
1002
{
1070
   279
1070
     2
1002
}
  0
DIMENSION
  5
1659C
330
747D
100
AcDbEntity
  8
寸法
 48
50.0
100
AcDbDimension
  2
*D14
 10
2799.673057123662
 20
6608.0666537797
 30
0.0
 11
3380.575028123723
 21
6708.0666537797
 31
0.0
 70
   160
 71
     5
 42
48.00000000000363
  3
INABA_S40G
100
AcDbAlignedDimension
 13
2847.673057123666
 23
7168.497424545865
 33
0.0
 14
2799.673057123662
 24
7142.497424545864
 34
0.0
100
AcDbRotatedDimension
1001
ACAD
1000
DSTYLE
1002
{
1070
   279
1070
     2
1002
}
  0
DIMENSION
  5
165E9
330
747D
100
AcDbEntity
  8
寸法
 48
50.0
100
AcDbDimension
  2
*D16
 10
5319.673057123649
 20
6608.066653779701
 30
0.0
 11
5374.673057123656
 21
6456.37475874347
 31
0.0
 70
   160
 71
     5
 42
110.0000000000127
  3
INABA_S40G
100
AcDbAlignedDimension
 13
5429.673057123662
 23
7142.497424545864
 33
0.0
 14
5319.673057123649
 24
7142.497424545952
 34
0.0
100
AcDbRotatedDimension
1001
ACAD
1000
DSTYLE
1002
{
1070
   279
1070
     2
1002
}
  0
LINE
  5
16656
330
747D
100
AcDbEntity
  8
部品1
100
AcDbLine
 10
5271.673057123647
 20
7207.497424545865
 30
0.0
 11
5319.673057123649
 21
7207.497424545865
 31
0.0
  0
LINE
  5
16657
330
747D
100
AcDbEntity
  8
部品1
 48
50.0
100
AcDbLine
 10
5271.673057123647
 20
7207.497424545865
 30
0.0
 11
5271.673057123647
 21
7198.497424545866
 31
0.0
  0
LINE
  5
16658
330
747D
100
AcDbEntity
  8
部品1
100
AcDbLine
 10
5271.673057123647
 20
7168.497424545865
 30
0.0
 11
5319.673057123647
 21
7168.497424545865
 31
0.0
  0
LINE
  5
16659
330
747D
100
AcDbEntity
  8
部品1
 48
50.0
100
AcDbLine
 10
5271.673057123647
 20
7168.497424545865
 30
0.0
 11
5271.673057123647
 21
7177.497424545865
 31
0.0
  0
LINE
  5
1665A
330
747D
100
AcDbEntity
  8
部品1
 48
50.0
100
AcDbLine
 10
5309.673057123648
 20
7168.497424545865
 30
0.0
 11
5319.673057123647
 21
7147.497424545864
 31
0.0
  0
LINE
  5
1665B
330
747D
100
AcDbEntity
  8
部品1
100
AcDbLine
 10
5319.673057123647
 20
7178.497424545863
 30
0.0
 11
5342.673057123647
 21
7178.497424545864
 31
0.0
  0
LINE
  5
1665C
330
747D
100
AcDbEntity
  8
部品1
100
AcDbLine
 10
5477.673057123666
 20
7207.497424545865
 30
0.0
 11
5429.673057123665
 21
7207.497424545865
 31
0.0
  0
LINE
  5
1665D
330
747D
100
AcDbEntity
  8
部品1
 48
50.0
100
AcDbLine
 10
5477.673057123666
 20
7207.497424545865
 30
0.0
 11
5477.673057123666
 21
7198.497424545866
 31
0.0
  0
LINE
  5
1665E
330
747D
100
AcDbEntity
  8
部品1
100
AcDbLine
 10
5477.673057123666
 20
7168.497424545865
 30
0.0
 11
5429.673057123665
 21
7168.497424545865
 31
0.0
  0
LINE
  5
1665F
330
747D
100
AcDbEntity
  8
部品1
 48
50.0
100
AcDbLine
 10
5439.673057123666
 20
7168.497424545865
 30
0.0
 11
5429.673057123665
 21
7147.497424545864
 31
0.0
  0
LINE
  5
16660
330
747D
100
AcDbEntity
  8
部品1
100
AcDbLine
 10
5429.673057123665
 20
7178.497424545864
 30
0.0
 11
5406.673057123666
 21
7178.497424545864
 31
0.0
  0
LINE
  5
16661
330
747D
100
AcDbEntity
  8
部品1
 48
50.0
100
AcDbLine
 10
5429.673057123665
 20
7207.497424545863
 30
0.0
 11
5429.673057123662
 21
7142.497424545864
 31
0.0
  0
LINE
  5
16662
330
747D
100
AcDbEntity
  8
部品1
 48
50.0
100
AcDbLine
 10
5477.673057123666
 20
7168.497424545865
 30
0.0
 11
5477.673057123666
 21
7177.497424545865
 31
0.0
  0
LINE
  5
16663
330
747D
100
AcDbEntity
  8
部品1
100
AcDbLine
 10
5429.673057123661
 20
7142.497424545864
 30
0.0
 11
5319.673057123651
 21
7142.497424545858
 31
0.0
  0
LINE
  5
16664
330
747D
100
AcDbEntity
  8
部品1
 48
50.0
100
AcDbLine
 10
5319.673057123655
 20
7207.497424545952
 30
0.0
 11
5319.673057123651
 21
7142.497424545952
 31
0.0
  0
LINE
  5
16666
330
747D
100
AcDbEntity
  8
部品1
100
AcDbLine
 10
5429.673057123672
 20
10192.49742454587
 30
0.0
 11
5429.673057123672
 21
10164.49742454587
 31
0.0
  0
LINE
  5
16692
330
747D
100
AcDbEntity
  8
部品1
100
AcDbLine
 10
5319.673057123673
 20
10192.49742454596
 30
0.0
 11
5319.673057123673
 21
10164.49742454596
 31
0.0
  0
DIMENSION
  5
166DD
330
747D
100
AcDbEntity
  8
寸法
 48
50.0
100
AcDbDimension
  2
*D17
 10
5319.673057123673
 20
10408.30564417096
 30
0.0
 11
5374.673057123673
 21
10508.30564417096
 31
0.0
 70
    32
 71
     5
 42
109.9999999999991
  3
INABA_S40G
100
AcDbAlignedDimension
 13
5429.673057123672
 23
10192.49742454592
 33
0.0
 14
5319.673057123673
 24
10192.49742454591
 34
0.0
100
AcDbRotatedDimension
1001
ACAD
1000
DSTYLE
1002
{
1070
   279
1070
     2
1002
}
  0
LINE
  5
16760
330
747D
100
AcDbEntity
  8
部品1
 48
50.0
100
AcDbLine
 10
5374.673057123638
 20
10164.49742454591
 30
0.0
 11
5346.67305712364
 21
10192.49742454596
 31
0.0
  0
LINE
  5
16761
330
747D
100
AcDbEntity
  8
部品1
100
AcDbLine
 10
7949.673057123668
 20
10137.49742454588
 30
0.0
 11
5429.673057123652
 21
10137.49742454588
 31
0.0
  0
LINE
  5
16762
330
747D
100
AcDbEntity
  8
部品1
 48
50.0
100
AcDbLine
 10
5346.67305712364
 20
10164.49742454601
 30
0.0
 11
5346.67305712364
 21
10192.49742454596
 31
0.0
  0
LINE
  5
16763
330
747D
100
AcDbEntity
  8
部品1
 48
50.0
100
AcDbLine
 10
5346.67305712364
 20
10164.49742454591
 30
0.0
 11
5374.673057123638
 21
10164.49742454591
 31
0.0
  0
LINE
  5
168C3
330
747D
100
AcDbEntity
  8
部品1
100
AcDbLine
 10
5398.673057123657
 20
7197.497424545861
 30
0.0
 11
5350.673057123656
 21
7197.49742454586
 31
0.0
  0
LINE
  5
168C4
330
747D
100
AcDbEntity
  8
部品1
 48
50.0
100
AcDbLine
 10
5350.673057123657
 20
7197.497424545861
 30
0.0
 11
5350.67305712366
 21
7142.497424545862
 31
0.0
  0
LINE
  5
168C5
330
747D
100
AcDbEntity
  8
部品1
 48
50.0
100
AcDbLine
 10
5398.673057123657
 20
7197.497424545861
 30
0.0
 11
5398.673057123659
 21
7142.497424545862
 31
0.0
  0
DIMENSION
  5
16913
330
747D
100
AcDbEntity
  8
寸法
 48
50.0
100
AcDbDimension
  2
*D18
 10
8004.673057123673
 20
10657.62711772726
 30
0.0
 11
6689.673057123673
 21
10757.63892875088
 31
0.0
 70
    32
 71
     5
 42
2630.0
  3
INABA_S40G
100
AcDbAlignedDimension
 13
5374.673057123673
 23
10567.29355852891
 33
0.0
 14
8004.673057123673
 24
10192.49742454596
 34
0.0
100
AcDbRotatedDimension
1001
ACAD
1000
DSTYLE
1002
{
1070
    75
1070
     1
1070
   279
1070
     2
1002
}
  0
LINE
  5
172BC
330
747D
100
AcDbEntity
  8
部品1
 48
50.0
100
AcDbLine
 10
5402.67305712364
 20
10137.49742454588
 30
0.0
 11
5402.673057123706
 21
10192.49742454591
 31
0.0
  0
LINE
  5
172BD
330
747D
100
AcDbEntity
  8
部品1
 48
50.0
100
AcDbLine
 10
5346.67305712364
 20
10137.49742454588
 30
0.0
 11
5346.67305712364
 21
10164.49742454591
 31
0.0
  0
LINE
  5
174C8
330
747D
100
AcDbEntity
  8
部品1
 48
50.0
100
AcDbLine
 10
7924.673057123674
 20
10112.49742454584
 30
0.0
 11
5454.673057123626
 21
10112.49742454581
 31
0.0
  0
LINE
  5
174C9
330
747D
100
AcDbEntity
  8
部品1
 48
50.0
100
AcDbLine
 10
7976.673057123673
 20
10164.49742454596
 30
0.0
 11
7949.673057123668
 21
10137.49742454588
 31
0.0
  0
LINE
  5
174CA
330
747D
100
AcDbEntity
  8
部品1
 48
50.0
100
AcDbLine
 10
2799.673057123643
 20
10137.49742454588
 30
0.0
 11
2772.673057123659
 21
10164.49742454598
 31
0.0
  0
LINE
  5
174CB
330
747D
100
AcDbEntity
  8
部品1
 48
50.0
100
AcDbLine
 10
6677.173057123671
 20
10156.49742454596
 30
0.0
 11
6677.173057123671
 21
10164.49742454598
 31
0.0
  0
LINE
  5
174CC
330
747D
100
AcDbEntity
  8
部品1
 48
50.0
100
AcDbLine
 10
6702.173057123672
 20
10156.49742454597
 30
0.0
 11
6702.173057123672
 21
10164.49742454598
 31
0.0
  0
LINE
  5
17B10
330
747D
100
AcDbEntity
  8
細線
100
AcDbLine
 10
5271.673057123666
 20
2212.35920419623
 30
0.0
 11
2847.673057123661
 21
2212.35920419623
 31
0.0
  0
LINE
  5
17B1E
330
747D
100
AcDbEntity
  8
細線
100
AcDbLine
 10
2847.673057123662
 20
3837.359204196229
 30
0.0
 11
5271.673057123663
 21
3837.359204196229
 31
0.0
  0
LINE
  5
17B1F
330
747D
100
AcDbEntity
  8
細線
100
AcDbLine
 10
2847.673057123662
 20
3902.35920419623
 30
0.0
 11
5271.673057123663
 21
3902.35920419623
 31
0.0
  0
LINE
  5
17B20
330
747D
100
AcDbEntity
  8
細線
100
AcDbLine
 10
2847.673057123662
 20
3967.35920419623
 30
0.0
 11
5271.673057123663
 21
3967.35920419623
 31
0.0
  0
LINE
  5
17B21
330
747D
100
AcDbEntity
  8
細線
100
AcDbLine
 10
2847.673057123662
 20
3447.35920419623
 30
0.0
 11
5271.673057123663
 21
3447.35920419623
 31
0.0
  0
LINE
  5
17B22
330
747D
100
AcDbEntity
  8
細線
100
AcDbLine
 10
2847.673057123662
 20
3512.35920419623
 30
0.0
 11
5271.673057123663
 21
3512.35920419623
 31
0.0
  0
LINE
  5
17B23
330
747D
100
AcDbEntity
  8
細線
100
AcDbLine
 10
2847.673057123662
 20
3577.35920419623
 30
0.0
 11
5271.673057123663
 21
3577.35920419623
 31
0.0
  0
LINE
  5
17B24
330
747D
100
AcDbEntity
  8
細線
100
AcDbLine
 10
2847.673057123662
 20
3642.35920419623
 30
0.0
 11
5271.673057123663
 21
3642.35920419623
 31
0.0
  0
LINE
  5
17B25
330
747D
100
AcDbEntity
  8
細線
100
AcDbLine
 10
2847.673057123662
 20
3707.35920419623
 30
0.0
 11
5271.673057123663
 21
3707.35920419623
 31
0.0
  0
LINE
  5
17B26
330
747D
100
AcDbEntity
  8
細線
100
AcDbLine
 10
2847.673057123662
 20
3772.359204196229
 30
0.0
 11
5271.673057123663
 21
3772.359204196229
 31
0.0
  0
LINE
  5
17B27
330
747D
100
AcDbEntity
  8
細線
100
AcDbLine
 10
2847.673057123662
 20
2797.35920419623
 30
0.0
 11
5271.673057123663
 21
2797.35920419623
 31
0.0
  0
LINE
  5
17B28
330
747D
100
AcDbEntity
  8
細線
100
AcDbLine
 10
2847.673057123662
 20
2862.35920419623
 30
0.0
 11
5271.673057123663
 21
2862.35920419623
 31
0.0
  0
LINE
  5
17B29
330
747D
100
AcDbEntity
  8
細線
100
AcDbLine
 10
2847.673057123662
 20
2927.35920419623
 30
0.0
 11
5271.673057123663
 21
2927.35920419623
 31
0.0
  0
LINE
  5
17B2A
330
747D
100
AcDbEntity
  8
細線
100
AcDbLine
 10
2847.673057123662
 20
2992.35920419623
 30
0.0
 11
5271.673057123663
 21
2992.35920419623
 31
0.0
  0
LINE
  5
17B2B
330
747D
100
AcDbEntity
  8
細線
100
AcDbLine
 10
2847.673057123662
 20
3057.35920419623
 30
0.0
 11
5271.673057123663
 21
3057.35920419623
 31
0.0
  0
LINE
  5
17B2C
330
747D
100
AcDbEntity
  8
細線
100
AcDbLine
 10
2847.673057123662
 20
3122.35920419623
 30
0.0
 11
5271.673057123663
 21
3122.35920419623
 31
0.0
  0
LINE
  5
17B2D
330
747D
100
AcDbEntity
  8
細線
100
AcDbLine
 10
2847.673057123662
 20
3187.35920419623
 30
0.0
 11
5271.673057123663
 21
3187.35920419623
 31
0.0
  0
LINE
  5
17B2E
330
747D
100
AcDbEntity
  8
細線
100
AcDbLine
 10
2847.673057123662
 20
3252.35920419623
 30
0.0
 11
5271.673057123663
 21
3252.35920419623
 31
0.0
  0
LINE
  5
17B2F
330
747D
100
AcDbEntity
  8
細線
100
AcDbLine
 10
2847.673057123662
 20
3317.359204196229
 30
0.0
 11
5271.673057123663
 21
3317.359204196229
 31
0.0
  0
LINE
  5
17B30
330
747D
100
AcDbEntity
  8
細線
100
AcDbLine
 10
2847.673057123662
 20
3382.35920419623
 30
0.0
 11
5271.673057123663
 21
3382.35920419623
 31
0.0
  0
LINE
  5
17B31
330
747D
100
AcDbEntity
  8
細線
100
AcDbLine
 10
2847.673057123662
 20
4097.359204196229
 30
0.0
 11
5271.673057123663
 21
4097.359204196229
 31
0.0
  0
LINE
  5
17B32
330
747D
100
AcDbEntity
  8
細線
100
AcDbLine
 10
2847.673057123662
 20
4032.359204196229
 30
0.0
 11
5271.673057123663
 21
4032.359204196229
 31
0.0
  0
LINE
  5
17B33
330
747D
100
AcDbEntity
  8
細線
100
AcDbLine
 10
2847.673057123662
 20
2277.35920419623
 30
0.0
 11
5271.673057123663
 21
2277.35920419623
 31
0.0
  0
LINE
  5
17B34
330
747D
100
AcDbEntity
  8
細線
100
AcDbLine
 10
2847.673057123662
 20
2342.35920419623
 30
0.0
 11
5271.673057123663
 21
2342.35920419623
 31
0.0
  0
LINE
  5
17B35
330
747D
100
AcDbEntity
  8
細線
100
AcDbLine
 10
2847.673057123662
 20
2407.35920419623
 30
0.0
 11
5271.673057123663
 21
2407.35920419623
 31
0.0
  0
LINE
  5
17B36
330
747D
100
AcDbEntity
  8
細線
100
AcDbLine
 10
2847.673057123662
 20
2472.35920419623
 30
0.0
 11
5271.673057123663
 21
2472.35920419623
 31
0.0
  0
LINE
  5
17B37
330
747D
100
AcDbEntity
  8
細線
100
AcDbLine
 10
2847.673057123662
 20
2537.35920419623
 30
0.0
 11
5271.673057123663
 21
2537.35920419623
 31
0.0
  0
LINE
  5
17B38
330
747D
100
AcDbEntity
  8
細線
100
AcDbLine
 10
2847.673057123662
 20
2602.35920419623
 30
0.0
 11
5271.673057123663
 21
2602.35920419623
 31
0.0
  0
LINE
  5
17B39
330
747D
100
AcDbEntity
  8
細線
100
AcDbLine
 10
2847.673057123662
 20
2667.35920419623
 30
0.0
 11
5271.673057123663
 21
2667.35920419623
 31
0.0
  0
LINE
  5
17B3A
330
747D
100
AcDbEntity
  8
細線
100
AcDbLine
 10
2847.673057123662
 20
2732.35920419623
 30
0.0
 11
5271.673057123663
 21
2732.35920419623
 31
0.0
  0
LINE
  5
17B3D
330
747D
100
AcDbEntity
  8
細線
100
AcDbLine
 10
2847.673057123662
 20
4162.359204196229
 30
0.0
 11
5271.673057123663
 21
4162.359204196229
 31
0.0
  0
LINE
  5
17B5A
330
747D
100
AcDbEntity
  8
部品1
100
AcDbLine
 10
2744.673057123665
 20
4177.359204196229
 30
0.0
 11
5429.673057123666
 21
4177.359204196229
 31
0.0
  0
DIMENSION
  5
17B86
330
747D
100
AcDbEntity
  8
寸法
 48
50.0
100
AcDbDimension
  2
*D21
 10
5374.673057123673
 20
10657.62711772726
 30
0.0
 11
4059.673057123656
 21
10757.63892875088
 31
0.0
 70
    32
 71
     5
 42
2630.000000000036
  3
INABA_S40G
100
AcDbAlignedDimension
 13
2744.673057123638
 23
10192.49742454583
 33
0.0
 14
5374.673057123673
 24
10567.29355852891
 34
0.0
100
AcDbRotatedDimension
1001
ACAD
1000
DSTYLE
1002
{
1070
   279
1070
     2
1002
}
  0
DIMENSION
  5
17B87
330
747D
100
AcDbEntity
  8
寸法
100
AcDbDimension
  2
*D20
 10
5319.673057123673
 20
10408.30564417096
 30
0.0
 11
4059.673057123672
 21
10508.31745519459
 31
0.0
 70
    32
  1
6X420=<>
 71
     5
 42
2520.000000000001
  3
INABA_S40G
100
AcDbAlignedDimension
 13
2799.673057123672
 23
10192.49742454587
 33
0.0
 14
5319.673057123673
 24
10192.49742454596
 34
0.0
100
AcDbRotatedDimension
1001
ACAD
1000
DSTYLE
1002
{
1002
}
  0
LINE
  5
17B8B
330
747D
100
AcDbEntity
  8
部品1
 48
50.0
100
AcDbLine
 10
5294.673057123643
 20
10112.49742454579
 30
0.0
 11
2824.673057123643
 21
10112.49742454579
 31
0.0
  0
LINE
  5
17BC2
330
747D
100
AcDbEntity
  8
部品1
 48
50.0
100
AcDbLine
 10
2811.673057123665
 20
7187.997424545864
 30
0.0
 11
5307.67305712365
 21
7187.997424545864
 31
0.0
  0
DIMENSION
  5
17BC3
330
747D
100
AcDbEntity
  8
寸法
 48
50.0
100
AcDbDimension
  2
*D19
 10
2847.673057123666
 20
6608.0666537797
 30
0.0
 11
4059.673057123657
 21
6708.078464803323
 31
0.0
 70
    32
  1
有効開口部間口 <>
 71
     5
 42
2423.999999999982
  3
INABA_S40G
100
AcDbAlignedDimension
 13
5271.673057123647
 23
7168.497424545865
 33
0.0
 14
2847.673057123666
 24
7168.497424545865
 34
0.0
100
AcDbRotatedDimension
1001
ACAD
1000
DSTYLE
1002
{
1070
    75
1070
     1
1070
   279
1070
     2
1002
}
  0
LINE
  5
17D0F
330
747D
100
AcDbEntity
  8
部品1
100
AcDbLine
 10
7976.673057123663
 20
9717.497424545959
 30
0.0
 11
8004.673057123664
 21
9717.497424545959
 31
0.0
  0
LINE
  5
17D10
330
747D
100
AcDbEntity
  8
部品1
100
AcDbLine
 10
7976.673057123668
 20
8877.497424545957
 30
0.0
 11
8004.673057123667
 21
8877.497424545957
 31
0.0
  0
LINE
  5
17D11
330
747D
100
AcDbEntity
  8
部品1
100
AcDbLine
 10
2772.673057123638
 20
9717.497424545832
 30
0.0
 11
2744.673057123638
 21
9717.497424545832
 31
0.0
  0
LINE
  5
17D12
330
747D
100
AcDbEntity
  8
部品1
100
AcDbLine
 10
2772.673057123643
 20
8877.497424545831
 30
0.0
 11
2744.673057123643
 21
8877.497424545831
 31
0.0
  0
LINE
  5
180FF
330
747D
100
AcDbEntity
  8
部品1
100
AcDbLine
 10
2744.673057123666
 20
2202.359204196229
 30
0.0
 11
8004.673057123666
 21
2202.359204196229
 31
0.0
  0
LINE
  5
18100
330
747D
100
AcDbEntity
  8
Ｇ．Ｌ
100
AcDbLine
 10
1656.406454453183
 20
2102.35920419623
 30
0.0
 11
14280.86855961702
 21
2102.359204196229
 31
0.0
  0
LINE
  5
18105
330
747D
100
AcDbEntity
  8
部品1
100
AcDbLine
 10
2744.673057123638
 20
10192.49742454591
 30
0.0
 11
8004.673057123673
 21
10192.49742454596
 31
0.0
  0
LINE
  5
18106
330
747D
100
AcDbEntity
  8
寸法
 48
50.0
100
AcDbLine
 10
5374.563357233144
 20
10584.76985551187
 30
0.0
 11
5374.563357233144
 21
10723.92098311983
 31
0.0
  0
LINE
  5
18161
330
747D
100
AcDbEntity
  8
部品1
100
AcDbLine
 10
5374.673057123658
 20
10137.49742454583
 30
0.0
 11
5374.673057123631
 21
7197.497424545807
 31
0.0
  0
LINE
  5
18162
330
747D
100
AcDbEntity
  8
部品1
100
AcDbLine
 10
5402.673057123618
 20
7142.497424545813
 30
0.0
 11
5402.673057123642
 21
10192.49742454586
 31
0.0
  0
LINE
  5
18163
330
747D
100
AcDbEntity
  8
部品1
 48
10.0
100
AcDbLine
 10
5454.673057123673
 20
7207.497424545812
 30
0.0
 11
5454.673057123626
 21
10137.49742454583
 31
0.0
  0
LINE
  5
18164
330
747D
100
AcDbEntity
  8
部品1
100
AcDbLine
 10
5429.673057123679
 20
7207.497424545812
 30
0.0
 11
5429.673057123651
 21
10137.49742454581
 31
0.0
  0
LINE
  5
18165
330
747D
100
AcDbEntity
  8
部品1
100
AcDbLine
 10
5346.67305712364
 20
10164.49742454591
 30
0.0
 11
5346.673057123624
 21
7142.497424545807
 31
0.0
  0
LINE
  5
18166
330
747D
100
AcDbEntity
  8
部品1
 48
10.0
100
AcDbLine
 10
5294.673057123667
 20
7207.497424545812
 30
0.0
 11
5294.673057123642
 21
10137.49742454581
 31
0.0
  0
LINE
  5
18167
330
747D
100
AcDbEntity
  8
部品1
100
AcDbLine
 10
5319.673057123658
 20
7207.497424545812
 30
0.0
 11
5319.673057123651
 21
10137.49742454581
 31
0.0
  0
LINE
  5
18168
330
747D
100
AcDbEntity
  8
部品1
100
AcDbLine
 10
5346.67305712366
 20
8457.497424545914
 30
0.0
 11
5374.67305712366
 21
8457.497424545914
 31
0.0
  0
LINE
  5
18169
330
747D
100
AcDbEntity
  8
部品1
100
AcDbLine
 10
5346.67305712366
 20
8877.497424545914
 30
0.0
 11
5374.67305712366
 21
8877.497424545914
 31
0.0
  0
LINE
  5
1816A
330
747D
100
AcDbEntity
  8
部品1
100
AcDbLine
 10
5346.67305712366
 20
9717.497424545914
 30
0.0
 11
5374.67305712366
 21
9717.497424545914
 31
0.0
  0
LINE
  5
1816B
330
747D
100
AcDbEntity
  8
部品1
 48
50.0
100
AcDbLine
 10
5402.673057123693
 20
10164.49742454572
 30
0.0
 11
5429.673057123682
 21
10137.49742454573
 31
0.0
  0
LINE
  5
1816C
330
747D
100
AcDbEntity
  8
部品1
 48
50.0
100
AcDbLine
 10
5346.673057123708
 20
10164.49742454581
 30
0.0
 11
5319.673057123704
 21
10137.49742454581
 31
0.0
  0
LINE
  5
1816F
330
747D
100
AcDbEntity
  8
部品1
100
AcDbLine
 10
5319.673057123651
 20
10137.49742454588
 30
0.0
 11
2799.673057123643
 21
10137.49742454588
 31
0.0
  0
LINE
  5
18170
330
747D
100
AcDbEntity
  8
部品1
100
AcDbLine
 10
5402.673057123641
 20
10137.49742454588
 30
0.0
 11
5346.67305712364
 21
10137.49742454588
 31
0.0
  0
LINE
  5
18171
330
747D
100
AcDbEntity
  8
部品1
100
AcDbLine
 10
5346.673057123666
 20
8037.497424545914
 30
0.0
 11
5374.673057123667
 21
8037.497424545914
 31
0.0
  0
LINE
  5
18172
330
747D
100
AcDbEntity
  8
部品1
100
AcDbLine
 10
5346.673057123666
 20
7617.497424545914
 30
0.0
 11
5374.673057123667
 21
7617.497424545914
 31
0.0
  0
LINE
  5
181F6
330
747D
100
AcDbEntity
  8
部品1
100
AcDbLine
 10
7976.673057123668
 20
9297.497424545957
 30
0.0
 11
8004.673057123667
 21
9297.497424545957
 31
0.0
  0
LINE
  5
181F7
330
747D
100
AcDbEntity
  8
部品1
100
AcDbLine
 10
5346.67305712366
 20
9297.497424545914
 30
0.0
 11
5374.67305712366
 21
9297.497424545914
 31
0.0
  0
LINE
  5
181F9
330
747D
100
AcDbEntity
  8
部品1
100
AcDbLine
 10
2772.673057123643
 20
9297.497424545831
 30
0.0
 11
2744.673057123643
 21
9297.497424545831
 31
0.0
  0
TEXT
  5
1875B
330
747D
100
AcDbEntity
  8
文字
 62
     7
 48
50.0
100
AcDbText
 10
15022.63965474516
 20
9910.013745883727
 30
0.0
 40
100.0
  1
F12,Y10      1.2+1.6
  7
STYLE1
100
AcDbText
  0
TEXT
  5
1875C
330
747D
100
AcDbEntity
  8
文字
 62
     7
 48
50.0
100
AcDbText
 10
13583.11819016569
 20
9910.01374588373
 30
0.0
 40
100.0
  1
梁中
  7
STYLE1
100
AcDbText
  0
TEXT
  5
1875D
330
747D
100
AcDbEntity
  8
文字
 62
     7
 48
50.0
100
AcDbText
 10
13248.77747366448
 20
8720.013745883731
 30
0.0
 40
100.0
  1
14
  7
STYLE1
100
AcDbText
  0
LINE
  5
1875E
330
747D
100
AcDbEntity
  8
仕様書枠
 48
50.0
100
AcDbLine
 10
16307.19999999999
 20
9879.599999999999
 30
0.0
 11
13127.2
 21
9879.600000000001
 31
0.0
  0
LINE
  5
1875F
330
747D
100
AcDbEntity
  8
仕様書枠
 48
50.0
100
AcDbLine
 10
16307.19999999999
 20
11239.6
 30
0.0
 11
13127.2
 21
11239.6
 31
0.0
  0
LINE
  5
18760
330
747D
100
AcDbEntity
  8
仕様書枠
 48
50.0
100
AcDbLine
 10
16307.2
 20
8179.6
 30
0.0
 11
16307.2
 21
11239.6
 31
0.0
  0
LINE
  5
18761
330
747D
100
AcDbEntity
  8
仕様書枠
 48
50.0
100
AcDbLine
 10
14785.2
 20
11239.59999999999
 30
0.0
 11
14785.2
 21
8689.600000000003
 31
0.0
  0
LINE
  5
18762
330
747D
100
AcDbEntity
  8
仕様書枠
 48
50.0
100
AcDbLine
 10
13490.2
 20
11239.6
 30
0.0
 11
13490.2
 21
8689.6
 31
0.0
  0
LINE
  5
18763
330
747D
100
AcDbEntity
  8
仕様書枠
 48
50.0
100
AcDbLine
 10
16307.19999999999
 20
11069.6
 30
0.0
 11
13127.2
 21
11069.6
 31
0.0
  0
LINE
  5
18764
330
747D
100
AcDbEntity
  8
仕様書枠
 48
50.0
100
AcDbLine
 10
16307.19999999999
 20
10729.6
 30
0.0
 11
13127.2
 21
10729.6
 31
0.0
  0
LINE
  5
18765
330
747D
100
AcDbEntity
  8
仕様書枠
 48
50.0
100
AcDbLine
 10
16307.19999999999
 20
10899.6
 30
0.0
 11
13127.2
 21
10899.6
 31
0.0
  0
LINE
  5
18766
330
747D
100
AcDbEntity
  8
仕様書枠
 48
50.0
100
AcDbLine
 10
16307.19999999999
 20
10389.6
 30
0.0
 11
13127.19999999999
 21
10389.6
 31
0.0
  0
LINE
  5
18767
330
747D
100
AcDbEntity
  8
仕様書枠
 48
50.0
100
AcDbLine
 10
16307.19999999999
 20
10219.6
 30
0.0
 11
13127.19999999999
 21
10219.6
 31
0.0
  0
LINE
  5
18768
330
747D
100
AcDbEntity
  8
仕様書枠
 48
50.0
100
AcDbLine
 10
16307.19999999999
 20
10559.6
 30
0.0
 11
13127.19999999999
 21
10559.6
 31
0.0
  0
TEXT
  5
18769
330
747D
100
AcDbEntity
  8
文字
 62
     7
 48
50.0
100
AcDbText
 10
13197.42518560407
 20
11100.01374588373
 30
0.0
 40
100.0
  1
品番
  7
STYLE1
100
AcDbText
  0
TEXT
  5
1876A
330
747D
100
AcDbEntity
  8
文字
 62
     7
 48
50.0
100
AcDbText
 10
13271.19032244792
 20
10930.01374588373
 30
0.0
 40
100.0
  1
1
  7
STYLE1
100
AcDbText
  0
TEXT
  5
1876B
330
747D
100
AcDbEntity
  8
文字
 62
     7
 48
50.0
100
AcDbText
 10
13271.19032244792
 20
10760.01374588373
 30
0.0
 40
100.0
  1
2
  7
STYLE1
100
AcDbText
  0
TEXT
  5
1876C
330
747D
100
AcDbEntity
  8
文字
 62
     7
 48
50.0
100
AcDbText
 10
13271.19032244792
 20
10420.01374588373
 30
0.0
 40
100.0
  1
4
  7
STYLE1
100
AcDbText
  0
TEXT
  5
1876D
330
747D
100
AcDbEntity
  8
文字
 62
     7
 48
50.0
100
AcDbText
 10
13271.19032244792
 20
10590.01374588373
 30
0.0
 40
100.0
  1
3
  7
STYLE1
100
AcDbText
  0
TEXT
  5
1876E
330
747D
100
AcDbEntity
  8
文字
 62
     7
 48
50.0
100
AcDbText
 10
13732.03840939434
 20
11100.01374588373
 30
0.0
 40
100.0
  1
部　　品　　名
  7
STYLE1
100
AcDbText
  0
TEXT
  5
1876F
330
747D
100
AcDbEntity
  8
文字
 62
     7
 48
50.0
100
AcDbText
 10
14859.79774614482
 20
11100.01374588373
 30
0.0
 40
100.0
  1
材料（材質）　　単位mm
  7
STYLE1
100
AcDbText
  0
TEXT
  5
18770
330
747D
100
AcDbEntity
  8
文字
 62
     7
 48
50.0
100
AcDbText
 10
13583.11819016569
 20
10930.01374588372
 30
0.0
 40
100.0
  1
土台枠
  7
STYLE1
100
AcDbText
  0
TEXT
  5
18771
330
747D
100
AcDbEntity
  8
文字
 62
     7
 48
50.0
100
AcDbText
 10
13583.11819016569
 20
10760.01374588372
 30
0.0
 40
100.0
  1
柱
  7
STYLE1
100
AcDbText
  0
TEXT
  5
18772
330
747D
100
AcDbEntity
  8
文字
 62
     7
 48
50.0
100
AcDbText
 10
13583.11819016569
 20
10590.01374588373
 30
0.0
 40
100.0
  1
桁前
  7
STYLE1
100
AcDbText
  0
TEXT
  5
18773
330
747D
100
AcDbEntity
  8
文字
 62
     7
 48
50.0
100
AcDbText
 10
13583.11819016569
 20
10420.01374588373
 30
0.0
 40
100.0
  1
桁後
  7
STYLE1
100
AcDbText
  0
TEXT
  5
18774
330
747D
100
AcDbEntity
  8
文字
 62
     7
 48
50.0
100
AcDbText
 10
13271.19032244792
 20
10250.01374588373
 30
0.0
 40
100.0
  1
5
  7
STYLE1
100
AcDbText
  0
TEXT
  5
18775
330
747D
100
AcDbEntity
  8
文字
 62
     7
 48
50.0
100
AcDbText
 10
13583.11819016569
 20
10250.01374588373
 30
0.0
 40
100.0
  1
妻板左右
  7
STYLE1
100
AcDbText
  0
TEXT
  5
18776
330
747D
100
AcDbEntity
  8
文字
 62
     7
 48
50.0
100
AcDbText
 10
13583.11819016569
 20
8890.013745883727
 30
0.0
 40
100.0
  1
シャッターレール
  7
STYLE1
100
AcDbText
  0
TEXT
  5
18777
330
747D
100
AcDbEntity
  8
文字
 62
     7
 48
50.0
100
AcDbText
 10
13248.77747366448
 20
9400.013745883727
 30
0.0
 40
100.0
  1
10
  7
STYLE1
100
AcDbText
  0
TEXT
  5
18778
330
747D
100
AcDbEntity
  8
文字
 62
     7
 48
50.0
100
AcDbText
 10
13583.11819016569
 20
9400.013745883729
 30
0.0
 40
100.0
  1
壁パネル
  7
STYLE1
100
AcDbText
  0
TEXT
  5
18779
330
747D
100
AcDbEntity
  8
文字
 62
     7
 48
50.0
100
AcDbText
 10
13583.11819016569
 20
9570.013745883727
 30
0.0
 40
100.0
  1
屋根パネル
  7
STYLE1
100
AcDbText
  0
TEXT
  5
1877A
330
747D
100
AcDbEntity
  8
文字
 62
     7
 48
50.0
100
AcDbText
 10
13583.11819016569
 20
9740.013745883729
 30
0.0
 40
100.0
  1
母屋中
  7
STYLE1
100
AcDbText
  0
TEXT
  5
1877B
330
747D
100
AcDbEntity
  8
文字
 62
     7
 48
50.0
100
AcDbText
 10
13583.11819016569
 20
10080.01374588372
 30
0.0
 40
100.0
  1
鼻隠シ前後
  7
STYLE1
100
AcDbText
  0
TEXT
  5
1877C
330
747D
100
AcDbEntity
  8
文字
 62
     7
 48
50.0
100
AcDbText
 10
13271.19032244792
 20
9740.013745883729
 30
0.0
 40
100.0
  1
8
  7
STYLE1
100
AcDbText
  0
TEXT
  5
1877D
330
747D
100
AcDbEntity
  8
文字
 62
     7
 48
50.0
100
AcDbText
 10
13271.19032244792
 20
9570.013745883729
 30
0.0
 40
100.0
  1
9
  7
STYLE1
100
AcDbText
  0
TEXT
  5
1877E
330
747D
100
AcDbEntity
  8
文字
 62
     7
 48
50.0
100
AcDbText
 10
13271.19032244792
 20
9910.01374588373
 30
0.0
 40
100.0
  1
7
  7
STYLE1
100
AcDbText
  0
TEXT
  5
1877F
330
747D
100
AcDbEntity
  8
文字
 62
     7
 48
50.0
100
AcDbText
 10
13271.19032244792
 20
10080.01374588373
 30
0.0
 40
100.0
  1
6
  7
STYLE1
100
AcDbText
  0
LINE
  5
18780
330
747D
100
AcDbEntity
  8
仕様書枠
 48
50.0
100
AcDbLine
 10
16307.19999999999
 20
9539.599999999998
 30
0.0
 11
13127.19999999999
 21
9539.6
 31
0.0
  0
LINE
  5
18781
330
747D
100
AcDbEntity
  8
仕様書枠
 48
50.0
100
AcDbLine
 10
16307.19999999999
 20
9199.599999999998
 30
0.0
 11
13127.19999999999
 21
9199.600000000001
 31
0.0
  0
LINE
  5
18782
330
747D
100
AcDbEntity
  8
仕様書枠
 48
50.0
100
AcDbLine
 10
16307.19999999999
 20
9369.599999999998
 30
0.0
 11
13127.19999999999
 21
9369.600000000001
 31
0.0
  0
LINE
  5
18783
330
747D
100
AcDbEntity
  8
仕様書枠
 48
50.0
100
AcDbLine
 10
16307.19999999999
 20
10049.6
 30
0.0
 11
13127.2
 21
10049.6
 31
0.0
  0
LINE
  5
18784
330
747D
100
AcDbEntity
  8
仕様書枠
 48
50.0
100
AcDbLine
 10
16307.19999999999
 20
9709.6
 30
0.0
 11
13127.2
 21
9709.600000000001
 31
0.0
  0
TEXT
  5
18785
330
747D
100
AcDbEntity
  8
文字
 62
     7
 48
50.0
100
AcDbText
 10
13248.77747366448
 20
9230.013745883727
 30
0.0
 40
100.0
  1
11
  7
STYLE1
100
AcDbText
  0
TEXT
  5
18786
330
747D
100
AcDbEntity
  8
文字
 62
     7
 48
50.0
100
AcDbText
 10
13583.11819016569
 20
9060.013745883727
 30
0.0
 40
100.0
  1
シャッターカバー
 41
0.9
  7
STYLE1
100
AcDbText
  0
LINE
  5
18787
330
747D
100
AcDbEntity
  8
仕様書枠
 48
50.0
100
AcDbLine
 10
16307.19999999999
 20
9029.6
 30
0.0
 11
13127.19999999999
 21
9029.6
 31
0.0
  0
TEXT
  5
18789
330
747D
100
AcDbEntity
  8
文字
 62
     7
 48
50.0
100
AcDbText
 10
13583.11819016569
 20
8720.013745883729
 30
0.0
 40
100.0
  1
棚板（別売）
  7
STYLE1
100
AcDbText
  0
LINE
  5
1878A
330
747D
100
AcDbEntity
  8
仕様書枠
 48
50.0
100
AcDbLine
 10
16307.19999999999
 20
8859.6
 30
0.0
 11
13127.19999999999
 21
8859.600000000002
 31
0.0
  0
TEXT
  5
1878B
330
747D
100
AcDbEntity
  8
文字
 62
     7
 48
50.0
100
AcDbText
 10
13583.11819016569
 20
9230.013745883731
 30
0.0
 40
100.0
  1
シャッター
  7
STYLE1
100
AcDbText
  0
TEXT
  5
1878C
330
747D
100
AcDbEntity
  8
文字
 62
     7
 48
50.0
100
AcDbText
 10
13248.77747366448
 20
8890.013745883729
 30
0.0
 40
100.0
  1
13
  7
STYLE1
100
AcDbText
  0
TEXT
  5
1878D
330
747D
100
AcDbEntity
  8
文字
 62
     7
 48
50.0
100
AcDbText
 10
13248.77747366448
 20
9060.013745883729
 30
0.0
 40
100.0
  1
12
  7
STYLE1
100
AcDbText
  0
TEXT
  5
1878E
330
747D
100
AcDbEntity
  8
文字
 62
     7
 48
50.0
100
AcDbText
 10
15022.63965474517
 20
10930.01374588372
 30
0.0
 40
100.0
  1
F12            1.2
  7
STYLE1
100
AcDbText
  0
TEXT
  5
18790
330
747D
100
AcDbEntity
  8
文字
 62
     7
 48
50.0
100
AcDbText
 10
15022.63965474517
 20
10590.01374588372
 30
0.0
 40
100.0
  1
Y10            1.0
  7
STYLE1
100
AcDbText
  0
TEXT
  5
18791
330
747D
100
AcDbEntity
  8
文字
 62
     7
 48
50.0
100
AcDbText
 10
15022.63965474516
 20
10420.01374588372
 30
0.0
 40
100.0
  1
Y10            1.0
  7
STYLE1
100
AcDbText
  0
TEXT
  5
18792
330
747D
100
AcDbEntity
  8
文字
 62
     7
 48
50.0
100
AcDbText
 10
15022.63965474517
 20
10250.01374588372
 30
0.0
 40
100.0
  1
Y10            0.7
  7
STYLE1
100
AcDbText
  0
TEXT
  5
18793
330
747D
100
AcDbEntity
  8
文字
 62
     7
 48
50.0
100
AcDbText
 10
15022.63965474516
 20
10080.01374588372
 30
0.0
 40
100.0
  1
Y10            0.7
  7
STYLE1
100
AcDbText
  0
TEXT
  5
18795
330
747D
100
AcDbEntity
  8
文字
 62
     7
 48
50.0
100
AcDbText
 10
15022.63965474517
 20
9570.013745883725
 30
0.0
 40
100.0
  1
Y10            0.5
  7
STYLE1
100
AcDbText
  0
TEXT
  5
18796
330
747D
100
AcDbEntity
  8
文字
 62
     7
 48
50.0
100
AcDbText
 10
15022.63965474516
 20
9400.013745883725
 30
0.0
 40
100.0
  1
F12            0.7
  7
STYLE1
100
AcDbText
  0
TEXT
  5
18797
330
747D
100
AcDbEntity
  8
文字
 62
     7
 48
50.0
100
AcDbText
 10
14850.83183167176
 20
8890.013745883726
 30
0.0
 40
100.0
  1
アルミニウム合金押出形材
  7
STYLE1
100
AcDbText
  0
TEXT
  5
18799
330
747D
100
AcDbEntity
  8
文字
 62
     7
 48
50.0
100
AcDbText
 10
15022.63965474515
 20
9230.013745883727
 30
0.0
 40
100.0
  1
Z08            0.5
  7
STYLE1
100
AcDbText
  0
TEXT
  5
1879A
330
747D
100
AcDbEntity
  8
文字
 62
     7
 48
50.0
100
AcDbText
 10
15022.63965474515
 20
8720.013745883727
 30
0.0
 40
100.0
  1
F12            0.6
  7
STYLE1
100
AcDbText
  0
LINE
  5
1879B
330
747D
100
AcDbEntity
  8
仕様書枠
 48
50.0
100
AcDbLine
 10
16307.19999999999
 20
8519.599999999998
 30
0.0
 11
13127.19999999999
 21
8519.600000000002
 31
0.0
  0
LINE
  5
1879C
330
747D
100
AcDbEntity
  8
仕様書枠
 48
50.0
100
AcDbLine
 10
16307.19999999999
 20
8349.599999999998
 30
0.0
 11
13127.19999999999
 21
8349.6
 31
0.0
  0
LINE
  5
1879D
330
747D
100
AcDbEntity
  8
仕様書枠
 48
50.0
100
AcDbLine
 10
16307.19999999999
 20
8179.599999999998
 30
0.0
 11
13127.19999999999
 21
8179.6
 31
0.0
  0
TEXT
  5
1879E
330
747D
100
AcDbEntity
  8
文字
 62
     7
 48
50.0
100
AcDbText
 10
13229.83081656555
 20
8550.013745883727
 30
0.0
 40
100.0
  1
F12→溶融亜鉛めっき鋼板(JIS G 3302)
  7
STYLE1
100
AcDbText
  0
TEXT
  5
1879F
330
747D
100
AcDbEntity
  8
文字
 62
     7
 48
50.0
100
AcDbText
 10
13229.83081656554
 20
8380.013745883728
 30
0.0
 40
100.0
  1
Y10→溶融亜鉛-5％アルミニウム合金めっき鋼板(JIS G 3317)
 41
0.9
  7
STYLE1
100
AcDbText
  0
TEXT
  5
187A0
330
747D
100
AcDbEntity
  8
文字
 62
     7
 48
50.0
100
AcDbText
 10
13229.83081656555
 20
8210.013745883729
 30
0.0
 40
100.0
  1
Z08→塗装溶融亜鉛めっき鋼板(JIS G 3313)
  7
STYLE1
100
AcDbText
  0
LINE
  5
187A1
330
747D
100
AcDbEntity
  8
仕様書枠
 48
50.0
100
AcDbLine
 10
13127.2
 20
11239.6
 30
0.0
 11
13127.2
 21
8179.600000000002
 31
0.0
  0
TEXT
  5
18871
330
747D
100
AcDbEntity
  8
文字
 62
     7
 48
50.0
100
AcDbText
 10
14847.53274566167
 20
9741.52081350642
 30
0.0
 40
100.0
  1
F12    1.2(多雪地型  2.3)
  7
STYLE1
100
AcDbText
  0
TEXT
  5
18E43
330
747D
100
AcDbEntity
  8
文字
 62
     7
 48
50.0
100
AcDbText
 10
14243.55185591683
 20
483.8967129911416
 30
0.0
 40
160.0
  1
FXN-2630HL-2
  7
MSPゴシック
100
AcDbText
  0
LINE
  5
18E44
330
747D
100
AcDbEntity
  8
部品1
100
AcDbLine
 10
10695.5089480661
 20
2202.359204196229
 30
0.0
 11
10302.51173385725
 21
2102.359204196229
 31
0.0
  0
LINE
  5
18E45
330
747D
100
AcDbEntity
  8
破線
 48
5.0
100
AcDbLine
 10
10695.5089480661
 20
1852.359204196229
 30
0.0
 11
10750.50894806609
 21
1852.359204196229
 31
0.0
  0
LINE
  5
18E46
330
747D
100
AcDbEntity
  8
破線
 48
5.0
100
AcDbLine
 10
10750.5089480661
 20
2102.359204196229
 30
0.0
 11
10750.5089480661
 21
1852.359204196229
 31
0.0
  0
LINE
  5
18E47
330
747D
100
AcDbEntity
  8
破線
 48
5.0
100
AcDbLine
 10
10695.5089480661
 20
2102.359204196229
 30
0.0
 11
10695.5089480661
 21
1852.359204196229
 31
0.0
  0
DIMENSION
  5
18E4C
330
747D
100
AcDbEntity
  8
寸法
100
AcDbDimension
  2
*D22
 10
9851.758818882835
 20
2252.359204196224
 30
0.0
 11
9751.747007859215
 21
3297.359204196227
 31
0.0
 70
    32
 71
     5
 42
2090.000000000002
  3
INABA_S40G
100
AcDbAlignedDimension
 13
10695.50894806609
 23
4342.359204196226
 33
0.0
 14
10695.50894806609
 24
2252.359204196224
 34
0.0
 50
90.0
100
AcDbRotatedDimension
1001
ACAD
1000
DSTYLE
1002
{
1070
   174
1070
     0
1070
   272
1070
     1
1070
   288
1070
     0
1070
   341
1005
0
1002
}
  0
DIMENSION
  5
18E4D
330
747D
100
AcDbEntity
  8
寸法
100
AcDbDimension
  2
*D23
 10
9551.758818882836
 20
4577.35920419623
 30
0.0
 11
9451.747007859212
 21
3389.859204196229
 31
0.0
 70
    32
 71
     5
 42
2375.000000000006
  3
INABA_S40G
100
AcDbAlignedDimension
 13
10695.50894806609
 23
2202.359204196224
 33
0.0
 14
10635.50894806609
 24
4577.35920419623
 34
0.0
 50
90.0
100
AcDbRotatedDimension
1001
ACAD
1000
DSTYLE
1002
{
1070
   174
1070
     0
1070
   272
1070
     1
1070
   288
1070
     0
1070
   341
1005
0
1002
}
  0
DIMENSION
  5
18E4E
330
747D
100
AcDbEntity
  8
寸法
100
AcDbDimension
  2
*D24
 10
14450.43610603822
 20
4522.35920419623
 30
0.0
 11
14350.42429501459
 21
3362.359204196233
 31
0.0
 70
    32
 71
     5
 42
2320.0
  3
INABA_S40G
100
AcDbAlignedDimension
 13
13745.50894806609
 23
2202.359204196231
 33
0.0
 14
13825.50894806609
 24
4522.359204196231
 34
0.0
 50
90.0
100
AcDbRotatedDimension
1001
ACAD
1000
DSTYLE
1002
{
1070
   174
1070
     0
1070
   272
1070
     1
1070
   288
1070
     0
1070
   341
1005
0
1002
}
  0
LINE
  5
18E4F
330
747D
100
AcDbEntity
  8
細線
 48
50.0
100
AcDbLine
 10
12773.00894806609
 20
4342.359204196229
 30
0.0
 11
12773.00894806609
 21
2252.359204196231
 31
0.0
  0
LINE
  5
18E50
330
747D
100
AcDbEntity
  8
細線
 48
50.0
100
AcDbLine
 10
12788.00894806609
 20
4342.359204196229
 30
0.0
 11
12788.00894806609
 21
2252.359204196231
 31
0.0
  0
LINE
  5
18E51
330
747D
100
AcDbEntity
  8
細線
 48
50.0
100
AcDbLine
 10
12648.00894806609
 20
4342.359204196229
 30
0.0
 11
12648.00894806609
 21
2252.359204196231
 31
0.0
  0
LINE
  5
18E52
330
747D
100
AcDbEntity
  8
細線
 48
50.0
100
AcDbLine
 10
12633.00894806609
 20
4342.359204196229
 30
0.0
 11
12633.00894806609
 21
2252.359204196231
 31
0.0
  0
LINE
  5
18E53
330
747D
100
AcDbEntity
  8
細線
 48
50.0
100
AcDbLine
 10
12493.00894806609
 20
4342.359204196229
 30
0.0
 11
12493.00894806609
 21
2252.359204196231
 31
0.0
  0
LINE
  5
18E54
330
747D
100
AcDbEntity
  8
細線
 48
50.0
100
AcDbLine
 10
12508.00894806609
 20
4342.359204196229
 30
0.0
 11
12508.00894806609
 21
2252.359204196231
 31
0.0
  0
LINE
  5
18E55
330
747D
100
AcDbEntity
  8
部品1
100
AcDbLine
 10
12430.50894806609
 20
4342.359204196229
 30
0.0
 11
12430.50894806609
 21
2252.359204196231
 31
0.0
  0
LINE
  5
18E56
330
747D
100
AcDbEntity
  8
部品1
100
AcDbLine
 10
12074.02222058961
 20
4702.563592159247
 30
0.0
 11
12399.47723423264
 21
4685.045533200386
 31
0.0
  0
ARC
  5
18E57
330
747D
100
AcDbEntity
  8
部品1
100
AcDbCircle
 10
13811.13648388003
 20
4416.382961462022
 30
0.0
 40
0.7
100
AcDbArc
 50
275.0921697642102
 51
354.1866997667606
  0
ARC
  5
18E58
330
747D
100
AcDbEntity
  8
部品1
100
AcDbCircle
 10
13821.99582962936
 20
4493.426216279946
 30
0.0
 40
0.7
100
AcDbArc
 50
275.0921697642102
 51
354.1866997665532
  0
ARC
  5
18E59
330
747D
100
AcDbEntity
  8
部品1
100
AcDbCircle
 10
13822.32423487196
 20
4489.740819422856
 30
0.0
 40
3.0
100
AcDbArc
 50
95.0921697642102
 51
174.1866997665532
  0
ARC
  5
18E5A
330
747D
100
AcDbEntity
  8
部品1
100
AcDbCircle
 10
13811.46488912263
 20
4412.697564604932
 30
0.0
 40
3.0
100
AcDbArc
 50
95.0921697642102
 51
174.1866997665532
  0
ARC
  5
18E5B
330
747D
100
AcDbEntity
  8
部品1
 48
50.0
100
AcDbCircle
 10
13800.43675384753
 20
4403.10682000105
 30
0.0
 40
7.0
100
AcDbArc
 50
267.8377559869487
 51
354.1866997665532
  0
ARC
  5
18E5C
330
747D
100
AcDbEntity
  8
部品1
 48
50.0
100
AcDbCircle
 10
13817.75885031204
 20
4514.009367143223
 30
0.0
 40
7.0
100
AcDbArc
 50
354.1866997665532
 51
87.03587545283093
  0
LINE
  5
18E5D
330
747D
100
AcDbEntity
  8
部品1
 48
50.0
100
AcDbLine
 10
13808.48031745202
 20
4413.001426321836
 30
0.0
 11
13807.40075441228
 21
4402.397809328276
 31
0.0
  0
LINE
  5
18E5E
330
747D
100
AcDbEntity
  8
部品1
 48
50.0
100
AcDbLine
 10
13819.33966320134
 20
4490.044681139759
 30
0.0
 11
13811.83288393651
 21
4416.312060394747
 31
0.0
  0
LINE
  5
18E5F
330
747D
100
AcDbEntity
  8
部品1
 48
50.0
100
AcDbLine
 10
13824.7228508768
 20
4513.300356470448
 30
0.0
 11
13822.69222968583
 21
4493.355315212669
 31
0.0
  0
ARC
  5
18E60
330
747D
100
AcDbEntity
  8
部品1
100
AcDbCircle
 10
10641.54603993746
 20
4456.173363155133
 30
0.0
 40
0.7
100
AcDbArc
 50
181.0932240292114
 51
260.1877540314867
  0
ARC
  5
18E61
330
747D
100
AcDbEntity
  8
部品1
100
AcDbCircle
 10
10636.77336633985
 20
4549.039141355252
 30
0.0
 40
0.7
100
AcDbArc
 50
181.0932240292114
 51
260.1877540314867
  0
ARC
  5
18E62
330
747D
100
AcDbEntity
  8
部品1
100
AcDbCircle
 10
10636.14281193683
 20
4545.393266817855
 30
0.0
 40
3.0
100
AcDbArc
 50
1.093224029315636
 51
80.18775403169653
  0
ARC
  5
18E63
330
747D
100
AcDbEntity
  8
部品1
100
AcDbCircle
 10
10640.91548553443
 20
4452.527488617735
 30
0.0
 40
3.0
100
AcDbArc
 50
1.093224029315636
 51
80.18775403169653
  0
ARC
  5
18E64
330
747D
100
AcDbEntity
  8
部品1
 48
50.0
100
AcDbCircle
 10
10651.11561790964
 20
4442.135245235255
 30
0.0
 40
7.0
100
AcDbArc
 50
181.0932240293156
 51
267.8377559869487
  0
ARC
  5
18E65
330
747D
100
AcDbEntity
  8
部品1
 48
50.0
100
AcDbCircle
 10
10642.69195980754
 20
4569.08630476835
 30
0.0
 40
7.0
100
AcDbArc
 50
87.03587545283093
 51
181.0932240293156
  0
LINE
  5
18E66
330
747D
100
AcDbEntity
  8
部品1
 48
50.0
100
AcDbLine
 10
10643.91493946087
 20
4452.584726220918
 30
0.0
 11
10644.1168920813
 21
4442.001690827827
 31
0.0
  0
LINE
  5
18E67
330
747D
100
AcDbEntity
  8
細線
 48
50.0
100
AcDbLine
 10
10641.30884640419
 20
4455.514774339728
 30
0.0
 11
13811.31251083484
 21
4415.705455365234
 31
0.0
  0
LINE
  5
18E68
330
747D
100
AcDbEntity
  8
細線
 48
50.0
100
AcDbLine
 10
10636.54837116691
 20
4548.376286037591
 30
0.0
 11
13822.18435591208
 21
4492.752081396763
 31
0.0
  0
LINE
  5
18E69
330
747D
100
AcDbEntity
  8
部品1
 48
50.0
100
AcDbLine
 10
10639.14226586326
 20
4545.450504421038
 30
0.0
 11
10640.84616735462
 21
4456.160007714391
 31
0.0
  0
LINE
  5
18E6A
330
747D
100
AcDbEntity
  8
部品1
 48
50.0
100
AcDbLine
 10
10635.6932339792
 20
4568.952750360923
 30
0.0
 11
10636.07349375701
 21
4549.02578591451
 31
0.0
  0
LINE
  5
18E6B
330
747D
100
AcDbEntity
  8
細線
 48
50.0
100
AcDbLine
 10
13792.47823125979
 20
4521.512626675699
 30
0.0
 11
13787.7612651781
 21
4396.580410740781
 31
0.0
  0
LINE
  5
18E6C
330
747D
100
AcDbEntity
  8
細線
 48
50.0
100
AcDbLine
 10
10668.50894806609
 20
4574.758880571634
 30
0.0
 11
10663.21984651059
 21
4434.67324794428
 31
0.0
  0
LINE
  5
18E6D
330
747D
100
AcDbEntity
  8
部品1
100
AcDbLine
 10
10650.85151266805
 20
4435.140229265196
 30
0.0
 11
13800.17264860595
 21
4396.111804030991
 31
0.0
  0
LINE
  5
18E6E
330
747D
100
AcDbEntity
  8
部品1
100
AcDbLine
 10
10643.05393442306
 20
4576.076939530496
 30
0.0
 11
13818.12082492756
 21
4521.000001905369
 31
0.0
  0
LINE
  5
18E6F
330
747D
100
AcDbEntity
  8
部品1
 48
50.0
100
AcDbLine
 10
12099.47723423264
 20
4701.245533200386
 30
0.0
 11
12399.47723423264
 21
4701.245533200386
 31
0.0
  0
LINE
  5
18E70
330
747D
100
AcDbEntity
  8
部品1
 48
50.0
100
AcDbLine
 10
12399.47723423264
 20
4701.245533200386
 30
0.0
 11
12399.47723423264
 21
4685.045533200386
 31
0.0
  0
TEXT
  5
18E71
330
747D
100
AcDbEntity
  8
部品1
 48
50.0
100
AcDbText
 10
12087.74506945637
 20
4737.129555352819
 30
0.0
 40
120.0
  1
1000
  7
STYLE1
100
AcDbText
  0
TEXT
  5
18E72
330
747D
100
AcDbEntity
  8
部品1
 48
50.0
100
AcDbText
 10
12565.37809212146
 20
4599.628297134536
 30
0.0
 40
120.0
  1
32
 50
90.0
  7
STYLE1
100
AcDbText
  0
LINE
  5
18E73
330
747D
100
AcDbEntity
  8
細線
 48
50.0
100
AcDbLine
 10
12088.00894806609
 20
4342.359204196229
 30
0.0
 11
12088.00894806609
 21
2252.359204196229
 31
0.0
  0
LINE
  5
18E74
330
747D
100
AcDbEntity
  8
細線
 48
50.0
100
AcDbLine
 10
12073.00894806609
 20
4342.359204196229
 30
0.0
 11
12073.00894806609
 21
2252.359204196229
 31
0.0
  0
LINE
  5
18E75
330
747D
100
AcDbEntity
  8
細線
 48
50.0
100
AcDbLine
 10
12213.00894806609
 20
4342.359204196229
 30
0.0
 11
12213.00894806609
 21
2252.359204196229
 31
0.0
  0
LINE
  5
18E76
330
747D
100
AcDbEntity
  8
細線
 48
50.0
100
AcDbLine
 10
12228.00894806609
 20
4342.359204196229
 30
0.0
 11
12228.00894806609
 21
2252.359204196229
 31
0.0
  0
LINE
  5
18E77
330
747D
100
AcDbEntity
  8
細線
 48
50.0
100
AcDbLine
 10
12368.00894806609
 20
4342.359204196229
 30
0.0
 11
12368.00894806609
 21
2252.359204196229
 31
0.0
  0
LINE
  5
18E78
330
747D
100
AcDbEntity
  8
細線
 48
50.0
100
AcDbLine
 10
12353.00894806609
 20
4342.359204196229
 30
0.0
 11
12353.00894806609
 21
2252.359204196229
 31
0.0
  0
LINE
  5
18E79
330
747D
100
AcDbEntity
  8
部品1
100
AcDbLine
 10
13690.50894806609
 20
4342.359204196233
 30
0.0
 11
13690.50894806609
 21
2252.359204196233
 31
0.0
  0
LINE
  5
18E7A
330
747D
100
AcDbEntity
  8
部品1
100
AcDbLine
 10
10695.50894806609
 20
4342.359204196229
 30
0.0
 11
13745.50894806609
 21
4342.359204196229
 31
0.0
  0
LINE
  5
18E7B
330
747D
100
AcDbEntity
  8
部品1
100
AcDbLine
 10
10750.5089480661
 20
2252.359204196229
 30
0.0
 11
13745.50894806609
 21
2252.359204196231
 31
0.0
  0
LINE
  5
18E7C
330
747D
100
AcDbEntity
  8
部品1
100
AcDbLine
 10
10750.50894806609
 20
4342.359204196229
 30
0.0
 11
10750.5089480661
 21
2102.359204196229
 31
0.0
  0
LINE
  5
18E7D
330
747D
100
AcDbEntity
  8
部品1
100
AcDbLine
 10
10695.50894806609
 20
4434.501642125107
 30
0.0
 11
10695.50894806609
 21
2102.359204196229
 31
0.0
  0
DIMENSION
  5
18E7E
330
747D
100
AcDbEntity
  8
寸法
100
AcDbDimension
  2
*D25
 10
9851.758818882835
 20
2202.359204196229
 30
0.0
 11
9851.758818882835
 21
1896.311960101739
 31
0.0
 70
   160
 71
     5
 42
50.0
  3
INABA_S40G
100
AcDbAlignedDimension
 13
10695.50894806609
 23
2252.359204196229
 33
0.0
 14
10640.50894806609
 24
2202.359204196229
 34
0.0
 50
90.0
100
AcDbRotatedDimension
1001
ACAD
1000
DSTYLE
1002
{
1070
   174
1070
     0
1070
   272
1070
     1
1070
   288
1070
     0
1070
   341
1005
0
1002
}
  0
LINE
  5
18E7F
330
747D
100
AcDbEntity
  8
部品1
100
AcDbLine
 10
11170.50894806609
 20
4342.359204196229
 30
0.0
 11
11170.50894806609
 21
2252.359204196229
 31
0.0
  0
LINE
  5
18E80
330
747D
100
AcDbEntity
  8
部品1
100
AcDbLine
 10
13745.50894806609
 20
4396.78923197735
 30
0.0
 11
13745.50894806609
 21
2102.359204196231
 31
0.0
  0
LINE
  5
18E81
330
747D
100
AcDbEntity
  8
部品1
100
AcDbLine
 10
13690.50894806609
 20
4342.35920419623
 30
0.0
 11
13690.50894806609
 21
2252.359204196231
 31
0.0
  0
DIMENSION
  5
18E82
330
747D
100
AcDbEntity
  8
寸法
 48
50.0
100
AcDbDimension
  2
*D26
 10
10695.50894806609
 20
4976.016657775535
 30
0.0
 11
12220.50894806609
 21
4976.016657775535
 31
0.0
 70
   160
  1
柱外寸法<>
 71
     5
 42
3050.0
  3
INABA_S40G
100
AcDbAlignedDimension
 13
13745.50894806609
 23
4524.169883807885
 33
0.0
 14
10695.50894806609
 24
4573.360822319205
 34
0.0
100
AcDbRotatedDimension
1001
ACAD
1000
DSTYLE
1002
{
1070
   174
1070
     0
1070
   272
1070
     1
1070
   288
1070
     0
1070
   341
1005
0
1002
}
  0
DIMENSION
  5
18E83
330
747D
100
AcDbEntity
  8
寸法
 48
50.0
100
AcDbDimension
  2
*D27
 10
10635.50894806609
 20
4976.016657775534
 30
0.0
 11
10325.8711527905
 21
4976.016657775534
 31
0.0
 70
   160
 71
     5
 42
60.0
  3
INABA_S40G
100
AcDbAlignedDimension
 13
10695.50894806609
 23
4573.360822319205
 33
0.0
 14
10635.50894806609
 24
4577.359204196233
 34
0.0
100
AcDbRotatedDimension
1001
ACAD
1000
DSTYLE
1002
{
1070
   174
1070
     0
1070
   272
1070
     1
1070
   288
1070
     0
1070
   341
1005
0
1002
}
  0
DIMENSION
  5
18E84
330
747D
100
AcDbEntity
  8
寸法
 48
50.0
100
AcDbDimension
  2
*D28
 10
10635.50894806609
 20
5206.130250561812
 30
0.0
 11
12230.50894806609
 21
5206.130250561812
 31
0.0
 70
   160
 71
     5
 42
3190.0
  3
INABA_S40G
100
AcDbAlignedDimension
 13
13825.50894806609
 23
4522.359204196231
 33
0.0
 14
10635.50894806609
 24
4577.359204196233
 34
0.0
100
AcDbRotatedDimension
1001
ACAD
1000
DSTYLE
1002
{
1070
   174
1070
     0
1070
   272
1070
     1
1070
   288
1070
     0
1070
   341
1005
0
1002
}
  0
LINE
  5
18E85
330
747D
100
AcDbEntity
  8
部品1
100
AcDbLine
 10
10750.5089480661
 20
2202.359204196229
 30
0.0
 11
13745.50894806609
 21
2202.359204196229
 31
0.0
  0
LINE
  5
18E86
330
747D
100
AcDbEntity
  8
細線
 48
50.0
100
AcDbLine
 10
11248.00894806609
 20
4342.359204196229
 30
0.0
 11
11248.00894806609
 21
2252.359204196229
 31
0.0
  0
LINE
  5
18E87
330
747D
100
AcDbEntity
  8
細線
 48
50.0
100
AcDbLine
 10
11233.00894806609
 20
4342.359204196229
 30
0.0
 11
11233.00894806609
 21
2252.359204196229
 31
0.0
  0
LINE
  5
18E88
330
747D
100
AcDbEntity
  8
細線
 48
50.0
100
AcDbLine
 10
11373.00894806609
 20
4342.359204196229
 30
0.0
 11
11373.00894806609
 21
2252.359204196229
 31
0.0
  0
LINE
  5
18E89
330
747D
100
AcDbEntity
  8
細線
 48
50.0
100
AcDbLine
 10
11388.00894806609
 20
4342.359204196229
 30
0.0
 11
11388.00894806609
 21
2252.359204196229
 31
0.0
  0
LINE
  5
18E8A
330
747D
100
AcDbEntity
  8
細線
 48
50.0
100
AcDbLine
 10
11528.00894806609
 20
4342.359204196229
 30
0.0
 11
11528.00894806609
 21
2252.359204196229
 31
0.0
  0
LINE
  5
18E8B
330
747D
100
AcDbEntity
  8
細線
 48
50.0
100
AcDbLine
 10
11513.00894806609
 20
4342.359204196229
 30
0.0
 11
11513.00894806609
 21
2252.359204196229
 31
0.0
  0
LINE
  5
18E8C
330
747D
100
AcDbEntity
  8
細線
 48
50.0
100
AcDbLine
 10
11093.00894806609
 20
4342.359204196229
 30
0.0
 11
11093.00894806609
 21
2252.359204196229
 31
0.0
  0
LINE
  5
18E8D
330
747D
100
AcDbEntity
  8
細線
 48
50.0
100
AcDbLine
 10
11108.00894806609
 20
4342.359204196229
 30
0.0
 11
11108.00894806609
 21
2252.359204196229
 31
0.0
  0
LINE
  5
18E8E
330
747D
100
AcDbEntity
  8
細線
 48
50.0
100
AcDbLine
 10
10968.00894806609
 20
4342.359204196229
 30
0.0
 11
10968.00894806609
 21
2252.359204196229
 31
0.0
  0
LINE
  5
18E8F
330
747D
100
AcDbEntity
  8
細線
 48
50.0
100
AcDbLine
 10
10953.00894806609
 20
4342.359204196229
 30
0.0
 11
10953.00894806609
 21
2252.359204196229
 31
0.0
  0
LINE
  5
18E90
330
747D
100
AcDbEntity
  8
細線
 48
50.0
100
AcDbLine
 10
10813.00894806609
 20
4342.359204196229
 30
0.0
 11
10813.00894806609
 21
2252.359204196229
 31
0.0
  0
LINE
  5
18E91
330
747D
100
AcDbEntity
  8
細線
 48
50.0
100
AcDbLine
 10
10828.00894806609
 20
4342.359204196229
 30
0.0
 11
10828.00894806609
 21
2252.359204196229
 31
0.0
  0
DIMENSION
  5
18E92
330
747D
100
AcDbEntity
  8
寸法
 48
50.0
100
AcDbDimension
  2
*D29
 10
13825.50894806609
 20
4976.016657775535
 30
0.0
 11
14031.55619216058
 21
4976.016657775535
 31
0.0
 70
   160
 71
     5
 42
80.0
  3
INABA_S40G
100
AcDbAlignedDimension
 13
13745.50894806609
 23
4524.169883807885
 33
0.0
 14
13825.50894806609
 24
4522.359204196233
 34
0.0
100
AcDbRotatedDimension
1001
ACAD
1000
DSTYLE
1002
{
1070
   174
1070
     0
1070
   272
1070
     1
1070
   288
1070
     0
1070
   341
1005
0
1002
}
  0
LINE
  5
18E93
330
747D
100
AcDbEntity
  8
部品1
100
AcDbLine
 10
11590.50894806609
 20
4342.359204196229
 30
0.0
 11
11590.50894806609
 21
2252.359204196229
 31
0.0
  0
LINE
  5
18E94
330
747D
100
AcDbEntity
  8
細線
 48
50.0
100
AcDbLine
 10
11933.00894806609
 20
4342.359204196229
 30
0.0
 11
11933.0089480661
 21
2252.359204196229
 31
0.0
  0
LINE
  5
18E95
330
747D
100
AcDbEntity
  8
細線
 48
50.0
100
AcDbLine
 10
11948.00894806609
 20
4342.359204196229
 30
0.0
 11
11948.0089480661
 21
2252.359204196229
 31
0.0
  0
LINE
  5
18E96
330
747D
100
AcDbEntity
  8
細線
 48
50.0
100
AcDbLine
 10
11808.00894806609
 20
4342.359204196229
 30
0.0
 11
11808.0089480661
 21
2252.359204196229
 31
0.0
  0
LINE
  5
18E97
330
747D
100
AcDbEntity
  8
細線
 48
50.0
100
AcDbLine
 10
11793.00894806609
 20
4342.359204196229
 30
0.0
 11
11793.0089480661
 21
2252.359204196229
 31
0.0
  0
LINE
  5
18E98
330
747D
100
AcDbEntity
  8
細線
 48
50.0
100
AcDbLine
 10
11653.00894806609
 20
4342.359204196229
 30
0.0
 11
11653.0089480661
 21
2252.359204196229
 31
0.0
  0
LINE
  5
18E99
330
747D
100
AcDbEntity
  8
細線
 48
50.0
100
AcDbLine
 10
11668.00894806609
 20
4342.359204196229
 30
0.0
 11
11668.0089480661
 21
2252.359204196229
 31
0.0
  0
LINE
  5
18E9A
330
747D
100
AcDbEntity
  8
部品1
100
AcDbLine
 10
12010.50894806609
 20
4342.359204196229
 30
0.0
 11
12010.50894806609
 21
2252.359204196229
 31
0.0
  0
LINE
  5
18E9B
330
747D
100
AcDbEntity
  8
細線
 48
50.0
100
AcDbLine
 10
13348.00894806609
 20
4342.35920419623
 30
0.0
 11
13348.00894806609
 21
2252.359204196231
 31
0.0
  0
LINE
  5
18E9C
330
747D
100
AcDbEntity
  8
細線
 48
50.0
100
AcDbLine
 10
13333.00894806609
 20
4342.35920419623
 30
0.0
 11
13333.00894806609
 21
2252.359204196231
 31
0.0
  0
LINE
  5
18E9D
330
747D
100
AcDbEntity
  8
細線
 48
50.0
100
AcDbLine
 10
13473.00894806609
 20
4342.35920419623
 30
0.0
 11
13473.00894806609
 21
2252.359204196231
 31
0.0
  0
LINE
  5
18E9E
330
747D
100
AcDbEntity
  8
細線
 48
50.0
100
AcDbLine
 10
13488.00894806609
 20
4342.35920419623
 30
0.0
 11
13488.00894806609
 21
2252.359204196231
 31
0.0
  0
LINE
  5
18E9F
330
747D
100
AcDbEntity
  8
細線
 48
50.0
100
AcDbLine
 10
13628.00894806609
 20
4342.35920419623
 30
0.0
 11
13628.00894806609
 21
2252.359204196231
 31
0.0
  0
LINE
  5
18EA0
330
747D
100
AcDbEntity
  8
細線
 48
50.0
100
AcDbLine
 10
13613.00894806609
 20
4342.35920419623
 30
0.0
 11
13613.00894806609
 21
2252.359204196231
 31
0.0
  0
DIMENSION
  5
18EA1
330
747D
100
AcDbEntity
  8
寸法
 48
50.0
100
AcDbDimension
  2
*D30
 10
10074.9005412977
 20
4451.70446306956
 30
0.0
 11
10085.56601655663
 21
4822.55112631126
 31
0.0
 70
   161
 71
     5
 42
141.0
  3
INABA_S40G
100
AcDbAlignedDimension
 13
10654.90496822467
 23
4576.081953030909
 33
0.0
 14
10650.85151266805
 24
4435.140229265196
 34
0.0
1001
ACAD
1000
DSTYLE
1002
{
1070
   174
1070
     0
1070
   272
1070
     1
1070
   288
1070
     0
1070
   341
1005
0
1002
}
  0
LINE
  5
18EA2
330
747D
100
AcDbEntity
  8
部品1
100
AcDbLine
 10
12850.50894806609
 20
4342.359204196229
 30
0.0
 11
12850.50894806609
 21
2252.359204196231
 31
0.0
  0
LINE
  5
18EA3
330
747D
100
AcDbEntity
  8
細線
 48
50.0
100
AcDbLine
 10
12928.00894806609
 20
4342.359204196229
 30
0.0
 11
12928.00894806609
 21
2252.359204196231
 31
0.0
  0
LINE
  5
18EA4
330
747D
100
AcDbEntity
  8
細線
 48
50.0
100
AcDbLine
 10
12913.00894806609
 20
4342.359204196229
 30
0.0
 11
12913.00894806609
 21
2252.359204196231
 31
0.0
  0
LINE
  5
18EA5
330
747D
100
AcDbEntity
  8
細線
 48
50.0
100
AcDbLine
 10
13053.00894806609
 20
4342.359204196229
 30
0.0
 11
13053.00894806609
 21
2252.359204196231
 31
0.0
  0
LINE
  5
18EA6
330
747D
100
AcDbEntity
  8
細線
 48
50.0
100
AcDbLine
 10
13068.00894806609
 20
4342.359204196229
 30
0.0
 11
13068.00894806609
 21
2252.359204196231
 31
0.0
  0
LINE
  5
18EA7
330
747D
100
AcDbEntity
  8
細線
 48
50.0
100
AcDbLine
 10
13208.00894806609
 20
4342.359204196229
 30
0.0
 11
13208.00894806609
 21
2252.359204196231
 31
0.0
  0
LINE
  5
18EA8
330
747D
100
AcDbEntity
  8
細線
 48
50.0
100
AcDbLine
 10
13193.00894806609
 20
4342.359204196229
 30
0.0
 11
13193.00894806609
 21
2252.359204196231
 31
0.0
  0
LINE
  5
18EA9
330
747D
100
AcDbEntity
  8
部品1
100
AcDbLine
 10
13270.50894806608
 20
4342.35920419623
 30
0.0
 11
13270.50894806608
 21
2252.359204196233
 31
0.0
  0
LWPOLYLINE
  5
18EAA
330
747D
100
AcDbEntity
  8
部品1
100
AcDbPolyline
 90
        4
 70
     1
 43
0.0
 10
11848.77361495187
 20
1452.359204196229
 10
11848.77361495187
 20
1212.466882650697
 10
12612.24428118031
 20
1212.466882650697
 10
12612.24428118031
 20
1452.359204196229
  0
TEXT
  5
18EAB
330
747D
100
AcDbEntity
  8
部品1
100
AcDbText
 10
11938.21971637548
 20
1259.465674977706
 30
0.0
 40
135.0
  1
側面図
  7
STYLE2
100
AcDbText
  0
LINE
  5
19260
330
747D
100
AcDbEntity
  8
補助
  6
PHANTOM
 62
   230
 48
50.0
100
AcDbLine
 10
140.0
 20
0.0
 30
0.0
 11
139.9999999999995
 21
11409.6
 31
0.0
  0
DIMENSION
  5
195D0
330
747D
100
AcDbEntity
  8
寸法
 48
50.0
100
AcDbDimension
  2
*D31
 10
2744.673057123664
 20
4983.085475928139
 30
0.0
 11
5374.673057123665
 21
4983.085475928139
 31
0.0
 70
   160
  1
柱外寸法<>
 71
     5
 42
5260.000000000006
  3
INABA_S40G
100
AcDbAlignedDimension
 13
8004.673057123669
 23
4577.359204196237
 33
0.0
 14
2744.673057123664
 24
4577.359204196237
 34
0.0
100
AcDbRotatedDimension
  0
DIMENSION
  5
195D1
330
747D
100
AcDbEntity
  8
寸法
 48
50.0
100
AcDbDimension
  2
*D32
 10
8054.673057123666
 20
5182.994397142229
 30
0.0
 11
5374.673057123665
 21
5182.994397142229
 31
0.0
 70
   160
 71
     5
 42
5360.000000000002
  3
INABA_S40G
100
AcDbAlignedDimension
 13
2694.673057123664
 23
4577.359204196237
 33
0.0
 14
8054.673057123666
 24
4577.359204196233
 34
0.0
100
AcDbRotatedDimension
  0
DIMENSION
  5
195D2
330
747D
100
AcDbEntity
  8
寸法
 48
50.0
100
AcDbDimension
  2
*D33
 10
2694.673057123664
 20
4983.085475928139
 30
0.0
 11
2381.187775749417
 21
4983.085475928139
 31
0.0
 70
   160
 71
     5
 42
50.0
  3
INABA_S40G
100
AcDbAlignedDimension
 13
2744.673057123664
 23
4577.359204196237
 33
0.0
 14
2694.673057123664
 24
4577.359204196237
 34
0.0
100
AcDbRotatedDimension
1001
ACAD
1000
DSTYLE
1002
{
1002
}
  0
LINE
  5
195D3
330
747D
100
AcDbEntity
  8
部品1
100
AcDbLine
 10
2695.092718138994
 20
4569.962678800996
 30
0.0
 11
2696.226115471344
 21
4549.986550818394
 31
0.0
  0
LINE
  5
195D4
330
747D
100
AcDbEntity
  8
部品1
100
AcDbLine
 10
2707.663135792924
 20
4454.329143651335
 30
0.0
 11
2708.308041600032
 21
4442.962678800995
 31
0.0
  0
LINE
  5
195D5
330
747D
100
AcDbEntity
  8
部品1
100
AcDbLine
 10
2699.427105268072
 20
4546.529143651336
 30
0.0
 11
2704.462145996187
 21
4457.786550818393
 31
0.0
  0
ARC
  5
195D6
330
747D
100
AcDbEntity
  8
部品1
 48
50.0
100
AcDbCircle
 10
2696.431922371887
 20
4546.359204196236
 30
0.0
 40
3.0
100
AcDbArc
 50
3.24734279033473
 51
82.34187279263609
  0
ARC
  5
195D7
330
747D
100
AcDbEntity
  8
部品1
 48
50.0
100
AcDbCircle
 10
2704.667952896731
 20
4454.159204196233
 30
0.0
 40
3.0
100
AcDbArc
 50
3.24734279033473
 51
82.34187279263609
  0
ARC
  5
195D8
330
747D
100
AcDbEntity
  8
部品1
 48
50.0
100
AcDbCircle
 10
2705.161022005292
 20
4457.826203357916
 30
0.0
 40
0.7
100
AcDbArc
 50
183.2473427903347
 51
262.3418727926361
  0
ARC
  5
195D9
330
747D
100
AcDbEntity
  8
部品1
 48
50.0
100
AcDbCircle
 10
2696.924991480455
 20
4550.02620335792
 30
0.0
 40
0.7
100
AcDbArc
 50
183.2473427903347
 51
262.3418727926361
  0
ARC
  5
195DA
330
747D
100
AcDbEntity
  8
部品1
100
AcDbCircle
 10
2715.296801691128
 20
4443.359204196236
 30
0.0
 40
7.0
100
AcDbArc
 50
183.2473427903347
 51
270.0
  0
ARC
  5
195DB
330
747D
100
AcDbEntity
  8
部品1
100
AcDbCircle
 10
2702.081478230097
 20
4570.359204196233
 30
0.0
 40
7.0
100
AcDbArc
 50
90.0
 51
183.2473427903347
  0
LINE
  5
195DC
330
747D
100
AcDbEntity
  8
細線
 48
50.0
100
AcDbLine
 10
2727.673057123664
 20
4577.359204196233
 30
0.0
 11
2727.673057123664
 21
4436.359204196232
 31
0.0
  0
LINE
  5
195DD
330
747D
100
AcDbEntity
  8
細線
 48
50.0
100
AcDbLine
 10
8044.397488377358
 20
4457.159204196225
 30
0.0
 11
2704.948625869935
 21
4457.159204196236
 31
0.0
  0
LINE
  5
195DE
330
747D
100
AcDbEntity
  8
細線
 48
50.0
100
AcDbLine
 10
8052.633518902236
 20
4549.359204196238
 30
0.0
 11
2696.712595345105
 21
4549.359204196233
 31
0.0
  0
LINE
  5
195DF
330
747D
100
AcDbEntity
  8
部品1
 48
50.0
100
AcDbLine
 10
8034.049312556202
 20
4436.359204196236
 30
0.0
 11
2715.296801691128
 21
4436.359204196236
 31
0.0
  0
LINE
  5
195E0
330
747D
100
AcDbEntity
  8
部品1
 48
50.0
100
AcDbLine
 10
8047.264636017237
 20
4577.359204196233
 30
0.0
 11
2702.081478230097
 21
4577.359204196237
 31
0.0
  0
LINE
  5
195E1
330
747D
100
AcDbEntity
  8
部品1
100
AcDbLine
 10
2744.673057123664
 20
4342.359204196229
 30
0.0
 11
8004.673057123666
 21
4342.359204196227
 31
0.0
  0
DIMENSION
  5
195E2
330
747D
100
AcDbEntity
  8
寸法
 48
50.0
100
AcDbDimension
  2
*D34
 10
8004.673057123669
 20
4983.085475928143
 30
0.0
 11
8368.158338497906
 21
4983.085475928143
 31
0.0
 70
   160
 71
     5
 42
49.99999999999636
  3
INABA_S40G
100
AcDbAlignedDimension
 13
8054.673057123666
 23
4577.359204196233
 33
0.0
 14
8004.673057123669
 24
4577.359204196237
 34
0.0
100
AcDbRotatedDimension
  0
ARC
  5
195E3
330
747D
100
AcDbEntity
  8
部品1
100
AcDbCircle
 10
8047.264636017237
 20
4570.359204196236
 30
0.0
 40
7.0
100
AcDbArc
 50
356.7526572096653
 51
90.0
  0
ARC
  5
195E4
330
747D
100
AcDbEntity
  8
部品1
100
AcDbCircle
 10
8034.049312556202
 20
4443.359204196236
 30
0.0
 40
7.0
100
AcDbArc
 50
270.0
 51
356.7526572096653
  0
ARC
  5
195E5
330
747D
100
AcDbEntity
  8
部品1
 48
50.0
100
AcDbCircle
 10
8052.421122766878
 20
4550.02620335792
 30
0.0
 40
0.7
100
AcDbArc
 50
277.6581272073639
 51
356.7526572096653
  0
ARC
  5
195E6
330
747D
100
AcDbEntity
  8
部品1
 48
50.0
100
AcDbCircle
 10
8044.185092242038
 20
4457.826203357919
 30
0.0
 40
0.7
100
AcDbArc
 50
277.6581272073639
 51
356.7526572096653
  0
ARC
  5
195E7
330
747D
100
AcDbEntity
  8
部品1
 48
50.0
100
AcDbCircle
 10
8044.678161350599
 20
4454.159204196233
 30
0.0
 40
3.0
100
AcDbArc
 50
97.6581272073639
 51
176.7526572096653
  0
ARC
  5
195E8
330
747D
100
AcDbEntity
  8
部品1
 48
50.0
100
AcDbCircle
 10
8052.914191875442
 20
4546.359204196236
 30
0.0
 40
3.0
100
AcDbArc
 50
97.6581272073639
 51
176.7526572096653
  0
LINE
  5
195E9
330
747D
100
AcDbEntity
  8
部品1
100
AcDbLine
 10
8049.919008979257
 20
4546.52914365134
 30
0.0
 11
8044.883968251147
 21
4457.786550818393
 31
0.0
  0
LINE
  5
195EA
330
747D
100
AcDbEntity
  8
部品1
100
AcDbLine
 10
8041.68297845441
 20
4454.329143651335
 30
0.0
 11
8041.038072647301
 21
4442.962678800995
 31
0.0
  0
LINE
  5
195EB
330
747D
100
AcDbEntity
  8
細線
 48
50.0
100
AcDbLine
 10
8021.673057123665
 20
4577.359204196237
 30
0.0
 11
8021.673057123665
 21
4436.359204196236
 31
0.0
  0
LINE
  5
195EC
330
747D
100
AcDbEntity
  8
部品1
100
AcDbLine
 10
8054.253396108334
 20
4569.962678800996
 30
0.0
 11
8053.119998775986
 21
4549.986550818397
 31
0.0
  0
LINE
  5
195ED
330
747D
100
AcDbEntity
  8
部品1
 48
50.0
100
AcDbLine
 10
5364.673057123669
 20
4436.359204196232
 30
0.0
 11
5364.673057123667
 21
4577.359204196233
 31
0.0
  0
LINE
  5
195EE
330
747D
100
AcDbEntity
  8
部品1
 48
50.0
100
AcDbLine
 10
5374.673057123668
 20
4177.359204196229
 30
0.0
 11
5374.673057123668
 21
4436.359204196232
 31
0.0
  0
DIMENSION
  5
19897
330
747D
100
AcDbEntity
  8
寸法
 48
50.0
100
AcDbDimension
  2
*D35
 10
8292.216159445413
 20
4150.359204196229
 30
0.0
 11
8192.216159445409
 21
3176.359204196231
 31
0.0
 70
    32
  1
有効開口部高サ <>
 71
     5
 42
1948.0
  3
INABA_S40G
100
AcDbAlignedDimension
 13
8004.673057123666
 23
2202.359204196229
 33
0.0
 14
8004.673057123666
 24
4150.359204196229
 34
0.0
 50
90.0
100
AcDbRotatedDimension
  0
DIMENSION
  5
19898
330
747D
100
AcDbEntity
  8
寸法
 48
50.0
100
AcDbDimension
  2
*D36
 10
8292.216159445413
 20
4177.359204196229
 30
0.0
 11
8432.385982691778
 21
4178.326404035888
 31
0.0
 70
   160
 71
     5
 42
27.0
  3
INABA_S40G
100
AcDbAlignedDimension
 13
8004.673057123666
 23
4150.359204196229
 33
0.0
 14
8004.673057123666
 24
4177.359204196229
 34
0.0
 50
90.0
100
AcDbRotatedDimension
1001
ACAD
1000
DSTYLE
1002
{
1070
   279
1070
     2
1002
}
  0
DIMENSION
  5
19899
330
747D
100
AcDbEntity
  8
寸法
 48
50.0
100
AcDbDimension
  2
*D37
 10
8292.216159445414
 20
4342.359204196229
 30
0.0
 11
8292.216159445413
 21
4580.844485570469
 31
0.0
 70
   160
 71
     5
 42
165.0
  3
INABA_S40G
100
AcDbAlignedDimension
 13
8004.673057123666
 23
4177.359204196229
 33
0.0
 14
8004.673057123666
 24
4342.359204196229
 34
0.0
 50
90.0
100
AcDbRotatedDimension
1001
ACAD
1000
DSTYLE
1002
{
1002
}
  0
LINE
  5
199D8
330
747D
100
AcDbEntity
  8
仕様書枠
 48
50.0
100
AcDbLine
 10
16307.19999999998
 20
8689.6
 30
0.0
 11
13127.19999999999
 21
8689.600000000003
 31
0.0
  0
TEXT
  5
199E0
330
747D
100
AcDbEntity
  8
文字
 62
     7
 48
50.0
100
AcDbText
 10
15022.63965474517
 20
10760.01374588372
 30
0.0
 40
100.0
  1
F12         1.0,1.2
  7
STYLE1
100
AcDbText
  0
TEXT
  5
199E4
330
747D
100
AcDbEntity
  8
文字
 62
     7
 48
50.0
100
AcDbText
 10
15022.63965474516
 20
9060.013745883727
 30
0.0
 40
100.0
  1
F12            0.7
  7
STYLE1
100
AcDbText
  0
LINE
  5
199E6
330
747D
100
AcDbEntity
  8
破線
 48
5.0
100
AcDbLine
 10
5374.673057123665
 20
1927.359204196229
 30
0.0
 11
5374.673057123665
 21
1852.359204196229
 31
0.0
  0
LINE
  5
199E7
330
747D
100
AcDbEntity
  8
破線
 48
5.0
100
AcDbLine
 10
5324.673057123664
 20
1852.359204196229
 30
0.0
 11
5424.673057123665
 21
1852.359204196229
 31
0.0
  0
LINE
  5
19B06
330
747D
100
AcDbEntity
  8
部品1
100
AcDbLine
 10
7529.67305712367
 20
10192.49742454598
 30
0.0
 11
7529.67305712367
 21
10164.49742454598
 31
0.0
  0
LINE
  5
19BB9
330
747D
100
AcDbEntity
  8
部品1
100
AcDbLine
 10
4899.673057123671
 20
10192.49742454598
 30
0.0
 11
4899.673057123671
 21
10164.49742454598
 31
0.0
  0
LINE
  5
19BBA
330
747D
100
AcDbEntity
  8
部品1
 48
50.0
100
AcDbLine
 10
4072.173057123672
 20
10156.49742454597
 30
0.0
 11
4072.173057123672
 21
10164.49742454598
 31
0.0
  0
LINE
  5
19BBB
330
747D
100
AcDbEntity
  8
部品1
 48
50.0
100
AcDbLine
 10
4047.173057123671
 20
10156.49742454596
 30
0.0
 11
4047.173057123671
 21
10164.49742454598
 31
0.0
  0
LINE
  5
19BBC
330
747D
100
AcDbEntity
  8
部品1
100
AcDbLine
 10
4479.673057123672
 20
10192.49742454598
 30
0.0
 11
4479.673057123672
 21
10164.49742454598
 31
0.0
  0
LINE
  5
19BBD
330
747D
100
AcDbEntity
  8
部品1
100
AcDbLine
 10
4024.673057123672
 20
10182.49742454597
 30
0.0
 11
4024.673057123672
 21
10164.49742454597
 31
0.0
  0
LINE
  5
19BBE
330
747D
100
AcDbEntity
  8
部品1
100
AcDbLine
 10
4024.673057123672
 20
10182.49742454597
 30
0.0
 11
4030.673057123672
 21
10182.49742454597
 31
0.0
  0
LINE
  5
19BBF
330
747D
100
AcDbEntity
  8
部品1
100
AcDbLine
 10
4094.673057123672
 20
10182.49742454597
 30
0.0
 11
4094.673057123672
 21
10164.49742454597
 31
0.0
  0
LINE
  5
19BC0
330
747D
100
AcDbEntity
  8
部品1
100
AcDbLine
 10
4088.673057123672
 20
10182.49742454597
 30
0.0
 11
4094.673057123672
 21
10182.49742454597
 31
0.0
  0
LINE
  5
19BC1
330
747D
100
AcDbEntity
  8
部品1
100
AcDbLine
 10
4047.173057123671
 20
10156.49742454596
 30
0.0
 11
4072.173057123672
 21
10156.49742454597
 31
0.0
  0
LINE
  5
19BC2
330
747D
100
AcDbEntity
  8
部品1
100
AcDbLine
 10
4059.673057123672
 20
10192.49742454598
 30
0.0
 11
4059.673057123672
 21
10164.49742454598
 31
0.0
  0
LINE
  5
19BC3
330
747D
100
AcDbEntity
  8
部品1
100
AcDbLine
 10
3639.673057123673
 20
10192.49742454587
 30
0.0
 11
3639.673057123673
 21
10164.49742454587
 31
0.0
  0
LINE
  5
19BC4
330
747D
100
AcDbEntity
  8
部品1
100
AcDbLine
 10
3639.673057123673
 20
10192.49742454587
 30
0.0
 11
3639.673057123673
 21
10164.49742454587
 31
0.0
  0
LINE
  5
19BC5
330
747D
100
AcDbEntity
  8
部品1
100
AcDbLine
 10
3639.673057123673
 20
10192.49742454598
 30
0.0
 11
3639.673057123673
 21
10164.49742454598
 31
0.0
  0
LINE
  5
19BC6
330
747D
100
AcDbEntity
  8
部品1
100
AcDbLine
 10
3219.673057123672
 20
10192.49742454587
 30
0.0
 11
3219.673057123672
 21
10164.49742454587
 31
0.0
  0
LINE
  5
19BC7
330
747D
100
AcDbEntity
  8
部品1
100
AcDbLine
 10
3219.673057123672
 20
10192.49742454587
 30
0.0
 11
3219.673057123672
 21
10164.49742454587
 31
0.0
  0
LINE
  5
19BC8
330
747D
100
AcDbEntity
  8
部品1
100
AcDbLine
 10
3219.673057123672
 20
10192.49742454598
 30
0.0
 11
3219.673057123672
 21
10164.49742454598
 31
0.0
  0
LINE
  5
19BC9
330
747D
100
AcDbEntity
  8
部品1
100
AcDbLine
 10
4072.173057123672
 20
10164.49742454598
 30
0.0
 11
5346.673057123673
 21
10164.49742454596
 31
0.0
  0
LINE
  5
19BCA
330
747D
100
AcDbEntity
  8
部品1
100
AcDbLine
 10
2772.673057123673
 20
10164.49742454598
 30
0.0
 11
4047.173057123671
 21
10164.49742454598
 31
0.0
  0
CIRCLE
  5
19C04
330
747D
100
AcDbEntity
  8
細線
 48
50.0
100
AcDbCircle
 10
4059.673057123662
 20
3089.859204196229
 30
0.0
 40
18.0
  0
ARC
  5
19C05
330
747D
100
AcDbEntity
  8
細線
 48
50.0
100
AcDbCircle
 10
4359.673057123662
 20
2764.859204196229
 30
0.0
 40
15.0
100
AcDbArc
 50
270.0
 51
90.0
  0
ARC
  5
19C06
330
747D
100
AcDbEntity
  8
細線
 48
50.0
100
AcDbCircle
 10
4259.673057123662
 20
2764.859204196229
 30
0.0
 40
15.0
100
AcDbArc
 50
90.0
 51
270.0
  0
LINE
  5
19C07
330
747D
100
AcDbEntity
  8
細線
 48
50.0
100
AcDbLine
 10
4259.673057123662
 20
2779.85920419623
 30
0.0
 11
4359.673057123662
 21
2779.85920419623
 31
0.0
  0
LINE
  5
19C08
330
747D
100
AcDbEntity
  8
細線
 48
50.0
100
AcDbLine
 10
4359.673057123662
 20
2749.859204196229
 30
0.0
 11
4259.673057123662
 21
2749.859204196229
 31
0.0
  0
LINE
  5
19C09
330
747D
100
AcDbEntity
  8
細線
 48
50.0
100
AcDbLine
 10
3859.673057123662
 20
2749.859204196229
 30
0.0
 11
3759.673057123662
 21
2749.859204196229
 31
0.0
  0
LINE
  5
19C0A
330
747D
100
AcDbEntity
  8
細線
 48
50.0
100
AcDbLine
 10
3759.673057123662
 20
2779.85920419623
 30
0.0
 11
3859.673057123662
 21
2779.85920419623
 31
0.0
  0
ARC
  5
19C0B
330
747D
100
AcDbEntity
  8
細線
 48
50.0
100
AcDbCircle
 10
3859.673057123662
 20
2764.859204196229
 30
0.0
 40
15.0
100
AcDbArc
 50
270.0
 51
90.0
  0
ARC
  5
19C0C
330
747D
100
AcDbEntity
  8
細線
 48
50.0
100
AcDbCircle
 10
3759.673057123662
 20
2764.859204196229
 30
0.0
 40
15.0
100
AcDbArc
 50
90.0
 51
270.0
  0
ARC
  5
19C0D
330
747D
100
AcDbEntity
  8
部品1
 48
0.01
100
AcDbCircle
 10
3532.673057123665
 20
4374.859204196229
 30
0.0
 40
2.0
100
AcDbArc
 50
270.0
 51
0.0
  0
ARC
  5
19C0E
330
747D
100
AcDbEntity
  8
部品1
 48
0.01
100
AcDbCircle
 10
3532.673057123669
 20
4406.359204196229
 30
0.0
 40
2.0
100
AcDbArc
 50
0.0
 51
90.0
  0
ARC
  5
19C0F
330
747D
100
AcDbEntity
  8
部品1
 48
0.01
100
AcDbCircle
 10
3356.673057123668
 20
4374.859204196229
 30
0.0
 40
2.0
100
AcDbArc
 50
180.0
 51
270.0
  0
ARC
  5
19C10
330
747D
100
AcDbEntity
  8
部品1
 48
0.01
100
AcDbCircle
 10
3356.673057123668
 20
4406.359204196229
 30
0.0
 40
2.0
100
AcDbArc
 50
90.0
 51
180.0
  0
LINE
  5
19C11
330
747D
100
AcDbEntity
  8
細線
100
AcDbLine
 10
3444.673057123665
 20
4378.859204196229
 30
0.0
 11
3518.673057123669
 21
4378.859204196229
 31
0.0
  0
LINE
  5
19C12
330
747D
100
AcDbEntity
  8
細線
100
AcDbLine
 10
3444.673057123669
 20
4401.859204196229
 30
0.0
 11
3370.673057123668
 21
4401.859204196229
 31
0.0
  0
LINE
  5
19C13
330
747D
100
AcDbEntity
  8
細線
100
AcDbLine
 10
3370.673057123668
 20
4378.859204196229
 30
0.0
 11
3444.673057123669
 21
4378.859204196229
 31
0.0
  0
LINE
  5
19C14
330
747D
100
AcDbEntity
  8
細線
100
AcDbLine
 10
3518.673057123669
 20
4401.859204196229
 30
0.0
 11
3444.673057123669
 21
4401.859204196229
 31
0.0
  0
LINE
  5
19C15
330
747D
100
AcDbEntity
  8
細線
100
AcDbLine
 10
3518.673057123669
 20
4378.859204196229
 30
0.0
 11
3518.673057123669
 21
4401.859204196229
 31
0.0
  0
LINE
  5
19C16
330
747D
100
AcDbEntity
  8
細線
100
AcDbLine
 10
3370.673057123668
 20
4401.859204196229
 30
0.0
 11
3370.673057123668
 21
4378.859204196229
 31
0.0
  0
LINE
  5
19C17
330
747D
100
AcDbEntity
  8
部品1
 48
0.01
100
AcDbLine
 10
3534.673057123665
 20
4374.859204196229
 30
0.0
 11
3534.673057123669
 21
4406.359204196229
 31
0.0
  0
LINE
  5
19C18
330
747D
100
AcDbEntity
  8
部品1
 48
0.01
100
AcDbLine
 10
3356.673057123668
 20
4372.859204196229
 30
0.0
 11
3532.673057123665
 21
4372.859204196229
 31
0.0
  0
LINE
  5
19C19
330
747D
100
AcDbEntity
  8
部品1
 48
0.01
100
AcDbLine
 10
3354.673057123669
 20
4406.359204196229
 30
0.0
 11
3354.673057123669
 21
4374.859204196229
 31
0.0
  0
LINE
  5
19C1A
330
747D
100
AcDbEntity
  8
部品1
 48
0.01
100
AcDbLine
 10
3532.673057123669
 20
4408.359204196229
 30
0.0
 11
3356.673057123668
 21
4408.359204196229
 31
0.0
  0
LINE
  5
19C1B
330
747D
100
AcDbEntity
  8
細線
100
AcDbLine
 10
3370.673057123668
 20
4395.859204196229
 30
0.0
 11
3444.673057123669
 21
4395.859204196229
 31
0.0
  0
LINE
  5
19C1C
330
747D
100
AcDbEntity
  8
細線
100
AcDbLine
 10
3370.673057123668
 20
4389.85920419623
 30
0.0
 11
3444.673057123669
 21
4389.85920419623
 31
0.0
  0
LINE
  5
19C1D
330
747D
100
AcDbEntity
  8
細線
100
AcDbLine
 10
3370.673057123665
 20
4383.859204196229
 30
0.0
 11
3444.673057123669
 21
4383.859204196229
 31
0.0
  0
LINE
  5
19C1E
330
747D
100
AcDbEntity
  8
細線
100
AcDbLine
 10
3370.673057123668
 20
4395.859204196229
 30
0.0
 11
3439.673057123669
 21
4395.859204196229
 31
0.0
  0
LINE
  5
19C1F
330
747D
100
AcDbEntity
  8
細線
100
AcDbLine
 10
3518.673057123665
 20
4395.859204196229
 30
0.0
 11
3444.673057123669
 21
4395.859204196229
 31
0.0
  0
LINE
  5
19C20
330
747D
100
AcDbEntity
  8
細線
100
AcDbLine
 10
3518.673057123665
 20
4383.859204196229
 30
0.0
 11
3444.673057123669
 21
4383.859204196229
 31
0.0
  0
LINE
  5
19C21
330
747D
100
AcDbEntity
  8
細線
100
AcDbLine
 10
3518.673057123665
 20
4389.85920419623
 30
0.0
 11
3444.673057123669
 21
4389.85920419623
 31
0.0
  0
LINE
  5
19C22
330
747D
100
AcDbEntity
  8
細線
100
AcDbLine
 10
3444.673057123669
 20
4401.859204196229
 30
0.0
 11
3444.673057123665
 21
4378.859204196229
 31
0.0
  0
LINE
  5
19C23
330
747D
100
AcDbEntity
  8
細線
100
AcDbLine
 10
4674.673057123665
 20
4401.859204196229
 30
0.0
 11
4674.673057123668
 21
4378.859204196229
 31
0.0
  0
LINE
  5
19C24
330
747D
100
AcDbEntity
  8
細線
100
AcDbLine
 10
4600.673057123668
 20
4389.85920419623
 30
0.0
 11
4674.673057123665
 21
4389.85920419623
 31
0.0
  0
LINE
  5
19C25
330
747D
100
AcDbEntity
  8
細線
100
AcDbLine
 10
4600.673057123668
 20
4383.859204196229
 30
0.0
 11
4674.673057123665
 21
4383.859204196229
 31
0.0
  0
LINE
  5
19C26
330
747D
100
AcDbEntity
  8
細線
100
AcDbLine
 10
4600.673057123668
 20
4395.859204196229
 30
0.0
 11
4674.673057123665
 21
4395.859204196229
 31
0.0
  0
LINE
  5
19C27
330
747D
100
AcDbEntity
  8
細線
100
AcDbLine
 10
4748.673057123665
 20
4395.859204196229
 30
0.0
 11
4679.673057123665
 21
4395.859204196229
 31
0.0
  0
LINE
  5
19C28
330
747D
100
AcDbEntity
  8
細線
100
AcDbLine
 10
4748.673057123668
 20
4383.859204196229
 30
0.0
 11
4674.673057123665
 21
4383.859204196229
 31
0.0
  0
LINE
  5
19C29
330
747D
100
AcDbEntity
  8
細線
100
AcDbLine
 10
4748.673057123665
 20
4389.85920419623
 30
0.0
 11
4674.673057123665
 21
4389.85920419623
 31
0.0
  0
LINE
  5
19C2A
330
747D
100
AcDbEntity
  8
細線
100
AcDbLine
 10
4748.673057123665
 20
4395.859204196229
 30
0.0
 11
4674.673057123665
 21
4395.859204196229
 31
0.0
  0
LINE
  5
19C2B
330
747D
100
AcDbEntity
  8
部品1
 48
0.01
100
AcDbLine
 10
4586.673057123665
 20
4408.359204196229
 30
0.0
 11
4762.673057123665
 21
4408.359204196229
 31
0.0
  0
LINE
  5
19C2C
330
747D
100
AcDbEntity
  8
部品1
 48
0.01
100
AcDbLine
 10
4764.673057123665
 20
4406.359204196229
 30
0.0
 11
4764.673057123665
 21
4374.859204196229
 31
0.0
  0
LINE
  5
19C2D
330
747D
100
AcDbEntity
  8
部品1
 48
0.01
100
AcDbLine
 10
4762.673057123665
 20
4372.859204196229
 30
0.0
 11
4586.673057123668
 21
4372.859204196229
 31
0.0
  0
LINE
  5
19C2E
330
747D
100
AcDbEntity
  8
部品1
 48
0.01
100
AcDbLine
 10
4584.673057123668
 20
4374.859204196229
 30
0.0
 11
4584.673057123665
 21
4406.359204196229
 31
0.0
  0
LINE
  5
19C2F
330
747D
100
AcDbEntity
  8
細線
100
AcDbLine
 10
4748.673057123665
 20
4401.859204196229
 30
0.0
 11
4748.673057123665
 21
4378.859204196229
 31
0.0
  0
LINE
  5
19C30
330
747D
100
AcDbEntity
  8
細線
100
AcDbLine
 10
4600.673057123665
 20
4378.859204196229
 30
0.0
 11
4600.673057123665
 21
4401.859204196229
 31
0.0
  0
LINE
  5
19C31
330
747D
100
AcDbEntity
  8
細線
100
AcDbLine
 10
4600.673057123665
 20
4401.859204196229
 30
0.0
 11
4674.673057123665
 21
4401.859204196229
 31
0.0
  0
LINE
  5
19C32
330
747D
100
AcDbEntity
  8
細線
100
AcDbLine
 10
4748.673057123665
 20
4378.859204196229
 30
0.0
 11
4674.673057123665
 21
4378.859204196229
 31
0.0
  0
LINE
  5
19C33
330
747D
100
AcDbEntity
  8
細線
100
AcDbLine
 10
4674.673057123665
 20
4401.859204196229
 30
0.0
 11
4748.673057123665
 21
4401.859204196229
 31
0.0
  0
LINE
  5
19C34
330
747D
100
AcDbEntity
  8
細線
100
AcDbLine
 10
4674.673057123668
 20
4378.859204196229
 30
0.0
 11
4600.673057123665
 21
4378.859204196229
 31
0.0
  0
ARC
  5
19C35
330
747D
100
AcDbEntity
  8
部品1
 48
0.01
100
AcDbCircle
 10
4762.673057123665
 20
4406.359204196229
 30
0.0
 40
2.0
100
AcDbArc
 50
0.0
 51
90.0
  0
ARC
  5
19C36
330
747D
100
AcDbEntity
  8
部品1
 48
0.01
100
AcDbCircle
 10
4762.673057123665
 20
4374.859204196229
 30
0.0
 40
2.0
100
AcDbArc
 50
270.0
 51
0.0
  0
ARC
  5
19C37
330
747D
100
AcDbEntity
  8
部品1
 48
0.01
100
AcDbCircle
 10
4586.673057123665
 20
4406.359204196229
 30
0.0
 40
2.0
100
AcDbArc
 50
90.0
 51
180.0
  0
ARC
  5
19C38
330
747D
100
AcDbEntity
  8
部品1
 48
0.01
100
AcDbCircle
 10
4586.673057123668
 20
4374.859204196229
 30
0.0
 40
2.0
100
AcDbArc
 50
180.0
 51
270.0
  0
ARC
  5
19C39
330
747D
100
AcDbEntity
  8
部品1
 48
0.01
100
AcDbCircle
 10
7216.673057123668
 20
4374.859204196229
 30
0.0
 40
2.0
100
AcDbArc
 50
180.0
 51
270.0
  0
ARC
  5
19C3A
330
747D
100
AcDbEntity
  8
部品1
 48
0.01
100
AcDbCircle
 10
7216.673057123665
 20
4406.359204196229
 30
0.0
 40
2.0
100
AcDbArc
 50
90.0
 51
180.0
  0
ARC
  5
19C3B
330
747D
100
AcDbEntity
  8
部品1
 48
0.01
100
AcDbCircle
 10
7392.673057123665
 20
4374.859204196229
 30
0.0
 40
2.0
100
AcDbArc
 50
270.0
 51
0.0
  0
ARC
  5
19C3C
330
747D
100
AcDbEntity
  8
部品1
 48
0.01
100
AcDbCircle
 10
7392.673057123665
 20
4406.359204196229
 30
0.0
 40
2.0
100
AcDbArc
 50
0.0
 51
90.0
  0
LINE
  5
19C3D
330
747D
100
AcDbEntity
  8
細線
100
AcDbLine
 10
7304.673057123669
 20
4378.859204196229
 30
0.0
 11
7230.673057123666
 21
4378.859204196229
 31
0.0
  0
LINE
  5
19C3E
330
747D
100
AcDbEntity
  8
細線
100
AcDbLine
 10
7304.673057123665
 20
4401.859204196229
 30
0.0
 11
7378.673057123664
 21
4401.859204196229
 31
0.0
  0
LINE
  5
19C3F
330
747D
100
AcDbEntity
  8
細線
100
AcDbLine
 10
7378.673057123664
 20
4378.859204196229
 30
0.0
 11
7304.673057123665
 21
4378.859204196229
 31
0.0
  0
LINE
  5
19C40
330
747D
100
AcDbEntity
  8
細線
100
AcDbLine
 10
7230.673057123666
 20
4401.859204196229
 30
0.0
 11
7304.673057123665
 21
4401.859204196229
 31
0.0
  0
LINE
  5
19C41
330
747D
100
AcDbEntity
  8
細線
100
AcDbLine
 10
7230.673057123666
 20
4378.859204196229
 30
0.0
 11
7230.673057123666
 21
4401.859204196229
 31
0.0
  0
LINE
  5
19C42
330
747D
100
AcDbEntity
  8
細線
100
AcDbLine
 10
7378.673057123664
 20
4401.859204196229
 30
0.0
 11
7378.673057123664
 21
4378.859204196229
 31
0.0
  0
LINE
  5
19C43
330
747D
100
AcDbEntity
  8
部品1
 48
0.01
100
AcDbLine
 10
7214.673057123668
 20
4374.859204196229
 30
0.0
 11
7214.673057123665
 21
4406.359204196229
 31
0.0
  0
LINE
  5
19C44
330
747D
100
AcDbEntity
  8
部品1
 48
0.01
100
AcDbLine
 10
7392.673057123665
 20
4372.859204196229
 30
0.0
 11
7216.673057123668
 21
4372.859204196229
 31
0.0
  0
LINE
  5
19C45
330
747D
100
AcDbEntity
  8
部品1
 48
0.01
100
AcDbLine
 10
7394.673057123665
 20
4406.359204196229
 30
0.0
 11
7394.673057123665
 21
4374.859204196229
 31
0.0
  0
LINE
  5
19C46
330
747D
100
AcDbEntity
  8
部品1
 48
0.01
100
AcDbLine
 10
7216.673057123665
 20
4408.359204196229
 30
0.0
 11
7392.673057123665
 21
4408.359204196229
 31
0.0
  0
LINE
  5
19C47
330
747D
100
AcDbEntity
  8
細線
100
AcDbLine
 10
7378.673057123664
 20
4395.859204196229
 30
0.0
 11
7304.673057123665
 21
4395.859204196229
 31
0.0
  0
LINE
  5
19C48
330
747D
100
AcDbEntity
  8
細線
100
AcDbLine
 10
7378.673057123664
 20
4389.85920419623
 30
0.0
 11
7304.673057123665
 21
4389.85920419623
 31
0.0
  0
LINE
  5
19C49
330
747D
100
AcDbEntity
  8
細線
100
AcDbLine
 10
7378.673057123669
 20
4383.859204196229
 30
0.0
 11
7304.673057123665
 21
4383.859204196229
 31
0.0
  0
LINE
  5
19C4A
330
747D
100
AcDbEntity
  8
細線
100
AcDbLine
 10
7378.673057123664
 20
4395.859204196229
 30
0.0
 11
7309.673057123664
 21
4395.859204196229
 31
0.0
  0
LINE
  5
19C4B
330
747D
100
AcDbEntity
  8
細線
100
AcDbLine
 10
7230.673057123668
 20
4395.859204196229
 30
0.0
 11
7304.673057123665
 21
4395.859204196229
 31
0.0
  0
LINE
  5
19C4C
330
747D
100
AcDbEntity
  8
細線
100
AcDbLine
 10
7230.673057123668
 20
4383.859204196229
 30
0.0
 11
7304.673057123665
 21
4383.859204196229
 31
0.0
  0
LINE
  5
19C4D
330
747D
100
AcDbEntity
  8
細線
100
AcDbLine
 10
7230.673057123668
 20
4389.85920419623
 30
0.0
 11
7304.673057123665
 21
4389.85920419623
 31
0.0
  0
LINE
  5
19C4E
330
747D
100
AcDbEntity
  8
細線
100
AcDbLine
 10
7304.673057123665
 20
4401.859204196229
 30
0.0
 11
7304.673057123669
 21
4378.859204196229
 31
0.0
  0
LINE
  5
19C4F
330
747D
100
AcDbEntity
  8
細線
100
AcDbLine
 10
6074.673057123669
 20
4401.859204196229
 30
0.0
 11
6074.673057123664
 21
4378.859204196229
 31
0.0
  0
LINE
  5
19C50
330
747D
100
AcDbEntity
  8
細線
100
AcDbLine
 10
6148.673057123665
 20
4389.85920419623
 30
0.0
 11
6074.673057123669
 21
4389.85920419623
 31
0.0
  0
LINE
  5
19C51
330
747D
100
AcDbEntity
  8
細線
100
AcDbLine
 10
6148.673057123665
 20
4383.859204196229
 30
0.0
 11
6074.673057123669
 21
4383.859204196229
 31
0.0
  0
LINE
  5
19C52
330
747D
100
AcDbEntity
  8
細線
100
AcDbLine
 10
6148.673057123665
 20
4395.859204196229
 30
0.0
 11
6074.673057123669
 21
4395.859204196229
 31
0.0
  0
LINE
  5
19C53
330
747D
100
AcDbEntity
  8
細線
100
AcDbLine
 10
6000.673057123669
 20
4395.859204196229
 30
0.0
 11
6069.673057123669
 21
4395.859204196229
 31
0.0
  0
LINE
  5
19C54
330
747D
100
AcDbEntity
  8
細線
100
AcDbLine
 10
6000.673057123665
 20
4383.859204196229
 30
0.0
 11
6074.673057123669
 21
4383.859204196229
 31
0.0
  0
LINE
  5
19C55
330
747D
100
AcDbEntity
  8
細線
100
AcDbLine
 10
6000.673057123669
 20
4389.85920419623
 30
0.0
 11
6074.673057123669
 21
4389.85920419623
 31
0.0
  0
LINE
  5
19C56
330
747D
100
AcDbEntity
  8
細線
100
AcDbLine
 10
6000.673057123669
 20
4395.859204196229
 30
0.0
 11
6074.673057123669
 21
4395.859204196229
 31
0.0
  0
LINE
  5
19C57
330
747D
100
AcDbEntity
  8
部品1
 48
0.01
100
AcDbLine
 10
6162.673057123669
 20
4408.359204196229
 30
0.0
 11
5986.673057123669
 21
4408.359204196229
 31
0.0
  0
LINE
  5
19C58
330
747D
100
AcDbEntity
  8
部品1
 48
0.01
100
AcDbLine
 10
5984.673057123668
 20
4406.359204196229
 30
0.0
 11
5984.673057123668
 21
4374.859204196229
 31
0.0
  0
LINE
  5
19C59
330
747D
100
AcDbEntity
  8
部品1
 48
0.01
100
AcDbLine
 10
5986.673057123669
 20
4372.859204196229
 30
0.0
 11
6162.673057123665
 21
4372.859204196229
 31
0.0
  0
LINE
  5
19C5A
330
747D
100
AcDbEntity
  8
部品1
 48
0.01
100
AcDbLine
 10
6164.673057123665
 20
4374.859204196229
 30
0.0
 11
6164.673057123668
 21
4406.359204196229
 31
0.0
  0
LINE
  5
19C5B
330
747D
100
AcDbEntity
  8
細線
100
AcDbLine
 10
6000.673057123669
 20
4401.859204196229
 30
0.0
 11
6000.673057123669
 21
4378.859204196229
 31
0.0
  0
LINE
  5
19C5C
330
747D
100
AcDbEntity
  8
細線
100
AcDbLine
 10
6148.673057123668
 20
4378.859204196229
 30
0.0
 11
6148.673057123668
 21
4401.859204196229
 31
0.0
  0
LINE
  5
19C5D
330
747D
100
AcDbEntity
  8
細線
100
AcDbLine
 10
6148.673057123668
 20
4401.859204196229
 30
0.0
 11
6074.673057123669
 21
4401.859204196229
 31
0.0
  0
LINE
  5
19C5E
330
747D
100
AcDbEntity
  8
細線
100
AcDbLine
 10
6000.673057123669
 20
4378.859204196229
 30
0.0
 11
6074.673057123669
 21
4378.859204196229
 31
0.0
  0
LINE
  5
19C5F
330
747D
100
AcDbEntity
  8
細線
100
AcDbLine
 10
6074.673057123669
 20
4401.859204196229
 30
0.0
 11
6000.673057123669
 21
4401.859204196229
 31
0.0
  0
LINE
  5
19C60
330
747D
100
AcDbEntity
  8
細線
100
AcDbLine
 10
6074.673057123664
 20
4378.859204196229
 30
0.0
 11
6148.673057123668
 21
4378.859204196229
 31
0.0
  0
ARC
  5
19C61
330
747D
100
AcDbEntity
  8
部品1
 48
0.01
100
AcDbCircle
 10
5986.673057123669
 20
4406.359204196229
 30
0.0
 40
2.0
100
AcDbArc
 50
90.0
 51
180.0
  0
ARC
  5
19C62
330
747D
100
AcDbEntity
  8
部品1
 48
0.01
100
AcDbCircle
 10
5986.673057123669
 20
4374.859204196229
 30
0.0
 40
2.0
100
AcDbArc
 50
180.0
 51
270.0
  0
ARC
  5
19C63
330
747D
100
AcDbEntity
  8
部品1
 48
0.01
100
AcDbCircle
 10
6162.673057123669
 20
4406.359204196229
 30
0.0
 40
2.0
100
AcDbArc
 50
0.0
 51
90.0
  0
ARC
  5
19C64
330
747D
100
AcDbEntity
  8
部品1
 48
0.01
100
AcDbCircle
 10
6162.673057123665
 20
4374.859204196229
 30
0.0
 40
2.0
100
AcDbArc
 50
270.0
 51
0.0
  0
ARC
  5
19C65
330
747D
100
AcDbEntity
  8
細線
 48
50.0
100
AcDbCircle
 10
6389.673057123662
 20
2764.859204196229
 30
0.0
 40
15.0
100
AcDbArc
 50
90.0
 51
270.0
  0
ARC
  5
19C66
330
747D
100
AcDbEntity
  8
細線
 48
50.0
100
AcDbCircle
 10
6489.673057123662
 20
2764.859204196229
 30
0.0
 40
15.0
100
AcDbArc
 50
270.0
 51
90.0
  0
LINE
  5
19C67
330
747D
100
AcDbEntity
  8
細線
 48
50.0
100
AcDbLine
 10
6389.673057123662
 20
2779.85920419623
 30
0.0
 11
6489.673057123662
 21
2779.85920419623
 31
0.0
  0
LINE
  5
19C68
330
747D
100
AcDbEntity
  8
細線
 48
50.0
100
AcDbLine
 10
6489.673057123662
 20
2749.859204196229
 30
0.0
 11
6389.673057123662
 21
2749.859204196229
 31
0.0
  0
LINE
  5
19C69
330
747D
100
AcDbEntity
  8
細線
 48
50.0
100
AcDbLine
 10
6989.673057123662
 20
2749.859204196229
 30
0.0
 11
6889.673057123662
 21
2749.859204196229
 31
0.0
  0
LINE
  5
19C6A
330
747D
100
AcDbEntity
  8
細線
 48
50.0
100
AcDbLine
 10
6889.673057123662
 20
2779.85920419623
 30
0.0
 11
6989.673057123662
 21
2779.85920419623
 31
0.0
  0
ARC
  5
19C6B
330
747D
100
AcDbEntity
  8
細線
 48
50.0
100
AcDbCircle
 10
6889.673057123662
 20
2764.859204196229
 30
0.0
 40
15.0
100
AcDbArc
 50
90.0
 51
270.0
  0
ARC
  5
19C6C
330
747D
100
AcDbEntity
  8
細線
 48
50.0
100
AcDbCircle
 10
6989.673057123662
 20
2764.859204196229
 30
0.0
 40
15.0
100
AcDbArc
 50
270.0
 51
90.0
  0
CIRCLE
  5
19C6D
330
747D
100
AcDbEntity
  8
細線
 48
50.0
100
AcDbCircle
 10
6689.673057123662
 20
3089.859204196229
 30
0.0
 40
18.0
  0
ENDSEC
  0
SECTION
  2
OBJECTS
  0
DICTIONARY
  5
7471
330
0
100
AcDbDictionary
281
     1
  3
ACAD_COLOR
350
17AE2
  3
ACAD_GROUP
350
7472
  3
ACAD_LAYOUT
350
17AE3
  3
ACAD_MATERIAL
350
17AE1
  3
ACAD_MLINESTYLE
350
7473
  3
ACAD_PLOTSETTINGS
350
17AE4
  3
ACAD_PLOTSTYLENAME
350
17ADF
  3
ACDBHEADERROUNDTRIPXREC
350
19C9D
  3
AcDbVariableDictionary
350
19C99
  3
CONTENTDICTIONARY
350
E71C
  3
DRAWINGVARIABLESDICT
350
F3B9
  0
DICTIONARY
  5
18C51
330
7467
100
AcDbDictionary
280
     1
281
     1
  3
ACAD_LAYERSTATES
360
18C52
  0
DICTIONARY
  5
17AE2
102
{ACAD_REACTORS
330
7471
102
}
330
7471
100
AcDbDictionary
281
     1
  0
DICTIONARY
  5
7472
102
{ACAD_REACTORS
330
7471
102
}
330
7471
100
AcDbDictionary
281
     1
  3
*A1
350
17FA7
  3
*A2
350
180C7
  3
*A3
350
180D2
  0
DICTIONARY
  5
17AE3
102
{ACAD_REACTORS
330
7471
102
}
330
7471
100
AcDbDictionary
281
     1
  3
Model
350
17AE5
  3
レイアウト1
350
17AE6
  0
DICTIONARY
  5
17AE1
102
{ACAD_REACTORS
330
7471
102
}
330
7471
100
AcDbDictionary
281
     1
  0
DICTIONARY
  5
7473
102
{ACAD_REACTORS
330
7471
102
}
330
7471
100
AcDbDictionary
281
     1
  3
STANDARD
350
7480
  0
DICTIONARY
  5
17AE4
102
{ACAD_REACTORS
330
7471
102
}
330
7471
100
AcDbDictionary
281
     1
  0
ACDBDICTIONARYWDFLT
  5
17ADF
102
{ACAD_REACTORS
330
7471
102
}
330
7471
100
AcDbDictionary
281
     1
  3
Normal
350
17AE0
100
AcDbDictionaryWithDefault
340
17AE0
  0
DICTIONARY
  5
19C9D
102
{ACAD_REACTORS
330
7471
102
}
330
7471
100
AcDbDictionary
281
     1
  3
COLORDICT
350
19C9F
  3
MATERIALDICT
350
19C9E
  0
DICTIONARY
  5
19C99
102
{ACAD_REACTORS
330
7471
102
}
330
7471
100
AcDbDictionary
281
     1
  3
DIMASSOC
350
19C9A
  3
PROJECTNAME
350
19C9B
  0
DICTIONARY
  5
E71C
102
{ACAD_REACTORS
330
7471
102
}
330
7471
100
AcDbDictionary
281
     1
  0
DICTIONARY
  5
F3B9
102
{ACAD_REACTORS
330
7471
102
}
330
7471
100
AcDbDictionary
281
     1
1001
DRAWINGVARIABLESXDATA
1000
POLARMODE
1000
1
  0
DICTIONARY
  5
18C52
102
{ACAD_REACTORS
330
18C51
102
}
330
18C51
100
AcDbDictionary
281
     1
  0
GROUP
  5
17FA7
102
{ACAD_REACTORS
330
7472
102
}
330
7472
100
AcDbGroup
300

 70
     1
 71
     1
  0
GROUP
  5
180C7
102
{ACAD_REACTORS
330
7472
102
}
330
7472
100
AcDbGroup
300

 70
     1
 71
     1
  0
GROUP
  5
180D2
102
{ACAD_REACTORS
330
7472
102
}
330
7472
100
AcDbGroup
300

 70
     1
 71
     1
  0
LAYOUT
  5
17AE5
102
{ACAD_XDICTIONARY
360
19CA0
102
}
102
{ACAD_REACTORS
330
17AE3
102
}
330
17AE3
100
AcDbPlotSettings
  1

  2
Canon iR C3880/C4580 LIPSLX
  4
A3
  6

 40
5.873749732971191
 41
5.873747825622558
 42
5.873748779296875
 43
5.873748779296875
 44
296.9259948730469
 45
419.9466552734374
 46
0.0
 47
0.0
 48
0.0
 49
0.0
140
0.0
141
0.0
142
1.0
143
40.0
 70
 11952
 72
     1
 73
     1
 74
     1
  7
inaba.ctb
 75
    24
147
0.025
148
-139.196816621341
149
0.1811693038616795
100
AcDbLayout
  1
Model
 70
     1
 71
     0
 10
0.0
 20
0.0
 11
12.0
 21
9.0
 12
0.0
 22
0.0
 32
0.0
 14
0.0
 24
0.0
 34
0.0
 15
0.0
 25
0.0
 35
0.0
146
0.0
 13
0.0
 23
0.0
 33
0.0
 16
1.0
 26
0.0
 36
0.0
 17
0.0
 27
1.0
 37
0.0
 76
     0
330
747D
  0
LAYOUT
  5
17AE6
102
{ACAD_XDICTIONARY
360
19CA2
102
}
102
{ACAD_REACTORS
330
17AE3
102
}
330
17AE3
100
AcDbPlotSettings
  1

  2
EPSON LP-8300
  4

  6

 40
0.0
 41
0.0
 42
0.0
 43
0.0
 44
0.0
 45
0.0
 46
0.0
 47
0.0
 48
0.0
 49
0.0
140
0.0
141
0.0
142
1.0
143
1.0
 70
   688
 72
     0
 73
     0
 74
     5
  7
inaba.ctb
 75
    16
147
1.0
148
0.0
149
0.0
100
AcDbLayout
  1
レイアウト1
 70
     0
 71
     1
 10
0.0
 20
0.0
 11
420.0
 21
297.0
 12
0.0
 22
0.0
 32
0.0
 14
1.000000000000000E+20
 24
1.000000000000000E+20
 34
1.000000000000000E+20
 15
-1.000000000000000E+20
 25
-1.000000000000000E+20
 35
-1.000000000000000E+20
146
0.0
 13
0.0
 23
0.0
 33
0.0
 16
1.0
 26
0.0
 36
0.0
 17
0.0
 27
1.0
 37
0.0
 76
     0
330
747A
  0
MLINESTYLE
  5
7480
102
{ACAD_REACTORS
330
7473
102
}
330
7473
100
AcDbMlineStyle
  2
STANDARD
 70
     0
  3

 62
     0
 51
90.0
 52
90.0
 71
     2
 49
0.5
 62
   256
  6
BYLAYER
 49
-0.5
 62
   256
  6
BYLAYER
  0
ACDBPLACEHOLDER
  5
17AE0
102
{ACAD_REACTORS
330
17ADF
102
}
330
17ADF
  0
XRECORD
  5
19C9F
102
{ACAD_REACTORS
330
19C9D
102
}
330
19C9D
100
AcDbXrecord
280
     1
340
17AE2
  0
XRECORD
  5
19C9E
102
{ACAD_REACTORS
330
19C9D
102
}
330
19C9D
100
AcDbXrecord
280
     1
340
17AE1
  0
DICTIONARYVAR
  5
19C9A
102
{ACAD_REACTORS
330
19C99
102
}
330
19C99
100
DictionaryVariables
280
     0
  1
1
  0
DICTIONARYVAR
  5
19C9B
102
{ACAD_REACTORS
330
19C99
102
}
330
19C99
100
DictionaryVariables
280
     0
  1

  0
DICTIONARY
  5
19CA0
330
17AE5
100
AcDbDictionary
280
     1
281
     1
  3
ACAD_XREC_ROUNDTRIP
360
19CA1
  0
DICTIONARY
  5
19CA2
330
17AE6
100
AcDbDictionary
280
     1
281
     1
  3
ACAD_XREC_ROUNDTRIP
360
19CA3
  0
XRECORD
  5
19CA1
102
{ACAD_REACTORS
330
19CA0
102
}
330
19CA0
100
AcDbXrecord
280
     1
102
SHADEPLOT
 70
     0
102
SHADEPLOTRESLEVEL
 70
     2
102
SHADEPLOTCUSTOMDPI
 70
   300
  0
XRECORD
  5
19CA3
102
{ACAD_REACTORS
330
19CA2
102
}
330
19CA2
100
AcDbXrecord
280
     1
102
SHADEPLOT
 70
     0
102
SHADEPLOTRESLEVEL
 70
     2
102
SHADEPLOTCUSTOMDPI
 70
   300
  0
ENDSEC
  0
EOF
