  0
SECTION
  2
HEADER
  9
$ACADVER
  1
AC1015
  9
$ACADMAINTVER
 70
    20
  9
$DWGCODEPAGE
  3
ANSI_932
  9
$INSBASE
 10
0.0
 20
0.0
 30
0.0
  9
$EXTMIN
 10
139.9999999999995
 20
-0.0000000000000909
 30
0.0
  9
$EXTMAX
 10
16307.2
 20
11409.6
 30
0.0
  9
$LIMMIN
 10
0.0
 20
0.0
  9
$LIMMAX
 10
16800.0
 20
11880.0
  9
$ORTHOMODE
 70
     0
  9
$REGENMODE
 70
     1
  9
$FILLMODE
 70
     1
  9
$QTEXTMODE
 70
     0
  9
$MIRRTEXT
 70
     1
  9
$LTSCALE
 40
20.0
  9
$ATTMODE
 70
     1
  9
$TEXTSIZE
 40
3.5
  9
$TRACEWID
 40
1.0
  9
$TEXTSTYLE
  7
MSGOTHIC
  9
$CLAYER
  8
部品1
  9
$CELTYPE
  6
BYLAYER
  9
$CECOLOR
 62
   256
  9
$CELTSCALE
 40
50.0
  9
$DISPSILH
 70
     0
  9
$DIMSCALE
 40
40.0
  9
$DIMASZ
 40
2.5
  9
$DIMEXO
 40
0.5
  9
$DIMDLI
 40
7.0
  9
$DIMRND
 40
0.0
  9
$DIMDLE
 40
0.0
  9
$DIMEXE
 40
1.5
  9
$DIMTP
 40
0.0
  9
$DIMTM
 40
0.0
  9
$DIMTXT
 40
3.0
  9
$DIMCEN
 40
0.0
  9
$DIMTSZ
 40
0.0
  9
$DIMTOL
 70
     0
  9
$DIMLIM
 70
     0
  9
$DIMTIH
 70
     0
  9
$DIMTOH
 70
     0
  9
$DIMSE1
 70
     0
  9
$DIMSE2
 70
     0
  9
$DIMTAD
 70
     3
  9
$DIMZIN
 70
     8
  9
$DIMBLK
  1

  9
$DIMASO
 70
     1
  9
$DIMSHO
 70
     1
  9
$DIMPOST
  1

  9
$DIMAPOST
  1

  9
$DIMALT
 70
     0
  9
$DIMALTD
 70
     2
  9
$DIMALTF
 40
0.0394
  9
$DIMLFAC
 40
1.0
  9
$DIMTOFL
 70
     1
  9
$DIMTVP
 40
0.0
  9
$DIMTIX
 70
     1
  9
$DIMSOXD
 70
     0
  9
$DIMSAH
 70
     1
  9
$DIMBLK1
  1
DOTSMALL
  9
$DIMBLK2
  1
DOTSMALL
  9
$DIMSTYLE
  2
INABA_S40G
  9
$DIMCLRD
 70
     0
  9
$DIMCLRE
 70
     0
  9
$DIMCLRT
 70
     7
  9
$DIMTFAC
 40
1.0
  9
$DIMGAP
 40
1.0
  9
$DIMJUST
 70
     0
  9
$DIMSD1
 70
     0
  9
$DIMSD2
 70
     0
  9
$DIMTOLJ
 70
     1
  9
$DIMTZIN
 70
     0
  9
$DIMALTZ
 70
     0
  9
$DIMALTTZ
 70
     0
  9
$DIMUPT
 70
     0
  9
$DIMDEC
 70
     1
  9
$DIMTDEC
 70
     4
  9
$DIMALTU
 70
     2
  9
$DIMALTTD
 70
     2
  9
$DIMTXSTY
  7
STYLE1
  9
$DIMAUNIT
 70
     0
  9
$DIMADEC
 70
     0
  9
$DIMALTRND
 40
0.0
  9
$DIMAZIN
 70
     0
  9
$DIMDSEP
 70
    46
  9
$DIMATFIT
 70
     3
  9
$DIMFRAC
 70
     0
  9
$DIMLDRBLK
  1

  9
$DIMLUNIT
 70
     2
  9
$DIMLWD
 70
    -2
  9
$DIMLWE
 70
    -2
  9
$DIMTMOVE
 70
     0
  9
$LUNITS
 70
     2
  9
$LUPREC
 70
     1
  9
$SKETCHINC
 40
1.0
  9
$FILLETRAD
 40
3.0
  9
$AUNITS
 70
     0
  9
$AUPREC
 70
     0
  9
$MENU
  1
acad
  9
$ELEVATION
 40
0.0
  9
$PELEVATION
 40
0.0
  9
$THICKNESS
 40
0.0
  9
$LIMCHECK
 70
     0
  9
$CHAMFERA
 40
0.0
  9
$CHAMFERB
 40
0.0
  9
$CHAMFERC
 40
0.0
  9
$CHAMFERD
 40
0.0
  9
$SKPOLY
 70
     0
  9
$TDCREATE
 40
2451368.612993866
  9
$TDUCREATE
 40
2451368.237993866
  9
$TDUPDATE
 40
2455569.647716285
  9
$TDUUPDATE
 40
2455569.272716285
  9
$TDINDWG
 40
0.7285798727
  9
$TDUSRTIMER
 40
0.7285798727
  9
$USRTIMER
 70
     1
  9
$ANGBASE
 50
0.0
  9
$ANGDIR
 70
     0
  9
$PDMODE
 70
     3
  9
$PDSIZE
 40
2.0
  9
$PLINEWID
 40
0.0
  9
$SPLFRAME
 70
     0
  9
$SPLINETYPE
 70
     6
  9
$SPLINESEGS
 70
     8
  9
$HANDSEED
  5
179ED
  9
$SURFTAB1
 70
     6
  9
$SURFTAB2
 70
     6
  9
$SURFTYPE
 70
     6
  9
$SURFU
 70
     6
  9
$SURFV
 70
     6
  9
$UCSBASE
  2

  9
$UCSNAME
  2

  9
$UCSORG
 10
0.0
 20
0.0
 30
0.0
  9
$UCSXDIR
 10
1.0
 20
0.0
 30
0.0
  9
$UCSYDIR
 10
0.0
 20
1.0
 30
0.0
  9
$UCSORTHOREF
  2

  9
$UCSORTHOVIEW
 70
     0
  9
$UCSORGTOP
 10
0.0
 20
0.0
 30
0.0
  9
$UCSORGBOTTOM
 10
0.0
 20
0.0
 30
0.0
  9
$UCSORGLEFT
 10
0.0
 20
0.0
 30
0.0
  9
$UCSORGRIGHT
 10
0.0
 20
0.0
 30
0.0
  9
$UCSORGFRONT
 10
0.0
 20
0.0
 30
0.0
  9
$UCSORGBACK
 10
0.0
 20
0.0
 30
0.0
  9
$PUCSBASE
  2

  9
$PUCSNAME
  2

  9
$PUCSORG
 10
0.0
 20
0.0
 30
0.0
  9
$PUCSXDIR
 10
1.0
 20
0.0
 30
0.0
  9
$PUCSYDIR
 10
0.0
 20
1.0
 30
0.0
  9
$PUCSORTHOREF
  2

  9
$PUCSORTHOVIEW
 70
     0
  9
$PUCSORGTOP
 10
0.0
 20
0.0
 30
0.0
  9
$PUCSORGBOTTOM
 10
0.0
 20
0.0
 30
0.0
  9
$PUCSORGLEFT
 10
0.0
 20
0.0
 30
0.0
  9
$PUCSORGRIGHT
 10
0.0
 20
0.0
 30
0.0
  9
$PUCSORGFRONT
 10
0.0
 20
0.0
 30
0.0
  9
$PUCSORGBACK
 10
0.0
 20
0.0
 30
0.0
  9
$USERI1
 70
     0
  9
$USERI2
 70
     0
  9
$USERI3
 70
     0
  9
$USERI4
 70
     0
  9
$USERI5
 70
     0
  9
$USERR1
 40
0.0
  9
$USERR2
 40
0.0
  9
$USERR3
 40
0.0
  9
$USERR4
 40
0.0
  9
$USERR5
 40
0.0
  9
$WORLDVIEW
 70
     1
  9
$SHADEDGE
 70
     3
  9
$SHADEDIF
 70
    70
  9
$TILEMODE
 70
     1
  9
$MAXACTVP
 70
    16
  9
$PINSBASE
 10
0.0
 20
0.0
 30
0.0
  9
$PLIMCHECK
 70
     0
  9
$PEXTMIN
 10
1.000000000000000E+20
 20
1.000000000000000E+20
 30
1.000000000000000E+20
  9
$PEXTMAX
 10
-1.000000000000000E+20
 20
-1.000000000000000E+20
 30
-1.000000000000000E+20
  9
$PLIMMIN
 10
0.0
 20
0.0
  9
$PLIMMAX
 10
420.0
 20
297.0
  9
$UNITMODE
 70
     0
  9
$VISRETAIN
 70
     0
  9
$PLINEGEN
 70
     0
  9
$PSLTSCALE
 70
     0
  9
$TREEDEPTH
 70
  3020
  9
$CMLSTYLE
  2
STANDARD
  9
$CMLJUST
 70
     0
  9
$CMLSCALE
 40
1.0
  9
$PROXYGRAPHICS
 70
     1
  9
$MEASUREMENT
 70
     1
  9
$CELWEIGHT
370
    -1
  9
$ENDCAPS
280
     0
  9
$JOINSTYLE
280
     0
  9
$LWDISPLAY
290
     0
  9
$INSUNITS
 70
     0
  9
$HYPERLINKBASE
  1

  9
$STYLESHEET
  1
inaba.ctb
  9
$XEDIT
290
     1
  9
$CEPSNTYPE
380
     0
  9
$PSTYLEMODE
290
     1
  9
$FINGERPRINTGUID
  2
{EC090311-9254-4FB8-9BBA-E8C5B2CDFB2F}
  9
$VERSIONGUID
  2
{2893FBBA-2ED6-4FD2-B915-915D4EAF6254}
  9
$EXTNAMES
290
     1
  9
$PSVPSCALE
 40
0.0
  9
$OLESTARTUP
290
     0
  0
ENDSEC
  0
SECTION
  2
CLASSES
  0
CLASS
  1
ACDBDICTIONARYWDFLT
  2
AcDbDictionaryWithDefault
  3
ObjectDBX Classes
 90
        0
280
     0
281
     0
  0
CLASS
  1
DICTIONARYVAR
  2
AcDbDictionaryVar
  3
ObjectDBX Classes
 90
        0
280
     0
281
     0
  0
CLASS
  1
ACDBPLACEHOLDER
  2
AcDbPlaceHolder
  3
ObjectDBX Classes
 90
        0
280
     0
281
     0
  0
CLASS
  1
LAYOUT
  2
AcDbLayout
  3
ObjectDBX Classes
 90
        0
280
     0
281
     0
  0
ENDSEC
  0
SECTION
  2
TABLES
  0
TABLE
  2
VPORT
  5
746D
330
0
100
AcDbSymbolTable
 70
     2
  0
VPORT
  5
179E5
330
746D
100
AcDbSymbolTableRecord
100
AcDbViewportTableRecord
  2
*Active
 70
     0
 10
0.0
 20
0.0
 11
1.0
 21
1.0
 12
11720.15228811286
 22
5704.702397105601
 13
0.0
 23
0.0
 14
10.0
 24
10.0
 15
10.0
 25
10.0
 16
0.0
 26
0.0
 36
1.0
 17
0.0
 27
0.0
 37
0.0
 40
11513.59868046627
 41
2.234800838574423
 42
50.0
 43
0.0
 44
0.0
 50
0.0
 51
0.0
 71
     0
 72
     0
 73
     1
 74
     0
 75
     0
 76
     0
 77
     0
 78
     0
281
     0
 65
     1
110
0.0
120
0.0
130
0.0
111
1.0
121
0.0
131
0.0
112
0.0
122
1.0
132
0.0
 79
     0
146
0.0
  0
ENDTAB
  0
TABLE
  2
LTYPE
  5
746A
330
0
100
AcDbSymbolTable
 70
     3
  0
LTYPE
  5
7477
330
746A
100
AcDbSymbolTableRecord
100
AcDbLinetypeTableRecord
  2
BYBLOCK
 70
     0
  3

 72
    65
 73
     0
 40
0.0
  0
LTYPE
  5
7478
330
746A
100
AcDbSymbolTableRecord
100
AcDbLinetypeTableRecord
  2
BYLAYER
 70
     0
  3

 72
    65
 73
     0
 40
0.0
  0
LTYPE
  5
7479
330
746A
100
AcDbSymbolTableRecord
100
AcDbLinetypeTableRecord
  2
CONTINUOUS
 70
     0
  3
Solid line
 72
    65
 73
     0
 40
0.0
  0
LTYPE
  5
781A
330
746A
100
AcDbSymbolTableRecord
100
AcDbLinetypeTableRecord
  2
HIDDEN
 70
     0
  3
__ __ __ __ __ __ __ __ __ __ __ __ __ __ __ __
 72
    65
 73
     2
 40
0.375
 49
0.25
 74
     0
 49
-0.125
 74
     0
  0
LTYPE
  5
781B
330
746A
100
AcDbSymbolTableRecord
100
AcDbLinetypeTableRecord
  2
PHANTOM
 70
     0
  3
______  __  __  ______  __  __  ______  __  __ 
 72
    65
 73
     6
 40
2.5
 49
1.25
 74
     0
 49
-0.25
 74
     0
 49
0.25
 74
     0
 49
-0.25
 74
     0
 49
0.25
 74
     0
 49
-0.25
 74
     0
  0
ENDTAB
  0
TABLE
  2
LAYER
  5
7467
102
{ACAD_XDICTIONARY
360
16D27
102
}
330
0
100
AcDbSymbolTable
 70
    10
  0
LAYER
  5
7474
330
7467
100
AcDbSymbolTableRecord
100
AcDbLayerTableRecord
  2
0
 70
     0
 62
     7
  6
CONTINUOUS
370
    -3
390
1675D
  0
LAYER
  5
DEB3
330
7467
100
AcDbSymbolTableRecord
100
AcDbLayerTableRecord
  2
寸法
 70
     0
 62
     4
  6
CONTINUOUS
370
    -3
390
1675D
  0
LAYER
  5
DEB4
330
7467
100
AcDbSymbolTableRecord
100
AcDbLayerTableRecord
  2
部品1
 70
     0
 62
     7
  6
CONTINUOUS
370
    -3
390
1675D
  0
LAYER
  5
DEB5
330
7467
100
AcDbSymbolTableRecord
100
AcDbLayerTableRecord
  2
補助
 70
     0
 62
    -1
  6
CONTINUOUS
370
    -3
390
1675D
  0
LAYER
  5
DEB6
330
7467
100
AcDbSymbolTableRecord
100
AcDbLayerTableRecord
  2
文字
 70
     0
 62
     7
  6
CONTINUOUS
370
    -3
390
1675D
  0
LAYER
  5
F255
330
7467
100
AcDbSymbolTableRecord
100
AcDbLayerTableRecord
  2
DEFPOINTS
 70
     0
 62
     7
  6
CONTINUOUS
290
     0
370
    -3
390
1675D
  0
LAYER
  5
10B54
330
7467
100
AcDbSymbolTableRecord
100
AcDbLayerTableRecord
  2
仕様書枠
 70
     0
 62
   230
  6
CONTINUOUS
370
    -3
390
1675D
  0
LAYER
  5
11729
330
7467
100
AcDbSymbolTableRecord
100
AcDbLayerTableRecord
  2
Ｇ．Ｌ
 70
     0
 62
    30
  6
CONTINUOUS
370
    -3
390
1675D
  0
LAYER
  5
1173F
330
7467
100
AcDbSymbolTableRecord
100
AcDbLayerTableRecord
  2
細線
 70
     0
 62
     5
  6
CONTINUOUS
370
    -3
390
1675D
  0
LAYER
  5
142E2
330
7467
100
AcDbSymbolTableRecord
100
AcDbLayerTableRecord
  2
破線
 70
     0
 62
     2
  6
HIDDEN
370
    -3
390
1675D
  0
ENDTAB
  0
TABLE
  2
STYLE
  5
7468
330
0
100
AcDbSymbolTable
 70
     6
  0
STYLE
  5
7475
330
7468
100
AcDbSymbolTableRecord
100
AcDbTextStyleTableRecord
  2
STANDARD
 70
     0
 40
0.0
 41
1.0
 50
0.0
 71
     0
 42
4.0
  3
txt
  4
C:\AutoCAD LT\bigfont.shx
  0
STYLE
  5
763C
330
7468
100
AcDbSymbolTableRecord
100
AcDbTextStyleTableRecord
  2
MSMINCHO
 70
     0
 40
0.0
 41
1.0
 50
0.0
 71
     0
 42
1.199999999999999
  3
C:\AutoCAD LT\msminch2.TTF
  4

  0
STYLE
  5
F706
330
7468
100
AcDbSymbolTableRecord
100
AcDbTextStyleTableRecord
  2
STYLE1
 70
     0
 40
0.0
 41
1.0
 50
0.0
 71
     0
 42
4.0
  3
isocp.shx
  4
bigfont.shx
  0
STYLE
  5
103BF
330
7468
100
AcDbSymbolTableRecord
100
AcDbTextStyleTableRecord
  2
STYLE2
 70
     0
 40
0.0
 41
1.0
 50
0.0
 71
     0
 42
100.0
  3
MS PGothic.ttf
  4

1001
ACAD
1000
MS PGothic
1071
    32818
  0
STYLE
  5
10BAA
330
7468
100
AcDbSymbolTableRecord
100
AcDbTextStyleTableRecord
  2
STYLE3
 70
     0
 40
0.0
 41
1.0
 50
0.0
 71
     0
 42
100.0
  3
DFPGothic-EB.ttf
  4

1001
ACAD
1000
DFPGothic-EB
1071
    32818
  0
STYLE
  5
11A15
330
7468
100
AcDbSymbolTableRecord
100
AcDbTextStyleTableRecord
  2
MSGOTHIC
 70
     0
 40
0.0
 41
1.0
 50
0.0
 71
     0
 42
3.5
  3
MS PGothic.ttf
  4

1001
ACAD
1000
MS PGothic
1071
    32818
  0
ENDTAB
  0
TABLE
  2
VIEW
  5
746B
330
0
100
AcDbSymbolTable
 70
     0
  0
ENDTAB
  0
TABLE
  2
UCS
  5
746C
330
0
100
AcDbSymbolTable
 70
     0
  0
ENDTAB
  0
TABLE
  2
APPID
  5
746E
330
0
100
AcDbSymbolTable
 70
     6
  0
APPID
  5
7476
330
746E
100
AcDbSymbolTableRecord
100
AcDbRegAppTableRecord
  2
ACAD
 70
     0
  0
APPID
  5
DEA9
330
746E
100
AcDbSymbolTableRecord
100
AcDbRegAppTableRecord
  2
CONTENTBLOCKICON
 70
     0
  0
APPID
  5
DEAA
330
746E
100
AcDbSymbolTableRecord
100
AcDbRegAppTableRecord
  2
CONTENTBLOCKDESCRIPTION
 70
     0
  0
APPID
  5
E71D
330
746E
100
AcDbSymbolTableRecord
100
AcDbRegAppTableRecord
  2
CONTENTTABDATA
 70
     0
  0
APPID
  5
E71E
330
746E
100
AcDbSymbolTableRecord
100
AcDbRegAppTableRecord
  2
CONTENTCURRENTTAB
 70
     0
  0
APPID
  5
F3BA
330
746E
100
AcDbSymbolTableRecord
100
AcDbRegAppTableRecord
  2
DRAWINGVARIABLESXDATA
 70
     0
  0
ENDTAB
  0
TABLE
  2
DIMSTYLE
  5
746F
330
0
100
AcDbSymbolTable
 70
     1
100
AcDbDimStyleTable
 71
     1
340
F71F
  0
DIMSTYLE
105
F71F
102
{ACAD_REACTORS
330
164EB
330
164F2
330
164F7
330
164F9
330
164FA
330
164FB
330
1650E
330
1650F
330
16510
330
16528
330
1652B
330
16556
330
16557
330
16EF2
330
16EF3
330
16EF4
330
16EF8
330
16F28
330
16F29
330
16F2A
330
16F76
330
16F77
330
16F78
330
16FB4
330
16ED5
330
16EE4
330
1768B
330
1768C
330
1768D
102
}
330
746F
100
AcDbSymbolTableRecord
100
AcDbDimStyleTableRecord
  2
INABA_S40G
 70
     0
 40
40.0
 41
2.5
 42
0.5
 43
7.0
 44
1.5
 73
     0
 74
     0
 77
     3
 78
     8
140
3.0
141
0.0
143
0.0394
147
1.0
172
     1
173
     1
174
     1
178
     7
271
     1
340
F706
341
F770
343
F770
344
F770
  0
ENDTAB
  0
TABLE
  2
BLOCK_RECORD
  5
7466
330
0
100
AcDbSymbolTable
 70
    30
  0
BLOCK_RECORD
  5
747D
330
7466
100
AcDbSymbolTableRecord
100
AcDbBlockTableRecord
  2
*MODEL_SPACE
340
16762
  0
BLOCK_RECORD
  5
747A
330
7466
100
AcDbSymbolTableRecord
100
AcDbBlockTableRecord
  2
*PAPER_SPACE
340
16763
  0
BLOCK_RECORD
  5
F770
330
7466
100
AcDbSymbolTableRecord
100
AcDbBlockTableRecord
  2
_DOTSMALL
340
0
102
{BLKREFS
331
17412
331
17413
331
174CC
331
174CD
331
17502
331
17503
331
1750C
331
1750D
331
17818
331
17819
331
17821
331
17822
331
1782A
331
1782B
331
17835
331
17836
331
17849
331
1784A
331
1785C
331
1785D
331
17866
331
17867
331
17871
331
17872
331
1787C
331
1787D
331
17890
331
17891
331
1789B
331
1789C
331
178A7
331
178A8
331
178AF
331
178B0
331
178B7
331
178B8
331
178C0
331
178C1
331
178C9
331
178CA
331
178E8
331
178E9
331
178F3
331
178F4
331
1790F
331
17910
331
17918
331
17919
331
17921
331
17922
331
1792A
331
1792B
331
179B6
331
179B7
331
179CA
331
179CB
331
179D6
331
179D7
102
}
  0
BLOCK_RECORD
  5
1655F
330
7466
100
AcDbSymbolTableRecord
100
AcDbBlockTableRecord
  2
*D1
340
0
  0
BLOCK_RECORD
  5
1656B
330
7466
100
AcDbSymbolTableRecord
100
AcDbBlockTableRecord
  2
*D2
340
0
  0
BLOCK_RECORD
  5
1658F
330
7466
100
AcDbSymbolTableRecord
100
AcDbBlockTableRecord
  2
*D3
340
0
  0
BLOCK_RECORD
  5
1659A
330
7466
100
AcDbSymbolTableRecord
100
AcDbBlockTableRecord
  2
*D4
340
0
  0
BLOCK_RECORD
  5
165A6
330
7466
100
AcDbSymbolTableRecord
100
AcDbBlockTableRecord
  2
*D5
340
0
  0
BLOCK_RECORD
  5
165B4
330
7466
100
AcDbSymbolTableRecord
100
AcDbBlockTableRecord
  2
*D6
340
0
  0
BLOCK_RECORD
  5
165C3
330
7466
100
AcDbSymbolTableRecord
100
AcDbBlockTableRecord
  2
*D7
340
0
  0
BLOCK_RECORD
  5
165D2
330
7466
100
AcDbSymbolTableRecord
100
AcDbBlockTableRecord
  2
*D8
340
0
  0
BLOCK_RECORD
  5
165E0
330
7466
100
AcDbSymbolTableRecord
100
AcDbBlockTableRecord
  2
*D9
340
0
  0
BLOCK_RECORD
  5
165EE
330
7466
100
AcDbSymbolTableRecord
100
AcDbBlockTableRecord
  2
*D10
340
0
  0
BLOCK_RECORD
  5
165FA
330
7466
100
AcDbSymbolTableRecord
100
AcDbBlockTableRecord
  2
*D11
340
0
  0
BLOCK_RECORD
  5
16608
330
7466
100
AcDbSymbolTableRecord
100
AcDbBlockTableRecord
  2
*D12
340
0
  0
BLOCK_RECORD
  5
16616
330
7466
100
AcDbSymbolTableRecord
100
AcDbBlockTableRecord
  2
*D13
340
0
  0
BLOCK_RECORD
  5
17069
330
7466
100
AcDbSymbolTableRecord
100
AcDbBlockTableRecord
  2
*D14
340
0
  0
BLOCK_RECORD
  5
17075
330
7466
100
AcDbSymbolTableRecord
100
AcDbBlockTableRecord
  2
*D15
340
0
  0
BLOCK_RECORD
  5
17083
330
7466
100
AcDbSymbolTableRecord
100
AcDbBlockTableRecord
  2
*D16
340
0
  0
BLOCK_RECORD
  5
1708F
330
7466
100
AcDbSymbolTableRecord
100
AcDbBlockTableRecord
  2
*D17
340
0
  0
BLOCK_RECORD
  5
1709D
330
7466
100
AcDbSymbolTableRecord
100
AcDbBlockTableRecord
  2
*D18
340
0
  0
BLOCK_RECORD
  5
170A9
330
7466
100
AcDbSymbolTableRecord
100
AcDbBlockTableRecord
  2
*D19
340
0
  0
BLOCK_RECORD
  5
170B5
330
7466
100
AcDbSymbolTableRecord
100
AcDbBlockTableRecord
  2
*D20
340
0
  0
BLOCK_RECORD
  5
17100
330
7466
100
AcDbSymbolTableRecord
100
AcDbBlockTableRecord
  2
*D21
340
0
  0
BLOCK_RECORD
  5
1710C
330
7466
100
AcDbSymbolTableRecord
100
AcDbBlockTableRecord
  2
*D22
340
0
  0
BLOCK_RECORD
  5
17118
330
7466
100
AcDbSymbolTableRecord
100
AcDbBlockTableRecord
  2
*D23
340
0
  0
BLOCK_RECORD
  5
17126
330
7466
100
AcDbSymbolTableRecord
100
AcDbBlockTableRecord
  2
*D24
340
0
  0
BLOCK_RECORD
  5
171DF
330
7466
100
AcDbSymbolTableRecord
100
AcDbBlockTableRecord
  2
*D25
340
0
  0
BLOCK_RECORD
  5
171EC
330
7466
100
AcDbSymbolTableRecord
100
AcDbBlockTableRecord
  2
*D26
340
0
  0
BLOCK_RECORD
  5
176EB
330
7466
100
AcDbSymbolTableRecord
100
AcDbBlockTableRecord
  2
*D27
340
0
  0
BLOCK_RECORD
  5
176F7
330
7466
100
AcDbSymbolTableRecord
100
AcDbBlockTableRecord
  2
*D28
340
0
  0
BLOCK_RECORD
  5
17705
330
7466
100
AcDbSymbolTableRecord
100
AcDbBlockTableRecord
  2
*D29
340
0
  0
ENDTAB
  0
ENDSEC
  0
SECTION
  2
BLOCKS
  0
BLOCK
  5
7489
330
747D
100
AcDbEntity
  8
0
100
AcDbBlockBegin
  2
*MODEL_SPACE
 70
     0
 10
0.0
 20
0.0
 30
0.0
  3
*MODEL_SPACE
  1

  0
ENDBLK
  5
748A
330
747D
100
AcDbEntity
  8
0
100
AcDbBlockEnd
  0
BLOCK
  5
7487
330
747A
100
AcDbEntity
 67
     1
  8
0
100
AcDbBlockBegin
  2
*PAPER_SPACE
 70
     0
 10
0.0
 20
0.0
 30
0.0
  3
*PAPER_SPACE
  1

  0
ENDBLK
  5
7488
330
747A
100
AcDbEntity
 67
     1
  8
0
100
AcDbBlockEnd
  0
BLOCK
  5
F771
330
F770
100
AcDbEntity
  8
0
 48
50.0
100
AcDbBlockBegin
  2
_DOTSMALL
 70
     0
 10
0.0
 20
0.0
 30
0.0
  3
_DOTSMALL
  1

  0
LWPOLYLINE
  5
F772
330
F770
100
AcDbEntity
  8
0
  6
ByBlock
 62
     0
 48
50.0
100
AcDbPolyline
 90
        2
 70
     1
 43
0.5
 10
-0.0625
 20
0.0
 42
1.0
 10
0.0625
 20
0.0
 42
1.0
  0
ENDBLK
  5
F776
330
F770
100
AcDbEntity
  8
0
 48
50.0
100
AcDbBlockEnd
  0
BLOCK
  5
166FC
330
1655F
100
AcDbEntity
  8
0
 48
50.0
100
AcDbBlockBegin
  2
*D1
 70
     1
 10
0.0
 20
0.0
 30
0.0
  3
*D1
  1

  0
LINE
  5
178C6
330
1655F
100
AcDbEntity
  8
寸法
 62
     0
 48
50.0
370
    -2
100
AcDbLine
 10
7216.461099046291
 20
10226.05573240944
 30
0.0
 11
8268.994386520338
 21
10226.05573240944
 31
0.0
  0
LINE
  5
178C7
330
1655F
100
AcDbEntity
  8
寸法
 62
     0
 48
50.0
370
    -2
100
AcDbLine
 10
7216.461099046266
 20
7176.055732409437
 30
0.0
 11
8268.994386520338
 21
7176.055732409437
 31
0.0
  0
LINE
  5
178C8
330
1655F
100
AcDbEntity
  8
寸法
 62
     0
 48
50.0
370
    -2
100
AcDbLine
 10
8208.994386520336
 20
10226.05573240944
 30
0.0
 11
8208.994386520336
 21
7176.055732409437
 31
0.0
  0
INSERT
  5
178C9
330
1655F
100
AcDbEntity
  8
寸法
 62
     0
 48
50.0
370
    -2
100
AcDbBlockReference
  2
_DOTSMALL
 10
8208.994386520336
 20
10226.05573240944
 30
0.0
 41
100.0
 42
100.0
 43
100.0
 50
90.0
  0
INSERT
  5
178CA
330
1655F
100
AcDbEntity
  8
寸法
 62
     0
 48
50.0
370
    -2
100
AcDbBlockReference
  2
_DOTSMALL
 10
8208.994386520336
 20
7176.055732409437
 30
0.0
 41
100.0
 42
100.0
 43
100.0
 50
270.0
  0
MTEXT
  5
178CB
330
1655F
100
AcDbEntity
  8
寸法
 62
     7
 48
50.0
100
AcDbMText
 10
8108.994386520336
 20
8701.055732409441
 30
0.0
 40
120.0
 41
0.0
 71
     5
 72
     1
  1
\A1;3050
  7
STYLE1
 11
0.0000000000000001
 21
1.0
 31
0.0
 73
     1
 44
1.0
1001
ACAD
1000
MTEXTBEGIN
1070
    73
1070
     1
1070
    44
1040
1.0
1070
    74
1070
     0
1000
MTEXTEND
  0
POINT
  5
178CC
330
1655F
100
AcDbEntity
  8
DEFPOINTS
 62
     0
 48
50.0
100
AcDbPoint
 10
7196.461099046292
 20
10226.05573240944
 30
0.0
  0
POINT
  5
178CD
330
1655F
100
AcDbEntity
  8
DEFPOINTS
 62
     0
 48
50.0
100
AcDbPoint
 10
7196.461099046266
 20
7176.055732409437
 30
0.0
  0
POINT
  5
178CE
330
1655F
100
AcDbEntity
  8
DEFPOINTS
 62
     0
 48
50.0
100
AcDbPoint
 10
8208.994386520336
 20
7176.055732409437
 30
0.0
  0
ENDBLK
  5
16706
330
1655F
100
AcDbEntity
  8
0
 48
50.0
100
AcDbBlockEnd
  0
BLOCK
  5
16707
330
1656B
100
AcDbEntity
  8
0
 48
50.0
100
AcDbBlockBegin
  2
*D2
 70
     1
 10
0.0
 20
0.0
 30
0.0
  3
*D2
  1

  0
LINE
  5
178BD
330
1656B
100
AcDbEntity
  8
寸法
 62
     0
 48
50.0
370
    -2
100
AcDbLine
 10
7216.461099046291
 20
10171.05573240945
 30
0.0
 11
7903.8874447807
 21
10171.05573240945
 31
0.0
  0
LINE
  5
178BE
330
1656B
100
AcDbEntity
  8
寸法
 62
     0
 48
50.0
370
    -2
100
AcDbLine
 10
7216.461099046266
 20
7231.055732409434
 30
0.0
 11
7903.8874447807
 21
7231.055732409434
 31
0.0
  0
LINE
  5
178BF
330
1656B
100
AcDbEntity
  8
寸法
 62
     0
 48
50.0
370
    -2
100
AcDbLine
 10
7843.887444780701
 20
10171.05573240945
 30
0.0
 11
7843.887444780701
 21
7231.055732409434
 31
0.0
  0
INSERT
  5
178C0
330
1656B
100
AcDbEntity
  8
寸法
 62
     0
 48
50.0
370
    -2
100
AcDbBlockReference
  2
_DOTSMALL
 10
7843.887444780701
 20
10171.05573240945
 30
0.0
 41
100.0
 42
100.0
 43
100.0
 50
90.0
  0
INSERT
  5
178C1
330
1656B
100
AcDbEntity
  8
寸法
 62
     0
 48
50.0
370
    -2
100
AcDbBlockReference
  2
_DOTSMALL
 10
7843.887444780701
 20
7231.055732409434
 30
0.0
 41
100.0
 42
100.0
 43
100.0
 50
270.0
  0
MTEXT
  5
178C2
330
1656B
100
AcDbEntity
  8
寸法
 62
     7
 48
50.0
100
AcDbMText
 10
7743.875633757077
 20
8701.055732409441
 30
0.0
 40
120.0
 41
0.0
 71
     5
 72
     1
  1
\A1;7X420=2940
  7
STYLE1
 11
0.0000000000000001
 21
1.0
 31
0.0
 73
     1
 44
1.0
1001
ACAD
1000
MTEXTBEGIN
1070
    73
1070
     1
1070
    44
1040
1.0
1070
    74
1070
     0
1000
MTEXTEND
  0
POINT
  5
178C3
330
1656B
100
AcDbEntity
  8
DEFPOINTS
 62
     0
 48
50.0
100
AcDbPoint
 10
7196.461099046292
 20
10171.05573240945
 30
0.0
  0
POINT
  5
178C4
330
1656B
100
AcDbEntity
  8
DEFPOINTS
 62
     0
 48
50.0
100
AcDbPoint
 10
7196.461099046266
 20
7231.055732409434
 30
0.0
  0
POINT
  5
178C5
330
1656B
100
AcDbEntity
  8
DEFPOINTS
 62
     0
 48
50.0
100
AcDbPoint
 10
7843.887444780701
 20
7231.055732409434
 30
0.0
  0
ENDBLK
  5
16711
330
1656B
100
AcDbEntity
  8
0
 48
50.0
100
AcDbBlockEnd
  0
BLOCK
  5
1665C
330
1658F
100
AcDbEntity
  8
0
 48
50.0
100
AcDbBlockBegin
  2
*D3
 70
     1
 10
0.0
 20
0.0
 30
0.0
  3
*D3
  1

  0
LINE
  5
178B5
330
1658F
100
AcDbEntity
  8
寸法
 62
     0
 48
50.0
370
    -2
100
AcDbLine
 10
4669.461099046284
 20
7182.055732409345
 30
0.0
 11
4669.461099046284
 21
6581.624961643182
 31
0.0
  0
LINE
  5
178B6
330
1658F
100
AcDbEntity
  8
寸法
 62
     0
 48
50.0
370
    -2
100
AcDbLine
 10
7093.461099046265
 20
6641.624961643181
 30
0.0
 11
4669.461099046284
 21
6641.624961643181
 31
0.0
  0
INSERT
  5
178B7
330
1658F
100
AcDbEntity
  8
寸法
 62
     0
 48
50.0
370
    -2
100
AcDbBlockReference
  2
_DOTSMALL
 10
7093.461099046265
 20
6641.624961643181
 30
0.0
 41
100.0
 42
100.0
 43
100.0
  0
INSERT
  5
178B8
330
1658F
100
AcDbEntity
  8
寸法
 62
     0
 48
50.0
370
    -2
100
AcDbBlockReference
  2
_DOTSMALL
 10
4669.461099046284
 20
6641.624961643181
 30
0.0
 41
100.0
 42
100.0
 43
100.0
 50
180.0
  0
MTEXT
  5
178B9
330
1658F
100
AcDbEntity
  8
寸法
 62
     7
 48
50.0
100
AcDbMText
 10
5881.461099046275
 20
6741.636772666803
 30
0.0
 40
120.0
 41
0.0
 71
     5
 72
     1
  1
\A1;有効開口部間口 2424
  7
STYLE1
 73
     1
 44
1.0
1001
ACAD
1000
MTEXTBEGIN
1070
    73
1070
     1
1070
    44
1040
1.0
1070
    74
1070
     0
1000
MTEXTEND
  0
POINT
  5
178BA
330
1658F
100
AcDbEntity
  8
DEFPOINTS
 62
     0
 48
50.0
100
AcDbPoint
 10
7093.461099046265
 20
7202.055732409346
 30
0.0
  0
POINT
  5
178BB
330
1658F
100
AcDbEntity
  8
DEFPOINTS
 62
     0
 48
50.0
100
AcDbPoint
 10
4669.461099046284
 20
7202.055732409346
 30
0.0
  0
POINT
  5
178BC
330
1658F
100
AcDbEntity
  8
DEFPOINTS
 62
     0
 48
50.0
100
AcDbPoint
 10
4669.461099046284
 20
6641.624961643181
 30
0.0
  0
ENDBLK
  5
16665
330
1658F
100
AcDbEntity
  8
0
 48
50.0
100
AcDbBlockEnd
  0
BLOCK
  5
16666
330
1659A
100
AcDbEntity
  8
0
 48
50.0
100
AcDbBlockBegin
  2
*D4
 70
     1
 10
0.0
 20
0.0
 30
0.0
  3
*D4
  1

  0
LINE
  5
178AC
330
1659A
100
AcDbEntity
  8
寸法
 62
     0
 48
50.0
370
    -2
100
AcDbLine
 10
4566.461099046284
 20
7156.055732409274
 30
0.0
 11
4566.461099046284
 21
6295.451966052308
 31
0.0
  0
LINE
  5
178AD
330
1659A
100
AcDbEntity
  8
寸法
 62
     0
 48
50.0
370
    -2
100
AcDbLine
 10
7196.461099046266
 20
7156.0557324094
 30
0.0
 11
7196.461099046266
 21
6295.451966052308
 31
0.0
  0
LINE
  5
178AE
330
1659A
100
AcDbEntity
  8
寸法
 62
     0
 48
50.0
370
    -2
100
AcDbLine
 10
4566.461099046284
 20
6355.451966052307
 30
0.0
 11
7196.461099046266
 21
6355.451966052307
 31
0.0
  0
INSERT
  5
178AF
330
1659A
100
AcDbEntity
  8
寸法
 62
     0
 48
50.0
370
    -2
100
AcDbBlockReference
  2
_DOTSMALL
 10
4566.461099046284
 20
6355.451966052307
 30
0.0
 41
100.0
 42
100.0
 43
100.0
 50
180.0
  0
INSERT
  5
178B0
330
1659A
100
AcDbEntity
  8
寸法
 62
     0
 48
50.0
370
    -2
100
AcDbBlockReference
  2
_DOTSMALL
 10
7196.461099046266
 20
6355.451966052307
 30
0.0
 41
100.0
 42
100.0
 43
100.0
  0
MTEXT
  5
178B1
330
1659A
100
AcDbEntity
  8
寸法
 62
     7
 48
50.0
100
AcDbMText
 10
5881.461099046275
 20
6455.463777075928
 30
0.0
 40
120.0
 41
0.0
 71
     5
 72
     1
  1
\A1;2630
  7
STYLE1
 73
     1
 44
1.0
1001
ACAD
1000
MTEXTBEGIN
1070
    73
1070
     1
1070
    44
1040
1.0
1070
    74
1070
     0
1000
MTEXTEND
  0
POINT
  5
178B2
330
1659A
100
AcDbEntity
  8
DEFPOINTS
 62
     0
 48
50.0
100
AcDbPoint
 10
4566.461099046284
 20
7176.055732409273
 30
0.0
  0
POINT
  5
178B3
330
1659A
100
AcDbEntity
  8
DEFPOINTS
 62
     0
 48
50.0
100
AcDbPoint
 10
7196.461099046266
 20
7176.055732409401
 30
0.0
  0
POINT
  5
178B4
330
1659A
100
AcDbEntity
  8
DEFPOINTS
 62
     0
 48
50.0
100
AcDbPoint
 10
7196.461099046266
 20
6355.451966052307
 30
0.0
  0
ENDBLK
  5
16670
330
1659A
100
AcDbEntity
  8
0
 48
50.0
100
AcDbBlockEnd
  0
BLOCK
  5
16671
330
165A6
100
AcDbEntity
  8
0
 48
50.0
100
AcDbBlockBegin
  2
*D5
 70
     1
 10
0.0
 20
0.0
 30
0.0
  3
*D5
  1

  0
LINE
  5
17507
330
165A6
100
AcDbEntity
  8
寸法
 62
     0
 48
50.0
370
    -2
100
AcDbLine
 10
4621.461099046281
 20
7156.055732409345
 30
0.0
 11
4621.461099046281
 21
6581.624961643182
 31
0.0
  0
LINE
  5
17508
330
165A6
100
AcDbEntity
  8
寸法
 62
     0
 48
50.0
370
    -2
100
AcDbLine
 10
4566.461099046284
 20
7156.055732409342
 30
0.0
 11
4566.461099046284
 21
6581.624961643182
 31
0.0
  0
LINE
  5
17509
330
165A6
100
AcDbEntity
  8
寸法
 62
     0
 48
50.0
370
    -2
100
AcDbLine
 10
4621.461099046281
 20
6641.624961643181
 30
0.0
 11
4721.461099046281
 21
6641.624961643181
 31
0.0
  0
LINE
  5
1750A
330
165A6
100
AcDbEntity
  8
寸法
 62
     0
 48
50.0
370
    -2
100
AcDbLine
 10
4566.461099046284
 20
6641.624961643181
 30
0.0
 11
4149.490536297807
 21
6641.624961643181
 31
0.0
  0
LINE
  5
1750B
330
165A6
100
AcDbEntity
  8
寸法
 62
     0
 48
50.0
370
    -2
100
AcDbLine
 10
4621.461099046281
 20
6641.624961643181
 30
0.0
 11
4566.461099046284
 21
6641.624961643181
 31
0.0
  0
INSERT
  5
1750C
330
165A6
100
AcDbEntity
  8
寸法
 62
     0
 48
50.0
370
    -2
100
AcDbBlockReference
  2
_DOTSMALL
 10
4621.461099046281
 20
6641.624961643181
 30
0.0
 41
100.0
 42
100.0
 43
100.0
 50
180.0
  0
INSERT
  5
1750D
330
165A6
100
AcDbEntity
  8
寸法
 62
     0
 48
50.0
370
    -2
100
AcDbBlockReference
  2
_DOTSMALL
 10
4566.461099046284
 20
6641.624961643181
 30
0.0
 41
100.0
 42
100.0
 43
100.0
  0
MTEXT
  5
1750E
330
165A6
100
AcDbEntity
  8
寸法
 62
     7
 48
50.0
100
AcDbMText
 10
4257.975817672046
 20
6741.624961643181
 30
0.0
 40
120.0
 41
0.0
 71
     5
 72
     1
  1
\A1;55
  7
STYLE1
 73
     1
 44
1.0
1001
ACAD
1000
MTEXTBEGIN
1070
    73
1070
     1
1070
    44
1040
1.0
1070
    74
1070
     0
1000
MTEXTEND
  0
POINT
  5
1750F
330
165A6
100
AcDbEntity
  8
DEFPOINTS
 62
     0
 48
50.0
100
AcDbPoint
 10
4621.461099046281
 20
7176.055732409345
 30
0.0
  0
POINT
  5
17510
330
165A6
100
AcDbEntity
  8
DEFPOINTS
 62
     0
 48
50.0
100
AcDbPoint
 10
4566.461099046284
 20
7176.055732409342
 30
0.0
  0
POINT
  5
17511
330
165A6
100
AcDbEntity
  8
DEFPOINTS
 62
     0
 48
50.0
100
AcDbPoint
 10
4566.461099046284
 20
6641.624961643181
 30
0.0
  0
ENDBLK
  5
1667D
330
165A6
100
AcDbEntity
  8
0
 48
50.0
100
AcDbBlockEnd
  0
BLOCK
  5
1667E
330
165B4
100
AcDbEntity
  8
0
 48
50.0
100
AcDbBlockBegin
  2
*D6
 70
     1
 10
0.0
 20
0.0
 30
0.0
  3
*D6
  1

  0
LINE
  5
174FC
330
165B4
100
AcDbEntity
  8
寸法
 62
     0
 48
50.0
370
    -2
100
AcDbLine
 10
4669.461099046284
 20
7182.055732409345
 30
0.0
 11
4669.461099046284
 21
6581.624961643182
 31
0.0
  0
LINE
  5
174FD
330
165B4
100
AcDbEntity
  8
寸法
 62
     0
 48
50.0
370
    -2
100
AcDbLine
 10
4621.461099046281
 20
7156.055732409345
 30
0.0
 11
4621.461099046281
 21
6581.624961643182
 31
0.0
  0
LINE
  5
174FE
330
165B4
100
AcDbEntity
  8
寸法
 62
     0
 48
50.0
370
    -2
100
AcDbLine
 10
4669.461099046284
 20
6641.624961643181
 30
0.0
 11
4769.461099046284
 21
6641.624961643181
 31
0.0
  0
LINE
  5
174FF
330
165B4
100
AcDbEntity
  8
寸法
 62
     0
 48
50.0
370
    -2
100
AcDbLine
 10
4621.461099046281
 20
6641.624961643181
 30
0.0
 11
4521.46109904628
 21
6641.624961643181
 31
0.0
  0
MTEXT
  5
17500
330
165B4
100
AcDbEntity
  8
寸法
 62
     7
 48
50.0
100
AcDbMText
 10
4782.363070046342
 20
6741.624961643181
 30
0.0
 40
120.0
 41
0.0
 71
     5
 72
     1
  1
\A1;48
  7
STYLE1
 73
     1
 44
1.0
1001
ACAD
1000
MTEXTBEGIN
1070
    73
1070
     1
1070
    44
1040
1.0
1070
    74
1070
     0
1000
MTEXTEND
  0
LINE
  5
17501
330
165B4
100
AcDbEntity
  8
寸法
 62
     0
 48
50.0
370
    -2
100
AcDbLine
 10
4669.461099046284
 20
6641.624961643181
 30
0.0
 11
4621.461099046281
 21
6641.624961643181
 31
0.0
  0
INSERT
  5
17502
330
165B4
100
AcDbEntity
  8
寸法
 62
     0
 48
50.0
370
    -2
100
AcDbBlockReference
  2
_DOTSMALL
 10
4669.461099046284
 20
6641.624961643181
 30
0.0
 41
100.0
 42
100.0
 43
100.0
 50
180.0
  0
INSERT
  5
17503
330
165B4
100
AcDbEntity
  8
寸法
 62
     0
 48
50.0
370
    -2
100
AcDbBlockReference
  2
_DOTSMALL
 10
4621.461099046281
 20
6641.624961643181
 30
0.0
 41
100.0
 42
100.0
 43
100.0
  0
POINT
  5
17504
330
165B4
100
AcDbEntity
  8
DEFPOINTS
 62
     0
 48
50.0
100
AcDbPoint
 10
4669.461099046284
 20
7202.055732409346
 30
0.0
  0
POINT
  5
17505
330
165B4
100
AcDbEntity
  8
DEFPOINTS
 62
     0
 48
50.0
100
AcDbPoint
 10
4621.461099046281
 20
7176.055732409345
 30
0.0
  0
POINT
  5
17506
330
165B4
100
AcDbEntity
  8
DEFPOINTS
 62
     0
 48
50.0
100
AcDbPoint
 10
4621.461099046281
 20
6641.624961643181
 30
0.0
  0
ENDBLK
  5
1668B
330
165B4
100
AcDbEntity
  8
0
 48
50.0
100
AcDbBlockEnd
  0
BLOCK
  5
1668C
330
165C3
100
AcDbEntity
  8
0
 48
50.0
100
AcDbBlockBegin
  2
*D7
 70
     1
 10
0.0
 20
0.0
 30
0.0
  3
*D7
  1

  0
LINE
  5
178A1
330
165C3
100
AcDbEntity
  8
寸法
 62
     0
 48
50.0
370
    -2
100
AcDbLine
 10
7141.461099046267
 20
7156.055732409433
 30
0.0
 11
7141.461099046267
 21
6581.624961643182
 31
0.0
  0
LINE
  5
178A2
330
165C3
100
AcDbEntity
  8
寸法
 62
     0
 48
50.0
370
    -2
100
AcDbLine
 10
7093.461099046265
 20
7182.055732409345
 30
0.0
 11
7093.461099046265
 21
6581.624961643182
 31
0.0
  0
LINE
  5
178A3
330
165C3
100
AcDbEntity
  8
寸法
 62
     0
 48
50.0
370
    -2
100
AcDbLine
 10
7141.461099046267
 20
6641.624961643181
 30
0.0
 11
7241.461099046268
 21
6641.624961643181
 31
0.0
  0
LINE
  5
178A4
330
165C3
100
AcDbEntity
  8
寸法
 62
     0
 48
50.0
370
    -2
100
AcDbLine
 10
7093.461099046265
 20
6641.624961643181
 30
0.0
 11
6993.461099046266
 21
6641.624961643181
 31
0.0
  0
MTEXT
  5
178A5
330
165C3
100
AcDbEntity
  8
寸法
 62
     7
 48
50.0
100
AcDbMText
 10
6982.498201397518
 20
6741.624961643181
 30
0.0
 40
120.0
 41
0.0
 71
     5
 72
     1
  1
\A1;48
  7
STYLE1
 73
     1
 44
1.0
1001
ACAD
1000
MTEXTBEGIN
1070
    73
1070
     1
1070
    44
1040
1.0
1070
    74
1070
     0
1000
MTEXTEND
  0
LINE
  5
178A6
330
165C3
100
AcDbEntity
  8
寸法
 62
     0
 48
50.0
370
    -2
100
AcDbLine
 10
7141.461099046267
 20
6641.624961643181
 30
0.0
 11
7093.461099046265
 21
6641.624961643181
 31
0.0
  0
INSERT
  5
178A7
330
165C3
100
AcDbEntity
  8
寸法
 62
     0
 48
50.0
370
    -2
100
AcDbBlockReference
  2
_DOTSMALL
 10
7141.461099046267
 20
6641.624961643181
 30
0.0
 41
100.0
 42
100.0
 43
100.0
 50
180.0
  0
INSERT
  5
178A8
330
165C3
100
AcDbEntity
  8
寸法
 62
     0
 48
50.0
370
    -2
100
AcDbBlockReference
  2
_DOTSMALL
 10
7093.461099046265
 20
6641.624961643181
 30
0.0
 41
100.0
 42
100.0
 43
100.0
  0
POINT
  5
178A9
330
165C3
100
AcDbEntity
  8
DEFPOINTS
 62
     0
 48
50.0
100
AcDbPoint
 10
7141.461099046267
 20
7176.055732409434
 30
0.0
  0
POINT
  5
178AA
330
165C3
100
AcDbEntity
  8
DEFPOINTS
 62
     0
 48
50.0
100
AcDbPoint
 10
7093.461099046265
 20
7202.055732409346
 30
0.0
  0
POINT
  5
178AB
330
165C3
100
AcDbEntity
  8
DEFPOINTS
 62
     0
 48
50.0
100
AcDbPoint
 10
7093.461099046265
 20
6641.624961643181
 30
0.0
  0
ENDBLK
  5
16699
330
165C3
100
AcDbEntity
  8
0
 48
50.0
100
AcDbBlockEnd
  0
BLOCK
  5
1669A
330
165D2
100
AcDbEntity
  8
0
 48
50.0
100
AcDbBlockBegin
  2
*D8
 70
     1
 10
0.0
 20
0.0
 30
0.0
  3
*D8
  1

  0
LINE
  5
17896
330
165D2
100
AcDbEntity
  8
寸法
 62
     0
 48
50.0
370
    -2
100
AcDbLine
 10
7196.461099046266
 20
7156.055732409438
 30
0.0
 11
7196.461099046266
 21
6581.624961643182
 31
0.0
  0
LINE
  5
17897
330
165D2
100
AcDbEntity
  8
寸法
 62
     0
 48
50.0
370
    -2
100
AcDbLine
 10
7141.461099046267
 20
7156.055732409433
 30
0.0
 11
7141.461099046267
 21
6581.624961643182
 31
0.0
  0
LINE
  5
17898
330
165D2
100
AcDbEntity
  8
寸法
 62
     0
 48
50.0
370
    -2
100
AcDbLine
 10
7141.461099046267
 20
6641.624961643183
 30
0.0
 11
7041.461099046268
 21
6641.624961643183
 31
0.0
  0
LINE
  5
17899
330
165D2
100
AcDbEntity
  8
寸法
 62
     0
 48
50.0
370
    -2
100
AcDbLine
 10
7196.461099046266
 20
6641.624961643183
 30
0.0
 11
7613.431661794743
 21
6641.624961643183
 31
0.0
  0
LINE
  5
1789A
330
165D2
100
AcDbEntity
  8
寸法
 62
     0
 48
50.0
370
    -2
100
AcDbLine
 10
7141.461099046267
 20
6641.624961643183
 30
0.0
 11
7196.461099046266
 21
6641.624961643183
 31
0.0
  0
INSERT
  5
1789B
330
165D2
100
AcDbEntity
  8
寸法
 62
     0
 48
50.0
370
    -2
100
AcDbBlockReference
  2
_DOTSMALL
 10
7141.461099046267
 20
6641.624961643183
 30
0.0
 41
100.0
 42
100.0
 43
100.0
  0
INSERT
  5
1789C
330
165D2
100
AcDbEntity
  8
寸法
 62
     0
 48
50.0
370
    -2
100
AcDbBlockReference
  2
_DOTSMALL
 10
7196.461099046266
 20
6641.624961643183
 30
0.0
 41
100.0
 42
100.0
 43
100.0
 50
180.0
  0
MTEXT
  5
1789D
330
165D2
100
AcDbEntity
  8
寸法
 62
     7
 48
50.0
100
AcDbMText
 10
7504.946380420505
 20
6741.624961643182
 30
0.0
 40
120.0
 41
0.0
 71
     5
 72
     1
  1
\A1;55
  7
STYLE1
 73
     1
 44
1.0
1001
ACAD
1000
MTEXTBEGIN
1070
    73
1070
     1
1070
    44
1040
1.0
1070
    74
1070
     0
1000
MTEXTEND
  0
POINT
  5
1789E
330
165D2
100
AcDbEntity
  8
DEFPOINTS
 62
     0
 48
50.0
100
AcDbPoint
 10
7196.461099046266
 20
7176.055732409437
 30
0.0
  0
POINT
  5
1789F
330
165D2
100
AcDbEntity
  8
DEFPOINTS
 62
     0
 48
50.0
100
AcDbPoint
 10
7141.461099046267
 20
7176.055732409434
 30
0.0
  0
POINT
  5
178A0
330
165D2
100
AcDbEntity
  8
DEFPOINTS
 62
     0
 48
50.0
100
AcDbPoint
 10
7141.461099046267
 20
6641.624961643183
 30
0.0
  0
ENDBLK
  5
166A6
330
165D2
100
AcDbEntity
  8
0
 48
50.0
100
AcDbBlockEnd
  0
BLOCK
  5
166A7
330
165E0
100
AcDbEntity
  8
0
 48
50.0
100
AcDbBlockBegin
  2
*D9
 70
     1
 10
0.0
 20
0.0
 30
0.0
  3
*D9
  1

  0
LINE
  5
1788B
330
165E0
100
AcDbEntity
  8
寸法
 62
     0
 48
50.0
370
    -2
100
AcDbLine
 10
7216.461099046266
 20
7231.055732409434
 30
0.0
 11
7903.887444780678
 21
7231.055732409434
 31
0.0
  0
LINE
  5
1788C
330
165E0
100
AcDbEntity
  8
寸法
 62
     0
 48
50.0
370
    -2
100
AcDbLine
 10
7216.461099046266
 20
7176.055732409437
 30
0.0
 11
7903.887444780678
 21
7176.055732409437
 31
0.0
  0
LINE
  5
1788D
330
165E0
100
AcDbEntity
  8
寸法
 62
     0
 48
50.0
370
    -2
100
AcDbLine
 10
7843.887444780678
 20
7231.055732409434
 30
0.0
 11
7843.887444780678
 21
7331.055732409433
 31
0.0
  0
LINE
  5
1788E
330
165E0
100
AcDbEntity
  8
寸法
 62
     0
 48
50.0
370
    -2
100
AcDbLine
 10
7843.887444780678
 20
7176.055732409437
 30
0.0
 11
7843.887444780678
 21
6689.708984130335
 31
0.0
  0
LINE
  5
1788F
330
165E0
100
AcDbEntity
  8
寸法
 62
     0
 48
50.0
370
    -2
100
AcDbLine
 10
7843.887444780678
 20
7231.055732409434
 30
0.0
 11
7843.887444780678
 21
7176.055732409437
 31
0.0
  0
INSERT
  5
17890
330
165E0
100
AcDbEntity
  8
寸法
 62
     0
 48
50.0
370
    -2
100
AcDbBlockReference
  2
_DOTSMALL
 10
7843.887444780678
 20
7231.055732409434
 30
0.0
 41
100.0
 42
100.0
 43
100.0
 50
270.0
  0
INSERT
  5
17891
330
165E0
100
AcDbEntity
  8
寸法
 62
     0
 48
50.0
370
    -2
100
AcDbBlockReference
  2
_DOTSMALL
 10
7843.887444780678
 20
7176.055732409437
 30
0.0
 41
100.0
 42
100.0
 43
100.0
 50
90.0
  0
MTEXT
  5
17892
330
165E0
100
AcDbEntity
  8
寸法
 62
     7
 48
50.0
100
AcDbMText
 10
7743.887444780675
 20
6798.194265504576
 30
0.0
 40
120.0
 41
0.0
 71
     5
 72
     1
  1
\A1;55
  7
STYLE1
 11
0.0000000000000001
 21
1.0
 31
0.0
 73
     1
 44
1.0
1001
ACAD
1000
MTEXTBEGIN
1070
    73
1070
     1
1070
    44
1040
1.0
1070
    74
1070
     0
1000
MTEXTEND
  0
POINT
  5
17893
330
165E0
100
AcDbEntity
  8
DEFPOINTS
 62
     0
 48
50.0
100
AcDbPoint
 10
7196.461099046266
 20
7231.055732409434
 30
0.0
  0
POINT
  5
17894
330
165E0
100
AcDbEntity
  8
DEFPOINTS
 62
     0
 48
50.0
100
AcDbPoint
 10
7196.461099046266
 20
7176.055732409437
 30
0.0
  0
POINT
  5
17895
330
165E0
100
AcDbEntity
  8
DEFPOINTS
 62
     0
 48
50.0
100
AcDbPoint
 10
7843.887444780678
 20
7176.055732409437
 30
0.0
  0
ENDBLK
  5
166B3
330
165E0
100
AcDbEntity
  8
0
 48
50.0
100
AcDbBlockEnd
  0
BLOCK
  5
166B4
330
165EE
100
AcDbEntity
  8
0
 48
50.0
100
AcDbBlockBegin
  2
*D10
 70
     1
 10
0.0
 20
0.0
 30
0.0
  3
*D10
  1

  0
LINE
  5
179B3
330
165EE
100
AcDbEntity
  8
寸法
 62
     0
 48
50.0
370
    -2
100
AcDbLine
 10
4621.461099046291
 20
10246.05573240935
 30
0.0
 11
4621.461099046291
 21
10501.86395203445
 31
0.0
  0
LINE
  5
179B4
330
165EE
100
AcDbEntity
  8
寸法
 62
     0
 48
50.0
370
    -2
100
AcDbLine
 10
7141.461099046292
 20
10246.05573240944
 30
0.0
 11
7141.461099046292
 21
10501.86395203445
 31
0.0
  0
LINE
  5
179B5
330
165EE
100
AcDbEntity
  8
寸法
 62
     0
 48
50.0
370
    -2
100
AcDbLine
 10
4621.461099046291
 20
10441.86395203445
 30
0.0
 11
7141.461099046292
 21
10441.86395203445
 31
0.0
  0
INSERT
  5
179B6
330
165EE
100
AcDbEntity
  8
寸法
 62
     0
 48
50.0
370
    -2
100
AcDbBlockReference
  2
_DOTSMALL
 10
4621.461099046291
 20
10441.86395203445
 30
0.0
 41
100.0
 42
100.0
 43
100.0
 50
180.0
  0
INSERT
  5
179B7
330
165EE
100
AcDbEntity
  8
寸法
 62
     0
 48
50.0
370
    -2
100
AcDbBlockReference
  2
_DOTSMALL
 10
7141.461099046292
 20
10441.86395203445
 30
0.0
 41
100.0
 42
100.0
 43
100.0
  0
MTEXT
  5
179B8
330
165EE
100
AcDbEntity
  8
寸法
 62
     7
 48
50.0
100
AcDbMText
 10
5881.461099046291
 20
10541.87576305807
 30
0.0
 40
120.0
 41
0.0
 71
     5
 72
     1
  1
\A1;6X420=2520
  7
STYLE1
 73
     1
 44
1.0
1001
ACAD
1000
MTEXTBEGIN
1070
    73
1070
     1
1070
    44
1040
1.0
1070
    74
1070
     0
1000
MTEXTEND
  0
POINT
  5
179B9
330
165EE
100
AcDbEntity
  8
DEFPOINTS
 62
     0
 48
50.0
100
AcDbPoint
 10
4621.461099046291
 20
10226.05573240935
 30
0.0
  0
POINT
  5
179BA
330
165EE
100
AcDbEntity
  8
DEFPOINTS
 62
     0
 48
50.0
100
AcDbPoint
 10
7141.461099046292
 20
10226.05573240944
 30
0.0
  0
POINT
  5
179BB
330
165EE
100
AcDbEntity
  8
DEFPOINTS
 62
     0
 48
50.0
100
AcDbPoint
 10
7141.461099046292
 20
10441.86395203445
 30
0.0
  0
ENDBLK
  5
166BE
330
165EE
100
AcDbEntity
  8
0
 48
50.0
100
AcDbBlockEnd
  0
BLOCK
  5
166BF
330
165FA
100
AcDbEntity
  8
0
 48
50.0
100
AcDbBlockBegin
  2
*D11
 70
     1
 10
0.0
 20
0.0
 30
0.0
  3
*D11
  1

  0
LINE
  5
174C7
330
165FA
100
AcDbEntity
  8
寸法
 62
     0
 48
50.0
370
    -2
100
AcDbLine
 10
4566.461099046256
 20
10246.05573240935
 30
0.0
 11
4566.461099046256
 21
10501.86395203433
 31
0.0
  0
LINE
  5
174C8
330
165FA
100
AcDbEntity
  8
寸法
 62
     0
 48
50.0
370
    -2
100
AcDbLine
 10
4621.461099046291
 20
10246.05573240935
 30
0.0
 11
4621.461099046291
 21
10501.86395203433
 31
0.0
  0
LINE
  5
174C9
330
165FA
100
AcDbEntity
  8
寸法
 62
     0
 48
50.0
370
    -2
100
AcDbLine
 10
4621.461099046291
 20
10441.86395203433
 30
0.0
 11
4721.46109904629
 21
10441.86395203433
 31
0.0
  0
LINE
  5
174CA
330
165FA
100
AcDbEntity
  8
寸法
 62
     0
 48
50.0
370
    -2
100
AcDbLine
 10
4566.461099046256
 20
10441.86395203433
 30
0.0
 11
4149.490536297778
 21
10441.86395203433
 31
0.0
  0
LINE
  5
174CB
330
165FA
100
AcDbEntity
  8
寸法
 62
     0
 48
50.0
370
    -2
100
AcDbLine
 10
4621.461099046291
 20
10441.86395203433
 30
0.0
 11
4566.461099046256
 21
10441.86395203433
 31
0.0
  0
INSERT
  5
174CC
330
165FA
100
AcDbEntity
  8
寸法
 62
     0
 48
50.0
370
    -2
100
AcDbBlockReference
  2
_DOTSMALL
 10
4621.461099046291
 20
10441.86395203433
 30
0.0
 41
100.0
 42
100.0
 43
100.0
 50
180.0
  0
INSERT
  5
174CD
330
165FA
100
AcDbEntity
  8
寸法
 62
     0
 48
50.0
370
    -2
100
AcDbBlockReference
  2
_DOTSMALL
 10
4566.461099046256
 20
10441.86395203433
 30
0.0
 41
100.0
 42
100.0
 43
100.0
  0
MTEXT
  5
174CE
330
165FA
100
AcDbEntity
  8
寸法
 62
     7
 48
50.0
100
AcDbMText
 10
4257.975817672017
 20
10541.86395203433
 30
0.0
 40
120.0
 41
0.0
 71
     5
 72
     1
  1
\A1;55
  7
STYLE1
 73
     1
 44
1.0
1001
ACAD
1000
MTEXTBEGIN
1070
    73
1070
     1
1070
    44
1040
1.0
1070
    74
1070
     0
1000
MTEXTEND
  0
POINT
  5
174CF
330
165FA
100
AcDbEntity
  8
DEFPOINTS
 62
     0
 48
50.0
100
AcDbPoint
 10
4566.461099046256
 20
10226.05573240935
 30
0.0
  0
POINT
  5
174D0
330
165FA
100
AcDbEntity
  8
DEFPOINTS
 62
     0
 48
50.0
100
AcDbPoint
 10
4621.461099046291
 20
10226.05573240935
 30
0.0
  0
POINT
  5
174D1
330
165FA
100
AcDbEntity
  8
DEFPOINTS
 62
     0
 48
50.0
100
AcDbPoint
 10
4621.461099046291
 20
10441.86395203433
 30
0.0
  0
ENDBLK
  5
166CB
330
165FA
100
AcDbEntity
  8
0
 48
50.0
100
AcDbBlockEnd
  0
BLOCK
  5
166CC
330
16608
100
AcDbEntity
  8
0
 48
50.0
100
AcDbBlockBegin
  2
*D12
 70
     1
 10
0.0
 20
0.0
 30
0.0
  3
*D12
  1

  0
LINE
  5
17877
330
16608
100
AcDbEntity
  8
寸法
 62
     0
 48
50.0
370
    -2
100
AcDbLine
 10
7216.461099046291
 20
10226.05573240944
 30
0.0
 11
7903.887444780702
 21
10226.05573240944
 31
0.0
  0
LINE
  5
17878
330
16608
100
AcDbEntity
  8
寸法
 62
     0
 48
50.0
370
    -2
100
AcDbLine
 10
7216.461099046291
 20
10171.05573240945
 30
0.0
 11
7903.887444780702
 21
10171.05573240945
 31
0.0
  0
LINE
  5
17879
330
16608
100
AcDbEntity
  8
寸法
 62
     0
 48
50.0
370
    -2
100
AcDbLine
 10
7843.887444780702
 20
10171.05573240945
 30
0.0
 11
7843.887444780702
 21
10071.05573240945
 31
0.0
  0
LINE
  5
1787A
330
16608
100
AcDbEntity
  8
寸法
 62
     0
 48
50.0
370
    -2
100
AcDbLine
 10
7843.887444780702
 20
10226.05573240944
 30
0.0
 11
7843.887444780704
 21
10643.02629515792
 31
0.0
  0
LINE
  5
1787B
330
16608
100
AcDbEntity
  8
寸法
 62
     0
 48
50.0
370
    -2
100
AcDbLine
 10
7843.887444780702
 20
10171.05573240945
 30
0.0
 11
7843.887444780702
 21
10226.05573240944
 31
0.0
  0
INSERT
  5
1787C
330
16608
100
AcDbEntity
  8
寸法
 62
     0
 48
50.0
370
    -2
100
AcDbBlockReference
  2
_DOTSMALL
 10
7843.887444780702
 20
10171.05573240945
 30
0.0
 41
100.0
 42
100.0
 43
100.0
 50
90.0
  0
INSERT
  5
1787D
330
16608
100
AcDbEntity
  8
寸法
 62
     0
 48
50.0
370
    -2
100
AcDbBlockReference
  2
_DOTSMALL
 10
7843.887444780702
 20
10226.05573240944
 30
0.0
 41
100.0
 42
100.0
 43
100.0
 50
270.0
  0
MTEXT
  5
1787E
330
16608
100
AcDbEntity
  8
寸法
 62
     7
 48
50.0
100
AcDbMText
 10
7743.887444780701
 20
10534.54101378368
 30
0.0
 40
120.0
 41
0.0
 71
     5
 72
     1
  1
\A1;55
  7
STYLE1
 11
0.0000000000000001
 21
1.0
 31
0.0
 73
     1
 44
1.0
1001
ACAD
1000
MTEXTBEGIN
1070
    73
1070
     1
1070
    44
1040
1.0
1070
    74
1070
     0
1000
MTEXTEND
  0
POINT
  5
1787F
330
16608
100
AcDbEntity
  8
DEFPOINTS
 62
     0
 48
50.0
100
AcDbPoint
 10
7196.461099046292
 20
10226.05573240944
 30
0.0
  0
POINT
  5
17880
330
16608
100
AcDbEntity
  8
DEFPOINTS
 62
     0
 48
50.0
100
AcDbPoint
 10
7196.461099046292
 20
10171.05573240945
 30
0.0
  0
POINT
  5
17881
330
16608
100
AcDbEntity
  8
DEFPOINTS
 62
     0
 48
50.0
100
AcDbPoint
 10
7843.887444780702
 20
10171.05573240945
 30
0.0
  0
ENDBLK
  5
166D8
330
16608
100
AcDbEntity
  8
0
 48
50.0
100
AcDbBlockEnd
  0
BLOCK
  5
166D9
330
16616
100
AcDbEntity
  8
0
 48
50.0
100
AcDbBlockBegin
  2
*D13
 70
     1
 10
0.0
 20
0.0
 30
0.0
  3
*D13
  1

  0
LINE
  5
1786C
330
16616
100
AcDbEntity
  8
寸法
 62
     0
 48
50.0
370
    -2
100
AcDbLine
 10
7141.461099046292
 20
10246.05573240944
 30
0.0
 11
7141.461099046292
 21
10501.86395203443
 31
0.0
  0
LINE
  5
1786D
330
16616
100
AcDbEntity
  8
寸法
 62
     0
 48
50.0
370
    -2
100
AcDbLine
 10
7196.461099046292
 20
10246.05573240944
 30
0.0
 11
7196.461099046292
 21
10501.86395203443
 31
0.0
  0
LINE
  5
1786E
330
16616
100
AcDbEntity
  8
寸法
 62
     0
 48
50.0
370
    -2
100
AcDbLine
 10
7141.461099046292
 20
10441.86395203443
 30
0.0
 11
7041.461099046292
 21
10441.86395203443
 31
0.0
  0
LINE
  5
1786F
330
16616
100
AcDbEntity
  8
寸法
 62
     0
 48
50.0
370
    -2
100
AcDbLine
 10
7196.461099046292
 20
10441.86395203443
 30
0.0
 11
7613.431661794769
 21
10441.86395203443
 31
0.0
  0
LINE
  5
17870
330
16616
100
AcDbEntity
  8
寸法
 62
     0
 48
50.0
370
    -2
100
AcDbLine
 10
7141.461099046292
 20
10441.86395203443
 30
0.0
 11
7196.461099046292
 21
10441.86395203443
 31
0.0
  0
INSERT
  5
17871
330
16616
100
AcDbEntity
  8
寸法
 62
     0
 48
50.0
370
    -2
100
AcDbBlockReference
  2
_DOTSMALL
 10
7141.461099046292
 20
10441.86395203443
 30
0.0
 41
100.0
 42
100.0
 43
100.0
  0
INSERT
  5
17872
330
16616
100
AcDbEntity
  8
寸法
 62
     0
 48
50.0
370
    -2
100
AcDbBlockReference
  2
_DOTSMALL
 10
7196.461099046292
 20
10441.86395203443
 30
0.0
 41
100.0
 42
100.0
 43
100.0
 50
180.0
  0
MTEXT
  5
17873
330
16616
100
AcDbEntity
  8
寸法
 62
     7
 48
50.0
100
AcDbMText
 10
7504.94638042053
 20
10541.86395203443
 30
0.0
 40
120.0
 41
0.0
 71
     5
 72
     1
  1
\A1;55
  7
STYLE1
 73
     1
 44
1.0
1001
ACAD
1000
MTEXTBEGIN
1070
    73
1070
     1
1070
    44
1040
1.0
1070
    74
1070
     0
1000
MTEXTEND
  0
POINT
  5
17874
330
16616
100
AcDbEntity
  8
DEFPOINTS
 62
     0
 48
50.0
100
AcDbPoint
 10
7141.461099046292
 20
10226.05573240944
 30
0.0
  0
POINT
  5
17875
330
16616
100
AcDbEntity
  8
DEFPOINTS
 62
     0
 48
50.0
100
AcDbPoint
 10
7196.461099046292
 20
10226.05573240944
 30
0.0
  0
POINT
  5
17876
330
16616
100
AcDbEntity
  8
DEFPOINTS
 62
     0
 48
50.0
100
AcDbPoint
 10
7196.461099046292
 20
10441.86395203443
 30
0.0
  0
ENDBLK
  5
166E5
330
16616
100
AcDbEntity
  8
0
 48
50.0
100
AcDbBlockEnd
  0
BLOCK
  5
17073
330
17069
100
AcDbEntity
  8
0
 48
50.0
100
AcDbBlockBegin
  2
*D14
 70
     1
 10
0.0
 20
0.0
 30
0.0
  3
*D14
  1

  0
LINE
  5
1791E
330
17069
100
AcDbEntity
  8
寸法
 62
     0
 48
50.0
370
    -2
100
AcDbLine
 10
13017.29698998871
 20
4597.886261107991
 30
0.0
 11
13017.29698998871
 21
5321.657307473572
 31
0.0
  0
LINE
  5
1791F
330
17069
100
AcDbEntity
  8
寸法
 62
     0
 48
50.0
370
    -2
100
AcDbLine
 10
9827.296989988715
 20
4652.886261107993
 30
0.0
 11
9827.296989988715
 21
5321.657307473572
 31
0.0
  0
LINE
  5
17920
330
17069
100
AcDbEntity
  8
寸法
 62
     0
 48
50.0
370
    -2
100
AcDbLine
 10
13017.29698998871
 20
5261.657307473572
 30
0.0
 11
9827.296989988715
 21
5261.657307473572
 31
0.0
  0
INSERT
  5
17921
330
17069
100
AcDbEntity
  8
寸法
 62
     0
 48
50.0
370
    -2
100
AcDbBlockReference
  2
_DOTSMALL
 10
13017.29698998871
 20
5261.657307473572
 30
0.0
 41
100.0
 42
100.0
 43
100.0
  0
INSERT
  5
17922
330
17069
100
AcDbEntity
  8
寸法
 62
     0
 48
50.0
370
    -2
100
AcDbBlockReference
  2
_DOTSMALL
 10
9827.296989988715
 20
5261.657307473572
 30
0.0
 41
100.0
 42
100.0
 43
100.0
 50
180.0
  0
MTEXT
  5
17923
330
17069
100
AcDbEntity
  8
寸法
 62
     7
 48
50.0
100
AcDbMText
 10
11422.29698998871
 20
5361.657307473572
 30
0.0
 40
120.0
 41
0.0
 71
     5
 72
     1
  1
\A1;3190
  7
STYLE1
 73
     1
 44
1.0
1001
ACAD
1000
MTEXTBEGIN
1070
    73
1070
     1
1070
    44
1040
1.0
1070
    74
1070
     0
1000
MTEXTEND
  0
POINT
  5
17924
330
17069
100
AcDbEntity
  8
DEFPOINTS
 62
     0
 48
50.0
100
AcDbPoint
 10
13017.29698998871
 20
4577.886261107991
 30
0.0
  0
POINT
  5
17925
330
17069
100
AcDbEntity
  8
DEFPOINTS
 62
     0
 48
50.0
100
AcDbPoint
 10
9827.296989988715
 20
4632.886261107993
 30
0.0
  0
POINT
  5
17926
330
17069
100
AcDbEntity
  8
DEFPOINTS
 62
     0
 48
50.0
100
AcDbPoint
 10
9827.296989988715
 20
5261.657307473572
 30
0.0
  0
ENDBLK
  5
17074
330
17069
100
AcDbEntity
  8
0
 48
50.0
100
AcDbBlockEnd
  0
BLOCK
  5
17081
330
17075
100
AcDbEntity
  8
0
 48
50.0
100
AcDbBlockBegin
  2
*D15
 70
     1
 10
0.0
 20
0.0
 30
0.0
  3
*D15
  1

  0
LINE
  5
17844
330
17075
100
AcDbEntity
  8
寸法
 62
     0
 48
50.0
370
    -2
100
AcDbLine
 10
9887.296989988714
 20
4648.887879230966
 30
0.0
 11
9887.296989988714
 21
5091.543714687293
 31
0.0
  0
LINE
  5
17845
330
17075
100
AcDbEntity
  8
寸法
 62
     0
 48
50.0
370
    -2
100
AcDbLine
 10
9827.296989988715
 20
4652.886261107993
 30
0.0
 11
9827.296989988715
 21
5091.543714687293
 31
0.0
  0
LINE
  5
17846
330
17075
100
AcDbEntity
  8
寸法
 62
     0
 48
50.0
370
    -2
100
AcDbLine
 10
9887.296989988714
 20
5031.543714687294
 30
0.0
 11
9987.296989988713
 21
5031.543714687294
 31
0.0
  0
LINE
  5
17847
330
17075
100
AcDbEntity
  8
寸法
 62
     0
 48
50.0
370
    -2
100
AcDbLine
 10
9827.296989988715
 20
5031.543714687294
 30
0.0
 11
9408.021399437535
 21
5031.543714687294
 31
0.0
  0
LINE
  5
17848
330
17075
100
AcDbEntity
  8
寸法
 62
     0
 48
50.0
370
    -2
100
AcDbLine
 10
9887.296989988714
 20
5031.543714687294
 30
0.0
 11
9827.296989988715
 21
5031.543714687294
 31
0.0
  0
INSERT
  5
17849
330
17075
100
AcDbEntity
  8
寸法
 62
     0
 48
50.0
370
    -2
100
AcDbBlockReference
  2
_DOTSMALL
 10
9887.296989988714
 20
5031.543714687294
 30
0.0
 41
100.0
 42
100.0
 43
100.0
 50
180.0
  0
INSERT
  5
1784A
330
17075
100
AcDbEntity
  8
寸法
 62
     0
 48
50.0
370
    -2
100
AcDbBlockReference
  2
_DOTSMALL
 10
9827.296989988715
 20
5031.543714687294
 30
0.0
 41
100.0
 42
100.0
 43
100.0
  0
MTEXT
  5
1784B
330
17075
100
AcDbEntity
  8
寸法
 62
     7
 48
50.0
100
AcDbMText
 10
9517.659194713123
 20
5131.543714687293
 30
0.0
 40
120.0
 41
0.0
 71
     5
 72
     1
  1
\A1;60
  7
STYLE1
 73
     1
 44
1.0
1001
ACAD
1000
MTEXTBEGIN
1070
    73
1070
     1
1070
    44
1040
1.0
1070
    74
1070
     0
1000
MTEXTEND
  0
POINT
  5
1784C
330
17075
100
AcDbEntity
  8
DEFPOINTS
 62
     0
 48
50.0
100
AcDbPoint
 10
9887.296989988714
 20
4628.887879230966
 30
0.0
  0
POINT
  5
1784D
330
17075
100
AcDbEntity
  8
DEFPOINTS
 62
     0
 48
50.0
100
AcDbPoint
 10
9827.296989988715
 20
4632.886261107993
 30
0.0
  0
POINT
  5
1784E
330
17075
100
AcDbEntity
  8
DEFPOINTS
 62
     0
 48
50.0
100
AcDbPoint
 10
9827.296989988715
 20
5031.543714687294
 30
0.0
  0
ENDBLK
  5
17082
330
17075
100
AcDbEntity
  8
0
 48
50.0
100
AcDbBlockEnd
  0
BLOCK
  5
1708D
330
17083
100
AcDbEntity
  8
0
 48
50.0
100
AcDbBlockBegin
  2
*D16
 70
     1
 10
0.0
 20
0.0
 30
0.0
  3
*D16
  1

  0
LINE
  5
17927
330
17083
100
AcDbEntity
  8
寸法
 62
     0
 48
50.0
370
    -2
100
AcDbLine
 10
12937.29698998871
 20
4599.696940719645
 30
0.0
 11
12937.29698998871
 21
5091.543714687295
 31
0.0
  0
LINE
  5
17928
330
17083
100
AcDbEntity
  8
寸法
 62
     0
 48
50.0
370
    -2
100
AcDbLine
 10
9887.296989988714
 20
4648.887879230966
 30
0.0
 11
9887.296989988714
 21
5091.543714687295
 31
0.0
  0
LINE
  5
17929
330
17083
100
AcDbEntity
  8
寸法
 62
     0
 48
50.0
370
    -2
100
AcDbLine
 10
12937.29698998871
 20
5031.543714687296
 30
0.0
 11
9887.296989988714
 21
5031.543714687296
 31
0.0
  0
INSERT
  5
1792A
330
17083
100
AcDbEntity
  8
寸法
 62
     0
 48
50.0
370
    -2
100
AcDbBlockReference
  2
_DOTSMALL
 10
12937.29698998871
 20
5031.543714687296
 30
0.0
 41
100.0
 42
100.0
 43
100.0
  0
INSERT
  5
1792B
330
17083
100
AcDbEntity
  8
寸法
 62
     0
 48
50.0
370
    -2
100
AcDbBlockReference
  2
_DOTSMALL
 10
9887.296989988714
 20
5031.543714687296
 30
0.0
 41
100.0
 42
100.0
 43
100.0
 50
180.0
  0
MTEXT
  5
1792C
330
17083
100
AcDbEntity
  8
寸法
 62
     7
 48
50.0
100
AcDbMText
 10
11412.29698998871
 20
5131.543714687296
 30
0.0
 40
120.0
 41
0.0
 71
     5
 72
     1
  1
\A1;柱外寸法3050
  7
STYLE1
 73
     1
 44
1.0
1001
ACAD
1000
MTEXTBEGIN
1070
    73
1070
     1
1070
    44
1040
1.0
1070
    74
1070
     0
1000
MTEXTEND
  0
POINT
  5
1792D
330
17083
100
AcDbEntity
  8
DEFPOINTS
 62
     0
 48
50.0
100
AcDbPoint
 10
12937.29698998871
 20
4579.696940719645
 30
0.0
  0
POINT
  5
1792E
330
17083
100
AcDbEntity
  8
DEFPOINTS
 62
     0
 48
50.0
100
AcDbPoint
 10
9887.296989988714
 20
4628.887879230966
 30
0.0
  0
POINT
  5
1792F
330
17083
100
AcDbEntity
  8
DEFPOINTS
 62
     0
 48
50.0
100
AcDbPoint
 10
9887.296989988714
 20
5031.543714687296
 30
0.0
  0
ENDBLK
  5
1708E
330
17083
100
AcDbEntity
  8
0
 48
50.0
100
AcDbBlockEnd
  0
BLOCK
  5
1709B
330
1708F
100
AcDbEntity
  8
0
 48
50.0
100
AcDbBlockBegin
  2
*D17
 70
     1
 10
0.0
 20
0.0
 30
0.0
  3
*D17
  1

  0
LINE
  5
17830
330
1708F
100
AcDbEntity
  8
寸法
 62
     0
 48
50.0
370
    -2
100
AcDbLine
 10
9867.296989988714
 20
2307.88626110799
 30
0.0
 11
8983.546860805454
 21
2307.88626110799
 31
0.0
  0
LINE
  5
17831
330
1708F
100
AcDbEntity
  8
寸法
 62
     0
 48
50.0
370
    -2
100
AcDbLine
 10
9812.296989988714
 20
2257.886261107989
 30
0.0
 11
8983.546860805454
 21
2257.88626110799
 31
0.0
  0
LINE
  5
17832
330
1708F
100
AcDbEntity
  8
寸法
 62
     0
 48
50.0
370
    -2
100
AcDbLine
 10
9043.546860805454
 20
2307.88626110799
 30
0.0
 11
9043.546860805454
 21
2407.88626110799
 31
0.0
  0
LINE
  5
17833
330
1708F
100
AcDbEntity
  8
寸法
 62
     0
 48
50.0
370
    -2
100
AcDbLine
 10
9043.546860805454
 20
2257.88626110799
 30
0.0
 11
9043.546860805454
 21
1845.79177291901
 31
0.0
  0
LINE
  5
17834
330
1708F
100
AcDbEntity
  8
寸法
 62
     0
 48
50.0
370
    -2
100
AcDbLine
 10
9043.546860805454
 20
2307.88626110799
 30
0.0
 11
9043.546860805454
 21
2257.88626110799
 31
0.0
  0
INSERT
  5
17835
330
1708F
100
AcDbEntity
  8
寸法
 62
     0
 48
50.0
370
    -2
100
AcDbBlockReference
  2
_DOTSMALL
 10
9043.546860805454
 20
2307.88626110799
 30
0.0
 41
100.0
 42
100.0
 43
100.0
 50
270.0
  0
INSERT
  5
17836
330
1708F
100
AcDbEntity
  8
寸法
 62
     0
 48
50.0
370
    -2
100
AcDbBlockReference
  2
_DOTSMALL
 10
9043.546860805454
 20
2257.88626110799
 30
0.0
 41
100.0
 42
100.0
 43
100.0
 50
90.0
  0
MTEXT
  5
17837
330
1708F
100
AcDbEntity
  8
寸法
 62
     7
 48
50.0
100
AcDbMText
 10
8943.546860805454
 20
1951.839017013499
 30
0.0
 40
120.0
 41
0.0
 71
     5
 72
     1
  1
\A1;50
  7
STYLE1
 11
0.0000000000000001
 21
1.0
 31
0.0
 73
     1
 44
1.0
1001
ACAD
1000
MTEXTBEGIN
1070
    73
1070
     1
1070
    44
1040
1.0
1070
    74
1070
     0
1000
MTEXTEND
  0
POINT
  5
17838
330
1708F
100
AcDbEntity
  8
DEFPOINTS
 62
     0
 48
50.0
100
AcDbPoint
 10
9887.296989988714
 20
2307.88626110799
 30
0.0
  0
POINT
  5
17839
330
1708F
100
AcDbEntity
  8
DEFPOINTS
 62
     0
 48
50.0
100
AcDbPoint
 10
9832.296989988714
 20
2257.886261107989
 30
0.0
  0
POINT
  5
1783A
330
1708F
100
AcDbEntity
  8
DEFPOINTS
 62
     0
 48
50.0
100
AcDbPoint
 10
9043.546860805454
 20
2257.88626110799
 30
0.0
  0
ENDBLK
  5
1709C
330
1708F
100
AcDbEntity
  8
0
 48
50.0
100
AcDbBlockEnd
  0
BLOCK
  5
170A7
330
1709D
100
AcDbEntity
  8
0
 48
50.0
100
AcDbBlockBegin
  2
*D18
 70
     1
 10
0.0
 20
0.0
 30
0.0
  3
*D18
  1

  0
LINE
  5
17827
330
1709D
100
AcDbEntity
  8
寸法
 62
     0
 48
50.0
370
    -2
100
AcDbLine
 10
12957.29698998871
 20
2257.886261107991
 30
0.0
 11
13702.22414796083
 21
2257.886261107991
 31
0.0
  0
LINE
  5
17828
330
1709D
100
AcDbEntity
  8
寸法
 62
     0
 48
50.0
370
    -2
100
AcDbLine
 10
13037.29698998871
 20
4577.886261107991
 30
0.0
 11
13702.22414796084
 21
4577.886261107991
 31
0.0
  0
LINE
  5
17829
330
1709D
100
AcDbEntity
  8
寸法
 62
     0
 48
50.0
370
    -2
100
AcDbLine
 10
13642.22414796083
 20
2257.886261107991
 30
0.0
 11
13642.22414796084
 21
4577.886261107991
 31
0.0
  0
INSERT
  5
1782A
330
1709D
100
AcDbEntity
  8
寸法
 62
     0
 48
50.0
370
    -2
100
AcDbBlockReference
  2
_DOTSMALL
 10
13642.22414796083
 20
2257.886261107991
 30
0.0
 41
100.0
 42
100.0
 43
100.0
 50
270.0
  0
INSERT
  5
1782B
330
1709D
100
AcDbEntity
  8
寸法
 62
     0
 48
50.0
370
    -2
100
AcDbBlockReference
  2
_DOTSMALL
 10
13642.22414796084
 20
4577.886261107991
 30
0.0
 41
100.0
 42
100.0
 43
100.0
 50
90.0
  0
MTEXT
  5
1782C
330
1709D
100
AcDbEntity
  8
寸法
 62
     7
 48
50.0
100
AcDbMText
 10
13542.21233693721
 20
3417.886261107993
 30
0.0
 40
120.0
 41
0.0
 71
     5
 72
     1
  1
\A1;2320
  7
STYLE1
 11
0.0000000000000001
 21
1.0
 31
0.0
 73
     1
 44
1.0
1001
ACAD
1000
MTEXTBEGIN
1070
    73
1070
     1
1070
    44
1040
1.0
1070
    74
1070
     0
1000
MTEXTEND
  0
POINT
  5
1782D
330
1709D
100
AcDbEntity
  8
DEFPOINTS
 62
     0
 48
50.0
100
AcDbPoint
 10
12937.29698998871
 20
2257.886261107991
 30
0.0
  0
POINT
  5
1782E
330
1709D
100
AcDbEntity
  8
DEFPOINTS
 62
     0
 48
50.0
100
AcDbPoint
 10
13017.29698998871
 20
4577.886261107991
 30
0.0
  0
POINT
  5
1782F
330
1709D
100
AcDbEntity
  8
DEFPOINTS
 62
     0
 48
50.0
100
AcDbPoint
 10
13642.22414796084
 20
4577.886261107991
 30
0.0
  0
ENDBLK
  5
170A8
330
1709D
100
AcDbEntity
  8
0
 48
50.0
100
AcDbBlockEnd
  0
BLOCK
  5
170B3
330
170A9
100
AcDbEntity
  8
0
 48
50.0
100
AcDbBlockBegin
  2
*D19
 70
     1
 10
0.0
 20
0.0
 30
0.0
  3
*D19
  1

  0
LINE
  5
1781E
330
170A9
100
AcDbEntity
  8
寸法
 62
     0
 48
50.0
370
    -2
100
AcDbLine
 10
9867.296989988714
 20
2257.886261107984
 30
0.0
 11
8683.546860805453
 21
2257.886261107985
 31
0.0
  0
LINE
  5
1781F
330
170A9
100
AcDbEntity
  8
寸法
 62
     0
 48
50.0
370
    -2
100
AcDbLine
 10
9807.296989988714
 20
4632.886261107989
 30
0.0
 11
8683.546860805455
 21
4632.886261107989
 31
0.0
  0
LINE
  5
17820
330
170A9
100
AcDbEntity
  8
寸法
 62
     0
 48
50.0
370
    -2
100
AcDbLine
 10
8743.546860805452
 20
2257.886261107985
 30
0.0
 11
8743.546860805455
 21
4632.886261107989
 31
0.0
  0
INSERT
  5
17821
330
170A9
100
AcDbEntity
  8
寸法
 62
     0
 48
50.0
370
    -2
100
AcDbBlockReference
  2
_DOTSMALL
 10
8743.546860805452
 20
2257.886261107985
 30
0.0
 41
100.0
 42
100.0
 43
100.0
 50
270.0
  0
INSERT
  5
17822
330
170A9
100
AcDbEntity
  8
寸法
 62
     0
 48
50.0
370
    -2
100
AcDbBlockReference
  2
_DOTSMALL
 10
8743.546860805455
 20
4632.886261107989
 30
0.0
 41
100.0
 42
100.0
 43
100.0
 50
90.0
  0
MTEXT
  5
17823
330
170A9
100
AcDbEntity
  8
寸法
 62
     7
 48
50.0
100
AcDbMText
 10
8643.53504978183
 20
3445.386261107989
 30
0.0
 40
120.0
 41
0.0
 71
     5
 72
     1
  1
\A1;2375
  7
STYLE1
 11
0.0000000000000001
 21
1.0
 31
0.0
 73
     1
 44
1.0
1001
ACAD
1000
MTEXTBEGIN
1070
    73
1070
     1
1070
    44
1040
1.0
1070
    74
1070
     0
1000
MTEXTEND
  0
POINT
  5
17824
330
170A9
100
AcDbEntity
  8
DEFPOINTS
 62
     0
 48
50.0
100
AcDbPoint
 10
9887.296989988714
 20
2257.886261107984
 30
0.0
  0
POINT
  5
17825
330
170A9
100
AcDbEntity
  8
DEFPOINTS
 62
     0
 48
50.0
100
AcDbPoint
 10
9827.296989988715
 20
4632.886261107989
 30
0.0
  0
POINT
  5
17826
330
170A9
100
AcDbEntity
  8
DEFPOINTS
 62
     0
 48
50.0
100
AcDbPoint
 10
8743.546860805455
 20
4632.886261107989
 30
0.0
  0
ENDBLK
  5
170B4
330
170A9
100
AcDbEntity
  8
0
 48
50.0
100
AcDbBlockEnd
  0
BLOCK
  5
170BF
330
170B5
100
AcDbEntity
  8
0
 48
50.0
100
AcDbBlockBegin
  2
*D20
 70
     1
 10
0.0
 20
0.0
 30
0.0
  3
*D20
  1

  0
LINE
  5
17815
330
170B5
100
AcDbEntity
  8
寸法
 62
     0
 48
50.0
370
    -2
100
AcDbLine
 10
9867.296989988714
 20
4397.886261107986
 30
0.0
 11
8983.546860805457
 21
4397.886261107986
 31
0.0
  0
LINE
  5
17816
330
170B5
100
AcDbEntity
  8
寸法
 62
     0
 48
50.0
370
    -2
100
AcDbLine
 10
9867.296989988714
 20
2307.886261107984
 30
0.0
 11
8983.546860805454
 21
2307.886261107984
 31
0.0
  0
LINE
  5
17817
330
170B5
100
AcDbEntity
  8
寸法
 62
     0
 48
50.0
370
    -2
100
AcDbLine
 10
9043.546860805456
 20
4397.886261107986
 30
0.0
 11
9043.546860805454
 21
2307.886261107984
 31
0.0
  0
INSERT
  5
17818
330
170B5
100
AcDbEntity
  8
寸法
 62
     0
 48
50.0
370
    -2
100
AcDbBlockReference
  2
_DOTSMALL
 10
9043.546860805456
 20
4397.886261107986
 30
0.0
 41
100.0
 42
100.0
 43
100.0
 50
90.0
  0
INSERT
  5
17819
330
170B5
100
AcDbEntity
  8
寸法
 62
     0
 48
50.0
370
    -2
100
AcDbBlockReference
  2
_DOTSMALL
 10
9043.546860805454
 20
2307.886261107984
 30
0.0
 41
100.0
 42
100.0
 43
100.0
 50
270.0
  0
MTEXT
  5
1781A
330
170B5
100
AcDbEntity
  8
寸法
 62
     7
 48
50.0
100
AcDbMText
 10
8943.535049781834
 20
3352.886261107987
 30
0.0
 40
120.0
 41
0.0
 71
     5
 72
     1
  1
\A1;2090
  7
STYLE1
 11
0.0000000000000001
 21
1.0
 31
0.0
 73
     1
 44
1.0
1001
ACAD
1000
MTEXTBEGIN
1070
    73
1070
     1
1070
    44
1040
1.0
1070
    74
1070
     0
1000
MTEXTEND
  0
POINT
  5
1781B
330
170B5
100
AcDbEntity
  8
DEFPOINTS
 62
     0
 48
50.0
100
AcDbPoint
 10
9887.296989988714
 20
4397.886261107986
 30
0.0
  0
POINT
  5
1781C
330
170B5
100
AcDbEntity
  8
DEFPOINTS
 62
     0
 48
50.0
100
AcDbPoint
 10
9887.296989988714
 20
2307.886261107984
 30
0.0
  0
POINT
  5
1781D
330
170B5
100
AcDbEntity
  8
DEFPOINTS
 62
     0
 48
50.0
100
AcDbPoint
 10
9043.546860805454
 20
2307.886261107984
 30
0.0
  0
ENDBLK
  5
170C0
330
170B5
100
AcDbEntity
  8
0
 48
50.0
100
AcDbBlockEnd
  0
BLOCK
  5
1710A
330
17100
100
AcDbEntity
  8
0
 48
50.0
100
AcDbBlockBegin
  2
*D21
 70
     1
 10
0.0
 20
0.0
 30
0.0
  3
*D21
  1

  0
LINE
  5
17915
330
17100
100
AcDbEntity
  8
寸法
 62
     0
 48
50.0
370
    -2
100
AcDbLine
 10
7196.461099046288
 20
4652.886261107996
 30
0.0
 11
7196.461099046288
 21
5098.612532839901
 31
0.0
  0
LINE
  5
17916
330
17100
100
AcDbEntity
  8
寸法
 62
     0
 48
50.0
370
    -2
100
AcDbLine
 10
4566.461099046288
 20
4652.886261107997
 30
0.0
 11
4566.461099046288
 21
5098.612532839901
 31
0.0
  0
LINE
  5
17917
330
17100
100
AcDbEntity
  8
寸法
 62
     0
 48
50.0
370
    -2
100
AcDbLine
 10
7196.461099046288
 20
5038.6125328399
 30
0.0
 11
4566.461099046288
 21
5038.6125328399
 31
0.0
  0
INSERT
  5
17918
330
17100
100
AcDbEntity
  8
寸法
 62
     0
 48
50.0
370
    -2
100
AcDbBlockReference
  2
_DOTSMALL
 10
7196.461099046288
 20
5038.6125328399
 30
0.0
 41
100.0
 42
100.0
 43
100.0
  0
INSERT
  5
17919
330
17100
100
AcDbEntity
  8
寸法
 62
     0
 48
50.0
370
    -2
100
AcDbBlockReference
  2
_DOTSMALL
 10
4566.461099046288
 20
5038.6125328399
 30
0.0
 41
100.0
 42
100.0
 43
100.0
 50
180.0
  0
MTEXT
  5
1791A
330
17100
100
AcDbEntity
  8
寸法
 62
     7
 48
50.0
100
AcDbMText
 10
5881.461099046288
 20
5138.624343863522
 30
0.0
 40
120.0
 41
0.0
 71
     5
 72
     1
  1
\A1;柱外寸法2630
  7
STYLE1
 73
     1
 44
1.0
1001
ACAD
1000
MTEXTBEGIN
1070
    73
1070
     1
1070
    44
1040
1.0
1070
    74
1070
     0
1000
MTEXTEND
  0
POINT
  5
1791B
330
17100
100
AcDbEntity
  8
DEFPOINTS
 62
     0
 48
50.0
100
AcDbPoint
 10
7196.461099046288
 20
4632.886261107995
 30
0.0
  0
POINT
  5
1791C
330
17100
100
AcDbEntity
  8
DEFPOINTS
 62
     0
 48
50.0
100
AcDbPoint
 10
4566.461099046288
 20
4632.886261107997
 30
0.0
  0
POINT
  5
1791D
330
17100
100
AcDbEntity
  8
DEFPOINTS
 62
     0
 48
50.0
100
AcDbPoint
 10
4566.461099046288
 20
5038.6125328399
 30
0.0
  0
ENDBLK
  5
1710B
330
17100
100
AcDbEntity
  8
0
 48
50.0
100
AcDbBlockEnd
  0
BLOCK
  5
17116
330
1710C
100
AcDbEntity
  8
0
 48
50.0
100
AcDbBlockBegin
  2
*D22
 70
     1
 10
0.0
 20
0.0
 30
0.0
  3
*D22
  1

  0
LINE
  5
1790C
330
1710C
100
AcDbEntity
  8
寸法
 62
     0
 48
50.0
370
    -2
100
AcDbLine
 10
4516.461099046288
 20
4652.886261107996
 30
0.0
 11
4516.461099046288
 21
5298.521454053989
 31
0.0
  0
LINE
  5
1790D
330
1710C
100
AcDbEntity
  8
寸法
 62
     0
 48
50.0
370
    -2
100
AcDbLine
 10
7246.461099046284
 20
4652.886261107993
 30
0.0
 11
7246.461099046284
 21
5298.521454053989
 31
0.0
  0
LINE
  5
1790E
330
1710C
100
AcDbEntity
  8
寸法
 62
     0
 48
50.0
370
    -2
100
AcDbLine
 10
4516.461099046288
 20
5238.52145405399
 30
0.0
 11
7246.461099046284
 21
5238.52145405399
 31
0.0
  0
INSERT
  5
1790F
330
1710C
100
AcDbEntity
  8
寸法
 62
     0
 48
50.0
370
    -2
100
AcDbBlockReference
  2
_DOTSMALL
 10
4516.461099046288
 20
5238.52145405399
 30
0.0
 41
100.0
 42
100.0
 43
100.0
 50
180.0
  0
INSERT
  5
17910
330
1710C
100
AcDbEntity
  8
寸法
 62
     0
 48
50.0
370
    -2
100
AcDbBlockReference
  2
_DOTSMALL
 10
7246.461099046284
 20
5238.52145405399
 30
0.0
 41
100.0
 42
100.0
 43
100.0
  0
MTEXT
  5
17911
330
1710C
100
AcDbEntity
  8
寸法
 62
     7
 48
50.0
100
AcDbMText
 10
5881.461099046286
 20
5338.533265077612
 30
0.0
 40
120.0
 41
0.0
 71
     5
 72
     1
  1
\A1;2730
  7
STYLE1
 73
     1
 44
1.0
1001
ACAD
1000
MTEXTBEGIN
1070
    73
1070
     1
1070
    44
1040
1.0
1070
    74
1070
     0
1000
MTEXTEND
  0
POINT
  5
17912
330
1710C
100
AcDbEntity
  8
DEFPOINTS
 62
     0
 48
50.0
100
AcDbPoint
 10
4516.461099046288
 20
4632.886261107995
 30
0.0
  0
POINT
  5
17913
330
1710C
100
AcDbEntity
  8
DEFPOINTS
 62
     0
 48
50.0
100
AcDbPoint
 10
7246.461099046284
 20
4632.886261107993
 30
0.0
  0
POINT
  5
17914
330
1710C
100
AcDbEntity
  8
DEFPOINTS
 62
     0
 48
50.0
100
AcDbPoint
 10
7246.461099046284
 20
5238.52145405399
 30
0.0
  0
ENDBLK
  5
17117
330
1710C
100
AcDbEntity
  8
0
 48
50.0
100
AcDbBlockEnd
  0
BLOCK
  5
17124
330
17118
100
AcDbEntity
  8
0
 48
50.0
100
AcDbBlockBegin
  2
*D23
 70
     1
 10
0.0
 20
0.0
 30
0.0
  3
*D23
  1

  0
LINE
  5
1740D
330
17118
100
AcDbEntity
  8
寸法
 62
     0
 48
50.0
370
    -2
100
AcDbLine
 10
4566.461099046288
 20
4652.886261107997
 30
0.0
 11
4566.461099046288
 21
5098.612532839901
 31
0.0
  0
LINE
  5
1740E
330
17118
100
AcDbEntity
  8
寸法
 62
     0
 48
50.0
370
    -2
100
AcDbLine
 10
4516.461099046288
 20
4652.886261107996
 30
0.0
 11
4516.461099046288
 21
5098.612532839901
 31
0.0
  0
LINE
  5
1740F
330
17118
100
AcDbEntity
  8
寸法
 62
     0
 48
50.0
370
    -2
100
AcDbLine
 10
4566.461099046288
 20
5038.6125328399
 30
0.0
 11
4666.461099046288
 21
5038.6125328399
 31
0.0
  0
LINE
  5
17410
330
17118
100
AcDbEntity
  8
寸法
 62
     0
 48
50.0
370
    -2
100
AcDbLine
 10
4516.461099046288
 20
5038.6125328399
 30
0.0
 11
4096.928573577552
 21
5038.6125328399
 31
0.0
  0
LINE
  5
17411
330
17118
100
AcDbEntity
  8
寸法
 62
     0
 48
50.0
370
    -2
100
AcDbLine
 10
4566.461099046288
 20
5038.6125328399
 30
0.0
 11
4516.461099046288
 21
5038.6125328399
 31
0.0
  0
INSERT
  5
17412
330
17118
100
AcDbEntity
  8
寸法
 62
     0
 48
50.0
370
    -2
100
AcDbBlockReference
  2
_DOTSMALL
 10
4566.461099046288
 20
5038.6125328399
 30
0.0
 41
100.0
 42
100.0
 43
100.0
 50
180.0
  0
INSERT
  5
17413
330
17118
100
AcDbEntity
  8
寸法
 62
     0
 48
50.0
370
    -2
100
AcDbBlockReference
  2
_DOTSMALL
 10
4516.461099046288
 20
5038.6125328399
 30
0.0
 41
100.0
 42
100.0
 43
100.0
  0
MTEXT
  5
17414
330
17118
100
AcDbEntity
  8
寸法
 62
     7
 48
50.0
100
AcDbMText
 10
4202.97581767204
 20
5138.6125328399
 30
0.0
 40
120.0
 41
0.0
 71
     5
 72
     1
  1
\A1;50
  7
STYLE1
 73
     1
 44
1.0
1001
ACAD
1000
MTEXTBEGIN
1070
    73
1070
     1
1070
    44
1040
1.0
1070
    74
1070
     0
1000
MTEXTEND
  0
POINT
  5
17415
330
17118
100
AcDbEntity
  8
DEFPOINTS
 62
     0
 48
50.0
100
AcDbPoint
 10
4566.461099046288
 20
4632.886261107997
 30
0.0
  0
POINT
  5
17416
330
17118
100
AcDbEntity
  8
DEFPOINTS
 62
     0
 48
50.0
100
AcDbPoint
 10
4516.461099046288
 20
4632.886261107995
 30
0.0
  0
POINT
  5
17417
330
17118
100
AcDbEntity
  8
DEFPOINTS
 62
     0
 48
50.0
100
AcDbPoint
 10
4516.461099046288
 20
5038.6125328399
 30
0.0
  0
ENDBLK
  5
17125
330
17118
100
AcDbEntity
  8
0
 48
50.0
100
AcDbBlockEnd
  0
BLOCK
  5
17132
330
17126
100
AcDbEntity
  8
0
 48
50.0
100
AcDbBlockBegin
  2
*D24
 70
     1
 10
0.0
 20
0.0
 30
0.0
  3
*D24
  1

  0
LINE
  5
178EE
330
17126
100
AcDbEntity
  8
寸法
 62
     0
 48
50.0
370
    -2
100
AcDbLine
 10
7246.461099046284
 20
4652.886261107993
 30
0.0
 11
7246.461099046284
 21
5098.612532839901
 31
0.0
  0
LINE
  5
178EF
330
17126
100
AcDbEntity
  8
寸法
 62
     0
 48
50.0
370
    -2
100
AcDbLine
 10
7196.461099046288
 20
4652.886261107996
 30
0.0
 11
7196.461099046288
 21
5098.612532839901
 31
0.0
  0
LINE
  5
178F0
330
17126
100
AcDbEntity
  8
寸法
 62
     0
 48
50.0
370
    -2
100
AcDbLine
 10
7196.461099046288
 20
5038.6125328399
 30
0.0
 11
7096.461099046289
 21
5038.6125328399
 31
0.0
  0
LINE
  5
178F1
330
17126
100
AcDbEntity
  8
寸法
 62
     0
 48
50.0
370
    -2
100
AcDbLine
 10
7246.461099046284
 20
5038.6125328399
 30
0.0
 11
7665.993624515012
 21
5038.6125328399
 31
0.0
  0
LINE
  5
178F2
330
17126
100
AcDbEntity
  8
寸法
 62
     0
 48
50.0
370
    -2
100
AcDbLine
 10
7196.461099046288
 20
5038.6125328399
 30
0.0
 11
7246.461099046284
 21
5038.6125328399
 31
0.0
  0
INSERT
  5
178F3
330
17126
100
AcDbEntity
  8
寸法
 62
     0
 48
50.0
370
    -2
100
AcDbBlockReference
  2
_DOTSMALL
 10
7196.461099046288
 20
5038.6125328399
 30
0.0
 41
100.0
 42
100.0
 43
100.0
  0
INSERT
  5
178F4
330
17126
100
AcDbEntity
  8
寸法
 62
     0
 48
50.0
370
    -2
100
AcDbBlockReference
  2
_DOTSMALL
 10
7246.461099046284
 20
5038.6125328399
 30
0.0
 41
100.0
 42
100.0
 43
100.0
 50
180.0
  0
MTEXT
  5
178F5
330
17126
100
AcDbEntity
  8
寸法
 62
     7
 48
50.0
100
AcDbMText
 10
7559.946380420524
 20
5138.6125328399
 30
0.0
 40
120.0
 41
0.0
 71
     5
 72
     1
  1
\A1;50
  7
STYLE1
 73
     1
 44
1.0
1001
ACAD
1000
MTEXTBEGIN
1070
    73
1070
     1
1070
    44
1040
1.0
1070
    74
1070
     0
1000
MTEXTEND
  0
POINT
  5
178F6
330
17126
100
AcDbEntity
  8
DEFPOINTS
 62
     0
 48
50.0
100
AcDbPoint
 10
7246.461099046284
 20
4632.886261107993
 30
0.0
  0
POINT
  5
178F7
330
17126
100
AcDbEntity
  8
DEFPOINTS
 62
     0
 48
50.0
100
AcDbPoint
 10
7196.461099046288
 20
4632.886261107995
 30
0.0
  0
POINT
  5
178F8
330
17126
100
AcDbEntity
  8
DEFPOINTS
 62
     0
 48
50.0
100
AcDbPoint
 10
7196.461099046288
 20
5038.6125328399
 30
0.0
  0
ENDBLK
  5
17133
330
17126
100
AcDbEntity
  8
0
 48
50.0
100
AcDbBlockEnd
  0
BLOCK
  5
171EA
330
171DF
100
AcDbEntity
  8
0
 48
50.0
100
AcDbBlockBegin
  2
*D25
 70
     1
 10
0.0
 20
0.0
 30
0.0
  3
*D25
  1

  0
LINE
  5
17862
330
171DF
100
AcDbEntity
  8
寸法
 62
     0
 48
50.0
370
    -2
100
AcDbLine
 10
9826.701276279814
 20
4632.183968177652
 30
0.0
 11
9210.766837174519
 21
4649.898118451981
 31
0.0
  0
LINE
  5
17863
330
171DF
100
AcDbEntity
  8
寸法
 62
     0
 48
50.0
370
    -2
100
AcDbLine
 10
9822.64782072319
 20
4491.242244411938
 30
0.0
 11
9206.713381617893
 21
4508.956394686268
 31
0.0
  0
LINE
  5
17864
330
171DF
100
AcDbEntity
  8
寸法
 62
     0
 48
50.0
370
    -2
100
AcDbLine
 10
9266.688583220322
 20
4507.231519981321
 30
0.0
 11
9270.742038776949
 21
4648.173243747034
 31
0.0
  0
LINE
  5
17865
330
171DF
100
AcDbEntity
  8
寸法
 62
     0
 48
50.0
370
    -2
100
AcDbLine
 10
9270.742038776949
 20
4648.173243747034
 30
0.0
 11
9281.091287006635
 21
5008.02445336162
 31
0.0
  0
INSERT
  5
17866
330
171DF
100
AcDbEntity
  8
寸法
 62
     0
 48
50.0
370
    -2
100
AcDbBlockReference
  2
_DOTSMALL
 10
9266.688583220322
 20
4507.231519981321
 30
0.0
 41
100.0
 42
100.0
 43
100.0
 50
268.3526390256378
  0
INSERT
  5
17867
330
171DF
100
AcDbEntity
  8
寸法
 62
     0
 48
50.0
370
    -2
100
AcDbBlockReference
  2
_DOTSMALL
 10
9270.742038776949
 20
4648.173243747034
 30
0.0
 41
100.0
 42
100.0
 43
100.0
 50
88.35263902563776
  0
MTEXT
  5
17868
330
171DF
100
AcDbEntity
  8
寸法
 62
     7
 48
50.0
100
AcDbMText
 10
9177.395389141862
 20
4880.952974397933
 30
0.0
 40
120.0
 41
0.0
 71
     5
 72
     1
  1
\A1;141
  7
STYLE1
 11
0.0287479117491237
 21
0.9995866933738488
 31
0.0
 73
     1
 44
1.0
1001
ACAD
1000
MTEXTBEGIN
1070
    73
1070
     1
1070
    44
1040
1.0
1070
    74
1070
     0
1000
MTEXTEND
  0
POINT
  5
17869
330
171DF
100
AcDbEntity
  8
DEFPOINTS
 62
     0
 48
50.0
100
AcDbPoint
 10
9846.693010147292
 20
4631.609009942669
 30
0.0
  0
POINT
  5
1786A
330
171DF
100
AcDbEntity
  8
DEFPOINTS
 62
     0
 48
50.0
100
AcDbPoint
 10
9842.639554590666
 20
4490.667286176956
 30
0.0
  0
POINT
  5
1786B
330
171DF
100
AcDbEntity
  8
DEFPOINTS
 62
     0
 48
50.0
100
AcDbPoint
 10
9266.688583220322
 20
4507.231519981321
 30
0.0
  0
ENDBLK
  5
171EB
330
171DF
100
AcDbEntity
  8
0
 48
50.0
100
AcDbBlockEnd
  0
BLOCK
  5
171F7
330
171EC
100
AcDbEntity
  8
0
 48
50.0
100
AcDbBlockBegin
  2
*D26
 70
     1
 10
0.0
 20
0.0
 30
0.0
  3
*D26
  1

  0
LINE
  5
17858
330
171EC
100
AcDbEntity
  8
寸法
 62
     0
 48
50.0
370
    -2
100
AcDbLine
 10
12937.29698998871
 20
4599.696940719645
 30
0.0
 11
12937.29698998871
 21
5091.543714687295
 31
0.0
  0
LINE
  5
17859
330
171EC
100
AcDbEntity
  8
寸法
 62
     0
 48
50.0
370
    -2
100
AcDbLine
 10
13017.29698998871
 20
4597.886261107993
 30
0.0
 11
13017.29698998871
 21
5091.543714687295
 31
0.0
  0
LINE
  5
1785A
330
171EC
100
AcDbEntity
  8
寸法
 62
     0
 48
50.0
370
    -2
100
AcDbLine
 10
12937.29698998871
 20
5031.543714687296
 30
0.0
 11
13017.29698998871
 21
5031.543714687296
 31
0.0
  0
LINE
  5
1785B
330
171EC
100
AcDbEntity
  8
寸法
 62
     0
 48
50.0
370
    -2
100
AcDbLine
 10
13017.29698998871
 20
5031.543714687296
 30
0.0
 11
13329.39147817769
 21
5031.543714687296
 31
0.0
  0
INSERT
  5
1785C
330
171EC
100
AcDbEntity
  8
寸法
 62
     0
 48
50.0
370
    -2
100
AcDbBlockReference
  2
_DOTSMALL
 10
12937.29698998871
 20
5031.543714687296
 30
0.0
 41
100.0
 42
100.0
 43
100.0
 50
180.0
  0
INSERT
  5
1785D
330
171EC
100
AcDbEntity
  8
寸法
 62
     0
 48
50.0
370
    -2
100
AcDbBlockReference
  2
_DOTSMALL
 10
13017.29698998871
 20
5031.543714687296
 30
0.0
 41
100.0
 42
100.0
 43
100.0
  0
MTEXT
  5
1785E
330
171EC
100
AcDbEntity
  8
寸法
 62
     7
 48
50.0
100
AcDbMText
 10
13223.3442340832
 20
5131.543714687296
 30
0.0
 40
120.0
 41
0.0
 71
     5
 72
     1
  1
\A1;80
  7
STYLE1
 73
     1
 44
1.0
1001
ACAD
1000
MTEXTBEGIN
1070
    73
1070
     1
1070
    44
1040
1.0
1070
    74
1070
     0
1000
MTEXTEND
  0
POINT
  5
1785F
330
171EC
100
AcDbEntity
  8
DEFPOINTS
 62
     0
 48
50.0
100
AcDbPoint
 10
12937.29698998871
 20
4579.696940719645
 30
0.0
  0
POINT
  5
17860
330
171EC
100
AcDbEntity
  8
DEFPOINTS
 62
     0
 48
50.0
100
AcDbPoint
 10
13017.29698998871
 20
4577.886261107993
 30
0.0
  0
POINT
  5
17861
330
171EC
100
AcDbEntity
  8
DEFPOINTS
 62
     0
 48
50.0
100
AcDbPoint
 10
13017.29698998871
 20
5031.543714687296
 30
0.0
  0
ENDBLK
  5
171F8
330
171EC
100
AcDbEntity
  8
0
 48
50.0
100
AcDbBlockEnd
  0
BLOCK
  5
176F5
330
176EB
100
AcDbEntity
  8
0
 48
50.0
100
AcDbBlockBegin
  2
*D27
 70
     1
 10
0.0
 20
0.0
 30
0.0
  3
*D27
  1

  0
LINE
  5
178E5
330
176EB
100
AcDbEntity
  8
寸法
 62
     0
 48
50.0
370
    -2
100
AcDbLine
 10
7216.461099046284
 20
2257.886261107989
 30
0.0
 11
7544.004201368031
 21
2257.886261107989
 31
0.0
  0
LINE
  5
178E6
330
176EB
100
AcDbEntity
  8
寸法
 62
     0
 48
50.0
370
    -2
100
AcDbLine
 10
7216.461099046284
 20
4205.886261107989
 30
0.0
 11
7544.004201368031
 21
4205.886261107989
 31
0.0
  0
LINE
  5
178E7
330
176EB
100
AcDbEntity
  8
寸法
 62
     0
 48
50.0
370
    -2
100
AcDbLine
 10
7484.00420136803
 20
2257.886261107989
 30
0.0
 11
7484.00420136803
 21
4205.886261107989
 31
0.0
  0
INSERT
  5
178E8
330
176EB
100
AcDbEntity
  8
寸法
 62
     0
 48
50.0
370
    -2
100
AcDbBlockReference
  2
_DOTSMALL
 10
7484.00420136803
 20
2257.886261107989
 30
0.0
 41
100.0
 42
100.0
 43
100.0
 50
270.0
  0
INSERT
  5
178E9
330
176EB
100
AcDbEntity
  8
寸法
 62
     0
 48
50.0
370
    -2
100
AcDbBlockReference
  2
_DOTSMALL
 10
7484.00420136803
 20
4205.886261107989
 30
0.0
 41
100.0
 42
100.0
 43
100.0
 50
90.0
  0
MTEXT
  5
178EA
330
176EB
100
AcDbEntity
  8
寸法
 62
     7
 48
50.0
100
AcDbMText
 10
7384.00420136803
 20
3231.886261107991
 30
0.0
 40
120.0
 41
0.0
 71
     5
 72
     1
  1
\A1;有効開口部高サ 1948
  7
STYLE1
 11
0.0000000000000001
 21
1.0
 31
0.0
 73
     1
 44
1.0
1001
ACAD
1000
MTEXTBEGIN
1070
    73
1070
     1
1070
    44
1040
1.0
1070
    74
1070
     0
1000
MTEXTEND
  0
POINT
  5
178EB
330
176EB
100
AcDbEntity
  8
DEFPOINTS
 62
     0
 48
50.0
100
AcDbPoint
 10
7196.461099046285
 20
2257.886261107989
 30
0.0
  0
POINT
  5
178EC
330
176EB
100
AcDbEntity
  8
DEFPOINTS
 62
     0
 48
50.0
100
AcDbPoint
 10
7196.461099046285
 20
4205.886261107989
 30
0.0
  0
POINT
  5
178ED
330
176EB
100
AcDbEntity
  8
DEFPOINTS
 62
     0
 48
50.0
100
AcDbPoint
 10
7484.00420136803
 20
4205.886261107989
 30
0.0
  0
ENDBLK
  5
176F6
330
176EB
100
AcDbEntity
  8
0
 48
50.0
100
AcDbBlockEnd
  0
BLOCK
  5
17703
330
176F7
100
AcDbEntity
  8
0
 48
50.0
100
AcDbBlockBegin
  2
*D28
 70
     1
 10
0.0
 20
0.0
 30
0.0
  3
*D28
  1

  0
LINE
  5
179D0
330
176F7
100
AcDbEntity
  8
寸法
 62
     0
 48
50.0
370
    -2
100
AcDbLine
 10
7216.461099046284
 20
4205.886261107989
 30
0.0
 11
7544.004201368031
 21
4205.886261107989
 31
0.0
  0
LINE
  5
179D1
330
176F7
100
AcDbEntity
  8
寸法
 62
     0
 48
50.0
370
    -2
100
AcDbLine
 10
7216.461099046283
 20
4232.88626110799
 30
0.0
 11
7544.004201368031
 21
4232.88626110799
 31
0.0
  0
LINE
  5
179D2
330
176F7
100
AcDbEntity
  8
寸法
 62
     0
 48
50.0
370
    -2
100
AcDbLine
 10
7484.00420136803
 20
4205.886261107989
 30
0.0
 11
7484.00420136803
 21
4105.886261107989
 31
0.0
  0
LINE
  5
179D3
330
176F7
100
AcDbEntity
  8
寸法
 62
     0
 48
50.0
370
    -2
100
AcDbLine
 10
7484.00420136803
 20
4232.88626110799
 30
0.0
 11
7484.00420136803
 21
4332.88626110799
 31
0.0
  0
MTEXT
  5
179D4
330
176F7
100
AcDbEntity
  8
寸法
 62
     7
 48
50.0
100
AcDbMText
 10
7624.174024614396
 20
4233.853460947648
 30
0.0
 40
120.0
 41
0.0
 71
     5
 72
     1
  1
\A1;27
  7
STYLE1
 11
0.0000000000000001
 21
1.0
 31
0.0
 73
     1
 44
1.0
1001
ACAD
1000
MTEXTBEGIN
1070
    73
1070
     1
1070
    44
1040
1.0
1070
    74
1070
     0
1000
MTEXTEND
  0
LINE
  5
179D5
330
176F7
100
AcDbEntity
  8
寸法
 62
     0
 48
50.0
370
    -2
100
AcDbLine
 10
7484.00420136803
 20
4205.886261107989
 30
0.0
 11
7484.00420136803
 21
4232.88626110799
 31
0.0
  0
INSERT
  5
179D6
330
176F7
100
AcDbEntity
  8
寸法
 62
     0
 48
50.0
370
    -2
100
AcDbBlockReference
  2
_DOTSMALL
 10
7484.00420136803
 20
4205.886261107989
 30
0.0
 41
100.0
 42
100.0
 43
100.0
 50
90.0
  0
INSERT
  5
179D7
330
176F7
100
AcDbEntity
  8
寸法
 62
     0
 48
50.0
370
    -2
100
AcDbBlockReference
  2
_DOTSMALL
 10
7484.00420136803
 20
4232.88626110799
 30
0.0
 41
100.0
 42
100.0
 43
100.0
 50
270.0
  0
POINT
  5
179D8
330
176F7
100
AcDbEntity
  8
DEFPOINTS
 62
     0
 48
50.0
100
AcDbPoint
 10
7196.461099046285
 20
4205.886261107989
 30
0.0
  0
POINT
  5
179D9
330
176F7
100
AcDbEntity
  8
DEFPOINTS
 62
     0
 48
50.0
100
AcDbPoint
 10
7196.461099046283
 20
4232.88626110799
 30
0.0
  0
POINT
  5
179DA
330
176F7
100
AcDbEntity
  8
DEFPOINTS
 62
     0
 48
50.0
100
AcDbPoint
 10
7484.00420136803
 20
4232.88626110799
 30
0.0
  0
ENDBLK
  5
17704
330
176F7
100
AcDbEntity
  8
0
 48
50.0
100
AcDbBlockEnd
  0
BLOCK
  5
17710
330
17705
100
AcDbEntity
  8
0
 48
50.0
100
AcDbBlockBegin
  2
*D29
 70
     1
 10
0.0
 20
0.0
 30
0.0
  3
*D29
  1

  0
LINE
  5
179C6
330
17705
100
AcDbEntity
  8
寸法
 62
     0
 48
50.0
370
    -2
100
AcDbLine
 10
7216.461099046283
 20
4232.88626110799
 30
0.0
 11
7544.004201368031
 21
4232.88626110799
 31
0.0
  0
LINE
  5
179C7
330
17705
100
AcDbEntity
  8
寸法
 62
     0
 48
50.0
370
    -2
100
AcDbLine
 10
7216.461099046284
 20
4397.88626110799
 30
0.0
 11
7544.004201368031
 21
4397.88626110799
 31
0.0
  0
LINE
  5
179C8
330
17705
100
AcDbEntity
  8
寸法
 62
     0
 48
50.0
370
    -2
100
AcDbLine
 10
7484.004201368032
 20
4232.88626110799
 30
0.0
 11
7484.004201368032
 21
4397.88626110799
 31
0.0
  0
LINE
  5
179C9
330
17705
100
AcDbEntity
  8
寸法
 62
     0
 48
50.0
370
    -2
100
AcDbLine
 10
7484.004201368032
 20
4397.88626110799
 30
0.0
 11
7484.004201368032
 21
4774.856823856468
 31
0.0
  0
INSERT
  5
179CA
330
17705
100
AcDbEntity
  8
寸法
 62
     0
 48
50.0
370
    -2
100
AcDbBlockReference
  2
_DOTSMALL
 10
7484.004201368032
 20
4232.88626110799
 30
0.0
 41
100.0
 42
100.0
 43
100.0
 50
270.0
  0
INSERT
  5
179CB
330
17705
100
AcDbEntity
  8
寸法
 62
     0
 48
50.0
370
    -2
100
AcDbBlockReference
  2
_DOTSMALL
 10
7484.004201368032
 20
4397.88626110799
 30
0.0
 41
100.0
 42
100.0
 43
100.0
 50
90.0
  0
MTEXT
  5
179CC
330
17705
100
AcDbEntity
  8
寸法
 62
     7
 48
50.0
100
AcDbMText
 10
7384.00420136803
 20
4636.37154248223
 30
0.0
 40
120.0
 41
0.0
 71
     5
 72
     1
  1
\A1;165
  7
STYLE1
 11
0.0000000000000001
 21
1.0
 31
0.0
 73
     1
 44
1.0
1001
ACAD
1000
MTEXTBEGIN
1070
    73
1070
     1
1070
    44
1040
1.0
1070
    74
1070
     0
1000
MTEXTEND
  0
POINT
  5
179CD
330
17705
100
AcDbEntity
  8
DEFPOINTS
 62
     0
 48
50.0
100
AcDbPoint
 10
7196.461099046283
 20
4232.88626110799
 30
0.0
  0
POINT
  5
179CE
330
17705
100
AcDbEntity
  8
DEFPOINTS
 62
     0
 48
50.0
100
AcDbPoint
 10
7196.461099046285
 20
4397.88626110799
 30
0.0
  0
POINT
  5
179CF
330
17705
100
AcDbEntity
  8
DEFPOINTS
 62
     0
 48
50.0
100
AcDbPoint
 10
7484.004201368032
 20
4397.88626110799
 30
0.0
  0
ENDBLK
  5
17711
330
17705
100
AcDbEntity
  8
0
 48
50.0
100
AcDbBlockEnd
  0
ENDSEC
  0
SECTION
  2
ENTITIES
  0
MTEXT
  5
763F
330
747D
100
AcDbEntity
  8
0
100
AcDbMText
 10
302.846345836809
 20
280.1983726409901
 30
0.0
 40
3.5
 41
5.323721266742722
 71
     1
 72
     5
  1

  7
MSMINCHO
 73
     1
 44
1.0
1001
ACAD
1000
MTEXTBEGIN
1070
    73
1070
     1
1070
    44
1040
1.0
1070
    74
1070
     0
1000
MTEXTEND
  0
LINE
  5
10B57
330
747D
100
AcDbEntity
  8
補助
  6
PHANTOM
 62
   230
 48
50.0
100
AcDbLine
 10
139.9999999999995
 20
11409.6
 30
0.0
 11
16307.2
 21
11409.6
 31
0.0
  0
LINE
  5
10B59
330
747D
100
AcDbEntity
  8
仕様書枠
  6
Continuous
 48
50.0
100
AcDbLine
 10
13107.2
 20
1200.0
 30
0.0
 11
13107.2
 21
-0.0000000000000729
 31
0.0
  0
LINE
  5
10B5C
330
747D
100
AcDbEntity
  8
仕様書枠
 48
50.0
100
AcDbLine
 10
16307.2
 20
1200.0
 30
0.0
 11
16307.2
 21
-0.0000000000000909
 31
0.0
  0
LINE
  5
10B5D
330
747D
100
AcDbEntity
  8
仕様書枠
 48
50.0
100
AcDbLine
 10
140.0
 20
0.0
 30
0.0
 11
16307.2
 21
-0.0000000000000909
 31
0.0
  0
LINE
  5
10B5E
330
747D
100
AcDbEntity
  8
補助
  6
PHANTOM
 62
   230
 48
50.0
100
AcDbLine
 10
16307.2
 20
11409.6
 30
0.0
 11
16307.2
 21
1200.0
 31
0.0
  0
LINE
  5
10B6C
330
747D
100
AcDbEntity
  8
仕様書枠
 48
50.0
100
AcDbLine
 10
13107.2
 20
1200.0
 30
0.0
 11
16307.2
 21
1200.0
 31
0.0
  0
LINE
  5
10B6D
330
747D
100
AcDbEntity
  8
補助
  6
PHANTOM
 62
   230
 48
50.0
100
AcDbLine
 10
13107.2
 20
11409.6
 30
0.0
 11
13107.2
 21
4800.0
 31
0.0
  0
LINE
  5
10B6F
330
747D
100
AcDbEntity
  8
補助
  6
PHANTOM
 62
   230
 48
50.0
100
AcDbLine
 10
13107.2
 20
4800.0
 30
0.0
 11
16307.2
 21
4800.0
 31
0.0
  0
LINE
  5
10B72
330
747D
100
AcDbEntity
  8
文字
 62
     7
 48
50.0
100
AcDbLine
 10
13187.2
 20
400.0
 30
0.0
 11
16227.2
 21
400.0
 31
0.0
  0
TEXT
  5
10B73
330
747D
100
AcDbEntity
  8
文字
 62
     7
 48
50.0
100
AcDbText
 10
13162.9790565769
 20
895.0906074299405
 30
0.0
 40
200.0
  1
外 形 図
  7
STYLE2
100
AcDbText
  0
TEXT
  5
10B74
330
747D
100
AcDbEntity
  8
文字
 62
     7
 48
50.0
100
AcDbText
 10
13201.43669998441
 20
477.2740661031255
 30
0.0
 40
160.0
  1
機種名
  7
STYLE2
100
AcDbText
  0
TEXT
  5
10B75
330
747D
100
AcDbEntity
  8
文字
 62
     7
 48
50.0
100
AcDbText
 10
13209.4053442172
 20
228.5435242569016
 30
0.0
 40
100.0
  1
○有効開口寸法 ： 2424×1948(mm)
  7
STYLE2
100
AcDbText
  0
TEXT
  5
10B76
330
747D
100
AcDbEntity
  8
文字
 62
     7
 48
50.0
100
AcDbText
 10
13209.4053442172
 20
76.09434707649343
 30
0.0
 40
100.0
  1
○床面積 ： 8.02㎡(2.43坪) 　
  7
STYLE2
100
AcDbText
  0
TEXT
  5
10B79
330
747D
100
AcDbEntity
  8
文字
 62
     7
 48
50.0
100
AcDbText
 10
14524.131837222
 20
1031.557706291228
 30
0.0
 40
100.0
  1
NO.52      <縮尺> S=1/40
  7
STYLE2
100
AcDbText
  0
LINE
  5
10B7B
330
747D
100
AcDbEntity
  8
仕様書枠
 48
50.0
100
AcDbLine
 10
13107.2
 20
800.0
 30
0.0
 11
14251.2
 21
800.0
 31
0.0
  0
LINE
  5
10B88
330
747D
100
AcDbEntity
  8
仕様書枠
  6
Continuous
 48
50.0
100
AcDbLine
 10
14251.2
 20
1200.0
 30
0.0
 11
14251.2
 21
800.0
 31
0.0
  0
LINE
  5
12765
330
747D
100
AcDbEntity
  8
Ｇ．Ｌ
100
AcDbLine
 10
3478.194496375802
 20
2157.886261107989
 30
0.0
 11
13872.58158746945
 21
2157.886261107989
 31
0.0
  0
LINE
  5
127A8
330
747D
100
AcDbEntity
  8
部品1
100
AcDbLine
 10
3577.691507699901
 20
2287.790071675654
 30
0.0
 11
3727.691507699901
 21
2287.790071675654
 31
0.0
  0
LINE
  5
127A9
330
747D
100
AcDbEntity
  8
部品1
100
AcDbLine
 10
3652.691507699901
 20
2157.886261107989
 30
0.0
 11
3577.691507699901
 21
2287.790071675654
 31
0.0
  0
TEXT
  5
127AA
330
747D
100
AcDbEntity
  8
部品1
100
AcDbText
 10
3755.796449824675
 20
2193.993164713891
 30
0.0
 40
125.0
  1
G.L
  7
MSGOTHIC
100
AcDbText
  0
LINE
  5
127AB
330
747D
100
AcDbEntity
  8
部品1
100
AcDbLine
 10
3727.691507699901
 20
2287.790071675654
 30
0.0
 11
3652.691507699901
 21
2157.886261107989
 31
0.0
  0
LINE
  5
13BE8
330
747D
100
AcDbEntity
  8
部品1
100
AcDbLine
 10
4566.461099046284
 20
2257.886261107989
 30
0.0
 11
7196.461099046285
 21
2257.886261107989
 31
0.0
  0
LINE
  5
13C1F
330
747D
100
AcDbEntity
  8
部品1
100
AcDbLine
 10
4566.461099046283
 20
4491.886261107996
 30
0.0
 11
4566.461099046284
 21
2157.886261107989
 31
0.0
  0
LINE
  5
13CFC
330
747D
100
AcDbEntity
  8
部品1
100
AcDbLine
 10
7141.461099046283
 20
4232.88626110799
 30
0.0
 11
7141.461099046283
 21
2257.886261107989
 31
0.0
  0
LINE
  5
13CFE
330
747D
100
AcDbEntity
  8
部品1
100
AcDbLine
 10
4621.461099046284
 20
4232.88626110799
 30
0.0
 11
4621.461099046284
 21
2257.886261107989
 31
0.0
  0
LINE
  5
13D18
330
747D
100
AcDbEntity
  8
部品1
100
AcDbLine
 10
7196.461099046285
 20
4491.886261107996
 30
0.0
 11
7196.461099046285
 21
2157.886261107989
 31
0.0
  0
LINE
  5
146B2
330
747D
100
AcDbEntity
  8
破線
 48
5.0
100
AcDbLine
 10
7196.461099046285
 20
2157.886261107989
 30
0.0
 11
7196.461099046285
 21
1907.886261107989
 31
0.0
  0
LINE
  5
146B3
330
747D
100
AcDbEntity
  8
破線
 48
5.0
100
AcDbLine
 10
4566.461099046284
 20
2157.886261107989
 30
0.0
 11
4566.461099046283
 21
1907.886261107989
 31
0.0
  0
TEXT
  5
149A1
330
747D
100
AcDbEntity
  8
部品1
100
AcDbText
 10
5602.185263374725
 20
1314.992731889465
 30
0.0
 40
135.0
  1
正面図
  7
MSGOTHIC
100
AcDbText
  0
LWPOLYLINE
  5
149A2
330
747D
100
AcDbEntity
  8
部品1
100
AcDbPolyline
 90
        4
 70
     1
 43
0.0
 10
5499.725765932055
 20
1507.886261107989
 10
5499.725765932055
 20
1267.993939562457
 10
6263.196432160494
 20
1267.993939562457
 10
6263.196432160494
 20
1507.886261107989
  0
TEXT
  5
14E88
330
747D
100
AcDbEntity
  8
部品1
100
AcDbText
 10
5602.278350450092
 20
5995.937166714526
 30
0.0
 40
135.0
  1
平面図
  7
MSGOTHIC
100
AcDbText
  0
LWPOLYLINE
  5
14E89
330
747D
100
AcDbEntity
  8
部品1
100
AcDbPolyline
 90
        4
 70
     1
 43
0.0
 10
5499.725765932056
 20
6188.830695933049
 10
5499.725765932056
 20
5948.938374387517
 10
6263.196432160494
 20
5948.938374387517
 10
6263.196432160494
 20
6188.830695933049
  0
TEXT
  5
15550
330
747D
100
AcDbEntity
  8
文字
 62
     7
 48
50.0
100
AcDbText
 10
14577.93463116741
 20
871.9640646083623
 30
0.0
 40
100.0
  1
～一般型・多雪地型～
  7
STYLE2
100
AcDbText
  0
LINE
  5
15CE5
330
747D
100
AcDbEntity
  8
破線
 48
5.0
100
AcDbLine
 10
7141.461099046283
 20
2257.886261107989
 30
0.0
 11
7141.461099046285
 21
1907.886261107989
 31
0.0
  0
LINE
  5
15CE6
330
747D
100
AcDbEntity
  8
破線
 48
5.0
100
AcDbLine
 10
4621.461099046284
 20
2257.886261107989
 30
0.0
 11
4621.461099046284
 21
1907.886261107989
 31
0.0
  0
LINE
  5
15CE7
330
747D
100
AcDbEntity
  8
破線
 48
5.0
100
AcDbLine
 10
7196.461099046283
 20
1907.886261107989
 30
0.0
 11
7141.461099046285
 21
1907.886261107989
 31
0.0
  0
LINE
  5
15CE8
330
747D
100
AcDbEntity
  8
破線
 48
5.0
100
AcDbLine
 10
4621.461099046282
 20
1907.886261107996
 30
0.0
 11
4566.461099046283
 21
1907.886261107996
 31
0.0
  0
LINE
  5
15CE9
330
747D
100
AcDbEntity
  8
部品1
100
AcDbLine
 10
4669.461099046284
 20
4232.886261107989
 30
0.0
 11
4669.461099046284
 21
2257.886261107989
 31
0.0
  0
LINE
  5
15CEA
330
747D
100
AcDbEntity
  8
破線
 48
5.0
100
AcDbLine
 10
4669.461099046284
 20
2257.886261107989
 30
0.0
 11
4669.461099046283
 21
2007.886261107995
 31
0.0
  0
LINE
  5
15CEB
330
747D
100
AcDbEntity
  8
部品1
100
AcDbLine
 10
7093.461099046286
 20
4232.88626110799
 30
0.0
 11
7093.461099046283
 21
2257.886261107989
 31
0.0
  0
LINE
  5
15CEC
330
747D
100
AcDbEntity
  8
破線
 48
5.0
100
AcDbLine
 10
7093.461099046283
 20
2257.886261107989
 30
0.0
 11
7093.461099046284
 21
2007.886261107989
 31
0.0
  0
LINE
  5
15CED
330
747D
100
AcDbEntity
  8
破線
 48
5.0
100
AcDbLine
 10
7141.461099046285
 20
2007.886261107989
 30
0.0
 11
7093.461099046284
 21
2007.886261107989
 31
0.0
  0
LINE
  5
15CEE
330
747D
100
AcDbEntity
  8
破線
 48
5.0
100
AcDbLine
 10
4669.461099046283
 20
2007.886261107995
 30
0.0
 11
4621.461099046282
 21
2007.886261107995
 31
0.0
  0
LINE
  5
15CF0
330
747D
100
AcDbEntity
  8
部品1
100
AcDbLine
 10
4566.461099046283
 20
4232.88626110799
 30
0.0
 11
7196.461099046285
 21
4232.88626110799
 31
0.0
  0
LINE
  5
15D20
330
747D
100
AcDbEntity
  8
細線
100
AcDbLine
 10
4669.46109904628
 20
3892.886261107989
 30
0.0
 11
7093.461099046283
 21
3892.886261107989
 31
0.0
  0
LINE
  5
15D21
330
747D
100
AcDbEntity
  8
細線
100
AcDbLine
 10
4669.46109904628
 20
3957.886261107989
 30
0.0
 11
7093.461099046283
 21
3957.886261107989
 31
0.0
  0
LINE
  5
15D22
330
747D
100
AcDbEntity
  8
細線
100
AcDbLine
 10
4669.46109904628
 20
4022.88626110799
 30
0.0
 11
7093.461099046283
 21
4022.88626110799
 31
0.0
  0
LINE
  5
15D23
330
747D
100
AcDbEntity
  8
細線
100
AcDbLine
 10
4669.46109904628
 20
3502.88626110799
 30
0.0
 11
7093.461099046283
 21
3502.88626110799
 31
0.0
  0
LINE
  5
15D24
330
747D
100
AcDbEntity
  8
細線
100
AcDbLine
 10
4669.46109904628
 20
3567.88626110799
 30
0.0
 11
7093.461099046283
 21
3567.88626110799
 31
0.0
  0
LINE
  5
15D25
330
747D
100
AcDbEntity
  8
細線
100
AcDbLine
 10
4669.46109904628
 20
3632.886261107989
 30
0.0
 11
7093.461099046283
 21
3632.886261107989
 31
0.0
  0
LINE
  5
15D26
330
747D
100
AcDbEntity
  8
細線
100
AcDbLine
 10
4669.46109904628
 20
3697.88626110799
 30
0.0
 11
7093.461099046283
 21
3697.88626110799
 31
0.0
  0
LINE
  5
15D27
330
747D
100
AcDbEntity
  8
細線
100
AcDbLine
 10
4669.46109904628
 20
3762.88626110799
 30
0.0
 11
7093.461099046283
 21
3762.88626110799
 31
0.0
  0
LINE
  5
15D28
330
747D
100
AcDbEntity
  8
細線
100
AcDbLine
 10
4669.46109904628
 20
3827.88626110799
 30
0.0
 11
7093.461099046283
 21
3827.88626110799
 31
0.0
  0
LINE
  5
15D29
330
747D
100
AcDbEntity
  8
細線
100
AcDbLine
 10
4669.46109904628
 20
2852.88626110799
 30
0.0
 11
7093.461099046283
 21
2852.88626110799
 31
0.0
  0
LINE
  5
15D2A
330
747D
100
AcDbEntity
  8
細線
100
AcDbLine
 10
4669.46109904628
 20
2917.88626110799
 30
0.0
 11
7093.461099046283
 21
2917.88626110799
 31
0.0
  0
LINE
  5
15D2B
330
747D
100
AcDbEntity
  8
細線
100
AcDbLine
 10
4669.46109904628
 20
2982.88626110799
 30
0.0
 11
7093.461099046283
 21
2982.88626110799
 31
0.0
  0
LINE
  5
15D2C
330
747D
100
AcDbEntity
  8
細線
100
AcDbLine
 10
4669.46109904628
 20
3047.886261107989
 30
0.0
 11
7093.461099046283
 21
3047.886261107989
 31
0.0
  0
LINE
  5
15D2D
330
747D
100
AcDbEntity
  8
細線
100
AcDbLine
 10
4669.46109904628
 20
3112.88626110799
 30
0.0
 11
7093.461099046283
 21
3112.88626110799
 31
0.0
  0
LINE
  5
15D2E
330
747D
100
AcDbEntity
  8
細線
100
AcDbLine
 10
4669.46109904628
 20
3177.886261107989
 30
0.0
 11
7093.461099046283
 21
3177.886261107989
 31
0.0
  0
LINE
  5
15D2F
330
747D
100
AcDbEntity
  8
細線
100
AcDbLine
 10
4669.46109904628
 20
3242.886261107989
 30
0.0
 11
7093.461099046283
 21
3242.886261107989
 31
0.0
  0
LINE
  5
15D30
330
747D
100
AcDbEntity
  8
細線
100
AcDbLine
 10
4669.46109904628
 20
3307.886261107989
 30
0.0
 11
7093.461099046283
 21
3307.886261107989
 31
0.0
  0
LINE
  5
15D31
330
747D
100
AcDbEntity
  8
細線
100
AcDbLine
 10
4669.46109904628
 20
3372.88626110799
 30
0.0
 11
7093.461099046283
 21
3372.88626110799
 31
0.0
  0
LINE
  5
15D32
330
747D
100
AcDbEntity
  8
細線
100
AcDbLine
 10
4669.46109904628
 20
3437.88626110799
 30
0.0
 11
7093.461099046283
 21
3437.88626110799
 31
0.0
  0
LINE
  5
15D33
330
747D
100
AcDbEntity
  8
細線
100
AcDbLine
 10
4669.46109904628
 20
4152.886261107989
 30
0.0
 11
7093.461099046283
 21
4152.886261107989
 31
0.0
  0
LINE
  5
15D34
330
747D
100
AcDbEntity
  8
細線
100
AcDbLine
 10
4669.46109904628
 20
4217.886261107989
 30
0.0
 11
7093.461099046283
 21
4217.886261107989
 31
0.0
  0
LINE
  5
15D35
330
747D
100
AcDbEntity
  8
細線
100
AcDbLine
 10
4669.46109904628
 20
4087.886261107989
 30
0.0
 11
7093.461099046283
 21
4087.886261107989
 31
0.0
  0
LINE
  5
15D36
330
747D
100
AcDbEntity
  8
細線
100
AcDbLine
 10
4669.46109904628
 20
2267.886261107989
 30
0.0
 11
7093.461099046283
 21
2267.886261107989
 31
0.0
  0
LINE
  5
15D37
330
747D
100
AcDbEntity
  8
細線
100
AcDbLine
 10
4669.46109904628
 20
2332.88626110799
 30
0.0
 11
7093.461099046283
 21
2332.88626110799
 31
0.0
  0
LINE
  5
15D38
330
747D
100
AcDbEntity
  8
細線
100
AcDbLine
 10
4669.46109904628
 20
2397.88626110799
 30
0.0
 11
7093.461099046283
 21
2397.88626110799
 31
0.0
  0
LINE
  5
15D39
330
747D
100
AcDbEntity
  8
細線
100
AcDbLine
 10
4669.46109904628
 20
2462.88626110799
 30
0.0
 11
7093.461099046283
 21
2462.88626110799
 31
0.0
  0
LINE
  5
15D3A
330
747D
100
AcDbEntity
  8
細線
100
AcDbLine
 10
4669.46109904628
 20
2527.886261107989
 30
0.0
 11
7093.461099046283
 21
2527.886261107989
 31
0.0
  0
LINE
  5
15D3B
330
747D
100
AcDbEntity
  8
細線
100
AcDbLine
 10
4669.46109904628
 20
2592.886261107989
 30
0.0
 11
7093.461099046283
 21
2592.886261107989
 31
0.0
  0
LINE
  5
15D3C
330
747D
100
AcDbEntity
  8
細線
100
AcDbLine
 10
4669.46109904628
 20
2657.88626110799
 30
0.0
 11
7093.461099046283
 21
2657.88626110799
 31
0.0
  0
LINE
  5
15D3D
330
747D
100
AcDbEntity
  8
細線
100
AcDbLine
 10
4669.46109904628
 20
2722.886261107989
 30
0.0
 11
7093.461099046283
 21
2722.886261107989
 31
0.0
  0
LINE
  5
15D3E
330
747D
100
AcDbEntity
  8
細線
100
AcDbLine
 10
4669.46109904628
 20
2787.88626110799
 30
0.0
 11
7093.461099046283
 21
2787.88626110799
 31
0.0
  0
LINE
  5
15D3F
330
747D
100
AcDbEntity
  8
細線
100
AcDbLine
 10
7093.461099046284
 20
2267.886261107989
 30
0.0
 11
4669.461099046279
 21
2267.886261107989
 31
0.0
  0
DIMENSION
  5
164EB
330
747D
100
AcDbEntity
  8
寸法
100
AcDbDimension
  2
*D1
 10
8208.994386520336
 20
7176.055732409437
 30
0.0
 11
8108.994386520336
 21
8701.055732409441
 31
0.0
 70
    32
 71
     5
 42
3050.000000000008
  3
INABA_S40G
100
AcDbAlignedDimension
 13
7196.461099046292
 23
10226.05573240944
 33
0.0
 14
7196.461099046266
 24
7176.055732409437
 34
0.0
 50
90.0
100
AcDbRotatedDimension
1001
ACAD
1000
DSTYLE
1002
{
1002
}
  0
LINE
  5
164EC
330
747D
100
AcDbEntity
  8
部品1
100
AcDbLine
 10
7116.461099046283
 20
10171.05573240944
 30
0.0
 11
7116.461099046268
 21
7241.055732409346
 31
0.0
  0
LINE
  5
164ED
330
747D
100
AcDbEntity
  8
部品1
100
AcDbLine
 10
4646.461099046265
 20
10171.05573240945
 30
0.0
 11
4646.461099046283
 21
7241.055732409344
 31
0.0
  0
LINE
  5
164EE
330
747D
100
AcDbEntity
  8
部品1
100
AcDbLine
 10
4621.461099046267
 20
10171.05573240948
 30
0.0
 11
4621.461099046284
 21
7241.055732409344
 31
0.0
  0
LINE
  5
164EF
330
747D
100
AcDbEntity
  8
部品1
100
AcDbLine
 10
7141.461099046281
 20
10171.05573240945
 30
0.0
 11
7141.461099046267
 21
7176.055732409434
 31
0.0
  0
LINE
  5
164F0
330
747D
100
AcDbEntity
  8
部品1
100
AcDbLine
 10
7168.461099046279
 20
10198.05573240944
 30
0.0
 11
7168.461099046268
 21
7231.055732409434
 31
0.0
  0
LINE
  5
164F1
330
747D
100
AcDbEntity
  8
部品1
100
AcDbLine
 10
7196.461099046292
 20
10226.05573240944
 30
0.0
 11
7196.461099046266
 21
7176.055732409437
 31
0.0
  0
DIMENSION
  5
164F2
330
747D
100
AcDbEntity
  8
寸法
100
AcDbDimension
  2
*D2
 10
7843.887444780701
 20
7231.055732409434
 30
0.0
 11
7743.875633757077
 21
8701.055732409441
 31
0.0
 70
    32
  1
7X420=<>
 71
     5
 42
2940.000000000015
  3
INABA_S40G
100
AcDbAlignedDimension
 13
7196.461099046292
 23
10171.05573240945
 33
0.0
 14
7196.461099046266
 24
7231.055732409434
 34
0.0
 50
90.0
100
AcDbRotatedDimension
1001
ACAD
1000
DSTYLE
1002
{
1002
}
  0
LINE
  5
164F4
330
747D
100
AcDbEntity
  8
部品1
100
AcDbLine
 10
4566.461099046256
 20
10226.05573240932
 30
0.0
 11
4566.461099046284
 21
7176.055732409306
 31
0.0
  0
LINE
  5
164F5
330
747D
100
AcDbEntity
  8
部品1
100
AcDbLine
 10
4594.461099046266
 20
7231.055732409302
 30
0.0
 11
4594.461099046279
 21
10198.05573240935
 31
0.0
  0
DIMENSION
  5
164F7
330
747D
100
AcDbEntity
  8
寸法
 48
50.0
100
AcDbDimension
  2
*D3
 10
4669.461099046284
 20
6641.624961643181
 30
0.0
 11
5881.461099046275
 21
6741.636772666803
 31
0.0
 70
    32
  1
有効開口部間口 <>
 71
     5
 42
2423.999999999982
  3
INABA_S40G
100
AcDbAlignedDimension
 13
7093.461099046265
 23
7202.055732409346
 33
0.0
 14
4669.461099046284
 24
7202.055732409346
 34
0.0
100
AcDbRotatedDimension
1001
ACAD
1000
DSTYLE
1002
{
1070
    75
1070
     1
1070
   279
1070
     2
1002
}
  0
LINE
  5
164F8
330
747D
100
AcDbEntity
  8
部品1
 48
50.0
100
AcDbLine
 10
4633.461099046283
 20
7221.555732409344
 30
0.0
 11
7129.461099046267
 21
7221.555732409344
 31
0.0
  0
DIMENSION
  5
164F9
330
747D
100
AcDbEntity
  8
寸法
100
AcDbDimension
  2
*D4
 10
7196.461099046266
 20
6355.451966052307
 30
0.0
 11
5881.461099046275
 21
6455.463777075928
 31
0.0
 70
    32
 71
     5
 42
2629.999999999982
  3
INABA_S40G
100
AcDbAlignedDimension
 13
4566.461099046284
 23
7176.055732409273
 33
0.0
 14
7196.461099046266
 24
7176.055732409401
 34
0.0
100
AcDbRotatedDimension
1001
ACAD
1000
DSTYLE
1002
{
1002
}
  0
DIMENSION
  5
164FA
330
747D
100
AcDbEntity
  8
寸法
 48
50.0
100
AcDbDimension
  2
*D5
 10
4566.461099046284
 20
6641.624961643181
 30
0.0
 11
4257.975817672046
 21
6641.624961643181
 31
0.0
 70
   160
 71
     5
 42
54.99999999999636
  3
INABA_S40G
100
AcDbAlignedDimension
 13
4621.461099046281
 23
7176.055732409345
 33
0.0
 14
4566.461099046284
 24
7176.055732409342
 34
0.0
100
AcDbRotatedDimension
1001
ACAD
1000
DSTYLE
1002
{
1002
}
  0
DIMENSION
  5
164FB
330
747D
100
AcDbEntity
  8
寸法
 48
50.0
100
AcDbDimension
  2
*D6
 10
4621.461099046281
 20
6641.624961643181
 30
0.0
 11
4782.363070046342
 21
6741.624961643181
 31
0.0
 70
   160
 71
     5
 42
48.00000000000363
  3
INABA_S40G
100
AcDbAlignedDimension
 13
4669.461099046284
 23
7202.055732409346
 33
0.0
 14
4621.461099046281
 24
7176.055732409345
 34
0.0
100
AcDbRotatedDimension
1001
ACAD
1000
DSTYLE
1002
{
1070
   279
1070
     2
1002
}
  0
LINE
  5
164FC
330
747D
100
AcDbEntity
  8
部品1
100
AcDbLine
 10
4621.461099046279
 20
7176.055732409345
 30
0.0
 11
4566.461099046284
 21
7176.055732409342
 31
0.0
  0
LINE
  5
164FD
330
747D
100
AcDbEntity
  8
部品1
 48
50.0
100
AcDbLine
 10
4621.461099046284
 20
7212.055732409344
 30
0.0
 11
4598.461099046284
 21
7212.055732409344
 31
0.0
  0
LINE
  5
164FE
330
747D
100
AcDbEntity
  8
部品1
 48
50.0
100
AcDbLine
 10
4631.461099046284
 20
7202.055732409346
 30
0.0
 11
4621.461099046284
 21
7181.055732409345
 31
0.0
  0
LINE
  5
164FF
330
747D
100
AcDbEntity
  8
部品1
 48
50.0
100
AcDbLine
 10
4621.461099046284
 20
7241.055732409344
 30
0.0
 11
4621.461099046281
 21
7176.055732409345
 31
0.0
  0
LINE
  5
16500
330
747D
100
AcDbEntity
  8
部品1
 48
50.0
100
AcDbLine
 10
4669.461099046284
 20
7202.055732409346
 30
0.0
 11
4669.461099046284
 21
7211.055732409346
 31
0.0
  0
LINE
  5
16501
330
747D
100
AcDbEntity
  8
部品1
 48
50.0
100
AcDbLine
 10
4669.461099046284
 20
7241.055732409346
 30
0.0
 11
4669.461099046284
 21
7232.055732409346
 31
0.0
  0
LINE
  5
16502
330
747D
100
AcDbEntity
  8
部品1
100
AcDbLine
 10
4669.461099046284
 20
7241.055732409346
 30
0.0
 11
4621.461099046284
 21
7241.055732409346
 31
0.0
  0
LINE
  5
16503
330
747D
100
AcDbEntity
  8
部品1
100
AcDbLine
 10
4669.461099046284
 20
7202.055732409346
 30
0.0
 11
4621.461099046284
 21
7202.055732409346
 31
0.0
  0
LINE
  5
16504
330
747D
100
AcDbEntity
  8
部品1
100
AcDbLine
 10
4621.461099046284
 20
7212.055732409344
 30
0.0
 11
4598.461099046284
 21
7212.055732409344
 31
0.0
  0
LINE
  5
16505
330
747D
100
AcDbEntity
  8
部品1
100
AcDbLine
 10
4621.461099046284
 20
7231.05573240927
 30
0.0
 11
4566.461099046282
 21
7231.05573240927
 31
0.0
  0
LINE
  5
16506
330
747D
100
AcDbEntity
  8
部品1
100
AcDbLine
 10
4594.461099046266
 20
7231.055732409306
 30
0.0
 11
4566.461099046282
 21
7231.055732409306
 31
0.0
  0
LINE
  5
16507
330
747D
100
AcDbEntity
  8
部品1
100
AcDbLine
 10
4594.461099046283
 20
7231.055732409321
 30
0.0
 11
4566.461099046282
 21
7231.055732409321
 31
0.0
  0
LINE
  5
16508
330
747D
100
AcDbEntity
  8
部品1
100
AcDbLine
 10
4566.461099046267
 20
7651.05573240946
 30
0.0
 11
4594.461099046267
 21
7651.05573240946
 31
0.0
  0
LINE
  5
1650A
330
747D
100
AcDbEntity
  8
部品1
100
AcDbLine
 10
4566.461099046267
 20
8071.05573240946
 30
0.0
 11
4594.461099046267
 21
8071.05573240946
 31
0.0
  0
LINE
  5
1650B
330
747D
100
AcDbEntity
  8
部品1
100
AcDbLine
 10
4566.461099046267
 20
8491.05573240946
 30
0.0
 11
4594.461099046267
 21
8491.05573240946
 31
0.0
  0
LINE
  5
1650C
330
747D
100
AcDbEntity
  8
部品1
100
AcDbLine
 10
4566.461099046267
 20
8911.055732409458
 30
0.0
 11
4594.461099046267
 21
8911.055732409458
 31
0.0
  0
LINE
  5
1650D
330
747D
100
AcDbEntity
  8
部品1
100
AcDbLine
 10
4594.46109904627
 20
9331.055732409321
 30
0.0
 11
4566.461099046271
 21
9331.055732409321
 31
0.0
  0
DIMENSION
  5
1650E
330
747D
100
AcDbEntity
  8
寸法
 48
50.0
100
AcDbDimension
  2
*D7
 10
7093.461099046265
 20
6641.624961643181
 30
0.0
 11
6982.498201397518
 21
6741.624961643181
 31
0.0
 70
   160
 71
     5
 42
48.00000000000181
  3
INABA_S40G
100
AcDbAlignedDimension
 13
7141.461099046267
 23
7176.055732409434
 33
0.0
 14
7093.461099046265
 24
7202.055732409346
 34
0.0
100
AcDbRotatedDimension
1001
ACAD
1000
DSTYLE
1002
{
1070
   279
1070
     2
1002
}
  0
DIMENSION
  5
1650F
330
747D
100
AcDbEntity
  8
寸法
 48
50.0
100
AcDbDimension
  2
*D8
 10
7141.461099046267
 20
6641.624961643183
 30
0.0
 11
7504.946380420505
 21
6641.624961643183
 31
0.0
 70
   160
 71
     5
 42
54.99999999999818
  3
INABA_S40G
100
AcDbAlignedDimension
 13
7196.461099046266
 23
7176.055732409437
 33
0.0
 14
7141.461099046267
 24
7176.055732409434
 34
0.0
100
AcDbRotatedDimension
1001
ACAD
1000
DSTYLE
1002
{
1002
}
  0
DIMENSION
  5
16510
330
747D
100
AcDbEntity
  8
寸法
100
AcDbDimension
  2
*D9
 10
7843.887444780678
 20
7176.055732409437
 30
0.0
 11
7843.887444780675
 21
6798.194265504576
 31
0.0
 70
   160
 71
     5
 42
54.99999999999636
  3
INABA_S40G
100
AcDbAlignedDimension
 13
7196.461099046266
 23
7231.055732409434
 33
0.0
 14
7196.461099046266
 24
7176.055732409437
 34
0.0
 50
90.0
100
AcDbRotatedDimension
1001
ACAD
1000
DSTYLE
1002
{
1002
}
  0
LINE
  5
16511
330
747D
100
AcDbEntity
  8
部品1
 48
50.0
100
AcDbLine
 10
7131.461099046267
 20
7202.055732409346
 30
0.0
 11
7141.461099046266
 21
7181.055732409345
 31
0.0
  0
LINE
  5
16512
330
747D
100
AcDbEntity
  8
部品1
100
AcDbLine
 10
7141.461099046266
 20
7212.055732409344
 30
0.0
 11
7164.461099046267
 21
7212.055732409344
 31
0.0
  0
LINE
  5
16513
330
747D
100
AcDbEntity
  8
部品1
 48
50.0
100
AcDbLine
 10
7093.461099046265
 20
7241.055732409346
 30
0.0
 11
7093.461099046265
 21
7232.055732409346
 31
0.0
  0
LINE
  5
16514
330
747D
100
AcDbEntity
  8
部品1
100
AcDbLine
 10
7093.461099046265
 20
7241.055732409346
 30
0.0
 11
7141.461099046267
 21
7241.055732409346
 31
0.0
  0
LINE
  5
16515
330
747D
100
AcDbEntity
  8
部品1
 48
50.0
100
AcDbLine
 10
7093.461099046265
 20
7202.055732409346
 30
0.0
 11
7093.461099046265
 21
7211.055732409346
 31
0.0
  0
LINE
  5
16516
330
747D
100
AcDbEntity
  8
部品1
100
AcDbLine
 10
7093.461099046265
 20
7202.055732409346
 30
0.0
 11
7141.461099046266
 21
7202.055732409346
 31
0.0
  0
LINE
  5
16517
330
747D
100
AcDbEntity
  8
部品1
100
AcDbLine
 10
7141.461099046266
 20
7231.055732409448
 30
0.0
 11
7196.461099046299
 21
7231.055732409448
 31
0.0
  0
LINE
  5
16518
330
747D
100
AcDbEntity
  8
部品1
100
AcDbLine
 10
7196.461099046266
 20
7176.055732409437
 30
0.0
 11
7141.461099046267
 21
7176.055732409435
 31
0.0
  0
LINE
  5
16519
330
747D
100
AcDbEntity
  8
部品1
100
AcDbLine
 10
7168.461099046296
 20
7651.055732409448
 30
0.0
 11
7196.461099046295
 21
7651.055732409448
 31
0.0
  0
LINE
  5
1651B
330
747D
100
AcDbEntity
  8
部品1
100
AcDbLine
 10
7168.461099046296
 20
8071.055732409448
 30
0.0
 11
7196.461099046295
 21
8071.055732409448
 31
0.0
  0
LINE
  5
1651C
330
747D
100
AcDbEntity
  8
部品1
100
AcDbLine
 10
7168.461099046296
 20
8491.055732409447
 30
0.0
 11
7196.461099046295
 21
8491.055732409447
 31
0.0
  0
LINE
  5
1651D
330
747D
100
AcDbEntity
  8
部品1
100
AcDbLine
 10
7168.461099046296
 20
8911.055732409449
 30
0.0
 11
7196.461099046295
 21
8911.055732409449
 31
0.0
  0
LINE
  5
1651E
330
747D
100
AcDbEntity
  8
部品1
100
AcDbLine
 10
7168.461099046296
 20
9331.055732409447
 30
0.0
 11
7196.461099046295
 21
9331.055732409447
 31
0.0
  0
LINE
  5
16523
330
747D
100
AcDbEntity
  8
部品1
100
AcDbLine
 10
4566.46109904629
 20
10226.05573240935
 30
0.0
 11
7196.461099046292
 21
10226.05573240944
 31
0.0
  0
DIMENSION
  5
16528
330
747D
100
AcDbEntity
  8
寸法
100
AcDbDimension
  2
*D10
 10
7141.461099046292
 20
10441.86395203445
 30
0.0
 11
5881.461099046291
 21
10541.87576305807
 31
0.0
 70
    32
  1
6X420=<>
 71
     5
 42
2520.000000000001
  3
INABA_S40G
100
AcDbAlignedDimension
 13
4621.461099046291
 23
10226.05573240935
 33
0.0
 14
7141.461099046292
 24
10226.05573240944
 34
0.0
100
AcDbRotatedDimension
1001
ACAD
1000
DSTYLE
1002
{
1002
}
  0
DIMENSION
  5
1652B
330
747D
100
AcDbEntity
  8
寸法
100
AcDbDimension
  2
*D11
 10
4621.461099046291
 20
10441.86395203433
 30
0.0
 11
4257.975817672017
 21
10441.86395203433
 31
0.0
 70
   160
 71
     5
 42
55.00000000003456
  3
INABA_S40G
100
AcDbAlignedDimension
 13
4566.461099046256
 23
10226.05573240935
 33
0.0
 14
4621.461099046291
 24
10226.05573240935
 34
0.0
100
AcDbRotatedDimension
1001
ACAD
1000
DSTYLE
1002
{
1002
}
  0
LINE
  5
1652E
330
747D
100
AcDbEntity
  8
部品1
100
AcDbLine
 10
4594.461099046265
 20
9751.055732409321
 30
0.0
 11
4566.461099046265
 21
9751.055732409321
 31
0.0
  0
LINE
  5
1652F
330
747D
100
AcDbEntity
  8
部品1
100
AcDbLine
 10
4621.461099046256
 20
10226.05573240932
 30
0.0
 11
4621.461099046258
 21
10198.05573240931
 31
0.0
  0
LINE
  5
16530
330
747D
100
AcDbEntity
  8
部品1
100
AcDbLine
 10
4621.461099046291
 20
10226.05573240935
 30
0.0
 11
4621.461099046291
 21
10198.05573240935
 31
0.0
  0
LINE
  5
16531
330
747D
100
AcDbEntity
  8
部品1
100
AcDbLine
 10
4594.461099046258
 20
10171.05573240932
 30
0.0
 11
4566.461099046257
 21
10171.05573240932
 31
0.0
  0
LINE
  5
16533
330
747D
100
AcDbEntity
  8
部品1
100
AcDbLine
 10
5041.461099046291
 20
10226.05573240946
 30
0.0
 11
5041.461099046291
 21
10198.05573240946
 31
0.0
  0
LINE
  5
16534
330
747D
100
AcDbEntity
  8
部品1
100
AcDbLine
 10
5041.461099046291
 20
10226.05573240935
 30
0.0
 11
5041.461099046291
 21
10198.05573240935
 31
0.0
  0
LINE
  5
16535
330
747D
100
AcDbEntity
  8
部品1
100
AcDbLine
 10
5041.461099046291
 20
10226.05573240935
 30
0.0
 11
5041.461099046291
 21
10198.05573240935
 31
0.0
  0
LINE
  5
16537
330
747D
100
AcDbEntity
  8
部品1
100
AcDbLine
 10
5461.461099046291
 20
10226.05573240946
 30
0.0
 11
5461.461099046291
 21
10198.05573240946
 31
0.0
  0
LINE
  5
16538
330
747D
100
AcDbEntity
  8
部品1
100
AcDbLine
 10
5461.461099046291
 20
10226.05573240935
 30
0.0
 11
5461.461099046291
 21
10198.05573240935
 31
0.0
  0
LINE
  5
16539
330
747D
100
AcDbEntity
  8
部品1
100
AcDbLine
 10
5461.461099046291
 20
10226.05573240935
 30
0.0
 11
5461.461099046291
 21
10198.05573240935
 31
0.0
  0
LINE
  5
1653E
330
747D
100
AcDbEntity
  8
部品1
100
AcDbLine
 10
4594.461099046287
 20
10198.05573240946
 30
0.0
 11
5868.961099046289
 21
10198.05573240945
 31
0.0
  0
LINE
  5
16554
330
747D
100
AcDbEntity
  8
部品1
100
AcDbLine
 10
5881.46109904629
 20
10226.05573240946
 30
0.0
 11
5881.46109904629
 21
10198.05573240946
 31
0.0
  0
LINE
  5
16555
330
747D
100
AcDbEntity
  8
部品1
100
AcDbLine
 10
6301.46109904629
 20
10226.05573240946
 30
0.0
 11
6301.46109904629
 21
10198.05573240946
 31
0.0
  0
DIMENSION
  5
16556
330
747D
100
AcDbEntity
  8
寸法
100
AcDbDimension
  2
*D12
 10
7843.887444780702
 20
10171.05573240945
 30
0.0
 11
7843.887444780701
 21
10534.54101378368
 31
0.0
 70
   160
 71
     5
 42
54.99999999999636
  3
INABA_S40G
100
AcDbAlignedDimension
 13
7196.461099046292
 23
10226.05573240944
 33
0.0
 14
7196.461099046292
 24
10171.05573240945
 34
0.0
 50
90.0
100
AcDbRotatedDimension
1001
ACAD
1000
DSTYLE
1002
{
1002
}
  0
DIMENSION
  5
16557
330
747D
100
AcDbEntity
  8
寸法
100
AcDbDimension
  2
*D13
 10
7196.461099046292
 20
10441.86395203443
 30
0.0
 11
7504.94638042053
 21
10441.86395203443
 31
0.0
 70
   160
 71
     5
 42
55.0
  3
INABA_S40G
100
AcDbAlignedDimension
 13
7141.461099046292
 23
10226.05573240944
 33
0.0
 14
7196.461099046292
 24
10226.05573240944
 34
0.0
100
AcDbRotatedDimension
1001
ACAD
1000
DSTYLE
1002
{
1002
}
  0
LINE
  5
1655B
330
747D
100
AcDbEntity
  8
部品1
100
AcDbLine
 10
7168.461099046291
 20
9751.055732409447
 30
0.0
 11
7196.461099046292
 21
9751.055732409447
 31
0.0
  0
LINE
  5
1655C
330
747D
100
AcDbEntity
  8
部品1
100
AcDbLine
 10
7141.461099046292
 20
10226.05573240944
 30
0.0
 11
7141.461099046292
 21
10198.05573240944
 31
0.0
  0
LINE
  5
1655D
330
747D
100
AcDbEntity
  8
部品1
100
AcDbLine
 10
7141.461099046292
 20
10226.05573240946
 30
0.0
 11
7141.461099046292
 21
10198.05573240946
 31
0.0
  0
LINE
  5
1655E
330
747D
100
AcDbEntity
  8
部品1
100
AcDbLine
 10
7168.461099046291
 20
10171.05573240945
 30
0.0
 11
7196.461099046292
 21
10171.05573240945
 31
0.0
  0
LINE
  5
1673B
330
747D
100
AcDbEntity
  8
部品1
 48
50.0
100
AcDbLine
 10
7168.461099046279
 20
10198.05573240944
 30
0.0
 11
7141.461099046281
 21
10171.05573240945
 31
0.0
  0
LINE
  5
1673C
330
747D
100
AcDbEntity
  8
部品1
 48
50.0
100
AcDbLine
 10
4646.461099046267
 20
10146.05573240945
 30
0.0
 11
7116.461099046283
 21
10146.05573240945
 31
0.0
  0
LINE
  5
1673D
330
747D
100
AcDbEntity
  8
部品1
 48
50.0
100
AcDbLine
 10
4594.461099046305
 20
10198.05573240944
 30
0.0
 11
4621.461099046302
 21
10171.05573240945
 31
0.0
  0
LINE
  5
1673E
330
747D
100
AcDbEntity
  8
部品1
 48
50.0
100
AcDbLine
 10
4621.461099046302
 20
10171.05573240945
 30
0.0
 11
7141.461099046281
 21
10171.05573240945
 31
0.0
  0
LINE
  5
1684A
330
747D
100
AcDbEntity
  8
部品1
100
AcDbLine
 10
5881.46109904629
 20
10226.0557324094
 30
0.0
 11
5881.46109904629
 21
10198.0557324094
 31
0.0
  0
LINE
  5
1684B
330
747D
100
AcDbEntity
  8
部品1
100
AcDbLine
 10
5868.961099046291
 20
10190.05573240939
 30
0.0
 11
5893.961099046291
 21
10190.05573240939
 31
0.0
  0
LINE
  5
1684C
330
747D
100
AcDbEntity
  8
部品1
100
AcDbLine
 10
5910.46109904629
 20
10216.05573240939
 30
0.0
 11
5916.461099046291
 21
10216.05573240939
 31
0.0
  0
LINE
  5
1684D
330
747D
100
AcDbEntity
  8
部品1
100
AcDbLine
 10
5916.461099046291
 20
10216.05573240939
 30
0.0
 11
5916.461099046291
 21
10198.05573240939
 31
0.0
  0
LINE
  5
1684E
330
747D
100
AcDbEntity
  8
部品1
100
AcDbLine
 10
5846.46109904629
 20
10216.05573240939
 30
0.0
 11
5852.461099046291
 21
10216.05573240939
 31
0.0
  0
LINE
  5
1684F
330
747D
100
AcDbEntity
  8
部品1
100
AcDbLine
 10
5846.46109904629
 20
10216.05573240939
 30
0.0
 11
5846.46109904629
 21
10198.05573240939
 31
0.0
  0
LINE
  5
16850
330
747D
100
AcDbEntity
  8
部品1
 48
50.0
100
AcDbLine
 10
5868.961099046291
 20
10190.05573240939
 30
0.0
 11
5868.961099046289
 21
10198.0557324094
 31
0.0
  0
LINE
  5
16851
330
747D
100
AcDbEntity
  8
部品1
 48
50.0
100
AcDbLine
 10
5893.961099046291
 20
10190.05573240939
 30
0.0
 11
5893.961099046291
 21
10198.0557324094
 31
0.0
  0
LINE
  5
16852
330
747D
100
AcDbEntity
  8
部品1
100
AcDbLine
 10
5893.96109904629
 20
10198.05573240945
 30
0.0
 11
7168.461099046291
 21
10198.05573240944
 31
0.0
  0
LINE
  5
1690D
330
747D
100
AcDbEntity
  8
仕様書枠
 48
50.0
100
AcDbLine
 10
16307.2
 20
11239.6
 30
0.0
 11
13127.2
 21
11239.6
 31
0.0
  0
LINE
  5
1690E
330
747D
100
AcDbEntity
  8
仕様書枠
 48
50.0
100
AcDbLine
 10
13127.2
 20
11239.6
 30
0.0
 11
13127.2
 21
8349.600000000004
 31
0.0
  0
LINE
  5
1690F
330
747D
100
AcDbEntity
  8
仕様書枠
 48
50.0
100
AcDbLine
 10
16307.2
 20
8349.600000000002
 30
0.0
 11
16307.2
 21
11239.6
 31
0.0
  0
LINE
  5
16910
330
747D
100
AcDbEntity
  8
仕様書枠
 48
50.0
100
AcDbLine
 10
14785.2
 20
11239.6
 30
0.0
 11
14785.2
 21
8859.600000000007
 31
0.0
  0
LINE
  5
16911
330
747D
100
AcDbEntity
  8
仕様書枠
 48
50.0
100
AcDbLine
 10
13490.2
 20
11239.6
 30
0.0
 11
13490.20000000001
 21
8859.600000000005
 31
0.0
  0
LINE
  5
16912
330
747D
100
AcDbEntity
  8
仕様書枠
 48
50.0
100
AcDbLine
 10
16307.2
 20
11069.6
 30
0.0
 11
13127.2
 21
11069.6
 31
0.0
  0
LINE
  5
16913
330
747D
100
AcDbEntity
  8
仕様書枠
 48
50.0
100
AcDbLine
 10
16307.2
 20
10729.6
 30
0.0
 11
13127.2
 21
10729.6
 31
0.0
  0
LINE
  5
16914
330
747D
100
AcDbEntity
  8
仕様書枠
 48
50.0
100
AcDbLine
 10
16307.2
 20
10899.6
 30
0.0
 11
13127.2
 21
10899.6
 31
0.0
  0
LINE
  5
16915
330
747D
100
AcDbEntity
  8
仕様書枠
 48
50.0
100
AcDbLine
 10
16307.19999999999
 20
10389.6
 30
0.0
 11
13127.2
 21
10389.6
 31
0.0
  0
LINE
  5
16916
330
747D
100
AcDbEntity
  8
仕様書枠
 48
50.0
100
AcDbLine
 10
16307.19999999999
 20
10219.6
 30
0.0
 11
13127.2
 21
10219.6
 31
0.0
  0
LINE
  5
16917
330
747D
100
AcDbEntity
  8
仕様書枠
 48
50.0
100
AcDbLine
 10
16307.19999999999
 20
10559.6
 30
0.0
 11
13127.2
 21
10559.6
 31
0.0
  0
TEXT
  5
16918
330
747D
100
AcDbEntity
  8
文字
 62
     7
 48
50.0
100
AcDbText
 10
13197.42518560407
 20
11100.01374588373
 30
0.0
 40
100.0
  1
品番
  7
STYLE1
100
AcDbText
  0
TEXT
  5
16919
330
747D
100
AcDbEntity
  8
文字
 62
     7
 48
50.0
100
AcDbText
 10
13271.19032244792
 20
10930.01374588373
 30
0.0
 40
100.0
  1
1
  7
STYLE1
100
AcDbText
  0
TEXT
  5
1691A
330
747D
100
AcDbEntity
  8
文字
 62
     7
 48
50.0
100
AcDbText
 10
13271.19032244792
 20
10760.01374588373
 30
0.0
 40
100.0
  1
2
  7
STYLE1
100
AcDbText
  0
TEXT
  5
1691B
330
747D
100
AcDbEntity
  8
文字
 62
     7
 48
50.0
100
AcDbText
 10
13271.19032244792
 20
10420.01374588373
 30
0.0
 40
100.0
  1
4
  7
STYLE1
100
AcDbText
  0
TEXT
  5
1691C
330
747D
100
AcDbEntity
  8
文字
 62
     7
 48
50.0
100
AcDbText
 10
13271.19032244792
 20
10590.01374588373
 30
0.0
 40
100.0
  1
3
  7
STYLE1
100
AcDbText
  0
TEXT
  5
1691D
330
747D
100
AcDbEntity
  8
文字
 62
     7
 48
50.0
100
AcDbText
 10
13732.03840939435
 20
11100.01374588373
 30
0.0
 40
100.0
  1
部　　品　　名
  7
STYLE1
100
AcDbText
  0
TEXT
  5
1691E
330
747D
100
AcDbEntity
  8
文字
 62
     7
 48
50.0
100
AcDbText
 10
14859.79774614482
 20
11100.01374588373
 30
0.0
 40
100.0
  1
材料（材質）　　単位mm
  7
STYLE1
100
AcDbText
  0
TEXT
  5
1691F
330
747D
100
AcDbEntity
  8
文字
 62
     7
 48
50.0
100
AcDbText
 10
13583.11819016569
 20
10930.01374588373
 30
0.0
 40
100.0
  1
土台枠
  7
STYLE1
100
AcDbText
  0
TEXT
  5
16920
330
747D
100
AcDbEntity
  8
文字
 62
     7
 48
50.0
100
AcDbText
 10
13583.11819016569
 20
10760.01374588373
 30
0.0
 40
100.0
  1
柱
  7
STYLE1
100
AcDbText
  0
TEXT
  5
16921
330
747D
100
AcDbEntity
  8
文字
 62
     7
 48
50.0
100
AcDbText
 10
13583.11819016569
 20
10590.01374588373
 30
0.0
 40
100.0
  1
桁前
  7
STYLE1
100
AcDbText
  0
TEXT
  5
16922
330
747D
100
AcDbEntity
  8
文字
 62
     7
 48
50.0
100
AcDbText
 10
13583.11819016569
 20
10420.01374588373
 30
0.0
 40
100.0
  1
桁後
  7
STYLE1
100
AcDbText
  0
TEXT
  5
16923
330
747D
100
AcDbEntity
  8
文字
 62
     7
 48
50.0
100
AcDbText
 10
13271.19032244792
 20
10250.01374588373
 30
0.0
 40
100.0
  1
5
  7
STYLE1
100
AcDbText
  0
TEXT
  5
16924
330
747D
100
AcDbEntity
  8
文字
 62
     7
 48
50.0
100
AcDbText
 10
13583.11819016569
 20
10250.01374588373
 30
0.0
 40
100.0
  1
妻板左右
  7
STYLE1
100
AcDbText
  0
TEXT
  5
16925
330
747D
100
AcDbEntity
  8
文字
 62
     7
 48
50.0
100
AcDbText
 10
13583.11819016569
 20
9060.013745883731
 30
0.0
 40
100.0
  1
シャッターレール
  7
STYLE1
100
AcDbText
  0
TEXT
  5
16926
330
747D
100
AcDbEntity
  8
文字
 62
     7
 48
50.0
100
AcDbText
 10
13248.77747366448
 20
9400.013745883729
 30
0.0
 40
100.0
  1
10
  7
STYLE1
100
AcDbText
  0
TEXT
  5
16927
330
747D
100
AcDbEntity
  8
文字
 62
     7
 48
50.0
100
AcDbText
 10
13583.11819016569
 20
9570.013745883731
 30
0.0
 40
100.0
  1
壁パネル
  7
STYLE1
100
AcDbText
  0
TEXT
  5
16928
330
747D
100
AcDbEntity
  8
文字
 62
     7
 48
50.0
100
AcDbText
 10
13583.11819016569
 20
9740.013745883729
 30
0.0
 40
100.0
  1
屋根パネル
  7
STYLE1
100
AcDbText
  0
TEXT
  5
16929
330
747D
100
AcDbEntity
  8
文字
 62
     7
 48
50.0
100
AcDbText
 10
13583.11819016569
 20
9910.01374588373
 30
0.0
 40
100.0
  1
母屋中
  7
STYLE1
100
AcDbText
  0
TEXT
  5
1692A
330
747D
100
AcDbEntity
  8
文字
 62
     7
 48
50.0
100
AcDbText
 10
13583.11819016569
 20
10080.01374588373
 30
0.0
 40
100.0
  1
鼻隠シ前後
  7
STYLE1
100
AcDbText
  0
TEXT
  5
1692B
330
747D
100
AcDbEntity
  8
文字
 62
     7
 48
50.0
100
AcDbText
 10
13271.19032244792
 20
9740.013745883731
 30
0.0
 40
100.0
  1
8
  7
STYLE1
100
AcDbText
  0
TEXT
  5
1692C
330
747D
100
AcDbEntity
  8
文字
 62
     7
 48
50.0
100
AcDbText
 10
13271.19032244792
 20
9570.013745883731
 30
0.0
 40
100.0
  1
9
  7
STYLE1
100
AcDbText
  0
TEXT
  5
1692D
330
747D
100
AcDbEntity
  8
文字
 62
     7
 48
50.0
100
AcDbText
 10
13271.19032244792
 20
9910.01374588373
 30
0.0
 40
100.0
  1
7
  7
STYLE1
100
AcDbText
  0
TEXT
  5
1692E
330
747D
100
AcDbEntity
  8
文字
 62
     7
 48
50.0
100
AcDbText
 10
13271.19032244792
 20
10080.01374588373
 30
0.0
 40
100.0
  1
6
  7
STYLE1
100
AcDbText
  0
LINE
  5
1692F
330
747D
100
AcDbEntity
  8
仕様書枠
 48
50.0
100
AcDbLine
 10
16307.19999999999
 20
9369.600000000001
 30
0.0
 11
13127.2
 21
9369.600000000003
 31
0.0
  0
LINE
  5
16930
330
747D
100
AcDbEntity
  8
仕様書枠
 48
50.0
100
AcDbLine
 10
16307.19999999999
 20
9539.6
 30
0.0
 11
13127.2
 21
9539.600000000003
 31
0.0
  0
LINE
  5
16931
330
747D
100
AcDbEntity
  8
仕様書枠
 48
50.0
100
AcDbLine
 10
16307.2
 20
10049.6
 30
0.0
 11
13127.2
 21
10049.6
 31
0.0
  0
LINE
  5
16932
330
747D
100
AcDbEntity
  8
仕様書枠
 48
50.0
100
AcDbLine
 10
16307.2
 20
9879.600000000001
 30
0.0
 11
13127.2
 21
9879.600000000003
 31
0.0
  0
TEXT
  5
16933
330
747D
100
AcDbEntity
  8
文字
 62
     7
 48
50.0
100
AcDbText
 10
13248.77747366448
 20
9230.013745883729
 30
0.0
 40
100.0
  1
11
  7
STYLE1
100
AcDbText
  0
TEXT
  5
16934
330
747D
100
AcDbEntity
  8
文字
 62
     7
 48
50.0
100
AcDbText
 10
13583.11819016569
 20
9230.013745883729
 30
0.0
 40
100.0
  1
シャッターカバー
 41
0.9
  7
STYLE1
100
AcDbText
  0
LINE
  5
16935
330
747D
100
AcDbEntity
  8
仕様書枠
 48
50.0
100
AcDbLine
 10
16307.19999999999
 20
9199.600000000001
 30
0.0
 11
13127.2
 21
9199.600000000001
 31
0.0
  0
TEXT
  5
16937
330
747D
100
AcDbEntity
  8
文字
 62
     7
 48
50.0
100
AcDbText
 10
13583.11819016569
 20
8890.013745883731
 30
0.0
 40
100.0
  1
棚板（別売）
  7
STYLE1
100
AcDbText
  0
LINE
  5
16938
330
747D
100
AcDbEntity
  8
仕様書枠
 48
50.0
100
AcDbLine
 10
16307.19999999999
 20
9029.600000000002
 30
0.0
 11
13127.2
 21
9029.600000000003
 31
0.0
  0
TEXT
  5
16939
330
747D
100
AcDbEntity
  8
文字
 62
     7
 48
50.0
100
AcDbText
 10
13583.1181901657
 20
9400.013745883729
 30
0.0
 40
100.0
  1
シャッター
  7
STYLE1
100
AcDbText
  0
TEXT
  5
1693A
330
747D
100
AcDbEntity
  8
文字
 62
     7
 48
50.0
100
AcDbText
 10
13248.77747366448
 20
8890.013745883731
 30
0.0
 40
100.0
  1
13
  7
STYLE1
100
AcDbText
  0
TEXT
  5
1693B
330
747D
100
AcDbEntity
  8
文字
 62
     7
 48
50.0
100
AcDbText
 10
13248.77747366448
 20
9060.013745883731
 30
0.0
 40
100.0
  1
12
  7
STYLE1
100
AcDbText
  0
TEXT
  5
1693C
330
747D
100
AcDbEntity
  8
文字
 62
     7
 48
50.0
100
AcDbText
 10
15022.63965474517
 20
10930.01374588372
 30
0.0
 40
100.0
  1
F12            1.2
  7
STYLE1
100
AcDbText
  0
TEXT
  5
1693E
330
747D
100
AcDbEntity
  8
文字
 62
     7
 48
50.0
100
AcDbText
 10
15022.63965474517
 20
10590.01374588373
 30
0.0
 40
100.0
  1
Y10            1.0
  7
STYLE1
100
AcDbText
  0
TEXT
  5
1693F
330
747D
100
AcDbEntity
  8
文字
 62
     7
 48
50.0
100
AcDbText
 10
15022.63965474516
 20
10420.01374588372
 30
0.0
 40
100.0
  1
Y10            1.0
  7
STYLE1
100
AcDbText
  0
TEXT
  5
16940
330
747D
100
AcDbEntity
  8
文字
 62
     7
 48
50.0
100
AcDbText
 10
15022.63965474517
 20
10250.01374588373
 30
0.0
 40
100.0
  1
Y10            0.7
  7
STYLE1
100
AcDbText
  0
TEXT
  5
16941
330
747D
100
AcDbEntity
  8
文字
 62
     7
 48
50.0
100
AcDbText
 10
15022.63965474516
 20
10080.01374588372
 30
0.0
 40
100.0
  1
Y10            0.7
  7
STYLE1
100
AcDbText
  0
TEXT
  5
16942
330
747D
100
AcDbEntity
  8
文字
 62
     7
 48
50.0
100
AcDbText
 10
14834.39215341525
 20
9910.013745883727
 30
0.0
 40
100.0
  1
F12    1.2(多雪地型  2.3)
  7
STYLE1
100
AcDbText
  0
TEXT
  5
16943
330
747D
100
AcDbEntity
  8
文字
 62
     7
 48
50.0
100
AcDbText
 10
15022.63965474517
 20
9740.013745883729
 30
0.0
 40
100.0
  1
Y10            0.5
  7
STYLE1
100
AcDbText
  0
TEXT
  5
16944
330
747D
100
AcDbEntity
  8
文字
 62
     7
 48
50.0
100
AcDbText
 10
15022.63965474516
 20
9570.013745883727
 30
0.0
 40
100.0
  1
F12            0.7
  7
STYLE1
100
AcDbText
  0
TEXT
  5
16945
330
747D
100
AcDbEntity
  8
文字
 62
     7
 48
50.0
100
AcDbText
 10
14850.83183167177
 20
9060.013745883729
 30
0.0
 40
100.0
  1
アルミニウム合金押出形材
  7
STYLE1
100
AcDbText
  0
TEXT
  5
16947
330
747D
100
AcDbEntity
  8
文字
 62
     7
 48
50.0
100
AcDbText
 10
15022.63965474516
 20
9400.013745883725
 30
0.0
 40
100.0
  1
Z08            0.5
  7
STYLE1
100
AcDbText
  0
TEXT
  5
16948
330
747D
100
AcDbEntity
  8
文字
 62
     7
 48
50.0
100
AcDbText
 10
15022.63965474516
 20
8890.013745883729
 30
0.0
 40
100.0
  1
F12            0.6
  7
STYLE1
100
AcDbText
  0
LINE
  5
16949
330
747D
100
AcDbEntity
  8
仕様書枠
 48
50.0
100
AcDbLine
 10
16307.19999999999
 20
8689.599999999996
 30
0.0
 11
13127.2
 21
8689.599999999998
 31
0.0
  0
LINE
  5
1694A
330
747D
100
AcDbEntity
  8
仕様書枠
 48
50.0
100
AcDbLine
 10
16307.19999999999
 20
8519.599999999996
 30
0.0
 11
13127.2
 21
8519.599999999998
 31
0.0
  0
LINE
  5
1694B
330
747D
100
AcDbEntity
  8
仕様書枠
 48
50.0
100
AcDbLine
 10
16307.19999999999
 20
8349.599999999997
 30
0.0
 11
13127.2
 21
8349.599999999998
 31
0.0
  0
TEXT
  5
1694C
330
747D
100
AcDbEntity
  8
文字
 62
     7
 48
50.0
100
AcDbText
 10
13229.83081656555
 20
8720.013745883726
 30
0.0
 40
100.0
  1
F12→溶融亜鉛めっき鋼板(JIS G 3302)
  7
STYLE1
100
AcDbText
  0
TEXT
  5
1694D
330
747D
100
AcDbEntity
  8
文字
 62
     7
 48
50.0
100
AcDbText
 10
13229.83081656555
 20
8550.013745883726
 30
0.0
 40
100.0
  1
Y10→溶融亜鉛-5％アルミニウム合金めっき鋼板(JIS G 3317)
 41
0.9
  7
STYLE1
100
AcDbText
  0
TEXT
  5
1694E
330
747D
100
AcDbEntity
  8
文字
 62
     7
 48
50.0
100
AcDbText
 10
13229.83081656555
 20
8380.013745883728
 30
0.0
 40
100.0
  1
Z08→塗装溶融亜鉛めっき鋼板(JIS G 3313)
  7
STYLE1
100
AcDbText
  0
LINE
  5
1694F
330
747D
100
AcDbEntity
  8
仕様書枠
 48
50.0
100
AcDbLine
 10
16307.19999999999
 20
9709.600000000001
 30
0.0
 11
13127.2
 21
9709.600000000001
 31
0.0
  0
TEXT
  5
16ECB
330
747D
100
AcDbEntity
  8
部品1
100
AcDbText
 10
11130.0077582981
 20
1314.992731889466
 30
0.0
 40
135.0
  1
側面図
  7
STYLE2
100
AcDbText
  0
LWPOLYLINE
  5
16ECC
330
747D
100
AcDbEntity
  8
部品1
100
AcDbPolyline
 90
        4
 70
     1
 43
0.0
 10
11040.56165687449
 20
1507.886261107989
 10
11040.56165687449
 20
1267.993939562457
 10
11804.03232310293
 20
1267.993939562457
 10
11804.03232310293
 20
1507.886261107989
  0
LINE
  5
16ECD
330
747D
100
AcDbEntity
  8
部品1
100
AcDbLine
 10
12462.2969899887
 20
4397.88626110799
 30
0.0
 11
12462.2969899887
 21
2307.886261107993
 31
0.0
  0
LINE
  5
16ECE
330
747D
100
AcDbEntity
  8
細線
 48
50.0
100
AcDbLine
 10
12384.79698998871
 20
4397.88626110799
 30
0.0
 11
12384.79698998871
 21
2307.886261107991
 31
0.0
  0
LINE
  5
16ECF
330
747D
100
AcDbEntity
  8
細線
 48
50.0
100
AcDbLine
 10
12399.79698998871
 20
4397.88626110799
 30
0.0
 11
12399.79698998871
 21
2307.886261107991
 31
0.0
  0
LINE
  5
16ED0
330
747D
100
AcDbEntity
  8
細線
 48
50.0
100
AcDbLine
 10
12259.79698998871
 20
4397.88626110799
 30
0.0
 11
12259.79698998871
 21
2307.886261107991
 31
0.0
  0
LINE
  5
16ED1
330
747D
100
AcDbEntity
  8
細線
 48
50.0
100
AcDbLine
 10
12244.79698998871
 20
4397.88626110799
 30
0.0
 11
12244.79698998871
 21
2307.886261107991
 31
0.0
  0
LINE
  5
16ED2
330
747D
100
AcDbEntity
  8
細線
 48
50.0
100
AcDbLine
 10
12104.79698998871
 20
4397.88626110799
 30
0.0
 11
12104.79698998871
 21
2307.886261107991
 31
0.0
  0
LINE
  5
16ED3
330
747D
100
AcDbEntity
  8
細線
 48
50.0
100
AcDbLine
 10
12119.79698998871
 20
4397.88626110799
 30
0.0
 11
12119.79698998871
 21
2307.886261107991
 31
0.0
  0
LINE
  5
16ED4
330
747D
100
AcDbEntity
  8
部品1
100
AcDbLine
 10
12042.29698998871
 20
4397.88626110799
 30
0.0
 11
12042.29698998871
 21
2307.886261107991
 31
0.0
  0
DIMENSION
  5
16ED5
330
747D
100
AcDbEntity
  8
寸法
 48
50.0
100
AcDbDimension
  2
*D25
 10
9266.688583220322
 20
4507.231519981321
 30
0.0
 11
9277.354058479248
 21
4878.078183223021
 31
0.0
 70
   161
 71
     5
 42
141.0000000000009
  3
INABA_S40G
100
AcDbAlignedDimension
 13
9846.693010147294
 23
4631.609009942669
 33
0.0
 14
9842.639554590668
 24
4490.667286176956
 34
0.0
1001
ACAD
1000
DSTYLE
1002
{
1070
   174
1070
     0
1070
   272
1070
     1
1070
   288
1070
     0
1070
   341
1005
0
1002
}
  0
LINE
  5
16ED6
330
747D
100
AcDbEntity
  8
細線
 48
50.0
100
AcDbLine
 10
12804.79698998871
 20
4397.88626110799
 30
0.0
 11
12804.79698998871
 21
2307.886261107991
 31
0.0
  0
LINE
  5
16ED7
330
747D
100
AcDbEntity
  8
細線
 48
50.0
100
AcDbLine
 10
12819.79698998871
 20
4397.88626110799
 30
0.0
 11
12819.79698998871
 21
2307.886261107991
 31
0.0
  0
LINE
  5
16ED8
330
747D
100
AcDbEntity
  8
細線
 48
50.0
100
AcDbLine
 10
12679.79698998871
 20
4397.88626110799
 30
0.0
 11
12679.79698998871
 21
2307.886261107991
 31
0.0
  0
LINE
  5
16ED9
330
747D
100
AcDbEntity
  8
細線
 48
50.0
100
AcDbLine
 10
12664.79698998871
 20
4397.88626110799
 30
0.0
 11
12664.79698998871
 21
2307.886261107991
 31
0.0
  0
LINE
  5
16EDA
330
747D
100
AcDbEntity
  8
細線
 48
50.0
100
AcDbLine
 10
12524.79698998871
 20
4397.88626110799
 30
0.0
 11
12524.79698998871
 21
2307.886261107991
 31
0.0
  0
LINE
  5
16EDB
330
747D
100
AcDbEntity
  8
細線
 48
50.0
100
AcDbLine
 10
12539.79698998871
 20
4397.88626110799
 30
0.0
 11
12539.79698998871
 21
2307.886261107991
 31
0.0
  0
LINE
  5
16EDC
330
747D
100
AcDbEntity
  8
部品1
100
AcDbLine
 10
11202.29698998871
 20
4397.88626110799
 30
0.0
 11
11202.29698998871
 21
2307.88626110799
 31
0.0
  0
LINE
  5
16EDD
330
747D
100
AcDbEntity
  8
細線
 48
50.0
100
AcDbLine
 10
10859.79698998871
 20
4397.88626110799
 30
0.0
 11
10859.79698998871
 21
2307.88626110799
 31
0.0
  0
LINE
  5
16EDE
330
747D
100
AcDbEntity
  8
細線
 48
50.0
100
AcDbLine
 10
10844.79698998871
 20
4397.88626110799
 30
0.0
 11
10844.79698998872
 21
2307.88626110799
 31
0.0
  0
LINE
  5
16EDF
330
747D
100
AcDbEntity
  8
細線
 48
50.0
100
AcDbLine
 10
10984.79698998871
 20
4397.88626110799
 30
0.0
 11
10984.79698998872
 21
2307.88626110799
 31
0.0
  0
LINE
  5
16EE0
330
747D
100
AcDbEntity
  8
細線
 48
50.0
100
AcDbLine
 10
10999.79698998871
 20
4397.88626110799
 30
0.0
 11
10999.79698998871
 21
2307.88626110799
 31
0.0
  0
LINE
  5
16EE1
330
747D
100
AcDbEntity
  8
細線
 48
50.0
100
AcDbLine
 10
11139.79698998871
 20
4397.88626110799
 30
0.0
 11
11139.79698998871
 21
2307.88626110799
 31
0.0
  0
LINE
  5
16EE2
330
747D
100
AcDbEntity
  8
細線
 48
50.0
100
AcDbLine
 10
11124.79698998871
 20
4397.88626110799
 30
0.0
 11
11124.79698998872
 21
2307.88626110799
 31
0.0
  0
LINE
  5
16EE3
330
747D
100
AcDbEntity
  8
部品1
100
AcDbLine
 10
10782.29698998871
 20
4397.88626110799
 30
0.0
 11
10782.29698998871
 21
2307.88626110799
 31
0.0
  0
DIMENSION
  5
16EE4
330
747D
100
AcDbEntity
  8
寸法
 48
50.0
100
AcDbDimension
  2
*D26
 10
13017.29698998871
 20
5031.543714687296
 30
0.0
 11
13223.3442340832
 21
5031.543714687296
 31
0.0
 70
   160
 71
     5
 42
80.0
  3
INABA_S40G
100
AcDbAlignedDimension
 13
12937.29698998871
 23
4579.696940719645
 33
0.0
 14
13017.29698998871
 24
4577.886261107993
 34
0.0
100
AcDbRotatedDimension
1001
ACAD
1000
DSTYLE
1002
{
1070
   174
1070
     0
1070
   272
1070
     1
1070
   288
1070
     0
1070
   341
1005
0
1002
}
  0
LINE
  5
16EE5
330
747D
100
AcDbEntity
  8
細線
 48
50.0
100
AcDbLine
 10
10019.79698998871
 20
4397.88626110799
 30
0.0
 11
10019.79698998871
 21
2307.88626110799
 31
0.0
  0
LINE
  5
16EE6
330
747D
100
AcDbEntity
  8
細線
 48
50.0
100
AcDbLine
 10
10004.79698998871
 20
4397.88626110799
 30
0.0
 11
10004.79698998871
 21
2307.88626110799
 31
0.0
  0
LINE
  5
16EE7
330
747D
100
AcDbEntity
  8
細線
 48
50.0
100
AcDbLine
 10
10144.79698998871
 20
4397.88626110799
 30
0.0
 11
10144.79698998871
 21
2307.88626110799
 31
0.0
  0
LINE
  5
16EE8
330
747D
100
AcDbEntity
  8
細線
 48
50.0
100
AcDbLine
 10
10159.79698998871
 20
4397.88626110799
 30
0.0
 11
10159.79698998871
 21
2307.88626110799
 31
0.0
  0
LINE
  5
16EE9
330
747D
100
AcDbEntity
  8
細線
 48
50.0
100
AcDbLine
 10
10299.79698998871
 20
4397.88626110799
 30
0.0
 11
10299.79698998871
 21
2307.88626110799
 31
0.0
  0
LINE
  5
16EEA
330
747D
100
AcDbEntity
  8
細線
 48
50.0
100
AcDbLine
 10
10284.79698998871
 20
4397.88626110799
 30
0.0
 11
10284.79698998871
 21
2307.88626110799
 31
0.0
  0
LINE
  5
16EEB
330
747D
100
AcDbEntity
  8
細線
 48
50.0
100
AcDbLine
 10
10704.79698998871
 20
4397.88626110799
 30
0.0
 11
10704.79698998871
 21
2307.88626110799
 31
0.0
  0
LINE
  5
16EEC
330
747D
100
AcDbEntity
  8
細線
 48
50.0
100
AcDbLine
 10
10719.79698998871
 20
4397.88626110799
 30
0.0
 11
10719.79698998871
 21
2307.88626110799
 31
0.0
  0
LINE
  5
16EED
330
747D
100
AcDbEntity
  8
細線
 48
50.0
100
AcDbLine
 10
10579.79698998871
 20
4397.88626110799
 30
0.0
 11
10579.79698998871
 21
2307.88626110799
 31
0.0
  0
LINE
  5
16EEE
330
747D
100
AcDbEntity
  8
細線
 48
50.0
100
AcDbLine
 10
10564.79698998871
 20
4397.88626110799
 30
0.0
 11
10564.79698998871
 21
2307.88626110799
 31
0.0
  0
LINE
  5
16EEF
330
747D
100
AcDbEntity
  8
細線
 48
50.0
100
AcDbLine
 10
10424.79698998871
 20
4397.88626110799
 30
0.0
 11
10424.79698998871
 21
2307.88626110799
 31
0.0
  0
LINE
  5
16EF0
330
747D
100
AcDbEntity
  8
細線
 48
50.0
100
AcDbLine
 10
10439.79698998871
 20
4397.88626110799
 30
0.0
 11
10439.79698998871
 21
2307.88626110799
 31
0.0
  0
LINE
  5
16EF1
330
747D
100
AcDbEntity
  8
部品1
100
AcDbLine
 10
9942.296989988722
 20
2257.886261107989
 30
0.0
 11
12937.29698998871
 21
2257.886261107989
 31
0.0
  0
DIMENSION
  5
16EF2
330
747D
100
AcDbEntity
  8
寸法
 48
50.0
100
AcDbDimension
  2
*D14
 10
9827.296989988715
 20
5261.657307473572
 30
0.0
 11
11422.29698998871
 21
5261.657307473572
 31
0.0
 70
   160
 71
     5
 42
3190.0
  3
INABA_S40G
100
AcDbAlignedDimension
 13
13017.29698998871
 23
4577.886261107991
 33
0.0
 14
9827.296989988715
 24
4632.886261107993
 34
0.0
100
AcDbRotatedDimension
1001
ACAD
1000
DSTYLE
1002
{
1070
   174
1070
     0
1070
   272
1070
     1
1070
   288
1070
     0
1070
   341
1005
0
1002
}
  0
DIMENSION
  5
16EF3
330
747D
100
AcDbEntity
  8
寸法
 48
50.0
100
AcDbDimension
  2
*D15
 10
9827.296989988715
 20
5031.543714687294
 30
0.0
 11
9517.659194713123
 21
5031.543714687294
 31
0.0
 70
   160
 71
     5
 42
60.0
  3
INABA_S40G
100
AcDbAlignedDimension
 13
9887.296989988714
 23
4628.887879230966
 33
0.0
 14
9827.296989988715
 24
4632.886261107993
 34
0.0
100
AcDbRotatedDimension
1001
ACAD
1000
DSTYLE
1002
{
1070
   174
1070
     0
1070
   272
1070
     1
1070
   288
1070
     0
1070
   341
1005
0
1002
}
  0
DIMENSION
  5
16EF4
330
747D
100
AcDbEntity
  8
寸法
 48
50.0
100
AcDbDimension
  2
*D16
 10
9887.296989988714
 20
5031.543714687296
 30
0.0
 11
11412.29698998871
 21
5031.543714687296
 31
0.0
 70
   160
  1
柱外寸法<>
 71
     5
 42
3050.0
  3
INABA_S40G
100
AcDbAlignedDimension
 13
12937.29698998871
 23
4579.696940719645
 33
0.0
 14
9887.296989988714
 24
4628.887879230966
 34
0.0
100
AcDbRotatedDimension
1001
ACAD
1000
DSTYLE
1002
{
1070
   174
1070
     0
1070
   272
1070
     1
1070
   288
1070
     0
1070
   341
1005
0
1002
}
  0
LINE
  5
16EF5
330
747D
100
AcDbEntity
  8
部品1
100
AcDbLine
 10
12882.29698998871
 20
4397.88626110799
 30
0.0
 11
12882.29698998871
 21
2307.886261107991
 31
0.0
  0
LINE
  5
16EF6
330
747D
100
AcDbEntity
  8
部品1
100
AcDbLine
 10
12937.29698998871
 20
4452.31628888911
 30
0.0
 11
12937.29698998871
 21
2157.886261107991
 31
0.0
  0
LINE
  5
16EF7
330
747D
100
AcDbEntity
  8
部品1
100
AcDbLine
 10
10362.29698998871
 20
4397.88626110799
 30
0.0
 11
10362.29698998871
 21
2307.88626110799
 31
0.0
  0
DIMENSION
  5
16EF8
330
747D
100
AcDbEntity
  8
寸法
100
AcDbDimension
  2
*D17
 10
9043.546860805454
 20
2257.88626110799
 30
0.0
 11
9043.546860805454
 21
1951.839017013499
 31
0.0
 70
   160
 71
     5
 42
50.0
  3
INABA_S40G
100
AcDbAlignedDimension
 13
9887.296989988714
 23
2307.88626110799
 33
0.0
 14
9832.296989988714
 24
2257.886261107989
 34
0.0
 50
90.0
100
AcDbRotatedDimension
1001
ACAD
1000
DSTYLE
1002
{
1070
   174
1070
     0
1070
   272
1070
     1
1070
   288
1070
     0
1070
   341
1005
0
1002
}
  0
LINE
  5
16EF9
330
747D
100
AcDbEntity
  8
部品1
100
AcDbLine
 10
9887.296989988714
 20
4490.028699036868
 30
0.0
 11
9887.296989988714
 21
2157.886261107989
 31
0.0
  0
LINE
  5
16EFA
330
747D
100
AcDbEntity
  8
部品1
100
AcDbLine
 10
9942.296989988713
 20
4397.88626110799
 30
0.0
 11
9942.296989988722
 21
2157.886261107989
 31
0.0
  0
LINE
  5
16EFB
330
747D
100
AcDbEntity
  8
部品1
100
AcDbLine
 10
9942.296989988722
 20
2307.88626110799
 30
0.0
 11
12937.29698998871
 21
2307.886261107991
 31
0.0
  0
LINE
  5
16EFC
330
747D
100
AcDbEntity
  8
部品1
100
AcDbLine
 10
9887.296989988714
 20
4397.88626110799
 30
0.0
 11
12937.2969899887
 21
4397.88626110799
 31
0.0
  0
LINE
  5
16EFD
330
747D
100
AcDbEntity
  8
部品1
100
AcDbLine
 10
12882.2969899887
 20
4397.886261107993
 30
0.0
 11
12882.2969899887
 21
2307.886261107993
 31
0.0
  0
LINE
  5
16EFE
330
747D
100
AcDbEntity
  8
細線
 48
50.0
100
AcDbLine
 10
11544.79698998871
 20
4397.88626110799
 30
0.0
 11
11544.79698998871
 21
2307.88626110799
 31
0.0
  0
LINE
  5
16EFF
330
747D
100
AcDbEntity
  8
細線
 48
50.0
100
AcDbLine
 10
11559.79698998871
 20
4397.88626110799
 30
0.0
 11
11559.79698998871
 21
2307.88626110799
 31
0.0
  0
LINE
  5
16F00
330
747D
100
AcDbEntity
  8
細線
 48
50.0
100
AcDbLine
 10
11419.79698998871
 20
4397.88626110799
 30
0.0
 11
11419.79698998871
 21
2307.88626110799
 31
0.0
  0
LINE
  5
16F01
330
747D
100
AcDbEntity
  8
細線
 48
50.0
100
AcDbLine
 10
11404.79698998871
 20
4397.88626110799
 30
0.0
 11
11404.79698998871
 21
2307.88626110799
 31
0.0
  0
LINE
  5
16F02
330
747D
100
AcDbEntity
  8
細線
 48
50.0
100
AcDbLine
 10
11264.79698998871
 20
4397.88626110799
 30
0.0
 11
11264.79698998871
 21
2307.88626110799
 31
0.0
  0
LINE
  5
16F03
330
747D
100
AcDbEntity
  8
細線
 48
50.0
100
AcDbLine
 10
11279.79698998871
 20
4397.88626110799
 30
0.0
 11
11279.79698998871
 21
2307.88626110799
 31
0.0
  0
TEXT
  5
16F04
330
747D
100
AcDbEntity
  8
部品1
 48
50.0
100
AcDbText
 10
11757.16613404408
 20
4655.155354046296
 30
0.0
 40
120.0
  1
32
 50
90.0
  7
STYLE1
100
AcDbText
  0
TEXT
  5
16F05
330
747D
100
AcDbEntity
  8
部品1
 48
50.0
100
AcDbText
 10
11279.53311137899
 20
4792.656612264579
 30
0.0
 40
120.0
  1
1000
  7
STYLE1
100
AcDbText
  0
LINE
  5
16F06
330
747D
100
AcDbEntity
  8
部品1
 48
50.0
100
AcDbLine
 10
11591.26527615526
 20
4756.772590112145
 30
0.0
 11
11591.26527615526
 21
4740.572590112146
 31
0.0
  0
LINE
  5
16F07
330
747D
100
AcDbEntity
  8
部品1
 48
50.0
100
AcDbLine
 10
11291.26527615526
 20
4756.772590112145
 30
0.0
 11
11591.26527615526
 21
4756.772590112145
 31
0.0
  0
LINE
  5
16F08
330
747D
100
AcDbEntity
  8
部品1
100
AcDbLine
 10
9834.841976345678
 20
4631.603996442256
 30
0.0
 11
13009.90886685018
 21
4576.527058817129
 31
0.0
  0
LINE
  5
16F09
330
747D
100
AcDbEntity
  8
部品1
100
AcDbLine
 10
9842.639554590668
 20
4490.667286176956
 30
0.0
 11
12991.96069052856
 21
4451.638860942751
 31
0.0
  0
LINE
  5
16F0A
330
747D
100
AcDbEntity
  8
細線
 48
50.0
100
AcDbLine
 10
9860.296989988714
 20
4630.285937483394
 30
0.0
 11
9855.007888433206
 21
4490.20030485604
 31
0.0
  0
LINE
  5
16F0B
330
747D
100
AcDbEntity
  8
細線
 48
50.0
100
AcDbLine
 10
12984.2662731824
 20
4577.039683587459
 30
0.0
 11
12979.54930710072
 21
4452.107467652542
 31
0.0
  0
LINE
  5
16F0C
330
747D
100
AcDbEntity
  8
部品1
 48
50.0
100
AcDbLine
 10
9827.481275901821
 20
4624.479807272683
 30
0.0
 11
9827.861535679632
 21
4604.55284282627
 31
0.0
  0
LINE
  5
16F0D
330
747D
100
AcDbEntity
  8
部品1
 48
50.0
100
AcDbLine
 10
9830.930307785878
 20
4600.977561332798
 30
0.0
 11
9832.634209277244
 21
4511.687064626151
 31
0.0
  0
LINE
  5
16F0E
330
747D
100
AcDbEntity
  8
細線
 48
50.0
100
AcDbLine
 10
9828.336413089528
 20
4603.903342949351
 30
0.0
 11
13013.9723978347
 21
4548.279138308523
 31
0.0
  0
LINE
  5
16F0F
330
747D
100
AcDbEntity
  8
細線
 48
50.0
100
AcDbLine
 10
9833.096888326814
 20
4511.041831251487
 30
0.0
 11
13003.10055275745
 21
4471.232512276994
 31
0.0
  0
LINE
  5
16F10
330
747D
100
AcDbEntity
  8
部品1
 48
50.0
100
AcDbLine
 10
9835.702981383485
 20
4508.111783132679
 30
0.0
 11
9835.904934003917
 21
4497.528747739586
 31
0.0
  0
ARC
  5
16F11
330
747D
100
AcDbEntity
  8
部品1
 48
50.0
100
AcDbCircle
 10
9834.480001730161
 20
4624.613361680109
 30
0.0
 40
7.0
100
AcDbArc
 50
87.03587545283093
 51
181.0932240293156
  0
ARC
  5
16F12
330
747D
100
AcDbEntity
  8
部品1
 48
50.0
100
AcDbCircle
 10
9842.903659832257
 20
4497.662302147015
 30
0.0
 40
7.0
100
AcDbArc
 50
181.0932240293156
 51
267.8377559869489
  0
ARC
  5
16F13
330
747D
100
AcDbEntity
  8
部品1
100
AcDbCircle
 10
9832.703527457056
 20
4508.054545529495
 30
0.0
 40
3.0
100
AcDbArc
 50
1.093224029315636
 51
80.18775403169765
  0
ARC
  5
16F14
330
747D
100
AcDbEntity
  8
部品1
100
AcDbCircle
 10
9827.930853859449
 20
4600.920323729615
 30
0.0
 40
3.0
100
AcDbArc
 50
1.093224029315636
 51
80.18775403169765
  0
ARC
  5
16F15
330
747D
100
AcDbEntity
  8
部品1
100
AcDbCircle
 10
9828.561408262471
 20
4604.566198267012
 30
0.0
 40
0.7
100
AcDbArc
 50
181.0932240292114
 51
260.1877540314855
  0
ARC
  5
16F16
330
747D
100
AcDbEntity
  8
部品1
100
AcDbCircle
 10
9833.334081860082
 20
4511.700420066893
 30
0.0
 40
0.7
100
AcDbArc
 50
181.0932240292114
 51
260.1877540314855
  0
LINE
  5
16F17
330
747D
100
AcDbEntity
  8
部品1
 48
50.0
100
AcDbLine
 10
13016.51089279942
 20
4568.827413382209
 30
0.0
 11
13014.48027160845
 21
4548.882372124428
 31
0.0
  0
LINE
  5
16F18
330
747D
100
AcDbEntity
  8
部品1
 48
50.0
100
AcDbLine
 10
13011.12770512396
 20
4545.57173805152
 30
0.0
 11
13003.62092585913
 21
4471.839117306507
 31
0.0
  0
LINE
  5
16F19
330
747D
100
AcDbEntity
  8
部品1
 48
50.0
100
AcDbLine
 10
13000.26835937464
 20
4468.528483233596
 30
0.0
 11
12999.1887963349
 21
4457.924866240037
 31
0.0
  0
ARC
  5
16F1A
330
747D
100
AcDbEntity
  8
部品1
 48
50.0
100
AcDbCircle
 10
13009.54689223466
 20
4569.536424054983
 30
0.0
 40
7.0
100
AcDbArc
 50
354.1866997665532
 51
87.03587545283093
  0
ARC
  5
16F1B
330
747D
100
AcDbEntity
  8
部品1
 48
50.0
100
AcDbCircle
 10
12992.22479577015
 20
4458.63387691281
 30
0.0
 40
7.0
100
AcDbArc
 50
267.8377559869489
 51
354.1866997665532
  0
ARC
  5
16F1C
330
747D
100
AcDbEntity
  8
部品1
100
AcDbCircle
 10
13003.25293104525
 20
4468.224621516692
 30
0.0
 40
3.0
100
AcDbArc
 50
95.0921697642102
 51
174.1866997665532
  0
ARC
  5
16F1D
330
747D
100
AcDbEntity
  8
部品1
100
AcDbCircle
 10
13014.11227679458
 20
4545.267876334616
 30
0.0
 40
3.0
100
AcDbArc
 50
95.0921697642102
 51
174.1866997665532
  0
ARC
  5
16F1E
330
747D
100
AcDbEntity
  8
部品1
100
AcDbCircle
 10
13013.78387155198
 20
4548.953273191705
 30
0.0
 40
0.7
100
AcDbArc
 50
275.0921697642102
 51
354.1866997665532
  0
ARC
  5
16F1F
330
747D
100
AcDbEntity
  8
部品1
100
AcDbCircle
 10
13002.92452580265
 20
4471.910018373782
 30
0.0
 40
0.7
100
AcDbArc
 50
275.0921697642102
 51
354.1866997667606
  0
LINE
  5
16F20
330
747D
100
AcDbEntity
  8
部品1
100
AcDbLine
 10
11265.81026251223
 20
4758.090649071007
 30
0.0
 11
11591.26527615526
 21
4740.572590112146
 31
0.0
  0
LINE
  5
16F21
330
747D
100
AcDbEntity
  8
部品1
100
AcDbLine
 10
11622.29698998871
 20
4397.88626110799
 30
0.0
 11
11622.29698998871
 21
2307.886261107991
 31
0.0
  0
LINE
  5
16F22
330
747D
100
AcDbEntity
  8
細線
 48
50.0
100
AcDbLine
 10
11699.79698998871
 20
4397.88626110799
 30
0.0
 11
11699.79698998871
 21
2307.886261107991
 31
0.0
  0
LINE
  5
16F23
330
747D
100
AcDbEntity
  8
細線
 48
50.0
100
AcDbLine
 10
11684.79698998871
 20
4397.88626110799
 30
0.0
 11
11684.79698998871
 21
2307.886261107991
 31
0.0
  0
LINE
  5
16F24
330
747D
100
AcDbEntity
  8
細線
 48
50.0
100
AcDbLine
 10
11824.79698998871
 20
4397.88626110799
 30
0.0
 11
11824.79698998871
 21
2307.886261107991
 31
0.0
  0
LINE
  5
16F25
330
747D
100
AcDbEntity
  8
細線
 48
50.0
100
AcDbLine
 10
11839.79698998871
 20
4397.88626110799
 30
0.0
 11
11839.79698998871
 21
2307.886261107991
 31
0.0
  0
LINE
  5
16F26
330
747D
100
AcDbEntity
  8
細線
 48
50.0
100
AcDbLine
 10
11979.79698998871
 20
4397.88626110799
 30
0.0
 11
11979.79698998871
 21
2307.886261107991
 31
0.0
  0
LINE
  5
16F27
330
747D
100
AcDbEntity
  8
細線
 48
50.0
100
AcDbLine
 10
11964.79698998871
 20
4397.88626110799
 30
0.0
 11
11964.79698998871
 21
2307.886261107991
 31
0.0
  0
DIMENSION
  5
16F28
330
747D
100
AcDbEntity
  8
寸法
100
AcDbDimension
  2
*D18
 10
13642.22414796084
 20
4577.886261107991
 30
0.0
 11
13542.21233693721
 21
3417.886261107993
 31
0.0
 70
    32
 71
     5
 42
2320.0
  3
INABA_S40G
100
AcDbAlignedDimension
 13
12937.29698998871
 23
2257.886261107991
 33
0.0
 14
13017.29698998871
 24
4577.886261107991
 34
0.0
 50
90.0
100
AcDbRotatedDimension
1001
ACAD
1000
DSTYLE
1002
{
1070
   174
1070
     0
1070
   272
1070
     1
1070
   288
1070
     0
1070
   341
1005
0
1002
}
  0
DIMENSION
  5
16F29
330
747D
100
AcDbEntity
  8
寸法
100
AcDbDimension
  2
*D19
 10
8743.546860805455
 20
4632.886261107989
 30
0.0
 11
8643.53504978183
 21
3445.386261107989
 31
0.0
 70
    32
 71
     5
 42
2375.000000000005
  3
INABA_S40G
100
AcDbAlignedDimension
 13
9887.296989988714
 23
2257.886261107984
 33
0.0
 14
9827.296989988715
 24
4632.886261107989
 34
0.0
 50
90.0
100
AcDbRotatedDimension
1001
ACAD
1000
DSTYLE
1002
{
1070
   174
1070
     0
1070
   272
1070
     1
1070
   288
1070
     0
1070
   341
1005
0
1002
}
  0
DIMENSION
  5
16F2A
330
747D
100
AcDbEntity
  8
寸法
100
AcDbDimension
  2
*D20
 10
9043.546860805454
 20
2307.886261107984
 30
0.0
 11
8943.535049781834
 21
3352.886261107987
 31
0.0
 70
    32
 71
     5
 42
2090.000000000001
  3
INABA_S40G
100
AcDbAlignedDimension
 13
9887.296989988714
 23
4397.886261107986
 33
0.0
 14
9887.296989988714
 24
2307.886261107984
 34
0.0
 50
90.0
100
AcDbRotatedDimension
1001
ACAD
1000
DSTYLE
1002
{
1070
   174
1070
     0
1070
   272
1070
     1
1070
   288
1070
     0
1070
   341
1005
0
1002
}
  0
LINE
  5
16F2F
330
747D
100
AcDbEntity
  8
破線
 48
5.0
100
AcDbLine
 10
9887.296989988719
 20
2157.886261107989
 30
0.0
 11
9887.296989988719
 21
1907.886261107989
 31
0.0
  0
LINE
  5
16F30
330
747D
100
AcDbEntity
  8
破線
 48
5.0
100
AcDbLine
 10
9942.296989988719
 20
2157.886261107989
 30
0.0
 11
9942.296989988719
 21
1907.886261107989
 31
0.0
  0
LINE
  5
16F31
330
747D
100
AcDbEntity
  8
破線
 48
5.0
100
AcDbLine
 10
9887.296989988719
 20
1907.886261107989
 30
0.0
 11
9942.296989988713
 21
1907.886261107989
 31
0.0
  0
LINE
  5
16F32
330
747D
100
AcDbEntity
  8
部品1
100
AcDbLine
 10
9887.296989988719
 20
2257.886261107989
 30
0.0
 11
9494.29977577987
 21
2157.886261107989
 31
0.0
  0
TEXT
  5
16F75
330
747D
100
AcDbEntity
  8
文字
 62
     7
 48
50.0
100
AcDbText
 10
14528.81784699908
 20
483.8967129911416
 30
0.0
 40
160.0
  1
FXN-2630H
  7
MSGOTHIC
100
AcDbText
  0
DIMENSION
  5
16F76
330
747D
100
AcDbEntity
  8
寸法
 48
50.0
100
AcDbDimension
  2
*D21
 10
4566.461099046288
 20
5038.6125328399
 30
0.0
 11
5881.461099046288
 21
5038.6125328399
 31
0.0
 70
   160
  1
柱外寸法<>
 71
     5
 42
2630.0
  3
INABA_S40G
100
AcDbAlignedDimension
 13
7196.461099046288
 23
4632.886261107995
 33
0.0
 14
4566.461099046288
 24
4632.886261107997
 34
0.0
100
AcDbRotatedDimension
  0
DIMENSION
  5
16F77
330
747D
100
AcDbEntity
  8
寸法
 48
50.0
100
AcDbDimension
  2
*D22
 10
7246.461099046284
 20
5238.52145405399
 30
0.0
 11
5881.461099046286
 21
5238.52145405399
 31
0.0
 70
   160
 71
     5
 42
2729.999999999997
  3
INABA_S40G
100
AcDbAlignedDimension
 13
4516.461099046288
 23
4632.886261107995
 33
0.0
 14
7246.461099046284
 24
4632.886261107993
 34
0.0
100
AcDbRotatedDimension
  0
DIMENSION
  5
16F78
330
747D
100
AcDbEntity
  8
寸法
 48
50.0
100
AcDbDimension
  2
*D23
 10
4516.461099046288
 20
5038.6125328399
 30
0.0
 11
4202.97581767204
 21
5038.6125328399
 31
0.0
 70
   160
 71
     5
 42
50.0
  3
INABA_S40G
100
AcDbAlignedDimension
 13
4566.461099046288
 23
4632.886261107997
 33
0.0
 14
4516.461099046288
 24
4632.886261107995
 34
0.0
100
AcDbRotatedDimension
1001
ACAD
1000
DSTYLE
1002
{
1002
}
  0
LINE
  5
16FA5
330
747D
100
AcDbEntity
  8
部品1
100
AcDbLine
 10
4516.880760061618
 20
4625.489735712755
 30
0.0
 11
4518.014157393967
 21
4605.513607730156
 31
0.0
  0
LINE
  5
16FA6
330
747D
100
AcDbEntity
  8
部品1
100
AcDbLine
 10
4529.451177715544
 20
4509.856200563095
 30
0.0
 11
4530.096083522653
 21
4498.489735712755
 31
0.0
  0
LINE
  5
16FA7
330
747D
100
AcDbEntity
  8
部品1
100
AcDbLine
 10
4521.215147190696
 20
4602.056200563098
 30
0.0
 11
4526.250187918807
 21
4513.313607730153
 31
0.0
  0
ARC
  5
16FA8
330
747D
100
AcDbEntity
  8
部品1
 48
50.0
100
AcDbCircle
 10
4518.219964294511
 20
4601.886261107996
 30
0.0
 40
3.0
100
AcDbArc
 50
3.247342790337682
 51
82.34187279263654
  0
ARC
  5
16FA9
330
747D
100
AcDbEntity
  8
部品1
 48
50.0
100
AcDbCircle
 10
4526.455994819354
 20
4509.686261107992
 30
0.0
 40
3.0
100
AcDbArc
 50
3.247342790337682
 51
82.34187279263654
  0
ARC
  5
16FAA
330
747D
100
AcDbEntity
  8
部品1
 48
50.0
100
AcDbCircle
 10
4526.949063927915
 20
4513.353260269678
 30
0.0
 40
0.7
100
AcDbArc
 50
183.2473427902922
 51
262.3418727926365
  0
ARC
  5
16FAB
330
747D
100
AcDbEntity
  8
部品1
 48
50.0
100
AcDbCircle
 10
4518.713033403075
 20
4605.55326026968
 30
0.0
 40
0.7
100
AcDbArc
 50
183.2473427903897
 51
262.3418727926365
  0
ARC
  5
16FAC
330
747D
100
AcDbEntity
  8
部品1
100
AcDbCircle
 10
4537.084843613751
 20
4498.886261107997
 30
0.0
 40
7.0
100
AcDbArc
 50
183.2473427903377
 51
270.0
  0
ARC
  5
16FAD
330
747D
100
AcDbEntity
  8
部品1
100
AcDbCircle
 10
4523.869520152717
 20
4625.886261107995
 30
0.0
 40
7.0
100
AcDbArc
 50
90.0
 51
183.2473427903377
  0
LINE
  5
16FAE
330
747D
100
AcDbEntity
  8
細線
 48
50.0
100
AcDbLine
 10
4549.461099046288
 20
4632.886261107994
 30
0.0
 11
4549.461099046288
 21
4491.886261107995
 31
0.0
  0
LINE
  5
16FAF
330
747D
100
AcDbEntity
  8
細線
 48
50.0
100
AcDbLine
 10
7236.185530299987
 20
4512.686261107987
 30
0.0
 11
4526.736667792558
 21
4512.686261107996
 31
0.0
  0
LINE
  5
16FB0
330
747D
100
AcDbEntity
  8
細線
 48
50.0
100
AcDbLine
 10
7244.421560824853
 20
4604.886261107997
 30
0.0
 11
4518.500637267729
 21
4604.886261107993
 31
0.0
  0
LINE
  5
16FB1
330
747D
100
AcDbEntity
  8
部品1
 48
50.0
100
AcDbLine
 10
7225.837354478821
 20
4491.886261107996
 30
0.0
 11
4537.084843613751
 21
4491.886261107996
 31
0.0
  0
LINE
  5
16FB2
330
747D
100
AcDbEntity
  8
部品1
 48
50.0
100
AcDbLine
 10
7239.052677939856
 20
4632.886261107993
 30
0.0
 11
4523.869520152717
 21
4632.886261107997
 31
0.0
  0
LINE
  5
16FB3
330
747D
100
AcDbEntity
  8
部品1
100
AcDbLine
 10
4566.461099046284
 20
4397.88626110799
 30
0.0
 11
7196.461099046285
 21
4397.886261107988
 31
0.0
  0
DIMENSION
  5
16FB4
330
747D
100
AcDbEntity
  8
寸法
 48
50.0
100
AcDbDimension
  2
*D24
 10
7196.461099046288
 20
5038.6125328399
 30
0.0
 11
7559.946380420524
 21
5038.6125328399
 31
0.0
 70
   160
 71
     5
 42
49.99999999999636
  3
INABA_S40G
100
AcDbAlignedDimension
 13
7246.461099046284
 23
4632.886261107993
 33
0.0
 14
7196.461099046288
 24
4632.886261107995
 34
0.0
100
AcDbRotatedDimension
  0
ARC
  5
16FB5
330
747D
100
AcDbEntity
  8
部品1
100
AcDbCircle
 10
7239.052677939856
 20
4625.886261107995
 30
0.0
 40
7.0
100
AcDbArc
 50
356.7526572096623
 51
90.0
  0
ARC
  5
16FB6
330
747D
100
AcDbEntity
  8
部品1
100
AcDbCircle
 10
7225.837354478821
 20
4498.886261107997
 30
0.0
 40
7.0
100
AcDbArc
 50
270.0
 51
356.7526572096623
  0
ARC
  5
16FB7
330
747D
100
AcDbEntity
  8
部品1
 48
50.0
100
AcDbCircle
 10
7244.209164689497
 20
4605.55326026968
 30
0.0
 40
0.7
100
AcDbArc
 50
277.6581272073635
 51
356.7526572096103
  0
ARC
  5
16FB8
330
747D
100
AcDbEntity
  8
部品1
 48
50.0
100
AcDbCircle
 10
7235.973134164656
 20
4513.353260269678
 30
0.0
 40
0.7
100
AcDbArc
 50
277.6581272073635
 51
356.7526572097079
  0
ARC
  5
16FB9
330
747D
100
AcDbEntity
  8
部品1
 48
50.0
100
AcDbCircle
 10
7236.466203273218
 20
4509.686261107992
 30
0.0
 40
3.0
100
AcDbArc
 50
97.65812720736347
 51
176.7526572096623
  0
ARC
  5
16FBA
330
747D
100
AcDbEntity
  8
部品1
 48
50.0
100
AcDbCircle
 10
7244.702233798061
 20
4601.886261107996
 30
0.0
 40
3.0
100
AcDbArc
 50
97.65812720736347
 51
176.7526572096623
  0
LINE
  5
16FBB
330
747D
100
AcDbEntity
  8
部品1
100
AcDbLine
 10
7241.707050901876
 20
4602.056200563098
 30
0.0
 11
7236.672010173764
 21
4513.313607730153
 31
0.0
  0
LINE
  5
16FBC
330
747D
100
AcDbEntity
  8
部品1
100
AcDbLine
 10
7233.471020377028
 20
4509.856200563095
 30
0.0
 11
7232.82611456992
 21
4498.489735712755
 31
0.0
  0
LINE
  5
16FBD
330
747D
100
AcDbEntity
  8
細線
 48
50.0
100
AcDbLine
 10
7213.461099046284
 20
4632.886261107994
 30
0.0
 11
7213.461099046284
 21
4491.886261107995
 31
0.0
  0
LINE
  5
16FBE
330
747D
100
AcDbEntity
  8
部品1
100
AcDbLine
 10
7246.041438030954
 20
4625.489735712755
 30
0.0
 11
7244.908040698605
 21
4605.513607730156
 31
0.0
  0
LINE
  5
1732C
330
747D
100
AcDbEntity
  8
補助
  6
PHANTOM
 62
   230
 48
50.0
100
AcDbLine
 10
140.0
 20
0.0
 30
0.0
 11
139.9999999999995
 21
11409.6
 31
0.0
  0
DIMENSION
  5
1768B
330
747D
100
AcDbEntity
  8
寸法
 48
50.0
100
AcDbDimension
  2
*D27
 10
7484.00420136803
 20
4205.886261107989
 30
0.0
 11
7384.00420136803
 21
3231.886261107991
 31
0.0
 70
    32
  1
有効開口部高サ <>
 71
     5
 42
1948.0
  3
INABA_S40G
100
AcDbAlignedDimension
 13
7196.461099046285
 23
2257.886261107989
 33
0.0
 14
7196.461099046285
 24
4205.886261107989
 34
0.0
 50
90.0
100
AcDbRotatedDimension
  0
DIMENSION
  5
1768C
330
747D
100
AcDbEntity
  8
寸法
 48
50.0
100
AcDbDimension
  2
*D28
 10
7484.00420136803
 20
4232.88626110799
 30
0.0
 11
7624.174024614396
 21
4233.853460947648
 31
0.0
 70
   160
 71
     5
 42
27.00000000000091
  3
INABA_S40G
100
AcDbAlignedDimension
 13
7196.461099046285
 23
4205.886261107989
 33
0.0
 14
7196.461099046283
 24
4232.88626110799
 34
0.0
 50
90.0
100
AcDbRotatedDimension
1001
ACAD
1000
DSTYLE
1002
{
1070
   279
1070
     2
1002
}
  0
DIMENSION
  5
1768D
330
747D
100
AcDbEntity
  8
寸法
 48
50.0
100
AcDbDimension
  2
*D29
 10
7484.004201368032
 20
4397.88626110799
 30
0.0
 11
7484.00420136803
 21
4636.371542482229
 31
0.0
 70
   160
 71
     5
 42
164.9999999999991
  3
INABA_S40G
100
AcDbAlignedDimension
 13
7196.461099046283
 23
4232.88626110799
 33
0.0
 14
7196.461099046285
 24
4397.88626110799
 34
0.0
 50
90.0
100
AcDbRotatedDimension
1001
ACAD
1000
DSTYLE
1002
{
1002
}
  0
TEXT
  5
177CB
330
747D
100
AcDbEntity
  8
文字
 62
     7
 48
50.0
100
AcDbText
 10
15022.63965474517
 20
10760.01374588372
 30
0.0
 40
100.0
  1
F12         1.0,1.2
  7
STYLE1
100
AcDbText
  0
LINE
  5
177CD
330
747D
100
AcDbEntity
  8
仕様書枠
 48
50.0
100
AcDbLine
 10
16307.19999999999
 20
8859.600000000005
 30
0.0
 11
13127.2
 21
8859.600000000005
 31
0.0
  0
TEXT
  5
177DA
330
747D
100
AcDbEntity
  8
文字
 62
     7
 48
50.0
100
AcDbText
 10
15022.63965474516
 20
9230.013745883727
 30
0.0
 40
100.0
  1
F12            0.7
  7
STYLE1
100
AcDbText
  0
LINE
  5
178CF
330
747D
100
AcDbEntity
  8
部品1
100
AcDbLine
 10
6721.46109904629
 20
10226.05573240946
 30
0.0
 11
6721.46109904629
 21
10198.05573240946
 31
0.0
  0
ARC
  5
17973
330
747D
100
AcDbEntity
  8
部品1
 48
0.01
100
AcDbCircle
 10
6408.461099046288
 20
4430.386261107989
 30
0.0
 40
2.0
100
AcDbArc
 50
180.0
 51
270.0
  0
ARC
  5
17974
330
747D
100
AcDbEntity
  8
部品1
 48
0.01
100
AcDbCircle
 10
6408.461099046284
 20
4461.88626110799
 30
0.0
 40
2.0
100
AcDbArc
 50
90.0
 51
180.0
  0
ARC
  5
17975
330
747D
100
AcDbEntity
  8
部品1
 48
0.01
100
AcDbCircle
 10
6584.461099046284
 20
4430.386261107989
 30
0.0
 40
2.0
100
AcDbArc
 50
270.0
 51
0.0
  0
ARC
  5
17976
330
747D
100
AcDbEntity
  8
部品1
 48
0.01
100
AcDbCircle
 10
6584.461099046284
 20
4461.88626110799
 30
0.0
 40
2.0
100
AcDbArc
 50
0.0
 51
90.0
  0
LINE
  5
17977
330
747D
100
AcDbEntity
  8
細線
100
AcDbLine
 10
6496.461099046287
 20
4434.386261107989
 30
0.0
 11
6422.461099046284
 21
4434.386261107989
 31
0.0
  0
LINE
  5
17978
330
747D
100
AcDbEntity
  8
細線
100
AcDbLine
 10
6496.461099046283
 20
4457.386261107989
 30
0.0
 11
6570.461099046283
 21
4457.386261107989
 31
0.0
  0
LINE
  5
17979
330
747D
100
AcDbEntity
  8
細線
100
AcDbLine
 10
6570.461099046283
 20
4434.386261107989
 30
0.0
 11
6496.461099046283
 21
4434.386261107989
 31
0.0
  0
LINE
  5
1797A
330
747D
100
AcDbEntity
  8
細線
100
AcDbLine
 10
6422.461099046284
 20
4457.386261107989
 30
0.0
 11
6496.461099046283
 21
4457.386261107989
 31
0.0
  0
LINE
  5
1797B
330
747D
100
AcDbEntity
  8
細線
100
AcDbLine
 10
6422.461099046284
 20
4434.386261107989
 30
0.0
 11
6422.461099046284
 21
4457.386261107989
 31
0.0
  0
LINE
  5
1797C
330
747D
100
AcDbEntity
  8
細線
100
AcDbLine
 10
6570.461099046283
 20
4457.386261107989
 30
0.0
 11
6570.461099046283
 21
4434.386261107989
 31
0.0
  0
LINE
  5
1797D
330
747D
100
AcDbEntity
  8
部品1
 48
0.01
100
AcDbLine
 10
6406.461099046286
 20
4430.386261107989
 30
0.0
 11
6406.461099046284
 21
4461.88626110799
 31
0.0
  0
LINE
  5
1797E
330
747D
100
AcDbEntity
  8
部品1
 48
0.01
100
AcDbLine
 10
6584.461099046284
 20
4428.38626110799
 30
0.0
 11
6408.461099046288
 21
4428.38626110799
 31
0.0
  0
LINE
  5
1797F
330
747D
100
AcDbEntity
  8
部品1
 48
0.01
100
AcDbLine
 10
6586.461099046283
 20
4461.88626110799
 30
0.0
 11
6586.461099046283
 21
4430.386261107989
 31
0.0
  0
LINE
  5
17980
330
747D
100
AcDbEntity
  8
部品1
 48
0.01
100
AcDbLine
 10
6408.461099046284
 20
4463.886261107989
 30
0.0
 11
6584.461099046284
 21
4463.886261107989
 31
0.0
  0
LINE
  5
17981
330
747D
100
AcDbEntity
  8
細線
100
AcDbLine
 10
6570.461099046283
 20
4451.386261107989
 30
0.0
 11
6496.461099046283
 21
4451.386261107989
 31
0.0
  0
LINE
  5
17982
330
747D
100
AcDbEntity
  8
細線
100
AcDbLine
 10
6570.461099046283
 20
4445.386261107989
 30
0.0
 11
6496.461099046283
 21
4445.386261107989
 31
0.0
  0
LINE
  5
17983
330
747D
100
AcDbEntity
  8
細線
100
AcDbLine
 10
6570.461099046287
 20
4439.38626110799
 30
0.0
 11
6496.461099046283
 21
4439.38626110799
 31
0.0
  0
LINE
  5
17984
330
747D
100
AcDbEntity
  8
細線
100
AcDbLine
 10
6570.461099046283
 20
4451.386261107989
 30
0.0
 11
6501.461099046284
 21
4451.386261107989
 31
0.0
  0
LINE
  5
17985
330
747D
100
AcDbEntity
  8
細線
100
AcDbLine
 10
6422.461099046287
 20
4451.386261107989
 30
0.0
 11
6496.461099046283
 21
4451.386261107989
 31
0.0
  0
LINE
  5
17986
330
747D
100
AcDbEntity
  8
細線
100
AcDbLine
 10
6422.461099046287
 20
4439.38626110799
 30
0.0
 11
6496.461099046283
 21
4439.38626110799
 31
0.0
  0
LINE
  5
17987
330
747D
100
AcDbEntity
  8
細線
100
AcDbLine
 10
6422.461099046287
 20
4445.386261107989
 30
0.0
 11
6496.461099046283
 21
4445.386261107989
 31
0.0
  0
LINE
  5
17988
330
747D
100
AcDbEntity
  8
細線
100
AcDbLine
 10
6496.461099046283
 20
4457.386261107989
 30
0.0
 11
6496.461099046287
 21
4434.386261107989
 31
0.0
  0
LINE
  5
17989
330
747D
100
AcDbEntity
  8
細線
100
AcDbLine
 10
5266.461099046287
 20
4457.386261107989
 30
0.0
 11
5266.461099046283
 21
4434.386261107989
 31
0.0
  0
LINE
  5
1798A
330
747D
100
AcDbEntity
  8
細線
100
AcDbLine
 10
5340.461099046283
 20
4445.386261107989
 30
0.0
 11
5266.461099046287
 21
4445.386261107989
 31
0.0
  0
LINE
  5
1798B
330
747D
100
AcDbEntity
  8
細線
100
AcDbLine
 10
5340.461099046283
 20
4439.38626110799
 30
0.0
 11
5266.461099046287
 21
4439.38626110799
 31
0.0
  0
LINE
  5
1798C
330
747D
100
AcDbEntity
  8
細線
100
AcDbLine
 10
5340.461099046283
 20
4451.386261107989
 30
0.0
 11
5266.461099046287
 21
4451.386261107989
 31
0.0
  0
LINE
  5
1798D
330
747D
100
AcDbEntity
  8
細線
100
AcDbLine
 10
5192.461099046287
 20
4451.386261107989
 30
0.0
 11
5261.461099046287
 21
4451.386261107989
 31
0.0
  0
LINE
  5
1798E
330
747D
100
AcDbEntity
  8
細線
100
AcDbLine
 10
5192.461099046283
 20
4439.38626110799
 30
0.0
 11
5266.461099046287
 21
4439.38626110799
 31
0.0
  0
LINE
  5
1798F
330
747D
100
AcDbEntity
  8
細線
100
AcDbLine
 10
5192.461099046287
 20
4445.386261107989
 30
0.0
 11
5266.461099046287
 21
4445.386261107989
 31
0.0
  0
LINE
  5
17990
330
747D
100
AcDbEntity
  8
細線
100
AcDbLine
 10
5192.461099046287
 20
4451.386261107989
 30
0.0
 11
5266.461099046287
 21
4451.386261107989
 31
0.0
  0
LINE
  5
17991
330
747D
100
AcDbEntity
  8
部品1
 48
0.01
100
AcDbLine
 10
5354.461099046287
 20
4463.886261107989
 30
0.0
 11
5178.461099046288
 21
4463.886261107989
 31
0.0
  0
LINE
  5
17992
330
747D
100
AcDbEntity
  8
部品1
 48
0.01
100
AcDbLine
 10
5176.461099046287
 20
4461.88626110799
 30
0.0
 11
5176.461099046287
 21
4430.386261107989
 31
0.0
  0
LINE
  5
17993
330
747D
100
AcDbEntity
  8
部品1
 48
0.01
100
AcDbLine
 10
5178.461099046288
 20
4428.38626110799
 30
0.0
 11
5354.461099046283
 21
4428.38626110799
 31
0.0
  0
LINE
  5
17994
330
747D
100
AcDbEntity
  8
部品1
 48
0.01
100
AcDbLine
 10
5356.461099046283
 20
4430.386261107989
 30
0.0
 11
5356.461099046287
 21
4461.88626110799
 31
0.0
  0
LINE
  5
17995
330
747D
100
AcDbEntity
  8
細線
100
AcDbLine
 10
5192.461099046287
 20
4457.386261107989
 30
0.0
 11
5192.461099046287
 21
4434.386261107989
 31
0.0
  0
LINE
  5
17996
330
747D
100
AcDbEntity
  8
細線
100
AcDbLine
 10
5340.461099046287
 20
4434.386261107989
 30
0.0
 11
5340.461099046287
 21
4457.386261107989
 31
0.0
  0
LINE
  5
17997
330
747D
100
AcDbEntity
  8
細線
100
AcDbLine
 10
5340.461099046287
 20
4457.386261107989
 30
0.0
 11
5266.461099046287
 21
4457.386261107989
 31
0.0
  0
LINE
  5
17998
330
747D
100
AcDbEntity
  8
細線
100
AcDbLine
 10
5192.461099046287
 20
4434.386261107989
 30
0.0
 11
5266.461099046287
 21
4434.386261107989
 31
0.0
  0
LINE
  5
17999
330
747D
100
AcDbEntity
  8
細線
100
AcDbLine
 10
5266.461099046287
 20
4457.386261107989
 30
0.0
 11
5192.461099046287
 21
4457.386261107989
 31
0.0
  0
LINE
  5
1799A
330
747D
100
AcDbEntity
  8
細線
100
AcDbLine
 10
5266.461099046283
 20
4434.386261107989
 30
0.0
 11
5340.461099046287
 21
4434.386261107989
 31
0.0
  0
ARC
  5
1799B
330
747D
100
AcDbEntity
  8
部品1
 48
0.01
100
AcDbCircle
 10
5178.461099046288
 20
4461.88626110799
 30
0.0
 40
2.0
100
AcDbArc
 50
90.0
 51
180.0
  0
ARC
  5
1799C
330
747D
100
AcDbEntity
  8
部品1
 48
0.01
100
AcDbCircle
 10
5178.461099046288
 20
4430.386261107989
 30
0.0
 40
2.0
100
AcDbArc
 50
180.0
 51
270.0
  0
ARC
  5
1799D
330
747D
100
AcDbEntity
  8
部品1
 48
0.01
100
AcDbCircle
 10
5354.461099046287
 20
4461.88626110799
 30
0.0
 40
2.0
100
AcDbArc
 50
0.0
 51
90.0
  0
ARC
  5
1799E
330
747D
100
AcDbEntity
  8
部品1
 48
0.01
100
AcDbCircle
 10
5354.461099046283
 20
4430.386261107989
 30
0.0
 40
2.0
100
AcDbArc
 50
270.0
 51
0.0
  0
ARC
  5
1799F
330
747D
100
AcDbEntity
  8
細線
 48
50.0
100
AcDbCircle
 10
5581.461099046281
 20
2820.386261107989
 30
0.0
 40
15.0
100
AcDbArc
 50
90.0
 51
270.0
  0
ARC
  5
179A0
330
747D
100
AcDbEntity
  8
細線
 48
50.0
100
AcDbCircle
 10
5681.461099046281
 20
2820.386261107989
 30
0.0
 40
15.0
100
AcDbArc
 50
270.0
 51
90.0
  0
LINE
  5
179A1
330
747D
100
AcDbEntity
  8
細線
 48
50.0
100
AcDbLine
 10
5581.461099046281
 20
2835.38626110799
 30
0.0
 11
5681.461099046281
 21
2835.38626110799
 31
0.0
  0
LINE
  5
179A2
330
747D
100
AcDbEntity
  8
細線
 48
50.0
100
AcDbLine
 10
5681.461099046281
 20
2805.386261107989
 30
0.0
 11
5581.461099046281
 21
2805.386261107989
 31
0.0
  0
LINE
  5
179A3
330
747D
100
AcDbEntity
  8
細線
 48
50.0
100
AcDbLine
 10
6181.461099046281
 20
2805.386261107989
 30
0.0
 11
6081.461099046281
 21
2805.386261107989
 31
0.0
  0
LINE
  5
179A4
330
747D
100
AcDbEntity
  8
細線
 48
50.0
100
AcDbLine
 10
6081.461099046281
 20
2835.38626110799
 30
0.0
 11
6181.461099046281
 21
2835.38626110799
 31
0.0
  0
ARC
  5
179A5
330
747D
100
AcDbEntity
  8
細線
 48
50.0
100
AcDbCircle
 10
6081.461099046281
 20
2820.386261107989
 30
0.0
 40
15.0
100
AcDbArc
 50
90.0
 51
270.0
  0
ARC
  5
179A6
330
747D
100
AcDbEntity
  8
細線
 48
50.0
100
AcDbCircle
 10
6181.461099046281
 20
2820.386261107989
 30
0.0
 40
15.0
100
AcDbArc
 50
270.0
 51
90.0
  0
CIRCLE
  5
179A7
330
747D
100
AcDbEntity
  8
細線
 48
50.0
100
AcDbCircle
 10
5881.461099046281
 20
3145.38626110799
 30
0.0
 40
18.0
  0
ENDSEC
  0
SECTION
  2
OBJECTS
  0
DICTIONARY
  5
7471
330
0
100
AcDbDictionary
281
     1
  3
ACAD_COLOR
350
1675F
  3
ACAD_GROUP
350
7472
  3
ACAD_LAYOUT
350
16760
  3
ACAD_MATERIAL
350
1675E
  3
ACAD_MLINESTYLE
350
7473
  3
ACAD_PLOTSETTINGS
350
16761
  3
ACAD_PLOTSTYLENAME
350
1675C
  3
ACDBHEADERROUNDTRIPXREC
350
179E6
  3
AcDbVariableDictionary
350
168BB
  3
CONTENTDICTIONARY
350
E71C
  3
DRAWINGVARIABLESDICT
350
F3B9
  0
DICTIONARY
  5
16D27
330
7467
100
AcDbDictionary
280
     1
281
     1
  3
ACAD_LAYERSTATES
360
16D28
  0
DICTIONARY
  5
1675F
102
{ACAD_REACTORS
330
7471
102
}
330
7471
100
AcDbDictionary
281
     1
  0
DICTIONARY
  5
7472
102
{ACAD_REACTORS
330
7471
102
}
330
7471
100
AcDbDictionary
281
     1
  0
DICTIONARY
  5
16760
102
{ACAD_REACTORS
330
7471
102
}
330
7471
100
AcDbDictionary
281
     1
  3
Model
350
16762
  3
レイアウト1
350
16763
  0
DICTIONARY
  5
1675E
102
{ACAD_REACTORS
330
7471
102
}
330
7471
100
AcDbDictionary
281
     1
  0
DICTIONARY
  5
7473
102
{ACAD_REACTORS
330
7471
102
}
330
7471
100
AcDbDictionary
281
     1
  3
STANDARD
350
7480
  0
DICTIONARY
  5
16761
102
{ACAD_REACTORS
330
7471
102
}
330
7471
100
AcDbDictionary
281
     1
  0
ACDBDICTIONARYWDFLT
  5
1675C
102
{ACAD_REACTORS
330
7471
102
}
330
7471
100
AcDbDictionary
281
     1
  3
Normal
350
1675D
100
AcDbDictionaryWithDefault
340
1675D
  0
DICTIONARY
  5
179E6
102
{ACAD_REACTORS
330
7471
102
}
330
7471
100
AcDbDictionary
281
     1
  3
COLORDICT
350
179E8
  3
MATERIALDICT
350
179E7
  0
DICTIONARY
  5
168BB
102
{ACAD_REACTORS
330
7471
102
}
330
7471
100
AcDbDictionary
281
     1
  3
DIMASSOC
350
168BC
  3
PROJECTNAME
350
168BD
  0
DICTIONARY
  5
E71C
102
{ACAD_REACTORS
330
7471
102
}
330
7471
100
AcDbDictionary
281
     1
  0
DICTIONARY
  5
F3B9
102
{ACAD_REACTORS
330
7471
102
}
330
7471
100
AcDbDictionary
281
     1
1001
DRAWINGVARIABLESXDATA
1000
POLARMODE
1000
1
  0
DICTIONARY
  5
16D28
102
{ACAD_REACTORS
330
16D27
102
}
330
16D27
100
AcDbDictionary
281
     1
  0
LAYOUT
  5
16762
102
{ACAD_XDICTIONARY
360
179E9
102
}
102
{ACAD_REACTORS
330
16760
102
}
330
16760
100
AcDbPlotSettings
  1

  2
Canon iR C3880/C4580 LIPSLX
  4
A3
  6

 40
5.873749732971191
 41
5.873747825622558
 42
5.873748779296875
 43
5.873748779296875
 44
296.9259948730469
 45
419.9466552734374
 46
0.0
 47
0.0
 48
0.0
 49
0.0
140
0.0
141
0.0
142
1.0
143
40.0
 70
 11952
 72
     1
 73
     1
 74
     2
  7
inaba.ctb
 75
    24
147
0.025
148
0.0
149
0.0
100
AcDbLayout
  1
Model
 70
     1
 71
     0
 10
0.0
 20
0.0
 11
12.0
 21
9.0
 12
0.0
 22
0.0
 32
0.0
 14
0.0
 24
0.0
 34
0.0
 15
0.0
 25
0.0
 35
0.0
146
0.0
 13
0.0
 23
0.0
 33
0.0
 16
1.0
 26
0.0
 36
0.0
 17
0.0
 27
1.0
 37
0.0
 76
     0
330
747D
  0
LAYOUT
  5
16763
102
{ACAD_XDICTIONARY
360
179EB
102
}
102
{ACAD_REACTORS
330
16760
102
}
330
16760
100
AcDbPlotSettings
  1

  2
EPSON LP-7000C
  4

  6

 40
0.0
 41
0.0
 42
0.0
 43
0.0
 44
0.0
 45
0.0
 46
0.0
 47
0.0
 48
0.0
 49
0.0
140
0.0
141
0.0
142
1.0
143
1.0
 70
   688
 72
     0
 73
     0
 74
     5
  7
inaba.ctb
 75
    16
147
1.0
148
0.0
149
0.0
100
AcDbLayout
  1
レイアウト1
 70
     0
 71
     1
 10
0.0
 20
0.0
 11
420.0
 21
297.0
 12
0.0
 22
0.0
 32
0.0
 14
1.000000000000000E+20
 24
1.000000000000000E+20
 34
1.000000000000000E+20
 15
-1.000000000000000E+20
 25
-1.000000000000000E+20
 35
-1.000000000000000E+20
146
0.0
 13
0.0
 23
0.0
 33
0.0
 16
1.0
 26
0.0
 36
0.0
 17
0.0
 27
1.0
 37
0.0
 76
     0
330
747A
  0
MLINESTYLE
  5
7480
102
{ACAD_REACTORS
330
7473
102
}
330
7473
100
AcDbMlineStyle
  2
STANDARD
 70
     0
  3

 62
     0
 51
90.0
 52
90.0
 71
     2
 49
0.5
 62
   256
  6
BYLAYER
 49
-0.5
 62
   256
  6
BYLAYER
  0
ACDBPLACEHOLDER
  5
1675D
102
{ACAD_REACTORS
330
1675C
102
}
330
1675C
  0
XRECORD
  5
179E8
102
{ACAD_REACTORS
330
179E6
102
}
330
179E6
100
AcDbXrecord
280
     1
340
1675F
  0
XRECORD
  5
179E7
102
{ACAD_REACTORS
330
179E6
102
}
330
179E6
100
AcDbXrecord
280
     1
340
1675E
  0
DICTIONARYVAR
  5
168BC
102
{ACAD_REACTORS
330
168BB
102
}
330
168BB
100
DictionaryVariables
280
     0
  1
1
  0
DICTIONARYVAR
  5
168BD
102
{ACAD_REACTORS
330
168BB
102
}
330
168BB
100
DictionaryVariables
280
     0
  1

  0
DICTIONARY
  5
179E9
330
16762
100
AcDbDictionary
280
     1
281
     1
  3
ACAD_XREC_ROUNDTRIP
360
179EA
  0
DICTIONARY
  5
179EB
330
16763
100
AcDbDictionary
280
     1
281
     1
  3
ACAD_XREC_ROUNDTRIP
360
179EC
  0
XRECORD
  5
179EA
102
{ACAD_REACTORS
330
179E9
102
}
330
179E9
100
AcDbXrecord
280
     1
102
SHADEPLOT
 70
     0
102
SHADEPLOTRESLEVEL
 70
     2
102
SHADEPLOTCUSTOMDPI
 70
   300
  0
XRECORD
  5
179EC
102
{ACAD_REACTORS
330
179EB
102
}
330
179EB
100
AcDbXrecord
280
     1
102
SHADEPLOT
 70
     0
102
SHADEPLOTRESLEVEL
 70
     2
102
SHADEPLOTCUSTOMDPI
 70
   300
  0
ENDSEC
  0
EOF
