  0
SECTION
  2
HEADER
  9
$ACADVER
  1
AC1015
  9
$ACADMAINTVER
 70
    20
  9
$DWGCODEPAGE
  3
ANSI_932
  9
$INSBASE
 10
0.0
 20
0.0
 30
0.0
  9
$EXTMIN
 10
139.9999999999995
 20
-0.0000000000000909
 30
0.0
  9
$EXTMAX
 10
16307.2
 20
11409.6
 30
0.0
  9
$LIMMIN
 10
0.0
 20
0.0
  9
$LIMMAX
 10
16800.0
 20
11880.0
  9
$ORTHOMODE
 70
     0
  9
$REGENMODE
 70
     1
  9
$FILLMODE
 70
     1
  9
$QTEXTMODE
 70
     0
  9
$MIRRTEXT
 70
     1
  9
$LTSCALE
 40
20.0
  9
$ATTMODE
 70
     1
  9
$TEXTSIZE
 40
4.0
  9
$TRACEWID
 40
1.0
  9
$TEXTSTYLE
  7
MSPゴシック
  9
$CLAYER
  8
寸法
  9
$CELTYPE
  6
BYLAYER
  9
$CECOLOR
 62
   256
  9
$CELTSCALE
 40
50.0
  9
$DISPSILH
 70
     0
  9
$DIMSCALE
 40
40.0
  9
$DIMASZ
 40
2.5
  9
$DIMEXO
 40
0.5
  9
$DIMDLI
 40
7.0
  9
$DIMRND
 40
0.0
  9
$DIMDLE
 40
0.0
  9
$DIMEXE
 40
1.5
  9
$DIMTP
 40
0.0
  9
$DIMTM
 40
0.0
  9
$DIMTXT
 40
3.0
  9
$DIMCEN
 40
0.0
  9
$DIMTSZ
 40
0.0
  9
$DIMTOL
 70
     0
  9
$DIMLIM
 70
     0
  9
$DIMTIH
 70
     0
  9
$DIMTOH
 70
     0
  9
$DIMSE1
 70
     0
  9
$DIMSE2
 70
     0
  9
$DIMTAD
 70
     3
  9
$DIMZIN
 70
     8
  9
$DIMBLK
  1

  9
$DIMASO
 70
     1
  9
$DIMSHO
 70
     1
  9
$DIMPOST
  1

  9
$DIMAPOST
  1

  9
$DIMALT
 70
     0
  9
$DIMALTD
 70
     2
  9
$DIMALTF
 40
0.0394
  9
$DIMLFAC
 40
1.0
  9
$DIMTOFL
 70
     1
  9
$DIMTVP
 40
0.0
  9
$DIMTIX
 70
     1
  9
$DIMSOXD
 70
     0
  9
$DIMSAH
 70
     1
  9
$DIMBLK1
  1
DOTSMALL
  9
$DIMBLK2
  1
DOTSMALL
  9
$DIMSTYLE
  2
INABA_S40G
  9
$DIMCLRD
 70
     0
  9
$DIMCLRE
 70
     0
  9
$DIMCLRT
 70
     7
  9
$DIMTFAC
 40
1.0
  9
$DIMGAP
 40
1.0
  9
$DIMJUST
 70
     0
  9
$DIMSD1
 70
     0
  9
$DIMSD2
 70
     0
  9
$DIMTOLJ
 70
     1
  9
$DIMTZIN
 70
     0
  9
$DIMALTZ
 70
     0
  9
$DIMALTTZ
 70
     0
  9
$DIMUPT
 70
     0
  9
$DIMDEC
 70
     1
  9
$DIMTDEC
 70
     4
  9
$DIMALTU
 70
     2
  9
$DIMALTTD
 70
     2
  9
$DIMTXSTY
  7
STYLE1
  9
$DIMAUNIT
 70
     0
  9
$DIMADEC
 70
     0
  9
$DIMALTRND
 40
0.0
  9
$DIMAZIN
 70
     0
  9
$DIMDSEP
 70
    46
  9
$DIMATFIT
 70
     3
  9
$DIMFRAC
 70
     0
  9
$DIMLDRBLK
  1

  9
$DIMLUNIT
 70
     2
  9
$DIMLWD
 70
    -2
  9
$DIMLWE
 70
    -2
  9
$DIMTMOVE
 70
     2
  9
$LUNITS
 70
     2
  9
$LUPREC
 70
     1
  9
$SKETCHINC
 40
1.0
  9
$FILLETRAD
 40
3.0
  9
$AUNITS
 70
     0
  9
$AUPREC
 70
     0
  9
$MENU
  1
acad
  9
$ELEVATION
 40
0.0
  9
$PELEVATION
 40
0.0
  9
$THICKNESS
 40
0.0
  9
$LIMCHECK
 70
     0
  9
$CHAMFERA
 40
0.0
  9
$CHAMFERB
 40
0.0
  9
$CHAMFERC
 40
0.0
  9
$CHAMFERD
 40
0.0
  9
$SKPOLY
 70
     0
  9
$TDCREATE
 40
2451368.612993866
  9
$TDUCREATE
 40
2451368.237993866
  9
$TDUPDATE
 40
2455569.647053311
  9
$TDUUPDATE
 40
2455569.272053310
  9
$TDINDWG
 40
0.8545041782
  9
$TDUSRTIMER
 40
0.8545041782
  9
$USRTIMER
 70
     1
  9
$ANGBASE
 50
0.0
  9
$ANGDIR
 70
     0
  9
$PDMODE
 70
     3
  9
$PDSIZE
 40
2.0
  9
$PLINEWID
 40
0.0
  9
$SPLFRAME
 70
     0
  9
$SPLINETYPE
 70
     6
  9
$SPLINESEGS
 70
     8
  9
$HANDSEED
  5
19DD6
  9
$SURFTAB1
 70
     6
  9
$SURFTAB2
 70
     6
  9
$SURFTYPE
 70
     6
  9
$SURFU
 70
     6
  9
$SURFV
 70
     6
  9
$UCSBASE
  2

  9
$UCSNAME
  2

  9
$UCSORG
 10
0.0
 20
0.0
 30
0.0
  9
$UCSXDIR
 10
1.0
 20
0.0
 30
0.0
  9
$UCSYDIR
 10
0.0
 20
1.0
 30
0.0
  9
$UCSORTHOREF
  2

  9
$UCSORTHOVIEW
 70
     0
  9
$UCSORGTOP
 10
0.0
 20
0.0
 30
0.0
  9
$UCSORGBOTTOM
 10
0.0
 20
0.0
 30
0.0
  9
$UCSORGLEFT
 10
0.0
 20
0.0
 30
0.0
  9
$UCSORGRIGHT
 10
0.0
 20
0.0
 30
0.0
  9
$UCSORGFRONT
 10
0.0
 20
0.0
 30
0.0
  9
$UCSORGBACK
 10
0.0
 20
0.0
 30
0.0
  9
$PUCSBASE
  2

  9
$PUCSNAME
  2

  9
$PUCSORG
 10
0.0
 20
0.0
 30
0.0
  9
$PUCSXDIR
 10
1.0
 20
0.0
 30
0.0
  9
$PUCSYDIR
 10
0.0
 20
1.0
 30
0.0
  9
$PUCSORTHOREF
  2

  9
$PUCSORTHOVIEW
 70
     0
  9
$PUCSORGTOP
 10
0.0
 20
0.0
 30
0.0
  9
$PUCSORGBOTTOM
 10
0.0
 20
0.0
 30
0.0
  9
$PUCSORGLEFT
 10
0.0
 20
0.0
 30
0.0
  9
$PUCSORGRIGHT
 10
0.0
 20
0.0
 30
0.0
  9
$PUCSORGFRONT
 10
0.0
 20
0.0
 30
0.0
  9
$PUCSORGBACK
 10
0.0
 20
0.0
 30
0.0
  9
$USERI1
 70
     0
  9
$USERI2
 70
     0
  9
$USERI3
 70
     0
  9
$USERI4
 70
     0
  9
$USERI5
 70
     0
  9
$USERR1
 40
0.0
  9
$USERR2
 40
0.0
  9
$USERR3
 40
0.0
  9
$USERR4
 40
0.0
  9
$USERR5
 40
0.0
  9
$WORLDVIEW
 70
     1
  9
$SHADEDGE
 70
     3
  9
$SHADEDIF
 70
    70
  9
$TILEMODE
 70
     1
  9
$MAXACTVP
 70
    16
  9
$PINSBASE
 10
0.0
 20
0.0
 30
0.0
  9
$PLIMCHECK
 70
     0
  9
$PEXTMIN
 10
1.000000000000000E+20
 20
1.000000000000000E+20
 30
1.000000000000000E+20
  9
$PEXTMAX
 10
-1.000000000000000E+20
 20
-1.000000000000000E+20
 30
-1.000000000000000E+20
  9
$PLIMMIN
 10
0.0
 20
0.0
  9
$PLIMMAX
 10
420.0
 20
297.0
  9
$UNITMODE
 70
     0
  9
$VISRETAIN
 70
     0
  9
$PLINEGEN
 70
     0
  9
$PSLTSCALE
 70
     0
  9
$TREEDEPTH
 70
  3020
  9
$CMLSTYLE
  2
STANDARD
  9
$CMLJUST
 70
     0
  9
$CMLSCALE
 40
1.0
  9
$PROXYGRAPHICS
 70
     1
  9
$MEASUREMENT
 70
     1
  9
$CELWEIGHT
370
    -1
  9
$ENDCAPS
280
     0
  9
$JOINSTYLE
280
     0
  9
$LWDISPLAY
290
     0
  9
$INSUNITS
 70
     0
  9
$HYPERLINKBASE
  1

  9
$STYLESHEET
  1
inaba.ctb
  9
$XEDIT
290
     1
  9
$CEPSNTYPE
380
     0
  9
$PSTYLEMODE
290
     1
  9
$FINGERPRINTGUID
  2
{0E4A3AB3-ADAA-44DC-861C-9525B65BB1EC}
  9
$VERSIONGUID
  2
{2A8CA599-4EAB-4E49-86AE-90450FBAA017}
  9
$EXTNAMES
290
     1
  9
$PSVPSCALE
 40
0.0
  9
$OLESTARTUP
290
     0
  0
ENDSEC
  0
SECTION
  2
CLASSES
  0
CLASS
  1
ACDBDICTIONARYWDFLT
  2
AcDbDictionaryWithDefault
  3
ObjectDBX Classes
 90
        0
280
     0
281
     0
  0
CLASS
  1
DICTIONARYVAR
  2
AcDbDictionaryVar
  3
ObjectDBX Classes
 90
        0
280
     0
281
     0
  0
CLASS
  1
ACDBPLACEHOLDER
  2
AcDbPlaceHolder
  3
ObjectDBX Classes
 90
        0
280
     0
281
     0
  0
CLASS
  1
LAYOUT
  2
AcDbLayout
  3
ObjectDBX Classes
 90
        0
280
     0
281
     0
  0
ENDSEC
  0
SECTION
  2
TABLES
  0
TABLE
  2
VPORT
  5
746D
330
0
100
AcDbSymbolTable
 70
     2
  0
VPORT
  5
19DCE
330
746D
100
AcDbSymbolTableRecord
100
AcDbViewportTableRecord
  2
*Active
 70
     0
 10
0.0
 20
0.0
 11
1.0
 21
1.0
 12
11720.03460912035
 22
5704.872900782047
 13
0.0
 23
0.0
 14
10.0
 24
10.0
 15
10.0
 25
10.0
 16
0.0
 26
0.0
 36
1.0
 17
0.0
 27
0.0
 37
0.0
 40
11513.2111641413
 41
2.234800838574423
 42
50.0
 43
0.0
 44
0.0
 50
0.0
 51
0.0
 71
     0
 72
     0
 73
     1
 74
     0
 75
     0
 76
     0
 77
     0
 78
     0
281
     0
 65
     1
110
0.0
120
0.0
130
0.0
111
1.0
121
0.0
131
0.0
112
0.0
122
1.0
132
0.0
 79
     0
146
0.0
  0
ENDTAB
  0
TABLE
  2
LTYPE
  5
746A
330
0
100
AcDbSymbolTable
 70
     3
  0
LTYPE
  5
7477
330
746A
100
AcDbSymbolTableRecord
100
AcDbLinetypeTableRecord
  2
BYBLOCK
 70
     0
  3

 72
    65
 73
     0
 40
0.0
  0
LTYPE
  5
7478
330
746A
100
AcDbSymbolTableRecord
100
AcDbLinetypeTableRecord
  2
BYLAYER
 70
     0
  3

 72
    65
 73
     0
 40
0.0
  0
LTYPE
  5
7479
330
746A
100
AcDbSymbolTableRecord
100
AcDbLinetypeTableRecord
  2
CONTINUOUS
 70
     0
  3
Solid line
 72
    65
 73
     0
 40
0.0
  0
LTYPE
  5
781A
330
746A
100
AcDbSymbolTableRecord
100
AcDbLinetypeTableRecord
  2
HIDDEN
 70
     0
  3
__ __ __ __ __ __ __ __ __ __ __ __ __ __ __ __
 72
    65
 73
     2
 40
0.375
 49
0.25
 74
     0
 49
-0.125
 74
     0
  0
LTYPE
  5
781B
330
746A
100
AcDbSymbolTableRecord
100
AcDbLinetypeTableRecord
  2
PHANTOM
 70
     0
  3
______  __  __  ______  __  __  ______  __  __ 
 72
    65
 73
     6
 40
2.5
 49
1.25
 74
     0
 49
-0.25
 74
     0
 49
0.25
 74
     0
 49
-0.25
 74
     0
 49
0.25
 74
     0
 49
-0.25
 74
     0
  0
ENDTAB
  0
TABLE
  2
LAYER
  5
7467
102
{ACAD_XDICTIONARY
360
1861E
102
}
330
0
100
AcDbSymbolTable
 70
    10
  0
LAYER
  5
7474
330
7467
100
AcDbSymbolTableRecord
100
AcDbLayerTableRecord
  2
0
 70
     0
 62
     7
  6
CONTINUOUS
370
    -3
390
17AE0
  0
LAYER
  5
DEB3
330
7467
100
AcDbSymbolTableRecord
100
AcDbLayerTableRecord
  2
寸法
 70
     0
 62
     4
  6
CONTINUOUS
370
    -3
390
17AE0
  0
LAYER
  5
DEB4
330
7467
100
AcDbSymbolTableRecord
100
AcDbLayerTableRecord
  2
部品1
 70
     0
 62
     7
  6
CONTINUOUS
370
    -3
390
17AE0
  0
LAYER
  5
DEB5
330
7467
100
AcDbSymbolTableRecord
100
AcDbLayerTableRecord
  2
補助
 70
     0
 62
    -1
  6
CONTINUOUS
370
    -3
390
17AE0
  0
LAYER
  5
DEB6
330
7467
100
AcDbSymbolTableRecord
100
AcDbLayerTableRecord
  2
文字
 70
     0
 62
     7
  6
CONTINUOUS
370
    -3
390
17AE0
  0
LAYER
  5
F255
330
7467
100
AcDbSymbolTableRecord
100
AcDbLayerTableRecord
  2
DEFPOINTS
 70
     0
 62
     7
  6
CONTINUOUS
290
     0
370
    -3
390
17AE0
  0
LAYER
  5
10B54
330
7467
100
AcDbSymbolTableRecord
100
AcDbLayerTableRecord
  2
仕様書枠
 70
     0
 62
   230
  6
CONTINUOUS
370
    -3
390
17AE0
  0
LAYER
  5
11729
330
7467
100
AcDbSymbolTableRecord
100
AcDbLayerTableRecord
  2
Ｇ．Ｌ
 70
     0
 62
    30
  6
CONTINUOUS
370
    -3
390
17AE0
  0
LAYER
  5
1173F
330
7467
100
AcDbSymbolTableRecord
100
AcDbLayerTableRecord
  2
細線
 70
     0
 62
     5
  6
CONTINUOUS
370
    -3
390
17AE0
  0
LAYER
  5
142E2
330
7467
100
AcDbSymbolTableRecord
100
AcDbLayerTableRecord
  2
破線
 70
     0
 62
     2
  6
HIDDEN
370
    -3
390
17AE0
  0
ENDTAB
  0
TABLE
  2
STYLE
  5
7468
330
0
100
AcDbSymbolTable
 70
     7
  0
STYLE
  5
7475
330
7468
100
AcDbSymbolTableRecord
100
AcDbTextStyleTableRecord
  2
STANDARD
 70
     0
 40
0.0
 41
1.0
 50
0.0
 71
     0
 42
4.0
  3
txt
  4
C:\AutoCAD LT\bigfont.shx
  0
STYLE
  5
763C
330
7468
100
AcDbSymbolTableRecord
100
AcDbTextStyleTableRecord
  2
MSMINCHO
 70
     0
 40
0.0
 41
1.0
 50
0.0
 71
     0
 42
1.199999999999999
  3
MS PMincho.ttf
  4

1001
ACAD
1000
MS PMincho
1071
    32786
  0
STYLE
  5
F706
330
7468
100
AcDbSymbolTableRecord
100
AcDbTextStyleTableRecord
  2
STYLE1
 70
     0
 40
0.0
 41
1.0
 50
0.0
 71
     0
 42
4.0
  3
isocp.shx
  4
bigfont.shx
  0
STYLE
  5
103BF
330
7468
100
AcDbSymbolTableRecord
100
AcDbTextStyleTableRecord
  2
STYLE2
 70
     0
 40
0.0
 41
1.0
 50
0.0
 71
     0
 42
100.0
  3
MS PGothic.ttf
  4

1001
ACAD
1000
MS PGothic
1071
    32818
  0
STYLE
  5
10BAA
330
7468
100
AcDbSymbolTableRecord
100
AcDbTextStyleTableRecord
  2
STYLE3
 70
     0
 40
0.0
 41
1.0
 50
0.0
 71
     0
 42
100.0
  3
DFPGothic-EB.ttf
  4

1001
ACAD
1000
DFPGothic-EB
1071
    32818
  0
STYLE
  5
11A15
330
7468
100
AcDbSymbolTableRecord
100
AcDbTextStyleTableRecord
  2
MSGOTHIC
 70
     0
 40
0.0
 41
1.0
 50
0.0
 71
     0
 42
3.5
  3
MS PGothic.ttf
  4

1001
ACAD
1000
MS PGothic
1071
    32818
  0
STYLE
  5
13E96
330
7468
100
AcDbSymbolTableRecord
100
AcDbTextStyleTableRecord
  2
MSPゴシック
 70
     0
 40
0.0
 41
1.0
 50
0.0
 71
     0
 42
4.0
  3
MS PGothic.ttf
  4

1001
ACAD
1000
MS PGothic
1071
    32818
  0
ENDTAB
  0
TABLE
  2
VIEW
  5
746B
330
0
100
AcDbSymbolTable
 70
     0
  0
ENDTAB
  0
TABLE
  2
UCS
  5
746C
330
0
100
AcDbSymbolTable
 70
     0
  0
ENDTAB
  0
TABLE
  2
APPID
  5
746E
330
0
100
AcDbSymbolTable
 70
     6
  0
APPID
  5
7476
330
746E
100
AcDbSymbolTableRecord
100
AcDbRegAppTableRecord
  2
ACAD
 70
     0
  0
APPID
  5
DEA9
330
746E
100
AcDbSymbolTableRecord
100
AcDbRegAppTableRecord
  2
CONTENTBLOCKICON
 70
     0
  0
APPID
  5
DEAA
330
746E
100
AcDbSymbolTableRecord
100
AcDbRegAppTableRecord
  2
CONTENTBLOCKDESCRIPTION
 70
     0
  0
APPID
  5
E71D
330
746E
100
AcDbSymbolTableRecord
100
AcDbRegAppTableRecord
  2
CONTENTTABDATA
 70
     0
  0
APPID
  5
E71E
330
746E
100
AcDbSymbolTableRecord
100
AcDbRegAppTableRecord
  2
CONTENTCURRENTTAB
 70
     0
  0
APPID
  5
F3BA
330
746E
100
AcDbSymbolTableRecord
100
AcDbRegAppTableRecord
  2
DRAWINGVARIABLESXDATA
 70
     0
  0
ENDTAB
  0
TABLE
  2
DIMSTYLE
  5
746F
330
0
100
AcDbSymbolTable
 70
     1
100
AcDbDimStyleTable
 71
     1
340
F71F
  0
DIMSTYLE
105
F71F
102
{ACAD_REACTORS
330
162CD
330
162CE
330
162CF
330
162D0
330
162E4
330
162E7
330
162EA
330
162EB
330
16301
330
16302
330
1631F
330
16320
330
16333
330
1659C
330
1659A
330
165E9
330
166DD
330
16913
330
17BC4
330
17BC3
330
17B87
330
17B88
330
17B86
330
17C47
330
17C46
330
18938
330
18939
330
1893A
330
188E5
330
188F4
330
18902
330
18903
330
18904
330
18908
330
19493
330
19492
330
19491
330
194E6
330
19725
330
19726
330
19727
102
}
330
746F
100
AcDbSymbolTableRecord
100
AcDbDimStyleTableRecord
  2
INABA_S40G
 70
     0
 40
40.0
 41
2.5
 42
0.5
 43
7.0
 44
1.5
 73
     0
 74
     0
 77
     3
 78
     8
140
3.0
141
0.0
143
0.0394
147
1.0
172
     1
173
     1
174
     1
178
     7
271
     1
340
F706
341
F770
343
F770
344
F770
  0
ENDTAB
  0
TABLE
  2
BLOCK_RECORD
  5
7466
330
0
100
AcDbSymbolTable
 70
    43
  0
BLOCK_RECORD
  5
747D
330
7466
100
AcDbSymbolTableRecord
100
AcDbBlockTableRecord
  2
*MODEL_SPACE
340
17AE5
  0
BLOCK_RECORD
  5
747A
330
7466
100
AcDbSymbolTableRecord
100
AcDbBlockTableRecord
  2
*PAPER_SPACE
340
17AE6
  0
BLOCK_RECORD
  5
F770
330
7466
100
AcDbSymbolTableRecord
100
AcDbBlockTableRecord
  2
_DOTSMALL
340
0
102
{BLKREFS
331
1998D
331
1998E
331
19996
331
19997
331
1999F
331
199A0
331
199AA
331
199AB
331
199B3
331
199B4
331
199BE
331
199BF
331
199C7
331
199C8
331
199D1
331
199D2
331
199DB
331
199DC
331
19A5A
331
19A5B
331
19A7A
331
19A7B
331
19AB4
331
19AB5
331
19B3A
331
19B3B
331
19B45
331
19B46
331
19B4F
331
19B50
331
19B5A
331
19B5B
331
19B64
331
19B65
331
19B78
331
19B79
331
19B84
331
19B85
331
19B8F
331
19B90
331
19B9F
331
19BA0
331
19BA8
331
19BA9
331
19BB3
331
19BB4
331
19BBE
331
19BBF
331
19BC7
331
19BC8
331
19BD3
331
19BD4
331
19BDC
331
19BDD
331
19BE7
331
19BE8
331
19BF9
331
19BFA
331
19C45
331
19C46
331
19C57
331
19C58
331
19C63
331
19C64
331
19C6D
331
19C6E
331
19C78
331
19C79
331
19C8D
331
19C8E
331
19C96
331
19C97
331
19C9F
331
19CA0
331
19CA8
331
19CA9
331
19CB1
331
19CB2
331
19DB1
331
19DB2
331
19DBA
331
19DBB
102
}
  0
BLOCK_RECORD
  5
16338
330
7466
100
AcDbSymbolTableRecord
100
AcDbBlockTableRecord
  2
*D1
340
0
  0
BLOCK_RECORD
  5
16344
330
7466
100
AcDbSymbolTableRecord
100
AcDbBlockTableRecord
  2
*D2
340
0
  0
BLOCK_RECORD
  5
16352
330
7466
100
AcDbSymbolTableRecord
100
AcDbBlockTableRecord
  2
*D3
340
0
  0
BLOCK_RECORD
  5
16360
330
7466
100
AcDbSymbolTableRecord
100
AcDbBlockTableRecord
  2
*D4
340
0
  0
BLOCK_RECORD
  5
16384
330
7466
100
AcDbSymbolTableRecord
100
AcDbBlockTableRecord
  2
*D5
340
0
  0
BLOCK_RECORD
  5
1638F
330
7466
100
AcDbSymbolTableRecord
100
AcDbBlockTableRecord
  2
*D6
340
0
  0
BLOCK_RECORD
  5
1639B
330
7466
100
AcDbSymbolTableRecord
100
AcDbBlockTableRecord
  2
*D7
340
0
  0
BLOCK_RECORD
  5
163A9
330
7466
100
AcDbSymbolTableRecord
100
AcDbBlockTableRecord
  2
*D8
340
0
  0
BLOCK_RECORD
  5
163B8
330
7466
100
AcDbSymbolTableRecord
100
AcDbBlockTableRecord
  2
*D9
340
0
  0
BLOCK_RECORD
  5
163C7
330
7466
100
AcDbSymbolTableRecord
100
AcDbBlockTableRecord
  2
*D10
340
0
  0
BLOCK_RECORD
  5
163E1
330
7466
100
AcDbSymbolTableRecord
100
AcDbBlockTableRecord
  2
*D11
340
0
  0
BLOCK_RECORD
  5
163ED
330
7466
100
AcDbSymbolTableRecord
100
AcDbBlockTableRecord
  2
*D12
340
0
  0
BLOCK_RECORD
  5
163FB
330
7466
100
AcDbSymbolTableRecord
100
AcDbBlockTableRecord
  2
*D13
340
0
  0
BLOCK_RECORD
  5
165B5
330
7466
100
AcDbSymbolTableRecord
100
AcDbBlockTableRecord
  2
*D14
340
0
  0
BLOCK_RECORD
  5
165C4
330
7466
100
AcDbSymbolTableRecord
100
AcDbBlockTableRecord
  2
*D15
340
0
  0
BLOCK_RECORD
  5
165EA
330
7466
100
AcDbSymbolTableRecord
100
AcDbBlockTableRecord
  2
*D16
340
0
  0
BLOCK_RECORD
  5
166CF
330
7466
100
AcDbSymbolTableRecord
100
AcDbBlockTableRecord
  2
*D17
340
0
  0
BLOCK_RECORD
  5
16908
330
7466
100
AcDbSymbolTableRecord
100
AcDbBlockTableRecord
  2
*D18
340
0
  0
BLOCK_RECORD
  5
17BC5
330
7466
100
AcDbSymbolTableRecord
100
AcDbBlockTableRecord
  2
*D19
340
0
  0
BLOCK_RECORD
  5
17BD3
330
7466
100
AcDbSymbolTableRecord
100
AcDbBlockTableRecord
  2
*D20
340
0
  0
BLOCK_RECORD
  5
17BDE
330
7466
100
AcDbSymbolTableRecord
100
AcDbBlockTableRecord
  2
*D21
340
0
  0
BLOCK_RECORD
  5
17BEA
330
7466
100
AcDbSymbolTableRecord
100
AcDbBlockTableRecord
  2
*D22
340
0
  0
BLOCK_RECORD
  5
17BF8
330
7466
100
AcDbSymbolTableRecord
100
AcDbBlockTableRecord
  2
*D23
340
0
  0
BLOCK_RECORD
  5
17C48
330
7466
100
AcDbSymbolTableRecord
100
AcDbBlockTableRecord
  2
*D24
340
0
  0
BLOCK_RECORD
  5
17C56
330
7466
100
AcDbSymbolTableRecord
100
AcDbBlockTableRecord
  2
*D25
340
0
  0
BLOCK_RECORD
  5
18AA0
330
7466
100
AcDbSymbolTableRecord
100
AcDbBlockTableRecord
  2
*D26
340
0
  0
BLOCK_RECORD
  5
18AAC
330
7466
100
AcDbSymbolTableRecord
100
AcDbBlockTableRecord
  2
*D27
340
0
  0
BLOCK_RECORD
  5
18AB8
330
7466
100
AcDbSymbolTableRecord
100
AcDbBlockTableRecord
  2
*D28
340
0
  0
BLOCK_RECORD
  5
18C5E
330
7466
100
AcDbSymbolTableRecord
100
AcDbBlockTableRecord
  2
*D29
340
0
  0
BLOCK_RECORD
  5
18C6B
330
7466
100
AcDbSymbolTableRecord
100
AcDbBlockTableRecord
  2
*D30
340
0
  0
BLOCK_RECORD
  5
18C78
330
7466
100
AcDbSymbolTableRecord
100
AcDbBlockTableRecord
  2
*D31
340
0
  0
BLOCK_RECORD
  5
18C84
330
7466
100
AcDbSymbolTableRecord
100
AcDbBlockTableRecord
  2
*D32
340
0
  0
BLOCK_RECORD
  5
18C92
330
7466
100
AcDbSymbolTableRecord
100
AcDbBlockTableRecord
  2
*D33
340
0
  0
BLOCK_RECORD
  5
18C9E
330
7466
100
AcDbSymbolTableRecord
100
AcDbBlockTableRecord
  2
*D34
340
0
  0
BLOCK_RECORD
  5
194A3
330
7466
100
AcDbSymbolTableRecord
100
AcDbBlockTableRecord
  2
*D35
340
0
  0
BLOCK_RECORD
  5
194B1
330
7466
100
AcDbSymbolTableRecord
100
AcDbBlockTableRecord
  2
*D36
340
0
  0
BLOCK_RECORD
  5
194BD
330
7466
100
AcDbSymbolTableRecord
100
AcDbBlockTableRecord
  2
*D37
340
0
  0
BLOCK_RECORD
  5
194F1
330
7466
100
AcDbSymbolTableRecord
100
AcDbBlockTableRecord
  2
*D38
340
0
  0
BLOCK_RECORD
  5
19795
330
7466
100
AcDbSymbolTableRecord
100
AcDbBlockTableRecord
  2
*D39
340
0
  0
BLOCK_RECORD
  5
197A2
330
7466
100
AcDbSymbolTableRecord
100
AcDbBlockTableRecord
  2
*D40
340
0
  0
BLOCK_RECORD
  5
197B0
330
7466
100
AcDbSymbolTableRecord
100
AcDbBlockTableRecord
  2
*D41
340
0
  0
BLOCK_RECORD
  5
198F3
330
7466
100
AcDbSymbolTableRecord
100
AcDbBlockTableRecord
  2
A$C66091BC4
340
0
  0
ENDTAB
  0
ENDSEC
  0
SECTION
  2
BLOCKS
  0
BLOCK
  5
7489
330
747D
100
AcDbEntity
  8
0
100
AcDbBlockBegin
  2
*MODEL_SPACE
 70
     0
 10
0.0
 20
0.0
 30
0.0
  3
*MODEL_SPACE
  1

  0
ENDBLK
  5
748A
330
747D
100
AcDbEntity
  8
0
100
AcDbBlockEnd
  0
BLOCK
  5
7487
330
747A
100
AcDbEntity
 67
     1
  8
0
100
AcDbBlockBegin
  2
*PAPER_SPACE
 70
     0
 10
0.0
 20
0.0
 30
0.0
  3
*PAPER_SPACE
  1

  0
ENDBLK
  5
7488
330
747A
100
AcDbEntity
 67
     1
  8
0
100
AcDbBlockEnd
  0
BLOCK
  5
F771
330
F770
100
AcDbEntity
  8
0
 48
50.0
100
AcDbBlockBegin
  2
_DOTSMALL
 70
     0
 10
0.0
 20
0.0
 30
0.0
  3
_DOTSMALL
  1

  0
LWPOLYLINE
  5
F772
330
F770
100
AcDbEntity
  8
0
  6
ByBlock
 62
     0
 48
50.0
100
AcDbPolyline
 90
        2
 70
     1
 43
0.5
 10
-0.0625
 20
0.0
 42
1.0
 10
0.0625
 20
0.0
 42
1.0
  0
ENDBLK
  5
F776
330
F770
100
AcDbEntity
  8
0
 48
50.0
100
AcDbBlockEnd
  0
BLOCK
  5
164EB
330
16338
100
AcDbEntity
  8
0
 48
50.0
100
AcDbBlockBegin
  2
*D1
 70
     1
 10
0.0
 20
0.0
 30
0.0
  3
*D1
  1

  0
LINE
  5
19BC4
330
16338
100
AcDbEntity
  8
寸法
 62
     0
 48
50.0
370
    -2
100
AcDbLine
 10
9339.673057123665
 20
9717.497424545967
 30
0.0
 11
10027.09940285807
 21
9717.497424545967
 31
0.0
  0
LINE
  5
19BC5
330
16338
100
AcDbEntity
  8
寸法
 62
     0
 48
50.0
370
    -2
100
AcDbLine
 10
9339.673057123638
 20
7197.497424545952
 30
0.0
 11
10027.09940285807
 21
7197.497424545952
 31
0.0
  0
LINE
  5
19BC6
330
16338
100
AcDbEntity
  8
寸法
 62
     0
 48
50.0
370
    -2
100
AcDbLine
 10
9967.099402858071
 20
9717.497424545967
 30
0.0
 11
9967.099402858071
 21
7197.497424545952
 31
0.0
  0
INSERT
  5
19BC7
330
16338
100
AcDbEntity
  8
寸法
 62
     0
 48
50.0
370
    -2
100
AcDbBlockReference
  2
_DOTSMALL
 10
9967.099402858071
 20
9717.497424545967
 30
0.0
 41
100.0
 42
100.0
 43
100.0
 50
90.0
  0
INSERT
  5
19BC8
330
16338
100
AcDbEntity
  8
寸法
 62
     0
 48
50.0
370
    -2
100
AcDbBlockReference
  2
_DOTSMALL
 10
9967.099402858071
 20
7197.497424545952
 30
0.0
 41
100.0
 42
100.0
 43
100.0
 50
270.0
  0
MTEXT
  5
19BC9
330
16338
100
AcDbEntity
  8
寸法
 62
     7
 48
50.0
100
AcDbMText
 10
9867.087591834447
 20
8457.497424545961
 30
0.0
 40
120.0
 41
0.0
 71
     5
 72
     1
  1
\A1;6X420=2520
  7
STYLE1
 11
0.0000000000000001
 21
1.0
 31
0.0
 73
     1
 44
1.0
1001
ACAD
1000
MTEXTBEGIN
1070
    73
1070
     1
1070
    44
1040
1.0
1070
    74
1070
     0
1000
MTEXTEND
  0
POINT
  5
19BCA
330
16338
100
AcDbEntity
  8
DEFPOINTS
 62
     0
 48
50.0
100
AcDbPoint
 10
9319.673057123663
 20
9717.497424545967
 30
0.0
  0
POINT
  5
19BCB
330
16338
100
AcDbEntity
  8
DEFPOINTS
 62
     0
 48
50.0
100
AcDbPoint
 10
9319.673057123639
 20
7197.497424545952
 30
0.0
  0
POINT
  5
19BCC
330
16338
100
AcDbEntity
  8
DEFPOINTS
 62
     0
 48
50.0
100
AcDbPoint
 10
9967.099402858071
 20
7197.497424545952
 30
0.0
  0
ENDBLK
  5
164F5
330
16338
100
AcDbEntity
  8
0
 48
50.0
100
AcDbBlockEnd
  0
BLOCK
  5
16414
330
16344
100
AcDbEntity
  8
0
 48
50.0
100
AcDbBlockBegin
  2
*D2
 70
     1
 10
0.0
 20
0.0
 30
0.0
  3
*D2
  1

  0
LINE
  5
19BB9
330
16344
100
AcDbEntity
  8
寸法
 62
     0
 48
50.0
370
    -2
100
AcDbLine
 10
9339.673057123638
 20
7197.497424545952
 30
0.0
 11
10027.09940285805
 21
7197.497424545952
 31
0.0
  0
LINE
  5
19BBA
330
16344
100
AcDbEntity
  8
寸法
 62
     0
 48
50.0
370
    -2
100
AcDbLine
 10
9339.673057123638
 20
7142.497424545957
 30
0.0
 11
10027.09940285805
 21
7142.497424545957
 31
0.0
  0
LINE
  5
19BBB
330
16344
100
AcDbEntity
  8
寸法
 62
     0
 48
50.0
370
    -2
100
AcDbLine
 10
9967.09940285805
 20
7197.497424545952
 30
0.0
 11
9967.09940285805
 21
7297.497424545952
 31
0.0
  0
LINE
  5
19BBC
330
16344
100
AcDbEntity
  8
寸法
 62
     0
 48
50.0
370
    -2
100
AcDbLine
 10
9967.09940285805
 20
7142.497424545957
 30
0.0
 11
9967.09940285805
 21
6656.150676266854
 31
0.0
  0
LINE
  5
19BBD
330
16344
100
AcDbEntity
  8
寸法
 62
     0
 48
50.0
370
    -2
100
AcDbLine
 10
9967.09940285805
 20
7197.497424545952
 30
0.0
 11
9967.09940285805
 21
7142.497424545957
 31
0.0
  0
INSERT
  5
19BBE
330
16344
100
AcDbEntity
  8
寸法
 62
     0
 48
50.0
370
    -2
100
AcDbBlockReference
  2
_DOTSMALL
 10
9967.09940285805
 20
7197.497424545952
 30
0.0
 41
100.0
 42
100.0
 43
100.0
 50
270.0
  0
INSERT
  5
19BBF
330
16344
100
AcDbEntity
  8
寸法
 62
     0
 48
50.0
370
    -2
100
AcDbBlockReference
  2
_DOTSMALL
 10
9967.09940285805
 20
7142.497424545957
 30
0.0
 41
100.0
 42
100.0
 43
100.0
 50
90.0
  0
MTEXT
  5
19BC0
330
16344
100
AcDbEntity
  8
寸法
 62
     7
 48
50.0
100
AcDbMText
 10
9867.099402858048
 20
6764.635957641094
 30
0.0
 40
120.0
 41
0.0
 71
     5
 72
     1
  1
\A1;55
  7
STYLE1
 11
0.0000000000000001
 21
1.0
 31
0.0
 73
     1
 44
1.0
1001
ACAD
1000
MTEXTBEGIN
1070
    73
1070
     1
1070
    44
1040
1.0
1070
    74
1070
     0
1000
MTEXTEND
  0
POINT
  5
19BC1
330
16344
100
AcDbEntity
  8
DEFPOINTS
 62
     0
 48
50.0
100
AcDbPoint
 10
9319.673057123639
 20
7197.497424545952
 30
0.0
  0
POINT
  5
19BC2
330
16344
100
AcDbEntity
  8
DEFPOINTS
 62
     0
 48
50.0
100
AcDbPoint
 10
9319.673057123639
 20
7142.497424545957
 30
0.0
  0
POINT
  5
19BC3
330
16344
100
AcDbEntity
  8
DEFPOINTS
 62
     0
 48
50.0
100
AcDbPoint
 10
9967.09940285805
 20
7142.497424545957
 30
0.0
  0
ENDBLK
  5
16420
330
16344
100
AcDbEntity
  8
0
 48
50.0
100
AcDbBlockEnd
  0
BLOCK
  5
16421
330
16352
100
AcDbEntity
  8
0
 48
50.0
100
AcDbBlockBegin
  2
*D3
 70
     1
 10
0.0
 20
0.0
 30
0.0
  3
*D3
  1

  0
LINE
  5
19BAE
330
16352
100
AcDbEntity
  8
寸法
 62
     0
 48
50.0
370
    -2
100
AcDbLine
 10
9339.673057123665
 20
9772.497424545964
 30
0.0
 11
10027.09940285807
 21
9772.497424545964
 31
0.0
  0
LINE
  5
19BAF
330
16352
100
AcDbEntity
  8
寸法
 62
     0
 48
50.0
370
    -2
100
AcDbLine
 10
9339.673057123665
 20
9717.497424545967
 30
0.0
 11
10027.09940285807
 21
9717.497424545967
 31
0.0
  0
LINE
  5
19BB0
330
16352
100
AcDbEntity
  8
寸法
 62
     0
 48
50.0
370
    -2
100
AcDbLine
 10
9967.099402858075
 20
9717.497424545967
 30
0.0
 11
9967.099402858075
 21
9617.497424545968
 31
0.0
  0
LINE
  5
19BB1
330
16352
100
AcDbEntity
  8
寸法
 62
     0
 48
50.0
370
    -2
100
AcDbLine
 10
9967.099402858075
 20
9772.497424545964
 30
0.0
 11
9967.099402858075
 21
10189.46798729444
 31
0.0
  0
LINE
  5
19BB2
330
16352
100
AcDbEntity
  8
寸法
 62
     0
 48
50.0
370
    -2
100
AcDbLine
 10
9967.099402858075
 20
9717.497424545967
 30
0.0
 11
9967.099402858075
 21
9772.497424545964
 31
0.0
  0
INSERT
  5
19BB3
330
16352
100
AcDbEntity
  8
寸法
 62
     0
 48
50.0
370
    -2
100
AcDbBlockReference
  2
_DOTSMALL
 10
9967.099402858075
 20
9717.497424545967
 30
0.0
 41
100.0
 42
100.0
 43
100.0
 50
90.0
  0
INSERT
  5
19BB4
330
16352
100
AcDbEntity
  8
寸法
 62
     0
 48
50.0
370
    -2
100
AcDbBlockReference
  2
_DOTSMALL
 10
9967.099402858075
 20
9772.497424545964
 30
0.0
 41
100.0
 42
100.0
 43
100.0
 50
270.0
  0
MTEXT
  5
19BB5
330
16352
100
AcDbEntity
  8
寸法
 62
     7
 48
50.0
100
AcDbMText
 10
9867.099402858073
 20
10080.9827059202
 30
0.0
 40
120.0
 41
0.0
 71
     5
 72
     1
  1
\A1;55
  7
STYLE1
 11
0.0000000000000001
 21
1.0
 31
0.0
 73
     1
 44
1.0
1001
ACAD
1000
MTEXTBEGIN
1070
    73
1070
     1
1070
    44
1040
1.0
1070
    74
1070
     0
1000
MTEXTEND
  0
POINT
  5
19BB6
330
16352
100
AcDbEntity
  8
DEFPOINTS
 62
     0
 48
50.0
100
AcDbPoint
 10
9319.673057123663
 20
9772.497424545964
 30
0.0
  0
POINT
  5
19BB7
330
16352
100
AcDbEntity
  8
DEFPOINTS
 62
     0
 48
50.0
100
AcDbPoint
 10
9319.673057123663
 20
9717.497424545967
 30
0.0
  0
POINT
  5
19BB8
330
16352
100
AcDbEntity
  8
DEFPOINTS
 62
     0
 48
50.0
100
AcDbPoint
 10
9967.099402858075
 20
9717.497424545967
 30
0.0
  0
ENDBLK
  5
1642D
330
16352
100
AcDbEntity
  8
0
 48
50.0
100
AcDbBlockEnd
  0
BLOCK
  5
164CA
330
16360
100
AcDbEntity
  8
0
 48
50.0
100
AcDbBlockBegin
  2
*D4
 70
     1
 10
0.0
 20
0.0
 30
0.0
  3
*D4
  1

  0
LINE
  5
19BA5
330
16360
100
AcDbEntity
  8
寸法
 62
     0
 48
50.0
370
    -2
100
AcDbLine
 10
9339.673057123665
 20
9772.497424545964
 30
0.0
 11
10392.20634459771
 21
9772.497424545964
 31
0.0
  0
LINE
  5
19BA6
330
16360
100
AcDbEntity
  8
寸法
 62
     0
 48
50.0
370
    -2
100
AcDbLine
 10
9339.673057123638
 20
7142.497424545957
 30
0.0
 11
10392.20634459771
 21
7142.497424545955
 31
0.0
  0
LINE
  5
19BA7
330
16360
100
AcDbEntity
  8
寸法
 62
     0
 48
50.0
370
    -2
100
AcDbLine
 10
10332.20634459771
 20
9772.497424545964
 30
0.0
 11
10332.20634459771
 21
7142.497424545955
 31
0.0
  0
INSERT
  5
19BA8
330
16360
100
AcDbEntity
  8
寸法
 62
     0
 48
50.0
370
    -2
100
AcDbBlockReference
  2
_DOTSMALL
 10
10332.20634459771
 20
9772.497424545964
 30
0.0
 41
100.0
 42
100.0
 43
100.0
 50
90.0
  0
INSERT
  5
19BA9
330
16360
100
AcDbEntity
  8
寸法
 62
     0
 48
50.0
370
    -2
100
AcDbBlockReference
  2
_DOTSMALL
 10
10332.20634459771
 20
7142.497424545955
 30
0.0
 41
100.0
 42
100.0
 43
100.0
 50
270.0
  0
MTEXT
  5
19BAA
330
16360
100
AcDbEntity
  8
寸法
 62
     7
 48
50.0
100
AcDbMText
 10
10232.19453357408
 20
8457.497424545961
 30
0.0
 40
120.0
 41
0.0
 71
     5
 72
     1
  1
\A1;2630
  7
STYLE1
 11
0.0000000000000001
 21
1.0
 31
0.0
 73
     1
 44
1.0
1001
ACAD
1000
MTEXTBEGIN
1070
    73
1070
     1
1070
    44
1040
1.0
1070
    74
1070
     0
1000
MTEXTEND
  0
POINT
  5
19BAB
330
16360
100
AcDbEntity
  8
DEFPOINTS
 62
     0
 48
50.0
100
AcDbPoint
 10
9319.673057123663
 20
9772.497424545964
 30
0.0
  0
POINT
  5
19BAC
330
16360
100
AcDbEntity
  8
DEFPOINTS
 62
     0
 48
50.0
100
AcDbPoint
 10
9319.673057123639
 20
7142.497424545957
 30
0.0
  0
POINT
  5
19BAD
330
16360
100
AcDbEntity
  8
DEFPOINTS
 62
     0
 48
50.0
100
AcDbPoint
 10
10332.20634459771
 20
7142.497424545955
 30
0.0
  0
ENDBLK
  5
164D4
330
16360
100
AcDbEntity
  8
0
 48
50.0
100
AcDbBlockEnd
  0
BLOCK
  5
1728C
330
16384
100
AcDbEntity
  8
0
 48
50.0
100
AcDbBlockBegin
  2
*D5
 70
     1
 10
0.0
 20
0.0
 30
0.0
  3
*D5
  1

  0
LINE
  5
19B9D
330
16384
100
AcDbEntity
  8
寸法
 62
     0
 48
50.0
370
    -2
100
AcDbLine
 10
6792.673057123656
 20
7148.497424545865
 30
0.0
 11
6792.673057123656
 21
6548.0666537797
 31
0.0
  0
LINE
  5
19B9E
330
16384
100
AcDbEntity
  8
寸法
 62
     0
 48
50.0
370
    -2
100
AcDbLine
 10
9216.673057123639
 20
6608.0666537797
 30
0.0
 11
6792.673057123656
 21
6608.0666537797
 31
0.0
  0
INSERT
  5
19B9F
330
16384
100
AcDbEntity
  8
寸法
 62
     0
 48
50.0
370
    -2
100
AcDbBlockReference
  2
_DOTSMALL
 10
9216.673057123639
 20
6608.0666537797
 30
0.0
 41
100.0
 42
100.0
 43
100.0
  0
INSERT
  5
19BA0
330
16384
100
AcDbEntity
  8
寸法
 62
     0
 48
50.0
370
    -2
100
AcDbBlockReference
  2
_DOTSMALL
 10
6792.673057123656
 20
6608.0666537797
 30
0.0
 41
100.0
 42
100.0
 43
100.0
 50
180.0
  0
MTEXT
  5
19BA1
330
16384
100
AcDbEntity
  8
寸法
 62
     7
 48
50.0
100
AcDbMText
 10
8004.673057123648
 20
6708.078464803323
 30
0.0
 40
120.0
 41
0.0
 71
     5
 72
     1
  1
\A1;有効開口部間口 2424
  7
STYLE1
 73
     1
 44
1.0
1001
ACAD
1000
MTEXTBEGIN
1070
    73
1070
     1
1070
    44
1040
1.0
1070
    74
1070
     0
1000
MTEXTEND
  0
POINT
  5
19BA2
330
16384
100
AcDbEntity
  8
DEFPOINTS
 62
     0
 48
50.0
100
AcDbPoint
 10
9216.673057123639
 20
7168.497424545865
 30
0.0
  0
POINT
  5
19BA3
330
16384
100
AcDbEntity
  8
DEFPOINTS
 62
     0
 48
50.0
100
AcDbPoint
 10
6792.673057123656
 20
7168.497424545865
 30
0.0
  0
POINT
  5
19BA4
330
16384
100
AcDbEntity
  8
DEFPOINTS
 62
     0
 48
50.0
100
AcDbPoint
 10
6792.673057123656
 20
6608.0666537797
 30
0.0
  0
ENDBLK
  5
17295
330
16384
100
AcDbEntity
  8
0
 48
50.0
100
AcDbBlockEnd
  0
BLOCK
  5
17261
330
1638F
100
AcDbEntity
  8
0
 48
50.0
100
AcDbBlockBegin
  2
*D6
 70
     1
 10
0.0
 20
0.0
 30
0.0
  3
*D6
  1

  0
LINE
  5
19C9C
330
1638F
100
AcDbEntity
  8
寸法
 62
     0
 48
50.0
370
    -2
100
AcDbLine
 10
1429.673057123657
 20
7122.497424545861
 30
0.0
 11
1429.673057123657
 21
6101.893658188827
 31
0.0
  0
LINE
  5
19C9D
330
1638F
100
AcDbEntity
  8
寸法
 62
     0
 48
50.0
370
    -2
100
AcDbLine
 10
9319.673057123628
 20
7122.497424545956
 30
0.0
 11
9319.673057123628
 21
6101.893658188827
 31
0.0
  0
LINE
  5
19C9E
330
1638F
100
AcDbEntity
  8
寸法
 62
     0
 48
50.0
370
    -2
100
AcDbLine
 10
1429.673057123657
 20
6161.893658188827
 30
0.0
 11
9319.673057123628
 21
6161.893658188827
 31
0.0
  0
INSERT
  5
19C9F
330
1638F
100
AcDbEntity
  8
寸法
 62
     0
 48
50.0
370
    -2
100
AcDbBlockReference
  2
_DOTSMALL
 10
1429.673057123657
 20
6161.893658188827
 30
0.0
 41
100.0
 42
100.0
 43
100.0
 50
180.0
  0
INSERT
  5
19CA0
330
1638F
100
AcDbEntity
  8
寸法
 62
     0
 48
50.0
370
    -2
100
AcDbBlockReference
  2
_DOTSMALL
 10
9319.673057123628
 20
6161.893658188827
 30
0.0
 41
100.0
 42
100.0
 43
100.0
  0
MTEXT
  5
19CA1
330
1638F
100
AcDbEntity
  8
寸法
 62
     7
 48
50.0
100
AcDbMText
 10
5374.673057123642
 20
6261.905469212448
 30
0.0
 40
120.0
 41
0.0
 71
     5
 72
     1
  1
\A1;N X 2630
  7
STYLE1
 73
     1
 44
1.0
1001
ACAD
1000
MTEXTBEGIN
1070
    73
1070
     1
1070
    44
1040
1.0
1070
    74
1070
     0
1000
MTEXTEND
  0
POINT
  5
19CA2
330
1638F
100
AcDbEntity
  8
DEFPOINTS
 62
     0
 48
50.0
100
AcDbPoint
 10
1429.673057123657
 20
7142.497424545862
 30
0.0
  0
POINT
  5
19CA3
330
1638F
100
AcDbEntity
  8
DEFPOINTS
 62
     0
 48
50.0
100
AcDbPoint
 10
9319.673057123628
 20
7142.497424545957
 30
0.0
  0
POINT
  5
19CA4
330
1638F
100
AcDbEntity
  8
DEFPOINTS
 62
     0
 48
50.0
100
AcDbPoint
 10
9319.673057123628
 20
6161.893658188827
 30
0.0
  0
ENDBLK
  5
1726B
330
1638F
100
AcDbEntity
  8
0
 48
50.0
100
AcDbBlockEnd
  0
BLOCK
  5
16464
330
1639B
100
AcDbEntity
  8
0
 48
50.0
100
AcDbBlockBegin
  2
*D7
 70
     1
 10
0.0
 20
0.0
 30
0.0
  3
*D7
  1

  0
LINE
  5
19C73
330
1639B
100
AcDbEntity
  8
寸法
 62
     0
 48
50.0
370
    -2
100
AcDbLine
 10
1484.673057123653
 20
7122.497424545864
 30
0.0
 11
1484.673057123653
 21
6548.0666537797
 31
0.0
  0
LINE
  5
19C74
330
1639B
100
AcDbEntity
  8
寸法
 62
     0
 48
50.0
370
    -2
100
AcDbLine
 10
1429.673057123657
 20
7122.497424545861
 30
0.0
 11
1429.673057123657
 21
6548.0666537797
 31
0.0
  0
LINE
  5
19C75
330
1639B
100
AcDbEntity
  8
寸法
 62
     0
 48
50.0
370
    -2
100
AcDbLine
 10
1484.673057123653
 20
6608.0666537797
 30
0.0
 11
1584.673057123653
 21
6608.0666537797
 31
0.0
  0
LINE
  5
19C76
330
1639B
100
AcDbEntity
  8
寸法
 62
     0
 48
50.0
370
    -2
100
AcDbLine
 10
1429.673057123657
 20
6608.0666537797
 30
0.0
 11
1012.702494375179
 21
6608.0666537797
 31
0.0
  0
LINE
  5
19C77
330
1639B
100
AcDbEntity
  8
寸法
 62
     0
 48
50.0
370
    -2
100
AcDbLine
 10
1484.673057123653
 20
6608.0666537797
 30
0.0
 11
1429.673057123657
 21
6608.0666537797
 31
0.0
  0
INSERT
  5
19C78
330
1639B
100
AcDbEntity
  8
寸法
 62
     0
 48
50.0
370
    -2
100
AcDbBlockReference
  2
_DOTSMALL
 10
1484.673057123653
 20
6608.0666537797
 30
0.0
 41
100.0
 42
100.0
 43
100.0
 50
180.0
  0
INSERT
  5
19C79
330
1639B
100
AcDbEntity
  8
寸法
 62
     0
 48
50.0
370
    -2
100
AcDbBlockReference
  2
_DOTSMALL
 10
1429.673057123657
 20
6608.0666537797
 30
0.0
 41
100.0
 42
100.0
 43
100.0
  0
MTEXT
  5
19C7A
330
1639B
100
AcDbEntity
  8
寸法
 62
     7
 48
50.0
100
AcDbMText
 10
1121.187775749418
 20
6708.0666537797
 30
0.0
 40
120.0
 41
0.0
 71
     5
 72
     1
  1
\A1;55
  7
STYLE1
 73
     1
 44
1.0
1001
ACAD
1000
MTEXTBEGIN
1070
    73
1070
     1
1070
    44
1040
1.0
1070
    74
1070
     0
1000
MTEXTEND
  0
POINT
  5
19C7B
330
1639B
100
AcDbEntity
  8
DEFPOINTS
 62
     0
 48
50.0
100
AcDbPoint
 10
1484.673057123653
 20
7142.497424545864
 30
0.0
  0
POINT
  5
19C7C
330
1639B
100
AcDbEntity
  8
DEFPOINTS
 62
     0
 48
50.0
100
AcDbPoint
 10
1429.673057123657
 20
7142.497424545862
 30
0.0
  0
POINT
  5
19C7D
330
1639B
100
AcDbEntity
  8
DEFPOINTS
 62
     0
 48
50.0
100
AcDbPoint
 10
1429.673057123657
 20
6608.0666537797
 30
0.0
  0
ENDBLK
  5
16470
330
1639B
100
AcDbEntity
  8
0
 48
50.0
100
AcDbBlockEnd
  0
BLOCK
  5
16471
330
163A9
100
AcDbEntity
  8
0
 48
50.0
100
AcDbBlockBegin
  2
*D8
 70
     1
 10
0.0
 20
0.0
 30
0.0
  3
*D8
  1

  0
LINE
  5
19B89
330
163A9
100
AcDbEntity
  8
寸法
 62
     0
 48
50.0
370
    -2
100
AcDbLine
 10
6792.673057123656
 20
7148.497424545865
 30
0.0
 11
6792.673057123656
 21
6548.0666537797
 31
0.0
  0
LINE
  5
19B8A
330
163A9
100
AcDbEntity
  8
寸法
 62
     0
 48
50.0
370
    -2
100
AcDbLine
 10
6744.673057123653
 20
7122.497424545864
 30
0.0
 11
6744.673057123653
 21
6548.0666537797
 31
0.0
  0
LINE
  5
19B8B
330
163A9
100
AcDbEntity
  8
寸法
 62
     0
 48
50.0
370
    -2
100
AcDbLine
 10
6792.673057123656
 20
6608.0666537797
 30
0.0
 11
6892.673057123658
 21
6608.0666537797
 31
0.0
  0
LINE
  5
19B8C
330
163A9
100
AcDbEntity
  8
寸法
 62
     0
 48
50.0
370
    -2
100
AcDbLine
 10
6744.673057123653
 20
6608.0666537797
 30
0.0
 11
6644.673057123653
 21
6608.0666537797
 31
0.0
  0
MTEXT
  5
19B8D
330
163A9
100
AcDbEntity
  8
寸法
 62
     7
 48
50.0
100
AcDbMText
 10
6905.575028123713
 20
6708.0666537797
 30
0.0
 40
120.0
 41
0.0
 71
     5
 72
     1
  1
\A1;48
  7
STYLE1
 73
     1
 44
1.0
1001
ACAD
1000
MTEXTBEGIN
1070
    73
1070
     1
1070
    44
1040
1.0
1070
    74
1070
     0
1000
MTEXTEND
  0
LINE
  5
19B8E
330
163A9
100
AcDbEntity
  8
寸法
 62
     0
 48
50.0
370
    -2
100
AcDbLine
 10
6792.673057123656
 20
6608.0666537797
 30
0.0
 11
6744.673057123653
 21
6608.0666537797
 31
0.0
  0
INSERT
  5
19B8F
330
163A9
100
AcDbEntity
  8
寸法
 62
     0
 48
50.0
370
    -2
100
AcDbBlockReference
  2
_DOTSMALL
 10
6792.673057123656
 20
6608.0666537797
 30
0.0
 41
100.0
 42
100.0
 43
100.0
 50
180.0
  0
INSERT
  5
19B90
330
163A9
100
AcDbEntity
  8
寸法
 62
     0
 48
50.0
370
    -2
100
AcDbBlockReference
  2
_DOTSMALL
 10
6744.673057123653
 20
6608.0666537797
 30
0.0
 41
100.0
 42
100.0
 43
100.0
  0
POINT
  5
19B91
330
163A9
100
AcDbEntity
  8
DEFPOINTS
 62
     0
 48
50.0
100
AcDbPoint
 10
6792.673057123656
 20
7168.497424545865
 30
0.0
  0
POINT
  5
19B92
330
163A9
100
AcDbEntity
  8
DEFPOINTS
 62
     0
 48
50.0
100
AcDbPoint
 10
6744.673057123653
 20
7142.497424545864
 30
0.0
  0
POINT
  5
19B93
330
163A9
100
AcDbEntity
  8
DEFPOINTS
 62
     0
 48
50.0
100
AcDbPoint
 10
6744.673057123653
 20
6608.0666537797
 30
0.0
  0
ENDBLK
  5
1647E
330
163A9
100
AcDbEntity
  8
0
 48
50.0
100
AcDbBlockEnd
  0
BLOCK
  5
1647F
330
163B8
100
AcDbEntity
  8
0
 48
50.0
100
AcDbBlockBegin
  2
*D9
 70
     1
 10
0.0
 20
0.0
 30
0.0
  3
*D9
  1

  0
LINE
  5
19B7E
330
163B8
100
AcDbEntity
  8
寸法
 62
     0
 48
50.0
370
    -2
100
AcDbLine
 10
9264.673057123641
 20
7122.497424545952
 30
0.0
 11
9264.673057123641
 21
6548.0666537797
 31
0.0
  0
LINE
  5
19B7F
330
163B8
100
AcDbEntity
  8
寸法
 62
     0
 48
50.0
370
    -2
100
AcDbLine
 10
9216.673057123639
 20
7148.497424545865
 30
0.0
 11
9216.673057123639
 21
6548.0666537797
 31
0.0
  0
LINE
  5
19B80
330
163B8
100
AcDbEntity
  8
寸法
 62
     0
 48
50.0
370
    -2
100
AcDbLine
 10
9264.673057123641
 20
6608.0666537797
 30
0.0
 11
9364.67305712364
 21
6608.0666537797
 31
0.0
  0
LINE
  5
19B81
330
163B8
100
AcDbEntity
  8
寸法
 62
     0
 48
50.0
370
    -2
100
AcDbLine
 10
9216.673057123639
 20
6608.0666537797
 30
0.0
 11
9116.673057123639
 21
6608.0666537797
 31
0.0
  0
MTEXT
  5
19B82
330
163B8
100
AcDbEntity
  8
寸法
 62
     7
 48
50.0
100
AcDbMText
 10
9105.710159474892
 20
6708.0666537797
 30
0.0
 40
120.0
 41
0.0
 71
     5
 72
     1
  1
\A1;48
  7
STYLE1
 73
     1
 44
1.0
1001
ACAD
1000
MTEXTBEGIN
1070
    73
1070
     1
1070
    44
1040
1.0
1070
    74
1070
     0
1000
MTEXTEND
  0
LINE
  5
19B83
330
163B8
100
AcDbEntity
  8
寸法
 62
     0
 48
50.0
370
    -2
100
AcDbLine
 10
9264.673057123641
 20
6608.0666537797
 30
0.0
 11
9216.673057123639
 21
6608.0666537797
 31
0.0
  0
INSERT
  5
19B84
330
163B8
100
AcDbEntity
  8
寸法
 62
     0
 48
50.0
370
    -2
100
AcDbBlockReference
  2
_DOTSMALL
 10
9264.673057123641
 20
6608.0666537797
 30
0.0
 41
100.0
 42
100.0
 43
100.0
 50
180.0
  0
INSERT
  5
19B85
330
163B8
100
AcDbEntity
  8
寸法
 62
     0
 48
50.0
370
    -2
100
AcDbBlockReference
  2
_DOTSMALL
 10
9216.673057123639
 20
6608.0666537797
 30
0.0
 41
100.0
 42
100.0
 43
100.0
  0
POINT
  5
19B86
330
163B8
100
AcDbEntity
  8
DEFPOINTS
 62
     0
 48
50.0
100
AcDbPoint
 10
9264.673057123641
 20
7142.497424545952
 30
0.0
  0
POINT
  5
19B87
330
163B8
100
AcDbEntity
  8
DEFPOINTS
 62
     0
 48
50.0
100
AcDbPoint
 10
9216.673057123639
 20
7168.497424545865
 30
0.0
  0
POINT
  5
19B88
330
163B8
100
AcDbEntity
  8
DEFPOINTS
 62
     0
 48
50.0
100
AcDbPoint
 10
9216.673057123639
 20
6608.0666537797
 30
0.0
  0
ENDBLK
  5
1648C
330
163B8
100
AcDbEntity
  8
0
 48
50.0
100
AcDbBlockEnd
  0
BLOCK
  5
1648D
330
163C7
100
AcDbEntity
  8
0
 48
50.0
100
AcDbBlockBegin
  2
*D10
 70
     1
 10
0.0
 20
0.0
 30
0.0
  3
*D10
  1

  0
LINE
  5
19B73
330
163C7
100
AcDbEntity
  8
寸法
 62
     0
 48
50.0
370
    -2
100
AcDbLine
 10
9319.673057123639
 20
7122.497424545956
 30
0.0
 11
9319.673057123639
 21
6548.066653779702
 31
0.0
  0
LINE
  5
19B74
330
163C7
100
AcDbEntity
  8
寸法
 62
     0
 48
50.0
370
    -2
100
AcDbLine
 10
9264.673057123641
 20
7122.497424545952
 30
0.0
 11
9264.673057123641
 21
6548.066653779702
 31
0.0
  0
LINE
  5
19B75
330
163C7
100
AcDbEntity
  8
寸法
 62
     0
 48
50.0
370
    -2
100
AcDbLine
 10
9264.673057123641
 20
6608.066653779701
 30
0.0
 11
9164.673057123641
 21
6608.066653779701
 31
0.0
  0
LINE
  5
19B76
330
163C7
100
AcDbEntity
  8
寸法
 62
     0
 48
50.0
370
    -2
100
AcDbLine
 10
9319.673057123639
 20
6608.066653779701
 30
0.0
 11
9736.643619872115
 21
6608.066653779701
 31
0.0
  0
LINE
  5
19B77
330
163C7
100
AcDbEntity
  8
寸法
 62
     0
 48
50.0
370
    -2
100
AcDbLine
 10
9264.673057123641
 20
6608.066653779701
 30
0.0
 11
9319.673057123639
 21
6608.066653779701
 31
0.0
  0
INSERT
  5
19B78
330
163C7
100
AcDbEntity
  8
寸法
 62
     0
 48
50.0
370
    -2
100
AcDbBlockReference
  2
_DOTSMALL
 10
9264.673057123641
 20
6608.066653779701
 30
0.0
 41
100.0
 42
100.0
 43
100.0
  0
INSERT
  5
19B79
330
163C7
100
AcDbEntity
  8
寸法
 62
     0
 48
50.0
370
    -2
100
AcDbBlockReference
  2
_DOTSMALL
 10
9319.673057123639
 20
6608.066653779701
 30
0.0
 41
100.0
 42
100.0
 43
100.0
 50
180.0
  0
MTEXT
  5
19B7A
330
163C7
100
AcDbEntity
  8
寸法
 62
     7
 48
50.0
100
AcDbMText
 10
9628.158338497877
 20
6708.066653779702
 30
0.0
 40
120.0
 41
0.0
 71
     5
 72
     1
  1
\A1;55
  7
STYLE1
 73
     1
 44
1.0
1001
ACAD
1000
MTEXTBEGIN
1070
    73
1070
     1
1070
    44
1040
1.0
1070
    74
1070
     0
1000
MTEXTEND
  0
POINT
  5
19B7B
330
163C7
100
AcDbEntity
  8
DEFPOINTS
 62
     0
 48
50.0
100
AcDbPoint
 10
9319.673057123639
 20
7142.497424545957
 30
0.0
  0
POINT
  5
19B7C
330
163C7
100
AcDbEntity
  8
DEFPOINTS
 62
     0
 48
50.0
100
AcDbPoint
 10
9264.673057123641
 20
7142.497424545952
 30
0.0
  0
POINT
  5
19B7D
330
163C7
100
AcDbEntity
  8
DEFPOINTS
 62
     0
 48
50.0
100
AcDbPoint
 10
9264.673057123641
 20
6608.066653779701
 30
0.0
  0
ENDBLK
  5
16499
330
163C7
100
AcDbEntity
  8
0
 48
50.0
100
AcDbBlockEnd
  0
BLOCK
  5
172A1
330
163E1
100
AcDbEntity
  8
0
 48
50.0
100
AcDbBlockBegin
  2
*D11
 70
     1
 10
0.0
 20
0.0
 30
0.0
  3
*D11
  1

  0
LINE
  5
19C93
330
163E1
100
AcDbEntity
  8
寸法
 62
     0
 48
50.0
370
    -2
100
AcDbLine
 10
6744.673057123662
 20
9792.497424545869
 30
0.0
 11
6744.673057123662
 21
10048.30564417096
 31
0.0
  0
LINE
  5
19C94
330
163E1
100
AcDbEntity
  8
寸法
 62
     0
 48
50.0
370
    -2
100
AcDbLine
 10
9264.673057123664
 20
9792.497424545963
 30
0.0
 11
9264.673057123664
 21
10048.30564417096
 31
0.0
  0
LINE
  5
19C95
330
163E1
100
AcDbEntity
  8
寸法
 62
     0
 48
50.0
370
    -2
100
AcDbLine
 10
6744.673057123662
 20
9988.305644170967
 30
0.0
 11
9264.673057123664
 21
9988.305644170967
 31
0.0
  0
INSERT
  5
19C96
330
163E1
100
AcDbEntity
  8
寸法
 62
     0
 48
50.0
370
    -2
100
AcDbBlockReference
  2
_DOTSMALL
 10
6744.673057123662
 20
9988.305644170967
 30
0.0
 41
100.0
 42
100.0
 43
100.0
 50
180.0
  0
INSERT
  5
19C97
330
163E1
100
AcDbEntity
  8
寸法
 62
     0
 48
50.0
370
    -2
100
AcDbBlockReference
  2
_DOTSMALL
 10
9264.673057123664
 20
9988.305644170967
 30
0.0
 41
100.0
 42
100.0
 43
100.0
  0
MTEXT
  5
19C98
330
163E1
100
AcDbEntity
  8
寸法
 62
     7
 48
50.0
100
AcDbMText
 10
8004.673057123664
 20
10088.31745519459
 30
0.0
 40
120.0
 41
0.0
 71
     5
 72
     1
  1
\A1;6X420=2520
  7
STYLE1
 73
     1
 44
1.0
1001
ACAD
1000
MTEXTBEGIN
1070
    73
1070
     1
1070
    44
1040
1.0
1070
    74
1070
     0
1000
MTEXTEND
  0
POINT
  5
19C99
330
163E1
100
AcDbEntity
  8
DEFPOINTS
 62
     0
 48
50.0
100
AcDbPoint
 10
6744.673057123662
 20
9772.49742454587
 30
0.0
  0
POINT
  5
19C9A
330
163E1
100
AcDbEntity
  8
DEFPOINTS
 62
     0
 48
50.0
100
AcDbPoint
 10
9264.673057123664
 20
9772.497424545964
 30
0.0
  0
POINT
  5
19C9B
330
163E1
100
AcDbEntity
  8
DEFPOINTS
 62
     0
 48
50.0
100
AcDbPoint
 10
9264.673057123664
 20
9988.305644170967
 30
0.0
  0
ENDBLK
  5
172AB
330
163E1
100
AcDbEntity
  8
0
 48
50.0
100
AcDbBlockEnd
  0
BLOCK
  5
164B0
330
163ED
100
AcDbEntity
  8
0
 48
50.0
100
AcDbBlockBegin
  2
*D12
 70
     1
 10
0.0
 20
0.0
 30
0.0
  3
*D12
  1

  0
LINE
  5
19C68
330
163ED
100
AcDbEntity
  8
寸法
 62
     0
 48
50.0
370
    -2
100
AcDbLine
 10
1429.673057123628
 20
9792.497424545869
 30
0.0
 11
1429.673057123628
 21
10048.30564417085
 31
0.0
  0
LINE
  5
19C69
330
163ED
100
AcDbEntity
  8
寸法
 62
     0
 48
50.0
370
    -2
100
AcDbLine
 10
1484.673057123663
 20
9792.497424545869
 30
0.0
 11
1484.673057123663
 21
10048.30564417085
 31
0.0
  0
LINE
  5
19C6A
330
163ED
100
AcDbEntity
  8
寸法
 62
     0
 48
50.0
370
    -2
100
AcDbLine
 10
1484.673057123663
 20
9988.30564417085
 30
0.0
 11
1584.673057123663
 21
9988.30564417085
 31
0.0
  0
LINE
  5
19C6B
330
163ED
100
AcDbEntity
  8
寸法
 62
     0
 48
50.0
370
    -2
100
AcDbLine
 10
1429.673057123628
 20
9988.30564417085
 30
0.0
 11
1012.702494375151
 21
9988.30564417085
 31
0.0
  0
LINE
  5
19C6C
330
163ED
100
AcDbEntity
  8
寸法
 62
     0
 48
50.0
370
    -2
100
AcDbLine
 10
1484.673057123663
 20
9988.30564417085
 30
0.0
 11
1429.673057123628
 21
9988.30564417085
 31
0.0
  0
INSERT
  5
19C6D
330
163ED
100
AcDbEntity
  8
寸法
 62
     0
 48
50.0
370
    -2
100
AcDbBlockReference
  2
_DOTSMALL
 10
1484.673057123663
 20
9988.30564417085
 30
0.0
 41
100.0
 42
100.0
 43
100.0
 50
180.0
  0
INSERT
  5
19C6E
330
163ED
100
AcDbEntity
  8
寸法
 62
     0
 48
50.0
370
    -2
100
AcDbBlockReference
  2
_DOTSMALL
 10
1429.673057123628
 20
9988.30564417085
 30
0.0
 41
100.0
 42
100.0
 43
100.0
  0
MTEXT
  5
19C6F
330
163ED
100
AcDbEntity
  8
寸法
 62
     7
 48
50.0
100
AcDbMText
 10
1121.187775749389
 20
10088.30564417085
 30
0.0
 40
120.0
 41
0.0
 71
     5
 72
     1
  1
\A1;55
  7
STYLE1
 73
     1
 44
1.0
1001
ACAD
1000
MTEXTBEGIN
1070
    73
1070
     1
1070
    44
1040
1.0
1070
    74
1070
     0
1000
MTEXTEND
  0
POINT
  5
19C70
330
163ED
100
AcDbEntity
  8
DEFPOINTS
 62
     0
 48
50.0
100
AcDbPoint
 10
1429.673057123628
 20
9772.49742454587
 30
0.0
  0
POINT
  5
19C71
330
163ED
100
AcDbEntity
  8
DEFPOINTS
 62
     0
 48
50.0
100
AcDbPoint
 10
1484.673057123663
 20
9772.49742454587
 30
0.0
  0
POINT
  5
19C72
330
163ED
100
AcDbEntity
  8
DEFPOINTS
 62
     0
 48
50.0
100
AcDbPoint
 10
1484.673057123663
 20
9988.30564417085
 30
0.0
  0
ENDBLK
  5
164BC
330
163ED
100
AcDbEntity
  8
0
 48
50.0
100
AcDbBlockEnd
  0
BLOCK
  5
164BD
330
163FB
100
AcDbEntity
  8
0
 48
50.0
100
AcDbBlockBegin
  2
*D13
 70
     1
 10
0.0
 20
0.0
 30
0.0
  3
*D13
  1

  0
LINE
  5
19B5F
330
163FB
100
AcDbEntity
  8
寸法
 62
     0
 48
50.0
370
    -2
100
AcDbLine
 10
9264.673057123664
 20
9792.497424545963
 30
0.0
 11
9264.673057123664
 21
10048.30564417095
 31
0.0
  0
LINE
  5
19B60
330
163FB
100
AcDbEntity
  8
寸法
 62
     0
 48
50.0
370
    -2
100
AcDbLine
 10
9319.673057123663
 20
9792.497424545963
 30
0.0
 11
9319.673057123663
 21
10048.30564417095
 31
0.0
  0
LINE
  5
19B61
330
163FB
100
AcDbEntity
  8
寸法
 62
     0
 48
50.0
370
    -2
100
AcDbLine
 10
9264.673057123664
 20
9988.305644170949
 30
0.0
 11
9164.673057123664
 21
9988.305644170949
 31
0.0
  0
LINE
  5
19B62
330
163FB
100
AcDbEntity
  8
寸法
 62
     0
 48
50.0
370
    -2
100
AcDbLine
 10
9319.673057123663
 20
9988.305644170949
 30
0.0
 11
9736.64361987214
 21
9988.305644170949
 31
0.0
  0
LINE
  5
19B63
330
163FB
100
AcDbEntity
  8
寸法
 62
     0
 48
50.0
370
    -2
100
AcDbLine
 10
9264.673057123664
 20
9988.305644170949
 30
0.0
 11
9319.673057123663
 21
9988.305644170949
 31
0.0
  0
INSERT
  5
19B64
330
163FB
100
AcDbEntity
  8
寸法
 62
     0
 48
50.0
370
    -2
100
AcDbBlockReference
  2
_DOTSMALL
 10
9264.673057123664
 20
9988.305644170949
 30
0.0
 41
100.0
 42
100.0
 43
100.0
  0
INSERT
  5
19B65
330
163FB
100
AcDbEntity
  8
寸法
 62
     0
 48
50.0
370
    -2
100
AcDbBlockReference
  2
_DOTSMALL
 10
9319.673057123663
 20
9988.305644170949
 30
0.0
 41
100.0
 42
100.0
 43
100.0
 50
180.0
  0
MTEXT
  5
19B66
330
163FB
100
AcDbEntity
  8
寸法
 62
     7
 48
50.0
100
AcDbMText
 10
9628.158338497904
 20
10088.30564417095
 30
0.0
 40
120.0
 41
0.0
 71
     5
 72
     1
  1
\A1;55
  7
STYLE1
 73
     1
 44
1.0
1001
ACAD
1000
MTEXTBEGIN
1070
    73
1070
     1
1070
    44
1040
1.0
1070
    74
1070
     0
1000
MTEXTEND
  0
POINT
  5
19B67
330
163FB
100
AcDbEntity
  8
DEFPOINTS
 62
     0
 48
50.0
100
AcDbPoint
 10
9264.673057123664
 20
9772.497424545964
 30
0.0
  0
POINT
  5
19B68
330
163FB
100
AcDbEntity
  8
DEFPOINTS
 62
     0
 48
50.0
100
AcDbPoint
 10
9319.673057123663
 20
9772.497424545964
 30
0.0
  0
POINT
  5
19B69
330
163FB
100
AcDbEntity
  8
DEFPOINTS
 62
     0
 48
50.0
100
AcDbPoint
 10
9319.673057123663
 20
9988.305644170949
 30
0.0
  0
ENDBLK
  5
164C9
330
163FB
100
AcDbEntity
  8
0
 48
50.0
100
AcDbBlockEnd
  0
BLOCK
  5
165B6
330
165B5
100
AcDbEntity
  8
0
 48
50.0
100
AcDbBlockBegin
  2
*D14
 70
     1
 10
0.0
 20
0.0
 30
0.0
  3
*D14
  1

  0
LINE
  5
19C5D
330
165B5
100
AcDbEntity
  8
寸法
 62
     0
 48
50.0
370
    -2
100
AcDbLine
 10
1532.673057123657
 20
7148.497424545865
 30
0.0
 11
1532.673057123657
 21
6548.0666537797
 31
0.0
  0
LINE
  5
19C5E
330
165B5
100
AcDbEntity
  8
寸法
 62
     0
 48
50.0
370
    -2
100
AcDbLine
 10
1484.673057123653
 20
7122.497424545864
 30
0.0
 11
1484.673057123653
 21
6548.0666537797
 31
0.0
  0
LINE
  5
19C5F
330
165B5
100
AcDbEntity
  8
寸法
 62
     0
 48
50.0
370
    -2
100
AcDbLine
 10
1532.673057123657
 20
6608.0666537797
 30
0.0
 11
1632.673057123656
 21
6608.0666537797
 31
0.0
  0
LINE
  5
19C60
330
165B5
100
AcDbEntity
  8
寸法
 62
     0
 48
50.0
370
    -2
100
AcDbLine
 10
1484.673057123653
 20
6608.0666537797
 30
0.0
 11
1384.673057123653
 21
6608.0666537797
 31
0.0
  0
MTEXT
  5
19C61
330
165B5
100
AcDbEntity
  8
寸法
 62
     7
 48
50.0
100
AcDbMText
 10
1645.575028123714
 20
6708.0666537797
 30
0.0
 40
120.0
 41
0.0
 71
     5
 72
     1
  1
\A1;48
  7
STYLE1
 73
     1
 44
1.0
1001
ACAD
1000
MTEXTBEGIN
1070
    73
1070
     1
1070
    44
1040
1.0
1070
    74
1070
     0
1000
MTEXTEND
  0
LINE
  5
19C62
330
165B5
100
AcDbEntity
  8
寸法
 62
     0
 48
50.0
370
    -2
100
AcDbLine
 10
1532.673057123657
 20
6608.0666537797
 30
0.0
 11
1484.673057123653
 21
6608.0666537797
 31
0.0
  0
INSERT
  5
19C63
330
165B5
100
AcDbEntity
  8
寸法
 62
     0
 48
50.0
370
    -2
100
AcDbBlockReference
  2
_DOTSMALL
 10
1532.673057123657
 20
6608.0666537797
 30
0.0
 41
100.0
 42
100.0
 43
100.0
 50
180.0
  0
INSERT
  5
19C64
330
165B5
100
AcDbEntity
  8
寸法
 62
     0
 48
50.0
370
    -2
100
AcDbBlockReference
  2
_DOTSMALL
 10
1484.673057123653
 20
6608.0666537797
 30
0.0
 41
100.0
 42
100.0
 43
100.0
  0
POINT
  5
19C65
330
165B5
100
AcDbEntity
  8
DEFPOINTS
 62
     0
 48
50.0
100
AcDbPoint
 10
1532.673057123657
 20
7168.497424545865
 30
0.0
  0
POINT
  5
19C66
330
165B5
100
AcDbEntity
  8
DEFPOINTS
 62
     0
 48
50.0
100
AcDbPoint
 10
1484.673057123653
 20
7142.497424545864
 30
0.0
  0
POINT
  5
19C67
330
165B5
100
AcDbEntity
  8
DEFPOINTS
 62
     0
 48
50.0
100
AcDbPoint
 10
1484.673057123653
 20
6608.0666537797
 30
0.0
  0
ENDBLK
  5
165C3
330
165B5
100
AcDbEntity
  8
0
 48
50.0
100
AcDbBlockEnd
  0
BLOCK
  5
165C5
330
165C4
100
AcDbEntity
  8
0
 48
50.0
100
AcDbBlockBegin
  2
*D15
 70
     1
 10
0.0
 20
0.0
 30
0.0
  3
*D15
  1

  0
LINE
  5
19B54
330
165C4
100
AcDbEntity
  8
寸法
 62
     0
 48
50.0
370
    -2
100
AcDbLine
 10
6634.673057123641
 20
7122.497424545952
 30
0.0
 11
6634.673057123641
 21
6548.0666537797
 31
0.0
  0
LINE
  5
19B55
330
165C4
100
AcDbEntity
  8
寸法
 62
     0
 48
50.0
370
    -2
100
AcDbLine
 10
6586.673057123639
 20
7148.497424545865
 30
0.0
 11
6586.673057123639
 21
6548.0666537797
 31
0.0
  0
LINE
  5
19B56
330
165C4
100
AcDbEntity
  8
寸法
 62
     0
 48
50.0
370
    -2
100
AcDbLine
 10
6634.673057123641
 20
6608.0666537797
 30
0.0
 11
6734.67305712364
 21
6608.0666537797
 31
0.0
  0
LINE
  5
19B57
330
165C4
100
AcDbEntity
  8
寸法
 62
     0
 48
50.0
370
    -2
100
AcDbLine
 10
6586.673057123639
 20
6608.0666537797
 30
0.0
 11
6486.673057123638
 21
6608.0666537797
 31
0.0
  0
MTEXT
  5
19B58
330
165C4
100
AcDbEntity
  8
寸法
 62
     7
 48
50.0
100
AcDbMText
 10
6475.710159474892
 20
6708.0666537797
 30
0.0
 40
120.0
 41
0.0
 71
     5
 72
     1
  1
\A1;48
  7
STYLE1
 73
     1
 44
1.0
1001
ACAD
1000
MTEXTBEGIN
1070
    73
1070
     1
1070
    44
1040
1.0
1070
    74
1070
     0
1000
MTEXTEND
  0
LINE
  5
19B59
330
165C4
100
AcDbEntity
  8
寸法
 62
     0
 48
50.0
370
    -2
100
AcDbLine
 10
6634.673057123641
 20
6608.0666537797
 30
0.0
 11
6586.673057123639
 21
6608.0666537797
 31
0.0
  0
INSERT
  5
19B5A
330
165C4
100
AcDbEntity
  8
寸法
 62
     0
 48
50.0
370
    -2
100
AcDbBlockReference
  2
_DOTSMALL
 10
6634.673057123641
 20
6608.0666537797
 30
0.0
 41
100.0
 42
100.0
 43
100.0
 50
180.0
  0
INSERT
  5
19B5B
330
165C4
100
AcDbEntity
  8
寸法
 62
     0
 48
50.0
370
    -2
100
AcDbBlockReference
  2
_DOTSMALL
 10
6586.673057123639
 20
6608.0666537797
 30
0.0
 41
100.0
 42
100.0
 43
100.0
  0
POINT
  5
19B5C
330
165C4
100
AcDbEntity
  8
DEFPOINTS
 62
     0
 48
50.0
100
AcDbPoint
 10
6634.673057123641
 20
7142.497424545952
 30
0.0
  0
POINT
  5
19B5D
330
165C4
100
AcDbEntity
  8
DEFPOINTS
 62
     0
 48
50.0
100
AcDbPoint
 10
6586.673057123639
 20
7168.497424545865
 30
0.0
  0
POINT
  5
19B5E
330
165C4
100
AcDbEntity
  8
DEFPOINTS
 62
     0
 48
50.0
100
AcDbPoint
 10
6586.673057123639
 20
6608.0666537797
 30
0.0
  0
ENDBLK
  5
165D2
330
165C4
100
AcDbEntity
  8
0
 48
50.0
100
AcDbBlockEnd
  0
BLOCK
  5
1663F
330
165EA
100
AcDbEntity
  8
0
 48
50.0
100
AcDbBlockBegin
  2
*D16
 70
     1
 10
0.0
 20
0.0
 30
0.0
  3
*D16
  1

  0
LINE
  5
19B4B
330
165EA
100
AcDbEntity
  8
寸法
 62
     0
 48
50.0
370
    -2
100
AcDbLine
 10
6744.673057123653
 20
7122.497424545864
 30
0.0
 11
6744.673057123653
 21
6548.066653779702
 31
0.0
  0
LINE
  5
19B4C
330
165EA
100
AcDbEntity
  8
寸法
 62
     0
 48
50.0
370
    -2
100
AcDbLine
 10
6634.673057123641
 20
7122.497424545952
 30
0.0
 11
6634.673057123641
 21
6548.066653779702
 31
0.0
  0
LINE
  5
19B4D
330
165EA
100
AcDbEntity
  8
寸法
 62
     0
 48
50.0
370
    -2
100
AcDbLine
 10
6744.673057123653
 20
6608.066653779701
 30
0.0
 11
6634.673057123641
 21
6608.066653779701
 31
0.0
  0
MTEXT
  5
19B4E
330
165EA
100
AcDbEntity
  8
寸法
 62
     7
 48
50.0
100
AcDbMText
 10
6689.673057123648
 20
6456.37475874347
 30
0.0
 40
120.0
 41
0.0
 71
     5
 72
     1
  1
\A1;110
  7
STYLE1
 73
     1
 44
1.0
1001
ACAD
1000
MTEXTBEGIN
1070
    73
1070
     1
1070
    44
1040
1.0
1070
    74
1070
     0
1000
MTEXTEND
  0
INSERT
  5
19B4F
330
165EA
100
AcDbEntity
  8
寸法
 62
     0
 48
50.0
370
    -2
100
AcDbBlockReference
  2
_DOTSMALL
 10
6744.673057123653
 20
6608.066653779701
 30
0.0
 41
100.0
 42
100.0
 43
100.0
  0
INSERT
  5
19B50
330
165EA
100
AcDbEntity
  8
寸法
 62
     0
 48
50.0
370
    -2
100
AcDbBlockReference
  2
_DOTSMALL
 10
6634.673057123641
 20
6608.066653779701
 30
0.0
 41
100.0
 42
100.0
 43
100.0
 50
180.0
  0
POINT
  5
19B51
330
165EA
100
AcDbEntity
  8
DEFPOINTS
 62
     0
 48
50.0
100
AcDbPoint
 10
6744.673057123653
 20
7142.497424545864
 30
0.0
  0
POINT
  5
19B52
330
165EA
100
AcDbEntity
  8
DEFPOINTS
 62
     0
 48
50.0
100
AcDbPoint
 10
6634.673057123641
 20
7142.497424545952
 30
0.0
  0
POINT
  5
19B53
330
165EA
100
AcDbEntity
  8
DEFPOINTS
 62
     0
 48
50.0
100
AcDbPoint
 10
6634.673057123641
 20
6608.066653779701
 30
0.0
  0
ENDBLK
  5
16649
330
165EA
100
AcDbEntity
  8
0
 48
50.0
100
AcDbBlockEnd
  0
BLOCK
  5
166D0
330
166CF
100
AcDbEntity
  8
0
 48
50.0
100
AcDbBlockBegin
  2
*D17
 70
     1
 10
0.0
 20
0.0
 30
0.0
  3
*D17
  1

  0
LINE
  5
19B40
330
166CF
100
AcDbEntity
  8
寸法
 62
     0
 48
50.0
370
    -2
100
AcDbLine
 10
6744.673057123662
 20
9792.497424545919
 30
0.0
 11
6744.673057123662
 21
10048.30564417096
 31
0.0
  0
LINE
  5
19B41
330
166CF
100
AcDbEntity
  8
寸法
 62
     0
 48
50.0
370
    -2
100
AcDbLine
 10
6634.673057123663
 20
9792.497424545913
 30
0.0
 11
6634.673057123663
 21
10048.30564417096
 31
0.0
  0
LINE
  5
19B42
330
166CF
100
AcDbEntity
  8
寸法
 62
     0
 48
50.0
370
    -2
100
AcDbLine
 10
6744.673057123662
 20
9988.305644170967
 30
0.0
 11
6844.673057123663
 21
9988.305644170967
 31
0.0
  0
LINE
  5
19B43
330
166CF
100
AcDbEntity
  8
寸法
 62
     0
 48
50.0
370
    -2
100
AcDbLine
 10
6634.673057123663
 20
9988.305644170967
 30
0.0
 11
6534.673057123663
 21
9988.305644170967
 31
0.0
  0
LINE
  5
19B44
330
166CF
100
AcDbEntity
  8
寸法
 62
     0
 48
50.0
370
    -2
100
AcDbLine
 10
6744.673057123662
 20
9988.305644170967
 30
0.0
 11
6634.673057123663
 21
9988.305644170967
 31
0.0
  0
INSERT
  5
19B45
330
166CF
100
AcDbEntity
  8
寸法
 62
     0
 48
50.0
370
    -2
100
AcDbBlockReference
  2
_DOTSMALL
 10
6744.673057123662
 20
9988.305644170967
 30
0.0
 41
100.0
 42
100.0
 43
100.0
 50
180.0
  0
INSERT
  5
19B46
330
166CF
100
AcDbEntity
  8
寸法
 62
     0
 48
50.0
370
    -2
100
AcDbBlockReference
  2
_DOTSMALL
 10
6634.673057123663
 20
9988.305644170967
 30
0.0
 41
100.0
 42
100.0
 43
100.0
  0
MTEXT
  5
19B47
330
166CF
100
AcDbEntity
  8
寸法
 62
     7
 48
50.0
100
AcDbMText
 10
6689.673057123664
 20
10088.30564417096
 30
0.0
 40
120.0
 41
0.0
 71
     5
 72
     1
  1
\A1;110
  7
STYLE1
 73
     1
 44
1.0
1001
ACAD
1000
MTEXTBEGIN
1070
    73
1070
     1
1070
    44
1040
1.0
1070
    74
1070
     0
1000
MTEXTEND
  0
POINT
  5
19B48
330
166CF
100
AcDbEntity
  8
DEFPOINTS
 62
     0
 48
50.0
100
AcDbPoint
 10
6744.673057123662
 20
9772.497424545917
 30
0.0
  0
POINT
  5
19B49
330
166CF
100
AcDbEntity
  8
DEFPOINTS
 62
     0
 48
50.0
100
AcDbPoint
 10
6634.673057123663
 20
9772.497424545916
 30
0.0
  0
POINT
  5
19B4A
330
166CF
100
AcDbEntity
  8
DEFPOINTS
 62
     0
 48
50.0
100
AcDbPoint
 10
6634.673057123663
 20
9988.305644170967
 30
0.0
  0
ENDBLK
  5
166DC
330
166CF
100
AcDbEntity
  8
0
 48
50.0
100
AcDbBlockEnd
  0
BLOCK
  5
1726C
330
16908
100
AcDbEntity
  8
0
 48
50.0
100
AcDbBlockBegin
  2
*D18
 70
     1
 10
0.0
 20
0.0
 30
0.0
  3
*D18
  1

  0
LINE
  5
19B38
330
16908
100
AcDbEntity
  8
寸法
 62
     0
 48
50.0
370
    -2
100
AcDbLine
 10
9319.673057123663
 20
9792.497424545963
 30
0.0
 11
9319.673057123663
 21
10297.62711772726
 31
0.0
  0
LINE
  5
19B39
330
16908
100
AcDbEntity
  8
寸法
 62
     0
 48
50.0
370
    -2
100
AcDbLine
 10
6689.673057123664
 20
10237.62711772726
 30
0.0
 11
9319.673057123663
 21
10237.62711772726
 31
0.0
  0
INSERT
  5
19B3A
330
16908
100
AcDbEntity
  8
寸法
 62
     0
 48
50.0
370
    -2
100
AcDbBlockReference
  2
_DOTSMALL
 10
6689.673057123664
 20
10237.62711772726
 30
0.0
 41
100.0
 42
100.0
 43
100.0
 50
180.0
  0
INSERT
  5
19B3B
330
16908
100
AcDbEntity
  8
寸法
 62
     0
 48
50.0
370
    -2
100
AcDbBlockReference
  2
_DOTSMALL
 10
9319.673057123663
 20
10237.62711772726
 30
0.0
 41
100.0
 42
100.0
 43
100.0
  0
MTEXT
  5
19B3C
330
16908
100
AcDbEntity
  8
寸法
 62
     7
 48
50.0
100
AcDbMText
 10
8004.673057123664
 20
10337.63892875088
 30
0.0
 40
120.0
 41
0.0
 71
     5
 72
     1
  1
\A1;2630
  7
STYLE1
 73
     1
 44
1.0
1001
ACAD
1000
MTEXTBEGIN
1070
    73
1070
     1
1070
    44
1040
1.0
1070
    74
1070
     0
1000
MTEXTEND
  0
POINT
  5
19B3D
330
16908
100
AcDbEntity
  8
DEFPOINTS
 62
     0
 48
50.0
100
AcDbPoint
 10
6689.673057123664
 20
10147.29355852891
 30
0.0
  0
POINT
  5
19B3E
330
16908
100
AcDbEntity
  8
DEFPOINTS
 62
     0
 48
50.0
100
AcDbPoint
 10
9319.673057123663
 20
9772.497424545964
 30
0.0
  0
POINT
  5
19B3F
330
16908
100
AcDbEntity
  8
DEFPOINTS
 62
     0
 48
50.0
100
AcDbPoint
 10
9319.673057123663
 20
10237.62711772726
 30
0.0
  0
ENDBLK
  5
17275
330
16908
100
AcDbEntity
  8
0
 48
50.0
100
AcDbBlockEnd
  0
BLOCK
  5
17BD1
330
17BC5
100
AcDbEntity
  8
0
 48
50.0
100
AcDbBlockBegin
  2
*D19
 70
     1
 10
0.0
 20
0.0
 30
0.0
  3
*D19
  1

  0
LINE
  5
19BE1
330
17BC5
100
AcDbEntity
  8
寸法
 62
     0
 48
50.0
370
    -2
100
AcDbLine
 10
4004.67305712364
 20
7122.497424545952
 30
0.0
 11
4004.67305712364
 21
6548.0666537797
 31
0.0
  0
LINE
  5
19BE2
330
17BC5
100
AcDbEntity
  8
寸法
 62
     0
 48
50.0
370
    -2
100
AcDbLine
 10
3956.673057123639
 20
7148.497424545865
 30
0.0
 11
3956.673057123639
 21
6548.0666537797
 31
0.0
  0
LINE
  5
19BE3
330
17BC5
100
AcDbEntity
  8
寸法
 62
     0
 48
50.0
370
    -2
100
AcDbLine
 10
4004.67305712364
 20
6608.0666537797
 30
0.0
 11
4104.67305712364
 21
6608.0666537797
 31
0.0
  0
LINE
  5
19BE4
330
17BC5
100
AcDbEntity
  8
寸法
 62
     0
 48
50.0
370
    -2
100
AcDbLine
 10
3956.673057123639
 20
6608.0666537797
 30
0.0
 11
3856.673057123638
 21
6608.0666537797
 31
0.0
  0
MTEXT
  5
19BE5
330
17BC5
100
AcDbEntity
  8
寸法
 62
     7
 48
50.0
100
AcDbMText
 10
3845.710159474892
 20
6708.0666537797
 30
0.0
 40
120.0
 41
0.0
 71
     5
 72
     1
  1
\A1;48
  7
STYLE1
 73
     1
 44
1.0
1001
ACAD
1000
MTEXTBEGIN
1070
    73
1070
     1
1070
    44
1040
1.0
1070
    74
1070
     0
1000
MTEXTEND
  0
LINE
  5
19BE6
330
17BC5
100
AcDbEntity
  8
寸法
 62
     0
 48
50.0
370
    -2
100
AcDbLine
 10
4004.67305712364
 20
6608.0666537797
 30
0.0
 11
3956.673057123639
 21
6608.0666537797
 31
0.0
  0
INSERT
  5
19BE7
330
17BC5
100
AcDbEntity
  8
寸法
 62
     0
 48
50.0
370
    -2
100
AcDbBlockReference
  2
_DOTSMALL
 10
4004.67305712364
 20
6608.0666537797
 30
0.0
 41
100.0
 42
100.0
 43
100.0
 50
180.0
  0
INSERT
  5
19BE8
330
17BC5
100
AcDbEntity
  8
寸法
 62
     0
 48
50.0
370
    -2
100
AcDbBlockReference
  2
_DOTSMALL
 10
3956.673057123639
 20
6608.0666537797
 30
0.0
 41
100.0
 42
100.0
 43
100.0
  0
POINT
  5
19BE9
330
17BC5
100
AcDbEntity
  8
DEFPOINTS
 62
     0
 48
50.0
100
AcDbPoint
 10
4004.67305712364
 20
7142.497424545952
 30
0.0
  0
POINT
  5
19BEA
330
17BC5
100
AcDbEntity
  8
DEFPOINTS
 62
     0
 48
50.0
100
AcDbPoint
 10
3956.673057123639
 20
7168.497424545865
 30
0.0
  0
POINT
  5
19BEB
330
17BC5
100
AcDbEntity
  8
DEFPOINTS
 62
     0
 48
50.0
100
AcDbPoint
 10
3956.673057123639
 20
6608.0666537797
 30
0.0
  0
ENDBLK
  5
17BD2
330
17BC5
100
AcDbEntity
  8
0
 48
50.0
100
AcDbBlockEnd
  0
BLOCK
  5
17BDC
330
17BD3
100
AcDbEntity
  8
0
 48
50.0
100
AcDbBlockBegin
  2
*D20
 70
     1
 10
0.0
 20
0.0
 30
0.0
  3
*D20
  1

  0
LINE
  5
19C43
330
17BD3
100
AcDbEntity
  8
寸法
 62
     0
 48
50.0
370
    -2
100
AcDbLine
 10
1532.673057123657
 20
7148.497424545865
 30
0.0
 11
1532.673057123657
 21
6548.0666537797
 31
0.0
  0
LINE
  5
19C44
330
17BD3
100
AcDbEntity
  8
寸法
 62
     0
 48
50.0
370
    -2
100
AcDbLine
 10
3956.673057123639
 20
6608.0666537797
 30
0.0
 11
1532.673057123657
 21
6608.0666537797
 31
0.0
  0
INSERT
  5
19C45
330
17BD3
100
AcDbEntity
  8
寸法
 62
     0
 48
50.0
370
    -2
100
AcDbBlockReference
  2
_DOTSMALL
 10
3956.673057123639
 20
6608.0666537797
 30
0.0
 41
100.0
 42
100.0
 43
100.0
  0
INSERT
  5
19C46
330
17BD3
100
AcDbEntity
  8
寸法
 62
     0
 48
50.0
370
    -2
100
AcDbBlockReference
  2
_DOTSMALL
 10
1532.673057123657
 20
6608.0666537797
 30
0.0
 41
100.0
 42
100.0
 43
100.0
 50
180.0
  0
MTEXT
  5
19C47
330
17BD3
100
AcDbEntity
  8
寸法
 62
     7
 48
50.0
100
AcDbMText
 10
2744.673057123648
 20
6708.078464803323
 30
0.0
 40
120.0
 41
0.0
 71
     5
 72
     1
  1
\A1;有効開口部間口 2424
  7
STYLE1
 73
     1
 44
1.0
1001
ACAD
1000
MTEXTBEGIN
1070
    73
1070
     1
1070
    44
1040
1.0
1070
    74
1070
     0
1000
MTEXTEND
  0
POINT
  5
19C48
330
17BD3
100
AcDbEntity
  8
DEFPOINTS
 62
     0
 48
50.0
100
AcDbPoint
 10
3956.673057123639
 20
7168.497424545865
 30
0.0
  0
POINT
  5
19C49
330
17BD3
100
AcDbEntity
  8
DEFPOINTS
 62
     0
 48
50.0
100
AcDbPoint
 10
1532.673057123657
 20
7168.497424545865
 30
0.0
  0
POINT
  5
19C4A
330
17BD3
100
AcDbEntity
  8
DEFPOINTS
 62
     0
 48
50.0
100
AcDbPoint
 10
1532.673057123657
 20
6608.0666537797
 30
0.0
  0
ENDBLK
  5
17BDD
330
17BD3
100
AcDbEntity
  8
0
 48
50.0
100
AcDbBlockEnd
  0
BLOCK
  5
17BE8
330
17BDE
100
AcDbEntity
  8
0
 48
50.0
100
AcDbBlockBegin
  2
*D21
 70
     1
 10
0.0
 20
0.0
 30
0.0
  3
*D21
  1

  0
LINE
  5
19C8A
330
17BDE
100
AcDbEntity
  8
寸法
 62
     0
 48
50.0
370
    -2
100
AcDbLine
 10
1484.673057123663
 20
9792.497424545869
 30
0.0
 11
1484.673057123663
 21
10048.30564417096
 31
0.0
  0
LINE
  5
19C8B
330
17BDE
100
AcDbEntity
  8
寸法
 62
     0
 48
50.0
370
    -2
100
AcDbLine
 10
4004.673057123664
 20
9792.497424545963
 30
0.0
 11
4004.673057123664
 21
10048.30564417096
 31
0.0
  0
LINE
  5
19C8C
330
17BDE
100
AcDbEntity
  8
寸法
 62
     0
 48
50.0
370
    -2
100
AcDbLine
 10
1484.673057123663
 20
9988.305644170967
 30
0.0
 11
4004.673057123664
 21
9988.305644170967
 31
0.0
  0
INSERT
  5
19C8D
330
17BDE
100
AcDbEntity
  8
寸法
 62
     0
 48
50.0
370
    -2
100
AcDbBlockReference
  2
_DOTSMALL
 10
1484.673057123663
 20
9988.305644170967
 30
0.0
 41
100.0
 42
100.0
 43
100.0
 50
180.0
  0
INSERT
  5
19C8E
330
17BDE
100
AcDbEntity
  8
寸法
 62
     0
 48
50.0
370
    -2
100
AcDbBlockReference
  2
_DOTSMALL
 10
4004.673057123664
 20
9988.305644170967
 30
0.0
 41
100.0
 42
100.0
 43
100.0
  0
MTEXT
  5
19C8F
330
17BDE
100
AcDbEntity
  8
寸法
 62
     7
 48
50.0
100
AcDbMText
 10
2744.673057123664
 20
10088.31745519459
 30
0.0
 40
120.0
 41
0.0
 71
     5
 72
     1
  1
\A1;6X420=2520
  7
STYLE1
 73
     1
 44
1.0
1001
ACAD
1000
MTEXTBEGIN
1070
    73
1070
     1
1070
    44
1040
1.0
1070
    74
1070
     0
1000
MTEXTEND
  0
POINT
  5
19C90
330
17BDE
100
AcDbEntity
  8
DEFPOINTS
 62
     0
 48
50.0
100
AcDbPoint
 10
1484.673057123663
 20
9772.49742454587
 30
0.0
  0
POINT
  5
19C91
330
17BDE
100
AcDbEntity
  8
DEFPOINTS
 62
     0
 48
50.0
100
AcDbPoint
 10
4004.673057123664
 20
9772.497424545964
 30
0.0
  0
POINT
  5
19C92
330
17BDE
100
AcDbEntity
  8
DEFPOINTS
 62
     0
 48
50.0
100
AcDbPoint
 10
4004.673057123664
 20
9988.305644170967
 30
0.0
  0
ENDBLK
  5
17BE9
330
17BDE
100
AcDbEntity
  8
0
 48
50.0
100
AcDbBlockEnd
  0
BLOCK
  5
17BF6
330
17BEA
100
AcDbEntity
  8
0
 48
50.0
100
AcDbBlockBegin
  2
*D22
 70
     1
 10
0.0
 20
0.0
 30
0.0
  3
*D22
  1

  0
LINE
  5
19BF4
330
17BEA
100
AcDbEntity
  8
寸法
 62
     0
 48
50.0
370
    -2
100
AcDbLine
 10
4114.673057123662
 20
9792.497424545919
 30
0.0
 11
4114.673057123662
 21
10048.30564417096
 31
0.0
  0
LINE
  5
19BF5
330
17BEA
100
AcDbEntity
  8
寸法
 62
     0
 48
50.0
370
    -2
100
AcDbLine
 10
4004.673057123664
 20
9792.497424545913
 30
0.0
 11
4004.673057123664
 21
10048.30564417096
 31
0.0
  0
LINE
  5
19BF6
330
17BEA
100
AcDbEntity
  8
寸法
 62
     0
 48
50.0
370
    -2
100
AcDbLine
 10
4114.673057123662
 20
9988.305644170967
 30
0.0
 11
4214.673057123663
 21
9988.305644170967
 31
0.0
  0
LINE
  5
19BF7
330
17BEA
100
AcDbEntity
  8
寸法
 62
     0
 48
50.0
370
    -2
100
AcDbLine
 10
4004.673057123664
 20
9988.305644170967
 30
0.0
 11
3904.673057123665
 21
9988.305644170967
 31
0.0
  0
LINE
  5
19BF8
330
17BEA
100
AcDbEntity
  8
寸法
 62
     0
 48
50.0
370
    -2
100
AcDbLine
 10
4114.673057123662
 20
9988.305644170967
 30
0.0
 11
4004.673057123664
 21
9988.305644170967
 31
0.0
  0
INSERT
  5
19BF9
330
17BEA
100
AcDbEntity
  8
寸法
 62
     0
 48
50.0
370
    -2
100
AcDbBlockReference
  2
_DOTSMALL
 10
4114.673057123662
 20
9988.305644170967
 30
0.0
 41
100.0
 42
100.0
 43
100.0
 50
180.0
  0
INSERT
  5
19BFA
330
17BEA
100
AcDbEntity
  8
寸法
 62
     0
 48
50.0
370
    -2
100
AcDbBlockReference
  2
_DOTSMALL
 10
4004.673057123664
 20
9988.305644170967
 30
0.0
 41
100.0
 42
100.0
 43
100.0
  0
MTEXT
  5
19BFB
330
17BEA
100
AcDbEntity
  8
寸法
 62
     7
 48
50.0
100
AcDbMText
 10
4059.673057123663
 20
10088.30564417096
 30
0.0
 40
120.0
 41
0.0
 71
     5
 72
     1
  1
\A1;110
  7
STYLE1
 73
     1
 44
1.0
1001
ACAD
1000
MTEXTBEGIN
1070
    73
1070
     1
1070
    44
1040
1.0
1070
    74
1070
     0
1000
MTEXTEND
  0
POINT
  5
19BFC
330
17BEA
100
AcDbEntity
  8
DEFPOINTS
 62
     0
 48
50.0
100
AcDbPoint
 10
4114.673057123662
 20
9772.497424545917
 30
0.0
  0
POINT
  5
19BFD
330
17BEA
100
AcDbEntity
  8
DEFPOINTS
 62
     0
 48
50.0
100
AcDbPoint
 10
4004.673057123664
 20
9772.497424545916
 30
0.0
  0
POINT
  5
19BFE
330
17BEA
100
AcDbEntity
  8
DEFPOINTS
 62
     0
 48
50.0
100
AcDbPoint
 10
4004.673057123664
 20
9988.305644170967
 30
0.0
  0
ENDBLK
  5
17BF7
330
17BEA
100
AcDbEntity
  8
0
 48
50.0
100
AcDbBlockEnd
  0
BLOCK
  5
17C02
330
17BF8
100
AcDbEntity
  8
0
 48
50.0
100
AcDbBlockBegin
  2
*D23
 70
     1
 10
0.0
 20
0.0
 30
0.0
  3
*D23
  1

  0
LINE
  5
19C54
330
17BF8
100
AcDbEntity
  8
寸法
 62
     0
 48
50.0
370
    -2
100
AcDbLine
 10
1429.673057123628
 20
9792.497424545835
 30
0.0
 11
1429.673057123628
 21
10297.62711772726
 31
0.0
  0
LINE
  5
19C55
330
17BF8
100
AcDbEntity
  8
寸法
 62
     0
 48
50.0
370
    -2
100
AcDbLine
 10
4059.673057123664
 20
10167.29355852891
 30
0.0
 11
4059.673057123664
 21
10297.62711772726
 31
0.0
  0
LINE
  5
19C56
330
17BF8
100
AcDbEntity
  8
寸法
 62
     0
 48
50.0
370
    -2
100
AcDbLine
 10
1429.673057123628
 20
10237.62711772726
 30
0.0
 11
4059.673057123664
 21
10237.62711772726
 31
0.0
  0
INSERT
  5
19C57
330
17BF8
100
AcDbEntity
  8
寸法
 62
     0
 48
50.0
370
    -2
100
AcDbBlockReference
  2
_DOTSMALL
 10
1429.673057123628
 20
10237.62711772726
 30
0.0
 41
100.0
 42
100.0
 43
100.0
 50
180.0
  0
INSERT
  5
19C58
330
17BF8
100
AcDbEntity
  8
寸法
 62
     0
 48
50.0
370
    -2
100
AcDbBlockReference
  2
_DOTSMALL
 10
4059.673057123664
 20
10237.62711772726
 30
0.0
 41
100.0
 42
100.0
 43
100.0
  0
MTEXT
  5
19C59
330
17BF8
100
AcDbEntity
  8
寸法
 62
     7
 48
50.0
100
AcDbMText
 10
2744.673057123646
 20
10337.63892875088
 30
0.0
 40
120.0
 41
0.0
 71
     5
 72
     1
  1
\A1;2630
  7
STYLE1
 73
     1
 44
1.0
1001
ACAD
1000
MTEXTBEGIN
1070
    73
1070
     1
1070
    44
1040
1.0
1070
    74
1070
     0
1000
MTEXTEND
  0
POINT
  5
19C5A
330
17BF8
100
AcDbEntity
  8
DEFPOINTS
 62
     0
 48
50.0
100
AcDbPoint
 10
1429.673057123628
 20
9772.497424545838
 30
0.0
  0
POINT
  5
19C5B
330
17BF8
100
AcDbEntity
  8
DEFPOINTS
 62
     0
 48
50.0
100
AcDbPoint
 10
4059.673057123664
 20
10147.29355852891
 30
0.0
  0
POINT
  5
19C5C
330
17BF8
100
AcDbEntity
  8
DEFPOINTS
 62
     0
 48
50.0
100
AcDbPoint
 10
4059.673057123664
 20
10237.62711772726
 30
0.0
  0
ENDBLK
  5
17C03
330
17BF8
100
AcDbEntity
  8
0
 48
50.0
100
AcDbBlockEnd
  0
BLOCK
  5
17C54
330
17C48
100
AcDbEntity
  8
0
 48
50.0
100
AcDbBlockBegin
  2
*D24
 70
     1
 10
0.0
 20
0.0
 30
0.0
  3
*D24
  1

  0
LINE
  5
19BCD
330
17C48
100
AcDbEntity
  8
寸法
 62
     0
 48
50.0
370
    -2
100
AcDbLine
 10
4162.673057123657
 20
7148.497424545865
 30
0.0
 11
4162.673057123657
 21
6548.0666537797
 31
0.0
  0
LINE
  5
19BCE
330
17C48
100
AcDbEntity
  8
寸法
 62
     0
 48
50.0
370
    -2
100
AcDbLine
 10
4114.673057123653
 20
7122.497424545864
 30
0.0
 11
4114.673057123653
 21
6548.0666537797
 31
0.0
  0
LINE
  5
19BCF
330
17C48
100
AcDbEntity
  8
寸法
 62
     0
 48
50.0
370
    -2
100
AcDbLine
 10
4162.673057123657
 20
6608.0666537797
 30
0.0
 11
4262.673057123657
 21
6608.0666537797
 31
0.0
  0
LINE
  5
19BD0
330
17C48
100
AcDbEntity
  8
寸法
 62
     0
 48
50.0
370
    -2
100
AcDbLine
 10
4114.673057123653
 20
6608.0666537797
 30
0.0
 11
4014.673057123653
 21
6608.0666537797
 31
0.0
  0
MTEXT
  5
19BD1
330
17C48
100
AcDbEntity
  8
寸法
 62
     7
 48
50.0
100
AcDbMText
 10
4275.575028123713
 20
6708.0666537797
 30
0.0
 40
120.0
 41
0.0
 71
     5
 72
     1
  1
\A1;48
  7
STYLE1
 73
     1
 44
1.0
1001
ACAD
1000
MTEXTBEGIN
1070
    73
1070
     1
1070
    44
1040
1.0
1070
    74
1070
     0
1000
MTEXTEND
  0
LINE
  5
19BD2
330
17C48
100
AcDbEntity
  8
寸法
 62
     0
 48
50.0
370
    -2
100
AcDbLine
 10
4162.673057123657
 20
6608.0666537797
 30
0.0
 11
4114.673057123653
 21
6608.0666537797
 31
0.0
  0
INSERT
  5
19BD3
330
17C48
100
AcDbEntity
  8
寸法
 62
     0
 48
50.0
370
    -2
100
AcDbBlockReference
  2
_DOTSMALL
 10
4162.673057123657
 20
6608.0666537797
 30
0.0
 41
100.0
 42
100.0
 43
100.0
 50
180.0
  0
INSERT
  5
19BD4
330
17C48
100
AcDbEntity
  8
寸法
 62
     0
 48
50.0
370
    -2
100
AcDbBlockReference
  2
_DOTSMALL
 10
4114.673057123653
 20
6608.0666537797
 30
0.0
 41
100.0
 42
100.0
 43
100.0
  0
POINT
  5
19BD5
330
17C48
100
AcDbEntity
  8
DEFPOINTS
 62
     0
 48
50.0
100
AcDbPoint
 10
4162.673057123657
 20
7168.497424545865
 30
0.0
  0
POINT
  5
19BD6
330
17C48
100
AcDbEntity
  8
DEFPOINTS
 62
     0
 48
50.0
100
AcDbPoint
 10
4114.673057123653
 20
7142.497424545864
 30
0.0
  0
POINT
  5
19BD7
330
17C48
100
AcDbEntity
  8
DEFPOINTS
 62
     0
 48
50.0
100
AcDbPoint
 10
4114.673057123653
 20
6608.0666537797
 30
0.0
  0
ENDBLK
  5
17C55
330
17C48
100
AcDbEntity
  8
0
 48
50.0
100
AcDbBlockEnd
  0
BLOCK
  5
17C60
330
17C56
100
AcDbEntity
  8
0
 48
50.0
100
AcDbBlockBegin
  2
*D25
 70
     1
 10
0.0
 20
0.0
 30
0.0
  3
*D25
  1

  0
LINE
  5
19BD8
330
17C56
100
AcDbEntity
  8
寸法
 62
     0
 48
50.0
370
    -2
100
AcDbLine
 10
4114.673057123653
 20
7122.497424545864
 30
0.0
 11
4114.673057123653
 21
6548.066653779702
 31
0.0
  0
LINE
  5
19BD9
330
17C56
100
AcDbEntity
  8
寸法
 62
     0
 48
50.0
370
    -2
100
AcDbLine
 10
4004.67305712364
 20
7122.497424545952
 30
0.0
 11
4004.67305712364
 21
6548.066653779702
 31
0.0
  0
LINE
  5
19BDA
330
17C56
100
AcDbEntity
  8
寸法
 62
     0
 48
50.0
370
    -2
100
AcDbLine
 10
4114.673057123653
 20
6608.066653779701
 30
0.0
 11
4004.67305712364
 21
6608.066653779701
 31
0.0
  0
MTEXT
  5
19BDB
330
17C56
100
AcDbEntity
  8
寸法
 62
     7
 48
50.0
100
AcDbMText
 10
4059.673057123647
 20
6456.37475874347
 30
0.0
 40
120.0
 41
0.0
 71
     5
 72
     1
  1
\A1;110
  7
STYLE1
 73
     1
 44
1.0
1001
ACAD
1000
MTEXTBEGIN
1070
    73
1070
     1
1070
    44
1040
1.0
1070
    74
1070
     0
1000
MTEXTEND
  0
INSERT
  5
19BDC
330
17C56
100
AcDbEntity
  8
寸法
 62
     0
 48
50.0
370
    -2
100
AcDbBlockReference
  2
_DOTSMALL
 10
4114.673057123653
 20
6608.066653779701
 30
0.0
 41
100.0
 42
100.0
 43
100.0
  0
INSERT
  5
19BDD
330
17C56
100
AcDbEntity
  8
寸法
 62
     0
 48
50.0
370
    -2
100
AcDbBlockReference
  2
_DOTSMALL
 10
4004.67305712364
 20
6608.066653779701
 30
0.0
 41
100.0
 42
100.0
 43
100.0
 50
180.0
  0
POINT
  5
19BDE
330
17C56
100
AcDbEntity
  8
DEFPOINTS
 62
     0
 48
50.0
100
AcDbPoint
 10
4114.673057123653
 20
7142.497424545864
 30
0.0
  0
POINT
  5
19BDF
330
17C56
100
AcDbEntity
  8
DEFPOINTS
 62
     0
 48
50.0
100
AcDbPoint
 10
4004.67305712364
 20
7142.497424545952
 30
0.0
  0
POINT
  5
19BE0
330
17C56
100
AcDbEntity
  8
DEFPOINTS
 62
     0
 48
50.0
100
AcDbPoint
 10
4004.67305712364
 20
6608.066653779701
 30
0.0
  0
ENDBLK
  5
17C61
330
17C56
100
AcDbEntity
  8
0
 48
50.0
100
AcDbBlockEnd
  0
BLOCK
  5
18AAA
330
18AA0
100
AcDbEntity
  8
0
 48
50.0
100
AcDbBlockBegin
  2
*D26
 70
     1
 10
0.0
 20
0.0
 30
0.0
  3
*D26
  1

  0
LINE
  5
1999C
330
18AA0
100
AcDbEntity
  8
寸法
 62
     0
 48
50.0
370
    -2
100
AcDbLine
 10
14596.84983051328
 20
2161.270620748142
 30
0.0
 11
15341.77698848541
 21
2161.270620748142
 31
0.0
  0
LINE
  5
1999D
330
18AA0
100
AcDbEntity
  8
寸法
 62
     0
 48
50.0
370
    -2
100
AcDbLine
 10
14676.84983051328
 20
4181.270620748143
 30
0.0
 11
15341.77698848541
 21
4181.270620748143
 31
0.0
  0
LINE
  5
1999E
330
18AA0
100
AcDbEntity
  8
寸法
 62
     0
 48
50.0
370
    -2
100
AcDbLine
 10
15281.77698848541
 20
2161.270620748142
 30
0.0
 11
15281.77698848541
 21
4181.270620748143
 31
0.0
  0
INSERT
  5
1999F
330
18AA0
100
AcDbEntity
  8
寸法
 62
     0
 48
50.0
370
    -2
100
AcDbBlockReference
  2
_DOTSMALL
 10
15281.77698848541
 20
2161.270620748142
 30
0.0
 41
100.0
 42
100.0
 43
100.0
 50
270.0
  0
INSERT
  5
199A0
330
18AA0
100
AcDbEntity
  8
寸法
 62
     0
 48
50.0
370
    -2
100
AcDbBlockReference
  2
_DOTSMALL
 10
15281.77698848541
 20
4181.270620748143
 30
0.0
 41
100.0
 42
100.0
 43
100.0
 50
90.0
  0
MTEXT
  5
199A1
330
18AA0
100
AcDbEntity
  8
寸法
 62
     7
 48
50.0
100
AcDbMText
 10
15181.76517746178
 20
3171.270620748145
 30
0.0
 40
120.0
 41
0.0
 71
     5
 72
     1
  1
\A1;2020
  7
STYLE1
 11
0.0000000000000001
 21
1.0
 31
0.0
 73
     1
 44
1.0
1001
ACAD
1000
MTEXTBEGIN
1070
    73
1070
     1
1070
    44
1040
1.0
1070
    74
1070
     0
1000
MTEXTEND
  0
POINT
  5
199A2
330
18AA0
100
AcDbEntity
  8
DEFPOINTS
 62
     0
 48
50.0
100
AcDbPoint
 10
14576.84983051328
 20
2161.270620748142
 30
0.0
  0
POINT
  5
199A3
330
18AA0
100
AcDbEntity
  8
DEFPOINTS
 62
     0
 48
50.0
100
AcDbPoint
 10
14656.84983051328
 20
4181.270620748143
 30
0.0
  0
POINT
  5
199A4
330
18AA0
100
AcDbEntity
  8
DEFPOINTS
 62
     0
 48
50.0
100
AcDbPoint
 10
15281.77698848541
 20
4181.270620748143
 30
0.0
  0
ENDBLK
  5
18AAB
330
18AA0
100
AcDbEntity
  8
0
 48
50.0
100
AcDbBlockEnd
  0
BLOCK
  5
18AB6
330
18AAC
100
AcDbEntity
  8
0
 48
50.0
100
AcDbBlockBegin
  2
*D27
 70
     1
 10
0.0
 20
0.0
 30
0.0
  3
*D27
  1

  0
LINE
  5
19993
330
18AAC
100
AcDbEntity
  8
寸法
 62
     0
 48
50.0
370
    -2
100
AcDbLine
 10
11926.84983051328
 20
2161.270620748135
 30
0.0
 11
10743.09970133002
 21
2161.270620748135
 31
0.0
  0
LINE
  5
19994
330
18AAC
100
AcDbEntity
  8
寸法
 62
     0
 48
50.0
370
    -2
100
AcDbLine
 10
11866.84983051328
 20
4236.270620748141
 30
0.0
 11
10743.09970133002
 21
4236.270620748141
 31
0.0
  0
LINE
  5
19995
330
18AAC
100
AcDbEntity
  8
寸法
 62
     0
 48
50.0
370
    -2
100
AcDbLine
 10
10803.09970133002
 20
2161.270620748135
 30
0.0
 11
10803.09970133002
 21
4236.270620748141
 31
0.0
  0
INSERT
  5
19996
330
18AAC
100
AcDbEntity
  8
寸法
 62
     0
 48
50.0
370
    -2
100
AcDbBlockReference
  2
_DOTSMALL
 10
10803.09970133002
 20
2161.270620748135
 30
0.0
 41
100.0
 42
100.0
 43
100.0
 50
270.0
  0
INSERT
  5
19997
330
18AAC
100
AcDbEntity
  8
寸法
 62
     0
 48
50.0
370
    -2
100
AcDbBlockReference
  2
_DOTSMALL
 10
10803.09970133002
 20
4236.270620748141
 30
0.0
 41
100.0
 42
100.0
 43
100.0
 50
90.0
  0
MTEXT
  5
19998
330
18AAC
100
AcDbEntity
  8
寸法
 62
     7
 48
50.0
100
AcDbMText
 10
10703.08789030639
 20
3198.770620748141
 30
0.0
 40
120.0
 41
0.0
 71
     5
 72
     1
  1
\A1;2075
  7
STYLE1
 11
0.0000000000000001
 21
1.0
 31
0.0
 73
     1
 44
1.0
1001
ACAD
1000
MTEXTBEGIN
1070
    73
1070
     1
1070
    44
1040
1.0
1070
    74
1070
     0
1000
MTEXTEND
  0
POINT
  5
19999
330
18AAC
100
AcDbEntity
  8
DEFPOINTS
 62
     0
 48
50.0
100
AcDbPoint
 10
11946.84983051328
 20
2161.270620748135
 30
0.0
  0
POINT
  5
1999A
330
18AAC
100
AcDbEntity
  8
DEFPOINTS
 62
     0
 48
50.0
100
AcDbPoint
 10
11886.84983051328
 20
4236.270620748141
 30
0.0
  0
POINT
  5
1999B
330
18AAC
100
AcDbEntity
  8
DEFPOINTS
 62
     0
 48
50.0
100
AcDbPoint
 10
10803.09970133002
 20
4236.270620748141
 30
0.0
  0
ENDBLK
  5
18AB7
330
18AAC
100
AcDbEntity
  8
0
 48
50.0
100
AcDbBlockEnd
  0
BLOCK
  5
18AC2
330
18AB8
100
AcDbEntity
  8
0
 48
50.0
100
AcDbBlockBegin
  2
*D28
 70
     1
 10
0.0
 20
0.0
 30
0.0
  3
*D28
  1

  0
LINE
  5
1998A
330
18AB8
100
AcDbEntity
  8
寸法
 62
     0
 48
50.0
370
    -2
100
AcDbLine
 10
11926.84983051328
 20
4001.270620748136
 30
0.0
 11
11043.09970133002
 21
4001.270620748137
 31
0.0
  0
LINE
  5
1998B
330
18AB8
100
AcDbEntity
  8
寸法
 62
     0
 48
50.0
370
    -2
100
AcDbLine
 10
11926.84983051328
 20
2211.270620748135
 30
0.0
 11
11043.09970133002
 21
2211.270620748135
 31
0.0
  0
LINE
  5
1998C
330
18AB8
100
AcDbEntity
  8
寸法
 62
     0
 48
50.0
370
    -2
100
AcDbLine
 10
11103.09970133002
 20
4001.270620748137
 30
0.0
 11
11103.09970133002
 21
2211.270620748135
 31
0.0
  0
INSERT
  5
1998D
330
18AB8
100
AcDbEntity
  8
寸法
 62
     0
 48
50.0
370
    -2
100
AcDbBlockReference
  2
_DOTSMALL
 10
11103.09970133002
 20
4001.270620748137
 30
0.0
 41
100.0
 42
100.0
 43
100.0
 50
90.0
  0
INSERT
  5
1998E
330
18AB8
100
AcDbEntity
  8
寸法
 62
     0
 48
50.0
370
    -2
100
AcDbBlockReference
  2
_DOTSMALL
 10
11103.09970133002
 20
2211.270620748135
 30
0.0
 41
100.0
 42
100.0
 43
100.0
 50
270.0
  0
MTEXT
  5
1998F
330
18AB8
100
AcDbEntity
  8
寸法
 62
     7
 48
50.0
100
AcDbMText
 10
11003.09970133002
 20
3106.270620748138
 30
0.0
 40
120.0
 41
0.0
 71
     5
 72
     1
  1
\A1;1790
  7
STYLE1
 11
0.0000000000000001
 21
1.0
 31
0.0
 73
     1
 44
1.0
1001
ACAD
1000
MTEXTBEGIN
1070
    73
1070
     1
1070
    44
1040
1.0
1070
    74
1070
     0
1000
MTEXTEND
  0
POINT
  5
19990
330
18AB8
100
AcDbEntity
  8
DEFPOINTS
 62
     0
 48
50.0
100
AcDbPoint
 10
11946.84983051328
 20
4001.270620748136
 30
0.0
  0
POINT
  5
19991
330
18AB8
100
AcDbEntity
  8
DEFPOINTS
 62
     0
 48
50.0
100
AcDbPoint
 10
11946.84983051328
 20
2211.270620748135
 30
0.0
  0
POINT
  5
19992
330
18AB8
100
AcDbEntity
  8
DEFPOINTS
 62
     0
 48
50.0
100
AcDbPoint
 10
11103.09970133002
 20
2211.270620748135
 30
0.0
  0
ENDBLK
  5
18AC3
330
18AB8
100
AcDbEntity
  8
0
 48
50.0
100
AcDbBlockEnd
  0
BLOCK
  5
18C69
330
18C5E
100
AcDbEntity
  8
0
 48
50.0
100
AcDbBlockBegin
  2
*D29
 70
     1
 10
0.0
 20
0.0
 30
0.0
  3
*D29
  1

  0
LINE
  5
199D7
330
18C5E
100
AcDbEntity
  8
寸法
 62
     0
 48
50.0
370
    -2
100
AcDbLine
 10
11886.25411680438
 20
4235.568327817802
 30
0.0
 11
11270.31967769909
 21
4253.282478092133
 31
0.0
  0
LINE
  5
199D8
330
18C5E
100
AcDbEntity
  8
寸法
 62
     0
 48
50.0
370
    -2
100
AcDbLine
 10
11882.20066124775
 20
4094.626604052089
 30
0.0
 11
11266.26622214246
 21
4112.340754326419
 31
0.0
  0
LINE
  5
199D9
330
18C5E
100
AcDbEntity
  8
寸法
 62
     0
 48
50.0
370
    -2
100
AcDbLine
 10
11326.24142374489
 20
4110.615879621471
 30
0.0
 11
11330.29487930152
 21
4251.557603387185
 31
0.0
  0
LINE
  5
199DA
330
18C5E
100
AcDbEntity
  8
寸法
 62
     0
 48
50.0
370
    -2
100
AcDbLine
 10
11330.29487930152
 20
4251.557603387185
 30
0.0
 11
11340.6441275312
 21
4611.408813001769
 31
0.0
  0
INSERT
  5
199DB
330
18C5E
100
AcDbEntity
  8
寸法
 62
     0
 48
50.0
370
    -2
100
AcDbBlockReference
  2
_DOTSMALL
 10
11326.24142374489
 20
4110.615879621471
 30
0.0
 41
100.0
 42
100.0
 43
100.0
 50
268.3526390256378
  0
INSERT
  5
199DC
330
18C5E
100
AcDbEntity
  8
寸法
 62
     0
 48
50.0
370
    -2
100
AcDbBlockReference
  2
_DOTSMALL
 10
11330.29487930152
 20
4251.557603387185
 30
0.0
 41
100.0
 42
100.0
 43
100.0
 50
88.35263902563776
  0
MTEXT
  5
199DD
330
18C5E
100
AcDbEntity
  8
寸法
 62
     7
 48
50.0
100
AcDbMText
 10
11236.94822966643
 20
4484.337334038083
 30
0.0
 40
120.0
 41
0.0
 71
     5
 72
     1
  1
\A1;141
  7
STYLE1
 11
0.0287479117491237
 21
0.9995866933738488
 31
0.0
 73
     1
 44
1.0
1001
ACAD
1000
MTEXTBEGIN
1070
    73
1070
     1
1070
    44
1040
1.0
1070
    74
1070
     0
1000
MTEXTEND
  0
POINT
  5
199DE
330
18C5E
100
AcDbEntity
  8
DEFPOINTS
 62
     0
 48
50.0
100
AcDbPoint
 10
11906.24585067186
 20
4234.99336958282
 30
0.0
  0
POINT
  5
199DF
330
18C5E
100
AcDbEntity
  8
DEFPOINTS
 62
     0
 48
50.0
100
AcDbPoint
 10
11902.19239511523
 20
4094.051645817106
 30
0.0
  0
POINT
  5
199E0
330
18C5E
100
AcDbEntity
  8
DEFPOINTS
 62
     0
 48
50.0
100
AcDbPoint
 10
11326.24142374489
 20
4110.615879621471
 30
0.0
  0
ENDBLK
  5
18C6A
330
18C5E
100
AcDbEntity
  8
0
 48
50.0
100
AcDbBlockEnd
  0
BLOCK
  5
18C76
330
18C6B
100
AcDbEntity
  8
0
 48
50.0
100
AcDbBlockBegin
  2
*D30
 70
     1
 10
0.0
 20
0.0
 30
0.0
  3
*D30
  1

  0
LINE
  5
199CD
330
18C6B
100
AcDbEntity
  8
寸法
 62
     0
 48
50.0
370
    -2
100
AcDbLine
 10
14576.84983051328
 20
4203.081300359793
 30
0.0
 11
14576.84983051328
 21
4694.928074327446
 31
0.0
  0
LINE
  5
199CE
330
18C6B
100
AcDbEntity
  8
寸法
 62
     0
 48
50.0
370
    -2
100
AcDbLine
 10
14656.84983051328
 20
4201.270620748142
 30
0.0
 11
14656.84983051328
 21
4694.928074327446
 31
0.0
  0
LINE
  5
199CF
330
18C6B
100
AcDbEntity
  8
寸法
 62
     0
 48
50.0
370
    -2
100
AcDbLine
 10
14576.84983051328
 20
4634.928074327446
 30
0.0
 11
14656.84983051328
 21
4634.928074327446
 31
0.0
  0
LINE
  5
199D0
330
18C6B
100
AcDbEntity
  8
寸法
 62
     0
 48
50.0
370
    -2
100
AcDbLine
 10
14656.84983051328
 20
4634.928074327446
 30
0.0
 11
14968.94431870226
 21
4634.928074327446
 31
0.0
  0
INSERT
  5
199D1
330
18C6B
100
AcDbEntity
  8
寸法
 62
     0
 48
50.0
370
    -2
100
AcDbBlockReference
  2
_DOTSMALL
 10
14576.84983051328
 20
4634.928074327446
 30
0.0
 41
100.0
 42
100.0
 43
100.0
 50
180.0
  0
INSERT
  5
199D2
330
18C6B
100
AcDbEntity
  8
寸法
 62
     0
 48
50.0
370
    -2
100
AcDbBlockReference
  2
_DOTSMALL
 10
14656.84983051328
 20
4634.928074327446
 30
0.0
 41
100.0
 42
100.0
 43
100.0
  0
MTEXT
  5
199D3
330
18C6B
100
AcDbEntity
  8
寸法
 62
     7
 48
50.0
100
AcDbMText
 10
14862.89707460777
 20
4734.928074327447
 30
0.0
 40
120.0
 41
0.0
 71
     5
 72
     1
  1
\A1;80
  7
STYLE1
 73
     1
 44
1.0
1001
ACAD
1000
MTEXTBEGIN
1070
    73
1070
     1
1070
    44
1040
1.0
1070
    74
1070
     0
1000
MTEXTEND
  0
POINT
  5
199D4
330
18C6B
100
AcDbEntity
  8
DEFPOINTS
 62
     0
 48
50.0
100
AcDbPoint
 10
14576.84983051328
 20
4183.081300359794
 30
0.0
  0
POINT
  5
199D5
330
18C6B
100
AcDbEntity
  8
DEFPOINTS
 62
     0
 48
50.0
100
AcDbPoint
 10
14656.84983051328
 20
4181.270620748143
 30
0.0
  0
POINT
  5
199D6
330
18C6B
100
AcDbEntity
  8
DEFPOINTS
 62
     0
 48
50.0
100
AcDbPoint
 10
14656.84983051328
 20
4634.928074327446
 30
0.0
  0
ENDBLK
  5
18C77
330
18C6B
100
AcDbEntity
  8
0
 48
50.0
100
AcDbBlockEnd
  0
BLOCK
  5
18C82
330
18C78
100
AcDbEntity
  8
0
 48
50.0
100
AcDbBlockBegin
  2
*D31
 70
     1
 10
0.0
 20
0.0
 30
0.0
  3
*D31
  1

  0
LINE
  5
199C4
330
18C78
100
AcDbEntity
  8
寸法
 62
     0
 48
50.0
370
    -2
100
AcDbLine
 10
14656.84983051328
 20
4201.270620748142
 30
0.0
 11
14656.84983051328
 21
4915.138761059063
 31
0.0
  0
LINE
  5
199C5
330
18C78
100
AcDbEntity
  8
寸法
 62
     0
 48
50.0
370
    -2
100
AcDbLine
 10
11886.84983051328
 20
4256.270620748145
 30
0.0
 11
11886.84983051328
 21
4915.138761059063
 31
0.0
  0
LINE
  5
199C6
330
18C78
100
AcDbEntity
  8
寸法
 62
     0
 48
50.0
370
    -2
100
AcDbLine
 10
14656.84983051328
 20
4855.138761059063
 30
0.0
 11
11886.84983051328
 21
4855.138761059063
 31
0.0
  0
INSERT
  5
199C7
330
18C78
100
AcDbEntity
  8
寸法
 62
     0
 48
50.0
370
    -2
100
AcDbBlockReference
  2
_DOTSMALL
 10
14656.84983051328
 20
4855.138761059063
 30
0.0
 41
100.0
 42
100.0
 43
100.0
  0
INSERT
  5
199C8
330
18C78
100
AcDbEntity
  8
寸法
 62
     0
 48
50.0
370
    -2
100
AcDbBlockReference
  2
_DOTSMALL
 10
11886.84983051328
 20
4855.138761059063
 30
0.0
 41
100.0
 42
100.0
 43
100.0
 50
180.0
  0
MTEXT
  5
199C9
330
18C78
100
AcDbEntity
  8
寸法
 62
     7
 48
50.0
100
AcDbMText
 10
13271.84983051328
 20
4955.150572082684
 30
0.0
 40
120.0
 41
0.0
 71
     5
 72
     1
  1
\A1;2770
  7
STYLE1
 73
     1
 44
1.0
1001
ACAD
1000
MTEXTBEGIN
1070
    73
1070
     1
1070
    44
1040
1.0
1070
    74
1070
     0
1000
MTEXTEND
  0
POINT
  5
199CA
330
18C78
100
AcDbEntity
  8
DEFPOINTS
 62
     0
 48
50.0
100
AcDbPoint
 10
14656.84983051328
 20
4181.270620748143
 30
0.0
  0
POINT
  5
199CB
330
18C78
100
AcDbEntity
  8
DEFPOINTS
 62
     0
 48
50.0
100
AcDbPoint
 10
11886.84983051328
 20
4236.270620748146
 30
0.0
  0
POINT
  5
199CC
330
18C78
100
AcDbEntity
  8
DEFPOINTS
 62
     0
 48
50.0
100
AcDbPoint
 10
11886.84983051328
 20
4855.138761059063
 30
0.0
  0
ENDBLK
  5
18C83
330
18C78
100
AcDbEntity
  8
0
 48
50.0
100
AcDbBlockEnd
  0
BLOCK
  5
18C90
330
18C84
100
AcDbEntity
  8
0
 48
50.0
100
AcDbBlockBegin
  2
*D32
 70
     1
 10
0.0
 20
0.0
 30
0.0
  3
*D32
  1

  0
LINE
  5
199B9
330
18C84
100
AcDbEntity
  8
寸法
 62
     0
 48
50.0
370
    -2
100
AcDbLine
 10
11946.84983051328
 20
4252.272238871117
 30
0.0
 11
11946.84983051328
 21
4694.928074327445
 31
0.0
  0
LINE
  5
199BA
330
18C84
100
AcDbEntity
  8
寸法
 62
     0
 48
50.0
370
    -2
100
AcDbLine
 10
11886.84983051328
 20
4256.270620748145
 30
0.0
 11
11886.84983051328
 21
4694.928074327445
 31
0.0
  0
LINE
  5
199BB
330
18C84
100
AcDbEntity
  8
寸法
 62
     0
 48
50.0
370
    -2
100
AcDbLine
 10
11946.84983051328
 20
4634.928074327445
 30
0.0
 11
12046.84983051328
 21
4634.928074327445
 31
0.0
  0
LINE
  5
199BC
330
18C84
100
AcDbEntity
  8
寸法
 62
     0
 48
50.0
370
    -2
100
AcDbLine
 10
11886.84983051328
 20
4634.928074327445
 30
0.0
 11
11467.5742399621
 21
4634.928074327445
 31
0.0
  0
LINE
  5
199BD
330
18C84
100
AcDbEntity
  8
寸法
 62
     0
 48
50.0
370
    -2
100
AcDbLine
 10
11946.84983051328
 20
4634.928074327445
 30
0.0
 11
11886.84983051328
 21
4634.928074327445
 31
0.0
  0
INSERT
  5
199BE
330
18C84
100
AcDbEntity
  8
寸法
 62
     0
 48
50.0
370
    -2
100
AcDbBlockReference
  2
_DOTSMALL
 10
11946.84983051328
 20
4634.928074327445
 30
0.0
 41
100.0
 42
100.0
 43
100.0
 50
180.0
  0
INSERT
  5
199BF
330
18C84
100
AcDbEntity
  8
寸法
 62
     0
 48
50.0
370
    -2
100
AcDbBlockReference
  2
_DOTSMALL
 10
11886.84983051328
 20
4634.928074327445
 30
0.0
 41
100.0
 42
100.0
 43
100.0
  0
MTEXT
  5
199C0
330
18C84
100
AcDbEntity
  8
寸法
 62
     7
 48
50.0
100
AcDbMText
 10
11577.21203523769
 20
4734.928074327444
 30
0.0
 40
120.0
 41
0.0
 71
     5
 72
     1
  1
\A1;60
  7
STYLE1
 73
     1
 44
1.0
1001
ACAD
1000
MTEXTBEGIN
1070
    73
1070
     1
1070
    44
1040
1.0
1070
    74
1070
     0
1000
MTEXTEND
  0
POINT
  5
199C1
330
18C84
100
AcDbEntity
  8
DEFPOINTS
 62
     0
 48
50.0
100
AcDbPoint
 10
11946.84983051328
 20
4232.272238871117
 30
0.0
  0
POINT
  5
199C2
330
18C84
100
AcDbEntity
  8
DEFPOINTS
 62
     0
 48
50.0
100
AcDbPoint
 10
11886.84983051328
 20
4236.270620748146
 30
0.0
  0
POINT
  5
199C3
330
18C84
100
AcDbEntity
  8
DEFPOINTS
 62
     0
 48
50.0
100
AcDbPoint
 10
11886.84983051328
 20
4634.928074327445
 30
0.0
  0
ENDBLK
  5
18C91
330
18C84
100
AcDbEntity
  8
0
 48
50.0
100
AcDbBlockEnd
  0
BLOCK
  5
18C9C
330
18C92
100
AcDbEntity
  8
0
 48
50.0
100
AcDbBlockBegin
  2
*D33
 70
     1
 10
0.0
 20
0.0
 30
0.0
  3
*D33
  1

  0
LINE
  5
199B0
330
18C92
100
AcDbEntity
  8
寸法
 62
     0
 48
50.0
370
    -2
100
AcDbLine
 10
14576.84983051328
 20
4203.081300359793
 30
0.0
 11
14576.84983051328
 21
4694.928074327446
 31
0.0
  0
LINE
  5
199B1
330
18C92
100
AcDbEntity
  8
寸法
 62
     0
 48
50.0
370
    -2
100
AcDbLine
 10
11946.84983051328
 20
4252.272238871117
 30
0.0
 11
11946.84983051328
 21
4694.928074327446
 31
0.0
  0
LINE
  5
199B2
330
18C92
100
AcDbEntity
  8
寸法
 62
     0
 48
50.0
370
    -2
100
AcDbLine
 10
14576.84983051328
 20
4634.928074327446
 30
0.0
 11
11946.84983051328
 21
4634.928074327446
 31
0.0
  0
INSERT
  5
199B3
330
18C92
100
AcDbEntity
  8
寸法
 62
     0
 48
50.0
370
    -2
100
AcDbBlockReference
  2
_DOTSMALL
 10
14576.84983051328
 20
4634.928074327446
 30
0.0
 41
100.0
 42
100.0
 43
100.0
  0
INSERT
  5
199B4
330
18C92
100
AcDbEntity
  8
寸法
 62
     0
 48
50.0
370
    -2
100
AcDbBlockReference
  2
_DOTSMALL
 10
11946.84983051328
 20
4634.928074327446
 30
0.0
 41
100.0
 42
100.0
 43
100.0
 50
180.0
  0
MTEXT
  5
199B5
330
18C92
100
AcDbEntity
  8
寸法
 62
     7
 48
50.0
100
AcDbMText
 10
13261.84983051328
 20
4734.939885351068
 30
0.0
 40
120.0
 41
0.0
 71
     5
 72
     1
  1
\A1;柱外寸法2630
  7
STYLE1
 73
     1
 44
1.0
1001
ACAD
1000
MTEXTBEGIN
1070
    73
1070
     1
1070
    44
1040
1.0
1070
    74
1070
     0
1000
MTEXTEND
  0
POINT
  5
199B6
330
18C92
100
AcDbEntity
  8
DEFPOINTS
 62
     0
 48
50.0
100
AcDbPoint
 10
14576.84983051328
 20
4183.081300359794
 30
0.0
  0
POINT
  5
199B7
330
18C92
100
AcDbEntity
  8
DEFPOINTS
 62
     0
 48
50.0
100
AcDbPoint
 10
11946.84983051328
 20
4232.272238871117
 30
0.0
  0
POINT
  5
199B8
330
18C92
100
AcDbEntity
  8
DEFPOINTS
 62
     0
 48
50.0
100
AcDbPoint
 10
11946.84983051328
 20
4634.928074327446
 30
0.0
  0
ENDBLK
  5
18C9D
330
18C92
100
AcDbEntity
  8
0
 48
50.0
100
AcDbBlockEnd
  0
BLOCK
  5
18CAA
330
18C9E
100
AcDbEntity
  8
0
 48
50.0
100
AcDbBlockBegin
  2
*D34
 70
     1
 10
0.0
 20
0.0
 30
0.0
  3
*D34
  1

  0
LINE
  5
199A5
330
18C9E
100
AcDbEntity
  8
寸法
 62
     0
 48
50.0
370
    -2
100
AcDbLine
 10
11926.84983051328
 20
2211.27062074814
 30
0.0
 11
11043.09970133002
 21
2211.270620748141
 31
0.0
  0
LINE
  5
199A6
330
18C9E
100
AcDbEntity
  8
寸法
 62
     0
 48
50.0
370
    -2
100
AcDbLine
 10
11871.84983051328
 20
2161.27062074814
 30
0.0
 11
11043.09970133002
 21
2161.27062074814
 31
0.0
  0
LINE
  5
199A7
330
18C9E
100
AcDbEntity
  8
寸法
 62
     0
 48
50.0
370
    -2
100
AcDbLine
 10
11103.09970133002
 20
2211.270620748141
 30
0.0
 11
11103.09970133002
 21
2311.270620748141
 31
0.0
  0
LINE
  5
199A8
330
18C9E
100
AcDbEntity
  8
寸法
 62
     0
 48
50.0
370
    -2
100
AcDbLine
 10
11103.09970133002
 20
2161.27062074814
 30
0.0
 11
11103.09970133002
 21
1749.17613255916
 31
0.0
  0
LINE
  5
199A9
330
18C9E
100
AcDbEntity
  8
寸法
 62
     0
 48
50.0
370
    -2
100
AcDbLine
 10
11103.09970133002
 20
2211.270620748141
 30
0.0
 11
11103.09970133002
 21
2161.27062074814
 31
0.0
  0
INSERT
  5
199AA
330
18C9E
100
AcDbEntity
  8
寸法
 62
     0
 48
50.0
370
    -2
100
AcDbBlockReference
  2
_DOTSMALL
 10
11103.09970133002
 20
2211.270620748141
 30
0.0
 41
100.0
 42
100.0
 43
100.0
 50
270.0
  0
INSERT
  5
199AB
330
18C9E
100
AcDbEntity
  8
寸法
 62
     0
 48
50.0
370
    -2
100
AcDbBlockReference
  2
_DOTSMALL
 10
11103.09970133002
 20
2161.27062074814
 30
0.0
 41
100.0
 42
100.0
 43
100.0
 50
90.0
  0
MTEXT
  5
199AC
330
18C9E
100
AcDbEntity
  8
寸法
 62
     7
 48
50.0
100
AcDbMText
 10
11003.09970133002
 20
1855.22337665365
 30
0.0
 40
120.0
 41
0.0
 71
     5
 72
     1
  1
\A1;50
  7
STYLE1
 11
0.0000000000000001
 21
1.0
 31
0.0
 73
     1
 44
1.0
1001
ACAD
1000
MTEXTBEGIN
1070
    73
1070
     1
1070
    44
1040
1.0
1070
    74
1070
     0
1000
MTEXTEND
  0
POINT
  5
199AD
330
18C9E
100
AcDbEntity
  8
DEFPOINTS
 62
     0
 48
50.0
100
AcDbPoint
 10
11946.84983051328
 20
2211.27062074814
 30
0.0
  0
POINT
  5
199AE
330
18C9E
100
AcDbEntity
  8
DEFPOINTS
 62
     0
 48
50.0
100
AcDbPoint
 10
11891.84983051328
 20
2161.27062074814
 30
0.0
  0
POINT
  5
199AF
330
18C9E
100
AcDbEntity
  8
DEFPOINTS
 62
     0
 48
50.0
100
AcDbPoint
 10
11103.09970133002
 20
2161.27062074814
 30
0.0
  0
ENDBLK
  5
18CAB
330
18C9E
100
AcDbEntity
  8
0
 48
50.0
100
AcDbBlockEnd
  0
BLOCK
  5
194AF
330
194A3
100
AcDbEntity
  8
0
 48
50.0
100
AcDbBlockBegin
  2
*D35
 70
     1
 10
0.0
 20
0.0
 30
0.0
  3
*D35
  1

  0
LINE
  5
19AAF
330
194A3
100
AcDbEntity
  8
寸法
 62
     0
 48
50.0
370
    -2
100
AcDbLine
 10
1429.673057123655
 20
4256.270620748145
 30
0.0
 11
1429.673057123655
 21
4701.996892480049
 31
0.0
  0
LINE
  5
19AB0
330
194A3
100
AcDbEntity
  8
寸法
 62
     0
 48
50.0
370
    -2
100
AcDbLine
 10
1379.673057123655
 20
4256.270620748145
 30
0.0
 11
1379.673057123655
 21
4701.996892480049
 31
0.0
  0
LINE
  5
19AB1
330
194A3
100
AcDbEntity
  8
寸法
 62
     0
 48
50.0
370
    -2
100
AcDbLine
 10
1429.673057123655
 20
4641.996892480048
 30
0.0
 11
1529.673057123655
 21
4641.996892480048
 31
0.0
  0
LINE
  5
19AB2
330
194A3
100
AcDbEntity
  8
寸法
 62
     0
 48
50.0
370
    -2
100
AcDbLine
 10
1379.673057123655
 20
4641.996892480048
 30
0.0
 11
960.1405316549193
 21
4641.996892480048
 31
0.0
  0
LINE
  5
19AB3
330
194A3
100
AcDbEntity
  8
寸法
 62
     0
 48
50.0
370
    -2
100
AcDbLine
 10
1429.673057123655
 20
4641.996892480048
 30
0.0
 11
1379.673057123655
 21
4641.996892480048
 31
0.0
  0
INSERT
  5
19AB4
330
194A3
100
AcDbEntity
  8
寸法
 62
     0
 48
50.0
370
    -2
100
AcDbBlockReference
  2
_DOTSMALL
 10
1429.673057123655
 20
4641.996892480048
 30
0.0
 41
100.0
 42
100.0
 43
100.0
 50
180.0
  0
INSERT
  5
19AB5
330
194A3
100
AcDbEntity
  8
寸法
 62
     0
 48
50.0
370
    -2
100
AcDbBlockReference
  2
_DOTSMALL
 10
1379.673057123655
 20
4641.996892480048
 30
0.0
 41
100.0
 42
100.0
 43
100.0
  0
MTEXT
  5
19AB6
330
194A3
100
AcDbEntity
  8
寸法
 62
     7
 48
50.0
100
AcDbMText
 10
1066.187775749408
 20
4741.996892480048
 30
0.0
 40
120.0
 41
0.0
 71
     5
 72
     1
  1
\A1;50
  7
STYLE1
 73
     1
 44
1.0
1001
ACAD
1000
MTEXTBEGIN
1070
    73
1070
     1
1070
    44
1040
1.0
1070
    74
1070
     0
1000
MTEXTEND
  0
POINT
  5
19AB7
330
194A3
100
AcDbEntity
  8
DEFPOINTS
 62
     0
 48
50.0
100
AcDbPoint
 10
1429.673057123655
 20
4236.270620748146
 30
0.0
  0
POINT
  5
19AB8
330
194A3
100
AcDbEntity
  8
DEFPOINTS
 62
     0
 48
50.0
100
AcDbPoint
 10
1379.673057123655
 20
4236.270620748146
 30
0.0
  0
POINT
  5
19AB9
330
194A3
100
AcDbEntity
  8
DEFPOINTS
 62
     0
 48
50.0
100
AcDbPoint
 10
1379.673057123655
 20
4641.996892480048
 30
0.0
  0
ENDBLK
  5
194B0
330
194A3
100
AcDbEntity
  8
0
 48
50.0
100
AcDbBlockEnd
  0
BLOCK
  5
194BB
330
194B1
100
AcDbEntity
  8
0
 48
50.0
100
AcDbBlockBegin
  2
*D36
 70
     1
 10
0.0
 20
0.0
 30
0.0
  3
*D36
  1

  0
LINE
  5
19CA5
330
194B1
100
AcDbEntity
  8
寸法
 62
     0
 48
50.0
370
    -2
100
AcDbLine
 10
1379.673057123655
 20
4256.270620748144
 30
0.0
 11
1379.673057123655
 21
4901.905813694138
 31
0.0
  0
LINE
  5
19CA6
330
194B1
100
AcDbEntity
  8
寸法
 62
     0
 48
50.0
370
    -2
100
AcDbLine
 10
9369.673057123657
 20
4256.270620748143
 30
0.0
 11
9369.673057123657
 21
4901.905813694138
 31
0.0
  0
LINE
  5
19CA7
330
194B1
100
AcDbEntity
  8
寸法
 62
     0
 48
50.0
370
    -2
100
AcDbLine
 10
1379.673057123655
 20
4841.905813694139
 30
0.0
 11
9369.673057123657
 21
4841.905813694139
 31
0.0
  0
INSERT
  5
19CA8
330
194B1
100
AcDbEntity
  8
寸法
 62
     0
 48
50.0
370
    -2
100
AcDbBlockReference
  2
_DOTSMALL
 10
1379.673057123655
 20
4841.905813694139
 30
0.0
 41
100.0
 42
100.0
 43
100.0
 50
180.0
  0
INSERT
  5
19CA9
330
194B1
100
AcDbEntity
  8
寸法
 62
     0
 48
50.0
370
    -2
100
AcDbBlockReference
  2
_DOTSMALL
 10
9369.673057123657
 20
4841.905813694139
 30
0.0
 41
100.0
 42
100.0
 43
100.0
  0
MTEXT
  5
19CAA
330
194B1
100
AcDbEntity
  8
寸法
 62
     7
 48
50.0
100
AcDbMText
 10
5374.673057123656
 20
4941.91762471776
 30
0.0
 40
120.0
 41
0.0
 71
     5
 72
     1
  1
\A1;N X 2630+100
  7
STYLE1
 73
     1
 44
1.0
1001
ACAD
1000
MTEXTBEGIN
1070
    73
1070
     1
1070
    44
1040
1.0
1070
    74
1070
     0
1000
MTEXTEND
  0
POINT
  5
19CAB
330
194B1
100
AcDbEntity
  8
DEFPOINTS
 62
     0
 48
50.0
100
AcDbPoint
 10
1379.673057123655
 20
4236.270620748144
 30
0.0
  0
POINT
  5
19CAC
330
194B1
100
AcDbEntity
  8
DEFPOINTS
 62
     0
 48
50.0
100
AcDbPoint
 10
9369.673057123657
 20
4236.270620748142
 30
0.0
  0
POINT
  5
19CAD
330
194B1
100
AcDbEntity
  8
DEFPOINTS
 62
     0
 48
50.0
100
AcDbPoint
 10
9369.673057123657
 20
4841.905813694139
 30
0.0
  0
ENDBLK
  5
194BC
330
194B1
100
AcDbEntity
  8
0
 48
50.0
100
AcDbBlockEnd
  0
BLOCK
  5
194C7
330
194BD
100
AcDbEntity
  8
0
 48
50.0
100
AcDbBlockBegin
  2
*D37
 70
     1
 10
0.0
 20
0.0
 30
0.0
  3
*D37
  1

  0
LINE
  5
19CAE
330
194BD
100
AcDbEntity
  8
寸法
 62
     0
 48
50.0
370
    -2
100
AcDbLine
 10
9319.67305712366
 20
4256.270620748146
 30
0.0
 11
9319.67305712366
 21
4701.996892480049
 31
0.0
  0
LINE
  5
19CAF
330
194BD
100
AcDbEntity
  8
寸法
 62
     0
 48
50.0
370
    -2
100
AcDbLine
 10
1429.673057123655
 20
4256.270620748145
 30
0.0
 11
1429.673057123655
 21
4701.996892480049
 31
0.0
  0
LINE
  5
19CB0
330
194BD
100
AcDbEntity
  8
寸法
 62
     0
 48
50.0
370
    -2
100
AcDbLine
 10
9319.67305712366
 20
4641.996892480048
 30
0.0
 11
1429.673057123655
 21
4641.996892480048
 31
0.0
  0
INSERT
  5
19CB1
330
194BD
100
AcDbEntity
  8
寸法
 62
     0
 48
50.0
370
    -2
100
AcDbBlockReference
  2
_DOTSMALL
 10
9319.67305712366
 20
4641.996892480048
 30
0.0
 41
100.0
 42
100.0
 43
100.0
  0
INSERT
  5
19CB2
330
194BD
100
AcDbEntity
  8
寸法
 62
     0
 48
50.0
370
    -2
100
AcDbBlockReference
  2
_DOTSMALL
 10
1429.673057123655
 20
4641.996892480048
 30
0.0
 41
100.0
 42
100.0
 43
100.0
 50
180.0
  0
MTEXT
  5
19CB3
330
194BD
100
AcDbEntity
  8
寸法
 62
     7
 48
50.0
100
AcDbMText
 10
5374.673057123658
 20
4742.00870350367
 30
0.0
 40
120.0
 41
0.0
 71
     5
 72
     1
  1
\A1;柱外寸法 N X 2630
  7
STYLE1
 73
     1
 44
1.0
1001
ACAD
1000
MTEXTBEGIN
1070
    73
1070
     1
1070
    44
1040
1.0
1070
    74
1070
     0
1000
MTEXTEND
  0
POINT
  5
19CB4
330
194BD
100
AcDbEntity
  8
DEFPOINTS
 62
     0
 48
50.0
100
AcDbPoint
 10
9319.67305712366
 20
4236.270620748147
 30
0.0
  0
POINT
  5
19CB5
330
194BD
100
AcDbEntity
  8
DEFPOINTS
 62
     0
 48
50.0
100
AcDbPoint
 10
1429.673057123655
 20
4236.270620748145
 30
0.0
  0
POINT
  5
19CB6
330
194BD
100
AcDbEntity
  8
DEFPOINTS
 62
     0
 48
50.0
100
AcDbPoint
 10
1429.673057123655
 20
4641.996892480048
 30
0.0
  0
ENDBLK
  5
194C8
330
194BD
100
AcDbEntity
  8
0
 48
50.0
100
AcDbBlockEnd
  0
BLOCK
  5
194FD
330
194F1
100
AcDbEntity
  8
0
 48
50.0
100
AcDbBlockBegin
  2
*D38
 70
     1
 10
0.0
 20
0.0
 30
0.0
  3
*D38
  1

  0
LINE
  5
19A75
330
194F1
100
AcDbEntity
  8
寸法
 62
     0
 48
50.0
370
    -2
100
AcDbLine
 10
9369.673057123657
 20
4256.270620748143
 30
0.0
 11
9369.673057123657
 21
4701.996892480052
 31
0.0
  0
LINE
  5
19A76
330
194F1
100
AcDbEntity
  8
寸法
 62
     0
 48
50.0
370
    -2
100
AcDbLine
 10
9319.67305712366
 20
4256.270620748146
 30
0.0
 11
9319.67305712366
 21
4701.996892480052
 31
0.0
  0
LINE
  5
19A77
330
194F1
100
AcDbEntity
  8
寸法
 62
     0
 48
50.0
370
    -2
100
AcDbLine
 10
9319.67305712366
 20
4641.996892480054
 30
0.0
 11
9219.67305712366
 21
4641.996892480054
 31
0.0
  0
LINE
  5
19A78
330
194F1
100
AcDbEntity
  8
寸法
 62
     0
 48
50.0
370
    -2
100
AcDbLine
 10
9369.673057123657
 20
4641.996892480054
 30
0.0
 11
9789.205582592387
 21
4641.996892480054
 31
0.0
  0
LINE
  5
19A79
330
194F1
100
AcDbEntity
  8
寸法
 62
     0
 48
50.0
370
    -2
100
AcDbLine
 10
9319.67305712366
 20
4641.996892480054
 30
0.0
 11
9369.673057123657
 21
4641.996892480054
 31
0.0
  0
INSERT
  5
19A7A
330
194F1
100
AcDbEntity
  8
寸法
 62
     0
 48
50.0
370
    -2
100
AcDbBlockReference
  2
_DOTSMALL
 10
9319.67305712366
 20
4641.996892480054
 30
0.0
 41
100.0
 42
100.0
 43
100.0
  0
INSERT
  5
19A7B
330
194F1
100
AcDbEntity
  8
寸法
 62
     0
 48
50.0
370
    -2
100
AcDbBlockReference
  2
_DOTSMALL
 10
9369.673057123657
 20
4641.996892480054
 30
0.0
 41
100.0
 42
100.0
 43
100.0
 50
180.0
  0
MTEXT
  5
19A7C
330
194F1
100
AcDbEntity
  8
寸法
 62
     7
 48
50.0
100
AcDbMText
 10
9683.158338497896
 20
4741.996892480053
 30
0.0
 40
120.0
 41
0.0
 71
     5
 72
     1
  1
\A1;50
  7
STYLE1
 73
     1
 44
1.0
1001
ACAD
1000
MTEXTBEGIN
1070
    73
1070
     1
1070
    44
1040
1.0
1070
    74
1070
     0
1000
MTEXTEND
  0
POINT
  5
19A7D
330
194F1
100
AcDbEntity
  8
DEFPOINTS
 62
     0
 48
50.0
100
AcDbPoint
 10
9369.673057123657
 20
4236.270620748142
 30
0.0
  0
POINT
  5
19A7E
330
194F1
100
AcDbEntity
  8
DEFPOINTS
 62
     0
 48
50.0
100
AcDbPoint
 10
9319.67305712366
 20
4236.270620748147
 30
0.0
  0
POINT
  5
19A7F
330
194F1
100
AcDbEntity
  8
DEFPOINTS
 62
     0
 48
50.0
100
AcDbPoint
 10
9319.67305712366
 20
4641.996892480054
 30
0.0
  0
ENDBLK
  5
194FE
330
194F1
100
AcDbEntity
  8
0
 48
50.0
100
AcDbBlockEnd
  0
BLOCK
  5
197A0
330
19795
100
AcDbEntity
  8
0
 48
50.0
100
AcDbBlockBegin
  2
*D39
 70
     1
 10
0.0
 20
0.0
 30
0.0
  3
*D39
  1

  0
LINE
  5
19DB6
330
19795
100
AcDbEntity
  8
寸法
 62
     0
 48
50.0
370
    -2
100
AcDbLine
 10
9339.673057123658
 20
3836.270620748141
 30
0.0
 11
9667.216159445402
 21
3836.270620748141
 31
0.0
  0
LINE
  5
19DB7
330
19795
100
AcDbEntity
  8
寸法
 62
     0
 48
50.0
370
    -2
100
AcDbLine
 10
9339.673057123658
 20
4001.270620748138
 30
0.0
 11
9667.216159445402
 21
4001.270620748138
 31
0.0
  0
LINE
  5
19DB8
330
19795
100
AcDbEntity
  8
寸法
 62
     0
 48
50.0
370
    -2
100
AcDbLine
 10
9607.216159445403
 20
3836.270620748141
 30
0.0
 11
9607.216159445403
 21
4001.270620748138
 31
0.0
  0
LINE
  5
19DB9
330
19795
100
AcDbEntity
  8
寸法
 62
     0
 48
50.0
370
    -2
100
AcDbLine
 10
9607.216159445403
 20
4001.270620748138
 30
0.0
 11
9607.216159445405
 21
4378.241183496617
 31
0.0
  0
INSERT
  5
19DBA
330
19795
100
AcDbEntity
  8
寸法
 62
     0
 48
50.0
370
    -2
100
AcDbBlockReference
  2
_DOTSMALL
 10
9607.216159445403
 20
3836.270620748141
 30
0.0
 41
100.0
 42
100.0
 43
100.0
 50
270.0
  0
INSERT
  5
19DBB
330
19795
100
AcDbEntity
  8
寸法
 62
     0
 48
50.0
370
    -2
100
AcDbBlockReference
  2
_DOTSMALL
 10
9607.216159445403
 20
4001.270620748138
 30
0.0
 41
100.0
 42
100.0
 43
100.0
 50
90.0
  0
MTEXT
  5
19DBC
330
19795
100
AcDbEntity
  8
寸法
 62
     7
 48
50.0
100
AcDbMText
 10
9507.216159445404
 20
4239.755902122379
 30
0.0
 40
120.0
 41
0.0
 71
     5
 72
     1
  1
\A1;165
  7
STYLE1
 11
0.0000000000000001
 21
1.0
 31
0.0
 73
     1
 44
1.0
1001
ACAD
1000
MTEXTBEGIN
1070
    73
1070
     1
1070
    44
1040
1.0
1070
    74
1070
     0
1000
MTEXTEND
  0
POINT
  5
19DBD
330
19795
100
AcDbEntity
  8
DEFPOINTS
 62
     0
 48
50.0
100
AcDbPoint
 10
9319.673057123656
 20
3836.270620748141
 30
0.0
  0
POINT
  5
19DBE
330
19795
100
AcDbEntity
  8
DEFPOINTS
 62
     0
 48
50.0
100
AcDbPoint
 10
9319.673057123656
 20
4001.270620748138
 30
0.0
  0
POINT
  5
19DBF
330
19795
100
AcDbEntity
  8
DEFPOINTS
 62
     0
 48
50.0
100
AcDbPoint
 10
9607.216159445403
 20
4001.270620748138
 30
0.0
  0
ENDBLK
  5
197A1
330
19795
100
AcDbEntity
  8
0
 48
50.0
100
AcDbBlockEnd
  0
BLOCK
  5
197AE
330
197A2
100
AcDbEntity
  8
0
 48
50.0
100
AcDbBlockBegin
  2
*D40
 70
     1
 10
0.0
 20
0.0
 30
0.0
  3
*D40
  1

  0
LINE
  5
19DAB
330
197A2
100
AcDbEntity
  8
寸法
 62
     0
 48
50.0
370
    -2
100
AcDbLine
 10
9339.673057123658
 20
3809.270620748139
 30
0.0
 11
9667.216159445402
 21
3809.270620748139
 31
0.0
  0
LINE
  5
19DAC
330
197A2
100
AcDbEntity
  8
寸法
 62
     0
 48
50.0
370
    -2
100
AcDbLine
 10
9339.673057123658
 20
3836.270620748141
 30
0.0
 11
9667.216159445402
 21
3836.270620748141
 31
0.0
  0
LINE
  5
19DAD
330
197A2
100
AcDbEntity
  8
寸法
 62
     0
 48
50.0
370
    -2
100
AcDbLine
 10
9607.216159445403
 20
3809.270620748139
 30
0.0
 11
9607.216159445403
 21
3709.270620748139
 31
0.0
  0
LINE
  5
19DAE
330
197A2
100
AcDbEntity
  8
寸法
 62
     0
 48
50.0
370
    -2
100
AcDbLine
 10
9607.216159445403
 20
3836.270620748141
 30
0.0
 11
9607.216159445403
 21
3936.270620748141
 31
0.0
  0
MTEXT
  5
19DAF
330
197A2
100
AcDbEntity
  8
寸法
 62
     7
 48
50.0
100
AcDbMText
 10
9747.385982691769
 20
3837.237820587798
 30
0.0
 40
120.0
 41
0.0
 71
     5
 72
     1
  1
\A1;27
  7
STYLE1
 11
0.0000000000000001
 21
1.0
 31
0.0
 73
     1
 44
1.0
1001
ACAD
1000
MTEXTBEGIN
1070
    73
1070
     1
1070
    44
1040
1.0
1070
    74
1070
     0
1000
MTEXTEND
  0
LINE
  5
19DB0
330
197A2
100
AcDbEntity
  8
寸法
 62
     0
 48
50.0
370
    -2
100
AcDbLine
 10
9607.216159445403
 20
3809.270620748139
 30
0.0
 11
9607.216159445403
 21
3836.270620748141
 31
0.0
  0
INSERT
  5
19DB1
330
197A2
100
AcDbEntity
  8
寸法
 62
     0
 48
50.0
370
    -2
100
AcDbBlockReference
  2
_DOTSMALL
 10
9607.216159445403
 20
3809.270620748139
 30
0.0
 41
100.0
 42
100.0
 43
100.0
 50
90.0
  0
INSERT
  5
19DB2
330
197A2
100
AcDbEntity
  8
寸法
 62
     0
 48
50.0
370
    -2
100
AcDbBlockReference
  2
_DOTSMALL
 10
9607.216159445403
 20
3836.270620748141
 30
0.0
 41
100.0
 42
100.0
 43
100.0
 50
270.0
  0
POINT
  5
19DB3
330
197A2
100
AcDbEntity
  8
DEFPOINTS
 62
     0
 48
50.0
100
AcDbPoint
 10
9319.673057123656
 20
3809.270620748139
 30
0.0
  0
POINT
  5
19DB4
330
197A2
100
AcDbEntity
  8
DEFPOINTS
 62
     0
 48
50.0
100
AcDbPoint
 10
9319.673057123656
 20
3836.270620748141
 30
0.0
  0
POINT
  5
19DB5
330
197A2
100
AcDbEntity
  8
DEFPOINTS
 62
     0
 48
50.0
100
AcDbPoint
 10
9607.216159445403
 20
3836.270620748141
 30
0.0
  0
ENDBLK
  5
197AF
330
197A2
100
AcDbEntity
  8
0
 48
50.0
100
AcDbBlockEnd
  0
BLOCK
  5
197BA
330
197B0
100
AcDbEntity
  8
0
 48
50.0
100
AcDbBlockBegin
  2
*D41
 70
     1
 10
0.0
 20
0.0
 30
0.0
  3
*D41
  1

  0
LINE
  5
19A57
330
197B0
100
AcDbEntity
  8
寸法
 62
     0
 48
50.0
370
    -2
100
AcDbLine
 10
9339.673057123658
 20
2161.270620748139
 30
0.0
 11
9667.216159445402
 21
2161.270620748139
 31
0.0
  0
LINE
  5
19A58
330
197B0
100
AcDbEntity
  8
寸法
 62
     0
 48
50.0
370
    -2
100
AcDbLine
 10
9339.673057123658
 20
3809.270620748139
 30
0.0
 11
9667.216159445402
 21
3809.270620748139
 31
0.0
  0
LINE
  5
19A59
330
197B0
100
AcDbEntity
  8
寸法
 62
     0
 48
50.0
370
    -2
100
AcDbLine
 10
9607.216159445403
 20
2161.270620748139
 30
0.0
 11
9607.216159445403
 21
3809.270620748139
 31
0.0
  0
INSERT
  5
19A5A
330
197B0
100
AcDbEntity
  8
寸法
 62
     0
 48
50.0
370
    -2
100
AcDbBlockReference
  2
_DOTSMALL
 10
9607.216159445403
 20
2161.270620748139
 30
0.0
 41
100.0
 42
100.0
 43
100.0
 50
270.0
  0
INSERT
  5
19A5B
330
197B0
100
AcDbEntity
  8
寸法
 62
     0
 48
50.0
370
    -2
100
AcDbBlockReference
  2
_DOTSMALL
 10
9607.216159445403
 20
3809.270620748139
 30
0.0
 41
100.0
 42
100.0
 43
100.0
 50
90.0
  0
MTEXT
  5
19A5C
330
197B0
100
AcDbEntity
  8
寸法
 62
     7
 48
50.0
100
AcDbMText
 10
9507.216159445404
 20
2985.270620748141
 30
0.0
 40
120.0
 41
0.0
 71
     5
 72
     1
  1
\A1;有効開口部高サ 1648
  7
STYLE1
 11
0.0000000000000001
 21
1.0
 31
0.0
 73
     1
 44
1.0
1001
ACAD
1000
MTEXTBEGIN
1070
    73
1070
     1
1070
    44
1040
1.0
1070
    74
1070
     0
1000
MTEXTEND
  0
POINT
  5
19A5D
330
197B0
100
AcDbEntity
  8
DEFPOINTS
 62
     0
 48
50.0
100
AcDbPoint
 10
9319.673057123656
 20
2161.270620748139
 30
0.0
  0
POINT
  5
19A5E
330
197B0
100
AcDbEntity
  8
DEFPOINTS
 62
     0
 48
50.0
100
AcDbPoint
 10
9319.673057123656
 20
3809.270620748139
 30
0.0
  0
POINT
  5
19A5F
330
197B0
100
AcDbEntity
  8
DEFPOINTS
 62
     0
 48
50.0
100
AcDbPoint
 10
9607.216159445403
 20
3809.270620748139
 30
0.0
  0
ENDBLK
  5
197BB
330
197B0
100
AcDbEntity
  8
0
 48
50.0
100
AcDbBlockEnd
  0
BLOCK
  5
198F6
330
198F3
100
AcDbEntity
  8
0
 48
50.0
100
AcDbBlockBegin
  2
A$C66091BC4
 70
     0
 10
0.0
 20
0.0
 30
0.0
  3
A$C66091BC4
  1

  0
LINE
  5
198F4
330
198F3
100
AcDbEntity
  8
部品1
 48
50.0
100
AcDbLine
 10
46.5327395555505
 20
173.6625482366835
 30
0.0
 11
-46.5327395555505
 21
-173.6625482366816
 31
0.0
  0
SPLINE
  5
198F5
330
198F3
100
AcDbEntity
  8
部品1
 48
50.0
100
AcDbSpline
210
0.0
220
0.0
230
1.0
 70
     8
 71
     3
 72
    10
 73
     6
 74
     4
 42
0.0000000001
 43
0.0000000001
 44
0.0000000001
 40
0.0
 40
0.0
 40
0.0
 40
0.0
 40
147.8767566010009
 40
301.8091093202477
 40
466.5049223087716
 40
466.5049223087716
 40
466.5049223087716
 40
466.5049223087716
 10
67.57032773305036
 20
81.24115252579395
 30
0.0
 10
-9.311354761784436
 20
72.33671886795598
 30
0.0
 10
-166.2230469719117
 20
54.16321240862427
 30
0.0
 10
156.5903629724302
 20
-48.3573722307187
 30
0.0
 10
-13.25225669694174
 20
-66.99246094292213
 30
0.0
 10
-101.0422619038345
 20
-76.62475782023102
 30
0.0
 11
67.57032773305036
 21
81.24115252579395
 31
0.0
 11
-75.26765057571902
 21
42.96783158946527
 31
0.0
 11
58.04167734345537
 21
-33.99834477015793
 31
0.0
 11
-101.0422619038345
 21
-76.62475782023102
 31
0.0
  0
ENDBLK
  5
198F7
330
198F3
100
AcDbEntity
  8
0
 48
50.0
100
AcDbBlockEnd
  0
ENDSEC
  0
SECTION
  2
ENTITIES
  0
MTEXT
  5
763F
330
747D
100
AcDbEntity
  8
0
100
AcDbMText
 10
302.846345836809
 20
280.1983726409901
 30
0.0
 40
3.5
 41
5.323721266742722
 71
     1
 72
     5
  1

  7
MSMINCHO
 73
     1
 44
1.0
1001
ACAD
1000
MTEXTBEGIN
1070
    73
1070
     1
1070
    44
1040
1.0
1070
    74
1070
     0
1000
MTEXTEND
  0
LINE
  5
10B57
330
747D
100
AcDbEntity
  8
補助
  6
PHANTOM
 62
   230
 48
50.0
100
AcDbLine
 10
139.9999999999995
 20
11409.6
 30
0.0
 11
16307.2
 21
11409.6
 31
0.0
  0
LINE
  5
10B59
330
747D
100
AcDbEntity
  8
仕様書枠
  6
Continuous
 48
50.0
100
AcDbLine
 10
13107.2
 20
1200.0
 30
0.0
 11
13107.2
 21
-0.0000000000000729
 31
0.0
  0
LINE
  5
10B5C
330
747D
100
AcDbEntity
  8
仕様書枠
 48
50.0
100
AcDbLine
 10
16307.2
 20
1200.0
 30
0.0
 11
16307.2
 21
-0.0000000000000909
 31
0.0
  0
LINE
  5
10B5D
330
747D
100
AcDbEntity
  8
仕様書枠
 48
50.0
100
AcDbLine
 10
140.0
 20
0.0
 30
0.0
 11
16307.2
 21
-0.0000000000000909
 31
0.0
  0
LINE
  5
10B5E
330
747D
100
AcDbEntity
  8
補助
  6
PHANTOM
 62
   230
 48
50.0
100
AcDbLine
 10
16307.2
 20
11409.6
 30
0.0
 11
16307.2
 21
1200.0
 31
0.0
  0
LINE
  5
10B6C
330
747D
100
AcDbEntity
  8
仕様書枠
 48
50.0
100
AcDbLine
 10
13107.2
 20
1200.0
 30
0.0
 11
16307.2
 21
1200.0
 31
0.0
  0
LINE
  5
10B6D
330
747D
100
AcDbEntity
  8
補助
  6
PHANTOM
 62
   230
 48
50.0
100
AcDbLine
 10
13107.2
 20
11409.6
 30
0.0
 11
13107.2
 21
4800.0
 31
0.0
  0
LINE
  5
10B6F
330
747D
100
AcDbEntity
  8
補助
  6
PHANTOM
 62
   230
 48
50.0
100
AcDbLine
 10
13107.2
 20
4800.0
 30
0.0
 11
16307.2
 21
4800.0
 31
0.0
  0
LINE
  5
10B72
330
747D
100
AcDbEntity
  8
文字
 62
     7
 48
50.0
100
AcDbLine
 10
13187.2
 20
400.0
 30
0.0
 11
16227.2
 21
400.0
 31
0.0
  0
TEXT
  5
10B74
330
747D
100
AcDbEntity
  8
文字
 62
     7
 48
50.0
100
AcDbText
 10
13201.43669998441
 20
477.2740661031255
 30
0.0
 40
160.0
  1
機種名
  7
STYLE2
100
AcDbText
  0
TEXT
  5
10B75
330
747D
100
AcDbEntity
  8
文字
 62
     7
 48
50.0
100
AcDbText
 10
13209.4053442172
 20
228.5435242569016
 30
0.0
 40
100.0
  1
○有効開口寸法 ： 2424×1648(mm)
  7
STYLE2
100
AcDbText
  0
TEXT
  5
10B79
330
747D
100
AcDbEntity
  8
文字
 62
     7
 48
50.0
100
AcDbText
 10
14524.131837222
 20
1031.557706291228
 30
0.0
 40
100.0
  1
NO.45      <縮尺> S=1/40
  7
STYLE2
100
AcDbText
  0
LINE
  5
10B7B
330
747D
100
AcDbEntity
  8
仕様書枠
 48
50.0
100
AcDbLine
 10
13107.2
 20
800.0
 30
0.0
 11
14251.2
 21
800.0
 31
0.0
  0
LINE
  5
10B88
330
747D
100
AcDbEntity
  8
仕様書枠
  6
Continuous
 48
50.0
100
AcDbLine
 10
14251.2
 20
1200.0
 30
0.0
 11
14251.2
 21
800.0
 31
0.0
  0
LINE
  5
127A8
330
747D
100
AcDbEntity
  8
部品1
100
AcDbLine
 10
440.9034657772718
 20
2191.174431315804
 30
0.0
 11
590.9034657772718
 21
2191.174431315804
 31
0.0
  0
LINE
  5
127A9
330
747D
100
AcDbEntity
  8
部品1
100
AcDbLine
 10
515.9034657772718
 20
2061.270620748139
 30
0.0
 11
440.9034657772718
 21
2191.174431315804
 31
0.0
  0
TEXT
  5
127AA
330
747D
100
AcDbEntity
  8
部品1
100
AcDbText
 10
619.0084079020452
 20
2097.37752435404
 30
0.0
 40
125.0
  1
G.L
  7
MSGOTHIC
100
AcDbText
  0
LINE
  5
127AB
330
747D
100
AcDbEntity
  8
部品1
100
AcDbLine
 10
590.9034657772718
 20
2191.174431315804
 30
0.0
 11
515.9034657772718
 21
2061.270620748139
 31
0.0
  0
LINE
  5
13C1F
330
747D
100
AcDbEntity
  8
部品1
100
AcDbLine
 10
1429.673057123657
 20
4095.270620748146
 30
0.0
 11
1429.673057123657
 21
2061.270620748139
 31
0.0
  0
LINE
  5
13CFC
330
747D
100
AcDbEntity
  8
部品1
100
AcDbLine
 10
9264.673057123655
 20
3836.27062074814
 30
0.0
 11
9264.673057123655
 21
2161.270620748139
 31
0.0
  0
LINE
  5
13CFE
330
747D
100
AcDbEntity
  8
部品1
100
AcDbLine
 10
1484.673057123657
 20
3836.270620748138
 30
0.0
 11
1484.673057123657
 21
2161.270620748139
 31
0.0
  0
LINE
  5
13D18
330
747D
100
AcDbEntity
  8
部品1
100
AcDbLine
 10
9319.673057123656
 20
4095.270620748142
 30
0.0
 11
9319.673057123656
 21
2061.270620748139
 31
0.0
  0
LINE
  5
146B2
330
747D
100
AcDbEntity
  8
破線
 48
5.0
100
AcDbLine
 10
9319.673057123656
 20
2061.270620748139
 30
0.0
 11
9319.673057123656
 21
1811.270620748139
 31
0.0
  0
LINE
  5
146B3
330
747D
100
AcDbEntity
  8
破線
 48
5.0
100
AcDbLine
 10
1429.673057123657
 20
2061.270620748139
 30
0.0
 11
1429.673057123655
 21
1811.270620748139
 31
0.0
  0
TEXT
  5
149A1
330
747D
100
AcDbEntity
  8
部品1
100
AcDbText
 10
5083.463127747398
 20
1318.377091529615
 30
0.0
 40
135.0
  1
正面図
  7
MSGOTHIC
100
AcDbText
  0
LWPOLYLINE
  5
149A2
330
747D
100
AcDbEntity
  8
部品1
100
AcDbPolyline
 90
        4
 70
     1
 43
0.0
 10
4992.937724009443
 20
1511.270620748139
 10
4992.937724009443
 20
1271.378299202607
 10
5756.408390237882
 20
1271.378299202607
 10
5756.408390237882
 20
1511.270620748139
  0
TEXT
  5
14E88
330
747D
100
AcDbEntity
  8
部品1
100
AcDbText
 10
5082.857333838481
 20
5802.378858851012
 30
0.0
 40
135.0
  1
平面図
  7
MSGOTHIC
100
AcDbText
  0
LWPOLYLINE
  5
14E89
330
747D
100
AcDbEntity
  8
部品1
100
AcDbPolyline
 90
        4
 70
     1
 43
0.0
 10
4992.937724009443
 20
5995.272388069536
 10
4992.937724009443
 20
5755.380066524003
 10
5756.408390237883
 20
5755.380066524003
 10
5756.408390237883
 20
5995.272388069536
  0
TEXT
  5
15550
330
747D
100
AcDbEntity
  8
文字
 62
     7
 48
50.0
100
AcDbText
 10
14663.3224864739
 20
871.9640646083623
 30
0.0
 40
100.0
  1
～一般型・多雪地型～
  7
STYLE2
100
AcDbText
  0
LINE
  5
15CE5
330
747D
100
AcDbEntity
  8
破線
 48
5.0
100
AcDbLine
 10
9264.673057123655
 20
2161.270620748139
 30
0.0
 11
9264.673057123657
 21
1811.270620748139
 31
0.0
  0
LINE
  5
15CE6
330
747D
100
AcDbEntity
  8
破線
 48
5.0
100
AcDbLine
 10
1484.673057123657
 20
2161.270620748139
 30
0.0
 11
1484.673057123655
 21
1811.270620748139
 31
0.0
  0
LINE
  5
15CE7
330
747D
100
AcDbEntity
  8
破線
 48
5.0
100
AcDbLine
 10
9319.673057123656
 20
1811.270620748139
 30
0.0
 11
9264.673057123657
 21
1811.270620748139
 31
0.0
  0
LINE
  5
15CE8
330
747D
100
AcDbEntity
  8
破線
 48
5.0
100
AcDbLine
 10
1484.673057123655
 20
1811.270620748146
 30
0.0
 11
1429.673057123655
 21
1811.270620748146
 31
0.0
  0
LINE
  5
15CE9
330
747D
100
AcDbEntity
  8
部品1
100
AcDbLine
 10
1532.673057123657
 20
3836.270620748139
 30
0.0
 11
1532.673057123657
 21
2161.270620748139
 31
0.0
  0
LINE
  5
15CEA
330
747D
100
AcDbEntity
  8
破線
 48
5.0
100
AcDbLine
 10
1532.673057123657
 20
2161.270620748139
 30
0.0
 11
1532.673057123655
 21
1911.270620748144
 31
0.0
  0
LINE
  5
15CEB
330
747D
100
AcDbEntity
  8
部品1
100
AcDbLine
 10
9216.673057123658
 20
3836.27062074814
 30
0.0
 11
9216.673057123655
 21
2161.270620748139
 31
0.0
  0
LINE
  5
15CEC
330
747D
100
AcDbEntity
  8
破線
 48
5.0
100
AcDbLine
 10
9216.673057123655
 20
2161.270620748139
 30
0.0
 11
9216.673057123657
 21
1911.270620748139
 31
0.0
  0
LINE
  5
15CED
330
747D
100
AcDbEntity
  8
破線
 48
5.0
100
AcDbLine
 10
9264.673057123658
 20
1911.270620748139
 30
0.0
 11
9216.673057123657
 21
1911.270620748139
 31
0.0
  0
LINE
  5
15CEE
330
747D
100
AcDbEntity
  8
破線
 48
5.0
100
AcDbLine
 10
1532.673057123655
 20
1911.270620748144
 30
0.0
 11
1484.673057123655
 21
1911.270620748144
 31
0.0
  0
LINE
  5
15D20
330
747D
100
AcDbEntity
  8
細線
100
AcDbLine
 10
6792.673057123653
 20
3796.270620748139
 30
0.0
 11
9216.673057123655
 21
3796.270620748139
 31
0.0
  0
LINE
  5
15D23
330
747D
100
AcDbEntity
  8
細線
100
AcDbLine
 10
6792.673057123653
 20
3406.270620748139
 30
0.0
 11
9216.673057123655
 21
3406.270620748139
 31
0.0
  0
LINE
  5
15D24
330
747D
100
AcDbEntity
  8
細線
100
AcDbLine
 10
6792.673057123653
 20
3471.270620748139
 30
0.0
 11
9216.673057123655
 21
3471.270620748139
 31
0.0
  0
LINE
  5
15D25
330
747D
100
AcDbEntity
  8
細線
100
AcDbLine
 10
6792.673057123653
 20
3536.270620748139
 30
0.0
 11
9216.673057123655
 21
3536.270620748139
 31
0.0
  0
LINE
  5
15D26
330
747D
100
AcDbEntity
  8
細線
100
AcDbLine
 10
6792.673057123653
 20
3601.270620748139
 30
0.0
 11
9216.673057123655
 21
3601.270620748139
 31
0.0
  0
LINE
  5
15D27
330
747D
100
AcDbEntity
  8
細線
100
AcDbLine
 10
6792.673057123653
 20
3666.270620748139
 30
0.0
 11
9216.673057123655
 21
3666.270620748139
 31
0.0
  0
LINE
  5
15D28
330
747D
100
AcDbEntity
  8
細線
100
AcDbLine
 10
6792.673057123653
 20
3731.270620748139
 30
0.0
 11
9216.673057123655
 21
3731.270620748139
 31
0.0
  0
LINE
  5
15D29
330
747D
100
AcDbEntity
  8
細線
100
AcDbLine
 10
6792.673057123653
 20
2756.270620748139
 30
0.0
 11
9216.673057123655
 21
2756.270620748139
 31
0.0
  0
LINE
  5
15D2A
330
747D
100
AcDbEntity
  8
細線
100
AcDbLine
 10
6792.673057123653
 20
2821.270620748139
 30
0.0
 11
9216.673057123655
 21
2821.270620748139
 31
0.0
  0
LINE
  5
15D2B
330
747D
100
AcDbEntity
  8
細線
100
AcDbLine
 10
6792.673057123653
 20
2886.270620748139
 30
0.0
 11
9216.673057123655
 21
2886.270620748139
 31
0.0
  0
LINE
  5
15D2C
330
747D
100
AcDbEntity
  8
細線
100
AcDbLine
 10
6792.673057123653
 20
2951.270620748139
 30
0.0
 11
9216.673057123655
 21
2951.270620748139
 31
0.0
  0
LINE
  5
15D2D
330
747D
100
AcDbEntity
  8
細線
100
AcDbLine
 10
6792.673057123653
 20
3016.270620748139
 30
0.0
 11
9216.673057123655
 21
3016.270620748139
 31
0.0
  0
LINE
  5
15D2E
330
747D
100
AcDbEntity
  8
細線
100
AcDbLine
 10
6792.673057123653
 20
3081.270620748139
 30
0.0
 11
9216.673057123655
 21
3081.270620748139
 31
0.0
  0
LINE
  5
15D2F
330
747D
100
AcDbEntity
  8
細線
100
AcDbLine
 10
6792.673057123653
 20
3146.270620748139
 30
0.0
 11
9216.673057123655
 21
3146.270620748139
 31
0.0
  0
LINE
  5
15D30
330
747D
100
AcDbEntity
  8
細線
100
AcDbLine
 10
6792.673057123653
 20
3211.270620748139
 30
0.0
 11
9216.673057123655
 21
3211.270620748139
 31
0.0
  0
LINE
  5
15D31
330
747D
100
AcDbEntity
  8
細線
100
AcDbLine
 10
6792.673057123653
 20
3276.270620748139
 30
0.0
 11
9216.673057123655
 21
3276.270620748139
 31
0.0
  0
LINE
  5
15D32
330
747D
100
AcDbEntity
  8
細線
100
AcDbLine
 10
6792.673057123653
 20
3341.270620748139
 30
0.0
 11
9216.673057123655
 21
3341.270620748139
 31
0.0
  0
LINE
  5
15D36
330
747D
100
AcDbEntity
  8
細線
100
AcDbLine
 10
6792.673057123653
 20
2171.270620748139
 30
0.0
 11
9216.673057123655
 21
2171.270620748139
 31
0.0
  0
LINE
  5
15D37
330
747D
100
AcDbEntity
  8
細線
100
AcDbLine
 10
6792.673057123653
 20
2236.270620748139
 30
0.0
 11
9216.673057123655
 21
2236.270620748139
 31
0.0
  0
LINE
  5
15D38
330
747D
100
AcDbEntity
  8
細線
100
AcDbLine
 10
6792.673057123653
 20
2301.270620748139
 30
0.0
 11
9216.673057123655
 21
2301.270620748139
 31
0.0
  0
LINE
  5
15D39
330
747D
100
AcDbEntity
  8
細線
100
AcDbLine
 10
6792.673057123653
 20
2366.270620748139
 30
0.0
 11
9216.673057123655
 21
2366.270620748139
 31
0.0
  0
LINE
  5
15D3A
330
747D
100
AcDbEntity
  8
細線
100
AcDbLine
 10
6792.673057123653
 20
2431.270620748139
 30
0.0
 11
9216.673057123655
 21
2431.270620748139
 31
0.0
  0
LINE
  5
15D3B
330
747D
100
AcDbEntity
  8
細線
100
AcDbLine
 10
6792.673057123653
 20
2496.270620748139
 30
0.0
 11
9216.673057123655
 21
2496.270620748139
 31
0.0
  0
LINE
  5
15D3C
330
747D
100
AcDbEntity
  8
細線
100
AcDbLine
 10
6792.673057123653
 20
2561.270620748139
 30
0.0
 11
9216.673057123655
 21
2561.270620748139
 31
0.0
  0
LINE
  5
15D3D
330
747D
100
AcDbEntity
  8
細線
100
AcDbLine
 10
6792.673057123653
 20
2626.270620748139
 30
0.0
 11
9216.673057123655
 21
2626.270620748139
 31
0.0
  0
LINE
  5
15D3E
330
747D
100
AcDbEntity
  8
細線
100
AcDbLine
 10
6792.673057123653
 20
2691.270620748139
 30
0.0
 11
9216.673057123655
 21
2691.270620748139
 31
0.0
  0
LINE
  5
15D3F
330
747D
100
AcDbEntity
  8
細線
100
AcDbLine
 10
9216.673057123657
 20
2171.270620748139
 30
0.0
 11
6792.673057123652
 21
2171.270620748139
 31
0.0
  0
DIMENSION
  5
162CD
330
747D
100
AcDbEntity
  8
寸法
100
AcDbDimension
  2
*D1
 10
9967.099402858071
 20
7197.497424545952
 30
0.0
 11
9867.087591834447
 21
8457.497424545961
 31
0.0
 70
    32
  1
6X420=<>
 71
     5
 42
2520.000000000015
  3
INABA_S40G
100
AcDbAlignedDimension
 13
9319.673057123663
 23
9717.497424545967
 33
0.0
 14
9319.673057123639
 24
7197.497424545952
 34
0.0
 50
90.0
100
AcDbRotatedDimension
1001
ACAD
1000
DSTYLE
1002
{
1002
}
  0
DIMENSION
  5
162CE
330
747D
100
AcDbEntity
  8
寸法
100
AcDbDimension
  2
*D2
 10
9967.09940285805
 20
7142.497424545957
 30
0.0
 11
9967.099402858048
 21
6764.635957641094
 31
0.0
 70
   160
 71
     5
 42
54.99999999999636
  3
INABA_S40G
100
AcDbAlignedDimension
 13
9319.673057123639
 23
7197.497424545952
 33
0.0
 14
9319.673057123639
 24
7142.497424545957
 34
0.0
 50
90.0
100
AcDbRotatedDimension
1001
ACAD
1000
DSTYLE
1002
{
1002
}
  0
DIMENSION
  5
162CF
330
747D
100
AcDbEntity
  8
寸法
100
AcDbDimension
  2
*D3
 10
9967.099402858075
 20
9717.497424545967
 30
0.0
 11
9967.099402858075
 21
10080.9827059202
 31
0.0
 70
   160
 71
     5
 42
54.99999999999636
  3
INABA_S40G
100
AcDbAlignedDimension
 13
9319.673057123663
 23
9772.497424545964
 33
0.0
 14
9319.673057123663
 24
9717.497424545967
 34
0.0
 50
90.0
100
AcDbRotatedDimension
1001
ACAD
1000
DSTYLE
1002
{
1002
}
  0
DIMENSION
  5
162D0
330
747D
100
AcDbEntity
  8
寸法
100
AcDbDimension
  2
*D4
 10
10332.20634459771
 20
7142.497424545955
 30
0.0
 11
10232.19453357408
 21
8457.497424545961
 31
0.0
 70
    32
 71
     5
 42
2630.000000000007
  3
INABA_S40G
100
AcDbAlignedDimension
 13
9319.673057123663
 23
9772.497424545964
 33
0.0
 14
9319.673057123639
 24
7142.497424545957
 34
0.0
 50
90.0
100
AcDbRotatedDimension
1001
ACAD
1000
DSTYLE
1002
{
1002
}
  0
LINE
  5
162DC
330
747D
100
AcDbEntity
  8
部品1
100
AcDbLine
 10
9291.673057123647
 20
9744.497424545963
 30
0.0
 11
9291.67305712364
 21
7197.497424545952
 31
0.0
  0
LINE
  5
162DD
330
747D
100
AcDbEntity
  8
部品1
100
AcDbLine
 10
1457.673057123638
 20
7197.497424545821
 30
0.0
 11
1457.673057123649
 21
9744.497424545871
 31
0.0
  0
LINE
  5
162DE
330
747D
100
AcDbEntity
  8
部品1
100
AcDbLine
 10
9319.673057123663
 20
9772.497424545964
 30
0.0
 11
9319.673057123639
 21
7142.497424545957
 31
0.0
  0
LINE
  5
162DF
330
747D
100
AcDbEntity
  8
部品1
100
AcDbLine
 10
1429.673057123628
 20
9772.497424545838
 30
0.0
 11
1429.673057123657
 21
7142.497424545826
 31
0.0
  0
DIMENSION
  5
162E4
330
747D
100
AcDbEntity
  8
寸法
 48
50.0
100
AcDbDimension
  2
*D5
 10
6792.673057123656
 20
6608.0666537797
 30
0.0
 11
8004.673057123648
 21
6708.078464803323
 31
0.0
 70
    32
  1
有効開口部間口 <>
 71
     5
 42
2423.999999999982
  3
INABA_S40G
100
AcDbAlignedDimension
 13
9216.673057123639
 23
7168.497424545865
 33
0.0
 14
6792.673057123656
 24
7168.497424545865
 34
0.0
100
AcDbRotatedDimension
1001
ACAD
1000
DSTYLE
1002
{
1070
    75
1070
     1
1070
   279
1070
     2
1002
}
  0
LINE
  5
162E6
330
747D
100
AcDbEntity
  8
部品1
 48
50.0
100
AcDbLine
 10
6756.673057123656
 20
7187.997424545864
 30
0.0
 11
9252.67305712364
 21
7187.997424545864
 31
0.0
  0
DIMENSION
  5
162E7
330
747D
100
AcDbEntity
  8
寸法
100
AcDbDimension
  2
*D6
 10
9319.673057123628
 20
6161.893658188827
 30
0.0
 11
5374.673057123642
 21
6261.905469212448
 31
0.0
 70
    32
  1
N X 2630
 71
     5
 42
7889.999999999971
  3
INABA_S40G
100
AcDbAlignedDimension
 13
1429.673057123657
 23
7142.497424545862
 33
0.0
 14
9319.673057123628
 24
7142.497424545957
 34
0.0
100
AcDbRotatedDimension
1001
ACAD
1000
DSTYLE
1002
{
1002
}
  0
LINE
  5
162E8
330
747D
100
AcDbEntity
  8
部品1
100
AcDbLine
 10
1484.673057123634
 20
9717.497424545888
 30
0.0
 11
1484.673057123656
 21
7207.497424545863
 31
0.0
  0
LINE
  5
162E9
330
747D
100
AcDbEntity
  8
部品1
100
AcDbLine
 10
1509.673057123635
 20
9717.497424545886
 30
0.0
 11
1509.673057123656
 21
7207.497424545863
 31
0.0
  0
DIMENSION
  5
162EA
330
747D
100
AcDbEntity
  8
寸法
 48
50.0
100
AcDbDimension
  2
*D7
 10
1429.673057123657
 20
6608.0666537797
 30
0.0
 11
1121.187775749418
 21
6608.0666537797
 31
0.0
 70
   160
 71
     5
 42
54.99999999999636
  3
INABA_S40G
100
AcDbAlignedDimension
 13
1484.673057123653
 23
7142.497424545864
 33
0.0
 14
1429.673057123657
 24
7142.497424545862
 34
0.0
100
AcDbRotatedDimension
1001
ACAD
1000
DSTYLE
1002
{
1002
}
  0
DIMENSION
  5
162EB
330
747D
100
AcDbEntity
  8
寸法
 48
50.0
100
AcDbDimension
  2
*D8
 10
6744.673057123653
 20
6608.0666537797
 30
0.0
 11
6905.575028123713
 21
6708.0666537797
 31
0.0
 70
   160
 71
     5
 42
48.00000000000363
  3
INABA_S40G
100
AcDbAlignedDimension
 13
6792.673057123656
 23
7168.497424545865
 33
0.0
 14
6744.673057123653
 24
7142.497424545864
 34
0.0
100
AcDbRotatedDimension
1001
ACAD
1000
DSTYLE
1002
{
1070
   279
1070
     2
1002
}
  0
LINE
  5
162EC
330
747D
100
AcDbEntity
  8
部品1
100
AcDbLine
 10
1484.673057123652
 20
7142.497424545864
 30
0.0
 11
1429.673057123657
 21
7142.497424545862
 31
0.0
  0
LINE
  5
162ED
330
747D
100
AcDbEntity
  8
部品1
 48
50.0
100
AcDbLine
 10
1484.673057123657
 20
7178.497424545864
 30
0.0
 11
1461.673057123657
 21
7178.497424545864
 31
0.0
  0
LINE
  5
162EE
330
747D
100
AcDbEntity
  8
部品1
 48
50.0
100
AcDbLine
 10
1494.673057123657
 20
7168.497424545865
 30
0.0
 11
1484.673057123657
 21
7147.497424545864
 31
0.0
  0
LINE
  5
162EF
330
747D
100
AcDbEntity
  8
部品1
 48
50.0
100
AcDbLine
 10
1484.673057123657
 20
7207.497424545863
 30
0.0
 11
1484.673057123653
 21
7142.497424545864
 31
0.0
  0
LINE
  5
162F0
330
747D
100
AcDbEntity
  8
部品1
 48
50.0
100
AcDbLine
 10
1532.673057123657
 20
7168.497424545865
 30
0.0
 11
1532.673057123657
 21
7177.497424545865
 31
0.0
  0
LINE
  5
162F1
330
747D
100
AcDbEntity
  8
部品1
 48
50.0
100
AcDbLine
 10
1532.673057123657
 20
7207.497424545865
 30
0.0
 11
1532.673057123657
 21
7198.497424545866
 31
0.0
  0
LINE
  5
162F2
330
747D
100
AcDbEntity
  8
部品1
100
AcDbLine
 10
1532.673057123657
 20
7207.497424545865
 30
0.0
 11
1484.673057123657
 21
7207.497424545865
 31
0.0
  0
LINE
  5
162F3
330
747D
100
AcDbEntity
  8
部品1
100
AcDbLine
 10
1532.673057123657
 20
7168.497424545865
 30
0.0
 11
1484.673057123657
 21
7168.497424545865
 31
0.0
  0
LINE
  5
162F4
330
747D
100
AcDbEntity
  8
部品1
100
AcDbLine
 10
1484.673057123656
 20
7178.497424545864
 30
0.0
 11
1461.673057123657
 21
7178.497424545864
 31
0.0
  0
LINE
  5
162F5
330
747D
100
AcDbEntity
  8
部品1
100
AcDbLine
 10
1484.673057123656
 20
7197.497424545789
 30
0.0
 11
1429.673057123655
 21
7197.497424545789
 31
0.0
  0
LINE
  5
162F6
330
747D
100
AcDbEntity
  8
部品1
100
AcDbLine
 10
1457.673057123638
 20
7197.497424545826
 30
0.0
 11
1429.673057123655
 21
7197.497424545826
 31
0.0
  0
LINE
  5
162F7
330
747D
100
AcDbEntity
  8
部品1
100
AcDbLine
 10
1457.673057123655
 20
7197.49742454584
 30
0.0
 11
1429.673057123655
 21
7197.49742454584
 31
0.0
  0
LINE
  5
162FB
330
747D
100
AcDbEntity
  8
部品1
100
AcDbLine
 10
1457.673057123643
 20
7617.49742454584
 30
0.0
 11
1429.673057123643
 21
7617.49742454584
 31
0.0
  0
LINE
  5
162FC
330
747D
100
AcDbEntity
  8
部品1
100
AcDbLine
 10
1457.673057123643
 20
8037.49742454584
 30
0.0
 11
1429.673057123643
 21
8037.49742454584
 31
0.0
  0
LINE
  5
162FE
330
747D
100
AcDbEntity
  8
部品1
100
AcDbLine
 10
1457.673057123638
 20
8457.49742454584
 30
0.0
 11
1429.673057123637
 21
8457.49742454584
 31
0.0
  0
LINE
  5
162FF
330
747D
100
AcDbEntity
  8
部品1
100
AcDbLine
 10
9264.67305712366
 20
9717.497424545886
 30
0.0
 11
9264.673057123641
 21
7142.497424545952
 31
0.0
  0
LINE
  5
16300
330
747D
100
AcDbEntity
  8
部品1
100
AcDbLine
 10
9239.673057123665
 20
9717.497424545884
 30
0.0
 11
9239.67305712364
 21
7207.497424545865
 31
0.0
  0
DIMENSION
  5
16301
330
747D
100
AcDbEntity
  8
寸法
 48
50.0
100
AcDbDimension
  2
*D9
 10
9216.673057123639
 20
6608.0666537797
 30
0.0
 11
9105.710159474892
 21
6708.0666537797
 31
0.0
 70
   160
 71
     5
 42
48.00000000000181
  3
INABA_S40G
100
AcDbAlignedDimension
 13
9264.673057123641
 23
7142.497424545952
 33
0.0
 14
9216.673057123639
 24
7168.497424545865
 34
0.0
100
AcDbRotatedDimension
1001
ACAD
1000
DSTYLE
1002
{
1070
   279
1070
     2
1002
}
  0
DIMENSION
  5
16302
330
747D
100
AcDbEntity
  8
寸法
 48
50.0
100
AcDbDimension
  2
*D10
 10
9264.673057123641
 20
6608.066653779701
 30
0.0
 11
9628.158338497877
 21
6608.066653779701
 31
0.0
 70
   160
 71
     5
 42
54.99999999999818
  3
INABA_S40G
100
AcDbAlignedDimension
 13
9319.673057123639
 23
7142.497424545957
 33
0.0
 14
9264.673057123641
 24
7142.497424545952
 34
0.0
100
AcDbRotatedDimension
1001
ACAD
1000
DSTYLE
1002
{
1002
}
  0
LINE
  5
16303
330
747D
100
AcDbEntity
  8
部品1
 48
50.0
100
AcDbLine
 10
9254.673057123637
 20
7168.497424545865
 30
0.0
 11
9264.673057123639
 21
7147.497424545864
 31
0.0
  0
LINE
  5
16304
330
747D
100
AcDbEntity
  8
部品1
100
AcDbLine
 10
9216.673057123639
 20
7207.497424545865
 30
0.0
 11
9264.673057123641
 21
7207.497424545865
 31
0.0
  0
LINE
  5
16305
330
747D
100
AcDbEntity
  8
部品1
100
AcDbLine
 10
9216.673057123639
 20
7168.497424545865
 30
0.0
 11
9264.673057123639
 21
7168.497424545865
 31
0.0
  0
LINE
  5
16306
330
747D
100
AcDbEntity
  8
部品1
 48
50.0
100
AcDbLine
 10
9216.673057123639
 20
7207.497424545865
 30
0.0
 11
9216.673057123639
 21
7198.497424545866
 31
0.0
  0
LINE
  5
16307
330
747D
100
AcDbEntity
  8
部品1
 48
50.0
100
AcDbLine
 10
9216.673057123639
 20
7168.497424545865
 30
0.0
 11
9216.673057123639
 21
7177.497424545865
 31
0.0
  0
LINE
  5
16308
330
747D
100
AcDbEntity
  8
部品1
100
AcDbLine
 10
9264.673057123639
 20
7178.497424545863
 30
0.0
 11
9287.673057123638
 21
7178.497424545864
 31
0.0
  0
LINE
  5
16309
330
747D
100
AcDbEntity
  8
部品1
100
AcDbLine
 10
9264.673057123639
 20
7197.497424545968
 30
0.0
 11
9319.673057123671
 21
7197.497424545968
 31
0.0
  0
LINE
  5
1630A
330
747D
100
AcDbEntity
  8
部品1
100
AcDbLine
 10
9319.673057123639
 20
7142.497424545957
 30
0.0
 11
9264.673057123641
 21
7142.497424545954
 31
0.0
  0
LINE
  5
16317
330
747D
100
AcDbEntity
  8
部品1
100
AcDbLine
 10
9291.673057123668
 20
7617.497424545966
 30
0.0
 11
9319.673057123667
 21
7617.497424545966
 31
0.0
  0
LINE
  5
16319
330
747D
100
AcDbEntity
  8
部品1
100
AcDbLine
 10
9291.673057123668
 20
8037.497424545966
 30
0.0
 11
9319.673057123667
 21
8037.497424545966
 31
0.0
  0
LINE
  5
1631A
330
747D
100
AcDbEntity
  8
部品1
100
AcDbLine
 10
9291.673057123665
 20
8457.497424545968
 30
0.0
 11
9319.673057123663
 21
8457.497424545968
 31
0.0
  0
LINE
  5
1631B
330
747D
100
AcDbEntity
  8
部品1
100
AcDbLine
 10
6717.673057123665
 20
9744.497424545986
 30
0.0
 11
7992.173057123661
 21
9744.497424545986
 31
0.0
  0
LINE
  5
1631D
330
747D
100
AcDbEntity
  8
部品1
100
AcDbLine
 10
1429.673057123663
 20
9772.49742454587
 30
0.0
 11
9319.673057123665
 21
9772.497424545957
 31
0.0
  0
DIMENSION
  5
1631F
330
747D
100
AcDbEntity
  8
寸法
100
AcDbDimension
  2
*D11
 10
9264.673057123664
 20
9988.305644170967
 30
0.0
 11
8004.673057123664
 21
10088.31745519459
 31
0.0
 70
    32
  1
6X420=<>
 71
     5
 42
2520.000000000001
  3
INABA_S40G
100
AcDbAlignedDimension
 13
6744.673057123662
 23
9772.49742454587
 33
0.0
 14
9264.673057123664
 24
9772.497424545964
 34
0.0
100
AcDbRotatedDimension
1001
ACAD
1000
DSTYLE
1002
{
1002
}
  0
DIMENSION
  5
16320
330
747D
100
AcDbEntity
  8
寸法
100
AcDbDimension
  2
*D12
 10
1484.673057123663
 20
9988.30564417085
 30
0.0
 11
1121.187775749389
 21
9988.30564417085
 31
0.0
 70
   160
 71
     5
 42
55.00000000003456
  3
INABA_S40G
100
AcDbAlignedDimension
 13
1429.673057123628
 23
9772.49742454587
 33
0.0
 14
1484.673057123663
 24
9772.49742454587
 34
0.0
100
AcDbRotatedDimension
1001
ACAD
1000
DSTYLE
1002
{
1002
}
  0
LINE
  5
16321
330
747D
100
AcDbEntity
  8
部品1
100
AcDbLine
 10
1484.673057123628
 20
9772.497424545838
 30
0.0
 11
1484.67305712363
 21
9744.497424545837
 31
0.0
  0
LINE
  5
16323
330
747D
100
AcDbEntity
  8
部品1
100
AcDbLine
 10
1457.67305712363
 20
9717.49742454584
 30
0.0
 11
1429.67305712363
 21
9717.49742454584
 31
0.0
  0
LINE
  5
16324
330
747D
100
AcDbEntity
  8
部品1
100
AcDbLine
 10
7164.673057123663
 20
9772.497424545987
 30
0.0
 11
7164.673057123663
 21
9744.497424545986
 31
0.0
  0
LINE
  5
16327
330
747D
100
AcDbEntity
  8
部品1
100
AcDbLine
 10
8017.173057123663
 20
9744.497424545983
 30
0.0
 11
9291.673057123665
 21
9744.497424545963
 31
0.0
  0
LINE
  5
16329
330
747D
100
AcDbEntity
  8
部品1
100
AcDbLine
 10
7584.673057123663
 20
9772.497424545987
 30
0.0
 11
7584.673057123663
 21
9744.497424545986
 31
0.0
  0
LINE
  5
1632A
330
747D
100
AcDbEntity
  8
部品1
100
AcDbLine
 10
7584.673057123663
 20
9772.49742454587
 30
0.0
 11
7584.673057123663
 21
9744.497424545869
 31
0.0
  0
LINE
  5
1632C
330
747D
100
AcDbEntity
  8
部品1
100
AcDbLine
 10
8004.673057123664
 20
9772.497424545987
 30
0.0
 11
8004.673057123664
 21
9744.497424545986
 31
0.0
  0
LINE
  5
1632D
330
747D
100
AcDbEntity
  8
部品1
100
AcDbLine
 10
7992.173057123664
 20
9736.497424545968
 30
0.0
 11
8017.173057123663
 21
9736.497424545971
 31
0.0
  0
LINE
  5
1632E
330
747D
100
AcDbEntity
  8
部品1
100
AcDbLine
 10
8033.673057123662
 20
9762.497424545971
 30
0.0
 11
8039.673057123662
 21
9762.497424545971
 31
0.0
  0
LINE
  5
1632F
330
747D
100
AcDbEntity
  8
部品1
100
AcDbLine
 10
8039.673057123662
 20
9762.497424545971
 30
0.0
 11
8039.673057123662
 21
9744.49742454597
 31
0.0
  0
LINE
  5
16330
330
747D
100
AcDbEntity
  8
部品1
100
AcDbLine
 10
7969.673057123663
 20
9762.497424545971
 30
0.0
 11
7975.673057123663
 21
9762.497424545971
 31
0.0
  0
LINE
  5
16331
330
747D
100
AcDbEntity
  8
部品1
100
AcDbLine
 10
7969.673057123663
 20
9762.497424545971
 30
0.0
 11
7969.673057123663
 21
9744.49742454597
 31
0.0
  0
DIMENSION
  5
16333
330
747D
100
AcDbEntity
  8
寸法
100
AcDbDimension
  2
*D13
 10
9319.673057123663
 20
9988.305644170949
 30
0.0
 11
9628.158338497904
 21
9988.305644170949
 31
0.0
 70
   160
 71
     5
 42
55.0
  3
INABA_S40G
100
AcDbAlignedDimension
 13
9264.673057123664
 23
9772.497424545964
 33
0.0
 14
9319.673057123663
 24
9772.497424545964
 34
0.0
100
AcDbRotatedDimension
1001
ACAD
1000
DSTYLE
1002
{
1002
}
  0
LINE
  5
16334
330
747D
100
AcDbEntity
  8
部品1
100
AcDbLine
 10
8424.673057123662
 20
9772.497424545987
 30
0.0
 11
8424.673057123662
 21
9744.497424545986
 31
0.0
  0
LINE
  5
16335
330
747D
100
AcDbEntity
  8
部品1
100
AcDbLine
 10
9264.673057123664
 20
9772.497424545964
 30
0.0
 11
9264.673057123664
 21
9744.497424545963
 31
0.0
  0
LINE
  5
16336
330
747D
100
AcDbEntity
  8
部品1
100
AcDbLine
 10
9264.673057123664
 20
9772.497424545987
 30
0.0
 11
9264.673057123664
 21
9744.497424545986
 31
0.0
  0
LINE
  5
16337
330
747D
100
AcDbEntity
  8
部品1
100
AcDbLine
 10
9291.673057123665
 20
9717.497424545967
 30
0.0
 11
9319.673057123663
 21
9717.497424545967
 31
0.0
  0
LINE
  5
1655C
330
747D
100
AcDbEntity
  8
部品1
100
AcDbLine
 10
6586.673057123658
 20
3836.27062074814
 30
0.0
 11
6586.673057123654
 21
2161.270620748139
 31
0.0
  0
LINE
  5
1655D
330
747D
100
AcDbEntity
  8
部品1
100
AcDbLine
 10
6634.673057123656
 20
3836.27062074814
 30
0.0
 11
6634.673057123655
 21
2161.270620748139
 31
0.0
  0
LINE
  5
1655E
330
747D
100
AcDbEntity
  8
破線
 48
5.0
100
AcDbLine
 10
6586.673057123654
 20
2161.270620748139
 30
0.0
 11
6586.673057123658
 21
1911.270620748139
 31
0.0
  0
LINE
  5
1655F
330
747D
100
AcDbEntity
  8
破線
 48
5.0
100
AcDbLine
 10
6634.673057123659
 20
1911.270620748139
 30
0.0
 11
6586.673057123658
 21
1911.270620748139
 31
0.0
  0
LINE
  5
16560
330
747D
100
AcDbEntity
  8
破線
 48
5.0
100
AcDbLine
 10
6634.673057123655
 20
2161.270620748139
 30
0.0
 11
6634.673057123656
 21
1886.270620748139
 31
0.0
  0
LINE
  5
16561
330
747D
100
AcDbEntity
  8
破線
 48
5.0
100
AcDbLine
 10
6744.673057123654
 20
1886.270620748138
 30
0.0
 11
6634.673057123656
 21
1886.270620748138
 31
0.0
  0
LINE
  5
16562
330
747D
100
AcDbEntity
  8
部品1
100
AcDbLine
 10
6792.673057123656
 20
3836.270620748139
 30
0.0
 11
6792.673057123656
 21
2161.270620748139
 31
0.0
  0
LINE
  5
16563
330
747D
100
AcDbEntity
  8
破線
 48
5.0
100
AcDbLine
 10
6792.673057123656
 20
2161.270620748139
 30
0.0
 11
6792.673057123654
 21
1911.270620748144
 31
0.0
  0
LINE
  5
16564
330
747D
100
AcDbEntity
  8
破線
 48
5.0
100
AcDbLine
 10
6792.673057123654
 20
1911.270620748144
 30
0.0
 11
6744.673057123654
 21
1911.270620748144
 31
0.0
  0
LINE
  5
16565
330
747D
100
AcDbEntity
  8
破線
 48
5.0
100
AcDbLine
 10
6744.673057123657
 20
2161.270620748139
 30
0.0
 11
6744.673057123657
 21
1886.270620748139
 31
0.0
  0
LINE
  5
16566
330
747D
100
AcDbEntity
  8
部品1
100
AcDbLine
 10
6744.673057123657
 20
3836.27062074814
 30
0.0
 11
6744.673057123657
 21
2161.270620748139
 31
0.0
  0
LINE
  5
16567
330
747D
100
AcDbEntity
  8
部品1
100
AcDbLine
 10
6744.673057123657
 20
3836.270620748139
 30
0.0
 11
9319.673057123658
 21
3836.270620748141
 31
0.0
  0
DIMENSION
  5
1659A
330
747D
100
AcDbEntity
  8
寸法
 48
50.0
100
AcDbDimension
  2
*D15
 10
6586.673057123639
 20
6608.0666537797
 30
0.0
 11
6475.710159474892
 21
6708.0666537797
 31
0.0
 70
   160
 71
     5
 42
48.00000000000181
  3
INABA_S40G
100
AcDbAlignedDimension
 13
6634.673057123641
 23
7142.497424545952
 33
0.0
 14
6586.673057123639
 24
7168.497424545865
 34
0.0
100
AcDbRotatedDimension
1001
ACAD
1000
DSTYLE
1002
{
1070
   279
1070
     2
1002
}
  0
DIMENSION
  5
1659C
330
747D
100
AcDbEntity
  8
寸法
 48
50.0
100
AcDbDimension
  2
*D14
 10
1484.673057123653
 20
6608.0666537797
 30
0.0
 11
1645.575028123714
 21
6708.0666537797
 31
0.0
 70
   160
 71
     5
 42
48.00000000000363
  3
INABA_S40G
100
AcDbAlignedDimension
 13
1532.673057123657
 23
7168.497424545865
 33
0.0
 14
1484.673057123653
 24
7142.497424545864
 34
0.0
100
AcDbRotatedDimension
1001
ACAD
1000
DSTYLE
1002
{
1070
   279
1070
     2
1002
}
  0
DIMENSION
  5
165E9
330
747D
100
AcDbEntity
  8
寸法
 48
50.0
100
AcDbDimension
  2
*D16
 10
6634.673057123641
 20
6608.066653779701
 30
0.0
 11
6689.673057123648
 21
6456.37475874347
 31
0.0
 70
   160
 71
     5
 42
110.0000000000127
  3
INABA_S40G
100
AcDbAlignedDimension
 13
6744.673057123653
 23
7142.497424545864
 33
0.0
 14
6634.673057123641
 24
7142.497424545952
 34
0.0
100
AcDbRotatedDimension
1001
ACAD
1000
DSTYLE
1002
{
1070
   279
1070
     2
1002
}
  0
LINE
  5
16656
330
747D
100
AcDbEntity
  8
部品1
100
AcDbLine
 10
6586.673057123639
 20
7207.497424545865
 30
0.0
 11
6634.673057123641
 21
7207.497424545865
 31
0.0
  0
LINE
  5
16657
330
747D
100
AcDbEntity
  8
部品1
 48
50.0
100
AcDbLine
 10
6586.673057123639
 20
7207.497424545865
 30
0.0
 11
6586.673057123639
 21
7198.497424545866
 31
0.0
  0
LINE
  5
16658
330
747D
100
AcDbEntity
  8
部品1
100
AcDbLine
 10
6586.673057123639
 20
7168.497424545865
 30
0.0
 11
6634.673057123639
 21
7168.497424545865
 31
0.0
  0
LINE
  5
16659
330
747D
100
AcDbEntity
  8
部品1
 48
50.0
100
AcDbLine
 10
6586.673057123639
 20
7168.497424545865
 30
0.0
 11
6586.673057123639
 21
7177.497424545865
 31
0.0
  0
LINE
  5
1665A
330
747D
100
AcDbEntity
  8
部品1
 48
50.0
100
AcDbLine
 10
6624.673057123638
 20
7168.497424545865
 30
0.0
 11
6634.673057123639
 21
7147.497424545864
 31
0.0
  0
LINE
  5
1665B
330
747D
100
AcDbEntity
  8
部品1
100
AcDbLine
 10
6634.673057123639
 20
7178.497424545863
 30
0.0
 11
6657.673057123638
 21
7178.497424545864
 31
0.0
  0
LINE
  5
1665C
330
747D
100
AcDbEntity
  8
部品1
100
AcDbLine
 10
6792.673057123656
 20
7207.497424545865
 30
0.0
 11
6744.673057123657
 21
7207.497424545865
 31
0.0
  0
LINE
  5
1665D
330
747D
100
AcDbEntity
  8
部品1
 48
50.0
100
AcDbLine
 10
6792.673057123656
 20
7207.497424545865
 30
0.0
 11
6792.673057123656
 21
7198.497424545866
 31
0.0
  0
LINE
  5
1665E
330
747D
100
AcDbEntity
  8
部品1
100
AcDbLine
 10
6792.673057123656
 20
7168.497424545865
 30
0.0
 11
6744.673057123657
 21
7168.497424545865
 31
0.0
  0
LINE
  5
1665F
330
747D
100
AcDbEntity
  8
部品1
 48
50.0
100
AcDbLine
 10
6754.673057123657
 20
7168.497424545865
 30
0.0
 11
6744.673057123657
 21
7147.497424545864
 31
0.0
  0
LINE
  5
16660
330
747D
100
AcDbEntity
  8
部品1
100
AcDbLine
 10
6744.673057123655
 20
7178.497424545864
 30
0.0
 11
6721.673057123656
 21
7178.497424545864
 31
0.0
  0
LINE
  5
16661
330
747D
100
AcDbEntity
  8
部品1
 48
50.0
100
AcDbLine
 10
6744.673057123657
 20
7207.497424545863
 30
0.0
 11
6744.673057123653
 21
7142.497424545864
 31
0.0
  0
LINE
  5
16662
330
747D
100
AcDbEntity
  8
部品1
 48
50.0
100
AcDbLine
 10
6792.673057123656
 20
7168.497424545865
 30
0.0
 11
6792.673057123656
 21
7177.497424545865
 31
0.0
  0
LINE
  5
16663
330
747D
100
AcDbEntity
  8
部品1
100
AcDbLine
 10
6744.673057123653
 20
7142.497424545864
 30
0.0
 11
6634.673057123642
 21
7142.497424545858
 31
0.0
  0
LINE
  5
16664
330
747D
100
AcDbEntity
  8
部品1
 48
50.0
100
AcDbLine
 10
6634.673057123645
 20
7207.497424545952
 30
0.0
 11
6634.673057123641
 21
7142.497424545952
 31
0.0
  0
LINE
  5
16666
330
747D
100
AcDbEntity
  8
部品1
100
AcDbLine
 10
6744.673057123662
 20
9772.49742454587
 30
0.0
 11
6744.673057123662
 21
9744.497424545869
 31
0.0
  0
LINE
  5
16688
330
747D
100
AcDbEntity
  8
部品1
100
AcDbLine
 10
4087.673057123649
 20
9744.497424545986
 30
0.0
 11
5362.173057123661
 21
9744.497424545976
 31
0.0
  0
LINE
  5
16692
330
747D
100
AcDbEntity
  8
部品1
100
AcDbLine
 10
6634.673057123663
 20
9772.497424545964
 30
0.0
 11
6634.673057123663
 21
9744.497424545963
 31
0.0
  0
DIMENSION
  5
166DD
330
747D
100
AcDbEntity
  8
寸法
 48
50.0
100
AcDbDimension
  2
*D17
 10
6634.673057123663
 20
9988.305644170967
 30
0.0
 11
6689.673057123664
 21
10088.30564417096
 31
0.0
 70
    32
 71
     5
 42
109.9999999999991
  3
INABA_S40G
100
AcDbAlignedDimension
 13
6744.673057123662
 23
9772.497424545917
 33
0.0
 14
6634.673057123663
 24
9772.497424545916
 34
0.0
100
AcDbRotatedDimension
1001
ACAD
1000
DSTYLE
1002
{
1070
   279
1070
     2
1002
}
  0
LINE
  5
16760
330
747D
100
AcDbEntity
  8
部品1
 48
50.0
100
AcDbLine
 10
6689.673057123629
 20
9744.497424545912
 30
0.0
 11
6661.673057123632
 21
9772.497424545965
 31
0.0
  0
LINE
  5
16761
330
747D
100
AcDbEntity
  8
部品1
100
AcDbLine
 10
9264.673057123658
 20
9717.497424545884
 30
0.0
 11
6744.673057123643
 21
9717.497424545886
 31
0.0
  0
LINE
  5
16762
330
747D
100
AcDbEntity
  8
部品1
 48
50.0
100
AcDbLine
 10
6661.673057123632
 20
9744.497424546016
 30
0.0
 11
6661.67305712363
 21
9772.497424545965
 31
0.0
  0
LINE
  5
16763
330
747D
100
AcDbEntity
  8
部品1
 48
50.0
100
AcDbLine
 10
6661.673057123632
 20
9744.497424545912
 30
0.0
 11
6689.673057123629
 21
9744.497424545912
 31
0.0
  0
LINE
  5
168C3
330
747D
100
AcDbEntity
  8
部品1
100
AcDbLine
 10
6713.673057123648
 20
7197.497424545861
 30
0.0
 11
6665.673057123647
 21
7197.49742454586
 31
0.0
  0
LINE
  5
168C4
330
747D
100
AcDbEntity
  8
部品1
 48
50.0
100
AcDbLine
 10
6665.673057123647
 20
7197.497424545861
 30
0.0
 11
6665.673057123651
 21
7142.497424545862
 31
0.0
  0
LINE
  5
168C5
330
747D
100
AcDbEntity
  8
部品1
 48
50.0
100
AcDbLine
 10
6713.673057123648
 20
7197.497424545861
 30
0.0
 11
6713.673057123649
 21
7142.497424545862
 31
0.0
  0
DIMENSION
  5
16913
330
747D
100
AcDbEntity
  8
寸法
 48
50.0
100
AcDbDimension
  2
*D18
 10
9319.673057123663
 20
10237.62711772726
 30
0.0
 11
8004.673057123664
 21
10337.63892875088
 31
0.0
 70
    32
 71
     5
 42
2630.0
  3
INABA_S40G
100
AcDbAlignedDimension
 13
6689.673057123664
 23
10147.29355852891
 33
0.0
 14
9319.673057123663
 24
9772.497424545964
 34
0.0
100
AcDbRotatedDimension
1001
ACAD
1000
DSTYLE
1002
{
1070
    75
1070
     1
1070
   279
1070
     2
1002
}
  0
LINE
  5
172BC
330
747D
100
AcDbEntity
  8
部品1
 48
50.0
100
AcDbLine
 10
6717.673057123632
 20
9717.497424545886
 30
0.0
 11
6717.673057123697
 21
9772.497424545917
 31
0.0
  0
LINE
  5
172BD
330
747D
100
AcDbEntity
  8
部品1
 48
50.0
100
AcDbLine
 10
6661.673057123632
 20
9717.497424545886
 30
0.0
 11
6661.673057123632
 21
9744.497424545912
 31
0.0
  0
LINE
  5
174C8
330
747D
100
AcDbEntity
  8
部品1
 48
50.0
100
AcDbLine
 10
9239.673057123665
 20
9692.497424545841
 30
0.0
 11
6769.673057123617
 21
9692.497424545816
 31
0.0
  0
LINE
  5
174C9
330
747D
100
AcDbEntity
  8
部品1
 48
50.0
100
AcDbLine
 10
9291.673057123665
 20
9744.497424545963
 30
0.0
 11
9264.673057123658
 21
9717.497424545884
 31
0.0
  0
LINE
  5
174CA
330
747D
100
AcDbEntity
  8
部品1
 48
50.0
100
AcDbLine
 10
1484.673057123634
 20
9717.497424545888
 30
0.0
 11
1457.673057123649
 21
9744.497424545986
 31
0.0
  0
LINE
  5
174CB
330
747D
100
AcDbEntity
  8
部品1
 48
50.0
100
AcDbLine
 10
7992.173057123664
 20
9736.497424545968
 30
0.0
 11
7992.173057123662
 21
9744.497424545986
 31
0.0
  0
LINE
  5
174CC
330
747D
100
AcDbEntity
  8
部品1
 48
50.0
100
AcDbLine
 10
8017.173057123663
 20
9736.497424545971
 30
0.0
 11
8017.173057123663
 21
9744.497424545983
 31
0.0
  0
LINE
  5
17B10
330
747D
100
AcDbEntity
  8
細線
100
AcDbLine
 10
3956.673057123657
 20
2171.270620748139
 30
0.0
 11
1532.673057123651
 21
2171.270620748139
 31
0.0
  0
LINE
  5
17B13
330
747D
100
AcDbEntity
  8
部品1
100
AcDbLine
 10
4114.673057123655
 20
3836.270620748139
 30
0.0
 11
4114.673057123656
 21
2161.270620748139
 31
0.0
  0
LINE
  5
17B14
330
747D
100
AcDbEntity
  8
部品1
100
AcDbLine
 10
4162.673057123657
 20
3836.270620748139
 30
0.0
 11
4162.673057123657
 21
2161.270620748139
 31
0.0
  0
LINE
  5
17B15
330
747D
100
AcDbEntity
  8
部品1
100
AcDbLine
 10
4004.673057123656
 20
3836.270620748139
 30
0.0
 11
4004.673057123655
 21
2161.270620748139
 31
0.0
  0
LINE
  5
17B16
330
747D
100
AcDbEntity
  8
部品1
100
AcDbLine
 10
3956.673057123659
 20
3836.270620748141
 30
0.0
 11
3956.673057123655
 21
2161.270620748139
 31
0.0
  0
LINE
  5
17B1E
330
747D
100
AcDbEntity
  8
細線
100
AcDbLine
 10
1532.673057123653
 20
3796.270620748139
 30
0.0
 11
3956.673057123655
 21
3796.270620748139
 31
0.0
  0
LINE
  5
17B21
330
747D
100
AcDbEntity
  8
細線
100
AcDbLine
 10
1532.673057123653
 20
3406.270620748139
 30
0.0
 11
3956.673057123655
 21
3406.270620748139
 31
0.0
  0
LINE
  5
17B22
330
747D
100
AcDbEntity
  8
細線
100
AcDbLine
 10
1532.673057123653
 20
3471.27062074814
 30
0.0
 11
3956.673057123655
 21
3471.27062074814
 31
0.0
  0
LINE
  5
17B23
330
747D
100
AcDbEntity
  8
細線
100
AcDbLine
 10
1532.673057123653
 20
3536.27062074814
 30
0.0
 11
3956.673057123655
 21
3536.27062074814
 31
0.0
  0
LINE
  5
17B24
330
747D
100
AcDbEntity
  8
細線
100
AcDbLine
 10
1532.673057123653
 20
3601.270620748139
 30
0.0
 11
3956.673057123655
 21
3601.270620748139
 31
0.0
  0
LINE
  5
17B25
330
747D
100
AcDbEntity
  8
細線
100
AcDbLine
 10
1532.673057123653
 20
3666.270620748139
 30
0.0
 11
3956.673057123655
 21
3666.270620748139
 31
0.0
  0
LINE
  5
17B26
330
747D
100
AcDbEntity
  8
細線
100
AcDbLine
 10
1532.673057123653
 20
3731.270620748139
 30
0.0
 11
3956.673057123655
 21
3731.270620748139
 31
0.0
  0
LINE
  5
17B27
330
747D
100
AcDbEntity
  8
細線
100
AcDbLine
 10
1532.673057123653
 20
2756.27062074814
 30
0.0
 11
3956.673057123655
 21
2756.27062074814
 31
0.0
  0
LINE
  5
17B28
330
747D
100
AcDbEntity
  8
細線
100
AcDbLine
 10
1532.673057123653
 20
2821.270620748139
 30
0.0
 11
3956.673057123655
 21
2821.270620748139
 31
0.0
  0
LINE
  5
17B29
330
747D
100
AcDbEntity
  8
細線
100
AcDbLine
 10
1532.673057123653
 20
2886.270620748139
 30
0.0
 11
3956.673057123655
 21
2886.270620748139
 31
0.0
  0
LINE
  5
17B2A
330
747D
100
AcDbEntity
  8
細線
100
AcDbLine
 10
1532.673057123653
 20
2951.27062074814
 30
0.0
 11
3956.673057123655
 21
2951.27062074814
 31
0.0
  0
LINE
  5
17B2B
330
747D
100
AcDbEntity
  8
細線
100
AcDbLine
 10
1532.673057123653
 20
3016.27062074814
 30
0.0
 11
3956.673057123655
 21
3016.27062074814
 31
0.0
  0
LINE
  5
17B2C
330
747D
100
AcDbEntity
  8
細線
100
AcDbLine
 10
1532.673057123653
 20
3081.270620748139
 30
0.0
 11
3956.673057123655
 21
3081.270620748139
 31
0.0
  0
LINE
  5
17B2D
330
747D
100
AcDbEntity
  8
細線
100
AcDbLine
 10
1532.673057123653
 20
3146.270620748139
 30
0.0
 11
3956.673057123655
 21
3146.270620748139
 31
0.0
  0
LINE
  5
17B2E
330
747D
100
AcDbEntity
  8
細線
100
AcDbLine
 10
1532.673057123653
 20
3211.27062074814
 30
0.0
 11
3956.673057123655
 21
3211.27062074814
 31
0.0
  0
LINE
  5
17B2F
330
747D
100
AcDbEntity
  8
細線
100
AcDbLine
 10
1532.673057123653
 20
3276.270620748139
 30
0.0
 11
3956.673057123655
 21
3276.270620748139
 31
0.0
  0
LINE
  5
17B30
330
747D
100
AcDbEntity
  8
細線
100
AcDbLine
 10
1532.673057123653
 20
3341.270620748139
 30
0.0
 11
3956.673057123655
 21
3341.270620748139
 31
0.0
  0
LINE
  5
17B33
330
747D
100
AcDbEntity
  8
細線
100
AcDbLine
 10
1532.673057123653
 20
2236.270620748139
 30
0.0
 11
3956.673057123655
 21
2236.270620748139
 31
0.0
  0
LINE
  5
17B34
330
747D
100
AcDbEntity
  8
細線
100
AcDbLine
 10
1532.673057123653
 20
2301.270620748139
 30
0.0
 11
3956.673057123655
 21
2301.270620748139
 31
0.0
  0
LINE
  5
17B35
330
747D
100
AcDbEntity
  8
細線
100
AcDbLine
 10
1532.673057123653
 20
2366.270620748139
 30
0.0
 11
3956.673057123655
 21
2366.270620748139
 31
0.0
  0
LINE
  5
17B36
330
747D
100
AcDbEntity
  8
細線
100
AcDbLine
 10
1532.673057123653
 20
2431.27062074814
 30
0.0
 11
3956.673057123655
 21
2431.27062074814
 31
0.0
  0
LINE
  5
17B37
330
747D
100
AcDbEntity
  8
細線
100
AcDbLine
 10
1532.673057123653
 20
2496.270620748139
 30
0.0
 11
3956.673057123655
 21
2496.270620748139
 31
0.0
  0
LINE
  5
17B38
330
747D
100
AcDbEntity
  8
細線
100
AcDbLine
 10
1532.673057123653
 20
2561.270620748139
 30
0.0
 11
3956.673057123655
 21
2561.270620748139
 31
0.0
  0
LINE
  5
17B39
330
747D
100
AcDbEntity
  8
細線
100
AcDbLine
 10
1532.673057123653
 20
2626.270620748139
 30
0.0
 11
3956.673057123655
 21
2626.270620748139
 31
0.0
  0
LINE
  5
17B3A
330
747D
100
AcDbEntity
  8
細線
100
AcDbLine
 10
1532.673057123653
 20
2691.270620748139
 30
0.0
 11
3956.673057123655
 21
2691.270620748139
 31
0.0
  0
LINE
  5
17B5A
330
747D
100
AcDbEntity
  8
部品1
100
AcDbLine
 10
1429.673057123656
 20
3836.270620748138
 30
0.0
 11
4114.673057123656
 21
3836.270620748139
 31
0.0
  0
LINE
  5
17B5E
330
747D
100
AcDbEntity
  8
破線
 48
5.0
100
AcDbLine
 10
4114.673057123656
 20
2161.270620748139
 30
0.0
 11
4114.673057123656
 21
1886.270620748139
 31
0.0
  0
LINE
  5
17B5F
330
747D
100
AcDbEntity
  8
破線
 48
5.0
100
AcDbLine
 10
4162.673057123654
 20
1911.270620748145
 30
0.0
 11
4114.673057123655
 21
1911.270620748145
 31
0.0
  0
LINE
  5
17B60
330
747D
100
AcDbEntity
  8
破線
 48
5.0
100
AcDbLine
 10
4162.673057123657
 20
2161.270620748139
 30
0.0
 11
4162.673057123654
 21
1911.270620748145
 31
0.0
  0
LINE
  5
17B61
330
747D
100
AcDbEntity
  8
破線
 48
5.0
100
AcDbLine
 10
4114.673057123655
 20
1886.270620748139
 30
0.0
 11
4004.673057123656
 21
1886.270620748139
 31
0.0
  0
LINE
  5
17B62
330
747D
100
AcDbEntity
  8
破線
 48
5.0
100
AcDbLine
 10
4004.673057123655
 20
2161.270620748139
 30
0.0
 11
4004.673057123656
 21
1886.270620748139
 31
0.0
  0
LINE
  5
17B63
330
747D
100
AcDbEntity
  8
破線
 48
5.0
100
AcDbLine
 10
4004.673057123659
 20
1911.270620748139
 30
0.0
 11
3956.673057123657
 21
1911.270620748139
 31
0.0
  0
LINE
  5
17B64
330
747D
100
AcDbEntity
  8
破線
 48
5.0
100
AcDbLine
 10
3956.673057123655
 20
2161.270620748139
 30
0.0
 11
3956.673057123657
 21
1911.270620748139
 31
0.0
  0
DIMENSION
  5
17B86
330
747D
100
AcDbEntity
  8
寸法
 48
50.0
100
AcDbDimension
  2
*D23
 10
4059.673057123664
 20
10237.62711772726
 30
0.0
 11
2744.673057123646
 21
10337.63892875088
 31
0.0
 70
    32
 71
     5
 42
2630.000000000036
  3
INABA_S40G
100
AcDbAlignedDimension
 13
1429.673057123628
 23
9772.497424545838
 33
0.0
 14
4059.673057123664
 24
10147.29355852891
 34
0.0
100
AcDbRotatedDimension
1001
ACAD
1000
DSTYLE
1002
{
1070
   279
1070
     2
1002
}
  0
DIMENSION
  5
17B87
330
747D
100
AcDbEntity
  8
寸法
100
AcDbDimension
  2
*D21
 10
4004.673057123664
 20
9988.305644170967
 30
0.0
 11
2744.673057123664
 21
10088.31745519459
 31
0.0
 70
    32
  1
6X420=<>
 71
     5
 42
2520.000000000001
  3
INABA_S40G
100
AcDbAlignedDimension
 13
1484.673057123663
 23
9772.49742454587
 33
0.0
 14
4004.673057123664
 24
9772.497424545964
 34
0.0
100
AcDbRotatedDimension
1001
ACAD
1000
DSTYLE
1002
{
1002
}
  0
DIMENSION
  5
17B88
330
747D
100
AcDbEntity
  8
寸法
 48
50.0
100
AcDbDimension
  2
*D22
 10
4004.673057123664
 20
9988.305644170967
 30
0.0
 11
4059.673057123663
 21
10088.30564417096
 31
0.0
 70
    32
 71
     5
 42
109.9999999999991
  3
INABA_S40G
100
AcDbAlignedDimension
 13
4114.673057123662
 23
9772.497424545917
 33
0.0
 14
4004.673057123664
 24
9772.497424545916
 34
0.0
100
AcDbRotatedDimension
1001
ACAD
1000
DSTYLE
1002
{
1070
   279
1070
     2
1002
}
  0
LINE
  5
17B89
330
747D
100
AcDbEntity
  8
部品1
100
AcDbLine
 10
4087.673057123629
 20
9717.497424545884
 30
0.0
 11
4031.673057123631
 21
9717.497424545884
 31
0.0
  0
LINE
  5
17B8B
330
747D
100
AcDbEntity
  8
部品1
 48
50.0
100
AcDbLine
 10
3979.673057123634
 20
9692.497424545791
 30
0.0
 11
1509.673057123634
 21
9692.497424545789
 31
0.0
  0
LINE
  5
17B98
330
747D
100
AcDbEntity
  8
部品1
 48
50.0
100
AcDbLine
 10
2757.173057123663
 20
9736.497424545971
 30
0.0
 11
2757.173057123663
 21
9744.497424545983
 31
0.0
  0
LINE
  5
17B99
330
747D
100
AcDbEntity
  8
部品1
 48
50.0
100
AcDbLine
 10
2732.173057123663
 20
9736.497424545968
 30
0.0
 11
2732.173057123663
 21
9744.497424545986
 31
0.0
  0
LINE
  5
17B9A
330
747D
100
AcDbEntity
  8
部品1
 48
50.0
100
AcDbLine
 10
4031.673057123631
 20
9717.497424545886
 30
0.0
 11
4031.673057123631
 21
9744.497424545912
 31
0.0
  0
LINE
  5
17B9B
330
747D
100
AcDbEntity
  8
部品1
 48
50.0
100
AcDbLine
 10
4087.673057123631
 20
9717.497424545886
 30
0.0
 11
4087.673057123697
 21
9772.497424545917
 31
0.0
  0
LINE
  5
17B9C
330
747D
100
AcDbEntity
  8
部品1
 48
50.0
100
AcDbLine
 10
4083.673057123648
 20
7197.497424545861
 30
0.0
 11
4083.673057123649
 21
7142.497424545862
 31
0.0
  0
LINE
  5
17B9D
330
747D
100
AcDbEntity
  8
部品1
 48
50.0
100
AcDbLine
 10
4035.673057123648
 20
7197.497424545861
 30
0.0
 11
4035.67305712365
 21
7142.497424545862
 31
0.0
  0
LINE
  5
17B9E
330
747D
100
AcDbEntity
  8
部品1
100
AcDbLine
 10
4083.673057123648
 20
7197.497424545861
 30
0.0
 11
4035.673057123647
 21
7197.49742454586
 31
0.0
  0
LINE
  5
17B9F
330
747D
100
AcDbEntity
  8
部品1
 48
50.0
100
AcDbLine
 10
4031.673057123631
 20
9744.497424545912
 30
0.0
 11
4059.673057123629
 21
9744.497424545912
 31
0.0
  0
LINE
  5
17BA0
330
747D
100
AcDbEntity
  8
部品1
 48
50.0
100
AcDbLine
 10
4031.673057123631
 20
9744.497424546016
 30
0.0
 11
4031.67305712363
 21
9772.497424545965
 31
0.0
  0
LINE
  5
17BA1
330
747D
100
AcDbEntity
  8
部品1
 48
50.0
100
AcDbLine
 10
4059.673057123629
 20
9744.497424545912
 30
0.0
 11
4031.673057123631
 21
9772.497424545965
 31
0.0
  0
LINE
  5
17BA2
330
747D
100
AcDbEntity
  8
部品1
100
AcDbLine
 10
4004.673057123664
 20
9772.497424545964
 30
0.0
 11
4004.673057123664
 21
9744.497424545963
 31
0.0
  0
LINE
  5
17BA3
330
747D
100
AcDbEntity
  8
部品1
100
AcDbLine
 10
3584.673057123662
 20
9772.497424545987
 30
0.0
 11
3584.673057123662
 21
9744.497424545986
 31
0.0
  0
LINE
  5
17BA4
330
747D
100
AcDbEntity
  8
部品1
100
AcDbLine
 10
2744.673057123663
 20
9772.49742454587
 30
0.0
 11
2744.673057123663
 21
9744.497424545869
 31
0.0
  0
LINE
  5
17BA7
330
747D
100
AcDbEntity
  8
部品1
100
AcDbLine
 10
2324.673057123663
 20
9772.49742454587
 30
0.0
 11
2324.673057123663
 21
9744.497424545869
 31
0.0
  0
LINE
  5
17BAA
330
747D
100
AcDbEntity
  8
部品1
100
AcDbLine
 10
1457.673057123649
 20
9744.497424545986
 30
0.0
 11
2732.173057123663
 21
9744.497424545988
 31
0.0
  0
LINE
  5
17BAB
330
747D
100
AcDbEntity
  8
部品1
100
AcDbLine
 10
2757.173057123664
 20
9744.49742454599
 30
0.0
 11
4031.673057123664
 21
9744.497424545963
 31
0.0
  0
LINE
  5
17BAC
330
747D
100
AcDbEntity
  8
部品1
100
AcDbLine
 10
2709.673057123663
 20
9762.497424545971
 30
0.0
 11
2709.673057123663
 21
9744.49742454597
 31
0.0
  0
LINE
  5
17BAD
330
747D
100
AcDbEntity
  8
部品1
100
AcDbLine
 10
2709.673057123663
 20
9762.497424545971
 30
0.0
 11
2715.673057123663
 21
9762.497424545971
 31
0.0
  0
LINE
  5
17BAE
330
747D
100
AcDbEntity
  8
部品1
100
AcDbLine
 10
2779.673057123663
 20
9762.497424545971
 30
0.0
 11
2779.673057123663
 21
9744.49742454597
 31
0.0
  0
LINE
  5
17BAF
330
747D
100
AcDbEntity
  8
部品1
100
AcDbLine
 10
2773.673057123663
 20
9762.497424545971
 30
0.0
 11
2779.673057123663
 21
9762.497424545971
 31
0.0
  0
LINE
  5
17BB0
330
747D
100
AcDbEntity
  8
部品1
100
AcDbLine
 10
2732.173057123663
 20
9736.497424545968
 30
0.0
 11
2757.173057123663
 21
9736.497424545971
 31
0.0
  0
LINE
  5
17BB1
330
747D
100
AcDbEntity
  8
部品1
100
AcDbLine
 10
3164.673057123663
 20
9772.497424545987
 30
0.0
 11
3164.673057123663
 21
9744.497424545986
 31
0.0
  0
LINE
  5
17BB2
330
747D
100
AcDbEntity
  8
部品1
100
AcDbLine
 10
4114.673057123662
 20
9772.49742454587
 30
0.0
 11
4114.673057123662
 21
9744.497424545869
 31
0.0
  0
LINE
  5
17BB3
330
747D
100
AcDbEntity
  8
部品1
 48
50.0
100
AcDbLine
 10
4004.673057123645
 20
7207.497424545952
 30
0.0
 11
4004.673057123642
 21
7142.497424545952
 31
0.0
  0
LINE
  5
17BB4
330
747D
100
AcDbEntity
  8
部品1
100
AcDbLine
 10
4114.673057123652
 20
7142.497424545864
 30
0.0
 11
4004.673057123642
 21
7142.497424545858
 31
0.0
  0
LINE
  5
17BB5
330
747D
100
AcDbEntity
  8
部品1
 48
50.0
100
AcDbLine
 10
4162.673057123657
 20
7168.497424545865
 30
0.0
 11
4162.673057123657
 21
7177.497424545865
 31
0.0
  0
LINE
  5
17BB6
330
747D
100
AcDbEntity
  8
部品1
 48
50.0
100
AcDbLine
 10
4114.673057123656
 20
7207.497424545863
 30
0.0
 11
4114.673057123653
 21
7142.497424545864
 31
0.0
  0
LINE
  5
17BB7
330
747D
100
AcDbEntity
  8
部品1
100
AcDbLine
 10
4114.673057123655
 20
7178.497424545864
 30
0.0
 11
4091.673057123657
 21
7178.497424545864
 31
0.0
  0
LINE
  5
17BB8
330
747D
100
AcDbEntity
  8
部品1
 48
50.0
100
AcDbLine
 10
4124.673057123657
 20
7168.497424545865
 30
0.0
 11
4114.673057123656
 21
7147.497424545864
 31
0.0
  0
LINE
  5
17BB9
330
747D
100
AcDbEntity
  8
部品1
100
AcDbLine
 10
4162.673057123657
 20
7168.497424545865
 30
0.0
 11
4114.673057123656
 21
7168.497424545865
 31
0.0
  0
LINE
  5
17BBA
330
747D
100
AcDbEntity
  8
部品1
 48
50.0
100
AcDbLine
 10
4162.673057123657
 20
7207.497424545865
 30
0.0
 11
4162.673057123657
 21
7198.497424545866
 31
0.0
  0
LINE
  5
17BBB
330
747D
100
AcDbEntity
  8
部品1
100
AcDbLine
 10
4162.673057123657
 20
7207.497424545865
 30
0.0
 11
4114.673057123656
 21
7207.497424545865
 31
0.0
  0
LINE
  5
17BBC
330
747D
100
AcDbEntity
  8
部品1
100
AcDbLine
 10
4004.673057123638
 20
7178.497424545863
 30
0.0
 11
4027.673057123638
 21
7178.497424545864
 31
0.0
  0
LINE
  5
17BBD
330
747D
100
AcDbEntity
  8
部品1
 48
50.0
100
AcDbLine
 10
3994.673057123639
 20
7168.497424545865
 30
0.0
 11
4004.673057123638
 21
7147.497424545864
 31
0.0
  0
LINE
  5
17BBE
330
747D
100
AcDbEntity
  8
部品1
 48
50.0
100
AcDbLine
 10
3956.673057123639
 20
7168.497424545865
 30
0.0
 11
3956.673057123639
 21
7177.497424545865
 31
0.0
  0
LINE
  5
17BBF
330
747D
100
AcDbEntity
  8
部品1
100
AcDbLine
 10
3956.673057123639
 20
7168.497424545865
 30
0.0
 11
4004.673057123638
 21
7168.497424545865
 31
0.0
  0
LINE
  5
17BC0
330
747D
100
AcDbEntity
  8
部品1
 48
50.0
100
AcDbLine
 10
3956.673057123639
 20
7207.497424545865
 30
0.0
 11
3956.673057123639
 21
7198.497424545866
 31
0.0
  0
LINE
  5
17BC1
330
747D
100
AcDbEntity
  8
部品1
100
AcDbLine
 10
3956.673057123639
 20
7207.497424545865
 30
0.0
 11
4004.67305712364
 21
7207.497424545865
 31
0.0
  0
LINE
  5
17BC2
330
747D
100
AcDbEntity
  8
部品1
 48
50.0
100
AcDbLine
 10
1496.673057123656
 20
7187.997424545864
 30
0.0
 11
3992.673057123641
 21
7187.997424545864
 31
0.0
  0
DIMENSION
  5
17BC3
330
747D
100
AcDbEntity
  8
寸法
 48
50.0
100
AcDbDimension
  2
*D20
 10
1532.673057123657
 20
6608.0666537797
 30
0.0
 11
2744.673057123648
 21
6708.078464803323
 31
0.0
 70
    32
  1
有効開口部間口 <>
 71
     5
 42
2423.999999999982
  3
INABA_S40G
100
AcDbAlignedDimension
 13
3956.673057123639
 23
7168.497424545865
 33
0.0
 14
1532.673057123657
 24
7168.497424545865
 34
0.0
100
AcDbRotatedDimension
1001
ACAD
1000
DSTYLE
1002
{
1070
    75
1070
     1
1070
   279
1070
     2
1002
}
  0
DIMENSION
  5
17BC4
330
747D
100
AcDbEntity
  8
寸法
 48
50.0
100
AcDbDimension
  2
*D19
 10
3956.673057123639
 20
6608.0666537797
 30
0.0
 11
3845.710159474892
 21
6708.0666537797
 31
0.0
 70
   160
 71
     5
 42
48.00000000000181
  3
INABA_S40G
100
AcDbAlignedDimension
 13
4004.67305712364
 23
7142.497424545952
 33
0.0
 14
3956.673057123639
 24
7168.497424545865
 34
0.0
100
AcDbRotatedDimension
1001
ACAD
1000
DSTYLE
1002
{
1070
   279
1070
     2
1002
}
  0
DIMENSION
  5
17C46
330
747D
100
AcDbEntity
  8
寸法
 48
50.0
100
AcDbDimension
  2
*D25
 10
4004.67305712364
 20
6608.066653779701
 30
0.0
 11
4059.673057123647
 21
6456.37475874347
 31
0.0
 70
   160
 71
     5
 42
110.0000000000127
  3
INABA_S40G
100
AcDbAlignedDimension
 13
4114.673057123653
 23
7142.497424545864
 33
0.0
 14
4004.67305712364
 24
7142.497424545952
 34
0.0
100
AcDbRotatedDimension
1001
ACAD
1000
DSTYLE
1002
{
1070
   279
1070
     2
1002
}
  0
DIMENSION
  5
17C47
330
747D
100
AcDbEntity
  8
寸法
 48
50.0
100
AcDbDimension
  2
*D24
 10
4114.673057123653
 20
6608.0666537797
 30
0.0
 11
4275.575028123713
 21
6708.0666537797
 31
0.0
 70
   160
 71
     5
 42
48.00000000000363
  3
INABA_S40G
100
AcDbAlignedDimension
 13
4162.673057123657
 23
7168.497424545865
 33
0.0
 14
4114.673057123653
 24
7142.497424545864
 34
0.0
100
AcDbRotatedDimension
1001
ACAD
1000
DSTYLE
1002
{
1070
   279
1070
     2
1002
}
  0
LINE
  5
17D0F
330
747D
100
AcDbEntity
  8
部品1
100
AcDbLine
 10
9291.673057123656
 20
9297.497424545957
 30
0.0
 11
9319.673057123656
 21
9297.497424545957
 31
0.0
  0
LINE
  5
17D10
330
747D
100
AcDbEntity
  8
部品1
100
AcDbLine
 10
9291.673057123658
 20
8877.497424545957
 30
0.0
 11
9319.673057123658
 21
8877.497424545957
 31
0.0
  0
LINE
  5
17D11
330
747D
100
AcDbEntity
  8
部品1
100
AcDbLine
 10
1457.673057123628
 20
9297.497424545831
 30
0.0
 11
1429.673057123628
 21
9297.497424545831
 31
0.0
  0
LINE
  5
17D12
330
747D
100
AcDbEntity
  8
部品1
100
AcDbLine
 10
1457.673057123634
 20
8877.497424545831
 30
0.0
 11
1429.673057123634
 21
8877.497424545831
 31
0.0
  0
LINE
  5
18097
330
747D
100
AcDbEntity
  8
寸法
 48
50.0
100
AcDbLine
 10
6534.673057123663
 20
9988.305644170967
 30
0.0
 11
5617.901097968024
 21
9988.305644170967
 31
0.0
  0
LINE
  5
18098
330
747D
100
AcDbEntity
  8
寸法
 48
50.0
100
AcDbLine
 10
5131.445016279303
 20
9988.305644170967
 30
0.0
 11
4214.673057123663
 21
9988.305644170967
 31
0.0
  0
TEXT
  5
180AB
330
747D
100
AcDbEntity
  8
文字
 48
50.0
100
AcDbText
 10
5744.946326482197
 20
10018.9904096999
 30
0.0
 40
120.0
  1
2520
  7
STYLE1
100
AcDbText
  0
TEXT
  5
180AD
330
747D
100
AcDbEntity
  8
文字
 48
50.0
100
AcDbText
 10
5600.652295359538
 20
6643.535778383449
 30
0.0
 40
120.0
  1
2424
  7
STYLE1
100
AcDbText
  0
TEXT
  5
180D7
330
747D
100
AcDbEntity
  8
文字
 48
50.0
100
AcDbText
 10
4713.401826075933
 20
10018.9904096999
 30
0.0
 40
120.0
  1
2520
  7
STYLE1
100
AcDbText
  0
LINE
  5
180D8
330
747D
100
AcDbEntity
  8
寸法
 48
50.0
100
AcDbLine
 10
6486.673057123638
 20
6608.0666537797
 30
0.0
 11
5569.901097967999
 21
6608.0666537797
 31
0.0
  0
LINE
  5
180D9
330
747D
100
AcDbEntity
  8
寸法
 48
50.0
100
AcDbLine
 10
5083.445016279277
 20
6608.0666537797
 30
0.0
 11
4166.673057123637
 21
6608.0666537797
 31
0.0
  0
TEXT
  5
180DA
330
747D
100
AcDbEntity
  8
文字
 48
50.0
100
AcDbText
 10
4729.811617545235
 20
6643.535778383449
 30
0.0
 40
120.0
  1
2424
  7
STYLE1
100
AcDbText
  0
LINE
  5
180FF
330
747D
100
AcDbEntity
  8
部品1
100
AcDbLine
 10
1429.673057123656
 20
2161.270620748139
 30
0.0
 11
9319.673057123656
 21
2161.270620748139
 31
0.0
  0
LINE
  5
18100
330
747D
100
AcDbEntity
  8
Ｇ．Ｌ
100
AcDbLine
 10
341.4064544531722
 20
2061.27062074814
 30
0.0
 11
15146.30542539651
 21
2061.270620748139
 31
0.0
  0
LINE
  5
18102
330
747D
100
AcDbEntity
  8
部品1
 48
50.0
100
AcDbLine
 10
6609.673057123633
 20
9692.497424545814
 30
0.0
 11
4139.673057123633
 21
9692.497424545789
 31
0.0
  0
LINE
  5
18103
330
747D
100
AcDbEntity
  8
部品1
100
AcDbLine
 10
6634.673057123643
 20
9717.497424545889
 30
0.0
 11
4114.673057123642
 21
9717.497424545886
 31
0.0
  0
LINE
  5
18106
330
747D
100
AcDbEntity
  8
寸法
 48
50.0
100
AcDbLine
 10
6689.563357233135
 20
10164.76985551187
 30
0.0
 11
6689.563357233135
 21
10303.92098311982
 31
0.0
  0
LINE
  5
18107
330
747D
100
AcDbEntity
  8
寸法
 48
50.0
100
AcDbLine
 10
6689.673057123664
 20
10237.62711772726
 30
0.0
 11
5622.238647055863
 21
10237.62711772726
 31
0.0
  0
LINE
  5
18108
330
747D
100
AcDbEntity
  8
寸法
 48
50.0
100
AcDbLine
 10
4059.673057123664
 20
10237.62711772726
 30
0.0
 11
5137.161027911185
 21
10237.62711772726
 31
0.0
  0
TEXT
  5
18109
330
747D
100
AcDbEntity
  8
文字
 48
50.0
100
AcDbText
 10
5744.946326482197
 20
10281.48433045451
 30
0.0
 40
120.0
  1
2630
  7
STYLE1
100
AcDbText
  0
TEXT
  5
1810A
330
747D
100
AcDbEntity
  8
文字
 48
50.0
100
AcDbText
 10
4713.401826075933
 20
10281.48433045451
 30
0.0
 40
120.0
  1
2630
  7
STYLE1
100
AcDbText
  0
LINE
  5
18157
330
747D
100
AcDbEntity
  8
部品1
100
AcDbLine
 10
4031.673057123651
 20
9297.497424545914
 30
0.0
 11
4059.673057123651
 21
9297.497424545914
 31
0.0
  0
LINE
  5
18158
330
747D
100
AcDbEntity
  8
部品1
100
AcDbLine
 10
4031.673057123651
 20
8877.497424545914
 30
0.0
 11
4059.673057123651
 21
8877.497424545914
 31
0.0
  0
LINE
  5
18159
330
747D
100
AcDbEntity
  8
部品1
100
AcDbLine
 10
4031.673057123651
 20
8457.497424545914
 30
0.0
 11
4059.673057123651
 21
8457.497424545914
 31
0.0
  0
LINE
  5
1815A
330
747D
100
AcDbEntity
  8
部品1
100
AcDbLine
 10
4004.673057123649
 20
7207.497424545812
 30
0.0
 11
4004.673057123642
 21
9717.497424545815
 31
0.0
  0
LINE
  5
1815B
330
747D
100
AcDbEntity
  8
部品1
 48
10.0
100
AcDbLine
 10
3979.673057123659
 20
7207.497424545812
 30
0.0
 11
3979.673057123633
 21
9717.497424545815
 31
0.0
  0
LINE
  5
1815C
330
747D
100
AcDbEntity
  8
部品1
100
AcDbLine
 10
4031.673057123631
 20
9744.497424545912
 30
0.0
 11
4031.673057123614
 21
7142.497424545807
 31
0.0
  0
LINE
  5
1815D
330
747D
100
AcDbEntity
  8
部品1
100
AcDbLine
 10
4114.67305712367
 20
7207.497424545812
 30
0.0
 11
4114.673057123642
 21
9717.497424545809
 31
0.0
  0
LINE
  5
1815E
330
747D
100
AcDbEntity
  8
部品1
 48
10.0
100
AcDbLine
 10
4139.673057123664
 20
7207.497424545812
 30
0.0
 11
4139.673057123617
 21
9717.497424545832
 31
0.0
  0
LINE
  5
1815F
330
747D
100
AcDbEntity
  8
部品1
100
AcDbLine
 10
4087.673057123609
 20
7142.497424545813
 30
0.0
 11
4087.673057123633
 21
9772.497424545861
 31
0.0
  0
LINE
  5
18160
330
747D
100
AcDbEntity
  8
部品1
100
AcDbLine
 10
4059.673057123649
 20
9717.497424545832
 30
0.0
 11
4059.673057123622
 21
7197.497424545807
 31
0.0
  0
LINE
  5
18161
330
747D
100
AcDbEntity
  8
部品1
100
AcDbLine
 10
6689.673057123648
 20
9717.497424545832
 30
0.0
 11
6689.673057123622
 21
7197.497424545807
 31
0.0
  0
LINE
  5
18162
330
747D
100
AcDbEntity
  8
部品1
100
AcDbLine
 10
6717.673057123609
 20
7142.497424545813
 30
0.0
 11
6717.673057123633
 21
9772.497424545861
 31
0.0
  0
LINE
  5
18163
330
747D
100
AcDbEntity
  8
部品1
 48
10.0
100
AcDbLine
 10
6769.673057123664
 20
7207.497424545812
 30
0.0
 11
6769.673057123617
 21
9717.497424545832
 31
0.0
  0
LINE
  5
18164
330
747D
100
AcDbEntity
  8
部品1
100
AcDbLine
 10
6744.673057123669
 20
7207.497424545812
 30
0.0
 11
6744.673057123643
 21
9717.497424545809
 31
0.0
  0
LINE
  5
18165
330
747D
100
AcDbEntity
  8
部品1
100
AcDbLine
 10
6661.673057123632
 20
9744.497424545912
 30
0.0
 11
6661.673057123614
 21
7142.497424545807
 31
0.0
  0
LINE
  5
18166
330
747D
100
AcDbEntity
  8
部品1
 48
10.0
100
AcDbLine
 10
6609.673057123659
 20
7207.497424545812
 30
0.0
 11
6609.673057123633
 21
9717.497424545815
 31
0.0
  0
LINE
  5
18167
330
747D
100
AcDbEntity
  8
部品1
100
AcDbLine
 10
6634.673057123649
 20
7207.497424545812
 30
0.0
 11
6634.673057123642
 21
9717.497424545815
 31
0.0
  0
LINE
  5
18168
330
747D
100
AcDbEntity
  8
部品1
100
AcDbLine
 10
6661.673057123651
 20
8457.497424545914
 30
0.0
 11
6689.673057123652
 21
8457.497424545914
 31
0.0
  0
LINE
  5
18169
330
747D
100
AcDbEntity
  8
部品1
100
AcDbLine
 10
6661.673057123651
 20
8877.497424545914
 30
0.0
 11
6689.673057123652
 21
8877.497424545914
 31
0.0
  0
LINE
  5
1816A
330
747D
100
AcDbEntity
  8
部品1
100
AcDbLine
 10
6661.673057123651
 20
9297.497424545914
 30
0.0
 11
6689.673057123652
 21
9297.497424545914
 31
0.0
  0
LINE
  5
1816B
330
747D
100
AcDbEntity
  8
部品1
 48
50.0
100
AcDbLine
 10
6717.673057123684
 20
9744.497424545723
 30
0.0
 11
6744.673057123673
 21
9717.497424545737
 31
0.0
  0
LINE
  5
1816C
330
747D
100
AcDbEntity
  8
部品1
 48
50.0
100
AcDbLine
 10
6661.673057123699
 20
9744.497424545818
 30
0.0
 11
6634.673057123695
 21
9717.497424545813
 31
0.0
  0
LINE
  5
1816D
330
747D
100
AcDbEntity
  8
部品1
 48
50.0
100
AcDbLine
 10
4087.673057123684
 20
9744.497424545723
 30
0.0
 11
4114.673057123673
 21
9717.497424545737
 31
0.0
  0
LINE
  5
1816E
330
747D
100
AcDbEntity
  8
部品1
 48
50.0
100
AcDbLine
 10
4031.673057123699
 20
9744.497424545818
 30
0.0
 11
4004.673057123695
 21
9717.497424545813
 31
0.0
  0
LINE
  5
1816F
330
747D
100
AcDbEntity
  8
部品1
100
AcDbLine
 10
4004.673057123642
 20
9717.497424545884
 30
0.0
 11
1484.673057123634
 21
9717.497424545888
 31
0.0
  0
LINE
  5
18170
330
747D
100
AcDbEntity
  8
部品1
100
AcDbLine
 10
6717.673057123632
 20
9717.497424545886
 30
0.0
 11
6661.67305712363
 21
9717.497424545884
 31
0.0
  0
LINE
  5
18171
330
747D
100
AcDbEntity
  8
部品1
100
AcDbLine
 10
6661.673057123657
 20
8037.497424545914
 30
0.0
 11
6689.673057123657
 21
8037.497424545914
 31
0.0
  0
LINE
  5
18172
330
747D
100
AcDbEntity
  8
部品1
100
AcDbLine
 10
6661.673057123657
 20
7617.497424545914
 30
0.0
 11
6689.673057123657
 21
7617.497424545914
 31
0.0
  0
LINE
  5
18173
330
747D
100
AcDbEntity
  8
部品1
100
AcDbLine
 10
4031.673057123657
 20
7617.497424545914
 30
0.0
 11
4059.673057123657
 21
7617.497424545914
 31
0.0
  0
LINE
  5
18174
330
747D
100
AcDbEntity
  8
部品1
100
AcDbLine
 10
4031.673057123657
 20
8037.497424545914
 30
0.0
 11
4059.673057123657
 21
8037.497424545914
 31
0.0
  0
TEXT
  5
182A9
330
747D
100
AcDbEntity
  8
文字
 62
     7
 48
50.0
100
AcDbText
 10
15022.63965474516
 20
9910.013745883727
 30
0.0
 40
100.0
  1
F12,Y10        1.0
  7
STYLE1
100
AcDbText
  0
TEXT
  5
182AA
330
747D
100
AcDbEntity
  8
文字
 62
     7
 48
50.0
100
AcDbText
 10
13583.11819016569
 20
9910.01374588373
 30
0.0
 40
100.0
  1
梁中
  7
STYLE1
100
AcDbText
  0
TEXT
  5
182AB
330
747D
100
AcDbEntity
  8
文字
 62
     7
 48
50.0
100
AcDbText
 10
13248.77747366448
 20
8720.013745883731
 30
0.0
 40
100.0
  1
14
  7
STYLE1
100
AcDbText
  0
LINE
  5
182AC
330
747D
100
AcDbEntity
  8
仕様書枠
 48
50.0
100
AcDbLine
 10
16307.19999999999
 20
9879.599999999999
 30
0.0
 11
13127.2
 21
9879.600000000001
 31
0.0
  0
LINE
  5
182AD
330
747D
100
AcDbEntity
  8
仕様書枠
 48
50.0
100
AcDbLine
 10
16307.19999999999
 20
11239.6
 30
0.0
 11
13127.2
 21
11239.6
 31
0.0
  0
LINE
  5
182AE
330
747D
100
AcDbEntity
  8
仕様書枠
 48
50.0
100
AcDbLine
 10
16307.2
 20
8179.6
 30
0.0
 11
16307.2
 21
11239.6
 31
0.0
  0
LINE
  5
182AF
330
747D
100
AcDbEntity
  8
仕様書枠
 48
50.0
100
AcDbLine
 10
14785.2
 20
11239.59999999999
 30
0.0
 11
14785.2
 21
8689.600000000003
 31
0.0
  0
LINE
  5
182B0
330
747D
100
AcDbEntity
  8
仕様書枠
 48
50.0
100
AcDbLine
 10
13490.2
 20
11239.6
 30
0.0
 11
13490.2
 21
8689.6
 31
0.0
  0
LINE
  5
182B1
330
747D
100
AcDbEntity
  8
仕様書枠
 48
50.0
100
AcDbLine
 10
16307.19999999999
 20
11069.6
 30
0.0
 11
13127.2
 21
11069.6
 31
0.0
  0
LINE
  5
182B2
330
747D
100
AcDbEntity
  8
仕様書枠
 48
50.0
100
AcDbLine
 10
16307.19999999999
 20
10729.6
 30
0.0
 11
13127.2
 21
10729.6
 31
0.0
  0
LINE
  5
182B3
330
747D
100
AcDbEntity
  8
仕様書枠
 48
50.0
100
AcDbLine
 10
16307.19999999999
 20
10899.6
 30
0.0
 11
13127.2
 21
10899.6
 31
0.0
  0
LINE
  5
182B4
330
747D
100
AcDbEntity
  8
仕様書枠
 48
50.0
100
AcDbLine
 10
16307.19999999999
 20
10389.6
 30
0.0
 11
13127.19999999999
 21
10389.6
 31
0.0
  0
LINE
  5
182B5
330
747D
100
AcDbEntity
  8
仕様書枠
 48
50.0
100
AcDbLine
 10
16307.19999999999
 20
10219.6
 30
0.0
 11
13127.19999999999
 21
10219.6
 31
0.0
  0
LINE
  5
182B6
330
747D
100
AcDbEntity
  8
仕様書枠
 48
50.0
100
AcDbLine
 10
16307.19999999999
 20
10559.6
 30
0.0
 11
13127.19999999999
 21
10559.6
 31
0.0
  0
TEXT
  5
182B7
330
747D
100
AcDbEntity
  8
文字
 62
     7
 48
50.0
100
AcDbText
 10
13197.42518560407
 20
11100.01374588373
 30
0.0
 40
100.0
  1
品番
  7
STYLE1
100
AcDbText
  0
TEXT
  5
182B8
330
747D
100
AcDbEntity
  8
文字
 62
     7
 48
50.0
100
AcDbText
 10
13271.19032244792
 20
10930.01374588373
 30
0.0
 40
100.0
  1
1
  7
STYLE1
100
AcDbText
  0
TEXT
  5
182B9
330
747D
100
AcDbEntity
  8
文字
 62
     7
 48
50.0
100
AcDbText
 10
13271.19032244792
 20
10760.01374588373
 30
0.0
 40
100.0
  1
2
  7
STYLE1
100
AcDbText
  0
TEXT
  5
182BA
330
747D
100
AcDbEntity
  8
文字
 62
     7
 48
50.0
100
AcDbText
 10
13271.19032244792
 20
10420.01374588373
 30
0.0
 40
100.0
  1
4
  7
STYLE1
100
AcDbText
  0
TEXT
  5
182BB
330
747D
100
AcDbEntity
  8
文字
 62
     7
 48
50.0
100
AcDbText
 10
13271.19032244792
 20
10590.01374588373
 30
0.0
 40
100.0
  1
3
  7
STYLE1
100
AcDbText
  0
TEXT
  5
182BC
330
747D
100
AcDbEntity
  8
文字
 62
     7
 48
50.0
100
AcDbText
 10
13732.03840939434
 20
11100.01374588373
 30
0.0
 40
100.0
  1
部　　品　　名
  7
STYLE1
100
AcDbText
  0
TEXT
  5
182BD
330
747D
100
AcDbEntity
  8
文字
 62
     7
 48
50.0
100
AcDbText
 10
14859.79774614482
 20
11100.01374588373
 30
0.0
 40
100.0
  1
材料（材質）　　単位mm
  7
STYLE1
100
AcDbText
  0
TEXT
  5
182BE
330
747D
100
AcDbEntity
  8
文字
 62
     7
 48
50.0
100
AcDbText
 10
13583.11819016569
 20
10930.01374588372
 30
0.0
 40
100.0
  1
土台枠
  7
STYLE1
100
AcDbText
  0
TEXT
  5
182BF
330
747D
100
AcDbEntity
  8
文字
 62
     7
 48
50.0
100
AcDbText
 10
13583.11819016569
 20
10760.01374588372
 30
0.0
 40
100.0
  1
柱
  7
STYLE1
100
AcDbText
  0
TEXT
  5
182C0
330
747D
100
AcDbEntity
  8
文字
 62
     7
 48
50.0
100
AcDbText
 10
13583.11819016569
 20
10590.01374588373
 30
0.0
 40
100.0
  1
桁前
  7
STYLE1
100
AcDbText
  0
TEXT
  5
182C1
330
747D
100
AcDbEntity
  8
文字
 62
     7
 48
50.0
100
AcDbText
 10
13583.11819016569
 20
10420.01374588373
 30
0.0
 40
100.0
  1
桁後
  7
STYLE1
100
AcDbText
  0
TEXT
  5
182C2
330
747D
100
AcDbEntity
  8
文字
 62
     7
 48
50.0
100
AcDbText
 10
13271.19032244792
 20
10250.01374588373
 30
0.0
 40
100.0
  1
5
  7
STYLE1
100
AcDbText
  0
TEXT
  5
182C3
330
747D
100
AcDbEntity
  8
文字
 62
     7
 48
50.0
100
AcDbText
 10
13583.11819016569
 20
10250.01374588373
 30
0.0
 40
100.0
  1
妻板左右
  7
STYLE1
100
AcDbText
  0
TEXT
  5
182C4
330
747D
100
AcDbEntity
  8
文字
 62
     7
 48
50.0
100
AcDbText
 10
13583.11819016569
 20
8890.013745883727
 30
0.0
 40
100.0
  1
シャッターレール
  7
STYLE1
100
AcDbText
  0
TEXT
  5
182C5
330
747D
100
AcDbEntity
  8
文字
 62
     7
 48
50.0
100
AcDbText
 10
13248.77747366448
 20
9400.013745883727
 30
0.0
 40
100.0
  1
10
  7
STYLE1
100
AcDbText
  0
TEXT
  5
182C6
330
747D
100
AcDbEntity
  8
文字
 62
     7
 48
50.0
100
AcDbText
 10
13583.11819016569
 20
9400.013745883729
 30
0.0
 40
100.0
  1
壁パネル
  7
STYLE1
100
AcDbText
  0
TEXT
  5
182C7
330
747D
100
AcDbEntity
  8
文字
 62
     7
 48
50.0
100
AcDbText
 10
13583.11819016569
 20
9570.013745883727
 30
0.0
 40
100.0
  1
屋根パネル
  7
STYLE1
100
AcDbText
  0
TEXT
  5
182C8
330
747D
100
AcDbEntity
  8
文字
 62
     7
 48
50.0
100
AcDbText
 10
13583.11819016569
 20
9740.013745883729
 30
0.0
 40
100.0
  1
母屋中
  7
STYLE1
100
AcDbText
  0
TEXT
  5
182C9
330
747D
100
AcDbEntity
  8
文字
 62
     7
 48
50.0
100
AcDbText
 10
13583.11819016569
 20
10080.01374588372
 30
0.0
 40
100.0
  1
鼻隠シ前後
  7
STYLE1
100
AcDbText
  0
TEXT
  5
182CA
330
747D
100
AcDbEntity
  8
文字
 62
     7
 48
50.0
100
AcDbText
 10
13271.19032244792
 20
9740.013745883729
 30
0.0
 40
100.0
  1
8
  7
STYLE1
100
AcDbText
  0
TEXT
  5
182CB
330
747D
100
AcDbEntity
  8
文字
 62
     7
 48
50.0
100
AcDbText
 10
13271.19032244792
 20
9570.013745883729
 30
0.0
 40
100.0
  1
9
  7
STYLE1
100
AcDbText
  0
TEXT
  5
182CC
330
747D
100
AcDbEntity
  8
文字
 62
     7
 48
50.0
100
AcDbText
 10
13271.19032244792
 20
9910.01374588373
 30
0.0
 40
100.0
  1
7
  7
STYLE1
100
AcDbText
  0
TEXT
  5
182CD
330
747D
100
AcDbEntity
  8
文字
 62
     7
 48
50.0
100
AcDbText
 10
13271.19032244792
 20
10080.01374588373
 30
0.0
 40
100.0
  1
6
  7
STYLE1
100
AcDbText
  0
LINE
  5
182CE
330
747D
100
AcDbEntity
  8
仕様書枠
 48
50.0
100
AcDbLine
 10
16307.19999999999
 20
9539.599999999998
 30
0.0
 11
13127.19999999999
 21
9539.6
 31
0.0
  0
LINE
  5
182CF
330
747D
100
AcDbEntity
  8
仕様書枠
 48
50.0
100
AcDbLine
 10
16307.19999999999
 20
9199.599999999998
 30
0.0
 11
13127.19999999999
 21
9199.600000000001
 31
0.0
  0
LINE
  5
182D0
330
747D
100
AcDbEntity
  8
仕様書枠
 48
50.0
100
AcDbLine
 10
16307.19999999999
 20
9369.599999999998
 30
0.0
 11
13127.19999999999
 21
9369.600000000001
 31
0.0
  0
LINE
  5
182D1
330
747D
100
AcDbEntity
  8
仕様書枠
 48
50.0
100
AcDbLine
 10
16307.19999999999
 20
10049.6
 30
0.0
 11
13127.2
 21
10049.6
 31
0.0
  0
LINE
  5
182D2
330
747D
100
AcDbEntity
  8
仕様書枠
 48
50.0
100
AcDbLine
 10
16307.19999999999
 20
9709.6
 30
0.0
 11
13127.2
 21
9709.600000000001
 31
0.0
  0
TEXT
  5
182D3
330
747D
100
AcDbEntity
  8
文字
 62
     7
 48
50.0
100
AcDbText
 10
13248.77747366448
 20
9230.013745883727
 30
0.0
 40
100.0
  1
11
  7
STYLE1
100
AcDbText
  0
TEXT
  5
182D4
330
747D
100
AcDbEntity
  8
文字
 62
     7
 48
50.0
100
AcDbText
 10
13583.11819016569
 20
9060.013745883727
 30
0.0
 40
100.0
  1
シャッターカバー
 41
0.9
  7
STYLE1
100
AcDbText
  0
LINE
  5
182D5
330
747D
100
AcDbEntity
  8
仕様書枠
 48
50.0
100
AcDbLine
 10
16307.19999999999
 20
9029.6
 30
0.0
 11
13127.19999999999
 21
9029.6
 31
0.0
  0
TEXT
  5
182D7
330
747D
100
AcDbEntity
  8
文字
 62
     7
 48
50.0
100
AcDbText
 10
13583.11819016569
 20
8720.013745883729
 30
0.0
 40
100.0
  1
棚板（別売）
  7
STYLE1
100
AcDbText
  0
LINE
  5
182D8
330
747D
100
AcDbEntity
  8
仕様書枠
 48
50.0
100
AcDbLine
 10
16307.19999999999
 20
8859.6
 30
0.0
 11
13127.19999999999
 21
8859.600000000002
 31
0.0
  0
TEXT
  5
182D9
330
747D
100
AcDbEntity
  8
文字
 62
     7
 48
50.0
100
AcDbText
 10
13583.11819016569
 20
9230.013745883731
 30
0.0
 40
100.0
  1
シャッター
  7
STYLE1
100
AcDbText
  0
TEXT
  5
182DA
330
747D
100
AcDbEntity
  8
文字
 62
     7
 48
50.0
100
AcDbText
 10
13248.77747366448
 20
8890.013745883729
 30
0.0
 40
100.0
  1
13
  7
STYLE1
100
AcDbText
  0
TEXT
  5
182DB
330
747D
100
AcDbEntity
  8
文字
 62
     7
 48
50.0
100
AcDbText
 10
13248.77747366448
 20
9060.013745883729
 30
0.0
 40
100.0
  1
12
  7
STYLE1
100
AcDbText
  0
TEXT
  5
182DC
330
747D
100
AcDbEntity
  8
文字
 62
     7
 48
50.0
100
AcDbText
 10
15022.63965474517
 20
10930.01374588372
 30
0.0
 40
100.0
  1
F12            1.2
  7
STYLE1
100
AcDbText
  0
TEXT
  5
182DE
330
747D
100
AcDbEntity
  8
文字
 62
     7
 48
50.0
100
AcDbText
 10
15022.63965474516
 20
10590.01374588372
 30
0.0
 40
100.0
  1
Y10            1.0
  7
STYLE1
100
AcDbText
  0
TEXT
  5
182DF
330
747D
100
AcDbEntity
  8
文字
 62
     7
 48
50.0
100
AcDbText
 10
15022.63965474516
 20
10420.01374588372
 30
0.0
 40
100.0
  1
Y10            1.0
  7
STYLE1
100
AcDbText
  0
TEXT
  5
182E0
330
747D
100
AcDbEntity
  8
文字
 62
     7
 48
50.0
100
AcDbText
 10
15022.63965474516
 20
10250.01374588372
 30
0.0
 40
100.0
  1
Y10            0.7
  7
STYLE1
100
AcDbText
  0
TEXT
  5
182E1
330
747D
100
AcDbEntity
  8
文字
 62
     7
 48
50.0
100
AcDbText
 10
15022.63965474516
 20
10080.01374588372
 30
0.0
 40
100.0
  1
Y10            0.7
  7
STYLE1
100
AcDbText
  0
TEXT
  5
182E3
330
747D
100
AcDbEntity
  8
文字
 62
     7
 48
50.0
100
AcDbText
 10
15022.63965474516
 20
9570.013745883725
 30
0.0
 40
100.0
  1
Y10            0.5
  7
STYLE1
100
AcDbText
  0
TEXT
  5
182E4
330
747D
100
AcDbEntity
  8
文字
 62
     7
 48
50.0
100
AcDbText
 10
15022.63965474516
 20
9400.013745883725
 30
0.0
 40
100.0
  1
F12            0.6
  7
STYLE1
100
AcDbText
  0
TEXT
  5
182E5
330
747D
100
AcDbEntity
  8
文字
 62
     7
 48
50.0
100
AcDbText
 10
14850.83183167176
 20
8890.013745883726
 30
0.0
 40
100.0
  1
アルミニウム合金押出形材
  7
STYLE1
100
AcDbText
  0
TEXT
  5
182E7
330
747D
100
AcDbEntity
  8
文字
 62
     7
 48
50.0
100
AcDbText
 10
15022.63965474516
 20
9230.013745883727
 30
0.0
 40
100.0
  1
Z08            0.5
  7
STYLE1
100
AcDbText
  0
TEXT
  5
182E8
330
747D
100
AcDbEntity
  8
文字
 62
     7
 48
50.0
100
AcDbText
 10
15022.63965474515
 20
8720.013745883727
 30
0.0
 40
100.0
  1
F12            0.6
  7
STYLE1
100
AcDbText
  0
LINE
  5
182E9
330
747D
100
AcDbEntity
  8
仕様書枠
 48
50.0
100
AcDbLine
 10
16307.19999999999
 20
8519.599999999996
 30
0.0
 11
13127.19999999999
 21
8519.599999999998
 31
0.0
  0
LINE
  5
182EA
330
747D
100
AcDbEntity
  8
仕様書枠
 48
50.0
100
AcDbLine
 10
16307.19999999999
 20
8349.599999999997
 30
0.0
 11
13127.19999999999
 21
8349.599999999998
 31
0.0
  0
LINE
  5
182EB
330
747D
100
AcDbEntity
  8
仕様書枠
 48
50.0
100
AcDbLine
 10
16307.19999999999
 20
8179.599999999997
 30
0.0
 11
13127.19999999999
 21
8179.599999999998
 31
0.0
  0
TEXT
  5
182EC
330
747D
100
AcDbEntity
  8
文字
 62
     7
 48
50.0
100
AcDbText
 10
13229.83081656555
 20
8550.013745883726
 30
0.0
 40
100.0
  1
F12→溶融亜鉛めっき鋼板(JIS G 3302)
  7
STYLE1
100
AcDbText
  0
TEXT
  5
182ED
330
747D
100
AcDbEntity
  8
文字
 62
     7
 48
50.0
100
AcDbText
 10
13229.83081656554
 20
8380.013745883726
 30
0.0
 40
100.0
  1
Y10→溶融亜鉛-5％アルミニウム合金めっき鋼板(JIS G 3317)
 41
0.9
  7
STYLE1
100
AcDbText
  0
TEXT
  5
182EE
330
747D
100
AcDbEntity
  8
文字
 62
     7
 48
50.0
100
AcDbText
 10
13229.83081656555
 20
8210.013745883726
 30
0.0
 40
100.0
  1
Z08→塗装溶融亜鉛めっき鋼板(JIS G 3313)
  7
STYLE1
100
AcDbText
  0
LINE
  5
182EF
330
747D
100
AcDbEntity
  8
仕様書枠
 48
50.0
100
AcDbLine
 10
13127.2
 20
11239.6
 30
0.0
 11
13127.2
 21
8179.600000000002
 31
0.0
  0
TEXT
  5
182F5
330
747D
100
AcDbEntity
  8
文字
 62
     7
 48
50.0
100
AcDbText
 10
14830.49062778118
 20
9743.579206374931
 30
0.0
 40
100.0
  1
F12    1.2(多雪地型  2.3)
  7
STYLE1
100
AcDbText
  0
TEXT
  5
182FB
330
747D
100
AcDbEntity
  8
文字
 62
     7
 48
50.0
100
AcDbText
 10
13203.82415985932
 20
58.66862742757439
 30
0.0
 40
100.0
  1
○床面積 ： Ｎ［連続数］×6.92㎡(2.10坪)
  7
STYLE2
100
AcDbText
  0
LINE
  5
18411
330
747D
100
AcDbEntity
  8
補助
  6
PHANTOM
 62
   230
 48
50.0
100
AcDbLine
 10
140.0
 20
0.0
 30
0.0
 11
139.9999999999995
 21
11409.6
 31
0.0
  0
TEXT
  5
188D9
330
747D
100
AcDbEntity
  8
部品1
100
AcDbText
 10
12974.1776296274
 20
1318.377091529615
 30
0.0
 40
135.0
  1
側面図
  7
MSGOTHIC
100
AcDbText
  0
LWPOLYLINE
  5
188DA
330
747D
100
AcDbEntity
  8
部品1
100
AcDbPolyline
 90
        4
 70
     1
 43
0.0
 10
12890.11449739906
 20
1511.270620748139
 10
12890.11449739906
 20
1271.378299202607
 10
13653.5851636275
 20
1271.378299202607
 10
13653.5851636275
 20
1511.270620748139
  0
TEXT
  5
188DB
330
747D
100
AcDbEntity
  8
文字
 62
     7
 48
50.0
100
AcDbText
 10
14237.10790177236
 20
483.8967129911416
 30
0.0
 40
160.0
  1
FXN-2626SL-N
  7
MSPゴシック
100
AcDbText
  0
LINE
  5
188DC
330
747D
100
AcDbEntity
  8
部品1
100
AcDbLine
 10
11946.84983051328
 20
2161.270620748139
 30
0.0
 11
11553.85261630443
 21
2061.270620748139
 31
0.0
  0
LINE
  5
188DD
330
747D
100
AcDbEntity
  8
破線
 48
5.0
100
AcDbLine
 10
11946.84983051328
 20
1811.270620748139
 30
0.0
 11
12001.84983051328
 21
1811.270620748139
 31
0.0
  0
LINE
  5
188DE
330
747D
100
AcDbEntity
  8
破線
 48
5.0
100
AcDbLine
 10
12001.84983051328
 20
2061.270620748139
 30
0.0
 11
12001.84983051328
 21
1811.270620748139
 31
0.0
  0
LINE
  5
188DF
330
747D
100
AcDbEntity
  8
破線
 48
5.0
100
AcDbLine
 10
11946.84983051328
 20
2061.270620748139
 30
0.0
 11
11946.84983051328
 21
1811.270620748139
 31
0.0
  0
DIMENSION
  5
188E5
330
747D
100
AcDbEntity
  8
寸法
 48
50.0
100
AcDbDimension
  2
*D29
 10
11326.24142374489
 20
4110.615879621471
 30
0.0
 11
11336.90689900382
 21
4481.46254286317
 31
0.0
 70
   161
 71
     5
 42
141.0
  3
INABA_S40G
100
AcDbAlignedDimension
 13
11906.24585067186
 23
4234.99336958282
 33
0.0
 14
11902.19239511523
 24
4094.051645817107
 34
0.0
1001
ACAD
1000
DSTYLE
1002
{
1070
   174
1070
     0
1070
   272
1070
     1
1070
   288
1070
     0
1070
   341
1005
0
1002
}
  0
LINE
  5
188E6
330
747D
100
AcDbEntity
  8
細線
 48
50.0
100
AcDbLine
 10
14444.34983051329
 20
4001.270620748139
 30
0.0
 11
14444.34983051329
 21
2211.270620748143
 31
0.0
  0
LINE
  5
188E7
330
747D
100
AcDbEntity
  8
細線
 48
50.0
100
AcDbLine
 10
14459.34983051329
 20
4001.270620748139
 30
0.0
 11
14459.34983051329
 21
2211.270620748143
 31
0.0
  0
LINE
  5
188E8
330
747D
100
AcDbEntity
  8
細線
 48
50.0
100
AcDbLine
 10
14319.34983051329
 20
4001.270620748139
 30
0.0
 11
14319.34983051329
 21
2211.270620748143
 31
0.0
  0
LINE
  5
188E9
330
747D
100
AcDbEntity
  8
細線
 48
50.0
100
AcDbLine
 10
14304.34983051329
 20
4001.270620748139
 30
0.0
 11
14304.34983051329
 21
2211.270620748143
 31
0.0
  0
LINE
  5
188EA
330
747D
100
AcDbEntity
  8
細線
 48
50.0
100
AcDbLine
 10
14164.34983051328
 20
4001.270620748139
 30
0.0
 11
14164.34983051328
 21
2211.270620748143
 31
0.0
  0
LINE
  5
188EB
330
747D
100
AcDbEntity
  8
細線
 48
50.0
100
AcDbLine
 10
14179.34983051329
 20
4001.270620748139
 30
0.0
 11
14179.34983051329
 21
2211.270620748143
 31
0.0
  0
LINE
  5
188EC
330
747D
100
AcDbEntity
  8
部品1
100
AcDbLine
 10
13261.84983051328
 20
4001.270620748139
 30
0.0
 11
13261.84983051328
 21
2211.270620748139
 31
0.0
  0
LINE
  5
188ED
330
747D
100
AcDbEntity
  8
細線
 48
50.0
100
AcDbLine
 10
12919.34983051328
 20
4001.270620748139
 30
0.0
 11
12919.34983051328
 21
2211.270620748139
 31
0.0
  0
LINE
  5
188EE
330
747D
100
AcDbEntity
  8
細線
 48
50.0
100
AcDbLine
 10
12904.34983051328
 20
4001.270620748139
 30
0.0
 11
12904.34983051328
 21
2211.270620748139
 31
0.0
  0
LINE
  5
188EF
330
747D
100
AcDbEntity
  8
細線
 48
50.0
100
AcDbLine
 10
13044.34983051328
 20
4001.270620748139
 30
0.0
 11
13044.34983051328
 21
2211.270620748139
 31
0.0
  0
LINE
  5
188F0
330
747D
100
AcDbEntity
  8
細線
 48
50.0
100
AcDbLine
 10
13059.34983051328
 20
4001.270620748139
 30
0.0
 11
13059.34983051328
 21
2211.270620748139
 31
0.0
  0
LINE
  5
188F1
330
747D
100
AcDbEntity
  8
細線
 48
50.0
100
AcDbLine
 10
13199.34983051328
 20
4001.270620748139
 30
0.0
 11
13199.34983051328
 21
2211.270620748139
 31
0.0
  0
LINE
  5
188F2
330
747D
100
AcDbEntity
  8
細線
 48
50.0
100
AcDbLine
 10
13184.34983051328
 20
4001.270620748139
 30
0.0
 11
13184.34983051328
 21
2211.270620748139
 31
0.0
  0
LINE
  5
188F3
330
747D
100
AcDbEntity
  8
部品1
100
AcDbLine
 10
12841.84983051328
 20
4001.270620748139
 30
0.0
 11
12841.84983051328
 21
2211.270620748139
 31
0.0
  0
DIMENSION
  5
188F4
330
747D
100
AcDbEntity
  8
寸法
 48
50.0
100
AcDbDimension
  2
*D30
 10
14656.84983051328
 20
4634.928074327446
 30
0.0
 11
14862.89707460777
 21
4634.928074327446
 31
0.0
 70
   160
 71
     5
 42
80.0
  3
INABA_S40G
100
AcDbAlignedDimension
 13
14576.84983051328
 23
4183.081300359794
 33
0.0
 14
14656.84983051328
 24
4181.270620748143
 34
0.0
100
AcDbRotatedDimension
1001
ACAD
1000
DSTYLE
1002
{
1070
   174
1070
     0
1070
   272
1070
     1
1070
   288
1070
     0
1070
   341
1005
0
1002
}
  0
LINE
  5
188F5
330
747D
100
AcDbEntity
  8
細線
 48
50.0
100
AcDbLine
 10
12079.34983051328
 20
4001.270620748139
 30
0.0
 11
12079.34983051328
 21
2211.270620748139
 31
0.0
  0
LINE
  5
188F6
330
747D
100
AcDbEntity
  8
細線
 48
50.0
100
AcDbLine
 10
12064.34983051328
 20
4001.270620748139
 30
0.0
 11
12064.34983051328
 21
2211.270620748139
 31
0.0
  0
LINE
  5
188F7
330
747D
100
AcDbEntity
  8
細線
 48
50.0
100
AcDbLine
 10
12204.34983051328
 20
4001.270620748139
 30
0.0
 11
12204.34983051328
 21
2211.270620748139
 31
0.0
  0
LINE
  5
188F8
330
747D
100
AcDbEntity
  8
細線
 48
50.0
100
AcDbLine
 10
12219.34983051328
 20
4001.270620748139
 30
0.0
 11
12219.34983051328
 21
2211.270620748139
 31
0.0
  0
LINE
  5
188F9
330
747D
100
AcDbEntity
  8
細線
 48
50.0
100
AcDbLine
 10
12359.34983051328
 20
4001.270620748139
 30
0.0
 11
12359.34983051328
 21
2211.270620748139
 31
0.0
  0
LINE
  5
188FA
330
747D
100
AcDbEntity
  8
細線
 48
50.0
100
AcDbLine
 10
12344.34983051328
 20
4001.270620748139
 30
0.0
 11
12344.34983051328
 21
2211.270620748139
 31
0.0
  0
LINE
  5
188FB
330
747D
100
AcDbEntity
  8
細線
 48
50.0
100
AcDbLine
 10
12764.34983051328
 20
4001.270620748139
 30
0.0
 11
12764.34983051328
 21
2211.270620748139
 31
0.0
  0
LINE
  5
188FC
330
747D
100
AcDbEntity
  8
細線
 48
50.0
100
AcDbLine
 10
12779.34983051328
 20
4001.270620748139
 30
0.0
 11
12779.34983051328
 21
2211.270620748139
 31
0.0
  0
LINE
  5
188FD
330
747D
100
AcDbEntity
  8
細線
 48
50.0
100
AcDbLine
 10
12639.34983051328
 20
4001.270620748139
 30
0.0
 11
12639.34983051328
 21
2211.270620748139
 31
0.0
  0
LINE
  5
188FE
330
747D
100
AcDbEntity
  8
細線
 48
50.0
100
AcDbLine
 10
12624.34983051328
 20
4001.270620748139
 30
0.0
 11
12624.34983051328
 21
2211.270620748139
 31
0.0
  0
LINE
  5
188FF
330
747D
100
AcDbEntity
  8
細線
 48
50.0
100
AcDbLine
 10
12484.34983051328
 20
4001.270620748139
 30
0.0
 11
12484.34983051328
 21
2211.270620748139
 31
0.0
  0
LINE
  5
18900
330
747D
100
AcDbEntity
  8
細線
 48
50.0
100
AcDbLine
 10
12499.34983051328
 20
4001.270620748139
 30
0.0
 11
12499.34983051328
 21
2211.270620748139
 31
0.0
  0
LINE
  5
18901
330
747D
100
AcDbEntity
  8
部品1
100
AcDbLine
 10
12001.84983051328
 20
2161.270620748139
 30
0.0
 11
14576.84983051328
 21
2161.270620748139
 31
0.0
  0
DIMENSION
  5
18902
330
747D
100
AcDbEntity
  8
寸法
 48
50.0
100
AcDbDimension
  2
*D31
 10
11886.84983051328
 20
4855.138761059063
 30
0.0
 11
13271.84983051328
 21
4855.138761059063
 31
0.0
 70
   160
 71
     5
 42
2770.0
  3
INABA_S40G
100
AcDbAlignedDimension
 13
14656.84983051328
 23
4181.270620748143
 33
0.0
 14
11886.84983051328
 24
4236.270620748146
 34
0.0
100
AcDbRotatedDimension
1001
ACAD
1000
DSTYLE
1002
{
1070
   174
1070
     0
1070
   272
1070
     1
1070
   288
1070
     0
1070
   341
1005
0
1002
}
  0
DIMENSION
  5
18903
330
747D
100
AcDbEntity
  8
寸法
 48
50.0
100
AcDbDimension
  2
*D32
 10
11886.84983051328
 20
4634.928074327445
 30
0.0
 11
11577.21203523769
 21
4634.928074327445
 31
0.0
 70
   160
 71
     5
 42
60.0
  3
INABA_S40G
100
AcDbAlignedDimension
 13
11946.84983051328
 23
4232.272238871117
 33
0.0
 14
11886.84983051328
 24
4236.270620748146
 34
0.0
100
AcDbRotatedDimension
1001
ACAD
1000
DSTYLE
1002
{
1070
   174
1070
     0
1070
   272
1070
     1
1070
   288
1070
     0
1070
   341
1005
0
1002
}
  0
DIMENSION
  5
18904
330
747D
100
AcDbEntity
  8
寸法
 48
50.0
100
AcDbDimension
  2
*D33
 10
11946.84983051328
 20
4634.928074327446
 30
0.0
 11
13261.84983051328
 21
4634.928074327446
 31
0.0
 70
   160
  1
柱外寸法<>
 71
     5
 42
2630.0
  3
INABA_S40G
100
AcDbAlignedDimension
 13
14576.84983051328
 23
4183.081300359794
 33
0.0
 14
11946.84983051328
 24
4232.272238871117
 34
0.0
100
AcDbRotatedDimension
1001
ACAD
1000
DSTYLE
1002
{
1070
   174
1070
     0
1070
   272
1070
     1
1070
   288
1070
     0
1070
   341
1005
0
1002
}
  0
LINE
  5
18905
330
747D
100
AcDbEntity
  8
部品1
100
AcDbLine
 10
14521.84983051328
 20
4001.270620748139
 30
0.0
 11
14521.84983051328
 21
2211.270620748143
 31
0.0
  0
LINE
  5
18906
330
747D
100
AcDbEntity
  8
部品1
100
AcDbLine
 10
14576.84983051328
 20
4055.80489413588
 30
0.0
 11
14576.84983051328
 21
2061.270620748143
 31
0.0
  0
LINE
  5
18907
330
747D
100
AcDbEntity
  8
部品1
100
AcDbLine
 10
12421.84983051328
 20
4001.270620748139
 30
0.0
 11
12421.84983051328
 21
2211.270620748139
 31
0.0
  0
DIMENSION
  5
18908
330
747D
100
AcDbEntity
  8
寸法
100
AcDbDimension
  2
*D34
 10
11103.09970133002
 20
2161.27062074814
 30
0.0
 11
11103.09970133002
 21
1855.22337665365
 31
0.0
 70
   160
 71
     5
 42
50.0
  3
INABA_S40G
100
AcDbAlignedDimension
 13
11946.84983051328
 23
2211.27062074814
 33
0.0
 14
11891.84983051328
 24
2161.27062074814
 34
0.0
 50
90.0
100
AcDbRotatedDimension
1001
ACAD
1000
DSTYLE
1002
{
1070
   174
1070
     0
1070
   272
1070
     1
1070
   288
1070
     0
1070
   341
1005
0
1002
}
  0
LINE
  5
18909
330
747D
100
AcDbEntity
  8
部品1
100
AcDbLine
 10
11946.84983051328
 20
4093.413058677019
 30
0.0
 11
11946.84983051328
 21
2061.270620748139
 31
0.0
  0
LINE
  5
1890A
330
747D
100
AcDbEntity
  8
部品1
100
AcDbLine
 10
12001.84983051328
 20
4001.270620748139
 30
0.0
 11
12001.84983051328
 21
2061.270620748143
 31
0.0
  0
LINE
  5
1890B
330
747D
100
AcDbEntity
  8
部品1
100
AcDbLine
 10
12001.84983051327
 20
2211.270620748139
 30
0.0
 11
14576.84983051328
 21
2211.270620748143
 31
0.0
  0
LINE
  5
1890C
330
747D
100
AcDbEntity
  8
部品1
100
AcDbLine
 10
11946.84983051328
 20
4001.270620748139
 30
0.0
 11
14576.84983051328
 21
4001.270620748139
 31
0.0
  0
LINE
  5
1890D
330
747D
100
AcDbEntity
  8
部品1
100
AcDbLine
 10
14101.84983051328
 20
4001.270620748139
 30
0.0
 11
14101.84983051328
 21
2211.270620748143
 31
0.0
  0
LINE
  5
1890E
330
747D
100
AcDbEntity
  8
細線
 48
50.0
100
AcDbLine
 10
13604.34983051328
 20
4001.270620748139
 30
0.0
 11
13604.34983051328
 21
2211.270620748139
 31
0.0
  0
LINE
  5
1890F
330
747D
100
AcDbEntity
  8
細線
 48
50.0
100
AcDbLine
 10
13619.34983051328
 20
4001.270620748139
 30
0.0
 11
13619.34983051328
 21
2211.270620748139
 31
0.0
  0
LINE
  5
18910
330
747D
100
AcDbEntity
  8
細線
 48
50.0
100
AcDbLine
 10
13479.34983051328
 20
4001.270620748139
 30
0.0
 11
13479.34983051328
 21
2211.270620748139
 31
0.0
  0
LINE
  5
18911
330
747D
100
AcDbEntity
  8
細線
 48
50.0
100
AcDbLine
 10
13464.34983051328
 20
4001.270620748139
 30
0.0
 11
13464.34983051328
 21
2211.270620748139
 31
0.0
  0
LINE
  5
18912
330
747D
100
AcDbEntity
  8
細線
 48
50.0
100
AcDbLine
 10
13324.34983051328
 20
4001.270620748139
 30
0.0
 11
13324.34983051328
 21
2211.270620748139
 31
0.0
  0
LINE
  5
18913
330
747D
100
AcDbEntity
  8
細線
 48
50.0
100
AcDbLine
 10
13339.34983051328
 20
4001.270620748139
 30
0.0
 11
13339.34983051328
 21
2211.270620748139
 31
0.0
  0
TEXT
  5
18914
330
747D
100
AcDbEntity
  8
部品1
 48
50.0
100
AcDbText
 10
13613.43083247437
 20
4258.539713686448
 30
0.0
 40
120.0
  1
37
 50
90.0
  7
STYLE1
100
AcDbText
  0
TEXT
  5
18915
330
747D
100
AcDbEntity
  8
部品1
 48
50.0
100
AcDbText
 10
13135.79780980928
 20
4396.040971904731
 30
0.0
 40
120.0
  1
1000
  7
STYLE1
100
AcDbText
  0
LINE
  5
18916
330
747D
100
AcDbEntity
  8
部品1
 48
50.0
100
AcDbLine
 10
13447.52997458555
 20
4360.156949752298
 30
0.0
 11
13447.52997458555
 21
4343.956949752297
 31
0.0
  0
LINE
  5
18917
330
747D
100
AcDbEntity
  8
部品1
 48
50.0
100
AcDbLine
 10
13147.52997458556
 20
4360.156949752298
 30
0.0
 11
13447.52997458555
 21
4360.156949752298
 31
0.0
  0
LINE
  5
18918
330
747D
100
AcDbEntity
  8
部品1
100
AcDbLine
 10
11894.39481687024
 20
4234.988356082405
 30
0.0
 11
14649.46170737475
 21
4179.911418457279
 31
0.0
  0
LINE
  5
18919
330
747D
100
AcDbEntity
  8
部品1
100
AcDbLine
 10
11902.19239511523
 20
4094.051645817108
 30
0.0
 11
14631.51353105313
 21
4055.023220582902
 31
0.0
  0
LINE
  5
1891A
330
747D
100
AcDbEntity
  8
細線
 48
50.0
100
AcDbLine
 10
11919.84983051328
 20
4233.670297123546
 30
0.0
 11
11914.56072895777
 21
4093.58466449619
 31
0.0
  0
LINE
  5
1891B
330
747D
100
AcDbEntity
  8
細線
 48
50.0
100
AcDbLine
 10
14623.81911370697
 20
4180.424043227609
 30
0.0
 11
14619.10214762528
 21
4055.491827292692
 31
0.0
  0
LINE
  5
1891C
330
747D
100
AcDbEntity
  8
部品1
 48
50.0
100
AcDbLine
 10
11887.03411642638
 20
4227.864166912834
 30
0.0
 11
11887.4143762042
 21
4207.937202466422
 31
0.0
  0
LINE
  5
1891D
330
747D
100
AcDbEntity
  8
部品1
 48
50.0
100
AcDbLine
 10
11890.48314831044
 20
4204.361920972948
 30
0.0
 11
11892.18704980181
 21
4115.071424266301
 31
0.0
  0
LINE
  5
1891E
330
747D
100
AcDbEntity
  8
細線
 48
50.0
100
AcDbLine
 10
11887.88925361409
 20
4207.287702589503
 30
0.0
 11
14653.52523835926
 21
4151.663497948674
 31
0.0
  0
LINE
  5
1891F
330
747D
100
AcDbEntity
  8
細線
 48
50.0
100
AcDbLine
 10
11892.64972885138
 20
4114.426190891637
 30
0.0
 11
14642.65339328202
 21
4074.616871917144
 31
0.0
  0
LINE
  5
18920
330
747D
100
AcDbEntity
  8
部品1
 48
50.0
100
AcDbLine
 10
11895.25582190805
 20
4111.49614277283
 30
0.0
 11
11895.45777452848
 21
4100.913107379736
 31
0.0
  0
ARC
  5
18921
330
747D
100
AcDbEntity
  8
部品1
 48
50.0
100
AcDbCircle
 10
11894.03284225472
 20
4227.997721320262
 30
0.0
 40
7.0
100
AcDbArc
 50
87.03587545283093
 51
181.0932240293156
  0
ARC
  5
18922
330
747D
100
AcDbEntity
  8
部品1
 48
50.0
100
AcDbCircle
 10
11902.45650035682
 20
4101.046661787164
 30
0.0
 40
7.0
100
AcDbArc
 50
181.0932240293156
 51
267.8377559869489
  0
ARC
  5
18923
330
747D
100
AcDbEntity
  8
部品1
100
AcDbCircle
 10
11892.25636798162
 20
4111.438905169645
 30
0.0
 40
3.0
100
AcDbArc
 50
1.093224029315636
 51
80.18775403169765
  0
ARC
  5
18924
330
747D
100
AcDbEntity
  8
部品1
100
AcDbCircle
 10
11887.48369438401
 20
4204.304683369766
 30
0.0
 40
3.0
100
AcDbArc
 50
1.093224029315636
 51
80.18775403169765
  0
ARC
  5
18925
330
747D
100
AcDbEntity
  8
部品1
100
AcDbCircle
 10
11888.11424878703
 20
4207.950557907163
 30
0.0
 40
0.7
100
AcDbArc
 50
181.0932240292114
 51
260.1877540314855
  0
ARC
  5
18926
330
747D
100
AcDbEntity
  8
部品1
100
AcDbCircle
 10
11892.88692238464
 20
4115.084779707046
 30
0.0
 40
0.7
100
AcDbArc
 50
181.0932240293156
 51
260.1877540314855
  0
LINE
  5
18927
330
747D
100
AcDbEntity
  8
部品1
 48
50.0
100
AcDbLine
 10
14656.06373332398
 20
4172.211773022358
 30
0.0
 11
14654.03311213301
 21
4152.266731764579
 31
0.0
  0
LINE
  5
18928
330
747D
100
AcDbEntity
  8
部品1
 48
50.0
100
AcDbLine
 10
14650.68054564853
 20
4148.956097691669
 30
0.0
 11
14643.17376638369
 21
4075.22347694666
 31
0.0
  0
LINE
  5
18929
330
747D
100
AcDbEntity
  8
部品1
 48
50.0
100
AcDbLine
 10
14639.82119989921
 20
4071.912842873746
 30
0.0
 11
14638.74163685947
 21
4061.309225880188
 31
0.0
  0
ARC
  5
1892A
330
747D
100
AcDbEntity
  8
部品1
 48
50.0
100
AcDbCircle
 10
14649.09973275922
 20
4172.920783695135
 30
0.0
 40
7.0
100
AcDbArc
 50
354.1866997665596
 51
87.03587545283093
  0
ARC
  5
1892B
330
747D
100
AcDbEntity
  8
部品1
 48
50.0
100
AcDbCircle
 10
14631.77763629471
 20
4062.018236552962
 30
0.0
 40
7.0
100
AcDbArc
 50
267.8377559869489
 51
354.1866997665596
  0
ARC
  5
1892C
330
747D
100
AcDbEntity
  8
部品1
100
AcDbCircle
 10
14642.80577156981
 20
4071.608981156842
 30
0.0
 40
3.0
100
AcDbArc
 50
95.0921697642102
 51
174.1866997665596
  0
ARC
  5
1892D
330
747D
100
AcDbEntity
  8
部品1
100
AcDbCircle
 10
14653.66511731914
 20
4148.652235974768
 30
0.0
 40
3.0
100
AcDbArc
 50
95.0921697642102
 51
174.1866997665596
  0
ARC
  5
1892E
330
747D
100
AcDbEntity
  8
部品1
100
AcDbCircle
 10
14653.33671207654
 20
4152.337632831855
 30
0.0
 40
0.7
100
AcDbArc
 50
275.0921697642102
 51
354.1866997665596
  0
ARC
  5
1892F
330
747D
100
AcDbEntity
  8
部品1
100
AcDbCircle
 10
14642.47736632722
 20
4075.294378013932
 30
0.0
 40
0.7
100
AcDbArc
 50
275.0921697642102
 51
354.1866997667606
  0
LINE
  5
18930
330
747D
100
AcDbEntity
  8
部品1
100
AcDbLine
 10
13122.07496094252
 20
4361.475008711157
 30
0.0
 11
13447.52997458555
 21
4343.956949752297
 31
0.0
  0
LINE
  5
18931
330
747D
100
AcDbEntity
  8
部品1
100
AcDbLine
 10
13681.84983051327
 20
4001.270620748139
 30
0.0
 11
13681.84983051327
 21
2211.270620748143
 31
0.0
  0
LINE
  5
18932
330
747D
100
AcDbEntity
  8
細線
 48
50.0
100
AcDbLine
 10
13759.34983051328
 20
4001.270620748139
 30
0.0
 11
13759.34983051328
 21
2211.270620748143
 31
0.0
  0
LINE
  5
18933
330
747D
100
AcDbEntity
  8
細線
 48
50.0
100
AcDbLine
 10
13744.34983051328
 20
4001.270620748139
 30
0.0
 11
13744.34983051328
 21
2211.270620748143
 31
0.0
  0
LINE
  5
18934
330
747D
100
AcDbEntity
  8
細線
 48
50.0
100
AcDbLine
 10
13884.34983051328
 20
4001.270620748139
 30
0.0
 11
13884.34983051328
 21
2211.270620748143
 31
0.0
  0
LINE
  5
18935
330
747D
100
AcDbEntity
  8
細線
 48
50.0
100
AcDbLine
 10
13899.34983051328
 20
4001.270620748139
 30
0.0
 11
13899.34983051328
 21
2211.270620748143
 31
0.0
  0
LINE
  5
18936
330
747D
100
AcDbEntity
  8
細線
 48
50.0
100
AcDbLine
 10
14039.34983051328
 20
4001.270620748139
 30
0.0
 11
14039.34983051328
 21
2211.270620748143
 31
0.0
  0
LINE
  5
18937
330
747D
100
AcDbEntity
  8
細線
 48
50.0
100
AcDbLine
 10
14024.34983051328
 20
4001.270620748139
 30
0.0
 11
14024.34983051328
 21
2211.270620748143
 31
0.0
  0
DIMENSION
  5
18938
330
747D
100
AcDbEntity
  8
寸法
100
AcDbDimension
  2
*D26
 10
15281.77698848541
 20
4181.270620748143
 30
0.0
 11
15181.76517746178
 21
3171.270620748145
 31
0.0
 70
    32
 71
     5
 42
2020.000000000001
  3
INABA_S40G
100
AcDbAlignedDimension
 13
14576.84983051328
 23
2161.270620748142
 33
0.0
 14
14656.84983051328
 24
4181.270620748143
 34
0.0
 50
90.0
100
AcDbRotatedDimension
1001
ACAD
1000
DSTYLE
1002
{
1070
   174
1070
     0
1070
   272
1070
     1
1070
   288
1070
     0
1070
   341
1005
0
1002
}
  0
DIMENSION
  5
18939
330
747D
100
AcDbEntity
  8
寸法
100
AcDbDimension
  2
*D27
 10
10803.09970133002
 20
4236.270620748141
 30
0.0
 11
10703.08789030639
 21
3198.770620748141
 31
0.0
 70
    32
 71
     5
 42
2075.000000000006
  3
INABA_S40G
100
AcDbAlignedDimension
 13
11946.84983051328
 23
2161.270620748135
 33
0.0
 14
11886.84983051328
 24
4236.270620748141
 34
0.0
 50
90.0
100
AcDbRotatedDimension
1001
ACAD
1000
DSTYLE
1002
{
1070
   174
1070
     0
1070
   272
1070
     1
1070
   288
1070
     0
1070
   341
1005
0
1002
}
  0
DIMENSION
  5
1893A
330
747D
100
AcDbEntity
  8
寸法
100
AcDbDimension
  2
*D28
 10
11103.09970133002
 20
2211.270620748135
 30
0.0
 11
11003.09970133002
 21
3106.270620748138
 31
0.0
 70
    32
 71
     5
 42
1790.000000000002
  3
INABA_S40G
100
AcDbAlignedDimension
 13
11946.84983051328
 23
4001.270620748136
 33
0.0
 14
11946.84983051328
 24
2211.270620748135
 34
0.0
 50
90.0
100
AcDbRotatedDimension
1001
ACAD
1000
DSTYLE
1002
{
1070
   174
1070
     0
1070
   272
1070
     1
1070
   288
1070
     0
1070
   341
1005
0
1002
}
  0
DIMENSION
  5
19491
330
747D
100
AcDbEntity
  8
寸法
 48
50.0
100
AcDbDimension
  2
*D37
 10
1429.673057123655
 20
4641.996892480048
 30
0.0
 11
5374.673057123658
 21
4742.00870350367
 31
0.0
 70
    32
  1
柱外寸法 N X 2630
 71
     5
 42
7890.000000000006
  3
INABA_S40G
100
AcDbAlignedDimension
 13
9319.67305712366
 23
4236.270620748147
 33
0.0
 14
1429.673057123655
 24
4236.270620748145
 34
0.0
100
AcDbRotatedDimension
  0
DIMENSION
  5
19492
330
747D
100
AcDbEntity
  8
寸法
 48
50.0
100
AcDbDimension
  2
*D36
 10
9369.673057123657
 20
4841.905813694139
 30
0.0
 11
5374.673057123656
 21
4841.905813694139
 31
0.0
 70
   160
  1
N X 2630+100
 71
     5
 42
7990.000000000001
  3
INABA_S40G
100
AcDbAlignedDimension
 13
1379.673057123655
 23
4236.270620748144
 33
0.0
 14
9369.673057123657
 24
4236.270620748142
 34
0.0
100
AcDbRotatedDimension
  0
DIMENSION
  5
19493
330
747D
100
AcDbEntity
  8
寸法
 48
50.0
100
AcDbDimension
  2
*D35
 10
1379.673057123655
 20
4641.996892480048
 30
0.0
 11
1066.187775749408
 21
4641.996892480048
 31
0.0
 70
   160
 71
     5
 42
50.0
  3
INABA_S40G
100
AcDbAlignedDimension
 13
1429.673057123655
 23
4236.270620748146
 33
0.0
 14
1379.673057123655
 24
4236.270620748146
 34
0.0
100
AcDbRotatedDimension
1001
ACAD
1000
DSTYLE
1002
{
1002
}
  0
LINE
  5
19494
330
747D
100
AcDbEntity
  8
部品1
100
AcDbLine
 10
1380.092718138985
 20
4228.874095352905
 30
0.0
 11
1381.226115471334
 21
4208.897967370304
 31
0.0
  0
LINE
  5
19495
330
747D
100
AcDbEntity
  8
部品1
100
AcDbLine
 10
1392.663135792914
 20
4113.240560203244
 30
0.0
 11
1393.308041600023
 21
4101.874095352905
 31
0.0
  0
LINE
  5
19496
330
747D
100
AcDbEntity
  8
部品1
100
AcDbLine
 10
1384.427105268063
 20
4205.440560203245
 30
0.0
 11
1389.462145996178
 21
4116.697967370302
 31
0.0
  0
ARC
  5
19497
330
747D
100
AcDbEntity
  8
部品1
 48
50.0
100
AcDbCircle
 10
1381.431922371877
 20
4205.270620748146
 30
0.0
 40
3.0
100
AcDbArc
 50
3.24734279033473
 51
82.3418727926348
  0
ARC
  5
19498
330
747D
100
AcDbEntity
  8
部品1
 48
50.0
100
AcDbCircle
 10
1389.667952896721
 20
4113.070620748142
 30
0.0
 40
3.0
100
AcDbArc
 50
3.24734279033473
 51
82.3418727926348
  0
ARC
  5
19499
330
747D
100
AcDbEntity
  8
部品1
 48
50.0
100
AcDbCircle
 10
1390.161022005282
 20
4116.737619909826
 30
0.0
 40
0.7
100
AcDbArc
 50
183.2473427903347
 51
262.3418727926349
  0
ARC
  5
1949A
330
747D
100
AcDbEntity
  8
部品1
 48
50.0
100
AcDbCircle
 10
1381.924991480446
 20
4208.937619909829
 30
0.0
 40
0.7
100
AcDbArc
 50
183.2473427903347
 51
262.3418727926349
  0
ARC
  5
1949B
330
747D
100
AcDbEntity
  8
部品1
100
AcDbCircle
 10
1400.296801691118
 20
4102.270620748146
 30
0.0
 40
7.0
100
AcDbArc
 50
183.2473427903347
 51
270.0
  0
ARC
  5
1949C
330
747D
100
AcDbEntity
  8
部品1
100
AcDbCircle
 10
1387.081478230087
 20
4229.270620748142
 30
0.0
 40
7.0
100
AcDbArc
 50
90.0
 51
183.2473427903347
  0
LINE
  5
1949D
330
747D
100
AcDbEntity
  8
細線
 48
50.0
100
AcDbLine
 10
1412.673057123655
 20
4236.270620748142
 30
0.0
 11
1412.673057123655
 21
4095.270620748142
 31
0.0
  0
LINE
  5
1949E
330
747D
100
AcDbEntity
  8
部品1
100
AcDbLine
 10
1429.673057123655
 20
4001.270620748138
 30
0.0
 11
9319.673057123656
 21
4001.270620748139
 31
0.0
  0
DIMENSION
  5
194E6
330
747D
100
AcDbEntity
  8
寸法
 48
50.0
100
AcDbDimension
  2
*D38
 10
9319.67305712366
 20
4641.996892480054
 30
0.0
 11
9683.158338497896
 21
4641.996892480054
 31
0.0
 70
   160
 71
     5
 42
49.99999999999636
  3
INABA_S40G
100
AcDbAlignedDimension
 13
9369.673057123657
 23
4236.270620748142
 33
0.0
 14
9319.67305712366
 24
4236.270620748147
 34
0.0
100
AcDbRotatedDimension
  0
ARC
  5
194E7
330
747D
100
AcDbEntity
  8
部品1
100
AcDbCircle
 10
9362.264636017227
 20
4229.270620748147
 30
0.0
 40
7.0
100
AcDbArc
 50
356.7526572096653
 51
90.0
  0
ARC
  5
194E8
330
747D
100
AcDbEntity
  8
部品1
100
AcDbCircle
 10
9349.049312556195
 20
4102.270620748146
 30
0.0
 40
7.0
100
AcDbArc
 50
270.0
 51
356.7526572096653
  0
ARC
  5
194E9
330
747D
100
AcDbEntity
  8
部品1
 48
50.0
100
AcDbCircle
 10
9367.421122766868
 20
4208.93761990983
 30
0.0
 40
0.7
100
AcDbArc
 50
277.6581272073652
 51
356.7526572096653
  0
ARC
  5
194EA
330
747D
100
AcDbEntity
  8
部品1
 48
50.0
100
AcDbCircle
 10
9359.185092242029
 20
4116.737619909829
 30
0.0
 40
0.7
100
AcDbArc
 50
277.6581272073652
 51
356.7526572096653
  0
ARC
  5
194EB
330
747D
100
AcDbEntity
  8
部品1
 48
50.0
100
AcDbCircle
 10
9359.67816135059
 20
4113.070620748142
 30
0.0
 40
3.0
100
AcDbArc
 50
97.65812720736519
 51
176.7526572096653
  0
ARC
  5
194EC
330
747D
100
AcDbEntity
  8
部品1
 48
50.0
100
AcDbCircle
 10
9367.914191875433
 20
4205.270620748147
 30
0.0
 40
3.0
100
AcDbArc
 50
97.65812720736519
 51
176.7526572096653
  0
LINE
  5
194ED
330
747D
100
AcDbEntity
  8
部品1
100
AcDbLine
 10
9364.919008979248
 20
4205.44056020325
 30
0.0
 11
9359.883968251137
 21
4116.697967370304
 31
0.0
  0
LINE
  5
194EE
330
747D
100
AcDbEntity
  8
部品1
100
AcDbLine
 10
9356.682978454401
 20
4113.240560203245
 30
0.0
 11
9356.038072647292
 21
4101.874095352906
 31
0.0
  0
LINE
  5
194EF
330
747D
100
AcDbEntity
  8
細線
 48
50.0
100
AcDbLine
 10
9336.673057123658
 20
4236.270620748147
 30
0.0
 11
9336.673057123658
 21
4095.270620748147
 31
0.0
  0
LINE
  5
194F0
330
747D
100
AcDbEntity
  8
部品1
100
AcDbLine
 10
9369.253396108327
 20
4228.874095352906
 30
0.0
 11
9368.119998775977
 21
4208.897967370307
 31
0.0
  0
LINE
  5
1951C
330
747D
100
AcDbEntity
  8
部品1
 48
50.0
100
AcDbLine
 10
4049.67305712366
 20
4095.270620748143
 30
0.0
 11
4049.673057123658
 21
4236.270620748142
 31
0.0
  0
LINE
  5
1951D
330
747D
100
AcDbEntity
  8
部品1
 48
50.0
100
AcDbLine
 10
4059.67305712366
 20
3836.27062074814
 30
0.0
 11
4059.67305712366
 21
4095.270620748143
 31
0.0
  0
LINE
  5
1951E
330
747D
100
AcDbEntity
  8
部品1
 48
50.0
100
AcDbLine
 10
6689.673057123662
 20
3836.27062074814
 30
0.0
 11
6689.67305712366
 21
4095.270620748143
 31
0.0
  0
LINE
  5
1951F
330
747D
100
AcDbEntity
  8
部品1
 48
50.0
100
AcDbLine
 10
6679.673057123661
 20
4095.270620748143
 30
0.0
 11
6679.673057123657
 21
4236.270620748142
 31
0.0
  0
LINE
  5
19521
330
747D
100
AcDbEntity
  8
部品1
 48
50.0
100
AcDbLine
 10
9349.049312556195
 20
4095.270620748142
 30
0.0
 11
1400.296801691118
 21
4095.270620748146
 31
0.0
  0
LINE
  5
19522
330
747D
100
AcDbEntity
  8
細線
 48
50.0
100
AcDbLine
 10
9359.397488377338
 20
4116.070620748131
 30
0.0
 11
1389.948625869925
 21
4116.070620748145
 31
0.0
  0
LINE
  5
19523
330
747D
100
AcDbEntity
  8
細線
 48
50.0
100
AcDbLine
 10
9367.633518902213
 20
4208.270620748144
 30
0.0
 11
1381.712595345096
 21
4208.270620748142
 31
0.0
  0
LINE
  5
19524
330
747D
100
AcDbEntity
  8
部品1
 48
50.0
100
AcDbLine
 10
9362.264636017227
 20
4236.270620748139
 30
0.0
 11
1387.081478230087
 21
4236.270620748146
 31
0.0
  0
DIMENSION
  5
19725
330
747D
100
AcDbEntity
  8
寸法
 48
50.0
100
AcDbDimension
  2
*D39
 10
9607.216159445403
 20
4001.270620748138
 30
0.0
 11
9607.216159445403
 21
4239.755902122379
 31
0.0
 70
   160
 71
     5
 42
164.9999999999977
  3
INABA_S40G
100
AcDbAlignedDimension
 13
9319.673057123656
 23
3836.270620748141
 33
0.0
 14
9319.673057123656
 24
4001.270620748138
 34
0.0
 50
90.0
100
AcDbRotatedDimension
1001
ACAD
1000
DSTYLE
1002
{
1002
}
  0
DIMENSION
  5
19726
330
747D
100
AcDbEntity
  8
寸法
 48
50.0
100
AcDbDimension
  2
*D40
 10
9607.216159445403
 20
3836.270620748141
 30
0.0
 11
9747.385982691769
 21
3837.237820587798
 31
0.0
 70
   160
 71
     5
 42
27.00000000000227
  3
INABA_S40G
100
AcDbAlignedDimension
 13
9319.673057123656
 23
3809.270620748139
 33
0.0
 14
9319.673057123656
 24
3836.270620748141
 34
0.0
 50
90.0
100
AcDbRotatedDimension
1001
ACAD
1000
DSTYLE
1002
{
1070
   279
1070
     2
1002
}
  0
DIMENSION
  5
19727
330
747D
100
AcDbEntity
  8
寸法
 48
50.0
100
AcDbDimension
  2
*D41
 10
9607.216159445403
 20
3809.270620748139
 30
0.0
 11
9507.216159445404
 21
2985.270620748141
 31
0.0
 70
    32
  1
有効開口部高サ <>
 71
     5
 42
1648.0
  3
INABA_S40G
100
AcDbAlignedDimension
 13
9319.673057123656
 23
2161.270620748139
 33
0.0
 14
9319.673057123656
 24
3809.270620748139
 34
0.0
 50
90.0
100
AcDbRotatedDimension
  0
LINE
  5
1984E
330
747D
100
AcDbEntity
  8
仕様書枠
 48
50.0
100
AcDbLine
 10
16307.19999999999
 20
8689.6
 30
0.0
 11
13127.19999999999
 21
8689.600000000003
 31
0.0
  0
TEXT
  5
19856
330
747D
100
AcDbEntity
  8
文字
 62
     7
 48
50.0
100
AcDbText
 10
15022.63965474517
 20
10760.01374588372
 30
0.0
 40
100.0
  1
F12         1.0,1.2
  7
STYLE1
100
AcDbText
  0
TEXT
  5
19859
330
747D
100
AcDbEntity
  8
文字
 62
     7
 48
50.0
100
AcDbText
 10
15022.63965474516
 20
9060.013745883727
 30
0.0
 40
100.0
  1
F12            0.7
  7
STYLE1
100
AcDbText
  0
LINE
  5
19865
330
747D
100
AcDbEntity
  8
破線
 48
5.0
100
AcDbLine
 10
4059.673057123656
 20
1886.270620748139
 30
0.0
 11
4059.673057123656
 21
1811.270620748139
 31
0.0
  0
LINE
  5
19866
330
747D
100
AcDbEntity
  8
破線
 48
5.0
100
AcDbLine
 10
4009.673057123655
 20
1811.270620748139
 30
0.0
 11
4109.673057123655
 21
1811.270620748139
 31
0.0
  0
LINE
  5
19867
330
747D
100
AcDbEntity
  8
破線
 48
5.0
100
AcDbLine
 10
6639.673057123656
 20
1811.270620748139
 30
0.0
 11
6739.673057123656
 21
1811.270620748139
 31
0.0
  0
LINE
  5
19868
330
747D
100
AcDbEntity
  8
破線
 48
5.0
100
AcDbLine
 10
6689.673057123656
 20
1886.270620748138
 30
0.0
 11
6689.673057123656
 21
1811.270620748139
 31
0.0
  0
LINE
  5
198AC
330
747D
100
AcDbEntity
  8
部品1
100
AcDbLine
 10
4114.673057123656
 20
3836.270620748139
 30
0.0
 11
6744.673057123657
 21
3836.270620748139
 31
0.0
  0
LINE
  5
198AF
330
747D
100
AcDbEntity
  8
細線
100
AcDbLine
 10
4162.673057123653
 20
2691.270620748139
 30
0.0
 11
6586.673057123654
 21
2691.270620748139
 31
0.0
  0
LINE
  5
198B0
330
747D
100
AcDbEntity
  8
細線
100
AcDbLine
 10
4162.673057123653
 20
2626.270620748139
 30
0.0
 11
6586.673057123654
 21
2626.270620748139
 31
0.0
  0
LINE
  5
198B1
330
747D
100
AcDbEntity
  8
細線
100
AcDbLine
 10
4162.673057123653
 20
2561.270620748139
 30
0.0
 11
6586.673057123654
 21
2561.270620748139
 31
0.0
  0
LINE
  5
198B2
330
747D
100
AcDbEntity
  8
細線
100
AcDbLine
 10
4162.673057123653
 20
2496.270620748139
 30
0.0
 11
6586.673057123654
 21
2496.270620748139
 31
0.0
  0
LINE
  5
198B3
330
747D
100
AcDbEntity
  8
細線
100
AcDbLine
 10
4162.673057123653
 20
2431.27062074814
 30
0.0
 11
6586.673057123654
 21
2431.27062074814
 31
0.0
  0
LINE
  5
198B4
330
747D
100
AcDbEntity
  8
細線
100
AcDbLine
 10
4162.673057123653
 20
2366.270620748139
 30
0.0
 11
6586.673057123654
 21
2366.270620748139
 31
0.0
  0
LINE
  5
198B5
330
747D
100
AcDbEntity
  8
細線
100
AcDbLine
 10
4162.673057123653
 20
2301.270620748139
 30
0.0
 11
6586.673057123654
 21
2301.270620748139
 31
0.0
  0
LINE
  5
198B6
330
747D
100
AcDbEntity
  8
細線
100
AcDbLine
 10
4162.673057123653
 20
2236.270620748139
 30
0.0
 11
6586.673057123654
 21
2236.270620748139
 31
0.0
  0
LINE
  5
198B7
330
747D
100
AcDbEntity
  8
細線
100
AcDbLine
 10
4162.673057123653
 20
3341.270620748139
 30
0.0
 11
6586.673057123654
 21
3341.270620748139
 31
0.0
  0
LINE
  5
198B8
330
747D
100
AcDbEntity
  8
細線
100
AcDbLine
 10
4162.673057123653
 20
3276.270620748139
 30
0.0
 11
6586.673057123654
 21
3276.270620748139
 31
0.0
  0
LINE
  5
198B9
330
747D
100
AcDbEntity
  8
細線
100
AcDbLine
 10
4162.673057123653
 20
3211.27062074814
 30
0.0
 11
6586.673057123654
 21
3211.27062074814
 31
0.0
  0
LINE
  5
198BA
330
747D
100
AcDbEntity
  8
細線
100
AcDbLine
 10
4162.673057123653
 20
3146.270620748139
 30
0.0
 11
6586.673057123654
 21
3146.270620748139
 31
0.0
  0
LINE
  5
198BB
330
747D
100
AcDbEntity
  8
細線
100
AcDbLine
 10
4162.673057123653
 20
3081.270620748139
 30
0.0
 11
6586.673057123654
 21
3081.270620748139
 31
0.0
  0
LINE
  5
198BC
330
747D
100
AcDbEntity
  8
細線
100
AcDbLine
 10
4162.673057123653
 20
3016.27062074814
 30
0.0
 11
6586.673057123654
 21
3016.27062074814
 31
0.0
  0
LINE
  5
198BD
330
747D
100
AcDbEntity
  8
細線
100
AcDbLine
 10
4162.673057123653
 20
2951.27062074814
 30
0.0
 11
6586.673057123654
 21
2951.27062074814
 31
0.0
  0
LINE
  5
198BE
330
747D
100
AcDbEntity
  8
細線
100
AcDbLine
 10
4162.673057123653
 20
2886.270620748139
 30
0.0
 11
6586.673057123654
 21
2886.270620748139
 31
0.0
  0
LINE
  5
198BF
330
747D
100
AcDbEntity
  8
細線
100
AcDbLine
 10
4162.673057123653
 20
2821.270620748139
 30
0.0
 11
6586.673057123654
 21
2821.270620748139
 31
0.0
  0
LINE
  5
198C0
330
747D
100
AcDbEntity
  8
細線
100
AcDbLine
 10
4162.673057123653
 20
2756.27062074814
 30
0.0
 11
6586.673057123654
 21
2756.27062074814
 31
0.0
  0
LINE
  5
198C1
330
747D
100
AcDbEntity
  8
細線
100
AcDbLine
 10
4162.673057123653
 20
3731.270620748139
 30
0.0
 11
6586.673057123654
 21
3731.270620748139
 31
0.0
  0
LINE
  5
198C2
330
747D
100
AcDbEntity
  8
細線
100
AcDbLine
 10
4162.673057123653
 20
3666.270620748139
 30
0.0
 11
6586.673057123654
 21
3666.270620748139
 31
0.0
  0
LINE
  5
198C3
330
747D
100
AcDbEntity
  8
細線
100
AcDbLine
 10
4162.673057123653
 20
3601.270620748139
 30
0.0
 11
6586.673057123654
 21
3601.270620748139
 31
0.0
  0
LINE
  5
198C4
330
747D
100
AcDbEntity
  8
細線
100
AcDbLine
 10
4162.673057123653
 20
3536.27062074814
 30
0.0
 11
6586.673057123654
 21
3536.27062074814
 31
0.0
  0
LINE
  5
198C5
330
747D
100
AcDbEntity
  8
細線
100
AcDbLine
 10
4162.673057123653
 20
3471.27062074814
 30
0.0
 11
6586.673057123654
 21
3471.27062074814
 31
0.0
  0
LINE
  5
198C6
330
747D
100
AcDbEntity
  8
細線
100
AcDbLine
 10
4162.673057123653
 20
3406.270620748139
 30
0.0
 11
6586.673057123654
 21
3406.270620748139
 31
0.0
  0
LINE
  5
198C7
330
747D
100
AcDbEntity
  8
細線
100
AcDbLine
 10
4162.673057123653
 20
3796.270620748139
 30
0.0
 11
6586.673057123654
 21
3796.270620748139
 31
0.0
  0
LINE
  5
198CF
330
747D
100
AcDbEntity
  8
細線
100
AcDbLine
 10
6586.673057123658
 20
2171.270620748139
 30
0.0
 11
4162.673057123651
 21
2171.270620748139
 31
0.0
  0
LINE
  5
198D8
330
747D
100
AcDbEntity
  8
部品1
100
AcDbLine
 10
5374.673057123662
 20
9772.497424545989
 30
0.0
 11
5374.673057123662
 21
9744.497424545988
 31
0.0
  0
LINE
  5
198D9
330
747D
100
AcDbEntity
  8
部品1
100
AcDbLine
 10
5362.173057123662
 20
9736.497424545969
 30
0.0
 11
5387.173057123662
 21
9736.497424545973
 31
0.0
  0
LINE
  5
198DA
330
747D
100
AcDbEntity
  8
部品1
100
AcDbLine
 10
5403.673057123662
 20
9762.497424545973
 30
0.0
 11
5409.673057123661
 21
9762.497424545973
 31
0.0
  0
LINE
  5
198DB
330
747D
100
AcDbEntity
  8
部品1
100
AcDbLine
 10
5409.673057123661
 20
9762.497424545973
 30
0.0
 11
5409.673057123661
 21
9744.497424545974
 31
0.0
  0
LINE
  5
198DC
330
747D
100
AcDbEntity
  8
部品1
100
AcDbLine
 10
5339.673057123662
 20
9762.497424545973
 30
0.0
 11
5345.673057123661
 21
9762.497424545973
 31
0.0
  0
LINE
  5
198DD
330
747D
100
AcDbEntity
  8
部品1
100
AcDbLine
 10
5339.673057123662
 20
9762.497424545973
 30
0.0
 11
5339.673057123662
 21
9744.497424545974
 31
0.0
  0
LINE
  5
198DE
330
747D
100
AcDbEntity
  8
部品1
 48
50.0
100
AcDbLine
 10
5362.173057123662
 20
9736.497424545969
 30
0.0
 11
5362.173057123662
 21
9744.497424545988
 31
0.0
  0
LINE
  5
198DF
330
747D
100
AcDbEntity
  8
部品1
 48
50.0
100
AcDbLine
 10
5387.173057123662
 20
9736.497424545973
 30
0.0
 11
5387.173057123662
 21
9744.497424545983
 31
0.0
  0
LINE
  5
198E0
330
747D
100
AcDbEntity
  8
部品1
100
AcDbLine
 10
5387.173057123662
 20
9744.497424545983
 30
0.0
 11
6661.673057123632
 21
9744.497424545983
 31
0.0
  0
LINE
  5
198E1
330
747D
100
AcDbEntity
  8
部品1
 48
50.0
100
AcDbLine
 10
4126.673057123656
 20
7187.997424545864
 30
0.0
 11
6622.67305712364
 21
7187.997424545864
 31
0.0
  0
LINE
  5
198E9
330
747D
100
AcDbEntity
  8
部品1
 48
50.0
100
AcDbLine
 10
5421.205796679192
 20
9904.659972782571
 30
0.0
 11
5328.140317568092
 21
9557.334876309205
 31
0.0
  0
SPLINE
  5
198EA
330
747D
100
AcDbEntity
  8
部品1
 48
50.0
100
AcDbSpline
210
0.0
220
0.0
230
1.0
 70
     8
 71
     3
 72
    10
 73
     6
 74
     4
 42
0.0000000001
 43
0.0000000001
 44
0.0000000001
 40
0.0
 40
0.0
 40
0.0
 40
0.0
 40
147.8767566010009
 40
301.8091093202477
 40
466.5049223087716
 40
466.5049223087716
 40
466.5049223087716
 40
466.5049223087716
 10
5442.243384856692
 20
9812.238577071681
 30
0.0
 10
5365.361702361857
 20
9803.334143413842
 30
0.0
 10
5208.450010151729
 20
9785.160636954509
 30
0.0
 10
5531.263420096075
 20
9682.640052315171
 30
0.0
 10
5361.4208004267
 20
9664.004963602963
 30
0.0
 10
5273.630795219808
 20
9654.372666725656
 30
0.0
 11
5442.243384856692
 21
9812.238577071681
 31
0.0
 11
5299.405406547923
 21
9773.965256135353
 31
0.0
 11
5432.714734467097
 21
9696.999079775729
 31
0.0
 11
5273.630795219808
 21
9654.372666725656
 31
0.0
  0
LINE
  5
198F1
330
747D
100
AcDbEntity
  8
部品1
 48
50.0
100
AcDbLine
 10
5421.205796679198
 20
7361.659972782547
 30
0.0
 11
5328.140317568097
 21
7014.334876309182
 31
0.0
  0
SPLINE
  5
198F2
330
747D
100
AcDbEntity
  8
部品1
 48
50.0
100
AcDbSpline
210
0.0
220
0.0
230
1.0
 70
     8
 71
     3
 72
    10
 73
     6
 74
     4
 42
0.0000000001
 43
0.0000000001
 44
0.0000000001
 40
0.0
 40
0.0
 40
0.0
 40
0.0
 40
147.8767566010009
 40
301.8091093202477
 40
466.5049223087716
 40
466.5049223087716
 40
466.5049223087716
 40
466.5049223087716
 10
5442.243384856698
 20
7269.238577071657
 30
0.0
 10
5365.361702361862
 20
7260.33414341382
 30
0.0
 10
5208.450010151735
 20
7242.160636954487
 30
0.0
 10
5531.263420096078
 20
7139.640052315144
 30
0.0
 10
5361.420800426705
 20
7121.004963602941
 30
0.0
 10
5273.630795219813
 20
7111.372666725633
 30
0.0
 11
5442.243384856698
 21
7269.238577071657
 31
0.0
 11
5299.405406547929
 21
7230.965256135329
 31
0.0
 11
5432.714734467103
 21
7153.999079775705
 31
0.0
 11
5273.630795219813
 21
7111.372666725633
 31
0.0
  0
SPLINE
  5
198FE
330
747D
100
AcDbEntity
  8
部品1
 48
50.0
100
AcDbSpline
210
0.0
220
0.0
230
1.0
 70
     8
 71
     3
 72
    10
 73
     6
 74
     4
 42
0.0000000001
 43
0.0000000001
 44
0.0000000001
 40
0.0
 40
0.0
 40
0.0
 40
0.0
 40
147.8767566010009
 40
301.8091093202477
 40
466.5049223087734
 40
466.5049223087734
 40
466.5049223087734
 40
466.5049223087734
 10
5442.243384856707
 20
3130.011773273932
 30
0.0
 10
5365.361702361872
 20
3121.107339616094
 30
0.0
 10
5208.450010151744
 20
3102.933833156763
 30
0.0
 10
5531.263420096089
 20
3000.413248517419
 30
0.0
 10
5361.420800426714
 20
2981.778159805216
 30
0.0
 10
5273.63079521982
 20
2972.145862927908
 30
0.0
 11
5442.243384856707
 21
3130.011773273932
 31
0.0
 11
5299.405406547937
 21
3091.738452337604
 31
0.0
 11
5432.714734467111
 21
3014.772275977981
 31
0.0
 11
5273.63079521982
 21
2972.145862927908
 31
0.0
  0
LINE
  5
198FF
330
747D
100
AcDbEntity
  8
部品1
 48
50.0
100
AcDbLine
 10
5729.96262133651
 20
4374.729325789518
 30
0.0
 11
5019.383492910801
 21
1722.811915706761
 31
0.0
  0
LINE
  5
19B37
330
747D
100
AcDbEntity
  8
部品1
100
AcDbLine
 10
8844.673057123662
 20
9772.497424545987
 30
0.0
 11
8844.673057123662
 21
9744.497424545986
 31
0.0
  0
LINE
  5
19C3B
330
747D
100
AcDbEntity
  8
部品1
100
AcDbLine
 10
4534.673057123663
 20
9772.49742454587
 30
0.0
 11
4534.673057123663
 21
9744.497424545869
 31
0.0
  0
LINE
  5
19C3C
330
747D
100
AcDbEntity
  8
部品1
100
AcDbLine
 10
4954.673057123663
 20
9772.49742454587
 30
0.0
 11
4954.673057123663
 21
9744.497424545869
 31
0.0
  0
LINE
  5
19C3E
330
747D
100
AcDbEntity
  8
部品1
100
AcDbLine
 10
5794.673057123663
 20
9772.49742454587
 30
0.0
 11
5794.673057123663
 21
9744.497424545869
 31
0.0
  0
LINE
  5
19C3F
330
747D
100
AcDbEntity
  8
部品1
100
AcDbLine
 10
6214.673057123663
 20
9772.49742454587
 30
0.0
 11
6214.673057123663
 21
9744.497424545869
 31
0.0
  0
LINE
  5
19C87
330
747D
100
AcDbEntity
  8
部品1
100
AcDbLine
 10
1904.673057123663
 20
9772.497424545987
 30
0.0
 11
1904.673057123663
 21
9744.497424545986
 31
0.0
  0
TEXT
  5
19CBC
330
747D
100
AcDbEntity
  8
文字
 62
     7
 48
50.0
100
AcDbText
 10
13162.9790565769
 20
895.0906074299405
 30
0.0
 40
200.0
  1
外 形 図
  7
STYLE2
100
AcDbText
  0
ARC
  5
19CF6
330
747D
100
AcDbEntity
  8
部品1
 48
0.01
100
AcDbCircle
 10
2217.673057123659
 20
4065.270620748139
 30
0.0
 40
2.0
100
AcDbArc
 50
0.0
 51
90.0
  0
ARC
  5
19CF7
330
747D
100
AcDbEntity
  8
部品1
 48
0.01
100
AcDbCircle
 10
2041.673057123658
 20
4065.270620748139
 30
0.0
 40
2.0
100
AcDbArc
 50
90.0
 51
180.0
  0
LINE
  5
19CF8
330
747D
100
AcDbEntity
  8
細線
100
AcDbLine
 10
2129.673057123655
 20
4037.770620748139
 30
0.0
 11
2203.673057123658
 21
4037.770620748139
 31
0.0
  0
LINE
  5
19CF9
330
747D
100
AcDbEntity
  8
細線
100
AcDbLine
 10
2129.673057123659
 20
4060.770620748138
 30
0.0
 11
2055.673057123659
 21
4060.770620748138
 31
0.0
  0
LINE
  5
19CFA
330
747D
100
AcDbEntity
  8
細線
100
AcDbLine
 10
2055.673057123659
 20
4037.770620748139
 30
0.0
 11
2129.673057123659
 21
4037.770620748139
 31
0.0
  0
LINE
  5
19CFB
330
747D
100
AcDbEntity
  8
細線
100
AcDbLine
 10
2203.673057123658
 20
4060.770620748138
 30
0.0
 11
2129.673057123659
 21
4060.770620748138
 31
0.0
  0
LINE
  5
19CFC
330
747D
100
AcDbEntity
  8
細線
100
AcDbLine
 10
2203.673057123658
 20
4037.770620748139
 30
0.0
 11
2203.673057123658
 21
4060.770620748138
 31
0.0
  0
LINE
  5
19CFD
330
747D
100
AcDbEntity
  8
細線
100
AcDbLine
 10
2055.673057123659
 20
4060.770620748138
 30
0.0
 11
2055.673057123659
 21
4037.770620748139
 31
0.0
  0
LINE
  5
19CFE
330
747D
100
AcDbEntity
  8
部品1
 48
0.01
100
AcDbLine
 10
2219.673057123655
 20
4033.770620748138
 30
0.0
 11
2219.673057123658
 21
4065.270620748139
 31
0.0
  0
LINE
  5
19CFF
330
747D
100
AcDbEntity
  8
部品1
 48
0.01
100
AcDbLine
 10
2039.673057123659
 20
4065.270620748139
 30
0.0
 11
2039.673057123659
 21
4033.770620748138
 31
0.0
  0
LINE
  5
19D00
330
747D
100
AcDbEntity
  8
部品1
 48
0.01
100
AcDbLine
 10
2217.673057123659
 20
4067.270620748138
 30
0.0
 11
2041.673057123658
 21
4067.270620748138
 31
0.0
  0
LINE
  5
19D01
330
747D
100
AcDbEntity
  8
細線
100
AcDbLine
 10
2055.673057123659
 20
4054.770620748139
 30
0.0
 11
2129.673057123659
 21
4054.770620748139
 31
0.0
  0
LINE
  5
19D02
330
747D
100
AcDbEntity
  8
細線
100
AcDbLine
 10
2055.673057123659
 20
4048.770620748139
 30
0.0
 11
2129.673057123659
 21
4048.770620748139
 31
0.0
  0
LINE
  5
19D03
330
747D
100
AcDbEntity
  8
細線
100
AcDbLine
 10
2055.673057123655
 20
4042.770620748139
 30
0.0
 11
2129.673057123659
 21
4042.770620748139
 31
0.0
  0
LINE
  5
19D04
330
747D
100
AcDbEntity
  8
細線
100
AcDbLine
 10
2055.673057123659
 20
4054.770620748139
 30
0.0
 11
2124.673057123659
 21
4054.770620748139
 31
0.0
  0
LINE
  5
19D05
330
747D
100
AcDbEntity
  8
細線
100
AcDbLine
 10
2203.673057123655
 20
4054.770620748139
 30
0.0
 11
2129.673057123659
 21
4054.770620748139
 31
0.0
  0
LINE
  5
19D06
330
747D
100
AcDbEntity
  8
細線
100
AcDbLine
 10
2203.673057123655
 20
4042.770620748139
 30
0.0
 11
2129.673057123659
 21
4042.770620748139
 31
0.0
  0
LINE
  5
19D07
330
747D
100
AcDbEntity
  8
細線
100
AcDbLine
 10
2203.673057123655
 20
4048.770620748139
 30
0.0
 11
2129.673057123659
 21
4048.770620748139
 31
0.0
  0
LINE
  5
19D08
330
747D
100
AcDbEntity
  8
細線
100
AcDbLine
 10
2129.673057123659
 20
4060.770620748138
 30
0.0
 11
2129.673057123655
 21
4037.770620748139
 31
0.0
  0
LINE
  5
19D09
330
747D
100
AcDbEntity
  8
細線
100
AcDbLine
 10
3359.673057123659
 20
4060.770620748138
 30
0.0
 11
3359.673057123659
 21
4037.770620748139
 31
0.0
  0
LINE
  5
19D0A
330
747D
100
AcDbEntity
  8
細線
100
AcDbLine
 10
3285.673057123658
 20
4048.770620748139
 30
0.0
 11
3359.673057123659
 21
4048.770620748139
 31
0.0
  0
LINE
  5
19D0B
330
747D
100
AcDbEntity
  8
細線
100
AcDbLine
 10
3285.673057123658
 20
4042.770620748139
 30
0.0
 11
3359.673057123659
 21
4042.770620748139
 31
0.0
  0
LINE
  5
19D0C
330
747D
100
AcDbEntity
  8
細線
100
AcDbLine
 10
3285.673057123658
 20
4054.770620748139
 30
0.0
 11
3359.673057123659
 21
4054.770620748139
 31
0.0
  0
LINE
  5
19D0D
330
747D
100
AcDbEntity
  8
細線
100
AcDbLine
 10
3433.673057123659
 20
4054.770620748139
 30
0.0
 11
3364.673057123659
 21
4054.770620748139
 31
0.0
  0
LINE
  5
19D0E
330
747D
100
AcDbEntity
  8
細線
100
AcDbLine
 10
3433.673057123659
 20
4042.770620748139
 30
0.0
 11
3359.673057123659
 21
4042.770620748139
 31
0.0
  0
LINE
  5
19D0F
330
747D
100
AcDbEntity
  8
細線
100
AcDbLine
 10
3433.673057123659
 20
4048.770620748139
 30
0.0
 11
3359.673057123659
 21
4048.770620748139
 31
0.0
  0
LINE
  5
19D10
330
747D
100
AcDbEntity
  8
細線
100
AcDbLine
 10
3433.673057123659
 20
4054.770620748139
 30
0.0
 11
3359.673057123659
 21
4054.770620748139
 31
0.0
  0
LINE
  5
19D11
330
747D
100
AcDbEntity
  8
部品1
 48
0.01
100
AcDbLine
 10
3271.673057123659
 20
4067.270620748138
 30
0.0
 11
3447.673057123659
 21
4067.270620748138
 31
0.0
  0
LINE
  5
19D12
330
747D
100
AcDbEntity
  8
部品1
 48
0.01
100
AcDbLine
 10
3449.673057123658
 20
4065.270620748139
 30
0.0
 11
3449.673057123658
 21
4033.770620748138
 31
0.0
  0
LINE
  5
19D13
330
747D
100
AcDbEntity
  8
部品1
 48
0.01
100
AcDbLine
 10
3269.673057123659
 20
4033.770620748138
 30
0.0
 11
3269.673057123659
 21
4065.270620748139
 31
0.0
  0
LINE
  5
19D14
330
747D
100
AcDbEntity
  8
細線
100
AcDbLine
 10
3433.673057123659
 20
4060.770620748138
 30
0.0
 11
3433.673057123659
 21
4037.770620748139
 31
0.0
  0
LINE
  5
19D15
330
747D
100
AcDbEntity
  8
細線
100
AcDbLine
 10
3285.673057123658
 20
4037.770620748139
 30
0.0
 11
3285.673057123658
 21
4060.770620748138
 31
0.0
  0
LINE
  5
19D16
330
747D
100
AcDbEntity
  8
細線
100
AcDbLine
 10
3285.673057123658
 20
4060.770620748138
 30
0.0
 11
3359.673057123659
 21
4060.770620748138
 31
0.0
  0
LINE
  5
19D17
330
747D
100
AcDbEntity
  8
細線
100
AcDbLine
 10
3433.673057123659
 20
4037.770620748139
 30
0.0
 11
3359.673057123659
 21
4037.770620748139
 31
0.0
  0
LINE
  5
19D18
330
747D
100
AcDbEntity
  8
細線
100
AcDbLine
 10
3359.673057123659
 20
4060.770620748138
 30
0.0
 11
3433.673057123659
 21
4060.770620748138
 31
0.0
  0
LINE
  5
19D19
330
747D
100
AcDbEntity
  8
細線
100
AcDbLine
 10
3359.673057123659
 20
4037.770620748139
 30
0.0
 11
3285.673057123658
 21
4037.770620748139
 31
0.0
  0
ARC
  5
19D1A
330
747D
100
AcDbEntity
  8
部品1
 48
0.01
100
AcDbCircle
 10
3447.673057123659
 20
4065.270620748139
 30
0.0
 40
2.0
100
AcDbArc
 50
0.0
 51
90.0
  0
ARC
  5
19D1B
330
747D
100
AcDbEntity
  8
部品1
 48
0.01
100
AcDbCircle
 10
3271.673057123659
 20
4065.270620748139
 30
0.0
 40
2.0
100
AcDbArc
 50
90.0
 51
180.0
  0
ARC
  5
19D1C
330
747D
100
AcDbEntity
  8
部品1
 48
0.01
100
AcDbCircle
 10
2217.673057123655
 20
4033.770620748138
 30
0.0
 40
2.0
100
AcDbArc
 50
270.0
 51
0.0
  0
ARC
  5
19D1D
330
747D
100
AcDbEntity
  8
部品1
 48
0.01
100
AcDbCircle
 10
2041.673057123658
 20
4033.770620748138
 30
0.0
 40
2.0
100
AcDbArc
 50
180.0
 51
270.0
  0
LINE
  5
19D1E
330
747D
100
AcDbEntity
  8
部品1
 48
0.01
100
AcDbLine
 10
2041.673057123658
 20
4031.770620748138
 30
0.0
 11
2217.673057123655
 21
4031.770620748138
 31
0.0
  0
LINE
  5
19D1F
330
747D
100
AcDbEntity
  8
部品1
 48
0.01
100
AcDbLine
 10
3447.673057123659
 20
4031.770620748138
 30
0.0
 11
3271.673057123659
 21
4031.770620748138
 31
0.0
  0
ARC
  5
19D20
330
747D
100
AcDbEntity
  8
部品1
 48
0.01
100
AcDbCircle
 10
3447.673057123659
 20
4033.770620748138
 30
0.0
 40
2.0
100
AcDbArc
 50
270.0
 51
0.0
  0
ARC
  5
19D21
330
747D
100
AcDbEntity
  8
部品1
 48
0.01
100
AcDbCircle
 10
3271.673057123659
 20
4033.770620748138
 30
0.0
 40
2.0
100
AcDbArc
 50
180.0
 51
270.0
  0
CIRCLE
  5
19D22
330
747D
100
AcDbEntity
  8
細線
 48
50.0
100
AcDbCircle
 10
2744.673057123655
 20
3048.770620748139
 30
0.0
 40
18.0
  0
ARC
  5
19D23
330
747D
100
AcDbEntity
  8
細線
 48
50.0
100
AcDbCircle
 10
3044.673057123655
 20
2723.770620748139
 30
0.0
 40
15.0
100
AcDbArc
 50
270.0
 51
90.0
  0
ARC
  5
19D24
330
747D
100
AcDbEntity
  8
細線
 48
50.0
100
AcDbCircle
 10
2944.673057123655
 20
2723.770620748139
 30
0.0
 40
15.0
100
AcDbArc
 50
90.0
 51
270.0
  0
LINE
  5
19D25
330
747D
100
AcDbEntity
  8
細線
 48
50.0
100
AcDbLine
 10
2944.673057123655
 20
2738.770620748139
 30
0.0
 11
3044.673057123655
 21
2738.770620748139
 31
0.0
  0
LINE
  5
19D26
330
747D
100
AcDbEntity
  8
細線
 48
50.0
100
AcDbLine
 10
3044.673057123655
 20
2708.770620748139
 30
0.0
 11
2944.673057123655
 21
2708.770620748139
 31
0.0
  0
LINE
  5
19D27
330
747D
100
AcDbEntity
  8
細線
 48
50.0
100
AcDbLine
 10
2544.673057123655
 20
2708.770620748139
 30
0.0
 11
2444.673057123655
 21
2708.770620748139
 31
0.0
  0
LINE
  5
19D28
330
747D
100
AcDbEntity
  8
細線
 48
50.0
100
AcDbLine
 10
2444.673057123655
 20
2738.770620748139
 30
0.0
 11
2544.673057123655
 21
2738.770620748139
 31
0.0
  0
ARC
  5
19D29
330
747D
100
AcDbEntity
  8
細線
 48
50.0
100
AcDbCircle
 10
2544.673057123655
 20
2723.770620748139
 30
0.0
 40
15.0
100
AcDbArc
 50
270.0
 51
90.0
  0
ARC
  5
19D2A
330
747D
100
AcDbEntity
  8
細線
 48
50.0
100
AcDbCircle
 10
2444.673057123655
 20
2723.770620748139
 30
0.0
 40
15.0
100
AcDbArc
 50
90.0
 51
270.0
  0
ARC
  5
19D2B
330
747D
100
AcDbEntity
  8
細線
 48
50.0
100
AcDbCircle
 10
5074.673057123654
 20
2723.770620748139
 30
0.0
 40
15.0
100
AcDbArc
 50
90.0
 51
270.0
  0
ARC
  5
19D2C
330
747D
100
AcDbEntity
  8
細線
 48
50.0
100
AcDbCircle
 10
5174.673057123655
 20
2723.770620748139
 30
0.0
 40
15.0
100
AcDbArc
 50
270.0
 51
90.0
  0
LINE
  5
19D2D
330
747D
100
AcDbEntity
  8
細線
 48
50.0
100
AcDbLine
 10
5074.673057123654
 20
2738.770620748139
 30
0.0
 11
5174.673057123655
 21
2738.770620748139
 31
0.0
  0
LINE
  5
19D2E
330
747D
100
AcDbEntity
  8
細線
 48
50.0
100
AcDbLine
 10
5174.673057123655
 20
2708.770620748139
 30
0.0
 11
5074.673057123654
 21
2708.770620748139
 31
0.0
  0
LINE
  5
19D2F
330
747D
100
AcDbEntity
  8
細線
 48
50.0
100
AcDbLine
 10
5674.673057123655
 20
2708.770620748139
 30
0.0
 11
5574.673057123654
 21
2708.770620748139
 31
0.0
  0
LINE
  5
19D30
330
747D
100
AcDbEntity
  8
細線
 48
50.0
100
AcDbLine
 10
5574.673057123654
 20
2738.770620748139
 30
0.0
 11
5674.673057123655
 21
2738.770620748139
 31
0.0
  0
ARC
  5
19D31
330
747D
100
AcDbEntity
  8
細線
 48
50.0
100
AcDbCircle
 10
5574.673057123654
 20
2723.770620748139
 30
0.0
 40
15.0
100
AcDbArc
 50
90.0
 51
270.0
  0
ARC
  5
19D32
330
747D
100
AcDbEntity
  8
細線
 48
50.0
100
AcDbCircle
 10
5674.673057123655
 20
2723.770620748139
 30
0.0
 40
15.0
100
AcDbArc
 50
270.0
 51
90.0
  0
CIRCLE
  5
19D33
330
747D
100
AcDbEntity
  8
細線
 48
50.0
100
AcDbCircle
 10
5374.673057123654
 20
3048.770620748139
 30
0.0
 40
18.0
  0
ARC
  5
19D34
330
747D
100
AcDbEntity
  8
部品1
 48
0.01
100
AcDbCircle
 10
5901.673057123659
 20
4033.770620748138
 30
0.0
 40
2.0
100
AcDbArc
 50
180.0
 51
270.0
  0
ARC
  5
19D35
330
747D
100
AcDbEntity
  8
部品1
 48
0.01
100
AcDbCircle
 10
6077.673057123658
 20
4033.770620748138
 30
0.0
 40
2.0
100
AcDbArc
 50
270.0
 51
0.0
  0
LINE
  5
19D36
330
747D
100
AcDbEntity
  8
部品1
 48
0.01
100
AcDbLine
 10
6077.673057123658
 20
4031.770620748138
 30
0.0
 11
5901.673057123659
 21
4031.770620748138
 31
0.0
  0
LINE
  5
19D37
330
747D
100
AcDbEntity
  8
部品1
 48
0.01
100
AcDbLine
 10
4671.673057123658
 20
4031.770620748138
 30
0.0
 11
4847.673057123655
 21
4031.770620748138
 31
0.0
  0
ARC
  5
19D38
330
747D
100
AcDbEntity
  8
部品1
 48
0.01
100
AcDbCircle
 10
4671.673057123658
 20
4033.770620748138
 30
0.0
 40
2.0
100
AcDbArc
 50
180.0
 51
270.0
  0
ARC
  5
19D39
330
747D
100
AcDbEntity
  8
部品1
 48
0.01
100
AcDbCircle
 10
4847.673057123655
 20
4033.770620748138
 30
0.0
 40
2.0
100
AcDbArc
 50
270.0
 51
0.0
  0
ARC
  5
19D3A
330
747D
100
AcDbEntity
  8
部品1
 48
0.01
100
AcDbCircle
 10
5901.673057123659
 20
4065.270620748139
 30
0.0
 40
2.0
100
AcDbArc
 50
90.0
 51
180.0
  0
ARC
  5
19D3B
330
747D
100
AcDbEntity
  8
部品1
 48
0.01
100
AcDbCircle
 10
6077.673057123658
 20
4065.270620748139
 30
0.0
 40
2.0
100
AcDbArc
 50
0.0
 51
90.0
  0
LINE
  5
19D3C
330
747D
100
AcDbEntity
  8
細線
100
AcDbLine
 10
5989.673057123659
 20
4037.770620748139
 30
0.0
 11
5915.673057123658
 21
4037.770620748139
 31
0.0
  0
LINE
  5
19D3D
330
747D
100
AcDbEntity
  8
細線
100
AcDbLine
 10
5989.673057123659
 20
4060.770620748138
 30
0.0
 11
6063.673057123658
 21
4060.770620748138
 31
0.0
  0
LINE
  5
19D3E
330
747D
100
AcDbEntity
  8
細線
100
AcDbLine
 10
6063.673057123658
 20
4037.770620748139
 30
0.0
 11
5989.673057123659
 21
4037.770620748139
 31
0.0
  0
LINE
  5
19D3F
330
747D
100
AcDbEntity
  8
細線
100
AcDbLine
 10
5915.673057123658
 20
4060.770620748138
 30
0.0
 11
5989.673057123659
 21
4060.770620748138
 31
0.0
  0
LINE
  5
19D40
330
747D
100
AcDbEntity
  8
細線
100
AcDbLine
 10
5915.673057123658
 20
4037.770620748139
 30
0.0
 11
5915.673057123658
 21
4060.770620748138
 31
0.0
  0
LINE
  5
19D41
330
747D
100
AcDbEntity
  8
細線
100
AcDbLine
 10
6063.673057123658
 20
4060.770620748138
 30
0.0
 11
6063.673057123658
 21
4037.770620748139
 31
0.0
  0
LINE
  5
19D42
330
747D
100
AcDbEntity
  8
部品1
 48
0.01
100
AcDbLine
 10
5899.673057123658
 20
4033.770620748138
 30
0.0
 11
5899.673057123658
 21
4065.270620748139
 31
0.0
  0
LINE
  5
19D43
330
747D
100
AcDbEntity
  8
部品1
 48
0.01
100
AcDbLine
 10
6079.673057123659
 20
4065.270620748139
 30
0.0
 11
6079.673057123659
 21
4033.770620748138
 31
0.0
  0
LINE
  5
19D44
330
747D
100
AcDbEntity
  8
部品1
 48
0.01
100
AcDbLine
 10
5901.673057123659
 20
4067.270620748138
 30
0.0
 11
6077.673057123658
 21
4067.270620748138
 31
0.0
  0
LINE
  5
19D45
330
747D
100
AcDbEntity
  8
細線
100
AcDbLine
 10
6063.673057123658
 20
4054.770620748139
 30
0.0
 11
5989.673057123659
 21
4054.770620748139
 31
0.0
  0
LINE
  5
19D46
330
747D
100
AcDbEntity
  8
細線
100
AcDbLine
 10
6063.673057123658
 20
4048.770620748139
 30
0.0
 11
5989.673057123659
 21
4048.770620748139
 31
0.0
  0
LINE
  5
19D47
330
747D
100
AcDbEntity
  8
細線
100
AcDbLine
 10
6063.673057123658
 20
4042.770620748139
 30
0.0
 11
5989.673057123659
 21
4042.770620748139
 31
0.0
  0
LINE
  5
19D48
330
747D
100
AcDbEntity
  8
細線
100
AcDbLine
 10
6063.673057123658
 20
4054.770620748139
 30
0.0
 11
5994.673057123659
 21
4054.770620748139
 31
0.0
  0
LINE
  5
19D49
330
747D
100
AcDbEntity
  8
細線
100
AcDbLine
 10
5915.673057123658
 20
4054.770620748139
 30
0.0
 11
5989.673057123659
 21
4054.770620748139
 31
0.0
  0
LINE
  5
19D4A
330
747D
100
AcDbEntity
  8
細線
100
AcDbLine
 10
5915.673057123658
 20
4042.770620748139
 30
0.0
 11
5989.673057123659
 21
4042.770620748139
 31
0.0
  0
LINE
  5
19D4B
330
747D
100
AcDbEntity
  8
細線
100
AcDbLine
 10
5915.673057123658
 20
4048.770620748139
 30
0.0
 11
5989.673057123659
 21
4048.770620748139
 31
0.0
  0
LINE
  5
19D4C
330
747D
100
AcDbEntity
  8
細線
100
AcDbLine
 10
5989.673057123659
 20
4060.770620748138
 30
0.0
 11
5989.673057123659
 21
4037.770620748139
 31
0.0
  0
LINE
  5
19D4D
330
747D
100
AcDbEntity
  8
細線
100
AcDbLine
 10
4759.673057123658
 20
4060.770620748138
 30
0.0
 11
4759.673057123655
 21
4037.770620748139
 31
0.0
  0
LINE
  5
19D4E
330
747D
100
AcDbEntity
  8
細線
100
AcDbLine
 10
4833.673057123655
 20
4048.770620748139
 30
0.0
 11
4759.673057123658
 21
4048.770620748139
 31
0.0
  0
LINE
  5
19D4F
330
747D
100
AcDbEntity
  8
細線
100
AcDbLine
 10
4833.673057123655
 20
4042.770620748139
 30
0.0
 11
4759.673057123658
 21
4042.770620748139
 31
0.0
  0
LINE
  5
19D50
330
747D
100
AcDbEntity
  8
細線
100
AcDbLine
 10
4833.673057123655
 20
4054.770620748139
 30
0.0
 11
4759.673057123658
 21
4054.770620748139
 31
0.0
  0
LINE
  5
19D51
330
747D
100
AcDbEntity
  8
細線
100
AcDbLine
 10
4685.673057123659
 20
4054.770620748139
 30
0.0
 11
4754.673057123659
 21
4054.770620748139
 31
0.0
  0
LINE
  5
19D52
330
747D
100
AcDbEntity
  8
細線
100
AcDbLine
 10
4685.673057123654
 20
4042.770620748139
 30
0.0
 11
4759.673057123658
 21
4042.770620748139
 31
0.0
  0
LINE
  5
19D53
330
747D
100
AcDbEntity
  8
細線
100
AcDbLine
 10
4685.673057123659
 20
4048.770620748139
 30
0.0
 11
4759.673057123658
 21
4048.770620748139
 31
0.0
  0
LINE
  5
19D54
330
747D
100
AcDbEntity
  8
細線
100
AcDbLine
 10
4685.673057123659
 20
4054.770620748139
 30
0.0
 11
4759.673057123658
 21
4054.770620748139
 31
0.0
  0
LINE
  5
19D55
330
747D
100
AcDbEntity
  8
部品1
 48
0.01
100
AcDbLine
 10
4847.673057123659
 20
4067.270620748138
 30
0.0
 11
4671.673057123658
 21
4067.270620748138
 31
0.0
  0
LINE
  5
19D56
330
747D
100
AcDbEntity
  8
部品1
 48
0.01
100
AcDbLine
 10
4669.673057123659
 20
4065.270620748139
 30
0.0
 11
4669.673057123659
 21
4033.770620748138
 31
0.0
  0
LINE
  5
19D57
330
747D
100
AcDbEntity
  8
部品1
 48
0.01
100
AcDbLine
 10
4849.673057123655
 20
4033.770620748138
 30
0.0
 11
4849.673057123658
 21
4065.270620748139
 31
0.0
  0
LINE
  5
19D58
330
747D
100
AcDbEntity
  8
細線
100
AcDbLine
 10
4685.673057123659
 20
4060.770620748138
 30
0.0
 11
4685.673057123659
 21
4037.770620748139
 31
0.0
  0
LINE
  5
19D59
330
747D
100
AcDbEntity
  8
細線
100
AcDbLine
 10
4833.673057123658
 20
4037.770620748139
 30
0.0
 11
4833.673057123658
 21
4060.770620748138
 31
0.0
  0
LINE
  5
19D5A
330
747D
100
AcDbEntity
  8
細線
100
AcDbLine
 10
4833.673057123658
 20
4060.770620748138
 30
0.0
 11
4759.673057123658
 21
4060.770620748138
 31
0.0
  0
LINE
  5
19D5B
330
747D
100
AcDbEntity
  8
細線
100
AcDbLine
 10
4685.673057123659
 20
4037.770620748139
 30
0.0
 11
4759.673057123658
 21
4037.770620748139
 31
0.0
  0
LINE
  5
19D5C
330
747D
100
AcDbEntity
  8
細線
100
AcDbLine
 10
4759.673057123658
 20
4060.770620748138
 30
0.0
 11
4685.673057123659
 21
4060.770620748138
 31
0.0
  0
LINE
  5
19D5D
330
747D
100
AcDbEntity
  8
細線
100
AcDbLine
 10
4759.673057123655
 20
4037.770620748139
 30
0.0
 11
4833.673057123658
 21
4037.770620748139
 31
0.0
  0
ARC
  5
19D5E
330
747D
100
AcDbEntity
  8
部品1
 48
0.01
100
AcDbCircle
 10
4671.673057123658
 20
4065.270620748139
 30
0.0
 40
2.0
100
AcDbArc
 50
90.0
 51
180.0
  0
ARC
  5
19D5F
330
747D
100
AcDbEntity
  8
部品1
 48
0.01
100
AcDbCircle
 10
4847.673057123659
 20
4065.270620748139
 30
0.0
 40
2.0
100
AcDbArc
 50
0.0
 51
90.0
  0
ARC
  5
19D60
330
747D
100
AcDbEntity
  8
部品1
 48
0.01
100
AcDbCircle
 10
7477.673057123658
 20
4065.270620748139
 30
0.0
 40
2.0
100
AcDbArc
 50
0.0
 51
90.0
  0
ARC
  5
19D61
330
747D
100
AcDbEntity
  8
部品1
 48
0.01
100
AcDbCircle
 10
7301.673057123659
 20
4065.270620748139
 30
0.0
 40
2.0
100
AcDbArc
 50
90.0
 51
180.0
  0
LINE
  5
19D62
330
747D
100
AcDbEntity
  8
細線
100
AcDbLine
 10
7389.673057123655
 20
4037.770620748139
 30
0.0
 11
7463.673057123658
 21
4037.770620748139
 31
0.0
  0
LINE
  5
19D63
330
747D
100
AcDbEntity
  8
細線
100
AcDbLine
 10
7389.673057123658
 20
4060.770620748138
 30
0.0
 11
7315.673057123659
 21
4060.770620748138
 31
0.0
  0
LINE
  5
19D64
330
747D
100
AcDbEntity
  8
細線
100
AcDbLine
 10
7315.673057123659
 20
4037.770620748139
 30
0.0
 11
7389.673057123658
 21
4037.770620748139
 31
0.0
  0
LINE
  5
19D65
330
747D
100
AcDbEntity
  8
細線
100
AcDbLine
 10
7463.673057123658
 20
4060.770620748138
 30
0.0
 11
7389.673057123658
 21
4060.770620748138
 31
0.0
  0
LINE
  5
19D66
330
747D
100
AcDbEntity
  8
細線
100
AcDbLine
 10
7463.673057123658
 20
4037.770620748139
 30
0.0
 11
7463.673057123658
 21
4060.770620748138
 31
0.0
  0
LINE
  5
19D67
330
747D
100
AcDbEntity
  8
細線
100
AcDbLine
 10
7315.673057123659
 20
4060.770620748138
 30
0.0
 11
7315.673057123659
 21
4037.770620748139
 31
0.0
  0
LINE
  5
19D68
330
747D
100
AcDbEntity
  8
部品1
 48
0.01
100
AcDbLine
 10
7479.673057123655
 20
4033.770620748138
 30
0.0
 11
7479.673057123658
 21
4065.270620748139
 31
0.0
  0
LINE
  5
19D69
330
747D
100
AcDbEntity
  8
部品1
 48
0.01
100
AcDbLine
 10
7299.673057123658
 20
4065.270620748139
 30
0.0
 11
7299.673057123658
 21
4033.770620748138
 31
0.0
  0
LINE
  5
19D6A
330
747D
100
AcDbEntity
  8
部品1
 48
0.01
100
AcDbLine
 10
7477.673057123658
 20
4067.270620748138
 30
0.0
 11
7301.673057123659
 21
4067.270620748138
 31
0.0
  0
LINE
  5
19D6B
330
747D
100
AcDbEntity
  8
細線
100
AcDbLine
 10
7315.673057123659
 20
4054.770620748139
 30
0.0
 11
7389.673057123658
 21
4054.770620748139
 31
0.0
  0
LINE
  5
19D6C
330
747D
100
AcDbEntity
  8
細線
100
AcDbLine
 10
7315.673057123659
 20
4048.770620748139
 30
0.0
 11
7389.673057123658
 21
4048.770620748139
 31
0.0
  0
LINE
  5
19D6D
330
747D
100
AcDbEntity
  8
細線
100
AcDbLine
 10
7315.673057123655
 20
4042.770620748139
 30
0.0
 11
7389.673057123658
 21
4042.770620748139
 31
0.0
  0
LINE
  5
19D6E
330
747D
100
AcDbEntity
  8
細線
100
AcDbLine
 10
7315.673057123659
 20
4054.770620748139
 30
0.0
 11
7384.673057123659
 21
4054.770620748139
 31
0.0
  0
LINE
  5
19D6F
330
747D
100
AcDbEntity
  8
細線
100
AcDbLine
 10
7463.673057123656
 20
4054.770620748139
 30
0.0
 11
7389.673057123658
 21
4054.770620748139
 31
0.0
  0
LINE
  5
19D70
330
747D
100
AcDbEntity
  8
細線
100
AcDbLine
 10
7463.673057123656
 20
4042.770620748139
 30
0.0
 11
7389.673057123658
 21
4042.770620748139
 31
0.0
  0
LINE
  5
19D71
330
747D
100
AcDbEntity
  8
細線
100
AcDbLine
 10
7463.673057123656
 20
4048.770620748139
 30
0.0
 11
7389.673057123658
 21
4048.770620748139
 31
0.0
  0
LINE
  5
19D72
330
747D
100
AcDbEntity
  8
細線
100
AcDbLine
 10
7389.673057123658
 20
4060.770620748138
 30
0.0
 11
7389.673057123655
 21
4037.770620748139
 31
0.0
  0
ARC
  5
19D73
330
747D
100
AcDbEntity
  8
部品1
 48
0.01
100
AcDbCircle
 10
7477.673057123656
 20
4033.770620748138
 30
0.0
 40
2.0
100
AcDbArc
 50
270.0
 51
0.0
  0
ARC
  5
19D74
330
747D
100
AcDbEntity
  8
部品1
 48
0.01
100
AcDbCircle
 10
7301.673057123659
 20
4033.770620748138
 30
0.0
 40
2.0
100
AcDbArc
 50
180.0
 51
270.0
  0
LINE
  5
19D75
330
747D
100
AcDbEntity
  8
部品1
 48
0.01
100
AcDbLine
 10
7301.673057123659
 20
4031.770620748138
 30
0.0
 11
7477.673057123656
 21
4031.770620748138
 31
0.0
  0
LINE
  5
19D76
330
747D
100
AcDbEntity
  8
細線
100
AcDbLine
 10
8619.673057123659
 20
4060.770620748138
 30
0.0
 11
8619.673057123659
 21
4037.770620748139
 31
0.0
  0
LINE
  5
19D77
330
747D
100
AcDbEntity
  8
細線
100
AcDbLine
 10
8545.673057123659
 20
4048.770620748139
 30
0.0
 11
8619.673057123659
 21
4048.770620748139
 31
0.0
  0
LINE
  5
19D78
330
747D
100
AcDbEntity
  8
細線
100
AcDbLine
 10
8545.673057123659
 20
4042.770620748139
 30
0.0
 11
8619.673057123659
 21
4042.770620748139
 31
0.0
  0
LINE
  5
19D79
330
747D
100
AcDbEntity
  8
細線
100
AcDbLine
 10
8545.673057123659
 20
4054.770620748139
 30
0.0
 11
8619.673057123659
 21
4054.770620748139
 31
0.0
  0
LINE
  5
19D7A
330
747D
100
AcDbEntity
  8
細線
100
AcDbLine
 10
8693.673057123659
 20
4054.770620748139
 30
0.0
 11
8624.673057123658
 21
4054.770620748139
 31
0.0
  0
LINE
  5
19D7B
330
747D
100
AcDbEntity
  8
細線
100
AcDbLine
 10
8693.673057123659
 20
4042.770620748139
 30
0.0
 11
8619.673057123659
 21
4042.770620748139
 31
0.0
  0
LINE
  5
19D7C
330
747D
100
AcDbEntity
  8
細線
100
AcDbLine
 10
8693.673057123659
 20
4048.770620748139
 30
0.0
 11
8619.673057123659
 21
4048.770620748139
 31
0.0
  0
LINE
  5
19D7D
330
747D
100
AcDbEntity
  8
細線
100
AcDbLine
 10
8693.673057123659
 20
4054.770620748139
 30
0.0
 11
8619.673057123659
 21
4054.770620748139
 31
0.0
  0
LINE
  5
19D7E
330
747D
100
AcDbEntity
  8
部品1
 48
0.01
100
AcDbLine
 10
8531.67305712366
 20
4067.270620748138
 30
0.0
 11
8707.673057123658
 21
4067.270620748138
 31
0.0
  0
LINE
  5
19D7F
330
747D
100
AcDbEntity
  8
部品1
 48
0.01
100
AcDbLine
 10
8709.673057123659
 20
4065.270620748139
 30
0.0
 11
8709.673057123659
 21
4033.770620748138
 31
0.0
  0
LINE
  5
19D80
330
747D
100
AcDbEntity
  8
部品1
 48
0.01
100
AcDbLine
 10
8529.673057123657
 20
4033.770620748138
 30
0.0
 11
8529.673057123657
 21
4065.270620748139
 31
0.0
  0
LINE
  5
19D81
330
747D
100
AcDbEntity
  8
細線
100
AcDbLine
 10
8693.673057123659
 20
4060.770620748138
 30
0.0
 11
8693.673057123659
 21
4037.770620748139
 31
0.0
  0
LINE
  5
19D82
330
747D
100
AcDbEntity
  8
細線
100
AcDbLine
 10
8545.673057123659
 20
4037.770620748139
 30
0.0
 11
8545.673057123659
 21
4060.770620748138
 31
0.0
  0
LINE
  5
19D83
330
747D
100
AcDbEntity
  8
細線
100
AcDbLine
 10
8545.673057123659
 20
4060.770620748138
 30
0.0
 11
8619.673057123659
 21
4060.770620748138
 31
0.0
  0
LINE
  5
19D84
330
747D
100
AcDbEntity
  8
細線
100
AcDbLine
 10
8693.673057123659
 20
4037.770620748139
 30
0.0
 11
8619.673057123659
 21
4037.770620748139
 31
0.0
  0
LINE
  5
19D85
330
747D
100
AcDbEntity
  8
細線
100
AcDbLine
 10
8619.673057123659
 20
4060.770620748138
 30
0.0
 11
8693.673057123659
 21
4060.770620748138
 31
0.0
  0
LINE
  5
19D86
330
747D
100
AcDbEntity
  8
細線
100
AcDbLine
 10
8619.673057123659
 20
4037.770620748139
 30
0.0
 11
8545.673057123659
 21
4037.770620748139
 31
0.0
  0
ARC
  5
19D87
330
747D
100
AcDbEntity
  8
部品1
 48
0.01
100
AcDbCircle
 10
8707.673057123658
 20
4065.270620748139
 30
0.0
 40
2.0
100
AcDbArc
 50
0.0
 51
90.0
  0
ARC
  5
19D88
330
747D
100
AcDbEntity
  8
部品1
 48
0.01
100
AcDbCircle
 10
8531.67305712366
 20
4065.270620748139
 30
0.0
 40
2.0
100
AcDbArc
 50
90.0
 51
180.0
  0
LINE
  5
19D89
330
747D
100
AcDbEntity
  8
部品1
 48
0.01
100
AcDbLine
 10
8707.673057123658
 20
4031.770620748138
 30
0.0
 11
8531.67305712366
 21
4031.770620748138
 31
0.0
  0
ARC
  5
19D8A
330
747D
100
AcDbEntity
  8
部品1
 48
0.01
100
AcDbCircle
 10
8707.673057123658
 20
4033.770620748138
 30
0.0
 40
2.0
100
AcDbArc
 50
270.0
 51
0.0
  0
ARC
  5
19D8B
330
747D
100
AcDbEntity
  8
部品1
 48
0.01
100
AcDbCircle
 10
8531.67305712366
 20
4033.770620748138
 30
0.0
 40
2.0
100
AcDbArc
 50
180.0
 51
270.0
  0
ARC
  5
19D8C
330
747D
100
AcDbEntity
  8
細線
 48
50.0
100
AcDbCircle
 10
8304.673057123656
 20
2723.770620748139
 30
0.0
 40
15.0
100
AcDbArc
 50
270.0
 51
90.0
  0
ARC
  5
19D8D
330
747D
100
AcDbEntity
  8
細線
 48
50.0
100
AcDbCircle
 10
8204.673057123654
 20
2723.770620748139
 30
0.0
 40
15.0
100
AcDbArc
 50
90.0
 51
270.0
  0
LINE
  5
19D8E
330
747D
100
AcDbEntity
  8
細線
 48
50.0
100
AcDbLine
 10
8204.673057123654
 20
2738.770620748139
 30
0.0
 11
8304.673057123656
 21
2738.770620748139
 31
0.0
  0
LINE
  5
19D8F
330
747D
100
AcDbEntity
  8
細線
 48
50.0
100
AcDbLine
 10
8304.673057123656
 20
2708.770620748139
 30
0.0
 11
8204.673057123654
 21
2708.770620748139
 31
0.0
  0
LINE
  5
19D90
330
747D
100
AcDbEntity
  8
細線
 48
50.0
100
AcDbLine
 10
7804.673057123655
 20
2708.770620748139
 30
0.0
 11
7704.673057123655
 21
2708.770620748139
 31
0.0
  0
LINE
  5
19D91
330
747D
100
AcDbEntity
  8
細線
 48
50.0
100
AcDbLine
 10
7704.673057123655
 20
2738.770620748139
 30
0.0
 11
7804.673057123655
 21
2738.770620748139
 31
0.0
  0
ARC
  5
19D92
330
747D
100
AcDbEntity
  8
細線
 48
50.0
100
AcDbCircle
 10
7804.673057123655
 20
2723.770620748139
 30
0.0
 40
15.0
100
AcDbArc
 50
270.0
 51
90.0
  0
ARC
  5
19D93
330
747D
100
AcDbEntity
  8
細線
 48
50.0
100
AcDbCircle
 10
7704.673057123655
 20
2723.770620748139
 30
0.0
 40
15.0
100
AcDbArc
 50
90.0
 51
270.0
  0
CIRCLE
  5
19D94
330
747D
100
AcDbEntity
  8
細線
 48
50.0
100
AcDbCircle
 10
8004.673057123655
 20
3048.770620748139
 30
0.0
 40
18.0
  0
ENDSEC
  0
SECTION
  2
OBJECTS
  0
DICTIONARY
  5
7471
330
0
100
AcDbDictionary
281
     1
  3
ACAD_COLOR
350
17AE2
  3
ACAD_GROUP
350
7472
  3
ACAD_LAYOUT
350
17AE3
  3
ACAD_MATERIAL
350
17AE1
  3
ACAD_MLINESTYLE
350
7473
  3
ACAD_PLOTSETTINGS
350
17AE4
  3
ACAD_PLOTSTYLENAME
350
17ADF
  3
ACDBHEADERROUNDTRIPXREC
350
19DCF
  3
AcDbVariableDictionary
350
19DCB
  3
CONTENTDICTIONARY
350
E71C
  3
DRAWINGVARIABLESDICT
350
F3B9
  0
DICTIONARY
  5
1861E
330
7467
100
AcDbDictionary
280
     1
281
     1
  3
ACAD_LAYERSTATES
360
1861F
  0
DICTIONARY
  5
17AE2
102
{ACAD_REACTORS
330
7471
102
}
330
7471
100
AcDbDictionary
281
     1
  0
DICTIONARY
  5
7472
102
{ACAD_REACTORS
330
7471
102
}
330
7471
100
AcDbDictionary
281
     1
  3
*A1
350
17FA7
  3
*A2
350
180C7
  3
*A3
350
180D2
  0
DICTIONARY
  5
17AE3
102
{ACAD_REACTORS
330
7471
102
}
330
7471
100
AcDbDictionary
281
     1
  3
Model
350
17AE5
  3
レイアウト1
350
17AE6
  0
DICTIONARY
  5
17AE1
102
{ACAD_REACTORS
330
7471
102
}
330
7471
100
AcDbDictionary
281
     1
  0
DICTIONARY
  5
7473
102
{ACAD_REACTORS
330
7471
102
}
330
7471
100
AcDbDictionary
281
     1
  3
STANDARD
350
7480
  0
DICTIONARY
  5
17AE4
102
{ACAD_REACTORS
330
7471
102
}
330
7471
100
AcDbDictionary
281
     1
  0
ACDBDICTIONARYWDFLT
  5
17ADF
102
{ACAD_REACTORS
330
7471
102
}
330
7471
100
AcDbDictionary
281
     1
  3
Normal
350
17AE0
100
AcDbDictionaryWithDefault
340
17AE0
  0
DICTIONARY
  5
19DCF
102
{ACAD_REACTORS
330
7471
102
}
330
7471
100
AcDbDictionary
281
     1
  3
COLORDICT
350
19DD1
  3
MATERIALDICT
350
19DD0
  0
DICTIONARY
  5
19DCB
102
{ACAD_REACTORS
330
7471
102
}
330
7471
100
AcDbDictionary
281
     1
  3
DIMASSOC
350
19DCC
  3
PROJECTNAME
350
19DCD
  0
DICTIONARY
  5
E71C
102
{ACAD_REACTORS
330
7471
102
}
330
7471
100
AcDbDictionary
281
     1
  0
DICTIONARY
  5
F3B9
102
{ACAD_REACTORS
330
7471
102
}
330
7471
100
AcDbDictionary
281
     1
1001
DRAWINGVARIABLESXDATA
1000
POLARMODE
1000
1
  0
DICTIONARY
  5
1861F
102
{ACAD_REACTORS
330
1861E
102
}
330
1861E
100
AcDbDictionary
281
     1
  0
GROUP
  5
17FA7
102
{ACAD_REACTORS
330
7472
102
}
330
7472
100
AcDbGroup
300

 70
     1
 71
     1
  0
GROUP
  5
180C7
102
{ACAD_REACTORS
330
7472
102
}
330
7472
100
AcDbGroup
300

 70
     1
 71
     1
  0
GROUP
  5
180D2
102
{ACAD_REACTORS
330
7472
102
}
330
7472
100
AcDbGroup
300

 70
     1
 71
     1
  0
LAYOUT
  5
17AE5
102
{ACAD_XDICTIONARY
360
19DD2
102
}
102
{ACAD_REACTORS
330
17AE3
102
}
330
17AE3
100
AcDbPlotSettings
  1

  2
Canon iR C3880/C4580 LIPSLX
  4
A3
  6

 40
5.873749732971191
 41
5.873747825622558
 42
5.873748779296875
 43
5.873748779296875
 44
296.9259948730469
 45
419.9466552734374
 46
0.0
 47
0.0
 48
0.0
 49
0.0
140
0.0
141
0.0
142
1.0
143
40.0
 70
 11952
 72
     1
 73
     1
 74
     2
  7
inaba.ctb
 75
    24
147
0.025
148
0.0
149
0.0
100
AcDbLayout
  1
Model
 70
     1
 71
     0
 10
0.0
 20
0.0
 11
12.0
 21
9.0
 12
0.0
 22
0.0
 32
0.0
 14
0.0
 24
0.0
 34
0.0
 15
0.0
 25
0.0
 35
0.0
146
0.0
 13
0.0
 23
0.0
 33
0.0
 16
1.0
 26
0.0
 36
0.0
 17
0.0
 27
1.0
 37
0.0
 76
     0
330
747D
  0
LAYOUT
  5
17AE6
102
{ACAD_XDICTIONARY
360
19DD4
102
}
102
{ACAD_REACTORS
330
17AE3
102
}
330
17AE3
100
AcDbPlotSettings
  1

  2
EPSON LP-8300
  4

  6

 40
0.0
 41
0.0
 42
0.0
 43
0.0
 44
0.0
 45
0.0
 46
0.0
 47
0.0
 48
0.0
 49
0.0
140
0.0
141
0.0
142
1.0
143
1.0
 70
   688
 72
     0
 73
     0
 74
     5
  7
inaba.ctb
 75
    16
147
1.0
148
0.0
149
0.0
100
AcDbLayout
  1
レイアウト1
 70
     0
 71
     1
 10
0.0
 20
0.0
 11
420.0
 21
297.0
 12
0.0
 22
0.0
 32
0.0
 14
1.000000000000000E+20
 24
1.000000000000000E+20
 34
1.000000000000000E+20
 15
-1.000000000000000E+20
 25
-1.000000000000000E+20
 35
-1.000000000000000E+20
146
0.0
 13
0.0
 23
0.0
 33
0.0
 16
1.0
 26
0.0
 36
0.0
 17
0.0
 27
1.0
 37
0.0
 76
     0
330
747A
  0
MLINESTYLE
  5
7480
102
{ACAD_REACTORS
330
7473
102
}
330
7473
100
AcDbMlineStyle
  2
STANDARD
 70
     0
  3

 62
     0
 51
90.0
 52
90.0
 71
     2
 49
0.5
 62
   256
  6
BYLAYER
 49
-0.5
 62
   256
  6
BYLAYER
  0
ACDBPLACEHOLDER
  5
17AE0
102
{ACAD_REACTORS
330
17ADF
102
}
330
17ADF
  0
XRECORD
  5
19DD1
102
{ACAD_REACTORS
330
19DCF
102
}
330
19DCF
100
AcDbXrecord
280
     1
340
17AE2
  0
XRECORD
  5
19DD0
102
{ACAD_REACTORS
330
19DCF
102
}
330
19DCF
100
AcDbXrecord
280
     1
340
17AE1
  0
DICTIONARYVAR
  5
19DCC
102
{ACAD_REACTORS
330
19DCB
102
}
330
19DCB
100
DictionaryVariables
280
     0
  1
1
  0
DICTIONARYVAR
  5
19DCD
102
{ACAD_REACTORS
330
19DCB
102
}
330
19DCB
100
DictionaryVariables
280
     0
  1

  0
DICTIONARY
  5
19DD2
330
17AE5
100
AcDbDictionary
280
     1
281
     1
  3
ACAD_XREC_ROUNDTRIP
360
19DD3
  0
DICTIONARY
  5
19DD4
330
17AE6
100
AcDbDictionary
280
     1
281
     1
  3
ACAD_XREC_ROUNDTRIP
360
19DD5
  0
XRECORD
  5
19DD3
102
{ACAD_REACTORS
330
19DD2
102
}
330
19DD2
100
AcDbXrecord
280
     1
102
SHADEPLOT
 70
     0
102
SHADEPLOTRESLEVEL
 70
     2
102
SHADEPLOTCUSTOMDPI
 70
   300
  0
XRECORD
  5
19DD5
102
{ACAD_REACTORS
330
19DD4
102
}
330
19DD4
100
AcDbXrecord
280
     1
102
SHADEPLOT
 70
     0
102
SHADEPLOTRESLEVEL
 70
     2
102
SHADEPLOTCUSTOMDPI
 70
   300
  0
ENDSEC
  0
EOF
