  0
SECTION
  2
HEADER
  9
$ACADVER
  1
AC1015
  9
$ACADMAINTVER
 70
    20
  9
$DWGCODEPAGE
  3
ANSI_932
  9
$INSBASE
 10
0.0
 20
0.0
 30
0.0
  9
$EXTMIN
 10
139.9999999999995
 20
-0.0000000000000909
 30
0.0
  9
$EXTMAX
 10
16307.20000000001
 20
11409.6
 30
0.0
  9
$LIMMIN
 10
0.0
 20
0.0
  9
$LIMMAX
 10
16800.0
 20
11880.0
  9
$ORTHOMODE
 70
     0
  9
$REGENMODE
 70
     1
  9
$FILLMODE
 70
     1
  9
$QTEXTMODE
 70
     0
  9
$MIRRTEXT
 70
     1
  9
$LTSCALE
 40
20.0
  9
$ATTMODE
 70
     1
  9
$TEXTSIZE
 40
4.0
  9
$TRACEWID
 40
1.0
  9
$TEXTSTYLE
  7
MSPゴシック
  9
$CLAYER
  8
寸法
  9
$CELTYPE
  6
BYLAYER
  9
$CECOLOR
 62
   256
  9
$CELTSCALE
 40
50.0
  9
$DISPSILH
 70
     0
  9
$DIMSCALE
 40
40.0
  9
$DIMASZ
 40
2.5
  9
$DIMEXO
 40
0.5
  9
$DIMDLI
 40
7.0
  9
$DIMRND
 40
0.0
  9
$DIMDLE
 40
0.0
  9
$DIMEXE
 40
1.5
  9
$DIMTP
 40
0.0
  9
$DIMTM
 40
0.0
  9
$DIMTXT
 40
3.0
  9
$DIMCEN
 40
0.0
  9
$DIMTSZ
 40
0.0
  9
$DIMTOL
 70
     0
  9
$DIMLIM
 70
     0
  9
$DIMTIH
 70
     0
  9
$DIMTOH
 70
     0
  9
$DIMSE1
 70
     0
  9
$DIMSE2
 70
     0
  9
$DIMTAD
 70
     3
  9
$DIMZIN
 70
     8
  9
$DIMBLK
  1

  9
$DIMASO
 70
     1
  9
$DIMSHO
 70
     1
  9
$DIMPOST
  1

  9
$DIMAPOST
  1

  9
$DIMALT
 70
     0
  9
$DIMALTD
 70
     2
  9
$DIMALTF
 40
0.0394
  9
$DIMLFAC
 40
1.0
  9
$DIMTOFL
 70
     1
  9
$DIMTVP
 40
0.0
  9
$DIMTIX
 70
     1
  9
$DIMSOXD
 70
     0
  9
$DIMSAH
 70
     1
  9
$DIMBLK1
  1
DOTSMALL
  9
$DIMBLK2
  1
DOTSMALL
  9
$DIMSTYLE
  2
INABA_S40G
  9
$DIMCLRD
 70
     0
  9
$DIMCLRE
 70
     0
  9
$DIMCLRT
 70
     7
  9
$DIMTFAC
 40
1.0
  9
$DIMGAP
 40
1.0
  9
$DIMJUST
 70
     0
  9
$DIMSD1
 70
     0
  9
$DIMSD2
 70
     0
  9
$DIMTOLJ
 70
     1
  9
$DIMTZIN
 70
     0
  9
$DIMALTZ
 70
     0
  9
$DIMALTTZ
 70
     0
  9
$DIMUPT
 70
     0
  9
$DIMDEC
 70
     1
  9
$DIMTDEC
 70
     4
  9
$DIMALTU
 70
     2
  9
$DIMALTTD
 70
     2
  9
$DIMTXSTY
  7
STYLE1
  9
$DIMAUNIT
 70
     0
  9
$DIMADEC
 70
     0
  9
$DIMALTRND
 40
0.0
  9
$DIMAZIN
 70
     0
  9
$DIMDSEP
 70
    46
  9
$DIMATFIT
 70
     3
  9
$DIMFRAC
 70
     0
  9
$DIMLDRBLK
  1

  9
$DIMLUNIT
 70
     2
  9
$DIMLWD
 70
    -2
  9
$DIMLWE
 70
    -2
  9
$DIMTMOVE
 70
     2
  9
$LUNITS
 70
     2
  9
$LUPREC
 70
     1
  9
$SKETCHINC
 40
1.0
  9
$FILLETRAD
 40
3.0
  9
$AUNITS
 70
     0
  9
$AUPREC
 70
     0
  9
$MENU
  1
acad
  9
$ELEVATION
 40
0.0
  9
$PELEVATION
 40
0.0
  9
$THICKNESS
 40
0.0
  9
$LIMCHECK
 70
     0
  9
$CHAMFERA
 40
0.0
  9
$CHAMFERB
 40
0.0
  9
$CHAMFERC
 40
0.0
  9
$CHAMFERD
 40
0.0
  9
$SKPOLY
 70
     0
  9
$TDCREATE
 40
2451368.612993866
  9
$TDUCREATE
 40
2451368.237993866
  9
$TDUPDATE
 40
2455569.646973739
  9
$TDUUPDATE
 40
2455569.271973739
  9
$TDINDWG
 40
0.8779479861
  9
$TDUSRTIMER
 40
0.8779479861
  9
$USRTIMER
 70
     1
  9
$ANGBASE
 50
0.0
  9
$ANGDIR
 70
     0
  9
$PDMODE
 70
     3
  9
$PDSIZE
 40
2.0
  9
$PLINEWID
 40
0.0
  9
$SPLFRAME
 70
     0
  9
$SPLINETYPE
 70
     6
  9
$SPLINESEGS
 70
     8
  9
$HANDSEED
  5
19DB2
  9
$SURFTAB1
 70
     6
  9
$SURFTAB2
 70
     6
  9
$SURFTYPE
 70
     6
  9
$SURFU
 70
     6
  9
$SURFV
 70
     6
  9
$UCSBASE
  2

  9
$UCSNAME
  2

  9
$UCSORG
 10
0.0
 20
0.0
 30
0.0
  9
$UCSXDIR
 10
1.0
 20
0.0
 30
0.0
  9
$UCSYDIR
 10
0.0
 20
1.0
 30
0.0
  9
$UCSORTHOREF
  2

  9
$UCSORTHOVIEW
 70
     0
  9
$UCSORGTOP
 10
0.0
 20
0.0
 30
0.0
  9
$UCSORGBOTTOM
 10
0.0
 20
0.0
 30
0.0
  9
$UCSORGLEFT
 10
0.0
 20
0.0
 30
0.0
  9
$UCSORGRIGHT
 10
0.0
 20
0.0
 30
0.0
  9
$UCSORGFRONT
 10
0.0
 20
0.0
 30
0.0
  9
$UCSORGBACK
 10
0.0
 20
0.0
 30
0.0
  9
$PUCSBASE
  2

  9
$PUCSNAME
  2

  9
$PUCSORG
 10
0.0
 20
0.0
 30
0.0
  9
$PUCSXDIR
 10
1.0
 20
0.0
 30
0.0
  9
$PUCSYDIR
 10
0.0
 20
1.0
 30
0.0
  9
$PUCSORTHOREF
  2

  9
$PUCSORTHOVIEW
 70
     0
  9
$PUCSORGTOP
 10
0.0
 20
0.0
 30
0.0
  9
$PUCSORGBOTTOM
 10
0.0
 20
0.0
 30
0.0
  9
$PUCSORGLEFT
 10
0.0
 20
0.0
 30
0.0
  9
$PUCSORGRIGHT
 10
0.0
 20
0.0
 30
0.0
  9
$PUCSORGFRONT
 10
0.0
 20
0.0
 30
0.0
  9
$PUCSORGBACK
 10
0.0
 20
0.0
 30
0.0
  9
$USERI1
 70
     0
  9
$USERI2
 70
     0
  9
$USERI3
 70
     0
  9
$USERI4
 70
     0
  9
$USERI5
 70
     0
  9
$USERR1
 40
0.0
  9
$USERR2
 40
0.0
  9
$USERR3
 40
0.0
  9
$USERR4
 40
0.0
  9
$USERR5
 40
0.0
  9
$WORLDVIEW
 70
     1
  9
$SHADEDGE
 70
     3
  9
$SHADEDIF
 70
    70
  9
$TILEMODE
 70
     1
  9
$MAXACTVP
 70
    16
  9
$PINSBASE
 10
0.0
 20
0.0
 30
0.0
  9
$PLIMCHECK
 70
     0
  9
$PEXTMIN
 10
1.000000000000000E+20
 20
1.000000000000000E+20
 30
1.000000000000000E+20
  9
$PEXTMAX
 10
-1.000000000000000E+20
 20
-1.000000000000000E+20
 30
-1.000000000000000E+20
  9
$PLIMMIN
 10
0.0
 20
0.0
  9
$PLIMMAX
 10
420.0
 20
297.0
  9
$UNITMODE
 70
     0
  9
$VISRETAIN
 70
     0
  9
$PLINEGEN
 70
     0
  9
$PSLTSCALE
 70
     0
  9
$TREEDEPTH
 70
  3020
  9
$CMLSTYLE
  2
STANDARD
  9
$CMLJUST
 70
     0
  9
$CMLSCALE
 40
1.0
  9
$PROXYGRAPHICS
 70
     1
  9
$MEASUREMENT
 70
     1
  9
$CELWEIGHT
370
    -1
  9
$ENDCAPS
280
     0
  9
$JOINSTYLE
280
     0
  9
$LWDISPLAY
290
     0
  9
$INSUNITS
 70
     0
  9
$HYPERLINKBASE
  1

  9
$STYLESHEET
  1
inaba.ctb
  9
$XEDIT
290
     1
  9
$CEPSNTYPE
380
     0
  9
$PSTYLEMODE
290
     1
  9
$FINGERPRINTGUID
  2
{0E4A3AB3-ADAA-44DC-861C-9525B65BB1EC}
  9
$VERSIONGUID
  2
{0220A834-0BBF-446B-A953-B436AF132699}
  9
$EXTNAMES
290
     1
  9
$PSVPSCALE
 40
0.0
  9
$OLESTARTUP
290
     0
  0
ENDSEC
  0
SECTION
  2
CLASSES
  0
CLASS
  1
ACDBDICTIONARYWDFLT
  2
AcDbDictionaryWithDefault
  3
ObjectDBX Classes
 90
        0
280
     0
281
     0
  0
CLASS
  1
DICTIONARYVAR
  2
AcDbDictionaryVar
  3
ObjectDBX Classes
 90
        0
280
     0
281
     0
  0
CLASS
  1
ACDBPLACEHOLDER
  2
AcDbPlaceHolder
  3
ObjectDBX Classes
 90
        0
280
     0
281
     0
  0
CLASS
  1
LAYOUT
  2
AcDbLayout
  3
ObjectDBX Classes
 90
        0
280
     0
281
     0
  0
ENDSEC
  0
SECTION
  2
TABLES
  0
TABLE
  2
VPORT
  5
746D
330
0
100
AcDbSymbolTable
 70
     2
  0
VPORT
  5
19DAA
330
746D
100
AcDbSymbolTableRecord
100
AcDbViewportTableRecord
  2
*Active
 70
     0
 10
0.0
 20
0.0
 11
1.0
 21
1.0
 12
11720.15228811286
 22
5704.702397105601
 13
0.0
 23
0.0
 14
10.0
 24
10.0
 15
10.0
 25
10.0
 16
0.0
 26
0.0
 36
1.0
 17
0.0
 27
0.0
 37
0.0
 40
11513.59868046627
 41
2.234800838574423
 42
50.0
 43
0.0
 44
0.0
 50
0.0
 51
0.0
 71
     0
 72
     0
 73
     1
 74
     0
 75
     0
 76
     0
 77
     0
 78
     0
281
     0
 65
     1
110
0.0
120
0.0
130
0.0
111
1.0
121
0.0
131
0.0
112
0.0
122
1.0
132
0.0
 79
     0
146
0.0
  0
ENDTAB
  0
TABLE
  2
LTYPE
  5
746A
330
0
100
AcDbSymbolTable
 70
     3
  0
LTYPE
  5
7477
330
746A
100
AcDbSymbolTableRecord
100
AcDbLinetypeTableRecord
  2
BYBLOCK
 70
     0
  3

 72
    65
 73
     0
 40
0.0
  0
LTYPE
  5
7478
330
746A
100
AcDbSymbolTableRecord
100
AcDbLinetypeTableRecord
  2
BYLAYER
 70
     0
  3

 72
    65
 73
     0
 40
0.0
  0
LTYPE
  5
7479
330
746A
100
AcDbSymbolTableRecord
100
AcDbLinetypeTableRecord
  2
CONTINUOUS
 70
     0
  3
Solid line
 72
    65
 73
     0
 40
0.0
  0
LTYPE
  5
781A
330
746A
100
AcDbSymbolTableRecord
100
AcDbLinetypeTableRecord
  2
HIDDEN
 70
     0
  3
__ __ __ __ __ __ __ __ __ __ __ __ __ __ __ __
 72
    65
 73
     2
 40
0.375
 49
0.25
 74
     0
 49
-0.125
 74
     0
  0
LTYPE
  5
781B
330
746A
100
AcDbSymbolTableRecord
100
AcDbLinetypeTableRecord
  2
PHANTOM
 70
     0
  3
______  __  __  ______  __  __  ______  __  __ 
 72
    65
 73
     6
 40
2.5
 49
1.25
 74
     0
 49
-0.25
 74
     0
 49
0.25
 74
     0
 49
-0.25
 74
     0
 49
0.25
 74
     0
 49
-0.25
 74
     0
  0
ENDTAB
  0
TABLE
  2
LAYER
  5
7467
102
{ACAD_XDICTIONARY
360
18794
102
}
330
0
100
AcDbSymbolTable
 70
    10
  0
LAYER
  5
7474
330
7467
100
AcDbSymbolTableRecord
100
AcDbLayerTableRecord
  2
0
 70
     0
 62
     7
  6
CONTINUOUS
370
    -3
390
17AE0
  0
LAYER
  5
DEB3
330
7467
100
AcDbSymbolTableRecord
100
AcDbLayerTableRecord
  2
寸法
 70
     0
 62
     4
  6
CONTINUOUS
370
    -3
390
17AE0
  0
LAYER
  5
DEB4
330
7467
100
AcDbSymbolTableRecord
100
AcDbLayerTableRecord
  2
部品1
 70
     0
 62
     7
  6
CONTINUOUS
370
    -3
390
17AE0
  0
LAYER
  5
DEB5
330
7467
100
AcDbSymbolTableRecord
100
AcDbLayerTableRecord
  2
補助
 70
     0
 62
    -1
  6
CONTINUOUS
370
    -3
390
17AE0
  0
LAYER
  5
DEB6
330
7467
100
AcDbSymbolTableRecord
100
AcDbLayerTableRecord
  2
文字
 70
     0
 62
     7
  6
CONTINUOUS
370
    -3
390
17AE0
  0
LAYER
  5
F255
330
7467
100
AcDbSymbolTableRecord
100
AcDbLayerTableRecord
  2
DEFPOINTS
 70
     0
 62
     7
  6
CONTINUOUS
290
     0
370
    -3
390
17AE0
  0
LAYER
  5
10B54
330
7467
100
AcDbSymbolTableRecord
100
AcDbLayerTableRecord
  2
仕様書枠
 70
     0
 62
   230
  6
CONTINUOUS
370
    -3
390
17AE0
  0
LAYER
  5
11729
330
7467
100
AcDbSymbolTableRecord
100
AcDbLayerTableRecord
  2
Ｇ．Ｌ
 70
     0
 62
    30
  6
CONTINUOUS
370
    -3
390
17AE0
  0
LAYER
  5
1173F
330
7467
100
AcDbSymbolTableRecord
100
AcDbLayerTableRecord
  2
細線
 70
     0
 62
     5
  6
CONTINUOUS
370
    -3
390
17AE0
  0
LAYER
  5
142E2
330
7467
100
AcDbSymbolTableRecord
100
AcDbLayerTableRecord
  2
破線
 70
     0
 62
     2
  6
HIDDEN
370
    -3
390
17AE0
  0
ENDTAB
  0
TABLE
  2
STYLE
  5
7468
330
0
100
AcDbSymbolTable
 70
     7
  0
STYLE
  5
7475
330
7468
100
AcDbSymbolTableRecord
100
AcDbTextStyleTableRecord
  2
STANDARD
 70
     0
 40
0.0
 41
1.0
 50
0.0
 71
     0
 42
4.0
  3
txt
  4
C:\AutoCAD LT\bigfont.shx
  0
STYLE
  5
763C
330
7468
100
AcDbSymbolTableRecord
100
AcDbTextStyleTableRecord
  2
MSMINCHO
 70
     0
 40
0.0
 41
1.0
 50
0.0
 71
     0
 42
1.199999999999999
  3
MS PMincho.ttf
  4

1001
ACAD
1000
MS PMincho
1071
    32786
  0
STYLE
  5
F706
330
7468
100
AcDbSymbolTableRecord
100
AcDbTextStyleTableRecord
  2
STYLE1
 70
     0
 40
0.0
 41
1.0
 50
0.0
 71
     0
 42
4.0
  3
isocp.shx
  4
bigfont.shx
  0
STYLE
  5
103BF
330
7468
100
AcDbSymbolTableRecord
100
AcDbTextStyleTableRecord
  2
STYLE2
 70
     0
 40
0.0
 41
1.0
 50
0.0
 71
     0
 42
100.0
  3
MS PGothic.ttf
  4

1001
ACAD
1000
MS PGothic
1071
    32818
  0
STYLE
  5
10BAA
330
7468
100
AcDbSymbolTableRecord
100
AcDbTextStyleTableRecord
  2
STYLE3
 70
     0
 40
0.0
 41
1.0
 50
0.0
 71
     0
 42
100.0
  3
DFPGothic-EB.ttf
  4

1001
ACAD
1000
DFPGothic-EB
1071
    32818
  0
STYLE
  5
11A15
330
7468
100
AcDbSymbolTableRecord
100
AcDbTextStyleTableRecord
  2
MSGOTHIC
 70
     0
 40
0.0
 41
1.0
 50
0.0
 71
     0
 42
3.5
  3
MS PGothic.ttf
  4

1001
ACAD
1000
MS PGothic
1071
    32818
  0
STYLE
  5
13E96
330
7468
100
AcDbSymbolTableRecord
100
AcDbTextStyleTableRecord
  2
MSPゴシック
 70
     0
 40
0.0
 41
1.0
 50
0.0
 71
     0
 42
4.0
  3
MS PGothic.ttf
  4

1001
ACAD
1000
MS PGothic
1071
    32818
  0
ENDTAB
  0
TABLE
  2
VIEW
  5
746B
330
0
100
AcDbSymbolTable
 70
     0
  0
ENDTAB
  0
TABLE
  2
UCS
  5
746C
330
0
100
AcDbSymbolTable
 70
     0
  0
ENDTAB
  0
TABLE
  2
APPID
  5
746E
330
0
100
AcDbSymbolTable
 70
     6
  0
APPID
  5
7476
330
746E
100
AcDbSymbolTableRecord
100
AcDbRegAppTableRecord
  2
ACAD
 70
     0
  0
APPID
  5
DEA9
330
746E
100
AcDbSymbolTableRecord
100
AcDbRegAppTableRecord
  2
CONTENTBLOCKICON
 70
     0
  0
APPID
  5
DEAA
330
746E
100
AcDbSymbolTableRecord
100
AcDbRegAppTableRecord
  2
CONTENTBLOCKDESCRIPTION
 70
     0
  0
APPID
  5
E71D
330
746E
100
AcDbSymbolTableRecord
100
AcDbRegAppTableRecord
  2
CONTENTTABDATA
 70
     0
  0
APPID
  5
E71E
330
746E
100
AcDbSymbolTableRecord
100
AcDbRegAppTableRecord
  2
CONTENTCURRENTTAB
 70
     0
  0
APPID
  5
F3BA
330
746E
100
AcDbSymbolTableRecord
100
AcDbRegAppTableRecord
  2
DRAWINGVARIABLESXDATA
 70
     0
  0
ENDTAB
  0
TABLE
  2
DIMSTYLE
  5
746F
330
0
100
AcDbSymbolTable
 70
     1
100
AcDbDimStyleTable
 71
     1
340
F71F
  0
DIMSTYLE
105
F71F
102
{ACAD_REACTORS
330
162CD
330
162CE
330
162CF
330
162D0
330
162E4
330
162E7
330
162EA
330
162EB
330
16301
330
16302
330
1631F
330
16320
330
16333
330
1659C
330
1659A
330
165E9
330
166DD
330
16913
330
17BC3
330
17B87
330
17B86
330
18978
330
18979
330
1897A
330
189AA
330
189AE
330
189AF
330
189B0
330
189BE
330
189CD
330
1912A
330
19129
330
19128
330
191E1
330
1991C
330
1991D
330
1991E
102
}
330
746F
100
AcDbSymbolTableRecord
100
AcDbDimStyleTableRecord
  2
INABA_S40G
 70
     0
 40
40.0
 41
2.5
 42
0.5
 43
7.0
 44
1.5
 73
     0
 74
     0
 77
     3
 78
     8
140
3.0
141
0.0
143
0.0394
147
1.0
172
     1
173
     1
174
     1
178
     7
271
     1
340
F706
341
F770
343
F770
344
F770
  0
ENDTAB
  0
TABLE
  2
BLOCK_RECORD
  5
7466
330
0
100
AcDbSymbolTable
 70
    39
  0
BLOCK_RECORD
  5
747D
330
7466
100
AcDbSymbolTableRecord
100
AcDbBlockTableRecord
  2
*MODEL_SPACE
340
17AE5
  0
BLOCK_RECORD
  5
747A
330
7466
100
AcDbSymbolTableRecord
100
AcDbBlockTableRecord
  2
*PAPER_SPACE
340
17AE6
  0
BLOCK_RECORD
  5
F770
330
7466
100
AcDbSymbolTableRecord
100
AcDbBlockTableRecord
  2
_DOTSMALL
340
0
102
{BLKREFS
331
183D3
331
183D4
331
183DD
331
183DE
331
183F3
331
183F4
331
18433
331
18434
331
19AC4
331
19AC5
331
19ACE
331
19ACF
331
19AD7
331
19AD8
331
19AE2
331
19AE3
331
19AEB
331
19AEC
331
19AF6
331
19AF7
331
19AFF
331
19B00
331
19B08
331
19B09
331
19B11
331
19B12
331
19B1A
331
19B1B
331
19B3A
331
19B3B
331
19B57
331
19B58
331
19B60
331
19B61
331
19B69
331
19B6A
331
19B71
331
19B72
331
19B7C
331
19B7D
331
19B90
331
19B91
331
19B9C
331
19B9D
331
19BAC
331
19BAD
331
19BB5
331
19BB6
331
19BC0
331
19BC1
331
19BCB
331
19BCC
331
19BD4
331
19BD5
331
19BDD
331
19BDE
331
19BEF
331
19BF0
331
19BFB
331
19BFC
331
19C05
331
19C06
331
19C10
331
19C11
331
19C19
331
19C1A
331
19C27
331
19C28
331
19C30
331
19C31
331
19D8D
331
19D8E
331
19D96
331
19D97
102
}
  0
BLOCK_RECORD
  5
16338
330
7466
100
AcDbSymbolTableRecord
100
AcDbBlockTableRecord
  2
*D1
340
0
  0
BLOCK_RECORD
  5
16344
330
7466
100
AcDbSymbolTableRecord
100
AcDbBlockTableRecord
  2
*D2
340
0
  0
BLOCK_RECORD
  5
16352
330
7466
100
AcDbSymbolTableRecord
100
AcDbBlockTableRecord
  2
*D3
340
0
  0
BLOCK_RECORD
  5
16360
330
7466
100
AcDbSymbolTableRecord
100
AcDbBlockTableRecord
  2
*D4
340
0
  0
BLOCK_RECORD
  5
16384
330
7466
100
AcDbSymbolTableRecord
100
AcDbBlockTableRecord
  2
*D5
340
0
  0
BLOCK_RECORD
  5
1638F
330
7466
100
AcDbSymbolTableRecord
100
AcDbBlockTableRecord
  2
*D6
340
0
  0
BLOCK_RECORD
  5
1639B
330
7466
100
AcDbSymbolTableRecord
100
AcDbBlockTableRecord
  2
*D7
340
0
  0
BLOCK_RECORD
  5
163A9
330
7466
100
AcDbSymbolTableRecord
100
AcDbBlockTableRecord
  2
*D8
340
0
  0
BLOCK_RECORD
  5
163B8
330
7466
100
AcDbSymbolTableRecord
100
AcDbBlockTableRecord
  2
*D9
340
0
  0
BLOCK_RECORD
  5
163C7
330
7466
100
AcDbSymbolTableRecord
100
AcDbBlockTableRecord
  2
*D10
340
0
  0
BLOCK_RECORD
  5
163E1
330
7466
100
AcDbSymbolTableRecord
100
AcDbBlockTableRecord
  2
*D11
340
0
  0
BLOCK_RECORD
  5
163ED
330
7466
100
AcDbSymbolTableRecord
100
AcDbBlockTableRecord
  2
*D12
340
0
  0
BLOCK_RECORD
  5
163FB
330
7466
100
AcDbSymbolTableRecord
100
AcDbBlockTableRecord
  2
*D13
340
0
  0
BLOCK_RECORD
  5
165B5
330
7466
100
AcDbSymbolTableRecord
100
AcDbBlockTableRecord
  2
*D14
340
0
  0
BLOCK_RECORD
  5
165C4
330
7466
100
AcDbSymbolTableRecord
100
AcDbBlockTableRecord
  2
*D15
340
0
  0
BLOCK_RECORD
  5
165EA
330
7466
100
AcDbSymbolTableRecord
100
AcDbBlockTableRecord
  2
*D16
340
0
  0
BLOCK_RECORD
  5
166CF
330
7466
100
AcDbSymbolTableRecord
100
AcDbBlockTableRecord
  2
*D17
340
0
  0
BLOCK_RECORD
  5
16908
330
7466
100
AcDbSymbolTableRecord
100
AcDbBlockTableRecord
  2
*D18
340
0
  0
BLOCK_RECORD
  5
17BD3
330
7466
100
AcDbSymbolTableRecord
100
AcDbBlockTableRecord
  2
*D19
340
0
  0
BLOCK_RECORD
  5
17BDE
330
7466
100
AcDbSymbolTableRecord
100
AcDbBlockTableRecord
  2
*D20
340
0
  0
BLOCK_RECORD
  5
17BF8
330
7466
100
AcDbSymbolTableRecord
100
AcDbBlockTableRecord
  2
*D21
340
0
  0
BLOCK_RECORD
  5
18AF8
330
7466
100
AcDbSymbolTableRecord
100
AcDbBlockTableRecord
  2
*D22
340
0
  0
BLOCK_RECORD
  5
18B04
330
7466
100
AcDbSymbolTableRecord
100
AcDbBlockTableRecord
  2
*D23
340
0
  0
BLOCK_RECORD
  5
18B10
330
7466
100
AcDbSymbolTableRecord
100
AcDbBlockTableRecord
  2
*D24
340
0
  0
BLOCK_RECORD
  5
18B1C
330
7466
100
AcDbSymbolTableRecord
100
AcDbBlockTableRecord
  2
*D25
340
0
  0
BLOCK_RECORD
  5
18B2A
330
7466
100
AcDbSymbolTableRecord
100
AcDbBlockTableRecord
  2
*D26
340
0
  0
BLOCK_RECORD
  5
18B36
330
7466
100
AcDbSymbolTableRecord
100
AcDbBlockTableRecord
  2
*D27
340
0
  0
BLOCK_RECORD
  5
18B44
330
7466
100
AcDbSymbolTableRecord
100
AcDbBlockTableRecord
  2
*D28
340
0
  0
BLOCK_RECORD
  5
18B50
330
7466
100
AcDbSymbolTableRecord
100
AcDbBlockTableRecord
  2
*D29
340
0
  0
BLOCK_RECORD
  5
18B5D
330
7466
100
AcDbSymbolTableRecord
100
AcDbBlockTableRecord
  2
*D30
340
0
  0
BLOCK_RECORD
  5
1919E
330
7466
100
AcDbSymbolTableRecord
100
AcDbBlockTableRecord
  2
*D31
340
0
  0
BLOCK_RECORD
  5
191AC
330
7466
100
AcDbSymbolTableRecord
100
AcDbBlockTableRecord
  2
*D32
340
0
  0
BLOCK_RECORD
  5
191B8
330
7466
100
AcDbSymbolTableRecord
100
AcDbBlockTableRecord
  2
*D33
340
0
  0
BLOCK_RECORD
  5
191EC
330
7466
100
AcDbSymbolTableRecord
100
AcDbBlockTableRecord
  2
*D34
340
0
  0
BLOCK_RECORD
  5
1998C
330
7466
100
AcDbSymbolTableRecord
100
AcDbBlockTableRecord
  2
*D35
340
0
  0
BLOCK_RECORD
  5
19999
330
7466
100
AcDbSymbolTableRecord
100
AcDbBlockTableRecord
  2
*D36
340
0
  0
BLOCK_RECORD
  5
199A7
330
7466
100
AcDbSymbolTableRecord
100
AcDbBlockTableRecord
  2
*D37
340
0
  0
BLOCK_RECORD
  5
19C36
330
7466
100
AcDbSymbolTableRecord
100
AcDbBlockTableRecord
  2
A$C08A81D4D
340
0
  0
ENDTAB
  0
ENDSEC
  0
SECTION
  2
BLOCKS
  0
BLOCK
  5
7489
330
747D
100
AcDbEntity
  8
0
100
AcDbBlockBegin
  2
*MODEL_SPACE
 70
     0
 10
0.0
 20
0.0
 30
0.0
  3
*MODEL_SPACE
  1

  0
ENDBLK
  5
748A
330
747D
100
AcDbEntity
  8
0
100
AcDbBlockEnd
  0
BLOCK
  5
7487
330
747A
100
AcDbEntity
 67
     1
  8
0
100
AcDbBlockBegin
  2
*PAPER_SPACE
 70
     0
 10
0.0
 20
0.0
 30
0.0
  3
*PAPER_SPACE
  1

  0
ENDBLK
  5
7488
330
747A
100
AcDbEntity
 67
     1
  8
0
100
AcDbBlockEnd
  0
BLOCK
  5
F771
330
F770
100
AcDbEntity
  8
0
 48
50.0
100
AcDbBlockBegin
  2
_DOTSMALL
 70
     0
 10
0.0
 20
0.0
 30
0.0
  3
_DOTSMALL
  1

  0
LWPOLYLINE
  5
F772
330
F770
100
AcDbEntity
  8
0
  6
ByBlock
 62
     0
 48
50.0
100
AcDbPolyline
 90
        2
 70
     1
 43
0.5
 10
-0.0625
 20
0.0
 42
1.0
 10
0.0625
 20
0.0
 42
1.0
  0
ENDBLK
  5
F776
330
F770
100
AcDbEntity
  8
0
 48
50.0
100
AcDbBlockEnd
  0
BLOCK
  5
164EB
330
16338
100
AcDbEntity
  8
0
 48
50.0
100
AcDbBlockBegin
  2
*D1
 70
     1
 10
0.0
 20
0.0
 30
0.0
  3
*D1
  1

  0
LINE
  5
19BD1
330
16338
100
AcDbEntity
  8
寸法
 62
     0
 48
50.0
370
    -2
100
AcDbLine
 10
8024.673057123683
 20
9717.497424545967
 30
0.0
 11
8712.09940285809
 21
9717.497424545967
 31
0.0
  0
LINE
  5
19BD2
330
16338
100
AcDbEntity
  8
寸法
 62
     0
 48
50.0
370
    -2
100
AcDbLine
 10
8024.673057123658
 20
7197.497424545952
 30
0.0
 11
8712.09940285809
 21
7197.497424545952
 31
0.0
  0
LINE
  5
19BD3
330
16338
100
AcDbEntity
  8
寸法
 62
     0
 48
50.0
370
    -2
100
AcDbLine
 10
8652.099402858089
 20
9717.497424545967
 30
0.0
 11
8652.099402858089
 21
7197.497424545952
 31
0.0
  0
INSERT
  5
19BD4
330
16338
100
AcDbEntity
  8
寸法
 62
     0
 48
50.0
370
    -2
100
AcDbBlockReference
  2
_DOTSMALL
 10
8652.099402858089
 20
9717.497424545967
 30
0.0
 41
100.0
 42
100.0
 43
100.0
 50
90.0
  0
INSERT
  5
19BD5
330
16338
100
AcDbEntity
  8
寸法
 62
     0
 48
50.0
370
    -2
100
AcDbBlockReference
  2
_DOTSMALL
 10
8652.099402858089
 20
7197.497424545952
 30
0.0
 41
100.0
 42
100.0
 43
100.0
 50
270.0
  0
MTEXT
  5
19BD6
330
16338
100
AcDbEntity
  8
寸法
 62
     7
 48
50.0
100
AcDbMText
 10
8552.087591834467
 20
8457.497424545961
 30
0.0
 40
120.0
 41
0.0
 71
     5
 72
     1
  1
\A1;6X420=2520
  7
STYLE1
 11
0.0000000000000001
 21
1.0
 31
0.0
 73
     1
 44
1.0
1001
ACAD
1000
MTEXTBEGIN
1070
    73
1070
     1
1070
    44
1040
1.0
1070
    74
1070
     0
1000
MTEXTEND
  0
POINT
  5
19BD7
330
16338
100
AcDbEntity
  8
DEFPOINTS
 62
     0
 48
50.0
100
AcDbPoint
 10
8004.673057123683
 20
9717.497424545967
 30
0.0
  0
POINT
  5
19BD8
330
16338
100
AcDbEntity
  8
DEFPOINTS
 62
     0
 48
50.0
100
AcDbPoint
 10
8004.673057123659
 20
7197.497424545952
 30
0.0
  0
POINT
  5
19BD9
330
16338
100
AcDbEntity
  8
DEFPOINTS
 62
     0
 48
50.0
100
AcDbPoint
 10
8652.099402858089
 20
7197.497424545952
 30
0.0
  0
ENDBLK
  5
164F5
330
16338
100
AcDbEntity
  8
0
 48
50.0
100
AcDbBlockEnd
  0
BLOCK
  5
16414
330
16344
100
AcDbEntity
  8
0
 48
50.0
100
AcDbBlockBegin
  2
*D2
 70
     1
 10
0.0
 20
0.0
 30
0.0
  3
*D2
  1

  0
LINE
  5
19BC6
330
16344
100
AcDbEntity
  8
寸法
 62
     0
 48
50.0
370
    -2
100
AcDbLine
 10
8024.673057123658
 20
7197.497424545952
 30
0.0
 11
8712.09940285807
 21
7197.497424545952
 31
0.0
  0
LINE
  5
19BC7
330
16344
100
AcDbEntity
  8
寸法
 62
     0
 48
50.0
370
    -2
100
AcDbLine
 10
8024.673057123658
 20
7142.497424545957
 30
0.0
 11
8712.09940285807
 21
7142.497424545957
 31
0.0
  0
LINE
  5
19BC8
330
16344
100
AcDbEntity
  8
寸法
 62
     0
 48
50.0
370
    -2
100
AcDbLine
 10
8652.09940285807
 20
7197.497424545952
 30
0.0
 11
8652.09940285807
 21
7297.497424545952
 31
0.0
  0
LINE
  5
19BC9
330
16344
100
AcDbEntity
  8
寸法
 62
     0
 48
50.0
370
    -2
100
AcDbLine
 10
8652.09940285807
 20
7142.497424545957
 30
0.0
 11
8652.09940285807
 21
6656.150676266854
 31
0.0
  0
LINE
  5
19BCA
330
16344
100
AcDbEntity
  8
寸法
 62
     0
 48
50.0
370
    -2
100
AcDbLine
 10
8652.09940285807
 20
7197.497424545952
 30
0.0
 11
8652.09940285807
 21
7142.497424545957
 31
0.0
  0
INSERT
  5
19BCB
330
16344
100
AcDbEntity
  8
寸法
 62
     0
 48
50.0
370
    -2
100
AcDbBlockReference
  2
_DOTSMALL
 10
8652.09940285807
 20
7197.497424545952
 30
0.0
 41
100.0
 42
100.0
 43
100.0
 50
270.0
  0
INSERT
  5
19BCC
330
16344
100
AcDbEntity
  8
寸法
 62
     0
 48
50.0
370
    -2
100
AcDbBlockReference
  2
_DOTSMALL
 10
8652.09940285807
 20
7142.497424545957
 30
0.0
 41
100.0
 42
100.0
 43
100.0
 50
90.0
  0
MTEXT
  5
19BCD
330
16344
100
AcDbEntity
  8
寸法
 62
     7
 48
50.0
100
AcDbMText
 10
8552.099402858068
 20
6764.635957641094
 30
0.0
 40
120.0
 41
0.0
 71
     5
 72
     1
  1
\A1;55
  7
STYLE1
 11
0.0000000000000001
 21
1.0
 31
0.0
 73
     1
 44
1.0
1001
ACAD
1000
MTEXTBEGIN
1070
    73
1070
     1
1070
    44
1040
1.0
1070
    74
1070
     0
1000
MTEXTEND
  0
POINT
  5
19BCE
330
16344
100
AcDbEntity
  8
DEFPOINTS
 62
     0
 48
50.0
100
AcDbPoint
 10
8004.673057123659
 20
7197.497424545952
 30
0.0
  0
POINT
  5
19BCF
330
16344
100
AcDbEntity
  8
DEFPOINTS
 62
     0
 48
50.0
100
AcDbPoint
 10
8004.673057123659
 20
7142.497424545957
 30
0.0
  0
POINT
  5
19BD0
330
16344
100
AcDbEntity
  8
DEFPOINTS
 62
     0
 48
50.0
100
AcDbPoint
 10
8652.09940285807
 20
7142.497424545957
 30
0.0
  0
ENDBLK
  5
16420
330
16344
100
AcDbEntity
  8
0
 48
50.0
100
AcDbBlockEnd
  0
BLOCK
  5
16421
330
16352
100
AcDbEntity
  8
0
 48
50.0
100
AcDbBlockBegin
  2
*D3
 70
     1
 10
0.0
 20
0.0
 30
0.0
  3
*D3
  1

  0
LINE
  5
19BBB
330
16352
100
AcDbEntity
  8
寸法
 62
     0
 48
50.0
370
    -2
100
AcDbLine
 10
8024.673057123683
 20
9772.497424545964
 30
0.0
 11
8712.099402858095
 21
9772.497424545964
 31
0.0
  0
LINE
  5
19BBC
330
16352
100
AcDbEntity
  8
寸法
 62
     0
 48
50.0
370
    -2
100
AcDbLine
 10
8024.673057123683
 20
9717.497424545967
 30
0.0
 11
8712.099402858095
 21
9717.497424545967
 31
0.0
  0
LINE
  5
19BBD
330
16352
100
AcDbEntity
  8
寸法
 62
     0
 48
50.0
370
    -2
100
AcDbLine
 10
8652.099402858096
 20
9717.497424545967
 30
0.0
 11
8652.099402858096
 21
9617.497424545968
 31
0.0
  0
LINE
  5
19BBE
330
16352
100
AcDbEntity
  8
寸法
 62
     0
 48
50.0
370
    -2
100
AcDbLine
 10
8652.099402858096
 20
9772.497424545964
 30
0.0
 11
8652.099402858096
 21
10189.46798729444
 31
0.0
  0
LINE
  5
19BBF
330
16352
100
AcDbEntity
  8
寸法
 62
     0
 48
50.0
370
    -2
100
AcDbLine
 10
8652.099402858096
 20
9717.497424545967
 30
0.0
 11
8652.099402858096
 21
9772.497424545964
 31
0.0
  0
INSERT
  5
19BC0
330
16352
100
AcDbEntity
  8
寸法
 62
     0
 48
50.0
370
    -2
100
AcDbBlockReference
  2
_DOTSMALL
 10
8652.099402858096
 20
9717.497424545967
 30
0.0
 41
100.0
 42
100.0
 43
100.0
 50
90.0
  0
INSERT
  5
19BC1
330
16352
100
AcDbEntity
  8
寸法
 62
     0
 48
50.0
370
    -2
100
AcDbBlockReference
  2
_DOTSMALL
 10
8652.099402858096
 20
9772.497424545964
 30
0.0
 41
100.0
 42
100.0
 43
100.0
 50
270.0
  0
MTEXT
  5
19BC2
330
16352
100
AcDbEntity
  8
寸法
 62
     7
 48
50.0
100
AcDbMText
 10
8552.099402858095
 20
10080.9827059202
 30
0.0
 40
120.0
 41
0.0
 71
     5
 72
     1
  1
\A1;55
  7
STYLE1
 11
0.0000000000000001
 21
1.0
 31
0.0
 73
     1
 44
1.0
1001
ACAD
1000
MTEXTBEGIN
1070
    73
1070
     1
1070
    44
1040
1.0
1070
    74
1070
     0
1000
MTEXTEND
  0
POINT
  5
19BC3
330
16352
100
AcDbEntity
  8
DEFPOINTS
 62
     0
 48
50.0
100
AcDbPoint
 10
8004.673057123683
 20
9772.497424545964
 30
0.0
  0
POINT
  5
19BC4
330
16352
100
AcDbEntity
  8
DEFPOINTS
 62
     0
 48
50.0
100
AcDbPoint
 10
8004.673057123683
 20
9717.497424545967
 30
0.0
  0
POINT
  5
19BC5
330
16352
100
AcDbEntity
  8
DEFPOINTS
 62
     0
 48
50.0
100
AcDbPoint
 10
8652.099402858096
 20
9717.497424545967
 30
0.0
  0
ENDBLK
  5
1642D
330
16352
100
AcDbEntity
  8
0
 48
50.0
100
AcDbBlockEnd
  0
BLOCK
  5
164CA
330
16360
100
AcDbEntity
  8
0
 48
50.0
100
AcDbBlockBegin
  2
*D4
 70
     1
 10
0.0
 20
0.0
 30
0.0
  3
*D4
  1

  0
LINE
  5
19BB2
330
16360
100
AcDbEntity
  8
寸法
 62
     0
 48
50.0
370
    -2
100
AcDbLine
 10
8024.673057123683
 20
9772.497424545964
 30
0.0
 11
9077.20634459773
 21
9772.497424545964
 31
0.0
  0
LINE
  5
19BB3
330
16360
100
AcDbEntity
  8
寸法
 62
     0
 48
50.0
370
    -2
100
AcDbLine
 10
8024.673057123658
 20
7142.497424545957
 30
0.0
 11
9077.20634459773
 21
7142.497424545957
 31
0.0
  0
LINE
  5
19BB4
330
16360
100
AcDbEntity
  8
寸法
 62
     0
 48
50.0
370
    -2
100
AcDbLine
 10
9017.206344597729
 20
9772.497424545964
 30
0.0
 11
9017.206344597729
 21
7142.497424545957
 31
0.0
  0
INSERT
  5
19BB5
330
16360
100
AcDbEntity
  8
寸法
 62
     0
 48
50.0
370
    -2
100
AcDbBlockReference
  2
_DOTSMALL
 10
9017.206344597729
 20
9772.497424545964
 30
0.0
 41
100.0
 42
100.0
 43
100.0
 50
90.0
  0
INSERT
  5
19BB6
330
16360
100
AcDbEntity
  8
寸法
 62
     0
 48
50.0
370
    -2
100
AcDbBlockReference
  2
_DOTSMALL
 10
9017.206344597729
 20
7142.497424545957
 30
0.0
 41
100.0
 42
100.0
 43
100.0
 50
270.0
  0
MTEXT
  5
19BB7
330
16360
100
AcDbEntity
  8
寸法
 62
     7
 48
50.0
100
AcDbMText
 10
8917.194533574106
 20
8457.497424545961
 30
0.0
 40
120.0
 41
0.0
 71
     5
 72
     1
  1
\A1;2630
  7
STYLE1
 11
0.0000000000000001
 21
1.0
 31
0.0
 73
     1
 44
1.0
1001
ACAD
1000
MTEXTBEGIN
1070
    73
1070
     1
1070
    44
1040
1.0
1070
    74
1070
     0
1000
MTEXTEND
  0
POINT
  5
19BB8
330
16360
100
AcDbEntity
  8
DEFPOINTS
 62
     0
 48
50.0
100
AcDbPoint
 10
8004.673057123683
 20
9772.497424545964
 30
0.0
  0
POINT
  5
19BB9
330
16360
100
AcDbEntity
  8
DEFPOINTS
 62
     0
 48
50.0
100
AcDbPoint
 10
8004.673057123659
 20
7142.497424545957
 30
0.0
  0
POINT
  5
19BBA
330
16360
100
AcDbEntity
  8
DEFPOINTS
 62
     0
 48
50.0
100
AcDbPoint
 10
9017.206344597729
 20
7142.497424545957
 30
0.0
  0
ENDBLK
  5
164D4
330
16360
100
AcDbEntity
  8
0
 48
50.0
100
AcDbBlockEnd
  0
BLOCK
  5
1728C
330
16384
100
AcDbEntity
  8
0
 48
50.0
100
AcDbBlockBegin
  2
*D5
 70
     1
 10
0.0
 20
0.0
 30
0.0
  3
*D5
  1

  0
LINE
  5
19BAA
330
16384
100
AcDbEntity
  8
寸法
 62
     0
 48
50.0
370
    -2
100
AcDbLine
 10
5477.673057123677
 20
7148.497424545865
 30
0.0
 11
5477.673057123677
 21
6548.0666537797
 31
0.0
  0
LINE
  5
19BAB
330
16384
100
AcDbEntity
  8
寸法
 62
     0
 48
50.0
370
    -2
100
AcDbLine
 10
7901.673057123659
 20
6608.0666537797
 30
0.0
 11
5477.673057123677
 21
6608.0666537797
 31
0.0
  0
INSERT
  5
19BAC
330
16384
100
AcDbEntity
  8
寸法
 62
     0
 48
50.0
370
    -2
100
AcDbBlockReference
  2
_DOTSMALL
 10
7901.673057123659
 20
6608.0666537797
 30
0.0
 41
100.0
 42
100.0
 43
100.0
  0
INSERT
  5
19BAD
330
16384
100
AcDbEntity
  8
寸法
 62
     0
 48
50.0
370
    -2
100
AcDbBlockReference
  2
_DOTSMALL
 10
5477.673057123677
 20
6608.0666537797
 30
0.0
 41
100.0
 42
100.0
 43
100.0
 50
180.0
  0
MTEXT
  5
19BAE
330
16384
100
AcDbEntity
  8
寸法
 62
     7
 48
50.0
100
AcDbMText
 10
6689.673057123667
 20
6708.078464803323
 30
0.0
 40
120.0
 41
0.0
 71
     5
 72
     1
  1
\A1;有効開口部間口 2424
  7
STYLE1
 73
     1
 44
1.0
1001
ACAD
1000
MTEXTBEGIN
1070
    73
1070
     1
1070
    44
1040
1.0
1070
    74
1070
     0
1000
MTEXTEND
  0
POINT
  5
19BAF
330
16384
100
AcDbEntity
  8
DEFPOINTS
 62
     0
 48
50.0
100
AcDbPoint
 10
7901.673057123659
 20
7168.497424545865
 30
0.0
  0
POINT
  5
19BB0
330
16384
100
AcDbEntity
  8
DEFPOINTS
 62
     0
 48
50.0
100
AcDbPoint
 10
5477.673057123677
 20
7168.497424545865
 30
0.0
  0
POINT
  5
19BB1
330
16384
100
AcDbEntity
  8
DEFPOINTS
 62
     0
 48
50.0
100
AcDbPoint
 10
5477.673057123677
 20
6608.0666537797
 30
0.0
  0
ENDBLK
  5
17295
330
16384
100
AcDbEntity
  8
0
 48
50.0
100
AcDbBlockEnd
  0
BLOCK
  5
17261
330
1638F
100
AcDbEntity
  8
0
 48
50.0
100
AcDbBlockBegin
  2
*D6
 70
     1
 10
0.0
 20
0.0
 30
0.0
  3
*D6
  1

  0
LINE
  5
19C16
330
1638F
100
AcDbEntity
  8
寸法
 62
     0
 48
50.0
370
    -2
100
AcDbLine
 10
2744.673057123677
 20
7122.497424545861
 30
0.0
 11
2744.673057123677
 21
6101.893658188827
 31
0.0
  0
LINE
  5
19C17
330
1638F
100
AcDbEntity
  8
寸法
 62
     0
 48
50.0
370
    -2
100
AcDbLine
 10
8004.673057123648
 20
7122.497424545956
 30
0.0
 11
8004.673057123648
 21
6101.893658188827
 31
0.0
  0
LINE
  5
19C18
330
1638F
100
AcDbEntity
  8
寸法
 62
     0
 48
50.0
370
    -2
100
AcDbLine
 10
2744.673057123677
 20
6161.893658188827
 30
0.0
 11
8004.673057123648
 21
6161.893658188827
 31
0.0
  0
INSERT
  5
19C19
330
1638F
100
AcDbEntity
  8
寸法
 62
     0
 48
50.0
370
    -2
100
AcDbBlockReference
  2
_DOTSMALL
 10
2744.673057123677
 20
6161.893658188827
 30
0.0
 41
100.0
 42
100.0
 43
100.0
 50
180.0
  0
INSERT
  5
19C1A
330
1638F
100
AcDbEntity
  8
寸法
 62
     0
 48
50.0
370
    -2
100
AcDbBlockReference
  2
_DOTSMALL
 10
8004.673057123648
 20
6161.893658188827
 30
0.0
 41
100.0
 42
100.0
 43
100.0
  0
MTEXT
  5
19C1B
330
1638F
100
AcDbEntity
  8
寸法
 62
     7
 48
50.0
100
AcDbMText
 10
5374.673057123662
 20
6261.905469212448
 30
0.0
 40
120.0
 41
0.0
 71
     5
 72
     1
  1
\A1;5260
  7
STYLE1
 73
     1
 44
1.0
1001
ACAD
1000
MTEXTBEGIN
1070
    73
1070
     1
1070
    44
1040
1.0
1070
    74
1070
     0
1000
MTEXTEND
  0
POINT
  5
19C1C
330
1638F
100
AcDbEntity
  8
DEFPOINTS
 62
     0
 48
50.0
100
AcDbPoint
 10
2744.673057123677
 20
7142.497424545862
 30
0.0
  0
POINT
  5
19C1D
330
1638F
100
AcDbEntity
  8
DEFPOINTS
 62
     0
 48
50.0
100
AcDbPoint
 10
8004.673057123648
 20
7142.497424545957
 30
0.0
  0
POINT
  5
19C1E
330
1638F
100
AcDbEntity
  8
DEFPOINTS
 62
     0
 48
50.0
100
AcDbPoint
 10
8004.673057123648
 20
6161.893658188827
 30
0.0
  0
ENDBLK
  5
1726B
330
1638F
100
AcDbEntity
  8
0
 48
50.0
100
AcDbBlockEnd
  0
BLOCK
  5
16464
330
1639B
100
AcDbEntity
  8
0
 48
50.0
100
AcDbBlockBegin
  2
*D7
 70
     1
 10
0.0
 20
0.0
 30
0.0
  3
*D7
  1

  0
LINE
  5
19C0B
330
1639B
100
AcDbEntity
  8
寸法
 62
     0
 48
50.0
370
    -2
100
AcDbLine
 10
2799.673057123673
 20
7122.497424545864
 30
0.0
 11
2799.673057123673
 21
6548.0666537797
 31
0.0
  0
LINE
  5
19C0C
330
1639B
100
AcDbEntity
  8
寸法
 62
     0
 48
50.0
370
    -2
100
AcDbLine
 10
2744.673057123677
 20
7122.497424545861
 30
0.0
 11
2744.673057123677
 21
6548.0666537797
 31
0.0
  0
LINE
  5
19C0D
330
1639B
100
AcDbEntity
  8
寸法
 62
     0
 48
50.0
370
    -2
100
AcDbLine
 10
2799.673057123673
 20
6608.0666537797
 30
0.0
 11
2899.673057123673
 21
6608.0666537797
 31
0.0
  0
LINE
  5
19C0E
330
1639B
100
AcDbEntity
  8
寸法
 62
     0
 48
50.0
370
    -2
100
AcDbLine
 10
2744.673057123677
 20
6608.0666537797
 30
0.0
 11
2327.702494375199
 21
6608.0666537797
 31
0.0
  0
LINE
  5
19C0F
330
1639B
100
AcDbEntity
  8
寸法
 62
     0
 48
50.0
370
    -2
100
AcDbLine
 10
2799.673057123673
 20
6608.0666537797
 30
0.0
 11
2744.673057123677
 21
6608.0666537797
 31
0.0
  0
INSERT
  5
19C10
330
1639B
100
AcDbEntity
  8
寸法
 62
     0
 48
50.0
370
    -2
100
AcDbBlockReference
  2
_DOTSMALL
 10
2799.673057123673
 20
6608.0666537797
 30
0.0
 41
100.0
 42
100.0
 43
100.0
 50
180.0
  0
INSERT
  5
19C11
330
1639B
100
AcDbEntity
  8
寸法
 62
     0
 48
50.0
370
    -2
100
AcDbBlockReference
  2
_DOTSMALL
 10
2744.673057123677
 20
6608.0666537797
 30
0.0
 41
100.0
 42
100.0
 43
100.0
  0
MTEXT
  5
19C12
330
1639B
100
AcDbEntity
  8
寸法
 62
     7
 48
50.0
100
AcDbMText
 10
2436.187775749438
 20
6708.0666537797
 30
0.0
 40
120.0
 41
0.0
 71
     5
 72
     1
  1
\A1;55
  7
STYLE1
 73
     1
 44
1.0
1001
ACAD
1000
MTEXTBEGIN
1070
    73
1070
     1
1070
    44
1040
1.0
1070
    74
1070
     0
1000
MTEXTEND
  0
POINT
  5
19C13
330
1639B
100
AcDbEntity
  8
DEFPOINTS
 62
     0
 48
50.0
100
AcDbPoint
 10
2799.673057123673
 20
7142.497424545864
 30
0.0
  0
POINT
  5
19C14
330
1639B
100
AcDbEntity
  8
DEFPOINTS
 62
     0
 48
50.0
100
AcDbPoint
 10
2744.673057123677
 20
7142.497424545862
 30
0.0
  0
POINT
  5
19C15
330
1639B
100
AcDbEntity
  8
DEFPOINTS
 62
     0
 48
50.0
100
AcDbPoint
 10
2744.673057123677
 20
6608.0666537797
 30
0.0
  0
ENDBLK
  5
16470
330
1639B
100
AcDbEntity
  8
0
 48
50.0
100
AcDbBlockEnd
  0
BLOCK
  5
16471
330
163A9
100
AcDbEntity
  8
0
 48
50.0
100
AcDbBlockBegin
  2
*D8
 70
     1
 10
0.0
 20
0.0
 30
0.0
  3
*D8
  1

  0
LINE
  5
1842D
330
163A9
100
AcDbEntity
  8
寸法
 62
     0
 48
50.0
370
    -2
100
AcDbLine
 10
5477.673057123677
 20
7148.497424545865
 30
0.0
 11
5477.673057123677
 21
6548.0666537797
 31
0.0
  0
LINE
  5
1842E
330
163A9
100
AcDbEntity
  8
寸法
 62
     0
 48
50.0
370
    -2
100
AcDbLine
 10
5429.673057123673
 20
7122.497424545864
 30
0.0
 11
5429.673057123673
 21
6548.0666537797
 31
0.0
  0
LINE
  5
1842F
330
163A9
100
AcDbEntity
  8
寸法
 62
     0
 48
50.0
370
    -2
100
AcDbLine
 10
5477.673057123677
 20
6608.0666537797
 30
0.0
 11
5577.673057123677
 21
6608.0666537797
 31
0.0
  0
LINE
  5
18430
330
163A9
100
AcDbEntity
  8
寸法
 62
     0
 48
50.0
370
    -2
100
AcDbLine
 10
5429.673057123673
 20
6608.0666537797
 30
0.0
 11
5329.673057123673
 21
6608.0666537797
 31
0.0
  0
MTEXT
  5
18431
330
163A9
100
AcDbEntity
  8
寸法
 62
     7
 48
50.0
100
AcDbMText
 10
5590.575028123734
 20
6708.0666537797
 30
0.0
 40
120.0
 41
0.0
 71
     5
 72
     1
  1
\A1;48
  7
STYLE1
 73
     1
 44
1.0
1001
ACAD
1000
MTEXTBEGIN
1070
    73
1070
     1
1070
    44
1040
1.0
1070
    74
1070
     0
1000
MTEXTEND
  0
LINE
  5
18432
330
163A9
100
AcDbEntity
  8
寸法
 62
     0
 48
50.0
370
    -2
100
AcDbLine
 10
5477.673057123677
 20
6608.0666537797
 30
0.0
 11
5429.673057123673
 21
6608.0666537797
 31
0.0
  0
INSERT
  5
18433
330
163A9
100
AcDbEntity
  8
寸法
 62
     0
 48
50.0
370
    -2
100
AcDbBlockReference
  2
_DOTSMALL
 10
5477.673057123677
 20
6608.0666537797
 30
0.0
 41
100.0
 42
100.0
 43
100.0
 50
180.0
  0
INSERT
  5
18434
330
163A9
100
AcDbEntity
  8
寸法
 62
     0
 48
50.0
370
    -2
100
AcDbBlockReference
  2
_DOTSMALL
 10
5429.673057123673
 20
6608.0666537797
 30
0.0
 41
100.0
 42
100.0
 43
100.0
  0
POINT
  5
18435
330
163A9
100
AcDbEntity
  8
DEFPOINTS
 62
     0
 48
50.0
100
AcDbPoint
 10
5477.673057123677
 20
7168.497424545865
 30
0.0
  0
POINT
  5
18436
330
163A9
100
AcDbEntity
  8
DEFPOINTS
 62
     0
 48
50.0
100
AcDbPoint
 10
5429.673057123673
 20
7142.497424545864
 30
0.0
  0
POINT
  5
18437
330
163A9
100
AcDbEntity
  8
DEFPOINTS
 62
     0
 48
50.0
100
AcDbPoint
 10
5429.673057123673
 20
6608.0666537797
 30
0.0
  0
ENDBLK
  5
1647E
330
163A9
100
AcDbEntity
  8
0
 48
50.0
100
AcDbBlockEnd
  0
BLOCK
  5
1647F
330
163B8
100
AcDbEntity
  8
0
 48
50.0
100
AcDbBlockBegin
  2
*D9
 70
     1
 10
0.0
 20
0.0
 30
0.0
  3
*D9
  1

  0
LINE
  5
19B96
330
163B8
100
AcDbEntity
  8
寸法
 62
     0
 48
50.0
370
    -2
100
AcDbLine
 10
7949.673057123661
 20
7122.497424545952
 30
0.0
 11
7949.673057123661
 21
6548.0666537797
 31
0.0
  0
LINE
  5
19B97
330
163B8
100
AcDbEntity
  8
寸法
 62
     0
 48
50.0
370
    -2
100
AcDbLine
 10
7901.673057123659
 20
7148.497424545865
 30
0.0
 11
7901.673057123659
 21
6548.0666537797
 31
0.0
  0
LINE
  5
19B98
330
163B8
100
AcDbEntity
  8
寸法
 62
     0
 48
50.0
370
    -2
100
AcDbLine
 10
7949.673057123661
 20
6608.0666537797
 30
0.0
 11
8049.67305712366
 21
6608.0666537797
 31
0.0
  0
LINE
  5
19B99
330
163B8
100
AcDbEntity
  8
寸法
 62
     0
 48
50.0
370
    -2
100
AcDbLine
 10
7901.673057123659
 20
6608.0666537797
 30
0.0
 11
7801.673057123659
 21
6608.0666537797
 31
0.0
  0
MTEXT
  5
19B9A
330
163B8
100
AcDbEntity
  8
寸法
 62
     7
 48
50.0
100
AcDbMText
 10
7790.710159474911
 20
6708.0666537797
 30
0.0
 40
120.0
 41
0.0
 71
     5
 72
     1
  1
\A1;48
  7
STYLE1
 73
     1
 44
1.0
1001
ACAD
1000
MTEXTBEGIN
1070
    73
1070
     1
1070
    44
1040
1.0
1070
    74
1070
     0
1000
MTEXTEND
  0
LINE
  5
19B9B
330
163B8
100
AcDbEntity
  8
寸法
 62
     0
 48
50.0
370
    -2
100
AcDbLine
 10
7949.673057123661
 20
6608.0666537797
 30
0.0
 11
7901.673057123659
 21
6608.0666537797
 31
0.0
  0
INSERT
  5
19B9C
330
163B8
100
AcDbEntity
  8
寸法
 62
     0
 48
50.0
370
    -2
100
AcDbBlockReference
  2
_DOTSMALL
 10
7949.673057123661
 20
6608.0666537797
 30
0.0
 41
100.0
 42
100.0
 43
100.0
 50
180.0
  0
INSERT
  5
19B9D
330
163B8
100
AcDbEntity
  8
寸法
 62
     0
 48
50.0
370
    -2
100
AcDbBlockReference
  2
_DOTSMALL
 10
7901.673057123659
 20
6608.0666537797
 30
0.0
 41
100.0
 42
100.0
 43
100.0
  0
POINT
  5
19B9E
330
163B8
100
AcDbEntity
  8
DEFPOINTS
 62
     0
 48
50.0
100
AcDbPoint
 10
7949.673057123661
 20
7142.497424545952
 30
0.0
  0
POINT
  5
19B9F
330
163B8
100
AcDbEntity
  8
DEFPOINTS
 62
     0
 48
50.0
100
AcDbPoint
 10
7901.673057123659
 20
7168.497424545865
 30
0.0
  0
POINT
  5
19BA0
330
163B8
100
AcDbEntity
  8
DEFPOINTS
 62
     0
 48
50.0
100
AcDbPoint
 10
7901.673057123659
 20
6608.0666537797
 30
0.0
  0
ENDBLK
  5
1648C
330
163B8
100
AcDbEntity
  8
0
 48
50.0
100
AcDbBlockEnd
  0
BLOCK
  5
1648D
330
163C7
100
AcDbEntity
  8
0
 48
50.0
100
AcDbBlockBegin
  2
*D10
 70
     1
 10
0.0
 20
0.0
 30
0.0
  3
*D10
  1

  0
LINE
  5
19B8B
330
163C7
100
AcDbEntity
  8
寸法
 62
     0
 48
50.0
370
    -2
100
AcDbLine
 10
8004.673057123659
 20
7122.497424545956
 30
0.0
 11
8004.673057123659
 21
6548.066653779702
 31
0.0
  0
LINE
  5
19B8C
330
163C7
100
AcDbEntity
  8
寸法
 62
     0
 48
50.0
370
    -2
100
AcDbLine
 10
7949.673057123661
 20
7122.497424545952
 30
0.0
 11
7949.673057123661
 21
6548.066653779702
 31
0.0
  0
LINE
  5
19B8D
330
163C7
100
AcDbEntity
  8
寸法
 62
     0
 48
50.0
370
    -2
100
AcDbLine
 10
7949.673057123661
 20
6608.066653779701
 30
0.0
 11
7849.673057123661
 21
6608.066653779701
 31
0.0
  0
LINE
  5
19B8E
330
163C7
100
AcDbEntity
  8
寸法
 62
     0
 48
50.0
370
    -2
100
AcDbLine
 10
8004.673057123659
 20
6608.066653779701
 30
0.0
 11
8421.643619872135
 21
6608.066653779701
 31
0.0
  0
LINE
  5
19B8F
330
163C7
100
AcDbEntity
  8
寸法
 62
     0
 48
50.0
370
    -2
100
AcDbLine
 10
7949.673057123661
 20
6608.066653779701
 30
0.0
 11
8004.673057123659
 21
6608.066653779701
 31
0.0
  0
INSERT
  5
19B90
330
163C7
100
AcDbEntity
  8
寸法
 62
     0
 48
50.0
370
    -2
100
AcDbBlockReference
  2
_DOTSMALL
 10
7949.673057123661
 20
6608.066653779701
 30
0.0
 41
100.0
 42
100.0
 43
100.0
  0
INSERT
  5
19B91
330
163C7
100
AcDbEntity
  8
寸法
 62
     0
 48
50.0
370
    -2
100
AcDbBlockReference
  2
_DOTSMALL
 10
8004.673057123659
 20
6608.066653779701
 30
0.0
 41
100.0
 42
100.0
 43
100.0
 50
180.0
  0
MTEXT
  5
19B92
330
163C7
100
AcDbEntity
  8
寸法
 62
     7
 48
50.0
100
AcDbMText
 10
8313.158338497897
 20
6708.066653779702
 30
0.0
 40
120.0
 41
0.0
 71
     5
 72
     1
  1
\A1;55
  7
STYLE1
 73
     1
 44
1.0
1001
ACAD
1000
MTEXTBEGIN
1070
    73
1070
     1
1070
    44
1040
1.0
1070
    74
1070
     0
1000
MTEXTEND
  0
POINT
  5
19B93
330
163C7
100
AcDbEntity
  8
DEFPOINTS
 62
     0
 48
50.0
100
AcDbPoint
 10
8004.673057123659
 20
7142.497424545957
 30
0.0
  0
POINT
  5
19B94
330
163C7
100
AcDbEntity
  8
DEFPOINTS
 62
     0
 48
50.0
100
AcDbPoint
 10
7949.673057123661
 20
7142.497424545952
 30
0.0
  0
POINT
  5
19B95
330
163C7
100
AcDbEntity
  8
DEFPOINTS
 62
     0
 48
50.0
100
AcDbPoint
 10
7949.673057123661
 20
6608.066653779701
 30
0.0
  0
ENDBLK
  5
16499
330
163C7
100
AcDbEntity
  8
0
 48
50.0
100
AcDbBlockEnd
  0
BLOCK
  5
172A1
330
163E1
100
AcDbEntity
  8
0
 48
50.0
100
AcDbBlockBegin
  2
*D11
 70
     1
 10
0.0
 20
0.0
 30
0.0
  3
*D11
  1

  0
LINE
  5
19C2D
330
163E1
100
AcDbEntity
  8
寸法
 62
     0
 48
50.0
370
    -2
100
AcDbLine
 10
5429.673057123682
 20
9792.497424545869
 30
0.0
 11
5429.673057123682
 21
10048.30564417096
 31
0.0
  0
LINE
  5
19C2E
330
163E1
100
AcDbEntity
  8
寸法
 62
     0
 48
50.0
370
    -2
100
AcDbLine
 10
7949.673057123684
 20
9792.497424545963
 30
0.0
 11
7949.673057123684
 21
10048.30564417096
 31
0.0
  0
LINE
  5
19C2F
330
163E1
100
AcDbEntity
  8
寸法
 62
     0
 48
50.0
370
    -2
100
AcDbLine
 10
5429.673057123682
 20
9988.305644170967
 30
0.0
 11
7949.673057123684
 21
9988.305644170967
 31
0.0
  0
INSERT
  5
19C30
330
163E1
100
AcDbEntity
  8
寸法
 62
     0
 48
50.0
370
    -2
100
AcDbBlockReference
  2
_DOTSMALL
 10
5429.673057123682
 20
9988.305644170967
 30
0.0
 41
100.0
 42
100.0
 43
100.0
 50
180.0
  0
INSERT
  5
19C31
330
163E1
100
AcDbEntity
  8
寸法
 62
     0
 48
50.0
370
    -2
100
AcDbBlockReference
  2
_DOTSMALL
 10
7949.673057123684
 20
9988.305644170967
 30
0.0
 41
100.0
 42
100.0
 43
100.0
  0
MTEXT
  5
19C32
330
163E1
100
AcDbEntity
  8
寸法
 62
     7
 48
50.0
100
AcDbMText
 10
6689.673057123684
 20
10088.31745519459
 30
0.0
 40
120.0
 41
0.0
 71
     5
 72
     1
  1
\A1;6X420=2520
  7
STYLE1
 73
     1
 44
1.0
1001
ACAD
1000
MTEXTBEGIN
1070
    73
1070
     1
1070
    44
1040
1.0
1070
    74
1070
     0
1000
MTEXTEND
  0
POINT
  5
19C33
330
163E1
100
AcDbEntity
  8
DEFPOINTS
 62
     0
 48
50.0
100
AcDbPoint
 10
5429.673057123682
 20
9772.49742454587
 30
0.0
  0
POINT
  5
19C34
330
163E1
100
AcDbEntity
  8
DEFPOINTS
 62
     0
 48
50.0
100
AcDbPoint
 10
7949.673057123684
 20
9772.497424545964
 30
0.0
  0
POINT
  5
19C35
330
163E1
100
AcDbEntity
  8
DEFPOINTS
 62
     0
 48
50.0
100
AcDbPoint
 10
7949.673057123684
 20
9988.305644170967
 30
0.0
  0
ENDBLK
  5
172AB
330
163E1
100
AcDbEntity
  8
0
 48
50.0
100
AcDbBlockEnd
  0
BLOCK
  5
164B0
330
163ED
100
AcDbEntity
  8
0
 48
50.0
100
AcDbBlockBegin
  2
*D12
 70
     1
 10
0.0
 20
0.0
 30
0.0
  3
*D12
  1

  0
LINE
  5
19C00
330
163ED
100
AcDbEntity
  8
寸法
 62
     0
 48
50.0
370
    -2
100
AcDbLine
 10
2744.673057123649
 20
9792.497424545869
 30
0.0
 11
2744.673057123649
 21
10048.30564417085
 31
0.0
  0
LINE
  5
19C01
330
163ED
100
AcDbEntity
  8
寸法
 62
     0
 48
50.0
370
    -2
100
AcDbLine
 10
2799.673057123683
 20
9792.497424545869
 30
0.0
 11
2799.673057123683
 21
10048.30564417085
 31
0.0
  0
LINE
  5
19C02
330
163ED
100
AcDbEntity
  8
寸法
 62
     0
 48
50.0
370
    -2
100
AcDbLine
 10
2799.673057123683
 20
9988.30564417085
 30
0.0
 11
2899.673057123683
 21
9988.30564417085
 31
0.0
  0
LINE
  5
19C03
330
163ED
100
AcDbEntity
  8
寸法
 62
     0
 48
50.0
370
    -2
100
AcDbLine
 10
2744.673057123649
 20
9988.30564417085
 30
0.0
 11
2327.702494375171
 21
9988.30564417085
 31
0.0
  0
LINE
  5
19C04
330
163ED
100
AcDbEntity
  8
寸法
 62
     0
 48
50.0
370
    -2
100
AcDbLine
 10
2799.673057123683
 20
9988.30564417085
 30
0.0
 11
2744.673057123649
 21
9988.30564417085
 31
0.0
  0
INSERT
  5
19C05
330
163ED
100
AcDbEntity
  8
寸法
 62
     0
 48
50.0
370
    -2
100
AcDbBlockReference
  2
_DOTSMALL
 10
2799.673057123683
 20
9988.30564417085
 30
0.0
 41
100.0
 42
100.0
 43
100.0
 50
180.0
  0
INSERT
  5
19C06
330
163ED
100
AcDbEntity
  8
寸法
 62
     0
 48
50.0
370
    -2
100
AcDbBlockReference
  2
_DOTSMALL
 10
2744.673057123649
 20
9988.30564417085
 30
0.0
 41
100.0
 42
100.0
 43
100.0
  0
MTEXT
  5
19C07
330
163ED
100
AcDbEntity
  8
寸法
 62
     7
 48
50.0
100
AcDbMText
 10
2436.18777574941
 20
10088.30564417085
 30
0.0
 40
120.0
 41
0.0
 71
     5
 72
     1
  1
\A1;55
  7
STYLE1
 73
     1
 44
1.0
1001
ACAD
1000
MTEXTBEGIN
1070
    73
1070
     1
1070
    44
1040
1.0
1070
    74
1070
     0
1000
MTEXTEND
  0
POINT
  5
19C08
330
163ED
100
AcDbEntity
  8
DEFPOINTS
 62
     0
 48
50.0
100
AcDbPoint
 10
2744.673057123649
 20
9772.49742454587
 30
0.0
  0
POINT
  5
19C09
330
163ED
100
AcDbEntity
  8
DEFPOINTS
 62
     0
 48
50.0
100
AcDbPoint
 10
2799.673057123683
 20
9772.49742454587
 30
0.0
  0
POINT
  5
19C0A
330
163ED
100
AcDbEntity
  8
DEFPOINTS
 62
     0
 48
50.0
100
AcDbPoint
 10
2799.673057123683
 20
9988.30564417085
 30
0.0
  0
ENDBLK
  5
164BC
330
163ED
100
AcDbEntity
  8
0
 48
50.0
100
AcDbBlockEnd
  0
BLOCK
  5
164BD
330
163FB
100
AcDbEntity
  8
0
 48
50.0
100
AcDbBlockBegin
  2
*D13
 70
     1
 10
0.0
 20
0.0
 30
0.0
  3
*D13
  1

  0
LINE
  5
19B77
330
163FB
100
AcDbEntity
  8
寸法
 62
     0
 48
50.0
370
    -2
100
AcDbLine
 10
7949.673057123684
 20
9792.497424545963
 30
0.0
 11
7949.673057123684
 21
10048.30564417095
 31
0.0
  0
LINE
  5
19B78
330
163FB
100
AcDbEntity
  8
寸法
 62
     0
 48
50.0
370
    -2
100
AcDbLine
 10
8004.673057123683
 20
9792.497424545963
 30
0.0
 11
8004.673057123683
 21
10048.30564417095
 31
0.0
  0
LINE
  5
19B79
330
163FB
100
AcDbEntity
  8
寸法
 62
     0
 48
50.0
370
    -2
100
AcDbLine
 10
7949.673057123684
 20
9988.305644170949
 30
0.0
 11
7849.673057123684
 21
9988.305644170949
 31
0.0
  0
LINE
  5
19B7A
330
163FB
100
AcDbEntity
  8
寸法
 62
     0
 48
50.0
370
    -2
100
AcDbLine
 10
8004.673057123683
 20
9988.305644170949
 30
0.0
 11
8421.643619872162
 21
9988.305644170949
 31
0.0
  0
LINE
  5
19B7B
330
163FB
100
AcDbEntity
  8
寸法
 62
     0
 48
50.0
370
    -2
100
AcDbLine
 10
7949.673057123684
 20
9988.305644170949
 30
0.0
 11
8004.673057123683
 21
9988.305644170949
 31
0.0
  0
INSERT
  5
19B7C
330
163FB
100
AcDbEntity
  8
寸法
 62
     0
 48
50.0
370
    -2
100
AcDbBlockReference
  2
_DOTSMALL
 10
7949.673057123684
 20
9988.305644170949
 30
0.0
 41
100.0
 42
100.0
 43
100.0
  0
INSERT
  5
19B7D
330
163FB
100
AcDbEntity
  8
寸法
 62
     0
 48
50.0
370
    -2
100
AcDbBlockReference
  2
_DOTSMALL
 10
8004.673057123683
 20
9988.305644170949
 30
0.0
 41
100.0
 42
100.0
 43
100.0
 50
180.0
  0
MTEXT
  5
19B7E
330
163FB
100
AcDbEntity
  8
寸法
 62
     7
 48
50.0
100
AcDbMText
 10
8313.158338497922
 20
10088.30564417095
 30
0.0
 40
120.0
 41
0.0
 71
     5
 72
     1
  1
\A1;55
  7
STYLE1
 73
     1
 44
1.0
1001
ACAD
1000
MTEXTBEGIN
1070
    73
1070
     1
1070
    44
1040
1.0
1070
    74
1070
     0
1000
MTEXTEND
  0
POINT
  5
19B7F
330
163FB
100
AcDbEntity
  8
DEFPOINTS
 62
     0
 48
50.0
100
AcDbPoint
 10
7949.673057123684
 20
9772.497424545964
 30
0.0
  0
POINT
  5
19B80
330
163FB
100
AcDbEntity
  8
DEFPOINTS
 62
     0
 48
50.0
100
AcDbPoint
 10
8004.673057123683
 20
9772.497424545964
 30
0.0
  0
POINT
  5
19B81
330
163FB
100
AcDbEntity
  8
DEFPOINTS
 62
     0
 48
50.0
100
AcDbPoint
 10
8004.673057123683
 20
9988.305644170949
 30
0.0
  0
ENDBLK
  5
164C9
330
163FB
100
AcDbEntity
  8
0
 48
50.0
100
AcDbBlockEnd
  0
BLOCK
  5
165B6
330
165B5
100
AcDbEntity
  8
0
 48
50.0
100
AcDbBlockBegin
  2
*D14
 70
     1
 10
0.0
 20
0.0
 30
0.0
  3
*D14
  1

  0
LINE
  5
19BF5
330
165B5
100
AcDbEntity
  8
寸法
 62
     0
 48
50.0
370
    -2
100
AcDbLine
 10
2847.673057123677
 20
7148.497424545865
 30
0.0
 11
2847.673057123677
 21
6548.0666537797
 31
0.0
  0
LINE
  5
19BF6
330
165B5
100
AcDbEntity
  8
寸法
 62
     0
 48
50.0
370
    -2
100
AcDbLine
 10
2799.673057123673
 20
7122.497424545864
 30
0.0
 11
2799.673057123673
 21
6548.0666537797
 31
0.0
  0
LINE
  5
19BF7
330
165B5
100
AcDbEntity
  8
寸法
 62
     0
 48
50.0
370
    -2
100
AcDbLine
 10
2847.673057123677
 20
6608.0666537797
 30
0.0
 11
2947.673057123677
 21
6608.0666537797
 31
0.0
  0
LINE
  5
19BF8
330
165B5
100
AcDbEntity
  8
寸法
 62
     0
 48
50.0
370
    -2
100
AcDbLine
 10
2799.673057123673
 20
6608.0666537797
 30
0.0
 11
2699.673057123674
 21
6608.0666537797
 31
0.0
  0
MTEXT
  5
19BF9
330
165B5
100
AcDbEntity
  8
寸法
 62
     7
 48
50.0
100
AcDbMText
 10
2960.575028123734
 20
6708.0666537797
 30
0.0
 40
120.0
 41
0.0
 71
     5
 72
     1
  1
\A1;48
  7
STYLE1
 73
     1
 44
1.0
1001
ACAD
1000
MTEXTBEGIN
1070
    73
1070
     1
1070
    44
1040
1.0
1070
    74
1070
     0
1000
MTEXTEND
  0
LINE
  5
19BFA
330
165B5
100
AcDbEntity
  8
寸法
 62
     0
 48
50.0
370
    -2
100
AcDbLine
 10
2847.673057123677
 20
6608.0666537797
 30
0.0
 11
2799.673057123673
 21
6608.0666537797
 31
0.0
  0
INSERT
  5
19BFB
330
165B5
100
AcDbEntity
  8
寸法
 62
     0
 48
50.0
370
    -2
100
AcDbBlockReference
  2
_DOTSMALL
 10
2847.673057123677
 20
6608.0666537797
 30
0.0
 41
100.0
 42
100.0
 43
100.0
 50
180.0
  0
INSERT
  5
19BFC
330
165B5
100
AcDbEntity
  8
寸法
 62
     0
 48
50.0
370
    -2
100
AcDbBlockReference
  2
_DOTSMALL
 10
2799.673057123673
 20
6608.0666537797
 30
0.0
 41
100.0
 42
100.0
 43
100.0
  0
POINT
  5
19BFD
330
165B5
100
AcDbEntity
  8
DEFPOINTS
 62
     0
 48
50.0
100
AcDbPoint
 10
2847.673057123677
 20
7168.497424545865
 30
0.0
  0
POINT
  5
19BFE
330
165B5
100
AcDbEntity
  8
DEFPOINTS
 62
     0
 48
50.0
100
AcDbPoint
 10
2799.673057123673
 20
7142.497424545864
 30
0.0
  0
POINT
  5
19BFF
330
165B5
100
AcDbEntity
  8
DEFPOINTS
 62
     0
 48
50.0
100
AcDbPoint
 10
2799.673057123673
 20
6608.0666537797
 30
0.0
  0
ENDBLK
  5
165C3
330
165B5
100
AcDbEntity
  8
0
 48
50.0
100
AcDbBlockEnd
  0
BLOCK
  5
165C5
330
165C4
100
AcDbEntity
  8
0
 48
50.0
100
AcDbBlockBegin
  2
*D15
 70
     1
 10
0.0
 20
0.0
 30
0.0
  3
*D15
  1

  0
LINE
  5
183ED
330
165C4
100
AcDbEntity
  8
寸法
 62
     0
 48
50.0
370
    -2
100
AcDbLine
 10
5319.673057123661
 20
7122.497424545952
 30
0.0
 11
5319.673057123661
 21
6548.0666537797
 31
0.0
  0
LINE
  5
183EE
330
165C4
100
AcDbEntity
  8
寸法
 62
     0
 48
50.0
370
    -2
100
AcDbLine
 10
5271.673057123659
 20
7148.497424545865
 30
0.0
 11
5271.673057123659
 21
6548.0666537797
 31
0.0
  0
LINE
  5
183EF
330
165C4
100
AcDbEntity
  8
寸法
 62
     0
 48
50.0
370
    -2
100
AcDbLine
 10
5319.673057123661
 20
6608.0666537797
 30
0.0
 11
5419.67305712366
 21
6608.0666537797
 31
0.0
  0
LINE
  5
183F0
330
165C4
100
AcDbEntity
  8
寸法
 62
     0
 48
50.0
370
    -2
100
AcDbLine
 10
5271.673057123659
 20
6608.0666537797
 30
0.0
 11
5171.673057123658
 21
6608.0666537797
 31
0.0
  0
MTEXT
  5
183F1
330
165C4
100
AcDbEntity
  8
寸法
 62
     7
 48
50.0
100
AcDbMText
 10
5160.710159474911
 20
6708.0666537797
 30
0.0
 40
120.0
 41
0.0
 71
     5
 72
     1
  1
\A1;48
  7
STYLE1
 73
     1
 44
1.0
1001
ACAD
1000
MTEXTBEGIN
1070
    73
1070
     1
1070
    44
1040
1.0
1070
    74
1070
     0
1000
MTEXTEND
  0
LINE
  5
183F2
330
165C4
100
AcDbEntity
  8
寸法
 62
     0
 48
50.0
370
    -2
100
AcDbLine
 10
5319.673057123661
 20
6608.0666537797
 30
0.0
 11
5271.673057123659
 21
6608.0666537797
 31
0.0
  0
INSERT
  5
183F3
330
165C4
100
AcDbEntity
  8
寸法
 62
     0
 48
50.0
370
    -2
100
AcDbBlockReference
  2
_DOTSMALL
 10
5319.673057123661
 20
6608.0666537797
 30
0.0
 41
100.0
 42
100.0
 43
100.0
 50
180.0
  0
INSERT
  5
183F4
330
165C4
100
AcDbEntity
  8
寸法
 62
     0
 48
50.0
370
    -2
100
AcDbBlockReference
  2
_DOTSMALL
 10
5271.673057123659
 20
6608.0666537797
 30
0.0
 41
100.0
 42
100.0
 43
100.0
  0
POINT
  5
183F5
330
165C4
100
AcDbEntity
  8
DEFPOINTS
 62
     0
 48
50.0
100
AcDbPoint
 10
5319.673057123661
 20
7142.497424545952
 30
0.0
  0
POINT
  5
183F6
330
165C4
100
AcDbEntity
  8
DEFPOINTS
 62
     0
 48
50.0
100
AcDbPoint
 10
5271.673057123659
 20
7168.497424545865
 30
0.0
  0
POINT
  5
183F7
330
165C4
100
AcDbEntity
  8
DEFPOINTS
 62
     0
 48
50.0
100
AcDbPoint
 10
5271.673057123659
 20
6608.0666537797
 30
0.0
  0
ENDBLK
  5
165D2
330
165C4
100
AcDbEntity
  8
0
 48
50.0
100
AcDbBlockEnd
  0
BLOCK
  5
1663F
330
165EA
100
AcDbEntity
  8
0
 48
50.0
100
AcDbBlockBegin
  2
*D16
 70
     1
 10
0.0
 20
0.0
 30
0.0
  3
*D16
  1

  0
LINE
  5
183D9
330
165EA
100
AcDbEntity
  8
寸法
 62
     0
 48
50.0
370
    -2
100
AcDbLine
 10
5429.673057123673
 20
7122.497424545864
 30
0.0
 11
5429.673057123673
 21
6548.066653779702
 31
0.0
  0
LINE
  5
183DA
330
165EA
100
AcDbEntity
  8
寸法
 62
     0
 48
50.0
370
    -2
100
AcDbLine
 10
5319.673057123661
 20
7122.497424545952
 30
0.0
 11
5319.673057123661
 21
6548.066653779702
 31
0.0
  0
LINE
  5
183DB
330
165EA
100
AcDbEntity
  8
寸法
 62
     0
 48
50.0
370
    -2
100
AcDbLine
 10
5429.673057123673
 20
6608.066653779701
 30
0.0
 11
5319.673057123661
 21
6608.066653779701
 31
0.0
  0
MTEXT
  5
183DC
330
165EA
100
AcDbEntity
  8
寸法
 62
     7
 48
50.0
100
AcDbMText
 10
5374.673057123667
 20
6456.37475874347
 30
0.0
 40
120.0
 41
0.0
 71
     5
 72
     1
  1
\A1;110
  7
STYLE1
 73
     1
 44
1.0
1001
ACAD
1000
MTEXTBEGIN
1070
    73
1070
     1
1070
    44
1040
1.0
1070
    74
1070
     0
1000
MTEXTEND
  0
INSERT
  5
183DD
330
165EA
100
AcDbEntity
  8
寸法
 62
     0
 48
50.0
370
    -2
100
AcDbBlockReference
  2
_DOTSMALL
 10
5429.673057123673
 20
6608.066653779701
 30
0.0
 41
100.0
 42
100.0
 43
100.0
  0
INSERT
  5
183DE
330
165EA
100
AcDbEntity
  8
寸法
 62
     0
 48
50.0
370
    -2
100
AcDbBlockReference
  2
_DOTSMALL
 10
5319.673057123661
 20
6608.066653779701
 30
0.0
 41
100.0
 42
100.0
 43
100.0
 50
180.0
  0
POINT
  5
183DF
330
165EA
100
AcDbEntity
  8
DEFPOINTS
 62
     0
 48
50.0
100
AcDbPoint
 10
5429.673057123673
 20
7142.497424545864
 30
0.0
  0
POINT
  5
183E0
330
165EA
100
AcDbEntity
  8
DEFPOINTS
 62
     0
 48
50.0
100
AcDbPoint
 10
5319.673057123661
 20
7142.497424545952
 30
0.0
  0
POINT
  5
183E1
330
165EA
100
AcDbEntity
  8
DEFPOINTS
 62
     0
 48
50.0
100
AcDbPoint
 10
5319.673057123661
 20
6608.066653779701
 30
0.0
  0
ENDBLK
  5
16649
330
165EA
100
AcDbEntity
  8
0
 48
50.0
100
AcDbBlockEnd
  0
BLOCK
  5
166D0
330
166CF
100
AcDbEntity
  8
0
 48
50.0
100
AcDbBlockBegin
  2
*D17
 70
     1
 10
0.0
 20
0.0
 30
0.0
  3
*D17
  1

  0
LINE
  5
183CE
330
166CF
100
AcDbEntity
  8
寸法
 62
     0
 48
50.0
370
    -2
100
AcDbLine
 10
5429.673057123682
 20
9792.497424545919
 30
0.0
 11
5429.673057123682
 21
10048.30564417096
 31
0.0
  0
LINE
  5
183CF
330
166CF
100
AcDbEntity
  8
寸法
 62
     0
 48
50.0
370
    -2
100
AcDbLine
 10
5319.673057123684
 20
9792.497424545913
 30
0.0
 11
5319.673057123684
 21
10048.30564417096
 31
0.0
  0
LINE
  5
183D0
330
166CF
100
AcDbEntity
  8
寸法
 62
     0
 48
50.0
370
    -2
100
AcDbLine
 10
5429.673057123682
 20
9988.305644170967
 30
0.0
 11
5529.673057123683
 21
9988.305644170967
 31
0.0
  0
LINE
  5
183D1
330
166CF
100
AcDbEntity
  8
寸法
 62
     0
 48
50.0
370
    -2
100
AcDbLine
 10
5319.673057123684
 20
9988.305644170967
 30
0.0
 11
5219.673057123684
 21
9988.305644170967
 31
0.0
  0
LINE
  5
183D2
330
166CF
100
AcDbEntity
  8
寸法
 62
     0
 48
50.0
370
    -2
100
AcDbLine
 10
5429.673057123682
 20
9988.305644170967
 30
0.0
 11
5319.673057123684
 21
9988.305644170967
 31
0.0
  0
INSERT
  5
183D3
330
166CF
100
AcDbEntity
  8
寸法
 62
     0
 48
50.0
370
    -2
100
AcDbBlockReference
  2
_DOTSMALL
 10
5429.673057123682
 20
9988.305644170967
 30
0.0
 41
100.0
 42
100.0
 43
100.0
 50
180.0
  0
INSERT
  5
183D4
330
166CF
100
AcDbEntity
  8
寸法
 62
     0
 48
50.0
370
    -2
100
AcDbBlockReference
  2
_DOTSMALL
 10
5319.673057123684
 20
9988.305644170967
 30
0.0
 41
100.0
 42
100.0
 43
100.0
  0
MTEXT
  5
183D5
330
166CF
100
AcDbEntity
  8
寸法
 62
     7
 48
50.0
100
AcDbMText
 10
5374.673057123684
 20
10088.30564417096
 30
0.0
 40
120.0
 41
0.0
 71
     5
 72
     1
  1
\A1;110
  7
STYLE1
 73
     1
 44
1.0
1001
ACAD
1000
MTEXTBEGIN
1070
    73
1070
     1
1070
    44
1040
1.0
1070
    74
1070
     0
1000
MTEXTEND
  0
POINT
  5
183D6
330
166CF
100
AcDbEntity
  8
DEFPOINTS
 62
     0
 48
50.0
100
AcDbPoint
 10
5429.673057123682
 20
9772.497424545917
 30
0.0
  0
POINT
  5
183D7
330
166CF
100
AcDbEntity
  8
DEFPOINTS
 62
     0
 48
50.0
100
AcDbPoint
 10
5319.673057123684
 20
9772.497424545916
 30
0.0
  0
POINT
  5
183D8
330
166CF
100
AcDbEntity
  8
DEFPOINTS
 62
     0
 48
50.0
100
AcDbPoint
 10
5319.673057123684
 20
9988.305644170967
 30
0.0
  0
ENDBLK
  5
166DC
330
166CF
100
AcDbEntity
  8
0
 48
50.0
100
AcDbBlockEnd
  0
BLOCK
  5
1726C
330
16908
100
AcDbEntity
  8
0
 48
50.0
100
AcDbBlockBegin
  2
*D18
 70
     1
 10
0.0
 20
0.0
 30
0.0
  3
*D18
  1

  0
LINE
  5
19B6F
330
16908
100
AcDbEntity
  8
寸法
 62
     0
 48
50.0
370
    -2
100
AcDbLine
 10
8004.673057123683
 20
9792.497424545963
 30
0.0
 11
8004.673057123683
 21
10297.62711772726
 31
0.0
  0
LINE
  5
19B70
330
16908
100
AcDbEntity
  8
寸法
 62
     0
 48
50.0
370
    -2
100
AcDbLine
 10
5374.673057123684
 20
10237.62711772726
 30
0.0
 11
8004.673057123683
 21
10237.62711772726
 31
0.0
  0
INSERT
  5
19B71
330
16908
100
AcDbEntity
  8
寸法
 62
     0
 48
50.0
370
    -2
100
AcDbBlockReference
  2
_DOTSMALL
 10
5374.673057123684
 20
10237.62711772726
 30
0.0
 41
100.0
 42
100.0
 43
100.0
 50
180.0
  0
INSERT
  5
19B72
330
16908
100
AcDbEntity
  8
寸法
 62
     0
 48
50.0
370
    -2
100
AcDbBlockReference
  2
_DOTSMALL
 10
8004.673057123683
 20
10237.62711772726
 30
0.0
 41
100.0
 42
100.0
 43
100.0
  0
MTEXT
  5
19B73
330
16908
100
AcDbEntity
  8
寸法
 62
     7
 48
50.0
100
AcDbMText
 10
6689.673057123684
 20
10337.63892875088
 30
0.0
 40
120.0
 41
0.0
 71
     5
 72
     1
  1
\A1;2630
  7
STYLE1
 73
     1
 44
1.0
1001
ACAD
1000
MTEXTBEGIN
1070
    73
1070
     1
1070
    44
1040
1.0
1070
    74
1070
     0
1000
MTEXTEND
  0
POINT
  5
19B74
330
16908
100
AcDbEntity
  8
DEFPOINTS
 62
     0
 48
50.0
100
AcDbPoint
 10
5374.673057123684
 20
10147.29355852891
 30
0.0
  0
POINT
  5
19B75
330
16908
100
AcDbEntity
  8
DEFPOINTS
 62
     0
 48
50.0
100
AcDbPoint
 10
8004.673057123683
 20
9772.497424545964
 30
0.0
  0
POINT
  5
19B76
330
16908
100
AcDbEntity
  8
DEFPOINTS
 62
     0
 48
50.0
100
AcDbPoint
 10
8004.673057123683
 20
10237.62711772726
 30
0.0
  0
ENDBLK
  5
17275
330
16908
100
AcDbEntity
  8
0
 48
50.0
100
AcDbBlockEnd
  0
BLOCK
  5
17BDC
330
17BD3
100
AcDbEntity
  8
0
 48
50.0
100
AcDbBlockBegin
  2
*D19
 70
     1
 10
0.0
 20
0.0
 30
0.0
  3
*D19
  1

  0
LINE
  5
19BDB
330
17BD3
100
AcDbEntity
  8
寸法
 62
     0
 48
50.0
370
    -2
100
AcDbLine
 10
2847.673057123677
 20
7148.497424545865
 30
0.0
 11
2847.673057123677
 21
6548.0666537797
 31
0.0
  0
LINE
  5
19BDC
330
17BD3
100
AcDbEntity
  8
寸法
 62
     0
 48
50.0
370
    -2
100
AcDbLine
 10
5271.673057123659
 20
6608.0666537797
 30
0.0
 11
2847.673057123677
 21
6608.0666537797
 31
0.0
  0
INSERT
  5
19BDD
330
17BD3
100
AcDbEntity
  8
寸法
 62
     0
 48
50.0
370
    -2
100
AcDbBlockReference
  2
_DOTSMALL
 10
5271.673057123659
 20
6608.0666537797
 30
0.0
 41
100.0
 42
100.0
 43
100.0
  0
INSERT
  5
19BDE
330
17BD3
100
AcDbEntity
  8
寸法
 62
     0
 48
50.0
370
    -2
100
AcDbBlockReference
  2
_DOTSMALL
 10
2847.673057123677
 20
6608.0666537797
 30
0.0
 41
100.0
 42
100.0
 43
100.0
 50
180.0
  0
MTEXT
  5
19BDF
330
17BD3
100
AcDbEntity
  8
寸法
 62
     7
 48
50.0
100
AcDbMText
 10
4059.673057123667
 20
6708.078464803323
 30
0.0
 40
120.0
 41
0.0
 71
     5
 72
     1
  1
\A1;有効開口部間口 2424
  7
STYLE1
 73
     1
 44
1.0
1001
ACAD
1000
MTEXTBEGIN
1070
    73
1070
     1
1070
    44
1040
1.0
1070
    74
1070
     0
1000
MTEXTEND
  0
POINT
  5
19BE0
330
17BD3
100
AcDbEntity
  8
DEFPOINTS
 62
     0
 48
50.0
100
AcDbPoint
 10
5271.673057123659
 20
7168.497424545865
 30
0.0
  0
POINT
  5
19BE1
330
17BD3
100
AcDbEntity
  8
DEFPOINTS
 62
     0
 48
50.0
100
AcDbPoint
 10
2847.673057123677
 20
7168.497424545865
 30
0.0
  0
POINT
  5
19BE2
330
17BD3
100
AcDbEntity
  8
DEFPOINTS
 62
     0
 48
50.0
100
AcDbPoint
 10
2847.673057123677
 20
6608.0666537797
 30
0.0
  0
ENDBLK
  5
17BDD
330
17BD3
100
AcDbEntity
  8
0
 48
50.0
100
AcDbBlockEnd
  0
BLOCK
  5
17BE8
330
17BDE
100
AcDbEntity
  8
0
 48
50.0
100
AcDbBlockBegin
  2
*D20
 70
     1
 10
0.0
 20
0.0
 30
0.0
  3
*D20
  1

  0
LINE
  5
19C24
330
17BDE
100
AcDbEntity
  8
寸法
 62
     0
 48
50.0
370
    -2
100
AcDbLine
 10
2799.673057123683
 20
9792.497424545869
 30
0.0
 11
2799.673057123683
 21
10048.30564417096
 31
0.0
  0
LINE
  5
19C25
330
17BDE
100
AcDbEntity
  8
寸法
 62
     0
 48
50.0
370
    -2
100
AcDbLine
 10
5319.673057123684
 20
9792.497424545963
 30
0.0
 11
5319.673057123684
 21
10048.30564417096
 31
0.0
  0
LINE
  5
19C26
330
17BDE
100
AcDbEntity
  8
寸法
 62
     0
 48
50.0
370
    -2
100
AcDbLine
 10
2799.673057123683
 20
9988.305644170967
 30
0.0
 11
5319.673057123684
 21
9988.305644170967
 31
0.0
  0
INSERT
  5
19C27
330
17BDE
100
AcDbEntity
  8
寸法
 62
     0
 48
50.0
370
    -2
100
AcDbBlockReference
  2
_DOTSMALL
 10
2799.673057123683
 20
9988.305644170967
 30
0.0
 41
100.0
 42
100.0
 43
100.0
 50
180.0
  0
INSERT
  5
19C28
330
17BDE
100
AcDbEntity
  8
寸法
 62
     0
 48
50.0
370
    -2
100
AcDbBlockReference
  2
_DOTSMALL
 10
5319.673057123684
 20
9988.305644170967
 30
0.0
 41
100.0
 42
100.0
 43
100.0
  0
MTEXT
  5
19C29
330
17BDE
100
AcDbEntity
  8
寸法
 62
     7
 48
50.0
100
AcDbMText
 10
4059.673057123683
 20
10088.31745519459
 30
0.0
 40
120.0
 41
0.0
 71
     5
 72
     1
  1
\A1;6X420=2520
  7
STYLE1
 73
     1
 44
1.0
1001
ACAD
1000
MTEXTBEGIN
1070
    73
1070
     1
1070
    44
1040
1.0
1070
    74
1070
     0
1000
MTEXTEND
  0
POINT
  5
19C2A
330
17BDE
100
AcDbEntity
  8
DEFPOINTS
 62
     0
 48
50.0
100
AcDbPoint
 10
2799.673057123683
 20
9772.49742454587
 30
0.0
  0
POINT
  5
19C2B
330
17BDE
100
AcDbEntity
  8
DEFPOINTS
 62
     0
 48
50.0
100
AcDbPoint
 10
5319.673057123684
 20
9772.497424545964
 30
0.0
  0
POINT
  5
19C2C
330
17BDE
100
AcDbEntity
  8
DEFPOINTS
 62
     0
 48
50.0
100
AcDbPoint
 10
5319.673057123684
 20
9988.305644170967
 30
0.0
  0
ENDBLK
  5
17BE9
330
17BDE
100
AcDbEntity
  8
0
 48
50.0
100
AcDbBlockEnd
  0
BLOCK
  5
17C02
330
17BF8
100
AcDbEntity
  8
0
 48
50.0
100
AcDbBlockBegin
  2
*D21
 70
     1
 10
0.0
 20
0.0
 30
0.0
  3
*D21
  1

  0
LINE
  5
19BEC
330
17BF8
100
AcDbEntity
  8
寸法
 62
     0
 48
50.0
370
    -2
100
AcDbLine
 10
2744.673057123649
 20
9792.497424545835
 30
0.0
 11
2744.673057123649
 21
10297.62711772726
 31
0.0
  0
LINE
  5
19BED
330
17BF8
100
AcDbEntity
  8
寸法
 62
     0
 48
50.0
370
    -2
100
AcDbLine
 10
5374.673057123684
 20
10167.29355852891
 30
0.0
 11
5374.673057123684
 21
10297.62711772726
 31
0.0
  0
LINE
  5
19BEE
330
17BF8
100
AcDbEntity
  8
寸法
 62
     0
 48
50.0
370
    -2
100
AcDbLine
 10
2744.673057123649
 20
10237.62711772726
 30
0.0
 11
5374.673057123684
 21
10237.62711772726
 31
0.0
  0
INSERT
  5
19BEF
330
17BF8
100
AcDbEntity
  8
寸法
 62
     0
 48
50.0
370
    -2
100
AcDbBlockReference
  2
_DOTSMALL
 10
2744.673057123649
 20
10237.62711772726
 30
0.0
 41
100.0
 42
100.0
 43
100.0
 50
180.0
  0
INSERT
  5
19BF0
330
17BF8
100
AcDbEntity
  8
寸法
 62
     0
 48
50.0
370
    -2
100
AcDbBlockReference
  2
_DOTSMALL
 10
5374.673057123684
 20
10237.62711772726
 30
0.0
 41
100.0
 42
100.0
 43
100.0
  0
MTEXT
  5
19BF1
330
17BF8
100
AcDbEntity
  8
寸法
 62
     7
 48
50.0
100
AcDbMText
 10
4059.673057123666
 20
10337.63892875088
 30
0.0
 40
120.0
 41
0.0
 71
     5
 72
     1
  1
\A1;2630
  7
STYLE1
 73
     1
 44
1.0
1001
ACAD
1000
MTEXTBEGIN
1070
    73
1070
     1
1070
    44
1040
1.0
1070
    74
1070
     0
1000
MTEXTEND
  0
POINT
  5
19BF2
330
17BF8
100
AcDbEntity
  8
DEFPOINTS
 62
     0
 48
50.0
100
AcDbPoint
 10
2744.673057123649
 20
9772.497424545838
 30
0.0
  0
POINT
  5
19BF3
330
17BF8
100
AcDbEntity
  8
DEFPOINTS
 62
     0
 48
50.0
100
AcDbPoint
 10
5374.673057123684
 20
10147.29355852891
 30
0.0
  0
POINT
  5
19BF4
330
17BF8
100
AcDbEntity
  8
DEFPOINTS
 62
     0
 48
50.0
100
AcDbPoint
 10
5374.673057123684
 20
10237.62711772726
 30
0.0
  0
ENDBLK
  5
17C03
330
17BF8
100
AcDbEntity
  8
0
 48
50.0
100
AcDbBlockEnd
  0
BLOCK
  5
18B02
330
18AF8
100
AcDbEntity
  8
0
 48
50.0
100
AcDbBlockBegin
  2
*D22
 70
     1
 10
0.0
 20
0.0
 30
0.0
  3
*D22
  1

  0
LINE
  5
19B0E
330
18AF8
100
AcDbEntity
  8
寸法
 62
     0
 48
50.0
370
    -2
100
AcDbLine
 10
10611.8498305133
 20
4001.270620748136
 30
0.0
 11
9728.099701330041
 21
4001.270620748136
 31
0.0
  0
LINE
  5
19B0F
330
18AF8
100
AcDbEntity
  8
寸法
 62
     0
 48
50.0
370
    -2
100
AcDbLine
 10
10611.8498305133
 20
2211.270620748134
 30
0.0
 11
9728.099701330041
 21
2211.270620748134
 31
0.0
  0
LINE
  5
19B10
330
18AF8
100
AcDbEntity
  8
寸法
 62
     0
 48
50.0
370
    -2
100
AcDbLine
 10
9788.09970133004
 20
4001.270620748136
 30
0.0
 11
9788.09970133004
 21
2211.270620748134
 31
0.0
  0
INSERT
  5
19B11
330
18AF8
100
AcDbEntity
  8
寸法
 62
     0
 48
50.0
370
    -2
100
AcDbBlockReference
  2
_DOTSMALL
 10
9788.09970133004
 20
4001.270620748136
 30
0.0
 41
100.0
 42
100.0
 43
100.0
 50
90.0
  0
INSERT
  5
19B12
330
18AF8
100
AcDbEntity
  8
寸法
 62
     0
 48
50.0
370
    -2
100
AcDbBlockReference
  2
_DOTSMALL
 10
9788.09970133004
 20
2211.270620748134
 30
0.0
 41
100.0
 42
100.0
 43
100.0
 50
270.0
  0
MTEXT
  5
19B13
330
18AF8
100
AcDbEntity
  8
寸法
 62
     7
 48
50.0
100
AcDbMText
 10
9688.09970133004
 20
3106.270620748137
 30
0.0
 40
120.0
 41
0.0
 71
     5
 72
     1
  1
\A1;1790
  7
STYLE1
 11
0.0000000000000001
 21
1.0
 31
0.0
 73
     1
 44
1.0
1001
ACAD
1000
MTEXTBEGIN
1070
    73
1070
     1
1070
    44
1040
1.0
1070
    74
1070
     0
1000
MTEXTEND
  0
POINT
  5
19B14
330
18AF8
100
AcDbEntity
  8
DEFPOINTS
 62
     0
 48
50.0
100
AcDbPoint
 10
10631.8498305133
 20
4001.270620748136
 30
0.0
  0
POINT
  5
19B15
330
18AF8
100
AcDbEntity
  8
DEFPOINTS
 62
     0
 48
50.0
100
AcDbPoint
 10
10631.8498305133
 20
2211.270620748134
 30
0.0
  0
POINT
  5
19B16
330
18AF8
100
AcDbEntity
  8
DEFPOINTS
 62
     0
 48
50.0
100
AcDbPoint
 10
9788.09970133004
 20
2211.270620748134
 30
0.0
  0
ENDBLK
  5
18B03
330
18AF8
100
AcDbEntity
  8
0
 48
50.0
100
AcDbBlockEnd
  0
BLOCK
  5
18B0E
330
18B04
100
AcDbEntity
  8
0
 48
50.0
100
AcDbBlockBegin
  2
*D23
 70
     1
 10
0.0
 20
0.0
 30
0.0
  3
*D23
  1

  0
LINE
  5
19B05
330
18B04
100
AcDbEntity
  8
寸法
 62
     0
 48
50.0
370
    -2
100
AcDbLine
 10
10611.8498305133
 20
2161.270620748134
 30
0.0
 11
9428.099701330038
 21
2161.270620748134
 31
0.0
  0
LINE
  5
19B06
330
18B04
100
AcDbEntity
  8
寸法
 62
     0
 48
50.0
370
    -2
100
AcDbLine
 10
10551.8498305133
 20
4236.270620748139
 30
0.0
 11
9428.09970133004
 21
4236.270620748141
 31
0.0
  0
LINE
  5
19B07
330
18B04
100
AcDbEntity
  8
寸法
 62
     0
 48
50.0
370
    -2
100
AcDbLine
 10
9488.099701330039
 20
2161.270620748134
 30
0.0
 11
9488.099701330041
 21
4236.270620748141
 31
0.0
  0
INSERT
  5
19B08
330
18B04
100
AcDbEntity
  8
寸法
 62
     0
 48
50.0
370
    -2
100
AcDbBlockReference
  2
_DOTSMALL
 10
9488.099701330039
 20
2161.270620748134
 30
0.0
 41
100.0
 42
100.0
 43
100.0
 50
270.0
  0
INSERT
  5
19B09
330
18B04
100
AcDbEntity
  8
寸法
 62
     0
 48
50.0
370
    -2
100
AcDbBlockReference
  2
_DOTSMALL
 10
9488.099701330041
 20
4236.270620748141
 30
0.0
 41
100.0
 42
100.0
 43
100.0
 50
90.0
  0
MTEXT
  5
19B0A
330
18B04
100
AcDbEntity
  8
寸法
 62
     7
 48
50.0
100
AcDbMText
 10
9388.087890306417
 20
3198.770620748139
 30
0.0
 40
120.0
 41
0.0
 71
     5
 72
     1
  1
\A1;2075
  7
STYLE1
 11
0.0000000000000001
 21
1.0
 31
0.0
 73
     1
 44
1.0
1001
ACAD
1000
MTEXTBEGIN
1070
    73
1070
     1
1070
    44
1040
1.0
1070
    74
1070
     0
1000
MTEXTEND
  0
POINT
  5
19B0B
330
18B04
100
AcDbEntity
  8
DEFPOINTS
 62
     0
 48
50.0
100
AcDbPoint
 10
10631.8498305133
 20
2161.270620748134
 30
0.0
  0
POINT
  5
19B0C
330
18B04
100
AcDbEntity
  8
DEFPOINTS
 62
     0
 48
50.0
100
AcDbPoint
 10
10571.8498305133
 20
4236.270620748139
 30
0.0
  0
POINT
  5
19B0D
330
18B04
100
AcDbEntity
  8
DEFPOINTS
 62
     0
 48
50.0
100
AcDbPoint
 10
9488.099701330041
 20
4236.270620748141
 30
0.0
  0
ENDBLK
  5
18B0F
330
18B04
100
AcDbEntity
  8
0
 48
50.0
100
AcDbBlockEnd
  0
BLOCK
  5
18B1A
330
18B10
100
AcDbEntity
  8
0
 48
50.0
100
AcDbBlockBegin
  2
*D24
 70
     1
 10
0.0
 20
0.0
 30
0.0
  3
*D24
  1

  0
LINE
  5
19AFC
330
18B10
100
AcDbEntity
  8
寸法
 62
     0
 48
50.0
370
    -2
100
AcDbLine
 10
13281.8498305133
 20
2161.270620748142
 30
0.0
 11
14026.77698848543
 21
2161.270620748141
 31
0.0
  0
LINE
  5
19AFD
330
18B10
100
AcDbEntity
  8
寸法
 62
     0
 48
50.0
370
    -2
100
AcDbLine
 10
13361.8498305133
 20
4181.270620748142
 30
0.0
 11
14026.77698848543
 21
4181.270620748142
 31
0.0
  0
LINE
  5
19AFE
330
18B10
100
AcDbEntity
  8
寸法
 62
     0
 48
50.0
370
    -2
100
AcDbLine
 10
13966.77698848543
 20
2161.270620748141
 30
0.0
 11
13966.77698848543
 21
4181.270620748142
 31
0.0
  0
INSERT
  5
19AFF
330
18B10
100
AcDbEntity
  8
寸法
 62
     0
 48
50.0
370
    -2
100
AcDbBlockReference
  2
_DOTSMALL
 10
13966.77698848543
 20
2161.270620748141
 30
0.0
 41
100.0
 42
100.0
 43
100.0
 50
270.0
  0
INSERT
  5
19B00
330
18B10
100
AcDbEntity
  8
寸法
 62
     0
 48
50.0
370
    -2
100
AcDbBlockReference
  2
_DOTSMALL
 10
13966.77698848543
 20
4181.270620748142
 30
0.0
 41
100.0
 42
100.0
 43
100.0
 50
90.0
  0
MTEXT
  5
19B01
330
18B10
100
AcDbEntity
  8
寸法
 62
     7
 48
50.0
100
AcDbMText
 10
13866.76517746181
 20
3171.270620748144
 30
0.0
 40
120.0
 41
0.0
 71
     5
 72
     1
  1
\A1;2020
  7
STYLE1
 11
0.0000000000000001
 21
1.0
 31
0.0
 73
     1
 44
1.0
1001
ACAD
1000
MTEXTBEGIN
1070
    73
1070
     1
1070
    44
1040
1.0
1070
    74
1070
     0
1000
MTEXTEND
  0
POINT
  5
19B02
330
18B10
100
AcDbEntity
  8
DEFPOINTS
 62
     0
 48
50.0
100
AcDbPoint
 10
13261.8498305133
 20
2161.270620748142
 30
0.0
  0
POINT
  5
19B03
330
18B10
100
AcDbEntity
  8
DEFPOINTS
 62
     0
 48
50.0
100
AcDbPoint
 10
13341.8498305133
 20
4181.270620748142
 30
0.0
  0
POINT
  5
19B04
330
18B10
100
AcDbEntity
  8
DEFPOINTS
 62
     0
 48
50.0
100
AcDbPoint
 10
13966.77698848543
 20
4181.270620748142
 30
0.0
  0
ENDBLK
  5
18B1B
330
18B10
100
AcDbEntity
  8
0
 48
50.0
100
AcDbBlockEnd
  0
BLOCK
  5
18B28
330
18B1C
100
AcDbEntity
  8
0
 48
50.0
100
AcDbBlockBegin
  2
*D25
 70
     1
 10
0.0
 20
0.0
 30
0.0
  3
*D25
  1

  0
LINE
  5
19AF1
330
18B1C
100
AcDbEntity
  8
寸法
 62
     0
 48
50.0
370
    -2
100
AcDbLine
 10
10611.8498305133
 20
2211.27062074814
 30
0.0
 11
9728.099701330041
 21
2211.27062074814
 31
0.0
  0
LINE
  5
19AF2
330
18B1C
100
AcDbEntity
  8
寸法
 62
     0
 48
50.0
370
    -2
100
AcDbLine
 10
10556.8498305133
 20
2161.27062074814
 30
0.0
 11
9728.099701330041
 21
2161.27062074814
 31
0.0
  0
LINE
  5
19AF3
330
18B1C
100
AcDbEntity
  8
寸法
 62
     0
 48
50.0
370
    -2
100
AcDbLine
 10
9788.09970133004
 20
2211.27062074814
 30
0.0
 11
9788.09970133004
 21
2311.27062074814
 31
0.0
  0
LINE
  5
19AF4
330
18B1C
100
AcDbEntity
  8
寸法
 62
     0
 48
50.0
370
    -2
100
AcDbLine
 10
9788.09970133004
 20
2161.27062074814
 30
0.0
 11
9788.09970133004
 21
1749.17613255916
 31
0.0
  0
LINE
  5
19AF5
330
18B1C
100
AcDbEntity
  8
寸法
 62
     0
 48
50.0
370
    -2
100
AcDbLine
 10
9788.09970133004
 20
2211.27062074814
 30
0.0
 11
9788.09970133004
 21
2161.27062074814
 31
0.0
  0
INSERT
  5
19AF6
330
18B1C
100
AcDbEntity
  8
寸法
 62
     0
 48
50.0
370
    -2
100
AcDbBlockReference
  2
_DOTSMALL
 10
9788.09970133004
 20
2211.27062074814
 30
0.0
 41
100.0
 42
100.0
 43
100.0
 50
270.0
  0
INSERT
  5
19AF7
330
18B1C
100
AcDbEntity
  8
寸法
 62
     0
 48
50.0
370
    -2
100
AcDbBlockReference
  2
_DOTSMALL
 10
9788.09970133004
 20
2161.27062074814
 30
0.0
 41
100.0
 42
100.0
 43
100.0
 50
90.0
  0
MTEXT
  5
19AF8
330
18B1C
100
AcDbEntity
  8
寸法
 62
     7
 48
50.0
100
AcDbMText
 10
9688.09970133004
 20
1855.22337665365
 30
0.0
 40
120.0
 41
0.0
 71
     5
 72
     1
  1
\A1;50
  7
STYLE1
 11
0.0000000000000001
 21
1.0
 31
0.0
 73
     1
 44
1.0
1001
ACAD
1000
MTEXTBEGIN
1070
    73
1070
     1
1070
    44
1040
1.0
1070
    74
1070
     0
1000
MTEXTEND
  0
POINT
  5
19AF9
330
18B1C
100
AcDbEntity
  8
DEFPOINTS
 62
     0
 48
50.0
100
AcDbPoint
 10
10631.8498305133
 20
2211.27062074814
 30
0.0
  0
POINT
  5
19AFA
330
18B1C
100
AcDbEntity
  8
DEFPOINTS
 62
     0
 48
50.0
100
AcDbPoint
 10
10576.8498305133
 20
2161.27062074814
 30
0.0
  0
POINT
  5
19AFB
330
18B1C
100
AcDbEntity
  8
DEFPOINTS
 62
     0
 48
50.0
100
AcDbPoint
 10
9788.09970133004
 20
2161.27062074814
 30
0.0
  0
ENDBLK
  5
18B29
330
18B1C
100
AcDbEntity
  8
0
 48
50.0
100
AcDbBlockEnd
  0
BLOCK
  5
18B34
330
18B2A
100
AcDbEntity
  8
0
 48
50.0
100
AcDbBlockBegin
  2
*D26
 70
     1
 10
0.0
 20
0.0
 30
0.0
  3
*D26
  1

  0
LINE
  5
19AE8
330
18B2A
100
AcDbEntity
  8
寸法
 62
     0
 48
50.0
370
    -2
100
AcDbLine
 10
13261.8498305133
 20
4203.081300359793
 30
0.0
 11
13261.8498305133
 21
4694.928074327445
 31
0.0
  0
LINE
  5
19AE9
330
18B2A
100
AcDbEntity
  8
寸法
 62
     0
 48
50.0
370
    -2
100
AcDbLine
 10
10631.8498305133
 20
4252.272238871117
 30
0.0
 11
10631.8498305133
 21
4694.928074327445
 31
0.0
  0
LINE
  5
19AEA
330
18B2A
100
AcDbEntity
  8
寸法
 62
     0
 48
50.0
370
    -2
100
AcDbLine
 10
13261.8498305133
 20
4634.928074327445
 30
0.0
 11
10631.8498305133
 21
4634.928074327445
 31
0.0
  0
INSERT
  5
19AEB
330
18B2A
100
AcDbEntity
  8
寸法
 62
     0
 48
50.0
370
    -2
100
AcDbBlockReference
  2
_DOTSMALL
 10
13261.8498305133
 20
4634.928074327445
 30
0.0
 41
100.0
 42
100.0
 43
100.0
  0
INSERT
  5
19AEC
330
18B2A
100
AcDbEntity
  8
寸法
 62
     0
 48
50.0
370
    -2
100
AcDbBlockReference
  2
_DOTSMALL
 10
10631.8498305133
 20
4634.928074327445
 30
0.0
 41
100.0
 42
100.0
 43
100.0
 50
180.0
  0
MTEXT
  5
19AED
330
18B2A
100
AcDbEntity
  8
寸法
 62
     7
 48
50.0
100
AcDbMText
 10
11946.8498305133
 20
4734.939885351067
 30
0.0
 40
120.0
 41
0.0
 71
     5
 72
     1
  1
\A1;柱外寸法2630
  7
STYLE1
 73
     1
 44
1.0
1001
ACAD
1000
MTEXTBEGIN
1070
    73
1070
     1
1070
    44
1040
1.0
1070
    74
1070
     0
1000
MTEXTEND
  0
POINT
  5
19AEE
330
18B2A
100
AcDbEntity
  8
DEFPOINTS
 62
     0
 48
50.0
100
AcDbPoint
 10
13261.8498305133
 20
4183.081300359793
 30
0.0
  0
POINT
  5
19AEF
330
18B2A
100
AcDbEntity
  8
DEFPOINTS
 62
     0
 48
50.0
100
AcDbPoint
 10
10631.8498305133
 20
4232.272238871116
 30
0.0
  0
POINT
  5
19AF0
330
18B2A
100
AcDbEntity
  8
DEFPOINTS
 62
     0
 48
50.0
100
AcDbPoint
 10
10631.8498305133
 20
4634.928074327445
 30
0.0
  0
ENDBLK
  5
18B35
330
18B2A
100
AcDbEntity
  8
0
 48
50.0
100
AcDbBlockEnd
  0
BLOCK
  5
18B42
330
18B36
100
AcDbEntity
  8
0
 48
50.0
100
AcDbBlockBegin
  2
*D27
 70
     1
 10
0.0
 20
0.0
 30
0.0
  3
*D27
  1

  0
LINE
  5
19ADD
330
18B36
100
AcDbEntity
  8
寸法
 62
     0
 48
50.0
370
    -2
100
AcDbLine
 10
10631.8498305133
 20
4252.272238871117
 30
0.0
 11
10631.8498305133
 21
4694.928074327444
 31
0.0
  0
LINE
  5
19ADE
330
18B36
100
AcDbEntity
  8
寸法
 62
     0
 48
50.0
370
    -2
100
AcDbLine
 10
10571.8498305133
 20
4256.270620748145
 30
0.0
 11
10571.8498305133
 21
4694.928074327444
 31
0.0
  0
LINE
  5
19ADF
330
18B36
100
AcDbEntity
  8
寸法
 62
     0
 48
50.0
370
    -2
100
AcDbLine
 10
10631.8498305133
 20
4634.928074327444
 30
0.0
 11
10731.8498305133
 21
4634.928074327444
 31
0.0
  0
LINE
  5
19AE0
330
18B36
100
AcDbEntity
  8
寸法
 62
     0
 48
50.0
370
    -2
100
AcDbLine
 10
10571.8498305133
 20
4634.928074327444
 30
0.0
 11
10152.57423996212
 21
4634.928074327444
 31
0.0
  0
LINE
  5
19AE1
330
18B36
100
AcDbEntity
  8
寸法
 62
     0
 48
50.0
370
    -2
100
AcDbLine
 10
10631.8498305133
 20
4634.928074327444
 30
0.0
 11
10571.8498305133
 21
4634.928074327444
 31
0.0
  0
INSERT
  5
19AE2
330
18B36
100
AcDbEntity
  8
寸法
 62
     0
 48
50.0
370
    -2
100
AcDbBlockReference
  2
_DOTSMALL
 10
10631.8498305133
 20
4634.928074327444
 30
0.0
 41
100.0
 42
100.0
 43
100.0
 50
180.0
  0
INSERT
  5
19AE3
330
18B36
100
AcDbEntity
  8
寸法
 62
     0
 48
50.0
370
    -2
100
AcDbBlockReference
  2
_DOTSMALL
 10
10571.8498305133
 20
4634.928074327444
 30
0.0
 41
100.0
 42
100.0
 43
100.0
  0
MTEXT
  5
19AE4
330
18B36
100
AcDbEntity
  8
寸法
 62
     7
 48
50.0
100
AcDbMText
 10
10262.21203523771
 20
4734.928074327444
 30
0.0
 40
120.0
 41
0.0
 71
     5
 72
     1
  1
\A1;60
  7
STYLE1
 73
     1
 44
1.0
1001
ACAD
1000
MTEXTBEGIN
1070
    73
1070
     1
1070
    44
1040
1.0
1070
    74
1070
     0
1000
MTEXTEND
  0
POINT
  5
19AE5
330
18B36
100
AcDbEntity
  8
DEFPOINTS
 62
     0
 48
50.0
100
AcDbPoint
 10
10631.8498305133
 20
4232.272238871116
 30
0.0
  0
POINT
  5
19AE6
330
18B36
100
AcDbEntity
  8
DEFPOINTS
 62
     0
 48
50.0
100
AcDbPoint
 10
10571.8498305133
 20
4236.270620748145
 30
0.0
  0
POINT
  5
19AE7
330
18B36
100
AcDbEntity
  8
DEFPOINTS
 62
     0
 48
50.0
100
AcDbPoint
 10
10571.8498305133
 20
4634.928074327444
 30
0.0
  0
ENDBLK
  5
18B43
330
18B36
100
AcDbEntity
  8
0
 48
50.0
100
AcDbBlockEnd
  0
BLOCK
  5
18B4E
330
18B44
100
AcDbEntity
  8
0
 48
50.0
100
AcDbBlockBegin
  2
*D28
 70
     1
 10
0.0
 20
0.0
 30
0.0
  3
*D28
  1

  0
LINE
  5
19AD4
330
18B44
100
AcDbEntity
  8
寸法
 62
     0
 48
50.0
370
    -2
100
AcDbLine
 10
13341.8498305133
 20
4201.270620748141
 30
0.0
 11
13341.8498305133
 21
4915.138761059061
 31
0.0
  0
LINE
  5
19AD5
330
18B44
100
AcDbEntity
  8
寸法
 62
     0
 48
50.0
370
    -2
100
AcDbLine
 10
10571.8498305133
 20
4256.270620748145
 30
0.0
 11
10571.8498305133
 21
4915.138761059061
 31
0.0
  0
LINE
  5
19AD6
330
18B44
100
AcDbEntity
  8
寸法
 62
     0
 48
50.0
370
    -2
100
AcDbLine
 10
13341.8498305133
 20
4855.138761059062
 30
0.0
 11
10571.8498305133
 21
4855.138761059062
 31
0.0
  0
INSERT
  5
19AD7
330
18B44
100
AcDbEntity
  8
寸法
 62
     0
 48
50.0
370
    -2
100
AcDbBlockReference
  2
_DOTSMALL
 10
13341.8498305133
 20
4855.138761059062
 30
0.0
 41
100.0
 42
100.0
 43
100.0
  0
INSERT
  5
19AD8
330
18B44
100
AcDbEntity
  8
寸法
 62
     0
 48
50.0
370
    -2
100
AcDbBlockReference
  2
_DOTSMALL
 10
10571.8498305133
 20
4855.138761059062
 30
0.0
 41
100.0
 42
100.0
 43
100.0
 50
180.0
  0
MTEXT
  5
19AD9
330
18B44
100
AcDbEntity
  8
寸法
 62
     7
 48
50.0
100
AcDbMText
 10
11956.8498305133
 20
4955.150572082684
 30
0.0
 40
120.0
 41
0.0
 71
     5
 72
     1
  1
\A1;2770
  7
STYLE1
 73
     1
 44
1.0
1001
ACAD
1000
MTEXTBEGIN
1070
    73
1070
     1
1070
    44
1040
1.0
1070
    74
1070
     0
1000
MTEXTEND
  0
POINT
  5
19ADA
330
18B44
100
AcDbEntity
  8
DEFPOINTS
 62
     0
 48
50.0
100
AcDbPoint
 10
13341.8498305133
 20
4181.270620748142
 30
0.0
  0
POINT
  5
19ADB
330
18B44
100
AcDbEntity
  8
DEFPOINTS
 62
     0
 48
50.0
100
AcDbPoint
 10
10571.8498305133
 20
4236.270620748145
 30
0.0
  0
POINT
  5
19ADC
330
18B44
100
AcDbEntity
  8
DEFPOINTS
 62
     0
 48
50.0
100
AcDbPoint
 10
10571.8498305133
 20
4855.138761059062
 30
0.0
  0
ENDBLK
  5
18B4F
330
18B44
100
AcDbEntity
  8
0
 48
50.0
100
AcDbBlockEnd
  0
BLOCK
  5
18B5B
330
18B50
100
AcDbEntity
  8
0
 48
50.0
100
AcDbBlockBegin
  2
*D29
 70
     1
 10
0.0
 20
0.0
 30
0.0
  3
*D29
  1

  0
LINE
  5
19ACA
330
18B50
100
AcDbEntity
  8
寸法
 62
     0
 48
50.0
370
    -2
100
AcDbLine
 10
13261.8498305133
 20
4203.081300359793
 30
0.0
 11
13261.8498305133
 21
4694.928074327445
 31
0.0
  0
LINE
  5
19ACB
330
18B50
100
AcDbEntity
  8
寸法
 62
     0
 48
50.0
370
    -2
100
AcDbLine
 10
13341.8498305133
 20
4201.270620748141
 30
0.0
 11
13341.8498305133
 21
4694.928074327445
 31
0.0
  0
LINE
  5
19ACC
330
18B50
100
AcDbEntity
  8
寸法
 62
     0
 48
50.0
370
    -2
100
AcDbLine
 10
13261.8498305133
 20
4634.928074327445
 30
0.0
 11
13341.8498305133
 21
4634.928074327445
 31
0.0
  0
LINE
  5
19ACD
330
18B50
100
AcDbEntity
  8
寸法
 62
     0
 48
50.0
370
    -2
100
AcDbLine
 10
13341.8498305133
 20
4634.928074327445
 30
0.0
 11
13653.94431870228
 21
4634.928074327445
 31
0.0
  0
INSERT
  5
19ACE
330
18B50
100
AcDbEntity
  8
寸法
 62
     0
 48
50.0
370
    -2
100
AcDbBlockReference
  2
_DOTSMALL
 10
13261.8498305133
 20
4634.928074327445
 30
0.0
 41
100.0
 42
100.0
 43
100.0
 50
180.0
  0
INSERT
  5
19ACF
330
18B50
100
AcDbEntity
  8
寸法
 62
     0
 48
50.0
370
    -2
100
AcDbBlockReference
  2
_DOTSMALL
 10
13341.8498305133
 20
4634.928074327445
 30
0.0
 41
100.0
 42
100.0
 43
100.0
  0
MTEXT
  5
19AD0
330
18B50
100
AcDbEntity
  8
寸法
 62
     7
 48
50.0
100
AcDbMText
 10
13547.89707460779
 20
4734.928074327445
 30
0.0
 40
120.0
 41
0.0
 71
     5
 72
     1
  1
\A1;80
  7
STYLE1
 73
     1
 44
1.0
1001
ACAD
1000
MTEXTBEGIN
1070
    73
1070
     1
1070
    44
1040
1.0
1070
    74
1070
     0
1000
MTEXTEND
  0
POINT
  5
19AD1
330
18B50
100
AcDbEntity
  8
DEFPOINTS
 62
     0
 48
50.0
100
AcDbPoint
 10
13261.8498305133
 20
4183.081300359793
 30
0.0
  0
POINT
  5
19AD2
330
18B50
100
AcDbEntity
  8
DEFPOINTS
 62
     0
 48
50.0
100
AcDbPoint
 10
13341.8498305133
 20
4181.270620748142
 30
0.0
  0
POINT
  5
19AD3
330
18B50
100
AcDbEntity
  8
DEFPOINTS
 62
     0
 48
50.0
100
AcDbPoint
 10
13341.8498305133
 20
4634.928074327445
 30
0.0
  0
ENDBLK
  5
18B5C
330
18B50
100
AcDbEntity
  8
0
 48
50.0
100
AcDbBlockEnd
  0
BLOCK
  5
18B68
330
18B5D
100
AcDbEntity
  8
0
 48
50.0
100
AcDbBlockBegin
  2
*D30
 70
     1
 10
0.0
 20
0.0
 30
0.0
  3
*D30
  1

  0
LINE
  5
19AC0
330
18B5D
100
AcDbEntity
  8
寸法
 62
     0
 48
50.0
370
    -2
100
AcDbLine
 10
10571.2541168044
 20
4235.568327817801
 30
0.0
 11
9955.319677699112
 21
4253.28247809213
 31
0.0
  0
LINE
  5
19AC1
330
18B5D
100
AcDbEntity
  8
寸法
 62
     0
 48
50.0
370
    -2
100
AcDbLine
 10
10567.20066124777
 20
4094.626604052089
 30
0.0
 11
9951.266222142486
 21
4112.340754326418
 31
0.0
  0
LINE
  5
19AC2
330
18B5D
100
AcDbEntity
  8
寸法
 62
     0
 48
50.0
370
    -2
100
AcDbLine
 10
10011.24142374491
 20
4110.615879621471
 30
0.0
 11
10015.29487930154
 21
4251.557603387182
 31
0.0
  0
LINE
  5
19AC3
330
18B5D
100
AcDbEntity
  8
寸法
 62
     0
 48
50.0
370
    -2
100
AcDbLine
 10
10015.29487930154
 20
4251.557603387182
 30
0.0
 11
10025.64412753122
 21
4611.408813001769
 31
0.0
  0
INSERT
  5
19AC4
330
18B5D
100
AcDbEntity
  8
寸法
 62
     0
 48
50.0
370
    -2
100
AcDbBlockReference
  2
_DOTSMALL
 10
10011.24142374491
 20
4110.615879621471
 30
0.0
 41
100.0
 42
100.0
 43
100.0
 50
268.3526390256378
  0
INSERT
  5
19AC5
330
18B5D
100
AcDbEntity
  8
寸法
 62
     0
 48
50.0
370
    -2
100
AcDbBlockReference
  2
_DOTSMALL
 10
10015.29487930154
 20
4251.557603387182
 30
0.0
 41
100.0
 42
100.0
 43
100.0
 50
88.35263902563776
  0
MTEXT
  5
19AC6
330
18B5D
100
AcDbEntity
  8
寸法
 62
     7
 48
50.0
100
AcDbMText
 10
9921.948229666455
 20
4484.337334038083
 30
0.0
 40
120.0
 41
0.0
 71
     5
 72
     1
  1
\A1;141
  7
STYLE1
 11
0.0287479117491237
 21
0.9995866933738488
 31
0.0
 73
     1
 44
1.0
1001
ACAD
1000
MTEXTBEGIN
1070
    73
1070
     1
1070
    44
1040
1.0
1070
    74
1070
     0
1000
MTEXTEND
  0
POINT
  5
19AC7
330
18B5D
100
AcDbEntity
  8
DEFPOINTS
 62
     0
 48
50.0
100
AcDbPoint
 10
10591.24585067188
 20
4234.993369582818
 30
0.0
  0
POINT
  5
19AC8
330
18B5D
100
AcDbEntity
  8
DEFPOINTS
 62
     0
 48
50.0
100
AcDbPoint
 10
10587.19239511525
 20
4094.051645817106
 30
0.0
  0
POINT
  5
19AC9
330
18B5D
100
AcDbEntity
  8
DEFPOINTS
 62
     0
 48
50.0
100
AcDbPoint
 10
10011.24142374491
 20
4110.615879621471
 30
0.0
  0
ENDBLK
  5
18B69
330
18B5D
100
AcDbEntity
  8
0
 48
50.0
100
AcDbBlockEnd
  0
BLOCK
  5
191AA
330
1919E
100
AcDbEntity
  8
0
 48
50.0
100
AcDbBlockBegin
  2
*D31
 70
     1
 10
0.0
 20
0.0
 30
0.0
  3
*D31
  1

  0
LINE
  5
19B52
330
1919E
100
AcDbEntity
  8
寸法
 62
     0
 48
50.0
370
    -2
100
AcDbLine
 10
2744.673057123676
 20
4256.270620748145
 30
0.0
 11
2744.673057123676
 21
4701.996892480049
 31
0.0
  0
LINE
  5
19B53
330
1919E
100
AcDbEntity
  8
寸法
 62
     0
 48
50.0
370
    -2
100
AcDbLine
 10
2694.673057123676
 20
4256.270620748145
 30
0.0
 11
2694.673057123676
 21
4701.996892480049
 31
0.0
  0
LINE
  5
19B54
330
1919E
100
AcDbEntity
  8
寸法
 62
     0
 48
50.0
370
    -2
100
AcDbLine
 10
2744.673057123676
 20
4641.996892480048
 30
0.0
 11
2844.673057123676
 21
4641.996892480048
 31
0.0
  0
LINE
  5
19B55
330
1919E
100
AcDbEntity
  8
寸法
 62
     0
 48
50.0
370
    -2
100
AcDbLine
 10
2694.673057123676
 20
4641.996892480048
 30
0.0
 11
2275.14053165494
 21
4641.996892480048
 31
0.0
  0
LINE
  5
19B56
330
1919E
100
AcDbEntity
  8
寸法
 62
     0
 48
50.0
370
    -2
100
AcDbLine
 10
2744.673057123676
 20
4641.996892480048
 30
0.0
 11
2694.673057123676
 21
4641.996892480048
 31
0.0
  0
INSERT
  5
19B57
330
1919E
100
AcDbEntity
  8
寸法
 62
     0
 48
50.0
370
    -2
100
AcDbBlockReference
  2
_DOTSMALL
 10
2744.673057123676
 20
4641.996892480048
 30
0.0
 41
100.0
 42
100.0
 43
100.0
 50
180.0
  0
INSERT
  5
19B58
330
1919E
100
AcDbEntity
  8
寸法
 62
     0
 48
50.0
370
    -2
100
AcDbBlockReference
  2
_DOTSMALL
 10
2694.673057123676
 20
4641.996892480048
 30
0.0
 41
100.0
 42
100.0
 43
100.0
  0
MTEXT
  5
19B59
330
1919E
100
AcDbEntity
  8
寸法
 62
     7
 48
50.0
100
AcDbMText
 10
2381.187775749429
 20
4741.996892480048
 30
0.0
 40
120.0
 41
0.0
 71
     5
 72
     1
  1
\A1;50
  7
STYLE1
 73
     1
 44
1.0
1001
ACAD
1000
MTEXTBEGIN
1070
    73
1070
     1
1070
    44
1040
1.0
1070
    74
1070
     0
1000
MTEXTEND
  0
POINT
  5
19B5A
330
1919E
100
AcDbEntity
  8
DEFPOINTS
 62
     0
 48
50.0
100
AcDbPoint
 10
2744.673057123676
 20
4236.270620748146
 30
0.0
  0
POINT
  5
19B5B
330
1919E
100
AcDbEntity
  8
DEFPOINTS
 62
     0
 48
50.0
100
AcDbPoint
 10
2694.673057123676
 20
4236.270620748146
 30
0.0
  0
POINT
  5
19B5C
330
1919E
100
AcDbEntity
  8
DEFPOINTS
 62
     0
 48
50.0
100
AcDbPoint
 10
2694.673057123676
 20
4641.996892480048
 30
0.0
  0
ENDBLK
  5
191AB
330
1919E
100
AcDbEntity
  8
0
 48
50.0
100
AcDbBlockEnd
  0
BLOCK
  5
191B6
330
191AC
100
AcDbEntity
  8
0
 48
50.0
100
AcDbBlockBegin
  2
*D32
 70
     1
 10
0.0
 20
0.0
 30
0.0
  3
*D32
  1

  0
LINE
  5
19B5D
330
191AC
100
AcDbEntity
  8
寸法
 62
     0
 48
50.0
370
    -2
100
AcDbLine
 10
2694.673057123676
 20
4256.270620748145
 30
0.0
 11
2694.673057123676
 21
4901.905813694138
 31
0.0
  0
LINE
  5
19B5E
330
191AC
100
AcDbEntity
  8
寸法
 62
     0
 48
50.0
370
    -2
100
AcDbLine
 10
8054.673057123677
 20
4256.270620748142
 30
0.0
 11
8054.673057123677
 21
4901.905813694138
 31
0.0
  0
LINE
  5
19B5F
330
191AC
100
AcDbEntity
  8
寸法
 62
     0
 48
50.0
370
    -2
100
AcDbLine
 10
2694.673057123676
 20
4841.905813694139
 30
0.0
 11
8054.673057123677
 21
4841.905813694139
 31
0.0
  0
INSERT
  5
19B60
330
191AC
100
AcDbEntity
  8
寸法
 62
     0
 48
50.0
370
    -2
100
AcDbBlockReference
  2
_DOTSMALL
 10
2694.673057123676
 20
4841.905813694139
 30
0.0
 41
100.0
 42
100.0
 43
100.0
 50
180.0
  0
INSERT
  5
19B61
330
191AC
100
AcDbEntity
  8
寸法
 62
     0
 48
50.0
370
    -2
100
AcDbBlockReference
  2
_DOTSMALL
 10
8054.673057123677
 20
4841.905813694139
 30
0.0
 41
100.0
 42
100.0
 43
100.0
  0
MTEXT
  5
19B62
330
191AC
100
AcDbEntity
  8
寸法
 62
     7
 48
50.0
100
AcDbMText
 10
5374.673057123676
 20
4941.905813694138
 30
0.0
 40
120.0
 41
0.0
 71
     5
 72
     1
  1
\A1;5360
  7
STYLE1
 73
     1
 44
1.0
1001
ACAD
1000
MTEXTBEGIN
1070
    73
1070
     1
1070
    44
1040
1.0
1070
    74
1070
     0
1000
MTEXTEND
  0
POINT
  5
19B63
330
191AC
100
AcDbEntity
  8
DEFPOINTS
 62
     0
 48
50.0
100
AcDbPoint
 10
2694.673057123676
 20
4236.270620748146
 30
0.0
  0
POINT
  5
19B64
330
191AC
100
AcDbEntity
  8
DEFPOINTS
 62
     0
 48
50.0
100
AcDbPoint
 10
8054.673057123677
 20
4236.270620748142
 30
0.0
  0
POINT
  5
19B65
330
191AC
100
AcDbEntity
  8
DEFPOINTS
 62
     0
 48
50.0
100
AcDbPoint
 10
8054.673057123677
 20
4841.905813694139
 30
0.0
  0
ENDBLK
  5
191B7
330
191AC
100
AcDbEntity
  8
0
 48
50.0
100
AcDbBlockEnd
  0
BLOCK
  5
191C2
330
191B8
100
AcDbEntity
  8
0
 48
50.0
100
AcDbBlockBegin
  2
*D33
 70
     1
 10
0.0
 20
0.0
 30
0.0
  3
*D33
  1

  0
LINE
  5
19B66
330
191B8
100
AcDbEntity
  8
寸法
 62
     0
 48
50.0
370
    -2
100
AcDbLine
 10
8004.67305712368
 20
4256.270620748145
 30
0.0
 11
8004.67305712368
 21
4701.996892480049
 31
0.0
  0
LINE
  5
19B67
330
191B8
100
AcDbEntity
  8
寸法
 62
     0
 48
50.0
370
    -2
100
AcDbLine
 10
2744.673057123676
 20
4256.270620748145
 30
0.0
 11
2744.673057123676
 21
4701.996892480049
 31
0.0
  0
LINE
  5
19B68
330
191B8
100
AcDbEntity
  8
寸法
 62
     0
 48
50.0
370
    -2
100
AcDbLine
 10
8004.67305712368
 20
4641.996892480048
 30
0.0
 11
2744.673057123676
 21
4641.996892480048
 31
0.0
  0
INSERT
  5
19B69
330
191B8
100
AcDbEntity
  8
寸法
 62
     0
 48
50.0
370
    -2
100
AcDbBlockReference
  2
_DOTSMALL
 10
8004.67305712368
 20
4641.996892480048
 30
0.0
 41
100.0
 42
100.0
 43
100.0
  0
INSERT
  5
19B6A
330
191B8
100
AcDbEntity
  8
寸法
 62
     0
 48
50.0
370
    -2
100
AcDbBlockReference
  2
_DOTSMALL
 10
2744.673057123676
 20
4641.996892480048
 30
0.0
 41
100.0
 42
100.0
 43
100.0
 50
180.0
  0
MTEXT
  5
19B6B
330
191B8
100
AcDbEntity
  8
寸法
 62
     7
 48
50.0
100
AcDbMText
 10
5374.673057123676
 20
4742.00870350367
 30
0.0
 40
120.0
 41
0.0
 71
     5
 72
     1
  1
\A1;柱外寸法5260
  7
STYLE1
 73
     1
 44
1.0
1001
ACAD
1000
MTEXTBEGIN
1070
    73
1070
     1
1070
    44
1040
1.0
1070
    74
1070
     0
1000
MTEXTEND
  0
POINT
  5
19B6C
330
191B8
100
AcDbEntity
  8
DEFPOINTS
 62
     0
 48
50.0
100
AcDbPoint
 10
8004.67305712368
 20
4236.270620748146
 30
0.0
  0
POINT
  5
19B6D
330
191B8
100
AcDbEntity
  8
DEFPOINTS
 62
     0
 48
50.0
100
AcDbPoint
 10
2744.673057123676
 20
4236.270620748146
 30
0.0
  0
POINT
  5
19B6E
330
191B8
100
AcDbEntity
  8
DEFPOINTS
 62
     0
 48
50.0
100
AcDbPoint
 10
2744.673057123676
 20
4641.996892480048
 30
0.0
  0
ENDBLK
  5
191C3
330
191B8
100
AcDbEntity
  8
0
 48
50.0
100
AcDbBlockEnd
  0
BLOCK
  5
191F8
330
191EC
100
AcDbEntity
  8
0
 48
50.0
100
AcDbBlockBegin
  2
*D34
 70
     1
 10
0.0
 20
0.0
 30
0.0
  3
*D34
  1

  0
LINE
  5
19B35
330
191EC
100
AcDbEntity
  8
寸法
 62
     0
 48
50.0
370
    -2
100
AcDbLine
 10
8054.673057123677
 20
4256.270620748142
 30
0.0
 11
8054.673057123677
 21
4701.996892480052
 31
0.0
  0
LINE
  5
19B36
330
191EC
100
AcDbEntity
  8
寸法
 62
     0
 48
50.0
370
    -2
100
AcDbLine
 10
8004.67305712368
 20
4256.270620748145
 30
0.0
 11
8004.67305712368
 21
4701.996892480052
 31
0.0
  0
LINE
  5
19B37
330
191EC
100
AcDbEntity
  8
寸法
 62
     0
 48
50.0
370
    -2
100
AcDbLine
 10
8004.67305712368
 20
4641.996892480052
 30
0.0
 11
7904.67305712368
 21
4641.996892480052
 31
0.0
  0
LINE
  5
19B38
330
191EC
100
AcDbEntity
  8
寸法
 62
     0
 48
50.0
370
    -2
100
AcDbLine
 10
8054.673057123677
 20
4641.996892480052
 30
0.0
 11
8474.205582592404
 21
4641.996892480052
 31
0.0
  0
LINE
  5
19B39
330
191EC
100
AcDbEntity
  8
寸法
 62
     0
 48
50.0
370
    -2
100
AcDbLine
 10
8004.67305712368
 20
4641.996892480052
 30
0.0
 11
8054.673057123677
 21
4641.996892480052
 31
0.0
  0
INSERT
  5
19B3A
330
191EC
100
AcDbEntity
  8
寸法
 62
     0
 48
50.0
370
    -2
100
AcDbBlockReference
  2
_DOTSMALL
 10
8004.67305712368
 20
4641.996892480052
 30
0.0
 41
100.0
 42
100.0
 43
100.0
  0
INSERT
  5
19B3B
330
191EC
100
AcDbEntity
  8
寸法
 62
     0
 48
50.0
370
    -2
100
AcDbBlockReference
  2
_DOTSMALL
 10
8054.673057123677
 20
4641.996892480052
 30
0.0
 41
100.0
 42
100.0
 43
100.0
 50
180.0
  0
MTEXT
  5
19B3C
330
191EC
100
AcDbEntity
  8
寸法
 62
     7
 48
50.0
100
AcDbMText
 10
8368.158338497917
 20
4741.996892480051
 30
0.0
 40
120.0
 41
0.0
 71
     5
 72
     1
  1
\A1;50
  7
STYLE1
 73
     1
 44
1.0
1001
ACAD
1000
MTEXTBEGIN
1070
    73
1070
     1
1070
    44
1040
1.0
1070
    74
1070
     0
1000
MTEXTEND
  0
POINT
  5
19B3D
330
191EC
100
AcDbEntity
  8
DEFPOINTS
 62
     0
 48
50.0
100
AcDbPoint
 10
8054.673057123677
 20
4236.270620748142
 30
0.0
  0
POINT
  5
19B3E
330
191EC
100
AcDbEntity
  8
DEFPOINTS
 62
     0
 48
50.0
100
AcDbPoint
 10
8004.67305712368
 20
4236.270620748146
 30
0.0
  0
POINT
  5
19B3F
330
191EC
100
AcDbEntity
  8
DEFPOINTS
 62
     0
 48
50.0
100
AcDbPoint
 10
8004.67305712368
 20
4641.996892480052
 30
0.0
  0
ENDBLK
  5
191F9
330
191EC
100
AcDbEntity
  8
0
 48
50.0
100
AcDbBlockEnd
  0
BLOCK
  5
19997
330
1998C
100
AcDbEntity
  8
0
 48
50.0
100
AcDbBlockBegin
  2
*D35
 70
     1
 10
0.0
 20
0.0
 30
0.0
  3
*D35
  1

  0
LINE
  5
19D92
330
1998C
100
AcDbEntity
  8
寸法
 62
     0
 48
50.0
370
    -2
100
AcDbLine
 10
8024.673057123676
 20
3836.27062074814
 30
0.0
 11
8352.216159445424
 21
3836.27062074814
 31
0.0
  0
LINE
  5
19D93
330
1998C
100
AcDbEntity
  8
寸法
 62
     0
 48
50.0
370
    -2
100
AcDbLine
 10
8024.673057123676
 20
4001.270620748138
 30
0.0
 11
8352.216159445424
 21
4001.270620748138
 31
0.0
  0
LINE
  5
19D94
330
1998C
100
AcDbEntity
  8
寸法
 62
     0
 48
50.0
370
    -2
100
AcDbLine
 10
8292.216159445422
 20
3836.27062074814
 30
0.0
 11
8292.216159445422
 21
4001.270620748138
 31
0.0
  0
LINE
  5
19D95
330
1998C
100
AcDbEntity
  8
寸法
 62
     0
 48
50.0
370
    -2
100
AcDbLine
 10
8292.216159445422
 20
4001.270620748138
 30
0.0
 11
8292.216159445425
 21
4378.241183496616
 31
0.0
  0
INSERT
  5
19D96
330
1998C
100
AcDbEntity
  8
寸法
 62
     0
 48
50.0
370
    -2
100
AcDbBlockReference
  2
_DOTSMALL
 10
8292.216159445422
 20
3836.27062074814
 30
0.0
 41
100.0
 42
100.0
 43
100.0
 50
270.0
  0
INSERT
  5
19D97
330
1998C
100
AcDbEntity
  8
寸法
 62
     0
 48
50.0
370
    -2
100
AcDbBlockReference
  2
_DOTSMALL
 10
8292.216159445422
 20
4001.270620748138
 30
0.0
 41
100.0
 42
100.0
 43
100.0
 50
90.0
  0
MTEXT
  5
19D98
330
1998C
100
AcDbEntity
  8
寸法
 62
     7
 48
50.0
100
AcDbMText
 10
8192.216159445422
 20
4239.755902122378
 30
0.0
 40
120.0
 41
0.0
 71
     5
 72
     1
  1
\A1;165
  7
STYLE1
 11
0.0000000000000001
 21
1.0
 31
0.0
 73
     1
 44
1.0
1001
ACAD
1000
MTEXTBEGIN
1070
    73
1070
     1
1070
    44
1040
1.0
1070
    74
1070
     0
1000
MTEXTEND
  0
POINT
  5
19D99
330
1998C
100
AcDbEntity
  8
DEFPOINTS
 62
     0
 48
50.0
100
AcDbPoint
 10
8004.673057123676
 20
3836.27062074814
 30
0.0
  0
POINT
  5
19D9A
330
1998C
100
AcDbEntity
  8
DEFPOINTS
 62
     0
 48
50.0
100
AcDbPoint
 10
8004.673057123676
 20
4001.270620748138
 30
0.0
  0
POINT
  5
19D9B
330
1998C
100
AcDbEntity
  8
DEFPOINTS
 62
     0
 48
50.0
100
AcDbPoint
 10
8292.216159445422
 20
4001.270620748138
 30
0.0
  0
ENDBLK
  5
19998
330
1998C
100
AcDbEntity
  8
0
 48
50.0
100
AcDbBlockEnd
  0
BLOCK
  5
199A5
330
19999
100
AcDbEntity
  8
0
 48
50.0
100
AcDbBlockBegin
  2
*D36
 70
     1
 10
0.0
 20
0.0
 30
0.0
  3
*D36
  1

  0
LINE
  5
19D87
330
19999
100
AcDbEntity
  8
寸法
 62
     0
 48
50.0
370
    -2
100
AcDbLine
 10
8024.673057123676
 20
3809.270620748139
 30
0.0
 11
8352.216159445424
 21
3809.270620748139
 31
0.0
  0
LINE
  5
19D88
330
19999
100
AcDbEntity
  8
寸法
 62
     0
 48
50.0
370
    -2
100
AcDbLine
 10
8024.673057123676
 20
3836.27062074814
 30
0.0
 11
8352.216159445424
 21
3836.27062074814
 31
0.0
  0
LINE
  5
19D89
330
19999
100
AcDbEntity
  8
寸法
 62
     0
 48
50.0
370
    -2
100
AcDbLine
 10
8292.216159445422
 20
3809.270620748139
 30
0.0
 11
8292.216159445422
 21
3709.270620748139
 31
0.0
  0
LINE
  5
19D8A
330
19999
100
AcDbEntity
  8
寸法
 62
     0
 48
50.0
370
    -2
100
AcDbLine
 10
8292.216159445422
 20
3836.27062074814
 30
0.0
 11
8292.216159445422
 21
3936.270620748139
 31
0.0
  0
MTEXT
  5
19D8B
330
19999
100
AcDbEntity
  8
寸法
 62
     7
 48
50.0
100
AcDbMText
 10
8432.385982691789
 20
3837.237820587798
 30
0.0
 40
120.0
 41
0.0
 71
     5
 72
     1
  1
\A1;27
  7
STYLE1
 11
0.0000000000000001
 21
1.0
 31
0.0
 73
     1
 44
1.0
1001
ACAD
1000
MTEXTBEGIN
1070
    73
1070
     1
1070
    44
1040
1.0
1070
    74
1070
     0
1000
MTEXTEND
  0
LINE
  5
19D8C
330
19999
100
AcDbEntity
  8
寸法
 62
     0
 48
50.0
370
    -2
100
AcDbLine
 10
8292.216159445422
 20
3809.270620748139
 30
0.0
 11
8292.216159445422
 21
3836.27062074814
 31
0.0
  0
INSERT
  5
19D8D
330
19999
100
AcDbEntity
  8
寸法
 62
     0
 48
50.0
370
    -2
100
AcDbBlockReference
  2
_DOTSMALL
 10
8292.216159445422
 20
3809.270620748139
 30
0.0
 41
100.0
 42
100.0
 43
100.0
 50
90.0
  0
INSERT
  5
19D8E
330
19999
100
AcDbEntity
  8
寸法
 62
     0
 48
50.0
370
    -2
100
AcDbBlockReference
  2
_DOTSMALL
 10
8292.216159445422
 20
3836.27062074814
 30
0.0
 41
100.0
 42
100.0
 43
100.0
 50
270.0
  0
POINT
  5
19D8F
330
19999
100
AcDbEntity
  8
DEFPOINTS
 62
     0
 48
50.0
100
AcDbPoint
 10
8004.673057123676
 20
3809.270620748139
 30
0.0
  0
POINT
  5
19D90
330
19999
100
AcDbEntity
  8
DEFPOINTS
 62
     0
 48
50.0
100
AcDbPoint
 10
8004.673057123676
 20
3836.27062074814
 30
0.0
  0
POINT
  5
19D91
330
19999
100
AcDbEntity
  8
DEFPOINTS
 62
     0
 48
50.0
100
AcDbPoint
 10
8292.216159445422
 20
3836.27062074814
 30
0.0
  0
ENDBLK
  5
199A6
330
19999
100
AcDbEntity
  8
0
 48
50.0
100
AcDbBlockEnd
  0
BLOCK
  5
199B1
330
199A7
100
AcDbEntity
  8
0
 48
50.0
100
AcDbBlockBegin
  2
*D37
 70
     1
 10
0.0
 20
0.0
 30
0.0
  3
*D37
  1

  0
LINE
  5
19B17
330
199A7
100
AcDbEntity
  8
寸法
 62
     0
 48
50.0
370
    -2
100
AcDbLine
 10
8024.673057123676
 20
2161.270620748139
 30
0.0
 11
8352.216159445424
 21
2161.270620748139
 31
0.0
  0
LINE
  5
19B18
330
199A7
100
AcDbEntity
  8
寸法
 62
     0
 48
50.0
370
    -2
100
AcDbLine
 10
8024.673057123676
 20
3809.270620748139
 30
0.0
 11
8352.216159445424
 21
3809.270620748139
 31
0.0
  0
LINE
  5
19B19
330
199A7
100
AcDbEntity
  8
寸法
 62
     0
 48
50.0
370
    -2
100
AcDbLine
 10
8292.216159445422
 20
2161.270620748139
 30
0.0
 11
8292.216159445422
 21
3809.270620748139
 31
0.0
  0
INSERT
  5
19B1A
330
199A7
100
AcDbEntity
  8
寸法
 62
     0
 48
50.0
370
    -2
100
AcDbBlockReference
  2
_DOTSMALL
 10
8292.216159445422
 20
2161.270620748139
 30
0.0
 41
100.0
 42
100.0
 43
100.0
 50
270.0
  0
INSERT
  5
19B1B
330
199A7
100
AcDbEntity
  8
寸法
 62
     0
 48
50.0
370
    -2
100
AcDbBlockReference
  2
_DOTSMALL
 10
8292.216159445422
 20
3809.270620748139
 30
0.0
 41
100.0
 42
100.0
 43
100.0
 50
90.0
  0
MTEXT
  5
19B1C
330
199A7
100
AcDbEntity
  8
寸法
 62
     7
 48
50.0
100
AcDbMText
 10
8192.216159445422
 20
2985.27062074814
 30
0.0
 40
120.0
 41
0.0
 71
     5
 72
     1
  1
\A1;有効開口部高サ 1648
  7
STYLE1
 11
0.0000000000000001
 21
1.0
 31
0.0
 73
     1
 44
1.0
1001
ACAD
1000
MTEXTBEGIN
1070
    73
1070
     1
1070
    44
1040
1.0
1070
    74
1070
     0
1000
MTEXTEND
  0
POINT
  5
19B1D
330
199A7
100
AcDbEntity
  8
DEFPOINTS
 62
     0
 48
50.0
100
AcDbPoint
 10
8004.673057123676
 20
2161.270620748139
 30
0.0
  0
POINT
  5
19B1E
330
199A7
100
AcDbEntity
  8
DEFPOINTS
 62
     0
 48
50.0
100
AcDbPoint
 10
8004.673057123676
 20
3809.270620748139
 30
0.0
  0
POINT
  5
19B1F
330
199A7
100
AcDbEntity
  8
DEFPOINTS
 62
     0
 48
50.0
100
AcDbPoint
 10
8292.216159445422
 20
3809.270620748139
 30
0.0
  0
ENDBLK
  5
199B2
330
199A7
100
AcDbEntity
  8
0
 48
50.0
100
AcDbBlockEnd
  0
BLOCK
  5
19CA1
330
19C36
100
AcDbEntity
  8
0
 48
50.0
100
AcDbBlockBegin
  2
A$C08A81D4D
 70
     0
 10
0.0
 20
0.0
 30
0.0
  3
A$C08A81D4D
  1

  0
ARC
  5
19C37
330
19C36
100
AcDbEntity
  8
部品1
 48
0.01
100
AcDbCircle
 10
788.0000000000036
 20
64.0
 30
0.0
 40
2.0
100
AcDbArc
 50
0.0
 51
90.0
  0
ARC
  5
19C38
330
19C36
100
AcDbEntity
  8
部品1
 48
0.01
100
AcDbCircle
 10
612.0000000000036
 20
64.0
 30
0.0
 40
2.0
100
AcDbArc
 50
90.0
 51
180.0
  0
LINE
  5
19C39
330
19C36
100
AcDbEntity
  8
細線
100
AcDbLine
 10
700.0
 20
36.5
 30
0.0
 11
774.0000000000036
 21
36.5
 31
0.0
  0
LINE
  5
19C3A
330
19C36
100
AcDbEntity
  8
細線
100
AcDbLine
 10
700.0000000000036
 20
59.5
 30
0.0
 11
626.0000000000036
 21
59.5
 31
0.0
  0
LINE
  5
19C3B
330
19C36
100
AcDbEntity
  8
細線
100
AcDbLine
 10
626.0000000000036
 20
36.5
 30
0.0
 11
700.0000000000036
 21
36.5
 31
0.0
  0
LINE
  5
19C3C
330
19C36
100
AcDbEntity
  8
細線
100
AcDbLine
 10
774.0000000000036
 20
59.5
 30
0.0
 11
700.0000000000036
 21
59.5
 31
0.0
  0
LINE
  5
19C3D
330
19C36
100
AcDbEntity
  8
細線
100
AcDbLine
 10
774.0000000000036
 20
36.5
 30
0.0
 11
774.0000000000036
 21
59.5
 31
0.0
  0
LINE
  5
19C3E
330
19C36
100
AcDbEntity
  8
細線
100
AcDbLine
 10
626.0000000000036
 20
59.5
 30
0.0
 11
626.0000000000036
 21
36.5
 31
0.0
  0
LINE
  5
19C3F
330
19C36
100
AcDbEntity
  8
部品1
 48
0.01
100
AcDbLine
 10
790.0
 20
32.5
 30
0.0
 11
790.0000000000036
 21
64.0
 31
0.0
  0
LINE
  5
19C40
330
19C36
100
AcDbEntity
  8
部品1
 48
0.01
100
AcDbLine
 10
610.0000000000036
 20
64.0
 30
0.0
 11
610.0000000000036
 21
32.5
 31
0.0
  0
LINE
  5
19C41
330
19C36
100
AcDbEntity
  8
部品1
 48
0.01
100
AcDbLine
 10
788.0000000000036
 20
66.0
 30
0.0
 11
612.0000000000036
 21
66.0
 31
0.0
  0
LINE
  5
19C42
330
19C36
100
AcDbEntity
  8
細線
100
AcDbLine
 10
626.0000000000036
 20
53.5
 30
0.0
 11
700.0000000000036
 21
53.5
 31
0.0
  0
LINE
  5
19C43
330
19C36
100
AcDbEntity
  8
細線
100
AcDbLine
 10
626.0000000000036
 20
47.5
 30
0.0
 11
700.0000000000036
 21
47.5
 31
0.0
  0
LINE
  5
19C44
330
19C36
100
AcDbEntity
  8
細線
100
AcDbLine
 10
626.0
 20
41.5
 30
0.0
 11
700.0000000000036
 21
41.5
 31
0.0
  0
LINE
  5
19C45
330
19C36
100
AcDbEntity
  8
細線
100
AcDbLine
 10
626.0000000000036
 20
53.5
 30
0.0
 11
695.0000000000036
 21
53.5
 31
0.0
  0
LINE
  5
19C46
330
19C36
100
AcDbEntity
  8
細線
100
AcDbLine
 10
774.0
 20
53.5
 30
0.0
 11
700.0000000000036
 21
53.5
 31
0.0
  0
LINE
  5
19C47
330
19C36
100
AcDbEntity
  8
細線
100
AcDbLine
 10
774.0
 20
41.5
 30
0.0
 11
700.0000000000036
 21
41.5
 31
0.0
  0
LINE
  5
19C48
330
19C36
100
AcDbEntity
  8
細線
100
AcDbLine
 10
774.0
 20
47.5
 30
0.0
 11
700.0000000000036
 21
47.5
 31
0.0
  0
LINE
  5
19C49
330
19C36
100
AcDbEntity
  8
細線
100
AcDbLine
 10
700.0000000000036
 20
59.5
 30
0.0
 11
700.0
 21
36.5
 31
0.0
  0
LINE
  5
19C4A
330
19C36
100
AcDbEntity
  8
細線
100
AcDbLine
 10
1930.000000000003
 20
59.5
 30
0.0
 11
1930.000000000003
 21
36.5
 31
0.0
  0
LINE
  5
19C4B
330
19C36
100
AcDbEntity
  8
細線
100
AcDbLine
 10
1856.000000000004
 20
47.5
 30
0.0
 11
1930.000000000003
 21
47.5
 31
0.0
  0
LINE
  5
19C4C
330
19C36
100
AcDbEntity
  8
細線
100
AcDbLine
 10
1856.000000000004
 20
41.5
 30
0.0
 11
1930.000000000003
 21
41.5
 31
0.0
  0
LINE
  5
19C4D
330
19C36
100
AcDbEntity
  8
細線
100
AcDbLine
 10
1856.000000000004
 20
53.5
 30
0.0
 11
1930.000000000003
 21
53.5
 31
0.0
  0
LINE
  5
19C4E
330
19C36
100
AcDbEntity
  8
細線
100
AcDbLine
 10
2004.000000000004
 20
53.5
 30
0.0
 11
1935.000000000004
 21
53.5
 31
0.0
  0
LINE
  5
19C4F
330
19C36
100
AcDbEntity
  8
細線
100
AcDbLine
 10
2004.000000000004
 20
41.5
 30
0.0
 11
1930.000000000003
 21
41.5
 31
0.0
  0
LINE
  5
19C50
330
19C36
100
AcDbEntity
  8
細線
100
AcDbLine
 10
2004.000000000004
 20
47.5
 30
0.0
 11
1930.000000000003
 21
47.5
 31
0.0
  0
LINE
  5
19C51
330
19C36
100
AcDbEntity
  8
細線
100
AcDbLine
 10
2004.000000000004
 20
53.5
 30
0.0
 11
1930.000000000003
 21
53.5
 31
0.0
  0
LINE
  5
19C52
330
19C36
100
AcDbEntity
  8
部品1
 48
0.01
100
AcDbLine
 10
1842.000000000004
 20
66.0
 30
0.0
 11
2018.000000000004
 21
66.0
 31
0.0
  0
LINE
  5
19C53
330
19C36
100
AcDbEntity
  8
部品1
 48
0.01
100
AcDbLine
 10
2020.000000000004
 20
64.0
 30
0.0
 11
2020.000000000004
 21
32.5
 31
0.0
  0
LINE
  5
19C54
330
19C36
100
AcDbEntity
  8
部品1
 48
0.01
100
AcDbLine
 10
1840.000000000004
 20
32.5
 30
0.0
 11
1840.000000000004
 21
64.0
 31
0.0
  0
LINE
  5
19C55
330
19C36
100
AcDbEntity
  8
細線
100
AcDbLine
 10
2004.000000000004
 20
59.5
 30
0.0
 11
2004.000000000004
 21
36.5
 31
0.0
  0
LINE
  5
19C56
330
19C36
100
AcDbEntity
  8
細線
100
AcDbLine
 10
1856.000000000004
 20
36.5
 30
0.0
 11
1856.000000000004
 21
59.5
 31
0.0
  0
LINE
  5
19C57
330
19C36
100
AcDbEntity
  8
細線
100
AcDbLine
 10
1856.000000000004
 20
59.5
 30
0.0
 11
1930.000000000003
 21
59.5
 31
0.0
  0
LINE
  5
19C58
330
19C36
100
AcDbEntity
  8
細線
100
AcDbLine
 10
2004.000000000004
 20
36.5
 30
0.0
 11
1930.000000000003
 21
36.5
 31
0.0
  0
LINE
  5
19C59
330
19C36
100
AcDbEntity
  8
細線
100
AcDbLine
 10
1930.000000000003
 20
59.5
 30
0.0
 11
2004.000000000004
 21
59.5
 31
0.0
  0
LINE
  5
19C5A
330
19C36
100
AcDbEntity
  8
細線
100
AcDbLine
 10
1930.000000000003
 20
36.5
 30
0.0
 11
1856.000000000004
 21
36.5
 31
0.0
  0
ARC
  5
19C5B
330
19C36
100
AcDbEntity
  8
部品1
 48
0.01
100
AcDbCircle
 10
2018.000000000004
 20
64.0
 30
0.0
 40
2.0
100
AcDbArc
 50
0.0
 51
90.0
  0
ARC
  5
19C5C
330
19C36
100
AcDbEntity
  8
部品1
 48
0.01
100
AcDbCircle
 10
1842.000000000004
 20
64.0
 30
0.0
 40
2.0
100
AcDbArc
 50
90.0
 51
180.0
  0
ARC
  5
19C5D
330
19C36
100
AcDbEntity
  8
部品1
 48
0.01
100
AcDbCircle
 10
788.0
 20
32.5
 30
0.0
 40
2.0
100
AcDbArc
 50
270.0
 51
0.0
  0
ARC
  5
19C5E
330
19C36
100
AcDbEntity
  8
部品1
 48
0.01
100
AcDbCircle
 10
612.0000000000036
 20
32.5
 30
0.0
 40
2.0
100
AcDbArc
 50
180.0
 51
270.0
  0
LINE
  5
19C5F
330
19C36
100
AcDbEntity
  8
部品1
 48
0.01
100
AcDbLine
 10
612.0000000000036
 20
30.5
 30
0.0
 11
788.0
 21
30.5
 31
0.0
  0
LINE
  5
19C60
330
19C36
100
AcDbEntity
  8
部品1
 48
0.01
100
AcDbLine
 10
2018.000000000004
 20
30.5
 30
0.0
 11
1842.000000000004
 21
30.5
 31
0.0
  0
ARC
  5
19C61
330
19C36
100
AcDbEntity
  8
部品1
 48
0.01
100
AcDbCircle
 10
2018.000000000004
 20
32.5
 30
0.0
 40
2.0
100
AcDbArc
 50
270.0
 51
0.0
  0
ARC
  5
19C62
330
19C36
100
AcDbEntity
  8
部品1
 48
0.01
100
AcDbCircle
 10
1842.000000000004
 20
32.5
 30
0.0
 40
2.0
100
AcDbArc
 50
180.0
 51
270.0
  0
ARC
  5
19C63
330
19C36
100
AcDbEntity
  8
細線
 48
50.0
100
AcDbCircle
 10
1015.0
 20
-1577.5
 30
0.0
 40
15.0
100
AcDbArc
 50
90.0
 51
270.0
  0
ARC
  5
19C64
330
19C36
100
AcDbEntity
  8
細線
 48
50.0
100
AcDbCircle
 10
1115.0
 20
-1577.5
 30
0.0
 40
15.0
100
AcDbArc
 50
270.0
 51
90.0
  0
LINE
  5
19C65
330
19C36
100
AcDbEntity
  8
細線
 48
50.0
100
AcDbLine
 10
1015.0
 20
-1562.5
 30
0.0
 11
1115.0
 21
-1562.5
 31
0.0
  0
LINE
  5
19C66
330
19C36
100
AcDbEntity
  8
細線
 48
50.0
100
AcDbLine
 10
1115.0
 20
-1592.5
 30
0.0
 11
1015.0
 21
-1592.5
 31
0.0
  0
LINE
  5
19C67
330
19C36
100
AcDbEntity
  8
細線
 48
50.0
100
AcDbLine
 10
1615.0
 20
-1592.5
 30
0.0
 11
1515.0
 21
-1592.5
 31
0.0
  0
LINE
  5
19C68
330
19C36
100
AcDbEntity
  8
細線
 48
50.0
100
AcDbLine
 10
1515.0
 20
-1562.5
 30
0.0
 11
1615.0
 21
-1562.5
 31
0.0
  0
ARC
  5
19C69
330
19C36
100
AcDbEntity
  8
細線
 48
50.0
100
AcDbCircle
 10
1515.0
 20
-1577.5
 30
0.0
 40
15.0
100
AcDbArc
 50
90.0
 51
270.0
  0
ARC
  5
19C6A
330
19C36
100
AcDbEntity
  8
細線
 48
50.0
100
AcDbCircle
 10
1615.0
 20
-1577.5
 30
0.0
 40
15.0
100
AcDbArc
 50
270.0
 51
90.0
  0
CIRCLE
  5
19C6B
330
19C36
100
AcDbEntity
  8
細線
 48
50.0
100
AcDbCircle
 10
1315.0
 20
-1252.5
 30
0.0
 40
18.0
  0
ARC
  5
19C6C
330
19C36
100
AcDbEntity
  8
部品1
 48
0.01
100
AcDbCircle
 10
4472.000000000002
 20
32.5
 30
0.0
 40
2.0
100
AcDbArc
 50
180.0
 51
270.0
  0
ARC
  5
19C6D
330
19C36
100
AcDbEntity
  8
部品1
 48
0.01
100
AcDbCircle
 10
4648.000000000002
 20
32.5
 30
0.0
 40
2.0
100
AcDbArc
 50
270.0
 51
0.0
  0
LINE
  5
19C6E
330
19C36
100
AcDbEntity
  8
部品1
 48
0.01
100
AcDbLine
 10
4648.000000000002
 20
30.5
 30
0.0
 11
4472.000000000002
 21
30.5
 31
0.0
  0
LINE
  5
19C6F
330
19C36
100
AcDbEntity
  8
部品1
 48
0.01
100
AcDbLine
 10
3242.000000000002
 20
30.5
 30
0.0
 11
3417.999999999999
 21
30.5
 31
0.0
  0
ARC
  5
19C70
330
19C36
100
AcDbEntity
  8
部品1
 48
0.01
100
AcDbCircle
 10
3242.000000000002
 20
32.5
 30
0.0
 40
2.0
100
AcDbArc
 50
180.0
 51
270.0
  0
ARC
  5
19C71
330
19C36
100
AcDbEntity
  8
部品1
 48
0.01
100
AcDbCircle
 10
3417.999999999999
 20
32.5
 30
0.0
 40
2.0
100
AcDbArc
 50
270.0
 51
0.0
  0
ARC
  5
19C72
330
19C36
100
AcDbEntity
  8
部品1
 48
0.01
100
AcDbCircle
 10
4472.000000000002
 20
64.0
 30
0.0
 40
2.0
100
AcDbArc
 50
90.0
 51
180.0
  0
ARC
  5
19C73
330
19C36
100
AcDbEntity
  8
部品1
 48
0.01
100
AcDbCircle
 10
4648.000000000002
 20
64.0
 30
0.0
 40
2.0
100
AcDbArc
 50
0.0
 51
90.0
  0
LINE
  5
19C74
330
19C36
100
AcDbEntity
  8
細線
100
AcDbLine
 10
4560.000000000001
 20
36.5
 30
0.0
 11
4486.000000000002
 21
36.5
 31
0.0
  0
LINE
  5
19C75
330
19C36
100
AcDbEntity
  8
細線
100
AcDbLine
 10
4560.000000000001
 20
59.5
 30
0.0
 11
4634.000000000002
 21
59.5
 31
0.0
  0
LINE
  5
19C76
330
19C36
100
AcDbEntity
  8
細線
100
AcDbLine
 10
4634.000000000002
 20
36.5
 30
0.0
 11
4560.000000000001
 21
36.5
 31
0.0
  0
LINE
  5
19C77
330
19C36
100
AcDbEntity
  8
細線
100
AcDbLine
 10
4486.000000000002
 20
59.5
 30
0.0
 11
4560.000000000001
 21
59.5
 31
0.0
  0
LINE
  5
19C78
330
19C36
100
AcDbEntity
  8
細線
100
AcDbLine
 10
4486.000000000002
 20
36.5
 30
0.0
 11
4486.000000000002
 21
59.5
 31
0.0
  0
LINE
  5
19C79
330
19C36
100
AcDbEntity
  8
細線
100
AcDbLine
 10
4634.000000000002
 20
59.5
 30
0.0
 11
4634.000000000002
 21
36.5
 31
0.0
  0
LINE
  5
19C7A
330
19C36
100
AcDbEntity
  8
部品1
 48
0.01
100
AcDbLine
 10
4470.000000000001
 20
32.5
 30
0.0
 11
4470.000000000001
 21
64.0
 31
0.0
  0
LINE
  5
19C7B
330
19C36
100
AcDbEntity
  8
部品1
 48
0.01
100
AcDbLine
 10
4650.000000000002
 20
64.0
 30
0.0
 11
4650.000000000002
 21
32.5
 31
0.0
  0
LINE
  5
19C7C
330
19C36
100
AcDbEntity
  8
部品1
 48
0.01
100
AcDbLine
 10
4472.000000000002
 20
66.0
 30
0.0
 11
4648.000000000002
 21
66.0
 31
0.0
  0
LINE
  5
19C7D
330
19C36
100
AcDbEntity
  8
細線
100
AcDbLine
 10
4634.000000000002
 20
53.5
 30
0.0
 11
4560.000000000001
 21
53.5
 31
0.0
  0
LINE
  5
19C7E
330
19C36
100
AcDbEntity
  8
細線
100
AcDbLine
 10
4634.000000000002
 20
47.5
 30
0.0
 11
4560.000000000001
 21
47.5
 31
0.0
  0
LINE
  5
19C7F
330
19C36
100
AcDbEntity
  8
細線
100
AcDbLine
 10
4634.000000000002
 20
41.5
 30
0.0
 11
4560.000000000001
 21
41.5
 31
0.0
  0
LINE
  5
19C80
330
19C36
100
AcDbEntity
  8
細線
100
AcDbLine
 10
4634.000000000002
 20
53.5
 30
0.0
 11
4565.000000000002
 21
53.5
 31
0.0
  0
LINE
  5
19C81
330
19C36
100
AcDbEntity
  8
細線
100
AcDbLine
 10
4486.000000000002
 20
53.5
 30
0.0
 11
4560.000000000001
 21
53.5
 31
0.0
  0
LINE
  5
19C82
330
19C36
100
AcDbEntity
  8
細線
100
AcDbLine
 10
4486.000000000002
 20
41.5
 30
0.0
 11
4560.000000000001
 21
41.5
 31
0.0
  0
LINE
  5
19C83
330
19C36
100
AcDbEntity
  8
細線
100
AcDbLine
 10
4486.000000000002
 20
47.5
 30
0.0
 11
4560.000000000001
 21
47.5
 31
0.0
  0
LINE
  5
19C84
330
19C36
100
AcDbEntity
  8
細線
100
AcDbLine
 10
4560.000000000001
 20
59.5
 30
0.0
 11
4560.000000000001
 21
36.5
 31
0.0
  0
LINE
  5
19C85
330
19C36
100
AcDbEntity
  8
細線
100
AcDbLine
 10
3330.000000000002
 20
59.5
 30
0.0
 11
3329.999999999998
 21
36.5
 31
0.0
  0
LINE
  5
19C86
330
19C36
100
AcDbEntity
  8
細線
100
AcDbLine
 10
3403.999999999999
 20
47.5
 30
0.0
 11
3330.000000000002
 21
47.5
 31
0.0
  0
LINE
  5
19C87
330
19C36
100
AcDbEntity
  8
細線
100
AcDbLine
 10
3403.999999999999
 20
41.5
 30
0.0
 11
3330.000000000002
 21
41.5
 31
0.0
  0
LINE
  5
19C88
330
19C36
100
AcDbEntity
  8
細線
100
AcDbLine
 10
3403.999999999999
 20
53.5
 30
0.0
 11
3330.000000000002
 21
53.5
 31
0.0
  0
LINE
  5
19C89
330
19C36
100
AcDbEntity
  8
細線
100
AcDbLine
 10
3256.000000000002
 20
53.5
 30
0.0
 11
3325.000000000002
 21
53.5
 31
0.0
  0
LINE
  5
19C8A
330
19C36
100
AcDbEntity
  8
細線
100
AcDbLine
 10
3255.999999999998
 20
41.5
 30
0.0
 11
3330.000000000002
 21
41.5
 31
0.0
  0
LINE
  5
19C8B
330
19C36
100
AcDbEntity
  8
細線
100
AcDbLine
 10
3256.000000000002
 20
47.5
 30
0.0
 11
3330.000000000002
 21
47.5
 31
0.0
  0
LINE
  5
19C8C
330
19C36
100
AcDbEntity
  8
細線
100
AcDbLine
 10
3256.000000000002
 20
53.5
 30
0.0
 11
3330.000000000002
 21
53.5
 31
0.0
  0
LINE
  5
19C8D
330
19C36
100
AcDbEntity
  8
部品1
 48
0.01
100
AcDbLine
 10
3418.000000000002
 20
66.0
 30
0.0
 11
3242.000000000002
 21
66.0
 31
0.0
  0
LINE
  5
19C8E
330
19C36
100
AcDbEntity
  8
部品1
 48
0.01
100
AcDbLine
 10
3240.000000000002
 20
64.0
 30
0.0
 11
3240.000000000002
 21
32.5
 31
0.0
  0
LINE
  5
19C8F
330
19C36
100
AcDbEntity
  8
部品1
 48
0.01
100
AcDbLine
 10
3419.999999999998
 20
32.5
 30
0.0
 11
3420.000000000002
 21
64.0
 31
0.0
  0
LINE
  5
19C90
330
19C36
100
AcDbEntity
  8
細線
100
AcDbLine
 10
3256.000000000002
 20
59.5
 30
0.0
 11
3256.000000000002
 21
36.5
 31
0.0
  0
LINE
  5
19C91
330
19C36
100
AcDbEntity
  8
細線
100
AcDbLine
 10
3404.000000000002
 20
36.5
 30
0.0
 11
3404.000000000002
 21
59.5
 31
0.0
  0
LINE
  5
19C92
330
19C36
100
AcDbEntity
  8
細線
100
AcDbLine
 10
3404.000000000002
 20
59.5
 30
0.0
 11
3330.000000000002
 21
59.5
 31
0.0
  0
LINE
  5
19C93
330
19C36
100
AcDbEntity
  8
細線
100
AcDbLine
 10
3256.000000000002
 20
36.5
 30
0.0
 11
3330.000000000002
 21
36.5
 31
0.0
  0
LINE
  5
19C94
330
19C36
100
AcDbEntity
  8
細線
100
AcDbLine
 10
3330.000000000002
 20
59.5
 30
0.0
 11
3256.000000000002
 21
59.5
 31
0.0
  0
LINE
  5
19C95
330
19C36
100
AcDbEntity
  8
細線
100
AcDbLine
 10
3329.999999999998
 20
36.5
 30
0.0
 11
3404.000000000002
 21
36.5
 31
0.0
  0
ARC
  5
19C96
330
19C36
100
AcDbEntity
  8
部品1
 48
0.01
100
AcDbCircle
 10
3242.000000000002
 20
64.0
 30
0.0
 40
2.0
100
AcDbArc
 50
90.0
 51
180.0
  0
ARC
  5
19C97
330
19C36
100
AcDbEntity
  8
部品1
 48
0.01
100
AcDbCircle
 10
3418.000000000002
 20
64.0
 30
0.0
 40
2.0
100
AcDbArc
 50
0.0
 51
90.0
  0
CIRCLE
  5
19C98
330
19C36
100
AcDbEntity
  8
細線
 48
50.0
100
AcDbCircle
 10
3944.999999999997
 20
-1252.5
 30
0.0
 40
18.0
  0
ARC
  5
19C99
330
19C36
100
AcDbEntity
  8
細線
 48
50.0
100
AcDbCircle
 10
4244.999999999996
 20
-1577.5
 30
0.0
 40
15.0
100
AcDbArc
 50
270.0
 51
90.0
  0
ARC
  5
19C9A
330
19C36
100
AcDbEntity
  8
細線
 48
50.0
100
AcDbCircle
 10
4144.999999999996
 20
-1577.5
 30
0.0
 40
15.0
100
AcDbArc
 50
90.0
 51
270.0
  0
LINE
  5
19C9B
330
19C36
100
AcDbEntity
  8
細線
 48
50.0
100
AcDbLine
 10
4144.999999999996
 20
-1562.5
 30
0.0
 11
4244.999999999996
 21
-1562.5
 31
0.0
  0
LINE
  5
19C9C
330
19C36
100
AcDbEntity
  8
細線
 48
50.0
100
AcDbLine
 10
4244.999999999996
 20
-1592.5
 30
0.0
 11
4144.999999999996
 21
-1592.5
 31
0.0
  0
LINE
  5
19C9D
330
19C36
100
AcDbEntity
  8
細線
 48
50.0
100
AcDbLine
 10
3744.999999999997
 20
-1592.5
 30
0.0
 11
3644.999999999997
 21
-1592.5
 31
0.0
  0
LINE
  5
19C9E
330
19C36
100
AcDbEntity
  8
細線
 48
50.0
100
AcDbLine
 10
3644.999999999997
 20
-1562.5
 30
0.0
 11
3744.999999999997
 21
-1562.5
 31
0.0
  0
ARC
  5
19C9F
330
19C36
100
AcDbEntity
  8
細線
 48
50.0
100
AcDbCircle
 10
3744.999999999997
 20
-1577.5
 30
0.0
 40
15.0
100
AcDbArc
 50
270.0
 51
90.0
  0
ARC
  5
19CA0
330
19C36
100
AcDbEntity
  8
細線
 48
50.0
100
AcDbCircle
 10
3644.999999999997
 20
-1577.5
 30
0.0
 40
15.0
100
AcDbArc
 50
90.0
 51
270.0
  0
ENDBLK
  5
19CA2
330
19C36
100
AcDbEntity
  8
0
 48
50.0
100
AcDbBlockEnd
  0
ENDSEC
  0
SECTION
  2
ENTITIES
  0
MTEXT
  5
763F
330
747D
100
AcDbEntity
  8
0
100
AcDbMText
 10
302.846345836809
 20
280.1983726409901
 30
0.0
 40
3.5
 41
5.323721266742722
 71
     1
 72
     5
  1

  7
MSMINCHO
 73
     1
 44
1.0
1001
ACAD
1000
MTEXTBEGIN
1070
    73
1070
     1
1070
    44
1040
1.0
1070
    74
1070
     0
1000
MTEXTEND
  0
LINE
  5
10B57
330
747D
100
AcDbEntity
  8
補助
  6
PHANTOM
 62
   230
 48
50.0
100
AcDbLine
 10
139.9999999999995
 20
11409.6
 30
0.0
 11
16307.2
 21
11409.6
 31
0.0
  0
LINE
  5
10B59
330
747D
100
AcDbEntity
  8
仕様書枠
  6
Continuous
 48
50.0
100
AcDbLine
 10
13107.2
 20
1200.0
 30
0.0
 11
13107.2
 21
-0.0000000000000729
 31
0.0
  0
LINE
  5
10B5C
330
747D
100
AcDbEntity
  8
仕様書枠
 48
50.0
100
AcDbLine
 10
16307.2
 20
1200.0
 30
0.0
 11
16307.2
 21
-0.0000000000000909
 31
0.0
  0
LINE
  5
10B5D
330
747D
100
AcDbEntity
  8
仕様書枠
 48
50.0
100
AcDbLine
 10
140.0
 20
0.0
 30
0.0
 11
16307.2
 21
-0.0000000000000909
 31
0.0
  0
LINE
  5
10B5E
330
747D
100
AcDbEntity
  8
補助
  6
PHANTOM
 62
   230
 48
50.0
100
AcDbLine
 10
16307.2
 20
11409.6
 30
0.0
 11
16307.2
 21
1200.0
 31
0.0
  0
LINE
  5
10B6C
330
747D
100
AcDbEntity
  8
仕様書枠
 48
50.0
100
AcDbLine
 10
13107.2
 20
1200.0
 30
0.0
 11
16307.2
 21
1200.0
 31
0.0
  0
LINE
  5
10B6D
330
747D
100
AcDbEntity
  8
補助
  6
PHANTOM
 62
   230
 48
50.0
100
AcDbLine
 10
13107.2
 20
11409.6
 30
0.0
 11
13107.2
 21
4800.0
 31
0.0
  0
LINE
  5
10B6F
330
747D
100
AcDbEntity
  8
補助
  6
PHANTOM
 62
   230
 48
50.0
100
AcDbLine
 10
13107.2
 20
4800.0
 30
0.0
 11
16307.2
 21
4800.0
 31
0.0
  0
LINE
  5
10B72
330
747D
100
AcDbEntity
  8
文字
 62
     7
 48
50.0
100
AcDbLine
 10
13187.2
 20
400.0
 30
0.0
 11
16227.2
 21
400.0
 31
0.0
  0
TEXT
  5
10B73
330
747D
100
AcDbEntity
  8
文字
 62
     7
 48
50.0
100
AcDbText
 10
13162.9790565769
 20
895.0906074299405
 30
0.0
 40
200.0
  1
外 形 図
  7
STYLE2
100
AcDbText
  0
TEXT
  5
10B74
330
747D
100
AcDbEntity
  8
文字
 62
     7
 48
50.0
100
AcDbText
 10
13201.43669998441
 20
477.2740661031255
 30
0.0
 40
160.0
  1
機種名
  7
STYLE2
100
AcDbText
  0
TEXT
  5
10B75
330
747D
100
AcDbEntity
  8
文字
 62
     7
 48
50.0
100
AcDbText
 10
13209.4053442172
 20
228.5435242569016
 30
0.0
 40
100.0
  1
○有効開口寸法 ： 2424×1648(mm)
  7
STYLE2
100
AcDbText
  0
TEXT
  5
10B79
330
747D
100
AcDbEntity
  8
文字
 62
     7
 48
50.0
100
AcDbText
 10
14524.131837222
 20
1031.557706291228
 30
0.0
 40
100.0
  1
NO.44      <縮尺> S=1/40
  7
STYLE2
100
AcDbText
  0
LINE
  5
10B7B
330
747D
100
AcDbEntity
  8
仕様書枠
 48
50.0
100
AcDbLine
 10
13107.2
 20
800.0
 30
0.0
 11
14251.2
 21
800.0
 31
0.0
  0
LINE
  5
10B88
330
747D
100
AcDbEntity
  8
仕様書枠
  6
Continuous
 48
50.0
100
AcDbLine
 10
14251.2
 20
1200.0
 30
0.0
 11
14251.2
 21
800.0
 31
0.0
  0
LINE
  5
127A8
330
747D
100
AcDbEntity
  8
部品1
100
AcDbLine
 10
1755.903465777292
 20
2191.174431315804
 30
0.0
 11
1905.903465777292
 21
2191.174431315804
 31
0.0
  0
LINE
  5
127A9
330
747D
100
AcDbEntity
  8
部品1
100
AcDbLine
 10
1830.903465777292
 20
2061.270620748139
 30
0.0
 11
1755.903465777292
 21
2191.174431315804
 31
0.0
  0
TEXT
  5
127AA
330
747D
100
AcDbEntity
  8
部品1
100
AcDbText
 10
1934.008407902065
 20
2097.37752435404
 30
0.0
 40
125.0
  1
G.L
  7
MSGOTHIC
100
AcDbText
  0
LINE
  5
127AB
330
747D
100
AcDbEntity
  8
部品1
100
AcDbLine
 10
1905.903465777292
 20
2191.174431315804
 30
0.0
 11
1830.903465777292
 21
2061.270620748139
 31
0.0
  0
LINE
  5
13C1F
330
747D
100
AcDbEntity
  8
部品1
100
AcDbLine
 10
2744.673057123677
 20
4095.270620748146
 30
0.0
 11
2744.673057123677
 21
2061.270620748139
 31
0.0
  0
LINE
  5
13CFC
330
747D
100
AcDbEntity
  8
部品1
100
AcDbLine
 10
7949.673057123675
 20
3836.270620748138
 30
0.0
 11
7949.673057123675
 21
2161.270620748139
 31
0.0
  0
LINE
  5
13CFE
330
747D
100
AcDbEntity
  8
部品1
100
AcDbLine
 10
2799.673057123677
 20
3836.27062074814
 30
0.0
 11
2799.673057123677
 21
2161.270620748139
 31
0.0
  0
LINE
  5
13D18
330
747D
100
AcDbEntity
  8
部品1
100
AcDbLine
 10
8004.673057123676
 20
4095.270620748148
 30
0.0
 11
8004.673057123676
 21
2061.270620748139
 31
0.0
  0
LINE
  5
146B2
330
747D
100
AcDbEntity
  8
破線
 48
5.0
100
AcDbLine
 10
8004.673057123676
 20
2061.270620748139
 30
0.0
 11
8004.673057123676
 21
1811.270620748139
 31
0.0
  0
LINE
  5
146B3
330
747D
100
AcDbEntity
  8
破線
 48
5.0
100
AcDbLine
 10
2744.673057123677
 20
2061.270620748139
 30
0.0
 11
2744.673057123675
 21
1811.270620748139
 31
0.0
  0
TEXT
  5
149A1
330
747D
100
AcDbEntity
  8
部品1
100
AcDbText
 10
5083.463127747398
 20
1218.377091529614
 30
0.0
 40
135.0
  1
正面図
  7
MSGOTHIC
100
AcDbText
  0
LWPOLYLINE
  5
149A2
330
747D
100
AcDbEntity
  8
部品1
100
AcDbPolyline
 90
        4
 70
     1
 43
0.0
 10
4992.937724009443
 20
1411.270620748139
 10
4992.937724009443
 20
1171.378299202606
 10
5756.408390237882
 20
1171.378299202606
 10
5756.408390237882
 20
1411.270620748139
  0
TEXT
  5
14E88
330
747D
100
AcDbEntity
  8
部品1
100
AcDbText
 10
5082.857333838481
 20
5802.378858851012
 30
0.0
 40
135.0
  1
平面図
  7
MSGOTHIC
100
AcDbText
  0
LWPOLYLINE
  5
14E89
330
747D
100
AcDbEntity
  8
部品1
100
AcDbPolyline
 90
        4
 70
     1
 43
0.0
 10
4992.937724009443
 20
5995.272388069536
 10
4992.937724009443
 20
5755.380066524003
 10
5756.408390237883
 20
5755.380066524003
 10
5756.408390237883
 20
5995.272388069536
  0
TEXT
  5
15550
330
747D
100
AcDbEntity
  8
文字
 62
     7
 48
50.0
100
AcDbText
 10
14663.3224864739
 20
871.9640646083623
 30
0.0
 40
100.0
  1
～一般型・多雪地型～
  7
STYLE2
100
AcDbText
  0
LINE
  5
15CE5
330
747D
100
AcDbEntity
  8
破線
 48
5.0
100
AcDbLine
 10
7949.673057123675
 20
2161.270620748139
 30
0.0
 11
7949.673057123677
 21
1811.270620748139
 31
0.0
  0
LINE
  5
15CE6
330
747D
100
AcDbEntity
  8
破線
 48
5.0
100
AcDbLine
 10
2799.673057123677
 20
2161.270620748139
 30
0.0
 11
2799.673057123675
 21
1811.270620748139
 31
0.0
  0
LINE
  5
15CE7
330
747D
100
AcDbEntity
  8
破線
 48
5.0
100
AcDbLine
 10
8004.673057123675
 20
1811.270620748139
 30
0.0
 11
7949.673057123677
 21
1811.270620748139
 31
0.0
  0
LINE
  5
15CE8
330
747D
100
AcDbEntity
  8
破線
 48
5.0
100
AcDbLine
 10
2799.673057123675
 20
1811.270620748146
 30
0.0
 11
2744.673057123675
 21
1811.270620748146
 31
0.0
  0
LINE
  5
15CE9
330
747D
100
AcDbEntity
  8
部品1
100
AcDbLine
 10
2847.673057123677
 20
3836.270620748139
 30
0.0
 11
2847.673057123677
 21
2161.270620748139
 31
0.0
  0
LINE
  5
15CEA
330
747D
100
AcDbEntity
  8
破線
 48
5.0
100
AcDbLine
 10
2847.673057123677
 20
2161.270620748139
 30
0.0
 11
2847.673057123675
 21
1911.270620748144
 31
0.0
  0
LINE
  5
15CEB
330
747D
100
AcDbEntity
  8
部品1
100
AcDbLine
 10
7901.673057123679
 20
3836.27062074814
 30
0.0
 11
7901.673057123675
 21
2161.270620748139
 31
0.0
  0
LINE
  5
15CEC
330
747D
100
AcDbEntity
  8
破線
 48
5.0
100
AcDbLine
 10
7901.673057123675
 20
2161.270620748139
 30
0.0
 11
7901.673057123677
 21
1911.270620748139
 31
0.0
  0
LINE
  5
15CED
330
747D
100
AcDbEntity
  8
破線
 48
5.0
100
AcDbLine
 10
7949.673057123678
 20
1911.270620748139
 30
0.0
 11
7901.673057123677
 21
1911.270620748139
 31
0.0
  0
LINE
  5
15CEE
330
747D
100
AcDbEntity
  8
破線
 48
5.0
100
AcDbLine
 10
2847.673057123675
 20
1911.270620748144
 30
0.0
 11
2799.673057123675
 21
1911.270620748144
 31
0.0
  0
LINE
  5
15D20
330
747D
100
AcDbEntity
  8
細線
100
AcDbLine
 10
5477.673057123674
 20
3796.270620748139
 30
0.0
 11
7901.673057123675
 21
3796.270620748139
 31
0.0
  0
LINE
  5
15D23
330
747D
100
AcDbEntity
  8
細線
100
AcDbLine
 10
5477.673057123674
 20
3406.270620748139
 30
0.0
 11
7901.673057123675
 21
3406.270620748139
 31
0.0
  0
LINE
  5
15D24
330
747D
100
AcDbEntity
  8
細線
100
AcDbLine
 10
5477.673057123674
 20
3471.270620748139
 30
0.0
 11
7901.673057123675
 21
3471.270620748139
 31
0.0
  0
LINE
  5
15D25
330
747D
100
AcDbEntity
  8
細線
100
AcDbLine
 10
5477.673057123674
 20
3536.270620748139
 30
0.0
 11
7901.673057123675
 21
3536.270620748139
 31
0.0
  0
LINE
  5
15D26
330
747D
100
AcDbEntity
  8
細線
100
AcDbLine
 10
5477.673057123674
 20
3601.270620748139
 30
0.0
 11
7901.673057123675
 21
3601.270620748139
 31
0.0
  0
LINE
  5
15D27
330
747D
100
AcDbEntity
  8
細線
100
AcDbLine
 10
5477.673057123674
 20
3666.270620748139
 30
0.0
 11
7901.673057123675
 21
3666.270620748139
 31
0.0
  0
LINE
  5
15D28
330
747D
100
AcDbEntity
  8
細線
100
AcDbLine
 10
5477.673057123674
 20
3731.270620748139
 30
0.0
 11
7901.673057123675
 21
3731.270620748139
 31
0.0
  0
LINE
  5
15D29
330
747D
100
AcDbEntity
  8
細線
100
AcDbLine
 10
5477.673057123674
 20
2756.270620748139
 30
0.0
 11
7901.673057123675
 21
2756.270620748139
 31
0.0
  0
LINE
  5
15D2A
330
747D
100
AcDbEntity
  8
細線
100
AcDbLine
 10
5477.673057123674
 20
2821.270620748139
 30
0.0
 11
7901.673057123675
 21
2821.270620748139
 31
0.0
  0
LINE
  5
15D2B
330
747D
100
AcDbEntity
  8
細線
100
AcDbLine
 10
5477.673057123674
 20
2886.270620748139
 30
0.0
 11
7901.673057123675
 21
2886.270620748139
 31
0.0
  0
LINE
  5
15D2C
330
747D
100
AcDbEntity
  8
細線
100
AcDbLine
 10
5477.673057123674
 20
2951.270620748139
 30
0.0
 11
7901.673057123675
 21
2951.270620748139
 31
0.0
  0
LINE
  5
15D2D
330
747D
100
AcDbEntity
  8
細線
100
AcDbLine
 10
5477.673057123674
 20
3016.270620748139
 30
0.0
 11
7901.673057123675
 21
3016.270620748139
 31
0.0
  0
LINE
  5
15D2E
330
747D
100
AcDbEntity
  8
細線
100
AcDbLine
 10
5477.673057123674
 20
3081.270620748139
 30
0.0
 11
7901.673057123675
 21
3081.270620748139
 31
0.0
  0
LINE
  5
15D2F
330
747D
100
AcDbEntity
  8
細線
100
AcDbLine
 10
5477.673057123674
 20
3146.270620748139
 30
0.0
 11
7901.673057123675
 21
3146.270620748139
 31
0.0
  0
LINE
  5
15D30
330
747D
100
AcDbEntity
  8
細線
100
AcDbLine
 10
5477.673057123674
 20
3211.270620748139
 30
0.0
 11
7901.673057123675
 21
3211.270620748139
 31
0.0
  0
LINE
  5
15D31
330
747D
100
AcDbEntity
  8
細線
100
AcDbLine
 10
5477.673057123674
 20
3276.270620748139
 30
0.0
 11
7901.673057123675
 21
3276.270620748139
 31
0.0
  0
LINE
  5
15D32
330
747D
100
AcDbEntity
  8
細線
100
AcDbLine
 10
5477.673057123674
 20
3341.270620748139
 30
0.0
 11
7901.673057123675
 21
3341.270620748139
 31
0.0
  0
LINE
  5
15D36
330
747D
100
AcDbEntity
  8
細線
100
AcDbLine
 10
5477.673057123674
 20
2171.270620748139
 30
0.0
 11
7901.673057123675
 21
2171.270620748139
 31
0.0
  0
LINE
  5
15D37
330
747D
100
AcDbEntity
  8
細線
100
AcDbLine
 10
5477.673057123674
 20
2236.270620748139
 30
0.0
 11
7901.673057123675
 21
2236.270620748139
 31
0.0
  0
LINE
  5
15D38
330
747D
100
AcDbEntity
  8
細線
100
AcDbLine
 10
5477.673057123674
 20
2301.270620748139
 30
0.0
 11
7901.673057123675
 21
2301.270620748139
 31
0.0
  0
LINE
  5
15D39
330
747D
100
AcDbEntity
  8
細線
100
AcDbLine
 10
5477.673057123674
 20
2366.270620748139
 30
0.0
 11
7901.673057123675
 21
2366.270620748139
 31
0.0
  0
LINE
  5
15D3A
330
747D
100
AcDbEntity
  8
細線
100
AcDbLine
 10
5477.673057123674
 20
2431.270620748139
 30
0.0
 11
7901.673057123675
 21
2431.270620748139
 31
0.0
  0
LINE
  5
15D3B
330
747D
100
AcDbEntity
  8
細線
100
AcDbLine
 10
5477.673057123674
 20
2496.270620748139
 30
0.0
 11
7901.673057123675
 21
2496.270620748139
 31
0.0
  0
LINE
  5
15D3C
330
747D
100
AcDbEntity
  8
細線
100
AcDbLine
 10
5477.673057123674
 20
2561.270620748139
 30
0.0
 11
7901.673057123675
 21
2561.270620748139
 31
0.0
  0
LINE
  5
15D3D
330
747D
100
AcDbEntity
  8
細線
100
AcDbLine
 10
5477.673057123674
 20
2626.270620748139
 30
0.0
 11
7901.673057123675
 21
2626.270620748139
 31
0.0
  0
LINE
  5
15D3E
330
747D
100
AcDbEntity
  8
細線
100
AcDbLine
 10
5477.673057123674
 20
2691.270620748139
 30
0.0
 11
7901.673057123675
 21
2691.270620748139
 31
0.0
  0
LINE
  5
15D3F
330
747D
100
AcDbEntity
  8
細線
100
AcDbLine
 10
7901.673057123677
 20
2171.270620748139
 30
0.0
 11
5477.673057123671
 21
2171.270620748139
 31
0.0
  0
DIMENSION
  5
162CD
330
747D
100
AcDbEntity
  8
寸法
100
AcDbDimension
  2
*D1
 10
8652.099402858089
 20
7197.497424545952
 30
0.0
 11
8552.087591834467
 21
8457.497424545961
 31
0.0
 70
    32
  1
6X420=<>
 71
     5
 42
2520.000000000015
  3
INABA_S40G
100
AcDbAlignedDimension
 13
8004.673057123683
 23
9717.497424545967
 33
0.0
 14
8004.673057123659
 24
7197.497424545952
 34
0.0
 50
90.0
100
AcDbRotatedDimension
1001
ACAD
1000
DSTYLE
1002
{
1002
}
  0
DIMENSION
  5
162CE
330
747D
100
AcDbEntity
  8
寸法
100
AcDbDimension
  2
*D2
 10
8652.09940285807
 20
7142.497424545957
 30
0.0
 11
8652.099402858068
 21
6764.635957641094
 31
0.0
 70
   160
 71
     5
 42
54.99999999999636
  3
INABA_S40G
100
AcDbAlignedDimension
 13
8004.673057123659
 23
7197.497424545952
 33
0.0
 14
8004.673057123659
 24
7142.497424545957
 34
0.0
 50
90.0
100
AcDbRotatedDimension
1001
ACAD
1000
DSTYLE
1002
{
1002
}
  0
DIMENSION
  5
162CF
330
747D
100
AcDbEntity
  8
寸法
100
AcDbDimension
  2
*D3
 10
8652.099402858096
 20
9717.497424545967
 30
0.0
 11
8652.099402858095
 21
10080.9827059202
 31
0.0
 70
   160
 71
     5
 42
54.99999999999636
  3
INABA_S40G
100
AcDbAlignedDimension
 13
8004.673057123683
 23
9772.497424545964
 33
0.0
 14
8004.673057123683
 24
9717.497424545967
 34
0.0
 50
90.0
100
AcDbRotatedDimension
1001
ACAD
1000
DSTYLE
1002
{
1002
}
  0
DIMENSION
  5
162D0
330
747D
100
AcDbEntity
  8
寸法
100
AcDbDimension
  2
*D4
 10
9017.206344597729
 20
7142.497424545957
 30
0.0
 11
8917.194533574106
 21
8457.497424545961
 31
0.0
 70
    32
 71
     5
 42
2630.000000000007
  3
INABA_S40G
100
AcDbAlignedDimension
 13
8004.673057123683
 23
9772.497424545964
 33
0.0
 14
8004.673057123659
 24
7142.497424545957
 34
0.0
 50
90.0
100
AcDbRotatedDimension
1001
ACAD
1000
DSTYLE
1002
{
1002
}
  0
LINE
  5
162DC
330
747D
100
AcDbEntity
  8
部品1
100
AcDbLine
 10
7976.673057123668
 20
9744.497424545963
 30
0.0
 11
7976.673057123661
 21
7197.497424545952
 31
0.0
  0
LINE
  5
162DD
330
747D
100
AcDbEntity
  8
部品1
100
AcDbLine
 10
2772.673057123659
 20
7197.497424545821
 30
0.0
 11
2772.673057123669
 21
9744.497424545871
 31
0.0
  0
LINE
  5
162DE
330
747D
100
AcDbEntity
  8
部品1
100
AcDbLine
 10
8004.673057123683
 20
9772.497424545964
 30
0.0
 11
8004.673057123659
 21
7142.497424545957
 31
0.0
  0
LINE
  5
162DF
330
747D
100
AcDbEntity
  8
部品1
100
AcDbLine
 10
2744.673057123649
 20
9772.497424545838
 30
0.0
 11
2744.673057123677
 21
7142.497424545826
 31
0.0
  0
DIMENSION
  5
162E4
330
747D
100
AcDbEntity
  8
寸法
 48
50.0
100
AcDbDimension
  2
*D5
 10
5477.673057123677
 20
6608.0666537797
 30
0.0
 11
6689.673057123667
 21
6708.078464803323
 31
0.0
 70
    32
  1
有効開口部間口 <>
 71
     5
 42
2423.999999999982
  3
INABA_S40G
100
AcDbAlignedDimension
 13
7901.673057123659
 23
7168.497424545865
 33
0.0
 14
5477.673057123677
 24
7168.497424545865
 34
0.0
100
AcDbRotatedDimension
1001
ACAD
1000
DSTYLE
1002
{
1070
    75
1070
     1
1070
   279
1070
     2
1002
}
  0
LINE
  5
162E6
330
747D
100
AcDbEntity
  8
部品1
 48
50.0
100
AcDbLine
 10
5441.673057123676
 20
7187.997424545864
 30
0.0
 11
7937.67305712366
 21
7187.997424545864
 31
0.0
  0
DIMENSION
  5
162E7
330
747D
100
AcDbEntity
  8
寸法
100
AcDbDimension
  2
*D6
 10
8004.673057123648
 20
6161.893658188827
 30
0.0
 11
5374.673057123662
 21
6261.905469212448
 31
0.0
 70
    32
 71
     5
 42
5259.999999999971
  3
INABA_S40G
100
AcDbAlignedDimension
 13
2744.673057123677
 23
7142.497424545862
 33
0.0
 14
8004.673057123648
 24
7142.497424545957
 34
0.0
100
AcDbRotatedDimension
1001
ACAD
1000
DSTYLE
1002
{
1002
}
  0
LINE
  5
162E8
330
747D
100
AcDbEntity
  8
部品1
100
AcDbLine
 10
2799.673057123654
 20
9717.497424545888
 30
0.0
 11
2799.673057123676
 21
7207.497424545863
 31
0.0
  0
LINE
  5
162E9
330
747D
100
AcDbEntity
  8
部品1
100
AcDbLine
 10
2824.673057123655
 20
9717.497424545886
 30
0.0
 11
2824.673057123676
 21
7207.497424545863
 31
0.0
  0
DIMENSION
  5
162EA
330
747D
100
AcDbEntity
  8
寸法
 48
50.0
100
AcDbDimension
  2
*D7
 10
2744.673057123677
 20
6608.0666537797
 30
0.0
 11
2436.187775749438
 21
6608.0666537797
 31
0.0
 70
   160
 71
     5
 42
54.99999999999636
  3
INABA_S40G
100
AcDbAlignedDimension
 13
2799.673057123673
 23
7142.497424545864
 33
0.0
 14
2744.673057123677
 24
7142.497424545862
 34
0.0
100
AcDbRotatedDimension
1001
ACAD
1000
DSTYLE
1002
{
1002
}
  0
DIMENSION
  5
162EB
330
747D
100
AcDbEntity
  8
寸法
 48
50.0
100
AcDbDimension
  2
*D8
 10
5429.673057123673
 20
6608.0666537797
 30
0.0
 11
5590.575028123734
 21
6708.0666537797
 31
0.0
 70
   160
 71
     5
 42
48.00000000000363
  3
INABA_S40G
100
AcDbAlignedDimension
 13
5477.673057123677
 23
7168.497424545865
 33
0.0
 14
5429.673057123673
 24
7142.497424545864
 34
0.0
100
AcDbRotatedDimension
1001
ACAD
1000
DSTYLE
1002
{
1070
   279
1070
     2
1002
}
  0
LINE
  5
162EC
330
747D
100
AcDbEntity
  8
部品1
100
AcDbLine
 10
2799.673057123672
 20
7142.497424545864
 30
0.0
 11
2744.673057123677
 21
7142.497424545862
 31
0.0
  0
LINE
  5
162ED
330
747D
100
AcDbEntity
  8
部品1
 48
50.0
100
AcDbLine
 10
2799.673057123677
 20
7178.497424545864
 30
0.0
 11
2776.673057123677
 21
7178.497424545864
 31
0.0
  0
LINE
  5
162EE
330
747D
100
AcDbEntity
  8
部品1
 48
50.0
100
AcDbLine
 10
2809.673057123677
 20
7168.497424545865
 30
0.0
 11
2799.673057123677
 21
7147.497424545864
 31
0.0
  0
LINE
  5
162EF
330
747D
100
AcDbEntity
  8
部品1
 48
50.0
100
AcDbLine
 10
2799.673057123677
 20
7207.497424545863
 30
0.0
 11
2799.673057123673
 21
7142.497424545864
 31
0.0
  0
LINE
  5
162F0
330
747D
100
AcDbEntity
  8
部品1
 48
50.0
100
AcDbLine
 10
2847.673057123677
 20
7168.497424545865
 30
0.0
 11
2847.673057123677
 21
7177.497424545865
 31
0.0
  0
LINE
  5
162F1
330
747D
100
AcDbEntity
  8
部品1
 48
50.0
100
AcDbLine
 10
2847.673057123677
 20
7207.497424545865
 30
0.0
 11
2847.673057123677
 21
7198.497424545866
 31
0.0
  0
LINE
  5
162F2
330
747D
100
AcDbEntity
  8
部品1
100
AcDbLine
 10
2847.673057123677
 20
7207.497424545865
 30
0.0
 11
2799.673057123677
 21
7207.497424545865
 31
0.0
  0
LINE
  5
162F3
330
747D
100
AcDbEntity
  8
部品1
100
AcDbLine
 10
2847.673057123677
 20
7168.497424545865
 30
0.0
 11
2799.673057123677
 21
7168.497424545865
 31
0.0
  0
LINE
  5
162F4
330
747D
100
AcDbEntity
  8
部品1
100
AcDbLine
 10
2799.673057123676
 20
7178.497424545864
 30
0.0
 11
2776.673057123677
 21
7178.497424545864
 31
0.0
  0
LINE
  5
162F5
330
747D
100
AcDbEntity
  8
部品1
100
AcDbLine
 10
2799.673057123676
 20
7197.497424545789
 30
0.0
 11
2744.673057123675
 21
7197.497424545789
 31
0.0
  0
LINE
  5
162F6
330
747D
100
AcDbEntity
  8
部品1
100
AcDbLine
 10
2772.673057123659
 20
7197.497424545826
 30
0.0
 11
2744.673057123675
 21
7197.497424545826
 31
0.0
  0
LINE
  5
162F7
330
747D
100
AcDbEntity
  8
部品1
100
AcDbLine
 10
2772.673057123675
 20
7197.49742454584
 30
0.0
 11
2744.673057123675
 21
7197.49742454584
 31
0.0
  0
LINE
  5
162FB
330
747D
100
AcDbEntity
  8
部品1
100
AcDbLine
 10
2772.673057123663
 20
7617.49742454584
 30
0.0
 11
2744.673057123663
 21
7617.49742454584
 31
0.0
  0
LINE
  5
162FC
330
747D
100
AcDbEntity
  8
部品1
100
AcDbLine
 10
2772.673057123663
 20
8037.49742454584
 30
0.0
 11
2744.673057123663
 21
8037.49742454584
 31
0.0
  0
LINE
  5
162FE
330
747D
100
AcDbEntity
  8
部品1
100
AcDbLine
 10
2772.673057123658
 20
8457.49742454584
 30
0.0
 11
2744.673057123657
 21
8457.49742454584
 31
0.0
  0
LINE
  5
162FF
330
747D
100
AcDbEntity
  8
部品1
100
AcDbLine
 10
7949.673057123681
 20
9717.497424545886
 30
0.0
 11
7949.673057123661
 21
7142.497424545952
 31
0.0
  0
LINE
  5
16300
330
747D
100
AcDbEntity
  8
部品1
100
AcDbLine
 10
7924.673057123683
 20
9717.497424545884
 30
0.0
 11
7924.673057123661
 21
7207.497424545865
 31
0.0
  0
DIMENSION
  5
16301
330
747D
100
AcDbEntity
  8
寸法
 48
50.0
100
AcDbDimension
  2
*D9
 10
7901.673057123659
 20
6608.0666537797
 30
0.0
 11
7790.710159474911
 21
6708.0666537797
 31
0.0
 70
   160
 71
     5
 42
48.00000000000181
  3
INABA_S40G
100
AcDbAlignedDimension
 13
7949.673057123661
 23
7142.497424545952
 33
0.0
 14
7901.673057123659
 24
7168.497424545865
 34
0.0
100
AcDbRotatedDimension
1001
ACAD
1000
DSTYLE
1002
{
1070
   279
1070
     2
1002
}
  0
DIMENSION
  5
16302
330
747D
100
AcDbEntity
  8
寸法
 48
50.0
100
AcDbDimension
  2
*D10
 10
7949.673057123661
 20
6608.066653779701
 30
0.0
 11
8313.158338497897
 21
6608.066653779701
 31
0.0
 70
   160
 71
     5
 42
54.99999999999818
  3
INABA_S40G
100
AcDbAlignedDimension
 13
8004.673057123659
 23
7142.497424545957
 33
0.0
 14
7949.673057123661
 24
7142.497424545952
 34
0.0
100
AcDbRotatedDimension
1001
ACAD
1000
DSTYLE
1002
{
1002
}
  0
LINE
  5
16303
330
747D
100
AcDbEntity
  8
部品1
 48
50.0
100
AcDbLine
 10
7939.673057123659
 20
7168.497424545865
 30
0.0
 11
7949.673057123658
 21
7147.497424545864
 31
0.0
  0
LINE
  5
16304
330
747D
100
AcDbEntity
  8
部品1
100
AcDbLine
 10
7901.673057123659
 20
7207.497424545865
 30
0.0
 11
7949.673057123661
 21
7207.497424545865
 31
0.0
  0
LINE
  5
16305
330
747D
100
AcDbEntity
  8
部品1
100
AcDbLine
 10
7901.673057123659
 20
7168.497424545865
 30
0.0
 11
7949.673057123658
 21
7168.497424545865
 31
0.0
  0
LINE
  5
16306
330
747D
100
AcDbEntity
  8
部品1
 48
50.0
100
AcDbLine
 10
7901.673057123659
 20
7207.497424545865
 30
0.0
 11
7901.673057123659
 21
7198.497424545866
 31
0.0
  0
LINE
  5
16307
330
747D
100
AcDbEntity
  8
部品1
 48
50.0
100
AcDbLine
 10
7901.673057123659
 20
7168.497424545865
 30
0.0
 11
7901.673057123659
 21
7177.497424545865
 31
0.0
  0
LINE
  5
16308
330
747D
100
AcDbEntity
  8
部品1
100
AcDbLine
 10
7949.673057123658
 20
7178.497424545863
 30
0.0
 11
7972.673057123659
 21
7178.497424545864
 31
0.0
  0
LINE
  5
16309
330
747D
100
AcDbEntity
  8
部品1
100
AcDbLine
 10
7949.673057123658
 20
7197.497424545968
 30
0.0
 11
8004.673057123692
 21
7197.497424545968
 31
0.0
  0
LINE
  5
1630A
330
747D
100
AcDbEntity
  8
部品1
100
AcDbLine
 10
8004.673057123659
 20
7142.497424545957
 30
0.0
 11
7949.673057123661
 21
7142.497424545954
 31
0.0
  0
LINE
  5
16317
330
747D
100
AcDbEntity
  8
部品1
100
AcDbLine
 10
7976.673057123687
 20
7617.497424545966
 30
0.0
 11
8004.673057123687
 21
7617.497424545966
 31
0.0
  0
LINE
  5
16319
330
747D
100
AcDbEntity
  8
部品1
100
AcDbLine
 10
7976.673057123687
 20
8037.497424545966
 30
0.0
 11
8004.673057123687
 21
8037.497424545966
 31
0.0
  0
LINE
  5
1631A
330
747D
100
AcDbEntity
  8
部品1
100
AcDbLine
 10
7976.673057123683
 20
8457.497424545968
 30
0.0
 11
8004.673057123683
 21
8457.497424545968
 31
0.0
  0
LINE
  5
1631B
330
747D
100
AcDbEntity
  8
部品1
100
AcDbLine
 10
5402.673057123684
 20
9744.497424545986
 30
0.0
 11
6677.173057123681
 21
9744.497424545986
 31
0.0
  0
DIMENSION
  5
1631F
330
747D
100
AcDbEntity
  8
寸法
100
AcDbDimension
  2
*D11
 10
7949.673057123684
 20
9988.305644170967
 30
0.0
 11
6689.673057123684
 21
10088.31745519459
 31
0.0
 70
    32
  1
6X420=<>
 71
     5
 42
2520.000000000001
  3
INABA_S40G
100
AcDbAlignedDimension
 13
5429.673057123682
 23
9772.49742454587
 33
0.0
 14
7949.673057123684
 24
9772.497424545964
 34
0.0
100
AcDbRotatedDimension
1001
ACAD
1000
DSTYLE
1002
{
1002
}
  0
DIMENSION
  5
16320
330
747D
100
AcDbEntity
  8
寸法
100
AcDbDimension
  2
*D12
 10
2799.673057123683
 20
9988.30564417085
 30
0.0
 11
2436.18777574941
 21
9988.30564417085
 31
0.0
 70
   160
 71
     5
 42
55.00000000003456
  3
INABA_S40G
100
AcDbAlignedDimension
 13
2744.673057123649
 23
9772.49742454587
 33
0.0
 14
2799.673057123683
 24
9772.49742454587
 34
0.0
100
AcDbRotatedDimension
1001
ACAD
1000
DSTYLE
1002
{
1002
}
  0
LINE
  5
16321
330
747D
100
AcDbEntity
  8
部品1
100
AcDbLine
 10
2799.673057123649
 20
9772.497424545838
 30
0.0
 11
2799.67305712365
 21
9744.497424545837
 31
0.0
  0
LINE
  5
16322
330
747D
100
AcDbEntity
  8
部品1
100
AcDbLine
 10
2799.673057123683
 20
9772.49742454587
 30
0.0
 11
2799.673057123683
 21
9744.497424545869
 31
0.0
  0
LINE
  5
16323
330
747D
100
AcDbEntity
  8
部品1
100
AcDbLine
 10
2772.673057123651
 20
9717.49742454584
 30
0.0
 11
2744.67305712365
 21
9717.49742454584
 31
0.0
  0
LINE
  5
16324
330
747D
100
AcDbEntity
  8
部品1
100
AcDbLine
 10
5849.673057123683
 20
9772.497424545987
 30
0.0
 11
5849.673057123683
 21
9744.497424545986
 31
0.0
  0
LINE
  5
16325
330
747D
100
AcDbEntity
  8
部品1
100
AcDbLine
 10
5849.673057123683
 20
9772.49742454587
 30
0.0
 11
5849.673057123683
 21
9744.497424545869
 31
0.0
  0
LINE
  5
16326
330
747D
100
AcDbEntity
  8
部品1
100
AcDbLine
 10
5849.673057123683
 20
9772.49742454587
 30
0.0
 11
5849.673057123683
 21
9744.497424545869
 31
0.0
  0
LINE
  5
16327
330
747D
100
AcDbEntity
  8
部品1
100
AcDbLine
 10
6702.173057123683
 20
9744.497424545983
 30
0.0
 11
7976.673057123683
 21
9744.497424545963
 31
0.0
  0
LINE
  5
16329
330
747D
100
AcDbEntity
  8
部品1
100
AcDbLine
 10
6269.673057123683
 20
9772.497424545987
 30
0.0
 11
6269.673057123683
 21
9744.497424545986
 31
0.0
  0
LINE
  5
1632A
330
747D
100
AcDbEntity
  8
部品1
100
AcDbLine
 10
6269.673057123683
 20
9772.49742454587
 30
0.0
 11
6269.673057123683
 21
9744.497424545869
 31
0.0
  0
LINE
  5
1632B
330
747D
100
AcDbEntity
  8
部品1
100
AcDbLine
 10
6269.673057123683
 20
9772.49742454587
 30
0.0
 11
6269.673057123683
 21
9744.497424545869
 31
0.0
  0
LINE
  5
1632C
330
747D
100
AcDbEntity
  8
部品1
100
AcDbLine
 10
6689.673057123683
 20
9772.497424545987
 30
0.0
 11
6689.673057123683
 21
9744.497424545986
 31
0.0
  0
LINE
  5
1632D
330
747D
100
AcDbEntity
  8
部品1
100
AcDbLine
 10
6677.173057123683
 20
9736.497424545968
 30
0.0
 11
6702.173057123683
 21
9736.497424545971
 31
0.0
  0
LINE
  5
1632E
330
747D
100
AcDbEntity
  8
部品1
100
AcDbLine
 10
6718.673057123684
 20
9762.497424545971
 30
0.0
 11
6724.673057123684
 21
9762.497424545971
 31
0.0
  0
LINE
  5
1632F
330
747D
100
AcDbEntity
  8
部品1
100
AcDbLine
 10
6724.673057123684
 20
9762.497424545971
 30
0.0
 11
6724.673057123684
 21
9744.49742454597
 31
0.0
  0
LINE
  5
16330
330
747D
100
AcDbEntity
  8
部品1
100
AcDbLine
 10
6654.673057123684
 20
9762.497424545971
 30
0.0
 11
6660.673057123684
 21
9762.497424545971
 31
0.0
  0
LINE
  5
16331
330
747D
100
AcDbEntity
  8
部品1
100
AcDbLine
 10
6654.673057123684
 20
9762.497424545971
 30
0.0
 11
6654.673057123684
 21
9744.49742454597
 31
0.0
  0
DIMENSION
  5
16333
330
747D
100
AcDbEntity
  8
寸法
100
AcDbDimension
  2
*D13
 10
8004.673057123683
 20
9988.305644170949
 30
0.0
 11
8313.158338497922
 21
9988.305644170949
 31
0.0
 70
   160
 71
     5
 42
55.0
  3
INABA_S40G
100
AcDbAlignedDimension
 13
7949.673057123684
 23
9772.497424545964
 33
0.0
 14
8004.673057123683
 24
9772.497424545964
 34
0.0
100
AcDbRotatedDimension
1001
ACAD
1000
DSTYLE
1002
{
1002
}
  0
LINE
  5
16334
330
747D
100
AcDbEntity
  8
部品1
100
AcDbLine
 10
7109.673057123682
 20
9772.497424545987
 30
0.0
 11
7109.673057123682
 21
9744.497424545986
 31
0.0
  0
LINE
  5
16335
330
747D
100
AcDbEntity
  8
部品1
100
AcDbLine
 10
7949.673057123684
 20
9772.497424545964
 30
0.0
 11
7949.673057123684
 21
9744.497424545963
 31
0.0
  0
LINE
  5
16336
330
747D
100
AcDbEntity
  8
部品1
100
AcDbLine
 10
7949.673057123684
 20
9772.497424545987
 30
0.0
 11
7949.673057123684
 21
9744.497424545986
 31
0.0
  0
LINE
  5
16337
330
747D
100
AcDbEntity
  8
部品1
100
AcDbLine
 10
7976.673057123683
 20
9717.497424545967
 30
0.0
 11
8004.673057123683
 21
9717.497424545967
 31
0.0
  0
LINE
  5
1655C
330
747D
100
AcDbEntity
  8
部品1
100
AcDbLine
 10
5271.673057123678
 20
3836.27062074814
 30
0.0
 11
5271.673057123675
 21
2161.270620748139
 31
0.0
  0
LINE
  5
1655D
330
747D
100
AcDbEntity
  8
部品1
100
AcDbLine
 10
5319.673057123677
 20
3836.27062074814
 30
0.0
 11
5319.673057123675
 21
2161.270620748139
 31
0.0
  0
LINE
  5
1655E
330
747D
100
AcDbEntity
  8
破線
 48
5.0
100
AcDbLine
 10
5271.673057123675
 20
2161.270620748139
 30
0.0
 11
5271.673057123678
 21
1911.270620748139
 31
0.0
  0
LINE
  5
1655F
330
747D
100
AcDbEntity
  8
破線
 48
5.0
100
AcDbLine
 10
5319.673057123678
 20
1911.270620748139
 30
0.0
 11
5271.673057123677
 21
1911.270620748139
 31
0.0
  0
LINE
  5
16560
330
747D
100
AcDbEntity
  8
破線
 48
5.0
100
AcDbLine
 10
5319.673057123675
 20
2161.270620748139
 30
0.0
 11
5319.673057123677
 21
1886.270620748139
 31
0.0
  0
LINE
  5
16561
330
747D
100
AcDbEntity
  8
破線
 48
5.0
100
AcDbLine
 10
5429.673057123675
 20
1886.270620748138
 30
0.0
 11
5319.673057123677
 21
1886.270620748138
 31
0.0
  0
LINE
  5
16562
330
747D
100
AcDbEntity
  8
部品1
100
AcDbLine
 10
5477.673057123677
 20
3836.270620748139
 30
0.0
 11
5477.673057123677
 21
2161.270620748139
 31
0.0
  0
LINE
  5
16563
330
747D
100
AcDbEntity
  8
破線
 48
5.0
100
AcDbLine
 10
5477.673057123677
 20
2161.270620748139
 30
0.0
 11
5477.673057123674
 21
1911.270620748144
 31
0.0
  0
LINE
  5
16564
330
747D
100
AcDbEntity
  8
破線
 48
5.0
100
AcDbLine
 10
5477.673057123674
 20
1911.270620748144
 30
0.0
 11
5429.673057123675
 21
1911.270620748144
 31
0.0
  0
LINE
  5
16565
330
747D
100
AcDbEntity
  8
破線
 48
5.0
100
AcDbLine
 10
5429.673057123676
 20
2161.270620748139
 30
0.0
 11
5429.673057123675
 21
1886.270620748139
 31
0.0
  0
LINE
  5
16566
330
747D
100
AcDbEntity
  8
部品1
100
AcDbLine
 10
5429.673057123676
 20
3836.27062074814
 30
0.0
 11
5429.673057123676
 21
2161.270620748139
 31
0.0
  0
LINE
  5
16567
330
747D
100
AcDbEntity
  8
部品1
100
AcDbLine
 10
5429.673057123676
 20
3836.270620748139
 30
0.0
 11
8004.673057123676
 21
3836.27062074814
 31
0.0
  0
DIMENSION
  5
1659A
330
747D
100
AcDbEntity
  8
寸法
 48
50.0
100
AcDbDimension
  2
*D15
 10
5271.673057123659
 20
6608.0666537797
 30
0.0
 11
5160.710159474911
 21
6708.0666537797
 31
0.0
 70
   160
 71
     5
 42
48.00000000000181
  3
INABA_S40G
100
AcDbAlignedDimension
 13
5319.673057123661
 23
7142.497424545952
 33
0.0
 14
5271.673057123659
 24
7168.497424545865
 34
0.0
100
AcDbRotatedDimension
1001
ACAD
1000
DSTYLE
1002
{
1070
   279
1070
     2
1002
}
  0
DIMENSION
  5
1659C
330
747D
100
AcDbEntity
  8
寸法
 48
50.0
100
AcDbDimension
  2
*D14
 10
2799.673057123673
 20
6608.0666537797
 30
0.0
 11
2960.575028123734
 21
6708.0666537797
 31
0.0
 70
   160
 71
     5
 42
48.00000000000363
  3
INABA_S40G
100
AcDbAlignedDimension
 13
2847.673057123677
 23
7168.497424545865
 33
0.0
 14
2799.673057123673
 24
7142.497424545864
 34
0.0
100
AcDbRotatedDimension
1001
ACAD
1000
DSTYLE
1002
{
1070
   279
1070
     2
1002
}
  0
DIMENSION
  5
165E9
330
747D
100
AcDbEntity
  8
寸法
 48
50.0
100
AcDbDimension
  2
*D16
 10
5319.673057123661
 20
6608.066653779701
 30
0.0
 11
5374.673057123667
 21
6456.37475874347
 31
0.0
 70
   160
 71
     5
 42
110.0000000000127
  3
INABA_S40G
100
AcDbAlignedDimension
 13
5429.673057123673
 23
7142.497424545864
 33
0.0
 14
5319.673057123661
 24
7142.497424545952
 34
0.0
100
AcDbRotatedDimension
1001
ACAD
1000
DSTYLE
1002
{
1070
   279
1070
     2
1002
}
  0
LINE
  5
16656
330
747D
100
AcDbEntity
  8
部品1
100
AcDbLine
 10
5271.673057123659
 20
7207.497424545865
 30
0.0
 11
5319.673057123661
 21
7207.497424545865
 31
0.0
  0
LINE
  5
16657
330
747D
100
AcDbEntity
  8
部品1
 48
50.0
100
AcDbLine
 10
5271.673057123659
 20
7207.497424545865
 30
0.0
 11
5271.673057123659
 21
7198.497424545866
 31
0.0
  0
LINE
  5
16658
330
747D
100
AcDbEntity
  8
部品1
100
AcDbLine
 10
5271.673057123659
 20
7168.497424545865
 30
0.0
 11
5319.673057123658
 21
7168.497424545865
 31
0.0
  0
LINE
  5
16659
330
747D
100
AcDbEntity
  8
部品1
 48
50.0
100
AcDbLine
 10
5271.673057123659
 20
7168.497424545865
 30
0.0
 11
5271.673057123659
 21
7177.497424545865
 31
0.0
  0
LINE
  5
1665A
330
747D
100
AcDbEntity
  8
部品1
 48
50.0
100
AcDbLine
 10
5309.673057123658
 20
7168.497424545865
 30
0.0
 11
5319.673057123658
 21
7147.497424545864
 31
0.0
  0
LINE
  5
1665B
330
747D
100
AcDbEntity
  8
部品1
100
AcDbLine
 10
5319.673057123658
 20
7178.497424545863
 30
0.0
 11
5342.673057123659
 21
7178.497424545864
 31
0.0
  0
LINE
  5
1665C
330
747D
100
AcDbEntity
  8
部品1
100
AcDbLine
 10
5477.673057123677
 20
7207.497424545865
 30
0.0
 11
5429.673057123676
 21
7207.497424545865
 31
0.0
  0
LINE
  5
1665D
330
747D
100
AcDbEntity
  8
部品1
 48
50.0
100
AcDbLine
 10
5477.673057123677
 20
7207.497424545865
 30
0.0
 11
5477.673057123677
 21
7198.497424545866
 31
0.0
  0
LINE
  5
1665E
330
747D
100
AcDbEntity
  8
部品1
100
AcDbLine
 10
5477.673057123677
 20
7168.497424545865
 30
0.0
 11
5429.673057123676
 21
7168.497424545865
 31
0.0
  0
LINE
  5
1665F
330
747D
100
AcDbEntity
  8
部品1
 48
50.0
100
AcDbLine
 10
5439.673057123677
 20
7168.497424545865
 30
0.0
 11
5429.673057123676
 21
7147.497424545864
 31
0.0
  0
LINE
  5
16660
330
747D
100
AcDbEntity
  8
部品1
100
AcDbLine
 10
5429.673057123675
 20
7178.497424545864
 30
0.0
 11
5406.673057123676
 21
7178.497424545864
 31
0.0
  0
LINE
  5
16661
330
747D
100
AcDbEntity
  8
部品1
 48
50.0
100
AcDbLine
 10
5429.673057123676
 20
7207.497424545863
 30
0.0
 11
5429.673057123673
 21
7142.497424545864
 31
0.0
  0
LINE
  5
16662
330
747D
100
AcDbEntity
  8
部品1
 48
50.0
100
AcDbLine
 10
5477.673057123677
 20
7168.497424545865
 30
0.0
 11
5477.673057123677
 21
7177.497424545865
 31
0.0
  0
LINE
  5
16663
330
747D
100
AcDbEntity
  8
部品1
100
AcDbLine
 10
5429.673057123672
 20
7142.497424545864
 30
0.0
 11
5319.673057123662
 21
7142.497424545858
 31
0.0
  0
LINE
  5
16664
330
747D
100
AcDbEntity
  8
部品1
 48
50.0
100
AcDbLine
 10
5319.673057123665
 20
7207.497424545952
 30
0.0
 11
5319.673057123662
 21
7142.497424545952
 31
0.0
  0
LINE
  5
16666
330
747D
100
AcDbEntity
  8
部品1
100
AcDbLine
 10
5429.673057123682
 20
9772.49742454587
 30
0.0
 11
5429.673057123682
 21
9744.497424545869
 31
0.0
  0
LINE
  5
16692
330
747D
100
AcDbEntity
  8
部品1
100
AcDbLine
 10
5319.673057123684
 20
9772.497424545964
 30
0.0
 11
5319.673057123684
 21
9744.497424545963
 31
0.0
  0
DIMENSION
  5
166DD
330
747D
100
AcDbEntity
  8
寸法
 48
50.0
100
AcDbDimension
  2
*D17
 10
5319.673057123684
 20
9988.305644170967
 30
0.0
 11
5374.673057123684
 21
10088.30564417096
 31
0.0
 70
    32
 71
     5
 42
109.9999999999991
  3
INABA_S40G
100
AcDbAlignedDimension
 13
5429.673057123682
 23
9772.497424545917
 33
0.0
 14
5319.673057123684
 24
9772.497424545916
 34
0.0
100
AcDbRotatedDimension
1001
ACAD
1000
DSTYLE
1002
{
1070
   279
1070
     2
1002
}
  0
LINE
  5
16760
330
747D
100
AcDbEntity
  8
部品1
 48
50.0
100
AcDbLine
 10
5374.67305712365
 20
9744.497424545912
 30
0.0
 11
5346.673057123651
 21
9772.497424545965
 31
0.0
  0
LINE
  5
16761
330
747D
100
AcDbEntity
  8
部品1
100
AcDbLine
 10
7949.673057123678
 20
9717.497424545884
 30
0.0
 11
5429.673057123663
 21
9717.497424545886
 31
0.0
  0
LINE
  5
16762
330
747D
100
AcDbEntity
  8
部品1
 48
50.0
100
AcDbLine
 10
5346.673057123651
 20
9744.497424546016
 30
0.0
 11
5346.67305712365
 21
9772.497424545965
 31
0.0
  0
LINE
  5
16763
330
747D
100
AcDbEntity
  8
部品1
 48
50.0
100
AcDbLine
 10
5346.673057123651
 20
9744.497424545912
 30
0.0
 11
5374.67305712365
 21
9744.497424545912
 31
0.0
  0
LINE
  5
168C3
330
747D
100
AcDbEntity
  8
部品1
100
AcDbLine
 10
5398.673057123668
 20
7197.497424545861
 30
0.0
 11
5350.673057123667
 21
7197.49742454586
 31
0.0
  0
LINE
  5
168C4
330
747D
100
AcDbEntity
  8
部品1
 48
50.0
100
AcDbLine
 10
5350.673057123668
 20
7197.497424545861
 30
0.0
 11
5350.67305712367
 21
7142.497424545862
 31
0.0
  0
LINE
  5
168C5
330
747D
100
AcDbEntity
  8
部品1
 48
50.0
100
AcDbLine
 10
5398.673057123668
 20
7197.497424545861
 30
0.0
 11
5398.67305712367
 21
7142.497424545862
 31
0.0
  0
DIMENSION
  5
16913
330
747D
100
AcDbEntity
  8
寸法
 48
50.0
100
AcDbDimension
  2
*D18
 10
8004.673057123683
 20
10237.62711772726
 30
0.0
 11
6689.673057123684
 21
10337.63892875088
 31
0.0
 70
    32
 71
     5
 42
2630.0
  3
INABA_S40G
100
AcDbAlignedDimension
 13
5374.673057123684
 23
10147.29355852891
 33
0.0
 14
8004.673057123683
 24
9772.497424545964
 34
0.0
100
AcDbRotatedDimension
1001
ACAD
1000
DSTYLE
1002
{
1070
    75
1070
     1
1070
   279
1070
     2
1002
}
  0
LINE
  5
172BC
330
747D
100
AcDbEntity
  8
部品1
 48
50.0
100
AcDbLine
 10
5402.673057123651
 20
9717.497424545886
 30
0.0
 11
5402.673057123717
 21
9772.497424545917
 31
0.0
  0
LINE
  5
172BD
330
747D
100
AcDbEntity
  8
部品1
 48
50.0
100
AcDbLine
 10
5346.673057123651
 20
9717.497424545886
 30
0.0
 11
5346.673057123651
 21
9744.497424545912
 31
0.0
  0
LINE
  5
174C8
330
747D
100
AcDbEntity
  8
部品1
 48
50.0
100
AcDbLine
 10
7924.673057123683
 20
9692.497424545841
 30
0.0
 11
5454.673057123637
 21
9692.497424545816
 31
0.0
  0
LINE
  5
174C9
330
747D
100
AcDbEntity
  8
部品1
 48
50.0
100
AcDbLine
 10
7976.673057123683
 20
9744.497424545963
 30
0.0
 11
7949.673057123678
 21
9717.497424545884
 31
0.0
  0
LINE
  5
174CA
330
747D
100
AcDbEntity
  8
部品1
 48
50.0
100
AcDbLine
 10
2799.673057123654
 20
9717.497424545888
 30
0.0
 11
2772.673057123669
 21
9744.497424545986
 31
0.0
  0
LINE
  5
174CB
330
747D
100
AcDbEntity
  8
部品1
 48
50.0
100
AcDbLine
 10
6677.173057123683
 20
9736.497424545968
 30
0.0
 11
6677.173057123681
 21
9744.497424545986
 31
0.0
  0
LINE
  5
174CC
330
747D
100
AcDbEntity
  8
部品1
 48
50.0
100
AcDbLine
 10
6702.173057123683
 20
9736.497424545971
 30
0.0
 11
6702.173057123683
 21
9744.497424545983
 31
0.0
  0
LINE
  5
17B10
330
747D
100
AcDbEntity
  8
細線
100
AcDbLine
 10
5271.673057123677
 20
2171.270620748139
 30
0.0
 11
2847.673057123671
 21
2171.270620748139
 31
0.0
  0
LINE
  5
17B1E
330
747D
100
AcDbEntity
  8
細線
100
AcDbLine
 10
2847.673057123673
 20
3796.270620748139
 30
0.0
 11
5271.673057123675
 21
3796.270620748139
 31
0.0
  0
LINE
  5
17B21
330
747D
100
AcDbEntity
  8
細線
100
AcDbLine
 10
2847.673057123673
 20
3406.270620748139
 30
0.0
 11
5271.673057123675
 21
3406.270620748139
 31
0.0
  0
LINE
  5
17B22
330
747D
100
AcDbEntity
  8
細線
100
AcDbLine
 10
2847.673057123673
 20
3471.27062074814
 30
0.0
 11
5271.673057123675
 21
3471.27062074814
 31
0.0
  0
LINE
  5
17B23
330
747D
100
AcDbEntity
  8
細線
100
AcDbLine
 10
2847.673057123673
 20
3536.27062074814
 30
0.0
 11
5271.673057123675
 21
3536.27062074814
 31
0.0
  0
LINE
  5
17B24
330
747D
100
AcDbEntity
  8
細線
100
AcDbLine
 10
2847.673057123673
 20
3601.270620748139
 30
0.0
 11
5271.673057123675
 21
3601.270620748139
 31
0.0
  0
LINE
  5
17B25
330
747D
100
AcDbEntity
  8
細線
100
AcDbLine
 10
2847.673057123673
 20
3666.270620748139
 30
0.0
 11
5271.673057123675
 21
3666.270620748139
 31
0.0
  0
LINE
  5
17B26
330
747D
100
AcDbEntity
  8
細線
100
AcDbLine
 10
2847.673057123673
 20
3731.270620748139
 30
0.0
 11
5271.673057123675
 21
3731.270620748139
 31
0.0
  0
LINE
  5
17B27
330
747D
100
AcDbEntity
  8
細線
100
AcDbLine
 10
2847.673057123673
 20
2756.27062074814
 30
0.0
 11
5271.673057123675
 21
2756.27062074814
 31
0.0
  0
LINE
  5
17B28
330
747D
100
AcDbEntity
  8
細線
100
AcDbLine
 10
2847.673057123673
 20
2821.270620748139
 30
0.0
 11
5271.673057123675
 21
2821.270620748139
 31
0.0
  0
LINE
  5
17B29
330
747D
100
AcDbEntity
  8
細線
100
AcDbLine
 10
2847.673057123673
 20
2886.270620748139
 30
0.0
 11
5271.673057123675
 21
2886.270620748139
 31
0.0
  0
LINE
  5
17B2A
330
747D
100
AcDbEntity
  8
細線
100
AcDbLine
 10
2847.673057123673
 20
2951.27062074814
 30
0.0
 11
5271.673057123675
 21
2951.27062074814
 31
0.0
  0
LINE
  5
17B2B
330
747D
100
AcDbEntity
  8
細線
100
AcDbLine
 10
2847.673057123673
 20
3016.27062074814
 30
0.0
 11
5271.673057123675
 21
3016.27062074814
 31
0.0
  0
LINE
  5
17B2C
330
747D
100
AcDbEntity
  8
細線
100
AcDbLine
 10
2847.673057123673
 20
3081.270620748139
 30
0.0
 11
5271.673057123675
 21
3081.270620748139
 31
0.0
  0
LINE
  5
17B2D
330
747D
100
AcDbEntity
  8
細線
100
AcDbLine
 10
2847.673057123673
 20
3146.270620748139
 30
0.0
 11
5271.673057123675
 21
3146.270620748139
 31
0.0
  0
LINE
  5
17B2E
330
747D
100
AcDbEntity
  8
細線
100
AcDbLine
 10
2847.673057123673
 20
3211.27062074814
 30
0.0
 11
5271.673057123675
 21
3211.27062074814
 31
0.0
  0
LINE
  5
17B2F
330
747D
100
AcDbEntity
  8
細線
100
AcDbLine
 10
2847.673057123673
 20
3276.270620748139
 30
0.0
 11
5271.673057123675
 21
3276.270620748139
 31
0.0
  0
LINE
  5
17B30
330
747D
100
AcDbEntity
  8
細線
100
AcDbLine
 10
2847.673057123673
 20
3341.270620748139
 30
0.0
 11
5271.673057123675
 21
3341.270620748139
 31
0.0
  0
LINE
  5
17B33
330
747D
100
AcDbEntity
  8
細線
100
AcDbLine
 10
2847.673057123673
 20
2236.270620748139
 30
0.0
 11
5271.673057123675
 21
2236.270620748139
 31
0.0
  0
LINE
  5
17B34
330
747D
100
AcDbEntity
  8
細線
100
AcDbLine
 10
2847.673057123673
 20
2301.270620748139
 30
0.0
 11
5271.673057123675
 21
2301.270620748139
 31
0.0
  0
LINE
  5
17B35
330
747D
100
AcDbEntity
  8
細線
100
AcDbLine
 10
2847.673057123673
 20
2366.270620748139
 30
0.0
 11
5271.673057123675
 21
2366.270620748139
 31
0.0
  0
LINE
  5
17B36
330
747D
100
AcDbEntity
  8
細線
100
AcDbLine
 10
2847.673057123673
 20
2431.27062074814
 30
0.0
 11
5271.673057123675
 21
2431.27062074814
 31
0.0
  0
LINE
  5
17B37
330
747D
100
AcDbEntity
  8
細線
100
AcDbLine
 10
2847.673057123673
 20
2496.270620748139
 30
0.0
 11
5271.673057123675
 21
2496.270620748139
 31
0.0
  0
LINE
  5
17B38
330
747D
100
AcDbEntity
  8
細線
100
AcDbLine
 10
2847.673057123673
 20
2561.270620748139
 30
0.0
 11
5271.673057123675
 21
2561.270620748139
 31
0.0
  0
LINE
  5
17B39
330
747D
100
AcDbEntity
  8
細線
100
AcDbLine
 10
2847.673057123673
 20
2626.270620748139
 30
0.0
 11
5271.673057123675
 21
2626.270620748139
 31
0.0
  0
LINE
  5
17B3A
330
747D
100
AcDbEntity
  8
細線
100
AcDbLine
 10
2847.673057123673
 20
2691.270620748139
 30
0.0
 11
5271.673057123675
 21
2691.270620748139
 31
0.0
  0
LINE
  5
17B5A
330
747D
100
AcDbEntity
  8
部品1
100
AcDbLine
 10
2744.673057123677
 20
3836.27062074814
 30
0.0
 11
5429.673057123676
 21
3836.270620748139
 31
0.0
  0
DIMENSION
  5
17B86
330
747D
100
AcDbEntity
  8
寸法
 48
50.0
100
AcDbDimension
  2
*D21
 10
5374.673057123684
 20
10237.62711772726
 30
0.0
 11
4059.673057123666
 21
10337.63892875088
 31
0.0
 70
    32
 71
     5
 42
2630.000000000036
  3
INABA_S40G
100
AcDbAlignedDimension
 13
2744.673057123649
 23
9772.497424545838
 33
0.0
 14
5374.673057123684
 24
10147.29355852891
 34
0.0
100
AcDbRotatedDimension
1001
ACAD
1000
DSTYLE
1002
{
1070
   279
1070
     2
1002
}
  0
DIMENSION
  5
17B87
330
747D
100
AcDbEntity
  8
寸法
100
AcDbDimension
  2
*D20
 10
5319.673057123684
 20
9988.305644170967
 30
0.0
 11
4059.673057123683
 21
10088.31745519459
 31
0.0
 70
    32
  1
6X420=<>
 71
     5
 42
2520.000000000001
  3
INABA_S40G
100
AcDbAlignedDimension
 13
2799.673057123683
 23
9772.49742454587
 33
0.0
 14
5319.673057123684
 24
9772.497424545964
 34
0.0
100
AcDbRotatedDimension
1001
ACAD
1000
DSTYLE
1002
{
1002
}
  0
LINE
  5
17B8B
330
747D
100
AcDbEntity
  8
部品1
 48
50.0
100
AcDbLine
 10
5294.673057123654
 20
9692.497424545791
 30
0.0
 11
2824.673057123654
 21
9692.497424545789
 31
0.0
  0
LINE
  5
17B98
330
747D
100
AcDbEntity
  8
部品1
 48
50.0
100
AcDbLine
 10
4072.173057123683
 20
9736.497424545971
 30
0.0
 11
4072.173057123683
 21
9744.497424545983
 31
0.0
  0
LINE
  5
17B99
330
747D
100
AcDbEntity
  8
部品1
 48
50.0
100
AcDbLine
 10
4047.173057123683
 20
9736.497424545968
 30
0.0
 11
4047.173057123683
 21
9744.497424545986
 31
0.0
  0
LINE
  5
17BA3
330
747D
100
AcDbEntity
  8
部品1
100
AcDbLine
 10
4899.673057123682
 20
9772.497424545987
 30
0.0
 11
4899.673057123682
 21
9744.497424545986
 31
0.0
  0
LINE
  5
17BA7
330
747D
100
AcDbEntity
  8
部品1
100
AcDbLine
 10
3639.673057123683
 20
9772.49742454587
 30
0.0
 11
3639.673057123683
 21
9744.497424545869
 31
0.0
  0
LINE
  5
17BA8
330
747D
100
AcDbEntity
  8
部品1
100
AcDbLine
 10
3639.673057123683
 20
9772.49742454587
 30
0.0
 11
3639.673057123683
 21
9744.497424545869
 31
0.0
  0
LINE
  5
17BA9
330
747D
100
AcDbEntity
  8
部品1
100
AcDbLine
 10
3639.673057123683
 20
9772.497424545987
 30
0.0
 11
3639.673057123683
 21
9744.497424545986
 31
0.0
  0
LINE
  5
17BAA
330
747D
100
AcDbEntity
  8
部品1
100
AcDbLine
 10
2772.673057123669
 20
9744.497424545986
 30
0.0
 11
4047.173057123683
 21
9744.497424545986
 31
0.0
  0
LINE
  5
17BAB
330
747D
100
AcDbEntity
  8
部品1
100
AcDbLine
 10
4072.173057123683
 20
9744.49742454599
 30
0.0
 11
5346.673057123684
 21
9744.497424545963
 31
0.0
  0
LINE
  5
17BAC
330
747D
100
AcDbEntity
  8
部品1
100
AcDbLine
 10
4024.673057123683
 20
9762.497424545971
 30
0.0
 11
4024.673057123683
 21
9744.49742454597
 31
0.0
  0
LINE
  5
17BAD
330
747D
100
AcDbEntity
  8
部品1
100
AcDbLine
 10
4024.673057123683
 20
9762.497424545971
 30
0.0
 11
4030.673057123683
 21
9762.497424545971
 31
0.0
  0
LINE
  5
17BAE
330
747D
100
AcDbEntity
  8
部品1
100
AcDbLine
 10
4094.673057123683
 20
9762.497424545971
 30
0.0
 11
4094.673057123683
 21
9744.49742454597
 31
0.0
  0
LINE
  5
17BAF
330
747D
100
AcDbEntity
  8
部品1
100
AcDbLine
 10
4088.673057123683
 20
9762.497424545971
 30
0.0
 11
4094.673057123683
 21
9762.497424545971
 31
0.0
  0
LINE
  5
17BB0
330
747D
100
AcDbEntity
  8
部品1
100
AcDbLine
 10
4047.173057123683
 20
9736.497424545968
 30
0.0
 11
4072.173057123683
 21
9736.497424545971
 31
0.0
  0
LINE
  5
17BB1
330
747D
100
AcDbEntity
  8
部品1
100
AcDbLine
 10
4059.673057123683
 20
9772.497424545987
 30
0.0
 11
4059.673057123683
 21
9744.497424545986
 31
0.0
  0
LINE
  5
17BC2
330
747D
100
AcDbEntity
  8
部品1
 48
50.0
100
AcDbLine
 10
2811.673057123676
 20
7187.997424545864
 30
0.0
 11
5307.67305712366
 21
7187.997424545864
 31
0.0
  0
DIMENSION
  5
17BC3
330
747D
100
AcDbEntity
  8
寸法
 48
50.0
100
AcDbDimension
  2
*D19
 10
2847.673057123677
 20
6608.0666537797
 30
0.0
 11
4059.673057123667
 21
6708.078464803323
 31
0.0
 70
    32
  1
有効開口部間口 <>
 71
     5
 42
2423.999999999982
  3
INABA_S40G
100
AcDbAlignedDimension
 13
5271.673057123659
 23
7168.497424545865
 33
0.0
 14
2847.673057123677
 24
7168.497424545865
 34
0.0
100
AcDbRotatedDimension
1001
ACAD
1000
DSTYLE
1002
{
1070
    75
1070
     1
1070
   279
1070
     2
1002
}
  0
LINE
  5
17D0F
330
747D
100
AcDbEntity
  8
部品1
100
AcDbLine
 10
7976.673057123675
 20
9297.497424545957
 30
0.0
 11
8004.673057123675
 21
9297.497424545957
 31
0.0
  0
LINE
  5
17D10
330
747D
100
AcDbEntity
  8
部品1
100
AcDbLine
 10
7976.673057123679
 20
8877.497424545957
 30
0.0
 11
8004.67305712368
 21
8877.497424545957
 31
0.0
  0
LINE
  5
17D11
330
747D
100
AcDbEntity
  8
部品1
100
AcDbLine
 10
2772.673057123649
 20
9297.497424545831
 30
0.0
 11
2744.673057123649
 21
9297.497424545831
 31
0.0
  0
LINE
  5
17D12
330
747D
100
AcDbEntity
  8
部品1
100
AcDbLine
 10
2772.673057123654
 20
8877.497424545831
 30
0.0
 11
2744.673057123654
 21
8877.497424545831
 31
0.0
  0
LINE
  5
180FF
330
747D
100
AcDbEntity
  8
部品1
100
AcDbLine
 10
2744.673057123677
 20
2161.270620748139
 30
0.0
 11
8004.673057123676
 21
2161.270620748139
 31
0.0
  0
LINE
  5
18100
330
747D
100
AcDbEntity
  8
Ｇ．Ｌ
100
AcDbLine
 10
1656.406454453192
 20
2061.270620748139
 30
0.0
 11
13831.30542539653
 21
2061.270620748139
 31
0.0
  0
LINE
  5
18105
330
747D
100
AcDbEntity
  8
部品1
100
AcDbLine
 10
2744.673057123649
 20
9772.49742454588
 30
0.0
 11
8004.673057123683
 21
9772.497424545964
 31
0.0
  0
LINE
  5
18161
330
747D
100
AcDbEntity
  8
部品1
100
AcDbLine
 10
5374.673057123669
 20
9717.497424545832
 30
0.0
 11
5374.673057123642
 21
7197.497424545807
 31
0.0
  0
LINE
  5
18162
330
747D
100
AcDbEntity
  8
部品1
100
AcDbLine
 10
5402.673057123629
 20
7142.497424545813
 30
0.0
 11
5402.673057123653
 21
9772.497424545861
 31
0.0
  0
LINE
  5
18163
330
747D
100
AcDbEntity
  8
部品1
 48
10.0
100
AcDbLine
 10
5454.673057123684
 20
7207.497424545812
 30
0.0
 11
5454.673057123637
 21
9717.497424545832
 31
0.0
  0
LINE
  5
18164
330
747D
100
AcDbEntity
  8
部品1
100
AcDbLine
 10
5429.673057123689
 20
7207.497424545812
 30
0.0
 11
5429.673057123662
 21
9717.497424545809
 31
0.0
  0
LINE
  5
18165
330
747D
100
AcDbEntity
  8
部品1
100
AcDbLine
 10
5346.673057123651
 20
9744.497424545912
 30
0.0
 11
5346.673057123634
 21
7142.497424545807
 31
0.0
  0
LINE
  5
18166
330
747D
100
AcDbEntity
  8
部品1
 48
10.0
100
AcDbLine
 10
5294.673057123678
 20
7207.497424545812
 30
0.0
 11
5294.673057123652
 21
9717.497424545815
 31
0.0
  0
LINE
  5
18167
330
747D
100
AcDbEntity
  8
部品1
100
AcDbLine
 10
5319.673057123669
 20
7207.497424545812
 30
0.0
 11
5319.673057123662
 21
9717.497424545815
 31
0.0
  0
LINE
  5
18168
330
747D
100
AcDbEntity
  8
部品1
100
AcDbLine
 10
5346.673057123672
 20
8457.497424545914
 30
0.0
 11
5374.673057123671
 21
8457.497424545914
 31
0.0
  0
LINE
  5
18169
330
747D
100
AcDbEntity
  8
部品1
100
AcDbLine
 10
5346.673057123672
 20
8877.497424545914
 30
0.0
 11
5374.673057123671
 21
8877.497424545914
 31
0.0
  0
LINE
  5
1816A
330
747D
100
AcDbEntity
  8
部品1
100
AcDbLine
 10
5346.673057123672
 20
9297.497424545914
 30
0.0
 11
5374.673057123671
 21
9297.497424545914
 31
0.0
  0
LINE
  5
1816B
330
747D
100
AcDbEntity
  8
部品1
 48
50.0
100
AcDbLine
 10
5402.673057123704
 20
9744.497424545723
 30
0.0
 11
5429.673057123693
 21
9717.497424545737
 31
0.0
  0
LINE
  5
1816C
330
747D
100
AcDbEntity
  8
部品1
 48
50.0
100
AcDbLine
 10
5346.673057123719
 20
9744.497424545818
 30
0.0
 11
5319.673057123715
 21
9717.497424545813
 31
0.0
  0
LINE
  5
1816F
330
747D
100
AcDbEntity
  8
部品1
100
AcDbLine
 10
5319.673057123662
 20
9717.497424545884
 30
0.0
 11
2799.673057123654
 21
9717.497424545888
 31
0.0
  0
LINE
  5
18170
330
747D
100
AcDbEntity
  8
部品1
100
AcDbLine
 10
5402.673057123652
 20
9717.497424545886
 30
0.0
 11
5346.67305712365
 21
9717.497424545884
 31
0.0
  0
LINE
  5
18171
330
747D
100
AcDbEntity
  8
部品1
100
AcDbLine
 10
5346.673057123678
 20
8037.497424545914
 30
0.0
 11
5374.673057123677
 21
8037.497424545914
 31
0.0
  0
LINE
  5
18172
330
747D
100
AcDbEntity
  8
部品1
100
AcDbLine
 10
5346.673057123678
 20
7617.497424545914
 30
0.0
 11
5374.673057123677
 21
7617.497424545914
 31
0.0
  0
TEXT
  5
182A9
330
747D
100
AcDbEntity
  8
文字
 62
     7
 48
50.0
100
AcDbText
 10
15022.63965474516
 20
9910.013745883727
 30
0.0
 40
100.0
  1
F12,Y10        1.0
  7
STYLE1
100
AcDbText
  0
TEXT
  5
182AA
330
747D
100
AcDbEntity
  8
文字
 62
     7
 48
50.0
100
AcDbText
 10
13583.11819016569
 20
9910.01374588373
 30
0.0
 40
100.0
  1
梁中
  7
STYLE1
100
AcDbText
  0
TEXT
  5
182AB
330
747D
100
AcDbEntity
  8
文字
 62
     7
 48
50.0
100
AcDbText
 10
13248.77747366448
 20
8720.013745883731
 30
0.0
 40
100.0
  1
14
  7
STYLE1
100
AcDbText
  0
LINE
  5
182AC
330
747D
100
AcDbEntity
  8
仕様書枠
 48
50.0
100
AcDbLine
 10
16307.19999999999
 20
9879.599999999999
 30
0.0
 11
13127.2
 21
9879.600000000001
 31
0.0
  0
LINE
  5
182AD
330
747D
100
AcDbEntity
  8
仕様書枠
 48
50.0
100
AcDbLine
 10
16307.19999999999
 20
11239.6
 30
0.0
 11
13127.2
 21
11239.6
 31
0.0
  0
LINE
  5
182AE
330
747D
100
AcDbEntity
  8
仕様書枠
 48
50.0
100
AcDbLine
 10
16307.2
 20
8179.6
 30
0.0
 11
16307.2
 21
11239.6
 31
0.0
  0
LINE
  5
182AF
330
747D
100
AcDbEntity
  8
仕様書枠
 48
50.0
100
AcDbLine
 10
14785.2
 20
11239.59999999999
 30
0.0
 11
14785.2
 21
8689.600000000003
 31
0.0
  0
LINE
  5
182B0
330
747D
100
AcDbEntity
  8
仕様書枠
 48
50.0
100
AcDbLine
 10
13490.2
 20
11239.6
 30
0.0
 11
13490.2
 21
8689.6
 31
0.0
  0
LINE
  5
182B1
330
747D
100
AcDbEntity
  8
仕様書枠
 48
50.0
100
AcDbLine
 10
16307.19999999999
 20
11069.6
 30
0.0
 11
13127.2
 21
11069.6
 31
0.0
  0
LINE
  5
182B2
330
747D
100
AcDbEntity
  8
仕様書枠
 48
50.0
100
AcDbLine
 10
16307.19999999999
 20
10729.6
 30
0.0
 11
13127.2
 21
10729.6
 31
0.0
  0
LINE
  5
182B3
330
747D
100
AcDbEntity
  8
仕様書枠
 48
50.0
100
AcDbLine
 10
16307.19999999999
 20
10899.6
 30
0.0
 11
13127.2
 21
10899.6
 31
0.0
  0
LINE
  5
182B4
330
747D
100
AcDbEntity
  8
仕様書枠
 48
50.0
100
AcDbLine
 10
16307.19999999999
 20
10389.6
 30
0.0
 11
13127.19999999999
 21
10389.6
 31
0.0
  0
LINE
  5
182B5
330
747D
100
AcDbEntity
  8
仕様書枠
 48
50.0
100
AcDbLine
 10
16307.19999999999
 20
10219.6
 30
0.0
 11
13127.19999999999
 21
10219.6
 31
0.0
  0
LINE
  5
182B6
330
747D
100
AcDbEntity
  8
仕様書枠
 48
50.0
100
AcDbLine
 10
16307.19999999999
 20
10559.6
 30
0.0
 11
13127.19999999999
 21
10559.6
 31
0.0
  0
TEXT
  5
182B7
330
747D
100
AcDbEntity
  8
文字
 62
     7
 48
50.0
100
AcDbText
 10
13197.42518560407
 20
11100.01374588373
 30
0.0
 40
100.0
  1
品番
  7
STYLE1
100
AcDbText
  0
TEXT
  5
182B8
330
747D
100
AcDbEntity
  8
文字
 62
     7
 48
50.0
100
AcDbText
 10
13271.19032244792
 20
10930.01374588373
 30
0.0
 40
100.0
  1
1
  7
STYLE1
100
AcDbText
  0
TEXT
  5
182B9
330
747D
100
AcDbEntity
  8
文字
 62
     7
 48
50.0
100
AcDbText
 10
13271.19032244792
 20
10760.01374588373
 30
0.0
 40
100.0
  1
2
  7
STYLE1
100
AcDbText
  0
TEXT
  5
182BA
330
747D
100
AcDbEntity
  8
文字
 62
     7
 48
50.0
100
AcDbText
 10
13271.19032244792
 20
10420.01374588373
 30
0.0
 40
100.0
  1
4
  7
STYLE1
100
AcDbText
  0
TEXT
  5
182BB
330
747D
100
AcDbEntity
  8
文字
 62
     7
 48
50.0
100
AcDbText
 10
13271.19032244792
 20
10590.01374588373
 30
0.0
 40
100.0
  1
3
  7
STYLE1
100
AcDbText
  0
TEXT
  5
182BC
330
747D
100
AcDbEntity
  8
文字
 62
     7
 48
50.0
100
AcDbText
 10
13732.03840939434
 20
11100.01374588373
 30
0.0
 40
100.0
  1
部　　品　　名
  7
STYLE1
100
AcDbText
  0
TEXT
  5
182BD
330
747D
100
AcDbEntity
  8
文字
 62
     7
 48
50.0
100
AcDbText
 10
14859.79774614482
 20
11100.01374588373
 30
0.0
 40
100.0
  1
材料（材質）　　単位mm
  7
STYLE1
100
AcDbText
  0
TEXT
  5
182BE
330
747D
100
AcDbEntity
  8
文字
 62
     7
 48
50.0
100
AcDbText
 10
13583.11819016569
 20
10930.01374588372
 30
0.0
 40
100.0
  1
土台枠
  7
STYLE1
100
AcDbText
  0
TEXT
  5
182C0
330
747D
100
AcDbEntity
  8
文字
 62
     7
 48
50.0
100
AcDbText
 10
13583.11819016569
 20
10590.01374588373
 30
0.0
 40
100.0
  1
桁前
  7
STYLE1
100
AcDbText
  0
TEXT
  5
182C1
330
747D
100
AcDbEntity
  8
文字
 62
     7
 48
50.0
100
AcDbText
 10
13583.11819016569
 20
10420.01374588373
 30
0.0
 40
100.0
  1
桁後
  7
STYLE1
100
AcDbText
  0
TEXT
  5
182C2
330
747D
100
AcDbEntity
  8
文字
 62
     7
 48
50.0
100
AcDbText
 10
13271.19032244792
 20
10250.01374588373
 30
0.0
 40
100.0
  1
5
  7
STYLE1
100
AcDbText
  0
TEXT
  5
182C3
330
747D
100
AcDbEntity
  8
文字
 62
     7
 48
50.0
100
AcDbText
 10
13583.11819016569
 20
10250.01374588373
 30
0.0
 40
100.0
  1
妻板左右
  7
STYLE1
100
AcDbText
  0
TEXT
  5
182C4
330
747D
100
AcDbEntity
  8
文字
 62
     7
 48
50.0
100
AcDbText
 10
13583.11819016569
 20
8890.013745883727
 30
0.0
 40
100.0
  1
シャッターレール
  7
STYLE1
100
AcDbText
  0
TEXT
  5
182C5
330
747D
100
AcDbEntity
  8
文字
 62
     7
 48
50.0
100
AcDbText
 10
13248.77747366448
 20
9400.013745883727
 30
0.0
 40
100.0
  1
10
  7
STYLE1
100
AcDbText
  0
TEXT
  5
182C6
330
747D
100
AcDbEntity
  8
文字
 62
     7
 48
50.0
100
AcDbText
 10
13583.11819016569
 20
9400.013745883729
 30
0.0
 40
100.0
  1
壁パネル
  7
STYLE1
100
AcDbText
  0
TEXT
  5
182C7
330
747D
100
AcDbEntity
  8
文字
 62
     7
 48
50.0
100
AcDbText
 10
13583.11819016569
 20
9570.013745883727
 30
0.0
 40
100.0
  1
屋根パネル
  7
STYLE1
100
AcDbText
  0
TEXT
  5
182C8
330
747D
100
AcDbEntity
  8
文字
 62
     7
 48
50.0
100
AcDbText
 10
13583.11819016569
 20
9740.013745883729
 30
0.0
 40
100.0
  1
母屋中
  7
STYLE1
100
AcDbText
  0
TEXT
  5
182C9
330
747D
100
AcDbEntity
  8
文字
 62
     7
 48
50.0
100
AcDbText
 10
13583.11819016569
 20
10080.01374588372
 30
0.0
 40
100.0
  1
鼻隠シ前後
  7
STYLE1
100
AcDbText
  0
TEXT
  5
182CA
330
747D
100
AcDbEntity
  8
文字
 62
     7
 48
50.0
100
AcDbText
 10
13271.19032244792
 20
9740.013745883729
 30
0.0
 40
100.0
  1
8
  7
STYLE1
100
AcDbText
  0
TEXT
  5
182CB
330
747D
100
AcDbEntity
  8
文字
 62
     7
 48
50.0
100
AcDbText
 10
13271.19032244792
 20
9570.013745883729
 30
0.0
 40
100.0
  1
9
  7
STYLE1
100
AcDbText
  0
TEXT
  5
182CC
330
747D
100
AcDbEntity
  8
文字
 62
     7
 48
50.0
100
AcDbText
 10
13271.19032244792
 20
9910.01374588373
 30
0.0
 40
100.0
  1
7
  7
STYLE1
100
AcDbText
  0
TEXT
  5
182CD
330
747D
100
AcDbEntity
  8
文字
 62
     7
 48
50.0
100
AcDbText
 10
13271.19032244792
 20
10080.01374588373
 30
0.0
 40
100.0
  1
6
  7
STYLE1
100
AcDbText
  0
LINE
  5
182CE
330
747D
100
AcDbEntity
  8
仕様書枠
 48
50.0
100
AcDbLine
 10
16307.19999999999
 20
9539.599999999998
 30
0.0
 11
13127.19999999999
 21
9539.6
 31
0.0
  0
LINE
  5
182CF
330
747D
100
AcDbEntity
  8
仕様書枠
 48
50.0
100
AcDbLine
 10
16307.19999999999
 20
9199.599999999998
 30
0.0
 11
13127.19999999999
 21
9199.600000000001
 31
0.0
  0
LINE
  5
182D0
330
747D
100
AcDbEntity
  8
仕様書枠
 48
50.0
100
AcDbLine
 10
16307.19999999999
 20
9369.599999999998
 30
0.0
 11
13127.19999999999
 21
9369.600000000001
 31
0.0
  0
LINE
  5
182D1
330
747D
100
AcDbEntity
  8
仕様書枠
 48
50.0
100
AcDbLine
 10
16307.19999999999
 20
10049.6
 30
0.0
 11
13127.2
 21
10049.6
 31
0.0
  0
LINE
  5
182D2
330
747D
100
AcDbEntity
  8
仕様書枠
 48
50.0
100
AcDbLine
 10
16307.19999999999
 20
9709.6
 30
0.0
 11
13127.2
 21
9709.600000000001
 31
0.0
  0
TEXT
  5
182D3
330
747D
100
AcDbEntity
  8
文字
 62
     7
 48
50.0
100
AcDbText
 10
13248.77747366448
 20
9230.013745883727
 30
0.0
 40
100.0
  1
11
  7
STYLE1
100
AcDbText
  0
TEXT
  5
182D4
330
747D
100
AcDbEntity
  8
文字
 62
     7
 48
50.0
100
AcDbText
 10
13583.11819016569
 20
9060.013745883727
 30
0.0
 40
100.0
  1
シャッターカバー
 41
0.9
  7
STYLE1
100
AcDbText
  0
LINE
  5
182D5
330
747D
100
AcDbEntity
  8
仕様書枠
 48
50.0
100
AcDbLine
 10
16307.19999999999
 20
9029.6
 30
0.0
 11
13127.19999999999
 21
9029.6
 31
0.0
  0
TEXT
  5
182D7
330
747D
100
AcDbEntity
  8
文字
 62
     7
 48
50.0
100
AcDbText
 10
13583.11819016569
 20
8720.013745883729
 30
0.0
 40
100.0
  1
棚板（別売）
  7
STYLE1
100
AcDbText
  0
LINE
  5
182D8
330
747D
100
AcDbEntity
  8
仕様書枠
 48
50.0
100
AcDbLine
 10
16307.19999999999
 20
8859.6
 30
0.0
 11
13127.19999999999
 21
8859.600000000002
 31
0.0
  0
TEXT
  5
182D9
330
747D
100
AcDbEntity
  8
文字
 62
     7
 48
50.0
100
AcDbText
 10
13583.11819016568
 20
9230.013745883729
 30
0.0
 40
100.0
  1
シャッター
  7
STYLE1
100
AcDbText
  0
TEXT
  5
182DA
330
747D
100
AcDbEntity
  8
文字
 62
     7
 48
50.0
100
AcDbText
 10
13248.77747366448
 20
8890.013745883729
 30
0.0
 40
100.0
  1
13
  7
STYLE1
100
AcDbText
  0
TEXT
  5
182DB
330
747D
100
AcDbEntity
  8
文字
 62
     7
 48
50.0
100
AcDbText
 10
13248.77747366448
 20
9060.013745883729
 30
0.0
 40
100.0
  1
12
  7
STYLE1
100
AcDbText
  0
TEXT
  5
182DC
330
747D
100
AcDbEntity
  8
文字
 62
     7
 48
50.0
100
AcDbText
 10
15022.63965474517
 20
10930.01374588372
 30
0.0
 40
100.0
  1
F12            1.2
  7
STYLE1
100
AcDbText
  0
TEXT
  5
182DE
330
747D
100
AcDbEntity
  8
文字
 62
     7
 48
50.0
100
AcDbText
 10
15022.63965474516
 20
10590.01374588372
 30
0.0
 40
100.0
  1
Y10            1.0
  7
STYLE1
100
AcDbText
  0
TEXT
  5
182DF
330
747D
100
AcDbEntity
  8
文字
 62
     7
 48
50.0
100
AcDbText
 10
15022.63965474516
 20
10420.01374588372
 30
0.0
 40
100.0
  1
Y10            1.0
  7
STYLE1
100
AcDbText
  0
TEXT
  5
182E0
330
747D
100
AcDbEntity
  8
文字
 62
     7
 48
50.0
100
AcDbText
 10
15022.63965474516
 20
10250.01374588372
 30
0.0
 40
100.0
  1
Y10            0.7
  7
STYLE1
100
AcDbText
  0
TEXT
  5
182E1
330
747D
100
AcDbEntity
  8
文字
 62
     7
 48
50.0
100
AcDbText
 10
15022.63965474516
 20
10080.01374588372
 30
0.0
 40
100.0
  1
Y10            0.7
  7
STYLE1
100
AcDbText
  0
TEXT
  5
182E3
330
747D
100
AcDbEntity
  8
文字
 62
     7
 48
50.0
100
AcDbText
 10
15022.63965474517
 20
9570.013745883725
 30
0.0
 40
100.0
  1
Y10            0.5
  7
STYLE1
100
AcDbText
  0
TEXT
  5
182E4
330
747D
100
AcDbEntity
  8
文字
 62
     7
 48
50.0
100
AcDbText
 10
15022.63965474516
 20
9400.013745883725
 30
0.0
 40
100.0
  1
F12            0.6
  7
STYLE1
100
AcDbText
  0
TEXT
  5
182E5
330
747D
100
AcDbEntity
  8
文字
 62
     7
 48
50.0
100
AcDbText
 10
14850.83183167176
 20
8890.013745883726
 30
0.0
 40
100.0
  1
アルミニウム合金押出形材
  7
STYLE1
100
AcDbText
  0
TEXT
  5
182E7
330
747D
100
AcDbEntity
  8
文字
 62
     7
 48
50.0
100
AcDbText
 10
15022.63965474515
 20
9230.013745883725
 30
0.0
 40
100.0
  1
Z08            0.5
  7
STYLE1
100
AcDbText
  0
TEXT
  5
182E8
330
747D
100
AcDbEntity
  8
文字
 62
     7
 48
50.0
100
AcDbText
 10
15022.63965474515
 20
8720.013745883727
 30
0.0
 40
100.0
  1
F12            0.6
  7
STYLE1
100
AcDbText
  0
LINE
  5
182E9
330
747D
100
AcDbEntity
  8
仕様書枠
 48
50.0
100
AcDbLine
 10
16307.20000000001
 20
8519.599999999998
 30
0.0
 11
13127.20000000001
 21
8519.600000000002
 31
0.0
  0
LINE
  5
182EA
330
747D
100
AcDbEntity
  8
仕様書枠
 48
50.0
100
AcDbLine
 10
16307.20000000001
 20
8349.599999999998
 30
0.0
 11
13127.20000000001
 21
8349.6
 31
0.0
  0
LINE
  5
182EB
330
747D
100
AcDbEntity
  8
仕様書枠
 48
50.0
100
AcDbLine
 10
16307.20000000001
 20
8179.599999999998
 30
0.0
 11
13127.20000000001
 21
8179.6
 31
0.0
  0
TEXT
  5
182EC
330
747D
100
AcDbEntity
  8
文字
 62
     7
 48
50.0
100
AcDbText
 10
13229.83081656557
 20
8550.013745883727
 30
0.0
 40
100.0
  1
F12→溶融亜鉛めっき鋼板(JIS G 3302)
  7
STYLE1
100
AcDbText
  0
TEXT
  5
182ED
330
747D
100
AcDbEntity
  8
文字
 62
     7
 48
50.0
100
AcDbText
 10
13229.83081656556
 20
8380.013745883728
 30
0.0
 40
100.0
  1
Y10→溶融亜鉛-5％アルミニウム合金めっき鋼板(JIS G 3317)
 41
0.9
  7
STYLE1
100
AcDbText
  0
TEXT
  5
182EE
330
747D
100
AcDbEntity
  8
文字
 62
     7
 48
50.0
100
AcDbText
 10
13229.83081656557
 20
8210.013745883729
 30
0.0
 40
100.0
  1
Z08→塗装溶融亜鉛めっき鋼板(JIS G 3313)
  7
STYLE1
100
AcDbText
  0
LINE
  5
182EF
330
747D
100
AcDbEntity
  8
仕様書枠
 48
50.0
100
AcDbLine
 10
13127.2
 20
11239.6
 30
0.0
 11
13127.2
 21
8179.600000000002
 31
0.0
  0
TEXT
  5
182F5
330
747D
100
AcDbEntity
  8
文字
 62
     7
 48
50.0
100
AcDbText
 10
14830.49062778118
 20
9743.579206374931
 30
0.0
 40
100.0
  1
F12    1.2(多雪地型  2.3)
  7
STYLE1
100
AcDbText
  0
TEXT
  5
182FB
330
747D
100
AcDbEntity
  8
文字
 62
     7
 48
50.0
100
AcDbText
 10
13203.82415985932
 20
58.66862742757439
 30
0.0
 40
100.0
  1
○床面積 ： 13.83㎡(4.19坪)
  7
STYLE2
100
AcDbText
  0
DIMENSION
  5
18978
330
747D
100
AcDbEntity
  8
寸法
100
AcDbDimension
  2
*D22
 10
9788.09970133004
 20
2211.270620748134
 30
0.0
 11
9688.09970133004
 21
3106.270620748137
 31
0.0
 70
    32
 71
     5
 42
1790.000000000002
  3
INABA_S40G
100
AcDbAlignedDimension
 13
10631.8498305133
 23
4001.270620748136
 33
0.0
 14
10631.8498305133
 24
2211.270620748134
 34
0.0
 50
90.0
100
AcDbRotatedDimension
1001
ACAD
1000
DSTYLE
1002
{
1070
   174
1070
     0
1070
   272
1070
     1
1070
   288
1070
     0
1070
   341
1005
0
1002
}
  0
DIMENSION
  5
18979
330
747D
100
AcDbEntity
  8
寸法
100
AcDbDimension
  2
*D23
 10
9488.099701330041
 20
4236.270620748141
 30
0.0
 11
9388.087890306417
 21
3198.770620748139
 31
0.0
 70
    32
 71
     5
 42
2075.000000000006
  3
INABA_S40G
100
AcDbAlignedDimension
 13
10631.8498305133
 23
2161.270620748134
 33
0.0
 14
10571.8498305133
 24
4236.270620748139
 34
0.0
 50
90.0
100
AcDbRotatedDimension
1001
ACAD
1000
DSTYLE
1002
{
1070
   174
1070
     0
1070
   272
1070
     1
1070
   288
1070
     0
1070
   341
1005
0
1002
}
  0
DIMENSION
  5
1897A
330
747D
100
AcDbEntity
  8
寸法
100
AcDbDimension
  2
*D24
 10
13966.77698848543
 20
4181.270620748142
 30
0.0
 11
13866.76517746181
 21
3171.270620748144
 31
0.0
 70
    32
 71
     5
 42
2020.0
  3
INABA_S40G
100
AcDbAlignedDimension
 13
13261.8498305133
 23
2161.270620748142
 33
0.0
 14
13341.8498305133
 24
4181.270620748142
 34
0.0
 50
90.0
100
AcDbRotatedDimension
1001
ACAD
1000
DSTYLE
1002
{
1070
   174
1070
     0
1070
   272
1070
     1
1070
   288
1070
     0
1070
   341
1005
0
1002
}
  0
LINE
  5
1897B
330
747D
100
AcDbEntity
  8
細線
 48
50.0
100
AcDbLine
 10
12709.3498305133
 20
4001.270620748138
 30
0.0
 11
12709.3498305133
 21
2211.270620748142
 31
0.0
  0
LINE
  5
1897C
330
747D
100
AcDbEntity
  8
細線
 48
50.0
100
AcDbLine
 10
12724.3498305133
 20
4001.270620748138
 30
0.0
 11
12724.3498305133
 21
2211.270620748142
 31
0.0
  0
LINE
  5
1897D
330
747D
100
AcDbEntity
  8
細線
 48
50.0
100
AcDbLine
 10
12584.3498305133
 20
4001.270620748138
 30
0.0
 11
12584.3498305133
 21
2211.270620748142
 31
0.0
  0
LINE
  5
1897E
330
747D
100
AcDbEntity
  8
細線
 48
50.0
100
AcDbLine
 10
12569.3498305133
 20
4001.270620748138
 30
0.0
 11
12569.3498305133
 21
2211.270620748142
 31
0.0
  0
LINE
  5
1897F
330
747D
100
AcDbEntity
  8
細線
 48
50.0
100
AcDbLine
 10
12429.3498305133
 20
4001.270620748138
 30
0.0
 11
12429.3498305133
 21
2211.270620748142
 31
0.0
  0
LINE
  5
18980
330
747D
100
AcDbEntity
  8
細線
 48
50.0
100
AcDbLine
 10
12444.3498305133
 20
4001.270620748138
 30
0.0
 11
12444.3498305133
 21
2211.270620748142
 31
0.0
  0
LINE
  5
18981
330
747D
100
AcDbEntity
  8
部品1
100
AcDbLine
 10
12366.84983051329
 20
4001.270620748138
 30
0.0
 11
12366.84983051329
 21
2211.270620748142
 31
0.0
  0
LINE
  5
18982
330
747D
100
AcDbEntity
  8
部品1
100
AcDbLine
 10
11807.07496094254
 20
4361.475008711157
 30
0.0
 11
12132.52997458557
 21
4343.956949752297
 31
0.0
  0
ARC
  5
18983
330
747D
100
AcDbEntity
  8
部品1
100
AcDbCircle
 10
13327.47736632724
 20
4075.294378013932
 30
0.0
 40
0.7
100
AcDbArc
 50
275.0921697642102
 51
354.1866997667606
  0
ARC
  5
18984
330
747D
100
AcDbEntity
  8
部品1
100
AcDbCircle
 10
13338.33671207656
 20
4152.337632831855
 30
0.0
 40
0.7
100
AcDbArc
 50
275.0921697642102
 51
354.1866997665532
  0
ARC
  5
18985
330
747D
100
AcDbEntity
  8
部品1
100
AcDbCircle
 10
13338.66511731916
 20
4148.652235974768
 30
0.0
 40
3.0
100
AcDbArc
 50
95.0921697642102
 51
174.1866997665532
  0
ARC
  5
18986
330
747D
100
AcDbEntity
  8
部品1
100
AcDbCircle
 10
13327.80577156983
 20
4071.608981156841
 30
0.0
 40
3.0
100
AcDbArc
 50
95.0921697642102
 51
174.1866997665532
  0
ARC
  5
18987
330
747D
100
AcDbEntity
  8
部品1
 48
50.0
100
AcDbCircle
 10
13316.77763629473
 20
4062.018236552961
 30
0.0
 40
7.0
100
AcDbArc
 50
267.8377559869492
 51
354.1866997665532
  0
ARC
  5
18988
330
747D
100
AcDbEntity
  8
部品1
 48
50.0
100
AcDbCircle
 10
13334.09973275924
 20
4172.920783695135
 30
0.0
 40
7.0
100
AcDbArc
 50
354.1866997665532
 51
87.03587545283093
  0
LINE
  5
18989
330
747D
100
AcDbEntity
  8
部品1
 48
50.0
100
AcDbLine
 10
13324.82119989923
 20
4071.912842873746
 30
0.0
 11
13323.74163685949
 21
4061.309225880187
 31
0.0
  0
LINE
  5
1898A
330
747D
100
AcDbEntity
  8
部品1
 48
50.0
100
AcDbLine
 10
13335.68054564855
 20
4148.956097691669
 30
0.0
 11
13328.17376638371
 21
4075.22347694666
 31
0.0
  0
LINE
  5
1898B
330
747D
100
AcDbEntity
  8
部品1
 48
50.0
100
AcDbLine
 10
13341.063733324
 20
4172.211773022358
 30
0.0
 11
13339.03311213303
 21
4152.266731764579
 31
0.0
  0
ARC
  5
1898C
330
747D
100
AcDbEntity
  8
部品1
100
AcDbCircle
 10
10577.88692238466
 20
4115.084779707046
 30
0.0
 40
0.7
100
AcDbArc
 50
181.0932240293156
 51
260.1877540314845
  0
ARC
  5
1898D
330
747D
100
AcDbEntity
  8
部品1
100
AcDbCircle
 10
10573.11424878705
 20
4207.950557907163
 30
0.0
 40
0.7
100
AcDbArc
 50
181.0932240292114
 51
260.1877540314845
  0
ARC
  5
1898E
330
747D
100
AcDbEntity
  8
部品1
100
AcDbCircle
 10
10572.48369438403
 20
4204.304683369766
 30
0.0
 40
3.0
100
AcDbArc
 50
1.093224029315636
 51
80.18775403169875
  0
ARC
  5
1898F
330
747D
100
AcDbEntity
  8
部品1
100
AcDbCircle
 10
10577.25636798164
 20
4111.438905169645
 30
0.0
 40
3.0
100
AcDbArc
 50
1.093224029315636
 51
80.18775403169875
  0
ARC
  5
18990
330
747D
100
AcDbEntity
  8
部品1
 48
50.0
100
AcDbCircle
 10
10587.45650035684
 20
4101.046661787164
 30
0.0
 40
7.0
100
AcDbArc
 50
181.0932240293156
 51
267.8377559869492
  0
ARC
  5
18991
330
747D
100
AcDbEntity
  8
部品1
 48
50.0
100
AcDbCircle
 10
10579.03284225474
 20
4227.997721320262
 30
0.0
 40
7.0
100
AcDbArc
 50
87.03587545283093
 51
181.0932240293156
  0
LINE
  5
18992
330
747D
100
AcDbEntity
  8
部品1
 48
50.0
100
AcDbLine
 10
10580.25582190807
 20
4111.49614277283
 30
0.0
 11
10580.4577745285
 21
4100.913107379736
 31
0.0
  0
LINE
  5
18993
330
747D
100
AcDbEntity
  8
細線
 48
50.0
100
AcDbLine
 10
10577.6497288514
 20
4114.426190891637
 30
0.0
 11
13327.65339328204
 21
4074.616871917143
 31
0.0
  0
LINE
  5
18994
330
747D
100
AcDbEntity
  8
細線
 48
50.0
100
AcDbLine
 10
10572.88925361411
 20
4207.287702589503
 30
0.0
 11
13338.52523835928
 21
4151.663497948674
 31
0.0
  0
LINE
  5
18995
330
747D
100
AcDbEntity
  8
部品1
 48
50.0
100
AcDbLine
 10
10575.48314831046
 20
4204.361920972948
 30
0.0
 11
10577.18704980183
 21
4115.071424266301
 31
0.0
  0
LINE
  5
18996
330
747D
100
AcDbEntity
  8
部品1
 48
50.0
100
AcDbLine
 10
10572.0341164264
 20
4227.864166912834
 30
0.0
 11
10572.41437620422
 21
4207.937202466422
 31
0.0
  0
LINE
  5
18997
330
747D
100
AcDbEntity
  8
細線
 48
50.0
100
AcDbLine
 10
13308.81911370699
 20
4180.424043227609
 30
0.0
 11
13304.1021476253
 21
4055.491827292692
 31
0.0
  0
LINE
  5
18998
330
747D
100
AcDbEntity
  8
細線
 48
50.0
100
AcDbLine
 10
10604.8498305133
 20
4233.670297123546
 30
0.0
 11
10599.56072895779
 21
4093.584664496189
 31
0.0
  0
LINE
  5
18999
330
747D
100
AcDbEntity
  8
部品1
100
AcDbLine
 10
10587.19239511525
 20
4094.051645817108
 30
0.0
 11
13316.51353105315
 21
4055.023220582902
 31
0.0
  0
LINE
  5
1899A
330
747D
100
AcDbEntity
  8
部品1
100
AcDbLine
 10
10579.39481687026
 20
4234.988356082405
 30
0.0
 11
13334.46170737477
 21
4179.911418457279
 31
0.0
  0
LINE
  5
1899B
330
747D
100
AcDbEntity
  8
部品1
 48
50.0
100
AcDbLine
 10
11832.52997458557
 20
4360.156949752298
 30
0.0
 11
12132.52997458557
 21
4360.156949752298
 31
0.0
  0
LINE
  5
1899C
330
747D
100
AcDbEntity
  8
部品1
 48
50.0
100
AcDbLine
 10
12132.52997458557
 20
4360.156949752298
 30
0.0
 11
12132.52997458557
 21
4343.956949752297
 31
0.0
  0
TEXT
  5
1899D
330
747D
100
AcDbEntity
  8
部品1
 48
50.0
100
AcDbText
 10
11820.7978098093
 20
4396.040971904731
 30
0.0
 40
120.0
  1
1000
  7
STYLE1
100
AcDbText
  0
TEXT
  5
1899E
330
747D
100
AcDbEntity
  8
部品1
 48
50.0
100
AcDbText
 10
12298.43083247439
 20
4258.539713686448
 30
0.0
 40
120.0
  1
37
 50
90.0
  7
STYLE1
100
AcDbText
  0
LINE
  5
1899F
330
747D
100
AcDbEntity
  8
細線
 48
50.0
100
AcDbLine
 10
12024.3498305133
 20
4001.270620748138
 30
0.0
 11
12024.3498305133
 21
2211.270620748139
 31
0.0
  0
LINE
  5
189A0
330
747D
100
AcDbEntity
  8
細線
 48
50.0
100
AcDbLine
 10
12009.3498305133
 20
4001.270620748138
 30
0.0
 11
12009.3498305133
 21
2211.270620748139
 31
0.0
  0
LINE
  5
189A1
330
747D
100
AcDbEntity
  8
細線
 48
50.0
100
AcDbLine
 10
12149.3498305133
 20
4001.270620748138
 30
0.0
 11
12149.3498305133
 21
2211.270620748139
 31
0.0
  0
LINE
  5
189A2
330
747D
100
AcDbEntity
  8
細線
 48
50.0
100
AcDbLine
 10
12164.3498305133
 20
4001.270620748138
 30
0.0
 11
12164.3498305133
 21
2211.270620748139
 31
0.0
  0
LINE
  5
189A3
330
747D
100
AcDbEntity
  8
細線
 48
50.0
100
AcDbLine
 10
12304.3498305133
 20
4001.270620748138
 30
0.0
 11
12304.3498305133
 21
2211.270620748139
 31
0.0
  0
LINE
  5
189A4
330
747D
100
AcDbEntity
  8
細線
 48
50.0
100
AcDbLine
 10
12289.3498305133
 20
4001.270620748138
 30
0.0
 11
12289.3498305133
 21
2211.270620748139
 31
0.0
  0
LINE
  5
189A5
330
747D
100
AcDbEntity
  8
部品1
100
AcDbLine
 10
12786.8498305133
 20
4001.270620748138
 30
0.0
 11
12786.8498305133
 21
2211.270620748142
 31
0.0
  0
LINE
  5
189A6
330
747D
100
AcDbEntity
  8
部品1
100
AcDbLine
 10
10631.8498305133
 20
4001.270620748138
 30
0.0
 11
13261.8498305133
 21
4001.270620748138
 31
0.0
  0
LINE
  5
189A7
330
747D
100
AcDbEntity
  8
部品1
100
AcDbLine
 10
10686.84983051329
 20
2211.270620748139
 30
0.0
 11
13261.8498305133
 21
2211.270620748142
 31
0.0
  0
LINE
  5
189A8
330
747D
100
AcDbEntity
  8
部品1
100
AcDbLine
 10
10686.8498305133
 20
4001.270620748138
 30
0.0
 11
10686.8498305133
 21
2061.270620748143
 31
0.0
  0
LINE
  5
189A9
330
747D
100
AcDbEntity
  8
部品1
100
AcDbLine
 10
10631.8498305133
 20
4093.413058677018
 30
0.0
 11
10631.8498305133
 21
2061.270620748139
 31
0.0
  0
DIMENSION
  5
189AA
330
747D
100
AcDbEntity
  8
寸法
100
AcDbDimension
  2
*D25
 10
9788.09970133004
 20
2161.27062074814
 30
0.0
 11
9788.09970133004
 21
1855.22337665365
 31
0.0
 70
   160
 71
     5
 42
50.0
  3
INABA_S40G
100
AcDbAlignedDimension
 13
10631.8498305133
 23
2211.27062074814
 33
0.0
 14
10576.8498305133
 24
2161.27062074814
 34
0.0
 50
90.0
100
AcDbRotatedDimension
1001
ACAD
1000
DSTYLE
1002
{
1070
   174
1070
     0
1070
   272
1070
     1
1070
   288
1070
     0
1070
   341
1005
0
1002
}
  0
LINE
  5
189AB
330
747D
100
AcDbEntity
  8
部品1
100
AcDbLine
 10
11106.8498305133
 20
4001.270620748138
 30
0.0
 11
11106.8498305133
 21
2211.270620748139
 31
0.0
  0
LINE
  5
189AC
330
747D
100
AcDbEntity
  8
部品1
100
AcDbLine
 10
13261.8498305133
 20
4055.804894135879
 30
0.0
 11
13261.8498305133
 21
2061.270620748143
 31
0.0
  0
LINE
  5
189AD
330
747D
100
AcDbEntity
  8
部品1
100
AcDbLine
 10
13206.8498305133
 20
4001.270620748138
 30
0.0
 11
13206.8498305133
 21
2211.270620748142
 31
0.0
  0
DIMENSION
  5
189AE
330
747D
100
AcDbEntity
  8
寸法
 48
50.0
100
AcDbDimension
  2
*D26
 10
10631.8498305133
 20
4634.928074327445
 30
0.0
 11
11946.8498305133
 21
4634.928074327445
 31
0.0
 70
   160
  1
柱外寸法<>
 71
     5
 42
2630.0
  3
INABA_S40G
100
AcDbAlignedDimension
 13
13261.8498305133
 23
4183.081300359793
 33
0.0
 14
10631.8498305133
 24
4232.272238871116
 34
0.0
100
AcDbRotatedDimension
1001
ACAD
1000
DSTYLE
1002
{
1070
   174
1070
     0
1070
   272
1070
     1
1070
   288
1070
     0
1070
   341
1005
0
1002
}
  0
DIMENSION
  5
189AF
330
747D
100
AcDbEntity
  8
寸法
 48
50.0
100
AcDbDimension
  2
*D27
 10
10571.8498305133
 20
4634.928074327444
 30
0.0
 11
10262.21203523771
 21
4634.928074327444
 31
0.0
 70
   160
 71
     5
 42
60.0
  3
INABA_S40G
100
AcDbAlignedDimension
 13
10631.8498305133
 23
4232.272238871116
 33
0.0
 14
10571.8498305133
 24
4236.270620748145
 34
0.0
100
AcDbRotatedDimension
1001
ACAD
1000
DSTYLE
1002
{
1070
   174
1070
     0
1070
   272
1070
     1
1070
   288
1070
     0
1070
   341
1005
0
1002
}
  0
DIMENSION
  5
189B0
330
747D
100
AcDbEntity
  8
寸法
 48
50.0
100
AcDbDimension
  2
*D28
 10
10571.8498305133
 20
4855.138761059062
 30
0.0
 11
11956.8498305133
 21
4855.138761059062
 31
0.0
 70
   160
 71
     5
 42
2770.0
  3
INABA_S40G
100
AcDbAlignedDimension
 13
13341.8498305133
 23
4181.270620748142
 33
0.0
 14
10571.8498305133
 24
4236.270620748145
 34
0.0
100
AcDbRotatedDimension
1001
ACAD
1000
DSTYLE
1002
{
1070
   174
1070
     0
1070
   272
1070
     1
1070
   288
1070
     0
1070
   341
1005
0
1002
}
  0
LINE
  5
189B1
330
747D
100
AcDbEntity
  8
部品1
100
AcDbLine
 10
10686.8498305133
 20
2161.270620748139
 30
0.0
 11
13261.8498305133
 21
2161.270620748139
 31
0.0
  0
LINE
  5
189B2
330
747D
100
AcDbEntity
  8
細線
 48
50.0
100
AcDbLine
 10
11184.3498305133
 20
4001.270620748138
 30
0.0
 11
11184.3498305133
 21
2211.270620748139
 31
0.0
  0
LINE
  5
189B3
330
747D
100
AcDbEntity
  8
細線
 48
50.0
100
AcDbLine
 10
11169.3498305133
 20
4001.270620748138
 30
0.0
 11
11169.3498305133
 21
2211.270620748139
 31
0.0
  0
LINE
  5
189B4
330
747D
100
AcDbEntity
  8
細線
 48
50.0
100
AcDbLine
 10
11309.3498305133
 20
4001.270620748138
 30
0.0
 11
11309.3498305133
 21
2211.270620748139
 31
0.0
  0
LINE
  5
189B5
330
747D
100
AcDbEntity
  8
細線
 48
50.0
100
AcDbLine
 10
11324.3498305133
 20
4001.270620748138
 30
0.0
 11
11324.3498305133
 21
2211.270620748139
 31
0.0
  0
LINE
  5
189B6
330
747D
100
AcDbEntity
  8
細線
 48
50.0
100
AcDbLine
 10
11464.3498305133
 20
4001.270620748138
 30
0.0
 11
11464.3498305133
 21
2211.270620748139
 31
0.0
  0
LINE
  5
189B7
330
747D
100
AcDbEntity
  8
細線
 48
50.0
100
AcDbLine
 10
11449.3498305133
 20
4001.270620748138
 30
0.0
 11
11449.3498305133
 21
2211.270620748139
 31
0.0
  0
LINE
  5
189B8
330
747D
100
AcDbEntity
  8
細線
 48
50.0
100
AcDbLine
 10
11029.3498305133
 20
4001.270620748138
 30
0.0
 11
11029.3498305133
 21
2211.270620748139
 31
0.0
  0
LINE
  5
189B9
330
747D
100
AcDbEntity
  8
細線
 48
50.0
100
AcDbLine
 10
11044.3498305133
 20
4001.270620748138
 30
0.0
 11
11044.3498305133
 21
2211.270620748139
 31
0.0
  0
LINE
  5
189BA
330
747D
100
AcDbEntity
  8
細線
 48
50.0
100
AcDbLine
 10
10904.3498305133
 20
4001.270620748138
 30
0.0
 11
10904.3498305133
 21
2211.270620748139
 31
0.0
  0
LINE
  5
189BB
330
747D
100
AcDbEntity
  8
細線
 48
50.0
100
AcDbLine
 10
10889.3498305133
 20
4001.270620748138
 30
0.0
 11
10889.3498305133
 21
2211.270620748139
 31
0.0
  0
LINE
  5
189BC
330
747D
100
AcDbEntity
  8
細線
 48
50.0
100
AcDbLine
 10
10749.3498305133
 20
4001.270620748138
 30
0.0
 11
10749.3498305133
 21
2211.270620748139
 31
0.0
  0
LINE
  5
189BD
330
747D
100
AcDbEntity
  8
細線
 48
50.0
100
AcDbLine
 10
10764.3498305133
 20
4001.270620748138
 30
0.0
 11
10764.3498305133
 21
2211.270620748139
 31
0.0
  0
DIMENSION
  5
189BE
330
747D
100
AcDbEntity
  8
寸法
 48
50.0
100
AcDbDimension
  2
*D29
 10
13341.8498305133
 20
4634.928074327445
 30
0.0
 11
13547.89707460779
 21
4634.928074327445
 31
0.0
 70
   160
 71
     5
 42
80.0
  3
INABA_S40G
100
AcDbAlignedDimension
 13
13261.8498305133
 23
4183.081300359793
 33
0.0
 14
13341.8498305133
 24
4181.270620748142
 34
0.0
100
AcDbRotatedDimension
1001
ACAD
1000
DSTYLE
1002
{
1070
   174
1070
     0
1070
   272
1070
     1
1070
   288
1070
     0
1070
   341
1005
0
1002
}
  0
LINE
  5
189BF
330
747D
100
AcDbEntity
  8
部品1
100
AcDbLine
 10
11526.8498305133
 20
4001.270620748138
 30
0.0
 11
11526.8498305133
 21
2211.270620748139
 31
0.0
  0
LINE
  5
189C0
330
747D
100
AcDbEntity
  8
細線
 48
50.0
100
AcDbLine
 10
11869.3498305133
 20
4001.270620748138
 30
0.0
 11
11869.3498305133
 21
2211.270620748139
 31
0.0
  0
LINE
  5
189C1
330
747D
100
AcDbEntity
  8
細線
 48
50.0
100
AcDbLine
 10
11884.3498305133
 20
4001.270620748138
 30
0.0
 11
11884.3498305133
 21
2211.270620748139
 31
0.0
  0
LINE
  5
189C2
330
747D
100
AcDbEntity
  8
細線
 48
50.0
100
AcDbLine
 10
11744.3498305133
 20
4001.270620748138
 30
0.0
 11
11744.3498305133
 21
2211.270620748139
 31
0.0
  0
LINE
  5
189C3
330
747D
100
AcDbEntity
  8
細線
 48
50.0
100
AcDbLine
 10
11729.3498305133
 20
4001.270620748138
 30
0.0
 11
11729.3498305133
 21
2211.270620748139
 31
0.0
  0
LINE
  5
189C4
330
747D
100
AcDbEntity
  8
細線
 48
50.0
100
AcDbLine
 10
11589.3498305133
 20
4001.270620748138
 30
0.0
 11
11589.3498305133
 21
2211.270620748139
 31
0.0
  0
LINE
  5
189C5
330
747D
100
AcDbEntity
  8
細線
 48
50.0
100
AcDbLine
 10
11604.3498305133
 20
4001.270620748138
 30
0.0
 11
11604.3498305133
 21
2211.270620748139
 31
0.0
  0
LINE
  5
189C6
330
747D
100
AcDbEntity
  8
部品1
100
AcDbLine
 10
11946.8498305133
 20
4001.270620748138
 30
0.0
 11
11946.8498305133
 21
2211.270620748139
 31
0.0
  0
LINE
  5
189C7
330
747D
100
AcDbEntity
  8
細線
 48
50.0
100
AcDbLine
 10
12864.34983051331
 20
4001.270620748138
 30
0.0
 11
12864.34983051331
 21
2211.270620748142
 31
0.0
  0
LINE
  5
189C8
330
747D
100
AcDbEntity
  8
細線
 48
50.0
100
AcDbLine
 10
12849.34983051331
 20
4001.270620748138
 30
0.0
 11
12849.34983051331
 21
2211.270620748142
 31
0.0
  0
LINE
  5
189C9
330
747D
100
AcDbEntity
  8
細線
 48
50.0
100
AcDbLine
 10
12989.34983051331
 20
4001.270620748138
 30
0.0
 11
12989.34983051331
 21
2211.270620748142
 31
0.0
  0
LINE
  5
189CA
330
747D
100
AcDbEntity
  8
細線
 48
50.0
100
AcDbLine
 10
13004.34983051331
 20
4001.270620748138
 30
0.0
 11
13004.34983051331
 21
2211.270620748142
 31
0.0
  0
LINE
  5
189CB
330
747D
100
AcDbEntity
  8
細線
 48
50.0
100
AcDbLine
 10
13144.3498305133
 20
4001.270620748138
 30
0.0
 11
13144.3498305133
 21
2211.270620748142
 31
0.0
  0
LINE
  5
189CC
330
747D
100
AcDbEntity
  8
細線
 48
50.0
100
AcDbLine
 10
13129.34983051331
 20
4001.270620748138
 30
0.0
 11
13129.34983051331
 21
2211.270620748142
 31
0.0
  0
DIMENSION
  5
189CD
330
747D
100
AcDbEntity
  8
寸法
 48
50.0
100
AcDbDimension
  2
*D30
 10
10011.24142374491
 20
4110.615879621471
 30
0.0
 11
10021.90689900384
 21
4481.46254286317
 31
0.0
 70
   161
 71
     5
 42
140.9999999999991
  3
INABA_S40G
100
AcDbAlignedDimension
 13
10591.24585067188
 23
4234.993369582819
 33
0.0
 14
10587.19239511525
 24
4094.051645817106
 34
0.0
1001
ACAD
1000
DSTYLE
1002
{
1070
   174
1070
     0
1070
   272
1070
     1
1070
   288
1070
     0
1070
   341
1005
0
1002
}
  0
LINE
  5
189D3
330
747D
100
AcDbEntity
  8
破線
 48
5.0
100
AcDbLine
 10
10631.8498305133
 20
2061.270620748139
 30
0.0
 11
10631.8498305133
 21
1811.270620748139
 31
0.0
  0
LINE
  5
189D4
330
747D
100
AcDbEntity
  8
破線
 48
5.0
100
AcDbLine
 10
10686.8498305133
 20
2061.270620748139
 30
0.0
 11
10686.8498305133
 21
1811.270620748139
 31
0.0
  0
LINE
  5
189D5
330
747D
100
AcDbEntity
  8
破線
 48
5.0
100
AcDbLine
 10
10631.8498305133
 20
1811.270620748139
 30
0.0
 11
10686.8498305133
 21
1811.270620748139
 31
0.0
  0
LINE
  5
189D6
330
747D
100
AcDbEntity
  8
部品1
100
AcDbLine
 10
10631.8498305133
 20
2161.270620748139
 30
0.0
 11
10238.85261630445
 21
2061.270620748139
 31
0.0
  0
TEXT
  5
189D7
330
747D
100
AcDbEntity
  8
文字
 62
     7
 48
50.0
100
AcDbText
 10
14237.10790177236
 20
483.8967129911416
 30
0.0
 40
160.0
  1
FXN-2626SL-2
  7
MSPゴシック
100
AcDbText
  0
LWPOLYLINE
  5
189D8
330
747D
100
AcDbEntity
  8
部品1
100
AcDbPolyline
 90
        4
 70
     1
 43
0.0
 10
11575.11449739908
 20
1411.270620748139
 10
11575.11449739908
 20
1171.378299202606
 10
12338.58516362752
 20
1171.378299202606
 10
12338.58516362752
 20
1411.270620748139
  0
TEXT
  5
189D9
330
747D
100
AcDbEntity
  8
部品1
100
AcDbText
 10
11659.17762962742
 20
1218.377091529614
 30
0.0
 40
135.0
  1
側面図
  7
MSGOTHIC
100
AcDbText
  0
LINE
  5
18D9C
330
747D
100
AcDbEntity
  8
補助
  6
PHANTOM
 62
   230
 48
50.0
100
AcDbLine
 10
140.0
 20
0.0
 30
0.0
 11
140.0
 21
11409.6
 31
0.0
  0
DIMENSION
  5
19128
330
747D
100
AcDbEntity
  8
寸法
 48
50.0
100
AcDbDimension
  2
*D33
 10
2744.673057123676
 20
4641.996892480048
 30
0.0
 11
5374.673057123676
 21
4641.996892480048
 31
0.0
 70
   160
  1
柱外寸法<>
 71
     5
 42
5260.000000000006
  3
INABA_S40G
100
AcDbAlignedDimension
 13
8004.67305712368
 23
4236.270620748146
 33
0.0
 14
2744.673057123676
 24
4236.270620748146
 34
0.0
100
AcDbRotatedDimension
  0
DIMENSION
  5
19129
330
747D
100
AcDbEntity
  8
寸法
 48
50.0
100
AcDbDimension
  2
*D32
 10
8054.673057123677
 20
4841.905813694139
 30
0.0
 11
5374.673057123676
 21
4841.905813694139
 31
0.0
 70
   160
 71
     5
 42
5360.000000000002
  3
INABA_S40G
100
AcDbAlignedDimension
 13
2694.673057123676
 23
4236.270620748146
 33
0.0
 14
8054.673057123677
 24
4236.270620748142
 34
0.0
100
AcDbRotatedDimension
  0
DIMENSION
  5
1912A
330
747D
100
AcDbEntity
  8
寸法
 48
50.0
100
AcDbDimension
  2
*D31
 10
2694.673057123676
 20
4641.996892480048
 30
0.0
 11
2381.187775749429
 21
4641.996892480048
 31
0.0
 70
   160
 71
     5
 42
50.0
  3
INABA_S40G
100
AcDbAlignedDimension
 13
2744.673057123676
 23
4236.270620748146
 33
0.0
 14
2694.673057123676
 24
4236.270620748146
 34
0.0
100
AcDbRotatedDimension
1001
ACAD
1000
DSTYLE
1002
{
1002
}
  0
LINE
  5
1912B
330
747D
100
AcDbEntity
  8
部品1
100
AcDbLine
 10
2695.092718139006
 20
4228.874095352905
 30
0.0
 11
2696.226115471355
 21
4208.897967370304
 31
0.0
  0
LINE
  5
1912C
330
747D
100
AcDbEntity
  8
部品1
100
AcDbLine
 10
2707.663135792936
 20
4113.240560203244
 30
0.0
 11
2708.308041600044
 21
4101.874095352905
 31
0.0
  0
LINE
  5
1912D
330
747D
100
AcDbEntity
  8
部品1
100
AcDbLine
 10
2699.427105268084
 20
4205.440560203245
 30
0.0
 11
2704.462145996199
 21
4116.697967370302
 31
0.0
  0
ARC
  5
1912E
330
747D
100
AcDbEntity
  8
部品1
 48
50.0
100
AcDbCircle
 10
2696.431922371898
 20
4205.270620748146
 30
0.0
 40
3.0
100
AcDbArc
 50
3.24734279033436
 51
82.3418727926348
  0
ARC
  5
1912F
330
747D
100
AcDbEntity
  8
部品1
 48
50.0
100
AcDbCircle
 10
2704.667952896742
 20
4113.070620748142
 30
0.0
 40
3.0
100
AcDbArc
 50
3.24734279033436
 51
82.3418727926348
  0
ARC
  5
19130
330
747D
100
AcDbEntity
  8
部品1
 48
50.0
100
AcDbCircle
 10
2705.161022005304
 20
4116.737619909826
 30
0.0
 40
0.7
100
AcDbArc
 50
183.2473427903344
 51
262.3418727926349
  0
ARC
  5
19131
330
747D
100
AcDbEntity
  8
部品1
 48
50.0
100
AcDbCircle
 10
2696.924991480467
 20
4208.937619909829
 30
0.0
 40
0.7
100
AcDbArc
 50
183.2473427903344
 51
262.3418727926349
  0
ARC
  5
19132
330
747D
100
AcDbEntity
  8
部品1
100
AcDbCircle
 10
2715.296801691139
 20
4102.270620748146
 30
0.0
 40
7.0
100
AcDbArc
 50
183.2473427903344
 51
270.0
  0
ARC
  5
19133
330
747D
100
AcDbEntity
  8
部品1
100
AcDbCircle
 10
2702.081478230109
 20
4229.270620748142
 30
0.0
 40
7.0
100
AcDbArc
 50
90.0
 51
183.2473427903344
  0
LINE
  5
19134
330
747D
100
AcDbEntity
  8
細線
 48
50.0
100
AcDbLine
 10
2727.673057123676
 20
4236.270620748142
 30
0.0
 11
2727.673057123676
 21
4095.270620748142
 31
0.0
  0
LINE
  5
19135
330
747D
100
AcDbEntity
  8
細線
 48
50.0
100
AcDbLine
 10
8044.397488377368
 20
4116.070620748135
 30
0.0
 11
2704.948625869946
 21
4116.070620748145
 31
0.0
  0
LINE
  5
19136
330
747D
100
AcDbEntity
  8
細線
 48
50.0
100
AcDbLine
 10
8052.633518902249
 20
4208.270620748147
 30
0.0
 11
2696.712595345117
 21
4208.270620748142
 31
0.0
  0
LINE
  5
19137
330
747D
100
AcDbEntity
  8
部品1
 48
50.0
100
AcDbLine
 10
8034.049312556215
 20
4095.270620748147
 30
0.0
 11
2715.296801691139
 21
4095.270620748146
 31
0.0
  0
LINE
  5
19138
330
747D
100
AcDbEntity
  8
部品1
 48
50.0
100
AcDbLine
 10
8047.264636017249
 20
4236.270620748141
 30
0.0
 11
2702.081478230109
 21
4236.270620748146
 31
0.0
  0
LINE
  5
19139
330
747D
100
AcDbEntity
  8
部品1
100
AcDbLine
 10
2744.673057123676
 20
4001.270620748138
 30
0.0
 11
8004.673057123676
 21
4001.270620748136
 31
0.0
  0
DIMENSION
  5
191E1
330
747D
100
AcDbEntity
  8
寸法
 48
50.0
100
AcDbDimension
  2
*D34
 10
8004.67305712368
 20
4641.996892480052
 30
0.0
 11
8368.158338497917
 21
4641.996892480052
 31
0.0
 70
   160
 71
     5
 42
49.99999999999636
  3
INABA_S40G
100
AcDbAlignedDimension
 13
8054.673057123677
 23
4236.270620748142
 33
0.0
 14
8004.67305712368
 24
4236.270620748146
 34
0.0
100
AcDbRotatedDimension
  0
ARC
  5
191E2
330
747D
100
AcDbEntity
  8
部品1
100
AcDbCircle
 10
8047.264636017249
 20
4229.270620748145
 30
0.0
 40
7.0
100
AcDbArc
 50
356.7526572096657
 51
90.0
  0
ARC
  5
191E3
330
747D
100
AcDbEntity
  8
部品1
100
AcDbCircle
 10
8034.049312556215
 20
4102.270620748146
 30
0.0
 40
7.0
100
AcDbArc
 50
270.0
 51
356.7526572096657
  0
ARC
  5
191E4
330
747D
100
AcDbEntity
  8
部品1
 48
50.0
100
AcDbCircle
 10
8052.42112276689
 20
4208.937619909829
 30
0.0
 40
0.7
100
AcDbArc
 50
277.6581272073652
 51
356.7526572096657
  0
ARC
  5
191E5
330
747D
100
AcDbEntity
  8
部品1
 48
50.0
100
AcDbCircle
 10
8044.185092242051
 20
4116.737619909829
 30
0.0
 40
0.7
100
AcDbArc
 50
277.6581272073652
 51
356.7526572096657
  0
ARC
  5
191E6
330
747D
100
AcDbEntity
  8
部品1
 48
50.0
100
AcDbCircle
 10
8044.67816135061
 20
4113.070620748142
 30
0.0
 40
3.0
100
AcDbArc
 50
97.65812720736519
 51
176.7526572096656
  0
ARC
  5
191E7
330
747D
100
AcDbEntity
  8
部品1
 48
50.0
100
AcDbCircle
 10
8052.914191875455
 20
4205.270620748146
 30
0.0
 40
3.0
100
AcDbArc
 50
97.65812720736519
 51
176.7526572096656
  0
LINE
  5
191E8
330
747D
100
AcDbEntity
  8
部品1
100
AcDbLine
 10
8049.919008979269
 20
4205.440560203249
 30
0.0
 11
8044.883968251157
 21
4116.697967370302
 31
0.0
  0
LINE
  5
191E9
330
747D
100
AcDbEntity
  8
部品1
100
AcDbLine
 10
8041.682978454423
 20
4113.240560203244
 30
0.0
 11
8041.038072647314
 21
4101.874095352905
 31
0.0
  0
LINE
  5
191EA
330
747D
100
AcDbEntity
  8
細線
 48
50.0
100
AcDbLine
 10
8021.673057123678
 20
4236.270620748146
 30
0.0
 11
8021.673057123678
 21
4095.270620748146
 31
0.0
  0
LINE
  5
191EB
330
747D
100
AcDbEntity
  8
部品1
100
AcDbLine
 10
8054.253396108348
 20
4228.874095352905
 30
0.0
 11
8053.119998775999
 21
4208.897967370307
 31
0.0
  0
LINE
  5
19528
330
747D
100
AcDbEntity
  8
部品1
 48
50.0
100
AcDbLine
 10
5364.67305712368
 20
4095.270620748143
 30
0.0
 11
5364.673057123678
 21
4236.270620748142
 31
0.0
  0
LINE
  5
19529
330
747D
100
AcDbEntity
  8
部品1
 48
50.0
100
AcDbLine
 10
5374.673057123681
 20
3836.27062074814
 30
0.0
 11
5374.67305712368
 21
4095.270620748143
 31
0.0
  0
DIMENSION
  5
1991C
330
747D
100
AcDbEntity
  8
寸法
 48
50.0
100
AcDbDimension
  2
*D35
 10
8292.216159445422
 20
4001.270620748138
 30
0.0
 11
8292.216159445422
 21
4239.755902122378
 31
0.0
 70
   160
 71
     5
 42
164.9999999999991
  3
INABA_S40G
100
AcDbAlignedDimension
 13
8004.673057123676
 23
3836.27062074814
 33
0.0
 14
8004.673057123676
 24
4001.270620748138
 34
0.0
 50
90.0
100
AcDbRotatedDimension
1001
ACAD
1000
DSTYLE
1002
{
1002
}
  0
DIMENSION
  5
1991D
330
747D
100
AcDbEntity
  8
寸法
 48
50.0
100
AcDbDimension
  2
*D36
 10
8292.216159445422
 20
3836.27062074814
 30
0.0
 11
8432.385982691789
 21
3837.237820587798
 31
0.0
 70
   160
 71
     5
 42
27.00000000000091
  3
INABA_S40G
100
AcDbAlignedDimension
 13
8004.673057123676
 23
3809.270620748139
 33
0.0
 14
8004.673057123676
 24
3836.27062074814
 34
0.0
 50
90.0
100
AcDbRotatedDimension
1001
ACAD
1000
DSTYLE
1002
{
1070
   279
1070
     2
1002
}
  0
DIMENSION
  5
1991E
330
747D
100
AcDbEntity
  8
寸法
 48
50.0
100
AcDbDimension
  2
*D37
 10
8292.216159445422
 20
3809.270620748139
 30
0.0
 11
8192.216159445422
 21
2985.27062074814
 31
0.0
 70
    32
  1
有効開口部高サ <>
 71
     5
 42
1648.0
  3
INABA_S40G
100
AcDbAlignedDimension
 13
8004.673057123676
 23
2161.270620748139
 33
0.0
 14
8004.673057123676
 24
3809.270620748139
 34
0.0
 50
90.0
100
AcDbRotatedDimension
  0
TEXT
  5
19A43
330
747D
100
AcDbEntity
  8
文字
 62
     7
 48
50.0
100
AcDbText
 10
13583.11819016569
 20
10760.01374588372
 30
0.0
 40
100.0
  1
柱
  7
STYLE1
100
AcDbText
  0
TEXT
  5
19A44
330
747D
100
AcDbEntity
  8
文字
 62
     7
 48
50.0
100
AcDbText
 10
15022.63965474517
 20
10760.01374588372
 30
0.0
 40
100.0
  1
F12         1.0,1.2
  7
STYLE1
100
AcDbText
  0
LINE
  5
19A4D
330
747D
100
AcDbEntity
  8
仕様書枠
 48
50.0
100
AcDbLine
 10
16307.19999999998
 20
8689.6
 30
0.0
 11
13127.19999999999
 21
8689.600000000003
 31
0.0
  0
TEXT
  5
19A51
330
747D
100
AcDbEntity
  8
文字
 62
     7
 48
50.0
100
AcDbText
 10
15022.63965474516
 20
9060.013745883727
 30
0.0
 40
100.0
  1
F12            0.7
  7
STYLE1
100
AcDbText
  0
LINE
  5
19A53
330
747D
100
AcDbEntity
  8
破線
 48
10.0
100
AcDbLine
 10
5374.673057123676
 20
1886.270620748138
 30
0.0
 11
5374.673057123676
 21
1811.270620748139
 31
0.0
  0
LINE
  5
19A54
330
747D
100
AcDbEntity
  8
破線
 48
5.0
100
AcDbLine
 10
5324.673057123676
 20
1811.270620748139
 30
0.0
 11
5424.673057123676
 21
1811.270620748139
 31
0.0
  0
LINE
  5
19BDA
330
747D
100
AcDbEntity
  8
部品1
100
AcDbLine
 10
7529.673057123682
 20
9772.497424545987
 30
0.0
 11
7529.673057123682
 21
9744.497424545986
 31
0.0
  0
LINE
  5
19C1F
330
747D
100
AcDbEntity
  8
部品1
100
AcDbLine
 10
3219.673057123684
 20
9772.497424545987
 30
0.0
 11
3219.673057123684
 21
9744.497424545986
 31
0.0
  0
LINE
  5
19C20
330
747D
100
AcDbEntity
  8
部品1
100
AcDbLine
 10
3219.673057123684
 20
9772.49742454587
 30
0.0
 11
3219.673057123684
 21
9744.497424545869
 31
0.0
  0
LINE
  5
19C21
330
747D
100
AcDbEntity
  8
部品1
100
AcDbLine
 10
3219.673057123684
 20
9772.49742454587
 30
0.0
 11
3219.673057123684
 21
9744.497424545869
 31
0.0
  0
LINE
  5
19C23
330
747D
100
AcDbEntity
  8
部品1
100
AcDbLine
 10
4479.673057123682
 20
9772.497424545987
 30
0.0
 11
4479.673057123682
 21
9744.497424545986
 31
0.0
  0
ARC
  5
19D11
330
747D
100
AcDbEntity
  8
部品1
 48
0.01
100
AcDbCircle
 10
3532.673057123679
 20
4065.270620748139
 30
0.0
 40
2.0
100
AcDbArc
 50
0.0
 51
90.0
  0
ARC
  5
19D12
330
747D
100
AcDbEntity
  8
部品1
 48
0.01
100
AcDbCircle
 10
3356.67305712368
 20
4065.270620748139
 30
0.0
 40
2.0
100
AcDbArc
 50
90.0
 51
180.0
  0
LINE
  5
19D13
330
747D
100
AcDbEntity
  8
細線
100
AcDbLine
 10
3444.673057123676
 20
4037.770620748139
 30
0.0
 11
3518.67305712368
 21
4037.770620748139
 31
0.0
  0
LINE
  5
19D14
330
747D
100
AcDbEntity
  8
細線
100
AcDbLine
 10
3444.673057123679
 20
4060.770620748138
 30
0.0
 11
3370.67305712368
 21
4060.770620748138
 31
0.0
  0
LINE
  5
19D15
330
747D
100
AcDbEntity
  8
細線
100
AcDbLine
 10
3370.67305712368
 20
4037.770620748139
 30
0.0
 11
3444.673057123679
 21
4037.770620748139
 31
0.0
  0
LINE
  5
19D16
330
747D
100
AcDbEntity
  8
細線
100
AcDbLine
 10
3518.67305712368
 20
4060.770620748138
 30
0.0
 11
3444.673057123679
 21
4060.770620748138
 31
0.0
  0
LINE
  5
19D17
330
747D
100
AcDbEntity
  8
細線
100
AcDbLine
 10
3518.67305712368
 20
4037.770620748139
 30
0.0
 11
3518.67305712368
 21
4060.770620748138
 31
0.0
  0
LINE
  5
19D18
330
747D
100
AcDbEntity
  8
細線
100
AcDbLine
 10
3370.67305712368
 20
4060.770620748138
 30
0.0
 11
3370.67305712368
 21
4037.770620748139
 31
0.0
  0
LINE
  5
19D19
330
747D
100
AcDbEntity
  8
部品1
 48
0.01
100
AcDbLine
 10
3534.673057123676
 20
4033.770620748138
 30
0.0
 11
3534.67305712368
 21
4065.270620748139
 31
0.0
  0
LINE
  5
19D1A
330
747D
100
AcDbEntity
  8
部品1
 48
0.01
100
AcDbLine
 10
3354.67305712368
 20
4065.270620748139
 30
0.0
 11
3354.67305712368
 21
4033.770620748138
 31
0.0
  0
LINE
  5
19D1B
330
747D
100
AcDbEntity
  8
部品1
 48
0.01
100
AcDbLine
 10
3532.673057123679
 20
4067.270620748138
 30
0.0
 11
3356.67305712368
 21
4067.270620748138
 31
0.0
  0
LINE
  5
19D1C
330
747D
100
AcDbEntity
  8
細線
100
AcDbLine
 10
3370.67305712368
 20
4054.770620748139
 30
0.0
 11
3444.673057123679
 21
4054.770620748139
 31
0.0
  0
LINE
  5
19D1D
330
747D
100
AcDbEntity
  8
細線
100
AcDbLine
 10
3370.67305712368
 20
4048.770620748139
 30
0.0
 11
3444.673057123679
 21
4048.770620748139
 31
0.0
  0
LINE
  5
19D1E
330
747D
100
AcDbEntity
  8
細線
100
AcDbLine
 10
3370.673057123676
 20
4042.770620748139
 30
0.0
 11
3444.673057123679
 21
4042.770620748139
 31
0.0
  0
LINE
  5
19D1F
330
747D
100
AcDbEntity
  8
細線
100
AcDbLine
 10
3370.67305712368
 20
4054.770620748139
 30
0.0
 11
3439.673057123679
 21
4054.770620748139
 31
0.0
  0
LINE
  5
19D20
330
747D
100
AcDbEntity
  8
細線
100
AcDbLine
 10
3518.673057123676
 20
4054.770620748139
 30
0.0
 11
3444.673057123679
 21
4054.770620748139
 31
0.0
  0
LINE
  5
19D21
330
747D
100
AcDbEntity
  8
細線
100
AcDbLine
 10
3518.673057123676
 20
4042.770620748139
 30
0.0
 11
3444.673057123679
 21
4042.770620748139
 31
0.0
  0
LINE
  5
19D22
330
747D
100
AcDbEntity
  8
細線
100
AcDbLine
 10
3518.673057123676
 20
4048.770620748139
 30
0.0
 11
3444.673057123679
 21
4048.770620748139
 31
0.0
  0
LINE
  5
19D23
330
747D
100
AcDbEntity
  8
細線
100
AcDbLine
 10
3444.673057123679
 20
4060.770620748138
 30
0.0
 11
3444.673057123676
 21
4037.770620748139
 31
0.0
  0
LINE
  5
19D24
330
747D
100
AcDbEntity
  8
細線
100
AcDbLine
 10
4674.673057123679
 20
4060.770620748138
 30
0.0
 11
4674.673057123679
 21
4037.770620748139
 31
0.0
  0
LINE
  5
19D25
330
747D
100
AcDbEntity
  8
細線
100
AcDbLine
 10
4600.673057123679
 20
4048.770620748139
 30
0.0
 11
4674.673057123679
 21
4048.770620748139
 31
0.0
  0
LINE
  5
19D26
330
747D
100
AcDbEntity
  8
細線
100
AcDbLine
 10
4600.673057123679
 20
4042.770620748139
 30
0.0
 11
4674.673057123679
 21
4042.770620748139
 31
0.0
  0
LINE
  5
19D27
330
747D
100
AcDbEntity
  8
細線
100
AcDbLine
 10
4600.673057123679
 20
4054.770620748139
 30
0.0
 11
4674.673057123679
 21
4054.770620748139
 31
0.0
  0
LINE
  5
19D28
330
747D
100
AcDbEntity
  8
細線
100
AcDbLine
 10
4748.67305712368
 20
4054.770620748139
 30
0.0
 11
4679.673057123679
 21
4054.770620748139
 31
0.0
  0
LINE
  5
19D29
330
747D
100
AcDbEntity
  8
細線
100
AcDbLine
 10
4748.67305712368
 20
4042.770620748139
 30
0.0
 11
4674.673057123679
 21
4042.770620748139
 31
0.0
  0
LINE
  5
19D2A
330
747D
100
AcDbEntity
  8
細線
100
AcDbLine
 10
4748.67305712368
 20
4048.770620748139
 30
0.0
 11
4674.673057123679
 21
4048.770620748139
 31
0.0
  0
LINE
  5
19D2B
330
747D
100
AcDbEntity
  8
細線
100
AcDbLine
 10
4748.67305712368
 20
4054.770620748139
 30
0.0
 11
4674.673057123679
 21
4054.770620748139
 31
0.0
  0
LINE
  5
19D2C
330
747D
100
AcDbEntity
  8
部品1
 48
0.01
100
AcDbLine
 10
4586.673057123679
 20
4067.270620748138
 30
0.0
 11
4762.67305712368
 21
4067.270620748138
 31
0.0
  0
LINE
  5
19D2D
330
747D
100
AcDbEntity
  8
部品1
 48
0.01
100
AcDbLine
 10
4764.673057123679
 20
4065.270620748139
 30
0.0
 11
4764.673057123679
 21
4033.770620748138
 31
0.0
  0
LINE
  5
19D2E
330
747D
100
AcDbEntity
  8
部品1
 48
0.01
100
AcDbLine
 10
4584.673057123679
 20
4033.770620748138
 30
0.0
 11
4584.673057123679
 21
4065.270620748139
 31
0.0
  0
LINE
  5
19D2F
330
747D
100
AcDbEntity
  8
細線
100
AcDbLine
 10
4748.67305712368
 20
4060.770620748138
 30
0.0
 11
4748.67305712368
 21
4037.770620748139
 31
0.0
  0
LINE
  5
19D30
330
747D
100
AcDbEntity
  8
細線
100
AcDbLine
 10
4600.673057123679
 20
4037.770620748139
 30
0.0
 11
4600.673057123679
 21
4060.770620748138
 31
0.0
  0
LINE
  5
19D31
330
747D
100
AcDbEntity
  8
細線
100
AcDbLine
 10
4600.673057123679
 20
4060.770620748138
 30
0.0
 11
4674.673057123679
 21
4060.770620748138
 31
0.0
  0
LINE
  5
19D32
330
747D
100
AcDbEntity
  8
細線
100
AcDbLine
 10
4748.67305712368
 20
4037.770620748139
 30
0.0
 11
4674.673057123679
 21
4037.770620748139
 31
0.0
  0
LINE
  5
19D33
330
747D
100
AcDbEntity
  8
細線
100
AcDbLine
 10
4674.673057123679
 20
4060.770620748138
 30
0.0
 11
4748.67305712368
 21
4060.770620748138
 31
0.0
  0
LINE
  5
19D34
330
747D
100
AcDbEntity
  8
細線
100
AcDbLine
 10
4674.673057123679
 20
4037.770620748139
 30
0.0
 11
4600.673057123679
 21
4037.770620748139
 31
0.0
  0
ARC
  5
19D35
330
747D
100
AcDbEntity
  8
部品1
 48
0.01
100
AcDbCircle
 10
4762.67305712368
 20
4065.270620748139
 30
0.0
 40
2.0
100
AcDbArc
 50
0.0
 51
90.0
  0
ARC
  5
19D36
330
747D
100
AcDbEntity
  8
部品1
 48
0.01
100
AcDbCircle
 10
4586.673057123679
 20
4065.270620748139
 30
0.0
 40
2.0
100
AcDbArc
 50
90.0
 51
180.0
  0
ARC
  5
19D37
330
747D
100
AcDbEntity
  8
部品1
 48
0.01
100
AcDbCircle
 10
3532.673057123676
 20
4033.770620748138
 30
0.0
 40
2.0
100
AcDbArc
 50
270.0
 51
0.0
  0
ARC
  5
19D38
330
747D
100
AcDbEntity
  8
部品1
 48
0.01
100
AcDbCircle
 10
3356.67305712368
 20
4033.770620748138
 30
0.0
 40
2.0
100
AcDbArc
 50
180.0
 51
270.0
  0
LINE
  5
19D39
330
747D
100
AcDbEntity
  8
部品1
 48
0.01
100
AcDbLine
 10
3356.67305712368
 20
4031.770620748138
 30
0.0
 11
3532.673057123676
 21
4031.770620748138
 31
0.0
  0
LINE
  5
19D3A
330
747D
100
AcDbEntity
  8
部品1
 48
0.01
100
AcDbLine
 10
4762.67305712368
 20
4031.770620748138
 30
0.0
 11
4586.673057123679
 21
4031.770620748138
 31
0.0
  0
ARC
  5
19D3B
330
747D
100
AcDbEntity
  8
部品1
 48
0.01
100
AcDbCircle
 10
4762.67305712368
 20
4033.770620748138
 30
0.0
 40
2.0
100
AcDbArc
 50
270.0
 51
0.0
  0
ARC
  5
19D3C
330
747D
100
AcDbEntity
  8
部品1
 48
0.01
100
AcDbCircle
 10
4586.673057123679
 20
4033.770620748138
 30
0.0
 40
2.0
100
AcDbArc
 50
180.0
 51
270.0
  0
ARC
  5
19D3D
330
747D
100
AcDbEntity
  8
細線
 48
50.0
100
AcDbCircle
 10
3759.673057123676
 20
2723.770620748139
 30
0.0
 40
15.0
100
AcDbArc
 50
90.0
 51
270.0
  0
ARC
  5
19D3E
330
747D
100
AcDbEntity
  8
細線
 48
50.0
100
AcDbCircle
 10
3859.673057123676
 20
2723.770620748139
 30
0.0
 40
15.0
100
AcDbArc
 50
270.0
 51
90.0
  0
LINE
  5
19D3F
330
747D
100
AcDbEntity
  8
細線
 48
50.0
100
AcDbLine
 10
3759.673057123676
 20
2738.770620748139
 30
0.0
 11
3859.673057123676
 21
2738.770620748139
 31
0.0
  0
LINE
  5
19D40
330
747D
100
AcDbEntity
  8
細線
 48
50.0
100
AcDbLine
 10
3859.673057123676
 20
2708.770620748139
 30
0.0
 11
3759.673057123676
 21
2708.770620748139
 31
0.0
  0
LINE
  5
19D41
330
747D
100
AcDbEntity
  8
細線
 48
50.0
100
AcDbLine
 10
4359.673057123676
 20
2708.770620748139
 30
0.0
 11
4259.673057123676
 21
2708.770620748139
 31
0.0
  0
LINE
  5
19D42
330
747D
100
AcDbEntity
  8
細線
 48
50.0
100
AcDbLine
 10
4259.673057123676
 20
2738.770620748139
 30
0.0
 11
4359.673057123676
 21
2738.770620748139
 31
0.0
  0
ARC
  5
19D43
330
747D
100
AcDbEntity
  8
細線
 48
50.0
100
AcDbCircle
 10
4259.673057123676
 20
2723.770620748139
 30
0.0
 40
15.0
100
AcDbArc
 50
90.0
 51
270.0
  0
ARC
  5
19D44
330
747D
100
AcDbEntity
  8
細線
 48
50.0
100
AcDbCircle
 10
4359.673057123676
 20
2723.770620748139
 30
0.0
 40
15.0
100
AcDbArc
 50
270.0
 51
90.0
  0
CIRCLE
  5
19D45
330
747D
100
AcDbEntity
  8
細線
 48
50.0
100
AcDbCircle
 10
4059.673057123676
 20
3048.770620748139
 30
0.0
 40
18.0
  0
ARC
  5
19D46
330
747D
100
AcDbEntity
  8
部品1
 48
0.01
100
AcDbCircle
 10
7216.673057123678
 20
4033.770620748138
 30
0.0
 40
2.0
100
AcDbArc
 50
180.0
 51
270.0
  0
ARC
  5
19D47
330
747D
100
AcDbEntity
  8
部品1
 48
0.01
100
AcDbCircle
 10
7392.673057123677
 20
4033.770620748138
 30
0.0
 40
2.0
100
AcDbArc
 50
270.0
 51
0.0
  0
LINE
  5
19D48
330
747D
100
AcDbEntity
  8
部品1
 48
0.01
100
AcDbLine
 10
7392.673057123677
 20
4031.770620748138
 30
0.0
 11
7216.673057123678
 21
4031.770620748138
 31
0.0
  0
LINE
  5
19D49
330
747D
100
AcDbEntity
  8
部品1
 48
0.01
100
AcDbLine
 10
5986.673057123677
 20
4031.770620748138
 30
0.0
 11
6162.673057123674
 21
4031.770620748138
 31
0.0
  0
ARC
  5
19D4A
330
747D
100
AcDbEntity
  8
部品1
 48
0.01
100
AcDbCircle
 10
5986.673057123677
 20
4033.770620748138
 30
0.0
 40
2.0
100
AcDbArc
 50
180.0
 51
270.0
  0
ARC
  5
19D4B
330
747D
100
AcDbEntity
  8
部品1
 48
0.01
100
AcDbCircle
 10
6162.673057123674
 20
4033.770620748138
 30
0.0
 40
2.0
100
AcDbArc
 50
270.0
 51
0.0
  0
ARC
  5
19D4C
330
747D
100
AcDbEntity
  8
部品1
 48
0.01
100
AcDbCircle
 10
7216.673057123678
 20
4065.270620748139
 30
0.0
 40
2.0
100
AcDbArc
 50
90.0
 51
180.0
  0
ARC
  5
19D4D
330
747D
100
AcDbEntity
  8
部品1
 48
0.01
100
AcDbCircle
 10
7392.673057123677
 20
4065.270620748139
 30
0.0
 40
2.0
100
AcDbArc
 50
0.0
 51
90.0
  0
LINE
  5
19D4E
330
747D
100
AcDbEntity
  8
細線
100
AcDbLine
 10
7304.673057123678
 20
4037.770620748139
 30
0.0
 11
7230.673057123678
 21
4037.770620748139
 31
0.0
  0
LINE
  5
19D4F
330
747D
100
AcDbEntity
  8
細線
100
AcDbLine
 10
7304.673057123678
 20
4060.770620748138
 30
0.0
 11
7378.673057123677
 21
4060.770620748138
 31
0.0
  0
LINE
  5
19D50
330
747D
100
AcDbEntity
  8
細線
100
AcDbLine
 10
7378.673057123677
 20
4037.770620748139
 30
0.0
 11
7304.673057123678
 21
4037.770620748139
 31
0.0
  0
LINE
  5
19D51
330
747D
100
AcDbEntity
  8
細線
100
AcDbLine
 10
7230.673057123678
 20
4060.770620748138
 30
0.0
 11
7304.673057123678
 21
4060.770620748138
 31
0.0
  0
LINE
  5
19D52
330
747D
100
AcDbEntity
  8
細線
100
AcDbLine
 10
7230.673057123678
 20
4037.770620748139
 30
0.0
 11
7230.673057123678
 21
4060.770620748138
 31
0.0
  0
LINE
  5
19D53
330
747D
100
AcDbEntity
  8
細線
100
AcDbLine
 10
7378.673057123677
 20
4060.770620748138
 30
0.0
 11
7378.673057123677
 21
4037.770620748139
 31
0.0
  0
LINE
  5
19D54
330
747D
100
AcDbEntity
  8
部品1
 48
0.01
100
AcDbLine
 10
7214.673057123677
 20
4033.770620748138
 30
0.0
 11
7214.673057123677
 21
4065.270620748139
 31
0.0
  0
LINE
  5
19D55
330
747D
100
AcDbEntity
  8
部品1
 48
0.01
100
AcDbLine
 10
7394.673057123679
 20
4065.270620748139
 30
0.0
 11
7394.673057123679
 21
4033.770620748138
 31
0.0
  0
LINE
  5
19D56
330
747D
100
AcDbEntity
  8
部品1
 48
0.01
100
AcDbLine
 10
7216.673057123678
 20
4067.270620748138
 30
0.0
 11
7392.673057123677
 21
4067.270620748138
 31
0.0
  0
LINE
  5
19D57
330
747D
100
AcDbEntity
  8
細線
100
AcDbLine
 10
7378.673057123677
 20
4054.770620748139
 30
0.0
 11
7304.673057123678
 21
4054.770620748139
 31
0.0
  0
LINE
  5
19D58
330
747D
100
AcDbEntity
  8
細線
100
AcDbLine
 10
7378.673057123677
 20
4048.770620748139
 30
0.0
 11
7304.673057123678
 21
4048.770620748139
 31
0.0
  0
LINE
  5
19D59
330
747D
100
AcDbEntity
  8
細線
100
AcDbLine
 10
7378.673057123677
 20
4042.770620748139
 30
0.0
 11
7304.673057123678
 21
4042.770620748139
 31
0.0
  0
LINE
  5
19D5A
330
747D
100
AcDbEntity
  8
細線
100
AcDbLine
 10
7378.673057123677
 20
4054.770620748139
 30
0.0
 11
7309.673057123678
 21
4054.770620748139
 31
0.0
  0
LINE
  5
19D5B
330
747D
100
AcDbEntity
  8
細線
100
AcDbLine
 10
7230.673057123678
 20
4054.770620748139
 30
0.0
 11
7304.673057123678
 21
4054.770620748139
 31
0.0
  0
LINE
  5
19D5C
330
747D
100
AcDbEntity
  8
細線
100
AcDbLine
 10
7230.673057123678
 20
4042.770620748139
 30
0.0
 11
7304.673057123678
 21
4042.770620748139
 31
0.0
  0
LINE
  5
19D5D
330
747D
100
AcDbEntity
  8
細線
100
AcDbLine
 10
7230.673057123678
 20
4048.770620748139
 30
0.0
 11
7304.673057123678
 21
4048.770620748139
 31
0.0
  0
LINE
  5
19D5E
330
747D
100
AcDbEntity
  8
細線
100
AcDbLine
 10
7304.673057123678
 20
4060.770620748138
 30
0.0
 11
7304.673057123678
 21
4037.770620748139
 31
0.0
  0
LINE
  5
19D5F
330
747D
100
AcDbEntity
  8
細線
100
AcDbLine
 10
6074.673057123677
 20
4060.770620748138
 30
0.0
 11
6074.673057123674
 21
4037.770620748139
 31
0.0
  0
LINE
  5
19D60
330
747D
100
AcDbEntity
  8
細線
100
AcDbLine
 10
6148.673057123674
 20
4048.770620748139
 30
0.0
 11
6074.673057123677
 21
4048.770620748139
 31
0.0
  0
LINE
  5
19D61
330
747D
100
AcDbEntity
  8
細線
100
AcDbLine
 10
6148.673057123674
 20
4042.770620748139
 30
0.0
 11
6074.673057123677
 21
4042.770620748139
 31
0.0
  0
LINE
  5
19D62
330
747D
100
AcDbEntity
  8
細線
100
AcDbLine
 10
6148.673057123674
 20
4054.770620748139
 30
0.0
 11
6074.673057123677
 21
4054.770620748139
 31
0.0
  0
LINE
  5
19D63
330
747D
100
AcDbEntity
  8
細線
100
AcDbLine
 10
6000.673057123678
 20
4054.770620748139
 30
0.0
 11
6069.673057123678
 21
4054.770620748139
 31
0.0
  0
LINE
  5
19D64
330
747D
100
AcDbEntity
  8
細線
100
AcDbLine
 10
6000.673057123674
 20
4042.770620748139
 30
0.0
 11
6074.673057123677
 21
4042.770620748139
 31
0.0
  0
LINE
  5
19D65
330
747D
100
AcDbEntity
  8
細線
100
AcDbLine
 10
6000.673057123678
 20
4048.770620748139
 30
0.0
 11
6074.673057123677
 21
4048.770620748139
 31
0.0
  0
LINE
  5
19D66
330
747D
100
AcDbEntity
  8
細線
100
AcDbLine
 10
6000.673057123678
 20
4054.770620748139
 30
0.0
 11
6074.673057123677
 21
4054.770620748139
 31
0.0
  0
LINE
  5
19D67
330
747D
100
AcDbEntity
  8
部品1
 48
0.01
100
AcDbLine
 10
6162.673057123678
 20
4067.270620748138
 30
0.0
 11
5986.673057123677
 21
4067.270620748138
 31
0.0
  0
LINE
  5
19D68
330
747D
100
AcDbEntity
  8
部品1
 48
0.01
100
AcDbLine
 10
5984.673057123678
 20
4065.270620748139
 30
0.0
 11
5984.673057123678
 21
4033.770620748138
 31
0.0
  0
LINE
  5
19D69
330
747D
100
AcDbEntity
  8
部品1
 48
0.01
100
AcDbLine
 10
6164.673057123674
 20
4033.770620748138
 30
0.0
 11
6164.673057123678
 21
4065.270620748139
 31
0.0
  0
LINE
  5
19D6A
330
747D
100
AcDbEntity
  8
細線
100
AcDbLine
 10
6000.673057123678
 20
4060.770620748138
 30
0.0
 11
6000.673057123678
 21
4037.770620748139
 31
0.0
  0
LINE
  5
19D6B
330
747D
100
AcDbEntity
  8
細線
100
AcDbLine
 10
6148.673057123677
 20
4037.770620748139
 30
0.0
 11
6148.673057123677
 21
4060.770620748138
 31
0.0
  0
LINE
  5
19D6C
330
747D
100
AcDbEntity
  8
細線
100
AcDbLine
 10
6148.673057123677
 20
4060.770620748138
 30
0.0
 11
6074.673057123677
 21
4060.770620748138
 31
0.0
  0
LINE
  5
19D6D
330
747D
100
AcDbEntity
  8
細線
100
AcDbLine
 10
6000.673057123678
 20
4037.770620748139
 30
0.0
 11
6074.673057123677
 21
4037.770620748139
 31
0.0
  0
LINE
  5
19D6E
330
747D
100
AcDbEntity
  8
細線
100
AcDbLine
 10
6074.673057123677
 20
4060.770620748138
 30
0.0
 11
6000.673057123678
 21
4060.770620748138
 31
0.0
  0
LINE
  5
19D6F
330
747D
100
AcDbEntity
  8
細線
100
AcDbLine
 10
6074.673057123674
 20
4037.770620748139
 30
0.0
 11
6148.673057123677
 21
4037.770620748139
 31
0.0
  0
ARC
  5
19D70
330
747D
100
AcDbEntity
  8
部品1
 48
0.01
100
AcDbCircle
 10
5986.673057123677
 20
4065.270620748139
 30
0.0
 40
2.0
100
AcDbArc
 50
90.0
 51
180.0
  0
ARC
  5
19D71
330
747D
100
AcDbEntity
  8
部品1
 48
0.01
100
AcDbCircle
 10
6162.673057123678
 20
4065.270620748139
 30
0.0
 40
2.0
100
AcDbArc
 50
0.0
 51
90.0
  0
CIRCLE
  5
19D72
330
747D
100
AcDbEntity
  8
細線
 48
50.0
100
AcDbCircle
 10
6689.673057123671
 20
3048.770620748139
 30
0.0
 40
18.0
  0
ARC
  5
19D73
330
747D
100
AcDbEntity
  8
細線
 48
50.0
100
AcDbCircle
 10
6989.673057123671
 20
2723.770620748139
 30
0.0
 40
15.0
100
AcDbArc
 50
270.0
 51
90.0
  0
ARC
  5
19D74
330
747D
100
AcDbEntity
  8
細線
 48
50.0
100
AcDbCircle
 10
6889.673057123672
 20
2723.770620748139
 30
0.0
 40
15.0
100
AcDbArc
 50
90.0
 51
270.0
  0
LINE
  5
19D75
330
747D
100
AcDbEntity
  8
細線
 48
50.0
100
AcDbLine
 10
6889.673057123672
 20
2738.770620748139
 30
0.0
 11
6989.673057123671
 21
2738.770620748139
 31
0.0
  0
LINE
  5
19D76
330
747D
100
AcDbEntity
  8
細線
 48
50.0
100
AcDbLine
 10
6989.673057123671
 20
2708.770620748139
 30
0.0
 11
6889.673057123672
 21
2708.770620748139
 31
0.0
  0
LINE
  5
19D77
330
747D
100
AcDbEntity
  8
細線
 48
50.0
100
AcDbLine
 10
6489.673057123671
 20
2708.770620748139
 30
0.0
 11
6389.673057123673
 21
2708.770620748139
 31
0.0
  0
LINE
  5
19D78
330
747D
100
AcDbEntity
  8
細線
 48
50.0
100
AcDbLine
 10
6389.673057123673
 20
2738.770620748139
 30
0.0
 11
6489.673057123671
 21
2738.770620748139
 31
0.0
  0
ARC
  5
19D79
330
747D
100
AcDbEntity
  8
細線
 48
50.0
100
AcDbCircle
 10
6489.673057123671
 20
2723.770620748139
 30
0.0
 40
15.0
100
AcDbArc
 50
270.0
 51
90.0
  0
ARC
  5
19D7A
330
747D
100
AcDbEntity
  8
細線
 48
50.0
100
AcDbCircle
 10
6389.673057123673
 20
2723.770620748139
 30
0.0
 40
15.0
100
AcDbArc
 50
90.0
 51
270.0
  0
ENDSEC
  0
SECTION
  2
OBJECTS
  0
DICTIONARY
  5
7471
330
0
100
AcDbDictionary
281
     1
  3
ACAD_COLOR
350
17AE2
  3
ACAD_GROUP
350
7472
  3
ACAD_LAYOUT
350
17AE3
  3
ACAD_MATERIAL
350
17AE1
  3
ACAD_MLINESTYLE
350
7473
  3
ACAD_PLOTSETTINGS
350
17AE4
  3
ACAD_PLOTSTYLENAME
350
17ADF
  3
ACDBHEADERROUNDTRIPXREC
350
19DAB
  3
AcDbVariableDictionary
350
19DA7
  3
CONTENTDICTIONARY
350
E71C
  3
DRAWINGVARIABLESDICT
350
F3B9
  0
DICTIONARY
  5
18794
330
7467
100
AcDbDictionary
280
     1
281
     1
  3
ACAD_LAYERSTATES
360
18795
  0
DICTIONARY
  5
17AE2
102
{ACAD_REACTORS
330
7471
102
}
330
7471
100
AcDbDictionary
281
     1
  0
DICTIONARY
  5
7472
102
{ACAD_REACTORS
330
7471
102
}
330
7471
100
AcDbDictionary
281
     1
  3
*A1
350
17FA7
  3
*A2
350
180C7
  3
*A3
350
180D2
  0
DICTIONARY
  5
17AE3
102
{ACAD_REACTORS
330
7471
102
}
330
7471
100
AcDbDictionary
281
     1
  3
Model
350
17AE5
  3
レイアウト1
350
17AE6
  0
DICTIONARY
  5
17AE1
102
{ACAD_REACTORS
330
7471
102
}
330
7471
100
AcDbDictionary
281
     1
  0
DICTIONARY
  5
7473
102
{ACAD_REACTORS
330
7471
102
}
330
7471
100
AcDbDictionary
281
     1
  3
STANDARD
350
7480
  0
DICTIONARY
  5
17AE4
102
{ACAD_REACTORS
330
7471
102
}
330
7471
100
AcDbDictionary
281
     1
  0
ACDBDICTIONARYWDFLT
  5
17ADF
102
{ACAD_REACTORS
330
7471
102
}
330
7471
100
AcDbDictionary
281
     1
  3
Normal
350
17AE0
100
AcDbDictionaryWithDefault
340
17AE0
  0
DICTIONARY
  5
19DAB
102
{ACAD_REACTORS
330
7471
102
}
330
7471
100
AcDbDictionary
281
     1
  3
COLORDICT
350
19DAD
  3
MATERIALDICT
350
19DAC
  0
DICTIONARY
  5
19DA7
102
{ACAD_REACTORS
330
7471
102
}
330
7471
100
AcDbDictionary
281
     1
  3
DIMASSOC
350
19DA8
  3
PROJECTNAME
350
19DA9
  0
DICTIONARY
  5
E71C
102
{ACAD_REACTORS
330
7471
102
}
330
7471
100
AcDbDictionary
281
     1
  0
DICTIONARY
  5
F3B9
102
{ACAD_REACTORS
330
7471
102
}
330
7471
100
AcDbDictionary
281
     1
1001
DRAWINGVARIABLESXDATA
1000
POLARMODE
1000
1
  0
DICTIONARY
  5
18795
102
{ACAD_REACTORS
330
18794
102
}
330
18794
100
AcDbDictionary
281
     1
  0
GROUP
  5
17FA7
102
{ACAD_REACTORS
330
7472
102
}
330
7472
100
AcDbGroup
300

 70
     1
 71
     1
  0
GROUP
  5
180C7
102
{ACAD_REACTORS
330
7472
102
}
330
7472
100
AcDbGroup
300

 70
     1
 71
     1
  0
GROUP
  5
180D2
102
{ACAD_REACTORS
330
7472
102
}
330
7472
100
AcDbGroup
300

 70
     1
 71
     1
  0
LAYOUT
  5
17AE5
102
{ACAD_XDICTIONARY
360
19DAE
102
}
102
{ACAD_REACTORS
330
17AE3
102
}
330
17AE3
100
AcDbPlotSettings
  1

  2
Canon iR C3880/C4580 LIPSLX
  4
A3
  6

 40
5.873749732971191
 41
5.873747825622558
 42
5.873748779296875
 43
5.873748779296875
 44
296.9259948730469
 45
419.9466552734374
 46
0.0
 47
0.0
 48
0.0
 49
0.0
140
0.0
141
0.0
142
1.0
143
40.0
 70
 11952
 72
     1
 73
     1
 74
     2
  7
inaba.ctb
 75
    24
147
0.025
148
0.0
149
0.0
100
AcDbLayout
  1
Model
 70
     1
 71
     0
 10
0.0
 20
0.0
 11
12.0
 21
9.0
 12
0.0
 22
0.0
 32
0.0
 14
0.0
 24
0.0
 34
0.0
 15
0.0
 25
0.0
 35
0.0
146
0.0
 13
0.0
 23
0.0
 33
0.0
 16
1.0
 26
0.0
 36
0.0
 17
0.0
 27
1.0
 37
0.0
 76
     0
330
747D
  0
LAYOUT
  5
17AE6
102
{ACAD_XDICTIONARY
360
19DB0
102
}
102
{ACAD_REACTORS
330
17AE3
102
}
330
17AE3
100
AcDbPlotSettings
  1

  2
EPSON LP-8300
  4

  6

 40
0.0
 41
0.0
 42
0.0
 43
0.0
 44
0.0
 45
0.0
 46
0.0
 47
0.0
 48
0.0
 49
0.0
140
0.0
141
0.0
142
1.0
143
1.0
 70
   688
 72
     0
 73
     0
 74
     5
  7
inaba.ctb
 75
    16
147
1.0
148
0.0
149
0.0
100
AcDbLayout
  1
レイアウト1
 70
     0
 71
     1
 10
0.0
 20
0.0
 11
420.0
 21
297.0
 12
0.0
 22
0.0
 32
0.0
 14
1.000000000000000E+20
 24
1.000000000000000E+20
 34
1.000000000000000E+20
 15
-1.000000000000000E+20
 25
-1.000000000000000E+20
 35
-1.000000000000000E+20
146
0.0
 13
0.0
 23
0.0
 33
0.0
 16
1.0
 26
0.0
 36
0.0
 17
0.0
 27
1.0
 37
0.0
 76
     0
330
747A
  0
MLINESTYLE
  5
7480
102
{ACAD_REACTORS
330
7473
102
}
330
7473
100
AcDbMlineStyle
  2
STANDARD
 70
     0
  3

 62
     0
 51
90.0
 52
90.0
 71
     2
 49
0.5
 62
   256
  6
BYLAYER
 49
-0.5
 62
   256
  6
BYLAYER
  0
ACDBPLACEHOLDER
  5
17AE0
102
{ACAD_REACTORS
330
17ADF
102
}
330
17ADF
  0
XRECORD
  5
19DAD
102
{ACAD_REACTORS
330
19DAB
102
}
330
19DAB
100
AcDbXrecord
280
     1
340
17AE2
  0
XRECORD
  5
19DAC
102
{ACAD_REACTORS
330
19DAB
102
}
330
19DAB
100
AcDbXrecord
280
     1
340
17AE1
  0
DICTIONARYVAR
  5
19DA8
102
{ACAD_REACTORS
330
19DA7
102
}
330
19DA7
100
DictionaryVariables
280
     0
  1
1
  0
DICTIONARYVAR
  5
19DA9
102
{ACAD_REACTORS
330
19DA7
102
}
330
19DA7
100
DictionaryVariables
280
     0
  1

  0
DICTIONARY
  5
19DAE
330
17AE5
100
AcDbDictionary
280
     1
281
     1
  3
ACAD_XREC_ROUNDTRIP
360
19DAF
  0
DICTIONARY
  5
19DB0
330
17AE6
100
AcDbDictionary
280
     1
281
     1
  3
ACAD_XREC_ROUNDTRIP
360
19DB1
  0
XRECORD
  5
19DAF
102
{ACAD_REACTORS
330
19DAE
102
}
330
19DAE
100
AcDbXrecord
280
     1
102
SHADEPLOT
 70
     0
102
SHADEPLOTRESLEVEL
 70
     2
102
SHADEPLOTCUSTOMDPI
 70
   300
  0
XRECORD
  5
19DB1
102
{ACAD_REACTORS
330
19DB0
102
}
330
19DB0
100
AcDbXrecord
280
     1
102
SHADEPLOT
 70
     0
102
SHADEPLOTRESLEVEL
 70
     2
102
SHADEPLOTCUSTOMDPI
 70
   300
  0
ENDSEC
  0
EOF
