  0
SECTION
  2
HEADER
  9
$ACADVER
  1
AC1015
  9
$ACADMAINTVER
 70
    20
  9
$DWGCODEPAGE
  3
ANSI_932
  9
$INSBASE
 10
0.0
 20
0.0
 30
0.0
  9
$EXTMIN
 10
139.9999999999995
 20
-0.0000000000000909
 30
0.0
  9
$EXTMAX
 10
16307.2
 20
11409.6
 30
0.0
  9
$LIMMIN
 10
0.0
 20
0.0
  9
$LIMMAX
 10
16800.0
 20
11880.0
  9
$ORTHOMODE
 70
     0
  9
$REGENMODE
 70
     1
  9
$FILLMODE
 70
     1
  9
$QTEXTMODE
 70
     0
  9
$MIRRTEXT
 70
     1
  9
$LTSCALE
 40
20.0
  9
$ATTMODE
 70
     1
  9
$TEXTSIZE
 40
4.0
  9
$TRACEWID
 40
1.0
  9
$TEXTSTYLE
  7
MSPゴシック
  9
$CLAYER
  8
寸法
  9
$CELTYPE
  6
BYLAYER
  9
$CECOLOR
 62
   256
  9
$CELTSCALE
 40
50.0
  9
$DISPSILH
 70
     0
  9
$DIMSCALE
 40
40.0
  9
$DIMASZ
 40
2.5
  9
$DIMEXO
 40
0.5
  9
$DIMDLI
 40
7.0
  9
$DIMRND
 40
0.0
  9
$DIMDLE
 40
0.0
  9
$DIMEXE
 40
1.5
  9
$DIMTP
 40
0.0
  9
$DIMTM
 40
0.0
  9
$DIMTXT
 40
3.0
  9
$DIMCEN
 40
0.0
  9
$DIMTSZ
 40
0.0
  9
$DIMTOL
 70
     0
  9
$DIMLIM
 70
     0
  9
$DIMTIH
 70
     0
  9
$DIMTOH
 70
     0
  9
$DIMSE1
 70
     0
  9
$DIMSE2
 70
     0
  9
$DIMTAD
 70
     3
  9
$DIMZIN
 70
     8
  9
$DIMBLK
  1

  9
$DIMASO
 70
     1
  9
$DIMSHO
 70
     1
  9
$DIMPOST
  1

  9
$DIMAPOST
  1

  9
$DIMALT
 70
     0
  9
$DIMALTD
 70
     2
  9
$DIMALTF
 40
0.0394
  9
$DIMLFAC
 40
1.0
  9
$DIMTOFL
 70
     1
  9
$DIMTVP
 40
0.0
  9
$DIMTIX
 70
     1
  9
$DIMSOXD
 70
     0
  9
$DIMSAH
 70
     1
  9
$DIMBLK1
  1
DOTSMALL
  9
$DIMBLK2
  1
DOTSMALL
  9
$DIMSTYLE
  2
INABA_S40G
  9
$DIMCLRD
 70
     0
  9
$DIMCLRE
 70
     0
  9
$DIMCLRT
 70
     7
  9
$DIMTFAC
 40
1.0
  9
$DIMGAP
 40
1.0
  9
$DIMJUST
 70
     0
  9
$DIMSD1
 70
     0
  9
$DIMSD2
 70
     0
  9
$DIMTOLJ
 70
     1
  9
$DIMTZIN
 70
     0
  9
$DIMALTZ
 70
     0
  9
$DIMALTTZ
 70
     0
  9
$DIMUPT
 70
     0
  9
$DIMDEC
 70
     1
  9
$DIMTDEC
 70
     4
  9
$DIMALTU
 70
     2
  9
$DIMALTTD
 70
     2
  9
$DIMTXSTY
  7
STYLE1
  9
$DIMAUNIT
 70
     0
  9
$DIMADEC
 70
     0
  9
$DIMALTRND
 40
0.0
  9
$DIMAZIN
 70
     0
  9
$DIMDSEP
 70
    46
  9
$DIMATFIT
 70
     3
  9
$DIMFRAC
 70
     0
  9
$DIMLDRBLK
  1

  9
$DIMLUNIT
 70
     2
  9
$DIMLWD
 70
    -2
  9
$DIMLWE
 70
    -2
  9
$DIMTMOVE
 70
     2
  9
$LUNITS
 70
     2
  9
$LUPREC
 70
     1
  9
$SKETCHINC
 40
1.0
  9
$FILLETRAD
 40
3.0
  9
$AUNITS
 70
     0
  9
$AUPREC
 70
     0
  9
$MENU
  1
acad
  9
$ELEVATION
 40
0.0
  9
$PELEVATION
 40
0.0
  9
$THICKNESS
 40
0.0
  9
$LIMCHECK
 70
     0
  9
$CHAMFERA
 40
0.0
  9
$CHAMFERB
 40
0.0
  9
$CHAMFERC
 40
0.0
  9
$CHAMFERD
 40
0.0
  9
$SKPOLY
 70
     0
  9
$TDCREATE
 40
2451368.612993866
  9
$TDUCREATE
 40
2451368.237993866
  9
$TDUPDATE
 40
2455569.647414815
  9
$TDUUPDATE
 40
2455569.272414815
  9
$TDINDWG
 40
0.8374391319
  9
$TDUSRTIMER
 40
0.8374391319
  9
$USRTIMER
 70
     1
  9
$ANGBASE
 50
0.0
  9
$ANGDIR
 70
     0
  9
$PDMODE
 70
     3
  9
$PDSIZE
 40
2.0
  9
$PLINEWID
 40
0.0
  9
$SPLFRAME
 70
     0
  9
$SPLINETYPE
 70
     6
  9
$SPLINESEGS
 70
     8
  9
$HANDSEED
  5
19D2A
  9
$SURFTAB1
 70
     6
  9
$SURFTAB2
 70
     6
  9
$SURFTYPE
 70
     6
  9
$SURFU
 70
     6
  9
$SURFV
 70
     6
  9
$UCSBASE
  2

  9
$UCSNAME
  2

  9
$UCSORG
 10
0.0
 20
0.0
 30
0.0
  9
$UCSXDIR
 10
1.0
 20
0.0
 30
0.0
  9
$UCSYDIR
 10
0.0
 20
1.0
 30
0.0
  9
$UCSORTHOREF
  2

  9
$UCSORTHOVIEW
 70
     0
  9
$UCSORGTOP
 10
0.0
 20
0.0
 30
0.0
  9
$UCSORGBOTTOM
 10
0.0
 20
0.0
 30
0.0
  9
$UCSORGLEFT
 10
0.0
 20
0.0
 30
0.0
  9
$UCSORGRIGHT
 10
0.0
 20
0.0
 30
0.0
  9
$UCSORGFRONT
 10
0.0
 20
0.0
 30
0.0
  9
$UCSORGBACK
 10
0.0
 20
0.0
 30
0.0
  9
$PUCSBASE
  2

  9
$PUCSNAME
  2

  9
$PUCSORG
 10
0.0
 20
0.0
 30
0.0
  9
$PUCSXDIR
 10
1.0
 20
0.0
 30
0.0
  9
$PUCSYDIR
 10
0.0
 20
1.0
 30
0.0
  9
$PUCSORTHOREF
  2

  9
$PUCSORTHOVIEW
 70
     0
  9
$PUCSORGTOP
 10
0.0
 20
0.0
 30
0.0
  9
$PUCSORGBOTTOM
 10
0.0
 20
0.0
 30
0.0
  9
$PUCSORGLEFT
 10
0.0
 20
0.0
 30
0.0
  9
$PUCSORGRIGHT
 10
0.0
 20
0.0
 30
0.0
  9
$PUCSORGFRONT
 10
0.0
 20
0.0
 30
0.0
  9
$PUCSORGBACK
 10
0.0
 20
0.0
 30
0.0
  9
$USERI1
 70
     0
  9
$USERI2
 70
     0
  9
$USERI3
 70
     0
  9
$USERI4
 70
     0
  9
$USERI5
 70
     0
  9
$USERR1
 40
0.0
  9
$USERR2
 40
0.0
  9
$USERR3
 40
0.0
  9
$USERR4
 40
0.0
  9
$USERR5
 40
0.0
  9
$WORLDVIEW
 70
     1
  9
$SHADEDGE
 70
     3
  9
$SHADEDIF
 70
    70
  9
$TILEMODE
 70
     1
  9
$MAXACTVP
 70
    16
  9
$PINSBASE
 10
0.0
 20
0.0
 30
0.0
  9
$PLIMCHECK
 70
     0
  9
$PEXTMIN
 10
1.000000000000000E+20
 20
1.000000000000000E+20
 30
1.000000000000000E+20
  9
$PEXTMAX
 10
-1.000000000000000E+20
 20
-1.000000000000000E+20
 30
-1.000000000000000E+20
  9
$PLIMMIN
 10
0.0
 20
0.0
  9
$PLIMMAX
 10
420.0
 20
297.0
  9
$UNITMODE
 70
     0
  9
$VISRETAIN
 70
     0
  9
$PLINEGEN
 70
     0
  9
$PSLTSCALE
 70
     0
  9
$TREEDEPTH
 70
  3020
  9
$CMLSTYLE
  2
STANDARD
  9
$CMLJUST
 70
     0
  9
$CMLSCALE
 40
1.0
  9
$PROXYGRAPHICS
 70
     1
  9
$MEASUREMENT
 70
     1
  9
$CELWEIGHT
370
    -1
  9
$ENDCAPS
280
     0
  9
$JOINSTYLE
280
     0
  9
$LWDISPLAY
290
     0
  9
$INSUNITS
 70
     0
  9
$HYPERLINKBASE
  1

  9
$STYLESHEET
  1
inaba.ctb
  9
$XEDIT
290
     1
  9
$CEPSNTYPE
380
     0
  9
$PSTYLEMODE
290
     1
  9
$FINGERPRINTGUID
  2
{0E4A3AB3-ADAA-44DC-861C-9525B65BB1EC}
  9
$VERSIONGUID
  2
{4CEA5F55-5A7E-4954-B752-8A77B6D21C89}
  9
$EXTNAMES
290
     1
  9
$PSVPSCALE
 40
0.0
  9
$OLESTARTUP
290
     0
  0
ENDSEC
  0
SECTION
  2
CLASSES
  0
CLASS
  1
ACDBDICTIONARYWDFLT
  2
AcDbDictionaryWithDefault
  3
ObjectDBX Classes
 90
        0
280
     0
281
     0
  0
CLASS
  1
DICTIONARYVAR
  2
AcDbDictionaryVar
  3
ObjectDBX Classes
 90
        0
280
     0
281
     0
  0
CLASS
  1
ACDBPLACEHOLDER
  2
AcDbPlaceHolder
  3
ObjectDBX Classes
 90
        0
280
     0
281
     0
  0
CLASS
  1
LAYOUT
  2
AcDbLayout
  3
ObjectDBX Classes
 90
        0
280
     0
281
     0
  0
ENDSEC
  0
SECTION
  2
TABLES
  0
TABLE
  2
VPORT
  5
746D
330
0
100
AcDbSymbolTable
 70
     2
  0
VPORT
  5
19D22
330
746D
100
AcDbSymbolTableRecord
100
AcDbViewportTableRecord
  2
*Active
 70
     0
 10
0.0
 20
0.0
 11
1.0
 21
1.0
 12
11720.03460912035
 22
5704.872900782047
 13
0.0
 23
0.0
 14
10.0
 24
10.0
 15
10.0
 25
10.0
 16
0.0
 26
0.0
 36
1.0
 17
0.0
 27
0.0
 37
0.0
 40
11513.2111641413
 41
2.234800838574423
 42
50.0
 43
0.0
 44
0.0
 50
0.0
 51
0.0
 71
     0
 72
     0
 73
     1
 74
     0
 75
     0
 76
     0
 77
     0
 78
     0
281
     0
 65
     1
110
0.0
120
0.0
130
0.0
111
1.0
121
0.0
131
0.0
112
0.0
122
1.0
132
0.0
 79
     0
146
0.0
  0
ENDTAB
  0
TABLE
  2
LTYPE
  5
746A
330
0
100
AcDbSymbolTable
 70
     3
  0
LTYPE
  5
7477
330
746A
100
AcDbSymbolTableRecord
100
AcDbLinetypeTableRecord
  2
BYBLOCK
 70
     0
  3

 72
    65
 73
     0
 40
0.0
  0
LTYPE
  5
7478
330
746A
100
AcDbSymbolTableRecord
100
AcDbLinetypeTableRecord
  2
BYLAYER
 70
     0
  3

 72
    65
 73
     0
 40
0.0
  0
LTYPE
  5
7479
330
746A
100
AcDbSymbolTableRecord
100
AcDbLinetypeTableRecord
  2
CONTINUOUS
 70
     0
  3
Solid line
 72
    65
 73
     0
 40
0.0
  0
LTYPE
  5
781A
330
746A
100
AcDbSymbolTableRecord
100
AcDbLinetypeTableRecord
  2
HIDDEN
 70
     0
  3
__ __ __ __ __ __ __ __ __ __ __ __ __ __ __ __
 72
    65
 73
     2
 40
0.375
 49
0.25
 74
     0
 49
-0.125
 74
     0
  0
LTYPE
  5
781B
330
746A
100
AcDbSymbolTableRecord
100
AcDbLinetypeTableRecord
  2
PHANTOM
 70
     0
  3
______  __  __  ______  __  __  ______  __  __ 
 72
    65
 73
     6
 40
2.5
 49
1.25
 74
     0
 49
-0.25
 74
     0
 49
0.25
 74
     0
 49
-0.25
 74
     0
 49
0.25
 74
     0
 49
-0.25
 74
     0
  0
ENDTAB
  0
TABLE
  2
LAYER
  5
7467
102
{ACAD_XDICTIONARY
360
18547
102
}
330
0
100
AcDbSymbolTable
 70
    10
  0
LAYER
  5
7474
330
7467
100
AcDbSymbolTableRecord
100
AcDbLayerTableRecord
  2
0
 70
     0
 62
     7
  6
CONTINUOUS
370
    -3
390
17AE0
  0
LAYER
  5
DEB3
330
7467
100
AcDbSymbolTableRecord
100
AcDbLayerTableRecord
  2
寸法
 70
     0
 62
     4
  6
CONTINUOUS
370
    -3
390
17AE0
  0
LAYER
  5
DEB4
330
7467
100
AcDbSymbolTableRecord
100
AcDbLayerTableRecord
  2
部品1
 70
     0
 62
     7
  6
CONTINUOUS
370
    -3
390
17AE0
  0
LAYER
  5
DEB5
330
7467
100
AcDbSymbolTableRecord
100
AcDbLayerTableRecord
  2
補助
 70
     0
 62
    -1
  6
CONTINUOUS
370
    -3
390
17AE0
  0
LAYER
  5
DEB6
330
7467
100
AcDbSymbolTableRecord
100
AcDbLayerTableRecord
  2
文字
 70
     0
 62
     7
  6
CONTINUOUS
370
    -3
390
17AE0
  0
LAYER
  5
F255
330
7467
100
AcDbSymbolTableRecord
100
AcDbLayerTableRecord
  2
DEFPOINTS
 70
     0
 62
     7
  6
CONTINUOUS
290
     0
370
    -3
390
17AE0
  0
LAYER
  5
10B54
330
7467
100
AcDbSymbolTableRecord
100
AcDbLayerTableRecord
  2
仕様書枠
 70
     0
 62
   230
  6
CONTINUOUS
370
    -3
390
17AE0
  0
LAYER
  5
11729
330
7467
100
AcDbSymbolTableRecord
100
AcDbLayerTableRecord
  2
Ｇ．Ｌ
 70
     0
 62
    30
  6
CONTINUOUS
370
    -3
390
17AE0
  0
LAYER
  5
1173F
330
7467
100
AcDbSymbolTableRecord
100
AcDbLayerTableRecord
  2
細線
 70
     0
 62
     5
  6
CONTINUOUS
370
    -3
390
17AE0
  0
LAYER
  5
142E2
330
7467
100
AcDbSymbolTableRecord
100
AcDbLayerTableRecord
  2
破線
 70
     0
 62
     2
  6
HIDDEN
370
    -3
390
17AE0
  0
ENDTAB
  0
TABLE
  2
STYLE
  5
7468
330
0
100
AcDbSymbolTable
 70
     7
  0
STYLE
  5
7475
330
7468
100
AcDbSymbolTableRecord
100
AcDbTextStyleTableRecord
  2
STANDARD
 70
     0
 40
0.0
 41
1.0
 50
0.0
 71
     0
 42
4.0
  3
txt
  4
C:\AutoCAD LT\bigfont.shx
  0
STYLE
  5
763C
330
7468
100
AcDbSymbolTableRecord
100
AcDbTextStyleTableRecord
  2
MSMINCHO
 70
     0
 40
0.0
 41
1.0
 50
0.0
 71
     0
 42
1.199999999999999
  3
MS PMincho.ttf
  4

1001
ACAD
1000
MS PMincho
1071
    32786
  0
STYLE
  5
F706
330
7468
100
AcDbSymbolTableRecord
100
AcDbTextStyleTableRecord
  2
STYLE1
 70
     0
 40
0.0
 41
1.0
 50
0.0
 71
     0
 42
4.0
  3
isocp.shx
  4
bigfont.shx
  0
STYLE
  5
103BF
330
7468
100
AcDbSymbolTableRecord
100
AcDbTextStyleTableRecord
  2
STYLE2
 70
     0
 40
0.0
 41
1.0
 50
0.0
 71
     0
 42
100.0
  3
MS PGothic.ttf
  4

1001
ACAD
1000
MS PGothic
1071
    32818
  0
STYLE
  5
10BAA
330
7468
100
AcDbSymbolTableRecord
100
AcDbTextStyleTableRecord
  2
STYLE3
 70
     0
 40
0.0
 41
1.0
 50
0.0
 71
     0
 42
100.0
  3
DFPGothic-EB.ttf
  4

1001
ACAD
1000
DFPGothic-EB
1071
    32818
  0
STYLE
  5
11A15
330
7468
100
AcDbSymbolTableRecord
100
AcDbTextStyleTableRecord
  2
MSGOTHIC
 70
     0
 40
0.0
 41
1.0
 50
0.0
 71
     0
 42
3.5
  3
MS PGothic.ttf
  4

1001
ACAD
1000
MS PGothic
1071
    32818
  0
STYLE
  5
13E96
330
7468
100
AcDbSymbolTableRecord
100
AcDbTextStyleTableRecord
  2
MSPゴシック
 70
     0
 40
0.0
 41
1.0
 50
0.0
 71
     0
 42
4.0
  3
MS PGothic.ttf
  4

1001
ACAD
1000
MS PGothic
1071
    32818
  0
ENDTAB
  0
TABLE
  2
VIEW
  5
746B
330
0
100
AcDbSymbolTable
 70
     0
  0
ENDTAB
  0
TABLE
  2
UCS
  5
746C
330
0
100
AcDbSymbolTable
 70
     0
  0
ENDTAB
  0
TABLE
  2
APPID
  5
746E
330
0
100
AcDbSymbolTable
 70
     6
  0
APPID
  5
7476
330
746E
100
AcDbSymbolTableRecord
100
AcDbRegAppTableRecord
  2
ACAD
 70
     0
  0
APPID
  5
DEA9
330
746E
100
AcDbSymbolTableRecord
100
AcDbRegAppTableRecord
  2
CONTENTBLOCKICON
 70
     0
  0
APPID
  5
DEAA
330
746E
100
AcDbSymbolTableRecord
100
AcDbRegAppTableRecord
  2
CONTENTBLOCKDESCRIPTION
 70
     0
  0
APPID
  5
E71D
330
746E
100
AcDbSymbolTableRecord
100
AcDbRegAppTableRecord
  2
CONTENTTABDATA
 70
     0
  0
APPID
  5
E71E
330
746E
100
AcDbSymbolTableRecord
100
AcDbRegAppTableRecord
  2
CONTENTCURRENTTAB
 70
     0
  0
APPID
  5
F3BA
330
746E
100
AcDbSymbolTableRecord
100
AcDbRegAppTableRecord
  2
DRAWINGVARIABLESXDATA
 70
     0
  0
ENDTAB
  0
TABLE
  2
DIMSTYLE
  5
746F
330
0
100
AcDbSymbolTable
 70
     1
100
AcDbDimStyleTable
 71
     1
340
F71F
  0
DIMSTYLE
105
F71F
102
{ACAD_REACTORS
330
162CD
330
162CE
330
162CF
330
162D0
330
162E4
330
162E7
330
162EA
330
162EB
330
16301
330
16302
330
1631F
330
16320
330
16333
330
1659C
330
1659A
330
165E9
330
166DD
330
16913
330
17BC4
330
17BC3
330
17B87
330
17B88
330
17B86
330
17C47
330
17C46
330
18861
330
1880C
330
1880D
330
1880E
330
1883E
330
18842
330
18843
330
18844
330
18852
330
19362
330
19372
330
19373
330
19374
330
19685
330
19686
330
19687
102
}
330
746F
100
AcDbSymbolTableRecord
100
AcDbDimStyleTableRecord
  2
INABA_S40G
 70
     0
 40
40.0
 41
2.5
 42
0.5
 43
7.0
 44
1.5
 73
     0
 74
     0
 77
     3
 78
     8
140
3.0
141
0.0
143
0.0394
147
1.0
172
     1
173
     1
174
     1
178
     7
271
     1
340
F706
341
F770
343
F770
344
F770
  0
ENDTAB
  0
TABLE
  2
BLOCK_RECORD
  5
7466
330
0
100
AcDbSymbolTable
 70
    54
  0
BLOCK_RECORD
  5
747D
330
7466
100
AcDbSymbolTableRecord
100
AcDbBlockTableRecord
  2
*MODEL_SPACE
340
17AE5
  0
BLOCK_RECORD
  5
747A
330
7466
100
AcDbSymbolTableRecord
100
AcDbBlockTableRecord
  2
*PAPER_SPACE
340
17AE6
  0
BLOCK_RECORD
  5
F770
330
7466
100
AcDbSymbolTableRecord
100
AcDbBlockTableRecord
  2
_DOTSMALL
340
0
102
{BLKREFS
331
18FE0
331
18FE1
331
18FBA
331
18FBB
331
18FC6
331
18FC7
331
18FD2
331
18FD3
331
18FAC
331
18FAD
331
18FA0
331
18FA1
331
18F94
331
18F95
331
18F85
331
18F86
331
18F79
331
18F7A
331
19905
331
19906
331
1990F
331
19910
331
19918
331
19919
331
19923
331
19924
331
1992C
331
1992D
331
19937
331
19938
331
19940
331
19941
331
19949
331
1994A
331
19952
331
19953
331
19A4C
331
19A4D
331
19A55
331
19A56
331
19A60
331
19A61
331
19A67
331
19A68
331
19A72
331
19A73
331
19A84
331
19A85
331
19A90
331
19A91
331
19A9A
331
19A9B
331
19AA5
331
19AA6
331
19AB6
331
19AB7
331
19AC1
331
19AC2
331
19ACB
331
19ACC
331
19AD6
331
19AD7
331
19AE0
331
19AE1
331
19AF4
331
19AF5
331
19B00
331
19B01
331
19B0B
331
19B0C
331
19B1B
331
19B1C
331
19B24
331
19B25
331
19B2F
331
19B30
331
19B3A
331
19B3B
331
19B43
331
19B44
331
19B7D
331
19B7E
331
19B9B
331
19B9C
331
19BB8
331
19BB9
331
19BE5
331
19BE6
331
19BEE
331
19BEF
331
19BF8
331
19BF9
331
19C01
331
19C02
331
19C0A
331
19C0B
331
19D03
331
19D04
331
19D0F
331
19D10
102
}
  0
BLOCK_RECORD
  5
16338
330
7466
100
AcDbSymbolTableRecord
100
AcDbBlockTableRecord
  2
*D1
340
0
  0
BLOCK_RECORD
  5
16344
330
7466
100
AcDbSymbolTableRecord
100
AcDbBlockTableRecord
  2
*D2
340
0
  0
BLOCK_RECORD
  5
16352
330
7466
100
AcDbSymbolTableRecord
100
AcDbBlockTableRecord
  2
*D3
340
0
  0
BLOCK_RECORD
  5
16360
330
7466
100
AcDbSymbolTableRecord
100
AcDbBlockTableRecord
  2
*D4
340
0
  0
BLOCK_RECORD
  5
16384
330
7466
100
AcDbSymbolTableRecord
100
AcDbBlockTableRecord
  2
*D5
340
0
  0
BLOCK_RECORD
  5
1638F
330
7466
100
AcDbSymbolTableRecord
100
AcDbBlockTableRecord
  2
*D6
340
0
  0
BLOCK_RECORD
  5
1639B
330
7466
100
AcDbSymbolTableRecord
100
AcDbBlockTableRecord
  2
*D7
340
0
  0
BLOCK_RECORD
  5
163A9
330
7466
100
AcDbSymbolTableRecord
100
AcDbBlockTableRecord
  2
*D8
340
0
  0
BLOCK_RECORD
  5
163B8
330
7466
100
AcDbSymbolTableRecord
100
AcDbBlockTableRecord
  2
*D9
340
0
  0
BLOCK_RECORD
  5
163C7
330
7466
100
AcDbSymbolTableRecord
100
AcDbBlockTableRecord
  2
*D10
340
0
  0
BLOCK_RECORD
  5
163E1
330
7466
100
AcDbSymbolTableRecord
100
AcDbBlockTableRecord
  2
*D11
340
0
  0
BLOCK_RECORD
  5
163ED
330
7466
100
AcDbSymbolTableRecord
100
AcDbBlockTableRecord
  2
*D12
340
0
  0
BLOCK_RECORD
  5
163FB
330
7466
100
AcDbSymbolTableRecord
100
AcDbBlockTableRecord
  2
*D13
340
0
  0
BLOCK_RECORD
  5
165B5
330
7466
100
AcDbSymbolTableRecord
100
AcDbBlockTableRecord
  2
*D14
340
0
  0
BLOCK_RECORD
  5
165C4
330
7466
100
AcDbSymbolTableRecord
100
AcDbBlockTableRecord
  2
*D15
340
0
  0
BLOCK_RECORD
  5
165EA
330
7466
100
AcDbSymbolTableRecord
100
AcDbBlockTableRecord
  2
*D16
340
0
  0
BLOCK_RECORD
  5
166CF
330
7466
100
AcDbSymbolTableRecord
100
AcDbBlockTableRecord
  2
*D17
340
0
  0
BLOCK_RECORD
  5
16908
330
7466
100
AcDbSymbolTableRecord
100
AcDbBlockTableRecord
  2
*D18
340
0
  0
BLOCK_RECORD
  5
17BC5
330
7466
100
AcDbSymbolTableRecord
100
AcDbBlockTableRecord
  2
*D19
340
0
  0
BLOCK_RECORD
  5
17BD3
330
7466
100
AcDbSymbolTableRecord
100
AcDbBlockTableRecord
  2
*D20
340
0
  0
BLOCK_RECORD
  5
17BDE
330
7466
100
AcDbSymbolTableRecord
100
AcDbBlockTableRecord
  2
*D21
340
0
  0
BLOCK_RECORD
  5
17BEA
330
7466
100
AcDbSymbolTableRecord
100
AcDbBlockTableRecord
  2
*D22
340
0
  0
BLOCK_RECORD
  5
17BF8
330
7466
100
AcDbSymbolTableRecord
100
AcDbBlockTableRecord
  2
*D23
340
0
  0
BLOCK_RECORD
  5
17C48
330
7466
100
AcDbSymbolTableRecord
100
AcDbBlockTableRecord
  2
*D24
340
0
  0
BLOCK_RECORD
  5
17C56
330
7466
100
AcDbSymbolTableRecord
100
AcDbBlockTableRecord
  2
*D25
340
0
  0
BLOCK_RECORD
  5
189DD
330
7466
100
AcDbSymbolTableRecord
100
AcDbBlockTableRecord
  2
*D26
340
0
  0
BLOCK_RECORD
  5
18B84
330
7466
100
AcDbSymbolTableRecord
100
AcDbBlockTableRecord
  2
*D27
340
0
  0
BLOCK_RECORD
  5
18B90
330
7466
100
AcDbSymbolTableRecord
100
AcDbBlockTableRecord
  2
*D28
340
0
  0
BLOCK_RECORD
  5
18B9C
330
7466
100
AcDbSymbolTableRecord
100
AcDbBlockTableRecord
  2
*D29
340
0
  0
BLOCK_RECORD
  5
18BA8
330
7466
100
AcDbSymbolTableRecord
100
AcDbBlockTableRecord
  2
*D30
340
0
  0
BLOCK_RECORD
  5
18BB6
330
7466
100
AcDbSymbolTableRecord
100
AcDbBlockTableRecord
  2
*D31
340
0
  0
BLOCK_RECORD
  5
18BC2
330
7466
100
AcDbSymbolTableRecord
100
AcDbBlockTableRecord
  2
*D32
340
0
  0
BLOCK_RECORD
  5
18BD0
330
7466
100
AcDbSymbolTableRecord
100
AcDbBlockTableRecord
  2
*D33
340
0
  0
BLOCK_RECORD
  5
18BDC
330
7466
100
AcDbSymbolTableRecord
100
AcDbBlockTableRecord
  2
*D34
340
0
  0
BLOCK_RECORD
  5
18F74
330
7466
100
AcDbSymbolTableRecord
100
AcDbBlockTableRecord
  2
*D35
340
0
  0
BLOCK_RECORD
  5
18F80
330
7466
100
AcDbSymbolTableRecord
100
AcDbBlockTableRecord
  2
*D36
340
0
  0
BLOCK_RECORD
  5
18F8C
330
7466
100
AcDbSymbolTableRecord
100
AcDbBlockTableRecord
  2
*D37
340
0
  0
BLOCK_RECORD
  5
18F9A
330
7466
100
AcDbSymbolTableRecord
100
AcDbBlockTableRecord
  2
*D38
340
0
  0
BLOCK_RECORD
  5
18FA7
330
7466
100
AcDbSymbolTableRecord
100
AcDbBlockTableRecord
  2
*D39
340
0
  0
BLOCK_RECORD
  5
18FB3
330
7466
100
AcDbSymbolTableRecord
100
AcDbBlockTableRecord
  2
*D40
340
0
  0
BLOCK_RECORD
  5
18FC1
330
7466
100
AcDbSymbolTableRecord
100
AcDbBlockTableRecord
  2
*D41
340
0
  0
BLOCK_RECORD
  5
18FCD
330
7466
100
AcDbSymbolTableRecord
100
AcDbBlockTableRecord
  2
*D42
340
0
  0
BLOCK_RECORD
  5
18FD9
330
7466
100
AcDbSymbolTableRecord
100
AcDbBlockTableRecord
  2
*D43
340
0
  0
BLOCK_RECORD
  5
18FE7
330
7466
100
AcDbSymbolTableRecord
100
AcDbBlockTableRecord
  2
A$C1B9F3C0F
340
0
  0
BLOCK_RECORD
  5
19447
330
7466
100
AcDbSymbolTableRecord
100
AcDbBlockTableRecord
  2
*D45
340
0
  0
BLOCK_RECORD
  5
19455
330
7466
100
AcDbSymbolTableRecord
100
AcDbBlockTableRecord
  2
*D46
340
0
  0
BLOCK_RECORD
  5
19463
330
7466
100
AcDbSymbolTableRecord
100
AcDbBlockTableRecord
  2
*D47
340
0
  0
BLOCK_RECORD
  5
1946F
330
7466
100
AcDbSymbolTableRecord
100
AcDbBlockTableRecord
  2
*D48
340
0
  0
BLOCK_RECORD
  5
196E5
330
7466
100
AcDbSymbolTableRecord
100
AcDbBlockTableRecord
  2
*D49
340
0
  0
BLOCK_RECORD
  5
196F1
330
7466
100
AcDbSymbolTableRecord
100
AcDbBlockTableRecord
  2
*D50
340
0
  0
BLOCK_RECORD
  5
196FF
330
7466
100
AcDbSymbolTableRecord
100
AcDbBlockTableRecord
  2
*D51
340
0
  0
BLOCK_RECORD
  5
19853
330
7466
100
AcDbSymbolTableRecord
100
AcDbBlockTableRecord
  2
A$C27814850
340
0
  0
BLOCK_RECORD
  5
19894
330
7466
100
AcDbSymbolTableRecord
100
AcDbBlockTableRecord
  2
A$C254A485A
340
0
  0
ENDTAB
  0
ENDSEC
  0
SECTION
  2
BLOCKS
  0
BLOCK
  5
7489
330
747D
100
AcDbEntity
  8
0
100
AcDbBlockBegin
  2
*MODEL_SPACE
 70
     0
 10
0.0
 20
0.0
 30
0.0
  3
*MODEL_SPACE
  1

  0
ENDBLK
  5
748A
330
747D
100
AcDbEntity
  8
0
100
AcDbBlockEnd
  0
BLOCK
  5
7487
330
747A
100
AcDbEntity
 67
     1
  8
0
100
AcDbBlockBegin
  2
*PAPER_SPACE
 70
     0
 10
0.0
 20
0.0
 30
0.0
  3
*PAPER_SPACE
  1

  0
ENDBLK
  5
7488
330
747A
100
AcDbEntity
 67
     1
  8
0
100
AcDbBlockEnd
  0
BLOCK
  5
F771
330
F770
100
AcDbEntity
  8
0
 48
50.0
100
AcDbBlockBegin
  2
_DOTSMALL
 70
     0
 10
0.0
 20
0.0
 30
0.0
  3
_DOTSMALL
  1

  0
LWPOLYLINE
  5
F772
330
F770
100
AcDbEntity
  8
0
  6
ByBlock
 62
     0
 48
50.0
100
AcDbPolyline
 90
        2
 70
     1
 43
0.5
 10
-0.0625
 20
0.0
 42
1.0
 10
0.0625
 20
0.0
 42
1.0
  0
ENDBLK
  5
F776
330
F770
100
AcDbEntity
  8
0
 48
50.0
100
AcDbBlockEnd
  0
BLOCK
  5
164EB
330
16338
100
AcDbEntity
  8
0
 48
50.0
100
AcDbBlockBegin
  2
*D1
 70
     1
 10
0.0
 20
0.0
 30
0.0
  3
*D1
  1

  0
LINE
  5
19B40
330
16338
100
AcDbEntity
  8
寸法
 62
     0
 48
50.0
370
    -2
100
AcDbLine
 10
9339.673057123665
 20
9717.497424545967
 30
0.0
 11
10027.09940285807
 21
9717.497424545967
 31
0.0
  0
LINE
  5
19B41
330
16338
100
AcDbEntity
  8
寸法
 62
     0
 48
50.0
370
    -2
100
AcDbLine
 10
9339.673057123638
 20
7197.497424545952
 30
0.0
 11
10027.09940285807
 21
7197.497424545952
 31
0.0
  0
LINE
  5
19B42
330
16338
100
AcDbEntity
  8
寸法
 62
     0
 48
50.0
370
    -2
100
AcDbLine
 10
9967.099402858071
 20
9717.497424545967
 30
0.0
 11
9967.099402858071
 21
7197.497424545952
 31
0.0
  0
INSERT
  5
19B43
330
16338
100
AcDbEntity
  8
寸法
 62
     0
 48
50.0
370
    -2
100
AcDbBlockReference
  2
_DOTSMALL
 10
9967.099402858071
 20
9717.497424545967
 30
0.0
 41
100.0
 42
100.0
 43
100.0
 50
90.0
  0
INSERT
  5
19B44
330
16338
100
AcDbEntity
  8
寸法
 62
     0
 48
50.0
370
    -2
100
AcDbBlockReference
  2
_DOTSMALL
 10
9967.099402858071
 20
7197.497424545952
 30
0.0
 41
100.0
 42
100.0
 43
100.0
 50
270.0
  0
MTEXT
  5
19B45
330
16338
100
AcDbEntity
  8
寸法
 62
     7
 48
50.0
100
AcDbMText
 10
9867.087591834447
 20
8457.497424545961
 30
0.0
 40
120.0
 41
0.0
 71
     5
 72
     1
  1
\A1;6X420=2520
  7
STYLE1
 11
0.0000000000000001
 21
1.0
 31
0.0
 73
     1
 44
1.0
1001
ACAD
1000
MTEXTBEGIN
1070
    73
1070
     1
1070
    44
1040
1.0
1070
    74
1070
     0
1000
MTEXTEND
  0
POINT
  5
19B46
330
16338
100
AcDbEntity
  8
DEFPOINTS
 62
     0
 48
50.0
100
AcDbPoint
 10
9319.673057123663
 20
9717.497424545967
 30
0.0
  0
POINT
  5
19B47
330
16338
100
AcDbEntity
  8
DEFPOINTS
 62
     0
 48
50.0
100
AcDbPoint
 10
9319.673057123639
 20
7197.497424545952
 30
0.0
  0
POINT
  5
19B48
330
16338
100
AcDbEntity
  8
DEFPOINTS
 62
     0
 48
50.0
100
AcDbPoint
 10
9967.099402858071
 20
7197.497424545952
 30
0.0
  0
ENDBLK
  5
164F5
330
16338
100
AcDbEntity
  8
0
 48
50.0
100
AcDbBlockEnd
  0
BLOCK
  5
16414
330
16344
100
AcDbEntity
  8
0
 48
50.0
100
AcDbBlockBegin
  2
*D2
 70
     1
 10
0.0
 20
0.0
 30
0.0
  3
*D2
  1

  0
LINE
  5
19B35
330
16344
100
AcDbEntity
  8
寸法
 62
     0
 48
50.0
370
    -2
100
AcDbLine
 10
9339.673057123638
 20
7197.497424545952
 30
0.0
 11
10027.09940285805
 21
7197.497424545952
 31
0.0
  0
LINE
  5
19B36
330
16344
100
AcDbEntity
  8
寸法
 62
     0
 48
50.0
370
    -2
100
AcDbLine
 10
9339.673057123638
 20
7142.497424545957
 30
0.0
 11
10027.09940285805
 21
7142.497424545957
 31
0.0
  0
LINE
  5
19B37
330
16344
100
AcDbEntity
  8
寸法
 62
     0
 48
50.0
370
    -2
100
AcDbLine
 10
9967.09940285805
 20
7197.497424545952
 30
0.0
 11
9967.09940285805
 21
7297.497424545952
 31
0.0
  0
LINE
  5
19B38
330
16344
100
AcDbEntity
  8
寸法
 62
     0
 48
50.0
370
    -2
100
AcDbLine
 10
9967.09940285805
 20
7142.497424545957
 30
0.0
 11
9967.09940285805
 21
6656.150676266854
 31
0.0
  0
LINE
  5
19B39
330
16344
100
AcDbEntity
  8
寸法
 62
     0
 48
50.0
370
    -2
100
AcDbLine
 10
9967.09940285805
 20
7197.497424545952
 30
0.0
 11
9967.09940285805
 21
7142.497424545957
 31
0.0
  0
INSERT
  5
19B3A
330
16344
100
AcDbEntity
  8
寸法
 62
     0
 48
50.0
370
    -2
100
AcDbBlockReference
  2
_DOTSMALL
 10
9967.09940285805
 20
7197.497424545952
 30
0.0
 41
100.0
 42
100.0
 43
100.0
 50
270.0
  0
INSERT
  5
19B3B
330
16344
100
AcDbEntity
  8
寸法
 62
     0
 48
50.0
370
    -2
100
AcDbBlockReference
  2
_DOTSMALL
 10
9967.09940285805
 20
7142.497424545957
 30
0.0
 41
100.0
 42
100.0
 43
100.0
 50
90.0
  0
MTEXT
  5
19B3C
330
16344
100
AcDbEntity
  8
寸法
 62
     7
 48
50.0
100
AcDbMText
 10
9867.099402858048
 20
6764.635957641094
 30
0.0
 40
120.0
 41
0.0
 71
     5
 72
     1
  1
\A1;55
  7
STYLE1
 11
0.0000000000000001
 21
1.0
 31
0.0
 73
     1
 44
1.0
1001
ACAD
1000
MTEXTBEGIN
1070
    73
1070
     1
1070
    44
1040
1.0
1070
    74
1070
     0
1000
MTEXTEND
  0
POINT
  5
19B3D
330
16344
100
AcDbEntity
  8
DEFPOINTS
 62
     0
 48
50.0
100
AcDbPoint
 10
9319.673057123639
 20
7197.497424545952
 30
0.0
  0
POINT
  5
19B3E
330
16344
100
AcDbEntity
  8
DEFPOINTS
 62
     0
 48
50.0
100
AcDbPoint
 10
9319.673057123639
 20
7142.497424545957
 30
0.0
  0
POINT
  5
19B3F
330
16344
100
AcDbEntity
  8
DEFPOINTS
 62
     0
 48
50.0
100
AcDbPoint
 10
9967.09940285805
 20
7142.497424545957
 30
0.0
  0
ENDBLK
  5
16420
330
16344
100
AcDbEntity
  8
0
 48
50.0
100
AcDbBlockEnd
  0
BLOCK
  5
16421
330
16352
100
AcDbEntity
  8
0
 48
50.0
100
AcDbBlockBegin
  2
*D3
 70
     1
 10
0.0
 20
0.0
 30
0.0
  3
*D3
  1

  0
LINE
  5
19B2A
330
16352
100
AcDbEntity
  8
寸法
 62
     0
 48
50.0
370
    -2
100
AcDbLine
 10
9339.673057123665
 20
9772.497424545964
 30
0.0
 11
10027.09940285807
 21
9772.497424545964
 31
0.0
  0
LINE
  5
19B2B
330
16352
100
AcDbEntity
  8
寸法
 62
     0
 48
50.0
370
    -2
100
AcDbLine
 10
9339.673057123665
 20
9717.497424545967
 30
0.0
 11
10027.09940285807
 21
9717.497424545967
 31
0.0
  0
LINE
  5
19B2C
330
16352
100
AcDbEntity
  8
寸法
 62
     0
 48
50.0
370
    -2
100
AcDbLine
 10
9967.099402858075
 20
9717.497424545967
 30
0.0
 11
9967.099402858075
 21
9617.497424545968
 31
0.0
  0
LINE
  5
19B2D
330
16352
100
AcDbEntity
  8
寸法
 62
     0
 48
50.0
370
    -2
100
AcDbLine
 10
9967.099402858075
 20
9772.497424545964
 30
0.0
 11
9967.099402858075
 21
10189.46798729444
 31
0.0
  0
LINE
  5
19B2E
330
16352
100
AcDbEntity
  8
寸法
 62
     0
 48
50.0
370
    -2
100
AcDbLine
 10
9967.099402858075
 20
9717.497424545967
 30
0.0
 11
9967.099402858075
 21
9772.497424545964
 31
0.0
  0
INSERT
  5
19B2F
330
16352
100
AcDbEntity
  8
寸法
 62
     0
 48
50.0
370
    -2
100
AcDbBlockReference
  2
_DOTSMALL
 10
9967.099402858075
 20
9717.497424545967
 30
0.0
 41
100.0
 42
100.0
 43
100.0
 50
90.0
  0
INSERT
  5
19B30
330
16352
100
AcDbEntity
  8
寸法
 62
     0
 48
50.0
370
    -2
100
AcDbBlockReference
  2
_DOTSMALL
 10
9967.099402858075
 20
9772.497424545964
 30
0.0
 41
100.0
 42
100.0
 43
100.0
 50
270.0
  0
MTEXT
  5
19B31
330
16352
100
AcDbEntity
  8
寸法
 62
     7
 48
50.0
100
AcDbMText
 10
9867.099402858073
 20
10080.9827059202
 30
0.0
 40
120.0
 41
0.0
 71
     5
 72
     1
  1
\A1;55
  7
STYLE1
 11
0.0000000000000001
 21
1.0
 31
0.0
 73
     1
 44
1.0
1001
ACAD
1000
MTEXTBEGIN
1070
    73
1070
     1
1070
    44
1040
1.0
1070
    74
1070
     0
1000
MTEXTEND
  0
POINT
  5
19B32
330
16352
100
AcDbEntity
  8
DEFPOINTS
 62
     0
 48
50.0
100
AcDbPoint
 10
9319.673057123663
 20
9772.497424545964
 30
0.0
  0
POINT
  5
19B33
330
16352
100
AcDbEntity
  8
DEFPOINTS
 62
     0
 48
50.0
100
AcDbPoint
 10
9319.673057123663
 20
9717.497424545967
 30
0.0
  0
POINT
  5
19B34
330
16352
100
AcDbEntity
  8
DEFPOINTS
 62
     0
 48
50.0
100
AcDbPoint
 10
9967.099402858075
 20
9717.497424545967
 30
0.0
  0
ENDBLK
  5
1642D
330
16352
100
AcDbEntity
  8
0
 48
50.0
100
AcDbBlockEnd
  0
BLOCK
  5
164CA
330
16360
100
AcDbEntity
  8
0
 48
50.0
100
AcDbBlockBegin
  2
*D4
 70
     1
 10
0.0
 20
0.0
 30
0.0
  3
*D4
  1

  0
LINE
  5
19B21
330
16360
100
AcDbEntity
  8
寸法
 62
     0
 48
50.0
370
    -2
100
AcDbLine
 10
9339.673057123665
 20
9772.497424545964
 30
0.0
 11
10392.20634459771
 21
9772.497424545964
 31
0.0
  0
LINE
  5
19B22
330
16360
100
AcDbEntity
  8
寸法
 62
     0
 48
50.0
370
    -2
100
AcDbLine
 10
9339.673057123638
 20
7142.497424545957
 30
0.0
 11
10392.20634459771
 21
7142.497424545955
 31
0.0
  0
LINE
  5
19B23
330
16360
100
AcDbEntity
  8
寸法
 62
     0
 48
50.0
370
    -2
100
AcDbLine
 10
10332.20634459771
 20
9772.497424545964
 30
0.0
 11
10332.20634459771
 21
7142.497424545955
 31
0.0
  0
INSERT
  5
19B24
330
16360
100
AcDbEntity
  8
寸法
 62
     0
 48
50.0
370
    -2
100
AcDbBlockReference
  2
_DOTSMALL
 10
10332.20634459771
 20
9772.497424545964
 30
0.0
 41
100.0
 42
100.0
 43
100.0
 50
90.0
  0
INSERT
  5
19B25
330
16360
100
AcDbEntity
  8
寸法
 62
     0
 48
50.0
370
    -2
100
AcDbBlockReference
  2
_DOTSMALL
 10
10332.20634459771
 20
7142.497424545955
 30
0.0
 41
100.0
 42
100.0
 43
100.0
 50
270.0
  0
MTEXT
  5
19B26
330
16360
100
AcDbEntity
  8
寸法
 62
     7
 48
50.0
100
AcDbMText
 10
10232.19453357408
 20
8457.497424545961
 30
0.0
 40
120.0
 41
0.0
 71
     5
 72
     1
  1
\A1;2630
  7
STYLE1
 11
0.0000000000000001
 21
1.0
 31
0.0
 73
     1
 44
1.0
1001
ACAD
1000
MTEXTBEGIN
1070
    73
1070
     1
1070
    44
1040
1.0
1070
    74
1070
     0
1000
MTEXTEND
  0
POINT
  5
19B27
330
16360
100
AcDbEntity
  8
DEFPOINTS
 62
     0
 48
50.0
100
AcDbPoint
 10
9319.673057123663
 20
9772.497424545964
 30
0.0
  0
POINT
  5
19B28
330
16360
100
AcDbEntity
  8
DEFPOINTS
 62
     0
 48
50.0
100
AcDbPoint
 10
9319.673057123639
 20
7142.497424545957
 30
0.0
  0
POINT
  5
19B29
330
16360
100
AcDbEntity
  8
DEFPOINTS
 62
     0
 48
50.0
100
AcDbPoint
 10
10332.20634459771
 20
7142.497424545955
 30
0.0
  0
ENDBLK
  5
164D4
330
16360
100
AcDbEntity
  8
0
 48
50.0
100
AcDbBlockEnd
  0
BLOCK
  5
1728C
330
16384
100
AcDbEntity
  8
0
 48
50.0
100
AcDbBlockBegin
  2
*D5
 70
     1
 10
0.0
 20
0.0
 30
0.0
  3
*D5
  1

  0
LINE
  5
19B19
330
16384
100
AcDbEntity
  8
寸法
 62
     0
 48
50.0
370
    -2
100
AcDbLine
 10
6792.673057123656
 20
7148.497424545865
 30
0.0
 11
6792.673057123656
 21
6548.0666537797
 31
0.0
  0
LINE
  5
19B1A
330
16384
100
AcDbEntity
  8
寸法
 62
     0
 48
50.0
370
    -2
100
AcDbLine
 10
9216.673057123639
 20
6608.0666537797
 30
0.0
 11
6792.673057123656
 21
6608.0666537797
 31
0.0
  0
INSERT
  5
19B1B
330
16384
100
AcDbEntity
  8
寸法
 62
     0
 48
50.0
370
    -2
100
AcDbBlockReference
  2
_DOTSMALL
 10
9216.673057123639
 20
6608.0666537797
 30
0.0
 41
100.0
 42
100.0
 43
100.0
  0
INSERT
  5
19B1C
330
16384
100
AcDbEntity
  8
寸法
 62
     0
 48
50.0
370
    -2
100
AcDbBlockReference
  2
_DOTSMALL
 10
6792.673057123656
 20
6608.0666537797
 30
0.0
 41
100.0
 42
100.0
 43
100.0
 50
180.0
  0
MTEXT
  5
19B1D
330
16384
100
AcDbEntity
  8
寸法
 62
     7
 48
50.0
100
AcDbMText
 10
8004.673057123648
 20
6708.078464803323
 30
0.0
 40
120.0
 41
0.0
 71
     5
 72
     1
  1
\A1;有効開口部間口 2424
  7
STYLE1
 73
     1
 44
1.0
1001
ACAD
1000
MTEXTBEGIN
1070
    73
1070
     1
1070
    44
1040
1.0
1070
    74
1070
     0
1000
MTEXTEND
  0
POINT
  5
19B1E
330
16384
100
AcDbEntity
  8
DEFPOINTS
 62
     0
 48
50.0
100
AcDbPoint
 10
9216.673057123639
 20
7168.497424545865
 30
0.0
  0
POINT
  5
19B1F
330
16384
100
AcDbEntity
  8
DEFPOINTS
 62
     0
 48
50.0
100
AcDbPoint
 10
6792.673057123656
 20
7168.497424545865
 30
0.0
  0
POINT
  5
19B20
330
16384
100
AcDbEntity
  8
DEFPOINTS
 62
     0
 48
50.0
100
AcDbPoint
 10
6792.673057123656
 20
6608.0666537797
 30
0.0
  0
ENDBLK
  5
17295
330
16384
100
AcDbEntity
  8
0
 48
50.0
100
AcDbBlockEnd
  0
BLOCK
  5
17261
330
1638F
100
AcDbEntity
  8
0
 48
50.0
100
AcDbBlockBegin
  2
*D6
 70
     1
 10
0.0
 20
0.0
 30
0.0
  3
*D6
  1

  0
LINE
  5
19BF5
330
1638F
100
AcDbEntity
  8
寸法
 62
     0
 48
50.0
370
    -2
100
AcDbLine
 10
1429.673057123657
 20
7122.497424545861
 30
0.0
 11
1429.673057123657
 21
6101.893658188827
 31
0.0
  0
LINE
  5
19BF6
330
1638F
100
AcDbEntity
  8
寸法
 62
     0
 48
50.0
370
    -2
100
AcDbLine
 10
9319.673057123628
 20
7122.497424545956
 30
0.0
 11
9319.673057123628
 21
6101.893658188827
 31
0.0
  0
LINE
  5
19BF7
330
1638F
100
AcDbEntity
  8
寸法
 62
     0
 48
50.0
370
    -2
100
AcDbLine
 10
1429.673057123657
 20
6161.893658188827
 30
0.0
 11
9319.673057123628
 21
6161.893658188827
 31
0.0
  0
INSERT
  5
19BF8
330
1638F
100
AcDbEntity
  8
寸法
 62
     0
 48
50.0
370
    -2
100
AcDbBlockReference
  2
_DOTSMALL
 10
1429.673057123657
 20
6161.893658188827
 30
0.0
 41
100.0
 42
100.0
 43
100.0
 50
180.0
  0
INSERT
  5
19BF9
330
1638F
100
AcDbEntity
  8
寸法
 62
     0
 48
50.0
370
    -2
100
AcDbBlockReference
  2
_DOTSMALL
 10
9319.673057123628
 20
6161.893658188827
 30
0.0
 41
100.0
 42
100.0
 43
100.0
  0
MTEXT
  5
19BFA
330
1638F
100
AcDbEntity
  8
寸法
 62
     7
 48
50.0
100
AcDbMText
 10
5374.673057123642
 20
6261.905469212448
 30
0.0
 40
120.0
 41
0.0
 71
     5
 72
     1
  1
\A1;N X 2630
  7
STYLE1
 73
     1
 44
1.0
1001
ACAD
1000
MTEXTBEGIN
1070
    73
1070
     1
1070
    44
1040
1.0
1070
    74
1070
     0
1000
MTEXTEND
  0
POINT
  5
19BFB
330
1638F
100
AcDbEntity
  8
DEFPOINTS
 62
     0
 48
50.0
100
AcDbPoint
 10
1429.673057123657
 20
7142.497424545862
 30
0.0
  0
POINT
  5
19BFC
330
1638F
100
AcDbEntity
  8
DEFPOINTS
 62
     0
 48
50.0
100
AcDbPoint
 10
9319.673057123628
 20
7142.497424545957
 30
0.0
  0
POINT
  5
19BFD
330
1638F
100
AcDbEntity
  8
DEFPOINTS
 62
     0
 48
50.0
100
AcDbPoint
 10
9319.673057123628
 20
6161.893658188827
 30
0.0
  0
ENDBLK
  5
1726B
330
1638F
100
AcDbEntity
  8
0
 48
50.0
100
AcDbBlockEnd
  0
BLOCK
  5
16464
330
1639B
100
AcDbEntity
  8
0
 48
50.0
100
AcDbBlockBegin
  2
*D7
 70
     1
 10
0.0
 20
0.0
 30
0.0
  3
*D7
  1

  0
LINE
  5
19AA0
330
1639B
100
AcDbEntity
  8
寸法
 62
     0
 48
50.0
370
    -2
100
AcDbLine
 10
1484.673057123653
 20
7122.497424545864
 30
0.0
 11
1484.673057123653
 21
6548.0666537797
 31
0.0
  0
LINE
  5
19AA1
330
1639B
100
AcDbEntity
  8
寸法
 62
     0
 48
50.0
370
    -2
100
AcDbLine
 10
1429.673057123657
 20
7122.497424545861
 30
0.0
 11
1429.673057123657
 21
6548.0666537797
 31
0.0
  0
LINE
  5
19AA2
330
1639B
100
AcDbEntity
  8
寸法
 62
     0
 48
50.0
370
    -2
100
AcDbLine
 10
1484.673057123653
 20
6608.0666537797
 30
0.0
 11
1584.673057123653
 21
6608.0666537797
 31
0.0
  0
LINE
  5
19AA3
330
1639B
100
AcDbEntity
  8
寸法
 62
     0
 48
50.0
370
    -2
100
AcDbLine
 10
1429.673057123657
 20
6608.0666537797
 30
0.0
 11
1012.702494375179
 21
6608.0666537797
 31
0.0
  0
LINE
  5
19AA4
330
1639B
100
AcDbEntity
  8
寸法
 62
     0
 48
50.0
370
    -2
100
AcDbLine
 10
1484.673057123653
 20
6608.0666537797
 30
0.0
 11
1429.673057123657
 21
6608.0666537797
 31
0.0
  0
INSERT
  5
19AA5
330
1639B
100
AcDbEntity
  8
寸法
 62
     0
 48
50.0
370
    -2
100
AcDbBlockReference
  2
_DOTSMALL
 10
1484.673057123653
 20
6608.0666537797
 30
0.0
 41
100.0
 42
100.0
 43
100.0
 50
180.0
  0
INSERT
  5
19AA6
330
1639B
100
AcDbEntity
  8
寸法
 62
     0
 48
50.0
370
    -2
100
AcDbBlockReference
  2
_DOTSMALL
 10
1429.673057123657
 20
6608.0666537797
 30
0.0
 41
100.0
 42
100.0
 43
100.0
  0
MTEXT
  5
19AA7
330
1639B
100
AcDbEntity
  8
寸法
 62
     7
 48
50.0
100
AcDbMText
 10
1121.187775749418
 20
6708.0666537797
 30
0.0
 40
120.0
 41
0.0
 71
     5
 72
     1
  1
\A1;55
  7
STYLE1
 73
     1
 44
1.0
1001
ACAD
1000
MTEXTBEGIN
1070
    73
1070
     1
1070
    44
1040
1.0
1070
    74
1070
     0
1000
MTEXTEND
  0
POINT
  5
19AA8
330
1639B
100
AcDbEntity
  8
DEFPOINTS
 62
     0
 48
50.0
100
AcDbPoint
 10
1484.673057123653
 20
7142.497424545864
 30
0.0
  0
POINT
  5
19AA9
330
1639B
100
AcDbEntity
  8
DEFPOINTS
 62
     0
 48
50.0
100
AcDbPoint
 10
1429.673057123657
 20
7142.497424545862
 30
0.0
  0
POINT
  5
19AAA
330
1639B
100
AcDbEntity
  8
DEFPOINTS
 62
     0
 48
50.0
100
AcDbPoint
 10
1429.673057123657
 20
6608.0666537797
 30
0.0
  0
ENDBLK
  5
16470
330
1639B
100
AcDbEntity
  8
0
 48
50.0
100
AcDbBlockEnd
  0
BLOCK
  5
16471
330
163A9
100
AcDbEntity
  8
0
 48
50.0
100
AcDbBlockBegin
  2
*D8
 70
     1
 10
0.0
 20
0.0
 30
0.0
  3
*D8
  1

  0
LINE
  5
19B05
330
163A9
100
AcDbEntity
  8
寸法
 62
     0
 48
50.0
370
    -2
100
AcDbLine
 10
6792.673057123656
 20
7148.497424545865
 30
0.0
 11
6792.673057123656
 21
6548.0666537797
 31
0.0
  0
LINE
  5
19B06
330
163A9
100
AcDbEntity
  8
寸法
 62
     0
 48
50.0
370
    -2
100
AcDbLine
 10
6744.673057123653
 20
7122.497424545864
 30
0.0
 11
6744.673057123653
 21
6548.0666537797
 31
0.0
  0
LINE
  5
19B07
330
163A9
100
AcDbEntity
  8
寸法
 62
     0
 48
50.0
370
    -2
100
AcDbLine
 10
6792.673057123656
 20
6608.0666537797
 30
0.0
 11
6892.673057123658
 21
6608.0666537797
 31
0.0
  0
LINE
  5
19B08
330
163A9
100
AcDbEntity
  8
寸法
 62
     0
 48
50.0
370
    -2
100
AcDbLine
 10
6744.673057123653
 20
6608.0666537797
 30
0.0
 11
6644.673057123653
 21
6608.0666537797
 31
0.0
  0
MTEXT
  5
19B09
330
163A9
100
AcDbEntity
  8
寸法
 62
     7
 48
50.0
100
AcDbMText
 10
6905.575028123713
 20
6708.0666537797
 30
0.0
 40
120.0
 41
0.0
 71
     5
 72
     1
  1
\A1;48
  7
STYLE1
 73
     1
 44
1.0
1001
ACAD
1000
MTEXTBEGIN
1070
    73
1070
     1
1070
    44
1040
1.0
1070
    74
1070
     0
1000
MTEXTEND
  0
LINE
  5
19B0A
330
163A9
100
AcDbEntity
  8
寸法
 62
     0
 48
50.0
370
    -2
100
AcDbLine
 10
6792.673057123656
 20
6608.0666537797
 30
0.0
 11
6744.673057123653
 21
6608.0666537797
 31
0.0
  0
INSERT
  5
19B0B
330
163A9
100
AcDbEntity
  8
寸法
 62
     0
 48
50.0
370
    -2
100
AcDbBlockReference
  2
_DOTSMALL
 10
6792.673057123656
 20
6608.0666537797
 30
0.0
 41
100.0
 42
100.0
 43
100.0
 50
180.0
  0
INSERT
  5
19B0C
330
163A9
100
AcDbEntity
  8
寸法
 62
     0
 48
50.0
370
    -2
100
AcDbBlockReference
  2
_DOTSMALL
 10
6744.673057123653
 20
6608.0666537797
 30
0.0
 41
100.0
 42
100.0
 43
100.0
  0
POINT
  5
19B0D
330
163A9
100
AcDbEntity
  8
DEFPOINTS
 62
     0
 48
50.0
100
AcDbPoint
 10
6792.673057123656
 20
7168.497424545865
 30
0.0
  0
POINT
  5
19B0E
330
163A9
100
AcDbEntity
  8
DEFPOINTS
 62
     0
 48
50.0
100
AcDbPoint
 10
6744.673057123653
 20
7142.497424545864
 30
0.0
  0
POINT
  5
19B0F
330
163A9
100
AcDbEntity
  8
DEFPOINTS
 62
     0
 48
50.0
100
AcDbPoint
 10
6744.673057123653
 20
6608.0666537797
 30
0.0
  0
ENDBLK
  5
1647E
330
163A9
100
AcDbEntity
  8
0
 48
50.0
100
AcDbBlockEnd
  0
BLOCK
  5
1647F
330
163B8
100
AcDbEntity
  8
0
 48
50.0
100
AcDbBlockBegin
  2
*D9
 70
     1
 10
0.0
 20
0.0
 30
0.0
  3
*D9
  1

  0
LINE
  5
19AFA
330
163B8
100
AcDbEntity
  8
寸法
 62
     0
 48
50.0
370
    -2
100
AcDbLine
 10
9264.673057123641
 20
7122.497424545952
 30
0.0
 11
9264.673057123641
 21
6548.0666537797
 31
0.0
  0
LINE
  5
19AFB
330
163B8
100
AcDbEntity
  8
寸法
 62
     0
 48
50.0
370
    -2
100
AcDbLine
 10
9216.673057123639
 20
7148.497424545865
 30
0.0
 11
9216.673057123639
 21
6548.0666537797
 31
0.0
  0
LINE
  5
19AFC
330
163B8
100
AcDbEntity
  8
寸法
 62
     0
 48
50.0
370
    -2
100
AcDbLine
 10
9264.673057123641
 20
6608.0666537797
 30
0.0
 11
9364.67305712364
 21
6608.0666537797
 31
0.0
  0
LINE
  5
19AFD
330
163B8
100
AcDbEntity
  8
寸法
 62
     0
 48
50.0
370
    -2
100
AcDbLine
 10
9216.673057123639
 20
6608.0666537797
 30
0.0
 11
9116.673057123639
 21
6608.0666537797
 31
0.0
  0
MTEXT
  5
19AFE
330
163B8
100
AcDbEntity
  8
寸法
 62
     7
 48
50.0
100
AcDbMText
 10
9105.710159474892
 20
6708.0666537797
 30
0.0
 40
120.0
 41
0.0
 71
     5
 72
     1
  1
\A1;48
  7
STYLE1
 73
     1
 44
1.0
1001
ACAD
1000
MTEXTBEGIN
1070
    73
1070
     1
1070
    44
1040
1.0
1070
    74
1070
     0
1000
MTEXTEND
  0
LINE
  5
19AFF
330
163B8
100
AcDbEntity
  8
寸法
 62
     0
 48
50.0
370
    -2
100
AcDbLine
 10
9264.673057123641
 20
6608.0666537797
 30
0.0
 11
9216.673057123639
 21
6608.0666537797
 31
0.0
  0
INSERT
  5
19B00
330
163B8
100
AcDbEntity
  8
寸法
 62
     0
 48
50.0
370
    -2
100
AcDbBlockReference
  2
_DOTSMALL
 10
9264.673057123641
 20
6608.0666537797
 30
0.0
 41
100.0
 42
100.0
 43
100.0
 50
180.0
  0
INSERT
  5
19B01
330
163B8
100
AcDbEntity
  8
寸法
 62
     0
 48
50.0
370
    -2
100
AcDbBlockReference
  2
_DOTSMALL
 10
9216.673057123639
 20
6608.0666537797
 30
0.0
 41
100.0
 42
100.0
 43
100.0
  0
POINT
  5
19B02
330
163B8
100
AcDbEntity
  8
DEFPOINTS
 62
     0
 48
50.0
100
AcDbPoint
 10
9264.673057123641
 20
7142.497424545952
 30
0.0
  0
POINT
  5
19B03
330
163B8
100
AcDbEntity
  8
DEFPOINTS
 62
     0
 48
50.0
100
AcDbPoint
 10
9216.673057123639
 20
7168.497424545865
 30
0.0
  0
POINT
  5
19B04
330
163B8
100
AcDbEntity
  8
DEFPOINTS
 62
     0
 48
50.0
100
AcDbPoint
 10
9216.673057123639
 20
6608.0666537797
 30
0.0
  0
ENDBLK
  5
1648C
330
163B8
100
AcDbEntity
  8
0
 48
50.0
100
AcDbBlockEnd
  0
BLOCK
  5
1648D
330
163C7
100
AcDbEntity
  8
0
 48
50.0
100
AcDbBlockBegin
  2
*D10
 70
     1
 10
0.0
 20
0.0
 30
0.0
  3
*D10
  1

  0
LINE
  5
19AEF
330
163C7
100
AcDbEntity
  8
寸法
 62
     0
 48
50.0
370
    -2
100
AcDbLine
 10
9319.673057123639
 20
7122.497424545956
 30
0.0
 11
9319.673057123639
 21
6548.066653779702
 31
0.0
  0
LINE
  5
19AF0
330
163C7
100
AcDbEntity
  8
寸法
 62
     0
 48
50.0
370
    -2
100
AcDbLine
 10
9264.673057123641
 20
7122.497424545952
 30
0.0
 11
9264.673057123641
 21
6548.066653779702
 31
0.0
  0
LINE
  5
19AF1
330
163C7
100
AcDbEntity
  8
寸法
 62
     0
 48
50.0
370
    -2
100
AcDbLine
 10
9264.673057123641
 20
6608.066653779701
 30
0.0
 11
9164.673057123641
 21
6608.066653779701
 31
0.0
  0
LINE
  5
19AF2
330
163C7
100
AcDbEntity
  8
寸法
 62
     0
 48
50.0
370
    -2
100
AcDbLine
 10
9319.673057123639
 20
6608.066653779701
 30
0.0
 11
9736.643619872115
 21
6608.066653779701
 31
0.0
  0
LINE
  5
19AF3
330
163C7
100
AcDbEntity
  8
寸法
 62
     0
 48
50.0
370
    -2
100
AcDbLine
 10
9264.673057123641
 20
6608.066653779701
 30
0.0
 11
9319.673057123639
 21
6608.066653779701
 31
0.0
  0
INSERT
  5
19AF4
330
163C7
100
AcDbEntity
  8
寸法
 62
     0
 48
50.0
370
    -2
100
AcDbBlockReference
  2
_DOTSMALL
 10
9264.673057123641
 20
6608.066653779701
 30
0.0
 41
100.0
 42
100.0
 43
100.0
  0
INSERT
  5
19AF5
330
163C7
100
AcDbEntity
  8
寸法
 62
     0
 48
50.0
370
    -2
100
AcDbBlockReference
  2
_DOTSMALL
 10
9319.673057123639
 20
6608.066653779701
 30
0.0
 41
100.0
 42
100.0
 43
100.0
 50
180.0
  0
MTEXT
  5
19AF6
330
163C7
100
AcDbEntity
  8
寸法
 62
     7
 48
50.0
100
AcDbMText
 10
9628.158338497877
 20
6708.066653779702
 30
0.0
 40
120.0
 41
0.0
 71
     5
 72
     1
  1
\A1;55
  7
STYLE1
 73
     1
 44
1.0
1001
ACAD
1000
MTEXTBEGIN
1070
    73
1070
     1
1070
    44
1040
1.0
1070
    74
1070
     0
1000
MTEXTEND
  0
POINT
  5
19AF7
330
163C7
100
AcDbEntity
  8
DEFPOINTS
 62
     0
 48
50.0
100
AcDbPoint
 10
9319.673057123639
 20
7142.497424545957
 30
0.0
  0
POINT
  5
19AF8
330
163C7
100
AcDbEntity
  8
DEFPOINTS
 62
     0
 48
50.0
100
AcDbPoint
 10
9264.673057123641
 20
7142.497424545952
 30
0.0
  0
POINT
  5
19AF9
330
163C7
100
AcDbEntity
  8
DEFPOINTS
 62
     0
 48
50.0
100
AcDbPoint
 10
9264.673057123641
 20
6608.066653779701
 30
0.0
  0
ENDBLK
  5
16499
330
163C7
100
AcDbEntity
  8
0
 48
50.0
100
AcDbBlockEnd
  0
BLOCK
  5
172A1
330
163E1
100
AcDbEntity
  8
0
 48
50.0
100
AcDbBlockBegin
  2
*D11
 70
     1
 10
0.0
 20
0.0
 30
0.0
  3
*D11
  1

  0
LINE
  5
19BEB
330
163E1
100
AcDbEntity
  8
寸法
 62
     0
 48
50.0
370
    -2
100
AcDbLine
 10
6744.673057123662
 20
9792.497424545869
 30
0.0
 11
6744.673057123662
 21
10048.30564417096
 31
0.0
  0
LINE
  5
19BEC
330
163E1
100
AcDbEntity
  8
寸法
 62
     0
 48
50.0
370
    -2
100
AcDbLine
 10
9264.673057123664
 20
9792.497424545963
 30
0.0
 11
9264.673057123664
 21
10048.30564417096
 31
0.0
  0
LINE
  5
19BED
330
163E1
100
AcDbEntity
  8
寸法
 62
     0
 48
50.0
370
    -2
100
AcDbLine
 10
6744.673057123662
 20
9988.305644170967
 30
0.0
 11
9264.673057123664
 21
9988.305644170967
 31
0.0
  0
INSERT
  5
19BEE
330
163E1
100
AcDbEntity
  8
寸法
 62
     0
 48
50.0
370
    -2
100
AcDbBlockReference
  2
_DOTSMALL
 10
6744.673057123662
 20
9988.305644170967
 30
0.0
 41
100.0
 42
100.0
 43
100.0
 50
180.0
  0
INSERT
  5
19BEF
330
163E1
100
AcDbEntity
  8
寸法
 62
     0
 48
50.0
370
    -2
100
AcDbBlockReference
  2
_DOTSMALL
 10
9264.673057123664
 20
9988.305644170967
 30
0.0
 41
100.0
 42
100.0
 43
100.0
  0
MTEXT
  5
19BF0
330
163E1
100
AcDbEntity
  8
寸法
 62
     7
 48
50.0
100
AcDbMText
 10
8004.673057123664
 20
10088.31745519459
 30
0.0
 40
120.0
 41
0.0
 71
     5
 72
     1
  1
\A1;6X420=2520
  7
STYLE1
 73
     1
 44
1.0
1001
ACAD
1000
MTEXTBEGIN
1070
    73
1070
     1
1070
    44
1040
1.0
1070
    74
1070
     0
1000
MTEXTEND
  0
POINT
  5
19BF1
330
163E1
100
AcDbEntity
  8
DEFPOINTS
 62
     0
 48
50.0
100
AcDbPoint
 10
6744.673057123662
 20
9772.49742454587
 30
0.0
  0
POINT
  5
19BF2
330
163E1
100
AcDbEntity
  8
DEFPOINTS
 62
     0
 48
50.0
100
AcDbPoint
 10
9264.673057123664
 20
9772.497424545964
 30
0.0
  0
POINT
  5
19BF3
330
163E1
100
AcDbEntity
  8
DEFPOINTS
 62
     0
 48
50.0
100
AcDbPoint
 10
9264.673057123664
 20
9988.305644170967
 30
0.0
  0
ENDBLK
  5
172AB
330
163E1
100
AcDbEntity
  8
0
 48
50.0
100
AcDbBlockEnd
  0
BLOCK
  5
164B0
330
163ED
100
AcDbEntity
  8
0
 48
50.0
100
AcDbBlockBegin
  2
*D12
 70
     1
 10
0.0
 20
0.0
 30
0.0
  3
*D12
  1

  0
LINE
  5
19A95
330
163ED
100
AcDbEntity
  8
寸法
 62
     0
 48
50.0
370
    -2
100
AcDbLine
 10
1429.673057123628
 20
9792.497424545869
 30
0.0
 11
1429.673057123628
 21
10048.30564417085
 31
0.0
  0
LINE
  5
19A96
330
163ED
100
AcDbEntity
  8
寸法
 62
     0
 48
50.0
370
    -2
100
AcDbLine
 10
1484.673057123663
 20
9792.497424545869
 30
0.0
 11
1484.673057123663
 21
10048.30564417085
 31
0.0
  0
LINE
  5
19A97
330
163ED
100
AcDbEntity
  8
寸法
 62
     0
 48
50.0
370
    -2
100
AcDbLine
 10
1484.673057123663
 20
9988.30564417085
 30
0.0
 11
1584.673057123663
 21
9988.30564417085
 31
0.0
  0
LINE
  5
19A98
330
163ED
100
AcDbEntity
  8
寸法
 62
     0
 48
50.0
370
    -2
100
AcDbLine
 10
1429.673057123628
 20
9988.30564417085
 30
0.0
 11
1012.702494375151
 21
9988.30564417085
 31
0.0
  0
LINE
  5
19A99
330
163ED
100
AcDbEntity
  8
寸法
 62
     0
 48
50.0
370
    -2
100
AcDbLine
 10
1484.673057123663
 20
9988.30564417085
 30
0.0
 11
1429.673057123628
 21
9988.30564417085
 31
0.0
  0
INSERT
  5
19A9A
330
163ED
100
AcDbEntity
  8
寸法
 62
     0
 48
50.0
370
    -2
100
AcDbBlockReference
  2
_DOTSMALL
 10
1484.673057123663
 20
9988.30564417085
 30
0.0
 41
100.0
 42
100.0
 43
100.0
 50
180.0
  0
INSERT
  5
19A9B
330
163ED
100
AcDbEntity
  8
寸法
 62
     0
 48
50.0
370
    -2
100
AcDbBlockReference
  2
_DOTSMALL
 10
1429.673057123628
 20
9988.30564417085
 30
0.0
 41
100.0
 42
100.0
 43
100.0
  0
MTEXT
  5
19A9C
330
163ED
100
AcDbEntity
  8
寸法
 62
     7
 48
50.0
100
AcDbMText
 10
1121.187775749389
 20
10088.30564417085
 30
0.0
 40
120.0
 41
0.0
 71
     5
 72
     1
  1
\A1;55
  7
STYLE1
 73
     1
 44
1.0
1001
ACAD
1000
MTEXTBEGIN
1070
    73
1070
     1
1070
    44
1040
1.0
1070
    74
1070
     0
1000
MTEXTEND
  0
POINT
  5
19A9D
330
163ED
100
AcDbEntity
  8
DEFPOINTS
 62
     0
 48
50.0
100
AcDbPoint
 10
1429.673057123628
 20
9772.49742454587
 30
0.0
  0
POINT
  5
19A9E
330
163ED
100
AcDbEntity
  8
DEFPOINTS
 62
     0
 48
50.0
100
AcDbPoint
 10
1484.673057123663
 20
9772.49742454587
 30
0.0
  0
POINT
  5
19A9F
330
163ED
100
AcDbEntity
  8
DEFPOINTS
 62
     0
 48
50.0
100
AcDbPoint
 10
1484.673057123663
 20
9988.30564417085
 30
0.0
  0
ENDBLK
  5
164BC
330
163ED
100
AcDbEntity
  8
0
 48
50.0
100
AcDbBlockEnd
  0
BLOCK
  5
164BD
330
163FB
100
AcDbEntity
  8
0
 48
50.0
100
AcDbBlockBegin
  2
*D13
 70
     1
 10
0.0
 20
0.0
 30
0.0
  3
*D13
  1

  0
LINE
  5
19ADB
330
163FB
100
AcDbEntity
  8
寸法
 62
     0
 48
50.0
370
    -2
100
AcDbLine
 10
9264.673057123664
 20
9792.497424545963
 30
0.0
 11
9264.673057123664
 21
10048.30564417095
 31
0.0
  0
LINE
  5
19ADC
330
163FB
100
AcDbEntity
  8
寸法
 62
     0
 48
50.0
370
    -2
100
AcDbLine
 10
9319.673057123663
 20
9792.497424545963
 30
0.0
 11
9319.673057123663
 21
10048.30564417095
 31
0.0
  0
LINE
  5
19ADD
330
163FB
100
AcDbEntity
  8
寸法
 62
     0
 48
50.0
370
    -2
100
AcDbLine
 10
9264.673057123664
 20
9988.305644170949
 30
0.0
 11
9164.673057123664
 21
9988.305644170949
 31
0.0
  0
LINE
  5
19ADE
330
163FB
100
AcDbEntity
  8
寸法
 62
     0
 48
50.0
370
    -2
100
AcDbLine
 10
9319.673057123663
 20
9988.305644170949
 30
0.0
 11
9736.64361987214
 21
9988.305644170949
 31
0.0
  0
LINE
  5
19ADF
330
163FB
100
AcDbEntity
  8
寸法
 62
     0
 48
50.0
370
    -2
100
AcDbLine
 10
9264.673057123664
 20
9988.305644170949
 30
0.0
 11
9319.673057123663
 21
9988.305644170949
 31
0.0
  0
INSERT
  5
19AE0
330
163FB
100
AcDbEntity
  8
寸法
 62
     0
 48
50.0
370
    -2
100
AcDbBlockReference
  2
_DOTSMALL
 10
9264.673057123664
 20
9988.305644170949
 30
0.0
 41
100.0
 42
100.0
 43
100.0
  0
INSERT
  5
19AE1
330
163FB
100
AcDbEntity
  8
寸法
 62
     0
 48
50.0
370
    -2
100
AcDbBlockReference
  2
_DOTSMALL
 10
9319.673057123663
 20
9988.305644170949
 30
0.0
 41
100.0
 42
100.0
 43
100.0
 50
180.0
  0
MTEXT
  5
19AE2
330
163FB
100
AcDbEntity
  8
寸法
 62
     7
 48
50.0
100
AcDbMText
 10
9628.158338497904
 20
10088.30564417095
 30
0.0
 40
120.0
 41
0.0
 71
     5
 72
     1
  1
\A1;55
  7
STYLE1
 73
     1
 44
1.0
1001
ACAD
1000
MTEXTBEGIN
1070
    73
1070
     1
1070
    44
1040
1.0
1070
    74
1070
     0
1000
MTEXTEND
  0
POINT
  5
19AE3
330
163FB
100
AcDbEntity
  8
DEFPOINTS
 62
     0
 48
50.0
100
AcDbPoint
 10
9264.673057123664
 20
9772.497424545964
 30
0.0
  0
POINT
  5
19AE4
330
163FB
100
AcDbEntity
  8
DEFPOINTS
 62
     0
 48
50.0
100
AcDbPoint
 10
9319.673057123663
 20
9772.497424545964
 30
0.0
  0
POINT
  5
19AE5
330
163FB
100
AcDbEntity
  8
DEFPOINTS
 62
     0
 48
50.0
100
AcDbPoint
 10
9319.673057123663
 20
9988.305644170949
 30
0.0
  0
ENDBLK
  5
164C9
330
163FB
100
AcDbEntity
  8
0
 48
50.0
100
AcDbBlockEnd
  0
BLOCK
  5
165B6
330
165B5
100
AcDbEntity
  8
0
 48
50.0
100
AcDbBlockBegin
  2
*D14
 70
     1
 10
0.0
 20
0.0
 30
0.0
  3
*D14
  1

  0
LINE
  5
19A8A
330
165B5
100
AcDbEntity
  8
寸法
 62
     0
 48
50.0
370
    -2
100
AcDbLine
 10
1532.673057123657
 20
7148.497424545865
 30
0.0
 11
1532.673057123657
 21
6548.0666537797
 31
0.0
  0
LINE
  5
19A8B
330
165B5
100
AcDbEntity
  8
寸法
 62
     0
 48
50.0
370
    -2
100
AcDbLine
 10
1484.673057123653
 20
7122.497424545864
 30
0.0
 11
1484.673057123653
 21
6548.0666537797
 31
0.0
  0
LINE
  5
19A8C
330
165B5
100
AcDbEntity
  8
寸法
 62
     0
 48
50.0
370
    -2
100
AcDbLine
 10
1532.673057123657
 20
6608.0666537797
 30
0.0
 11
1632.673057123656
 21
6608.0666537797
 31
0.0
  0
LINE
  5
19A8D
330
165B5
100
AcDbEntity
  8
寸法
 62
     0
 48
50.0
370
    -2
100
AcDbLine
 10
1484.673057123653
 20
6608.0666537797
 30
0.0
 11
1384.673057123653
 21
6608.0666537797
 31
0.0
  0
MTEXT
  5
19A8E
330
165B5
100
AcDbEntity
  8
寸法
 62
     7
 48
50.0
100
AcDbMText
 10
1645.575028123714
 20
6708.0666537797
 30
0.0
 40
120.0
 41
0.0
 71
     5
 72
     1
  1
\A1;48
  7
STYLE1
 73
     1
 44
1.0
1001
ACAD
1000
MTEXTBEGIN
1070
    73
1070
     1
1070
    44
1040
1.0
1070
    74
1070
     0
1000
MTEXTEND
  0
LINE
  5
19A8F
330
165B5
100
AcDbEntity
  8
寸法
 62
     0
 48
50.0
370
    -2
100
AcDbLine
 10
1532.673057123657
 20
6608.0666537797
 30
0.0
 11
1484.673057123653
 21
6608.0666537797
 31
0.0
  0
INSERT
  5
19A90
330
165B5
100
AcDbEntity
  8
寸法
 62
     0
 48
50.0
370
    -2
100
AcDbBlockReference
  2
_DOTSMALL
 10
1532.673057123657
 20
6608.0666537797
 30
0.0
 41
100.0
 42
100.0
 43
100.0
 50
180.0
  0
INSERT
  5
19A91
330
165B5
100
AcDbEntity
  8
寸法
 62
     0
 48
50.0
370
    -2
100
AcDbBlockReference
  2
_DOTSMALL
 10
1484.673057123653
 20
6608.0666537797
 30
0.0
 41
100.0
 42
100.0
 43
100.0
  0
POINT
  5
19A92
330
165B5
100
AcDbEntity
  8
DEFPOINTS
 62
     0
 48
50.0
100
AcDbPoint
 10
1532.673057123657
 20
7168.497424545865
 30
0.0
  0
POINT
  5
19A93
330
165B5
100
AcDbEntity
  8
DEFPOINTS
 62
     0
 48
50.0
100
AcDbPoint
 10
1484.673057123653
 20
7142.497424545864
 30
0.0
  0
POINT
  5
19A94
330
165B5
100
AcDbEntity
  8
DEFPOINTS
 62
     0
 48
50.0
100
AcDbPoint
 10
1484.673057123653
 20
6608.0666537797
 30
0.0
  0
ENDBLK
  5
165C3
330
165B5
100
AcDbEntity
  8
0
 48
50.0
100
AcDbBlockEnd
  0
BLOCK
  5
165C5
330
165C4
100
AcDbEntity
  8
0
 48
50.0
100
AcDbBlockBegin
  2
*D15
 70
     1
 10
0.0
 20
0.0
 30
0.0
  3
*D15
  1

  0
LINE
  5
19AD0
330
165C4
100
AcDbEntity
  8
寸法
 62
     0
 48
50.0
370
    -2
100
AcDbLine
 10
6634.673057123641
 20
7122.497424545952
 30
0.0
 11
6634.673057123641
 21
6548.0666537797
 31
0.0
  0
LINE
  5
19AD1
330
165C4
100
AcDbEntity
  8
寸法
 62
     0
 48
50.0
370
    -2
100
AcDbLine
 10
6586.673057123639
 20
7148.497424545865
 30
0.0
 11
6586.673057123639
 21
6548.0666537797
 31
0.0
  0
LINE
  5
19AD2
330
165C4
100
AcDbEntity
  8
寸法
 62
     0
 48
50.0
370
    -2
100
AcDbLine
 10
6634.673057123641
 20
6608.0666537797
 30
0.0
 11
6734.67305712364
 21
6608.0666537797
 31
0.0
  0
LINE
  5
19AD3
330
165C4
100
AcDbEntity
  8
寸法
 62
     0
 48
50.0
370
    -2
100
AcDbLine
 10
6586.673057123639
 20
6608.0666537797
 30
0.0
 11
6486.673057123638
 21
6608.0666537797
 31
0.0
  0
MTEXT
  5
19AD4
330
165C4
100
AcDbEntity
  8
寸法
 62
     7
 48
50.0
100
AcDbMText
 10
6475.710159474892
 20
6708.0666537797
 30
0.0
 40
120.0
 41
0.0
 71
     5
 72
     1
  1
\A1;48
  7
STYLE1
 73
     1
 44
1.0
1001
ACAD
1000
MTEXTBEGIN
1070
    73
1070
     1
1070
    44
1040
1.0
1070
    74
1070
     0
1000
MTEXTEND
  0
LINE
  5
19AD5
330
165C4
100
AcDbEntity
  8
寸法
 62
     0
 48
50.0
370
    -2
100
AcDbLine
 10
6634.673057123641
 20
6608.0666537797
 30
0.0
 11
6586.673057123639
 21
6608.0666537797
 31
0.0
  0
INSERT
  5
19AD6
330
165C4
100
AcDbEntity
  8
寸法
 62
     0
 48
50.0
370
    -2
100
AcDbBlockReference
  2
_DOTSMALL
 10
6634.673057123641
 20
6608.0666537797
 30
0.0
 41
100.0
 42
100.0
 43
100.0
 50
180.0
  0
INSERT
  5
19AD7
330
165C4
100
AcDbEntity
  8
寸法
 62
     0
 48
50.0
370
    -2
100
AcDbBlockReference
  2
_DOTSMALL
 10
6586.673057123639
 20
6608.0666537797
 30
0.0
 41
100.0
 42
100.0
 43
100.0
  0
POINT
  5
19AD8
330
165C4
100
AcDbEntity
  8
DEFPOINTS
 62
     0
 48
50.0
100
AcDbPoint
 10
6634.673057123641
 20
7142.497424545952
 30
0.0
  0
POINT
  5
19AD9
330
165C4
100
AcDbEntity
  8
DEFPOINTS
 62
     0
 48
50.0
100
AcDbPoint
 10
6586.673057123639
 20
7168.497424545865
 30
0.0
  0
POINT
  5
19ADA
330
165C4
100
AcDbEntity
  8
DEFPOINTS
 62
     0
 48
50.0
100
AcDbPoint
 10
6586.673057123639
 20
6608.0666537797
 30
0.0
  0
ENDBLK
  5
165D2
330
165C4
100
AcDbEntity
  8
0
 48
50.0
100
AcDbBlockEnd
  0
BLOCK
  5
1663F
330
165EA
100
AcDbEntity
  8
0
 48
50.0
100
AcDbBlockBegin
  2
*D16
 70
     1
 10
0.0
 20
0.0
 30
0.0
  3
*D16
  1

  0
LINE
  5
19AC7
330
165EA
100
AcDbEntity
  8
寸法
 62
     0
 48
50.0
370
    -2
100
AcDbLine
 10
6744.673057123653
 20
7122.497424545864
 30
0.0
 11
6744.673057123653
 21
6548.066653779702
 31
0.0
  0
LINE
  5
19AC8
330
165EA
100
AcDbEntity
  8
寸法
 62
     0
 48
50.0
370
    -2
100
AcDbLine
 10
6634.673057123641
 20
7122.497424545952
 30
0.0
 11
6634.673057123641
 21
6548.066653779702
 31
0.0
  0
LINE
  5
19AC9
330
165EA
100
AcDbEntity
  8
寸法
 62
     0
 48
50.0
370
    -2
100
AcDbLine
 10
6744.673057123653
 20
6608.066653779701
 30
0.0
 11
6634.673057123641
 21
6608.066653779701
 31
0.0
  0
MTEXT
  5
19ACA
330
165EA
100
AcDbEntity
  8
寸法
 62
     7
 48
50.0
100
AcDbMText
 10
6689.673057123648
 20
6456.37475874347
 30
0.0
 40
120.0
 41
0.0
 71
     5
 72
     1
  1
\A1;110
  7
STYLE1
 73
     1
 44
1.0
1001
ACAD
1000
MTEXTBEGIN
1070
    73
1070
     1
1070
    44
1040
1.0
1070
    74
1070
     0
1000
MTEXTEND
  0
INSERT
  5
19ACB
330
165EA
100
AcDbEntity
  8
寸法
 62
     0
 48
50.0
370
    -2
100
AcDbBlockReference
  2
_DOTSMALL
 10
6744.673057123653
 20
6608.066653779701
 30
0.0
 41
100.0
 42
100.0
 43
100.0
  0
INSERT
  5
19ACC
330
165EA
100
AcDbEntity
  8
寸法
 62
     0
 48
50.0
370
    -2
100
AcDbBlockReference
  2
_DOTSMALL
 10
6634.673057123641
 20
6608.066653779701
 30
0.0
 41
100.0
 42
100.0
 43
100.0
 50
180.0
  0
POINT
  5
19ACD
330
165EA
100
AcDbEntity
  8
DEFPOINTS
 62
     0
 48
50.0
100
AcDbPoint
 10
6744.673057123653
 20
7142.497424545864
 30
0.0
  0
POINT
  5
19ACE
330
165EA
100
AcDbEntity
  8
DEFPOINTS
 62
     0
 48
50.0
100
AcDbPoint
 10
6634.673057123641
 20
7142.497424545952
 30
0.0
  0
POINT
  5
19ACF
330
165EA
100
AcDbEntity
  8
DEFPOINTS
 62
     0
 48
50.0
100
AcDbPoint
 10
6634.673057123641
 20
6608.066653779701
 30
0.0
  0
ENDBLK
  5
16649
330
165EA
100
AcDbEntity
  8
0
 48
50.0
100
AcDbBlockEnd
  0
BLOCK
  5
166D0
330
166CF
100
AcDbEntity
  8
0
 48
50.0
100
AcDbBlockBegin
  2
*D17
 70
     1
 10
0.0
 20
0.0
 30
0.0
  3
*D17
  1

  0
LINE
  5
19ABC
330
166CF
100
AcDbEntity
  8
寸法
 62
     0
 48
50.0
370
    -2
100
AcDbLine
 10
6744.673057123662
 20
9792.497424545919
 30
0.0
 11
6744.673057123662
 21
10048.30564417096
 31
0.0
  0
LINE
  5
19ABD
330
166CF
100
AcDbEntity
  8
寸法
 62
     0
 48
50.0
370
    -2
100
AcDbLine
 10
6634.673057123663
 20
9792.497424545913
 30
0.0
 11
6634.673057123663
 21
10048.30564417096
 31
0.0
  0
LINE
  5
19ABE
330
166CF
100
AcDbEntity
  8
寸法
 62
     0
 48
50.0
370
    -2
100
AcDbLine
 10
6744.673057123662
 20
9988.305644170967
 30
0.0
 11
6844.673057123663
 21
9988.305644170967
 31
0.0
  0
LINE
  5
19ABF
330
166CF
100
AcDbEntity
  8
寸法
 62
     0
 48
50.0
370
    -2
100
AcDbLine
 10
6634.673057123663
 20
9988.305644170967
 30
0.0
 11
6534.673057123663
 21
9988.305644170967
 31
0.0
  0
LINE
  5
19AC0
330
166CF
100
AcDbEntity
  8
寸法
 62
     0
 48
50.0
370
    -2
100
AcDbLine
 10
6744.673057123662
 20
9988.305644170967
 30
0.0
 11
6634.673057123663
 21
9988.305644170967
 31
0.0
  0
INSERT
  5
19AC1
330
166CF
100
AcDbEntity
  8
寸法
 62
     0
 48
50.0
370
    -2
100
AcDbBlockReference
  2
_DOTSMALL
 10
6744.673057123662
 20
9988.305644170967
 30
0.0
 41
100.0
 42
100.0
 43
100.0
 50
180.0
  0
INSERT
  5
19AC2
330
166CF
100
AcDbEntity
  8
寸法
 62
     0
 48
50.0
370
    -2
100
AcDbBlockReference
  2
_DOTSMALL
 10
6634.673057123663
 20
9988.305644170967
 30
0.0
 41
100.0
 42
100.0
 43
100.0
  0
MTEXT
  5
19AC3
330
166CF
100
AcDbEntity
  8
寸法
 62
     7
 48
50.0
100
AcDbMText
 10
6689.673057123664
 20
10088.30564417096
 30
0.0
 40
120.0
 41
0.0
 71
     5
 72
     1
  1
\A1;110
  7
STYLE1
 73
     1
 44
1.0
1001
ACAD
1000
MTEXTBEGIN
1070
    73
1070
     1
1070
    44
1040
1.0
1070
    74
1070
     0
1000
MTEXTEND
  0
POINT
  5
19AC4
330
166CF
100
AcDbEntity
  8
DEFPOINTS
 62
     0
 48
50.0
100
AcDbPoint
 10
6744.673057123662
 20
9772.497424545917
 30
0.0
  0
POINT
  5
19AC5
330
166CF
100
AcDbEntity
  8
DEFPOINTS
 62
     0
 48
50.0
100
AcDbPoint
 10
6634.673057123663
 20
9772.497424545916
 30
0.0
  0
POINT
  5
19AC6
330
166CF
100
AcDbEntity
  8
DEFPOINTS
 62
     0
 48
50.0
100
AcDbPoint
 10
6634.673057123663
 20
9988.305644170967
 30
0.0
  0
ENDBLK
  5
166DC
330
166CF
100
AcDbEntity
  8
0
 48
50.0
100
AcDbBlockEnd
  0
BLOCK
  5
1726C
330
16908
100
AcDbEntity
  8
0
 48
50.0
100
AcDbBlockBegin
  2
*D18
 70
     1
 10
0.0
 20
0.0
 30
0.0
  3
*D18
  1

  0
LINE
  5
19AB4
330
16908
100
AcDbEntity
  8
寸法
 62
     0
 48
50.0
370
    -2
100
AcDbLine
 10
9319.673057123663
 20
9792.497424545963
 30
0.0
 11
9319.673057123663
 21
10297.62711772726
 31
0.0
  0
LINE
  5
19AB5
330
16908
100
AcDbEntity
  8
寸法
 62
     0
 48
50.0
370
    -2
100
AcDbLine
 10
6689.673057123664
 20
10237.62711772726
 30
0.0
 11
9319.673057123663
 21
10237.62711772726
 31
0.0
  0
INSERT
  5
19AB6
330
16908
100
AcDbEntity
  8
寸法
 62
     0
 48
50.0
370
    -2
100
AcDbBlockReference
  2
_DOTSMALL
 10
6689.673057123664
 20
10237.62711772726
 30
0.0
 41
100.0
 42
100.0
 43
100.0
 50
180.0
  0
INSERT
  5
19AB7
330
16908
100
AcDbEntity
  8
寸法
 62
     0
 48
50.0
370
    -2
100
AcDbBlockReference
  2
_DOTSMALL
 10
9319.673057123663
 20
10237.62711772726
 30
0.0
 41
100.0
 42
100.0
 43
100.0
  0
MTEXT
  5
19AB8
330
16908
100
AcDbEntity
  8
寸法
 62
     7
 48
50.0
100
AcDbMText
 10
8004.673057123664
 20
10337.63892875088
 30
0.0
 40
120.0
 41
0.0
 71
     5
 72
     1
  1
\A1;2630
  7
STYLE1
 73
     1
 44
1.0
1001
ACAD
1000
MTEXTBEGIN
1070
    73
1070
     1
1070
    44
1040
1.0
1070
    74
1070
     0
1000
MTEXTEND
  0
POINT
  5
19AB9
330
16908
100
AcDbEntity
  8
DEFPOINTS
 62
     0
 48
50.0
100
AcDbPoint
 10
6689.673057123664
 20
10147.29355852891
 30
0.0
  0
POINT
  5
19ABA
330
16908
100
AcDbEntity
  8
DEFPOINTS
 62
     0
 48
50.0
100
AcDbPoint
 10
9319.673057123663
 20
9772.497424545964
 30
0.0
  0
POINT
  5
19ABB
330
16908
100
AcDbEntity
  8
DEFPOINTS
 62
     0
 48
50.0
100
AcDbPoint
 10
9319.673057123663
 20
10237.62711772726
 30
0.0
  0
ENDBLK
  5
17275
330
16908
100
AcDbEntity
  8
0
 48
50.0
100
AcDbBlockEnd
  0
BLOCK
  5
17BD1
330
17BC5
100
AcDbEntity
  8
0
 48
50.0
100
AcDbBlockBegin
  2
*D19
 70
     1
 10
0.0
 20
0.0
 30
0.0
  3
*D19
  1

  0
LINE
  5
19A5A
330
17BC5
100
AcDbEntity
  8
寸法
 62
     0
 48
50.0
370
    -2
100
AcDbLine
 10
4004.67305712364
 20
7122.497424545952
 30
0.0
 11
4004.67305712364
 21
6548.0666537797
 31
0.0
  0
LINE
  5
19A5B
330
17BC5
100
AcDbEntity
  8
寸法
 62
     0
 48
50.0
370
    -2
100
AcDbLine
 10
3956.673057123639
 20
7148.497424545865
 30
0.0
 11
3956.673057123639
 21
6548.0666537797
 31
0.0
  0
LINE
  5
19A5C
330
17BC5
100
AcDbEntity
  8
寸法
 62
     0
 48
50.0
370
    -2
100
AcDbLine
 10
4004.67305712364
 20
6608.0666537797
 30
0.0
 11
4104.67305712364
 21
6608.0666537797
 31
0.0
  0
LINE
  5
19A5D
330
17BC5
100
AcDbEntity
  8
寸法
 62
     0
 48
50.0
370
    -2
100
AcDbLine
 10
3956.673057123639
 20
6608.0666537797
 30
0.0
 11
3856.673057123638
 21
6608.0666537797
 31
0.0
  0
MTEXT
  5
19A5E
330
17BC5
100
AcDbEntity
  8
寸法
 62
     7
 48
50.0
100
AcDbMText
 10
3845.710159474892
 20
6708.0666537797
 30
0.0
 40
120.0
 41
0.0
 71
     5
 72
     1
  1
\A1;48
  7
STYLE1
 73
     1
 44
1.0
1001
ACAD
1000
MTEXTBEGIN
1070
    73
1070
     1
1070
    44
1040
1.0
1070
    74
1070
     0
1000
MTEXTEND
  0
LINE
  5
19A5F
330
17BC5
100
AcDbEntity
  8
寸法
 62
     0
 48
50.0
370
    -2
100
AcDbLine
 10
4004.67305712364
 20
6608.0666537797
 30
0.0
 11
3956.673057123639
 21
6608.0666537797
 31
0.0
  0
INSERT
  5
19A60
330
17BC5
100
AcDbEntity
  8
寸法
 62
     0
 48
50.0
370
    -2
100
AcDbBlockReference
  2
_DOTSMALL
 10
4004.67305712364
 20
6608.0666537797
 30
0.0
 41
100.0
 42
100.0
 43
100.0
 50
180.0
  0
INSERT
  5
19A61
330
17BC5
100
AcDbEntity
  8
寸法
 62
     0
 48
50.0
370
    -2
100
AcDbBlockReference
  2
_DOTSMALL
 10
3956.673057123639
 20
6608.0666537797
 30
0.0
 41
100.0
 42
100.0
 43
100.0
  0
POINT
  5
19A62
330
17BC5
100
AcDbEntity
  8
DEFPOINTS
 62
     0
 48
50.0
100
AcDbPoint
 10
4004.67305712364
 20
7142.497424545952
 30
0.0
  0
POINT
  5
19A63
330
17BC5
100
AcDbEntity
  8
DEFPOINTS
 62
     0
 48
50.0
100
AcDbPoint
 10
3956.673057123639
 20
7168.497424545865
 30
0.0
  0
POINT
  5
19A64
330
17BC5
100
AcDbEntity
  8
DEFPOINTS
 62
     0
 48
50.0
100
AcDbPoint
 10
3956.673057123639
 20
6608.0666537797
 30
0.0
  0
ENDBLK
  5
17BD2
330
17BC5
100
AcDbEntity
  8
0
 48
50.0
100
AcDbBlockEnd
  0
BLOCK
  5
17BDC
330
17BD3
100
AcDbEntity
  8
0
 48
50.0
100
AcDbBlockBegin
  2
*D20
 70
     1
 10
0.0
 20
0.0
 30
0.0
  3
*D20
  1

  0
LINE
  5
19A65
330
17BD3
100
AcDbEntity
  8
寸法
 62
     0
 48
50.0
370
    -2
100
AcDbLine
 10
1532.673057123657
 20
7148.497424545865
 30
0.0
 11
1532.673057123657
 21
6548.0666537797
 31
0.0
  0
LINE
  5
19A66
330
17BD3
100
AcDbEntity
  8
寸法
 62
     0
 48
50.0
370
    -2
100
AcDbLine
 10
3956.673057123639
 20
6608.0666537797
 30
0.0
 11
1532.673057123657
 21
6608.0666537797
 31
0.0
  0
INSERT
  5
19A67
330
17BD3
100
AcDbEntity
  8
寸法
 62
     0
 48
50.0
370
    -2
100
AcDbBlockReference
  2
_DOTSMALL
 10
3956.673057123639
 20
6608.0666537797
 30
0.0
 41
100.0
 42
100.0
 43
100.0
  0
INSERT
  5
19A68
330
17BD3
100
AcDbEntity
  8
寸法
 62
     0
 48
50.0
370
    -2
100
AcDbBlockReference
  2
_DOTSMALL
 10
1532.673057123657
 20
6608.0666537797
 30
0.0
 41
100.0
 42
100.0
 43
100.0
 50
180.0
  0
MTEXT
  5
19A69
330
17BD3
100
AcDbEntity
  8
寸法
 62
     7
 48
50.0
100
AcDbMText
 10
2744.673057123648
 20
6708.078464803323
 30
0.0
 40
120.0
 41
0.0
 71
     5
 72
     1
  1
\A1;有効開口部間口 2424
  7
STYLE1
 73
     1
 44
1.0
1001
ACAD
1000
MTEXTBEGIN
1070
    73
1070
     1
1070
    44
1040
1.0
1070
    74
1070
     0
1000
MTEXTEND
  0
POINT
  5
19A6A
330
17BD3
100
AcDbEntity
  8
DEFPOINTS
 62
     0
 48
50.0
100
AcDbPoint
 10
3956.673057123639
 20
7168.497424545865
 30
0.0
  0
POINT
  5
19A6B
330
17BD3
100
AcDbEntity
  8
DEFPOINTS
 62
     0
 48
50.0
100
AcDbPoint
 10
1532.673057123657
 20
7168.497424545865
 30
0.0
  0
POINT
  5
19A6C
330
17BD3
100
AcDbEntity
  8
DEFPOINTS
 62
     0
 48
50.0
100
AcDbPoint
 10
1532.673057123657
 20
6608.0666537797
 30
0.0
  0
ENDBLK
  5
17BDD
330
17BD3
100
AcDbEntity
  8
0
 48
50.0
100
AcDbBlockEnd
  0
BLOCK
  5
17BE8
330
17BDE
100
AcDbEntity
  8
0
 48
50.0
100
AcDbBlockBegin
  2
*D21
 70
     1
 10
0.0
 20
0.0
 30
0.0
  3
*D21
  1

  0
LINE
  5
19BE2
330
17BDE
100
AcDbEntity
  8
寸法
 62
     0
 48
50.0
370
    -2
100
AcDbLine
 10
1484.673057123663
 20
9792.497424545869
 30
0.0
 11
1484.673057123663
 21
10048.30564417096
 31
0.0
  0
LINE
  5
19BE3
330
17BDE
100
AcDbEntity
  8
寸法
 62
     0
 48
50.0
370
    -2
100
AcDbLine
 10
4004.673057123664
 20
9792.497424545963
 30
0.0
 11
4004.673057123664
 21
10048.30564417096
 31
0.0
  0
LINE
  5
19BE4
330
17BDE
100
AcDbEntity
  8
寸法
 62
     0
 48
50.0
370
    -2
100
AcDbLine
 10
1484.673057123663
 20
9988.305644170967
 30
0.0
 11
4004.673057123664
 21
9988.305644170967
 31
0.0
  0
INSERT
  5
19BE5
330
17BDE
100
AcDbEntity
  8
寸法
 62
     0
 48
50.0
370
    -2
100
AcDbBlockReference
  2
_DOTSMALL
 10
1484.673057123663
 20
9988.305644170967
 30
0.0
 41
100.0
 42
100.0
 43
100.0
 50
180.0
  0
INSERT
  5
19BE6
330
17BDE
100
AcDbEntity
  8
寸法
 62
     0
 48
50.0
370
    -2
100
AcDbBlockReference
  2
_DOTSMALL
 10
4004.673057123664
 20
9988.305644170967
 30
0.0
 41
100.0
 42
100.0
 43
100.0
  0
MTEXT
  5
19BE7
330
17BDE
100
AcDbEntity
  8
寸法
 62
     7
 48
50.0
100
AcDbMText
 10
2744.673057123664
 20
10088.31745519459
 30
0.0
 40
120.0
 41
0.0
 71
     5
 72
     1
  1
\A1;6X420=2520
  7
STYLE1
 73
     1
 44
1.0
1001
ACAD
1000
MTEXTBEGIN
1070
    73
1070
     1
1070
    44
1040
1.0
1070
    74
1070
     0
1000
MTEXTEND
  0
POINT
  5
19BE8
330
17BDE
100
AcDbEntity
  8
DEFPOINTS
 62
     0
 48
50.0
100
AcDbPoint
 10
1484.673057123663
 20
9772.49742454587
 30
0.0
  0
POINT
  5
19BE9
330
17BDE
100
AcDbEntity
  8
DEFPOINTS
 62
     0
 48
50.0
100
AcDbPoint
 10
4004.673057123664
 20
9772.497424545964
 30
0.0
  0
POINT
  5
19BEA
330
17BDE
100
AcDbEntity
  8
DEFPOINTS
 62
     0
 48
50.0
100
AcDbPoint
 10
4004.673057123664
 20
9988.305644170967
 30
0.0
  0
ENDBLK
  5
17BE9
330
17BDE
100
AcDbEntity
  8
0
 48
50.0
100
AcDbBlockEnd
  0
BLOCK
  5
17BF6
330
17BEA
100
AcDbEntity
  8
0
 48
50.0
100
AcDbBlockBegin
  2
*D22
 70
     1
 10
0.0
 20
0.0
 30
0.0
  3
*D22
  1

  0
LINE
  5
19A6D
330
17BEA
100
AcDbEntity
  8
寸法
 62
     0
 48
50.0
370
    -2
100
AcDbLine
 10
4114.673057123662
 20
9792.497424545919
 30
0.0
 11
4114.673057123662
 21
10048.30564417096
 31
0.0
  0
LINE
  5
19A6E
330
17BEA
100
AcDbEntity
  8
寸法
 62
     0
 48
50.0
370
    -2
100
AcDbLine
 10
4004.673057123664
 20
9792.497424545913
 30
0.0
 11
4004.673057123664
 21
10048.30564417096
 31
0.0
  0
LINE
  5
19A6F
330
17BEA
100
AcDbEntity
  8
寸法
 62
     0
 48
50.0
370
    -2
100
AcDbLine
 10
4114.673057123662
 20
9988.305644170967
 30
0.0
 11
4214.673057123663
 21
9988.305644170967
 31
0.0
  0
LINE
  5
19A70
330
17BEA
100
AcDbEntity
  8
寸法
 62
     0
 48
50.0
370
    -2
100
AcDbLine
 10
4004.673057123664
 20
9988.305644170967
 30
0.0
 11
3904.673057123665
 21
9988.305644170967
 31
0.0
  0
LINE
  5
19A71
330
17BEA
100
AcDbEntity
  8
寸法
 62
     0
 48
50.0
370
    -2
100
AcDbLine
 10
4114.673057123662
 20
9988.305644170967
 30
0.0
 11
4004.673057123664
 21
9988.305644170967
 31
0.0
  0
INSERT
  5
19A72
330
17BEA
100
AcDbEntity
  8
寸法
 62
     0
 48
50.0
370
    -2
100
AcDbBlockReference
  2
_DOTSMALL
 10
4114.673057123662
 20
9988.305644170967
 30
0.0
 41
100.0
 42
100.0
 43
100.0
 50
180.0
  0
INSERT
  5
19A73
330
17BEA
100
AcDbEntity
  8
寸法
 62
     0
 48
50.0
370
    -2
100
AcDbBlockReference
  2
_DOTSMALL
 10
4004.673057123664
 20
9988.305644170967
 30
0.0
 41
100.0
 42
100.0
 43
100.0
  0
MTEXT
  5
19A74
330
17BEA
100
AcDbEntity
  8
寸法
 62
     7
 48
50.0
100
AcDbMText
 10
4059.673057123663
 20
10088.30564417096
 30
0.0
 40
120.0
 41
0.0
 71
     5
 72
     1
  1
\A1;110
  7
STYLE1
 73
     1
 44
1.0
1001
ACAD
1000
MTEXTBEGIN
1070
    73
1070
     1
1070
    44
1040
1.0
1070
    74
1070
     0
1000
MTEXTEND
  0
POINT
  5
19A75
330
17BEA
100
AcDbEntity
  8
DEFPOINTS
 62
     0
 48
50.0
100
AcDbPoint
 10
4114.673057123662
 20
9772.497424545917
 30
0.0
  0
POINT
  5
19A76
330
17BEA
100
AcDbEntity
  8
DEFPOINTS
 62
     0
 48
50.0
100
AcDbPoint
 10
4004.673057123664
 20
9772.497424545916
 30
0.0
  0
POINT
  5
19A77
330
17BEA
100
AcDbEntity
  8
DEFPOINTS
 62
     0
 48
50.0
100
AcDbPoint
 10
4004.673057123664
 20
9988.305644170967
 30
0.0
  0
ENDBLK
  5
17BF7
330
17BEA
100
AcDbEntity
  8
0
 48
50.0
100
AcDbBlockEnd
  0
BLOCK
  5
17C02
330
17BF8
100
AcDbEntity
  8
0
 48
50.0
100
AcDbBlockBegin
  2
*D23
 70
     1
 10
0.0
 20
0.0
 30
0.0
  3
*D23
  1

  0
LINE
  5
19A81
330
17BF8
100
AcDbEntity
  8
寸法
 62
     0
 48
50.0
370
    -2
100
AcDbLine
 10
1429.673057123628
 20
9792.497424545835
 30
0.0
 11
1429.673057123628
 21
10297.62711772726
 31
0.0
  0
LINE
  5
19A82
330
17BF8
100
AcDbEntity
  8
寸法
 62
     0
 48
50.0
370
    -2
100
AcDbLine
 10
4059.673057123664
 20
10167.29355852891
 30
0.0
 11
4059.673057123664
 21
10297.62711772726
 31
0.0
  0
LINE
  5
19A83
330
17BF8
100
AcDbEntity
  8
寸法
 62
     0
 48
50.0
370
    -2
100
AcDbLine
 10
1429.673057123628
 20
10237.62711772726
 30
0.0
 11
4059.673057123664
 21
10237.62711772726
 31
0.0
  0
INSERT
  5
19A84
330
17BF8
100
AcDbEntity
  8
寸法
 62
     0
 48
50.0
370
    -2
100
AcDbBlockReference
  2
_DOTSMALL
 10
1429.673057123628
 20
10237.62711772726
 30
0.0
 41
100.0
 42
100.0
 43
100.0
 50
180.0
  0
INSERT
  5
19A85
330
17BF8
100
AcDbEntity
  8
寸法
 62
     0
 48
50.0
370
    -2
100
AcDbBlockReference
  2
_DOTSMALL
 10
4059.673057123664
 20
10237.62711772726
 30
0.0
 41
100.0
 42
100.0
 43
100.0
  0
MTEXT
  5
19A86
330
17BF8
100
AcDbEntity
  8
寸法
 62
     7
 48
50.0
100
AcDbMText
 10
2744.673057123646
 20
10337.63892875088
 30
0.0
 40
120.0
 41
0.0
 71
     5
 72
     1
  1
\A1;2630
  7
STYLE1
 73
     1
 44
1.0
1001
ACAD
1000
MTEXTBEGIN
1070
    73
1070
     1
1070
    44
1040
1.0
1070
    74
1070
     0
1000
MTEXTEND
  0
POINT
  5
19A87
330
17BF8
100
AcDbEntity
  8
DEFPOINTS
 62
     0
 48
50.0
100
AcDbPoint
 10
1429.673057123628
 20
9772.497424545838
 30
0.0
  0
POINT
  5
19A88
330
17BF8
100
AcDbEntity
  8
DEFPOINTS
 62
     0
 48
50.0
100
AcDbPoint
 10
4059.673057123664
 20
10147.29355852891
 30
0.0
  0
POINT
  5
19A89
330
17BF8
100
AcDbEntity
  8
DEFPOINTS
 62
     0
 48
50.0
100
AcDbPoint
 10
4059.673057123664
 20
10237.62711772726
 30
0.0
  0
ENDBLK
  5
17C03
330
17BF8
100
AcDbEntity
  8
0
 48
50.0
100
AcDbBlockEnd
  0
BLOCK
  5
17C54
330
17C48
100
AcDbEntity
  8
0
 48
50.0
100
AcDbBlockBegin
  2
*D24
 70
     1
 10
0.0
 20
0.0
 30
0.0
  3
*D24
  1

  0
LINE
  5
19A46
330
17C48
100
AcDbEntity
  8
寸法
 62
     0
 48
50.0
370
    -2
100
AcDbLine
 10
4162.673057123657
 20
7148.497424545865
 30
0.0
 11
4162.673057123657
 21
6548.0666537797
 31
0.0
  0
LINE
  5
19A47
330
17C48
100
AcDbEntity
  8
寸法
 62
     0
 48
50.0
370
    -2
100
AcDbLine
 10
4114.673057123653
 20
7122.497424545864
 30
0.0
 11
4114.673057123653
 21
6548.0666537797
 31
0.0
  0
LINE
  5
19A48
330
17C48
100
AcDbEntity
  8
寸法
 62
     0
 48
50.0
370
    -2
100
AcDbLine
 10
4162.673057123657
 20
6608.0666537797
 30
0.0
 11
4262.673057123657
 21
6608.0666537797
 31
0.0
  0
LINE
  5
19A49
330
17C48
100
AcDbEntity
  8
寸法
 62
     0
 48
50.0
370
    -2
100
AcDbLine
 10
4114.673057123653
 20
6608.0666537797
 30
0.0
 11
4014.673057123653
 21
6608.0666537797
 31
0.0
  0
MTEXT
  5
19A4A
330
17C48
100
AcDbEntity
  8
寸法
 62
     7
 48
50.0
100
AcDbMText
 10
4275.575028123713
 20
6708.0666537797
 30
0.0
 40
120.0
 41
0.0
 71
     5
 72
     1
  1
\A1;48
  7
STYLE1
 73
     1
 44
1.0
1001
ACAD
1000
MTEXTBEGIN
1070
    73
1070
     1
1070
    44
1040
1.0
1070
    74
1070
     0
1000
MTEXTEND
  0
LINE
  5
19A4B
330
17C48
100
AcDbEntity
  8
寸法
 62
     0
 48
50.0
370
    -2
100
AcDbLine
 10
4162.673057123657
 20
6608.0666537797
 30
0.0
 11
4114.673057123653
 21
6608.0666537797
 31
0.0
  0
INSERT
  5
19A4C
330
17C48
100
AcDbEntity
  8
寸法
 62
     0
 48
50.0
370
    -2
100
AcDbBlockReference
  2
_DOTSMALL
 10
4162.673057123657
 20
6608.0666537797
 30
0.0
 41
100.0
 42
100.0
 43
100.0
 50
180.0
  0
INSERT
  5
19A4D
330
17C48
100
AcDbEntity
  8
寸法
 62
     0
 48
50.0
370
    -2
100
AcDbBlockReference
  2
_DOTSMALL
 10
4114.673057123653
 20
6608.0666537797
 30
0.0
 41
100.0
 42
100.0
 43
100.0
  0
POINT
  5
19A4E
330
17C48
100
AcDbEntity
  8
DEFPOINTS
 62
     0
 48
50.0
100
AcDbPoint
 10
4162.673057123657
 20
7168.497424545865
 30
0.0
  0
POINT
  5
19A4F
330
17C48
100
AcDbEntity
  8
DEFPOINTS
 62
     0
 48
50.0
100
AcDbPoint
 10
4114.673057123653
 20
7142.497424545864
 30
0.0
  0
POINT
  5
19A50
330
17C48
100
AcDbEntity
  8
DEFPOINTS
 62
     0
 48
50.0
100
AcDbPoint
 10
4114.673057123653
 20
6608.0666537797
 30
0.0
  0
ENDBLK
  5
17C55
330
17C48
100
AcDbEntity
  8
0
 48
50.0
100
AcDbBlockEnd
  0
BLOCK
  5
17C60
330
17C56
100
AcDbEntity
  8
0
 48
50.0
100
AcDbBlockBegin
  2
*D25
 70
     1
 10
0.0
 20
0.0
 30
0.0
  3
*D25
  1

  0
LINE
  5
19A51
330
17C56
100
AcDbEntity
  8
寸法
 62
     0
 48
50.0
370
    -2
100
AcDbLine
 10
4114.673057123653
 20
7122.497424545864
 30
0.0
 11
4114.673057123653
 21
6548.066653779702
 31
0.0
  0
LINE
  5
19A52
330
17C56
100
AcDbEntity
  8
寸法
 62
     0
 48
50.0
370
    -2
100
AcDbLine
 10
4004.67305712364
 20
7122.497424545952
 30
0.0
 11
4004.67305712364
 21
6548.066653779702
 31
0.0
  0
LINE
  5
19A53
330
17C56
100
AcDbEntity
  8
寸法
 62
     0
 48
50.0
370
    -2
100
AcDbLine
 10
4114.673057123653
 20
6608.066653779701
 30
0.0
 11
4004.67305712364
 21
6608.066653779701
 31
0.0
  0
MTEXT
  5
19A54
330
17C56
100
AcDbEntity
  8
寸法
 62
     7
 48
50.0
100
AcDbMText
 10
4059.673057123647
 20
6456.37475874347
 30
0.0
 40
120.0
 41
0.0
 71
     5
 72
     1
  1
\A1;110
  7
STYLE1
 73
     1
 44
1.0
1001
ACAD
1000
MTEXTBEGIN
1070
    73
1070
     1
1070
    44
1040
1.0
1070
    74
1070
     0
1000
MTEXTEND
  0
INSERT
  5
19A55
330
17C56
100
AcDbEntity
  8
寸法
 62
     0
 48
50.0
370
    -2
100
AcDbBlockReference
  2
_DOTSMALL
 10
4114.673057123653
 20
6608.066653779701
 30
0.0
 41
100.0
 42
100.0
 43
100.0
  0
INSERT
  5
19A56
330
17C56
100
AcDbEntity
  8
寸法
 62
     0
 48
50.0
370
    -2
100
AcDbBlockReference
  2
_DOTSMALL
 10
4004.67305712364
 20
6608.066653779701
 30
0.0
 41
100.0
 42
100.0
 43
100.0
 50
180.0
  0
POINT
  5
19A57
330
17C56
100
AcDbEntity
  8
DEFPOINTS
 62
     0
 48
50.0
100
AcDbPoint
 10
4114.673057123653
 20
7142.497424545864
 30
0.0
  0
POINT
  5
19A58
330
17C56
100
AcDbEntity
  8
DEFPOINTS
 62
     0
 48
50.0
100
AcDbPoint
 10
4004.67305712364
 20
7142.497424545952
 30
0.0
  0
POINT
  5
19A59
330
17C56
100
AcDbEntity
  8
DEFPOINTS
 62
     0
 48
50.0
100
AcDbPoint
 10
4004.67305712364
 20
6608.066653779701
 30
0.0
  0
ENDBLK
  5
17C61
330
17C56
100
AcDbEntity
  8
0
 48
50.0
100
AcDbBlockEnd
  0
BLOCK
  5
189E8
330
189DD
100
AcDbEntity
  8
0
 48
50.0
100
AcDbBlockBegin
  2
*D26
 70
     1
 10
0.0
 20
0.0
 30
0.0
  3
*D26
  1

  0
LINE
  5
19901
330
189DD
100
AcDbEntity
  8
寸法
 62
     0
 48
50.0
370
    -2
100
AcDbLine
 10
11886.25411680438
 20
4535.568327817801
 30
0.0
 11
11270.31967769908
 21
4553.282478092131
 31
0.0
  0
LINE
  5
19902
330
189DD
100
AcDbEntity
  8
寸法
 62
     0
 48
50.0
370
    -2
100
AcDbLine
 10
11882.20066124775
 20
4394.626604052089
 30
0.0
 11
11266.26622214246
 21
4412.340754326419
 31
0.0
  0
LINE
  5
19903
330
189DD
100
AcDbEntity
  8
寸法
 62
     0
 48
50.0
370
    -2
100
AcDbLine
 10
11326.24142374489
 20
4410.615879621472
 30
0.0
 11
11330.29487930151
 21
4551.557603387183
 31
0.0
  0
LINE
  5
19904
330
189DD
100
AcDbEntity
  8
寸法
 62
     0
 48
50.0
370
    -2
100
AcDbLine
 10
11330.29487930151
 20
4551.557603387183
 30
0.0
 11
11340.6441275312
 21
4911.40881300177
 31
0.0
  0
INSERT
  5
19905
330
189DD
100
AcDbEntity
  8
寸法
 62
     0
 48
50.0
370
    -2
100
AcDbBlockReference
  2
_DOTSMALL
 10
11326.24142374489
 20
4410.615879621472
 30
0.0
 41
100.0
 42
100.0
 43
100.0
 50
268.3526390256378
  0
INSERT
  5
19906
330
189DD
100
AcDbEntity
  8
寸法
 62
     0
 48
50.0
370
    -2
100
AcDbBlockReference
  2
_DOTSMALL
 10
11330.29487930151
 20
4551.557603387183
 30
0.0
 41
100.0
 42
100.0
 43
100.0
 50
88.35263902563776
  0
MTEXT
  5
19907
330
189DD
100
AcDbEntity
  8
寸法
 62
     7
 48
50.0
100
AcDbMText
 10
11236.94822966643
 20
4784.337334038082
 30
0.0
 40
120.0
 41
0.0
 71
     5
 72
     1
  1
\A1;141
  7
STYLE1
 11
0.0287479117491237
 21
0.9995866933738488
 31
0.0
 73
     1
 44
1.0
1001
ACAD
1000
MTEXTBEGIN
1070
    73
1070
     1
1070
    44
1040
1.0
1070
    74
1070
     0
1000
MTEXTEND
  0
POINT
  5
19908
330
189DD
100
AcDbEntity
  8
DEFPOINTS
 62
     0
 48
50.0
100
AcDbPoint
 10
11906.24585067185
 20
4534.993369582818
 30
0.0
  0
POINT
  5
19909
330
189DD
100
AcDbEntity
  8
DEFPOINTS
 62
     0
 48
50.0
100
AcDbPoint
 10
11902.19239511523
 20
4394.051645817106
 30
0.0
  0
POINT
  5
1990A
330
189DD
100
AcDbEntity
  8
DEFPOINTS
 62
     0
 48
50.0
100
AcDbPoint
 10
11326.24142374489
 20
4410.615879621472
 30
0.0
  0
ENDBLK
  5
189E9
330
189DD
100
AcDbEntity
  8
0
 48
50.0
100
AcDbBlockEnd
  0
BLOCK
  5
18B8E
330
18B84
100
AcDbEntity
  8
0
 48
50.0
100
AcDbBlockBegin
  2
*D27
 70
     1
 10
0.0
 20
0.0
 30
0.0
  3
*D27
  1

  0
LINE
  5
1994F
330
18B84
100
AcDbEntity
  8
寸法
 62
     0
 48
50.0
370
    -2
100
AcDbLine
 10
11926.84983051327
 20
4301.270620748136
 30
0.0
 11
11043.09970133002
 21
4301.270620748136
 31
0.0
  0
LINE
  5
19950
330
18B84
100
AcDbEntity
  8
寸法
 62
     0
 48
50.0
370
    -2
100
AcDbLine
 10
11926.84983051327
 20
2211.270620748134
 30
0.0
 11
11043.09970133002
 21
2211.270620748135
 31
0.0
  0
LINE
  5
19951
330
18B84
100
AcDbEntity
  8
寸法
 62
     0
 48
50.0
370
    -2
100
AcDbLine
 10
11103.09970133002
 20
4301.270620748136
 30
0.0
 11
11103.09970133002
 21
2211.270620748135
 31
0.0
  0
INSERT
  5
19952
330
18B84
100
AcDbEntity
  8
寸法
 62
     0
 48
50.0
370
    -2
100
AcDbBlockReference
  2
_DOTSMALL
 10
11103.09970133002
 20
4301.270620748136
 30
0.0
 41
100.0
 42
100.0
 43
100.0
 50
90.0
  0
INSERT
  5
19953
330
18B84
100
AcDbEntity
  8
寸法
 62
     0
 48
50.0
370
    -2
100
AcDbBlockReference
  2
_DOTSMALL
 10
11103.09970133002
 20
2211.270620748135
 30
0.0
 41
100.0
 42
100.0
 43
100.0
 50
270.0
  0
MTEXT
  5
19954
330
18B84
100
AcDbEntity
  8
寸法
 62
     7
 48
50.0
100
AcDbMText
 10
11003.08789030639
 20
3256.270620748138
 30
0.0
 40
120.0
 41
0.0
 71
     5
 72
     1
  1
\A1;2090
  7
STYLE1
 11
0.0000000000000001
 21
1.0
 31
0.0
 73
     1
 44
1.0
1001
ACAD
1000
MTEXTBEGIN
1070
    73
1070
     1
1070
    44
1040
1.0
1070
    74
1070
     0
1000
MTEXTEND
  0
POINT
  5
19955
330
18B84
100
AcDbEntity
  8
DEFPOINTS
 62
     0
 48
50.0
100
AcDbPoint
 10
11946.84983051327
 20
4301.270620748136
 30
0.0
  0
POINT
  5
19956
330
18B84
100
AcDbEntity
  8
DEFPOINTS
 62
     0
 48
50.0
100
AcDbPoint
 10
11946.84983051327
 20
2211.270620748134
 30
0.0
  0
POINT
  5
19957
330
18B84
100
AcDbEntity
  8
DEFPOINTS
 62
     0
 48
50.0
100
AcDbPoint
 10
11103.09970133002
 20
2211.270620748135
 30
0.0
  0
ENDBLK
  5
18B8F
330
18B84
100
AcDbEntity
  8
0
 48
50.0
100
AcDbBlockEnd
  0
BLOCK
  5
18B9A
330
18B90
100
AcDbEntity
  8
0
 48
50.0
100
AcDbBlockBegin
  2
*D28
 70
     1
 10
0.0
 20
0.0
 30
0.0
  3
*D28
  1

  0
LINE
  5
19946
330
18B90
100
AcDbEntity
  8
寸法
 62
     0
 48
50.0
370
    -2
100
AcDbLine
 10
11926.84983051327
 20
2161.270620748134
 30
0.0
 11
10743.09970133001
 21
2161.270620748135
 31
0.0
  0
LINE
  5
19947
330
18B90
100
AcDbEntity
  8
寸法
 62
     0
 48
50.0
370
    -2
100
AcDbLine
 10
11866.84983051327
 20
4536.27062074814
 30
0.0
 11
10743.09970133002
 21
4536.27062074814
 31
0.0
  0
LINE
  5
19948
330
18B90
100
AcDbEntity
  8
寸法
 62
     0
 48
50.0
370
    -2
100
AcDbLine
 10
10803.09970133001
 20
2161.270620748135
 30
0.0
 11
10803.09970133002
 21
4536.27062074814
 31
0.0
  0
INSERT
  5
19949
330
18B90
100
AcDbEntity
  8
寸法
 62
     0
 48
50.0
370
    -2
100
AcDbBlockReference
  2
_DOTSMALL
 10
10803.09970133001
 20
2161.270620748135
 30
0.0
 41
100.0
 42
100.0
 43
100.0
 50
270.0
  0
INSERT
  5
1994A
330
18B90
100
AcDbEntity
  8
寸法
 62
     0
 48
50.0
370
    -2
100
AcDbBlockReference
  2
_DOTSMALL
 10
10803.09970133002
 20
4536.27062074814
 30
0.0
 41
100.0
 42
100.0
 43
100.0
 50
90.0
  0
MTEXT
  5
1994B
330
18B90
100
AcDbEntity
  8
寸法
 62
     7
 48
50.0
100
AcDbMText
 10
10703.08789030639
 20
3348.77062074814
 30
0.0
 40
120.0
 41
0.0
 71
     5
 72
     1
  1
\A1;2375
  7
STYLE1
 11
0.0000000000000001
 21
1.0
 31
0.0
 73
     1
 44
1.0
1001
ACAD
1000
MTEXTBEGIN
1070
    73
1070
     1
1070
    44
1040
1.0
1070
    74
1070
     0
1000
MTEXTEND
  0
POINT
  5
1994C
330
18B90
100
AcDbEntity
  8
DEFPOINTS
 62
     0
 48
50.0
100
AcDbPoint
 10
11946.84983051327
 20
2161.270620748134
 30
0.0
  0
POINT
  5
1994D
330
18B90
100
AcDbEntity
  8
DEFPOINTS
 62
     0
 48
50.0
100
AcDbPoint
 10
11886.84983051327
 20
4536.27062074814
 30
0.0
  0
POINT
  5
1994E
330
18B90
100
AcDbEntity
  8
DEFPOINTS
 62
     0
 48
50.0
100
AcDbPoint
 10
10803.09970133002
 20
4536.27062074814
 30
0.0
  0
ENDBLK
  5
18B9B
330
18B90
100
AcDbEntity
  8
0
 48
50.0
100
AcDbBlockEnd
  0
BLOCK
  5
18BA6
330
18B9C
100
AcDbEntity
  8
0
 48
50.0
100
AcDbBlockBegin
  2
*D29
 70
     1
 10
0.0
 20
0.0
 30
0.0
  3
*D29
  1

  0
LINE
  5
1993D
330
18B9C
100
AcDbEntity
  8
寸法
 62
     0
 48
50.0
370
    -2
100
AcDbLine
 10
14596.84983051328
 20
2161.270620748142
 30
0.0
 11
15341.77698848541
 21
2161.270620748142
 31
0.0
  0
LINE
  5
1993E
330
18B9C
100
AcDbEntity
  8
寸法
 62
     0
 48
50.0
370
    -2
100
AcDbLine
 10
14676.84983051328
 20
4481.270620748142
 30
0.0
 11
15341.77698848541
 21
4481.270620748142
 31
0.0
  0
LINE
  5
1993F
330
18B9C
100
AcDbEntity
  8
寸法
 62
     0
 48
50.0
370
    -2
100
AcDbLine
 10
15281.77698848541
 20
2161.270620748142
 30
0.0
 11
15281.77698848541
 21
4481.270620748142
 31
0.0
  0
INSERT
  5
19940
330
18B9C
100
AcDbEntity
  8
寸法
 62
     0
 48
50.0
370
    -2
100
AcDbBlockReference
  2
_DOTSMALL
 10
15281.77698848541
 20
2161.270620748142
 30
0.0
 41
100.0
 42
100.0
 43
100.0
 50
270.0
  0
INSERT
  5
19941
330
18B9C
100
AcDbEntity
  8
寸法
 62
     0
 48
50.0
370
    -2
100
AcDbBlockReference
  2
_DOTSMALL
 10
15281.77698848541
 20
4481.270620748142
 30
0.0
 41
100.0
 42
100.0
 43
100.0
 50
90.0
  0
MTEXT
  5
19942
330
18B9C
100
AcDbEntity
  8
寸法
 62
     7
 48
50.0
100
AcDbMText
 10
15181.76517746178
 20
3321.270620748145
 30
0.0
 40
120.0
 41
0.0
 71
     5
 72
     1
  1
\A1;2320
  7
STYLE1
 11
0.0000000000000001
 21
1.0
 31
0.0
 73
     1
 44
1.0
1001
ACAD
1000
MTEXTBEGIN
1070
    73
1070
     1
1070
    44
1040
1.0
1070
    74
1070
     0
1000
MTEXTEND
  0
POINT
  5
19943
330
18B9C
100
AcDbEntity
  8
DEFPOINTS
 62
     0
 48
50.0
100
AcDbPoint
 10
14576.84983051328
 20
2161.270620748142
 30
0.0
  0
POINT
  5
19944
330
18B9C
100
AcDbEntity
  8
DEFPOINTS
 62
     0
 48
50.0
100
AcDbPoint
 10
14656.84983051328
 20
4481.270620748142
 30
0.0
  0
POINT
  5
19945
330
18B9C
100
AcDbEntity
  8
DEFPOINTS
 62
     0
 48
50.0
100
AcDbPoint
 10
15281.77698848541
 20
4481.270620748142
 30
0.0
  0
ENDBLK
  5
18BA7
330
18B9C
100
AcDbEntity
  8
0
 48
50.0
100
AcDbBlockEnd
  0
BLOCK
  5
18BB4
330
18BA8
100
AcDbEntity
  8
0
 48
50.0
100
AcDbBlockBegin
  2
*D30
 70
     1
 10
0.0
 20
0.0
 30
0.0
  3
*D30
  1

  0
LINE
  5
19932
330
18BA8
100
AcDbEntity
  8
寸法
 62
     0
 48
50.0
370
    -2
100
AcDbLine
 10
11926.84983051327
 20
2211.27062074814
 30
0.0
 11
11043.09970133002
 21
2211.27062074814
 31
0.0
  0
LINE
  5
19933
330
18BA8
100
AcDbEntity
  8
寸法
 62
     0
 48
50.0
370
    -2
100
AcDbLine
 10
11871.84983051328
 20
2161.27062074814
 30
0.0
 11
11043.09970133002
 21
2161.27062074814
 31
0.0
  0
LINE
  5
19934
330
18BA8
100
AcDbEntity
  8
寸法
 62
     0
 48
50.0
370
    -2
100
AcDbLine
 10
11103.09970133002
 20
2211.27062074814
 30
0.0
 11
11103.09970133002
 21
2311.27062074814
 31
0.0
  0
LINE
  5
19935
330
18BA8
100
AcDbEntity
  8
寸法
 62
     0
 48
50.0
370
    -2
100
AcDbLine
 10
11103.09970133002
 20
2161.27062074814
 30
0.0
 11
11103.09970133002
 21
1749.176132559159
 31
0.0
  0
LINE
  5
19936
330
18BA8
100
AcDbEntity
  8
寸法
 62
     0
 48
50.0
370
    -2
100
AcDbLine
 10
11103.09970133002
 20
2211.27062074814
 30
0.0
 11
11103.09970133002
 21
2161.27062074814
 31
0.0
  0
INSERT
  5
19937
330
18BA8
100
AcDbEntity
  8
寸法
 62
     0
 48
50.0
370
    -2
100
AcDbBlockReference
  2
_DOTSMALL
 10
11103.09970133002
 20
2211.27062074814
 30
0.0
 41
100.0
 42
100.0
 43
100.0
 50
270.0
  0
INSERT
  5
19938
330
18BA8
100
AcDbEntity
  8
寸法
 62
     0
 48
50.0
370
    -2
100
AcDbBlockReference
  2
_DOTSMALL
 10
11103.09970133002
 20
2161.27062074814
 30
0.0
 41
100.0
 42
100.0
 43
100.0
 50
90.0
  0
MTEXT
  5
19939
330
18BA8
100
AcDbEntity
  8
寸法
 62
     7
 48
50.0
100
AcDbMText
 10
11003.09970133002
 20
1855.223376653649
 30
0.0
 40
120.0
 41
0.0
 71
     5
 72
     1
  1
\A1;50
  7
STYLE1
 11
0.0000000000000001
 21
1.0
 31
0.0
 73
     1
 44
1.0
1001
ACAD
1000
MTEXTBEGIN
1070
    73
1070
     1
1070
    44
1040
1.0
1070
    74
1070
     0
1000
MTEXTEND
  0
POINT
  5
1993A
330
18BA8
100
AcDbEntity
  8
DEFPOINTS
 62
     0
 48
50.0
100
AcDbPoint
 10
11946.84983051327
 20
2211.27062074814
 30
0.0
  0
POINT
  5
1993B
330
18BA8
100
AcDbEntity
  8
DEFPOINTS
 62
     0
 48
50.0
100
AcDbPoint
 10
11891.84983051328
 20
2161.27062074814
 30
0.0
  0
POINT
  5
1993C
330
18BA8
100
AcDbEntity
  8
DEFPOINTS
 62
     0
 48
50.0
100
AcDbPoint
 10
11103.09970133002
 20
2161.27062074814
 30
0.0
  0
ENDBLK
  5
18BB5
330
18BA8
100
AcDbEntity
  8
0
 48
50.0
100
AcDbBlockEnd
  0
BLOCK
  5
18BC0
330
18BB6
100
AcDbEntity
  8
0
 48
50.0
100
AcDbBlockBegin
  2
*D31
 70
     1
 10
0.0
 20
0.0
 30
0.0
  3
*D31
  1

  0
LINE
  5
19929
330
18BB6
100
AcDbEntity
  8
寸法
 62
     0
 48
50.0
370
    -2
100
AcDbLine
 10
14576.84983051328
 20
4503.081300359793
 30
0.0
 11
14576.84983051328
 21
4994.928074327446
 31
0.0
  0
LINE
  5
1992A
330
18BB6
100
AcDbEntity
  8
寸法
 62
     0
 48
50.0
370
    -2
100
AcDbLine
 10
11946.84983051327
 20
4552.272238871116
 30
0.0
 11
11946.84983051327
 21
4994.928074327446
 31
0.0
  0
LINE
  5
1992B
330
18BB6
100
AcDbEntity
  8
寸法
 62
     0
 48
50.0
370
    -2
100
AcDbLine
 10
14576.84983051328
 20
4934.928074327445
 30
0.0
 11
11946.84983051327
 21
4934.928074327445
 31
0.0
  0
INSERT
  5
1992C
330
18BB6
100
AcDbEntity
  8
寸法
 62
     0
 48
50.0
370
    -2
100
AcDbBlockReference
  2
_DOTSMALL
 10
14576.84983051328
 20
4934.928074327445
 30
0.0
 41
100.0
 42
100.0
 43
100.0
  0
INSERT
  5
1992D
330
18BB6
100
AcDbEntity
  8
寸法
 62
     0
 48
50.0
370
    -2
100
AcDbBlockReference
  2
_DOTSMALL
 10
11946.84983051327
 20
4934.928074327445
 30
0.0
 41
100.0
 42
100.0
 43
100.0
 50
180.0
  0
MTEXT
  5
1992E
330
18BB6
100
AcDbEntity
  8
寸法
 62
     7
 48
50.0
100
AcDbMText
 10
13261.84983051328
 20
5034.939885351068
 30
0.0
 40
120.0
 41
0.0
 71
     5
 72
     1
  1
\A1;柱外寸法2630
  7
STYLE1
 73
     1
 44
1.0
1001
ACAD
1000
MTEXTBEGIN
1070
    73
1070
     1
1070
    44
1040
1.0
1070
    74
1070
     0
1000
MTEXTEND
  0
POINT
  5
1992F
330
18BB6
100
AcDbEntity
  8
DEFPOINTS
 62
     0
 48
50.0
100
AcDbPoint
 10
14576.84983051328
 20
4483.081300359793
 30
0.0
  0
POINT
  5
19930
330
18BB6
100
AcDbEntity
  8
DEFPOINTS
 62
     0
 48
50.0
100
AcDbPoint
 10
11946.84983051327
 20
4532.272238871116
 30
0.0
  0
POINT
  5
19931
330
18BB6
100
AcDbEntity
  8
DEFPOINTS
 62
     0
 48
50.0
100
AcDbPoint
 10
11946.84983051327
 20
4934.928074327445
 30
0.0
  0
ENDBLK
  5
18BC1
330
18BB6
100
AcDbEntity
  8
0
 48
50.0
100
AcDbBlockEnd
  0
BLOCK
  5
18BCE
330
18BC2
100
AcDbEntity
  8
0
 48
50.0
100
AcDbBlockBegin
  2
*D32
 70
     1
 10
0.0
 20
0.0
 30
0.0
  3
*D32
  1

  0
LINE
  5
1991E
330
18BC2
100
AcDbEntity
  8
寸法
 62
     0
 48
50.0
370
    -2
100
AcDbLine
 10
11946.84983051327
 20
4552.272238871116
 30
0.0
 11
11946.84983051327
 21
4994.928074327444
 31
0.0
  0
LINE
  5
1991F
330
18BC2
100
AcDbEntity
  8
寸法
 62
     0
 48
50.0
370
    -2
100
AcDbLine
 10
11886.84983051327
 20
4556.270620748145
 30
0.0
 11
11886.84983051327
 21
4994.928074327444
 31
0.0
  0
LINE
  5
19920
330
18BC2
100
AcDbEntity
  8
寸法
 62
     0
 48
50.0
370
    -2
100
AcDbLine
 10
11946.84983051327
 20
4934.928074327444
 30
0.0
 11
12046.84983051327
 21
4934.928074327444
 31
0.0
  0
LINE
  5
19921
330
18BC2
100
AcDbEntity
  8
寸法
 62
     0
 48
50.0
370
    -2
100
AcDbLine
 10
11886.84983051327
 20
4934.928074327444
 30
0.0
 11
11467.57423996209
 21
4934.928074327444
 31
0.0
  0
LINE
  5
19922
330
18BC2
100
AcDbEntity
  8
寸法
 62
     0
 48
50.0
370
    -2
100
AcDbLine
 10
11946.84983051327
 20
4934.928074327444
 30
0.0
 11
11886.84983051327
 21
4934.928074327444
 31
0.0
  0
INSERT
  5
19923
330
18BC2
100
AcDbEntity
  8
寸法
 62
     0
 48
50.0
370
    -2
100
AcDbBlockReference
  2
_DOTSMALL
 10
11946.84983051327
 20
4934.928074327444
 30
0.0
 41
100.0
 42
100.0
 43
100.0
 50
180.0
  0
INSERT
  5
19924
330
18BC2
100
AcDbEntity
  8
寸法
 62
     0
 48
50.0
370
    -2
100
AcDbBlockReference
  2
_DOTSMALL
 10
11886.84983051327
 20
4934.928074327444
 30
0.0
 41
100.0
 42
100.0
 43
100.0
  0
MTEXT
  5
19925
330
18BC2
100
AcDbEntity
  8
寸法
 62
     7
 48
50.0
100
AcDbMText
 10
11577.21203523768
 20
5034.928074327444
 30
0.0
 40
120.0
 41
0.0
 71
     5
 72
     1
  1
\A1;60
  7
STYLE1
 73
     1
 44
1.0
1001
ACAD
1000
MTEXTBEGIN
1070
    73
1070
     1
1070
    44
1040
1.0
1070
    74
1070
     0
1000
MTEXTEND
  0
POINT
  5
19926
330
18BC2
100
AcDbEntity
  8
DEFPOINTS
 62
     0
 48
50.0
100
AcDbPoint
 10
11946.84983051327
 20
4532.272238871116
 30
0.0
  0
POINT
  5
19927
330
18BC2
100
AcDbEntity
  8
DEFPOINTS
 62
     0
 48
50.0
100
AcDbPoint
 10
11886.84983051327
 20
4536.270620748145
 30
0.0
  0
POINT
  5
19928
330
18BC2
100
AcDbEntity
  8
DEFPOINTS
 62
     0
 48
50.0
100
AcDbPoint
 10
11886.84983051327
 20
4934.928074327444
 30
0.0
  0
ENDBLK
  5
18BCF
330
18BC2
100
AcDbEntity
  8
0
 48
50.0
100
AcDbBlockEnd
  0
BLOCK
  5
18BDA
330
18BD0
100
AcDbEntity
  8
0
 48
50.0
100
AcDbBlockBegin
  2
*D33
 70
     1
 10
0.0
 20
0.0
 30
0.0
  3
*D33
  1

  0
LINE
  5
19915
330
18BD0
100
AcDbEntity
  8
寸法
 62
     0
 48
50.0
370
    -2
100
AcDbLine
 10
14656.84983051328
 20
4501.270620748141
 30
0.0
 11
14656.84983051328
 21
5215.138761059062
 31
0.0
  0
LINE
  5
19916
330
18BD0
100
AcDbEntity
  8
寸法
 62
     0
 48
50.0
370
    -2
100
AcDbLine
 10
11886.84983051327
 20
4556.270620748145
 30
0.0
 11
11886.84983051327
 21
5215.138761059062
 31
0.0
  0
LINE
  5
19917
330
18BD0
100
AcDbEntity
  8
寸法
 62
     0
 48
50.0
370
    -2
100
AcDbLine
 10
14656.84983051328
 20
5155.138761059061
 30
0.0
 11
11886.84983051327
 21
5155.138761059061
 31
0.0
  0
INSERT
  5
19918
330
18BD0
100
AcDbEntity
  8
寸法
 62
     0
 48
50.0
370
    -2
100
AcDbBlockReference
  2
_DOTSMALL
 10
14656.84983051328
 20
5155.138761059061
 30
0.0
 41
100.0
 42
100.0
 43
100.0
  0
INSERT
  5
19919
330
18BD0
100
AcDbEntity
  8
寸法
 62
     0
 48
50.0
370
    -2
100
AcDbBlockReference
  2
_DOTSMALL
 10
11886.84983051327
 20
5155.138761059061
 30
0.0
 41
100.0
 42
100.0
 43
100.0
 50
180.0
  0
MTEXT
  5
1991A
330
18BD0
100
AcDbEntity
  8
寸法
 62
     7
 48
50.0
100
AcDbMText
 10
13271.84983051328
 20
5255.150572082683
 30
0.0
 40
120.0
 41
0.0
 71
     5
 72
     1
  1
\A1;2770
  7
STYLE1
 73
     1
 44
1.0
1001
ACAD
1000
MTEXTBEGIN
1070
    73
1070
     1
1070
    44
1040
1.0
1070
    74
1070
     0
1000
MTEXTEND
  0
POINT
  5
1991B
330
18BD0
100
AcDbEntity
  8
DEFPOINTS
 62
     0
 48
50.0
100
AcDbPoint
 10
14656.84983051328
 20
4481.270620748142
 30
0.0
  0
POINT
  5
1991C
330
18BD0
100
AcDbEntity
  8
DEFPOINTS
 62
     0
 48
50.0
100
AcDbPoint
 10
11886.84983051327
 20
4536.270620748145
 30
0.0
  0
POINT
  5
1991D
330
18BD0
100
AcDbEntity
  8
DEFPOINTS
 62
     0
 48
50.0
100
AcDbPoint
 10
11886.84983051327
 20
5155.138761059061
 30
0.0
  0
ENDBLK
  5
18BDB
330
18BD0
100
AcDbEntity
  8
0
 48
50.0
100
AcDbBlockEnd
  0
BLOCK
  5
18BE7
330
18BDC
100
AcDbEntity
  8
0
 48
50.0
100
AcDbBlockBegin
  2
*D34
 70
     1
 10
0.0
 20
0.0
 30
0.0
  3
*D34
  1

  0
LINE
  5
1990B
330
18BDC
100
AcDbEntity
  8
寸法
 62
     0
 48
50.0
370
    -2
100
AcDbLine
 10
14576.84983051328
 20
4503.081300359793
 30
0.0
 11
14576.84983051328
 21
4994.928074327446
 31
0.0
  0
LINE
  5
1990C
330
18BDC
100
AcDbEntity
  8
寸法
 62
     0
 48
50.0
370
    -2
100
AcDbLine
 10
14656.84983051328
 20
4501.270620748141
 30
0.0
 11
14656.84983051328
 21
4994.928074327446
 31
0.0
  0
LINE
  5
1990D
330
18BDC
100
AcDbEntity
  8
寸法
 62
     0
 48
50.0
370
    -2
100
AcDbLine
 10
14576.84983051328
 20
4934.928074327445
 30
0.0
 11
14656.84983051328
 21
4934.928074327445
 31
0.0
  0
LINE
  5
1990E
330
18BDC
100
AcDbEntity
  8
寸法
 62
     0
 48
50.0
370
    -2
100
AcDbLine
 10
14656.84983051328
 20
4934.928074327445
 30
0.0
 11
14968.94431870225
 21
4934.928074327445
 31
0.0
  0
INSERT
  5
1990F
330
18BDC
100
AcDbEntity
  8
寸法
 62
     0
 48
50.0
370
    -2
100
AcDbBlockReference
  2
_DOTSMALL
 10
14576.84983051328
 20
4934.928074327445
 30
0.0
 41
100.0
 42
100.0
 43
100.0
 50
180.0
  0
INSERT
  5
19910
330
18BDC
100
AcDbEntity
  8
寸法
 62
     0
 48
50.0
370
    -2
100
AcDbBlockReference
  2
_DOTSMALL
 10
14656.84983051328
 20
4934.928074327445
 30
0.0
 41
100.0
 42
100.0
 43
100.0
  0
MTEXT
  5
19911
330
18BDC
100
AcDbEntity
  8
寸法
 62
     7
 48
50.0
100
AcDbMText
 10
14862.89707460777
 20
5034.928074327446
 30
0.0
 40
120.0
 41
0.0
 71
     5
 72
     1
  1
\A1;80
  7
STYLE1
 73
     1
 44
1.0
1001
ACAD
1000
MTEXTBEGIN
1070
    73
1070
     1
1070
    44
1040
1.0
1070
    74
1070
     0
1000
MTEXTEND
  0
POINT
  5
19912
330
18BDC
100
AcDbEntity
  8
DEFPOINTS
 62
     0
 48
50.0
100
AcDbPoint
 10
14576.84983051328
 20
4483.081300359793
 30
0.0
  0
POINT
  5
19913
330
18BDC
100
AcDbEntity
  8
DEFPOINTS
 62
     0
 48
50.0
100
AcDbPoint
 10
14656.84983051328
 20
4481.270620748142
 30
0.0
  0
POINT
  5
19914
330
18BDC
100
AcDbEntity
  8
DEFPOINTS
 62
     0
 48
50.0
100
AcDbPoint
 10
14656.84983051328
 20
4934.928074327445
 30
0.0
  0
ENDBLK
  5
18BE8
330
18BDC
100
AcDbEntity
  8
0
 48
50.0
100
AcDbBlockEnd
  0
BLOCK
  5
18F75
330
18F74
100
AcDbEntity
  8
0
 48
50.0
100
AcDbBlockBegin
  2
*D35
 70
     1
 10
0.0
 20
0.0
 30
0.0
  3
*D35
  1

  0
LINE
  5
18F76
330
18F74
100
AcDbEntity
  8
寸法
 62
     0
 48
50.0
370
    -2
100
AcDbLine
 10
7704.673057123679
 20
1741.270620748139
 30
0.0
 11
7704.673057123679
 21
1415.223291447761
 31
0.0
  0
LINE
  5
18F77
330
18F74
100
AcDbEntity
  8
寸法
 62
     0
 48
50.0
370
    -2
100
AcDbLine
 10
7354.673057123675
 20
1741.270620748139
 30
0.0
 11
7354.673057123675
 21
1415.223291447761
 31
0.0
  0
LINE
  5
18F78
330
18F74
100
AcDbEntity
  8
寸法
 62
     0
 48
50.0
370
    -2
100
AcDbLine
 10
7704.673057123679
 20
1475.223291447761
 30
0.0
 11
7354.673057123675
 21
1475.223291447761
 31
0.0
  0
INSERT
  5
18F79
330
18F74
100
AcDbEntity
  8
寸法
 62
     0
 48
50.0
370
    -2
100
AcDbBlockReference
  2
_DOTSMALL
 10
7704.673057123679
 20
1475.223291447761
 30
0.0
 41
100.0
 42
100.0
 43
100.0
  0
INSERT
  5
18F7A
330
18F74
100
AcDbEntity
  8
寸法
 62
     0
 48
50.0
370
    -2
100
AcDbBlockReference
  2
_DOTSMALL
 10
7354.673057123675
 20
1475.223291447761
 30
0.0
 41
100.0
 42
100.0
 43
100.0
 50
180.0
  0
MTEXT
  5
18F7B
330
18F74
100
AcDbEntity
  8
寸法
 62
     7
 48
50.0
100
AcDbMText
 10
7529.673057123677
 20
1575.223291447761
 30
0.0
 40
120.0
 41
0.0
 71
     5
 72
     1
  1
\A1;350
  7
STYLE1
 73
     1
 44
1.0
1001
ACAD
1000
MTEXTBEGIN
1070
    73
1070
     1
1070
    44
1040
1.0
1070
    74
1070
     0
1000
MTEXTEND
  0
POINT
  5
18F7C
330
18F74
100
AcDbEntity
  8
DEFPOINTS
 62
     0
 48
50.0
100
AcDbPoint
 10
7704.673057123679
 20
1761.270620748138
 30
0.0
  0
POINT
  5
18F7D
330
18F74
100
AcDbEntity
  8
DEFPOINTS
 62
     0
 48
50.0
100
AcDbPoint
 10
7354.673057123675
 20
1761.270620748138
 30
0.0
  0
POINT
  5
18F7E
330
18F74
100
AcDbEntity
  8
DEFPOINTS
 62
     0
 48
50.0
100
AcDbPoint
 10
7354.673057123675
 20
1475.223291447761
 30
0.0
  0
ENDBLK
  5
18F7F
330
18F74
100
AcDbEntity
  8
0
 48
50.0
100
AcDbBlockEnd
  0
BLOCK
  5
18F81
330
18F80
100
AcDbEntity
  8
0
 48
50.0
100
AcDbBlockBegin
  2
*D36
 70
     1
 10
0.0
 20
0.0
 30
0.0
  3
*D36
  1

  0
LINE
  5
18F82
330
18F80
100
AcDbEntity
  8
寸法
 62
     0
 48
50.0
370
    -2
100
AcDbLine
 10
7604.673057123676
 20
2161.270620748139
 30
0.0
 11
7932.216159445423
 21
2161.270620748139
 31
0.0
  0
LINE
  5
18F83
330
18F80
100
AcDbEntity
  8
寸法
 62
     0
 48
50.0
370
    -2
100
AcDbLine
 10
7604.673057123676
 20
3821.270620748139
 30
0.0
 11
7932.216159445423
 21
3821.270620748139
 31
0.0
  0
LINE
  5
18F84
330
18F80
100
AcDbEntity
  8
寸法
 62
     0
 48
50.0
370
    -2
100
AcDbLine
 10
7872.216159445423
 20
2161.270620748139
 30
0.0
 11
7872.216159445423
 21
3821.270620748139
 31
0.0
  0
INSERT
  5
18F85
330
18F80
100
AcDbEntity
  8
寸法
 62
     0
 48
50.0
370
    -2
100
AcDbBlockReference
  2
_DOTSMALL
 10
7872.216159445423
 20
2161.270620748139
 30
0.0
 41
100.0
 42
100.0
 43
100.0
 50
270.0
  0
INSERT
  5
18F86
330
18F80
100
AcDbEntity
  8
寸法
 62
     0
 48
50.0
370
    -2
100
AcDbBlockReference
  2
_DOTSMALL
 10
7872.216159445423
 20
3821.270620748139
 30
0.0
 41
100.0
 42
100.0
 43
100.0
 50
90.0
  0
MTEXT
  5
18F87
330
18F80
100
AcDbEntity
  8
寸法
 62
     7
 48
50.0
100
AcDbMText
 10
7772.216159445422
 20
2991.27062074814
 30
0.0
 40
120.0
 41
0.0
 71
     5
 72
     1
  1
\A1;有効開口部高サ 1660
  7
STYLE1
 11
0.0000000000000001
 21
1.0
 31
0.0
 73
     1
 44
1.0
1001
ACAD
1000
MTEXTBEGIN
1070
    73
1070
     1
1070
    44
1040
1.0
1070
    74
1070
     0
1000
MTEXTEND
  0
POINT
  5
18F88
330
18F80
100
AcDbEntity
  8
DEFPOINTS
 62
     0
 48
50.0
100
AcDbPoint
 10
7584.673057123676
 20
2161.270620748139
 30
0.0
  0
POINT
  5
18F89
330
18F80
100
AcDbEntity
  8
DEFPOINTS
 62
     0
 48
50.0
100
AcDbPoint
 10
7584.673057123676
 20
3821.270620748139
 30
0.0
  0
POINT
  5
18F8A
330
18F80
100
AcDbEntity
  8
DEFPOINTS
 62
     0
 48
50.0
100
AcDbPoint
 10
7872.216159445423
 20
3821.270620748139
 30
0.0
  0
ENDBLK
  5
18F8B
330
18F80
100
AcDbEntity
  8
0
 48
50.0
100
AcDbBlockEnd
  0
BLOCK
  5
18F8D
330
18F8C
100
AcDbEntity
  8
0
 48
50.0
100
AcDbBlockBegin
  2
*D37
 70
     1
 10
0.0
 20
0.0
 30
0.0
  3
*D37
  1

  0
LINE
  5
18F8E
330
18F8C
100
AcDbEntity
  8
寸法
 62
     0
 48
50.0
370
    -2
100
AcDbLine
 10
7604.673057123676
 20
3821.270620748139
 30
0.0
 11
7932.216159445423
 21
3821.270620748139
 31
0.0
  0
LINE
  5
18F8F
330
18F8C
100
AcDbEntity
  8
寸法
 62
     0
 48
50.0
370
    -2
100
AcDbLine
 10
7549.673057123676
 20
3836.27062074814
 30
0.0
 11
7932.216159445423
 21
3836.27062074814
 31
0.0
  0
LINE
  5
18F90
330
18F8C
100
AcDbEntity
  8
寸法
 62
     0
 48
50.0
370
    -2
100
AcDbLine
 10
7872.216159445423
 20
3821.270620748139
 30
0.0
 11
7872.216159445423
 21
3721.270620748139
 31
0.0
  0
LINE
  5
18F91
330
18F8C
100
AcDbEntity
  8
寸法
 62
     0
 48
50.0
370
    -2
100
AcDbLine
 10
7872.216159445423
 20
3836.27062074814
 30
0.0
 11
7872.216159445423
 21
3936.270620748139
 31
0.0
  0
MTEXT
  5
18F92
330
18F8C
100
AcDbEntity
  8
寸法
 62
     7
 48
50.0
100
AcDbMText
 10
8012.385982691789
 20
3837.237820587798
 30
0.0
 40
120.0
 41
0.0
 71
     5
 72
     1
  1
\A1;15
  7
STYLE1
 11
0.0000000000000001
 21
1.0
 31
0.0
 73
     1
 44
1.0
1001
ACAD
1000
MTEXTBEGIN
1070
    73
1070
     1
1070
    44
1040
1.0
1070
    74
1070
     0
1000
MTEXTEND
  0
LINE
  5
18F93
330
18F8C
100
AcDbEntity
  8
寸法
 62
     0
 48
50.0
370
    -2
100
AcDbLine
 10
7872.216159445423
 20
3821.270620748139
 30
0.0
 11
7872.216159445423
 21
3836.27062074814
 31
0.0
  0
INSERT
  5
18F94
330
18F8C
100
AcDbEntity
  8
寸法
 62
     0
 48
50.0
370
    -2
100
AcDbBlockReference
  2
_DOTSMALL
 10
7872.216159445423
 20
3821.270620748139
 30
0.0
 41
100.0
 42
100.0
 43
100.0
 50
90.0
  0
INSERT
  5
18F95
330
18F8C
100
AcDbEntity
  8
寸法
 62
     0
 48
50.0
370
    -2
100
AcDbBlockReference
  2
_DOTSMALL
 10
7872.216159445423
 20
3836.27062074814
 30
0.0
 41
100.0
 42
100.0
 43
100.0
 50
270.0
  0
POINT
  5
18F96
330
18F8C
100
AcDbEntity
  8
DEFPOINTS
 62
     0
 48
50.0
100
AcDbPoint
 10
7584.673057123676
 20
3821.270620748139
 30
0.0
  0
POINT
  5
18F97
330
18F8C
100
AcDbEntity
  8
DEFPOINTS
 62
     0
 48
50.0
100
AcDbPoint
 10
7529.673057123677
 20
3836.27062074814
 30
0.0
  0
POINT
  5
18F98
330
18F8C
100
AcDbEntity
  8
DEFPOINTS
 62
     0
 48
50.0
100
AcDbPoint
 10
7872.216159445423
 20
3836.27062074814
 30
0.0
  0
ENDBLK
  5
18F99
330
18F8C
100
AcDbEntity
  8
0
 48
50.0
100
AcDbBlockEnd
  0
BLOCK
  5
18F9B
330
18F9A
100
AcDbEntity
  8
0
 48
50.0
100
AcDbBlockBegin
  2
*D38
 70
     1
 10
0.0
 20
0.0
 30
0.0
  3
*D38
  1

  0
LINE
  5
18F9C
330
18F9A
100
AcDbEntity
  8
寸法
 62
     0
 48
50.0
370
    -2
100
AcDbLine
 10
7549.673057123676
 20
3836.27062074814
 30
0.0
 11
7932.216159445424
 21
3836.27062074814
 31
0.0
  0
LINE
  5
18F9D
330
18F9A
100
AcDbEntity
  8
寸法
 62
     0
 48
50.0
370
    -2
100
AcDbLine
 10
7604.673057123676
 20
4001.270620748138
 30
0.0
 11
7932.216159445424
 21
4001.270620748138
 31
0.0
  0
LINE
  5
18F9E
330
18F9A
100
AcDbEntity
  8
寸法
 62
     0
 48
50.0
370
    -2
100
AcDbLine
 10
7872.216159445423
 20
3836.27062074814
 30
0.0
 11
7872.216159445423
 21
4001.270620748138
 31
0.0
  0
LINE
  5
18F9F
330
18F9A
100
AcDbEntity
  8
寸法
 62
     0
 48
50.0
370
    -2
100
AcDbLine
 10
7872.216159445423
 20
4001.270620748138
 30
0.0
 11
7872.216159445423
 21
4378.241183496616
 31
0.0
  0
INSERT
  5
18FA0
330
18F9A
100
AcDbEntity
  8
寸法
 62
     0
 48
50.0
370
    -2
100
AcDbBlockReference
  2
_DOTSMALL
 10
7872.216159445423
 20
3836.27062074814
 30
0.0
 41
100.0
 42
100.0
 43
100.0
 50
270.0
  0
INSERT
  5
18FA1
330
18F9A
100
AcDbEntity
  8
寸法
 62
     0
 48
50.0
370
    -2
100
AcDbBlockReference
  2
_DOTSMALL
 10
7872.216159445423
 20
4001.270620748138
 30
0.0
 41
100.0
 42
100.0
 43
100.0
 50
90.0
  0
MTEXT
  5
18FA2
330
18F9A
100
AcDbEntity
  8
寸法
 62
     7
 48
50.0
100
AcDbMText
 10
7772.216159445424
 20
4239.755902122378
 30
0.0
 40
120.0
 41
0.0
 71
     5
 72
     1
  1
\A1;165
  7
STYLE1
 11
0.0000000000000001
 21
1.0
 31
0.0
 73
     1
 44
1.0
1001
ACAD
1000
MTEXTBEGIN
1070
    73
1070
     1
1070
    44
1040
1.0
1070
    74
1070
     0
1000
MTEXTEND
  0
POINT
  5
18FA3
330
18F9A
100
AcDbEntity
  8
DEFPOINTS
 62
     0
 48
50.0
100
AcDbPoint
 10
7529.673057123677
 20
3836.27062074814
 30
0.0
  0
POINT
  5
18FA4
330
18F9A
100
AcDbEntity
  8
DEFPOINTS
 62
     0
 48
50.0
100
AcDbPoint
 10
7584.673057123676
 20
4001.270620748138
 30
0.0
  0
POINT
  5
18FA5
330
18F9A
100
AcDbEntity
  8
DEFPOINTS
 62
     0
 48
50.0
100
AcDbPoint
 10
7872.216159445423
 20
4001.270620748138
 30
0.0
  0
ENDBLK
  5
18FA6
330
18F9A
100
AcDbEntity
  8
0
 48
50.0
100
AcDbBlockEnd
  0
BLOCK
  5
18FA8
330
18FA7
100
AcDbEntity
  8
0
 48
50.0
100
AcDbBlockBegin
  2
*D39
 70
     1
 10
0.0
 20
0.0
 30
0.0
  3
*D39
  1

  0
LINE
  5
18FA9
330
18FA7
100
AcDbEntity
  8
寸法
 62
     0
 48
50.0
370
    -2
100
AcDbLine
 10
5574.673057123677
 20
1741.270620748139
 30
0.0
 11
5574.673057123677
 21
1415.223291447761
 31
0.0
  0
LINE
  5
18FAA
330
18FA7
100
AcDbEntity
  8
寸法
 62
     0
 48
50.0
370
    -2
100
AcDbLine
 10
5174.673057123676
 20
1741.270620748139
 30
0.0
 11
5174.673057123676
 21
1415.223291447761
 31
0.0
  0
LINE
  5
18FAB
330
18FA7
100
AcDbEntity
  8
寸法
 62
     0
 48
50.0
370
    -2
100
AcDbLine
 10
5574.673057123677
 20
1475.223291447761
 30
0.0
 11
5174.673057123676
 21
1475.223291447761
 31
0.0
  0
INSERT
  5
18FAC
330
18FA7
100
AcDbEntity
  8
寸法
 62
     0
 48
50.0
370
    -2
100
AcDbBlockReference
  2
_DOTSMALL
 10
5574.673057123677
 20
1475.223291447761
 30
0.0
 41
100.0
 42
100.0
 43
100.0
  0
INSERT
  5
18FAD
330
18FA7
100
AcDbEntity
  8
寸法
 62
     0
 48
50.0
370
    -2
100
AcDbBlockReference
  2
_DOTSMALL
 10
5174.673057123676
 20
1475.223291447761
 30
0.0
 41
100.0
 42
100.0
 43
100.0
 50
180.0
  0
MTEXT
  5
18FAE
330
18FA7
100
AcDbEntity
  8
寸法
 62
     7
 48
50.0
100
AcDbMText
 10
5374.673057123676
 20
1575.223291447761
 30
0.0
 40
120.0
 41
0.0
 71
     5
 72
     1
  1
\A1;400
  7
STYLE1
 73
     1
 44
1.0
1001
ACAD
1000
MTEXTBEGIN
1070
    73
1070
     1
1070
    44
1040
1.0
1070
    74
1070
     0
1000
MTEXTEND
  0
POINT
  5
18FAF
330
18FA7
100
AcDbEntity
  8
DEFPOINTS
 62
     0
 48
50.0
100
AcDbPoint
 10
5574.673057123677
 20
1761.270620748138
 30
0.0
  0
POINT
  5
18FB0
330
18FA7
100
AcDbEntity
  8
DEFPOINTS
 62
     0
 48
50.0
100
AcDbPoint
 10
5174.673057123676
 20
1761.270620748138
 30
0.0
  0
POINT
  5
18FB1
330
18FA7
100
AcDbEntity
  8
DEFPOINTS
 62
     0
 48
50.0
100
AcDbPoint
 10
5174.673057123676
 20
1475.223291447761
 30
0.0
  0
ENDBLK
  5
18FB2
330
18FA7
100
AcDbEntity
  8
0
 48
50.0
100
AcDbBlockEnd
  0
BLOCK
  5
18FB4
330
18FB3
100
AcDbEntity
  8
0
 48
50.0
100
AcDbBlockBegin
  2
*D40
 70
     1
 10
0.0
 20
0.0
 30
0.0
  3
*D40
  1

  0
LINE
  5
18FB5
330
18FB3
100
AcDbEntity
  8
寸法
 62
     0
 48
50.0
370
    -2
100
AcDbLine
 10
3164.673057123676
 20
4256.270620748145
 30
0.0
 11
3164.673057123676
 21
4701.996892480049
 31
0.0
  0
LINE
  5
18FB6
330
18FB3
100
AcDbEntity
  8
寸法
 62
     0
 48
50.0
370
    -2
100
AcDbLine
 10
3114.673057123676
 20
4256.270620748145
 30
0.0
 11
3114.673057123676
 21
4701.996892480049
 31
0.0
  0
LINE
  5
18FB7
330
18FB3
100
AcDbEntity
  8
寸法
 62
     0
 48
50.0
370
    -2
100
AcDbLine
 10
3164.673057123676
 20
4641.996892480048
 30
0.0
 11
3264.673057123676
 21
4641.996892480048
 31
0.0
  0
LINE
  5
18FB8
330
18FB3
100
AcDbEntity
  8
寸法
 62
     0
 48
50.0
370
    -2
100
AcDbLine
 10
3114.673057123676
 20
4641.996892480048
 30
0.0
 11
2695.140531654941
 21
4641.996892480048
 31
0.0
  0
LINE
  5
18FB9
330
18FB3
100
AcDbEntity
  8
寸法
 62
     0
 48
50.0
370
    -2
100
AcDbLine
 10
3164.673057123676
 20
4641.996892480048
 30
0.0
 11
3114.673057123676
 21
4641.996892480048
 31
0.0
  0
INSERT
  5
18FBA
330
18FB3
100
AcDbEntity
  8
寸法
 62
     0
 48
50.0
370
    -2
100
AcDbBlockReference
  2
_DOTSMALL
 10
3164.673057123676
 20
4641.996892480048
 30
0.0
 41
100.0
 42
100.0
 43
100.0
 50
180.0
  0
INSERT
  5
18FBB
330
18FB3
100
AcDbEntity
  8
寸法
 62
     0
 48
50.0
370
    -2
100
AcDbBlockReference
  2
_DOTSMALL
 10
3114.673057123676
 20
4641.996892480048
 30
0.0
 41
100.0
 42
100.0
 43
100.0
  0
MTEXT
  5
18FBC
330
18FB3
100
AcDbEntity
  8
寸法
 62
     7
 48
50.0
100
AcDbMText
 10
2801.187775749429
 20
4741.996892480048
 30
0.0
 40
120.0
 41
0.0
 71
     5
 72
     1
  1
\A1;50
  7
STYLE1
 73
     1
 44
1.0
1001
ACAD
1000
MTEXTBEGIN
1070
    73
1070
     1
1070
    44
1040
1.0
1070
    74
1070
     0
1000
MTEXTEND
  0
POINT
  5
18FBD
330
18FB3
100
AcDbEntity
  8
DEFPOINTS
 62
     0
 48
50.0
100
AcDbPoint
 10
3164.673057123676
 20
4236.270620748146
 30
0.0
  0
POINT
  5
18FBE
330
18FB3
100
AcDbEntity
  8
DEFPOINTS
 62
     0
 48
50.0
100
AcDbPoint
 10
3114.673057123676
 20
4236.270620748146
 30
0.0
  0
POINT
  5
18FBF
330
18FB3
100
AcDbEntity
  8
DEFPOINTS
 62
     0
 48
50.0
100
AcDbPoint
 10
3114.673057123676
 20
4641.996892480048
 30
0.0
  0
ENDBLK
  5
18FC0
330
18FB3
100
AcDbEntity
  8
0
 48
50.0
100
AcDbBlockEnd
  0
BLOCK
  5
18FC2
330
18FC1
100
AcDbEntity
  8
0
 48
50.0
100
AcDbBlockBegin
  2
*D41
 70
     1
 10
0.0
 20
0.0
 30
0.0
  3
*D41
  1

  0
LINE
  5
18FC3
330
18FC1
100
AcDbEntity
  8
寸法
 62
     0
 48
50.0
370
    -2
100
AcDbLine
 10
3114.673057123676
 20
4256.270620748145
 30
0.0
 11
3114.673057123676
 21
4901.905813694138
 31
0.0
  0
LINE
  5
18FC4
330
18FC1
100
AcDbEntity
  8
寸法
 62
     0
 48
50.0
370
    -2
100
AcDbLine
 10
7634.673057123677
 20
4256.270620748142
 30
0.0
 11
7634.673057123677
 21
4901.905813694138
 31
0.0
  0
LINE
  5
18FC5
330
18FC1
100
AcDbEntity
  8
寸法
 62
     0
 48
50.0
370
    -2
100
AcDbLine
 10
3114.673057123676
 20
4841.905813694139
 30
0.0
 11
7634.673057123677
 21
4841.905813694139
 31
0.0
  0
INSERT
  5
18FC6
330
18FC1
100
AcDbEntity
  8
寸法
 62
     0
 48
50.0
370
    -2
100
AcDbBlockReference
  2
_DOTSMALL
 10
3114.673057123676
 20
4841.905813694139
 30
0.0
 41
100.0
 42
100.0
 43
100.0
 50
180.0
  0
INSERT
  5
18FC7
330
18FC1
100
AcDbEntity
  8
寸法
 62
     0
 48
50.0
370
    -2
100
AcDbBlockReference
  2
_DOTSMALL
 10
7634.673057123677
 20
4841.905813694139
 30
0.0
 41
100.0
 42
100.0
 43
100.0
  0
MTEXT
  5
18FC8
330
18FC1
100
AcDbEntity
  8
寸法
 62
     7
 48
50.0
100
AcDbMText
 10
5374.673057123676
 20
4941.91762471776
 30
0.0
 40
120.0
 41
0.0
 71
     5
 72
     1
  1
\A1;4520
  7
STYLE1
 73
     1
 44
1.0
1001
ACAD
1000
MTEXTBEGIN
1070
    73
1070
     1
1070
    44
1040
1.0
1070
    74
1070
     0
1000
MTEXTEND
  0
POINT
  5
18FC9
330
18FC1
100
AcDbEntity
  8
DEFPOINTS
 62
     0
 48
50.0
100
AcDbPoint
 10
3114.673057123676
 20
4236.270620748146
 30
0.0
  0
POINT
  5
18FCA
330
18FC1
100
AcDbEntity
  8
DEFPOINTS
 62
     0
 48
50.0
100
AcDbPoint
 10
7634.673057123677
 20
4236.270620748142
 30
0.0
  0
POINT
  5
18FCB
330
18FC1
100
AcDbEntity
  8
DEFPOINTS
 62
     0
 48
50.0
100
AcDbPoint
 10
7634.673057123677
 20
4841.905813694139
 30
0.0
  0
ENDBLK
  5
18FCC
330
18FC1
100
AcDbEntity
  8
0
 48
50.0
100
AcDbBlockEnd
  0
BLOCK
  5
18FCE
330
18FCD
100
AcDbEntity
  8
0
 48
50.0
100
AcDbBlockBegin
  2
*D42
 70
     1
 10
0.0
 20
0.0
 30
0.0
  3
*D42
  1

  0
LINE
  5
18FCF
330
18FCD
100
AcDbEntity
  8
寸法
 62
     0
 48
50.0
370
    -2
100
AcDbLine
 10
7584.673057123682
 20
4256.270620748145
 30
0.0
 11
7584.673057123682
 21
4701.996892480049
 31
0.0
  0
LINE
  5
18FD0
330
18FCD
100
AcDbEntity
  8
寸法
 62
     0
 48
50.0
370
    -2
100
AcDbLine
 10
3164.673057123676
 20
4256.270620748145
 30
0.0
 11
3164.673057123676
 21
4701.996892480049
 31
0.0
  0
LINE
  5
18FD1
330
18FCD
100
AcDbEntity
  8
寸法
 62
     0
 48
50.0
370
    -2
100
AcDbLine
 10
7584.673057123682
 20
4641.996892480048
 30
0.0
 11
3164.673057123676
 21
4641.996892480048
 31
0.0
  0
INSERT
  5
18FD2
330
18FCD
100
AcDbEntity
  8
寸法
 62
     0
 48
50.0
370
    -2
100
AcDbBlockReference
  2
_DOTSMALL
 10
7584.673057123682
 20
4641.996892480048
 30
0.0
 41
100.0
 42
100.0
 43
100.0
  0
INSERT
  5
18FD3
330
18FCD
100
AcDbEntity
  8
寸法
 62
     0
 48
50.0
370
    -2
100
AcDbBlockReference
  2
_DOTSMALL
 10
3164.673057123676
 20
4641.996892480048
 30
0.0
 41
100.0
 42
100.0
 43
100.0
 50
180.0
  0
MTEXT
  5
18FD4
330
18FCD
100
AcDbEntity
  8
寸法
 62
     7
 48
50.0
100
AcDbMText
 10
5374.673057123676
 20
4742.00870350367
 30
0.0
 40
120.0
 41
0.0
 71
     5
 72
     1
  1
\A1;柱外寸法4420
  7
STYLE1
 73
     1
 44
1.0
1001
ACAD
1000
MTEXTBEGIN
1070
    73
1070
     1
1070
    44
1040
1.0
1070
    74
1070
     0
1000
MTEXTEND
  0
POINT
  5
18FD5
330
18FCD
100
AcDbEntity
  8
DEFPOINTS
 62
     0
 48
50.0
100
AcDbPoint
 10
7584.673057123682
 20
4236.270620748146
 30
0.0
  0
POINT
  5
18FD6
330
18FCD
100
AcDbEntity
  8
DEFPOINTS
 62
     0
 48
50.0
100
AcDbPoint
 10
3164.673057123676
 20
4236.270620748146
 30
0.0
  0
POINT
  5
18FD7
330
18FCD
100
AcDbEntity
  8
DEFPOINTS
 62
     0
 48
50.0
100
AcDbPoint
 10
3164.673057123676
 20
4641.996892480048
 30
0.0
  0
ENDBLK
  5
18FD8
330
18FCD
100
AcDbEntity
  8
0
 48
50.0
100
AcDbBlockEnd
  0
BLOCK
  5
18FDA
330
18FD9
100
AcDbEntity
  8
0
 48
50.0
100
AcDbBlockBegin
  2
*D43
 70
     1
 10
0.0
 20
0.0
 30
0.0
  3
*D43
  1

  0
LINE
  5
18FDB
330
18FD9
100
AcDbEntity
  8
寸法
 62
     0
 48
50.0
370
    -2
100
AcDbLine
 10
7634.673057123677
 20
4256.270620748142
 30
0.0
 11
7634.673057123677
 21
4701.996892480052
 31
0.0
  0
LINE
  5
18FDC
330
18FD9
100
AcDbEntity
  8
寸法
 62
     0
 48
50.0
370
    -2
100
AcDbLine
 10
7584.673057123682
 20
4256.270620748145
 30
0.0
 11
7584.673057123682
 21
4701.996892480052
 31
0.0
  0
LINE
  5
18FDD
330
18FD9
100
AcDbEntity
  8
寸法
 62
     0
 48
50.0
370
    -2
100
AcDbLine
 10
7584.673057123682
 20
4641.996892480052
 30
0.0
 11
7484.673057123682
 21
4641.996892480052
 31
0.0
  0
LINE
  5
18FDE
330
18FD9
100
AcDbEntity
  8
寸法
 62
     0
 48
50.0
370
    -2
100
AcDbLine
 10
7634.673057123677
 20
4641.996892480052
 30
0.0
 11
8054.205582592407
 21
4641.996892480052
 31
0.0
  0
LINE
  5
18FDF
330
18FD9
100
AcDbEntity
  8
寸法
 62
     0
 48
50.0
370
    -2
100
AcDbLine
 10
7584.673057123682
 20
4641.996892480052
 30
0.0
 11
7634.673057123677
 21
4641.996892480052
 31
0.0
  0
INSERT
  5
18FE0
330
18FD9
100
AcDbEntity
  8
寸法
 62
     0
 48
50.0
370
    -2
100
AcDbBlockReference
  2
_DOTSMALL
 10
7584.673057123682
 20
4641.996892480052
 30
0.0
 41
100.0
 42
100.0
 43
100.0
  0
INSERT
  5
18FE1
330
18FD9
100
AcDbEntity
  8
寸法
 62
     0
 48
50.0
370
    -2
100
AcDbBlockReference
  2
_DOTSMALL
 10
7634.673057123677
 20
4641.996892480052
 30
0.0
 41
100.0
 42
100.0
 43
100.0
 50
180.0
  0
MTEXT
  5
18FE2
330
18FD9
100
AcDbEntity
  8
寸法
 62
     7
 48
50.0
100
AcDbMText
 10
7948.158338497917
 20
4741.996892480051
 30
0.0
 40
120.0
 41
0.0
 71
     5
 72
     1
  1
\A1;50
  7
STYLE1
 73
     1
 44
1.0
1001
ACAD
1000
MTEXTBEGIN
1070
    73
1070
     1
1070
    44
1040
1.0
1070
    74
1070
     0
1000
MTEXTEND
  0
POINT
  5
18FE3
330
18FD9
100
AcDbEntity
  8
DEFPOINTS
 62
     0
 48
50.0
100
AcDbPoint
 10
7634.673057123677
 20
4236.270620748142
 30
0.0
  0
POINT
  5
18FE4
330
18FD9
100
AcDbEntity
  8
DEFPOINTS
 62
     0
 48
50.0
100
AcDbPoint
 10
7584.673057123682
 20
4236.270620748146
 30
0.0
  0
POINT
  5
18FE5
330
18FD9
100
AcDbEntity
  8
DEFPOINTS
 62
     0
 48
50.0
100
AcDbPoint
 10
7584.673057123682
 20
4641.996892480052
 30
0.0
  0
ENDBLK
  5
18FE6
330
18FD9
100
AcDbEntity
  8
0
 48
50.0
100
AcDbBlockEnd
  0
BLOCK
  5
190D6
330
18FE7
100
AcDbEntity
  8
0
 48
50.0
100
AcDbBlockBegin
  2
A$C1B9F3C0F
 70
     0
 10
0.0
 20
0.0
 30
0.0
  3
A$C1B9F3C0F
  1

  0
ARC
  5
18FE8
330
18FE7
100
AcDbEntity
  8
部品1
 48
0.01
100
AcDbCircle
 10
4830.769575003633
 20
2618.547330923161
 30
0.0
 40
2.0
100
AcDbArc
 50
180.0
 51
270.0
  0
ARC
  5
18FE9
330
18FE7
100
AcDbEntity
  8
部品1
 48
0.01
100
AcDbCircle
 10
4830.769575003629
 20
2650.047330923161
 30
0.0
 40
2.0
100
AcDbArc
 50
90.0
 51
180.0
  0
ARC
  5
18FEA
330
18FE7
100
AcDbEntity
  8
部品1
 48
0.01
100
AcDbCircle
 10
5006.769575003629
 20
2618.547330923161
 30
0.0
 40
2.0
100
AcDbArc
 50
270.0
 51
0.0
  0
ARC
  5
18FEB
330
18FE7
100
AcDbEntity
  8
部品1
 48
0.01
100
AcDbCircle
 10
5006.769575003629
 20
2650.047330923161
 30
0.0
 40
2.0
100
AcDbArc
 50
0.0
 51
90.0
  0
LINE
  5
18FEC
330
18FE7
100
AcDbEntity
  8
細線
100
AcDbLine
 10
4918.769575003633
 20
2622.547330923161
 30
0.0
 11
4844.769575003629
 21
2622.547330923161
 31
0.0
  0
LINE
  5
18FED
330
18FE7
100
AcDbEntity
  8
細線
100
AcDbLine
 10
4918.769575003629
 20
2645.547330923161
 30
0.0
 11
4992.769575003629
 21
2645.547330923161
 31
0.0
  0
LINE
  5
18FEE
330
18FE7
100
AcDbEntity
  8
細線
100
AcDbLine
 10
4992.769575003629
 20
2622.547330923161
 30
0.0
 11
4918.769575003629
 21
2622.547330923161
 31
0.0
  0
LINE
  5
18FEF
330
18FE7
100
AcDbEntity
  8
細線
100
AcDbLine
 10
4844.769575003629
 20
2645.547330923161
 30
0.0
 11
4918.769575003629
 21
2645.547330923161
 31
0.0
  0
LINE
  5
18FF0
330
18FE7
100
AcDbEntity
  8
細線
100
AcDbLine
 10
4844.769575003629
 20
2622.547330923161
 30
0.0
 11
4844.769575003629
 21
2645.547330923161
 31
0.0
  0
LINE
  5
18FF1
330
18FE7
100
AcDbEntity
  8
細線
100
AcDbLine
 10
4992.769575003629
 20
2645.547330923161
 30
0.0
 11
4992.769575003629
 21
2622.547330923161
 31
0.0
  0
LINE
  5
18FF2
330
18FE7
100
AcDbEntity
  8
部品1
 48
0.01
100
AcDbLine
 10
4828.769575003633
 20
2618.547330923161
 30
0.0
 11
4828.769575003629
 21
2650.047330923161
 31
0.0
  0
LINE
  5
18FF3
330
18FE7
100
AcDbEntity
  8
部品1
 48
0.01
100
AcDbLine
 10
5006.769575003629
 20
2616.547330923161
 30
0.0
 11
4830.769575003633
 21
2616.547330923161
 31
0.0
  0
LINE
  5
18FF4
330
18FE7
100
AcDbEntity
  8
部品1
 48
0.01
100
AcDbLine
 10
5008.769575003629
 20
2650.047330923161
 30
0.0
 11
5008.769575003629
 21
2618.547330923161
 31
0.0
  0
LINE
  5
18FF5
330
18FE7
100
AcDbEntity
  8
部品1
 48
0.01
100
AcDbLine
 10
4830.769575003629
 20
2652.047330923161
 30
0.0
 11
5006.769575003629
 21
2652.047330923161
 31
0.0
  0
LINE
  5
18FF6
330
18FE7
100
AcDbEntity
  8
細線
100
AcDbLine
 10
4992.769575003629
 20
2639.547330923161
 30
0.0
 11
4918.769575003629
 21
2639.547330923161
 31
0.0
  0
LINE
  5
18FF7
330
18FE7
100
AcDbEntity
  8
細線
100
AcDbLine
 10
4992.769575003629
 20
2633.547330923161
 30
0.0
 11
4918.769575003629
 21
2633.547330923161
 31
0.0
  0
LINE
  5
18FF8
330
18FE7
100
AcDbEntity
  8
細線
100
AcDbLine
 10
4992.769575003633
 20
2627.547330923161
 30
0.0
 11
4918.769575003629
 21
2627.547330923161
 31
0.0
  0
LINE
  5
18FF9
330
18FE7
100
AcDbEntity
  8
細線
100
AcDbLine
 10
4992.769575003629
 20
2639.547330923161
 30
0.0
 11
4923.769575003629
 21
2639.547330923161
 31
0.0
  0
LINE
  5
18FFA
330
18FE7
100
AcDbEntity
  8
細線
100
AcDbLine
 10
4844.769575003633
 20
2639.547330923161
 30
0.0
 11
4918.769575003629
 21
2639.547330923161
 31
0.0
  0
LINE
  5
18FFB
330
18FE7
100
AcDbEntity
  8
細線
100
AcDbLine
 10
4844.769575003633
 20
2627.547330923161
 30
0.0
 11
4918.769575003629
 21
2627.547330923161
 31
0.0
  0
LINE
  5
18FFC
330
18FE7
100
AcDbEntity
  8
細線
100
AcDbLine
 10
4844.769575003633
 20
2633.547330923161
 30
0.0
 11
4918.769575003629
 21
2633.547330923161
 31
0.0
  0
LINE
  5
18FFD
330
18FE7
100
AcDbEntity
  8
細線
100
AcDbLine
 10
4918.769575003629
 20
2645.547330923161
 30
0.0
 11
4918.769575003633
 21
2622.547330923161
 31
0.0
  0
LINE
  5
18FFE
330
18FE7
100
AcDbEntity
  8
細線
100
AcDbLine
 10
3688.769575003633
 20
2645.547330923161
 30
0.0
 11
3688.769575003629
 21
2622.547330923161
 31
0.0
  0
LINE
  5
18FFF
330
18FE7
100
AcDbEntity
  8
細線
100
AcDbLine
 10
3762.76957500363
 20
2633.547330923161
 30
0.0
 11
3688.769575003633
 21
2633.547330923161
 31
0.0
  0
LINE
  5
19000
330
18FE7
100
AcDbEntity
  8
細線
100
AcDbLine
 10
3762.76957500363
 20
2627.547330923161
 30
0.0
 11
3688.769575003633
 21
2627.547330923161
 31
0.0
  0
LINE
  5
19001
330
18FE7
100
AcDbEntity
  8
細線
100
AcDbLine
 10
3762.76957500363
 20
2639.547330923161
 30
0.0
 11
3688.769575003633
 21
2639.547330923161
 31
0.0
  0
LINE
  5
19002
330
18FE7
100
AcDbEntity
  8
細線
100
AcDbLine
 10
3614.769575003633
 20
2639.547330923161
 30
0.0
 11
3683.769575003633
 21
2639.547330923161
 31
0.0
  0
LINE
  5
19003
330
18FE7
100
AcDbEntity
  8
細線
100
AcDbLine
 10
3614.769575003629
 20
2627.547330923161
 30
0.0
 11
3688.769575003633
 21
2627.547330923161
 31
0.0
  0
LINE
  5
19004
330
18FE7
100
AcDbEntity
  8
細線
100
AcDbLine
 10
3614.769575003633
 20
2633.547330923161
 30
0.0
 11
3688.769575003633
 21
2633.547330923161
 31
0.0
  0
LINE
  5
19005
330
18FE7
100
AcDbEntity
  8
細線
100
AcDbLine
 10
3614.769575003633
 20
2639.547330923161
 30
0.0
 11
3688.769575003633
 21
2639.547330923161
 31
0.0
  0
LINE
  5
19006
330
18FE7
100
AcDbEntity
  8
部品1
 48
0.01
100
AcDbLine
 10
3776.769575003633
 20
2652.047330923161
 30
0.0
 11
3600.769575003633
 21
2652.047330923161
 31
0.0
  0
LINE
  5
19007
330
18FE7
100
AcDbEntity
  8
部品1
 48
0.01
100
AcDbLine
 10
3598.769575003633
 20
2650.047330923161
 30
0.0
 11
3598.769575003633
 21
2618.547330923161
 31
0.0
  0
LINE
  5
19008
330
18FE7
100
AcDbEntity
  8
部品1
 48
0.01
100
AcDbLine
 10
3600.769575003633
 20
2616.547330923161
 30
0.0
 11
3776.769575003629
 21
2616.547330923161
 31
0.0
  0
LINE
  5
19009
330
18FE7
100
AcDbEntity
  8
部品1
 48
0.01
100
AcDbLine
 10
3778.769575003629
 20
2618.547330923161
 30
0.0
 11
3778.769575003633
 21
2650.047330923161
 31
0.0
  0
LINE
  5
1900A
330
18FE7
100
AcDbEntity
  8
細線
100
AcDbLine
 10
3614.769575003633
 20
2645.547330923161
 30
0.0
 11
3614.769575003633
 21
2622.547330923161
 31
0.0
  0
LINE
  5
1900B
330
18FE7
100
AcDbEntity
  8
細線
100
AcDbLine
 10
3762.769575003633
 20
2622.547330923161
 30
0.0
 11
3762.769575003633
 21
2645.547330923161
 31
0.0
  0
LINE
  5
1900C
330
18FE7
100
AcDbEntity
  8
細線
100
AcDbLine
 10
3762.769575003633
 20
2645.547330923161
 30
0.0
 11
3688.769575003633
 21
2645.547330923161
 31
0.0
  0
LINE
  5
1900D
330
18FE7
100
AcDbEntity
  8
細線
100
AcDbLine
 10
3614.769575003633
 20
2622.547330923161
 30
0.0
 11
3688.769575003633
 21
2622.547330923161
 31
0.0
  0
LINE
  5
1900E
330
18FE7
100
AcDbEntity
  8
細線
100
AcDbLine
 10
3688.769575003633
 20
2645.547330923161
 30
0.0
 11
3614.769575003633
 21
2645.547330923161
 31
0.0
  0
LINE
  5
1900F
330
18FE7
100
AcDbEntity
  8
細線
100
AcDbLine
 10
3688.769575003629
 20
2622.547330923161
 30
0.0
 11
3762.769575003633
 21
2622.547330923161
 31
0.0
  0
ARC
  5
19010
330
18FE7
100
AcDbEntity
  8
部品1
 48
0.01
100
AcDbCircle
 10
3600.769575003633
 20
2650.047330923161
 30
0.0
 40
2.0
100
AcDbArc
 50
90.0
 51
180.0
  0
ARC
  5
19011
330
18FE7
100
AcDbEntity
  8
部品1
 48
0.01
100
AcDbCircle
 10
3600.769575003633
 20
2618.547330923161
 30
0.0
 40
2.0
100
AcDbArc
 50
180.0
 51
270.0
  0
ARC
  5
19012
330
18FE7
100
AcDbEntity
  8
部品1
 48
0.01
100
AcDbCircle
 10
3776.769575003633
 20
2650.047330923161
 30
0.0
 40
2.0
100
AcDbArc
 50
0.0
 51
90.0
  0
ARC
  5
19013
330
18FE7
100
AcDbEntity
  8
部品1
 48
0.01
100
AcDbCircle
 10
3776.769575003629
 20
2618.547330923161
 30
0.0
 40
2.0
100
AcDbArc
 50
270.0
 51
0.0
  0
ARC
  5
19014
330
18FE7
100
AcDbEntity
  8
部品1
 48
0.01
100
AcDbCircle
 10
1566.769575003629
 20
2618.54733092316
 30
0.0
 40
2.0
100
AcDbArc
 50
270.0
 51
0.0
  0
ARC
  5
19015
330
18FE7
100
AcDbEntity
  8
部品1
 48
0.01
100
AcDbCircle
 10
1566.769575003633
 20
2650.04733092316
 30
0.0
 40
2.0
100
AcDbArc
 50
0.0
 51
90.0
  0
ARC
  5
19016
330
18FE7
100
AcDbEntity
  8
部品1
 48
0.01
100
AcDbCircle
 10
1390.769575003633
 20
2618.54733092316
 30
0.0
 40
2.0
100
AcDbArc
 50
180.0
 51
270.0
  0
ARC
  5
19017
330
18FE7
100
AcDbEntity
  8
部品1
 48
0.01
100
AcDbCircle
 10
1390.769575003633
 20
2650.04733092316
 30
0.0
 40
2.0
100
AcDbArc
 50
90.0
 51
180.0
  0
LINE
  5
19018
330
18FE7
100
AcDbEntity
  8
細線
100
AcDbLine
 10
1478.769575003629
 20
2622.54733092316
 30
0.0
 11
1552.769575003632
 21
2622.54733092316
 31
0.0
  0
LINE
  5
19019
330
18FE7
100
AcDbEntity
  8
細線
100
AcDbLine
 10
1478.769575003633
 20
2645.54733092316
 30
0.0
 11
1404.769575003633
 21
2645.54733092316
 31
0.0
  0
LINE
  5
1901A
330
18FE7
100
AcDbEntity
  8
細線
100
AcDbLine
 10
1404.769575003633
 20
2622.54733092316
 30
0.0
 11
1478.769575003633
 21
2622.54733092316
 31
0.0
  0
LINE
  5
1901B
330
18FE7
100
AcDbEntity
  8
細線
100
AcDbLine
 10
1552.769575003632
 20
2645.54733092316
 30
0.0
 11
1478.769575003633
 21
2645.54733092316
 31
0.0
  0
LINE
  5
1901C
330
18FE7
100
AcDbEntity
  8
細線
100
AcDbLine
 10
1552.769575003632
 20
2622.54733092316
 30
0.0
 11
1552.769575003632
 21
2645.54733092316
 31
0.0
  0
LINE
  5
1901D
330
18FE7
100
AcDbEntity
  8
細線
100
AcDbLine
 10
1404.769575003633
 20
2645.54733092316
 30
0.0
 11
1404.769575003633
 21
2622.54733092316
 31
0.0
  0
LINE
  5
1901E
330
18FE7
100
AcDbEntity
  8
部品1
 48
0.01
100
AcDbLine
 10
1568.769575003629
 20
2618.54733092316
 30
0.0
 11
1568.769575003632
 21
2650.04733092316
 31
0.0
  0
LINE
  5
1901F
330
18FE7
100
AcDbEntity
  8
部品1
 48
0.01
100
AcDbLine
 10
1390.769575003633
 20
2616.54733092316
 30
0.0
 11
1566.769575003629
 21
2616.54733092316
 31
0.0
  0
LINE
  5
19020
330
18FE7
100
AcDbEntity
  8
部品1
 48
0.01
100
AcDbLine
 10
1388.769575003633
 20
2650.04733092316
 30
0.0
 11
1388.769575003633
 21
2618.54733092316
 31
0.0
  0
LINE
  5
19021
330
18FE7
100
AcDbEntity
  8
部品1
 48
0.01
100
AcDbLine
 10
1566.769575003633
 20
2652.04733092316
 30
0.0
 11
1390.769575003633
 21
2652.04733092316
 31
0.0
  0
LINE
  5
19022
330
18FE7
100
AcDbEntity
  8
細線
100
AcDbLine
 10
1404.769575003633
 20
2639.54733092316
 30
0.0
 11
1478.769575003633
 21
2639.54733092316
 31
0.0
  0
LINE
  5
19023
330
18FE7
100
AcDbEntity
  8
細線
100
AcDbLine
 10
1404.769575003633
 20
2633.54733092316
 30
0.0
 11
1478.769575003633
 21
2633.54733092316
 31
0.0
  0
LINE
  5
19024
330
18FE7
100
AcDbEntity
  8
細線
100
AcDbLine
 10
1404.769575003629
 20
2627.547330923161
 30
0.0
 11
1478.769575003633
 21
2627.547330923161
 31
0.0
  0
LINE
  5
19025
330
18FE7
100
AcDbEntity
  8
細線
100
AcDbLine
 10
1404.769575003633
 20
2639.54733092316
 30
0.0
 11
1473.769575003633
 21
2639.54733092316
 31
0.0
  0
LINE
  5
19026
330
18FE7
100
AcDbEntity
  8
細線
100
AcDbLine
 10
1552.769575003629
 20
2639.54733092316
 30
0.0
 11
1478.769575003633
 21
2639.54733092316
 31
0.0
  0
LINE
  5
19027
330
18FE7
100
AcDbEntity
  8
細線
100
AcDbLine
 10
1552.769575003629
 20
2627.547330923161
 30
0.0
 11
1478.769575003633
 21
2627.547330923161
 31
0.0
  0
LINE
  5
19028
330
18FE7
100
AcDbEntity
  8
細線
100
AcDbLine
 10
1552.769575003629
 20
2633.54733092316
 30
0.0
 11
1478.769575003633
 21
2633.54733092316
 31
0.0
  0
LINE
  5
19029
330
18FE7
100
AcDbEntity
  8
細線
100
AcDbLine
 10
1478.769575003633
 20
2645.54733092316
 30
0.0
 11
1478.769575003629
 21
2622.54733092316
 31
0.0
  0
LINE
  5
1902A
330
18FE7
100
AcDbEntity
  8
細線
100
AcDbLine
 10
2708.769575003629
 20
2645.54733092316
 30
0.0
 11
2708.769575003633
 21
2622.54733092316
 31
0.0
  0
LINE
  5
1902B
330
18FE7
100
AcDbEntity
  8
細線
100
AcDbLine
 10
2634.769575003633
 20
2633.54733092316
 30
0.0
 11
2708.769575003629
 21
2633.54733092316
 31
0.0
  0
LINE
  5
1902C
330
18FE7
100
AcDbEntity
  8
細線
100
AcDbLine
 10
2634.769575003633
 20
2627.547330923161
 30
0.0
 11
2708.769575003629
 21
2627.547330923161
 31
0.0
  0
LINE
  5
1902D
330
18FE7
100
AcDbEntity
  8
細線
100
AcDbLine
 10
2634.769575003633
 20
2639.54733092316
 30
0.0
 11
2708.769575003629
 21
2639.54733092316
 31
0.0
  0
LINE
  5
1902E
330
18FE7
100
AcDbEntity
  8
細線
100
AcDbLine
 10
2782.769575003629
 20
2639.54733092316
 30
0.0
 11
2713.76957500363
 21
2639.54733092316
 31
0.0
  0
LINE
  5
1902F
330
18FE7
100
AcDbEntity
  8
細線
100
AcDbLine
 10
2782.769575003633
 20
2627.547330923161
 30
0.0
 11
2708.769575003629
 21
2627.547330923161
 31
0.0
  0
LINE
  5
19030
330
18FE7
100
AcDbEntity
  8
細線
100
AcDbLine
 10
2782.769575003629
 20
2633.54733092316
 30
0.0
 11
2708.769575003629
 21
2633.54733092316
 31
0.0
  0
LINE
  5
19031
330
18FE7
100
AcDbEntity
  8
細線
100
AcDbLine
 10
2782.769575003629
 20
2639.54733092316
 30
0.0
 11
2708.769575003629
 21
2639.54733092316
 31
0.0
  0
LINE
  5
19032
330
18FE7
100
AcDbEntity
  8
部品1
 48
0.01
100
AcDbLine
 10
2620.76957500363
 20
2652.04733092316
 30
0.0
 11
2796.769575003629
 21
2652.04733092316
 31
0.0
  0
LINE
  5
19033
330
18FE7
100
AcDbEntity
  8
部品1
 48
0.01
100
AcDbLine
 10
2798.769575003629
 20
2650.04733092316
 30
0.0
 11
2798.769575003629
 21
2618.54733092316
 31
0.0
  0
LINE
  5
19034
330
18FE7
100
AcDbEntity
  8
部品1
 48
0.01
100
AcDbLine
 10
2796.769575003629
 20
2616.54733092316
 30
0.0
 11
2620.769575003633
 21
2616.54733092316
 31
0.0
  0
LINE
  5
19035
330
18FE7
100
AcDbEntity
  8
部品1
 48
0.01
100
AcDbLine
 10
2618.769575003633
 20
2618.54733092316
 30
0.0
 11
2618.769575003629
 21
2650.04733092316
 31
0.0
  0
LINE
  5
19036
330
18FE7
100
AcDbEntity
  8
細線
100
AcDbLine
 10
2782.769575003629
 20
2645.54733092316
 30
0.0
 11
2782.769575003629
 21
2622.54733092316
 31
0.0
  0
LINE
  5
19037
330
18FE7
100
AcDbEntity
  8
細線
100
AcDbLine
 10
2634.769575003629
 20
2622.54733092316
 30
0.0
 11
2634.769575003629
 21
2645.54733092316
 31
0.0
  0
LINE
  5
19038
330
18FE7
100
AcDbEntity
  8
細線
100
AcDbLine
 10
2634.769575003629
 20
2645.54733092316
 30
0.0
 11
2708.769575003629
 21
2645.54733092316
 31
0.0
  0
LINE
  5
19039
330
18FE7
100
AcDbEntity
  8
細線
100
AcDbLine
 10
2782.769575003629
 20
2622.54733092316
 30
0.0
 11
2708.769575003629
 21
2622.54733092316
 31
0.0
  0
LINE
  5
1903A
330
18FE7
100
AcDbEntity
  8
細線
100
AcDbLine
 10
2708.769575003629
 20
2645.54733092316
 30
0.0
 11
2782.769575003629
 21
2645.54733092316
 31
0.0
  0
LINE
  5
1903B
330
18FE7
100
AcDbEntity
  8
細線
100
AcDbLine
 10
2708.769575003633
 20
2622.54733092316
 30
0.0
 11
2634.769575003629
 21
2622.54733092316
 31
0.0
  0
ARC
  5
1903C
330
18FE7
100
AcDbEntity
  8
部品1
 48
0.01
100
AcDbCircle
 10
2796.769575003629
 20
2650.04733092316
 30
0.0
 40
2.0
100
AcDbArc
 50
0.0
 51
90.0
  0
ARC
  5
1903D
330
18FE7
100
AcDbEntity
  8
部品1
 48
0.01
100
AcDbCircle
 10
2796.769575003629
 20
2618.54733092316
 30
0.0
 40
2.0
100
AcDbArc
 50
270.0
 51
0.0
  0
ARC
  5
1903E
330
18FE7
100
AcDbEntity
  8
部品1
 48
0.01
100
AcDbCircle
 10
2620.76957500363
 20
2650.04733092316
 30
0.0
 40
2.0
100
AcDbArc
 50
90.0
 51
180.0
  0
ARC
  5
1903F
330
18FE7
100
AcDbEntity
  8
部品1
 48
0.01
100
AcDbCircle
 10
2620.769575003633
 20
2618.54733092316
 30
0.0
 40
2.0
100
AcDbArc
 50
180.0
 51
270.0
  0
LINE
  5
19040
330
18FE7
100
AcDbEntity
  8
部品1
 48
50.0
100
AcDbLine
 10
3198.769575003633
 20
2586.047330923161
 30
0.0
 11
3198.769575003633
 21
2680.047330923165
 31
0.0
  0
LINE
  5
19041
330
18FE7
100
AcDbEntity
  8
部品1
 48
50.0
100
AcDbLine
 10
3188.769575003633
 20
2680.047330923165
 30
0.0
 11
3188.769575003631
 21
2821.047330923165
 31
0.0
  0
LINE
  5
19042
330
18FE7
100
AcDbEntity
  8
部品1
100
AcDbLine
 10
5458.3499139883
 20
2813.650805527927
 30
0.0
 11
5457.21651665595
 21
2793.674677545329
 31
0.0
  0
LINE
  5
19043
330
18FE7
100
AcDbEntity
  8
細線
 48
50.0
100
AcDbLine
 10
5425.769575003631
 20
2821.047330923168
 30
0.0
 11
5425.769575003631
 21
2680.047330923168
 31
0.0
  0
LINE
  5
19044
330
18FE7
100
AcDbEntity
  8
部品1
100
AcDbLine
 10
5445.779496334374
 20
2698.017270378266
 30
0.0
 11
5445.134590527266
 21
2686.650805527927
 31
0.0
  0
LINE
  5
19045
330
18FE7
100
AcDbEntity
  8
部品1
100
AcDbLine
 10
5454.015526859222
 20
2790.217270378271
 30
0.0
 11
5448.980486131111
 21
2701.474677545324
 31
0.0
  0
ARC
  5
19046
330
18FE7
100
AcDbEntity
  8
部品1
 48
50.0
100
AcDbCircle
 10
5457.010709755407
 20
2790.047330923167
 30
0.0
 40
3.0
100
AcDbArc
 50
97.65812720736347
 51
176.7526572096653
  0
ARC
  5
19047
330
18FE7
100
AcDbEntity
  8
部品1
 48
50.0
100
AcDbCircle
 10
5448.774679230563
 20
2697.847330923163
 30
0.0
 40
3.0
100
AcDbArc
 50
97.65812720736347
 51
176.7526572096653
  0
ARC
  5
19048
330
18FE7
100
AcDbEntity
  8
部品1
 48
50.0
100
AcDbCircle
 10
5448.281610122002
 20
2701.51433008485
 30
0.0
 40
0.7
100
AcDbArc
 50
277.6581272073635
 51
356.7526572096653
  0
ARC
  5
19049
330
18FE7
100
AcDbEntity
  8
部品1
 48
50.0
100
AcDbCircle
 10
5456.517640646842
 20
2793.714330084851
 30
0.0
 40
0.7
100
AcDbArc
 50
277.6581272073635
 51
356.7526572096653
  0
ARC
  5
1904A
330
18FE7
100
AcDbEntity
  8
部品1
100
AcDbCircle
 10
5438.145830436167
 20
2687.047330923168
 30
0.0
 40
7.0
100
AcDbArc
 50
270.0
 51
356.7526572096653
  0
ARC
  5
1904B
330
18FE7
100
AcDbEntity
  8
部品1
100
AcDbCircle
 10
5451.361153897201
 20
2814.047330923168
 30
0.0
 40
7.0
100
AcDbArc
 50
356.7526572096653
 51
90.0
  0
DIMENSION
  5
1904C
330
18FE7
100
AcDbEntity
  8
寸法
 48
50.0
100
AcDbDimension
  2
*D43
 10
5408.769575003634
 20
3226.773602655074
 30
0.0
 11
5772.25485637787
 21
3226.773602655074
 31
0.0
 12
-2175.903482120048
 22
-1415.223289824978
 32
0.0
 70
   128
 71
     5
 42
49.99999999999636
  3
INABA_S40G
100
AcDbAlignedDimension
 13
5458.76957500363
 23
2821.047330923164
 33
0.0
 14
5408.769575003634
 24
2821.047330923168
 34
0.0
100
AcDbRotatedDimension
  0
LINE
  5
1904D
330
18FE7
100
AcDbEntity
  8
部品1
100
AcDbLine
 10
988.7695750036282
 20
2586.04733092316
 30
0.0
 11
5408.769575003629
 21
2586.047330923158
 31
0.0
  0
LINE
  5
1904E
330
18FE7
100
AcDbEntity
  8
部品1
 48
50.0
100
AcDbLine
 10
5451.361153897201
 20
2821.047330923163
 30
0.0
 11
946.177996110061
 21
2821.047330923168
 31
0.0
  0
LINE
  5
1904F
330
18FE7
100
AcDbEntity
  8
部品1
 48
50.0
100
AcDbLine
 10
5438.145830436167
 20
2680.047330923168
 30
0.0
 11
959.3933195710915
 21
2680.047330923168
 31
0.0
  0
LINE
  5
19050
330
18FE7
100
AcDbEntity
  8
細線
 48
50.0
100
AcDbLine
 10
5456.7300367822
 20
2793.047330923169
 30
0.0
 11
940.8091132250692
 21
2793.047330923164
 31
0.0
  0
LINE
  5
19051
330
18FE7
100
AcDbEntity
  8
細線
 48
50.0
100
AcDbLine
 10
5448.494006257321
 20
2700.847330923156
 30
0.0
 11
949.0451437498986
 21
2700.847330923167
 31
0.0
  0
LINE
  5
19052
330
18FE7
100
AcDbEntity
  8
細線
 48
50.0
100
AcDbLine
 10
971.7695750036282
 20
2821.047330923164
 30
0.0
 11
971.7695750036282
 21
2680.047330923164
 31
0.0
  0
ARC
  5
19053
330
18FE7
100
AcDbEntity
  8
部品1
100
AcDbCircle
 10
946.177996110061
 20
2814.047330923164
 30
0.0
 40
7.0
100
AcDbArc
 50
90.0
 51
183.2473427903347
  0
ARC
  5
19054
330
18FE7
100
AcDbEntity
  8
部品1
100
AcDbCircle
 10
959.3933195710915
 20
2687.047330923168
 30
0.0
 40
7.0
100
AcDbArc
 50
183.2473427903347
 51
270.0
  0
ARC
  5
19055
330
18FE7
100
AcDbEntity
  8
部品1
 48
50.0
100
AcDbCircle
 10
941.0215093604191
 20
2793.714330084851
 30
0.0
 40
0.7
100
AcDbArc
 50
183.2473427903347
 51
262.3418727926365
  0
ARC
  5
19056
330
18FE7
100
AcDbEntity
  8
部品1
 48
50.0
100
AcDbCircle
 10
949.257539885256
 20
2701.514330084847
 30
0.0
 40
0.7
100
AcDbArc
 50
183.2473427903347
 51
262.3418727926365
  0
ARC
  5
19057
330
18FE7
100
AcDbEntity
  8
部品1
 48
50.0
100
AcDbCircle
 10
948.7644707766948
 20
2697.847330923163
 30
0.0
 40
3.0
100
AcDbArc
 50
3.24734279033473
 51
82.34187279263654
  0
ARC
  5
19058
330
18FE7
100
AcDbEntity
  8
部品1
 48
50.0
100
AcDbCircle
 10
940.5284402518509
 20
2790.047330923167
 30
0.0
 40
3.0
100
AcDbArc
 50
3.24734279033473
 51
82.34187279263654
  0
LINE
  5
19059
330
18FE7
100
AcDbEntity
  8
部品1
100
AcDbLine
 10
943.5236231480367
 20
2790.217270378267
 30
0.0
 11
948.5586638761516
 21
2701.474677545324
 31
0.0
  0
LINE
  5
1905A
330
18FE7
100
AcDbEntity
  8
部品1
100
AcDbLine
 10
951.7596536728879
 20
2698.017270378266
 30
0.0
 11
952.4045594799963
 21
2686.650805527927
 31
0.0
  0
LINE
  5
1905B
330
18FE7
100
AcDbEntity
  8
部品1
100
AcDbLine
 10
939.1892360189585
 20
2813.650805527927
 30
0.0
 11
940.3226333513075
 21
2793.674677545325
 31
0.0
  0
DIMENSION
  5
1905C
330
18FE7
100
AcDbEntity
  8
寸法
 48
50.0
100
AcDbDimension
  2
*D40
 10
938.7695750036282
 20
3226.77360265507
 30
0.0
 11
625.2842936293809
 21
3226.77360265507
 31
0.0
 12
-2175.903482120048
 22
-1415.223289824978
 32
0.0
 70
   128
 71
     5
 42
50.0
  3
INABA_S40G
100
AcDbAlignedDimension
 13
988.7695750036282
 23
2821.047330923168
 33
0.0
 14
938.7695750036282
 24
2821.047330923168
 34
0.0
100
AcDbRotatedDimension
1001
ACAD
1000
DSTYLE
1002
{
1002
}
  0
DIMENSION
  5
1905D
330
18FE7
100
AcDbEntity
  8
寸法
 48
50.0
100
AcDbDimension
  2
*D41
 10
5458.76957500363
 20
3426.68252386916
 30
0.0
 11
3198.769575003629
 21
3426.68252386916
 31
0.0
 12
-2175.903482120048
 22
-1415.223289824978
 32
0.0
 70
   128
 71
     5
 42
4520.000000000002
  3
INABA_S40G
100
AcDbAlignedDimension
 13
938.7695750036282
 23
2821.047330923168
 33
0.0
 14
5458.76957500363
 24
2821.047330923164
 34
0.0
100
AcDbRotatedDimension
  0
DIMENSION
  5
1905E
330
18FE7
100
AcDbEntity
  8
寸法
 48
50.0
100
AcDbDimension
  2
*D42
 10
988.7695750036282
 20
3226.77360265507
 30
0.0
 11
3198.769575003629
 21
3226.77360265507
 31
0.0
 12
-2175.903482120048
 22
-1415.223289824978
 32
0.0
 70
   128
  1
柱外寸法<>
 71
     5
 42
4420.000000000005
  3
INABA_S40G
100
AcDbAlignedDimension
 13
5408.769575003634
 23
2821.047330923168
 33
0.0
 14
988.7695750036282
 24
2821.047330923168
 34
0.0
100
AcDbRotatedDimension
  0
LINE
  5
1905F
330
18FE7
100
AcDbEntity
  8
部品1
100
AcDbLine
 10
988.7695750036291
 20
746.0473309231597
 30
0.0
 11
5408.769575003629
 21
746.0473309231602
 31
0.0
  0
LINE
  5
19060
330
18FE7
100
AcDbEntity
  8
部品1
100
AcDbLine
 10
1043.769575003629
 20
2421.047330923161
 30
0.0
 11
3143.769575003629
 21
2421.047330923161
 31
0.0
  0
LINE
  5
19061
330
18FE7
100
AcDbEntity
  8
細線
 48
50.0
100
AcDbLine
 10
1793.769575003627
 20
1323.54733092316
 30
0.0
 11
1893.769575003627
 21
1323.54733092316
 31
0.0
  0
LINE
  5
19062
330
18FE7
100
AcDbEntity
  8
細線
 48
50.0
100
AcDbLine
 10
1893.769575003627
 20
1293.547330923161
 30
0.0
 11
1793.769575003627
 21
1293.547330923161
 31
0.0
  0
LINE
  5
19063
330
18FE7
100
AcDbEntity
  8
細線
100
AcDbLine
 10
1091.769575003625
 20
1276.047330923161
 30
0.0
 11
3095.769575003628
 21
1276.047330923161
 31
0.0
  0
LINE
  5
19064
330
18FE7
100
AcDbEntity
  8
細線
100
AcDbLine
 10
1091.769575003625
 20
1211.04733092316
 30
0.0
 11
3095.769575003628
 21
1211.04733092316
 31
0.0
  0
LINE
  5
19065
330
18FE7
100
AcDbEntity
  8
細線
100
AcDbLine
 10
1091.769575003625
 20
1146.04733092316
 30
0.0
 11
3095.769575003628
 21
1146.04733092316
 31
0.0
  0
LINE
  5
19066
330
18FE7
100
AcDbEntity
  8
細線
100
AcDbLine
 10
1091.769575003625
 20
1081.04733092316
 30
0.0
 11
3095.769575003628
 21
1081.04733092316
 31
0.0
  0
LINE
  5
19067
330
18FE7
100
AcDbEntity
  8
細線
100
AcDbLine
 10
1091.769575003625
 20
1016.047330923161
 30
0.0
 11
3095.769575003628
 21
1016.047330923161
 31
0.0
  0
LINE
  5
19068
330
18FE7
100
AcDbEntity
  8
細線
100
AcDbLine
 10
1091.769575003625
 20
951.0473309231606
 30
0.0
 11
3095.769575003628
 21
951.0473309231606
 31
0.0
  0
LINE
  5
19069
330
18FE7
100
AcDbEntity
  8
細線
100
AcDbLine
 10
1091.769575003625
 20
886.0473309231606
 30
0.0
 11
3095.769575003628
 21
886.0473309231606
 31
0.0
  0
LINE
  5
1906A
330
18FE7
100
AcDbEntity
  8
細線
100
AcDbLine
 10
1091.769575003625
 20
821.0473309231606
 30
0.0
 11
3095.769575003628
 21
821.0473309231606
 31
0.0
  0
LINE
  5
1906B
330
18FE7
100
AcDbEntity
  8
細線
100
AcDbLine
 10
1091.769575003625
 20
1926.047330923161
 30
0.0
 11
3095.769575003628
 21
1926.047330923161
 31
0.0
  0
LINE
  5
1906C
330
18FE7
100
AcDbEntity
  8
細線
100
AcDbLine
 10
1091.769575003625
 20
1861.047330923161
 30
0.0
 11
3095.769575003628
 21
1861.047330923161
 31
0.0
  0
LINE
  5
1906D
330
18FE7
100
AcDbEntity
  8
細線
100
AcDbLine
 10
1091.769575003625
 20
1796.04733092316
 30
0.0
 11
3095.769575003628
 21
1796.04733092316
 31
0.0
  0
LINE
  5
1906E
330
18FE7
100
AcDbEntity
  8
細線
100
AcDbLine
 10
1091.769575003625
 20
1731.047330923161
 30
0.0
 11
3095.769575003628
 21
1731.047330923161
 31
0.0
  0
LINE
  5
1906F
330
18FE7
100
AcDbEntity
  8
細線
100
AcDbLine
 10
1091.769575003625
 20
1666.04733092316
 30
0.0
 11
3095.769575003628
 21
1666.04733092316
 31
0.0
  0
LINE
  5
19070
330
18FE7
100
AcDbEntity
  8
細線
100
AcDbLine
 10
1091.769575003625
 20
1601.047330923161
 30
0.0
 11
3095.769575003628
 21
1601.047330923161
 31
0.0
  0
LINE
  5
19071
330
18FE7
100
AcDbEntity
  8
細線
100
AcDbLine
 10
1091.769575003625
 20
1536.04733092316
 30
0.0
 11
3095.769575003628
 21
1536.04733092316
 31
0.0
  0
LINE
  5
19072
330
18FE7
100
AcDbEntity
  8
細線
100
AcDbLine
 10
1091.769575003625
 20
1471.04733092316
 30
0.0
 11
3095.769575003628
 21
1471.04733092316
 31
0.0
  0
LINE
  5
19073
330
18FE7
100
AcDbEntity
  8
細線
100
AcDbLine
 10
1091.769575003625
 20
1406.047330923161
 30
0.0
 11
3095.769575003628
 21
1406.047330923161
 31
0.0
  0
LINE
  5
19074
330
18FE7
100
AcDbEntity
  8
細線
100
AcDbLine
 10
1091.769575003625
 20
1341.04733092316
 30
0.0
 11
3095.769575003628
 21
1341.04733092316
 31
0.0
  0
LINE
  5
19075
330
18FE7
100
AcDbEntity
  8
細線
100
AcDbLine
 10
1091.769575003625
 20
2316.04733092316
 30
0.0
 11
3095.769575003628
 21
2316.04733092316
 31
0.0
  0
LINE
  5
19076
330
18FE7
100
AcDbEntity
  8
細線
100
AcDbLine
 10
1091.769575003625
 20
2251.047330923161
 30
0.0
 11
3095.769575003628
 21
2251.047330923161
 31
0.0
  0
LINE
  5
19077
330
18FE7
100
AcDbEntity
  8
細線
100
AcDbLine
 10
1091.769575003625
 20
2186.047330923161
 30
0.0
 11
3095.769575003628
 21
2186.047330923161
 31
0.0
  0
LINE
  5
19078
330
18FE7
100
AcDbEntity
  8
細線
100
AcDbLine
 10
1091.769575003625
 20
2121.047330923161
 30
0.0
 11
3095.769575003628
 21
2121.047330923161
 31
0.0
  0
LINE
  5
19079
330
18FE7
100
AcDbEntity
  8
細線
100
AcDbLine
 10
1091.769575003625
 20
2056.047330923161
 30
0.0
 11
3095.769575003628
 21
2056.047330923161
 31
0.0
  0
LINE
  5
1907A
330
18FE7
100
AcDbEntity
  8
細線
100
AcDbLine
 10
1091.769575003625
 20
1991.04733092316
 30
0.0
 11
3095.769575003628
 21
1991.04733092316
 31
0.0
  0
LINE
  5
1907B
330
18FE7
100
AcDbEntity
  8
細線
100
AcDbLine
 10
1091.769575003625
 20
2381.047330923161
 30
0.0
 11
3095.769575003628
 21
2381.047330923161
 31
0.0
  0
ARC
  5
1907C
330
18FE7
100
AcDbEntity
  8
細線
 48
50.0
100
AcDbCircle
 10
1793.769575003627
 20
1308.547330923161
 30
0.0
 40
15.0
100
AcDbArc
 50
90.0
 51
270.0
  0
ARC
  5
1907D
330
18FE7
100
AcDbEntity
  8
細線
 48
50.0
100
AcDbCircle
 10
1893.769575003627
 20
1308.547330923161
 30
0.0
 40
15.0
100
AcDbArc
 50
270.0
 51
90.0
  0
LINE
  5
1907E
330
18FE7
100
AcDbEntity
  8
細線
 48
50.0
100
AcDbLine
 10
2393.769575003627
 20
1293.547330923161
 30
0.0
 11
2293.769575003627
 21
1293.547330923161
 31
0.0
  0
LINE
  5
1907F
330
18FE7
100
AcDbEntity
  8
細線
 48
50.0
100
AcDbLine
 10
2293.769575003627
 20
1323.54733092316
 30
0.0
 11
2393.769575003627
 21
1323.54733092316
 31
0.0
  0
ARC
  5
19080
330
18FE7
100
AcDbEntity
  8
細線
 48
50.0
100
AcDbCircle
 10
2293.769575003627
 20
1308.547330923161
 30
0.0
 40
15.0
100
AcDbArc
 50
90.0
 51
270.0
  0
ARC
  5
19081
330
18FE7
100
AcDbEntity
  8
細線
 48
50.0
100
AcDbCircle
 10
2393.769575003627
 20
1308.547330923161
 30
0.0
 40
15.0
100
AcDbArc
 50
270.0
 51
90.0
  0
CIRCLE
  5
19082
330
18FE7
100
AcDbEntity
  8
細線
 48
50.0
100
AcDbCircle
 10
2093.769575003627
 20
1633.54733092316
 30
0.0
 40
18.0
  0
LINE
  5
19083
330
18FE7
100
AcDbEntity
  8
細線
100
AcDbLine
 10
3095.769575003629
 20
756.0473309231606
 30
0.0
 11
1091.769575003624
 21
756.0473309231606
 31
0.0
  0
LINE
  5
19084
330
18FE7
100
AcDbEntity
  8
破線
 48
5.0
100
AcDbLine
 10
2998.769575003631
 20
646.0473309231602
 30
0.0
 11
2998.769575003631
 21
346.0473309231602
 31
0.0
  0
LINE
  5
19085
330
18FE7
100
AcDbEntity
  8
破線
 48
5.0
100
AcDbLine
 10
3398.769575003631
 20
346.0473309231602
 30
0.0
 11
2998.769575003628
 21
346.0473309231602
 31
0.0
  0
DIMENSION
  5
19086
330
18FE7
100
AcDbEntity
  8
寸法
 48
50.0
100
AcDbDimension
  2
*D39
 10
2998.769575003628
 20
60.00000162278229
 30
0.0
 11
3198.769575003629
 21
160.0000016227823
 31
0.0
 12
-2175.903482120048
 22
-1415.223289824978
 32
0.0
 71
     5
 42
400.0000000000018
  3
INABA_S40G
100
AcDbAlignedDimension
 13
3398.76957500363
 23
346.0473309231602
 33
0.0
 14
2998.769575003628
 24
346.0473309231602
 34
0.0
100
AcDbRotatedDimension
  0
LINE
  5
19087
330
18FE7
100
AcDbEntity
  8
破線
 48
5.0
100
AcDbLine
 10
3398.769575003631
 20
646.0473309231602
 30
0.0
 11
3398.769575003631
 21
346.0473309231602
 31
0.0
  0
LINE
  5
19088
330
18FE7
100
AcDbEntity
  8
部品1
100
AcDbLine
 10
3253.769575003629
 20
2421.047330923161
 30
0.0
 11
5353.769575003629
 21
2421.047330923161
 31
0.0
  0
LINE
  5
19089
330
18FE7
100
AcDbEntity
  8
部品1
100
AcDbLine
 10
3253.769575003629
 20
2586.04733092316
 30
0.0
 11
3253.769575003629
 21
746.0473309231602
 31
0.0
  0
LINE
  5
1908A
330
18FE7
100
AcDbEntity
  8
破線
 48
5.0
100
AcDbLine
 10
3253.769575003629
 20
746.0473309231602
 30
0.0
 11
3253.769575003627
 21
396.0473309231602
 31
0.0
  0
LINE
  5
1908B
330
18FE7
100
AcDbEntity
  8
破線
 48
5.0
100
AcDbLine
 10
3301.769575003627
 20
446.0473309231656
 30
0.0
 11
3253.769575003627
 21
446.0473309231656
 31
0.0
  0
LINE
  5
1908C
330
18FE7
100
AcDbEntity
  8
破線
 48
5.0
100
AcDbLine
 10
3301.769575003629
 20
746.0473309231602
 30
0.0
 11
3301.769575003627
 21
446.0473309231656
 31
0.0
  0
LINE
  5
1908D
330
18FE7
100
AcDbEntity
  8
部品1
100
AcDbLine
 10
3301.769575003629
 20
2421.047330923161
 30
0.0
 11
3301.769575003629
 21
746.0473309231602
 31
0.0
  0
LINE
  5
1908E
330
18FE7
100
AcDbEntity
  8
破線
 48
5.0
100
AcDbLine
 10
3253.769575003627
 20
396.0473309231602
 30
0.0
 11
3143.769575003629
 21
396.0473309231602
 31
0.0
  0
LINE
  5
1908F
330
18FE7
100
AcDbEntity
  8
破線
 48
5.0
100
AcDbLine
 10
3143.769575003628
 20
746.0473309231602
 30
0.0
 11
3143.769575003629
 21
396.0473309231602
 31
0.0
  0
LINE
  5
19090
330
18FE7
100
AcDbEntity
  8
破線
 48
5.0
100
AcDbLine
 10
3143.769575003631
 20
446.0473309231601
 30
0.0
 11
3095.769575003629
 21
446.0473309231601
 31
0.0
  0
LINE
  5
19091
330
18FE7
100
AcDbEntity
  8
破線
 48
5.0
100
AcDbLine
 10
3095.769575003628
 20
746.0473309231602
 30
0.0
 11
3095.769575003629
 21
446.0473309231601
 31
0.0
  0
LINE
  5
19092
330
18FE7
100
AcDbEntity
  8
部品1
100
AcDbLine
 10
3143.769575003629
 20
2586.04733092316
 30
0.0
 11
3143.769575003628
 21
746.0473309231602
 31
0.0
  0
LINE
  5
19093
330
18FE7
100
AcDbEntity
  8
部品1
100
AcDbLine
 10
3095.769575003631
 20
2421.047330923161
 30
0.0
 11
3095.769575003628
 21
746.0473309231602
 31
0.0
  0
ARC
  5
19094
330
18FE7
100
AcDbEntity
  8
細線
 48
50.0
100
AcDbCircle
 10
4003.769575003627
 20
1308.54733092316
 30
0.0
 40
15.0
100
AcDbArc
 50
90.0
 51
270.0
  0
ARC
  5
19095
330
18FE7
100
AcDbEntity
  8
細線
 48
50.0
100
AcDbCircle
 10
4103.769575003627
 20
1308.54733092316
 30
0.0
 40
15.0
100
AcDbArc
 50
270.0
 51
90.0
  0
LINE
  5
19096
330
18FE7
100
AcDbEntity
  8
細線
 48
50.0
100
AcDbLine
 10
4003.769575003627
 20
1323.54733092316
 30
0.0
 11
4103.769575003627
 21
1323.54733092316
 31
0.0
  0
LINE
  5
19097
330
18FE7
100
AcDbEntity
  8
細線
 48
50.0
100
AcDbLine
 10
4103.769575003627
 20
1293.54733092316
 30
0.0
 11
4003.769575003627
 21
1293.54733092316
 31
0.0
  0
LINE
  5
19098
330
18FE7
100
AcDbEntity
  8
細線
 48
50.0
100
AcDbLine
 10
4603.769575003627
 20
1293.54733092316
 30
0.0
 11
4503.769575003627
 21
1293.54733092316
 31
0.0
  0
LINE
  5
19099
330
18FE7
100
AcDbEntity
  8
細線
 48
50.0
100
AcDbLine
 10
4503.769575003627
 20
1323.54733092316
 30
0.0
 11
4603.769575003627
 21
1323.54733092316
 31
0.0
  0
ARC
  5
1909A
330
18FE7
100
AcDbEntity
  8
細線
 48
50.0
100
AcDbCircle
 10
4503.769575003627
 20
1308.54733092316
 30
0.0
 40
15.0
100
AcDbArc
 50
90.0
 51
270.0
  0
ARC
  5
1909B
330
18FE7
100
AcDbEntity
  8
細線
 48
50.0
100
AcDbCircle
 10
4603.769575003627
 20
1308.54733092316
 30
0.0
 40
15.0
100
AcDbArc
 50
270.0
 51
90.0
  0
CIRCLE
  5
1909C
330
18FE7
100
AcDbEntity
  8
細線
 48
50.0
100
AcDbCircle
 10
4303.769575003626
 20
1633.54733092316
 30
0.0
 40
18.0
  0
DIMENSION
  5
1909D
330
18FE7
100
AcDbEntity
  8
寸法
 48
50.0
100
AcDbDimension
  2
*D38
 10
5696.312677325376
 20
2586.04733092316
 30
0.0
 11
5696.312677325376
 21
2824.532612297399
 31
0.0
 12
-2175.903482120048
 22
-1415.223289824978
 32
0.0
 70
   128
 71
     5
 42
164.9999999999991
  3
INABA_S40G
100
AcDbAlignedDimension
 13
5353.769575003629
 23
2421.047330923161
 33
0.0
 14
5408.769575003629
 24
2586.04733092316
 34
0.0
 50
90.0
100
AcDbRotatedDimension
1001
ACAD
1000
DSTYLE
1002
{
1002
}
  0
DIMENSION
  5
1909E
330
18FE7
100
AcDbEntity
  8
寸法
 48
50.0
100
AcDbDimension
  2
*D37
 10
5696.312677325376
 20
2421.047330923161
 30
0.0
 11
5836.482500571741
 21
2422.014530762819
 31
0.0
 12
-2175.903482120048
 22
-1415.223289824978
 32
0.0
 70
   128
 71
     5
 42
15.00000000000091
  3
INABA_S40G
100
AcDbAlignedDimension
 13
5408.769575003629
 23
2406.04733092316
 33
0.0
 14
5353.769575003629
 24
2421.047330923161
 34
0.0
 50
90.0
100
AcDbRotatedDimension
1001
ACAD
1000
DSTYLE
1002
{
1070
   279
1070
     2
1002
}
  0
DIMENSION
  5
1909F
330
18FE7
100
AcDbEntity
  8
寸法
 48
50.0
100
AcDbDimension
  2
*D36
 10
5696.312677325376
 20
2406.04733092316
 30
0.0
 11
5596.312677325375
 21
1576.047330923161
 31
0.0
 12
-2175.903482120048
 22
-1415.223289824978
 32
0.0
  1
有効開口部高サ <>
 71
     5
 42
1660.0
  3
INABA_S40G
100
AcDbAlignedDimension
 13
5408.769575003629
 23
746.0473309231602
 33
0.0
 14
5408.769575003629
 24
2406.04733092316
 34
0.0
 50
90.0
100
AcDbRotatedDimension
  0
LINE
  5
190A0
330
18FE7
100
AcDbEntity
  8
細線
100
AcDbLine
 10
5305.76957500363
 20
756.0473309231602
 30
0.0
 11
3301.769575003624
 21
756.0473309231602
 31
0.0
  0
LINE
  5
190A1
330
18FE7
100
AcDbEntity
  8
細線
100
AcDbLine
 10
3301.769575003625
 20
1276.04733092316
 30
0.0
 11
5305.769575003627
 21
1276.04733092316
 31
0.0
  0
LINE
  5
190A2
330
18FE7
100
AcDbEntity
  8
細線
100
AcDbLine
 10
3301.769575003625
 20
1211.04733092316
 30
0.0
 11
5305.769575003627
 21
1211.04733092316
 31
0.0
  0
LINE
  5
190A3
330
18FE7
100
AcDbEntity
  8
細線
100
AcDbLine
 10
3301.769575003625
 20
1146.04733092316
 30
0.0
 11
5305.769575003627
 21
1146.04733092316
 31
0.0
  0
LINE
  5
190A4
330
18FE7
100
AcDbEntity
  8
細線
100
AcDbLine
 10
3301.769575003625
 20
1081.04733092316
 30
0.0
 11
5305.769575003627
 21
1081.04733092316
 31
0.0
  0
LINE
  5
190A5
330
18FE7
100
AcDbEntity
  8
細線
100
AcDbLine
 10
3301.769575003625
 20
1016.04733092316
 30
0.0
 11
5305.769575003627
 21
1016.04733092316
 31
0.0
  0
LINE
  5
190A6
330
18FE7
100
AcDbEntity
  8
細線
100
AcDbLine
 10
3301.769575003625
 20
951.0473309231601
 30
0.0
 11
5305.769575003627
 21
951.0473309231601
 31
0.0
  0
LINE
  5
190A7
330
18FE7
100
AcDbEntity
  8
細線
100
AcDbLine
 10
3301.769575003625
 20
886.0473309231602
 30
0.0
 11
5305.769575003627
 21
886.0473309231602
 31
0.0
  0
LINE
  5
190A8
330
18FE7
100
AcDbEntity
  8
細線
100
AcDbLine
 10
3301.769575003625
 20
821.0473309231602
 30
0.0
 11
5305.769575003627
 21
821.0473309231602
 31
0.0
  0
LINE
  5
190A9
330
18FE7
100
AcDbEntity
  8
細線
100
AcDbLine
 10
3301.769575003625
 20
756.0473309231602
 30
0.0
 11
5305.769575003627
 21
756.0473309231602
 31
0.0
  0
LINE
  5
190AA
330
18FE7
100
AcDbEntity
  8
細線
100
AcDbLine
 10
3301.769575003625
 20
1926.04733092316
 30
0.0
 11
5305.769575003627
 21
1926.04733092316
 31
0.0
  0
LINE
  5
190AB
330
18FE7
100
AcDbEntity
  8
細線
100
AcDbLine
 10
3301.769575003625
 20
1861.04733092316
 30
0.0
 11
5305.769575003627
 21
1861.04733092316
 31
0.0
  0
LINE
  5
190AC
330
18FE7
100
AcDbEntity
  8
細線
100
AcDbLine
 10
3301.769575003625
 20
1796.04733092316
 30
0.0
 11
5305.769575003627
 21
1796.04733092316
 31
0.0
  0
LINE
  5
190AD
330
18FE7
100
AcDbEntity
  8
細線
100
AcDbLine
 10
3301.769575003625
 20
1731.04733092316
 30
0.0
 11
5305.769575003627
 21
1731.04733092316
 31
0.0
  0
LINE
  5
190AE
330
18FE7
100
AcDbEntity
  8
細線
100
AcDbLine
 10
3301.769575003625
 20
1666.04733092316
 30
0.0
 11
5305.769575003627
 21
1666.04733092316
 31
0.0
  0
LINE
  5
190AF
330
18FE7
100
AcDbEntity
  8
細線
100
AcDbLine
 10
3301.769575003625
 20
1601.04733092316
 30
0.0
 11
5305.769575003627
 21
1601.04733092316
 31
0.0
  0
LINE
  5
190B0
330
18FE7
100
AcDbEntity
  8
細線
100
AcDbLine
 10
3301.769575003625
 20
1536.04733092316
 30
0.0
 11
5305.769575003627
 21
1536.04733092316
 31
0.0
  0
LINE
  5
190B1
330
18FE7
100
AcDbEntity
  8
細線
100
AcDbLine
 10
3301.769575003625
 20
1471.04733092316
 30
0.0
 11
5305.769575003627
 21
1471.04733092316
 31
0.0
  0
LINE
  5
190B2
330
18FE7
100
AcDbEntity
  8
細線
100
AcDbLine
 10
3301.769575003625
 20
1406.04733092316
 30
0.0
 11
5305.769575003627
 21
1406.04733092316
 31
0.0
  0
LINE
  5
190B3
330
18FE7
100
AcDbEntity
  8
細線
100
AcDbLine
 10
3301.769575003625
 20
1341.04733092316
 30
0.0
 11
5305.769575003627
 21
1341.04733092316
 31
0.0
  0
LINE
  5
190B4
330
18FE7
100
AcDbEntity
  8
細線
100
AcDbLine
 10
3301.769575003625
 20
2316.04733092316
 30
0.0
 11
5305.769575003627
 21
2316.04733092316
 31
0.0
  0
LINE
  5
190B5
330
18FE7
100
AcDbEntity
  8
細線
100
AcDbLine
 10
3301.769575003625
 20
2251.04733092316
 30
0.0
 11
5305.769575003627
 21
2251.04733092316
 31
0.0
  0
LINE
  5
190B6
330
18FE7
100
AcDbEntity
  8
細線
100
AcDbLine
 10
3301.769575003625
 20
2186.04733092316
 30
0.0
 11
5305.769575003627
 21
2186.04733092316
 31
0.0
  0
LINE
  5
190B7
330
18FE7
100
AcDbEntity
  8
細線
100
AcDbLine
 10
3301.769575003625
 20
2121.04733092316
 30
0.0
 11
5305.769575003627
 21
2121.04733092316
 31
0.0
  0
LINE
  5
190B8
330
18FE7
100
AcDbEntity
  8
細線
100
AcDbLine
 10
3301.769575003625
 20
2056.04733092316
 30
0.0
 11
5305.769575003627
 21
2056.04733092316
 31
0.0
  0
LINE
  5
190B9
330
18FE7
100
AcDbEntity
  8
細線
100
AcDbLine
 10
3301.769575003625
 20
1991.04733092316
 30
0.0
 11
5305.769575003627
 21
1991.04733092316
 31
0.0
  0
LINE
  5
190BA
330
18FE7
100
AcDbEntity
  8
細線
100
AcDbLine
 10
3301.769575003625
 20
2381.047330923161
 30
0.0
 11
5305.769575003627
 21
2381.047330923161
 31
0.0
  0
LINE
  5
190BB
330
18FE7
100
AcDbEntity
  8
破線
 48
5.0
100
AcDbLine
 10
1091.769575003627
 20
446.0473309231656
 30
0.0
 11
1043.769575003627
 21
446.0473309231656
 31
0.0
  0
LINE
  5
190BC
330
18FE7
100
AcDbEntity
  8
破線
 48
5.0
100
AcDbLine
 10
5353.769575003632
 20
446.0473309231601
 30
0.0
 11
5305.76957500363
 21
446.0473309231601
 31
0.0
  0
LINE
  5
190BD
330
18FE7
100
AcDbEntity
  8
破線
 48
5.0
100
AcDbLine
 10
5305.769575003627
 20
746.0473309231602
 30
0.0
 11
5305.76957500363
 21
446.0473309231601
 31
0.0
  0
LINE
  5
190BE
330
18FE7
100
AcDbEntity
  8
部品1
100
AcDbLine
 10
5305.769575003631
 20
2421.047330923161
 30
0.0
 11
5305.769575003627
 21
746.0473309231602
 31
0.0
  0
LINE
  5
190BF
330
18FE7
100
AcDbEntity
  8
破線
 48
5.0
100
AcDbLine
 10
1091.769575003629
 20
746.0473309231602
 30
0.0
 11
1091.769575003627
 21
446.0473309231656
 31
0.0
  0
LINE
  5
190C0
330
18FE7
100
AcDbEntity
  8
部品1
100
AcDbLine
 10
1091.769575003629
 20
2421.047330923161
 30
0.0
 11
1091.769575003629
 21
746.0473309231602
 31
0.0
  0
LINE
  5
190C1
330
18FE7
100
AcDbEntity
  8
破線
 48
5.0
100
AcDbLine
 10
1043.769575003627
 20
396.0473309231675
 30
0.0
 11
988.7695750036273
 21
396.0473309231675
 31
0.0
  0
LINE
  5
190C2
330
18FE7
100
AcDbEntity
  8
破線
 48
5.0
100
AcDbLine
 10
5408.769575003628
 20
396.0473309231602
 30
0.0
 11
5353.769575003629
 21
396.0473309231602
 31
0.0
  0
LINE
  5
190C3
330
18FE7
100
AcDbEntity
  8
破線
 48
5.0
100
AcDbLine
 10
1043.769575003629
 20
746.0473309231602
 30
0.0
 11
1043.769575003627
 21
396.0473309231602
 31
0.0
  0
LINE
  5
190C4
330
18FE7
100
AcDbEntity
  8
破線
 48
5.0
100
AcDbLine
 10
5353.769575003628
 20
746.0473309231602
 30
0.0
 11
5353.769575003629
 21
396.0473309231602
 31
0.0
  0
DIMENSION
  5
190C5
330
18FE7
100
AcDbEntity
  8
寸法
 48
50.0
100
AcDbDimension
  2
*D35
 10
5178.769575003627
 20
60.00000162278229
 30
0.0
 11
5353.769575003629
 21
160.0000016227823
 31
0.0
 12
-2175.903482120048
 22
-1415.223289824978
 32
0.0
 71
     5
 42
350.0000000000036
  3
INABA_S40G
100
AcDbAlignedDimension
 13
5528.769575003631
 23
346.0473309231602
 33
0.0
 14
5178.769575003627
 24
346.0473309231602
 34
0.0
100
AcDbRotatedDimension
  0
LINE
  5
190C6
330
18FE7
100
AcDbEntity
  8
破線
 48
5.0
100
AcDbLine
 10
988.7695750036291
 20
646.0473309231602
 30
0.0
 11
988.7695750036273
 21
396.0473309231602
 31
0.0
  0
LINE
  5
190C7
330
18FE7
100
AcDbEntity
  8
破線
 48
5.0
100
AcDbLine
 10
5408.769575003629
 20
646.0473309231602
 30
0.0
 11
5408.769575003629
 21
396.0473309231602
 31
0.0
  0
LINE
  5
190C8
330
18FE7
100
AcDbEntity
  8
破線
 48
5.0
100
AcDbLine
 10
1218.769575003627
 20
646.0473309231602
 30
0.0
 11
1218.769575003627
 21
346.0473309231602
 31
0.0
  0
LINE
  5
190C9
330
18FE7
100
AcDbEntity
  8
破線
 48
5.0
100
AcDbLine
 10
868.7695750036272
 20
646.0473309231602
 30
0.0
 11
868.7695750036272
 21
346.0473309231602
 31
0.0
  0
LINE
  5
190CA
330
18FE7
100
AcDbEntity
  8
破線
 48
5.0
100
AcDbLine
 10
868.7695750036272
 20
346.0473309231602
 30
0.0
 11
1218.769575003629
 21
346.0473309231602
 31
0.0
  0
LINE
  5
190CB
330
18FE7
100
AcDbEntity
  8
破線
 48
5.0
100
AcDbLine
 10
5528.769575003631
 20
646.0473309231602
 30
0.0
 11
5528.769575003631
 21
346.0473309231602
 31
0.0
  0
LINE
  5
190CC
330
18FE7
100
AcDbEntity
  8
破線
 48
5.0
100
AcDbLine
 10
5178.769575003631
 20
646.0473309231602
 30
0.0
 11
5178.769575003631
 21
346.0473309231602
 31
0.0
  0
LINE
  5
190CD
330
18FE7
100
AcDbEntity
  8
破線
 48
5.0
100
AcDbLine
 10
5528.769575003631
 20
346.0473309231602
 30
0.0
 11
5178.769575003627
 21
346.0473309231602
 31
0.0
  0
LINE
  5
190CE
330
18FE7
100
AcDbEntity
  8
部品1
100
AcDbLine
 10
5408.769575003629
 20
2680.04733092317
 30
0.0
 11
5408.769575003629
 21
646.0473309231602
 31
0.0
  0
LINE
  5
190CF
330
18FE7
100
AcDbEntity
  8
部品1
100
AcDbLine
 10
1043.769575003629
 20
2586.04733092316
 30
0.0
 11
1043.769575003629
 21
746.0473309231602
 31
0.0
  0
LINE
  5
190D0
330
18FE7
100
AcDbEntity
  8
部品1
100
AcDbLine
 10
5353.769575003629
 20
2586.04733092316
 30
0.0
 11
5353.769575003628
 21
746.0473309231602
 31
0.0
  0
LINE
  5
190D1
330
18FE7
100
AcDbEntity
  8
部品1
100
AcDbLine
 10
988.7695750036291
 20
2680.047330923168
 30
0.0
 11
988.7695750036291
 21
646.0473309231602
 31
0.0
  0
LINE
  5
190D2
330
18FE7
100
AcDbEntity
  8
部品1
100
AcDbLine
 10
149.9999836572442
 20
775.9511414908247
 30
0.0
 11
74.99998365724422
 21
646.0473309231602
 31
0.0
  0
TEXT
  5
190D3
330
18FE7
100
AcDbEntity
  8
部品1
100
AcDbText
 10
178.1049257820177
 20
682.1542345290618
 30
0.0
 40
125.0
  1
G.L
  7
MSGOTHIC
100
AcDbText
  0
LINE
  5
190D4
330
18FE7
100
AcDbEntity
  8
部品1
100
AcDbLine
 10
74.99998365724422
 20
646.0473309231602
 30
0.0
 11
-0.0000163427557709
 21
775.9511414908247
 31
0.0
  0
LINE
  5
190D5
330
18FE7
100
AcDbEntity
  8
部品1
100
AcDbLine
 10
-0.0000163427557709
 20
775.9511414908247
 30
0.0
 11
149.9999836572442
 21
775.9511414908247
 31
0.0
  0
ENDBLK
  5
190D7
330
18FE7
100
AcDbEntity
  8
0
 48
50.0
100
AcDbBlockEnd
  0
BLOCK
  5
19453
330
19447
100
AcDbEntity
  8
0
 48
50.0
100
AcDbBlockBegin
  2
*D45
 70
     1
 10
0.0
 20
0.0
 30
0.0
  3
*D45
  1

  0
LINE
  5
19BB3
330
19447
100
AcDbEntity
  8
寸法
 62
     0
 48
50.0
370
    -2
100
AcDbLine
 10
9369.673057123657
 20
4556.270620748143
 30
0.0
 11
9369.673057123657
 21
5001.996892480054
 31
0.0
  0
LINE
  5
19BB4
330
19447
100
AcDbEntity
  8
寸法
 62
     0
 48
50.0
370
    -2
100
AcDbLine
 10
9319.67305712366
 20
4556.270620748146
 30
0.0
 11
9319.67305712366
 21
5001.996892480054
 31
0.0
  0
LINE
  5
19BB5
330
19447
100
AcDbEntity
  8
寸法
 62
     0
 48
50.0
370
    -2
100
AcDbLine
 10
9319.67305712366
 20
4941.996892480053
 30
0.0
 11
9219.67305712366
 21
4941.996892480053
 31
0.0
  0
LINE
  5
19BB6
330
19447
100
AcDbEntity
  8
寸法
 62
     0
 48
50.0
370
    -2
100
AcDbLine
 10
9369.673057123657
 20
4941.996892480053
 30
0.0
 11
9789.205582592387
 21
4941.996892480053
 31
0.0
  0
LINE
  5
19BB7
330
19447
100
AcDbEntity
  8
寸法
 62
     0
 48
50.0
370
    -2
100
AcDbLine
 10
9319.67305712366
 20
4941.996892480053
 30
0.0
 11
9369.673057123657
 21
4941.996892480053
 31
0.0
  0
INSERT
  5
19BB8
330
19447
100
AcDbEntity
  8
寸法
 62
     0
 48
50.0
370
    -2
100
AcDbBlockReference
  2
_DOTSMALL
 10
9319.67305712366
 20
4941.996892480053
 30
0.0
 41
100.0
 42
100.0
 43
100.0
  0
INSERT
  5
19BB9
330
19447
100
AcDbEntity
  8
寸法
 62
     0
 48
50.0
370
    -2
100
AcDbBlockReference
  2
_DOTSMALL
 10
9369.673057123657
 20
4941.996892480053
 30
0.0
 41
100.0
 42
100.0
 43
100.0
 50
180.0
  0
MTEXT
  5
19BBA
330
19447
100
AcDbEntity
  8
寸法
 62
     7
 48
50.0
100
AcDbMText
 10
9683.158338497896
 20
5041.996892480053
 30
0.0
 40
120.0
 41
0.0
 71
     5
 72
     1
  1
\A1;50
  7
STYLE1
 73
     1
 44
1.0
1001
ACAD
1000
MTEXTBEGIN
1070
    73
1070
     1
1070
    44
1040
1.0
1070
    74
1070
     0
1000
MTEXTEND
  0
POINT
  5
19BBB
330
19447
100
AcDbEntity
  8
DEFPOINTS
 62
     0
 48
50.0
100
AcDbPoint
 10
9369.673057123657
 20
4536.270620748143
 30
0.0
  0
POINT
  5
19BBC
330
19447
100
AcDbEntity
  8
DEFPOINTS
 62
     0
 48
50.0
100
AcDbPoint
 10
9319.67305712366
 20
4536.270620748147
 30
0.0
  0
POINT
  5
19BBD
330
19447
100
AcDbEntity
  8
DEFPOINTS
 62
     0
 48
50.0
100
AcDbPoint
 10
9319.67305712366
 20
4941.996892480053
 30
0.0
  0
ENDBLK
  5
19454
330
19447
100
AcDbEntity
  8
0
 48
50.0
100
AcDbBlockEnd
  0
BLOCK
  5
19461
330
19455
100
AcDbEntity
  8
0
 48
50.0
100
AcDbBlockBegin
  2
*D46
 70
     1
 10
0.0
 20
0.0
 30
0.0
  3
*D46
  1

  0
LINE
  5
19B78
330
19455
100
AcDbEntity
  8
寸法
 62
     0
 48
50.0
370
    -2
100
AcDbLine
 10
1429.673057123655
 20
4556.270620748146
 30
0.0
 11
1429.673057123655
 21
5001.996892480049
 31
0.0
  0
LINE
  5
19B79
330
19455
100
AcDbEntity
  8
寸法
 62
     0
 48
50.0
370
    -2
100
AcDbLine
 10
1379.673057123655
 20
4556.270620748146
 30
0.0
 11
1379.673057123655
 21
5001.996892480049
 31
0.0
  0
LINE
  5
19B7A
330
19455
100
AcDbEntity
  8
寸法
 62
     0
 48
50.0
370
    -2
100
AcDbLine
 10
1429.673057123655
 20
4941.996892480048
 30
0.0
 11
1529.673057123655
 21
4941.996892480048
 31
0.0
  0
LINE
  5
19B7B
330
19455
100
AcDbEntity
  8
寸法
 62
     0
 48
50.0
370
    -2
100
AcDbLine
 10
1379.673057123655
 20
4941.996892480048
 30
0.0
 11
960.1405316549193
 21
4941.996892480048
 31
0.0
  0
LINE
  5
19B7C
330
19455
100
AcDbEntity
  8
寸法
 62
     0
 48
50.0
370
    -2
100
AcDbLine
 10
1429.673057123655
 20
4941.996892480048
 30
0.0
 11
1379.673057123655
 21
4941.996892480048
 31
0.0
  0
INSERT
  5
19B7D
330
19455
100
AcDbEntity
  8
寸法
 62
     0
 48
50.0
370
    -2
100
AcDbBlockReference
  2
_DOTSMALL
 10
1429.673057123655
 20
4941.996892480048
 30
0.0
 41
100.0
 42
100.0
 43
100.0
 50
180.0
  0
INSERT
  5
19B7E
330
19455
100
AcDbEntity
  8
寸法
 62
     0
 48
50.0
370
    -2
100
AcDbBlockReference
  2
_DOTSMALL
 10
1379.673057123655
 20
4941.996892480048
 30
0.0
 41
100.0
 42
100.0
 43
100.0
  0
MTEXT
  5
19B7F
330
19455
100
AcDbEntity
  8
寸法
 62
     7
 48
50.0
100
AcDbMText
 10
1066.187775749408
 20
5041.996892480049
 30
0.0
 40
120.0
 41
0.0
 71
     5
 72
     1
  1
\A1;50
  7
STYLE1
 73
     1
 44
1.0
1001
ACAD
1000
MTEXTBEGIN
1070
    73
1070
     1
1070
    44
1040
1.0
1070
    74
1070
     0
1000
MTEXTEND
  0
POINT
  5
19B80
330
19455
100
AcDbEntity
  8
DEFPOINTS
 62
     0
 48
50.0
100
AcDbPoint
 10
1429.673057123655
 20
4536.270620748146
 30
0.0
  0
POINT
  5
19B81
330
19455
100
AcDbEntity
  8
DEFPOINTS
 62
     0
 48
50.0
100
AcDbPoint
 10
1379.673057123655
 20
4536.270620748146
 30
0.0
  0
POINT
  5
19B82
330
19455
100
AcDbEntity
  8
DEFPOINTS
 62
     0
 48
50.0
100
AcDbPoint
 10
1379.673057123655
 20
4941.996892480048
 30
0.0
  0
ENDBLK
  5
19462
330
19455
100
AcDbEntity
  8
0
 48
50.0
100
AcDbBlockEnd
  0
BLOCK
  5
1946D
330
19463
100
AcDbEntity
  8
0
 48
50.0
100
AcDbBlockBegin
  2
*D47
 70
     1
 10
0.0
 20
0.0
 30
0.0
  3
*D47
  1

  0
LINE
  5
19BFE
330
19463
100
AcDbEntity
  8
寸法
 62
     0
 48
50.0
370
    -2
100
AcDbLine
 10
1379.673057123655
 20
4556.270620748144
 30
0.0
 11
1379.673057123655
 21
5201.905813694139
 31
0.0
  0
LINE
  5
19BFF
330
19463
100
AcDbEntity
  8
寸法
 62
     0
 48
50.0
370
    -2
100
AcDbLine
 10
9369.673057123657
 20
4556.270620748143
 30
0.0
 11
9369.673057123657
 21
5201.905813694139
 31
0.0
  0
LINE
  5
19C00
330
19463
100
AcDbEntity
  8
寸法
 62
     0
 48
50.0
370
    -2
100
AcDbLine
 10
1379.673057123655
 20
5141.905813694139
 30
0.0
 11
9369.673057123657
 21
5141.905813694139
 31
0.0
  0
INSERT
  5
19C01
330
19463
100
AcDbEntity
  8
寸法
 62
     0
 48
50.0
370
    -2
100
AcDbBlockReference
  2
_DOTSMALL
 10
1379.673057123655
 20
5141.905813694139
 30
0.0
 41
100.0
 42
100.0
 43
100.0
 50
180.0
  0
INSERT
  5
19C02
330
19463
100
AcDbEntity
  8
寸法
 62
     0
 48
50.0
370
    -2
100
AcDbBlockReference
  2
_DOTSMALL
 10
9369.673057123657
 20
5141.905813694139
 30
0.0
 41
100.0
 42
100.0
 43
100.0
  0
MTEXT
  5
19C03
330
19463
100
AcDbEntity
  8
寸法
 62
     7
 48
50.0
100
AcDbMText
 10
5374.673057123656
 20
5241.917624717761
 30
0.0
 40
120.0
 41
0.0
 71
     5
 72
     1
  1
\A1;N X 2630+100
  7
STYLE1
 73
     1
 44
1.0
1001
ACAD
1000
MTEXTBEGIN
1070
    73
1070
     1
1070
    44
1040
1.0
1070
    74
1070
     0
1000
MTEXTEND
  0
POINT
  5
19C04
330
19463
100
AcDbEntity
  8
DEFPOINTS
 62
     0
 48
50.0
100
AcDbPoint
 10
1379.673057123655
 20
4536.270620748144
 30
0.0
  0
POINT
  5
19C05
330
19463
100
AcDbEntity
  8
DEFPOINTS
 62
     0
 48
50.0
100
AcDbPoint
 10
9369.673057123657
 20
4536.270620748143
 30
0.0
  0
POINT
  5
19C06
330
19463
100
AcDbEntity
  8
DEFPOINTS
 62
     0
 48
50.0
100
AcDbPoint
 10
9369.673057123657
 20
5141.905813694139
 30
0.0
  0
ENDBLK
  5
1946E
330
19463
100
AcDbEntity
  8
0
 48
50.0
100
AcDbBlockEnd
  0
BLOCK
  5
19479
330
1946F
100
AcDbEntity
  8
0
 48
50.0
100
AcDbBlockBegin
  2
*D48
 70
     1
 10
0.0
 20
0.0
 30
0.0
  3
*D48
  1

  0
LINE
  5
19C07
330
1946F
100
AcDbEntity
  8
寸法
 62
     0
 48
50.0
370
    -2
100
AcDbLine
 10
9319.67305712366
 20
4556.270620748146
 30
0.0
 11
9319.67305712366
 21
5001.996892480049
 31
0.0
  0
LINE
  5
19C08
330
1946F
100
AcDbEntity
  8
寸法
 62
     0
 48
50.0
370
    -2
100
AcDbLine
 10
1429.673057123655
 20
4556.270620748145
 30
0.0
 11
1429.673057123655
 21
5001.996892480049
 31
0.0
  0
LINE
  5
19C09
330
1946F
100
AcDbEntity
  8
寸法
 62
     0
 48
50.0
370
    -2
100
AcDbLine
 10
9319.67305712366
 20
4941.996892480048
 30
0.0
 11
1429.673057123655
 21
4941.996892480048
 31
0.0
  0
INSERT
  5
19C0A
330
1946F
100
AcDbEntity
  8
寸法
 62
     0
 48
50.0
370
    -2
100
AcDbBlockReference
  2
_DOTSMALL
 10
9319.67305712366
 20
4941.996892480048
 30
0.0
 41
100.0
 42
100.0
 43
100.0
  0
INSERT
  5
19C0B
330
1946F
100
AcDbEntity
  8
寸法
 62
     0
 48
50.0
370
    -2
100
AcDbBlockReference
  2
_DOTSMALL
 10
1429.673057123655
 20
4941.996892480048
 30
0.0
 41
100.0
 42
100.0
 43
100.0
 50
180.0
  0
MTEXT
  5
19C0C
330
1946F
100
AcDbEntity
  8
寸法
 62
     7
 48
50.0
100
AcDbMText
 10
5374.673057123658
 20
5042.008703503671
 30
0.0
 40
120.0
 41
0.0
 71
     5
 72
     1
  1
\A1;柱外寸法 N X 2630
  7
STYLE1
 73
     1
 44
1.0
1001
ACAD
1000
MTEXTBEGIN
1070
    73
1070
     1
1070
    44
1040
1.0
1070
    74
1070
     0
1000
MTEXTEND
  0
POINT
  5
19C0D
330
1946F
100
AcDbEntity
  8
DEFPOINTS
 62
     0
 48
50.0
100
AcDbPoint
 10
9319.67305712366
 20
4536.270620748147
 30
0.0
  0
POINT
  5
19C0E
330
1946F
100
AcDbEntity
  8
DEFPOINTS
 62
     0
 48
50.0
100
AcDbPoint
 10
1429.673057123655
 20
4536.270620748145
 30
0.0
  0
POINT
  5
19C0F
330
1946F
100
AcDbEntity
  8
DEFPOINTS
 62
     0
 48
50.0
100
AcDbPoint
 10
1429.673057123655
 20
4941.996892480048
 30
0.0
  0
ENDBLK
  5
1947A
330
1946F
100
AcDbEntity
  8
0
 48
50.0
100
AcDbBlockEnd
  0
BLOCK
  5
196EF
330
196E5
100
AcDbEntity
  8
0
 48
50.0
100
AcDbBlockBegin
  2
*D49
 70
     1
 10
0.0
 20
0.0
 30
0.0
  3
*D49
  1

  0
LINE
  5
19B98
330
196E5
100
AcDbEntity
  8
寸法
 62
     0
 48
50.0
370
    -2
100
AcDbLine
 10
9339.673057123658
 20
2161.270620748139
 30
0.0
 11
9667.216159445402
 21
2161.270620748139
 31
0.0
  0
LINE
  5
19B99
330
196E5
100
AcDbEntity
  8
寸法
 62
     0
 48
50.0
370
    -2
100
AcDbLine
 10
9339.673057123658
 20
4109.270620748139
 30
0.0
 11
9667.216159445402
 21
4109.270620748139
 31
0.0
  0
LINE
  5
19B9A
330
196E5
100
AcDbEntity
  8
寸法
 62
     0
 48
50.0
370
    -2
100
AcDbLine
 10
9607.216159445401
 20
2161.270620748139
 30
0.0
 11
9607.216159445403
 21
4109.270620748139
 31
0.0
  0
INSERT
  5
19B9B
330
196E5
100
AcDbEntity
  8
寸法
 62
     0
 48
50.0
370
    -2
100
AcDbBlockReference
  2
_DOTSMALL
 10
9607.216159445401
 20
2161.270620748139
 30
0.0
 41
100.0
 42
100.0
 43
100.0
 50
270.0
  0
INSERT
  5
19B9C
330
196E5
100
AcDbEntity
  8
寸法
 62
     0
 48
50.0
370
    -2
100
AcDbBlockReference
  2
_DOTSMALL
 10
9607.216159445403
 20
4109.270620748139
 30
0.0
 41
100.0
 42
100.0
 43
100.0
 50
90.0
  0
MTEXT
  5
19B9D
330
196E5
100
AcDbEntity
  8
寸法
 62
     7
 48
50.0
100
AcDbMText
 10
9507.216159445402
 20
3135.27062074814
 30
0.0
 40
120.0
 41
0.0
 71
     5
 72
     1
  1
\A1;有効開口部高サ 1948
  7
STYLE1
 11
0.0000000000000001
 21
1.0
 31
0.0
 73
     1
 44
1.0
1001
ACAD
1000
MTEXTBEGIN
1070
    73
1070
     1
1070
    44
1040
1.0
1070
    74
1070
     0
1000
MTEXTEND
  0
POINT
  5
19B9E
330
196E5
100
AcDbEntity
  8
DEFPOINTS
 62
     0
 48
50.0
100
AcDbPoint
 10
9319.673057123656
 20
2161.270620748139
 30
0.0
  0
POINT
  5
19B9F
330
196E5
100
AcDbEntity
  8
DEFPOINTS
 62
     0
 48
50.0
100
AcDbPoint
 10
9319.673057123656
 20
4109.270620748139
 30
0.0
  0
POINT
  5
19BA0
330
196E5
100
AcDbEntity
  8
DEFPOINTS
 62
     0
 48
50.0
100
AcDbPoint
 10
9607.216159445403
 20
4109.270620748139
 30
0.0
  0
ENDBLK
  5
196F0
330
196E5
100
AcDbEntity
  8
0
 48
50.0
100
AcDbBlockEnd
  0
BLOCK
  5
196FD
330
196F1
100
AcDbEntity
  8
0
 48
50.0
100
AcDbBlockBegin
  2
*D50
 70
     1
 10
0.0
 20
0.0
 30
0.0
  3
*D50
  1

  0
LINE
  5
19D09
330
196F1
100
AcDbEntity
  8
寸法
 62
     0
 48
50.0
370
    -2
100
AcDbLine
 10
9339.673057123658
 20
4109.270620748139
 30
0.0
 11
9667.216159445402
 21
4109.270620748139
 31
0.0
  0
LINE
  5
19D0A
330
196F1
100
AcDbEntity
  8
寸法
 62
     0
 48
50.0
370
    -2
100
AcDbLine
 10
9339.673057123658
 20
4136.270620748141
 30
0.0
 11
9667.216159445402
 21
4136.270620748141
 31
0.0
  0
LINE
  5
19D0B
330
196F1
100
AcDbEntity
  8
寸法
 62
     0
 48
50.0
370
    -2
100
AcDbLine
 10
9607.216159445403
 20
4109.270620748139
 30
0.0
 11
9607.216159445401
 21
4009.270620748139
 31
0.0
  0
LINE
  5
19D0C
330
196F1
100
AcDbEntity
  8
寸法
 62
     0
 48
50.0
370
    -2
100
AcDbLine
 10
9607.216159445403
 20
4136.270620748141
 30
0.0
 11
9607.216159445403
 21
4236.270620748141
 31
0.0
  0
MTEXT
  5
19D0D
330
196F1
100
AcDbEntity
  8
寸法
 62
     7
 48
50.0
100
AcDbMText
 10
9747.385982691769
 20
4137.237820587798
 30
0.0
 40
120.0
 41
0.0
 71
     5
 72
     1
  1
\A1;27
  7
STYLE1
 11
0.0000000000000001
 21
1.0
 31
0.0
 73
     1
 44
1.0
1001
ACAD
1000
MTEXTBEGIN
1070
    73
1070
     1
1070
    44
1040
1.0
1070
    74
1070
     0
1000
MTEXTEND
  0
LINE
  5
19D0E
330
196F1
100
AcDbEntity
  8
寸法
 62
     0
 48
50.0
370
    -2
100
AcDbLine
 10
9607.216159445403
 20
4109.270620748139
 30
0.0
 11
9607.216159445403
 21
4136.270620748141
 31
0.0
  0
INSERT
  5
19D0F
330
196F1
100
AcDbEntity
  8
寸法
 62
     0
 48
50.0
370
    -2
100
AcDbBlockReference
  2
_DOTSMALL
 10
9607.216159445403
 20
4109.270620748139
 30
0.0
 41
100.0
 42
100.0
 43
100.0
 50
90.0
  0
INSERT
  5
19D10
330
196F1
100
AcDbEntity
  8
寸法
 62
     0
 48
50.0
370
    -2
100
AcDbBlockReference
  2
_DOTSMALL
 10
9607.216159445403
 20
4136.270620748141
 30
0.0
 41
100.0
 42
100.0
 43
100.0
 50
270.0
  0
POINT
  5
19D11
330
196F1
100
AcDbEntity
  8
DEFPOINTS
 62
     0
 48
50.0
100
AcDbPoint
 10
9319.673057123656
 20
4109.270620748139
 30
0.0
  0
POINT
  5
19D12
330
196F1
100
AcDbEntity
  8
DEFPOINTS
 62
     0
 48
50.0
100
AcDbPoint
 10
9319.673057123656
 20
4136.270620748141
 30
0.0
  0
POINT
  5
19D13
330
196F1
100
AcDbEntity
  8
DEFPOINTS
 62
     0
 48
50.0
100
AcDbPoint
 10
9607.216159445403
 20
4136.270620748141
 30
0.0
  0
ENDBLK
  5
196FE
330
196F1
100
AcDbEntity
  8
0
 48
50.0
100
AcDbBlockEnd
  0
BLOCK
  5
1970A
330
196FF
100
AcDbEntity
  8
0
 48
50.0
100
AcDbBlockBegin
  2
*D51
 70
     1
 10
0.0
 20
0.0
 30
0.0
  3
*D51
  1

  0
LINE
  5
19CFF
330
196FF
100
AcDbEntity
  8
寸法
 62
     0
 48
50.0
370
    -2
100
AcDbLine
 10
9339.673057123658
 20
4136.270620748141
 30
0.0
 11
9667.216159445406
 21
4136.270620748141
 31
0.0
  0
LINE
  5
19D00
330
196FF
100
AcDbEntity
  8
寸法
 62
     0
 48
50.0
370
    -2
100
AcDbLine
 10
9339.673057123658
 20
4301.270620748138
 30
0.0
 11
9667.216159445406
 21
4301.270620748138
 31
0.0
  0
LINE
  5
19D01
330
196FF
100
AcDbEntity
  8
寸法
 62
     0
 48
50.0
370
    -2
100
AcDbLine
 10
9607.216159445405
 20
4136.270620748141
 30
0.0
 11
9607.216159445405
 21
4301.270620748138
 31
0.0
  0
LINE
  5
19D02
330
196FF
100
AcDbEntity
  8
寸法
 62
     0
 48
50.0
370
    -2
100
AcDbLine
 10
9607.216159445405
 20
4301.270620748138
 30
0.0
 11
9607.216159445405
 21
4678.241183496615
 31
0.0
  0
INSERT
  5
19D03
330
196FF
100
AcDbEntity
  8
寸法
 62
     0
 48
50.0
370
    -2
100
AcDbBlockReference
  2
_DOTSMALL
 10
9607.216159445405
 20
4136.270620748141
 30
0.0
 41
100.0
 42
100.0
 43
100.0
 50
270.0
  0
INSERT
  5
19D04
330
196FF
100
AcDbEntity
  8
寸法
 62
     0
 48
50.0
370
    -2
100
AcDbBlockReference
  2
_DOTSMALL
 10
9607.216159445405
 20
4301.270620748138
 30
0.0
 41
100.0
 42
100.0
 43
100.0
 50
90.0
  0
MTEXT
  5
19D05
330
196FF
100
AcDbEntity
  8
寸法
 62
     7
 48
50.0
100
AcDbMText
 10
9507.216159445404
 20
4539.755902122378
 30
0.0
 40
120.0
 41
0.0
 71
     5
 72
     1
  1
\A1;165
  7
STYLE1
 11
0.0000000000000001
 21
1.0
 31
0.0
 73
     1
 44
1.0
1001
ACAD
1000
MTEXTBEGIN
1070
    73
1070
     1
1070
    44
1040
1.0
1070
    74
1070
     0
1000
MTEXTEND
  0
POINT
  5
19D06
330
196FF
100
AcDbEntity
  8
DEFPOINTS
 62
     0
 48
50.0
100
AcDbPoint
 10
9319.673057123656
 20
4136.270620748141
 30
0.0
  0
POINT
  5
19D07
330
196FF
100
AcDbEntity
  8
DEFPOINTS
 62
     0
 48
50.0
100
AcDbPoint
 10
9319.673057123656
 20
4301.270620748138
 30
0.0
  0
POINT
  5
19D08
330
196FF
100
AcDbEntity
  8
DEFPOINTS
 62
     0
 48
50.0
100
AcDbPoint
 10
9607.216159445405
 20
4301.270620748138
 30
0.0
  0
ENDBLK
  5
1970B
330
196FF
100
AcDbEntity
  8
0
 48
50.0
100
AcDbBlockEnd
  0
BLOCK
  5
19856
330
19853
100
AcDbEntity
  8
0
 48
50.0
100
AcDbBlockBegin
  2
A$C27814850
 70
     0
 10
0.0
 20
0.0
 30
0.0
  3
A$C27814850
  1

  0
SPLINE
  5
19854
330
19853
100
AcDbEntity
  8
部品1
 48
50.0
100
AcDbSpline
210
0.0
220
0.0
230
1.0
 70
     8
 71
     3
 72
    10
 73
     6
 74
     4
 42
0.0000000001
 43
0.0000000001
 44
0.0000000001
 40
0.0
 40
0.0
 40
0.0
 40
0.0
 40
147.8767566010009
 40
301.8091093202477
 40
466.5049223087716
 40
466.5049223087716
 40
466.5049223087716
 40
466.5049223087716
 10
67.57032773305036
 20
67.74115252579395
 30
0.0
 10
-9.311354761784436
 20
58.83671886795598
 30
0.0
 10
-166.2230469719117
 20
40.66321240862428
 30
0.0
 10
156.5903629724302
 20
-61.85737223071869
 30
0.0
 10
-13.25225669694174
 20
-80.49246094292213
 30
0.0
 10
-101.0422619038345
 20
-90.12475782023102
 30
0.0
 11
67.57032773305036
 21
67.74115252579395
 31
0.0
 11
-75.26765057571902
 21
29.46783158946528
 31
0.0
 11
58.04167734345537
 21
-47.49834477015792
 31
0.0
 11
-101.0422619038345
 21
-90.12475782023102
 31
0.0
  0
LINE
  5
19855
330
19853
100
AcDbEntity
  8
部品1
 48
50.0
100
AcDbLine
 10
46.5327395555505
 20
160.1625482366835
 30
0.0
 11
-46.5327395555505
 21
-187.1625482366816
 31
0.0
  0
ENDBLK
  5
19857
330
19853
100
AcDbEntity
  8
0
 48
50.0
100
AcDbBlockEnd
  0
BLOCK
  5
198FF
330
19894
100
AcDbEntity
  8
0
 48
50.0
100
AcDbBlockBegin
  2
A$C254A485A
 70
     0
 10
0.0
 20
0.0
 30
0.0
  3
A$C254A485A
  1

  0
ARC
  5
19895
330
19894
100
AcDbEntity
  8
部品1
 48
0.01
100
AcDbCircle
 10
788.0000000000036
 20
64.0
 30
0.0
 40
2.0
100
AcDbArc
 50
0.0
 51
90.0
  0
ARC
  5
19896
330
19894
100
AcDbEntity
  8
部品1
 48
0.01
100
AcDbCircle
 10
612.0000000000036
 20
64.0
 30
0.0
 40
2.0
100
AcDbArc
 50
90.0
 51
180.0
  0
LINE
  5
19897
330
19894
100
AcDbEntity
  8
細線
100
AcDbLine
 10
700.0
 20
36.5
 30
0.0
 11
774.0000000000036
 21
36.5
 31
0.0
  0
LINE
  5
19898
330
19894
100
AcDbEntity
  8
細線
100
AcDbLine
 10
700.0000000000036
 20
59.5
 30
0.0
 11
626.0000000000036
 21
59.5
 31
0.0
  0
LINE
  5
19899
330
19894
100
AcDbEntity
  8
細線
100
AcDbLine
 10
626.0000000000036
 20
36.5
 30
0.0
 11
700.0000000000036
 21
36.5
 31
0.0
  0
LINE
  5
1989A
330
19894
100
AcDbEntity
  8
細線
100
AcDbLine
 10
774.0000000000036
 20
59.5
 30
0.0
 11
700.0000000000036
 21
59.5
 31
0.0
  0
LINE
  5
1989B
330
19894
100
AcDbEntity
  8
細線
100
AcDbLine
 10
774.0000000000036
 20
36.5
 30
0.0
 11
774.0000000000036
 21
59.5
 31
0.0
  0
LINE
  5
1989C
330
19894
100
AcDbEntity
  8
細線
100
AcDbLine
 10
626.0000000000036
 20
59.5
 30
0.0
 11
626.0000000000036
 21
36.5
 31
0.0
  0
LINE
  5
1989D
330
19894
100
AcDbEntity
  8
部品1
 48
0.01
100
AcDbLine
 10
790.0
 20
32.5
 30
0.0
 11
790.0000000000036
 21
64.0
 31
0.0
  0
LINE
  5
1989E
330
19894
100
AcDbEntity
  8
部品1
 48
0.01
100
AcDbLine
 10
610.0000000000036
 20
64.0
 30
0.0
 11
610.0000000000036
 21
32.5
 31
0.0
  0
LINE
  5
1989F
330
19894
100
AcDbEntity
  8
部品1
 48
0.01
100
AcDbLine
 10
788.0000000000036
 20
66.0
 30
0.0
 11
612.0000000000036
 21
66.0
 31
0.0
  0
LINE
  5
198A0
330
19894
100
AcDbEntity
  8
細線
100
AcDbLine
 10
626.0000000000036
 20
53.5
 30
0.0
 11
700.0000000000036
 21
53.5
 31
0.0
  0
LINE
  5
198A1
330
19894
100
AcDbEntity
  8
細線
100
AcDbLine
 10
626.0000000000036
 20
47.5
 30
0.0
 11
700.0000000000036
 21
47.5
 31
0.0
  0
LINE
  5
198A2
330
19894
100
AcDbEntity
  8
細線
100
AcDbLine
 10
626.0
 20
41.5
 30
0.0
 11
700.0000000000036
 21
41.5
 31
0.0
  0
LINE
  5
198A3
330
19894
100
AcDbEntity
  8
細線
100
AcDbLine
 10
626.0000000000036
 20
53.5
 30
0.0
 11
695.0000000000036
 21
53.5
 31
0.0
  0
LINE
  5
198A4
330
19894
100
AcDbEntity
  8
細線
100
AcDbLine
 10
774.0
 20
53.5
 30
0.0
 11
700.0000000000036
 21
53.5
 31
0.0
  0
LINE
  5
198A5
330
19894
100
AcDbEntity
  8
細線
100
AcDbLine
 10
774.0
 20
41.5
 30
0.0
 11
700.0000000000036
 21
41.5
 31
0.0
  0
LINE
  5
198A6
330
19894
100
AcDbEntity
  8
細線
100
AcDbLine
 10
774.0
 20
47.5
 30
0.0
 11
700.0000000000036
 21
47.5
 31
0.0
  0
LINE
  5
198A7
330
19894
100
AcDbEntity
  8
細線
100
AcDbLine
 10
700.0000000000036
 20
59.5
 30
0.0
 11
700.0
 21
36.5
 31
0.0
  0
LINE
  5
198A8
330
19894
100
AcDbEntity
  8
細線
100
AcDbLine
 10
1930.000000000003
 20
59.5
 30
0.0
 11
1930.000000000003
 21
36.5
 31
0.0
  0
LINE
  5
198A9
330
19894
100
AcDbEntity
  8
細線
100
AcDbLine
 10
1856.000000000004
 20
47.5
 30
0.0
 11
1930.000000000003
 21
47.5
 31
0.0
  0
LINE
  5
198AA
330
19894
100
AcDbEntity
  8
細線
100
AcDbLine
 10
1856.000000000004
 20
41.5
 30
0.0
 11
1930.000000000003
 21
41.5
 31
0.0
  0
LINE
  5
198AB
330
19894
100
AcDbEntity
  8
細線
100
AcDbLine
 10
1856.000000000004
 20
53.5
 30
0.0
 11
1930.000000000003
 21
53.5
 31
0.0
  0
LINE
  5
198AC
330
19894
100
AcDbEntity
  8
細線
100
AcDbLine
 10
2004.000000000004
 20
53.5
 30
0.0
 11
1935.000000000004
 21
53.5
 31
0.0
  0
LINE
  5
198AD
330
19894
100
AcDbEntity
  8
細線
100
AcDbLine
 10
2004.000000000004
 20
41.5
 30
0.0
 11
1930.000000000003
 21
41.5
 31
0.0
  0
LINE
  5
198AE
330
19894
100
AcDbEntity
  8
細線
100
AcDbLine
 10
2004.000000000004
 20
47.5
 30
0.0
 11
1930.000000000003
 21
47.5
 31
0.0
  0
LINE
  5
198AF
330
19894
100
AcDbEntity
  8
細線
100
AcDbLine
 10
2004.000000000004
 20
53.5
 30
0.0
 11
1930.000000000003
 21
53.5
 31
0.0
  0
LINE
  5
198B0
330
19894
100
AcDbEntity
  8
部品1
 48
0.01
100
AcDbLine
 10
1842.000000000004
 20
66.0
 30
0.0
 11
2018.000000000004
 21
66.0
 31
0.0
  0
LINE
  5
198B1
330
19894
100
AcDbEntity
  8
部品1
 48
0.01
100
AcDbLine
 10
2020.000000000004
 20
64.0
 30
0.0
 11
2020.000000000004
 21
32.5
 31
0.0
  0
LINE
  5
198B2
330
19894
100
AcDbEntity
  8
部品1
 48
0.01
100
AcDbLine
 10
1840.000000000004
 20
32.5
 30
0.0
 11
1840.000000000004
 21
64.0
 31
0.0
  0
LINE
  5
198B3
330
19894
100
AcDbEntity
  8
細線
100
AcDbLine
 10
2004.000000000004
 20
59.5
 30
0.0
 11
2004.000000000004
 21
36.5
 31
0.0
  0
LINE
  5
198B4
330
19894
100
AcDbEntity
  8
細線
100
AcDbLine
 10
1856.000000000004
 20
36.5
 30
0.0
 11
1856.000000000004
 21
59.5
 31
0.0
  0
LINE
  5
198B5
330
19894
100
AcDbEntity
  8
細線
100
AcDbLine
 10
1856.000000000004
 20
59.5
 30
0.0
 11
1930.000000000003
 21
59.5
 31
0.0
  0
LINE
  5
198B6
330
19894
100
AcDbEntity
  8
細線
100
AcDbLine
 10
2004.000000000004
 20
36.5
 30
0.0
 11
1930.000000000003
 21
36.5
 31
0.0
  0
LINE
  5
198B7
330
19894
100
AcDbEntity
  8
細線
100
AcDbLine
 10
1930.000000000003
 20
59.5
 30
0.0
 11
2004.000000000004
 21
59.5
 31
0.0
  0
LINE
  5
198B8
330
19894
100
AcDbEntity
  8
細線
100
AcDbLine
 10
1930.000000000003
 20
36.5
 30
0.0
 11
1856.000000000004
 21
36.5
 31
0.0
  0
ARC
  5
198B9
330
19894
100
AcDbEntity
  8
部品1
 48
0.01
100
AcDbCircle
 10
2018.000000000004
 20
64.0
 30
0.0
 40
2.0
100
AcDbArc
 50
0.0
 51
90.0
  0
ARC
  5
198BA
330
19894
100
AcDbEntity
  8
部品1
 48
0.01
100
AcDbCircle
 10
1842.000000000004
 20
64.0
 30
0.0
 40
2.0
100
AcDbArc
 50
90.0
 51
180.0
  0
ARC
  5
198BB
330
19894
100
AcDbEntity
  8
部品1
 48
0.01
100
AcDbCircle
 10
788.0
 20
32.5
 30
0.0
 40
2.0
100
AcDbArc
 50
270.0
 51
0.0
  0
ARC
  5
198BC
330
19894
100
AcDbEntity
  8
部品1
 48
0.01
100
AcDbCircle
 10
612.0000000000036
 20
32.5
 30
0.0
 40
2.0
100
AcDbArc
 50
180.0
 51
270.0
  0
LINE
  5
198BD
330
19894
100
AcDbEntity
  8
部品1
 48
0.01
100
AcDbLine
 10
612.0000000000036
 20
30.5
 30
0.0
 11
788.0
 21
30.5
 31
0.0
  0
LINE
  5
198BE
330
19894
100
AcDbEntity
  8
部品1
 48
0.01
100
AcDbLine
 10
2018.000000000004
 20
30.5
 30
0.0
 11
1842.000000000004
 21
30.5
 31
0.0
  0
ARC
  5
198BF
330
19894
100
AcDbEntity
  8
部品1
 48
0.01
100
AcDbCircle
 10
2018.000000000004
 20
32.5
 30
0.0
 40
2.0
100
AcDbArc
 50
270.0
 51
0.0
  0
ARC
  5
198C0
330
19894
100
AcDbEntity
  8
部品1
 48
0.01
100
AcDbCircle
 10
1842.000000000004
 20
32.5
 30
0.0
 40
2.0
100
AcDbArc
 50
180.0
 51
270.0
  0
ARC
  5
198C1
330
19894
100
AcDbEntity
  8
部品1
 48
0.01
100
AcDbCircle
 10
4472.000000000002
 20
32.5
 30
0.0
 40
2.0
100
AcDbArc
 50
180.0
 51
270.0
  0
ARC
  5
198C2
330
19894
100
AcDbEntity
  8
部品1
 48
0.01
100
AcDbCircle
 10
4648.000000000002
 20
32.5
 30
0.0
 40
2.0
100
AcDbArc
 50
270.0
 51
0.0
  0
LINE
  5
198C3
330
19894
100
AcDbEntity
  8
部品1
 48
0.01
100
AcDbLine
 10
4648.000000000002
 20
30.5
 30
0.0
 11
4472.000000000002
 21
30.5
 31
0.0
  0
LINE
  5
198C4
330
19894
100
AcDbEntity
  8
部品1
 48
0.01
100
AcDbLine
 10
3242.000000000002
 20
30.5
 30
0.0
 11
3417.999999999999
 21
30.5
 31
0.0
  0
ARC
  5
198C5
330
19894
100
AcDbEntity
  8
部品1
 48
0.01
100
AcDbCircle
 10
3242.000000000002
 20
32.5
 30
0.0
 40
2.0
100
AcDbArc
 50
180.0
 51
270.0
  0
ARC
  5
198C6
330
19894
100
AcDbEntity
  8
部品1
 48
0.01
100
AcDbCircle
 10
3417.999999999999
 20
32.5
 30
0.0
 40
2.0
100
AcDbArc
 50
270.0
 51
0.0
  0
ARC
  5
198C7
330
19894
100
AcDbEntity
  8
部品1
 48
0.01
100
AcDbCircle
 10
4472.000000000002
 20
64.0
 30
0.0
 40
2.0
100
AcDbArc
 50
90.0
 51
180.0
  0
ARC
  5
198C8
330
19894
100
AcDbEntity
  8
部品1
 48
0.01
100
AcDbCircle
 10
4648.000000000002
 20
64.0
 30
0.0
 40
2.0
100
AcDbArc
 50
0.0
 51
90.0
  0
LINE
  5
198C9
330
19894
100
AcDbEntity
  8
細線
100
AcDbLine
 10
4560.000000000001
 20
36.5
 30
0.0
 11
4486.000000000002
 21
36.5
 31
0.0
  0
LINE
  5
198CA
330
19894
100
AcDbEntity
  8
細線
100
AcDbLine
 10
4560.000000000001
 20
59.5
 30
0.0
 11
4634.000000000002
 21
59.5
 31
0.0
  0
LINE
  5
198CB
330
19894
100
AcDbEntity
  8
細線
100
AcDbLine
 10
4634.000000000002
 20
36.5
 30
0.0
 11
4560.000000000001
 21
36.5
 31
0.0
  0
LINE
  5
198CC
330
19894
100
AcDbEntity
  8
細線
100
AcDbLine
 10
4486.000000000002
 20
59.5
 30
0.0
 11
4560.000000000001
 21
59.5
 31
0.0
  0
LINE
  5
198CD
330
19894
100
AcDbEntity
  8
細線
100
AcDbLine
 10
4486.000000000002
 20
36.5
 30
0.0
 11
4486.000000000002
 21
59.5
 31
0.0
  0
LINE
  5
198CE
330
19894
100
AcDbEntity
  8
細線
100
AcDbLine
 10
4634.000000000002
 20
59.5
 30
0.0
 11
4634.000000000002
 21
36.5
 31
0.0
  0
LINE
  5
198CF
330
19894
100
AcDbEntity
  8
部品1
 48
0.01
100
AcDbLine
 10
4470.000000000001
 20
32.5
 30
0.0
 11
4470.000000000001
 21
64.0
 31
0.0
  0
LINE
  5
198D0
330
19894
100
AcDbEntity
  8
部品1
 48
0.01
100
AcDbLine
 10
4650.000000000002
 20
64.0
 30
0.0
 11
4650.000000000002
 21
32.5
 31
0.0
  0
LINE
  5
198D1
330
19894
100
AcDbEntity
  8
部品1
 48
0.01
100
AcDbLine
 10
4472.000000000002
 20
66.0
 30
0.0
 11
4648.000000000002
 21
66.0
 31
0.0
  0
LINE
  5
198D2
330
19894
100
AcDbEntity
  8
細線
100
AcDbLine
 10
4634.000000000002
 20
53.5
 30
0.0
 11
4560.000000000001
 21
53.5
 31
0.0
  0
LINE
  5
198D3
330
19894
100
AcDbEntity
  8
細線
100
AcDbLine
 10
4634.000000000002
 20
47.5
 30
0.0
 11
4560.000000000001
 21
47.5
 31
0.0
  0
LINE
  5
198D4
330
19894
100
AcDbEntity
  8
細線
100
AcDbLine
 10
4634.000000000002
 20
41.5
 30
0.0
 11
4560.000000000001
 21
41.5
 31
0.0
  0
LINE
  5
198D5
330
19894
100
AcDbEntity
  8
細線
100
AcDbLine
 10
4634.000000000002
 20
53.5
 30
0.0
 11
4565.000000000002
 21
53.5
 31
0.0
  0
LINE
  5
198D6
330
19894
100
AcDbEntity
  8
細線
100
AcDbLine
 10
4486.000000000002
 20
53.5
 30
0.0
 11
4560.000000000001
 21
53.5
 31
0.0
  0
LINE
  5
198D7
330
19894
100
AcDbEntity
  8
細線
100
AcDbLine
 10
4486.000000000002
 20
41.5
 30
0.0
 11
4560.000000000001
 21
41.5
 31
0.0
  0
LINE
  5
198D8
330
19894
100
AcDbEntity
  8
細線
100
AcDbLine
 10
4486.000000000002
 20
47.5
 30
0.0
 11
4560.000000000001
 21
47.5
 31
0.0
  0
LINE
  5
198D9
330
19894
100
AcDbEntity
  8
細線
100
AcDbLine
 10
4560.000000000001
 20
59.5
 30
0.0
 11
4560.000000000001
 21
36.5
 31
0.0
  0
LINE
  5
198DA
330
19894
100
AcDbEntity
  8
細線
100
AcDbLine
 10
3330.000000000002
 20
59.5
 30
0.0
 11
3329.999999999998
 21
36.5
 31
0.0
  0
LINE
  5
198DB
330
19894
100
AcDbEntity
  8
細線
100
AcDbLine
 10
3403.999999999999
 20
47.5
 30
0.0
 11
3330.000000000002
 21
47.5
 31
0.0
  0
LINE
  5
198DC
330
19894
100
AcDbEntity
  8
細線
100
AcDbLine
 10
3403.999999999999
 20
41.5
 30
0.0
 11
3330.000000000002
 21
41.5
 31
0.0
  0
LINE
  5
198DD
330
19894
100
AcDbEntity
  8
細線
100
AcDbLine
 10
3403.999999999999
 20
53.5
 30
0.0
 11
3330.000000000002
 21
53.5
 31
0.0
  0
LINE
  5
198DE
330
19894
100
AcDbEntity
  8
細線
100
AcDbLine
 10
3256.000000000002
 20
53.5
 30
0.0
 11
3325.000000000002
 21
53.5
 31
0.0
  0
LINE
  5
198DF
330
19894
100
AcDbEntity
  8
細線
100
AcDbLine
 10
3255.999999999998
 20
41.5
 30
0.0
 11
3330.000000000002
 21
41.5
 31
0.0
  0
LINE
  5
198E0
330
19894
100
AcDbEntity
  8
細線
100
AcDbLine
 10
3256.000000000002
 20
47.5
 30
0.0
 11
3330.000000000002
 21
47.5
 31
0.0
  0
LINE
  5
198E1
330
19894
100
AcDbEntity
  8
細線
100
AcDbLine
 10
3256.000000000002
 20
53.5
 30
0.0
 11
3330.000000000002
 21
53.5
 31
0.0
  0
LINE
  5
198E2
330
19894
100
AcDbEntity
  8
部品1
 48
0.01
100
AcDbLine
 10
3418.000000000002
 20
66.0
 30
0.0
 11
3242.000000000002
 21
66.0
 31
0.0
  0
LINE
  5
198E3
330
19894
100
AcDbEntity
  8
部品1
 48
0.01
100
AcDbLine
 10
3240.000000000002
 20
64.0
 30
0.0
 11
3240.000000000002
 21
32.5
 31
0.0
  0
LINE
  5
198E4
330
19894
100
AcDbEntity
  8
部品1
 48
0.01
100
AcDbLine
 10
3419.999999999998
 20
32.5
 30
0.0
 11
3420.000000000002
 21
64.0
 31
0.0
  0
LINE
  5
198E5
330
19894
100
AcDbEntity
  8
細線
100
AcDbLine
 10
3256.000000000002
 20
59.5
 30
0.0
 11
3256.000000000002
 21
36.5
 31
0.0
  0
LINE
  5
198E6
330
19894
100
AcDbEntity
  8
細線
100
AcDbLine
 10
3404.000000000002
 20
36.5
 30
0.0
 11
3404.000000000002
 21
59.5
 31
0.0
  0
LINE
  5
198E7
330
19894
100
AcDbEntity
  8
細線
100
AcDbLine
 10
3404.000000000002
 20
59.5
 30
0.0
 11
3330.000000000002
 21
59.5
 31
0.0
  0
LINE
  5
198E8
330
19894
100
AcDbEntity
  8
細線
100
AcDbLine
 10
3256.000000000002
 20
36.5
 30
0.0
 11
3330.000000000002
 21
36.5
 31
0.0
  0
LINE
  5
198E9
330
19894
100
AcDbEntity
  8
細線
100
AcDbLine
 10
3330.000000000002
 20
59.5
 30
0.0
 11
3256.000000000002
 21
59.5
 31
0.0
  0
LINE
  5
198EA
330
19894
100
AcDbEntity
  8
細線
100
AcDbLine
 10
3329.999999999998
 20
36.5
 30
0.0
 11
3404.000000000002
 21
36.5
 31
0.0
  0
ARC
  5
198EB
330
19894
100
AcDbEntity
  8
部品1
 48
0.01
100
AcDbCircle
 10
3242.000000000002
 20
64.0
 30
0.0
 40
2.0
100
AcDbArc
 50
90.0
 51
180.0
  0
ARC
  5
198EC
330
19894
100
AcDbEntity
  8
部品1
 48
0.01
100
AcDbCircle
 10
3418.000000000002
 20
64.0
 30
0.0
 40
2.0
100
AcDbArc
 50
0.0
 51
90.0
  0
CIRCLE
  5
198ED
330
19894
100
AcDbEntity
  8
細線
 48
50.0
100
AcDbCircle
 10
3944.999999999997
 20
-1252.5
 30
0.0
 40
18.0
  0
ARC
  5
198EE
330
19894
100
AcDbEntity
  8
細線
 48
50.0
100
AcDbCircle
 10
4244.999999999996
 20
-1577.5
 30
0.0
 40
15.0
100
AcDbArc
 50
270.0
 51
90.0
  0
ARC
  5
198EF
330
19894
100
AcDbEntity
  8
細線
 48
50.0
100
AcDbCircle
 10
4144.999999999996
 20
-1577.5
 30
0.0
 40
15.0
100
AcDbArc
 50
90.0
 51
270.0
  0
LINE
  5
198F0
330
19894
100
AcDbEntity
  8
細線
 48
50.0
100
AcDbLine
 10
4144.999999999996
 20
-1562.5
 30
0.0
 11
4244.999999999996
 21
-1562.5
 31
0.0
  0
LINE
  5
198F1
330
19894
100
AcDbEntity
  8
細線
 48
50.0
100
AcDbLine
 10
4244.999999999996
 20
-1592.5
 30
0.0
 11
4144.999999999996
 21
-1592.5
 31
0.0
  0
LINE
  5
198F2
330
19894
100
AcDbEntity
  8
細線
 48
50.0
100
AcDbLine
 10
3744.999999999997
 20
-1592.5
 30
0.0
 11
3644.999999999997
 21
-1592.5
 31
0.0
  0
LINE
  5
198F3
330
19894
100
AcDbEntity
  8
細線
 48
50.0
100
AcDbLine
 10
3644.999999999997
 20
-1562.5
 30
0.0
 11
3744.999999999997
 21
-1562.5
 31
0.0
  0
ARC
  5
198F4
330
19894
100
AcDbEntity
  8
細線
 48
50.0
100
AcDbCircle
 10
3744.999999999997
 20
-1577.5
 30
0.0
 40
15.0
100
AcDbArc
 50
270.0
 51
90.0
  0
ARC
  5
198F5
330
19894
100
AcDbEntity
  8
細線
 48
50.0
100
AcDbCircle
 10
3644.999999999997
 20
-1577.5
 30
0.0
 40
15.0
100
AcDbArc
 50
90.0
 51
270.0
  0
ARC
  5
198F6
330
19894
100
AcDbEntity
  8
細線
 48
50.0
100
AcDbCircle
 10
1015.0
 20
-1577.5
 30
0.0
 40
15.0
100
AcDbArc
 50
90.0
 51
270.0
  0
ARC
  5
198F7
330
19894
100
AcDbEntity
  8
細線
 48
50.0
100
AcDbCircle
 10
1115.0
 20
-1577.5
 30
0.0
 40
15.0
100
AcDbArc
 50
270.0
 51
90.0
  0
LINE
  5
198F8
330
19894
100
AcDbEntity
  8
細線
 48
50.0
100
AcDbLine
 10
1015.0
 20
-1562.5
 30
0.0
 11
1115.0
 21
-1562.5
 31
0.0
  0
LINE
  5
198F9
330
19894
100
AcDbEntity
  8
細線
 48
50.0
100
AcDbLine
 10
1115.0
 20
-1592.5
 30
0.0
 11
1015.0
 21
-1592.5
 31
0.0
  0
LINE
  5
198FA
330
19894
100
AcDbEntity
  8
細線
 48
50.0
100
AcDbLine
 10
1615.0
 20
-1592.5
 30
0.0
 11
1515.0
 21
-1592.5
 31
0.0
  0
LINE
  5
198FB
330
19894
100
AcDbEntity
  8
細線
 48
50.0
100
AcDbLine
 10
1515.0
 20
-1562.5
 30
0.0
 11
1615.0
 21
-1562.5
 31
0.0
  0
ARC
  5
198FC
330
19894
100
AcDbEntity
  8
細線
 48
50.0
100
AcDbCircle
 10
1515.0
 20
-1577.5
 30
0.0
 40
15.0
100
AcDbArc
 50
90.0
 51
270.0
  0
ARC
  5
198FD
330
19894
100
AcDbEntity
  8
細線
 48
50.0
100
AcDbCircle
 10
1615.0
 20
-1577.5
 30
0.0
 40
15.0
100
AcDbArc
 50
270.0
 51
90.0
  0
CIRCLE
  5
198FE
330
19894
100
AcDbEntity
  8
細線
 48
50.0
100
AcDbCircle
 10
1315.0
 20
-1252.5
 30
0.0
 40
18.0
  0
ENDBLK
  5
19900
330
19894
100
AcDbEntity
  8
0
 48
50.0
100
AcDbBlockEnd
  0
ENDSEC
  0
SECTION
  2
ENTITIES
  0
MTEXT
  5
763F
330
747D
100
AcDbEntity
  8
0
100
AcDbMText
 10
302.846345836809
 20
280.1983726409901
 30
0.0
 40
3.5
 41
5.323721266742722
 71
     1
 72
     5
  1

  7
MSMINCHO
 73
     1
 44
1.0
1001
ACAD
1000
MTEXTBEGIN
1070
    73
1070
     1
1070
    44
1040
1.0
1070
    74
1070
     0
1000
MTEXTEND
  0
LINE
  5
10B57
330
747D
100
AcDbEntity
  8
補助
  6
PHANTOM
 62
   230
 48
50.0
100
AcDbLine
 10
139.9999999999995
 20
11409.6
 30
0.0
 11
16307.2
 21
11409.6
 31
0.0
  0
LINE
  5
10B59
330
747D
100
AcDbEntity
  8
仕様書枠
  6
Continuous
 48
50.0
100
AcDbLine
 10
13107.2
 20
1200.0
 30
0.0
 11
13107.2
 21
-0.0000000000000729
 31
0.0
  0
LINE
  5
10B5C
330
747D
100
AcDbEntity
  8
仕様書枠
 48
50.0
100
AcDbLine
 10
16307.2
 20
1200.0
 30
0.0
 11
16307.2
 21
-0.0000000000000909
 31
0.0
  0
LINE
  5
10B5D
330
747D
100
AcDbEntity
  8
仕様書枠
 48
50.0
100
AcDbLine
 10
140.0
 20
0.0
 30
0.0
 11
16307.2
 21
-0.0000000000000909
 31
0.0
  0
LINE
  5
10B5E
330
747D
100
AcDbEntity
  8
補助
  6
PHANTOM
 62
   230
 48
50.0
100
AcDbLine
 10
16307.2
 20
11409.6
 30
0.0
 11
16307.2
 21
1200.0
 31
0.0
  0
LINE
  5
10B6C
330
747D
100
AcDbEntity
  8
仕様書枠
 48
50.0
100
AcDbLine
 10
13107.2
 20
1200.0
 30
0.0
 11
16307.2
 21
1200.0
 31
0.0
  0
LINE
  5
10B6D
330
747D
100
AcDbEntity
  8
補助
  6
PHANTOM
 62
   230
 48
50.0
100
AcDbLine
 10
13107.2
 20
11409.6
 30
0.0
 11
13107.2
 21
4800.0
 31
0.0
  0
LINE
  5
10B6F
330
747D
100
AcDbEntity
  8
補助
  6
PHANTOM
 62
   230
 48
50.0
100
AcDbLine
 10
13107.2
 20
4800.0
 30
0.0
 11
16307.2
 21
4800.0
 31
0.0
  0
LINE
  5
10B72
330
747D
100
AcDbEntity
  8
文字
 62
     7
 48
50.0
100
AcDbLine
 10
13187.2
 20
400.0
 30
0.0
 11
16227.2
 21
400.0
 31
0.0
  0
TEXT
  5
10B73
330
747D
100
AcDbEntity
  8
文字
 62
     7
 48
50.0
100
AcDbText
 10
13162.9790565769
 20
895.0906074299405
 30
0.0
 40
200.0
  1
外 形 図
  7
STYLE2
100
AcDbText
  0
TEXT
  5
10B74
330
747D
100
AcDbEntity
  8
文字
 62
     7
 48
50.0
100
AcDbText
 10
13201.43669998441
 20
477.2740661031255
 30
0.0
 40
160.0
  1
機種名
  7
STYLE2
100
AcDbText
  0
TEXT
  5
10B75
330
747D
100
AcDbEntity
  8
文字
 62
     7
 48
50.0
100
AcDbText
 10
13209.4053442172
 20
228.5435242569016
 30
0.0
 40
100.0
  1
○有効開口寸法 ： 2424×1948(mm)
  7
STYLE2
100
AcDbText
  0
TEXT
  5
10B79
330
747D
100
AcDbEntity
  8
文字
 62
     7
 48
50.0
100
AcDbText
 10
14524.131837222
 20
1031.557706291228
 30
0.0
 40
100.0
  1
NO.48      <縮尺> S=1/40
  7
STYLE2
100
AcDbText
  0
LINE
  5
10B7B
330
747D
100
AcDbEntity
  8
仕様書枠
 48
50.0
100
AcDbLine
 10
13107.2
 20
800.0
 30
0.0
 11
14251.2
 21
800.0
 31
0.0
  0
LINE
  5
10B88
330
747D
100
AcDbEntity
  8
仕様書枠
  6
Continuous
 48
50.0
100
AcDbLine
 10
14251.2
 20
1200.0
 30
0.0
 11
14251.2
 21
800.0
 31
0.0
  0
LINE
  5
127A8
330
747D
100
AcDbEntity
  8
部品1
100
AcDbLine
 10
440.9034657772718
 20
2191.174431315804
 30
0.0
 11
590.9034657772718
 21
2191.174431315804
 31
0.0
  0
LINE
  5
127A9
330
747D
100
AcDbEntity
  8
部品1
100
AcDbLine
 10
515.9034657772718
 20
2061.270620748139
 30
0.0
 11
440.9034657772718
 21
2191.174431315804
 31
0.0
  0
TEXT
  5
127AA
330
747D
100
AcDbEntity
  8
部品1
100
AcDbText
 10
619.0084079020452
 20
2097.37752435404
 30
0.0
 40
125.0
  1
G.L
  7
MSGOTHIC
100
AcDbText
  0
LINE
  5
127AB
330
747D
100
AcDbEntity
  8
部品1
100
AcDbLine
 10
590.9034657772718
 20
2191.174431315804
 30
0.0
 11
515.9034657772718
 21
2061.270620748139
 31
0.0
  0
LINE
  5
13C1F
330
747D
100
AcDbEntity
  8
部品1
100
AcDbLine
 10
1429.673057123657
 20
4395.270620748145
 30
0.0
 11
1429.673057123657
 21
2061.270620748139
 31
0.0
  0
LINE
  5
13CFC
330
747D
100
AcDbEntity
  8
部品1
100
AcDbLine
 10
9264.673057123657
 20
4136.270620748137
 30
0.0
 11
9264.673057123655
 21
2161.270620748139
 31
0.0
  0
LINE
  5
13CFE
330
747D
100
AcDbEntity
  8
部品1
100
AcDbLine
 10
1484.673057123656
 20
4136.270620748137
 30
0.0
 11
1484.673057123657
 21
2161.270620748139
 31
0.0
  0
LINE
  5
13D18
330
747D
100
AcDbEntity
  8
部品1
100
AcDbLine
 10
9319.673057123656
 20
4395.270620748143
 30
0.0
 11
9319.673057123656
 21
2061.270620748139
 31
0.0
  0
LINE
  5
146B2
330
747D
100
AcDbEntity
  8
破線
 48
5.0
100
AcDbLine
 10
9319.673057123656
 20
2061.270620748139
 30
0.0
 11
9319.673057123656
 21
1811.270620748139
 31
0.0
  0
LINE
  5
146B3
330
747D
100
AcDbEntity
  8
破線
 48
5.0
100
AcDbLine
 10
1429.673057123657
 20
2061.270620748139
 30
0.0
 11
1429.673057123655
 21
1811.270620748139
 31
0.0
  0
TEXT
  5
149A1
330
747D
100
AcDbEntity
  8
部品1
100
AcDbText
 10
5083.463127747398
 20
1318.377091529615
 30
0.0
 40
135.0
  1
正面図
  7
MSGOTHIC
100
AcDbText
  0
LWPOLYLINE
  5
149A2
330
747D
100
AcDbEntity
  8
部品1
100
AcDbPolyline
 90
        4
 70
     1
 43
0.0
 10
4992.937724009443
 20
1511.270620748139
 10
4992.937724009443
 20
1271.378299202607
 10
5756.408390237882
 20
1271.378299202607
 10
5756.408390237882
 20
1511.270620748139
  0
TEXT
  5
14E88
330
747D
100
AcDbEntity
  8
部品1
100
AcDbText
 10
5082.857333838481
 20
5802.378858851012
 30
0.0
 40
135.0
  1
平面図
  7
MSGOTHIC
100
AcDbText
  0
LWPOLYLINE
  5
14E89
330
747D
100
AcDbEntity
  8
部品1
100
AcDbPolyline
 90
        4
 70
     1
 43
0.0
 10
4992.937724009443
 20
5995.272388069536
 10
4992.937724009443
 20
5755.380066524003
 10
5756.408390237883
 20
5755.380066524003
 10
5756.408390237883
 20
5995.272388069536
  0
TEXT
  5
15550
330
747D
100
AcDbEntity
  8
文字
 62
     7
 48
50.0
100
AcDbText
 10
14663.3224864739
 20
871.9640646083623
 30
0.0
 40
100.0
  1
～一般型・多雪地型～
  7
STYLE2
100
AcDbText
  0
LINE
  5
15CE5
330
747D
100
AcDbEntity
  8
破線
 48
5.0
100
AcDbLine
 10
9264.673057123655
 20
2161.270620748139
 30
0.0
 11
9264.673057123657
 21
1811.270620748139
 31
0.0
  0
LINE
  5
15CE6
330
747D
100
AcDbEntity
  8
破線
 48
5.0
100
AcDbLine
 10
1484.673057123657
 20
2161.270620748139
 30
0.0
 11
1484.673057123655
 21
1811.270620748139
 31
0.0
  0
LINE
  5
15CE7
330
747D
100
AcDbEntity
  8
破線
 48
5.0
100
AcDbLine
 10
9319.673057123656
 20
1811.270620748139
 30
0.0
 11
9264.673057123657
 21
1811.270620748139
 31
0.0
  0
LINE
  5
15CE8
330
747D
100
AcDbEntity
  8
破線
 48
5.0
100
AcDbLine
 10
1484.673057123655
 20
1811.270620748146
 30
0.0
 11
1429.673057123655
 21
1811.270620748146
 31
0.0
  0
LINE
  5
15CE9
330
747D
100
AcDbEntity
  8
部品1
100
AcDbLine
 10
1532.673057123657
 20
4136.270620748138
 30
0.0
 11
1532.673057123657
 21
2161.270620748139
 31
0.0
  0
LINE
  5
15CEA
330
747D
100
AcDbEntity
  8
破線
 48
5.0
100
AcDbLine
 10
1532.673057123657
 20
2161.270620748139
 30
0.0
 11
1532.673057123655
 21
1911.270620748144
 31
0.0
  0
LINE
  5
15CEB
330
747D
100
AcDbEntity
  8
部品1
100
AcDbLine
 10
9216.673057123658
 20
4136.270620748139
 30
0.0
 11
9216.673057123655
 21
2161.270620748139
 31
0.0
  0
LINE
  5
15CEC
330
747D
100
AcDbEntity
  8
破線
 48
5.0
100
AcDbLine
 10
9216.673057123655
 20
2161.270620748139
 30
0.0
 11
9216.673057123657
 21
1911.270620748139
 31
0.0
  0
LINE
  5
15CED
330
747D
100
AcDbEntity
  8
破線
 48
5.0
100
AcDbLine
 10
9264.673057123658
 20
1911.270620748139
 30
0.0
 11
9216.673057123657
 21
1911.270620748139
 31
0.0
  0
LINE
  5
15CEE
330
747D
100
AcDbEntity
  8
破線
 48
5.0
100
AcDbLine
 10
1532.673057123655
 20
1911.270620748144
 30
0.0
 11
1484.673057123655
 21
1911.270620748144
 31
0.0
  0
LINE
  5
15D20
330
747D
100
AcDbEntity
  8
細線
100
AcDbLine
 10
6792.673057123653
 20
3796.270620748139
 30
0.0
 11
9216.673057123655
 21
3796.270620748139
 31
0.0
  0
LINE
  5
15D21
330
747D
100
AcDbEntity
  8
細線
100
AcDbLine
 10
6792.673057123653
 20
3861.270620748139
 30
0.0
 11
9216.673057123655
 21
3861.270620748139
 31
0.0
  0
LINE
  5
15D22
330
747D
100
AcDbEntity
  8
細線
100
AcDbLine
 10
6792.673057123653
 20
3926.270620748139
 30
0.0
 11
9216.673057123655
 21
3926.270620748139
 31
0.0
  0
LINE
  5
15D23
330
747D
100
AcDbEntity
  8
細線
100
AcDbLine
 10
6792.673057123653
 20
3406.270620748139
 30
0.0
 11
9216.673057123655
 21
3406.270620748139
 31
0.0
  0
LINE
  5
15D24
330
747D
100
AcDbEntity
  8
細線
100
AcDbLine
 10
6792.673057123653
 20
3471.270620748139
 30
0.0
 11
9216.673057123655
 21
3471.270620748139
 31
0.0
  0
LINE
  5
15D25
330
747D
100
AcDbEntity
  8
細線
100
AcDbLine
 10
6792.673057123653
 20
3536.270620748139
 30
0.0
 11
9216.673057123655
 21
3536.270620748139
 31
0.0
  0
LINE
  5
15D26
330
747D
100
AcDbEntity
  8
細線
100
AcDbLine
 10
6792.673057123653
 20
3601.270620748139
 30
0.0
 11
9216.673057123655
 21
3601.270620748139
 31
0.0
  0
LINE
  5
15D27
330
747D
100
AcDbEntity
  8
細線
100
AcDbLine
 10
6792.673057123653
 20
3666.270620748139
 30
0.0
 11
9216.673057123655
 21
3666.270620748139
 31
0.0
  0
LINE
  5
15D28
330
747D
100
AcDbEntity
  8
細線
100
AcDbLine
 10
6792.673057123653
 20
3731.270620748139
 30
0.0
 11
9216.673057123655
 21
3731.270620748139
 31
0.0
  0
LINE
  5
15D29
330
747D
100
AcDbEntity
  8
細線
100
AcDbLine
 10
6792.673057123653
 20
2756.270620748139
 30
0.0
 11
9216.673057123655
 21
2756.270620748139
 31
0.0
  0
LINE
  5
15D2A
330
747D
100
AcDbEntity
  8
細線
100
AcDbLine
 10
6792.673057123653
 20
2821.270620748139
 30
0.0
 11
9216.673057123655
 21
2821.270620748139
 31
0.0
  0
LINE
  5
15D2B
330
747D
100
AcDbEntity
  8
細線
100
AcDbLine
 10
6792.673057123653
 20
2886.270620748139
 30
0.0
 11
9216.673057123655
 21
2886.270620748139
 31
0.0
  0
LINE
  5
15D2C
330
747D
100
AcDbEntity
  8
細線
100
AcDbLine
 10
6792.673057123653
 20
2951.270620748139
 30
0.0
 11
9216.673057123655
 21
2951.270620748139
 31
0.0
  0
LINE
  5
15D2D
330
747D
100
AcDbEntity
  8
細線
100
AcDbLine
 10
6792.673057123653
 20
3016.270620748139
 30
0.0
 11
9216.673057123655
 21
3016.270620748139
 31
0.0
  0
LINE
  5
15D2E
330
747D
100
AcDbEntity
  8
細線
100
AcDbLine
 10
6792.673057123653
 20
3081.270620748139
 30
0.0
 11
9216.673057123655
 21
3081.270620748139
 31
0.0
  0
LINE
  5
15D2F
330
747D
100
AcDbEntity
  8
細線
100
AcDbLine
 10
6792.673057123653
 20
3146.270620748139
 30
0.0
 11
9216.673057123655
 21
3146.270620748139
 31
0.0
  0
LINE
  5
15D30
330
747D
100
AcDbEntity
  8
細線
100
AcDbLine
 10
6792.673057123653
 20
3211.270620748139
 30
0.0
 11
9216.673057123655
 21
3211.270620748139
 31
0.0
  0
LINE
  5
15D31
330
747D
100
AcDbEntity
  8
細線
100
AcDbLine
 10
6792.673057123653
 20
3276.270620748139
 30
0.0
 11
9216.673057123655
 21
3276.270620748139
 31
0.0
  0
LINE
  5
15D32
330
747D
100
AcDbEntity
  8
細線
100
AcDbLine
 10
6792.673057123653
 20
3341.270620748139
 30
0.0
 11
9216.673057123655
 21
3341.270620748139
 31
0.0
  0
LINE
  5
15D33
330
747D
100
AcDbEntity
  8
細線
100
AcDbLine
 10
6792.673057123653
 20
4056.270620748139
 30
0.0
 11
9216.673057123655
 21
4056.270620748139
 31
0.0
  0
LINE
  5
15D34
330
747D
100
AcDbEntity
  8
細線
100
AcDbLine
 10
6792.673057123653
 20
4121.270620748139
 30
0.0
 11
9216.673057123655
 21
4121.270620748139
 31
0.0
  0
LINE
  5
15D35
330
747D
100
AcDbEntity
  8
細線
100
AcDbLine
 10
6792.673057123653
 20
3991.270620748139
 30
0.0
 11
9216.673057123655
 21
3991.270620748139
 31
0.0
  0
LINE
  5
15D36
330
747D
100
AcDbEntity
  8
細線
100
AcDbLine
 10
6792.673057123653
 20
2171.270620748139
 30
0.0
 11
9216.673057123655
 21
2171.270620748139
 31
0.0
  0
LINE
  5
15D37
330
747D
100
AcDbEntity
  8
細線
100
AcDbLine
 10
6792.673057123653
 20
2236.270620748139
 30
0.0
 11
9216.673057123655
 21
2236.270620748139
 31
0.0
  0
LINE
  5
15D38
330
747D
100
AcDbEntity
  8
細線
100
AcDbLine
 10
6792.673057123653
 20
2301.270620748139
 30
0.0
 11
9216.673057123655
 21
2301.270620748139
 31
0.0
  0
LINE
  5
15D39
330
747D
100
AcDbEntity
  8
細線
100
AcDbLine
 10
6792.673057123653
 20
2366.270620748139
 30
0.0
 11
9216.673057123655
 21
2366.270620748139
 31
0.0
  0
LINE
  5
15D3A
330
747D
100
AcDbEntity
  8
細線
100
AcDbLine
 10
6792.673057123653
 20
2431.270620748139
 30
0.0
 11
9216.673057123655
 21
2431.270620748139
 31
0.0
  0
LINE
  5
15D3B
330
747D
100
AcDbEntity
  8
細線
100
AcDbLine
 10
6792.673057123653
 20
2496.270620748139
 30
0.0
 11
9216.673057123655
 21
2496.270620748139
 31
0.0
  0
LINE
  5
15D3C
330
747D
100
AcDbEntity
  8
細線
100
AcDbLine
 10
6792.673057123653
 20
2561.270620748139
 30
0.0
 11
9216.673057123655
 21
2561.270620748139
 31
0.0
  0
LINE
  5
15D3D
330
747D
100
AcDbEntity
  8
細線
100
AcDbLine
 10
6792.673057123653
 20
2626.270620748139
 30
0.0
 11
9216.673057123655
 21
2626.270620748139
 31
0.0
  0
LINE
  5
15D3E
330
747D
100
AcDbEntity
  8
細線
100
AcDbLine
 10
6792.673057123653
 20
2691.270620748139
 30
0.0
 11
9216.673057123655
 21
2691.270620748139
 31
0.0
  0
LINE
  5
15D3F
330
747D
100
AcDbEntity
  8
細線
100
AcDbLine
 10
9216.673057123657
 20
2171.270620748139
 30
0.0
 11
6792.673057123652
 21
2171.270620748139
 31
0.0
  0
DIMENSION
  5
162CD
330
747D
100
AcDbEntity
  8
寸法
100
AcDbDimension
  2
*D1
 10
9967.099402858071
 20
7197.497424545952
 30
0.0
 11
9867.087591834447
 21
8457.497424545961
 31
0.0
 70
    32
  1
6X420=<>
 71
     5
 42
2520.000000000015
  3
INABA_S40G
100
AcDbAlignedDimension
 13
9319.673057123663
 23
9717.497424545967
 33
0.0
 14
9319.673057123639
 24
7197.497424545952
 34
0.0
 50
90.0
100
AcDbRotatedDimension
1001
ACAD
1000
DSTYLE
1002
{
1002
}
  0
DIMENSION
  5
162CE
330
747D
100
AcDbEntity
  8
寸法
100
AcDbDimension
  2
*D2
 10
9967.09940285805
 20
7142.497424545957
 30
0.0
 11
9967.099402858048
 21
6764.635957641094
 31
0.0
 70
   160
 71
     5
 42
54.99999999999636
  3
INABA_S40G
100
AcDbAlignedDimension
 13
9319.673057123639
 23
7197.497424545952
 33
0.0
 14
9319.673057123639
 24
7142.497424545957
 34
0.0
 50
90.0
100
AcDbRotatedDimension
1001
ACAD
1000
DSTYLE
1002
{
1002
}
  0
DIMENSION
  5
162CF
330
747D
100
AcDbEntity
  8
寸法
100
AcDbDimension
  2
*D3
 10
9967.099402858075
 20
9717.497424545967
 30
0.0
 11
9967.099402858075
 21
10080.9827059202
 31
0.0
 70
   160
 71
     5
 42
54.99999999999636
  3
INABA_S40G
100
AcDbAlignedDimension
 13
9319.673057123663
 23
9772.497424545964
 33
0.0
 14
9319.673057123663
 24
9717.497424545967
 34
0.0
 50
90.0
100
AcDbRotatedDimension
1001
ACAD
1000
DSTYLE
1002
{
1002
}
  0
DIMENSION
  5
162D0
330
747D
100
AcDbEntity
  8
寸法
100
AcDbDimension
  2
*D4
 10
10332.20634459771
 20
7142.497424545955
 30
0.0
 11
10232.19453357408
 21
8457.497424545961
 31
0.0
 70
    32
 71
     5
 42
2630.000000000007
  3
INABA_S40G
100
AcDbAlignedDimension
 13
9319.673057123663
 23
9772.497424545964
 33
0.0
 14
9319.673057123639
 24
7142.497424545957
 34
0.0
 50
90.0
100
AcDbRotatedDimension
1001
ACAD
1000
DSTYLE
1002
{
1002
}
  0
LINE
  5
162DC
330
747D
100
AcDbEntity
  8
部品1
100
AcDbLine
 10
9291.673057123647
 20
9744.497424545963
 30
0.0
 11
9291.67305712364
 21
7197.497424545952
 31
0.0
  0
LINE
  5
162DD
330
747D
100
AcDbEntity
  8
部品1
100
AcDbLine
 10
1457.673057123638
 20
7197.497424545821
 30
0.0
 11
1457.673057123649
 21
9744.497424545871
 31
0.0
  0
LINE
  5
162DE
330
747D
100
AcDbEntity
  8
部品1
100
AcDbLine
 10
9319.673057123663
 20
9772.497424545964
 30
0.0
 11
9319.673057123639
 21
7142.497424545957
 31
0.0
  0
LINE
  5
162DF
330
747D
100
AcDbEntity
  8
部品1
100
AcDbLine
 10
1429.673057123628
 20
9772.497424545838
 30
0.0
 11
1429.673057123657
 21
7142.497424545826
 31
0.0
  0
DIMENSION
  5
162E4
330
747D
100
AcDbEntity
  8
寸法
 48
50.0
100
AcDbDimension
  2
*D5
 10
6792.673057123656
 20
6608.0666537797
 30
0.0
 11
8004.673057123648
 21
6708.078464803323
 31
0.0
 70
    32
  1
有効開口部間口 <>
 71
     5
 42
2423.999999999982
  3
INABA_S40G
100
AcDbAlignedDimension
 13
9216.673057123639
 23
7168.497424545865
 33
0.0
 14
6792.673057123656
 24
7168.497424545865
 34
0.0
100
AcDbRotatedDimension
1001
ACAD
1000
DSTYLE
1002
{
1070
    75
1070
     1
1070
   279
1070
     2
1002
}
  0
LINE
  5
162E6
330
747D
100
AcDbEntity
  8
部品1
 48
50.0
100
AcDbLine
 10
6756.673057123656
 20
7187.997424545864
 30
0.0
 11
9252.67305712364
 21
7187.997424545864
 31
0.0
  0
DIMENSION
  5
162E7
330
747D
100
AcDbEntity
  8
寸法
100
AcDbDimension
  2
*D6
 10
9319.673057123628
 20
6161.893658188827
 30
0.0
 11
5374.673057123642
 21
6261.905469212448
 31
0.0
 70
    32
  1
N X 2630
 71
     5
 42
7889.999999999971
  3
INABA_S40G
100
AcDbAlignedDimension
 13
1429.673057123657
 23
7142.497424545862
 33
0.0
 14
9319.673057123628
 24
7142.497424545957
 34
0.0
100
AcDbRotatedDimension
1001
ACAD
1000
DSTYLE
1002
{
1002
}
  0
LINE
  5
162E8
330
747D
100
AcDbEntity
  8
部品1
100
AcDbLine
 10
1484.673057123634
 20
9717.497424545888
 30
0.0
 11
1484.673057123656
 21
7207.497424545863
 31
0.0
  0
LINE
  5
162E9
330
747D
100
AcDbEntity
  8
部品1
100
AcDbLine
 10
1509.673057123635
 20
9717.497424545886
 30
0.0
 11
1509.673057123656
 21
7207.497424545863
 31
0.0
  0
DIMENSION
  5
162EA
330
747D
100
AcDbEntity
  8
寸法
 48
50.0
100
AcDbDimension
  2
*D7
 10
1429.673057123657
 20
6608.0666537797
 30
0.0
 11
1121.187775749418
 21
6608.0666537797
 31
0.0
 70
   160
 71
     5
 42
54.99999999999636
  3
INABA_S40G
100
AcDbAlignedDimension
 13
1484.673057123653
 23
7142.497424545864
 33
0.0
 14
1429.673057123657
 24
7142.497424545862
 34
0.0
100
AcDbRotatedDimension
1001
ACAD
1000
DSTYLE
1002
{
1002
}
  0
DIMENSION
  5
162EB
330
747D
100
AcDbEntity
  8
寸法
 48
50.0
100
AcDbDimension
  2
*D8
 10
6744.673057123653
 20
6608.0666537797
 30
0.0
 11
6905.575028123713
 21
6708.0666537797
 31
0.0
 70
   160
 71
     5
 42
48.00000000000363
  3
INABA_S40G
100
AcDbAlignedDimension
 13
6792.673057123656
 23
7168.497424545865
 33
0.0
 14
6744.673057123653
 24
7142.497424545864
 34
0.0
100
AcDbRotatedDimension
1001
ACAD
1000
DSTYLE
1002
{
1070
   279
1070
     2
1002
}
  0
LINE
  5
162EC
330
747D
100
AcDbEntity
  8
部品1
100
AcDbLine
 10
1484.673057123652
 20
7142.497424545864
 30
0.0
 11
1429.673057123657
 21
7142.497424545862
 31
0.0
  0
LINE
  5
162ED
330
747D
100
AcDbEntity
  8
部品1
 48
50.0
100
AcDbLine
 10
1484.673057123657
 20
7178.497424545864
 30
0.0
 11
1461.673057123657
 21
7178.497424545864
 31
0.0
  0
LINE
  5
162EE
330
747D
100
AcDbEntity
  8
部品1
 48
50.0
100
AcDbLine
 10
1494.673057123657
 20
7168.497424545865
 30
0.0
 11
1484.673057123657
 21
7147.497424545864
 31
0.0
  0
LINE
  5
162EF
330
747D
100
AcDbEntity
  8
部品1
 48
50.0
100
AcDbLine
 10
1484.673057123657
 20
7207.497424545863
 30
0.0
 11
1484.673057123653
 21
7142.497424545864
 31
0.0
  0
LINE
  5
162F0
330
747D
100
AcDbEntity
  8
部品1
 48
50.0
100
AcDbLine
 10
1532.673057123657
 20
7168.497424545865
 30
0.0
 11
1532.673057123657
 21
7177.497424545865
 31
0.0
  0
LINE
  5
162F1
330
747D
100
AcDbEntity
  8
部品1
 48
50.0
100
AcDbLine
 10
1532.673057123657
 20
7207.497424545865
 30
0.0
 11
1532.673057123657
 21
7198.497424545866
 31
0.0
  0
LINE
  5
162F2
330
747D
100
AcDbEntity
  8
部品1
100
AcDbLine
 10
1532.673057123657
 20
7207.497424545865
 30
0.0
 11
1484.673057123657
 21
7207.497424545865
 31
0.0
  0
LINE
  5
162F3
330
747D
100
AcDbEntity
  8
部品1
100
AcDbLine
 10
1532.673057123657
 20
7168.497424545865
 30
0.0
 11
1484.673057123657
 21
7168.497424545865
 31
0.0
  0
LINE
  5
162F4
330
747D
100
AcDbEntity
  8
部品1
100
AcDbLine
 10
1484.673057123656
 20
7178.497424545864
 30
0.0
 11
1461.673057123657
 21
7178.497424545864
 31
0.0
  0
LINE
  5
162F5
330
747D
100
AcDbEntity
  8
部品1
100
AcDbLine
 10
1484.673057123656
 20
7197.497424545789
 30
0.0
 11
1429.673057123655
 21
7197.497424545789
 31
0.0
  0
LINE
  5
162F6
330
747D
100
AcDbEntity
  8
部品1
100
AcDbLine
 10
1457.673057123638
 20
7197.497424545826
 30
0.0
 11
1429.673057123655
 21
7197.497424545826
 31
0.0
  0
LINE
  5
162F7
330
747D
100
AcDbEntity
  8
部品1
100
AcDbLine
 10
1457.673057123655
 20
7197.49742454584
 30
0.0
 11
1429.673057123655
 21
7197.49742454584
 31
0.0
  0
LINE
  5
162FB
330
747D
100
AcDbEntity
  8
部品1
100
AcDbLine
 10
1457.673057123643
 20
7617.49742454584
 30
0.0
 11
1429.673057123643
 21
7617.49742454584
 31
0.0
  0
LINE
  5
162FC
330
747D
100
AcDbEntity
  8
部品1
100
AcDbLine
 10
1457.673057123643
 20
8037.49742454584
 30
0.0
 11
1429.673057123643
 21
8037.49742454584
 31
0.0
  0
LINE
  5
162FE
330
747D
100
AcDbEntity
  8
部品1
100
AcDbLine
 10
1457.673057123638
 20
8457.49742454584
 30
0.0
 11
1429.673057123637
 21
8457.49742454584
 31
0.0
  0
LINE
  5
162FF
330
747D
100
AcDbEntity
  8
部品1
100
AcDbLine
 10
9264.67305712366
 20
9717.497424545886
 30
0.0
 11
9264.673057123641
 21
7142.497424545952
 31
0.0
  0
LINE
  5
16300
330
747D
100
AcDbEntity
  8
部品1
100
AcDbLine
 10
9239.673057123665
 20
9717.497424545884
 30
0.0
 11
9239.67305712364
 21
7207.497424545865
 31
0.0
  0
DIMENSION
  5
16301
330
747D
100
AcDbEntity
  8
寸法
 48
50.0
100
AcDbDimension
  2
*D9
 10
9216.673057123639
 20
6608.0666537797
 30
0.0
 11
9105.710159474892
 21
6708.0666537797
 31
0.0
 70
   160
 71
     5
 42
48.00000000000181
  3
INABA_S40G
100
AcDbAlignedDimension
 13
9264.673057123641
 23
7142.497424545952
 33
0.0
 14
9216.673057123639
 24
7168.497424545865
 34
0.0
100
AcDbRotatedDimension
1001
ACAD
1000
DSTYLE
1002
{
1070
   279
1070
     2
1002
}
  0
DIMENSION
  5
16302
330
747D
100
AcDbEntity
  8
寸法
 48
50.0
100
AcDbDimension
  2
*D10
 10
9264.673057123641
 20
6608.066653779701
 30
0.0
 11
9628.158338497877
 21
6608.066653779701
 31
0.0
 70
   160
 71
     5
 42
54.99999999999818
  3
INABA_S40G
100
AcDbAlignedDimension
 13
9319.673057123639
 23
7142.497424545957
 33
0.0
 14
9264.673057123641
 24
7142.497424545952
 34
0.0
100
AcDbRotatedDimension
1001
ACAD
1000
DSTYLE
1002
{
1002
}
  0
LINE
  5
16303
330
747D
100
AcDbEntity
  8
部品1
 48
50.0
100
AcDbLine
 10
9254.673057123637
 20
7168.497424545865
 30
0.0
 11
9264.673057123639
 21
7147.497424545864
 31
0.0
  0
LINE
  5
16304
330
747D
100
AcDbEntity
  8
部品1
100
AcDbLine
 10
9216.673057123639
 20
7207.497424545865
 30
0.0
 11
9264.673057123641
 21
7207.497424545865
 31
0.0
  0
LINE
  5
16305
330
747D
100
AcDbEntity
  8
部品1
100
AcDbLine
 10
9216.673057123639
 20
7168.497424545865
 30
0.0
 11
9264.673057123639
 21
7168.497424545865
 31
0.0
  0
LINE
  5
16306
330
747D
100
AcDbEntity
  8
部品1
 48
50.0
100
AcDbLine
 10
9216.673057123639
 20
7207.497424545865
 30
0.0
 11
9216.673057123639
 21
7198.497424545866
 31
0.0
  0
LINE
  5
16307
330
747D
100
AcDbEntity
  8
部品1
 48
50.0
100
AcDbLine
 10
9216.673057123639
 20
7168.497424545865
 30
0.0
 11
9216.673057123639
 21
7177.497424545865
 31
0.0
  0
LINE
  5
16308
330
747D
100
AcDbEntity
  8
部品1
100
AcDbLine
 10
9264.673057123639
 20
7178.497424545863
 30
0.0
 11
9287.673057123638
 21
7178.497424545864
 31
0.0
  0
LINE
  5
16309
330
747D
100
AcDbEntity
  8
部品1
100
AcDbLine
 10
9264.673057123639
 20
7197.497424545968
 30
0.0
 11
9319.673057123671
 21
7197.497424545968
 31
0.0
  0
LINE
  5
1630A
330
747D
100
AcDbEntity
  8
部品1
100
AcDbLine
 10
9319.673057123639
 20
7142.497424545957
 30
0.0
 11
9264.673057123641
 21
7142.497424545954
 31
0.0
  0
LINE
  5
16317
330
747D
100
AcDbEntity
  8
部品1
100
AcDbLine
 10
9291.673057123668
 20
7617.497424545966
 30
0.0
 11
9319.673057123667
 21
7617.497424545966
 31
0.0
  0
LINE
  5
16319
330
747D
100
AcDbEntity
  8
部品1
100
AcDbLine
 10
9291.673057123668
 20
8037.497424545966
 30
0.0
 11
9319.673057123667
 21
8037.497424545966
 31
0.0
  0
LINE
  5
1631A
330
747D
100
AcDbEntity
  8
部品1
100
AcDbLine
 10
9291.673057123665
 20
8457.497424545968
 30
0.0
 11
9319.673057123663
 21
8457.497424545968
 31
0.0
  0
LINE
  5
1631B
330
747D
100
AcDbEntity
  8
部品1
100
AcDbLine
 10
6717.673057123663
 20
9744.497424545986
 30
0.0
 11
7992.173057123661
 21
9744.497424545986
 31
0.0
  0
LINE
  5
1631D
330
747D
100
AcDbEntity
  8
部品1
100
AcDbLine
 10
1429.673057123663
 20
9772.49742454587
 30
0.0
 11
9319.673057123665
 21
9772.497424545969
 31
0.0
  0
DIMENSION
  5
1631F
330
747D
100
AcDbEntity
  8
寸法
100
AcDbDimension
  2
*D11
 10
9264.673057123664
 20
9988.305644170967
 30
0.0
 11
8004.673057123664
 21
10088.31745519459
 31
0.0
 70
    32
  1
6X420=<>
 71
     5
 42
2520.000000000001
  3
INABA_S40G
100
AcDbAlignedDimension
 13
6744.673057123662
 23
9772.49742454587
 33
0.0
 14
9264.673057123664
 24
9772.497424545964
 34
0.0
100
AcDbRotatedDimension
1001
ACAD
1000
DSTYLE
1002
{
1002
}
  0
DIMENSION
  5
16320
330
747D
100
AcDbEntity
  8
寸法
100
AcDbDimension
  2
*D12
 10
1484.673057123663
 20
9988.30564417085
 30
0.0
 11
1121.187775749389
 21
9988.30564417085
 31
0.0
 70
   160
 71
     5
 42
55.00000000003456
  3
INABA_S40G
100
AcDbAlignedDimension
 13
1429.673057123628
 23
9772.49742454587
 33
0.0
 14
1484.673057123663
 24
9772.49742454587
 34
0.0
100
AcDbRotatedDimension
1001
ACAD
1000
DSTYLE
1002
{
1002
}
  0
LINE
  5
16321
330
747D
100
AcDbEntity
  8
部品1
100
AcDbLine
 10
1484.673057123628
 20
9772.497424545838
 30
0.0
 11
1484.67305712363
 21
9744.497424545837
 31
0.0
  0
LINE
  5
16322
330
747D
100
AcDbEntity
  8
部品1
100
AcDbLine
 10
1484.673057123663
 20
9772.49742454587
 30
0.0
 11
1484.673057123663
 21
9744.497424545869
 31
0.0
  0
LINE
  5
16323
330
747D
100
AcDbEntity
  8
部品1
100
AcDbLine
 10
1457.67305712363
 20
9717.49742454584
 30
0.0
 11
1429.67305712363
 21
9717.49742454584
 31
0.0
  0
LINE
  5
16324
330
747D
100
AcDbEntity
  8
部品1
100
AcDbLine
 10
7164.673057123663
 20
9772.497424545987
 30
0.0
 11
7164.673057123663
 21
9744.497424545986
 31
0.0
  0
LINE
  5
16325
330
747D
100
AcDbEntity
  8
部品1
100
AcDbLine
 10
7164.673057123663
 20
9772.49742454587
 30
0.0
 11
7164.673057123663
 21
9744.497424545869
 31
0.0
  0
LINE
  5
16326
330
747D
100
AcDbEntity
  8
部品1
100
AcDbLine
 10
7164.673057123663
 20
9772.49742454587
 30
0.0
 11
7164.673057123663
 21
9744.497424545869
 31
0.0
  0
LINE
  5
16327
330
747D
100
AcDbEntity
  8
部品1
100
AcDbLine
 10
8017.173057123663
 20
9744.497424545983
 30
0.0
 11
9291.673057123665
 21
9744.497424545963
 31
0.0
  0
LINE
  5
16329
330
747D
100
AcDbEntity
  8
部品1
100
AcDbLine
 10
7584.673057123663
 20
9772.497424545987
 30
0.0
 11
7584.673057123663
 21
9744.497424545986
 31
0.0
  0
LINE
  5
1632A
330
747D
100
AcDbEntity
  8
部品1
100
AcDbLine
 10
7584.673057123663
 20
9772.49742454587
 30
0.0
 11
7584.673057123663
 21
9744.497424545869
 31
0.0
  0
LINE
  5
1632B
330
747D
100
AcDbEntity
  8
部品1
100
AcDbLine
 10
7584.673057123663
 20
9772.49742454587
 30
0.0
 11
7584.673057123663
 21
9744.497424545869
 31
0.0
  0
LINE
  5
1632C
330
747D
100
AcDbEntity
  8
部品1
100
AcDbLine
 10
8004.673057123664
 20
9772.497424545987
 30
0.0
 11
8004.673057123664
 21
9744.497424545986
 31
0.0
  0
LINE
  5
1632D
330
747D
100
AcDbEntity
  8
部品1
100
AcDbLine
 10
7992.173057123664
 20
9736.497424545968
 30
0.0
 11
8017.173057123663
 21
9736.497424545971
 31
0.0
  0
LINE
  5
1632E
330
747D
100
AcDbEntity
  8
部品1
100
AcDbLine
 10
8033.673057123662
 20
9762.497424545971
 30
0.0
 11
8039.673057123662
 21
9762.497424545971
 31
0.0
  0
LINE
  5
1632F
330
747D
100
AcDbEntity
  8
部品1
100
AcDbLine
 10
8039.673057123662
 20
9762.497424545971
 30
0.0
 11
8039.673057123662
 21
9744.49742454597
 31
0.0
  0
LINE
  5
16330
330
747D
100
AcDbEntity
  8
部品1
100
AcDbLine
 10
7969.673057123663
 20
9762.497424545971
 30
0.0
 11
7975.673057123663
 21
9762.497424545971
 31
0.0
  0
LINE
  5
16331
330
747D
100
AcDbEntity
  8
部品1
100
AcDbLine
 10
7969.673057123663
 20
9762.497424545971
 30
0.0
 11
7969.673057123663
 21
9744.49742454597
 31
0.0
  0
DIMENSION
  5
16333
330
747D
100
AcDbEntity
  8
寸法
100
AcDbDimension
  2
*D13
 10
9319.673057123663
 20
9988.305644170949
 30
0.0
 11
9628.158338497904
 21
9988.305644170949
 31
0.0
 70
   160
 71
     5
 42
55.0
  3
INABA_S40G
100
AcDbAlignedDimension
 13
9264.673057123664
 23
9772.497424545964
 33
0.0
 14
9319.673057123663
 24
9772.497424545964
 34
0.0
100
AcDbRotatedDimension
1001
ACAD
1000
DSTYLE
1002
{
1002
}
  0
LINE
  5
16334
330
747D
100
AcDbEntity
  8
部品1
100
AcDbLine
 10
8424.673057123662
 20
9772.497424545987
 30
0.0
 11
8424.673057123662
 21
9744.497424545986
 31
0.0
  0
LINE
  5
16335
330
747D
100
AcDbEntity
  8
部品1
100
AcDbLine
 10
9264.673057123664
 20
9772.497424545964
 30
0.0
 11
9264.673057123664
 21
9744.497424545963
 31
0.0
  0
LINE
  5
16336
330
747D
100
AcDbEntity
  8
部品1
100
AcDbLine
 10
9264.673057123664
 20
9772.497424545987
 30
0.0
 11
9264.673057123664
 21
9744.497424545986
 31
0.0
  0
LINE
  5
16337
330
747D
100
AcDbEntity
  8
部品1
100
AcDbLine
 10
9291.673057123665
 20
9717.497424545967
 30
0.0
 11
9319.673057123663
 21
9717.497424545967
 31
0.0
  0
LINE
  5
1655C
330
747D
100
AcDbEntity
  8
部品1
100
AcDbLine
 10
6586.673057123658
 20
4136.270620748139
 30
0.0
 11
6586.673057123654
 21
2161.270620748139
 31
0.0
  0
LINE
  5
1655D
330
747D
100
AcDbEntity
  8
部品1
100
AcDbLine
 10
6634.673057123656
 20
4136.270620748137
 30
0.0
 11
6634.673057123655
 21
2161.270620748139
 31
0.0
  0
LINE
  5
1655E
330
747D
100
AcDbEntity
  8
破線
 48
5.0
100
AcDbLine
 10
6586.673057123654
 20
2161.270620748139
 30
0.0
 11
6586.673057123658
 21
1911.270620748139
 31
0.0
  0
LINE
  5
1655F
330
747D
100
AcDbEntity
  8
破線
 48
5.0
100
AcDbLine
 10
6634.673057123659
 20
1911.270620748139
 30
0.0
 11
6586.673057123658
 21
1911.270620748139
 31
0.0
  0
LINE
  5
16560
330
747D
100
AcDbEntity
  8
破線
 48
5.0
100
AcDbLine
 10
6634.673057123655
 20
2161.270620748139
 30
0.0
 11
6634.673057123656
 21
1886.270620748139
 31
0.0
  0
LINE
  5
16561
330
747D
100
AcDbEntity
  8
破線
 48
5.0
100
AcDbLine
 10
6744.673057123654
 20
1886.270620748138
 30
0.0
 11
6634.673057123656
 21
1886.270620748138
 31
0.0
  0
LINE
  5
16562
330
747D
100
AcDbEntity
  8
部品1
100
AcDbLine
 10
6792.673057123656
 20
4136.270620748138
 30
0.0
 11
6792.673057123656
 21
2161.270620748139
 31
0.0
  0
LINE
  5
16563
330
747D
100
AcDbEntity
  8
破線
 48
5.0
100
AcDbLine
 10
6792.673057123656
 20
2161.270620748139
 30
0.0
 11
6792.673057123654
 21
1911.270620748144
 31
0.0
  0
LINE
  5
16564
330
747D
100
AcDbEntity
  8
破線
 48
5.0
100
AcDbLine
 10
6792.673057123654
 20
1911.270620748144
 30
0.0
 11
6744.673057123654
 21
1911.270620748144
 31
0.0
  0
LINE
  5
16565
330
747D
100
AcDbEntity
  8
破線
 48
5.0
100
AcDbLine
 10
6744.673057123657
 20
2161.270620748139
 30
0.0
 11
6744.673057123657
 21
1886.270620748139
 31
0.0
  0
LINE
  5
16566
330
747D
100
AcDbEntity
  8
部品1
100
AcDbLine
 10
6744.673057123655
 20
4136.270620748137
 30
0.0
 11
6744.673057123657
 21
2161.270620748139
 31
0.0
  0
LINE
  5
16567
330
747D
100
AcDbEntity
  8
部品1
100
AcDbLine
 10
6744.673057123657
 20
4136.270620748138
 30
0.0
 11
9319.673057123658
 21
4136.270620748141
 31
0.0
  0
DIMENSION
  5
1659A
330
747D
100
AcDbEntity
  8
寸法
 48
50.0
100
AcDbDimension
  2
*D15
 10
6586.673057123639
 20
6608.0666537797
 30
0.0
 11
6475.710159474892
 21
6708.0666537797
 31
0.0
 70
   160
 71
     5
 42
48.00000000000181
  3
INABA_S40G
100
AcDbAlignedDimension
 13
6634.673057123641
 23
7142.497424545952
 33
0.0
 14
6586.673057123639
 24
7168.497424545865
 34
0.0
100
AcDbRotatedDimension
1001
ACAD
1000
DSTYLE
1002
{
1070
   279
1070
     2
1002
}
  0
DIMENSION
  5
1659C
330
747D
100
AcDbEntity
  8
寸法
 48
50.0
100
AcDbDimension
  2
*D14
 10
1484.673057123653
 20
6608.0666537797
 30
0.0
 11
1645.575028123714
 21
6708.0666537797
 31
0.0
 70
   160
 71
     5
 42
48.00000000000363
  3
INABA_S40G
100
AcDbAlignedDimension
 13
1532.673057123657
 23
7168.497424545865
 33
0.0
 14
1484.673057123653
 24
7142.497424545864
 34
0.0
100
AcDbRotatedDimension
1001
ACAD
1000
DSTYLE
1002
{
1070
   279
1070
     2
1002
}
  0
DIMENSION
  5
165E9
330
747D
100
AcDbEntity
  8
寸法
 48
50.0
100
AcDbDimension
  2
*D16
 10
6634.673057123641
 20
6608.066653779701
 30
0.0
 11
6689.673057123648
 21
6456.37475874347
 31
0.0
 70
   160
 71
     5
 42
110.0000000000127
  3
INABA_S40G
100
AcDbAlignedDimension
 13
6744.673057123653
 23
7142.497424545864
 33
0.0
 14
6634.673057123641
 24
7142.497424545952
 34
0.0
100
AcDbRotatedDimension
1001
ACAD
1000
DSTYLE
1002
{
1070
   279
1070
     2
1002
}
  0
LINE
  5
16656
330
747D
100
AcDbEntity
  8
部品1
100
AcDbLine
 10
6586.673057123639
 20
7207.497424545865
 30
0.0
 11
6634.673057123641
 21
7207.497424545865
 31
0.0
  0
LINE
  5
16657
330
747D
100
AcDbEntity
  8
部品1
 48
50.0
100
AcDbLine
 10
6586.673057123639
 20
7207.497424545865
 30
0.0
 11
6586.673057123639
 21
7198.497424545866
 31
0.0
  0
LINE
  5
16658
330
747D
100
AcDbEntity
  8
部品1
100
AcDbLine
 10
6586.673057123639
 20
7168.497424545865
 30
0.0
 11
6634.673057123639
 21
7168.497424545865
 31
0.0
  0
LINE
  5
16659
330
747D
100
AcDbEntity
  8
部品1
 48
50.0
100
AcDbLine
 10
6586.673057123639
 20
7168.497424545865
 30
0.0
 11
6586.673057123639
 21
7177.497424545865
 31
0.0
  0
LINE
  5
1665A
330
747D
100
AcDbEntity
  8
部品1
 48
50.0
100
AcDbLine
 10
6624.673057123638
 20
7168.497424545865
 30
0.0
 11
6634.673057123639
 21
7147.497424545864
 31
0.0
  0
LINE
  5
1665B
330
747D
100
AcDbEntity
  8
部品1
100
AcDbLine
 10
6634.673057123639
 20
7178.497424545863
 30
0.0
 11
6657.673057123638
 21
7178.497424545864
 31
0.0
  0
LINE
  5
1665C
330
747D
100
AcDbEntity
  8
部品1
100
AcDbLine
 10
6792.673057123656
 20
7207.497424545865
 30
0.0
 11
6744.673057123657
 21
7207.497424545865
 31
0.0
  0
LINE
  5
1665D
330
747D
100
AcDbEntity
  8
部品1
 48
50.0
100
AcDbLine
 10
6792.673057123656
 20
7207.497424545865
 30
0.0
 11
6792.673057123656
 21
7198.497424545866
 31
0.0
  0
LINE
  5
1665E
330
747D
100
AcDbEntity
  8
部品1
100
AcDbLine
 10
6792.673057123656
 20
7168.497424545865
 30
0.0
 11
6744.673057123657
 21
7168.497424545865
 31
0.0
  0
LINE
  5
1665F
330
747D
100
AcDbEntity
  8
部品1
 48
50.0
100
AcDbLine
 10
6754.673057123657
 20
7168.497424545865
 30
0.0
 11
6744.673057123657
 21
7147.497424545864
 31
0.0
  0
LINE
  5
16660
330
747D
100
AcDbEntity
  8
部品1
100
AcDbLine
 10
6744.673057123655
 20
7178.497424545864
 30
0.0
 11
6721.673057123656
 21
7178.497424545864
 31
0.0
  0
LINE
  5
16661
330
747D
100
AcDbEntity
  8
部品1
 48
50.0
100
AcDbLine
 10
6744.673057123657
 20
7207.497424545863
 30
0.0
 11
6744.673057123653
 21
7142.497424545864
 31
0.0
  0
LINE
  5
16662
330
747D
100
AcDbEntity
  8
部品1
 48
50.0
100
AcDbLine
 10
6792.673057123656
 20
7168.497424545865
 30
0.0
 11
6792.673057123656
 21
7177.497424545865
 31
0.0
  0
LINE
  5
16663
330
747D
100
AcDbEntity
  8
部品1
100
AcDbLine
 10
6744.673057123653
 20
7142.497424545864
 30
0.0
 11
6634.673057123642
 21
7142.497424545858
 31
0.0
  0
LINE
  5
16664
330
747D
100
AcDbEntity
  8
部品1
 48
50.0
100
AcDbLine
 10
6634.673057123645
 20
7207.497424545952
 30
0.0
 11
6634.673057123641
 21
7142.497424545952
 31
0.0
  0
LINE
  5
16666
330
747D
100
AcDbEntity
  8
部品1
100
AcDbLine
 10
6744.673057123662
 20
9772.49742454587
 30
0.0
 11
6744.673057123662
 21
9744.497424545869
 31
0.0
  0
LINE
  5
16686
330
747D
100
AcDbEntity
  8
部品1
100
AcDbLine
 10
5387.173057123663
 20
9744.49742454599
 30
0.0
 11
6661.673057123664
 21
9744.497424545963
 31
0.0
  0
LINE
  5
16692
330
747D
100
AcDbEntity
  8
部品1
100
AcDbLine
 10
6634.673057123663
 20
9772.497424545964
 30
0.0
 11
6634.673057123663
 21
9744.497424545963
 31
0.0
  0
DIMENSION
  5
166DD
330
747D
100
AcDbEntity
  8
寸法
 48
50.0
100
AcDbDimension
  2
*D17
 10
6634.673057123663
 20
9988.305644170967
 30
0.0
 11
6689.673057123664
 21
10088.30564417096
 31
0.0
 70
    32
 71
     5
 42
109.9999999999991
  3
INABA_S40G
100
AcDbAlignedDimension
 13
6744.673057123662
 23
9772.497424545917
 33
0.0
 14
6634.673057123663
 24
9772.497424545916
 34
0.0
100
AcDbRotatedDimension
1001
ACAD
1000
DSTYLE
1002
{
1070
   279
1070
     2
1002
}
  0
LINE
  5
16760
330
747D
100
AcDbEntity
  8
部品1
 48
50.0
100
AcDbLine
 10
6689.673057123629
 20
9744.497424545912
 30
0.0
 11
6661.673057123632
 21
9772.497424545965
 31
0.0
  0
LINE
  5
16761
330
747D
100
AcDbEntity
  8
部品1
100
AcDbLine
 10
9264.673057123658
 20
9717.497424545884
 30
0.0
 11
6744.673057123643
 21
9717.497424545886
 31
0.0
  0
LINE
  5
16762
330
747D
100
AcDbEntity
  8
部品1
 48
50.0
100
AcDbLine
 10
6661.673057123632
 20
9744.497424546016
 30
0.0
 11
6661.67305712363
 21
9772.497424545965
 31
0.0
  0
LINE
  5
16763
330
747D
100
AcDbEntity
  8
部品1
 48
50.0
100
AcDbLine
 10
6661.673057123632
 20
9744.497424545912
 30
0.0
 11
6689.673057123629
 21
9744.497424545912
 31
0.0
  0
LINE
  5
168C3
330
747D
100
AcDbEntity
  8
部品1
100
AcDbLine
 10
6713.673057123648
 20
7197.497424545861
 30
0.0
 11
6665.673057123647
 21
7197.49742454586
 31
0.0
  0
LINE
  5
168C4
330
747D
100
AcDbEntity
  8
部品1
 48
50.0
100
AcDbLine
 10
6665.673057123647
 20
7197.497424545861
 30
0.0
 11
6665.673057123651
 21
7142.497424545862
 31
0.0
  0
LINE
  5
168C5
330
747D
100
AcDbEntity
  8
部品1
 48
50.0
100
AcDbLine
 10
6713.673057123648
 20
7197.497424545861
 30
0.0
 11
6713.673057123649
 21
7142.497424545862
 31
0.0
  0
DIMENSION
  5
16913
330
747D
100
AcDbEntity
  8
寸法
 48
50.0
100
AcDbDimension
  2
*D18
 10
9319.673057123663
 20
10237.62711772726
 30
0.0
 11
8004.673057123664
 21
10337.63892875088
 31
0.0
 70
    32
 71
     5
 42
2630.0
  3
INABA_S40G
100
AcDbAlignedDimension
 13
6689.673057123664
 23
10147.29355852891
 33
0.0
 14
9319.673057123663
 24
9772.497424545964
 34
0.0
100
AcDbRotatedDimension
1001
ACAD
1000
DSTYLE
1002
{
1070
    75
1070
     1
1070
   279
1070
     2
1002
}
  0
LINE
  5
172BC
330
747D
100
AcDbEntity
  8
部品1
 48
50.0
100
AcDbLine
 10
6717.673057123632
 20
9717.497424545886
 30
0.0
 11
6717.673057123697
 21
9772.497424545917
 31
0.0
  0
LINE
  5
172BD
330
747D
100
AcDbEntity
  8
部品1
 48
50.0
100
AcDbLine
 10
6661.673057123632
 20
9717.497424545886
 30
0.0
 11
6661.673057123632
 21
9744.497424545912
 31
0.0
  0
LINE
  5
174C8
330
747D
100
AcDbEntity
  8
部品1
 48
50.0
100
AcDbLine
 10
9239.673057123665
 20
9692.497424545841
 30
0.0
 11
6769.673057123617
 21
9692.497424545816
 31
0.0
  0
LINE
  5
174C9
330
747D
100
AcDbEntity
  8
部品1
 48
50.0
100
AcDbLine
 10
9291.673057123665
 20
9744.497424545963
 30
0.0
 11
9264.673057123658
 21
9717.497424545884
 31
0.0
  0
LINE
  5
174CA
330
747D
100
AcDbEntity
  8
部品1
 48
50.0
100
AcDbLine
 10
1484.673057123634
 20
9717.497424545888
 30
0.0
 11
1457.673057123649
 21
9744.497424545986
 31
0.0
  0
LINE
  5
174CB
330
747D
100
AcDbEntity
  8
部品1
 48
50.0
100
AcDbLine
 10
7992.173057123664
 20
9736.497424545968
 30
0.0
 11
7992.173057123662
 21
9744.497424545986
 31
0.0
  0
LINE
  5
174CC
330
747D
100
AcDbEntity
  8
部品1
 48
50.0
100
AcDbLine
 10
8017.173057123663
 20
9736.497424545971
 30
0.0
 11
8017.173057123663
 21
9744.497424545983
 31
0.0
  0
LINE
  5
17B10
330
747D
100
AcDbEntity
  8
細線
100
AcDbLine
 10
3956.673057123657
 20
2171.270620748139
 30
0.0
 11
1532.673057123651
 21
2171.270620748139
 31
0.0
  0
LINE
  5
17B13
330
747D
100
AcDbEntity
  8
部品1
100
AcDbLine
 10
4114.673057123656
 20
4136.270620748138
 30
0.0
 11
4114.673057123656
 21
2161.270620748139
 31
0.0
  0
LINE
  5
17B14
330
747D
100
AcDbEntity
  8
部品1
100
AcDbLine
 10
4162.673057123657
 20
4136.270620748138
 30
0.0
 11
4162.673057123657
 21
2161.270620748139
 31
0.0
  0
LINE
  5
17B15
330
747D
100
AcDbEntity
  8
部品1
100
AcDbLine
 10
4004.673057123656
 20
4136.270620748138
 30
0.0
 11
4004.673057123655
 21
2161.270620748139
 31
0.0
  0
LINE
  5
17B16
330
747D
100
AcDbEntity
  8
部品1
100
AcDbLine
 10
3956.673057123659
 20
4136.270620748141
 30
0.0
 11
3956.673057123655
 21
2161.270620748139
 31
0.0
  0
LINE
  5
17B1E
330
747D
100
AcDbEntity
  8
細線
100
AcDbLine
 10
1532.673057123653
 20
3796.270620748139
 30
0.0
 11
3956.673057123655
 21
3796.270620748139
 31
0.0
  0
LINE
  5
17B1F
330
747D
100
AcDbEntity
  8
細線
100
AcDbLine
 10
1532.673057123653
 20
3861.270620748139
 30
0.0
 11
3956.673057123655
 21
3861.270620748139
 31
0.0
  0
LINE
  5
17B20
330
747D
100
AcDbEntity
  8
細線
100
AcDbLine
 10
1532.673057123653
 20
3926.270620748139
 30
0.0
 11
3956.673057123655
 21
3926.270620748139
 31
0.0
  0
LINE
  5
17B21
330
747D
100
AcDbEntity
  8
細線
100
AcDbLine
 10
1532.673057123653
 20
3406.270620748139
 30
0.0
 11
3956.673057123655
 21
3406.270620748139
 31
0.0
  0
LINE
  5
17B22
330
747D
100
AcDbEntity
  8
細線
100
AcDbLine
 10
1532.673057123653
 20
3471.27062074814
 30
0.0
 11
3956.673057123655
 21
3471.27062074814
 31
0.0
  0
LINE
  5
17B23
330
747D
100
AcDbEntity
  8
細線
100
AcDbLine
 10
1532.673057123653
 20
3536.27062074814
 30
0.0
 11
3956.673057123655
 21
3536.27062074814
 31
0.0
  0
LINE
  5
17B24
330
747D
100
AcDbEntity
  8
細線
100
AcDbLine
 10
1532.673057123653
 20
3601.270620748139
 30
0.0
 11
3956.673057123655
 21
3601.270620748139
 31
0.0
  0
LINE
  5
17B25
330
747D
100
AcDbEntity
  8
細線
100
AcDbLine
 10
1532.673057123653
 20
3666.270620748139
 30
0.0
 11
3956.673057123655
 21
3666.270620748139
 31
0.0
  0
LINE
  5
17B26
330
747D
100
AcDbEntity
  8
細線
100
AcDbLine
 10
1532.673057123653
 20
3731.270620748139
 30
0.0
 11
3956.673057123655
 21
3731.270620748139
 31
0.0
  0
LINE
  5
17B27
330
747D
100
AcDbEntity
  8
細線
100
AcDbLine
 10
1532.673057123653
 20
2756.27062074814
 30
0.0
 11
3956.673057123655
 21
2756.27062074814
 31
0.0
  0
LINE
  5
17B28
330
747D
100
AcDbEntity
  8
細線
100
AcDbLine
 10
1532.673057123653
 20
2821.270620748139
 30
0.0
 11
3956.673057123655
 21
2821.270620748139
 31
0.0
  0
LINE
  5
17B29
330
747D
100
AcDbEntity
  8
細線
100
AcDbLine
 10
1532.673057123653
 20
2886.270620748139
 30
0.0
 11
3956.673057123655
 21
2886.270620748139
 31
0.0
  0
LINE
  5
17B2A
330
747D
100
AcDbEntity
  8
細線
100
AcDbLine
 10
1532.673057123653
 20
2951.27062074814
 30
0.0
 11
3956.673057123655
 21
2951.27062074814
 31
0.0
  0
LINE
  5
17B2B
330
747D
100
AcDbEntity
  8
細線
100
AcDbLine
 10
1532.673057123653
 20
3016.27062074814
 30
0.0
 11
3956.673057123655
 21
3016.27062074814
 31
0.0
  0
LINE
  5
17B2C
330
747D
100
AcDbEntity
  8
細線
100
AcDbLine
 10
1532.673057123653
 20
3081.270620748139
 30
0.0
 11
3956.673057123655
 21
3081.270620748139
 31
0.0
  0
LINE
  5
17B2D
330
747D
100
AcDbEntity
  8
細線
100
AcDbLine
 10
1532.673057123653
 20
3146.270620748139
 30
0.0
 11
3956.673057123655
 21
3146.270620748139
 31
0.0
  0
LINE
  5
17B2E
330
747D
100
AcDbEntity
  8
細線
100
AcDbLine
 10
1532.673057123653
 20
3211.27062074814
 30
0.0
 11
3956.673057123655
 21
3211.27062074814
 31
0.0
  0
LINE
  5
17B2F
330
747D
100
AcDbEntity
  8
細線
100
AcDbLine
 10
1532.673057123653
 20
3276.270620748139
 30
0.0
 11
3956.673057123655
 21
3276.270620748139
 31
0.0
  0
LINE
  5
17B30
330
747D
100
AcDbEntity
  8
細線
100
AcDbLine
 10
1532.673057123653
 20
3341.270620748139
 30
0.0
 11
3956.673057123655
 21
3341.270620748139
 31
0.0
  0
LINE
  5
17B31
330
747D
100
AcDbEntity
  8
細線
100
AcDbLine
 10
1532.673057123653
 20
4056.270620748139
 30
0.0
 11
3956.673057123655
 21
4056.270620748139
 31
0.0
  0
LINE
  5
17B32
330
747D
100
AcDbEntity
  8
細線
100
AcDbLine
 10
1532.673057123653
 20
3991.270620748139
 30
0.0
 11
3956.673057123655
 21
3991.270620748139
 31
0.0
  0
LINE
  5
17B33
330
747D
100
AcDbEntity
  8
細線
100
AcDbLine
 10
1532.673057123653
 20
2236.270620748139
 30
0.0
 11
3956.673057123655
 21
2236.270620748139
 31
0.0
  0
LINE
  5
17B34
330
747D
100
AcDbEntity
  8
細線
100
AcDbLine
 10
1532.673057123653
 20
2301.270620748139
 30
0.0
 11
3956.673057123655
 21
2301.270620748139
 31
0.0
  0
LINE
  5
17B35
330
747D
100
AcDbEntity
  8
細線
100
AcDbLine
 10
1532.673057123653
 20
2366.270620748139
 30
0.0
 11
3956.673057123655
 21
2366.270620748139
 31
0.0
  0
LINE
  5
17B36
330
747D
100
AcDbEntity
  8
細線
100
AcDbLine
 10
1532.673057123653
 20
2431.27062074814
 30
0.0
 11
3956.673057123655
 21
2431.27062074814
 31
0.0
  0
LINE
  5
17B37
330
747D
100
AcDbEntity
  8
細線
100
AcDbLine
 10
1532.673057123653
 20
2496.270620748139
 30
0.0
 11
3956.673057123655
 21
2496.270620748139
 31
0.0
  0
LINE
  5
17B38
330
747D
100
AcDbEntity
  8
細線
100
AcDbLine
 10
1532.673057123653
 20
2561.270620748139
 30
0.0
 11
3956.673057123655
 21
2561.270620748139
 31
0.0
  0
LINE
  5
17B39
330
747D
100
AcDbEntity
  8
細線
100
AcDbLine
 10
1532.673057123653
 20
2626.270620748139
 30
0.0
 11
3956.673057123655
 21
2626.270620748139
 31
0.0
  0
LINE
  5
17B3A
330
747D
100
AcDbEntity
  8
細線
100
AcDbLine
 10
1532.673057123653
 20
2691.270620748139
 30
0.0
 11
3956.673057123655
 21
2691.270620748139
 31
0.0
  0
LINE
  5
17B3D
330
747D
100
AcDbEntity
  8
細線
100
AcDbLine
 10
1532.673057123653
 20
4121.270620748139
 30
0.0
 11
3956.673057123655
 21
4121.270620748139
 31
0.0
  0
LINE
  5
17B5A
330
747D
100
AcDbEntity
  8
部品1
100
AcDbLine
 10
1429.673057123657
 20
4136.270620748138
 30
0.0
 11
4114.673057123656
 21
4136.270620748138
 31
0.0
  0
LINE
  5
17B5E
330
747D
100
AcDbEntity
  8
破線
 48
5.0
100
AcDbLine
 10
4114.673057123656
 20
2161.270620748139
 30
0.0
 11
4114.673057123656
 21
1886.270620748139
 31
0.0
  0
LINE
  5
17B5F
330
747D
100
AcDbEntity
  8
破線
 48
5.0
100
AcDbLine
 10
4162.673057123654
 20
1911.270620748145
 30
0.0
 11
4114.673057123655
 21
1911.270620748145
 31
0.0
  0
LINE
  5
17B60
330
747D
100
AcDbEntity
  8
破線
 48
5.0
100
AcDbLine
 10
4162.673057123657
 20
2161.270620748139
 30
0.0
 11
4162.673057123654
 21
1911.270620748145
 31
0.0
  0
LINE
  5
17B61
330
747D
100
AcDbEntity
  8
破線
 48
5.0
100
AcDbLine
 10
4114.673057123655
 20
1886.270620748139
 30
0.0
 11
4004.673057123656
 21
1886.270620748139
 31
0.0
  0
LINE
  5
17B62
330
747D
100
AcDbEntity
  8
破線
 48
5.0
100
AcDbLine
 10
4004.673057123655
 20
2161.270620748139
 30
0.0
 11
4004.673057123656
 21
1886.270620748139
 31
0.0
  0
LINE
  5
17B63
330
747D
100
AcDbEntity
  8
破線
 48
5.0
100
AcDbLine
 10
4004.673057123659
 20
1911.270620748139
 30
0.0
 11
3956.673057123657
 21
1911.270620748139
 31
0.0
  0
LINE
  5
17B64
330
747D
100
AcDbEntity
  8
破線
 48
5.0
100
AcDbLine
 10
3956.673057123655
 20
2161.270620748139
 30
0.0
 11
3956.673057123657
 21
1911.270620748139
 31
0.0
  0
DIMENSION
  5
17B86
330
747D
100
AcDbEntity
  8
寸法
 48
50.0
100
AcDbDimension
  2
*D23
 10
4059.673057123664
 20
10237.62711772726
 30
0.0
 11
2744.673057123646
 21
10337.63892875088
 31
0.0
 70
    32
 71
     5
 42
2630.000000000036
  3
INABA_S40G
100
AcDbAlignedDimension
 13
1429.673057123628
 23
9772.497424545838
 33
0.0
 14
4059.673057123664
 24
10147.29355852891
 34
0.0
100
AcDbRotatedDimension
1001
ACAD
1000
DSTYLE
1002
{
1070
   279
1070
     2
1002
}
  0
DIMENSION
  5
17B87
330
747D
100
AcDbEntity
  8
寸法
100
AcDbDimension
  2
*D21
 10
4004.673057123664
 20
9988.305644170967
 30
0.0
 11
2744.673057123664
 21
10088.31745519459
 31
0.0
 70
    32
  1
6X420=<>
 71
     5
 42
2520.000000000001
  3
INABA_S40G
100
AcDbAlignedDimension
 13
1484.673057123663
 23
9772.49742454587
 33
0.0
 14
4004.673057123664
 24
9772.497424545964
 34
0.0
100
AcDbRotatedDimension
1001
ACAD
1000
DSTYLE
1002
{
1002
}
  0
DIMENSION
  5
17B88
330
747D
100
AcDbEntity
  8
寸法
 48
50.0
100
AcDbDimension
  2
*D22
 10
4004.673057123664
 20
9988.305644170967
 30
0.0
 11
4059.673057123663
 21
10088.30564417096
 31
0.0
 70
    32
 71
     5
 42
109.9999999999991
  3
INABA_S40G
100
AcDbAlignedDimension
 13
4114.673057123662
 23
9772.497424545917
 33
0.0
 14
4004.673057123664
 24
9772.497424545916
 34
0.0
100
AcDbRotatedDimension
1001
ACAD
1000
DSTYLE
1002
{
1070
   279
1070
     2
1002
}
  0
LINE
  5
17B89
330
747D
100
AcDbEntity
  8
部品1
100
AcDbLine
 10
4087.673057123629
 20
9717.497424545884
 30
0.0
 11
4031.673057123631
 21
9717.497424545884
 31
0.0
  0
LINE
  5
17B8B
330
747D
100
AcDbEntity
  8
部品1
 48
50.0
100
AcDbLine
 10
3979.673057123634
 20
9692.497424545791
 30
0.0
 11
1509.673057123634
 21
9692.497424545789
 31
0.0
  0
LINE
  5
17B9A
330
747D
100
AcDbEntity
  8
部品1
 48
50.0
100
AcDbLine
 10
4031.673057123631
 20
9717.497424545886
 30
0.0
 11
4031.673057123631
 21
9744.497424545912
 31
0.0
  0
LINE
  5
17B9B
330
747D
100
AcDbEntity
  8
部品1
 48
50.0
100
AcDbLine
 10
4087.673057123631
 20
9717.497424545886
 30
0.0
 11
4087.673057123697
 21
9772.497424545917
 31
0.0
  0
LINE
  5
17B9C
330
747D
100
AcDbEntity
  8
部品1
 48
50.0
100
AcDbLine
 10
4083.673057123648
 20
7197.497424545861
 30
0.0
 11
4083.673057123649
 21
7142.497424545862
 31
0.0
  0
LINE
  5
17B9D
330
747D
100
AcDbEntity
  8
部品1
 48
50.0
100
AcDbLine
 10
4035.673057123648
 20
7197.497424545861
 30
0.0
 11
4035.67305712365
 21
7142.497424545862
 31
0.0
  0
LINE
  5
17B9E
330
747D
100
AcDbEntity
  8
部品1
100
AcDbLine
 10
4083.673057123648
 20
7197.497424545861
 30
0.0
 11
4035.673057123647
 21
7197.49742454586
 31
0.0
  0
LINE
  5
17B9F
330
747D
100
AcDbEntity
  8
部品1
 48
50.0
100
AcDbLine
 10
4031.673057123631
 20
9744.497424545912
 30
0.0
 11
4059.673057123629
 21
9744.497424545912
 31
0.0
  0
LINE
  5
17BA0
330
747D
100
AcDbEntity
  8
部品1
 48
50.0
100
AcDbLine
 10
4031.673057123631
 20
9744.497424546016
 30
0.0
 11
4031.67305712363
 21
9772.497424545965
 31
0.0
  0
LINE
  5
17BA1
330
747D
100
AcDbEntity
  8
部品1
 48
50.0
100
AcDbLine
 10
4059.673057123629
 20
9744.497424545912
 30
0.0
 11
4031.673057123631
 21
9772.497424545965
 31
0.0
  0
LINE
  5
17BA2
330
747D
100
AcDbEntity
  8
部品1
100
AcDbLine
 10
4004.673057123664
 20
9772.497424545964
 30
0.0
 11
4004.673057123664
 21
9744.497424545963
 31
0.0
  0
LINE
  5
17BB2
330
747D
100
AcDbEntity
  8
部品1
100
AcDbLine
 10
4114.673057123662
 20
9772.49742454587
 30
0.0
 11
4114.673057123662
 21
9744.497424545869
 31
0.0
  0
LINE
  5
17BB3
330
747D
100
AcDbEntity
  8
部品1
 48
50.0
100
AcDbLine
 10
4004.673057123645
 20
7207.497424545952
 30
0.0
 11
4004.673057123642
 21
7142.497424545952
 31
0.0
  0
LINE
  5
17BB4
330
747D
100
AcDbEntity
  8
部品1
100
AcDbLine
 10
4114.673057123652
 20
7142.497424545864
 30
0.0
 11
4004.673057123642
 21
7142.497424545858
 31
0.0
  0
LINE
  5
17BB5
330
747D
100
AcDbEntity
  8
部品1
 48
50.0
100
AcDbLine
 10
4162.673057123657
 20
7168.497424545865
 30
0.0
 11
4162.673057123657
 21
7177.497424545865
 31
0.0
  0
LINE
  5
17BB6
330
747D
100
AcDbEntity
  8
部品1
 48
50.0
100
AcDbLine
 10
4114.673057123656
 20
7207.497424545863
 30
0.0
 11
4114.673057123653
 21
7142.497424545864
 31
0.0
  0
LINE
  5
17BB7
330
747D
100
AcDbEntity
  8
部品1
100
AcDbLine
 10
4114.673057123655
 20
7178.497424545864
 30
0.0
 11
4091.673057123657
 21
7178.497424545864
 31
0.0
  0
LINE
  5
17BB8
330
747D
100
AcDbEntity
  8
部品1
 48
50.0
100
AcDbLine
 10
4124.673057123657
 20
7168.497424545865
 30
0.0
 11
4114.673057123656
 21
7147.497424545864
 31
0.0
  0
LINE
  5
17BB9
330
747D
100
AcDbEntity
  8
部品1
100
AcDbLine
 10
4162.673057123657
 20
7168.497424545865
 30
0.0
 11
4114.673057123656
 21
7168.497424545865
 31
0.0
  0
LINE
  5
17BBA
330
747D
100
AcDbEntity
  8
部品1
 48
50.0
100
AcDbLine
 10
4162.673057123657
 20
7207.497424545865
 30
0.0
 11
4162.673057123657
 21
7198.497424545866
 31
0.0
  0
LINE
  5
17BBB
330
747D
100
AcDbEntity
  8
部品1
100
AcDbLine
 10
4162.673057123657
 20
7207.497424545865
 30
0.0
 11
4114.673057123656
 21
7207.497424545865
 31
0.0
  0
LINE
  5
17BBC
330
747D
100
AcDbEntity
  8
部品1
100
AcDbLine
 10
4004.673057123638
 20
7178.497424545863
 30
0.0
 11
4027.673057123638
 21
7178.497424545864
 31
0.0
  0
LINE
  5
17BBD
330
747D
100
AcDbEntity
  8
部品1
 48
50.0
100
AcDbLine
 10
3994.673057123639
 20
7168.497424545865
 30
0.0
 11
4004.673057123638
 21
7147.497424545864
 31
0.0
  0
LINE
  5
17BBE
330
747D
100
AcDbEntity
  8
部品1
 48
50.0
100
AcDbLine
 10
3956.673057123639
 20
7168.497424545865
 30
0.0
 11
3956.673057123639
 21
7177.497424545865
 31
0.0
  0
LINE
  5
17BBF
330
747D
100
AcDbEntity
  8
部品1
100
AcDbLine
 10
3956.673057123639
 20
7168.497424545865
 30
0.0
 11
4004.673057123638
 21
7168.497424545865
 31
0.0
  0
LINE
  5
17BC0
330
747D
100
AcDbEntity
  8
部品1
 48
50.0
100
AcDbLine
 10
3956.673057123639
 20
7207.497424545865
 30
0.0
 11
3956.673057123639
 21
7198.497424545866
 31
0.0
  0
LINE
  5
17BC1
330
747D
100
AcDbEntity
  8
部品1
100
AcDbLine
 10
3956.673057123639
 20
7207.497424545865
 30
0.0
 11
4004.67305712364
 21
7207.497424545865
 31
0.0
  0
LINE
  5
17BC2
330
747D
100
AcDbEntity
  8
部品1
 48
50.0
100
AcDbLine
 10
1496.673057123656
 20
7187.997424545864
 30
0.0
 11
3992.673057123641
 21
7187.997424545864
 31
0.0
  0
DIMENSION
  5
17BC3
330
747D
100
AcDbEntity
  8
寸法
 48
50.0
100
AcDbDimension
  2
*D20
 10
1532.673057123657
 20
6608.0666537797
 30
0.0
 11
2744.673057123648
 21
6708.078464803323
 31
0.0
 70
    32
  1
有効開口部間口 <>
 71
     5
 42
2423.999999999982
  3
INABA_S40G
100
AcDbAlignedDimension
 13
3956.673057123639
 23
7168.497424545865
 33
0.0
 14
1532.673057123657
 24
7168.497424545865
 34
0.0
100
AcDbRotatedDimension
1001
ACAD
1000
DSTYLE
1002
{
1070
    75
1070
     1
1070
   279
1070
     2
1002
}
  0
DIMENSION
  5
17BC4
330
747D
100
AcDbEntity
  8
寸法
 48
50.0
100
AcDbDimension
  2
*D19
 10
3956.673057123639
 20
6608.0666537797
 30
0.0
 11
3845.710159474892
 21
6708.0666537797
 31
0.0
 70
   160
 71
     5
 42
48.00000000000181
  3
INABA_S40G
100
AcDbAlignedDimension
 13
4004.67305712364
 23
7142.497424545952
 33
0.0
 14
3956.673057123639
 24
7168.497424545865
 34
0.0
100
AcDbRotatedDimension
1001
ACAD
1000
DSTYLE
1002
{
1070
   279
1070
     2
1002
}
  0
DIMENSION
  5
17C46
330
747D
100
AcDbEntity
  8
寸法
 48
50.0
100
AcDbDimension
  2
*D25
 10
4004.67305712364
 20
6608.066653779701
 30
0.0
 11
4059.673057123647
 21
6456.37475874347
 31
0.0
 70
   160
 71
     5
 42
110.0000000000127
  3
INABA_S40G
100
AcDbAlignedDimension
 13
4114.673057123653
 23
7142.497424545864
 33
0.0
 14
4004.67305712364
 24
7142.497424545952
 34
0.0
100
AcDbRotatedDimension
1001
ACAD
1000
DSTYLE
1002
{
1070
   279
1070
     2
1002
}
  0
DIMENSION
  5
17C47
330
747D
100
AcDbEntity
  8
寸法
 48
50.0
100
AcDbDimension
  2
*D24
 10
4114.673057123653
 20
6608.0666537797
 30
0.0
 11
4275.575028123713
 21
6708.0666537797
 31
0.0
 70
   160
 71
     5
 42
48.00000000000363
  3
INABA_S40G
100
AcDbAlignedDimension
 13
4162.673057123657
 23
7168.497424545865
 33
0.0
 14
4114.673057123653
 24
7142.497424545864
 34
0.0
100
AcDbRotatedDimension
1001
ACAD
1000
DSTYLE
1002
{
1070
   279
1070
     2
1002
}
  0
LINE
  5
17D0F
330
747D
100
AcDbEntity
  8
部品1
100
AcDbLine
 10
9291.673057123656
 20
9297.497424545957
 30
0.0
 11
9319.673057123656
 21
9297.497424545957
 31
0.0
  0
LINE
  5
17D10
330
747D
100
AcDbEntity
  8
部品1
100
AcDbLine
 10
9291.673057123658
 20
8877.497424545957
 30
0.0
 11
9319.673057123658
 21
8877.497424545957
 31
0.0
  0
LINE
  5
17D11
330
747D
100
AcDbEntity
  8
部品1
100
AcDbLine
 10
1457.673057123628
 20
9297.497424545831
 30
0.0
 11
1429.673057123628
 21
9297.497424545831
 31
0.0
  0
LINE
  5
17D12
330
747D
100
AcDbEntity
  8
部品1
100
AcDbLine
 10
1457.673057123634
 20
8877.497424545831
 30
0.0
 11
1429.673057123634
 21
8877.497424545831
 31
0.0
  0
LINE
  5
18097
330
747D
100
AcDbEntity
  8
寸法
 48
50.0
100
AcDbLine
 10
6534.673057123663
 20
9988.305644170967
 30
0.0
 11
5617.901097968024
 21
9988.305644170967
 31
0.0
  0
LINE
  5
18098
330
747D
100
AcDbEntity
  8
寸法
 48
50.0
100
AcDbLine
 10
5131.445016279303
 20
9988.305644170967
 30
0.0
 11
4214.673057123663
 21
9988.305644170967
 31
0.0
  0
TEXT
  5
180AB
330
747D
100
AcDbEntity
  8
文字
 48
50.0
100
AcDbText
 10
5744.946326482197
 20
10018.9904096999
 30
0.0
 40
120.0
  1
2520
  7
STYLE1
100
AcDbText
  0
TEXT
  5
180AD
330
747D
100
AcDbEntity
  8
文字
 48
50.0
100
AcDbText
 10
5600.652295359538
 20
6643.535778383449
 30
0.0
 40
120.0
  1
2424
  7
STYLE1
100
AcDbText
  0
TEXT
  5
180D7
330
747D
100
AcDbEntity
  8
文字
 48
50.0
100
AcDbText
 10
4713.401826075933
 20
10018.9904096999
 30
0.0
 40
120.0
  1
2520
  7
STYLE1
100
AcDbText
  0
LINE
  5
180D8
330
747D
100
AcDbEntity
  8
寸法
 48
50.0
100
AcDbLine
 10
6486.673057123638
 20
6608.0666537797
 30
0.0
 11
5569.901097967999
 21
6608.0666537797
 31
0.0
  0
LINE
  5
180D9
330
747D
100
AcDbEntity
  8
寸法
 48
50.0
100
AcDbLine
 10
5083.445016279277
 20
6608.0666537797
 30
0.0
 11
4166.673057123637
 21
6608.0666537797
 31
0.0
  0
TEXT
  5
180DA
330
747D
100
AcDbEntity
  8
文字
 48
50.0
100
AcDbText
 10
4729.811617545235
 20
6643.535778383449
 30
0.0
 40
120.0
  1
2424
  7
STYLE1
100
AcDbText
  0
LINE
  5
180FF
330
747D
100
AcDbEntity
  8
部品1
100
AcDbLine
 10
1429.673057123657
 20
2161.270620748139
 30
0.0
 11
9319.673057123656
 21
2161.270620748139
 31
0.0
  0
LINE
  5
18100
330
747D
100
AcDbEntity
  8
Ｇ．Ｌ
100
AcDbLine
 10
341.406454453172
 20
2061.27062074814
 30
0.0
 11
15146.30542539651
 21
2061.270620748139
 31
0.0
  0
LINE
  5
18102
330
747D
100
AcDbEntity
  8
部品1
 48
50.0
100
AcDbLine
 10
6609.673057123633
 20
9692.497424545814
 30
0.0
 11
4139.673057123633
 21
9692.497424545789
 31
0.0
  0
LINE
  5
18103
330
747D
100
AcDbEntity
  8
部品1
100
AcDbLine
 10
6634.673057123643
 20
9717.497424545889
 30
0.0
 11
4114.673057123642
 21
9717.497424545886
 31
0.0
  0
LINE
  5
18106
330
747D
100
AcDbEntity
  8
寸法
 48
50.0
100
AcDbLine
 10
6689.563357233135
 20
10164.76985551187
 30
0.0
 11
6689.563357233135
 21
10303.92098311982
 31
0.0
  0
LINE
  5
18107
330
747D
100
AcDbEntity
  8
寸法
 48
50.0
100
AcDbLine
 10
6689.673057123664
 20
10237.62711772726
 30
0.0
 11
5622.238647055863
 21
10237.62711772726
 31
0.0
  0
LINE
  5
18108
330
747D
100
AcDbEntity
  8
寸法
 48
50.0
100
AcDbLine
 10
4059.673057123664
 20
10237.62711772726
 30
0.0
 11
5137.161027911185
 21
10237.62711772726
 31
0.0
  0
TEXT
  5
18109
330
747D
100
AcDbEntity
  8
文字
 48
50.0
100
AcDbText
 10
5744.946326482197
 20
10281.48433045451
 30
0.0
 40
120.0
  1
2630
  7
STYLE1
100
AcDbText
  0
TEXT
  5
1810A
330
747D
100
AcDbEntity
  8
文字
 48
50.0
100
AcDbText
 10
4713.401826075933
 20
10281.48433045451
 30
0.0
 40
120.0
  1
2630
  7
STYLE1
100
AcDbText
  0
LINE
  5
18157
330
747D
100
AcDbEntity
  8
部品1
100
AcDbLine
 10
4031.673057123651
 20
9297.497424545914
 30
0.0
 11
4059.673057123651
 21
9297.497424545914
 31
0.0
  0
LINE
  5
18158
330
747D
100
AcDbEntity
  8
部品1
100
AcDbLine
 10
4031.673057123651
 20
8877.497424545914
 30
0.0
 11
4059.673057123651
 21
8877.497424545914
 31
0.0
  0
LINE
  5
18159
330
747D
100
AcDbEntity
  8
部品1
100
AcDbLine
 10
4031.673057123651
 20
8457.497424545914
 30
0.0
 11
4059.673057123651
 21
8457.497424545914
 31
0.0
  0
LINE
  5
1815A
330
747D
100
AcDbEntity
  8
部品1
100
AcDbLine
 10
4004.673057123649
 20
7207.497424545812
 30
0.0
 11
4004.673057123642
 21
9717.497424545815
 31
0.0
  0
LINE
  5
1815B
330
747D
100
AcDbEntity
  8
部品1
 48
10.0
100
AcDbLine
 10
3979.673057123659
 20
7207.497424545812
 30
0.0
 11
3979.673057123633
 21
9717.497424545815
 31
0.0
  0
LINE
  5
1815C
330
747D
100
AcDbEntity
  8
部品1
100
AcDbLine
 10
4031.673057123631
 20
9744.497424545912
 30
0.0
 11
4031.673057123614
 21
7142.497424545807
 31
0.0
  0
LINE
  5
1815D
330
747D
100
AcDbEntity
  8
部品1
100
AcDbLine
 10
4114.67305712367
 20
7207.497424545812
 30
0.0
 11
4114.673057123642
 21
9717.497424545809
 31
0.0
  0
LINE
  5
1815E
330
747D
100
AcDbEntity
  8
部品1
 48
10.0
100
AcDbLine
 10
4139.673057123664
 20
7207.497424545812
 30
0.0
 11
4139.673057123617
 21
9717.497424545832
 31
0.0
  0
LINE
  5
1815F
330
747D
100
AcDbEntity
  8
部品1
100
AcDbLine
 10
4087.673057123609
 20
7142.497424545813
 30
0.0
 11
4087.673057123633
 21
9772.497424545861
 31
0.0
  0
LINE
  5
18160
330
747D
100
AcDbEntity
  8
部品1
100
AcDbLine
 10
4059.673057123649
 20
9717.497424545832
 30
0.0
 11
4059.673057123622
 21
7197.497424545807
 31
0.0
  0
LINE
  5
18161
330
747D
100
AcDbEntity
  8
部品1
100
AcDbLine
 10
6689.673057123648
 20
9717.497424545832
 30
0.0
 11
6689.673057123622
 21
7197.497424545807
 31
0.0
  0
LINE
  5
18162
330
747D
100
AcDbEntity
  8
部品1
100
AcDbLine
 10
6717.673057123609
 20
7142.497424545813
 30
0.0
 11
6717.673057123633
 21
9772.497424545861
 31
0.0
  0
LINE
  5
18163
330
747D
100
AcDbEntity
  8
部品1
 48
10.0
100
AcDbLine
 10
6769.673057123664
 20
7207.497424545812
 30
0.0
 11
6769.673057123617
 21
9717.497424545832
 31
0.0
  0
LINE
  5
18164
330
747D
100
AcDbEntity
  8
部品1
100
AcDbLine
 10
6744.673057123669
 20
7207.497424545812
 30
0.0
 11
6744.673057123643
 21
9717.497424545809
 31
0.0
  0
LINE
  5
18165
330
747D
100
AcDbEntity
  8
部品1
100
AcDbLine
 10
6661.673057123632
 20
9744.497424545912
 30
0.0
 11
6661.673057123614
 21
7142.497424545807
 31
0.0
  0
LINE
  5
18166
330
747D
100
AcDbEntity
  8
部品1
 48
10.0
100
AcDbLine
 10
6609.673057123659
 20
7207.497424545812
 30
0.0
 11
6609.673057123633
 21
9717.497424545815
 31
0.0
  0
LINE
  5
18167
330
747D
100
AcDbEntity
  8
部品1
100
AcDbLine
 10
6634.673057123649
 20
7207.497424545812
 30
0.0
 11
6634.673057123642
 21
9717.497424545815
 31
0.0
  0
LINE
  5
18168
330
747D
100
AcDbEntity
  8
部品1
100
AcDbLine
 10
6661.673057123651
 20
8457.497424545914
 30
0.0
 11
6689.673057123652
 21
8457.497424545914
 31
0.0
  0
LINE
  5
18169
330
747D
100
AcDbEntity
  8
部品1
100
AcDbLine
 10
6661.673057123651
 20
8877.497424545914
 30
0.0
 11
6689.673057123652
 21
8877.497424545914
 31
0.0
  0
LINE
  5
1816A
330
747D
100
AcDbEntity
  8
部品1
100
AcDbLine
 10
6661.673057123651
 20
9297.497424545914
 30
0.0
 11
6689.673057123652
 21
9297.497424545914
 31
0.0
  0
LINE
  5
1816B
330
747D
100
AcDbEntity
  8
部品1
 48
50.0
100
AcDbLine
 10
6717.673057123684
 20
9744.497424545723
 30
0.0
 11
6744.673057123673
 21
9717.497424545737
 31
0.0
  0
LINE
  5
1816C
330
747D
100
AcDbEntity
  8
部品1
 48
50.0
100
AcDbLine
 10
6661.673057123699
 20
9744.497424545818
 30
0.0
 11
6634.673057123695
 21
9717.497424545813
 31
0.0
  0
LINE
  5
1816D
330
747D
100
AcDbEntity
  8
部品1
 48
50.0
100
AcDbLine
 10
4087.673057123684
 20
9744.497424545723
 30
0.0
 11
4114.673057123673
 21
9717.497424545737
 31
0.0
  0
LINE
  5
1816E
330
747D
100
AcDbEntity
  8
部品1
 48
50.0
100
AcDbLine
 10
4031.673057123699
 20
9744.497424545818
 30
0.0
 11
4004.673057123695
 21
9717.497424545813
 31
0.0
  0
LINE
  5
1816F
330
747D
100
AcDbEntity
  8
部品1
100
AcDbLine
 10
4004.673057123642
 20
9717.497424545884
 30
0.0
 11
1484.673057123634
 21
9717.497424545888
 31
0.0
  0
LINE
  5
18170
330
747D
100
AcDbEntity
  8
部品1
100
AcDbLine
 10
6717.673057123632
 20
9717.497424545886
 30
0.0
 11
6661.67305712363
 21
9717.497424545884
 31
0.0
  0
LINE
  5
18171
330
747D
100
AcDbEntity
  8
部品1
100
AcDbLine
 10
6661.673057123657
 20
8037.497424545914
 30
0.0
 11
6689.673057123657
 21
8037.497424545914
 31
0.0
  0
LINE
  5
18172
330
747D
100
AcDbEntity
  8
部品1
100
AcDbLine
 10
6661.673057123657
 20
7617.497424545914
 30
0.0
 11
6689.673057123657
 21
7617.497424545914
 31
0.0
  0
LINE
  5
18173
330
747D
100
AcDbEntity
  8
部品1
100
AcDbLine
 10
4031.673057123657
 20
7617.497424545914
 30
0.0
 11
4059.673057123657
 21
7617.497424545914
 31
0.0
  0
LINE
  5
18174
330
747D
100
AcDbEntity
  8
部品1
100
AcDbLine
 10
4031.673057123657
 20
8037.497424545914
 30
0.0
 11
4059.673057123657
 21
8037.497424545914
 31
0.0
  0
TEXT
  5
182A9
330
747D
100
AcDbEntity
  8
文字
 62
     7
 48
50.0
100
AcDbText
 10
15022.63965474516
 20
9910.013745883727
 30
0.0
 40
100.0
  1
F12,Y10        1.0
  7
STYLE1
100
AcDbText
  0
TEXT
  5
182AA
330
747D
100
AcDbEntity
  8
文字
 62
     7
 48
50.0
100
AcDbText
 10
13583.11819016569
 20
9910.01374588373
 30
0.0
 40
100.0
  1
梁中
  7
STYLE1
100
AcDbText
  0
TEXT
  5
182AB
330
747D
100
AcDbEntity
  8
文字
 62
     7
 48
50.0
100
AcDbText
 10
13248.77747366448
 20
8720.013745883731
 30
0.0
 40
100.0
  1
14
  7
STYLE1
100
AcDbText
  0
LINE
  5
182AC
330
747D
100
AcDbEntity
  8
仕様書枠
 48
50.0
100
AcDbLine
 10
16307.19999999999
 20
9879.599999999999
 30
0.0
 11
13127.2
 21
9879.600000000001
 31
0.0
  0
LINE
  5
182AD
330
747D
100
AcDbEntity
  8
仕様書枠
 48
50.0
100
AcDbLine
 10
16307.19999999999
 20
11239.6
 30
0.0
 11
13127.2
 21
11239.6
 31
0.0
  0
LINE
  5
182AE
330
747D
100
AcDbEntity
  8
仕様書枠
 48
50.0
100
AcDbLine
 10
16307.2
 20
8179.6
 30
0.0
 11
16307.2
 21
11239.6
 31
0.0
  0
LINE
  5
182AF
330
747D
100
AcDbEntity
  8
仕様書枠
 48
50.0
100
AcDbLine
 10
14785.2
 20
11239.59999999999
 30
0.0
 11
14785.2
 21
8689.600000000003
 31
0.0
  0
LINE
  5
182B0
330
747D
100
AcDbEntity
  8
仕様書枠
 48
50.0
100
AcDbLine
 10
13490.2
 20
11239.6
 30
0.0
 11
13490.2
 21
8689.6
 31
0.0
  0
LINE
  5
182B1
330
747D
100
AcDbEntity
  8
仕様書枠
 48
50.0
100
AcDbLine
 10
16307.19999999999
 20
11069.6
 30
0.0
 11
13127.2
 21
11069.6
 31
0.0
  0
LINE
  5
182B2
330
747D
100
AcDbEntity
  8
仕様書枠
 48
50.0
100
AcDbLine
 10
16307.19999999999
 20
10729.6
 30
0.0
 11
13127.2
 21
10729.6
 31
0.0
  0
LINE
  5
182B3
330
747D
100
AcDbEntity
  8
仕様書枠
 48
50.0
100
AcDbLine
 10
16307.19999999999
 20
10899.6
 30
0.0
 11
13127.2
 21
10899.6
 31
0.0
  0
LINE
  5
182B4
330
747D
100
AcDbEntity
  8
仕様書枠
 48
50.0
100
AcDbLine
 10
16307.19999999999
 20
10389.6
 30
0.0
 11
13127.19999999999
 21
10389.6
 31
0.0
  0
LINE
  5
182B5
330
747D
100
AcDbEntity
  8
仕様書枠
 48
50.0
100
AcDbLine
 10
16307.19999999999
 20
10219.6
 30
0.0
 11
13127.19999999999
 21
10219.6
 31
0.0
  0
LINE
  5
182B6
330
747D
100
AcDbEntity
  8
仕様書枠
 48
50.0
100
AcDbLine
 10
16307.19999999999
 20
10559.6
 30
0.0
 11
13127.19999999999
 21
10559.6
 31
0.0
  0
TEXT
  5
182B7
330
747D
100
AcDbEntity
  8
文字
 62
     7
 48
50.0
100
AcDbText
 10
13197.42518560407
 20
11100.01374588373
 30
0.0
 40
100.0
  1
品番
  7
STYLE1
100
AcDbText
  0
TEXT
  5
182B8
330
747D
100
AcDbEntity
  8
文字
 62
     7
 48
50.0
100
AcDbText
 10
13271.19032244792
 20
10930.01374588373
 30
0.0
 40
100.0
  1
1
  7
STYLE1
100
AcDbText
  0
TEXT
  5
182B9
330
747D
100
AcDbEntity
  8
文字
 62
     7
 48
50.0
100
AcDbText
 10
13271.19032244792
 20
10760.01374588373
 30
0.0
 40
100.0
  1
2
  7
STYLE1
100
AcDbText
  0
TEXT
  5
182BA
330
747D
100
AcDbEntity
  8
文字
 62
     7
 48
50.0
100
AcDbText
 10
13271.19032244792
 20
10420.01374588373
 30
0.0
 40
100.0
  1
4
  7
STYLE1
100
AcDbText
  0
TEXT
  5
182BB
330
747D
100
AcDbEntity
  8
文字
 62
     7
 48
50.0
100
AcDbText
 10
13271.19032244792
 20
10590.01374588373
 30
0.0
 40
100.0
  1
3
  7
STYLE1
100
AcDbText
  0
TEXT
  5
182BC
330
747D
100
AcDbEntity
  8
文字
 62
     7
 48
50.0
100
AcDbText
 10
13732.03840939434
 20
11100.01374588373
 30
0.0
 40
100.0
  1
部　　品　　名
  7
STYLE1
100
AcDbText
  0
TEXT
  5
182BD
330
747D
100
AcDbEntity
  8
文字
 62
     7
 48
50.0
100
AcDbText
 10
14859.79774614482
 20
11100.01374588373
 30
0.0
 40
100.0
  1
材料（材質）　　単位mm
  7
STYLE1
100
AcDbText
  0
TEXT
  5
182BE
330
747D
100
AcDbEntity
  8
文字
 62
     7
 48
50.0
100
AcDbText
 10
13583.11819016569
 20
10930.01374588372
 30
0.0
 40
100.0
  1
土台枠
  7
STYLE1
100
AcDbText
  0
TEXT
  5
182BF
330
747D
100
AcDbEntity
  8
文字
 62
     7
 48
50.0
100
AcDbText
 10
13583.11819016569
 20
10760.01374588372
 30
0.0
 40
100.0
  1
柱
  7
STYLE1
100
AcDbText
  0
TEXT
  5
182C0
330
747D
100
AcDbEntity
  8
文字
 62
     7
 48
50.0
100
AcDbText
 10
13583.11819016569
 20
10590.01374588373
 30
0.0
 40
100.0
  1
桁前
  7
STYLE1
100
AcDbText
  0
TEXT
  5
182C1
330
747D
100
AcDbEntity
  8
文字
 62
     7
 48
50.0
100
AcDbText
 10
13583.11819016569
 20
10420.01374588373
 30
0.0
 40
100.0
  1
桁後
  7
STYLE1
100
AcDbText
  0
TEXT
  5
182C2
330
747D
100
AcDbEntity
  8
文字
 62
     7
 48
50.0
100
AcDbText
 10
13271.19032244792
 20
10250.01374588373
 30
0.0
 40
100.0
  1
5
  7
STYLE1
100
AcDbText
  0
TEXT
  5
182C3
330
747D
100
AcDbEntity
  8
文字
 62
     7
 48
50.0
100
AcDbText
 10
13583.11819016569
 20
10250.01374588373
 30
0.0
 40
100.0
  1
妻板左右
  7
STYLE1
100
AcDbText
  0
TEXT
  5
182C4
330
747D
100
AcDbEntity
  8
文字
 62
     7
 48
50.0
100
AcDbText
 10
13583.11819016569
 20
8890.013745883727
 30
0.0
 40
100.0
  1
シャッターレール
  7
STYLE1
100
AcDbText
  0
TEXT
  5
182C5
330
747D
100
AcDbEntity
  8
文字
 62
     7
 48
50.0
100
AcDbText
 10
13248.77747366448
 20
9400.013745883727
 30
0.0
 40
100.0
  1
10
  7
STYLE1
100
AcDbText
  0
TEXT
  5
182C6
330
747D
100
AcDbEntity
  8
文字
 62
     7
 48
50.0
100
AcDbText
 10
13583.11819016569
 20
9400.013745883729
 30
0.0
 40
100.0
  1
壁パネル
  7
STYLE1
100
AcDbText
  0
TEXT
  5
182C7
330
747D
100
AcDbEntity
  8
文字
 62
     7
 48
50.0
100
AcDbText
 10
13583.11819016569
 20
9570.013745883727
 30
0.0
 40
100.0
  1
屋根パネル
  7
STYLE1
100
AcDbText
  0
TEXT
  5
182C8
330
747D
100
AcDbEntity
  8
文字
 62
     7
 48
50.0
100
AcDbText
 10
13583.11819016569
 20
9740.013745883729
 30
0.0
 40
100.0
  1
母屋中
  7
STYLE1
100
AcDbText
  0
TEXT
  5
182C9
330
747D
100
AcDbEntity
  8
文字
 62
     7
 48
50.0
100
AcDbText
 10
13583.11819016569
 20
10080.01374588372
 30
0.0
 40
100.0
  1
鼻隠シ前後
  7
STYLE1
100
AcDbText
  0
TEXT
  5
182CA
330
747D
100
AcDbEntity
  8
文字
 62
     7
 48
50.0
100
AcDbText
 10
13271.19032244792
 20
9740.013745883729
 30
0.0
 40
100.0
  1
8
  7
STYLE1
100
AcDbText
  0
TEXT
  5
182CB
330
747D
100
AcDbEntity
  8
文字
 62
     7
 48
50.0
100
AcDbText
 10
13271.19032244792
 20
9570.013745883729
 30
0.0
 40
100.0
  1
9
  7
STYLE1
100
AcDbText
  0
TEXT
  5
182CC
330
747D
100
AcDbEntity
  8
文字
 62
     7
 48
50.0
100
AcDbText
 10
13271.19032244792
 20
9910.01374588373
 30
0.0
 40
100.0
  1
7
  7
STYLE1
100
AcDbText
  0
TEXT
  5
182CD
330
747D
100
AcDbEntity
  8
文字
 62
     7
 48
50.0
100
AcDbText
 10
13271.19032244792
 20
10080.01374588373
 30
0.0
 40
100.0
  1
6
  7
STYLE1
100
AcDbText
  0
LINE
  5
182CE
330
747D
100
AcDbEntity
  8
仕様書枠
 48
50.0
100
AcDbLine
 10
16307.19999999999
 20
9539.599999999998
 30
0.0
 11
13127.19999999999
 21
9539.6
 31
0.0
  0
LINE
  5
182CF
330
747D
100
AcDbEntity
  8
仕様書枠
 48
50.0
100
AcDbLine
 10
16307.19999999999
 20
9199.599999999998
 30
0.0
 11
13127.19999999999
 21
9199.600000000001
 31
0.0
  0
LINE
  5
182D0
330
747D
100
AcDbEntity
  8
仕様書枠
 48
50.0
100
AcDbLine
 10
16307.19999999999
 20
9369.599999999998
 30
0.0
 11
13127.19999999999
 21
9369.600000000001
 31
0.0
  0
LINE
  5
182D1
330
747D
100
AcDbEntity
  8
仕様書枠
 48
50.0
100
AcDbLine
 10
16307.19999999999
 20
10049.6
 30
0.0
 11
13127.2
 21
10049.6
 31
0.0
  0
LINE
  5
182D2
330
747D
100
AcDbEntity
  8
仕様書枠
 48
50.0
100
AcDbLine
 10
16307.19999999999
 20
9709.6
 30
0.0
 11
13127.2
 21
9709.600000000001
 31
0.0
  0
TEXT
  5
182D3
330
747D
100
AcDbEntity
  8
文字
 62
     7
 48
50.0
100
AcDbText
 10
13248.77747366448
 20
9230.013745883727
 30
0.0
 40
100.0
  1
11
  7
STYLE1
100
AcDbText
  0
TEXT
  5
182D4
330
747D
100
AcDbEntity
  8
文字
 62
     7
 48
50.0
100
AcDbText
 10
13583.11819016569
 20
9060.013745883727
 30
0.0
 40
100.0
  1
シャッターカバー
 41
0.9
  7
STYLE1
100
AcDbText
  0
LINE
  5
182D5
330
747D
100
AcDbEntity
  8
仕様書枠
 48
50.0
100
AcDbLine
 10
16307.19999999999
 20
9029.6
 30
0.0
 11
13127.19999999999
 21
9029.6
 31
0.0
  0
TEXT
  5
182D7
330
747D
100
AcDbEntity
  8
文字
 62
     7
 48
50.0
100
AcDbText
 10
13583.11819016569
 20
8720.013745883729
 30
0.0
 40
100.0
  1
棚板（別売）
  7
STYLE1
100
AcDbText
  0
LINE
  5
182D8
330
747D
100
AcDbEntity
  8
仕様書枠
 48
50.0
100
AcDbLine
 10
16307.19999999999
 20
8859.6
 30
0.0
 11
13127.19999999999
 21
8859.600000000002
 31
0.0
  0
TEXT
  5
182D9
330
747D
100
AcDbEntity
  8
文字
 62
     7
 48
50.0
100
AcDbText
 10
13583.11819016569
 20
9230.013745883731
 30
0.0
 40
100.0
  1
シャッター
  7
STYLE1
100
AcDbText
  0
TEXT
  5
182DA
330
747D
100
AcDbEntity
  8
文字
 62
     7
 48
50.0
100
AcDbText
 10
13248.77747366448
 20
8890.013745883729
 30
0.0
 40
100.0
  1
13
  7
STYLE1
100
AcDbText
  0
TEXT
  5
182DB
330
747D
100
AcDbEntity
  8
文字
 62
     7
 48
50.0
100
AcDbText
 10
13248.77747366448
 20
9060.013745883729
 30
0.0
 40
100.0
  1
12
  7
STYLE1
100
AcDbText
  0
TEXT
  5
182DC
330
747D
100
AcDbEntity
  8
文字
 62
     7
 48
50.0
100
AcDbText
 10
15022.63965474517
 20
10930.01374588372
 30
0.0
 40
100.0
  1
F12            1.2
  7
STYLE1
100
AcDbText
  0
TEXT
  5
182DE
330
747D
100
AcDbEntity
  8
文字
 62
     7
 48
50.0
100
AcDbText
 10
15022.63965474516
 20
10590.01374588372
 30
0.0
 40
100.0
  1
Y10            1.0
  7
STYLE1
100
AcDbText
  0
TEXT
  5
182DF
330
747D
100
AcDbEntity
  8
文字
 62
     7
 48
50.0
100
AcDbText
 10
15022.63965474516
 20
10420.01374588372
 30
0.0
 40
100.0
  1
Y10            1.0
  7
STYLE1
100
AcDbText
  0
TEXT
  5
182E0
330
747D
100
AcDbEntity
  8
文字
 62
     7
 48
50.0
100
AcDbText
 10
15022.63965474516
 20
10250.01374588372
 30
0.0
 40
100.0
  1
Y10            0.7
  7
STYLE1
100
AcDbText
  0
TEXT
  5
182E1
330
747D
100
AcDbEntity
  8
文字
 62
     7
 48
50.0
100
AcDbText
 10
15022.63965474516
 20
10080.01374588372
 30
0.0
 40
100.0
  1
Y10            0.7
  7
STYLE1
100
AcDbText
  0
TEXT
  5
182E3
330
747D
100
AcDbEntity
  8
文字
 62
     7
 48
50.0
100
AcDbText
 10
15022.63965474516
 20
9570.013745883725
 30
0.0
 40
100.0
  1
Y10            0.5
  7
STYLE1
100
AcDbText
  0
TEXT
  5
182E4
330
747D
100
AcDbEntity
  8
文字
 62
     7
 48
50.0
100
AcDbText
 10
15022.63965474516
 20
9400.013745883725
 30
0.0
 40
100.0
  1
F12            0.7
  7
STYLE1
100
AcDbText
  0
TEXT
  5
182E5
330
747D
100
AcDbEntity
  8
文字
 62
     7
 48
50.0
100
AcDbText
 10
14850.83183167176
 20
8890.013745883726
 30
0.0
 40
100.0
  1
アルミニウム合金押出形材
  7
STYLE1
100
AcDbText
  0
TEXT
  5
182E7
330
747D
100
AcDbEntity
  8
文字
 62
     7
 48
50.0
100
AcDbText
 10
15022.63965474516
 20
9230.013745883727
 30
0.0
 40
100.0
  1
Z08            0.5
  7
STYLE1
100
AcDbText
  0
TEXT
  5
182E8
330
747D
100
AcDbEntity
  8
文字
 62
     7
 48
50.0
100
AcDbText
 10
15022.63965474515
 20
8720.013745883727
 30
0.0
 40
100.0
  1
F12            0.6
  7
STYLE1
100
AcDbText
  0
LINE
  5
182E9
330
747D
100
AcDbEntity
  8
仕様書枠
 48
50.0
100
AcDbLine
 10
16307.19999999999
 20
8519.599999999998
 30
0.0
 11
13127.19999999999
 21
8519.600000000002
 31
0.0
  0
LINE
  5
182EA
330
747D
100
AcDbEntity
  8
仕様書枠
 48
50.0
100
AcDbLine
 10
16307.19999999999
 20
8349.599999999998
 30
0.0
 11
13127.19999999999
 21
8349.6
 31
0.0
  0
LINE
  5
182EB
330
747D
100
AcDbEntity
  8
仕様書枠
 48
50.0
100
AcDbLine
 10
16307.19999999999
 20
8179.599999999998
 30
0.0
 11
13127.19999999999
 21
8179.6
 31
0.0
  0
TEXT
  5
182EC
330
747D
100
AcDbEntity
  8
文字
 62
     7
 48
50.0
100
AcDbText
 10
13229.83081656554
 20
8550.013745883727
 30
0.0
 40
100.0
  1
F12→溶融亜鉛めっき鋼板(JIS G 3302)
  7
STYLE1
100
AcDbText
  0
TEXT
  5
182ED
330
747D
100
AcDbEntity
  8
文字
 62
     7
 48
50.0
100
AcDbText
 10
13229.83081656554
 20
8380.013745883728
 30
0.0
 40
100.0
  1
Y10→溶融亜鉛-5％アルミニウム合金めっき鋼板(JIS G 3317)
 41
0.9
  7
STYLE1
100
AcDbText
  0
TEXT
  5
182EE
330
747D
100
AcDbEntity
  8
文字
 62
     7
 48
50.0
100
AcDbText
 10
13229.83081656554
 20
8210.013745883729
 30
0.0
 40
100.0
  1
Z08→塗装溶融亜鉛めっき鋼板(JIS G 3313)
  7
STYLE1
100
AcDbText
  0
LINE
  5
182EF
330
747D
100
AcDbEntity
  8
仕様書枠
 48
50.0
100
AcDbLine
 10
13127.2
 20
11239.6
 30
0.0
 11
13127.2
 21
8179.600000000002
 31
0.0
  0
TEXT
  5
182F5
330
747D
100
AcDbEntity
  8
文字
 62
     7
 48
50.0
100
AcDbText
 10
14830.49062778118
 20
9743.579206374931
 30
0.0
 40
100.0
  1
F12    1.2(多雪地型  2.3)
  7
STYLE1
100
AcDbText
  0
TEXT
  5
182FB
330
747D
100
AcDbEntity
  8
文字
 62
     7
 48
50.0
100
AcDbText
 10
13203.82415985932
 20
58.66862742757439
 30
0.0
 40
100.0
  1
○床面積 ： Ｎ［連続数］×6.92㎡(2.10坪)
  7
STYLE2
100
AcDbText
  0
LINE
  5
1833A
330
747D
100
AcDbEntity
  8
補助
  6
PHANTOM
 62
   230
 48
50.0
100
AcDbLine
 10
140.0
 20
0.0
 30
0.0
 11
139.9999999999995
 21
11409.6
 31
0.0
  0
DIMENSION
  5
1880C
330
747D
100
AcDbEntity
  8
寸法
100
AcDbDimension
  2
*D27
 10
11103.09970133002
 20
2211.270620748135
 30
0.0
 11
11003.08789030639
 21
3256.270620748138
 31
0.0
 70
    32
 71
     5
 42
2090.000000000002
  3
INABA_S40G
100
AcDbAlignedDimension
 13
11946.84983051327
 23
4301.270620748136
 33
0.0
 14
11946.84983051327
 24
2211.270620748134
 34
0.0
 50
90.0
100
AcDbRotatedDimension
1001
ACAD
1000
DSTYLE
1002
{
1070
   174
1070
     0
1070
   272
1070
     1
1070
   288
1070
     0
1070
   341
1005
0
1002
}
  0
DIMENSION
  5
1880D
330
747D
100
AcDbEntity
  8
寸法
100
AcDbDimension
  2
*D28
 10
10803.09970133002
 20
4536.27062074814
 30
0.0
 11
10703.08789030639
 21
3348.77062074814
 31
0.0
 70
    32
 71
     5
 42
2375.000000000005
  3
INABA_S40G
100
AcDbAlignedDimension
 13
11946.84983051327
 23
2161.270620748134
 33
0.0
 14
11886.84983051327
 24
4536.27062074814
 34
0.0
 50
90.0
100
AcDbRotatedDimension
1001
ACAD
1000
DSTYLE
1002
{
1070
   174
1070
     0
1070
   272
1070
     1
1070
   288
1070
     0
1070
   341
1005
0
1002
}
  0
DIMENSION
  5
1880E
330
747D
100
AcDbEntity
  8
寸法
100
AcDbDimension
  2
*D29
 10
15281.77698848541
 20
4481.270620748142
 30
0.0
 11
15181.76517746178
 21
3321.270620748145
 31
0.0
 70
    32
 71
     5
 42
2320.000000000001
  3
INABA_S40G
100
AcDbAlignedDimension
 13
14576.84983051328
 23
2161.270620748142
 33
0.0
 14
14656.84983051328
 24
4481.270620748142
 34
0.0
 50
90.0
100
AcDbRotatedDimension
1001
ACAD
1000
DSTYLE
1002
{
1070
   174
1070
     0
1070
   272
1070
     1
1070
   288
1070
     0
1070
   341
1005
0
1002
}
  0
LINE
  5
1880F
330
747D
100
AcDbEntity
  8
細線
 48
50.0
100
AcDbLine
 10
14024.34983051328
 20
4301.270620748138
 30
0.0
 11
14024.34983051328
 21
2211.270620748142
 31
0.0
  0
LINE
  5
18810
330
747D
100
AcDbEntity
  8
細線
 48
50.0
100
AcDbLine
 10
14039.34983051328
 20
4301.270620748138
 30
0.0
 11
14039.34983051328
 21
2211.270620748142
 31
0.0
  0
LINE
  5
18811
330
747D
100
AcDbEntity
  8
細線
 48
50.0
100
AcDbLine
 10
13899.34983051328
 20
4301.270620748138
 30
0.0
 11
13899.34983051328
 21
2211.270620748142
 31
0.0
  0
LINE
  5
18812
330
747D
100
AcDbEntity
  8
細線
 48
50.0
100
AcDbLine
 10
13884.34983051328
 20
4301.270620748138
 30
0.0
 11
13884.34983051328
 21
2211.270620748142
 31
0.0
  0
LINE
  5
18813
330
747D
100
AcDbEntity
  8
細線
 48
50.0
100
AcDbLine
 10
13744.34983051328
 20
4301.270620748138
 30
0.0
 11
13744.34983051328
 21
2211.270620748142
 31
0.0
  0
LINE
  5
18814
330
747D
100
AcDbEntity
  8
細線
 48
50.0
100
AcDbLine
 10
13759.34983051328
 20
4301.270620748138
 30
0.0
 11
13759.34983051328
 21
2211.270620748142
 31
0.0
  0
LINE
  5
18815
330
747D
100
AcDbEntity
  8
部品1
100
AcDbLine
 10
13681.84983051327
 20
4301.270620748138
 30
0.0
 11
13681.84983051327
 21
2211.270620748142
 31
0.0
  0
LINE
  5
18816
330
747D
100
AcDbEntity
  8
部品1
100
AcDbLine
 10
13122.07496094252
 20
4661.475008711157
 30
0.0
 11
13447.52997458555
 21
4643.956949752297
 31
0.0
  0
ARC
  5
18817
330
747D
100
AcDbEntity
  8
部品1
100
AcDbCircle
 10
14642.47736632722
 20
4375.294378013932
 30
0.0
 40
0.7
100
AcDbArc
 50
275.0921697642102
 51
354.1866997667606
  0
ARC
  5
18818
330
747D
100
AcDbEntity
  8
部品1
100
AcDbCircle
 10
14653.33671207653
 20
4452.337632831855
 30
0.0
 40
0.7
100
AcDbArc
 50
275.0921697642102
 51
354.1866997665596
  0
ARC
  5
18819
330
747D
100
AcDbEntity
  8
部品1
100
AcDbCircle
 10
14653.66511731914
 20
4448.652235974768
 30
0.0
 40
3.0
100
AcDbArc
 50
95.0921697642102
 51
174.1866997665596
  0
ARC
  5
1881A
330
747D
100
AcDbEntity
  8
部品1
100
AcDbCircle
 10
14642.80577156981
 20
4371.608981156842
 30
0.0
 40
3.0
100
AcDbArc
 50
95.0921697642102
 51
174.1866997665596
  0
ARC
  5
1881B
330
747D
100
AcDbEntity
  8
部品1
 48
50.0
100
AcDbCircle
 10
14631.77763629471
 20
4362.018236552962
 30
0.0
 40
7.0
100
AcDbArc
 50
267.8377559869489
 51
354.1866997665596
  0
ARC
  5
1881C
330
747D
100
AcDbEntity
  8
部品1
 48
50.0
100
AcDbCircle
 10
14649.09973275922
 20
4472.920783695135
 30
0.0
 40
7.0
100
AcDbArc
 50
354.1866997665596
 51
87.03587545283093
  0
LINE
  5
1881D
330
747D
100
AcDbEntity
  8
部品1
 48
50.0
100
AcDbLine
 10
14639.82119989921
 20
4371.912842873745
 30
0.0
 11
14638.74163685947
 21
4361.309225880187
 31
0.0
  0
LINE
  5
1881E
330
747D
100
AcDbEntity
  8
部品1
 48
50.0
100
AcDbLine
 10
14650.68054564853
 20
4448.956097691669
 30
0.0
 11
14643.17376638369
 21
4375.22347694666
 31
0.0
  0
LINE
  5
1881F
330
747D
100
AcDbEntity
  8
部品1
 48
50.0
100
AcDbLine
 10
14656.06373332398
 20
4472.211773022357
 30
0.0
 11
14654.03311213301
 21
4452.266731764579
 31
0.0
  0
ARC
  5
18820
330
747D
100
AcDbEntity
  8
部品1
100
AcDbCircle
 10
11892.88692238464
 20
4415.084779707045
 30
0.0
 40
0.7
100
AcDbArc
 50
181.0932240293156
 51
260.1877540314855
  0
ARC
  5
18821
330
747D
100
AcDbEntity
  8
部品1
100
AcDbCircle
 10
11888.11424878703
 20
4507.950557907163
 30
0.0
 40
0.7
100
AcDbArc
 50
181.0932240292114
 51
260.1877540314855
  0
ARC
  5
18822
330
747D
100
AcDbEntity
  8
部品1
100
AcDbCircle
 10
11887.48369438401
 20
4504.304683369766
 30
0.0
 40
3.0
100
AcDbArc
 50
1.093224029315636
 51
80.18775403169765
  0
ARC
  5
18823
330
747D
100
AcDbEntity
  8
部品1
100
AcDbCircle
 10
11892.25636798162
 20
4411.438905169645
 30
0.0
 40
3.0
100
AcDbArc
 50
1.093224029315636
 51
80.18775403169765
  0
ARC
  5
18824
330
747D
100
AcDbEntity
  8
部品1
 48
50.0
100
AcDbCircle
 10
11902.45650035682
 20
4401.046661787164
 30
0.0
 40
7.0
100
AcDbArc
 50
181.0932240293156
 51
267.8377559869489
  0
ARC
  5
18825
330
747D
100
AcDbEntity
  8
部品1
 48
50.0
100
AcDbCircle
 10
11894.03284225472
 20
4527.997721320262
 30
0.0
 40
7.0
100
AcDbArc
 50
87.03587545283093
 51
181.0932240293156
  0
LINE
  5
18826
330
747D
100
AcDbEntity
  8
部品1
 48
50.0
100
AcDbLine
 10
11895.25582190805
 20
4411.49614277283
 30
0.0
 11
11895.45777452848
 21
4400.913107379736
 31
0.0
  0
LINE
  5
18827
330
747D
100
AcDbEntity
  8
細線
 48
50.0
100
AcDbLine
 10
11892.64972885138
 20
4414.426190891638
 30
0.0
 11
14642.65339328202
 21
4374.616871917143
 31
0.0
  0
LINE
  5
18828
330
747D
100
AcDbEntity
  8
細線
 48
50.0
100
AcDbLine
 10
11887.88925361409
 20
4507.287702589503
 30
0.0
 11
14653.52523835926
 21
4451.663497948674
 31
0.0
  0
LINE
  5
18829
330
747D
100
AcDbEntity
  8
部品1
 48
50.0
100
AcDbLine
 10
11890.48314831044
 20
4504.361920972947
 30
0.0
 11
11892.18704980181
 21
4415.071424266301
 31
0.0
  0
LINE
  5
1882A
330
747D
100
AcDbEntity
  8
部品1
 48
50.0
100
AcDbLine
 10
11887.03411642638
 20
4527.864166912833
 30
0.0
 11
11887.41437620419
 21
4507.937202466422
 31
0.0
  0
LINE
  5
1882B
330
747D
100
AcDbEntity
  8
細線
 48
50.0
100
AcDbLine
 10
14623.81911370697
 20
4480.42404322761
 30
0.0
 11
14619.10214762528
 21
4355.491827292691
 31
0.0
  0
LINE
  5
1882C
330
747D
100
AcDbEntity
  8
細線
 48
50.0
100
AcDbLine
 10
11919.84983051328
 20
4533.670297123546
 30
0.0
 11
11914.56072895777
 21
4393.584664496189
 31
0.0
  0
LINE
  5
1882D
330
747D
100
AcDbEntity
  8
部品1
100
AcDbLine
 10
11902.19239511523
 20
4394.051645817108
 30
0.0
 11
14631.51353105313
 21
4355.023220582902
 31
0.0
  0
LINE
  5
1882E
330
747D
100
AcDbEntity
  8
部品1
100
AcDbLine
 10
11894.39481687024
 20
4534.988356082405
 30
0.0
 11
14649.46170737474
 21
4479.911418457279
 31
0.0
  0
LINE
  5
1882F
330
747D
100
AcDbEntity
  8
部品1
 48
50.0
100
AcDbLine
 10
13147.52997458555
 20
4660.156949752297
 30
0.0
 11
13447.52997458555
 21
4660.156949752297
 31
0.0
  0
LINE
  5
18830
330
747D
100
AcDbEntity
  8
部品1
 48
50.0
100
AcDbLine
 10
13447.52997458555
 20
4660.156949752297
 30
0.0
 11
13447.52997458555
 21
4643.956949752297
 31
0.0
  0
TEXT
  5
18831
330
747D
100
AcDbEntity
  8
部品1
 48
50.0
100
AcDbText
 10
13135.79780980928
 20
4696.040971904731
 30
0.0
 40
120.0
  1
1000
  7
STYLE1
100
AcDbText
  0
TEXT
  5
18832
330
747D
100
AcDbEntity
  8
部品1
 48
50.0
100
AcDbText
 10
13613.43083247437
 20
4558.539713686449
 30
0.0
 40
120.0
  1
37
 50
90.0
  7
STYLE1
100
AcDbText
  0
LINE
  5
18833
330
747D
100
AcDbEntity
  8
細線
 48
50.0
100
AcDbLine
 10
13339.34983051328
 20
4301.270620748138
 30
0.0
 11
13339.34983051328
 21
2211.270620748139
 31
0.0
  0
LINE
  5
18834
330
747D
100
AcDbEntity
  8
細線
 48
50.0
100
AcDbLine
 10
13324.34983051328
 20
4301.270620748138
 30
0.0
 11
13324.34983051328
 21
2211.270620748139
 31
0.0
  0
LINE
  5
18835
330
747D
100
AcDbEntity
  8
細線
 48
50.0
100
AcDbLine
 10
13464.34983051328
 20
4301.270620748138
 30
0.0
 11
13464.34983051328
 21
2211.270620748139
 31
0.0
  0
LINE
  5
18836
330
747D
100
AcDbEntity
  8
細線
 48
50.0
100
AcDbLine
 10
13479.34983051328
 20
4301.270620748138
 30
0.0
 11
13479.34983051328
 21
2211.270620748139
 31
0.0
  0
LINE
  5
18837
330
747D
100
AcDbEntity
  8
細線
 48
50.0
100
AcDbLine
 10
13619.34983051328
 20
4301.270620748138
 30
0.0
 11
13619.34983051328
 21
2211.270620748139
 31
0.0
  0
LINE
  5
18838
330
747D
100
AcDbEntity
  8
細線
 48
50.0
100
AcDbLine
 10
13604.34983051328
 20
4301.270620748138
 30
0.0
 11
13604.34983051328
 21
2211.270620748139
 31
0.0
  0
LINE
  5
18839
330
747D
100
AcDbEntity
  8
部品1
100
AcDbLine
 10
14101.84983051328
 20
4301.270620748138
 30
0.0
 11
14101.84983051328
 21
2211.270620748142
 31
0.0
  0
LINE
  5
1883A
330
747D
100
AcDbEntity
  8
部品1
100
AcDbLine
 10
11946.84983051327
 20
4301.270620748138
 30
0.0
 11
14576.84983051328
 21
4301.270620748138
 31
0.0
  0
LINE
  5
1883B
330
747D
100
AcDbEntity
  8
部品1
100
AcDbLine
 10
12001.84983051327
 20
2211.270620748139
 30
0.0
 11
14576.84983051328
 21
2211.270620748142
 31
0.0
  0
LINE
  5
1883C
330
747D
100
AcDbEntity
  8
部品1
100
AcDbLine
 10
12001.84983051328
 20
4301.270620748138
 30
0.0
 11
12001.84983051328
 21
2061.270620748143
 31
0.0
  0
LINE
  5
1883D
330
747D
100
AcDbEntity
  8
部品1
100
AcDbLine
 10
11946.84983051327
 20
4393.413058677018
 30
0.0
 11
11946.84983051327
 21
2061.270620748139
 31
0.0
  0
DIMENSION
  5
1883E
330
747D
100
AcDbEntity
  8
寸法
100
AcDbDimension
  2
*D30
 10
11103.09970133002
 20
2161.27062074814
 30
0.0
 11
11103.09970133002
 21
1855.223376653649
 31
0.0
 70
   160
 71
     5
 42
50.0
  3
INABA_S40G
100
AcDbAlignedDimension
 13
11946.84983051327
 23
2211.27062074814
 33
0.0
 14
11891.84983051328
 24
2161.27062074814
 34
0.0
 50
90.0
100
AcDbRotatedDimension
1001
ACAD
1000
DSTYLE
1002
{
1070
   174
1070
     0
1070
   272
1070
     1
1070
   288
1070
     0
1070
   341
1005
0
1002
}
  0
LINE
  5
1883F
330
747D
100
AcDbEntity
  8
部品1
100
AcDbLine
 10
12421.84983051328
 20
4301.270620748138
 30
0.0
 11
12421.84983051328
 21
2211.270620748139
 31
0.0
  0
LINE
  5
18840
330
747D
100
AcDbEntity
  8
部品1
100
AcDbLine
 10
14576.84983051328
 20
4355.804894135879
 30
0.0
 11
14576.84983051328
 21
2061.270620748143
 31
0.0
  0
LINE
  5
18841
330
747D
100
AcDbEntity
  8
部品1
100
AcDbLine
 10
14521.84983051328
 20
4301.270620748138
 30
0.0
 11
14521.84983051328
 21
2211.270620748142
 31
0.0
  0
DIMENSION
  5
18842
330
747D
100
AcDbEntity
  8
寸法
 48
50.0
100
AcDbDimension
  2
*D31
 10
11946.84983051327
 20
4934.928074327445
 30
0.0
 11
13261.84983051328
 21
4934.928074327445
 31
0.0
 70
   160
  1
柱外寸法<>
 71
     5
 42
2630.0
  3
INABA_S40G
100
AcDbAlignedDimension
 13
14576.84983051328
 23
4483.081300359793
 33
0.0
 14
11946.84983051327
 24
4532.272238871116
 34
0.0
100
AcDbRotatedDimension
1001
ACAD
1000
DSTYLE
1002
{
1070
   174
1070
     0
1070
   272
1070
     1
1070
   288
1070
     0
1070
   341
1005
0
1002
}
  0
DIMENSION
  5
18843
330
747D
100
AcDbEntity
  8
寸法
 48
50.0
100
AcDbDimension
  2
*D32
 10
11886.84983051327
 20
4934.928074327444
 30
0.0
 11
11577.21203523768
 21
4934.928074327444
 31
0.0
 70
   160
 71
     5
 42
60.0
  3
INABA_S40G
100
AcDbAlignedDimension
 13
11946.84983051327
 23
4532.272238871116
 33
0.0
 14
11886.84983051327
 24
4536.270620748145
 34
0.0
100
AcDbRotatedDimension
1001
ACAD
1000
DSTYLE
1002
{
1070
   174
1070
     0
1070
   272
1070
     1
1070
   288
1070
     0
1070
   341
1005
0
1002
}
  0
DIMENSION
  5
18844
330
747D
100
AcDbEntity
  8
寸法
 48
50.0
100
AcDbDimension
  2
*D33
 10
11886.84983051327
 20
5155.138761059061
 30
0.0
 11
13271.84983051328
 21
5155.138761059061
 31
0.0
 70
   160
 71
     5
 42
2770.0
  3
INABA_S40G
100
AcDbAlignedDimension
 13
14656.84983051328
 23
4481.270620748142
 33
0.0
 14
11886.84983051327
 24
4536.270620748145
 34
0.0
100
AcDbRotatedDimension
1001
ACAD
1000
DSTYLE
1002
{
1070
   174
1070
     0
1070
   272
1070
     1
1070
   288
1070
     0
1070
   341
1005
0
1002
}
  0
LINE
  5
18845
330
747D
100
AcDbEntity
  8
部品1
100
AcDbLine
 10
12001.84983051328
 20
2161.270620748139
 30
0.0
 11
14576.84983051328
 21
2161.270620748139
 31
0.0
  0
LINE
  5
18846
330
747D
100
AcDbEntity
  8
細線
 48
50.0
100
AcDbLine
 10
12499.34983051327
 20
4301.270620748138
 30
0.0
 11
12499.34983051327
 21
2211.270620748139
 31
0.0
  0
LINE
  5
18847
330
747D
100
AcDbEntity
  8
細線
 48
50.0
100
AcDbLine
 10
12484.34983051328
 20
4301.270620748138
 30
0.0
 11
12484.34983051328
 21
2211.270620748139
 31
0.0
  0
LINE
  5
18848
330
747D
100
AcDbEntity
  8
細線
 48
50.0
100
AcDbLine
 10
12624.34983051328
 20
4301.270620748138
 30
0.0
 11
12624.34983051328
 21
2211.270620748139
 31
0.0
  0
LINE
  5
18849
330
747D
100
AcDbEntity
  8
細線
 48
50.0
100
AcDbLine
 10
12639.34983051328
 20
4301.270620748138
 30
0.0
 11
12639.34983051328
 21
2211.270620748139
 31
0.0
  0
LINE
  5
1884A
330
747D
100
AcDbEntity
  8
細線
 48
50.0
100
AcDbLine
 10
12779.34983051328
 20
4301.270620748138
 30
0.0
 11
12779.34983051328
 21
2211.270620748139
 31
0.0
  0
LINE
  5
1884B
330
747D
100
AcDbEntity
  8
細線
 48
50.0
100
AcDbLine
 10
12764.34983051328
 20
4301.270620748138
 30
0.0
 11
12764.34983051328
 21
2211.270620748139
 31
0.0
  0
LINE
  5
1884C
330
747D
100
AcDbEntity
  8
細線
 48
50.0
100
AcDbLine
 10
12344.34983051328
 20
4301.270620748138
 30
0.0
 11
12344.34983051328
 21
2211.270620748139
 31
0.0
  0
LINE
  5
1884D
330
747D
100
AcDbEntity
  8
細線
 48
50.0
100
AcDbLine
 10
12359.34983051327
 20
4301.270620748138
 30
0.0
 11
12359.34983051327
 21
2211.270620748139
 31
0.0
  0
LINE
  5
1884E
330
747D
100
AcDbEntity
  8
細線
 48
50.0
100
AcDbLine
 10
12219.34983051327
 20
4301.270620748138
 30
0.0
 11
12219.34983051327
 21
2211.270620748139
 31
0.0
  0
LINE
  5
1884F
330
747D
100
AcDbEntity
  8
細線
 48
50.0
100
AcDbLine
 10
12204.34983051328
 20
4301.270620748138
 30
0.0
 11
12204.34983051328
 21
2211.270620748139
 31
0.0
  0
LINE
  5
18850
330
747D
100
AcDbEntity
  8
細線
 48
50.0
100
AcDbLine
 10
12064.34983051328
 20
4301.270620748138
 30
0.0
 11
12064.34983051328
 21
2211.270620748139
 31
0.0
  0
LINE
  5
18851
330
747D
100
AcDbEntity
  8
細線
 48
50.0
100
AcDbLine
 10
12079.34983051328
 20
4301.270620748138
 30
0.0
 11
12079.34983051328
 21
2211.270620748139
 31
0.0
  0
DIMENSION
  5
18852
330
747D
100
AcDbEntity
  8
寸法
 48
50.0
100
AcDbDimension
  2
*D34
 10
14656.84983051328
 20
4934.928074327445
 30
0.0
 11
14862.89707460777
 21
4934.928074327445
 31
0.0
 70
   160
 71
     5
 42
80.0
  3
INABA_S40G
100
AcDbAlignedDimension
 13
14576.84983051328
 23
4483.081300359793
 33
0.0
 14
14656.84983051328
 24
4481.270620748142
 34
0.0
100
AcDbRotatedDimension
1001
ACAD
1000
DSTYLE
1002
{
1070
   174
1070
     0
1070
   272
1070
     1
1070
   288
1070
     0
1070
   341
1005
0
1002
}
  0
LINE
  5
18853
330
747D
100
AcDbEntity
  8
部品1
100
AcDbLine
 10
12841.84983051328
 20
4301.270620748138
 30
0.0
 11
12841.84983051328
 21
2211.270620748139
 31
0.0
  0
LINE
  5
18854
330
747D
100
AcDbEntity
  8
細線
 48
50.0
100
AcDbLine
 10
13184.34983051328
 20
4301.270620748138
 30
0.0
 11
13184.34983051328
 21
2211.270620748139
 31
0.0
  0
LINE
  5
18855
330
747D
100
AcDbEntity
  8
細線
 48
50.0
100
AcDbLine
 10
13199.34983051328
 20
4301.270620748138
 30
0.0
 11
13199.34983051328
 21
2211.270620748139
 31
0.0
  0
LINE
  5
18856
330
747D
100
AcDbEntity
  8
細線
 48
50.0
100
AcDbLine
 10
13059.34983051328
 20
4301.270620748138
 30
0.0
 11
13059.34983051328
 21
2211.270620748139
 31
0.0
  0
LINE
  5
18857
330
747D
100
AcDbEntity
  8
細線
 48
50.0
100
AcDbLine
 10
13044.34983051327
 20
4301.270620748138
 30
0.0
 11
13044.34983051328
 21
2211.270620748139
 31
0.0
  0
LINE
  5
18858
330
747D
100
AcDbEntity
  8
細線
 48
50.0
100
AcDbLine
 10
12904.34983051327
 20
4301.270620748138
 30
0.0
 11
12904.34983051328
 21
2211.270620748139
 31
0.0
  0
LINE
  5
18859
330
747D
100
AcDbEntity
  8
細線
 48
50.0
100
AcDbLine
 10
12919.34983051328
 20
4301.270620748138
 30
0.0
 11
12919.34983051328
 21
2211.270620748139
 31
0.0
  0
LINE
  5
1885A
330
747D
100
AcDbEntity
  8
部品1
100
AcDbLine
 10
13261.84983051328
 20
4301.270620748138
 30
0.0
 11
13261.84983051328
 21
2211.270620748139
 31
0.0
  0
LINE
  5
1885B
330
747D
100
AcDbEntity
  8
細線
 48
50.0
100
AcDbLine
 10
14179.34983051328
 20
4301.270620748138
 30
0.0
 11
14179.34983051328
 21
2211.270620748142
 31
0.0
  0
LINE
  5
1885C
330
747D
100
AcDbEntity
  8
細線
 48
50.0
100
AcDbLine
 10
14164.34983051328
 20
4301.270620748138
 30
0.0
 11
14164.34983051328
 21
2211.270620748142
 31
0.0
  0
LINE
  5
1885D
330
747D
100
AcDbEntity
  8
細線
 48
50.0
100
AcDbLine
 10
14304.34983051328
 20
4301.270620748138
 30
0.0
 11
14304.34983051328
 21
2211.270620748142
 31
0.0
  0
LINE
  5
1885E
330
747D
100
AcDbEntity
  8
細線
 48
50.0
100
AcDbLine
 10
14319.34983051328
 20
4301.270620748138
 30
0.0
 11
14319.34983051328
 21
2211.270620748142
 31
0.0
  0
LINE
  5
1885F
330
747D
100
AcDbEntity
  8
細線
 48
50.0
100
AcDbLine
 10
14459.34983051328
 20
4301.270620748138
 30
0.0
 11
14459.34983051328
 21
2211.270620748142
 31
0.0
  0
LINE
  5
18860
330
747D
100
AcDbEntity
  8
細線
 48
50.0
100
AcDbLine
 10
14444.34983051328
 20
4301.270620748138
 30
0.0
 11
14444.34983051328
 21
2211.270620748142
 31
0.0
  0
DIMENSION
  5
18861
330
747D
100
AcDbEntity
  8
寸法
 48
50.0
100
AcDbDimension
  2
*D26
 10
11326.24142374489
 20
4410.615879621472
 30
0.0
 11
11336.90689900381
 21
4781.462542863169
 31
0.0
 70
   161
 71
     5
 42
140.9999999999991
  3
INABA_S40G
100
AcDbAlignedDimension
 13
11906.24585067185
 23
4534.99336958282
 33
0.0
 14
11902.19239511523
 24
4394.051645817106
 34
0.0
1001
ACAD
1000
DSTYLE
1002
{
1070
   174
1070
     0
1070
   272
1070
     1
1070
   288
1070
     0
1070
   341
1005
0
1002
}
  0
LINE
  5
18867
330
747D
100
AcDbEntity
  8
破線
 48
5.0
100
AcDbLine
 10
11946.84983051327
 20
2061.270620748139
 30
0.0
 11
11946.84983051327
 21
1811.270620748139
 31
0.0
  0
LINE
  5
18868
330
747D
100
AcDbEntity
  8
破線
 48
5.0
100
AcDbLine
 10
12001.84983051328
 20
2061.270620748139
 30
0.0
 11
12001.84983051328
 21
1811.270620748139
 31
0.0
  0
LINE
  5
18869
330
747D
100
AcDbEntity
  8
破線
 48
5.0
100
AcDbLine
 10
11946.84983051327
 20
1811.270620748139
 30
0.0
 11
12001.84983051328
 21
1811.270620748139
 31
0.0
  0
LINE
  5
1886A
330
747D
100
AcDbEntity
  8
部品1
100
AcDbLine
 10
11946.84983051327
 20
2161.270620748139
 30
0.0
 11
11553.85261630443
 21
2061.270620748139
 31
0.0
  0
TEXT
  5
1886B
330
747D
100
AcDbEntity
  8
文字
 62
     7
 48
50.0
100
AcDbText
 10
14300.82295705533
 20
483.8967129911416
 30
0.0
 40
160.0
  1
FXN-2626HL-N
  7
MSPゴシック
100
AcDbText
  0
LWPOLYLINE
  5
1886C
330
747D
100
AcDbEntity
  8
部品1
100
AcDbPolyline
 90
        4
 70
     1
 43
0.0
 10
12890.11449739906
 20
1511.270620748139
 10
12890.11449739906
 20
1271.378299202607
 10
13653.5851636275
 20
1271.378299202607
 10
13653.5851636275
 20
1511.270620748139
  0
TEXT
  5
1886D
330
747D
100
AcDbEntity
  8
部品1
100
AcDbText
 10
12990.23792064436
 20
1318.377091529615
 30
0.0
 40
135.0
  1
側面図
  7
MSGOTHIC
100
AcDbText
  0
LINE
  5
1934F
330
747D
100
AcDbEntity
  8
部品1
 48
50.0
100
AcDbLine
 10
9362.264636017227
 20
4536.270620748143
 30
0.0
 11
1387.081478230087
 21
4536.270620748146
 31
0.0
  0
LINE
  5
19350
330
747D
100
AcDbEntity
  8
細線
 48
50.0
100
AcDbLine
 10
9367.633518902209
 20
4508.270620748143
 30
0.0
 11
1381.712595345096
 21
4508.270620748142
 31
0.0
  0
LINE
  5
19351
330
747D
100
AcDbEntity
  8
細線
 48
50.0
100
AcDbLine
 10
9359.397488377338
 20
4416.070620748132
 30
0.0
 11
1389.948625869925
 21
4416.070620748145
 31
0.0
  0
LINE
  5
19352
330
747D
100
AcDbEntity
  8
部品1
 48
50.0
100
AcDbLine
 10
9349.049312556195
 20
4395.270620748142
 30
0.0
 11
1400.296801691118
 21
4395.270620748146
 31
0.0
  0
LINE
  5
19354
330
747D
100
AcDbEntity
  8
部品1
 48
50.0
100
AcDbLine
 10
6679.673057123661
 20
4395.270620748143
 30
0.0
 11
6679.673057123657
 21
4536.270620748143
 31
0.0
  0
LINE
  5
19355
330
747D
100
AcDbEntity
  8
部品1
 48
50.0
100
AcDbLine
 10
6689.673057123662
 20
4136.270620748138
 30
0.0
 11
6689.67305712366
 21
4395.270620748143
 31
0.0
  0
LINE
  5
19356
330
747D
100
AcDbEntity
  8
部品1
 48
50.0
100
AcDbLine
 10
4059.67305712366
 20
4136.270620748138
 30
0.0
 11
4059.67305712366
 21
4395.270620748143
 31
0.0
  0
LINE
  5
19357
330
747D
100
AcDbEntity
  8
部品1
 48
50.0
100
AcDbLine
 10
4049.67305712366
 20
4395.270620748143
 30
0.0
 11
4049.673057123658
 21
4536.270620748143
 31
0.0
  0
LINE
  5
19358
330
747D
100
AcDbEntity
  8
部品1
100
AcDbLine
 10
9369.253396108327
 20
4528.874095352906
 30
0.0
 11
9368.119998775977
 21
4508.897967370308
 31
0.0
  0
LINE
  5
19359
330
747D
100
AcDbEntity
  8
細線
 48
50.0
100
AcDbLine
 10
9336.673057123658
 20
4536.270620748147
 30
0.0
 11
9336.673057123658
 21
4395.270620748147
 31
0.0
  0
LINE
  5
1935A
330
747D
100
AcDbEntity
  8
部品1
100
AcDbLine
 10
9356.682978454401
 20
4413.240560203245
 30
0.0
 11
9356.038072647292
 21
4401.874095352906
 31
0.0
  0
LINE
  5
1935B
330
747D
100
AcDbEntity
  8
部品1
100
AcDbLine
 10
9364.919008979248
 20
4505.44056020325
 30
0.0
 11
9359.883968251137
 21
4416.697967370303
 31
0.0
  0
ARC
  5
1935C
330
747D
100
AcDbEntity
  8
部品1
 48
50.0
100
AcDbCircle
 10
9367.914191875433
 20
4505.270620748147
 30
0.0
 40
3.0
100
AcDbArc
 50
97.6581272073639
 51
176.7526572096682
  0
ARC
  5
1935D
330
747D
100
AcDbEntity
  8
部品1
 48
50.0
100
AcDbCircle
 10
9359.67816135059
 20
4413.070620748142
 30
0.0
 40
3.0
100
AcDbArc
 50
97.6581272073639
 51
176.7526572096682
  0
ARC
  5
1935E
330
747D
100
AcDbEntity
  8
部品1
 48
50.0
100
AcDbCircle
 10
9359.185092242029
 20
4416.73761990983
 30
0.0
 40
0.7
100
AcDbArc
 50
277.6581272073639
 51
356.7526572096682
  0
ARC
  5
1935F
330
747D
100
AcDbEntity
  8
部品1
 48
50.0
100
AcDbCircle
 10
9367.421122766868
 20
4508.93761990983
 30
0.0
 40
0.7
100
AcDbArc
 50
277.6581272073639
 51
356.7526572096682
  0
ARC
  5
19360
330
747D
100
AcDbEntity
  8
部品1
100
AcDbCircle
 10
9349.049312556195
 20
4402.270620748146
 30
0.0
 40
7.0
100
AcDbArc
 50
270.0
 51
356.7526572096682
  0
ARC
  5
19361
330
747D
100
AcDbEntity
  8
部品1
100
AcDbCircle
 10
9362.264636017227
 20
4529.270620748147
 30
0.0
 40
7.0
100
AcDbArc
 50
356.7526572096682
 51
90.0
  0
DIMENSION
  5
19362
330
747D
100
AcDbEntity
  8
寸法
 48
50.0
100
AcDbDimension
  2
*D45
 10
9319.67305712366
 20
4941.996892480053
 30
0.0
 11
9683.158338497896
 21
4941.996892480053
 31
0.0
 70
   160
 71
     5
 42
49.99999999999636
  3
INABA_S40G
100
AcDbAlignedDimension
 13
9369.673057123657
 23
4536.270620748143
 33
0.0
 14
9319.67305712366
 24
4536.270620748147
 34
0.0
100
AcDbRotatedDimension
  0
LINE
  5
19367
330
747D
100
AcDbEntity
  8
部品1
100
AcDbLine
 10
1429.673057123655
 20
4301.270620748138
 30
0.0
 11
9319.673057123656
 21
4301.270620748138
 31
0.0
  0
LINE
  5
19368
330
747D
100
AcDbEntity
  8
細線
 48
50.0
100
AcDbLine
 10
1412.673057123655
 20
4536.270620748142
 30
0.0
 11
1412.673057123655
 21
4395.270620748142
 31
0.0
  0
ARC
  5
19369
330
747D
100
AcDbEntity
  8
部品1
100
AcDbCircle
 10
1387.081478230087
 20
4529.270620748142
 30
0.0
 40
7.0
100
AcDbArc
 50
90.0
 51
183.2473427903317
  0
ARC
  5
1936A
330
747D
100
AcDbEntity
  8
部品1
100
AcDbCircle
 10
1400.296801691118
 20
4402.270620748146
 30
0.0
 40
7.0
100
AcDbArc
 50
183.2473427903317
 51
270.0
  0
ARC
  5
1936B
330
747D
100
AcDbEntity
  8
部品1
 48
50.0
100
AcDbCircle
 10
1381.924991480446
 20
4508.937619909829
 30
0.0
 40
0.7
100
AcDbArc
 50
183.2473427903317
 51
262.3418727926361
  0
ARC
  5
1936C
330
747D
100
AcDbEntity
  8
部品1
 48
50.0
100
AcDbCircle
 10
1390.161022005282
 20
4416.737619909826
 30
0.0
 40
0.7
100
AcDbArc
 50
183.2473427903317
 51
262.3418727926361
  0
ARC
  5
1936D
330
747D
100
AcDbEntity
  8
部品1
 48
50.0
100
AcDbCircle
 10
1389.667952896721
 20
4413.070620748142
 30
0.0
 40
3.0
100
AcDbArc
 50
3.247342790331777
 51
82.34187279263609
  0
ARC
  5
1936E
330
747D
100
AcDbEntity
  8
部品1
 48
50.0
100
AcDbCircle
 10
1381.431922371877
 20
4505.270620748146
 30
0.0
 40
3.0
100
AcDbArc
 50
3.247342790331777
 51
82.34187279263609
  0
LINE
  5
1936F
330
747D
100
AcDbEntity
  8
部品1
100
AcDbLine
 10
1384.427105268063
 20
4505.440560203246
 30
0.0
 11
1389.462145996178
 21
4416.697967370303
 31
0.0
  0
LINE
  5
19370
330
747D
100
AcDbEntity
  8
部品1
100
AcDbLine
 10
1392.663135792914
 20
4413.240560203244
 30
0.0
 11
1393.308041600023
 21
4401.874095352905
 31
0.0
  0
LINE
  5
19371
330
747D
100
AcDbEntity
  8
部品1
100
AcDbLine
 10
1380.092718138985
 20
4528.874095352905
 30
0.0
 11
1381.226115471334
 21
4508.897967370304
 31
0.0
  0
DIMENSION
  5
19372
330
747D
100
AcDbEntity
  8
寸法
 48
50.0
100
AcDbDimension
  2
*D46
 10
1379.673057123655
 20
4941.996892480048
 30
0.0
 11
1066.187775749408
 21
4941.996892480048
 31
0.0
 70
   160
 71
     5
 42
50.0
  3
INABA_S40G
100
AcDbAlignedDimension
 13
1429.673057123655
 23
4536.270620748146
 33
0.0
 14
1379.673057123655
 24
4536.270620748146
 34
0.0
100
AcDbRotatedDimension
1001
ACAD
1000
DSTYLE
1002
{
1002
}
  0
DIMENSION
  5
19373
330
747D
100
AcDbEntity
  8
寸法
 48
50.0
100
AcDbDimension
  2
*D47
 10
9369.673057123657
 20
5141.905813694139
 30
0.0
 11
5374.673057123656
 21
5141.905813694139
 31
0.0
 70
   160
  1
N X 2630+100
 71
     5
 42
7990.000000000001
  3
INABA_S40G
100
AcDbAlignedDimension
 13
1379.673057123655
 23
4536.270620748144
 33
0.0
 14
9369.673057123657
 24
4536.270620748143
 34
0.0
100
AcDbRotatedDimension
  0
DIMENSION
  5
19374
330
747D
100
AcDbEntity
  8
寸法
 48
50.0
100
AcDbDimension
  2
*D48
 10
1429.673057123655
 20
4941.996892480048
 30
0.0
 11
5374.673057123658
 21
5042.008703503671
 31
0.0
 70
    32
  1
柱外寸法 N X 2630
 71
     5
 42
7890.000000000006
  3
INABA_S40G
100
AcDbAlignedDimension
 13
9319.67305712366
 23
4536.270620748147
 33
0.0
 14
1429.673057123655
 24
4536.270620748145
 34
0.0
100
AcDbRotatedDimension
  0
DIMENSION
  5
19685
330
747D
100
AcDbEntity
  8
寸法
 48
50.0
100
AcDbDimension
  2
*D49
 10
9607.216159445403
 20
4109.270620748139
 30
0.0
 11
9507.216159445402
 21
3135.27062074814
 31
0.0
 70
    32
  1
有効開口部高サ <>
 71
     5
 42
1948.0
  3
INABA_S40G
100
AcDbAlignedDimension
 13
9319.673057123656
 23
2161.270620748139
 33
0.0
 14
9319.673057123656
 24
4109.270620748139
 34
0.0
 50
90.0
100
AcDbRotatedDimension
  0
DIMENSION
  5
19686
330
747D
100
AcDbEntity
  8
寸法
 48
50.0
100
AcDbDimension
  2
*D50
 10
9607.216159445403
 20
4136.270620748141
 30
0.0
 11
9747.385982691769
 21
4137.237820587798
 31
0.0
 70
   160
 71
     5
 42
27.00000000000182
  3
INABA_S40G
100
AcDbAlignedDimension
 13
9319.673057123656
 23
4109.270620748139
 33
0.0
 14
9319.673057123656
 24
4136.270620748141
 34
0.0
 50
90.0
100
AcDbRotatedDimension
1001
ACAD
1000
DSTYLE
1002
{
1070
   279
1070
     2
1002
}
  0
DIMENSION
  5
19687
330
747D
100
AcDbEntity
  8
寸法
 48
50.0
100
AcDbDimension
  2
*D51
 10
9607.216159445405
 20
4301.270620748138
 30
0.0
 11
9607.216159445403
 21
4539.755902122378
 31
0.0
 70
   160
 71
     5
 42
164.9999999999982
  3
INABA_S40G
100
AcDbAlignedDimension
 13
9319.673057123656
 23
4136.270620748141
 33
0.0
 14
9319.673057123656
 24
4301.270620748138
 34
0.0
 50
90.0
100
AcDbRotatedDimension
1001
ACAD
1000
DSTYLE
1002
{
1002
}
  0
LINE
  5
197C6
330
747D
100
AcDbEntity
  8
仕様書枠
 48
50.0
100
AcDbLine
 10
16307.19999999998
 20
8689.6
 30
0.0
 11
13127.19999999999
 21
8689.600000000003
 31
0.0
  0
TEXT
  5
197CD
330
747D
100
AcDbEntity
  8
文字
 62
     7
 48
50.0
100
AcDbText
 10
15022.63965474517
 20
10760.01374588372
 30
0.0
 40
100.0
  1
F12         1.0,1.2
  7
STYLE1
100
AcDbText
  0
TEXT
  5
197D0
330
747D
100
AcDbEntity
  8
文字
 62
     7
 48
50.0
100
AcDbText
 10
15022.63965474516
 20
9060.013745883727
 30
0.0
 40
100.0
  1
F12            0.7
  7
STYLE1
100
AcDbText
  0
LINE
  5
197D2
330
747D
100
AcDbEntity
  8
破線
 48
5.0
100
AcDbLine
 10
4059.673057123656
 20
1886.270620748139
 30
0.0
 11
4059.673057123656
 21
1811.270620748139
 31
0.0
  0
LINE
  5
197D3
330
747D
100
AcDbEntity
  8
破線
 48
5.0
100
AcDbLine
 10
4009.673057123655
 20
1811.270620748139
 30
0.0
 11
4109.673057123655
 21
1811.270620748139
 31
0.0
  0
LINE
  5
197D4
330
747D
100
AcDbEntity
  8
破線
 48
5.0
100
AcDbLine
 10
6689.673057123656
 20
1886.270620748138
 30
0.0
 11
6689.673057123656
 21
1811.270620748139
 31
0.0
  0
LINE
  5
197D5
330
747D
100
AcDbEntity
  8
破線
 48
5.0
100
AcDbLine
 10
6639.673057123656
 20
1811.270620748139
 30
0.0
 11
6739.673057123656
 21
1811.270620748139
 31
0.0
  0
LINE
  5
197ED
330
747D
100
AcDbEntity
  8
部品1
 48
50.0
100
AcDbLine
 10
4126.673057123656
 20
7187.997424545864
 30
0.0
 11
6622.67305712364
 21
7187.997424545864
 31
0.0
  0
LINE
  5
1981A
330
747D
100
AcDbEntity
  8
部品1
100
AcDbLine
 10
4114.673057123656
 20
4136.270620748138
 30
0.0
 11
6744.673057123657
 21
4136.270620748139
 31
0.0
  0
LINE
  5
1981B
330
747D
100
AcDbEntity
  8
細線
100
AcDbLine
 10
4162.673057123653
 20
4121.270620748139
 30
0.0
 11
6586.673057123654
 21
4121.270620748139
 31
0.0
  0
LINE
  5
1981E
330
747D
100
AcDbEntity
  8
細線
100
AcDbLine
 10
4162.673057123653
 20
2691.270620748139
 30
0.0
 11
6586.673057123654
 21
2691.270620748139
 31
0.0
  0
LINE
  5
1981F
330
747D
100
AcDbEntity
  8
細線
100
AcDbLine
 10
4162.673057123653
 20
2626.270620748139
 30
0.0
 11
6586.673057123654
 21
2626.270620748139
 31
0.0
  0
LINE
  5
19820
330
747D
100
AcDbEntity
  8
細線
100
AcDbLine
 10
4162.673057123653
 20
2561.270620748139
 30
0.0
 11
6586.673057123654
 21
2561.270620748139
 31
0.0
  0
LINE
  5
19821
330
747D
100
AcDbEntity
  8
細線
100
AcDbLine
 10
4162.673057123653
 20
2496.270620748139
 30
0.0
 11
6586.673057123654
 21
2496.270620748139
 31
0.0
  0
LINE
  5
19822
330
747D
100
AcDbEntity
  8
細線
100
AcDbLine
 10
4162.673057123653
 20
2431.27062074814
 30
0.0
 11
6586.673057123654
 21
2431.27062074814
 31
0.0
  0
LINE
  5
19823
330
747D
100
AcDbEntity
  8
細線
100
AcDbLine
 10
4162.673057123653
 20
2366.270620748139
 30
0.0
 11
6586.673057123654
 21
2366.270620748139
 31
0.0
  0
LINE
  5
19824
330
747D
100
AcDbEntity
  8
細線
100
AcDbLine
 10
4162.673057123653
 20
2301.270620748139
 30
0.0
 11
6586.673057123654
 21
2301.270620748139
 31
0.0
  0
LINE
  5
19825
330
747D
100
AcDbEntity
  8
細線
100
AcDbLine
 10
4162.673057123653
 20
2236.270620748139
 30
0.0
 11
6586.673057123654
 21
2236.270620748139
 31
0.0
  0
LINE
  5
19826
330
747D
100
AcDbEntity
  8
細線
100
AcDbLine
 10
4162.673057123653
 20
3991.270620748139
 30
0.0
 11
6586.673057123654
 21
3991.270620748139
 31
0.0
  0
LINE
  5
19827
330
747D
100
AcDbEntity
  8
細線
100
AcDbLine
 10
4162.673057123653
 20
4056.270620748139
 30
0.0
 11
6586.673057123654
 21
4056.270620748139
 31
0.0
  0
LINE
  5
19828
330
747D
100
AcDbEntity
  8
細線
100
AcDbLine
 10
4162.673057123653
 20
3341.270620748139
 30
0.0
 11
6586.673057123654
 21
3341.270620748139
 31
0.0
  0
LINE
  5
19829
330
747D
100
AcDbEntity
  8
細線
100
AcDbLine
 10
4162.673057123653
 20
3276.270620748139
 30
0.0
 11
6586.673057123654
 21
3276.270620748139
 31
0.0
  0
LINE
  5
1982A
330
747D
100
AcDbEntity
  8
細線
100
AcDbLine
 10
4162.673057123653
 20
3211.27062074814
 30
0.0
 11
6586.673057123654
 21
3211.27062074814
 31
0.0
  0
LINE
  5
1982B
330
747D
100
AcDbEntity
  8
細線
100
AcDbLine
 10
4162.673057123653
 20
3146.270620748139
 30
0.0
 11
6586.673057123654
 21
3146.270620748139
 31
0.0
  0
LINE
  5
1982C
330
747D
100
AcDbEntity
  8
細線
100
AcDbLine
 10
4162.673057123653
 20
3081.270620748139
 30
0.0
 11
6586.673057123654
 21
3081.270620748139
 31
0.0
  0
LINE
  5
1982D
330
747D
100
AcDbEntity
  8
細線
100
AcDbLine
 10
4162.673057123653
 20
3016.27062074814
 30
0.0
 11
6586.673057123654
 21
3016.27062074814
 31
0.0
  0
LINE
  5
1982E
330
747D
100
AcDbEntity
  8
細線
100
AcDbLine
 10
4162.673057123653
 20
2951.27062074814
 30
0.0
 11
6586.673057123654
 21
2951.27062074814
 31
0.0
  0
LINE
  5
1982F
330
747D
100
AcDbEntity
  8
細線
100
AcDbLine
 10
4162.673057123653
 20
2886.270620748139
 30
0.0
 11
6586.673057123654
 21
2886.270620748139
 31
0.0
  0
LINE
  5
19830
330
747D
100
AcDbEntity
  8
細線
100
AcDbLine
 10
4162.673057123653
 20
2821.270620748139
 30
0.0
 11
6586.673057123654
 21
2821.270620748139
 31
0.0
  0
LINE
  5
19831
330
747D
100
AcDbEntity
  8
細線
100
AcDbLine
 10
4162.673057123653
 20
2756.27062074814
 30
0.0
 11
6586.673057123654
 21
2756.27062074814
 31
0.0
  0
LINE
  5
19832
330
747D
100
AcDbEntity
  8
細線
100
AcDbLine
 10
4162.673057123653
 20
3731.270620748139
 30
0.0
 11
6586.673057123654
 21
3731.270620748139
 31
0.0
  0
LINE
  5
19833
330
747D
100
AcDbEntity
  8
細線
100
AcDbLine
 10
4162.673057123653
 20
3666.270620748139
 30
0.0
 11
6586.673057123654
 21
3666.270620748139
 31
0.0
  0
LINE
  5
19834
330
747D
100
AcDbEntity
  8
細線
100
AcDbLine
 10
4162.673057123653
 20
3601.270620748139
 30
0.0
 11
6586.673057123654
 21
3601.270620748139
 31
0.0
  0
LINE
  5
19835
330
747D
100
AcDbEntity
  8
細線
100
AcDbLine
 10
4162.673057123653
 20
3536.27062074814
 30
0.0
 11
6586.673057123654
 21
3536.27062074814
 31
0.0
  0
LINE
  5
19836
330
747D
100
AcDbEntity
  8
細線
100
AcDbLine
 10
4162.673057123653
 20
3471.27062074814
 30
0.0
 11
6586.673057123654
 21
3471.27062074814
 31
0.0
  0
LINE
  5
19837
330
747D
100
AcDbEntity
  8
細線
100
AcDbLine
 10
4162.673057123653
 20
3406.270620748139
 30
0.0
 11
6586.673057123654
 21
3406.270620748139
 31
0.0
  0
LINE
  5
19838
330
747D
100
AcDbEntity
  8
細線
100
AcDbLine
 10
4162.673057123653
 20
3926.270620748139
 30
0.0
 11
6586.673057123654
 21
3926.270620748139
 31
0.0
  0
LINE
  5
19839
330
747D
100
AcDbEntity
  8
細線
100
AcDbLine
 10
4162.673057123653
 20
3861.270620748139
 30
0.0
 11
6586.673057123654
 21
3861.270620748139
 31
0.0
  0
LINE
  5
1983A
330
747D
100
AcDbEntity
  8
細線
100
AcDbLine
 10
4162.673057123653
 20
3796.270620748139
 30
0.0
 11
6586.673057123654
 21
3796.270620748139
 31
0.0
  0
CIRCLE
  5
19841
330
747D
100
AcDbEntity
  8
細線
 48
50.0
100
AcDbCircle
 10
5374.673057123654
 20
3048.770620748139
 30
0.0
 40
18.0
  0
LINE
  5
19842
330
747D
100
AcDbEntity
  8
細線
100
AcDbLine
 10
6586.673057123658
 20
2171.270620748139
 30
0.0
 11
4162.673057123651
 21
2171.270620748139
 31
0.0
  0
SPLINE
  5
19849
330
747D
100
AcDbEntity
  8
部品1
 48
50.0
100
AcDbSpline
210
0.0
220
0.0
230
1.0
 70
     8
 71
     3
 72
    10
 73
     6
 74
     4
 42
0.0000000001
 43
0.0000000001
 44
0.0000000001
 40
0.0
 40
0.0
 40
0.0
 40
0.0
 40
147.8767566010009
 40
301.8091093202477
 40
466.5049223087716
 40
466.5049223087716
 40
466.5049223087716
 40
466.5049223087716
 10
5442.243384856692
 20
9798.738577071681
 30
0.0
 10
5365.361702361857
 20
9789.834143413841
 30
0.0
 10
5208.450010151729
 20
9771.660636954511
 30
0.0
 10
5531.263420096075
 20
9669.140052315171
 30
0.0
 10
5361.4208004267
 20
9650.504963602964
 30
0.0
 10
5273.630795219808
 20
9640.872666725655
 30
0.0
 11
5442.243384856692
 21
9798.738577071681
 31
0.0
 11
5299.405406547923
 21
9760.465256135354
 31
0.0
 11
5432.714734467097
 21
9683.49907977573
 31
0.0
 11
5273.630795219808
 21
9640.872666725655
 31
0.0
  0
LINE
  5
1984A
330
747D
100
AcDbEntity
  8
部品1
 48
50.0
100
AcDbLine
 10
5421.205796679192
 20
9891.15997278257
 30
0.0
 11
5328.140317568092
 21
9543.834876309205
 31
0.0
  0
SPLINE
  5
19851
330
747D
100
AcDbEntity
  8
部品1
 48
50.0
100
AcDbSpline
210
0.0
220
0.0
230
1.0
 70
     8
 71
     3
 72
    10
 73
     6
 74
     4
 42
0.0000000001
 43
0.0000000001
 44
0.0000000001
 40
0.0
 40
0.0
 40
0.0
 40
0.0
 40
147.8767566010009
 40
301.8091093202477
 40
466.5049223087716
 40
466.5049223087716
 40
466.5049223087716
 40
466.5049223087716
 10
5442.243384856698
 20
7255.738577071658
 30
0.0
 10
5365.361702361862
 20
7246.834143413818
 30
0.0
 10
5208.450010151735
 20
7228.660636954486
 30
0.0
 10
5531.263420096078
 20
7126.140052315147
 30
0.0
 10
5361.420800426705
 20
7107.504963602941
 30
0.0
 10
5273.630795219813
 20
7097.872666725632
 30
0.0
 11
5442.243384856698
 21
7255.738577071658
 31
0.0
 11
5299.405406547929
 21
7217.465256135328
 31
0.0
 11
5432.714734467103
 21
7140.499079775705
 31
0.0
 11
5273.630795219813
 21
7097.872666725632
 31
0.0
  0
LINE
  5
19852
330
747D
100
AcDbEntity
  8
部品1
 48
50.0
100
AcDbLine
 10
5421.205796679198
 20
7348.159972782546
 30
0.0
 11
5328.140317568097
 21
7000.834876309181
 31
0.0
  0
LINE
  5
1985E
330
747D
100
AcDbEntity
  8
部品1
 48
50.0
100
AcDbLine
 10
5807.608334867328
 20
4664.507073676221
 30
0.0
 11
5019.3834929108
 21
1722.811915706761
 31
0.0
  0
SPLINE
  5
1985F
330
747D
100
AcDbEntity
  8
部品1
 48
50.0
100
AcDbSpline
210
0.0
220
0.0
230
1.0
 70
     8
 71
     3
 72
    10
 73
     6
 74
     4
 42
0.0000000001
 43
0.0000000001
 44
0.0000000001
 40
0.0
 40
0.0
 40
0.0
 40
0.0
 40
147.8767566010009
 40
301.8091093202477
 40
466.5049223087734
 40
466.5049223087734
 40
466.5049223087734
 40
466.5049223087734
 10
5442.243384856706
 20
3130.011773273932
 30
0.0
 10
5365.36170236187
 20
3121.107339616094
 30
0.0
 10
5208.450010151743
 20
3102.933833156763
 30
0.0
 10
5531.263420096087
 20
3000.413248517419
 30
0.0
 10
5361.420800426714
 20
2981.778159805216
 30
0.0
 10
5273.630795219819
 20
2972.145862927908
 30
0.0
 11
5442.243384856706
 21
3130.011773273932
 31
0.0
 11
5299.405406547936
 21
3091.738452337604
 31
0.0
 11
5432.714734467111
 21
3014.772275977981
 31
0.0
 11
5273.630795219819
 21
2972.145862927908
 31
0.0
  0
LINE
  5
199C3
330
747D
100
AcDbEntity
  8
部品1
100
AcDbLine
 10
8844.673057123662
 20
9772.497424545987
 30
0.0
 11
8844.673057123662
 21
9744.497424545986
 31
0.0
  0
LINE
  5
19BBE
330
747D
100
AcDbEntity
  8
部品1
100
AcDbLine
 10
6214.673057123662
 20
9772.497424545987
 30
0.0
 11
6214.673057123662
 21
9744.497424545986
 31
0.0
  0
LINE
  5
19BBF
330
747D
100
AcDbEntity
  8
部品1
 48
50.0
100
AcDbLine
 10
5387.173057123663
 20
9736.497424545971
 30
0.0
 11
5387.173057123663
 21
9744.497424545983
 31
0.0
  0
LINE
  5
19BC0
330
747D
100
AcDbEntity
  8
部品1
 48
50.0
100
AcDbLine
 10
5362.173057123663
 20
9736.497424545968
 30
0.0
 11
5362.173057123662
 21
9744.497424545986
 31
0.0
  0
LINE
  5
19BC1
330
747D
100
AcDbEntity
  8
部品1
100
AcDbLine
 10
5794.673057123662
 20
9772.497424545987
 30
0.0
 11
5794.673057123662
 21
9744.497424545986
 31
0.0
  0
LINE
  5
19BC2
330
747D
100
AcDbEntity
  8
部品1
100
AcDbLine
 10
5339.673057123663
 20
9762.497424545971
 30
0.0
 11
5339.673057123663
 21
9744.49742454597
 31
0.0
  0
LINE
  5
19BC3
330
747D
100
AcDbEntity
  8
部品1
100
AcDbLine
 10
5339.673057123663
 20
9762.497424545971
 30
0.0
 11
5345.673057123663
 21
9762.497424545971
 31
0.0
  0
LINE
  5
19BC4
330
747D
100
AcDbEntity
  8
部品1
100
AcDbLine
 10
5409.673057123663
 20
9762.497424545971
 30
0.0
 11
5409.673057123663
 21
9744.49742454597
 31
0.0
  0
LINE
  5
19BC5
330
747D
100
AcDbEntity
  8
部品1
100
AcDbLine
 10
5403.673057123663
 20
9762.497424545971
 30
0.0
 11
5409.673057123663
 21
9762.497424545971
 31
0.0
  0
LINE
  5
19BC6
330
747D
100
AcDbEntity
  8
部品1
100
AcDbLine
 10
5362.173057123663
 20
9736.497424545968
 30
0.0
 11
5387.173057123663
 21
9736.497424545971
 31
0.0
  0
LINE
  5
19BC7
330
747D
100
AcDbEntity
  8
部品1
100
AcDbLine
 10
5374.673057123663
 20
9772.497424545987
 30
0.0
 11
5374.673057123663
 21
9744.497424545986
 31
0.0
  0
LINE
  5
19BC8
330
747D
100
AcDbEntity
  8
部品1
100
AcDbLine
 10
4954.673057123663
 20
9772.49742454587
 30
0.0
 11
4954.673057123663
 21
9744.497424545869
 31
0.0
  0
LINE
  5
19BC9
330
747D
100
AcDbEntity
  8
部品1
100
AcDbLine
 10
4954.673057123663
 20
9772.49742454587
 30
0.0
 11
4954.673057123663
 21
9744.497424545869
 31
0.0
  0
LINE
  5
19BCA
330
747D
100
AcDbEntity
  8
部品1
100
AcDbLine
 10
4954.673057123663
 20
9772.497424545987
 30
0.0
 11
4954.673057123663
 21
9744.497424545986
 31
0.0
  0
LINE
  5
19BCB
330
747D
100
AcDbEntity
  8
部品1
100
AcDbLine
 10
4534.673057123663
 20
9772.49742454587
 30
0.0
 11
4534.673057123663
 21
9744.497424545869
 31
0.0
  0
LINE
  5
19BCC
330
747D
100
AcDbEntity
  8
部品1
100
AcDbLine
 10
4534.673057123663
 20
9772.49742454587
 30
0.0
 11
4534.673057123663
 21
9744.497424545869
 31
0.0
  0
LINE
  5
19BCD
330
747D
100
AcDbEntity
  8
部品1
100
AcDbLine
 10
4534.673057123663
 20
9772.497424545987
 30
0.0
 11
4534.673057123663
 21
9744.497424545986
 31
0.0
  0
LINE
  5
19BCF
330
747D
100
AcDbEntity
  8
部品1
100
AcDbLine
 10
4087.673057123662
 20
9744.497424545986
 30
0.0
 11
5362.173057123661
 21
9744.497424545986
 31
0.0
  0
LINE
  5
19BD0
330
747D
100
AcDbEntity
  8
部品1
100
AcDbLine
 10
1457.673057123663
 20
9744.497424545986
 30
0.0
 11
2732.173057123662
 21
9744.497424545986
 31
0.0
  0
LINE
  5
19BD1
330
747D
100
AcDbEntity
  8
部品1
100
AcDbLine
 10
2757.173057123663
 20
9744.49742454599
 30
0.0
 11
4031.673057123664
 21
9744.497424545963
 31
0.0
  0
LINE
  5
19BD2
330
747D
100
AcDbEntity
  8
部品1
100
AcDbLine
 10
2773.673057123663
 20
9762.497424545971
 30
0.0
 11
2779.673057123663
 21
9762.497424545971
 31
0.0
  0
LINE
  5
19BD3
330
747D
100
AcDbEntity
  8
部品1
100
AcDbLine
 10
2779.673057123663
 20
9762.497424545971
 30
0.0
 11
2779.673057123663
 21
9744.49742454597
 31
0.0
  0
LINE
  5
19BD4
330
747D
100
AcDbEntity
  8
部品1
100
AcDbLine
 10
2744.673057123663
 20
9772.497424545987
 30
0.0
 11
2744.673057123663
 21
9744.497424545986
 31
0.0
  0
LINE
  5
19BD5
330
747D
100
AcDbEntity
  8
部品1
100
AcDbLine
 10
2709.673057123663
 20
9762.497424545971
 30
0.0
 11
2715.673057123663
 21
9762.497424545971
 31
0.0
  0
LINE
  5
19BD6
330
747D
100
AcDbEntity
  8
部品1
100
AcDbLine
 10
2709.673057123663
 20
9762.497424545971
 30
0.0
 11
2709.673057123663
 21
9744.49742454597
 31
0.0
  0
LINE
  5
19BD7
330
747D
100
AcDbEntity
  8
部品1
100
AcDbLine
 10
2732.173057123663
 20
9736.497424545968
 30
0.0
 11
2757.173057123663
 21
9736.497424545971
 31
0.0
  0
LINE
  5
19BD8
330
747D
100
AcDbEntity
  8
部品1
 48
50.0
100
AcDbLine
 10
2757.173057123663
 20
9736.497424545971
 30
0.0
 11
2757.173057123663
 21
9744.497424545983
 31
0.0
  0
LINE
  5
19BD9
330
747D
100
AcDbEntity
  8
部品1
 48
50.0
100
AcDbLine
 10
2732.173057123663
 20
9736.497424545968
 30
0.0
 11
2732.173057123662
 21
9744.497424545986
 31
0.0
  0
LINE
  5
19BDA
330
747D
100
AcDbEntity
  8
部品1
100
AcDbLine
 10
1904.673057123663
 20
9772.497424545987
 30
0.0
 11
1904.673057123663
 21
9744.497424545986
 31
0.0
  0
LINE
  5
19BDB
330
747D
100
AcDbEntity
  8
部品1
100
AcDbLine
 10
1904.673057123663
 20
9772.49742454587
 30
0.0
 11
1904.673057123663
 21
9744.497424545869
 31
0.0
  0
LINE
  5
19BDC
330
747D
100
AcDbEntity
  8
部品1
100
AcDbLine
 10
1904.673057123663
 20
9772.49742454587
 30
0.0
 11
1904.673057123663
 21
9744.497424545869
 31
0.0
  0
LINE
  5
19BDD
330
747D
100
AcDbEntity
  8
部品1
100
AcDbLine
 10
2324.673057123663
 20
9772.497424545987
 30
0.0
 11
2324.673057123663
 21
9744.497424545986
 31
0.0
  0
LINE
  5
19BDE
330
747D
100
AcDbEntity
  8
部品1
100
AcDbLine
 10
2324.673057123663
 20
9772.49742454587
 30
0.0
 11
2324.673057123663
 21
9744.497424545869
 31
0.0
  0
LINE
  5
19BDF
330
747D
100
AcDbEntity
  8
部品1
100
AcDbLine
 10
2324.673057123663
 20
9772.49742454587
 30
0.0
 11
2324.673057123663
 21
9744.497424545869
 31
0.0
  0
LINE
  5
19BE0
330
747D
100
AcDbEntity
  8
部品1
100
AcDbLine
 10
3164.673057123662
 20
9772.497424545987
 30
0.0
 11
3164.673057123662
 21
9744.497424545986
 31
0.0
  0
LINE
  5
19BE1
330
747D
100
AcDbEntity
  8
部品1
100
AcDbLine
 10
3584.673057123662
 20
9772.497424545987
 30
0.0
 11
3584.673057123662
 21
9744.497424545986
 31
0.0
  0
CIRCLE
  5
19C55
330
747D
100
AcDbEntity
  8
細線
 48
50.0
100
AcDbCircle
 10
2744.673057123654
 20
3048.770620748139
 30
0.0
 40
18.0
  0
ARC
  5
19C56
330
747D
100
AcDbEntity
  8
細線
 48
50.0
100
AcDbCircle
 10
3044.673057123655
 20
2723.770620748139
 30
0.0
 40
15.0
100
AcDbArc
 50
270.0
 51
90.0
  0
ARC
  5
19C57
330
747D
100
AcDbEntity
  8
細線
 48
50.0
100
AcDbCircle
 10
2944.673057123655
 20
2723.770620748139
 30
0.0
 40
15.0
100
AcDbArc
 50
90.0
 51
270.0
  0
LINE
  5
19C58
330
747D
100
AcDbEntity
  8
細線
 48
50.0
100
AcDbLine
 10
2944.673057123655
 20
2738.770620748139
 30
0.0
 11
3044.673057123655
 21
2738.770620748139
 31
0.0
  0
LINE
  5
19C59
330
747D
100
AcDbEntity
  8
細線
 48
50.0
100
AcDbLine
 10
3044.673057123655
 20
2708.770620748139
 30
0.0
 11
2944.673057123655
 21
2708.770620748139
 31
0.0
  0
LINE
  5
19C5A
330
747D
100
AcDbEntity
  8
細線
 48
50.0
100
AcDbLine
 10
2544.673057123655
 20
2708.770620748139
 30
0.0
 11
2444.673057123655
 21
2708.770620748139
 31
0.0
  0
LINE
  5
19C5B
330
747D
100
AcDbEntity
  8
細線
 48
50.0
100
AcDbLine
 10
2444.673057123655
 20
2738.770620748139
 30
0.0
 11
2544.673057123655
 21
2738.770620748139
 31
0.0
  0
ARC
  5
19C5C
330
747D
100
AcDbEntity
  8
細線
 48
50.0
100
AcDbCircle
 10
2544.673057123655
 20
2723.770620748139
 30
0.0
 40
15.0
100
AcDbArc
 50
270.0
 51
90.0
  0
ARC
  5
19C5D
330
747D
100
AcDbEntity
  8
細線
 48
50.0
100
AcDbCircle
 10
2444.673057123655
 20
2723.770620748139
 30
0.0
 40
15.0
100
AcDbArc
 50
90.0
 51
270.0
  0
ARC
  5
19C5E
330
747D
100
AcDbEntity
  8
部品1
 48
0.01
100
AcDbCircle
 10
3271.673057123658
 20
4333.770620748139
 30
0.0
 40
2.0
100
AcDbArc
 50
180.0
 51
270.0
  0
ARC
  5
19C5F
330
747D
100
AcDbEntity
  8
部品1
 48
0.01
100
AcDbCircle
 10
3447.673057123658
 20
4333.770620748139
 30
0.0
 40
2.0
100
AcDbArc
 50
270.0
 51
0.0
  0
LINE
  5
19C60
330
747D
100
AcDbEntity
  8
部品1
 48
0.01
100
AcDbLine
 10
3447.673057123658
 20
4331.770620748138
 30
0.0
 11
3271.673057123658
 21
4331.770620748138
 31
0.0
  0
LINE
  5
19C61
330
747D
100
AcDbEntity
  8
部品1
 48
0.01
100
AcDbLine
 10
2041.673057123658
 20
4331.770620748138
 30
0.0
 11
2217.673057123654
 21
4331.770620748138
 31
0.0
  0
ARC
  5
19C62
330
747D
100
AcDbEntity
  8
部品1
 48
0.01
100
AcDbCircle
 10
2041.673057123658
 20
4333.770620748139
 30
0.0
 40
2.0
100
AcDbArc
 50
180.0
 51
270.0
  0
ARC
  5
19C63
330
747D
100
AcDbEntity
  8
部品1
 48
0.01
100
AcDbCircle
 10
2217.673057123654
 20
4333.770620748139
 30
0.0
 40
2.0
100
AcDbArc
 50
270.0
 51
0.0
  0
ARC
  5
19C64
330
747D
100
AcDbEntity
  8
部品1
 48
0.01
100
AcDbCircle
 10
3271.673057123658
 20
4365.270620748138
 30
0.0
 40
2.0
100
AcDbArc
 50
90.0
 51
180.0
  0
ARC
  5
19C65
330
747D
100
AcDbEntity
  8
部品1
 48
0.01
100
AcDbCircle
 10
3447.673057123658
 20
4365.270620748138
 30
0.0
 40
2.0
100
AcDbArc
 50
0.0
 51
90.0
  0
LINE
  5
19C66
330
747D
100
AcDbEntity
  8
細線
100
AcDbLine
 10
3359.673057123659
 20
4337.770620748139
 30
0.0
 11
3285.673057123658
 21
4337.770620748139
 31
0.0
  0
LINE
  5
19C67
330
747D
100
AcDbEntity
  8
細線
100
AcDbLine
 10
3359.673057123659
 20
4360.770620748138
 30
0.0
 11
3433.673057123658
 21
4360.770620748138
 31
0.0
  0
LINE
  5
19C68
330
747D
100
AcDbEntity
  8
細線
100
AcDbLine
 10
3433.673057123658
 20
4337.770620748139
 30
0.0
 11
3359.673057123659
 21
4337.770620748139
 31
0.0
  0
LINE
  5
19C69
330
747D
100
AcDbEntity
  8
細線
100
AcDbLine
 10
3285.673057123658
 20
4360.770620748138
 30
0.0
 11
3359.673057123659
 21
4360.770620748138
 31
0.0
  0
LINE
  5
19C6A
330
747D
100
AcDbEntity
  8
細線
100
AcDbLine
 10
3285.673057123658
 20
4337.770620748139
 30
0.0
 11
3285.673057123658
 21
4360.770620748138
 31
0.0
  0
LINE
  5
19C6B
330
747D
100
AcDbEntity
  8
細線
100
AcDbLine
 10
3433.673057123658
 20
4360.770620748138
 30
0.0
 11
3433.673057123658
 21
4337.770620748139
 31
0.0
  0
LINE
  5
19C6C
330
747D
100
AcDbEntity
  8
部品1
 48
0.01
100
AcDbLine
 10
3269.673057123658
 20
4333.770620748139
 30
0.0
 11
3269.673057123658
 21
4365.270620748138
 31
0.0
  0
LINE
  5
19C6D
330
747D
100
AcDbEntity
  8
部品1
 48
0.01
100
AcDbLine
 10
3449.673057123658
 20
4365.270620748138
 30
0.0
 11
3449.673057123658
 21
4333.770620748139
 31
0.0
  0
LINE
  5
19C6E
330
747D
100
AcDbEntity
  8
部品1
 48
0.01
100
AcDbLine
 10
3271.673057123658
 20
4367.270620748139
 30
0.0
 11
3447.673057123658
 21
4367.270620748139
 31
0.0
  0
LINE
  5
19C6F
330
747D
100
AcDbEntity
  8
細線
100
AcDbLine
 10
3433.673057123658
 20
4354.770620748139
 30
0.0
 11
3359.673057123659
 21
4354.770620748139
 31
0.0
  0
LINE
  5
19C70
330
747D
100
AcDbEntity
  8
細線
100
AcDbLine
 10
3433.673057123658
 20
4348.770620748139
 30
0.0
 11
3359.673057123659
 21
4348.770620748139
 31
0.0
  0
LINE
  5
19C71
330
747D
100
AcDbEntity
  8
細線
100
AcDbLine
 10
3433.673057123658
 20
4342.770620748138
 30
0.0
 11
3359.673057123659
 21
4342.770620748138
 31
0.0
  0
LINE
  5
19C72
330
747D
100
AcDbEntity
  8
細線
100
AcDbLine
 10
3433.673057123658
 20
4354.770620748139
 30
0.0
 11
3364.673057123658
 21
4354.770620748139
 31
0.0
  0
LINE
  5
19C73
330
747D
100
AcDbEntity
  8
細線
100
AcDbLine
 10
3285.673057123658
 20
4354.770620748139
 30
0.0
 11
3359.673057123659
 21
4354.770620748139
 31
0.0
  0
LINE
  5
19C74
330
747D
100
AcDbEntity
  8
細線
100
AcDbLine
 10
3285.673057123658
 20
4342.770620748138
 30
0.0
 11
3359.673057123659
 21
4342.770620748138
 31
0.0
  0
LINE
  5
19C75
330
747D
100
AcDbEntity
  8
細線
100
AcDbLine
 10
3285.673057123658
 20
4348.770620748139
 30
0.0
 11
3359.673057123659
 21
4348.770620748139
 31
0.0
  0
LINE
  5
19C76
330
747D
100
AcDbEntity
  8
細線
100
AcDbLine
 10
3359.673057123659
 20
4360.770620748138
 30
0.0
 11
3359.673057123659
 21
4337.770620748139
 31
0.0
  0
LINE
  5
19C77
330
747D
100
AcDbEntity
  8
細線
100
AcDbLine
 10
2129.673057123658
 20
4360.770620748138
 30
0.0
 11
2129.673057123655
 21
4337.770620748139
 31
0.0
  0
LINE
  5
19C78
330
747D
100
AcDbEntity
  8
細線
100
AcDbLine
 10
2203.673057123654
 20
4348.770620748139
 30
0.0
 11
2129.673057123658
 21
4348.770620748139
 31
0.0
  0
LINE
  5
19C79
330
747D
100
AcDbEntity
  8
細線
100
AcDbLine
 10
2203.673057123654
 20
4342.770620748138
 30
0.0
 11
2129.673057123658
 21
4342.770620748138
 31
0.0
  0
LINE
  5
19C7A
330
747D
100
AcDbEntity
  8
細線
100
AcDbLine
 10
2203.673057123654
 20
4354.770620748139
 30
0.0
 11
2129.673057123658
 21
4354.770620748139
 31
0.0
  0
LINE
  5
19C7B
330
747D
100
AcDbEntity
  8
細線
100
AcDbLine
 10
2055.673057123658
 20
4354.770620748139
 30
0.0
 11
2124.673057123658
 21
4354.770620748139
 31
0.0
  0
LINE
  5
19C7C
330
747D
100
AcDbEntity
  8
細線
100
AcDbLine
 10
2055.673057123655
 20
4342.770620748138
 30
0.0
 11
2129.673057123658
 21
4342.770620748138
 31
0.0
  0
LINE
  5
19C7D
330
747D
100
AcDbEntity
  8
細線
100
AcDbLine
 10
2055.673057123658
 20
4348.770620748139
 30
0.0
 11
2129.673057123658
 21
4348.770620748139
 31
0.0
  0
LINE
  5
19C7E
330
747D
100
AcDbEntity
  8
細線
100
AcDbLine
 10
2055.673057123658
 20
4354.770620748139
 30
0.0
 11
2129.673057123658
 21
4354.770620748139
 31
0.0
  0
LINE
  5
19C7F
330
747D
100
AcDbEntity
  8
部品1
 48
0.01
100
AcDbLine
 10
2217.673057123658
 20
4367.270620748139
 30
0.0
 11
2041.673057123658
 21
4367.270620748139
 31
0.0
  0
LINE
  5
19C80
330
747D
100
AcDbEntity
  8
部品1
 48
0.01
100
AcDbLine
 10
2039.673057123658
 20
4365.270620748138
 30
0.0
 11
2039.673057123658
 21
4333.770620748139
 31
0.0
  0
LINE
  5
19C81
330
747D
100
AcDbEntity
  8
部品1
 48
0.01
100
AcDbLine
 10
2219.673057123654
 20
4333.770620748139
 30
0.0
 11
2219.673057123658
 21
4365.270620748138
 31
0.0
  0
LINE
  5
19C82
330
747D
100
AcDbEntity
  8
細線
100
AcDbLine
 10
2055.673057123658
 20
4360.770620748138
 30
0.0
 11
2055.673057123658
 21
4337.770620748139
 31
0.0
  0
LINE
  5
19C83
330
747D
100
AcDbEntity
  8
細線
100
AcDbLine
 10
2203.673057123658
 20
4337.770620748139
 30
0.0
 11
2203.673057123658
 21
4360.770620748138
 31
0.0
  0
LINE
  5
19C84
330
747D
100
AcDbEntity
  8
細線
100
AcDbLine
 10
2203.673057123658
 20
4360.770620748138
 30
0.0
 11
2129.673057123658
 21
4360.770620748138
 31
0.0
  0
LINE
  5
19C85
330
747D
100
AcDbEntity
  8
細線
100
AcDbLine
 10
2055.673057123658
 20
4337.770620748139
 30
0.0
 11
2129.673057123658
 21
4337.770620748139
 31
0.0
  0
LINE
  5
19C86
330
747D
100
AcDbEntity
  8
細線
100
AcDbLine
 10
2129.673057123658
 20
4360.770620748138
 30
0.0
 11
2055.673057123658
 21
4360.770620748138
 31
0.0
  0
LINE
  5
19C87
330
747D
100
AcDbEntity
  8
細線
100
AcDbLine
 10
2129.673057123655
 20
4337.770620748139
 30
0.0
 11
2203.673057123658
 21
4337.770620748139
 31
0.0
  0
ARC
  5
19C88
330
747D
100
AcDbEntity
  8
部品1
 48
0.01
100
AcDbCircle
 10
2041.673057123658
 20
4365.270620748138
 30
0.0
 40
2.0
100
AcDbArc
 50
90.0
 51
180.0
  0
ARC
  5
19C89
330
747D
100
AcDbEntity
  8
部品1
 48
0.01
100
AcDbCircle
 10
2217.673057123658
 20
4365.270620748138
 30
0.0
 40
2.0
100
AcDbArc
 50
0.0
 51
90.0
  0
ARC
  5
19C8A
330
747D
100
AcDbEntity
  8
部品1
 48
0.01
100
AcDbCircle
 10
4847.673057123659
 20
4365.270620748138
 30
0.0
 40
2.0
100
AcDbArc
 50
0.0
 51
90.0
  0
ARC
  5
19C8B
330
747D
100
AcDbEntity
  8
部品1
 48
0.01
100
AcDbCircle
 10
4671.673057123658
 20
4365.270620748138
 30
0.0
 40
2.0
100
AcDbArc
 50
90.0
 51
180.0
  0
LINE
  5
19C8C
330
747D
100
AcDbEntity
  8
細線
100
AcDbLine
 10
4759.673057123655
 20
4337.770620748139
 30
0.0
 11
4833.673057123658
 21
4337.770620748139
 31
0.0
  0
LINE
  5
19C8D
330
747D
100
AcDbEntity
  8
細線
100
AcDbLine
 10
4759.673057123658
 20
4360.770620748138
 30
0.0
 11
4685.673057123659
 21
4360.770620748138
 31
0.0
  0
LINE
  5
19C8E
330
747D
100
AcDbEntity
  8
細線
100
AcDbLine
 10
4685.673057123659
 20
4337.770620748139
 30
0.0
 11
4759.673057123658
 21
4337.770620748139
 31
0.0
  0
LINE
  5
19C8F
330
747D
100
AcDbEntity
  8
細線
100
AcDbLine
 10
4833.673057123658
 20
4360.770620748138
 30
0.0
 11
4759.673057123658
 21
4360.770620748138
 31
0.0
  0
LINE
  5
19C90
330
747D
100
AcDbEntity
  8
細線
100
AcDbLine
 10
4833.673057123658
 20
4337.770620748139
 30
0.0
 11
4833.673057123658
 21
4360.770620748138
 31
0.0
  0
LINE
  5
19C91
330
747D
100
AcDbEntity
  8
細線
100
AcDbLine
 10
4685.673057123659
 20
4360.770620748138
 30
0.0
 11
4685.673057123659
 21
4337.770620748139
 31
0.0
  0
LINE
  5
19C92
330
747D
100
AcDbEntity
  8
部品1
 48
0.01
100
AcDbLine
 10
4849.673057123655
 20
4333.770620748139
 30
0.0
 11
4849.673057123658
 21
4365.270620748138
 31
0.0
  0
LINE
  5
19C93
330
747D
100
AcDbEntity
  8
部品1
 48
0.01
100
AcDbLine
 10
4669.673057123659
 20
4365.270620748138
 30
0.0
 11
4669.673057123659
 21
4333.770620748139
 31
0.0
  0
LINE
  5
19C94
330
747D
100
AcDbEntity
  8
部品1
 48
0.01
100
AcDbLine
 10
4847.673057123659
 20
4367.270620748139
 30
0.0
 11
4671.673057123658
 21
4367.270620748139
 31
0.0
  0
LINE
  5
19C95
330
747D
100
AcDbEntity
  8
細線
100
AcDbLine
 10
4685.673057123659
 20
4354.770620748139
 30
0.0
 11
4759.673057123658
 21
4354.770620748139
 31
0.0
  0
LINE
  5
19C96
330
747D
100
AcDbEntity
  8
細線
100
AcDbLine
 10
4685.673057123659
 20
4348.770620748139
 30
0.0
 11
4759.673057123658
 21
4348.770620748139
 31
0.0
  0
LINE
  5
19C97
330
747D
100
AcDbEntity
  8
細線
100
AcDbLine
 10
4685.673057123654
 20
4342.770620748138
 30
0.0
 11
4759.673057123658
 21
4342.770620748138
 31
0.0
  0
LINE
  5
19C98
330
747D
100
AcDbEntity
  8
細線
100
AcDbLine
 10
4685.673057123659
 20
4354.770620748139
 30
0.0
 11
4754.673057123659
 21
4354.770620748139
 31
0.0
  0
LINE
  5
19C99
330
747D
100
AcDbEntity
  8
細線
100
AcDbLine
 10
4833.673057123655
 20
4354.770620748139
 30
0.0
 11
4759.673057123658
 21
4354.770620748139
 31
0.0
  0
LINE
  5
19C9A
330
747D
100
AcDbEntity
  8
細線
100
AcDbLine
 10
4833.673057123655
 20
4342.770620748138
 30
0.0
 11
4759.673057123658
 21
4342.770620748138
 31
0.0
  0
LINE
  5
19C9B
330
747D
100
AcDbEntity
  8
細線
100
AcDbLine
 10
4833.673057123655
 20
4348.770620748139
 30
0.0
 11
4759.673057123658
 21
4348.770620748139
 31
0.0
  0
LINE
  5
19C9C
330
747D
100
AcDbEntity
  8
細線
100
AcDbLine
 10
4759.673057123658
 20
4360.770620748138
 30
0.0
 11
4759.673057123655
 21
4337.770620748139
 31
0.0
  0
LINE
  5
19C9D
330
747D
100
AcDbEntity
  8
細線
100
AcDbLine
 10
5989.673057123659
 20
4360.770620748138
 30
0.0
 11
5989.673057123659
 21
4337.770620748139
 31
0.0
  0
LINE
  5
19C9E
330
747D
100
AcDbEntity
  8
細線
100
AcDbLine
 10
5915.673057123658
 20
4348.770620748139
 30
0.0
 11
5989.673057123659
 21
4348.770620748139
 31
0.0
  0
LINE
  5
19C9F
330
747D
100
AcDbEntity
  8
細線
100
AcDbLine
 10
5915.673057123658
 20
4342.770620748138
 30
0.0
 11
5989.673057123659
 21
4342.770620748138
 31
0.0
  0
LINE
  5
19CA0
330
747D
100
AcDbEntity
  8
細線
100
AcDbLine
 10
5915.673057123658
 20
4354.770620748139
 30
0.0
 11
5989.673057123659
 21
4354.770620748139
 31
0.0
  0
LINE
  5
19CA1
330
747D
100
AcDbEntity
  8
細線
100
AcDbLine
 10
6063.673057123658
 20
4354.770620748139
 30
0.0
 11
5994.673057123659
 21
4354.770620748139
 31
0.0
  0
LINE
  5
19CA2
330
747D
100
AcDbEntity
  8
細線
100
AcDbLine
 10
6063.673057123658
 20
4342.770620748138
 30
0.0
 11
5989.673057123659
 21
4342.770620748138
 31
0.0
  0
LINE
  5
19CA3
330
747D
100
AcDbEntity
  8
細線
100
AcDbLine
 10
6063.673057123658
 20
4348.770620748139
 30
0.0
 11
5989.673057123659
 21
4348.770620748139
 31
0.0
  0
LINE
  5
19CA4
330
747D
100
AcDbEntity
  8
細線
100
AcDbLine
 10
6063.673057123658
 20
4354.770620748139
 30
0.0
 11
5989.673057123659
 21
4354.770620748139
 31
0.0
  0
LINE
  5
19CA5
330
747D
100
AcDbEntity
  8
部品1
 48
0.01
100
AcDbLine
 10
5901.673057123659
 20
4367.270620748139
 30
0.0
 11
6077.673057123658
 21
4367.270620748139
 31
0.0
  0
LINE
  5
19CA6
330
747D
100
AcDbEntity
  8
部品1
 48
0.01
100
AcDbLine
 10
6079.673057123659
 20
4365.270620748138
 30
0.0
 11
6079.673057123659
 21
4333.770620748139
 31
0.0
  0
LINE
  5
19CA7
330
747D
100
AcDbEntity
  8
部品1
 48
0.01
100
AcDbLine
 10
5899.673057123658
 20
4333.770620748139
 30
0.0
 11
5899.673057123658
 21
4365.270620748138
 31
0.0
  0
LINE
  5
19CA8
330
747D
100
AcDbEntity
  8
細線
100
AcDbLine
 10
6063.673057123658
 20
4360.770620748138
 30
0.0
 11
6063.673057123658
 21
4337.770620748139
 31
0.0
  0
LINE
  5
19CA9
330
747D
100
AcDbEntity
  8
細線
100
AcDbLine
 10
5915.673057123658
 20
4337.770620748139
 30
0.0
 11
5915.673057123658
 21
4360.770620748138
 31
0.0
  0
LINE
  5
19CAA
330
747D
100
AcDbEntity
  8
細線
100
AcDbLine
 10
5915.673057123658
 20
4360.770620748138
 30
0.0
 11
5989.673057123659
 21
4360.770620748138
 31
0.0
  0
LINE
  5
19CAB
330
747D
100
AcDbEntity
  8
細線
100
AcDbLine
 10
6063.673057123658
 20
4337.770620748139
 30
0.0
 11
5989.673057123659
 21
4337.770620748139
 31
0.0
  0
LINE
  5
19CAC
330
747D
100
AcDbEntity
  8
細線
100
AcDbLine
 10
5989.673057123659
 20
4360.770620748138
 30
0.0
 11
6063.673057123658
 21
4360.770620748138
 31
0.0
  0
LINE
  5
19CAD
330
747D
100
AcDbEntity
  8
細線
100
AcDbLine
 10
5989.673057123659
 20
4337.770620748139
 30
0.0
 11
5915.673057123658
 21
4337.770620748139
 31
0.0
  0
ARC
  5
19CAE
330
747D
100
AcDbEntity
  8
部品1
 48
0.01
100
AcDbCircle
 10
6077.673057123658
 20
4365.270620748138
 30
0.0
 40
2.0
100
AcDbArc
 50
0.0
 51
90.0
  0
ARC
  5
19CAF
330
747D
100
AcDbEntity
  8
部品1
 48
0.01
100
AcDbCircle
 10
5901.673057123659
 20
4365.270620748138
 30
0.0
 40
2.0
100
AcDbArc
 50
90.0
 51
180.0
  0
ARC
  5
19CB0
330
747D
100
AcDbEntity
  8
部品1
 48
0.01
100
AcDbCircle
 10
4847.673057123655
 20
4333.770620748139
 30
0.0
 40
2.0
100
AcDbArc
 50
270.0
 51
0.0
  0
ARC
  5
19CB1
330
747D
100
AcDbEntity
  8
部品1
 48
0.01
100
AcDbCircle
 10
4671.673057123658
 20
4333.770620748139
 30
0.0
 40
2.0
100
AcDbArc
 50
180.0
 51
270.0
  0
LINE
  5
19CB2
330
747D
100
AcDbEntity
  8
部品1
 48
0.01
100
AcDbLine
 10
4671.673057123658
 20
4331.770620748138
 30
0.0
 11
4847.673057123655
 21
4331.770620748138
 31
0.0
  0
LINE
  5
19CB3
330
747D
100
AcDbEntity
  8
部品1
 48
0.01
100
AcDbLine
 10
6077.673057123658
 20
4331.770620748138
 30
0.0
 11
5901.673057123659
 21
4331.770620748138
 31
0.0
  0
ARC
  5
19CB4
330
747D
100
AcDbEntity
  8
部品1
 48
0.01
100
AcDbCircle
 10
6077.673057123658
 20
4333.770620748139
 30
0.0
 40
2.0
100
AcDbArc
 50
270.0
 51
0.0
  0
ARC
  5
19CB5
330
747D
100
AcDbEntity
  8
部品1
 48
0.01
100
AcDbCircle
 10
5901.673057123659
 20
4333.770620748139
 30
0.0
 40
2.0
100
AcDbArc
 50
180.0
 51
270.0
  0
ARC
  5
19CB6
330
747D
100
AcDbEntity
  8
細線
 48
50.0
100
AcDbCircle
 10
5074.673057123654
 20
2723.770620748139
 30
0.0
 40
15.0
100
AcDbArc
 50
90.0
 51
270.0
  0
ARC
  5
19CB7
330
747D
100
AcDbEntity
  8
細線
 48
50.0
100
AcDbCircle
 10
5174.673057123655
 20
2723.770620748139
 30
0.0
 40
15.0
100
AcDbArc
 50
270.0
 51
90.0
  0
LINE
  5
19CB8
330
747D
100
AcDbEntity
  8
細線
 48
50.0
100
AcDbLine
 10
5074.673057123654
 20
2738.770620748139
 30
0.0
 11
5174.673057123655
 21
2738.770620748139
 31
0.0
  0
LINE
  5
19CB9
330
747D
100
AcDbEntity
  8
細線
 48
50.0
100
AcDbLine
 10
5174.673057123655
 20
2708.770620748139
 30
0.0
 11
5074.673057123654
 21
2708.770620748139
 31
0.0
  0
LINE
  5
19CBA
330
747D
100
AcDbEntity
  8
細線
 48
50.0
100
AcDbLine
 10
5674.673057123655
 20
2708.770620748139
 30
0.0
 11
5574.673057123654
 21
2708.770620748139
 31
0.0
  0
LINE
  5
19CBB
330
747D
100
AcDbEntity
  8
細線
 48
50.0
100
AcDbLine
 10
5574.673057123654
 20
2738.770620748139
 30
0.0
 11
5674.673057123655
 21
2738.770620748139
 31
0.0
  0
ARC
  5
19CBC
330
747D
100
AcDbEntity
  8
細線
 48
50.0
100
AcDbCircle
 10
5574.673057123654
 20
2723.770620748139
 30
0.0
 40
15.0
100
AcDbArc
 50
90.0
 51
270.0
  0
ARC
  5
19CBD
330
747D
100
AcDbEntity
  8
細線
 48
50.0
100
AcDbCircle
 10
5674.673057123655
 20
2723.770620748139
 30
0.0
 40
15.0
100
AcDbArc
 50
270.0
 51
90.0
  0
LINE
  5
19CBF
330
747D
100
AcDbEntity
  8
部品1
 48
0.01
100
AcDbLine
 10
7301.673057123659
 20
4331.770620748138
 30
0.0
 11
7477.673057123656
 21
4331.770620748138
 31
0.0
  0
ARC
  5
19CC0
330
747D
100
AcDbEntity
  8
部品1
 48
0.01
100
AcDbCircle
 10
7301.673057123659
 20
4333.770620748139
 30
0.0
 40
2.0
100
AcDbArc
 50
180.0
 51
270.0
  0
ARC
  5
19CC1
330
747D
100
AcDbEntity
  8
部品1
 48
0.01
100
AcDbCircle
 10
7477.673057123656
 20
4333.770620748139
 30
0.0
 40
2.0
100
AcDbArc
 50
270.0
 51
0.0
  0
LINE
  5
19CC2
330
747D
100
AcDbEntity
  8
細線
100
AcDbLine
 10
7389.673057123658
 20
4360.770620748138
 30
0.0
 11
7389.673057123655
 21
4337.770620748139
 31
0.0
  0
LINE
  5
19CC3
330
747D
100
AcDbEntity
  8
細線
100
AcDbLine
 10
7463.673057123656
 20
4348.770620748139
 30
0.0
 11
7389.673057123658
 21
4348.770620748139
 31
0.0
  0
LINE
  5
19CC4
330
747D
100
AcDbEntity
  8
細線
100
AcDbLine
 10
7463.673057123656
 20
4342.770620748138
 30
0.0
 11
7389.673057123658
 21
4342.770620748138
 31
0.0
  0
LINE
  5
19CC5
330
747D
100
AcDbEntity
  8
細線
100
AcDbLine
 10
7463.673057123656
 20
4354.770620748139
 30
0.0
 11
7389.673057123658
 21
4354.770620748139
 31
0.0
  0
LINE
  5
19CC6
330
747D
100
AcDbEntity
  8
細線
100
AcDbLine
 10
7315.673057123659
 20
4354.770620748139
 30
0.0
 11
7384.673057123659
 21
4354.770620748139
 31
0.0
  0
LINE
  5
19CC7
330
747D
100
AcDbEntity
  8
細線
100
AcDbLine
 10
7315.673057123655
 20
4342.770620748138
 30
0.0
 11
7389.673057123658
 21
4342.770620748138
 31
0.0
  0
LINE
  5
19CC8
330
747D
100
AcDbEntity
  8
細線
100
AcDbLine
 10
7315.673057123659
 20
4348.770620748139
 30
0.0
 11
7389.673057123658
 21
4348.770620748139
 31
0.0
  0
LINE
  5
19CC9
330
747D
100
AcDbEntity
  8
細線
100
AcDbLine
 10
7315.673057123659
 20
4354.770620748139
 30
0.0
 11
7389.673057123658
 21
4354.770620748139
 31
0.0
  0
LINE
  5
19CCA
330
747D
100
AcDbEntity
  8
部品1
 48
0.01
100
AcDbLine
 10
7477.673057123658
 20
4367.270620748139
 30
0.0
 11
7301.673057123659
 21
4367.270620748139
 31
0.0
  0
LINE
  5
19CCB
330
747D
100
AcDbEntity
  8
部品1
 48
0.01
100
AcDbLine
 10
7299.673057123658
 20
4365.270620748138
 30
0.0
 11
7299.673057123658
 21
4333.770620748139
 31
0.0
  0
LINE
  5
19CCC
330
747D
100
AcDbEntity
  8
部品1
 48
0.01
100
AcDbLine
 10
7479.673057123655
 20
4333.770620748139
 30
0.0
 11
7479.673057123658
 21
4365.270620748138
 31
0.0
  0
LINE
  5
19CCD
330
747D
100
AcDbEntity
  8
細線
100
AcDbLine
 10
7315.673057123659
 20
4360.770620748138
 30
0.0
 11
7315.673057123659
 21
4337.770620748139
 31
0.0
  0
LINE
  5
19CCE
330
747D
100
AcDbEntity
  8
細線
100
AcDbLine
 10
7463.673057123658
 20
4337.770620748139
 30
0.0
 11
7463.673057123658
 21
4360.770620748138
 31
0.0
  0
LINE
  5
19CCF
330
747D
100
AcDbEntity
  8
細線
100
AcDbLine
 10
7463.673057123658
 20
4360.770620748138
 30
0.0
 11
7389.673057123658
 21
4360.770620748138
 31
0.0
  0
LINE
  5
19CD0
330
747D
100
AcDbEntity
  8
細線
100
AcDbLine
 10
7315.673057123659
 20
4337.770620748139
 30
0.0
 11
7389.673057123658
 21
4337.770620748139
 31
0.0
  0
LINE
  5
19CD1
330
747D
100
AcDbEntity
  8
細線
100
AcDbLine
 10
7389.673057123658
 20
4360.770620748138
 30
0.0
 11
7315.673057123659
 21
4360.770620748138
 31
0.0
  0
LINE
  5
19CD2
330
747D
100
AcDbEntity
  8
細線
100
AcDbLine
 10
7389.673057123655
 20
4337.770620748139
 30
0.0
 11
7463.673057123658
 21
4337.770620748139
 31
0.0
  0
ARC
  5
19CD3
330
747D
100
AcDbEntity
  8
部品1
 48
0.01
100
AcDbCircle
 10
7301.673057123659
 20
4365.270620748138
 30
0.0
 40
2.0
100
AcDbArc
 50
90.0
 51
180.0
  0
ARC
  5
19CD4
330
747D
100
AcDbEntity
  8
部品1
 48
0.01
100
AcDbCircle
 10
7477.673057123658
 20
4365.270620748138
 30
0.0
 40
2.0
100
AcDbArc
 50
0.0
 51
90.0
  0
ARC
  5
19CD5
330
747D
100
AcDbEntity
  8
部品1
 48
0.01
100
AcDbCircle
 10
8531.67305712366
 20
4333.770620748139
 30
0.0
 40
2.0
100
AcDbArc
 50
180.0
 51
270.0
  0
ARC
  5
19CD6
330
747D
100
AcDbEntity
  8
部品1
 48
0.01
100
AcDbCircle
 10
8707.673057123658
 20
4333.770620748139
 30
0.0
 40
2.0
100
AcDbArc
 50
270.0
 51
0.0
  0
LINE
  5
19CD7
330
747D
100
AcDbEntity
  8
部品1
 48
0.01
100
AcDbLine
 10
8707.673057123658
 20
4331.770620748138
 30
0.0
 11
8531.67305712366
 21
4331.770620748138
 31
0.0
  0
ARC
  5
19CD8
330
747D
100
AcDbEntity
  8
部品1
 48
0.01
100
AcDbCircle
 10
8531.67305712366
 20
4365.270620748138
 30
0.0
 40
2.0
100
AcDbArc
 50
90.0
 51
180.0
  0
ARC
  5
19CD9
330
747D
100
AcDbEntity
  8
部品1
 48
0.01
100
AcDbCircle
 10
8707.673057123658
 20
4365.270620748138
 30
0.0
 40
2.0
100
AcDbArc
 50
0.0
 51
90.0
  0
LINE
  5
19CDA
330
747D
100
AcDbEntity
  8
細線
100
AcDbLine
 10
8619.673057123659
 20
4337.770620748139
 30
0.0
 11
8545.673057123659
 21
4337.770620748139
 31
0.0
  0
LINE
  5
19CDB
330
747D
100
AcDbEntity
  8
細線
100
AcDbLine
 10
8619.673057123659
 20
4360.770620748138
 30
0.0
 11
8693.673057123659
 21
4360.770620748138
 31
0.0
  0
LINE
  5
19CDC
330
747D
100
AcDbEntity
  8
細線
100
AcDbLine
 10
8693.673057123659
 20
4337.770620748139
 30
0.0
 11
8619.673057123659
 21
4337.770620748139
 31
0.0
  0
LINE
  5
19CDD
330
747D
100
AcDbEntity
  8
細線
100
AcDbLine
 10
8545.673057123659
 20
4360.770620748138
 30
0.0
 11
8619.673057123659
 21
4360.770620748138
 31
0.0
  0
LINE
  5
19CDE
330
747D
100
AcDbEntity
  8
細線
100
AcDbLine
 10
8545.673057123659
 20
4337.770620748139
 30
0.0
 11
8545.673057123659
 21
4360.770620748138
 31
0.0
  0
LINE
  5
19CDF
330
747D
100
AcDbEntity
  8
細線
100
AcDbLine
 10
8693.673057123659
 20
4360.770620748138
 30
0.0
 11
8693.673057123659
 21
4337.770620748139
 31
0.0
  0
LINE
  5
19CE0
330
747D
100
AcDbEntity
  8
部品1
 48
0.01
100
AcDbLine
 10
8529.673057123657
 20
4333.770620748139
 30
0.0
 11
8529.673057123657
 21
4365.270620748138
 31
0.0
  0
LINE
  5
19CE1
330
747D
100
AcDbEntity
  8
部品1
 48
0.01
100
AcDbLine
 10
8709.673057123659
 20
4365.270620748138
 30
0.0
 11
8709.673057123659
 21
4333.770620748139
 31
0.0
  0
LINE
  5
19CE2
330
747D
100
AcDbEntity
  8
部品1
 48
0.01
100
AcDbLine
 10
8531.67305712366
 20
4367.270620748139
 30
0.0
 11
8707.673057123658
 21
4367.270620748139
 31
0.0
  0
LINE
  5
19CE3
330
747D
100
AcDbEntity
  8
細線
100
AcDbLine
 10
8693.673057123659
 20
4354.770620748139
 30
0.0
 11
8619.673057123659
 21
4354.770620748139
 31
0.0
  0
LINE
  5
19CE4
330
747D
100
AcDbEntity
  8
細線
100
AcDbLine
 10
8693.673057123659
 20
4348.770620748139
 30
0.0
 11
8619.673057123659
 21
4348.770620748139
 31
0.0
  0
LINE
  5
19CE5
330
747D
100
AcDbEntity
  8
細線
100
AcDbLine
 10
8693.673057123659
 20
4342.770620748138
 30
0.0
 11
8619.673057123659
 21
4342.770620748138
 31
0.0
  0
LINE
  5
19CE6
330
747D
100
AcDbEntity
  8
細線
100
AcDbLine
 10
8693.673057123659
 20
4354.770620748139
 30
0.0
 11
8624.673057123658
 21
4354.770620748139
 31
0.0
  0
LINE
  5
19CE7
330
747D
100
AcDbEntity
  8
細線
100
AcDbLine
 10
8545.673057123659
 20
4354.770620748139
 30
0.0
 11
8619.673057123659
 21
4354.770620748139
 31
0.0
  0
LINE
  5
19CE8
330
747D
100
AcDbEntity
  8
細線
100
AcDbLine
 10
8545.673057123659
 20
4342.770620748138
 30
0.0
 11
8619.673057123659
 21
4342.770620748138
 31
0.0
  0
LINE
  5
19CE9
330
747D
100
AcDbEntity
  8
細線
100
AcDbLine
 10
8545.673057123659
 20
4348.770620748139
 30
0.0
 11
8619.673057123659
 21
4348.770620748139
 31
0.0
  0
LINE
  5
19CEA
330
747D
100
AcDbEntity
  8
細線
100
AcDbLine
 10
8619.673057123659
 20
4360.770620748138
 30
0.0
 11
8619.673057123659
 21
4337.770620748139
 31
0.0
  0
ARC
  5
19CEB
330
747D
100
AcDbEntity
  8
細線
 48
50.0
100
AcDbCircle
 10
8304.673057123656
 20
2723.770620748139
 30
0.0
 40
15.0
100
AcDbArc
 50
270.0
 51
90.0
  0
ARC
  5
19CEC
330
747D
100
AcDbEntity
  8
細線
 48
50.0
100
AcDbCircle
 10
8204.673057123654
 20
2723.770620748139
 30
0.0
 40
15.0
100
AcDbArc
 50
90.0
 51
270.0
  0
LINE
  5
19CED
330
747D
100
AcDbEntity
  8
細線
 48
50.0
100
AcDbLine
 10
8204.673057123654
 20
2738.770620748139
 30
0.0
 11
8304.673057123656
 21
2738.770620748139
 31
0.0
  0
LINE
  5
19CEE
330
747D
100
AcDbEntity
  8
細線
 48
50.0
100
AcDbLine
 10
8304.673057123656
 20
2708.770620748139
 30
0.0
 11
8204.673057123654
 21
2708.770620748139
 31
0.0
  0
LINE
  5
19CEF
330
747D
100
AcDbEntity
  8
細線
 48
50.0
100
AcDbLine
 10
7804.673057123655
 20
2708.770620748139
 30
0.0
 11
7704.673057123655
 21
2708.770620748139
 31
0.0
  0
LINE
  5
19CF0
330
747D
100
AcDbEntity
  8
細線
 48
50.0
100
AcDbLine
 10
7704.673057123655
 20
2738.770620748139
 30
0.0
 11
7804.673057123655
 21
2738.770620748139
 31
0.0
  0
ARC
  5
19CF1
330
747D
100
AcDbEntity
  8
細線
 48
50.0
100
AcDbCircle
 10
7804.673057123655
 20
2723.770620748139
 30
0.0
 40
15.0
100
AcDbArc
 50
270.0
 51
90.0
  0
ARC
  5
19CF2
330
747D
100
AcDbEntity
  8
細線
 48
50.0
100
AcDbCircle
 10
7704.673057123655
 20
2723.770620748139
 30
0.0
 40
15.0
100
AcDbArc
 50
90.0
 51
270.0
  0
CIRCLE
  5
19CF3
330
747D
100
AcDbEntity
  8
細線
 48
50.0
100
AcDbCircle
 10
8004.673057123655
 20
3048.770620748139
 30
0.0
 40
18.0
  0
ENDSEC
  0
SECTION
  2
OBJECTS
  0
DICTIONARY
  5
7471
330
0
100
AcDbDictionary
281
     1
  3
ACAD_COLOR
350
17AE2
  3
ACAD_GROUP
350
7472
  3
ACAD_LAYOUT
350
17AE3
  3
ACAD_MATERIAL
350
17AE1
  3
ACAD_MLINESTYLE
350
7473
  3
ACAD_PLOTSETTINGS
350
17AE4
  3
ACAD_PLOTSTYLENAME
350
17ADF
  3
ACDBHEADERROUNDTRIPXREC
350
19D23
  3
AcDbVariableDictionary
350
19D1F
  3
CONTENTDICTIONARY
350
E71C
  3
DRAWINGVARIABLESDICT
350
F3B9
  0
DICTIONARY
  5
18547
330
7467
100
AcDbDictionary
280
     1
281
     1
  3
ACAD_LAYERSTATES
360
18548
  0
DICTIONARY
  5
17AE2
102
{ACAD_REACTORS
330
7471
102
}
330
7471
100
AcDbDictionary
281
     1
  0
DICTIONARY
  5
7472
102
{ACAD_REACTORS
330
7471
102
}
330
7471
100
AcDbDictionary
281
     1
  3
*A1
350
17FA7
  3
*A2
350
180C7
  3
*A3
350
180D2
  0
DICTIONARY
  5
17AE3
102
{ACAD_REACTORS
330
7471
102
}
330
7471
100
AcDbDictionary
281
     1
  3
Model
350
17AE5
  3
レイアウト1
350
17AE6
  0
DICTIONARY
  5
17AE1
102
{ACAD_REACTORS
330
7471
102
}
330
7471
100
AcDbDictionary
281
     1
  0
DICTIONARY
  5
7473
102
{ACAD_REACTORS
330
7471
102
}
330
7471
100
AcDbDictionary
281
     1
  3
STANDARD
350
7480
  0
DICTIONARY
  5
17AE4
102
{ACAD_REACTORS
330
7471
102
}
330
7471
100
AcDbDictionary
281
     1
  0
ACDBDICTIONARYWDFLT
  5
17ADF
102
{ACAD_REACTORS
330
7471
102
}
330
7471
100
AcDbDictionary
281
     1
  3
Normal
350
17AE0
100
AcDbDictionaryWithDefault
340
17AE0
  0
DICTIONARY
  5
19D23
102
{ACAD_REACTORS
330
7471
102
}
330
7471
100
AcDbDictionary
281
     1
  3
COLORDICT
350
19D25
  3
MATERIALDICT
350
19D24
  0
DICTIONARY
  5
19D1F
102
{ACAD_REACTORS
330
7471
102
}
330
7471
100
AcDbDictionary
281
     1
  3
DIMASSOC
350
19D20
  3
PROJECTNAME
350
19D21
  0
DICTIONARY
  5
E71C
102
{ACAD_REACTORS
330
7471
102
}
330
7471
100
AcDbDictionary
281
     1
  0
DICTIONARY
  5
F3B9
102
{ACAD_REACTORS
330
7471
102
}
330
7471
100
AcDbDictionary
281
     1
1001
DRAWINGVARIABLESXDATA
1000
POLARMODE
1000
1
  0
DICTIONARY
  5
18548
102
{ACAD_REACTORS
330
18547
102
}
330
18547
100
AcDbDictionary
281
     1
  0
GROUP
  5
17FA7
102
{ACAD_REACTORS
330
7472
102
}
330
7472
100
AcDbGroup
300

 70
     1
 71
     1
  0
GROUP
  5
180C7
102
{ACAD_REACTORS
330
7472
102
}
330
7472
100
AcDbGroup
300

 70
     1
 71
     1
  0
GROUP
  5
180D2
102
{ACAD_REACTORS
330
7472
102
}
330
7472
100
AcDbGroup
300

 70
     1
 71
     1
  0
LAYOUT
  5
17AE5
102
{ACAD_XDICTIONARY
360
19D26
102
}
102
{ACAD_REACTORS
330
17AE3
102
}
330
17AE3
100
AcDbPlotSettings
  1

  2
Canon iR C3880/C4580 LIPSLX
  4
A3
  6

 40
5.873749732971191
 41
5.873747825622558
 42
5.873748779296875
 43
5.873748779296875
 44
296.9259948730469
 45
419.9466552734374
 46
0.0
 47
0.0
 48
0.0
 49
0.0
140
0.0
141
0.0
142
1.0
143
40.0
 70
 11952
 72
     1
 73
     1
 74
     2
  7
inaba.ctb
 75
    24
147
0.025
148
0.0
149
0.0
100
AcDbLayout
  1
Model
 70
     1
 71
     0
 10
0.0
 20
0.0
 11
12.0
 21
9.0
 12
0.0
 22
0.0
 32
0.0
 14
0.0
 24
0.0
 34
0.0
 15
0.0
 25
0.0
 35
0.0
146
0.0
 13
0.0
 23
0.0
 33
0.0
 16
1.0
 26
0.0
 36
0.0
 17
0.0
 27
1.0
 37
0.0
 76
     0
330
747D
  0
LAYOUT
  5
17AE6
102
{ACAD_XDICTIONARY
360
19D28
102
}
102
{ACAD_REACTORS
330
17AE3
102
}
330
17AE3
100
AcDbPlotSettings
  1

  2
EPSON LP-8300
  4

  6

 40
0.0
 41
0.0
 42
0.0
 43
0.0
 44
0.0
 45
0.0
 46
0.0
 47
0.0
 48
0.0
 49
0.0
140
0.0
141
0.0
142
1.0
143
1.0
 70
   688
 72
     0
 73
     0
 74
     5
  7
inaba.ctb
 75
    16
147
1.0
148
0.0
149
0.0
100
AcDbLayout
  1
レイアウト1
 70
     0
 71
     1
 10
0.0
 20
0.0
 11
420.0
 21
297.0
 12
0.0
 22
0.0
 32
0.0
 14
1.000000000000000E+20
 24
1.000000000000000E+20
 34
1.000000000000000E+20
 15
-1.000000000000000E+20
 25
-1.000000000000000E+20
 35
-1.000000000000000E+20
146
0.0
 13
0.0
 23
0.0
 33
0.0
 16
1.0
 26
0.0
 36
0.0
 17
0.0
 27
1.0
 37
0.0
 76
     0
330
747A
  0
MLINESTYLE
  5
7480
102
{ACAD_REACTORS
330
7473
102
}
330
7473
100
AcDbMlineStyle
  2
STANDARD
 70
     0
  3

 62
     0
 51
90.0
 52
90.0
 71
     2
 49
0.5
 62
   256
  6
BYLAYER
 49
-0.5
 62
   256
  6
BYLAYER
  0
ACDBPLACEHOLDER
  5
17AE0
102
{ACAD_REACTORS
330
17ADF
102
}
330
17ADF
  0
XRECORD
  5
19D25
102
{ACAD_REACTORS
330
19D23
102
}
330
19D23
100
AcDbXrecord
280
     1
340
17AE2
  0
XRECORD
  5
19D24
102
{ACAD_REACTORS
330
19D23
102
}
330
19D23
100
AcDbXrecord
280
     1
340
17AE1
  0
DICTIONARYVAR
  5
19D20
102
{ACAD_REACTORS
330
19D1F
102
}
330
19D1F
100
DictionaryVariables
280
     0
  1
1
  0
DICTIONARYVAR
  5
19D21
102
{ACAD_REACTORS
330
19D1F
102
}
330
19D1F
100
DictionaryVariables
280
     0
  1

  0
DICTIONARY
  5
19D26
330
17AE5
100
AcDbDictionary
280
     1
281
     1
  3
ACAD_XREC_ROUNDTRIP
360
19D27
  0
DICTIONARY
  5
19D28
330
17AE6
100
AcDbDictionary
280
     1
281
     1
  3
ACAD_XREC_ROUNDTRIP
360
19D29
  0
XRECORD
  5
19D27
102
{ACAD_REACTORS
330
19D26
102
}
330
19D26
100
AcDbXrecord
280
     1
102
SHADEPLOT
 70
     0
102
SHADEPLOTRESLEVEL
 70
     2
102
SHADEPLOTCUSTOMDPI
 70
   300
  0
XRECORD
  5
19D29
102
{ACAD_REACTORS
330
19D28
102
}
330
19D28
100
AcDbXrecord
280
     1
102
SHADEPLOT
 70
     0
102
SHADEPLOTRESLEVEL
 70
     2
102
SHADEPLOTCUSTOMDPI
 70
   300
  0
ENDSEC
  0
EOF
