  0
SECTION
  2
HEADER
  9
$ACADVER
  1
AC1015
  9
$ACADMAINTVER
 70
    20
  9
$DWGCODEPAGE
  3
ANSI_932
  9
$INSBASE
 10
0.0
 20
0.0
 30
0.0
  9
$EXTMIN
 10
139.9999999999995
 20
-0.0000000000000909
 30
0.0
  9
$EXTMAX
 10
16307.2
 20
11409.6
 30
0.0
  9
$LIMMIN
 10
0.0
 20
0.0
  9
$LIMMAX
 10
16800.0
 20
11880.0
  9
$ORTHOMODE
 70
     0
  9
$REGENMODE
 70
     1
  9
$FILLMODE
 70
     1
  9
$QTEXTMODE
 70
     0
  9
$MIRRTEXT
 70
     1
  9
$LTSCALE
 40
20.0
  9
$ATTMODE
 70
     1
  9
$TEXTSIZE
 40
4.0
  9
$TRACEWID
 40
1.0
  9
$TEXTSTYLE
  7
MSPゴシック
  9
$CLAYER
  8
寸法
  9
$CELTYPE
  6
BYLAYER
  9
$CECOLOR
 62
   256
  9
$CELTSCALE
 40
50.0
  9
$DISPSILH
 70
     0
  9
$DIMSCALE
 40
40.0
  9
$DIMASZ
 40
2.5
  9
$DIMEXO
 40
0.5
  9
$DIMDLI
 40
7.0
  9
$DIMRND
 40
0.0
  9
$DIMDLE
 40
0.0
  9
$DIMEXE
 40
1.5
  9
$DIMTP
 40
0.0
  9
$DIMTM
 40
0.0
  9
$DIMTXT
 40
3.0
  9
$DIMCEN
 40
0.0
  9
$DIMTSZ
 40
0.0
  9
$DIMTOL
 70
     0
  9
$DIMLIM
 70
     0
  9
$DIMTIH
 70
     0
  9
$DIMTOH
 70
     0
  9
$DIMSE1
 70
     0
  9
$DIMSE2
 70
     0
  9
$DIMTAD
 70
     3
  9
$DIMZIN
 70
     8
  9
$DIMBLK
  1

  9
$DIMASO
 70
     1
  9
$DIMSHO
 70
     1
  9
$DIMPOST
  1

  9
$DIMAPOST
  1

  9
$DIMALT
 70
     0
  9
$DIMALTD
 70
     2
  9
$DIMALTF
 40
0.0394
  9
$DIMLFAC
 40
1.0
  9
$DIMTOFL
 70
     1
  9
$DIMTVP
 40
0.0
  9
$DIMTIX
 70
     1
  9
$DIMSOXD
 70
     0
  9
$DIMSAH
 70
     1
  9
$DIMBLK1
  1
DOTSMALL
  9
$DIMBLK2
  1
DOTSMALL
  9
$DIMSTYLE
  2
INABA_S40G
  9
$DIMCLRD
 70
     0
  9
$DIMCLRE
 70
     0
  9
$DIMCLRT
 70
     7
  9
$DIMTFAC
 40
1.0
  9
$DIMGAP
 40
1.0
  9
$DIMJUST
 70
     0
  9
$DIMSD1
 70
     0
  9
$DIMSD2
 70
     0
  9
$DIMTOLJ
 70
     1
  9
$DIMTZIN
 70
     0
  9
$DIMALTZ
 70
     0
  9
$DIMALTTZ
 70
     0
  9
$DIMUPT
 70
     0
  9
$DIMDEC
 70
     1
  9
$DIMTDEC
 70
     4
  9
$DIMALTU
 70
     2
  9
$DIMALTTD
 70
     2
  9
$DIMTXSTY
  7
STYLE1
  9
$DIMAUNIT
 70
     0
  9
$DIMADEC
 70
     0
  9
$DIMALTRND
 40
0.0
  9
$DIMAZIN
 70
     0
  9
$DIMDSEP
 70
    46
  9
$DIMATFIT
 70
     3
  9
$DIMFRAC
 70
     0
  9
$DIMLDRBLK
  1

  9
$DIMLUNIT
 70
     2
  9
$DIMLWD
 70
    -2
  9
$DIMLWE
 70
    -2
  9
$DIMTMOVE
 70
     2
  9
$LUNITS
 70
     2
  9
$LUPREC
 70
     1
  9
$SKETCHINC
 40
1.0
  9
$FILLETRAD
 40
3.0
  9
$AUNITS
 70
     0
  9
$AUPREC
 70
     0
  9
$MENU
  1
acad
  9
$ELEVATION
 40
0.0
  9
$PELEVATION
 40
0.0
  9
$THICKNESS
 40
0.0
  9
$LIMCHECK
 70
     0
  9
$CHAMFERA
 40
0.0
  9
$CHAMFERB
 40
0.0
  9
$CHAMFERC
 40
0.0
  9
$CHAMFERD
 40
0.0
  9
$SKPOLY
 70
     0
  9
$TDCREATE
 40
2451368.612993866
  9
$TDUCREATE
 40
2451368.237993866
  9
$TDUPDATE
 40
2455569.646373507
  9
$TDUUPDATE
 40
2455569.271373507
  9
$TDINDWG
 40
0.8399127199
  9
$TDUSRTIMER
 40
0.8399121759
  9
$USRTIMER
 70
     1
  9
$ANGBASE
 50
0.0
  9
$ANGDIR
 70
     0
  9
$PDMODE
 70
     3
  9
$PDSIZE
 40
2.0
  9
$PLINEWID
 40
0.0
  9
$SPLFRAME
 70
     0
  9
$SPLINETYPE
 70
     6
  9
$SPLINESEGS
 70
     8
  9
$HANDSEED
  5
1B093
  9
$SURFTAB1
 70
     6
  9
$SURFTAB2
 70
     6
  9
$SURFTYPE
 70
     6
  9
$SURFU
 70
     6
  9
$SURFV
 70
     6
  9
$UCSBASE
  2

  9
$UCSNAME
  2

  9
$UCSORG
 10
0.0
 20
0.0
 30
0.0
  9
$UCSXDIR
 10
1.0
 20
0.0
 30
0.0
  9
$UCSYDIR
 10
0.0
 20
1.0
 30
0.0
  9
$UCSORTHOREF
  2

  9
$UCSORTHOVIEW
 70
     0
  9
$UCSORGTOP
 10
0.0
 20
0.0
 30
0.0
  9
$UCSORGBOTTOM
 10
0.0
 20
0.0
 30
0.0
  9
$UCSORGLEFT
 10
0.0
 20
0.0
 30
0.0
  9
$UCSORGRIGHT
 10
0.0
 20
0.0
 30
0.0
  9
$UCSORGFRONT
 10
0.0
 20
0.0
 30
0.0
  9
$UCSORGBACK
 10
0.0
 20
0.0
 30
0.0
  9
$PUCSBASE
  2

  9
$PUCSNAME
  2

  9
$PUCSORG
 10
0.0
 20
0.0
 30
0.0
  9
$PUCSXDIR
 10
1.0
 20
0.0
 30
0.0
  9
$PUCSYDIR
 10
0.0
 20
1.0
 30
0.0
  9
$PUCSORTHOREF
  2

  9
$PUCSORTHOVIEW
 70
     0
  9
$PUCSORGTOP
 10
0.0
 20
0.0
 30
0.0
  9
$PUCSORGBOTTOM
 10
0.0
 20
0.0
 30
0.0
  9
$PUCSORGLEFT
 10
0.0
 20
0.0
 30
0.0
  9
$PUCSORGRIGHT
 10
0.0
 20
0.0
 30
0.0
  9
$PUCSORGFRONT
 10
0.0
 20
0.0
 30
0.0
  9
$PUCSORGBACK
 10
0.0
 20
0.0
 30
0.0
  9
$USERI1
 70
     0
  9
$USERI2
 70
     0
  9
$USERI3
 70
     0
  9
$USERI4
 70
     0
  9
$USERI5
 70
     0
  9
$USERR1
 40
0.0
  9
$USERR2
 40
0.0
  9
$USERR3
 40
0.0
  9
$USERR4
 40
0.0
  9
$USERR5
 40
0.0
  9
$WORLDVIEW
 70
     1
  9
$SHADEDGE
 70
     3
  9
$SHADEDIF
 70
    70
  9
$TILEMODE
 70
     1
  9
$MAXACTVP
 70
    16
  9
$PINSBASE
 10
0.0
 20
0.0
 30
0.0
  9
$PLIMCHECK
 70
     0
  9
$PEXTMIN
 10
1.000000000000000E+20
 20
1.000000000000000E+20
 30
1.000000000000000E+20
  9
$PEXTMAX
 10
-1.000000000000000E+20
 20
-1.000000000000000E+20
 30
-1.000000000000000E+20
  9
$PLIMMIN
 10
0.0
 20
0.0
  9
$PLIMMAX
 10
420.0
 20
297.0
  9
$UNITMODE
 70
     0
  9
$VISRETAIN
 70
     0
  9
$PLINEGEN
 70
     0
  9
$PSLTSCALE
 70
     0
  9
$TREEDEPTH
 70
  3020
  9
$CMLSTYLE
  2
STANDARD
  9
$CMLJUST
 70
     0
  9
$CMLSCALE
 40
1.0
  9
$PROXYGRAPHICS
 70
     1
  9
$MEASUREMENT
 70
     1
  9
$CELWEIGHT
370
    -1
  9
$ENDCAPS
280
     0
  9
$JOINSTYLE
280
     0
  9
$LWDISPLAY
290
     0
  9
$INSUNITS
 70
     0
  9
$HYPERLINKBASE
  1

  9
$STYLESHEET
  1
inaba.ctb
  9
$XEDIT
290
     1
  9
$CEPSNTYPE
380
     0
  9
$PSTYLEMODE
290
     1
  9
$FINGERPRINTGUID
  2
{0E4A3AB3-ADAA-44DC-861C-9525B65BB1EC}
  9
$VERSIONGUID
  2
{14EEE49D-24D8-4D1C-A6B6-2A1624E0AC76}
  9
$EXTNAMES
290
     1
  9
$PSVPSCALE
 40
0.0
  9
$OLESTARTUP
290
     0
  0
ENDSEC
  0
SECTION
  2
CLASSES
  0
CLASS
  1
ACDBDICTIONARYWDFLT
  2
AcDbDictionaryWithDefault
  3
ObjectDBX Classes
 90
        0
280
     0
281
     0
  0
CLASS
  1
DICTIONARYVAR
  2
AcDbDictionaryVar
  3
ObjectDBX Classes
 90
        0
280
     0
281
     0
  0
CLASS
  1
ACDBPLACEHOLDER
  2
AcDbPlaceHolder
  3
ObjectDBX Classes
 90
        0
280
     0
281
     0
  0
CLASS
  1
LAYOUT
  2
AcDbLayout
  3
ObjectDBX Classes
 90
        0
280
     0
281
     0
  0
ENDSEC
  0
SECTION
  2
TABLES
  0
TABLE
  2
VPORT
  5
746D
330
0
100
AcDbSymbolTable
 70
     2
  0
VPORT
  5
1B08B
330
746D
100
AcDbSymbolTableRecord
100
AcDbViewportTableRecord
  2
*Active
 70
     0
 10
0.0
 20
0.0
 11
1.0
 21
1.0
 12
11720.20566079003
 22
5704.608130720468
 13
0.0
 23
0.0
 14
10.0
 24
10.0
 15
10.0
 25
10.0
 16
0.0
 26
0.0
 36
1.0
 17
0.0
 27
0.0
 37
0.0
 40
11513.77443642125
 41
2.234800838574423
 42
50.0
 43
0.0
 44
0.0
 50
0.0
 51
0.0
 71
     0
 72
     0
 73
     1
 74
     0
 75
     0
 76
     0
 77
     0
 78
     0
281
     0
 65
     1
110
0.0
120
0.0
130
0.0
111
1.0
121
0.0
131
0.0
112
0.0
122
1.0
132
0.0
 79
     0
146
0.0
  0
ENDTAB
  0
TABLE
  2
LTYPE
  5
746A
330
0
100
AcDbSymbolTable
 70
     3
  0
LTYPE
  5
7477
330
746A
100
AcDbSymbolTableRecord
100
AcDbLinetypeTableRecord
  2
BYBLOCK
 70
     0
  3

 72
    65
 73
     0
 40
0.0
  0
LTYPE
  5
7478
330
746A
100
AcDbSymbolTableRecord
100
AcDbLinetypeTableRecord
  2
BYLAYER
 70
     0
  3

 72
    65
 73
     0
 40
0.0
  0
LTYPE
  5
7479
330
746A
100
AcDbSymbolTableRecord
100
AcDbLinetypeTableRecord
  2
CONTINUOUS
 70
     0
  3
Solid line
 72
    65
 73
     0
 40
0.0
  0
LTYPE
  5
781A
330
746A
100
AcDbSymbolTableRecord
100
AcDbLinetypeTableRecord
  2
HIDDEN
 70
     0
  3
__ __ __ __ __ __ __ __ __ __ __ __ __ __ __ __
 72
    65
 73
     2
 40
0.375
 49
0.25
 74
     0
 49
-0.125
 74
     0
  0
LTYPE
  5
781B
330
746A
100
AcDbSymbolTableRecord
100
AcDbLinetypeTableRecord
  2
PHANTOM
 70
     0
  3
______  __  __  ______  __  __  ______  __  __ 
 72
    65
 73
     6
 40
2.5
 49
1.25
 74
     0
 49
-0.25
 74
     0
 49
0.25
 74
     0
 49
-0.25
 74
     0
 49
0.25
 74
     0
 49
-0.25
 74
     0
  0
ENDTAB
  0
TABLE
  2
LAYER
  5
7467
102
{ACAD_XDICTIONARY
360
18C51
102
}
330
0
100
AcDbSymbolTable
 70
    10
  0
LAYER
  5
7474
330
7467
100
AcDbSymbolTableRecord
100
AcDbLayerTableRecord
  2
0
 70
     0
 62
     7
  6
CONTINUOUS
370
    -3
390
17AE0
  0
LAYER
  5
DEB3
330
7467
100
AcDbSymbolTableRecord
100
AcDbLayerTableRecord
  2
寸法
 70
     0
 62
     4
  6
CONTINUOUS
370
    -3
390
17AE0
  0
LAYER
  5
DEB4
330
7467
100
AcDbSymbolTableRecord
100
AcDbLayerTableRecord
  2
部品1
 70
     0
 62
     7
  6
CONTINUOUS
370
    -3
390
17AE0
  0
LAYER
  5
DEB5
330
7467
100
AcDbSymbolTableRecord
100
AcDbLayerTableRecord
  2
補助
 70
     0
 62
    -1
  6
CONTINUOUS
370
    -3
390
17AE0
  0
LAYER
  5
DEB6
330
7467
100
AcDbSymbolTableRecord
100
AcDbLayerTableRecord
  2
文字
 70
     0
 62
     7
  6
CONTINUOUS
370
    -3
390
17AE0
  0
LAYER
  5
F255
330
7467
100
AcDbSymbolTableRecord
100
AcDbLayerTableRecord
  2
DEFPOINTS
 70
     0
 62
     7
  6
CONTINUOUS
290
     0
370
    -3
390
17AE0
  0
LAYER
  5
10B54
330
7467
100
AcDbSymbolTableRecord
100
AcDbLayerTableRecord
  2
仕様書枠
 70
     0
 62
   230
  6
CONTINUOUS
370
    -3
390
17AE0
  0
LAYER
  5
11729
330
7467
100
AcDbSymbolTableRecord
100
AcDbLayerTableRecord
  2
Ｇ．Ｌ
 70
     0
 62
    30
  6
CONTINUOUS
370
    -3
390
17AE0
  0
LAYER
  5
1173F
330
7467
100
AcDbSymbolTableRecord
100
AcDbLayerTableRecord
  2
細線
 70
     0
 62
     5
  6
CONTINUOUS
370
    -3
390
17AE0
  0
LAYER
  5
142E2
330
7467
100
AcDbSymbolTableRecord
100
AcDbLayerTableRecord
  2
破線
 70
     0
 62
     2
  6
HIDDEN
370
    -3
390
17AE0
  0
ENDTAB
  0
TABLE
  2
STYLE
  5
7468
330
0
100
AcDbSymbolTable
 70
     7
  0
STYLE
  5
7475
330
7468
100
AcDbSymbolTableRecord
100
AcDbTextStyleTableRecord
  2
STANDARD
 70
     0
 40
0.0
 41
1.0
 50
0.0
 71
     0
 42
4.0
  3
txt
  4
C:\AutoCAD LT\bigfont.shx
  0
STYLE
  5
763C
330
7468
100
AcDbSymbolTableRecord
100
AcDbTextStyleTableRecord
  2
MSMINCHO
 70
     0
 40
0.0
 41
1.0
 50
0.0
 71
     0
 42
1.199999999999999
  3
MS PMincho.ttf
  4

1001
ACAD
1000
MS PMincho
1071
    32786
  0
STYLE
  5
F706
330
7468
100
AcDbSymbolTableRecord
100
AcDbTextStyleTableRecord
  2
STYLE1
 70
     0
 40
0.0
 41
1.0
 50
0.0
 71
     0
 42
4.0
  3
isocp.shx
  4
bigfont.shx
  0
STYLE
  5
103BF
330
7468
100
AcDbSymbolTableRecord
100
AcDbTextStyleTableRecord
  2
STYLE2
 70
     0
 40
0.0
 41
1.0
 50
0.0
 71
     0
 42
100.0
  3
MS PGothic.ttf
  4

1001
ACAD
1000
MS PGothic
1071
    32818
  0
STYLE
  5
10BAA
330
7468
100
AcDbSymbolTableRecord
100
AcDbTextStyleTableRecord
  2
STYLE3
 70
     0
 40
0.0
 41
1.0
 50
0.0
 71
     0
 42
100.0
  3
DFPGothic-EB.ttf
  4

1001
ACAD
1000
DFPGothic-EB
1071
    32818
  0
STYLE
  5
11A15
330
7468
100
AcDbSymbolTableRecord
100
AcDbTextStyleTableRecord
  2
MSGOTHIC
 70
     0
 40
0.0
 41
1.0
 50
0.0
 71
     0
 42
3.5
  3
MS PGothic.ttf
  4

1001
ACAD
1000
MS PGothic
1071
    32818
  0
STYLE
  5
13E96
330
7468
100
AcDbSymbolTableRecord
100
AcDbTextStyleTableRecord
  2
MSPゴシック
 70
     0
 40
0.0
 41
1.0
 50
0.0
 71
     0
 42
4.0
  3
MS PGothic.ttf
  4

1001
ACAD
1000
MS PGothic
1071
    32818
  0
ENDTAB
  0
TABLE
  2
VIEW
  5
746B
330
0
100
AcDbSymbolTable
 70
     0
  0
ENDTAB
  0
TABLE
  2
UCS
  5
746C
330
0
100
AcDbSymbolTable
 70
     0
  0
ENDTAB
  0
TABLE
  2
APPID
  5
746E
330
0
100
AcDbSymbolTable
 70
     6
  0
APPID
  5
7476
330
746E
100
AcDbSymbolTableRecord
100
AcDbRegAppTableRecord
  2
ACAD
 70
     0
  0
APPID
  5
DEA9
330
746E
100
AcDbSymbolTableRecord
100
AcDbRegAppTableRecord
  2
CONTENTBLOCKICON
 70
     0
  0
APPID
  5
DEAA
330
746E
100
AcDbSymbolTableRecord
100
AcDbRegAppTableRecord
  2
CONTENTBLOCKDESCRIPTION
 70
     0
  0
APPID
  5
E71D
330
746E
100
AcDbSymbolTableRecord
100
AcDbRegAppTableRecord
  2
CONTENTTABDATA
 70
     0
  0
APPID
  5
E71E
330
746E
100
AcDbSymbolTableRecord
100
AcDbRegAppTableRecord
  2
CONTENTCURRENTTAB
 70
     0
  0
APPID
  5
F3BA
330
746E
100
AcDbSymbolTableRecord
100
AcDbRegAppTableRecord
  2
DRAWINGVARIABLESXDATA
 70
     0
  0
ENDTAB
  0
TABLE
  2
DIMSTYLE
  5
746F
330
0
100
AcDbSymbolTable
 70
     1
100
AcDbDimStyleTable
 71
     1
340
F71F
  0
DIMSTYLE
105
F71F
102
{ACAD_REACTORS
330
162CD
330
162CE
330
162CF
330
162D0
330
162E4
330
162E7
330
162EA
330
162EB
330
16301
330
16302
330
1631F
330
16320
330
16333
330
1659C
330
1659A
330
165E9
330
166DD
330
16913
330
17BC3
330
17B87
330
17B86
330
195D0
330
195D1
330
195D2
330
195E2
330
19AA1
330
19AA2
330
19AA3
330
19AD3
330
19AD7
330
19AD8
330
19AD9
330
19AE7
330
19AF6
330
1A3DA
330
1A3DB
330
1A3DC
102
}
330
746F
100
AcDbSymbolTableRecord
100
AcDbDimStyleTableRecord
  2
INABA_S40G
 70
     0
 40
40.0
 41
2.5
 42
0.5
 43
7.0
 44
1.5
 73
     0
 74
     0
 77
     3
 78
     8
140
3.0
141
0.0
143
0.0394
147
1.0
172
     1
173
     1
174
     1
178
     7
271
     1
340
F706
341
F770
343
F770
344
F770
  0
ENDTAB
  0
TABLE
  2
BLOCK_RECORD
  5
7466
330
0
100
AcDbSymbolTable
 70
    38
  0
BLOCK_RECORD
  5
747D
330
7466
100
AcDbSymbolTableRecord
100
AcDbBlockTableRecord
  2
*MODEL_SPACE
340
17AE5
  0
BLOCK_RECORD
  5
747A
330
7466
100
AcDbSymbolTableRecord
100
AcDbBlockTableRecord
  2
*PAPER_SPACE
340
17AE6
  0
BLOCK_RECORD
  5
F770
330
7466
100
AcDbSymbolTableRecord
100
AcDbBlockTableRecord
  2
_DOTSMALL
340
0
102
{BLKREFS
331
1A133
331
1A134
331
1A1B7
331
1A1B8
331
1A1C0
331
1A1C1
331
1A1C9
331
1A1CA
331
1A1D1
331
1A1D2
331
1A1DC
331
1A1DD
331
1A1E6
331
1A1E7
331
1A1F1
331
1A1F2
331
1A1FC
331
1A1FD
331
1A206
331
1A207
331
1A211
331
1A212
331
1A21A
331
1A21B
331
1A225
331
1A226
331
1A231
331
1A232
331
1A23C
331
1A23D
331
1A246
331
1A247
331
1A24F
331
1A250
331
1A257
331
1A258
331
1A260
331
1A261
331
1A26B
331
1A26C
331
1A276
331
1A277
331
1A289
331
1A28A
331
1AF6D
331
1AF6E
331
1AF77
331
1AF78
331
1AF81
331
1AF82
331
1AF95
331
1AF96
331
1AFA7
331
1AFA8
331
1AFB0
331
1AFB1
331
1AFB9
331
1AFBA
331
1AFC4
331
1AFC5
331
1AFCF
331
1AFD0
331
1AFD8
331
1AFD9
331
1AFE1
331
1AFE2
331
1B051
331
1B052
331
1B05A
331
1B05B
331
1B06F
331
1B070
331
1B07B
331
1B07C
102
}
  0
BLOCK_RECORD
  5
16338
330
7466
100
AcDbSymbolTableRecord
100
AcDbBlockTableRecord
  2
*D1
340
0
  0
BLOCK_RECORD
  5
16344
330
7466
100
AcDbSymbolTableRecord
100
AcDbBlockTableRecord
  2
*D2
340
0
  0
BLOCK_RECORD
  5
16352
330
7466
100
AcDbSymbolTableRecord
100
AcDbBlockTableRecord
  2
*D3
340
0
  0
BLOCK_RECORD
  5
16360
330
7466
100
AcDbSymbolTableRecord
100
AcDbBlockTableRecord
  2
*D4
340
0
  0
BLOCK_RECORD
  5
16384
330
7466
100
AcDbSymbolTableRecord
100
AcDbBlockTableRecord
  2
*D5
340
0
  0
BLOCK_RECORD
  5
1638F
330
7466
100
AcDbSymbolTableRecord
100
AcDbBlockTableRecord
  2
*D6
340
0
  0
BLOCK_RECORD
  5
1639B
330
7466
100
AcDbSymbolTableRecord
100
AcDbBlockTableRecord
  2
*D7
340
0
  0
BLOCK_RECORD
  5
163A9
330
7466
100
AcDbSymbolTableRecord
100
AcDbBlockTableRecord
  2
*D8
340
0
  0
BLOCK_RECORD
  5
163B8
330
7466
100
AcDbSymbolTableRecord
100
AcDbBlockTableRecord
  2
*D9
340
0
  0
BLOCK_RECORD
  5
163C7
330
7466
100
AcDbSymbolTableRecord
100
AcDbBlockTableRecord
  2
*D10
340
0
  0
BLOCK_RECORD
  5
163E1
330
7466
100
AcDbSymbolTableRecord
100
AcDbBlockTableRecord
  2
*D11
340
0
  0
BLOCK_RECORD
  5
163ED
330
7466
100
AcDbSymbolTableRecord
100
AcDbBlockTableRecord
  2
*D12
340
0
  0
BLOCK_RECORD
  5
163FB
330
7466
100
AcDbSymbolTableRecord
100
AcDbBlockTableRecord
  2
*D13
340
0
  0
BLOCK_RECORD
  5
165B5
330
7466
100
AcDbSymbolTableRecord
100
AcDbBlockTableRecord
  2
*D14
340
0
  0
BLOCK_RECORD
  5
165C4
330
7466
100
AcDbSymbolTableRecord
100
AcDbBlockTableRecord
  2
*D15
340
0
  0
BLOCK_RECORD
  5
165EA
330
7466
100
AcDbSymbolTableRecord
100
AcDbBlockTableRecord
  2
*D16
340
0
  0
BLOCK_RECORD
  5
166CF
330
7466
100
AcDbSymbolTableRecord
100
AcDbBlockTableRecord
  2
*D17
340
0
  0
BLOCK_RECORD
  5
16908
330
7466
100
AcDbSymbolTableRecord
100
AcDbBlockTableRecord
  2
*D18
340
0
  0
BLOCK_RECORD
  5
17BD3
330
7466
100
AcDbSymbolTableRecord
100
AcDbBlockTableRecord
  2
*D19
340
0
  0
BLOCK_RECORD
  5
17BDE
330
7466
100
AcDbSymbolTableRecord
100
AcDbBlockTableRecord
  2
*D20
340
0
  0
BLOCK_RECORD
  5
17BF8
330
7466
100
AcDbSymbolTableRecord
100
AcDbBlockTableRecord
  2
*D21
340
0
  0
BLOCK_RECORD
  5
1968A
330
7466
100
AcDbSymbolTableRecord
100
AcDbBlockTableRecord
  2
*D22
340
0
  0
BLOCK_RECORD
  5
19696
330
7466
100
AcDbSymbolTableRecord
100
AcDbBlockTableRecord
  2
*D23
340
0
  0
BLOCK_RECORD
  5
196A2
330
7466
100
AcDbSymbolTableRecord
100
AcDbBlockTableRecord
  2
*D24
340
0
  0
BLOCK_RECORD
  5
196B0
330
7466
100
AcDbSymbolTableRecord
100
AcDbBlockTableRecord
  2
*D25
340
0
  0
BLOCK_RECORD
  5
19C4F
330
7466
100
AcDbSymbolTableRecord
100
AcDbBlockTableRecord
  2
*D26
340
0
  0
BLOCK_RECORD
  5
19C5B
330
7466
100
AcDbSymbolTableRecord
100
AcDbBlockTableRecord
  2
*D27
340
0
  0
BLOCK_RECORD
  5
19C67
330
7466
100
AcDbSymbolTableRecord
100
AcDbBlockTableRecord
  2
*D28
340
0
  0
BLOCK_RECORD
  5
19C73
330
7466
100
AcDbSymbolTableRecord
100
AcDbBlockTableRecord
  2
*D29
340
0
  0
BLOCK_RECORD
  5
19C81
330
7466
100
AcDbSymbolTableRecord
100
AcDbBlockTableRecord
  2
*D30
340
0
  0
BLOCK_RECORD
  5
19C8D
330
7466
100
AcDbSymbolTableRecord
100
AcDbBlockTableRecord
  2
*D31
340
0
  0
BLOCK_RECORD
  5
19C9B
330
7466
100
AcDbSymbolTableRecord
100
AcDbBlockTableRecord
  2
*D32
340
0
  0
BLOCK_RECORD
  5
19CA7
330
7466
100
AcDbSymbolTableRecord
100
AcDbBlockTableRecord
  2
*D33
340
0
  0
BLOCK_RECORD
  5
19CB4
330
7466
100
AcDbSymbolTableRecord
100
AcDbBlockTableRecord
  2
*D34
340
0
  0
BLOCK_RECORD
  5
1A43A
330
7466
100
AcDbSymbolTableRecord
100
AcDbBlockTableRecord
  2
*D35
340
0
  0
BLOCK_RECORD
  5
1A446
330
7466
100
AcDbSymbolTableRecord
100
AcDbBlockTableRecord
  2
*D36
340
0
  0
BLOCK_RECORD
  5
1A454
330
7466
100
AcDbSymbolTableRecord
100
AcDbBlockTableRecord
  2
*D37
340
0
  0
ENDTAB
  0
ENDSEC
  0
SECTION
  2
BLOCKS
  0
BLOCK
  5
7489
330
747D
100
AcDbEntity
  8
0
100
AcDbBlockBegin
  2
*MODEL_SPACE
 70
     0
 10
0.0
 20
0.0
 30
0.0
  3
*MODEL_SPACE
  1

  0
ENDBLK
  5
748A
330
747D
100
AcDbEntity
  8
0
100
AcDbBlockEnd
  0
BLOCK
  5
7487
330
747A
100
AcDbEntity
 67
     1
  8
0
100
AcDbBlockBegin
  2
*PAPER_SPACE
 70
     0
 10
0.0
 20
0.0
 30
0.0
  3
*PAPER_SPACE
  1

  0
ENDBLK
  5
7488
330
747A
100
AcDbEntity
 67
     1
  8
0
100
AcDbBlockEnd
  0
BLOCK
  5
F771
330
F770
100
AcDbEntity
  8
0
 48
50.0
100
AcDbBlockBegin
  2
_DOTSMALL
 70
     0
 10
0.0
 20
0.0
 30
0.0
  3
_DOTSMALL
  1

  0
LWPOLYLINE
  5
F772
330
F770
100
AcDbEntity
  8
0
  6
ByBlock
 62
     0
 48
50.0
100
AcDbPolyline
 90
        2
 70
     1
 43
0.5
 10
-0.0625
 20
0.0
 42
1.0
 10
0.0625
 20
0.0
 42
1.0
  0
ENDBLK
  5
F776
330
F770
100
AcDbEntity
  8
0
 48
50.0
100
AcDbBlockEnd
  0
BLOCK
  5
164EB
330
16338
100
AcDbEntity
  8
0
 48
50.0
100
AcDbBlockBegin
  2
*D1
 70
     1
 10
0.0
 20
0.0
 30
0.0
  3
*D1
  1

  0
LINE
  5
1A286
330
16338
100
AcDbEntity
  8
寸法
 62
     0
 48
50.0
370
    -2
100
AcDbLine
 10
7604.673057123673
 20
10317.16379118615
 30
0.0
 11
8292.099402858079
 21
10317.16379118615
 31
0.0
  0
LINE
  5
1A287
330
16338
100
AcDbEntity
  8
寸法
 62
     0
 48
50.0
370
    -2
100
AcDbLine
 10
7604.673057123648
 20
6957.16379118614
 30
0.0
 11
8292.099402858079
 21
6957.16379118614
 31
0.0
  0
LINE
  5
1A288
330
16338
100
AcDbEntity
  8
寸法
 62
     0
 48
50.0
370
    -2
100
AcDbLine
 10
8232.099402858079
 20
10317.16379118615
 30
0.0
 11
8232.099402858079
 21
6957.16379118614
 31
0.0
  0
INSERT
  5
1A289
330
16338
100
AcDbEntity
  8
寸法
 62
     0
 48
50.0
370
    -2
100
AcDbBlockReference
  2
_DOTSMALL
 10
8232.099402858079
 20
10317.16379118615
 30
0.0
 41
100.0
 42
100.0
 43
100.0
 50
90.0
  0
INSERT
  5
1A28A
330
16338
100
AcDbEntity
  8
寸法
 62
     0
 48
50.0
370
    -2
100
AcDbBlockReference
  2
_DOTSMALL
 10
8232.099402858079
 20
6957.16379118614
 30
0.0
 41
100.0
 42
100.0
 43
100.0
 50
270.0
  0
MTEXT
  5
1A28B
330
16338
100
AcDbEntity
  8
寸法
 62
     7
 48
50.0
100
AcDbMText
 10
8132.087591834457
 20
8637.163791186152
 30
0.0
 40
120.0
 41
0.0
 71
     5
 72
     1
  1
\A1;8X420=3360
  7
STYLE1
 11
0.0000000000000001
 21
1.0
 31
0.0
 73
     1
 44
1.0
1001
ACAD
1000
MTEXTBEGIN
1070
    73
1070
     1
1070
    44
1040
1.0
1070
    74
1070
     0
1000
MTEXTEND
  0
POINT
  5
1A28C
330
16338
100
AcDbEntity
  8
DEFPOINTS
 62
     0
 48
50.0
100
AcDbPoint
 10
7584.673057123673
 20
10317.16379118615
 30
0.0
  0
POINT
  5
1A28D
330
16338
100
AcDbEntity
  8
DEFPOINTS
 62
     0
 48
50.0
100
AcDbPoint
 10
7584.673057123648
 20
6957.16379118614
 30
0.0
  0
POINT
  5
1A28E
330
16338
100
AcDbEntity
  8
DEFPOINTS
 62
     0
 48
50.0
100
AcDbPoint
 10
8232.099402858079
 20
6957.16379118614
 30
0.0
  0
ENDBLK
  5
164F5
330
16338
100
AcDbEntity
  8
0
 48
50.0
100
AcDbBlockEnd
  0
BLOCK
  5
16414
330
16344
100
AcDbEntity
  8
0
 48
50.0
100
AcDbBlockBegin
  2
*D2
 70
     1
 10
0.0
 20
0.0
 30
0.0
  3
*D2
  1

  0
LINE
  5
1A271
330
16344
100
AcDbEntity
  8
寸法
 62
     0
 48
50.0
370
    -2
100
AcDbLine
 10
7604.673057123648
 20
6957.16379118614
 30
0.0
 11
8292.09940285806
 21
6957.16379118614
 31
0.0
  0
LINE
  5
1A272
330
16344
100
AcDbEntity
  8
寸法
 62
     0
 48
50.0
370
    -2
100
AcDbLine
 10
7604.673057123648
 20
6902.163791186143
 30
0.0
 11
8292.09940285806
 21
6902.163791186143
 31
0.0
  0
LINE
  5
1A273
330
16344
100
AcDbEntity
  8
寸法
 62
     0
 48
50.0
370
    -2
100
AcDbLine
 10
8232.099402858059
 20
6957.16379118614
 30
0.0
 11
8232.099402858059
 21
7057.16379118614
 31
0.0
  0
LINE
  5
1A274
330
16344
100
AcDbEntity
  8
寸法
 62
     0
 48
50.0
370
    -2
100
AcDbLine
 10
8232.099402858059
 20
6902.163791186143
 30
0.0
 11
8232.099402858059
 21
6415.817042907041
 31
0.0
  0
LINE
  5
1A275
330
16344
100
AcDbEntity
  8
寸法
 62
     0
 48
50.0
370
    -2
100
AcDbLine
 10
8232.099402858059
 20
6957.16379118614
 30
0.0
 11
8232.099402858059
 21
6902.163791186143
 31
0.0
  0
INSERT
  5
1A276
330
16344
100
AcDbEntity
  8
寸法
 62
     0
 48
50.0
370
    -2
100
AcDbBlockReference
  2
_DOTSMALL
 10
8232.099402858059
 20
6957.16379118614
 30
0.0
 41
100.0
 42
100.0
 43
100.0
 50
270.0
  0
INSERT
  5
1A277
330
16344
100
AcDbEntity
  8
寸法
 62
     0
 48
50.0
370
    -2
100
AcDbBlockReference
  2
_DOTSMALL
 10
8232.099402858059
 20
6902.163791186143
 30
0.0
 41
100.0
 42
100.0
 43
100.0
 50
90.0
  0
MTEXT
  5
1A278
330
16344
100
AcDbEntity
  8
寸法
 62
     7
 48
50.0
100
AcDbMText
 10
8132.099402858058
 20
6524.302324281281
 30
0.0
 40
120.0
 41
0.0
 71
     5
 72
     1
  1
\A1;55
  7
STYLE1
 11
0.0000000000000001
 21
1.0
 31
0.0
 73
     1
 44
1.0
1001
ACAD
1000
MTEXTBEGIN
1070
    73
1070
     1
1070
    44
1040
1.0
1070
    74
1070
     0
1000
MTEXTEND
  0
POINT
  5
1A279
330
16344
100
AcDbEntity
  8
DEFPOINTS
 62
     0
 48
50.0
100
AcDbPoint
 10
7584.673057123648
 20
6957.16379118614
 30
0.0
  0
POINT
  5
1A27A
330
16344
100
AcDbEntity
  8
DEFPOINTS
 62
     0
 48
50.0
100
AcDbPoint
 10
7584.673057123648
 20
6902.163791186143
 30
0.0
  0
POINT
  5
1A27B
330
16344
100
AcDbEntity
  8
DEFPOINTS
 62
     0
 48
50.0
100
AcDbPoint
 10
8232.099402858059
 20
6902.163791186143
 30
0.0
  0
ENDBLK
  5
16420
330
16344
100
AcDbEntity
  8
0
 48
50.0
100
AcDbBlockEnd
  0
BLOCK
  5
16421
330
16352
100
AcDbEntity
  8
0
 48
50.0
100
AcDbBlockBegin
  2
*D3
 70
     1
 10
0.0
 20
0.0
 30
0.0
  3
*D3
  1

  0
LINE
  5
1A266
330
16352
100
AcDbEntity
  8
寸法
 62
     0
 48
50.0
370
    -2
100
AcDbLine
 10
7604.673057123673
 20
10372.16379118615
 30
0.0
 11
8292.099402858083
 21
10372.16379118615
 31
0.0
  0
LINE
  5
1A267
330
16352
100
AcDbEntity
  8
寸法
 62
     0
 48
50.0
370
    -2
100
AcDbLine
 10
7604.673057123673
 20
10317.16379118615
 30
0.0
 11
8292.099402858083
 21
10317.16379118615
 31
0.0
  0
LINE
  5
1A268
330
16352
100
AcDbEntity
  8
寸法
 62
     0
 48
50.0
370
    -2
100
AcDbLine
 10
8232.099402858082
 20
10317.16379118615
 30
0.0
 11
8232.099402858082
 21
10217.16379118615
 31
0.0
  0
LINE
  5
1A269
330
16352
100
AcDbEntity
  8
寸法
 62
     0
 48
50.0
370
    -2
100
AcDbLine
 10
8232.099402858082
 20
10372.16379118615
 30
0.0
 11
8232.099402858082
 21
10789.13435393463
 31
0.0
  0
LINE
  5
1A26A
330
16352
100
AcDbEntity
  8
寸法
 62
     0
 48
50.0
370
    -2
100
AcDbLine
 10
8232.099402858082
 20
10317.16379118615
 30
0.0
 11
8232.099402858082
 21
10372.16379118615
 31
0.0
  0
INSERT
  5
1A26B
330
16352
100
AcDbEntity
  8
寸法
 62
     0
 48
50.0
370
    -2
100
AcDbBlockReference
  2
_DOTSMALL
 10
8232.099402858082
 20
10317.16379118615
 30
0.0
 41
100.0
 42
100.0
 43
100.0
 50
90.0
  0
INSERT
  5
1A26C
330
16352
100
AcDbEntity
  8
寸法
 62
     0
 48
50.0
370
    -2
100
AcDbBlockReference
  2
_DOTSMALL
 10
8232.099402858082
 20
10372.16379118615
 30
0.0
 41
100.0
 42
100.0
 43
100.0
 50
270.0
  0
MTEXT
  5
1A26D
330
16352
100
AcDbEntity
  8
寸法
 62
     7
 48
50.0
100
AcDbMText
 10
8132.099402858084
 20
10680.64907256039
 30
0.0
 40
120.0
 41
0.0
 71
     5
 72
     1
  1
\A1;55
  7
STYLE1
 11
0.0000000000000001
 21
1.0
 31
0.0
 73
     1
 44
1.0
1001
ACAD
1000
MTEXTBEGIN
1070
    73
1070
     1
1070
    44
1040
1.0
1070
    74
1070
     0
1000
MTEXTEND
  0
POINT
  5
1A26E
330
16352
100
AcDbEntity
  8
DEFPOINTS
 62
     0
 48
50.0
100
AcDbPoint
 10
7584.673057123673
 20
10372.16379118615
 30
0.0
  0
POINT
  5
1A26F
330
16352
100
AcDbEntity
  8
DEFPOINTS
 62
     0
 48
50.0
100
AcDbPoint
 10
7584.673057123673
 20
10317.16379118615
 30
0.0
  0
POINT
  5
1A270
330
16352
100
AcDbEntity
  8
DEFPOINTS
 62
     0
 48
50.0
100
AcDbPoint
 10
8232.099402858082
 20
10317.16379118615
 30
0.0
  0
ENDBLK
  5
1642D
330
16352
100
AcDbEntity
  8
0
 48
50.0
100
AcDbBlockEnd
  0
BLOCK
  5
164CA
330
16360
100
AcDbEntity
  8
0
 48
50.0
100
AcDbBlockBegin
  2
*D4
 70
     1
 10
0.0
 20
0.0
 30
0.0
  3
*D4
  1

  0
LINE
  5
1A25D
330
16360
100
AcDbEntity
  8
寸法
 62
     0
 48
50.0
370
    -2
100
AcDbLine
 10
7604.673057123673
 20
10372.16379118615
 30
0.0
 11
8657.206344597716
 21
10372.16379118615
 31
0.0
  0
LINE
  5
1A25E
330
16360
100
AcDbEntity
  8
寸法
 62
     0
 48
50.0
370
    -2
100
AcDbLine
 10
7604.673057123648
 20
6902.163791186143
 30
0.0
 11
8657.206344597716
 21
6902.163791186143
 31
0.0
  0
LINE
  5
1A25F
330
16360
100
AcDbEntity
  8
寸法
 62
     0
 48
50.0
370
    -2
100
AcDbLine
 10
8597.206344597719
 20
10372.16379118615
 30
0.0
 11
8597.206344597719
 21
6902.163791186143
 31
0.0
  0
INSERT
  5
1A260
330
16360
100
AcDbEntity
  8
寸法
 62
     0
 48
50.0
370
    -2
100
AcDbBlockReference
  2
_DOTSMALL
 10
8597.206344597719
 20
10372.16379118615
 30
0.0
 41
100.0
 42
100.0
 43
100.0
 50
90.0
  0
INSERT
  5
1A261
330
16360
100
AcDbEntity
  8
寸法
 62
     0
 48
50.0
370
    -2
100
AcDbBlockReference
  2
_DOTSMALL
 10
8597.206344597719
 20
6902.163791186143
 30
0.0
 41
100.0
 42
100.0
 43
100.0
 50
270.0
  0
MTEXT
  5
1A262
330
16360
100
AcDbEntity
  8
寸法
 62
     7
 48
50.0
100
AcDbMText
 10
8497.206344597717
 20
8637.163791186152
 30
0.0
 40
120.0
 41
0.0
 71
     5
 72
     1
  1
\A1;3470
  7
STYLE1
 11
0.0000000000000001
 21
1.0
 31
0.0
 73
     1
 44
1.0
1001
ACAD
1000
MTEXTBEGIN
1070
    73
1070
     1
1070
    44
1040
1.0
1070
    74
1070
     0
1000
MTEXTEND
  0
POINT
  5
1A263
330
16360
100
AcDbEntity
  8
DEFPOINTS
 62
     0
 48
50.0
100
AcDbPoint
 10
7584.673057123673
 20
10372.16379118615
 30
0.0
  0
POINT
  5
1A264
330
16360
100
AcDbEntity
  8
DEFPOINTS
 62
     0
 48
50.0
100
AcDbPoint
 10
7584.673057123648
 20
6902.163791186143
 30
0.0
  0
POINT
  5
1A265
330
16360
100
AcDbEntity
  8
DEFPOINTS
 62
     0
 48
50.0
100
AcDbPoint
 10
8597.206344597719
 20
6902.163791186143
 30
0.0
  0
ENDBLK
  5
164D4
330
16360
100
AcDbEntity
  8
0
 48
50.0
100
AcDbBlockEnd
  0
BLOCK
  5
1728C
330
16384
100
AcDbEntity
  8
0
 48
50.0
100
AcDbBlockBegin
  2
*D5
 70
     1
 10
0.0
 20
0.0
 30
0.0
  3
*D5
  1

  0
LINE
  5
1A255
330
16384
100
AcDbEntity
  8
寸法
 62
     0
 48
50.0
370
    -2
100
AcDbLine
 10
5477.673057123666
 20
6908.163791186051
 30
0.0
 11
5477.673057123666
 21
6307.733020419888
 31
0.0
  0
LINE
  5
1A256
330
16384
100
AcDbEntity
  8
寸法
 62
     0
 48
50.0
370
    -2
100
AcDbLine
 10
7481.673057123647
 20
6367.733020419888
 30
0.0
 11
5477.673057123666
 21
6367.733020419888
 31
0.0
  0
INSERT
  5
1A257
330
16384
100
AcDbEntity
  8
寸法
 62
     0
 48
50.0
370
    -2
100
AcDbBlockReference
  2
_DOTSMALL
 10
7481.673057123647
 20
6367.733020419888
 30
0.0
 41
100.0
 42
100.0
 43
100.0
  0
INSERT
  5
1A258
330
16384
100
AcDbEntity
  8
寸法
 62
     0
 48
50.0
370
    -2
100
AcDbBlockReference
  2
_DOTSMALL
 10
5477.673057123666
 20
6367.733020419888
 30
0.0
 41
100.0
 42
100.0
 43
100.0
 50
180.0
  0
MTEXT
  5
1A259
330
16384
100
AcDbEntity
  8
寸法
 62
     7
 48
50.0
100
AcDbMText
 10
6479.673057123656
 20
6467.744831443511
 30
0.0
 40
120.0
 41
0.0
 71
     5
 72
     1
  1
\A1;有効開口部間口 2004
  7
STYLE1
 73
     1
 44
1.0
1001
ACAD
1000
MTEXTBEGIN
1070
    73
1070
     1
1070
    44
1040
1.0
1070
    74
1070
     0
1000
MTEXTEND
  0
POINT
  5
1A25A
330
16384
100
AcDbEntity
  8
DEFPOINTS
 62
     0
 48
50.0
100
AcDbPoint
 10
7481.673057123647
 20
6928.163791186054
 30
0.0
  0
POINT
  5
1A25B
330
16384
100
AcDbEntity
  8
DEFPOINTS
 62
     0
 48
50.0
100
AcDbPoint
 10
5477.673057123666
 20
6928.163791186051
 30
0.0
  0
POINT
  5
1A25C
330
16384
100
AcDbEntity
  8
DEFPOINTS
 62
     0
 48
50.0
100
AcDbPoint
 10
5477.673057123666
 20
6367.733020419888
 30
0.0
  0
ENDBLK
  5
17295
330
16384
100
AcDbEntity
  8
0
 48
50.0
100
AcDbBlockEnd
  0
BLOCK
  5
17261
330
1638F
100
AcDbEntity
  8
0
 48
50.0
100
AcDbBlockBegin
  2
*D6
 70
     1
 10
0.0
 20
0.0
 30
0.0
  3
*D6
  1

  0
LINE
  5
1A24C
330
1638F
100
AcDbEntity
  8
寸法
 62
     0
 48
50.0
370
    -2
100
AcDbLine
 10
3164.673057123666
 20
6882.163791186049
 30
0.0
 11
3164.673057123666
 21
5861.560024829014
 31
0.0
  0
LINE
  5
1A24D
330
1638F
100
AcDbEntity
  8
寸法
 62
     0
 48
50.0
370
    -2
100
AcDbLine
 10
7584.673057123636
 20
6882.163791186143
 30
0.0
 11
7584.673057123636
 21
5861.560024829014
 31
0.0
  0
LINE
  5
1A24E
330
1638F
100
AcDbEntity
  8
寸法
 62
     0
 48
50.0
370
    -2
100
AcDbLine
 10
3164.673057123666
 20
5921.560024829013
 30
0.0
 11
7584.673057123636
 21
5921.560024829013
 31
0.0
  0
INSERT
  5
1A24F
330
1638F
100
AcDbEntity
  8
寸法
 62
     0
 48
50.0
370
    -2
100
AcDbBlockReference
  2
_DOTSMALL
 10
3164.673057123666
 20
5921.560024829013
 30
0.0
 41
100.0
 42
100.0
 43
100.0
 50
180.0
  0
INSERT
  5
1A250
330
1638F
100
AcDbEntity
  8
寸法
 62
     0
 48
50.0
370
    -2
100
AcDbBlockReference
  2
_DOTSMALL
 10
7584.673057123636
 20
5921.560024829013
 30
0.0
 41
100.0
 42
100.0
 43
100.0
  0
MTEXT
  5
1A251
330
1638F
100
AcDbEntity
  8
寸法
 62
     7
 48
50.0
100
AcDbMText
 10
5374.673057123651
 20
6021.571835852636
 30
0.0
 40
120.0
 41
0.0
 71
     5
 72
     1
  1
\A1;4420
  7
STYLE1
 73
     1
 44
1.0
1001
ACAD
1000
MTEXTBEGIN
1070
    73
1070
     1
1070
    44
1040
1.0
1070
    74
1070
     0
1000
MTEXTEND
  0
POINT
  5
1A252
330
1638F
100
AcDbEntity
  8
DEFPOINTS
 62
     0
 48
50.0
100
AcDbPoint
 10
3164.673057123666
 20
6902.163791186049
 30
0.0
  0
POINT
  5
1A253
330
1638F
100
AcDbEntity
  8
DEFPOINTS
 62
     0
 48
50.0
100
AcDbPoint
 10
7584.673057123636
 20
6902.163791186143
 30
0.0
  0
POINT
  5
1A254
330
1638F
100
AcDbEntity
  8
DEFPOINTS
 62
     0
 48
50.0
100
AcDbPoint
 10
7584.673057123636
 20
5921.560024829013
 30
0.0
  0
ENDBLK
  5
1726B
330
1638F
100
AcDbEntity
  8
0
 48
50.0
100
AcDbBlockEnd
  0
BLOCK
  5
16464
330
1639B
100
AcDbEntity
  8
0
 48
50.0
100
AcDbBlockBegin
  2
*D7
 70
     1
 10
0.0
 20
0.0
 30
0.0
  3
*D7
  1

  0
LINE
  5
1A241
330
1639B
100
AcDbEntity
  8
寸法
 62
     0
 48
50.0
370
    -2
100
AcDbLine
 10
3219.673057123662
 20
6882.163791186052
 30
0.0
 11
3219.673057123662
 21
6307.733020419888
 31
0.0
  0
LINE
  5
1A242
330
1639B
100
AcDbEntity
  8
寸法
 62
     0
 48
50.0
370
    -2
100
AcDbLine
 10
3164.673057123666
 20
6882.163791186049
 30
0.0
 11
3164.673057123666
 21
6307.733020419888
 31
0.0
  0
LINE
  5
1A243
330
1639B
100
AcDbEntity
  8
寸法
 62
     0
 48
50.0
370
    -2
100
AcDbLine
 10
3219.673057123662
 20
6367.733020419888
 30
0.0
 11
3319.673057123662
 21
6367.733020419888
 31
0.0
  0
LINE
  5
1A244
330
1639B
100
AcDbEntity
  8
寸法
 62
     0
 48
50.0
370
    -2
100
AcDbLine
 10
3164.673057123666
 20
6367.733020419888
 30
0.0
 11
2747.702494375189
 21
6367.733020419888
 31
0.0
  0
LINE
  5
1A245
330
1639B
100
AcDbEntity
  8
寸法
 62
     0
 48
50.0
370
    -2
100
AcDbLine
 10
3219.673057123662
 20
6367.733020419888
 30
0.0
 11
3164.673057123666
 21
6367.733020419888
 31
0.0
  0
INSERT
  5
1A246
330
1639B
100
AcDbEntity
  8
寸法
 62
     0
 48
50.0
370
    -2
100
AcDbBlockReference
  2
_DOTSMALL
 10
3219.673057123662
 20
6367.733020419888
 30
0.0
 41
100.0
 42
100.0
 43
100.0
 50
180.0
  0
INSERT
  5
1A247
330
1639B
100
AcDbEntity
  8
寸法
 62
     0
 48
50.0
370
    -2
100
AcDbBlockReference
  2
_DOTSMALL
 10
3164.673057123666
 20
6367.733020419888
 30
0.0
 41
100.0
 42
100.0
 43
100.0
  0
MTEXT
  5
1A248
330
1639B
100
AcDbEntity
  8
寸法
 62
     7
 48
50.0
100
AcDbMText
 10
2856.187775749427
 20
6467.733020419888
 30
0.0
 40
120.0
 41
0.0
 71
     5
 72
     1
  1
\A1;55
  7
STYLE1
 73
     1
 44
1.0
1001
ACAD
1000
MTEXTBEGIN
1070
    73
1070
     1
1070
    44
1040
1.0
1070
    74
1070
     0
1000
MTEXTEND
  0
POINT
  5
1A249
330
1639B
100
AcDbEntity
  8
DEFPOINTS
 62
     0
 48
50.0
100
AcDbPoint
 10
3219.673057123662
 20
6902.163791186052
 30
0.0
  0
POINT
  5
1A24A
330
1639B
100
AcDbEntity
  8
DEFPOINTS
 62
     0
 48
50.0
100
AcDbPoint
 10
3164.673057123666
 20
6902.163791186049
 30
0.0
  0
POINT
  5
1A24B
330
1639B
100
AcDbEntity
  8
DEFPOINTS
 62
     0
 48
50.0
100
AcDbPoint
 10
3164.673057123666
 20
6367.733020419888
 30
0.0
  0
ENDBLK
  5
16470
330
1639B
100
AcDbEntity
  8
0
 48
50.0
100
AcDbBlockEnd
  0
BLOCK
  5
16471
330
163A9
100
AcDbEntity
  8
0
 48
50.0
100
AcDbBlockBegin
  2
*D8
 70
     1
 10
0.0
 20
0.0
 30
0.0
  3
*D8
  1

  0
LINE
  5
1A236
330
163A9
100
AcDbEntity
  8
寸法
 62
     0
 48
50.0
370
    -2
100
AcDbLine
 10
5477.673057123666
 20
6908.163791186051
 30
0.0
 11
5477.673057123666
 21
6307.733020419888
 31
0.0
  0
LINE
  5
1A237
330
163A9
100
AcDbEntity
  8
寸法
 62
     0
 48
50.0
370
    -2
100
AcDbLine
 10
5429.673057123662
 20
6882.163791186052
 30
0.0
 11
5429.673057123662
 21
6307.733020419888
 31
0.0
  0
LINE
  5
1A238
330
163A9
100
AcDbEntity
  8
寸法
 62
     0
 48
50.0
370
    -2
100
AcDbLine
 10
5477.673057123666
 20
6367.733020419888
 30
0.0
 11
5577.673057123666
 21
6367.733020419888
 31
0.0
  0
LINE
  5
1A239
330
163A9
100
AcDbEntity
  8
寸法
 62
     0
 48
50.0
370
    -2
100
AcDbLine
 10
5429.673057123662
 20
6367.733020419888
 30
0.0
 11
5329.673057123662
 21
6367.733020419888
 31
0.0
  0
MTEXT
  5
1A23A
330
163A9
100
AcDbEntity
  8
寸法
 62
     7
 48
50.0
100
AcDbMText
 10
5590.575028123723
 20
6467.733020419888
 30
0.0
 40
120.0
 41
0.0
 71
     5
 72
     1
  1
\A1;48
  7
STYLE1
 73
     1
 44
1.0
1001
ACAD
1000
MTEXTBEGIN
1070
    73
1070
     1
1070
    44
1040
1.0
1070
    74
1070
     0
1000
MTEXTEND
  0
LINE
  5
1A23B
330
163A9
100
AcDbEntity
  8
寸法
 62
     0
 48
50.0
370
    -2
100
AcDbLine
 10
5477.673057123666
 20
6367.733020419888
 30
0.0
 11
5429.673057123662
 21
6367.733020419888
 31
0.0
  0
INSERT
  5
1A23C
330
163A9
100
AcDbEntity
  8
寸法
 62
     0
 48
50.0
370
    -2
100
AcDbBlockReference
  2
_DOTSMALL
 10
5477.673057123666
 20
6367.733020419888
 30
0.0
 41
100.0
 42
100.0
 43
100.0
 50
180.0
  0
INSERT
  5
1A23D
330
163A9
100
AcDbEntity
  8
寸法
 62
     0
 48
50.0
370
    -2
100
AcDbBlockReference
  2
_DOTSMALL
 10
5429.673057123662
 20
6367.733020419888
 30
0.0
 41
100.0
 42
100.0
 43
100.0
  0
POINT
  5
1A23E
330
163A9
100
AcDbEntity
  8
DEFPOINTS
 62
     0
 48
50.0
100
AcDbPoint
 10
5477.673057123666
 20
6928.163791186051
 30
0.0
  0
POINT
  5
1A23F
330
163A9
100
AcDbEntity
  8
DEFPOINTS
 62
     0
 48
50.0
100
AcDbPoint
 10
5429.673057123662
 20
6902.163791186052
 30
0.0
  0
POINT
  5
1A240
330
163A9
100
AcDbEntity
  8
DEFPOINTS
 62
     0
 48
50.0
100
AcDbPoint
 10
5429.673057123662
 20
6367.733020419888
 30
0.0
  0
ENDBLK
  5
1647E
330
163A9
100
AcDbEntity
  8
0
 48
50.0
100
AcDbBlockEnd
  0
BLOCK
  5
1647F
330
163B8
100
AcDbEntity
  8
0
 48
50.0
100
AcDbBlockBegin
  2
*D9
 70
     1
 10
0.0
 20
0.0
 30
0.0
  3
*D9
  1

  0
LINE
  5
1A22B
330
163B8
100
AcDbEntity
  8
寸法
 62
     0
 48
50.0
370
    -2
100
AcDbLine
 10
7529.673057123648
 20
6882.16379118614
 30
0.0
 11
7529.673057123648
 21
6307.733020419888
 31
0.0
  0
LINE
  5
1A22C
330
163B8
100
AcDbEntity
  8
寸法
 62
     0
 48
50.0
370
    -2
100
AcDbLine
 10
7481.673057123647
 20
6908.163791186052
 30
0.0
 11
7481.673057123647
 21
6307.733020419888
 31
0.0
  0
LINE
  5
1A22D
330
163B8
100
AcDbEntity
  8
寸法
 62
     0
 48
50.0
370
    -2
100
AcDbLine
 10
7529.673057123648
 20
6367.733020419888
 30
0.0
 11
7629.673057123651
 21
6367.733020419888
 31
0.0
  0
LINE
  5
1A22E
330
163B8
100
AcDbEntity
  8
寸法
 62
     0
 48
50.0
370
    -2
100
AcDbLine
 10
7481.673057123647
 20
6367.733020419888
 30
0.0
 11
7381.673057123648
 21
6367.733020419888
 31
0.0
  0
MTEXT
  5
1A22F
330
163B8
100
AcDbEntity
  8
寸法
 62
     7
 48
50.0
100
AcDbMText
 10
7370.7101594749
 20
6467.733020419888
 30
0.0
 40
120.0
 41
0.0
 71
     5
 72
     1
  1
\A1;48
  7
STYLE1
 73
     1
 44
1.0
1001
ACAD
1000
MTEXTBEGIN
1070
    73
1070
     1
1070
    44
1040
1.0
1070
    74
1070
     0
1000
MTEXTEND
  0
LINE
  5
1A230
330
163B8
100
AcDbEntity
  8
寸法
 62
     0
 48
50.0
370
    -2
100
AcDbLine
 10
7529.673057123648
 20
6367.733020419888
 30
0.0
 11
7481.673057123647
 21
6367.733020419888
 31
0.0
  0
INSERT
  5
1A231
330
163B8
100
AcDbEntity
  8
寸法
 62
     0
 48
50.0
370
    -2
100
AcDbBlockReference
  2
_DOTSMALL
 10
7529.673057123648
 20
6367.733020419888
 30
0.0
 41
100.0
 42
100.0
 43
100.0
 50
180.0
  0
INSERT
  5
1A232
330
163B8
100
AcDbEntity
  8
寸法
 62
     0
 48
50.0
370
    -2
100
AcDbBlockReference
  2
_DOTSMALL
 10
7481.673057123647
 20
6367.733020419888
 30
0.0
 41
100.0
 42
100.0
 43
100.0
  0
POINT
  5
1A233
330
163B8
100
AcDbEntity
  8
DEFPOINTS
 62
     0
 48
50.0
100
AcDbPoint
 10
7529.673057123648
 20
6902.16379118614
 30
0.0
  0
POINT
  5
1A234
330
163B8
100
AcDbEntity
  8
DEFPOINTS
 62
     0
 48
50.0
100
AcDbPoint
 10
7481.673057123647
 20
6928.163791186054
 30
0.0
  0
POINT
  5
1A235
330
163B8
100
AcDbEntity
  8
DEFPOINTS
 62
     0
 48
50.0
100
AcDbPoint
 10
7481.673057123647
 20
6367.733020419888
 30
0.0
  0
ENDBLK
  5
1648C
330
163B8
100
AcDbEntity
  8
0
 48
50.0
100
AcDbBlockEnd
  0
BLOCK
  5
1648D
330
163C7
100
AcDbEntity
  8
0
 48
50.0
100
AcDbBlockBegin
  2
*D10
 70
     1
 10
0.0
 20
0.0
 30
0.0
  3
*D10
  1

  0
LINE
  5
1A220
330
163C7
100
AcDbEntity
  8
寸法
 62
     0
 48
50.0
370
    -2
100
AcDbLine
 10
7584.673057123648
 20
6882.163791186143
 30
0.0
 11
7584.673057123648
 21
6307.733020419888
 31
0.0
  0
LINE
  5
1A221
330
163C7
100
AcDbEntity
  8
寸法
 62
     0
 48
50.0
370
    -2
100
AcDbLine
 10
7529.673057123648
 20
6882.16379118614
 30
0.0
 11
7529.673057123648
 21
6307.733020419888
 31
0.0
  0
LINE
  5
1A222
330
163C7
100
AcDbEntity
  8
寸法
 62
     0
 48
50.0
370
    -2
100
AcDbLine
 10
7529.673057123648
 20
6367.733020419889
 30
0.0
 11
7429.67305712365
 21
6367.733020419889
 31
0.0
  0
LINE
  5
1A223
330
163C7
100
AcDbEntity
  8
寸法
 62
     0
 48
50.0
370
    -2
100
AcDbLine
 10
7584.673057123648
 20
6367.733020419889
 30
0.0
 11
8001.643619872124
 21
6367.733020419889
 31
0.0
  0
LINE
  5
1A224
330
163C7
100
AcDbEntity
  8
寸法
 62
     0
 48
50.0
370
    -2
100
AcDbLine
 10
7529.673057123648
 20
6367.733020419889
 30
0.0
 11
7584.673057123648
 21
6367.733020419889
 31
0.0
  0
INSERT
  5
1A225
330
163C7
100
AcDbEntity
  8
寸法
 62
     0
 48
50.0
370
    -2
100
AcDbBlockReference
  2
_DOTSMALL
 10
7529.673057123648
 20
6367.733020419889
 30
0.0
 41
100.0
 42
100.0
 43
100.0
  0
INSERT
  5
1A226
330
163C7
100
AcDbEntity
  8
寸法
 62
     0
 48
50.0
370
    -2
100
AcDbBlockReference
  2
_DOTSMALL
 10
7584.673057123648
 20
6367.733020419889
 30
0.0
 41
100.0
 42
100.0
 43
100.0
 50
180.0
  0
MTEXT
  5
1A227
330
163C7
100
AcDbEntity
  8
寸法
 62
     7
 48
50.0
100
AcDbMText
 10
7893.158338497887
 20
6467.733020419889
 30
0.0
 40
120.0
 41
0.0
 71
     5
 72
     1
  1
\A1;55
  7
STYLE1
 73
     1
 44
1.0
1001
ACAD
1000
MTEXTBEGIN
1070
    73
1070
     1
1070
    44
1040
1.0
1070
    74
1070
     0
1000
MTEXTEND
  0
POINT
  5
1A228
330
163C7
100
AcDbEntity
  8
DEFPOINTS
 62
     0
 48
50.0
100
AcDbPoint
 10
7584.673057123648
 20
6902.163791186143
 30
0.0
  0
POINT
  5
1A229
330
163C7
100
AcDbEntity
  8
DEFPOINTS
 62
     0
 48
50.0
100
AcDbPoint
 10
7529.673057123648
 20
6902.16379118614
 30
0.0
  0
POINT
  5
1A22A
330
163C7
100
AcDbEntity
  8
DEFPOINTS
 62
     0
 48
50.0
100
AcDbPoint
 10
7529.673057123648
 20
6367.733020419889
 30
0.0
  0
ENDBLK
  5
16499
330
163C7
100
AcDbEntity
  8
0
 48
50.0
100
AcDbBlockEnd
  0
BLOCK
  5
172A1
330
163E1
100
AcDbEntity
  8
0
 48
50.0
100
AcDbBlockBegin
  2
*D11
 70
     1
 10
0.0
 20
0.0
 30
0.0
  3
*D11
  1

  0
LINE
  5
1A217
330
163E1
100
AcDbEntity
  8
寸法
 62
     0
 48
50.0
370
    -2
100
AcDbLine
 10
5429.673057123672
 20
10392.16379118605
 30
0.0
 11
5429.673057123672
 21
10647.97201081115
 31
0.0
  0
LINE
  5
1A218
330
163E1
100
AcDbEntity
  8
寸法
 62
     0
 48
50.0
370
    -2
100
AcDbLine
 10
7529.673057123673
 20
10392.16379118615
 30
0.0
 11
7529.673057123673
 21
10647.97201081115
 31
0.0
  0
LINE
  5
1A219
330
163E1
100
AcDbEntity
  8
寸法
 62
     0
 48
50.0
370
    -2
100
AcDbLine
 10
5429.673057123672
 20
10587.97201081115
 30
0.0
 11
7529.673057123673
 21
10587.97201081115
 31
0.0
  0
INSERT
  5
1A21A
330
163E1
100
AcDbEntity
  8
寸法
 62
     0
 48
50.0
370
    -2
100
AcDbBlockReference
  2
_DOTSMALL
 10
5429.673057123672
 20
10587.97201081115
 30
0.0
 41
100.0
 42
100.0
 43
100.0
 50
180.0
  0
INSERT
  5
1A21B
330
163E1
100
AcDbEntity
  8
寸法
 62
     0
 48
50.0
370
    -2
100
AcDbBlockReference
  2
_DOTSMALL
 10
7529.673057123673
 20
10587.97201081115
 30
0.0
 41
100.0
 42
100.0
 43
100.0
  0
MTEXT
  5
1A21C
330
163E1
100
AcDbEntity
  8
寸法
 62
     7
 48
50.0
100
AcDbMText
 10
6479.673057123673
 20
10687.98382183477
 30
0.0
 40
120.0
 41
0.0
 71
     5
 72
     1
  1
\A1;5X420=2100
  7
STYLE1
 73
     1
 44
1.0
1001
ACAD
1000
MTEXTBEGIN
1070
    73
1070
     1
1070
    44
1040
1.0
1070
    74
1070
     0
1000
MTEXTEND
  0
POINT
  5
1A21D
330
163E1
100
AcDbEntity
  8
DEFPOINTS
 62
     0
 48
50.0
100
AcDbPoint
 10
5429.673057123672
 20
10372.16379118605
 30
0.0
  0
POINT
  5
1A21E
330
163E1
100
AcDbEntity
  8
DEFPOINTS
 62
     0
 48
50.0
100
AcDbPoint
 10
7529.673057123673
 20
10372.16379118615
 30
0.0
  0
POINT
  5
1A21F
330
163E1
100
AcDbEntity
  8
DEFPOINTS
 62
     0
 48
50.0
100
AcDbPoint
 10
7529.673057123673
 20
10587.97201081115
 30
0.0
  0
ENDBLK
  5
172AB
330
163E1
100
AcDbEntity
  8
0
 48
50.0
100
AcDbBlockEnd
  0
BLOCK
  5
164B0
330
163ED
100
AcDbEntity
  8
0
 48
50.0
100
AcDbBlockBegin
  2
*D12
 70
     1
 10
0.0
 20
0.0
 30
0.0
  3
*D12
  1

  0
LINE
  5
1A20C
330
163ED
100
AcDbEntity
  8
寸法
 62
     0
 48
50.0
370
    -2
100
AcDbLine
 10
3164.673057123638
 20
10392.16379118605
 30
0.0
 11
3164.673057123638
 21
10647.97201081103
 31
0.0
  0
LINE
  5
1A20D
330
163ED
100
AcDbEntity
  8
寸法
 62
     0
 48
50.0
370
    -2
100
AcDbLine
 10
3219.673057123672
 20
10392.16379118605
 30
0.0
 11
3219.673057123672
 21
10647.97201081103
 31
0.0
  0
LINE
  5
1A20E
330
163ED
100
AcDbEntity
  8
寸法
 62
     0
 48
50.0
370
    -2
100
AcDbLine
 10
3219.673057123672
 20
10587.97201081103
 30
0.0
 11
3319.673057123672
 21
10587.97201081103
 31
0.0
  0
LINE
  5
1A20F
330
163ED
100
AcDbEntity
  8
寸法
 62
     0
 48
50.0
370
    -2
100
AcDbLine
 10
3164.673057123638
 20
10587.97201081103
 30
0.0
 11
2747.702494375162
 21
10587.97201081103
 31
0.0
  0
LINE
  5
1A210
330
163ED
100
AcDbEntity
  8
寸法
 62
     0
 48
50.0
370
    -2
100
AcDbLine
 10
3219.673057123672
 20
10587.97201081103
 30
0.0
 11
3164.673057123638
 21
10587.97201081103
 31
0.0
  0
INSERT
  5
1A211
330
163ED
100
AcDbEntity
  8
寸法
 62
     0
 48
50.0
370
    -2
100
AcDbBlockReference
  2
_DOTSMALL
 10
3219.673057123672
 20
10587.97201081103
 30
0.0
 41
100.0
 42
100.0
 43
100.0
 50
180.0
  0
INSERT
  5
1A212
330
163ED
100
AcDbEntity
  8
寸法
 62
     0
 48
50.0
370
    -2
100
AcDbBlockReference
  2
_DOTSMALL
 10
3164.673057123638
 20
10587.97201081103
 30
0.0
 41
100.0
 42
100.0
 43
100.0
  0
MTEXT
  5
1A213
330
163ED
100
AcDbEntity
  8
寸法
 62
     7
 48
50.0
100
AcDbMText
 10
2856.187775749399
 20
10687.97201081103
 30
0.0
 40
120.0
 41
0.0
 71
     5
 72
     1
  1
\A1;55
  7
STYLE1
 73
     1
 44
1.0
1001
ACAD
1000
MTEXTBEGIN
1070
    73
1070
     1
1070
    44
1040
1.0
1070
    74
1070
     0
1000
MTEXTEND
  0
POINT
  5
1A214
330
163ED
100
AcDbEntity
  8
DEFPOINTS
 62
     0
 48
50.0
100
AcDbPoint
 10
3164.673057123638
 20
10372.16379118605
 30
0.0
  0
POINT
  5
1A215
330
163ED
100
AcDbEntity
  8
DEFPOINTS
 62
     0
 48
50.0
100
AcDbPoint
 10
3219.673057123672
 20
10372.16379118605
 30
0.0
  0
POINT
  5
1A216
330
163ED
100
AcDbEntity
  8
DEFPOINTS
 62
     0
 48
50.0
100
AcDbPoint
 10
3219.673057123672
 20
10587.97201081103
 30
0.0
  0
ENDBLK
  5
164BC
330
163ED
100
AcDbEntity
  8
0
 48
50.0
100
AcDbBlockEnd
  0
BLOCK
  5
164BD
330
163FB
100
AcDbEntity
  8
0
 48
50.0
100
AcDbBlockBegin
  2
*D13
 70
     1
 10
0.0
 20
0.0
 30
0.0
  3
*D13
  1

  0
LINE
  5
1A201
330
163FB
100
AcDbEntity
  8
寸法
 62
     0
 48
50.0
370
    -2
100
AcDbLine
 10
7529.673057123673
 20
10392.16379118615
 30
0.0
 11
7529.673057123673
 21
10647.97201081113
 31
0.0
  0
LINE
  5
1A202
330
163FB
100
AcDbEntity
  8
寸法
 62
     0
 48
50.0
370
    -2
100
AcDbLine
 10
7584.673057123673
 20
10392.16379118615
 30
0.0
 11
7584.673057123673
 21
10647.97201081113
 31
0.0
  0
LINE
  5
1A203
330
163FB
100
AcDbEntity
  8
寸法
 62
     0
 48
50.0
370
    -2
100
AcDbLine
 10
7529.673057123673
 20
10587.97201081113
 30
0.0
 11
7429.673057123673
 21
10587.97201081113
 31
0.0
  0
LINE
  5
1A204
330
163FB
100
AcDbEntity
  8
寸法
 62
     0
 48
50.0
370
    -2
100
AcDbLine
 10
7584.673057123673
 20
10587.97201081113
 30
0.0
 11
8001.643619872151
 21
10587.97201081113
 31
0.0
  0
LINE
  5
1A205
330
163FB
100
AcDbEntity
  8
寸法
 62
     0
 48
50.0
370
    -2
100
AcDbLine
 10
7529.673057123673
 20
10587.97201081113
 30
0.0
 11
7584.673057123673
 21
10587.97201081113
 31
0.0
  0
INSERT
  5
1A206
330
163FB
100
AcDbEntity
  8
寸法
 62
     0
 48
50.0
370
    -2
100
AcDbBlockReference
  2
_DOTSMALL
 10
7529.673057123673
 20
10587.97201081113
 30
0.0
 41
100.0
 42
100.0
 43
100.0
  0
INSERT
  5
1A207
330
163FB
100
AcDbEntity
  8
寸法
 62
     0
 48
50.0
370
    -2
100
AcDbBlockReference
  2
_DOTSMALL
 10
7584.673057123673
 20
10587.97201081113
 30
0.0
 41
100.0
 42
100.0
 43
100.0
 50
180.0
  0
MTEXT
  5
1A208
330
163FB
100
AcDbEntity
  8
寸法
 62
     7
 48
50.0
100
AcDbMText
 10
7893.158338497912
 20
10687.97201081113
 30
0.0
 40
120.0
 41
0.0
 71
     5
 72
     1
  1
\A1;55
  7
STYLE1
 73
     1
 44
1.0
1001
ACAD
1000
MTEXTBEGIN
1070
    73
1070
     1
1070
    44
1040
1.0
1070
    74
1070
     0
1000
MTEXTEND
  0
POINT
  5
1A209
330
163FB
100
AcDbEntity
  8
DEFPOINTS
 62
     0
 48
50.0
100
AcDbPoint
 10
7529.673057123673
 20
10372.16379118615
 30
0.0
  0
POINT
  5
1A20A
330
163FB
100
AcDbEntity
  8
DEFPOINTS
 62
     0
 48
50.0
100
AcDbPoint
 10
7584.673057123673
 20
10372.16379118615
 30
0.0
  0
POINT
  5
1A20B
330
163FB
100
AcDbEntity
  8
DEFPOINTS
 62
     0
 48
50.0
100
AcDbPoint
 10
7584.673057123673
 20
10587.97201081113
 30
0.0
  0
ENDBLK
  5
164C9
330
163FB
100
AcDbEntity
  8
0
 48
50.0
100
AcDbBlockEnd
  0
BLOCK
  5
165B6
330
165B5
100
AcDbEntity
  8
0
 48
50.0
100
AcDbBlockBegin
  2
*D14
 70
     1
 10
0.0
 20
0.0
 30
0.0
  3
*D14
  1

  0
LINE
  5
1A1EB
330
165B5
100
AcDbEntity
  8
寸法
 62
     0
 48
50.0
370
    -2
100
AcDbLine
 10
3267.673057123666
 20
6908.163791186051
 30
0.0
 11
3267.673057123666
 21
6307.733020419888
 31
0.0
  0
LINE
  5
1A1EC
330
165B5
100
AcDbEntity
  8
寸法
 62
     0
 48
50.0
370
    -2
100
AcDbLine
 10
3219.673057123662
 20
6882.163791186052
 30
0.0
 11
3219.673057123662
 21
6307.733020419888
 31
0.0
  0
LINE
  5
1A1ED
330
165B5
100
AcDbEntity
  8
寸法
 62
     0
 48
50.0
370
    -2
100
AcDbLine
 10
3267.673057123666
 20
6367.733020419888
 30
0.0
 11
3367.673057123666
 21
6367.733020419888
 31
0.0
  0
LINE
  5
1A1EE
330
165B5
100
AcDbEntity
  8
寸法
 62
     0
 48
50.0
370
    -2
100
AcDbLine
 10
3219.673057123662
 20
6367.733020419888
 30
0.0
 11
3119.673057123662
 21
6367.733020419888
 31
0.0
  0
MTEXT
  5
1A1EF
330
165B5
100
AcDbEntity
  8
寸法
 62
     7
 48
50.0
100
AcDbMText
 10
3380.575028123723
 20
6467.733020419888
 30
0.0
 40
120.0
 41
0.0
 71
     5
 72
     1
  1
\A1;48
  7
STYLE1
 73
     1
 44
1.0
1001
ACAD
1000
MTEXTBEGIN
1070
    73
1070
     1
1070
    44
1040
1.0
1070
    74
1070
     0
1000
MTEXTEND
  0
LINE
  5
1A1F0
330
165B5
100
AcDbEntity
  8
寸法
 62
     0
 48
50.0
370
    -2
100
AcDbLine
 10
3267.673057123666
 20
6367.733020419888
 30
0.0
 11
3219.673057123662
 21
6367.733020419888
 31
0.0
  0
INSERT
  5
1A1F1
330
165B5
100
AcDbEntity
  8
寸法
 62
     0
 48
50.0
370
    -2
100
AcDbBlockReference
  2
_DOTSMALL
 10
3267.673057123666
 20
6367.733020419888
 30
0.0
 41
100.0
 42
100.0
 43
100.0
 50
180.0
  0
INSERT
  5
1A1F2
330
165B5
100
AcDbEntity
  8
寸法
 62
     0
 48
50.0
370
    -2
100
AcDbBlockReference
  2
_DOTSMALL
 10
3219.673057123662
 20
6367.733020419888
 30
0.0
 41
100.0
 42
100.0
 43
100.0
  0
POINT
  5
1A1F3
330
165B5
100
AcDbEntity
  8
DEFPOINTS
 62
     0
 48
50.0
100
AcDbPoint
 10
3267.673057123666
 20
6928.163791186051
 30
0.0
  0
POINT
  5
1A1F4
330
165B5
100
AcDbEntity
  8
DEFPOINTS
 62
     0
 48
50.0
100
AcDbPoint
 10
3219.673057123662
 20
6902.163791186052
 30
0.0
  0
POINT
  5
1A1F5
330
165B5
100
AcDbEntity
  8
DEFPOINTS
 62
     0
 48
50.0
100
AcDbPoint
 10
3219.673057123662
 20
6367.733020419888
 30
0.0
  0
ENDBLK
  5
165C3
330
165B5
100
AcDbEntity
  8
0
 48
50.0
100
AcDbBlockEnd
  0
BLOCK
  5
165C5
330
165C4
100
AcDbEntity
  8
0
 48
50.0
100
AcDbBlockBegin
  2
*D15
 70
     1
 10
0.0
 20
0.0
 30
0.0
  3
*D15
  1

  0
LINE
  5
1A1F6
330
165C4
100
AcDbEntity
  8
寸法
 62
     0
 48
50.0
370
    -2
100
AcDbLine
 10
5319.673057123649
 20
6882.16379118614
 30
0.0
 11
5319.673057123649
 21
6307.733020419888
 31
0.0
  0
LINE
  5
1A1F7
330
165C4
100
AcDbEntity
  8
寸法
 62
     0
 48
50.0
370
    -2
100
AcDbLine
 10
5271.673057123646
 20
6908.163791186052
 30
0.0
 11
5271.673057123646
 21
6307.733020419888
 31
0.0
  0
LINE
  5
1A1F8
330
165C4
100
AcDbEntity
  8
寸法
 62
     0
 48
50.0
370
    -2
100
AcDbLine
 10
5319.673057123649
 20
6367.733020419888
 30
0.0
 11
5419.673057123649
 21
6367.733020419888
 31
0.0
  0
LINE
  5
1A1F9
330
165C4
100
AcDbEntity
  8
寸法
 62
     0
 48
50.0
370
    -2
100
AcDbLine
 10
5271.673057123646
 20
6367.733020419888
 30
0.0
 11
5171.673057123649
 21
6367.733020419888
 31
0.0
  0
MTEXT
  5
1A1FA
330
165C4
100
AcDbEntity
  8
寸法
 62
     7
 48
50.0
100
AcDbMText
 10
5160.7101594749
 20
6467.733020419888
 30
0.0
 40
120.0
 41
0.0
 71
     5
 72
     1
  1
\A1;48
  7
STYLE1
 73
     1
 44
1.0
1001
ACAD
1000
MTEXTBEGIN
1070
    73
1070
     1
1070
    44
1040
1.0
1070
    74
1070
     0
1000
MTEXTEND
  0
LINE
  5
1A1FB
330
165C4
100
AcDbEntity
  8
寸法
 62
     0
 48
50.0
370
    -2
100
AcDbLine
 10
5319.673057123649
 20
6367.733020419888
 30
0.0
 11
5271.673057123646
 21
6367.733020419888
 31
0.0
  0
INSERT
  5
1A1FC
330
165C4
100
AcDbEntity
  8
寸法
 62
     0
 48
50.0
370
    -2
100
AcDbBlockReference
  2
_DOTSMALL
 10
5319.673057123649
 20
6367.733020419888
 30
0.0
 41
100.0
 42
100.0
 43
100.0
 50
180.0
  0
INSERT
  5
1A1FD
330
165C4
100
AcDbEntity
  8
寸法
 62
     0
 48
50.0
370
    -2
100
AcDbBlockReference
  2
_DOTSMALL
 10
5271.673057123646
 20
6367.733020419888
 30
0.0
 41
100.0
 42
100.0
 43
100.0
  0
POINT
  5
1A1FE
330
165C4
100
AcDbEntity
  8
DEFPOINTS
 62
     0
 48
50.0
100
AcDbPoint
 10
5319.673057123649
 20
6902.16379118614
 30
0.0
  0
POINT
  5
1A1FF
330
165C4
100
AcDbEntity
  8
DEFPOINTS
 62
     0
 48
50.0
100
AcDbPoint
 10
5271.673057123646
 20
6928.163791186054
 30
0.0
  0
POINT
  5
1A200
330
165C4
100
AcDbEntity
  8
DEFPOINTS
 62
     0
 48
50.0
100
AcDbPoint
 10
5271.673057123646
 20
6367.733020419888
 30
0.0
  0
ENDBLK
  5
165D2
330
165C4
100
AcDbEntity
  8
0
 48
50.0
100
AcDbBlockEnd
  0
BLOCK
  5
1663F
330
165EA
100
AcDbEntity
  8
0
 48
50.0
100
AcDbBlockBegin
  2
*D16
 70
     1
 10
0.0
 20
0.0
 30
0.0
  3
*D16
  1

  0
LINE
  5
1A1E2
330
165EA
100
AcDbEntity
  8
寸法
 62
     0
 48
50.0
370
    -2
100
AcDbLine
 10
5429.673057123662
 20
6882.163791186052
 30
0.0
 11
5429.673057123662
 21
6307.733020419888
 31
0.0
  0
LINE
  5
1A1E3
330
165EA
100
AcDbEntity
  8
寸法
 62
     0
 48
50.0
370
    -2
100
AcDbLine
 10
5319.673057123649
 20
6882.16379118614
 30
0.0
 11
5319.673057123649
 21
6307.733020419888
 31
0.0
  0
LINE
  5
1A1E4
330
165EA
100
AcDbEntity
  8
寸法
 62
     0
 48
50.0
370
    -2
100
AcDbLine
 10
5429.673057123662
 20
6367.733020419889
 30
0.0
 11
5319.673057123649
 21
6367.733020419889
 31
0.0
  0
MTEXT
  5
1A1E5
330
165EA
100
AcDbEntity
  8
寸法
 62
     7
 48
50.0
100
AcDbMText
 10
5374.673057123656
 20
6216.041125383657
 30
0.0
 40
120.0
 41
0.0
 71
     5
 72
     1
  1
\A1;110
  7
STYLE1
 73
     1
 44
1.0
1001
ACAD
1000
MTEXTBEGIN
1070
    73
1070
     1
1070
    44
1040
1.0
1070
    74
1070
     0
1000
MTEXTEND
  0
INSERT
  5
1A1E6
330
165EA
100
AcDbEntity
  8
寸法
 62
     0
 48
50.0
370
    -2
100
AcDbBlockReference
  2
_DOTSMALL
 10
5429.673057123662
 20
6367.733020419889
 30
0.0
 41
100.0
 42
100.0
 43
100.0
  0
INSERT
  5
1A1E7
330
165EA
100
AcDbEntity
  8
寸法
 62
     0
 48
50.0
370
    -2
100
AcDbBlockReference
  2
_DOTSMALL
 10
5319.673057123649
 20
6367.733020419889
 30
0.0
 41
100.0
 42
100.0
 43
100.0
 50
180.0
  0
POINT
  5
1A1E8
330
165EA
100
AcDbEntity
  8
DEFPOINTS
 62
     0
 48
50.0
100
AcDbPoint
 10
5429.673057123662
 20
6902.163791186052
 30
0.0
  0
POINT
  5
1A1E9
330
165EA
100
AcDbEntity
  8
DEFPOINTS
 62
     0
 48
50.0
100
AcDbPoint
 10
5319.673057123649
 20
6902.16379118614
 30
0.0
  0
POINT
  5
1A1EA
330
165EA
100
AcDbEntity
  8
DEFPOINTS
 62
     0
 48
50.0
100
AcDbPoint
 10
5319.673057123649
 20
6367.733020419889
 30
0.0
  0
ENDBLK
  5
16649
330
165EA
100
AcDbEntity
  8
0
 48
50.0
100
AcDbBlockEnd
  0
BLOCK
  5
166D0
330
166CF
100
AcDbEntity
  8
0
 48
50.0
100
AcDbBlockBegin
  2
*D17
 70
     1
 10
0.0
 20
0.0
 30
0.0
  3
*D17
  1

  0
LINE
  5
1A1D7
330
166CF
100
AcDbEntity
  8
寸法
 62
     0
 48
50.0
370
    -2
100
AcDbLine
 10
5429.673057123672
 20
10392.1637911861
 30
0.0
 11
5429.673057123672
 21
10647.97201081115
 31
0.0
  0
LINE
  5
1A1D8
330
166CF
100
AcDbEntity
  8
寸法
 62
     0
 48
50.0
370
    -2
100
AcDbLine
 10
5319.673057123673
 20
10392.1637911861
 30
0.0
 11
5319.673057123673
 21
10647.97201081115
 31
0.0
  0
LINE
  5
1A1D9
330
166CF
100
AcDbEntity
  8
寸法
 62
     0
 48
50.0
370
    -2
100
AcDbLine
 10
5429.673057123672
 20
10587.97201081115
 30
0.0
 11
5529.673057123672
 21
10587.97201081115
 31
0.0
  0
LINE
  5
1A1DA
330
166CF
100
AcDbEntity
  8
寸法
 62
     0
 48
50.0
370
    -2
100
AcDbLine
 10
5319.673057123673
 20
10587.97201081115
 30
0.0
 11
5219.673057123674
 21
10587.97201081115
 31
0.0
  0
LINE
  5
1A1DB
330
166CF
100
AcDbEntity
  8
寸法
 62
     0
 48
50.0
370
    -2
100
AcDbLine
 10
5429.673057123672
 20
10587.97201081115
 30
0.0
 11
5319.673057123673
 21
10587.97201081115
 31
0.0
  0
INSERT
  5
1A1DC
330
166CF
100
AcDbEntity
  8
寸法
 62
     0
 48
50.0
370
    -2
100
AcDbBlockReference
  2
_DOTSMALL
 10
5429.673057123672
 20
10587.97201081115
 30
0.0
 41
100.0
 42
100.0
 43
100.0
 50
180.0
  0
INSERT
  5
1A1DD
330
166CF
100
AcDbEntity
  8
寸法
 62
     0
 48
50.0
370
    -2
100
AcDbBlockReference
  2
_DOTSMALL
 10
5319.673057123673
 20
10587.97201081115
 30
0.0
 41
100.0
 42
100.0
 43
100.0
  0
MTEXT
  5
1A1DE
330
166CF
100
AcDbEntity
  8
寸法
 62
     7
 48
50.0
100
AcDbMText
 10
5374.673057123673
 20
10687.97201081115
 30
0.0
 40
120.0
 41
0.0
 71
     5
 72
     1
  1
\A1;110
  7
STYLE1
 73
     1
 44
1.0
1001
ACAD
1000
MTEXTBEGIN
1070
    73
1070
     1
1070
    44
1040
1.0
1070
    74
1070
     0
1000
MTEXTEND
  0
POINT
  5
1A1DF
330
166CF
100
AcDbEntity
  8
DEFPOINTS
 62
     0
 48
50.0
100
AcDbPoint
 10
5429.673057123672
 20
10372.1637911861
 30
0.0
  0
POINT
  5
1A1E0
330
166CF
100
AcDbEntity
  8
DEFPOINTS
 62
     0
 48
50.0
100
AcDbPoint
 10
5319.673057123673
 20
10372.1637911861
 30
0.0
  0
POINT
  5
1A1E1
330
166CF
100
AcDbEntity
  8
DEFPOINTS
 62
     0
 48
50.0
100
AcDbPoint
 10
5319.673057123673
 20
10587.97201081115
 30
0.0
  0
ENDBLK
  5
166DC
330
166CF
100
AcDbEntity
  8
0
 48
50.0
100
AcDbBlockEnd
  0
BLOCK
  5
1726C
330
16908
100
AcDbEntity
  8
0
 48
50.0
100
AcDbBlockBegin
  2
*D18
 70
     1
 10
0.0
 20
0.0
 30
0.0
  3
*D18
  1

  0
LINE
  5
1A1CF
330
16908
100
AcDbEntity
  8
寸法
 62
     0
 48
50.0
370
    -2
100
AcDbLine
 10
7584.673057123673
 20
10392.16379118615
 30
0.0
 11
7584.673057123673
 21
10897.29348436745
 31
0.0
  0
LINE
  5
1A1D0
330
16908
100
AcDbEntity
  8
寸法
 62
     0
 48
50.0
370
    -2
100
AcDbLine
 10
5374.673057123673
 20
10837.29348436745
 30
0.0
 11
7584.673057123673
 21
10837.29348436745
 31
0.0
  0
INSERT
  5
1A1D1
330
16908
100
AcDbEntity
  8
寸法
 62
     0
 48
50.0
370
    -2
100
AcDbBlockReference
  2
_DOTSMALL
 10
5374.673057123673
 20
10837.29348436745
 30
0.0
 41
100.0
 42
100.0
 43
100.0
 50
180.0
  0
INSERT
  5
1A1D2
330
16908
100
AcDbEntity
  8
寸法
 62
     0
 48
50.0
370
    -2
100
AcDbBlockReference
  2
_DOTSMALL
 10
7584.673057123673
 20
10837.29348436745
 30
0.0
 41
100.0
 42
100.0
 43
100.0
  0
MTEXT
  5
1A1D3
330
16908
100
AcDbEntity
  8
寸法
 62
     7
 48
50.0
100
AcDbMText
 10
6479.673057123673
 20
10937.30529539107
 30
0.0
 40
120.0
 41
0.0
 71
     5
 72
     1
  1
\A1;2210
  7
STYLE1
 73
     1
 44
1.0
1001
ACAD
1000
MTEXTBEGIN
1070
    73
1070
     1
1070
    44
1040
1.0
1070
    74
1070
     0
1000
MTEXTEND
  0
POINT
  5
1A1D4
330
16908
100
AcDbEntity
  8
DEFPOINTS
 62
     0
 48
50.0
100
AcDbPoint
 10
5374.673057123673
 20
10746.9599251691
 30
0.0
  0
POINT
  5
1A1D5
330
16908
100
AcDbEntity
  8
DEFPOINTS
 62
     0
 48
50.0
100
AcDbPoint
 10
7584.673057123673
 20
10372.16379118615
 30
0.0
  0
POINT
  5
1A1D6
330
16908
100
AcDbEntity
  8
DEFPOINTS
 62
     0
 48
50.0
100
AcDbPoint
 10
7584.673057123673
 20
10837.29348436745
 30
0.0
  0
ENDBLK
  5
17275
330
16908
100
AcDbEntity
  8
0
 48
50.0
100
AcDbBlockEnd
  0
BLOCK
  5
17BDC
330
17BD3
100
AcDbEntity
  8
0
 48
50.0
100
AcDbBlockBegin
  2
*D19
 70
     1
 10
0.0
 20
0.0
 30
0.0
  3
*D19
  1

  0
LINE
  5
1A1B5
330
17BD3
100
AcDbEntity
  8
寸法
 62
     0
 48
50.0
370
    -2
100
AcDbLine
 10
3267.673057123666
 20
6908.163791186051
 30
0.0
 11
3267.673057123666
 21
6307.733020419888
 31
0.0
  0
LINE
  5
1A1B6
330
17BD3
100
AcDbEntity
  8
寸法
 62
     0
 48
50.0
370
    -2
100
AcDbLine
 10
5271.673057123646
 20
6367.733020419888
 30
0.0
 11
3267.673057123666
 21
6367.733020419888
 31
0.0
  0
INSERT
  5
1A1B7
330
17BD3
100
AcDbEntity
  8
寸法
 62
     0
 48
50.0
370
    -2
100
AcDbBlockReference
  2
_DOTSMALL
 10
5271.673057123646
 20
6367.733020419888
 30
0.0
 41
100.0
 42
100.0
 43
100.0
  0
INSERT
  5
1A1B8
330
17BD3
100
AcDbEntity
  8
寸法
 62
     0
 48
50.0
370
    -2
100
AcDbBlockReference
  2
_DOTSMALL
 10
3267.673057123666
 20
6367.733020419888
 30
0.0
 41
100.0
 42
100.0
 43
100.0
 50
180.0
  0
MTEXT
  5
1A1B9
330
17BD3
100
AcDbEntity
  8
寸法
 62
     7
 48
50.0
100
AcDbMText
 10
4269.673057123656
 20
6467.744831443511
 30
0.0
 40
120.0
 41
0.0
 71
     5
 72
     1
  1
\A1;有効開口部間口 2004
  7
STYLE1
 73
     1
 44
1.0
1001
ACAD
1000
MTEXTBEGIN
1070
    73
1070
     1
1070
    44
1040
1.0
1070
    74
1070
     0
1000
MTEXTEND
  0
POINT
  5
1A1BA
330
17BD3
100
AcDbEntity
  8
DEFPOINTS
 62
     0
 48
50.0
100
AcDbPoint
 10
5271.673057123646
 20
6928.163791186054
 30
0.0
  0
POINT
  5
1A1BB
330
17BD3
100
AcDbEntity
  8
DEFPOINTS
 62
     0
 48
50.0
100
AcDbPoint
 10
3267.673057123666
 20
6928.163791186051
 30
0.0
  0
POINT
  5
1A1BC
330
17BD3
100
AcDbEntity
  8
DEFPOINTS
 62
     0
 48
50.0
100
AcDbPoint
 10
3267.673057123666
 20
6367.733020419888
 30
0.0
  0
ENDBLK
  5
17BDD
330
17BD3
100
AcDbEntity
  8
0
 48
50.0
100
AcDbBlockEnd
  0
BLOCK
  5
17BE8
330
17BDE
100
AcDbEntity
  8
0
 48
50.0
100
AcDbBlockBegin
  2
*D20
 70
     1
 10
0.0
 20
0.0
 30
0.0
  3
*D20
  1

  0
LINE
  5
1A1BD
330
17BDE
100
AcDbEntity
  8
寸法
 62
     0
 48
50.0
370
    -2
100
AcDbLine
 10
3219.673057123672
 20
10392.16379118605
 30
0.0
 11
3219.673057123672
 21
10647.97201081115
 31
0.0
  0
LINE
  5
1A1BE
330
17BDE
100
AcDbEntity
  8
寸法
 62
     0
 48
50.0
370
    -2
100
AcDbLine
 10
5319.673057123673
 20
10392.16379118615
 30
0.0
 11
5319.673057123673
 21
10647.97201081115
 31
0.0
  0
LINE
  5
1A1BF
330
17BDE
100
AcDbEntity
  8
寸法
 62
     0
 48
50.0
370
    -2
100
AcDbLine
 10
3219.673057123672
 20
10587.97201081115
 30
0.0
 11
5319.673057123673
 21
10587.97201081115
 31
0.0
  0
INSERT
  5
1A1C0
330
17BDE
100
AcDbEntity
  8
寸法
 62
     0
 48
50.0
370
    -2
100
AcDbBlockReference
  2
_DOTSMALL
 10
3219.673057123672
 20
10587.97201081115
 30
0.0
 41
100.0
 42
100.0
 43
100.0
 50
180.0
  0
INSERT
  5
1A1C1
330
17BDE
100
AcDbEntity
  8
寸法
 62
     0
 48
50.0
370
    -2
100
AcDbBlockReference
  2
_DOTSMALL
 10
5319.673057123673
 20
10587.97201081115
 30
0.0
 41
100.0
 42
100.0
 43
100.0
  0
MTEXT
  5
1A1C2
330
17BDE
100
AcDbEntity
  8
寸法
 62
     7
 48
50.0
100
AcDbMText
 10
4269.673057123673
 20
10687.98382183477
 30
0.0
 40
120.0
 41
0.0
 71
     5
 72
     1
  1
\A1;5X420=2100
  7
STYLE1
 73
     1
 44
1.0
1001
ACAD
1000
MTEXTBEGIN
1070
    73
1070
     1
1070
    44
1040
1.0
1070
    74
1070
     0
1000
MTEXTEND
  0
POINT
  5
1A1C3
330
17BDE
100
AcDbEntity
  8
DEFPOINTS
 62
     0
 48
50.0
100
AcDbPoint
 10
3219.673057123672
 20
10372.16379118605
 30
0.0
  0
POINT
  5
1A1C4
330
17BDE
100
AcDbEntity
  8
DEFPOINTS
 62
     0
 48
50.0
100
AcDbPoint
 10
5319.673057123673
 20
10372.16379118615
 30
0.0
  0
POINT
  5
1A1C5
330
17BDE
100
AcDbEntity
  8
DEFPOINTS
 62
     0
 48
50.0
100
AcDbPoint
 10
5319.673057123673
 20
10587.97201081115
 30
0.0
  0
ENDBLK
  5
17BE9
330
17BDE
100
AcDbEntity
  8
0
 48
50.0
100
AcDbBlockEnd
  0
BLOCK
  5
17C02
330
17BF8
100
AcDbEntity
  8
0
 48
50.0
100
AcDbBlockBegin
  2
*D21
 70
     1
 10
0.0
 20
0.0
 30
0.0
  3
*D21
  1

  0
LINE
  5
1A1C6
330
17BF8
100
AcDbEntity
  8
寸法
 62
     0
 48
50.0
370
    -2
100
AcDbLine
 10
3164.673057123638
 20
10392.16379118602
 30
0.0
 11
3164.673057123638
 21
10897.29348436745
 31
0.0
  0
LINE
  5
1A1C7
330
17BF8
100
AcDbEntity
  8
寸法
 62
     0
 48
50.0
370
    -2
100
AcDbLine
 10
5374.673057123673
 20
10766.9599251691
 30
0.0
 11
5374.673057123673
 21
10897.29348436745
 31
0.0
  0
LINE
  5
1A1C8
330
17BF8
100
AcDbEntity
  8
寸法
 62
     0
 48
50.0
370
    -2
100
AcDbLine
 10
3164.673057123638
 20
10837.29348436745
 30
0.0
 11
5374.673057123673
 21
10837.29348436745
 31
0.0
  0
INSERT
  5
1A1C9
330
17BF8
100
AcDbEntity
  8
寸法
 62
     0
 48
50.0
370
    -2
100
AcDbBlockReference
  2
_DOTSMALL
 10
3164.673057123638
 20
10837.29348436745
 30
0.0
 41
100.0
 42
100.0
 43
100.0
 50
180.0
  0
INSERT
  5
1A1CA
330
17BF8
100
AcDbEntity
  8
寸法
 62
     0
 48
50.0
370
    -2
100
AcDbBlockReference
  2
_DOTSMALL
 10
5374.673057123673
 20
10837.29348436745
 30
0.0
 41
100.0
 42
100.0
 43
100.0
  0
MTEXT
  5
1A1CB
330
17BF8
100
AcDbEntity
  8
寸法
 62
     7
 48
50.0
100
AcDbMText
 10
4269.673057123655
 20
10937.30529539107
 30
0.0
 40
120.0
 41
0.0
 71
     5
 72
     1
  1
\A1;2210
  7
STYLE1
 73
     1
 44
1.0
1001
ACAD
1000
MTEXTBEGIN
1070
    73
1070
     1
1070
    44
1040
1.0
1070
    74
1070
     0
1000
MTEXTEND
  0
POINT
  5
1A1CC
330
17BF8
100
AcDbEntity
  8
DEFPOINTS
 62
     0
 48
50.0
100
AcDbPoint
 10
3164.673057123638
 20
10372.16379118602
 30
0.0
  0
POINT
  5
1A1CD
330
17BF8
100
AcDbEntity
  8
DEFPOINTS
 62
     0
 48
50.0
100
AcDbPoint
 10
5374.673057123673
 20
10746.9599251691
 30
0.0
  0
POINT
  5
1A1CE
330
17BF8
100
AcDbEntity
  8
DEFPOINTS
 62
     0
 48
50.0
100
AcDbPoint
 10
5374.673057123673
 20
10837.29348436745
 30
0.0
  0
ENDBLK
  5
17C03
330
17BF8
100
AcDbEntity
  8
0
 48
50.0
100
AcDbBlockEnd
  0
BLOCK
  5
19694
330
1968A
100
AcDbEntity
  8
0
 48
50.0
100
AcDbBlockBegin
  2
*D22
 70
     1
 10
0.0
 20
0.0
 30
0.0
  3
*D22
  1

  0
LINE
  5
1AFDE
330
1968A
100
AcDbEntity
  8
寸法
 62
     0
 48
50.0
370
    -2
100
AcDbLine
 10
7584.673057123669
 20
4057.025570836422
 30
0.0
 11
7584.673057123669
 21
4502.751842568327
 31
0.0
  0
LINE
  5
1AFDF
330
1968A
100
AcDbEntity
  8
寸法
 62
     0
 48
50.0
370
    -2
100
AcDbLine
 10
3164.673057123664
 20
4057.025570836422
 30
0.0
 11
3164.673057123664
 21
4502.751842568327
 31
0.0
  0
LINE
  5
1AFE0
330
1968A
100
AcDbEntity
  8
寸法
 62
     0
 48
50.0
370
    -2
100
AcDbLine
 10
7584.673057123669
 20
4442.751842568327
 30
0.0
 11
3164.673057123664
 21
4442.751842568327
 31
0.0
  0
INSERT
  5
1AFE1
330
1968A
100
AcDbEntity
  8
寸法
 62
     0
 48
50.0
370
    -2
100
AcDbBlockReference
  2
_DOTSMALL
 10
7584.673057123669
 20
4442.751842568327
 30
0.0
 41
100.0
 42
100.0
 43
100.0
  0
INSERT
  5
1AFE2
330
1968A
100
AcDbEntity
  8
寸法
 62
     0
 48
50.0
370
    -2
100
AcDbBlockReference
  2
_DOTSMALL
 10
3164.673057123664
 20
4442.751842568327
 30
0.0
 41
100.0
 42
100.0
 43
100.0
 50
180.0
  0
MTEXT
  5
1AFE3
330
1968A
100
AcDbEntity
  8
寸法
 62
     7
 48
50.0
100
AcDbMText
 10
5374.673057123665
 20
4542.763653591949
 30
0.0
 40
120.0
 41
0.0
 71
     5
 72
     1
  1
\A1;柱外寸法4420
  7
STYLE1
 73
     1
 44
1.0
1001
ACAD
1000
MTEXTBEGIN
1070
    73
1070
     1
1070
    44
1040
1.0
1070
    74
1070
     0
1000
MTEXTEND
  0
POINT
  5
1AFE4
330
1968A
100
AcDbEntity
  8
DEFPOINTS
 62
     0
 48
50.0
100
AcDbPoint
 10
7584.673057123669
 20
4037.025570836424
 30
0.0
  0
POINT
  5
1AFE5
330
1968A
100
AcDbEntity
  8
DEFPOINTS
 62
     0
 48
50.0
100
AcDbPoint
 10
3164.673057123664
 20
4037.025570836424
 30
0.0
  0
POINT
  5
1AFE6
330
1968A
100
AcDbEntity
  8
DEFPOINTS
 62
     0
 48
50.0
100
AcDbPoint
 10
3164.673057123664
 20
4442.751842568327
 30
0.0
  0
ENDBLK
  5
19695
330
1968A
100
AcDbEntity
  8
0
 48
50.0
100
AcDbBlockEnd
  0
BLOCK
  5
196A0
330
19696
100
AcDbEntity
  8
0
 48
50.0
100
AcDbBlockBegin
  2
*D23
 70
     1
 10
0.0
 20
0.0
 30
0.0
  3
*D23
  1

  0
LINE
  5
1AFD5
330
19696
100
AcDbEntity
  8
寸法
 62
     0
 48
50.0
370
    -2
100
AcDbLine
 10
3114.673057123664
 20
4057.025570836422
 30
0.0
 11
3114.673057123664
 21
4702.660763782415
 31
0.0
  0
LINE
  5
1AFD6
330
19696
100
AcDbEntity
  8
寸法
 62
     0
 48
50.0
370
    -2
100
AcDbLine
 10
7634.673057123666
 20
4057.02557083642
 30
0.0
 11
7634.673057123666
 21
4702.660763782415
 31
0.0
  0
LINE
  5
1AFD7
330
19696
100
AcDbEntity
  8
寸法
 62
     0
 48
50.0
370
    -2
100
AcDbLine
 10
3114.673057123664
 20
4642.660763782415
 30
0.0
 11
7634.673057123666
 21
4642.660763782415
 31
0.0
  0
INSERT
  5
1AFD8
330
19696
100
AcDbEntity
  8
寸法
 62
     0
 48
50.0
370
    -2
100
AcDbBlockReference
  2
_DOTSMALL
 10
3114.673057123664
 20
4642.660763782415
 30
0.0
 41
100.0
 42
100.0
 43
100.0
 50
180.0
  0
INSERT
  5
1AFD9
330
19696
100
AcDbEntity
  8
寸法
 62
     0
 48
50.0
370
    -2
100
AcDbBlockReference
  2
_DOTSMALL
 10
7634.673057123666
 20
4642.660763782415
 30
0.0
 41
100.0
 42
100.0
 43
100.0
  0
MTEXT
  5
1AFDA
330
19696
100
AcDbEntity
  8
寸法
 62
     7
 48
50.0
100
AcDbMText
 10
5374.673057123665
 20
4742.672574806037
 30
0.0
 40
120.0
 41
0.0
 71
     5
 72
     1
  1
\A1;4520
  7
STYLE1
 73
     1
 44
1.0
1001
ACAD
1000
MTEXTBEGIN
1070
    73
1070
     1
1070
    44
1040
1.0
1070
    74
1070
     0
1000
MTEXTEND
  0
POINT
  5
1AFDB
330
19696
100
AcDbEntity
  8
DEFPOINTS
 62
     0
 48
50.0
100
AcDbPoint
 10
3114.673057123664
 20
4037.025570836424
 30
0.0
  0
POINT
  5
1AFDC
330
19696
100
AcDbEntity
  8
DEFPOINTS
 62
     0
 48
50.0
100
AcDbPoint
 10
7634.673057123666
 20
4037.02557083642
 30
0.0
  0
POINT
  5
1AFDD
330
19696
100
AcDbEntity
  8
DEFPOINTS
 62
     0
 48
50.0
100
AcDbPoint
 10
7634.673057123666
 20
4642.660763782415
 30
0.0
  0
ENDBLK
  5
196A1
330
19696
100
AcDbEntity
  8
0
 48
50.0
100
AcDbBlockEnd
  0
BLOCK
  5
196AE
330
196A2
100
AcDbEntity
  8
0
 48
50.0
100
AcDbBlockBegin
  2
*D24
 70
     1
 10
0.0
 20
0.0
 30
0.0
  3
*D24
  1

  0
LINE
  5
1AFCA
330
196A2
100
AcDbEntity
  8
寸法
 62
     0
 48
50.0
370
    -2
100
AcDbLine
 10
3164.673057123664
 20
4057.025570836422
 30
0.0
 11
3164.673057123664
 21
4502.751842568327
 31
0.0
  0
LINE
  5
1AFCB
330
196A2
100
AcDbEntity
  8
寸法
 62
     0
 48
50.0
370
    -2
100
AcDbLine
 10
3114.673057123664
 20
4057.025570836422
 30
0.0
 11
3114.673057123664
 21
4502.751842568327
 31
0.0
  0
LINE
  5
1AFCC
330
196A2
100
AcDbEntity
  8
寸法
 62
     0
 48
50.0
370
    -2
100
AcDbLine
 10
3164.673057123664
 20
4442.751842568327
 30
0.0
 11
3264.673057123664
 21
4442.751842568327
 31
0.0
  0
LINE
  5
1AFCD
330
196A2
100
AcDbEntity
  8
寸法
 62
     0
 48
50.0
370
    -2
100
AcDbLine
 10
3114.673057123664
 20
4442.751842568327
 30
0.0
 11
2695.140531654929
 21
4442.751842568327
 31
0.0
  0
LINE
  5
1AFCE
330
196A2
100
AcDbEntity
  8
寸法
 62
     0
 48
50.0
370
    -2
100
AcDbLine
 10
3164.673057123664
 20
4442.751842568327
 30
0.0
 11
3114.673057123664
 21
4442.751842568327
 31
0.0
  0
INSERT
  5
1AFCF
330
196A2
100
AcDbEntity
  8
寸法
 62
     0
 48
50.0
370
    -2
100
AcDbBlockReference
  2
_DOTSMALL
 10
3164.673057123664
 20
4442.751842568327
 30
0.0
 41
100.0
 42
100.0
 43
100.0
 50
180.0
  0
INSERT
  5
1AFD0
330
196A2
100
AcDbEntity
  8
寸法
 62
     0
 48
50.0
370
    -2
100
AcDbBlockReference
  2
_DOTSMALL
 10
3114.673057123664
 20
4442.751842568327
 30
0.0
 41
100.0
 42
100.0
 43
100.0
  0
MTEXT
  5
1AFD1
330
196A2
100
AcDbEntity
  8
寸法
 62
     7
 48
50.0
100
AcDbMText
 10
2801.187775749417
 20
4542.751842568327
 30
0.0
 40
120.0
 41
0.0
 71
     5
 72
     1
  1
\A1;50
  7
STYLE1
 73
     1
 44
1.0
1001
ACAD
1000
MTEXTBEGIN
1070
    73
1070
     1
1070
    44
1040
1.0
1070
    74
1070
     0
1000
MTEXTEND
  0
POINT
  5
1AFD2
330
196A2
100
AcDbEntity
  8
DEFPOINTS
 62
     0
 48
50.0
100
AcDbPoint
 10
3164.673057123664
 20
4037.025570836424
 30
0.0
  0
POINT
  5
1AFD3
330
196A2
100
AcDbEntity
  8
DEFPOINTS
 62
     0
 48
50.0
100
AcDbPoint
 10
3114.673057123664
 20
4037.025570836424
 30
0.0
  0
POINT
  5
1AFD4
330
196A2
100
AcDbEntity
  8
DEFPOINTS
 62
     0
 48
50.0
100
AcDbPoint
 10
3114.673057123664
 20
4442.751842568327
 30
0.0
  0
ENDBLK
  5
196AF
330
196A2
100
AcDbEntity
  8
0
 48
50.0
100
AcDbBlockEnd
  0
BLOCK
  5
196BC
330
196B0
100
AcDbEntity
  8
0
 48
50.0
100
AcDbBlockBegin
  2
*D25
 70
     1
 10
0.0
 20
0.0
 30
0.0
  3
*D25
  1

  0
LINE
  5
1AFBF
330
196B0
100
AcDbEntity
  8
寸法
 62
     0
 48
50.0
370
    -2
100
AcDbLine
 10
7634.673057123666
 20
4057.02557083642
 30
0.0
 11
7634.673057123666
 21
4502.751842568328
 31
0.0
  0
LINE
  5
1AFC0
330
196B0
100
AcDbEntity
  8
寸法
 62
     0
 48
50.0
370
    -2
100
AcDbLine
 10
7584.673057123669
 20
4057.025570836422
 30
0.0
 11
7584.673057123669
 21
4502.751842568328
 31
0.0
  0
LINE
  5
1AFC1
330
196B0
100
AcDbEntity
  8
寸法
 62
     0
 48
50.0
370
    -2
100
AcDbLine
 10
7584.673057123669
 20
4442.75184256833
 30
0.0
 11
7484.673057123669
 21
4442.75184256833
 31
0.0
  0
LINE
  5
1AFC2
330
196B0
100
AcDbEntity
  8
寸法
 62
     0
 48
50.0
370
    -2
100
AcDbLine
 10
7634.673057123666
 20
4442.75184256833
 30
0.0
 11
8054.205582592395
 21
4442.75184256833
 31
0.0
  0
LINE
  5
1AFC3
330
196B0
100
AcDbEntity
  8
寸法
 62
     0
 48
50.0
370
    -2
100
AcDbLine
 10
7584.673057123669
 20
4442.75184256833
 30
0.0
 11
7634.673057123666
 21
4442.75184256833
 31
0.0
  0
INSERT
  5
1AFC4
330
196B0
100
AcDbEntity
  8
寸法
 62
     0
 48
50.0
370
    -2
100
AcDbBlockReference
  2
_DOTSMALL
 10
7584.673057123669
 20
4442.75184256833
 30
0.0
 41
100.0
 42
100.0
 43
100.0
  0
INSERT
  5
1AFC5
330
196B0
100
AcDbEntity
  8
寸法
 62
     0
 48
50.0
370
    -2
100
AcDbBlockReference
  2
_DOTSMALL
 10
7634.673057123666
 20
4442.75184256833
 30
0.0
 41
100.0
 42
100.0
 43
100.0
 50
180.0
  0
MTEXT
  5
1AFC6
330
196B0
100
AcDbEntity
  8
寸法
 62
     7
 48
50.0
100
AcDbMText
 10
7948.158338497908
 20
4542.751842568329
 30
0.0
 40
120.0
 41
0.0
 71
     5
 72
     1
  1
\A1;50
  7
STYLE1
 73
     1
 44
1.0
1001
ACAD
1000
MTEXTBEGIN
1070
    73
1070
     1
1070
    44
1040
1.0
1070
    74
1070
     0
1000
MTEXTEND
  0
POINT
  5
1AFC7
330
196B0
100
AcDbEntity
  8
DEFPOINTS
 62
     0
 48
50.0
100
AcDbPoint
 10
7634.673057123666
 20
4037.02557083642
 30
0.0
  0
POINT
  5
1AFC8
330
196B0
100
AcDbEntity
  8
DEFPOINTS
 62
     0
 48
50.0
100
AcDbPoint
 10
7584.673057123669
 20
4037.025570836424
 30
0.0
  0
POINT
  5
1AFC9
330
196B0
100
AcDbEntity
  8
DEFPOINTS
 62
     0
 48
50.0
100
AcDbPoint
 10
7584.673057123669
 20
4442.75184256833
 30
0.0
  0
ENDBLK
  5
196BD
330
196B0
100
AcDbEntity
  8
0
 48
50.0
100
AcDbBlockEnd
  0
BLOCK
  5
19C59
330
19C4F
100
AcDbEntity
  8
0
 48
50.0
100
AcDbBlockBegin
  2
*D26
 70
     1
 10
0.0
 20
0.0
 30
0.0
  3
*D26
  1

  0
LINE
  5
1AFB6
330
19C4F
100
AcDbEntity
  8
寸法
 62
     0
 48
50.0
370
    -2
100
AcDbLine
 10
10150.22148434441
 20
3802.025570836413
 30
0.0
 11
9266.471355161156
 21
3802.025570836413
 31
0.0
  0
LINE
  5
1AFB7
330
19C4F
100
AcDbEntity
  8
寸法
 62
     0
 48
50.0
370
    -2
100
AcDbLine
 10
10150.22148434441
 20
2012.025570836412
 30
0.0
 11
9266.471355161156
 21
2012.025570836412
 31
0.0
  0
LINE
  5
1AFB8
330
19C4F
100
AcDbEntity
  8
寸法
 62
     0
 48
50.0
370
    -2
100
AcDbLine
 10
9326.471355161157
 20
3802.025570836413
 30
0.0
 11
9326.471355161157
 21
2012.025570836412
 31
0.0
  0
INSERT
  5
1AFB9
330
19C4F
100
AcDbEntity
  8
寸法
 62
     0
 48
50.0
370
    -2
100
AcDbBlockReference
  2
_DOTSMALL
 10
9326.471355161157
 20
3802.025570836413
 30
0.0
 41
100.0
 42
100.0
 43
100.0
 50
90.0
  0
INSERT
  5
1AFBA
330
19C4F
100
AcDbEntity
  8
寸法
 62
     0
 48
50.0
370
    -2
100
AcDbBlockReference
  2
_DOTSMALL
 10
9326.471355161157
 20
2012.025570836412
 30
0.0
 41
100.0
 42
100.0
 43
100.0
 50
270.0
  0
MTEXT
  5
1AFBB
330
19C4F
100
AcDbEntity
  8
寸法
 62
     7
 48
50.0
100
AcDbMText
 10
9226.471355161157
 20
2907.025570836415
 30
0.0
 40
120.0
 41
0.0
 71
     5
 72
     1
  1
\A1;1790
  7
STYLE1
 11
0.0000000000000001
 21
1.0
 31
0.0
 73
     1
 44
1.0
1001
ACAD
1000
MTEXTBEGIN
1070
    73
1070
     1
1070
    44
1040
1.0
1070
    74
1070
     0
1000
MTEXTEND
  0
POINT
  5
1AFBC
330
19C4F
100
AcDbEntity
  8
DEFPOINTS
 62
     0
 48
50.0
100
AcDbPoint
 10
10170.22148434441
 20
3802.025570836413
 30
0.0
  0
POINT
  5
1AFBD
330
19C4F
100
AcDbEntity
  8
DEFPOINTS
 62
     0
 48
50.0
100
AcDbPoint
 10
10170.22148434441
 20
2012.025570836412
 30
0.0
  0
POINT
  5
1AFBE
330
19C4F
100
AcDbEntity
  8
DEFPOINTS
 62
     0
 48
50.0
100
AcDbPoint
 10
9326.471355161157
 20
2012.025570836412
 30
0.0
  0
ENDBLK
  5
19C5A
330
19C4F
100
AcDbEntity
  8
0
 48
50.0
100
AcDbBlockEnd
  0
BLOCK
  5
19C65
330
19C5B
100
AcDbEntity
  8
0
 48
50.0
100
AcDbBlockBegin
  2
*D27
 70
     1
 10
0.0
 20
0.0
 30
0.0
  3
*D27
  1

  0
LINE
  5
1AFAD
330
19C5B
100
AcDbEntity
  8
寸法
 62
     0
 48
50.0
370
    -2
100
AcDbLine
 10
10150.22148434441
 20
1962.025570836412
 30
0.0
 11
8966.471355161152
 21
1962.025570836412
 31
0.0
  0
LINE
  5
1AFAE
330
19C5B
100
AcDbEntity
  8
寸法
 62
     0
 48
50.0
370
    -2
100
AcDbLine
 10
10090.22148434441
 20
4037.025570836415
 30
0.0
 11
8966.471355161152
 21
4037.025570836416
 31
0.0
  0
LINE
  5
1AFAF
330
19C5B
100
AcDbEntity
  8
寸法
 62
     0
 48
50.0
370
    -2
100
AcDbLine
 10
9026.471355161154
 20
1962.025570836412
 30
0.0
 11
9026.471355161154
 21
4037.025570836416
 31
0.0
  0
INSERT
  5
1AFB0
330
19C5B
100
AcDbEntity
  8
寸法
 62
     0
 48
50.0
370
    -2
100
AcDbBlockReference
  2
_DOTSMALL
 10
9026.471355161154
 20
1962.025570836412
 30
0.0
 41
100.0
 42
100.0
 43
100.0
 50
270.0
  0
INSERT
  5
1AFB1
330
19C5B
100
AcDbEntity
  8
寸法
 62
     0
 48
50.0
370
    -2
100
AcDbBlockReference
  2
_DOTSMALL
 10
9026.471355161154
 20
4037.025570836416
 30
0.0
 41
100.0
 42
100.0
 43
100.0
 50
90.0
  0
MTEXT
  5
1AFB2
330
19C5B
100
AcDbEntity
  8
寸法
 62
     7
 48
50.0
100
AcDbMText
 10
8926.459544137532
 20
2999.525570836416
 30
0.0
 40
120.0
 41
0.0
 71
     5
 72
     1
  1
\A1;2075
  7
STYLE1
 11
0.0000000000000001
 21
1.0
 31
0.0
 73
     1
 44
1.0
1001
ACAD
1000
MTEXTBEGIN
1070
    73
1070
     1
1070
    44
1040
1.0
1070
    74
1070
     0
1000
MTEXTEND
  0
POINT
  5
1AFB3
330
19C5B
100
AcDbEntity
  8
DEFPOINTS
 62
     0
 48
50.0
100
AcDbPoint
 10
10170.22148434441
 20
1962.025570836412
 30
0.0
  0
POINT
  5
1AFB4
330
19C5B
100
AcDbEntity
  8
DEFPOINTS
 62
     0
 48
50.0
100
AcDbPoint
 10
10110.22148434441
 20
4037.025570836415
 30
0.0
  0
POINT
  5
1AFB5
330
19C5B
100
AcDbEntity
  8
DEFPOINTS
 62
     0
 48
50.0
100
AcDbPoint
 10
9026.471355161154
 20
4037.025570836416
 30
0.0
  0
ENDBLK
  5
19C66
330
19C5B
100
AcDbEntity
  8
0
 48
50.0
100
AcDbBlockEnd
  0
BLOCK
  5
19C71
330
19C67
100
AcDbEntity
  8
0
 48
50.0
100
AcDbBlockBegin
  2
*D28
 70
     1
 10
0.0
 20
0.0
 30
0.0
  3
*D28
  1

  0
LINE
  5
1AFA4
330
19C67
100
AcDbEntity
  8
寸法
 62
     0
 48
50.0
370
    -2
100
AcDbLine
 10
13660.22148434441
 20
1962.025570836418
 30
0.0
 11
14405.14864231654
 21
1962.025570836418
 31
0.0
  0
LINE
  5
1AFA5
330
19C67
100
AcDbEntity
  8
寸法
 62
     0
 48
50.0
370
    -2
100
AcDbLine
 10
13740.22148434441
 20
3982.025570836418
 30
0.0
 11
14405.14864231654
 21
3982.025570836418
 31
0.0
  0
LINE
  5
1AFA6
330
19C67
100
AcDbEntity
  8
寸法
 62
     0
 48
50.0
370
    -2
100
AcDbLine
 10
14345.14864231654
 20
1962.025570836418
 30
0.0
 11
14345.14864231654
 21
3982.025570836418
 31
0.0
  0
INSERT
  5
1AFA7
330
19C67
100
AcDbEntity
  8
寸法
 62
     0
 48
50.0
370
    -2
100
AcDbBlockReference
  2
_DOTSMALL
 10
14345.14864231654
 20
1962.025570836418
 30
0.0
 41
100.0
 42
100.0
 43
100.0
 50
270.0
  0
INSERT
  5
1AFA8
330
19C67
100
AcDbEntity
  8
寸法
 62
     0
 48
50.0
370
    -2
100
AcDbBlockReference
  2
_DOTSMALL
 10
14345.14864231654
 20
3982.025570836418
 30
0.0
 41
100.0
 42
100.0
 43
100.0
 50
90.0
  0
MTEXT
  5
1AFA9
330
19C67
100
AcDbEntity
  8
寸法
 62
     7
 48
50.0
100
AcDbMText
 10
14245.13683129292
 20
2972.02557083642
 30
0.0
 40
120.0
 41
0.0
 71
     5
 72
     1
  1
\A1;2020
  7
STYLE1
 11
0.0000000000000001
 21
1.0
 31
0.0
 73
     1
 44
1.0
1001
ACAD
1000
MTEXTBEGIN
1070
    73
1070
     1
1070
    44
1040
1.0
1070
    74
1070
     0
1000
MTEXTEND
  0
POINT
  5
1AFAA
330
19C67
100
AcDbEntity
  8
DEFPOINTS
 62
     0
 48
50.0
100
AcDbPoint
 10
13640.22148434441
 20
1962.025570836418
 30
0.0
  0
POINT
  5
1AFAB
330
19C67
100
AcDbEntity
  8
DEFPOINTS
 62
     0
 48
50.0
100
AcDbPoint
 10
13720.22148434441
 20
3982.025570836418
 30
0.0
  0
POINT
  5
1AFAC
330
19C67
100
AcDbEntity
  8
DEFPOINTS
 62
     0
 48
50.0
100
AcDbPoint
 10
14345.14864231654
 20
3982.025570836418
 30
0.0
  0
ENDBLK
  5
19C72
330
19C67
100
AcDbEntity
  8
0
 48
50.0
100
AcDbBlockEnd
  0
BLOCK
  5
19C7F
330
19C73
100
AcDbEntity
  8
0
 48
50.0
100
AcDbBlockBegin
  2
*D29
 70
     1
 10
0.0
 20
0.0
 30
0.0
  3
*D29
  1

  0
LINE
  5
1A12E
330
19C73
100
AcDbEntity
  8
寸法
 62
     0
 48
50.0
370
    -2
100
AcDbLine
 10
10150.22148434441
 20
2012.025570836417
 30
0.0
 11
9266.471355161156
 21
2012.025570836417
 31
0.0
  0
LINE
  5
1A12F
330
19C73
100
AcDbEntity
  8
寸法
 62
     0
 48
50.0
370
    -2
100
AcDbLine
 10
10095.22148434441
 20
1962.025570836416
 30
0.0
 11
9266.471355161156
 21
1962.025570836417
 31
0.0
  0
LINE
  5
1A130
330
19C73
100
AcDbEntity
  8
寸法
 62
     0
 48
50.0
370
    -2
100
AcDbLine
 10
9326.471355161157
 20
2012.025570836417
 30
0.0
 11
9326.471355161157
 21
2112.025570836417
 31
0.0
  0
LINE
  5
1A131
330
19C73
100
AcDbEntity
  8
寸法
 62
     0
 48
50.0
370
    -2
100
AcDbLine
 10
9326.471355161157
 20
1962.025570836417
 30
0.0
 11
9326.471355161157
 21
1549.931082647436
 31
0.0
  0
LINE
  5
1A132
330
19C73
100
AcDbEntity
  8
寸法
 62
     0
 48
50.0
370
    -2
100
AcDbLine
 10
9326.471355161157
 20
2012.025570836417
 30
0.0
 11
9326.471355161157
 21
1962.025570836417
 31
0.0
  0
INSERT
  5
1A133
330
19C73
100
AcDbEntity
  8
寸法
 62
     0
 48
50.0
370
    -2
100
AcDbBlockReference
  2
_DOTSMALL
 10
9326.471355161157
 20
2012.025570836417
 30
0.0
 41
100.0
 42
100.0
 43
100.0
 50
270.0
  0
INSERT
  5
1A134
330
19C73
100
AcDbEntity
  8
寸法
 62
     0
 48
50.0
370
    -2
100
AcDbBlockReference
  2
_DOTSMALL
 10
9326.471355161157
 20
1962.025570836417
 30
0.0
 41
100.0
 42
100.0
 43
100.0
 50
90.0
  0
MTEXT
  5
1A135
330
19C73
100
AcDbEntity
  8
寸法
 62
     7
 48
50.0
100
AcDbMText
 10
9226.471355161157
 20
1655.978326741926
 30
0.0
 40
120.0
 41
0.0
 71
     5
 72
     1
  1
\A1;50
  7
STYLE1
 11
0.0000000000000001
 21
1.0
 31
0.0
 73
     1
 44
1.0
1001
ACAD
1000
MTEXTBEGIN
1070
    73
1070
     1
1070
    44
1040
1.0
1070
    74
1070
     0
1000
MTEXTEND
  0
POINT
  5
1A136
330
19C73
100
AcDbEntity
  8
DEFPOINTS
 62
     0
 48
50.0
100
AcDbPoint
 10
10170.22148434441
 20
2012.025570836417
 30
0.0
  0
POINT
  5
1A137
330
19C73
100
AcDbEntity
  8
DEFPOINTS
 62
     0
 48
50.0
100
AcDbPoint
 10
10115.22148434441
 20
1962.025570836416
 30
0.0
  0
POINT
  5
1A138
330
19C73
100
AcDbEntity
  8
DEFPOINTS
 62
     0
 48
50.0
100
AcDbPoint
 10
9326.471355161157
 20
1962.025570836417
 30
0.0
  0
ENDBLK
  5
19C80
330
19C73
100
AcDbEntity
  8
0
 48
50.0
100
AcDbBlockEnd
  0
BLOCK
  5
19C8B
330
19C81
100
AcDbEntity
  8
0
 48
50.0
100
AcDbBlockBegin
  2
*D30
 70
     1
 10
0.0
 20
0.0
 30
0.0
  3
*D30
  1

  0
LINE
  5
1B057
330
19C81
100
AcDbEntity
  8
寸法
 62
     0
 48
50.0
370
    -2
100
AcDbLine
 10
13640.22148434441
 20
4003.836250448072
 30
0.0
 11
13640.22148434441
 21
4495.683024415724
 31
0.0
  0
LINE
  5
1B058
330
19C81
100
AcDbEntity
  8
寸法
 62
     0
 48
50.0
370
    -2
100
AcDbLine
 10
10170.22148434441
 20
4053.027188959392
 30
0.0
 11
10170.22148434441
 21
4495.683024415724
 31
0.0
  0
LINE
  5
1B059
330
19C81
100
AcDbEntity
  8
寸法
 62
     0
 48
50.0
370
    -2
100
AcDbLine
 10
13640.22148434441
 20
4435.683024415723
 30
0.0
 11
10170.22148434441
 21
4435.683024415723
 31
0.0
  0
INSERT
  5
1B05A
330
19C81
100
AcDbEntity
  8
寸法
 62
     0
 48
50.0
370
    -2
100
AcDbBlockReference
  2
_DOTSMALL
 10
13640.22148434441
 20
4435.683024415723
 30
0.0
 41
100.0
 42
100.0
 43
100.0
  0
INSERT
  5
1B05B
330
19C81
100
AcDbEntity
  8
寸法
 62
     0
 48
50.0
370
    -2
100
AcDbBlockReference
  2
_DOTSMALL
 10
10170.22148434441
 20
4435.683024415723
 30
0.0
 41
100.0
 42
100.0
 43
100.0
 50
180.0
  0
MTEXT
  5
1B05C
330
19C81
100
AcDbEntity
  8
寸法
 62
     7
 48
50.0
100
AcDbMText
 10
11905.22148434441
 20
4535.683024415724
 30
0.0
 40
120.0
 41
0.0
 71
     5
 72
     1
  1
\A1;柱外寸法3470
  7
STYLE1
 73
     1
 44
1.0
1001
ACAD
1000
MTEXTBEGIN
1070
    73
1070
     1
1070
    44
1040
1.0
1070
    74
1070
     0
1000
MTEXTEND
  0
POINT
  5
1B05D
330
19C81
100
AcDbEntity
  8
DEFPOINTS
 62
     0
 48
50.0
100
AcDbPoint
 10
13640.22148434441
 20
3983.836250448072
 30
0.0
  0
POINT
  5
1B05E
330
19C81
100
AcDbEntity
  8
DEFPOINTS
 62
     0
 48
50.0
100
AcDbPoint
 10
10170.22148434441
 20
4033.027188959391
 30
0.0
  0
POINT
  5
1B05F
330
19C81
100
AcDbEntity
  8
DEFPOINTS
 62
     0
 48
50.0
100
AcDbPoint
 10
10170.22148434441
 20
4435.683024415723
 30
0.0
  0
ENDBLK
  5
19C8C
330
19C81
100
AcDbEntity
  8
0
 48
50.0
100
AcDbBlockEnd
  0
BLOCK
  5
19C99
330
19C8D
100
AcDbEntity
  8
0
 48
50.0
100
AcDbBlockBegin
  2
*D31
 70
     1
 10
0.0
 20
0.0
 30
0.0
  3
*D31
  1

  0
LINE
  5
1AF90
330
19C8D
100
AcDbEntity
  8
寸法
 62
     0
 48
50.0
370
    -2
100
AcDbLine
 10
10170.22148434441
 20
4053.027188959393
 30
0.0
 11
10170.22148434441
 21
4495.68302441572
 31
0.0
  0
LINE
  5
1AF91
330
19C8D
100
AcDbEntity
  8
寸法
 62
     0
 48
50.0
370
    -2
100
AcDbLine
 10
10110.22148434441
 20
4057.025570836422
 30
0.0
 11
10110.22148434441
 21
4495.68302441572
 31
0.0
  0
LINE
  5
1AF92
330
19C8D
100
AcDbEntity
  8
寸法
 62
     0
 48
50.0
370
    -2
100
AcDbLine
 10
10170.22148434441
 20
4435.68302441572
 30
0.0
 11
10270.22148434441
 21
4435.68302441572
 31
0.0
  0
LINE
  5
1AF93
330
19C8D
100
AcDbEntity
  8
寸法
 62
     0
 48
50.0
370
    -2
100
AcDbLine
 10
10110.22148434441
 20
4435.68302441572
 30
0.0
 11
9690.945893793227
 21
4435.68302441572
 31
0.0
  0
LINE
  5
1AF94
330
19C8D
100
AcDbEntity
  8
寸法
 62
     0
 48
50.0
370
    -2
100
AcDbLine
 10
10170.22148434441
 20
4435.68302441572
 30
0.0
 11
10110.22148434441
 21
4435.68302441572
 31
0.0
  0
INSERT
  5
1AF95
330
19C8D
100
AcDbEntity
  8
寸法
 62
     0
 48
50.0
370
    -2
100
AcDbBlockReference
  2
_DOTSMALL
 10
10170.22148434441
 20
4435.68302441572
 30
0.0
 41
100.0
 42
100.0
 43
100.0
 50
180.0
  0
INSERT
  5
1AF96
330
19C8D
100
AcDbEntity
  8
寸法
 62
     0
 48
50.0
370
    -2
100
AcDbBlockReference
  2
_DOTSMALL
 10
10110.22148434441
 20
4435.68302441572
 30
0.0
 41
100.0
 42
100.0
 43
100.0
  0
MTEXT
  5
1AF97
330
19C8D
100
AcDbEntity
  8
寸法
 62
     7
 48
50.0
100
AcDbMText
 10
9800.583689068819
 20
4535.68302441572
 30
0.0
 40
120.0
 41
0.0
 71
     5
 72
     1
  1
\A1;60
  7
STYLE1
 73
     1
 44
1.0
1001
ACAD
1000
MTEXTBEGIN
1070
    73
1070
     1
1070
    44
1040
1.0
1070
    74
1070
     0
1000
MTEXTEND
  0
POINT
  5
1AF98
330
19C8D
100
AcDbEntity
  8
DEFPOINTS
 62
     0
 48
50.0
100
AcDbPoint
 10
10170.22148434441
 20
4033.027188959391
 30
0.0
  0
POINT
  5
1AF99
330
19C8D
100
AcDbEntity
  8
DEFPOINTS
 62
     0
 48
50.0
100
AcDbPoint
 10
10110.22148434441
 20
4037.02557083642
 30
0.0
  0
POINT
  5
1AF9A
330
19C8D
100
AcDbEntity
  8
DEFPOINTS
 62
     0
 48
50.0
100
AcDbPoint
 10
10110.22148434441
 20
4435.68302441572
 30
0.0
  0
ENDBLK
  5
19C9A
330
19C8D
100
AcDbEntity
  8
0
 48
50.0
100
AcDbBlockEnd
  0
BLOCK
  5
19CA5
330
19C9B
100
AcDbEntity
  8
0
 48
50.0
100
AcDbBlockBegin
  2
*D32
 70
     1
 10
0.0
 20
0.0
 30
0.0
  3
*D32
  1

  0
LINE
  5
1B04E
330
19C9B
100
AcDbEntity
  8
寸法
 62
     0
 48
50.0
370
    -2
100
AcDbLine
 10
13720.22148434441
 20
4002.025570836418
 30
0.0
 11
13720.22148434441
 21
4725.796617201999
 31
0.0
  0
LINE
  5
1B04F
330
19C9B
100
AcDbEntity
  8
寸法
 62
     0
 48
50.0
370
    -2
100
AcDbLine
 10
10110.22148434441
 20
4057.025570836421
 30
0.0
 11
10110.22148434441
 21
4725.796617201999
 31
0.0
  0
LINE
  5
1B050
330
19C9B
100
AcDbEntity
  8
寸法
 62
     0
 48
50.0
370
    -2
100
AcDbLine
 10
13720.22148434441
 20
4665.796617201999
 30
0.0
 11
10110.22148434441
 21
4665.796617201999
 31
0.0
  0
INSERT
  5
1B051
330
19C9B
100
AcDbEntity
  8
寸法
 62
     0
 48
50.0
370
    -2
100
AcDbBlockReference
  2
_DOTSMALL
 10
13720.22148434441
 20
4665.796617201999
 30
0.0
 41
100.0
 42
100.0
 43
100.0
  0
INSERT
  5
1B052
330
19C9B
100
AcDbEntity
  8
寸法
 62
     0
 48
50.0
370
    -2
100
AcDbBlockReference
  2
_DOTSMALL
 10
10110.22148434441
 20
4665.796617201999
 30
0.0
 41
100.0
 42
100.0
 43
100.0
 50
180.0
  0
MTEXT
  5
1B053
330
19C9B
100
AcDbEntity
  8
寸法
 62
     7
 48
50.0
100
AcDbMText
 10
11915.22148434441
 20
4765.796617201998
 30
0.0
 40
120.0
 41
0.0
 71
     5
 72
     1
  1
\A1;3610
  7
STYLE1
 73
     1
 44
1.0
1001
ACAD
1000
MTEXTBEGIN
1070
    73
1070
     1
1070
    44
1040
1.0
1070
    74
1070
     0
1000
MTEXTEND
  0
POINT
  5
1B054
330
19C9B
100
AcDbEntity
  8
DEFPOINTS
 62
     0
 48
50.0
100
AcDbPoint
 10
13720.22148434441
 20
3982.025570836418
 30
0.0
  0
POINT
  5
1B055
330
19C9B
100
AcDbEntity
  8
DEFPOINTS
 62
     0
 48
50.0
100
AcDbPoint
 10
10110.22148434441
 20
4037.02557083642
 30
0.0
  0
POINT
  5
1B056
330
19C9B
100
AcDbEntity
  8
DEFPOINTS
 62
     0
 48
50.0
100
AcDbPoint
 10
10110.22148434441
 20
4665.796617201999
 30
0.0
  0
ENDBLK
  5
19CA6
330
19C9B
100
AcDbEntity
  8
0
 48
50.0
100
AcDbBlockEnd
  0
BLOCK
  5
19CB2
330
19CA7
100
AcDbEntity
  8
0
 48
50.0
100
AcDbBlockBegin
  2
*D33
 70
     1
 10
0.0
 20
0.0
 30
0.0
  3
*D33
  1

  0
LINE
  5
1AF7D
330
19CA7
100
AcDbEntity
  8
寸法
 62
     0
 48
50.0
370
    -2
100
AcDbLine
 10
13640.22148434441
 20
4003.836250448072
 30
0.0
 11
13640.22148434441
 21
4495.683024415724
 31
0.0
  0
LINE
  5
1AF7E
330
19CA7
100
AcDbEntity
  8
寸法
 62
     0
 48
50.0
370
    -2
100
AcDbLine
 10
13720.22148434441
 20
4002.025570836418
 30
0.0
 11
13720.22148434441
 21
4495.683024415724
 31
0.0
  0
LINE
  5
1AF7F
330
19CA7
100
AcDbEntity
  8
寸法
 62
     0
 48
50.0
370
    -2
100
AcDbLine
 10
13640.22148434441
 20
4435.683024415723
 30
0.0
 11
13720.22148434441
 21
4435.683024415723
 31
0.0
  0
LINE
  5
1AF80
330
19CA7
100
AcDbEntity
  8
寸法
 62
     0
 48
50.0
370
    -2
100
AcDbLine
 10
13720.22148434441
 20
4435.683024415723
 30
0.0
 11
14032.31597253339
 21
4435.683024415723
 31
0.0
  0
INSERT
  5
1AF81
330
19CA7
100
AcDbEntity
  8
寸法
 62
     0
 48
50.0
370
    -2
100
AcDbBlockReference
  2
_DOTSMALL
 10
13640.22148434441
 20
4435.683024415723
 30
0.0
 41
100.0
 42
100.0
 43
100.0
 50
180.0
  0
INSERT
  5
1AF82
330
19CA7
100
AcDbEntity
  8
寸法
 62
     0
 48
50.0
370
    -2
100
AcDbBlockReference
  2
_DOTSMALL
 10
13720.22148434441
 20
4435.683024415723
 30
0.0
 41
100.0
 42
100.0
 43
100.0
  0
MTEXT
  5
1AF83
330
19CA7
100
AcDbEntity
  8
寸法
 62
     7
 48
50.0
100
AcDbMText
 10
13926.2687284389
 20
4535.683024415724
 30
0.0
 40
120.0
 41
0.0
 71
     5
 72
     1
  1
\A1;80
  7
STYLE1
 73
     1
 44
1.0
1001
ACAD
1000
MTEXTBEGIN
1070
    73
1070
     1
1070
    44
1040
1.0
1070
    74
1070
     0
1000
MTEXTEND
  0
POINT
  5
1AF84
330
19CA7
100
AcDbEntity
  8
DEFPOINTS
 62
     0
 48
50.0
100
AcDbPoint
 10
13640.22148434441
 20
3983.836250448072
 30
0.0
  0
POINT
  5
1AF85
330
19CA7
100
AcDbEntity
  8
DEFPOINTS
 62
     0
 48
50.0
100
AcDbPoint
 10
13720.22148434441
 20
3982.02557083642
 30
0.0
  0
POINT
  5
1AF86
330
19CA7
100
AcDbEntity
  8
DEFPOINTS
 62
     0
 48
50.0
100
AcDbPoint
 10
13720.22148434441
 20
4435.683024415723
 30
0.0
  0
ENDBLK
  5
19CB3
330
19CA7
100
AcDbEntity
  8
0
 48
50.0
100
AcDbBlockEnd
  0
BLOCK
  5
19CBF
330
19CB4
100
AcDbEntity
  8
0
 48
50.0
100
AcDbBlockBegin
  2
*D34
 70
     1
 10
0.0
 20
0.0
 30
0.0
  3
*D34
  1

  0
LINE
  5
1AF73
330
19CB4
100
AcDbEntity
  8
寸法
 62
     0
 48
50.0
370
    -2
100
AcDbLine
 10
10109.62577063551
 20
4036.323277906079
 30
0.0
 11
9493.691331530227
 21
4054.037428180424
 31
0.0
  0
LINE
  5
1AF74
330
19CB4
100
AcDbEntity
  8
寸法
 62
     0
 48
50.0
370
    -2
100
AcDbLine
 10
10105.57231507888
 20
3895.381554140367
 30
0.0
 11
9489.637875973597
 21
3913.095704414713
 31
0.0
  0
LINE
  5
1AF75
330
19CB4
100
AcDbEntity
  8
寸法
 62
     0
 48
50.0
370
    -2
100
AcDbLine
 10
9549.613077576029
 20
3911.370829709763
 30
0.0
 11
9553.666533132661
 21
4052.312553475476
 31
0.0
  0
LINE
  5
1AF76
330
19CB4
100
AcDbEntity
  8
寸法
 62
     0
 48
50.0
370
    -2
100
AcDbLine
 10
9553.666533132661
 20
4052.312553475476
 30
0.0
 11
9564.015781362355
 21
4412.163763090061
 31
0.0
  0
INSERT
  5
1AF77
330
19CB4
100
AcDbEntity
  8
寸法
 62
     0
 48
50.0
370
    -2
100
AcDbBlockReference
  2
_DOTSMALL
 10
9549.613077576029
 20
3911.370829709763
 30
0.0
 41
100.0
 42
100.0
 43
100.0
 50
268.3526390256363
  0
INSERT
  5
1AF78
330
19CB4
100
AcDbEntity
  8
寸法
 62
     0
 48
50.0
370
    -2
100
AcDbBlockReference
  2
_DOTSMALL
 10
9553.666533132661
 20
4052.312553475476
 30
0.0
 41
100.0
 42
100.0
 43
100.0
 50
88.3526390256363
  0
MTEXT
  5
1AF79
330
19CB4
100
AcDbEntity
  8
寸法
 62
     7
 48
50.0
100
AcDbMText
 10
9460.319883497575
 20
4285.092284126375
 30
0.0
 40
120.0
 41
0.0
 71
     5
 72
     1
  1
\A1;141
  7
STYLE1
 11
0.0287479117491494
 21
0.9995866933738479
 31
0.0
 73
     1
 44
1.0
1001
ACAD
1000
MTEXTBEGIN
1070
    73
1070
     1
1070
    44
1040
1.0
1070
    74
1070
     0
1000
MTEXTEND
  0
POINT
  5
1AF7A
330
19CB4
100
AcDbEntity
  8
DEFPOINTS
 62
     0
 48
50.0
100
AcDbPoint
 10
10129.61750450299
 20
4035.748319671096
 30
0.0
  0
POINT
  5
1AF7B
330
19CB4
100
AcDbEntity
  8
DEFPOINTS
 62
     0
 48
50.0
100
AcDbPoint
 10
10125.56404894636
 20
3894.806595905384
 30
0.0
  0
POINT
  5
1AF7C
330
19CB4
100
AcDbEntity
  8
DEFPOINTS
 62
     0
 48
50.0
100
AcDbPoint
 10
9549.613077576029
 20
3911.370829709763
 30
0.0
  0
ENDBLK
  5
19CC0
330
19CB4
100
AcDbEntity
  8
0
 48
50.0
100
AcDbBlockEnd
  0
BLOCK
  5
1A444
330
1A43A
100
AcDbEntity
  8
0
 48
50.0
100
AcDbBlockBegin
  2
*D35
 70
     1
 10
0.0
 20
0.0
 30
0.0
  3
*D35
  1

  0
LINE
  5
1AF6A
330
1A43A
100
AcDbEntity
  8
寸法
 62
     0
 48
50.0
370
    -2
100
AcDbLine
 10
7604.673057123666
 20
1962.025570836416
 30
0.0
 11
7932.216159445411
 21
1962.025570836416
 31
0.0
  0
LINE
  5
1AF6B
330
1A43A
100
AcDbEntity
  8
寸法
 62
     0
 48
50.0
370
    -2
100
AcDbLine
 10
7604.673057123666
 20
3610.025570836417
 30
0.0
 11
7932.216159445413
 21
3610.025570836417
 31
0.0
  0
LINE
  5
1AF6C
330
1A43A
100
AcDbEntity
  8
寸法
 62
     0
 48
50.0
370
    -2
100
AcDbLine
 10
7872.216159445414
 20
1962.025570836416
 30
0.0
 11
7872.216159445414
 21
3610.025570836417
 31
0.0
  0
INSERT
  5
1AF6D
330
1A43A
100
AcDbEntity
  8
寸法
 62
     0
 48
50.0
370
    -2
100
AcDbBlockReference
  2
_DOTSMALL
 10
7872.216159445414
 20
1962.025570836416
 30
0.0
 41
100.0
 42
100.0
 43
100.0
 50
270.0
  0
INSERT
  5
1AF6E
330
1A43A
100
AcDbEntity
  8
寸法
 62
     0
 48
50.0
370
    -2
100
AcDbBlockReference
  2
_DOTSMALL
 10
7872.216159445414
 20
3610.025570836417
 30
0.0
 41
100.0
 42
100.0
 43
100.0
 50
90.0
  0
MTEXT
  5
1AF6F
330
1A43A
100
AcDbEntity
  8
寸法
 62
     7
 48
50.0
100
AcDbMText
 10
7772.216159445413
 20
2786.025570836418
 30
0.0
 40
120.0
 41
0.0
 71
     5
 72
     1
  1
\A1;有効開口部高サ 1648
  7
STYLE1
 11
0.0000000000000001
 21
1.0
 31
0.0
 73
     1
 44
1.0
1001
ACAD
1000
MTEXTBEGIN
1070
    73
1070
     1
1070
    44
1040
1.0
1070
    74
1070
     0
1000
MTEXTEND
  0
POINT
  5
1AF70
330
1A43A
100
AcDbEntity
  8
DEFPOINTS
 62
     0
 48
50.0
100
AcDbPoint
 10
7584.673057123666
 20
1962.025570836416
 30
0.0
  0
POINT
  5
1AF71
330
1A43A
100
AcDbEntity
  8
DEFPOINTS
 62
     0
 48
50.0
100
AcDbPoint
 10
7584.673057123666
 20
3610.025570836417
 30
0.0
  0
POINT
  5
1AF72
330
1A43A
100
AcDbEntity
  8
DEFPOINTS
 62
     0
 48
50.0
100
AcDbPoint
 10
7872.216159445414
 20
3610.025570836417
 30
0.0
  0
ENDBLK
  5
1A445
330
1A43A
100
AcDbEntity
  8
0
 48
50.0
100
AcDbBlockEnd
  0
BLOCK
  5
1A452
330
1A446
100
AcDbEntity
  8
0
 48
50.0
100
AcDbBlockBegin
  2
*D36
 70
     1
 10
0.0
 20
0.0
 30
0.0
  3
*D36
  1

  0
LINE
  5
1B075
330
1A446
100
AcDbEntity
  8
寸法
 62
     0
 48
50.0
370
    -2
100
AcDbLine
 10
7604.673057123666
 20
3610.025570836417
 30
0.0
 11
7932.216159445414
 21
3610.025570836417
 31
0.0
  0
LINE
  5
1B076
330
1A446
100
AcDbEntity
  8
寸法
 62
     0
 48
50.0
370
    -2
100
AcDbLine
 10
7604.673057123665
 20
3637.025570836418
 30
0.0
 11
7932.216159445414
 21
3637.025570836418
 31
0.0
  0
LINE
  5
1B077
330
1A446
100
AcDbEntity
  8
寸法
 62
     0
 48
50.0
370
    -2
100
AcDbLine
 10
7872.216159445414
 20
3610.025570836417
 30
0.0
 11
7872.216159445414
 21
3510.025570836417
 31
0.0
  0
LINE
  5
1B078
330
1A446
100
AcDbEntity
  8
寸法
 62
     0
 48
50.0
370
    -2
100
AcDbLine
 10
7872.216159445414
 20
3637.025570836418
 30
0.0
 11
7872.216159445414
 21
3737.025570836419
 31
0.0
  0
MTEXT
  5
1B079
330
1A446
100
AcDbEntity
  8
寸法
 62
     7
 48
50.0
100
AcDbMText
 10
8012.38598269178
 20
3637.992770676075
 30
0.0
 40
120.0
 41
0.0
 71
     5
 72
     1
  1
\A1;27
  7
STYLE1
 11
0.0000000000000001
 21
1.0
 31
0.0
 73
     1
 44
1.0
1001
ACAD
1000
MTEXTBEGIN
1070
    73
1070
     1
1070
    44
1040
1.0
1070
    74
1070
     0
1000
MTEXTEND
  0
LINE
  5
1B07A
330
1A446
100
AcDbEntity
  8
寸法
 62
     0
 48
50.0
370
    -2
100
AcDbLine
 10
7872.216159445414
 20
3610.025570836417
 30
0.0
 11
7872.216159445414
 21
3637.025570836418
 31
0.0
  0
INSERT
  5
1B07B
330
1A446
100
AcDbEntity
  8
寸法
 62
     0
 48
50.0
370
    -2
100
AcDbBlockReference
  2
_DOTSMALL
 10
7872.216159445414
 20
3610.025570836417
 30
0.0
 41
100.0
 42
100.0
 43
100.0
 50
90.0
  0
INSERT
  5
1B07C
330
1A446
100
AcDbEntity
  8
寸法
 62
     0
 48
50.0
370
    -2
100
AcDbBlockReference
  2
_DOTSMALL
 10
7872.216159445414
 20
3637.025570836418
 30
0.0
 41
100.0
 42
100.0
 43
100.0
 50
270.0
  0
POINT
  5
1B07D
330
1A446
100
AcDbEntity
  8
DEFPOINTS
 62
     0
 48
50.0
100
AcDbPoint
 10
7584.673057123666
 20
3610.025570836417
 30
0.0
  0
POINT
  5
1B07E
330
1A446
100
AcDbEntity
  8
DEFPOINTS
 62
     0
 48
50.0
100
AcDbPoint
 10
7584.673057123665
 20
3637.025570836418
 30
0.0
  0
POINT
  5
1B07F
330
1A446
100
AcDbEntity
  8
DEFPOINTS
 62
     0
 48
50.0
100
AcDbPoint
 10
7872.216159445414
 20
3637.025570836418
 30
0.0
  0
ENDBLK
  5
1A453
330
1A446
100
AcDbEntity
  8
0
 48
50.0
100
AcDbBlockEnd
  0
BLOCK
  5
1A45F
330
1A454
100
AcDbEntity
  8
0
 48
50.0
100
AcDbBlockBegin
  2
*D37
 70
     1
 10
0.0
 20
0.0
 30
0.0
  3
*D37
  1

  0
LINE
  5
1B06B
330
1A454
100
AcDbEntity
  8
寸法
 62
     0
 48
50.0
370
    -2
100
AcDbLine
 10
7604.673057123665
 20
3637.025570836418
 30
0.0
 11
7932.216159445414
 21
3637.025570836418
 31
0.0
  0
LINE
  5
1B06C
330
1A454
100
AcDbEntity
  8
寸法
 62
     0
 48
50.0
370
    -2
100
AcDbLine
 10
7604.673057123666
 20
3802.025570836416
 30
0.0
 11
7932.216159445414
 21
3802.025570836416
 31
0.0
  0
LINE
  5
1B06D
330
1A454
100
AcDbEntity
  8
寸法
 62
     0
 48
50.0
370
    -2
100
AcDbLine
 10
7872.216159445414
 20
3637.025570836418
 30
0.0
 11
7872.216159445414
 21
3802.025570836416
 31
0.0
  0
LINE
  5
1B06E
330
1A454
100
AcDbEntity
  8
寸法
 62
     0
 48
50.0
370
    -2
100
AcDbLine
 10
7872.216159445414
 20
3802.025570836416
 30
0.0
 11
7872.216159445414
 21
4178.996133584893
 31
0.0
  0
INSERT
  5
1B06F
330
1A454
100
AcDbEntity
  8
寸法
 62
     0
 48
50.0
370
    -2
100
AcDbBlockReference
  2
_DOTSMALL
 10
7872.216159445414
 20
3637.025570836418
 30
0.0
 41
100.0
 42
100.0
 43
100.0
 50
270.0
  0
INSERT
  5
1B070
330
1A454
100
AcDbEntity
  8
寸法
 62
     0
 48
50.0
370
    -2
100
AcDbBlockReference
  2
_DOTSMALL
 10
7872.216159445414
 20
3802.025570836416
 30
0.0
 41
100.0
 42
100.0
 43
100.0
 50
90.0
  0
MTEXT
  5
1B071
330
1A454
100
AcDbEntity
  8
寸法
 62
     7
 48
50.0
100
AcDbMText
 10
7772.216159445413
 20
4040.510852210656
 30
0.0
 40
120.0
 41
0.0
 71
     5
 72
     1
  1
\A1;165
  7
STYLE1
 11
0.0000000000000001
 21
1.0
 31
0.0
 73
     1
 44
1.0
1001
ACAD
1000
MTEXTBEGIN
1070
    73
1070
     1
1070
    44
1040
1.0
1070
    74
1070
     0
1000
MTEXTEND
  0
POINT
  5
1B072
330
1A454
100
AcDbEntity
  8
DEFPOINTS
 62
     0
 48
50.0
100
AcDbPoint
 10
7584.673057123665
 20
3637.025570836418
 30
0.0
  0
POINT
  5
1B073
330
1A454
100
AcDbEntity
  8
DEFPOINTS
 62
     0
 48
50.0
100
AcDbPoint
 10
7584.673057123666
 20
3802.025570836416
 30
0.0
  0
POINT
  5
1B074
330
1A454
100
AcDbEntity
  8
DEFPOINTS
 62
     0
 48
50.0
100
AcDbPoint
 10
7872.216159445414
 20
3802.025570836416
 30
0.0
  0
ENDBLK
  5
1A460
330
1A454
100
AcDbEntity
  8
0
 48
50.0
100
AcDbBlockEnd
  0
ENDSEC
  0
SECTION
  2
ENTITIES
  0
MTEXT
  5
763F
330
747D
100
AcDbEntity
  8
0
100
AcDbMText
 10
302.846345836809
 20
280.1983726409901
 30
0.0
 40
3.5
 41
5.323721266742722
 71
     1
 72
     5
  1

  7
MSMINCHO
 73
     1
 44
1.0
1001
ACAD
1000
MTEXTBEGIN
1070
    73
1070
     1
1070
    44
1040
1.0
1070
    74
1070
     0
1000
MTEXTEND
  0
LINE
  5
10B57
330
747D
100
AcDbEntity
  8
補助
  6
PHANTOM
 62
   230
 48
50.0
100
AcDbLine
 10
139.9999999999995
 20
11409.6
 30
0.0
 11
16307.2
 21
11409.6
 31
0.0
  0
LINE
  5
10B59
330
747D
100
AcDbEntity
  8
仕様書枠
  6
Continuous
 48
50.0
100
AcDbLine
 10
13107.2
 20
1200.0
 30
0.0
 11
13107.2
 21
-0.0000000000000729
 31
0.0
  0
LINE
  5
10B5C
330
747D
100
AcDbEntity
  8
仕様書枠
 48
50.0
100
AcDbLine
 10
16307.2
 20
1200.0
 30
0.0
 11
16307.2
 21
-0.0000000000000909
 31
0.0
  0
LINE
  5
10B5D
330
747D
100
AcDbEntity
  8
仕様書枠
 48
50.0
100
AcDbLine
 10
140.0
 20
0.0
 30
0.0
 11
16307.2
 21
-0.0000000000000909
 31
0.0
  0
LINE
  5
10B5E
330
747D
100
AcDbEntity
  8
補助
  6
PHANTOM
 62
   230
 48
50.0
100
AcDbLine
 10
16307.2
 20
11409.6
 30
0.0
 11
16307.2
 21
1200.0
 31
0.0
  0
LINE
  5
10B6C
330
747D
100
AcDbEntity
  8
仕様書枠
 48
50.0
100
AcDbLine
 10
13107.2
 20
1200.0
 30
0.0
 11
16307.2
 21
1200.0
 31
0.0
  0
LINE
  5
10B6D
330
747D
100
AcDbEntity
  8
補助
  6
PHANTOM
 62
   230
 48
50.0
100
AcDbLine
 10
13107.2
 20
11409.6
 30
0.0
 11
13107.2
 21
4800.0
 31
0.0
  0
LINE
  5
10B6F
330
747D
100
AcDbEntity
  8
補助
  6
PHANTOM
 62
   230
 48
50.0
100
AcDbLine
 10
13107.2
 20
4800.0
 30
0.0
 11
16307.2
 21
4800.0
 31
0.0
  0
LINE
  5
10B72
330
747D
100
AcDbEntity
  8
文字
 62
     7
 48
50.0
100
AcDbLine
 10
13187.2
 20
400.0
 30
0.0
 11
16227.2
 21
400.0
 31
0.0
  0
TEXT
  5
10B73
330
747D
100
AcDbEntity
  8
文字
 62
     7
 48
50.0
100
AcDbText
 10
13162.9790565769
 20
895.0906074299405
 30
0.0
 40
200.0
  1
外 形 図
  7
STYLE2
100
AcDbText
  0
TEXT
  5
10B74
330
747D
100
AcDbEntity
  8
文字
 62
     7
 48
50.0
100
AcDbText
 10
13201.43669998441
 20
477.2740661031255
 30
0.0
 40
160.0
  1
機種名
  7
STYLE2
100
AcDbText
  0
TEXT
  5
10B75
330
747D
100
AcDbEntity
  8
文字
 62
     7
 48
50.0
100
AcDbText
 10
13209.4053442172
 20
228.5435242569016
 30
0.0
 40
100.0
  1
○有効開口寸法 ： 2004×1648(mm)
  7
STYLE2
100
AcDbText
  0
TEXT
  5
10B76
330
747D
100
AcDbEntity
  8
文字
 62
     7
 48
50.0
100
AcDbText
 10
13209.4053442172
 20
76.09434707649343
 30
0.0
 40
100.0
  1
○床面積 ： 15.34㎡(4.65坪)
  7
STYLE2
100
AcDbText
  0
TEXT
  5
10B79
330
747D
100
AcDbEntity
  8
文字
 62
     7
 48
50.0
100
AcDbText
 10
14524.131837222
 20
1031.557706291228
 30
0.0
 40
100.0
  1
NO.38      <縮尺> S=1/40
  7
STYLE2
100
AcDbText
  0
LINE
  5
10B7B
330
747D
100
AcDbEntity
  8
仕様書枠
 48
50.0
100
AcDbLine
 10
13107.2
 20
800.0
 30
0.0
 11
14251.2
 21
800.0
 31
0.0
  0
LINE
  5
10B88
330
747D
100
AcDbEntity
  8
仕様書枠
  6
Continuous
 48
50.0
100
AcDbLine
 10
14251.2
 20
1200.0
 30
0.0
 11
14251.2
 21
800.0
 31
0.0
  0
LINE
  5
127A8
330
747D
100
AcDbEntity
  8
部品1
100
AcDbLine
 10
2175.903465777283
 20
1991.929381404081
 30
0.0
 11
2325.903465777283
 21
1991.929381404081
 31
0.0
  0
LINE
  5
127A9
330
747D
100
AcDbEntity
  8
部品1
100
AcDbLine
 10
2250.903465777283
 20
1862.025570836416
 30
0.0
 11
2175.903465777283
 21
1991.929381404081
 31
0.0
  0
TEXT
  5
127AA
330
747D
100
AcDbEntity
  8
部品1
100
AcDbText
 10
2354.008407902056
 20
1898.132474442318
 30
0.0
 40
125.0
  1
G.L
  7
MSGOTHIC
100
AcDbText
  0
LINE
  5
127AB
330
747D
100
AcDbEntity
  8
部品1
100
AcDbLine
 10
2325.903465777283
 20
1991.929381404081
 30
0.0
 11
2250.903465777283
 21
1862.025570836416
 31
0.0
  0
LINE
  5
13C1F
330
747D
100
AcDbEntity
  8
部品1
100
AcDbLine
 10
3164.673057123666
 20
3896.025570836424
 30
0.0
 11
3164.673057123666
 21
1862.025570836416
 31
0.0
  0
LINE
  5
13CFC
330
747D
100
AcDbEntity
  8
部品1
100
AcDbLine
 10
7529.673057123666
 20
3637.025570836418
 30
0.0
 11
7529.673057123663
 21
1962.025570836416
 31
0.0
  0
LINE
  5
13CFE
330
747D
100
AcDbEntity
  8
部品1
100
AcDbLine
 10
3219.673057123666
 20
3637.025570836417
 30
0.0
 11
3219.673057123666
 21
1962.025570836416
 31
0.0
  0
LINE
  5
13D18
330
747D
100
AcDbEntity
  8
部品1
100
AcDbLine
 10
7584.673057123665
 20
3896.025570836424
 30
0.0
 11
7584.673057123666
 21
1862.025570836416
 31
0.0
  0
LINE
  5
146B2
330
747D
100
AcDbEntity
  8
破線
 48
5.0
100
AcDbLine
 10
7584.673057123666
 20
1862.025570836416
 30
0.0
 11
7584.673057123666
 21
1612.025570836416
 31
0.0
  0
LINE
  5
146B3
330
747D
100
AcDbEntity
  8
破線
 48
5.0
100
AcDbLine
 10
3164.673057123666
 20
1862.025570836416
 30
0.0
 11
3164.673057123664
 21
1612.025570836416
 31
0.0
  0
TEXT
  5
149A1
330
747D
100
AcDbEntity
  8
部品1
100
AcDbText
 10
5083.463127747398
 20
1019.132041617891
 30
0.0
 40
135.0
  1
正面図
  7
MSGOTHIC
100
AcDbText
  0
LWPOLYLINE
  5
149A2
330
747D
100
AcDbEntity
  8
部品1
100
AcDbPolyline
 90
        4
 70
     1
 43
0.0
 10
4992.937724009443
 20
1212.025570836416
 10
4992.937724009443
 20
972.133249290883
 10
5756.408390237883
 20
972.133249290883
 10
5756.408390237883
 20
1212.025570836416
  0
TEXT
  5
14E88
330
747D
100
AcDbEntity
  8
部品1
100
AcDbText
 10
5082.857333838481
 20
5562.0452254912
 30
0.0
 40
135.0
  1
平面図
  7
MSGOTHIC
100
AcDbText
  0
LWPOLYLINE
  5
14E89
330
747D
100
AcDbEntity
  8
部品1
100
AcDbPolyline
 90
        4
 70
     1
 43
0.0
 10
4992.937724009443
 20
5754.938754709723
 10
4992.937724009443
 20
5515.04643316419
 10
5756.408390237883
 20
5515.04643316419
 10
5756.408390237883
 20
5754.938754709723
  0
TEXT
  5
15550
330
747D
100
AcDbEntity
  8
文字
 62
     7
 48
50.0
100
AcDbText
 10
14940.55651588519
 20
871.9640646083622
 30
0.0
 40
100.0
  1
～一般型～
  7
STYLE2
100
AcDbText
  0
LINE
  5
15CE5
330
747D
100
AcDbEntity
  8
破線
 48
5.0
100
AcDbLine
 10
7529.673057123663
 20
1962.025570836416
 30
0.0
 11
7529.673057123666
 21
1612.025570836416
 31
0.0
  0
LINE
  5
15CE6
330
747D
100
AcDbEntity
  8
破線
 48
5.0
100
AcDbLine
 10
3219.673057123666
 20
1962.025570836416
 30
0.0
 11
3219.673057123664
 21
1612.025570836416
 31
0.0
  0
LINE
  5
15CE7
330
747D
100
AcDbEntity
  8
破線
 48
5.0
100
AcDbLine
 10
7584.673057123665
 20
1612.025570836416
 30
0.0
 11
7529.673057123666
 21
1612.025570836416
 31
0.0
  0
LINE
  5
15CE8
330
747D
100
AcDbEntity
  8
破線
 48
5.0
100
AcDbLine
 10
3219.673057123664
 20
1612.025570836424
 30
0.0
 11
3164.673057123664
 21
1612.025570836424
 31
0.0
  0
LINE
  5
15CE9
330
747D
100
AcDbEntity
  8
部品1
100
AcDbLine
 10
3267.673057123666
 20
3637.025570836417
 30
0.0
 11
3267.673057123666
 21
1962.025570836416
 31
0.0
  0
LINE
  5
15CEA
330
747D
100
AcDbEntity
  8
破線
 48
5.0
100
AcDbLine
 10
3267.673057123666
 20
1962.025570836416
 30
0.0
 11
3267.673057123664
 21
1712.025570836422
 31
0.0
  0
LINE
  5
15CEB
330
747D
100
AcDbEntity
  8
部品1
100
AcDbLine
 10
7481.673057123669
 20
3637.025570836418
 30
0.0
 11
7481.673057123664
 21
1962.025570836416
 31
0.0
  0
LINE
  5
15CEC
330
747D
100
AcDbEntity
  8
破線
 48
5.0
100
AcDbLine
 10
7481.673057123664
 20
1962.025570836416
 30
0.0
 11
7481.673057123668
 21
1712.025570836416
 31
0.0
  0
LINE
  5
15CED
330
747D
100
AcDbEntity
  8
破線
 48
5.0
100
AcDbLine
 10
7529.67305712367
 20
1712.025570836416
 30
0.0
 11
7481.673057123666
 21
1712.025570836416
 31
0.0
  0
LINE
  5
15CEE
330
747D
100
AcDbEntity
  8
破線
 48
5.0
100
AcDbLine
 10
3267.673057123664
 20
1712.025570836422
 30
0.0
 11
3219.673057123664
 21
1712.025570836422
 31
0.0
  0
LINE
  5
15D23
330
747D
100
AcDbEntity
  8
細線
100
AcDbLine
 10
5477.673057123662
 20
3207.025570836417
 30
0.0
 11
7481.673057123664
 21
3207.025570836417
 31
0.0
  0
LINE
  5
15D24
330
747D
100
AcDbEntity
  8
細線
100
AcDbLine
 10
5477.673057123662
 20
3272.025570836416
 30
0.0
 11
7481.673057123664
 21
3272.025570836416
 31
0.0
  0
LINE
  5
15D25
330
747D
100
AcDbEntity
  8
細線
100
AcDbLine
 10
5477.673057123662
 20
3337.025570836417
 30
0.0
 11
7481.673057123664
 21
3337.025570836417
 31
0.0
  0
LINE
  5
15D26
330
747D
100
AcDbEntity
  8
細線
100
AcDbLine
 10
5477.673057123662
 20
3402.025570836417
 30
0.0
 11
7481.673057123664
 21
3402.025570836417
 31
0.0
  0
LINE
  5
15D27
330
747D
100
AcDbEntity
  8
細線
100
AcDbLine
 10
5477.673057123662
 20
3467.025570836418
 30
0.0
 11
7481.673057123664
 21
3467.025570836418
 31
0.0
  0
LINE
  5
15D28
330
747D
100
AcDbEntity
  8
細線
100
AcDbLine
 10
5477.673057123662
 20
3532.025570836417
 30
0.0
 11
7481.673057123664
 21
3532.025570836417
 31
0.0
  0
LINE
  5
15D29
330
747D
100
AcDbEntity
  8
細線
100
AcDbLine
 10
5477.673057123662
 20
2557.025570836418
 30
0.0
 11
7481.673057123664
 21
2557.025570836418
 31
0.0
  0
LINE
  5
15D2A
330
747D
100
AcDbEntity
  8
細線
100
AcDbLine
 10
5477.673057123662
 20
2622.025570836417
 30
0.0
 11
7481.673057123664
 21
2622.025570836417
 31
0.0
  0
LINE
  5
15D2B
330
747D
100
AcDbEntity
  8
細線
100
AcDbLine
 10
5477.673057123662
 20
2687.025570836417
 30
0.0
 11
7481.673057123664
 21
2687.025570836417
 31
0.0
  0
LINE
  5
15D2C
330
747D
100
AcDbEntity
  8
細線
100
AcDbLine
 10
5477.673057123662
 20
2752.025570836417
 30
0.0
 11
7481.673057123664
 21
2752.025570836417
 31
0.0
  0
LINE
  5
15D2D
330
747D
100
AcDbEntity
  8
細線
100
AcDbLine
 10
5477.673057123662
 20
2817.025570836417
 30
0.0
 11
7481.673057123664
 21
2817.025570836417
 31
0.0
  0
LINE
  5
15D2E
330
747D
100
AcDbEntity
  8
細線
100
AcDbLine
 10
5477.673057123662
 20
2882.025570836417
 30
0.0
 11
7481.673057123664
 21
2882.025570836417
 31
0.0
  0
LINE
  5
15D2F
330
747D
100
AcDbEntity
  8
細線
100
AcDbLine
 10
5477.673057123662
 20
2947.025570836417
 30
0.0
 11
7481.673057123664
 21
2947.025570836417
 31
0.0
  0
LINE
  5
15D30
330
747D
100
AcDbEntity
  8
細線
100
AcDbLine
 10
5477.673057123662
 20
3012.025570836417
 30
0.0
 11
7481.673057123664
 21
3012.025570836417
 31
0.0
  0
LINE
  5
15D31
330
747D
100
AcDbEntity
  8
細線
100
AcDbLine
 10
5477.673057123662
 20
3077.025570836417
 30
0.0
 11
7481.673057123664
 21
3077.025570836417
 31
0.0
  0
LINE
  5
15D32
330
747D
100
AcDbEntity
  8
細線
100
AcDbLine
 10
5477.673057123662
 20
3142.025570836417
 30
0.0
 11
7481.673057123664
 21
3142.025570836417
 31
0.0
  0
LINE
  5
15D36
330
747D
100
AcDbEntity
  8
細線
100
AcDbLine
 10
5477.673057123662
 20
1972.025570836416
 30
0.0
 11
7481.673057123664
 21
1972.025570836416
 31
0.0
  0
LINE
  5
15D37
330
747D
100
AcDbEntity
  8
細線
100
AcDbLine
 10
5477.673057123662
 20
2037.025570836417
 30
0.0
 11
7481.673057123664
 21
2037.025570836417
 31
0.0
  0
LINE
  5
15D38
330
747D
100
AcDbEntity
  8
細線
100
AcDbLine
 10
5477.673057123662
 20
2102.025570836417
 30
0.0
 11
7481.673057123664
 21
2102.025570836417
 31
0.0
  0
LINE
  5
15D39
330
747D
100
AcDbEntity
  8
細線
100
AcDbLine
 10
5477.673057123662
 20
2167.025570836417
 30
0.0
 11
7481.673057123664
 21
2167.025570836417
 31
0.0
  0
LINE
  5
15D3A
330
747D
100
AcDbEntity
  8
細線
100
AcDbLine
 10
5477.673057123662
 20
2232.025570836416
 30
0.0
 11
7481.673057123664
 21
2232.025570836416
 31
0.0
  0
LINE
  5
15D3B
330
747D
100
AcDbEntity
  8
細線
100
AcDbLine
 10
5477.673057123662
 20
2297.025570836417
 30
0.0
 11
7481.673057123664
 21
2297.025570836417
 31
0.0
  0
LINE
  5
15D3C
330
747D
100
AcDbEntity
  8
細線
100
AcDbLine
 10
5477.673057123662
 20
2362.025570836417
 30
0.0
 11
7481.673057123664
 21
2362.025570836417
 31
0.0
  0
LINE
  5
15D3D
330
747D
100
AcDbEntity
  8
細線
100
AcDbLine
 10
5477.673057123662
 20
2427.025570836417
 30
0.0
 11
7481.673057123664
 21
2427.025570836417
 31
0.0
  0
LINE
  5
15D3E
330
747D
100
AcDbEntity
  8
細線
100
AcDbLine
 10
5477.673057123662
 20
2492.025570836417
 30
0.0
 11
7481.673057123664
 21
2492.025570836417
 31
0.0
  0
LINE
  5
15D3F
330
747D
100
AcDbEntity
  8
細線
100
AcDbLine
 10
7481.673057123666
 20
1972.025570836416
 30
0.0
 11
5477.67305712366
 21
1972.025570836416
 31
0.0
  0
CIRCLE
  5
16043
330
747D
100
AcDbEntity
  8
細線
 48
50.0
100
AcDbCircle
 10
6479.673057123665
 20
2849.525570836417
 30
0.0
 40
18.0
  0
ARC
  5
16045
330
747D
100
AcDbEntity
  8
細線
 48
50.0
100
AcDbCircle
 10
6779.673057123663
 20
2524.525570836417
 30
0.0
 40
15.0
100
AcDbArc
 50
270.0
 51
90.0
  0
ARC
  5
16046
330
747D
100
AcDbEntity
  8
細線
 48
50.0
100
AcDbCircle
 10
6679.673057123665
 20
2524.525570836417
 30
0.0
 40
15.0
100
AcDbArc
 50
90.0
 51
270.0
  0
LINE
  5
16047
330
747D
100
AcDbEntity
  8
細線
 48
50.0
100
AcDbLine
 10
6679.673057123665
 20
2539.525570836417
 30
0.0
 11
6779.673057123663
 21
2539.525570836417
 31
0.0
  0
LINE
  5
16048
330
747D
100
AcDbEntity
  8
細線
 48
50.0
100
AcDbLine
 10
6779.673057123663
 20
2509.525570836417
 30
0.0
 11
6679.673057123665
 21
2509.525570836417
 31
0.0
  0
LINE
  5
16049
330
747D
100
AcDbEntity
  8
細線
 48
50.0
100
AcDbLine
 10
6279.673057123665
 20
2509.525570836417
 30
0.0
 11
6179.673057123665
 21
2509.525570836417
 31
0.0
  0
LINE
  5
1604A
330
747D
100
AcDbEntity
  8
細線
 48
50.0
100
AcDbLine
 10
6179.673057123665
 20
2539.525570836417
 30
0.0
 11
6279.673057123665
 21
2539.525570836417
 31
0.0
  0
ARC
  5
1604B
330
747D
100
AcDbEntity
  8
細線
 48
50.0
100
AcDbCircle
 10
6279.673057123665
 20
2524.525570836417
 30
0.0
 40
15.0
100
AcDbArc
 50
270.0
 51
90.0
  0
ARC
  5
1604C
330
747D
100
AcDbEntity
  8
細線
 48
50.0
100
AcDbCircle
 10
6179.673057123665
 20
2524.525570836417
 30
0.0
 40
15.0
100
AcDbArc
 50
90.0
 51
270.0
  0
DIMENSION
  5
162CD
330
747D
100
AcDbEntity
  8
寸法
100
AcDbDimension
  2
*D1
 10
8232.099402858079
 20
6957.16379118614
 30
0.0
 11
8132.087591834457
 21
8637.163791186152
 31
0.0
 70
    32
  1
8X420=<>
 71
     5
 42
3360.000000000014
  3
INABA_S40G
100
AcDbAlignedDimension
 13
7584.673057123673
 23
10317.16379118615
 33
0.0
 14
7584.673057123648
 24
6957.16379118614
 34
0.0
 50
90.0
100
AcDbRotatedDimension
1001
ACAD
1000
DSTYLE
1002
{
1002
}
  0
DIMENSION
  5
162CE
330
747D
100
AcDbEntity
  8
寸法
100
AcDbDimension
  2
*D2
 10
8232.099402858059
 20
6902.163791186143
 30
0.0
 11
8232.099402858057
 21
6524.302324281281
 31
0.0
 70
   160
 71
     5
 42
54.99999999999634
  3
INABA_S40G
100
AcDbAlignedDimension
 13
7584.673057123648
 23
6957.16379118614
 33
0.0
 14
7584.673057123648
 24
6902.163791186143
 34
0.0
 50
90.0
100
AcDbRotatedDimension
1001
ACAD
1000
DSTYLE
1002
{
1002
}
  0
DIMENSION
  5
162CF
330
747D
100
AcDbEntity
  8
寸法
100
AcDbDimension
  2
*D3
 10
8232.099402858082
 20
10317.16379118615
 30
0.0
 11
8232.099402858082
 21
10680.64907256039
 31
0.0
 70
   160
 71
     5
 42
54.99999999999634
  3
INABA_S40G
100
AcDbAlignedDimension
 13
7584.673057123673
 23
10372.16379118615
 33
0.0
 14
7584.673057123673
 24
10317.16379118615
 34
0.0
 50
90.0
100
AcDbRotatedDimension
1001
ACAD
1000
DSTYLE
1002
{
1002
}
  0
DIMENSION
  5
162D0
330
747D
100
AcDbEntity
  8
寸法
100
AcDbDimension
  2
*D4
 10
8597.206344597719
 20
6902.163791186143
 30
0.0
 11
8497.206344597717
 21
8637.163791186152
 31
0.0
 70
    32
 71
     5
 42
3470.000000000008
  3
INABA_S40G
100
AcDbAlignedDimension
 13
7584.673057123673
 23
10372.16379118615
 33
0.0
 14
7584.673057123648
 24
6902.163791186143
 34
0.0
 50
90.0
100
AcDbRotatedDimension
1001
ACAD
1000
DSTYLE
1002
{
1002
}
  0
LINE
  5
162DC
330
747D
100
AcDbEntity
  8
部品1
100
AcDbLine
 10
7556.673057123656
 20
10344.16379118615
 30
0.0
 11
7556.673057123649
 21
6957.16379118614
 31
0.0
  0
LINE
  5
162DD
330
747D
100
AcDbEntity
  8
部品1
100
AcDbLine
 10
3192.673057123648
 20
6957.163791186009
 30
0.0
 11
3192.673057123659
 21
10344.16379118606
 31
0.0
  0
LINE
  5
162DE
330
747D
100
AcDbEntity
  8
部品1
100
AcDbLine
 10
7584.673057123673
 20
10372.16379118615
 30
0.0
 11
7584.673057123648
 21
6902.163791186143
 31
0.0
  0
LINE
  5
162DF
330
747D
100
AcDbEntity
  8
部品1
100
AcDbLine
 10
3164.673057123638
 20
10372.16379118602
 30
0.0
 11
3164.673057123666
 21
6902.163791186011
 31
0.0
  0
DIMENSION
  5
162E4
330
747D
100
AcDbEntity
  8
寸法
 48
50.0
100
AcDbDimension
  2
*D5
 10
5477.673057123666
 20
6367.733020419888
 30
0.0
 11
6479.673057123656
 21
6467.744831443511
 31
0.0
 70
    32
  1
有効開口部間口 <>
 71
     5
 42
2003.999999999982
  3
INABA_S40G
100
AcDbAlignedDimension
 13
7481.673057123647
 23
6928.163791186054
 33
0.0
 14
5477.673057123666
 24
6928.163791186051
 34
0.0
100
AcDbRotatedDimension
1001
ACAD
1000
DSTYLE
1002
{
1070
    75
1070
     1
1070
   279
1070
     2
1002
}
  0
LINE
  5
162E6
330
747D
100
AcDbEntity
  8
部品1
 48
50.0
100
AcDbLine
 10
5441.673057123665
 20
6947.663791186051
 30
0.0
 11
7517.673057123649
 21
6947.663791186051
 31
0.0
  0
DIMENSION
  5
162E7
330
747D
100
AcDbEntity
  8
寸法
100
AcDbDimension
  2
*D6
 10
7584.673057123636
 20
5921.560024829013
 30
0.0
 11
5374.673057123651
 21
6021.571835852636
 31
0.0
 70
    32
 71
     5
 42
4419.999999999971
  3
INABA_S40G
100
AcDbAlignedDimension
 13
3164.673057123666
 23
6902.163791186049
 33
0.0
 14
7584.673057123636
 24
6902.163791186143
 34
0.0
100
AcDbRotatedDimension
1001
ACAD
1000
DSTYLE
1002
{
1002
}
  0
LINE
  5
162E8
330
747D
100
AcDbEntity
  8
部品1
100
AcDbLine
 10
3219.673057123643
 20
10317.16379118607
 30
0.0
 11
3219.673057123666
 21
6967.163791186052
 31
0.0
  0
LINE
  5
162E9
330
747D
100
AcDbEntity
  8
部品1
100
AcDbLine
 10
3244.673057123645
 20
10317.16379118607
 30
0.0
 11
3244.673057123666
 21
6967.163791186052
 31
0.0
  0
DIMENSION
  5
162EA
330
747D
100
AcDbEntity
  8
寸法
 48
50.0
100
AcDbDimension
  2
*D7
 10
3164.673057123666
 20
6367.733020419888
 30
0.0
 11
2856.187775749427
 21
6367.733020419888
 31
0.0
 70
   160
 71
     5
 42
54.99999999999634
  3
INABA_S40G
100
AcDbAlignedDimension
 13
3219.673057123662
 23
6902.163791186052
 33
0.0
 14
3164.673057123666
 24
6902.163791186049
 34
0.0
100
AcDbRotatedDimension
1001
ACAD
1000
DSTYLE
1002
{
1002
}
  0
DIMENSION
  5
162EB
330
747D
100
AcDbEntity
  8
寸法
 48
50.0
100
AcDbDimension
  2
*D8
 10
5429.673057123662
 20
6367.733020419888
 30
0.0
 11
5590.575028123723
 21
6467.733020419888
 31
0.0
 70
   160
 71
     5
 42
48.00000000000363
  3
INABA_S40G
100
AcDbAlignedDimension
 13
5477.673057123666
 23
6928.163791186051
 33
0.0
 14
5429.673057123662
 24
6902.163791186052
 34
0.0
100
AcDbRotatedDimension
1001
ACAD
1000
DSTYLE
1002
{
1070
   279
1070
     2
1002
}
  0
LINE
  5
162EC
330
747D
100
AcDbEntity
  8
部品1
100
AcDbLine
 10
3219.673057123662
 20
6902.163791186052
 30
0.0
 11
3164.673057123666
 21
6902.163791186049
 31
0.0
  0
LINE
  5
162ED
330
747D
100
AcDbEntity
  8
部品1
 48
50.0
100
AcDbLine
 10
3219.673057123666
 20
6938.163791186051
 30
0.0
 11
3196.673057123666
 21
6938.163791186051
 31
0.0
  0
LINE
  5
162EE
330
747D
100
AcDbEntity
  8
部品1
 48
50.0
100
AcDbLine
 10
3229.673057123666
 20
6928.163791186051
 30
0.0
 11
3219.673057123666
 21
6907.163791186052
 31
0.0
  0
LINE
  5
162EF
330
747D
100
AcDbEntity
  8
部品1
 48
50.0
100
AcDbLine
 10
3219.673057123666
 20
6967.163791186052
 30
0.0
 11
3219.673057123662
 21
6902.163791186052
 31
0.0
  0
LINE
  5
162F0
330
747D
100
AcDbEntity
  8
部品1
 48
50.0
100
AcDbLine
 10
3267.673057123666
 20
6928.163791186054
 30
0.0
 11
3267.673057123666
 21
6937.163791186053
 31
0.0
  0
LINE
  5
162F1
330
747D
100
AcDbEntity
  8
部品1
 48
50.0
100
AcDbLine
 10
3267.673057123666
 20
6967.163791186052
 30
0.0
 11
3267.673057123666
 21
6958.163791186052
 31
0.0
  0
LINE
  5
162F2
330
747D
100
AcDbEntity
  8
部品1
100
AcDbLine
 10
3267.673057123666
 20
6967.163791186052
 30
0.0
 11
3219.673057123666
 21
6967.163791186052
 31
0.0
  0
LINE
  5
162F3
330
747D
100
AcDbEntity
  8
部品1
100
AcDbLine
 10
3267.673057123666
 20
6928.163791186054
 30
0.0
 11
3219.673057123666
 21
6928.163791186051
 31
0.0
  0
LINE
  5
162F4
330
747D
100
AcDbEntity
  8
部品1
100
AcDbLine
 10
3219.673057123666
 20
6938.163791186051
 30
0.0
 11
3196.673057123666
 21
6938.163791186051
 31
0.0
  0
LINE
  5
162F5
330
747D
100
AcDbEntity
  8
部品1
100
AcDbLine
 10
3219.673057123666
 20
6957.163791185976
 30
0.0
 11
3164.673057123664
 21
6957.163791185976
 31
0.0
  0
LINE
  5
162F6
330
747D
100
AcDbEntity
  8
部品1
100
AcDbLine
 10
3192.673057123648
 20
6957.163791186012
 30
0.0
 11
3164.673057123664
 21
6957.163791186012
 31
0.0
  0
LINE
  5
162F7
330
747D
100
AcDbEntity
  8
部品1
100
AcDbLine
 10
3192.673057123664
 20
6957.163791186028
 30
0.0
 11
3164.673057123664
 21
6957.163791186028
 31
0.0
  0
LINE
  5
162FB
330
747D
100
AcDbEntity
  8
部品1
100
AcDbLine
 10
3192.673057123653
 20
7377.163791186027
 30
0.0
 11
3164.673057123652
 21
7377.163791186027
 31
0.0
  0
LINE
  5
162FC
330
747D
100
AcDbEntity
  8
部品1
100
AcDbLine
 10
3192.673057123653
 20
7797.163791186027
 30
0.0
 11
3164.673057123652
 21
7797.163791186027
 31
0.0
  0
LINE
  5
162FE
330
747D
100
AcDbEntity
  8
部品1
100
AcDbLine
 10
3192.673057123647
 20
8217.163791186028
 30
0.0
 11
3164.673057123647
 21
8217.163791186028
 31
0.0
  0
LINE
  5
162FF
330
747D
100
AcDbEntity
  8
部品1
100
AcDbLine
 10
7529.67305712367
 20
10317.16379118607
 30
0.0
 11
7529.673057123648
 21
6902.16379118614
 31
0.0
  0
LINE
  5
16300
330
747D
100
AcDbEntity
  8
部品1
100
AcDbLine
 10
7504.673057123674
 20
10317.16379118607
 30
0.0
 11
7504.673057123651
 21
6967.163791186052
 31
0.0
  0
DIMENSION
  5
16301
330
747D
100
AcDbEntity
  8
寸法
 48
50.0
100
AcDbDimension
  2
*D9
 10
7481.673057123647
 20
6367.733020419888
 30
0.0
 11
7370.7101594749
 21
6467.733020419888
 31
0.0
 70
   160
 71
     5
 42
48.00000000000181
  3
INABA_S40G
100
AcDbAlignedDimension
 13
7529.673057123648
 23
6902.16379118614
 33
0.0
 14
7481.673057123647
 24
6928.163791186054
 34
0.0
100
AcDbRotatedDimension
1001
ACAD
1000
DSTYLE
1002
{
1070
   279
1070
     2
1002
}
  0
DIMENSION
  5
16302
330
747D
100
AcDbEntity
  8
寸法
 48
50.0
100
AcDbDimension
  2
*D10
 10
7529.673057123648
 20
6367.733020419889
 30
0.0
 11
7893.158338497887
 21
6367.733020419889
 31
0.0
 70
   160
 71
     5
 42
54.99999999999818
  3
INABA_S40G
100
AcDbAlignedDimension
 13
7584.673057123648
 23
6902.163791186143
 33
0.0
 14
7529.673057123648
 24
6902.16379118614
 34
0.0
100
AcDbRotatedDimension
1001
ACAD
1000
DSTYLE
1002
{
1002
}
  0
LINE
  5
16303
330
747D
100
AcDbEntity
  8
部品1
 48
50.0
100
AcDbLine
 10
7519.673057123647
 20
6928.163791186051
 30
0.0
 11
7529.673057123648
 21
6907.163791186052
 31
0.0
  0
LINE
  5
16304
330
747D
100
AcDbEntity
  8
部品1
100
AcDbLine
 10
7481.673057123647
 20
6967.163791186052
 30
0.0
 11
7529.673057123648
 21
6967.163791186052
 31
0.0
  0
LINE
  5
16305
330
747D
100
AcDbEntity
  8
部品1
100
AcDbLine
 10
7481.673057123647
 20
6928.163791186054
 30
0.0
 11
7529.673057123648
 21
6928.163791186051
 31
0.0
  0
LINE
  5
16306
330
747D
100
AcDbEntity
  8
部品1
 48
50.0
100
AcDbLine
 10
7481.673057123647
 20
6967.163791186052
 30
0.0
 11
7481.673057123647
 21
6958.163791186052
 31
0.0
  0
LINE
  5
16307
330
747D
100
AcDbEntity
  8
部品1
 48
50.0
100
AcDbLine
 10
7481.673057123647
 20
6928.163791186054
 30
0.0
 11
7481.673057123647
 21
6937.163791186053
 31
0.0
  0
LINE
  5
16308
330
747D
100
AcDbEntity
  8
部品1
100
AcDbLine
 10
7529.673057123648
 20
6938.163791186049
 30
0.0
 11
7552.673057123648
 21
6938.163791186051
 31
0.0
  0
LINE
  5
16309
330
747D
100
AcDbEntity
  8
部品1
100
AcDbLine
 10
7529.673057123648
 20
6957.163791186154
 30
0.0
 11
7584.673057123679
 21
6957.163791186154
 31
0.0
  0
LINE
  5
1630A
330
747D
100
AcDbEntity
  8
部品1
100
AcDbLine
 10
7584.673057123648
 20
6902.163791186143
 30
0.0
 11
7529.673057123648
 21
6902.16379118614
 31
0.0
  0
LINE
  5
16317
330
747D
100
AcDbEntity
  8
部品1
100
AcDbLine
 10
7556.673057123678
 20
7377.163791186155
 30
0.0
 11
7584.673057123676
 21
7377.163791186155
 31
0.0
  0
LINE
  5
16319
330
747D
100
AcDbEntity
  8
部品1
100
AcDbLine
 10
7556.673057123678
 20
7797.163791186155
 30
0.0
 11
7584.673057123676
 21
7797.163791186155
 31
0.0
  0
LINE
  5
1631A
330
747D
100
AcDbEntity
  8
部品1
100
AcDbLine
 10
7556.673057123673
 20
8217.163791186155
 30
0.0
 11
7584.673057123673
 21
8217.163791186155
 31
0.0
  0
LINE
  5
1631B
330
747D
100
AcDbEntity
  8
部品1
100
AcDbLine
 10
5429.673057123672
 20
10344.16379118617
 30
0.0
 11
6677.17305712367
 21
10344.16379118617
 31
0.0
  0
LINE
  5
1631C
330
747D
100
AcDbEntity
  8
部品1
100
AcDbLine
 10
5402.673057123672
 20
10344.16379118605
 30
0.0
 11
6059.673057123672
 21
10344.16379118606
 31
0.0
  0
DIMENSION
  5
1631F
330
747D
100
AcDbEntity
  8
寸法
100
AcDbDimension
  2
*D11
 10
7529.673057123673
 20
10587.97201081115
 30
0.0
 11
6479.673057123673
 21
10687.98382183477
 31
0.0
 70
    32
  1
5X420=<>
 71
     5
 42
2100.000000000001
  3
INABA_S40G
100
AcDbAlignedDimension
 13
5429.673057123672
 23
10372.16379118605
 33
0.0
 14
7529.673057123673
 24
10372.16379118615
 34
0.0
100
AcDbRotatedDimension
1001
ACAD
1000
DSTYLE
1002
{
1002
}
  0
DIMENSION
  5
16320
330
747D
100
AcDbEntity
  8
寸法
100
AcDbDimension
  2
*D12
 10
3219.673057123672
 20
10587.97201081103
 30
0.0
 11
2856.187775749399
 21
10587.97201081103
 31
0.0
 70
   160
 71
     5
 42
55.00000000003456
  3
INABA_S40G
100
AcDbAlignedDimension
 13
3164.673057123638
 23
10372.16379118605
 33
0.0
 14
3219.673057123672
 24
10372.16379118605
 34
0.0
100
AcDbRotatedDimension
1001
ACAD
1000
DSTYLE
1002
{
1002
}
  0
LINE
  5
16321
330
747D
100
AcDbEntity
  8
部品1
100
AcDbLine
 10
3219.673057123638
 20
10372.16379118602
 30
0.0
 11
3219.673057123639
 21
10344.16379118602
 31
0.0
  0
LINE
  5
16322
330
747D
100
AcDbEntity
  8
部品1
100
AcDbLine
 10
3219.673057123672
 20
10372.16379118605
 30
0.0
 11
3219.673057123672
 21
10344.16379118605
 31
0.0
  0
LINE
  5
16323
330
747D
100
AcDbEntity
  8
部品1
100
AcDbLine
 10
3192.673057123641
 20
10317.16379118603
 30
0.0
 11
3164.67305712364
 21
10317.16379118603
 31
0.0
  0
LINE
  5
16324
330
747D
100
AcDbEntity
  8
部品1
100
AcDbLine
 10
5849.673057123673
 20
10372.16379118617
 30
0.0
 11
5849.673057123673
 21
10344.16379118617
 31
0.0
  0
LINE
  5
16325
330
747D
100
AcDbEntity
  8
部品1
100
AcDbLine
 10
5849.673057123673
 20
10372.16379118605
 30
0.0
 11
5849.673057123673
 21
10344.16379118605
 31
0.0
  0
LINE
  5
16326
330
747D
100
AcDbEntity
  8
部品1
100
AcDbLine
 10
5849.673057123673
 20
10372.16379118605
 30
0.0
 11
5849.673057123673
 21
10344.16379118605
 31
0.0
  0
LINE
  5
16327
330
747D
100
AcDbEntity
  8
部品1
100
AcDbLine
 10
6702.173057123672
 20
10344.16379118617
 30
0.0
 11
7556.673057123673
 21
10344.16379118615
 31
0.0
  0
LINE
  5
16329
330
747D
100
AcDbEntity
  8
部品1
100
AcDbLine
 10
6269.673057123672
 20
10372.16379118617
 30
0.0
 11
6269.673057123672
 21
10344.16379118617
 31
0.0
  0
LINE
  5
1632A
330
747D
100
AcDbEntity
  8
部品1
100
AcDbLine
 10
6269.673057123672
 20
10372.16379118605
 30
0.0
 11
6269.673057123672
 21
10344.16379118605
 31
0.0
  0
LINE
  5
1632B
330
747D
100
AcDbEntity
  8
部品1
100
AcDbLine
 10
6269.673057123672
 20
10372.16379118605
 30
0.0
 11
6269.673057123672
 21
10344.16379118605
 31
0.0
  0
LINE
  5
1632C
330
747D
100
AcDbEntity
  8
部品1
100
AcDbLine
 10
6689.67305712367
 20
10372.16379118617
 30
0.0
 11
6689.67305712367
 21
10344.16379118617
 31
0.0
  0
LINE
  5
1632D
330
747D
100
AcDbEntity
  8
部品1
100
AcDbLine
 10
6677.17305712367
 20
10336.16379118615
 30
0.0
 11
6702.173057123672
 21
10336.16379118616
 31
0.0
  0
LINE
  5
1632E
330
747D
100
AcDbEntity
  8
部品1
100
AcDbLine
 10
6718.673057123672
 20
10362.16379118616
 30
0.0
 11
6724.673057123673
 21
10362.16379118616
 31
0.0
  0
LINE
  5
1632F
330
747D
100
AcDbEntity
  8
部品1
100
AcDbLine
 10
6724.673057123673
 20
10362.16379118616
 30
0.0
 11
6724.673057123673
 21
10344.16379118616
 31
0.0
  0
LINE
  5
16330
330
747D
100
AcDbEntity
  8
部品1
100
AcDbLine
 10
6654.673057123672
 20
10362.16379118616
 30
0.0
 11
6660.673057123672
 21
10362.16379118616
 31
0.0
  0
LINE
  5
16331
330
747D
100
AcDbEntity
  8
部品1
100
AcDbLine
 10
6654.673057123672
 20
10362.16379118616
 30
0.0
 11
6654.673057123672
 21
10344.16379118616
 31
0.0
  0
DIMENSION
  5
16333
330
747D
100
AcDbEntity
  8
寸法
100
AcDbDimension
  2
*D13
 10
7584.673057123673
 20
10587.97201081113
 30
0.0
 11
7893.158338497912
 21
10587.97201081113
 31
0.0
 70
   160
 71
     5
 42
55.0
  3
INABA_S40G
100
AcDbAlignedDimension
 13
7529.673057123673
 23
10372.16379118615
 33
0.0
 14
7584.673057123673
 24
10372.16379118615
 34
0.0
100
AcDbRotatedDimension
1001
ACAD
1000
DSTYLE
1002
{
1002
}
  0
LINE
  5
16334
330
747D
100
AcDbEntity
  8
部品1
100
AcDbLine
 10
7109.673057123671
 20
10372.16379118617
 30
0.0
 11
7109.673057123671
 21
10344.16379118617
 31
0.0
  0
LINE
  5
16335
330
747D
100
AcDbEntity
  8
部品1
100
AcDbLine
 10
7529.673057123673
 20
10372.16379118615
 30
0.0
 11
7529.673057123673
 21
10344.16379118615
 31
0.0
  0
LINE
  5
16336
330
747D
100
AcDbEntity
  8
部品1
100
AcDbLine
 10
7529.673057123673
 20
10372.16379118617
 30
0.0
 11
7529.673057123673
 21
10344.16379118617
 31
0.0
  0
LINE
  5
16337
330
747D
100
AcDbEntity
  8
部品1
100
AcDbLine
 10
7556.673057123673
 20
10317.16379118615
 30
0.0
 11
7584.673057123673
 21
10317.16379118615
 31
0.0
  0
LINE
  5
1655C
330
747D
100
AcDbEntity
  8
部品1
100
AcDbLine
 10
5271.673057123667
 20
3637.025570836418
 30
0.0
 11
5271.673057123663
 21
1962.025570836416
 31
0.0
  0
LINE
  5
1655D
330
747D
100
AcDbEntity
  8
部品1
100
AcDbLine
 10
5319.673057123665
 20
3637.025570836417
 30
0.0
 11
5319.673057123664
 21
1962.025570836416
 31
0.0
  0
LINE
  5
1655E
330
747D
100
AcDbEntity
  8
破線
 48
5.0
100
AcDbLine
 10
5271.673057123663
 20
1962.025570836416
 30
0.0
 11
5271.673057123666
 21
1712.025570836416
 31
0.0
  0
LINE
  5
1655F
330
747D
100
AcDbEntity
  8
破線
 48
5.0
100
AcDbLine
 10
5319.673057123669
 20
1712.025570836416
 30
0.0
 11
5271.673057123666
 21
1712.025570836416
 31
0.0
  0
LINE
  5
16560
330
747D
100
AcDbEntity
  8
破線
 48
5.0
100
AcDbLine
 10
5319.673057123664
 20
1962.025570836416
 30
0.0
 11
5319.673057123665
 21
1687.025570836416
 31
0.0
  0
LINE
  5
16561
330
747D
100
AcDbEntity
  8
破線
 48
5.0
100
AcDbLine
 10
5429.673057123665
 20
1687.025570836416
 30
0.0
 11
5319.673057123665
 21
1687.025570836416
 31
0.0
  0
LINE
  5
16562
330
747D
100
AcDbEntity
  8
部品1
100
AcDbLine
 10
5477.673057123666
 20
3637.025570836417
 30
0.0
 11
5477.673057123666
 21
1962.025570836416
 31
0.0
  0
LINE
  5
16563
330
747D
100
AcDbEntity
  8
破線
 48
5.0
100
AcDbLine
 10
5477.673057123666
 20
1962.025570836416
 30
0.0
 11
5477.673057123665
 21
1712.025570836422
 31
0.0
  0
LINE
  5
16564
330
747D
100
AcDbEntity
  8
破線
 48
5.0
100
AcDbLine
 10
5477.673057123664
 20
1712.025570836422
 30
0.0
 11
5429.673057123665
 21
1712.025570836422
 31
0.0
  0
LINE
  5
16565
330
747D
100
AcDbEntity
  8
破線
 48
5.0
100
AcDbLine
 10
5429.673057123665
 20
1962.025570836416
 30
0.0
 11
5429.673057123665
 21
1687.025570836416
 31
0.0
  0
LINE
  5
16566
330
747D
100
AcDbEntity
  8
部品1
100
AcDbLine
 10
5429.673057123665
 20
3637.025570836417
 30
0.0
 11
5429.673057123665
 21
1962.025570836416
 31
0.0
  0
LINE
  5
16567
330
747D
100
AcDbEntity
  8
部品1
100
AcDbLine
 10
5429.673057123665
 20
3637.025570836417
 30
0.0
 11
7584.673057123665
 21
3637.025570836418
 31
0.0
  0
DIMENSION
  5
1659A
330
747D
100
AcDbEntity
  8
寸法
 48
50.0
100
AcDbDimension
  2
*D15
 10
5271.673057123646
 20
6367.733020419888
 30
0.0
 11
5160.7101594749
 21
6467.733020419888
 31
0.0
 70
   160
 71
     5
 42
48.00000000000181
  3
INABA_S40G
100
AcDbAlignedDimension
 13
5319.673057123649
 23
6902.16379118614
 33
0.0
 14
5271.673057123646
 24
6928.163791186054
 34
0.0
100
AcDbRotatedDimension
1001
ACAD
1000
DSTYLE
1002
{
1070
   279
1070
     2
1002
}
  0
DIMENSION
  5
1659C
330
747D
100
AcDbEntity
  8
寸法
 48
50.0
100
AcDbDimension
  2
*D14
 10
3219.673057123662
 20
6367.733020419888
 30
0.0
 11
3380.575028123723
 21
6467.733020419888
 31
0.0
 70
   160
 71
     5
 42
48.00000000000363
  3
INABA_S40G
100
AcDbAlignedDimension
 13
3267.673057123666
 23
6928.163791186051
 33
0.0
 14
3219.673057123662
 24
6902.163791186052
 34
0.0
100
AcDbRotatedDimension
1001
ACAD
1000
DSTYLE
1002
{
1070
   279
1070
     2
1002
}
  0
DIMENSION
  5
165E9
330
747D
100
AcDbEntity
  8
寸法
 48
50.0
100
AcDbDimension
  2
*D16
 10
5319.673057123649
 20
6367.733020419889
 30
0.0
 11
5374.673057123656
 21
6216.041125383657
 31
0.0
 70
   160
 71
     5
 42
110.0000000000127
  3
INABA_S40G
100
AcDbAlignedDimension
 13
5429.673057123662
 23
6902.163791186052
 33
0.0
 14
5319.673057123649
 24
6902.16379118614
 34
0.0
100
AcDbRotatedDimension
1001
ACAD
1000
DSTYLE
1002
{
1070
   279
1070
     2
1002
}
  0
LINE
  5
16656
330
747D
100
AcDbEntity
  8
部品1
100
AcDbLine
 10
5271.673057123646
 20
6967.163791186052
 30
0.0
 11
5319.673057123649
 21
6967.163791186052
 31
0.0
  0
LINE
  5
16657
330
747D
100
AcDbEntity
  8
部品1
 48
50.0
100
AcDbLine
 10
5271.673057123646
 20
6967.163791186052
 30
0.0
 11
5271.673057123646
 21
6958.163791186052
 31
0.0
  0
LINE
  5
16658
330
747D
100
AcDbEntity
  8
部品1
100
AcDbLine
 10
5271.673057123646
 20
6928.163791186054
 30
0.0
 11
5319.673057123647
 21
6928.163791186051
 31
0.0
  0
LINE
  5
16659
330
747D
100
AcDbEntity
  8
部品1
 48
50.0
100
AcDbLine
 10
5271.673057123646
 20
6928.163791186054
 30
0.0
 11
5271.673057123646
 21
6937.163791186053
 31
0.0
  0
LINE
  5
1665A
330
747D
100
AcDbEntity
  8
部品1
 48
50.0
100
AcDbLine
 10
5309.673057123649
 20
6928.163791186051
 30
0.0
 11
5319.673057123647
 21
6907.163791186052
 31
0.0
  0
LINE
  5
1665B
330
747D
100
AcDbEntity
  8
部品1
100
AcDbLine
 10
5319.673057123647
 20
6938.163791186049
 30
0.0
 11
5342.673057123647
 21
6938.163791186051
 31
0.0
  0
LINE
  5
1665C
330
747D
100
AcDbEntity
  8
部品1
100
AcDbLine
 10
5477.673057123666
 20
6967.163791186052
 30
0.0
 11
5429.673057123665
 21
6967.163791186052
 31
0.0
  0
LINE
  5
1665D
330
747D
100
AcDbEntity
  8
部品1
 48
50.0
100
AcDbLine
 10
5477.673057123666
 20
6967.163791186052
 30
0.0
 11
5477.673057123666
 21
6958.163791186052
 31
0.0
  0
LINE
  5
1665E
330
747D
100
AcDbEntity
  8
部品1
100
AcDbLine
 10
5477.673057123666
 20
6928.163791186054
 30
0.0
 11
5429.673057123665
 21
6928.163791186051
 31
0.0
  0
LINE
  5
1665F
330
747D
100
AcDbEntity
  8
部品1
 48
50.0
100
AcDbLine
 10
5439.673057123666
 20
6928.163791186051
 30
0.0
 11
5429.673057123665
 21
6907.163791186052
 31
0.0
  0
LINE
  5
16660
330
747D
100
AcDbEntity
  8
部品1
100
AcDbLine
 10
5429.673057123665
 20
6938.163791186051
 30
0.0
 11
5406.673057123666
 21
6938.163791186051
 31
0.0
  0
LINE
  5
16661
330
747D
100
AcDbEntity
  8
部品1
 48
50.0
100
AcDbLine
 10
5429.673057123665
 20
6967.163791186052
 30
0.0
 11
5429.673057123662
 21
6902.163791186052
 31
0.0
  0
LINE
  5
16662
330
747D
100
AcDbEntity
  8
部品1
 48
50.0
100
AcDbLine
 10
5477.673057123666
 20
6928.163791186054
 30
0.0
 11
5477.673057123666
 21
6937.163791186053
 31
0.0
  0
LINE
  5
16663
330
747D
100
AcDbEntity
  8
部品1
100
AcDbLine
 10
5429.673057123661
 20
6902.163791186052
 30
0.0
 11
5319.673057123651
 21
6902.163791186047
 31
0.0
  0
LINE
  5
16664
330
747D
100
AcDbEntity
  8
部品1
 48
50.0
100
AcDbLine
 10
5319.673057123655
 20
6967.163791186139
 30
0.0
 11
5319.673057123651
 21
6902.16379118614
 31
0.0
  0
LINE
  5
16666
330
747D
100
AcDbEntity
  8
部品1
100
AcDbLine
 10
5429.673057123672
 20
10372.16379118605
 30
0.0
 11
5429.673057123672
 21
10344.16379118605
 31
0.0
  0
LINE
  5
16692
330
747D
100
AcDbEntity
  8
部品1
100
AcDbLine
 10
5319.673057123673
 20
10372.16379118615
 30
0.0
 11
5319.673057123673
 21
10344.16379118615
 31
0.0
  0
DIMENSION
  5
166DD
330
747D
100
AcDbEntity
  8
寸法
 48
50.0
100
AcDbDimension
  2
*D17
 10
5319.673057123673
 20
10587.97201081115
 30
0.0
 11
5374.673057123673
 21
10687.97201081115
 31
0.0
 70
    32
 71
     5
 42
109.9999999999991
  3
INABA_S40G
100
AcDbAlignedDimension
 13
5429.673057123672
 23
10372.1637911861
 33
0.0
 14
5319.673057123673
 24
10372.1637911861
 34
0.0
100
AcDbRotatedDimension
1001
ACAD
1000
DSTYLE
1002
{
1070
   279
1070
     2
1002
}
  0
LINE
  5
16760
330
747D
100
AcDbEntity
  8
部品1
 48
50.0
100
AcDbLine
 10
5374.673057123636
 20
10344.1637911861
 30
0.0
 11
5346.67305712364
 21
10372.16379118615
 31
0.0
  0
LINE
  5
16761
330
747D
100
AcDbEntity
  8
部品1
100
AcDbLine
 10
7529.67305712367
 20
10317.16379118607
 30
0.0
 11
5429.673057123652
 21
10317.16379118607
 31
0.0
  0
LINE
  5
16762
330
747D
100
AcDbEntity
  8
部品1
 48
50.0
100
AcDbLine
 10
5346.67305712364
 20
10344.1637911862
 30
0.0
 11
5346.67305712364
 21
10372.16379118615
 31
0.0
  0
LINE
  5
16763
330
747D
100
AcDbEntity
  8
部品1
 48
50.0
100
AcDbLine
 10
5346.67305712364
 20
10344.1637911861
 30
0.0
 11
5374.673057123636
 21
10344.1637911861
 31
0.0
  0
LINE
  5
168C3
330
747D
100
AcDbEntity
  8
部品1
100
AcDbLine
 10
5398.673057123658
 20
6957.163791186047
 30
0.0
 11
5350.673057123656
 21
6957.163791186047
 31
0.0
  0
LINE
  5
168C4
330
747D
100
AcDbEntity
  8
部品1
 48
50.0
100
AcDbLine
 10
5350.673057123657
 20
6957.163791186049
 30
0.0
 11
5350.67305712366
 21
6902.163791186049
 31
0.0
  0
LINE
  5
168C5
330
747D
100
AcDbEntity
  8
部品1
 48
50.0
100
AcDbLine
 10
5398.673057123658
 20
6957.163791186049
 30
0.0
 11
5398.673057123659
 21
6902.163791186049
 31
0.0
  0
DIMENSION
  5
16913
330
747D
100
AcDbEntity
  8
寸法
 48
50.0
100
AcDbDimension
  2
*D18
 10
7584.673057123673
 20
10837.29348436745
 30
0.0
 11
6479.673057123673
 21
10937.30529539107
 31
0.0
 70
    32
 71
     5
 42
2210.0
  3
INABA_S40G
100
AcDbAlignedDimension
 13
5374.673057123673
 23
10746.9599251691
 33
0.0
 14
7584.673057123673
 24
10372.16379118615
 34
0.0
100
AcDbRotatedDimension
1001
ACAD
1000
DSTYLE
1002
{
1070
    75
1070
     1
1070
   279
1070
     2
1002
}
  0
LINE
  5
172BC
330
747D
100
AcDbEntity
  8
部品1
 48
50.0
100
AcDbLine
 10
5402.67305712364
 20
10317.16379118607
 30
0.0
 11
5402.673057123706
 21
10372.1637911861
 31
0.0
  0
LINE
  5
172BD
330
747D
100
AcDbEntity
  8
部品1
 48
50.0
100
AcDbLine
 10
5346.67305712364
 20
10317.16379118607
 30
0.0
 11
5346.67305712364
 21
10344.1637911861
 31
0.0
  0
LINE
  5
174C8
330
747D
100
AcDbEntity
  8
部品1
 48
50.0
100
AcDbLine
 10
7504.673057123674
 20
10292.16379118603
 30
0.0
 11
5454.673057123626
 21
10292.163791186
 31
0.0
  0
LINE
  5
174C9
330
747D
100
AcDbEntity
  8
部品1
 48
50.0
100
AcDbLine
 10
7556.673057123673
 20
10344.16379118615
 30
0.0
 11
7529.67305712367
 21
10317.16379118607
 31
0.0
  0
LINE
  5
174CA
330
747D
100
AcDbEntity
  8
部品1
 48
50.0
100
AcDbLine
 10
3219.673057123643
 20
10317.16379118607
 30
0.0
 11
3192.673057123659
 21
10344.16379118617
 31
0.0
  0
LINE
  5
174CB
330
747D
100
AcDbEntity
  8
部品1
 48
50.0
100
AcDbLine
 10
6677.17305712367
 20
10336.16379118615
 30
0.0
 11
6677.17305712367
 21
10344.16379118617
 31
0.0
  0
LINE
  5
174CC
330
747D
100
AcDbEntity
  8
部品1
 48
50.0
100
AcDbLine
 10
6702.173057123672
 20
10336.16379118616
 30
0.0
 11
6702.173057123672
 21
10344.16379118617
 31
0.0
  0
LINE
  5
17B10
330
747D
100
AcDbEntity
  8
細線
100
AcDbLine
 10
5271.673057123666
 20
1972.025570836416
 30
0.0
 11
3267.673057123661
 21
1972.025570836416
 31
0.0
  0
CIRCLE
  5
17B17
330
747D
100
AcDbEntity
  8
細線
 48
50.0
100
AcDbCircle
 10
4269.673057123664
 20
2849.525570836417
 30
0.0
 40
18.0
  0
ARC
  5
17B18
330
747D
100
AcDbEntity
  8
細線
 48
50.0
100
AcDbCircle
 10
4569.673057123664
 20
2524.525570836417
 30
0.0
 40
15.0
100
AcDbArc
 50
270.0
 51
90.0
  0
ARC
  5
17B19
330
747D
100
AcDbEntity
  8
細線
 48
50.0
100
AcDbCircle
 10
4469.673057123664
 20
2524.525570836417
 30
0.0
 40
15.0
100
AcDbArc
 50
90.0
 51
270.0
  0
LINE
  5
17B1A
330
747D
100
AcDbEntity
  8
細線
 48
50.0
100
AcDbLine
 10
4469.673057123664
 20
2539.525570836417
 30
0.0
 11
4569.673057123664
 21
2539.525570836417
 31
0.0
  0
LINE
  5
17B1B
330
747D
100
AcDbEntity
  8
細線
 48
50.0
100
AcDbLine
 10
4569.673057123664
 20
2509.525570836417
 30
0.0
 11
4469.673057123664
 21
2509.525570836417
 31
0.0
  0
ARC
  5
17B1C
330
747D
100
AcDbEntity
  8
細線
 48
50.0
100
AcDbCircle
 10
4069.673057123664
 20
2524.525570836417
 30
0.0
 40
15.0
100
AcDbArc
 50
270.0
 51
90.0
  0
ARC
  5
17B1D
330
747D
100
AcDbEntity
  8
細線
 48
50.0
100
AcDbCircle
 10
3969.673057123664
 20
2524.525570836417
 30
0.0
 40
15.0
100
AcDbArc
 50
90.0
 51
270.0
  0
LINE
  5
17B21
330
747D
100
AcDbEntity
  8
細線
100
AcDbLine
 10
3267.673057123662
 20
3207.025570836417
 30
0.0
 11
5271.673057123663
 21
3207.025570836417
 31
0.0
  0
LINE
  5
17B22
330
747D
100
AcDbEntity
  8
細線
100
AcDbLine
 10
3267.673057123662
 20
3272.025570836416
 30
0.0
 11
5271.673057123663
 21
3272.025570836416
 31
0.0
  0
LINE
  5
17B23
330
747D
100
AcDbEntity
  8
細線
100
AcDbLine
 10
3267.673057123662
 20
3337.025570836417
 30
0.0
 11
5271.673057123663
 21
3337.025570836417
 31
0.0
  0
LINE
  5
17B24
330
747D
100
AcDbEntity
  8
細線
100
AcDbLine
 10
3267.673057123662
 20
3402.025570836417
 30
0.0
 11
5271.673057123663
 21
3402.025570836417
 31
0.0
  0
LINE
  5
17B25
330
747D
100
AcDbEntity
  8
細線
100
AcDbLine
 10
3267.673057123662
 20
3467.025570836418
 30
0.0
 11
5271.673057123663
 21
3467.025570836418
 31
0.0
  0
LINE
  5
17B26
330
747D
100
AcDbEntity
  8
細線
100
AcDbLine
 10
3267.673057123662
 20
3532.025570836417
 30
0.0
 11
5271.673057123663
 21
3532.025570836417
 31
0.0
  0
LINE
  5
17B27
330
747D
100
AcDbEntity
  8
細線
100
AcDbLine
 10
3267.673057123662
 20
2557.025570836418
 30
0.0
 11
5271.673057123663
 21
2557.025570836418
 31
0.0
  0
LINE
  5
17B28
330
747D
100
AcDbEntity
  8
細線
100
AcDbLine
 10
3267.673057123662
 20
2622.025570836417
 30
0.0
 11
5271.673057123663
 21
2622.025570836417
 31
0.0
  0
LINE
  5
17B29
330
747D
100
AcDbEntity
  8
細線
100
AcDbLine
 10
3267.673057123662
 20
2687.025570836417
 30
0.0
 11
5271.673057123663
 21
2687.025570836417
 31
0.0
  0
LINE
  5
17B2A
330
747D
100
AcDbEntity
  8
細線
100
AcDbLine
 10
3267.673057123662
 20
2752.025570836417
 30
0.0
 11
5271.673057123663
 21
2752.025570836417
 31
0.0
  0
LINE
  5
17B2B
330
747D
100
AcDbEntity
  8
細線
100
AcDbLine
 10
3267.673057123662
 20
2817.025570836417
 30
0.0
 11
5271.673057123663
 21
2817.025570836417
 31
0.0
  0
LINE
  5
17B2C
330
747D
100
AcDbEntity
  8
細線
100
AcDbLine
 10
3267.673057123662
 20
2882.025570836417
 30
0.0
 11
5271.673057123663
 21
2882.025570836417
 31
0.0
  0
LINE
  5
17B2D
330
747D
100
AcDbEntity
  8
細線
100
AcDbLine
 10
3267.673057123662
 20
2947.025570836417
 30
0.0
 11
5271.673057123663
 21
2947.025570836417
 31
0.0
  0
LINE
  5
17B2E
330
747D
100
AcDbEntity
  8
細線
100
AcDbLine
 10
3267.673057123662
 20
3012.025570836417
 30
0.0
 11
5271.673057123663
 21
3012.025570836417
 31
0.0
  0
LINE
  5
17B2F
330
747D
100
AcDbEntity
  8
細線
100
AcDbLine
 10
3267.673057123662
 20
3077.025570836417
 30
0.0
 11
5271.673057123663
 21
3077.025570836417
 31
0.0
  0
LINE
  5
17B30
330
747D
100
AcDbEntity
  8
細線
100
AcDbLine
 10
3267.673057123662
 20
3142.025570836417
 30
0.0
 11
5271.673057123663
 21
3142.025570836417
 31
0.0
  0
LINE
  5
17B33
330
747D
100
AcDbEntity
  8
細線
100
AcDbLine
 10
3267.673057123662
 20
2037.025570836417
 30
0.0
 11
5271.673057123663
 21
2037.025570836417
 31
0.0
  0
LINE
  5
17B34
330
747D
100
AcDbEntity
  8
細線
100
AcDbLine
 10
3267.673057123662
 20
2102.025570836417
 30
0.0
 11
5271.673057123663
 21
2102.025570836417
 31
0.0
  0
LINE
  5
17B35
330
747D
100
AcDbEntity
  8
細線
100
AcDbLine
 10
3267.673057123662
 20
2167.025570836417
 30
0.0
 11
5271.673057123663
 21
2167.025570836417
 31
0.0
  0
LINE
  5
17B36
330
747D
100
AcDbEntity
  8
細線
100
AcDbLine
 10
3267.673057123662
 20
2232.025570836416
 30
0.0
 11
5271.673057123663
 21
2232.025570836416
 31
0.0
  0
LINE
  5
17B37
330
747D
100
AcDbEntity
  8
細線
100
AcDbLine
 10
3267.673057123662
 20
2297.025570836417
 30
0.0
 11
5271.673057123663
 21
2297.025570836417
 31
0.0
  0
LINE
  5
17B38
330
747D
100
AcDbEntity
  8
細線
100
AcDbLine
 10
3267.673057123662
 20
2362.025570836417
 30
0.0
 11
5271.673057123663
 21
2362.025570836417
 31
0.0
  0
LINE
  5
17B39
330
747D
100
AcDbEntity
  8
細線
100
AcDbLine
 10
3267.673057123662
 20
2427.025570836417
 30
0.0
 11
5271.673057123663
 21
2427.025570836417
 31
0.0
  0
LINE
  5
17B3A
330
747D
100
AcDbEntity
  8
細線
100
AcDbLine
 10
3267.673057123662
 20
2492.025570836417
 30
0.0
 11
5271.673057123663
 21
2492.025570836417
 31
0.0
  0
LINE
  5
17B3B
330
747D
100
AcDbEntity
  8
細線
 48
50.0
100
AcDbLine
 10
4069.673057123664
 20
2509.525570836417
 30
0.0
 11
3969.673057123664
 21
2509.525570836417
 31
0.0
  0
LINE
  5
17B3C
330
747D
100
AcDbEntity
  8
細線
 48
50.0
100
AcDbLine
 10
3969.673057123664
 20
2539.525570836417
 30
0.0
 11
4069.673057123664
 21
2539.525570836417
 31
0.0
  0
LINE
  5
17B5A
330
747D
100
AcDbEntity
  8
部品1
100
AcDbLine
 10
3164.673057123665
 20
3637.025570836417
 30
0.0
 11
5429.673057123665
 21
3637.025570836417
 31
0.0
  0
DIMENSION
  5
17B86
330
747D
100
AcDbEntity
  8
寸法
 48
50.0
100
AcDbDimension
  2
*D21
 10
5374.673057123673
 20
10837.29348436745
 30
0.0
 11
4269.673057123655
 21
10937.30529539107
 31
0.0
 70
    32
 71
     5
 42
2210.000000000036
  3
INABA_S40G
100
AcDbAlignedDimension
 13
3164.673057123638
 23
10372.16379118602
 33
0.0
 14
5374.673057123673
 24
10746.9599251691
 34
0.0
100
AcDbRotatedDimension
1001
ACAD
1000
DSTYLE
1002
{
1070
   279
1070
     2
1002
}
  0
DIMENSION
  5
17B87
330
747D
100
AcDbEntity
  8
寸法
100
AcDbDimension
  2
*D20
 10
5319.673057123673
 20
10587.97201081115
 30
0.0
 11
4269.673057123673
 21
10687.98382183477
 31
0.0
 70
    32
  1
5X420=<>
 71
     5
 42
2100.000000000001
  3
INABA_S40G
100
AcDbAlignedDimension
 13
3219.673057123672
 23
10372.16379118605
 33
0.0
 14
5319.673057123673
 24
10372.16379118615
 34
0.0
100
AcDbRotatedDimension
1001
ACAD
1000
DSTYLE
1002
{
1002
}
  0
LINE
  5
17B8B
330
747D
100
AcDbEntity
  8
部品1
 48
50.0
100
AcDbLine
 10
5294.673057123643
 20
10292.16379118597
 30
0.0
 11
3244.673057123643
 21
10292.16379118597
 31
0.0
  0
LINE
  5
17B98
330
747D
100
AcDbEntity
  8
部品1
 48
50.0
100
AcDbLine
 10
4492.173057123672
 20
10336.16379118616
 30
0.0
 11
4492.173057123672
 21
10344.16379118617
 31
0.0
  0
LINE
  5
17B99
330
747D
100
AcDbEntity
  8
部品1
 48
50.0
100
AcDbLine
 10
4467.173057123672
 20
10336.16379118615
 30
0.0
 11
4467.173057123672
 21
10344.16379118617
 31
0.0
  0
LINE
  5
17BA3
330
747D
100
AcDbEntity
  8
部品1
100
AcDbLine
 10
4899.673057123671
 20
10372.16379118617
 30
0.0
 11
4899.673057123671
 21
10344.16379118617
 31
0.0
  0
LINE
  5
17BA4
330
747D
100
AcDbEntity
  8
部品1
100
AcDbLine
 10
4059.673057123672
 20
10372.16379118605
 30
0.0
 11
4059.673057123672
 21
10344.16379118605
 31
0.0
  0
LINE
  5
17BA5
330
747D
100
AcDbEntity
  8
部品1
100
AcDbLine
 10
4059.673057123672
 20
10372.16379118605
 30
0.0
 11
4059.673057123672
 21
10344.16379118605
 31
0.0
  0
LINE
  5
17BA6
330
747D
100
AcDbEntity
  8
部品1
100
AcDbLine
 10
4059.673057123672
 20
10372.16379118617
 30
0.0
 11
4059.673057123672
 21
10344.16379118617
 31
0.0
  0
LINE
  5
17BA7
330
747D
100
AcDbEntity
  8
部品1
100
AcDbLine
 10
3639.673057123673
 20
10372.16379118605
 30
0.0
 11
3639.673057123673
 21
10344.16379118605
 31
0.0
  0
LINE
  5
17BA8
330
747D
100
AcDbEntity
  8
部品1
100
AcDbLine
 10
3639.673057123673
 20
10372.16379118605
 30
0.0
 11
3639.673057123673
 21
10344.16379118605
 31
0.0
  0
LINE
  5
17BA9
330
747D
100
AcDbEntity
  8
部品1
100
AcDbLine
 10
3639.673057123673
 20
10372.16379118617
 30
0.0
 11
3639.673057123673
 21
10344.16379118617
 31
0.0
  0
LINE
  5
17BAA
330
747D
100
AcDbEntity
  8
部品1
100
AcDbLine
 10
3192.673057123659
 20
10344.16379118617
 30
0.0
 11
4467.17305712367
 21
10344.16379118617
 31
0.0
  0
LINE
  5
17BAB
330
747D
100
AcDbEntity
  8
部品1
100
AcDbLine
 10
4492.173057123672
 20
10344.16379118617
 30
0.0
 11
5346.673057123673
 21
10344.16379118615
 31
0.0
  0
LINE
  5
17BAC
330
747D
100
AcDbEntity
  8
部品1
100
AcDbLine
 10
4444.673057123671
 20
10362.16379118616
 30
0.0
 11
4444.673057123671
 21
10344.16379118616
 31
0.0
  0
LINE
  5
17BAD
330
747D
100
AcDbEntity
  8
部品1
100
AcDbLine
 10
4444.673057123671
 20
10362.16379118616
 30
0.0
 11
4450.673057123672
 21
10362.16379118616
 31
0.0
  0
LINE
  5
17BAE
330
747D
100
AcDbEntity
  8
部品1
100
AcDbLine
 10
4514.673057123672
 20
10362.16379118616
 30
0.0
 11
4514.673057123672
 21
10344.16379118616
 31
0.0
  0
LINE
  5
17BAF
330
747D
100
AcDbEntity
  8
部品1
100
AcDbLine
 10
4508.673057123671
 20
10362.16379118616
 30
0.0
 11
4514.673057123672
 21
10362.16379118616
 31
0.0
  0
LINE
  5
17BB0
330
747D
100
AcDbEntity
  8
部品1
100
AcDbLine
 10
4467.173057123672
 20
10336.16379118615
 30
0.0
 11
4492.173057123672
 21
10336.16379118616
 31
0.0
  0
LINE
  5
17BB1
330
747D
100
AcDbEntity
  8
部品1
100
AcDbLine
 10
4479.673057123672
 20
10372.16379118617
 30
0.0
 11
4479.673057123672
 21
10344.16379118617
 31
0.0
  0
LINE
  5
17BC2
330
747D
100
AcDbEntity
  8
部品1
 48
50.0
100
AcDbLine
 10
3231.673057123666
 20
6947.663791186051
 30
0.0
 11
5307.673057123651
 21
6947.663791186051
 31
0.0
  0
DIMENSION
  5
17BC3
330
747D
100
AcDbEntity
  8
寸法
 48
50.0
100
AcDbDimension
  2
*D19
 10
3267.673057123666
 20
6367.733020419888
 30
0.0
 11
4269.673057123656
 21
6467.744831443511
 31
0.0
 70
    32
  1
有効開口部間口 <>
 71
     5
 42
2003.999999999982
  3
INABA_S40G
100
AcDbAlignedDimension
 13
5271.673057123646
 23
6928.163791186054
 33
0.0
 14
3267.673057123666
 24
6928.163791186051
 34
0.0
100
AcDbRotatedDimension
1001
ACAD
1000
DSTYLE
1002
{
1070
    75
1070
     1
1070
   279
1070
     2
1002
}
  0
LINE
  5
17D0F
330
747D
100
AcDbEntity
  8
部品1
100
AcDbLine
 10
7556.673057123664
 20
9477.163791186148
 30
0.0
 11
7584.673057123665
 21
9477.163791186148
 31
0.0
  0
LINE
  5
17D10
330
747D
100
AcDbEntity
  8
部品1
100
AcDbLine
 10
7556.673057123667
 20
8637.163791186145
 30
0.0
 11
7584.673057123669
 21
8637.163791186145
 31
0.0
  0
LINE
  5
17D11
330
747D
100
AcDbEntity
  8
部品1
100
AcDbLine
 10
3192.673057123638
 20
9477.163791186018
 30
0.0
 11
3164.673057123638
 21
9477.163791186018
 31
0.0
  0
LINE
  5
17D12
330
747D
100
AcDbEntity
  8
部品1
100
AcDbLine
 10
3192.673057123643
 20
8637.163791186017
 30
0.0
 11
3164.673057123643
 21
8637.163791186017
 31
0.0
  0
LINE
  5
180FF
330
747D
100
AcDbEntity
  8
部品1
100
AcDbLine
 10
3164.673057123666
 20
1962.025570836416
 30
0.0
 11
7584.673057123666
 21
1962.025570836416
 31
0.0
  0
LINE
  5
18100
330
747D
100
AcDbEntity
  8
Ｇ．Ｌ
100
AcDbLine
 10
2076.406454453183
 20
1862.025570836416
 30
0.0
 11
13860.86855961702
 21
1862.025570836416
 31
0.0
  0
LINE
  5
18105
330
747D
100
AcDbEntity
  8
部品1
100
AcDbLine
 10
3164.673057123638
 20
10372.1637911861
 30
0.0
 11
7584.673057123673
 21
10372.16379118615
 31
0.0
  0
LINE
  5
18106
330
747D
100
AcDbEntity
  8
寸法
 48
50.0
100
AcDbLine
 10
5374.563357233142
 20
10764.43622215206
 30
0.0
 11
5374.563357233142
 21
10903.58734976001
 31
0.0
  0
LINE
  5
18161
330
747D
100
AcDbEntity
  8
部品1
100
AcDbLine
 10
5374.673057123658
 20
10317.16379118602
 30
0.0
 11
5374.673057123631
 21
6957.163791185995
 31
0.0
  0
LINE
  5
18162
330
747D
100
AcDbEntity
  8
部品1
100
AcDbLine
 10
5402.673057123618
 20
6902.163791186
 30
0.0
 11
5402.673057123642
 21
10372.16379118605
 31
0.0
  0
LINE
  5
18163
330
747D
100
AcDbEntity
  8
部品1
 48
10.0
100
AcDbLine
 10
5454.673057123673
 20
6967.163791186
 30
0.0
 11
5454.673057123626
 21
10317.16379118602
 31
0.0
  0
LINE
  5
18164
330
747D
100
AcDbEntity
  8
部品1
100
AcDbLine
 10
5429.673057123679
 20
6967.163791186
 30
0.0
 11
5429.673057123651
 21
10317.16379118599
 31
0.0
  0
LINE
  5
18165
330
747D
100
AcDbEntity
  8
部品1
100
AcDbLine
 10
5346.67305712364
 20
10344.1637911861
 30
0.0
 11
5346.673057123624
 21
6902.163791185994
 31
0.0
  0
LINE
  5
18166
330
747D
100
AcDbEntity
  8
部品1
 48
10.0
100
AcDbLine
 10
5294.673057123667
 20
6967.163791186
 30
0.0
 11
5294.673057123642
 21
10317.163791186
 31
0.0
  0
LINE
  5
18167
330
747D
100
AcDbEntity
  8
部品1
100
AcDbLine
 10
5319.673057123658
 20
6967.163791186
 30
0.0
 11
5319.673057123651
 21
10317.163791186
 31
0.0
  0
LINE
  5
18168
330
747D
100
AcDbEntity
  8
部品1
100
AcDbLine
 10
5346.67305712366
 20
8217.1637911861
 30
0.0
 11
5374.67305712366
 21
8217.1637911861
 31
0.0
  0
LINE
  5
18169
330
747D
100
AcDbEntity
  8
部品1
100
AcDbLine
 10
5346.67305712366
 20
8637.163791186102
 30
0.0
 11
5374.67305712366
 21
8637.163791186102
 31
0.0
  0
LINE
  5
1816A
330
747D
100
AcDbEntity
  8
部品1
100
AcDbLine
 10
5346.67305712366
 20
9477.163791186102
 30
0.0
 11
5374.67305712366
 21
9477.163791186102
 31
0.0
  0
LINE
  5
1816B
330
747D
100
AcDbEntity
  8
部品1
 48
50.0
100
AcDbLine
 10
5402.673057123693
 20
10344.16379118591
 30
0.0
 11
5429.673057123682
 21
10317.16379118592
 31
0.0
  0
LINE
  5
1816C
330
747D
100
AcDbEntity
  8
部品1
 48
50.0
100
AcDbLine
 10
5346.673057123708
 20
10344.163791186
 30
0.0
 11
5319.673057123704
 21
10317.163791186
 31
0.0
  0
LINE
  5
1816F
330
747D
100
AcDbEntity
  8
部品1
100
AcDbLine
 10
5319.673057123651
 20
10317.16379118607
 30
0.0
 11
3219.673057123643
 21
10317.16379118607
 31
0.0
  0
LINE
  5
18170
330
747D
100
AcDbEntity
  8
部品1
100
AcDbLine
 10
5402.67305712364
 20
10317.16379118607
 30
0.0
 11
5346.67305712364
 21
10317.16379118607
 31
0.0
  0
LINE
  5
18171
330
747D
100
AcDbEntity
  8
部品1
100
AcDbLine
 10
5346.673057123666
 20
7797.163791186102
 30
0.0
 11
5374.673057123667
 21
7797.163791186102
 31
0.0
  0
LINE
  5
18172
330
747D
100
AcDbEntity
  8
部品1
100
AcDbLine
 10
5346.673057123666
 20
7377.163791186102
 30
0.0
 11
5374.673057123667
 21
7377.163791186102
 31
0.0
  0
LINE
  5
181F6
330
747D
100
AcDbEntity
  8
部品1
100
AcDbLine
 10
7556.673057123667
 20
9057.163791186146
 30
0.0
 11
7584.673057123669
 21
9057.163791186146
 31
0.0
  0
LINE
  5
181F7
330
747D
100
AcDbEntity
  8
部品1
100
AcDbLine
 10
5346.67305712366
 20
9057.163791186102
 30
0.0
 11
5374.67305712366
 21
9057.163791186102
 31
0.0
  0
LINE
  5
181F9
330
747D
100
AcDbEntity
  8
部品1
100
AcDbLine
 10
3192.673057123643
 20
9057.163791186018
 30
0.0
 11
3164.673057123643
 21
9057.163791186018
 31
0.0
  0
TEXT
  5
1875B
330
747D
100
AcDbEntity
  8
文字
 62
     7
 48
50.0
100
AcDbText
 10
15022.63965474516
 20
9910.01374588372
 30
0.0
 40
100.0
  1
F12,Y10      1.2+1.6
  7
STYLE1
100
AcDbText
  0
TEXT
  5
1875C
330
747D
100
AcDbEntity
  8
文字
 62
     7
 48
50.0
100
AcDbText
 10
13583.11819016569
 20
9910.01374588373
 30
0.0
 40
100.0
  1
梁中
  7
STYLE1
100
AcDbText
  0
TEXT
  5
1875D
330
747D
100
AcDbEntity
  8
文字
 62
     7
 48
50.0
100
AcDbText
 10
13248.77747366448
 20
8720.013745883731
 30
0.0
 40
100.0
  1
14
  7
STYLE1
100
AcDbText
  0
LINE
  5
1875E
330
747D
100
AcDbEntity
  8
仕様書枠
 48
50.0
100
AcDbLine
 10
16307.19999999999
 20
9879.600000000001
 30
0.0
 11
13127.2
 21
9879.600000000001
 31
0.0
  0
LINE
  5
1875F
330
747D
100
AcDbEntity
  8
仕様書枠
 48
50.0
100
AcDbLine
 10
16307.19999999999
 20
11239.6
 30
0.0
 11
13127.2
 21
11239.6
 31
0.0
  0
LINE
  5
18760
330
747D
100
AcDbEntity
  8
仕様書枠
 48
50.0
100
AcDbLine
 10
16307.19999999999
 20
8179.6
 30
0.0
 11
16307.2
 21
11239.6
 31
0.0
  0
LINE
  5
18761
330
747D
100
AcDbEntity
  8
仕様書枠
 48
50.0
100
AcDbLine
 10
14785.2
 20
11239.59999999999
 30
0.0
 11
14785.2
 21
8689.6
 31
0.0
  0
LINE
  5
18762
330
747D
100
AcDbEntity
  8
仕様書枠
 48
50.0
100
AcDbLine
 10
13490.2
 20
11239.6
 30
0.0
 11
13490.20000000001
 21
8689.600000000003
 31
0.0
  0
LINE
  5
18763
330
747D
100
AcDbEntity
  8
仕様書枠
 48
50.0
100
AcDbLine
 10
16307.19999999999
 20
11069.6
 30
0.0
 11
13127.2
 21
11069.6
 31
0.0
  0
LINE
  5
18764
330
747D
100
AcDbEntity
  8
仕様書枠
 48
50.0
100
AcDbLine
 10
16307.19999999999
 20
10729.6
 30
0.0
 11
13127.2
 21
10729.6
 31
0.0
  0
LINE
  5
18765
330
747D
100
AcDbEntity
  8
仕様書枠
 48
50.0
100
AcDbLine
 10
16307.19999999999
 20
10899.6
 30
0.0
 11
13127.2
 21
10899.6
 31
0.0
  0
LINE
  5
18766
330
747D
100
AcDbEntity
  8
仕様書枠
 48
50.0
100
AcDbLine
 10
16307.19999999999
 20
10389.6
 30
0.0
 11
13127.19999999999
 21
10389.6
 31
0.0
  0
LINE
  5
18767
330
747D
100
AcDbEntity
  8
仕様書枠
 48
50.0
100
AcDbLine
 10
16307.19999999999
 20
10219.6
 30
0.0
 11
13127.19999999999
 21
10219.6
 31
0.0
  0
LINE
  5
18768
330
747D
100
AcDbEntity
  8
仕様書枠
 48
50.0
100
AcDbLine
 10
16307.19999999999
 20
10559.6
 30
0.0
 11
13127.19999999999
 21
10559.6
 31
0.0
  0
TEXT
  5
18769
330
747D
100
AcDbEntity
  8
文字
 62
     7
 48
50.0
100
AcDbText
 10
13197.42518560407
 20
11100.01374588372
 30
0.0
 40
100.0
  1
品番
  7
STYLE1
100
AcDbText
  0
TEXT
  5
1876A
330
747D
100
AcDbEntity
  8
文字
 62
     7
 48
50.0
100
AcDbText
 10
13271.19032244792
 20
10930.01374588373
 30
0.0
 40
100.0
  1
1
  7
STYLE1
100
AcDbText
  0
TEXT
  5
1876B
330
747D
100
AcDbEntity
  8
文字
 62
     7
 48
50.0
100
AcDbText
 10
13271.19032244792
 20
10760.01374588373
 30
0.0
 40
100.0
  1
2
  7
STYLE1
100
AcDbText
  0
TEXT
  5
1876C
330
747D
100
AcDbEntity
  8
文字
 62
     7
 48
50.0
100
AcDbText
 10
13271.19032244792
 20
10420.01374588373
 30
0.0
 40
100.0
  1
4
  7
STYLE1
100
AcDbText
  0
TEXT
  5
1876D
330
747D
100
AcDbEntity
  8
文字
 62
     7
 48
50.0
100
AcDbText
 10
13271.19032244792
 20
10590.01374588373
 30
0.0
 40
100.0
  1
3
  7
STYLE1
100
AcDbText
  0
TEXT
  5
1876E
330
747D
100
AcDbEntity
  8
文字
 62
     7
 48
50.0
100
AcDbText
 10
13732.03840939434
 20
11100.01374588372
 30
0.0
 40
100.0
  1
部　　品　　名
  7
STYLE1
100
AcDbText
  0
TEXT
  5
1876F
330
747D
100
AcDbEntity
  8
文字
 62
     7
 48
50.0
100
AcDbText
 10
14859.79774614482
 20
11100.01374588372
 30
0.0
 40
100.0
  1
材料（材質）　　単位mm
  7
STYLE1
100
AcDbText
  0
TEXT
  5
18770
330
747D
100
AcDbEntity
  8
文字
 62
     7
 48
50.0
100
AcDbText
 10
13583.11819016569
 20
10930.01374588373
 30
0.0
 40
100.0
  1
土台枠
  7
STYLE1
100
AcDbText
  0
TEXT
  5
18771
330
747D
100
AcDbEntity
  8
文字
 62
     7
 48
50.0
100
AcDbText
 10
13583.11819016569
 20
10760.01374588372
 30
0.0
 40
100.0
  1
柱
  7
STYLE1
100
AcDbText
  0
TEXT
  5
18772
330
747D
100
AcDbEntity
  8
文字
 62
     7
 48
50.0
100
AcDbText
 10
13583.11819016569
 20
10590.01374588372
 30
0.0
 40
100.0
  1
桁前
  7
STYLE1
100
AcDbText
  0
TEXT
  5
18773
330
747D
100
AcDbEntity
  8
文字
 62
     7
 48
50.0
100
AcDbText
 10
13583.11819016569
 20
10420.01374588373
 30
0.0
 40
100.0
  1
桁後
  7
STYLE1
100
AcDbText
  0
TEXT
  5
18774
330
747D
100
AcDbEntity
  8
文字
 62
     7
 48
50.0
100
AcDbText
 10
13271.19032244792
 20
10250.01374588372
 30
0.0
 40
100.0
  1
5
  7
STYLE1
100
AcDbText
  0
TEXT
  5
18775
330
747D
100
AcDbEntity
  8
文字
 62
     7
 48
50.0
100
AcDbText
 10
13583.11819016569
 20
10250.01374588372
 30
0.0
 40
100.0
  1
妻板左右
  7
STYLE1
100
AcDbText
  0
TEXT
  5
18776
330
747D
100
AcDbEntity
  8
文字
 62
     7
 48
50.0
100
AcDbText
 10
13583.11819016569
 20
8890.013745883729
 30
0.0
 40
100.0
  1
シャッターレール
  7
STYLE1
100
AcDbText
  0
TEXT
  5
18777
330
747D
100
AcDbEntity
  8
文字
 62
     7
 48
50.0
100
AcDbText
 10
13248.77747366448
 20
9400.013745883729
 30
0.0
 40
100.0
  1
10
  7
STYLE1
100
AcDbText
  0
TEXT
  5
18778
330
747D
100
AcDbEntity
  8
文字
 62
     7
 48
50.0
100
AcDbText
 10
13583.11819016569
 20
9400.013745883729
 30
0.0
 40
100.0
  1
壁パネル
  7
STYLE1
100
AcDbText
  0
TEXT
  5
18779
330
747D
100
AcDbEntity
  8
文字
 62
     7
 48
50.0
100
AcDbText
 10
13583.11819016569
 20
9570.013745883729
 30
0.0
 40
100.0
  1
屋根パネル
  7
STYLE1
100
AcDbText
  0
TEXT
  5
1877A
330
747D
100
AcDbEntity
  8
文字
 62
     7
 48
50.0
100
AcDbText
 10
13583.11819016569
 20
9740.013745883729
 30
0.0
 40
100.0
  1
母屋中
  7
STYLE1
100
AcDbText
  0
TEXT
  5
1877B
330
747D
100
AcDbEntity
  8
文字
 62
     7
 48
50.0
100
AcDbText
 10
13583.11819016569
 20
10080.01374588373
 30
0.0
 40
100.0
  1
鼻隠シ前後
  7
STYLE1
100
AcDbText
  0
TEXT
  5
1877C
330
747D
100
AcDbEntity
  8
文字
 62
     7
 48
50.0
100
AcDbText
 10
13271.19032244792
 20
9740.013745883729
 30
0.0
 40
100.0
  1
8
  7
STYLE1
100
AcDbText
  0
TEXT
  5
1877D
330
747D
100
AcDbEntity
  8
文字
 62
     7
 48
50.0
100
AcDbText
 10
13271.19032244792
 20
9570.013745883729
 30
0.0
 40
100.0
  1
9
  7
STYLE1
100
AcDbText
  0
TEXT
  5
1877E
330
747D
100
AcDbEntity
  8
文字
 62
     7
 48
50.0
100
AcDbText
 10
13271.19032244792
 20
9910.01374588373
 30
0.0
 40
100.0
  1
7
  7
STYLE1
100
AcDbText
  0
TEXT
  5
1877F
330
747D
100
AcDbEntity
  8
文字
 62
     7
 48
50.0
100
AcDbText
 10
13271.19032244792
 20
10080.01374588373
 30
0.0
 40
100.0
  1
6
  7
STYLE1
100
AcDbText
  0
LINE
  5
18780
330
747D
100
AcDbEntity
  8
仕様書枠
 48
50.0
100
AcDbLine
 10
16307.19999999999
 20
9539.6
 30
0.0
 11
13127.19999999999
 21
9539.6
 31
0.0
  0
LINE
  5
18781
330
747D
100
AcDbEntity
  8
仕様書枠
 48
50.0
100
AcDbLine
 10
16307.19999999999
 20
9199.599999999996
 30
0.0
 11
13127.19999999999
 21
9199.600000000001
 31
0.0
  0
LINE
  5
18782
330
747D
100
AcDbEntity
  8
仕様書枠
 48
50.0
100
AcDbLine
 10
16307.19999999999
 20
9369.599999999996
 30
0.0
 11
13127.19999999999
 21
9369.600000000001
 31
0.0
  0
LINE
  5
18783
330
747D
100
AcDbEntity
  8
仕様書枠
 48
50.0
100
AcDbLine
 10
16307.19999999999
 20
10049.6
 30
0.0
 11
13127.2
 21
10049.6
 31
0.0
  0
LINE
  5
18784
330
747D
100
AcDbEntity
  8
仕様書枠
 48
50.0
100
AcDbLine
 10
16307.19999999999
 20
9709.600000000001
 30
0.0
 11
13127.2
 21
9709.600000000001
 31
0.0
  0
TEXT
  5
18785
330
747D
100
AcDbEntity
  8
文字
 62
     7
 48
50.0
100
AcDbText
 10
13248.77747366448
 20
9230.013745883729
 30
0.0
 40
100.0
  1
11
  7
STYLE1
100
AcDbText
  0
TEXT
  5
18786
330
747D
100
AcDbEntity
  8
文字
 62
     7
 48
50.0
100
AcDbText
 10
13583.11819016569
 20
9060.013745883729
 30
0.0
 40
100.0
  1
シャッターカバー
 41
0.9
  7
STYLE1
100
AcDbText
  0
LINE
  5
18787
330
747D
100
AcDbEntity
  8
仕様書枠
 48
50.0
100
AcDbLine
 10
16307.19999999999
 20
9029.599999999996
 30
0.0
 11
13127.19999999999
 21
9029.6
 31
0.0
  0
TEXT
  5
18789
330
747D
100
AcDbEntity
  8
文字
 62
     7
 48
50.0
100
AcDbText
 10
13583.11819016569
 20
8720.013745883729
 30
0.0
 40
100.0
  1
棚板（別売）
  7
STYLE1
100
AcDbText
  0
LINE
  5
1878A
330
747D
100
AcDbEntity
  8
仕様書枠
 48
50.0
100
AcDbLine
 10
16307.19999999999
 20
8859.6
 30
0.0
 11
13127.19999999999
 21
8859.600000000002
 31
0.0
  0
TEXT
  5
1878B
330
747D
100
AcDbEntity
  8
文字
 62
     7
 48
50.0
100
AcDbText
 10
13583.11819016568
 20
9230.013745883731
 30
0.0
 40
100.0
  1
シャッター
  7
STYLE1
100
AcDbText
  0
TEXT
  5
1878C
330
747D
100
AcDbEntity
  8
文字
 62
     7
 48
50.0
100
AcDbText
 10
13248.77747366448
 20
8890.013745883729
 30
0.0
 40
100.0
  1
13
  7
STYLE1
100
AcDbText
  0
TEXT
  5
1878D
330
747D
100
AcDbEntity
  8
文字
 62
     7
 48
50.0
100
AcDbText
 10
13248.77747366448
 20
9060.013745883729
 30
0.0
 40
100.0
  1
12
  7
STYLE1
100
AcDbText
  0
TEXT
  5
1878E
330
747D
100
AcDbEntity
  8
文字
 62
     7
 48
50.0
100
AcDbText
 10
15022.63965474517
 20
10930.01374588372
 30
0.0
 40
100.0
  1
F12            1.2
  7
STYLE1
100
AcDbText
  0
TEXT
  5
18790
330
747D
100
AcDbEntity
  8
文字
 62
     7
 48
50.0
100
AcDbText
 10
15022.63965474516
 20
10590.01374588372
 30
0.0
 40
100.0
  1
Y10            1.0
  7
STYLE1
100
AcDbText
  0
TEXT
  5
18791
330
747D
100
AcDbEntity
  8
文字
 62
     7
 48
50.0
100
AcDbText
 10
15022.63965474516
 20
10420.01374588372
 30
0.0
 40
100.0
  1
Y10            1.0
  7
STYLE1
100
AcDbText
  0
TEXT
  5
18792
330
747D
100
AcDbEntity
  8
文字
 62
     7
 48
50.0
100
AcDbText
 10
15022.63965474516
 20
10250.01374588372
 30
0.0
 40
100.0
  1
Y10            0.7
  7
STYLE1
100
AcDbText
  0
TEXT
  5
18793
330
747D
100
AcDbEntity
  8
文字
 62
     7
 48
50.0
100
AcDbText
 10
15022.63965474516
 20
10080.01374588372
 30
0.0
 40
100.0
  1
Y10            0.7
  7
STYLE1
100
AcDbText
  0
TEXT
  5
18795
330
747D
100
AcDbEntity
  8
文字
 62
     7
 48
50.0
100
AcDbText
 10
15022.63965474517
 20
9570.013745883723
 30
0.0
 40
100.0
  1
Y10            0.5
  7
STYLE1
100
AcDbText
  0
TEXT
  5
18796
330
747D
100
AcDbEntity
  8
文字
 62
     7
 48
50.0
100
AcDbText
 10
15022.63965474516
 20
9400.013745883724
 30
0.0
 40
100.0
  1
F12            0.6
  7
STYLE1
100
AcDbText
  0
TEXT
  5
18797
330
747D
100
AcDbEntity
  8
文字
 62
     7
 48
50.0
100
AcDbText
 10
14850.83183167176
 20
8890.013745883724
 30
0.0
 40
100.0
  1
アルミニウム合金押出形材
  7
STYLE1
100
AcDbText
  0
TEXT
  5
18799
330
747D
100
AcDbEntity
  8
文字
 62
     7
 48
50.0
100
AcDbText
 10
15022.63965474513
 20
9230.013745883724
 30
0.0
 40
100.0
  1
Z08            0.5
  7
STYLE1
100
AcDbText
  0
TEXT
  5
1879A
330
747D
100
AcDbEntity
  8
文字
 62
     7
 48
50.0
100
AcDbText
 10
15022.63965474515
 20
8720.013745883727
 30
0.0
 40
100.0
  1
F12            0.6
  7
STYLE1
100
AcDbText
  0
LINE
  5
1879B
330
747D
100
AcDbEntity
  8
仕様書枠
 48
50.0
100
AcDbLine
 10
16307.19999999999
 20
8519.599999999998
 30
0.0
 11
13127.19999999999
 21
8519.600000000002
 31
0.0
  0
LINE
  5
1879C
330
747D
100
AcDbEntity
  8
仕様書枠
 48
50.0
100
AcDbLine
 10
16307.19999999999
 20
8349.6
 30
0.0
 11
13127.19999999999
 21
8349.6
 31
0.0
  0
LINE
  5
1879D
330
747D
100
AcDbEntity
  8
仕様書枠
 48
50.0
100
AcDbLine
 10
16307.19999999999
 20
8179.599999999998
 30
0.0
 11
13127.19999999999
 21
8179.6
 31
0.0
  0
TEXT
  5
1879E
330
747D
100
AcDbEntity
  8
文字
 62
     7
 48
50.0
100
AcDbText
 10
13229.83081656555
 20
8550.013745883727
 30
0.0
 40
100.0
  1
F12→溶融亜鉛めっき鋼板(JIS G 3302)
  7
STYLE1
100
AcDbText
  0
TEXT
  5
1879F
330
747D
100
AcDbEntity
  8
文字
 62
     7
 48
50.0
100
AcDbText
 10
13229.83081656554
 20
8380.013745883728
 30
0.0
 40
100.0
  1
Y10→溶融亜鉛-5％アルミニウム合金めっき鋼板(JIS G 3317)
 41
0.9
  7
STYLE1
100
AcDbText
  0
TEXT
  5
187A0
330
747D
100
AcDbEntity
  8
文字
 62
     7
 48
50.0
100
AcDbText
 10
13229.83081656555
 20
8210.013745883729
 30
0.0
 40
100.0
  1
Z08→塗装溶融亜鉛めっき鋼板(JIS G 3313)
  7
STYLE1
100
AcDbText
  0
LINE
  5
187A1
330
747D
100
AcDbEntity
  8
仕様書枠
 48
50.0
100
AcDbLine
 10
13127.2
 20
11239.6
 30
0.0
 11
13127.2
 21
8179.600000000002
 31
0.0
  0
TEXT
  5
18E43
330
747D
100
AcDbEntity
  8
文字
 62
     7
 48
50.0
100
AcDbText
 10
14243.55185591683
 20
483.8967129911416
 30
0.0
 40
160.0
  1
FXN-2234SL-2
  7
MSPゴシック
100
AcDbText
  0
LINE
  5
19260
330
747D
100
AcDbEntity
  8
補助
  6
PHANTOM
 62
   230
 48
50.0
100
AcDbLine
 10
140.0
 20
0.0
 30
0.0
 11
139.9999999999995
 21
11409.6
 31
0.0
  0
DIMENSION
  5
195D0
330
747D
100
AcDbEntity
  8
寸法
 48
50.0
100
AcDbDimension
  2
*D22
 10
3164.673057123664
 20
4442.751842568327
 30
0.0
 11
5374.673057123665
 21
4442.751842568327
 31
0.0
 70
   160
  1
柱外寸法<>
 71
     5
 42
4420.000000000004
  3
INABA_S40G
100
AcDbAlignedDimension
 13
7584.673057123669
 23
4037.025570836424
 33
0.0
 14
3164.673057123664
 24
4037.025570836424
 34
0.0
100
AcDbRotatedDimension
  0
DIMENSION
  5
195D1
330
747D
100
AcDbEntity
  8
寸法
 48
50.0
100
AcDbDimension
  2
*D23
 10
7634.673057123666
 20
4642.660763782415
 30
0.0
 11
5374.673057123665
 21
4642.660763782415
 31
0.0
 70
   160
 71
     5
 42
4520.000000000002
  3
INABA_S40G
100
AcDbAlignedDimension
 13
3114.673057123664
 23
4037.025570836424
 33
0.0
 14
7634.673057123666
 24
4037.02557083642
 34
0.0
100
AcDbRotatedDimension
  0
DIMENSION
  5
195D2
330
747D
100
AcDbEntity
  8
寸法
 48
50.0
100
AcDbDimension
  2
*D24
 10
3114.673057123664
 20
4442.751842568327
 30
0.0
 11
2801.187775749417
 21
4442.751842568327
 31
0.0
 70
   160
 71
     5
 42
50.0
  3
INABA_S40G
100
AcDbAlignedDimension
 13
3164.673057123664
 23
4037.025570836424
 33
0.0
 14
3114.673057123664
 24
4037.025570836424
 34
0.0
100
AcDbRotatedDimension
1001
ACAD
1000
DSTYLE
1002
{
1002
}
  0
LINE
  5
195D3
330
747D
100
AcDbEntity
  8
部品1
100
AcDbLine
 10
3115.092718138994
 20
4029.629045441182
 30
0.0
 11
3116.226115471344
 21
4009.65291745858
 31
0.0
  0
LINE
  5
195D4
330
747D
100
AcDbEntity
  8
部品1
100
AcDbLine
 10
3127.663135792924
 20
3913.995510291523
 30
0.0
 11
3128.308041600032
 21
3902.629045441183
 31
0.0
  0
LINE
  5
195D5
330
747D
100
AcDbEntity
  8
部品1
100
AcDbLine
 10
3119.427105268073
 20
4006.195510291521
 30
0.0
 11
3124.462145996187
 21
3917.45291745858
 31
0.0
  0
ARC
  5
195D6
330
747D
100
AcDbEntity
  8
部品1
 48
50.0
100
AcDbCircle
 10
3116.431922371888
 20
4006.025570836422
 30
0.0
 40
3.0
100
AcDbArc
 50
3.24734279033473
 51
82.34187279263609
  0
ARC
  5
195D7
330
747D
100
AcDbEntity
  8
部品1
 48
50.0
100
AcDbCircle
 10
3124.667952896731
 20
3913.825570836421
 30
0.0
 40
3.0
100
AcDbArc
 50
3.24734279033473
 51
82.34187279263609
  0
ARC
  5
195D8
330
747D
100
AcDbEntity
  8
部品1
 48
50.0
100
AcDbCircle
 10
3125.161022005292
 20
3917.492569998103
 30
0.0
 40
0.7
100
AcDbArc
 50
183.2473427903347
 51
262.3418727926361
  0
ARC
  5
195D9
330
747D
100
AcDbEntity
  8
部品1
 48
50.0
100
AcDbCircle
 10
3116.924991480455
 20
4009.692569998107
 30
0.0
 40
0.7
100
AcDbArc
 50
183.2473427903347
 51
262.3418727926361
  0
ARC
  5
195DA
330
747D
100
AcDbEntity
  8
部品1
100
AcDbCircle
 10
3135.296801691128
 20
3903.025570836422
 30
0.0
 40
7.0
100
AcDbArc
 50
183.2473427903347
 51
270.0
  0
ARC
  5
195DB
330
747D
100
AcDbEntity
  8
部品1
100
AcDbCircle
 10
3122.081478230097
 20
4030.02557083642
 30
0.0
 40
7.0
100
AcDbArc
 50
90.0
 51
183.2473427903347
  0
LINE
  5
195DC
330
747D
100
AcDbEntity
  8
細線
 48
50.0
100
AcDbLine
 10
3147.673057123664
 20
4037.02557083642
 30
0.0
 11
3147.673057123664
 21
3896.02557083642
 31
0.0
  0
LINE
  5
195DD
330
747D
100
AcDbEntity
  8
細線
 48
50.0
100
AcDbLine
 10
7624.397488377359
 20
3916.825570836412
 30
0.0
 11
3124.948625869935
 21
3916.825570836424
 31
0.0
  0
LINE
  5
195DE
330
747D
100
AcDbEntity
  8
細線
 48
50.0
100
AcDbLine
 10
7632.633518902237
 20
4009.025570836426
 30
0.0
 11
3116.712595345105
 21
4009.02557083642
 31
0.0
  0
LINE
  5
195DF
330
747D
100
AcDbEntity
  8
部品1
 48
50.0
100
AcDbLine
 10
7614.049312556203
 20
3896.025570836424
 30
0.0
 11
3135.296801691128
 21
3896.025570836424
 31
0.0
  0
LINE
  5
195E0
330
747D
100
AcDbEntity
  8
部品1
 48
50.0
100
AcDbLine
 10
7627.264636017237
 20
4037.02557083642
 30
0.0
 11
3122.081478230097
 21
4037.025570836424
 31
0.0
  0
LINE
  5
195E1
330
747D
100
AcDbEntity
  8
部品1
100
AcDbLine
 10
3164.673057123664
 20
3802.025570836416
 30
0.0
 11
7584.673057123665
 21
3802.025570836415
 31
0.0
  0
DIMENSION
  5
195E2
330
747D
100
AcDbEntity
  8
寸法
 48
50.0
100
AcDbDimension
  2
*D25
 10
7584.673057123669
 20
4442.75184256833
 30
0.0
 11
7948.158338497908
 21
4442.75184256833
 31
0.0
 70
   160
 71
     5
 42
49.99999999999635
  3
INABA_S40G
100
AcDbAlignedDimension
 13
7634.673057123666
 23
4037.02557083642
 33
0.0
 14
7584.673057123669
 24
4037.025570836424
 34
0.0
100
AcDbRotatedDimension
  0
ARC
  5
195E3
330
747D
100
AcDbEntity
  8
部品1
100
AcDbCircle
 10
7627.264636017237
 20
4030.025570836424
 30
0.0
 40
7.0
100
AcDbArc
 50
356.7526572096653
 51
90.0
  0
ARC
  5
195E4
330
747D
100
AcDbEntity
  8
部品1
100
AcDbCircle
 10
7614.049312556203
 20
3903.025570836422
 30
0.0
 40
7.0
100
AcDbArc
 50
270.0
 51
356.7526572096653
  0
ARC
  5
195E5
330
747D
100
AcDbEntity
  8
部品1
 48
50.0
100
AcDbCircle
 10
7632.421122766878
 20
4009.692569998107
 30
0.0
 40
0.7
100
AcDbArc
 50
277.6581272073639
 51
356.7526572096653
  0
ARC
  5
195E6
330
747D
100
AcDbEntity
  8
部品1
 48
50.0
100
AcDbCircle
 10
7624.185092242041
 20
3917.492569998106
 30
0.0
 40
0.7
100
AcDbArc
 50
277.6581272073639
 51
356.7526572096653
  0
ARC
  5
195E7
330
747D
100
AcDbEntity
  8
部品1
 48
50.0
100
AcDbCircle
 10
7624.678161350598
 20
3913.825570836421
 30
0.0
 40
3.0
100
AcDbArc
 50
97.65812720736393
 51
176.7526572096653
  0
ARC
  5
195E8
330
747D
100
AcDbEntity
  8
部品1
 48
50.0
100
AcDbCircle
 10
7632.914191875443
 20
4006.025570836422
 30
0.0
 40
3.0
100
AcDbArc
 50
97.65812720736393
 51
176.7526572096653
  0
LINE
  5
195E9
330
747D
100
AcDbEntity
  8
部品1
100
AcDbLine
 10
7629.919008979256
 20
4006.195510291527
 30
0.0
 11
7624.883968251146
 21
3917.45291745858
 31
0.0
  0
LINE
  5
195EA
330
747D
100
AcDbEntity
  8
部品1
100
AcDbLine
 10
7621.682978454408
 20
3913.995510291523
 30
0.0
 11
7621.038072647301
 21
3902.629045441183
 31
0.0
  0
LINE
  5
195EB
330
747D
100
AcDbEntity
  8
細線
 48
50.0
100
AcDbLine
 10
7601.673057123666
 20
4037.025570836424
 30
0.0
 11
7601.673057123666
 21
3896.025570836424
 31
0.0
  0
LINE
  5
195EC
330
747D
100
AcDbEntity
  8
部品1
100
AcDbLine
 10
7634.253396108336
 20
4029.629045441182
 30
0.0
 11
7633.119998775986
 21
4009.652917458582
 31
0.0
  0
LINE
  5
195ED
330
747D
100
AcDbEntity
  8
部品1
 48
50.0
100
AcDbLine
 10
5364.673057123669
 20
3896.02557083642
 30
0.0
 11
5364.673057123667
 21
4037.02557083642
 31
0.0
  0
LINE
  5
195EE
330
747D
100
AcDbEntity
  8
部品1
 48
50.0
100
AcDbLine
 10
5374.673057123668
 20
3637.025570836417
 30
0.0
 11
5374.673057123668
 21
3896.02557083642
 31
0.0
  0
ARC
  5
195EF
330
747D
100
AcDbEntity
  8
部品1
 48
0.01
100
AcDbCircle
 10
4796.673057123668
 20
3834.525570836417
 30
0.0
 40
2.0
100
AcDbArc
 50
180.0
 51
270.0
  0
ARC
  5
195F0
330
747D
100
AcDbEntity
  8
部品1
 48
0.01
100
AcDbCircle
 10
4796.673057123665
 20
3866.025570836415
 30
0.0
 40
2.0
100
AcDbArc
 50
90.0
 51
180.0
  0
ARC
  5
195F1
330
747D
100
AcDbEntity
  8
部品1
 48
0.01
100
AcDbCircle
 10
4972.673057123665
 20
3834.525570836417
 30
0.0
 40
2.0
100
AcDbArc
 50
270.0
 51
0.0
  0
ARC
  5
195F2
330
747D
100
AcDbEntity
  8
部品1
 48
0.01
100
AcDbCircle
 10
4972.673057123665
 20
3866.025570836415
 30
0.0
 40
2.0
100
AcDbArc
 50
0.0
 51
90.0
  0
LINE
  5
195F3
330
747D
100
AcDbEntity
  8
細線
100
AcDbLine
 10
4884.673057123668
 20
3838.525570836416
 30
0.0
 11
4810.673057123665
 21
3838.525570836416
 31
0.0
  0
LINE
  5
195F4
330
747D
100
AcDbEntity
  8
細線
100
AcDbLine
 10
4884.673057123665
 20
3861.525570836416
 30
0.0
 11
4958.673057123665
 21
3861.525570836416
 31
0.0
  0
LINE
  5
195F5
330
747D
100
AcDbEntity
  8
細線
100
AcDbLine
 10
4958.673057123665
 20
3838.525570836416
 30
0.0
 11
4884.673057123665
 21
3838.525570836416
 31
0.0
  0
LINE
  5
195F6
330
747D
100
AcDbEntity
  8
細線
100
AcDbLine
 10
4810.673057123665
 20
3861.525570836416
 30
0.0
 11
4884.673057123665
 21
3861.525570836416
 31
0.0
  0
LINE
  5
195F7
330
747D
100
AcDbEntity
  8
細線
100
AcDbLine
 10
4810.673057123665
 20
3838.525570836416
 30
0.0
 11
4810.673057123665
 21
3861.525570836416
 31
0.0
  0
LINE
  5
195F8
330
747D
100
AcDbEntity
  8
細線
100
AcDbLine
 10
4958.673057123665
 20
3861.525570836416
 30
0.0
 11
4958.673057123665
 21
3838.525570836416
 31
0.0
  0
LINE
  5
195F9
330
747D
100
AcDbEntity
  8
部品1
 48
0.01
100
AcDbLine
 10
4794.673057123668
 20
3834.525570836417
 30
0.0
 11
4794.673057123665
 21
3866.025570836415
 31
0.0
  0
LINE
  5
195FA
330
747D
100
AcDbEntity
  8
部品1
 48
0.01
100
AcDbLine
 10
4972.673057123665
 20
3832.525570836416
 30
0.0
 11
4796.673057123668
 21
3832.525570836416
 31
0.0
  0
LINE
  5
195FB
330
747D
100
AcDbEntity
  8
部品1
 48
0.01
100
AcDbLine
 10
4974.673057123665
 20
3866.025570836415
 30
0.0
 11
4974.673057123665
 21
3834.525570836417
 31
0.0
  0
LINE
  5
195FC
330
747D
100
AcDbEntity
  8
部品1
 48
0.01
100
AcDbLine
 10
4796.673057123665
 20
3868.025570836417
 30
0.0
 11
4972.673057123665
 21
3868.025570836417
 31
0.0
  0
LINE
  5
195FD
330
747D
100
AcDbEntity
  8
細線
100
AcDbLine
 10
4958.673057123665
 20
3855.525570836416
 30
0.0
 11
4884.673057123665
 21
3855.525570836416
 31
0.0
  0
LINE
  5
195FE
330
747D
100
AcDbEntity
  8
細線
100
AcDbLine
 10
4958.673057123665
 20
3849.525570836416
 30
0.0
 11
4884.673057123665
 21
3849.525570836416
 31
0.0
  0
LINE
  5
195FF
330
747D
100
AcDbEntity
  8
細線
100
AcDbLine
 10
4958.673057123668
 20
3843.525570836416
 30
0.0
 11
4884.673057123665
 21
3843.525570836416
 31
0.0
  0
LINE
  5
19600
330
747D
100
AcDbEntity
  8
細線
100
AcDbLine
 10
4958.673057123665
 20
3855.525570836416
 30
0.0
 11
4889.673057123665
 21
3855.525570836416
 31
0.0
  0
LINE
  5
19601
330
747D
100
AcDbEntity
  8
細線
100
AcDbLine
 10
4810.673057123668
 20
3855.525570836416
 30
0.0
 11
4884.673057123665
 21
3855.525570836416
 31
0.0
  0
LINE
  5
19602
330
747D
100
AcDbEntity
  8
細線
100
AcDbLine
 10
4810.673057123668
 20
3843.525570836416
 30
0.0
 11
4884.673057123665
 21
3843.525570836416
 31
0.0
  0
LINE
  5
19603
330
747D
100
AcDbEntity
  8
細線
100
AcDbLine
 10
4810.673057123668
 20
3849.525570836416
 30
0.0
 11
4884.673057123665
 21
3849.525570836416
 31
0.0
  0
LINE
  5
19604
330
747D
100
AcDbEntity
  8
細線
100
AcDbLine
 10
4884.673057123665
 20
3861.525570836416
 30
0.0
 11
4884.673057123668
 21
3838.525570836416
 31
0.0
  0
LINE
  5
19605
330
747D
100
AcDbEntity
  8
細線
100
AcDbLine
 10
3654.67305712367
 20
3861.525570836416
 30
0.0
 11
3654.673057123665
 21
3838.525570836416
 31
0.0
  0
LINE
  5
19606
330
747D
100
AcDbEntity
  8
細線
100
AcDbLine
 10
3728.673057123665
 20
3849.525570836416
 30
0.0
 11
3654.67305712367
 21
3849.525570836416
 31
0.0
  0
LINE
  5
19607
330
747D
100
AcDbEntity
  8
細線
100
AcDbLine
 10
3728.673057123665
 20
3843.525570836416
 30
0.0
 11
3654.67305712367
 21
3843.525570836416
 31
0.0
  0
LINE
  5
19608
330
747D
100
AcDbEntity
  8
細線
100
AcDbLine
 10
3728.673057123665
 20
3855.525570836416
 30
0.0
 11
3654.67305712367
 21
3855.525570836416
 31
0.0
  0
LINE
  5
19609
330
747D
100
AcDbEntity
  8
細線
100
AcDbLine
 10
3580.673057123668
 20
3855.525570836416
 30
0.0
 11
3649.673057123669
 21
3855.525570836416
 31
0.0
  0
LINE
  5
1960A
330
747D
100
AcDbEntity
  8
細線
100
AcDbLine
 10
3580.673057123666
 20
3843.525570836416
 30
0.0
 11
3654.67305712367
 21
3843.525570836416
 31
0.0
  0
LINE
  5
1960B
330
747D
100
AcDbEntity
  8
細線
100
AcDbLine
 10
3580.673057123668
 20
3849.525570836416
 30
0.0
 11
3654.67305712367
 21
3849.525570836416
 31
0.0
  0
LINE
  5
1960C
330
747D
100
AcDbEntity
  8
細線
100
AcDbLine
 10
3580.673057123668
 20
3855.525570836416
 30
0.0
 11
3654.67305712367
 21
3855.525570836416
 31
0.0
  0
LINE
  5
1960D
330
747D
100
AcDbEntity
  8
部品1
 48
0.01
100
AcDbLine
 10
3742.673057123669
 20
3868.025570836417
 30
0.0
 11
3566.673057123669
 21
3868.025570836417
 31
0.0
  0
LINE
  5
1960E
330
747D
100
AcDbEntity
  8
部品1
 48
0.01
100
AcDbLine
 10
3564.673057123669
 20
3866.025570836415
 30
0.0
 11
3564.673057123669
 21
3834.525570836417
 31
0.0
  0
LINE
  5
1960F
330
747D
100
AcDbEntity
  8
部品1
 48
0.01
100
AcDbLine
 10
3566.673057123669
 20
3832.525570836416
 30
0.0
 11
3742.673057123666
 21
3832.525570836416
 31
0.0
  0
LINE
  5
19610
330
747D
100
AcDbEntity
  8
部品1
 48
0.01
100
AcDbLine
 10
3744.673057123666
 20
3834.525570836417
 30
0.0
 11
3744.673057123669
 21
3866.025570836415
 31
0.0
  0
LINE
  5
19611
330
747D
100
AcDbEntity
  8
細線
100
AcDbLine
 10
3580.673057123668
 20
3861.525570836416
 30
0.0
 11
3580.673057123668
 21
3838.525570836416
 31
0.0
  0
LINE
  5
19612
330
747D
100
AcDbEntity
  8
細線
100
AcDbLine
 10
3728.673057123669
 20
3838.525570836416
 30
0.0
 11
3728.673057123669
 21
3861.525570836416
 31
0.0
  0
LINE
  5
19613
330
747D
100
AcDbEntity
  8
細線
100
AcDbLine
 10
3728.673057123669
 20
3861.525570836416
 30
0.0
 11
3654.67305712367
 21
3861.525570836416
 31
0.0
  0
LINE
  5
19614
330
747D
100
AcDbEntity
  8
細線
100
AcDbLine
 10
3580.673057123668
 20
3838.525570836416
 30
0.0
 11
3654.67305712367
 21
3838.525570836416
 31
0.0
  0
LINE
  5
19615
330
747D
100
AcDbEntity
  8
細線
100
AcDbLine
 10
3654.67305712367
 20
3861.525570836416
 30
0.0
 11
3580.673057123668
 21
3861.525570836416
 31
0.0
  0
LINE
  5
19616
330
747D
100
AcDbEntity
  8
細線
100
AcDbLine
 10
3654.673057123665
 20
3838.525570836416
 30
0.0
 11
3728.673057123669
 21
3838.525570836416
 31
0.0
  0
ARC
  5
19617
330
747D
100
AcDbEntity
  8
部品1
 48
0.01
100
AcDbCircle
 10
3566.673057123669
 20
3866.025570836415
 30
0.0
 40
2.0
100
AcDbArc
 50
90.0
 51
180.0
  0
ARC
  5
19618
330
747D
100
AcDbEntity
  8
部品1
 48
0.01
100
AcDbCircle
 10
3566.673057123669
 20
3834.525570836417
 30
0.0
 40
2.0
100
AcDbArc
 50
180.0
 51
270.0
  0
ARC
  5
19619
330
747D
100
AcDbEntity
  8
部品1
 48
0.01
100
AcDbCircle
 10
3742.673057123669
 20
3866.025570836415
 30
0.0
 40
2.0
100
AcDbArc
 50
0.0
 51
90.0
  0
ARC
  5
1961A
330
747D
100
AcDbEntity
  8
部品1
 48
0.01
100
AcDbCircle
 10
3742.673057123666
 20
3834.525570836417
 30
0.0
 40
2.0
100
AcDbArc
 50
270.0
 51
0.0
  0
ARC
  5
1961B
330
747D
100
AcDbEntity
  8
部品1
 48
0.01
100
AcDbCircle
 10
5952.673057123664
 20
3834.525570836417
 30
0.0
 40
2.0
100
AcDbArc
 50
270.0
 51
0.0
  0
ARC
  5
1961C
330
747D
100
AcDbEntity
  8
部品1
 48
0.01
100
AcDbCircle
 10
5952.673057123668
 20
3866.025570836415
 30
0.0
 40
2.0
100
AcDbArc
 50
0.0
 51
90.0
  0
ARC
  5
1961D
330
747D
100
AcDbEntity
  8
部品1
 48
0.01
100
AcDbCircle
 10
5776.673057123669
 20
3834.525570836417
 30
0.0
 40
2.0
100
AcDbArc
 50
180.0
 51
270.0
  0
ARC
  5
1961E
330
747D
100
AcDbEntity
  8
部品1
 48
0.01
100
AcDbCircle
 10
5776.673057123669
 20
3866.025570836415
 30
0.0
 40
2.0
100
AcDbArc
 50
90.0
 51
180.0
  0
LINE
  5
1961F
330
747D
100
AcDbEntity
  8
細線
100
AcDbLine
 10
5864.673057123665
 20
3838.525570836416
 30
0.0
 11
5938.673057123668
 21
3838.525570836416
 31
0.0
  0
LINE
  5
19620
330
747D
100
AcDbEntity
  8
細線
100
AcDbLine
 10
5864.67305712367
 20
3861.525570836416
 30
0.0
 11
5790.673057123669
 21
3861.525570836416
 31
0.0
  0
LINE
  5
19621
330
747D
100
AcDbEntity
  8
細線
100
AcDbLine
 10
5790.673057123669
 20
3838.525570836416
 30
0.0
 11
5864.67305712367
 21
3838.525570836416
 31
0.0
  0
LINE
  5
19622
330
747D
100
AcDbEntity
  8
細線
100
AcDbLine
 10
5938.673057123668
 20
3861.525570836416
 30
0.0
 11
5864.67305712367
 21
3861.525570836416
 31
0.0
  0
LINE
  5
19623
330
747D
100
AcDbEntity
  8
細線
100
AcDbLine
 10
5938.673057123668
 20
3838.525570836416
 30
0.0
 11
5938.673057123668
 21
3861.525570836416
 31
0.0
  0
LINE
  5
19624
330
747D
100
AcDbEntity
  8
細線
100
AcDbLine
 10
5790.673057123669
 20
3861.525570836416
 30
0.0
 11
5790.673057123669
 21
3838.525570836416
 31
0.0
  0
LINE
  5
19625
330
747D
100
AcDbEntity
  8
部品1
 48
0.01
100
AcDbLine
 10
5954.673057123665
 20
3834.525570836417
 30
0.0
 11
5954.673057123669
 21
3866.025570836415
 31
0.0
  0
LINE
  5
19626
330
747D
100
AcDbEntity
  8
部品1
 48
0.01
100
AcDbLine
 10
5776.673057123669
 20
3832.525570836416
 30
0.0
 11
5952.673057123664
 21
3832.525570836416
 31
0.0
  0
LINE
  5
19627
330
747D
100
AcDbEntity
  8
部品1
 48
0.01
100
AcDbLine
 10
5774.673057123671
 20
3866.025570836415
 30
0.0
 11
5774.673057123671
 21
3834.525570836417
 31
0.0
  0
LINE
  5
19628
330
747D
100
AcDbEntity
  8
部品1
 48
0.01
100
AcDbLine
 10
5952.673057123668
 20
3868.025570836417
 30
0.0
 11
5776.673057123669
 21
3868.025570836417
 31
0.0
  0
LINE
  5
19629
330
747D
100
AcDbEntity
  8
細線
100
AcDbLine
 10
5790.673057123669
 20
3855.525570836416
 30
0.0
 11
5864.67305712367
 21
3855.525570836416
 31
0.0
  0
LINE
  5
1962A
330
747D
100
AcDbEntity
  8
細線
100
AcDbLine
 10
5790.673057123669
 20
3849.525570836416
 30
0.0
 11
5864.67305712367
 21
3849.525570836416
 31
0.0
  0
LINE
  5
1962B
330
747D
100
AcDbEntity
  8
細線
100
AcDbLine
 10
5790.673057123665
 20
3843.525570836416
 30
0.0
 11
5864.67305712367
 21
3843.525570836416
 31
0.0
  0
LINE
  5
1962C
330
747D
100
AcDbEntity
  8
細線
100
AcDbLine
 10
5790.673057123669
 20
3855.525570836416
 30
0.0
 11
5859.673057123668
 21
3855.525570836416
 31
0.0
  0
LINE
  5
1962D
330
747D
100
AcDbEntity
  8
細線
100
AcDbLine
 10
5938.673057123665
 20
3855.525570836416
 30
0.0
 11
5864.67305712367
 21
3855.525570836416
 31
0.0
  0
LINE
  5
1962E
330
747D
100
AcDbEntity
  8
細線
100
AcDbLine
 10
5938.673057123665
 20
3843.525570836416
 30
0.0
 11
5864.67305712367
 21
3843.525570836416
 31
0.0
  0
LINE
  5
1962F
330
747D
100
AcDbEntity
  8
細線
100
AcDbLine
 10
5938.673057123665
 20
3849.525570836416
 30
0.0
 11
5864.67305712367
 21
3849.525570836416
 31
0.0
  0
LINE
  5
19630
330
747D
100
AcDbEntity
  8
細線
100
AcDbLine
 10
5864.67305712367
 20
3861.525570836416
 30
0.0
 11
5864.673057123665
 21
3838.525570836416
 31
0.0
  0
LINE
  5
19631
330
747D
100
AcDbEntity
  8
細線
100
AcDbLine
 10
7094.673057123666
 20
3861.525570836416
 30
0.0
 11
7094.673057123668
 21
3838.525570836416
 31
0.0
  0
LINE
  5
19632
330
747D
100
AcDbEntity
  8
細線
100
AcDbLine
 10
7020.673057123669
 20
3849.525570836416
 30
0.0
 11
7094.673057123666
 21
3849.525570836416
 31
0.0
  0
LINE
  5
19633
330
747D
100
AcDbEntity
  8
細線
100
AcDbLine
 10
7020.673057123669
 20
3843.525570836416
 30
0.0
 11
7094.673057123666
 21
3843.525570836416
 31
0.0
  0
LINE
  5
19634
330
747D
100
AcDbEntity
  8
細線
100
AcDbLine
 10
7020.673057123669
 20
3855.525570836416
 30
0.0
 11
7094.673057123666
 21
3855.525570836416
 31
0.0
  0
LINE
  5
19635
330
747D
100
AcDbEntity
  8
細線
100
AcDbLine
 10
7168.673057123665
 20
3855.525570836416
 30
0.0
 11
7099.673057123665
 21
3855.525570836416
 31
0.0
  0
LINE
  5
19636
330
747D
100
AcDbEntity
  8
細線
100
AcDbLine
 10
7168.673057123668
 20
3843.525570836416
 30
0.0
 11
7094.673057123666
 21
3843.525570836416
 31
0.0
  0
LINE
  5
19637
330
747D
100
AcDbEntity
  8
細線
100
AcDbLine
 10
7168.673057123665
 20
3849.525570836416
 30
0.0
 11
7094.673057123666
 21
3849.525570836416
 31
0.0
  0
LINE
  5
19638
330
747D
100
AcDbEntity
  8
細線
100
AcDbLine
 10
7168.673057123665
 20
3855.525570836416
 30
0.0
 11
7094.673057123666
 21
3855.525570836416
 31
0.0
  0
LINE
  5
19639
330
747D
100
AcDbEntity
  8
部品1
 48
0.01
100
AcDbLine
 10
7006.673057123665
 20
3868.025570836417
 30
0.0
 11
7182.673057123665
 21
3868.025570836417
 31
0.0
  0
LINE
  5
1963A
330
747D
100
AcDbEntity
  8
部品1
 48
0.01
100
AcDbLine
 10
7184.673057123664
 20
3866.025570836415
 30
0.0
 11
7184.673057123664
 21
3834.525570836417
 31
0.0
  0
LINE
  5
1963B
330
747D
100
AcDbEntity
  8
部品1
 48
0.01
100
AcDbLine
 10
7182.673057123665
 20
3832.525570836416
 30
0.0
 11
7006.673057123669
 21
3832.525570836416
 31
0.0
  0
LINE
  5
1963C
330
747D
100
AcDbEntity
  8
部品1
 48
0.01
100
AcDbLine
 10
7004.673057123669
 20
3834.525570836417
 30
0.0
 11
7004.673057123665
 21
3866.025570836415
 31
0.0
  0
LINE
  5
1963D
330
747D
100
AcDbEntity
  8
細線
100
AcDbLine
 10
7168.673057123665
 20
3861.525570836416
 30
0.0
 11
7168.673057123665
 21
3838.525570836416
 31
0.0
  0
LINE
  5
1963E
330
747D
100
AcDbEntity
  8
細線
100
AcDbLine
 10
7020.673057123665
 20
3838.525570836416
 30
0.0
 11
7020.673057123665
 21
3861.525570836416
 31
0.0
  0
LINE
  5
1963F
330
747D
100
AcDbEntity
  8
細線
100
AcDbLine
 10
7020.673057123665
 20
3861.525570836416
 30
0.0
 11
7094.673057123666
 21
3861.525570836416
 31
0.0
  0
LINE
  5
19640
330
747D
100
AcDbEntity
  8
細線
100
AcDbLine
 10
7168.673057123665
 20
3838.525570836416
 30
0.0
 11
7094.673057123666
 21
3838.525570836416
 31
0.0
  0
LINE
  5
19641
330
747D
100
AcDbEntity
  8
細線
100
AcDbLine
 10
7094.673057123666
 20
3861.525570836416
 30
0.0
 11
7168.673057123665
 21
3861.525570836416
 31
0.0
  0
LINE
  5
19642
330
747D
100
AcDbEntity
  8
細線
100
AcDbLine
 10
7094.673057123668
 20
3838.525570836416
 30
0.0
 11
7020.673057123665
 21
3838.525570836416
 31
0.0
  0
ARC
  5
19643
330
747D
100
AcDbEntity
  8
部品1
 48
0.01
100
AcDbCircle
 10
7182.673057123665
 20
3866.025570836415
 30
0.0
 40
2.0
100
AcDbArc
 50
0.0
 51
90.0
  0
ARC
  5
19644
330
747D
100
AcDbEntity
  8
部品1
 48
0.01
100
AcDbCircle
 10
7182.673057123665
 20
3834.525570836417
 30
0.0
 40
2.0
100
AcDbArc
 50
270.0
 51
0.0
  0
ARC
  5
19645
330
747D
100
AcDbEntity
  8
部品1
 48
0.01
100
AcDbCircle
 10
7006.673057123665
 20
3866.025570836415
 30
0.0
 40
2.0
100
AcDbArc
 50
90.0
 51
180.0
  0
ARC
  5
19646
330
747D
100
AcDbEntity
  8
部品1
 48
0.01
100
AcDbCircle
 10
7006.673057123669
 20
3834.525570836417
 30
0.0
 40
2.0
100
AcDbArc
 50
180.0
 51
270.0
  0
LINE
  5
19A99
330
747D
100
AcDbEntity
  8
部品1
100
AcDbLine
 10
10170.22148434442
 20
1962.025570836416
 30
0.0
 11
9777.224270135572
 21
1862.025570836416
 31
0.0
  0
LINE
  5
19A9A
330
747D
100
AcDbEntity
  8
破線
 48
5.0
100
AcDbLine
 10
10170.22148434442
 20
1612.025570836416
 30
0.0
 11
10225.22148434441
 21
1612.025570836416
 31
0.0
  0
LINE
  5
19A9B
330
747D
100
AcDbEntity
  8
破線
 48
5.0
100
AcDbLine
 10
10225.22148434442
 20
1862.025570836416
 30
0.0
 11
10225.22148434442
 21
1612.025570836416
 31
0.0
  0
LINE
  5
19A9C
330
747D
100
AcDbEntity
  8
破線
 48
5.0
100
AcDbLine
 10
10170.22148434442
 20
1862.025570836416
 30
0.0
 11
10170.22148434442
 21
1612.025570836416
 31
0.0
  0
DIMENSION
  5
19AA1
330
747D
100
AcDbEntity
  8
寸法
100
AcDbDimension
  2
*D26
 10
9326.471355161157
 20
2012.025570836412
 30
0.0
 11
9226.471355161157
 21
2907.025570836415
 31
0.0
 70
    32
 71
     5
 42
1790.000000000001
  3
INABA_S40G
100
AcDbAlignedDimension
 13
10170.22148434441
 23
3802.025570836413
 33
0.0
 14
10170.22148434441
 24
2012.025570836412
 34
0.0
 50
90.0
100
AcDbRotatedDimension
1001
ACAD
1000
DSTYLE
1002
{
1070
   174
1070
     0
1070
   272
1070
     1
1070
   288
1070
     0
1070
   341
1005
0
1002
}
  0
DIMENSION
  5
19AA2
330
747D
100
AcDbEntity
  8
寸法
100
AcDbDimension
  2
*D27
 10
9026.471355161154
 20
4037.025570836416
 30
0.0
 11
8926.459544137532
 21
2999.525570836416
 31
0.0
 70
    32
 71
     5
 42
2075.000000000004
  3
INABA_S40G
100
AcDbAlignedDimension
 13
10170.22148434441
 23
1962.025570836412
 33
0.0
 14
10110.22148434441
 24
4037.025570836415
 34
0.0
 50
90.0
100
AcDbRotatedDimension
1001
ACAD
1000
DSTYLE
1002
{
1070
   174
1070
     0
1070
   272
1070
     1
1070
   288
1070
     0
1070
   341
1005
0
1002
}
  0
DIMENSION
  5
19AA3
330
747D
100
AcDbEntity
  8
寸法
100
AcDbDimension
  2
*D28
 10
14345.14864231654
 20
3982.025570836418
 30
0.0
 11
14245.13683129292
 21
2972.02557083642
 31
0.0
 70
    32
 71
     5
 42
2020.0
  3
INABA_S40G
100
AcDbAlignedDimension
 13
13640.22148434441
 23
1962.025570836418
 33
0.0
 14
13720.22148434441
 24
3982.025570836418
 34
0.0
 50
90.0
100
AcDbRotatedDimension
1001
ACAD
1000
DSTYLE
1002
{
1070
   174
1070
     0
1070
   272
1070
     1
1070
   288
1070
     0
1070
   341
1005
0
1002
}
  0
LINE
  5
19AA4
330
747D
100
AcDbEntity
  8
細線
 48
50.0
100
AcDbLine
 10
12247.72148434441
 20
3802.025570836416
 30
0.0
 11
12247.72148434441
 21
2012.025570836418
 31
0.0
  0
LINE
  5
19AA5
330
747D
100
AcDbEntity
  8
細線
 48
50.0
100
AcDbLine
 10
12262.72148434441
 20
3802.025570836416
 30
0.0
 11
12262.72148434441
 21
2012.025570836418
 31
0.0
  0
LINE
  5
19AA6
330
747D
100
AcDbEntity
  8
細線
 48
50.0
100
AcDbLine
 10
12122.72148434441
 20
3802.025570836416
 30
0.0
 11
12122.72148434441
 21
2012.025570836418
 31
0.0
  0
LINE
  5
19AA7
330
747D
100
AcDbEntity
  8
細線
 48
50.0
100
AcDbLine
 10
12107.72148434441
 20
3802.025570836416
 30
0.0
 11
12107.72148434441
 21
2012.025570836418
 31
0.0
  0
LINE
  5
19AA8
330
747D
100
AcDbEntity
  8
細線
 48
50.0
100
AcDbLine
 10
11967.72148434441
 20
3802.025570836416
 30
0.0
 11
11967.72148434441
 21
2012.025570836418
 31
0.0
  0
LINE
  5
19AA9
330
747D
100
AcDbEntity
  8
細線
 48
50.0
100
AcDbLine
 10
11982.72148434441
 20
3802.025570836416
 30
0.0
 11
11982.72148434441
 21
2012.025570836418
 31
0.0
  0
LINE
  5
19AAA
330
747D
100
AcDbEntity
  8
部品1
100
AcDbLine
 10
11905.22148434441
 20
3802.025570836416
 30
0.0
 11
11905.22148434441
 21
2012.025570836418
 31
0.0
  0
LINE
  5
19AAB
330
747D
100
AcDbEntity
  8
部品1
100
AcDbLine
 10
11739.76647070138
 20
4162.229958799435
 30
0.0
 11
12065.22148434441
 21
4144.711899840575
 31
0.0
  0
ARC
  5
19AAC
330
747D
100
AcDbEntity
  8
部品1
100
AcDbCircle
 10
13705.84902015835
 20
3876.04932810221
 30
0.0
 40
0.7
100
AcDbArc
 50
275.0921697642102
 51
354.186699766712
  0
ARC
  5
19AAD
330
747D
100
AcDbEntity
  8
部品1
100
AcDbCircle
 10
13716.70836590768
 20
3953.092582920135
 30
0.0
 40
0.7
100
AcDbArc
 50
275.0921697642102
 51
354.186699766571
  0
ARC
  5
19AAE
330
747D
100
AcDbEntity
  8
部品1
100
AcDbCircle
 10
13717.03677115028
 20
3949.407186063042
 30
0.0
 40
3.0
100
AcDbArc
 50
95.0921697642102
 51
174.186699766571
  0
ARC
  5
19AAF
330
747D
100
AcDbEntity
  8
部品1
100
AcDbCircle
 10
13706.17742540095
 20
3872.363931245119
 30
0.0
 40
3.0
100
AcDbArc
 50
95.0921697642102
 51
174.186699766571
  0
ARC
  5
19AB0
330
747D
100
AcDbEntity
  8
部品1
 48
50.0
100
AcDbCircle
 10
13695.14929012585
 20
3862.773186641238
 30
0.0
 40
7.0
100
AcDbArc
 50
267.8377559869488
 51
354.186699766571
  0
ARC
  5
19AB1
330
747D
100
AcDbEntity
  8
部品1
 48
50.0
100
AcDbCircle
 10
13712.47138659037
 20
3973.675733783409
 30
0.0
 40
7.0
100
AcDbArc
 50
354.186699766571
 51
87.03587545283102
  0
LINE
  5
19AB2
330
747D
100
AcDbEntity
  8
部品1
 48
50.0
100
AcDbLine
 10
13703.19285373034
 20
3872.667792962023
 30
0.0
 11
13702.1132906906
 21
3862.064175968463
 31
0.0
  0
LINE
  5
19AB3
330
747D
100
AcDbEntity
  8
部品1
 48
50.0
100
AcDbLine
 10
13714.05219947966
 20
3949.711047779948
 30
0.0
 11
13706.54542021483
 21
3875.978427034933
 31
0.0
  0
LINE
  5
19AB4
330
747D
100
AcDbEntity
  8
部品1
 48
50.0
100
AcDbLine
 10
13719.43538715512
 20
3972.966723110636
 30
0.0
 11
13717.40476596415
 21
3953.021681852857
 31
0.0
  0
ARC
  5
19AB5
330
747D
100
AcDbEntity
  8
部品1
100
AcDbCircle
 10
10116.25857621578
 20
3915.839729795322
 30
0.0
 40
0.7
100
AcDbArc
 50
181.0932240292635
 51
260.1877540314855
  0
ARC
  5
19AB6
330
747D
100
AcDbEntity
  8
部品1
100
AcDbCircle
 10
10111.48590261817
 20
4008.705507995443
 30
0.0
 40
0.7
100
AcDbArc
 50
181.0932240292114
 51
260.1877540314855
  0
ARC
  5
19AB7
330
747D
100
AcDbEntity
  8
部品1
100
AcDbCircle
 10
10110.85534821515
 20
4005.059633458041
 30
0.0
 40
3.0
100
AcDbArc
 50
1.093224029315636
 51
80.18775403169739
  0
ARC
  5
19AB8
330
747D
100
AcDbEntity
  8
部品1
100
AcDbCircle
 10
10115.62802181275
 20
3912.193855257923
 30
0.0
 40
3.0
100
AcDbArc
 50
1.093224029315636
 51
80.18775403169739
  0
ARC
  5
19AB9
330
747D
100
AcDbEntity
  8
部品1
 48
50.0
100
AcDbCircle
 10
10125.82815418795
 20
3901.801611875443
 30
0.0
 40
7.0
100
AcDbArc
 50
181.0932240293156
 51
267.8377559869488
  0
ARC
  5
19ABA
330
747D
100
AcDbEntity
  8
部品1
 48
50.0
100
AcDbCircle
 10
10117.40449608586
 20
4028.752671408535
 30
0.0
 40
7.0
100
AcDbArc
 50
87.03587545283102
 51
181.0932240293156
  0
LINE
  5
19ABB
330
747D
100
AcDbEntity
  8
部品1
 48
50.0
100
AcDbLine
 10
10118.62747573918
 20
3912.251092861107
 30
0.0
 11
10118.82942835961
 21
3901.668057468015
 31
0.0
  0
LINE
  5
19ABC
330
747D
100
AcDbEntity
  8
細線
 48
50.0
100
AcDbLine
 10
10116.02138268251
 20
3915.181140979916
 30
0.0
 11
13706.02504711315
 21
3875.371822005422
 31
0.0
  0
LINE
  5
19ABD
330
747D
100
AcDbEntity
  8
細線
 48
50.0
100
AcDbLine
 10
10111.26090744523
 20
4008.042652677778
 30
0.0
 11
13716.8968921904
 21
3952.418448036951
 31
0.0
  0
LINE
  5
19ABE
330
747D
100
AcDbEntity
  8
部品1
 48
50.0
100
AcDbLine
 10
10113.85480214158
 20
4005.116871061225
 30
0.0
 11
10115.55870363294
 21
3915.82637435458
 31
0.0
  0
LINE
  5
19ABF
330
747D
100
AcDbEntity
  8
部品1
 48
50.0
100
AcDbLine
 10
10110.40577025752
 20
4028.619117001109
 30
0.0
 11
10110.78603003533
 21
4008.692152554697
 31
0.0
  0
LINE
  5
19AC0
330
747D
100
AcDbEntity
  8
細線
 48
50.0
100
AcDbLine
 10
13687.1907675381
 20
3981.178993315887
 30
0.0
 11
13682.47380145642
 21
3856.246777380969
 31
0.0
  0
LINE
  5
19AC1
330
747D
100
AcDbEntity
  8
細線
 48
50.0
100
AcDbLine
 10
10143.22148434441
 20
4034.425247211821
 30
0.0
 11
10137.93238278891
 21
3894.339614584467
 31
0.0
  0
LINE
  5
19AC2
330
747D
100
AcDbEntity
  8
部品1
100
AcDbLine
 10
10125.56404894636
 20
3894.806595905384
 30
0.0
 11
13694.88518488426
 21
3855.778170671179
 31
0.0
  0
LINE
  5
19AC3
330
747D
100
AcDbEntity
  8
部品1
100
AcDbLine
 10
10117.76647070137
 20
4035.743306170682
 30
0.0
 11
13712.83336120588
 21
3980.666368545556
 31
0.0
  0
LINE
  5
19AC4
330
747D
100
AcDbEntity
  8
部品1
 48
50.0
100
AcDbLine
 10
11765.22148434441
 20
4160.911899840572
 30
0.0
 11
12065.22148434441
 21
4160.911899840572
 31
0.0
  0
LINE
  5
19AC5
330
747D
100
AcDbEntity
  8
部品1
 48
50.0
100
AcDbLine
 10
12065.22148434441
 20
4160.911899840572
 30
0.0
 11
12065.22148434441
 21
4144.711899840575
 31
0.0
  0
TEXT
  5
19AC6
330
747D
100
AcDbEntity
  8
部品1
 48
50.0
100
AcDbText
 10
11753.48931956814
 20
4196.795921993004
 30
0.0
 40
120.0
  1
1000
  7
STYLE1
100
AcDbText
  0
TEXT
  5
19AC7
330
747D
100
AcDbEntity
  8
部品1
 48
50.0
100
AcDbText
 10
12231.12234223323
 20
4059.294663774722
 30
0.0
 40
120.0
  1
28
 50
90.0
  7
STYLE1
100
AcDbText
  0
LINE
  5
19AC8
330
747D
100
AcDbEntity
  8
細線
 48
50.0
100
AcDbLine
 10
11562.72148434441
 20
3802.025570836416
 30
0.0
 11
11562.72148434441
 21
2012.025570836417
 31
0.0
  0
LINE
  5
19AC9
330
747D
100
AcDbEntity
  8
細線
 48
50.0
100
AcDbLine
 10
11547.72148434441
 20
3802.025570836416
 30
0.0
 11
11547.72148434441
 21
2012.025570836417
 31
0.0
  0
LINE
  5
19ACA
330
747D
100
AcDbEntity
  8
細線
 48
50.0
100
AcDbLine
 10
11687.72148434441
 20
3802.025570836416
 30
0.0
 11
11687.72148434441
 21
2012.025570836417
 31
0.0
  0
LINE
  5
19ACB
330
747D
100
AcDbEntity
  8
細線
 48
50.0
100
AcDbLine
 10
11702.72148434441
 20
3802.025570836416
 30
0.0
 11
11702.72148434441
 21
2012.025570836417
 31
0.0
  0
LINE
  5
19ACC
330
747D
100
AcDbEntity
  8
細線
 48
50.0
100
AcDbLine
 10
11842.72148434441
 20
3802.025570836416
 30
0.0
 11
11842.72148434441
 21
2012.025570836417
 31
0.0
  0
LINE
  5
19ACD
330
747D
100
AcDbEntity
  8
細線
 48
50.0
100
AcDbLine
 10
11827.72148434441
 20
3802.025570836416
 30
0.0
 11
11827.72148434441
 21
2012.025570836417
 31
0.0
  0
LINE
  5
19ACE
330
747D
100
AcDbEntity
  8
部品1
100
AcDbLine
 10
13585.2214843444
 20
3802.02557083642
 30
0.0
 11
13585.2214843444
 21
2012.02557083642
 31
0.0
  0
LINE
  5
19ACF
330
747D
100
AcDbEntity
  8
部品1
100
AcDbLine
 10
10170.22148434441
 20
3802.025570836416
 30
0.0
 11
13640.22148434441
 21
3802.025570836416
 31
0.0
  0
LINE
  5
19AD0
330
747D
100
AcDbEntity
  8
部品1
100
AcDbLine
 10
10225.22148434442
 20
2012.025570836417
 30
0.0
 11
13640.22148434441
 21
2012.025570836418
 31
0.0
  0
LINE
  5
19AD1
330
747D
100
AcDbEntity
  8
部品1
100
AcDbLine
 10
10225.22148434441
 20
3802.025570836416
 30
0.0
 11
10225.22148434442
 21
1862.025570836416
 31
0.0
  0
LINE
  5
19AD2
330
747D
100
AcDbEntity
  8
部品1
100
AcDbLine
 10
10170.22148434441
 20
3894.168008765295
 30
0.0
 11
10170.22148434441
 21
1862.025570836416
 31
0.0
  0
DIMENSION
  5
19AD3
330
747D
100
AcDbEntity
  8
寸法
100
AcDbDimension
  2
*D29
 10
9326.471355161157
 20
1962.025570836417
 30
0.0
 11
9326.471355161157
 21
1655.978326741926
 31
0.0
 70
   160
 71
     5
 42
50.0
  3
INABA_S40G
100
AcDbAlignedDimension
 13
10170.22148434441
 23
2012.025570836417
 33
0.0
 14
10115.22148434441
 24
1962.025570836416
 34
0.0
 50
90.0
100
AcDbRotatedDimension
1001
ACAD
1000
DSTYLE
1002
{
1070
   174
1070
     0
1070
   272
1070
     1
1070
   288
1070
     0
1070
   341
1005
0
1002
}
  0
LINE
  5
19AD4
330
747D
100
AcDbEntity
  8
部品1
100
AcDbLine
 10
10645.22148434441
 20
3802.025570836416
 30
0.0
 11
10645.22148434441
 21
2012.025570836417
 31
0.0
  0
LINE
  5
19AD5
330
747D
100
AcDbEntity
  8
部品1
100
AcDbLine
 10
13640.22148434441
 20
3856.455598617536
 30
0.0
 11
13640.22148434441
 21
1862.025570836418
 31
0.0
  0
LINE
  5
19AD6
330
747D
100
AcDbEntity
  8
部品1
100
AcDbLine
 10
13585.22148434441
 20
3802.025570836418
 30
0.0
 11
13585.22148434441
 21
2012.025570836418
 31
0.0
  0
DIMENSION
  5
19AD7
330
747D
100
AcDbEntity
  8
寸法
 48
50.0
100
AcDbDimension
  2
*D30
 10
10170.22148434441
 20
4435.683024415723
 30
0.0
 11
11905.22148434441
 21
4435.683024415723
 31
0.0
 70
   160
  1
柱外寸法<>
 71
     5
 42
3470.0
  3
INABA_S40G
100
AcDbAlignedDimension
 13
13640.22148434441
 23
3983.836250448072
 33
0.0
 14
10170.22148434441
 24
4033.027188959391
 34
0.0
100
AcDbRotatedDimension
1001
ACAD
1000
DSTYLE
1002
{
1070
   174
1070
     0
1070
   272
1070
     1
1070
   288
1070
     0
1070
   341
1005
0
1002
}
  0
DIMENSION
  5
19AD8
330
747D
100
AcDbEntity
  8
寸法
 48
50.0
100
AcDbDimension
  2
*D31
 10
10110.22148434441
 20
4435.68302441572
 30
0.0
 11
9800.583689068819
 21
4435.68302441572
 31
0.0
 70
   160
 71
     5
 42
60.0
  3
INABA_S40G
100
AcDbAlignedDimension
 13
10170.22148434441
 23
4033.027188959391
 33
0.0
 14
10110.22148434441
 24
4037.02557083642
 34
0.0
100
AcDbRotatedDimension
1001
ACAD
1000
DSTYLE
1002
{
1070
   174
1070
     0
1070
   272
1070
     1
1070
   288
1070
     0
1070
   341
1005
0
1002
}
  0
DIMENSION
  5
19AD9
330
747D
100
AcDbEntity
  8
寸法
 48
50.0
100
AcDbDimension
  2
*D32
 10
10110.22148434441
 20
4665.796617201999
 30
0.0
 11
11915.22148434441
 21
4665.796617201999
 31
0.0
 70
   160
 71
     5
 42
3610.0
  3
INABA_S40G
100
AcDbAlignedDimension
 13
13720.22148434441
 23
3982.025570836418
 33
0.0
 14
10110.22148434441
 24
4037.02557083642
 34
0.0
100
AcDbRotatedDimension
1001
ACAD
1000
DSTYLE
1002
{
1070
   174
1070
     0
1070
   272
1070
     1
1070
   288
1070
     0
1070
   341
1005
0
1002
}
  0
LINE
  5
19ADA
330
747D
100
AcDbEntity
  8
部品1
100
AcDbLine
 10
10225.22148434442
 20
1962.025570836416
 30
0.0
 11
13640.22148434441
 21
1962.025570836416
 31
0.0
  0
LINE
  5
19ADB
330
747D
100
AcDbEntity
  8
細線
 48
50.0
100
AcDbLine
 10
10722.72148434441
 20
3802.025570836416
 30
0.0
 11
10722.72148434441
 21
2012.025570836417
 31
0.0
  0
LINE
  5
19ADC
330
747D
100
AcDbEntity
  8
細線
 48
50.0
100
AcDbLine
 10
10707.72148434441
 20
3802.025570836416
 30
0.0
 11
10707.72148434441
 21
2012.025570836417
 31
0.0
  0
LINE
  5
19ADD
330
747D
100
AcDbEntity
  8
細線
 48
50.0
100
AcDbLine
 10
10847.72148434441
 20
3802.025570836416
 30
0.0
 11
10847.72148434441
 21
2012.025570836417
 31
0.0
  0
LINE
  5
19ADE
330
747D
100
AcDbEntity
  8
細線
 48
50.0
100
AcDbLine
 10
10862.72148434441
 20
3802.025570836416
 30
0.0
 11
10862.72148434441
 21
2012.025570836417
 31
0.0
  0
LINE
  5
19ADF
330
747D
100
AcDbEntity
  8
細線
 48
50.0
100
AcDbLine
 10
11002.72148434441
 20
3802.025570836416
 30
0.0
 11
11002.72148434441
 21
2012.025570836417
 31
0.0
  0
LINE
  5
19AE0
330
747D
100
AcDbEntity
  8
細線
 48
50.0
100
AcDbLine
 10
10987.72148434441
 20
3802.025570836416
 30
0.0
 11
10987.72148434441
 21
2012.025570836417
 31
0.0
  0
LINE
  5
19AE1
330
747D
100
AcDbEntity
  8
細線
 48
50.0
100
AcDbLine
 10
10567.72148434441
 20
3802.025570836416
 30
0.0
 11
10567.72148434441
 21
2012.025570836417
 31
0.0
  0
LINE
  5
19AE2
330
747D
100
AcDbEntity
  8
細線
 48
50.0
100
AcDbLine
 10
10582.72148434441
 20
3802.025570836416
 30
0.0
 11
10582.72148434441
 21
2012.025570836417
 31
0.0
  0
LINE
  5
19AE3
330
747D
100
AcDbEntity
  8
細線
 48
50.0
100
AcDbLine
 10
10442.72148434441
 20
3802.025570836416
 30
0.0
 11
10442.72148434441
 21
2012.025570836417
 31
0.0
  0
LINE
  5
19AE4
330
747D
100
AcDbEntity
  8
細線
 48
50.0
100
AcDbLine
 10
10427.72148434441
 20
3802.025570836416
 30
0.0
 11
10427.72148434441
 21
2012.025570836417
 31
0.0
  0
LINE
  5
19AE5
330
747D
100
AcDbEntity
  8
細線
 48
50.0
100
AcDbLine
 10
10287.72148434441
 20
3802.025570836416
 30
0.0
 11
10287.72148434441
 21
2012.025570836417
 31
0.0
  0
LINE
  5
19AE6
330
747D
100
AcDbEntity
  8
細線
 48
50.0
100
AcDbLine
 10
10302.72148434441
 20
3802.025570836416
 30
0.0
 11
10302.72148434441
 21
2012.025570836417
 31
0.0
  0
DIMENSION
  5
19AE7
330
747D
100
AcDbEntity
  8
寸法
 48
50.0
100
AcDbDimension
  2
*D33
 10
13720.22148434441
 20
4435.683024415723
 30
0.0
 11
13926.2687284389
 21
4435.683024415723
 31
0.0
 70
   160
 71
     5
 42
80.0
  3
INABA_S40G
100
AcDbAlignedDimension
 13
13640.22148434441
 23
3983.836250448072
 33
0.0
 14
13720.22148434441
 24
3982.02557083642
 34
0.0
100
AcDbRotatedDimension
1001
ACAD
1000
DSTYLE
1002
{
1070
   174
1070
     0
1070
   272
1070
     1
1070
   288
1070
     0
1070
   341
1005
0
1002
}
  0
LINE
  5
19AE8
330
747D
100
AcDbEntity
  8
部品1
100
AcDbLine
 10
11065.22148434441
 20
3802.025570836416
 30
0.0
 11
11065.22148434441
 21
2012.025570836417
 31
0.0
  0
LINE
  5
19AE9
330
747D
100
AcDbEntity
  8
細線
 48
50.0
100
AcDbLine
 10
11407.72148434441
 20
3802.025570836416
 30
0.0
 11
11407.72148434442
 21
2012.025570836417
 31
0.0
  0
LINE
  5
19AEA
330
747D
100
AcDbEntity
  8
細線
 48
50.0
100
AcDbLine
 10
11422.72148434441
 20
3802.025570836416
 30
0.0
 11
11422.72148434442
 21
2012.025570836417
 31
0.0
  0
LINE
  5
19AEB
330
747D
100
AcDbEntity
  8
細線
 48
50.0
100
AcDbLine
 10
11282.72148434441
 20
3802.025570836416
 30
0.0
 11
11282.72148434442
 21
2012.025570836417
 31
0.0
  0
LINE
  5
19AEC
330
747D
100
AcDbEntity
  8
細線
 48
50.0
100
AcDbLine
 10
11267.72148434441
 20
3802.025570836416
 30
0.0
 11
11267.72148434442
 21
2012.025570836417
 31
0.0
  0
LINE
  5
19AED
330
747D
100
AcDbEntity
  8
細線
 48
50.0
100
AcDbLine
 10
11127.72148434441
 20
3802.025570836416
 30
0.0
 11
11127.72148434442
 21
2012.025570836417
 31
0.0
  0
LINE
  5
19AEE
330
747D
100
AcDbEntity
  8
細線
 48
50.0
100
AcDbLine
 10
11142.72148434441
 20
3802.025570836416
 30
0.0
 11
11142.72148434442
 21
2012.025570836417
 31
0.0
  0
LINE
  5
19AEF
330
747D
100
AcDbEntity
  8
部品1
100
AcDbLine
 10
11485.22148434441
 20
3802.025570836416
 30
0.0
 11
11485.22148434441
 21
2012.025570836417
 31
0.0
  0
LINE
  5
19AF0
330
747D
100
AcDbEntity
  8
細線
 48
50.0
100
AcDbLine
 10
12822.72148434441
 20
3802.025570836418
 30
0.0
 11
12822.72148434441
 21
2012.025570836418
 31
0.0
  0
LINE
  5
19AF1
330
747D
100
AcDbEntity
  8
細線
 48
50.0
100
AcDbLine
 10
12807.72148434441
 20
3802.025570836418
 30
0.0
 11
12807.72148434441
 21
2012.025570836418
 31
0.0
  0
LINE
  5
19AF2
330
747D
100
AcDbEntity
  8
細線
 48
50.0
100
AcDbLine
 10
12947.72148434441
 20
3802.025570836418
 30
0.0
 11
12947.72148434441
 21
2012.025570836418
 31
0.0
  0
LINE
  5
19AF3
330
747D
100
AcDbEntity
  8
細線
 48
50.0
100
AcDbLine
 10
12962.72148434441
 20
3802.025570836418
 30
0.0
 11
12962.72148434441
 21
2012.025570836418
 31
0.0
  0
LINE
  5
19AF4
330
747D
100
AcDbEntity
  8
細線
 48
50.0
100
AcDbLine
 10
13102.72148434441
 20
3802.025570836418
 30
0.0
 11
13102.72148434441
 21
2012.025570836418
 31
0.0
  0
LINE
  5
19AF5
330
747D
100
AcDbEntity
  8
細線
 48
50.0
100
AcDbLine
 10
13087.72148434441
 20
3802.025570836418
 30
0.0
 11
13087.72148434441
 21
2012.025570836418
 31
0.0
  0
DIMENSION
  5
19AF6
330
747D
100
AcDbEntity
  8
寸法
 48
50.0
100
AcDbDimension
  2
*D34
 10
9549.613077576029
 20
3911.370829709763
 30
0.0
 11
9560.278552834965
 21
4282.21749295146
 31
0.0
 70
   161
 71
     5
 42
141.0
  3
INABA_S40G
100
AcDbAlignedDimension
 13
10129.61750450299
 23
4035.748319671096
 33
0.0
 14
10125.56404894636
 24
3894.806595905384
 34
0.0
1001
ACAD
1000
DSTYLE
1002
{
1070
   174
1070
     0
1070
   272
1070
     1
1070
   288
1070
     0
1070
   341
1005
0
1002
}
  0
LINE
  5
19AF7
330
747D
100
AcDbEntity
  8
部品1
100
AcDbLine
 10
12325.22148434441
 20
3802.025570836416
 30
0.0
 11
12325.22148434441
 21
2012.025570836418
 31
0.0
  0
LINE
  5
19AF8
330
747D
100
AcDbEntity
  8
細線
 48
50.0
100
AcDbLine
 10
12402.72148434441
 20
3802.025570836416
 30
0.0
 11
12402.72148434441
 21
2012.025570836418
 31
0.0
  0
LINE
  5
19AF9
330
747D
100
AcDbEntity
  8
細線
 48
50.0
100
AcDbLine
 10
12387.72148434441
 20
3802.025570836416
 30
0.0
 11
12387.72148434441
 21
2012.025570836418
 31
0.0
  0
LINE
  5
19AFA
330
747D
100
AcDbEntity
  8
細線
 48
50.0
100
AcDbLine
 10
12527.72148434441
 20
3802.025570836416
 30
0.0
 11
12527.72148434441
 21
2012.025570836418
 31
0.0
  0
LINE
  5
19AFB
330
747D
100
AcDbEntity
  8
細線
 48
50.0
100
AcDbLine
 10
12542.72148434441
 20
3802.025570836416
 30
0.0
 11
12542.72148434441
 21
2012.025570836418
 31
0.0
  0
LINE
  5
19AFC
330
747D
100
AcDbEntity
  8
細線
 48
50.0
100
AcDbLine
 10
12682.72148434441
 20
3802.025570836416
 30
0.0
 11
12682.72148434441
 21
2012.025570836418
 31
0.0
  0
LINE
  5
19AFD
330
747D
100
AcDbEntity
  8
細線
 48
50.0
100
AcDbLine
 10
12667.72148434441
 20
3802.025570836416
 30
0.0
 11
12667.72148434441
 21
2012.025570836418
 31
0.0
  0
LINE
  5
19AFE
330
747D
100
AcDbEntity
  8
部品1
100
AcDbLine
 10
12745.2214843444
 20
3802.025570836418
 30
0.0
 11
12745.2214843444
 21
2012.02557083642
 31
0.0
  0
LINE
  5
19AFF
330
747D
100
AcDbEntity
  8
部品1
100
AcDbLine
 10
13165.22148434439
 20
3802.025570836418
 30
0.0
 11
13165.22148434439
 21
2012.02557083642
 31
0.0
  0
LINE
  5
19B00
330
747D
100
AcDbEntity
  8
細線
 48
50.0
100
AcDbLine
 10
13507.72148434443
 20
3802.02557083642
 30
0.0
 11
13507.72148434443
 21
2012.02557083642
 31
0.0
  0
LINE
  5
19B01
330
747D
100
AcDbEntity
  8
細線
 48
50.0
100
AcDbLine
 10
13522.72148434443
 20
3802.02557083642
 30
0.0
 11
13522.72148434443
 21
2012.02557083642
 31
0.0
  0
LINE
  5
19B02
330
747D
100
AcDbEntity
  8
細線
 48
50.0
100
AcDbLine
 10
13382.72148434443
 20
3802.02557083642
 30
0.0
 11
13382.72148434443
 21
2012.02557083642
 31
0.0
  0
LINE
  5
19B03
330
747D
100
AcDbEntity
  8
細線
 48
50.0
100
AcDbLine
 10
13367.72148434443
 20
3802.02557083642
 30
0.0
 11
13367.72148434443
 21
2012.02557083642
 31
0.0
  0
LINE
  5
19B04
330
747D
100
AcDbEntity
  8
細線
 48
50.0
100
AcDbLine
 10
13227.72148434443
 20
3802.02557083642
 30
0.0
 11
13227.72148434443
 21
2012.02557083642
 31
0.0
  0
LINE
  5
19B05
330
747D
100
AcDbEntity
  8
細線
 48
50.0
100
AcDbLine
 10
13242.72148434443
 20
3802.02557083642
 30
0.0
 11
13242.72148434443
 21
2012.02557083642
 31
0.0
  0
LWPOLYLINE
  5
19B50
330
747D
100
AcDbEntity
  8
部品1
100
AcDbPolyline
 90
        4
 70
     1
 43
0.0
 10
11533.48615123019
 20
1212.025570836416
 10
11533.48615123019
 20
972.133249290883
 10
12296.95681745863
 20
972.133249290883
 10
12296.95681745863
 20
1212.025570836416
  0
TEXT
  5
19B51
330
747D
100
AcDbEntity
  8
部品1
100
AcDbText
 10
11622.9322526538
 20
1019.132041617891
 30
0.0
 40
135.0
  1
側面図
  7
STYLE2
100
AcDbText
  0
LINE
  5
1A0FA
330
747D
100
AcDbEntity
  8
部品1
100
AcDbLine
 10
5346.673057123664
 20
9897.163791186102
 30
0.0
 11
5374.673057123664
 21
9897.163791186102
 31
0.0
  0
LINE
  5
1A0FB
330
747D
100
AcDbEntity
  8
部品1
100
AcDbLine
 10
3192.673057123641
 20
9897.163791186018
 30
0.0
 11
3164.673057123641
 21
9897.163791186018
 31
0.0
  0
LINE
  5
1A0FC
330
747D
100
AcDbEntity
  8
部品1
100
AcDbLine
 10
7556.673057123667
 20
9897.163791186144
 30
0.0
 11
7584.673057123669
 21
9897.163791186144
 31
0.0
  0
DIMENSION
  5
1A3DA
330
747D
100
AcDbEntity
  8
寸法
 48
50.0
100
AcDbDimension
  2
*D35
 10
7872.216159445414
 20
3610.025570836417
 30
0.0
 11
7772.216159445413
 21
2786.025570836418
 31
0.0
 70
    32
  1
有効開口部高サ <>
 71
     5
 42
1648.000000000001
  3
INABA_S40G
100
AcDbAlignedDimension
 13
7584.673057123666
 23
1962.025570836416
 33
0.0
 14
7584.673057123666
 24
3610.025570836417
 34
0.0
 50
90.0
100
AcDbRotatedDimension
  0
DIMENSION
  5
1A3DB
330
747D
100
AcDbEntity
  8
寸法
 48
50.0
100
AcDbDimension
  2
*D36
 10
7872.216159445414
 20
3637.025570836418
 30
0.0
 11
8012.38598269178
 21
3637.992770676075
 31
0.0
 70
   160
 71
     5
 42
27.00000000000091
  3
INABA_S40G
100
AcDbAlignedDimension
 13
7584.673057123666
 23
3610.025570836417
 33
0.0
 14
7584.673057123665
 24
3637.025570836418
 34
0.0
 50
90.0
100
AcDbRotatedDimension
1001
ACAD
1000
DSTYLE
1002
{
1070
   279
1070
     2
1002
}
  0
DIMENSION
  5
1A3DC
330
747D
100
AcDbEntity
  8
寸法
 48
50.0
100
AcDbDimension
  2
*D37
 10
7872.216159445414
 20
3802.025570836416
 30
0.0
 11
7872.216159445414
 21
4040.510852210656
 31
0.0
 70
   160
 71
     5
 42
164.9999999999982
  3
INABA_S40G
100
AcDbAlignedDimension
 13
7584.673057123665
 23
3637.025570836418
 33
0.0
 14
7584.673057123666
 24
3802.025570836416
 34
0.0
 50
90.0
100
AcDbRotatedDimension
1001
ACAD
1000
DSTYLE
1002
{
1002
}
  0
LINE
  5
1AFE7
330
747D
100
AcDbEntity
  8
細線
100
AcDbLine
 10
5477.673057123662
 20
3597.025570836417
 30
0.0
 11
7481.673057123664
 21
3597.025570836417
 31
0.0
  0
LINE
  5
1AFE8
330
747D
100
AcDbEntity
  8
細線
100
AcDbLine
 10
3267.673057123662
 20
3597.025570836417
 30
0.0
 11
5271.673057123663
 21
3597.025570836417
 31
0.0
  0
TEXT
  5
1B006
330
747D
100
AcDbEntity
  8
文字
 62
     7
 48
50.0
100
AcDbText
 10
15022.63965474516
 20
9740.013745883723
 30
0.0
 40
100.0
  1
F12            1.0
  7
STYLE1
100
AcDbText
  0
LINE
  5
1B021
330
747D
100
AcDbEntity
  8
仕様書枠
 48
50.0
100
AcDbLine
 10
16307.19999999997
 20
8689.599999999998
 30
0.0
 11
13127.19999999997
 21
8689.600000000003
 31
0.0
  0
TEXT
  5
1B026
330
747D
100
AcDbEntity
  8
文字
 62
     7
 48
50.0
100
AcDbText
 10
15022.63965474517
 20
10760.01374588372
 30
0.0
 40
100.0
  1
F12         1.0,1.2
  7
STYLE1
100
AcDbText
  0
TEXT
  5
1B029
330
747D
100
AcDbEntity
  8
文字
 62
     7
 48
50.0
100
AcDbText
 10
15022.63965474516
 20
9060.013745883725
 30
0.0
 40
100.0
  1
F12            0.7
  7
STYLE1
100
AcDbText
  0
LINE
  5
1B02A
330
747D
100
AcDbEntity
  8
破線
 48
5.0
100
AcDbLine
 10
5374.673057123665
 20
1687.025570836416
 30
0.0
 11
5374.673057123665
 21
1612.025570836416
 31
0.0
  0
LINE
  5
1B02B
330
747D
100
AcDbEntity
  8
破線
 48
5.0
100
AcDbLine
 10
5324.673057123664
 20
1612.025570836416
 30
0.0
 11
5424.673057123665
 21
1612.025570836416
 31
0.0
  0
ENDSEC
  0
SECTION
  2
OBJECTS
  0
DICTIONARY
  5
7471
330
0
100
AcDbDictionary
281
     1
  3
ACAD_COLOR
350
17AE2
  3
ACAD_GROUP
350
7472
  3
ACAD_LAYOUT
350
17AE3
  3
ACAD_MATERIAL
350
17AE1
  3
ACAD_MLINESTYLE
350
7473
  3
ACAD_PLOTSETTINGS
350
17AE4
  3
ACAD_PLOTSTYLENAME
350
17ADF
  3
ACDBHEADERROUNDTRIPXREC
350
1B08C
  3
AcDbVariableDictionary
350
1A519
  3
CONTENTDICTIONARY
350
E71C
  3
DRAWINGVARIABLESDICT
350
F3B9
  0
DICTIONARY
  5
18C51
330
7467
100
AcDbDictionary
280
     1
281
     1
  3
ACAD_LAYERSTATES
360
18C52
  0
DICTIONARY
  5
17AE2
102
{ACAD_REACTORS
330
7471
102
}
330
7471
100
AcDbDictionary
281
     1
  0
DICTIONARY
  5
7472
102
{ACAD_REACTORS
330
7471
102
}
330
7471
100
AcDbDictionary
281
     1
  3
*A1
350
17FA7
  3
*A2
350
180C7
  3
*A3
350
180D2
  0
DICTIONARY
  5
17AE3
102
{ACAD_REACTORS
330
7471
102
}
330
7471
100
AcDbDictionary
281
     1
  3
Model
350
17AE5
  3
レイアウト1
350
17AE6
  0
DICTIONARY
  5
17AE1
102
{ACAD_REACTORS
330
7471
102
}
330
7471
100
AcDbDictionary
281
     1
  0
DICTIONARY
  5
7473
102
{ACAD_REACTORS
330
7471
102
}
330
7471
100
AcDbDictionary
281
     1
  3
STANDARD
350
7480
  0
DICTIONARY
  5
17AE4
102
{ACAD_REACTORS
330
7471
102
}
330
7471
100
AcDbDictionary
281
     1
  0
ACDBDICTIONARYWDFLT
  5
17ADF
102
{ACAD_REACTORS
330
7471
102
}
330
7471
100
AcDbDictionary
281
     1
  3
Normal
350
17AE0
100
AcDbDictionaryWithDefault
340
17AE0
  0
DICTIONARY
  5
1B08C
102
{ACAD_REACTORS
330
7471
102
}
330
7471
100
AcDbDictionary
281
     1
  3
COLORDICT
350
1B08E
  3
MATERIALDICT
350
1B08D
  0
DICTIONARY
  5
1A519
102
{ACAD_REACTORS
330
7471
102
}
330
7471
100
AcDbDictionary
281
     1
  3
DIMASSOC
350
1A51A
  3
PROJECTNAME
350
1A51B
  0
DICTIONARY
  5
E71C
102
{ACAD_REACTORS
330
7471
102
}
330
7471
100
AcDbDictionary
281
     1
  0
DICTIONARY
  5
F3B9
102
{ACAD_REACTORS
330
7471
102
}
330
7471
100
AcDbDictionary
281
     1
1001
DRAWINGVARIABLESXDATA
1000
POLARMODE
1000
1
  0
DICTIONARY
  5
18C52
102
{ACAD_REACTORS
330
18C51
102
}
330
18C51
100
AcDbDictionary
281
     1
  0
GROUP
  5
17FA7
102
{ACAD_REACTORS
330
7472
102
}
330
7472
100
AcDbGroup
300

 70
     1
 71
     1
  0
GROUP
  5
180C7
102
{ACAD_REACTORS
330
7472
102
}
330
7472
100
AcDbGroup
300

 70
     1
 71
     1
  0
GROUP
  5
180D2
102
{ACAD_REACTORS
330
7472
102
}
330
7472
100
AcDbGroup
300

 70
     1
 71
     1
  0
LAYOUT
  5
17AE5
102
{ACAD_XDICTIONARY
360
1B08F
102
}
102
{ACAD_REACTORS
330
17AE3
102
}
330
17AE3
100
AcDbPlotSettings
  1

  2
Canon iR C3880/C4580 LIPSLX
  4
A3
  6

 40
5.873749732971191
 41
5.873747825622558
 42
5.873748779296875
 43
5.873748779296875
 44
296.9259948730469
 45
419.9466552734374
 46
0.0
 47
0.0
 48
0.0
 49
0.0
140
0.0
141
0.0
142
1.0
143
40.0
 70
 11952
 72
     1
 73
     1
 74
     2
  7
inaba.ctb
 75
    24
147
0.025
148
0.0
149
0.0
100
AcDbLayout
  1
Model
 70
     1
 71
     0
 10
0.0
 20
0.0
 11
12.0
 21
9.0
 12
0.0
 22
0.0
 32
0.0
 14
0.0
 24
0.0
 34
0.0
 15
0.0
 25
0.0
 35
0.0
146
0.0
 13
0.0
 23
0.0
 33
0.0
 16
1.0
 26
0.0
 36
0.0
 17
0.0
 27
1.0
 37
0.0
 76
     0
330
747D
  0
LAYOUT
  5
17AE6
102
{ACAD_XDICTIONARY
360
1B091
102
}
102
{ACAD_REACTORS
330
17AE3
102
}
330
17AE3
100
AcDbPlotSettings
  1

  2
EPSON LP-8300
  4

  6

 40
0.0
 41
0.0
 42
0.0
 43
0.0
 44
0.0
 45
0.0
 46
0.0
 47
0.0
 48
0.0
 49
0.0
140
0.0
141
0.0
142
1.0
143
1.0
 70
   688
 72
     0
 73
     0
 74
     5
  7
inaba.ctb
 75
    16
147
1.0
148
0.0
149
0.0
100
AcDbLayout
  1
レイアウト1
 70
     0
 71
     1
 10
0.0
 20
0.0
 11
420.0
 21
297.0
 12
0.0
 22
0.0
 32
0.0
 14
1.000000000000000E+20
 24
1.000000000000000E+20
 34
1.000000000000000E+20
 15
-1.000000000000000E+20
 25
-1.000000000000000E+20
 35
-1.000000000000000E+20
146
0.0
 13
0.0
 23
0.0
 33
0.0
 16
1.0
 26
0.0
 36
0.0
 17
0.0
 27
1.0
 37
0.0
 76
     0
330
747A
  0
MLINESTYLE
  5
7480
102
{ACAD_REACTORS
330
7473
102
}
330
7473
100
AcDbMlineStyle
  2
STANDARD
 70
     0
  3

 62
     0
 51
90.0
 52
90.0
 71
     2
 49
0.5
 62
   256
  6
BYLAYER
 49
-0.5
 62
   256
  6
BYLAYER
  0
ACDBPLACEHOLDER
  5
17AE0
102
{ACAD_REACTORS
330
17ADF
102
}
330
17ADF
  0
XRECORD
  5
1B08E
102
{ACAD_REACTORS
330
1B08C
102
}
330
1B08C
100
AcDbXrecord
280
     1
340
17AE2
  0
XRECORD
  5
1B08D
102
{ACAD_REACTORS
330
1B08C
102
}
330
1B08C
100
AcDbXrecord
280
     1
340
17AE1
  0
DICTIONARYVAR
  5
1A51A
102
{ACAD_REACTORS
330
1A519
102
}
330
1A519
100
DictionaryVariables
280
     0
  1
1
  0
DICTIONARYVAR
  5
1A51B
102
{ACAD_REACTORS
330
1A519
102
}
330
1A519
100
DictionaryVariables
280
     0
  1

  0
DICTIONARY
  5
1B08F
330
17AE5
100
AcDbDictionary
280
     1
281
     1
  3
ACAD_XREC_ROUNDTRIP
360
1B090
  0
DICTIONARY
  5
1B091
330
17AE6
100
AcDbDictionary
280
     1
281
     1
  3
ACAD_XREC_ROUNDTRIP
360
1B092
  0
XRECORD
  5
1B090
102
{ACAD_REACTORS
330
1B08F
102
}
330
1B08F
100
AcDbXrecord
280
     1
102
SHADEPLOT
 70
     0
102
SHADEPLOTRESLEVEL
 70
     2
102
SHADEPLOTCUSTOMDPI
 70
   300
  0
XRECORD
  5
1B092
102
{ACAD_REACTORS
330
1B091
102
}
330
1B091
100
AcDbXrecord
280
     1
102
SHADEPLOT
 70
     0
102
SHADEPLOTRESLEVEL
 70
     2
102
SHADEPLOTCUSTOMDPI
 70
   300
  0
ENDSEC
  0
EOF
