  0
SECTION
  2
HEADER
  9
$ACADVER
  1
AC1015
  9
$ACADMAINTVER
 70
    20
  9
$DWGCODEPAGE
  3
ANSI_932
  9
$INSBASE
 10
0.0
 20
0.0
 30
0.0
  9
$EXTMIN
 10
139.9999999999995
 20
-0.0000000000000909
 30
0.0
  9
$EXTMAX
 10
16307.2
 20
11409.6
 30
0.0
  9
$LIMMIN
 10
0.0
 20
0.0
  9
$LIMMAX
 10
16800.0
 20
11880.0
  9
$ORTHOMODE
 70
     0
  9
$REGENMODE
 70
     1
  9
$FILLMODE
 70
     1
  9
$QTEXTMODE
 70
     0
  9
$MIRRTEXT
 70
     1
  9
$LTSCALE
 40
20.0
  9
$ATTMODE
 70
     1
  9
$TEXTSIZE
 40
4.0
  9
$TRACEWID
 40
1.0
  9
$TEXTSTYLE
  7
STYLE1
  9
$CLAYER
  8
部品1
  9
$CELTYPE
  6
BYLAYER
  9
$CECOLOR
 62
   256
  9
$CELTSCALE
 40
50.0
  9
$DISPSILH
 70
     0
  9
$DIMSCALE
 40
40.0
  9
$DIMASZ
 40
2.5
  9
$DIMEXO
 40
0.5
  9
$DIMDLI
 40
7.0
  9
$DIMRND
 40
0.0
  9
$DIMDLE
 40
0.0
  9
$DIMEXE
 40
1.5
  9
$DIMTP
 40
0.0
  9
$DIMTM
 40
0.0
  9
$DIMTXT
 40
3.0
  9
$DIMCEN
 40
0.0
  9
$DIMTSZ
 40
0.0
  9
$DIMTOL
 70
     0
  9
$DIMLIM
 70
     0
  9
$DIMTIH
 70
     0
  9
$DIMTOH
 70
     0
  9
$DIMSE1
 70
     0
  9
$DIMSE2
 70
     0
  9
$DIMTAD
 70
     3
  9
$DIMZIN
 70
     8
  9
$DIMBLK
  1

  9
$DIMASO
 70
     1
  9
$DIMSHO
 70
     1
  9
$DIMPOST
  1

  9
$DIMAPOST
  1

  9
$DIMALT
 70
     0
  9
$DIMALTD
 70
     2
  9
$DIMALTF
 40
0.0394
  9
$DIMLFAC
 40
1.0
  9
$DIMTOFL
 70
     1
  9
$DIMTVP
 40
0.0
  9
$DIMTIX
 70
     1
  9
$DIMSOXD
 70
     0
  9
$DIMSAH
 70
     1
  9
$DIMBLK1
  1
DOTSMALL
  9
$DIMBLK2
  1
DOTSMALL
  9
$DIMSTYLE
  2
INABA_S40G
  9
$DIMCLRD
 70
     0
  9
$DIMCLRE
 70
     0
  9
$DIMCLRT
 70
     7
  9
$DIMTFAC
 40
1.0
  9
$DIMGAP
 40
1.0
  9
$DIMJUST
 70
     0
  9
$DIMSD1
 70
     0
  9
$DIMSD2
 70
     0
  9
$DIMTOLJ
 70
     1
  9
$DIMTZIN
 70
     0
  9
$DIMALTZ
 70
     0
  9
$DIMALTTZ
 70
     0
  9
$DIMUPT
 70
     0
  9
$DIMDEC
 70
     1
  9
$DIMTDEC
 70
     4
  9
$DIMALTU
 70
     2
  9
$DIMALTTD
 70
     2
  9
$DIMTXSTY
  7
STYLE1
  9
$DIMAUNIT
 70
     0
  9
$DIMADEC
 70
     0
  9
$DIMALTRND
 40
0.0
  9
$DIMAZIN
 70
     0
  9
$DIMDSEP
 70
    46
  9
$DIMATFIT
 70
     3
  9
$DIMFRAC
 70
     0
  9
$DIMLDRBLK
  1

  9
$DIMLUNIT
 70
     2
  9
$DIMLWD
 70
    -2
  9
$DIMLWE
 70
    -2
  9
$DIMTMOVE
 70
     0
  9
$LUNITS
 70
     2
  9
$LUPREC
 70
     1
  9
$SKETCHINC
 40
1.0
  9
$FILLETRAD
 40
3.0
  9
$AUNITS
 70
     0
  9
$AUPREC
 70
     0
  9
$MENU
  1
acad
  9
$ELEVATION
 40
0.0
  9
$PELEVATION
 40
0.0
  9
$THICKNESS
 40
0.0
  9
$LIMCHECK
 70
     0
  9
$CHAMFERA
 40
0.0
  9
$CHAMFERB
 40
0.0
  9
$CHAMFERC
 40
0.0
  9
$CHAMFERD
 40
0.0
  9
$SKPOLY
 70
     0
  9
$TDCREATE
 40
2451368.612993866
  9
$TDUCREATE
 40
2451368.237993866
  9
$TDUPDATE
 40
2455569.646303530
  9
$TDUUPDATE
 40
2455569.271303530
  9
$TDINDWG
 40
0.7353626505
  9
$TDUSRTIMER
 40
0.7353623032
  9
$USRTIMER
 70
     1
  9
$ANGBASE
 50
0.0
  9
$ANGDIR
 70
     0
  9
$PDMODE
 70
     3
  9
$PDSIZE
 40
2.0
  9
$PLINEWID
 40
0.0
  9
$SPLFRAME
 70
     0
  9
$SPLINETYPE
 70
     6
  9
$SPLINESEGS
 70
     8
  9
$HANDSEED
  5
18761
  9
$SURFTAB1
 70
     6
  9
$SURFTAB2
 70
     6
  9
$SURFTYPE
 70
     6
  9
$SURFU
 70
     6
  9
$SURFV
 70
     6
  9
$UCSBASE
  2

  9
$UCSNAME
  2

  9
$UCSORG
 10
0.0
 20
0.0
 30
0.0
  9
$UCSXDIR
 10
1.0
 20
0.0
 30
0.0
  9
$UCSYDIR
 10
0.0
 20
1.0
 30
0.0
  9
$UCSORTHOREF
  2

  9
$UCSORTHOVIEW
 70
     0
  9
$UCSORGTOP
 10
0.0
 20
0.0
 30
0.0
  9
$UCSORGBOTTOM
 10
0.0
 20
0.0
 30
0.0
  9
$UCSORGLEFT
 10
0.0
 20
0.0
 30
0.0
  9
$UCSORGRIGHT
 10
0.0
 20
0.0
 30
0.0
  9
$UCSORGFRONT
 10
0.0
 20
0.0
 30
0.0
  9
$UCSORGBACK
 10
0.0
 20
0.0
 30
0.0
  9
$PUCSBASE
  2

  9
$PUCSNAME
  2

  9
$PUCSORG
 10
0.0
 20
0.0
 30
0.0
  9
$PUCSXDIR
 10
1.0
 20
0.0
 30
0.0
  9
$PUCSYDIR
 10
0.0
 20
1.0
 30
0.0
  9
$PUCSORTHOREF
  2

  9
$PUCSORTHOVIEW
 70
     0
  9
$PUCSORGTOP
 10
0.0
 20
0.0
 30
0.0
  9
$PUCSORGBOTTOM
 10
0.0
 20
0.0
 30
0.0
  9
$PUCSORGLEFT
 10
0.0
 20
0.0
 30
0.0
  9
$PUCSORGRIGHT
 10
0.0
 20
0.0
 30
0.0
  9
$PUCSORGFRONT
 10
0.0
 20
0.0
 30
0.0
  9
$PUCSORGBACK
 10
0.0
 20
0.0
 30
0.0
  9
$USERI1
 70
     0
  9
$USERI2
 70
     0
  9
$USERI3
 70
     0
  9
$USERI4
 70
     0
  9
$USERI5
 70
     0
  9
$USERR1
 40
0.0
  9
$USERR2
 40
0.0
  9
$USERR3
 40
0.0
  9
$USERR4
 40
0.0
  9
$USERR5
 40
0.0
  9
$WORLDVIEW
 70
     1
  9
$SHADEDGE
 70
     3
  9
$SHADEDIF
 70
    70
  9
$TILEMODE
 70
     1
  9
$MAXACTVP
 70
    16
  9
$PINSBASE
 10
0.0
 20
0.0
 30
0.0
  9
$PLIMCHECK
 70
     0
  9
$PEXTMIN
 10
1.000000000000000E+20
 20
1.000000000000000E+20
 30
1.000000000000000E+20
  9
$PEXTMAX
 10
-1.000000000000000E+20
 20
-1.000000000000000E+20
 30
-1.000000000000000E+20
  9
$PLIMMIN
 10
0.0
 20
0.0
  9
$PLIMMAX
 10
420.0
 20
297.0
  9
$UNITMODE
 70
     0
  9
$VISRETAIN
 70
     0
  9
$PLINEGEN
 70
     0
  9
$PSLTSCALE
 70
     0
  9
$TREEDEPTH
 70
  3020
  9
$CMLSTYLE
  2
STANDARD
  9
$CMLJUST
 70
     0
  9
$CMLSCALE
 40
1.0
  9
$PROXYGRAPHICS
 70
     1
  9
$MEASUREMENT
 70
     1
  9
$CELWEIGHT
370
    -1
  9
$ENDCAPS
280
     0
  9
$JOINSTYLE
280
     0
  9
$LWDISPLAY
290
     0
  9
$INSUNITS
 70
     0
  9
$HYPERLINKBASE
  1

  9
$STYLESHEET
  1
inaba.ctb
  9
$XEDIT
290
     1
  9
$CEPSNTYPE
380
     0
  9
$PSTYLEMODE
290
     1
  9
$FINGERPRINTGUID
  2
{EC090311-9254-4FB8-9BBA-E8C5B2CDFB2F}
  9
$VERSIONGUID
  2
{71A45170-4361-4409-8837-B11C5687FF6B}
  9
$EXTNAMES
290
     1
  9
$PSVPSCALE
 40
0.0
  9
$OLESTARTUP
290
     0
  0
ENDSEC
  0
SECTION
  2
CLASSES
  0
CLASS
  1
ACDBDICTIONARYWDFLT
  2
AcDbDictionaryWithDefault
  3
ObjectDBX Classes
 90
        0
280
     0
281
     0
  0
CLASS
  1
DICTIONARYVAR
  2
AcDbDictionaryVar
  3
ObjectDBX Classes
 90
        0
280
     0
281
     0
  0
CLASS
  1
ACDBPLACEHOLDER
  2
AcDbPlaceHolder
  3
ObjectDBX Classes
 90
        0
280
     0
281
     0
  0
CLASS
  1
LAYOUT
  2
AcDbLayout
  3
ObjectDBX Classes
 90
        0
280
     0
281
     0
  0
ENDSEC
  0
SECTION
  2
TABLES
  0
TABLE
  2
VPORT
  5
746D
330
0
100
AcDbSymbolTable
 70
     2
  0
VPORT
  5
18759
330
746D
100
AcDbSymbolTableRecord
100
AcDbViewportTableRecord
  2
*Active
 70
     0
 10
0.0
 20
0.0
 11
1.0
 21
1.0
 12
11720.08792708764
 22
5704.778730455632
 13
0.0
 23
0.0
 14
10.0
 24
10.0
 15
10.0
 25
10.0
 16
0.0
 26
0.0
 36
1.0
 17
0.0
 27
0.0
 37
0.0
 40
11513.3867399369
 41
2.234800838574423
 42
50.0
 43
0.0
 44
0.0
 50
0.0
 51
0.0
 71
     0
 72
     0
 73
     1
 74
     0
 75
     0
 76
     0
 77
     0
 78
     0
281
     0
 65
     1
110
0.0
120
0.0
130
0.0
111
1.0
121
0.0
131
0.0
112
0.0
122
1.0
132
0.0
 79
     0
146
0.0
  0
ENDTAB
  0
TABLE
  2
LTYPE
  5
746A
330
0
100
AcDbSymbolTable
 70
     3
  0
LTYPE
  5
7477
330
746A
100
AcDbSymbolTableRecord
100
AcDbLinetypeTableRecord
  2
BYBLOCK
 70
     0
  3

 72
    65
 73
     0
 40
0.0
  0
LTYPE
  5
7478
330
746A
100
AcDbSymbolTableRecord
100
AcDbLinetypeTableRecord
  2
BYLAYER
 70
     0
  3

 72
    65
 73
     0
 40
0.0
  0
LTYPE
  5
7479
330
746A
100
AcDbSymbolTableRecord
100
AcDbLinetypeTableRecord
  2
CONTINUOUS
 70
     0
  3
Solid line
 72
    65
 73
     0
 40
0.0
  0
LTYPE
  5
781A
330
746A
100
AcDbSymbolTableRecord
100
AcDbLinetypeTableRecord
  2
HIDDEN
 70
     0
  3
__ __ __ __ __ __ __ __ __ __ __ __ __ __ __ __
 72
    65
 73
     2
 40
0.375
 49
0.25
 74
     0
 49
-0.125
 74
     0
  0
LTYPE
  5
781B
330
746A
100
AcDbSymbolTableRecord
100
AcDbLinetypeTableRecord
  2
PHANTOM
 70
     0
  3
______  __  __  ______  __  __  ______  __  __ 
 72
    65
 73
     6
 40
2.5
 49
1.25
 74
     0
 49
-0.25
 74
     0
 49
0.25
 74
     0
 49
-0.25
 74
     0
 49
0.25
 74
     0
 49
-0.25
 74
     0
  0
ENDTAB
  0
TABLE
  2
LAYER
  5
7467
102
{ACAD_XDICTIONARY
360
16D27
102
}
330
0
100
AcDbSymbolTable
 70
    10
  0
LAYER
  5
7474
330
7467
100
AcDbSymbolTableRecord
100
AcDbLayerTableRecord
  2
0
 70
     0
 62
     7
  6
CONTINUOUS
370
    -3
390
1675D
  0
LAYER
  5
DEB3
330
7467
100
AcDbSymbolTableRecord
100
AcDbLayerTableRecord
  2
寸法
 70
     0
 62
     4
  6
CONTINUOUS
370
    -3
390
1675D
  0
LAYER
  5
DEB4
330
7467
100
AcDbSymbolTableRecord
100
AcDbLayerTableRecord
  2
部品1
 70
     0
 62
     7
  6
CONTINUOUS
370
    -3
390
1675D
  0
LAYER
  5
DEB5
330
7467
100
AcDbSymbolTableRecord
100
AcDbLayerTableRecord
  2
補助
 70
     0
 62
    -1
  6
CONTINUOUS
370
    -3
390
1675D
  0
LAYER
  5
DEB6
330
7467
100
AcDbSymbolTableRecord
100
AcDbLayerTableRecord
  2
文字
 70
     0
 62
     7
  6
CONTINUOUS
370
    -3
390
1675D
  0
LAYER
  5
F255
330
7467
100
AcDbSymbolTableRecord
100
AcDbLayerTableRecord
  2
DEFPOINTS
 70
     0
 62
     7
  6
CONTINUOUS
290
     0
370
    -3
390
1675D
  0
LAYER
  5
10B54
330
7467
100
AcDbSymbolTableRecord
100
AcDbLayerTableRecord
  2
仕様書枠
 70
     0
 62
   230
  6
CONTINUOUS
370
    -3
390
1675D
  0
LAYER
  5
11729
330
7467
100
AcDbSymbolTableRecord
100
AcDbLayerTableRecord
  2
Ｇ．Ｌ
 70
     0
 62
    30
  6
CONTINUOUS
370
    -3
390
1675D
  0
LAYER
  5
1173F
330
7467
100
AcDbSymbolTableRecord
100
AcDbLayerTableRecord
  2
細線
 70
     0
 62
     5
  6
CONTINUOUS
370
    -3
390
1675D
  0
LAYER
  5
142E2
330
7467
100
AcDbSymbolTableRecord
100
AcDbLayerTableRecord
  2
破線
 70
     0
 62
     2
  6
HIDDEN
370
    -3
390
1675D
  0
ENDTAB
  0
TABLE
  2
STYLE
  5
7468
330
0
100
AcDbSymbolTable
 70
     7
  0
STYLE
  5
7475
330
7468
100
AcDbSymbolTableRecord
100
AcDbTextStyleTableRecord
  2
STANDARD
 70
     0
 40
0.0
 41
1.0
 50
0.0
 71
     0
 42
4.0
  3
txt
  4
C:\AutoCAD LT\bigfont.shx
  0
STYLE
  5
763C
330
7468
100
AcDbSymbolTableRecord
100
AcDbTextStyleTableRecord
  2
MSMINCHO
 70
     0
 40
0.0
 41
1.0
 50
0.0
 71
     0
 42
1.199999999999999
  3
C:\AutoCAD LT\msminch2.TTF
  4

  0
STYLE
  5
F706
330
7468
100
AcDbSymbolTableRecord
100
AcDbTextStyleTableRecord
  2
STYLE1
 70
     0
 40
0.0
 41
1.0
 50
0.0
 71
     0
 42
4.0
  3
isocp.shx
  4
bigfont.shx
  0
STYLE
  5
103BF
330
7468
100
AcDbSymbolTableRecord
100
AcDbTextStyleTableRecord
  2
STYLE2
 70
     0
 40
0.0
 41
1.0
 50
0.0
 71
     0
 42
100.0
  3
MS PGothic.ttf
  4

1001
ACAD
1000
MS PGothic
1071
    32818
  0
STYLE
  5
10BAA
330
7468
100
AcDbSymbolTableRecord
100
AcDbTextStyleTableRecord
  2
STYLE3
 70
     0
 40
0.0
 41
1.0
 50
0.0
 71
     0
 42
100.0
  3
DFPGothic-EB.ttf
  4

1001
ACAD
1000
DFPGothic-EB
1071
    32818
  0
STYLE
  5
11A15
330
7468
100
AcDbSymbolTableRecord
100
AcDbTextStyleTableRecord
  2
MSGOTHIC
 70
     0
 40
0.0
 41
1.0
 50
0.0
 71
     0
 42
3.5
  3
msgothi2.ttf
  4

  0
STYLE
  5
186F7
330
7468
100
AcDbSymbolTableRecord
100
AcDbTextStyleTableRecord
  2
MSPゴシック
 70
     0
 40
0.0
 41
1.0
 50
0.0
 71
     0
 42
4.0
  3
MS PGothic.ttf
  4

1001
ACAD
1000
MS PGothic
1071
    32818
  0
ENDTAB
  0
TABLE
  2
VIEW
  5
746B
330
0
100
AcDbSymbolTable
 70
     0
  0
ENDTAB
  0
TABLE
  2
UCS
  5
746C
330
0
100
AcDbSymbolTable
 70
     0
  0
ENDTAB
  0
TABLE
  2
APPID
  5
746E
330
0
100
AcDbSymbolTable
 70
     6
  0
APPID
  5
7476
330
746E
100
AcDbSymbolTableRecord
100
AcDbRegAppTableRecord
  2
ACAD
 70
     0
  0
APPID
  5
DEA9
330
746E
100
AcDbSymbolTableRecord
100
AcDbRegAppTableRecord
  2
CONTENTBLOCKICON
 70
     0
  0
APPID
  5
DEAA
330
746E
100
AcDbSymbolTableRecord
100
AcDbRegAppTableRecord
  2
CONTENTBLOCKDESCRIPTION
 70
     0
  0
APPID
  5
E71D
330
746E
100
AcDbSymbolTableRecord
100
AcDbRegAppTableRecord
  2
CONTENTTABDATA
 70
     0
  0
APPID
  5
E71E
330
746E
100
AcDbSymbolTableRecord
100
AcDbRegAppTableRecord
  2
CONTENTCURRENTTAB
 70
     0
  0
APPID
  5
F3BA
330
746E
100
AcDbSymbolTableRecord
100
AcDbRegAppTableRecord
  2
DRAWINGVARIABLESXDATA
 70
     0
  0
ENDTAB
  0
TABLE
  2
DIMSTYLE
  5
746F
330
0
100
AcDbSymbolTable
 70
     1
100
AcDbDimStyleTable
 71
     1
340
F71F
  0
DIMSTYLE
105
F71F
102
{ACAD_REACTORS
330
164EB
330
164F2
330
164F7
330
164F9
330
164FA
330
164FB
330
1650E
330
1650F
330
16510
330
16528
330
1652B
330
16556
330
16557
330
16F76
330
16F77
330
16F78
330
16FB4
330
17742
330
17751
330
1775F
330
17760
330
17761
330
17765
330
17795
330
17796
330
17797
330
17D05
330
17D06
330
17D07
102
}
330
746F
100
AcDbSymbolTableRecord
100
AcDbDimStyleTableRecord
  2
INABA_S40G
 70
     0
 40
40.0
 41
2.5
 42
0.5
 43
7.0
 44
1.5
 73
     0
 74
     0
 77
     3
 78
     8
140
3.0
141
0.0
143
0.0394
147
1.0
172
     1
173
     1
174
     1
178
     7
271
     1
340
F706
341
F770
343
F770
344
F770
  0
ENDTAB
  0
TABLE
  2
BLOCK_RECORD
  5
7466
330
0
100
AcDbSymbolTable
 70
    30
  0
BLOCK_RECORD
  5
747D
330
7466
100
AcDbSymbolTableRecord
100
AcDbBlockTableRecord
  2
*MODEL_SPACE
340
16762
  0
BLOCK_RECORD
  5
747A
330
7466
100
AcDbSymbolTableRecord
100
AcDbBlockTableRecord
  2
*PAPER_SPACE
340
16763
  0
BLOCK_RECORD
  5
F770
330
7466
100
AcDbSymbolTableRecord
100
AcDbBlockTableRecord
  2
_DOTSMALL
340
0
102
{BLKREFS
331
17A9C
331
17A9D
331
17B27
331
17B28
331
17B32
331
17B33
331
17B3D
331
17B3E
331
17B46
331
17B47
331
17B51
331
17B52
331
17B5C
331
17B5D
331
17B68
331
17B69
331
17B73
331
17B74
331
17B7D
331
17B7E
331
17B86
331
17B87
331
17B8E
331
17B8F
331
17B97
331
17B98
331
17BA0
331
17BA1
331
18607
331
18608
331
18610
331
18611
331
18619
331
1861A
331
18622
331
18623
331
18636
331
18637
331
18649
331
1864A
331
18653
331
18654
331
1865E
331
1865F
331
18669
331
1866A
331
18672
331
18673
331
1867B
331
1867C
331
186DE
331
186DF
331
186E7
331
186E8
331
1873E
331
1873F
331
1874A
331
1874B
102
}
  0
BLOCK_RECORD
  5
1655F
330
7466
100
AcDbSymbolTableRecord
100
AcDbBlockTableRecord
  2
*D1
340
0
  0
BLOCK_RECORD
  5
1656B
330
7466
100
AcDbSymbolTableRecord
100
AcDbBlockTableRecord
  2
*D2
340
0
  0
BLOCK_RECORD
  5
1658F
330
7466
100
AcDbSymbolTableRecord
100
AcDbBlockTableRecord
  2
*D3
340
0
  0
BLOCK_RECORD
  5
1659A
330
7466
100
AcDbSymbolTableRecord
100
AcDbBlockTableRecord
  2
*D4
340
0
  0
BLOCK_RECORD
  5
165A6
330
7466
100
AcDbSymbolTableRecord
100
AcDbBlockTableRecord
  2
*D5
340
0
  0
BLOCK_RECORD
  5
165B4
330
7466
100
AcDbSymbolTableRecord
100
AcDbBlockTableRecord
  2
*D6
340
0
  0
BLOCK_RECORD
  5
165C3
330
7466
100
AcDbSymbolTableRecord
100
AcDbBlockTableRecord
  2
*D7
340
0
  0
BLOCK_RECORD
  5
165D2
330
7466
100
AcDbSymbolTableRecord
100
AcDbBlockTableRecord
  2
*D8
340
0
  0
BLOCK_RECORD
  5
165E0
330
7466
100
AcDbSymbolTableRecord
100
AcDbBlockTableRecord
  2
*D9
340
0
  0
BLOCK_RECORD
  5
165EE
330
7466
100
AcDbSymbolTableRecord
100
AcDbBlockTableRecord
  2
*D10
340
0
  0
BLOCK_RECORD
  5
165FA
330
7466
100
AcDbSymbolTableRecord
100
AcDbBlockTableRecord
  2
*D11
340
0
  0
BLOCK_RECORD
  5
16608
330
7466
100
AcDbSymbolTableRecord
100
AcDbBlockTableRecord
  2
*D12
340
0
  0
BLOCK_RECORD
  5
16616
330
7466
100
AcDbSymbolTableRecord
100
AcDbBlockTableRecord
  2
*D13
340
0
  0
BLOCK_RECORD
  5
17100
330
7466
100
AcDbSymbolTableRecord
100
AcDbBlockTableRecord
  2
*D14
340
0
  0
BLOCK_RECORD
  5
1710C
330
7466
100
AcDbSymbolTableRecord
100
AcDbBlockTableRecord
  2
*D15
340
0
  0
BLOCK_RECORD
  5
17118
330
7466
100
AcDbSymbolTableRecord
100
AcDbBlockTableRecord
  2
*D16
340
0
  0
BLOCK_RECORD
  5
17126
330
7466
100
AcDbSymbolTableRecord
100
AcDbBlockTableRecord
  2
*D17
340
0
  0
BLOCK_RECORD
  5
17837
330
7466
100
AcDbSymbolTableRecord
100
AcDbBlockTableRecord
  2
*D18
340
0
  0
BLOCK_RECORD
  5
17844
330
7466
100
AcDbSymbolTableRecord
100
AcDbBlockTableRecord
  2
*D19
340
0
  0
BLOCK_RECORD
  5
17851
330
7466
100
AcDbSymbolTableRecord
100
AcDbBlockTableRecord
  2
*D20
340
0
  0
BLOCK_RECORD
  5
1785D
330
7466
100
AcDbSymbolTableRecord
100
AcDbBlockTableRecord
  2
*D21
340
0
  0
BLOCK_RECORD
  5
1786B
330
7466
100
AcDbSymbolTableRecord
100
AcDbBlockTableRecord
  2
*D22
340
0
  0
BLOCK_RECORD
  5
17877
330
7466
100
AcDbSymbolTableRecord
100
AcDbBlockTableRecord
  2
*D23
340
0
  0
BLOCK_RECORD
  5
17885
330
7466
100
AcDbSymbolTableRecord
100
AcDbBlockTableRecord
  2
*D24
340
0
  0
BLOCK_RECORD
  5
17891
330
7466
100
AcDbSymbolTableRecord
100
AcDbBlockTableRecord
  2
*D25
340
0
  0
BLOCK_RECORD
  5
1789D
330
7466
100
AcDbSymbolTableRecord
100
AcDbBlockTableRecord
  2
*D26
340
0
  0
BLOCK_RECORD
  5
17D65
330
7466
100
AcDbSymbolTableRecord
100
AcDbBlockTableRecord
  2
*D27
340
0
  0
BLOCK_RECORD
  5
17D71
330
7466
100
AcDbSymbolTableRecord
100
AcDbBlockTableRecord
  2
*D28
340
0
  0
BLOCK_RECORD
  5
17D7F
330
7466
100
AcDbSymbolTableRecord
100
AcDbBlockTableRecord
  2
*D29
340
0
  0
ENDTAB
  0
ENDSEC
  0
SECTION
  2
BLOCKS
  0
BLOCK
  5
7489
330
747D
100
AcDbEntity
  8
0
100
AcDbBlockBegin
  2
*MODEL_SPACE
 70
     0
 10
0.0
 20
0.0
 30
0.0
  3
*MODEL_SPACE
  1

  0
ENDBLK
  5
748A
330
747D
100
AcDbEntity
  8
0
100
AcDbBlockEnd
  0
BLOCK
  5
7487
330
747A
100
AcDbEntity
 67
     1
  8
0
100
AcDbBlockBegin
  2
*PAPER_SPACE
 70
     0
 10
0.0
 20
0.0
 30
0.0
  3
*PAPER_SPACE
  1

  0
ENDBLK
  5
7488
330
747A
100
AcDbEntity
 67
     1
  8
0
100
AcDbBlockEnd
  0
BLOCK
  5
F771
330
F770
100
AcDbEntity
  8
0
 48
50.0
100
AcDbBlockBegin
  2
_DOTSMALL
 70
     0
 10
0.0
 20
0.0
 30
0.0
  3
_DOTSMALL
  1

  0
LWPOLYLINE
  5
F772
330
F770
100
AcDbEntity
  8
0
  6
ByBlock
 62
     0
 48
50.0
100
AcDbPolyline
 90
        2
 70
     1
 43
0.5
 10
-0.0625
 20
0.0
 42
1.0
 10
0.0625
 20
0.0
 42
1.0
  0
ENDBLK
  5
F776
330
F770
100
AcDbEntity
  8
0
 48
50.0
100
AcDbBlockEnd
  0
BLOCK
  5
166FC
330
1655F
100
AcDbEntity
  8
0
 48
50.0
100
AcDbBlockBegin
  2
*D1
 70
     1
 10
0.0
 20
0.0
 30
0.0
  3
*D1
  1

  0
LINE
  5
17B9D
330
1655F
100
AcDbEntity
  8
寸法
 62
     0
 48
50.0
370
    -2
100
AcDbLine
 10
6796.461099046291
 20
10211.31085581437
 30
0.0
 11
7848.994386520337
 21
10211.31085581437
 31
0.0
  0
LINE
  5
17B9E
330
1655F
100
AcDbEntity
  8
寸法
 62
     0
 48
50.0
370
    -2
100
AcDbLine
 10
6796.461099046266
 20
6741.310855814369
 30
0.0
 11
7848.994386520337
 21
6741.310855814369
 31
0.0
  0
LINE
  5
17B9F
330
1655F
100
AcDbEntity
  8
寸法
 62
     0
 48
50.0
370
    -2
100
AcDbLine
 10
7788.994386520336
 20
10211.31085581437
 30
0.0
 11
7788.994386520336
 21
6741.310855814369
 31
0.0
  0
INSERT
  5
17BA0
330
1655F
100
AcDbEntity
  8
寸法
 62
     0
 48
50.0
370
    -2
100
AcDbBlockReference
  2
_DOTSMALL
 10
7788.994386520336
 20
10211.31085581437
 30
0.0
 41
100.0
 42
100.0
 43
100.0
 50
90.0
  0
INSERT
  5
17BA1
330
1655F
100
AcDbEntity
  8
寸法
 62
     0
 48
50.0
370
    -2
100
AcDbBlockReference
  2
_DOTSMALL
 10
7788.994386520336
 20
6741.310855814369
 30
0.0
 41
100.0
 42
100.0
 43
100.0
 50
270.0
  0
MTEXT
  5
17BA2
330
1655F
100
AcDbEntity
  8
寸法
 62
     7
 48
50.0
100
AcDbMText
 10
7688.994386520336
 20
8476.310855814373
 30
0.0
 40
120.0
 41
0.0
 71
     5
 72
     1
  1
\A1;3470
  7
STYLE1
 11
0.0000000000000001
 21
1.0
 31
0.0
 73
     1
 44
1.0
1001
ACAD
1000
MTEXTBEGIN
1070
    73
1070
     1
1070
    44
1040
1.0
1070
    74
1070
     0
1000
MTEXTEND
  0
POINT
  5
17BA3
330
1655F
100
AcDbEntity
  8
DEFPOINTS
 62
     0
 48
50.0
100
AcDbPoint
 10
6776.461099046291
 20
10211.31085581437
 30
0.0
  0
POINT
  5
17BA4
330
1655F
100
AcDbEntity
  8
DEFPOINTS
 62
     0
 48
50.0
100
AcDbPoint
 10
6776.461099046263
 20
6741.310855814369
 30
0.0
  0
POINT
  5
17BA5
330
1655F
100
AcDbEntity
  8
DEFPOINTS
 62
     0
 48
50.0
100
AcDbPoint
 10
7788.994386520336
 20
6741.310855814369
 30
0.0
  0
ENDBLK
  5
16706
330
1655F
100
AcDbEntity
  8
0
 48
50.0
100
AcDbBlockEnd
  0
BLOCK
  5
16707
330
1656B
100
AcDbEntity
  8
0
 48
50.0
100
AcDbBlockBegin
  2
*D2
 70
     1
 10
0.0
 20
0.0
 30
0.0
  3
*D2
  1

  0
LINE
  5
17B94
330
1656B
100
AcDbEntity
  8
寸法
 62
     0
 48
50.0
370
    -2
100
AcDbLine
 10
6796.461099046291
 20
10156.31085581438
 30
0.0
 11
7483.8874447807
 21
10156.31085581438
 31
0.0
  0
LINE
  5
17B95
330
1656B
100
AcDbEntity
  8
寸法
 62
     0
 48
50.0
370
    -2
100
AcDbLine
 10
6796.461099046266
 20
6796.310855814365
 30
0.0
 11
7483.8874447807
 21
6796.310855814365
 31
0.0
  0
LINE
  5
17B96
330
1656B
100
AcDbEntity
  8
寸法
 62
     0
 48
50.0
370
    -2
100
AcDbLine
 10
7423.887444780699
 20
10156.31085581438
 30
0.0
 11
7423.887444780699
 21
6796.310855814365
 31
0.0
  0
INSERT
  5
17B97
330
1656B
100
AcDbEntity
  8
寸法
 62
     0
 48
50.0
370
    -2
100
AcDbBlockReference
  2
_DOTSMALL
 10
7423.887444780699
 20
10156.31085581438
 30
0.0
 41
100.0
 42
100.0
 43
100.0
 50
90.0
  0
INSERT
  5
17B98
330
1656B
100
AcDbEntity
  8
寸法
 62
     0
 48
50.0
370
    -2
100
AcDbBlockReference
  2
_DOTSMALL
 10
7423.887444780699
 20
6796.310855814365
 30
0.0
 41
100.0
 42
100.0
 43
100.0
 50
270.0
  0
MTEXT
  5
17B99
330
1656B
100
AcDbEntity
  8
寸法
 62
     7
 48
50.0
100
AcDbMText
 10
7323.875633757078
 20
8476.310855814373
 30
0.0
 40
120.0
 41
0.0
 71
     5
 72
     1
  1
\A1;8X420=3360
  7
STYLE1
 11
0.0000000000000001
 21
1.0
 31
0.0
 73
     1
 44
1.0
1001
ACAD
1000
MTEXTBEGIN
1070
    73
1070
     1
1070
    44
1040
1.0
1070
    74
1070
     0
1000
MTEXTEND
  0
POINT
  5
17B9A
330
1656B
100
AcDbEntity
  8
DEFPOINTS
 62
     0
 48
50.0
100
AcDbPoint
 10
6776.461099046291
 20
10156.31085581438
 30
0.0
  0
POINT
  5
17B9B
330
1656B
100
AcDbEntity
  8
DEFPOINTS
 62
     0
 48
50.0
100
AcDbPoint
 10
6776.461099046263
 20
6796.310855814365
 30
0.0
  0
POINT
  5
17B9C
330
1656B
100
AcDbEntity
  8
DEFPOINTS
 62
     0
 48
50.0
100
AcDbPoint
 10
7423.887444780699
 20
6796.310855814365
 30
0.0
  0
ENDBLK
  5
16711
330
1656B
100
AcDbEntity
  8
0
 48
50.0
100
AcDbBlockEnd
  0
BLOCK
  5
1665C
330
1658F
100
AcDbEntity
  8
0
 48
50.0
100
AcDbBlockBegin
  2
*D3
 70
     1
 10
0.0
 20
0.0
 30
0.0
  3
*D3
  1

  0
LINE
  5
17B8C
330
1658F
100
AcDbEntity
  8
寸法
 62
     0
 48
50.0
370
    -2
100
AcDbLine
 10
4669.461099046284
 20
6747.310855814276
 30
0.0
 11
4669.461099046284
 21
6146.880085048113
 31
0.0
  0
LINE
  5
17B8D
330
1658F
100
AcDbEntity
  8
寸法
 62
     0
 48
50.0
370
    -2
100
AcDbLine
 10
6673.461099046264
 20
6206.880085048113
 30
0.0
 11
4669.461099046284
 21
6206.880085048113
 31
0.0
  0
INSERT
  5
17B8E
330
1658F
100
AcDbEntity
  8
寸法
 62
     0
 48
50.0
370
    -2
100
AcDbBlockReference
  2
_DOTSMALL
 10
6673.461099046264
 20
6206.880085048113
 30
0.0
 41
100.0
 42
100.0
 43
100.0
  0
INSERT
  5
17B8F
330
1658F
100
AcDbEntity
  8
寸法
 62
     0
 48
50.0
370
    -2
100
AcDbBlockReference
  2
_DOTSMALL
 10
4669.461099046284
 20
6206.880085048113
 30
0.0
 41
100.0
 42
100.0
 43
100.0
 50
180.0
  0
MTEXT
  5
17B90
330
1658F
100
AcDbEntity
  8
寸法
 62
     7
 48
50.0
100
AcDbMText
 10
5671.461099046275
 20
6306.891896071735
 30
0.0
 40
120.0
 41
0.0
 71
     5
 72
     1
  1
\A1;有効開口部間口 2004
  7
STYLE1
 73
     1
 44
1.0
1001
ACAD
1000
MTEXTBEGIN
1070
    73
1070
     1
1070
    44
1040
1.0
1070
    74
1070
     0
1000
MTEXTEND
  0
POINT
  5
17B91
330
1658F
100
AcDbEntity
  8
DEFPOINTS
 62
     0
 48
50.0
100
AcDbPoint
 10
6673.461099046264
 20
6767.310855814277
 30
0.0
  0
POINT
  5
17B92
330
1658F
100
AcDbEntity
  8
DEFPOINTS
 62
     0
 48
50.0
100
AcDbPoint
 10
4669.461099046284
 20
6767.310855814277
 30
0.0
  0
POINT
  5
17B93
330
1658F
100
AcDbEntity
  8
DEFPOINTS
 62
     0
 48
50.0
100
AcDbPoint
 10
4669.461099046284
 20
6206.880085048113
 30
0.0
  0
ENDBLK
  5
16665
330
1658F
100
AcDbEntity
  8
0
 48
50.0
100
AcDbBlockEnd
  0
BLOCK
  5
16666
330
1659A
100
AcDbEntity
  8
0
 48
50.0
100
AcDbBlockBegin
  2
*D4
 70
     1
 10
0.0
 20
0.0
 30
0.0
  3
*D4
  1

  0
LINE
  5
17B83
330
1659A
100
AcDbEntity
  8
寸法
 62
     0
 48
50.0
370
    -2
100
AcDbLine
 10
4566.461099046284
 20
6721.310855814206
 30
0.0
 11
4566.461099046284
 21
5860.707089457239
 31
0.0
  0
LINE
  5
17B84
330
1659A
100
AcDbEntity
  8
寸法
 62
     0
 48
50.0
370
    -2
100
AcDbLine
 10
6776.461099046263
 20
6721.310855814332
 30
0.0
 11
6776.461099046263
 21
5860.707089457239
 31
0.0
  0
LINE
  5
17B85
330
1659A
100
AcDbEntity
  8
寸法
 62
     0
 48
50.0
370
    -2
100
AcDbLine
 10
4566.461099046284
 20
5920.707089457239
 30
0.0
 11
6776.461099046263
 21
5920.707089457239
 31
0.0
  0
INSERT
  5
17B86
330
1659A
100
AcDbEntity
  8
寸法
 62
     0
 48
50.0
370
    -2
100
AcDbBlockReference
  2
_DOTSMALL
 10
4566.461099046284
 20
5920.707089457239
 30
0.0
 41
100.0
 42
100.0
 43
100.0
 50
180.0
  0
INSERT
  5
17B87
330
1659A
100
AcDbEntity
  8
寸法
 62
     0
 48
50.0
370
    -2
100
AcDbBlockReference
  2
_DOTSMALL
 10
6776.461099046263
 20
5920.707089457239
 30
0.0
 41
100.0
 42
100.0
 43
100.0
  0
MTEXT
  5
17B88
330
1659A
100
AcDbEntity
  8
寸法
 62
     7
 48
50.0
100
AcDbMText
 10
5671.461099046275
 20
6020.718900480861
 30
0.0
 40
120.0
 41
0.0
 71
     5
 72
     1
  1
\A1;2210
  7
STYLE1
 73
     1
 44
1.0
1001
ACAD
1000
MTEXTBEGIN
1070
    73
1070
     1
1070
    44
1040
1.0
1070
    74
1070
     0
1000
MTEXTEND
  0
POINT
  5
17B89
330
1659A
100
AcDbEntity
  8
DEFPOINTS
 62
     0
 48
50.0
100
AcDbPoint
 10
4566.461099046284
 20
6741.310855814205
 30
0.0
  0
POINT
  5
17B8A
330
1659A
100
AcDbEntity
  8
DEFPOINTS
 62
     0
 48
50.0
100
AcDbPoint
 10
6776.461099046263
 20
6741.310855814332
 30
0.0
  0
POINT
  5
17B8B
330
1659A
100
AcDbEntity
  8
DEFPOINTS
 62
     0
 48
50.0
100
AcDbPoint
 10
6776.461099046263
 20
5920.707089457239
 30
0.0
  0
ENDBLK
  5
16670
330
1659A
100
AcDbEntity
  8
0
 48
50.0
100
AcDbBlockEnd
  0
BLOCK
  5
16671
330
165A6
100
AcDbEntity
  8
0
 48
50.0
100
AcDbBlockBegin
  2
*D5
 70
     1
 10
0.0
 20
0.0
 30
0.0
  3
*D5
  1

  0
LINE
  5
17B78
330
165A6
100
AcDbEntity
  8
寸法
 62
     0
 48
50.0
370
    -2
100
AcDbLine
 10
4621.461099046281
 20
6721.310855814279
 30
0.0
 11
4621.461099046281
 21
6146.880085048113
 31
0.0
  0
LINE
  5
17B79
330
165A6
100
AcDbEntity
  8
寸法
 62
     0
 48
50.0
370
    -2
100
AcDbLine
 10
4566.461099046284
 20
6721.310855814272
 30
0.0
 11
4566.461099046284
 21
6146.880085048113
 31
0.0
  0
LINE
  5
17B7A
330
165A6
100
AcDbEntity
  8
寸法
 62
     0
 48
50.0
370
    -2
100
AcDbLine
 10
4621.461099046281
 20
6206.880085048113
 30
0.0
 11
4721.461099046281
 21
6206.880085048113
 31
0.0
  0
LINE
  5
17B7B
330
165A6
100
AcDbEntity
  8
寸法
 62
     0
 48
50.0
370
    -2
100
AcDbLine
 10
4566.461099046284
 20
6206.880085048113
 30
0.0
 11
4149.490536297807
 21
6206.880085048113
 31
0.0
  0
LINE
  5
17B7C
330
165A6
100
AcDbEntity
  8
寸法
 62
     0
 48
50.0
370
    -2
100
AcDbLine
 10
4621.461099046281
 20
6206.880085048113
 30
0.0
 11
4566.461099046284
 21
6206.880085048113
 31
0.0
  0
INSERT
  5
17B7D
330
165A6
100
AcDbEntity
  8
寸法
 62
     0
 48
50.0
370
    -2
100
AcDbBlockReference
  2
_DOTSMALL
 10
4621.461099046281
 20
6206.880085048113
 30
0.0
 41
100.0
 42
100.0
 43
100.0
 50
180.0
  0
INSERT
  5
17B7E
330
165A6
100
AcDbEntity
  8
寸法
 62
     0
 48
50.0
370
    -2
100
AcDbBlockReference
  2
_DOTSMALL
 10
4566.461099046284
 20
6206.880085048113
 30
0.0
 41
100.0
 42
100.0
 43
100.0
  0
MTEXT
  5
17B7F
330
165A6
100
AcDbEntity
  8
寸法
 62
     7
 48
50.0
100
AcDbMText
 10
4257.975817672046
 20
6306.880085048113
 30
0.0
 40
120.0
 41
0.0
 71
     5
 72
     1
  1
\A1;55
  7
STYLE1
 73
     1
 44
1.0
1001
ACAD
1000
MTEXTBEGIN
1070
    73
1070
     1
1070
    44
1040
1.0
1070
    74
1070
     0
1000
MTEXTEND
  0
POINT
  5
17B80
330
165A6
100
AcDbEntity
  8
DEFPOINTS
 62
     0
 48
50.0
100
AcDbPoint
 10
4621.461099046281
 20
6741.310855814275
 30
0.0
  0
POINT
  5
17B81
330
165A6
100
AcDbEntity
  8
DEFPOINTS
 62
     0
 48
50.0
100
AcDbPoint
 10
4566.461099046284
 20
6741.310855814274
 30
0.0
  0
POINT
  5
17B82
330
165A6
100
AcDbEntity
  8
DEFPOINTS
 62
     0
 48
50.0
100
AcDbPoint
 10
4566.461099046284
 20
6206.880085048113
 30
0.0
  0
ENDBLK
  5
1667D
330
165A6
100
AcDbEntity
  8
0
 48
50.0
100
AcDbBlockEnd
  0
BLOCK
  5
1667E
330
165B4
100
AcDbEntity
  8
0
 48
50.0
100
AcDbBlockBegin
  2
*D6
 70
     1
 10
0.0
 20
0.0
 30
0.0
  3
*D6
  1

  0
LINE
  5
17B6D
330
165B4
100
AcDbEntity
  8
寸法
 62
     0
 48
50.0
370
    -2
100
AcDbLine
 10
4669.461099046284
 20
6747.310855814276
 30
0.0
 11
4669.461099046284
 21
6146.880085048113
 31
0.0
  0
LINE
  5
17B6E
330
165B4
100
AcDbEntity
  8
寸法
 62
     0
 48
50.0
370
    -2
100
AcDbLine
 10
4621.461099046281
 20
6721.310855814279
 30
0.0
 11
4621.461099046281
 21
6146.880085048113
 31
0.0
  0
LINE
  5
17B6F
330
165B4
100
AcDbEntity
  8
寸法
 62
     0
 48
50.0
370
    -2
100
AcDbLine
 10
4669.461099046284
 20
6206.880085048113
 30
0.0
 11
4769.461099046284
 21
6206.880085048113
 31
0.0
  0
LINE
  5
17B70
330
165B4
100
AcDbEntity
  8
寸法
 62
     0
 48
50.0
370
    -2
100
AcDbLine
 10
4621.461099046281
 20
6206.880085048113
 30
0.0
 11
4521.46109904628
 21
6206.880085048113
 31
0.0
  0
MTEXT
  5
17B71
330
165B4
100
AcDbEntity
  8
寸法
 62
     7
 48
50.0
100
AcDbMText
 10
4782.363070046342
 20
6306.880085048113
 30
0.0
 40
120.0
 41
0.0
 71
     5
 72
     1
  1
\A1;48
  7
STYLE1
 73
     1
 44
1.0
1001
ACAD
1000
MTEXTBEGIN
1070
    73
1070
     1
1070
    44
1040
1.0
1070
    74
1070
     0
1000
MTEXTEND
  0
LINE
  5
17B72
330
165B4
100
AcDbEntity
  8
寸法
 62
     0
 48
50.0
370
    -2
100
AcDbLine
 10
4669.461099046284
 20
6206.880085048113
 30
0.0
 11
4621.461099046281
 21
6206.880085048113
 31
0.0
  0
INSERT
  5
17B73
330
165B4
100
AcDbEntity
  8
寸法
 62
     0
 48
50.0
370
    -2
100
AcDbBlockReference
  2
_DOTSMALL
 10
4669.461099046284
 20
6206.880085048113
 30
0.0
 41
100.0
 42
100.0
 43
100.0
 50
180.0
  0
INSERT
  5
17B74
330
165B4
100
AcDbEntity
  8
寸法
 62
     0
 48
50.0
370
    -2
100
AcDbBlockReference
  2
_DOTSMALL
 10
4621.461099046281
 20
6206.880085048113
 30
0.0
 41
100.0
 42
100.0
 43
100.0
  0
POINT
  5
17B75
330
165B4
100
AcDbEntity
  8
DEFPOINTS
 62
     0
 48
50.0
100
AcDbPoint
 10
4669.461099046284
 20
6767.310855814277
 30
0.0
  0
POINT
  5
17B76
330
165B4
100
AcDbEntity
  8
DEFPOINTS
 62
     0
 48
50.0
100
AcDbPoint
 10
4621.461099046281
 20
6741.310855814275
 30
0.0
  0
POINT
  5
17B77
330
165B4
100
AcDbEntity
  8
DEFPOINTS
 62
     0
 48
50.0
100
AcDbPoint
 10
4621.461099046281
 20
6206.880085048113
 30
0.0
  0
ENDBLK
  5
1668B
330
165B4
100
AcDbEntity
  8
0
 48
50.0
100
AcDbBlockEnd
  0
BLOCK
  5
1668C
330
165C3
100
AcDbEntity
  8
0
 48
50.0
100
AcDbBlockBegin
  2
*D7
 70
     1
 10
0.0
 20
0.0
 30
0.0
  3
*D7
  1

  0
LINE
  5
17B62
330
165C3
100
AcDbEntity
  8
寸法
 62
     0
 48
50.0
370
    -2
100
AcDbLine
 10
6721.461099046267
 20
6721.310855814365
 30
0.0
 11
6721.461099046267
 21
6146.880085048113
 31
0.0
  0
LINE
  5
17B63
330
165C3
100
AcDbEntity
  8
寸法
 62
     0
 48
50.0
370
    -2
100
AcDbLine
 10
6673.461099046264
 20
6747.310855814278
 30
0.0
 11
6673.461099046264
 21
6146.880085048113
 31
0.0
  0
LINE
  5
17B64
330
165C3
100
AcDbEntity
  8
寸法
 62
     0
 48
50.0
370
    -2
100
AcDbLine
 10
6721.461099046267
 20
6206.880085048113
 30
0.0
 11
6821.461099046267
 21
6206.880085048113
 31
0.0
  0
LINE
  5
17B65
330
165C3
100
AcDbEntity
  8
寸法
 62
     0
 48
50.0
370
    -2
100
AcDbLine
 10
6673.461099046264
 20
6206.880085048113
 30
0.0
 11
6573.461099046266
 21
6206.880085048113
 31
0.0
  0
MTEXT
  5
17B66
330
165C3
100
AcDbEntity
  8
寸法
 62
     7
 48
50.0
100
AcDbMText
 10
6562.498201397518
 20
6306.880085048113
 30
0.0
 40
120.0
 41
0.0
 71
     5
 72
     1
  1
\A1;48
  7
STYLE1
 73
     1
 44
1.0
1001
ACAD
1000
MTEXTBEGIN
1070
    73
1070
     1
1070
    44
1040
1.0
1070
    74
1070
     0
1000
MTEXTEND
  0
LINE
  5
17B67
330
165C3
100
AcDbEntity
  8
寸法
 62
     0
 48
50.0
370
    -2
100
AcDbLine
 10
6721.461099046267
 20
6206.880085048113
 30
0.0
 11
6673.461099046264
 21
6206.880085048113
 31
0.0
  0
INSERT
  5
17B68
330
165C3
100
AcDbEntity
  8
寸法
 62
     0
 48
50.0
370
    -2
100
AcDbBlockReference
  2
_DOTSMALL
 10
6721.461099046267
 20
6206.880085048113
 30
0.0
 41
100.0
 42
100.0
 43
100.0
 50
180.0
  0
INSERT
  5
17B69
330
165C3
100
AcDbEntity
  8
寸法
 62
     0
 48
50.0
370
    -2
100
AcDbBlockReference
  2
_DOTSMALL
 10
6673.461099046264
 20
6206.880085048113
 30
0.0
 41
100.0
 42
100.0
 43
100.0
  0
POINT
  5
17B6A
330
165C3
100
AcDbEntity
  8
DEFPOINTS
 62
     0
 48
50.0
100
AcDbPoint
 10
6721.461099046267
 20
6741.310855814365
 30
0.0
  0
POINT
  5
17B6B
330
165C3
100
AcDbEntity
  8
DEFPOINTS
 62
     0
 48
50.0
100
AcDbPoint
 10
6673.461099046264
 20
6767.310855814277
 30
0.0
  0
POINT
  5
17B6C
330
165C3
100
AcDbEntity
  8
DEFPOINTS
 62
     0
 48
50.0
100
AcDbPoint
 10
6673.461099046264
 20
6206.880085048113
 30
0.0
  0
ENDBLK
  5
16699
330
165C3
100
AcDbEntity
  8
0
 48
50.0
100
AcDbBlockEnd
  0
BLOCK
  5
1669A
330
165D2
100
AcDbEntity
  8
0
 48
50.0
100
AcDbBlockBegin
  2
*D8
 70
     1
 10
0.0
 20
0.0
 30
0.0
  3
*D8
  1

  0
LINE
  5
17B57
330
165D2
100
AcDbEntity
  8
寸法
 62
     0
 48
50.0
370
    -2
100
AcDbLine
 10
6776.461099046263
 20
6721.310855814369
 30
0.0
 11
6776.461099046263
 21
6146.880085048113
 31
0.0
  0
LINE
  5
17B58
330
165D2
100
AcDbEntity
  8
寸法
 62
     0
 48
50.0
370
    -2
100
AcDbLine
 10
6721.461099046267
 20
6721.310855814365
 30
0.0
 11
6721.461099046267
 21
6146.880085048113
 31
0.0
  0
LINE
  5
17B59
330
165D2
100
AcDbEntity
  8
寸法
 62
     0
 48
50.0
370
    -2
100
AcDbLine
 10
6721.461099046267
 20
6206.880085048114
 30
0.0
 11
6621.461099046268
 21
6206.880085048114
 31
0.0
  0
LINE
  5
17B5A
330
165D2
100
AcDbEntity
  8
寸法
 62
     0
 48
50.0
370
    -2
100
AcDbLine
 10
6776.461099046263
 20
6206.880085048114
 30
0.0
 11
7193.431661794743
 21
6206.880085048114
 31
0.0
  0
LINE
  5
17B5B
330
165D2
100
AcDbEntity
  8
寸法
 62
     0
 48
50.0
370
    -2
100
AcDbLine
 10
6721.461099046267
 20
6206.880085048114
 30
0.0
 11
6776.461099046263
 21
6206.880085048114
 31
0.0
  0
INSERT
  5
17B5C
330
165D2
100
AcDbEntity
  8
寸法
 62
     0
 48
50.0
370
    -2
100
AcDbBlockReference
  2
_DOTSMALL
 10
6721.461099046267
 20
6206.880085048114
 30
0.0
 41
100.0
 42
100.0
 43
100.0
  0
INSERT
  5
17B5D
330
165D2
100
AcDbEntity
  8
寸法
 62
     0
 48
50.0
370
    -2
100
AcDbBlockReference
  2
_DOTSMALL
 10
6776.461099046263
 20
6206.880085048114
 30
0.0
 41
100.0
 42
100.0
 43
100.0
 50
180.0
  0
MTEXT
  5
17B5E
330
165D2
100
AcDbEntity
  8
寸法
 62
     7
 48
50.0
100
AcDbMText
 10
7084.946380420504
 20
6306.880085048113
 30
0.0
 40
120.0
 41
0.0
 71
     5
 72
     1
  1
\A1;55
  7
STYLE1
 73
     1
 44
1.0
1001
ACAD
1000
MTEXTBEGIN
1070
    73
1070
     1
1070
    44
1040
1.0
1070
    74
1070
     0
1000
MTEXTEND
  0
POINT
  5
17B5F
330
165D2
100
AcDbEntity
  8
DEFPOINTS
 62
     0
 48
50.0
100
AcDbPoint
 10
6776.461099046263
 20
6741.310855814369
 30
0.0
  0
POINT
  5
17B60
330
165D2
100
AcDbEntity
  8
DEFPOINTS
 62
     0
 48
50.0
100
AcDbPoint
 10
6721.461099046267
 20
6741.310855814365
 30
0.0
  0
POINT
  5
17B61
330
165D2
100
AcDbEntity
  8
DEFPOINTS
 62
     0
 48
50.0
100
AcDbPoint
 10
6721.461099046267
 20
6206.880085048114
 30
0.0
  0
ENDBLK
  5
166A6
330
165D2
100
AcDbEntity
  8
0
 48
50.0
100
AcDbBlockEnd
  0
BLOCK
  5
166A7
330
165E0
100
AcDbEntity
  8
0
 48
50.0
100
AcDbBlockBegin
  2
*D9
 70
     1
 10
0.0
 20
0.0
 30
0.0
  3
*D9
  1

  0
LINE
  5
17B4C
330
165E0
100
AcDbEntity
  8
寸法
 62
     0
 48
50.0
370
    -2
100
AcDbLine
 10
6796.461099046266
 20
6796.310855814365
 30
0.0
 11
7483.887444780677
 21
6796.310855814365
 31
0.0
  0
LINE
  5
17B4D
330
165E0
100
AcDbEntity
  8
寸法
 62
     0
 48
50.0
370
    -2
100
AcDbLine
 10
6796.461099046266
 20
6741.310855814369
 30
0.0
 11
7483.887444780677
 21
6741.310855814369
 31
0.0
  0
LINE
  5
17B4E
330
165E0
100
AcDbEntity
  8
寸法
 62
     0
 48
50.0
370
    -2
100
AcDbLine
 10
7423.887444780678
 20
6796.310855814365
 30
0.0
 11
7423.887444780678
 21
6896.310855814364
 31
0.0
  0
LINE
  5
17B4F
330
165E0
100
AcDbEntity
  8
寸法
 62
     0
 48
50.0
370
    -2
100
AcDbLine
 10
7423.887444780678
 20
6741.310855814369
 30
0.0
 11
7423.887444780678
 21
6254.964107535267
 31
0.0
  0
LINE
  5
17B50
330
165E0
100
AcDbEntity
  8
寸法
 62
     0
 48
50.0
370
    -2
100
AcDbLine
 10
7423.887444780678
 20
6796.310855814365
 30
0.0
 11
7423.887444780678
 21
6741.310855814369
 31
0.0
  0
INSERT
  5
17B51
330
165E0
100
AcDbEntity
  8
寸法
 62
     0
 48
50.0
370
    -2
100
AcDbBlockReference
  2
_DOTSMALL
 10
7423.887444780678
 20
6796.310855814365
 30
0.0
 41
100.0
 42
100.0
 43
100.0
 50
270.0
  0
INSERT
  5
17B52
330
165E0
100
AcDbEntity
  8
寸法
 62
     0
 48
50.0
370
    -2
100
AcDbBlockReference
  2
_DOTSMALL
 10
7423.887444780678
 20
6741.310855814369
 30
0.0
 41
100.0
 42
100.0
 43
100.0
 50
90.0
  0
MTEXT
  5
17B53
330
165E0
100
AcDbEntity
  8
寸法
 62
     7
 48
50.0
100
AcDbMText
 10
7323.887444780678
 20
6363.449388909507
 30
0.0
 40
120.0
 41
0.0
 71
     5
 72
     1
  1
\A1;55
  7
STYLE1
 11
0.0000000000000001
 21
1.0
 31
0.0
 73
     1
 44
1.0
1001
ACAD
1000
MTEXTBEGIN
1070
    73
1070
     1
1070
    44
1040
1.0
1070
    74
1070
     0
1000
MTEXTEND
  0
POINT
  5
17B54
330
165E0
100
AcDbEntity
  8
DEFPOINTS
 62
     0
 48
50.0
100
AcDbPoint
 10
6776.461099046263
 20
6796.310855814365
 30
0.0
  0
POINT
  5
17B55
330
165E0
100
AcDbEntity
  8
DEFPOINTS
 62
     0
 48
50.0
100
AcDbPoint
 10
6776.461099046263
 20
6741.310855814369
 30
0.0
  0
POINT
  5
17B56
330
165E0
100
AcDbEntity
  8
DEFPOINTS
 62
     0
 48
50.0
100
AcDbPoint
 10
7423.887444780678
 20
6741.310855814369
 30
0.0
  0
ENDBLK
  5
166B3
330
165E0
100
AcDbEntity
  8
0
 48
50.0
100
AcDbBlockEnd
  0
BLOCK
  5
166B4
330
165EE
100
AcDbEntity
  8
0
 48
50.0
100
AcDbBlockBegin
  2
*D10
 70
     1
 10
0.0
 20
0.0
 30
0.0
  3
*D10
  1

  0
LINE
  5
17B43
330
165EE
100
AcDbEntity
  8
寸法
 62
     0
 48
50.0
370
    -2
100
AcDbLine
 10
4621.461099046291
 20
10231.31085581428
 30
0.0
 11
4621.461099046291
 21
10487.11907543938
 31
0.0
  0
LINE
  5
17B44
330
165EE
100
AcDbEntity
  8
寸法
 62
     0
 48
50.0
370
    -2
100
AcDbLine
 10
6721.461099046291
 20
10231.31085581437
 30
0.0
 11
6721.461099046291
 21
10487.11907543938
 31
0.0
  0
LINE
  5
17B45
330
165EE
100
AcDbEntity
  8
寸法
 62
     0
 48
50.0
370
    -2
100
AcDbLine
 10
4621.461099046291
 20
10427.11907543938
 30
0.0
 11
6721.461099046291
 21
10427.11907543938
 31
0.0
  0
INSERT
  5
17B46
330
165EE
100
AcDbEntity
  8
寸法
 62
     0
 48
50.0
370
    -2
100
AcDbBlockReference
  2
_DOTSMALL
 10
4621.461099046291
 20
10427.11907543938
 30
0.0
 41
100.0
 42
100.0
 43
100.0
 50
180.0
  0
INSERT
  5
17B47
330
165EE
100
AcDbEntity
  8
寸法
 62
     0
 48
50.0
370
    -2
100
AcDbBlockReference
  2
_DOTSMALL
 10
6721.461099046291
 20
10427.11907543938
 30
0.0
 41
100.0
 42
100.0
 43
100.0
  0
MTEXT
  5
17B48
330
165EE
100
AcDbEntity
  8
寸法
 62
     7
 48
50.0
100
AcDbMText
 10
5671.461099046291
 20
10527.130886463
 30
0.0
 40
120.0
 41
0.0
 71
     5
 72
     1
  1
\A1;5X420=2100
  7
STYLE1
 73
     1
 44
1.0
1001
ACAD
1000
MTEXTBEGIN
1070
    73
1070
     1
1070
    44
1040
1.0
1070
    74
1070
     0
1000
MTEXTEND
  0
POINT
  5
17B49
330
165EE
100
AcDbEntity
  8
DEFPOINTS
 62
     0
 48
50.0
100
AcDbPoint
 10
4621.461099046291
 20
10211.31085581428
 30
0.0
  0
POINT
  5
17B4A
330
165EE
100
AcDbEntity
  8
DEFPOINTS
 62
     0
 48
50.0
100
AcDbPoint
 10
6721.461099046291
 20
10211.31085581437
 30
0.0
  0
POINT
  5
17B4B
330
165EE
100
AcDbEntity
  8
DEFPOINTS
 62
     0
 48
50.0
100
AcDbPoint
 10
6721.461099046291
 20
10427.11907543938
 30
0.0
  0
ENDBLK
  5
166BE
330
165EE
100
AcDbEntity
  8
0
 48
50.0
100
AcDbBlockEnd
  0
BLOCK
  5
166BF
330
165FA
100
AcDbEntity
  8
0
 48
50.0
100
AcDbBlockBegin
  2
*D11
 70
     1
 10
0.0
 20
0.0
 30
0.0
  3
*D11
  1

  0
LINE
  5
17B38
330
165FA
100
AcDbEntity
  8
寸法
 62
     0
 48
50.0
370
    -2
100
AcDbLine
 10
4566.461099046256
 20
10231.31085581428
 30
0.0
 11
4566.461099046256
 21
10487.11907543926
 31
0.0
  0
LINE
  5
17B39
330
165FA
100
AcDbEntity
  8
寸法
 62
     0
 48
50.0
370
    -2
100
AcDbLine
 10
4621.461099046291
 20
10231.31085581428
 30
0.0
 11
4621.461099046291
 21
10487.11907543926
 31
0.0
  0
LINE
  5
17B3A
330
165FA
100
AcDbEntity
  8
寸法
 62
     0
 48
50.0
370
    -2
100
AcDbLine
 10
4621.461099046291
 20
10427.11907543926
 30
0.0
 11
4721.461099046289
 21
10427.11907543926
 31
0.0
  0
LINE
  5
17B3B
330
165FA
100
AcDbEntity
  8
寸法
 62
     0
 48
50.0
370
    -2
100
AcDbLine
 10
4566.461099046256
 20
10427.11907543926
 30
0.0
 11
4149.490536297778
 21
10427.11907543926
 31
0.0
  0
LINE
  5
17B3C
330
165FA
100
AcDbEntity
  8
寸法
 62
     0
 48
50.0
370
    -2
100
AcDbLine
 10
4621.461099046291
 20
10427.11907543926
 30
0.0
 11
4566.461099046256
 21
10427.11907543926
 31
0.0
  0
INSERT
  5
17B3D
330
165FA
100
AcDbEntity
  8
寸法
 62
     0
 48
50.0
370
    -2
100
AcDbBlockReference
  2
_DOTSMALL
 10
4621.461099046291
 20
10427.11907543926
 30
0.0
 41
100.0
 42
100.0
 43
100.0
 50
180.0
  0
INSERT
  5
17B3E
330
165FA
100
AcDbEntity
  8
寸法
 62
     0
 48
50.0
370
    -2
100
AcDbBlockReference
  2
_DOTSMALL
 10
4566.461099046256
 20
10427.11907543926
 30
0.0
 41
100.0
 42
100.0
 43
100.0
  0
MTEXT
  5
17B3F
330
165FA
100
AcDbEntity
  8
寸法
 62
     7
 48
50.0
100
AcDbMText
 10
4257.975817672017
 20
10527.11907543926
 30
0.0
 40
120.0
 41
0.0
 71
     5
 72
     1
  1
\A1;55
  7
STYLE1
 73
     1
 44
1.0
1001
ACAD
1000
MTEXTBEGIN
1070
    73
1070
     1
1070
    44
1040
1.0
1070
    74
1070
     0
1000
MTEXTEND
  0
POINT
  5
17B40
330
165FA
100
AcDbEntity
  8
DEFPOINTS
 62
     0
 48
50.0
100
AcDbPoint
 10
4566.461099046256
 20
10211.31085581428
 30
0.0
  0
POINT
  5
17B41
330
165FA
100
AcDbEntity
  8
DEFPOINTS
 62
     0
 48
50.0
100
AcDbPoint
 10
4621.461099046291
 20
10211.31085581428
 30
0.0
  0
POINT
  5
17B42
330
165FA
100
AcDbEntity
  8
DEFPOINTS
 62
     0
 48
50.0
100
AcDbPoint
 10
4621.461099046291
 20
10427.11907543926
 30
0.0
  0
ENDBLK
  5
166CB
330
165FA
100
AcDbEntity
  8
0
 48
50.0
100
AcDbBlockEnd
  0
BLOCK
  5
166CC
330
16608
100
AcDbEntity
  8
0
 48
50.0
100
AcDbBlockBegin
  2
*D12
 70
     1
 10
0.0
 20
0.0
 30
0.0
  3
*D12
  1

  0
LINE
  5
17B2D
330
16608
100
AcDbEntity
  8
寸法
 62
     0
 48
50.0
370
    -2
100
AcDbLine
 10
6796.461099046291
 20
10211.31085581437
 30
0.0
 11
7483.887444780702
 21
10211.31085581437
 31
0.0
  0
LINE
  5
17B2E
330
16608
100
AcDbEntity
  8
寸法
 62
     0
 48
50.0
370
    -2
100
AcDbLine
 10
6796.461099046291
 20
10156.31085581438
 30
0.0
 11
7483.887444780702
 21
10156.31085581438
 31
0.0
  0
LINE
  5
17B2F
330
16608
100
AcDbEntity
  8
寸法
 62
     0
 48
50.0
370
    -2
100
AcDbLine
 10
7423.887444780702
 20
10156.31085581438
 30
0.0
 11
7423.887444780702
 21
10056.31085581438
 31
0.0
  0
LINE
  5
17B30
330
16608
100
AcDbEntity
  8
寸法
 62
     0
 48
50.0
370
    -2
100
AcDbLine
 10
7423.887444780702
 20
10211.31085581437
 30
0.0
 11
7423.887444780703
 21
10628.28141856285
 31
0.0
  0
LINE
  5
17B31
330
16608
100
AcDbEntity
  8
寸法
 62
     0
 48
50.0
370
    -2
100
AcDbLine
 10
7423.887444780702
 20
10156.31085581438
 30
0.0
 11
7423.887444780702
 21
10211.31085581437
 31
0.0
  0
INSERT
  5
17B32
330
16608
100
AcDbEntity
  8
寸法
 62
     0
 48
50.0
370
    -2
100
AcDbBlockReference
  2
_DOTSMALL
 10
7423.887444780702
 20
10156.31085581438
 30
0.0
 41
100.0
 42
100.0
 43
100.0
 50
90.0
  0
INSERT
  5
17B33
330
16608
100
AcDbEntity
  8
寸法
 62
     0
 48
50.0
370
    -2
100
AcDbBlockReference
  2
_DOTSMALL
 10
7423.887444780702
 20
10211.31085581437
 30
0.0
 41
100.0
 42
100.0
 43
100.0
 50
270.0
  0
MTEXT
  5
17B34
330
16608
100
AcDbEntity
  8
寸法
 62
     7
 48
50.0
100
AcDbMText
 10
7323.887444780701
 20
10519.79613718861
 30
0.0
 40
120.0
 41
0.0
 71
     5
 72
     1
  1
\A1;55
  7
STYLE1
 11
0.0000000000000001
 21
1.0
 31
0.0
 73
     1
 44
1.0
1001
ACAD
1000
MTEXTBEGIN
1070
    73
1070
     1
1070
    44
1040
1.0
1070
    74
1070
     0
1000
MTEXTEND
  0
POINT
  5
17B35
330
16608
100
AcDbEntity
  8
DEFPOINTS
 62
     0
 48
50.0
100
AcDbPoint
 10
6776.461099046291
 20
10211.31085581437
 30
0.0
  0
POINT
  5
17B36
330
16608
100
AcDbEntity
  8
DEFPOINTS
 62
     0
 48
50.0
100
AcDbPoint
 10
6776.461099046291
 20
10156.31085581438
 30
0.0
  0
POINT
  5
17B37
330
16608
100
AcDbEntity
  8
DEFPOINTS
 62
     0
 48
50.0
100
AcDbPoint
 10
7423.887444780702
 20
10156.31085581438
 30
0.0
  0
ENDBLK
  5
166D8
330
16608
100
AcDbEntity
  8
0
 48
50.0
100
AcDbBlockEnd
  0
BLOCK
  5
166D9
330
16616
100
AcDbEntity
  8
0
 48
50.0
100
AcDbBlockBegin
  2
*D13
 70
     1
 10
0.0
 20
0.0
 30
0.0
  3
*D13
  1

  0
LINE
  5
17B22
330
16616
100
AcDbEntity
  8
寸法
 62
     0
 48
50.0
370
    -2
100
AcDbLine
 10
6721.461099046291
 20
10231.31085581437
 30
0.0
 11
6721.461099046291
 21
10487.11907543936
 31
0.0
  0
LINE
  5
17B23
330
16616
100
AcDbEntity
  8
寸法
 62
     0
 48
50.0
370
    -2
100
AcDbLine
 10
6776.461099046291
 20
10231.31085581437
 30
0.0
 11
6776.461099046291
 21
10487.11907543936
 31
0.0
  0
LINE
  5
17B24
330
16616
100
AcDbEntity
  8
寸法
 62
     0
 48
50.0
370
    -2
100
AcDbLine
 10
6721.461099046291
 20
10427.11907543936
 30
0.0
 11
6621.461099046292
 21
10427.11907543936
 31
0.0
  0
LINE
  5
17B25
330
16616
100
AcDbEntity
  8
寸法
 62
     0
 48
50.0
370
    -2
100
AcDbLine
 10
6776.461099046291
 20
10427.11907543936
 30
0.0
 11
7193.431661794768
 21
10427.11907543936
 31
0.0
  0
LINE
  5
17B26
330
16616
100
AcDbEntity
  8
寸法
 62
     0
 48
50.0
370
    -2
100
AcDbLine
 10
6721.461099046291
 20
10427.11907543936
 30
0.0
 11
6776.461099046291
 21
10427.11907543936
 31
0.0
  0
INSERT
  5
17B27
330
16616
100
AcDbEntity
  8
寸法
 62
     0
 48
50.0
370
    -2
100
AcDbBlockReference
  2
_DOTSMALL
 10
6721.461099046291
 20
10427.11907543936
 30
0.0
 41
100.0
 42
100.0
 43
100.0
  0
INSERT
  5
17B28
330
16616
100
AcDbEntity
  8
寸法
 62
     0
 48
50.0
370
    -2
100
AcDbBlockReference
  2
_DOTSMALL
 10
6776.461099046291
 20
10427.11907543936
 30
0.0
 41
100.0
 42
100.0
 43
100.0
 50
180.0
  0
MTEXT
  5
17B29
330
16616
100
AcDbEntity
  8
寸法
 62
     7
 48
50.0
100
AcDbMText
 10
7084.94638042053
 20
10527.11907543936
 30
0.0
 40
120.0
 41
0.0
 71
     5
 72
     1
  1
\A1;55
  7
STYLE1
 73
     1
 44
1.0
1001
ACAD
1000
MTEXTBEGIN
1070
    73
1070
     1
1070
    44
1040
1.0
1070
    74
1070
     0
1000
MTEXTEND
  0
POINT
  5
17B2A
330
16616
100
AcDbEntity
  8
DEFPOINTS
 62
     0
 48
50.0
100
AcDbPoint
 10
6721.461099046291
 20
10211.31085581437
 30
0.0
  0
POINT
  5
17B2B
330
16616
100
AcDbEntity
  8
DEFPOINTS
 62
     0
 48
50.0
100
AcDbPoint
 10
6776.461099046291
 20
10211.31085581437
 30
0.0
  0
POINT
  5
17B2C
330
16616
100
AcDbEntity
  8
DEFPOINTS
 62
     0
 48
50.0
100
AcDbPoint
 10
6776.461099046291
 20
10427.11907543936
 30
0.0
  0
ENDBLK
  5
166E5
330
16616
100
AcDbEntity
  8
0
 48
50.0
100
AcDbBlockEnd
  0
BLOCK
  5
1710A
330
17100
100
AcDbEntity
  8
0
 48
50.0
100
AcDbBlockBegin
  2
*D14
 70
     1
 10
0.0
 20
0.0
 30
0.0
  3
*D14
  1

  0
LINE
  5
18678
330
17100
100
AcDbEntity
  8
寸法
 62
     0
 48
50.0
370
    -2
100
AcDbLine
 10
6776.461099046288
 20
3918.141384512927
 30
0.0
 11
6776.461099046288
 21
4363.86765624483
 31
0.0
  0
LINE
  5
18679
330
17100
100
AcDbEntity
  8
寸法
 62
     0
 48
50.0
370
    -2
100
AcDbLine
 10
4566.461099046288
 20
3918.141384512928
 30
0.0
 11
4566.461099046288
 21
4363.86765624483
 31
0.0
  0
LINE
  5
1867A
330
17100
100
AcDbEntity
  8
寸法
 62
     0
 48
50.0
370
    -2
100
AcDbLine
 10
6776.461099046288
 20
4303.867656244831
 30
0.0
 11
4566.461099046288
 21
4303.867656244831
 31
0.0
  0
INSERT
  5
1867B
330
17100
100
AcDbEntity
  8
寸法
 62
     0
 48
50.0
370
    -2
100
AcDbBlockReference
  2
_DOTSMALL
 10
6776.461099046288
 20
4303.867656244831
 30
0.0
 41
100.0
 42
100.0
 43
100.0
  0
INSERT
  5
1867C
330
17100
100
AcDbEntity
  8
寸法
 62
     0
 48
50.0
370
    -2
100
AcDbBlockReference
  2
_DOTSMALL
 10
4566.461099046288
 20
4303.867656244831
 30
0.0
 41
100.0
 42
100.0
 43
100.0
 50
180.0
  0
MTEXT
  5
1867D
330
17100
100
AcDbEntity
  8
寸法
 62
     7
 48
50.0
100
AcDbMText
 10
5671.461099046285
 20
4403.879467268452
 30
0.0
 40
120.0
 41
0.0
 71
     5
 72
     1
  1
\A1;柱外寸法2210
  7
STYLE1
 73
     1
 44
1.0
1001
ACAD
1000
MTEXTBEGIN
1070
    73
1070
     1
1070
    44
1040
1.0
1070
    74
1070
     0
1000
MTEXTEND
  0
POINT
  5
1867E
330
17100
100
AcDbEntity
  8
DEFPOINTS
 62
     0
 48
50.0
100
AcDbPoint
 10
6776.461099046288
 20
3898.141384512928
 30
0.0
  0
POINT
  5
1867F
330
17100
100
AcDbEntity
  8
DEFPOINTS
 62
     0
 48
50.0
100
AcDbPoint
 10
4566.461099046288
 20
3898.141384512928
 30
0.0
  0
POINT
  5
18680
330
17100
100
AcDbEntity
  8
DEFPOINTS
 62
     0
 48
50.0
100
AcDbPoint
 10
4566.461099046288
 20
4303.867656244831
 30
0.0
  0
ENDBLK
  5
1710B
330
17100
100
AcDbEntity
  8
0
 48
50.0
100
AcDbBlockEnd
  0
BLOCK
  5
17116
330
1710C
100
AcDbEntity
  8
0
 48
50.0
100
AcDbBlockBegin
  2
*D15
 70
     1
 10
0.0
 20
0.0
 30
0.0
  3
*D15
  1

  0
LINE
  5
1866F
330
1710C
100
AcDbEntity
  8
寸法
 62
     0
 48
50.0
370
    -2
100
AcDbLine
 10
4516.461099046288
 20
3918.141384512927
 30
0.0
 11
4516.461099046288
 21
4563.776577458923
 31
0.0
  0
LINE
  5
18670
330
1710C
100
AcDbEntity
  8
寸法
 62
     0
 48
50.0
370
    -2
100
AcDbLine
 10
6826.461099046284
 20
3918.141384512925
 30
0.0
 11
6826.461099046284
 21
4563.776577458923
 31
0.0
  0
LINE
  5
18671
330
1710C
100
AcDbEntity
  8
寸法
 62
     0
 48
50.0
370
    -2
100
AcDbLine
 10
4516.461099046288
 20
4503.776577458922
 30
0.0
 11
6826.461099046284
 21
4503.776577458922
 31
0.0
  0
INSERT
  5
18672
330
1710C
100
AcDbEntity
  8
寸法
 62
     0
 48
50.0
370
    -2
100
AcDbBlockReference
  2
_DOTSMALL
 10
4516.461099046288
 20
4503.776577458922
 30
0.0
 41
100.0
 42
100.0
 43
100.0
 50
180.0
  0
INSERT
  5
18673
330
1710C
100
AcDbEntity
  8
寸法
 62
     0
 48
50.0
370
    -2
100
AcDbBlockReference
  2
_DOTSMALL
 10
6826.461099046284
 20
4503.776577458922
 30
0.0
 41
100.0
 42
100.0
 43
100.0
  0
MTEXT
  5
18674
330
1710C
100
AcDbEntity
  8
寸法
 62
     7
 48
50.0
100
AcDbMText
 10
5671.461099046285
 20
4603.788388482544
 30
0.0
 40
120.0
 41
0.0
 71
     5
 72
     1
  1
\A1;2310
  7
STYLE1
 73
     1
 44
1.0
1001
ACAD
1000
MTEXTBEGIN
1070
    73
1070
     1
1070
    44
1040
1.0
1070
    74
1070
     0
1000
MTEXTEND
  0
POINT
  5
18675
330
1710C
100
AcDbEntity
  8
DEFPOINTS
 62
     0
 48
50.0
100
AcDbPoint
 10
4516.461099046288
 20
3898.141384512928
 30
0.0
  0
POINT
  5
18676
330
1710C
100
AcDbEntity
  8
DEFPOINTS
 62
     0
 48
50.0
100
AcDbPoint
 10
6826.461099046284
 20
3898.141384512925
 30
0.0
  0
POINT
  5
18677
330
1710C
100
AcDbEntity
  8
DEFPOINTS
 62
     0
 48
50.0
100
AcDbPoint
 10
6826.461099046284
 20
4503.776577458922
 30
0.0
  0
ENDBLK
  5
17117
330
1710C
100
AcDbEntity
  8
0
 48
50.0
100
AcDbBlockEnd
  0
BLOCK
  5
17124
330
17118
100
AcDbEntity
  8
0
 48
50.0
100
AcDbBlockBegin
  2
*D16
 70
     1
 10
0.0
 20
0.0
 30
0.0
  3
*D16
  1

  0
LINE
  5
18664
330
17118
100
AcDbEntity
  8
寸法
 62
     0
 48
50.0
370
    -2
100
AcDbLine
 10
4566.461099046288
 20
3918.141384512928
 30
0.0
 11
4566.461099046288
 21
4363.86765624483
 31
0.0
  0
LINE
  5
18665
330
17118
100
AcDbEntity
  8
寸法
 62
     0
 48
50.0
370
    -2
100
AcDbLine
 10
4516.461099046288
 20
3918.141384512927
 30
0.0
 11
4516.461099046288
 21
4363.86765624483
 31
0.0
  0
LINE
  5
18666
330
17118
100
AcDbEntity
  8
寸法
 62
     0
 48
50.0
370
    -2
100
AcDbLine
 10
4566.461099046288
 20
4303.867656244831
 30
0.0
 11
4666.461099046288
 21
4303.867656244831
 31
0.0
  0
LINE
  5
18667
330
17118
100
AcDbEntity
  8
寸法
 62
     0
 48
50.0
370
    -2
100
AcDbLine
 10
4516.461099046288
 20
4303.867656244831
 30
0.0
 11
4096.928573577551
 21
4303.867656244831
 31
0.0
  0
LINE
  5
18668
330
17118
100
AcDbEntity
  8
寸法
 62
     0
 48
50.0
370
    -2
100
AcDbLine
 10
4566.461099046288
 20
4303.867656244831
 30
0.0
 11
4516.461099046288
 21
4303.867656244831
 31
0.0
  0
INSERT
  5
18669
330
17118
100
AcDbEntity
  8
寸法
 62
     0
 48
50.0
370
    -2
100
AcDbBlockReference
  2
_DOTSMALL
 10
4566.461099046288
 20
4303.867656244831
 30
0.0
 41
100.0
 42
100.0
 43
100.0
 50
180.0
  0
INSERT
  5
1866A
330
17118
100
AcDbEntity
  8
寸法
 62
     0
 48
50.0
370
    -2
100
AcDbBlockReference
  2
_DOTSMALL
 10
4516.461099046288
 20
4303.867656244831
 30
0.0
 41
100.0
 42
100.0
 43
100.0
  0
MTEXT
  5
1866B
330
17118
100
AcDbEntity
  8
寸法
 62
     7
 48
50.0
100
AcDbMText
 10
4202.975817672039
 20
4403.86765624483
 30
0.0
 40
120.0
 41
0.0
 71
     5
 72
     1
  1
\A1;50
  7
STYLE1
 73
     1
 44
1.0
1001
ACAD
1000
MTEXTBEGIN
1070
    73
1070
     1
1070
    44
1040
1.0
1070
    74
1070
     0
1000
MTEXTEND
  0
POINT
  5
1866C
330
17118
100
AcDbEntity
  8
DEFPOINTS
 62
     0
 48
50.0
100
AcDbPoint
 10
4566.461099046288
 20
3898.141384512928
 30
0.0
  0
POINT
  5
1866D
330
17118
100
AcDbEntity
  8
DEFPOINTS
 62
     0
 48
50.0
100
AcDbPoint
 10
4516.461099046288
 20
3898.141384512928
 30
0.0
  0
POINT
  5
1866E
330
17118
100
AcDbEntity
  8
DEFPOINTS
 62
     0
 48
50.0
100
AcDbPoint
 10
4516.461099046288
 20
4303.867656244831
 30
0.0
  0
ENDBLK
  5
17125
330
17118
100
AcDbEntity
  8
0
 48
50.0
100
AcDbBlockEnd
  0
BLOCK
  5
17132
330
17126
100
AcDbEntity
  8
0
 48
50.0
100
AcDbBlockBegin
  2
*D17
 70
     1
 10
0.0
 20
0.0
 30
0.0
  3
*D17
  1

  0
LINE
  5
18659
330
17126
100
AcDbEntity
  8
寸法
 62
     0
 48
50.0
370
    -2
100
AcDbLine
 10
6826.461099046284
 20
3918.141384512925
 30
0.0
 11
6826.461099046284
 21
4363.86765624483
 31
0.0
  0
LINE
  5
1865A
330
17126
100
AcDbEntity
  8
寸法
 62
     0
 48
50.0
370
    -2
100
AcDbLine
 10
6776.461099046288
 20
3918.141384512927
 30
0.0
 11
6776.461099046288
 21
4363.86765624483
 31
0.0
  0
LINE
  5
1865B
330
17126
100
AcDbEntity
  8
寸法
 62
     0
 48
50.0
370
    -2
100
AcDbLine
 10
6776.461099046288
 20
4303.867656244831
 30
0.0
 11
6676.461099046289
 21
4303.867656244831
 31
0.0
  0
LINE
  5
1865C
330
17126
100
AcDbEntity
  8
寸法
 62
     0
 48
50.0
370
    -2
100
AcDbLine
 10
6826.461099046284
 20
4303.867656244831
 30
0.0
 11
7245.993624515012
 21
4303.867656244831
 31
0.0
  0
LINE
  5
1865D
330
17126
100
AcDbEntity
  8
寸法
 62
     0
 48
50.0
370
    -2
100
AcDbLine
 10
6776.461099046288
 20
4303.867656244831
 30
0.0
 11
6826.461099046284
 21
4303.867656244831
 31
0.0
  0
INSERT
  5
1865E
330
17126
100
AcDbEntity
  8
寸法
 62
     0
 48
50.0
370
    -2
100
AcDbBlockReference
  2
_DOTSMALL
 10
6776.461099046288
 20
4303.867656244831
 30
0.0
 41
100.0
 42
100.0
 43
100.0
  0
INSERT
  5
1865F
330
17126
100
AcDbEntity
  8
寸法
 62
     0
 48
50.0
370
    -2
100
AcDbBlockReference
  2
_DOTSMALL
 10
6826.461099046284
 20
4303.867656244831
 30
0.0
 41
100.0
 42
100.0
 43
100.0
 50
180.0
  0
MTEXT
  5
18660
330
17126
100
AcDbEntity
  8
寸法
 62
     7
 48
50.0
100
AcDbMText
 10
7139.946380420524
 20
4403.86765624483
 30
0.0
 40
120.0
 41
0.0
 71
     5
 72
     1
  1
\A1;50
  7
STYLE1
 73
     1
 44
1.0
1001
ACAD
1000
MTEXTBEGIN
1070
    73
1070
     1
1070
    44
1040
1.0
1070
    74
1070
     0
1000
MTEXTEND
  0
POINT
  5
18661
330
17126
100
AcDbEntity
  8
DEFPOINTS
 62
     0
 48
50.0
100
AcDbPoint
 10
6826.461099046284
 20
3898.141384512925
 30
0.0
  0
POINT
  5
18662
330
17126
100
AcDbEntity
  8
DEFPOINTS
 62
     0
 48
50.0
100
AcDbPoint
 10
6776.461099046288
 20
3898.141384512928
 30
0.0
  0
POINT
  5
18663
330
17126
100
AcDbEntity
  8
DEFPOINTS
 62
     0
 48
50.0
100
AcDbPoint
 10
6776.461099046288
 20
4303.867656244831
 30
0.0
  0
ENDBLK
  5
17133
330
17126
100
AcDbEntity
  8
0
 48
50.0
100
AcDbBlockEnd
  0
BLOCK
  5
17842
330
17837
100
AcDbEntity
  8
0
 48
50.0
100
AcDbBlockBegin
  2
*D18
 70
     1
 10
0.0
 20
0.0
 30
0.0
  3
*D18
  1

  0
LINE
  5
1864F
330
17837
100
AcDbEntity
  8
寸法
 62
     0
 48
50.0
370
    -2
100
AcDbLine
 10
9301.413812558136
 20
3897.439091582583
 30
0.0
 11
8685.479373452853
 21
3915.153241856922
 31
0.0
  0
LINE
  5
18650
330
17837
100
AcDbEntity
  8
寸法
 62
     0
 48
50.0
370
    -2
100
AcDbLine
 10
9297.36035700151
 20
3756.497367816871
 30
0.0
 11
8681.425917896225
 21
3774.21151809121
 31
0.0
  0
LINE
  5
18651
330
17837
100
AcDbEntity
  8
寸法
 62
     0
 48
50.0
370
    -2
100
AcDbLine
 10
8741.401119498654
 20
3772.48664338626
 30
0.0
 11
8745.454575055282
 21
3913.428367151973
 31
0.0
  0
LINE
  5
18652
330
17837
100
AcDbEntity
  8
寸法
 62
     0
 48
50.0
370
    -2
100
AcDbLine
 10
8745.454575055282
 20
3913.428367151973
 30
0.0
 11
8755.803823284972
 21
4273.279576766558
 31
0.0
  0
INSERT
  5
18653
330
17837
100
AcDbEntity
  8
寸法
 62
     0
 48
50.0
370
    -2
100
AcDbBlockReference
  2
_DOTSMALL
 10
8741.401119498654
 20
3772.48664338626
 30
0.0
 41
100.0
 42
100.0
 43
100.0
 50
268.352639025637
  0
INSERT
  5
18654
330
17837
100
AcDbEntity
  8
寸法
 62
     0
 48
50.0
370
    -2
100
AcDbBlockReference
  2
_DOTSMALL
 10
8745.454575055282
 20
3913.428367151973
 30
0.0
 41
100.0
 42
100.0
 43
100.0
 50
88.35263902563706
  0
MTEXT
  5
18655
330
17837
100
AcDbEntity
  8
寸法
 62
     7
 48
50.0
100
AcDbMText
 10
8652.1079254202
 20
4146.208097802872
 30
0.0
 40
120.0
 41
0.0
 71
     5
 72
     1
  1
\A1;141
  7
STYLE1
 11
0.028747911749137
 21
0.9995866933738483
 31
0.0
 73
     1
 44
1.0
1001
ACAD
1000
MTEXTBEGIN
1070
    73
1070
     1
1070
    44
1040
1.0
1070
    74
1070
     0
1000
MTEXTEND
  0
POINT
  5
18656
330
17837
100
AcDbEntity
  8
DEFPOINTS
 62
     0
 48
50.0
100
AcDbPoint
 10
9321.405546425614
 20
3896.864133347602
 30
0.0
  0
POINT
  5
18657
330
17837
100
AcDbEntity
  8
DEFPOINTS
 62
     0
 48
50.0
100
AcDbPoint
 10
9317.352090868988
 20
3755.922409581888
 30
0.0
  0
POINT
  5
18658
330
17837
100
AcDbEntity
  8
DEFPOINTS
 62
     0
 48
50.0
100
AcDbPoint
 10
8741.401119498654
 20
3772.48664338626
 30
0.0
  0
ENDBLK
  5
17843
330
17837
100
AcDbEntity
  8
0
 48
50.0
100
AcDbBlockEnd
  0
BLOCK
  5
1784F
330
17844
100
AcDbEntity
  8
0
 48
50.0
100
AcDbBlockBegin
  2
*D19
 70
     1
 10
0.0
 20
0.0
 30
0.0
  3
*D19
  1

  0
LINE
  5
18645
330
17844
100
AcDbEntity
  8
寸法
 62
     0
 48
50.0
370
    -2
100
AcDbLine
 10
12832.00952626703
 20
3864.952064124576
 30
0.0
 11
12832.00952626703
 21
4356.798838092227
 31
0.0
  0
LINE
  5
18646
330
17844
100
AcDbEntity
  8
寸法
 62
     0
 48
50.0
370
    -2
100
AcDbLine
 10
12912.00952626703
 20
3863.141384512925
 30
0.0
 11
12912.00952626703
 21
4356.798838092227
 31
0.0
  0
LINE
  5
18647
330
17844
100
AcDbEntity
  8
寸法
 62
     0
 48
50.0
370
    -2
100
AcDbLine
 10
12832.00952626703
 20
4296.798838092227
 30
0.0
 11
12912.00952626703
 21
4296.798838092227
 31
0.0
  0
LINE
  5
18648
330
17844
100
AcDbEntity
  8
寸法
 62
     0
 48
50.0
370
    -2
100
AcDbLine
 10
12912.00952626703
 20
4296.798838092227
 30
0.0
 11
13224.10401445601
 21
4296.798838092227
 31
0.0
  0
INSERT
  5
18649
330
17844
100
AcDbEntity
  8
寸法
 62
     0
 48
50.0
370
    -2
100
AcDbBlockReference
  2
_DOTSMALL
 10
12832.00952626703
 20
4296.798838092227
 30
0.0
 41
100.0
 42
100.0
 43
100.0
 50
180.0
  0
INSERT
  5
1864A
330
17844
100
AcDbEntity
  8
寸法
 62
     0
 48
50.0
370
    -2
100
AcDbBlockReference
  2
_DOTSMALL
 10
12912.00952626703
 20
4296.798838092227
 30
0.0
 41
100.0
 42
100.0
 43
100.0
  0
MTEXT
  5
1864B
330
17844
100
AcDbEntity
  8
寸法
 62
     7
 48
50.0
100
AcDbMText
 10
13118.05677036152
 20
4396.798838092227
 30
0.0
 40
120.0
 41
0.0
 71
     5
 72
     1
  1
\A1;80
  7
STYLE1
 73
     1
 44
1.0
1001
ACAD
1000
MTEXTBEGIN
1070
    73
1070
     1
1070
    44
1040
1.0
1070
    74
1070
     0
1000
MTEXTEND
  0
POINT
  5
1864C
330
17844
100
AcDbEntity
  8
DEFPOINTS
 62
     0
 48
50.0
100
AcDbPoint
 10
12832.00952626703
 20
3844.952064124576
 30
0.0
  0
POINT
  5
1864D
330
17844
100
AcDbEntity
  8
DEFPOINTS
 62
     0
 48
50.0
100
AcDbPoint
 10
12912.00952626703
 20
3843.141384512925
 30
0.0
  0
POINT
  5
1864E
330
17844
100
AcDbEntity
  8
DEFPOINTS
 62
     0
 48
50.0
100
AcDbPoint
 10
12912.00952626703
 20
4296.798838092227
 30
0.0
  0
ENDBLK
  5
17850
330
17844
100
AcDbEntity
  8
0
 48
50.0
100
AcDbBlockEnd
  0
BLOCK
  5
1785B
330
17851
100
AcDbEntity
  8
0
 48
50.0
100
AcDbBlockBegin
  2
*D20
 70
     1
 10
0.0
 20
0.0
 30
0.0
  3
*D20
  1

  0
LINE
  5
186DB
330
17851
100
AcDbEntity
  8
寸法
 62
     0
 48
50.0
370
    -2
100
AcDbLine
 10
12912.00952626703
 20
3863.141384512922
 30
0.0
 11
12912.00952626703
 21
4586.912430878502
 31
0.0
  0
LINE
  5
186DC
330
17851
100
AcDbEntity
  8
寸法
 62
     0
 48
50.0
370
    -2
100
AcDbLine
 10
9302.009526267033
 20
3918.141384512925
 30
0.0
 11
9302.009526267033
 21
4586.912430878502
 31
0.0
  0
LINE
  5
186DD
330
17851
100
AcDbEntity
  8
寸法
 62
     0
 48
50.0
370
    -2
100
AcDbLine
 10
12912.00952626703
 20
4526.912430878502
 30
0.0
 11
9302.009526267033
 21
4526.912430878502
 31
0.0
  0
INSERT
  5
186DE
330
17851
100
AcDbEntity
  8
寸法
 62
     0
 48
50.0
370
    -2
100
AcDbBlockReference
  2
_DOTSMALL
 10
12912.00952626703
 20
4526.912430878502
 30
0.0
 41
100.0
 42
100.0
 43
100.0
  0
INSERT
  5
186DF
330
17851
100
AcDbEntity
  8
寸法
 62
     0
 48
50.0
370
    -2
100
AcDbBlockReference
  2
_DOTSMALL
 10
9302.009526267033
 20
4526.912430878502
 30
0.0
 41
100.0
 42
100.0
 43
100.0
 50
180.0
  0
MTEXT
  5
186E0
330
17851
100
AcDbEntity
  8
寸法
 62
     7
 48
50.0
100
AcDbMText
 10
11107.00952626703
 20
4626.912430878502
 30
0.0
 40
120.0
 41
0.0
 71
     5
 72
     1
  1
\A1;3610
  7
STYLE1
 73
     1
 44
1.0
1001
ACAD
1000
MTEXTBEGIN
1070
    73
1070
     1
1070
    44
1040
1.0
1070
    74
1070
     0
1000
MTEXTEND
  0
POINT
  5
186E1
330
17851
100
AcDbEntity
  8
DEFPOINTS
 62
     0
 48
50.0
100
AcDbPoint
 10
12912.00952626703
 20
3843.141384512922
 30
0.0
  0
POINT
  5
186E2
330
17851
100
AcDbEntity
  8
DEFPOINTS
 62
     0
 48
50.0
100
AcDbPoint
 10
9302.009526267033
 20
3898.141384512925
 30
0.0
  0
POINT
  5
186E3
330
17851
100
AcDbEntity
  8
DEFPOINTS
 62
     0
 48
50.0
100
AcDbPoint
 10
9302.009526267033
 20
4526.912430878502
 30
0.0
  0
ENDBLK
  5
1785C
330
17851
100
AcDbEntity
  8
0
 48
50.0
100
AcDbBlockEnd
  0
BLOCK
  5
17869
330
1785D
100
AcDbEntity
  8
0
 48
50.0
100
AcDbBlockBegin
  2
*D21
 70
     1
 10
0.0
 20
0.0
 30
0.0
  3
*D21
  1

  0
LINE
  5
18631
330
1785D
100
AcDbEntity
  8
寸法
 62
     0
 48
50.0
370
    -2
100
AcDbLine
 10
9362.009526267033
 20
3914.143002635898
 30
0.0
 11
9362.009526267033
 21
4356.798838092224
 31
0.0
  0
LINE
  5
18632
330
1785D
100
AcDbEntity
  8
寸法
 62
     0
 48
50.0
370
    -2
100
AcDbLine
 10
9302.009526267033
 20
3918.141384512925
 30
0.0
 11
9302.009526267033
 21
4356.798838092224
 31
0.0
  0
LINE
  5
18633
330
1785D
100
AcDbEntity
  8
寸法
 62
     0
 48
50.0
370
    -2
100
AcDbLine
 10
9362.009526267033
 20
4296.798838092224
 30
0.0
 11
9462.009526267033
 21
4296.798838092224
 31
0.0
  0
LINE
  5
18634
330
1785D
100
AcDbEntity
  8
寸法
 62
     0
 48
50.0
370
    -2
100
AcDbLine
 10
9302.009526267033
 20
4296.798838092224
 30
0.0
 11
8882.733935715851
 21
4296.798838092224
 31
0.0
  0
LINE
  5
18635
330
1785D
100
AcDbEntity
  8
寸法
 62
     0
 48
50.0
370
    -2
100
AcDbLine
 10
9362.009526267033
 20
4296.798838092224
 30
0.0
 11
9302.009526267033
 21
4296.798838092224
 31
0.0
  0
INSERT
  5
18636
330
1785D
100
AcDbEntity
  8
寸法
 62
     0
 48
50.0
370
    -2
100
AcDbBlockReference
  2
_DOTSMALL
 10
9362.009526267033
 20
4296.798838092224
 30
0.0
 41
100.0
 42
100.0
 43
100.0
 50
180.0
  0
INSERT
  5
18637
330
1785D
100
AcDbEntity
  8
寸法
 62
     0
 48
50.0
370
    -2
100
AcDbBlockReference
  2
_DOTSMALL
 10
9302.009526267033
 20
4296.798838092224
 30
0.0
 41
100.0
 42
100.0
 43
100.0
  0
MTEXT
  5
18638
330
1785D
100
AcDbEntity
  8
寸法
 62
     7
 48
50.0
100
AcDbMText
 10
8992.371730991441
 20
4396.798838092224
 30
0.0
 40
120.0
 41
0.0
 71
     5
 72
     1
  1
\A1;60
  7
STYLE1
 73
     1
 44
1.0
1001
ACAD
1000
MTEXTBEGIN
1070
    73
1070
     1
1070
    44
1040
1.0
1070
    74
1070
     0
1000
MTEXTEND
  0
POINT
  5
18639
330
1785D
100
AcDbEntity
  8
DEFPOINTS
 62
     0
 48
50.0
100
AcDbPoint
 10
9362.009526267033
 20
3894.143002635898
 30
0.0
  0
POINT
  5
1863A
330
1785D
100
AcDbEntity
  8
DEFPOINTS
 62
     0
 48
50.0
100
AcDbPoint
 10
9302.009526267033
 20
3898.141384512925
 30
0.0
  0
POINT
  5
1863B
330
1785D
100
AcDbEntity
  8
DEFPOINTS
 62
     0
 48
50.0
100
AcDbPoint
 10
9302.009526267033
 20
4296.798838092224
 30
0.0
  0
ENDBLK
  5
1786A
330
1785D
100
AcDbEntity
  8
0
 48
50.0
100
AcDbBlockEnd
  0
BLOCK
  5
17875
330
1786B
100
AcDbEntity
  8
0
 48
50.0
100
AcDbBlockBegin
  2
*D22
 70
     1
 10
0.0
 20
0.0
 30
0.0
  3
*D22
  1

  0
LINE
  5
186E4
330
1786B
100
AcDbEntity
  8
寸法
 62
     0
 48
50.0
370
    -2
100
AcDbLine
 10
12832.00952626703
 20
3864.952064124576
 30
0.0
 11
12832.00952626703
 21
4356.798838092227
 31
0.0
  0
LINE
  5
186E5
330
1786B
100
AcDbEntity
  8
寸法
 62
     0
 48
50.0
370
    -2
100
AcDbLine
 10
9362.009526267033
 20
3914.143002635898
 30
0.0
 11
9362.009526267033
 21
4356.798838092227
 31
0.0
  0
LINE
  5
186E6
330
1786B
100
AcDbEntity
  8
寸法
 62
     0
 48
50.0
370
    -2
100
AcDbLine
 10
12832.00952626703
 20
4296.798838092227
 30
0.0
 11
9362.009526267033
 21
4296.798838092227
 31
0.0
  0
INSERT
  5
186E7
330
1786B
100
AcDbEntity
  8
寸法
 62
     0
 48
50.0
370
    -2
100
AcDbBlockReference
  2
_DOTSMALL
 10
12832.00952626703
 20
4296.798838092227
 30
0.0
 41
100.0
 42
100.0
 43
100.0
  0
INSERT
  5
186E8
330
1786B
100
AcDbEntity
  8
寸法
 62
     0
 48
50.0
370
    -2
100
AcDbBlockReference
  2
_DOTSMALL
 10
9362.009526267033
 20
4296.798838092227
 30
0.0
 41
100.0
 42
100.0
 43
100.0
 50
180.0
  0
MTEXT
  5
186E9
330
1786B
100
AcDbEntity
  8
寸法
 62
     7
 48
50.0
100
AcDbMText
 10
11097.00952626703
 20
4396.798838092227
 30
0.0
 40
120.0
 41
0.0
 71
     5
 72
     1
  1
\A1;柱外寸法3470
  7
STYLE1
 73
     1
 44
1.0
1001
ACAD
1000
MTEXTBEGIN
1070
    73
1070
     1
1070
    44
1040
1.0
1070
    74
1070
     0
1000
MTEXTEND
  0
POINT
  5
186EA
330
1786B
100
AcDbEntity
  8
DEFPOINTS
 62
     0
 48
50.0
100
AcDbPoint
 10
12832.00952626703
 20
3844.952064124576
 30
0.0
  0
POINT
  5
186EB
330
1786B
100
AcDbEntity
  8
DEFPOINTS
 62
     0
 48
50.0
100
AcDbPoint
 10
9362.009526267033
 20
3894.143002635898
 30
0.0
  0
POINT
  5
186EC
330
1786B
100
AcDbEntity
  8
DEFPOINTS
 62
     0
 48
50.0
100
AcDbPoint
 10
9362.009526267033
 20
4296.798838092227
 30
0.0
  0
ENDBLK
  5
17876
330
1786B
100
AcDbEntity
  8
0
 48
50.0
100
AcDbBlockEnd
  0
BLOCK
  5
17883
330
17877
100
AcDbEntity
  8
0
 48
50.0
100
AcDbBlockBegin
  2
*D23
 70
     1
 10
0.0
 20
0.0
 30
0.0
  3
*D23
  1

  0
LINE
  5
17A97
330
17877
100
AcDbEntity
  8
寸法
 62
     0
 48
50.0
370
    -2
100
AcDbLine
 10
9342.009526267032
 20
1873.141384512921
 30
0.0
 11
8458.259397083773
 21
1873.141384512921
 31
0.0
  0
LINE
  5
17A98
330
17877
100
AcDbEntity
  8
寸法
 62
     0
 48
50.0
370
    -2
100
AcDbLine
 10
9287.009526267032
 20
1823.141384512921
 30
0.0
 11
8458.259397083773
 21
1823.141384512921
 31
0.0
  0
LINE
  5
17A99
330
17877
100
AcDbEntity
  8
寸法
 62
     0
 48
50.0
370
    -2
100
AcDbLine
 10
8518.259397083772
 20
1873.141384512921
 30
0.0
 11
8518.259397083772
 21
1973.141384512921
 31
0.0
  0
LINE
  5
17A9A
330
17877
100
AcDbEntity
  8
寸法
 62
     0
 48
50.0
370
    -2
100
AcDbLine
 10
8518.259397083772
 20
1823.141384512921
 30
0.0
 11
8518.259397083772
 21
1411.046896323941
 31
0.0
  0
LINE
  5
17A9B
330
17877
100
AcDbEntity
  8
寸法
 62
     0
 48
50.0
370
    -2
100
AcDbLine
 10
8518.259397083772
 20
1873.141384512921
 30
0.0
 11
8518.259397083772
 21
1823.141384512921
 31
0.0
  0
INSERT
  5
17A9C
330
17877
100
AcDbEntity
  8
寸法
 62
     0
 48
50.0
370
    -2
100
AcDbBlockReference
  2
_DOTSMALL
 10
8518.259397083772
 20
1873.141384512921
 30
0.0
 41
100.0
 42
100.0
 43
100.0
 50
270.0
  0
INSERT
  5
17A9D
330
17877
100
AcDbEntity
  8
寸法
 62
     0
 48
50.0
370
    -2
100
AcDbBlockReference
  2
_DOTSMALL
 10
8518.259397083772
 20
1823.141384512921
 30
0.0
 41
100.0
 42
100.0
 43
100.0
 50
90.0
  0
MTEXT
  5
17A9E
330
17877
100
AcDbEntity
  8
寸法
 62
     7
 48
50.0
100
AcDbMText
 10
8418.259397083771
 20
1517.09414041843
 30
0.0
 40
120.0
 41
0.0
 71
     5
 72
     1
  1
\A1;50
  7
STYLE1
 11
0.0000000000000001
 21
1.0
 31
0.0
 73
     1
 44
1.0
1001
ACAD
1000
MTEXTBEGIN
1070
    73
1070
     1
1070
    44
1040
1.0
1070
    74
1070
     0
1000
MTEXTEND
  0
POINT
  5
17A9F
330
17877
100
AcDbEntity
  8
DEFPOINTS
 62
     0
 48
50.0
100
AcDbPoint
 10
9362.009526267033
 20
1873.141384512921
 30
0.0
  0
POINT
  5
17AA0
330
17877
100
AcDbEntity
  8
DEFPOINTS
 62
     0
 48
50.0
100
AcDbPoint
 10
9307.009526267034
 20
1823.141384512921
 30
0.0
  0
POINT
  5
17AA1
330
17877
100
AcDbEntity
  8
DEFPOINTS
 62
     0
 48
50.0
100
AcDbPoint
 10
8518.259397083772
 20
1823.141384512921
 30
0.0
  0
ENDBLK
  5
17884
330
17877
100
AcDbEntity
  8
0
 48
50.0
100
AcDbBlockEnd
  0
BLOCK
  5
1788F
330
17885
100
AcDbEntity
  8
0
 48
50.0
100
AcDbBlockBegin
  2
*D24
 70
     1
 10
0.0
 20
0.0
 30
0.0
  3
*D24
  1

  0
LINE
  5
1861F
330
17885
100
AcDbEntity
  8
寸法
 62
     0
 48
50.0
370
    -2
100
AcDbLine
 10
12852.00952626703
 20
1823.141384512923
 30
0.0
 11
13596.93668423916
 21
1823.141384512923
 31
0.0
  0
LINE
  5
18620
330
17885
100
AcDbEntity
  8
寸法
 62
     0
 48
50.0
370
    -2
100
AcDbLine
 10
12932.00952626703
 20
3843.141384512922
 30
0.0
 11
13596.93668423916
 21
3843.141384512922
 31
0.0
  0
LINE
  5
18621
330
17885
100
AcDbEntity
  8
寸法
 62
     0
 48
50.0
370
    -2
100
AcDbLine
 10
13536.93668423916
 20
1823.141384512923
 30
0.0
 11
13536.93668423916
 21
3843.141384512922
 31
0.0
  0
INSERT
  5
18622
330
17885
100
AcDbEntity
  8
寸法
 62
     0
 48
50.0
370
    -2
100
AcDbBlockReference
  2
_DOTSMALL
 10
13536.93668423916
 20
1823.141384512923
 30
0.0
 41
100.0
 42
100.0
 43
100.0
 50
270.0
  0
INSERT
  5
18623
330
17885
100
AcDbEntity
  8
寸法
 62
     0
 48
50.0
370
    -2
100
AcDbBlockReference
  2
_DOTSMALL
 10
13536.93668423916
 20
3843.141384512922
 30
0.0
 41
100.0
 42
100.0
 43
100.0
 50
90.0
  0
MTEXT
  5
18624
330
17885
100
AcDbEntity
  8
寸法
 62
     7
 48
50.0
100
AcDbMText
 10
13436.92487321554
 20
2833.141384512925
 30
0.0
 40
120.0
 41
0.0
 71
     5
 72
     1
  1
\A1;2020
  7
STYLE1
 11
0.0000000000000001
 21
1.0
 31
0.0
 73
     1
 44
1.0
1001
ACAD
1000
MTEXTBEGIN
1070
    73
1070
     1
1070
    44
1040
1.0
1070
    74
1070
     0
1000
MTEXTEND
  0
POINT
  5
18625
330
17885
100
AcDbEntity
  8
DEFPOINTS
 62
     0
 48
50.0
100
AcDbPoint
 10
12832.00952626703
 20
1823.141384512923
 30
0.0
  0
POINT
  5
18626
330
17885
100
AcDbEntity
  8
DEFPOINTS
 62
     0
 48
50.0
100
AcDbPoint
 10
12912.00952626703
 20
3843.141384512922
 30
0.0
  0
POINT
  5
18627
330
17885
100
AcDbEntity
  8
DEFPOINTS
 62
     0
 48
50.0
100
AcDbPoint
 10
13536.93668423916
 20
3843.141384512922
 30
0.0
  0
ENDBLK
  5
17890
330
17885
100
AcDbEntity
  8
0
 48
50.0
100
AcDbBlockEnd
  0
BLOCK
  5
1789B
330
17891
100
AcDbEntity
  8
0
 48
50.0
100
AcDbBlockBegin
  2
*D25
 70
     1
 10
0.0
 20
0.0
 30
0.0
  3
*D25
  1

  0
LINE
  5
18616
330
17891
100
AcDbEntity
  8
寸法
 62
     0
 48
50.0
370
    -2
100
AcDbLine
 10
9342.009526267032
 20
1823.141384512916
 30
0.0
 11
8158.259397083773
 21
1823.141384512916
 31
0.0
  0
LINE
  5
18617
330
17891
100
AcDbEntity
  8
寸法
 62
     0
 48
50.0
370
    -2
100
AcDbLine
 10
9282.009526267033
 20
3898.141384512921
 30
0.0
 11
8158.259397083774
 21
3898.141384512922
 31
0.0
  0
LINE
  5
18618
330
17891
100
AcDbEntity
  8
寸法
 62
     0
 48
50.0
370
    -2
100
AcDbLine
 10
8218.259397083773
 20
1823.141384512916
 30
0.0
 11
8218.259397083773
 21
3898.141384512922
 31
0.0
  0
INSERT
  5
18619
330
17891
100
AcDbEntity
  8
寸法
 62
     0
 48
50.0
370
    -2
100
AcDbBlockReference
  2
_DOTSMALL
 10
8218.259397083773
 20
1823.141384512916
 30
0.0
 41
100.0
 42
100.0
 43
100.0
 50
270.0
  0
INSERT
  5
1861A
330
17891
100
AcDbEntity
  8
寸法
 62
     0
 48
50.0
370
    -2
100
AcDbBlockReference
  2
_DOTSMALL
 10
8218.259397083773
 20
3898.141384512922
 30
0.0
 41
100.0
 42
100.0
 43
100.0
 50
90.0
  0
MTEXT
  5
1861B
330
17891
100
AcDbEntity
  8
寸法
 62
     7
 48
50.0
100
AcDbMText
 10
8118.247586060151
 20
2860.64138451292
 30
0.0
 40
120.0
 41
0.0
 71
     5
 72
     1
  1
\A1;2075
  7
STYLE1
 11
0.0000000000000001
 21
1.0
 31
0.0
 73
     1
 44
1.0
1001
ACAD
1000
MTEXTBEGIN
1070
    73
1070
     1
1070
    44
1040
1.0
1070
    74
1070
     0
1000
MTEXTEND
  0
POINT
  5
1861C
330
17891
100
AcDbEntity
  8
DEFPOINTS
 62
     0
 48
50.0
100
AcDbPoint
 10
9362.009526267033
 20
1823.141384512916
 30
0.0
  0
POINT
  5
1861D
330
17891
100
AcDbEntity
  8
DEFPOINTS
 62
     0
 48
50.0
100
AcDbPoint
 10
9302.009526267033
 20
3898.141384512921
 30
0.0
  0
POINT
  5
1861E
330
17891
100
AcDbEntity
  8
DEFPOINTS
 62
     0
 48
50.0
100
AcDbPoint
 10
8218.259397083773
 20
3898.141384512922
 30
0.0
  0
ENDBLK
  5
1789C
330
17891
100
AcDbEntity
  8
0
 48
50.0
100
AcDbBlockEnd
  0
BLOCK
  5
178A7
330
1789D
100
AcDbEntity
  8
0
 48
50.0
100
AcDbBlockBegin
  2
*D26
 70
     1
 10
0.0
 20
0.0
 30
0.0
  3
*D26
  1

  0
LINE
  5
1860D
330
1789D
100
AcDbEntity
  8
寸法
 62
     0
 48
50.0
370
    -2
100
AcDbLine
 10
9342.009526267032
 20
3663.141384512918
 30
0.0
 11
8458.259397083772
 21
3663.141384512919
 31
0.0
  0
LINE
  5
1860E
330
1789D
100
AcDbEntity
  8
寸法
 62
     0
 48
50.0
370
    -2
100
AcDbLine
 10
9342.009526267032
 20
1873.141384512916
 30
0.0
 11
8458.259397083772
 21
1873.141384512916
 31
0.0
  0
LINE
  5
1860F
330
1789D
100
AcDbEntity
  8
寸法
 62
     0
 48
50.0
370
    -2
100
AcDbLine
 10
8518.259397083772
 20
3663.141384512919
 30
0.0
 11
8518.259397083772
 21
1873.141384512916
 31
0.0
  0
INSERT
  5
18610
330
1789D
100
AcDbEntity
  8
寸法
 62
     0
 48
50.0
370
    -2
100
AcDbBlockReference
  2
_DOTSMALL
 10
8518.259397083772
 20
3663.141384512919
 30
0.0
 41
100.0
 42
100.0
 43
100.0
 50
90.0
  0
INSERT
  5
18611
330
1789D
100
AcDbEntity
  8
寸法
 62
     0
 48
50.0
370
    -2
100
AcDbBlockReference
  2
_DOTSMALL
 10
8518.259397083772
 20
1873.141384512916
 30
0.0
 41
100.0
 42
100.0
 43
100.0
 50
270.0
  0
MTEXT
  5
18612
330
1789D
100
AcDbEntity
  8
寸法
 62
     7
 48
50.0
100
AcDbMText
 10
8418.259397083771
 20
2768.141384512919
 30
0.0
 40
120.0
 41
0.0
 71
     5
 72
     1
  1
\A1;1790
  7
STYLE1
 11
0.0000000000000001
 21
1.0
 31
0.0
 73
     1
 44
1.0
1001
ACAD
1000
MTEXTBEGIN
1070
    73
1070
     1
1070
    44
1040
1.0
1070
    74
1070
     0
1000
MTEXTEND
  0
POINT
  5
18613
330
1789D
100
AcDbEntity
  8
DEFPOINTS
 62
     0
 48
50.0
100
AcDbPoint
 10
9362.009526267033
 20
3663.141384512918
 30
0.0
  0
POINT
  5
18614
330
1789D
100
AcDbEntity
  8
DEFPOINTS
 62
     0
 48
50.0
100
AcDbPoint
 10
9362.009526267033
 20
1873.141384512916
 30
0.0
  0
POINT
  5
18615
330
1789D
100
AcDbEntity
  8
DEFPOINTS
 62
     0
 48
50.0
100
AcDbPoint
 10
8518.259397083772
 20
1873.141384512916
 30
0.0
  0
ENDBLK
  5
178A8
330
1789D
100
AcDbEntity
  8
0
 48
50.0
100
AcDbBlockEnd
  0
BLOCK
  5
17D6F
330
17D65
100
AcDbEntity
  8
0
 48
50.0
100
AcDbBlockBegin
  2
*D27
 70
     1
 10
0.0
 20
0.0
 30
0.0
  3
*D27
  1

  0
LINE
  5
18604
330
17D65
100
AcDbEntity
  8
寸法
 62
     0
 48
50.0
370
    -2
100
AcDbLine
 10
6796.461099046284
 20
1823.141384512921
 30
0.0
 11
7124.004201368028
 21
1823.141384512921
 31
0.0
  0
LINE
  5
18605
330
17D65
100
AcDbEntity
  8
寸法
 62
     0
 48
50.0
370
    -2
100
AcDbLine
 10
6796.461099046284
 20
3471.141384512921
 30
0.0
 11
7124.00420136803
 21
3471.141384512921
 31
0.0
  0
LINE
  5
18606
330
17D65
100
AcDbEntity
  8
寸法
 62
     0
 48
50.0
370
    -2
100
AcDbLine
 10
7064.004201368028
 20
1823.141384512921
 30
0.0
 11
7064.00420136803
 21
3471.141384512921
 31
0.0
  0
INSERT
  5
18607
330
17D65
100
AcDbEntity
  8
寸法
 62
     0
 48
50.0
370
    -2
100
AcDbBlockReference
  2
_DOTSMALL
 10
7064.004201368028
 20
1823.141384512921
 30
0.0
 41
100.0
 42
100.0
 43
100.0
 50
270.0
  0
INSERT
  5
18608
330
17D65
100
AcDbEntity
  8
寸法
 62
     0
 48
50.0
370
    -2
100
AcDbBlockReference
  2
_DOTSMALL
 10
7064.00420136803
 20
3471.141384512921
 30
0.0
 41
100.0
 42
100.0
 43
100.0
 50
90.0
  0
MTEXT
  5
18609
330
17D65
100
AcDbEntity
  8
寸法
 62
     7
 48
50.0
100
AcDbMText
 10
6964.004201368029
 20
2647.141384512922
 30
0.0
 40
120.0
 41
0.0
 71
     5
 72
     1
  1
\A1;有効開口部高サ 1648
  7
STYLE1
 11
0.0000000000000001
 21
1.0
 31
0.0
 73
     1
 44
1.0
1001
ACAD
1000
MTEXTBEGIN
1070
    73
1070
     1
1070
    44
1040
1.0
1070
    74
1070
     0
1000
MTEXTEND
  0
POINT
  5
1860A
330
17D65
100
AcDbEntity
  8
DEFPOINTS
 62
     0
 48
50.0
100
AcDbPoint
 10
6776.461099046284
 20
1823.141384512921
 30
0.0
  0
POINT
  5
1860B
330
17D65
100
AcDbEntity
  8
DEFPOINTS
 62
     0
 48
50.0
100
AcDbPoint
 10
6776.461099046284
 20
3471.141384512921
 30
0.0
  0
POINT
  5
1860C
330
17D65
100
AcDbEntity
  8
DEFPOINTS
 62
     0
 48
50.0
100
AcDbPoint
 10
7064.00420136803
 20
3471.141384512921
 30
0.0
  0
ENDBLK
  5
17D70
330
17D65
100
AcDbEntity
  8
0
 48
50.0
100
AcDbBlockEnd
  0
BLOCK
  5
17D7D
330
17D71
100
AcDbEntity
  8
0
 48
50.0
100
AcDbBlockBegin
  2
*D28
 70
     1
 10
0.0
 20
0.0
 30
0.0
  3
*D28
  1

  0
LINE
  5
18744
330
17D71
100
AcDbEntity
  8
寸法
 62
     0
 48
50.0
370
    -2
100
AcDbLine
 10
6796.461099046284
 20
3471.141384512921
 30
0.0
 11
7124.00420136803
 21
3471.141384512921
 31
0.0
  0
LINE
  5
18745
330
17D71
100
AcDbEntity
  8
寸法
 62
     0
 48
50.0
370
    -2
100
AcDbLine
 10
6796.461099046283
 20
3498.141384512922
 30
0.0
 11
7124.00420136803
 21
3498.141384512922
 31
0.0
  0
LINE
  5
18746
330
17D71
100
AcDbEntity
  8
寸法
 62
     0
 48
50.0
370
    -2
100
AcDbLine
 10
7064.00420136803
 20
3471.141384512921
 30
0.0
 11
7064.00420136803
 21
3371.141384512921
 31
0.0
  0
LINE
  5
18747
330
17D71
100
AcDbEntity
  8
寸法
 62
     0
 48
50.0
370
    -2
100
AcDbLine
 10
7064.00420136803
 20
3498.141384512922
 30
0.0
 11
7064.00420136803
 21
3598.141384512922
 31
0.0
  0
MTEXT
  5
18748
330
17D71
100
AcDbEntity
  8
寸法
 62
     7
 48
50.0
100
AcDbMText
 10
7204.174024614395
 20
3499.10858435258
 30
0.0
 40
120.0
 41
0.0
 71
     5
 72
     1
  1
\A1;27
  7
STYLE1
 11
0.0000000000000001
 21
1.0
 31
0.0
 73
     1
 44
1.0
1001
ACAD
1000
MTEXTBEGIN
1070
    73
1070
     1
1070
    44
1040
1.0
1070
    74
1070
     0
1000
MTEXTEND
  0
LINE
  5
18749
330
17D71
100
AcDbEntity
  8
寸法
 62
     0
 48
50.0
370
    -2
100
AcDbLine
 10
7064.00420136803
 20
3471.141384512921
 30
0.0
 11
7064.00420136803
 21
3498.141384512922
 31
0.0
  0
INSERT
  5
1874A
330
17D71
100
AcDbEntity
  8
寸法
 62
     0
 48
50.0
370
    -2
100
AcDbBlockReference
  2
_DOTSMALL
 10
7064.00420136803
 20
3471.141384512921
 30
0.0
 41
100.0
 42
100.0
 43
100.0
 50
90.0
  0
INSERT
  5
1874B
330
17D71
100
AcDbEntity
  8
寸法
 62
     0
 48
50.0
370
    -2
100
AcDbBlockReference
  2
_DOTSMALL
 10
7064.00420136803
 20
3498.141384512922
 30
0.0
 41
100.0
 42
100.0
 43
100.0
 50
270.0
  0
POINT
  5
1874C
330
17D71
100
AcDbEntity
  8
DEFPOINTS
 62
     0
 48
50.0
100
AcDbPoint
 10
6776.461099046284
 20
3471.141384512921
 30
0.0
  0
POINT
  5
1874D
330
17D71
100
AcDbEntity
  8
DEFPOINTS
 62
     0
 48
50.0
100
AcDbPoint
 10
6776.461099046284
 20
3498.141384512922
 30
0.0
  0
POINT
  5
1874E
330
17D71
100
AcDbEntity
  8
DEFPOINTS
 62
     0
 48
50.0
100
AcDbPoint
 10
7064.00420136803
 20
3498.141384512922
 30
0.0
  0
ENDBLK
  5
17D7E
330
17D71
100
AcDbEntity
  8
0
 48
50.0
100
AcDbBlockEnd
  0
BLOCK
  5
17D8A
330
17D7F
100
AcDbEntity
  8
0
 48
50.0
100
AcDbBlockBegin
  2
*D29
 70
     1
 10
0.0
 20
0.0
 30
0.0
  3
*D29
  1

  0
LINE
  5
1873A
330
17D7F
100
AcDbEntity
  8
寸法
 62
     0
 48
50.0
370
    -2
100
AcDbLine
 10
6796.461099046283
 20
3498.141384512922
 30
0.0
 11
7124.00420136803
 21
3498.141384512922
 31
0.0
  0
LINE
  5
1873B
330
17D7F
100
AcDbEntity
  8
寸法
 62
     0
 48
50.0
370
    -2
100
AcDbLine
 10
6796.461099046284
 20
3663.141384512921
 30
0.0
 11
7124.00420136803
 21
3663.141384512921
 31
0.0
  0
LINE
  5
1873C
330
17D7F
100
AcDbEntity
  8
寸法
 62
     0
 48
50.0
370
    -2
100
AcDbLine
 10
7064.00420136803
 20
3498.141384512922
 30
0.0
 11
7064.00420136803
 21
3663.141384512921
 31
0.0
  0
LINE
  5
1873D
330
17D7F
100
AcDbEntity
  8
寸法
 62
     0
 48
50.0
370
    -2
100
AcDbLine
 10
7064.00420136803
 20
3663.141384512921
 30
0.0
 11
7064.00420136803
 21
4040.111947261399
 31
0.0
  0
INSERT
  5
1873E
330
17D7F
100
AcDbEntity
  8
寸法
 62
     0
 48
50.0
370
    -2
100
AcDbBlockReference
  2
_DOTSMALL
 10
7064.00420136803
 20
3498.141384512922
 30
0.0
 41
100.0
 42
100.0
 43
100.0
 50
270.0
  0
INSERT
  5
1873F
330
17D7F
100
AcDbEntity
  8
寸法
 62
     0
 48
50.0
370
    -2
100
AcDbBlockReference
  2
_DOTSMALL
 10
7064.00420136803
 20
3663.141384512921
 30
0.0
 41
100.0
 42
100.0
 43
100.0
 50
90.0
  0
MTEXT
  5
18740
330
17D7F
100
AcDbEntity
  8
寸法
 62
     7
 48
50.0
100
AcDbMText
 10
6964.00420136803
 20
3901.626665887162
 30
0.0
 40
120.0
 41
0.0
 71
     5
 72
     1
  1
\A1;165
  7
STYLE1
 11
0.0000000000000001
 21
1.0
 31
0.0
 73
     1
 44
1.0
1001
ACAD
1000
MTEXTBEGIN
1070
    73
1070
     1
1070
    44
1040
1.0
1070
    74
1070
     0
1000
MTEXTEND
  0
POINT
  5
18741
330
17D7F
100
AcDbEntity
  8
DEFPOINTS
 62
     0
 48
50.0
100
AcDbPoint
 10
6776.461099046284
 20
3498.141384512922
 30
0.0
  0
POINT
  5
18742
330
17D7F
100
AcDbEntity
  8
DEFPOINTS
 62
     0
 48
50.0
100
AcDbPoint
 10
6776.461099046284
 20
3663.141384512921
 30
0.0
  0
POINT
  5
18743
330
17D7F
100
AcDbEntity
  8
DEFPOINTS
 62
     0
 48
50.0
100
AcDbPoint
 10
7064.00420136803
 20
3663.141384512921
 30
0.0
  0
ENDBLK
  5
17D8B
330
17D7F
100
AcDbEntity
  8
0
 48
50.0
100
AcDbBlockEnd
  0
ENDSEC
  0
SECTION
  2
ENTITIES
  0
MTEXT
  5
763F
330
747D
100
AcDbEntity
  8
0
100
AcDbMText
 10
302.846345836809
 20
280.1983726409901
 30
0.0
 40
3.5
 41
5.323721266742722
 71
     1
 72
     5
  1

  7
MSMINCHO
 73
     1
 44
1.0
1001
ACAD
1000
MTEXTBEGIN
1070
    73
1070
     1
1070
    44
1040
1.0
1070
    74
1070
     0
1000
MTEXTEND
  0
LINE
  5
10B57
330
747D
100
AcDbEntity
  8
補助
  6
PHANTOM
 62
   230
 48
50.0
100
AcDbLine
 10
139.9999999999995
 20
11409.6
 30
0.0
 11
16307.2
 21
11409.6
 31
0.0
  0
LINE
  5
10B59
330
747D
100
AcDbEntity
  8
仕様書枠
  6
Continuous
 48
50.0
100
AcDbLine
 10
13107.2
 20
1200.0
 30
0.0
 11
13107.2
 21
-0.0000000000000729
 31
0.0
  0
LINE
  5
10B5C
330
747D
100
AcDbEntity
  8
仕様書枠
 48
50.0
100
AcDbLine
 10
16307.2
 20
1200.0
 30
0.0
 11
16307.2
 21
-0.0000000000000909
 31
0.0
  0
LINE
  5
10B5D
330
747D
100
AcDbEntity
  8
仕様書枠
 48
50.0
100
AcDbLine
 10
140.0
 20
0.0
 30
0.0
 11
16307.2
 21
-0.0000000000000909
 31
0.0
  0
LINE
  5
10B5E
330
747D
100
AcDbEntity
  8
補助
  6
PHANTOM
 62
   230
 48
50.0
100
AcDbLine
 10
16307.2
 20
11409.6
 30
0.0
 11
16307.2
 21
1200.0
 31
0.0
  0
LINE
  5
10B6C
330
747D
100
AcDbEntity
  8
仕様書枠
 48
50.0
100
AcDbLine
 10
13107.2
 20
1200.0
 30
0.0
 11
16307.2
 21
1200.0
 31
0.0
  0
LINE
  5
10B6D
330
747D
100
AcDbEntity
  8
補助
  6
PHANTOM
 62
   230
 48
50.0
100
AcDbLine
 10
13107.2
 20
11409.6
 30
0.0
 11
13107.2
 21
4800.0
 31
0.0
  0
LINE
  5
10B6F
330
747D
100
AcDbEntity
  8
補助
  6
PHANTOM
 62
   230
 48
50.0
100
AcDbLine
 10
13107.2
 20
4800.0
 30
0.0
 11
16307.2
 21
4800.0
 31
0.0
  0
LINE
  5
10B72
330
747D
100
AcDbEntity
  8
文字
 62
     7
 48
50.0
100
AcDbLine
 10
13187.2
 20
400.0
 30
0.0
 11
16227.2
 21
400.0
 31
0.0
  0
TEXT
  5
10B73
330
747D
100
AcDbEntity
  8
文字
 62
     7
 48
50.0
100
AcDbText
 10
13162.9790565769
 20
895.0906074299405
 30
0.0
 40
200.0
  1
外 形 図
  7
STYLE2
100
AcDbText
  0
TEXT
  5
10B74
330
747D
100
AcDbEntity
  8
文字
 62
     7
 48
50.0
100
AcDbText
 10
13201.43669998441
 20
477.2740661031255
 30
0.0
 40
160.0
  1
機種名
  7
STYLE2
100
AcDbText
  0
TEXT
  5
10B75
330
747D
100
AcDbEntity
  8
文字
 62
     7
 48
50.0
100
AcDbText
 10
13209.4053442172
 20
228.5435242569016
 30
0.0
 40
100.0
  1
○有効開口寸法 ： 2004×1648(mm)
  7
STYLE2
100
AcDbText
  0
TEXT
  5
10B76
330
747D
100
AcDbEntity
  8
文字
 62
     7
 48
50.0
100
AcDbText
 10
13209.4053442172
 20
76.09434707649343
 30
0.0
 40
100.0
  1
○床面積 ： 7.67㎡(2.32坪) 　
  7
STYLE2
100
AcDbText
  0
TEXT
  5
10B79
330
747D
100
AcDbEntity
  8
文字
 62
     7
 48
50.0
100
AcDbText
 10
14524.131837222
 20
1031.557706291228
 30
0.0
 40
100.0
  1
NO.37      <縮尺> S=1/40
  7
STYLE2
100
AcDbText
  0
LINE
  5
10B7B
330
747D
100
AcDbEntity
  8
仕様書枠
 48
50.0
100
AcDbLine
 10
13107.2
 20
800.0
 30
0.0
 11
14251.2
 21
800.0
 31
0.0
  0
LINE
  5
10B88
330
747D
100
AcDbEntity
  8
仕様書枠
  6
Continuous
 48
50.0
100
AcDbLine
 10
14251.2
 20
1200.0
 30
0.0
 11
14251.2
 21
800.0
 31
0.0
  0
LINE
  5
12765
330
747D
100
AcDbEntity
  8
Ｇ．Ｌ
100
AcDbLine
 10
3478.194496375802
 20
1723.141384512921
 30
0.0
 11
13452.58158746945
 21
1723.141384512921
 31
0.0
  0
LINE
  5
13BE8
330
747D
100
AcDbEntity
  8
部品1
100
AcDbLine
 10
4566.461099046284
 20
1823.141384512921
 30
0.0
 11
6776.461099046284
 21
1823.141384512921
 31
0.0
  0
LINE
  5
13C1F
330
747D
100
AcDbEntity
  8
部品1
100
AcDbLine
 10
4566.461099046283
 20
3757.141384512928
 30
0.0
 11
4566.461099046284
 21
1723.141384512921
 31
0.0
  0
LINE
  5
13CFC
330
747D
100
AcDbEntity
  8
部品1
100
AcDbLine
 10
6721.461099046284
 20
3498.141384512922
 30
0.0
 11
6721.461099046283
 21
1823.141384512921
 31
0.0
  0
LINE
  5
13CFE
330
747D
100
AcDbEntity
  8
部品1
100
AcDbLine
 10
4621.461099046284
 20
3498.141384512921
 30
0.0
 11
4621.461099046284
 21
1823.141384512921
 31
0.0
  0
LINE
  5
13D18
330
747D
100
AcDbEntity
  8
部品1
100
AcDbLine
 10
6776.461099046284
 20
3757.141384512928
 30
0.0
 11
6776.461099046284
 21
1723.141384512921
 31
0.0
  0
LINE
  5
146B2
330
747D
100
AcDbEntity
  8
破線
 48
5.0
100
AcDbLine
 10
6776.461099046284
 20
1723.141384512921
 30
0.0
 11
6776.461099046284
 21
1473.141384512921
 31
0.0
  0
LINE
  5
146B3
330
747D
100
AcDbEntity
  8
破線
 48
5.0
100
AcDbLine
 10
4566.461099046284
 20
1723.141384512921
 30
0.0
 11
4566.461099046283
 21
1473.141384512921
 31
0.0
  0
TEXT
  5
149A1
330
747D
100
AcDbEntity
  8
部品1
100
AcDbText
 10
5387.565391268356
 20
880.2478552944036
 30
0.0
 40
135.0
  1
正面図
  7
STYLE2
100
AcDbText
  0
LWPOLYLINE
  5
149A2
330
747D
100
AcDbEntity
  8
部品1
100
AcDbPolyline
 90
        4
 70
     1
 43
0.0
 10
5289.725765932057
 20
1073.141384512928
 10
5289.725765932057
 20
833.2490629673955
 10
6053.196432160494
 20
833.2490629673955
 10
6053.196432160494
 20
1073.141384512928
  0
TEXT
  5
14E88
330
747D
100
AcDbEntity
  8
部品1
100
AcDbText
 10
5392.181085432262
 20
5561.192290119457
 30
0.0
 40
135.0
  1
平面図
  7
STYLE2
100
AcDbText
  0
LWPOLYLINE
  5
14E89
330
747D
100
AcDbEntity
  8
部品1
100
AcDbPolyline
 90
        4
 70
     1
 43
0.0
 10
5289.725765932057
 20
5754.085819337981
 10
5289.725765932057
 20
5514.193497792447
 10
6053.196432160494
 20
5514.193497792447
 10
6053.196432160494
 20
5754.085819337981
  0
TEXT
  5
15550
330
747D
100
AcDbEntity
  8
文字
 62
     7
 48
50.0
100
AcDbText
 10
14927.93463116741
 20
871.9640646083622
 30
0.0
 40
100.0
  1
～一般型～
  7
STYLE2
100
AcDbText
  0
LINE
  5
15CE5
330
747D
100
AcDbEntity
  8
破線
 48
5.0
100
AcDbLine
 10
6721.461099046283
 20
1823.141384512921
 30
0.0
 11
6721.461099046284
 21
1473.141384512921
 31
0.0
  0
LINE
  5
15CE6
330
747D
100
AcDbEntity
  8
破線
 48
5.0
100
AcDbLine
 10
4621.461099046284
 20
1823.141384512921
 30
0.0
 11
4621.461099046284
 21
1473.141384512921
 31
0.0
  0
LINE
  5
15CE7
330
747D
100
AcDbEntity
  8
破線
 48
5.0
100
AcDbLine
 10
6776.461099046284
 20
1473.141384512921
 30
0.0
 11
6721.461099046284
 21
1473.141384512921
 31
0.0
  0
LINE
  5
15CE8
330
747D
100
AcDbEntity
  8
破線
 48
5.0
100
AcDbLine
 10
4621.461099046281
 20
1473.141384512928
 30
0.0
 11
4566.461099046283
 21
1473.141384512928
 31
0.0
  0
LINE
  5
15CE9
330
747D
100
AcDbEntity
  8
部品1
100
AcDbLine
 10
4669.461099046284
 20
3498.141384512921
 30
0.0
 11
4669.461099046284
 21
1823.141384512921
 31
0.0
  0
LINE
  5
15CEA
330
747D
100
AcDbEntity
  8
破線
 48
5.0
100
AcDbLine
 10
4669.461099046284
 20
1823.141384512921
 30
0.0
 11
4669.461099046284
 21
1573.141384512926
 31
0.0
  0
LINE
  5
15CEB
330
747D
100
AcDbEntity
  8
部品1
100
AcDbLine
 10
6673.461099046285
 20
3498.141384512922
 30
0.0
 11
6673.461099046284
 21
1823.141384512921
 31
0.0
  0
LINE
  5
15CEC
330
747D
100
AcDbEntity
  8
破線
 48
5.0
100
AcDbLine
 10
6673.461099046284
 20
1823.141384512921
 30
0.0
 11
6673.461099046284
 21
1573.141384512921
 31
0.0
  0
LINE
  5
15CED
330
747D
100
AcDbEntity
  8
破線
 48
5.0
100
AcDbLine
 10
6721.461099046286
 20
1573.141384512921
 30
0.0
 11
6673.461099046284
 21
1573.141384512921
 31
0.0
  0
LINE
  5
15CEE
330
747D
100
AcDbEntity
  8
破線
 48
5.0
100
AcDbLine
 10
4669.461099046283
 20
1573.141384512926
 30
0.0
 11
4621.461099046281
 21
1573.141384512926
 31
0.0
  0
LINE
  5
15CF0
330
747D
100
AcDbEntity
  8
部品1
100
AcDbLine
 10
4566.461099046284
 20
3498.141384512921
 30
0.0
 11
6776.461099046284
 21
3498.141384512922
 31
0.0
  0
LINE
  5
15D23
330
747D
100
AcDbEntity
  8
細線
100
AcDbLine
 10
4669.461099046279
 20
3068.141384512921
 30
0.0
 11
6673.461099046281
 21
3068.141384512921
 31
0.0
  0
LINE
  5
15D24
330
747D
100
AcDbEntity
  8
細線
100
AcDbLine
 10
4669.461099046279
 20
3133.141384512921
 30
0.0
 11
6673.461099046281
 21
3133.141384512921
 31
0.0
  0
LINE
  5
15D25
330
747D
100
AcDbEntity
  8
細線
100
AcDbLine
 10
4669.461099046279
 20
3198.141384512921
 30
0.0
 11
6673.461099046281
 21
3198.141384512921
 31
0.0
  0
LINE
  5
15D26
330
747D
100
AcDbEntity
  8
細線
100
AcDbLine
 10
4669.461099046279
 20
3263.141384512921
 30
0.0
 11
6673.461099046281
 21
3263.141384512921
 31
0.0
  0
LINE
  5
15D27
330
747D
100
AcDbEntity
  8
細線
100
AcDbLine
 10
4669.461099046279
 20
3328.141384512921
 30
0.0
 11
6673.461099046281
 21
3328.141384512921
 31
0.0
  0
LINE
  5
15D29
330
747D
100
AcDbEntity
  8
細線
100
AcDbLine
 10
4669.461099046279
 20
2418.141384512921
 30
0.0
 11
6673.461099046281
 21
2418.141384512921
 31
0.0
  0
LINE
  5
15D2A
330
747D
100
AcDbEntity
  8
細線
100
AcDbLine
 10
4669.461099046279
 20
2483.141384512921
 30
0.0
 11
6673.461099046281
 21
2483.141384512921
 31
0.0
  0
LINE
  5
15D2B
330
747D
100
AcDbEntity
  8
細線
100
AcDbLine
 10
4669.461099046279
 20
2548.141384512921
 30
0.0
 11
6673.461099046281
 21
2548.141384512921
 31
0.0
  0
LINE
  5
15D2C
330
747D
100
AcDbEntity
  8
細線
100
AcDbLine
 10
4669.461099046279
 20
2613.141384512921
 30
0.0
 11
6673.461099046281
 21
2613.141384512921
 31
0.0
  0
LINE
  5
15D2D
330
747D
100
AcDbEntity
  8
細線
100
AcDbLine
 10
4669.461099046279
 20
2678.141384512921
 30
0.0
 11
6673.461099046281
 21
2678.141384512921
 31
0.0
  0
LINE
  5
15D2E
330
747D
100
AcDbEntity
  8
細線
100
AcDbLine
 10
4669.461099046279
 20
2743.141384512921
 30
0.0
 11
6673.461099046281
 21
2743.141384512921
 31
0.0
  0
LINE
  5
15D2F
330
747D
100
AcDbEntity
  8
細線
100
AcDbLine
 10
4669.461099046279
 20
2808.141384512921
 30
0.0
 11
6673.461099046281
 21
2808.141384512921
 31
0.0
  0
LINE
  5
15D30
330
747D
100
AcDbEntity
  8
細線
100
AcDbLine
 10
4669.461099046279
 20
2873.141384512921
 30
0.0
 11
6673.461099046281
 21
2873.141384512921
 31
0.0
  0
LINE
  5
15D31
330
747D
100
AcDbEntity
  8
細線
100
AcDbLine
 10
4669.461099046279
 20
2938.141384512921
 30
0.0
 11
6673.461099046281
 21
2938.141384512921
 31
0.0
  0
LINE
  5
15D32
330
747D
100
AcDbEntity
  8
細線
100
AcDbLine
 10
4669.461099046279
 20
3003.141384512921
 30
0.0
 11
6673.461099046281
 21
3003.141384512921
 31
0.0
  0
LINE
  5
15D36
330
747D
100
AcDbEntity
  8
細線
100
AcDbLine
 10
4669.461099046279
 20
1833.141384512921
 30
0.0
 11
6673.461099046281
 21
1833.141384512921
 31
0.0
  0
LINE
  5
15D37
330
747D
100
AcDbEntity
  8
細線
100
AcDbLine
 10
4669.461099046279
 20
1898.141384512921
 30
0.0
 11
6673.461099046281
 21
1898.141384512921
 31
0.0
  0
LINE
  5
15D38
330
747D
100
AcDbEntity
  8
細線
100
AcDbLine
 10
4669.461099046279
 20
1963.141384512921
 30
0.0
 11
6673.461099046281
 21
1963.141384512921
 31
0.0
  0
LINE
  5
15D39
330
747D
100
AcDbEntity
  8
細線
100
AcDbLine
 10
4669.461099046279
 20
2028.141384512921
 30
0.0
 11
6673.461099046281
 21
2028.141384512921
 31
0.0
  0
LINE
  5
15D3A
330
747D
100
AcDbEntity
  8
細線
100
AcDbLine
 10
4669.461099046279
 20
2093.141384512921
 30
0.0
 11
6673.461099046281
 21
2093.141384512921
 31
0.0
  0
LINE
  5
15D3B
330
747D
100
AcDbEntity
  8
細線
100
AcDbLine
 10
4669.461099046279
 20
2158.141384512921
 30
0.0
 11
6673.461099046281
 21
2158.141384512921
 31
0.0
  0
LINE
  5
15D3C
330
747D
100
AcDbEntity
  8
細線
100
AcDbLine
 10
4669.461099046279
 20
2223.141384512921
 30
0.0
 11
6673.461099046281
 21
2223.141384512921
 31
0.0
  0
LINE
  5
15D3D
330
747D
100
AcDbEntity
  8
細線
100
AcDbLine
 10
4669.461099046279
 20
2288.141384512921
 30
0.0
 11
6673.461099046281
 21
2288.141384512921
 31
0.0
  0
LINE
  5
15D3E
330
747D
100
AcDbEntity
  8
細線
100
AcDbLine
 10
4669.461099046279
 20
2353.141384512921
 30
0.0
 11
6673.461099046281
 21
2353.141384512921
 31
0.0
  0
LINE
  5
15D3F
330
747D
100
AcDbEntity
  8
細線
100
AcDbLine
 10
6673.461099046284
 20
1833.141384512921
 30
0.0
 11
4669.461099046279
 21
1833.141384512921
 31
0.0
  0
DIMENSION
  5
164EB
330
747D
100
AcDbEntity
  8
寸法
100
AcDbDimension
  2
*D1
 10
7788.994386520336
 20
6741.310855814369
 30
0.0
 11
7688.994386520336
 21
8476.310855814373
 31
0.0
 70
    32
 71
     5
 42
3470.000000000008
  3
INABA_S40G
100
AcDbAlignedDimension
 13
6776.461099046291
 23
10211.31085581437
 33
0.0
 14
6776.461099046263
 24
6741.310855814369
 34
0.0
 50
90.0
100
AcDbRotatedDimension
1001
ACAD
1000
DSTYLE
1002
{
1002
}
  0
LINE
  5
164EC
330
747D
100
AcDbEntity
  8
部品1
100
AcDbLine
 10
6696.461099046283
 20
10156.31085581438
 30
0.0
 11
6696.461099046267
 21
6806.310855814277
 31
0.0
  0
LINE
  5
164ED
330
747D
100
AcDbEntity
  8
部品1
100
AcDbLine
 10
4646.461099046264
 20
10156.31085581438
 30
0.0
 11
4646.461099046283
 21
6806.310855814276
 31
0.0
  0
LINE
  5
164EE
330
747D
100
AcDbEntity
  8
部品1
100
AcDbLine
 10
4621.461099046267
 20
10156.31085581441
 30
0.0
 11
4621.461099046284
 21
6806.310855814276
 31
0.0
  0
LINE
  5
164EF
330
747D
100
AcDbEntity
  8
部品1
100
AcDbLine
 10
6721.46109904628
 20
10156.31085581438
 30
0.0
 11
6721.461099046267
 21
6741.310855814365
 31
0.0
  0
LINE
  5
164F0
330
747D
100
AcDbEntity
  8
部品1
100
AcDbLine
 10
6748.461099046278
 20
10183.31085581437
 30
0.0
 11
6748.461099046268
 21
6796.310855814365
 31
0.0
  0
LINE
  5
164F1
330
747D
100
AcDbEntity
  8
部品1
100
AcDbLine
 10
6776.461099046291
 20
10211.31085581437
 30
0.0
 11
6776.461099046263
 21
6741.310855814369
 31
0.0
  0
DIMENSION
  5
164F2
330
747D
100
AcDbEntity
  8
寸法
100
AcDbDimension
  2
*D2
 10
7423.887444780699
 20
6796.310855814365
 30
0.0
 11
7323.875633757078
 21
8476.310855814373
 31
0.0
 70
    32
  1
8X420=<>
 71
     5
 42
3360.000000000014
  3
INABA_S40G
100
AcDbAlignedDimension
 13
6776.461099046291
 23
10156.31085581438
 33
0.0
 14
6776.461099046263
 24
6796.310855814365
 34
0.0
 50
90.0
100
AcDbRotatedDimension
1001
ACAD
1000
DSTYLE
1002
{
1002
}
  0
LINE
  5
164F4
330
747D
100
AcDbEntity
  8
部品1
100
AcDbLine
 10
4566.461099046256
 20
10211.31085581425
 30
0.0
 11
4566.461099046284
 21
6741.310855814238
 31
0.0
  0
LINE
  5
164F5
330
747D
100
AcDbEntity
  8
部品1
100
AcDbLine
 10
4594.461099046266
 20
6796.310855814233
 30
0.0
 11
4594.46109904628
 21
10183.31085581428
 31
0.0
  0
DIMENSION
  5
164F7
330
747D
100
AcDbEntity
  8
寸法
 48
50.0
100
AcDbDimension
  2
*D3
 10
4669.461099046284
 20
6206.880085048113
 30
0.0
 11
5671.461099046275
 21
6306.891896071735
 31
0.0
 70
    32
  1
有効開口部間口 <>
 71
     5
 42
2003.999999999982
  3
INABA_S40G
100
AcDbAlignedDimension
 13
6673.461099046264
 23
6767.310855814277
 33
0.0
 14
4669.461099046284
 24
6767.310855814277
 34
0.0
100
AcDbRotatedDimension
1001
ACAD
1000
DSTYLE
1002
{
1070
    75
1070
     1
1070
   279
1070
     2
1002
}
  0
LINE
  5
164F8
330
747D
100
AcDbEntity
  8
部品1
 48
50.0
100
AcDbLine
 10
4633.461099046283
 20
6786.810855814278
 30
0.0
 11
6709.461099046267
 21
6786.810855814278
 31
0.0
  0
DIMENSION
  5
164F9
330
747D
100
AcDbEntity
  8
寸法
100
AcDbDimension
  2
*D4
 10
6776.461099046263
 20
5920.707089457239
 30
0.0
 11
5671.461099046275
 21
6020.718900480861
 31
0.0
 70
    32
 71
     5
 42
2209.999999999982
  3
INABA_S40G
100
AcDbAlignedDimension
 13
4566.461099046284
 23
6741.310855814205
 33
0.0
 14
6776.461099046263
 24
6741.310855814332
 34
0.0
100
AcDbRotatedDimension
1001
ACAD
1000
DSTYLE
1002
{
1002
}
  0
DIMENSION
  5
164FA
330
747D
100
AcDbEntity
  8
寸法
 48
50.0
100
AcDbDimension
  2
*D5
 10
4566.461099046284
 20
6206.880085048113
 30
0.0
 11
4257.975817672046
 21
6206.880085048113
 31
0.0
 70
   160
 71
     5
 42
54.99999999999634
  3
INABA_S40G
100
AcDbAlignedDimension
 13
4621.461099046281
 23
6741.310855814275
 33
0.0
 14
4566.461099046284
 24
6741.310855814274
 34
0.0
100
AcDbRotatedDimension
1001
ACAD
1000
DSTYLE
1002
{
1002
}
  0
DIMENSION
  5
164FB
330
747D
100
AcDbEntity
  8
寸法
 48
50.0
100
AcDbDimension
  2
*D6
 10
4621.461099046281
 20
6206.880085048113
 30
0.0
 11
4782.363070046342
 21
6306.880085048113
 31
0.0
 70
   160
 71
     5
 42
48.00000000000363
  3
INABA_S40G
100
AcDbAlignedDimension
 13
4669.461099046284
 23
6767.310855814277
 33
0.0
 14
4621.461099046281
 24
6741.310855814275
 34
0.0
100
AcDbRotatedDimension
1001
ACAD
1000
DSTYLE
1002
{
1070
   279
1070
     2
1002
}
  0
LINE
  5
164FC
330
747D
100
AcDbEntity
  8
部品1
100
AcDbLine
 10
4621.461099046279
 20
6741.310855814275
 30
0.0
 11
4566.461099046284
 21
6741.310855814274
 31
0.0
  0
LINE
  5
164FD
330
747D
100
AcDbEntity
  8
部品1
 48
50.0
100
AcDbLine
 10
4621.461099046284
 20
6777.310855814275
 30
0.0
 11
4598.461099046284
 21
6777.310855814275
 31
0.0
  0
LINE
  5
164FE
330
747D
100
AcDbEntity
  8
部品1
 48
50.0
100
AcDbLine
 10
4631.461099046284
 20
6767.310855814277
 30
0.0
 11
4621.461099046284
 21
6746.310855814276
 31
0.0
  0
LINE
  5
164FF
330
747D
100
AcDbEntity
  8
部品1
 48
50.0
100
AcDbLine
 10
4621.461099046284
 20
6806.310855814276
 30
0.0
 11
4621.461099046281
 21
6741.310855814275
 31
0.0
  0
LINE
  5
16500
330
747D
100
AcDbEntity
  8
部品1
 48
50.0
100
AcDbLine
 10
4669.461099046284
 20
6767.310855814277
 30
0.0
 11
4669.461099046284
 21
6776.310855814277
 31
0.0
  0
LINE
  5
16501
330
747D
100
AcDbEntity
  8
部品1
 48
50.0
100
AcDbLine
 10
4669.461099046284
 20
6806.310855814277
 30
0.0
 11
4669.461099046284
 21
6797.310855814278
 31
0.0
  0
LINE
  5
16502
330
747D
100
AcDbEntity
  8
部品1
100
AcDbLine
 10
4669.461099046284
 20
6806.310855814277
 30
0.0
 11
4621.461099046284
 21
6806.310855814277
 31
0.0
  0
LINE
  5
16503
330
747D
100
AcDbEntity
  8
部品1
100
AcDbLine
 10
4669.461099046284
 20
6767.310855814277
 30
0.0
 11
4621.461099046284
 21
6767.310855814277
 31
0.0
  0
LINE
  5
16504
330
747D
100
AcDbEntity
  8
部品1
100
AcDbLine
 10
4621.461099046284
 20
6777.310855814275
 30
0.0
 11
4598.461099046284
 21
6777.310855814275
 31
0.0
  0
LINE
  5
16505
330
747D
100
AcDbEntity
  8
部品1
100
AcDbLine
 10
4621.461099046284
 20
6796.310855814201
 30
0.0
 11
4566.461099046281
 21
6796.310855814201
 31
0.0
  0
LINE
  5
16506
330
747D
100
AcDbEntity
  8
部品1
100
AcDbLine
 10
4594.461099046266
 20
6796.310855814238
 30
0.0
 11
4566.461099046281
 21
6796.310855814238
 31
0.0
  0
LINE
  5
16507
330
747D
100
AcDbEntity
  8
部品1
100
AcDbLine
 10
4594.461099046283
 20
6796.310855814252
 30
0.0
 11
4566.461099046281
 21
6796.310855814252
 31
0.0
  0
LINE
  5
16508
330
747D
100
AcDbEntity
  8
部品1
100
AcDbLine
 10
4566.461099046267
 20
7216.310855814391
 30
0.0
 11
4594.461099046267
 21
7216.310855814391
 31
0.0
  0
LINE
  5
1650A
330
747D
100
AcDbEntity
  8
部品1
100
AcDbLine
 10
4566.461099046267
 20
7636.310855814392
 30
0.0
 11
4594.461099046267
 21
7636.310855814392
 31
0.0
  0
LINE
  5
1650B
330
747D
100
AcDbEntity
  8
部品1
100
AcDbLine
 10
4566.461099046267
 20
8056.310855814391
 30
0.0
 11
4594.461099046267
 21
8056.310855814391
 31
0.0
  0
LINE
  5
1650C
330
747D
100
AcDbEntity
  8
部品1
100
AcDbLine
 10
4566.461099046267
 20
8476.310855814391
 30
0.0
 11
4594.461099046267
 21
8476.310855814391
 31
0.0
  0
LINE
  5
1650D
330
747D
100
AcDbEntity
  8
部品1
100
AcDbLine
 10
4594.461099046269
 20
8896.310855814252
 30
0.0
 11
4566.461099046271
 21
8896.310855814252
 31
0.0
  0
DIMENSION
  5
1650E
330
747D
100
AcDbEntity
  8
寸法
 48
50.0
100
AcDbDimension
  2
*D7
 10
6673.461099046264
 20
6206.880085048113
 30
0.0
 11
6562.498201397518
 21
6306.880085048113
 31
0.0
 70
   160
 71
     5
 42
48.00000000000181
  3
INABA_S40G
100
AcDbAlignedDimension
 13
6721.461099046267
 23
6741.310855814365
 33
0.0
 14
6673.461099046264
 24
6767.310855814277
 34
0.0
100
AcDbRotatedDimension
1001
ACAD
1000
DSTYLE
1002
{
1070
   279
1070
     2
1002
}
  0
DIMENSION
  5
1650F
330
747D
100
AcDbEntity
  8
寸法
 48
50.0
100
AcDbDimension
  2
*D8
 10
6721.461099046267
 20
6206.880085048114
 30
0.0
 11
7084.946380420504
 21
6206.880085048114
 31
0.0
 70
   160
 71
     5
 42
54.99999999999818
  3
INABA_S40G
100
AcDbAlignedDimension
 13
6776.461099046263
 23
6741.310855814369
 33
0.0
 14
6721.461099046267
 24
6741.310855814365
 34
0.0
100
AcDbRotatedDimension
1001
ACAD
1000
DSTYLE
1002
{
1002
}
  0
DIMENSION
  5
16510
330
747D
100
AcDbEntity
  8
寸法
100
AcDbDimension
  2
*D9
 10
7423.887444780678
 20
6741.310855814369
 30
0.0
 11
7423.887444780676
 21
6363.449388909507
 31
0.0
 70
   160
 71
     5
 42
54.99999999999634
  3
INABA_S40G
100
AcDbAlignedDimension
 13
6776.461099046263
 23
6796.310855814365
 33
0.0
 14
6776.461099046263
 24
6741.310855814369
 34
0.0
 50
90.0
100
AcDbRotatedDimension
1001
ACAD
1000
DSTYLE
1002
{
1002
}
  0
LINE
  5
16511
330
747D
100
AcDbEntity
  8
部品1
 48
50.0
100
AcDbLine
 10
6711.461099046267
 20
6767.310855814277
 30
0.0
 11
6721.461099046265
 21
6746.310855814276
 31
0.0
  0
LINE
  5
16512
330
747D
100
AcDbEntity
  8
部品1
100
AcDbLine
 10
6721.461099046265
 20
6777.310855814275
 30
0.0
 11
6744.461099046266
 21
6777.310855814275
 31
0.0
  0
LINE
  5
16513
330
747D
100
AcDbEntity
  8
部品1
 48
50.0
100
AcDbLine
 10
6673.461099046264
 20
6806.310855814277
 30
0.0
 11
6673.461099046264
 21
6797.310855814278
 31
0.0
  0
LINE
  5
16514
330
747D
100
AcDbEntity
  8
部品1
100
AcDbLine
 10
6673.461099046264
 20
6806.310855814277
 30
0.0
 11
6721.461099046267
 21
6806.310855814277
 31
0.0
  0
LINE
  5
16515
330
747D
100
AcDbEntity
  8
部品1
 48
50.0
100
AcDbLine
 10
6673.461099046264
 20
6767.310855814277
 30
0.0
 11
6673.461099046264
 21
6776.310855814277
 31
0.0
  0
LINE
  5
16516
330
747D
100
AcDbEntity
  8
部品1
100
AcDbLine
 10
6673.461099046264
 20
6767.310855814277
 30
0.0
 11
6721.461099046265
 21
6767.310855814277
 31
0.0
  0
LINE
  5
16517
330
747D
100
AcDbEntity
  8
部品1
100
AcDbLine
 10
6721.461099046265
 20
6796.31085581438
 30
0.0
 11
6776.461099046298
 21
6796.31085581438
 31
0.0
  0
LINE
  5
16518
330
747D
100
AcDbEntity
  8
部品1
100
AcDbLine
 10
6776.461099046263
 20
6741.310855814369
 30
0.0
 11
6721.461099046267
 21
6741.310855814366
 31
0.0
  0
LINE
  5
16519
330
747D
100
AcDbEntity
  8
部品1
100
AcDbLine
 10
6748.461099046295
 20
7216.310855814379
 30
0.0
 11
6776.461099046295
 21
7216.310855814379
 31
0.0
  0
LINE
  5
1651B
330
747D
100
AcDbEntity
  8
部品1
100
AcDbLine
 10
6748.461099046295
 20
7636.310855814379
 30
0.0
 11
6776.461099046295
 21
7636.310855814379
 31
0.0
  0
LINE
  5
1651C
330
747D
100
AcDbEntity
  8
部品1
100
AcDbLine
 10
6748.461099046295
 20
8056.310855814379
 30
0.0
 11
6776.461099046295
 21
8056.310855814379
 31
0.0
  0
LINE
  5
1651D
330
747D
100
AcDbEntity
  8
部品1
100
AcDbLine
 10
6748.461099046295
 20
8476.31085581438
 30
0.0
 11
6776.461099046295
 21
8476.31085581438
 31
0.0
  0
LINE
  5
1651E
330
747D
100
AcDbEntity
  8
部品1
100
AcDbLine
 10
6748.461099046295
 20
8896.31085581438
 30
0.0
 11
6776.461099046295
 21
8896.31085581438
 31
0.0
  0
LINE
  5
16523
330
747D
100
AcDbEntity
  8
部品1
100
AcDbLine
 10
4566.461099046288
 20
10211.31085581428
 30
0.0
 11
6776.461099046291
 21
10211.31085581437
 31
0.0
  0
DIMENSION
  5
16528
330
747D
100
AcDbEntity
  8
寸法
100
AcDbDimension
  2
*D10
 10
6721.461099046291
 20
10427.11907543938
 30
0.0
 11
5671.461099046291
 21
10527.130886463
 31
0.0
 70
    32
  1
5X420=<>
 71
     5
 42
2100.000000000001
  3
INABA_S40G
100
AcDbAlignedDimension
 13
4621.461099046291
 23
10211.31085581428
 33
0.0
 14
6721.461099046291
 24
10211.31085581437
 34
0.0
100
AcDbRotatedDimension
1001
ACAD
1000
DSTYLE
1002
{
1002
}
  0
DIMENSION
  5
1652B
330
747D
100
AcDbEntity
  8
寸法
100
AcDbDimension
  2
*D11
 10
4621.461099046291
 20
10427.11907543926
 30
0.0
 11
4257.975817672017
 21
10427.11907543926
 31
0.0
 70
   160
 71
     5
 42
55.00000000003456
  3
INABA_S40G
100
AcDbAlignedDimension
 13
4566.461099046256
 23
10211.31085581428
 33
0.0
 14
4621.461099046291
 24
10211.31085581428
 34
0.0
100
AcDbRotatedDimension
1001
ACAD
1000
DSTYLE
1002
{
1002
}
  0
LINE
  5
1652E
330
747D
100
AcDbEntity
  8
部品1
100
AcDbLine
 10
4594.461099046265
 20
9316.310855814252
 30
0.0
 11
4566.461099046265
 21
9316.310855814252
 31
0.0
  0
LINE
  5
1652F
330
747D
100
AcDbEntity
  8
部品1
100
AcDbLine
 10
4621.461099046256
 20
10211.31085581425
 30
0.0
 11
4621.461099046258
 21
10183.31085581425
 31
0.0
  0
LINE
  5
16530
330
747D
100
AcDbEntity
  8
部品1
100
AcDbLine
 10
4621.461099046291
 20
10211.31085581428
 30
0.0
 11
4621.461099046291
 21
10183.31085581428
 31
0.0
  0
LINE
  5
16531
330
747D
100
AcDbEntity
  8
部品1
100
AcDbLine
 10
4594.461099046258
 20
10156.31085581425
 30
0.0
 11
4566.461099046256
 21
10156.31085581425
 31
0.0
  0
LINE
  5
16533
330
747D
100
AcDbEntity
  8
部品1
100
AcDbLine
 10
5041.461099046291
 20
10211.31085581439
 30
0.0
 11
5041.461099046291
 21
10183.3108558144
 31
0.0
  0
LINE
  5
16534
330
747D
100
AcDbEntity
  8
部品1
100
AcDbLine
 10
5041.461099046291
 20
10211.31085581428
 30
0.0
 11
5041.461099046291
 21
10183.31085581428
 31
0.0
  0
LINE
  5
16535
330
747D
100
AcDbEntity
  8
部品1
100
AcDbLine
 10
5041.461099046291
 20
10211.31085581428
 30
0.0
 11
5041.461099046291
 21
10183.31085581428
 31
0.0
  0
LINE
  5
16537
330
747D
100
AcDbEntity
  8
部品1
100
AcDbLine
 10
5461.461099046291
 20
10211.31085581439
 30
0.0
 11
5461.461099046291
 21
10183.3108558144
 31
0.0
  0
LINE
  5
16538
330
747D
100
AcDbEntity
  8
部品1
100
AcDbLine
 10
5461.461099046291
 20
10211.31085581428
 30
0.0
 11
5461.461099046291
 21
10183.31085581428
 31
0.0
  0
LINE
  5
16539
330
747D
100
AcDbEntity
  8
部品1
100
AcDbLine
 10
5461.461099046291
 20
10211.31085581428
 30
0.0
 11
5461.461099046291
 21
10183.31085581428
 31
0.0
  0
LINE
  5
1653E
330
747D
100
AcDbEntity
  8
部品1
100
AcDbLine
 10
4594.461099046287
 20
10183.31085581439
 30
0.0
 11
5868.961099046289
 21
10183.31085581438
 31
0.0
  0
LINE
  5
16554
330
747D
100
AcDbEntity
  8
部品1
100
AcDbLine
 10
5881.46109904629
 20
10211.31085581439
 30
0.0
 11
5881.46109904629
 21
10183.3108558144
 31
0.0
  0
LINE
  5
16555
330
747D
100
AcDbEntity
  8
部品1
100
AcDbLine
 10
6301.46109904629
 20
10211.31085581439
 30
0.0
 11
6301.46109904629
 21
10183.3108558144
 31
0.0
  0
DIMENSION
  5
16556
330
747D
100
AcDbEntity
  8
寸法
100
AcDbDimension
  2
*D12
 10
7423.887444780702
 20
10156.31085581438
 30
0.0
 11
7423.887444780699
 21
10519.79613718861
 31
0.0
 70
   160
 71
     5
 42
54.99999999999634
  3
INABA_S40G
100
AcDbAlignedDimension
 13
6776.461099046291
 23
10211.31085581437
 33
0.0
 14
6776.461099046291
 24
10156.31085581438
 34
0.0
 50
90.0
100
AcDbRotatedDimension
1001
ACAD
1000
DSTYLE
1002
{
1002
}
  0
DIMENSION
  5
16557
330
747D
100
AcDbEntity
  8
寸法
100
AcDbDimension
  2
*D13
 10
6776.461099046291
 20
10427.11907543936
 30
0.0
 11
7084.94638042053
 21
10427.11907543936
 31
0.0
 70
   160
 71
     5
 42
55.0
  3
INABA_S40G
100
AcDbAlignedDimension
 13
6721.461099046291
 23
10211.31085581437
 33
0.0
 14
6776.461099046291
 24
10211.31085581437
 34
0.0
100
AcDbRotatedDimension
1001
ACAD
1000
DSTYLE
1002
{
1002
}
  0
LINE
  5
1655B
330
747D
100
AcDbEntity
  8
部品1
100
AcDbLine
 10
6748.461099046291
 20
9316.310855814379
 30
0.0
 11
6776.461099046291
 21
9316.310855814379
 31
0.0
  0
LINE
  5
1655C
330
747D
100
AcDbEntity
  8
部品1
100
AcDbLine
 10
6721.461099046291
 20
10211.31085581437
 30
0.0
 11
6721.461099046291
 21
10183.31085581437
 31
0.0
  0
LINE
  5
1655D
330
747D
100
AcDbEntity
  8
部品1
100
AcDbLine
 10
6721.461099046291
 20
10211.31085581439
 30
0.0
 11
6721.461099046291
 21
10183.3108558144
 31
0.0
  0
LINE
  5
1655E
330
747D
100
AcDbEntity
  8
部品1
100
AcDbLine
 10
6748.461099046291
 20
10156.31085581438
 30
0.0
 11
6776.461099046291
 21
10156.31085581438
 31
0.0
  0
LINE
  5
1673B
330
747D
100
AcDbEntity
  8
部品1
 48
50.0
100
AcDbLine
 10
6748.461099046278
 20
10183.31085581437
 30
0.0
 11
6721.46109904628
 21
10156.31085581438
 31
0.0
  0
LINE
  5
1673C
330
747D
100
AcDbEntity
  8
部品1
 48
50.0
100
AcDbLine
 10
4646.461099046265
 20
10131.31085581437
 30
0.0
 11
6696.461099046283
 21
10131.31085581438
 31
0.0
  0
LINE
  5
1673D
330
747D
100
AcDbEntity
  8
部品1
 48
50.0
100
AcDbLine
 10
4594.461099046305
 20
10183.31085581437
 30
0.0
 11
4621.461099046301
 21
10156.31085581438
 31
0.0
  0
LINE
  5
1673E
330
747D
100
AcDbEntity
  8
部品1
 48
50.0
100
AcDbLine
 10
4621.461099046301
 20
10156.31085581438
 30
0.0
 11
6721.46109904628
 21
10156.31085581438
 31
0.0
  0
LINE
  5
1684A
330
747D
100
AcDbEntity
  8
部品1
100
AcDbLine
 10
5881.46109904629
 20
10211.31085581433
 30
0.0
 11
5881.46109904629
 21
10183.31085581434
 31
0.0
  0
LINE
  5
1684B
330
747D
100
AcDbEntity
  8
部品1
100
AcDbLine
 10
5868.961099046291
 20
10175.31085581432
 30
0.0
 11
5893.961099046292
 21
10175.31085581432
 31
0.0
  0
LINE
  5
1684C
330
747D
100
AcDbEntity
  8
部品1
100
AcDbLine
 10
5910.46109904629
 20
10201.31085581432
 30
0.0
 11
5916.461099046292
 21
10201.31085581432
 31
0.0
  0
LINE
  5
1684D
330
747D
100
AcDbEntity
  8
部品1
100
AcDbLine
 10
5916.461099046292
 20
10201.31085581432
 30
0.0
 11
5916.461099046292
 21
10183.31085581432
 31
0.0
  0
LINE
  5
1684E
330
747D
100
AcDbEntity
  8
部品1
100
AcDbLine
 10
5846.46109904629
 20
10201.31085581432
 30
0.0
 11
5852.461099046291
 21
10201.31085581432
 31
0.0
  0
LINE
  5
1684F
330
747D
100
AcDbEntity
  8
部品1
100
AcDbLine
 10
5846.46109904629
 20
10201.31085581432
 30
0.0
 11
5846.46109904629
 21
10183.31085581432
 31
0.0
  0
LINE
  5
16850
330
747D
100
AcDbEntity
  8
部品1
 48
50.0
100
AcDbLine
 10
5868.961099046291
 20
10175.31085581432
 30
0.0
 11
5868.961099046289
 21
10183.31085581434
 31
0.0
  0
LINE
  5
16851
330
747D
100
AcDbEntity
  8
部品1
 48
50.0
100
AcDbLine
 10
5893.961099046292
 20
10175.31085581432
 30
0.0
 11
5893.961099046292
 21
10183.31085581433
 31
0.0
  0
LINE
  5
16852
330
747D
100
AcDbEntity
  8
部品1
100
AcDbLine
 10
5893.961099046292
 20
10183.31085581438
 30
0.0
 11
6748.461099046291
 21
10183.31085581437
 31
0.0
  0
ARC
  5
1687D
330
747D
100
AcDbEntity
  8
細線
 48
50.0
100
AcDbCircle
 10
5371.461099046282
 20
2385.641384512921
 30
0.0
 40
15.0
100
AcDbArc
 50
90.0
 51
270.0
  0
ARC
  5
1687E
330
747D
100
AcDbEntity
  8
細線
 48
50.0
100
AcDbCircle
 10
5471.461099046281
 20
2385.641384512921
 30
0.0
 40
15.0
100
AcDbArc
 50
270.0
 51
90.0
  0
LINE
  5
1687F
330
747D
100
AcDbEntity
  8
細線
 48
50.0
100
AcDbLine
 10
5371.461099046282
 20
2400.641384512921
 30
0.0
 11
5471.461099046281
 21
2400.641384512921
 31
0.0
  0
LINE
  5
16880
330
747D
100
AcDbEntity
  8
細線
 48
50.0
100
AcDbLine
 10
5471.461099046281
 20
2370.641384512921
 30
0.0
 11
5371.461099046282
 21
2370.641384512921
 31
0.0
  0
LINE
  5
16881
330
747D
100
AcDbEntity
  8
細線
 48
50.0
100
AcDbLine
 10
5971.461099046281
 20
2370.641384512921
 30
0.0
 11
5871.461099046282
 21
2370.641384512921
 31
0.0
  0
LINE
  5
16882
330
747D
100
AcDbEntity
  8
細線
 48
50.0
100
AcDbLine
 10
5871.461099046282
 20
2400.641384512921
 30
0.0
 11
5971.461099046281
 21
2400.641384512921
 31
0.0
  0
ARC
  5
16883
330
747D
100
AcDbEntity
  8
細線
 48
50.0
100
AcDbCircle
 10
5871.461099046282
 20
2385.641384512921
 30
0.0
 40
15.0
100
AcDbArc
 50
90.0
 51
270.0
  0
ARC
  5
16884
330
747D
100
AcDbEntity
  8
細線
 48
50.0
100
AcDbCircle
 10
5971.461099046281
 20
2385.641384512921
 30
0.0
 40
15.0
100
AcDbArc
 50
270.0
 51
90.0
  0
CIRCLE
  5
16885
330
747D
100
AcDbEntity
  8
細線
 48
50.0
100
AcDbCircle
 10
5671.461099046283
 20
2710.641384512921
 30
0.0
 40
18.0
  0
LINE
  5
1690D
330
747D
100
AcDbEntity
  8
仕様書枠
 48
50.0
100
AcDbLine
 10
16307.2
 20
11239.6
 30
0.0
 11
13127.2
 21
11239.6
 31
0.0
  0
LINE
  5
1690E
330
747D
100
AcDbEntity
  8
仕様書枠
 48
50.0
100
AcDbLine
 10
13127.2
 20
11239.6
 30
0.0
 11
13127.2
 21
8349.600000000002
 31
0.0
  0
LINE
  5
1690F
330
747D
100
AcDbEntity
  8
仕様書枠
 48
50.0
100
AcDbLine
 10
16307.2
 20
8349.600000000002
 30
0.0
 11
16307.2
 21
11239.6
 31
0.0
  0
LINE
  5
16910
330
747D
100
AcDbEntity
  8
仕様書枠
 48
50.0
100
AcDbLine
 10
14785.2
 20
11239.6
 30
0.0
 11
14785.2
 21
8859.600000000002
 31
0.0
  0
LINE
  5
16911
330
747D
100
AcDbEntity
  8
仕様書枠
 48
50.0
100
AcDbLine
 10
13490.2
 20
11239.6
 30
0.0
 11
13490.20000000001
 21
8859.600000000005
 31
0.0
  0
LINE
  5
16912
330
747D
100
AcDbEntity
  8
仕様書枠
 48
50.0
100
AcDbLine
 10
16307.2
 20
11069.6
 30
0.0
 11
13127.2
 21
11069.6
 31
0.0
  0
LINE
  5
16913
330
747D
100
AcDbEntity
  8
仕様書枠
 48
50.0
100
AcDbLine
 10
16307.2
 20
10729.6
 30
0.0
 11
13127.2
 21
10729.6
 31
0.0
  0
LINE
  5
16914
330
747D
100
AcDbEntity
  8
仕様書枠
 48
50.0
100
AcDbLine
 10
16307.2
 20
10899.6
 30
0.0
 11
13127.2
 21
10899.6
 31
0.0
  0
LINE
  5
16915
330
747D
100
AcDbEntity
  8
仕様書枠
 48
50.0
100
AcDbLine
 10
16307.19999999999
 20
10389.6
 30
0.0
 11
13127.2
 21
10389.6
 31
0.0
  0
LINE
  5
16916
330
747D
100
AcDbEntity
  8
仕様書枠
 48
50.0
100
AcDbLine
 10
16307.19999999999
 20
10219.6
 30
0.0
 11
13127.2
 21
10219.6
 31
0.0
  0
LINE
  5
16917
330
747D
100
AcDbEntity
  8
仕様書枠
 48
50.0
100
AcDbLine
 10
16307.19999999999
 20
10559.6
 30
0.0
 11
13127.2
 21
10559.6
 31
0.0
  0
TEXT
  5
16918
330
747D
100
AcDbEntity
  8
文字
 62
     7
 48
50.0
100
AcDbText
 10
13197.42518560407
 20
11100.01374588373
 30
0.0
 40
100.0
  1
品番
  7
STYLE1
100
AcDbText
  0
TEXT
  5
16919
330
747D
100
AcDbEntity
  8
文字
 62
     7
 48
50.0
100
AcDbText
 10
13271.19032244792
 20
10930.01374588373
 30
0.0
 40
100.0
  1
1
  7
STYLE1
100
AcDbText
  0
TEXT
  5
1691A
330
747D
100
AcDbEntity
  8
文字
 62
     7
 48
50.0
100
AcDbText
 10
13271.19032244792
 20
10760.01374588373
 30
0.0
 40
100.0
  1
2
  7
STYLE1
100
AcDbText
  0
TEXT
  5
1691B
330
747D
100
AcDbEntity
  8
文字
 62
     7
 48
50.0
100
AcDbText
 10
13271.19032244792
 20
10420.01374588373
 30
0.0
 40
100.0
  1
4
  7
STYLE1
100
AcDbText
  0
TEXT
  5
1691C
330
747D
100
AcDbEntity
  8
文字
 62
     7
 48
50.0
100
AcDbText
 10
13271.19032244792
 20
10590.01374588373
 30
0.0
 40
100.0
  1
3
  7
STYLE1
100
AcDbText
  0
TEXT
  5
1691D
330
747D
100
AcDbEntity
  8
文字
 62
     7
 48
50.0
100
AcDbText
 10
13732.03840939435
 20
11100.01374588373
 30
0.0
 40
100.0
  1
部　　品　　名
  7
STYLE1
100
AcDbText
  0
TEXT
  5
1691E
330
747D
100
AcDbEntity
  8
文字
 62
     7
 48
50.0
100
AcDbText
 10
14859.79774614482
 20
11100.01374588373
 30
0.0
 40
100.0
  1
材料（材質）　　単位mm
  7
STYLE1
100
AcDbText
  0
TEXT
  5
1691F
330
747D
100
AcDbEntity
  8
文字
 62
     7
 48
50.0
100
AcDbText
 10
13583.11819016569
 20
10930.01374588373
 30
0.0
 40
100.0
  1
土台枠
  7
STYLE1
100
AcDbText
  0
TEXT
  5
16920
330
747D
100
AcDbEntity
  8
文字
 62
     7
 48
50.0
100
AcDbText
 10
13583.11819016569
 20
10760.01374588373
 30
0.0
 40
100.0
  1
柱
  7
STYLE1
100
AcDbText
  0
TEXT
  5
16921
330
747D
100
AcDbEntity
  8
文字
 62
     7
 48
50.0
100
AcDbText
 10
13583.11819016569
 20
10590.01374588373
 30
0.0
 40
100.0
  1
桁前
  7
STYLE1
100
AcDbText
  0
TEXT
  5
16922
330
747D
100
AcDbEntity
  8
文字
 62
     7
 48
50.0
100
AcDbText
 10
13583.11819016569
 20
10420.01374588373
 30
0.0
 40
100.0
  1
桁後
  7
STYLE1
100
AcDbText
  0
TEXT
  5
16923
330
747D
100
AcDbEntity
  8
文字
 62
     7
 48
50.0
100
AcDbText
 10
13271.19032244792
 20
10250.01374588373
 30
0.0
 40
100.0
  1
5
  7
STYLE1
100
AcDbText
  0
TEXT
  5
16924
330
747D
100
AcDbEntity
  8
文字
 62
     7
 48
50.0
100
AcDbText
 10
13583.11819016569
 20
10250.01374588373
 30
0.0
 40
100.0
  1
妻板左右
  7
STYLE1
100
AcDbText
  0
TEXT
  5
16925
330
747D
100
AcDbEntity
  8
文字
 62
     7
 48
50.0
100
AcDbText
 10
13583.11819016569
 20
9060.013745883729
 30
0.0
 40
100.0
  1
シャッターレール
  7
STYLE1
100
AcDbText
  0
TEXT
  5
16926
330
747D
100
AcDbEntity
  8
文字
 62
     7
 48
50.0
100
AcDbText
 10
13248.77747366448
 20
9400.013745883729
 30
0.0
 40
100.0
  1
10
  7
STYLE1
100
AcDbText
  0
TEXT
  5
16927
330
747D
100
AcDbEntity
  8
文字
 62
     7
 48
50.0
100
AcDbText
 10
13583.11819016569
 20
9570.013745883732
 30
0.0
 40
100.0
  1
壁パネル
  7
STYLE1
100
AcDbText
  0
TEXT
  5
16928
330
747D
100
AcDbEntity
  8
文字
 62
     7
 48
50.0
100
AcDbText
 10
13583.11819016569
 20
9740.013745883729
 30
0.0
 40
100.0
  1
屋根パネル
  7
STYLE1
100
AcDbText
  0
TEXT
  5
16929
330
747D
100
AcDbEntity
  8
文字
 62
     7
 48
50.0
100
AcDbText
 10
13583.11819016569
 20
9910.01374588373
 30
0.0
 40
100.0
  1
母屋中
  7
STYLE1
100
AcDbText
  0
TEXT
  5
1692A
330
747D
100
AcDbEntity
  8
文字
 62
     7
 48
50.0
100
AcDbText
 10
13583.11819016569
 20
10080.01374588373
 30
0.0
 40
100.0
  1
鼻隠シ前後
  7
STYLE1
100
AcDbText
  0
TEXT
  5
1692B
330
747D
100
AcDbEntity
  8
文字
 62
     7
 48
50.0
100
AcDbText
 10
13271.19032244792
 20
9740.013745883729
 30
0.0
 40
100.0
  1
8
  7
STYLE1
100
AcDbText
  0
TEXT
  5
1692C
330
747D
100
AcDbEntity
  8
文字
 62
     7
 48
50.0
100
AcDbText
 10
13271.19032244792
 20
9570.013745883732
 30
0.0
 40
100.0
  1
9
  7
STYLE1
100
AcDbText
  0
TEXT
  5
1692D
330
747D
100
AcDbEntity
  8
文字
 62
     7
 48
50.0
100
AcDbText
 10
13271.19032244792
 20
9910.01374588373
 30
0.0
 40
100.0
  1
7
  7
STYLE1
100
AcDbText
  0
TEXT
  5
1692E
330
747D
100
AcDbEntity
  8
文字
 62
     7
 48
50.0
100
AcDbText
 10
13271.19032244792
 20
10080.01374588373
 30
0.0
 40
100.0
  1
6
  7
STYLE1
100
AcDbText
  0
LINE
  5
1692F
330
747D
100
AcDbEntity
  8
仕様書枠
 48
50.0
100
AcDbLine
 10
16307.19999999999
 20
9369.600000000001
 30
0.0
 11
13127.2
 21
9369.600000000003
 31
0.0
  0
LINE
  5
16930
330
747D
100
AcDbEntity
  8
仕様書枠
 48
50.0
100
AcDbLine
 10
16307.19999999999
 20
9539.6
 30
0.0
 11
13127.2
 21
9539.6
 31
0.0
  0
LINE
  5
16931
330
747D
100
AcDbEntity
  8
仕様書枠
 48
50.0
100
AcDbLine
 10
16307.2
 20
10049.6
 30
0.0
 11
13127.2
 21
10049.6
 31
0.0
  0
LINE
  5
16932
330
747D
100
AcDbEntity
  8
仕様書枠
 48
50.0
100
AcDbLine
 10
16307.2
 20
9879.600000000001
 30
0.0
 11
13127.2
 21
9879.600000000001
 31
0.0
  0
TEXT
  5
16933
330
747D
100
AcDbEntity
  8
文字
 62
     7
 48
50.0
100
AcDbText
 10
13248.77747366448
 20
9230.013745883729
 30
0.0
 40
100.0
  1
11
  7
STYLE1
100
AcDbText
  0
TEXT
  5
16934
330
747D
100
AcDbEntity
  8
文字
 62
     7
 48
50.0
100
AcDbText
 10
13583.11819016569
 20
9230.013745883729
 30
0.0
 40
100.0
  1
シャッターカバー
 41
0.9
  7
STYLE1
100
AcDbText
  0
LINE
  5
16935
330
747D
100
AcDbEntity
  8
仕様書枠
 48
50.0
100
AcDbLine
 10
16307.19999999999
 20
9199.600000000001
 30
0.0
 11
13127.2
 21
9199.600000000003
 31
0.0
  0
TEXT
  5
16937
330
747D
100
AcDbEntity
  8
文字
 62
     7
 48
50.0
100
AcDbText
 10
13583.11819016569
 20
8890.013745883733
 30
0.0
 40
100.0
  1
棚板（別売）
  7
STYLE1
100
AcDbText
  0
LINE
  5
16938
330
747D
100
AcDbEntity
  8
仕様書枠
 48
50.0
100
AcDbLine
 10
16307.19999999999
 20
9029.6
 30
0.0
 11
13127.2
 21
9029.600000000003
 31
0.0
  0
TEXT
  5
16939
330
747D
100
AcDbEntity
  8
文字
 62
     7
 48
50.0
100
AcDbText
 10
13583.11819016569
 20
9400.013745883734
 30
0.0
 40
100.0
  1
シャッター
  7
STYLE1
100
AcDbText
  0
TEXT
  5
1693A
330
747D
100
AcDbEntity
  8
文字
 62
     7
 48
50.0
100
AcDbText
 10
13248.77747366448
 20
8890.013745883733
 30
0.0
 40
100.0
  1
13
  7
STYLE1
100
AcDbText
  0
TEXT
  5
1693B
330
747D
100
AcDbEntity
  8
文字
 62
     7
 48
50.0
100
AcDbText
 10
13248.77747366448
 20
9060.013745883733
 30
0.0
 40
100.0
  1
12
  7
STYLE1
100
AcDbText
  0
TEXT
  5
1693C
330
747D
100
AcDbEntity
  8
文字
 62
     7
 48
50.0
100
AcDbText
 10
15022.63965474517
 20
10930.01374588373
 30
0.0
 40
100.0
  1
F12            1.2
  7
STYLE1
100
AcDbText
  0
TEXT
  5
1693E
330
747D
100
AcDbEntity
  8
文字
 62
     7
 48
50.0
100
AcDbText
 10
15022.63965474517
 20
10590.01374588372
 30
0.0
 40
100.0
  1
Y10            1.0
  7
STYLE1
100
AcDbText
  0
TEXT
  5
1693F
330
747D
100
AcDbEntity
  8
文字
 62
     7
 48
50.0
100
AcDbText
 10
15022.63965474516
 20
10420.01374588373
 30
0.0
 40
100.0
  1
Y10            1.0
  7
STYLE1
100
AcDbText
  0
TEXT
  5
16940
330
747D
100
AcDbEntity
  8
文字
 62
     7
 48
50.0
100
AcDbText
 10
15022.63965474517
 20
10250.01374588372
 30
0.0
 40
100.0
  1
Y10            0.7
  7
STYLE1
100
AcDbText
  0
TEXT
  5
16941
330
747D
100
AcDbEntity
  8
文字
 62
     7
 48
50.0
100
AcDbText
 10
15022.63965474516
 20
10080.01374588373
 30
0.0
 40
100.0
  1
Y10            0.7
  7
STYLE1
100
AcDbText
  0
TEXT
  5
16943
330
747D
100
AcDbEntity
  8
文字
 62
     7
 48
50.0
100
AcDbText
 10
15022.63965474517
 20
9740.013745883729
 30
0.0
 40
100.0
  1
Y10            0.5
  7
STYLE1
100
AcDbText
  0
TEXT
  5
16944
330
747D
100
AcDbEntity
  8
文字
 62
     7
 48
50.0
100
AcDbText
 10
15022.63965474516
 20
9570.013745883729
 30
0.0
 40
100.0
  1
F12            0.6
  7
STYLE1
100
AcDbText
  0
TEXT
  5
16945
330
747D
100
AcDbEntity
  8
文字
 62
     7
 48
50.0
100
AcDbText
 10
14850.83183167176
 20
9060.013745883729
 30
0.0
 40
100.0
  1
アルミニウム合金押出形材
  7
STYLE1
100
AcDbText
  0
TEXT
  5
16947
330
747D
100
AcDbEntity
  8
文字
 62
     7
 48
50.0
100
AcDbText
 10
15022.63965474516
 20
9400.013745883731
 30
0.0
 40
100.0
  1
Z08            0.5
  7
STYLE1
100
AcDbText
  0
TEXT
  5
16948
330
747D
100
AcDbEntity
  8
文字
 62
     7
 48
50.0
100
AcDbText
 10
15022.63965474516
 20
8890.013745883729
 30
0.0
 40
100.0
  1
F12            0.6
  7
STYLE1
100
AcDbText
  0
LINE
  5
16949
330
747D
100
AcDbEntity
  8
仕様書枠
 48
50.0
100
AcDbLine
 10
16307.19999999999
 20
8689.600000000003
 30
0.0
 11
13127.2
 21
8689.600000000003
 31
0.0
  0
LINE
  5
1694A
330
747D
100
AcDbEntity
  8
仕様書枠
 48
50.0
100
AcDbLine
 10
16307.19999999999
 20
8519.600000000002
 30
0.0
 11
13127.2
 21
8519.600000000002
 31
0.0
  0
LINE
  5
1694B
330
747D
100
AcDbEntity
  8
仕様書枠
 48
50.0
100
AcDbLine
 10
16307.19999999999
 20
8349.600000000002
 30
0.0
 11
13127.2
 21
8349.600000000004
 31
0.0
  0
TEXT
  5
1694C
330
747D
100
AcDbEntity
  8
文字
 62
     7
 48
50.0
100
AcDbText
 10
13229.83081656555
 20
8720.013745883731
 30
0.0
 40
100.0
  1
F12→溶融亜鉛めっき鋼板(JIS G 3302)
  7
STYLE1
100
AcDbText
  0
TEXT
  5
1694D
330
747D
100
AcDbEntity
  8
文字
 62
     7
 48
50.0
100
AcDbText
 10
13229.83081656555
 20
8550.013745883731
 30
0.0
 40
100.0
  1
Y10→溶融亜鉛-5％アルミニウム合金めっき鋼板(JIS G 3317)
 41
0.9
  7
STYLE1
100
AcDbText
  0
TEXT
  5
1694E
330
747D
100
AcDbEntity
  8
文字
 62
     7
 48
50.0
100
AcDbText
 10
13229.83081656555
 20
8380.013745883733
 30
0.0
 40
100.0
  1
Z08→塗装溶融亜鉛めっき鋼板(JIS G 3313)
  7
STYLE1
100
AcDbText
  0
LINE
  5
1694F
330
747D
100
AcDbEntity
  8
仕様書枠
 48
50.0
100
AcDbLine
 10
16307.19999999999
 20
9709.600000000001
 30
0.0
 11
13127.2
 21
9709.600000000005
 31
0.0
  0
TEXT
  5
16ECB
330
747D
100
AcDbEntity
  8
部品1
100
AcDbText
 10
10814.72029457642
 20
880.2478552944045
 30
0.0
 40
135.0
  1
側面図
  7
STYLE2
100
AcDbText
  0
LWPOLYLINE
  5
16ECC
330
747D
100
AcDbEntity
  8
部品1
100
AcDbPolyline
 90
        4
 70
     1
 43
0.0
 10
10725.27419315281
 20
1073.141384512928
 10
10725.27419315281
 20
833.2490629673952
 10
11488.74485938125
 20
833.2490629673952
 10
11488.74485938125
 20
1073.141384512928
  0
TEXT
  5
16F75
330
747D
100
AcDbEntity
  8
文字
 62
     7
 48
50.0
100
AcDbText
 10
14528.81784699908
 20
483.8967129911416
 30
0.0
 40
160.0
  1
FXN-2234S
  7
MSPゴシック
100
AcDbText
  0
DIMENSION
  5
16F76
330
747D
100
AcDbEntity
  8
寸法
 48
50.0
100
AcDbDimension
  2
*D14
 10
4566.461099046288
 20
4303.867656244831
 30
0.0
 11
5671.461099046285
 21
4303.867656244831
 31
0.0
 70
   160
  1
柱外寸法<>
 71
     5
 42
2210.0
  3
INABA_S40G
100
AcDbAlignedDimension
 13
6776.461099046288
 23
3898.141384512928
 33
0.0
 14
4566.461099046288
 24
3898.141384512928
 34
0.0
100
AcDbRotatedDimension
  0
DIMENSION
  5
16F77
330
747D
100
AcDbEntity
  8
寸法
 48
50.0
100
AcDbDimension
  2
*D15
 10
6826.461099046284
 20
4503.776577458922
 30
0.0
 11
5671.461099046285
 21
4503.776577458922
 31
0.0
 70
   160
 71
     5
 42
2309.999999999996
  3
INABA_S40G
100
AcDbAlignedDimension
 13
4516.461099046288
 23
3898.141384512928
 33
0.0
 14
6826.461099046284
 24
3898.141384512925
 34
0.0
100
AcDbRotatedDimension
  0
DIMENSION
  5
16F78
330
747D
100
AcDbEntity
  8
寸法
 48
50.0
100
AcDbDimension
  2
*D16
 10
4516.461099046288
 20
4303.867656244831
 30
0.0
 11
4202.975817672039
 21
4303.867656244831
 31
0.0
 70
   160
 71
     5
 42
50.0
  3
INABA_S40G
100
AcDbAlignedDimension
 13
4566.461099046288
 23
3898.141384512928
 33
0.0
 14
4516.461099046288
 24
3898.141384512928
 34
0.0
100
AcDbRotatedDimension
1001
ACAD
1000
DSTYLE
1002
{
1002
}
  0
ARC
  5
16F79
330
747D
100
AcDbEntity
  8
部品1
 48
0.01
100
AcDbCircle
 10
5144.461099046284
 20
3695.641384512921
 30
0.0
 40
2.0
100
AcDbArc
 50
270.0
 51
0.0
  0
ARC
  5
16F7A
330
747D
100
AcDbEntity
  8
部品1
 48
0.01
100
AcDbCircle
 10
5144.461099046288
 20
3727.141384512921
 30
0.0
 40
2.0
100
AcDbArc
 50
0.0
 51
90.0
  0
ARC
  5
16F7B
330
747D
100
AcDbEntity
  8
部品1
 48
0.01
100
AcDbCircle
 10
4968.461099046288
 20
3695.641384512921
 30
0.0
 40
2.0
100
AcDbArc
 50
180.0
 51
270.0
  0
ARC
  5
16F7C
330
747D
100
AcDbEntity
  8
部品1
 48
0.01
100
AcDbCircle
 10
4968.461099046288
 20
3727.141384512921
 30
0.0
 40
2.0
100
AcDbArc
 50
90.0
 51
180.0
  0
LINE
  5
16F7D
330
747D
100
AcDbEntity
  8
細線
100
AcDbLine
 10
5056.461099046284
 20
3699.641384512921
 30
0.0
 11
5130.461099046288
 21
3699.641384512921
 31
0.0
  0
LINE
  5
16F7E
330
747D
100
AcDbEntity
  8
細線
100
AcDbLine
 10
5056.461099046288
 20
3722.641384512921
 30
0.0
 11
4982.461099046288
 21
3722.641384512921
 31
0.0
  0
LINE
  5
16F7F
330
747D
100
AcDbEntity
  8
細線
100
AcDbLine
 10
4982.461099046288
 20
3699.641384512921
 30
0.0
 11
5056.461099046288
 21
3699.641384512921
 31
0.0
  0
LINE
  5
16F80
330
747D
100
AcDbEntity
  8
細線
100
AcDbLine
 10
5130.461099046288
 20
3722.641384512921
 30
0.0
 11
5056.461099046288
 21
3722.641384512921
 31
0.0
  0
LINE
  5
16F81
330
747D
100
AcDbEntity
  8
細線
100
AcDbLine
 10
5130.461099046288
 20
3699.641384512921
 30
0.0
 11
5130.461099046288
 21
3722.641384512921
 31
0.0
  0
LINE
  5
16F82
330
747D
100
AcDbEntity
  8
細線
100
AcDbLine
 10
4982.461099046288
 20
3722.641384512921
 30
0.0
 11
4982.461099046288
 21
3699.641384512921
 31
0.0
  0
LINE
  5
16F83
330
747D
100
AcDbEntity
  8
部品1
 48
0.01
100
AcDbLine
 10
5146.461099046284
 20
3695.641384512921
 30
0.0
 11
5146.461099046288
 21
3727.141384512921
 31
0.0
  0
LINE
  5
16F84
330
747D
100
AcDbEntity
  8
部品1
 48
0.01
100
AcDbLine
 10
4968.461099046288
 20
3693.641384512921
 30
0.0
 11
5144.461099046284
 21
3693.641384512921
 31
0.0
  0
LINE
  5
16F85
330
747D
100
AcDbEntity
  8
部品1
 48
0.01
100
AcDbLine
 10
4966.461099046288
 20
3727.141384512921
 30
0.0
 11
4966.461099046288
 21
3695.641384512921
 31
0.0
  0
LINE
  5
16F86
330
747D
100
AcDbEntity
  8
部品1
 48
0.01
100
AcDbLine
 10
5144.461099046288
 20
3729.141384512921
 30
0.0
 11
4968.461099046288
 21
3729.141384512921
 31
0.0
  0
LINE
  5
16F87
330
747D
100
AcDbEntity
  8
細線
100
AcDbLine
 10
4982.461099046288
 20
3716.641384512922
 30
0.0
 11
5056.461099046288
 21
3716.641384512922
 31
0.0
  0
LINE
  5
16F88
330
747D
100
AcDbEntity
  8
細線
100
AcDbLine
 10
4982.461099046288
 20
3710.641384512921
 30
0.0
 11
5056.461099046288
 21
3710.641384512921
 31
0.0
  0
LINE
  5
16F89
330
747D
100
AcDbEntity
  8
細線
100
AcDbLine
 10
4982.461099046284
 20
3704.641384512921
 30
0.0
 11
5056.461099046288
 21
3704.641384512921
 31
0.0
  0
LINE
  5
16F8A
330
747D
100
AcDbEntity
  8
細線
100
AcDbLine
 10
4982.461099046288
 20
3716.641384512922
 30
0.0
 11
5051.461099046288
 21
3716.641384512922
 31
0.0
  0
LINE
  5
16F8B
330
747D
100
AcDbEntity
  8
細線
100
AcDbLine
 10
5130.461099046284
 20
3716.641384512922
 30
0.0
 11
5056.461099046288
 21
3716.641384512922
 31
0.0
  0
LINE
  5
16F8C
330
747D
100
AcDbEntity
  8
細線
100
AcDbLine
 10
5130.461099046284
 20
3704.641384512921
 30
0.0
 11
5056.461099046288
 21
3704.641384512921
 31
0.0
  0
LINE
  5
16F8D
330
747D
100
AcDbEntity
  8
細線
100
AcDbLine
 10
5130.461099046284
 20
3710.641384512921
 30
0.0
 11
5056.461099046288
 21
3710.641384512921
 31
0.0
  0
LINE
  5
16F8E
330
747D
100
AcDbEntity
  8
細線
100
AcDbLine
 10
5056.461099046288
 20
3722.641384512921
 30
0.0
 11
5056.461099046284
 21
3699.641384512921
 31
0.0
  0
LINE
  5
16F8F
330
747D
100
AcDbEntity
  8
細線
100
AcDbLine
 10
6286.461099046285
 20
3722.641384512921
 30
0.0
 11
6286.461099046288
 21
3699.641384512921
 31
0.0
  0
LINE
  5
16F90
330
747D
100
AcDbEntity
  8
細線
100
AcDbLine
 10
6212.461099046288
 20
3710.641384512921
 30
0.0
 11
6286.461099046285
 21
3710.641384512921
 31
0.0
  0
LINE
  5
16F91
330
747D
100
AcDbEntity
  8
細線
100
AcDbLine
 10
6212.461099046288
 20
3704.641384512921
 30
0.0
 11
6286.461099046285
 21
3704.641384512921
 31
0.0
  0
LINE
  5
16F92
330
747D
100
AcDbEntity
  8
細線
100
AcDbLine
 10
6212.461099046288
 20
3716.641384512922
 30
0.0
 11
6286.461099046285
 21
3716.641384512922
 31
0.0
  0
LINE
  5
16F93
330
747D
100
AcDbEntity
  8
細線
100
AcDbLine
 10
6360.461099046284
 20
3716.641384512922
 30
0.0
 11
6291.461099046284
 21
3716.641384512922
 31
0.0
  0
LINE
  5
16F94
330
747D
100
AcDbEntity
  8
細線
100
AcDbLine
 10
6360.461099046288
 20
3704.641384512921
 30
0.0
 11
6286.461099046285
 21
3704.641384512921
 31
0.0
  0
LINE
  5
16F95
330
747D
100
AcDbEntity
  8
細線
100
AcDbLine
 10
6360.461099046284
 20
3710.641384512921
 30
0.0
 11
6286.461099046285
 21
3710.641384512921
 31
0.0
  0
LINE
  5
16F96
330
747D
100
AcDbEntity
  8
細線
100
AcDbLine
 10
6360.461099046284
 20
3716.641384512922
 30
0.0
 11
6286.461099046285
 21
3716.641384512922
 31
0.0
  0
LINE
  5
16F97
330
747D
100
AcDbEntity
  8
部品1
 48
0.01
100
AcDbLine
 10
6198.461099046284
 20
3729.141384512921
 30
0.0
 11
6374.461099046285
 21
3729.141384512921
 31
0.0
  0
LINE
  5
16F98
330
747D
100
AcDbEntity
  8
部品1
 48
0.01
100
AcDbLine
 10
6376.461099046284
 20
3727.141384512921
 30
0.0
 11
6376.461099046284
 21
3695.641384512921
 31
0.0
  0
LINE
  5
16F99
330
747D
100
AcDbEntity
  8
部品1
 48
0.01
100
AcDbLine
 10
6374.461099046285
 20
3693.641384512921
 30
0.0
 11
6198.461099046288
 21
3693.641384512921
 31
0.0
  0
LINE
  5
16F9A
330
747D
100
AcDbEntity
  8
部品1
 48
0.01
100
AcDbLine
 10
6196.461099046288
 20
3695.641384512921
 30
0.0
 11
6196.461099046285
 21
3727.141384512921
 31
0.0
  0
LINE
  5
16F9B
330
747D
100
AcDbEntity
  8
細線
100
AcDbLine
 10
6360.461099046284
 20
3722.641384512921
 30
0.0
 11
6360.461099046284
 21
3699.641384512921
 31
0.0
  0
LINE
  5
16F9C
330
747D
100
AcDbEntity
  8
細線
100
AcDbLine
 10
6212.461099046284
 20
3699.641384512921
 30
0.0
 11
6212.461099046284
 21
3722.641384512921
 31
0.0
  0
LINE
  5
16F9D
330
747D
100
AcDbEntity
  8
細線
100
AcDbLine
 10
6212.461099046284
 20
3722.641384512921
 30
0.0
 11
6286.461099046285
 21
3722.641384512921
 31
0.0
  0
LINE
  5
16F9E
330
747D
100
AcDbEntity
  8
細線
100
AcDbLine
 10
6360.461099046284
 20
3699.641384512921
 30
0.0
 11
6286.461099046285
 21
3699.641384512921
 31
0.0
  0
LINE
  5
16F9F
330
747D
100
AcDbEntity
  8
細線
100
AcDbLine
 10
6286.461099046285
 20
3722.641384512921
 30
0.0
 11
6360.461099046284
 21
3722.641384512921
 31
0.0
  0
LINE
  5
16FA0
330
747D
100
AcDbEntity
  8
細線
100
AcDbLine
 10
6286.461099046288
 20
3699.641384512921
 30
0.0
 11
6212.461099046284
 21
3699.641384512921
 31
0.0
  0
ARC
  5
16FA1
330
747D
100
AcDbEntity
  8
部品1
 48
0.01
100
AcDbCircle
 10
6374.461099046285
 20
3727.141384512921
 30
0.0
 40
2.0
100
AcDbArc
 50
0.0
 51
90.0
  0
ARC
  5
16FA2
330
747D
100
AcDbEntity
  8
部品1
 48
0.01
100
AcDbCircle
 10
6374.461099046285
 20
3695.641384512921
 30
0.0
 40
2.0
100
AcDbArc
 50
270.0
 51
0.0
  0
ARC
  5
16FA3
330
747D
100
AcDbEntity
  8
部品1
 48
0.01
100
AcDbCircle
 10
6198.461099046284
 20
3727.141384512921
 30
0.0
 40
2.0
100
AcDbArc
 50
90.0
 51
180.0
  0
ARC
  5
16FA4
330
747D
100
AcDbEntity
  8
部品1
 48
0.01
100
AcDbCircle
 10
6198.461099046288
 20
3695.641384512921
 30
0.0
 40
2.0
100
AcDbArc
 50
180.0
 51
270.0
  0
LINE
  5
16FA5
330
747D
100
AcDbEntity
  8
部品1
100
AcDbLine
 10
4516.880760061618
 20
3890.744859117687
 30
0.0
 11
4518.014157393967
 21
3870.768731135088
 31
0.0
  0
LINE
  5
16FA6
330
747D
100
AcDbEntity
  8
部品1
100
AcDbLine
 10
4529.451177715544
 20
3775.111323968026
 30
0.0
 11
4530.096083522653
 21
3763.744859117687
 31
0.0
  0
LINE
  5
16FA7
330
747D
100
AcDbEntity
  8
部品1
100
AcDbLine
 10
4521.215147190695
 20
3867.311323968029
 30
0.0
 11
4526.250187918805
 21
3778.568731135084
 31
0.0
  0
ARC
  5
16FA8
330
747D
100
AcDbEntity
  8
部品1
 48
50.0
100
AcDbCircle
 10
4518.219964294512
 20
3867.141384512928
 30
0.0
 40
3.0
100
AcDbArc
 50
3.247342790337681
 51
82.34187279263656
  0
ARC
  5
16FA9
330
747D
100
AcDbEntity
  8
部品1
 48
50.0
100
AcDbCircle
 10
4526.455994819354
 20
3774.941384512925
 30
0.0
 40
3.0
100
AcDbArc
 50
3.247342790337681
 51
82.34187279263656
  0
ARC
  5
16FAA
330
747D
100
AcDbEntity
  8
部品1
 48
50.0
100
AcDbCircle
 10
4526.949063927914
 20
3778.608383674609
 30
0.0
 40
0.7
100
AcDbArc
 50
183.2473427902922
 51
262.3418727926365
  0
ARC
  5
16FAB
330
747D
100
AcDbEntity
  8
部品1
 48
50.0
100
AcDbCircle
 10
4518.713033403075
 20
3870.808383674612
 30
0.0
 40
0.7
100
AcDbArc
 50
183.2473427903897
 51
262.3418727926365
  0
ARC
  5
16FAC
330
747D
100
AcDbEntity
  8
部品1
100
AcDbCircle
 10
4537.084843613751
 20
3764.141384512928
 30
0.0
 40
7.0
100
AcDbArc
 50
183.2473427903377
 51
270.0
  0
ARC
  5
16FAD
330
747D
100
AcDbEntity
  8
部品1
100
AcDbCircle
 10
4523.869520152717
 20
3891.141384512927
 30
0.0
 40
7.0
100
AcDbArc
 50
90.0
 51
183.2473427903377
  0
LINE
  5
16FAE
330
747D
100
AcDbEntity
  8
細線
 48
50.0
100
AcDbLine
 10
4549.461099046288
 20
3898.141384512928
 30
0.0
 11
4549.461099046288
 21
3757.141384512926
 31
0.0
  0
LINE
  5
16FAF
330
747D
100
AcDbEntity
  8
細線
 48
50.0
100
AcDbLine
 10
6816.185530299986
 20
3777.941384512918
 30
0.0
 11
4526.736667792558
 21
3777.941384512928
 31
0.0
  0
LINE
  5
16FB0
330
747D
100
AcDbEntity
  8
細線
 48
50.0
100
AcDbLine
 10
6824.421560824852
 20
3870.141384512928
 30
0.0
 11
4518.500637267729
 21
3870.141384512925
 31
0.0
  0
LINE
  5
16FB1
330
747D
100
AcDbEntity
  8
部品1
 48
50.0
100
AcDbLine
 10
6805.837354478821
 20
3757.141384512928
 30
0.0
 11
4537.084843613751
 21
3757.141384512928
 31
0.0
  0
LINE
  5
16FB2
330
747D
100
AcDbEntity
  8
部品1
 48
50.0
100
AcDbLine
 10
6819.052677939855
 20
3898.141384512925
 30
0.0
 11
4523.869520152717
 21
3898.141384512928
 31
0.0
  0
LINE
  5
16FB3
330
747D
100
AcDbEntity
  8
部品1
100
AcDbLine
 10
4566.461099046284
 20
3663.141384512921
 30
0.0
 11
6776.461099046284
 21
3663.141384512921
 31
0.0
  0
DIMENSION
  5
16FB4
330
747D
100
AcDbEntity
  8
寸法
 48
50.0
100
AcDbDimension
  2
*D17
 10
6776.461099046288
 20
4303.867656244831
 30
0.0
 11
7139.946380420524
 21
4303.867656244831
 31
0.0
 70
   160
 71
     5
 42
49.99999999999635
  3
INABA_S40G
100
AcDbAlignedDimension
 13
6826.461099046284
 23
3898.141384512925
 33
0.0
 14
6776.461099046288
 24
3898.141384512928
 34
0.0
100
AcDbRotatedDimension
  0
ARC
  5
16FB5
330
747D
100
AcDbEntity
  8
部品1
100
AcDbCircle
 10
6819.052677939855
 20
3891.141384512927
 30
0.0
 40
7.0
100
AcDbArc
 50
356.7526572096623
 51
90.0
  0
ARC
  5
16FB6
330
747D
100
AcDbEntity
  8
部品1
100
AcDbCircle
 10
6805.837354478821
 20
3764.141384512928
 30
0.0
 40
7.0
100
AcDbArc
 50
270.0
 51
356.7526572096623
  0
ARC
  5
16FB7
330
747D
100
AcDbEntity
  8
部品1
 48
50.0
100
AcDbCircle
 10
6824.209164689499
 20
3870.808383674612
 30
0.0
 40
0.7
100
AcDbArc
 50
277.6581272073635
 51
356.7526572096103
  0
ARC
  5
16FB8
330
747D
100
AcDbEntity
  8
部品1
 48
50.0
100
AcDbCircle
 10
6815.973134164656
 20
3778.608383674609
 30
0.0
 40
0.7
100
AcDbArc
 50
277.6581272073635
 51
356.7526572097079
  0
ARC
  5
16FB9
330
747D
100
AcDbEntity
  8
部品1
 48
50.0
100
AcDbCircle
 10
6816.466203273218
 20
3774.941384512925
 30
0.0
 40
3.0
100
AcDbArc
 50
97.65812720736349
 51
176.7526572096623
  0
ARC
  5
16FBA
330
747D
100
AcDbEntity
  8
部品1
 48
50.0
100
AcDbCircle
 10
6824.702233798061
 20
3867.141384512928
 30
0.0
 40
3.0
100
AcDbArc
 50
97.65812720736349
 51
176.7526572096623
  0
LINE
  5
16FBB
330
747D
100
AcDbEntity
  8
部品1
100
AcDbLine
 10
6821.707050901875
 20
3867.311323968029
 30
0.0
 11
6816.672010173765
 21
3778.568731135084
 31
0.0
  0
LINE
  5
16FBC
330
747D
100
AcDbEntity
  8
部品1
100
AcDbLine
 10
6813.471020377027
 20
3775.111323968026
 30
0.0
 11
6812.826114569921
 21
3763.744859117687
 31
0.0
  0
LINE
  5
16FBD
330
747D
100
AcDbEntity
  8
細線
 48
50.0
100
AcDbLine
 10
6793.461099046284
 20
3898.141384512928
 30
0.0
 11
6793.461099046284
 21
3757.141384512926
 31
0.0
  0
LINE
  5
16FBE
330
747D
100
AcDbEntity
  8
部品1
100
AcDbLine
 10
6826.041438030955
 20
3890.744859117687
 30
0.0
 11
6824.908040698606
 21
3870.768731135088
 31
0.0
  0
LINE
  5
1732C
330
747D
100
AcDbEntity
  8
補助
  6
PHANTOM
 62
   230
 48
50.0
100
AcDbLine
 10
140.0
 20
0.0
 30
0.0
 11
139.9999999999995
 21
11409.6
 31
0.0
  0
LINE
  5
17731
330
747D
100
AcDbEntity
  8
細線
 48
50.0
100
AcDbLine
 10
12434.50952626705
 20
3663.141384512925
 30
0.0
 11
12434.50952626705
 21
1873.141384512925
 31
0.0
  0
LINE
  5
17732
330
747D
100
AcDbEntity
  8
細線
 48
50.0
100
AcDbLine
 10
12419.50952626705
 20
3663.141384512925
 30
0.0
 11
12419.50952626705
 21
1873.141384512925
 31
0.0
  0
LINE
  5
17733
330
747D
100
AcDbEntity
  8
細線
 48
50.0
100
AcDbLine
 10
12559.50952626705
 20
3663.141384512925
 30
0.0
 11
12559.50952626705
 21
1873.141384512925
 31
0.0
  0
LINE
  5
17734
330
747D
100
AcDbEntity
  8
細線
 48
50.0
100
AcDbLine
 10
12574.50952626705
 20
3663.141384512925
 30
0.0
 11
12574.50952626705
 21
1873.141384512925
 31
0.0
  0
LINE
  5
17735
330
747D
100
AcDbEntity
  8
細線
 48
50.0
100
AcDbLine
 10
12714.50952626705
 20
3663.141384512925
 30
0.0
 11
12714.50952626705
 21
1873.141384512925
 31
0.0
  0
LINE
  5
17736
330
747D
100
AcDbEntity
  8
細線
 48
50.0
100
AcDbLine
 10
12699.50952626705
 20
3663.141384512925
 30
0.0
 11
12699.50952626705
 21
1873.141384512925
 31
0.0
  0
LINE
  5
17737
330
747D
100
AcDbEntity
  8
部品1
100
AcDbLine
 10
12357.00952626701
 20
3663.141384512923
 30
0.0
 11
12357.00952626701
 21
1873.141384512925
 31
0.0
  0
LINE
  5
1773A
330
747D
100
AcDbEntity
  8
部品1
100
AcDbLine
 10
11937.00952626702
 20
3663.141384512923
 30
0.0
 11
11937.00952626702
 21
1873.141384512925
 31
0.0
  0
LINE
  5
1773B
330
747D
100
AcDbEntity
  8
細線
 48
50.0
100
AcDbLine
 10
11859.50952626703
 20
3663.141384512921
 30
0.0
 11
11859.50952626703
 21
1873.141384512923
 31
0.0
  0
LINE
  5
1773C
330
747D
100
AcDbEntity
  8
細線
 48
50.0
100
AcDbLine
 10
11874.50952626703
 20
3663.141384512921
 30
0.0
 11
11874.50952626703
 21
1873.141384512923
 31
0.0
  0
LINE
  5
1773D
330
747D
100
AcDbEntity
  8
細線
 48
50.0
100
AcDbLine
 10
11734.50952626703
 20
3663.141384512921
 30
0.0
 11
11734.50952626703
 21
1873.141384512923
 31
0.0
  0
LINE
  5
1773E
330
747D
100
AcDbEntity
  8
細線
 48
50.0
100
AcDbLine
 10
11719.50952626703
 20
3663.141384512921
 30
0.0
 11
11719.50952626703
 21
1873.141384512923
 31
0.0
  0
LINE
  5
1773F
330
747D
100
AcDbEntity
  8
細線
 48
50.0
100
AcDbLine
 10
11579.50952626703
 20
3663.141384512921
 30
0.0
 11
11579.50952626703
 21
1873.141384512923
 31
0.0
  0
LINE
  5
17740
330
747D
100
AcDbEntity
  8
細線
 48
50.0
100
AcDbLine
 10
11594.50952626703
 20
3663.141384512921
 30
0.0
 11
11594.50952626703
 21
1873.141384512923
 31
0.0
  0
LINE
  5
17741
330
747D
100
AcDbEntity
  8
部品1
100
AcDbLine
 10
11517.00952626702
 20
3663.141384512921
 30
0.0
 11
11517.00952626702
 21
1873.141384512923
 31
0.0
  0
DIMENSION
  5
17742
330
747D
100
AcDbEntity
  8
寸法
 48
50.0
100
AcDbDimension
  2
*D18
 10
8741.401119498654
 20
3772.48664338626
 30
0.0
 11
8752.066594757584
 21
4143.333306627959
 31
0.0
 70
   161
 71
     5
 42
141.0000000000004
  3
INABA_S40G
100
AcDbAlignedDimension
 13
9321.405546425614
 23
3896.864133347601
 33
0.0
 14
9317.352090868986
 24
3755.922409581888
 34
0.0
1001
ACAD
1000
DSTYLE
1002
{
1070
   174
1070
     0
1070
   272
1070
     1
1070
   288
1070
     0
1070
   341
1005
0
1002
}
  0
LINE
  5
17743
330
747D
100
AcDbEntity
  8
細線
 48
50.0
100
AcDbLine
 10
12279.50952626703
 20
3663.141384512923
 30
0.0
 11
12279.50952626703
 21
1873.141384512923
 31
0.0
  0
LINE
  5
17744
330
747D
100
AcDbEntity
  8
細線
 48
50.0
100
AcDbLine
 10
12294.50952626703
 20
3663.141384512923
 30
0.0
 11
12294.50952626703
 21
1873.141384512923
 31
0.0
  0
LINE
  5
17745
330
747D
100
AcDbEntity
  8
細線
 48
50.0
100
AcDbLine
 10
12154.50952626703
 20
3663.141384512923
 30
0.0
 11
12154.50952626703
 21
1873.141384512923
 31
0.0
  0
LINE
  5
17746
330
747D
100
AcDbEntity
  8
細線
 48
50.0
100
AcDbLine
 10
12139.50952626703
 20
3663.141384512923
 30
0.0
 11
12139.50952626703
 21
1873.141384512923
 31
0.0
  0
LINE
  5
17747
330
747D
100
AcDbEntity
  8
細線
 48
50.0
100
AcDbLine
 10
11999.50952626703
 20
3663.141384512923
 30
0.0
 11
11999.50952626703
 21
1873.141384512923
 31
0.0
  0
LINE
  5
17748
330
747D
100
AcDbEntity
  8
細線
 48
50.0
100
AcDbLine
 10
12014.50952626703
 20
3663.141384512923
 30
0.0
 11
12014.50952626703
 21
1873.141384512923
 31
0.0
  0
LINE
  5
17749
330
747D
100
AcDbEntity
  8
部品1
100
AcDbLine
 10
10677.00952626703
 20
3663.141384512921
 30
0.0
 11
10677.00952626703
 21
1873.141384512921
 31
0.0
  0
LINE
  5
1774A
330
747D
100
AcDbEntity
  8
細線
 48
50.0
100
AcDbLine
 10
10334.50952626703
 20
3663.141384512921
 30
0.0
 11
10334.50952626703
 21
1873.141384512921
 31
0.0
  0
LINE
  5
1774B
330
747D
100
AcDbEntity
  8
細線
 48
50.0
100
AcDbLine
 10
10319.50952626703
 20
3663.141384512921
 30
0.0
 11
10319.50952626703
 21
1873.141384512921
 31
0.0
  0
LINE
  5
1774C
330
747D
100
AcDbEntity
  8
細線
 48
50.0
100
AcDbLine
 10
10459.50952626703
 20
3663.141384512921
 30
0.0
 11
10459.50952626703
 21
1873.141384512921
 31
0.0
  0
LINE
  5
1774D
330
747D
100
AcDbEntity
  8
細線
 48
50.0
100
AcDbLine
 10
10474.50952626703
 20
3663.141384512921
 30
0.0
 11
10474.50952626703
 21
1873.141384512921
 31
0.0
  0
LINE
  5
1774E
330
747D
100
AcDbEntity
  8
細線
 48
50.0
100
AcDbLine
 10
10614.50952626703
 20
3663.141384512921
 30
0.0
 11
10614.50952626703
 21
1873.141384512921
 31
0.0
  0
LINE
  5
1774F
330
747D
100
AcDbEntity
  8
細線
 48
50.0
100
AcDbLine
 10
10599.50952626703
 20
3663.141384512921
 30
0.0
 11
10599.50952626703
 21
1873.141384512921
 31
0.0
  0
LINE
  5
17750
330
747D
100
AcDbEntity
  8
部品1
100
AcDbLine
 10
10257.00952626703
 20
3663.141384512921
 30
0.0
 11
10257.00952626703
 21
1873.141384512921
 31
0.0
  0
DIMENSION
  5
17751
330
747D
100
AcDbEntity
  8
寸法
 48
50.0
100
AcDbDimension
  2
*D19
 10
12912.00952626703
 20
4296.798838092227
 30
0.0
 11
13118.05677036152
 21
4296.798838092227
 31
0.0
 70
   160
 71
     5
 42
80.0
  3
INABA_S40G
100
AcDbAlignedDimension
 13
12832.00952626703
 23
3844.952064124576
 33
0.0
 14
12912.00952626703
 24
3843.141384512925
 34
0.0
100
AcDbRotatedDimension
1001
ACAD
1000
DSTYLE
1002
{
1070
   174
1070
     0
1070
   272
1070
     1
1070
   288
1070
     0
1070
   341
1005
0
1002
}
  0
LINE
  5
17752
330
747D
100
AcDbEntity
  8
細線
 48
50.0
100
AcDbLine
 10
9494.509526267034
 20
3663.141384512921
 30
0.0
 11
9494.509526267034
 21
1873.141384512921
 31
0.0
  0
LINE
  5
17753
330
747D
100
AcDbEntity
  8
細線
 48
50.0
100
AcDbLine
 10
9479.509526267033
 20
3663.141384512921
 30
0.0
 11
9479.509526267033
 21
1873.141384512921
 31
0.0
  0
LINE
  5
17754
330
747D
100
AcDbEntity
  8
細線
 48
50.0
100
AcDbLine
 10
9619.509526267034
 20
3663.141384512921
 30
0.0
 11
9619.509526267034
 21
1873.141384512921
 31
0.0
  0
LINE
  5
17755
330
747D
100
AcDbEntity
  8
細線
 48
50.0
100
AcDbLine
 10
9634.509526267033
 20
3663.141384512921
 30
0.0
 11
9634.509526267033
 21
1873.141384512921
 31
0.0
  0
LINE
  5
17756
330
747D
100
AcDbEntity
  8
細線
 48
50.0
100
AcDbLine
 10
9774.509526267033
 20
3663.141384512921
 30
0.0
 11
9774.509526267033
 21
1873.141384512921
 31
0.0
  0
LINE
  5
17757
330
747D
100
AcDbEntity
  8
細線
 48
50.0
100
AcDbLine
 10
9759.509526267033
 20
3663.141384512921
 30
0.0
 11
9759.509526267033
 21
1873.141384512921
 31
0.0
  0
LINE
  5
17758
330
747D
100
AcDbEntity
  8
細線
 48
50.0
100
AcDbLine
 10
10179.50952626703
 20
3663.141384512921
 30
0.0
 11
10179.50952626703
 21
1873.141384512921
 31
0.0
  0
LINE
  5
17759
330
747D
100
AcDbEntity
  8
細線
 48
50.0
100
AcDbLine
 10
10194.50952626703
 20
3663.141384512921
 30
0.0
 11
10194.50952626703
 21
1873.141384512921
 31
0.0
  0
LINE
  5
1775A
330
747D
100
AcDbEntity
  8
細線
 48
50.0
100
AcDbLine
 10
10054.50952626703
 20
3663.141384512921
 30
0.0
 11
10054.50952626703
 21
1873.141384512921
 31
0.0
  0
LINE
  5
1775B
330
747D
100
AcDbEntity
  8
細線
 48
50.0
100
AcDbLine
 10
10039.50952626703
 20
3663.141384512921
 30
0.0
 11
10039.50952626703
 21
1873.141384512921
 31
0.0
  0
LINE
  5
1775C
330
747D
100
AcDbEntity
  8
細線
 48
50.0
100
AcDbLine
 10
9899.509526267033
 20
3663.141384512921
 30
0.0
 11
9899.509526267033
 21
1873.141384512921
 31
0.0
  0
LINE
  5
1775D
330
747D
100
AcDbEntity
  8
細線
 48
50.0
100
AcDbLine
 10
9914.509526267034
 20
3663.141384512921
 30
0.0
 11
9914.509526267034
 21
1873.141384512921
 31
0.0
  0
LINE
  5
1775E
330
747D
100
AcDbEntity
  8
部品1
100
AcDbLine
 10
9417.00952626704
 20
1823.141384512921
 30
0.0
 11
12832.00952626703
 21
1823.141384512921
 31
0.0
  0
DIMENSION
  5
1775F
330
747D
100
AcDbEntity
  8
寸法
 48
50.0
100
AcDbDimension
  2
*D20
 10
9302.009526267033
 20
4526.912430878502
 30
0.0
 11
11107.00952626703
 21
4526.912430878502
 31
0.0
 70
   160
 71
     5
 42
3609.999999999997
  3
INABA_S40G
100
AcDbAlignedDimension
 13
12912.00952626703
 23
3843.141384512922
 33
0.0
 14
9302.009526267033
 24
3898.141384512925
 34
0.0
100
AcDbRotatedDimension
1001
ACAD
1000
DSTYLE
1002
{
1070
   174
1070
     0
1070
   272
1070
     1
1070
   288
1070
     0
1070
   341
1005
0
1002
}
  0
DIMENSION
  5
17760
330
747D
100
AcDbEntity
  8
寸法
 48
50.0
100
AcDbDimension
  2
*D21
 10
9302.009526267033
 20
4296.798838092224
 30
0.0
 11
8992.371730991441
 21
4296.798838092224
 31
0.0
 70
   160
 71
     5
 42
60.0
  3
INABA_S40G
100
AcDbAlignedDimension
 13
9362.009526267033
 23
3894.143002635898
 33
0.0
 14
9302.009526267033
 24
3898.141384512925
 34
0.0
100
AcDbRotatedDimension
1001
ACAD
1000
DSTYLE
1002
{
1070
   174
1070
     0
1070
   272
1070
     1
1070
   288
1070
     0
1070
   341
1005
0
1002
}
  0
DIMENSION
  5
17761
330
747D
100
AcDbEntity
  8
寸法
 48
50.0
100
AcDbDimension
  2
*D22
 10
9362.009526267033
 20
4296.798838092227
 30
0.0
 11
11097.00952626703
 21
4296.798838092227
 31
0.0
 70
   160
  1
柱外寸法<>
 71
     5
 42
3469.999999999997
  3
INABA_S40G
100
AcDbAlignedDimension
 13
12832.00952626703
 23
3844.952064124576
 33
0.0
 14
9362.009526267033
 24
3894.143002635898
 34
0.0
100
AcDbRotatedDimension
1001
ACAD
1000
DSTYLE
1002
{
1070
   174
1070
     0
1070
   272
1070
     1
1070
   288
1070
     0
1070
   341
1005
0
1002
}
  0
LINE
  5
17762
330
747D
100
AcDbEntity
  8
部品1
100
AcDbLine
 10
12777.00952626703
 20
3663.141384512923
 30
0.0
 11
12777.00952626703
 21
1873.141384512923
 31
0.0
  0
LINE
  5
17763
330
747D
100
AcDbEntity
  8
部品1
100
AcDbLine
 10
12832.00952626703
 20
3717.571412294041
 30
0.0
 11
12832.00952626703
 21
1723.141384512923
 31
0.0
  0
LINE
  5
17764
330
747D
100
AcDbEntity
  8
部品1
100
AcDbLine
 10
9837.009526267033
 20
3663.141384512921
 30
0.0
 11
9837.009526267033
 21
1873.141384512921
 31
0.0
  0
DIMENSION
  5
17765
330
747D
100
AcDbEntity
  8
寸法
100
AcDbDimension
  2
*D23
 10
8518.259397083772
 20
1823.141384512921
 30
0.0
 11
8518.259397083772
 21
1517.09414041843
 31
0.0
 70
   160
 71
     5
 42
50.0
  3
INABA_S40G
100
AcDbAlignedDimension
 13
9362.009526267033
 23
1873.141384512921
 33
0.0
 14
9307.009526267034
 24
1823.141384512921
 34
0.0
 50
90.0
100
AcDbRotatedDimension
1001
ACAD
1000
DSTYLE
1002
{
1070
   174
1070
     0
1070
   272
1070
     1
1070
   288
1070
     0
1070
   341
1005
0
1002
}
  0
LINE
  5
17766
330
747D
100
AcDbEntity
  8
部品1
100
AcDbLine
 10
9362.009526267033
 20
3755.283822441799
 30
0.0
 11
9362.009526267033
 21
1723.141384512921
 31
0.0
  0
LINE
  5
17767
330
747D
100
AcDbEntity
  8
部品1
100
AcDbLine
 10
9417.009526267033
 20
3663.141384512921
 30
0.0
 11
9417.00952626704
 21
1723.141384512921
 31
0.0
  0
LINE
  5
17768
330
747D
100
AcDbEntity
  8
部品1
100
AcDbLine
 10
9417.00952626704
 20
1873.141384512921
 30
0.0
 11
12832.00952626703
 21
1873.141384512923
 31
0.0
  0
LINE
  5
17769
330
747D
100
AcDbEntity
  8
部品1
100
AcDbLine
 10
9362.009526267033
 20
3663.141384512921
 30
0.0
 11
12832.00952626702
 21
3663.141384512921
 31
0.0
  0
LINE
  5
1776A
330
747D
100
AcDbEntity
  8
部品1
100
AcDbLine
 10
12777.00952626702
 20
3663.141384512925
 30
0.0
 11
12777.00952626702
 21
1873.141384512925
 31
0.0
  0
LINE
  5
1776B
330
747D
100
AcDbEntity
  8
細線
 48
50.0
100
AcDbLine
 10
11019.50952626703
 20
3663.141384512921
 30
0.0
 11
11019.50952626703
 21
1873.141384512921
 31
0.0
  0
LINE
  5
1776C
330
747D
100
AcDbEntity
  8
細線
 48
50.0
100
AcDbLine
 10
11034.50952626703
 20
3663.141384512921
 30
0.0
 11
11034.50952626703
 21
1873.141384512921
 31
0.0
  0
LINE
  5
1776D
330
747D
100
AcDbEntity
  8
細線
 48
50.0
100
AcDbLine
 10
10894.50952626703
 20
3663.141384512921
 30
0.0
 11
10894.50952626703
 21
1873.141384512921
 31
0.0
  0
LINE
  5
1776E
330
747D
100
AcDbEntity
  8
細線
 48
50.0
100
AcDbLine
 10
10879.50952626703
 20
3663.141384512921
 30
0.0
 11
10879.50952626703
 21
1873.141384512921
 31
0.0
  0
LINE
  5
1776F
330
747D
100
AcDbEntity
  8
細線
 48
50.0
100
AcDbLine
 10
10739.50952626703
 20
3663.141384512921
 30
0.0
 11
10739.50952626703
 21
1873.141384512921
 31
0.0
  0
LINE
  5
17770
330
747D
100
AcDbEntity
  8
細線
 48
50.0
100
AcDbLine
 10
10754.50952626703
 20
3663.141384512921
 30
0.0
 11
10754.50952626703
 21
1873.141384512921
 31
0.0
  0
TEXT
  5
17771
330
747D
100
AcDbEntity
  8
部品1
 48
50.0
100
AcDbText
 10
11422.91038415585
 20
3920.410477451228
 30
0.0
 40
120.0
  1
28
 50
90.0
  7
STYLE1
100
AcDbText
  0
TEXT
  5
17772
330
747D
100
AcDbEntity
  8
部品1
 48
50.0
100
AcDbText
 10
10945.27736149076
 20
4057.91173566951
 30
0.0
 40
120.0
  1
1000
  7
STYLE1
100
AcDbText
  0
LINE
  5
17773
330
747D
100
AcDbEntity
  8
部品1
 48
50.0
100
AcDbLine
 10
11257.00952626703
 20
4022.027713517077
 30
0.0
 11
11257.00952626703
 21
4005.827713517078
 31
0.0
  0
LINE
  5
17774
330
747D
100
AcDbEntity
  8
部品1
 48
50.0
100
AcDbLine
 10
10957.00952626703
 20
4022.027713517077
 30
0.0
 11
11257.00952626703
 21
4022.027713517077
 31
0.0
  0
LINE
  5
17775
330
747D
100
AcDbEntity
  8
部品1
100
AcDbLine
 10
9309.554512623995
 20
3896.859119847189
 30
0.0
 11
12904.6214031285
 21
3841.78218222206
 31
0.0
  0
LINE
  5
17776
330
747D
100
AcDbEntity
  8
部品1
100
AcDbLine
 10
9317.352090868986
 20
3755.922409581888
 30
0.0
 11
12886.67322680688
 21
3716.893984347682
 31
0.0
  0
LINE
  5
17777
330
747D
100
AcDbEntity
  8
細線
 48
50.0
100
AcDbLine
 10
9335.009526267034
 20
3895.541060888326
 30
0.0
 11
9329.720424711526
 21
3755.455428260972
 31
0.0
  0
LINE
  5
17778
330
747D
100
AcDbEntity
  8
細線
 48
50.0
100
AcDbLine
 10
12878.97880946072
 20
3842.294806992391
 30
0.0
 11
12874.26184337904
 21
3717.362591057474
 31
0.0
  0
LINE
  5
17779
330
747D
100
AcDbEntity
  8
部品1
 48
50.0
100
AcDbLine
 10
9302.19381218014
 20
3889.734930677614
 30
0.0
 11
9302.574071957952
 21
3869.807966231202
 31
0.0
  0
LINE
  5
1777A
330
747D
100
AcDbEntity
  8
部品1
 48
50.0
100
AcDbLine
 10
9305.642844064198
 20
3866.23268473773
 30
0.0
 11
9307.346745555561
 21
3776.942188031082
 31
0.0
  0
LINE
  5
1777B
330
747D
100
AcDbEntity
  8
細線
 48
50.0
100
AcDbLine
 10
9303.048949367846
 20
3869.158466354284
 30
0.0
 11
12908.68493411302
 21
3813.534261713454
 31
0.0
  0
LINE
  5
1777C
330
747D
100
AcDbEntity
  8
細線
 48
50.0
100
AcDbLine
 10
9307.809424605132
 20
3776.296954656421
 30
0.0
 11
12897.81308903577
 21
3736.487635681925
 31
0.0
  0
LINE
  5
1777D
330
747D
100
AcDbEntity
  8
部品1
 48
50.0
100
AcDbLine
 10
9310.415517661805
 20
3773.36690653761
 30
0.0
 11
9310.617470282236
 21
3762.783871144518
 31
0.0
  0
ARC
  5
1777E
330
747D
100
AcDbEntity
  8
部品1
 48
50.0
100
AcDbCircle
 10
9309.192538008479
 20
3889.868485085042
 30
0.0
 40
7.0
100
AcDbArc
 50
87.03587545283095
 51
181.0932240293156
  0
ARC
  5
1777F
330
747D
100
AcDbEntity
  8
部品1
 48
50.0
100
AcDbCircle
 10
9317.616196110575
 20
3762.917425551947
 30
0.0
 40
7.0
100
AcDbArc
 50
181.0932240293156
 51
267.8377559869489
  0
ARC
  5
17780
330
747D
100
AcDbEntity
  8
部品1
100
AcDbCircle
 10
9307.416063735374
 20
3773.309668934427
 30
0.0
 40
3.0
100
AcDbArc
 50
1.093224029315636
 51
80.18775403169765
  0
ARC
  5
17781
330
747D
100
AcDbEntity
  8
部品1
100
AcDbCircle
 10
9302.643390137767
 20
3866.175447134548
 30
0.0
 40
3.0
100
AcDbArc
 50
1.093224029315636
 51
80.18775403169765
  0
ARC
  5
17782
330
747D
100
AcDbEntity
  8
部品1
100
AcDbCircle
 10
9303.273944540789
 20
3869.821321671945
 30
0.0
 40
0.7
100
AcDbArc
 50
181.0932240292114
 51
260.1877540314855
  0
ARC
  5
17783
330
747D
100
AcDbEntity
  8
部品1
100
AcDbCircle
 10
9308.0466181384
 20
3776.955543471824
 30
0.0
 40
0.7
100
AcDbArc
 50
181.0932240292635
 51
260.1877540314855
  0
LINE
  5
17784
330
747D
100
AcDbEntity
  8
部品1
 48
50.0
100
AcDbLine
 10
12911.22342907774
 20
3834.082536787141
 30
0.0
 11
12909.19280788677
 21
3814.137495529362
 31
0.0
  0
LINE
  5
17785
330
747D
100
AcDbEntity
  8
部品1
 48
50.0
100
AcDbLine
 10
12905.84024140228
 20
3810.82686145645
 30
0.0
 11
12898.33346213745
 21
3737.094240711439
 31
0.0
  0
LINE
  5
17786
330
747D
100
AcDbEntity
  8
部品1
 48
50.0
100
AcDbLine
 10
12894.98089565296
 20
3733.783606638527
 30
0.0
 11
12893.90133261322
 21
3723.179989644969
 31
0.0
  0
ARC
  5
17787
330
747D
100
AcDbEntity
  8
部品1
 48
50.0
100
AcDbCircle
 10
12904.25942851298
 20
3834.791547459914
 30
0.0
 40
7.0
100
AcDbArc
 50
354.1866997665662
 51
87.03587545283095
  0
ARC
  5
17788
330
747D
100
AcDbEntity
  8
部品1
 48
50.0
100
AcDbCircle
 10
12886.93733204847
 20
3723.889000317742
 30
0.0
 40
7.0
100
AcDbArc
 50
267.8377559869489
 51
354.1866997665662
  0
ARC
  5
17789
330
747D
100
AcDbEntity
  8
部品1
100
AcDbCircle
 10
12897.96546732357
 20
3733.479744921623
 30
0.0
 40
3.0
100
AcDbArc
 50
95.0921697642102
 51
174.1866997665661
  0
ARC
  5
1778A
330
747D
100
AcDbEntity
  8
部品1
100
AcDbCircle
 10
12908.8248130729
 20
3810.522999739549
 30
0.0
 40
3.0
100
AcDbArc
 50
95.0921697642102
 51
174.1866997665661
  0
ARC
  5
1778B
330
747D
100
AcDbEntity
  8
部品1
100
AcDbCircle
 10
12908.4964078303
 20
3814.208396596637
 30
0.0
 40
0.7
100
AcDbArc
 50
275.0921697642102
 51
354.1866997665662
  0
ARC
  5
1778C
330
747D
100
AcDbEntity
  8
部品1
100
AcDbCircle
 10
12897.63706208097
 20
3737.165141778713
 30
0.0
 40
0.7
100
AcDbArc
 50
275.0921697642102
 51
354.1866997667087
  0
LINE
  5
1778D
330
747D
100
AcDbEntity
  8
部品1
100
AcDbLine
 10
10931.554512624
 20
4023.345772475938
 30
0.0
 11
11257.00952626703
 21
4005.827713517078
 31
0.0
  0
LINE
  5
1778E
330
747D
100
AcDbEntity
  8
部品1
100
AcDbLine
 10
11097.00952626703
 20
3663.141384512921
 30
0.0
 11
11097.00952626703
 21
1873.141384512923
 31
0.0
  0
LINE
  5
1778F
330
747D
100
AcDbEntity
  8
細線
 48
50.0
100
AcDbLine
 10
11174.50952626703
 20
3663.141384512921
 30
0.0
 11
11174.50952626703
 21
1873.141384512923
 31
0.0
  0
LINE
  5
17790
330
747D
100
AcDbEntity
  8
細線
 48
50.0
100
AcDbLine
 10
11159.50952626703
 20
3663.141384512921
 30
0.0
 11
11159.50952626703
 21
1873.141384512923
 31
0.0
  0
LINE
  5
17791
330
747D
100
AcDbEntity
  8
細線
 48
50.0
100
AcDbLine
 10
11299.50952626703
 20
3663.141384512921
 30
0.0
 11
11299.50952626703
 21
1873.141384512923
 31
0.0
  0
LINE
  5
17792
330
747D
100
AcDbEntity
  8
細線
 48
50.0
100
AcDbLine
 10
11314.50952626703
 20
3663.141384512921
 30
0.0
 11
11314.50952626703
 21
1873.141384512923
 31
0.0
  0
LINE
  5
17793
330
747D
100
AcDbEntity
  8
細線
 48
50.0
100
AcDbLine
 10
11454.50952626703
 20
3663.141384512921
 30
0.0
 11
11454.50952626703
 21
1873.141384512923
 31
0.0
  0
LINE
  5
17794
330
747D
100
AcDbEntity
  8
細線
 48
50.0
100
AcDbLine
 10
11439.50952626703
 20
3663.141384512921
 30
0.0
 11
11439.50952626703
 21
1873.141384512923
 31
0.0
  0
DIMENSION
  5
17795
330
747D
100
AcDbEntity
  8
寸法
100
AcDbDimension
  2
*D24
 10
13536.93668423916
 20
3843.141384512922
 30
0.0
 11
13436.92487321554
 21
2833.141384512925
 31
0.0
 70
    32
 71
     5
 42
2019.999999999999
  3
INABA_S40G
100
AcDbAlignedDimension
 13
12832.00952626703
 23
1823.141384512923
 33
0.0
 14
12912.00952626703
 24
3843.141384512922
 34
0.0
 50
90.0
100
AcDbRotatedDimension
1001
ACAD
1000
DSTYLE
1002
{
1070
   174
1070
     0
1070
   272
1070
     1
1070
   288
1070
     0
1070
   341
1005
0
1002
}
  0
DIMENSION
  5
17796
330
747D
100
AcDbEntity
  8
寸法
100
AcDbDimension
  2
*D25
 10
8218.259397083773
 20
3898.141384512922
 30
0.0
 11
8118.247586060151
 21
2860.64138451292
 31
0.0
 70
    32
 71
     5
 42
2075.000000000005
  3
INABA_S40G
100
AcDbAlignedDimension
 13
9362.009526267033
 23
1823.141384512916
 33
0.0
 14
9302.009526267033
 24
3898.141384512921
 34
0.0
 50
90.0
100
AcDbRotatedDimension
1001
ACAD
1000
DSTYLE
1002
{
1070
   174
1070
     0
1070
   272
1070
     1
1070
   288
1070
     0
1070
   341
1005
0
1002
}
  0
DIMENSION
  5
17797
330
747D
100
AcDbEntity
  8
寸法
100
AcDbDimension
  2
*D26
 10
8518.259397083772
 20
1873.141384512916
 30
0.0
 11
8418.259397083771
 21
2768.141384512919
 31
0.0
 70
    32
 71
     5
 42
1790.000000000002
  3
INABA_S40G
100
AcDbAlignedDimension
 13
9362.009526267033
 23
3663.141384512918
 33
0.0
 14
9362.009526267033
 24
1873.141384512916
 34
0.0
 50
90.0
100
AcDbRotatedDimension
1001
ACAD
1000
DSTYLE
1002
{
1070
   174
1070
     0
1070
   272
1070
     1
1070
   288
1070
     0
1070
   341
1005
0
1002
}
  0
LINE
  5
1779C
330
747D
100
AcDbEntity
  8
破線
 48
5.0
100
AcDbLine
 10
9362.009526267035
 20
1723.141384512921
 30
0.0
 11
9362.009526267035
 21
1473.141384512921
 31
0.0
  0
LINE
  5
1779D
330
747D
100
AcDbEntity
  8
破線
 48
5.0
100
AcDbLine
 10
9417.009526267037
 20
1723.141384512921
 30
0.0
 11
9417.009526267037
 21
1473.141384512921
 31
0.0
  0
LINE
  5
1779E
330
747D
100
AcDbEntity
  8
破線
 48
5.0
100
AcDbLine
 10
9362.009526267035
 20
1473.141384512921
 30
0.0
 11
9417.009526267033
 21
1473.141384512921
 31
0.0
  0
LINE
  5
1779F
330
747D
100
AcDbEntity
  8
部品1
100
AcDbLine
 10
9362.009526267035
 20
1823.141384512921
 30
0.0
 11
8969.012312058188
 21
1723.141384512921
 31
0.0
  0
LINE
  5
17A68
330
747D
100
AcDbEntity
  8
部品1
100
AcDbLine
 10
6748.461099046281
 20
9736.31085581438
 30
0.0
 11
6776.461099046281
 21
9736.31085581438
 31
0.0
  0
LINE
  5
17A69
330
747D
100
AcDbEntity
  8
部品1
100
AcDbLine
 10
4594.461099046255
 20
9736.310855814252
 30
0.0
 11
4566.461099046255
 21
9736.310855814252
 31
0.0
  0
DIMENSION
  5
17D05
330
747D
100
AcDbEntity
  8
寸法
 48
50.0
100
AcDbDimension
  2
*D27
 10
7064.00420136803
 20
3471.141384512921
 30
0.0
 11
6964.004201368029
 21
2647.141384512922
 31
0.0
 70
    32
  1
有効開口部高サ <>
 71
     5
 42
1647.999999999999
  3
INABA_S40G
100
AcDbAlignedDimension
 13
6776.461099046284
 23
1823.141384512921
 33
0.0
 14
6776.461099046284
 24
3471.141384512921
 34
0.0
 50
90.0
100
AcDbRotatedDimension
  0
DIMENSION
  5
17D06
330
747D
100
AcDbEntity
  8
寸法
 48
50.0
100
AcDbDimension
  2
*D28
 10
7064.00420136803
 20
3498.141384512922
 30
0.0
 11
7204.174024614395
 21
3499.10858435258
 31
0.0
 70
   160
 71
     5
 42
27.00000000000045
  3
INABA_S40G
100
AcDbAlignedDimension
 13
6776.461099046284
 23
3471.141384512921
 33
0.0
 14
6776.461099046284
 24
3498.141384512922
 34
0.0
 50
90.0
100
AcDbRotatedDimension
1001
ACAD
1000
DSTYLE
1002
{
1070
   279
1070
     2
1002
}
  0
DIMENSION
  5
17D07
330
747D
100
AcDbEntity
  8
寸法
 48
50.0
100
AcDbDimension
  2
*D29
 10
7064.00420136803
 20
3663.141384512921
 30
0.0
 11
7064.00420136803
 21
3901.626665887162
 31
0.0
 70
   160
 71
     5
 42
164.9999999999995
  3
INABA_S40G
100
AcDbAlignedDimension
 13
6776.461099046284
 23
3498.141384512922
 33
0.0
 14
6776.461099046284
 24
3663.141384512921
 34
0.0
 50
90.0
100
AcDbRotatedDimension
1001
ACAD
1000
DSTYLE
1002
{
1002
}
  0
LINE
  5
18681
330
747D
100
AcDbEntity
  8
細線
100
AcDbLine
 10
4669.461099046276
 20
3458.141384512921
 30
0.0
 11
6673.461099046278
 21
3458.141384512921
 31
0.0
  0
LINE
  5
18682
330
747D
100
AcDbEntity
  8
細線
100
AcDbLine
 10
4669.461099046276
 20
3393.141384512921
 30
0.0
 11
6673.461099046278
 21
3393.141384512921
 31
0.0
  0
TEXT
  5
186A0
330
747D
100
AcDbEntity
  8
文字
 62
     7
 48
50.0
100
AcDbText
 10
15022.63965474516
 20
9910.013745883727
 30
0.0
 40
100.0
  1
F12            1.0
  7
STYLE1
100
AcDbText
  0
TEXT
  5
186B7
330
747D
100
AcDbEntity
  8
文字
 62
     7
 48
50.0
100
AcDbText
 10
15022.63965474517
 20
10760.01374588373
 30
0.0
 40
100.0
  1
F12         1.0,1.2
  7
STYLE1
100
AcDbText
  0
LINE
  5
186B9
330
747D
100
AcDbEntity
  8
仕様書枠
 48
50.0
100
AcDbLine
 10
16307.19999999999
 20
8859.6
 30
0.0
 11
13127.2
 21
8859.600000000005
 31
0.0
  0
TEXT
  5
186BB
330
747D
100
AcDbEntity
  8
文字
 62
     7
 48
50.0
100
AcDbText
 10
15022.63965474516
 20
9230.013745883731
 30
0.0
 40
100.0
  1
F12            0.7
  7
STYLE1
100
AcDbText
  0
LINE
  5
18700
330
747D
100
AcDbEntity
  8
部品1
100
AcDbLine
 10
3727.691507699903
 20
1853.045195080586
 30
0.0
 11
3652.691507699902
 21
1723.141384512921
 31
0.0
  0
TEXT
  5
18701
330
747D
100
AcDbEntity
  8
部品1
100
AcDbText
 10
3755.796449824675
 20
1759.248288118823
 30
0.0
 40
125.0
  1
G.L
  7
MSPゴシック
100
AcDbText
  0
LINE
  5
18702
330
747D
100
AcDbEntity
  8
部品1
100
AcDbLine
 10
3652.691507699902
 20
1723.141384512921
 30
0.0
 11
3577.691507699903
 21
1853.045195080586
 31
0.0
  0
LINE
  5
18703
330
747D
100
AcDbEntity
  8
部品1
100
AcDbLine
 10
3577.691507699903
 20
1853.045195080586
 30
0.0
 11
3727.691507699903
 21
1853.045195080586
 31
0.0
  0
ENDSEC
  0
SECTION
  2
OBJECTS
  0
DICTIONARY
  5
7471
330
0
100
AcDbDictionary
281
     1
  3
ACAD_COLOR
350
1675F
  3
ACAD_GROUP
350
7472
  3
ACAD_LAYOUT
350
16760
  3
ACAD_MATERIAL
350
1675E
  3
ACAD_MLINESTYLE
350
7473
  3
ACAD_PLOTSETTINGS
350
16761
  3
ACAD_PLOTSTYLENAME
350
1675C
  3
ACDBHEADERROUNDTRIPXREC
350
1875A
  3
AcDbVariableDictionary
350
168BB
  3
CONTENTDICTIONARY
350
E71C
  3
DRAWINGVARIABLESDICT
350
F3B9
  0
DICTIONARY
  5
16D27
330
7467
100
AcDbDictionary
280
     1
281
     1
  3
ACAD_LAYERSTATES
360
16D28
  0
DICTIONARY
  5
1675F
102
{ACAD_REACTORS
330
7471
102
}
330
7471
100
AcDbDictionary
281
     1
  0
DICTIONARY
  5
7472
102
{ACAD_REACTORS
330
7471
102
}
330
7471
100
AcDbDictionary
281
     1
  0
DICTIONARY
  5
16760
102
{ACAD_REACTORS
330
7471
102
}
330
7471
100
AcDbDictionary
281
     1
  3
Model
350
16762
  3
レイアウト1
350
16763
  0
DICTIONARY
  5
1675E
102
{ACAD_REACTORS
330
7471
102
}
330
7471
100
AcDbDictionary
281
     1
  0
DICTIONARY
  5
7473
102
{ACAD_REACTORS
330
7471
102
}
330
7471
100
AcDbDictionary
281
     1
  3
STANDARD
350
7480
  0
DICTIONARY
  5
16761
102
{ACAD_REACTORS
330
7471
102
}
330
7471
100
AcDbDictionary
281
     1
  0
ACDBDICTIONARYWDFLT
  5
1675C
102
{ACAD_REACTORS
330
7471
102
}
330
7471
100
AcDbDictionary
281
     1
  3
Normal
350
1675D
100
AcDbDictionaryWithDefault
340
1675D
  0
DICTIONARY
  5
1875A
102
{ACAD_REACTORS
330
7471
102
}
330
7471
100
AcDbDictionary
281
     1
  3
COLORDICT
350
1875C
  3
MATERIALDICT
350
1875B
  0
DICTIONARY
  5
168BB
102
{ACAD_REACTORS
330
7471
102
}
330
7471
100
AcDbDictionary
281
     1
  3
DIMASSOC
350
168BC
  3
PROJECTNAME
350
168BD
  0
DICTIONARY
  5
E71C
102
{ACAD_REACTORS
330
7471
102
}
330
7471
100
AcDbDictionary
281
     1
  0
DICTIONARY
  5
F3B9
102
{ACAD_REACTORS
330
7471
102
}
330
7471
100
AcDbDictionary
281
     1
1001
DRAWINGVARIABLESXDATA
1000
POLARMODE
1000
1
  0
DICTIONARY
  5
16D28
102
{ACAD_REACTORS
330
16D27
102
}
330
16D27
100
AcDbDictionary
281
     1
  0
LAYOUT
  5
16762
102
{ACAD_XDICTIONARY
360
1875D
102
}
102
{ACAD_REACTORS
330
16760
102
}
330
16760
100
AcDbPlotSettings
  1

  2
Canon iR C3880/C4580 LIPSLX
  4
A3
  6

 40
5.873749732971191
 41
5.873747825622558
 42
5.873748779296875
 43
5.873748779296875
 44
296.9259948730469
 45
419.9466552734374
 46
0.0
 47
0.0
 48
0.0
 49
0.0
140
0.0
141
0.0
142
1.0
143
40.0
 70
 11952
 72
     1
 73
     1
 74
     2
  7
inaba.ctb
 75
    24
147
0.025
148
0.0
149
0.0
100
AcDbLayout
  1
Model
 70
     1
 71
     0
 10
0.0
 20
0.0
 11
12.0
 21
9.0
 12
0.0
 22
0.0
 32
0.0
 14
0.0
 24
0.0
 34
0.0
 15
0.0
 25
0.0
 35
0.0
146
0.0
 13
0.0
 23
0.0
 33
0.0
 16
1.0
 26
0.0
 36
0.0
 17
0.0
 27
1.0
 37
0.0
 76
     0
330
747D
  0
LAYOUT
  5
16763
102
{ACAD_XDICTIONARY
360
1875F
102
}
102
{ACAD_REACTORS
330
16760
102
}
330
16760
100
AcDbPlotSettings
  1

  2
EPSON LP-7000C
  4

  6

 40
0.0
 41
0.0
 42
0.0
 43
0.0
 44
0.0
 45
0.0
 46
0.0
 47
0.0
 48
0.0
 49
0.0
140
0.0
141
0.0
142
1.0
143
1.0
 70
   688
 72
     0
 73
     0
 74
     5
  7
inaba.ctb
 75
    16
147
1.0
148
0.0
149
0.0
100
AcDbLayout
  1
レイアウト1
 70
     0
 71
     1
 10
0.0
 20
0.0
 11
420.0
 21
297.0
 12
0.0
 22
0.0
 32
0.0
 14
1.000000000000000E+20
 24
1.000000000000000E+20
 34
1.000000000000000E+20
 15
-1.000000000000000E+20
 25
-1.000000000000000E+20
 35
-1.000000000000000E+20
146
0.0
 13
0.0
 23
0.0
 33
0.0
 16
1.0
 26
0.0
 36
0.0
 17
0.0
 27
1.0
 37
0.0
 76
     0
330
747A
  0
MLINESTYLE
  5
7480
102
{ACAD_REACTORS
330
7473
102
}
330
7473
100
AcDbMlineStyle
  2
STANDARD
 70
     0
  3

 62
     0
 51
90.0
 52
90.0
 71
     2
 49
0.5
 62
   256
  6
BYLAYER
 49
-0.5
 62
   256
  6
BYLAYER
  0
ACDBPLACEHOLDER
  5
1675D
102
{ACAD_REACTORS
330
1675C
102
}
330
1675C
  0
XRECORD
  5
1875C
102
{ACAD_REACTORS
330
1875A
102
}
330
1875A
100
AcDbXrecord
280
     1
340
1675F
  0
XRECORD
  5
1875B
102
{ACAD_REACTORS
330
1875A
102
}
330
1875A
100
AcDbXrecord
280
     1
340
1675E
  0
DICTIONARYVAR
  5
168BC
102
{ACAD_REACTORS
330
168BB
102
}
330
168BB
100
DictionaryVariables
280
     0
  1
1
  0
DICTIONARYVAR
  5
168BD
102
{ACAD_REACTORS
330
168BB
102
}
330
168BB
100
DictionaryVariables
280
     0
  1

  0
DICTIONARY
  5
1875D
330
16762
100
AcDbDictionary
280
     1
281
     1
  3
ACAD_XREC_ROUNDTRIP
360
1875E
  0
DICTIONARY
  5
1875F
330
16763
100
AcDbDictionary
280
     1
281
     1
  3
ACAD_XREC_ROUNDTRIP
360
18760
  0
XRECORD
  5
1875E
102
{ACAD_REACTORS
330
1875D
102
}
330
1875D
100
AcDbXrecord
280
     1
102
SHADEPLOT
 70
     0
102
SHADEPLOTRESLEVEL
 70
     2
102
SHADEPLOTCUSTOMDPI
 70
   300
  0
XRECORD
  5
18760
102
{ACAD_REACTORS
330
1875F
102
}
330
1875F
100
AcDbXrecord
280
     1
102
SHADEPLOT
 70
     0
102
SHADEPLOTRESLEVEL
 70
     2
102
SHADEPLOTCUSTOMDPI
 70
   300
  0
ENDSEC
  0
EOF
