  0
SECTION
  2
HEADER
  9
$ACADVER
  1
AC1015
  9
$ACADMAINTVER
 70
    20
  9
$DWGCODEPAGE
  3
ANSI_932
  9
$INSBASE
 10
0.0
 20
0.0
 30
0.0
  9
$EXTMIN
 10
139.9999999999995
 20
-0.0000000000000909
 30
0.0
  9
$EXTMAX
 10
16307.2
 20
11409.6
 30
0.0
  9
$LIMMIN
 10
0.0
 20
0.0
  9
$LIMMAX
 10
16800.0
 20
11880.0
  9
$ORTHOMODE
 70
     0
  9
$REGENMODE
 70
     1
  9
$FILLMODE
 70
     1
  9
$QTEXTMODE
 70
     0
  9
$MIRRTEXT
 70
     1
  9
$LTSCALE
 40
20.0
  9
$ATTMODE
 70
     1
  9
$TEXTSIZE
 40
4.0
  9
$TRACEWID
 40
1.0
  9
$TEXTSTYLE
  7
MSPゴシック
  9
$CLAYER
  8
寸法
  9
$CELTYPE
  6
BYLAYER
  9
$CECOLOR
 62
   256
  9
$CELTSCALE
 40
50.0
  9
$DISPSILH
 70
     0
  9
$DIMSCALE
 40
40.0
  9
$DIMASZ
 40
2.5
  9
$DIMEXO
 40
0.5
  9
$DIMDLI
 40
7.0
  9
$DIMRND
 40
0.0
  9
$DIMDLE
 40
0.0
  9
$DIMEXE
 40
1.5
  9
$DIMTP
 40
0.0
  9
$DIMTM
 40
0.0
  9
$DIMTXT
 40
3.0
  9
$DIMCEN
 40
0.0
  9
$DIMTSZ
 40
0.0
  9
$DIMTOL
 70
     0
  9
$DIMLIM
 70
     0
  9
$DIMTIH
 70
     0
  9
$DIMTOH
 70
     0
  9
$DIMSE1
 70
     0
  9
$DIMSE2
 70
     0
  9
$DIMTAD
 70
     3
  9
$DIMZIN
 70
     8
  9
$DIMBLK
  1

  9
$DIMASO
 70
     1
  9
$DIMSHO
 70
     1
  9
$DIMPOST
  1

  9
$DIMAPOST
  1

  9
$DIMALT
 70
     0
  9
$DIMALTD
 70
     2
  9
$DIMALTF
 40
0.0394
  9
$DIMLFAC
 40
1.0
  9
$DIMTOFL
 70
     1
  9
$DIMTVP
 40
0.0
  9
$DIMTIX
 70
     1
  9
$DIMSOXD
 70
     0
  9
$DIMSAH
 70
     1
  9
$DIMBLK1
  1
DOTSMALL
  9
$DIMBLK2
  1
DOTSMALL
  9
$DIMSTYLE
  2
INABA_S40G
  9
$DIMCLRD
 70
     0
  9
$DIMCLRE
 70
     0
  9
$DIMCLRT
 70
     7
  9
$DIMTFAC
 40
1.0
  9
$DIMGAP
 40
1.0
  9
$DIMJUST
 70
     0
  9
$DIMSD1
 70
     0
  9
$DIMSD2
 70
     0
  9
$DIMTOLJ
 70
     1
  9
$DIMTZIN
 70
     0
  9
$DIMALTZ
 70
     0
  9
$DIMALTTZ
 70
     0
  9
$DIMUPT
 70
     0
  9
$DIMDEC
 70
     1
  9
$DIMTDEC
 70
     4
  9
$DIMALTU
 70
     2
  9
$DIMALTTD
 70
     2
  9
$DIMTXSTY
  7
STYLE1
  9
$DIMAUNIT
 70
     0
  9
$DIMADEC
 70
     0
  9
$DIMALTRND
 40
0.0
  9
$DIMAZIN
 70
     0
  9
$DIMDSEP
 70
    46
  9
$DIMATFIT
 70
     3
  9
$DIMFRAC
 70
     0
  9
$DIMLDRBLK
  1

  9
$DIMLUNIT
 70
     2
  9
$DIMLWD
 70
    -2
  9
$DIMLWE
 70
    -2
  9
$DIMTMOVE
 70
     2
  9
$LUNITS
 70
     2
  9
$LUPREC
 70
     1
  9
$SKETCHINC
 40
1.0
  9
$FILLETRAD
 40
3.0
  9
$AUNITS
 70
     0
  9
$AUPREC
 70
     0
  9
$MENU
  1
acad
  9
$ELEVATION
 40
0.0
  9
$PELEVATION
 40
0.0
  9
$THICKNESS
 40
0.0
  9
$LIMCHECK
 70
     0
  9
$CHAMFERA
 40
0.0
  9
$CHAMFERB
 40
0.0
  9
$CHAMFERC
 40
0.0
  9
$CHAMFERD
 40
0.0
  9
$SKPOLY
 70
     0
  9
$TDCREATE
 40
2451368.612993866
  9
$TDUCREATE
 40
2451368.237993866
  9
$TDUPDATE
 40
2455569.646737558
  9
$TDUUPDATE
 40
2455569.271737558
  9
$TDINDWG
 40
0.8440870602
  9
$TDUSRTIMER
 40
0.8440865278
  9
$USRTIMER
 70
     1
  9
$ANGBASE
 50
0.0
  9
$ANGDIR
 70
     0
  9
$PDMODE
 70
     3
  9
$PDSIZE
 40
2.0
  9
$PLINEWID
 40
0.0
  9
$SPLFRAME
 70
     0
  9
$SPLINETYPE
 70
     6
  9
$SPLINESEGS
 70
     8
  9
$HANDSEED
  5
1ADEF
  9
$SURFTAB1
 70
     6
  9
$SURFTAB2
 70
     6
  9
$SURFTYPE
 70
     6
  9
$SURFU
 70
     6
  9
$SURFV
 70
     6
  9
$UCSBASE
  2

  9
$UCSNAME
  2

  9
$UCSORG
 10
0.0
 20
0.0
 30
0.0
  9
$UCSXDIR
 10
1.0
 20
0.0
 30
0.0
  9
$UCSYDIR
 10
0.0
 20
1.0
 30
0.0
  9
$UCSORTHOREF
  2

  9
$UCSORTHOVIEW
 70
     0
  9
$UCSORGTOP
 10
0.0
 20
0.0
 30
0.0
  9
$UCSORGBOTTOM
 10
0.0
 20
0.0
 30
0.0
  9
$UCSORGLEFT
 10
0.0
 20
0.0
 30
0.0
  9
$UCSORGRIGHT
 10
0.0
 20
0.0
 30
0.0
  9
$UCSORGFRONT
 10
0.0
 20
0.0
 30
0.0
  9
$UCSORGBACK
 10
0.0
 20
0.0
 30
0.0
  9
$PUCSBASE
  2

  9
$PUCSNAME
  2

  9
$PUCSORG
 10
0.0
 20
0.0
 30
0.0
  9
$PUCSXDIR
 10
1.0
 20
0.0
 30
0.0
  9
$PUCSYDIR
 10
0.0
 20
1.0
 30
0.0
  9
$PUCSORTHOREF
  2

  9
$PUCSORTHOVIEW
 70
     0
  9
$PUCSORGTOP
 10
0.0
 20
0.0
 30
0.0
  9
$PUCSORGBOTTOM
 10
0.0
 20
0.0
 30
0.0
  9
$PUCSORGLEFT
 10
0.0
 20
0.0
 30
0.0
  9
$PUCSORGRIGHT
 10
0.0
 20
0.0
 30
0.0
  9
$PUCSORGFRONT
 10
0.0
 20
0.0
 30
0.0
  9
$PUCSORGBACK
 10
0.0
 20
0.0
 30
0.0
  9
$USERI1
 70
     0
  9
$USERI2
 70
     0
  9
$USERI3
 70
     0
  9
$USERI4
 70
     0
  9
$USERI5
 70
     0
  9
$USERR1
 40
0.0
  9
$USERR2
 40
0.0
  9
$USERR3
 40
0.0
  9
$USERR4
 40
0.0
  9
$USERR5
 40
0.0
  9
$WORLDVIEW
 70
     1
  9
$SHADEDGE
 70
     3
  9
$SHADEDIF
 70
    70
  9
$TILEMODE
 70
     1
  9
$MAXACTVP
 70
    16
  9
$PINSBASE
 10
0.0
 20
0.0
 30
0.0
  9
$PLIMCHECK
 70
     0
  9
$PEXTMIN
 10
1.000000000000000E+20
 20
1.000000000000000E+20
 30
1.000000000000000E+20
  9
$PEXTMAX
 10
-1.000000000000000E+20
 20
-1.000000000000000E+20
 30
-1.000000000000000E+20
  9
$PLIMMIN
 10
0.0
 20
0.0
  9
$PLIMMAX
 10
420.0
 20
297.0
  9
$UNITMODE
 70
     0
  9
$VISRETAIN
 70
     0
  9
$PLINEGEN
 70
     0
  9
$PSLTSCALE
 70
     0
  9
$TREEDEPTH
 70
  3020
  9
$CMLSTYLE
  2
STANDARD
  9
$CMLJUST
 70
     0
  9
$CMLSCALE
 40
1.0
  9
$PROXYGRAPHICS
 70
     1
  9
$MEASUREMENT
 70
     1
  9
$CELWEIGHT
370
    -1
  9
$ENDCAPS
280
     0
  9
$JOINSTYLE
280
     0
  9
$LWDISPLAY
290
     0
  9
$INSUNITS
 70
     0
  9
$HYPERLINKBASE
  1

  9
$STYLESHEET
  1
inaba.ctb
  9
$XEDIT
290
     1
  9
$CEPSNTYPE
380
     0
  9
$PSTYLEMODE
290
     1
  9
$FINGERPRINTGUID
  2
{0E4A3AB3-ADAA-44DC-861C-9525B65BB1EC}
  9
$VERSIONGUID
  2
{26A6AB4A-8CDB-4642-AD70-DE9077F44B32}
  9
$EXTNAMES
290
     1
  9
$PSVPSCALE
 40
0.0
  9
$OLESTARTUP
290
     0
  0
ENDSEC
  0
SECTION
  2
CLASSES
  0
CLASS
  1
ACDBDICTIONARYWDFLT
  2
AcDbDictionaryWithDefault
  3
ObjectDBX Classes
 90
        0
280
     0
281
     0
  0
CLASS
  1
DICTIONARYVAR
  2
AcDbDictionaryVar
  3
ObjectDBX Classes
 90
        0
280
     0
281
     0
  0
CLASS
  1
ACDBPLACEHOLDER
  2
AcDbPlaceHolder
  3
ObjectDBX Classes
 90
        0
280
     0
281
     0
  0
CLASS
  1
LAYOUT
  2
AcDbLayout
  3
ObjectDBX Classes
 90
        0
280
     0
281
     0
  0
ENDSEC
  0
SECTION
  2
TABLES
  0
TABLE
  2
VPORT
  5
746D
330
0
100
AcDbSymbolTable
 70
     2
  0
VPORT
  5
1ADE7
330
746D
100
AcDbSymbolTableRecord
100
AcDbViewportTableRecord
  2
*Active
 70
     0
 10
0.0
 20
0.0
 11
1.0
 21
1.0
 12
11720.03460912035
 22
5704.872900782047
 13
0.0
 23
0.0
 14
10.0
 24
10.0
 15
10.0
 25
10.0
 16
0.0
 26
0.0
 36
1.0
 17
0.0
 27
0.0
 37
0.0
 40
11513.2111641413
 41
2.234800838574423
 42
50.0
 43
0.0
 44
0.0
 50
0.0
 51
0.0
 71
     0
 72
     0
 73
     1
 74
     0
 75
     0
 76
     0
 77
     0
 78
     0
281
     0
 65
     1
110
0.0
120
0.0
130
0.0
111
1.0
121
0.0
131
0.0
112
0.0
122
1.0
132
0.0
 79
     0
146
0.0
  0
ENDTAB
  0
TABLE
  2
LTYPE
  5
746A
330
0
100
AcDbSymbolTable
 70
     3
  0
LTYPE
  5
7477
330
746A
100
AcDbSymbolTableRecord
100
AcDbLinetypeTableRecord
  2
BYBLOCK
 70
     0
  3

 72
    65
 73
     0
 40
0.0
  0
LTYPE
  5
7478
330
746A
100
AcDbSymbolTableRecord
100
AcDbLinetypeTableRecord
  2
BYLAYER
 70
     0
  3

 72
    65
 73
     0
 40
0.0
  0
LTYPE
  5
7479
330
746A
100
AcDbSymbolTableRecord
100
AcDbLinetypeTableRecord
  2
CONTINUOUS
 70
     0
  3
Solid line
 72
    65
 73
     0
 40
0.0
  0
LTYPE
  5
781A
330
746A
100
AcDbSymbolTableRecord
100
AcDbLinetypeTableRecord
  2
HIDDEN
 70
     0
  3
__ __ __ __ __ __ __ __ __ __ __ __ __ __ __ __
 72
    65
 73
     2
 40
0.375
 49
0.25
 74
     0
 49
-0.125
 74
     0
  0
LTYPE
  5
781B
330
746A
100
AcDbSymbolTableRecord
100
AcDbLinetypeTableRecord
  2
PHANTOM
 70
     0
  3
______  __  __  ______  __  __  ______  __  __ 
 72
    65
 73
     6
 40
2.5
 49
1.25
 74
     0
 49
-0.25
 74
     0
 49
0.25
 74
     0
 49
-0.25
 74
     0
 49
0.25
 74
     0
 49
-0.25
 74
     0
  0
ENDTAB
  0
TABLE
  2
LAYER
  5
7467
102
{ACAD_XDICTIONARY
360
18AAA
102
}
330
0
100
AcDbSymbolTable
 70
    10
  0
LAYER
  5
7474
330
7467
100
AcDbSymbolTableRecord
100
AcDbLayerTableRecord
  2
0
 70
     0
 62
     7
  6
CONTINUOUS
370
    -3
390
17AE0
  0
LAYER
  5
DEB3
330
7467
100
AcDbSymbolTableRecord
100
AcDbLayerTableRecord
  2
寸法
 70
     0
 62
     4
  6
CONTINUOUS
370
    -3
390
17AE0
  0
LAYER
  5
DEB4
330
7467
100
AcDbSymbolTableRecord
100
AcDbLayerTableRecord
  2
部品1
 70
     0
 62
     7
  6
CONTINUOUS
370
    -3
390
17AE0
  0
LAYER
  5
DEB5
330
7467
100
AcDbSymbolTableRecord
100
AcDbLayerTableRecord
  2
補助
 70
     0
 62
    -1
  6
CONTINUOUS
370
    -3
390
17AE0
  0
LAYER
  5
DEB6
330
7467
100
AcDbSymbolTableRecord
100
AcDbLayerTableRecord
  2
文字
 70
     0
 62
     7
  6
CONTINUOUS
370
    -3
390
17AE0
  0
LAYER
  5
F255
330
7467
100
AcDbSymbolTableRecord
100
AcDbLayerTableRecord
  2
DEFPOINTS
 70
     0
 62
     7
  6
CONTINUOUS
290
     0
370
    -3
390
17AE0
  0
LAYER
  5
10B54
330
7467
100
AcDbSymbolTableRecord
100
AcDbLayerTableRecord
  2
仕様書枠
 70
     0
 62
   230
  6
CONTINUOUS
370
    -3
390
17AE0
  0
LAYER
  5
11729
330
7467
100
AcDbSymbolTableRecord
100
AcDbLayerTableRecord
  2
Ｇ．Ｌ
 70
     0
 62
    30
  6
CONTINUOUS
370
    -3
390
17AE0
  0
LAYER
  5
1173F
330
7467
100
AcDbSymbolTableRecord
100
AcDbLayerTableRecord
  2
細線
 70
     0
 62
     5
  6
CONTINUOUS
370
    -3
390
17AE0
  0
LAYER
  5
142E2
330
7467
100
AcDbSymbolTableRecord
100
AcDbLayerTableRecord
  2
破線
 70
     0
 62
     2
  6
HIDDEN
370
    -3
390
17AE0
  0
ENDTAB
  0
TABLE
  2
STYLE
  5
7468
330
0
100
AcDbSymbolTable
 70
     7
  0
STYLE
  5
7475
330
7468
100
AcDbSymbolTableRecord
100
AcDbTextStyleTableRecord
  2
STANDARD
 70
     0
 40
0.0
 41
1.0
 50
0.0
 71
     0
 42
4.0
  3
txt
  4
C:\AutoCAD LT\bigfont.shx
  0
STYLE
  5
763C
330
7468
100
AcDbSymbolTableRecord
100
AcDbTextStyleTableRecord
  2
MSMINCHO
 70
     0
 40
0.0
 41
1.0
 50
0.0
 71
     0
 42
1.199999999999999
  3
MS PMincho.ttf
  4

1001
ACAD
1000
MS PMincho
1071
    32786
  0
STYLE
  5
F706
330
7468
100
AcDbSymbolTableRecord
100
AcDbTextStyleTableRecord
  2
STYLE1
 70
     0
 40
0.0
 41
1.0
 50
0.0
 71
     0
 42
4.0
  3
isocp.shx
  4
bigfont.shx
  0
STYLE
  5
103BF
330
7468
100
AcDbSymbolTableRecord
100
AcDbTextStyleTableRecord
  2
STYLE2
 70
     0
 40
0.0
 41
1.0
 50
0.0
 71
     0
 42
100.0
  3
MS PGothic.ttf
  4

1001
ACAD
1000
MS PGothic
1071
    32818
  0
STYLE
  5
10BAA
330
7468
100
AcDbSymbolTableRecord
100
AcDbTextStyleTableRecord
  2
STYLE3
 70
     0
 40
0.0
 41
1.0
 50
0.0
 71
     0
 42
100.0
  3
DFPGothic-EB.ttf
  4

1001
ACAD
1000
DFPGothic-EB
1071
    32818
  0
STYLE
  5
11A15
330
7468
100
AcDbSymbolTableRecord
100
AcDbTextStyleTableRecord
  2
MSGOTHIC
 70
     0
 40
0.0
 41
1.0
 50
0.0
 71
     0
 42
3.5
  3
MS PGothic.ttf
  4

1001
ACAD
1000
MS PGothic
1071
    32818
  0
STYLE
  5
13E96
330
7468
100
AcDbSymbolTableRecord
100
AcDbTextStyleTableRecord
  2
MSPゴシック
 70
     0
 40
0.0
 41
1.0
 50
0.0
 71
     0
 42
4.0
  3
MS PGothic.ttf
  4

1001
ACAD
1000
MS PGothic
1071
    32818
  0
ENDTAB
  0
TABLE
  2
VIEW
  5
746B
330
0
100
AcDbSymbolTable
 70
     0
  0
ENDTAB
  0
TABLE
  2
UCS
  5
746C
330
0
100
AcDbSymbolTable
 70
     0
  0
ENDTAB
  0
TABLE
  2
APPID
  5
746E
330
0
100
AcDbSymbolTable
 70
     6
  0
APPID
  5
7476
330
746E
100
AcDbSymbolTableRecord
100
AcDbRegAppTableRecord
  2
ACAD
 70
     0
  0
APPID
  5
DEA9
330
746E
100
AcDbSymbolTableRecord
100
AcDbRegAppTableRecord
  2
CONTENTBLOCKICON
 70
     0
  0
APPID
  5
DEAA
330
746E
100
AcDbSymbolTableRecord
100
AcDbRegAppTableRecord
  2
CONTENTBLOCKDESCRIPTION
 70
     0
  0
APPID
  5
E71D
330
746E
100
AcDbSymbolTableRecord
100
AcDbRegAppTableRecord
  2
CONTENTTABDATA
 70
     0
  0
APPID
  5
E71E
330
746E
100
AcDbSymbolTableRecord
100
AcDbRegAppTableRecord
  2
CONTENTCURRENTTAB
 70
     0
  0
APPID
  5
F3BA
330
746E
100
AcDbSymbolTableRecord
100
AcDbRegAppTableRecord
  2
DRAWINGVARIABLESXDATA
 70
     0
  0
ENDTAB
  0
TABLE
  2
DIMSTYLE
  5
746F
330
0
100
AcDbSymbolTable
 70
     1
100
AcDbDimStyleTable
 71
     1
340
F71F
  0
DIMSTYLE
105
F71F
102
{ACAD_REACTORS
330
162CD
330
162CE
330
162CF
330
162D0
330
162E4
330
162E7
330
162EA
330
162EB
330
16301
330
16302
330
1631F
330
16320
330
16333
330
1659C
330
1659A
330
165E9
330
166DD
330
16913
330
17BC4
330
17BC3
330
17B87
330
17B88
330
17B86
330
17C47
330
17C46
330
195FF
330
19600
330
19601
330
19611
330
19C22
330
19C31
330
19C3F
330
19C40
330
19C41
330
19C45
330
19C75
330
19C76
330
19C77
330
1A5CB
330
1A5CC
330
1A5CD
102
}
330
746F
100
AcDbSymbolTableRecord
100
AcDbDimStyleTableRecord
  2
INABA_S40G
 70
     0
 40
40.0
 41
2.5
 42
0.5
 43
7.0
 44
1.5
 73
     0
 74
     0
 77
     3
 78
     8
140
3.0
141
0.0
143
0.0394
147
1.0
172
     1
173
     1
174
     1
178
     7
271
     1
340
F706
341
F770
343
F770
344
F770
  0
ENDTAB
  0
TABLE
  2
BLOCK_RECORD
  5
7466
330
0
100
AcDbSymbolTable
 70
    42
  0
BLOCK_RECORD
  5
747D
330
7466
100
AcDbSymbolTableRecord
100
AcDbBlockTableRecord
  2
*MODEL_SPACE
340
17AE5
  0
BLOCK_RECORD
  5
747A
330
7466
100
AcDbSymbolTableRecord
100
AcDbBlockTableRecord
  2
*PAPER_SPACE
340
17AE6
  0
BLOCK_RECORD
  5
F770
330
7466
100
AcDbSymbolTableRecord
100
AcDbBlockTableRecord
  2
_DOTSMALL
340
0
102
{BLKREFS
331
1ABB6
331
1ABB7
331
1ABBF
331
1ABC0
331
1ABCA
331
1ABCB
331
1ABD1
331
1ABD2
331
1ABDC
331
1ABDD
331
1ABE5
331
1ABE6
331
1ABEE
331
1ABEF
331
1ABF6
331
1ABF7
331
1AC01
331
1AC02
331
1AC0B
331
1AC0C
331
1AC16
331
1AC17
331
1AC21
331
1AC22
331
1AC2B
331
1AC2C
331
1AC36
331
1AC37
331
1AC3F
331
1AC40
331
1AC4A
331
1AC4B
331
1AC56
331
1AC57
331
1AC61
331
1AC62
331
1AC6B
331
1AC6C
331
1AC74
331
1AC75
331
1AC7C
331
1AC7D
331
1AC85
331
1AC86
331
1AC90
331
1AC91
331
1AC9B
331
1AC9C
331
1ACA4
331
1ACA5
331
1ACC2
331
1ACC3
331
1ACCB
331
1ACCC
331
1ACD4
331
1ACD5
331
1ACDD
331
1ACDE
331
1ACE8
331
1ACE9
331
1ACFC
331
1ACFD
331
1AD0F
331
1AD10
331
1AD19
331
1AD1A
331
1AD24
331
1AD25
331
1AD2F
331
1AD30
331
1AD38
331
1AD39
331
1AD41
331
1AD42
331
1ADAD
331
1ADAE
331
1ADB6
331
1ADB7
331
1ADCB
331
1ADCC
331
1ADD7
331
1ADD8
102
}
  0
BLOCK_RECORD
  5
16338
330
7466
100
AcDbSymbolTableRecord
100
AcDbBlockTableRecord
  2
*D1
340
0
  0
BLOCK_RECORD
  5
16344
330
7466
100
AcDbSymbolTableRecord
100
AcDbBlockTableRecord
  2
*D2
340
0
  0
BLOCK_RECORD
  5
16352
330
7466
100
AcDbSymbolTableRecord
100
AcDbBlockTableRecord
  2
*D3
340
0
  0
BLOCK_RECORD
  5
16360
330
7466
100
AcDbSymbolTableRecord
100
AcDbBlockTableRecord
  2
*D4
340
0
  0
BLOCK_RECORD
  5
16384
330
7466
100
AcDbSymbolTableRecord
100
AcDbBlockTableRecord
  2
*D5
340
0
  0
BLOCK_RECORD
  5
1638F
330
7466
100
AcDbSymbolTableRecord
100
AcDbBlockTableRecord
  2
*D6
340
0
  0
BLOCK_RECORD
  5
1639B
330
7466
100
AcDbSymbolTableRecord
100
AcDbBlockTableRecord
  2
*D7
340
0
  0
BLOCK_RECORD
  5
163A9
330
7466
100
AcDbSymbolTableRecord
100
AcDbBlockTableRecord
  2
*D8
340
0
  0
BLOCK_RECORD
  5
163B8
330
7466
100
AcDbSymbolTableRecord
100
AcDbBlockTableRecord
  2
*D9
340
0
  0
BLOCK_RECORD
  5
163C7
330
7466
100
AcDbSymbolTableRecord
100
AcDbBlockTableRecord
  2
*D10
340
0
  0
BLOCK_RECORD
  5
163E1
330
7466
100
AcDbSymbolTableRecord
100
AcDbBlockTableRecord
  2
*D11
340
0
  0
BLOCK_RECORD
  5
163ED
330
7466
100
AcDbSymbolTableRecord
100
AcDbBlockTableRecord
  2
*D12
340
0
  0
BLOCK_RECORD
  5
163FB
330
7466
100
AcDbSymbolTableRecord
100
AcDbBlockTableRecord
  2
*D13
340
0
  0
BLOCK_RECORD
  5
165B5
330
7466
100
AcDbSymbolTableRecord
100
AcDbBlockTableRecord
  2
*D14
340
0
  0
BLOCK_RECORD
  5
165C4
330
7466
100
AcDbSymbolTableRecord
100
AcDbBlockTableRecord
  2
*D15
340
0
  0
BLOCK_RECORD
  5
165EA
330
7466
100
AcDbSymbolTableRecord
100
AcDbBlockTableRecord
  2
*D16
340
0
  0
BLOCK_RECORD
  5
166CF
330
7466
100
AcDbSymbolTableRecord
100
AcDbBlockTableRecord
  2
*D17
340
0
  0
BLOCK_RECORD
  5
16908
330
7466
100
AcDbSymbolTableRecord
100
AcDbBlockTableRecord
  2
*D18
340
0
  0
BLOCK_RECORD
  5
17BC5
330
7466
100
AcDbSymbolTableRecord
100
AcDbBlockTableRecord
  2
*D19
340
0
  0
BLOCK_RECORD
  5
17BD3
330
7466
100
AcDbSymbolTableRecord
100
AcDbBlockTableRecord
  2
*D20
340
0
  0
BLOCK_RECORD
  5
17BDE
330
7466
100
AcDbSymbolTableRecord
100
AcDbBlockTableRecord
  2
*D21
340
0
  0
BLOCK_RECORD
  5
17BEA
330
7466
100
AcDbSymbolTableRecord
100
AcDbBlockTableRecord
  2
*D22
340
0
  0
BLOCK_RECORD
  5
17BF8
330
7466
100
AcDbSymbolTableRecord
100
AcDbBlockTableRecord
  2
*D23
340
0
  0
BLOCK_RECORD
  5
17C48
330
7466
100
AcDbSymbolTableRecord
100
AcDbBlockTableRecord
  2
*D24
340
0
  0
BLOCK_RECORD
  5
17C56
330
7466
100
AcDbSymbolTableRecord
100
AcDbBlockTableRecord
  2
*D25
340
0
  0
BLOCK_RECORD
  5
196ED
330
7466
100
AcDbSymbolTableRecord
100
AcDbBlockTableRecord
  2
*D26
340
0
  0
BLOCK_RECORD
  5
196F9
330
7466
100
AcDbSymbolTableRecord
100
AcDbBlockTableRecord
  2
*D27
340
0
  0
BLOCK_RECORD
  5
19705
330
7466
100
AcDbSymbolTableRecord
100
AcDbBlockTableRecord
  2
*D28
340
0
  0
BLOCK_RECORD
  5
19713
330
7466
100
AcDbSymbolTableRecord
100
AcDbBlockTableRecord
  2
*D29
340
0
  0
BLOCK_RECORD
  5
19E6B
330
7466
100
AcDbSymbolTableRecord
100
AcDbBlockTableRecord
  2
*D30
340
0
  0
BLOCK_RECORD
  5
19E78
330
7466
100
AcDbSymbolTableRecord
100
AcDbBlockTableRecord
  2
*D31
340
0
  0
BLOCK_RECORD
  5
19E85
330
7466
100
AcDbSymbolTableRecord
100
AcDbBlockTableRecord
  2
*D32
340
0
  0
BLOCK_RECORD
  5
19E91
330
7466
100
AcDbSymbolTableRecord
100
AcDbBlockTableRecord
  2
*D33
340
0
  0
BLOCK_RECORD
  5
19E9F
330
7466
100
AcDbSymbolTableRecord
100
AcDbBlockTableRecord
  2
*D34
340
0
  0
BLOCK_RECORD
  5
19EAB
330
7466
100
AcDbSymbolTableRecord
100
AcDbBlockTableRecord
  2
*D35
340
0
  0
BLOCK_RECORD
  5
19EB9
330
7466
100
AcDbSymbolTableRecord
100
AcDbBlockTableRecord
  2
*D36
340
0
  0
BLOCK_RECORD
  5
19EC5
330
7466
100
AcDbSymbolTableRecord
100
AcDbBlockTableRecord
  2
*D37
340
0
  0
BLOCK_RECORD
  5
19ED1
330
7466
100
AcDbSymbolTableRecord
100
AcDbBlockTableRecord
  2
*D38
340
0
  0
BLOCK_RECORD
  5
1A62B
330
7466
100
AcDbSymbolTableRecord
100
AcDbBlockTableRecord
  2
*D39
340
0
  0
BLOCK_RECORD
  5
1A637
330
7466
100
AcDbSymbolTableRecord
100
AcDbBlockTableRecord
  2
*D40
340
0
  0
BLOCK_RECORD
  5
1A645
330
7466
100
AcDbSymbolTableRecord
100
AcDbBlockTableRecord
  2
*D41
340
0
  0
ENDTAB
  0
ENDSEC
  0
SECTION
  2
BLOCKS
  0
BLOCK
  5
7489
330
747D
100
AcDbEntity
  8
0
100
AcDbBlockBegin
  2
*MODEL_SPACE
 70
     0
 10
0.0
 20
0.0
 30
0.0
  3
*MODEL_SPACE
  1

  0
ENDBLK
  5
748A
330
747D
100
AcDbEntity
  8
0
100
AcDbBlockEnd
  0
BLOCK
  5
7487
330
747A
100
AcDbEntity
 67
     1
  8
0
100
AcDbBlockBegin
  2
*PAPER_SPACE
 70
     0
 10
0.0
 20
0.0
 30
0.0
  3
*PAPER_SPACE
  1

  0
ENDBLK
  5
7488
330
747A
100
AcDbEntity
 67
     1
  8
0
100
AcDbBlockEnd
  0
BLOCK
  5
F771
330
F770
100
AcDbEntity
  8
0
 48
50.0
100
AcDbBlockBegin
  2
_DOTSMALL
 70
     0
 10
0.0
 20
0.0
 30
0.0
  3
_DOTSMALL
  1

  0
LWPOLYLINE
  5
F772
330
F770
100
AcDbEntity
  8
0
  6
ByBlock
 62
     0
 48
50.0
100
AcDbPolyline
 90
        2
 70
     1
 43
0.5
 10
-0.0625
 20
0.0
 42
1.0
 10
0.0625
 20
0.0
 42
1.0
  0
ENDBLK
  5
F776
330
F770
100
AcDbEntity
  8
0
 48
50.0
100
AcDbBlockEnd
  0
BLOCK
  5
164EB
330
16338
100
AcDbEntity
  8
0
 48
50.0
100
AcDbBlockBegin
  2
*D1
 70
     1
 10
0.0
 20
0.0
 30
0.0
  3
*D1
  1

  0
LINE
  5
1ACA1
330
16338
100
AcDbEntity
  8
寸法
 62
     0
 48
50.0
370
    -2
100
AcDbLine
 10
8709.673057123664
 20
10312.08672207544
 30
0.0
 11
9397.099402858071
 21
10312.08672207544
 31
0.0
  0
LINE
  5
1ACA2
330
16338
100
AcDbEntity
  8
寸法
 62
     0
 48
50.0
370
    -2
100
AcDbLine
 10
8709.673057123641
 20
6952.08672207543
 30
0.0
 11
9397.099402858071
 21
6952.08672207543
 31
0.0
  0
LINE
  5
1ACA3
330
16338
100
AcDbEntity
  8
寸法
 62
     0
 48
50.0
370
    -2
100
AcDbLine
 10
9337.09940285807
 20
10312.08672207544
 30
0.0
 11
9337.09940285807
 21
6952.08672207543
 31
0.0
  0
INSERT
  5
1ACA4
330
16338
100
AcDbEntity
  8
寸法
 62
     0
 48
50.0
370
    -2
100
AcDbBlockReference
  2
_DOTSMALL
 10
9337.09940285807
 20
10312.08672207544
 30
0.0
 41
100.0
 42
100.0
 43
100.0
 50
90.0
  0
INSERT
  5
1ACA5
330
16338
100
AcDbEntity
  8
寸法
 62
     0
 48
50.0
370
    -2
100
AcDbBlockReference
  2
_DOTSMALL
 10
9337.09940285807
 20
6952.08672207543
 30
0.0
 41
100.0
 42
100.0
 43
100.0
 50
270.0
  0
MTEXT
  5
1ACA6
330
16338
100
AcDbEntity
  8
寸法
 62
     7
 48
50.0
100
AcDbMText
 10
9237.087591834447
 20
8632.086722075438
 30
0.0
 40
120.0
 41
0.0
 71
     5
 72
     1
  1
\A1;8X420=3360
  7
STYLE1
 11
0.0000000000000001
 21
1.0
 31
0.0
 73
     1
 44
1.0
1001
ACAD
1000
MTEXTBEGIN
1070
    73
1070
     1
1070
    44
1040
1.0
1070
    74
1070
     0
1000
MTEXTEND
  0
POINT
  5
1ACA7
330
16338
100
AcDbEntity
  8
DEFPOINTS
 62
     0
 48
50.0
100
AcDbPoint
 10
8689.673057123664
 20
10312.08672207544
 30
0.0
  0
POINT
  5
1ACA8
330
16338
100
AcDbEntity
  8
DEFPOINTS
 62
     0
 48
50.0
100
AcDbPoint
 10
8689.67305712364
 20
6952.08672207543
 30
0.0
  0
POINT
  5
1ACA9
330
16338
100
AcDbEntity
  8
DEFPOINTS
 62
     0
 48
50.0
100
AcDbPoint
 10
9337.09940285807
 20
6952.08672207543
 30
0.0
  0
ENDBLK
  5
164F5
330
16338
100
AcDbEntity
  8
0
 48
50.0
100
AcDbBlockEnd
  0
BLOCK
  5
16414
330
16344
100
AcDbEntity
  8
0
 48
50.0
100
AcDbBlockBegin
  2
*D2
 70
     1
 10
0.0
 20
0.0
 30
0.0
  3
*D2
  1

  0
LINE
  5
1AC96
330
16344
100
AcDbEntity
  8
寸法
 62
     0
 48
50.0
370
    -2
100
AcDbLine
 10
8709.673057123641
 20
6952.08672207543
 30
0.0
 11
9397.099402858051
 21
6952.08672207543
 31
0.0
  0
LINE
  5
1AC97
330
16344
100
AcDbEntity
  8
寸法
 62
     0
 48
50.0
370
    -2
100
AcDbLine
 10
8709.673057123641
 20
6897.086722075432
 30
0.0
 11
9397.099402858051
 21
6897.086722075432
 31
0.0
  0
LINE
  5
1AC98
330
16344
100
AcDbEntity
  8
寸法
 62
     0
 48
50.0
370
    -2
100
AcDbLine
 10
9337.099402858049
 20
6952.08672207543
 30
0.0
 11
9337.099402858049
 21
7052.086722075429
 31
0.0
  0
LINE
  5
1AC99
330
16344
100
AcDbEntity
  8
寸法
 62
     0
 48
50.0
370
    -2
100
AcDbLine
 10
9337.099402858049
 20
6897.086722075432
 30
0.0
 11
9337.099402858049
 21
6410.739973796331
 31
0.0
  0
LINE
  5
1AC9A
330
16344
100
AcDbEntity
  8
寸法
 62
     0
 48
50.0
370
    -2
100
AcDbLine
 10
9337.099402858049
 20
6952.08672207543
 30
0.0
 11
9337.099402858049
 21
6897.086722075432
 31
0.0
  0
INSERT
  5
1AC9B
330
16344
100
AcDbEntity
  8
寸法
 62
     0
 48
50.0
370
    -2
100
AcDbBlockReference
  2
_DOTSMALL
 10
9337.099402858049
 20
6952.08672207543
 30
0.0
 41
100.0
 42
100.0
 43
100.0
 50
270.0
  0
INSERT
  5
1AC9C
330
16344
100
AcDbEntity
  8
寸法
 62
     0
 48
50.0
370
    -2
100
AcDbBlockReference
  2
_DOTSMALL
 10
9337.099402858049
 20
6897.086722075432
 30
0.0
 41
100.0
 42
100.0
 43
100.0
 50
90.0
  0
MTEXT
  5
1AC9D
330
16344
100
AcDbEntity
  8
寸法
 62
     7
 48
50.0
100
AcDbMText
 10
9237.099402858047
 20
6519.225255170572
 30
0.0
 40
120.0
 41
0.0
 71
     5
 72
     1
  1
\A1;55
  7
STYLE1
 11
0.0000000000000001
 21
1.0
 31
0.0
 73
     1
 44
1.0
1001
ACAD
1000
MTEXTBEGIN
1070
    73
1070
     1
1070
    44
1040
1.0
1070
    74
1070
     0
1000
MTEXTEND
  0
POINT
  5
1AC9E
330
16344
100
AcDbEntity
  8
DEFPOINTS
 62
     0
 48
50.0
100
AcDbPoint
 10
8689.67305712364
 20
6952.08672207543
 30
0.0
  0
POINT
  5
1AC9F
330
16344
100
AcDbEntity
  8
DEFPOINTS
 62
     0
 48
50.0
100
AcDbPoint
 10
8689.67305712364
 20
6897.086722075432
 30
0.0
  0
POINT
  5
1ACA0
330
16344
100
AcDbEntity
  8
DEFPOINTS
 62
     0
 48
50.0
100
AcDbPoint
 10
9337.099402858049
 20
6897.086722075432
 30
0.0
  0
ENDBLK
  5
16420
330
16344
100
AcDbEntity
  8
0
 48
50.0
100
AcDbBlockEnd
  0
BLOCK
  5
16421
330
16352
100
AcDbEntity
  8
0
 48
50.0
100
AcDbBlockBegin
  2
*D3
 70
     1
 10
0.0
 20
0.0
 30
0.0
  3
*D3
  1

  0
LINE
  5
1AC8B
330
16352
100
AcDbEntity
  8
寸法
 62
     0
 48
50.0
370
    -2
100
AcDbLine
 10
8709.673057123664
 20
10367.08672207544
 30
0.0
 11
9397.099402858076
 21
10367.08672207544
 31
0.0
  0
LINE
  5
1AC8C
330
16352
100
AcDbEntity
  8
寸法
 62
     0
 48
50.0
370
    -2
100
AcDbLine
 10
8709.673057123664
 20
10312.08672207544
 30
0.0
 11
9397.099402858076
 21
10312.08672207544
 31
0.0
  0
LINE
  5
1AC8D
330
16352
100
AcDbEntity
  8
寸法
 62
     0
 48
50.0
370
    -2
100
AcDbLine
 10
9337.099402858076
 20
10312.08672207544
 30
0.0
 11
9337.099402858076
 21
10212.08672207544
 31
0.0
  0
LINE
  5
1AC8E
330
16352
100
AcDbEntity
  8
寸法
 62
     0
 48
50.0
370
    -2
100
AcDbLine
 10
9337.099402858076
 20
10367.08672207544
 30
0.0
 11
9337.099402858076
 21
10784.05728482392
 31
0.0
  0
LINE
  5
1AC8F
330
16352
100
AcDbEntity
  8
寸法
 62
     0
 48
50.0
370
    -2
100
AcDbLine
 10
9337.099402858076
 20
10312.08672207544
 30
0.0
 11
9337.099402858076
 21
10367.08672207544
 31
0.0
  0
INSERT
  5
1AC90
330
16352
100
AcDbEntity
  8
寸法
 62
     0
 48
50.0
370
    -2
100
AcDbBlockReference
  2
_DOTSMALL
 10
9337.099402858076
 20
10312.08672207544
 30
0.0
 41
100.0
 42
100.0
 43
100.0
 50
90.0
  0
INSERT
  5
1AC91
330
16352
100
AcDbEntity
  8
寸法
 62
     0
 48
50.0
370
    -2
100
AcDbBlockReference
  2
_DOTSMALL
 10
9337.099402858076
 20
10367.08672207544
 30
0.0
 41
100.0
 42
100.0
 43
100.0
 50
270.0
  0
MTEXT
  5
1AC92
330
16352
100
AcDbEntity
  8
寸法
 62
     7
 48
50.0
100
AcDbMText
 10
9237.099402858074
 20
10675.57200344968
 30
0.0
 40
120.0
 41
0.0
 71
     5
 72
     1
  1
\A1;55
  7
STYLE1
 11
0.0000000000000001
 21
1.0
 31
0.0
 73
     1
 44
1.0
1001
ACAD
1000
MTEXTBEGIN
1070
    73
1070
     1
1070
    44
1040
1.0
1070
    74
1070
     0
1000
MTEXTEND
  0
POINT
  5
1AC93
330
16352
100
AcDbEntity
  8
DEFPOINTS
 62
     0
 48
50.0
100
AcDbPoint
 10
8689.673057123664
 20
10367.08672207544
 30
0.0
  0
POINT
  5
1AC94
330
16352
100
AcDbEntity
  8
DEFPOINTS
 62
     0
 48
50.0
100
AcDbPoint
 10
8689.673057123664
 20
10312.08672207544
 30
0.0
  0
POINT
  5
1AC95
330
16352
100
AcDbEntity
  8
DEFPOINTS
 62
     0
 48
50.0
100
AcDbPoint
 10
9337.099402858076
 20
10312.08672207544
 30
0.0
  0
ENDBLK
  5
1642D
330
16352
100
AcDbEntity
  8
0
 48
50.0
100
AcDbBlockEnd
  0
BLOCK
  5
164CA
330
16360
100
AcDbEntity
  8
0
 48
50.0
100
AcDbBlockBegin
  2
*D4
 70
     1
 10
0.0
 20
0.0
 30
0.0
  3
*D4
  1

  0
LINE
  5
1AC82
330
16360
100
AcDbEntity
  8
寸法
 62
     0
 48
50.0
370
    -2
100
AcDbLine
 10
8709.673057123664
 20
10367.08672207544
 30
0.0
 11
9762.206344597709
 21
10367.08672207544
 31
0.0
  0
LINE
  5
1AC83
330
16360
100
AcDbEntity
  8
寸法
 62
     0
 48
50.0
370
    -2
100
AcDbLine
 10
8709.673057123641
 20
6897.086722075432
 30
0.0
 11
9762.206344597709
 21
6897.086722075432
 31
0.0
  0
LINE
  5
1AC84
330
16360
100
AcDbEntity
  8
寸法
 62
     0
 48
50.0
370
    -2
100
AcDbLine
 10
9702.20634459771
 20
10367.08672207544
 30
0.0
 11
9702.20634459771
 21
6897.086722075432
 31
0.0
  0
INSERT
  5
1AC85
330
16360
100
AcDbEntity
  8
寸法
 62
     0
 48
50.0
370
    -2
100
AcDbBlockReference
  2
_DOTSMALL
 10
9702.20634459771
 20
10367.08672207544
 30
0.0
 41
100.0
 42
100.0
 43
100.0
 50
90.0
  0
INSERT
  5
1AC86
330
16360
100
AcDbEntity
  8
寸法
 62
     0
 48
50.0
370
    -2
100
AcDbBlockReference
  2
_DOTSMALL
 10
9702.20634459771
 20
6897.086722075432
 30
0.0
 41
100.0
 42
100.0
 43
100.0
 50
270.0
  0
MTEXT
  5
1AC87
330
16360
100
AcDbEntity
  8
寸法
 62
     7
 48
50.0
100
AcDbMText
 10
9602.206344597709
 20
8632.086722075438
 30
0.0
 40
120.0
 41
0.0
 71
     5
 72
     1
  1
\A1;3470
  7
STYLE1
 11
0.0000000000000001
 21
1.0
 31
0.0
 73
     1
 44
1.0
1001
ACAD
1000
MTEXTBEGIN
1070
    73
1070
     1
1070
    44
1040
1.0
1070
    74
1070
     0
1000
MTEXTEND
  0
POINT
  5
1AC88
330
16360
100
AcDbEntity
  8
DEFPOINTS
 62
     0
 48
50.0
100
AcDbPoint
 10
8689.673057123664
 20
10367.08672207544
 30
0.0
  0
POINT
  5
1AC89
330
16360
100
AcDbEntity
  8
DEFPOINTS
 62
     0
 48
50.0
100
AcDbPoint
 10
8689.67305712364
 20
6897.086722075432
 30
0.0
  0
POINT
  5
1AC8A
330
16360
100
AcDbEntity
  8
DEFPOINTS
 62
     0
 48
50.0
100
AcDbPoint
 10
9702.20634459771
 20
6897.086722075432
 30
0.0
  0
ENDBLK
  5
164D4
330
16360
100
AcDbEntity
  8
0
 48
50.0
100
AcDbBlockEnd
  0
BLOCK
  5
1728C
330
16384
100
AcDbEntity
  8
0
 48
50.0
100
AcDbBlockBegin
  2
*D5
 70
     1
 10
0.0
 20
0.0
 30
0.0
  3
*D5
  1

  0
LINE
  5
1AC7A
330
16384
100
AcDbEntity
  8
寸法
 62
     0
 48
50.0
370
    -2
100
AcDbLine
 10
6582.673057123655
 20
6903.08672207534
 30
0.0
 11
6582.673057123655
 21
6302.655951309176
 31
0.0
  0
LINE
  5
1AC7B
330
16384
100
AcDbEntity
  8
寸法
 62
     0
 48
50.0
370
    -2
100
AcDbLine
 10
8586.673057123638
 20
6362.655951309176
 30
0.0
 11
6582.673057123655
 21
6362.655951309176
 31
0.0
  0
INSERT
  5
1AC7C
330
16384
100
AcDbEntity
  8
寸法
 62
     0
 48
50.0
370
    -2
100
AcDbBlockReference
  2
_DOTSMALL
 10
8586.673057123638
 20
6362.655951309176
 30
0.0
 41
100.0
 42
100.0
 43
100.0
  0
INSERT
  5
1AC7D
330
16384
100
AcDbEntity
  8
寸法
 62
     0
 48
50.0
370
    -2
100
AcDbBlockReference
  2
_DOTSMALL
 10
6582.673057123655
 20
6362.655951309176
 30
0.0
 41
100.0
 42
100.0
 43
100.0
 50
180.0
  0
MTEXT
  5
1AC7E
330
16384
100
AcDbEntity
  8
寸法
 62
     7
 48
50.0
100
AcDbMText
 10
7584.673057123646
 20
6462.667762332798
 30
0.0
 40
120.0
 41
0.0
 71
     5
 72
     1
  1
\A1;有効開口部間口 2004
  7
STYLE1
 73
     1
 44
1.0
1001
ACAD
1000
MTEXTBEGIN
1070
    73
1070
     1
1070
    44
1040
1.0
1070
    74
1070
     0
1000
MTEXTEND
  0
POINT
  5
1AC7F
330
16384
100
AcDbEntity
  8
DEFPOINTS
 62
     0
 48
50.0
100
AcDbPoint
 10
8586.673057123638
 20
6923.086722075344
 30
0.0
  0
POINT
  5
1AC80
330
16384
100
AcDbEntity
  8
DEFPOINTS
 62
     0
 48
50.0
100
AcDbPoint
 10
6582.673057123655
 20
6923.086722075341
 30
0.0
  0
POINT
  5
1AC81
330
16384
100
AcDbEntity
  8
DEFPOINTS
 62
     0
 48
50.0
100
AcDbPoint
 10
6582.673057123655
 20
6362.655951309176
 30
0.0
  0
ENDBLK
  5
17295
330
16384
100
AcDbEntity
  8
0
 48
50.0
100
AcDbBlockEnd
  0
BLOCK
  5
17261
330
1638F
100
AcDbEntity
  8
0
 48
50.0
100
AcDbBlockBegin
  2
*D6
 70
     1
 10
0.0
 20
0.0
 30
0.0
  3
*D6
  1

  0
LINE
  5
1AC71
330
1638F
100
AcDbEntity
  8
寸法
 62
     0
 48
50.0
370
    -2
100
AcDbLine
 10
2059.673057123657
 20
6877.08672207534
 30
0.0
 11
2059.673057123657
 21
5856.482955718304
 31
0.0
  0
LINE
  5
1AC72
330
1638F
100
AcDbEntity
  8
寸法
 62
     0
 48
50.0
370
    -2
100
AcDbLine
 10
8689.673057123627
 20
6877.086722075431
 30
0.0
 11
8689.673057123627
 21
5856.482955718304
 31
0.0
  0
LINE
  5
1AC73
330
1638F
100
AcDbEntity
  8
寸法
 62
     0
 48
50.0
370
    -2
100
AcDbLine
 10
2059.673057123657
 20
5916.482955718304
 30
0.0
 11
8689.673057123627
 21
5916.482955718304
 31
0.0
  0
INSERT
  5
1AC74
330
1638F
100
AcDbEntity
  8
寸法
 62
     0
 48
50.0
370
    -2
100
AcDbBlockReference
  2
_DOTSMALL
 10
2059.673057123657
 20
5916.482955718304
 30
0.0
 41
100.0
 42
100.0
 43
100.0
 50
180.0
  0
INSERT
  5
1AC75
330
1638F
100
AcDbEntity
  8
寸法
 62
     0
 48
50.0
370
    -2
100
AcDbBlockReference
  2
_DOTSMALL
 10
8689.673057123627
 20
5916.482955718304
 30
0.0
 41
100.0
 42
100.0
 43
100.0
  0
MTEXT
  5
1AC76
330
1638F
100
AcDbEntity
  8
寸法
 62
     7
 48
50.0
100
AcDbMText
 10
5374.673057123642
 20
6016.494766741925
 30
0.0
 40
120.0
 41
0.0
 71
     5
 72
     1
  1
\A1;N X 2210
  7
STYLE1
 73
     1
 44
1.0
1001
ACAD
1000
MTEXTBEGIN
1070
    73
1070
     1
1070
    44
1040
1.0
1070
    74
1070
     0
1000
MTEXTEND
  0
POINT
  5
1AC77
330
1638F
100
AcDbEntity
  8
DEFPOINTS
 62
     0
 48
50.0
100
AcDbPoint
 10
2059.673057123657
 20
6897.08672207534
 30
0.0
  0
POINT
  5
1AC78
330
1638F
100
AcDbEntity
  8
DEFPOINTS
 62
     0
 48
50.0
100
AcDbPoint
 10
8689.673057123627
 20
6897.086722075432
 30
0.0
  0
POINT
  5
1AC79
330
1638F
100
AcDbEntity
  8
DEFPOINTS
 62
     0
 48
50.0
100
AcDbPoint
 10
8689.673057123627
 20
5916.482955718304
 30
0.0
  0
ENDBLK
  5
1726B
330
1638F
100
AcDbEntity
  8
0
 48
50.0
100
AcDbBlockEnd
  0
BLOCK
  5
16464
330
1639B
100
AcDbEntity
  8
0
 48
50.0
100
AcDbBlockBegin
  2
*D7
 70
     1
 10
0.0
 20
0.0
 30
0.0
  3
*D7
  1

  0
LINE
  5
1AC66
330
1639B
100
AcDbEntity
  8
寸法
 62
     0
 48
50.0
370
    -2
100
AcDbLine
 10
2114.673057123653
 20
6877.08672207534
 30
0.0
 11
2114.673057123653
 21
6302.655951309176
 31
0.0
  0
LINE
  5
1AC67
330
1639B
100
AcDbEntity
  8
寸法
 62
     0
 48
50.0
370
    -2
100
AcDbLine
 10
2059.673057123657
 20
6877.08672207534
 30
0.0
 11
2059.673057123657
 21
6302.655951309176
 31
0.0
  0
LINE
  5
1AC68
330
1639B
100
AcDbEntity
  8
寸法
 62
     0
 48
50.0
370
    -2
100
AcDbLine
 10
2114.673057123653
 20
6362.655951309176
 30
0.0
 11
2214.673057123653
 21
6362.655951309176
 31
0.0
  0
LINE
  5
1AC69
330
1639B
100
AcDbEntity
  8
寸法
 62
     0
 48
50.0
370
    -2
100
AcDbLine
 10
2059.673057123657
 20
6362.655951309176
 30
0.0
 11
1642.702494375179
 21
6362.655951309176
 31
0.0
  0
LINE
  5
1AC6A
330
1639B
100
AcDbEntity
  8
寸法
 62
     0
 48
50.0
370
    -2
100
AcDbLine
 10
2114.673057123653
 20
6362.655951309176
 30
0.0
 11
2059.673057123657
 21
6362.655951309176
 31
0.0
  0
INSERT
  5
1AC6B
330
1639B
100
AcDbEntity
  8
寸法
 62
     0
 48
50.0
370
    -2
100
AcDbBlockReference
  2
_DOTSMALL
 10
2114.673057123653
 20
6362.655951309176
 30
0.0
 41
100.0
 42
100.0
 43
100.0
 50
180.0
  0
INSERT
  5
1AC6C
330
1639B
100
AcDbEntity
  8
寸法
 62
     0
 48
50.0
370
    -2
100
AcDbBlockReference
  2
_DOTSMALL
 10
2059.673057123657
 20
6362.655951309176
 30
0.0
 41
100.0
 42
100.0
 43
100.0
  0
MTEXT
  5
1AC6D
330
1639B
100
AcDbEntity
  8
寸法
 62
     7
 48
50.0
100
AcDbMText
 10
1751.187775749418
 20
6462.655951309177
 30
0.0
 40
120.0
 41
0.0
 71
     5
 72
     1
  1
\A1;55
  7
STYLE1
 73
     1
 44
1.0
1001
ACAD
1000
MTEXTBEGIN
1070
    73
1070
     1
1070
    44
1040
1.0
1070
    74
1070
     0
1000
MTEXTEND
  0
POINT
  5
1AC6E
330
1639B
100
AcDbEntity
  8
DEFPOINTS
 62
     0
 48
50.0
100
AcDbPoint
 10
2114.673057123653
 20
6897.08672207534
 30
0.0
  0
POINT
  5
1AC6F
330
1639B
100
AcDbEntity
  8
DEFPOINTS
 62
     0
 48
50.0
100
AcDbPoint
 10
2059.673057123657
 20
6897.08672207534
 30
0.0
  0
POINT
  5
1AC70
330
1639B
100
AcDbEntity
  8
DEFPOINTS
 62
     0
 48
50.0
100
AcDbPoint
 10
2059.673057123657
 20
6362.655951309176
 30
0.0
  0
ENDBLK
  5
16470
330
1639B
100
AcDbEntity
  8
0
 48
50.0
100
AcDbBlockEnd
  0
BLOCK
  5
16471
330
163A9
100
AcDbEntity
  8
0
 48
50.0
100
AcDbBlockBegin
  2
*D8
 70
     1
 10
0.0
 20
0.0
 30
0.0
  3
*D8
  1

  0
LINE
  5
1AC5B
330
163A9
100
AcDbEntity
  8
寸法
 62
     0
 48
50.0
370
    -2
100
AcDbLine
 10
6582.673057123655
 20
6903.08672207534
 30
0.0
 11
6582.673057123655
 21
6302.655951309176
 31
0.0
  0
LINE
  5
1AC5C
330
163A9
100
AcDbEntity
  8
寸法
 62
     0
 48
50.0
370
    -2
100
AcDbLine
 10
6534.673057123653
 20
6877.08672207534
 30
0.0
 11
6534.673057123653
 21
6302.655951309176
 31
0.0
  0
LINE
  5
1AC5D
330
163A9
100
AcDbEntity
  8
寸法
 62
     0
 48
50.0
370
    -2
100
AcDbLine
 10
6582.673057123655
 20
6362.655951309176
 30
0.0
 11
6682.673057123655
 21
6362.655951309176
 31
0.0
  0
LINE
  5
1AC5E
330
163A9
100
AcDbEntity
  8
寸法
 62
     0
 48
50.0
370
    -2
100
AcDbLine
 10
6534.673057123653
 20
6362.655951309176
 30
0.0
 11
6434.673057123653
 21
6362.655951309176
 31
0.0
  0
MTEXT
  5
1AC5F
330
163A9
100
AcDbEntity
  8
寸法
 62
     7
 48
50.0
100
AcDbMText
 10
6695.575028123714
 20
6462.655951309177
 30
0.0
 40
120.0
 41
0.0
 71
     5
 72
     1
  1
\A1;48
  7
STYLE1
 73
     1
 44
1.0
1001
ACAD
1000
MTEXTBEGIN
1070
    73
1070
     1
1070
    44
1040
1.0
1070
    74
1070
     0
1000
MTEXTEND
  0
LINE
  5
1AC60
330
163A9
100
AcDbEntity
  8
寸法
 62
     0
 48
50.0
370
    -2
100
AcDbLine
 10
6582.673057123655
 20
6362.655951309176
 30
0.0
 11
6534.673057123653
 21
6362.655951309176
 31
0.0
  0
INSERT
  5
1AC61
330
163A9
100
AcDbEntity
  8
寸法
 62
     0
 48
50.0
370
    -2
100
AcDbBlockReference
  2
_DOTSMALL
 10
6582.673057123655
 20
6362.655951309176
 30
0.0
 41
100.0
 42
100.0
 43
100.0
 50
180.0
  0
INSERT
  5
1AC62
330
163A9
100
AcDbEntity
  8
寸法
 62
     0
 48
50.0
370
    -2
100
AcDbBlockReference
  2
_DOTSMALL
 10
6534.673057123653
 20
6362.655951309176
 30
0.0
 41
100.0
 42
100.0
 43
100.0
  0
POINT
  5
1AC63
330
163A9
100
AcDbEntity
  8
DEFPOINTS
 62
     0
 48
50.0
100
AcDbPoint
 10
6582.673057123655
 20
6923.086722075341
 30
0.0
  0
POINT
  5
1AC64
330
163A9
100
AcDbEntity
  8
DEFPOINTS
 62
     0
 48
50.0
100
AcDbPoint
 10
6534.673057123653
 20
6897.08672207534
 30
0.0
  0
POINT
  5
1AC65
330
163A9
100
AcDbEntity
  8
DEFPOINTS
 62
     0
 48
50.0
100
AcDbPoint
 10
6534.673057123653
 20
6362.655951309176
 30
0.0
  0
ENDBLK
  5
1647E
330
163A9
100
AcDbEntity
  8
0
 48
50.0
100
AcDbBlockEnd
  0
BLOCK
  5
1647F
330
163B8
100
AcDbEntity
  8
0
 48
50.0
100
AcDbBlockBegin
  2
*D9
 70
     1
 10
0.0
 20
0.0
 30
0.0
  3
*D9
  1

  0
LINE
  5
1AC50
330
163B8
100
AcDbEntity
  8
寸法
 62
     0
 48
50.0
370
    -2
100
AcDbLine
 10
8634.67305712364
 20
6877.086722075429
 30
0.0
 11
8634.67305712364
 21
6302.655951309176
 31
0.0
  0
LINE
  5
1AC51
330
163B8
100
AcDbEntity
  8
寸法
 62
     0
 48
50.0
370
    -2
100
AcDbLine
 10
8586.673057123638
 20
6903.086722075345
 30
0.0
 11
8586.673057123638
 21
6302.655951309176
 31
0.0
  0
LINE
  5
1AC52
330
163B8
100
AcDbEntity
  8
寸法
 62
     0
 48
50.0
370
    -2
100
AcDbLine
 10
8634.67305712364
 20
6362.655951309176
 30
0.0
 11
8734.673057123641
 21
6362.655951309176
 31
0.0
  0
LINE
  5
1AC53
330
163B8
100
AcDbEntity
  8
寸法
 62
     0
 48
50.0
370
    -2
100
AcDbLine
 10
8586.673057123638
 20
6362.655951309176
 30
0.0
 11
8486.673057123638
 21
6362.655951309176
 31
0.0
  0
MTEXT
  5
1AC54
330
163B8
100
AcDbEntity
  8
寸法
 62
     7
 48
50.0
100
AcDbMText
 10
8475.710159474891
 20
6462.655951309177
 30
0.0
 40
120.0
 41
0.0
 71
     5
 72
     1
  1
\A1;48
  7
STYLE1
 73
     1
 44
1.0
1001
ACAD
1000
MTEXTBEGIN
1070
    73
1070
     1
1070
    44
1040
1.0
1070
    74
1070
     0
1000
MTEXTEND
  0
LINE
  5
1AC55
330
163B8
100
AcDbEntity
  8
寸法
 62
     0
 48
50.0
370
    -2
100
AcDbLine
 10
8634.67305712364
 20
6362.655951309176
 30
0.0
 11
8586.673057123638
 21
6362.655951309176
 31
0.0
  0
INSERT
  5
1AC56
330
163B8
100
AcDbEntity
  8
寸法
 62
     0
 48
50.0
370
    -2
100
AcDbBlockReference
  2
_DOTSMALL
 10
8634.67305712364
 20
6362.655951309176
 30
0.0
 41
100.0
 42
100.0
 43
100.0
 50
180.0
  0
INSERT
  5
1AC57
330
163B8
100
AcDbEntity
  8
寸法
 62
     0
 48
50.0
370
    -2
100
AcDbBlockReference
  2
_DOTSMALL
 10
8586.673057123638
 20
6362.655951309176
 30
0.0
 41
100.0
 42
100.0
 43
100.0
  0
POINT
  5
1AC58
330
163B8
100
AcDbEntity
  8
DEFPOINTS
 62
     0
 48
50.0
100
AcDbPoint
 10
8634.67305712364
 20
6897.08672207543
 30
0.0
  0
POINT
  5
1AC59
330
163B8
100
AcDbEntity
  8
DEFPOINTS
 62
     0
 48
50.0
100
AcDbPoint
 10
8586.673057123638
 20
6923.086722075344
 30
0.0
  0
POINT
  5
1AC5A
330
163B8
100
AcDbEntity
  8
DEFPOINTS
 62
     0
 48
50.0
100
AcDbPoint
 10
8586.673057123638
 20
6362.655951309176
 30
0.0
  0
ENDBLK
  5
1648C
330
163B8
100
AcDbEntity
  8
0
 48
50.0
100
AcDbBlockEnd
  0
BLOCK
  5
1648D
330
163C7
100
AcDbEntity
  8
0
 48
50.0
100
AcDbBlockBegin
  2
*D10
 70
     1
 10
0.0
 20
0.0
 30
0.0
  3
*D10
  1

  0
LINE
  5
1AC45
330
163C7
100
AcDbEntity
  8
寸法
 62
     0
 48
50.0
370
    -2
100
AcDbLine
 10
8689.67305712364
 20
6877.086722075431
 30
0.0
 11
8689.67305712364
 21
6302.655951309178
 31
0.0
  0
LINE
  5
1AC46
330
163C7
100
AcDbEntity
  8
寸法
 62
     0
 48
50.0
370
    -2
100
AcDbLine
 10
8634.67305712364
 20
6877.086722075429
 30
0.0
 11
8634.67305712364
 21
6302.655951309178
 31
0.0
  0
LINE
  5
1AC47
330
163C7
100
AcDbEntity
  8
寸法
 62
     0
 48
50.0
370
    -2
100
AcDbLine
 10
8634.67305712364
 20
6362.655951309178
 30
0.0
 11
8534.67305712364
 21
6362.655951309178
 31
0.0
  0
LINE
  5
1AC48
330
163C7
100
AcDbEntity
  8
寸法
 62
     0
 48
50.0
370
    -2
100
AcDbLine
 10
8689.67305712364
 20
6362.655951309178
 30
0.0
 11
9106.643619872116
 21
6362.655951309178
 31
0.0
  0
LINE
  5
1AC49
330
163C7
100
AcDbEntity
  8
寸法
 62
     0
 48
50.0
370
    -2
100
AcDbLine
 10
8634.67305712364
 20
6362.655951309178
 30
0.0
 11
8689.67305712364
 21
6362.655951309178
 31
0.0
  0
INSERT
  5
1AC4A
330
163C7
100
AcDbEntity
  8
寸法
 62
     0
 48
50.0
370
    -2
100
AcDbBlockReference
  2
_DOTSMALL
 10
8634.67305712364
 20
6362.655951309178
 30
0.0
 41
100.0
 42
100.0
 43
100.0
  0
INSERT
  5
1AC4B
330
163C7
100
AcDbEntity
  8
寸法
 62
     0
 48
50.0
370
    -2
100
AcDbBlockReference
  2
_DOTSMALL
 10
8689.67305712364
 20
6362.655951309178
 30
0.0
 41
100.0
 42
100.0
 43
100.0
 50
180.0
  0
MTEXT
  5
1AC4C
330
163C7
100
AcDbEntity
  8
寸法
 62
     7
 48
50.0
100
AcDbMText
 10
8998.158338497878
 20
6462.655951309177
 30
0.0
 40
120.0
 41
0.0
 71
     5
 72
     1
  1
\A1;55
  7
STYLE1
 73
     1
 44
1.0
1001
ACAD
1000
MTEXTBEGIN
1070
    73
1070
     1
1070
    44
1040
1.0
1070
    74
1070
     0
1000
MTEXTEND
  0
POINT
  5
1AC4D
330
163C7
100
AcDbEntity
  8
DEFPOINTS
 62
     0
 48
50.0
100
AcDbPoint
 10
8689.67305712364
 20
6897.086722075432
 30
0.0
  0
POINT
  5
1AC4E
330
163C7
100
AcDbEntity
  8
DEFPOINTS
 62
     0
 48
50.0
100
AcDbPoint
 10
8634.67305712364
 20
6897.08672207543
 30
0.0
  0
POINT
  5
1AC4F
330
163C7
100
AcDbEntity
  8
DEFPOINTS
 62
     0
 48
50.0
100
AcDbPoint
 10
8634.67305712364
 20
6362.655951309178
 30
0.0
  0
ENDBLK
  5
16499
330
163C7
100
AcDbEntity
  8
0
 48
50.0
100
AcDbBlockEnd
  0
BLOCK
  5
172A1
330
163E1
100
AcDbEntity
  8
0
 48
50.0
100
AcDbBlockBegin
  2
*D11
 70
     1
 10
0.0
 20
0.0
 30
0.0
  3
*D11
  1

  0
LINE
  5
1AC3C
330
163E1
100
AcDbEntity
  8
寸法
 62
     0
 48
50.0
370
    -2
100
AcDbLine
 10
6534.673057123663
 20
10387.08672207534
 30
0.0
 11
6534.673057123663
 21
10642.89494170044
 31
0.0
  0
LINE
  5
1AC3D
330
163E1
100
AcDbEntity
  8
寸法
 62
     0
 48
50.0
370
    -2
100
AcDbLine
 10
8634.673057123665
 20
10387.08672207544
 30
0.0
 11
8634.673057123665
 21
10642.89494170044
 31
0.0
  0
LINE
  5
1AC3E
330
163E1
100
AcDbEntity
  8
寸法
 62
     0
 48
50.0
370
    -2
100
AcDbLine
 10
6534.673057123663
 20
10582.89494170044
 30
0.0
 11
8634.673057123665
 21
10582.89494170044
 31
0.0
  0
INSERT
  5
1AC3F
330
163E1
100
AcDbEntity
  8
寸法
 62
     0
 48
50.0
370
    -2
100
AcDbBlockReference
  2
_DOTSMALL
 10
6534.673057123663
 20
10582.89494170044
 30
0.0
 41
100.0
 42
100.0
 43
100.0
 50
180.0
  0
INSERT
  5
1AC40
330
163E1
100
AcDbEntity
  8
寸法
 62
     0
 48
50.0
370
    -2
100
AcDbBlockReference
  2
_DOTSMALL
 10
8634.673057123665
 20
10582.89494170044
 30
0.0
 41
100.0
 42
100.0
 43
100.0
  0
MTEXT
  5
1AC41
330
163E1
100
AcDbEntity
  8
寸法
 62
     7
 48
50.0
100
AcDbMText
 10
7584.673057123665
 20
10682.90675272406
 30
0.0
 40
120.0
 41
0.0
 71
     5
 72
     1
  1
\A1;5X420=2100
  7
STYLE1
 73
     1
 44
1.0
1001
ACAD
1000
MTEXTBEGIN
1070
    73
1070
     1
1070
    44
1040
1.0
1070
    74
1070
     0
1000
MTEXTEND
  0
POINT
  5
1AC42
330
163E1
100
AcDbEntity
  8
DEFPOINTS
 62
     0
 48
50.0
100
AcDbPoint
 10
6534.673057123663
 20
10367.08672207534
 30
0.0
  0
POINT
  5
1AC43
330
163E1
100
AcDbEntity
  8
DEFPOINTS
 62
     0
 48
50.0
100
AcDbPoint
 10
8634.673057123665
 20
10367.08672207544
 30
0.0
  0
POINT
  5
1AC44
330
163E1
100
AcDbEntity
  8
DEFPOINTS
 62
     0
 48
50.0
100
AcDbPoint
 10
8634.673057123665
 20
10582.89494170044
 30
0.0
  0
ENDBLK
  5
172AB
330
163E1
100
AcDbEntity
  8
0
 48
50.0
100
AcDbBlockEnd
  0
BLOCK
  5
164B0
330
163ED
100
AcDbEntity
  8
0
 48
50.0
100
AcDbBlockBegin
  2
*D12
 70
     1
 10
0.0
 20
0.0
 30
0.0
  3
*D12
  1

  0
LINE
  5
1AC31
330
163ED
100
AcDbEntity
  8
寸法
 62
     0
 48
50.0
370
    -2
100
AcDbLine
 10
2059.673057123629
 20
10387.08672207534
 30
0.0
 11
2059.673057123629
 21
10642.89494170033
 31
0.0
  0
LINE
  5
1AC32
330
163ED
100
AcDbEntity
  8
寸法
 62
     0
 48
50.0
370
    -2
100
AcDbLine
 10
2114.673057123663
 20
10387.08672207534
 30
0.0
 11
2114.673057123663
 21
10642.89494170033
 31
0.0
  0
LINE
  5
1AC33
330
163ED
100
AcDbEntity
  8
寸法
 62
     0
 48
50.0
370
    -2
100
AcDbLine
 10
2114.673057123663
 20
10582.89494170033
 30
0.0
 11
2214.673057123663
 21
10582.89494170033
 31
0.0
  0
LINE
  5
1AC34
330
163ED
100
AcDbEntity
  8
寸法
 62
     0
 48
50.0
370
    -2
100
AcDbLine
 10
2059.673057123629
 20
10582.89494170033
 30
0.0
 11
1642.702494375151
 21
10582.89494170033
 31
0.0
  0
LINE
  5
1AC35
330
163ED
100
AcDbEntity
  8
寸法
 62
     0
 48
50.0
370
    -2
100
AcDbLine
 10
2114.673057123663
 20
10582.89494170033
 30
0.0
 11
2059.673057123629
 21
10582.89494170033
 31
0.0
  0
INSERT
  5
1AC36
330
163ED
100
AcDbEntity
  8
寸法
 62
     0
 48
50.0
370
    -2
100
AcDbBlockReference
  2
_DOTSMALL
 10
2114.673057123663
 20
10582.89494170033
 30
0.0
 41
100.0
 42
100.0
 43
100.0
 50
180.0
  0
INSERT
  5
1AC37
330
163ED
100
AcDbEntity
  8
寸法
 62
     0
 48
50.0
370
    -2
100
AcDbBlockReference
  2
_DOTSMALL
 10
2059.673057123629
 20
10582.89494170033
 30
0.0
 41
100.0
 42
100.0
 43
100.0
  0
MTEXT
  5
1AC38
330
163ED
100
AcDbEntity
  8
寸法
 62
     7
 48
50.0
100
AcDbMText
 10
1751.18777574939
 20
10682.89494170033
 30
0.0
 40
120.0
 41
0.0
 71
     5
 72
     1
  1
\A1;55
  7
STYLE1
 73
     1
 44
1.0
1001
ACAD
1000
MTEXTBEGIN
1070
    73
1070
     1
1070
    44
1040
1.0
1070
    74
1070
     0
1000
MTEXTEND
  0
POINT
  5
1AC39
330
163ED
100
AcDbEntity
  8
DEFPOINTS
 62
     0
 48
50.0
100
AcDbPoint
 10
2059.673057123629
 20
10367.08672207534
 30
0.0
  0
POINT
  5
1AC3A
330
163ED
100
AcDbEntity
  8
DEFPOINTS
 62
     0
 48
50.0
100
AcDbPoint
 10
2114.673057123663
 20
10367.08672207534
 30
0.0
  0
POINT
  5
1AC3B
330
163ED
100
AcDbEntity
  8
DEFPOINTS
 62
     0
 48
50.0
100
AcDbPoint
 10
2114.673057123663
 20
10582.89494170033
 30
0.0
  0
ENDBLK
  5
164BC
330
163ED
100
AcDbEntity
  8
0
 48
50.0
100
AcDbBlockEnd
  0
BLOCK
  5
164BD
330
163FB
100
AcDbEntity
  8
0
 48
50.0
100
AcDbBlockBegin
  2
*D13
 70
     1
 10
0.0
 20
0.0
 30
0.0
  3
*D13
  1

  0
LINE
  5
1AC26
330
163FB
100
AcDbEntity
  8
寸法
 62
     0
 48
50.0
370
    -2
100
AcDbLine
 10
8634.673057123665
 20
10387.08672207544
 30
0.0
 11
8634.673057123665
 21
10642.89494170042
 31
0.0
  0
LINE
  5
1AC27
330
163FB
100
AcDbEntity
  8
寸法
 62
     0
 48
50.0
370
    -2
100
AcDbLine
 10
8689.673057123664
 20
10387.08672207544
 30
0.0
 11
8689.673057123664
 21
10642.89494170042
 31
0.0
  0
LINE
  5
1AC28
330
163FB
100
AcDbEntity
  8
寸法
 62
     0
 48
50.0
370
    -2
100
AcDbLine
 10
8634.673057123665
 20
10582.89494170042
 30
0.0
 11
8534.673057123665
 21
10582.89494170042
 31
0.0
  0
LINE
  5
1AC29
330
163FB
100
AcDbEntity
  8
寸法
 62
     0
 48
50.0
370
    -2
100
AcDbLine
 10
8689.673057123664
 20
10582.89494170042
 30
0.0
 11
9106.643619872141
 21
10582.89494170042
 31
0.0
  0
LINE
  5
1AC2A
330
163FB
100
AcDbEntity
  8
寸法
 62
     0
 48
50.0
370
    -2
100
AcDbLine
 10
8634.673057123665
 20
10582.89494170042
 30
0.0
 11
8689.673057123664
 21
10582.89494170042
 31
0.0
  0
INSERT
  5
1AC2B
330
163FB
100
AcDbEntity
  8
寸法
 62
     0
 48
50.0
370
    -2
100
AcDbBlockReference
  2
_DOTSMALL
 10
8634.673057123665
 20
10582.89494170042
 30
0.0
 41
100.0
 42
100.0
 43
100.0
  0
INSERT
  5
1AC2C
330
163FB
100
AcDbEntity
  8
寸法
 62
     0
 48
50.0
370
    -2
100
AcDbBlockReference
  2
_DOTSMALL
 10
8689.673057123664
 20
10582.89494170042
 30
0.0
 41
100.0
 42
100.0
 43
100.0
 50
180.0
  0
MTEXT
  5
1AC2D
330
163FB
100
AcDbEntity
  8
寸法
 62
     7
 48
50.0
100
AcDbMText
 10
8998.158338497901
 20
10682.89494170042
 30
0.0
 40
120.0
 41
0.0
 71
     5
 72
     1
  1
\A1;55
  7
STYLE1
 73
     1
 44
1.0
1001
ACAD
1000
MTEXTBEGIN
1070
    73
1070
     1
1070
    44
1040
1.0
1070
    74
1070
     0
1000
MTEXTEND
  0
POINT
  5
1AC2E
330
163FB
100
AcDbEntity
  8
DEFPOINTS
 62
     0
 48
50.0
100
AcDbPoint
 10
8634.673057123665
 20
10367.08672207544
 30
0.0
  0
POINT
  5
1AC2F
330
163FB
100
AcDbEntity
  8
DEFPOINTS
 62
     0
 48
50.0
100
AcDbPoint
 10
8689.673057123664
 20
10367.08672207544
 30
0.0
  0
POINT
  5
1AC30
330
163FB
100
AcDbEntity
  8
DEFPOINTS
 62
     0
 48
50.0
100
AcDbPoint
 10
8689.673057123664
 20
10582.89494170042
 30
0.0
  0
ENDBLK
  5
164C9
330
163FB
100
AcDbEntity
  8
0
 48
50.0
100
AcDbBlockEnd
  0
BLOCK
  5
165B6
330
165B5
100
AcDbEntity
  8
0
 48
50.0
100
AcDbBlockBegin
  2
*D14
 70
     1
 10
0.0
 20
0.0
 30
0.0
  3
*D14
  1

  0
LINE
  5
1AC10
330
165B5
100
AcDbEntity
  8
寸法
 62
     0
 48
50.0
370
    -2
100
AcDbLine
 10
2162.673057123657
 20
6903.08672207534
 30
0.0
 11
2162.673057123657
 21
6302.655951309176
 31
0.0
  0
LINE
  5
1AC11
330
165B5
100
AcDbEntity
  8
寸法
 62
     0
 48
50.0
370
    -2
100
AcDbLine
 10
2114.673057123653
 20
6877.08672207534
 30
0.0
 11
2114.673057123653
 21
6302.655951309176
 31
0.0
  0
LINE
  5
1AC12
330
165B5
100
AcDbEntity
  8
寸法
 62
     0
 48
50.0
370
    -2
100
AcDbLine
 10
2162.673057123657
 20
6362.655951309176
 30
0.0
 11
2262.673057123657
 21
6362.655951309176
 31
0.0
  0
LINE
  5
1AC13
330
165B5
100
AcDbEntity
  8
寸法
 62
     0
 48
50.0
370
    -2
100
AcDbLine
 10
2114.673057123653
 20
6362.655951309176
 30
0.0
 11
2014.673057123653
 21
6362.655951309176
 31
0.0
  0
MTEXT
  5
1AC14
330
165B5
100
AcDbEntity
  8
寸法
 62
     7
 48
50.0
100
AcDbMText
 10
2275.575028123714
 20
6462.655951309177
 30
0.0
 40
120.0
 41
0.0
 71
     5
 72
     1
  1
\A1;48
  7
STYLE1
 73
     1
 44
1.0
1001
ACAD
1000
MTEXTBEGIN
1070
    73
1070
     1
1070
    44
1040
1.0
1070
    74
1070
     0
1000
MTEXTEND
  0
LINE
  5
1AC15
330
165B5
100
AcDbEntity
  8
寸法
 62
     0
 48
50.0
370
    -2
100
AcDbLine
 10
2162.673057123657
 20
6362.655951309176
 30
0.0
 11
2114.673057123653
 21
6362.655951309176
 31
0.0
  0
INSERT
  5
1AC16
330
165B5
100
AcDbEntity
  8
寸法
 62
     0
 48
50.0
370
    -2
100
AcDbBlockReference
  2
_DOTSMALL
 10
2162.673057123657
 20
6362.655951309176
 30
0.0
 41
100.0
 42
100.0
 43
100.0
 50
180.0
  0
INSERT
  5
1AC17
330
165B5
100
AcDbEntity
  8
寸法
 62
     0
 48
50.0
370
    -2
100
AcDbBlockReference
  2
_DOTSMALL
 10
2114.673057123653
 20
6362.655951309176
 30
0.0
 41
100.0
 42
100.0
 43
100.0
  0
POINT
  5
1AC18
330
165B5
100
AcDbEntity
  8
DEFPOINTS
 62
     0
 48
50.0
100
AcDbPoint
 10
2162.673057123657
 20
6923.086722075341
 30
0.0
  0
POINT
  5
1AC19
330
165B5
100
AcDbEntity
  8
DEFPOINTS
 62
     0
 48
50.0
100
AcDbPoint
 10
2114.673057123653
 20
6897.08672207534
 30
0.0
  0
POINT
  5
1AC1A
330
165B5
100
AcDbEntity
  8
DEFPOINTS
 62
     0
 48
50.0
100
AcDbPoint
 10
2114.673057123653
 20
6362.655951309176
 30
0.0
  0
ENDBLK
  5
165C3
330
165B5
100
AcDbEntity
  8
0
 48
50.0
100
AcDbBlockEnd
  0
BLOCK
  5
165C5
330
165C4
100
AcDbEntity
  8
0
 48
50.0
100
AcDbBlockBegin
  2
*D15
 70
     1
 10
0.0
 20
0.0
 30
0.0
  3
*D15
  1

  0
LINE
  5
1AC1B
330
165C4
100
AcDbEntity
  8
寸法
 62
     0
 48
50.0
370
    -2
100
AcDbLine
 10
6424.67305712364
 20
6877.086722075429
 30
0.0
 11
6424.67305712364
 21
6302.655951309176
 31
0.0
  0
LINE
  5
1AC1C
330
165C4
100
AcDbEntity
  8
寸法
 62
     0
 48
50.0
370
    -2
100
AcDbLine
 10
6376.673057123639
 20
6903.086722075345
 30
0.0
 11
6376.673057123639
 21
6302.655951309176
 31
0.0
  0
LINE
  5
1AC1D
330
165C4
100
AcDbEntity
  8
寸法
 62
     0
 48
50.0
370
    -2
100
AcDbLine
 10
6424.67305712364
 20
6362.655951309176
 30
0.0
 11
6524.673057123639
 21
6362.655951309176
 31
0.0
  0
LINE
  5
1AC1E
330
165C4
100
AcDbEntity
  8
寸法
 62
     0
 48
50.0
370
    -2
100
AcDbLine
 10
6376.673057123639
 20
6362.655951309176
 30
0.0
 11
6276.673057123638
 21
6362.655951309176
 31
0.0
  0
MTEXT
  5
1AC1F
330
165C4
100
AcDbEntity
  8
寸法
 62
     7
 48
50.0
100
AcDbMText
 10
6265.710159474891
 20
6462.655951309177
 30
0.0
 40
120.0
 41
0.0
 71
     5
 72
     1
  1
\A1;48
  7
STYLE1
 73
     1
 44
1.0
1001
ACAD
1000
MTEXTBEGIN
1070
    73
1070
     1
1070
    44
1040
1.0
1070
    74
1070
     0
1000
MTEXTEND
  0
LINE
  5
1AC20
330
165C4
100
AcDbEntity
  8
寸法
 62
     0
 48
50.0
370
    -2
100
AcDbLine
 10
6424.67305712364
 20
6362.655951309176
 30
0.0
 11
6376.673057123639
 21
6362.655951309176
 31
0.0
  0
INSERT
  5
1AC21
330
165C4
100
AcDbEntity
  8
寸法
 62
     0
 48
50.0
370
    -2
100
AcDbBlockReference
  2
_DOTSMALL
 10
6424.67305712364
 20
6362.655951309176
 30
0.0
 41
100.0
 42
100.0
 43
100.0
 50
180.0
  0
INSERT
  5
1AC22
330
165C4
100
AcDbEntity
  8
寸法
 62
     0
 48
50.0
370
    -2
100
AcDbBlockReference
  2
_DOTSMALL
 10
6376.673057123639
 20
6362.655951309176
 30
0.0
 41
100.0
 42
100.0
 43
100.0
  0
POINT
  5
1AC23
330
165C4
100
AcDbEntity
  8
DEFPOINTS
 62
     0
 48
50.0
100
AcDbPoint
 10
6424.67305712364
 20
6897.08672207543
 30
0.0
  0
POINT
  5
1AC24
330
165C4
100
AcDbEntity
  8
DEFPOINTS
 62
     0
 48
50.0
100
AcDbPoint
 10
6376.673057123639
 20
6923.086722075344
 30
0.0
  0
POINT
  5
1AC25
330
165C4
100
AcDbEntity
  8
DEFPOINTS
 62
     0
 48
50.0
100
AcDbPoint
 10
6376.673057123639
 20
6362.655951309176
 30
0.0
  0
ENDBLK
  5
165D2
330
165C4
100
AcDbEntity
  8
0
 48
50.0
100
AcDbBlockEnd
  0
BLOCK
  5
1663F
330
165EA
100
AcDbEntity
  8
0
 48
50.0
100
AcDbBlockBegin
  2
*D16
 70
     1
 10
0.0
 20
0.0
 30
0.0
  3
*D16
  1

  0
LINE
  5
1AC07
330
165EA
100
AcDbEntity
  8
寸法
 62
     0
 48
50.0
370
    -2
100
AcDbLine
 10
6534.673057123653
 20
6877.08672207534
 30
0.0
 11
6534.673057123653
 21
6302.655951309178
 31
0.0
  0
LINE
  5
1AC08
330
165EA
100
AcDbEntity
  8
寸法
 62
     0
 48
50.0
370
    -2
100
AcDbLine
 10
6424.67305712364
 20
6877.086722075429
 30
0.0
 11
6424.67305712364
 21
6302.655951309178
 31
0.0
  0
LINE
  5
1AC09
330
165EA
100
AcDbEntity
  8
寸法
 62
     0
 48
50.0
370
    -2
100
AcDbLine
 10
6534.673057123653
 20
6362.655951309178
 30
0.0
 11
6424.67305712364
 21
6362.655951309178
 31
0.0
  0
MTEXT
  5
1AC0A
330
165EA
100
AcDbEntity
  8
寸法
 62
     7
 48
50.0
100
AcDbMText
 10
6479.673057123648
 20
6210.964056272949
 30
0.0
 40
120.0
 41
0.0
 71
     5
 72
     1
  1
\A1;110
  7
STYLE1
 73
     1
 44
1.0
1001
ACAD
1000
MTEXTBEGIN
1070
    73
1070
     1
1070
    44
1040
1.0
1070
    74
1070
     0
1000
MTEXTEND
  0
INSERT
  5
1AC0B
330
165EA
100
AcDbEntity
  8
寸法
 62
     0
 48
50.0
370
    -2
100
AcDbBlockReference
  2
_DOTSMALL
 10
6534.673057123653
 20
6362.655951309178
 30
0.0
 41
100.0
 42
100.0
 43
100.0
  0
INSERT
  5
1AC0C
330
165EA
100
AcDbEntity
  8
寸法
 62
     0
 48
50.0
370
    -2
100
AcDbBlockReference
  2
_DOTSMALL
 10
6424.67305712364
 20
6362.655951309178
 30
0.0
 41
100.0
 42
100.0
 43
100.0
 50
180.0
  0
POINT
  5
1AC0D
330
165EA
100
AcDbEntity
  8
DEFPOINTS
 62
     0
 48
50.0
100
AcDbPoint
 10
6534.673057123653
 20
6897.08672207534
 30
0.0
  0
POINT
  5
1AC0E
330
165EA
100
AcDbEntity
  8
DEFPOINTS
 62
     0
 48
50.0
100
AcDbPoint
 10
6424.67305712364
 20
6897.08672207543
 30
0.0
  0
POINT
  5
1AC0F
330
165EA
100
AcDbEntity
  8
DEFPOINTS
 62
     0
 48
50.0
100
AcDbPoint
 10
6424.67305712364
 20
6362.655951309178
 30
0.0
  0
ENDBLK
  5
16649
330
165EA
100
AcDbEntity
  8
0
 48
50.0
100
AcDbBlockEnd
  0
BLOCK
  5
166D0
330
166CF
100
AcDbEntity
  8
0
 48
50.0
100
AcDbBlockBegin
  2
*D17
 70
     1
 10
0.0
 20
0.0
 30
0.0
  3
*D17
  1

  0
LINE
  5
1ABFC
330
166CF
100
AcDbEntity
  8
寸法
 62
     0
 48
50.0
370
    -2
100
AcDbLine
 10
6534.673057123663
 20
10387.08672207539
 30
0.0
 11
6534.673057123663
 21
10642.89494170044
 31
0.0
  0
LINE
  5
1ABFD
330
166CF
100
AcDbEntity
  8
寸法
 62
     0
 48
50.0
370
    -2
100
AcDbLine
 10
6424.673057123666
 20
10387.08672207539
 30
0.0
 11
6424.673057123666
 21
10642.89494170044
 31
0.0
  0
LINE
  5
1ABFE
330
166CF
100
AcDbEntity
  8
寸法
 62
     0
 48
50.0
370
    -2
100
AcDbLine
 10
6534.673057123663
 20
10582.89494170044
 30
0.0
 11
6634.673057123663
 21
10582.89494170044
 31
0.0
  0
LINE
  5
1ABFF
330
166CF
100
AcDbEntity
  8
寸法
 62
     0
 48
50.0
370
    -2
100
AcDbLine
 10
6424.673057123666
 20
10582.89494170044
 30
0.0
 11
6324.673057123666
 21
10582.89494170044
 31
0.0
  0
LINE
  5
1AC00
330
166CF
100
AcDbEntity
  8
寸法
 62
     0
 48
50.0
370
    -2
100
AcDbLine
 10
6534.673057123663
 20
10582.89494170044
 30
0.0
 11
6424.673057123666
 21
10582.89494170044
 31
0.0
  0
INSERT
  5
1AC01
330
166CF
100
AcDbEntity
  8
寸法
 62
     0
 48
50.0
370
    -2
100
AcDbBlockReference
  2
_DOTSMALL
 10
6534.673057123663
 20
10582.89494170044
 30
0.0
 41
100.0
 42
100.0
 43
100.0
 50
180.0
  0
INSERT
  5
1AC02
330
166CF
100
AcDbEntity
  8
寸法
 62
     0
 48
50.0
370
    -2
100
AcDbBlockReference
  2
_DOTSMALL
 10
6424.673057123666
 20
10582.89494170044
 30
0.0
 41
100.0
 42
100.0
 43
100.0
  0
MTEXT
  5
1AC03
330
166CF
100
AcDbEntity
  8
寸法
 62
     7
 48
50.0
100
AcDbMText
 10
6479.673057123664
 20
10682.89494170044
 30
0.0
 40
120.0
 41
0.0
 71
     5
 72
     1
  1
\A1;110
  7
STYLE1
 73
     1
 44
1.0
1001
ACAD
1000
MTEXTBEGIN
1070
    73
1070
     1
1070
    44
1040
1.0
1070
    74
1070
     0
1000
MTEXTEND
  0
POINT
  5
1AC04
330
166CF
100
AcDbEntity
  8
DEFPOINTS
 62
     0
 48
50.0
100
AcDbPoint
 10
6534.673057123663
 20
10367.08672207539
 30
0.0
  0
POINT
  5
1AC05
330
166CF
100
AcDbEntity
  8
DEFPOINTS
 62
     0
 48
50.0
100
AcDbPoint
 10
6424.673057123666
 20
10367.08672207539
 30
0.0
  0
POINT
  5
1AC06
330
166CF
100
AcDbEntity
  8
DEFPOINTS
 62
     0
 48
50.0
100
AcDbPoint
 10
6424.673057123666
 20
10582.89494170044
 30
0.0
  0
ENDBLK
  5
166DC
330
166CF
100
AcDbEntity
  8
0
 48
50.0
100
AcDbBlockEnd
  0
BLOCK
  5
1726C
330
16908
100
AcDbEntity
  8
0
 48
50.0
100
AcDbBlockBegin
  2
*D18
 70
     1
 10
0.0
 20
0.0
 30
0.0
  3
*D18
  1

  0
LINE
  5
1ABF4
330
16908
100
AcDbEntity
  8
寸法
 62
     0
 48
50.0
370
    -2
100
AcDbLine
 10
8689.673057123664
 20
10387.08672207544
 30
0.0
 11
8689.673057123664
 21
10892.21641525674
 31
0.0
  0
LINE
  5
1ABF5
330
16908
100
AcDbEntity
  8
寸法
 62
     0
 48
50.0
370
    -2
100
AcDbLine
 10
6479.673057123665
 20
10832.21641525674
 30
0.0
 11
8689.673057123664
 21
10832.21641525674
 31
0.0
  0
INSERT
  5
1ABF6
330
16908
100
AcDbEntity
  8
寸法
 62
     0
 48
50.0
370
    -2
100
AcDbBlockReference
  2
_DOTSMALL
 10
6479.673057123665
 20
10832.21641525674
 30
0.0
 41
100.0
 42
100.0
 43
100.0
 50
180.0
  0
INSERT
  5
1ABF7
330
16908
100
AcDbEntity
  8
寸法
 62
     0
 48
50.0
370
    -2
100
AcDbBlockReference
  2
_DOTSMALL
 10
8689.673057123664
 20
10832.21641525674
 30
0.0
 41
100.0
 42
100.0
 43
100.0
  0
MTEXT
  5
1ABF8
330
16908
100
AcDbEntity
  8
寸法
 62
     7
 48
50.0
100
AcDbMText
 10
7584.673057123665
 20
10932.22822628036
 30
0.0
 40
120.0
 41
0.0
 71
     5
 72
     1
  1
\A1;2210
  7
STYLE1
 73
     1
 44
1.0
1001
ACAD
1000
MTEXTBEGIN
1070
    73
1070
     1
1070
    44
1040
1.0
1070
    74
1070
     0
1000
MTEXTEND
  0
POINT
  5
1ABF9
330
16908
100
AcDbEntity
  8
DEFPOINTS
 62
     0
 48
50.0
100
AcDbPoint
 10
6479.673057123665
 20
10741.88285605839
 30
0.0
  0
POINT
  5
1ABFA
330
16908
100
AcDbEntity
  8
DEFPOINTS
 62
     0
 48
50.0
100
AcDbPoint
 10
8689.673057123664
 20
10367.08672207544
 30
0.0
  0
POINT
  5
1ABFB
330
16908
100
AcDbEntity
  8
DEFPOINTS
 62
     0
 48
50.0
100
AcDbPoint
 10
8689.673057123664
 20
10832.21641525674
 30
0.0
  0
ENDBLK
  5
17275
330
16908
100
AcDbEntity
  8
0
 48
50.0
100
AcDbBlockEnd
  0
BLOCK
  5
17BD1
330
17BC5
100
AcDbEntity
  8
0
 48
50.0
100
AcDbBlockBegin
  2
*D19
 70
     1
 10
0.0
 20
0.0
 30
0.0
  3
*D19
  1

  0
LINE
  5
1ABC4
330
17BC5
100
AcDbEntity
  8
寸法
 62
     0
 48
50.0
370
    -2
100
AcDbLine
 10
4214.67305712364
 20
6877.086722075429
 30
0.0
 11
4214.67305712364
 21
6302.655951309176
 31
0.0
  0
LINE
  5
1ABC5
330
17BC5
100
AcDbEntity
  8
寸法
 62
     0
 48
50.0
370
    -2
100
AcDbLine
 10
4166.673057123636
 20
6903.086722075345
 30
0.0
 11
4166.673057123636
 21
6302.655951309176
 31
0.0
  0
LINE
  5
1ABC6
330
17BC5
100
AcDbEntity
  8
寸法
 62
     0
 48
50.0
370
    -2
100
AcDbLine
 10
4214.67305712364
 20
6362.655951309176
 30
0.0
 11
4314.67305712364
 21
6362.655951309176
 31
0.0
  0
LINE
  5
1ABC7
330
17BC5
100
AcDbEntity
  8
寸法
 62
     0
 48
50.0
370
    -2
100
AcDbLine
 10
4166.673057123636
 20
6362.655951309176
 30
0.0
 11
4066.673057123636
 21
6362.655951309176
 31
0.0
  0
MTEXT
  5
1ABC8
330
17BC5
100
AcDbEntity
  8
寸法
 62
     7
 48
50.0
100
AcDbMText
 10
4055.71015947489
 20
6462.655951309177
 30
0.0
 40
120.0
 41
0.0
 71
     5
 72
     1
  1
\A1;48
  7
STYLE1
 73
     1
 44
1.0
1001
ACAD
1000
MTEXTBEGIN
1070
    73
1070
     1
1070
    44
1040
1.0
1070
    74
1070
     0
1000
MTEXTEND
  0
LINE
  5
1ABC9
330
17BC5
100
AcDbEntity
  8
寸法
 62
     0
 48
50.0
370
    -2
100
AcDbLine
 10
4214.67305712364
 20
6362.655951309176
 30
0.0
 11
4166.673057123636
 21
6362.655951309176
 31
0.0
  0
INSERT
  5
1ABCA
330
17BC5
100
AcDbEntity
  8
寸法
 62
     0
 48
50.0
370
    -2
100
AcDbBlockReference
  2
_DOTSMALL
 10
4214.67305712364
 20
6362.655951309176
 30
0.0
 41
100.0
 42
100.0
 43
100.0
 50
180.0
  0
INSERT
  5
1ABCB
330
17BC5
100
AcDbEntity
  8
寸法
 62
     0
 48
50.0
370
    -2
100
AcDbBlockReference
  2
_DOTSMALL
 10
4166.673057123636
 20
6362.655951309176
 30
0.0
 41
100.0
 42
100.0
 43
100.0
  0
POINT
  5
1ABCC
330
17BC5
100
AcDbEntity
  8
DEFPOINTS
 62
     0
 48
50.0
100
AcDbPoint
 10
4214.67305712364
 20
6897.08672207543
 30
0.0
  0
POINT
  5
1ABCD
330
17BC5
100
AcDbEntity
  8
DEFPOINTS
 62
     0
 48
50.0
100
AcDbPoint
 10
4166.673057123636
 20
6923.086722075344
 30
0.0
  0
POINT
  5
1ABCE
330
17BC5
100
AcDbEntity
  8
DEFPOINTS
 62
     0
 48
50.0
100
AcDbPoint
 10
4166.673057123636
 20
6362.655951309176
 30
0.0
  0
ENDBLK
  5
17BD2
330
17BC5
100
AcDbEntity
  8
0
 48
50.0
100
AcDbBlockEnd
  0
BLOCK
  5
17BDC
330
17BD3
100
AcDbEntity
  8
0
 48
50.0
100
AcDbBlockBegin
  2
*D20
 70
     1
 10
0.0
 20
0.0
 30
0.0
  3
*D20
  1

  0
LINE
  5
1ABCF
330
17BD3
100
AcDbEntity
  8
寸法
 62
     0
 48
50.0
370
    -2
100
AcDbLine
 10
2162.673057123657
 20
6903.08672207534
 30
0.0
 11
2162.673057123657
 21
6302.655951309176
 31
0.0
  0
LINE
  5
1ABD0
330
17BD3
100
AcDbEntity
  8
寸法
 62
     0
 48
50.0
370
    -2
100
AcDbLine
 10
4166.673057123636
 20
6362.655951309176
 30
0.0
 11
2162.673057123657
 21
6362.655951309176
 31
0.0
  0
INSERT
  5
1ABD1
330
17BD3
100
AcDbEntity
  8
寸法
 62
     0
 48
50.0
370
    -2
100
AcDbBlockReference
  2
_DOTSMALL
 10
4166.673057123636
 20
6362.655951309176
 30
0.0
 41
100.0
 42
100.0
 43
100.0
  0
INSERT
  5
1ABD2
330
17BD3
100
AcDbEntity
  8
寸法
 62
     0
 48
50.0
370
    -2
100
AcDbBlockReference
  2
_DOTSMALL
 10
2162.673057123657
 20
6362.655951309176
 30
0.0
 41
100.0
 42
100.0
 43
100.0
 50
180.0
  0
MTEXT
  5
1ABD3
330
17BD3
100
AcDbEntity
  8
寸法
 62
     7
 48
50.0
100
AcDbMText
 10
3164.673057123647
 20
6462.667762332798
 30
0.0
 40
120.0
 41
0.0
 71
     5
 72
     1
  1
\A1;有効開口部間口 2004
  7
STYLE1
 73
     1
 44
1.0
1001
ACAD
1000
MTEXTBEGIN
1070
    73
1070
     1
1070
    44
1040
1.0
1070
    74
1070
     0
1000
MTEXTEND
  0
POINT
  5
1ABD4
330
17BD3
100
AcDbEntity
  8
DEFPOINTS
 62
     0
 48
50.0
100
AcDbPoint
 10
4166.673057123636
 20
6923.086722075344
 30
0.0
  0
POINT
  5
1ABD5
330
17BD3
100
AcDbEntity
  8
DEFPOINTS
 62
     0
 48
50.0
100
AcDbPoint
 10
2162.673057123657
 20
6923.086722075341
 30
0.0
  0
POINT
  5
1ABD6
330
17BD3
100
AcDbEntity
  8
DEFPOINTS
 62
     0
 48
50.0
100
AcDbPoint
 10
2162.673057123657
 20
6362.655951309176
 30
0.0
  0
ENDBLK
  5
17BDD
330
17BD3
100
AcDbEntity
  8
0
 48
50.0
100
AcDbBlockEnd
  0
BLOCK
  5
17BE8
330
17BDE
100
AcDbEntity
  8
0
 48
50.0
100
AcDbBlockBegin
  2
*D21
 70
     1
 10
0.0
 20
0.0
 30
0.0
  3
*D21
  1

  0
LINE
  5
1ABE2
330
17BDE
100
AcDbEntity
  8
寸法
 62
     0
 48
50.0
370
    -2
100
AcDbLine
 10
2114.673057123663
 20
10387.08672207534
 30
0.0
 11
2114.673057123663
 21
10642.89494170044
 31
0.0
  0
LINE
  5
1ABE3
330
17BDE
100
AcDbEntity
  8
寸法
 62
     0
 48
50.0
370
    -2
100
AcDbLine
 10
4214.673057123664
 20
10387.08672207544
 30
0.0
 11
4214.673057123664
 21
10642.89494170044
 31
0.0
  0
LINE
  5
1ABE4
330
17BDE
100
AcDbEntity
  8
寸法
 62
     0
 48
50.0
370
    -2
100
AcDbLine
 10
2114.673057123663
 20
10582.89494170044
 30
0.0
 11
4214.673057123664
 21
10582.89494170044
 31
0.0
  0
INSERT
  5
1ABE5
330
17BDE
100
AcDbEntity
  8
寸法
 62
     0
 48
50.0
370
    -2
100
AcDbBlockReference
  2
_DOTSMALL
 10
2114.673057123663
 20
10582.89494170044
 30
0.0
 41
100.0
 42
100.0
 43
100.0
 50
180.0
  0
INSERT
  5
1ABE6
330
17BDE
100
AcDbEntity
  8
寸法
 62
     0
 48
50.0
370
    -2
100
AcDbBlockReference
  2
_DOTSMALL
 10
4214.673057123664
 20
10582.89494170044
 30
0.0
 41
100.0
 42
100.0
 43
100.0
  0
MTEXT
  5
1ABE7
330
17BDE
100
AcDbEntity
  8
寸法
 62
     7
 48
50.0
100
AcDbMText
 10
3164.673057123664
 20
10682.90675272406
 30
0.0
 40
120.0
 41
0.0
 71
     5
 72
     1
  1
\A1;5X420=2100
  7
STYLE1
 73
     1
 44
1.0
1001
ACAD
1000
MTEXTBEGIN
1070
    73
1070
     1
1070
    44
1040
1.0
1070
    74
1070
     0
1000
MTEXTEND
  0
POINT
  5
1ABE8
330
17BDE
100
AcDbEntity
  8
DEFPOINTS
 62
     0
 48
50.0
100
AcDbPoint
 10
2114.673057123663
 20
10367.08672207534
 30
0.0
  0
POINT
  5
1ABE9
330
17BDE
100
AcDbEntity
  8
DEFPOINTS
 62
     0
 48
50.0
100
AcDbPoint
 10
4214.673057123664
 20
10367.08672207544
 30
0.0
  0
POINT
  5
1ABEA
330
17BDE
100
AcDbEntity
  8
DEFPOINTS
 62
     0
 48
50.0
100
AcDbPoint
 10
4214.673057123664
 20
10582.89494170044
 30
0.0
  0
ENDBLK
  5
17BE9
330
17BDE
100
AcDbEntity
  8
0
 48
50.0
100
AcDbBlockEnd
  0
BLOCK
  5
17BF6
330
17BEA
100
AcDbEntity
  8
0
 48
50.0
100
AcDbBlockBegin
  2
*D22
 70
     1
 10
0.0
 20
0.0
 30
0.0
  3
*D22
  1

  0
LINE
  5
1ABD7
330
17BEA
100
AcDbEntity
  8
寸法
 62
     0
 48
50.0
370
    -2
100
AcDbLine
 10
4324.673057123663
 20
10387.08672207539
 30
0.0
 11
4324.673057123663
 21
10642.89494170044
 31
0.0
  0
LINE
  5
1ABD8
330
17BEA
100
AcDbEntity
  8
寸法
 62
     0
 48
50.0
370
    -2
100
AcDbLine
 10
4214.673057123664
 20
10387.08672207539
 30
0.0
 11
4214.673057123664
 21
10642.89494170044
 31
0.0
  0
LINE
  5
1ABD9
330
17BEA
100
AcDbEntity
  8
寸法
 62
     0
 48
50.0
370
    -2
100
AcDbLine
 10
4324.673057123663
 20
10582.89494170044
 30
0.0
 11
4424.673057123663
 21
10582.89494170044
 31
0.0
  0
LINE
  5
1ABDA
330
17BEA
100
AcDbEntity
  8
寸法
 62
     0
 48
50.0
370
    -2
100
AcDbLine
 10
4214.673057123664
 20
10582.89494170044
 30
0.0
 11
4114.673057123663
 21
10582.89494170044
 31
0.0
  0
LINE
  5
1ABDB
330
17BEA
100
AcDbEntity
  8
寸法
 62
     0
 48
50.0
370
    -2
100
AcDbLine
 10
4324.673057123663
 20
10582.89494170044
 30
0.0
 11
4214.673057123664
 21
10582.89494170044
 31
0.0
  0
INSERT
  5
1ABDC
330
17BEA
100
AcDbEntity
  8
寸法
 62
     0
 48
50.0
370
    -2
100
AcDbBlockReference
  2
_DOTSMALL
 10
4324.673057123663
 20
10582.89494170044
 30
0.0
 41
100.0
 42
100.0
 43
100.0
 50
180.0
  0
INSERT
  5
1ABDD
330
17BEA
100
AcDbEntity
  8
寸法
 62
     0
 48
50.0
370
    -2
100
AcDbBlockReference
  2
_DOTSMALL
 10
4214.673057123664
 20
10582.89494170044
 30
0.0
 41
100.0
 42
100.0
 43
100.0
  0
MTEXT
  5
1ABDE
330
17BEA
100
AcDbEntity
  8
寸法
 62
     7
 48
50.0
100
AcDbMText
 10
4269.673057123664
 20
10682.89494170044
 30
0.0
 40
120.0
 41
0.0
 71
     5
 72
     1
  1
\A1;110
  7
STYLE1
 73
     1
 44
1.0
1001
ACAD
1000
MTEXTBEGIN
1070
    73
1070
     1
1070
    44
1040
1.0
1070
    74
1070
     0
1000
MTEXTEND
  0
POINT
  5
1ABDF
330
17BEA
100
AcDbEntity
  8
DEFPOINTS
 62
     0
 48
50.0
100
AcDbPoint
 10
4324.673057123663
 20
10367.08672207539
 30
0.0
  0
POINT
  5
1ABE0
330
17BEA
100
AcDbEntity
  8
DEFPOINTS
 62
     0
 48
50.0
100
AcDbPoint
 10
4214.673057123664
 20
10367.08672207539
 30
0.0
  0
POINT
  5
1ABE1
330
17BEA
100
AcDbEntity
  8
DEFPOINTS
 62
     0
 48
50.0
100
AcDbPoint
 10
4214.673057123664
 20
10582.89494170044
 30
0.0
  0
ENDBLK
  5
17BF7
330
17BEA
100
AcDbEntity
  8
0
 48
50.0
100
AcDbBlockEnd
  0
BLOCK
  5
17C02
330
17BF8
100
AcDbEntity
  8
0
 48
50.0
100
AcDbBlockBegin
  2
*D23
 70
     1
 10
0.0
 20
0.0
 30
0.0
  3
*D23
  1

  0
LINE
  5
1ABEB
330
17BF8
100
AcDbEntity
  8
寸法
 62
     0
 48
50.0
370
    -2
100
AcDbLine
 10
2059.673057123629
 20
10387.08672207531
 30
0.0
 11
2059.673057123629
 21
10892.21641525674
 31
0.0
  0
LINE
  5
1ABEC
330
17BF8
100
AcDbEntity
  8
寸法
 62
     0
 48
50.0
370
    -2
100
AcDbLine
 10
4269.673057123664
 20
10761.88285605839
 30
0.0
 11
4269.673057123664
 21
10892.21641525674
 31
0.0
  0
LINE
  5
1ABED
330
17BF8
100
AcDbEntity
  8
寸法
 62
     0
 48
50.0
370
    -2
100
AcDbLine
 10
2059.673057123629
 20
10832.21641525674
 30
0.0
 11
4269.673057123664
 21
10832.21641525674
 31
0.0
  0
INSERT
  5
1ABEE
330
17BF8
100
AcDbEntity
  8
寸法
 62
     0
 48
50.0
370
    -2
100
AcDbBlockReference
  2
_DOTSMALL
 10
2059.673057123629
 20
10832.21641525674
 30
0.0
 41
100.0
 42
100.0
 43
100.0
 50
180.0
  0
INSERT
  5
1ABEF
330
17BF8
100
AcDbEntity
  8
寸法
 62
     0
 48
50.0
370
    -2
100
AcDbBlockReference
  2
_DOTSMALL
 10
4269.673057123664
 20
10832.21641525674
 30
0.0
 41
100.0
 42
100.0
 43
100.0
  0
MTEXT
  5
1ABF0
330
17BF8
100
AcDbEntity
  8
寸法
 62
     7
 48
50.0
100
AcDbMText
 10
3164.673057123647
 20
10932.22822628036
 30
0.0
 40
120.0
 41
0.0
 71
     5
 72
     1
  1
\A1;2210
  7
STYLE1
 73
     1
 44
1.0
1001
ACAD
1000
MTEXTBEGIN
1070
    73
1070
     1
1070
    44
1040
1.0
1070
    74
1070
     0
1000
MTEXTEND
  0
POINT
  5
1ABF1
330
17BF8
100
AcDbEntity
  8
DEFPOINTS
 62
     0
 48
50.0
100
AcDbPoint
 10
2059.673057123629
 20
10367.08672207531
 30
0.0
  0
POINT
  5
1ABF2
330
17BF8
100
AcDbEntity
  8
DEFPOINTS
 62
     0
 48
50.0
100
AcDbPoint
 10
4269.673057123664
 20
10741.88285605839
 30
0.0
  0
POINT
  5
1ABF3
330
17BF8
100
AcDbEntity
  8
DEFPOINTS
 62
     0
 48
50.0
100
AcDbPoint
 10
4269.673057123664
 20
10832.21641525674
 30
0.0
  0
ENDBLK
  5
17C03
330
17BF8
100
AcDbEntity
  8
0
 48
50.0
100
AcDbBlockEnd
  0
BLOCK
  5
17C54
330
17C48
100
AcDbEntity
  8
0
 48
50.0
100
AcDbBlockBegin
  2
*D24
 70
     1
 10
0.0
 20
0.0
 30
0.0
  3
*D24
  1

  0
LINE
  5
1ABB0
330
17C48
100
AcDbEntity
  8
寸法
 62
     0
 48
50.0
370
    -2
100
AcDbLine
 10
4372.673057123654
 20
6903.08672207534
 30
0.0
 11
4372.673057123654
 21
6302.655951309176
 31
0.0
  0
LINE
  5
1ABB1
330
17C48
100
AcDbEntity
  8
寸法
 62
     0
 48
50.0
370
    -2
100
AcDbLine
 10
4324.673057123653
 20
6877.08672207534
 30
0.0
 11
4324.673057123653
 21
6302.655951309176
 31
0.0
  0
LINE
  5
1ABB2
330
17C48
100
AcDbEntity
  8
寸法
 62
     0
 48
50.0
370
    -2
100
AcDbLine
 10
4372.673057123654
 20
6362.655951309176
 30
0.0
 11
4472.673057123655
 21
6362.655951309176
 31
0.0
  0
LINE
  5
1ABB3
330
17C48
100
AcDbEntity
  8
寸法
 62
     0
 48
50.0
370
    -2
100
AcDbLine
 10
4324.673057123653
 20
6362.655951309176
 30
0.0
 11
4224.673057123653
 21
6362.655951309176
 31
0.0
  0
MTEXT
  5
1ABB4
330
17C48
100
AcDbEntity
  8
寸法
 62
     7
 48
50.0
100
AcDbMText
 10
4485.575028123714
 20
6462.655951309177
 30
0.0
 40
120.0
 41
0.0
 71
     5
 72
     1
  1
\A1;48
  7
STYLE1
 73
     1
 44
1.0
1001
ACAD
1000
MTEXTBEGIN
1070
    73
1070
     1
1070
    44
1040
1.0
1070
    74
1070
     0
1000
MTEXTEND
  0
LINE
  5
1ABB5
330
17C48
100
AcDbEntity
  8
寸法
 62
     0
 48
50.0
370
    -2
100
AcDbLine
 10
4372.673057123654
 20
6362.655951309176
 30
0.0
 11
4324.673057123653
 21
6362.655951309176
 31
0.0
  0
INSERT
  5
1ABB6
330
17C48
100
AcDbEntity
  8
寸法
 62
     0
 48
50.0
370
    -2
100
AcDbBlockReference
  2
_DOTSMALL
 10
4372.673057123654
 20
6362.655951309176
 30
0.0
 41
100.0
 42
100.0
 43
100.0
 50
180.0
  0
INSERT
  5
1ABB7
330
17C48
100
AcDbEntity
  8
寸法
 62
     0
 48
50.0
370
    -2
100
AcDbBlockReference
  2
_DOTSMALL
 10
4324.673057123653
 20
6362.655951309176
 30
0.0
 41
100.0
 42
100.0
 43
100.0
  0
POINT
  5
1ABB8
330
17C48
100
AcDbEntity
  8
DEFPOINTS
 62
     0
 48
50.0
100
AcDbPoint
 10
4372.673057123654
 20
6923.086722075341
 30
0.0
  0
POINT
  5
1ABB9
330
17C48
100
AcDbEntity
  8
DEFPOINTS
 62
     0
 48
50.0
100
AcDbPoint
 10
4324.673057123653
 20
6897.08672207534
 30
0.0
  0
POINT
  5
1ABBA
330
17C48
100
AcDbEntity
  8
DEFPOINTS
 62
     0
 48
50.0
100
AcDbPoint
 10
4324.673057123653
 20
6362.655951309176
 30
0.0
  0
ENDBLK
  5
17C55
330
17C48
100
AcDbEntity
  8
0
 48
50.0
100
AcDbBlockEnd
  0
BLOCK
  5
17C60
330
17C56
100
AcDbEntity
  8
0
 48
50.0
100
AcDbBlockBegin
  2
*D25
 70
     1
 10
0.0
 20
0.0
 30
0.0
  3
*D25
  1

  0
LINE
  5
1ABBB
330
17C56
100
AcDbEntity
  8
寸法
 62
     0
 48
50.0
370
    -2
100
AcDbLine
 10
4324.673057123653
 20
6877.08672207534
 30
0.0
 11
4324.673057123653
 21
6302.655951309178
 31
0.0
  0
LINE
  5
1ABBC
330
17C56
100
AcDbEntity
  8
寸法
 62
     0
 48
50.0
370
    -2
100
AcDbLine
 10
4214.67305712364
 20
6877.086722075429
 30
0.0
 11
4214.67305712364
 21
6302.655951309178
 31
0.0
  0
LINE
  5
1ABBD
330
17C56
100
AcDbEntity
  8
寸法
 62
     0
 48
50.0
370
    -2
100
AcDbLine
 10
4324.673057123653
 20
6362.655951309178
 30
0.0
 11
4214.67305712364
 21
6362.655951309178
 31
0.0
  0
MTEXT
  5
1ABBE
330
17C56
100
AcDbEntity
  8
寸法
 62
     7
 48
50.0
100
AcDbMText
 10
4269.673057123646
 20
6210.964056272949
 30
0.0
 40
120.0
 41
0.0
 71
     5
 72
     1
  1
\A1;110
  7
STYLE1
 73
     1
 44
1.0
1001
ACAD
1000
MTEXTBEGIN
1070
    73
1070
     1
1070
    44
1040
1.0
1070
    74
1070
     0
1000
MTEXTEND
  0
INSERT
  5
1ABBF
330
17C56
100
AcDbEntity
  8
寸法
 62
     0
 48
50.0
370
    -2
100
AcDbBlockReference
  2
_DOTSMALL
 10
4324.673057123653
 20
6362.655951309178
 30
0.0
 41
100.0
 42
100.0
 43
100.0
  0
INSERT
  5
1ABC0
330
17C56
100
AcDbEntity
  8
寸法
 62
     0
 48
50.0
370
    -2
100
AcDbBlockReference
  2
_DOTSMALL
 10
4214.67305712364
 20
6362.655951309178
 30
0.0
 41
100.0
 42
100.0
 43
100.0
 50
180.0
  0
POINT
  5
1ABC1
330
17C56
100
AcDbEntity
  8
DEFPOINTS
 62
     0
 48
50.0
100
AcDbPoint
 10
4324.673057123653
 20
6897.08672207534
 30
0.0
  0
POINT
  5
1ABC2
330
17C56
100
AcDbEntity
  8
DEFPOINTS
 62
     0
 48
50.0
100
AcDbPoint
 10
4214.67305712364
 20
6897.08672207543
 30
0.0
  0
POINT
  5
1ABC3
330
17C56
100
AcDbEntity
  8
DEFPOINTS
 62
     0
 48
50.0
100
AcDbPoint
 10
4214.67305712364
 20
6362.655951309178
 30
0.0
  0
ENDBLK
  5
17C61
330
17C56
100
AcDbEntity
  8
0
 48
50.0
100
AcDbBlockEnd
  0
BLOCK
  5
196F7
330
196ED
100
AcDbEntity
  8
0
 48
50.0
100
AcDbBlockBegin
  2
*D26
 70
     1
 10
0.0
 20
0.0
 30
0.0
  3
*D26
  1

  0
LINE
  5
1AD3E
330
196ED
100
AcDbEntity
  8
寸法
 62
     0
 48
50.0
370
    -2
100
AcDbLine
 10
8689.673057123659
 20
4521.948501725714
 30
0.0
 11
8689.673057123659
 21
4967.674773457614
 31
0.0
  0
LINE
  5
1AD3F
330
196ED
100
AcDbEntity
  8
寸法
 62
     0
 48
50.0
370
    -2
100
AcDbLine
 10
2059.673057123653
 20
4521.948501725712
 30
0.0
 11
2059.673057123653
 21
4967.674773457614
 31
0.0
  0
LINE
  5
1AD40
330
196ED
100
AcDbEntity
  8
寸法
 62
     0
 48
50.0
370
    -2
100
AcDbLine
 10
8689.673057123659
 20
4907.674773457614
 30
0.0
 11
2059.673057123653
 21
4907.674773457614
 31
0.0
  0
INSERT
  5
1AD41
330
196ED
100
AcDbEntity
  8
寸法
 62
     0
 48
50.0
370
    -2
100
AcDbBlockReference
  2
_DOTSMALL
 10
8689.673057123659
 20
4907.674773457614
 30
0.0
 41
100.0
 42
100.0
 43
100.0
  0
INSERT
  5
1AD42
330
196ED
100
AcDbEntity
  8
寸法
 62
     0
 48
50.0
370
    -2
100
AcDbBlockReference
  2
_DOTSMALL
 10
2059.673057123653
 20
4907.674773457614
 30
0.0
 41
100.0
 42
100.0
 43
100.0
 50
180.0
  0
MTEXT
  5
1AD43
330
196ED
100
AcDbEntity
  8
寸法
 62
     7
 48
50.0
100
AcDbMText
 10
5374.673057123656
 20
5007.686584481237
 30
0.0
 40
120.0
 41
0.0
 71
     5
 72
     1
  1
\A1;柱外寸法 N X 2210
  7
STYLE1
 73
     1
 44
1.0
1001
ACAD
1000
MTEXTBEGIN
1070
    73
1070
     1
1070
    44
1040
1.0
1070
    74
1070
     0
1000
MTEXTEND
  0
POINT
  5
1AD44
330
196ED
100
AcDbEntity
  8
DEFPOINTS
 62
     0
 48
50.0
100
AcDbPoint
 10
8689.673057123659
 20
4501.948501725713
 30
0.0
  0
POINT
  5
1AD45
330
196ED
100
AcDbEntity
  8
DEFPOINTS
 62
     0
 48
50.0
100
AcDbPoint
 10
2059.673057123653
 20
4501.948501725712
 30
0.0
  0
POINT
  5
1AD46
330
196ED
100
AcDbEntity
  8
DEFPOINTS
 62
     0
 48
50.0
100
AcDbPoint
 10
2059.673057123653
 20
4907.674773457614
 30
0.0
  0
ENDBLK
  5
196F8
330
196ED
100
AcDbEntity
  8
0
 48
50.0
100
AcDbBlockEnd
  0
BLOCK
  5
19703
330
196F9
100
AcDbEntity
  8
0
 48
50.0
100
AcDbBlockBegin
  2
*D27
 70
     1
 10
0.0
 20
0.0
 30
0.0
  3
*D27
  1

  0
LINE
  5
1AD35
330
196F9
100
AcDbEntity
  8
寸法
 62
     0
 48
50.0
370
    -2
100
AcDbLine
 10
2009.673057123653
 20
4521.948501725712
 30
0.0
 11
2009.673057123653
 21
5167.583694671706
 31
0.0
  0
LINE
  5
1AD36
330
196F9
100
AcDbEntity
  8
寸法
 62
     0
 48
50.0
370
    -2
100
AcDbLine
 10
8739.673057123653
 20
4521.94850172571
 30
0.0
 11
8739.673057123653
 21
5167.583694671706
 31
0.0
  0
LINE
  5
1AD37
330
196F9
100
AcDbEntity
  8
寸法
 62
     0
 48
50.0
370
    -2
100
AcDbLine
 10
2009.673057123653
 20
5107.583694671706
 30
0.0
 11
8739.673057123653
 21
5107.583694671706
 31
0.0
  0
INSERT
  5
1AD38
330
196F9
100
AcDbEntity
  8
寸法
 62
     0
 48
50.0
370
    -2
100
AcDbBlockReference
  2
_DOTSMALL
 10
2009.673057123653
 20
5107.583694671706
 30
0.0
 41
100.0
 42
100.0
 43
100.0
 50
180.0
  0
INSERT
  5
1AD39
330
196F9
100
AcDbEntity
  8
寸法
 62
     0
 48
50.0
370
    -2
100
AcDbBlockReference
  2
_DOTSMALL
 10
8739.673057123653
 20
5107.583694671706
 30
0.0
 41
100.0
 42
100.0
 43
100.0
  0
MTEXT
  5
1AD3A
330
196F9
100
AcDbEntity
  8
寸法
 62
     7
 48
50.0
100
AcDbMText
 10
5374.673057123653
 20
5207.595505695328
 30
0.0
 40
120.0
 41
0.0
 71
     5
 72
     1
  1
\A1;N X 2210+100
  7
STYLE1
 73
     1
 44
1.0
1001
ACAD
1000
MTEXTBEGIN
1070
    73
1070
     1
1070
    44
1040
1.0
1070
    74
1070
     0
1000
MTEXTEND
  0
POINT
  5
1AD3B
330
196F9
100
AcDbEntity
  8
DEFPOINTS
 62
     0
 48
50.0
100
AcDbPoint
 10
2009.673057123653
 20
4501.948501725712
 30
0.0
  0
POINT
  5
1AD3C
330
196F9
100
AcDbEntity
  8
DEFPOINTS
 62
     0
 48
50.0
100
AcDbPoint
 10
8739.673057123653
 20
4501.94850172571
 30
0.0
  0
POINT
  5
1AD3D
330
196F9
100
AcDbEntity
  8
DEFPOINTS
 62
     0
 48
50.0
100
AcDbPoint
 10
8739.673057123653
 20
5107.583694671706
 30
0.0
  0
ENDBLK
  5
19704
330
196F9
100
AcDbEntity
  8
0
 48
50.0
100
AcDbBlockEnd
  0
BLOCK
  5
19711
330
19705
100
AcDbEntity
  8
0
 48
50.0
100
AcDbBlockBegin
  2
*D28
 70
     1
 10
0.0
 20
0.0
 30
0.0
  3
*D28
  1

  0
LINE
  5
1AD2A
330
19705
100
AcDbEntity
  8
寸法
 62
     0
 48
50.0
370
    -2
100
AcDbLine
 10
2059.673057123653
 20
4521.948501725714
 30
0.0
 11
2059.673057123653
 21
4967.674773457614
 31
0.0
  0
LINE
  5
1AD2B
330
19705
100
AcDbEntity
  8
寸法
 62
     0
 48
50.0
370
    -2
100
AcDbLine
 10
2009.673057123653
 20
4521.948501725714
 30
0.0
 11
2009.673057123653
 21
4967.674773457614
 31
0.0
  0
LINE
  5
1AD2C
330
19705
100
AcDbEntity
  8
寸法
 62
     0
 48
50.0
370
    -2
100
AcDbLine
 10
2059.673057123653
 20
4907.674773457614
 30
0.0
 11
2159.673057123653
 21
4907.674773457614
 31
0.0
  0
LINE
  5
1AD2D
330
19705
100
AcDbEntity
  8
寸法
 62
     0
 48
50.0
370
    -2
100
AcDbLine
 10
2009.673057123653
 20
4907.674773457614
 30
0.0
 11
1590.140531654918
 21
4907.674773457614
 31
0.0
  0
LINE
  5
1AD2E
330
19705
100
AcDbEntity
  8
寸法
 62
     0
 48
50.0
370
    -2
100
AcDbLine
 10
2059.673057123653
 20
4907.674773457614
 30
0.0
 11
2009.673057123653
 21
4907.674773457614
 31
0.0
  0
INSERT
  5
1AD2F
330
19705
100
AcDbEntity
  8
寸法
 62
     0
 48
50.0
370
    -2
100
AcDbBlockReference
  2
_DOTSMALL
 10
2059.673057123653
 20
4907.674773457614
 30
0.0
 41
100.0
 42
100.0
 43
100.0
 50
180.0
  0
INSERT
  5
1AD30
330
19705
100
AcDbEntity
  8
寸法
 62
     0
 48
50.0
370
    -2
100
AcDbBlockReference
  2
_DOTSMALL
 10
2009.673057123653
 20
4907.674773457614
 30
0.0
 41
100.0
 42
100.0
 43
100.0
  0
MTEXT
  5
1AD31
330
19705
100
AcDbEntity
  8
寸法
 62
     7
 48
50.0
100
AcDbMText
 10
1696.187775749406
 20
5007.674773457615
 30
0.0
 40
120.0
 41
0.0
 71
     5
 72
     1
  1
\A1;50
  7
STYLE1
 73
     1
 44
1.0
1001
ACAD
1000
MTEXTBEGIN
1070
    73
1070
     1
1070
    44
1040
1.0
1070
    74
1070
     0
1000
MTEXTEND
  0
POINT
  5
1AD32
330
19705
100
AcDbEntity
  8
DEFPOINTS
 62
     0
 48
50.0
100
AcDbPoint
 10
2059.673057123653
 20
4501.948501725713
 30
0.0
  0
POINT
  5
1AD33
330
19705
100
AcDbEntity
  8
DEFPOINTS
 62
     0
 48
50.0
100
AcDbPoint
 10
2009.673057123653
 20
4501.948501725713
 30
0.0
  0
POINT
  5
1AD34
330
19705
100
AcDbEntity
  8
DEFPOINTS
 62
     0
 48
50.0
100
AcDbPoint
 10
2009.673057123653
 20
4907.674773457614
 30
0.0
  0
ENDBLK
  5
19712
330
19705
100
AcDbEntity
  8
0
 48
50.0
100
AcDbBlockEnd
  0
BLOCK
  5
1971F
330
19713
100
AcDbEntity
  8
0
 48
50.0
100
AcDbBlockBegin
  2
*D29
 70
     1
 10
0.0
 20
0.0
 30
0.0
  3
*D29
  1

  0
LINE
  5
1AD1F
330
19713
100
AcDbEntity
  8
寸法
 62
     0
 48
50.0
370
    -2
100
AcDbLine
 10
8739.673057123653
 20
4521.94850172571
 30
0.0
 11
8739.673057123653
 21
4967.674773457622
 31
0.0
  0
LINE
  5
1AD20
330
19713
100
AcDbEntity
  8
寸法
 62
     0
 48
50.0
370
    -2
100
AcDbLine
 10
8689.673057123659
 20
4521.948501725714
 30
0.0
 11
8689.673057123659
 21
4967.674773457622
 31
0.0
  0
LINE
  5
1AD21
330
19713
100
AcDbEntity
  8
寸法
 62
     0
 48
50.0
370
    -2
100
AcDbLine
 10
8689.673057123659
 20
4907.674773457622
 30
0.0
 11
8589.673057123659
 21
4907.674773457622
 31
0.0
  0
LINE
  5
1AD22
330
19713
100
AcDbEntity
  8
寸法
 62
     0
 48
50.0
370
    -2
100
AcDbLine
 10
8739.673057123653
 20
4907.674773457622
 30
0.0
 11
9159.205582592383
 21
4907.674773457622
 31
0.0
  0
LINE
  5
1AD23
330
19713
100
AcDbEntity
  8
寸法
 62
     0
 48
50.0
370
    -2
100
AcDbLine
 10
8689.673057123659
 20
4907.674773457622
 30
0.0
 11
8739.673057123653
 21
4907.674773457622
 31
0.0
  0
INSERT
  5
1AD24
330
19713
100
AcDbEntity
  8
寸法
 62
     0
 48
50.0
370
    -2
100
AcDbBlockReference
  2
_DOTSMALL
 10
8689.673057123659
 20
4907.674773457622
 30
0.0
 41
100.0
 42
100.0
 43
100.0
  0
INSERT
  5
1AD25
330
19713
100
AcDbEntity
  8
寸法
 62
     0
 48
50.0
370
    -2
100
AcDbBlockReference
  2
_DOTSMALL
 10
8739.673057123653
 20
4907.674773457622
 30
0.0
 41
100.0
 42
100.0
 43
100.0
 50
180.0
  0
MTEXT
  5
1AD26
330
19713
100
AcDbEntity
  8
寸法
 62
     7
 48
50.0
100
AcDbMText
 10
9053.158338497894
 20
5007.674773457623
 30
0.0
 40
120.0
 41
0.0
 71
     5
 72
     1
  1
\A1;50
  7
STYLE1
 73
     1
 44
1.0
1001
ACAD
1000
MTEXTBEGIN
1070
    73
1070
     1
1070
    44
1040
1.0
1070
    74
1070
     0
1000
MTEXTEND
  0
POINT
  5
1AD27
330
19713
100
AcDbEntity
  8
DEFPOINTS
 62
     0
 48
50.0
100
AcDbPoint
 10
8739.673057123653
 20
4501.94850172571
 30
0.0
  0
POINT
  5
1AD28
330
19713
100
AcDbEntity
  8
DEFPOINTS
 62
     0
 48
50.0
100
AcDbPoint
 10
8689.673057123659
 20
4501.948501725713
 30
0.0
  0
POINT
  5
1AD29
330
19713
100
AcDbEntity
  8
DEFPOINTS
 62
     0
 48
50.0
100
AcDbPoint
 10
8689.673057123659
 20
4907.674773457622
 30
0.0
  0
ENDBLK
  5
19720
330
19713
100
AcDbEntity
  8
0
 48
50.0
100
AcDbBlockEnd
  0
BLOCK
  5
19E76
330
19E6B
100
AcDbEntity
  8
0
 48
50.0
100
AcDbBlockBegin
  2
*D30
 70
     1
 10
0.0
 20
0.0
 30
0.0
  3
*D30
  1

  0
LINE
  5
1AD15
330
19E6B
100
AcDbEntity
  8
寸法
 62
     0
 48
50.0
370
    -2
100
AcDbLine
 10
11214.62577063551
 20
4501.246208795367
 30
0.0
 11
10598.69133153021
 21
4518.960359069713
 31
0.0
  0
LINE
  5
1AD16
330
19E6B
100
AcDbEntity
  8
寸法
 62
     0
 48
50.0
370
    -2
100
AcDbLine
 10
11210.57231507888
 20
4360.304485029657
 30
0.0
 11
10594.63787597358
 21
4378.018635304004
 31
0.0
  0
LINE
  5
1AD17
330
19E6B
100
AcDbEntity
  8
寸法
 62
     0
 48
50.0
370
    -2
100
AcDbLine
 10
10654.61307757602
 20
4376.293760599054
 30
0.0
 11
10658.66653313265
 21
4517.235484364764
 31
0.0
  0
LINE
  5
1AD18
330
19E6B
100
AcDbEntity
  8
寸法
 62
     0
 48
50.0
370
    -2
100
AcDbLine
 10
10658.66653313265
 20
4517.235484364764
 30
0.0
 11
10669.01578136234
 21
4877.086693979351
 31
0.0
  0
INSERT
  5
1AD19
330
19E6B
100
AcDbEntity
  8
寸法
 62
     0
 48
50.0
370
    -2
100
AcDbBlockReference
  2
_DOTSMALL
 10
10654.61307757602
 20
4376.293760599054
 30
0.0
 41
100.0
 42
100.0
 43
100.0
 50
268.3526390256363
  0
INSERT
  5
1AD1A
330
19E6B
100
AcDbEntity
  8
寸法
 62
     0
 48
50.0
370
    -2
100
AcDbBlockReference
  2
_DOTSMALL
 10
10658.66653313265
 20
4517.235484364764
 30
0.0
 41
100.0
 42
100.0
 43
100.0
 50
88.35263902563632
  0
MTEXT
  5
1AD1B
330
19E6B
100
AcDbEntity
  8
寸法
 62
     7
 48
50.0
100
AcDbMText
 10
10565.31988349756
 20
4750.015215015664
 30
0.0
 40
120.0
 41
0.0
 71
     5
 72
     1
  1
\A1;141
  7
STYLE1
 11
0.0287479117491494
 21
0.9995866933738479
 31
0.0
 73
     1
 44
1.0
1001
ACAD
1000
MTEXTBEGIN
1070
    73
1070
     1
1070
    44
1040
1.0
1070
    74
1070
     0
1000
MTEXTEND
  0
POINT
  5
1AD1C
330
19E6B
100
AcDbEntity
  8
DEFPOINTS
 62
     0
 48
50.0
100
AcDbPoint
 10
11234.61750450299
 20
4500.671250560384
 30
0.0
  0
POINT
  5
1AD1D
330
19E6B
100
AcDbEntity
  8
DEFPOINTS
 62
     0
 48
50.0
100
AcDbPoint
 10
11230.56404894636
 20
4359.729526794675
 30
0.0
  0
POINT
  5
1AD1E
330
19E6B
100
AcDbEntity
  8
DEFPOINTS
 62
     0
 48
50.0
100
AcDbPoint
 10
10654.61307757602
 20
4376.293760599054
 30
0.0
  0
ENDBLK
  5
19E77
330
19E6B
100
AcDbEntity
  8
0
 48
50.0
100
AcDbBlockEnd
  0
BLOCK
  5
19E83
330
19E78
100
AcDbEntity
  8
0
 48
50.0
100
AcDbBlockBegin
  2
*D31
 70
     1
 10
0.0
 20
0.0
 30
0.0
  3
*D31
  1

  0
LINE
  5
1AD0B
330
19E78
100
AcDbEntity
  8
寸法
 62
     0
 48
50.0
370
    -2
100
AcDbLine
 10
14745.22148434441
 20
4468.759181337362
 30
0.0
 11
14745.22148434441
 21
4960.605955305011
 31
0.0
  0
LINE
  5
1AD0C
330
19E78
100
AcDbEntity
  8
寸法
 62
     0
 48
50.0
370
    -2
100
AcDbLine
 10
14825.22148434441
 20
4466.94850172571
 30
0.0
 11
14825.22148434441
 21
4960.605955305011
 31
0.0
  0
LINE
  5
1AD0D
330
19E78
100
AcDbEntity
  8
寸法
 62
     0
 48
50.0
370
    -2
100
AcDbLine
 10
14745.22148434441
 20
4900.60595530501
 30
0.0
 11
14825.22148434441
 21
4900.60595530501
 31
0.0
  0
LINE
  5
1AD0E
330
19E78
100
AcDbEntity
  8
寸法
 62
     0
 48
50.0
370
    -2
100
AcDbLine
 10
14825.22148434441
 20
4900.60595530501
 30
0.0
 11
15137.31597253339
 21
4900.60595530501
 31
0.0
  0
INSERT
  5
1AD0F
330
19E78
100
AcDbEntity
  8
寸法
 62
     0
 48
50.0
370
    -2
100
AcDbBlockReference
  2
_DOTSMALL
 10
14745.22148434441
 20
4900.60595530501
 30
0.0
 41
100.0
 42
100.0
 43
100.0
 50
180.0
  0
INSERT
  5
1AD10
330
19E78
100
AcDbEntity
  8
寸法
 62
     0
 48
50.0
370
    -2
100
AcDbBlockReference
  2
_DOTSMALL
 10
14825.22148434441
 20
4900.60595530501
 30
0.0
 41
100.0
 42
100.0
 43
100.0
  0
MTEXT
  5
1AD11
330
19E78
100
AcDbEntity
  8
寸法
 62
     7
 48
50.0
100
AcDbMText
 10
15031.2687284389
 20
5000.605955305011
 30
0.0
 40
120.0
 41
0.0
 71
     5
 72
     1
  1
\A1;80
  7
STYLE1
 73
     1
 44
1.0
1001
ACAD
1000
MTEXTBEGIN
1070
    73
1070
     1
1070
    44
1040
1.0
1070
    74
1070
     0
1000
MTEXTEND
  0
POINT
  5
1AD12
330
19E78
100
AcDbEntity
  8
DEFPOINTS
 62
     0
 48
50.0
100
AcDbPoint
 10
14745.22148434441
 20
4448.759181337361
 30
0.0
  0
POINT
  5
1AD13
330
19E78
100
AcDbEntity
  8
DEFPOINTS
 62
     0
 48
50.0
100
AcDbPoint
 10
14825.22148434441
 20
4446.94850172571
 30
0.0
  0
POINT
  5
1AD14
330
19E78
100
AcDbEntity
  8
DEFPOINTS
 62
     0
 48
50.0
100
AcDbPoint
 10
14825.22148434441
 20
4900.60595530501
 30
0.0
  0
ENDBLK
  5
19E84
330
19E78
100
AcDbEntity
  8
0
 48
50.0
100
AcDbBlockEnd
  0
BLOCK
  5
19E8F
330
19E85
100
AcDbEntity
  8
0
 48
50.0
100
AcDbBlockBegin
  2
*D32
 70
     1
 10
0.0
 20
0.0
 30
0.0
  3
*D32
  1

  0
LINE
  5
1ADAA
330
19E85
100
AcDbEntity
  8
寸法
 62
     0
 48
50.0
370
    -2
100
AcDbLine
 10
14825.22148434441
 20
4466.948501725706
 30
0.0
 11
14825.22148434441
 21
5190.719548091289
 31
0.0
  0
LINE
  5
1ADAB
330
19E85
100
AcDbEntity
  8
寸法
 62
     0
 48
50.0
370
    -2
100
AcDbLine
 10
11215.22148434441
 20
4521.94850172571
 30
0.0
 11
11215.22148434441
 21
5190.719548091289
 31
0.0
  0
LINE
  5
1ADAC
330
19E85
100
AcDbEntity
  8
寸法
 62
     0
 48
50.0
370
    -2
100
AcDbLine
 10
14825.22148434441
 20
5130.719548091288
 30
0.0
 11
11215.22148434441
 21
5130.719548091288
 31
0.0
  0
INSERT
  5
1ADAD
330
19E85
100
AcDbEntity
  8
寸法
 62
     0
 48
50.0
370
    -2
100
AcDbBlockReference
  2
_DOTSMALL
 10
14825.22148434441
 20
5130.719548091288
 30
0.0
 41
100.0
 42
100.0
 43
100.0
  0
INSERT
  5
1ADAE
330
19E85
100
AcDbEntity
  8
寸法
 62
     0
 48
50.0
370
    -2
100
AcDbBlockReference
  2
_DOTSMALL
 10
11215.22148434441
 20
5130.719548091288
 30
0.0
 41
100.0
 42
100.0
 43
100.0
 50
180.0
  0
MTEXT
  5
1ADAF
330
19E85
100
AcDbEntity
  8
寸法
 62
     7
 48
50.0
100
AcDbMText
 10
13020.22148434441
 20
5230.719548091289
 30
0.0
 40
120.0
 41
0.0
 71
     5
 72
     1
  1
\A1;3610
  7
STYLE1
 73
     1
 44
1.0
1001
ACAD
1000
MTEXTBEGIN
1070
    73
1070
     1
1070
    44
1040
1.0
1070
    74
1070
     0
1000
MTEXTEND
  0
POINT
  5
1ADB0
330
19E85
100
AcDbEntity
  8
DEFPOINTS
 62
     0
 48
50.0
100
AcDbPoint
 10
14825.22148434441
 20
4446.948501725706
 30
0.0
  0
POINT
  5
1ADB1
330
19E85
100
AcDbEntity
  8
DEFPOINTS
 62
     0
 48
50.0
100
AcDbPoint
 10
11215.22148434441
 20
4501.94850172571
 30
0.0
  0
POINT
  5
1ADB2
330
19E85
100
AcDbEntity
  8
DEFPOINTS
 62
     0
 48
50.0
100
AcDbPoint
 10
11215.22148434441
 20
5130.719548091288
 30
0.0
  0
ENDBLK
  5
19E90
330
19E85
100
AcDbEntity
  8
0
 48
50.0
100
AcDbBlockEnd
  0
BLOCK
  5
19E9D
330
19E91
100
AcDbEntity
  8
0
 48
50.0
100
AcDbBlockBegin
  2
*D33
 70
     1
 10
0.0
 20
0.0
 30
0.0
  3
*D33
  1

  0
LINE
  5
1ACF7
330
19E91
100
AcDbEntity
  8
寸法
 62
     0
 48
50.0
370
    -2
100
AcDbLine
 10
11275.22148434441
 20
4517.950119848683
 30
0.0
 11
11275.22148434441
 21
4960.605955305011
 31
0.0
  0
LINE
  5
1ACF8
330
19E91
100
AcDbEntity
  8
寸法
 62
     0
 48
50.0
370
    -2
100
AcDbLine
 10
11215.22148434441
 20
4521.94850172571
 30
0.0
 11
11215.22148434441
 21
4960.605955305011
 31
0.0
  0
LINE
  5
1ACF9
330
19E91
100
AcDbEntity
  8
寸法
 62
     0
 48
50.0
370
    -2
100
AcDbLine
 10
11275.22148434441
 20
4900.60595530501
 30
0.0
 11
11375.22148434441
 21
4900.60595530501
 31
0.0
  0
LINE
  5
1ACFA
330
19E91
100
AcDbEntity
  8
寸法
 62
     0
 48
50.0
370
    -2
100
AcDbLine
 10
11215.22148434441
 20
4900.60595530501
 30
0.0
 11
10795.94589379323
 21
4900.60595530501
 31
0.0
  0
LINE
  5
1ACFB
330
19E91
100
AcDbEntity
  8
寸法
 62
     0
 48
50.0
370
    -2
100
AcDbLine
 10
11275.22148434441
 20
4900.60595530501
 30
0.0
 11
11215.22148434441
 21
4900.60595530501
 31
0.0
  0
INSERT
  5
1ACFC
330
19E91
100
AcDbEntity
  8
寸法
 62
     0
 48
50.0
370
    -2
100
AcDbBlockReference
  2
_DOTSMALL
 10
11275.22148434441
 20
4900.60595530501
 30
0.0
 41
100.0
 42
100.0
 43
100.0
 50
180.0
  0
INSERT
  5
1ACFD
330
19E91
100
AcDbEntity
  8
寸法
 62
     0
 48
50.0
370
    -2
100
AcDbBlockReference
  2
_DOTSMALL
 10
11215.22148434441
 20
4900.60595530501
 30
0.0
 41
100.0
 42
100.0
 43
100.0
  0
MTEXT
  5
1ACFE
330
19E91
100
AcDbEntity
  8
寸法
 62
     7
 48
50.0
100
AcDbMText
 10
10905.58368906882
 20
5000.605955305011
 30
0.0
 40
120.0
 41
0.0
 71
     5
 72
     1
  1
\A1;60
  7
STYLE1
 73
     1
 44
1.0
1001
ACAD
1000
MTEXTBEGIN
1070
    73
1070
     1
1070
    44
1040
1.0
1070
    74
1070
     0
1000
MTEXTEND
  0
POINT
  5
1ACFF
330
19E91
100
AcDbEntity
  8
DEFPOINTS
 62
     0
 48
50.0
100
AcDbPoint
 10
11275.22148434441
 20
4497.950119848684
 30
0.0
  0
POINT
  5
1AD00
330
19E91
100
AcDbEntity
  8
DEFPOINTS
 62
     0
 48
50.0
100
AcDbPoint
 10
11215.22148434441
 20
4501.94850172571
 30
0.0
  0
POINT
  5
1AD01
330
19E91
100
AcDbEntity
  8
DEFPOINTS
 62
     0
 48
50.0
100
AcDbPoint
 10
11215.22148434441
 20
4900.60595530501
 30
0.0
  0
ENDBLK
  5
19E9E
330
19E91
100
AcDbEntity
  8
0
 48
50.0
100
AcDbBlockEnd
  0
BLOCK
  5
19EA9
330
19E9F
100
AcDbEntity
  8
0
 48
50.0
100
AcDbBlockBegin
  2
*D34
 70
     1
 10
0.0
 20
0.0
 30
0.0
  3
*D34
  1

  0
LINE
  5
1ADB3
330
19E9F
100
AcDbEntity
  8
寸法
 62
     0
 48
50.0
370
    -2
100
AcDbLine
 10
14745.22148434441
 20
4468.759181337362
 30
0.0
 11
14745.22148434441
 21
4960.605955305011
 31
0.0
  0
LINE
  5
1ADB4
330
19E9F
100
AcDbEntity
  8
寸法
 62
     0
 48
50.0
370
    -2
100
AcDbLine
 10
11275.22148434441
 20
4517.950119848683
 30
0.0
 11
11275.22148434441
 21
4960.605955305011
 31
0.0
  0
LINE
  5
1ADB5
330
19E9F
100
AcDbEntity
  8
寸法
 62
     0
 48
50.0
370
    -2
100
AcDbLine
 10
14745.22148434441
 20
4900.60595530501
 30
0.0
 11
11275.22148434441
 21
4900.60595530501
 31
0.0
  0
INSERT
  5
1ADB6
330
19E9F
100
AcDbEntity
  8
寸法
 62
     0
 48
50.0
370
    -2
100
AcDbBlockReference
  2
_DOTSMALL
 10
14745.22148434441
 20
4900.60595530501
 30
0.0
 41
100.0
 42
100.0
 43
100.0
  0
INSERT
  5
1ADB7
330
19E9F
100
AcDbEntity
  8
寸法
 62
     0
 48
50.0
370
    -2
100
AcDbBlockReference
  2
_DOTSMALL
 10
11275.22148434441
 20
4900.60595530501
 30
0.0
 41
100.0
 42
100.0
 43
100.0
 50
180.0
  0
MTEXT
  5
1ADB8
330
19E9F
100
AcDbEntity
  8
寸法
 62
     7
 48
50.0
100
AcDbMText
 10
13010.22148434441
 20
5000.605955305011
 30
0.0
 40
120.0
 41
0.0
 71
     5
 72
     1
  1
\A1;柱外寸法3470
  7
STYLE1
 73
     1
 44
1.0
1001
ACAD
1000
MTEXTBEGIN
1070
    73
1070
     1
1070
    44
1040
1.0
1070
    74
1070
     0
1000
MTEXTEND
  0
POINT
  5
1ADB9
330
19E9F
100
AcDbEntity
  8
DEFPOINTS
 62
     0
 48
50.0
100
AcDbPoint
 10
14745.22148434441
 20
4448.759181337361
 30
0.0
  0
POINT
  5
1ADBA
330
19E9F
100
AcDbEntity
  8
DEFPOINTS
 62
     0
 48
50.0
100
AcDbPoint
 10
11275.22148434441
 20
4497.950119848684
 30
0.0
  0
POINT
  5
1ADBB
330
19E9F
100
AcDbEntity
  8
DEFPOINTS
 62
     0
 48
50.0
100
AcDbPoint
 10
11275.22148434441
 20
4900.60595530501
 30
0.0
  0
ENDBLK
  5
19EAA
330
19E9F
100
AcDbEntity
  8
0
 48
50.0
100
AcDbBlockEnd
  0
BLOCK
  5
19EB7
330
19EAB
100
AcDbEntity
  8
0
 48
50.0
100
AcDbBlockBegin
  2
*D35
 70
     1
 10
0.0
 20
0.0
 30
0.0
  3
*D35
  1

  0
LINE
  5
1ACE3
330
19EAB
100
AcDbEntity
  8
寸法
 62
     0
 48
50.0
370
    -2
100
AcDbLine
 10
11255.22148434441
 20
2176.948501725707
 30
0.0
 11
10371.47135516115
 21
2176.948501725707
 31
0.0
  0
LINE
  5
1ACE4
330
19EAB
100
AcDbEntity
  8
寸法
 62
     0
 48
50.0
370
    -2
100
AcDbLine
 10
11200.22148434441
 20
2126.948501725706
 30
0.0
 11
10371.47135516115
 21
2126.948501725706
 31
0.0
  0
LINE
  5
1ACE5
330
19EAB
100
AcDbEntity
  8
寸法
 62
     0
 48
50.0
370
    -2
100
AcDbLine
 10
10431.47135516115
 20
2176.948501725707
 30
0.0
 11
10431.47135516115
 21
2276.948501725707
 31
0.0
  0
LINE
  5
1ACE6
330
19EAB
100
AcDbEntity
  8
寸法
 62
     0
 48
50.0
370
    -2
100
AcDbLine
 10
10431.47135516115
 20
2126.948501725706
 30
0.0
 11
10431.47135516115
 21
1714.854013536725
 31
0.0
  0
LINE
  5
1ACE7
330
19EAB
100
AcDbEntity
  8
寸法
 62
     0
 48
50.0
370
    -2
100
AcDbLine
 10
10431.47135516115
 20
2176.948501725707
 30
0.0
 11
10431.47135516115
 21
2126.948501725706
 31
0.0
  0
INSERT
  5
1ACE8
330
19EAB
100
AcDbEntity
  8
寸法
 62
     0
 48
50.0
370
    -2
100
AcDbBlockReference
  2
_DOTSMALL
 10
10431.47135516115
 20
2176.948501725707
 30
0.0
 41
100.0
 42
100.0
 43
100.0
 50
270.0
  0
INSERT
  5
1ACE9
330
19EAB
100
AcDbEntity
  8
寸法
 62
     0
 48
50.0
370
    -2
100
AcDbBlockReference
  2
_DOTSMALL
 10
10431.47135516115
 20
2126.948501725706
 30
0.0
 41
100.0
 42
100.0
 43
100.0
 50
90.0
  0
MTEXT
  5
1ACEA
330
19EAB
100
AcDbEntity
  8
寸法
 62
     7
 48
50.0
100
AcDbMText
 10
10331.47135516115
 20
1820.901257631215
 30
0.0
 40
120.0
 41
0.0
 71
     5
 72
     1
  1
\A1;50
  7
STYLE1
 11
0.0000000000000001
 21
1.0
 31
0.0
 73
     1
 44
1.0
1001
ACAD
1000
MTEXTBEGIN
1070
    73
1070
     1
1070
    44
1040
1.0
1070
    74
1070
     0
1000
MTEXTEND
  0
POINT
  5
1ACEB
330
19EAB
100
AcDbEntity
  8
DEFPOINTS
 62
     0
 48
50.0
100
AcDbPoint
 10
11275.22148434441
 20
2176.948501725706
 30
0.0
  0
POINT
  5
1ACEC
330
19EAB
100
AcDbEntity
  8
DEFPOINTS
 62
     0
 48
50.0
100
AcDbPoint
 10
11220.22148434441
 20
2126.948501725706
 30
0.0
  0
POINT
  5
1ACED
330
19EAB
100
AcDbEntity
  8
DEFPOINTS
 62
     0
 48
50.0
100
AcDbPoint
 10
10431.47135516115
 20
2126.948501725706
 30
0.0
  0
ENDBLK
  5
19EB8
330
19EAB
100
AcDbEntity
  8
0
 48
50.0
100
AcDbBlockEnd
  0
BLOCK
  5
19EC3
330
19EB9
100
AcDbEntity
  8
0
 48
50.0
100
AcDbBlockBegin
  2
*D36
 70
     1
 10
0.0
 20
0.0
 30
0.0
  3
*D36
  1

  0
LINE
  5
1ACDA
330
19EB9
100
AcDbEntity
  8
寸法
 62
     0
 48
50.0
370
    -2
100
AcDbLine
 10
14765.22148434441
 20
2126.948501725709
 30
0.0
 11
15510.14864231653
 21
2126.948501725708
 31
0.0
  0
LINE
  5
1ACDB
330
19EB9
100
AcDbEntity
  8
寸法
 62
     0
 48
50.0
370
    -2
100
AcDbLine
 10
14845.22148434441
 20
4446.948501725706
 30
0.0
 11
15510.14864231653
 21
4446.948501725706
 31
0.0
  0
LINE
  5
1ACDC
330
19EB9
100
AcDbEntity
  8
寸法
 62
     0
 48
50.0
370
    -2
100
AcDbLine
 10
15450.14864231653
 20
2126.948501725708
 30
0.0
 11
15450.14864231653
 21
4446.948501725706
 31
0.0
  0
INSERT
  5
1ACDD
330
19EB9
100
AcDbEntity
  8
寸法
 62
     0
 48
50.0
370
    -2
100
AcDbBlockReference
  2
_DOTSMALL
 10
15450.14864231653
 20
2126.948501725708
 30
0.0
 41
100.0
 42
100.0
 43
100.0
 50
270.0
  0
INSERT
  5
1ACDE
330
19EB9
100
AcDbEntity
  8
寸法
 62
     0
 48
50.0
370
    -2
100
AcDbBlockReference
  2
_DOTSMALL
 10
15450.14864231653
 20
4446.948501725706
 30
0.0
 41
100.0
 42
100.0
 43
100.0
 50
90.0
  0
MTEXT
  5
1ACDF
330
19EB9
100
AcDbEntity
  8
寸法
 62
     7
 48
50.0
100
AcDbMText
 10
15350.13683129291
 20
3286.94850172571
 30
0.0
 40
120.0
 41
0.0
 71
     5
 72
     1
  1
\A1;2320
  7
STYLE1
 11
0.0000000000000001
 21
1.0
 31
0.0
 73
     1
 44
1.0
1001
ACAD
1000
MTEXTBEGIN
1070
    73
1070
     1
1070
    44
1040
1.0
1070
    74
1070
     0
1000
MTEXTEND
  0
POINT
  5
1ACE0
330
19EB9
100
AcDbEntity
  8
DEFPOINTS
 62
     0
 48
50.0
100
AcDbPoint
 10
14745.22148434441
 20
2126.948501725709
 30
0.0
  0
POINT
  5
1ACE1
330
19EB9
100
AcDbEntity
  8
DEFPOINTS
 62
     0
 48
50.0
100
AcDbPoint
 10
14825.22148434441
 20
4446.948501725706
 30
0.0
  0
POINT
  5
1ACE2
330
19EB9
100
AcDbEntity
  8
DEFPOINTS
 62
     0
 48
50.0
100
AcDbPoint
 10
15450.14864231653
 20
4446.948501725706
 30
0.0
  0
ENDBLK
  5
19EC4
330
19EB9
100
AcDbEntity
  8
0
 48
50.0
100
AcDbBlockEnd
  0
BLOCK
  5
19ECF
330
19EC5
100
AcDbEntity
  8
0
 48
50.0
100
AcDbBlockBegin
  2
*D37
 70
     1
 10
0.0
 20
0.0
 30
0.0
  3
*D37
  1

  0
LINE
  5
1ACD1
330
19EC5
100
AcDbEntity
  8
寸法
 62
     0
 48
50.0
370
    -2
100
AcDbLine
 10
11255.22148434441
 20
2126.948501725702
 30
0.0
 11
10071.47135516115
 21
2126.948501725702
 31
0.0
  0
LINE
  5
1ACD2
330
19EC5
100
AcDbEntity
  8
寸法
 62
     0
 48
50.0
370
    -2
100
AcDbLine
 10
11195.22148434441
 20
4501.948501725706
 30
0.0
 11
10071.47135516115
 21
4501.948501725707
 31
0.0
  0
LINE
  5
1ACD3
330
19EC5
100
AcDbEntity
  8
寸法
 62
     0
 48
50.0
370
    -2
100
AcDbLine
 10
10131.47135516115
 20
2126.948501725702
 30
0.0
 11
10131.47135516115
 21
4501.948501725707
 31
0.0
  0
INSERT
  5
1ACD4
330
19EC5
100
AcDbEntity
  8
寸法
 62
     0
 48
50.0
370
    -2
100
AcDbBlockReference
  2
_DOTSMALL
 10
10131.47135516115
 20
2126.948501725702
 30
0.0
 41
100.0
 42
100.0
 43
100.0
 50
270.0
  0
INSERT
  5
1ACD5
330
19EC5
100
AcDbEntity
  8
寸法
 62
     0
 48
50.0
370
    -2
100
AcDbBlockReference
  2
_DOTSMALL
 10
10131.47135516115
 20
4501.948501725707
 30
0.0
 41
100.0
 42
100.0
 43
100.0
 50
90.0
  0
MTEXT
  5
1ACD6
330
19EC5
100
AcDbEntity
  8
寸法
 62
     7
 48
50.0
100
AcDbMText
 10
10031.45954413752
 20
3314.448501725706
 30
0.0
 40
120.0
 41
0.0
 71
     5
 72
     1
  1
\A1;2375
  7
STYLE1
 11
0.0000000000000001
 21
1.0
 31
0.0
 73
     1
 44
1.0
1001
ACAD
1000
MTEXTBEGIN
1070
    73
1070
     1
1070
    44
1040
1.0
1070
    74
1070
     0
1000
MTEXTEND
  0
POINT
  5
1ACD7
330
19EC5
100
AcDbEntity
  8
DEFPOINTS
 62
     0
 48
50.0
100
AcDbPoint
 10
11275.22148434441
 20
2126.948501725701
 30
0.0
  0
POINT
  5
1ACD8
330
19EC5
100
AcDbEntity
  8
DEFPOINTS
 62
     0
 48
50.0
100
AcDbPoint
 10
11215.22148434441
 20
4501.948501725706
 30
0.0
  0
POINT
  5
1ACD9
330
19EC5
100
AcDbEntity
  8
DEFPOINTS
 62
     0
 48
50.0
100
AcDbPoint
 10
10131.47135516115
 20
4501.948501725707
 30
0.0
  0
ENDBLK
  5
19ED0
330
19EC5
100
AcDbEntity
  8
0
 48
50.0
100
AcDbBlockEnd
  0
BLOCK
  5
19EDB
330
19ED1
100
AcDbEntity
  8
0
 48
50.0
100
AcDbBlockBegin
  2
*D38
 70
     1
 10
0.0
 20
0.0
 30
0.0
  3
*D38
  1

  0
LINE
  5
1ACC8
330
19ED1
100
AcDbEntity
  8
寸法
 62
     0
 48
50.0
370
    -2
100
AcDbLine
 10
11255.22148434441
 20
4266.948501725702
 30
0.0
 11
10371.47135516115
 21
4266.948501725702
 31
0.0
  0
LINE
  5
1ACC9
330
19ED1
100
AcDbEntity
  8
寸法
 62
     0
 48
50.0
370
    -2
100
AcDbLine
 10
11255.22148434441
 20
2176.948501725702
 30
0.0
 11
10371.47135516115
 21
2176.948501725702
 31
0.0
  0
LINE
  5
1ACCA
330
19ED1
100
AcDbEntity
  8
寸法
 62
     0
 48
50.0
370
    -2
100
AcDbLine
 10
10431.47135516115
 20
4266.948501725702
 30
0.0
 11
10431.47135516115
 21
2176.948501725702
 31
0.0
  0
INSERT
  5
1ACCB
330
19ED1
100
AcDbEntity
  8
寸法
 62
     0
 48
50.0
370
    -2
100
AcDbBlockReference
  2
_DOTSMALL
 10
10431.47135516115
 20
4266.948501725702
 30
0.0
 41
100.0
 42
100.0
 43
100.0
 50
90.0
  0
INSERT
  5
1ACCC
330
19ED1
100
AcDbEntity
  8
寸法
 62
     0
 48
50.0
370
    -2
100
AcDbBlockReference
  2
_DOTSMALL
 10
10431.47135516115
 20
2176.948501725702
 30
0.0
 41
100.0
 42
100.0
 43
100.0
 50
270.0
  0
MTEXT
  5
1ACCD
330
19ED1
100
AcDbEntity
  8
寸法
 62
     7
 48
50.0
100
AcDbMText
 10
10331.45954413753
 20
3221.948501725704
 30
0.0
 40
120.0
 41
0.0
 71
     5
 72
     1
  1
\A1;2090
  7
STYLE1
 11
0.0000000000000001
 21
1.0
 31
0.0
 73
     1
 44
1.0
1001
ACAD
1000
MTEXTBEGIN
1070
    73
1070
     1
1070
    44
1040
1.0
1070
    74
1070
     0
1000
MTEXTEND
  0
POINT
  5
1ACCE
330
19ED1
100
AcDbEntity
  8
DEFPOINTS
 62
     0
 48
50.0
100
AcDbPoint
 10
11275.22148434441
 20
4266.948501725702
 30
0.0
  0
POINT
  5
1ACCF
330
19ED1
100
AcDbEntity
  8
DEFPOINTS
 62
     0
 48
50.0
100
AcDbPoint
 10
11275.22148434441
 20
2176.948501725702
 30
0.0
  0
POINT
  5
1ACD0
330
19ED1
100
AcDbEntity
  8
DEFPOINTS
 62
     0
 48
50.0
100
AcDbPoint
 10
10431.47135516115
 20
2176.948501725702
 30
0.0
  0
ENDBLK
  5
19EDC
330
19ED1
100
AcDbEntity
  8
0
 48
50.0
100
AcDbBlockEnd
  0
BLOCK
  5
1A635
330
1A62B
100
AcDbEntity
  8
0
 48
50.0
100
AcDbBlockBegin
  2
*D39
 70
     1
 10
0.0
 20
0.0
 30
0.0
  3
*D39
  1

  0
LINE
  5
1ACBF
330
1A62B
100
AcDbEntity
  8
寸法
 62
     0
 48
50.0
370
    -2
100
AcDbLine
 10
8709.673057123657
 20
2126.948501725706
 30
0.0
 11
9037.216159445401
 21
2126.948501725706
 31
0.0
  0
LINE
  5
1ACC0
330
1A62B
100
AcDbEntity
  8
寸法
 62
     0
 48
50.0
370
    -2
100
AcDbLine
 10
8709.673057123657
 20
4074.948501725706
 30
0.0
 11
9037.216159445401
 21
4074.948501725706
 31
0.0
  0
LINE
  5
1ACC1
330
1A62B
100
AcDbEntity
  8
寸法
 62
     0
 48
50.0
370
    -2
100
AcDbLine
 10
8977.216159445401
 20
2126.948501725706
 30
0.0
 11
8977.216159445401
 21
4074.948501725706
 31
0.0
  0
INSERT
  5
1ACC2
330
1A62B
100
AcDbEntity
  8
寸法
 62
     0
 48
50.0
370
    -2
100
AcDbBlockReference
  2
_DOTSMALL
 10
8977.216159445401
 20
2126.948501725706
 30
0.0
 41
100.0
 42
100.0
 43
100.0
 50
270.0
  0
INSERT
  5
1ACC3
330
1A62B
100
AcDbEntity
  8
寸法
 62
     0
 48
50.0
370
    -2
100
AcDbBlockReference
  2
_DOTSMALL
 10
8977.216159445401
 20
4074.948501725706
 30
0.0
 41
100.0
 42
100.0
 43
100.0
 50
90.0
  0
MTEXT
  5
1ACC4
330
1A62B
100
AcDbEntity
  8
寸法
 62
     7
 48
50.0
100
AcDbMText
 10
8877.216159445401
 20
3100.948501725708
 30
0.0
 40
120.0
 41
0.0
 71
     5
 72
     1
  1
\A1;有効開口部高サ 1948
  7
STYLE1
 11
0.0000000000000001
 21
1.0
 31
0.0
 73
     1
 44
1.0
1001
ACAD
1000
MTEXTBEGIN
1070
    73
1070
     1
1070
    44
1040
1.0
1070
    74
1070
     0
1000
MTEXTEND
  0
POINT
  5
1ACC5
330
1A62B
100
AcDbEntity
  8
DEFPOINTS
 62
     0
 48
50.0
100
AcDbPoint
 10
8689.673057123657
 20
2126.948501725706
 30
0.0
  0
POINT
  5
1ACC6
330
1A62B
100
AcDbEntity
  8
DEFPOINTS
 62
     0
 48
50.0
100
AcDbPoint
 10
8689.673057123657
 20
4074.948501725706
 30
0.0
  0
POINT
  5
1ACC7
330
1A62B
100
AcDbEntity
  8
DEFPOINTS
 62
     0
 48
50.0
100
AcDbPoint
 10
8977.216159445401
 20
4074.948501725706
 30
0.0
  0
ENDBLK
  5
1A636
330
1A62B
100
AcDbEntity
  8
0
 48
50.0
100
AcDbBlockEnd
  0
BLOCK
  5
1A643
330
1A637
100
AcDbEntity
  8
0
 48
50.0
100
AcDbBlockBegin
  2
*D40
 70
     1
 10
0.0
 20
0.0
 30
0.0
  3
*D40
  1

  0
LINE
  5
1ADD1
330
1A637
100
AcDbEntity
  8
寸法
 62
     0
 48
50.0
370
    -2
100
AcDbLine
 10
8709.673057123657
 20
4074.948501725706
 30
0.0
 11
9037.216159445399
 21
4074.948501725706
 31
0.0
  0
LINE
  5
1ADD2
330
1A637
100
AcDbEntity
  8
寸法
 62
     0
 48
50.0
370
    -2
100
AcDbLine
 10
8709.673057123657
 20
4101.948501725707
 30
0.0
 11
9037.216159445401
 21
4101.948501725707
 31
0.0
  0
LINE
  5
1ADD3
330
1A637
100
AcDbEntity
  8
寸法
 62
     0
 48
50.0
370
    -2
100
AcDbLine
 10
8977.216159445399
 20
4074.948501725706
 30
0.0
 11
8977.216159445399
 21
3974.948501725707
 31
0.0
  0
LINE
  5
1ADD4
330
1A637
100
AcDbEntity
  8
寸法
 62
     0
 48
50.0
370
    -2
100
AcDbLine
 10
8977.216159445401
 20
4101.948501725707
 30
0.0
 11
8977.216159445401
 21
4201.948501725706
 31
0.0
  0
MTEXT
  5
1ADD5
330
1A637
100
AcDbEntity
  8
寸法
 62
     7
 48
50.0
100
AcDbMText
 10
9117.38598269177
 20
4102.915701565365
 30
0.0
 40
120.0
 41
0.0
 71
     5
 72
     1
  1
\A1;27
  7
STYLE1
 11
0.0000000000000001
 21
1.0
 31
0.0
 73
     1
 44
1.0
1001
ACAD
1000
MTEXTBEGIN
1070
    73
1070
     1
1070
    44
1040
1.0
1070
    74
1070
     0
1000
MTEXTEND
  0
LINE
  5
1ADD6
330
1A637
100
AcDbEntity
  8
寸法
 62
     0
 48
50.0
370
    -2
100
AcDbLine
 10
8977.216159445399
 20
4074.948501725706
 30
0.0
 11
8977.216159445401
 21
4101.948501725707
 31
0.0
  0
INSERT
  5
1ADD7
330
1A637
100
AcDbEntity
  8
寸法
 62
     0
 48
50.0
370
    -2
100
AcDbBlockReference
  2
_DOTSMALL
 10
8977.216159445399
 20
4074.948501725706
 30
0.0
 41
100.0
 42
100.0
 43
100.0
 50
90.0
  0
INSERT
  5
1ADD8
330
1A637
100
AcDbEntity
  8
寸法
 62
     0
 48
50.0
370
    -2
100
AcDbBlockReference
  2
_DOTSMALL
 10
8977.216159445401
 20
4101.948501725707
 30
0.0
 41
100.0
 42
100.0
 43
100.0
 50
270.0
  0
POINT
  5
1ADD9
330
1A637
100
AcDbEntity
  8
DEFPOINTS
 62
     0
 48
50.0
100
AcDbPoint
 10
8689.673057123657
 20
4074.948501725706
 30
0.0
  0
POINT
  5
1ADDA
330
1A637
100
AcDbEntity
  8
DEFPOINTS
 62
     0
 48
50.0
100
AcDbPoint
 10
8689.673057123657
 20
4101.948501725707
 30
0.0
  0
POINT
  5
1ADDB
330
1A637
100
AcDbEntity
  8
DEFPOINTS
 62
     0
 48
50.0
100
AcDbPoint
 10
8977.216159445401
 20
4101.948501725707
 30
0.0
  0
ENDBLK
  5
1A644
330
1A637
100
AcDbEntity
  8
0
 48
50.0
100
AcDbBlockEnd
  0
BLOCK
  5
1A650
330
1A645
100
AcDbEntity
  8
0
 48
50.0
100
AcDbBlockBegin
  2
*D41
 70
     1
 10
0.0
 20
0.0
 30
0.0
  3
*D41
  1

  0
LINE
  5
1ADC7
330
1A645
100
AcDbEntity
  8
寸法
 62
     0
 48
50.0
370
    -2
100
AcDbLine
 10
8709.673057123657
 20
4101.948501725707
 30
0.0
 11
9037.216159445403
 21
4101.948501725707
 31
0.0
  0
LINE
  5
1ADC8
330
1A645
100
AcDbEntity
  8
寸法
 62
     0
 48
50.0
370
    -2
100
AcDbLine
 10
8709.673057123657
 20
4266.948501725704
 30
0.0
 11
9037.216159445403
 21
4266.948501725704
 31
0.0
  0
LINE
  5
1ADC9
330
1A645
100
AcDbEntity
  8
寸法
 62
     0
 48
50.0
370
    -2
100
AcDbLine
 10
8977.216159445402
 20
4101.948501725707
 30
0.0
 11
8977.216159445402
 21
4266.948501725704
 31
0.0
  0
LINE
  5
1ADCA
330
1A645
100
AcDbEntity
  8
寸法
 62
     0
 48
50.0
370
    -2
100
AcDbLine
 10
8977.216159445402
 20
4266.948501725704
 30
0.0
 11
8977.216159445402
 21
4643.919064474182
 31
0.0
  0
INSERT
  5
1ADCB
330
1A645
100
AcDbEntity
  8
寸法
 62
     0
 48
50.0
370
    -2
100
AcDbBlockReference
  2
_DOTSMALL
 10
8977.216159445402
 20
4101.948501725707
 30
0.0
 41
100.0
 42
100.0
 43
100.0
 50
270.0
  0
INSERT
  5
1ADCC
330
1A645
100
AcDbEntity
  8
寸法
 62
     0
 48
50.0
370
    -2
100
AcDbBlockReference
  2
_DOTSMALL
 10
8977.216159445402
 20
4266.948501725704
 30
0.0
 41
100.0
 42
100.0
 43
100.0
 50
90.0
  0
MTEXT
  5
1ADCD
330
1A645
100
AcDbEntity
  8
寸法
 62
     7
 48
50.0
100
AcDbMText
 10
8877.216159445401
 20
4505.433783099944
 30
0.0
 40
120.0
 41
0.0
 71
     5
 72
     1
  1
\A1;165
  7
STYLE1
 11
0.0000000000000001
 21
1.0
 31
0.0
 73
     1
 44
1.0
1001
ACAD
1000
MTEXTBEGIN
1070
    73
1070
     1
1070
    44
1040
1.0
1070
    74
1070
     0
1000
MTEXTEND
  0
POINT
  5
1ADCE
330
1A645
100
AcDbEntity
  8
DEFPOINTS
 62
     0
 48
50.0
100
AcDbPoint
 10
8689.673057123657
 20
4101.948501725707
 30
0.0
  0
POINT
  5
1ADCF
330
1A645
100
AcDbEntity
  8
DEFPOINTS
 62
     0
 48
50.0
100
AcDbPoint
 10
8689.673057123657
 20
4266.948501725704
 30
0.0
  0
POINT
  5
1ADD0
330
1A645
100
AcDbEntity
  8
DEFPOINTS
 62
     0
 48
50.0
100
AcDbPoint
 10
8977.216159445402
 20
4266.948501725704
 30
0.0
  0
ENDBLK
  5
1A651
330
1A645
100
AcDbEntity
  8
0
 48
50.0
100
AcDbBlockEnd
  0
ENDSEC
  0
SECTION
  2
ENTITIES
  0
MTEXT
  5
763F
330
747D
100
AcDbEntity
  8
0
100
AcDbMText
 10
302.846345836809
 20
280.1983726409901
 30
0.0
 40
3.5
 41
5.323721266742722
 71
     1
 72
     5
  1

  7
MSMINCHO
 73
     1
 44
1.0
1001
ACAD
1000
MTEXTBEGIN
1070
    73
1070
     1
1070
    44
1040
1.0
1070
    74
1070
     0
1000
MTEXTEND
  0
LINE
  5
10B57
330
747D
100
AcDbEntity
  8
補助
  6
PHANTOM
 62
   230
 48
50.0
100
AcDbLine
 10
139.9999999999995
 20
11409.6
 30
0.0
 11
16307.2
 21
11409.6
 31
0.0
  0
LINE
  5
10B59
330
747D
100
AcDbEntity
  8
仕様書枠
  6
Continuous
 48
50.0
100
AcDbLine
 10
13107.2
 20
1200.0
 30
0.0
 11
13107.2
 21
-0.0000000000000729
 31
0.0
  0
LINE
  5
10B5C
330
747D
100
AcDbEntity
  8
仕様書枠
 48
50.0
100
AcDbLine
 10
16307.2
 20
1200.0
 30
0.0
 11
16307.2
 21
-0.0000000000000909
 31
0.0
  0
LINE
  5
10B5D
330
747D
100
AcDbEntity
  8
仕様書枠
 48
50.0
100
AcDbLine
 10
140.0
 20
0.0
 30
0.0
 11
16307.2
 21
-0.0000000000000909
 31
0.0
  0
LINE
  5
10B5E
330
747D
100
AcDbEntity
  8
補助
  6
PHANTOM
 62
   230
 48
50.0
100
AcDbLine
 10
16307.2
 20
11409.6
 30
0.0
 11
16307.2
 21
1200.0
 31
0.0
  0
LINE
  5
10B6C
330
747D
100
AcDbEntity
  8
仕様書枠
 48
50.0
100
AcDbLine
 10
13107.2
 20
1200.0
 30
0.0
 11
16307.2
 21
1200.0
 31
0.0
  0
LINE
  5
10B6D
330
747D
100
AcDbEntity
  8
補助
  6
PHANTOM
 62
   230
 48
50.0
100
AcDbLine
 10
13107.2
 20
11409.6
 30
0.0
 11
13107.2
 21
4800.0
 31
0.0
  0
LINE
  5
10B6F
330
747D
100
AcDbEntity
  8
補助
  6
PHANTOM
 62
   230
 48
50.0
100
AcDbLine
 10
13107.2
 20
4800.0
 30
0.0
 11
16307.2
 21
4800.0
 31
0.0
  0
LINE
  5
10B72
330
747D
100
AcDbEntity
  8
文字
 62
     7
 48
50.0
100
AcDbLine
 10
13187.2
 20
400.0
 30
0.0
 11
16227.2
 21
400.0
 31
0.0
  0
TEXT
  5
10B73
330
747D
100
AcDbEntity
  8
文字
 62
     7
 48
50.0
100
AcDbText
 10
13162.9790565769
 20
895.0906074299405
 30
0.0
 40
200.0
  1
外 形 図
  7
STYLE2
100
AcDbText
  0
TEXT
  5
10B74
330
747D
100
AcDbEntity
  8
文字
 62
     7
 48
50.0
100
AcDbText
 10
13201.43669998441
 20
477.2740661031255
 30
0.0
 40
160.0
  1
機種名
  7
STYLE2
100
AcDbText
  0
TEXT
  5
10B75
330
747D
100
AcDbEntity
  8
文字
 62
     7
 48
50.0
100
AcDbText
 10
13209.4053442172
 20
228.5435242569016
 30
0.0
 40
100.0
  1
○有効開口寸法 ： 2004×1948(mm)
  7
STYLE2
100
AcDbText
  0
TEXT
  5
10B76
330
747D
100
AcDbEntity
  8
文字
 62
     7
 48
50.0
100
AcDbText
 10
13209.4053442172
 20
76.09434707649343
 30
0.0
 40
100.0
  1
○床面積 ： Ｎ［連続数］×7.67㎡(2.32坪)
  7
STYLE2
100
AcDbText
  0
TEXT
  5
10B79
330
747D
100
AcDbEntity
  8
文字
 62
     7
 48
50.0
100
AcDbText
 10
14524.131837222
 20
1031.557706291228
 30
0.0
 40
100.0
  1
NO.42      <縮尺> S=1/40
  7
STYLE2
100
AcDbText
  0
LINE
  5
10B7B
330
747D
100
AcDbEntity
  8
仕様書枠
 48
50.0
100
AcDbLine
 10
13107.2
 20
800.0
 30
0.0
 11
14251.2
 21
800.0
 31
0.0
  0
LINE
  5
10B88
330
747D
100
AcDbEntity
  8
仕様書枠
  6
Continuous
 48
50.0
100
AcDbLine
 10
14251.2
 20
1200.0
 30
0.0
 11
14251.2
 21
800.0
 31
0.0
  0
LINE
  5
127A8
330
747D
100
AcDbEntity
  8
部品1
100
AcDbLine
 10
1070.903465777274
 20
2156.852312293371
 30
0.0
 11
1220.903465777273
 21
2156.852312293371
 31
0.0
  0
LINE
  5
127A9
330
747D
100
AcDbEntity
  8
部品1
100
AcDbLine
 10
1145.903465777273
 20
2026.948501725706
 30
0.0
 11
1070.903465777274
 21
2156.852312293371
 31
0.0
  0
TEXT
  5
127AA
330
747D
100
AcDbEntity
  8
部品1
100
AcDbText
 10
1249.008407902047
 20
2063.055405331607
 30
0.0
 40
125.0
  1
G.L
  7
MSGOTHIC
100
AcDbText
  0
LINE
  5
127AB
330
747D
100
AcDbEntity
  8
部品1
100
AcDbLine
 10
1220.903465777273
 20
2156.852312293371
 30
0.0
 11
1145.903465777273
 21
2026.948501725706
 31
0.0
  0
LINE
  5
13C1F
330
747D
100
AcDbEntity
  8
部品1
100
AcDbLine
 10
2059.673057123657
 20
4360.948501725712
 30
0.0
 11
2059.673057123657
 21
2026.948501725706
 31
0.0
  0
LINE
  5
13CFC
330
747D
100
AcDbEntity
  8
部品1
100
AcDbLine
 10
8634.673057123654
 20
4101.948501725706
 30
0.0
 11
8634.673057123654
 21
2126.948501725706
 31
0.0
  0
LINE
  5
13CFE
330
747D
100
AcDbEntity
  8
部品1
100
AcDbLine
 10
2114.673057123656
 20
4101.948501725706
 30
0.0
 11
2114.673057123657
 21
2126.948501725706
 31
0.0
  0
LINE
  5
13D18
330
747D
100
AcDbEntity
  8
部品1
100
AcDbLine
 10
8689.673057123657
 20
4360.94850172571
 30
0.0
 11
8689.673057123657
 21
2026.948501725706
 31
0.0
  0
LINE
  5
146B2
330
747D
100
AcDbEntity
  8
破線
 48
5.0
100
AcDbLine
 10
8689.673057123657
 20
2026.948501725706
 30
0.0
 11
8689.673057123657
 21
1776.948501725706
 31
0.0
  0
LINE
  5
146B3
330
747D
100
AcDbEntity
  8
破線
 48
5.0
100
AcDbLine
 10
2059.673057123657
 20
2026.948501725706
 30
0.0
 11
2059.673057123655
 21
1776.948501725706
 31
0.0
  0
TEXT
  5
149A1
330
747D
100
AcDbEntity
  8
部品1
100
AcDbText
 10
5083.463127747398
 20
1284.054972507182
 30
0.0
 40
135.0
  1
正面図
  7
MSGOTHIC
100
AcDbText
  0
LWPOLYLINE
  5
149A2
330
747D
100
AcDbEntity
  8
部品1
100
AcDbPolyline
 90
        4
 70
     1
 43
0.0
 10
4992.937724009443
 20
1476.948501725706
 10
4992.937724009443
 20
1237.056180180174
 10
5756.408390237883
 20
1237.056180180174
 10
5756.408390237883
 20
1476.948501725706
  0
TEXT
  5
14E88
330
747D
100
AcDbEntity
  8
部品1
100
AcDbText
 10
5082.857333838481
 20
5556.96815638049
 30
0.0
 40
135.0
  1
平面図
  7
MSGOTHIC
100
AcDbText
  0
LWPOLYLINE
  5
14E89
330
747D
100
AcDbEntity
  8
部品1
100
AcDbPolyline
 90
        4
 70
     1
 43
0.0
 10
4992.937724009443
 20
5749.861685599011
 10
4992.937724009443
 20
5509.969364053478
 10
5756.408390237883
 20
5509.969364053478
 10
5756.408390237883
 20
5749.861685599011
  0
TEXT
  5
15550
330
747D
100
AcDbEntity
  8
文字
 62
     7
 48
50.0
100
AcDbText
 10
14940.55651588519
 20
871.9640646083622
 30
0.0
 40
100.0
  1
～一般型～
  7
STYLE2
100
AcDbText
  0
LINE
  5
15CE5
330
747D
100
AcDbEntity
  8
破線
 48
5.0
100
AcDbLine
 10
8634.673057123654
 20
2126.948501725706
 30
0.0
 11
8634.673057123656
 21
1776.948501725706
 31
0.0
  0
LINE
  5
15CE6
330
747D
100
AcDbEntity
  8
破線
 48
5.0
100
AcDbLine
 10
2114.673057123657
 20
2126.948501725706
 30
0.0
 11
2114.673057123655
 21
1776.948501725706
 31
0.0
  0
LINE
  5
15CE7
330
747D
100
AcDbEntity
  8
破線
 48
5.0
100
AcDbLine
 10
8689.673057123654
 20
1776.948501725706
 30
0.0
 11
8634.673057123656
 21
1776.948501725706
 31
0.0
  0
LINE
  5
15CE8
330
747D
100
AcDbEntity
  8
破線
 48
5.0
100
AcDbLine
 10
2114.673057123655
 20
1776.948501725713
 30
0.0
 11
2059.673057123655
 21
1776.948501725713
 31
0.0
  0
LINE
  5
15CE9
330
747D
100
AcDbEntity
  8
部品1
100
AcDbLine
 10
2162.673057123657
 20
4101.948501725707
 30
0.0
 11
2162.673057123657
 21
2126.948501725706
 31
0.0
  0
LINE
  5
15CEA
330
747D
100
AcDbEntity
  8
破線
 48
5.0
100
AcDbLine
 10
2162.673057123657
 20
2126.948501725706
 30
0.0
 11
2162.673057123655
 21
1876.948501725711
 31
0.0
  0
LINE
  5
15CEB
330
747D
100
AcDbEntity
  8
部品1
100
AcDbLine
 10
8586.673057123659
 20
4101.948501725707
 30
0.0
 11
8586.673057123652
 21
2126.948501725706
 31
0.0
  0
LINE
  5
15CEC
330
747D
100
AcDbEntity
  8
破線
 48
5.0
100
AcDbLine
 10
8586.673057123652
 20
2126.948501725706
 30
0.0
 11
8586.673057123654
 21
1876.948501725706
 31
0.0
  0
LINE
  5
15CED
330
747D
100
AcDbEntity
  8
破線
 48
5.0
100
AcDbLine
 10
8634.673057123659
 20
1876.948501725706
 30
0.0
 11
8586.673057123659
 21
1876.948501725706
 31
0.0
  0
LINE
  5
15CEE
330
747D
100
AcDbEntity
  8
破線
 48
5.0
100
AcDbLine
 10
2162.673057123655
 20
1876.948501725712
 30
0.0
 11
2114.673057123655
 21
1876.948501725712
 31
0.0
  0
LINE
  5
15D20
330
747D
100
AcDbEntity
  8
細線
100
AcDbLine
 10
6582.673057123654
 20
3761.948501725707
 30
0.0
 11
8586.673057123652
 21
3761.948501725707
 31
0.0
  0
LINE
  5
15D21
330
747D
100
AcDbEntity
  8
細線
100
AcDbLine
 10
6582.673057123654
 20
3826.948501725707
 30
0.0
 11
8586.673057123652
 21
3826.948501725707
 31
0.0
  0
LINE
  5
15D22
330
747D
100
AcDbEntity
  8
細線
100
AcDbLine
 10
6582.673057123654
 20
3891.948501725707
 30
0.0
 11
8586.673057123652
 21
3891.948501725707
 31
0.0
  0
LINE
  5
15D23
330
747D
100
AcDbEntity
  8
細線
100
AcDbLine
 10
6582.673057123654
 20
3371.948501725706
 30
0.0
 11
8586.673057123652
 21
3371.948501725706
 31
0.0
  0
LINE
  5
15D24
330
747D
100
AcDbEntity
  8
細線
100
AcDbLine
 10
6582.673057123654
 20
3436.948501725707
 30
0.0
 11
8586.673057123652
 21
3436.948501725707
 31
0.0
  0
LINE
  5
15D25
330
747D
100
AcDbEntity
  8
細線
100
AcDbLine
 10
6582.673057123654
 20
3501.948501725707
 30
0.0
 11
8586.673057123652
 21
3501.948501725707
 31
0.0
  0
LINE
  5
15D26
330
747D
100
AcDbEntity
  8
細線
100
AcDbLine
 10
6582.673057123654
 20
3566.948501725708
 30
0.0
 11
8586.673057123652
 21
3566.948501725708
 31
0.0
  0
LINE
  5
15D27
330
747D
100
AcDbEntity
  8
細線
100
AcDbLine
 10
6582.673057123654
 20
3631.948501725708
 30
0.0
 11
8586.673057123652
 21
3631.948501725708
 31
0.0
  0
LINE
  5
15D28
330
747D
100
AcDbEntity
  8
細線
100
AcDbLine
 10
6582.673057123654
 20
3696.948501725707
 30
0.0
 11
8586.673057123652
 21
3696.948501725707
 31
0.0
  0
LINE
  5
15D29
330
747D
100
AcDbEntity
  8
細線
100
AcDbLine
 10
6582.673057123654
 20
2721.948501725707
 30
0.0
 11
8586.673057123652
 21
2721.948501725707
 31
0.0
  0
LINE
  5
15D2A
330
747D
100
AcDbEntity
  8
細線
100
AcDbLine
 10
6582.673057123654
 20
2786.948501725707
 30
0.0
 11
8586.673057123652
 21
2786.948501725707
 31
0.0
  0
LINE
  5
15D2B
330
747D
100
AcDbEntity
  8
細線
100
AcDbLine
 10
6582.673057123654
 20
2851.948501725707
 30
0.0
 11
8586.673057123652
 21
2851.948501725707
 31
0.0
  0
LINE
  5
15D2C
330
747D
100
AcDbEntity
  8
細線
100
AcDbLine
 10
6582.673057123654
 20
2916.948501725707
 30
0.0
 11
8586.673057123652
 21
2916.948501725707
 31
0.0
  0
LINE
  5
15D2D
330
747D
100
AcDbEntity
  8
細線
100
AcDbLine
 10
6582.673057123654
 20
2981.948501725707
 30
0.0
 11
8586.673057123652
 21
2981.948501725707
 31
0.0
  0
LINE
  5
15D2E
330
747D
100
AcDbEntity
  8
細線
100
AcDbLine
 10
6582.673057123654
 20
3046.948501725707
 30
0.0
 11
8586.673057123652
 21
3046.948501725707
 31
0.0
  0
LINE
  5
15D2F
330
747D
100
AcDbEntity
  8
細線
100
AcDbLine
 10
6582.673057123654
 20
3111.948501725707
 30
0.0
 11
8586.673057123652
 21
3111.948501725707
 31
0.0
  0
LINE
  5
15D30
330
747D
100
AcDbEntity
  8
細線
100
AcDbLine
 10
6582.673057123654
 20
3176.948501725707
 30
0.0
 11
8586.673057123652
 21
3176.948501725707
 31
0.0
  0
LINE
  5
15D31
330
747D
100
AcDbEntity
  8
細線
100
AcDbLine
 10
6582.673057123654
 20
3241.948501725707
 30
0.0
 11
8586.673057123652
 21
3241.948501725707
 31
0.0
  0
LINE
  5
15D32
330
747D
100
AcDbEntity
  8
細線
100
AcDbLine
 10
6582.673057123654
 20
3306.948501725706
 30
0.0
 11
8586.673057123652
 21
3306.948501725706
 31
0.0
  0
LINE
  5
15D33
330
747D
100
AcDbEntity
  8
細線
100
AcDbLine
 10
6582.673057123654
 20
4021.948501725706
 30
0.0
 11
8586.673057123652
 21
4021.948501725706
 31
0.0
  0
LINE
  5
15D34
330
747D
100
AcDbEntity
  8
細線
100
AcDbLine
 10
6582.673057123654
 20
4086.948501725706
 30
0.0
 11
8586.673057123652
 21
4086.948501725706
 31
0.0
  0
LINE
  5
15D35
330
747D
100
AcDbEntity
  8
細線
100
AcDbLine
 10
6582.673057123654
 20
3956.948501725707
 30
0.0
 11
8586.673057123652
 21
3956.948501725707
 31
0.0
  0
LINE
  5
15D36
330
747D
100
AcDbEntity
  8
細線
100
AcDbLine
 10
6582.673057123654
 20
2136.948501725706
 30
0.0
 11
8586.673057123652
 21
2136.948501725706
 31
0.0
  0
LINE
  5
15D37
330
747D
100
AcDbEntity
  8
細線
100
AcDbLine
 10
6582.673057123654
 20
2201.948501725706
 30
0.0
 11
8586.673057123652
 21
2201.948501725706
 31
0.0
  0
LINE
  5
15D38
330
747D
100
AcDbEntity
  8
細線
100
AcDbLine
 10
6582.673057123654
 20
2266.948501725707
 30
0.0
 11
8586.673057123652
 21
2266.948501725707
 31
0.0
  0
LINE
  5
15D39
330
747D
100
AcDbEntity
  8
細線
100
AcDbLine
 10
6582.673057123654
 20
2331.948501725706
 30
0.0
 11
8586.673057123652
 21
2331.948501725706
 31
0.0
  0
LINE
  5
15D3A
330
747D
100
AcDbEntity
  8
細線
100
AcDbLine
 10
6582.673057123654
 20
2396.948501725707
 30
0.0
 11
8586.673057123652
 21
2396.948501725707
 31
0.0
  0
LINE
  5
15D3B
330
747D
100
AcDbEntity
  8
細線
100
AcDbLine
 10
6582.673057123654
 20
2461.948501725708
 30
0.0
 11
8586.673057123652
 21
2461.948501725708
 31
0.0
  0
LINE
  5
15D3C
330
747D
100
AcDbEntity
  8
細線
100
AcDbLine
 10
6582.673057123654
 20
2526.948501725707
 30
0.0
 11
8586.673057123652
 21
2526.948501725707
 31
0.0
  0
LINE
  5
15D3D
330
747D
100
AcDbEntity
  8
細線
100
AcDbLine
 10
6582.673057123654
 20
2591.948501725708
 30
0.0
 11
8586.673057123652
 21
2591.948501725708
 31
0.0
  0
LINE
  5
15D3E
330
747D
100
AcDbEntity
  8
細線
100
AcDbLine
 10
6582.673057123654
 20
2656.948501725707
 30
0.0
 11
8586.673057123652
 21
2656.948501725707
 31
0.0
  0
LINE
  5
15D3F
330
747D
100
AcDbEntity
  8
細線
100
AcDbLine
 10
8586.673057123659
 20
2136.948501725706
 30
0.0
 11
6582.673057123651
 21
2136.948501725706
 31
0.0
  0
CIRCLE
  5
16043
330
747D
100
AcDbEntity
  8
細線
 48
50.0
100
AcDbCircle
 10
7584.673057123655
 20
3014.448501725707
 30
0.0
 40
18.0
  0
ARC
  5
16045
330
747D
100
AcDbEntity
  8
細線
 48
50.0
100
AcDbCircle
 10
7884.673057123653
 20
2689.448501725707
 30
0.0
 40
15.0
100
AcDbArc
 50
270.0
 51
90.0
  0
ARC
  5
16046
330
747D
100
AcDbEntity
  8
細線
 48
50.0
100
AcDbCircle
 10
7784.673057123653
 20
2689.448501725707
 30
0.0
 40
15.0
100
AcDbArc
 50
90.0
 51
270.0
  0
LINE
  5
16047
330
747D
100
AcDbEntity
  8
細線
 48
50.0
100
AcDbLine
 10
7784.673057123653
 20
2704.448501725707
 30
0.0
 11
7884.673057123653
 21
2704.448501725707
 31
0.0
  0
LINE
  5
16048
330
747D
100
AcDbEntity
  8
細線
 48
50.0
100
AcDbLine
 10
7884.673057123653
 20
2674.448501725708
 30
0.0
 11
7784.673057123653
 21
2674.448501725708
 31
0.0
  0
LINE
  5
16049
330
747D
100
AcDbEntity
  8
細線
 48
50.0
100
AcDbLine
 10
7384.673057123655
 20
2674.448501725708
 30
0.0
 11
7284.673057123653
 21
2674.448501725708
 31
0.0
  0
LINE
  5
1604A
330
747D
100
AcDbEntity
  8
細線
 48
50.0
100
AcDbLine
 10
7284.673057123653
 20
2704.448501725707
 30
0.0
 11
7384.673057123655
 21
2704.448501725707
 31
0.0
  0
ARC
  5
1604B
330
747D
100
AcDbEntity
  8
細線
 48
50.0
100
AcDbCircle
 10
7384.673057123655
 20
2689.448501725707
 30
0.0
 40
15.0
100
AcDbArc
 50
270.0
 51
90.0
  0
ARC
  5
1604C
330
747D
100
AcDbEntity
  8
細線
 48
50.0
100
AcDbCircle
 10
7284.673057123653
 20
2689.448501725707
 30
0.0
 40
15.0
100
AcDbArc
 50
90.0
 51
270.0
  0
DIMENSION
  5
162CD
330
747D
100
AcDbEntity
  8
寸法
100
AcDbDimension
  2
*D1
 10
9337.09940285807
 20
6952.08672207543
 30
0.0
 11
9237.087591834447
 21
8632.086722075438
 31
0.0
 70
    32
  1
8X420=<>
 71
     5
 42
3360.00000000001
  3
INABA_S40G
100
AcDbAlignedDimension
 13
8689.673057123664
 23
10312.08672207544
 33
0.0
 14
8689.67305712364
 24
6952.08672207543
 34
0.0
 50
90.0
100
AcDbRotatedDimension
1001
ACAD
1000
DSTYLE
1002
{
1002
}
  0
DIMENSION
  5
162CE
330
747D
100
AcDbEntity
  8
寸法
100
AcDbDimension
  2
*D2
 10
9337.099402858049
 20
6897.086722075432
 30
0.0
 11
9337.099402858049
 21
6519.225255170572
 31
0.0
 70
   160
 71
     5
 42
54.99999999999818
  3
INABA_S40G
100
AcDbAlignedDimension
 13
8689.67305712364
 23
6952.08672207543
 33
0.0
 14
8689.67305712364
 24
6897.086722075432
 34
0.0
 50
90.0
100
AcDbRotatedDimension
1001
ACAD
1000
DSTYLE
1002
{
1002
}
  0
DIMENSION
  5
162CF
330
747D
100
AcDbEntity
  8
寸法
100
AcDbDimension
  2
*D3
 10
9337.099402858076
 20
10312.08672207544
 30
0.0
 11
9337.099402858074
 21
10675.57200344968
 31
0.0
 70
   160
 71
     5
 42
55.0
  3
INABA_S40G
100
AcDbAlignedDimension
 13
8689.673057123664
 23
10367.08672207544
 33
0.0
 14
8689.673057123664
 24
10312.08672207544
 34
0.0
 50
90.0
100
AcDbRotatedDimension
1001
ACAD
1000
DSTYLE
1002
{
1002
}
  0
DIMENSION
  5
162D0
330
747D
100
AcDbEntity
  8
寸法
100
AcDbDimension
  2
*D4
 10
9702.20634459771
 20
6897.086722075432
 30
0.0
 11
9602.206344597709
 21
8632.086722075438
 31
0.0
 70
    32
 71
     5
 42
3470.000000000008
  3
INABA_S40G
100
AcDbAlignedDimension
 13
8689.673057123664
 23
10367.08672207544
 33
0.0
 14
8689.67305712364
 24
6897.086722075432
 34
0.0
 50
90.0
100
AcDbRotatedDimension
1001
ACAD
1000
DSTYLE
1002
{
1002
}
  0
LINE
  5
162DC
330
747D
100
AcDbEntity
  8
部品1
100
AcDbLine
 10
8661.673057123648
 20
10339.08672207544
 30
0.0
 11
8661.673057123641
 21
6952.08672207543
 31
0.0
  0
LINE
  5
162DD
330
747D
100
AcDbEntity
  8
部品1
100
AcDbLine
 10
2087.673057123639
 20
6952.086722075299
 30
0.0
 11
2087.673057123649
 21
10339.08672207535
 31
0.0
  0
LINE
  5
162DE
330
747D
100
AcDbEntity
  8
部品1
100
AcDbLine
 10
8689.673057123664
 20
10367.08672207544
 30
0.0
 11
8689.67305712364
 21
6897.086722075432
 31
0.0
  0
LINE
  5
162DF
330
747D
100
AcDbEntity
  8
部品1
100
AcDbLine
 10
2059.673057123629
 20
10367.08672207531
 30
0.0
 11
2059.673057123657
 21
6897.0867220753
 31
0.0
  0
DIMENSION
  5
162E4
330
747D
100
AcDbEntity
  8
寸法
 48
50.0
100
AcDbDimension
  2
*D5
 10
6582.673057123655
 20
6362.655951309176
 30
0.0
 11
7584.673057123646
 21
6462.667762332798
 31
0.0
 70
    32
  1
有効開口部間口 <>
 71
     5
 42
2003.999999999984
  3
INABA_S40G
100
AcDbAlignedDimension
 13
8586.673057123638
 23
6923.086722075344
 33
0.0
 14
6582.673057123655
 24
6923.086722075341
 34
0.0
100
AcDbRotatedDimension
1001
ACAD
1000
DSTYLE
1002
{
1070
    75
1070
     1
1070
   279
1070
     2
1002
}
  0
LINE
  5
162E6
330
747D
100
AcDbEntity
  8
部品1
 48
50.0
100
AcDbLine
 10
6546.673057123655
 20
6942.586722075339
 30
0.0
 11
8622.673057123639
 21
6942.586722075339
 31
0.0
  0
DIMENSION
  5
162E7
330
747D
100
AcDbEntity
  8
寸法
100
AcDbDimension
  2
*D6
 10
8689.673057123627
 20
5916.482955718304
 30
0.0
 11
5374.673057123642
 21
6016.494766741925
 31
0.0
 70
    32
  1
N X 2210
 71
     5
 42
6629.999999999971
  3
INABA_S40G
100
AcDbAlignedDimension
 13
2059.673057123657
 23
6897.08672207534
 33
0.0
 14
8689.673057123627
 24
6897.086722075432
 34
0.0
100
AcDbRotatedDimension
1001
ACAD
1000
DSTYLE
1002
{
1002
}
  0
LINE
  5
162E8
330
747D
100
AcDbEntity
  8
部品1
100
AcDbLine
 10
2114.673057123633
 20
10312.08672207536
 30
0.0
 11
2114.673057123655
 21
6962.086722075341
 31
0.0
  0
LINE
  5
162E9
330
747D
100
AcDbEntity
  8
部品1
100
AcDbLine
 10
2139.673057123635
 20
10312.08672207536
 30
0.0
 11
2139.673057123655
 21
6962.086722075341
 31
0.0
  0
DIMENSION
  5
162EA
330
747D
100
AcDbEntity
  8
寸法
 48
50.0
100
AcDbDimension
  2
*D7
 10
2059.673057123657
 20
6362.655951309176
 30
0.0
 11
1751.187775749418
 21
6362.655951309176
 31
0.0
 70
   160
 71
     5
 42
54.99999999999591
  3
INABA_S40G
100
AcDbAlignedDimension
 13
2114.673057123653
 23
6897.08672207534
 33
0.0
 14
2059.673057123657
 24
6897.08672207534
 34
0.0
100
AcDbRotatedDimension
1001
ACAD
1000
DSTYLE
1002
{
1002
}
  0
DIMENSION
  5
162EB
330
747D
100
AcDbEntity
  8
寸法
 48
50.0
100
AcDbDimension
  2
*D8
 10
6534.673057123653
 20
6362.655951309176
 30
0.0
 11
6695.575028123714
 21
6462.655951309177
 31
0.0
 70
   160
 71
     5
 42
48.00000000000091
  3
INABA_S40G
100
AcDbAlignedDimension
 13
6582.673057123655
 23
6923.086722075341
 33
0.0
 14
6534.673057123653
 24
6897.08672207534
 34
0.0
100
AcDbRotatedDimension
1001
ACAD
1000
DSTYLE
1002
{
1070
   279
1070
     2
1002
}
  0
LINE
  5
162EC
330
747D
100
AcDbEntity
  8
部品1
100
AcDbLine
 10
2114.673057123651
 20
6897.08672207534
 30
0.0
 11
2059.673057123657
 21
6897.08672207534
 31
0.0
  0
LINE
  5
162ED
330
747D
100
AcDbEntity
  8
部品1
 48
50.0
100
AcDbLine
 10
2114.673057123657
 20
6933.086722075341
 30
0.0
 11
2091.673057123657
 21
6933.086722075341
 31
0.0
  0
LINE
  5
162EE
330
747D
100
AcDbEntity
  8
部品1
 48
50.0
100
AcDbLine
 10
2124.673057123657
 20
6923.086722075341
 30
0.0
 11
2114.673057123657
 21
6902.08672207534
 31
0.0
  0
LINE
  5
162EF
330
747D
100
AcDbEntity
  8
部品1
 48
50.0
100
AcDbLine
 10
2114.673057123657
 20
6962.086722075341
 30
0.0
 11
2114.673057123653
 21
6897.08672207534
 31
0.0
  0
LINE
  5
162F0
330
747D
100
AcDbEntity
  8
部品1
 48
50.0
100
AcDbLine
 10
2162.673057123657
 20
6923.086722075344
 30
0.0
 11
2162.673057123657
 21
6932.086722075343
 31
0.0
  0
LINE
  5
162F1
330
747D
100
AcDbEntity
  8
部品1
 48
50.0
100
AcDbLine
 10
2162.673057123657
 20
6962.086722075344
 30
0.0
 11
2162.673057123657
 21
6953.08672207534
 31
0.0
  0
LINE
  5
162F2
330
747D
100
AcDbEntity
  8
部品1
100
AcDbLine
 10
2162.673057123657
 20
6962.086722075344
 30
0.0
 11
2114.673057123657
 21
6962.086722075341
 31
0.0
  0
LINE
  5
162F3
330
747D
100
AcDbEntity
  8
部品1
100
AcDbLine
 10
2162.673057123657
 20
6923.086722075344
 30
0.0
 11
2114.673057123657
 21
6923.086722075341
 31
0.0
  0
LINE
  5
162F4
330
747D
100
AcDbEntity
  8
部品1
100
AcDbLine
 10
2114.673057123655
 20
6933.086722075341
 30
0.0
 11
2091.673057123657
 21
6933.086722075341
 31
0.0
  0
LINE
  5
162F5
330
747D
100
AcDbEntity
  8
部品1
100
AcDbLine
 10
2114.673057123655
 20
6952.086722075266
 30
0.0
 11
2059.673057123655
 21
6952.086722075266
 31
0.0
  0
LINE
  5
162F6
330
747D
100
AcDbEntity
  8
部品1
100
AcDbLine
 10
2087.673057123639
 20
6952.0867220753
 30
0.0
 11
2059.673057123655
 21
6952.0867220753
 31
0.0
  0
LINE
  5
162F7
330
747D
100
AcDbEntity
  8
部品1
100
AcDbLine
 10
2087.673057123655
 20
6952.086722075318
 30
0.0
 11
2059.673057123655
 21
6952.086722075318
 31
0.0
  0
LINE
  5
162FB
330
747D
100
AcDbEntity
  8
部品1
100
AcDbLine
 10
2087.673057123644
 20
7372.086722075318
 30
0.0
 11
2059.673057123644
 21
7372.086722075318
 31
0.0
  0
LINE
  5
162FC
330
747D
100
AcDbEntity
  8
部品1
100
AcDbLine
 10
2087.673057123644
 20
7792.086722075317
 30
0.0
 11
2059.673057123644
 21
7792.086722075317
 31
0.0
  0
LINE
  5
162FE
330
747D
100
AcDbEntity
  8
部品1
100
AcDbLine
 10
2087.673057123637
 20
8212.086722075317
 30
0.0
 11
2059.673057123637
 21
8212.086722075317
 31
0.0
  0
LINE
  5
162FF
330
747D
100
AcDbEntity
  8
部品1
100
AcDbLine
 10
8634.673057123661
 20
10312.08672207536
 30
0.0
 11
8634.67305712364
 21
6897.08672207543
 31
0.0
  0
LINE
  5
16300
330
747D
100
AcDbEntity
  8
部品1
100
AcDbLine
 10
8609.673057123664
 20
10312.08672207536
 30
0.0
 11
8609.673057123641
 21
6962.086722075341
 31
0.0
  0
DIMENSION
  5
16301
330
747D
100
AcDbEntity
  8
寸法
 48
50.0
100
AcDbDimension
  2
*D9
 10
8586.673057123638
 20
6362.655951309176
 30
0.0
 11
8475.710159474891
 21
6462.655951309177
 31
0.0
 70
   160
 71
     5
 42
48.00000000000181
  3
INABA_S40G
100
AcDbAlignedDimension
 13
8634.67305712364
 23
6897.08672207543
 33
0.0
 14
8586.673057123638
 24
6923.086722075344
 34
0.0
100
AcDbRotatedDimension
1001
ACAD
1000
DSTYLE
1002
{
1070
   279
1070
     2
1002
}
  0
DIMENSION
  5
16302
330
747D
100
AcDbEntity
  8
寸法
 48
50.0
100
AcDbDimension
  2
*D10
 10
8634.67305712364
 20
6362.655951309178
 30
0.0
 11
8998.158338497878
 21
6362.655951309178
 31
0.0
 70
   160
 71
     5
 42
55.0
  3
INABA_S40G
100
AcDbAlignedDimension
 13
8689.67305712364
 23
6897.086722075432
 33
0.0
 14
8634.67305712364
 24
6897.08672207543
 34
0.0
100
AcDbRotatedDimension
1001
ACAD
1000
DSTYLE
1002
{
1002
}
  0
LINE
  5
16303
330
747D
100
AcDbEntity
  8
部品1
 48
50.0
100
AcDbLine
 10
8624.673057123638
 20
6923.086722075341
 30
0.0
 11
8634.67305712364
 21
6902.08672207534
 31
0.0
  0
LINE
  5
16304
330
747D
100
AcDbEntity
  8
部品1
100
AcDbLine
 10
8586.673057123638
 20
6962.086722075344
 30
0.0
 11
8634.67305712364
 21
6962.086722075341
 31
0.0
  0
LINE
  5
16305
330
747D
100
AcDbEntity
  8
部品1
100
AcDbLine
 10
8586.673057123638
 20
6923.086722075344
 30
0.0
 11
8634.67305712364
 21
6923.086722075341
 31
0.0
  0
LINE
  5
16306
330
747D
100
AcDbEntity
  8
部品1
 48
50.0
100
AcDbLine
 10
8586.673057123638
 20
6962.086722075344
 30
0.0
 11
8586.673057123638
 21
6953.08672207534
 31
0.0
  0
LINE
  5
16307
330
747D
100
AcDbEntity
  8
部品1
 48
50.0
100
AcDbLine
 10
8586.673057123638
 20
6923.086722075344
 30
0.0
 11
8586.673057123638
 21
6932.086722075343
 31
0.0
  0
LINE
  5
16308
330
747D
100
AcDbEntity
  8
部品1
100
AcDbLine
 10
8634.67305712364
 20
6933.086722075341
 30
0.0
 11
8657.673057123638
 21
6933.086722075341
 31
0.0
  0
LINE
  5
16309
330
747D
100
AcDbEntity
  8
部品1
100
AcDbLine
 10
8634.67305712364
 20
6952.086722075442
 30
0.0
 11
8689.673057123671
 21
6952.086722075442
 31
0.0
  0
LINE
  5
1630A
330
747D
100
AcDbEntity
  8
部品1
100
AcDbLine
 10
8689.67305712364
 20
6897.086722075432
 30
0.0
 11
8634.67305712364
 21
6897.086722075432
 31
0.0
  0
LINE
  5
16317
330
747D
100
AcDbEntity
  8
部品1
100
AcDbLine
 10
8661.673057123667
 20
7372.086722075443
 30
0.0
 11
8689.673057123668
 21
7372.086722075443
 31
0.0
  0
LINE
  5
16319
330
747D
100
AcDbEntity
  8
部品1
100
AcDbLine
 10
8661.673057123667
 20
7792.086722075445
 30
0.0
 11
8689.673057123668
 21
7792.086722075445
 31
0.0
  0
LINE
  5
1631A
330
747D
100
AcDbEntity
  8
部品1
100
AcDbLine
 10
8661.673057123664
 20
8212.086722075445
 30
0.0
 11
8689.673057123664
 21
8212.086722075445
 31
0.0
  0
LINE
  5
1631B
330
747D
100
AcDbEntity
  8
部品1
100
AcDbLine
 10
6534.673057123663
 20
10339.08672207546
 30
0.0
 11
7782.173057123661
 21
10339.08672207546
 31
0.0
  0
LINE
  5
1631C
330
747D
100
AcDbEntity
  8
部品1
100
AcDbLine
 10
6507.673057123665
 20
10339.08672207535
 30
0.0
 11
7164.673057123663
 21
10339.08672207535
 31
0.0
  0
LINE
  5
1631D
330
747D
100
AcDbEntity
  8
部品1
100
AcDbLine
 10
2059.673057123662
 20
10367.08672207534
 30
0.0
 11
8689.673057123664
 21
10367.08672207544
 31
0.0
  0
DIMENSION
  5
1631F
330
747D
100
AcDbEntity
  8
寸法
100
AcDbDimension
  2
*D11
 10
8634.673057123665
 20
10582.89494170044
 30
0.0
 11
7584.673057123665
 21
10682.90675272406
 31
0.0
 70
    32
  1
5X420=<>
 71
     5
 42
2100.000000000001
  3
INABA_S40G
100
AcDbAlignedDimension
 13
6534.673057123663
 23
10367.08672207534
 33
0.0
 14
8634.673057123665
 24
10367.08672207544
 34
0.0
100
AcDbRotatedDimension
1001
ACAD
1000
DSTYLE
1002
{
1002
}
  0
DIMENSION
  5
16320
330
747D
100
AcDbEntity
  8
寸法
100
AcDbDimension
  2
*D12
 10
2114.673057123663
 20
10582.89494170033
 30
0.0
 11
1751.18777574939
 21
10582.89494170033
 31
0.0
 70
   160
 71
     5
 42
55.0000000000341
  3
INABA_S40G
100
AcDbAlignedDimension
 13
2059.673057123629
 23
10367.08672207534
 33
0.0
 14
2114.673057123663
 24
10367.08672207534
 34
0.0
100
AcDbRotatedDimension
1001
ACAD
1000
DSTYLE
1002
{
1002
}
  0
LINE
  5
16321
330
747D
100
AcDbEntity
  8
部品1
100
AcDbLine
 10
2114.67305712363
 20
10367.08672207531
 30
0.0
 11
2114.67305712363
 21
10339.08672207531
 31
0.0
  0
LINE
  5
16322
330
747D
100
AcDbEntity
  8
部品1
100
AcDbLine
 10
2114.673057123662
 20
10367.08672207534
 30
0.0
 11
2114.673057123662
 21
10339.08672207535
 31
0.0
  0
LINE
  5
16323
330
747D
100
AcDbEntity
  8
部品1
100
AcDbLine
 10
2087.673057123629
 20
10312.08672207531
 30
0.0
 11
2059.673057123629
 21
10312.08672207531
 31
0.0
  0
LINE
  5
16324
330
747D
100
AcDbEntity
  8
部品1
100
AcDbLine
 10
6954.673057123663
 20
10367.08672207546
 30
0.0
 11
6954.673057123663
 21
10339.08672207546
 31
0.0
  0
LINE
  5
16325
330
747D
100
AcDbEntity
  8
部品1
100
AcDbLine
 10
6954.673057123663
 20
10367.08672207534
 30
0.0
 11
6954.673057123663
 21
10339.08672207535
 31
0.0
  0
LINE
  5
16326
330
747D
100
AcDbEntity
  8
部品1
100
AcDbLine
 10
6954.673057123663
 20
10367.08672207534
 30
0.0
 11
6954.673057123663
 21
10339.08672207535
 31
0.0
  0
LINE
  5
16327
330
747D
100
AcDbEntity
  8
部品1
100
AcDbLine
 10
7807.173057123662
 20
10339.08672207546
 30
0.0
 11
8661.673057123664
 21
10339.08672207544
 31
0.0
  0
LINE
  5
16329
330
747D
100
AcDbEntity
  8
部品1
100
AcDbLine
 10
7374.673057123662
 20
10367.08672207546
 30
0.0
 11
7374.673057123662
 21
10339.08672207546
 31
0.0
  0
LINE
  5
1632A
330
747D
100
AcDbEntity
  8
部品1
100
AcDbLine
 10
7374.673057123662
 20
10367.08672207534
 30
0.0
 11
7374.673057123662
 21
10339.08672207535
 31
0.0
  0
LINE
  5
1632B
330
747D
100
AcDbEntity
  8
部品1
100
AcDbLine
 10
7374.673057123662
 20
10367.08672207534
 30
0.0
 11
7374.673057123662
 21
10339.08672207535
 31
0.0
  0
LINE
  5
1632C
330
747D
100
AcDbEntity
  8
部品1
100
AcDbLine
 10
7794.673057123663
 20
10367.08672207546
 30
0.0
 11
7794.673057123663
 21
10339.08672207546
 31
0.0
  0
LINE
  5
1632D
330
747D
100
AcDbEntity
  8
部品1
100
AcDbLine
 10
7782.173057123663
 20
10331.08672207544
 30
0.0
 11
7807.173057123662
 21
10331.08672207545
 31
0.0
  0
LINE
  5
1632E
330
747D
100
AcDbEntity
  8
部品1
100
AcDbLine
 10
7823.673057123663
 20
10357.08672207545
 30
0.0
 11
7829.673057123663
 21
10357.08672207545
 31
0.0
  0
LINE
  5
1632F
330
747D
100
AcDbEntity
  8
部品1
100
AcDbLine
 10
7829.673057123663
 20
10357.08672207545
 30
0.0
 11
7829.673057123663
 21
10339.08672207545
 31
0.0
  0
LINE
  5
16330
330
747D
100
AcDbEntity
  8
部品1
100
AcDbLine
 10
7759.673057123663
 20
10357.08672207545
 30
0.0
 11
7765.673057123663
 21
10357.08672207545
 31
0.0
  0
LINE
  5
16331
330
747D
100
AcDbEntity
  8
部品1
100
AcDbLine
 10
7759.673057123663
 20
10357.08672207545
 30
0.0
 11
7759.673057123663
 21
10339.08672207545
 31
0.0
  0
DIMENSION
  5
16333
330
747D
100
AcDbEntity
  8
寸法
100
AcDbDimension
  2
*D13
 10
8689.673057123664
 20
10582.89494170042
 30
0.0
 11
8998.158338497901
 21
10582.89494170042
 31
0.0
 70
   160
 71
     5
 42
55.0
  3
INABA_S40G
100
AcDbAlignedDimension
 13
8634.673057123665
 23
10367.08672207544
 33
0.0
 14
8689.673057123664
 24
10367.08672207544
 34
0.0
100
AcDbRotatedDimension
1001
ACAD
1000
DSTYLE
1002
{
1002
}
  0
LINE
  5
16334
330
747D
100
AcDbEntity
  8
部品1
100
AcDbLine
 10
8214.673057123659
 20
10367.08672207546
 30
0.0
 11
8214.673057123659
 21
10339.08672207546
 31
0.0
  0
LINE
  5
16335
330
747D
100
AcDbEntity
  8
部品1
100
AcDbLine
 10
8634.673057123665
 20
10367.08672207544
 30
0.0
 11
8634.673057123665
 21
10339.08672207544
 31
0.0
  0
LINE
  5
16336
330
747D
100
AcDbEntity
  8
部品1
100
AcDbLine
 10
8634.673057123665
 20
10367.08672207546
 30
0.0
 11
8634.673057123665
 21
10339.08672207546
 31
0.0
  0
LINE
  5
16337
330
747D
100
AcDbEntity
  8
部品1
100
AcDbLine
 10
8661.673057123664
 20
10312.08672207544
 30
0.0
 11
8689.673057123664
 21
10312.08672207544
 31
0.0
  0
LINE
  5
1655C
330
747D
100
AcDbEntity
  8
部品1
100
AcDbLine
 10
6376.673057123658
 20
4101.948501725707
 30
0.0
 11
6376.673057123655
 21
2126.948501725706
 31
0.0
  0
LINE
  5
1655D
330
747D
100
AcDbEntity
  8
部品1
100
AcDbLine
 10
6424.673057123658
 20
4101.948501725706
 30
0.0
 11
6424.673057123655
 21
2126.948501725706
 31
0.0
  0
LINE
  5
1655E
330
747D
100
AcDbEntity
  8
破線
 48
5.0
100
AcDbLine
 10
6376.673057123655
 20
2126.948501725706
 30
0.0
 11
6376.673057123658
 21
1876.948501725706
 31
0.0
  0
LINE
  5
1655F
330
747D
100
AcDbEntity
  8
破線
 48
5.0
100
AcDbLine
 10
6424.673057123658
 20
1876.948501725706
 30
0.0
 11
6376.673057123658
 21
1876.948501725706
 31
0.0
  0
LINE
  5
16560
330
747D
100
AcDbEntity
  8
破線
 48
5.0
100
AcDbLine
 10
6424.673057123655
 20
2126.948501725706
 30
0.0
 11
6424.673057123659
 21
1851.948501725706
 31
0.0
  0
LINE
  5
16561
330
747D
100
AcDbEntity
  8
破線
 48
5.0
100
AcDbLine
 10
6534.673057123653
 20
1851.948501725706
 30
0.0
 11
6424.673057123658
 21
1851.948501725706
 31
0.0
  0
LINE
  5
16562
330
747D
100
AcDbEntity
  8
部品1
100
AcDbLine
 10
6582.673057123655
 20
4101.948501725707
 30
0.0
 11
6582.673057123655
 21
2126.948501725706
 31
0.0
  0
LINE
  5
16563
330
747D
100
AcDbEntity
  8
破線
 48
5.0
100
AcDbLine
 10
6582.673057123655
 20
2126.948501725706
 30
0.0
 11
6582.673057123655
 21
1876.948501725711
 31
0.0
  0
LINE
  5
16564
330
747D
100
AcDbEntity
  8
破線
 48
5.0
100
AcDbLine
 10
6582.673057123655
 20
1876.948501725712
 30
0.0
 11
6534.673057123653
 21
1876.948501725712
 31
0.0
  0
LINE
  5
16565
330
747D
100
AcDbEntity
  8
破線
 48
5.0
100
AcDbLine
 10
6534.673057123656
 20
2126.948501725706
 30
0.0
 11
6534.673057123654
 21
1851.948501725706
 31
0.0
  0
LINE
  5
16566
330
747D
100
AcDbEntity
  8
部品1
100
AcDbLine
 10
6534.673057123656
 20
4101.948501725706
 30
0.0
 11
6534.673057123656
 21
2126.948501725706
 31
0.0
  0
LINE
  5
16567
330
747D
100
AcDbEntity
  8
部品1
100
AcDbLine
 10
6534.673057123656
 20
4101.948501725707
 30
0.0
 11
8689.673057123657
 21
4101.948501725707
 31
0.0
  0
DIMENSION
  5
1659A
330
747D
100
AcDbEntity
  8
寸法
 48
50.0
100
AcDbDimension
  2
*D15
 10
6376.673057123639
 20
6362.655951309176
 30
0.0
 11
6265.710159474891
 21
6462.655951309177
 31
0.0
 70
   160
 71
     5
 42
48.00000000000181
  3
INABA_S40G
100
AcDbAlignedDimension
 13
6424.67305712364
 23
6897.08672207543
 33
0.0
 14
6376.673057123639
 24
6923.086722075344
 34
0.0
100
AcDbRotatedDimension
1001
ACAD
1000
DSTYLE
1002
{
1070
   279
1070
     2
1002
}
  0
DIMENSION
  5
1659C
330
747D
100
AcDbEntity
  8
寸法
 48
50.0
100
AcDbDimension
  2
*D14
 10
2114.673057123653
 20
6362.655951309176
 30
0.0
 11
2275.575028123714
 21
6462.655951309177
 31
0.0
 70
   160
 71
     5
 42
48.00000000000409
  3
INABA_S40G
100
AcDbAlignedDimension
 13
2162.673057123657
 23
6923.086722075341
 33
0.0
 14
2114.673057123653
 24
6897.08672207534
 34
0.0
100
AcDbRotatedDimension
1001
ACAD
1000
DSTYLE
1002
{
1070
   279
1070
     2
1002
}
  0
DIMENSION
  5
165E9
330
747D
100
AcDbEntity
  8
寸法
 48
50.0
100
AcDbDimension
  2
*D16
 10
6424.67305712364
 20
6362.655951309178
 30
0.0
 11
6479.673057123648
 21
6210.964056272949
 31
0.0
 70
   160
 71
     5
 42
110.0000000000136
  3
INABA_S40G
100
AcDbAlignedDimension
 13
6534.673057123653
 23
6897.08672207534
 33
0.0
 14
6424.67305712364
 24
6897.08672207543
 34
0.0
100
AcDbRotatedDimension
1001
ACAD
1000
DSTYLE
1002
{
1070
   279
1070
     2
1002
}
  0
LINE
  5
16656
330
747D
100
AcDbEntity
  8
部品1
100
AcDbLine
 10
6376.673057123639
 20
6962.086722075344
 30
0.0
 11
6424.67305712364
 21
6962.086722075341
 31
0.0
  0
LINE
  5
16657
330
747D
100
AcDbEntity
  8
部品1
 48
50.0
100
AcDbLine
 10
6376.673057123639
 20
6962.086722075344
 30
0.0
 11
6376.673057123639
 21
6953.08672207534
 31
0.0
  0
LINE
  5
16658
330
747D
100
AcDbEntity
  8
部品1
100
AcDbLine
 10
6376.673057123639
 20
6923.086722075344
 30
0.0
 11
6424.673057123638
 21
6923.086722075341
 31
0.0
  0
LINE
  5
16659
330
747D
100
AcDbEntity
  8
部品1
 48
50.0
100
AcDbLine
 10
6376.673057123639
 20
6923.086722075344
 30
0.0
 11
6376.673057123639
 21
6932.086722075343
 31
0.0
  0
LINE
  5
1665A
330
747D
100
AcDbEntity
  8
部品1
 48
50.0
100
AcDbLine
 10
6414.673057123639
 20
6923.086722075341
 30
0.0
 11
6424.673057123638
 21
6902.08672207534
 31
0.0
  0
LINE
  5
1665B
330
747D
100
AcDbEntity
  8
部品1
100
AcDbLine
 10
6424.673057123638
 20
6933.086722075341
 30
0.0
 11
6447.673057123639
 21
6933.086722075341
 31
0.0
  0
LINE
  5
1665C
330
747D
100
AcDbEntity
  8
部品1
100
AcDbLine
 10
6582.673057123655
 20
6962.086722075344
 30
0.0
 11
6534.673057123656
 21
6962.086722075341
 31
0.0
  0
LINE
  5
1665D
330
747D
100
AcDbEntity
  8
部品1
 48
50.0
100
AcDbLine
 10
6582.673057123655
 20
6962.086722075344
 30
0.0
 11
6582.673057123655
 21
6953.08672207534
 31
0.0
  0
LINE
  5
1665E
330
747D
100
AcDbEntity
  8
部品1
100
AcDbLine
 10
6582.673057123655
 20
6923.086722075344
 30
0.0
 11
6534.673057123656
 21
6923.086722075341
 31
0.0
  0
LINE
  5
1665F
330
747D
100
AcDbEntity
  8
部品1
 48
50.0
100
AcDbLine
 10
6544.673057123657
 20
6923.086722075341
 30
0.0
 11
6534.673057123656
 21
6902.08672207534
 31
0.0
  0
LINE
  5
16660
330
747D
100
AcDbEntity
  8
部品1
100
AcDbLine
 10
6534.673057123656
 20
6933.086722075341
 30
0.0
 11
6511.673057123657
 21
6933.086722075341
 31
0.0
  0
LINE
  5
16661
330
747D
100
AcDbEntity
  8
部品1
 48
50.0
100
AcDbLine
 10
6534.673057123656
 20
6962.086722075341
 30
0.0
 11
6534.673057123653
 21
6897.08672207534
 31
0.0
  0
LINE
  5
16662
330
747D
100
AcDbEntity
  8
部品1
 48
50.0
100
AcDbLine
 10
6582.673057123655
 20
6923.086722075344
 30
0.0
 11
6582.673057123655
 21
6932.086722075343
 31
0.0
  0
LINE
  5
16663
330
747D
100
AcDbEntity
  8
部品1
100
AcDbLine
 10
6534.673057123652
 20
6897.08672207534
 30
0.0
 11
6424.673057123643
 21
6897.086722075335
 31
0.0
  0
LINE
  5
16664
330
747D
100
AcDbEntity
  8
部品1
 48
50.0
100
AcDbLine
 10
6424.673057123645
 20
6962.08672207543
 30
0.0
 11
6424.673057123641
 21
6897.08672207543
 31
0.0
  0
LINE
  5
16666
330
747D
100
AcDbEntity
  8
部品1
100
AcDbLine
 10
6534.673057123663
 20
10367.08672207534
 30
0.0
 11
6534.673057123663
 21
10339.08672207535
 31
0.0
  0
LINE
  5
16680
330
747D
100
AcDbEntity
  8
部品1
100
AcDbLine
 10
5584.673057123663
 20
10367.08672207546
 30
0.0
 11
5584.673057123663
 21
10339.08672207546
 31
0.0
  0
LINE
  5
16681
330
747D
100
AcDbEntity
  8
部品1
100
AcDbLine
 10
5572.173057123663
 20
10331.08672207544
 30
0.0
 11
5597.173057123663
 21
10331.08672207545
 31
0.0
  0
LINE
  5
16682
330
747D
100
AcDbEntity
  8
部品1
100
AcDbLine
 10
5613.673057123663
 20
10357.08672207545
 30
0.0
 11
5619.673057123662
 21
10357.08672207545
 31
0.0
  0
LINE
  5
16683
330
747D
100
AcDbEntity
  8
部品1
100
AcDbLine
 10
5619.673057123662
 20
10357.08672207545
 30
0.0
 11
5619.673057123662
 21
10339.08672207545
 31
0.0
  0
LINE
  5
16684
330
747D
100
AcDbEntity
  8
部品1
100
AcDbLine
 10
5549.673057123663
 20
10357.08672207545
 30
0.0
 11
5555.673057123663
 21
10357.08672207545
 31
0.0
  0
LINE
  5
16685
330
747D
100
AcDbEntity
  8
部品1
100
AcDbLine
 10
5549.673057123663
 20
10357.08672207545
 30
0.0
 11
5549.673057123663
 21
10339.08672207545
 31
0.0
  0
LINE
  5
16686
330
747D
100
AcDbEntity
  8
部品1
100
AcDbLine
 10
5597.173057123663
 20
10339.08672207546
 30
0.0
 11
6451.673057123663
 21
10339.08672207544
 31
0.0
  0
LINE
  5
16688
330
747D
100
AcDbEntity
  8
部品1
100
AcDbLine
 10
4297.673057123649
 20
10339.08672207546
 30
0.0
 11
5572.173057123664
 21
10339.08672207546
 31
0.0
  0
LINE
  5
1668A
330
747D
100
AcDbEntity
  8
部品1
100
AcDbLine
 10
4744.673057123661
 20
10367.08672207546
 30
0.0
 11
4744.673057123661
 21
10339.08672207546
 31
0.0
  0
LINE
  5
1668B
330
747D
100
AcDbEntity
  8
部品1
100
AcDbLine
 10
4744.673057123661
 20
10367.08672207534
 30
0.0
 11
4744.673057123661
 21
10339.08672207535
 31
0.0
  0
LINE
  5
1668C
330
747D
100
AcDbEntity
  8
部品1
100
AcDbLine
 10
4744.673057123661
 20
10367.08672207534
 30
0.0
 11
4744.673057123661
 21
10339.08672207535
 31
0.0
  0
LINE
  5
1668D
330
747D
100
AcDbEntity
  8
部品1
100
AcDbLine
 10
5164.673057123663
 20
10367.08672207546
 30
0.0
 11
5164.673057123663
 21
10339.08672207546
 31
0.0
  0
LINE
  5
1668E
330
747D
100
AcDbEntity
  8
部品1
100
AcDbLine
 10
5164.673057123663
 20
10367.08672207534
 30
0.0
 11
5164.673057123663
 21
10339.08672207535
 31
0.0
  0
LINE
  5
1668F
330
747D
100
AcDbEntity
  8
部品1
100
AcDbLine
 10
5164.673057123663
 20
10367.08672207534
 30
0.0
 11
5164.673057123663
 21
10339.08672207535
 31
0.0
  0
LINE
  5
16691
330
747D
100
AcDbEntity
  8
部品1
100
AcDbLine
 10
6004.673057123662
 20
10367.08672207546
 30
0.0
 11
6004.673057123662
 21
10339.08672207546
 31
0.0
  0
LINE
  5
16692
330
747D
100
AcDbEntity
  8
部品1
100
AcDbLine
 10
6424.673057123666
 20
10367.08672207544
 30
0.0
 11
6424.673057123666
 21
10339.08672207544
 31
0.0
  0
DIMENSION
  5
166DD
330
747D
100
AcDbEntity
  8
寸法
 48
50.0
100
AcDbDimension
  2
*D17
 10
6424.673057123666
 20
10582.89494170044
 30
0.0
 11
6479.673057123664
 21
10682.89494170044
 31
0.0
 70
    32
 71
     5
 42
109.9999999999972
  3
INABA_S40G
100
AcDbAlignedDimension
 13
6534.673057123663
 23
10367.08672207539
 33
0.0
 14
6424.673057123666
 24
10367.08672207539
 34
0.0
100
AcDbRotatedDimension
1001
ACAD
1000
DSTYLE
1002
{
1070
   279
1070
     2
1002
}
  0
LINE
  5
16760
330
747D
100
AcDbEntity
  8
部品1
 48
50.0
100
AcDbLine
 10
6479.67305712363
 20
10339.08672207539
 30
0.0
 11
6451.673057123631
 21
10367.08672207544
 31
0.0
  0
LINE
  5
16761
330
747D
100
AcDbEntity
  8
部品1
100
AcDbLine
 10
8634.673057123659
 20
10312.08672207536
 30
0.0
 11
6534.673057123644
 21
10312.08672207536
 31
0.0
  0
LINE
  5
16762
330
747D
100
AcDbEntity
  8
部品1
 48
50.0
100
AcDbLine
 10
6451.673057123631
 20
10339.08672207549
 30
0.0
 11
6451.673057123631
 21
10367.08672207544
 31
0.0
  0
LINE
  5
16763
330
747D
100
AcDbEntity
  8
部品1
 48
50.0
100
AcDbLine
 10
6451.673057123631
 20
10339.08672207539
 30
0.0
 11
6479.67305712363
 21
10339.08672207539
 31
0.0
  0
LINE
  5
168C3
330
747D
100
AcDbEntity
  8
部品1
100
AcDbLine
 10
6503.673057123648
 20
6952.086722075337
 30
0.0
 11
6455.673057123647
 21
6952.086722075337
 31
0.0
  0
LINE
  5
168C4
330
747D
100
AcDbEntity
  8
部品1
 48
50.0
100
AcDbLine
 10
6455.673057123647
 20
6952.086722075337
 30
0.0
 11
6455.67305712365
 21
6897.08672207534
 31
0.0
  0
LINE
  5
168C5
330
747D
100
AcDbEntity
  8
部品1
 48
50.0
100
AcDbLine
 10
6503.673057123648
 20
6952.086722075337
 30
0.0
 11
6503.67305712365
 21
6897.08672207534
 31
0.0
  0
DIMENSION
  5
16913
330
747D
100
AcDbEntity
  8
寸法
 48
50.0
100
AcDbDimension
  2
*D18
 10
8689.673057123664
 20
10832.21641525674
 30
0.0
 11
7584.673057123665
 21
10932.22822628036
 31
0.0
 70
    32
 71
     5
 42
2209.999999999999
  3
INABA_S40G
100
AcDbAlignedDimension
 13
6479.673057123665
 23
10741.88285605839
 33
0.0
 14
8689.673057123664
 24
10367.08672207544
 34
0.0
100
AcDbRotatedDimension
1001
ACAD
1000
DSTYLE
1002
{
1070
    75
1070
     1
1070
   279
1070
     2
1002
}
  0
LINE
  5
172BC
330
747D
100
AcDbEntity
  8
部品1
 48
50.0
100
AcDbLine
 10
6507.673057123631
 20
10312.08672207536
 30
0.0
 11
6507.673057123696
 21
10367.08672207539
 31
0.0
  0
LINE
  5
172BD
330
747D
100
AcDbEntity
  8
部品1
 48
50.0
100
AcDbLine
 10
6451.673057123631
 20
10312.08672207536
 30
0.0
 11
6451.673057123631
 21
10339.08672207539
 31
0.0
  0
LINE
  5
174C8
330
747D
100
AcDbEntity
  8
部品1
 48
50.0
100
AcDbLine
 10
8609.673057123664
 20
10287.08672207532
 30
0.0
 11
6559.673057123617
 21
10287.08672207529
 31
0.0
  0
LINE
  5
174C9
330
747D
100
AcDbEntity
  8
部品1
 48
50.0
100
AcDbLine
 10
8661.673057123664
 20
10339.08672207544
 30
0.0
 11
8634.673057123659
 21
10312.08672207536
 31
0.0
  0
LINE
  5
174CA
330
747D
100
AcDbEntity
  8
部品1
 48
50.0
100
AcDbLine
 10
2114.673057123633
 20
10312.08672207536
 30
0.0
 11
2087.673057123649
 21
10339.08672207546
 31
0.0
  0
LINE
  5
174CB
330
747D
100
AcDbEntity
  8
部品1
 48
50.0
100
AcDbLine
 10
7782.173057123663
 20
10331.08672207544
 30
0.0
 11
7782.173057123663
 21
10339.08672207546
 31
0.0
  0
LINE
  5
174CC
330
747D
100
AcDbEntity
  8
部品1
 48
50.0
100
AcDbLine
 10
7807.173057123662
 20
10331.08672207545
 30
0.0
 11
7807.173057123662
 21
10339.08672207546
 31
0.0
  0
LINE
  5
174CD
330
747D
100
AcDbEntity
  8
部品1
 48
50.0
100
AcDbLine
 10
5572.173057123663
 20
10331.08672207544
 30
0.0
 11
5572.173057123663
 21
10339.08672207546
 31
0.0
  0
LINE
  5
174CE
330
747D
100
AcDbEntity
  8
部品1
 48
50.0
100
AcDbLine
 10
5597.173057123663
 20
10331.08672207545
 30
0.0
 11
5597.173057123663
 21
10339.08672207546
 31
0.0
  0
LINE
  5
17B10
330
747D
100
AcDbEntity
  8
細線
100
AcDbLine
 10
4166.673057123657
 20
2136.948501725706
 30
0.0
 11
2162.673057123651
 21
2136.948501725706
 31
0.0
  0
LINE
  5
17B13
330
747D
100
AcDbEntity
  8
部品1
100
AcDbLine
 10
4324.673057123656
 20
4101.948501725706
 30
0.0
 11
4324.673057123656
 21
2126.948501725706
 31
0.0
  0
LINE
  5
17B14
330
747D
100
AcDbEntity
  8
部品1
100
AcDbLine
 10
4372.673057123654
 20
4101.948501725707
 30
0.0
 11
4372.673057123654
 21
2126.948501725706
 31
0.0
  0
LINE
  5
17B15
330
747D
100
AcDbEntity
  8
部品1
100
AcDbLine
 10
4214.673057123657
 20
4101.948501725706
 30
0.0
 11
4214.673057123655
 21
2126.948501725706
 31
0.0
  0
LINE
  5
17B16
330
747D
100
AcDbEntity
  8
部品1
100
AcDbLine
 10
4166.673057123657
 20
4101.948501725708
 30
0.0
 11
4166.673057123655
 21
2126.948501725706
 31
0.0
  0
CIRCLE
  5
17B17
330
747D
100
AcDbEntity
  8
細線
 48
50.0
100
AcDbCircle
 10
3164.673057123655
 20
3014.448501725707
 30
0.0
 40
18.0
  0
ARC
  5
17B18
330
747D
100
AcDbEntity
  8
細線
 48
50.0
100
AcDbCircle
 10
3464.673057123655
 20
2689.448501725707
 30
0.0
 40
15.0
100
AcDbArc
 50
270.0
 51
90.0
  0
ARC
  5
17B19
330
747D
100
AcDbEntity
  8
細線
 48
50.0
100
AcDbCircle
 10
3364.673057123655
 20
2689.448501725707
 30
0.0
 40
15.0
100
AcDbArc
 50
90.0
 51
270.0
  0
LINE
  5
17B1A
330
747D
100
AcDbEntity
  8
細線
 48
50.0
100
AcDbLine
 10
3364.673057123655
 20
2704.448501725707
 30
0.0
 11
3464.673057123655
 21
2704.448501725707
 31
0.0
  0
LINE
  5
17B1B
330
747D
100
AcDbEntity
  8
細線
 48
50.0
100
AcDbLine
 10
3464.673057123655
 20
2674.448501725708
 30
0.0
 11
3364.673057123655
 21
2674.448501725708
 31
0.0
  0
ARC
  5
17B1C
330
747D
100
AcDbEntity
  8
細線
 48
50.0
100
AcDbCircle
 10
2964.673057123655
 20
2689.448501725707
 30
0.0
 40
15.0
100
AcDbArc
 50
270.0
 51
90.0
  0
ARC
  5
17B1D
330
747D
100
AcDbEntity
  8
細線
 48
50.0
100
AcDbCircle
 10
2864.673057123655
 20
2689.448501725707
 30
0.0
 40
15.0
100
AcDbArc
 50
90.0
 51
270.0
  0
LINE
  5
17B1E
330
747D
100
AcDbEntity
  8
細線
100
AcDbLine
 10
2162.673057123653
 20
3761.948501725707
 30
0.0
 11
4166.673057123655
 21
3761.948501725707
 31
0.0
  0
LINE
  5
17B1F
330
747D
100
AcDbEntity
  8
細線
100
AcDbLine
 10
2162.673057123653
 20
3826.948501725707
 30
0.0
 11
4166.673057123655
 21
3826.948501725707
 31
0.0
  0
LINE
  5
17B20
330
747D
100
AcDbEntity
  8
細線
100
AcDbLine
 10
2162.673057123653
 20
3891.948501725707
 30
0.0
 11
4166.673057123655
 21
3891.948501725707
 31
0.0
  0
LINE
  5
17B21
330
747D
100
AcDbEntity
  8
細線
100
AcDbLine
 10
2162.673057123653
 20
3371.948501725706
 30
0.0
 11
4166.673057123655
 21
3371.948501725706
 31
0.0
  0
LINE
  5
17B22
330
747D
100
AcDbEntity
  8
細線
100
AcDbLine
 10
2162.673057123653
 20
3436.948501725707
 30
0.0
 11
4166.673057123655
 21
3436.948501725707
 31
0.0
  0
LINE
  5
17B23
330
747D
100
AcDbEntity
  8
細線
100
AcDbLine
 10
2162.673057123653
 20
3501.948501725707
 30
0.0
 11
4166.673057123655
 21
3501.948501725707
 31
0.0
  0
LINE
  5
17B24
330
747D
100
AcDbEntity
  8
細線
100
AcDbLine
 10
2162.673057123653
 20
3566.948501725708
 30
0.0
 11
4166.673057123655
 21
3566.948501725708
 31
0.0
  0
LINE
  5
17B25
330
747D
100
AcDbEntity
  8
細線
100
AcDbLine
 10
2162.673057123653
 20
3631.948501725708
 30
0.0
 11
4166.673057123655
 21
3631.948501725708
 31
0.0
  0
LINE
  5
17B26
330
747D
100
AcDbEntity
  8
細線
100
AcDbLine
 10
2162.673057123653
 20
3696.948501725707
 30
0.0
 11
4166.673057123655
 21
3696.948501725707
 31
0.0
  0
LINE
  5
17B27
330
747D
100
AcDbEntity
  8
細線
100
AcDbLine
 10
2162.673057123653
 20
2721.948501725707
 30
0.0
 11
4166.673057123655
 21
2721.948501725707
 31
0.0
  0
LINE
  5
17B28
330
747D
100
AcDbEntity
  8
細線
100
AcDbLine
 10
2162.673057123653
 20
2786.948501725707
 30
0.0
 11
4166.673057123655
 21
2786.948501725707
 31
0.0
  0
LINE
  5
17B29
330
747D
100
AcDbEntity
  8
細線
100
AcDbLine
 10
2162.673057123653
 20
2851.948501725707
 30
0.0
 11
4166.673057123655
 21
2851.948501725707
 31
0.0
  0
LINE
  5
17B2A
330
747D
100
AcDbEntity
  8
細線
100
AcDbLine
 10
2162.673057123653
 20
2916.948501725707
 30
0.0
 11
4166.673057123655
 21
2916.948501725707
 31
0.0
  0
LINE
  5
17B2B
330
747D
100
AcDbEntity
  8
細線
100
AcDbLine
 10
2162.673057123653
 20
2981.948501725707
 30
0.0
 11
4166.673057123655
 21
2981.948501725707
 31
0.0
  0
LINE
  5
17B2C
330
747D
100
AcDbEntity
  8
細線
100
AcDbLine
 10
2162.673057123653
 20
3046.948501725707
 30
0.0
 11
4166.673057123655
 21
3046.948501725707
 31
0.0
  0
LINE
  5
17B2D
330
747D
100
AcDbEntity
  8
細線
100
AcDbLine
 10
2162.673057123653
 20
3111.948501725707
 30
0.0
 11
4166.673057123655
 21
3111.948501725707
 31
0.0
  0
LINE
  5
17B2E
330
747D
100
AcDbEntity
  8
細線
100
AcDbLine
 10
2162.673057123653
 20
3176.948501725707
 30
0.0
 11
4166.673057123655
 21
3176.948501725707
 31
0.0
  0
LINE
  5
17B2F
330
747D
100
AcDbEntity
  8
細線
100
AcDbLine
 10
2162.673057123653
 20
3241.948501725707
 30
0.0
 11
4166.673057123655
 21
3241.948501725707
 31
0.0
  0
LINE
  5
17B30
330
747D
100
AcDbEntity
  8
細線
100
AcDbLine
 10
2162.673057123653
 20
3306.948501725706
 30
0.0
 11
4166.673057123655
 21
3306.948501725706
 31
0.0
  0
LINE
  5
17B31
330
747D
100
AcDbEntity
  8
細線
100
AcDbLine
 10
2162.673057123653
 20
4021.948501725706
 30
0.0
 11
4166.673057123655
 21
4021.948501725706
 31
0.0
  0
LINE
  5
17B32
330
747D
100
AcDbEntity
  8
細線
100
AcDbLine
 10
2162.673057123653
 20
3956.948501725707
 30
0.0
 11
4166.673057123655
 21
3956.948501725707
 31
0.0
  0
LINE
  5
17B33
330
747D
100
AcDbEntity
  8
細線
100
AcDbLine
 10
2162.673057123653
 20
2201.948501725706
 30
0.0
 11
4166.673057123655
 21
2201.948501725706
 31
0.0
  0
LINE
  5
17B34
330
747D
100
AcDbEntity
  8
細線
100
AcDbLine
 10
2162.673057123653
 20
2266.948501725707
 30
0.0
 11
4166.673057123655
 21
2266.948501725707
 31
0.0
  0
LINE
  5
17B35
330
747D
100
AcDbEntity
  8
細線
100
AcDbLine
 10
2162.673057123653
 20
2331.948501725706
 30
0.0
 11
4166.673057123655
 21
2331.948501725706
 31
0.0
  0
LINE
  5
17B36
330
747D
100
AcDbEntity
  8
細線
100
AcDbLine
 10
2162.673057123653
 20
2396.948501725707
 30
0.0
 11
4166.673057123655
 21
2396.948501725707
 31
0.0
  0
LINE
  5
17B37
330
747D
100
AcDbEntity
  8
細線
100
AcDbLine
 10
2162.673057123653
 20
2461.948501725708
 30
0.0
 11
4166.673057123655
 21
2461.948501725708
 31
0.0
  0
LINE
  5
17B38
330
747D
100
AcDbEntity
  8
細線
100
AcDbLine
 10
2162.673057123653
 20
2526.948501725707
 30
0.0
 11
4166.673057123655
 21
2526.948501725707
 31
0.0
  0
LINE
  5
17B39
330
747D
100
AcDbEntity
  8
細線
100
AcDbLine
 10
2162.673057123653
 20
2591.948501725708
 30
0.0
 11
4166.673057123655
 21
2591.948501725708
 31
0.0
  0
LINE
  5
17B3A
330
747D
100
AcDbEntity
  8
細線
100
AcDbLine
 10
2162.673057123653
 20
2656.948501725707
 30
0.0
 11
4166.673057123655
 21
2656.948501725707
 31
0.0
  0
LINE
  5
17B3B
330
747D
100
AcDbEntity
  8
細線
 48
50.0
100
AcDbLine
 10
2964.673057123655
 20
2674.448501725708
 30
0.0
 11
2864.673057123655
 21
2674.448501725708
 31
0.0
  0
LINE
  5
17B3C
330
747D
100
AcDbEntity
  8
細線
 48
50.0
100
AcDbLine
 10
2864.673057123655
 20
2704.448501725707
 30
0.0
 11
2964.673057123655
 21
2704.448501725707
 31
0.0
  0
LINE
  5
17B3D
330
747D
100
AcDbEntity
  8
細線
100
AcDbLine
 10
2162.673057123653
 20
4086.948501725706
 30
0.0
 11
4166.673057123655
 21
4086.948501725706
 31
0.0
  0
LINE
  5
17B5A
330
747D
100
AcDbEntity
  8
部品1
100
AcDbLine
 10
2059.673057123657
 20
4101.948501725707
 30
0.0
 11
4324.673057123656
 21
4101.948501725707
 31
0.0
  0
LINE
  5
17B5E
330
747D
100
AcDbEntity
  8
破線
 48
5.0
100
AcDbLine
 10
4324.673057123656
 20
2126.948501725706
 30
0.0
 11
4324.673057123653
 21
1851.948501725706
 31
0.0
  0
LINE
  5
17B5F
330
747D
100
AcDbEntity
  8
破線
 48
5.0
100
AcDbLine
 10
4372.673057123653
 20
1876.948501725712
 30
0.0
 11
4324.673057123653
 21
1876.948501725712
 31
0.0
  0
LINE
  5
17B60
330
747D
100
AcDbEntity
  8
破線
 48
5.0
100
AcDbLine
 10
4372.673057123654
 20
2126.948501725706
 30
0.0
 11
4372.673057123653
 21
1876.948501725711
 31
0.0
  0
LINE
  5
17B61
330
747D
100
AcDbEntity
  8
破線
 48
5.0
100
AcDbLine
 10
4324.673057123653
 20
1851.948501725706
 30
0.0
 11
4214.673057123657
 21
1851.948501725706
 31
0.0
  0
LINE
  5
17B62
330
747D
100
AcDbEntity
  8
破線
 48
5.0
100
AcDbLine
 10
4214.673057123655
 20
2126.948501725706
 30
0.0
 11
4214.673057123657
 21
1851.948501725706
 31
0.0
  0
LINE
  5
17B63
330
747D
100
AcDbEntity
  8
破線
 48
5.0
100
AcDbLine
 10
4214.67305712366
 20
1876.948501725706
 30
0.0
 11
4166.673057123657
 21
1876.948501725706
 31
0.0
  0
LINE
  5
17B64
330
747D
100
AcDbEntity
  8
破線
 48
5.0
100
AcDbLine
 10
4166.673057123655
 20
2126.948501725706
 30
0.0
 11
4166.673057123657
 21
1876.948501725706
 31
0.0
  0
DIMENSION
  5
17B86
330
747D
100
AcDbEntity
  8
寸法
 48
50.0
100
AcDbDimension
  2
*D23
 10
4269.673057123664
 20
10832.21641525674
 30
0.0
 11
3164.673057123647
 21
10932.22822628036
 31
0.0
 70
    32
 71
     5
 42
2210.000000000035
  3
INABA_S40G
100
AcDbAlignedDimension
 13
2059.673057123629
 23
10367.08672207531
 33
0.0
 14
4269.673057123664
 24
10741.88285605839
 34
0.0
100
AcDbRotatedDimension
1001
ACAD
1000
DSTYLE
1002
{
1070
   279
1070
     2
1002
}
  0
DIMENSION
  5
17B87
330
747D
100
AcDbEntity
  8
寸法
100
AcDbDimension
  2
*D21
 10
4214.673057123664
 20
10582.89494170044
 30
0.0
 11
3164.673057123664
 21
10682.90675272406
 31
0.0
 70
    32
  1
5X420=<>
 71
     5
 42
2100.000000000001
  3
INABA_S40G
100
AcDbAlignedDimension
 13
2114.673057123663
 23
10367.08672207534
 33
0.0
 14
4214.673057123664
 24
10367.08672207544
 34
0.0
100
AcDbRotatedDimension
1001
ACAD
1000
DSTYLE
1002
{
1002
}
  0
DIMENSION
  5
17B88
330
747D
100
AcDbEntity
  8
寸法
 48
50.0
100
AcDbDimension
  2
*D22
 10
4214.673057123664
 20
10582.89494170044
 30
0.0
 11
4269.673057123664
 21
10682.89494170044
 31
0.0
 70
    32
 71
     5
 42
109.9999999999991
  3
INABA_S40G
100
AcDbAlignedDimension
 13
4324.673057123663
 23
10367.08672207539
 33
0.0
 14
4214.673057123664
 24
10367.08672207539
 34
0.0
100
AcDbRotatedDimension
1001
ACAD
1000
DSTYLE
1002
{
1070
   279
1070
     2
1002
}
  0
LINE
  5
17B89
330
747D
100
AcDbEntity
  8
部品1
100
AcDbLine
 10
4297.673057123629
 20
10312.08672207536
 30
0.0
 11
4241.673057123631
 21
10312.08672207536
 31
0.0
  0
LINE
  5
17B8B
330
747D
100
AcDbEntity
  8
部品1
 48
50.0
100
AcDbLine
 10
4189.673057123633
 20
10287.08672207527
 30
0.0
 11
2139.673057123633
 21
10287.08672207526
 31
0.0
  0
LINE
  5
17B98
330
747D
100
AcDbEntity
  8
部品1
 48
50.0
100
AcDbLine
 10
3387.173057123663
 20
10331.08672207545
 30
0.0
 11
3387.173057123663
 21
10339.08672207546
 31
0.0
  0
LINE
  5
17B99
330
747D
100
AcDbEntity
  8
部品1
 48
50.0
100
AcDbLine
 10
3362.173057123662
 20
10331.08672207544
 30
0.0
 11
3362.173057123662
 21
10339.08672207546
 31
0.0
  0
LINE
  5
17B9A
330
747D
100
AcDbEntity
  8
部品1
 48
50.0
100
AcDbLine
 10
4241.673057123631
 20
10312.08672207536
 30
0.0
 11
4241.673057123631
 21
10339.08672207539
 31
0.0
  0
LINE
  5
17B9B
330
747D
100
AcDbEntity
  8
部品1
 48
50.0
100
AcDbLine
 10
4297.673057123629
 20
10312.08672207536
 30
0.0
 11
4297.673057123697
 21
10367.08672207539
 31
0.0
  0
LINE
  5
17B9C
330
747D
100
AcDbEntity
  8
部品1
 48
50.0
100
AcDbLine
 10
4293.673057123646
 20
6952.086722075337
 30
0.0
 11
4293.673057123649
 21
6897.08672207534
 31
0.0
  0
LINE
  5
17B9D
330
747D
100
AcDbEntity
  8
部品1
 48
50.0
100
AcDbLine
 10
4245.673057123649
 20
6952.086722075337
 30
0.0
 11
4245.673057123649
 21
6897.08672207534
 31
0.0
  0
LINE
  5
17B9E
330
747D
100
AcDbEntity
  8
部品1
100
AcDbLine
 10
4293.673057123646
 20
6952.086722075337
 30
0.0
 11
4245.673057123645
 21
6952.086722075337
 31
0.0
  0
LINE
  5
17B9F
330
747D
100
AcDbEntity
  8
部品1
 48
50.0
100
AcDbLine
 10
4241.673057123631
 20
10339.08672207539
 30
0.0
 11
4269.673057123629
 21
10339.08672207539
 31
0.0
  0
LINE
  5
17BA0
330
747D
100
AcDbEntity
  8
部品1
 48
50.0
100
AcDbLine
 10
4241.673057123631
 20
10339.08672207549
 30
0.0
 11
4241.673057123629
 21
10367.08672207544
 31
0.0
  0
LINE
  5
17BA1
330
747D
100
AcDbEntity
  8
部品1
 48
50.0
100
AcDbLine
 10
4269.673057123629
 20
10339.08672207539
 30
0.0
 11
4241.673057123631
 21
10367.08672207544
 31
0.0
  0
LINE
  5
17BA2
330
747D
100
AcDbEntity
  8
部品1
100
AcDbLine
 10
4214.673057123664
 20
10367.08672207544
 30
0.0
 11
4214.673057123664
 21
10339.08672207544
 31
0.0
  0
LINE
  5
17BA3
330
747D
100
AcDbEntity
  8
部品1
100
AcDbLine
 10
3794.673057123662
 20
10367.08672207546
 30
0.0
 11
3794.673057123662
 21
10339.08672207546
 31
0.0
  0
LINE
  5
17BA4
330
747D
100
AcDbEntity
  8
部品1
100
AcDbLine
 10
2954.673057123662
 20
10367.08672207534
 30
0.0
 11
2954.673057123662
 21
10339.08672207535
 31
0.0
  0
LINE
  5
17BA5
330
747D
100
AcDbEntity
  8
部品1
100
AcDbLine
 10
2954.673057123662
 20
10367.08672207534
 30
0.0
 11
2954.673057123662
 21
10339.08672207535
 31
0.0
  0
LINE
  5
17BA6
330
747D
100
AcDbEntity
  8
部品1
100
AcDbLine
 10
2954.673057123662
 20
10367.08672207546
 30
0.0
 11
2954.673057123662
 21
10339.08672207546
 31
0.0
  0
LINE
  5
17BA7
330
747D
100
AcDbEntity
  8
部品1
100
AcDbLine
 10
2534.673057123662
 20
10367.08672207534
 30
0.0
 11
2534.673057123662
 21
10339.08672207535
 31
0.0
  0
LINE
  5
17BA8
330
747D
100
AcDbEntity
  8
部品1
100
AcDbLine
 10
2534.673057123662
 20
10367.08672207534
 30
0.0
 11
2534.673057123662
 21
10339.08672207535
 31
0.0
  0
LINE
  5
17BA9
330
747D
100
AcDbEntity
  8
部品1
100
AcDbLine
 10
2534.673057123662
 20
10367.08672207546
 30
0.0
 11
2534.673057123662
 21
10339.08672207546
 31
0.0
  0
LINE
  5
17BAA
330
747D
100
AcDbEntity
  8
部品1
100
AcDbLine
 10
2087.673057123649
 20
10339.08672207546
 30
0.0
 11
3362.173057123661
 21
10339.08672207546
 31
0.0
  0
LINE
  5
17BAB
330
747D
100
AcDbEntity
  8
部品1
100
AcDbLine
 10
3387.173057123663
 20
10339.08672207546
 30
0.0
 11
4241.673057123664
 21
10339.08672207544
 31
0.0
  0
LINE
  5
17BAC
330
747D
100
AcDbEntity
  8
部品1
100
AcDbLine
 10
3339.673057123663
 20
10357.08672207545
 30
0.0
 11
3339.673057123663
 21
10339.08672207545
 31
0.0
  0
LINE
  5
17BAD
330
747D
100
AcDbEntity
  8
部品1
100
AcDbLine
 10
3339.673057123663
 20
10357.08672207545
 30
0.0
 11
3345.673057123664
 21
10357.08672207545
 31
0.0
  0
LINE
  5
17BAE
330
747D
100
AcDbEntity
  8
部品1
100
AcDbLine
 10
3409.673057123664
 20
10357.08672207545
 30
0.0
 11
3409.673057123664
 21
10339.08672207545
 31
0.0
  0
LINE
  5
17BAF
330
747D
100
AcDbEntity
  8
部品1
100
AcDbLine
 10
3403.673057123663
 20
10357.08672207545
 30
0.0
 11
3409.673057123664
 21
10357.08672207545
 31
0.0
  0
LINE
  5
17BB0
330
747D
100
AcDbEntity
  8
部品1
100
AcDbLine
 10
3362.173057123662
 20
10331.08672207544
 30
0.0
 11
3387.173057123663
 21
10331.08672207545
 31
0.0
  0
LINE
  5
17BB1
330
747D
100
AcDbEntity
  8
部品1
100
AcDbLine
 10
3374.673057123664
 20
10367.08672207546
 30
0.0
 11
3374.673057123664
 21
10339.08672207546
 31
0.0
  0
LINE
  5
17BB2
330
747D
100
AcDbEntity
  8
部品1
100
AcDbLine
 10
4324.673057123663
 20
10367.08672207534
 30
0.0
 11
4324.673057123663
 21
10339.08672207535
 31
0.0
  0
LINE
  5
17BB3
330
747D
100
AcDbEntity
  8
部品1
 48
50.0
100
AcDbLine
 10
4214.673057123643
 20
6962.08672207543
 30
0.0
 11
4214.67305712364
 21
6897.08672207543
 31
0.0
  0
LINE
  5
17BB4
330
747D
100
AcDbEntity
  8
部品1
100
AcDbLine
 10
4324.673057123653
 20
6897.08672207534
 30
0.0
 11
4214.673057123643
 21
6897.086722075335
 31
0.0
  0
LINE
  5
17BB5
330
747D
100
AcDbEntity
  8
部品1
 48
50.0
100
AcDbLine
 10
4372.673057123654
 20
6923.086722075344
 30
0.0
 11
4372.673057123654
 21
6932.086722075343
 31
0.0
  0
LINE
  5
17BB6
330
747D
100
AcDbEntity
  8
部品1
 48
50.0
100
AcDbLine
 10
4324.673057123656
 20
6962.086722075341
 30
0.0
 11
4324.673057123653
 21
6897.08672207534
 31
0.0
  0
LINE
  5
17BB7
330
747D
100
AcDbEntity
  8
部品1
100
AcDbLine
 10
4324.673057123656
 20
6933.086722075341
 30
0.0
 11
4301.673057123656
 21
6933.086722075341
 31
0.0
  0
LINE
  5
17BB8
330
747D
100
AcDbEntity
  8
部品1
 48
50.0
100
AcDbLine
 10
4334.673057123657
 20
6923.086722075341
 30
0.0
 11
4324.673057123656
 21
6902.08672207534
 31
0.0
  0
LINE
  5
17BB9
330
747D
100
AcDbEntity
  8
部品1
100
AcDbLine
 10
4372.673057123654
 20
6923.086722075344
 30
0.0
 11
4324.673057123656
 21
6923.086722075341
 31
0.0
  0
LINE
  5
17BBA
330
747D
100
AcDbEntity
  8
部品1
 48
50.0
100
AcDbLine
 10
4372.673057123654
 20
6962.086722075344
 30
0.0
 11
4372.673057123654
 21
6953.08672207534
 31
0.0
  0
LINE
  5
17BBB
330
747D
100
AcDbEntity
  8
部品1
100
AcDbLine
 10
4372.673057123654
 20
6962.086722075344
 30
0.0
 11
4324.673057123656
 21
6962.086722075341
 31
0.0
  0
LINE
  5
17BBC
330
747D
100
AcDbEntity
  8
部品1
100
AcDbLine
 10
4214.673057123636
 20
6933.086722075341
 30
0.0
 11
4237.673057123639
 21
6933.086722075341
 31
0.0
  0
LINE
  5
17BBD
330
747D
100
AcDbEntity
  8
部品1
 48
50.0
100
AcDbLine
 10
4204.673057123637
 20
6923.086722075341
 30
0.0
 11
4214.673057123636
 21
6902.08672207534
 31
0.0
  0
LINE
  5
17BBE
330
747D
100
AcDbEntity
  8
部品1
 48
50.0
100
AcDbLine
 10
4166.673057123636
 20
6923.086722075344
 30
0.0
 11
4166.673057123636
 21
6932.086722075343
 31
0.0
  0
LINE
  5
17BBF
330
747D
100
AcDbEntity
  8
部品1
100
AcDbLine
 10
4166.673057123636
 20
6923.086722075344
 30
0.0
 11
4214.673057123636
 21
6923.086722075341
 31
0.0
  0
LINE
  5
17BC0
330
747D
100
AcDbEntity
  8
部品1
 48
50.0
100
AcDbLine
 10
4166.673057123636
 20
6962.086722075344
 30
0.0
 11
4166.673057123636
 21
6953.08672207534
 31
0.0
  0
LINE
  5
17BC1
330
747D
100
AcDbEntity
  8
部品1
100
AcDbLine
 10
4166.673057123636
 20
6962.086722075344
 30
0.0
 11
4214.67305712364
 21
6962.086722075341
 31
0.0
  0
LINE
  5
17BC2
330
747D
100
AcDbEntity
  8
部品1
 48
50.0
100
AcDbLine
 10
2126.673057123655
 20
6942.586722075339
 30
0.0
 11
4202.67305712364
 21
6942.586722075339
 31
0.0
  0
DIMENSION
  5
17BC3
330
747D
100
AcDbEntity
  8
寸法
 48
50.0
100
AcDbDimension
  2
*D20
 10
2162.673057123657
 20
6362.655951309176
 30
0.0
 11
3164.673057123647
 21
6462.667762332798
 31
0.0
 70
    32
  1
有効開口部間口 <>
 71
     5
 42
2003.99999999998
  3
INABA_S40G
100
AcDbAlignedDimension
 13
4166.673057123636
 23
6923.086722075344
 33
0.0
 14
2162.673057123657
 24
6923.086722075341
 34
0.0
100
AcDbRotatedDimension
1001
ACAD
1000
DSTYLE
1002
{
1070
    75
1070
     1
1070
   279
1070
     2
1002
}
  0
DIMENSION
  5
17BC4
330
747D
100
AcDbEntity
  8
寸法
 48
50.0
100
AcDbDimension
  2
*D19
 10
4166.673057123636
 20
6362.655951309176
 30
0.0
 11
4055.71015947489
 21
6462.655951309177
 31
0.0
 70
   160
 71
     5
 42
48.00000000000363
  3
INABA_S40G
100
AcDbAlignedDimension
 13
4214.67305712364
 23
6897.08672207543
 33
0.0
 14
4166.673057123636
 24
6923.086722075344
 34
0.0
100
AcDbRotatedDimension
1001
ACAD
1000
DSTYLE
1002
{
1070
   279
1070
     2
1002
}
  0
DIMENSION
  5
17C46
330
747D
100
AcDbEntity
  8
寸法
 48
50.0
100
AcDbDimension
  2
*D25
 10
4214.67305712364
 20
6362.655951309178
 30
0.0
 11
4269.673057123646
 21
6210.964056272949
 31
0.0
 70
   160
 71
     5
 42
110.0000000000127
  3
INABA_S40G
100
AcDbAlignedDimension
 13
4324.673057123653
 23
6897.08672207534
 33
0.0
 14
4214.67305712364
 24
6897.08672207543
 34
0.0
100
AcDbRotatedDimension
1001
ACAD
1000
DSTYLE
1002
{
1070
   279
1070
     2
1002
}
  0
DIMENSION
  5
17C47
330
747D
100
AcDbEntity
  8
寸法
 48
50.0
100
AcDbDimension
  2
*D24
 10
4324.673057123653
 20
6362.655951309176
 30
0.0
 11
4485.575028123714
 21
6462.655951309177
 31
0.0
 70
   160
 71
     5
 42
48.00000000000181
  3
INABA_S40G
100
AcDbAlignedDimension
 13
4372.673057123654
 23
6923.086722075341
 33
0.0
 14
4324.673057123653
 24
6897.08672207534
 34
0.0
100
AcDbRotatedDimension
1001
ACAD
1000
DSTYLE
1002
{
1070
   279
1070
     2
1002
}
  0
LINE
  5
17D0F
330
747D
100
AcDbEntity
  8
部品1
100
AcDbLine
 10
8661.673057123655
 20
9892.08672207544
 30
0.0
 11
8689.673057123654
 21
9892.08672207544
 31
0.0
  0
LINE
  5
17D10
330
747D
100
AcDbEntity
  8
部品1
100
AcDbLine
 10
8661.673057123659
 20
8632.086722075435
 30
0.0
 11
8689.673057123659
 21
8632.086722075435
 31
0.0
  0
LINE
  5
17D11
330
747D
100
AcDbEntity
  8
部品1
100
AcDbLine
 10
2087.673057123629
 20
9892.08672207531
 30
0.0
 11
2059.673057123629
 21
9892.08672207531
 31
0.0
  0
LINE
  5
17D12
330
747D
100
AcDbEntity
  8
部品1
100
AcDbLine
 10
2087.673057123633
 20
8632.08672207531
 30
0.0
 11
2059.673057123633
 21
8632.08672207531
 31
0.0
  0
LINE
  5
18097
330
747D
100
AcDbEntity
  8
寸法
 48
50.0
100
AcDbLine
 10
6324.673057123664
 20
10582.89494170044
 30
0.0
 11
5617.901097968022
 21
10582.89494170044
 31
0.0
  0
LINE
  5
18098
330
747D
100
AcDbEntity
  8
寸法
 48
50.0
100
AcDbLine
 10
5131.445016279303
 20
10582.89494170044
 30
0.0
 11
4424.673057123664
 21
10582.89494170044
 31
0.0
  0
TEXT
  5
180AB
330
747D
100
AcDbEntity
  8
文字
 48
50.0
100
AcDbText
 10
5744.946326482197
 20
10613.57970722937
 30
0.0
 40
120.0
  1
2100
  7
STYLE1
100
AcDbText
  0
TEXT
  5
180AD
330
747D
100
AcDbEntity
  8
文字
 48
50.0
100
AcDbText
 10
5600.652295359538
 20
6398.125075912927
 30
0.0
 40
120.0
  1
2004
  7
STYLE1
100
AcDbText
  0
TEXT
  5
180D7
330
747D
100
AcDbEntity
  8
文字
 48
50.0
100
AcDbText
 10
4713.401826075933
 20
10613.57970722937
 30
0.0
 40
120.0
  1
2100
  7
STYLE1
100
AcDbText
  0
LINE
  5
180D8
330
747D
100
AcDbEntity
  8
寸法
 48
50.0
100
AcDbLine
 10
6276.673057123637
 20
6362.655951309176
 30
0.0
 11
5569.901097967999
 21
6362.655951309176
 31
0.0
  0
LINE
  5
180D9
330
747D
100
AcDbEntity
  8
寸法
 48
50.0
100
AcDbLine
 10
5083.445016279276
 20
6362.655951309176
 30
0.0
 11
4376.673057123638
 21
6362.655951309176
 31
0.0
  0
TEXT
  5
180DA
330
747D
100
AcDbEntity
  8
文字
 48
50.0
100
AcDbText
 10
4729.811617545236
 20
6398.125075912927
 30
0.0
 40
120.0
  1
2004
  7
STYLE1
100
AcDbText
  0
LINE
  5
180FF
330
747D
100
AcDbEntity
  8
部品1
100
AcDbLine
 10
2059.673057123657
 20
2126.948501725706
 30
0.0
 11
8689.673057123657
 21
2126.948501725706
 31
0.0
  0
LINE
  5
18100
330
747D
100
AcDbEntity
  8
Ｇ．Ｌ
100
AcDbLine
 10
971.4064544531735
 20
2026.948501725706
 30
0.0
 11
15067.85959757071
 21
2026.948501725706
 31
0.0
  0
LINE
  5
18102
330
747D
100
AcDbEntity
  8
部品1
 48
50.0
100
AcDbLine
 10
6399.673057123635
 20
10287.0867220753
 30
0.0
 11
4349.673057123633
 21
10287.08672207526
 31
0.0
  0
LINE
  5
18103
330
747D
100
AcDbEntity
  8
部品1
100
AcDbLine
 10
6424.673057123643
 20
10312.08672207536
 30
0.0
 11
4324.673057123642
 21
10312.08672207536
 31
0.0
  0
LINE
  5
18106
330
747D
100
AcDbEntity
  8
寸法
 48
50.0
100
AcDbLine
 10
6479.563357233137
 20
10759.35915304135
 30
0.0
 11
6479.563357233137
 21
10898.5102806493
 31
0.0
  0
LINE
  5
18107
330
747D
100
AcDbEntity
  8
寸法
 48
50.0
100
AcDbLine
 10
6479.673057123665
 20
10832.21641525674
 30
0.0
 11
5622.238647055863
 21
10832.21641525674
 31
0.0
  0
LINE
  5
18108
330
747D
100
AcDbEntity
  8
寸法
 48
50.0
100
AcDbLine
 10
4269.673057123664
 20
10832.21641525674
 30
0.0
 11
5137.161027911186
 21
10832.21641525674
 31
0.0
  0
TEXT
  5
18109
330
747D
100
AcDbEntity
  8
文字
 48
50.0
100
AcDbText
 10
5744.946326482197
 20
10876.07362798399
 30
0.0
 40
120.0
  1
2210
  7
STYLE1
100
AcDbText
  0
TEXT
  5
1810A
330
747D
100
AcDbEntity
  8
文字
 48
50.0
100
AcDbText
 10
4713.401826075933
 20
10876.07362798399
 30
0.0
 40
120.0
  1
2210
  7
STYLE1
100
AcDbText
  0
LINE
  5
18157
330
747D
100
AcDbEntity
  8
部品1
100
AcDbLine
 10
4241.673057123651
 20
9892.086722075392
 30
0.0
 11
4269.673057123651
 21
9892.086722075392
 31
0.0
  0
LINE
  5
18158
330
747D
100
AcDbEntity
  8
部品1
100
AcDbLine
 10
4241.673057123651
 20
8632.086722075392
 30
0.0
 11
4269.673057123651
 21
8632.086722075392
 31
0.0
  0
LINE
  5
18159
330
747D
100
AcDbEntity
  8
部品1
100
AcDbLine
 10
4241.673057123651
 20
8212.086722075392
 30
0.0
 11
4269.673057123651
 21
8212.086722075392
 31
0.0
  0
LINE
  5
1815A
330
747D
100
AcDbEntity
  8
部品1
100
AcDbLine
 10
4214.67305712365
 20
6962.08672207529
 30
0.0
 11
4214.673057123643
 21
10312.08672207529
 31
0.0
  0
LINE
  5
1815B
330
747D
100
AcDbEntity
  8
部品1
 48
10.0
100
AcDbLine
 10
4189.673057123656
 20
6962.08672207529
 30
0.0
 11
4189.673057123633
 21
10312.08672207529
 31
0.0
  0
LINE
  5
1815C
330
747D
100
AcDbEntity
  8
部品1
100
AcDbLine
 10
4241.673057123631
 20
10339.08672207539
 30
0.0
 11
4241.673057123615
 21
6897.086722075282
 31
0.0
  0
LINE
  5
1815D
330
747D
100
AcDbEntity
  8
部品1
100
AcDbLine
 10
4324.67305712367
 20
6962.08672207529
 30
0.0
 11
4324.673057123642
 21
10312.08672207528
 31
0.0
  0
LINE
  5
1815E
330
747D
100
AcDbEntity
  8
部品1
 48
10.0
100
AcDbLine
 10
4349.673057123664
 20
6962.08672207529
 30
0.0
 11
4349.673057123617
 21
10312.08672207531
 31
0.0
  0
LINE
  5
1815F
330
747D
100
AcDbEntity
  8
部品1
100
AcDbLine
 10
4297.673057123609
 20
6897.08672207529
 30
0.0
 11
4297.673057123633
 21
10367.08672207534
 31
0.0
  0
LINE
  5
18160
330
747D
100
AcDbEntity
  8
部品1
100
AcDbLine
 10
4269.673057123649
 20
10312.08672207531
 30
0.0
 11
4269.673057123622
 21
6952.086722075285
 31
0.0
  0
LINE
  5
18161
330
747D
100
AcDbEntity
  8
部品1
100
AcDbLine
 10
6479.673057123648
 20
10312.08672207531
 30
0.0
 11
6479.673057123623
 21
6952.086722075285
 31
0.0
  0
LINE
  5
18162
330
747D
100
AcDbEntity
  8
部品1
100
AcDbLine
 10
6507.67305712361
 20
6897.08672207529
 30
0.0
 11
6507.673057123631
 21
10367.08672207534
 31
0.0
  0
LINE
  5
18163
330
747D
100
AcDbEntity
  8
部品1
 48
10.0
100
AcDbLine
 10
6559.673057123664
 20
6962.08672207529
 30
0.0
 11
6559.673057123617
 21
10312.08672207531
 31
0.0
  0
LINE
  5
18164
330
747D
100
AcDbEntity
  8
部品1
100
AcDbLine
 10
6534.673057123669
 20
6962.08672207529
 30
0.0
 11
6534.673057123642
 21
10312.08672207528
 31
0.0
  0
LINE
  5
18165
330
747D
100
AcDbEntity
  8
部品1
100
AcDbLine
 10
6451.673057123631
 20
10339.08672207539
 30
0.0
 11
6451.673057123615
 21
6897.086722075282
 31
0.0
  0
LINE
  5
18166
330
747D
100
AcDbEntity
  8
部品1
 48
10.0
100
AcDbLine
 10
6399.673057123659
 20
6962.08672207529
 30
0.0
 11
6399.673057123633
 21
10312.08672207529
 31
0.0
  0
LINE
  5
18167
330
747D
100
AcDbEntity
  8
部品1
100
AcDbLine
 10
6424.67305712365
 20
6962.08672207529
 30
0.0
 11
6424.673057123643
 21
10312.08672207529
 31
0.0
  0
LINE
  5
18168
330
747D
100
AcDbEntity
  8
部品1
100
AcDbLine
 10
6451.673057123651
 20
8212.086722075392
 30
0.0
 11
6479.673057123651
 21
8212.086722075392
 31
0.0
  0
LINE
  5
18169
330
747D
100
AcDbEntity
  8
部品1
100
AcDbLine
 10
6451.673057123651
 20
8632.086722075392
 30
0.0
 11
6479.673057123651
 21
8632.086722075392
 31
0.0
  0
LINE
  5
1816A
330
747D
100
AcDbEntity
  8
部品1
100
AcDbLine
 10
6451.673057123651
 20
9892.086722075392
 30
0.0
 11
6479.673057123651
 21
9892.086722075392
 31
0.0
  0
LINE
  5
1816B
330
747D
100
AcDbEntity
  8
部品1
 48
50.0
100
AcDbLine
 10
6507.673057123684
 20
10339.0867220752
 30
0.0
 11
6534.673057123673
 21
10312.08672207521
 31
0.0
  0
LINE
  5
1816C
330
747D
100
AcDbEntity
  8
部品1
 48
50.0
100
AcDbLine
 10
6451.673057123699
 20
10339.08672207529
 30
0.0
 11
6424.673057123695
 21
10312.08672207529
 31
0.0
  0
LINE
  5
1816D
330
747D
100
AcDbEntity
  8
部品1
 48
50.0
100
AcDbLine
 10
4297.673057123684
 20
10339.0867220752
 30
0.0
 11
4324.673057123673
 21
10312.08672207521
 31
0.0
  0
LINE
  5
1816E
330
747D
100
AcDbEntity
  8
部品1
 48
50.0
100
AcDbLine
 10
4241.673057123699
 20
10339.08672207529
 30
0.0
 11
4214.673057123695
 21
10312.08672207529
 31
0.0
  0
LINE
  5
1816F
330
747D
100
AcDbEntity
  8
部品1
100
AcDbLine
 10
4214.673057123643
 20
10312.08672207536
 30
0.0
 11
2114.673057123633
 21
10312.08672207536
 31
0.0
  0
LINE
  5
18170
330
747D
100
AcDbEntity
  8
部品1
100
AcDbLine
 10
6507.673057123631
 20
10312.08672207536
 30
0.0
 11
6451.673057123631
 21
10312.08672207536
 31
0.0
  0
LINE
  5
18171
330
747D
100
AcDbEntity
  8
部品1
100
AcDbLine
 10
6451.67305712366
 20
7792.086722075393
 30
0.0
 11
6479.673057123658
 21
7792.086722075393
 31
0.0
  0
LINE
  5
18172
330
747D
100
AcDbEntity
  8
部品1
100
AcDbLine
 10
6451.67305712366
 20
7372.086722075391
 30
0.0
 11
6479.673057123658
 21
7372.086722075391
 31
0.0
  0
LINE
  5
18173
330
747D
100
AcDbEntity
  8
部品1
100
AcDbLine
 10
4241.673057123657
 20
7372.086722075391
 30
0.0
 11
4269.673057123656
 21
7372.086722075391
 31
0.0
  0
LINE
  5
18174
330
747D
100
AcDbEntity
  8
部品1
100
AcDbLine
 10
4241.673057123657
 20
7792.086722075393
 30
0.0
 11
4269.673057123656
 21
7792.086722075393
 31
0.0
  0
LINE
  5
181F6
330
747D
100
AcDbEntity
  8
部品1
100
AcDbLine
 10
8661.673057123659
 20
9052.086722075435
 30
0.0
 11
8689.673057123659
 21
9052.086722075435
 31
0.0
  0
LINE
  5
181F7
330
747D
100
AcDbEntity
  8
部品1
100
AcDbLine
 10
6451.673057123651
 20
9052.086722075392
 30
0.0
 11
6479.673057123651
 21
9052.086722075392
 31
0.0
  0
LINE
  5
181F8
330
747D
100
AcDbEntity
  8
部品1
100
AcDbLine
 10
4241.673057123651
 20
9052.086722075392
 30
0.0
 11
4269.673057123651
 21
9052.086722075392
 31
0.0
  0
LINE
  5
181F9
330
747D
100
AcDbEntity
  8
部品1
100
AcDbLine
 10
2087.673057123633
 20
9052.086722075307
 30
0.0
 11
2059.673057123633
 21
9052.086722075307
 31
0.0
  0
TEXT
  5
1875B
330
747D
100
AcDbEntity
  8
文字
 62
     7
 48
50.0
100
AcDbText
 10
15022.63965474515
 20
9910.01374588372
 30
0.0
 40
100.0
  1
F12,Y10      1.2+1.6
  7
STYLE1
100
AcDbText
  0
TEXT
  5
1875C
330
747D
100
AcDbEntity
  8
文字
 62
     7
 48
50.0
100
AcDbText
 10
13583.11819016568
 20
9910.01374588373
 30
0.0
 40
100.0
  1
梁中
  7
STYLE1
100
AcDbText
  0
TEXT
  5
1875D
330
747D
100
AcDbEntity
  8
文字
 62
     7
 48
50.0
100
AcDbText
 10
13248.77747366448
 20
8720.013745883731
 30
0.0
 40
100.0
  1
14
  7
STYLE1
100
AcDbText
  0
LINE
  5
1875E
330
747D
100
AcDbEntity
  8
仕様書枠
 48
50.0
100
AcDbLine
 10
16307.19999999999
 20
9879.600000000001
 30
0.0
 11
13127.2
 21
9879.600000000001
 31
0.0
  0
LINE
  5
1875F
330
747D
100
AcDbEntity
  8
仕様書枠
 48
50.0
100
AcDbLine
 10
16307.19999999999
 20
11239.6
 30
0.0
 11
13127.2
 21
11239.6
 31
0.0
  0
LINE
  5
18760
330
747D
100
AcDbEntity
  8
仕様書枠
 48
50.0
100
AcDbLine
 10
16307.19999999999
 20
8179.599999999998
 30
0.0
 11
16307.2
 21
11239.6
 31
0.0
  0
LINE
  5
18761
330
747D
100
AcDbEntity
  8
仕様書枠
 48
50.0
100
AcDbLine
 10
14785.2
 20
11239.59999999999
 30
0.0
 11
14785.2
 21
8689.6
 31
0.0
  0
LINE
  5
18762
330
747D
100
AcDbEntity
  8
仕様書枠
 48
50.0
100
AcDbLine
 10
13490.2
 20
11239.6
 30
0.0
 11
13490.20000000001
 21
8689.600000000003
 31
0.0
  0
LINE
  5
18763
330
747D
100
AcDbEntity
  8
仕様書枠
 48
50.0
100
AcDbLine
 10
16307.19999999999
 20
11069.6
 30
0.0
 11
13127.2
 21
11069.6
 31
0.0
  0
LINE
  5
18764
330
747D
100
AcDbEntity
  8
仕様書枠
 48
50.0
100
AcDbLine
 10
16307.19999999999
 20
10729.6
 30
0.0
 11
13127.2
 21
10729.6
 31
0.0
  0
LINE
  5
18765
330
747D
100
AcDbEntity
  8
仕様書枠
 48
50.0
100
AcDbLine
 10
16307.19999999999
 20
10899.6
 30
0.0
 11
13127.2
 21
10899.6
 31
0.0
  0
LINE
  5
18766
330
747D
100
AcDbEntity
  8
仕様書枠
 48
50.0
100
AcDbLine
 10
16307.19999999999
 20
10389.6
 30
0.0
 11
13127.19999999999
 21
10389.6
 31
0.0
  0
LINE
  5
18767
330
747D
100
AcDbEntity
  8
仕様書枠
 48
50.0
100
AcDbLine
 10
16307.19999999999
 20
10219.6
 30
0.0
 11
13127.19999999999
 21
10219.6
 31
0.0
  0
LINE
  5
18768
330
747D
100
AcDbEntity
  8
仕様書枠
 48
50.0
100
AcDbLine
 10
16307.19999999999
 20
10559.6
 30
0.0
 11
13127.19999999999
 21
10559.6
 31
0.0
  0
TEXT
  5
18769
330
747D
100
AcDbEntity
  8
文字
 62
     7
 48
50.0
100
AcDbText
 10
13197.42518560407
 20
11100.01374588372
 30
0.0
 40
100.0
  1
品番
  7
STYLE1
100
AcDbText
  0
TEXT
  5
1876A
330
747D
100
AcDbEntity
  8
文字
 62
     7
 48
50.0
100
AcDbText
 10
13271.19032244792
 20
10930.01374588373
 30
0.0
 40
100.0
  1
1
  7
STYLE1
100
AcDbText
  0
TEXT
  5
1876B
330
747D
100
AcDbEntity
  8
文字
 62
     7
 48
50.0
100
AcDbText
 10
13271.19032244792
 20
10760.01374588373
 30
0.0
 40
100.0
  1
2
  7
STYLE1
100
AcDbText
  0
TEXT
  5
1876C
330
747D
100
AcDbEntity
  8
文字
 62
     7
 48
50.0
100
AcDbText
 10
13271.19032244792
 20
10420.01374588373
 30
0.0
 40
100.0
  1
4
  7
STYLE1
100
AcDbText
  0
TEXT
  5
1876D
330
747D
100
AcDbEntity
  8
文字
 62
     7
 48
50.0
100
AcDbText
 10
13271.19032244792
 20
10590.01374588373
 30
0.0
 40
100.0
  1
3
  7
STYLE1
100
AcDbText
  0
TEXT
  5
1876E
330
747D
100
AcDbEntity
  8
文字
 62
     7
 48
50.0
100
AcDbText
 10
13732.03840939434
 20
11100.01374588372
 30
0.0
 40
100.0
  1
部　　品　　名
  7
STYLE1
100
AcDbText
  0
TEXT
  5
1876F
330
747D
100
AcDbEntity
  8
文字
 62
     7
 48
50.0
100
AcDbText
 10
14859.79774614482
 20
11100.01374588372
 30
0.0
 40
100.0
  1
材料（材質）　　単位mm
  7
STYLE1
100
AcDbText
  0
TEXT
  5
18770
330
747D
100
AcDbEntity
  8
文字
 62
     7
 48
50.0
100
AcDbText
 10
13583.11819016569
 20
10930.01374588373
 30
0.0
 40
100.0
  1
土台枠
  7
STYLE1
100
AcDbText
  0
TEXT
  5
18771
330
747D
100
AcDbEntity
  8
文字
 62
     7
 48
50.0
100
AcDbText
 10
13583.11819016569
 20
10760.01374588372
 30
0.0
 40
100.0
  1
柱
  7
STYLE1
100
AcDbText
  0
TEXT
  5
18772
330
747D
100
AcDbEntity
  8
文字
 62
     7
 48
50.0
100
AcDbText
 10
13583.11819016568
 20
10590.01374588372
 30
0.0
 40
100.0
  1
桁前
  7
STYLE1
100
AcDbText
  0
TEXT
  5
18773
330
747D
100
AcDbEntity
  8
文字
 62
     7
 48
50.0
100
AcDbText
 10
13583.11819016568
 20
10420.01374588373
 30
0.0
 40
100.0
  1
桁後
  7
STYLE1
100
AcDbText
  0
TEXT
  5
18774
330
747D
100
AcDbEntity
  8
文字
 62
     7
 48
50.0
100
AcDbText
 10
13271.19032244792
 20
10250.01374588372
 30
0.0
 40
100.0
  1
5
  7
STYLE1
100
AcDbText
  0
TEXT
  5
18775
330
747D
100
AcDbEntity
  8
文字
 62
     7
 48
50.0
100
AcDbText
 10
13583.11819016568
 20
10250.01374588372
 30
0.0
 40
100.0
  1
妻板左右
  7
STYLE1
100
AcDbText
  0
TEXT
  5
18776
330
747D
100
AcDbEntity
  8
文字
 62
     7
 48
50.0
100
AcDbText
 10
13583.11819016568
 20
8890.013745883729
 30
0.0
 40
100.0
  1
シャッターレール
  7
STYLE1
100
AcDbText
  0
TEXT
  5
18777
330
747D
100
AcDbEntity
  8
文字
 62
     7
 48
50.0
100
AcDbText
 10
13248.77747366448
 20
9400.013745883729
 30
0.0
 40
100.0
  1
10
  7
STYLE1
100
AcDbText
  0
TEXT
  5
18778
330
747D
100
AcDbEntity
  8
文字
 62
     7
 48
50.0
100
AcDbText
 10
13583.11819016568
 20
9400.013745883729
 30
0.0
 40
100.0
  1
壁パネル
  7
STYLE1
100
AcDbText
  0
TEXT
  5
18779
330
747D
100
AcDbEntity
  8
文字
 62
     7
 48
50.0
100
AcDbText
 10
13583.11819016568
 20
9570.013745883729
 30
0.0
 40
100.0
  1
屋根パネル
  7
STYLE1
100
AcDbText
  0
TEXT
  5
1877A
330
747D
100
AcDbEntity
  8
文字
 62
     7
 48
50.0
100
AcDbText
 10
13583.11819016568
 20
9740.013745883729
 30
0.0
 40
100.0
  1
母屋中
  7
STYLE1
100
AcDbText
  0
TEXT
  5
1877B
330
747D
100
AcDbEntity
  8
文字
 62
     7
 48
50.0
100
AcDbText
 10
13583.11819016568
 20
10080.01374588373
 30
0.0
 40
100.0
  1
鼻隠シ前後
  7
STYLE1
100
AcDbText
  0
TEXT
  5
1877C
330
747D
100
AcDbEntity
  8
文字
 62
     7
 48
50.0
100
AcDbText
 10
13271.19032244792
 20
9740.013745883729
 30
0.0
 40
100.0
  1
8
  7
STYLE1
100
AcDbText
  0
TEXT
  5
1877D
330
747D
100
AcDbEntity
  8
文字
 62
     7
 48
50.0
100
AcDbText
 10
13271.19032244792
 20
9570.013745883729
 30
0.0
 40
100.0
  1
9
  7
STYLE1
100
AcDbText
  0
TEXT
  5
1877E
330
747D
100
AcDbEntity
  8
文字
 62
     7
 48
50.0
100
AcDbText
 10
13271.19032244792
 20
9910.01374588373
 30
0.0
 40
100.0
  1
7
  7
STYLE1
100
AcDbText
  0
TEXT
  5
1877F
330
747D
100
AcDbEntity
  8
文字
 62
     7
 48
50.0
100
AcDbText
 10
13271.19032244792
 20
10080.01374588373
 30
0.0
 40
100.0
  1
6
  7
STYLE1
100
AcDbText
  0
LINE
  5
18780
330
747D
100
AcDbEntity
  8
仕様書枠
 48
50.0
100
AcDbLine
 10
16307.19999999999
 20
9539.6
 30
0.0
 11
13127.19999999999
 21
9539.6
 31
0.0
  0
LINE
  5
18781
330
747D
100
AcDbEntity
  8
仕様書枠
 48
50.0
100
AcDbLine
 10
16307.19999999999
 20
9199.599999999996
 30
0.0
 11
13127.19999999999
 21
9199.600000000001
 31
0.0
  0
LINE
  5
18782
330
747D
100
AcDbEntity
  8
仕様書枠
 48
50.0
100
AcDbLine
 10
16307.19999999999
 20
9369.599999999996
 30
0.0
 11
13127.19999999999
 21
9369.600000000001
 31
0.0
  0
LINE
  5
18783
330
747D
100
AcDbEntity
  8
仕様書枠
 48
50.0
100
AcDbLine
 10
16307.19999999999
 20
10049.6
 30
0.0
 11
13127.2
 21
10049.6
 31
0.0
  0
LINE
  5
18784
330
747D
100
AcDbEntity
  8
仕様書枠
 48
50.0
100
AcDbLine
 10
16307.19999999999
 20
9709.600000000001
 30
0.0
 11
13127.2
 21
9709.600000000001
 31
0.0
  0
TEXT
  5
18785
330
747D
100
AcDbEntity
  8
文字
 62
     7
 48
50.0
100
AcDbText
 10
13248.77747366448
 20
9230.013745883729
 30
0.0
 40
100.0
  1
11
  7
STYLE1
100
AcDbText
  0
TEXT
  5
18786
330
747D
100
AcDbEntity
  8
文字
 62
     7
 48
50.0
100
AcDbText
 10
13583.11819016568
 20
9060.013745883729
 30
0.0
 40
100.0
  1
シャッターカバー
 41
0.9
  7
STYLE1
100
AcDbText
  0
LINE
  5
18787
330
747D
100
AcDbEntity
  8
仕様書枠
 48
50.0
100
AcDbLine
 10
16307.19999999999
 20
9029.599999999996
 30
0.0
 11
13127.19999999999
 21
9029.6
 31
0.0
  0
TEXT
  5
18789
330
747D
100
AcDbEntity
  8
文字
 62
     7
 48
50.0
100
AcDbText
 10
13583.11819016568
 20
8720.013745883729
 30
0.0
 40
100.0
  1
棚板（別売）
  7
STYLE1
100
AcDbText
  0
LINE
  5
1878A
330
747D
100
AcDbEntity
  8
仕様書枠
 48
50.0
100
AcDbLine
 10
16307.19999999999
 20
8859.6
 30
0.0
 11
13127.19999999999
 21
8859.600000000002
 31
0.0
  0
TEXT
  5
1878B
330
747D
100
AcDbEntity
  8
文字
 62
     7
 48
50.0
100
AcDbText
 10
13583.11819016568
 20
9230.013745883731
 30
0.0
 40
100.0
  1
シャッター
  7
STYLE1
100
AcDbText
  0
TEXT
  5
1878C
330
747D
100
AcDbEntity
  8
文字
 62
     7
 48
50.0
100
AcDbText
 10
13248.77747366448
 20
8890.013745883729
 30
0.0
 40
100.0
  1
13
  7
STYLE1
100
AcDbText
  0
TEXT
  5
1878D
330
747D
100
AcDbEntity
  8
文字
 62
     7
 48
50.0
100
AcDbText
 10
13248.77747366448
 20
9060.013745883729
 30
0.0
 40
100.0
  1
12
  7
STYLE1
100
AcDbText
  0
TEXT
  5
1878E
330
747D
100
AcDbEntity
  8
文字
 62
     7
 48
50.0
100
AcDbText
 10
15022.63965474517
 20
10930.01374588372
 30
0.0
 40
100.0
  1
F12            1.2
  7
STYLE1
100
AcDbText
  0
TEXT
  5
18790
330
747D
100
AcDbEntity
  8
文字
 62
     7
 48
50.0
100
AcDbText
 10
15022.63965474515
 20
10590.01374588372
 30
0.0
 40
100.0
  1
Y10            1.0
  7
STYLE1
100
AcDbText
  0
TEXT
  5
18791
330
747D
100
AcDbEntity
  8
文字
 62
     7
 48
50.0
100
AcDbText
 10
15022.63965474515
 20
10420.01374588372
 30
0.0
 40
100.0
  1
Y10            1.0
  7
STYLE1
100
AcDbText
  0
TEXT
  5
18792
330
747D
100
AcDbEntity
  8
文字
 62
     7
 48
50.0
100
AcDbText
 10
15022.63965474515
 20
10250.01374588372
 30
0.0
 40
100.0
  1
Y10            0.7
  7
STYLE1
100
AcDbText
  0
TEXT
  5
18793
330
747D
100
AcDbEntity
  8
文字
 62
     7
 48
50.0
100
AcDbText
 10
15022.63965474515
 20
10080.01374588372
 30
0.0
 40
100.0
  1
Y10            0.7
  7
STYLE1
100
AcDbText
  0
TEXT
  5
18795
330
747D
100
AcDbEntity
  8
文字
 62
     7
 48
50.0
100
AcDbText
 10
15022.63965474516
 20
9570.013745883723
 30
0.0
 40
100.0
  1
Y10            0.5
  7
STYLE1
100
AcDbText
  0
TEXT
  5
18796
330
747D
100
AcDbEntity
  8
文字
 62
     7
 48
50.0
100
AcDbText
 10
15022.63965474515
 20
9400.013745883724
 30
0.0
 40
100.0
  1
F12            0.7
  7
STYLE1
100
AcDbText
  0
TEXT
  5
18797
330
747D
100
AcDbEntity
  8
文字
 62
     7
 48
50.0
100
AcDbText
 10
14850.83183167175
 20
8890.013745883724
 30
0.0
 40
100.0
  1
アルミニウム合金押出形材
  7
STYLE1
100
AcDbText
  0
TEXT
  5
18799
330
747D
100
AcDbEntity
  8
文字
 62
     7
 48
50.0
100
AcDbText
 10
15022.63965474514
 20
9230.013745883724
 30
0.0
 40
100.0
  1
Z08            0.5
  7
STYLE1
100
AcDbText
  0
TEXT
  5
1879A
330
747D
100
AcDbEntity
  8
文字
 62
     7
 48
50.0
100
AcDbText
 10
15022.63965474514
 20
8720.013745883727
 30
0.0
 40
100.0
  1
F12            0.6
  7
STYLE1
100
AcDbText
  0
LINE
  5
1879B
330
747D
100
AcDbEntity
  8
仕様書枠
 48
50.0
100
AcDbLine
 10
16307.19999999996
 20
8519.599999999998
 30
0.0
 11
13127.19999999997
 21
8519.600000000002
 31
0.0
  0
LINE
  5
1879C
330
747D
100
AcDbEntity
  8
仕様書枠
 48
50.0
100
AcDbLine
 10
16307.19999999996
 20
8349.6
 30
0.0
 11
13127.19999999997
 21
8349.6
 31
0.0
  0
LINE
  5
1879D
330
747D
100
AcDbEntity
  8
仕様書枠
 48
50.0
100
AcDbLine
 10
16307.19999999996
 20
8179.599999999998
 30
0.0
 11
13127.19999999997
 21
8179.6
 31
0.0
  0
TEXT
  5
1879E
330
747D
100
AcDbEntity
  8
文字
 62
     7
 48
50.0
100
AcDbText
 10
13229.83081656552
 20
8550.013745883727
 30
0.0
 40
100.0
  1
F12→溶融亜鉛めっき鋼板(JIS G 3302)
  7
STYLE1
100
AcDbText
  0
TEXT
  5
1879F
330
747D
100
AcDbEntity
  8
文字
 62
     7
 48
50.0
100
AcDbText
 10
13229.83081656551
 20
8380.013745883728
 30
0.0
 40
100.0
  1
Y10→溶融亜鉛-5％アルミニウム合金めっき鋼板(JIS G 3317)
 41
0.9
  7
STYLE1
100
AcDbText
  0
TEXT
  5
187A0
330
747D
100
AcDbEntity
  8
文字
 62
     7
 48
50.0
100
AcDbText
 10
13229.83081656552
 20
8210.013745883729
 30
0.0
 40
100.0
  1
Z08→塗装溶融亜鉛めっき鋼板(JIS G 3313)
  7
STYLE1
100
AcDbText
  0
LINE
  5
187A1
330
747D
100
AcDbEntity
  8
仕様書枠
 48
50.0
100
AcDbLine
 10
13127.2
 20
11239.6
 30
0.0
 11
13127.2
 21
8179.599999999998
 31
0.0
  0
TEXT
  5
18DE2
330
747D
100
AcDbEntity
  8
文字
 62
     7
 48
50.0
100
AcDbText
 10
14243.55185591683
 20
483.8967129911416
 30
0.0
 40
160.0
  1
FXN-2234HL-N
  7
MSPゴシック
100
AcDbText
  0
LINE
  5
192DE
330
747D
100
AcDbEntity
  8
補助
  6
PHANTOM
 62
   230
 48
50.0
100
AcDbLine
 10
140.0
 20
0.0
 30
0.0
 11
140.0
 21
11409.6
 31
0.0
  0
DIMENSION
  5
195FF
330
747D
100
AcDbEntity
  8
寸法
 48
50.0
100
AcDbDimension
  2
*D26
 10
2059.673057123653
 20
4907.674773457614
 30
0.0
 11
5374.673057123656
 21
5007.686584481237
 31
0.0
 70
    32
  1
柱外寸法 N X 2210
 71
     5
 42
6630.000000000006
  3
INABA_S40G
100
AcDbAlignedDimension
 13
8689.673057123659
 23
4501.948501725713
 33
0.0
 14
2059.673057123653
 24
4501.948501725712
 34
0.0
100
AcDbRotatedDimension
  0
DIMENSION
  5
19600
330
747D
100
AcDbEntity
  8
寸法
 48
50.0
100
AcDbDimension
  2
*D27
 10
8739.673057123653
 20
5107.583694671706
 30
0.0
 11
5374.673057123653
 21
5107.583694671706
 31
0.0
 70
   160
  1
N X 2210+100
 71
     5
 42
6730.0
  3
INABA_S40G
100
AcDbAlignedDimension
 13
2009.673057123653
 23
4501.948501725712
 33
0.0
 14
8739.673057123653
 24
4501.94850172571
 34
0.0
100
AcDbRotatedDimension
  0
DIMENSION
  5
19601
330
747D
100
AcDbEntity
  8
寸法
 48
50.0
100
AcDbDimension
  2
*D28
 10
2009.673057123653
 20
4907.674773457614
 30
0.0
 11
1696.187775749406
 21
4907.674773457614
 31
0.0
 70
   160
 71
     5
 42
50.0
  3
INABA_S40G
100
AcDbAlignedDimension
 13
2059.673057123653
 23
4501.948501725713
 33
0.0
 14
2009.673057123653
 24
4501.948501725713
 34
0.0
100
AcDbRotatedDimension
1001
ACAD
1000
DSTYLE
1002
{
1002
}
  0
LINE
  5
19602
330
747D
100
AcDbEntity
  8
部品1
100
AcDbLine
 10
2010.092718138984
 20
4494.551976330472
 30
0.0
 11
2011.226115471332
 21
4474.575848347873
 31
0.0
  0
LINE
  5
19603
330
747D
100
AcDbEntity
  8
部品1
100
AcDbLine
 10
2022.663135792913
 20
4378.91844118081
 30
0.0
 11
2023.308041600021
 21
4367.551976330471
 31
0.0
  0
LINE
  5
19604
330
747D
100
AcDbEntity
  8
部品1
100
AcDbLine
 10
2014.427105268062
 20
4471.118441180813
 30
0.0
 11
2019.462145996176
 21
4382.37584834787
 31
0.0
  0
ARC
  5
19605
330
747D
100
AcDbEntity
  8
部品1
 48
50.0
100
AcDbCircle
 10
2011.431922371876
 20
4470.948501725714
 30
0.0
 40
3.0
100
AcDbArc
 50
3.247342790331776
 51
82.34187279263656
  0
ARC
  5
19606
330
747D
100
AcDbEntity
  8
部品1
 48
50.0
100
AcDbCircle
 10
2019.66795289672
 20
4378.748501725709
 30
0.0
 40
3.0
100
AcDbArc
 50
3.247342790331776
 51
82.34187279263656
  0
ARC
  5
19607
330
747D
100
AcDbEntity
  8
部品1
 48
50.0
100
AcDbCircle
 10
2020.161022005281
 20
4382.415500887392
 30
0.0
 40
0.7
100
AcDbArc
 50
183.2473427903316
 51
262.3418727926365
  0
ARC
  5
19608
330
747D
100
AcDbEntity
  8
部品1
 48
50.0
100
AcDbCircle
 10
2011.924991480444
 20
4474.615500887395
 30
0.0
 40
0.7
100
AcDbArc
 50
183.2473427903316
 51
262.3418727926365
  0
ARC
  5
19609
330
747D
100
AcDbEntity
  8
部品1
100
AcDbCircle
 10
2030.296801691116
 20
4367.948501725714
 30
0.0
 40
7.0
100
AcDbArc
 50
183.2473427903316
 51
270.0
  0
ARC
  5
1960A
330
747D
100
AcDbEntity
  8
部品1
100
AcDbCircle
 10
2017.081478230086
 20
4494.94850172571
 30
0.0
 40
7.0
100
AcDbArc
 50
90.0
 51
183.2473427903316
  0
LINE
  5
1960B
330
747D
100
AcDbEntity
  8
細線
 48
50.0
100
AcDbLine
 10
2042.673057123653
 20
4501.94850172571
 30
0.0
 11
2042.673057123653
 21
4360.94850172571
 31
0.0
  0
LINE
  5
1960C
330
747D
100
AcDbEntity
  8
部品1
100
AcDbLine
 10
2059.673057123653
 20
4266.948501725704
 30
0.0
 11
8689.673057123657
 21
4266.948501725703
 31
0.0
  0
DIMENSION
  5
19611
330
747D
100
AcDbEntity
  8
寸法
 48
50.0
100
AcDbDimension
  2
*D29
 10
8689.673057123659
 20
4907.674773457622
 30
0.0
 11
9053.158338497894
 21
4907.674773457622
 31
0.0
 70
   160
 71
     5
 42
49.99999999999454
  3
INABA_S40G
100
AcDbAlignedDimension
 13
8739.673057123653
 23
4501.94850172571
 33
0.0
 14
8689.673057123659
 24
4501.948501725713
 34
0.0
100
AcDbRotatedDimension
  0
ARC
  5
19612
330
747D
100
AcDbEntity
  8
部品1
100
AcDbCircle
 10
8732.264636017225
 20
4494.948501725714
 30
0.0
 40
7.0
100
AcDbArc
 50
356.7526572096682
 51
90.0
  0
ARC
  5
19613
330
747D
100
AcDbEntity
  8
部品1
100
AcDbCircle
 10
8719.049312556192
 20
4367.948501725714
 30
0.0
 40
7.0
100
AcDbArc
 50
270.0
 51
356.7526572096682
  0
ARC
  5
19614
330
747D
100
AcDbEntity
  8
部品1
 48
50.0
100
AcDbCircle
 10
8737.421122766868
 20
4474.615500887395
 30
0.0
 40
0.7
100
AcDbArc
 50
277.6581272073635
 51
356.7526572096682
  0
ARC
  5
19615
330
747D
100
AcDbEntity
  8
部品1
 48
50.0
100
AcDbCircle
 10
8729.185092242026
 20
4382.415500887396
 30
0.0
 40
0.7
100
AcDbArc
 50
277.6581272073635
 51
356.7526572096682
  0
ARC
  5
19616
330
747D
100
AcDbEntity
  8
部品1
 48
50.0
100
AcDbCircle
 10
8729.678161350589
 20
4378.748501725709
 30
0.0
 40
3.0
100
AcDbArc
 50
97.65812720736349
 51
176.7526572096682
  0
ARC
  5
19617
330
747D
100
AcDbEntity
  8
部品1
 48
50.0
100
AcDbCircle
 10
8737.914191875432
 20
4470.948501725714
 30
0.0
 40
3.0
100
AcDbArc
 50
97.65812720736349
 51
176.7526572096682
  0
LINE
  5
19618
330
747D
100
AcDbEntity
  8
部品1
100
AcDbLine
 10
8734.919008979247
 20
4471.118441180816
 30
0.0
 11
8729.883968251135
 21
4382.37584834787
 31
0.0
  0
LINE
  5
19619
330
747D
100
AcDbEntity
  8
部品1
100
AcDbLine
 10
8726.682978454398
 20
4378.91844118081
 30
0.0
 11
8726.038072647289
 21
4367.551976330473
 31
0.0
  0
LINE
  5
1961A
330
747D
100
AcDbEntity
  8
細線
 48
50.0
100
AcDbLine
 10
8706.673057123655
 20
4501.948501725713
 30
0.0
 11
8706.673057123655
 21
4360.948501725714
 31
0.0
  0
LINE
  5
1961B
330
747D
100
AcDbEntity
  8
部品1
100
AcDbLine
 10
8739.253396108324
 20
4494.551976330472
 30
0.0
 11
8738.119998775976
 21
4474.575848347875
 31
0.0
  0
LINE
  5
1961C
330
747D
100
AcDbEntity
  8
部品1
 48
50.0
100
AcDbLine
 10
4259.673057123657
 20
4360.94850172571
 30
0.0
 11
4259.673057123657
 21
4501.94850172571
 31
0.0
  0
LINE
  5
1961D
330
747D
100
AcDbEntity
  8
部品1
 48
50.0
100
AcDbLine
 10
4269.673057123656
 20
4101.948501725707
 30
0.0
 11
4269.673057123656
 21
4360.94850172571
 31
0.0
  0
LINE
  5
1961E
330
747D
100
AcDbEntity
  8
部品1
 48
50.0
100
AcDbLine
 10
6479.673057123658
 20
4101.948501725707
 30
0.0
 11
6479.673057123658
 21
4360.94850172571
 31
0.0
  0
LINE
  5
1961F
330
747D
100
AcDbEntity
  8
部品1
 48
50.0
100
AcDbLine
 10
6469.673057123658
 20
4360.94850172571
 30
0.0
 11
6469.673057123657
 21
4501.94850172571
 31
0.0
  0
LINE
  5
19621
330
747D
100
AcDbEntity
  8
部品1
 48
50.0
100
AcDbLine
 10
8719.049312556192
 20
4360.948501725714
 30
0.0
 11
2030.296801691116
 21
4360.948501725714
 31
0.0
  0
LINE
  5
19622
330
747D
100
AcDbEntity
  8
細線
 48
50.0
100
AcDbLine
 10
8729.397488377344
 20
4381.748501725701
 30
0.0
 11
2019.948625869924
 21
4381.748501725713
 31
0.0
  0
LINE
  5
19623
330
747D
100
AcDbEntity
  8
細線
 48
50.0
100
AcDbLine
 10
8737.633518902212
 20
4473.948501725709
 30
0.0
 11
2011.712595345094
 21
4473.94850172571
 31
0.0
  0
LINE
  5
19624
330
747D
100
AcDbEntity
  8
部品1
 48
50.0
100
AcDbLine
 10
8732.264636017225
 20
4501.948501725705
 30
0.0
 11
2017.081478230086
 21
4501.948501725713
 31
0.0
  0
ARC
  5
19625
330
747D
100
AcDbEntity
  8
部品1
 48
0.01
100
AcDbCircle
 10
3691.673057123658
 20
4299.448501725707
 30
0.0
 40
2.0
100
AcDbArc
 50
180.0
 51
270.0
  0
ARC
  5
19626
330
747D
100
AcDbEntity
  8
部品1
 48
0.01
100
AcDbCircle
 10
3691.673057123655
 20
4330.948501725706
 30
0.0
 40
2.0
100
AcDbArc
 50
90.0
 51
180.0
  0
ARC
  5
19627
330
747D
100
AcDbEntity
  8
部品1
 48
0.01
100
AcDbCircle
 10
3867.673057123655
 20
4299.448501725707
 30
0.0
 40
2.0
100
AcDbArc
 50
270.0
 51
0.0
  0
ARC
  5
19628
330
747D
100
AcDbEntity
  8
部品1
 48
0.01
100
AcDbCircle
 10
3867.673057123655
 20
4330.948501725706
 30
0.0
 40
2.0
100
AcDbArc
 50
0.0
 51
90.0
  0
LINE
  5
19629
330
747D
100
AcDbEntity
  8
細線
100
AcDbLine
 10
3779.673057123659
 20
4303.448501725706
 30
0.0
 11
3705.673057123655
 21
4303.448501725706
 31
0.0
  0
LINE
  5
1962A
330
747D
100
AcDbEntity
  8
細線
100
AcDbLine
 10
3779.673057123655
 20
4326.448501725705
 30
0.0
 11
3853.673057123655
 21
4326.448501725705
 31
0.0
  0
LINE
  5
1962B
330
747D
100
AcDbEntity
  8
細線
100
AcDbLine
 10
3853.673057123655
 20
4303.448501725706
 30
0.0
 11
3779.673057123655
 21
4303.448501725706
 31
0.0
  0
LINE
  5
1962C
330
747D
100
AcDbEntity
  8
細線
100
AcDbLine
 10
3705.673057123655
 20
4326.448501725705
 30
0.0
 11
3779.673057123655
 21
4326.448501725705
 31
0.0
  0
LINE
  5
1962D
330
747D
100
AcDbEntity
  8
細線
100
AcDbLine
 10
3705.673057123655
 20
4303.448501725706
 30
0.0
 11
3705.673057123655
 21
4326.448501725705
 31
0.0
  0
LINE
  5
1962E
330
747D
100
AcDbEntity
  8
細線
100
AcDbLine
 10
3853.673057123655
 20
4326.448501725705
 30
0.0
 11
3853.673057123655
 21
4303.448501725706
 31
0.0
  0
LINE
  5
1962F
330
747D
100
AcDbEntity
  8
部品1
 48
0.01
100
AcDbLine
 10
3689.673057123659
 20
4299.448501725707
 30
0.0
 11
3689.673057123657
 21
4330.948501725706
 31
0.0
  0
LINE
  5
19630
330
747D
100
AcDbEntity
  8
部品1
 48
0.01
100
AcDbLine
 10
3867.673057123655
 20
4297.448501725704
 30
0.0
 11
3691.673057123658
 21
4297.448501725704
 31
0.0
  0
LINE
  5
19631
330
747D
100
AcDbEntity
  8
部品1
 48
0.01
100
AcDbLine
 10
3869.673057123655
 20
4330.948501725706
 30
0.0
 11
3869.673057123655
 21
4299.448501725707
 31
0.0
  0
LINE
  5
19632
330
747D
100
AcDbEntity
  8
部品1
 48
0.01
100
AcDbLine
 10
3691.673057123655
 20
4332.948501725706
 30
0.0
 11
3867.673057123655
 21
4332.948501725706
 31
0.0
  0
LINE
  5
19633
330
747D
100
AcDbEntity
  8
細線
100
AcDbLine
 10
3853.673057123655
 20
4320.448501725706
 30
0.0
 11
3779.673057123655
 21
4320.448501725706
 31
0.0
  0
LINE
  5
19634
330
747D
100
AcDbEntity
  8
細線
100
AcDbLine
 10
3853.673057123655
 20
4314.448501725706
 30
0.0
 11
3779.673057123655
 21
4314.448501725706
 31
0.0
  0
LINE
  5
19635
330
747D
100
AcDbEntity
  8
細線
100
AcDbLine
 10
3853.673057123659
 20
4308.448501725706
 30
0.0
 11
3779.673057123655
 21
4308.448501725706
 31
0.0
  0
LINE
  5
19636
330
747D
100
AcDbEntity
  8
細線
100
AcDbLine
 10
3853.673057123655
 20
4320.448501725706
 30
0.0
 11
3784.673057123655
 21
4320.448501725706
 31
0.0
  0
LINE
  5
19637
330
747D
100
AcDbEntity
  8
細線
100
AcDbLine
 10
3705.673057123661
 20
4320.448501725706
 30
0.0
 11
3779.673057123655
 21
4320.448501725706
 31
0.0
  0
LINE
  5
19638
330
747D
100
AcDbEntity
  8
細線
100
AcDbLine
 10
3705.673057123661
 20
4308.448501725706
 30
0.0
 11
3779.673057123655
 21
4308.448501725706
 31
0.0
  0
LINE
  5
19639
330
747D
100
AcDbEntity
  8
細線
100
AcDbLine
 10
3705.673057123661
 20
4314.448501725706
 30
0.0
 11
3779.673057123655
 21
4314.448501725706
 31
0.0
  0
LINE
  5
1963A
330
747D
100
AcDbEntity
  8
細線
100
AcDbLine
 10
3779.673057123655
 20
4326.448501725705
 30
0.0
 11
3779.673057123659
 21
4303.448501725706
 31
0.0
  0
LINE
  5
1963B
330
747D
100
AcDbEntity
  8
細線
100
AcDbLine
 10
2549.673057123657
 20
4326.448501725705
 30
0.0
 11
2549.673057123657
 21
4303.448501725706
 31
0.0
  0
LINE
  5
1963C
330
747D
100
AcDbEntity
  8
細線
100
AcDbLine
 10
2623.673057123657
 20
4314.448501725706
 30
0.0
 11
2549.673057123657
 21
4314.448501725706
 31
0.0
  0
LINE
  5
1963D
330
747D
100
AcDbEntity
  8
細線
100
AcDbLine
 10
2623.673057123657
 20
4308.448501725706
 30
0.0
 11
2549.673057123657
 21
4308.448501725706
 31
0.0
  0
LINE
  5
1963E
330
747D
100
AcDbEntity
  8
細線
100
AcDbLine
 10
2623.673057123657
 20
4320.448501725706
 30
0.0
 11
2549.673057123657
 21
4320.448501725706
 31
0.0
  0
LINE
  5
1963F
330
747D
100
AcDbEntity
  8
細線
100
AcDbLine
 10
2475.673057123657
 20
4320.448501725706
 30
0.0
 11
2544.673057123657
 21
4320.448501725706
 31
0.0
  0
LINE
  5
19640
330
747D
100
AcDbEntity
  8
細線
100
AcDbLine
 10
2475.673057123657
 20
4308.448501725706
 30
0.0
 11
2549.673057123657
 21
4308.448501725706
 31
0.0
  0
LINE
  5
19641
330
747D
100
AcDbEntity
  8
細線
100
AcDbLine
 10
2475.673057123657
 20
4314.448501725706
 30
0.0
 11
2549.673057123657
 21
4314.448501725706
 31
0.0
  0
LINE
  5
19642
330
747D
100
AcDbEntity
  8
細線
100
AcDbLine
 10
2475.673057123657
 20
4320.448501725706
 30
0.0
 11
2549.673057123657
 21
4320.448501725706
 31
0.0
  0
LINE
  5
19643
330
747D
100
AcDbEntity
  8
部品1
 48
0.01
100
AcDbLine
 10
2637.673057123657
 20
4332.948501725706
 30
0.0
 11
2461.673057123659
 21
4332.948501725706
 31
0.0
  0
LINE
  5
19644
330
747D
100
AcDbEntity
  8
部品1
 48
0.01
100
AcDbLine
 10
2459.673057123657
 20
4330.948501725706
 30
0.0
 11
2459.673057123657
 21
4299.448501725707
 31
0.0
  0
LINE
  5
19645
330
747D
100
AcDbEntity
  8
部品1
 48
0.01
100
AcDbLine
 10
2461.673057123659
 20
4297.448501725704
 30
0.0
 11
2637.673057123657
 21
4297.448501725704
 31
0.0
  0
LINE
  5
19646
330
747D
100
AcDbEntity
  8
部品1
 48
0.01
100
AcDbLine
 10
2639.673057123657
 20
4299.448501725707
 30
0.0
 11
2639.673057123657
 21
4330.948501725706
 31
0.0
  0
LINE
  5
19647
330
747D
100
AcDbEntity
  8
細線
100
AcDbLine
 10
2475.673057123657
 20
4326.448501725705
 30
0.0
 11
2475.673057123657
 21
4303.448501725706
 31
0.0
  0
LINE
  5
19648
330
747D
100
AcDbEntity
  8
細線
100
AcDbLine
 10
2623.673057123657
 20
4303.448501725706
 30
0.0
 11
2623.673057123657
 21
4326.448501725705
 31
0.0
  0
LINE
  5
19649
330
747D
100
AcDbEntity
  8
細線
100
AcDbLine
 10
2623.673057123657
 20
4326.448501725705
 30
0.0
 11
2549.673057123657
 21
4326.448501725705
 31
0.0
  0
LINE
  5
1964A
330
747D
100
AcDbEntity
  8
細線
100
AcDbLine
 10
2475.673057123657
 20
4303.448501725706
 30
0.0
 11
2549.673057123657
 21
4303.448501725706
 31
0.0
  0
LINE
  5
1964B
330
747D
100
AcDbEntity
  8
細線
100
AcDbLine
 10
2549.673057123657
 20
4326.448501725705
 30
0.0
 11
2475.673057123657
 21
4326.448501725705
 31
0.0
  0
LINE
  5
1964C
330
747D
100
AcDbEntity
  8
細線
100
AcDbLine
 10
2549.673057123657
 20
4303.448501725706
 30
0.0
 11
2623.673057123657
 21
4303.448501725706
 31
0.0
  0
ARC
  5
1964D
330
747D
100
AcDbEntity
  8
部品1
 48
0.01
100
AcDbCircle
 10
2461.673057123659
 20
4330.948501725706
 30
0.0
 40
2.0
100
AcDbArc
 50
90.0
 51
180.0
  0
ARC
  5
1964E
330
747D
100
AcDbEntity
  8
部品1
 48
0.01
100
AcDbCircle
 10
2461.673057123659
 20
4299.448501725707
 30
0.0
 40
2.0
100
AcDbArc
 50
180.0
 51
270.0
  0
ARC
  5
1964F
330
747D
100
AcDbEntity
  8
部品1
 48
0.01
100
AcDbCircle
 10
2637.673057123657
 20
4330.948501725706
 30
0.0
 40
2.0
100
AcDbArc
 50
0.0
 51
90.0
  0
ARC
  5
19650
330
747D
100
AcDbEntity
  8
部品1
 48
0.01
100
AcDbCircle
 10
2637.673057123657
 20
4299.448501725707
 30
0.0
 40
2.0
100
AcDbArc
 50
270.0
 51
0.0
  0
ARC
  5
19651
330
747D
100
AcDbEntity
  8
部品1
 48
0.01
100
AcDbCircle
 10
4847.673057123655
 20
4299.448501725707
 30
0.0
 40
2.0
100
AcDbArc
 50
270.0
 51
0.0
  0
ARC
  5
19652
330
747D
100
AcDbEntity
  8
部品1
 48
0.01
100
AcDbCircle
 10
4847.673057123659
 20
4330.948501725706
 30
0.0
 40
2.0
100
AcDbArc
 50
0.0
 51
90.0
  0
ARC
  5
19653
330
747D
100
AcDbEntity
  8
部品1
 48
0.01
100
AcDbCircle
 10
4671.673057123657
 20
4299.448501725707
 30
0.0
 40
2.0
100
AcDbArc
 50
180.0
 51
270.0
  0
ARC
  5
19654
330
747D
100
AcDbEntity
  8
部品1
 48
0.01
100
AcDbCircle
 10
4671.673057123657
 20
4330.948501725706
 30
0.0
 40
2.0
100
AcDbArc
 50
90.0
 51
180.0
  0
LINE
  5
19655
330
747D
100
AcDbEntity
  8
細線
100
AcDbLine
 10
4759.673057123655
 20
4303.448501725706
 30
0.0
 11
4833.673057123657
 21
4303.448501725706
 31
0.0
  0
LINE
  5
19656
330
747D
100
AcDbEntity
  8
細線
100
AcDbLine
 10
4759.673057123657
 20
4326.448501725705
 30
0.0
 11
4685.67305712366
 21
4326.448501725705
 31
0.0
  0
LINE
  5
19657
330
747D
100
AcDbEntity
  8
細線
100
AcDbLine
 10
4685.67305712366
 20
4303.448501725706
 30
0.0
 11
4759.673057123657
 21
4303.448501725706
 31
0.0
  0
LINE
  5
19658
330
747D
100
AcDbEntity
  8
細線
100
AcDbLine
 10
4833.673057123657
 20
4326.448501725705
 30
0.0
 11
4759.673057123657
 21
4326.448501725705
 31
0.0
  0
LINE
  5
19659
330
747D
100
AcDbEntity
  8
細線
100
AcDbLine
 10
4833.673057123657
 20
4303.448501725706
 30
0.0
 11
4833.673057123657
 21
4326.448501725705
 31
0.0
  0
LINE
  5
1965A
330
747D
100
AcDbEntity
  8
細線
100
AcDbLine
 10
4685.67305712366
 20
4326.448501725705
 30
0.0
 11
4685.67305712366
 21
4303.448501725706
 31
0.0
  0
LINE
  5
1965B
330
747D
100
AcDbEntity
  8
部品1
 48
0.01
100
AcDbLine
 10
4849.673057123655
 20
4299.448501725707
 30
0.0
 11
4849.673057123657
 21
4330.948501725706
 31
0.0
  0
LINE
  5
1965C
330
747D
100
AcDbEntity
  8
部品1
 48
0.01
100
AcDbLine
 10
4671.673057123657
 20
4297.448501725704
 30
0.0
 11
4847.673057123655
 21
4297.448501725704
 31
0.0
  0
LINE
  5
1965D
330
747D
100
AcDbEntity
  8
部品1
 48
0.01
100
AcDbLine
 10
4669.67305712366
 20
4330.948501725706
 30
0.0
 11
4669.67305712366
 21
4299.448501725707
 31
0.0
  0
LINE
  5
1965E
330
747D
100
AcDbEntity
  8
部品1
 48
0.01
100
AcDbLine
 10
4847.673057123659
 20
4332.948501725706
 30
0.0
 11
4671.673057123657
 21
4332.948501725706
 31
0.0
  0
LINE
  5
1965F
330
747D
100
AcDbEntity
  8
細線
100
AcDbLine
 10
4685.67305712366
 20
4320.448501725706
 30
0.0
 11
4759.673057123657
 21
4320.448501725706
 31
0.0
  0
LINE
  5
19660
330
747D
100
AcDbEntity
  8
細線
100
AcDbLine
 10
4685.67305712366
 20
4314.448501725706
 30
0.0
 11
4759.673057123657
 21
4314.448501725706
 31
0.0
  0
LINE
  5
19661
330
747D
100
AcDbEntity
  8
細線
100
AcDbLine
 10
4685.673057123653
 20
4308.448501725706
 30
0.0
 11
4759.673057123657
 21
4308.448501725706
 31
0.0
  0
LINE
  5
19662
330
747D
100
AcDbEntity
  8
細線
100
AcDbLine
 10
4685.67305712366
 20
4320.448501725706
 30
0.0
 11
4754.673057123659
 21
4320.448501725706
 31
0.0
  0
LINE
  5
19663
330
747D
100
AcDbEntity
  8
細線
100
AcDbLine
 10
4833.673057123655
 20
4320.448501725706
 30
0.0
 11
4759.673057123657
 21
4320.448501725706
 31
0.0
  0
LINE
  5
19664
330
747D
100
AcDbEntity
  8
細線
100
AcDbLine
 10
4833.673057123655
 20
4308.448501725706
 30
0.0
 11
4759.673057123657
 21
4308.448501725706
 31
0.0
  0
LINE
  5
19665
330
747D
100
AcDbEntity
  8
細線
100
AcDbLine
 10
4833.673057123655
 20
4314.448501725706
 30
0.0
 11
4759.673057123657
 21
4314.448501725706
 31
0.0
  0
LINE
  5
19666
330
747D
100
AcDbEntity
  8
細線
100
AcDbLine
 10
4759.673057123657
 20
4326.448501725705
 30
0.0
 11
4759.673057123655
 21
4303.448501725706
 31
0.0
  0
LINE
  5
19667
330
747D
100
AcDbEntity
  8
細線
100
AcDbLine
 10
5989.673057123655
 20
4326.448501725705
 30
0.0
 11
5989.673057123659
 21
4303.448501725706
 31
0.0
  0
LINE
  5
19668
330
747D
100
AcDbEntity
  8
細線
100
AcDbLine
 10
5915.673057123658
 20
4314.448501725706
 30
0.0
 11
5989.673057123655
 21
4314.448501725706
 31
0.0
  0
LINE
  5
19669
330
747D
100
AcDbEntity
  8
細線
100
AcDbLine
 10
5915.673057123658
 20
4308.448501725706
 30
0.0
 11
5989.673057123655
 21
4308.448501725706
 31
0.0
  0
LINE
  5
1966A
330
747D
100
AcDbEntity
  8
細線
100
AcDbLine
 10
5915.673057123658
 20
4320.448501725706
 30
0.0
 11
5989.673057123655
 21
4320.448501725706
 31
0.0
  0
LINE
  5
1966B
330
747D
100
AcDbEntity
  8
細線
100
AcDbLine
 10
6063.673057123654
 20
4320.448501725706
 30
0.0
 11
5994.673057123655
 21
4320.448501725706
 31
0.0
  0
LINE
  5
1966C
330
747D
100
AcDbEntity
  8
細線
100
AcDbLine
 10
6063.673057123658
 20
4308.448501725706
 30
0.0
 11
5989.673057123655
 21
4308.448501725706
 31
0.0
  0
LINE
  5
1966D
330
747D
100
AcDbEntity
  8
細線
100
AcDbLine
 10
6063.673057123654
 20
4314.448501725706
 30
0.0
 11
5989.673057123655
 21
4314.448501725706
 31
0.0
  0
LINE
  5
1966E
330
747D
100
AcDbEntity
  8
細線
100
AcDbLine
 10
6063.673057123654
 20
4320.448501725706
 30
0.0
 11
5989.673057123655
 21
4320.448501725706
 31
0.0
  0
LINE
  5
1966F
330
747D
100
AcDbEntity
  8
部品1
 48
0.01
100
AcDbLine
 10
5901.673057123655
 20
4332.948501725706
 30
0.0
 11
6077.673057123655
 21
4332.948501725706
 31
0.0
  0
LINE
  5
19670
330
747D
100
AcDbEntity
  8
部品1
 48
0.01
100
AcDbLine
 10
6079.673057123655
 20
4330.948501725706
 30
0.0
 11
6079.673057123655
 21
4299.448501725707
 31
0.0
  0
LINE
  5
19671
330
747D
100
AcDbEntity
  8
部品1
 48
0.01
100
AcDbLine
 10
6077.673057123655
 20
4297.448501725704
 30
0.0
 11
5901.673057123659
 21
4297.448501725704
 31
0.0
  0
LINE
  5
19672
330
747D
100
AcDbEntity
  8
部品1
 48
0.01
100
AcDbLine
 10
5899.673057123658
 20
4299.448501725707
 30
0.0
 11
5899.673057123655
 21
4330.948501725706
 31
0.0
  0
LINE
  5
19673
330
747D
100
AcDbEntity
  8
細線
100
AcDbLine
 10
6063.673057123654
 20
4326.448501725705
 30
0.0
 11
6063.673057123654
 21
4303.448501725706
 31
0.0
  0
LINE
  5
19674
330
747D
100
AcDbEntity
  8
細線
100
AcDbLine
 10
5915.673057123655
 20
4303.448501725706
 30
0.0
 11
5915.673057123655
 21
4326.448501725705
 31
0.0
  0
LINE
  5
19675
330
747D
100
AcDbEntity
  8
細線
100
AcDbLine
 10
5915.673057123655
 20
4326.448501725705
 30
0.0
 11
5989.673057123655
 21
4326.448501725705
 31
0.0
  0
LINE
  5
19676
330
747D
100
AcDbEntity
  8
細線
100
AcDbLine
 10
6063.673057123654
 20
4303.448501725706
 30
0.0
 11
5989.673057123655
 21
4303.448501725706
 31
0.0
  0
LINE
  5
19677
330
747D
100
AcDbEntity
  8
細線
100
AcDbLine
 10
5989.673057123655
 20
4326.448501725705
 30
0.0
 11
6063.673057123654
 21
4326.448501725705
 31
0.0
  0
LINE
  5
19678
330
747D
100
AcDbEntity
  8
細線
100
AcDbLine
 10
5989.673057123659
 20
4303.448501725706
 30
0.0
 11
5915.673057123655
 21
4303.448501725706
 31
0.0
  0
ARC
  5
19679
330
747D
100
AcDbEntity
  8
部品1
 48
0.01
100
AcDbCircle
 10
6077.673057123655
 20
4330.948501725706
 30
0.0
 40
2.0
100
AcDbArc
 50
0.0
 51
90.0
  0
ARC
  5
1967A
330
747D
100
AcDbEntity
  8
部品1
 48
0.01
100
AcDbCircle
 10
6077.673057123655
 20
4299.448501725707
 30
0.0
 40
2.0
100
AcDbArc
 50
270.0
 51
0.0
  0
ARC
  5
1967B
330
747D
100
AcDbEntity
  8
部品1
 48
0.01
100
AcDbCircle
 10
5901.673057123655
 20
4330.948501725706
 30
0.0
 40
2.0
100
AcDbArc
 50
90.0
 51
180.0
  0
ARC
  5
1967C
330
747D
100
AcDbEntity
  8
部品1
 48
0.01
100
AcDbCircle
 10
5901.673057123659
 20
4299.448501725707
 30
0.0
 40
2.0
100
AcDbArc
 50
180.0
 51
270.0
  0
ARC
  5
1967D
330
747D
100
AcDbEntity
  8
部品1
 48
0.01
100
AcDbCircle
 10
8111.673057123658
 20
4299.448501725707
 30
0.0
 40
2.0
100
AcDbArc
 50
180.0
 51
270.0
  0
ARC
  5
1967E
330
747D
100
AcDbEntity
  8
部品1
 48
0.01
100
AcDbCircle
 10
8111.673057123654
 20
4330.948501725706
 30
0.0
 40
2.0
100
AcDbArc
 50
90.0
 51
180.0
  0
ARC
  5
1967F
330
747D
100
AcDbEntity
  8
部品1
 48
0.01
100
AcDbCircle
 10
8287.673057123653
 20
4299.448501725707
 30
0.0
 40
2.0
100
AcDbArc
 50
270.0
 51
0.0
  0
ARC
  5
19680
330
747D
100
AcDbEntity
  8
部品1
 48
0.01
100
AcDbCircle
 10
8287.673057123653
 20
4330.948501725706
 30
0.0
 40
2.0
100
AcDbArc
 50
0.0
 51
90.0
  0
LINE
  5
19681
330
747D
100
AcDbEntity
  8
細線
100
AcDbLine
 10
8199.673057123659
 20
4303.448501725706
 30
0.0
 11
8125.673057123654
 21
4303.448501725706
 31
0.0
  0
LINE
  5
19682
330
747D
100
AcDbEntity
  8
細線
100
AcDbLine
 10
8199.673057123655
 20
4326.448501725705
 30
0.0
 11
8273.673057123655
 21
4326.448501725705
 31
0.0
  0
LINE
  5
19683
330
747D
100
AcDbEntity
  8
細線
100
AcDbLine
 10
8273.673057123655
 20
4303.448501725706
 30
0.0
 11
8199.673057123655
 21
4303.448501725706
 31
0.0
  0
LINE
  5
19684
330
747D
100
AcDbEntity
  8
細線
100
AcDbLine
 10
8125.673057123654
 20
4326.448501725705
 30
0.0
 11
8199.673057123655
 21
4326.448501725705
 31
0.0
  0
LINE
  5
19685
330
747D
100
AcDbEntity
  8
細線
100
AcDbLine
 10
8125.673057123654
 20
4303.448501725706
 30
0.0
 11
8125.673057123654
 21
4326.448501725705
 31
0.0
  0
LINE
  5
19686
330
747D
100
AcDbEntity
  8
細線
100
AcDbLine
 10
8273.673057123655
 20
4326.448501725705
 30
0.0
 11
8273.673057123655
 21
4303.448501725706
 31
0.0
  0
LINE
  5
19687
330
747D
100
AcDbEntity
  8
部品1
 48
0.01
100
AcDbLine
 10
8109.673057123659
 20
4299.448501725707
 30
0.0
 11
8109.673057123655
 21
4330.948501725706
 31
0.0
  0
LINE
  5
19688
330
747D
100
AcDbEntity
  8
部品1
 48
0.01
100
AcDbLine
 10
8287.673057123653
 20
4297.448501725704
 30
0.0
 11
8111.673057123658
 21
4297.448501725704
 31
0.0
  0
LINE
  5
19689
330
747D
100
AcDbEntity
  8
部品1
 48
0.01
100
AcDbLine
 10
8289.673057123655
 20
4330.948501725706
 30
0.0
 11
8289.673057123655
 21
4299.448501725707
 31
0.0
  0
LINE
  5
1968A
330
747D
100
AcDbEntity
  8
部品1
 48
0.01
100
AcDbLine
 10
8111.673057123654
 20
4332.948501725706
 30
0.0
 11
8287.673057123653
 21
4332.948501725706
 31
0.0
  0
LINE
  5
1968B
330
747D
100
AcDbEntity
  8
細線
100
AcDbLine
 10
8273.673057123655
 20
4320.448501725706
 30
0.0
 11
8199.673057123655
 21
4320.448501725706
 31
0.0
  0
LINE
  5
1968C
330
747D
100
AcDbEntity
  8
細線
100
AcDbLine
 10
8273.673057123655
 20
4314.448501725706
 30
0.0
 11
8199.673057123655
 21
4314.448501725706
 31
0.0
  0
LINE
  5
1968D
330
747D
100
AcDbEntity
  8
細線
100
AcDbLine
 10
8273.673057123659
 20
4308.448501725706
 30
0.0
 11
8199.673057123655
 21
4308.448501725706
 31
0.0
  0
LINE
  5
1968E
330
747D
100
AcDbEntity
  8
細線
100
AcDbLine
 10
8273.673057123655
 20
4320.448501725706
 30
0.0
 11
8204.673057123654
 21
4320.448501725706
 31
0.0
  0
LINE
  5
1968F
330
747D
100
AcDbEntity
  8
細線
100
AcDbLine
 10
8125.673057123659
 20
4320.448501725706
 30
0.0
 11
8199.673057123655
 21
4320.448501725706
 31
0.0
  0
LINE
  5
19690
330
747D
100
AcDbEntity
  8
細線
100
AcDbLine
 10
8125.673057123659
 20
4308.448501725706
 30
0.0
 11
8199.673057123655
 21
4308.448501725706
 31
0.0
  0
LINE
  5
19691
330
747D
100
AcDbEntity
  8
細線
100
AcDbLine
 10
8125.673057123659
 20
4314.448501725706
 30
0.0
 11
8199.673057123655
 21
4314.448501725706
 31
0.0
  0
LINE
  5
19692
330
747D
100
AcDbEntity
  8
細線
100
AcDbLine
 10
8199.673057123655
 20
4326.448501725705
 30
0.0
 11
8199.673057123659
 21
4303.448501725706
 31
0.0
  0
LINE
  5
19693
330
747D
100
AcDbEntity
  8
細線
100
AcDbLine
 10
6969.673057123658
 20
4326.448501725705
 30
0.0
 11
6969.673057123656
 21
4303.448501725706
 31
0.0
  0
LINE
  5
19694
330
747D
100
AcDbEntity
  8
細線
100
AcDbLine
 10
7043.673057123655
 20
4314.448501725706
 30
0.0
 11
6969.673057123658
 21
4314.448501725706
 31
0.0
  0
LINE
  5
19695
330
747D
100
AcDbEntity
  8
細線
100
AcDbLine
 10
7043.673057123655
 20
4308.448501725706
 30
0.0
 11
6969.673057123658
 21
4308.448501725706
 31
0.0
  0
LINE
  5
19696
330
747D
100
AcDbEntity
  8
細線
100
AcDbLine
 10
7043.673057123655
 20
4320.448501725706
 30
0.0
 11
6969.673057123658
 21
4320.448501725706
 31
0.0
  0
LINE
  5
19697
330
747D
100
AcDbEntity
  8
細線
100
AcDbLine
 10
6895.673057123659
 20
4320.448501725706
 30
0.0
 11
6964.673057123659
 21
4320.448501725706
 31
0.0
  0
LINE
  5
19698
330
747D
100
AcDbEntity
  8
細線
100
AcDbLine
 10
6895.673057123655
 20
4308.448501725706
 30
0.0
 11
6969.673057123658
 21
4308.448501725706
 31
0.0
  0
LINE
  5
19699
330
747D
100
AcDbEntity
  8
細線
100
AcDbLine
 10
6895.673057123659
 20
4314.448501725706
 30
0.0
 11
6969.673057123658
 21
4314.448501725706
 31
0.0
  0
LINE
  5
1969A
330
747D
100
AcDbEntity
  8
細線
100
AcDbLine
 10
6895.673057123659
 20
4320.448501725706
 30
0.0
 11
6969.673057123658
 21
4320.448501725706
 31
0.0
  0
LINE
  5
1969B
330
747D
100
AcDbEntity
  8
部品1
 48
0.01
100
AcDbLine
 10
7057.673057123658
 20
4332.948501725706
 30
0.0
 11
6881.673057123659
 21
4332.948501725706
 31
0.0
  0
LINE
  5
1969C
330
747D
100
AcDbEntity
  8
部品1
 48
0.01
100
AcDbLine
 10
6879.673057123658
 20
4330.948501725706
 30
0.0
 11
6879.673057123658
 21
4299.448501725707
 31
0.0
  0
LINE
  5
1969D
330
747D
100
AcDbEntity
  8
部品1
 48
0.01
100
AcDbLine
 10
6881.673057123659
 20
4297.448501725704
 30
0.0
 11
7057.673057123655
 21
4297.448501725704
 31
0.0
  0
LINE
  5
1969E
330
747D
100
AcDbEntity
  8
部品1
 48
0.01
100
AcDbLine
 10
7059.673057123655
 20
4299.448501725707
 30
0.0
 11
7059.673057123659
 21
4330.948501725706
 31
0.0
  0
LINE
  5
1969F
330
747D
100
AcDbEntity
  8
細線
100
AcDbLine
 10
6895.673057123659
 20
4326.448501725705
 30
0.0
 11
6895.673057123659
 21
4303.448501725706
 31
0.0
  0
LINE
  5
196A0
330
747D
100
AcDbEntity
  8
細線
100
AcDbLine
 10
7043.673057123658
 20
4303.448501725706
 30
0.0
 11
7043.673057123658
 21
4326.448501725705
 31
0.0
  0
LINE
  5
196A1
330
747D
100
AcDbEntity
  8
細線
100
AcDbLine
 10
7043.673057123658
 20
4326.448501725705
 30
0.0
 11
6969.673057123658
 21
4326.448501725705
 31
0.0
  0
LINE
  5
196A2
330
747D
100
AcDbEntity
  8
細線
100
AcDbLine
 10
6895.673057123659
 20
4303.448501725706
 30
0.0
 11
6969.673057123658
 21
4303.448501725706
 31
0.0
  0
LINE
  5
196A3
330
747D
100
AcDbEntity
  8
細線
100
AcDbLine
 10
6969.673057123658
 20
4326.448501725705
 30
0.0
 11
6895.673057123659
 21
4326.448501725705
 31
0.0
  0
LINE
  5
196A4
330
747D
100
AcDbEntity
  8
細線
100
AcDbLine
 10
6969.673057123656
 20
4303.448501725706
 30
0.0
 11
7043.673057123658
 21
4303.448501725706
 31
0.0
  0
ARC
  5
196A5
330
747D
100
AcDbEntity
  8
部品1
 48
0.01
100
AcDbCircle
 10
6881.673057123659
 20
4330.948501725706
 30
0.0
 40
2.0
100
AcDbArc
 50
90.0
 51
180.0
  0
ARC
  5
196A6
330
747D
100
AcDbEntity
  8
部品1
 48
0.01
100
AcDbCircle
 10
6881.673057123659
 20
4299.448501725707
 30
0.0
 40
2.0
100
AcDbArc
 50
180.0
 51
270.0
  0
ARC
  5
196A7
330
747D
100
AcDbEntity
  8
部品1
 48
0.01
100
AcDbCircle
 10
7057.673057123658
 20
4330.948501725706
 30
0.0
 40
2.0
100
AcDbArc
 50
0.0
 51
90.0
  0
ARC
  5
196A8
330
747D
100
AcDbEntity
  8
部品1
 48
0.01
100
AcDbCircle
 10
7057.673057123655
 20
4299.448501725707
 30
0.0
 40
2.0
100
AcDbArc
 50
270.0
 51
0.0
  0
TEXT
  5
19C11
330
747D
100
AcDbEntity
  8
部品1
100
AcDbText
 10
12727.9322526538
 20
1284.054972507182
 30
0.0
 40
135.0
  1
側面図
  7
STYLE2
100
AcDbText
  0
LWPOLYLINE
  5
19C12
330
747D
100
AcDbEntity
  8
部品1
100
AcDbPolyline
 90
        4
 70
     1
 43
0.0
 10
12638.48615123019
 20
1476.948501725706
 10
12638.48615123019
 20
1237.056180180174
 10
13401.95681745863
 20
1237.056180180174
 10
13401.95681745863
 20
1476.948501725706
  0
LINE
  5
19C13
330
747D
100
AcDbEntity
  8
細線
 48
50.0
100
AcDbLine
 10
14347.72148434443
 20
4266.94850172571
 30
0.0
 11
14347.72148434443
 21
2176.948501725711
 31
0.0
  0
LINE
  5
19C14
330
747D
100
AcDbEntity
  8
細線
 48
50.0
100
AcDbLine
 10
14332.72148434443
 20
4266.94850172571
 30
0.0
 11
14332.72148434443
 21
2176.948501725711
 31
0.0
  0
LINE
  5
19C15
330
747D
100
AcDbEntity
  8
細線
 48
50.0
100
AcDbLine
 10
14472.72148434443
 20
4266.94850172571
 30
0.0
 11
14472.72148434443
 21
2176.948501725711
 31
0.0
  0
LINE
  5
19C16
330
747D
100
AcDbEntity
  8
細線
 48
50.0
100
AcDbLine
 10
14487.72148434443
 20
4266.94850172571
 30
0.0
 11
14487.72148434443
 21
2176.948501725711
 31
0.0
  0
LINE
  5
19C17
330
747D
100
AcDbEntity
  8
細線
 48
50.0
100
AcDbLine
 10
14627.72148434443
 20
4266.94850172571
 30
0.0
 11
14627.72148434443
 21
2176.948501725711
 31
0.0
  0
LINE
  5
19C18
330
747D
100
AcDbEntity
  8
細線
 48
50.0
100
AcDbLine
 10
14612.72148434443
 20
4266.94850172571
 30
0.0
 11
14612.72148434443
 21
2176.948501725711
 31
0.0
  0
LINE
  5
19C19
330
747D
100
AcDbEntity
  8
部品1
100
AcDbLine
 10
14270.22148434438
 20
4266.948501725706
 30
0.0
 11
14270.22148434438
 21
2176.948501725711
 31
0.0
  0
LINE
  5
19C1A
330
747D
100
AcDbEntity
  8
部品1
100
AcDbLine
 10
13850.22148434439
 20
4266.948501725706
 30
0.0
 11
13850.22148434439
 21
2176.948501725711
 31
0.0
  0
LINE
  5
19C1B
330
747D
100
AcDbEntity
  8
細線
 48
50.0
100
AcDbLine
 10
13772.72148434441
 20
4266.948501725704
 30
0.0
 11
13772.72148434441
 21
2176.948501725709
 31
0.0
  0
LINE
  5
19C1C
330
747D
100
AcDbEntity
  8
細線
 48
50.0
100
AcDbLine
 10
13787.72148434441
 20
4266.948501725704
 30
0.0
 11
13787.72148434441
 21
2176.948501725709
 31
0.0
  0
LINE
  5
19C1D
330
747D
100
AcDbEntity
  8
細線
 48
50.0
100
AcDbLine
 10
13647.72148434441
 20
4266.948501725704
 30
0.0
 11
13647.72148434441
 21
2176.948501725709
 31
0.0
  0
LINE
  5
19C1E
330
747D
100
AcDbEntity
  8
細線
 48
50.0
100
AcDbLine
 10
13632.72148434441
 20
4266.948501725704
 30
0.0
 11
13632.72148434441
 21
2176.948501725709
 31
0.0
  0
LINE
  5
19C1F
330
747D
100
AcDbEntity
  8
細線
 48
50.0
100
AcDbLine
 10
13492.7214843444
 20
4266.948501725704
 30
0.0
 11
13492.7214843444
 21
2176.948501725709
 31
0.0
  0
LINE
  5
19C20
330
747D
100
AcDbEntity
  8
細線
 48
50.0
100
AcDbLine
 10
13507.72148434441
 20
4266.948501725704
 30
0.0
 11
13507.72148434441
 21
2176.948501725709
 31
0.0
  0
LINE
  5
19C21
330
747D
100
AcDbEntity
  8
部品1
100
AcDbLine
 10
13430.2214843444
 20
4266.948501725704
 30
0.0
 11
13430.2214843444
 21
2176.948501725709
 31
0.0
  0
DIMENSION
  5
19C22
330
747D
100
AcDbEntity
  8
寸法
 48
50.0
100
AcDbDimension
  2
*D30
 10
10654.61307757602
 20
4376.293760599054
 30
0.0
 11
10665.27855283495
 21
4747.140423840749
 31
0.0
 70
   161
 71
     5
 42
140.9999999999973
  3
INABA_S40G
100
AcDbAlignedDimension
 13
11234.61750450299
 23
4500.671250560384
 33
0.0
 14
11230.56404894636
 24
4359.729526794674
 34
0.0
1001
ACAD
1000
DSTYLE
1002
{
1070
   174
1070
     0
1070
   272
1070
     1
1070
   288
1070
     0
1070
   341
1005
0
1002
}
  0
LINE
  5
19C23
330
747D
100
AcDbEntity
  8
細線
 48
50.0
100
AcDbLine
 10
14192.72148434441
 20
4266.948501725706
 30
0.0
 11
14192.72148434441
 21
2176.948501725709
 31
0.0
  0
LINE
  5
19C24
330
747D
100
AcDbEntity
  8
細線
 48
50.0
100
AcDbLine
 10
14207.72148434441
 20
4266.948501725706
 30
0.0
 11
14207.72148434441
 21
2176.948501725709
 31
0.0
  0
LINE
  5
19C25
330
747D
100
AcDbEntity
  8
細線
 48
50.0
100
AcDbLine
 10
14067.72148434441
 20
4266.948501725706
 30
0.0
 11
14067.72148434441
 21
2176.948501725709
 31
0.0
  0
LINE
  5
19C26
330
747D
100
AcDbEntity
  8
細線
 48
50.0
100
AcDbLine
 10
14052.7214843444
 20
4266.948501725706
 30
0.0
 11
14052.7214843444
 21
2176.948501725709
 31
0.0
  0
LINE
  5
19C27
330
747D
100
AcDbEntity
  8
細線
 48
50.0
100
AcDbLine
 10
13912.72148434441
 20
4266.948501725706
 30
0.0
 11
13912.72148434441
 21
2176.948501725709
 31
0.0
  0
LINE
  5
19C28
330
747D
100
AcDbEntity
  8
細線
 48
50.0
100
AcDbLine
 10
13927.72148434441
 20
4266.948501725706
 30
0.0
 11
13927.72148434441
 21
2176.948501725709
 31
0.0
  0
LINE
  5
19C29
330
747D
100
AcDbEntity
  8
部品1
100
AcDbLine
 10
12590.22148434441
 20
4266.948501725704
 30
0.0
 11
12590.22148434441
 21
2176.948501725706
 31
0.0
  0
LINE
  5
19C2A
330
747D
100
AcDbEntity
  8
細線
 48
50.0
100
AcDbLine
 10
12247.7214843444
 20
4266.948501725704
 30
0.0
 11
12247.72148434441
 21
2176.948501725706
 31
0.0
  0
LINE
  5
19C2B
330
747D
100
AcDbEntity
  8
細線
 48
50.0
100
AcDbLine
 10
12232.72148434441
 20
4266.948501725704
 30
0.0
 11
12232.72148434441
 21
2176.948501725706
 31
0.0
  0
LINE
  5
19C2C
330
747D
100
AcDbEntity
  8
細線
 48
50.0
100
AcDbLine
 10
12372.7214843444
 20
4266.948501725704
 30
0.0
 11
12372.72148434441
 21
2176.948501725706
 31
0.0
  0
LINE
  5
19C2D
330
747D
100
AcDbEntity
  8
細線
 48
50.0
100
AcDbLine
 10
12387.7214843444
 20
4266.948501725704
 30
0.0
 11
12387.72148434441
 21
2176.948501725706
 31
0.0
  0
LINE
  5
19C2E
330
747D
100
AcDbEntity
  8
細線
 48
50.0
100
AcDbLine
 10
12527.7214843444
 20
4266.948501725704
 30
0.0
 11
12527.72148434441
 21
2176.948501725706
 31
0.0
  0
LINE
  5
19C2F
330
747D
100
AcDbEntity
  8
細線
 48
50.0
100
AcDbLine
 10
12512.7214843444
 20
4266.948501725704
 30
0.0
 11
12512.72148434441
 21
2176.948501725706
 31
0.0
  0
LINE
  5
19C30
330
747D
100
AcDbEntity
  8
部品1
100
AcDbLine
 10
12170.22148434441
 20
4266.948501725704
 30
0.0
 11
12170.22148434441
 21
2176.948501725706
 31
0.0
  0
DIMENSION
  5
19C31
330
747D
100
AcDbEntity
  8
寸法
 48
50.0
100
AcDbDimension
  2
*D31
 10
14825.22148434441
 20
4900.60595530501
 30
0.0
 11
15031.2687284389
 21
4900.60595530501
 31
0.0
 70
   160
 71
     5
 42
80.0
  3
INABA_S40G
100
AcDbAlignedDimension
 13
14745.22148434441
 23
4448.759181337361
 33
0.0
 14
14825.22148434441
 24
4446.94850172571
 34
0.0
100
AcDbRotatedDimension
1001
ACAD
1000
DSTYLE
1002
{
1070
   174
1070
     0
1070
   272
1070
     1
1070
   288
1070
     0
1070
   341
1005
0
1002
}
  0
LINE
  5
19C32
330
747D
100
AcDbEntity
  8
細線
 48
50.0
100
AcDbLine
 10
11407.72148434441
 20
4266.948501725704
 30
0.0
 11
11407.72148434441
 21
2176.948501725706
 31
0.0
  0
LINE
  5
19C33
330
747D
100
AcDbEntity
  8
細線
 48
50.0
100
AcDbLine
 10
11392.72148434441
 20
4266.948501725704
 30
0.0
 11
11392.72148434441
 21
2176.948501725706
 31
0.0
  0
LINE
  5
19C34
330
747D
100
AcDbEntity
  8
細線
 48
50.0
100
AcDbLine
 10
11532.72148434441
 20
4266.948501725704
 30
0.0
 11
11532.72148434441
 21
2176.948501725706
 31
0.0
  0
LINE
  5
19C35
330
747D
100
AcDbEntity
  8
細線
 48
50.0
100
AcDbLine
 10
11547.72148434441
 20
4266.948501725704
 30
0.0
 11
11547.72148434441
 21
2176.948501725706
 31
0.0
  0
LINE
  5
19C36
330
747D
100
AcDbEntity
  8
細線
 48
50.0
100
AcDbLine
 10
11687.7214843444
 20
4266.948501725704
 30
0.0
 11
11687.7214843444
 21
2176.948501725706
 31
0.0
  0
LINE
  5
19C37
330
747D
100
AcDbEntity
  8
細線
 48
50.0
100
AcDbLine
 10
11672.72148434441
 20
4266.948501725704
 30
0.0
 11
11672.72148434441
 21
2176.948501725706
 31
0.0
  0
LINE
  5
19C38
330
747D
100
AcDbEntity
  8
細線
 48
50.0
100
AcDbLine
 10
12092.72148434441
 20
4266.948501725704
 30
0.0
 11
12092.72148434441
 21
2176.948501725706
 31
0.0
  0
LINE
  5
19C39
330
747D
100
AcDbEntity
  8
細線
 48
50.0
100
AcDbLine
 10
12107.7214843444
 20
4266.948501725704
 30
0.0
 11
12107.7214843444
 21
2176.948501725706
 31
0.0
  0
LINE
  5
19C3A
330
747D
100
AcDbEntity
  8
細線
 48
50.0
100
AcDbLine
 10
11967.7214843444
 20
4266.948501725704
 30
0.0
 11
11967.7214843444
 21
2176.948501725706
 31
0.0
  0
LINE
  5
19C3B
330
747D
100
AcDbEntity
  8
細線
 48
50.0
100
AcDbLine
 10
11952.72148434441
 20
4266.948501725704
 30
0.0
 11
11952.72148434441
 21
2176.948501725706
 31
0.0
  0
LINE
  5
19C3C
330
747D
100
AcDbEntity
  8
細線
 48
50.0
100
AcDbLine
 10
11812.72148434441
 20
4266.948501725704
 30
0.0
 11
11812.72148434441
 21
2176.948501725706
 31
0.0
  0
LINE
  5
19C3D
330
747D
100
AcDbEntity
  8
細線
 48
50.0
100
AcDbLine
 10
11827.7214843444
 20
4266.948501725704
 30
0.0
 11
11827.7214843444
 21
2176.948501725706
 31
0.0
  0
LINE
  5
19C3E
330
747D
100
AcDbEntity
  8
部品1
100
AcDbLine
 10
11330.22148434441
 20
2126.948501725706
 30
0.0
 11
14745.22148434441
 21
2126.948501725706
 31
0.0
  0
DIMENSION
  5
19C3F
330
747D
100
AcDbEntity
  8
寸法
 48
50.0
100
AcDbDimension
  2
*D32
 10
11215.22148434441
 20
5130.719548091288
 30
0.0
 11
13020.22148434441
 21
5130.719548091288
 31
0.0
 70
   160
 71
     5
 42
3610.0
  3
INABA_S40G
100
AcDbAlignedDimension
 13
14825.22148434441
 23
4446.948501725706
 33
0.0
 14
11215.22148434441
 24
4501.94850172571
 34
0.0
100
AcDbRotatedDimension
1001
ACAD
1000
DSTYLE
1002
{
1070
   174
1070
     0
1070
   272
1070
     1
1070
   288
1070
     0
1070
   341
1005
0
1002
}
  0
DIMENSION
  5
19C40
330
747D
100
AcDbEntity
  8
寸法
 48
50.0
100
AcDbDimension
  2
*D33
 10
11215.22148434441
 20
4900.60595530501
 30
0.0
 11
10905.58368906882
 21
4900.60595530501
 31
0.0
 70
   160
 71
     5
 42
60.0
  3
INABA_S40G
100
AcDbAlignedDimension
 13
11275.22148434441
 23
4497.950119848684
 33
0.0
 14
11215.22148434441
 24
4501.94850172571
 34
0.0
100
AcDbRotatedDimension
1001
ACAD
1000
DSTYLE
1002
{
1070
   174
1070
     0
1070
   272
1070
     1
1070
   288
1070
     0
1070
   341
1005
0
1002
}
  0
DIMENSION
  5
19C41
330
747D
100
AcDbEntity
  8
寸法
 48
50.0
100
AcDbDimension
  2
*D34
 10
11275.22148434441
 20
4900.60595530501
 30
0.0
 11
13010.22148434441
 21
4900.60595530501
 31
0.0
 70
   160
  1
柱外寸法<>
 71
     5
 42
3470.0
  3
INABA_S40G
100
AcDbAlignedDimension
 13
14745.22148434441
 23
4448.759181337361
 33
0.0
 14
11275.22148434441
 24
4497.950119848684
 34
0.0
100
AcDbRotatedDimension
1001
ACAD
1000
DSTYLE
1002
{
1070
   174
1070
     0
1070
   272
1070
     1
1070
   288
1070
     0
1070
   341
1005
0
1002
}
  0
LINE
  5
19C42
330
747D
100
AcDbEntity
  8
部品1
100
AcDbLine
 10
14690.22148434441
 20
4266.948501725706
 30
0.0
 11
14690.22148434441
 21
2176.948501725709
 31
0.0
  0
LINE
  5
19C43
330
747D
100
AcDbEntity
  8
部品1
100
AcDbLine
 10
14745.22148434441
 20
4321.378529506826
 30
0.0
 11
14745.22148434441
 21
2026.948501725708
 31
0.0
  0
LINE
  5
19C44
330
747D
100
AcDbEntity
  8
部品1
100
AcDbLine
 10
11750.2214843444
 20
4266.948501725704
 30
0.0
 11
11750.2214843444
 21
2176.948501725706
 31
0.0
  0
DIMENSION
  5
19C45
330
747D
100
AcDbEntity
  8
寸法
100
AcDbDimension
  2
*D35
 10
10431.47135516115
 20
2126.948501725706
 30
0.0
 11
10431.47135516115
 21
1820.901257631215
 31
0.0
 70
   160
 71
     5
 42
50.00000000000046
  3
INABA_S40G
100
AcDbAlignedDimension
 13
11275.22148434441
 23
2176.948501725706
 33
0.0
 14
11220.22148434441
 24
2126.948501725706
 34
0.0
 50
90.0
100
AcDbRotatedDimension
1001
ACAD
1000
DSTYLE
1002
{
1070
   174
1070
     0
1070
   272
1070
     1
1070
   288
1070
     0
1070
   341
1005
0
1002
}
  0
LINE
  5
19C46
330
747D
100
AcDbEntity
  8
部品1
100
AcDbLine
 10
11275.22148434441
 20
4359.090939654584
 30
0.0
 11
11275.22148434441
 21
2026.948501725706
 31
0.0
  0
LINE
  5
19C47
330
747D
100
AcDbEntity
  8
部品1
100
AcDbLine
 10
11330.2214843444
 20
4266.948501725704
 30
0.0
 11
11330.22148434441
 21
2026.948501725706
 31
0.0
  0
LINE
  5
19C48
330
747D
100
AcDbEntity
  8
部品1
100
AcDbLine
 10
11330.22148434441
 20
2176.948501725706
 30
0.0
 11
14745.22148434441
 21
2176.948501725709
 31
0.0
  0
LINE
  5
19C49
330
747D
100
AcDbEntity
  8
部品1
100
AcDbLine
 10
11275.22148434441
 20
4266.948501725704
 30
0.0
 11
14745.2214843444
 21
4266.948501725704
 31
0.0
  0
LINE
  5
19C4A
330
747D
100
AcDbEntity
  8
部品1
100
AcDbLine
 10
14690.2214843444
 20
4266.94850172571
 30
0.0
 11
14690.2214843444
 21
2176.948501725711
 31
0.0
  0
LINE
  5
19C4B
330
747D
100
AcDbEntity
  8
細線
 48
50.0
100
AcDbLine
 10
12932.7214843444
 20
4266.948501725704
 30
0.0
 11
12932.7214843444
 21
2176.948501725706
 31
0.0
  0
LINE
  5
19C4C
330
747D
100
AcDbEntity
  8
細線
 48
50.0
100
AcDbLine
 10
12947.7214843444
 20
4266.948501725704
 30
0.0
 11
12947.7214843444
 21
2176.948501725706
 31
0.0
  0
LINE
  5
19C4D
330
747D
100
AcDbEntity
  8
細線
 48
50.0
100
AcDbLine
 10
12807.7214843444
 20
4266.948501725704
 30
0.0
 11
12807.7214843444
 21
2176.948501725706
 31
0.0
  0
LINE
  5
19C4E
330
747D
100
AcDbEntity
  8
細線
 48
50.0
100
AcDbLine
 10
12792.7214843444
 20
4266.948501725704
 30
0.0
 11
12792.7214843444
 21
2176.948501725706
 31
0.0
  0
LINE
  5
19C4F
330
747D
100
AcDbEntity
  8
細線
 48
50.0
100
AcDbLine
 10
12652.7214843444
 20
4266.948501725704
 30
0.0
 11
12652.7214843444
 21
2176.948501725706
 31
0.0
  0
LINE
  5
19C50
330
747D
100
AcDbEntity
  8
細線
 48
50.0
100
AcDbLine
 10
12667.7214843444
 20
4266.948501725704
 30
0.0
 11
12667.7214843444
 21
2176.948501725706
 31
0.0
  0
TEXT
  5
19C51
330
747D
100
AcDbEntity
  8
部品1
 48
50.0
100
AcDbText
 10
13336.12234223322
 20
4524.217594664013
 30
0.0
 40
120.0
  1
28
 50
90.0
  7
STYLE1
100
AcDbText
  0
TEXT
  5
19C52
330
747D
100
AcDbEntity
  8
部品1
 48
50.0
100
AcDbText
 10
12858.48931956813
 20
4661.718852882295
 30
0.0
 40
120.0
  1
1000
  7
STYLE1
100
AcDbText
  0
LINE
  5
19C53
330
747D
100
AcDbEntity
  8
部品1
 48
50.0
100
AcDbLine
 10
13170.22148434441
 20
4625.834830729862
 30
0.0
 11
13170.22148434441
 21
4609.634830729863
 31
0.0
  0
LINE
  5
19C54
330
747D
100
AcDbEntity
  8
部品1
 48
50.0
100
AcDbLine
 10
12870.22148434441
 20
4625.834830729862
 30
0.0
 11
13170.22148434441
 21
4625.834830729862
 31
0.0
  0
LINE
  5
19C55
330
747D
100
AcDbEntity
  8
部品1
100
AcDbLine
 10
11222.76647070137
 20
4500.666237059971
 30
0.0
 11
14817.83336120587
 21
4445.589299434846
 31
0.0
  0
LINE
  5
19C56
330
747D
100
AcDbEntity
  8
部品1
100
AcDbLine
 10
11230.56404894636
 20
4359.729526794674
 30
0.0
 11
14799.88518488426
 21
4320.701101560469
 31
0.0
  0
LINE
  5
19C57
330
747D
100
AcDbEntity
  8
細線
 48
50.0
100
AcDbLine
 10
11248.2214843444
 20
4499.348178101111
 30
0.0
 11
11242.9323827889
 21
4359.262545473757
 31
0.0
  0
LINE
  5
19C58
330
747D
100
AcDbEntity
  8
細線
 48
50.0
100
AcDbLine
 10
14792.1907675381
 20
4446.101924205176
 30
0.0
 11
14787.47380145641
 21
4321.169708270259
 31
0.0
  0
LINE
  5
19C59
330
747D
100
AcDbEntity
  8
部品1
 48
50.0
100
AcDbLine
 10
11215.40577025751
 20
4493.542047890399
 30
0.0
 11
11215.78603003532
 21
4473.615083443984
 31
0.0
  0
LINE
  5
19C5A
330
747D
100
AcDbEntity
  8
部品1
 48
50.0
100
AcDbLine
 10
11218.85480214157
 20
4470.039801950515
 30
0.0
 11
11220.55870363293
 21
4380.749305243868
 31
0.0
  0
LINE
  5
19C5B
330
747D
100
AcDbEntity
  8
細線
 48
50.0
100
AcDbLine
 10
11216.26090744522
 20
4472.965583567067
 30
0.0
 11
14821.89689219039
 21
4417.341378926241
 31
0.0
  0
LINE
  5
19C5C
330
747D
100
AcDbEntity
  8
細線
 48
50.0
100
AcDbLine
 10
11221.02138268251
 20
4380.104071869205
 30
0.0
 11
14811.02504711315
 21
4340.294752894709
 31
0.0
  0
LINE
  5
19C5D
330
747D
100
AcDbEntity
  8
部品1
 48
50.0
100
AcDbLine
 10
11223.62747573918
 20
4377.174023750394
 30
0.0
 11
11223.82942835961
 21
4366.590988357304
 31
0.0
  0
ARC
  5
19C5E
330
747D
100
AcDbEntity
  8
部品1
 48
50.0
100
AcDbCircle
 10
11222.40449608585
 20
4493.675602297826
 30
0.0
 40
7.0
100
AcDbArc
 50
87.03587545283095
 51
181.0932240293156
  0
ARC
  5
19C5F
330
747D
100
AcDbEntity
  8
部品1
 48
50.0
100
AcDbCircle
 10
11230.82815418795
 20
4366.72454276473
 30
0.0
 40
7.0
100
AcDbArc
 50
181.0932240293156
 51
267.8377559869487
  0
ARC
  5
19C60
330
747D
100
AcDbEntity
  8
部品1
100
AcDbCircle
 10
11220.62802181275
 20
4377.116786147211
 30
0.0
 40
3.0
100
AcDbArc
 50
1.093224029315636
 51
80.18775403169653
  0
ARC
  5
19C61
330
747D
100
AcDbEntity
  8
部品1
100
AcDbCircle
 10
11215.85534821514
 20
4469.98256434733
 30
0.0
 40
3.0
100
AcDbArc
 50
1.093224029315636
 51
80.18775403169653
  0
ARC
  5
19C62
330
747D
100
AcDbEntity
  8
部品1
100
AcDbCircle
 10
11216.48590261816
 20
4473.62843888473
 30
0.0
 40
0.7
100
AcDbArc
 50
181.0932240292114
 51
260.1877540314867
  0
ARC
  5
19C63
330
747D
100
AcDbEntity
  8
部品1
100
AcDbCircle
 10
11221.25857621577
 20
4380.762660684609
 30
0.0
 40
0.7
100
AcDbArc
 50
181.0932240292635
 51
260.1877540314867
  0
LINE
  5
19C64
330
747D
100
AcDbEntity
  8
部品1
 48
50.0
100
AcDbLine
 10
14824.43538715511
 20
4437.889653999923
 30
0.0
 11
14822.40476596414
 21
4417.944612742147
 31
0.0
  0
LINE
  5
19C65
330
747D
100
AcDbEntity
  8
部品1
 48
50.0
100
AcDbLine
 10
14819.05219947965
 20
4414.633978669237
 30
0.0
 11
14811.54542021482
 21
4340.901357924223
 31
0.0
  0
LINE
  5
19C66
330
747D
100
AcDbEntity
  8
部品1
 48
50.0
100
AcDbLine
 10
14808.19285373033
 20
4337.590723851313
 30
0.0
 11
14807.11329069059
 21
4326.987106857754
 31
0.0
  0
ARC
  5
19C67
330
747D
100
AcDbEntity
  8
部品1
 48
50.0
100
AcDbCircle
 10
14817.47138659036
 20
4438.598664672699
 30
0.0
 40
7.0
100
AcDbArc
 50
354.1866997665791
 51
87.03587545283095
  0
ARC
  5
19C68
330
747D
100
AcDbEntity
  8
部品1
 48
50.0
100
AcDbCircle
 10
14800.14929012584
 20
4327.696117530527
 30
0.0
 40
7.0
100
AcDbArc
 50
267.8377559869487
 51
354.1866997665791
  0
ARC
  5
19C69
330
747D
100
AcDbEntity
  8
部品1
100
AcDbCircle
 10
14811.17742540095
 20
4337.286862134409
 30
0.0
 40
3.0
100
AcDbArc
 50
95.0921697642102
 51
174.1866997665791
  0
ARC
  5
19C6A
330
747D
100
AcDbEntity
  8
部品1
100
AcDbCircle
 10
14822.03677115027
 20
4414.330116952333
 30
0.0
 40
3.0
100
AcDbArc
 50
95.0921697642102
 51
174.1866997665791
  0
ARC
  5
19C6B
330
747D
100
AcDbEntity
  8
部品1
100
AcDbCircle
 10
14821.70836590767
 20
4418.015513809421
 30
0.0
 40
0.7
100
AcDbArc
 50
275.0921697642102
 51
354.1866997665791
  0
ARC
  5
19C6C
330
747D
100
AcDbEntity
  8
部品1
100
AcDbCircle
 10
14810.84902015834
 20
4340.9722589915
 30
0.0
 40
0.7
100
AcDbArc
 50
275.0921697642102
 51
354.1866997667087
  0
LINE
  5
19C6D
330
747D
100
AcDbEntity
  8
部品1
100
AcDbLine
 10
12844.76647070137
 20
4627.152889688723
 30
0.0
 11
13170.22148434441
 21
4609.634830729863
 31
0.0
  0
LINE
  5
19C6E
330
747D
100
AcDbEntity
  8
部品1
100
AcDbLine
 10
13010.22148434441
 20
4266.948501725704
 30
0.0
 11
13010.22148434441
 21
2176.948501725709
 31
0.0
  0
LINE
  5
19C6F
330
747D
100
AcDbEntity
  8
細線
 48
50.0
100
AcDbLine
 10
13087.72148434441
 20
4266.948501725704
 30
0.0
 11
13087.72148434441
 21
2176.948501725709
 31
0.0
  0
LINE
  5
19C70
330
747D
100
AcDbEntity
  8
細線
 48
50.0
100
AcDbLine
 10
13072.7214843444
 20
4266.948501725704
 30
0.0
 11
13072.7214843444
 21
2176.948501725709
 31
0.0
  0
LINE
  5
19C71
330
747D
100
AcDbEntity
  8
細線
 48
50.0
100
AcDbLine
 10
13212.7214843444
 20
4266.948501725704
 30
0.0
 11
13212.7214843444
 21
2176.948501725709
 31
0.0
  0
LINE
  5
19C72
330
747D
100
AcDbEntity
  8
細線
 48
50.0
100
AcDbLine
 10
13227.72148434441
 20
4266.948501725704
 30
0.0
 11
13227.72148434441
 21
2176.948501725709
 31
0.0
  0
LINE
  5
19C73
330
747D
100
AcDbEntity
  8
細線
 48
50.0
100
AcDbLine
 10
13367.72148434441
 20
4266.948501725704
 30
0.0
 11
13367.72148434441
 21
2176.948501725709
 31
0.0
  0
LINE
  5
19C74
330
747D
100
AcDbEntity
  8
細線
 48
50.0
100
AcDbLine
 10
13352.7214843444
 20
4266.948501725704
 30
0.0
 11
13352.7214843444
 21
2176.948501725709
 31
0.0
  0
DIMENSION
  5
19C75
330
747D
100
AcDbEntity
  8
寸法
100
AcDbDimension
  2
*D36
 10
15450.14864231653
 20
4446.948501725706
 30
0.0
 11
15350.13683129291
 21
3286.94850172571
 31
0.0
 70
    32
 71
     5
 42
2319.999999999998
  3
INABA_S40G
100
AcDbAlignedDimension
 13
14745.22148434441
 23
2126.948501725709
 33
0.0
 14
14825.22148434441
 24
4446.948501725706
 34
0.0
 50
90.0
100
AcDbRotatedDimension
1001
ACAD
1000
DSTYLE
1002
{
1070
   174
1070
     0
1070
   272
1070
     1
1070
   288
1070
     0
1070
   341
1005
0
1002
}
  0
DIMENSION
  5
19C76
330
747D
100
AcDbEntity
  8
寸法
100
AcDbDimension
  2
*D37
 10
10131.47135516115
 20
4501.948501725707
 30
0.0
 11
10031.45954413752
 21
3314.448501725706
 31
0.0
 70
    32
 71
     5
 42
2375.000000000005
  3
INABA_S40G
100
AcDbAlignedDimension
 13
11275.22148434441
 23
2126.948501725701
 33
0.0
 14
11215.22148434441
 24
4501.948501725706
 34
0.0
 50
90.0
100
AcDbRotatedDimension
1001
ACAD
1000
DSTYLE
1002
{
1070
   174
1070
     0
1070
   272
1070
     1
1070
   288
1070
     0
1070
   341
1005
0
1002
}
  0
DIMENSION
  5
19C77
330
747D
100
AcDbEntity
  8
寸法
100
AcDbDimension
  2
*D38
 10
10431.47135516115
 20
2176.948501725702
 30
0.0
 11
10331.45954413753
 21
3221.948501725704
 31
0.0
 70
    32
 71
     5
 42
2090.000000000001
  3
INABA_S40G
100
AcDbAlignedDimension
 13
11275.22148434441
 23
4266.948501725702
 33
0.0
 14
11275.22148434441
 24
2176.948501725702
 34
0.0
 50
90.0
100
AcDbRotatedDimension
1001
ACAD
1000
DSTYLE
1002
{
1070
   174
1070
     0
1070
   272
1070
     1
1070
   288
1070
     0
1070
   341
1005
0
1002
}
  0
LINE
  5
19C7C
330
747D
100
AcDbEntity
  8
破線
 48
5.0
100
AcDbLine
 10
11275.22148434441
 20
2026.948501725706
 30
0.0
 11
11275.22148434441
 21
1776.948501725706
 31
0.0
  0
LINE
  5
19C7D
330
747D
100
AcDbEntity
  8
破線
 48
5.0
100
AcDbLine
 10
11330.22148434441
 20
2026.948501725706
 30
0.0
 11
11330.22148434441
 21
1776.948501725706
 31
0.0
  0
LINE
  5
19C7E
330
747D
100
AcDbEntity
  8
破線
 48
5.0
100
AcDbLine
 10
11275.22148434441
 20
1776.948501725706
 30
0.0
 11
11330.2214843444
 21
1776.948501725706
 31
0.0
  0
LINE
  5
19C7F
330
747D
100
AcDbEntity
  8
部品1
100
AcDbLine
 10
11275.22148434441
 20
2126.948501725706
 30
0.0
 11
10882.22427013556
 21
2026.948501725706
 31
0.0
  0
LINE
  5
1A2C0
330
747D
100
AcDbEntity
  8
部品1
100
AcDbLine
 10
2087.673057123629
 20
9472.08672207531
 30
0.0
 11
2059.673057123629
 21
9472.08672207531
 31
0.0
  0
LINE
  5
1A2C1
330
747D
100
AcDbEntity
  8
部品1
100
AcDbLine
 10
4241.673057123645
 20
9472.086722075392
 30
0.0
 11
4269.673057123649
 21
9472.086722075392
 31
0.0
  0
LINE
  5
1A2C2
330
747D
100
AcDbEntity
  8
部品1
100
AcDbLine
 10
6451.673057123648
 20
9472.086722075392
 30
0.0
 11
6479.673057123648
 21
9472.086722075392
 31
0.0
  0
LINE
  5
1A2C3
330
747D
100
AcDbEntity
  8
部品1
100
AcDbLine
 10
8661.673057123655
 20
9472.086722075438
 30
0.0
 11
8689.673057123654
 21
9472.086722075438
 31
0.0
  0
DIMENSION
  5
1A5CB
330
747D
100
AcDbEntity
  8
寸法
 48
50.0
100
AcDbDimension
  2
*D39
 10
8977.216159445401
 20
4074.948501725706
 30
0.0
 11
8877.216159445401
 21
3100.948501725708
 31
0.0
 70
    32
  1
有効開口部高サ <>
 71
     5
 42
1948.0
  3
INABA_S40G
100
AcDbAlignedDimension
 13
8689.673057123657
 23
2126.948501725706
 33
0.0
 14
8689.673057123657
 24
4074.948501725706
 34
0.0
 50
90.0
100
AcDbRotatedDimension
  0
DIMENSION
  5
1A5CC
330
747D
100
AcDbEntity
  8
寸法
 48
50.0
100
AcDbDimension
  2
*D40
 10
8977.216159445401
 20
4101.948501725707
 30
0.0
 11
9117.38598269177
 21
4102.915701565365
 31
0.0
 70
   160
 71
     5
 42
27.0
  3
INABA_S40G
100
AcDbAlignedDimension
 13
8689.673057123657
 23
4074.948501725706
 33
0.0
 14
8689.673057123657
 24
4101.948501725707
 34
0.0
 50
90.0
100
AcDbRotatedDimension
1001
ACAD
1000
DSTYLE
1002
{
1070
   279
1070
     2
1002
}
  0
DIMENSION
  5
1A5CD
330
747D
100
AcDbEntity
  8
寸法
 48
50.0
100
AcDbDimension
  2
*D41
 10
8977.216159445402
 20
4266.948501725704
 30
0.0
 11
8977.216159445401
 21
4505.433783099944
 31
0.0
 70
   160
 71
     5
 42
164.9999999999982
  3
INABA_S40G
100
AcDbAlignedDimension
 13
8689.673057123657
 23
4101.948501725707
 33
0.0
 14
8689.673057123657
 24
4266.948501725704
 34
0.0
 50
90.0
100
AcDbRotatedDimension
1001
ACAD
1000
DSTYLE
1002
{
1002
}
  0
TEXT
  5
1A745
330
747D
100
AcDbEntity
  8
文字
 62
     7
 48
50.0
100
AcDbText
 10
15022.63965474515
 20
9740.013745883723
 30
0.0
 40
100.0
  1
F12            1.0
  7
STYLE1
100
AcDbText
  0
LINE
  5
1A761
330
747D
100
AcDbEntity
  8
仕様書枠
 48
50.0
100
AcDbLine
 10
16307.19999999999
 20
8689.599999999998
 30
0.0
 11
13127.19999999999
 21
8689.600000000003
 31
0.0
  0
TEXT
  5
1A768
330
747D
100
AcDbEntity
  8
文字
 62
     7
 48
50.0
100
AcDbText
 10
15022.63965474517
 20
10760.01374588372
 30
0.0
 40
100.0
  1
F12         1.0,1.2
  7
STYLE1
100
AcDbText
  0
TEXT
  5
1A76B
330
747D
100
AcDbEntity
  8
文字
 62
     7
 48
50.0
100
AcDbText
 10
15022.63965474515
 20
9060.013745883725
 30
0.0
 40
100.0
  1
F12            0.7
  7
STYLE1
100
AcDbText
  0
LINE
  5
1A777
330
747D
100
AcDbEntity
  8
破線
 48
5.0
100
AcDbLine
 10
4269.673057123656
 20
1851.948501725706
 30
0.0
 11
4269.673057123656
 21
1776.948501725706
 31
0.0
  0
LINE
  5
1A778
330
747D
100
AcDbEntity
  8
破線
 48
5.0
100
AcDbLine
 10
4219.673057123656
 20
1776.948501725706
 30
0.0
 11
4319.673057123656
 21
1776.948501725706
 31
0.0
  0
LINE
  5
1A779
330
747D
100
AcDbEntity
  8
破線
 48
5.0
100
AcDbLine
 10
6429.673057123657
 20
1776.948501725706
 30
0.0
 11
6529.673057123656
 21
1776.948501725706
 31
0.0
  0
LINE
  5
1A77A
330
747D
100
AcDbEntity
  8
破線
 48
5.0
100
AcDbLine
 10
6479.673057123656
 20
1851.948501725706
 30
0.0
 11
6479.673057123656
 21
1776.948501725706
 31
0.0
  0
LINE
  5
1AD52
330
747D
100
AcDbEntity
  8
部品1
 48
50.0
100
AcDbLine
 10
4336.673057123655
 20
6942.586722075339
 30
0.0
 11
6412.67305712364
 21
6942.586722075339
 31
0.0
  0
LINE
  5
1AD53
330
747D
100
AcDbEntity
  8
部品1
100
AcDbLine
 10
4324.673057123656
 20
4101.948501725707
 30
0.0
 11
6534.673057123656
 21
4101.948501725707
 31
0.0
  0
LINE
  5
1AD54
330
747D
100
AcDbEntity
  8
細線
100
AcDbLine
 10
4372.673057123653
 20
4086.948501725706
 30
0.0
 11
6376.673057123655
 21
4086.948501725706
 31
0.0
  0
LINE
  5
1AD55
330
747D
100
AcDbEntity
  8
細線
 48
50.0
100
AcDbLine
 10
5074.673057123654
 20
2704.448501725707
 30
0.0
 11
5174.673057123655
 21
2704.448501725707
 31
0.0
  0
LINE
  5
1AD56
330
747D
100
AcDbEntity
  8
細線
 48
50.0
100
AcDbLine
 10
5174.673057123655
 20
2674.448501725708
 30
0.0
 11
5074.673057123654
 21
2674.448501725708
 31
0.0
  0
LINE
  5
1AD57
330
747D
100
AcDbEntity
  8
細線
100
AcDbLine
 10
4372.673057123653
 20
2656.948501725707
 30
0.0
 11
6376.673057123655
 21
2656.948501725707
 31
0.0
  0
LINE
  5
1AD58
330
747D
100
AcDbEntity
  8
細線
100
AcDbLine
 10
4372.673057123653
 20
2591.948501725708
 30
0.0
 11
6376.673057123655
 21
2591.948501725708
 31
0.0
  0
LINE
  5
1AD59
330
747D
100
AcDbEntity
  8
細線
100
AcDbLine
 10
4372.673057123653
 20
2526.948501725707
 30
0.0
 11
6376.673057123655
 21
2526.948501725707
 31
0.0
  0
LINE
  5
1AD5A
330
747D
100
AcDbEntity
  8
細線
100
AcDbLine
 10
4372.673057123653
 20
2461.948501725708
 30
0.0
 11
6376.673057123655
 21
2461.948501725708
 31
0.0
  0
LINE
  5
1AD5B
330
747D
100
AcDbEntity
  8
細線
100
AcDbLine
 10
4372.673057123653
 20
2396.948501725707
 30
0.0
 11
6376.673057123655
 21
2396.948501725707
 31
0.0
  0
LINE
  5
1AD5C
330
747D
100
AcDbEntity
  8
細線
100
AcDbLine
 10
4372.673057123653
 20
2331.948501725706
 30
0.0
 11
6376.673057123655
 21
2331.948501725706
 31
0.0
  0
LINE
  5
1AD5D
330
747D
100
AcDbEntity
  8
細線
100
AcDbLine
 10
4372.673057123653
 20
2266.948501725707
 30
0.0
 11
6376.673057123655
 21
2266.948501725707
 31
0.0
  0
LINE
  5
1AD5E
330
747D
100
AcDbEntity
  8
細線
100
AcDbLine
 10
4372.673057123653
 20
2201.948501725706
 30
0.0
 11
6376.673057123655
 21
2201.948501725706
 31
0.0
  0
LINE
  5
1AD5F
330
747D
100
AcDbEntity
  8
細線
100
AcDbLine
 10
4372.673057123653
 20
3956.948501725707
 30
0.0
 11
6376.673057123655
 21
3956.948501725707
 31
0.0
  0
LINE
  5
1AD60
330
747D
100
AcDbEntity
  8
細線
100
AcDbLine
 10
4372.673057123653
 20
4021.948501725706
 30
0.0
 11
6376.673057123655
 21
4021.948501725706
 31
0.0
  0
LINE
  5
1AD61
330
747D
100
AcDbEntity
  8
細線
100
AcDbLine
 10
4372.673057123653
 20
3306.948501725706
 30
0.0
 11
6376.673057123655
 21
3306.948501725706
 31
0.0
  0
LINE
  5
1AD62
330
747D
100
AcDbEntity
  8
細線
100
AcDbLine
 10
4372.673057123653
 20
3241.948501725707
 30
0.0
 11
6376.673057123655
 21
3241.948501725707
 31
0.0
  0
LINE
  5
1AD63
330
747D
100
AcDbEntity
  8
細線
100
AcDbLine
 10
4372.673057123653
 20
3176.948501725707
 30
0.0
 11
6376.673057123655
 21
3176.948501725707
 31
0.0
  0
LINE
  5
1AD64
330
747D
100
AcDbEntity
  8
細線
100
AcDbLine
 10
4372.673057123653
 20
3111.948501725707
 30
0.0
 11
6376.673057123655
 21
3111.948501725707
 31
0.0
  0
LINE
  5
1AD65
330
747D
100
AcDbEntity
  8
細線
100
AcDbLine
 10
4372.673057123653
 20
3046.948501725707
 30
0.0
 11
6376.673057123655
 21
3046.948501725707
 31
0.0
  0
LINE
  5
1AD66
330
747D
100
AcDbEntity
  8
細線
100
AcDbLine
 10
4372.673057123653
 20
2981.948501725707
 30
0.0
 11
6376.673057123655
 21
2981.948501725707
 31
0.0
  0
LINE
  5
1AD67
330
747D
100
AcDbEntity
  8
細線
100
AcDbLine
 10
4372.673057123653
 20
2916.948501725707
 30
0.0
 11
6376.673057123655
 21
2916.948501725707
 31
0.0
  0
LINE
  5
1AD68
330
747D
100
AcDbEntity
  8
細線
100
AcDbLine
 10
4372.673057123653
 20
2851.948501725707
 30
0.0
 11
6376.673057123655
 21
2851.948501725707
 31
0.0
  0
LINE
  5
1AD69
330
747D
100
AcDbEntity
  8
細線
100
AcDbLine
 10
4372.673057123653
 20
2786.948501725707
 30
0.0
 11
6376.673057123655
 21
2786.948501725707
 31
0.0
  0
LINE
  5
1AD6A
330
747D
100
AcDbEntity
  8
細線
100
AcDbLine
 10
4372.673057123653
 20
2721.948501725707
 30
0.0
 11
6376.673057123655
 21
2721.948501725707
 31
0.0
  0
LINE
  5
1AD6B
330
747D
100
AcDbEntity
  8
細線
100
AcDbLine
 10
4372.673057123653
 20
3696.948501725707
 30
0.0
 11
6376.673057123655
 21
3696.948501725707
 31
0.0
  0
LINE
  5
1AD6C
330
747D
100
AcDbEntity
  8
細線
100
AcDbLine
 10
4372.673057123653
 20
3631.948501725708
 30
0.0
 11
6376.673057123655
 21
3631.948501725708
 31
0.0
  0
LINE
  5
1AD6D
330
747D
100
AcDbEntity
  8
細線
100
AcDbLine
 10
4372.673057123653
 20
3566.948501725708
 30
0.0
 11
6376.673057123655
 21
3566.948501725708
 31
0.0
  0
LINE
  5
1AD6E
330
747D
100
AcDbEntity
  8
細線
100
AcDbLine
 10
4372.673057123653
 20
3501.948501725707
 30
0.0
 11
6376.673057123655
 21
3501.948501725707
 31
0.0
  0
LINE
  5
1AD6F
330
747D
100
AcDbEntity
  8
細線
100
AcDbLine
 10
4372.673057123653
 20
3436.948501725707
 30
0.0
 11
6376.673057123655
 21
3436.948501725707
 31
0.0
  0
LINE
  5
1AD70
330
747D
100
AcDbEntity
  8
細線
100
AcDbLine
 10
4372.673057123653
 20
3371.948501725706
 30
0.0
 11
6376.673057123655
 21
3371.948501725706
 31
0.0
  0
LINE
  5
1AD71
330
747D
100
AcDbEntity
  8
細線
100
AcDbLine
 10
4372.673057123653
 20
3891.948501725707
 30
0.0
 11
6376.673057123655
 21
3891.948501725707
 31
0.0
  0
LINE
  5
1AD72
330
747D
100
AcDbEntity
  8
細線
100
AcDbLine
 10
4372.673057123653
 20
3826.948501725707
 30
0.0
 11
6376.673057123655
 21
3826.948501725707
 31
0.0
  0
LINE
  5
1AD73
330
747D
100
AcDbEntity
  8
細線
100
AcDbLine
 10
4372.673057123653
 20
3761.948501725707
 30
0.0
 11
6376.673057123655
 21
3761.948501725707
 31
0.0
  0
ARC
  5
1AD74
330
747D
100
AcDbEntity
  8
細線
 48
50.0
100
AcDbCircle
 10
5074.673057123654
 20
2689.448501725707
 30
0.0
 40
15.0
100
AcDbArc
 50
90.0
 51
270.0
  0
ARC
  5
1AD75
330
747D
100
AcDbEntity
  8
細線
 48
50.0
100
AcDbCircle
 10
5174.673057123655
 20
2689.448501725707
 30
0.0
 40
15.0
100
AcDbArc
 50
270.0
 51
90.0
  0
LINE
  5
1AD76
330
747D
100
AcDbEntity
  8
細線
 48
50.0
100
AcDbLine
 10
5674.673057123655
 20
2674.448501725708
 30
0.0
 11
5574.673057123654
 21
2674.448501725708
 31
0.0
  0
LINE
  5
1AD77
330
747D
100
AcDbEntity
  8
細線
 48
50.0
100
AcDbLine
 10
5574.673057123654
 20
2704.448501725707
 30
0.0
 11
5674.673057123655
 21
2704.448501725707
 31
0.0
  0
ARC
  5
1AD78
330
747D
100
AcDbEntity
  8
細線
 48
50.0
100
AcDbCircle
 10
5574.673057123654
 20
2689.448501725707
 30
0.0
 40
15.0
100
AcDbArc
 50
90.0
 51
270.0
  0
ARC
  5
1AD79
330
747D
100
AcDbEntity
  8
細線
 48
50.0
100
AcDbCircle
 10
5674.673057123655
 20
2689.448501725707
 30
0.0
 40
15.0
100
AcDbArc
 50
270.0
 51
90.0
  0
CIRCLE
  5
1AD7A
330
747D
100
AcDbEntity
  8
細線
 48
50.0
100
AcDbCircle
 10
5374.673057123654
 20
3014.448501725707
 30
0.0
 40
18.0
  0
LINE
  5
1AD7B
330
747D
100
AcDbEntity
  8
細線
100
AcDbLine
 10
6376.673057123657
 20
2136.948501725706
 30
0.0
 11
4372.673057123651
 21
2136.948501725706
 31
0.0
  0
SPLINE
  5
1AD82
330
747D
100
AcDbEntity
  8
部品1
 48
50.0
100
AcDbSpline
210
0.0
220
0.0
230
1.0
 70
     8
 71
     3
 72
    10
 73
     6
 74
     4
 42
0.0000000001
 43
0.0000000001
 44
0.0000000001
 40
0.0
 40
0.0
 40
0.0
 40
0.0
 40
147.8767566010009
 40
301.8091093202477
 40
466.5049223087716
 40
466.5049223087716
 40
466.5049223087716
 40
466.5049223087716
 10
5442.243384856692
 20
10406.82787460115
 30
0.0
 10
5365.361702361857
 20
10397.92344094331
 30
0.0
 10
5208.450010151729
 20
10379.74993448398
 30
0.0
 10
5531.263420096075
 20
10277.22934984464
 30
0.0
 10
5361.4208004267
 20
10258.59426113243
 30
0.0
 10
5273.630795219808
 20
10248.96196425513
 30
0.0
 11
5442.243384856692
 21
10406.82787460115
 31
0.0
 11
5299.405406547923
 21
10368.55455366482
 31
0.0
 11
5432.714734467097
 21
10291.5883773052
 31
0.0
 11
5273.630795219808
 21
10248.96196425513
 31
0.0
  0
LINE
  5
1AD83
330
747D
100
AcDbEntity
  8
部品1
 48
50.0
100
AcDbLine
 10
5421.205796679192
 20
10499.24927031204
 30
0.0
 11
5328.140317568092
 21
10151.92417383868
 31
0.0
  0
SPLINE
  5
1AD8A
330
747D
100
AcDbEntity
  8
部品1
 48
50.0
100
AcDbSpline
210
0.0
220
0.0
230
1.0
 70
     8
 71
     3
 72
    10
 73
     6
 74
     4
 42
0.0000000001
 43
0.0000000001
 44
0.0000000001
 40
0.0
 40
0.0
 40
0.0
 40
0.0
 40
147.8767566010009
 40
301.8091093202477
 40
466.5049223087716
 40
466.5049223087716
 40
466.5049223087716
 40
466.5049223087716
 10
5442.243384856698
 20
7023.827874601133
 30
0.0
 10
5365.361702361862
 20
7014.923440943295
 30
0.0
 10
5208.450010151735
 20
6996.749934483962
 30
0.0
 10
5531.263420096078
 20
6894.229349844621
 30
0.0
 10
5361.420800426705
 20
6875.594261132417
 30
0.0
 10
5273.630795219813
 20
6865.961964255108
 30
0.0
 11
5442.243384856698
 21
7023.827874601133
 31
0.0
 11
5299.405406547929
 21
6985.554553664804
 31
0.0
 11
5432.714734467103
 21
6908.58837730518
 31
0.0
 11
5273.630795219813
 21
6865.961964255108
 31
0.0
  0
LINE
  5
1AD8B
330
747D
100
AcDbEntity
  8
部品1
 48
50.0
100
AcDbLine
 10
5421.205796679198
 20
7116.249270312022
 30
0.0
 11
5328.140317568097
 21
6768.924173838657
 31
0.0
  0
LINE
  5
1AD92
330
747D
100
AcDbEntity
  8
部品1
 48
50.0
100
AcDbLine
 10
5807.608334867301
 20
4630.184954653799
 30
0.0
 11
5019.383492910773
 21
1688.489796684339
 31
0.0
  0
SPLINE
  5
1AD93
330
747D
100
AcDbEntity
  8
部品1
 48
50.0
100
AcDbSpline
210
0.0
220
0.0
230
1.0
 70
     8
 71
     3
 72
    10
 73
     6
 74
     4
 42
0.0000000001
 43
0.0000000001
 44
0.0000000001
 40
0.0
 40
0.0
 40
0.0
 40
0.0
 40
147.8767566010009
 40
301.8091093202477
 40
466.5049223087734
 40
466.5049223087734
 40
466.5049223087734
 40
466.5049223087734
 10
5442.243384856679
 20
3095.689654251511
 30
0.0
 10
5365.361702361845
 20
3086.785220593673
 30
0.0
 10
5208.450010151717
 20
3068.611714134341
 30
0.0
 10
5531.26342009606
 20
2966.091129494999
 30
0.0
 10
5361.420800426686
 20
2947.456040782795
 30
0.0
 10
5273.630795219792
 20
2937.823743905486
 30
0.0
 11
5442.243384856679
 21
3095.689654251511
 31
0.0
 11
5299.40540654791
 21
3057.416333315182
 31
0.0
 11
5432.714734467084
 21
2980.450156955559
 31
0.0
 11
5273.630795219792
 21
2937.823743905486
 31
0.0
  0
ENDSEC
  0
SECTION
  2
OBJECTS
  0
DICTIONARY
  5
7471
330
0
100
AcDbDictionary
281
     1
  3
ACAD_COLOR
350
17AE2
  3
ACAD_GROUP
350
7472
  3
ACAD_LAYOUT
350
17AE3
  3
ACAD_MATERIAL
350
17AE1
  3
ACAD_MLINESTYLE
350
7473
  3
ACAD_PLOTSETTINGS
350
17AE4
  3
ACAD_PLOTSTYLENAME
350
17ADF
  3
ACDBHEADERROUNDTRIPXREC
350
1ADE8
  3
AcDbVariableDictionary
350
1A70A
  3
CONTENTDICTIONARY
350
E71C
  3
DRAWINGVARIABLESDICT
350
F3B9
  0
DICTIONARY
  5
18AAA
330
7467
100
AcDbDictionary
280
     1
281
     1
  3
ACAD_LAYERSTATES
360
18AAB
  0
DICTIONARY
  5
17AE2
102
{ACAD_REACTORS
330
7471
102
}
330
7471
100
AcDbDictionary
281
     1
  0
DICTIONARY
  5
7472
102
{ACAD_REACTORS
330
7471
102
}
330
7471
100
AcDbDictionary
281
     1
  3
*A1
350
17FA7
  3
*A2
350
180C7
  3
*A3
350
180D2
  0
DICTIONARY
  5
17AE3
102
{ACAD_REACTORS
330
7471
102
}
330
7471
100
AcDbDictionary
281
     1
  3
Model
350
17AE5
  3
レイアウト1
350
17AE6
  0
DICTIONARY
  5
17AE1
102
{ACAD_REACTORS
330
7471
102
}
330
7471
100
AcDbDictionary
281
     1
  0
DICTIONARY
  5
7473
102
{ACAD_REACTORS
330
7471
102
}
330
7471
100
AcDbDictionary
281
     1
  3
STANDARD
350
7480
  0
DICTIONARY
  5
17AE4
102
{ACAD_REACTORS
330
7471
102
}
330
7471
100
AcDbDictionary
281
     1
  0
ACDBDICTIONARYWDFLT
  5
17ADF
102
{ACAD_REACTORS
330
7471
102
}
330
7471
100
AcDbDictionary
281
     1
  3
Normal
350
17AE0
100
AcDbDictionaryWithDefault
340
17AE0
  0
DICTIONARY
  5
1ADE8
102
{ACAD_REACTORS
330
7471
102
}
330
7471
100
AcDbDictionary
281
     1
  3
COLORDICT
350
1ADEA
  3
MATERIALDICT
350
1ADE9
  0
DICTIONARY
  5
1A70A
102
{ACAD_REACTORS
330
7471
102
}
330
7471
100
AcDbDictionary
281
     1
  3
DIMASSOC
350
1A70B
  3
PROJECTNAME
350
1A70C
  0
DICTIONARY
  5
E71C
102
{ACAD_REACTORS
330
7471
102
}
330
7471
100
AcDbDictionary
281
     1
  0
DICTIONARY
  5
F3B9
102
{ACAD_REACTORS
330
7471
102
}
330
7471
100
AcDbDictionary
281
     1
1001
DRAWINGVARIABLESXDATA
1000
POLARMODE
1000
1
  0
DICTIONARY
  5
18AAB
102
{ACAD_REACTORS
330
18AAA
102
}
330
18AAA
100
AcDbDictionary
281
     1
  0
GROUP
  5
17FA7
102
{ACAD_REACTORS
330
7472
102
}
330
7472
100
AcDbGroup
300

 70
     1
 71
     1
  0
GROUP
  5
180C7
102
{ACAD_REACTORS
330
7472
102
}
330
7472
100
AcDbGroup
300

 70
     1
 71
     1
  0
GROUP
  5
180D2
102
{ACAD_REACTORS
330
7472
102
}
330
7472
100
AcDbGroup
300

 70
     1
 71
     1
  0
LAYOUT
  5
17AE5
102
{ACAD_XDICTIONARY
360
1ADEB
102
}
102
{ACAD_REACTORS
330
17AE3
102
}
330
17AE3
100
AcDbPlotSettings
  1

  2
Canon iR C3880/C4580 LIPSLX
  4
A3
  6

 40
5.873749732971191
 41
5.873747825622558
 42
5.873748779296875
 43
5.873748779296875
 44
296.9259948730469
 45
419.9466552734374
 46
0.0
 47
0.0
 48
0.0
 49
0.0
140
0.0
141
0.0
142
1.0
143
40.0
 70
 11952
 72
     1
 73
     1
 74
     2
  7
inaba.ctb
 75
    24
147
0.025
148
0.0
149
0.0
100
AcDbLayout
  1
Model
 70
     1
 71
     0
 10
0.0
 20
0.0
 11
12.0
 21
9.0
 12
0.0
 22
0.0
 32
0.0
 14
0.0
 24
0.0
 34
0.0
 15
0.0
 25
0.0
 35
0.0
146
0.0
 13
0.0
 23
0.0
 33
0.0
 16
1.0
 26
0.0
 36
0.0
 17
0.0
 27
1.0
 37
0.0
 76
     0
330
747D
  0
LAYOUT
  5
17AE6
102
{ACAD_XDICTIONARY
360
1ADED
102
}
102
{ACAD_REACTORS
330
17AE3
102
}
330
17AE3
100
AcDbPlotSettings
  1

  2
EPSON LP-8300
  4

  6

 40
0.0
 41
0.0
 42
0.0
 43
0.0
 44
0.0
 45
0.0
 46
0.0
 47
0.0
 48
0.0
 49
0.0
140
0.0
141
0.0
142
1.0
143
1.0
 70
   688
 72
     0
 73
     0
 74
     5
  7
inaba.ctb
 75
    16
147
1.0
148
0.0
149
0.0
100
AcDbLayout
  1
レイアウト1
 70
     0
 71
     1
 10
0.0
 20
0.0
 11
420.0
 21
297.0
 12
0.0
 22
0.0
 32
0.0
 14
1.000000000000000E+20
 24
1.000000000000000E+20
 34
1.000000000000000E+20
 15
-1.000000000000000E+20
 25
-1.000000000000000E+20
 35
-1.000000000000000E+20
146
0.0
 13
0.0
 23
0.0
 33
0.0
 16
1.0
 26
0.0
 36
0.0
 17
0.0
 27
1.0
 37
0.0
 76
     0
330
747A
  0
MLINESTYLE
  5
7480
102
{ACAD_REACTORS
330
7473
102
}
330
7473
100
AcDbMlineStyle
  2
STANDARD
 70
     0
  3

 62
     0
 51
90.0
 52
90.0
 71
     2
 49
0.5
 62
   256
  6
BYLAYER
 49
-0.5
 62
   256
  6
BYLAYER
  0
ACDBPLACEHOLDER
  5
17AE0
102
{ACAD_REACTORS
330
17ADF
102
}
330
17ADF
  0
XRECORD
  5
1ADEA
102
{ACAD_REACTORS
330
1ADE8
102
}
330
1ADE8
100
AcDbXrecord
280
     1
340
17AE2
  0
XRECORD
  5
1ADE9
102
{ACAD_REACTORS
330
1ADE8
102
}
330
1ADE8
100
AcDbXrecord
280
     1
340
17AE1
  0
DICTIONARYVAR
  5
1A70B
102
{ACAD_REACTORS
330
1A70A
102
}
330
1A70A
100
DictionaryVariables
280
     0
  1
1
  0
DICTIONARYVAR
  5
1A70C
102
{ACAD_REACTORS
330
1A70A
102
}
330
1A70A
100
DictionaryVariables
280
     0
  1

  0
DICTIONARY
  5
1ADEB
330
17AE5
100
AcDbDictionary
280
     1
281
     1
  3
ACAD_XREC_ROUNDTRIP
360
1ADEC
  0
DICTIONARY
  5
1ADED
330
17AE6
100
AcDbDictionary
280
     1
281
     1
  3
ACAD_XREC_ROUNDTRIP
360
1ADEE
  0
XRECORD
  5
1ADEC
102
{ACAD_REACTORS
330
1ADEB
102
}
330
1ADEB
100
AcDbXrecord
280
     1
102
SHADEPLOT
 70
     0
102
SHADEPLOTRESLEVEL
 70
     2
102
SHADEPLOTCUSTOMDPI
 70
   300
  0
XRECORD
  5
1ADEE
102
{ACAD_REACTORS
330
1ADED
102
}
330
1ADED
100
AcDbXrecord
280
     1
102
SHADEPLOT
 70
     0
102
SHADEPLOTRESLEVEL
 70
     2
102
SHADEPLOTCUSTOMDPI
 70
   300
  0
ENDSEC
  0
EOF
