  0
SECTION
  2
HEADER
  9
$ACADVER
  1
AC1015
  9
$ACADMAINTVER
 70
    20
  9
$DWGCODEPAGE
  3
ANSI_932
  9
$INSBASE
 10
0.0
 20
0.0
 30
0.0
  9
$EXTMIN
 10
139.9999999999995
 20
-0.0000000000000909
 30
0.0
  9
$EXTMAX
 10
16307.2
 20
11409.6
 30
0.0
  9
$LIMMIN
 10
0.0
 20
0.0
  9
$LIMMAX
 10
16800.0
 20
11880.0
  9
$ORTHOMODE
 70
     0
  9
$REGENMODE
 70
     1
  9
$FILLMODE
 70
     1
  9
$QTEXTMODE
 70
     0
  9
$MIRRTEXT
 70
     1
  9
$LTSCALE
 40
20.0
  9
$ATTMODE
 70
     1
  9
$TEXTSIZE
 40
4.0
  9
$TRACEWID
 40
1.0
  9
$TEXTSTYLE
  7
MSPゴシック
  9
$CLAYER
  8
寸法
  9
$CELTYPE
  6
BYLAYER
  9
$CECOLOR
 62
   256
  9
$CELTSCALE
 40
50.0
  9
$DISPSILH
 70
     0
  9
$DIMSCALE
 40
40.0
  9
$DIMASZ
 40
2.5
  9
$DIMEXO
 40
0.5
  9
$DIMDLI
 40
7.0
  9
$DIMRND
 40
0.0
  9
$DIMDLE
 40
0.0
  9
$DIMEXE
 40
1.5
  9
$DIMTP
 40
0.0
  9
$DIMTM
 40
0.0
  9
$DIMTXT
 40
3.0
  9
$DIMCEN
 40
0.0
  9
$DIMTSZ
 40
0.0
  9
$DIMTOL
 70
     0
  9
$DIMLIM
 70
     0
  9
$DIMTIH
 70
     0
  9
$DIMTOH
 70
     0
  9
$DIMSE1
 70
     0
  9
$DIMSE2
 70
     0
  9
$DIMTAD
 70
     3
  9
$DIMZIN
 70
     8
  9
$DIMBLK
  1

  9
$DIMASO
 70
     1
  9
$DIMSHO
 70
     1
  9
$DIMPOST
  1

  9
$DIMAPOST
  1

  9
$DIMALT
 70
     0
  9
$DIMALTD
 70
     2
  9
$DIMALTF
 40
0.0394
  9
$DIMLFAC
 40
1.0
  9
$DIMTOFL
 70
     1
  9
$DIMTVP
 40
0.0
  9
$DIMTIX
 70
     1
  9
$DIMSOXD
 70
     0
  9
$DIMSAH
 70
     1
  9
$DIMBLK1
  1
DOTSMALL
  9
$DIMBLK2
  1
DOTSMALL
  9
$DIMSTYLE
  2
INABA_S40G
  9
$DIMCLRD
 70
     0
  9
$DIMCLRE
 70
     0
  9
$DIMCLRT
 70
     7
  9
$DIMTFAC
 40
1.0
  9
$DIMGAP
 40
1.0
  9
$DIMJUST
 70
     0
  9
$DIMSD1
 70
     0
  9
$DIMSD2
 70
     0
  9
$DIMTOLJ
 70
     1
  9
$DIMTZIN
 70
     0
  9
$DIMALTZ
 70
     0
  9
$DIMALTTZ
 70
     0
  9
$DIMUPT
 70
     0
  9
$DIMDEC
 70
     1
  9
$DIMTDEC
 70
     4
  9
$DIMALTU
 70
     2
  9
$DIMALTTD
 70
     2
  9
$DIMTXSTY
  7
STYLE1
  9
$DIMAUNIT
 70
     0
  9
$DIMADEC
 70
     0
  9
$DIMALTRND
 40
0.0
  9
$DIMAZIN
 70
     0
  9
$DIMDSEP
 70
    46
  9
$DIMATFIT
 70
     3
  9
$DIMFRAC
 70
     0
  9
$DIMLDRBLK
  1

  9
$DIMLUNIT
 70
     2
  9
$DIMLWD
 70
    -2
  9
$DIMLWE
 70
    -2
  9
$DIMTMOVE
 70
     2
  9
$LUNITS
 70
     2
  9
$LUPREC
 70
     1
  9
$SKETCHINC
 40
1.0
  9
$FILLETRAD
 40
3.0
  9
$AUNITS
 70
     0
  9
$AUPREC
 70
     0
  9
$MENU
  1
acad
  9
$ELEVATION
 40
0.0
  9
$PELEVATION
 40
0.0
  9
$THICKNESS
 40
0.0
  9
$LIMCHECK
 70
     0
  9
$CHAMFERA
 40
0.0
  9
$CHAMFERB
 40
0.0
  9
$CHAMFERC
 40
0.0
  9
$CHAMFERD
 40
0.0
  9
$SKPOLY
 70
     0
  9
$TDCREATE
 40
2451368.612993866
  9
$TDUCREATE
 40
2451368.237993866
  9
$TDUPDATE
 40
2455569.645843635
  9
$TDUUPDATE
 40
2455569.270843635
  9
$TDINDWG
 40
0.8347103125
  9
$TDUSRTIMER
 40
0.8347103125
  9
$USRTIMER
 70
     1
  9
$ANGBASE
 50
0.0
  9
$ANGDIR
 70
     0
  9
$PDMODE
 70
     3
  9
$PDSIZE
 40
2.0
  9
$PLINEWID
 40
0.0
  9
$SPLFRAME
 70
     0
  9
$SPLINETYPE
 70
     6
  9
$SPLINESEGS
 70
     8
  9
$HANDSEED
  5
1A139
  9
$SURFTAB1
 70
     6
  9
$SURFTAB2
 70
     6
  9
$SURFTYPE
 70
     6
  9
$SURFU
 70
     6
  9
$SURFV
 70
     6
  9
$UCSBASE
  2

  9
$UCSNAME
  2

  9
$UCSORG
 10
0.0
 20
0.0
 30
0.0
  9
$UCSXDIR
 10
1.0
 20
0.0
 30
0.0
  9
$UCSYDIR
 10
0.0
 20
1.0
 30
0.0
  9
$UCSORTHOREF
  2

  9
$UCSORTHOVIEW
 70
     0
  9
$UCSORGTOP
 10
0.0
 20
0.0
 30
0.0
  9
$UCSORGBOTTOM
 10
0.0
 20
0.0
 30
0.0
  9
$UCSORGLEFT
 10
0.0
 20
0.0
 30
0.0
  9
$UCSORGRIGHT
 10
0.0
 20
0.0
 30
0.0
  9
$UCSORGFRONT
 10
0.0
 20
0.0
 30
0.0
  9
$UCSORGBACK
 10
0.0
 20
0.0
 30
0.0
  9
$PUCSBASE
  2

  9
$PUCSNAME
  2

  9
$PUCSORG
 10
0.0
 20
0.0
 30
0.0
  9
$PUCSXDIR
 10
1.0
 20
0.0
 30
0.0
  9
$PUCSYDIR
 10
0.0
 20
1.0
 30
0.0
  9
$PUCSORTHOREF
  2

  9
$PUCSORTHOVIEW
 70
     0
  9
$PUCSORGTOP
 10
0.0
 20
0.0
 30
0.0
  9
$PUCSORGBOTTOM
 10
0.0
 20
0.0
 30
0.0
  9
$PUCSORGLEFT
 10
0.0
 20
0.0
 30
0.0
  9
$PUCSORGRIGHT
 10
0.0
 20
0.0
 30
0.0
  9
$PUCSORGFRONT
 10
0.0
 20
0.0
 30
0.0
  9
$PUCSORGBACK
 10
0.0
 20
0.0
 30
0.0
  9
$USERI1
 70
     0
  9
$USERI2
 70
     0
  9
$USERI3
 70
     0
  9
$USERI4
 70
     0
  9
$USERI5
 70
     0
  9
$USERR1
 40
0.0
  9
$USERR2
 40
0.0
  9
$USERR3
 40
0.0
  9
$USERR4
 40
0.0
  9
$USERR5
 40
0.0
  9
$WORLDVIEW
 70
     1
  9
$SHADEDGE
 70
     3
  9
$SHADEDIF
 70
    70
  9
$TILEMODE
 70
     1
  9
$MAXACTVP
 70
    16
  9
$PINSBASE
 10
0.0
 20
0.0
 30
0.0
  9
$PLIMCHECK
 70
     0
  9
$PEXTMIN
 10
1.000000000000000E+20
 20
1.000000000000000E+20
 30
1.000000000000000E+20
  9
$PEXTMAX
 10
-1.000000000000000E+20
 20
-1.000000000000000E+20
 30
-1.000000000000000E+20
  9
$PLIMMIN
 10
0.0
 20
0.0
  9
$PLIMMAX
 10
420.0
 20
297.0
  9
$UNITMODE
 70
     0
  9
$VISRETAIN
 70
     0
  9
$PLINEGEN
 70
     0
  9
$PSLTSCALE
 70
     0
  9
$TREEDEPTH
 70
  3020
  9
$CMLSTYLE
  2
STANDARD
  9
$CMLJUST
 70
     0
  9
$CMLSCALE
 40
1.0
  9
$PROXYGRAPHICS
 70
     1
  9
$MEASUREMENT
 70
     1
  9
$CELWEIGHT
370
    -1
  9
$ENDCAPS
280
     0
  9
$JOINSTYLE
280
     0
  9
$LWDISPLAY
290
     0
  9
$INSUNITS
 70
     0
  9
$HYPERLINKBASE
  1

  9
$STYLESHEET
  1
inaba.ctb
  9
$XEDIT
290
     1
  9
$CEPSNTYPE
380
     0
  9
$PSTYLEMODE
290
     1
  9
$FINGERPRINTGUID
  2
{0E4A3AB3-ADAA-44DC-861C-9525B65BB1EC}
  9
$VERSIONGUID
  2
{E9E5D03C-20F0-4F9E-AB89-B326EFA2A146}
  9
$EXTNAMES
290
     1
  9
$PSVPSCALE
 40
0.0
  9
$OLESTARTUP
290
     0
  0
ENDSEC
  0
SECTION
  2
CLASSES
  0
CLASS
  1
ACDBDICTIONARYWDFLT
  2
AcDbDictionaryWithDefault
  3
ObjectDBX Classes
 90
        0
280
     0
281
     0
  0
CLASS
  1
DICTIONARYVAR
  2
AcDbDictionaryVar
  3
ObjectDBX Classes
 90
        0
280
     0
281
     0
  0
CLASS
  1
ACDBPLACEHOLDER
  2
AcDbPlaceHolder
  3
ObjectDBX Classes
 90
        0
280
     0
281
     0
  0
CLASS
  1
LAYOUT
  2
AcDbLayout
  3
ObjectDBX Classes
 90
        0
280
     0
281
     0
  0
ENDSEC
  0
SECTION
  2
TABLES
  0
TABLE
  2
VPORT
  5
746D
330
0
100
AcDbSymbolTable
 70
     2
  0
VPORT
  5
1A131
330
746D
100
AcDbSymbolTableRecord
100
AcDbViewportTableRecord
  2
*Active
 70
     0
 10
0.0
 20
0.0
 11
1.0
 21
1.0
 12
11720.25903428193
 22
5704.513862896347
 13
0.0
 23
0.0
 14
10.0
 24
10.0
 15
10.0
 25
10.0
 16
0.0
 26
0.0
 36
1.0
 17
0.0
 27
0.0
 37
0.0
 40
11513.95019505916
 41
2.234800838574423
 42
50.0
 43
0.0
 44
0.0
 50
0.0
 51
0.0
 71
     0
 72
     0
 73
     1
 74
     0
 75
     0
 76
     0
 77
     0
 78
     0
281
     0
 65
     1
110
0.0
120
0.0
130
0.0
111
1.0
121
0.0
131
0.0
112
0.0
122
1.0
132
0.0
 79
     0
146
0.0
  0
ENDTAB
  0
TABLE
  2
LTYPE
  5
746A
330
0
100
AcDbSymbolTable
 70
     3
  0
LTYPE
  5
7477
330
746A
100
AcDbSymbolTableRecord
100
AcDbLinetypeTableRecord
  2
BYBLOCK
 70
     0
  3

 72
    65
 73
     0
 40
0.0
  0
LTYPE
  5
7478
330
746A
100
AcDbSymbolTableRecord
100
AcDbLinetypeTableRecord
  2
BYLAYER
 70
     0
  3

 72
    65
 73
     0
 40
0.0
  0
LTYPE
  5
7479
330
746A
100
AcDbSymbolTableRecord
100
AcDbLinetypeTableRecord
  2
CONTINUOUS
 70
     0
  3
Solid line
 72
    65
 73
     0
 40
0.0
  0
LTYPE
  5
781A
330
746A
100
AcDbSymbolTableRecord
100
AcDbLinetypeTableRecord
  2
HIDDEN
 70
     0
  3
__ __ __ __ __ __ __ __ __ __ __ __ __ __ __ __
 72
    65
 73
     2
 40
0.375
 49
0.25
 74
     0
 49
-0.125
 74
     0
  0
LTYPE
  5
781B
330
746A
100
AcDbSymbolTableRecord
100
AcDbLinetypeTableRecord
  2
PHANTOM
 70
     0
  3
______  __  __  ______  __  __  ______  __  __ 
 72
    65
 73
     6
 40
2.5
 49
1.25
 74
     0
 49
-0.25
 74
     0
 49
0.25
 74
     0
 49
-0.25
 74
     0
 49
0.25
 74
     0
 49
-0.25
 74
     0
  0
ENDTAB
  0
TABLE
  2
LAYER
  5
7467
102
{ACAD_XDICTIONARY
360
18CF7
102
}
330
0
100
AcDbSymbolTable
 70
    10
  0
LAYER
  5
7474
330
7467
100
AcDbSymbolTableRecord
100
AcDbLayerTableRecord
  2
0
 70
     0
 62
     7
  6
CONTINUOUS
370
    -3
390
17AE0
  0
LAYER
  5
DEB3
330
7467
100
AcDbSymbolTableRecord
100
AcDbLayerTableRecord
  2
寸法
 70
     0
 62
     4
  6
CONTINUOUS
370
    -3
390
17AE0
  0
LAYER
  5
DEB4
330
7467
100
AcDbSymbolTableRecord
100
AcDbLayerTableRecord
  2
部品1
 70
     0
 62
     7
  6
CONTINUOUS
370
    -3
390
17AE0
  0
LAYER
  5
DEB5
330
7467
100
AcDbSymbolTableRecord
100
AcDbLayerTableRecord
  2
補助
 70
     0
 62
    -1
  6
CONTINUOUS
370
    -3
390
17AE0
  0
LAYER
  5
DEB6
330
7467
100
AcDbSymbolTableRecord
100
AcDbLayerTableRecord
  2
文字
 70
     0
 62
     7
  6
CONTINUOUS
370
    -3
390
17AE0
  0
LAYER
  5
F255
330
7467
100
AcDbSymbolTableRecord
100
AcDbLayerTableRecord
  2
DEFPOINTS
 70
     0
 62
     7
  6
CONTINUOUS
290
     0
370
    -3
390
17AE0
  0
LAYER
  5
10B54
330
7467
100
AcDbSymbolTableRecord
100
AcDbLayerTableRecord
  2
仕様書枠
 70
     0
 62
   230
  6
CONTINUOUS
370
    -3
390
17AE0
  0
LAYER
  5
11729
330
7467
100
AcDbSymbolTableRecord
100
AcDbLayerTableRecord
  2
Ｇ．Ｌ
 70
     0
 62
    30
  6
CONTINUOUS
370
    -3
390
17AE0
  0
LAYER
  5
1173F
330
7467
100
AcDbSymbolTableRecord
100
AcDbLayerTableRecord
  2
細線
 70
     0
 62
     5
  6
CONTINUOUS
370
    -3
390
17AE0
  0
LAYER
  5
142E2
330
7467
100
AcDbSymbolTableRecord
100
AcDbLayerTableRecord
  2
破線
 70
     0
 62
     2
  6
HIDDEN
370
    -3
390
17AE0
  0
ENDTAB
  0
TABLE
  2
STYLE
  5
7468
330
0
100
AcDbSymbolTable
 70
     7
  0
STYLE
  5
7475
330
7468
100
AcDbSymbolTableRecord
100
AcDbTextStyleTableRecord
  2
STANDARD
 70
     0
 40
0.0
 41
1.0
 50
0.0
 71
     0
 42
4.0
  3
txt
  4
C:\AutoCAD LT\bigfont.shx
  0
STYLE
  5
763C
330
7468
100
AcDbSymbolTableRecord
100
AcDbTextStyleTableRecord
  2
MSMINCHO
 70
     0
 40
0.0
 41
1.0
 50
0.0
 71
     0
 42
1.199999999999999
  3
MS PMincho.ttf
  4

1001
ACAD
1000
MS PMincho
1071
    32786
  0
STYLE
  5
F706
330
7468
100
AcDbSymbolTableRecord
100
AcDbTextStyleTableRecord
  2
STYLE1
 70
     0
 40
0.0
 41
1.0
 50
0.0
 71
     0
 42
4.0
  3
isocp.shx
  4
bigfont.shx
  0
STYLE
  5
103BF
330
7468
100
AcDbSymbolTableRecord
100
AcDbTextStyleTableRecord
  2
STYLE2
 70
     0
 40
0.0
 41
1.0
 50
0.0
 71
     0
 42
100.0
  3
MS PGothic.ttf
  4

1001
ACAD
1000
MS PGothic
1071
    32818
  0
STYLE
  5
10BAA
330
7468
100
AcDbSymbolTableRecord
100
AcDbTextStyleTableRecord
  2
STYLE3
 70
     0
 40
0.0
 41
1.0
 50
0.0
 71
     0
 42
100.0
  3
DFPGothic-EB.ttf
  4

1001
ACAD
1000
DFPGothic-EB
1071
    32818
  0
STYLE
  5
11A15
330
7468
100
AcDbSymbolTableRecord
100
AcDbTextStyleTableRecord
  2
MSGOTHIC
 70
     0
 40
0.0
 41
1.0
 50
0.0
 71
     0
 42
3.5
  3
MS PGothic.ttf
  4

1001
ACAD
1000
MS PGothic
1071
    32818
  0
STYLE
  5
13E96
330
7468
100
AcDbSymbolTableRecord
100
AcDbTextStyleTableRecord
  2
MSPゴシック
 70
     0
 40
0.0
 41
1.0
 50
0.0
 71
     0
 42
4.0
  3
MS PGothic.ttf
  4

1001
ACAD
1000
MS PGothic
1071
    32818
  0
ENDTAB
  0
TABLE
  2
VIEW
  5
746B
330
0
100
AcDbSymbolTable
 70
     0
  0
ENDTAB
  0
TABLE
  2
UCS
  5
746C
330
0
100
AcDbSymbolTable
 70
     0
  0
ENDTAB
  0
TABLE
  2
APPID
  5
746E
330
0
100
AcDbSymbolTable
 70
     6
  0
APPID
  5
7476
330
746E
100
AcDbSymbolTableRecord
100
AcDbRegAppTableRecord
  2
ACAD
 70
     0
  0
APPID
  5
DEA9
330
746E
100
AcDbSymbolTableRecord
100
AcDbRegAppTableRecord
  2
CONTENTBLOCKICON
 70
     0
  0
APPID
  5
DEAA
330
746E
100
AcDbSymbolTableRecord
100
AcDbRegAppTableRecord
  2
CONTENTBLOCKDESCRIPTION
 70
     0
  0
APPID
  5
E71D
330
746E
100
AcDbSymbolTableRecord
100
AcDbRegAppTableRecord
  2
CONTENTTABDATA
 70
     0
  0
APPID
  5
E71E
330
746E
100
AcDbSymbolTableRecord
100
AcDbRegAppTableRecord
  2
CONTENTCURRENTTAB
 70
     0
  0
APPID
  5
F3BA
330
746E
100
AcDbSymbolTableRecord
100
AcDbRegAppTableRecord
  2
DRAWINGVARIABLESXDATA
 70
     0
  0
ENDTAB
  0
TABLE
  2
DIMSTYLE
  5
746F
330
0
100
AcDbSymbolTable
 70
     1
100
AcDbDimStyleTable
 71
     1
340
F71F
  0
DIMSTYLE
105
F71F
102
{ACAD_REACTORS
330
162CD
330
162CE
330
162CF
330
162D0
330
162E4
330
162E7
330
162EA
330
162EB
330
16301
330
16302
330
1631F
330
16320
330
16333
330
1659C
330
1659A
330
165E9
330
166DD
330
16913
330
17BC3
330
17B87
330
17B86
330
18EA5
330
18EB4
330
18EC2
330
18EC3
330
18EC4
330
18EC8
330
18EF8
330
18EF9
330
18EFA
330
1980F
330
1981F
330
19820
330
19821
330
19F98
330
19F99
330
19F9A
102
}
330
746F
100
AcDbSymbolTableRecord
100
AcDbDimStyleTableRecord
  2
INABA_S40G
 70
     0
 40
40.0
 41
2.5
 42
0.5
 43
7.0
 44
1.5
 73
     0
 74
     0
 77
     3
 78
     8
140
3.0
141
0.0
143
0.0394
147
1.0
172
     1
173
     1
174
     1
178
     7
271
     1
340
F706
341
F770
343
F770
344
F770
  0
ENDTAB
  0
TABLE
  2
BLOCK_RECORD
  5
7466
330
0
100
AcDbSymbolTable
 70
    38
  0
BLOCK_RECORD
  5
747D
330
7466
100
AcDbSymbolTableRecord
100
AcDbBlockTableRecord
  2
*MODEL_SPACE
340
17AE5
  0
BLOCK_RECORD
  5
747A
330
7466
100
AcDbSymbolTableRecord
100
AcDbBlockTableRecord
  2
*PAPER_SPACE
340
17AE6
  0
BLOCK_RECORD
  5
F770
330
7466
100
AcDbSymbolTableRecord
100
AcDbBlockTableRecord
  2
_DOTSMALL
340
0
102
{BLKREFS
331
1891E
331
1891F
331
18927
331
18928
331
18930
331
18931
331
18938
331
18939
331
18943
331
18944
331
1894D
331
1894E
331
18958
331
18959
331
18963
331
18964
331
1896D
331
1896E
331
18978
331
18979
331
18981
331
18982
331
1898C
331
1898D
331
18998
331
18999
331
189A3
331
189A4
331
189AD
331
189AE
331
189B6
331
189B7
331
189BE
331
189BF
331
189C7
331
189C8
331
189D2
331
189D3
331
189DD
331
189DE
331
189E6
331
189E7
331
19309
331
1930A
331
19312
331
19313
331
1931B
331
1931C
331
19326
331
19327
331
1933A
331
1933B
331
1934D
331
1934E
331
19357
331
19358
331
19E12
331
19E13
331
19E1B
331
19E1C
331
19E26
331
19E27
331
19E31
331
19E32
331
1A08D
331
1A08E
331
1A0F4
331
1A0F5
331
1A0FD
331
1A0FE
331
1A114
331
1A115
331
1A11D
331
1A11E
102
}
  0
BLOCK_RECORD
  5
16338
330
7466
100
AcDbSymbolTableRecord
100
AcDbBlockTableRecord
  2
*D1
340
0
  0
BLOCK_RECORD
  5
16344
330
7466
100
AcDbSymbolTableRecord
100
AcDbBlockTableRecord
  2
*D2
340
0
  0
BLOCK_RECORD
  5
16352
330
7466
100
AcDbSymbolTableRecord
100
AcDbBlockTableRecord
  2
*D3
340
0
  0
BLOCK_RECORD
  5
16360
330
7466
100
AcDbSymbolTableRecord
100
AcDbBlockTableRecord
  2
*D4
340
0
  0
BLOCK_RECORD
  5
16384
330
7466
100
AcDbSymbolTableRecord
100
AcDbBlockTableRecord
  2
*D5
340
0
  0
BLOCK_RECORD
  5
1638F
330
7466
100
AcDbSymbolTableRecord
100
AcDbBlockTableRecord
  2
*D6
340
0
  0
BLOCK_RECORD
  5
1639B
330
7466
100
AcDbSymbolTableRecord
100
AcDbBlockTableRecord
  2
*D7
340
0
  0
BLOCK_RECORD
  5
163A9
330
7466
100
AcDbSymbolTableRecord
100
AcDbBlockTableRecord
  2
*D8
340
0
  0
BLOCK_RECORD
  5
163B8
330
7466
100
AcDbSymbolTableRecord
100
AcDbBlockTableRecord
  2
*D9
340
0
  0
BLOCK_RECORD
  5
163C7
330
7466
100
AcDbSymbolTableRecord
100
AcDbBlockTableRecord
  2
*D10
340
0
  0
BLOCK_RECORD
  5
163E1
330
7466
100
AcDbSymbolTableRecord
100
AcDbBlockTableRecord
  2
*D11
340
0
  0
BLOCK_RECORD
  5
163ED
330
7466
100
AcDbSymbolTableRecord
100
AcDbBlockTableRecord
  2
*D12
340
0
  0
BLOCK_RECORD
  5
163FB
330
7466
100
AcDbSymbolTableRecord
100
AcDbBlockTableRecord
  2
*D13
340
0
  0
BLOCK_RECORD
  5
165B5
330
7466
100
AcDbSymbolTableRecord
100
AcDbBlockTableRecord
  2
*D14
340
0
  0
BLOCK_RECORD
  5
165C4
330
7466
100
AcDbSymbolTableRecord
100
AcDbBlockTableRecord
  2
*D15
340
0
  0
BLOCK_RECORD
  5
165EA
330
7466
100
AcDbSymbolTableRecord
100
AcDbBlockTableRecord
  2
*D16
340
0
  0
BLOCK_RECORD
  5
166CF
330
7466
100
AcDbSymbolTableRecord
100
AcDbBlockTableRecord
  2
*D17
340
0
  0
BLOCK_RECORD
  5
16908
330
7466
100
AcDbSymbolTableRecord
100
AcDbBlockTableRecord
  2
*D18
340
0
  0
BLOCK_RECORD
  5
17BD3
330
7466
100
AcDbSymbolTableRecord
100
AcDbBlockTableRecord
  2
*D19
340
0
  0
BLOCK_RECORD
  5
17BDE
330
7466
100
AcDbSymbolTableRecord
100
AcDbBlockTableRecord
  2
*D20
340
0
  0
BLOCK_RECORD
  5
17BF8
330
7466
100
AcDbSymbolTableRecord
100
AcDbBlockTableRecord
  2
*D21
340
0
  0
BLOCK_RECORD
  5
19039
330
7466
100
AcDbSymbolTableRecord
100
AcDbBlockTableRecord
  2
*D22
340
0
  0
BLOCK_RECORD
  5
19046
330
7466
100
AcDbSymbolTableRecord
100
AcDbBlockTableRecord
  2
*D23
340
0
  0
BLOCK_RECORD
  5
19053
330
7466
100
AcDbSymbolTableRecord
100
AcDbBlockTableRecord
  2
*D24
340
0
  0
BLOCK_RECORD
  5
1905F
330
7466
100
AcDbSymbolTableRecord
100
AcDbBlockTableRecord
  2
*D25
340
0
  0
BLOCK_RECORD
  5
1906D
330
7466
100
AcDbSymbolTableRecord
100
AcDbBlockTableRecord
  2
*D26
340
0
  0
BLOCK_RECORD
  5
19079
330
7466
100
AcDbSymbolTableRecord
100
AcDbBlockTableRecord
  2
*D27
340
0
  0
BLOCK_RECORD
  5
19087
330
7466
100
AcDbSymbolTableRecord
100
AcDbBlockTableRecord
  2
*D28
340
0
  0
BLOCK_RECORD
  5
19093
330
7466
100
AcDbSymbolTableRecord
100
AcDbBlockTableRecord
  2
*D29
340
0
  0
BLOCK_RECORD
  5
1909F
330
7466
100
AcDbSymbolTableRecord
100
AcDbBlockTableRecord
  2
*D30
340
0
  0
BLOCK_RECORD
  5
199E9
330
7466
100
AcDbSymbolTableRecord
100
AcDbBlockTableRecord
  2
*D31
340
0
  0
BLOCK_RECORD
  5
199F7
330
7466
100
AcDbSymbolTableRecord
100
AcDbBlockTableRecord
  2
*D32
340
0
  0
BLOCK_RECORD
  5
19A05
330
7466
100
AcDbSymbolTableRecord
100
AcDbBlockTableRecord
  2
*D33
340
0
  0
BLOCK_RECORD
  5
19A11
330
7466
100
AcDbSymbolTableRecord
100
AcDbBlockTableRecord
  2
*D34
340
0
  0
BLOCK_RECORD
  5
1A008
330
7466
100
AcDbSymbolTableRecord
100
AcDbBlockTableRecord
  2
*D35
340
0
  0
BLOCK_RECORD
  5
1A015
330
7466
100
AcDbSymbolTableRecord
100
AcDbBlockTableRecord
  2
*D36
340
0
  0
BLOCK_RECORD
  5
1A023
330
7466
100
AcDbSymbolTableRecord
100
AcDbBlockTableRecord
  2
*D37
340
0
  0
ENDTAB
  0
ENDSEC
  0
SECTION
  2
BLOCKS
  0
BLOCK
  5
7489
330
747D
100
AcDbEntity
  8
0
100
AcDbBlockBegin
  2
*MODEL_SPACE
 70
     0
 10
0.0
 20
0.0
 30
0.0
  3
*MODEL_SPACE
  1

  0
ENDBLK
  5
748A
330
747D
100
AcDbEntity
  8
0
100
AcDbBlockEnd
  0
BLOCK
  5
7487
330
747A
100
AcDbEntity
 67
     1
  8
0
100
AcDbBlockBegin
  2
*PAPER_SPACE
 70
     0
 10
0.0
 20
0.0
 30
0.0
  3
*PAPER_SPACE
  1

  0
ENDBLK
  5
7488
330
747A
100
AcDbEntity
 67
     1
  8
0
100
AcDbBlockEnd
  0
BLOCK
  5
F771
330
F770
100
AcDbEntity
  8
0
 48
50.0
100
AcDbBlockBegin
  2
_DOTSMALL
 70
     0
 10
0.0
 20
0.0
 30
0.0
  3
_DOTSMALL
  1

  0
LWPOLYLINE
  5
F772
330
F770
100
AcDbEntity
  8
0
  6
ByBlock
 62
     0
 48
50.0
100
AcDbPolyline
 90
        2
 70
     1
 43
0.5
 10
-0.0625
 20
0.0
 42
1.0
 10
0.0625
 20
0.0
 42
1.0
  0
ENDBLK
  5
F776
330
F770
100
AcDbEntity
  8
0
 48
50.0
100
AcDbBlockEnd
  0
BLOCK
  5
164EB
330
16338
100
AcDbEntity
  8
0
 48
50.0
100
AcDbBlockBegin
  2
*D1
 70
     1
 10
0.0
 20
0.0
 30
0.0
  3
*D1
  1

  0
LINE
  5
189E3
330
16338
100
AcDbEntity
  8
寸法
 62
     0
 48
50.0
370
    -2
100
AcDbLine
 10
7604.673057123673
 20
10137.49742454596
 30
0.0
 11
8292.099402858079
 21
10137.49742454596
 31
0.0
  0
LINE
  5
189E4
330
16338
100
AcDbEntity
  8
寸法
 62
     0
 48
50.0
370
    -2
100
AcDbLine
 10
7604.673057123648
 20
7197.497424545952
 30
0.0
 11
8292.099402858079
 21
7197.497424545952
 31
0.0
  0
LINE
  5
189E5
330
16338
100
AcDbEntity
  8
寸法
 62
     0
 48
50.0
370
    -2
100
AcDbLine
 10
8232.099402858079
 20
10137.49742454596
 30
0.0
 11
8232.099402858079
 21
7197.497424545952
 31
0.0
  0
INSERT
  5
189E6
330
16338
100
AcDbEntity
  8
寸法
 62
     0
 48
50.0
370
    -2
100
AcDbBlockReference
  2
_DOTSMALL
 10
8232.099402858079
 20
10137.49742454596
 30
0.0
 41
100.0
 42
100.0
 43
100.0
 50
90.0
  0
INSERT
  5
189E7
330
16338
100
AcDbEntity
  8
寸法
 62
     0
 48
50.0
370
    -2
100
AcDbBlockReference
  2
_DOTSMALL
 10
8232.099402858079
 20
7197.497424545952
 30
0.0
 41
100.0
 42
100.0
 43
100.0
 50
270.0
  0
MTEXT
  5
189E8
330
16338
100
AcDbEntity
  8
寸法
 62
     7
 48
50.0
100
AcDbMText
 10
8132.087591834457
 20
8667.497424545961
 30
0.0
 40
120.0
 41
0.0
 71
     5
 72
     1
  1
\A1;7X420=2940
  7
STYLE1
 11
0.0000000000000001
 21
1.0
 31
0.0
 73
     1
 44
1.0
1001
ACAD
1000
MTEXTBEGIN
1070
    73
1070
     1
1070
    44
1040
1.0
1070
    74
1070
     0
1000
MTEXTEND
  0
POINT
  5
189E9
330
16338
100
AcDbEntity
  8
DEFPOINTS
 62
     0
 48
50.0
100
AcDbPoint
 10
7584.673057123673
 20
10137.49742454596
 30
0.0
  0
POINT
  5
189EA
330
16338
100
AcDbEntity
  8
DEFPOINTS
 62
     0
 48
50.0
100
AcDbPoint
 10
7584.673057123648
 20
7197.497424545952
 30
0.0
  0
POINT
  5
189EB
330
16338
100
AcDbEntity
  8
DEFPOINTS
 62
     0
 48
50.0
100
AcDbPoint
 10
8232.099402858079
 20
7197.497424545952
 30
0.0
  0
ENDBLK
  5
164F5
330
16338
100
AcDbEntity
  8
0
 48
50.0
100
AcDbBlockEnd
  0
BLOCK
  5
16414
330
16344
100
AcDbEntity
  8
0
 48
50.0
100
AcDbBlockBegin
  2
*D2
 70
     1
 10
0.0
 20
0.0
 30
0.0
  3
*D2
  1

  0
LINE
  5
189D8
330
16344
100
AcDbEntity
  8
寸法
 62
     0
 48
50.0
370
    -2
100
AcDbLine
 10
7604.673057123648
 20
7197.497424545952
 30
0.0
 11
8292.09940285806
 21
7197.497424545952
 31
0.0
  0
LINE
  5
189D9
330
16344
100
AcDbEntity
  8
寸法
 62
     0
 48
50.0
370
    -2
100
AcDbLine
 10
7604.673057123648
 20
7142.497424545957
 30
0.0
 11
8292.09940285806
 21
7142.497424545957
 31
0.0
  0
LINE
  5
189DA
330
16344
100
AcDbEntity
  8
寸法
 62
     0
 48
50.0
370
    -2
100
AcDbLine
 10
8232.099402858059
 20
7197.497424545952
 30
0.0
 11
8232.099402858059
 21
7297.497424545952
 31
0.0
  0
LINE
  5
189DB
330
16344
100
AcDbEntity
  8
寸法
 62
     0
 48
50.0
370
    -2
100
AcDbLine
 10
8232.099402858059
 20
7142.497424545957
 30
0.0
 11
8232.099402858059
 21
6656.150676266854
 31
0.0
  0
LINE
  5
189DC
330
16344
100
AcDbEntity
  8
寸法
 62
     0
 48
50.0
370
    -2
100
AcDbLine
 10
8232.099402858059
 20
7197.497424545952
 30
0.0
 11
8232.099402858059
 21
7142.497424545957
 31
0.0
  0
INSERT
  5
189DD
330
16344
100
AcDbEntity
  8
寸法
 62
     0
 48
50.0
370
    -2
100
AcDbBlockReference
  2
_DOTSMALL
 10
8232.099402858059
 20
7197.497424545952
 30
0.0
 41
100.0
 42
100.0
 43
100.0
 50
270.0
  0
INSERT
  5
189DE
330
16344
100
AcDbEntity
  8
寸法
 62
     0
 48
50.0
370
    -2
100
AcDbBlockReference
  2
_DOTSMALL
 10
8232.099402858059
 20
7142.497424545957
 30
0.0
 41
100.0
 42
100.0
 43
100.0
 50
90.0
  0
MTEXT
  5
189DF
330
16344
100
AcDbEntity
  8
寸法
 62
     7
 48
50.0
100
AcDbMText
 10
8132.099402858058
 20
6764.635957641094
 30
0.0
 40
120.0
 41
0.0
 71
     5
 72
     1
  1
\A1;55
  7
STYLE1
 11
0.0000000000000001
 21
1.0
 31
0.0
 73
     1
 44
1.0
1001
ACAD
1000
MTEXTBEGIN
1070
    73
1070
     1
1070
    44
1040
1.0
1070
    74
1070
     0
1000
MTEXTEND
  0
POINT
  5
189E0
330
16344
100
AcDbEntity
  8
DEFPOINTS
 62
     0
 48
50.0
100
AcDbPoint
 10
7584.673057123648
 20
7197.497424545952
 30
0.0
  0
POINT
  5
189E1
330
16344
100
AcDbEntity
  8
DEFPOINTS
 62
     0
 48
50.0
100
AcDbPoint
 10
7584.673057123648
 20
7142.497424545957
 30
0.0
  0
POINT
  5
189E2
330
16344
100
AcDbEntity
  8
DEFPOINTS
 62
     0
 48
50.0
100
AcDbPoint
 10
8232.099402858059
 20
7142.497424545957
 30
0.0
  0
ENDBLK
  5
16420
330
16344
100
AcDbEntity
  8
0
 48
50.0
100
AcDbBlockEnd
  0
BLOCK
  5
16421
330
16352
100
AcDbEntity
  8
0
 48
50.0
100
AcDbBlockBegin
  2
*D3
 70
     1
 10
0.0
 20
0.0
 30
0.0
  3
*D3
  1

  0
LINE
  5
189CD
330
16352
100
AcDbEntity
  8
寸法
 62
     0
 48
50.0
370
    -2
100
AcDbLine
 10
7604.673057123673
 20
10192.49742454596
 30
0.0
 11
8292.099402858084
 21
10192.49742454596
 31
0.0
  0
LINE
  5
189CE
330
16352
100
AcDbEntity
  8
寸法
 62
     0
 48
50.0
370
    -2
100
AcDbLine
 10
7604.673057123673
 20
10137.49742454596
 30
0.0
 11
8292.099402858084
 21
10137.49742454596
 31
0.0
  0
LINE
  5
189CF
330
16352
100
AcDbEntity
  8
寸法
 62
     0
 48
50.0
370
    -2
100
AcDbLine
 10
8232.099402858084
 20
10137.49742454596
 30
0.0
 11
8232.099402858084
 21
10037.49742454596
 31
0.0
  0
LINE
  5
189D0
330
16352
100
AcDbEntity
  8
寸法
 62
     0
 48
50.0
370
    -2
100
AcDbLine
 10
8232.099402858084
 20
10192.49742454596
 30
0.0
 11
8232.099402858084
 21
10609.46798729444
 31
0.0
  0
LINE
  5
189D1
330
16352
100
AcDbEntity
  8
寸法
 62
     0
 48
50.0
370
    -2
100
AcDbLine
 10
8232.099402858084
 20
10137.49742454596
 30
0.0
 11
8232.099402858084
 21
10192.49742454596
 31
0.0
  0
INSERT
  5
189D2
330
16352
100
AcDbEntity
  8
寸法
 62
     0
 48
50.0
370
    -2
100
AcDbBlockReference
  2
_DOTSMALL
 10
8232.099402858084
 20
10137.49742454596
 30
0.0
 41
100.0
 42
100.0
 43
100.0
 50
90.0
  0
INSERT
  5
189D3
330
16352
100
AcDbEntity
  8
寸法
 62
     0
 48
50.0
370
    -2
100
AcDbBlockReference
  2
_DOTSMALL
 10
8232.099402858084
 20
10192.49742454596
 30
0.0
 41
100.0
 42
100.0
 43
100.0
 50
270.0
  0
MTEXT
  5
189D4
330
16352
100
AcDbEntity
  8
寸法
 62
     7
 48
50.0
100
AcDbMText
 10
8132.099402858084
 20
10500.9827059202
 30
0.0
 40
120.0
 41
0.0
 71
     5
 72
     1
  1
\A1;55
  7
STYLE1
 11
0.0000000000000001
 21
1.0
 31
0.0
 73
     1
 44
1.0
1001
ACAD
1000
MTEXTBEGIN
1070
    73
1070
     1
1070
    44
1040
1.0
1070
    74
1070
     0
1000
MTEXTEND
  0
POINT
  5
189D5
330
16352
100
AcDbEntity
  8
DEFPOINTS
 62
     0
 48
50.0
100
AcDbPoint
 10
7584.673057123673
 20
10192.49742454596
 30
0.0
  0
POINT
  5
189D6
330
16352
100
AcDbEntity
  8
DEFPOINTS
 62
     0
 48
50.0
100
AcDbPoint
 10
7584.673057123673
 20
10137.49742454596
 30
0.0
  0
POINT
  5
189D7
330
16352
100
AcDbEntity
  8
DEFPOINTS
 62
     0
 48
50.0
100
AcDbPoint
 10
8232.099402858084
 20
10137.49742454596
 30
0.0
  0
ENDBLK
  5
1642D
330
16352
100
AcDbEntity
  8
0
 48
50.0
100
AcDbBlockEnd
  0
BLOCK
  5
164CA
330
16360
100
AcDbEntity
  8
0
 48
50.0
100
AcDbBlockBegin
  2
*D4
 70
     1
 10
0.0
 20
0.0
 30
0.0
  3
*D4
  1

  0
LINE
  5
189C4
330
16360
100
AcDbEntity
  8
寸法
 62
     0
 48
50.0
370
    -2
100
AcDbLine
 10
7604.673057123673
 20
10192.49742454596
 30
0.0
 11
8657.206344597717
 21
10192.49742454596
 31
0.0
  0
LINE
  5
189C5
330
16360
100
AcDbEntity
  8
寸法
 62
     0
 48
50.0
370
    -2
100
AcDbLine
 10
7604.673057123648
 20
7142.497424545957
 30
0.0
 11
8657.206344597717
 21
7142.497424545957
 31
0.0
  0
LINE
  5
189C6
330
16360
100
AcDbEntity
  8
寸法
 62
     0
 48
50.0
370
    -2
100
AcDbLine
 10
8597.206344597719
 20
10192.49742454596
 30
0.0
 11
8597.206344597719
 21
7142.497424545957
 31
0.0
  0
INSERT
  5
189C7
330
16360
100
AcDbEntity
  8
寸法
 62
     0
 48
50.0
370
    -2
100
AcDbBlockReference
  2
_DOTSMALL
 10
8597.206344597719
 20
10192.49742454596
 30
0.0
 41
100.0
 42
100.0
 43
100.0
 50
90.0
  0
INSERT
  5
189C8
330
16360
100
AcDbEntity
  8
寸法
 62
     0
 48
50.0
370
    -2
100
AcDbBlockReference
  2
_DOTSMALL
 10
8597.206344597719
 20
7142.497424545957
 30
0.0
 41
100.0
 42
100.0
 43
100.0
 50
270.0
  0
MTEXT
  5
189C9
330
16360
100
AcDbEntity
  8
寸法
 62
     7
 48
50.0
100
AcDbMText
 10
8497.206344597717
 20
8667.497424545961
 30
0.0
 40
120.0
 41
0.0
 71
     5
 72
     1
  1
\A1;3050
  7
STYLE1
 11
0.0000000000000001
 21
1.0
 31
0.0
 73
     1
 44
1.0
1001
ACAD
1000
MTEXTBEGIN
1070
    73
1070
     1
1070
    44
1040
1.0
1070
    74
1070
     0
1000
MTEXTEND
  0
POINT
  5
189CA
330
16360
100
AcDbEntity
  8
DEFPOINTS
 62
     0
 48
50.0
100
AcDbPoint
 10
7584.673057123673
 20
10192.49742454596
 30
0.0
  0
POINT
  5
189CB
330
16360
100
AcDbEntity
  8
DEFPOINTS
 62
     0
 48
50.0
100
AcDbPoint
 10
7584.673057123648
 20
7142.497424545957
 30
0.0
  0
POINT
  5
189CC
330
16360
100
AcDbEntity
  8
DEFPOINTS
 62
     0
 48
50.0
100
AcDbPoint
 10
8597.206344597719
 20
7142.497424545957
 30
0.0
  0
ENDBLK
  5
164D4
330
16360
100
AcDbEntity
  8
0
 48
50.0
100
AcDbBlockEnd
  0
BLOCK
  5
1728C
330
16384
100
AcDbEntity
  8
0
 48
50.0
100
AcDbBlockBegin
  2
*D5
 70
     1
 10
0.0
 20
0.0
 30
0.0
  3
*D5
  1

  0
LINE
  5
189BC
330
16384
100
AcDbEntity
  8
寸法
 62
     0
 48
50.0
370
    -2
100
AcDbLine
 10
5477.673057123666
 20
7148.497424545865
 30
0.0
 11
5477.673057123666
 21
6548.0666537797
 31
0.0
  0
LINE
  5
189BD
330
16384
100
AcDbEntity
  8
寸法
 62
     0
 48
50.0
370
    -2
100
AcDbLine
 10
7481.673057123647
 20
6608.0666537797
 30
0.0
 11
5477.673057123666
 21
6608.0666537797
 31
0.0
  0
INSERT
  5
189BE
330
16384
100
AcDbEntity
  8
寸法
 62
     0
 48
50.0
370
    -2
100
AcDbBlockReference
  2
_DOTSMALL
 10
7481.673057123647
 20
6608.0666537797
 30
0.0
 41
100.0
 42
100.0
 43
100.0
  0
INSERT
  5
189BF
330
16384
100
AcDbEntity
  8
寸法
 62
     0
 48
50.0
370
    -2
100
AcDbBlockReference
  2
_DOTSMALL
 10
5477.673057123666
 20
6608.0666537797
 30
0.0
 41
100.0
 42
100.0
 43
100.0
 50
180.0
  0
MTEXT
  5
189C0
330
16384
100
AcDbEntity
  8
寸法
 62
     7
 48
50.0
100
AcDbMText
 10
6479.673057123656
 20
6708.078464803323
 30
0.0
 40
120.0
 41
0.0
 71
     5
 72
     1
  1
\A1;有効開口部間口 2004
  7
STYLE1
 73
     1
 44
1.0
1001
ACAD
1000
MTEXTBEGIN
1070
    73
1070
     1
1070
    44
1040
1.0
1070
    74
1070
     0
1000
MTEXTEND
  0
POINT
  5
189C1
330
16384
100
AcDbEntity
  8
DEFPOINTS
 62
     0
 48
50.0
100
AcDbPoint
 10
7481.673057123647
 20
7168.497424545865
 30
0.0
  0
POINT
  5
189C2
330
16384
100
AcDbEntity
  8
DEFPOINTS
 62
     0
 48
50.0
100
AcDbPoint
 10
5477.673057123666
 20
7168.497424545865
 30
0.0
  0
POINT
  5
189C3
330
16384
100
AcDbEntity
  8
DEFPOINTS
 62
     0
 48
50.0
100
AcDbPoint
 10
5477.673057123666
 20
6608.0666537797
 30
0.0
  0
ENDBLK
  5
17295
330
16384
100
AcDbEntity
  8
0
 48
50.0
100
AcDbBlockEnd
  0
BLOCK
  5
17261
330
1638F
100
AcDbEntity
  8
0
 48
50.0
100
AcDbBlockBegin
  2
*D6
 70
     1
 10
0.0
 20
0.0
 30
0.0
  3
*D6
  1

  0
LINE
  5
189B3
330
1638F
100
AcDbEntity
  8
寸法
 62
     0
 48
50.0
370
    -2
100
AcDbLine
 10
3164.673057123666
 20
7122.497424545861
 30
0.0
 11
3164.673057123666
 21
6101.893658188827
 31
0.0
  0
LINE
  5
189B4
330
1638F
100
AcDbEntity
  8
寸法
 62
     0
 48
50.0
370
    -2
100
AcDbLine
 10
7584.673057123636
 20
7122.497424545956
 30
0.0
 11
7584.673057123636
 21
6101.893658188827
 31
0.0
  0
LINE
  5
189B5
330
1638F
100
AcDbEntity
  8
寸法
 62
     0
 48
50.0
370
    -2
100
AcDbLine
 10
3164.673057123666
 20
6161.893658188827
 30
0.0
 11
7584.673057123636
 21
6161.893658188827
 31
0.0
  0
INSERT
  5
189B6
330
1638F
100
AcDbEntity
  8
寸法
 62
     0
 48
50.0
370
    -2
100
AcDbBlockReference
  2
_DOTSMALL
 10
3164.673057123666
 20
6161.893658188827
 30
0.0
 41
100.0
 42
100.0
 43
100.0
 50
180.0
  0
INSERT
  5
189B7
330
1638F
100
AcDbEntity
  8
寸法
 62
     0
 48
50.0
370
    -2
100
AcDbBlockReference
  2
_DOTSMALL
 10
7584.673057123636
 20
6161.893658188827
 30
0.0
 41
100.0
 42
100.0
 43
100.0
  0
MTEXT
  5
189B8
330
1638F
100
AcDbEntity
  8
寸法
 62
     7
 48
50.0
100
AcDbMText
 10
5374.673057123651
 20
6261.905469212448
 30
0.0
 40
120.0
 41
0.0
 71
     5
 72
     1
  1
\A1;4420
  7
STYLE1
 73
     1
 44
1.0
1001
ACAD
1000
MTEXTBEGIN
1070
    73
1070
     1
1070
    44
1040
1.0
1070
    74
1070
     0
1000
MTEXTEND
  0
POINT
  5
189B9
330
1638F
100
AcDbEntity
  8
DEFPOINTS
 62
     0
 48
50.0
100
AcDbPoint
 10
3164.673057123666
 20
7142.497424545862
 30
0.0
  0
POINT
  5
189BA
330
1638F
100
AcDbEntity
  8
DEFPOINTS
 62
     0
 48
50.0
100
AcDbPoint
 10
7584.673057123636
 20
7142.497424545957
 30
0.0
  0
POINT
  5
189BB
330
1638F
100
AcDbEntity
  8
DEFPOINTS
 62
     0
 48
50.0
100
AcDbPoint
 10
7584.673057123636
 20
6161.893658188827
 30
0.0
  0
ENDBLK
  5
1726B
330
1638F
100
AcDbEntity
  8
0
 48
50.0
100
AcDbBlockEnd
  0
BLOCK
  5
16464
330
1639B
100
AcDbEntity
  8
0
 48
50.0
100
AcDbBlockBegin
  2
*D7
 70
     1
 10
0.0
 20
0.0
 30
0.0
  3
*D7
  1

  0
LINE
  5
189A8
330
1639B
100
AcDbEntity
  8
寸法
 62
     0
 48
50.0
370
    -2
100
AcDbLine
 10
3219.673057123662
 20
7122.497424545864
 30
0.0
 11
3219.673057123662
 21
6548.0666537797
 31
0.0
  0
LINE
  5
189A9
330
1639B
100
AcDbEntity
  8
寸法
 62
     0
 48
50.0
370
    -2
100
AcDbLine
 10
3164.673057123666
 20
7122.497424545861
 30
0.0
 11
3164.673057123666
 21
6548.0666537797
 31
0.0
  0
LINE
  5
189AA
330
1639B
100
AcDbEntity
  8
寸法
 62
     0
 48
50.0
370
    -2
100
AcDbLine
 10
3219.673057123662
 20
6608.0666537797
 30
0.0
 11
3319.673057123662
 21
6608.0666537797
 31
0.0
  0
LINE
  5
189AB
330
1639B
100
AcDbEntity
  8
寸法
 62
     0
 48
50.0
370
    -2
100
AcDbLine
 10
3164.673057123666
 20
6608.0666537797
 30
0.0
 11
2747.702494375189
 21
6608.0666537797
 31
0.0
  0
LINE
  5
189AC
330
1639B
100
AcDbEntity
  8
寸法
 62
     0
 48
50.0
370
    -2
100
AcDbLine
 10
3219.673057123662
 20
6608.0666537797
 30
0.0
 11
3164.673057123666
 21
6608.0666537797
 31
0.0
  0
INSERT
  5
189AD
330
1639B
100
AcDbEntity
  8
寸法
 62
     0
 48
50.0
370
    -2
100
AcDbBlockReference
  2
_DOTSMALL
 10
3219.673057123662
 20
6608.0666537797
 30
0.0
 41
100.0
 42
100.0
 43
100.0
 50
180.0
  0
INSERT
  5
189AE
330
1639B
100
AcDbEntity
  8
寸法
 62
     0
 48
50.0
370
    -2
100
AcDbBlockReference
  2
_DOTSMALL
 10
3164.673057123666
 20
6608.0666537797
 30
0.0
 41
100.0
 42
100.0
 43
100.0
  0
MTEXT
  5
189AF
330
1639B
100
AcDbEntity
  8
寸法
 62
     7
 48
50.0
100
AcDbMText
 10
2856.187775749427
 20
6708.0666537797
 30
0.0
 40
120.0
 41
0.0
 71
     5
 72
     1
  1
\A1;55
  7
STYLE1
 73
     1
 44
1.0
1001
ACAD
1000
MTEXTBEGIN
1070
    73
1070
     1
1070
    44
1040
1.0
1070
    74
1070
     0
1000
MTEXTEND
  0
POINT
  5
189B0
330
1639B
100
AcDbEntity
  8
DEFPOINTS
 62
     0
 48
50.0
100
AcDbPoint
 10
3219.673057123662
 20
7142.497424545864
 30
0.0
  0
POINT
  5
189B1
330
1639B
100
AcDbEntity
  8
DEFPOINTS
 62
     0
 48
50.0
100
AcDbPoint
 10
3164.673057123666
 20
7142.497424545862
 30
0.0
  0
POINT
  5
189B2
330
1639B
100
AcDbEntity
  8
DEFPOINTS
 62
     0
 48
50.0
100
AcDbPoint
 10
3164.673057123666
 20
6608.0666537797
 30
0.0
  0
ENDBLK
  5
16470
330
1639B
100
AcDbEntity
  8
0
 48
50.0
100
AcDbBlockEnd
  0
BLOCK
  5
16471
330
163A9
100
AcDbEntity
  8
0
 48
50.0
100
AcDbBlockBegin
  2
*D8
 70
     1
 10
0.0
 20
0.0
 30
0.0
  3
*D8
  1

  0
LINE
  5
1899D
330
163A9
100
AcDbEntity
  8
寸法
 62
     0
 48
50.0
370
    -2
100
AcDbLine
 10
5477.673057123666
 20
7148.497424545865
 30
0.0
 11
5477.673057123666
 21
6548.0666537797
 31
0.0
  0
LINE
  5
1899E
330
163A9
100
AcDbEntity
  8
寸法
 62
     0
 48
50.0
370
    -2
100
AcDbLine
 10
5429.673057123662
 20
7122.497424545864
 30
0.0
 11
5429.673057123662
 21
6548.0666537797
 31
0.0
  0
LINE
  5
1899F
330
163A9
100
AcDbEntity
  8
寸法
 62
     0
 48
50.0
370
    -2
100
AcDbLine
 10
5477.673057123666
 20
6608.0666537797
 30
0.0
 11
5577.673057123666
 21
6608.0666537797
 31
0.0
  0
LINE
  5
189A0
330
163A9
100
AcDbEntity
  8
寸法
 62
     0
 48
50.0
370
    -2
100
AcDbLine
 10
5429.673057123662
 20
6608.0666537797
 30
0.0
 11
5329.673057123662
 21
6608.0666537797
 31
0.0
  0
MTEXT
  5
189A1
330
163A9
100
AcDbEntity
  8
寸法
 62
     7
 48
50.0
100
AcDbMText
 10
5590.575028123723
 20
6708.0666537797
 30
0.0
 40
120.0
 41
0.0
 71
     5
 72
     1
  1
\A1;48
  7
STYLE1
 73
     1
 44
1.0
1001
ACAD
1000
MTEXTBEGIN
1070
    73
1070
     1
1070
    44
1040
1.0
1070
    74
1070
     0
1000
MTEXTEND
  0
LINE
  5
189A2
330
163A9
100
AcDbEntity
  8
寸法
 62
     0
 48
50.0
370
    -2
100
AcDbLine
 10
5477.673057123666
 20
6608.0666537797
 30
0.0
 11
5429.673057123662
 21
6608.0666537797
 31
0.0
  0
INSERT
  5
189A3
330
163A9
100
AcDbEntity
  8
寸法
 62
     0
 48
50.0
370
    -2
100
AcDbBlockReference
  2
_DOTSMALL
 10
5477.673057123666
 20
6608.0666537797
 30
0.0
 41
100.0
 42
100.0
 43
100.0
 50
180.0
  0
INSERT
  5
189A4
330
163A9
100
AcDbEntity
  8
寸法
 62
     0
 48
50.0
370
    -2
100
AcDbBlockReference
  2
_DOTSMALL
 10
5429.673057123662
 20
6608.0666537797
 30
0.0
 41
100.0
 42
100.0
 43
100.0
  0
POINT
  5
189A5
330
163A9
100
AcDbEntity
  8
DEFPOINTS
 62
     0
 48
50.0
100
AcDbPoint
 10
5477.673057123666
 20
7168.497424545865
 30
0.0
  0
POINT
  5
189A6
330
163A9
100
AcDbEntity
  8
DEFPOINTS
 62
     0
 48
50.0
100
AcDbPoint
 10
5429.673057123662
 20
7142.497424545864
 30
0.0
  0
POINT
  5
189A7
330
163A9
100
AcDbEntity
  8
DEFPOINTS
 62
     0
 48
50.0
100
AcDbPoint
 10
5429.673057123662
 20
6608.0666537797
 30
0.0
  0
ENDBLK
  5
1647E
330
163A9
100
AcDbEntity
  8
0
 48
50.0
100
AcDbBlockEnd
  0
BLOCK
  5
1647F
330
163B8
100
AcDbEntity
  8
0
 48
50.0
100
AcDbBlockBegin
  2
*D9
 70
     1
 10
0.0
 20
0.0
 30
0.0
  3
*D9
  1

  0
LINE
  5
18992
330
163B8
100
AcDbEntity
  8
寸法
 62
     0
 48
50.0
370
    -2
100
AcDbLine
 10
7529.673057123649
 20
7122.497424545952
 30
0.0
 11
7529.673057123649
 21
6548.0666537797
 31
0.0
  0
LINE
  5
18993
330
163B8
100
AcDbEntity
  8
寸法
 62
     0
 48
50.0
370
    -2
100
AcDbLine
 10
7481.673057123647
 20
7148.497424545865
 30
0.0
 11
7481.673057123647
 21
6548.0666537797
 31
0.0
  0
LINE
  5
18994
330
163B8
100
AcDbEntity
  8
寸法
 62
     0
 48
50.0
370
    -2
100
AcDbLine
 10
7529.673057123649
 20
6608.0666537797
 30
0.0
 11
7629.67305712365
 21
6608.0666537797
 31
0.0
  0
LINE
  5
18995
330
163B8
100
AcDbEntity
  8
寸法
 62
     0
 48
50.0
370
    -2
100
AcDbLine
 10
7481.673057123647
 20
6608.0666537797
 30
0.0
 11
7381.673057123648
 21
6608.0666537797
 31
0.0
  0
MTEXT
  5
18996
330
163B8
100
AcDbEntity
  8
寸法
 62
     7
 48
50.0
100
AcDbMText
 10
7370.7101594749
 20
6708.0666537797
 30
0.0
 40
120.0
 41
0.0
 71
     5
 72
     1
  1
\A1;48
  7
STYLE1
 73
     1
 44
1.0
1001
ACAD
1000
MTEXTBEGIN
1070
    73
1070
     1
1070
    44
1040
1.0
1070
    74
1070
     0
1000
MTEXTEND
  0
LINE
  5
18997
330
163B8
100
AcDbEntity
  8
寸法
 62
     0
 48
50.0
370
    -2
100
AcDbLine
 10
7529.673057123649
 20
6608.0666537797
 30
0.0
 11
7481.673057123647
 21
6608.0666537797
 31
0.0
  0
INSERT
  5
18998
330
163B8
100
AcDbEntity
  8
寸法
 62
     0
 48
50.0
370
    -2
100
AcDbBlockReference
  2
_DOTSMALL
 10
7529.673057123649
 20
6608.0666537797
 30
0.0
 41
100.0
 42
100.0
 43
100.0
 50
180.0
  0
INSERT
  5
18999
330
163B8
100
AcDbEntity
  8
寸法
 62
     0
 48
50.0
370
    -2
100
AcDbBlockReference
  2
_DOTSMALL
 10
7481.673057123647
 20
6608.0666537797
 30
0.0
 41
100.0
 42
100.0
 43
100.0
  0
POINT
  5
1899A
330
163B8
100
AcDbEntity
  8
DEFPOINTS
 62
     0
 48
50.0
100
AcDbPoint
 10
7529.673057123649
 20
7142.497424545952
 30
0.0
  0
POINT
  5
1899B
330
163B8
100
AcDbEntity
  8
DEFPOINTS
 62
     0
 48
50.0
100
AcDbPoint
 10
7481.673057123647
 20
7168.497424545865
 30
0.0
  0
POINT
  5
1899C
330
163B8
100
AcDbEntity
  8
DEFPOINTS
 62
     0
 48
50.0
100
AcDbPoint
 10
7481.673057123647
 20
6608.0666537797
 30
0.0
  0
ENDBLK
  5
1648C
330
163B8
100
AcDbEntity
  8
0
 48
50.0
100
AcDbBlockEnd
  0
BLOCK
  5
1648D
330
163C7
100
AcDbEntity
  8
0
 48
50.0
100
AcDbBlockBegin
  2
*D10
 70
     1
 10
0.0
 20
0.0
 30
0.0
  3
*D10
  1

  0
LINE
  5
18987
330
163C7
100
AcDbEntity
  8
寸法
 62
     0
 48
50.0
370
    -2
100
AcDbLine
 10
7584.673057123648
 20
7122.497424545956
 30
0.0
 11
7584.673057123648
 21
6548.066653779702
 31
0.0
  0
LINE
  5
18988
330
163C7
100
AcDbEntity
  8
寸法
 62
     0
 48
50.0
370
    -2
100
AcDbLine
 10
7529.673057123649
 20
7122.497424545952
 30
0.0
 11
7529.673057123649
 21
6548.066653779702
 31
0.0
  0
LINE
  5
18989
330
163C7
100
AcDbEntity
  8
寸法
 62
     0
 48
50.0
370
    -2
100
AcDbLine
 10
7529.673057123649
 20
6608.066653779701
 30
0.0
 11
7429.67305712365
 21
6608.066653779701
 31
0.0
  0
LINE
  5
1898A
330
163C7
100
AcDbEntity
  8
寸法
 62
     0
 48
50.0
370
    -2
100
AcDbLine
 10
7584.673057123648
 20
6608.066653779701
 30
0.0
 11
8001.643619872124
 21
6608.066653779701
 31
0.0
  0
LINE
  5
1898B
330
163C7
100
AcDbEntity
  8
寸法
 62
     0
 48
50.0
370
    -2
100
AcDbLine
 10
7529.673057123649
 20
6608.066653779701
 30
0.0
 11
7584.673057123648
 21
6608.066653779701
 31
0.0
  0
INSERT
  5
1898C
330
163C7
100
AcDbEntity
  8
寸法
 62
     0
 48
50.0
370
    -2
100
AcDbBlockReference
  2
_DOTSMALL
 10
7529.673057123649
 20
6608.066653779701
 30
0.0
 41
100.0
 42
100.0
 43
100.0
  0
INSERT
  5
1898D
330
163C7
100
AcDbEntity
  8
寸法
 62
     0
 48
50.0
370
    -2
100
AcDbBlockReference
  2
_DOTSMALL
 10
7584.673057123648
 20
6608.066653779701
 30
0.0
 41
100.0
 42
100.0
 43
100.0
 50
180.0
  0
MTEXT
  5
1898E
330
163C7
100
AcDbEntity
  8
寸法
 62
     7
 48
50.0
100
AcDbMText
 10
7893.158338497887
 20
6708.066653779702
 30
0.0
 40
120.0
 41
0.0
 71
     5
 72
     1
  1
\A1;55
  7
STYLE1
 73
     1
 44
1.0
1001
ACAD
1000
MTEXTBEGIN
1070
    73
1070
     1
1070
    44
1040
1.0
1070
    74
1070
     0
1000
MTEXTEND
  0
POINT
  5
1898F
330
163C7
100
AcDbEntity
  8
DEFPOINTS
 62
     0
 48
50.0
100
AcDbPoint
 10
7584.673057123648
 20
7142.497424545957
 30
0.0
  0
POINT
  5
18990
330
163C7
100
AcDbEntity
  8
DEFPOINTS
 62
     0
 48
50.0
100
AcDbPoint
 10
7529.673057123649
 20
7142.497424545952
 30
0.0
  0
POINT
  5
18991
330
163C7
100
AcDbEntity
  8
DEFPOINTS
 62
     0
 48
50.0
100
AcDbPoint
 10
7529.673057123649
 20
6608.066653779701
 30
0.0
  0
ENDBLK
  5
16499
330
163C7
100
AcDbEntity
  8
0
 48
50.0
100
AcDbBlockEnd
  0
BLOCK
  5
172A1
330
163E1
100
AcDbEntity
  8
0
 48
50.0
100
AcDbBlockBegin
  2
*D11
 70
     1
 10
0.0
 20
0.0
 30
0.0
  3
*D11
  1

  0
LINE
  5
1897E
330
163E1
100
AcDbEntity
  8
寸法
 62
     0
 48
50.0
370
    -2
100
AcDbLine
 10
5429.673057123672
 20
10212.49742454587
 30
0.0
 11
5429.673057123672
 21
10468.30564417096
 31
0.0
  0
LINE
  5
1897F
330
163E1
100
AcDbEntity
  8
寸法
 62
     0
 48
50.0
370
    -2
100
AcDbLine
 10
7529.673057123673
 20
10212.49742454596
 30
0.0
 11
7529.673057123673
 21
10468.30564417096
 31
0.0
  0
LINE
  5
18980
330
163E1
100
AcDbEntity
  8
寸法
 62
     0
 48
50.0
370
    -2
100
AcDbLine
 10
5429.673057123672
 20
10408.30564417096
 30
0.0
 11
7529.673057123673
 21
10408.30564417096
 31
0.0
  0
INSERT
  5
18981
330
163E1
100
AcDbEntity
  8
寸法
 62
     0
 48
50.0
370
    -2
100
AcDbBlockReference
  2
_DOTSMALL
 10
5429.673057123672
 20
10408.30564417096
 30
0.0
 41
100.0
 42
100.0
 43
100.0
 50
180.0
  0
INSERT
  5
18982
330
163E1
100
AcDbEntity
  8
寸法
 62
     0
 48
50.0
370
    -2
100
AcDbBlockReference
  2
_DOTSMALL
 10
7529.673057123673
 20
10408.30564417096
 30
0.0
 41
100.0
 42
100.0
 43
100.0
  0
MTEXT
  5
18983
330
163E1
100
AcDbEntity
  8
寸法
 62
     7
 48
50.0
100
AcDbMText
 10
6479.673057123673
 20
10508.31745519459
 30
0.0
 40
120.0
 41
0.0
 71
     5
 72
     1
  1
\A1;5X420=2100
  7
STYLE1
 73
     1
 44
1.0
1001
ACAD
1000
MTEXTBEGIN
1070
    73
1070
     1
1070
    44
1040
1.0
1070
    74
1070
     0
1000
MTEXTEND
  0
POINT
  5
18984
330
163E1
100
AcDbEntity
  8
DEFPOINTS
 62
     0
 48
50.0
100
AcDbPoint
 10
5429.673057123672
 20
10192.49742454587
 30
0.0
  0
POINT
  5
18985
330
163E1
100
AcDbEntity
  8
DEFPOINTS
 62
     0
 48
50.0
100
AcDbPoint
 10
7529.673057123673
 20
10192.49742454596
 30
0.0
  0
POINT
  5
18986
330
163E1
100
AcDbEntity
  8
DEFPOINTS
 62
     0
 48
50.0
100
AcDbPoint
 10
7529.673057123673
 20
10408.30564417096
 30
0.0
  0
ENDBLK
  5
172AB
330
163E1
100
AcDbEntity
  8
0
 48
50.0
100
AcDbBlockEnd
  0
BLOCK
  5
164B0
330
163ED
100
AcDbEntity
  8
0
 48
50.0
100
AcDbBlockBegin
  2
*D12
 70
     1
 10
0.0
 20
0.0
 30
0.0
  3
*D12
  1

  0
LINE
  5
18973
330
163ED
100
AcDbEntity
  8
寸法
 62
     0
 48
50.0
370
    -2
100
AcDbLine
 10
3164.673057123638
 20
10212.49742454587
 30
0.0
 11
3164.673057123638
 21
10468.30564417085
 31
0.0
  0
LINE
  5
18974
330
163ED
100
AcDbEntity
  8
寸法
 62
     0
 48
50.0
370
    -2
100
AcDbLine
 10
3219.673057123672
 20
10212.49742454587
 30
0.0
 11
3219.673057123672
 21
10468.30564417085
 31
0.0
  0
LINE
  5
18975
330
163ED
100
AcDbEntity
  8
寸法
 62
     0
 48
50.0
370
    -2
100
AcDbLine
 10
3219.673057123672
 20
10408.30564417085
 30
0.0
 11
3319.673057123672
 21
10408.30564417085
 31
0.0
  0
LINE
  5
18976
330
163ED
100
AcDbEntity
  8
寸法
 62
     0
 48
50.0
370
    -2
100
AcDbLine
 10
3164.673057123638
 20
10408.30564417085
 30
0.0
 11
2747.702494375161
 21
10408.30564417085
 31
0.0
  0
LINE
  5
18977
330
163ED
100
AcDbEntity
  8
寸法
 62
     0
 48
50.0
370
    -2
100
AcDbLine
 10
3219.673057123672
 20
10408.30564417085
 30
0.0
 11
3164.673057123638
 21
10408.30564417085
 31
0.0
  0
INSERT
  5
18978
330
163ED
100
AcDbEntity
  8
寸法
 62
     0
 48
50.0
370
    -2
100
AcDbBlockReference
  2
_DOTSMALL
 10
3219.673057123672
 20
10408.30564417085
 30
0.0
 41
100.0
 42
100.0
 43
100.0
 50
180.0
  0
INSERT
  5
18979
330
163ED
100
AcDbEntity
  8
寸法
 62
     0
 48
50.0
370
    -2
100
AcDbBlockReference
  2
_DOTSMALL
 10
3164.673057123638
 20
10408.30564417085
 30
0.0
 41
100.0
 42
100.0
 43
100.0
  0
MTEXT
  5
1897A
330
163ED
100
AcDbEntity
  8
寸法
 62
     7
 48
50.0
100
AcDbMText
 10
2856.187775749399
 20
10508.30564417085
 30
0.0
 40
120.0
 41
0.0
 71
     5
 72
     1
  1
\A1;55
  7
STYLE1
 73
     1
 44
1.0
1001
ACAD
1000
MTEXTBEGIN
1070
    73
1070
     1
1070
    44
1040
1.0
1070
    74
1070
     0
1000
MTEXTEND
  0
POINT
  5
1897B
330
163ED
100
AcDbEntity
  8
DEFPOINTS
 62
     0
 48
50.0
100
AcDbPoint
 10
3164.673057123638
 20
10192.49742454587
 30
0.0
  0
POINT
  5
1897C
330
163ED
100
AcDbEntity
  8
DEFPOINTS
 62
     0
 48
50.0
100
AcDbPoint
 10
3219.673057123672
 20
10192.49742454587
 30
0.0
  0
POINT
  5
1897D
330
163ED
100
AcDbEntity
  8
DEFPOINTS
 62
     0
 48
50.0
100
AcDbPoint
 10
3219.673057123672
 20
10408.30564417085
 30
0.0
  0
ENDBLK
  5
164BC
330
163ED
100
AcDbEntity
  8
0
 48
50.0
100
AcDbBlockEnd
  0
BLOCK
  5
164BD
330
163FB
100
AcDbEntity
  8
0
 48
50.0
100
AcDbBlockBegin
  2
*D13
 70
     1
 10
0.0
 20
0.0
 30
0.0
  3
*D13
  1

  0
LINE
  5
18968
330
163FB
100
AcDbEntity
  8
寸法
 62
     0
 48
50.0
370
    -2
100
AcDbLine
 10
7529.673057123673
 20
10212.49742454596
 30
0.0
 11
7529.673057123673
 21
10468.30564417095
 31
0.0
  0
LINE
  5
18969
330
163FB
100
AcDbEntity
  8
寸法
 62
     0
 48
50.0
370
    -2
100
AcDbLine
 10
7584.673057123673
 20
10212.49742454596
 30
0.0
 11
7584.673057123673
 21
10468.30564417095
 31
0.0
  0
LINE
  5
1896A
330
163FB
100
AcDbEntity
  8
寸法
 62
     0
 48
50.0
370
    -2
100
AcDbLine
 10
7529.673057123673
 20
10408.30564417095
 30
0.0
 11
7429.673057123673
 21
10408.30564417095
 31
0.0
  0
LINE
  5
1896B
330
163FB
100
AcDbEntity
  8
寸法
 62
     0
 48
50.0
370
    -2
100
AcDbLine
 10
7584.673057123673
 20
10408.30564417095
 30
0.0
 11
8001.643619872151
 21
10408.30564417095
 31
0.0
  0
LINE
  5
1896C
330
163FB
100
AcDbEntity
  8
寸法
 62
     0
 48
50.0
370
    -2
100
AcDbLine
 10
7529.673057123673
 20
10408.30564417095
 30
0.0
 11
7584.673057123673
 21
10408.30564417095
 31
0.0
  0
INSERT
  5
1896D
330
163FB
100
AcDbEntity
  8
寸法
 62
     0
 48
50.0
370
    -2
100
AcDbBlockReference
  2
_DOTSMALL
 10
7529.673057123673
 20
10408.30564417095
 30
0.0
 41
100.0
 42
100.0
 43
100.0
  0
INSERT
  5
1896E
330
163FB
100
AcDbEntity
  8
寸法
 62
     0
 48
50.0
370
    -2
100
AcDbBlockReference
  2
_DOTSMALL
 10
7584.673057123673
 20
10408.30564417095
 30
0.0
 41
100.0
 42
100.0
 43
100.0
 50
180.0
  0
MTEXT
  5
1896F
330
163FB
100
AcDbEntity
  8
寸法
 62
     7
 48
50.0
100
AcDbMText
 10
7893.158338497912
 20
10508.30564417095
 30
0.0
 40
120.0
 41
0.0
 71
     5
 72
     1
  1
\A1;55
  7
STYLE1
 73
     1
 44
1.0
1001
ACAD
1000
MTEXTBEGIN
1070
    73
1070
     1
1070
    44
1040
1.0
1070
    74
1070
     0
1000
MTEXTEND
  0
POINT
  5
18970
330
163FB
100
AcDbEntity
  8
DEFPOINTS
 62
     0
 48
50.0
100
AcDbPoint
 10
7529.673057123673
 20
10192.49742454596
 30
0.0
  0
POINT
  5
18971
330
163FB
100
AcDbEntity
  8
DEFPOINTS
 62
     0
 48
50.0
100
AcDbPoint
 10
7584.673057123673
 20
10192.49742454596
 30
0.0
  0
POINT
  5
18972
330
163FB
100
AcDbEntity
  8
DEFPOINTS
 62
     0
 48
50.0
100
AcDbPoint
 10
7584.673057123673
 20
10408.30564417095
 30
0.0
  0
ENDBLK
  5
164C9
330
163FB
100
AcDbEntity
  8
0
 48
50.0
100
AcDbBlockEnd
  0
BLOCK
  5
165B6
330
165B5
100
AcDbEntity
  8
0
 48
50.0
100
AcDbBlockBegin
  2
*D14
 70
     1
 10
0.0
 20
0.0
 30
0.0
  3
*D14
  1

  0
LINE
  5
18952
330
165B5
100
AcDbEntity
  8
寸法
 62
     0
 48
50.0
370
    -2
100
AcDbLine
 10
3267.673057123666
 20
7148.497424545865
 30
0.0
 11
3267.673057123666
 21
6548.0666537797
 31
0.0
  0
LINE
  5
18953
330
165B5
100
AcDbEntity
  8
寸法
 62
     0
 48
50.0
370
    -2
100
AcDbLine
 10
3219.673057123662
 20
7122.497424545864
 30
0.0
 11
3219.673057123662
 21
6548.0666537797
 31
0.0
  0
LINE
  5
18954
330
165B5
100
AcDbEntity
  8
寸法
 62
     0
 48
50.0
370
    -2
100
AcDbLine
 10
3267.673057123666
 20
6608.0666537797
 30
0.0
 11
3367.673057123666
 21
6608.0666537797
 31
0.0
  0
LINE
  5
18955
330
165B5
100
AcDbEntity
  8
寸法
 62
     0
 48
50.0
370
    -2
100
AcDbLine
 10
3219.673057123662
 20
6608.0666537797
 30
0.0
 11
3119.673057123662
 21
6608.0666537797
 31
0.0
  0
MTEXT
  5
18956
330
165B5
100
AcDbEntity
  8
寸法
 62
     7
 48
50.0
100
AcDbMText
 10
3380.575028123723
 20
6708.0666537797
 30
0.0
 40
120.0
 41
0.0
 71
     5
 72
     1
  1
\A1;48
  7
STYLE1
 73
     1
 44
1.0
1001
ACAD
1000
MTEXTBEGIN
1070
    73
1070
     1
1070
    44
1040
1.0
1070
    74
1070
     0
1000
MTEXTEND
  0
LINE
  5
18957
330
165B5
100
AcDbEntity
  8
寸法
 62
     0
 48
50.0
370
    -2
100
AcDbLine
 10
3267.673057123666
 20
6608.0666537797
 30
0.0
 11
3219.673057123662
 21
6608.0666537797
 31
0.0
  0
INSERT
  5
18958
330
165B5
100
AcDbEntity
  8
寸法
 62
     0
 48
50.0
370
    -2
100
AcDbBlockReference
  2
_DOTSMALL
 10
3267.673057123666
 20
6608.0666537797
 30
0.0
 41
100.0
 42
100.0
 43
100.0
 50
180.0
  0
INSERT
  5
18959
330
165B5
100
AcDbEntity
  8
寸法
 62
     0
 48
50.0
370
    -2
100
AcDbBlockReference
  2
_DOTSMALL
 10
3219.673057123662
 20
6608.0666537797
 30
0.0
 41
100.0
 42
100.0
 43
100.0
  0
POINT
  5
1895A
330
165B5
100
AcDbEntity
  8
DEFPOINTS
 62
     0
 48
50.0
100
AcDbPoint
 10
3267.673057123666
 20
7168.497424545865
 30
0.0
  0
POINT
  5
1895B
330
165B5
100
AcDbEntity
  8
DEFPOINTS
 62
     0
 48
50.0
100
AcDbPoint
 10
3219.673057123662
 20
7142.497424545864
 30
0.0
  0
POINT
  5
1895C
330
165B5
100
AcDbEntity
  8
DEFPOINTS
 62
     0
 48
50.0
100
AcDbPoint
 10
3219.673057123662
 20
6608.0666537797
 30
0.0
  0
ENDBLK
  5
165C3
330
165B5
100
AcDbEntity
  8
0
 48
50.0
100
AcDbBlockEnd
  0
BLOCK
  5
165C5
330
165C4
100
AcDbEntity
  8
0
 48
50.0
100
AcDbBlockBegin
  2
*D15
 70
     1
 10
0.0
 20
0.0
 30
0.0
  3
*D15
  1

  0
LINE
  5
1895D
330
165C4
100
AcDbEntity
  8
寸法
 62
     0
 48
50.0
370
    -2
100
AcDbLine
 10
5319.673057123649
 20
7122.497424545952
 30
0.0
 11
5319.673057123649
 21
6548.0666537797
 31
0.0
  0
LINE
  5
1895E
330
165C4
100
AcDbEntity
  8
寸法
 62
     0
 48
50.0
370
    -2
100
AcDbLine
 10
5271.673057123647
 20
7148.497424545865
 30
0.0
 11
5271.673057123647
 21
6548.0666537797
 31
0.0
  0
LINE
  5
1895F
330
165C4
100
AcDbEntity
  8
寸法
 62
     0
 48
50.0
370
    -2
100
AcDbLine
 10
5319.673057123649
 20
6608.0666537797
 30
0.0
 11
5419.673057123649
 21
6608.0666537797
 31
0.0
  0
LINE
  5
18960
330
165C4
100
AcDbEntity
  8
寸法
 62
     0
 48
50.0
370
    -2
100
AcDbLine
 10
5271.673057123647
 20
6608.0666537797
 30
0.0
 11
5171.673057123648
 21
6608.0666537797
 31
0.0
  0
MTEXT
  5
18961
330
165C4
100
AcDbEntity
  8
寸法
 62
     7
 48
50.0
100
AcDbMText
 10
5160.7101594749
 20
6708.0666537797
 30
0.0
 40
120.0
 41
0.0
 71
     5
 72
     1
  1
\A1;48
  7
STYLE1
 73
     1
 44
1.0
1001
ACAD
1000
MTEXTBEGIN
1070
    73
1070
     1
1070
    44
1040
1.0
1070
    74
1070
     0
1000
MTEXTEND
  0
LINE
  5
18962
330
165C4
100
AcDbEntity
  8
寸法
 62
     0
 48
50.0
370
    -2
100
AcDbLine
 10
5319.673057123649
 20
6608.0666537797
 30
0.0
 11
5271.673057123647
 21
6608.0666537797
 31
0.0
  0
INSERT
  5
18963
330
165C4
100
AcDbEntity
  8
寸法
 62
     0
 48
50.0
370
    -2
100
AcDbBlockReference
  2
_DOTSMALL
 10
5319.673057123649
 20
6608.0666537797
 30
0.0
 41
100.0
 42
100.0
 43
100.0
 50
180.0
  0
INSERT
  5
18964
330
165C4
100
AcDbEntity
  8
寸法
 62
     0
 48
50.0
370
    -2
100
AcDbBlockReference
  2
_DOTSMALL
 10
5271.673057123647
 20
6608.0666537797
 30
0.0
 41
100.0
 42
100.0
 43
100.0
  0
POINT
  5
18965
330
165C4
100
AcDbEntity
  8
DEFPOINTS
 62
     0
 48
50.0
100
AcDbPoint
 10
5319.673057123649
 20
7142.497424545952
 30
0.0
  0
POINT
  5
18966
330
165C4
100
AcDbEntity
  8
DEFPOINTS
 62
     0
 48
50.0
100
AcDbPoint
 10
5271.673057123647
 20
7168.497424545865
 30
0.0
  0
POINT
  5
18967
330
165C4
100
AcDbEntity
  8
DEFPOINTS
 62
     0
 48
50.0
100
AcDbPoint
 10
5271.673057123647
 20
6608.0666537797
 30
0.0
  0
ENDBLK
  5
165D2
330
165C4
100
AcDbEntity
  8
0
 48
50.0
100
AcDbBlockEnd
  0
BLOCK
  5
1663F
330
165EA
100
AcDbEntity
  8
0
 48
50.0
100
AcDbBlockBegin
  2
*D16
 70
     1
 10
0.0
 20
0.0
 30
0.0
  3
*D16
  1

  0
LINE
  5
18949
330
165EA
100
AcDbEntity
  8
寸法
 62
     0
 48
50.0
370
    -2
100
AcDbLine
 10
5429.673057123662
 20
7122.497424545864
 30
0.0
 11
5429.673057123662
 21
6548.066653779702
 31
0.0
  0
LINE
  5
1894A
330
165EA
100
AcDbEntity
  8
寸法
 62
     0
 48
50.0
370
    -2
100
AcDbLine
 10
5319.673057123649
 20
7122.497424545952
 30
0.0
 11
5319.673057123649
 21
6548.066653779702
 31
0.0
  0
LINE
  5
1894B
330
165EA
100
AcDbEntity
  8
寸法
 62
     0
 48
50.0
370
    -2
100
AcDbLine
 10
5429.673057123662
 20
6608.066653779701
 30
0.0
 11
5319.673057123649
 21
6608.066653779701
 31
0.0
  0
MTEXT
  5
1894C
330
165EA
100
AcDbEntity
  8
寸法
 62
     7
 48
50.0
100
AcDbMText
 10
5374.673057123656
 20
6456.37475874347
 30
0.0
 40
120.0
 41
0.0
 71
     5
 72
     1
  1
\A1;110
  7
STYLE1
 73
     1
 44
1.0
1001
ACAD
1000
MTEXTBEGIN
1070
    73
1070
     1
1070
    44
1040
1.0
1070
    74
1070
     0
1000
MTEXTEND
  0
INSERT
  5
1894D
330
165EA
100
AcDbEntity
  8
寸法
 62
     0
 48
50.0
370
    -2
100
AcDbBlockReference
  2
_DOTSMALL
 10
5429.673057123662
 20
6608.066653779701
 30
0.0
 41
100.0
 42
100.0
 43
100.0
  0
INSERT
  5
1894E
330
165EA
100
AcDbEntity
  8
寸法
 62
     0
 48
50.0
370
    -2
100
AcDbBlockReference
  2
_DOTSMALL
 10
5319.673057123649
 20
6608.066653779701
 30
0.0
 41
100.0
 42
100.0
 43
100.0
 50
180.0
  0
POINT
  5
1894F
330
165EA
100
AcDbEntity
  8
DEFPOINTS
 62
     0
 48
50.0
100
AcDbPoint
 10
5429.673057123662
 20
7142.497424545864
 30
0.0
  0
POINT
  5
18950
330
165EA
100
AcDbEntity
  8
DEFPOINTS
 62
     0
 48
50.0
100
AcDbPoint
 10
5319.673057123649
 20
7142.497424545952
 30
0.0
  0
POINT
  5
18951
330
165EA
100
AcDbEntity
  8
DEFPOINTS
 62
     0
 48
50.0
100
AcDbPoint
 10
5319.673057123649
 20
6608.066653779701
 30
0.0
  0
ENDBLK
  5
16649
330
165EA
100
AcDbEntity
  8
0
 48
50.0
100
AcDbBlockEnd
  0
BLOCK
  5
166D0
330
166CF
100
AcDbEntity
  8
0
 48
50.0
100
AcDbBlockBegin
  2
*D17
 70
     1
 10
0.0
 20
0.0
 30
0.0
  3
*D17
  1

  0
LINE
  5
1893E
330
166CF
100
AcDbEntity
  8
寸法
 62
     0
 48
50.0
370
    -2
100
AcDbLine
 10
5429.673057123672
 20
10212.49742454592
 30
0.0
 11
5429.673057123672
 21
10468.30564417096
 31
0.0
  0
LINE
  5
1893F
330
166CF
100
AcDbEntity
  8
寸法
 62
     0
 48
50.0
370
    -2
100
AcDbLine
 10
5319.673057123673
 20
10212.49742454591
 30
0.0
 11
5319.673057123673
 21
10468.30564417096
 31
0.0
  0
LINE
  5
18940
330
166CF
100
AcDbEntity
  8
寸法
 62
     0
 48
50.0
370
    -2
100
AcDbLine
 10
5429.673057123672
 20
10408.30564417096
 30
0.0
 11
5529.673057123672
 21
10408.30564417096
 31
0.0
  0
LINE
  5
18941
330
166CF
100
AcDbEntity
  8
寸法
 62
     0
 48
50.0
370
    -2
100
AcDbLine
 10
5319.673057123673
 20
10408.30564417096
 30
0.0
 11
5219.673057123674
 21
10408.30564417096
 31
0.0
  0
LINE
  5
18942
330
166CF
100
AcDbEntity
  8
寸法
 62
     0
 48
50.0
370
    -2
100
AcDbLine
 10
5429.673057123672
 20
10408.30564417096
 30
0.0
 11
5319.673057123673
 21
10408.30564417096
 31
0.0
  0
INSERT
  5
18943
330
166CF
100
AcDbEntity
  8
寸法
 62
     0
 48
50.0
370
    -2
100
AcDbBlockReference
  2
_DOTSMALL
 10
5429.673057123672
 20
10408.30564417096
 30
0.0
 41
100.0
 42
100.0
 43
100.0
 50
180.0
  0
INSERT
  5
18944
330
166CF
100
AcDbEntity
  8
寸法
 62
     0
 48
50.0
370
    -2
100
AcDbBlockReference
  2
_DOTSMALL
 10
5319.673057123673
 20
10408.30564417096
 30
0.0
 41
100.0
 42
100.0
 43
100.0
  0
MTEXT
  5
18945
330
166CF
100
AcDbEntity
  8
寸法
 62
     7
 48
50.0
100
AcDbMText
 10
5374.673057123673
 20
10508.30564417096
 30
0.0
 40
120.0
 41
0.0
 71
     5
 72
     1
  1
\A1;110
  7
STYLE1
 73
     1
 44
1.0
1001
ACAD
1000
MTEXTBEGIN
1070
    73
1070
     1
1070
    44
1040
1.0
1070
    74
1070
     0
1000
MTEXTEND
  0
POINT
  5
18946
330
166CF
100
AcDbEntity
  8
DEFPOINTS
 62
     0
 48
50.0
100
AcDbPoint
 10
5429.673057123672
 20
10192.49742454592
 30
0.0
  0
POINT
  5
18947
330
166CF
100
AcDbEntity
  8
DEFPOINTS
 62
     0
 48
50.0
100
AcDbPoint
 10
5319.673057123673
 20
10192.49742454591
 30
0.0
  0
POINT
  5
18948
330
166CF
100
AcDbEntity
  8
DEFPOINTS
 62
     0
 48
50.0
100
AcDbPoint
 10
5319.673057123673
 20
10408.30564417096
 30
0.0
  0
ENDBLK
  5
166DC
330
166CF
100
AcDbEntity
  8
0
 48
50.0
100
AcDbBlockEnd
  0
BLOCK
  5
1726C
330
16908
100
AcDbEntity
  8
0
 48
50.0
100
AcDbBlockBegin
  2
*D18
 70
     1
 10
0.0
 20
0.0
 30
0.0
  3
*D18
  1

  0
LINE
  5
18936
330
16908
100
AcDbEntity
  8
寸法
 62
     0
 48
50.0
370
    -2
100
AcDbLine
 10
7584.673057123673
 20
10212.49742454596
 30
0.0
 11
7584.673057123673
 21
10717.62711772726
 31
0.0
  0
LINE
  5
18937
330
16908
100
AcDbEntity
  8
寸法
 62
     0
 48
50.0
370
    -2
100
AcDbLine
 10
5374.673057123673
 20
10657.62711772726
 30
0.0
 11
7584.673057123673
 21
10657.62711772726
 31
0.0
  0
INSERT
  5
18938
330
16908
100
AcDbEntity
  8
寸法
 62
     0
 48
50.0
370
    -2
100
AcDbBlockReference
  2
_DOTSMALL
 10
5374.673057123673
 20
10657.62711772726
 30
0.0
 41
100.0
 42
100.0
 43
100.0
 50
180.0
  0
INSERT
  5
18939
330
16908
100
AcDbEntity
  8
寸法
 62
     0
 48
50.0
370
    -2
100
AcDbBlockReference
  2
_DOTSMALL
 10
7584.673057123673
 20
10657.62711772726
 30
0.0
 41
100.0
 42
100.0
 43
100.0
  0
MTEXT
  5
1893A
330
16908
100
AcDbEntity
  8
寸法
 62
     7
 48
50.0
100
AcDbMText
 10
6479.673057123673
 20
10757.63892875088
 30
0.0
 40
120.0
 41
0.0
 71
     5
 72
     1
  1
\A1;2210
  7
STYLE1
 73
     1
 44
1.0
1001
ACAD
1000
MTEXTBEGIN
1070
    73
1070
     1
1070
    44
1040
1.0
1070
    74
1070
     0
1000
MTEXTEND
  0
POINT
  5
1893B
330
16908
100
AcDbEntity
  8
DEFPOINTS
 62
     0
 48
50.0
100
AcDbPoint
 10
5374.673057123673
 20
10567.29355852891
 30
0.0
  0
POINT
  5
1893C
330
16908
100
AcDbEntity
  8
DEFPOINTS
 62
     0
 48
50.0
100
AcDbPoint
 10
7584.673057123673
 20
10192.49742454596
 30
0.0
  0
POINT
  5
1893D
330
16908
100
AcDbEntity
  8
DEFPOINTS
 62
     0
 48
50.0
100
AcDbPoint
 10
7584.673057123673
 20
10657.62711772726
 30
0.0
  0
ENDBLK
  5
17275
330
16908
100
AcDbEntity
  8
0
 48
50.0
100
AcDbBlockEnd
  0
BLOCK
  5
17BDC
330
17BD3
100
AcDbEntity
  8
0
 48
50.0
100
AcDbBlockBegin
  2
*D19
 70
     1
 10
0.0
 20
0.0
 30
0.0
  3
*D19
  1

  0
LINE
  5
1891C
330
17BD3
100
AcDbEntity
  8
寸法
 62
     0
 48
50.0
370
    -2
100
AcDbLine
 10
3267.673057123666
 20
7148.497424545865
 30
0.0
 11
3267.673057123666
 21
6548.0666537797
 31
0.0
  0
LINE
  5
1891D
330
17BD3
100
AcDbEntity
  8
寸法
 62
     0
 48
50.0
370
    -2
100
AcDbLine
 10
5271.673057123647
 20
6608.0666537797
 30
0.0
 11
3267.673057123666
 21
6608.0666537797
 31
0.0
  0
INSERT
  5
1891E
330
17BD3
100
AcDbEntity
  8
寸法
 62
     0
 48
50.0
370
    -2
100
AcDbBlockReference
  2
_DOTSMALL
 10
5271.673057123647
 20
6608.0666537797
 30
0.0
 41
100.0
 42
100.0
 43
100.0
  0
INSERT
  5
1891F
330
17BD3
100
AcDbEntity
  8
寸法
 62
     0
 48
50.0
370
    -2
100
AcDbBlockReference
  2
_DOTSMALL
 10
3267.673057123666
 20
6608.0666537797
 30
0.0
 41
100.0
 42
100.0
 43
100.0
 50
180.0
  0
MTEXT
  5
18920
330
17BD3
100
AcDbEntity
  8
寸法
 62
     7
 48
50.0
100
AcDbMText
 10
4269.673057123656
 20
6708.078464803323
 30
0.0
 40
120.0
 41
0.0
 71
     5
 72
     1
  1
\A1;有効開口部間口 2004
  7
STYLE1
 73
     1
 44
1.0
1001
ACAD
1000
MTEXTBEGIN
1070
    73
1070
     1
1070
    44
1040
1.0
1070
    74
1070
     0
1000
MTEXTEND
  0
POINT
  5
18921
330
17BD3
100
AcDbEntity
  8
DEFPOINTS
 62
     0
 48
50.0
100
AcDbPoint
 10
5271.673057123647
 20
7168.497424545865
 30
0.0
  0
POINT
  5
18922
330
17BD3
100
AcDbEntity
  8
DEFPOINTS
 62
     0
 48
50.0
100
AcDbPoint
 10
3267.673057123666
 20
7168.497424545865
 30
0.0
  0
POINT
  5
18923
330
17BD3
100
AcDbEntity
  8
DEFPOINTS
 62
     0
 48
50.0
100
AcDbPoint
 10
3267.673057123666
 20
6608.0666537797
 30
0.0
  0
ENDBLK
  5
17BDD
330
17BD3
100
AcDbEntity
  8
0
 48
50.0
100
AcDbBlockEnd
  0
BLOCK
  5
17BE8
330
17BDE
100
AcDbEntity
  8
0
 48
50.0
100
AcDbBlockBegin
  2
*D20
 70
     1
 10
0.0
 20
0.0
 30
0.0
  3
*D20
  1

  0
LINE
  5
18924
330
17BDE
100
AcDbEntity
  8
寸法
 62
     0
 48
50.0
370
    -2
100
AcDbLine
 10
3219.673057123672
 20
10212.49742454587
 30
0.0
 11
3219.673057123672
 21
10468.30564417096
 31
0.0
  0
LINE
  5
18925
330
17BDE
100
AcDbEntity
  8
寸法
 62
     0
 48
50.0
370
    -2
100
AcDbLine
 10
5319.673057123673
 20
10212.49742454596
 30
0.0
 11
5319.673057123673
 21
10468.30564417096
 31
0.0
  0
LINE
  5
18926
330
17BDE
100
AcDbEntity
  8
寸法
 62
     0
 48
50.0
370
    -2
100
AcDbLine
 10
3219.673057123672
 20
10408.30564417096
 30
0.0
 11
5319.673057123673
 21
10408.30564417096
 31
0.0
  0
INSERT
  5
18927
330
17BDE
100
AcDbEntity
  8
寸法
 62
     0
 48
50.0
370
    -2
100
AcDbBlockReference
  2
_DOTSMALL
 10
3219.673057123672
 20
10408.30564417096
 30
0.0
 41
100.0
 42
100.0
 43
100.0
 50
180.0
  0
INSERT
  5
18928
330
17BDE
100
AcDbEntity
  8
寸法
 62
     0
 48
50.0
370
    -2
100
AcDbBlockReference
  2
_DOTSMALL
 10
5319.673057123673
 20
10408.30564417096
 30
0.0
 41
100.0
 42
100.0
 43
100.0
  0
MTEXT
  5
18929
330
17BDE
100
AcDbEntity
  8
寸法
 62
     7
 48
50.0
100
AcDbMText
 10
4269.673057123673
 20
10508.31745519459
 30
0.0
 40
120.0
 41
0.0
 71
     5
 72
     1
  1
\A1;5X420=2100
  7
STYLE1
 73
     1
 44
1.0
1001
ACAD
1000
MTEXTBEGIN
1070
    73
1070
     1
1070
    44
1040
1.0
1070
    74
1070
     0
1000
MTEXTEND
  0
POINT
  5
1892A
330
17BDE
100
AcDbEntity
  8
DEFPOINTS
 62
     0
 48
50.0
100
AcDbPoint
 10
3219.673057123672
 20
10192.49742454587
 30
0.0
  0
POINT
  5
1892B
330
17BDE
100
AcDbEntity
  8
DEFPOINTS
 62
     0
 48
50.0
100
AcDbPoint
 10
5319.673057123673
 20
10192.49742454596
 30
0.0
  0
POINT
  5
1892C
330
17BDE
100
AcDbEntity
  8
DEFPOINTS
 62
     0
 48
50.0
100
AcDbPoint
 10
5319.673057123673
 20
10408.30564417096
 30
0.0
  0
ENDBLK
  5
17BE9
330
17BDE
100
AcDbEntity
  8
0
 48
50.0
100
AcDbBlockEnd
  0
BLOCK
  5
17C02
330
17BF8
100
AcDbEntity
  8
0
 48
50.0
100
AcDbBlockBegin
  2
*D21
 70
     1
 10
0.0
 20
0.0
 30
0.0
  3
*D21
  1

  0
LINE
  5
1892D
330
17BF8
100
AcDbEntity
  8
寸法
 62
     0
 48
50.0
370
    -2
100
AcDbLine
 10
3164.673057123638
 20
10212.49742454583
 30
0.0
 11
3164.673057123638
 21
10717.62711772726
 31
0.0
  0
LINE
  5
1892E
330
17BF8
100
AcDbEntity
  8
寸法
 62
     0
 48
50.0
370
    -2
100
AcDbLine
 10
5374.673057123673
 20
10587.29355852891
 30
0.0
 11
5374.673057123673
 21
10717.62711772726
 31
0.0
  0
LINE
  5
1892F
330
17BF8
100
AcDbEntity
  8
寸法
 62
     0
 48
50.0
370
    -2
100
AcDbLine
 10
3164.673057123638
 20
10657.62711772726
 30
0.0
 11
5374.673057123673
 21
10657.62711772726
 31
0.0
  0
INSERT
  5
18930
330
17BF8
100
AcDbEntity
  8
寸法
 62
     0
 48
50.0
370
    -2
100
AcDbBlockReference
  2
_DOTSMALL
 10
3164.673057123638
 20
10657.62711772726
 30
0.0
 41
100.0
 42
100.0
 43
100.0
 50
180.0
  0
INSERT
  5
18931
330
17BF8
100
AcDbEntity
  8
寸法
 62
     0
 48
50.0
370
    -2
100
AcDbBlockReference
  2
_DOTSMALL
 10
5374.673057123673
 20
10657.62711772726
 30
0.0
 41
100.0
 42
100.0
 43
100.0
  0
MTEXT
  5
18932
330
17BF8
100
AcDbEntity
  8
寸法
 62
     7
 48
50.0
100
AcDbMText
 10
4269.673057123655
 20
10757.63892875088
 30
0.0
 40
120.0
 41
0.0
 71
     5
 72
     1
  1
\A1;2210
  7
STYLE1
 73
     1
 44
1.0
1001
ACAD
1000
MTEXTBEGIN
1070
    73
1070
     1
1070
    44
1040
1.0
1070
    74
1070
     0
1000
MTEXTEND
  0
POINT
  5
18933
330
17BF8
100
AcDbEntity
  8
DEFPOINTS
 62
     0
 48
50.0
100
AcDbPoint
 10
3164.673057123638
 20
10192.49742454583
 30
0.0
  0
POINT
  5
18934
330
17BF8
100
AcDbEntity
  8
DEFPOINTS
 62
     0
 48
50.0
100
AcDbPoint
 10
5374.673057123673
 20
10567.29355852891
 30
0.0
  0
POINT
  5
18935
330
17BF8
100
AcDbEntity
  8
DEFPOINTS
 62
     0
 48
50.0
100
AcDbPoint
 10
5374.673057123673
 20
10657.62711772726
 30
0.0
  0
ENDBLK
  5
17C03
330
17BF8
100
AcDbEntity
  8
0
 48
50.0
100
AcDbBlockEnd
  0
BLOCK
  5
19044
330
19039
100
AcDbEntity
  8
0
 48
50.0
100
AcDbBlockBegin
  2
*D22
 70
     1
 10
0.0
 20
0.0
 30
0.0
  3
*D22
  1

  0
LINE
  5
19353
330
19039
100
AcDbEntity
  8
寸法
 62
     0
 48
50.0
370
    -2
100
AcDbLine
 10
10214.91323435719
 20
4276.656911265892
 30
0.0
 11
9598.978795251897
 21
4294.371061540221
 31
0.0
  0
LINE
  5
19354
330
19039
100
AcDbEntity
  8
寸法
 62
     0
 48
50.0
370
    -2
100
AcDbLine
 10
10210.85977880057
 20
4135.715187500178
 30
0.0
 11
9594.92533969527
 21
4153.429337774508
 31
0.0
  0
LINE
  5
19355
330
19039
100
AcDbEntity
  8
寸法
 62
     0
 48
50.0
370
    -2
100
AcDbLine
 10
9654.900541297703
 20
4151.704463069562
 30
0.0
 11
9658.953996854329
 21
4292.646186835274
 31
0.0
  0
LINE
  5
19356
330
19039
100
AcDbEntity
  8
寸法
 62
     0
 48
50.0
370
    -2
100
AcDbLine
 10
9658.953996854329
 20
4292.646186835274
 30
0.0
 11
9669.303245084014
 21
4652.497396449862
 31
0.0
  0
INSERT
  5
19357
330
19039
100
AcDbEntity
  8
寸法
 62
     0
 48
50.0
370
    -2
100
AcDbBlockReference
  2
_DOTSMALL
 10
9654.900541297703
 20
4151.704463069562
 30
0.0
 41
100.0
 42
100.0
 43
100.0
 50
268.3526390256378
  0
INSERT
  5
19358
330
19039
100
AcDbEntity
  8
寸法
 62
     0
 48
50.0
370
    -2
100
AcDbBlockReference
  2
_DOTSMALL
 10
9658.953996854329
 20
4292.646186835274
 30
0.0
 41
100.0
 42
100.0
 43
100.0
 50
88.35263902563776
  0
MTEXT
  5
19359
330
19039
100
AcDbEntity
  8
寸法
 62
     7
 48
50.0
100
AcDbMText
 10
9565.607347219241
 20
4525.425917486174
 30
0.0
 40
120.0
 41
0.0
 71
     5
 72
     1
  1
\A1;141
  7
STYLE1
 11
0.0287479117491237
 21
0.9995866933738488
 31
0.0
 73
     1
 44
1.0
1001
ACAD
1000
MTEXTBEGIN
1070
    73
1070
     1
1070
    44
1040
1.0
1070
    74
1070
     0
1000
MTEXTEND
  0
POINT
  5
1935A
330
19039
100
AcDbEntity
  8
DEFPOINTS
 62
     0
 48
50.0
100
AcDbPoint
 10
10234.90496822467
 20
4276.081953030909
 30
0.0
  0
POINT
  5
1935B
330
19039
100
AcDbEntity
  8
DEFPOINTS
 62
     0
 48
50.0
100
AcDbPoint
 10
10230.85151266804
 20
4135.140229265196
 30
0.0
  0
POINT
  5
1935C
330
19039
100
AcDbEntity
  8
DEFPOINTS
 62
     0
 48
50.0
100
AcDbPoint
 10
9654.900541297703
 20
4151.704463069562
 30
0.0
  0
ENDBLK
  5
19045
330
19039
100
AcDbEntity
  8
0
 48
50.0
100
AcDbBlockEnd
  0
BLOCK
  5
19051
330
19046
100
AcDbEntity
  8
0
 48
50.0
100
AcDbBlockBegin
  2
*D23
 70
     1
 10
0.0
 20
0.0
 30
0.0
  3
*D23
  1

  0
LINE
  5
19349
330
19046
100
AcDbEntity
  8
寸法
 62
     0
 48
50.0
370
    -2
100
AcDbLine
 10
13325.50894806609
 20
4244.169883807884
 30
0.0
 11
13325.50894806609
 21
4736.016657775535
 31
0.0
  0
LINE
  5
1934A
330
19046
100
AcDbEntity
  8
寸法
 62
     0
 48
50.0
370
    -2
100
AcDbLine
 10
13405.50894806609
 20
4242.359204196232
 30
0.0
 11
13405.50894806609
 21
4736.016657775535
 31
0.0
  0
LINE
  5
1934B
330
19046
100
AcDbEntity
  8
寸法
 62
     0
 48
50.0
370
    -2
100
AcDbLine
 10
13325.50894806609
 20
4676.016657775535
 30
0.0
 11
13405.50894806609
 21
4676.016657775535
 31
0.0
  0
LINE
  5
1934C
330
19046
100
AcDbEntity
  8
寸法
 62
     0
 48
50.0
370
    -2
100
AcDbLine
 10
13405.50894806609
 20
4676.016657775535
 30
0.0
 11
13717.60343625507
 21
4676.016657775535
 31
0.0
  0
INSERT
  5
1934D
330
19046
100
AcDbEntity
  8
寸法
 62
     0
 48
50.0
370
    -2
100
AcDbBlockReference
  2
_DOTSMALL
 10
13325.50894806609
 20
4676.016657775535
 30
0.0
 41
100.0
 42
100.0
 43
100.0
 50
180.0
  0
INSERT
  5
1934E
330
19046
100
AcDbEntity
  8
寸法
 62
     0
 48
50.0
370
    -2
100
AcDbBlockReference
  2
_DOTSMALL
 10
13405.50894806609
 20
4676.016657775535
 30
0.0
 41
100.0
 42
100.0
 43
100.0
  0
MTEXT
  5
1934F
330
19046
100
AcDbEntity
  8
寸法
 62
     7
 48
50.0
100
AcDbMText
 10
13611.55619216058
 20
4776.016657775535
 30
0.0
 40
120.0
 41
0.0
 71
     5
 72
     1
  1
\A1;80
  7
STYLE1
 73
     1
 44
1.0
1001
ACAD
1000
MTEXTBEGIN
1070
    73
1070
     1
1070
    44
1040
1.0
1070
    74
1070
     0
1000
MTEXTEND
  0
POINT
  5
19350
330
19046
100
AcDbEntity
  8
DEFPOINTS
 62
     0
 48
50.0
100
AcDbPoint
 10
13325.50894806609
 20
4224.169883807884
 30
0.0
  0
POINT
  5
19351
330
19046
100
AcDbEntity
  8
DEFPOINTS
 62
     0
 48
50.0
100
AcDbPoint
 10
13405.50894806609
 20
4222.359204196233
 30
0.0
  0
POINT
  5
19352
330
19046
100
AcDbEntity
  8
DEFPOINTS
 62
     0
 48
50.0
100
AcDbPoint
 10
13405.50894806609
 20
4676.016657775535
 30
0.0
  0
ENDBLK
  5
19052
330
19046
100
AcDbEntity
  8
0
 48
50.0
100
AcDbBlockEnd
  0
BLOCK
  5
1905D
330
19053
100
AcDbEntity
  8
0
 48
50.0
100
AcDbBlockBegin
  2
*D24
 70
     1
 10
0.0
 20
0.0
 30
0.0
  3
*D24
  1

  0
LINE
  5
1A0F1
330
19053
100
AcDbEntity
  8
寸法
 62
     0
 48
50.0
370
    -2
100
AcDbLine
 10
13405.50894806609
 20
4242.359204196231
 30
0.0
 11
13405.50894806609
 21
4966.130250561811
 31
0.0
  0
LINE
  5
1A0F2
330
19053
100
AcDbEntity
  8
寸法
 62
     0
 48
50.0
370
    -2
100
AcDbLine
 10
10215.50894806609
 20
4297.359204196234
 30
0.0
 11
10215.50894806609
 21
4966.130250561811
 31
0.0
  0
LINE
  5
1A0F3
330
19053
100
AcDbEntity
  8
寸法
 62
     0
 48
50.0
370
    -2
100
AcDbLine
 10
13405.50894806609
 20
4906.130250561812
 30
0.0
 11
10215.50894806609
 21
4906.130250561812
 31
0.0
  0
INSERT
  5
1A0F4
330
19053
100
AcDbEntity
  8
寸法
 62
     0
 48
50.0
370
    -2
100
AcDbBlockReference
  2
_DOTSMALL
 10
13405.50894806609
 20
4906.130250561812
 30
0.0
 41
100.0
 42
100.0
 43
100.0
  0
INSERT
  5
1A0F5
330
19053
100
AcDbEntity
  8
寸法
 62
     0
 48
50.0
370
    -2
100
AcDbBlockReference
  2
_DOTSMALL
 10
10215.50894806609
 20
4906.130250561812
 30
0.0
 41
100.0
 42
100.0
 43
100.0
 50
180.0
  0
MTEXT
  5
1A0F6
330
19053
100
AcDbEntity
  8
寸法
 62
     7
 48
50.0
100
AcDbMText
 10
11810.50894806609
 20
5006.130250561811
 30
0.0
 40
120.0
 41
0.0
 71
     5
 72
     1
  1
\A1;3190
  7
STYLE1
 73
     1
 44
1.0
1001
ACAD
1000
MTEXTBEGIN
1070
    73
1070
     1
1070
    44
1040
1.0
1070
    74
1070
     0
1000
MTEXTEND
  0
POINT
  5
1A0F7
330
19053
100
AcDbEntity
  8
DEFPOINTS
 62
     0
 48
50.0
100
AcDbPoint
 10
13405.50894806609
 20
4222.359204196231
 30
0.0
  0
POINT
  5
1A0F8
330
19053
100
AcDbEntity
  8
DEFPOINTS
 62
     0
 48
50.0
100
AcDbPoint
 10
10215.50894806609
 20
4277.359204196233
 30
0.0
  0
POINT
  5
1A0F9
330
19053
100
AcDbEntity
  8
DEFPOINTS
 62
     0
 48
50.0
100
AcDbPoint
 10
10215.50894806609
 20
4906.130250561812
 30
0.0
  0
ENDBLK
  5
1905E
330
19053
100
AcDbEntity
  8
0
 48
50.0
100
AcDbBlockEnd
  0
BLOCK
  5
1906B
330
1905F
100
AcDbEntity
  8
0
 48
50.0
100
AcDbBlockBegin
  2
*D25
 70
     1
 10
0.0
 20
0.0
 30
0.0
  3
*D25
  1

  0
LINE
  5
19335
330
1905F
100
AcDbEntity
  8
寸法
 62
     0
 48
50.0
370
    -2
100
AcDbLine
 10
10275.50894806609
 20
4293.360822319206
 30
0.0
 11
10275.50894806609
 21
4736.016657775533
 31
0.0
  0
LINE
  5
19336
330
1905F
100
AcDbEntity
  8
寸法
 62
     0
 48
50.0
370
    -2
100
AcDbLine
 10
10215.50894806609
 20
4297.359204196234
 30
0.0
 11
10215.50894806609
 21
4736.016657775533
 31
0.0
  0
LINE
  5
19337
330
1905F
100
AcDbEntity
  8
寸法
 62
     0
 48
50.0
370
    -2
100
AcDbLine
 10
10275.50894806609
 20
4676.016657775533
 30
0.0
 11
10375.50894806609
 21
4676.016657775533
 31
0.0
  0
LINE
  5
19338
330
1905F
100
AcDbEntity
  8
寸法
 62
     0
 48
50.0
370
    -2
100
AcDbLine
 10
10215.50894806609
 20
4676.016657775533
 30
0.0
 11
9796.233357514914
 21
4676.016657775533
 31
0.0
  0
LINE
  5
19339
330
1905F
100
AcDbEntity
  8
寸法
 62
     0
 48
50.0
370
    -2
100
AcDbLine
 10
10275.50894806609
 20
4676.016657775533
 30
0.0
 11
10215.50894806609
 21
4676.016657775533
 31
0.0
  0
INSERT
  5
1933A
330
1905F
100
AcDbEntity
  8
寸法
 62
     0
 48
50.0
370
    -2
100
AcDbBlockReference
  2
_DOTSMALL
 10
10275.50894806609
 20
4676.016657775533
 30
0.0
 41
100.0
 42
100.0
 43
100.0
 50
180.0
  0
INSERT
  5
1933B
330
1905F
100
AcDbEntity
  8
寸法
 62
     0
 48
50.0
370
    -2
100
AcDbBlockReference
  2
_DOTSMALL
 10
10215.50894806609
 20
4676.016657775533
 30
0.0
 41
100.0
 42
100.0
 43
100.0
  0
MTEXT
  5
1933C
330
1905F
100
AcDbEntity
  8
寸法
 62
     7
 48
50.0
100
AcDbMText
 10
9905.871152790503
 20
4776.016657775533
 30
0.0
 40
120.0
 41
0.0
 71
     5
 72
     1
  1
\A1;60
  7
STYLE1
 73
     1
 44
1.0
1001
ACAD
1000
MTEXTBEGIN
1070
    73
1070
     1
1070
    44
1040
1.0
1070
    74
1070
     0
1000
MTEXTEND
  0
POINT
  5
1933D
330
1905F
100
AcDbEntity
  8
DEFPOINTS
 62
     0
 48
50.0
100
AcDbPoint
 10
10275.50894806609
 20
4273.360822319205
 30
0.0
  0
POINT
  5
1933E
330
1905F
100
AcDbEntity
  8
DEFPOINTS
 62
     0
 48
50.0
100
AcDbPoint
 10
10215.50894806609
 20
4277.359204196233
 30
0.0
  0
POINT
  5
1933F
330
1905F
100
AcDbEntity
  8
DEFPOINTS
 62
     0
 48
50.0
100
AcDbPoint
 10
10215.50894806609
 20
4676.016657775533
 30
0.0
  0
ENDBLK
  5
1906C
330
1905F
100
AcDbEntity
  8
0
 48
50.0
100
AcDbBlockEnd
  0
BLOCK
  5
19077
330
1906D
100
AcDbEntity
  8
0
 48
50.0
100
AcDbBlockBegin
  2
*D26
 70
     1
 10
0.0
 20
0.0
 30
0.0
  3
*D26
  1

  0
LINE
  5
1A0FA
330
1906D
100
AcDbEntity
  8
寸法
 62
     0
 48
50.0
370
    -2
100
AcDbLine
 10
13325.50894806609
 20
4244.169883807884
 30
0.0
 11
13325.50894806609
 21
4736.016657775535
 31
0.0
  0
LINE
  5
1A0FB
330
1906D
100
AcDbEntity
  8
寸法
 62
     0
 48
50.0
370
    -2
100
AcDbLine
 10
10275.50894806609
 20
4293.360822319206
 30
0.0
 11
10275.50894806609
 21
4736.016657775535
 31
0.0
  0
LINE
  5
1A0FC
330
1906D
100
AcDbEntity
  8
寸法
 62
     0
 48
50.0
370
    -2
100
AcDbLine
 10
13325.50894806609
 20
4676.016657775535
 30
0.0
 11
10275.50894806609
 21
4676.016657775535
 31
0.0
  0
INSERT
  5
1A0FD
330
1906D
100
AcDbEntity
  8
寸法
 62
     0
 48
50.0
370
    -2
100
AcDbBlockReference
  2
_DOTSMALL
 10
13325.50894806609
 20
4676.016657775535
 30
0.0
 41
100.0
 42
100.0
 43
100.0
  0
INSERT
  5
1A0FE
330
1906D
100
AcDbEntity
  8
寸法
 62
     0
 48
50.0
370
    -2
100
AcDbBlockReference
  2
_DOTSMALL
 10
10275.50894806609
 20
4676.016657775535
 30
0.0
 41
100.0
 42
100.0
 43
100.0
 50
180.0
  0
MTEXT
  5
1A0FF
330
1906D
100
AcDbEntity
  8
寸法
 62
     7
 48
50.0
100
AcDbMText
 10
11800.50894806609
 20
4776.016657775535
 30
0.0
 40
120.0
 41
0.0
 71
     5
 72
     1
  1
\A1;柱外寸法3050
  7
STYLE1
 73
     1
 44
1.0
1001
ACAD
1000
MTEXTBEGIN
1070
    73
1070
     1
1070
    44
1040
1.0
1070
    74
1070
     0
1000
MTEXTEND
  0
POINT
  5
1A100
330
1906D
100
AcDbEntity
  8
DEFPOINTS
 62
     0
 48
50.0
100
AcDbPoint
 10
13325.50894806609
 20
4224.169883807884
 30
0.0
  0
POINT
  5
1A101
330
1906D
100
AcDbEntity
  8
DEFPOINTS
 62
     0
 48
50.0
100
AcDbPoint
 10
10275.50894806609
 20
4273.360822319205
 30
0.0
  0
POINT
  5
1A102
330
1906D
100
AcDbEntity
  8
DEFPOINTS
 62
     0
 48
50.0
100
AcDbPoint
 10
10275.50894806609
 20
4676.016657775535
 30
0.0
  0
ENDBLK
  5
19078
330
1906D
100
AcDbEntity
  8
0
 48
50.0
100
AcDbBlockEnd
  0
BLOCK
  5
19085
330
19079
100
AcDbEntity
  8
0
 48
50.0
100
AcDbBlockBegin
  2
*D27
 70
     1
 10
0.0
 20
0.0
 30
0.0
  3
*D27
  1

  0
LINE
  5
19321
330
19079
100
AcDbEntity
  8
寸法
 62
     0
 48
50.0
370
    -2
100
AcDbLine
 10
10255.50894806609
 20
2252.359204196229
 30
0.0
 11
9371.758818882835
 21
2252.359204196229
 31
0.0
  0
LINE
  5
19322
330
19079
100
AcDbEntity
  8
寸法
 62
     0
 48
50.0
370
    -2
100
AcDbLine
 10
10200.50894806609
 20
2202.359204196229
 30
0.0
 11
9371.758818882835
 21
2202.359204196229
 31
0.0
  0
LINE
  5
19323
330
19079
100
AcDbEntity
  8
寸法
 62
     0
 48
50.0
370
    -2
100
AcDbLine
 10
9431.758818882833
 20
2252.359204196229
 30
0.0
 11
9431.758818882833
 21
2352.359204196229
 31
0.0
  0
LINE
  5
19324
330
19079
100
AcDbEntity
  8
寸法
 62
     0
 48
50.0
370
    -2
100
AcDbLine
 10
9431.758818882833
 20
2202.359204196229
 30
0.0
 11
9431.758818882833
 21
1790.26471600725
 31
0.0
  0
LINE
  5
19325
330
19079
100
AcDbEntity
  8
寸法
 62
     0
 48
50.0
370
    -2
100
AcDbLine
 10
9431.758818882833
 20
2252.359204196229
 30
0.0
 11
9431.758818882833
 21
2202.359204196229
 31
0.0
  0
INSERT
  5
19326
330
19079
100
AcDbEntity
  8
寸法
 62
     0
 48
50.0
370
    -2
100
AcDbBlockReference
  2
_DOTSMALL
 10
9431.758818882833
 20
2252.359204196229
 30
0.0
 41
100.0
 42
100.0
 43
100.0
 50
270.0
  0
INSERT
  5
19327
330
19079
100
AcDbEntity
  8
寸法
 62
     0
 48
50.0
370
    -2
100
AcDbBlockReference
  2
_DOTSMALL
 10
9431.758818882833
 20
2202.359204196229
 30
0.0
 41
100.0
 42
100.0
 43
100.0
 50
90.0
  0
MTEXT
  5
19328
330
19079
100
AcDbEntity
  8
寸法
 62
     7
 48
50.0
100
AcDbMText
 10
9331.758818882834
 20
1896.31196010174
 30
0.0
 40
120.0
 41
0.0
 71
     5
 72
     1
  1
\A1;50
  7
STYLE1
 11
0.0000000000000001
 21
1.0
 31
0.0
 73
     1
 44
1.0
1001
ACAD
1000
MTEXTBEGIN
1070
    73
1070
     1
1070
    44
1040
1.0
1070
    74
1070
     0
1000
MTEXTEND
  0
POINT
  5
19329
330
19079
100
AcDbEntity
  8
DEFPOINTS
 62
     0
 48
50.0
100
AcDbPoint
 10
10275.50894806609
 20
2252.359204196229
 30
0.0
  0
POINT
  5
1932A
330
19079
100
AcDbEntity
  8
DEFPOINTS
 62
     0
 48
50.0
100
AcDbPoint
 10
10220.50894806609
 20
2202.359204196229
 30
0.0
  0
POINT
  5
1932B
330
19079
100
AcDbEntity
  8
DEFPOINTS
 62
     0
 48
50.0
100
AcDbPoint
 10
9431.758818882833
 20
2202.359204196229
 30
0.0
  0
ENDBLK
  5
19086
330
19079
100
AcDbEntity
  8
0
 48
50.0
100
AcDbBlockEnd
  0
BLOCK
  5
19091
330
19087
100
AcDbEntity
  8
0
 48
50.0
100
AcDbBlockBegin
  2
*D28
 70
     1
 10
0.0
 20
0.0
 30
0.0
  3
*D28
  1

  0
LINE
  5
19318
330
19087
100
AcDbEntity
  8
寸法
 62
     0
 48
50.0
370
    -2
100
AcDbLine
 10
13345.50894806609
 20
2202.359204196231
 30
0.0
 11
14090.43610603822
 21
2202.359204196231
 31
0.0
  0
LINE
  5
19319
330
19087
100
AcDbEntity
  8
寸法
 62
     0
 48
50.0
370
    -2
100
AcDbLine
 10
13425.50894806609
 20
4222.359204196231
 30
0.0
 11
14090.43610603822
 21
4222.359204196231
 31
0.0
  0
LINE
  5
1931A
330
19087
100
AcDbEntity
  8
寸法
 62
     0
 48
50.0
370
    -2
100
AcDbLine
 10
14030.43610603821
 20
2202.359204196231
 30
0.0
 11
14030.43610603821
 21
4222.359204196231
 31
0.0
  0
INSERT
  5
1931B
330
19087
100
AcDbEntity
  8
寸法
 62
     0
 48
50.0
370
    -2
100
AcDbBlockReference
  2
_DOTSMALL
 10
14030.43610603821
 20
2202.359204196231
 30
0.0
 41
100.0
 42
100.0
 43
100.0
 50
270.0
  0
INSERT
  5
1931C
330
19087
100
AcDbEntity
  8
寸法
 62
     0
 48
50.0
370
    -2
100
AcDbBlockReference
  2
_DOTSMALL
 10
14030.43610603821
 20
4222.359204196231
 30
0.0
 41
100.0
 42
100.0
 43
100.0
 50
90.0
  0
MTEXT
  5
1931D
330
19087
100
AcDbEntity
  8
寸法
 62
     7
 48
50.0
100
AcDbMText
 10
13930.42429501459
 20
3212.359204196233
 30
0.0
 40
120.0
 41
0.0
 71
     5
 72
     1
  1
\A1;2020
  7
STYLE1
 11
0.0000000000000001
 21
1.0
 31
0.0
 73
     1
 44
1.0
1001
ACAD
1000
MTEXTBEGIN
1070
    73
1070
     1
1070
    44
1040
1.0
1070
    74
1070
     0
1000
MTEXTEND
  0
POINT
  5
1931E
330
19087
100
AcDbEntity
  8
DEFPOINTS
 62
     0
 48
50.0
100
AcDbPoint
 10
13325.50894806609
 20
2202.359204196231
 30
0.0
  0
POINT
  5
1931F
330
19087
100
AcDbEntity
  8
DEFPOINTS
 62
     0
 48
50.0
100
AcDbPoint
 10
13405.50894806609
 20
4222.359204196231
 30
0.0
  0
POINT
  5
19320
330
19087
100
AcDbEntity
  8
DEFPOINTS
 62
     0
 48
50.0
100
AcDbPoint
 10
14030.43610603821
 20
4222.359204196231
 30
0.0
  0
ENDBLK
  5
19092
330
19087
100
AcDbEntity
  8
0
 48
50.0
100
AcDbBlockEnd
  0
BLOCK
  5
1909D
330
19093
100
AcDbEntity
  8
0
 48
50.0
100
AcDbBlockBegin
  2
*D29
 70
     1
 10
0.0
 20
0.0
 30
0.0
  3
*D29
  1

  0
LINE
  5
1930F
330
19093
100
AcDbEntity
  8
寸法
 62
     0
 48
50.0
370
    -2
100
AcDbLine
 10
10255.50894806609
 20
2202.359204196224
 30
0.0
 11
9071.758818882832
 21
2202.359204196224
 31
0.0
  0
LINE
  5
19310
330
19093
100
AcDbEntity
  8
寸法
 62
     0
 48
50.0
370
    -2
100
AcDbLine
 10
10195.50894806609
 20
4277.359204196229
 30
0.0
 11
9071.758818882834
 21
4277.359204196229
 31
0.0
  0
LINE
  5
19311
330
19093
100
AcDbEntity
  8
寸法
 62
     0
 48
50.0
370
    -2
100
AcDbLine
 10
9131.758818882833
 20
2202.359204196224
 30
0.0
 11
9131.758818882834
 21
4277.359204196229
 31
0.0
  0
INSERT
  5
19312
330
19093
100
AcDbEntity
  8
寸法
 62
     0
 48
50.0
370
    -2
100
AcDbBlockReference
  2
_DOTSMALL
 10
9131.758818882833
 20
2202.359204196224
 30
0.0
 41
100.0
 42
100.0
 43
100.0
 50
270.0
  0
INSERT
  5
19313
330
19093
100
AcDbEntity
  8
寸法
 62
     0
 48
50.0
370
    -2
100
AcDbBlockReference
  2
_DOTSMALL
 10
9131.758818882834
 20
4277.359204196229
 30
0.0
 41
100.0
 42
100.0
 43
100.0
 50
90.0
  0
MTEXT
  5
19314
330
19093
100
AcDbEntity
  8
寸法
 62
     7
 48
50.0
100
AcDbMText
 10
9031.747007859211
 20
3239.859204196228
 30
0.0
 40
120.0
 41
0.0
 71
     5
 72
     1
  1
\A1;2075
  7
STYLE1
 11
0.0000000000000001
 21
1.0
 31
0.0
 73
     1
 44
1.0
1001
ACAD
1000
MTEXTBEGIN
1070
    73
1070
     1
1070
    44
1040
1.0
1070
    74
1070
     0
1000
MTEXTEND
  0
POINT
  5
19315
330
19093
100
AcDbEntity
  8
DEFPOINTS
 62
     0
 48
50.0
100
AcDbPoint
 10
10275.50894806609
 20
2202.359204196224
 30
0.0
  0
POINT
  5
19316
330
19093
100
AcDbEntity
  8
DEFPOINTS
 62
     0
 48
50.0
100
AcDbPoint
 10
10215.50894806609
 20
4277.359204196229
 30
0.0
  0
POINT
  5
19317
330
19093
100
AcDbEntity
  8
DEFPOINTS
 62
     0
 48
50.0
100
AcDbPoint
 10
9131.758818882834
 20
4277.359204196229
 30
0.0
  0
ENDBLK
  5
1909E
330
19093
100
AcDbEntity
  8
0
 48
50.0
100
AcDbBlockEnd
  0
BLOCK
  5
190A9
330
1909F
100
AcDbEntity
  8
0
 48
50.0
100
AcDbBlockBegin
  2
*D30
 70
     1
 10
0.0
 20
0.0
 30
0.0
  3
*D30
  1

  0
LINE
  5
19306
330
1909F
100
AcDbEntity
  8
寸法
 62
     0
 48
50.0
370
    -2
100
AcDbLine
 10
10255.50894806609
 20
4042.359204196226
 30
0.0
 11
9371.758818882835
 21
4042.359204196226
 31
0.0
  0
LINE
  5
19307
330
1909F
100
AcDbEntity
  8
寸法
 62
     0
 48
50.0
370
    -2
100
AcDbLine
 10
10255.50894806609
 20
2252.359204196224
 30
0.0
 11
9371.758818882835
 21
2252.359204196224
 31
0.0
  0
LINE
  5
19308
330
1909F
100
AcDbEntity
  8
寸法
 62
     0
 48
50.0
370
    -2
100
AcDbLine
 10
9431.758818882833
 20
4042.359204196226
 30
0.0
 11
9431.758818882833
 21
2252.359204196224
 31
0.0
  0
INSERT
  5
19309
330
1909F
100
AcDbEntity
  8
寸法
 62
     0
 48
50.0
370
    -2
100
AcDbBlockReference
  2
_DOTSMALL
 10
9431.758818882833
 20
4042.359204196226
 30
0.0
 41
100.0
 42
100.0
 43
100.0
 50
90.0
  0
INSERT
  5
1930A
330
1909F
100
AcDbEntity
  8
寸法
 62
     0
 48
50.0
370
    -2
100
AcDbBlockReference
  2
_DOTSMALL
 10
9431.758818882833
 20
2252.359204196224
 30
0.0
 41
100.0
 42
100.0
 43
100.0
 50
270.0
  0
MTEXT
  5
1930B
330
1909F
100
AcDbEntity
  8
寸法
 62
     7
 48
50.0
100
AcDbMText
 10
9331.758818882834
 20
3147.359204196227
 30
0.0
 40
120.0
 41
0.0
 71
     5
 72
     1
  1
\A1;1790
  7
STYLE1
 11
0.0000000000000001
 21
1.0
 31
0.0
 73
     1
 44
1.0
1001
ACAD
1000
MTEXTBEGIN
1070
    73
1070
     1
1070
    44
1040
1.0
1070
    74
1070
     0
1000
MTEXTEND
  0
POINT
  5
1930C
330
1909F
100
AcDbEntity
  8
DEFPOINTS
 62
     0
 48
50.0
100
AcDbPoint
 10
10275.50894806609
 20
4042.359204196226
 30
0.0
  0
POINT
  5
1930D
330
1909F
100
AcDbEntity
  8
DEFPOINTS
 62
     0
 48
50.0
100
AcDbPoint
 10
10275.50894806609
 20
2252.359204196224
 30
0.0
  0
POINT
  5
1930E
330
1909F
100
AcDbEntity
  8
DEFPOINTS
 62
     0
 48
50.0
100
AcDbPoint
 10
9431.758818882833
 20
2252.359204196224
 30
0.0
  0
ENDBLK
  5
190AA
330
1909F
100
AcDbEntity
  8
0
 48
50.0
100
AcDbBlockEnd
  0
BLOCK
  5
199F5
330
199E9
100
AcDbEntity
  8
0
 48
50.0
100
AcDbBlockBegin
  2
*D31
 70
     1
 10
0.0
 20
0.0
 30
0.0
  3
*D31
  1

  0
LINE
  5
19E2C
330
199E9
100
AcDbEntity
  8
寸法
 62
     0
 48
50.0
370
    -2
100
AcDbLine
 10
7634.673057123669
 20
4297.359204196232
 30
0.0
 11
7634.673057123669
 21
4743.085475928142
 31
0.0
  0
LINE
  5
19E2D
330
199E9
100
AcDbEntity
  8
寸法
 62
     0
 48
50.0
370
    -2
100
AcDbLine
 10
7584.673057123673
 20
4297.359204196236
 30
0.0
 11
7584.673057123673
 21
4743.085475928142
 31
0.0
  0
LINE
  5
19E2E
330
199E9
100
AcDbEntity
  8
寸法
 62
     0
 48
50.0
370
    -2
100
AcDbLine
 10
7584.673057123673
 20
4683.085475928143
 30
0.0
 11
7484.673057123673
 21
4683.085475928143
 31
0.0
  0
LINE
  5
19E2F
330
199E9
100
AcDbEntity
  8
寸法
 62
     0
 48
50.0
370
    -2
100
AcDbLine
 10
7634.673057123669
 20
4683.085475928143
 30
0.0
 11
8054.205582592397
 21
4683.085475928143
 31
0.0
  0
LINE
  5
19E30
330
199E9
100
AcDbEntity
  8
寸法
 62
     0
 48
50.0
370
    -2
100
AcDbLine
 10
7584.673057123673
 20
4683.085475928143
 30
0.0
 11
7634.673057123669
 21
4683.085475928143
 31
0.0
  0
INSERT
  5
19E31
330
199E9
100
AcDbEntity
  8
寸法
 62
     0
 48
50.0
370
    -2
100
AcDbBlockReference
  2
_DOTSMALL
 10
7584.673057123673
 20
4683.085475928143
 30
0.0
 41
100.0
 42
100.0
 43
100.0
  0
INSERT
  5
19E32
330
199E9
100
AcDbEntity
  8
寸法
 62
     0
 48
50.0
370
    -2
100
AcDbBlockReference
  2
_DOTSMALL
 10
7634.673057123669
 20
4683.085475928143
 30
0.0
 41
100.0
 42
100.0
 43
100.0
 50
180.0
  0
MTEXT
  5
19E33
330
199E9
100
AcDbEntity
  8
寸法
 62
     7
 48
50.0
100
AcDbMText
 10
7948.158338497909
 20
4783.085475928142
 30
0.0
 40
120.0
 41
0.0
 71
     5
 72
     1
  1
\A1;50
  7
STYLE1
 73
     1
 44
1.0
1001
ACAD
1000
MTEXTBEGIN
1070
    73
1070
     1
1070
    44
1040
1.0
1070
    74
1070
     0
1000
MTEXTEND
  0
POINT
  5
19E34
330
199E9
100
AcDbEntity
  8
DEFPOINTS
 62
     0
 48
50.0
100
AcDbPoint
 10
7634.673057123669
 20
4277.359204196232
 30
0.0
  0
POINT
  5
19E35
330
199E9
100
AcDbEntity
  8
DEFPOINTS
 62
     0
 48
50.0
100
AcDbPoint
 10
7584.673057123673
 20
4277.359204196236
 30
0.0
  0
POINT
  5
19E36
330
199E9
100
AcDbEntity
  8
DEFPOINTS
 62
     0
 48
50.0
100
AcDbPoint
 10
7584.673057123673
 20
4683.085475928143
 30
0.0
  0
ENDBLK
  5
199F6
330
199E9
100
AcDbEntity
  8
0
 48
50.0
100
AcDbBlockEnd
  0
BLOCK
  5
19A03
330
199F7
100
AcDbEntity
  8
0
 48
50.0
100
AcDbBlockBegin
  2
*D32
 70
     1
 10
0.0
 20
0.0
 30
0.0
  3
*D32
  1

  0
LINE
  5
19E21
330
199F7
100
AcDbEntity
  8
寸法
 62
     0
 48
50.0
370
    -2
100
AcDbLine
 10
3164.673057123668
 20
4297.359204196236
 30
0.0
 11
3164.673057123668
 21
4743.085475928139
 31
0.0
  0
LINE
  5
19E22
330
199F7
100
AcDbEntity
  8
寸法
 62
     0
 48
50.0
370
    -2
100
AcDbLine
 10
3114.673057123668
 20
4297.359204196236
 30
0.0
 11
3114.673057123668
 21
4743.085475928139
 31
0.0
  0
LINE
  5
19E23
330
199F7
100
AcDbEntity
  8
寸法
 62
     0
 48
50.0
370
    -2
100
AcDbLine
 10
3164.673057123668
 20
4683.085475928139
 30
0.0
 11
3264.673057123668
 21
4683.085475928139
 31
0.0
  0
LINE
  5
19E24
330
199F7
100
AcDbEntity
  8
寸法
 62
     0
 48
50.0
370
    -2
100
AcDbLine
 10
3114.673057123668
 20
4683.085475928139
 30
0.0
 11
2695.140531654932
 21
4683.085475928139
 31
0.0
  0
LINE
  5
19E25
330
199F7
100
AcDbEntity
  8
寸法
 62
     0
 48
50.0
370
    -2
100
AcDbLine
 10
3164.673057123668
 20
4683.085475928139
 30
0.0
 11
3114.673057123668
 21
4683.085475928139
 31
0.0
  0
INSERT
  5
19E26
330
199F7
100
AcDbEntity
  8
寸法
 62
     0
 48
50.0
370
    -2
100
AcDbBlockReference
  2
_DOTSMALL
 10
3164.673057123668
 20
4683.085475928139
 30
0.0
 41
100.0
 42
100.0
 43
100.0
 50
180.0
  0
INSERT
  5
19E27
330
199F7
100
AcDbEntity
  8
寸法
 62
     0
 48
50.0
370
    -2
100
AcDbBlockReference
  2
_DOTSMALL
 10
3114.673057123668
 20
4683.085475928139
 30
0.0
 41
100.0
 42
100.0
 43
100.0
  0
MTEXT
  5
19E28
330
199F7
100
AcDbEntity
  8
寸法
 62
     7
 48
50.0
100
AcDbMText
 10
2801.187775749421
 20
4783.085475928139
 30
0.0
 40
120.0
 41
0.0
 71
     5
 72
     1
  1
\A1;50
  7
STYLE1
 73
     1
 44
1.0
1001
ACAD
1000
MTEXTBEGIN
1070
    73
1070
     1
1070
    44
1040
1.0
1070
    74
1070
     0
1000
MTEXTEND
  0
POINT
  5
19E29
330
199F7
100
AcDbEntity
  8
DEFPOINTS
 62
     0
 48
50.0
100
AcDbPoint
 10
3164.673057123668
 20
4277.359204196236
 30
0.0
  0
POINT
  5
19E2A
330
199F7
100
AcDbEntity
  8
DEFPOINTS
 62
     0
 48
50.0
100
AcDbPoint
 10
3114.673057123668
 20
4277.359204196236
 30
0.0
  0
POINT
  5
19E2B
330
199F7
100
AcDbEntity
  8
DEFPOINTS
 62
     0
 48
50.0
100
AcDbPoint
 10
3114.673057123668
 20
4683.085475928139
 30
0.0
  0
ENDBLK
  5
19A04
330
199F7
100
AcDbEntity
  8
0
 48
50.0
100
AcDbBlockEnd
  0
BLOCK
  5
19A0F
330
19A05
100
AcDbEntity
  8
0
 48
50.0
100
AcDbBlockBegin
  2
*D33
 70
     1
 10
0.0
 20
0.0
 30
0.0
  3
*D33
  1

  0
LINE
  5
19E18
330
19A05
100
AcDbEntity
  8
寸法
 62
     0
 48
50.0
370
    -2
100
AcDbLine
 10
3114.673057123668
 20
4297.359204196236
 30
0.0
 11
3114.673057123668
 21
4942.994397142228
 31
0.0
  0
LINE
  5
19E19
330
19A05
100
AcDbEntity
  8
寸法
 62
     0
 48
50.0
370
    -2
100
AcDbLine
 10
7634.673057123669
 20
4297.359204196232
 30
0.0
 11
7634.673057123669
 21
4942.994397142228
 31
0.0
  0
LINE
  5
19E1A
330
19A05
100
AcDbEntity
  8
寸法
 62
     0
 48
50.0
370
    -2
100
AcDbLine
 10
3114.673057123668
 20
4882.994397142229
 30
0.0
 11
7634.673057123669
 21
4882.994397142229
 31
0.0
  0
INSERT
  5
19E1B
330
19A05
100
AcDbEntity
  8
寸法
 62
     0
 48
50.0
370
    -2
100
AcDbBlockReference
  2
_DOTSMALL
 10
3114.673057123668
 20
4882.994397142229
 30
0.0
 41
100.0
 42
100.0
 43
100.0
 50
180.0
  0
INSERT
  5
19E1C
330
19A05
100
AcDbEntity
  8
寸法
 62
     0
 48
50.0
370
    -2
100
AcDbBlockReference
  2
_DOTSMALL
 10
7634.673057123669
 20
4882.994397142229
 30
0.0
 41
100.0
 42
100.0
 43
100.0
  0
MTEXT
  5
19E1D
330
19A05
100
AcDbEntity
  8
寸法
 62
     7
 48
50.0
100
AcDbMText
 10
5374.673057123668
 20
4983.006208165851
 30
0.0
 40
120.0
 41
0.0
 71
     5
 72
     1
  1
\A1;4520
  7
STYLE1
 73
     1
 44
1.0
1001
ACAD
1000
MTEXTBEGIN
1070
    73
1070
     1
1070
    44
1040
1.0
1070
    74
1070
     0
1000
MTEXTEND
  0
POINT
  5
19E1E
330
19A05
100
AcDbEntity
  8
DEFPOINTS
 62
     0
 48
50.0
100
AcDbPoint
 10
3114.673057123668
 20
4277.359204196236
 30
0.0
  0
POINT
  5
19E1F
330
19A05
100
AcDbEntity
  8
DEFPOINTS
 62
     0
 48
50.0
100
AcDbPoint
 10
7634.673057123669
 20
4277.359204196232
 30
0.0
  0
POINT
  5
19E20
330
19A05
100
AcDbEntity
  8
DEFPOINTS
 62
     0
 48
50.0
100
AcDbPoint
 10
7634.673057123669
 20
4882.994397142229
 30
0.0
  0
ENDBLK
  5
19A10
330
19A05
100
AcDbEntity
  8
0
 48
50.0
100
AcDbBlockEnd
  0
BLOCK
  5
19A1B
330
19A11
100
AcDbEntity
  8
0
 48
50.0
100
AcDbBlockBegin
  2
*D34
 70
     1
 10
0.0
 20
0.0
 30
0.0
  3
*D34
  1

  0
LINE
  5
19E0F
330
19A11
100
AcDbEntity
  8
寸法
 62
     0
 48
50.0
370
    -2
100
AcDbLine
 10
7584.673057123673
 20
4297.359204196236
 30
0.0
 11
7584.673057123673
 21
4743.085475928139
 31
0.0
  0
LINE
  5
19E10
330
19A11
100
AcDbEntity
  8
寸法
 62
     0
 48
50.0
370
    -2
100
AcDbLine
 10
3164.673057123668
 20
4297.359204196236
 30
0.0
 11
3164.673057123668
 21
4743.085475928139
 31
0.0
  0
LINE
  5
19E11
330
19A11
100
AcDbEntity
  8
寸法
 62
     0
 48
50.0
370
    -2
100
AcDbLine
 10
7584.673057123673
 20
4683.085475928139
 30
0.0
 11
3164.673057123668
 21
4683.085475928139
 31
0.0
  0
INSERT
  5
19E12
330
19A11
100
AcDbEntity
  8
寸法
 62
     0
 48
50.0
370
    -2
100
AcDbBlockReference
  2
_DOTSMALL
 10
7584.673057123673
 20
4683.085475928139
 30
0.0
 41
100.0
 42
100.0
 43
100.0
  0
INSERT
  5
19E13
330
19A11
100
AcDbEntity
  8
寸法
 62
     0
 48
50.0
370
    -2
100
AcDbBlockReference
  2
_DOTSMALL
 10
3164.673057123668
 20
4683.085475928139
 30
0.0
 41
100.0
 42
100.0
 43
100.0
 50
180.0
  0
MTEXT
  5
19E14
330
19A11
100
AcDbEntity
  8
寸法
 62
     7
 48
50.0
100
AcDbMText
 10
5374.673057123668
 20
4783.09728695176
 30
0.0
 40
120.0
 41
0.0
 71
     5
 72
     1
  1
\A1;柱外寸法4420
  7
STYLE1
 73
     1
 44
1.0
1001
ACAD
1000
MTEXTBEGIN
1070
    73
1070
     1
1070
    44
1040
1.0
1070
    74
1070
     0
1000
MTEXTEND
  0
POINT
  5
19E15
330
19A11
100
AcDbEntity
  8
DEFPOINTS
 62
     0
 48
50.0
100
AcDbPoint
 10
7584.673057123673
 20
4277.359204196236
 30
0.0
  0
POINT
  5
19E16
330
19A11
100
AcDbEntity
  8
DEFPOINTS
 62
     0
 48
50.0
100
AcDbPoint
 10
3164.673057123668
 20
4277.359204196236
 30
0.0
  0
POINT
  5
19E17
330
19A11
100
AcDbEntity
  8
DEFPOINTS
 62
     0
 48
50.0
100
AcDbPoint
 10
3164.673057123668
 20
4683.085475928139
 30
0.0
  0
ENDBLK
  5
19A1C
330
19A11
100
AcDbEntity
  8
0
 48
50.0
100
AcDbBlockEnd
  0
BLOCK
  5
1A013
330
1A008
100
AcDbEntity
  8
0
 48
50.0
100
AcDbBlockBegin
  2
*D35
 70
     1
 10
0.0
 20
0.0
 30
0.0
  3
*D35
  1

  0
LINE
  5
1A119
330
1A008
100
AcDbEntity
  8
寸法
 62
     0
 48
50.0
370
    -2
100
AcDbLine
 10
7604.673057123669
 20
3877.35920419623
 30
0.0
 11
7932.216159445416
 21
3877.35920419623
 31
0.0
  0
LINE
  5
1A11A
330
1A008
100
AcDbEntity
  8
寸法
 62
     0
 48
50.0
370
    -2
100
AcDbLine
 10
7604.673057123669
 20
4042.359204196229
 30
0.0
 11
7932.216159445416
 21
4042.359204196229
 31
0.0
  0
LINE
  5
1A11B
330
1A008
100
AcDbEntity
  8
寸法
 62
     0
 48
50.0
370
    -2
100
AcDbLine
 10
7872.216159445416
 20
3877.35920419623
 30
0.0
 11
7872.216159445416
 21
4042.359204196229
 31
0.0
  0
LINE
  5
1A11C
330
1A008
100
AcDbEntity
  8
寸法
 62
     0
 48
50.0
370
    -2
100
AcDbLine
 10
7872.216159445416
 20
4042.359204196229
 30
0.0
 11
7872.216159445416
 21
4419.329766944707
 31
0.0
  0
INSERT
  5
1A11D
330
1A008
100
AcDbEntity
  8
寸法
 62
     0
 48
50.0
370
    -2
100
AcDbBlockReference
  2
_DOTSMALL
 10
7872.216159445416
 20
3877.35920419623
 30
0.0
 41
100.0
 42
100.0
 43
100.0
 50
270.0
  0
INSERT
  5
1A11E
330
1A008
100
AcDbEntity
  8
寸法
 62
     0
 48
50.0
370
    -2
100
AcDbBlockReference
  2
_DOTSMALL
 10
7872.216159445416
 20
4042.359204196229
 30
0.0
 41
100.0
 42
100.0
 43
100.0
 50
90.0
  0
MTEXT
  5
1A11F
330
1A008
100
AcDbEntity
  8
寸法
 62
     7
 48
50.0
100
AcDbMText
 10
7772.216159445415
 20
4280.844485570468
 30
0.0
 40
120.0
 41
0.0
 71
     5
 72
     1
  1
\A1;165
  7
STYLE1
 11
0.0000000000000001
 21
1.0
 31
0.0
 73
     1
 44
1.0
1001
ACAD
1000
MTEXTBEGIN
1070
    73
1070
     1
1070
    44
1040
1.0
1070
    74
1070
     0
1000
MTEXTEND
  0
POINT
  5
1A120
330
1A008
100
AcDbEntity
  8
DEFPOINTS
 62
     0
 48
50.0
100
AcDbPoint
 10
7584.673057123669
 20
3877.35920419623
 30
0.0
  0
POINT
  5
1A121
330
1A008
100
AcDbEntity
  8
DEFPOINTS
 62
     0
 48
50.0
100
AcDbPoint
 10
7584.673057123669
 20
4042.359204196229
 30
0.0
  0
POINT
  5
1A122
330
1A008
100
AcDbEntity
  8
DEFPOINTS
 62
     0
 48
50.0
100
AcDbPoint
 10
7872.216159445416
 20
4042.359204196229
 30
0.0
  0
ENDBLK
  5
1A014
330
1A008
100
AcDbEntity
  8
0
 48
50.0
100
AcDbBlockEnd
  0
BLOCK
  5
1A021
330
1A015
100
AcDbEntity
  8
0
 48
50.0
100
AcDbBlockBegin
  2
*D36
 70
     1
 10
0.0
 20
0.0
 30
0.0
  3
*D36
  1

  0
LINE
  5
1A10E
330
1A015
100
AcDbEntity
  8
寸法
 62
     0
 48
50.0
370
    -2
100
AcDbLine
 10
7604.673057123669
 20
3850.359204196229
 30
0.0
 11
7932.216159445414
 21
3850.359204196229
 31
0.0
  0
LINE
  5
1A10F
330
1A015
100
AcDbEntity
  8
寸法
 62
     0
 48
50.0
370
    -2
100
AcDbLine
 10
7604.673057123669
 20
3877.35920419623
 30
0.0
 11
7932.216159445414
 21
3877.35920419623
 31
0.0
  0
LINE
  5
1A110
330
1A015
100
AcDbEntity
  8
寸法
 62
     0
 48
50.0
370
    -2
100
AcDbLine
 10
7872.216159445414
 20
3850.359204196229
 30
0.0
 11
7872.216159445414
 21
3750.359204196229
 31
0.0
  0
LINE
  5
1A111
330
1A015
100
AcDbEntity
  8
寸法
 62
     0
 48
50.0
370
    -2
100
AcDbLine
 10
7872.216159445414
 20
3877.35920419623
 30
0.0
 11
7872.216159445414
 21
3977.35920419623
 31
0.0
  0
MTEXT
  5
1A112
330
1A015
100
AcDbEntity
  8
寸法
 62
     7
 48
50.0
100
AcDbMText
 10
8012.38598269178
 20
3878.326404035888
 30
0.0
 40
120.0
 41
0.0
 71
     5
 72
     1
  1
\A1;27
  7
STYLE1
 11
0.0000000000000001
 21
1.0
 31
0.0
 73
     1
 44
1.0
1001
ACAD
1000
MTEXTBEGIN
1070
    73
1070
     1
1070
    44
1040
1.0
1070
    74
1070
     0
1000
MTEXTEND
  0
LINE
  5
1A113
330
1A015
100
AcDbEntity
  8
寸法
 62
     0
 48
50.0
370
    -2
100
AcDbLine
 10
7872.216159445414
 20
3850.359204196229
 30
0.0
 11
7872.216159445414
 21
3877.35920419623
 31
0.0
  0
INSERT
  5
1A114
330
1A015
100
AcDbEntity
  8
寸法
 62
     0
 48
50.0
370
    -2
100
AcDbBlockReference
  2
_DOTSMALL
 10
7872.216159445414
 20
3850.359204196229
 30
0.0
 41
100.0
 42
100.0
 43
100.0
 50
90.0
  0
INSERT
  5
1A115
330
1A015
100
AcDbEntity
  8
寸法
 62
     0
 48
50.0
370
    -2
100
AcDbBlockReference
  2
_DOTSMALL
 10
7872.216159445414
 20
3877.35920419623
 30
0.0
 41
100.0
 42
100.0
 43
100.0
 50
270.0
  0
POINT
  5
1A116
330
1A015
100
AcDbEntity
  8
DEFPOINTS
 62
     0
 48
50.0
100
AcDbPoint
 10
7584.673057123669
 20
3850.359204196229
 30
0.0
  0
POINT
  5
1A117
330
1A015
100
AcDbEntity
  8
DEFPOINTS
 62
     0
 48
50.0
100
AcDbPoint
 10
7584.673057123669
 20
3877.35920419623
 30
0.0
  0
POINT
  5
1A118
330
1A015
100
AcDbEntity
  8
DEFPOINTS
 62
     0
 48
50.0
100
AcDbPoint
 10
7872.216159445414
 20
3877.35920419623
 30
0.0
  0
ENDBLK
  5
1A022
330
1A015
100
AcDbEntity
  8
0
 48
50.0
100
AcDbBlockEnd
  0
BLOCK
  5
1A02D
330
1A023
100
AcDbEntity
  8
0
 48
50.0
100
AcDbBlockBegin
  2
*D37
 70
     1
 10
0.0
 20
0.0
 30
0.0
  3
*D37
  1

  0
LINE
  5
1A08A
330
1A023
100
AcDbEntity
  8
寸法
 62
     0
 48
50.0
370
    -2
100
AcDbLine
 10
7604.673057123669
 20
2202.359204196229
 30
0.0
 11
7932.216159445414
 21
2202.359204196229
 31
0.0
  0
LINE
  5
1A08B
330
1A023
100
AcDbEntity
  8
寸法
 62
     0
 48
50.0
370
    -2
100
AcDbLine
 10
7604.673057123669
 20
3850.359204196229
 30
0.0
 11
7932.216159445414
 21
3850.359204196229
 31
0.0
  0
LINE
  5
1A08C
330
1A023
100
AcDbEntity
  8
寸法
 62
     0
 48
50.0
370
    -2
100
AcDbLine
 10
7872.216159445414
 20
2202.359204196229
 30
0.0
 11
7872.216159445414
 21
3850.359204196229
 31
0.0
  0
INSERT
  5
1A08D
330
1A023
100
AcDbEntity
  8
寸法
 62
     0
 48
50.0
370
    -2
100
AcDbBlockReference
  2
_DOTSMALL
 10
7872.216159445414
 20
2202.359204196229
 30
0.0
 41
100.0
 42
100.0
 43
100.0
 50
270.0
  0
INSERT
  5
1A08E
330
1A023
100
AcDbEntity
  8
寸法
 62
     0
 48
50.0
370
    -2
100
AcDbBlockReference
  2
_DOTSMALL
 10
7872.216159445414
 20
3850.359204196229
 30
0.0
 41
100.0
 42
100.0
 43
100.0
 50
90.0
  0
MTEXT
  5
1A08F
330
1A023
100
AcDbEntity
  8
寸法
 62
     7
 48
50.0
100
AcDbMText
 10
7772.216159445413
 20
3026.359204196231
 30
0.0
 40
120.0
 41
0.0
 71
     5
 72
     1
  1
\A1;有効開口部高サ 1648
  7
STYLE1
 11
0.0000000000000001
 21
1.0
 31
0.0
 73
     1
 44
1.0
1001
ACAD
1000
MTEXTBEGIN
1070
    73
1070
     1
1070
    44
1040
1.0
1070
    74
1070
     0
1000
MTEXTEND
  0
POINT
  5
1A090
330
1A023
100
AcDbEntity
  8
DEFPOINTS
 62
     0
 48
50.0
100
AcDbPoint
 10
7584.673057123669
 20
2202.359204196229
 30
0.0
  0
POINT
  5
1A091
330
1A023
100
AcDbEntity
  8
DEFPOINTS
 62
     0
 48
50.0
100
AcDbPoint
 10
7584.673057123669
 20
3850.359204196229
 30
0.0
  0
POINT
  5
1A092
330
1A023
100
AcDbEntity
  8
DEFPOINTS
 62
     0
 48
50.0
100
AcDbPoint
 10
7872.216159445414
 20
3850.359204196229
 30
0.0
  0
ENDBLK
  5
1A02E
330
1A023
100
AcDbEntity
  8
0
 48
50.0
100
AcDbBlockEnd
  0
ENDSEC
  0
SECTION
  2
ENTITIES
  0
MTEXT
  5
763F
330
747D
100
AcDbEntity
  8
0
100
AcDbMText
 10
302.846345836809
 20
280.1983726409901
 30
0.0
 40
3.5
 41
5.323721266742722
 71
     1
 72
     5
  1

  7
MSMINCHO
 73
     1
 44
1.0
1001
ACAD
1000
MTEXTBEGIN
1070
    73
1070
     1
1070
    44
1040
1.0
1070
    74
1070
     0
1000
MTEXTEND
  0
LINE
  5
10B57
330
747D
100
AcDbEntity
  8
補助
  6
PHANTOM
 62
   230
 48
50.0
100
AcDbLine
 10
139.9999999999995
 20
11409.6
 30
0.0
 11
16307.2
 21
11409.6
 31
0.0
  0
LINE
  5
10B59
330
747D
100
AcDbEntity
  8
仕様書枠
  6
Continuous
 48
50.0
100
AcDbLine
 10
13107.2
 20
1200.0
 30
0.0
 11
13107.2
 21
-0.0000000000000729
 31
0.0
  0
LINE
  5
10B5C
330
747D
100
AcDbEntity
  8
仕様書枠
 48
50.0
100
AcDbLine
 10
16307.2
 20
1200.0
 30
0.0
 11
16307.2
 21
-0.0000000000000909
 31
0.0
  0
LINE
  5
10B5D
330
747D
100
AcDbEntity
  8
仕様書枠
 48
50.0
100
AcDbLine
 10
140.0
 20
0.0
 30
0.0
 11
16307.2
 21
-0.0000000000000909
 31
0.0
  0
LINE
  5
10B5E
330
747D
100
AcDbEntity
  8
補助
  6
PHANTOM
 62
   230
 48
50.0
100
AcDbLine
 10
16307.2
 20
11409.6
 30
0.0
 11
16307.2
 21
1200.0
 31
0.0
  0
LINE
  5
10B6C
330
747D
100
AcDbEntity
  8
仕様書枠
 48
50.0
100
AcDbLine
 10
13107.2
 20
1200.0
 30
0.0
 11
16307.2
 21
1200.0
 31
0.0
  0
LINE
  5
10B6D
330
747D
100
AcDbEntity
  8
補助
  6
PHANTOM
 62
   230
 48
50.0
100
AcDbLine
 10
13107.2
 20
11409.6
 30
0.0
 11
13107.2
 21
4800.0
 31
0.0
  0
LINE
  5
10B6F
330
747D
100
AcDbEntity
  8
補助
  6
PHANTOM
 62
   230
 48
50.0
100
AcDbLine
 10
13107.2
 20
4800.0
 30
0.0
 11
16307.2
 21
4800.0
 31
0.0
  0
LINE
  5
10B72
330
747D
100
AcDbEntity
  8
文字
 62
     7
 48
50.0
100
AcDbLine
 10
13187.2
 20
400.0
 30
0.0
 11
16227.2
 21
400.0
 31
0.0
  0
TEXT
  5
10B73
330
747D
100
AcDbEntity
  8
文字
 62
     7
 48
50.0
100
AcDbText
 10
13162.9790565769
 20
895.0906074299405
 30
0.0
 40
200.0
  1
外 形 図
  7
STYLE2
100
AcDbText
  0
TEXT
  5
10B74
330
747D
100
AcDbEntity
  8
文字
 62
     7
 48
50.0
100
AcDbText
 10
13201.43669998441
 20
477.2740661031255
 30
0.0
 40
160.0
  1
機種名
  7
STYLE2
100
AcDbText
  0
TEXT
  5
10B75
330
747D
100
AcDbEntity
  8
文字
 62
     7
 48
50.0
100
AcDbText
 10
13209.4053442172
 20
228.5435242569016
 30
0.0
 40
100.0
  1
○有効開口寸法 ： 2004×1648(mm)
  7
STYLE2
100
AcDbText
  0
TEXT
  5
10B76
330
747D
100
AcDbEntity
  8
文字
 62
     7
 48
50.0
100
AcDbText
 10
13209.4053442172
 20
76.09434707649343
 30
0.0
 40
100.0
  1
○床面積 ： 13.48㎡(4.09坪)
  7
STYLE2
100
AcDbText
  0
TEXT
  5
10B79
330
747D
100
AcDbEntity
  8
文字
 62
     7
 48
50.0
100
AcDbText
 10
14524.131837222
 20
1031.557706291228
 30
0.0
 40
100.0
  1
NO.32      <縮尺> S=1/40
  7
STYLE2
100
AcDbText
  0
LINE
  5
10B7B
330
747D
100
AcDbEntity
  8
仕様書枠
 48
50.0
100
AcDbLine
 10
13107.2
 20
800.0
 30
0.0
 11
14251.2
 21
800.0
 31
0.0
  0
LINE
  5
10B88
330
747D
100
AcDbEntity
  8
仕様書枠
  6
Continuous
 48
50.0
100
AcDbLine
 10
14251.2
 20
1200.0
 30
0.0
 11
14251.2
 21
800.0
 31
0.0
  0
LINE
  5
127A8
330
747D
100
AcDbEntity
  8
部品1
100
AcDbLine
 10
2112.244348224477
 20
2232.263014763894
 30
0.0
 11
2262.244348224477
 21
2232.263014763894
 31
0.0
  0
LINE
  5
127A9
330
747D
100
AcDbEntity
  8
部品1
100
AcDbLine
 10
2187.244348224477
 20
2102.359204196229
 30
0.0
 11
2112.244348224477
 21
2232.263014763894
 31
0.0
  0
TEXT
  5
127AA
330
747D
100
AcDbEntity
  8
部品1
100
AcDbText
 10
2290.349290349251
 20
2138.466107802131
 30
0.0
 40
125.0
  1
G.L
  7
MSGOTHIC
100
AcDbText
  0
LINE
  5
127AB
330
747D
100
AcDbEntity
  8
部品1
100
AcDbLine
 10
2262.244348224477
 20
2232.263014763894
 30
0.0
 11
2187.244348224477
 21
2102.359204196229
 31
0.0
  0
TEXT
  5
14E88
330
747D
100
AcDbEntity
  8
部品1
100
AcDbText
 10
5082.857333838481
 20
5802.378858851012
 30
0.0
 40
135.0
  1
平面図
  7
MSGOTHIC
100
AcDbText
  0
LWPOLYLINE
  5
14E89
330
747D
100
AcDbEntity
  8
部品1
100
AcDbPolyline
 90
        4
 70
     1
 43
0.0
 10
4992.937724009443
 20
5995.272388069536
 10
4992.937724009443
 20
5755.380066524003
 10
5756.408390237883
 20
5755.380066524003
 10
5756.408390237883
 20
5995.272388069536
  0
TEXT
  5
15550
330
747D
100
AcDbEntity
  8
文字
 62
     7
 48
50.0
100
AcDbText
 10
14772.26530907216
 20
871.9640646083623
 30
0.0
 40
100.0
  1
～一般型・多雪地型～
  7
STYLE2
100
AcDbText
  0
DIMENSION
  5
162CD
330
747D
100
AcDbEntity
  8
寸法
100
AcDbDimension
  2
*D1
 10
8232.099402858079
 20
7197.497424545952
 30
0.0
 11
8132.087591834457
 21
8667.497424545961
 31
0.0
 70
    32
  1
7X420=<>
 71
     5
 42
2940.000000000015
  3
INABA_S40G
100
AcDbAlignedDimension
 13
7584.673057123673
 23
10137.49742454596
 33
0.0
 14
7584.673057123648
 24
7197.497424545952
 34
0.0
 50
90.0
100
AcDbRotatedDimension
1001
ACAD
1000
DSTYLE
1002
{
1002
}
  0
DIMENSION
  5
162CE
330
747D
100
AcDbEntity
  8
寸法
100
AcDbDimension
  2
*D2
 10
8232.099402858059
 20
7142.497424545957
 30
0.0
 11
8232.099402858057
 21
6764.635957641094
 31
0.0
 70
   160
 71
     5
 42
54.99999999999636
  3
INABA_S40G
100
AcDbAlignedDimension
 13
7584.673057123648
 23
7197.497424545952
 33
0.0
 14
7584.673057123648
 24
7142.497424545957
 34
0.0
 50
90.0
100
AcDbRotatedDimension
1001
ACAD
1000
DSTYLE
1002
{
1002
}
  0
DIMENSION
  5
162CF
330
747D
100
AcDbEntity
  8
寸法
100
AcDbDimension
  2
*D3
 10
8232.099402858084
 20
10137.49742454596
 30
0.0
 11
8232.099402858082
 21
10500.9827059202
 31
0.0
 70
   160
 71
     5
 42
54.99999999999636
  3
INABA_S40G
100
AcDbAlignedDimension
 13
7584.673057123673
 23
10192.49742454596
 33
0.0
 14
7584.673057123673
 24
10137.49742454596
 34
0.0
 50
90.0
100
AcDbRotatedDimension
1001
ACAD
1000
DSTYLE
1002
{
1002
}
  0
DIMENSION
  5
162D0
330
747D
100
AcDbEntity
  8
寸法
100
AcDbDimension
  2
*D4
 10
8597.206344597719
 20
7142.497424545957
 30
0.0
 11
8497.206344597717
 21
8667.497424545961
 31
0.0
 70
    32
 71
     5
 42
3050.000000000008
  3
INABA_S40G
100
AcDbAlignedDimension
 13
7584.673057123673
 23
10192.49742454596
 33
0.0
 14
7584.673057123648
 24
7142.497424545957
 34
0.0
 50
90.0
100
AcDbRotatedDimension
1001
ACAD
1000
DSTYLE
1002
{
1002
}
  0
LINE
  5
162DC
330
747D
100
AcDbEntity
  8
部品1
100
AcDbLine
 10
7556.673057123656
 20
10164.49742454596
 30
0.0
 11
7556.673057123649
 21
7197.497424545952
 31
0.0
  0
LINE
  5
162DD
330
747D
100
AcDbEntity
  8
部品1
100
AcDbLine
 10
3192.673057123648
 20
7197.497424545821
 30
0.0
 11
3192.673057123659
 21
10164.49742454587
 31
0.0
  0
LINE
  5
162DE
330
747D
100
AcDbEntity
  8
部品1
100
AcDbLine
 10
7584.673057123673
 20
10192.49742454596
 30
0.0
 11
7584.673057123648
 21
7142.497424545957
 31
0.0
  0
LINE
  5
162DF
330
747D
100
AcDbEntity
  8
部品1
100
AcDbLine
 10
3164.673057123638
 20
10192.49742454583
 30
0.0
 11
3164.673057123666
 21
7142.497424545826
 31
0.0
  0
DIMENSION
  5
162E4
330
747D
100
AcDbEntity
  8
寸法
 48
50.0
100
AcDbDimension
  2
*D5
 10
5477.673057123666
 20
6608.0666537797
 30
0.0
 11
6479.673057123656
 21
6708.078464803323
 31
0.0
 70
    32
  1
有効開口部間口 <>
 71
     5
 42
2003.999999999982
  3
INABA_S40G
100
AcDbAlignedDimension
 13
7481.673057123647
 23
7168.497424545865
 33
0.0
 14
5477.673057123666
 24
7168.497424545865
 34
0.0
100
AcDbRotatedDimension
1001
ACAD
1000
DSTYLE
1002
{
1070
    75
1070
     1
1070
   279
1070
     2
1002
}
  0
LINE
  5
162E6
330
747D
100
AcDbEntity
  8
部品1
 48
50.0
100
AcDbLine
 10
5441.673057123665
 20
7187.997424545864
 30
0.0
 11
7517.673057123649
 21
7187.997424545864
 31
0.0
  0
DIMENSION
  5
162E7
330
747D
100
AcDbEntity
  8
寸法
100
AcDbDimension
  2
*D6
 10
7584.673057123636
 20
6161.893658188827
 30
0.0
 11
5374.673057123651
 21
6261.905469212448
 31
0.0
 70
    32
 71
     5
 42
4419.999999999971
  3
INABA_S40G
100
AcDbAlignedDimension
 13
3164.673057123666
 23
7142.497424545862
 33
0.0
 14
7584.673057123636
 24
7142.497424545957
 34
0.0
100
AcDbRotatedDimension
1001
ACAD
1000
DSTYLE
1002
{
1002
}
  0
LINE
  5
162E8
330
747D
100
AcDbEntity
  8
部品1
100
AcDbLine
 10
3219.673057123643
 20
10137.49742454588
 30
0.0
 11
3219.673057123665
 21
7207.497424545863
 31
0.0
  0
LINE
  5
162E9
330
747D
100
AcDbEntity
  8
部品1
100
AcDbLine
 10
3244.673057123645
 20
10137.49742454588
 30
0.0
 11
3244.673057123665
 21
7207.497424545863
 31
0.0
  0
DIMENSION
  5
162EA
330
747D
100
AcDbEntity
  8
寸法
 48
50.0
100
AcDbDimension
  2
*D7
 10
3164.673057123666
 20
6608.0666537797
 30
0.0
 11
2856.187775749427
 21
6608.0666537797
 31
0.0
 70
   160
 71
     5
 42
54.99999999999636
  3
INABA_S40G
100
AcDbAlignedDimension
 13
3219.673057123662
 23
7142.497424545864
 33
0.0
 14
3164.673057123666
 24
7142.497424545862
 34
0.0
100
AcDbRotatedDimension
1001
ACAD
1000
DSTYLE
1002
{
1002
}
  0
DIMENSION
  5
162EB
330
747D
100
AcDbEntity
  8
寸法
 48
50.0
100
AcDbDimension
  2
*D8
 10
5429.673057123662
 20
6608.0666537797
 30
0.0
 11
5590.575028123723
 21
6708.0666537797
 31
0.0
 70
   160
 71
     5
 42
48.00000000000363
  3
INABA_S40G
100
AcDbAlignedDimension
 13
5477.673057123666
 23
7168.497424545865
 33
0.0
 14
5429.673057123662
 24
7142.497424545864
 34
0.0
100
AcDbRotatedDimension
1001
ACAD
1000
DSTYLE
1002
{
1070
   279
1070
     2
1002
}
  0
LINE
  5
162EC
330
747D
100
AcDbEntity
  8
部品1
100
AcDbLine
 10
3219.673057123662
 20
7142.497424545864
 30
0.0
 11
3164.673057123666
 21
7142.497424545862
 31
0.0
  0
LINE
  5
162ED
330
747D
100
AcDbEntity
  8
部品1
 48
50.0
100
AcDbLine
 10
3219.673057123666
 20
7178.497424545864
 30
0.0
 11
3196.673057123666
 21
7178.497424545864
 31
0.0
  0
LINE
  5
162EE
330
747D
100
AcDbEntity
  8
部品1
 48
50.0
100
AcDbLine
 10
3229.673057123666
 20
7168.497424545865
 30
0.0
 11
3219.673057123666
 21
7147.497424545864
 31
0.0
  0
LINE
  5
162EF
330
747D
100
AcDbEntity
  8
部品1
 48
50.0
100
AcDbLine
 10
3219.673057123666
 20
7207.497424545863
 30
0.0
 11
3219.673057123662
 21
7142.497424545864
 31
0.0
  0
LINE
  5
162F0
330
747D
100
AcDbEntity
  8
部品1
 48
50.0
100
AcDbLine
 10
3267.673057123666
 20
7168.497424545865
 30
0.0
 11
3267.673057123666
 21
7177.497424545865
 31
0.0
  0
LINE
  5
162F1
330
747D
100
AcDbEntity
  8
部品1
 48
50.0
100
AcDbLine
 10
3267.673057123666
 20
7207.497424545865
 30
0.0
 11
3267.673057123666
 21
7198.497424545866
 31
0.0
  0
LINE
  5
162F2
330
747D
100
AcDbEntity
  8
部品1
100
AcDbLine
 10
3267.673057123666
 20
7207.497424545865
 30
0.0
 11
3219.673057123666
 21
7207.497424545865
 31
0.0
  0
LINE
  5
162F3
330
747D
100
AcDbEntity
  8
部品1
100
AcDbLine
 10
3267.673057123666
 20
7168.497424545865
 30
0.0
 11
3219.673057123666
 21
7168.497424545865
 31
0.0
  0
LINE
  5
162F4
330
747D
100
AcDbEntity
  8
部品1
100
AcDbLine
 10
3219.673057123665
 20
7178.497424545864
 30
0.0
 11
3196.673057123666
 21
7178.497424545864
 31
0.0
  0
LINE
  5
162F5
330
747D
100
AcDbEntity
  8
部品1
100
AcDbLine
 10
3219.673057123665
 20
7197.497424545789
 30
0.0
 11
3164.673057123664
 21
7197.497424545789
 31
0.0
  0
LINE
  5
162F6
330
747D
100
AcDbEntity
  8
部品1
100
AcDbLine
 10
3192.673057123648
 20
7197.497424545826
 30
0.0
 11
3164.673057123664
 21
7197.497424545826
 31
0.0
  0
LINE
  5
162F7
330
747D
100
AcDbEntity
  8
部品1
100
AcDbLine
 10
3192.673057123664
 20
7197.49742454584
 30
0.0
 11
3164.673057123664
 21
7197.49742454584
 31
0.0
  0
LINE
  5
162FB
330
747D
100
AcDbEntity
  8
部品1
100
AcDbLine
 10
3192.673057123653
 20
7617.49742454584
 30
0.0
 11
3164.673057123652
 21
7617.49742454584
 31
0.0
  0
LINE
  5
162FC
330
747D
100
AcDbEntity
  8
部品1
100
AcDbLine
 10
3192.673057123653
 20
8037.49742454584
 30
0.0
 11
3164.673057123652
 21
8037.49742454584
 31
0.0
  0
LINE
  5
162FE
330
747D
100
AcDbEntity
  8
部品1
100
AcDbLine
 10
3192.673057123647
 20
8457.49742454584
 30
0.0
 11
3164.673057123647
 21
8457.49742454584
 31
0.0
  0
LINE
  5
162FF
330
747D
100
AcDbEntity
  8
部品1
100
AcDbLine
 10
7529.67305712367
 20
10137.49742454588
 30
0.0
 11
7529.673057123649
 21
7142.497424545952
 31
0.0
  0
LINE
  5
16300
330
747D
100
AcDbEntity
  8
部品1
100
AcDbLine
 10
7504.673057123674
 20
10137.49742454588
 30
0.0
 11
7504.67305712365
 21
7207.497424545865
 31
0.0
  0
DIMENSION
  5
16301
330
747D
100
AcDbEntity
  8
寸法
 48
50.0
100
AcDbDimension
  2
*D9
 10
7481.673057123647
 20
6608.0666537797
 30
0.0
 11
7370.7101594749
 21
6708.0666537797
 31
0.0
 70
   160
 71
     5
 42
48.00000000000181
  3
INABA_S40G
100
AcDbAlignedDimension
 13
7529.673057123649
 23
7142.497424545952
 33
0.0
 14
7481.673057123647
 24
7168.497424545865
 34
0.0
100
AcDbRotatedDimension
1001
ACAD
1000
DSTYLE
1002
{
1070
   279
1070
     2
1002
}
  0
DIMENSION
  5
16302
330
747D
100
AcDbEntity
  8
寸法
 48
50.0
100
AcDbDimension
  2
*D10
 10
7529.673057123649
 20
6608.066653779701
 30
0.0
 11
7893.158338497887
 21
6608.066653779701
 31
0.0
 70
   160
 71
     5
 42
54.99999999999818
  3
INABA_S40G
100
AcDbAlignedDimension
 13
7584.673057123648
 23
7142.497424545957
 33
0.0
 14
7529.673057123649
 24
7142.497424545952
 34
0.0
100
AcDbRotatedDimension
1001
ACAD
1000
DSTYLE
1002
{
1002
}
  0
LINE
  5
16303
330
747D
100
AcDbEntity
  8
部品1
 48
50.0
100
AcDbLine
 10
7519.673057123647
 20
7168.497424545865
 30
0.0
 11
7529.673057123648
 21
7147.497424545864
 31
0.0
  0
LINE
  5
16304
330
747D
100
AcDbEntity
  8
部品1
100
AcDbLine
 10
7481.673057123647
 20
7207.497424545865
 30
0.0
 11
7529.673057123649
 21
7207.497424545865
 31
0.0
  0
LINE
  5
16305
330
747D
100
AcDbEntity
  8
部品1
100
AcDbLine
 10
7481.673057123647
 20
7168.497424545865
 30
0.0
 11
7529.673057123648
 21
7168.497424545865
 31
0.0
  0
LINE
  5
16306
330
747D
100
AcDbEntity
  8
部品1
 48
50.0
100
AcDbLine
 10
7481.673057123647
 20
7207.497424545865
 30
0.0
 11
7481.673057123647
 21
7198.497424545866
 31
0.0
  0
LINE
  5
16307
330
747D
100
AcDbEntity
  8
部品1
 48
50.0
100
AcDbLine
 10
7481.673057123647
 20
7168.497424545865
 30
0.0
 11
7481.673057123647
 21
7177.497424545865
 31
0.0
  0
LINE
  5
16308
330
747D
100
AcDbEntity
  8
部品1
100
AcDbLine
 10
7529.673057123648
 20
7178.497424545863
 30
0.0
 11
7552.673057123648
 21
7178.497424545864
 31
0.0
  0
LINE
  5
16309
330
747D
100
AcDbEntity
  8
部品1
100
AcDbLine
 10
7529.673057123648
 20
7197.497424545968
 30
0.0
 11
7584.67305712368
 21
7197.497424545968
 31
0.0
  0
LINE
  5
1630A
330
747D
100
AcDbEntity
  8
部品1
100
AcDbLine
 10
7584.673057123648
 20
7142.497424545957
 30
0.0
 11
7529.673057123649
 21
7142.497424545954
 31
0.0
  0
LINE
  5
16317
330
747D
100
AcDbEntity
  8
部品1
100
AcDbLine
 10
7556.673057123678
 20
7617.497424545966
 30
0.0
 11
7584.673057123676
 21
7617.497424545966
 31
0.0
  0
LINE
  5
16319
330
747D
100
AcDbEntity
  8
部品1
100
AcDbLine
 10
7556.673057123678
 20
8037.497424545966
 30
0.0
 11
7584.673057123676
 21
8037.497424545966
 31
0.0
  0
LINE
  5
1631A
330
747D
100
AcDbEntity
  8
部品1
100
AcDbLine
 10
7556.673057123673
 20
8457.497424545968
 30
0.0
 11
7584.673057123673
 21
8457.497424545968
 31
0.0
  0
LINE
  5
1631B
330
747D
100
AcDbEntity
  8
部品1
100
AcDbLine
 10
5429.673057123672
 20
10164.49742454598
 30
0.0
 11
6677.17305712367
 21
10164.49742454598
 31
0.0
  0
LINE
  5
1631C
330
747D
100
AcDbEntity
  8
部品1
100
AcDbLine
 10
5402.673057123672
 20
10164.49742454587
 30
0.0
 11
6059.673057123672
 21
10164.49742454587
 31
0.0
  0
DIMENSION
  5
1631F
330
747D
100
AcDbEntity
  8
寸法
100
AcDbDimension
  2
*D11
 10
7529.673057123673
 20
10408.30564417096
 30
0.0
 11
6479.673057123673
 21
10508.31745519459
 31
0.0
 70
    32
  1
5X420=<>
 71
     5
 42
2100.000000000001
  3
INABA_S40G
100
AcDbAlignedDimension
 13
5429.673057123672
 23
10192.49742454587
 33
0.0
 14
7529.673057123673
 24
10192.49742454596
 34
0.0
100
AcDbRotatedDimension
1001
ACAD
1000
DSTYLE
1002
{
1002
}
  0
DIMENSION
  5
16320
330
747D
100
AcDbEntity
  8
寸法
100
AcDbDimension
  2
*D12
 10
3219.673057123672
 20
10408.30564417085
 30
0.0
 11
2856.187775749399
 21
10408.30564417085
 31
0.0
 70
   160
 71
     5
 42
55.00000000003456
  3
INABA_S40G
100
AcDbAlignedDimension
 13
3164.673057123638
 23
10192.49742454587
 33
0.0
 14
3219.673057123672
 24
10192.49742454587
 34
0.0
100
AcDbRotatedDimension
1001
ACAD
1000
DSTYLE
1002
{
1002
}
  0
LINE
  5
16321
330
747D
100
AcDbEntity
  8
部品1
100
AcDbLine
 10
3219.673057123638
 20
10192.49742454583
 30
0.0
 11
3219.673057123639
 21
10164.49742454583
 31
0.0
  0
LINE
  5
16322
330
747D
100
AcDbEntity
  8
部品1
100
AcDbLine
 10
3219.673057123672
 20
10192.49742454587
 30
0.0
 11
3219.673057123672
 21
10164.49742454587
 31
0.0
  0
LINE
  5
16323
330
747D
100
AcDbEntity
  8
部品1
100
AcDbLine
 10
3192.67305712364
 20
10137.49742454584
 30
0.0
 11
3164.67305712364
 21
10137.49742454584
 31
0.0
  0
LINE
  5
16324
330
747D
100
AcDbEntity
  8
部品1
100
AcDbLine
 10
5849.673057123673
 20
10192.49742454598
 30
0.0
 11
5849.673057123673
 21
10164.49742454598
 31
0.0
  0
LINE
  5
16325
330
747D
100
AcDbEntity
  8
部品1
100
AcDbLine
 10
5849.673057123673
 20
10192.49742454587
 30
0.0
 11
5849.673057123673
 21
10164.49742454587
 31
0.0
  0
LINE
  5
16326
330
747D
100
AcDbEntity
  8
部品1
100
AcDbLine
 10
5849.673057123673
 20
10192.49742454587
 30
0.0
 11
5849.673057123673
 21
10164.49742454587
 31
0.0
  0
LINE
  5
16327
330
747D
100
AcDbEntity
  8
部品1
100
AcDbLine
 10
6702.173057123672
 20
10164.49742454598
 30
0.0
 11
7556.673057123673
 21
10164.49742454596
 31
0.0
  0
LINE
  5
16329
330
747D
100
AcDbEntity
  8
部品1
100
AcDbLine
 10
6269.673057123672
 20
10192.49742454598
 30
0.0
 11
6269.673057123672
 21
10164.49742454598
 31
0.0
  0
LINE
  5
1632A
330
747D
100
AcDbEntity
  8
部品1
100
AcDbLine
 10
6269.673057123672
 20
10192.49742454587
 30
0.0
 11
6269.673057123672
 21
10164.49742454587
 31
0.0
  0
LINE
  5
1632B
330
747D
100
AcDbEntity
  8
部品1
100
AcDbLine
 10
6269.673057123672
 20
10192.49742454587
 30
0.0
 11
6269.673057123672
 21
10164.49742454587
 31
0.0
  0
LINE
  5
1632C
330
747D
100
AcDbEntity
  8
部品1
100
AcDbLine
 10
6689.673057123671
 20
10192.49742454598
 30
0.0
 11
6689.673057123671
 21
10164.49742454598
 31
0.0
  0
LINE
  5
1632D
330
747D
100
AcDbEntity
  8
部品1
100
AcDbLine
 10
6677.173057123671
 20
10156.49742454596
 30
0.0
 11
6702.173057123672
 21
10156.49742454597
 31
0.0
  0
LINE
  5
1632E
330
747D
100
AcDbEntity
  8
部品1
100
AcDbLine
 10
6718.673057123672
 20
10182.49742454597
 30
0.0
 11
6724.673057123673
 21
10182.49742454597
 31
0.0
  0
LINE
  5
1632F
330
747D
100
AcDbEntity
  8
部品1
100
AcDbLine
 10
6724.673057123673
 20
10182.49742454597
 30
0.0
 11
6724.673057123673
 21
10164.49742454597
 31
0.0
  0
LINE
  5
16330
330
747D
100
AcDbEntity
  8
部品1
100
AcDbLine
 10
6654.673057123672
 20
10182.49742454597
 30
0.0
 11
6660.673057123672
 21
10182.49742454597
 31
0.0
  0
LINE
  5
16331
330
747D
100
AcDbEntity
  8
部品1
100
AcDbLine
 10
6654.673057123672
 20
10182.49742454597
 30
0.0
 11
6654.673057123672
 21
10164.49742454597
 31
0.0
  0
DIMENSION
  5
16333
330
747D
100
AcDbEntity
  8
寸法
100
AcDbDimension
  2
*D13
 10
7584.673057123673
 20
10408.30564417095
 30
0.0
 11
7893.158338497912
 21
10408.30564417095
 31
0.0
 70
   160
 71
     5
 42
55.0
  3
INABA_S40G
100
AcDbAlignedDimension
 13
7529.673057123673
 23
10192.49742454596
 33
0.0
 14
7584.673057123673
 24
10192.49742454596
 34
0.0
100
AcDbRotatedDimension
1001
ACAD
1000
DSTYLE
1002
{
1002
}
  0
LINE
  5
16334
330
747D
100
AcDbEntity
  8
部品1
100
AcDbLine
 10
7109.673057123671
 20
10192.49742454598
 30
0.0
 11
7109.673057123671
 21
10164.49742454598
 31
0.0
  0
LINE
  5
16335
330
747D
100
AcDbEntity
  8
部品1
100
AcDbLine
 10
7529.673057123673
 20
10192.49742454596
 30
0.0
 11
7529.673057123673
 21
10164.49742454596
 31
0.0
  0
LINE
  5
16336
330
747D
100
AcDbEntity
  8
部品1
100
AcDbLine
 10
7529.673057123673
 20
10192.49742454598
 30
0.0
 11
7529.673057123673
 21
10164.49742454598
 31
0.0
  0
LINE
  5
16337
330
747D
100
AcDbEntity
  8
部品1
100
AcDbLine
 10
7556.673057123673
 20
10137.49742454596
 30
0.0
 11
7584.673057123673
 21
10137.49742454596
 31
0.0
  0
DIMENSION
  5
1659A
330
747D
100
AcDbEntity
  8
寸法
 48
50.0
100
AcDbDimension
  2
*D15
 10
5271.673057123647
 20
6608.0666537797
 30
0.0
 11
5160.7101594749
 21
6708.0666537797
 31
0.0
 70
   160
 71
     5
 42
48.00000000000181
  3
INABA_S40G
100
AcDbAlignedDimension
 13
5319.673057123649
 23
7142.497424545952
 33
0.0
 14
5271.673057123647
 24
7168.497424545865
 34
0.0
100
AcDbRotatedDimension
1001
ACAD
1000
DSTYLE
1002
{
1070
   279
1070
     2
1002
}
  0
DIMENSION
  5
1659C
330
747D
100
AcDbEntity
  8
寸法
 48
50.0
100
AcDbDimension
  2
*D14
 10
3219.673057123662
 20
6608.0666537797
 30
0.0
 11
3380.575028123723
 21
6708.0666537797
 31
0.0
 70
   160
 71
     5
 42
48.00000000000363
  3
INABA_S40G
100
AcDbAlignedDimension
 13
3267.673057123666
 23
7168.497424545865
 33
0.0
 14
3219.673057123662
 24
7142.497424545864
 34
0.0
100
AcDbRotatedDimension
1001
ACAD
1000
DSTYLE
1002
{
1070
   279
1070
     2
1002
}
  0
DIMENSION
  5
165E9
330
747D
100
AcDbEntity
  8
寸法
 48
50.0
100
AcDbDimension
  2
*D16
 10
5319.673057123649
 20
6608.066653779701
 30
0.0
 11
5374.673057123656
 21
6456.37475874347
 31
0.0
 70
   160
 71
     5
 42
110.0000000000127
  3
INABA_S40G
100
AcDbAlignedDimension
 13
5429.673057123662
 23
7142.497424545864
 33
0.0
 14
5319.673057123649
 24
7142.497424545952
 34
0.0
100
AcDbRotatedDimension
1001
ACAD
1000
DSTYLE
1002
{
1070
   279
1070
     2
1002
}
  0
LINE
  5
16656
330
747D
100
AcDbEntity
  8
部品1
100
AcDbLine
 10
5271.673057123647
 20
7207.497424545865
 30
0.0
 11
5319.673057123649
 21
7207.497424545865
 31
0.0
  0
LINE
  5
16657
330
747D
100
AcDbEntity
  8
部品1
 48
50.0
100
AcDbLine
 10
5271.673057123647
 20
7207.497424545865
 30
0.0
 11
5271.673057123647
 21
7198.497424545866
 31
0.0
  0
LINE
  5
16658
330
747D
100
AcDbEntity
  8
部品1
100
AcDbLine
 10
5271.673057123647
 20
7168.497424545865
 30
0.0
 11
5319.673057123647
 21
7168.497424545865
 31
0.0
  0
LINE
  5
16659
330
747D
100
AcDbEntity
  8
部品1
 48
50.0
100
AcDbLine
 10
5271.673057123647
 20
7168.497424545865
 30
0.0
 11
5271.673057123647
 21
7177.497424545865
 31
0.0
  0
LINE
  5
1665A
330
747D
100
AcDbEntity
  8
部品1
 48
50.0
100
AcDbLine
 10
5309.673057123648
 20
7168.497424545865
 30
0.0
 11
5319.673057123647
 21
7147.497424545864
 31
0.0
  0
LINE
  5
1665B
330
747D
100
AcDbEntity
  8
部品1
100
AcDbLine
 10
5319.673057123647
 20
7178.497424545863
 30
0.0
 11
5342.673057123647
 21
7178.497424545864
 31
0.0
  0
LINE
  5
1665C
330
747D
100
AcDbEntity
  8
部品1
100
AcDbLine
 10
5477.673057123666
 20
7207.497424545865
 30
0.0
 11
5429.673057123665
 21
7207.497424545865
 31
0.0
  0
LINE
  5
1665D
330
747D
100
AcDbEntity
  8
部品1
 48
50.0
100
AcDbLine
 10
5477.673057123666
 20
7207.497424545865
 30
0.0
 11
5477.673057123666
 21
7198.497424545866
 31
0.0
  0
LINE
  5
1665E
330
747D
100
AcDbEntity
  8
部品1
100
AcDbLine
 10
5477.673057123666
 20
7168.497424545865
 30
0.0
 11
5429.673057123665
 21
7168.497424545865
 31
0.0
  0
LINE
  5
1665F
330
747D
100
AcDbEntity
  8
部品1
 48
50.0
100
AcDbLine
 10
5439.673057123666
 20
7168.497424545865
 30
0.0
 11
5429.673057123665
 21
7147.497424545864
 31
0.0
  0
LINE
  5
16660
330
747D
100
AcDbEntity
  8
部品1
100
AcDbLine
 10
5429.673057123665
 20
7178.497424545864
 30
0.0
 11
5406.673057123666
 21
7178.497424545864
 31
0.0
  0
LINE
  5
16661
330
747D
100
AcDbEntity
  8
部品1
 48
50.0
100
AcDbLine
 10
5429.673057123665
 20
7207.497424545863
 30
0.0
 11
5429.673057123662
 21
7142.497424545864
 31
0.0
  0
LINE
  5
16662
330
747D
100
AcDbEntity
  8
部品1
 48
50.0
100
AcDbLine
 10
5477.673057123666
 20
7168.497424545865
 30
0.0
 11
5477.673057123666
 21
7177.497424545865
 31
0.0
  0
LINE
  5
16663
330
747D
100
AcDbEntity
  8
部品1
100
AcDbLine
 10
5429.673057123661
 20
7142.497424545864
 30
0.0
 11
5319.673057123651
 21
7142.497424545858
 31
0.0
  0
LINE
  5
16664
330
747D
100
AcDbEntity
  8
部品1
 48
50.0
100
AcDbLine
 10
5319.673057123655
 20
7207.497424545952
 30
0.0
 11
5319.673057123651
 21
7142.497424545952
 31
0.0
  0
LINE
  5
16666
330
747D
100
AcDbEntity
  8
部品1
100
AcDbLine
 10
5429.673057123672
 20
10192.49742454587
 30
0.0
 11
5429.673057123672
 21
10164.49742454587
 31
0.0
  0
LINE
  5
16692
330
747D
100
AcDbEntity
  8
部品1
100
AcDbLine
 10
5319.673057123673
 20
10192.49742454596
 30
0.0
 11
5319.673057123673
 21
10164.49742454596
 31
0.0
  0
DIMENSION
  5
166DD
330
747D
100
AcDbEntity
  8
寸法
 48
50.0
100
AcDbDimension
  2
*D17
 10
5319.673057123673
 20
10408.30564417096
 30
0.0
 11
5374.673057123673
 21
10508.30564417096
 31
0.0
 70
    32
 71
     5
 42
109.9999999999991
  3
INABA_S40G
100
AcDbAlignedDimension
 13
5429.673057123672
 23
10192.49742454592
 33
0.0
 14
5319.673057123673
 24
10192.49742454591
 34
0.0
100
AcDbRotatedDimension
1001
ACAD
1000
DSTYLE
1002
{
1070
   279
1070
     2
1002
}
  0
LINE
  5
16760
330
747D
100
AcDbEntity
  8
部品1
 48
50.0
100
AcDbLine
 10
5374.673057123638
 20
10164.49742454591
 30
0.0
 11
5346.67305712364
 21
10192.49742454596
 31
0.0
  0
LINE
  5
16761
330
747D
100
AcDbEntity
  8
部品1
100
AcDbLine
 10
7529.673057123668
 20
10137.49742454588
 30
0.0
 11
5429.673057123652
 21
10137.49742454588
 31
0.0
  0
LINE
  5
16762
330
747D
100
AcDbEntity
  8
部品1
 48
50.0
100
AcDbLine
 10
5346.67305712364
 20
10164.49742454601
 30
0.0
 11
5346.67305712364
 21
10192.49742454596
 31
0.0
  0
LINE
  5
16763
330
747D
100
AcDbEntity
  8
部品1
 48
50.0
100
AcDbLine
 10
5346.67305712364
 20
10164.49742454591
 30
0.0
 11
5374.673057123638
 21
10164.49742454591
 31
0.0
  0
LINE
  5
168C3
330
747D
100
AcDbEntity
  8
部品1
100
AcDbLine
 10
5398.673057123657
 20
7197.497424545861
 30
0.0
 11
5350.673057123656
 21
7197.49742454586
 31
0.0
  0
LINE
  5
168C4
330
747D
100
AcDbEntity
  8
部品1
 48
50.0
100
AcDbLine
 10
5350.673057123657
 20
7197.497424545861
 30
0.0
 11
5350.67305712366
 21
7142.497424545862
 31
0.0
  0
LINE
  5
168C5
330
747D
100
AcDbEntity
  8
部品1
 48
50.0
100
AcDbLine
 10
5398.673057123657
 20
7197.497424545861
 30
0.0
 11
5398.673057123659
 21
7142.497424545862
 31
0.0
  0
DIMENSION
  5
16913
330
747D
100
AcDbEntity
  8
寸法
 48
50.0
100
AcDbDimension
  2
*D18
 10
7584.673057123673
 20
10657.62711772726
 30
0.0
 11
6479.673057123673
 21
10757.63892875088
 31
0.0
 70
    32
 71
     5
 42
2210.0
  3
INABA_S40G
100
AcDbAlignedDimension
 13
5374.673057123673
 23
10567.29355852891
 33
0.0
 14
7584.673057123673
 24
10192.49742454596
 34
0.0
100
AcDbRotatedDimension
1001
ACAD
1000
DSTYLE
1002
{
1070
    75
1070
     1
1070
   279
1070
     2
1002
}
  0
LINE
  5
172BC
330
747D
100
AcDbEntity
  8
部品1
 48
50.0
100
AcDbLine
 10
5402.67305712364
 20
10137.49742454588
 30
0.0
 11
5402.673057123706
 21
10192.49742454591
 31
0.0
  0
LINE
  5
172BD
330
747D
100
AcDbEntity
  8
部品1
 48
50.0
100
AcDbLine
 10
5346.67305712364
 20
10137.49742454588
 30
0.0
 11
5346.67305712364
 21
10164.49742454591
 31
0.0
  0
LINE
  5
174C8
330
747D
100
AcDbEntity
  8
部品1
 48
50.0
100
AcDbLine
 10
7504.673057123674
 20
10112.49742454584
 30
0.0
 11
5454.673057123626
 21
10112.49742454581
 31
0.0
  0
LINE
  5
174C9
330
747D
100
AcDbEntity
  8
部品1
 48
50.0
100
AcDbLine
 10
7556.673057123673
 20
10164.49742454596
 30
0.0
 11
7529.673057123668
 21
10137.49742454588
 31
0.0
  0
LINE
  5
174CA
330
747D
100
AcDbEntity
  8
部品1
 48
50.0
100
AcDbLine
 10
3219.673057123643
 20
10137.49742454588
 30
0.0
 11
3192.673057123659
 21
10164.49742454598
 31
0.0
  0
LINE
  5
174CB
330
747D
100
AcDbEntity
  8
部品1
 48
50.0
100
AcDbLine
 10
6677.173057123671
 20
10156.49742454596
 30
0.0
 11
6677.173057123671
 21
10164.49742454598
 31
0.0
  0
LINE
  5
174CC
330
747D
100
AcDbEntity
  8
部品1
 48
50.0
100
AcDbLine
 10
6702.173057123672
 20
10156.49742454597
 30
0.0
 11
6702.173057123672
 21
10164.49742454598
 31
0.0
  0
DIMENSION
  5
17B86
330
747D
100
AcDbEntity
  8
寸法
 48
50.0
100
AcDbDimension
  2
*D21
 10
5374.673057123673
 20
10657.62711772726
 30
0.0
 11
4269.673057123655
 21
10757.63892875088
 31
0.0
 70
    32
 71
     5
 42
2210.000000000036
  3
INABA_S40G
100
AcDbAlignedDimension
 13
3164.673057123638
 23
10192.49742454583
 33
0.0
 14
5374.673057123673
 24
10567.29355852891
 34
0.0
100
AcDbRotatedDimension
1001
ACAD
1000
DSTYLE
1002
{
1070
   279
1070
     2
1002
}
  0
DIMENSION
  5
17B87
330
747D
100
AcDbEntity
  8
寸法
100
AcDbDimension
  2
*D20
 10
5319.673057123673
 20
10408.30564417096
 30
0.0
 11
4269.673057123673
 21
10508.31745519459
 31
0.0
 70
    32
  1
5X420=<>
 71
     5
 42
2100.000000000001
  3
INABA_S40G
100
AcDbAlignedDimension
 13
3219.673057123672
 23
10192.49742454587
 33
0.0
 14
5319.673057123673
 24
10192.49742454596
 34
0.0
100
AcDbRotatedDimension
1001
ACAD
1000
DSTYLE
1002
{
1002
}
  0
LINE
  5
17B8B
330
747D
100
AcDbEntity
  8
部品1
 48
50.0
100
AcDbLine
 10
5294.673057123643
 20
10112.49742454579
 30
0.0
 11
3244.673057123643
 21
10112.49742454579
 31
0.0
  0
LINE
  5
17B98
330
747D
100
AcDbEntity
  8
部品1
 48
50.0
100
AcDbLine
 10
4492.173057123672
 20
10156.49742454597
 30
0.0
 11
4492.173057123672
 21
10164.49742454598
 31
0.0
  0
LINE
  5
17B99
330
747D
100
AcDbEntity
  8
部品1
 48
50.0
100
AcDbLine
 10
4467.173057123672
 20
10156.49742454596
 30
0.0
 11
4467.173057123672
 21
10164.49742454598
 31
0.0
  0
LINE
  5
17BA3
330
747D
100
AcDbEntity
  8
部品1
100
AcDbLine
 10
4899.673057123671
 20
10192.49742454598
 30
0.0
 11
4899.673057123671
 21
10164.49742454598
 31
0.0
  0
LINE
  5
17BA4
330
747D
100
AcDbEntity
  8
部品1
100
AcDbLine
 10
4059.673057123672
 20
10192.49742454587
 30
0.0
 11
4059.673057123672
 21
10164.49742454587
 31
0.0
  0
LINE
  5
17BA5
330
747D
100
AcDbEntity
  8
部品1
100
AcDbLine
 10
4059.673057123672
 20
10192.49742454587
 30
0.0
 11
4059.673057123672
 21
10164.49742454587
 31
0.0
  0
LINE
  5
17BA6
330
747D
100
AcDbEntity
  8
部品1
100
AcDbLine
 10
4059.673057123672
 20
10192.49742454598
 30
0.0
 11
4059.673057123672
 21
10164.49742454598
 31
0.0
  0
LINE
  5
17BA7
330
747D
100
AcDbEntity
  8
部品1
100
AcDbLine
 10
3639.673057123673
 20
10192.49742454587
 30
0.0
 11
3639.673057123673
 21
10164.49742454587
 31
0.0
  0
LINE
  5
17BA8
330
747D
100
AcDbEntity
  8
部品1
100
AcDbLine
 10
3639.673057123673
 20
10192.49742454587
 30
0.0
 11
3639.673057123673
 21
10164.49742454587
 31
0.0
  0
LINE
  5
17BA9
330
747D
100
AcDbEntity
  8
部品1
100
AcDbLine
 10
3639.673057123673
 20
10192.49742454598
 30
0.0
 11
3639.673057123673
 21
10164.49742454598
 31
0.0
  0
LINE
  5
17BAA
330
747D
100
AcDbEntity
  8
部品1
100
AcDbLine
 10
3192.673057123659
 20
10164.49742454598
 30
0.0
 11
4467.17305712367
 21
10164.49742454598
 31
0.0
  0
LINE
  5
17BAB
330
747D
100
AcDbEntity
  8
部品1
100
AcDbLine
 10
4492.173057123672
 20
10164.49742454598
 30
0.0
 11
5346.673057123673
 21
10164.49742454596
 31
0.0
  0
LINE
  5
17BAC
330
747D
100
AcDbEntity
  8
部品1
100
AcDbLine
 10
4444.673057123671
 20
10182.49742454597
 30
0.0
 11
4444.673057123671
 21
10164.49742454597
 31
0.0
  0
LINE
  5
17BAD
330
747D
100
AcDbEntity
  8
部品1
100
AcDbLine
 10
4444.673057123671
 20
10182.49742454597
 30
0.0
 11
4450.673057123672
 21
10182.49742454597
 31
0.0
  0
LINE
  5
17BAE
330
747D
100
AcDbEntity
  8
部品1
100
AcDbLine
 10
4514.673057123672
 20
10182.49742454597
 30
0.0
 11
4514.673057123672
 21
10164.49742454597
 31
0.0
  0
LINE
  5
17BAF
330
747D
100
AcDbEntity
  8
部品1
100
AcDbLine
 10
4508.673057123671
 20
10182.49742454597
 30
0.0
 11
4514.673057123672
 21
10182.49742454597
 31
0.0
  0
LINE
  5
17BB0
330
747D
100
AcDbEntity
  8
部品1
100
AcDbLine
 10
4467.173057123672
 20
10156.49742454596
 30
0.0
 11
4492.173057123672
 21
10156.49742454597
 31
0.0
  0
LINE
  5
17BB1
330
747D
100
AcDbEntity
  8
部品1
100
AcDbLine
 10
4479.673057123672
 20
10192.49742454598
 30
0.0
 11
4479.673057123672
 21
10164.49742454598
 31
0.0
  0
LINE
  5
17BC2
330
747D
100
AcDbEntity
  8
部品1
 48
50.0
100
AcDbLine
 10
3231.673057123665
 20
7187.997424545864
 30
0.0
 11
5307.67305712365
 21
7187.997424545864
 31
0.0
  0
DIMENSION
  5
17BC3
330
747D
100
AcDbEntity
  8
寸法
 48
50.0
100
AcDbDimension
  2
*D19
 10
3267.673057123666
 20
6608.0666537797
 30
0.0
 11
4269.673057123656
 21
6708.078464803323
 31
0.0
 70
    32
  1
有効開口部間口 <>
 71
     5
 42
2003.999999999982
  3
INABA_S40G
100
AcDbAlignedDimension
 13
5271.673057123647
 23
7168.497424545865
 33
0.0
 14
3267.673057123666
 24
7168.497424545865
 34
0.0
100
AcDbRotatedDimension
1001
ACAD
1000
DSTYLE
1002
{
1070
    75
1070
     1
1070
   279
1070
     2
1002
}
  0
LINE
  5
17D0F
330
747D
100
AcDbEntity
  8
部品1
100
AcDbLine
 10
7556.673057123664
 20
9717.497424545959
 30
0.0
 11
7584.673057123665
 21
9717.497424545959
 31
0.0
  0
LINE
  5
17D10
330
747D
100
AcDbEntity
  8
部品1
100
AcDbLine
 10
7556.673057123667
 20
8877.497424545957
 30
0.0
 11
7584.673057123668
 21
8877.497424545957
 31
0.0
  0
LINE
  5
17D11
330
747D
100
AcDbEntity
  8
部品1
100
AcDbLine
 10
3192.673057123638
 20
9717.497424545832
 30
0.0
 11
3164.673057123638
 21
9717.497424545832
 31
0.0
  0
LINE
  5
17D12
330
747D
100
AcDbEntity
  8
部品1
100
AcDbLine
 10
3192.673057123643
 20
8877.497424545831
 30
0.0
 11
3164.673057123643
 21
8877.497424545831
 31
0.0
  0
LINE
  5
18100
330
747D
100
AcDbEntity
  8
Ｇ．Ｌ
100
AcDbLine
 10
1843.189888742636
 20
2102.35920419623
 30
0.0
 11
13968.86013082621
 21
2102.359204196229
 31
0.0
  0
LINE
  5
18105
330
747D
100
AcDbEntity
  8
部品1
100
AcDbLine
 10
3164.673057123638
 20
10192.49742454591
 30
0.0
 11
7584.673057123673
 21
10192.49742454596
 31
0.0
  0
LINE
  5
18106
330
747D
100
AcDbEntity
  8
寸法
 48
50.0
100
AcDbLine
 10
5374.563357233144
 20
10584.76985551187
 30
0.0
 11
5374.563357233144
 21
10723.92098311983
 31
0.0
  0
LINE
  5
18161
330
747D
100
AcDbEntity
  8
部品1
100
AcDbLine
 10
5374.673057123658
 20
10137.49742454583
 30
0.0
 11
5374.673057123631
 21
7197.497424545807
 31
0.0
  0
LINE
  5
18162
330
747D
100
AcDbEntity
  8
部品1
100
AcDbLine
 10
5402.673057123618
 20
7142.497424545813
 30
0.0
 11
5402.673057123642
 21
10192.49742454586
 31
0.0
  0
LINE
  5
18163
330
747D
100
AcDbEntity
  8
部品1
 48
10.0
100
AcDbLine
 10
5454.673057123673
 20
7207.497424545812
 30
0.0
 11
5454.673057123626
 21
10137.49742454583
 31
0.0
  0
LINE
  5
18164
330
747D
100
AcDbEntity
  8
部品1
100
AcDbLine
 10
5429.673057123679
 20
7207.497424545812
 30
0.0
 11
5429.673057123651
 21
10137.49742454581
 31
0.0
  0
LINE
  5
18165
330
747D
100
AcDbEntity
  8
部品1
100
AcDbLine
 10
5346.67305712364
 20
10164.49742454591
 30
0.0
 11
5346.673057123624
 21
7142.497424545807
 31
0.0
  0
LINE
  5
18166
330
747D
100
AcDbEntity
  8
部品1
 48
10.0
100
AcDbLine
 10
5294.673057123667
 20
7207.497424545812
 30
0.0
 11
5294.673057123642
 21
10137.49742454581
 31
0.0
  0
LINE
  5
18167
330
747D
100
AcDbEntity
  8
部品1
100
AcDbLine
 10
5319.673057123658
 20
7207.497424545812
 30
0.0
 11
5319.673057123651
 21
10137.49742454581
 31
0.0
  0
LINE
  5
18168
330
747D
100
AcDbEntity
  8
部品1
100
AcDbLine
 10
5346.67305712366
 20
8457.497424545914
 30
0.0
 11
5374.67305712366
 21
8457.497424545914
 31
0.0
  0
LINE
  5
18169
330
747D
100
AcDbEntity
  8
部品1
100
AcDbLine
 10
5346.67305712366
 20
8877.497424545914
 30
0.0
 11
5374.67305712366
 21
8877.497424545914
 31
0.0
  0
LINE
  5
1816A
330
747D
100
AcDbEntity
  8
部品1
100
AcDbLine
 10
5346.67305712366
 20
9717.497424545914
 30
0.0
 11
5374.67305712366
 21
9717.497424545914
 31
0.0
  0
LINE
  5
1816B
330
747D
100
AcDbEntity
  8
部品1
 48
50.0
100
AcDbLine
 10
5402.673057123693
 20
10164.49742454572
 30
0.0
 11
5429.673057123682
 21
10137.49742454573
 31
0.0
  0
LINE
  5
1816C
330
747D
100
AcDbEntity
  8
部品1
 48
50.0
100
AcDbLine
 10
5346.673057123708
 20
10164.49742454581
 30
0.0
 11
5319.673057123704
 21
10137.49742454581
 31
0.0
  0
LINE
  5
1816F
330
747D
100
AcDbEntity
  8
部品1
100
AcDbLine
 10
5319.673057123651
 20
10137.49742454588
 30
0.0
 11
3219.673057123643
 21
10137.49742454588
 31
0.0
  0
LINE
  5
18170
330
747D
100
AcDbEntity
  8
部品1
100
AcDbLine
 10
5402.673057123641
 20
10137.49742454588
 30
0.0
 11
5346.67305712364
 21
10137.49742454588
 31
0.0
  0
LINE
  5
18171
330
747D
100
AcDbEntity
  8
部品1
100
AcDbLine
 10
5346.673057123666
 20
8037.497424545914
 30
0.0
 11
5374.673057123667
 21
8037.497424545914
 31
0.0
  0
LINE
  5
18172
330
747D
100
AcDbEntity
  8
部品1
100
AcDbLine
 10
5346.673057123666
 20
7617.497424545914
 30
0.0
 11
5374.673057123667
 21
7617.497424545914
 31
0.0
  0
LINE
  5
181F6
330
747D
100
AcDbEntity
  8
部品1
100
AcDbLine
 10
7556.673057123667
 20
9297.497424545957
 30
0.0
 11
7584.673057123668
 21
9297.497424545957
 31
0.0
  0
LINE
  5
181F7
330
747D
100
AcDbEntity
  8
部品1
100
AcDbLine
 10
5346.67305712366
 20
9297.497424545914
 30
0.0
 11
5374.67305712366
 21
9297.497424545914
 31
0.0
  0
LINE
  5
181F9
330
747D
100
AcDbEntity
  8
部品1
100
AcDbLine
 10
3192.673057123643
 20
9297.497424545831
 30
0.0
 11
3164.673057123643
 21
9297.497424545831
 31
0.0
  0
TEXT
  5
1875B
330
747D
100
AcDbEntity
  8
文字
 62
     7
 48
50.0
100
AcDbText
 10
15022.63965474516
 20
9910.013745883727
 30
0.0
 40
100.0
  1
F12,Y10      1.2+1.6
  7
STYLE1
100
AcDbText
  0
TEXT
  5
1875C
330
747D
100
AcDbEntity
  8
文字
 62
     7
 48
50.0
100
AcDbText
 10
13583.11819016569
 20
9910.01374588373
 30
0.0
 40
100.0
  1
梁中
  7
STYLE1
100
AcDbText
  0
TEXT
  5
1875D
330
747D
100
AcDbEntity
  8
文字
 62
     7
 48
50.0
100
AcDbText
 10
13248.77747366448
 20
8720.013745883731
 30
0.0
 40
100.0
  1
14
  7
STYLE1
100
AcDbText
  0
LINE
  5
1875E
330
747D
100
AcDbEntity
  8
仕様書枠
 48
50.0
100
AcDbLine
 10
16307.19999999999
 20
9879.599999999999
 30
0.0
 11
13127.2
 21
9879.600000000001
 31
0.0
  0
LINE
  5
1875F
330
747D
100
AcDbEntity
  8
仕様書枠
 48
50.0
100
AcDbLine
 10
16307.19999999999
 20
11239.6
 30
0.0
 11
13127.2
 21
11239.6
 31
0.0
  0
LINE
  5
18760
330
747D
100
AcDbEntity
  8
仕様書枠
 48
50.0
100
AcDbLine
 10
16307.2
 20
8179.6
 30
0.0
 11
16307.2
 21
11239.6
 31
0.0
  0
LINE
  5
18761
330
747D
100
AcDbEntity
  8
仕様書枠
 48
50.0
100
AcDbLine
 10
14785.2
 20
11239.59999999999
 30
0.0
 11
14785.2
 21
8689.600000000003
 31
0.0
  0
LINE
  5
18762
330
747D
100
AcDbEntity
  8
仕様書枠
 48
50.0
100
AcDbLine
 10
13490.2
 20
11239.6
 30
0.0
 11
13490.20000000001
 21
8689.600000000003
 31
0.0
  0
LINE
  5
18763
330
747D
100
AcDbEntity
  8
仕様書枠
 48
50.0
100
AcDbLine
 10
16307.19999999999
 20
11069.6
 30
0.0
 11
13127.2
 21
11069.6
 31
0.0
  0
LINE
  5
18764
330
747D
100
AcDbEntity
  8
仕様書枠
 48
50.0
100
AcDbLine
 10
16307.19999999999
 20
10729.6
 30
0.0
 11
13127.2
 21
10729.6
 31
0.0
  0
LINE
  5
18765
330
747D
100
AcDbEntity
  8
仕様書枠
 48
50.0
100
AcDbLine
 10
16307.19999999999
 20
10899.6
 30
0.0
 11
13127.2
 21
10899.6
 31
0.0
  0
LINE
  5
18766
330
747D
100
AcDbEntity
  8
仕様書枠
 48
50.0
100
AcDbLine
 10
16307.19999999999
 20
10389.6
 30
0.0
 11
13127.19999999999
 21
10389.6
 31
0.0
  0
LINE
  5
18767
330
747D
100
AcDbEntity
  8
仕様書枠
 48
50.0
100
AcDbLine
 10
16307.19999999999
 20
10219.6
 30
0.0
 11
13127.19999999999
 21
10219.6
 31
0.0
  0
LINE
  5
18768
330
747D
100
AcDbEntity
  8
仕様書枠
 48
50.0
100
AcDbLine
 10
16307.19999999999
 20
10559.6
 30
0.0
 11
13127.19999999999
 21
10559.6
 31
0.0
  0
TEXT
  5
18769
330
747D
100
AcDbEntity
  8
文字
 62
     7
 48
50.0
100
AcDbText
 10
13197.42518560407
 20
11100.01374588373
 30
0.0
 40
100.0
  1
品番
  7
STYLE1
100
AcDbText
  0
TEXT
  5
1876A
330
747D
100
AcDbEntity
  8
文字
 62
     7
 48
50.0
100
AcDbText
 10
13271.19032244792
 20
10930.01374588373
 30
0.0
 40
100.0
  1
1
  7
STYLE1
100
AcDbText
  0
TEXT
  5
1876B
330
747D
100
AcDbEntity
  8
文字
 62
     7
 48
50.0
100
AcDbText
 10
13271.19032244792
 20
10760.01374588373
 30
0.0
 40
100.0
  1
2
  7
STYLE1
100
AcDbText
  0
TEXT
  5
1876C
330
747D
100
AcDbEntity
  8
文字
 62
     7
 48
50.0
100
AcDbText
 10
13271.19032244792
 20
10420.01374588373
 30
0.0
 40
100.0
  1
4
  7
STYLE1
100
AcDbText
  0
TEXT
  5
1876D
330
747D
100
AcDbEntity
  8
文字
 62
     7
 48
50.0
100
AcDbText
 10
13271.19032244792
 20
10590.01374588373
 30
0.0
 40
100.0
  1
3
  7
STYLE1
100
AcDbText
  0
TEXT
  5
1876E
330
747D
100
AcDbEntity
  8
文字
 62
     7
 48
50.0
100
AcDbText
 10
13732.03840939434
 20
11100.01374588373
 30
0.0
 40
100.0
  1
部　　品　　名
  7
STYLE1
100
AcDbText
  0
TEXT
  5
1876F
330
747D
100
AcDbEntity
  8
文字
 62
     7
 48
50.0
100
AcDbText
 10
14859.79774614482
 20
11100.01374588373
 30
0.0
 40
100.0
  1
材料（材質）　　単位mm
  7
STYLE1
100
AcDbText
  0
TEXT
  5
18770
330
747D
100
AcDbEntity
  8
文字
 62
     7
 48
50.0
100
AcDbText
 10
13583.11819016569
 20
10930.01374588372
 30
0.0
 40
100.0
  1
土台枠
  7
STYLE1
100
AcDbText
  0
TEXT
  5
18771
330
747D
100
AcDbEntity
  8
文字
 62
     7
 48
50.0
100
AcDbText
 10
13583.11819016569
 20
10760.01374588372
 30
0.0
 40
100.0
  1
柱
  7
STYLE1
100
AcDbText
  0
TEXT
  5
18772
330
747D
100
AcDbEntity
  8
文字
 62
     7
 48
50.0
100
AcDbText
 10
13583.11819016569
 20
10590.01374588373
 30
0.0
 40
100.0
  1
桁前
  7
STYLE1
100
AcDbText
  0
TEXT
  5
18773
330
747D
100
AcDbEntity
  8
文字
 62
     7
 48
50.0
100
AcDbText
 10
13583.11819016569
 20
10420.01374588373
 30
0.0
 40
100.0
  1
桁後
  7
STYLE1
100
AcDbText
  0
TEXT
  5
18774
330
747D
100
AcDbEntity
  8
文字
 62
     7
 48
50.0
100
AcDbText
 10
13271.19032244792
 20
10250.01374588373
 30
0.0
 40
100.0
  1
5
  7
STYLE1
100
AcDbText
  0
TEXT
  5
18775
330
747D
100
AcDbEntity
  8
文字
 62
     7
 48
50.0
100
AcDbText
 10
13583.11819016569
 20
10250.01374588373
 30
0.0
 40
100.0
  1
妻板左右
  7
STYLE1
100
AcDbText
  0
TEXT
  5
18776
330
747D
100
AcDbEntity
  8
文字
 62
     7
 48
50.0
100
AcDbText
 10
13583.11819016569
 20
8890.013745883727
 30
0.0
 40
100.0
  1
シャッターレール
  7
STYLE1
100
AcDbText
  0
TEXT
  5
18777
330
747D
100
AcDbEntity
  8
文字
 62
     7
 48
50.0
100
AcDbText
 10
13248.77747366448
 20
9400.013745883727
 30
0.0
 40
100.0
  1
10
  7
STYLE1
100
AcDbText
  0
TEXT
  5
18778
330
747D
100
AcDbEntity
  8
文字
 62
     7
 48
50.0
100
AcDbText
 10
13583.11819016569
 20
9400.013745883729
 30
0.0
 40
100.0
  1
壁パネル
  7
STYLE1
100
AcDbText
  0
TEXT
  5
18779
330
747D
100
AcDbEntity
  8
文字
 62
     7
 48
50.0
100
AcDbText
 10
13583.11819016569
 20
9570.013745883727
 30
0.0
 40
100.0
  1
屋根パネル
  7
STYLE1
100
AcDbText
  0
TEXT
  5
1877A
330
747D
100
AcDbEntity
  8
文字
 62
     7
 48
50.0
100
AcDbText
 10
13583.11819016569
 20
9740.013745883729
 30
0.0
 40
100.0
  1
母屋中
  7
STYLE1
100
AcDbText
  0
TEXT
  5
1877B
330
747D
100
AcDbEntity
  8
文字
 62
     7
 48
50.0
100
AcDbText
 10
13583.11819016569
 20
10080.01374588372
 30
0.0
 40
100.0
  1
鼻隠シ前後
  7
STYLE1
100
AcDbText
  0
TEXT
  5
1877C
330
747D
100
AcDbEntity
  8
文字
 62
     7
 48
50.0
100
AcDbText
 10
13271.19032244792
 20
9740.013745883729
 30
0.0
 40
100.0
  1
8
  7
STYLE1
100
AcDbText
  0
TEXT
  5
1877D
330
747D
100
AcDbEntity
  8
文字
 62
     7
 48
50.0
100
AcDbText
 10
13271.19032244792
 20
9570.013745883729
 30
0.0
 40
100.0
  1
9
  7
STYLE1
100
AcDbText
  0
TEXT
  5
1877E
330
747D
100
AcDbEntity
  8
文字
 62
     7
 48
50.0
100
AcDbText
 10
13271.19032244792
 20
9910.01374588373
 30
0.0
 40
100.0
  1
7
  7
STYLE1
100
AcDbText
  0
TEXT
  5
1877F
330
747D
100
AcDbEntity
  8
文字
 62
     7
 48
50.0
100
AcDbText
 10
13271.19032244792
 20
10080.01374588373
 30
0.0
 40
100.0
  1
6
  7
STYLE1
100
AcDbText
  0
LINE
  5
18780
330
747D
100
AcDbEntity
  8
仕様書枠
 48
50.0
100
AcDbLine
 10
16307.19999999999
 20
9539.599999999998
 30
0.0
 11
13127.19999999999
 21
9539.6
 31
0.0
  0
LINE
  5
18781
330
747D
100
AcDbEntity
  8
仕様書枠
 48
50.0
100
AcDbLine
 10
16307.19999999999
 20
9199.599999999998
 30
0.0
 11
13127.19999999999
 21
9199.600000000001
 31
0.0
  0
LINE
  5
18782
330
747D
100
AcDbEntity
  8
仕様書枠
 48
50.0
100
AcDbLine
 10
16307.19999999999
 20
9369.599999999998
 30
0.0
 11
13127.19999999999
 21
9369.600000000001
 31
0.0
  0
LINE
  5
18783
330
747D
100
AcDbEntity
  8
仕様書枠
 48
50.0
100
AcDbLine
 10
16307.19999999999
 20
10049.6
 30
0.0
 11
13127.2
 21
10049.6
 31
0.0
  0
LINE
  5
18784
330
747D
100
AcDbEntity
  8
仕様書枠
 48
50.0
100
AcDbLine
 10
16307.19999999999
 20
9709.6
 30
0.0
 11
13127.2
 21
9709.600000000001
 31
0.0
  0
TEXT
  5
18785
330
747D
100
AcDbEntity
  8
文字
 62
     7
 48
50.0
100
AcDbText
 10
13248.77747366448
 20
9230.013745883727
 30
0.0
 40
100.0
  1
11
  7
STYLE1
100
AcDbText
  0
TEXT
  5
18786
330
747D
100
AcDbEntity
  8
文字
 62
     7
 48
50.0
100
AcDbText
 10
13583.11819016569
 20
9060.013745883727
 30
0.0
 40
100.0
  1
シャッターカバー
 41
0.9
  7
STYLE1
100
AcDbText
  0
LINE
  5
18787
330
747D
100
AcDbEntity
  8
仕様書枠
 48
50.0
100
AcDbLine
 10
16307.19999999999
 20
9029.6
 30
0.0
 11
13127.19999999999
 21
9029.6
 31
0.0
  0
TEXT
  5
18789
330
747D
100
AcDbEntity
  8
文字
 62
     7
 48
50.0
100
AcDbText
 10
13583.11819016569
 20
8720.013745883729
 30
0.0
 40
100.0
  1
棚板（別売）
  7
STYLE1
100
AcDbText
  0
LINE
  5
1878A
330
747D
100
AcDbEntity
  8
仕様書枠
 48
50.0
100
AcDbLine
 10
16307.19999999999
 20
8859.6
 30
0.0
 11
13127.19999999999
 21
8859.600000000002
 31
0.0
  0
TEXT
  5
1878B
330
747D
100
AcDbEntity
  8
文字
 62
     7
 48
50.0
100
AcDbText
 10
13583.11819016569
 20
9230.013745883731
 30
0.0
 40
100.0
  1
シャッター
  7
STYLE1
100
AcDbText
  0
TEXT
  5
1878C
330
747D
100
AcDbEntity
  8
文字
 62
     7
 48
50.0
100
AcDbText
 10
13248.77747366448
 20
8890.013745883729
 30
0.0
 40
100.0
  1
13
  7
STYLE1
100
AcDbText
  0
TEXT
  5
1878D
330
747D
100
AcDbEntity
  8
文字
 62
     7
 48
50.0
100
AcDbText
 10
13248.77747366448
 20
9060.013745883729
 30
0.0
 40
100.0
  1
12
  7
STYLE1
100
AcDbText
  0
TEXT
  5
1878E
330
747D
100
AcDbEntity
  8
文字
 62
     7
 48
50.0
100
AcDbText
 10
15022.63965474517
 20
10930.01374588372
 30
0.0
 40
100.0
  1
F12            1.2
  7
STYLE1
100
AcDbText
  0
TEXT
  5
18790
330
747D
100
AcDbEntity
  8
文字
 62
     7
 48
50.0
100
AcDbText
 10
15022.63965474517
 20
10590.01374588372
 30
0.0
 40
100.0
  1
Y10            1.0
  7
STYLE1
100
AcDbText
  0
TEXT
  5
18791
330
747D
100
AcDbEntity
  8
文字
 62
     7
 48
50.0
100
AcDbText
 10
15022.63965474516
 20
10420.01374588372
 30
0.0
 40
100.0
  1
Y10            1.0
  7
STYLE1
100
AcDbText
  0
TEXT
  5
18792
330
747D
100
AcDbEntity
  8
文字
 62
     7
 48
50.0
100
AcDbText
 10
15022.63965474517
 20
10250.01374588372
 30
0.0
 40
100.0
  1
Y10            0.7
  7
STYLE1
100
AcDbText
  0
TEXT
  5
18793
330
747D
100
AcDbEntity
  8
文字
 62
     7
 48
50.0
100
AcDbText
 10
15022.63965474516
 20
10080.01374588372
 30
0.0
 40
100.0
  1
Y10            0.7
  7
STYLE1
100
AcDbText
  0
TEXT
  5
18795
330
747D
100
AcDbEntity
  8
文字
 62
     7
 48
50.0
100
AcDbText
 10
15022.63965474517
 20
9570.013745883725
 30
0.0
 40
100.0
  1
Y10            0.5
  7
STYLE1
100
AcDbText
  0
TEXT
  5
18796
330
747D
100
AcDbEntity
  8
文字
 62
     7
 48
50.0
100
AcDbText
 10
15022.63965474516
 20
9400.013745883725
 30
0.0
 40
100.0
  1
F12            0.6
  7
STYLE1
100
AcDbText
  0
TEXT
  5
18797
330
747D
100
AcDbEntity
  8
文字
 62
     7
 48
50.0
100
AcDbText
 10
14850.83183167176
 20
8890.013745883726
 30
0.0
 40
100.0
  1
アルミニウム合金押出形材
  7
STYLE1
100
AcDbText
  0
TEXT
  5
18799
330
747D
100
AcDbEntity
  8
文字
 62
     7
 48
50.0
100
AcDbText
 10
15022.63965474515
 20
9230.013745883727
 30
0.0
 40
100.0
  1
Z08            0.5
  7
STYLE1
100
AcDbText
  0
TEXT
  5
1879A
330
747D
100
AcDbEntity
  8
文字
 62
     7
 48
50.0
100
AcDbText
 10
15022.63965474515
 20
8720.013745883727
 30
0.0
 40
100.0
  1
F12            0.6
  7
STYLE1
100
AcDbText
  0
LINE
  5
1879B
330
747D
100
AcDbEntity
  8
仕様書枠
 48
50.0
100
AcDbLine
 10
16307.19999999999
 20
8519.599999999998
 30
0.0
 11
13127.2
 21
8519.600000000002
 31
0.0
  0
LINE
  5
1879C
330
747D
100
AcDbEntity
  8
仕様書枠
 48
50.0
100
AcDbLine
 10
16307.19999999999
 20
8349.599999999998
 30
0.0
 11
13127.2
 21
8349.6
 31
0.0
  0
LINE
  5
1879D
330
747D
100
AcDbEntity
  8
仕様書枠
 48
50.0
100
AcDbLine
 10
16307.19999999999
 20
8179.599999999998
 30
0.0
 11
13127.2
 21
8179.6
 31
0.0
  0
TEXT
  5
1879E
330
747D
100
AcDbEntity
  8
文字
 62
     7
 48
50.0
100
AcDbText
 10
13229.83081656555
 20
8550.013745883727
 30
0.0
 40
100.0
  1
F12→溶融亜鉛めっき鋼板(JIS G 3302)
  7
STYLE1
100
AcDbText
  0
TEXT
  5
1879F
330
747D
100
AcDbEntity
  8
文字
 62
     7
 48
50.0
100
AcDbText
 10
13229.83081656555
 20
8380.013745883728
 30
0.0
 40
100.0
  1
Y10→溶融亜鉛-5％アルミニウム合金めっき鋼板(JIS G 3317)
 41
0.9
  7
STYLE1
100
AcDbText
  0
TEXT
  5
187A0
330
747D
100
AcDbEntity
  8
文字
 62
     7
 48
50.0
100
AcDbText
 10
13229.83081656555
 20
8210.013745883729
 30
0.0
 40
100.0
  1
Z08→塗装溶融亜鉛めっき鋼板(JIS G 3313)
  7
STYLE1
100
AcDbText
  0
LINE
  5
187A1
330
747D
100
AcDbEntity
  8
仕様書枠
 48
50.0
100
AcDbLine
 10
13127.2
 20
11239.6
 30
0.0
 11
13127.2
 21
8179.600000000002
 31
0.0
  0
TEXT
  5
18871
330
747D
100
AcDbEntity
  8
文字
 62
     7
 48
50.0
100
AcDbText
 10
14847.53274566167
 20
9741.52081350642
 30
0.0
 40
100.0
  1
F12    1.0(多雪地型  2.3)
  7
STYLE1
100
AcDbText
  0
TEXT
  5
18E9B
330
747D
100
AcDbEntity
  8
部品1
100
AcDbText
 10
11518.21971637548
 20
1259.465674977706
 30
0.0
 40
135.0
  1
側面図
  7
STYLE2
100
AcDbText
  0
LWPOLYLINE
  5
18E9C
330
747D
100
AcDbEntity
  8
部品1
100
AcDbPolyline
 90
        4
 70
     1
 43
0.0
 10
11428.77361495187
 20
1452.359204196229
 10
11428.77361495187
 20
1212.466882650697
 10
12192.24428118031
 20
1212.466882650697
 10
12192.24428118031
 20
1452.359204196229
  0
LINE
  5
18E9D
330
747D
100
AcDbEntity
  8
部品1
100
AcDbLine
 10
12850.50894806608
 20
4042.35920419623
 30
0.0
 11
12850.50894806608
 21
2252.359204196233
 31
0.0
  0
LINE
  5
18E9E
330
747D
100
AcDbEntity
  8
細線
 48
50.0
100
AcDbLine
 10
12773.00894806609
 20
4042.359204196229
 30
0.0
 11
12773.00894806609
 21
2252.359204196231
 31
0.0
  0
LINE
  5
18E9F
330
747D
100
AcDbEntity
  8
細線
 48
50.0
100
AcDbLine
 10
12788.00894806609
 20
4042.359204196229
 30
0.0
 11
12788.00894806609
 21
2252.359204196231
 31
0.0
  0
LINE
  5
18EA0
330
747D
100
AcDbEntity
  8
細線
 48
50.0
100
AcDbLine
 10
12648.00894806609
 20
4042.359204196229
 30
0.0
 11
12648.00894806609
 21
2252.359204196231
 31
0.0
  0
LINE
  5
18EA1
330
747D
100
AcDbEntity
  8
細線
 48
50.0
100
AcDbLine
 10
12633.00894806609
 20
4042.359204196229
 30
0.0
 11
12633.00894806609
 21
2252.359204196231
 31
0.0
  0
LINE
  5
18EA2
330
747D
100
AcDbEntity
  8
細線
 48
50.0
100
AcDbLine
 10
12493.00894806609
 20
4042.359204196229
 30
0.0
 11
12493.00894806609
 21
2252.359204196231
 31
0.0
  0
LINE
  5
18EA3
330
747D
100
AcDbEntity
  8
細線
 48
50.0
100
AcDbLine
 10
12508.00894806609
 20
4042.359204196229
 30
0.0
 11
12508.00894806609
 21
2252.359204196231
 31
0.0
  0
LINE
  5
18EA4
330
747D
100
AcDbEntity
  8
部品1
100
AcDbLine
 10
12430.50894806609
 20
4042.359204196229
 30
0.0
 11
12430.50894806609
 21
2252.359204196231
 31
0.0
  0
DIMENSION
  5
18EA5
330
747D
100
AcDbEntity
  8
寸法
 48
50.0
100
AcDbDimension
  2
*D22
 10
9654.900541297703
 20
4151.704463069562
 30
0.0
 11
9665.566016556628
 21
4522.551126311262
 31
0.0
 70
   161
 71
     5
 42
141.0
  3
INABA_S40G
100
AcDbAlignedDimension
 13
10234.90496822467
 23
4276.081953030909
 33
0.0
 14
10230.85151266804
 24
4135.140229265196
 34
0.0
1001
ACAD
1000
DSTYLE
1002
{
1070
   174
1070
     0
1070
   272
1070
     1
1070
   288
1070
     0
1070
   341
1005
0
1002
}
  0
LINE
  5
18EA6
330
747D
100
AcDbEntity
  8
細線
 48
50.0
100
AcDbLine
 10
13193.00894806609
 20
4042.35920419623
 30
0.0
 11
13193.00894806609
 21
2252.359204196231
 31
0.0
  0
LINE
  5
18EA7
330
747D
100
AcDbEntity
  8
細線
 48
50.0
100
AcDbLine
 10
13208.00894806609
 20
4042.35920419623
 30
0.0
 11
13208.00894806609
 21
2252.359204196231
 31
0.0
  0
LINE
  5
18EA8
330
747D
100
AcDbEntity
  8
細線
 48
50.0
100
AcDbLine
 10
13068.00894806609
 20
4042.35920419623
 30
0.0
 11
13068.00894806609
 21
2252.359204196231
 31
0.0
  0
LINE
  5
18EA9
330
747D
100
AcDbEntity
  8
細線
 48
50.0
100
AcDbLine
 10
13053.00894806609
 20
4042.35920419623
 30
0.0
 11
13053.00894806609
 21
2252.359204196231
 31
0.0
  0
LINE
  5
18EAA
330
747D
100
AcDbEntity
  8
細線
 48
50.0
100
AcDbLine
 10
12913.00894806609
 20
4042.35920419623
 30
0.0
 11
12913.00894806609
 21
2252.359204196231
 31
0.0
  0
LINE
  5
18EAB
330
747D
100
AcDbEntity
  8
細線
 48
50.0
100
AcDbLine
 10
12928.00894806609
 20
4042.35920419623
 30
0.0
 11
12928.00894806609
 21
2252.359204196231
 31
0.0
  0
LINE
  5
18EAC
330
747D
100
AcDbEntity
  8
部品1
100
AcDbLine
 10
11590.50894806609
 20
4042.359204196229
 30
0.0
 11
11590.50894806609
 21
2252.359204196229
 31
0.0
  0
LINE
  5
18EAD
330
747D
100
AcDbEntity
  8
細線
 48
50.0
100
AcDbLine
 10
11248.00894806609
 20
4042.359204196229
 30
0.0
 11
11248.00894806609
 21
2252.359204196229
 31
0.0
  0
LINE
  5
18EAE
330
747D
100
AcDbEntity
  8
細線
 48
50.0
100
AcDbLine
 10
11233.00894806609
 20
4042.359204196229
 30
0.0
 11
11233.0089480661
 21
2252.359204196229
 31
0.0
  0
LINE
  5
18EAF
330
747D
100
AcDbEntity
  8
細線
 48
50.0
100
AcDbLine
 10
11373.00894806609
 20
4042.359204196229
 30
0.0
 11
11373.00894806609
 21
2252.359204196229
 31
0.0
  0
LINE
  5
18EB0
330
747D
100
AcDbEntity
  8
細線
 48
50.0
100
AcDbLine
 10
11388.00894806609
 20
4042.359204196229
 30
0.0
 11
11388.00894806609
 21
2252.359204196229
 31
0.0
  0
LINE
  5
18EB1
330
747D
100
AcDbEntity
  8
細線
 48
50.0
100
AcDbLine
 10
11528.00894806609
 20
4042.359204196229
 30
0.0
 11
11528.00894806609
 21
2252.359204196229
 31
0.0
  0
LINE
  5
18EB2
330
747D
100
AcDbEntity
  8
細線
 48
50.0
100
AcDbLine
 10
11513.00894806609
 20
4042.359204196229
 30
0.0
 11
11513.00894806609
 21
2252.359204196229
 31
0.0
  0
LINE
  5
18EB3
330
747D
100
AcDbEntity
  8
部品1
100
AcDbLine
 10
11170.50894806609
 20
4042.359204196229
 30
0.0
 11
11170.50894806609
 21
2252.359204196229
 31
0.0
  0
DIMENSION
  5
18EB4
330
747D
100
AcDbEntity
  8
寸法
 48
50.0
100
AcDbDimension
  2
*D23
 10
13405.50894806609
 20
4676.016657775535
 30
0.0
 11
13611.55619216058
 21
4676.016657775535
 31
0.0
 70
   160
 71
     5
 42
80.0
  3
INABA_S40G
100
AcDbAlignedDimension
 13
13325.50894806609
 23
4224.169883807884
 33
0.0
 14
13405.50894806609
 24
4222.359204196233
 34
0.0
100
AcDbRotatedDimension
1001
ACAD
1000
DSTYLE
1002
{
1070
   174
1070
     0
1070
   272
1070
     1
1070
   288
1070
     0
1070
   341
1005
0
1002
}
  0
LINE
  5
18EB5
330
747D
100
AcDbEntity
  8
細線
 48
50.0
100
AcDbLine
 10
10408.00894806609
 20
4042.359204196229
 30
0.0
 11
10408.00894806609
 21
2252.359204196229
 31
0.0
  0
LINE
  5
18EB6
330
747D
100
AcDbEntity
  8
細線
 48
50.0
100
AcDbLine
 10
10393.00894806609
 20
4042.359204196229
 30
0.0
 11
10393.00894806609
 21
2252.359204196229
 31
0.0
  0
LINE
  5
18EB7
330
747D
100
AcDbEntity
  8
細線
 48
50.0
100
AcDbLine
 10
10533.00894806609
 20
4042.359204196229
 30
0.0
 11
10533.00894806609
 21
2252.359204196229
 31
0.0
  0
LINE
  5
18EB8
330
747D
100
AcDbEntity
  8
細線
 48
50.0
100
AcDbLine
 10
10548.00894806609
 20
4042.359204196229
 30
0.0
 11
10548.00894806609
 21
2252.359204196229
 31
0.0
  0
LINE
  5
18EB9
330
747D
100
AcDbEntity
  8
細線
 48
50.0
100
AcDbLine
 10
10688.00894806609
 20
4042.359204196229
 30
0.0
 11
10688.00894806609
 21
2252.359204196229
 31
0.0
  0
LINE
  5
18EBA
330
747D
100
AcDbEntity
  8
細線
 48
50.0
100
AcDbLine
 10
10673.00894806609
 20
4042.359204196229
 30
0.0
 11
10673.00894806609
 21
2252.359204196229
 31
0.0
  0
LINE
  5
18EBB
330
747D
100
AcDbEntity
  8
細線
 48
50.0
100
AcDbLine
 10
11093.00894806609
 20
4042.359204196229
 30
0.0
 11
11093.00894806609
 21
2252.359204196229
 31
0.0
  0
LINE
  5
18EBC
330
747D
100
AcDbEntity
  8
細線
 48
50.0
100
AcDbLine
 10
11108.00894806609
 20
4042.359204196229
 30
0.0
 11
11108.00894806609
 21
2252.359204196229
 31
0.0
  0
LINE
  5
18EBD
330
747D
100
AcDbEntity
  8
細線
 48
50.0
100
AcDbLine
 10
10968.00894806609
 20
4042.359204196229
 30
0.0
 11
10968.00894806609
 21
2252.359204196229
 31
0.0
  0
LINE
  5
18EBE
330
747D
100
AcDbEntity
  8
細線
 48
50.0
100
AcDbLine
 10
10953.00894806609
 20
4042.359204196229
 30
0.0
 11
10953.00894806609
 21
2252.359204196229
 31
0.0
  0
LINE
  5
18EBF
330
747D
100
AcDbEntity
  8
細線
 48
50.0
100
AcDbLine
 10
10813.00894806609
 20
4042.359204196229
 30
0.0
 11
10813.00894806609
 21
2252.359204196229
 31
0.0
  0
LINE
  5
18EC0
330
747D
100
AcDbEntity
  8
細線
 48
50.0
100
AcDbLine
 10
10828.00894806609
 20
4042.359204196229
 30
0.0
 11
10828.00894806609
 21
2252.359204196229
 31
0.0
  0
LINE
  5
18EC1
330
747D
100
AcDbEntity
  8
部品1
100
AcDbLine
 10
10330.5089480661
 20
2202.359204196229
 30
0.0
 11
13325.50894806609
 21
2202.359204196229
 31
0.0
  0
DIMENSION
  5
18EC2
330
747D
100
AcDbEntity
  8
寸法
 48
50.0
100
AcDbDimension
  2
*D24
 10
10215.50894806609
 20
4906.130250561812
 30
0.0
 11
11810.50894806609
 21
4906.130250561812
 31
0.0
 70
   160
 71
     5
 42
3190.0
  3
INABA_S40G
100
AcDbAlignedDimension
 13
13405.50894806609
 23
4222.359204196231
 33
0.0
 14
10215.50894806609
 24
4277.359204196233
 34
0.0
100
AcDbRotatedDimension
1001
ACAD
1000
DSTYLE
1002
{
1070
   174
1070
     0
1070
   272
1070
     1
1070
   288
1070
     0
1070
   341
1005
0
1002
}
  0
DIMENSION
  5
18EC3
330
747D
100
AcDbEntity
  8
寸法
 48
50.0
100
AcDbDimension
  2
*D25
 10
10215.50894806609
 20
4676.016657775533
 30
0.0
 11
9905.871152790503
 21
4676.016657775533
 31
0.0
 70
   160
 71
     5
 42
60.0
  3
INABA_S40G
100
AcDbAlignedDimension
 13
10275.50894806609
 23
4273.360822319205
 33
0.0
 14
10215.50894806609
 24
4277.359204196233
 34
0.0
100
AcDbRotatedDimension
1001
ACAD
1000
DSTYLE
1002
{
1070
   174
1070
     0
1070
   272
1070
     1
1070
   288
1070
     0
1070
   341
1005
0
1002
}
  0
DIMENSION
  5
18EC4
330
747D
100
AcDbEntity
  8
寸法
 48
50.0
100
AcDbDimension
  2
*D26
 10
10275.50894806609
 20
4676.016657775535
 30
0.0
 11
11800.50894806609
 21
4676.016657775535
 31
0.0
 70
   160
  1
柱外寸法<>
 71
     5
 42
3050.0
  3
INABA_S40G
100
AcDbAlignedDimension
 13
13325.50894806609
 23
4224.169883807884
 33
0.0
 14
10275.50894806609
 24
4273.360822319205
 34
0.0
100
AcDbRotatedDimension
1001
ACAD
1000
DSTYLE
1002
{
1070
   174
1070
     0
1070
   272
1070
     1
1070
   288
1070
     0
1070
   341
1005
0
1002
}
  0
LINE
  5
18EC5
330
747D
100
AcDbEntity
  8
部品1
100
AcDbLine
 10
13270.50894806609
 20
4042.35920419623
 30
0.0
 11
13270.50894806609
 21
2252.359204196231
 31
0.0
  0
LINE
  5
18EC6
330
747D
100
AcDbEntity
  8
部品1
100
AcDbLine
 10
13325.50894806609
 20
4096.78923197735
 30
0.0
 11
13325.50894806609
 21
2102.359204196231
 31
0.0
  0
LINE
  5
18EC7
330
747D
100
AcDbEntity
  8
部品1
100
AcDbLine
 10
10750.50894806609
 20
4042.359204196229
 30
0.0
 11
10750.50894806609
 21
2252.359204196229
 31
0.0
  0
DIMENSION
  5
18EC8
330
747D
100
AcDbEntity
  8
寸法
100
AcDbDimension
  2
*D27
 10
9431.758818882833
 20
2202.359204196229
 30
0.0
 11
9431.758818882833
 21
1896.31196010174
 31
0.0
 70
   160
 71
     5
 42
50.0
  3
INABA_S40G
100
AcDbAlignedDimension
 13
10275.50894806609
 23
2252.359204196229
 33
0.0
 14
10220.50894806609
 24
2202.359204196229
 34
0.0
 50
90.0
100
AcDbRotatedDimension
1001
ACAD
1000
DSTYLE
1002
{
1070
   174
1070
     0
1070
   272
1070
     1
1070
   288
1070
     0
1070
   341
1005
0
1002
}
  0
LINE
  5
18EC9
330
747D
100
AcDbEntity
  8
部品1
100
AcDbLine
 10
10275.50894806609
 20
4134.501642125107
 30
0.0
 11
10275.50894806609
 21
2102.359204196229
 31
0.0
  0
LINE
  5
18ECA
330
747D
100
AcDbEntity
  8
部品1
100
AcDbLine
 10
10330.50894806609
 20
4042.359204196229
 30
0.0
 11
10330.5089480661
 21
2102.359204196229
 31
0.0
  0
LINE
  5
18ECB
330
747D
100
AcDbEntity
  8
部品1
100
AcDbLine
 10
10330.5089480661
 20
2252.359204196229
 30
0.0
 11
13325.50894806609
 21
2252.359204196231
 31
0.0
  0
LINE
  5
18ECC
330
747D
100
AcDbEntity
  8
部品1
100
AcDbLine
 10
10275.50894806609
 20
4042.359204196229
 30
0.0
 11
13325.50894806608
 21
4042.359204196229
 31
0.0
  0
LINE
  5
18ECD
330
747D
100
AcDbEntity
  8
部品1
100
AcDbLine
 10
13270.50894806608
 20
4042.359204196233
 30
0.0
 11
13270.50894806608
 21
2252.359204196233
 31
0.0
  0
LINE
  5
18ECE
330
747D
100
AcDbEntity
  8
細線
 48
50.0
100
AcDbLine
 10
11933.00894806609
 20
4042.359204196229
 30
0.0
 11
11933.00894806609
 21
2252.359204196229
 31
0.0
  0
LINE
  5
18ECF
330
747D
100
AcDbEntity
  8
細線
 48
50.0
100
AcDbLine
 10
11948.00894806609
 20
4042.359204196229
 30
0.0
 11
11948.00894806609
 21
2252.359204196229
 31
0.0
  0
LINE
  5
18ED0
330
747D
100
AcDbEntity
  8
細線
 48
50.0
100
AcDbLine
 10
11808.00894806609
 20
4042.359204196229
 30
0.0
 11
11808.00894806609
 21
2252.359204196229
 31
0.0
  0
LINE
  5
18ED1
330
747D
100
AcDbEntity
  8
細線
 48
50.0
100
AcDbLine
 10
11793.00894806609
 20
4042.359204196229
 30
0.0
 11
11793.00894806609
 21
2252.359204196229
 31
0.0
  0
LINE
  5
18ED2
330
747D
100
AcDbEntity
  8
細線
 48
50.0
100
AcDbLine
 10
11653.00894806609
 20
4042.359204196229
 30
0.0
 11
11653.00894806609
 21
2252.359204196229
 31
0.0
  0
LINE
  5
18ED3
330
747D
100
AcDbEntity
  8
細線
 48
50.0
100
AcDbLine
 10
11668.00894806609
 20
4042.359204196229
 30
0.0
 11
11668.00894806609
 21
2252.359204196229
 31
0.0
  0
TEXT
  5
18ED4
330
747D
100
AcDbEntity
  8
部品1
 48
50.0
100
AcDbText
 10
12145.37809212146
 20
4299.628297134536
 30
0.0
 40
120.0
  1
32
 50
90.0
  7
STYLE1
100
AcDbText
  0
TEXT
  5
18ED5
330
747D
100
AcDbEntity
  8
部品1
 48
50.0
100
AcDbText
 10
11667.74506945637
 20
4437.129555352819
 30
0.0
 40
120.0
  1
1000
  7
STYLE1
100
AcDbText
  0
LINE
  5
18ED6
330
747D
100
AcDbEntity
  8
部品1
 48
50.0
100
AcDbLine
 10
11979.47723423264
 20
4401.245533200386
 30
0.0
 11
11979.47723423264
 21
4385.045533200386
 31
0.0
  0
LINE
  5
18ED7
330
747D
100
AcDbEntity
  8
部品1
 48
50.0
100
AcDbLine
 10
11679.47723423264
 20
4401.245533200386
 30
0.0
 11
11979.47723423264
 21
4401.245533200386
 31
0.0
  0
LINE
  5
18ED8
330
747D
100
AcDbEntity
  8
部品1
100
AcDbLine
 10
10223.05393442305
 20
4276.076939530496
 30
0.0
 11
13398.12082492756
 21
4221.000001905369
 31
0.0
  0
LINE
  5
18ED9
330
747D
100
AcDbEntity
  8
部品1
100
AcDbLine
 10
10230.85151266804
 20
4135.140229265196
 30
0.0
 11
13380.17264860594
 21
4096.111804030991
 31
0.0
  0
LINE
  5
18EDA
330
747D
100
AcDbEntity
  8
細線
 48
50.0
100
AcDbLine
 10
10248.50894806609
 20
4274.758880571634
 30
0.0
 11
10243.21984651058
 21
4134.67324794428
 31
0.0
  0
LINE
  5
18EDB
330
747D
100
AcDbEntity
  8
細線
 48
50.0
100
AcDbLine
 10
13372.47823125978
 20
4221.512626675699
 30
0.0
 11
13367.7612651781
 21
4096.580410740782
 31
0.0
  0
LINE
  5
18EDC
330
747D
100
AcDbEntity
  8
部品1
 48
50.0
100
AcDbLine
 10
10215.6932339792
 20
4268.952750360923
 30
0.0
 11
10216.07349375701
 21
4249.02578591451
 31
0.0
  0
LINE
  5
18EDD
330
747D
100
AcDbEntity
  8
部品1
 48
50.0
100
AcDbLine
 10
10219.14226586326
 20
4245.450504421039
 30
0.0
 11
10220.84616735462
 21
4156.160007714391
 31
0.0
  0
LINE
  5
18EDE
330
747D
100
AcDbEntity
  8
細線
 48
50.0
100
AcDbLine
 10
10216.54837116691
 20
4248.376286037591
 30
0.0
 11
13402.18435591208
 21
4192.752081396763
 31
0.0
  0
LINE
  5
18EDF
330
747D
100
AcDbEntity
  8
細線
 48
50.0
100
AcDbLine
 10
10221.30884640419
 20
4155.514774339727
 30
0.0
 11
13391.31251083483
 21
4115.705455365234
 31
0.0
  0
LINE
  5
18EE0
330
747D
100
AcDbEntity
  8
部品1
 48
50.0
100
AcDbLine
 10
10223.91493946086
 20
4152.584726220919
 30
0.0
 11
10224.11689208129
 21
4142.001690827827
 31
0.0
  0
ARC
  5
18EE1
330
747D
100
AcDbEntity
  8
部品1
 48
50.0
100
AcDbCircle
 10
10222.69195980754
 20
4269.086304768349
 30
0.0
 40
7.0
100
AcDbArc
 50
87.03587545283093
 51
181.0932240293156
  0
ARC
  5
18EE2
330
747D
100
AcDbEntity
  8
部品1
 48
50.0
100
AcDbCircle
 10
10231.11561790963
 20
4142.135245235254
 30
0.0
 40
7.0
100
AcDbArc
 50
181.0932240293156
 51
267.8377559869492
  0
ARC
  5
18EE3
330
747D
100
AcDbEntity
  8
部品1
100
AcDbCircle
 10
10220.91548553443
 20
4152.527488617735
 30
0.0
 40
3.0
100
AcDbArc
 50
1.093224029315636
 51
80.18775403169875
  0
ARC
  5
18EE4
330
747D
100
AcDbEntity
  8
部品1
100
AcDbCircle
 10
10216.14281193683
 20
4245.393266817855
 30
0.0
 40
3.0
100
AcDbArc
 50
1.093224029315636
 51
80.18775403169875
  0
ARC
  5
18EE5
330
747D
100
AcDbEntity
  8
部品1
100
AcDbCircle
 10
10216.77336633985
 20
4249.039141355252
 30
0.0
 40
0.7
100
AcDbArc
 50
181.0932240292114
 51
260.1877540314845
  0
ARC
  5
18EE6
330
747D
100
AcDbEntity
  8
部品1
100
AcDbCircle
 10
10221.54603993746
 20
4156.173363155133
 30
0.0
 40
0.7
100
AcDbArc
 50
181.0932240292114
 51
260.1877540314845
  0
LINE
  5
18EE7
330
747D
100
AcDbEntity
  8
部品1
 48
50.0
100
AcDbLine
 10
13404.7228508768
 20
4213.300356470448
 30
0.0
 11
13402.69222968583
 21
4193.355315212669
 31
0.0
  0
LINE
  5
18EE8
330
747D
100
AcDbEntity
  8
部品1
 48
50.0
100
AcDbLine
 10
13399.33966320134
 20
4190.04468113976
 30
0.0
 11
13391.83288393651
 21
4116.312060394747
 31
0.0
  0
LINE
  5
18EE9
330
747D
100
AcDbEntity
  8
部品1
 48
50.0
100
AcDbLine
 10
13388.48031745202
 20
4113.001426321836
 30
0.0
 11
13387.40075441228
 21
4102.397809328277
 31
0.0
  0
ARC
  5
18EEA
330
747D
100
AcDbEntity
  8
部品1
 48
50.0
100
AcDbCircle
 10
13397.75885031204
 20
4214.009367143223
 30
0.0
 40
7.0
100
AcDbArc
 50
354.1866997665532
 51
87.03587545283093
  0
ARC
  5
18EEB
330
747D
100
AcDbEntity
  8
部品1
 48
50.0
100
AcDbCircle
 10
13380.43675384753
 20
4103.10682000105
 30
0.0
 40
7.0
100
AcDbArc
 50
267.8377559869492
 51
354.1866997665532
  0
ARC
  5
18EEC
330
747D
100
AcDbEntity
  8
部品1
100
AcDbCircle
 10
13391.46488912263
 20
4112.697564604932
 30
0.0
 40
3.0
100
AcDbArc
 50
95.0921697642102
 51
174.1866997665532
  0
ARC
  5
18EED
330
747D
100
AcDbEntity
  8
部品1
100
AcDbCircle
 10
13402.32423487196
 20
4189.740819422857
 30
0.0
 40
3.0
100
AcDbArc
 50
95.0921697642102
 51
174.1866997665532
  0
ARC
  5
18EEE
330
747D
100
AcDbEntity
  8
部品1
100
AcDbCircle
 10
13401.99582962936
 20
4193.426216279946
 30
0.0
 40
0.7
100
AcDbArc
 50
275.0921697642102
 51
354.1866997665532
  0
ARC
  5
18EEF
330
747D
100
AcDbEntity
  8
部品1
100
AcDbCircle
 10
13391.13648388003
 20
4116.382961462022
 30
0.0
 40
0.7
100
AcDbArc
 50
275.0921697642102
 51
354.1866997667606
  0
LINE
  5
18EF0
330
747D
100
AcDbEntity
  8
部品1
100
AcDbLine
 10
11654.02222058961
 20
4402.563592159247
 30
0.0
 11
11979.47723423264
 21
4385.045533200386
 31
0.0
  0
LINE
  5
18EF1
330
747D
100
AcDbEntity
  8
部品1
100
AcDbLine
 10
12010.50894806609
 20
4042.359204196229
 30
0.0
 11
12010.50894806609
 21
2252.359204196231
 31
0.0
  0
LINE
  5
18EF2
330
747D
100
AcDbEntity
  8
細線
 48
50.0
100
AcDbLine
 10
12088.00894806609
 20
4042.359204196229
 30
0.0
 11
12088.00894806609
 21
2252.359204196231
 31
0.0
  0
LINE
  5
18EF3
330
747D
100
AcDbEntity
  8
細線
 48
50.0
100
AcDbLine
 10
12073.00894806609
 20
4042.359204196229
 30
0.0
 11
12073.00894806609
 21
2252.359204196231
 31
0.0
  0
LINE
  5
18EF4
330
747D
100
AcDbEntity
  8
細線
 48
50.0
100
AcDbLine
 10
12213.00894806609
 20
4042.359204196229
 30
0.0
 11
12213.00894806609
 21
2252.359204196231
 31
0.0
  0
LINE
  5
18EF5
330
747D
100
AcDbEntity
  8
細線
 48
50.0
100
AcDbLine
 10
12228.00894806609
 20
4042.359204196229
 30
0.0
 11
12228.00894806609
 21
2252.359204196231
 31
0.0
  0
LINE
  5
18EF6
330
747D
100
AcDbEntity
  8
細線
 48
50.0
100
AcDbLine
 10
12368.00894806609
 20
4042.359204196229
 30
0.0
 11
12368.00894806609
 21
2252.359204196231
 31
0.0
  0
LINE
  5
18EF7
330
747D
100
AcDbEntity
  8
細線
 48
50.0
100
AcDbLine
 10
12353.00894806609
 20
4042.359204196229
 30
0.0
 11
12353.00894806609
 21
2252.359204196231
 31
0.0
  0
DIMENSION
  5
18EF8
330
747D
100
AcDbEntity
  8
寸法
100
AcDbDimension
  2
*D28
 10
14030.43610603821
 20
4222.359204196231
 30
0.0
 11
13930.42429501459
 21
3212.359204196233
 31
0.0
 70
    32
 71
     5
 42
2020.0
  3
INABA_S40G
100
AcDbAlignedDimension
 13
13325.50894806609
 23
2202.359204196231
 33
0.0
 14
13405.50894806609
 24
4222.359204196231
 34
0.0
 50
90.0
100
AcDbRotatedDimension
1001
ACAD
1000
DSTYLE
1002
{
1070
   174
1070
     0
1070
   272
1070
     1
1070
   288
1070
     0
1070
   341
1005
0
1002
}
  0
DIMENSION
  5
18EF9
330
747D
100
AcDbEntity
  8
寸法
100
AcDbDimension
  2
*D29
 10
9131.758818882834
 20
4277.359204196229
 30
0.0
 11
9031.747007859211
 21
3239.859204196228
 31
0.0
 70
    32
 71
     5
 42
2075.000000000005
  3
INABA_S40G
100
AcDbAlignedDimension
 13
10275.50894806609
 23
2202.359204196224
 33
0.0
 14
10215.50894806609
 24
4277.359204196229
 34
0.0
 50
90.0
100
AcDbRotatedDimension
1001
ACAD
1000
DSTYLE
1002
{
1070
   174
1070
     0
1070
   272
1070
     1
1070
   288
1070
     0
1070
   341
1005
0
1002
}
  0
DIMENSION
  5
18EFA
330
747D
100
AcDbEntity
  8
寸法
100
AcDbDimension
  2
*D30
 10
9431.758818882833
 20
2252.359204196224
 30
0.0
 11
9331.758818882834
 21
3147.359204196227
 31
0.0
 70
    32
 71
     5
 42
1790.000000000002
  3
INABA_S40G
100
AcDbAlignedDimension
 13
10275.50894806609
 23
4042.359204196226
 33
0.0
 14
10275.50894806609
 24
2252.359204196224
 34
0.0
 50
90.0
100
AcDbRotatedDimension
1001
ACAD
1000
DSTYLE
1002
{
1070
   174
1070
     0
1070
   272
1070
     1
1070
   288
1070
     0
1070
   341
1005
0
1002
}
  0
LINE
  5
18EFF
330
747D
100
AcDbEntity
  8
破線
 48
5.0
100
AcDbLine
 10
10275.50894806609
 20
2102.359204196229
 30
0.0
 11
10275.50894806609
 21
1852.359204196229
 31
0.0
  0
LINE
  5
18F00
330
747D
100
AcDbEntity
  8
破線
 48
5.0
100
AcDbLine
 10
10330.50894806609
 20
2102.359204196229
 30
0.0
 11
10330.50894806609
 21
1852.359204196229
 31
0.0
  0
LINE
  5
18F01
330
747D
100
AcDbEntity
  8
破線
 48
5.0
100
AcDbLine
 10
10275.50894806609
 20
1852.359204196229
 30
0.0
 11
10330.50894806609
 21
1852.359204196229
 31
0.0
  0
LINE
  5
18F02
330
747D
100
AcDbEntity
  8
部品1
100
AcDbLine
 10
10275.50894806609
 20
2202.359204196229
 30
0.0
 11
9882.511733857249
 21
2102.359204196229
 31
0.0
  0
TEXT
  5
18F45
330
747D
100
AcDbEntity
  8
文字
 62
     7
 48
50.0
100
AcDbText
 10
14235.64421099482
 20
483.8967129911416
 30
0.0
 40
160.0
  1
FXN-2230SL-2
  7
MSPゴシック
100
AcDbText
  0
LINE
  5
192FC
330
747D
100
AcDbEntity
  8
補助
  6
PHANTOM
 62
   230
 48
50.0
100
AcDbLine
 10
140.0
 20
0.0
 30
0.0
 11
139.9999999999995
 21
11409.6
 31
0.0
  0
ARC
  5
197AB
330
747D
100
AcDbEntity
  8
部品1
 48
0.01
100
AcDbCircle
 10
7006.673057123672
 20
4074.859204196228
 30
0.0
 40
2.0
100
AcDbArc
 50
180.0
 51
270.0
  0
ARC
  5
197AC
330
747D
100
AcDbEntity
  8
部品1
 48
0.01
100
AcDbCircle
 10
7006.673057123669
 20
4106.35920419623
 30
0.0
 40
2.0
100
AcDbArc
 50
90.0
 51
180.0
  0
ARC
  5
197AD
330
747D
100
AcDbEntity
  8
部品1
 48
0.01
100
AcDbCircle
 10
7182.673057123668
 20
4074.859204196228
 30
0.0
 40
2.0
100
AcDbArc
 50
270.0
 51
0.0
  0
ARC
  5
197AE
330
747D
100
AcDbEntity
  8
部品1
 48
0.01
100
AcDbCircle
 10
7182.673057123668
 20
4106.35920419623
 30
0.0
 40
2.0
100
AcDbArc
 50
0.0
 51
90.0
  0
LINE
  5
197AF
330
747D
100
AcDbEntity
  8
細線
100
AcDbLine
 10
7094.673057123673
 20
4078.85920419623
 30
0.0
 11
7020.673057123669
 21
4078.85920419623
 31
0.0
  0
LINE
  5
197B0
330
747D
100
AcDbEntity
  8
細線
100
AcDbLine
 10
7094.673057123668
 20
4101.859204196229
 30
0.0
 11
7168.673057123668
 21
4101.859204196229
 31
0.0
  0
LINE
  5
197B1
330
747D
100
AcDbEntity
  8
細線
100
AcDbLine
 10
7168.673057123668
 20
4078.85920419623
 30
0.0
 11
7094.673057123668
 21
4078.85920419623
 31
0.0
  0
LINE
  5
197B2
330
747D
100
AcDbEntity
  8
細線
100
AcDbLine
 10
7020.673057123669
 20
4101.859204196229
 30
0.0
 11
7094.673057123668
 21
4101.859204196229
 31
0.0
  0
LINE
  5
197B3
330
747D
100
AcDbEntity
  8
細線
100
AcDbLine
 10
7020.673057123669
 20
4078.85920419623
 30
0.0
 11
7020.673057123669
 21
4101.859204196229
 31
0.0
  0
LINE
  5
197B4
330
747D
100
AcDbEntity
  8
細線
100
AcDbLine
 10
7168.673057123668
 20
4101.859204196229
 30
0.0
 11
7168.673057123668
 21
4078.85920419623
 31
0.0
  0
LINE
  5
197B5
330
747D
100
AcDbEntity
  8
部品1
 48
0.01
100
AcDbLine
 10
7004.673057123672
 20
4074.859204196228
 30
0.0
 11
7004.673057123669
 21
4106.35920419623
 31
0.0
  0
LINE
  5
197B6
330
747D
100
AcDbEntity
  8
部品1
 48
0.01
100
AcDbLine
 10
7182.673057123668
 20
4072.859204196229
 30
0.0
 11
7006.673057123672
 21
4072.859204196229
 31
0.0
  0
LINE
  5
197B7
330
747D
100
AcDbEntity
  8
部品1
 48
0.01
100
AcDbLine
 10
7184.673057123669
 20
4106.35920419623
 30
0.0
 11
7184.673057123669
 21
4074.859204196228
 31
0.0
  0
LINE
  5
197B8
330
747D
100
AcDbEntity
  8
部品1
 48
0.01
100
AcDbLine
 10
7006.673057123669
 20
4108.359204196228
 30
0.0
 11
7182.673057123668
 21
4108.359204196228
 31
0.0
  0
LINE
  5
197B9
330
747D
100
AcDbEntity
  8
細線
100
AcDbLine
 10
7168.673057123668
 20
4095.859204196229
 30
0.0
 11
7094.673057123668
 21
4095.859204196229
 31
0.0
  0
LINE
  5
197BA
330
747D
100
AcDbEntity
  8
細線
100
AcDbLine
 10
7168.673057123668
 20
4089.859204196229
 30
0.0
 11
7094.673057123668
 21
4089.859204196229
 31
0.0
  0
LINE
  5
197BB
330
747D
100
AcDbEntity
  8
細線
100
AcDbLine
 10
7168.673057123672
 20
4083.859204196229
 30
0.0
 11
7094.673057123668
 21
4083.859204196229
 31
0.0
  0
LINE
  5
197BC
330
747D
100
AcDbEntity
  8
細線
100
AcDbLine
 10
7168.673057123668
 20
4095.859204196229
 30
0.0
 11
7099.673057123668
 21
4095.859204196229
 31
0.0
  0
LINE
  5
197BD
330
747D
100
AcDbEntity
  8
細線
100
AcDbLine
 10
7020.673057123672
 20
4095.859204196229
 30
0.0
 11
7094.673057123668
 21
4095.859204196229
 31
0.0
  0
LINE
  5
197BE
330
747D
100
AcDbEntity
  8
細線
100
AcDbLine
 10
7020.673057123672
 20
4083.859204196229
 30
0.0
 11
7094.673057123668
 21
4083.859204196229
 31
0.0
  0
LINE
  5
197BF
330
747D
100
AcDbEntity
  8
細線
100
AcDbLine
 10
7020.673057123672
 20
4089.859204196229
 30
0.0
 11
7094.673057123668
 21
4089.859204196229
 31
0.0
  0
LINE
  5
197C0
330
747D
100
AcDbEntity
  8
細線
100
AcDbLine
 10
7094.673057123668
 20
4101.859204196229
 30
0.0
 11
7094.673057123673
 21
4078.85920419623
 31
0.0
  0
LINE
  5
197C1
330
747D
100
AcDbEntity
  8
細線
100
AcDbLine
 10
5864.673057123672
 20
4101.859204196229
 30
0.0
 11
5864.673057123669
 21
4078.85920419623
 31
0.0
  0
LINE
  5
197C2
330
747D
100
AcDbEntity
  8
細線
100
AcDbLine
 10
5938.673057123668
 20
4089.859204196229
 30
0.0
 11
5864.673057123672
 21
4089.859204196229
 31
0.0
  0
LINE
  5
197C3
330
747D
100
AcDbEntity
  8
細線
100
AcDbLine
 10
5938.673057123668
 20
4083.859204196229
 30
0.0
 11
5864.673057123672
 21
4083.859204196229
 31
0.0
  0
LINE
  5
197C4
330
747D
100
AcDbEntity
  8
細線
100
AcDbLine
 10
5938.673057123668
 20
4095.859204196229
 30
0.0
 11
5864.673057123672
 21
4095.859204196229
 31
0.0
  0
LINE
  5
197C5
330
747D
100
AcDbEntity
  8
細線
100
AcDbLine
 10
5790.673057123672
 20
4095.859204196229
 30
0.0
 11
5859.673057123671
 21
4095.859204196229
 31
0.0
  0
LINE
  5
197C6
330
747D
100
AcDbEntity
  8
細線
100
AcDbLine
 10
5790.673057123669
 20
4083.859204196229
 30
0.0
 11
5864.673057123672
 21
4083.859204196229
 31
0.0
  0
LINE
  5
197C7
330
747D
100
AcDbEntity
  8
細線
100
AcDbLine
 10
5790.673057123672
 20
4089.859204196229
 30
0.0
 11
5864.673057123672
 21
4089.859204196229
 31
0.0
  0
LINE
  5
197C8
330
747D
100
AcDbEntity
  8
細線
100
AcDbLine
 10
5790.673057123672
 20
4095.859204196229
 30
0.0
 11
5864.673057123672
 21
4095.859204196229
 31
0.0
  0
LINE
  5
197C9
330
747D
100
AcDbEntity
  8
部品1
 48
0.01
100
AcDbLine
 10
5952.673057123672
 20
4108.359204196228
 30
0.0
 11
5776.673057123672
 21
4108.359204196228
 31
0.0
  0
LINE
  5
197CA
330
747D
100
AcDbEntity
  8
部品1
 48
0.01
100
AcDbLine
 10
5774.673057123672
 20
4106.35920419623
 30
0.0
 11
5774.673057123672
 21
4074.859204196228
 31
0.0
  0
LINE
  5
197CB
330
747D
100
AcDbEntity
  8
部品1
 48
0.01
100
AcDbLine
 10
5776.673057123672
 20
4072.859204196229
 30
0.0
 11
5952.673057123668
 21
4072.859204196229
 31
0.0
  0
LINE
  5
197CC
330
747D
100
AcDbEntity
  8
部品1
 48
0.01
100
AcDbLine
 10
5954.673057123669
 20
4074.859204196228
 30
0.0
 11
5954.673057123672
 21
4106.35920419623
 31
0.0
  0
LINE
  5
197CD
330
747D
100
AcDbEntity
  8
細線
100
AcDbLine
 10
5790.673057123672
 20
4101.859204196229
 30
0.0
 11
5790.673057123672
 21
4078.85920419623
 31
0.0
  0
LINE
  5
197CE
330
747D
100
AcDbEntity
  8
細線
100
AcDbLine
 10
5938.673057123672
 20
4078.85920419623
 30
0.0
 11
5938.673057123672
 21
4101.859204196229
 31
0.0
  0
LINE
  5
197CF
330
747D
100
AcDbEntity
  8
細線
100
AcDbLine
 10
5938.673057123672
 20
4101.859204196229
 30
0.0
 11
5864.673057123672
 21
4101.859204196229
 31
0.0
  0
LINE
  5
197D0
330
747D
100
AcDbEntity
  8
細線
100
AcDbLine
 10
5790.673057123672
 20
4078.85920419623
 30
0.0
 11
5864.673057123672
 21
4078.85920419623
 31
0.0
  0
LINE
  5
197D1
330
747D
100
AcDbEntity
  8
細線
100
AcDbLine
 10
5864.673057123672
 20
4101.859204196229
 30
0.0
 11
5790.673057123672
 21
4101.859204196229
 31
0.0
  0
LINE
  5
197D2
330
747D
100
AcDbEntity
  8
細線
100
AcDbLine
 10
5864.673057123669
 20
4078.85920419623
 30
0.0
 11
5938.673057123672
 21
4078.85920419623
 31
0.0
  0
ARC
  5
197D3
330
747D
100
AcDbEntity
  8
部品1
 48
0.01
100
AcDbCircle
 10
5776.673057123672
 20
4106.35920419623
 30
0.0
 40
2.0
100
AcDbArc
 50
90.0
 51
180.0
  0
ARC
  5
197D4
330
747D
100
AcDbEntity
  8
部品1
 48
0.01
100
AcDbCircle
 10
5776.673057123672
 20
4074.859204196228
 30
0.0
 40
2.0
100
AcDbArc
 50
180.0
 51
270.0
  0
ARC
  5
197D5
330
747D
100
AcDbEntity
  8
部品1
 48
0.01
100
AcDbCircle
 10
5952.673057123672
 20
4106.35920419623
 30
0.0
 40
2.0
100
AcDbArc
 50
0.0
 51
90.0
  0
ARC
  5
197D6
330
747D
100
AcDbEntity
  8
部品1
 48
0.01
100
AcDbCircle
 10
5952.673057123668
 20
4074.859204196228
 30
0.0
 40
2.0
100
AcDbArc
 50
270.0
 51
0.0
  0
ARC
  5
197D7
330
747D
100
AcDbEntity
  8
部品1
 48
0.01
100
AcDbCircle
 10
3742.673057123669
 20
4074.859204196228
 30
0.0
 40
2.0
100
AcDbArc
 50
270.0
 51
0.0
  0
ARC
  5
197D8
330
747D
100
AcDbEntity
  8
部品1
 48
0.01
100
AcDbCircle
 10
3742.673057123673
 20
4106.35920419623
 30
0.0
 40
2.0
100
AcDbArc
 50
0.0
 51
90.0
  0
ARC
  5
197D9
330
747D
100
AcDbEntity
  8
部品1
 48
0.01
100
AcDbCircle
 10
3566.673057123672
 20
4074.859204196228
 30
0.0
 40
2.0
100
AcDbArc
 50
180.0
 51
270.0
  0
ARC
  5
197DA
330
747D
100
AcDbEntity
  8
部品1
 48
0.01
100
AcDbCircle
 10
3566.673057123672
 20
4106.35920419623
 30
0.0
 40
2.0
100
AcDbArc
 50
90.0
 51
180.0
  0
LINE
  5
197DB
330
747D
100
AcDbEntity
  8
細線
100
AcDbLine
 10
3654.673057123669
 20
4078.85920419623
 30
0.0
 11
3728.673057123673
 21
4078.85920419623
 31
0.0
  0
LINE
  5
197DC
330
747D
100
AcDbEntity
  8
細線
100
AcDbLine
 10
3654.673057123672
 20
4101.859204196229
 30
0.0
 11
3580.673057123672
 21
4101.859204196229
 31
0.0
  0
LINE
  5
197DD
330
747D
100
AcDbEntity
  8
細線
100
AcDbLine
 10
3580.673057123672
 20
4078.85920419623
 30
0.0
 11
3654.673057123672
 21
4078.85920419623
 31
0.0
  0
LINE
  5
197DE
330
747D
100
AcDbEntity
  8
細線
100
AcDbLine
 10
3728.673057123673
 20
4101.859204196229
 30
0.0
 11
3654.673057123672
 21
4101.859204196229
 31
0.0
  0
LINE
  5
197DF
330
747D
100
AcDbEntity
  8
細線
100
AcDbLine
 10
3728.673057123673
 20
4078.85920419623
 30
0.0
 11
3728.673057123673
 21
4101.859204196229
 31
0.0
  0
LINE
  5
197E0
330
747D
100
AcDbEntity
  8
細線
100
AcDbLine
 10
3580.673057123672
 20
4101.859204196229
 30
0.0
 11
3580.673057123672
 21
4078.85920419623
 31
0.0
  0
LINE
  5
197E1
330
747D
100
AcDbEntity
  8
部品1
 48
0.01
100
AcDbLine
 10
3744.673057123669
 20
4074.859204196228
 30
0.0
 11
3744.673057123672
 21
4106.35920419623
 31
0.0
  0
LINE
  5
197E2
330
747D
100
AcDbEntity
  8
部品1
 48
0.01
100
AcDbLine
 10
3566.673057123672
 20
4072.859204196229
 30
0.0
 11
3742.673057123669
 21
4072.859204196229
 31
0.0
  0
LINE
  5
197E3
330
747D
100
AcDbEntity
  8
部品1
 48
0.01
100
AcDbLine
 10
3564.673057123672
 20
4106.35920419623
 30
0.0
 11
3564.673057123672
 21
4074.859204196228
 31
0.0
  0
LINE
  5
197E4
330
747D
100
AcDbEntity
  8
部品1
 48
0.01
100
AcDbLine
 10
3742.673057123673
 20
4108.359204196228
 30
0.0
 11
3566.673057123672
 21
4108.359204196228
 31
0.0
  0
LINE
  5
197E5
330
747D
100
AcDbEntity
  8
細線
100
AcDbLine
 10
3580.673057123672
 20
4095.859204196229
 30
0.0
 11
3654.673057123672
 21
4095.859204196229
 31
0.0
  0
LINE
  5
197E6
330
747D
100
AcDbEntity
  8
細線
100
AcDbLine
 10
3580.673057123672
 20
4089.859204196229
 30
0.0
 11
3654.673057123672
 21
4089.859204196229
 31
0.0
  0
LINE
  5
197E7
330
747D
100
AcDbEntity
  8
細線
100
AcDbLine
 10
3580.673057123668
 20
4083.859204196229
 30
0.0
 11
3654.673057123672
 21
4083.859204196229
 31
0.0
  0
LINE
  5
197E8
330
747D
100
AcDbEntity
  8
細線
100
AcDbLine
 10
3580.673057123672
 20
4095.859204196229
 30
0.0
 11
3649.673057123673
 21
4095.859204196229
 31
0.0
  0
LINE
  5
197E9
330
747D
100
AcDbEntity
  8
細線
100
AcDbLine
 10
3728.673057123669
 20
4095.859204196229
 30
0.0
 11
3654.673057123672
 21
4095.859204196229
 31
0.0
  0
LINE
  5
197EA
330
747D
100
AcDbEntity
  8
細線
100
AcDbLine
 10
3728.673057123669
 20
4083.859204196229
 30
0.0
 11
3654.673057123672
 21
4083.859204196229
 31
0.0
  0
LINE
  5
197EB
330
747D
100
AcDbEntity
  8
細線
100
AcDbLine
 10
3728.673057123669
 20
4089.859204196229
 30
0.0
 11
3654.673057123672
 21
4089.859204196229
 31
0.0
  0
LINE
  5
197EC
330
747D
100
AcDbEntity
  8
細線
100
AcDbLine
 10
3654.673057123672
 20
4101.859204196229
 30
0.0
 11
3654.673057123669
 21
4078.85920419623
 31
0.0
  0
LINE
  5
197ED
330
747D
100
AcDbEntity
  8
細線
100
AcDbLine
 10
4884.673057123668
 20
4101.859204196229
 30
0.0
 11
4884.673057123672
 21
4078.85920419623
 31
0.0
  0
LINE
  5
197EE
330
747D
100
AcDbEntity
  8
細線
100
AcDbLine
 10
4810.673057123672
 20
4089.859204196229
 30
0.0
 11
4884.673057123668
 21
4089.859204196229
 31
0.0
  0
LINE
  5
197EF
330
747D
100
AcDbEntity
  8
細線
100
AcDbLine
 10
4810.673057123672
 20
4083.859204196229
 30
0.0
 11
4884.673057123668
 21
4083.859204196229
 31
0.0
  0
LINE
  5
197F0
330
747D
100
AcDbEntity
  8
細線
100
AcDbLine
 10
4810.673057123672
 20
4095.859204196229
 30
0.0
 11
4884.673057123668
 21
4095.859204196229
 31
0.0
  0
LINE
  5
197F1
330
747D
100
AcDbEntity
  8
細線
100
AcDbLine
 10
4958.673057123668
 20
4095.859204196229
 30
0.0
 11
4889.673057123669
 21
4095.859204196229
 31
0.0
  0
LINE
  5
197F2
330
747D
100
AcDbEntity
  8
細線
100
AcDbLine
 10
4958.673057123672
 20
4083.859204196229
 30
0.0
 11
4884.673057123668
 21
4083.859204196229
 31
0.0
  0
LINE
  5
197F3
330
747D
100
AcDbEntity
  8
細線
100
AcDbLine
 10
4958.673057123668
 20
4089.859204196229
 30
0.0
 11
4884.673057123668
 21
4089.859204196229
 31
0.0
  0
LINE
  5
197F4
330
747D
100
AcDbEntity
  8
細線
100
AcDbLine
 10
4958.673057123668
 20
4095.859204196229
 30
0.0
 11
4884.673057123668
 21
4095.859204196229
 31
0.0
  0
LINE
  5
197F5
330
747D
100
AcDbEntity
  8
部品1
 48
0.01
100
AcDbLine
 10
4796.673057123668
 20
4108.359204196228
 30
0.0
 11
4972.673057123668
 21
4108.359204196228
 31
0.0
  0
LINE
  5
197F6
330
747D
100
AcDbEntity
  8
部品1
 48
0.01
100
AcDbLine
 10
4974.673057123669
 20
4106.35920419623
 30
0.0
 11
4974.673057123669
 21
4074.859204196228
 31
0.0
  0
LINE
  5
197F7
330
747D
100
AcDbEntity
  8
部品1
 48
0.01
100
AcDbLine
 10
4972.673057123668
 20
4072.859204196229
 30
0.0
 11
4796.673057123672
 21
4072.859204196229
 31
0.0
  0
LINE
  5
197F8
330
747D
100
AcDbEntity
  8
部品1
 48
0.01
100
AcDbLine
 10
4794.673057123672
 20
4074.859204196228
 30
0.0
 11
4794.673057123668
 21
4106.35920419623
 31
0.0
  0
LINE
  5
197F9
330
747D
100
AcDbEntity
  8
細線
100
AcDbLine
 10
4958.673057123668
 20
4101.859204196229
 30
0.0
 11
4958.673057123668
 21
4078.85920419623
 31
0.0
  0
LINE
  5
197FA
330
747D
100
AcDbEntity
  8
細線
100
AcDbLine
 10
4810.673057123668
 20
4078.85920419623
 30
0.0
 11
4810.673057123668
 21
4101.859204196229
 31
0.0
  0
LINE
  5
197FB
330
747D
100
AcDbEntity
  8
細線
100
AcDbLine
 10
4810.673057123668
 20
4101.859204196229
 30
0.0
 11
4884.673057123668
 21
4101.859204196229
 31
0.0
  0
LINE
  5
197FC
330
747D
100
AcDbEntity
  8
細線
100
AcDbLine
 10
4958.673057123668
 20
4078.85920419623
 30
0.0
 11
4884.673057123668
 21
4078.85920419623
 31
0.0
  0
LINE
  5
197FD
330
747D
100
AcDbEntity
  8
細線
100
AcDbLine
 10
4884.673057123668
 20
4101.859204196229
 30
0.0
 11
4958.673057123668
 21
4101.859204196229
 31
0.0
  0
LINE
  5
197FE
330
747D
100
AcDbEntity
  8
細線
100
AcDbLine
 10
4884.673057123672
 20
4078.85920419623
 30
0.0
 11
4810.673057123668
 21
4078.85920419623
 31
0.0
  0
ARC
  5
197FF
330
747D
100
AcDbEntity
  8
部品1
 48
0.01
100
AcDbCircle
 10
4972.673057123668
 20
4106.35920419623
 30
0.0
 40
2.0
100
AcDbArc
 50
0.0
 51
90.0
  0
ARC
  5
19800
330
747D
100
AcDbEntity
  8
部品1
 48
0.01
100
AcDbCircle
 10
4972.673057123668
 20
4074.859204196228
 30
0.0
 40
2.0
100
AcDbArc
 50
270.0
 51
0.0
  0
ARC
  5
19801
330
747D
100
AcDbEntity
  8
部品1
 48
0.01
100
AcDbCircle
 10
4796.673057123668
 20
4106.35920419623
 30
0.0
 40
2.0
100
AcDbArc
 50
90.0
 51
180.0
  0
ARC
  5
19802
330
747D
100
AcDbEntity
  8
部品1
 48
0.01
100
AcDbCircle
 10
4796.673057123672
 20
4074.859204196228
 30
0.0
 40
2.0
100
AcDbArc
 50
180.0
 51
270.0
  0
LINE
  5
19803
330
747D
100
AcDbEntity
  8
部品1
 48
50.0
100
AcDbLine
 10
5374.673057123672
 20
3877.35920419623
 30
0.0
 11
5374.673057123672
 21
4136.359204196232
 31
0.0
  0
LINE
  5
19804
330
747D
100
AcDbEntity
  8
部品1
 48
50.0
100
AcDbLine
 10
5364.673057123672
 20
4136.359204196232
 30
0.0
 11
5364.67305712367
 21
4277.359204196232
 31
0.0
  0
LINE
  5
19805
330
747D
100
AcDbEntity
  8
部品1
100
AcDbLine
 10
7634.253396108339
 20
4269.962678800996
 30
0.0
 11
7633.11999877599
 21
4249.986550818397
 31
0.0
  0
LINE
  5
19806
330
747D
100
AcDbEntity
  8
細線
 48
50.0
100
AcDbLine
 10
7601.673057123669
 20
4277.359204196236
 30
0.0
 11
7601.673057123669
 21
4136.359204196236
 31
0.0
  0
LINE
  5
19807
330
747D
100
AcDbEntity
  8
部品1
100
AcDbLine
 10
7621.682978454413
 20
4154.329143651335
 30
0.0
 11
7621.038072647305
 21
4142.962678800995
 31
0.0
  0
LINE
  5
19808
330
747D
100
AcDbEntity
  8
部品1
100
AcDbLine
 10
7629.919008979261
 20
4246.529143651339
 30
0.0
 11
7624.88396825115
 21
4157.786550818393
 31
0.0
  0
ARC
  5
19809
330
747D
100
AcDbEntity
  8
部品1
 48
50.0
100
AcDbCircle
 10
7632.914191875447
 20
4246.359204196236
 30
0.0
 40
3.0
100
AcDbArc
 50
97.65812720736519
 51
176.7526572096653
  0
ARC
  5
1980A
330
747D
100
AcDbEntity
  8
部品1
 48
50.0
100
AcDbCircle
 10
7624.678161350603
 20
4154.159204196232
 30
0.0
 40
3.0
100
AcDbArc
 50
97.65812720736519
 51
176.7526572096653
  0
ARC
  5
1980B
330
747D
100
AcDbEntity
  8
部品1
 48
50.0
100
AcDbCircle
 10
7624.185092242043
 20
4157.826203357919
 30
0.0
 40
0.7
100
AcDbArc
 50
277.6581272073652
 51
356.7526572096653
  0
ARC
  5
1980C
330
747D
100
AcDbEntity
  8
部品1
 48
50.0
100
AcDbCircle
 10
7632.421122766882
 20
4250.02620335792
 30
0.0
 40
0.7
100
AcDbArc
 50
277.6581272073652
 51
356.7526572096653
  0
ARC
  5
1980D
330
747D
100
AcDbEntity
  8
部品1
100
AcDbCircle
 10
7614.049312556206
 20
4143.359204196236
 30
0.0
 40
7.0
100
AcDbArc
 50
270.0
 51
356.7526572096653
  0
ARC
  5
1980E
330
747D
100
AcDbEntity
  8
部品1
100
AcDbCircle
 10
7627.26463601724
 20
4270.359204196236
 30
0.0
 40
7.0
100
AcDbArc
 50
356.7526572096653
 51
90.0
  0
DIMENSION
  5
1980F
330
747D
100
AcDbEntity
  8
寸法
 48
50.0
100
AcDbDimension
  2
*D31
 10
7584.673057123673
 20
4683.085475928143
 30
0.0
 11
7948.158338497909
 21
4683.085475928143
 31
0.0
 70
   160
 71
     5
 42
49.99999999999636
  3
INABA_S40G
100
AcDbAlignedDimension
 13
7634.673057123669
 23
4277.359204196232
 33
0.0
 14
7584.673057123673
 24
4277.359204196236
 34
0.0
100
AcDbRotatedDimension
  0
LINE
  5
19810
330
747D
100
AcDbEntity
  8
部品1
100
AcDbLine
 10
3164.673057123668
 20
4042.359204196229
 30
0.0
 11
7584.673057123669
 21
4042.359204196227
 31
0.0
  0
LINE
  5
19811
330
747D
100
AcDbEntity
  8
部品1
 48
50.0
100
AcDbLine
 10
7627.26463601724
 20
4277.359204196232
 30
0.0
 11
3122.0814782301
 21
4277.359204196236
 31
0.0
  0
LINE
  5
19812
330
747D
100
AcDbEntity
  8
部品1
 48
50.0
100
AcDbLine
 10
7614.049312556206
 20
4136.359204196236
 30
0.0
 11
3135.296801691131
 21
4136.359204196236
 31
0.0
  0
LINE
  5
19813
330
747D
100
AcDbEntity
  8
細線
 48
50.0
100
AcDbLine
 10
7632.63351890224
 20
4249.359204196238
 30
0.0
 11
3116.712595345109
 21
4249.359204196233
 31
0.0
  0
LINE
  5
19814
330
747D
100
AcDbEntity
  8
細線
 48
50.0
100
AcDbLine
 10
7624.39748837736
 20
4157.159204196225
 30
0.0
 11
3124.948625869938
 21
4157.159204196235
 31
0.0
  0
LINE
  5
19815
330
747D
100
AcDbEntity
  8
細線
 48
50.0
100
AcDbLine
 10
3147.673057123668
 20
4277.359204196232
 30
0.0
 11
3147.673057123668
 21
4136.359204196232
 31
0.0
  0
ARC
  5
19816
330
747D
100
AcDbEntity
  8
部品1
100
AcDbCircle
 10
3122.0814782301
 20
4270.359204196233
 30
0.0
 40
7.0
100
AcDbArc
 50
90.0
 51
183.2473427903347
  0
ARC
  5
19817
330
747D
100
AcDbEntity
  8
部品1
100
AcDbCircle
 10
3135.296801691131
 20
4143.359204196236
 30
0.0
 40
7.0
100
AcDbArc
 50
183.2473427903347
 51
270.0
  0
ARC
  5
19818
330
747D
100
AcDbEntity
  8
部品1
 48
50.0
100
AcDbCircle
 10
3116.924991480459
 20
4250.02620335792
 30
0.0
 40
0.7
100
AcDbArc
 50
183.2473427903347
 51
262.3418727926349
  0
ARC
  5
19819
330
747D
100
AcDbEntity
  8
部品1
 48
50.0
100
AcDbCircle
 10
3125.161022005296
 20
4157.826203357916
 30
0.0
 40
0.7
100
AcDbArc
 50
183.2473427903347
 51
262.3418727926349
  0
ARC
  5
1981A
330
747D
100
AcDbEntity
  8
部品1
 48
50.0
100
AcDbCircle
 10
3124.667952896734
 20
4154.159204196232
 30
0.0
 40
3.0
100
AcDbArc
 50
3.24734279033473
 51
82.3418727926348
  0
ARC
  5
1981B
330
747D
100
AcDbEntity
  8
部品1
 48
50.0
100
AcDbCircle
 10
3116.431922371891
 20
4246.359204196236
 30
0.0
 40
3.0
100
AcDbArc
 50
3.24734279033473
 51
82.3418727926348
  0
LINE
  5
1981C
330
747D
100
AcDbEntity
  8
部品1
100
AcDbLine
 10
3119.427105268076
 20
4246.529143651335
 30
0.0
 11
3124.462145996191
 21
4157.786550818393
 31
0.0
  0
LINE
  5
1981D
330
747D
100
AcDbEntity
  8
部品1
100
AcDbLine
 10
3127.663135792927
 20
4154.329143651335
 30
0.0
 11
3128.308041600036
 21
4142.962678800995
 31
0.0
  0
LINE
  5
1981E
330
747D
100
AcDbEntity
  8
部品1
100
AcDbLine
 10
3115.092718138998
 20
4269.962678800996
 30
0.0
 11
3116.226115471347
 21
4249.986550818394
 31
0.0
  0
DIMENSION
  5
1981F
330
747D
100
AcDbEntity
  8
寸法
 48
50.0
100
AcDbDimension
  2
*D32
 10
3114.673057123668
 20
4683.085475928139
 30
0.0
 11
2801.187775749421
 21
4683.085475928139
 31
0.0
 70
   160
 71
     5
 42
50.0
  3
INABA_S40G
100
AcDbAlignedDimension
 13
3164.673057123668
 23
4277.359204196236
 33
0.0
 14
3114.673057123668
 24
4277.359204196236
 34
0.0
100
AcDbRotatedDimension
1001
ACAD
1000
DSTYLE
1002
{
1002
}
  0
DIMENSION
  5
19820
330
747D
100
AcDbEntity
  8
寸法
 48
50.0
100
AcDbDimension
  2
*D33
 10
7634.673057123669
 20
4882.994397142229
 30
0.0
 11
5374.673057123668
 21
4882.994397142229
 31
0.0
 70
   160
 71
     5
 42
4520.000000000002
  3
INABA_S40G
100
AcDbAlignedDimension
 13
3114.673057123668
 23
4277.359204196236
 33
0.0
 14
7634.673057123669
 24
4277.359204196232
 34
0.0
100
AcDbRotatedDimension
  0
DIMENSION
  5
19821
330
747D
100
AcDbEntity
  8
寸法
 48
50.0
100
AcDbDimension
  2
*D34
 10
3164.673057123668
 20
4683.085475928139
 30
0.0
 11
5374.673057123668
 21
4683.085475928139
 31
0.0
 70
   160
  1
柱外寸法<>
 71
     5
 42
4420.000000000005
  3
INABA_S40G
100
AcDbAlignedDimension
 13
7584.673057123673
 23
4277.359204196236
 33
0.0
 14
3164.673057123668
 24
4277.359204196236
 34
0.0
100
AcDbRotatedDimension
  0
LINE
  5
19822
330
747D
100
AcDbEntity
  8
部品1
100
AcDbLine
 10
3164.673057123668
 20
2202.359204196229
 30
0.0
 11
7584.673057123669
 21
2202.359204196229
 31
0.0
  0
LINE
  5
19823
330
747D
100
AcDbEntity
  8
部品1
100
AcDbLine
 10
3164.673057123669
 20
3877.35920419623
 30
0.0
 11
5429.673057123668
 21
3877.35920419623
 31
0.0
  0
LINE
  5
19824
330
747D
100
AcDbEntity
  8
細線
 48
50.0
100
AcDbLine
 10
3969.673057123667
 20
2779.85920419623
 30
0.0
 11
4069.673057123667
 21
2779.85920419623
 31
0.0
  0
LINE
  5
19825
330
747D
100
AcDbEntity
  8
細線
 48
50.0
100
AcDbLine
 10
4069.673057123667
 20
2749.859204196229
 30
0.0
 11
3969.673057123667
 21
2749.859204196229
 31
0.0
  0
LINE
  5
19826
330
747D
100
AcDbEntity
  8
細線
100
AcDbLine
 10
3267.673057123665
 20
2732.359204196229
 30
0.0
 11
5271.673057123667
 21
2732.359204196229
 31
0.0
  0
LINE
  5
19827
330
747D
100
AcDbEntity
  8
細線
100
AcDbLine
 10
3267.673057123665
 20
2667.359204196229
 30
0.0
 11
5271.673057123667
 21
2667.359204196229
 31
0.0
  0
LINE
  5
19828
330
747D
100
AcDbEntity
  8
細線
100
AcDbLine
 10
3267.673057123665
 20
2602.35920419623
 30
0.0
 11
5271.673057123667
 21
2602.35920419623
 31
0.0
  0
LINE
  5
19829
330
747D
100
AcDbEntity
  8
細線
100
AcDbLine
 10
3267.673057123665
 20
2537.35920419623
 30
0.0
 11
5271.673057123667
 21
2537.35920419623
 31
0.0
  0
LINE
  5
1982A
330
747D
100
AcDbEntity
  8
細線
100
AcDbLine
 10
3267.673057123665
 20
2472.359204196229
 30
0.0
 11
5271.673057123667
 21
2472.359204196229
 31
0.0
  0
LINE
  5
1982B
330
747D
100
AcDbEntity
  8
細線
100
AcDbLine
 10
3267.673057123665
 20
2407.359204196229
 30
0.0
 11
5271.673057123667
 21
2407.359204196229
 31
0.0
  0
LINE
  5
1982C
330
747D
100
AcDbEntity
  8
細線
100
AcDbLine
 10
3267.673057123665
 20
2342.359204196229
 30
0.0
 11
5271.673057123667
 21
2342.359204196229
 31
0.0
  0
LINE
  5
1982D
330
747D
100
AcDbEntity
  8
細線
100
AcDbLine
 10
3267.673057123665
 20
2277.359204196229
 30
0.0
 11
5271.673057123667
 21
2277.359204196229
 31
0.0
  0
LINE
  5
1982E
330
747D
100
AcDbEntity
  8
細線
100
AcDbLine
 10
3267.673057123665
 20
3382.359204196229
 30
0.0
 11
5271.673057123667
 21
3382.359204196229
 31
0.0
  0
LINE
  5
1982F
330
747D
100
AcDbEntity
  8
細線
100
AcDbLine
 10
3267.673057123665
 20
3317.359204196229
 30
0.0
 11
5271.673057123667
 21
3317.359204196229
 31
0.0
  0
LINE
  5
19830
330
747D
100
AcDbEntity
  8
細線
100
AcDbLine
 10
3267.673057123665
 20
3252.35920419623
 30
0.0
 11
5271.673057123667
 21
3252.35920419623
 31
0.0
  0
LINE
  5
19831
330
747D
100
AcDbEntity
  8
細線
100
AcDbLine
 10
3267.673057123665
 20
3187.359204196229
 30
0.0
 11
5271.673057123667
 21
3187.359204196229
 31
0.0
  0
LINE
  5
19832
330
747D
100
AcDbEntity
  8
細線
100
AcDbLine
 10
3267.673057123665
 20
3122.35920419623
 30
0.0
 11
5271.673057123667
 21
3122.35920419623
 31
0.0
  0
LINE
  5
19833
330
747D
100
AcDbEntity
  8
細線
100
AcDbLine
 10
3267.673057123665
 20
3057.35920419623
 30
0.0
 11
5271.673057123667
 21
3057.35920419623
 31
0.0
  0
LINE
  5
19834
330
747D
100
AcDbEntity
  8
細線
100
AcDbLine
 10
3267.673057123665
 20
2992.35920419623
 30
0.0
 11
5271.673057123667
 21
2992.35920419623
 31
0.0
  0
LINE
  5
19835
330
747D
100
AcDbEntity
  8
細線
100
AcDbLine
 10
3267.673057123665
 20
2927.359204196229
 30
0.0
 11
5271.673057123667
 21
2927.359204196229
 31
0.0
  0
LINE
  5
19836
330
747D
100
AcDbEntity
  8
細線
100
AcDbLine
 10
3267.673057123665
 20
2862.359204196229
 30
0.0
 11
5271.673057123667
 21
2862.359204196229
 31
0.0
  0
LINE
  5
19837
330
747D
100
AcDbEntity
  8
細線
100
AcDbLine
 10
3267.673057123665
 20
2797.359204196229
 30
0.0
 11
5271.673057123667
 21
2797.359204196229
 31
0.0
  0
LINE
  5
19838
330
747D
100
AcDbEntity
  8
細線
100
AcDbLine
 10
3267.673057123665
 20
3772.359204196229
 30
0.0
 11
5271.673057123667
 21
3772.359204196229
 31
0.0
  0
LINE
  5
19839
330
747D
100
AcDbEntity
  8
細線
100
AcDbLine
 10
3267.673057123665
 20
3707.359204196229
 30
0.0
 11
5271.673057123667
 21
3707.359204196229
 31
0.0
  0
LINE
  5
1983A
330
747D
100
AcDbEntity
  8
細線
100
AcDbLine
 10
3267.673057123665
 20
3642.35920419623
 30
0.0
 11
5271.673057123667
 21
3642.35920419623
 31
0.0
  0
LINE
  5
1983B
330
747D
100
AcDbEntity
  8
細線
100
AcDbLine
 10
3267.673057123665
 20
3577.35920419623
 30
0.0
 11
5271.673057123667
 21
3577.35920419623
 31
0.0
  0
LINE
  5
1983C
330
747D
100
AcDbEntity
  8
細線
100
AcDbLine
 10
3267.673057123665
 20
3512.359204196229
 30
0.0
 11
5271.673057123667
 21
3512.359204196229
 31
0.0
  0
LINE
  5
1983D
330
747D
100
AcDbEntity
  8
細線
100
AcDbLine
 10
3267.673057123665
 20
3447.359204196229
 30
0.0
 11
5271.673057123667
 21
3447.359204196229
 31
0.0
  0
LINE
  5
1983E
330
747D
100
AcDbEntity
  8
細線
100
AcDbLine
 10
3267.673057123665
 20
3837.359204196229
 30
0.0
 11
5271.673057123667
 21
3837.359204196229
 31
0.0
  0
ARC
  5
1983F
330
747D
100
AcDbEntity
  8
細線
 48
50.0
100
AcDbCircle
 10
3969.673057123667
 20
2764.859204196229
 30
0.0
 40
15.0
100
AcDbArc
 50
90.0
 51
270.0
  0
ARC
  5
19840
330
747D
100
AcDbEntity
  8
細線
 48
50.0
100
AcDbCircle
 10
4069.673057123667
 20
2764.859204196229
 30
0.0
 40
15.0
100
AcDbArc
 50
270.0
 51
90.0
  0
LINE
  5
19841
330
747D
100
AcDbEntity
  8
細線
 48
50.0
100
AcDbLine
 10
4569.673057123667
 20
2749.859204196229
 30
0.0
 11
4469.673057123666
 21
2749.859204196229
 31
0.0
  0
LINE
  5
19842
330
747D
100
AcDbEntity
  8
細線
 48
50.0
100
AcDbLine
 10
4469.673057123666
 20
2779.85920419623
 30
0.0
 11
4569.673057123667
 21
2779.85920419623
 31
0.0
  0
ARC
  5
19843
330
747D
100
AcDbEntity
  8
細線
 48
50.0
100
AcDbCircle
 10
4469.673057123666
 20
2764.859204196229
 30
0.0
 40
15.0
100
AcDbArc
 50
90.0
 51
270.0
  0
ARC
  5
19844
330
747D
100
AcDbEntity
  8
細線
 48
50.0
100
AcDbCircle
 10
4569.673057123667
 20
2764.859204196229
 30
0.0
 40
15.0
100
AcDbArc
 50
270.0
 51
90.0
  0
CIRCLE
  5
19845
330
747D
100
AcDbEntity
  8
細線
 48
50.0
100
AcDbCircle
 10
4269.673057123667
 20
3089.859204196229
 30
0.0
 40
18.0
  0
LINE
  5
19846
330
747D
100
AcDbEntity
  8
細線
100
AcDbLine
 10
5271.673057123669
 20
2212.359204196229
 30
0.0
 11
3267.673057123663
 21
2212.359204196229
 31
0.0
  0
LINE
  5
1984B
330
747D
100
AcDbEntity
  8
部品1
100
AcDbLine
 10
5429.673057123668
 20
3877.35920419623
 30
0.0
 11
7584.673057123669
 21
3877.359204196229
 31
0.0
  0
LINE
  5
1984C
330
747D
100
AcDbEntity
  8
部品1
100
AcDbLine
 10
5429.673057123668
 20
3877.35920419623
 30
0.0
 11
5429.673057123668
 21
2202.359204196229
 31
0.0
  0
LINE
  5
1984D
330
747D
100
AcDbEntity
  8
破線
 48
5.0
100
AcDbLine
 10
5429.673057123668
 20
2202.359204196229
 30
0.0
 11
5429.673057123668
 21
1927.359204196229
 31
0.0
  0
LINE
  5
1984E
330
747D
100
AcDbEntity
  8
破線
 48
5.0
100
AcDbLine
 10
5477.673057123666
 20
1952.359204196235
 30
0.0
 11
5429.673057123666
 21
1952.359204196235
 31
0.0
  0
LINE
  5
1984F
330
747D
100
AcDbEntity
  8
破線
 48
5.0
100
AcDbLine
 10
5477.673057123668
 20
2202.359204196229
 30
0.0
 11
5477.673057123666
 21
1952.359204196234
 31
0.0
  0
LINE
  5
19850
330
747D
100
AcDbEntity
  8
部品1
100
AcDbLine
 10
5477.673057123668
 20
3877.35920419623
 30
0.0
 11
5477.673057123668
 21
2202.359204196229
 31
0.0
  0
LINE
  5
19851
330
747D
100
AcDbEntity
  8
破線
 48
5.0
100
AcDbLine
 10
5429.673057123666
 20
1927.359204196229
 30
0.0
 11
5319.673057123669
 21
1927.359204196229
 31
0.0
  0
LINE
  5
19852
330
747D
100
AcDbEntity
  8
破線
 48
5.0
100
AcDbLine
 10
5319.673057123667
 20
2202.359204196229
 30
0.0
 11
5319.673057123669
 21
1927.359204196229
 31
0.0
  0
LINE
  5
19853
330
747D
100
AcDbEntity
  8
破線
 48
5.0
100
AcDbLine
 10
5319.673057123671
 20
1952.359204196229
 30
0.0
 11
5271.673057123669
 21
1952.359204196229
 31
0.0
  0
LINE
  5
19854
330
747D
100
AcDbEntity
  8
破線
 48
5.0
100
AcDbLine
 10
5271.673057123667
 20
2202.359204196229
 30
0.0
 11
5271.673057123667
 21
1952.359204196229
 31
0.0
  0
LINE
  5
19855
330
747D
100
AcDbEntity
  8
部品1
100
AcDbLine
 10
5319.673057123669
 20
3877.35920419623
 30
0.0
 11
5319.673057123667
 21
2202.359204196229
 31
0.0
  0
LINE
  5
19856
330
747D
100
AcDbEntity
  8
部品1
100
AcDbLine
 10
5271.67305712367
 20
3877.35920419623
 30
0.0
 11
5271.673057123667
 21
2202.359204196229
 31
0.0
  0
ARC
  5
19857
330
747D
100
AcDbEntity
  8
細線
 48
50.0
100
AcDbCircle
 10
6179.673057123666
 20
2764.859204196229
 30
0.0
 40
15.0
100
AcDbArc
 50
90.0
 51
270.0
  0
ARC
  5
19858
330
747D
100
AcDbEntity
  8
細線
 48
50.0
100
AcDbCircle
 10
6279.673057123666
 20
2764.859204196229
 30
0.0
 40
15.0
100
AcDbArc
 50
270.0
 51
90.0
  0
LINE
  5
19859
330
747D
100
AcDbEntity
  8
細線
 48
50.0
100
AcDbLine
 10
6179.673057123666
 20
2779.85920419623
 30
0.0
 11
6279.673057123666
 21
2779.85920419623
 31
0.0
  0
LINE
  5
1985A
330
747D
100
AcDbEntity
  8
細線
 48
50.0
100
AcDbLine
 10
6279.673057123666
 20
2749.859204196229
 30
0.0
 11
6179.673057123666
 21
2749.859204196229
 31
0.0
  0
LINE
  5
1985B
330
747D
100
AcDbEntity
  8
細線
 48
50.0
100
AcDbLine
 10
6779.673057123666
 20
2749.859204196229
 30
0.0
 11
6679.673057123666
 21
2749.859204196229
 31
0.0
  0
LINE
  5
1985C
330
747D
100
AcDbEntity
  8
細線
 48
50.0
100
AcDbLine
 10
6679.673057123666
 20
2779.85920419623
 30
0.0
 11
6779.673057123666
 21
2779.85920419623
 31
0.0
  0
ARC
  5
1985D
330
747D
100
AcDbEntity
  8
細線
 48
50.0
100
AcDbCircle
 10
6679.673057123666
 20
2764.859204196229
 30
0.0
 40
15.0
100
AcDbArc
 50
90.0
 51
270.0
  0
ARC
  5
1985E
330
747D
100
AcDbEntity
  8
細線
 48
50.0
100
AcDbCircle
 10
6779.673057123666
 20
2764.859204196229
 30
0.0
 40
15.0
100
AcDbArc
 50
270.0
 51
90.0
  0
CIRCLE
  5
1985F
330
747D
100
AcDbEntity
  8
細線
 48
50.0
100
AcDbCircle
 10
6479.673057123666
 20
3089.859204196229
 30
0.0
 40
18.0
  0
LINE
  5
19863
330
747D
100
AcDbEntity
  8
細線
100
AcDbLine
 10
7481.673057123669
 20
2212.359204196229
 30
0.0
 11
5477.673057123663
 21
2212.359204196229
 31
0.0
  0
LINE
  5
19864
330
747D
100
AcDbEntity
  8
細線
100
AcDbLine
 10
5477.673057123665
 20
2732.359204196229
 30
0.0
 11
7481.673057123668
 21
2732.359204196229
 31
0.0
  0
LINE
  5
19865
330
747D
100
AcDbEntity
  8
細線
100
AcDbLine
 10
5477.673057123665
 20
2667.359204196229
 30
0.0
 11
7481.673057123668
 21
2667.359204196229
 31
0.0
  0
LINE
  5
19866
330
747D
100
AcDbEntity
  8
細線
100
AcDbLine
 10
5477.673057123665
 20
2602.35920419623
 30
0.0
 11
7481.673057123668
 21
2602.35920419623
 31
0.0
  0
LINE
  5
19867
330
747D
100
AcDbEntity
  8
細線
100
AcDbLine
 10
5477.673057123665
 20
2537.35920419623
 30
0.0
 11
7481.673057123668
 21
2537.35920419623
 31
0.0
  0
LINE
  5
19868
330
747D
100
AcDbEntity
  8
細線
100
AcDbLine
 10
5477.673057123665
 20
2472.359204196229
 30
0.0
 11
7481.673057123668
 21
2472.359204196229
 31
0.0
  0
LINE
  5
19869
330
747D
100
AcDbEntity
  8
細線
100
AcDbLine
 10
5477.673057123665
 20
2407.359204196229
 30
0.0
 11
7481.673057123668
 21
2407.359204196229
 31
0.0
  0
LINE
  5
1986A
330
747D
100
AcDbEntity
  8
細線
100
AcDbLine
 10
5477.673057123665
 20
2342.359204196229
 30
0.0
 11
7481.673057123668
 21
2342.359204196229
 31
0.0
  0
LINE
  5
1986B
330
747D
100
AcDbEntity
  8
細線
100
AcDbLine
 10
5477.673057123665
 20
2277.359204196229
 30
0.0
 11
7481.673057123668
 21
2277.359204196229
 31
0.0
  0
LINE
  5
1986C
330
747D
100
AcDbEntity
  8
細線
100
AcDbLine
 10
5477.673057123665
 20
2212.359204196229
 30
0.0
 11
7481.673057123668
 21
2212.359204196229
 31
0.0
  0
LINE
  5
1986D
330
747D
100
AcDbEntity
  8
細線
100
AcDbLine
 10
5477.673057123665
 20
3382.359204196229
 30
0.0
 11
7481.673057123668
 21
3382.359204196229
 31
0.0
  0
LINE
  5
1986E
330
747D
100
AcDbEntity
  8
細線
100
AcDbLine
 10
5477.673057123665
 20
3317.359204196229
 30
0.0
 11
7481.673057123668
 21
3317.359204196229
 31
0.0
  0
LINE
  5
1986F
330
747D
100
AcDbEntity
  8
細線
100
AcDbLine
 10
5477.673057123665
 20
3252.35920419623
 30
0.0
 11
7481.673057123668
 21
3252.35920419623
 31
0.0
  0
LINE
  5
19870
330
747D
100
AcDbEntity
  8
細線
100
AcDbLine
 10
5477.673057123665
 20
3187.359204196229
 30
0.0
 11
7481.673057123668
 21
3187.359204196229
 31
0.0
  0
LINE
  5
19871
330
747D
100
AcDbEntity
  8
細線
100
AcDbLine
 10
5477.673057123665
 20
3122.35920419623
 30
0.0
 11
7481.673057123668
 21
3122.35920419623
 31
0.0
  0
LINE
  5
19872
330
747D
100
AcDbEntity
  8
細線
100
AcDbLine
 10
5477.673057123665
 20
3057.35920419623
 30
0.0
 11
7481.673057123668
 21
3057.35920419623
 31
0.0
  0
LINE
  5
19873
330
747D
100
AcDbEntity
  8
細線
100
AcDbLine
 10
5477.673057123665
 20
2992.35920419623
 30
0.0
 11
7481.673057123668
 21
2992.35920419623
 31
0.0
  0
LINE
  5
19874
330
747D
100
AcDbEntity
  8
細線
100
AcDbLine
 10
5477.673057123665
 20
2927.359204196229
 30
0.0
 11
7481.673057123668
 21
2927.359204196229
 31
0.0
  0
LINE
  5
19875
330
747D
100
AcDbEntity
  8
細線
100
AcDbLine
 10
5477.673057123665
 20
2862.359204196229
 30
0.0
 11
7481.673057123668
 21
2862.359204196229
 31
0.0
  0
LINE
  5
19876
330
747D
100
AcDbEntity
  8
細線
100
AcDbLine
 10
5477.673057123665
 20
2797.359204196229
 30
0.0
 11
7481.673057123668
 21
2797.359204196229
 31
0.0
  0
LINE
  5
19877
330
747D
100
AcDbEntity
  8
細線
100
AcDbLine
 10
5477.673057123665
 20
3772.359204196229
 30
0.0
 11
7481.673057123668
 21
3772.359204196229
 31
0.0
  0
LINE
  5
19878
330
747D
100
AcDbEntity
  8
細線
100
AcDbLine
 10
5477.673057123665
 20
3707.359204196229
 30
0.0
 11
7481.673057123668
 21
3707.359204196229
 31
0.0
  0
LINE
  5
19879
330
747D
100
AcDbEntity
  8
細線
100
AcDbLine
 10
5477.673057123665
 20
3642.35920419623
 30
0.0
 11
7481.673057123668
 21
3642.35920419623
 31
0.0
  0
LINE
  5
1987A
330
747D
100
AcDbEntity
  8
細線
100
AcDbLine
 10
5477.673057123665
 20
3577.35920419623
 30
0.0
 11
7481.673057123668
 21
3577.35920419623
 31
0.0
  0
LINE
  5
1987B
330
747D
100
AcDbEntity
  8
細線
100
AcDbLine
 10
5477.673057123665
 20
3512.359204196229
 30
0.0
 11
7481.673057123668
 21
3512.359204196229
 31
0.0
  0
LINE
  5
1987C
330
747D
100
AcDbEntity
  8
細線
100
AcDbLine
 10
5477.673057123665
 20
3447.359204196229
 30
0.0
 11
7481.673057123668
 21
3447.359204196229
 31
0.0
  0
LINE
  5
1987D
330
747D
100
AcDbEntity
  8
細線
100
AcDbLine
 10
5477.673057123665
 20
3837.359204196229
 30
0.0
 11
7481.673057123668
 21
3837.359204196229
 31
0.0
  0
LINE
  5
1987E
330
747D
100
AcDbEntity
  8
破線
 48
5.0
100
AcDbLine
 10
3267.673057123667
 20
1952.359204196235
 30
0.0
 11
3219.673057123667
 21
1952.359204196235
 31
0.0
  0
LINE
  5
1987F
330
747D
100
AcDbEntity
  8
破線
 48
5.0
100
AcDbLine
 10
7529.67305712367
 20
1952.359204196229
 30
0.0
 11
7481.673057123669
 21
1952.359204196229
 31
0.0
  0
LINE
  5
19880
330
747D
100
AcDbEntity
  8
破線
 48
5.0
100
AcDbLine
 10
7481.673057123668
 20
2202.359204196229
 30
0.0
 11
7481.673057123669
 21
1952.359204196229
 31
0.0
  0
LINE
  5
19881
330
747D
100
AcDbEntity
  8
部品1
100
AcDbLine
 10
7481.67305712367
 20
3877.35920419623
 30
0.0
 11
7481.673057123668
 21
2202.359204196229
 31
0.0
  0
LINE
  5
19882
330
747D
100
AcDbEntity
  8
破線
 48
5.0
100
AcDbLine
 10
3267.673057123669
 20
2202.359204196229
 30
0.0
 11
3267.673057123667
 21
1952.359204196234
 31
0.0
  0
LINE
  5
19883
330
747D
100
AcDbEntity
  8
部品1
100
AcDbLine
 10
3267.673057123669
 20
3877.35920419623
 30
0.0
 11
3267.673057123669
 21
2202.359204196229
 31
0.0
  0
LINE
  5
19884
330
747D
100
AcDbEntity
  8
破線
 48
5.0
100
AcDbLine
 10
3219.673057123667
 20
1852.359204196236
 30
0.0
 11
3164.673057123667
 21
1852.359204196236
 31
0.0
  0
LINE
  5
19885
330
747D
100
AcDbEntity
  8
破線
 48
5.0
100
AcDbLine
 10
7584.673057123666
 20
1852.359204196229
 30
0.0
 11
7529.67305712367
 21
1852.359204196229
 31
0.0
  0
LINE
  5
19886
330
747D
100
AcDbEntity
  8
破線
 48
5.0
100
AcDbLine
 10
3219.673057123669
 20
2202.359204196229
 30
0.0
 11
3219.673057123667
 21
1852.359204196229
 31
0.0
  0
LINE
  5
19887
330
747D
100
AcDbEntity
  8
破線
 48
5.0
100
AcDbLine
 10
7529.673057123666
 20
2202.359204196229
 30
0.0
 11
7529.67305712367
 21
1852.359204196229
 31
0.0
  0
LWPOLYLINE
  5
19888
330
747D
100
AcDbEntity
  8
部品1
100
AcDbPolyline
 90
        4
 70
     1
 43
0.0
 10
4992.937724009435
 20
1452.359204196229
 10
4992.937724009435
 20
1212.466882650697
 10
5756.408390237873
 20
1212.466882650697
 10
5756.408390237873
 20
1452.359204196229
  0
TEXT
  5
19889
330
747D
100
AcDbEntity
  8
部品1
100
AcDbText
 10
5083.46312774739
 20
1259.465674977706
 30
0.0
 40
135.0
  1
正面図
  7
MSGOTHIC
100
AcDbText
  0
LINE
  5
1988B
330
747D
100
AcDbEntity
  8
破線
 48
5.0
100
AcDbLine
 10
3164.673057123668
 20
2102.359204196229
 30
0.0
 11
3164.673057123667
 21
1852.359204196229
 31
0.0
  0
LINE
  5
1988C
330
747D
100
AcDbEntity
  8
破線
 48
5.0
100
AcDbLine
 10
7584.673057123669
 20
2102.359204196229
 30
0.0
 11
7584.673057123669
 21
1852.359204196229
 31
0.0
  0
LINE
  5
19893
330
747D
100
AcDbEntity
  8
部品1
100
AcDbLine
 10
7584.673057123669
 20
4136.359204196238
 30
0.0
 11
7584.673057123669
 21
2102.359204196229
 31
0.0
  0
LINE
  5
19894
330
747D
100
AcDbEntity
  8
部品1
100
AcDbLine
 10
3219.673057123669
 20
3877.35920419623
 30
0.0
 11
3219.673057123669
 21
2202.359204196229
 31
0.0
  0
LINE
  5
19895
330
747D
100
AcDbEntity
  8
部品1
100
AcDbLine
 10
7529.67305712367
 20
3877.35920419623
 30
0.0
 11
7529.673057123666
 21
2202.359204196229
 31
0.0
  0
LINE
  5
19896
330
747D
100
AcDbEntity
  8
部品1
100
AcDbLine
 10
3164.673057123668
 20
4136.359204196236
 30
0.0
 11
3164.673057123668
 21
2102.359204196229
 31
0.0
  0
DIMENSION
  5
19F98
330
747D
100
AcDbEntity
  8
寸法
 48
50.0
100
AcDbDimension
  2
*D35
 10
7872.216159445416
 20
4042.359204196229
 30
0.0
 11
7872.216159445414
 21
4280.844485570468
 31
0.0
 70
   160
 71
     5
 42
164.9999999999991
  3
INABA_S40G
100
AcDbAlignedDimension
 13
7584.673057123669
 23
3877.35920419623
 33
0.0
 14
7584.673057123669
 24
4042.359204196229
 34
0.0
 50
90.0
100
AcDbRotatedDimension
1001
ACAD
1000
DSTYLE
1002
{
1002
}
  0
DIMENSION
  5
19F99
330
747D
100
AcDbEntity
  8
寸法
 48
50.0
100
AcDbDimension
  2
*D36
 10
7872.216159445414
 20
3877.35920419623
 30
0.0
 11
8012.38598269178
 21
3878.326404035888
 31
0.0
 70
   160
 71
     5
 42
27.00000000000091
  3
INABA_S40G
100
AcDbAlignedDimension
 13
7584.673057123669
 23
3850.359204196229
 33
0.0
 14
7584.673057123669
 24
3877.35920419623
 34
0.0
 50
90.0
100
AcDbRotatedDimension
1001
ACAD
1000
DSTYLE
1002
{
1070
   279
1070
     2
1002
}
  0
DIMENSION
  5
19F9A
330
747D
100
AcDbEntity
  8
寸法
 48
50.0
100
AcDbDimension
  2
*D37
 10
7872.216159445414
 20
3850.359204196229
 30
0.0
 11
7772.216159445413
 21
3026.359204196231
 31
0.0
 70
    32
  1
有効開口部高サ <>
 71
     5
 42
1648.0
  3
INABA_S40G
100
AcDbAlignedDimension
 13
7584.673057123669
 23
2202.359204196229
 33
0.0
 14
7584.673057123669
 24
3850.359204196229
 34
0.0
 50
90.0
100
AcDbRotatedDimension
  0
LINE
  5
1A0C1
330
747D
100
AcDbEntity
  8
仕様書枠
 48
50.0
100
AcDbLine
 10
16307.19999999999
 20
8689.6
 30
0.0
 11
13127.19999999999
 21
8689.600000000003
 31
0.0
  0
TEXT
  5
1A0C8
330
747D
100
AcDbEntity
  8
文字
 62
     7
 48
50.0
100
AcDbText
 10
15022.63965474517
 20
10760.01374588372
 30
0.0
 40
100.0
  1
F12         1.0,1.2
  7
STYLE1
100
AcDbText
  0
TEXT
  5
1A0CB
330
747D
100
AcDbEntity
  8
文字
 62
     7
 48
50.0
100
AcDbText
 10
15022.63965474516
 20
9060.013745883727
 30
0.0
 40
100.0
  1
F12            0.7
  7
STYLE1
100
AcDbText
  0
LINE
  5
1A0CD
330
747D
100
AcDbEntity
  8
破線
 48
5.0
100
AcDbLine
 10
5374.673057123668
 20
1927.359204196229
 30
0.0
 11
5374.673057123668
 21
1852.359204196229
 31
0.0
  0
LINE
  5
1A0CE
330
747D
100
AcDbEntity
  8
破線
 48
5.0
100
AcDbLine
 10
5324.673057123668
 20
1852.359204196229
 30
0.0
 11
5424.673057123667
 21
1852.359204196229
 31
0.0
  0
ENDSEC
  0
SECTION
  2
OBJECTS
  0
DICTIONARY
  5
7471
330
0
100
AcDbDictionary
281
     1
  3
ACAD_COLOR
350
17AE2
  3
ACAD_GROUP
350
7472
  3
ACAD_LAYOUT
350
17AE3
  3
ACAD_MATERIAL
350
17AE1
  3
ACAD_MLINESTYLE
350
7473
  3
ACAD_PLOTSETTINGS
350
17AE4
  3
ACAD_PLOTSTYLENAME
350
17ADF
  3
ACDBHEADERROUNDTRIPXREC
350
1A132
  3
AcDbVariableDictionary
350
1A12E
  3
CONTENTDICTIONARY
350
E71C
  3
DRAWINGVARIABLESDICT
350
F3B9
  0
DICTIONARY
  5
18CF7
330
7467
100
AcDbDictionary
280
     1
281
     1
  3
ACAD_LAYERSTATES
360
18CF8
  0
DICTIONARY
  5
17AE2
102
{ACAD_REACTORS
330
7471
102
}
330
7471
100
AcDbDictionary
281
     1
  0
DICTIONARY
  5
7472
102
{ACAD_REACTORS
330
7471
102
}
330
7471
100
AcDbDictionary
281
     1
  3
*A1
350
17FA7
  3
*A2
350
180C7
  3
*A3
350
180D2
  0
DICTIONARY
  5
17AE3
102
{ACAD_REACTORS
330
7471
102
}
330
7471
100
AcDbDictionary
281
     1
  3
Model
350
17AE5
  3
レイアウト1
350
17AE6
  0
DICTIONARY
  5
17AE1
102
{ACAD_REACTORS
330
7471
102
}
330
7471
100
AcDbDictionary
281
     1
  0
DICTIONARY
  5
7473
102
{ACAD_REACTORS
330
7471
102
}
330
7471
100
AcDbDictionary
281
     1
  3
STANDARD
350
7480
  0
DICTIONARY
  5
17AE4
102
{ACAD_REACTORS
330
7471
102
}
330
7471
100
AcDbDictionary
281
     1
  0
ACDBDICTIONARYWDFLT
  5
17ADF
102
{ACAD_REACTORS
330
7471
102
}
330
7471
100
AcDbDictionary
281
     1
  3
Normal
350
17AE0
100
AcDbDictionaryWithDefault
340
17AE0
  0
DICTIONARY
  5
1A132
102
{ACAD_REACTORS
330
7471
102
}
330
7471
100
AcDbDictionary
281
     1
  3
COLORDICT
350
1A134
  3
MATERIALDICT
350
1A133
  0
DICTIONARY
  5
1A12E
102
{ACAD_REACTORS
330
7471
102
}
330
7471
100
AcDbDictionary
281
     1
  3
DIMASSOC
350
1A12F
  3
PROJECTNAME
350
1A130
  0
DICTIONARY
  5
E71C
102
{ACAD_REACTORS
330
7471
102
}
330
7471
100
AcDbDictionary
281
     1
  0
DICTIONARY
  5
F3B9
102
{ACAD_REACTORS
330
7471
102
}
330
7471
100
AcDbDictionary
281
     1
1001
DRAWINGVARIABLESXDATA
1000
POLARMODE
1000
1
  0
DICTIONARY
  5
18CF8
102
{ACAD_REACTORS
330
18CF7
102
}
330
18CF7
100
AcDbDictionary
281
     1
  0
GROUP
  5
17FA7
102
{ACAD_REACTORS
330
7472
102
}
330
7472
100
AcDbGroup
300

 70
     1
 71
     1
  0
GROUP
  5
180C7
102
{ACAD_REACTORS
330
7472
102
}
330
7472
100
AcDbGroup
300

 70
     1
 71
     1
  0
GROUP
  5
180D2
102
{ACAD_REACTORS
330
7472
102
}
330
7472
100
AcDbGroup
300

 70
     1
 71
     1
  0
LAYOUT
  5
17AE5
102
{ACAD_XDICTIONARY
360
1A135
102
}
102
{ACAD_REACTORS
330
17AE3
102
}
330
17AE3
100
AcDbPlotSettings
  1

  2
Canon iR C3880/C4580 LIPSLX
  4
A3
  6

 40
5.873749732971191
 41
5.873747825622558
 42
5.873748779296875
 43
5.873748779296875
 44
296.9259948730469
 45
419.9466552734374
 46
0.0
 47
0.0
 48
0.0
 49
0.0
140
0.0
141
0.0
142
1.0
143
40.0
 70
 11952
 72
     1
 73
     1
 74
     2
  7
inaba.ctb
 75
    24
147
0.025
148
0.0
149
0.0
100
AcDbLayout
  1
Model
 70
     1
 71
     0
 10
0.0
 20
0.0
 11
12.0
 21
9.0
 12
0.0
 22
0.0
 32
0.0
 14
0.0
 24
0.0
 34
0.0
 15
0.0
 25
0.0
 35
0.0
146
0.0
 13
0.0
 23
0.0
 33
0.0
 16
1.0
 26
0.0
 36
0.0
 17
0.0
 27
1.0
 37
0.0
 76
     0
330
747D
  0
LAYOUT
  5
17AE6
102
{ACAD_XDICTIONARY
360
1A137
102
}
102
{ACAD_REACTORS
330
17AE3
102
}
330
17AE3
100
AcDbPlotSettings
  1

  2
EPSON LP-8300
  4

  6

 40
0.0
 41
0.0
 42
0.0
 43
0.0
 44
0.0
 45
0.0
 46
0.0
 47
0.0
 48
0.0
 49
0.0
140
0.0
141
0.0
142
1.0
143
1.0
 70
   688
 72
     0
 73
     0
 74
     5
  7
inaba.ctb
 75
    16
147
1.0
148
0.0
149
0.0
100
AcDbLayout
  1
レイアウト1
 70
     0
 71
     1
 10
0.0
 20
0.0
 11
420.0
 21
297.0
 12
0.0
 22
0.0
 32
0.0
 14
1.000000000000000E+20
 24
1.000000000000000E+20
 34
1.000000000000000E+20
 15
-1.000000000000000E+20
 25
-1.000000000000000E+20
 35
-1.000000000000000E+20
146
0.0
 13
0.0
 23
0.0
 33
0.0
 16
1.0
 26
0.0
 36
0.0
 17
0.0
 27
1.0
 37
0.0
 76
     0
330
747A
  0
MLINESTYLE
  5
7480
102
{ACAD_REACTORS
330
7473
102
}
330
7473
100
AcDbMlineStyle
  2
STANDARD
 70
     0
  3

 62
     0
 51
90.0
 52
90.0
 71
     2
 49
0.5
 62
   256
  6
BYLAYER
 49
-0.5
 62
   256
  6
BYLAYER
  0
ACDBPLACEHOLDER
  5
17AE0
102
{ACAD_REACTORS
330
17ADF
102
}
330
17ADF
  0
XRECORD
  5
1A134
102
{ACAD_REACTORS
330
1A132
102
}
330
1A132
100
AcDbXrecord
280
     1
340
17AE2
  0
XRECORD
  5
1A133
102
{ACAD_REACTORS
330
1A132
102
}
330
1A132
100
AcDbXrecord
280
     1
340
17AE1
  0
DICTIONARYVAR
  5
1A12F
102
{ACAD_REACTORS
330
1A12E
102
}
330
1A12E
100
DictionaryVariables
280
     0
  1
1
  0
DICTIONARYVAR
  5
1A130
102
{ACAD_REACTORS
330
1A12E
102
}
330
1A12E
100
DictionaryVariables
280
     0
  1

  0
DICTIONARY
  5
1A135
330
17AE5
100
AcDbDictionary
280
     1
281
     1
  3
ACAD_XREC_ROUNDTRIP
360
1A136
  0
DICTIONARY
  5
1A137
330
17AE6
100
AcDbDictionary
280
     1
281
     1
  3
ACAD_XREC_ROUNDTRIP
360
1A138
  0
XRECORD
  5
1A136
102
{ACAD_REACTORS
330
1A135
102
}
330
1A135
100
AcDbXrecord
280
     1
102
SHADEPLOT
 70
     0
102
SHADEPLOTRESLEVEL
 70
     2
102
SHADEPLOTCUSTOMDPI
 70
   300
  0
XRECORD
  5
1A138
102
{ACAD_REACTORS
330
1A137
102
}
330
1A137
100
AcDbXrecord
280
     1
102
SHADEPLOT
 70
     0
102
SHADEPLOTRESLEVEL
 70
     2
102
SHADEPLOTCUSTOMDPI
 70
   300
  0
ENDSEC
  0
EOF
