  0
SECTION
  2
HEADER
  9
$ACADVER
  1
AC1015
  9
$ACADMAINTVER
 70
    20
  9
$DWGCODEPAGE
  3
ANSI_932
  9
$INSBASE
 10
0.0
 20
0.0
 30
0.0
  9
$EXTMIN
 10
139.9999999999995
 20
-0.0000000000000909
 30
0.0
  9
$EXTMAX
 10
16307.20000000001
 20
11409.6
 30
0.0
  9
$LIMMIN
 10
0.0
 20
0.0
  9
$LIMMAX
 10
16800.0
 20
11880.0
  9
$ORTHOMODE
 70
     0
  9
$REGENMODE
 70
     1
  9
$FILLMODE
 70
     1
  9
$QTEXTMODE
 70
     0
  9
$MIRRTEXT
 70
     1
  9
$LTSCALE
 40
20.0
  9
$ATTMODE
 70
     1
  9
$TEXTSIZE
 40
4.0
  9
$TRACEWID
 40
1.0
  9
$TEXTSTYLE
  7
MSPゴシック
  9
$CLAYER
  8
寸法
  9
$CELTYPE
  6
BYLAYER
  9
$CECOLOR
 62
   256
  9
$CELTSCALE
 40
50.0
  9
$DISPSILH
 70
     0
  9
$DIMSCALE
 40
40.0
  9
$DIMASZ
 40
2.5
  9
$DIMEXO
 40
0.5
  9
$DIMDLI
 40
7.0
  9
$DIMRND
 40
0.0
  9
$DIMDLE
 40
0.0
  9
$DIMEXE
 40
1.5
  9
$DIMTP
 40
0.0
  9
$DIMTM
 40
0.0
  9
$DIMTXT
 40
3.0
  9
$DIMCEN
 40
0.0
  9
$DIMTSZ
 40
0.0
  9
$DIMTOL
 70
     0
  9
$DIMLIM
 70
     0
  9
$DIMTIH
 70
     0
  9
$DIMTOH
 70
     0
  9
$DIMSE1
 70
     0
  9
$DIMSE2
 70
     0
  9
$DIMTAD
 70
     3
  9
$DIMZIN
 70
     8
  9
$DIMBLK
  1

  9
$DIMASO
 70
     1
  9
$DIMSHO
 70
     1
  9
$DIMPOST
  1

  9
$DIMAPOST
  1

  9
$DIMALT
 70
     0
  9
$DIMALTD
 70
     2
  9
$DIMALTF
 40
0.0394
  9
$DIMLFAC
 40
1.0
  9
$DIMTOFL
 70
     1
  9
$DIMTVP
 40
0.0
  9
$DIMTIX
 70
     1
  9
$DIMSOXD
 70
     0
  9
$DIMSAH
 70
     1
  9
$DIMBLK1
  1
DOTSMALL
  9
$DIMBLK2
  1
DOTSMALL
  9
$DIMSTYLE
  2
INABA_S40G
  9
$DIMCLRD
 70
     0
  9
$DIMCLRE
 70
     0
  9
$DIMCLRT
 70
     7
  9
$DIMTFAC
 40
1.0
  9
$DIMGAP
 40
1.0
  9
$DIMJUST
 70
     0
  9
$DIMSD1
 70
     0
  9
$DIMSD2
 70
     0
  9
$DIMTOLJ
 70
     1
  9
$DIMTZIN
 70
     0
  9
$DIMALTZ
 70
     0
  9
$DIMALTTZ
 70
     0
  9
$DIMUPT
 70
     0
  9
$DIMDEC
 70
     1
  9
$DIMTDEC
 70
     4
  9
$DIMALTU
 70
     2
  9
$DIMALTTD
 70
     2
  9
$DIMTXSTY
  7
STYLE1
  9
$DIMAUNIT
 70
     0
  9
$DIMADEC
 70
     0
  9
$DIMALTRND
 40
0.0
  9
$DIMAZIN
 70
     0
  9
$DIMDSEP
 70
    46
  9
$DIMATFIT
 70
     3
  9
$DIMFRAC
 70
     0
  9
$DIMLDRBLK
  1

  9
$DIMLUNIT
 70
     2
  9
$DIMLWD
 70
    -2
  9
$DIMLWE
 70
    -2
  9
$DIMTMOVE
 70
     2
  9
$LUNITS
 70
     2
  9
$LUPREC
 70
     1
  9
$SKETCHINC
 40
1.0
  9
$FILLETRAD
 40
3.0
  9
$AUNITS
 70
     0
  9
$AUPREC
 70
     0
  9
$MENU
  1
acad
  9
$ELEVATION
 40
0.0
  9
$PELEVATION
 40
0.0
  9
$THICKNESS
 40
0.0
  9
$LIMCHECK
 70
     0
  9
$CHAMFERA
 40
0.0
  9
$CHAMFERB
 40
0.0
  9
$CHAMFERC
 40
0.0
  9
$CHAMFERD
 40
0.0
  9
$SKPOLY
 70
     0
  9
$TDCREATE
 40
2451368.612993866
  9
$TDUCREATE
 40
2451368.237993866
  9
$TDUPDATE
 40
2455569.644199213
  9
$TDUUPDATE
 40
2455569.269199213
  9
$TDINDWG
 40
0.8685419329
  9
$TDUSRTIMER
 40
0.8685419329
  9
$USRTIMER
 70
     1
  9
$ANGBASE
 50
0.0
  9
$ANGDIR
 70
     0
  9
$PDMODE
 70
     3
  9
$PDSIZE
 40
2.0
  9
$PLINEWID
 40
0.0
  9
$SPLFRAME
 70
     0
  9
$SPLINETYPE
 70
     6
  9
$SPLINESEGS
 70
     8
  9
$HANDSEED
  5
19AD8
  9
$SURFTAB1
 70
     6
  9
$SURFTAB2
 70
     6
  9
$SURFTYPE
 70
     6
  9
$SURFU
 70
     6
  9
$SURFV
 70
     6
  9
$UCSBASE
  2

  9
$UCSNAME
  2

  9
$UCSORG
 10
0.0
 20
0.0
 30
0.0
  9
$UCSXDIR
 10
1.0
 20
0.0
 30
0.0
  9
$UCSYDIR
 10
0.0
 20
1.0
 30
0.0
  9
$UCSORTHOREF
  2

  9
$UCSORTHOVIEW
 70
     0
  9
$UCSORGTOP
 10
0.0
 20
0.0
 30
0.0
  9
$UCSORGBOTTOM
 10
0.0
 20
0.0
 30
0.0
  9
$UCSORGLEFT
 10
0.0
 20
0.0
 30
0.0
  9
$UCSORGRIGHT
 10
0.0
 20
0.0
 30
0.0
  9
$UCSORGFRONT
 10
0.0
 20
0.0
 30
0.0
  9
$UCSORGBACK
 10
0.0
 20
0.0
 30
0.0
  9
$PUCSBASE
  2

  9
$PUCSNAME
  2

  9
$PUCSORG
 10
0.0
 20
0.0
 30
0.0
  9
$PUCSXDIR
 10
1.0
 20
0.0
 30
0.0
  9
$PUCSYDIR
 10
0.0
 20
1.0
 30
0.0
  9
$PUCSORTHOREF
  2

  9
$PUCSORTHOVIEW
 70
     0
  9
$PUCSORGTOP
 10
0.0
 20
0.0
 30
0.0
  9
$PUCSORGBOTTOM
 10
0.0
 20
0.0
 30
0.0
  9
$PUCSORGLEFT
 10
0.0
 20
0.0
 30
0.0
  9
$PUCSORGRIGHT
 10
0.0
 20
0.0
 30
0.0
  9
$PUCSORGFRONT
 10
0.0
 20
0.0
 30
0.0
  9
$PUCSORGBACK
 10
0.0
 20
0.0
 30
0.0
  9
$USERI1
 70
     0
  9
$USERI2
 70
     0
  9
$USERI3
 70
     0
  9
$USERI4
 70
     0
  9
$USERI5
 70
     0
  9
$USERR1
 40
0.0
  9
$USERR2
 40
0.0
  9
$USERR3
 40
0.0
  9
$USERR4
 40
0.0
  9
$USERR5
 40
0.0
  9
$WORLDVIEW
 70
     1
  9
$SHADEDGE
 70
     3
  9
$SHADEDIF
 70
    70
  9
$TILEMODE
 70
     1
  9
$MAXACTVP
 70
    16
  9
$PINSBASE
 10
0.0
 20
0.0
 30
0.0
  9
$PLIMCHECK
 70
     0
  9
$PEXTMIN
 10
1.000000000000000E+20
 20
1.000000000000000E+20
 30
1.000000000000000E+20
  9
$PEXTMAX
 10
-1.000000000000000E+20
 20
-1.000000000000000E+20
 30
-1.000000000000000E+20
  9
$PLIMMIN
 10
0.0
 20
0.0
  9
$PLIMMAX
 10
420.0
 20
297.0
  9
$UNITMODE
 70
     0
  9
$VISRETAIN
 70
     0
  9
$PLINEGEN
 70
     0
  9
$PSLTSCALE
 70
     0
  9
$TREEDEPTH
 70
  3020
  9
$CMLSTYLE
  2
STANDARD
  9
$CMLJUST
 70
     0
  9
$CMLSCALE
 40
1.0
  9
$PROXYGRAPHICS
 70
     1
  9
$MEASUREMENT
 70
     1
  9
$CELWEIGHT
370
    -1
  9
$ENDCAPS
280
     0
  9
$JOINSTYLE
280
     0
  9
$LWDISPLAY
290
     0
  9
$INSUNITS
 70
     0
  9
$HYPERLINKBASE
  1

  9
$STYLESHEET
  1
inaba.ctb
  9
$XEDIT
290
     1
  9
$CEPSNTYPE
380
     0
  9
$PSTYLEMODE
290
     1
  9
$FINGERPRINTGUID
  2
{0E4A3AB3-ADAA-44DC-861C-9525B65BB1EC}
  9
$VERSIONGUID
  2
{0427DE14-A00B-488B-8A22-5AECBC22D864}
  9
$EXTNAMES
290
     1
  9
$PSVPSCALE
 40
0.0
  9
$OLESTARTUP
290
     0
  0
ENDSEC
  0
SECTION
  2
CLASSES
  0
CLASS
  1
ACDBDICTIONARYWDFLT
  2
AcDbDictionaryWithDefault
  3
ObjectDBX Classes
 90
        0
280
     0
281
     0
  0
CLASS
  1
DICTIONARYVAR
  2
AcDbDictionaryVar
  3
ObjectDBX Classes
 90
        0
280
     0
281
     0
  0
CLASS
  1
ACDBPLACEHOLDER
  2
AcDbPlaceHolder
  3
ObjectDBX Classes
 90
        0
280
     0
281
     0
  0
CLASS
  1
LAYOUT
  2
AcDbLayout
  3
ObjectDBX Classes
 90
        0
280
     0
281
     0
  0
ENDSEC
  0
SECTION
  2
TABLES
  0
TABLE
  2
VPORT
  5
746D
330
0
100
AcDbSymbolTable
 70
     2
  0
VPORT
  5
19AD0
330
746D
100
AcDbSymbolTableRecord
100
AcDbViewportTableRecord
  2
*Active
 70
     0
 10
0.0
 20
0.0
 11
1.0
 21
1.0
 12
11720.03460912035
 22
5704.872900782047
 13
0.0
 23
0.0
 14
10.0
 24
10.0
 15
10.0
 25
10.0
 16
0.0
 26
0.0
 36
1.0
 17
0.0
 27
0.0
 37
0.0
 40
11513.2111641413
 41
2.234800838574423
 42
50.0
 43
0.0
 44
0.0
 50
0.0
 51
0.0
 71
     0
 72
     0
 73
     1
 74
     0
 75
     0
 76
     0
 77
     0
 78
     0
281
     0
 65
     1
110
0.0
120
0.0
130
0.0
111
1.0
121
0.0
131
0.0
112
0.0
122
1.0
132
0.0
 79
     0
146
0.0
  0
ENDTAB
  0
TABLE
  2
LTYPE
  5
746A
330
0
100
AcDbSymbolTable
 70
     3
  0
LTYPE
  5
7477
330
746A
100
AcDbSymbolTableRecord
100
AcDbLinetypeTableRecord
  2
BYBLOCK
 70
     0
  3

 72
    65
 73
     0
 40
0.0
  0
LTYPE
  5
7478
330
746A
100
AcDbSymbolTableRecord
100
AcDbLinetypeTableRecord
  2
BYLAYER
 70
     0
  3

 72
    65
 73
     0
 40
0.0
  0
LTYPE
  5
7479
330
746A
100
AcDbSymbolTableRecord
100
AcDbLinetypeTableRecord
  2
CONTINUOUS
 70
     0
  3
Solid line
 72
    65
 73
     0
 40
0.0
  0
LTYPE
  5
781A
330
746A
100
AcDbSymbolTableRecord
100
AcDbLinetypeTableRecord
  2
HIDDEN
 70
     0
  3
__ __ __ __ __ __ __ __ __ __ __ __ __ __ __ __
 72
    65
 73
     2
 40
0.375
 49
0.25
 74
     0
 49
-0.125
 74
     0
  0
LTYPE
  5
781B
330
746A
100
AcDbSymbolTableRecord
100
AcDbLinetypeTableRecord
  2
PHANTOM
 70
     0
  3
______  __  __  ______  __  __  ______  __  __ 
 72
    65
 73
     6
 40
2.5
 49
1.25
 74
     0
 49
-0.25
 74
     0
 49
0.25
 74
     0
 49
-0.25
 74
     0
 49
0.25
 74
     0
 49
-0.25
 74
     0
  0
ENDTAB
  0
TABLE
  2
LAYER
  5
7467
102
{ACAD_XDICTIONARY
360
18794
102
}
330
0
100
AcDbSymbolTable
 70
    10
  0
LAYER
  5
7474
330
7467
100
AcDbSymbolTableRecord
100
AcDbLayerTableRecord
  2
0
 70
     0
 62
     7
  6
CONTINUOUS
370
    -3
390
17AE0
  0
LAYER
  5
DEB3
330
7467
100
AcDbSymbolTableRecord
100
AcDbLayerTableRecord
  2
寸法
 70
     0
 62
     4
  6
CONTINUOUS
370
    -3
390
17AE0
  0
LAYER
  5
DEB4
330
7467
100
AcDbSymbolTableRecord
100
AcDbLayerTableRecord
  2
部品1
 70
     0
 62
     7
  6
CONTINUOUS
370
    -3
390
17AE0
  0
LAYER
  5
DEB5
330
7467
100
AcDbSymbolTableRecord
100
AcDbLayerTableRecord
  2
補助
 70
     0
 62
    -1
  6
CONTINUOUS
370
    -3
390
17AE0
  0
LAYER
  5
DEB6
330
7467
100
AcDbSymbolTableRecord
100
AcDbLayerTableRecord
  2
文字
 70
     0
 62
     7
  6
CONTINUOUS
370
    -3
390
17AE0
  0
LAYER
  5
F255
330
7467
100
AcDbSymbolTableRecord
100
AcDbLayerTableRecord
  2
DEFPOINTS
 70
     0
 62
     7
  6
CONTINUOUS
290
     0
370
    -3
390
17AE0
  0
LAYER
  5
10B54
330
7467
100
AcDbSymbolTableRecord
100
AcDbLayerTableRecord
  2
仕様書枠
 70
     0
 62
   230
  6
CONTINUOUS
370
    -3
390
17AE0
  0
LAYER
  5
11729
330
7467
100
AcDbSymbolTableRecord
100
AcDbLayerTableRecord
  2
Ｇ．Ｌ
 70
     0
 62
    30
  6
CONTINUOUS
370
    -3
390
17AE0
  0
LAYER
  5
1173F
330
7467
100
AcDbSymbolTableRecord
100
AcDbLayerTableRecord
  2
細線
 70
     0
 62
     5
  6
CONTINUOUS
370
    -3
390
17AE0
  0
LAYER
  5
142E2
330
7467
100
AcDbSymbolTableRecord
100
AcDbLayerTableRecord
  2
破線
 70
     0
 62
     2
  6
HIDDEN
370
    -3
390
17AE0
  0
ENDTAB
  0
TABLE
  2
STYLE
  5
7468
330
0
100
AcDbSymbolTable
 70
     7
  0
STYLE
  5
7475
330
7468
100
AcDbSymbolTableRecord
100
AcDbTextStyleTableRecord
  2
STANDARD
 70
     0
 40
0.0
 41
1.0
 50
0.0
 71
     0
 42
4.0
  3
txt
  4
C:\AutoCAD LT\bigfont.shx
  0
STYLE
  5
763C
330
7468
100
AcDbSymbolTableRecord
100
AcDbTextStyleTableRecord
  2
MSMINCHO
 70
     0
 40
0.0
 41
1.0
 50
0.0
 71
     0
 42
1.199999999999999
  3
MS PMincho.ttf
  4

1001
ACAD
1000
MS PMincho
1071
    32786
  0
STYLE
  5
F706
330
7468
100
AcDbSymbolTableRecord
100
AcDbTextStyleTableRecord
  2
STYLE1
 70
     0
 40
0.0
 41
1.0
 50
0.0
 71
     0
 42
4.0
  3
isocp.shx
  4
bigfont.shx
  0
STYLE
  5
103BF
330
7468
100
AcDbSymbolTableRecord
100
AcDbTextStyleTableRecord
  2
STYLE2
 70
     0
 40
0.0
 41
1.0
 50
0.0
 71
     0
 42
100.0
  3
MS PGothic.ttf
  4

1001
ACAD
1000
MS PGothic
1071
    32818
  0
STYLE
  5
10BAA
330
7468
100
AcDbSymbolTableRecord
100
AcDbTextStyleTableRecord
  2
STYLE3
 70
     0
 40
0.0
 41
1.0
 50
0.0
 71
     0
 42
100.0
  3
DFPGothic-EB.ttf
  4

1001
ACAD
1000
DFPGothic-EB
1071
    32818
  0
STYLE
  5
11A15
330
7468
100
AcDbSymbolTableRecord
100
AcDbTextStyleTableRecord
  2
MSGOTHIC
 70
     0
 40
0.0
 41
1.0
 50
0.0
 71
     0
 42
3.5
  3
MS PGothic.ttf
  4

1001
ACAD
1000
MS PGothic
1071
    32818
  0
STYLE
  5
13E96
330
7468
100
AcDbSymbolTableRecord
100
AcDbTextStyleTableRecord
  2
MSPゴシック
 70
     0
 40
0.0
 41
1.0
 50
0.0
 71
     0
 42
4.0
  3
MS PGothic.ttf
  4

1001
ACAD
1000
MS PGothic
1071
    32818
  0
ENDTAB
  0
TABLE
  2
VIEW
  5
746B
330
0
100
AcDbSymbolTable
 70
     0
  0
ENDTAB
  0
TABLE
  2
UCS
  5
746C
330
0
100
AcDbSymbolTable
 70
     0
  0
ENDTAB
  0
TABLE
  2
APPID
  5
746E
330
0
100
AcDbSymbolTable
 70
     6
  0
APPID
  5
7476
330
746E
100
AcDbSymbolTableRecord
100
AcDbRegAppTableRecord
  2
ACAD
 70
     0
  0
APPID
  5
DEA9
330
746E
100
AcDbSymbolTableRecord
100
AcDbRegAppTableRecord
  2
CONTENTBLOCKICON
 70
     0
  0
APPID
  5
DEAA
330
746E
100
AcDbSymbolTableRecord
100
AcDbRegAppTableRecord
  2
CONTENTBLOCKDESCRIPTION
 70
     0
  0
APPID
  5
E71D
330
746E
100
AcDbSymbolTableRecord
100
AcDbRegAppTableRecord
  2
CONTENTTABDATA
 70
     0
  0
APPID
  5
E71E
330
746E
100
AcDbSymbolTableRecord
100
AcDbRegAppTableRecord
  2
CONTENTCURRENTTAB
 70
     0
  0
APPID
  5
F3BA
330
746E
100
AcDbSymbolTableRecord
100
AcDbRegAppTableRecord
  2
DRAWINGVARIABLESXDATA
 70
     0
  0
ENDTAB
  0
TABLE
  2
DIMSTYLE
  5
746F
330
0
100
AcDbSymbolTable
 70
     1
100
AcDbDimStyleTable
 71
     1
340
F71F
  0
DIMSTYLE
105
F71F
102
{ACAD_REACTORS
330
162CD
330
162CE
330
162CF
330
162D0
330
162E4
330
162E7
330
162EA
330
162EB
330
16301
330
16302
330
1631F
330
16320
330
16333
330
1659C
330
1659A
330
165E9
330
166DD
330
16913
330
17BC3
330
17B87
330
17B86
330
18978
330
18979
330
1897A
330
189AA
330
189AE
330
189AF
330
189B0
330
189BE
330
189CD
330
1912A
330
19129
330
19128
330
191E1
330
1991C
330
1991D
330
1991E
102
}
330
746F
100
AcDbSymbolTableRecord
100
AcDbDimStyleTableRecord
  2
INABA_S40G
 70
     0
 40
40.0
 41
2.5
 42
0.5
 43
7.0
 44
1.5
 73
     0
 74
     0
 77
     3
 78
     8
140
3.0
141
0.0
143
0.0394
147
1.0
172
     1
173
     1
174
     1
178
     7
271
     1
340
F706
341
F770
343
F770
344
F770
  0
ENDTAB
  0
TABLE
  2
BLOCK_RECORD
  5
7466
330
0
100
AcDbSymbolTable
 70
    38
  0
BLOCK_RECORD
  5
747D
330
7466
100
AcDbSymbolTableRecord
100
AcDbBlockTableRecord
  2
*MODEL_SPACE
340
17AE5
  0
BLOCK_RECORD
  5
747A
330
7466
100
AcDbSymbolTableRecord
100
AcDbBlockTableRecord
  2
*PAPER_SPACE
340
17AE6
  0
BLOCK_RECORD
  5
F770
330
7466
100
AcDbSymbolTableRecord
100
AcDbBlockTableRecord
  2
_DOTSMALL
340
0
102
{BLKREFS
331
183AE
331
183AF
331
183B7
331
183B8
331
183C0
331
183C1
331
183C8
331
183C9
331
183D3
331
183D4
331
183DD
331
183DE
331
183E8
331
183E9
331
183F3
331
183F4
331
183FD
331
183FE
331
18408
331
18409
331
18411
331
18412
331
1841C
331
1841D
331
18428
331
18429
331
18433
331
18434
331
1843D
331
1843E
331
18446
331
18447
331
1844E
331
1844F
331
18457
331
18458
331
18462
331
18463
331
1846D
331
1846E
331
18476
331
18477
331
18DB3
331
18DB4
331
18DBD
331
18DBE
331
18DD1
331
18DD2
331
18DE5
331
18DE6
331
18DEE
331
18DEF
331
18DF7
331
18DF8
331
18E00
331
18E01
331
191C9
331
191CA
331
191FF
331
19200
331
19781
331
19782
331
1978A
331
1978B
331
19A11
331
19A12
331
19A93
331
19A94
331
19A9C
331
19A9D
331
19AB3
331
19AB4
331
19ABC
331
19ABD
102
}
  0
BLOCK_RECORD
  5
16338
330
7466
100
AcDbSymbolTableRecord
100
AcDbBlockTableRecord
  2
*D1
340
0
  0
BLOCK_RECORD
  5
16344
330
7466
100
AcDbSymbolTableRecord
100
AcDbBlockTableRecord
  2
*D2
340
0
  0
BLOCK_RECORD
  5
16352
330
7466
100
AcDbSymbolTableRecord
100
AcDbBlockTableRecord
  2
*D3
340
0
  0
BLOCK_RECORD
  5
16360
330
7466
100
AcDbSymbolTableRecord
100
AcDbBlockTableRecord
  2
*D4
340
0
  0
BLOCK_RECORD
  5
16384
330
7466
100
AcDbSymbolTableRecord
100
AcDbBlockTableRecord
  2
*D5
340
0
  0
BLOCK_RECORD
  5
1638F
330
7466
100
AcDbSymbolTableRecord
100
AcDbBlockTableRecord
  2
*D6
340
0
  0
BLOCK_RECORD
  5
1639B
330
7466
100
AcDbSymbolTableRecord
100
AcDbBlockTableRecord
  2
*D7
340
0
  0
BLOCK_RECORD
  5
163A9
330
7466
100
AcDbSymbolTableRecord
100
AcDbBlockTableRecord
  2
*D8
340
0
  0
BLOCK_RECORD
  5
163B8
330
7466
100
AcDbSymbolTableRecord
100
AcDbBlockTableRecord
  2
*D9
340
0
  0
BLOCK_RECORD
  5
163C7
330
7466
100
AcDbSymbolTableRecord
100
AcDbBlockTableRecord
  2
*D10
340
0
  0
BLOCK_RECORD
  5
163E1
330
7466
100
AcDbSymbolTableRecord
100
AcDbBlockTableRecord
  2
*D11
340
0
  0
BLOCK_RECORD
  5
163ED
330
7466
100
AcDbSymbolTableRecord
100
AcDbBlockTableRecord
  2
*D12
340
0
  0
BLOCK_RECORD
  5
163FB
330
7466
100
AcDbSymbolTableRecord
100
AcDbBlockTableRecord
  2
*D13
340
0
  0
BLOCK_RECORD
  5
165B5
330
7466
100
AcDbSymbolTableRecord
100
AcDbBlockTableRecord
  2
*D14
340
0
  0
BLOCK_RECORD
  5
165C4
330
7466
100
AcDbSymbolTableRecord
100
AcDbBlockTableRecord
  2
*D15
340
0
  0
BLOCK_RECORD
  5
165EA
330
7466
100
AcDbSymbolTableRecord
100
AcDbBlockTableRecord
  2
*D16
340
0
  0
BLOCK_RECORD
  5
166CF
330
7466
100
AcDbSymbolTableRecord
100
AcDbBlockTableRecord
  2
*D17
340
0
  0
BLOCK_RECORD
  5
16908
330
7466
100
AcDbSymbolTableRecord
100
AcDbBlockTableRecord
  2
*D18
340
0
  0
BLOCK_RECORD
  5
17BD3
330
7466
100
AcDbSymbolTableRecord
100
AcDbBlockTableRecord
  2
*D19
340
0
  0
BLOCK_RECORD
  5
17BDE
330
7466
100
AcDbSymbolTableRecord
100
AcDbBlockTableRecord
  2
*D20
340
0
  0
BLOCK_RECORD
  5
17BF8
330
7466
100
AcDbSymbolTableRecord
100
AcDbBlockTableRecord
  2
*D21
340
0
  0
BLOCK_RECORD
  5
18AF8
330
7466
100
AcDbSymbolTableRecord
100
AcDbBlockTableRecord
  2
*D22
340
0
  0
BLOCK_RECORD
  5
18B04
330
7466
100
AcDbSymbolTableRecord
100
AcDbBlockTableRecord
  2
*D23
340
0
  0
BLOCK_RECORD
  5
18B10
330
7466
100
AcDbSymbolTableRecord
100
AcDbBlockTableRecord
  2
*D24
340
0
  0
BLOCK_RECORD
  5
18B1C
330
7466
100
AcDbSymbolTableRecord
100
AcDbBlockTableRecord
  2
*D25
340
0
  0
BLOCK_RECORD
  5
18B2A
330
7466
100
AcDbSymbolTableRecord
100
AcDbBlockTableRecord
  2
*D26
340
0
  0
BLOCK_RECORD
  5
18B36
330
7466
100
AcDbSymbolTableRecord
100
AcDbBlockTableRecord
  2
*D27
340
0
  0
BLOCK_RECORD
  5
18B44
330
7466
100
AcDbSymbolTableRecord
100
AcDbBlockTableRecord
  2
*D28
340
0
  0
BLOCK_RECORD
  5
18B50
330
7466
100
AcDbSymbolTableRecord
100
AcDbBlockTableRecord
  2
*D29
340
0
  0
BLOCK_RECORD
  5
18B5D
330
7466
100
AcDbSymbolTableRecord
100
AcDbBlockTableRecord
  2
*D30
340
0
  0
BLOCK_RECORD
  5
1919E
330
7466
100
AcDbSymbolTableRecord
100
AcDbBlockTableRecord
  2
*D31
340
0
  0
BLOCK_RECORD
  5
191AC
330
7466
100
AcDbSymbolTableRecord
100
AcDbBlockTableRecord
  2
*D32
340
0
  0
BLOCK_RECORD
  5
191B8
330
7466
100
AcDbSymbolTableRecord
100
AcDbBlockTableRecord
  2
*D33
340
0
  0
BLOCK_RECORD
  5
191EC
330
7466
100
AcDbSymbolTableRecord
100
AcDbBlockTableRecord
  2
*D34
340
0
  0
BLOCK_RECORD
  5
1998C
330
7466
100
AcDbSymbolTableRecord
100
AcDbBlockTableRecord
  2
*D35
340
0
  0
BLOCK_RECORD
  5
19999
330
7466
100
AcDbSymbolTableRecord
100
AcDbBlockTableRecord
  2
*D36
340
0
  0
BLOCK_RECORD
  5
199A7
330
7466
100
AcDbSymbolTableRecord
100
AcDbBlockTableRecord
  2
*D37
340
0
  0
ENDTAB
  0
ENDSEC
  0
SECTION
  2
BLOCKS
  0
BLOCK
  5
7489
330
747D
100
AcDbEntity
  8
0
100
AcDbBlockBegin
  2
*MODEL_SPACE
 70
     0
 10
0.0
 20
0.0
 30
0.0
  3
*MODEL_SPACE
  1

  0
ENDBLK
  5
748A
330
747D
100
AcDbEntity
  8
0
100
AcDbBlockEnd
  0
BLOCK
  5
7487
330
747A
100
AcDbEntity
 67
     1
  8
0
100
AcDbBlockBegin
  2
*PAPER_SPACE
 70
     0
 10
0.0
 20
0.0
 30
0.0
  3
*PAPER_SPACE
  1

  0
ENDBLK
  5
7488
330
747A
100
AcDbEntity
 67
     1
  8
0
100
AcDbBlockEnd
  0
BLOCK
  5
F771
330
F770
100
AcDbEntity
  8
0
 48
50.0
100
AcDbBlockBegin
  2
_DOTSMALL
 70
     0
 10
0.0
 20
0.0
 30
0.0
  3
_DOTSMALL
  1

  0
LWPOLYLINE
  5
F772
330
F770
100
AcDbEntity
  8
0
  6
ByBlock
 62
     0
 48
50.0
100
AcDbPolyline
 90
        2
 70
     1
 43
0.5
 10
-0.0625
 20
0.0
 42
1.0
 10
0.0625
 20
0.0
 42
1.0
  0
ENDBLK
  5
F776
330
F770
100
AcDbEntity
  8
0
 48
50.0
100
AcDbBlockEnd
  0
BLOCK
  5
164EB
330
16338
100
AcDbEntity
  8
0
 48
50.0
100
AcDbBlockBegin
  2
*D1
 70
     1
 10
0.0
 20
0.0
 30
0.0
  3
*D1
  1

  0
LINE
  5
18473
330
16338
100
AcDbEntity
  8
寸法
 62
     0
 48
50.0
370
    -2
100
AcDbLine
 10
7604.673057123683
 20
9717.497424545967
 30
0.0
 11
8292.09940285809
 21
9717.497424545967
 31
0.0
  0
LINE
  5
18474
330
16338
100
AcDbEntity
  8
寸法
 62
     0
 48
50.0
370
    -2
100
AcDbLine
 10
7604.673057123658
 20
7197.497424545952
 30
0.0
 11
8292.09940285809
 21
7197.497424545952
 31
0.0
  0
LINE
  5
18475
330
16338
100
AcDbEntity
  8
寸法
 62
     0
 48
50.0
370
    -2
100
AcDbLine
 10
8232.099402858089
 20
9717.497424545967
 30
0.0
 11
8232.099402858089
 21
7197.497424545952
 31
0.0
  0
INSERT
  5
18476
330
16338
100
AcDbEntity
  8
寸法
 62
     0
 48
50.0
370
    -2
100
AcDbBlockReference
  2
_DOTSMALL
 10
8232.099402858089
 20
9717.497424545967
 30
0.0
 41
100.0
 42
100.0
 43
100.0
 50
90.0
  0
INSERT
  5
18477
330
16338
100
AcDbEntity
  8
寸法
 62
     0
 48
50.0
370
    -2
100
AcDbBlockReference
  2
_DOTSMALL
 10
8232.099402858089
 20
7197.497424545952
 30
0.0
 41
100.0
 42
100.0
 43
100.0
 50
270.0
  0
MTEXT
  5
18478
330
16338
100
AcDbEntity
  8
寸法
 62
     7
 48
50.0
100
AcDbMText
 10
8132.087591834467
 20
8457.497424545961
 30
0.0
 40
120.0
 41
0.0
 71
     5
 72
     1
  1
\A1;6X420=2520
  7
STYLE1
 11
0.0000000000000001
 21
1.0
 31
0.0
 73
     1
 44
1.0
1001
ACAD
1000
MTEXTBEGIN
1070
    73
1070
     1
1070
    44
1040
1.0
1070
    74
1070
     0
1000
MTEXTEND
  0
POINT
  5
18479
330
16338
100
AcDbEntity
  8
DEFPOINTS
 62
     0
 48
50.0
100
AcDbPoint
 10
7584.673057123684
 20
9717.497424545967
 30
0.0
  0
POINT
  5
1847A
330
16338
100
AcDbEntity
  8
DEFPOINTS
 62
     0
 48
50.0
100
AcDbPoint
 10
7584.673057123659
 20
7197.497424545952
 30
0.0
  0
POINT
  5
1847B
330
16338
100
AcDbEntity
  8
DEFPOINTS
 62
     0
 48
50.0
100
AcDbPoint
 10
8232.099402858089
 20
7197.497424545952
 30
0.0
  0
ENDBLK
  5
164F5
330
16338
100
AcDbEntity
  8
0
 48
50.0
100
AcDbBlockEnd
  0
BLOCK
  5
16414
330
16344
100
AcDbEntity
  8
0
 48
50.0
100
AcDbBlockBegin
  2
*D2
 70
     1
 10
0.0
 20
0.0
 30
0.0
  3
*D2
  1

  0
LINE
  5
18468
330
16344
100
AcDbEntity
  8
寸法
 62
     0
 48
50.0
370
    -2
100
AcDbLine
 10
7604.673057123658
 20
7197.497424545952
 30
0.0
 11
8292.099402858069
 21
7197.497424545952
 31
0.0
  0
LINE
  5
18469
330
16344
100
AcDbEntity
  8
寸法
 62
     0
 48
50.0
370
    -2
100
AcDbLine
 10
7604.673057123658
 20
7142.497424545957
 30
0.0
 11
8292.099402858069
 21
7142.497424545957
 31
0.0
  0
LINE
  5
1846A
330
16344
100
AcDbEntity
  8
寸法
 62
     0
 48
50.0
370
    -2
100
AcDbLine
 10
8232.09940285807
 20
7197.497424545952
 30
0.0
 11
8232.09940285807
 21
7297.497424545952
 31
0.0
  0
LINE
  5
1846B
330
16344
100
AcDbEntity
  8
寸法
 62
     0
 48
50.0
370
    -2
100
AcDbLine
 10
8232.09940285807
 20
7142.497424545957
 30
0.0
 11
8232.09940285807
 21
6656.150676266854
 31
0.0
  0
LINE
  5
1846C
330
16344
100
AcDbEntity
  8
寸法
 62
     0
 48
50.0
370
    -2
100
AcDbLine
 10
8232.09940285807
 20
7197.497424545952
 30
0.0
 11
8232.09940285807
 21
7142.497424545957
 31
0.0
  0
INSERT
  5
1846D
330
16344
100
AcDbEntity
  8
寸法
 62
     0
 48
50.0
370
    -2
100
AcDbBlockReference
  2
_DOTSMALL
 10
8232.09940285807
 20
7197.497424545952
 30
0.0
 41
100.0
 42
100.0
 43
100.0
 50
270.0
  0
INSERT
  5
1846E
330
16344
100
AcDbEntity
  8
寸法
 62
     0
 48
50.0
370
    -2
100
AcDbBlockReference
  2
_DOTSMALL
 10
8232.09940285807
 20
7142.497424545957
 30
0.0
 41
100.0
 42
100.0
 43
100.0
 50
90.0
  0
MTEXT
  5
1846F
330
16344
100
AcDbEntity
  8
寸法
 62
     7
 48
50.0
100
AcDbMText
 10
8132.099402858068
 20
6764.635957641094
 30
0.0
 40
120.0
 41
0.0
 71
     5
 72
     1
  1
\A1;55
  7
STYLE1
 11
0.0000000000000001
 21
1.0
 31
0.0
 73
     1
 44
1.0
1001
ACAD
1000
MTEXTBEGIN
1070
    73
1070
     1
1070
    44
1040
1.0
1070
    74
1070
     0
1000
MTEXTEND
  0
POINT
  5
18470
330
16344
100
AcDbEntity
  8
DEFPOINTS
 62
     0
 48
50.0
100
AcDbPoint
 10
7584.673057123659
 20
7197.497424545952
 30
0.0
  0
POINT
  5
18471
330
16344
100
AcDbEntity
  8
DEFPOINTS
 62
     0
 48
50.0
100
AcDbPoint
 10
7584.673057123659
 20
7142.497424545957
 30
0.0
  0
POINT
  5
18472
330
16344
100
AcDbEntity
  8
DEFPOINTS
 62
     0
 48
50.0
100
AcDbPoint
 10
8232.09940285807
 20
7142.497424545957
 30
0.0
  0
ENDBLK
  5
16420
330
16344
100
AcDbEntity
  8
0
 48
50.0
100
AcDbBlockEnd
  0
BLOCK
  5
16421
330
16352
100
AcDbEntity
  8
0
 48
50.0
100
AcDbBlockBegin
  2
*D3
 70
     1
 10
0.0
 20
0.0
 30
0.0
  3
*D3
  1

  0
LINE
  5
1845D
330
16352
100
AcDbEntity
  8
寸法
 62
     0
 48
50.0
370
    -2
100
AcDbLine
 10
7604.673057123683
 20
9772.497424545964
 30
0.0
 11
8292.099402858095
 21
9772.497424545964
 31
0.0
  0
LINE
  5
1845E
330
16352
100
AcDbEntity
  8
寸法
 62
     0
 48
50.0
370
    -2
100
AcDbLine
 10
7604.673057123683
 20
9717.497424545967
 30
0.0
 11
8292.099402858095
 21
9717.497424545967
 31
0.0
  0
LINE
  5
1845F
330
16352
100
AcDbEntity
  8
寸法
 62
     0
 48
50.0
370
    -2
100
AcDbLine
 10
8232.099402858095
 20
9717.497424545967
 30
0.0
 11
8232.099402858095
 21
9617.497424545968
 31
0.0
  0
LINE
  5
18460
330
16352
100
AcDbEntity
  8
寸法
 62
     0
 48
50.0
370
    -2
100
AcDbLine
 10
8232.099402858095
 20
9772.497424545964
 30
0.0
 11
8232.099402858095
 21
10189.46798729444
 31
0.0
  0
LINE
  5
18461
330
16352
100
AcDbEntity
  8
寸法
 62
     0
 48
50.0
370
    -2
100
AcDbLine
 10
8232.099402858095
 20
9717.497424545967
 30
0.0
 11
8232.099402858095
 21
9772.497424545964
 31
0.0
  0
INSERT
  5
18462
330
16352
100
AcDbEntity
  8
寸法
 62
     0
 48
50.0
370
    -2
100
AcDbBlockReference
  2
_DOTSMALL
 10
8232.099402858095
 20
9717.497424545967
 30
0.0
 41
100.0
 42
100.0
 43
100.0
 50
90.0
  0
INSERT
  5
18463
330
16352
100
AcDbEntity
  8
寸法
 62
     0
 48
50.0
370
    -2
100
AcDbBlockReference
  2
_DOTSMALL
 10
8232.099402858095
 20
9772.497424545964
 30
0.0
 41
100.0
 42
100.0
 43
100.0
 50
270.0
  0
MTEXT
  5
18464
330
16352
100
AcDbEntity
  8
寸法
 62
     7
 48
50.0
100
AcDbMText
 10
8132.099402858093
 20
10080.9827059202
 30
0.0
 40
120.0
 41
0.0
 71
     5
 72
     1
  1
\A1;55
  7
STYLE1
 11
0.0000000000000001
 21
1.0
 31
0.0
 73
     1
 44
1.0
1001
ACAD
1000
MTEXTBEGIN
1070
    73
1070
     1
1070
    44
1040
1.0
1070
    74
1070
     0
1000
MTEXTEND
  0
POINT
  5
18465
330
16352
100
AcDbEntity
  8
DEFPOINTS
 62
     0
 48
50.0
100
AcDbPoint
 10
7584.673057123684
 20
9772.497424545964
 30
0.0
  0
POINT
  5
18466
330
16352
100
AcDbEntity
  8
DEFPOINTS
 62
     0
 48
50.0
100
AcDbPoint
 10
7584.673057123684
 20
9717.497424545967
 30
0.0
  0
POINT
  5
18467
330
16352
100
AcDbEntity
  8
DEFPOINTS
 62
     0
 48
50.0
100
AcDbPoint
 10
8232.099402858095
 20
9717.497424545967
 30
0.0
  0
ENDBLK
  5
1642D
330
16352
100
AcDbEntity
  8
0
 48
50.0
100
AcDbBlockEnd
  0
BLOCK
  5
164CA
330
16360
100
AcDbEntity
  8
0
 48
50.0
100
AcDbBlockBegin
  2
*D4
 70
     1
 10
0.0
 20
0.0
 30
0.0
  3
*D4
  1

  0
LINE
  5
18454
330
16360
100
AcDbEntity
  8
寸法
 62
     0
 48
50.0
370
    -2
100
AcDbLine
 10
7604.673057123683
 20
9772.497424545964
 30
0.0
 11
8657.20634459773
 21
9772.497424545964
 31
0.0
  0
LINE
  5
18455
330
16360
100
AcDbEntity
  8
寸法
 62
     0
 48
50.0
370
    -2
100
AcDbLine
 10
7604.673057123658
 20
7142.497424545957
 30
0.0
 11
8657.20634459773
 21
7142.497424545957
 31
0.0
  0
LINE
  5
18456
330
16360
100
AcDbEntity
  8
寸法
 62
     0
 48
50.0
370
    -2
100
AcDbLine
 10
8597.206344597729
 20
9772.497424545964
 30
0.0
 11
8597.206344597729
 21
7142.497424545957
 31
0.0
  0
INSERT
  5
18457
330
16360
100
AcDbEntity
  8
寸法
 62
     0
 48
50.0
370
    -2
100
AcDbBlockReference
  2
_DOTSMALL
 10
8597.206344597729
 20
9772.497424545964
 30
0.0
 41
100.0
 42
100.0
 43
100.0
 50
90.0
  0
INSERT
  5
18458
330
16360
100
AcDbEntity
  8
寸法
 62
     0
 48
50.0
370
    -2
100
AcDbBlockReference
  2
_DOTSMALL
 10
8597.206344597729
 20
7142.497424545957
 30
0.0
 41
100.0
 42
100.0
 43
100.0
 50
270.0
  0
MTEXT
  5
18459
330
16360
100
AcDbEntity
  8
寸法
 62
     7
 48
50.0
100
AcDbMText
 10
8497.194533574106
 20
8457.497424545961
 30
0.0
 40
120.0
 41
0.0
 71
     5
 72
     1
  1
\A1;2630
  7
STYLE1
 11
0.0000000000000001
 21
1.0
 31
0.0
 73
     1
 44
1.0
1001
ACAD
1000
MTEXTBEGIN
1070
    73
1070
     1
1070
    44
1040
1.0
1070
    74
1070
     0
1000
MTEXTEND
  0
POINT
  5
1845A
330
16360
100
AcDbEntity
  8
DEFPOINTS
 62
     0
 48
50.0
100
AcDbPoint
 10
7584.673057123684
 20
9772.497424545964
 30
0.0
  0
POINT
  5
1845B
330
16360
100
AcDbEntity
  8
DEFPOINTS
 62
     0
 48
50.0
100
AcDbPoint
 10
7584.673057123659
 20
7142.497424545957
 30
0.0
  0
POINT
  5
1845C
330
16360
100
AcDbEntity
  8
DEFPOINTS
 62
     0
 48
50.0
100
AcDbPoint
 10
8597.206344597729
 20
7142.497424545957
 30
0.0
  0
ENDBLK
  5
164D4
330
16360
100
AcDbEntity
  8
0
 48
50.0
100
AcDbBlockEnd
  0
BLOCK
  5
1728C
330
16384
100
AcDbEntity
  8
0
 48
50.0
100
AcDbBlockBegin
  2
*D5
 70
     1
 10
0.0
 20
0.0
 30
0.0
  3
*D5
  1

  0
LINE
  5
1844C
330
16384
100
AcDbEntity
  8
寸法
 62
     0
 48
50.0
370
    -2
100
AcDbLine
 10
5477.673057123677
 20
7148.497424545865
 30
0.0
 11
5477.673057123677
 21
6548.0666537797
 31
0.0
  0
LINE
  5
1844D
330
16384
100
AcDbEntity
  8
寸法
 62
     0
 48
50.0
370
    -2
100
AcDbLine
 10
7481.673057123659
 20
6608.0666537797
 30
0.0
 11
5477.673057123677
 21
6608.0666537797
 31
0.0
  0
INSERT
  5
1844E
330
16384
100
AcDbEntity
  8
寸法
 62
     0
 48
50.0
370
    -2
100
AcDbBlockReference
  2
_DOTSMALL
 10
7481.673057123659
 20
6608.0666537797
 30
0.0
 41
100.0
 42
100.0
 43
100.0
  0
INSERT
  5
1844F
330
16384
100
AcDbEntity
  8
寸法
 62
     0
 48
50.0
370
    -2
100
AcDbBlockReference
  2
_DOTSMALL
 10
5477.673057123677
 20
6608.0666537797
 30
0.0
 41
100.0
 42
100.0
 43
100.0
 50
180.0
  0
MTEXT
  5
18450
330
16384
100
AcDbEntity
  8
寸法
 62
     7
 48
50.0
100
AcDbMText
 10
6479.673057123668
 20
6708.078464803323
 30
0.0
 40
120.0
 41
0.0
 71
     5
 72
     1
  1
\A1;有効開口部間口 2004
  7
STYLE1
 73
     1
 44
1.0
1001
ACAD
1000
MTEXTBEGIN
1070
    73
1070
     1
1070
    44
1040
1.0
1070
    74
1070
     0
1000
MTEXTEND
  0
POINT
  5
18451
330
16384
100
AcDbEntity
  8
DEFPOINTS
 62
     0
 48
50.0
100
AcDbPoint
 10
7481.673057123659
 20
7168.497424545865
 30
0.0
  0
POINT
  5
18452
330
16384
100
AcDbEntity
  8
DEFPOINTS
 62
     0
 48
50.0
100
AcDbPoint
 10
5477.673057123677
 20
7168.497424545865
 30
0.0
  0
POINT
  5
18453
330
16384
100
AcDbEntity
  8
DEFPOINTS
 62
     0
 48
50.0
100
AcDbPoint
 10
5477.673057123677
 20
6608.0666537797
 30
0.0
  0
ENDBLK
  5
17295
330
16384
100
AcDbEntity
  8
0
 48
50.0
100
AcDbBlockEnd
  0
BLOCK
  5
17261
330
1638F
100
AcDbEntity
  8
0
 48
50.0
100
AcDbBlockBegin
  2
*D6
 70
     1
 10
0.0
 20
0.0
 30
0.0
  3
*D6
  1

  0
LINE
  5
18443
330
1638F
100
AcDbEntity
  8
寸法
 62
     0
 48
50.0
370
    -2
100
AcDbLine
 10
3164.673057123677
 20
7122.497424545861
 30
0.0
 11
3164.673057123677
 21
6101.893658188827
 31
0.0
  0
LINE
  5
18444
330
1638F
100
AcDbEntity
  8
寸法
 62
     0
 48
50.0
370
    -2
100
AcDbLine
 10
7584.673057123648
 20
7122.497424545956
 30
0.0
 11
7584.673057123648
 21
6101.893658188827
 31
0.0
  0
LINE
  5
18445
330
1638F
100
AcDbEntity
  8
寸法
 62
     0
 48
50.0
370
    -2
100
AcDbLine
 10
3164.673057123677
 20
6161.893658188827
 30
0.0
 11
7584.673057123648
 21
6161.893658188827
 31
0.0
  0
INSERT
  5
18446
330
1638F
100
AcDbEntity
  8
寸法
 62
     0
 48
50.0
370
    -2
100
AcDbBlockReference
  2
_DOTSMALL
 10
3164.673057123677
 20
6161.893658188827
 30
0.0
 41
100.0
 42
100.0
 43
100.0
 50
180.0
  0
INSERT
  5
18447
330
1638F
100
AcDbEntity
  8
寸法
 62
     0
 48
50.0
370
    -2
100
AcDbBlockReference
  2
_DOTSMALL
 10
7584.673057123648
 20
6161.893658188827
 30
0.0
 41
100.0
 42
100.0
 43
100.0
  0
MTEXT
  5
18448
330
1638F
100
AcDbEntity
  8
寸法
 62
     7
 48
50.0
100
AcDbMText
 10
5374.673057123662
 20
6261.905469212448
 30
0.0
 40
120.0
 41
0.0
 71
     5
 72
     1
  1
\A1;4420
  7
STYLE1
 73
     1
 44
1.0
1001
ACAD
1000
MTEXTBEGIN
1070
    73
1070
     1
1070
    44
1040
1.0
1070
    74
1070
     0
1000
MTEXTEND
  0
POINT
  5
18449
330
1638F
100
AcDbEntity
  8
DEFPOINTS
 62
     0
 48
50.0
100
AcDbPoint
 10
3164.673057123677
 20
7142.497424545862
 30
0.0
  0
POINT
  5
1844A
330
1638F
100
AcDbEntity
  8
DEFPOINTS
 62
     0
 48
50.0
100
AcDbPoint
 10
7584.673057123648
 20
7142.497424545957
 30
0.0
  0
POINT
  5
1844B
330
1638F
100
AcDbEntity
  8
DEFPOINTS
 62
     0
 48
50.0
100
AcDbPoint
 10
7584.673057123648
 20
6161.893658188827
 30
0.0
  0
ENDBLK
  5
1726B
330
1638F
100
AcDbEntity
  8
0
 48
50.0
100
AcDbBlockEnd
  0
BLOCK
  5
16464
330
1639B
100
AcDbEntity
  8
0
 48
50.0
100
AcDbBlockBegin
  2
*D7
 70
     1
 10
0.0
 20
0.0
 30
0.0
  3
*D7
  1

  0
LINE
  5
18438
330
1639B
100
AcDbEntity
  8
寸法
 62
     0
 48
50.0
370
    -2
100
AcDbLine
 10
3219.673057123673
 20
7122.497424545864
 30
0.0
 11
3219.673057123673
 21
6548.0666537797
 31
0.0
  0
LINE
  5
18439
330
1639B
100
AcDbEntity
  8
寸法
 62
     0
 48
50.0
370
    -2
100
AcDbLine
 10
3164.673057123677
 20
7122.497424545861
 30
0.0
 11
3164.673057123677
 21
6548.0666537797
 31
0.0
  0
LINE
  5
1843A
330
1639B
100
AcDbEntity
  8
寸法
 62
     0
 48
50.0
370
    -2
100
AcDbLine
 10
3219.673057123673
 20
6608.0666537797
 30
0.0
 11
3319.673057123673
 21
6608.0666537797
 31
0.0
  0
LINE
  5
1843B
330
1639B
100
AcDbEntity
  8
寸法
 62
     0
 48
50.0
370
    -2
100
AcDbLine
 10
3164.673057123677
 20
6608.0666537797
 30
0.0
 11
2747.7024943752
 21
6608.0666537797
 31
0.0
  0
LINE
  5
1843C
330
1639B
100
AcDbEntity
  8
寸法
 62
     0
 48
50.0
370
    -2
100
AcDbLine
 10
3219.673057123673
 20
6608.0666537797
 30
0.0
 11
3164.673057123677
 21
6608.0666537797
 31
0.0
  0
INSERT
  5
1843D
330
1639B
100
AcDbEntity
  8
寸法
 62
     0
 48
50.0
370
    -2
100
AcDbBlockReference
  2
_DOTSMALL
 10
3219.673057123673
 20
6608.0666537797
 30
0.0
 41
100.0
 42
100.0
 43
100.0
 50
180.0
  0
INSERT
  5
1843E
330
1639B
100
AcDbEntity
  8
寸法
 62
     0
 48
50.0
370
    -2
100
AcDbBlockReference
  2
_DOTSMALL
 10
3164.673057123677
 20
6608.0666537797
 30
0.0
 41
100.0
 42
100.0
 43
100.0
  0
MTEXT
  5
1843F
330
1639B
100
AcDbEntity
  8
寸法
 62
     7
 48
50.0
100
AcDbMText
 10
2856.187775749438
 20
6708.0666537797
 30
0.0
 40
120.0
 41
0.0
 71
     5
 72
     1
  1
\A1;55
  7
STYLE1
 73
     1
 44
1.0
1001
ACAD
1000
MTEXTBEGIN
1070
    73
1070
     1
1070
    44
1040
1.0
1070
    74
1070
     0
1000
MTEXTEND
  0
POINT
  5
18440
330
1639B
100
AcDbEntity
  8
DEFPOINTS
 62
     0
 48
50.0
100
AcDbPoint
 10
3219.673057123673
 20
7142.497424545864
 30
0.0
  0
POINT
  5
18441
330
1639B
100
AcDbEntity
  8
DEFPOINTS
 62
     0
 48
50.0
100
AcDbPoint
 10
3164.673057123677
 20
7142.497424545862
 30
0.0
  0
POINT
  5
18442
330
1639B
100
AcDbEntity
  8
DEFPOINTS
 62
     0
 48
50.0
100
AcDbPoint
 10
3164.673057123677
 20
6608.0666537797
 30
0.0
  0
ENDBLK
  5
16470
330
1639B
100
AcDbEntity
  8
0
 48
50.0
100
AcDbBlockEnd
  0
BLOCK
  5
16471
330
163A9
100
AcDbEntity
  8
0
 48
50.0
100
AcDbBlockBegin
  2
*D8
 70
     1
 10
0.0
 20
0.0
 30
0.0
  3
*D8
  1

  0
LINE
  5
1842D
330
163A9
100
AcDbEntity
  8
寸法
 62
     0
 48
50.0
370
    -2
100
AcDbLine
 10
5477.673057123677
 20
7148.497424545865
 30
0.0
 11
5477.673057123677
 21
6548.0666537797
 31
0.0
  0
LINE
  5
1842E
330
163A9
100
AcDbEntity
  8
寸法
 62
     0
 48
50.0
370
    -2
100
AcDbLine
 10
5429.673057123673
 20
7122.497424545864
 30
0.0
 11
5429.673057123673
 21
6548.0666537797
 31
0.0
  0
LINE
  5
1842F
330
163A9
100
AcDbEntity
  8
寸法
 62
     0
 48
50.0
370
    -2
100
AcDbLine
 10
5477.673057123677
 20
6608.0666537797
 30
0.0
 11
5577.673057123677
 21
6608.0666537797
 31
0.0
  0
LINE
  5
18430
330
163A9
100
AcDbEntity
  8
寸法
 62
     0
 48
50.0
370
    -2
100
AcDbLine
 10
5429.673057123673
 20
6608.0666537797
 30
0.0
 11
5329.673057123673
 21
6608.0666537797
 31
0.0
  0
MTEXT
  5
18431
330
163A9
100
AcDbEntity
  8
寸法
 62
     7
 48
50.0
100
AcDbMText
 10
5590.575028123734
 20
6708.0666537797
 30
0.0
 40
120.0
 41
0.0
 71
     5
 72
     1
  1
\A1;48
  7
STYLE1
 73
     1
 44
1.0
1001
ACAD
1000
MTEXTBEGIN
1070
    73
1070
     1
1070
    44
1040
1.0
1070
    74
1070
     0
1000
MTEXTEND
  0
LINE
  5
18432
330
163A9
100
AcDbEntity
  8
寸法
 62
     0
 48
50.0
370
    -2
100
AcDbLine
 10
5477.673057123677
 20
6608.0666537797
 30
0.0
 11
5429.673057123673
 21
6608.0666537797
 31
0.0
  0
INSERT
  5
18433
330
163A9
100
AcDbEntity
  8
寸法
 62
     0
 48
50.0
370
    -2
100
AcDbBlockReference
  2
_DOTSMALL
 10
5477.673057123677
 20
6608.0666537797
 30
0.0
 41
100.0
 42
100.0
 43
100.0
 50
180.0
  0
INSERT
  5
18434
330
163A9
100
AcDbEntity
  8
寸法
 62
     0
 48
50.0
370
    -2
100
AcDbBlockReference
  2
_DOTSMALL
 10
5429.673057123673
 20
6608.0666537797
 30
0.0
 41
100.0
 42
100.0
 43
100.0
  0
POINT
  5
18435
330
163A9
100
AcDbEntity
  8
DEFPOINTS
 62
     0
 48
50.0
100
AcDbPoint
 10
5477.673057123677
 20
7168.497424545865
 30
0.0
  0
POINT
  5
18436
330
163A9
100
AcDbEntity
  8
DEFPOINTS
 62
     0
 48
50.0
100
AcDbPoint
 10
5429.673057123673
 20
7142.497424545864
 30
0.0
  0
POINT
  5
18437
330
163A9
100
AcDbEntity
  8
DEFPOINTS
 62
     0
 48
50.0
100
AcDbPoint
 10
5429.673057123673
 20
6608.0666537797
 30
0.0
  0
ENDBLK
  5
1647E
330
163A9
100
AcDbEntity
  8
0
 48
50.0
100
AcDbBlockEnd
  0
BLOCK
  5
1647F
330
163B8
100
AcDbEntity
  8
0
 48
50.0
100
AcDbBlockBegin
  2
*D9
 70
     1
 10
0.0
 20
0.0
 30
0.0
  3
*D9
  1

  0
LINE
  5
18422
330
163B8
100
AcDbEntity
  8
寸法
 62
     0
 48
50.0
370
    -2
100
AcDbLine
 10
7529.673057123661
 20
7122.497424545952
 30
0.0
 11
7529.673057123661
 21
6548.0666537797
 31
0.0
  0
LINE
  5
18423
330
163B8
100
AcDbEntity
  8
寸法
 62
     0
 48
50.0
370
    -2
100
AcDbLine
 10
7481.673057123659
 20
7148.497424545865
 30
0.0
 11
7481.673057123659
 21
6548.0666537797
 31
0.0
  0
LINE
  5
18424
330
163B8
100
AcDbEntity
  8
寸法
 62
     0
 48
50.0
370
    -2
100
AcDbLine
 10
7529.673057123661
 20
6608.0666537797
 30
0.0
 11
7629.67305712366
 21
6608.0666537797
 31
0.0
  0
LINE
  5
18425
330
163B8
100
AcDbEntity
  8
寸法
 62
     0
 48
50.0
370
    -2
100
AcDbLine
 10
7481.673057123659
 20
6608.0666537797
 30
0.0
 11
7381.673057123659
 21
6608.0666537797
 31
0.0
  0
MTEXT
  5
18426
330
163B8
100
AcDbEntity
  8
寸法
 62
     7
 48
50.0
100
AcDbMText
 10
7370.710159474912
 20
6708.0666537797
 30
0.0
 40
120.0
 41
0.0
 71
     5
 72
     1
  1
\A1;48
  7
STYLE1
 73
     1
 44
1.0
1001
ACAD
1000
MTEXTBEGIN
1070
    73
1070
     1
1070
    44
1040
1.0
1070
    74
1070
     0
1000
MTEXTEND
  0
LINE
  5
18427
330
163B8
100
AcDbEntity
  8
寸法
 62
     0
 48
50.0
370
    -2
100
AcDbLine
 10
7529.673057123661
 20
6608.0666537797
 30
0.0
 11
7481.673057123659
 21
6608.0666537797
 31
0.0
  0
INSERT
  5
18428
330
163B8
100
AcDbEntity
  8
寸法
 62
     0
 48
50.0
370
    -2
100
AcDbBlockReference
  2
_DOTSMALL
 10
7529.673057123661
 20
6608.0666537797
 30
0.0
 41
100.0
 42
100.0
 43
100.0
 50
180.0
  0
INSERT
  5
18429
330
163B8
100
AcDbEntity
  8
寸法
 62
     0
 48
50.0
370
    -2
100
AcDbBlockReference
  2
_DOTSMALL
 10
7481.673057123659
 20
6608.0666537797
 30
0.0
 41
100.0
 42
100.0
 43
100.0
  0
POINT
  5
1842A
330
163B8
100
AcDbEntity
  8
DEFPOINTS
 62
     0
 48
50.0
100
AcDbPoint
 10
7529.673057123661
 20
7142.497424545952
 30
0.0
  0
POINT
  5
1842B
330
163B8
100
AcDbEntity
  8
DEFPOINTS
 62
     0
 48
50.0
100
AcDbPoint
 10
7481.673057123659
 20
7168.497424545865
 30
0.0
  0
POINT
  5
1842C
330
163B8
100
AcDbEntity
  8
DEFPOINTS
 62
     0
 48
50.0
100
AcDbPoint
 10
7481.673057123659
 20
6608.0666537797
 30
0.0
  0
ENDBLK
  5
1648C
330
163B8
100
AcDbEntity
  8
0
 48
50.0
100
AcDbBlockEnd
  0
BLOCK
  5
1648D
330
163C7
100
AcDbEntity
  8
0
 48
50.0
100
AcDbBlockBegin
  2
*D10
 70
     1
 10
0.0
 20
0.0
 30
0.0
  3
*D10
  1

  0
LINE
  5
18417
330
163C7
100
AcDbEntity
  8
寸法
 62
     0
 48
50.0
370
    -2
100
AcDbLine
 10
7584.673057123659
 20
7122.497424545956
 30
0.0
 11
7584.673057123659
 21
6548.066653779702
 31
0.0
  0
LINE
  5
18418
330
163C7
100
AcDbEntity
  8
寸法
 62
     0
 48
50.0
370
    -2
100
AcDbLine
 10
7529.673057123661
 20
7122.497424545952
 30
0.0
 11
7529.673057123661
 21
6548.066653779702
 31
0.0
  0
LINE
  5
18419
330
163C7
100
AcDbEntity
  8
寸法
 62
     0
 48
50.0
370
    -2
100
AcDbLine
 10
7529.673057123661
 20
6608.066653779701
 30
0.0
 11
7429.673057123661
 21
6608.066653779701
 31
0.0
  0
LINE
  5
1841A
330
163C7
100
AcDbEntity
  8
寸法
 62
     0
 48
50.0
370
    -2
100
AcDbLine
 10
7584.673057123659
 20
6608.066653779701
 30
0.0
 11
8001.643619872137
 21
6608.066653779701
 31
0.0
  0
LINE
  5
1841B
330
163C7
100
AcDbEntity
  8
寸法
 62
     0
 48
50.0
370
    -2
100
AcDbLine
 10
7529.673057123661
 20
6608.066653779701
 30
0.0
 11
7584.673057123659
 21
6608.066653779701
 31
0.0
  0
INSERT
  5
1841C
330
163C7
100
AcDbEntity
  8
寸法
 62
     0
 48
50.0
370
    -2
100
AcDbBlockReference
  2
_DOTSMALL
 10
7529.673057123661
 20
6608.066653779701
 30
0.0
 41
100.0
 42
100.0
 43
100.0
  0
INSERT
  5
1841D
330
163C7
100
AcDbEntity
  8
寸法
 62
     0
 48
50.0
370
    -2
100
AcDbBlockReference
  2
_DOTSMALL
 10
7584.673057123659
 20
6608.066653779701
 30
0.0
 41
100.0
 42
100.0
 43
100.0
 50
180.0
  0
MTEXT
  5
1841E
330
163C7
100
AcDbEntity
  8
寸法
 62
     7
 48
50.0
100
AcDbMText
 10
7893.158338497896
 20
6708.066653779702
 30
0.0
 40
120.0
 41
0.0
 71
     5
 72
     1
  1
\A1;55
  7
STYLE1
 73
     1
 44
1.0
1001
ACAD
1000
MTEXTBEGIN
1070
    73
1070
     1
1070
    44
1040
1.0
1070
    74
1070
     0
1000
MTEXTEND
  0
POINT
  5
1841F
330
163C7
100
AcDbEntity
  8
DEFPOINTS
 62
     0
 48
50.0
100
AcDbPoint
 10
7584.673057123659
 20
7142.497424545957
 30
0.0
  0
POINT
  5
18420
330
163C7
100
AcDbEntity
  8
DEFPOINTS
 62
     0
 48
50.0
100
AcDbPoint
 10
7529.673057123661
 20
7142.497424545952
 30
0.0
  0
POINT
  5
18421
330
163C7
100
AcDbEntity
  8
DEFPOINTS
 62
     0
 48
50.0
100
AcDbPoint
 10
7529.673057123661
 20
6608.066653779701
 30
0.0
  0
ENDBLK
  5
16499
330
163C7
100
AcDbEntity
  8
0
 48
50.0
100
AcDbBlockEnd
  0
BLOCK
  5
172A1
330
163E1
100
AcDbEntity
  8
0
 48
50.0
100
AcDbBlockBegin
  2
*D11
 70
     1
 10
0.0
 20
0.0
 30
0.0
  3
*D11
  1

  0
LINE
  5
1840E
330
163E1
100
AcDbEntity
  8
寸法
 62
     0
 48
50.0
370
    -2
100
AcDbLine
 10
5429.673057123682
 20
9792.497424545869
 30
0.0
 11
5429.673057123682
 21
10048.30564417096
 31
0.0
  0
LINE
  5
1840F
330
163E1
100
AcDbEntity
  8
寸法
 62
     0
 48
50.0
370
    -2
100
AcDbLine
 10
7529.673057123684
 20
9792.497424545963
 30
0.0
 11
7529.673057123684
 21
10048.30564417096
 31
0.0
  0
LINE
  5
18410
330
163E1
100
AcDbEntity
  8
寸法
 62
     0
 48
50.0
370
    -2
100
AcDbLine
 10
5429.673057123682
 20
9988.305644170967
 30
0.0
 11
7529.673057123684
 21
9988.305644170967
 31
0.0
  0
INSERT
  5
18411
330
163E1
100
AcDbEntity
  8
寸法
 62
     0
 48
50.0
370
    -2
100
AcDbBlockReference
  2
_DOTSMALL
 10
5429.673057123682
 20
9988.305644170967
 30
0.0
 41
100.0
 42
100.0
 43
100.0
 50
180.0
  0
INSERT
  5
18412
330
163E1
100
AcDbEntity
  8
寸法
 62
     0
 48
50.0
370
    -2
100
AcDbBlockReference
  2
_DOTSMALL
 10
7529.673057123684
 20
9988.305644170967
 30
0.0
 41
100.0
 42
100.0
 43
100.0
  0
MTEXT
  5
18413
330
163E1
100
AcDbEntity
  8
寸法
 62
     7
 48
50.0
100
AcDbMText
 10
6479.673057123683
 20
10088.31745519459
 30
0.0
 40
120.0
 41
0.0
 71
     5
 72
     1
  1
\A1;5X420=2100
  7
STYLE1
 73
     1
 44
1.0
1001
ACAD
1000
MTEXTBEGIN
1070
    73
1070
     1
1070
    44
1040
1.0
1070
    74
1070
     0
1000
MTEXTEND
  0
POINT
  5
18414
330
163E1
100
AcDbEntity
  8
DEFPOINTS
 62
     0
 48
50.0
100
AcDbPoint
 10
5429.673057123682
 20
9772.49742454587
 30
0.0
  0
POINT
  5
18415
330
163E1
100
AcDbEntity
  8
DEFPOINTS
 62
     0
 48
50.0
100
AcDbPoint
 10
7529.673057123684
 20
9772.497424545964
 30
0.0
  0
POINT
  5
18416
330
163E1
100
AcDbEntity
  8
DEFPOINTS
 62
     0
 48
50.0
100
AcDbPoint
 10
7529.673057123684
 20
9988.305644170967
 30
0.0
  0
ENDBLK
  5
172AB
330
163E1
100
AcDbEntity
  8
0
 48
50.0
100
AcDbBlockEnd
  0
BLOCK
  5
164B0
330
163ED
100
AcDbEntity
  8
0
 48
50.0
100
AcDbBlockBegin
  2
*D12
 70
     1
 10
0.0
 20
0.0
 30
0.0
  3
*D12
  1

  0
LINE
  5
18403
330
163ED
100
AcDbEntity
  8
寸法
 62
     0
 48
50.0
370
    -2
100
AcDbLine
 10
3164.673057123648
 20
9792.497424545869
 30
0.0
 11
3164.673057123648
 21
10048.30564417085
 31
0.0
  0
LINE
  5
18404
330
163ED
100
AcDbEntity
  8
寸法
 62
     0
 48
50.0
370
    -2
100
AcDbLine
 10
3219.673057123684
 20
9792.497424545869
 30
0.0
 11
3219.673057123684
 21
10048.30564417085
 31
0.0
  0
LINE
  5
18405
330
163ED
100
AcDbEntity
  8
寸法
 62
     0
 48
50.0
370
    -2
100
AcDbLine
 10
3219.673057123684
 20
9988.30564417085
 30
0.0
 11
3319.673057123683
 21
9988.30564417085
 31
0.0
  0
LINE
  5
18406
330
163ED
100
AcDbEntity
  8
寸法
 62
     0
 48
50.0
370
    -2
100
AcDbLine
 10
3164.673057123648
 20
9988.30564417085
 30
0.0
 11
2747.702494375171
 21
9988.30564417085
 31
0.0
  0
LINE
  5
18407
330
163ED
100
AcDbEntity
  8
寸法
 62
     0
 48
50.0
370
    -2
100
AcDbLine
 10
3219.673057123684
 20
9988.30564417085
 30
0.0
 11
3164.673057123648
 21
9988.30564417085
 31
0.0
  0
INSERT
  5
18408
330
163ED
100
AcDbEntity
  8
寸法
 62
     0
 48
50.0
370
    -2
100
AcDbBlockReference
  2
_DOTSMALL
 10
3219.673057123684
 20
9988.30564417085
 30
0.0
 41
100.0
 42
100.0
 43
100.0
 50
180.0
  0
INSERT
  5
18409
330
163ED
100
AcDbEntity
  8
寸法
 62
     0
 48
50.0
370
    -2
100
AcDbBlockReference
  2
_DOTSMALL
 10
3164.673057123648
 20
9988.30564417085
 30
0.0
 41
100.0
 42
100.0
 43
100.0
  0
MTEXT
  5
1840A
330
163ED
100
AcDbEntity
  8
寸法
 62
     7
 48
50.0
100
AcDbMText
 10
2856.18777574941
 20
10088.30564417085
 30
0.0
 40
120.0
 41
0.0
 71
     5
 72
     1
  1
\A1;55
  7
STYLE1
 73
     1
 44
1.0
1001
ACAD
1000
MTEXTBEGIN
1070
    73
1070
     1
1070
    44
1040
1.0
1070
    74
1070
     0
1000
MTEXTEND
  0
POINT
  5
1840B
330
163ED
100
AcDbEntity
  8
DEFPOINTS
 62
     0
 48
50.0
100
AcDbPoint
 10
3164.673057123648
 20
9772.49742454587
 30
0.0
  0
POINT
  5
1840C
330
163ED
100
AcDbEntity
  8
DEFPOINTS
 62
     0
 48
50.0
100
AcDbPoint
 10
3219.673057123684
 20
9772.49742454587
 30
0.0
  0
POINT
  5
1840D
330
163ED
100
AcDbEntity
  8
DEFPOINTS
 62
     0
 48
50.0
100
AcDbPoint
 10
3219.673057123684
 20
9988.30564417085
 30
0.0
  0
ENDBLK
  5
164BC
330
163ED
100
AcDbEntity
  8
0
 48
50.0
100
AcDbBlockEnd
  0
BLOCK
  5
164BD
330
163FB
100
AcDbEntity
  8
0
 48
50.0
100
AcDbBlockBegin
  2
*D13
 70
     1
 10
0.0
 20
0.0
 30
0.0
  3
*D13
  1

  0
LINE
  5
183F8
330
163FB
100
AcDbEntity
  8
寸法
 62
     0
 48
50.0
370
    -2
100
AcDbLine
 10
7529.673057123684
 20
9792.497424545963
 30
0.0
 11
7529.673057123684
 21
10048.30564417095
 31
0.0
  0
LINE
  5
183F9
330
163FB
100
AcDbEntity
  8
寸法
 62
     0
 48
50.0
370
    -2
100
AcDbLine
 10
7584.673057123684
 20
9792.497424545963
 30
0.0
 11
7584.673057123684
 21
10048.30564417095
 31
0.0
  0
LINE
  5
183FA
330
163FB
100
AcDbEntity
  8
寸法
 62
     0
 48
50.0
370
    -2
100
AcDbLine
 10
7529.673057123684
 20
9988.305644170949
 30
0.0
 11
7429.673057123683
 21
9988.305644170949
 31
0.0
  0
LINE
  5
183FB
330
163FB
100
AcDbEntity
  8
寸法
 62
     0
 48
50.0
370
    -2
100
AcDbLine
 10
7584.673057123684
 20
9988.305644170949
 30
0.0
 11
8001.643619872162
 21
9988.305644170949
 31
0.0
  0
LINE
  5
183FC
330
163FB
100
AcDbEntity
  8
寸法
 62
     0
 48
50.0
370
    -2
100
AcDbLine
 10
7529.673057123684
 20
9988.305644170949
 30
0.0
 11
7584.673057123684
 21
9988.305644170949
 31
0.0
  0
INSERT
  5
183FD
330
163FB
100
AcDbEntity
  8
寸法
 62
     0
 48
50.0
370
    -2
100
AcDbBlockReference
  2
_DOTSMALL
 10
7529.673057123684
 20
9988.305644170949
 30
0.0
 41
100.0
 42
100.0
 43
100.0
  0
INSERT
  5
183FE
330
163FB
100
AcDbEntity
  8
寸法
 62
     0
 48
50.0
370
    -2
100
AcDbBlockReference
  2
_DOTSMALL
 10
7584.673057123684
 20
9988.305644170949
 30
0.0
 41
100.0
 42
100.0
 43
100.0
 50
180.0
  0
MTEXT
  5
183FF
330
163FB
100
AcDbEntity
  8
寸法
 62
     7
 48
50.0
100
AcDbMText
 10
7893.158338497922
 20
10088.30564417095
 30
0.0
 40
120.0
 41
0.0
 71
     5
 72
     1
  1
\A1;55
  7
STYLE1
 73
     1
 44
1.0
1001
ACAD
1000
MTEXTBEGIN
1070
    73
1070
     1
1070
    44
1040
1.0
1070
    74
1070
     0
1000
MTEXTEND
  0
POINT
  5
18400
330
163FB
100
AcDbEntity
  8
DEFPOINTS
 62
     0
 48
50.0
100
AcDbPoint
 10
7529.673057123684
 20
9772.497424545964
 30
0.0
  0
POINT
  5
18401
330
163FB
100
AcDbEntity
  8
DEFPOINTS
 62
     0
 48
50.0
100
AcDbPoint
 10
7584.673057123684
 20
9772.497424545964
 30
0.0
  0
POINT
  5
18402
330
163FB
100
AcDbEntity
  8
DEFPOINTS
 62
     0
 48
50.0
100
AcDbPoint
 10
7584.673057123684
 20
9988.305644170949
 30
0.0
  0
ENDBLK
  5
164C9
330
163FB
100
AcDbEntity
  8
0
 48
50.0
100
AcDbBlockEnd
  0
BLOCK
  5
165B6
330
165B5
100
AcDbEntity
  8
0
 48
50.0
100
AcDbBlockBegin
  2
*D14
 70
     1
 10
0.0
 20
0.0
 30
0.0
  3
*D14
  1

  0
LINE
  5
183E2
330
165B5
100
AcDbEntity
  8
寸法
 62
     0
 48
50.0
370
    -2
100
AcDbLine
 10
3267.673057123677
 20
7148.497424545865
 30
0.0
 11
3267.673057123677
 21
6548.0666537797
 31
0.0
  0
LINE
  5
183E3
330
165B5
100
AcDbEntity
  8
寸法
 62
     0
 48
50.0
370
    -2
100
AcDbLine
 10
3219.673057123673
 20
7122.497424545864
 30
0.0
 11
3219.673057123673
 21
6548.0666537797
 31
0.0
  0
LINE
  5
183E4
330
165B5
100
AcDbEntity
  8
寸法
 62
     0
 48
50.0
370
    -2
100
AcDbLine
 10
3267.673057123677
 20
6608.0666537797
 30
0.0
 11
3367.673057123677
 21
6608.0666537797
 31
0.0
  0
LINE
  5
183E5
330
165B5
100
AcDbEntity
  8
寸法
 62
     0
 48
50.0
370
    -2
100
AcDbLine
 10
3219.673057123673
 20
6608.0666537797
 30
0.0
 11
3119.673057123673
 21
6608.0666537797
 31
0.0
  0
MTEXT
  5
183E6
330
165B5
100
AcDbEntity
  8
寸法
 62
     7
 48
50.0
100
AcDbMText
 10
3380.575028123735
 20
6708.0666537797
 30
0.0
 40
120.0
 41
0.0
 71
     5
 72
     1
  1
\A1;48
  7
STYLE1
 73
     1
 44
1.0
1001
ACAD
1000
MTEXTBEGIN
1070
    73
1070
     1
1070
    44
1040
1.0
1070
    74
1070
     0
1000
MTEXTEND
  0
LINE
  5
183E7
330
165B5
100
AcDbEntity
  8
寸法
 62
     0
 48
50.0
370
    -2
100
AcDbLine
 10
3267.673057123677
 20
6608.0666537797
 30
0.0
 11
3219.673057123673
 21
6608.0666537797
 31
0.0
  0
INSERT
  5
183E8
330
165B5
100
AcDbEntity
  8
寸法
 62
     0
 48
50.0
370
    -2
100
AcDbBlockReference
  2
_DOTSMALL
 10
3267.673057123677
 20
6608.0666537797
 30
0.0
 41
100.0
 42
100.0
 43
100.0
 50
180.0
  0
INSERT
  5
183E9
330
165B5
100
AcDbEntity
  8
寸法
 62
     0
 48
50.0
370
    -2
100
AcDbBlockReference
  2
_DOTSMALL
 10
3219.673057123673
 20
6608.0666537797
 30
0.0
 41
100.0
 42
100.0
 43
100.0
  0
POINT
  5
183EA
330
165B5
100
AcDbEntity
  8
DEFPOINTS
 62
     0
 48
50.0
100
AcDbPoint
 10
3267.673057123677
 20
7168.497424545865
 30
0.0
  0
POINT
  5
183EB
330
165B5
100
AcDbEntity
  8
DEFPOINTS
 62
     0
 48
50.0
100
AcDbPoint
 10
3219.673057123673
 20
7142.497424545864
 30
0.0
  0
POINT
  5
183EC
330
165B5
100
AcDbEntity
  8
DEFPOINTS
 62
     0
 48
50.0
100
AcDbPoint
 10
3219.673057123673
 20
6608.0666537797
 30
0.0
  0
ENDBLK
  5
165C3
330
165B5
100
AcDbEntity
  8
0
 48
50.0
100
AcDbBlockEnd
  0
BLOCK
  5
165C5
330
165C4
100
AcDbEntity
  8
0
 48
50.0
100
AcDbBlockBegin
  2
*D15
 70
     1
 10
0.0
 20
0.0
 30
0.0
  3
*D15
  1

  0
LINE
  5
183ED
330
165C4
100
AcDbEntity
  8
寸法
 62
     0
 48
50.0
370
    -2
100
AcDbLine
 10
5319.673057123661
 20
7122.497424545952
 30
0.0
 11
5319.673057123661
 21
6548.0666537797
 31
0.0
  0
LINE
  5
183EE
330
165C4
100
AcDbEntity
  8
寸法
 62
     0
 48
50.0
370
    -2
100
AcDbLine
 10
5271.673057123659
 20
7148.497424545865
 30
0.0
 11
5271.673057123659
 21
6548.0666537797
 31
0.0
  0
LINE
  5
183EF
330
165C4
100
AcDbEntity
  8
寸法
 62
     0
 48
50.0
370
    -2
100
AcDbLine
 10
5319.673057123661
 20
6608.0666537797
 30
0.0
 11
5419.67305712366
 21
6608.0666537797
 31
0.0
  0
LINE
  5
183F0
330
165C4
100
AcDbEntity
  8
寸法
 62
     0
 48
50.0
370
    -2
100
AcDbLine
 10
5271.673057123659
 20
6608.0666537797
 30
0.0
 11
5171.673057123658
 21
6608.0666537797
 31
0.0
  0
MTEXT
  5
183F1
330
165C4
100
AcDbEntity
  8
寸法
 62
     7
 48
50.0
100
AcDbMText
 10
5160.710159474911
 20
6708.0666537797
 30
0.0
 40
120.0
 41
0.0
 71
     5
 72
     1
  1
\A1;48
  7
STYLE1
 73
     1
 44
1.0
1001
ACAD
1000
MTEXTBEGIN
1070
    73
1070
     1
1070
    44
1040
1.0
1070
    74
1070
     0
1000
MTEXTEND
  0
LINE
  5
183F2
330
165C4
100
AcDbEntity
  8
寸法
 62
     0
 48
50.0
370
    -2
100
AcDbLine
 10
5319.673057123661
 20
6608.0666537797
 30
0.0
 11
5271.673057123659
 21
6608.0666537797
 31
0.0
  0
INSERT
  5
183F3
330
165C4
100
AcDbEntity
  8
寸法
 62
     0
 48
50.0
370
    -2
100
AcDbBlockReference
  2
_DOTSMALL
 10
5319.673057123661
 20
6608.0666537797
 30
0.0
 41
100.0
 42
100.0
 43
100.0
 50
180.0
  0
INSERT
  5
183F4
330
165C4
100
AcDbEntity
  8
寸法
 62
     0
 48
50.0
370
    -2
100
AcDbBlockReference
  2
_DOTSMALL
 10
5271.673057123659
 20
6608.0666537797
 30
0.0
 41
100.0
 42
100.0
 43
100.0
  0
POINT
  5
183F5
330
165C4
100
AcDbEntity
  8
DEFPOINTS
 62
     0
 48
50.0
100
AcDbPoint
 10
5319.673057123661
 20
7142.497424545952
 30
0.0
  0
POINT
  5
183F6
330
165C4
100
AcDbEntity
  8
DEFPOINTS
 62
     0
 48
50.0
100
AcDbPoint
 10
5271.673057123659
 20
7168.497424545865
 30
0.0
  0
POINT
  5
183F7
330
165C4
100
AcDbEntity
  8
DEFPOINTS
 62
     0
 48
50.0
100
AcDbPoint
 10
5271.673057123659
 20
6608.0666537797
 30
0.0
  0
ENDBLK
  5
165D2
330
165C4
100
AcDbEntity
  8
0
 48
50.0
100
AcDbBlockEnd
  0
BLOCK
  5
1663F
330
165EA
100
AcDbEntity
  8
0
 48
50.0
100
AcDbBlockBegin
  2
*D16
 70
     1
 10
0.0
 20
0.0
 30
0.0
  3
*D16
  1

  0
LINE
  5
183D9
330
165EA
100
AcDbEntity
  8
寸法
 62
     0
 48
50.0
370
    -2
100
AcDbLine
 10
5429.673057123673
 20
7122.497424545864
 30
0.0
 11
5429.673057123673
 21
6548.066653779702
 31
0.0
  0
LINE
  5
183DA
330
165EA
100
AcDbEntity
  8
寸法
 62
     0
 48
50.0
370
    -2
100
AcDbLine
 10
5319.673057123661
 20
7122.497424545952
 30
0.0
 11
5319.673057123661
 21
6548.066653779702
 31
0.0
  0
LINE
  5
183DB
330
165EA
100
AcDbEntity
  8
寸法
 62
     0
 48
50.0
370
    -2
100
AcDbLine
 10
5429.673057123673
 20
6608.066653779701
 30
0.0
 11
5319.673057123661
 21
6608.066653779701
 31
0.0
  0
MTEXT
  5
183DC
330
165EA
100
AcDbEntity
  8
寸法
 62
     7
 48
50.0
100
AcDbMText
 10
5374.673057123667
 20
6456.37475874347
 30
0.0
 40
120.0
 41
0.0
 71
     5
 72
     1
  1
\A1;110
  7
STYLE1
 73
     1
 44
1.0
1001
ACAD
1000
MTEXTBEGIN
1070
    73
1070
     1
1070
    44
1040
1.0
1070
    74
1070
     0
1000
MTEXTEND
  0
INSERT
  5
183DD
330
165EA
100
AcDbEntity
  8
寸法
 62
     0
 48
50.0
370
    -2
100
AcDbBlockReference
  2
_DOTSMALL
 10
5429.673057123673
 20
6608.066653779701
 30
0.0
 41
100.0
 42
100.0
 43
100.0
  0
INSERT
  5
183DE
330
165EA
100
AcDbEntity
  8
寸法
 62
     0
 48
50.0
370
    -2
100
AcDbBlockReference
  2
_DOTSMALL
 10
5319.673057123661
 20
6608.066653779701
 30
0.0
 41
100.0
 42
100.0
 43
100.0
 50
180.0
  0
POINT
  5
183DF
330
165EA
100
AcDbEntity
  8
DEFPOINTS
 62
     0
 48
50.0
100
AcDbPoint
 10
5429.673057123673
 20
7142.497424545864
 30
0.0
  0
POINT
  5
183E0
330
165EA
100
AcDbEntity
  8
DEFPOINTS
 62
     0
 48
50.0
100
AcDbPoint
 10
5319.673057123661
 20
7142.497424545952
 30
0.0
  0
POINT
  5
183E1
330
165EA
100
AcDbEntity
  8
DEFPOINTS
 62
     0
 48
50.0
100
AcDbPoint
 10
5319.673057123661
 20
6608.066653779701
 30
0.0
  0
ENDBLK
  5
16649
330
165EA
100
AcDbEntity
  8
0
 48
50.0
100
AcDbBlockEnd
  0
BLOCK
  5
166D0
330
166CF
100
AcDbEntity
  8
0
 48
50.0
100
AcDbBlockBegin
  2
*D17
 70
     1
 10
0.0
 20
0.0
 30
0.0
  3
*D17
  1

  0
LINE
  5
183CE
330
166CF
100
AcDbEntity
  8
寸法
 62
     0
 48
50.0
370
    -2
100
AcDbLine
 10
5429.673057123682
 20
9792.497424545919
 30
0.0
 11
5429.673057123682
 21
10048.30564417096
 31
0.0
  0
LINE
  5
183CF
330
166CF
100
AcDbEntity
  8
寸法
 62
     0
 48
50.0
370
    -2
100
AcDbLine
 10
5319.673057123684
 20
9792.497424545913
 30
0.0
 11
5319.673057123684
 21
10048.30564417096
 31
0.0
  0
LINE
  5
183D0
330
166CF
100
AcDbEntity
  8
寸法
 62
     0
 48
50.0
370
    -2
100
AcDbLine
 10
5429.673057123682
 20
9988.305644170967
 30
0.0
 11
5529.673057123683
 21
9988.305644170967
 31
0.0
  0
LINE
  5
183D1
330
166CF
100
AcDbEntity
  8
寸法
 62
     0
 48
50.0
370
    -2
100
AcDbLine
 10
5319.673057123684
 20
9988.305644170967
 30
0.0
 11
5219.673057123684
 21
9988.305644170967
 31
0.0
  0
LINE
  5
183D2
330
166CF
100
AcDbEntity
  8
寸法
 62
     0
 48
50.0
370
    -2
100
AcDbLine
 10
5429.673057123682
 20
9988.305644170967
 30
0.0
 11
5319.673057123684
 21
9988.305644170967
 31
0.0
  0
INSERT
  5
183D3
330
166CF
100
AcDbEntity
  8
寸法
 62
     0
 48
50.0
370
    -2
100
AcDbBlockReference
  2
_DOTSMALL
 10
5429.673057123682
 20
9988.305644170967
 30
0.0
 41
100.0
 42
100.0
 43
100.0
 50
180.0
  0
INSERT
  5
183D4
330
166CF
100
AcDbEntity
  8
寸法
 62
     0
 48
50.0
370
    -2
100
AcDbBlockReference
  2
_DOTSMALL
 10
5319.673057123684
 20
9988.305644170967
 30
0.0
 41
100.0
 42
100.0
 43
100.0
  0
MTEXT
  5
183D5
330
166CF
100
AcDbEntity
  8
寸法
 62
     7
 48
50.0
100
AcDbMText
 10
5374.673057123684
 20
10088.30564417096
 30
0.0
 40
120.0
 41
0.0
 71
     5
 72
     1
  1
\A1;110
  7
STYLE1
 73
     1
 44
1.0
1001
ACAD
1000
MTEXTBEGIN
1070
    73
1070
     1
1070
    44
1040
1.0
1070
    74
1070
     0
1000
MTEXTEND
  0
POINT
  5
183D6
330
166CF
100
AcDbEntity
  8
DEFPOINTS
 62
     0
 48
50.0
100
AcDbPoint
 10
5429.673057123682
 20
9772.497424545917
 30
0.0
  0
POINT
  5
183D7
330
166CF
100
AcDbEntity
  8
DEFPOINTS
 62
     0
 48
50.0
100
AcDbPoint
 10
5319.673057123684
 20
9772.497424545916
 30
0.0
  0
POINT
  5
183D8
330
166CF
100
AcDbEntity
  8
DEFPOINTS
 62
     0
 48
50.0
100
AcDbPoint
 10
5319.673057123684
 20
9988.305644170967
 30
0.0
  0
ENDBLK
  5
166DC
330
166CF
100
AcDbEntity
  8
0
 48
50.0
100
AcDbBlockEnd
  0
BLOCK
  5
1726C
330
16908
100
AcDbEntity
  8
0
 48
50.0
100
AcDbBlockBegin
  2
*D18
 70
     1
 10
0.0
 20
0.0
 30
0.0
  3
*D18
  1

  0
LINE
  5
183C6
330
16908
100
AcDbEntity
  8
寸法
 62
     0
 48
50.0
370
    -2
100
AcDbLine
 10
7584.673057123684
 20
9792.497424545963
 30
0.0
 11
7584.673057123684
 21
10297.62711772726
 31
0.0
  0
LINE
  5
183C7
330
16908
100
AcDbEntity
  8
寸法
 62
     0
 48
50.0
370
    -2
100
AcDbLine
 10
5374.673057123684
 20
10237.62711772726
 30
0.0
 11
7584.673057123684
 21
10237.62711772726
 31
0.0
  0
INSERT
  5
183C8
330
16908
100
AcDbEntity
  8
寸法
 62
     0
 48
50.0
370
    -2
100
AcDbBlockReference
  2
_DOTSMALL
 10
5374.673057123684
 20
10237.62711772726
 30
0.0
 41
100.0
 42
100.0
 43
100.0
 50
180.0
  0
INSERT
  5
183C9
330
16908
100
AcDbEntity
  8
寸法
 62
     0
 48
50.0
370
    -2
100
AcDbBlockReference
  2
_DOTSMALL
 10
7584.673057123684
 20
10237.62711772726
 30
0.0
 41
100.0
 42
100.0
 43
100.0
  0
MTEXT
  5
183CA
330
16908
100
AcDbEntity
  8
寸法
 62
     7
 48
50.0
100
AcDbMText
 10
6479.673057123683
 20
10337.63892875088
 30
0.0
 40
120.0
 41
0.0
 71
     5
 72
     1
  1
\A1;2210
  7
STYLE1
 73
     1
 44
1.0
1001
ACAD
1000
MTEXTBEGIN
1070
    73
1070
     1
1070
    44
1040
1.0
1070
    74
1070
     0
1000
MTEXTEND
  0
POINT
  5
183CB
330
16908
100
AcDbEntity
  8
DEFPOINTS
 62
     0
 48
50.0
100
AcDbPoint
 10
5374.673057123684
 20
10147.29355852891
 30
0.0
  0
POINT
  5
183CC
330
16908
100
AcDbEntity
  8
DEFPOINTS
 62
     0
 48
50.0
100
AcDbPoint
 10
7584.673057123684
 20
9772.497424545964
 30
0.0
  0
POINT
  5
183CD
330
16908
100
AcDbEntity
  8
DEFPOINTS
 62
     0
 48
50.0
100
AcDbPoint
 10
7584.673057123684
 20
10237.62711772726
 30
0.0
  0
ENDBLK
  5
17275
330
16908
100
AcDbEntity
  8
0
 48
50.0
100
AcDbBlockEnd
  0
BLOCK
  5
17BDC
330
17BD3
100
AcDbEntity
  8
0
 48
50.0
100
AcDbBlockBegin
  2
*D19
 70
     1
 10
0.0
 20
0.0
 30
0.0
  3
*D19
  1

  0
LINE
  5
183AC
330
17BD3
100
AcDbEntity
  8
寸法
 62
     0
 48
50.0
370
    -2
100
AcDbLine
 10
3267.673057123677
 20
7148.497424545865
 30
0.0
 11
3267.673057123677
 21
6548.0666537797
 31
0.0
  0
LINE
  5
183AD
330
17BD3
100
AcDbEntity
  8
寸法
 62
     0
 48
50.0
370
    -2
100
AcDbLine
 10
5271.673057123659
 20
6608.0666537797
 30
0.0
 11
3267.673057123677
 21
6608.0666537797
 31
0.0
  0
INSERT
  5
183AE
330
17BD3
100
AcDbEntity
  8
寸法
 62
     0
 48
50.0
370
    -2
100
AcDbBlockReference
  2
_DOTSMALL
 10
5271.673057123659
 20
6608.0666537797
 30
0.0
 41
100.0
 42
100.0
 43
100.0
  0
INSERT
  5
183AF
330
17BD3
100
AcDbEntity
  8
寸法
 62
     0
 48
50.0
370
    -2
100
AcDbBlockReference
  2
_DOTSMALL
 10
3267.673057123677
 20
6608.0666537797
 30
0.0
 41
100.0
 42
100.0
 43
100.0
 50
180.0
  0
MTEXT
  5
183B0
330
17BD3
100
AcDbEntity
  8
寸法
 62
     7
 48
50.0
100
AcDbMText
 10
4269.673057123667
 20
6708.078464803323
 30
0.0
 40
120.0
 41
0.0
 71
     5
 72
     1
  1
\A1;有効開口部間口 2004
  7
STYLE1
 73
     1
 44
1.0
1001
ACAD
1000
MTEXTBEGIN
1070
    73
1070
     1
1070
    44
1040
1.0
1070
    74
1070
     0
1000
MTEXTEND
  0
POINT
  5
183B1
330
17BD3
100
AcDbEntity
  8
DEFPOINTS
 62
     0
 48
50.0
100
AcDbPoint
 10
5271.673057123659
 20
7168.497424545865
 30
0.0
  0
POINT
  5
183B2
330
17BD3
100
AcDbEntity
  8
DEFPOINTS
 62
     0
 48
50.0
100
AcDbPoint
 10
3267.673057123677
 20
7168.497424545865
 30
0.0
  0
POINT
  5
183B3
330
17BD3
100
AcDbEntity
  8
DEFPOINTS
 62
     0
 48
50.0
100
AcDbPoint
 10
3267.673057123677
 20
6608.0666537797
 30
0.0
  0
ENDBLK
  5
17BDD
330
17BD3
100
AcDbEntity
  8
0
 48
50.0
100
AcDbBlockEnd
  0
BLOCK
  5
17BE8
330
17BDE
100
AcDbEntity
  8
0
 48
50.0
100
AcDbBlockBegin
  2
*D20
 70
     1
 10
0.0
 20
0.0
 30
0.0
  3
*D20
  1

  0
LINE
  5
183B4
330
17BDE
100
AcDbEntity
  8
寸法
 62
     0
 48
50.0
370
    -2
100
AcDbLine
 10
3219.673057123684
 20
9792.497424545869
 30
0.0
 11
3219.673057123684
 21
10048.30564417096
 31
0.0
  0
LINE
  5
183B5
330
17BDE
100
AcDbEntity
  8
寸法
 62
     0
 48
50.0
370
    -2
100
AcDbLine
 10
5319.673057123684
 20
9792.497424545963
 30
0.0
 11
5319.673057123684
 21
10048.30564417096
 31
0.0
  0
LINE
  5
183B6
330
17BDE
100
AcDbEntity
  8
寸法
 62
     0
 48
50.0
370
    -2
100
AcDbLine
 10
3219.673057123684
 20
9988.305644170967
 30
0.0
 11
5319.673057123684
 21
9988.305644170967
 31
0.0
  0
INSERT
  5
183B7
330
17BDE
100
AcDbEntity
  8
寸法
 62
     0
 48
50.0
370
    -2
100
AcDbBlockReference
  2
_DOTSMALL
 10
3219.673057123684
 20
9988.305644170967
 30
0.0
 41
100.0
 42
100.0
 43
100.0
 50
180.0
  0
INSERT
  5
183B8
330
17BDE
100
AcDbEntity
  8
寸法
 62
     0
 48
50.0
370
    -2
100
AcDbBlockReference
  2
_DOTSMALL
 10
5319.673057123684
 20
9988.305644170967
 30
0.0
 41
100.0
 42
100.0
 43
100.0
  0
MTEXT
  5
183B9
330
17BDE
100
AcDbEntity
  8
寸法
 62
     7
 48
50.0
100
AcDbMText
 10
4269.673057123684
 20
10088.31745519459
 30
0.0
 40
120.0
 41
0.0
 71
     5
 72
     1
  1
\A1;5X420=2100
  7
STYLE1
 73
     1
 44
1.0
1001
ACAD
1000
MTEXTBEGIN
1070
    73
1070
     1
1070
    44
1040
1.0
1070
    74
1070
     0
1000
MTEXTEND
  0
POINT
  5
183BA
330
17BDE
100
AcDbEntity
  8
DEFPOINTS
 62
     0
 48
50.0
100
AcDbPoint
 10
3219.673057123684
 20
9772.49742454587
 30
0.0
  0
POINT
  5
183BB
330
17BDE
100
AcDbEntity
  8
DEFPOINTS
 62
     0
 48
50.0
100
AcDbPoint
 10
5319.673057123684
 20
9772.497424545964
 30
0.0
  0
POINT
  5
183BC
330
17BDE
100
AcDbEntity
  8
DEFPOINTS
 62
     0
 48
50.0
100
AcDbPoint
 10
5319.673057123684
 20
9988.305644170967
 30
0.0
  0
ENDBLK
  5
17BE9
330
17BDE
100
AcDbEntity
  8
0
 48
50.0
100
AcDbBlockEnd
  0
BLOCK
  5
17C02
330
17BF8
100
AcDbEntity
  8
0
 48
50.0
100
AcDbBlockBegin
  2
*D21
 70
     1
 10
0.0
 20
0.0
 30
0.0
  3
*D21
  1

  0
LINE
  5
183BD
330
17BF8
100
AcDbEntity
  8
寸法
 62
     0
 48
50.0
370
    -2
100
AcDbLine
 10
3164.673057123648
 20
9792.497424545835
 30
0.0
 11
3164.673057123648
 21
10297.62711772726
 31
0.0
  0
LINE
  5
183BE
330
17BF8
100
AcDbEntity
  8
寸法
 62
     0
 48
50.0
370
    -2
100
AcDbLine
 10
5374.673057123684
 20
10167.29355852891
 30
0.0
 11
5374.673057123684
 21
10297.62711772726
 31
0.0
  0
LINE
  5
183BF
330
17BF8
100
AcDbEntity
  8
寸法
 62
     0
 48
50.0
370
    -2
100
AcDbLine
 10
3164.673057123648
 20
10237.62711772726
 30
0.0
 11
5374.673057123684
 21
10237.62711772726
 31
0.0
  0
INSERT
  5
183C0
330
17BF8
100
AcDbEntity
  8
寸法
 62
     0
 48
50.0
370
    -2
100
AcDbBlockReference
  2
_DOTSMALL
 10
3164.673057123648
 20
10237.62711772726
 30
0.0
 41
100.0
 42
100.0
 43
100.0
 50
180.0
  0
INSERT
  5
183C1
330
17BF8
100
AcDbEntity
  8
寸法
 62
     0
 48
50.0
370
    -2
100
AcDbBlockReference
  2
_DOTSMALL
 10
5374.673057123684
 20
10237.62711772726
 30
0.0
 41
100.0
 42
100.0
 43
100.0
  0
MTEXT
  5
183C2
330
17BF8
100
AcDbEntity
  8
寸法
 62
     7
 48
50.0
100
AcDbMText
 10
4269.673057123665
 20
10337.63892875088
 30
0.0
 40
120.0
 41
0.0
 71
     5
 72
     1
  1
\A1;2210
  7
STYLE1
 73
     1
 44
1.0
1001
ACAD
1000
MTEXTBEGIN
1070
    73
1070
     1
1070
    44
1040
1.0
1070
    74
1070
     0
1000
MTEXTEND
  0
POINT
  5
183C3
330
17BF8
100
AcDbEntity
  8
DEFPOINTS
 62
     0
 48
50.0
100
AcDbPoint
 10
3164.673057123648
 20
9772.497424545838
 30
0.0
  0
POINT
  5
183C4
330
17BF8
100
AcDbEntity
  8
DEFPOINTS
 62
     0
 48
50.0
100
AcDbPoint
 10
5374.673057123684
 20
10147.29355852891
 30
0.0
  0
POINT
  5
183C5
330
17BF8
100
AcDbEntity
  8
DEFPOINTS
 62
     0
 48
50.0
100
AcDbPoint
 10
5374.673057123684
 20
10237.62711772726
 30
0.0
  0
ENDBLK
  5
17C03
330
17BF8
100
AcDbEntity
  8
0
 48
50.0
100
AcDbBlockEnd
  0
BLOCK
  5
18B02
330
18AF8
100
AcDbEntity
  8
0
 48
50.0
100
AcDbBlockBegin
  2
*D22
 70
     1
 10
0.0
 20
0.0
 30
0.0
  3
*D22
  1

  0
LINE
  5
18DFD
330
18AF8
100
AcDbEntity
  8
寸法
 62
     0
 48
50.0
370
    -2
100
AcDbLine
 10
10191.8498305133
 20
4001.270620748136
 30
0.0
 11
9308.099701330041
 21
4001.270620748136
 31
0.0
  0
LINE
  5
18DFE
330
18AF8
100
AcDbEntity
  8
寸法
 62
     0
 48
50.0
370
    -2
100
AcDbLine
 10
10191.8498305133
 20
2211.270620748134
 30
0.0
 11
9308.099701330041
 21
2211.270620748134
 31
0.0
  0
LINE
  5
18DFF
330
18AF8
100
AcDbEntity
  8
寸法
 62
     0
 48
50.0
370
    -2
100
AcDbLine
 10
9368.09970133004
 20
4001.270620748136
 30
0.0
 11
9368.09970133004
 21
2211.270620748134
 31
0.0
  0
INSERT
  5
18E00
330
18AF8
100
AcDbEntity
  8
寸法
 62
     0
 48
50.0
370
    -2
100
AcDbBlockReference
  2
_DOTSMALL
 10
9368.09970133004
 20
4001.270620748136
 30
0.0
 41
100.0
 42
100.0
 43
100.0
 50
90.0
  0
INSERT
  5
18E01
330
18AF8
100
AcDbEntity
  8
寸法
 62
     0
 48
50.0
370
    -2
100
AcDbBlockReference
  2
_DOTSMALL
 10
9368.09970133004
 20
2211.270620748134
 30
0.0
 41
100.0
 42
100.0
 43
100.0
 50
270.0
  0
MTEXT
  5
18E02
330
18AF8
100
AcDbEntity
  8
寸法
 62
     7
 48
50.0
100
AcDbMText
 10
9268.09970133004
 20
3106.270620748137
 30
0.0
 40
120.0
 41
0.0
 71
     5
 72
     1
  1
\A1;1790
  7
STYLE1
 11
0.0000000000000001
 21
1.0
 31
0.0
 73
     1
 44
1.0
1001
ACAD
1000
MTEXTBEGIN
1070
    73
1070
     1
1070
    44
1040
1.0
1070
    74
1070
     0
1000
MTEXTEND
  0
POINT
  5
18E03
330
18AF8
100
AcDbEntity
  8
DEFPOINTS
 62
     0
 48
50.0
100
AcDbPoint
 10
10211.8498305133
 20
4001.270620748136
 30
0.0
  0
POINT
  5
18E04
330
18AF8
100
AcDbEntity
  8
DEFPOINTS
 62
     0
 48
50.0
100
AcDbPoint
 10
10211.8498305133
 20
2211.270620748134
 30
0.0
  0
POINT
  5
18E05
330
18AF8
100
AcDbEntity
  8
DEFPOINTS
 62
     0
 48
50.0
100
AcDbPoint
 10
9368.09970133004
 20
2211.270620748134
 30
0.0
  0
ENDBLK
  5
18B03
330
18AF8
100
AcDbEntity
  8
0
 48
50.0
100
AcDbBlockEnd
  0
BLOCK
  5
18B0E
330
18B04
100
AcDbEntity
  8
0
 48
50.0
100
AcDbBlockBegin
  2
*D23
 70
     1
 10
0.0
 20
0.0
 30
0.0
  3
*D23
  1

  0
LINE
  5
18DF4
330
18B04
100
AcDbEntity
  8
寸法
 62
     0
 48
50.0
370
    -2
100
AcDbLine
 10
10191.8498305133
 20
2161.270620748134
 30
0.0
 11
9008.099701330039
 21
2161.270620748135
 31
0.0
  0
LINE
  5
18DF5
330
18B04
100
AcDbEntity
  8
寸法
 62
     0
 48
50.0
370
    -2
100
AcDbLine
 10
10131.8498305133
 20
4236.270620748139
 30
0.0
 11
9008.09970133004
 21
4236.270620748139
 31
0.0
  0
LINE
  5
18DF6
330
18B04
100
AcDbEntity
  8
寸法
 62
     0
 48
50.0
370
    -2
100
AcDbLine
 10
9068.099701330039
 20
2161.270620748135
 30
0.0
 11
9068.099701330039
 21
4236.270620748139
 31
0.0
  0
INSERT
  5
18DF7
330
18B04
100
AcDbEntity
  8
寸法
 62
     0
 48
50.0
370
    -2
100
AcDbBlockReference
  2
_DOTSMALL
 10
9068.099701330039
 20
2161.270620748135
 30
0.0
 41
100.0
 42
100.0
 43
100.0
 50
270.0
  0
INSERT
  5
18DF8
330
18B04
100
AcDbEntity
  8
寸法
 62
     0
 48
50.0
370
    -2
100
AcDbBlockReference
  2
_DOTSMALL
 10
9068.099701330039
 20
4236.270620748139
 30
0.0
 41
100.0
 42
100.0
 43
100.0
 50
90.0
  0
MTEXT
  5
18DF9
330
18B04
100
AcDbEntity
  8
寸法
 62
     7
 48
50.0
100
AcDbMText
 10
8968.087890306417
 20
3198.770620748139
 30
0.0
 40
120.0
 41
0.0
 71
     5
 72
     1
  1
\A1;2075
  7
STYLE1
 11
0.0000000000000001
 21
1.0
 31
0.0
 73
     1
 44
1.0
1001
ACAD
1000
MTEXTBEGIN
1070
    73
1070
     1
1070
    44
1040
1.0
1070
    74
1070
     0
1000
MTEXTEND
  0
POINT
  5
18DFA
330
18B04
100
AcDbEntity
  8
DEFPOINTS
 62
     0
 48
50.0
100
AcDbPoint
 10
10211.8498305133
 20
2161.270620748134
 30
0.0
  0
POINT
  5
18DFB
330
18B04
100
AcDbEntity
  8
DEFPOINTS
 62
     0
 48
50.0
100
AcDbPoint
 10
10151.8498305133
 20
4236.270620748139
 30
0.0
  0
POINT
  5
18DFC
330
18B04
100
AcDbEntity
  8
DEFPOINTS
 62
     0
 48
50.0
100
AcDbPoint
 10
9068.099701330039
 20
4236.270620748139
 30
0.0
  0
ENDBLK
  5
18B0F
330
18B04
100
AcDbEntity
  8
0
 48
50.0
100
AcDbBlockEnd
  0
BLOCK
  5
18B1A
330
18B10
100
AcDbEntity
  8
0
 48
50.0
100
AcDbBlockBegin
  2
*D24
 70
     1
 10
0.0
 20
0.0
 30
0.0
  3
*D24
  1

  0
LINE
  5
18DEB
330
18B10
100
AcDbEntity
  8
寸法
 62
     0
 48
50.0
370
    -2
100
AcDbLine
 10
12861.8498305133
 20
2161.270620748142
 30
0.0
 11
13606.77698848543
 21
2161.270620748141
 31
0.0
  0
LINE
  5
18DEC
330
18B10
100
AcDbEntity
  8
寸法
 62
     0
 48
50.0
370
    -2
100
AcDbLine
 10
12941.8498305133
 20
4181.270620748142
 30
0.0
 11
13606.77698848543
 21
4181.270620748142
 31
0.0
  0
LINE
  5
18DED
330
18B10
100
AcDbEntity
  8
寸法
 62
     0
 48
50.0
370
    -2
100
AcDbLine
 10
13546.77698848543
 20
2161.270620748141
 30
0.0
 11
13546.77698848543
 21
4181.270620748142
 31
0.0
  0
INSERT
  5
18DEE
330
18B10
100
AcDbEntity
  8
寸法
 62
     0
 48
50.0
370
    -2
100
AcDbBlockReference
  2
_DOTSMALL
 10
13546.77698848543
 20
2161.270620748141
 30
0.0
 41
100.0
 42
100.0
 43
100.0
 50
270.0
  0
INSERT
  5
18DEF
330
18B10
100
AcDbEntity
  8
寸法
 62
     0
 48
50.0
370
    -2
100
AcDbBlockReference
  2
_DOTSMALL
 10
13546.77698848543
 20
4181.270620748142
 30
0.0
 41
100.0
 42
100.0
 43
100.0
 50
90.0
  0
MTEXT
  5
18DF0
330
18B10
100
AcDbEntity
  8
寸法
 62
     7
 48
50.0
100
AcDbMText
 10
13446.76517746181
 20
3171.270620748144
 30
0.0
 40
120.0
 41
0.0
 71
     5
 72
     1
  1
\A1;2020
  7
STYLE1
 11
0.0000000000000001
 21
1.0
 31
0.0
 73
     1
 44
1.0
1001
ACAD
1000
MTEXTBEGIN
1070
    73
1070
     1
1070
    44
1040
1.0
1070
    74
1070
     0
1000
MTEXTEND
  0
POINT
  5
18DF1
330
18B10
100
AcDbEntity
  8
DEFPOINTS
 62
     0
 48
50.0
100
AcDbPoint
 10
12841.8498305133
 20
2161.270620748142
 30
0.0
  0
POINT
  5
18DF2
330
18B10
100
AcDbEntity
  8
DEFPOINTS
 62
     0
 48
50.0
100
AcDbPoint
 10
12921.8498305133
 20
4181.270620748142
 30
0.0
  0
POINT
  5
18DF3
330
18B10
100
AcDbEntity
  8
DEFPOINTS
 62
     0
 48
50.0
100
AcDbPoint
 10
13546.77698848543
 20
4181.270620748142
 30
0.0
  0
ENDBLK
  5
18B1B
330
18B10
100
AcDbEntity
  8
0
 48
50.0
100
AcDbBlockEnd
  0
BLOCK
  5
18B28
330
18B1C
100
AcDbEntity
  8
0
 48
50.0
100
AcDbBlockBegin
  2
*D25
 70
     1
 10
0.0
 20
0.0
 30
0.0
  3
*D25
  1

  0
LINE
  5
18DE0
330
18B1C
100
AcDbEntity
  8
寸法
 62
     0
 48
50.0
370
    -2
100
AcDbLine
 10
10191.8498305133
 20
2211.27062074814
 30
0.0
 11
9308.099701330041
 21
2211.27062074814
 31
0.0
  0
LINE
  5
18DE1
330
18B1C
100
AcDbEntity
  8
寸法
 62
     0
 48
50.0
370
    -2
100
AcDbLine
 10
10136.8498305133
 20
2161.27062074814
 30
0.0
 11
9308.099701330041
 21
2161.27062074814
 31
0.0
  0
LINE
  5
18DE2
330
18B1C
100
AcDbEntity
  8
寸法
 62
     0
 48
50.0
370
    -2
100
AcDbLine
 10
9368.09970133004
 20
2211.27062074814
 30
0.0
 11
9368.09970133004
 21
2311.27062074814
 31
0.0
  0
LINE
  5
18DE3
330
18B1C
100
AcDbEntity
  8
寸法
 62
     0
 48
50.0
370
    -2
100
AcDbLine
 10
9368.09970133004
 20
2161.27062074814
 30
0.0
 11
9368.09970133004
 21
1749.176132559161
 31
0.0
  0
LINE
  5
18DE4
330
18B1C
100
AcDbEntity
  8
寸法
 62
     0
 48
50.0
370
    -2
100
AcDbLine
 10
9368.09970133004
 20
2211.27062074814
 30
0.0
 11
9368.09970133004
 21
2161.27062074814
 31
0.0
  0
INSERT
  5
18DE5
330
18B1C
100
AcDbEntity
  8
寸法
 62
     0
 48
50.0
370
    -2
100
AcDbBlockReference
  2
_DOTSMALL
 10
9368.09970133004
 20
2211.27062074814
 30
0.0
 41
100.0
 42
100.0
 43
100.0
 50
270.0
  0
INSERT
  5
18DE6
330
18B1C
100
AcDbEntity
  8
寸法
 62
     0
 48
50.0
370
    -2
100
AcDbBlockReference
  2
_DOTSMALL
 10
9368.09970133004
 20
2161.27062074814
 30
0.0
 41
100.0
 42
100.0
 43
100.0
 50
90.0
  0
MTEXT
  5
18DE7
330
18B1C
100
AcDbEntity
  8
寸法
 62
     7
 48
50.0
100
AcDbMText
 10
9268.09970133004
 20
1855.22337665365
 30
0.0
 40
120.0
 41
0.0
 71
     5
 72
     1
  1
\A1;50
  7
STYLE1
 11
0.0000000000000001
 21
1.0
 31
0.0
 73
     1
 44
1.0
1001
ACAD
1000
MTEXTBEGIN
1070
    73
1070
     1
1070
    44
1040
1.0
1070
    74
1070
     0
1000
MTEXTEND
  0
POINT
  5
18DE8
330
18B1C
100
AcDbEntity
  8
DEFPOINTS
 62
     0
 48
50.0
100
AcDbPoint
 10
10211.8498305133
 20
2211.27062074814
 30
0.0
  0
POINT
  5
18DE9
330
18B1C
100
AcDbEntity
  8
DEFPOINTS
 62
     0
 48
50.0
100
AcDbPoint
 10
10156.8498305133
 20
2161.27062074814
 30
0.0
  0
POINT
  5
18DEA
330
18B1C
100
AcDbEntity
  8
DEFPOINTS
 62
     0
 48
50.0
100
AcDbPoint
 10
9368.09970133004
 20
2161.27062074814
 30
0.0
  0
ENDBLK
  5
18B29
330
18B1C
100
AcDbEntity
  8
0
 48
50.0
100
AcDbBlockEnd
  0
BLOCK
  5
18B34
330
18B2A
100
AcDbEntity
  8
0
 48
50.0
100
AcDbBlockBegin
  2
*D26
 70
     1
 10
0.0
 20
0.0
 30
0.0
  3
*D26
  1

  0
LINE
  5
19A99
330
18B2A
100
AcDbEntity
  8
寸法
 62
     0
 48
50.0
370
    -2
100
AcDbLine
 10
12841.8498305133
 20
4203.081300359793
 30
0.0
 11
12841.8498305133
 21
4694.928074327445
 31
0.0
  0
LINE
  5
19A9A
330
18B2A
100
AcDbEntity
  8
寸法
 62
     0
 48
50.0
370
    -2
100
AcDbLine
 10
10211.8498305133
 20
4252.272238871117
 30
0.0
 11
10211.8498305133
 21
4694.928074327445
 31
0.0
  0
LINE
  5
19A9B
330
18B2A
100
AcDbEntity
  8
寸法
 62
     0
 48
50.0
370
    -2
100
AcDbLine
 10
12841.8498305133
 20
4634.928074327445
 30
0.0
 11
10211.8498305133
 21
4634.928074327445
 31
0.0
  0
INSERT
  5
19A9C
330
18B2A
100
AcDbEntity
  8
寸法
 62
     0
 48
50.0
370
    -2
100
AcDbBlockReference
  2
_DOTSMALL
 10
12841.8498305133
 20
4634.928074327445
 30
0.0
 41
100.0
 42
100.0
 43
100.0
  0
INSERT
  5
19A9D
330
18B2A
100
AcDbEntity
  8
寸法
 62
     0
 48
50.0
370
    -2
100
AcDbBlockReference
  2
_DOTSMALL
 10
10211.8498305133
 20
4634.928074327445
 30
0.0
 41
100.0
 42
100.0
 43
100.0
 50
180.0
  0
MTEXT
  5
19A9E
330
18B2A
100
AcDbEntity
  8
寸法
 62
     7
 48
50.0
100
AcDbMText
 10
11526.8498305133
 20
4734.939885351067
 30
0.0
 40
120.0
 41
0.0
 71
     5
 72
     1
  1
\A1;柱外寸法2630
  7
STYLE1
 73
     1
 44
1.0
1001
ACAD
1000
MTEXTBEGIN
1070
    73
1070
     1
1070
    44
1040
1.0
1070
    74
1070
     0
1000
MTEXTEND
  0
POINT
  5
19A9F
330
18B2A
100
AcDbEntity
  8
DEFPOINTS
 62
     0
 48
50.0
100
AcDbPoint
 10
12841.8498305133
 20
4183.081300359793
 30
0.0
  0
POINT
  5
19AA0
330
18B2A
100
AcDbEntity
  8
DEFPOINTS
 62
     0
 48
50.0
100
AcDbPoint
 10
10211.8498305133
 20
4232.272238871116
 30
0.0
  0
POINT
  5
19AA1
330
18B2A
100
AcDbEntity
  8
DEFPOINTS
 62
     0
 48
50.0
100
AcDbPoint
 10
10211.8498305133
 20
4634.928074327445
 30
0.0
  0
ENDBLK
  5
18B35
330
18B2A
100
AcDbEntity
  8
0
 48
50.0
100
AcDbBlockEnd
  0
BLOCK
  5
18B42
330
18B36
100
AcDbEntity
  8
0
 48
50.0
100
AcDbBlockBegin
  2
*D27
 70
     1
 10
0.0
 20
0.0
 30
0.0
  3
*D27
  1

  0
LINE
  5
18DCC
330
18B36
100
AcDbEntity
  8
寸法
 62
     0
 48
50.0
370
    -2
100
AcDbLine
 10
10211.8498305133
 20
4252.272238871117
 30
0.0
 11
10211.8498305133
 21
4694.928074327444
 31
0.0
  0
LINE
  5
18DCD
330
18B36
100
AcDbEntity
  8
寸法
 62
     0
 48
50.0
370
    -2
100
AcDbLine
 10
10151.8498305133
 20
4256.270620748145
 30
0.0
 11
10151.8498305133
 21
4694.928074327444
 31
0.0
  0
LINE
  5
18DCE
330
18B36
100
AcDbEntity
  8
寸法
 62
     0
 48
50.0
370
    -2
100
AcDbLine
 10
10211.8498305133
 20
4634.928074327444
 30
0.0
 11
10311.8498305133
 21
4634.928074327444
 31
0.0
  0
LINE
  5
18DCF
330
18B36
100
AcDbEntity
  8
寸法
 62
     0
 48
50.0
370
    -2
100
AcDbLine
 10
10151.8498305133
 20
4634.928074327444
 30
0.0
 11
9732.574239962119
 21
4634.928074327444
 31
0.0
  0
LINE
  5
18DD0
330
18B36
100
AcDbEntity
  8
寸法
 62
     0
 48
50.0
370
    -2
100
AcDbLine
 10
10211.8498305133
 20
4634.928074327444
 30
0.0
 11
10151.8498305133
 21
4634.928074327444
 31
0.0
  0
INSERT
  5
18DD1
330
18B36
100
AcDbEntity
  8
寸法
 62
     0
 48
50.0
370
    -2
100
AcDbBlockReference
  2
_DOTSMALL
 10
10211.8498305133
 20
4634.928074327444
 30
0.0
 41
100.0
 42
100.0
 43
100.0
 50
180.0
  0
INSERT
  5
18DD2
330
18B36
100
AcDbEntity
  8
寸法
 62
     0
 48
50.0
370
    -2
100
AcDbBlockReference
  2
_DOTSMALL
 10
10151.8498305133
 20
4634.928074327444
 30
0.0
 41
100.0
 42
100.0
 43
100.0
  0
MTEXT
  5
18DD3
330
18B36
100
AcDbEntity
  8
寸法
 62
     7
 48
50.0
100
AcDbMText
 10
9842.212035237709
 20
4734.928074327444
 30
0.0
 40
120.0
 41
0.0
 71
     5
 72
     1
  1
\A1;60
  7
STYLE1
 73
     1
 44
1.0
1001
ACAD
1000
MTEXTBEGIN
1070
    73
1070
     1
1070
    44
1040
1.0
1070
    74
1070
     0
1000
MTEXTEND
  0
POINT
  5
18DD4
330
18B36
100
AcDbEntity
  8
DEFPOINTS
 62
     0
 48
50.0
100
AcDbPoint
 10
10211.8498305133
 20
4232.272238871116
 30
0.0
  0
POINT
  5
18DD5
330
18B36
100
AcDbEntity
  8
DEFPOINTS
 62
     0
 48
50.0
100
AcDbPoint
 10
10151.8498305133
 20
4236.270620748145
 30
0.0
  0
POINT
  5
18DD6
330
18B36
100
AcDbEntity
  8
DEFPOINTS
 62
     0
 48
50.0
100
AcDbPoint
 10
10151.8498305133
 20
4634.928074327444
 30
0.0
  0
ENDBLK
  5
18B43
330
18B36
100
AcDbEntity
  8
0
 48
50.0
100
AcDbBlockEnd
  0
BLOCK
  5
18B4E
330
18B44
100
AcDbEntity
  8
0
 48
50.0
100
AcDbBlockBegin
  2
*D28
 70
     1
 10
0.0
 20
0.0
 30
0.0
  3
*D28
  1

  0
LINE
  5
19A90
330
18B44
100
AcDbEntity
  8
寸法
 62
     0
 48
50.0
370
    -2
100
AcDbLine
 10
12921.8498305133
 20
4201.270620748141
 30
0.0
 11
12921.8498305133
 21
4915.138761059061
 31
0.0
  0
LINE
  5
19A91
330
18B44
100
AcDbEntity
  8
寸法
 62
     0
 48
50.0
370
    -2
100
AcDbLine
 10
10151.8498305133
 20
4256.270620748145
 30
0.0
 11
10151.8498305133
 21
4915.138761059061
 31
0.0
  0
LINE
  5
19A92
330
18B44
100
AcDbEntity
  8
寸法
 62
     0
 48
50.0
370
    -2
100
AcDbLine
 10
12921.8498305133
 20
4855.138761059062
 30
0.0
 11
10151.8498305133
 21
4855.138761059062
 31
0.0
  0
INSERT
  5
19A93
330
18B44
100
AcDbEntity
  8
寸法
 62
     0
 48
50.0
370
    -2
100
AcDbBlockReference
  2
_DOTSMALL
 10
12921.8498305133
 20
4855.138761059062
 30
0.0
 41
100.0
 42
100.0
 43
100.0
  0
INSERT
  5
19A94
330
18B44
100
AcDbEntity
  8
寸法
 62
     0
 48
50.0
370
    -2
100
AcDbBlockReference
  2
_DOTSMALL
 10
10151.8498305133
 20
4855.138761059062
 30
0.0
 41
100.0
 42
100.0
 43
100.0
 50
180.0
  0
MTEXT
  5
19A95
330
18B44
100
AcDbEntity
  8
寸法
 62
     7
 48
50.0
100
AcDbMText
 10
11536.8498305133
 20
4955.150572082684
 30
0.0
 40
120.0
 41
0.0
 71
     5
 72
     1
  1
\A1;2770
  7
STYLE1
 73
     1
 44
1.0
1001
ACAD
1000
MTEXTBEGIN
1070
    73
1070
     1
1070
    44
1040
1.0
1070
    74
1070
     0
1000
MTEXTEND
  0
POINT
  5
19A96
330
18B44
100
AcDbEntity
  8
DEFPOINTS
 62
     0
 48
50.0
100
AcDbPoint
 10
12921.8498305133
 20
4181.270620748142
 30
0.0
  0
POINT
  5
19A97
330
18B44
100
AcDbEntity
  8
DEFPOINTS
 62
     0
 48
50.0
100
AcDbPoint
 10
10151.8498305133
 20
4236.270620748145
 30
0.0
  0
POINT
  5
19A98
330
18B44
100
AcDbEntity
  8
DEFPOINTS
 62
     0
 48
50.0
100
AcDbPoint
 10
10151.8498305133
 20
4855.138761059062
 30
0.0
  0
ENDBLK
  5
18B4F
330
18B44
100
AcDbEntity
  8
0
 48
50.0
100
AcDbBlockEnd
  0
BLOCK
  5
18B5B
330
18B50
100
AcDbEntity
  8
0
 48
50.0
100
AcDbBlockBegin
  2
*D29
 70
     1
 10
0.0
 20
0.0
 30
0.0
  3
*D29
  1

  0
LINE
  5
18DB9
330
18B50
100
AcDbEntity
  8
寸法
 62
     0
 48
50.0
370
    -2
100
AcDbLine
 10
12841.8498305133
 20
4203.081300359793
 30
0.0
 11
12841.8498305133
 21
4694.928074327445
 31
0.0
  0
LINE
  5
18DBA
330
18B50
100
AcDbEntity
  8
寸法
 62
     0
 48
50.0
370
    -2
100
AcDbLine
 10
12921.8498305133
 20
4201.270620748141
 30
0.0
 11
12921.8498305133
 21
4694.928074327445
 31
0.0
  0
LINE
  5
18DBB
330
18B50
100
AcDbEntity
  8
寸法
 62
     0
 48
50.0
370
    -2
100
AcDbLine
 10
12841.8498305133
 20
4634.928074327445
 30
0.0
 11
12921.8498305133
 21
4634.928074327445
 31
0.0
  0
LINE
  5
18DBC
330
18B50
100
AcDbEntity
  8
寸法
 62
     0
 48
50.0
370
    -2
100
AcDbLine
 10
12921.8498305133
 20
4634.928074327445
 30
0.0
 11
13233.94431870228
 21
4634.928074327445
 31
0.0
  0
INSERT
  5
18DBD
330
18B50
100
AcDbEntity
  8
寸法
 62
     0
 48
50.0
370
    -2
100
AcDbBlockReference
  2
_DOTSMALL
 10
12841.8498305133
 20
4634.928074327445
 30
0.0
 41
100.0
 42
100.0
 43
100.0
 50
180.0
  0
INSERT
  5
18DBE
330
18B50
100
AcDbEntity
  8
寸法
 62
     0
 48
50.0
370
    -2
100
AcDbBlockReference
  2
_DOTSMALL
 10
12921.8498305133
 20
4634.928074327445
 30
0.0
 41
100.0
 42
100.0
 43
100.0
  0
MTEXT
  5
18DBF
330
18B50
100
AcDbEntity
  8
寸法
 62
     7
 48
50.0
100
AcDbMText
 10
13127.89707460779
 20
4734.928074327445
 30
0.0
 40
120.0
 41
0.0
 71
     5
 72
     1
  1
\A1;80
  7
STYLE1
 73
     1
 44
1.0
1001
ACAD
1000
MTEXTBEGIN
1070
    73
1070
     1
1070
    44
1040
1.0
1070
    74
1070
     0
1000
MTEXTEND
  0
POINT
  5
18DC0
330
18B50
100
AcDbEntity
  8
DEFPOINTS
 62
     0
 48
50.0
100
AcDbPoint
 10
12841.8498305133
 20
4183.081300359793
 30
0.0
  0
POINT
  5
18DC1
330
18B50
100
AcDbEntity
  8
DEFPOINTS
 62
     0
 48
50.0
100
AcDbPoint
 10
12921.8498305133
 20
4181.270620748142
 30
0.0
  0
POINT
  5
18DC2
330
18B50
100
AcDbEntity
  8
DEFPOINTS
 62
     0
 48
50.0
100
AcDbPoint
 10
12921.8498305133
 20
4634.928074327445
 30
0.0
  0
ENDBLK
  5
18B5C
330
18B50
100
AcDbEntity
  8
0
 48
50.0
100
AcDbBlockEnd
  0
BLOCK
  5
18B68
330
18B5D
100
AcDbEntity
  8
0
 48
50.0
100
AcDbBlockBegin
  2
*D30
 70
     1
 10
0.0
 20
0.0
 30
0.0
  3
*D30
  1

  0
LINE
  5
18DAF
330
18B5D
100
AcDbEntity
  8
寸法
 62
     0
 48
50.0
370
    -2
100
AcDbLine
 10
10151.2541168044
 20
4235.568327817801
 30
0.0
 11
9535.319677699112
 21
4253.28247809213
 31
0.0
  0
LINE
  5
18DB0
330
18B5D
100
AcDbEntity
  8
寸法
 62
     0
 48
50.0
370
    -2
100
AcDbLine
 10
10147.20066124777
 20
4094.626604052089
 30
0.0
 11
9531.266222142486
 21
4112.340754326418
 31
0.0
  0
LINE
  5
18DB1
330
18B5D
100
AcDbEntity
  8
寸法
 62
     0
 48
50.0
370
    -2
100
AcDbLine
 10
9591.241423744918
 20
4110.615879621471
 30
0.0
 11
9595.294879301544
 21
4251.557603387183
 31
0.0
  0
LINE
  5
18DB2
330
18B5D
100
AcDbEntity
  8
寸法
 62
     0
 48
50.0
370
    -2
100
AcDbLine
 10
9595.294879301544
 20
4251.557603387183
 30
0.0
 11
9605.644127531228
 21
4611.408813001769
 31
0.0
  0
INSERT
  5
18DB3
330
18B5D
100
AcDbEntity
  8
寸法
 62
     0
 48
50.0
370
    -2
100
AcDbBlockReference
  2
_DOTSMALL
 10
9591.241423744918
 20
4110.615879621471
 30
0.0
 41
100.0
 42
100.0
 43
100.0
 50
268.3526390256378
  0
INSERT
  5
18DB4
330
18B5D
100
AcDbEntity
  8
寸法
 62
     0
 48
50.0
370
    -2
100
AcDbBlockReference
  2
_DOTSMALL
 10
9595.294879301544
 20
4251.557603387183
 30
0.0
 41
100.0
 42
100.0
 43
100.0
 50
88.35263902563776
  0
MTEXT
  5
18DB5
330
18B5D
100
AcDbEntity
  8
寸法
 62
     7
 48
50.0
100
AcDbMText
 10
9501.948229666457
 20
4484.337334038083
 30
0.0
 40
120.0
 41
0.0
 71
     5
 72
     1
  1
\A1;141
  7
STYLE1
 11
0.0287479117491237
 21
0.9995866933738488
 31
0.0
 73
     1
 44
1.0
1001
ACAD
1000
MTEXTBEGIN
1070
    73
1070
     1
1070
    44
1040
1.0
1070
    74
1070
     0
1000
MTEXTEND
  0
POINT
  5
18DB6
330
18B5D
100
AcDbEntity
  8
DEFPOINTS
 62
     0
 48
50.0
100
AcDbPoint
 10
10171.24585067188
 20
4234.993369582818
 30
0.0
  0
POINT
  5
18DB7
330
18B5D
100
AcDbEntity
  8
DEFPOINTS
 62
     0
 48
50.0
100
AcDbPoint
 10
10167.19239511525
 20
4094.051645817105
 30
0.0
  0
POINT
  5
18DB8
330
18B5D
100
AcDbEntity
  8
DEFPOINTS
 62
     0
 48
50.0
100
AcDbPoint
 10
9591.241423744918
 20
4110.615879621471
 30
0.0
  0
ENDBLK
  5
18B69
330
18B5D
100
AcDbEntity
  8
0
 48
50.0
100
AcDbBlockEnd
  0
BLOCK
  5
191AA
330
1919E
100
AcDbEntity
  8
0
 48
50.0
100
AcDbBlockBegin
  2
*D31
 70
     1
 10
0.0
 20
0.0
 30
0.0
  3
*D31
  1

  0
LINE
  5
191C4
330
1919E
100
AcDbEntity
  8
寸法
 62
     0
 48
50.0
370
    -2
100
AcDbLine
 10
3164.673057123676
 20
4256.270620748145
 30
0.0
 11
3164.673057123676
 21
4701.996892480049
 31
0.0
  0
LINE
  5
191C5
330
1919E
100
AcDbEntity
  8
寸法
 62
     0
 48
50.0
370
    -2
100
AcDbLine
 10
3114.673057123676
 20
4256.270620748145
 30
0.0
 11
3114.673057123676
 21
4701.996892480049
 31
0.0
  0
LINE
  5
191C6
330
1919E
100
AcDbEntity
  8
寸法
 62
     0
 48
50.0
370
    -2
100
AcDbLine
 10
3164.673057123676
 20
4641.996892480048
 30
0.0
 11
3264.673057123676
 21
4641.996892480048
 31
0.0
  0
LINE
  5
191C7
330
1919E
100
AcDbEntity
  8
寸法
 62
     0
 48
50.0
370
    -2
100
AcDbLine
 10
3114.673057123676
 20
4641.996892480048
 30
0.0
 11
2695.140531654941
 21
4641.996892480048
 31
0.0
  0
LINE
  5
191C8
330
1919E
100
AcDbEntity
  8
寸法
 62
     0
 48
50.0
370
    -2
100
AcDbLine
 10
3164.673057123676
 20
4641.996892480048
 30
0.0
 11
3114.673057123676
 21
4641.996892480048
 31
0.0
  0
INSERT
  5
191C9
330
1919E
100
AcDbEntity
  8
寸法
 62
     0
 48
50.0
370
    -2
100
AcDbBlockReference
  2
_DOTSMALL
 10
3164.673057123676
 20
4641.996892480048
 30
0.0
 41
100.0
 42
100.0
 43
100.0
 50
180.0
  0
INSERT
  5
191CA
330
1919E
100
AcDbEntity
  8
寸法
 62
     0
 48
50.0
370
    -2
100
AcDbBlockReference
  2
_DOTSMALL
 10
3114.673057123676
 20
4641.996892480048
 30
0.0
 41
100.0
 42
100.0
 43
100.0
  0
MTEXT
  5
191CB
330
1919E
100
AcDbEntity
  8
寸法
 62
     7
 48
50.0
100
AcDbMText
 10
2801.187775749429
 20
4741.996892480048
 30
0.0
 40
120.0
 41
0.0
 71
     5
 72
     1
  1
\A1;50
  7
STYLE1
 73
     1
 44
1.0
1001
ACAD
1000
MTEXTBEGIN
1070
    73
1070
     1
1070
    44
1040
1.0
1070
    74
1070
     0
1000
MTEXTEND
  0
POINT
  5
191CC
330
1919E
100
AcDbEntity
  8
DEFPOINTS
 62
     0
 48
50.0
100
AcDbPoint
 10
3164.673057123676
 20
4236.270620748146
 30
0.0
  0
POINT
  5
191CD
330
1919E
100
AcDbEntity
  8
DEFPOINTS
 62
     0
 48
50.0
100
AcDbPoint
 10
3114.673057123676
 20
4236.270620748146
 30
0.0
  0
POINT
  5
191CE
330
1919E
100
AcDbEntity
  8
DEFPOINTS
 62
     0
 48
50.0
100
AcDbPoint
 10
3114.673057123676
 20
4641.996892480048
 30
0.0
  0
ENDBLK
  5
191AB
330
1919E
100
AcDbEntity
  8
0
 48
50.0
100
AcDbBlockEnd
  0
BLOCK
  5
191B6
330
191AC
100
AcDbEntity
  8
0
 48
50.0
100
AcDbBlockBegin
  2
*D32
 70
     1
 10
0.0
 20
0.0
 30
0.0
  3
*D32
  1

  0
LINE
  5
1977E
330
191AC
100
AcDbEntity
  8
寸法
 62
     0
 48
50.0
370
    -2
100
AcDbLine
 10
3114.673057123676
 20
4256.270620748145
 30
0.0
 11
3114.673057123676
 21
4901.905813694138
 31
0.0
  0
LINE
  5
1977F
330
191AC
100
AcDbEntity
  8
寸法
 62
     0
 48
50.0
370
    -2
100
AcDbLine
 10
7634.673057123677
 20
4256.270620748142
 30
0.0
 11
7634.673057123677
 21
4901.905813694138
 31
0.0
  0
LINE
  5
19780
330
191AC
100
AcDbEntity
  8
寸法
 62
     0
 48
50.0
370
    -2
100
AcDbLine
 10
3114.673057123676
 20
4841.905813694139
 30
0.0
 11
7634.673057123677
 21
4841.905813694139
 31
0.0
  0
INSERT
  5
19781
330
191AC
100
AcDbEntity
  8
寸法
 62
     0
 48
50.0
370
    -2
100
AcDbBlockReference
  2
_DOTSMALL
 10
3114.673057123676
 20
4841.905813694139
 30
0.0
 41
100.0
 42
100.0
 43
100.0
 50
180.0
  0
INSERT
  5
19782
330
191AC
100
AcDbEntity
  8
寸法
 62
     0
 48
50.0
370
    -2
100
AcDbBlockReference
  2
_DOTSMALL
 10
7634.673057123677
 20
4841.905813694139
 30
0.0
 41
100.0
 42
100.0
 43
100.0
  0
MTEXT
  5
19783
330
191AC
100
AcDbEntity
  8
寸法
 62
     7
 48
50.0
100
AcDbMText
 10
5374.673057123676
 20
4941.91762471776
 30
0.0
 40
120.0
 41
0.0
 71
     5
 72
     1
  1
\A1;4520
  7
STYLE1
 73
     1
 44
1.0
1001
ACAD
1000
MTEXTBEGIN
1070
    73
1070
     1
1070
    44
1040
1.0
1070
    74
1070
     0
1000
MTEXTEND
  0
POINT
  5
19784
330
191AC
100
AcDbEntity
  8
DEFPOINTS
 62
     0
 48
50.0
100
AcDbPoint
 10
3114.673057123676
 20
4236.270620748146
 30
0.0
  0
POINT
  5
19785
330
191AC
100
AcDbEntity
  8
DEFPOINTS
 62
     0
 48
50.0
100
AcDbPoint
 10
7634.673057123677
 20
4236.270620748142
 30
0.0
  0
POINT
  5
19786
330
191AC
100
AcDbEntity
  8
DEFPOINTS
 62
     0
 48
50.0
100
AcDbPoint
 10
7634.673057123677
 20
4841.905813694139
 30
0.0
  0
ENDBLK
  5
191B7
330
191AC
100
AcDbEntity
  8
0
 48
50.0
100
AcDbBlockEnd
  0
BLOCK
  5
191C2
330
191B8
100
AcDbEntity
  8
0
 48
50.0
100
AcDbBlockBegin
  2
*D33
 70
     1
 10
0.0
 20
0.0
 30
0.0
  3
*D33
  1

  0
LINE
  5
19787
330
191B8
100
AcDbEntity
  8
寸法
 62
     0
 48
50.0
370
    -2
100
AcDbLine
 10
7584.673057123682
 20
4256.270620748145
 30
0.0
 11
7584.673057123682
 21
4701.996892480049
 31
0.0
  0
LINE
  5
19788
330
191B8
100
AcDbEntity
  8
寸法
 62
     0
 48
50.0
370
    -2
100
AcDbLine
 10
3164.673057123676
 20
4256.270620748145
 30
0.0
 11
3164.673057123676
 21
4701.996892480049
 31
0.0
  0
LINE
  5
19789
330
191B8
100
AcDbEntity
  8
寸法
 62
     0
 48
50.0
370
    -2
100
AcDbLine
 10
7584.673057123682
 20
4641.996892480048
 30
0.0
 11
3164.673057123676
 21
4641.996892480048
 31
0.0
  0
INSERT
  5
1978A
330
191B8
100
AcDbEntity
  8
寸法
 62
     0
 48
50.0
370
    -2
100
AcDbBlockReference
  2
_DOTSMALL
 10
7584.673057123682
 20
4641.996892480048
 30
0.0
 41
100.0
 42
100.0
 43
100.0
  0
INSERT
  5
1978B
330
191B8
100
AcDbEntity
  8
寸法
 62
     0
 48
50.0
370
    -2
100
AcDbBlockReference
  2
_DOTSMALL
 10
3164.673057123676
 20
4641.996892480048
 30
0.0
 41
100.0
 42
100.0
 43
100.0
 50
180.0
  0
MTEXT
  5
1978C
330
191B8
100
AcDbEntity
  8
寸法
 62
     7
 48
50.0
100
AcDbMText
 10
5374.673057123676
 20
4742.00870350367
 30
0.0
 40
120.0
 41
0.0
 71
     5
 72
     1
  1
\A1;柱外寸法4420
  7
STYLE1
 73
     1
 44
1.0
1001
ACAD
1000
MTEXTBEGIN
1070
    73
1070
     1
1070
    44
1040
1.0
1070
    74
1070
     0
1000
MTEXTEND
  0
POINT
  5
1978D
330
191B8
100
AcDbEntity
  8
DEFPOINTS
 62
     0
 48
50.0
100
AcDbPoint
 10
7584.673057123682
 20
4236.270620748146
 30
0.0
  0
POINT
  5
1978E
330
191B8
100
AcDbEntity
  8
DEFPOINTS
 62
     0
 48
50.0
100
AcDbPoint
 10
3164.673057123676
 20
4236.270620748146
 30
0.0
  0
POINT
  5
1978F
330
191B8
100
AcDbEntity
  8
DEFPOINTS
 62
     0
 48
50.0
100
AcDbPoint
 10
3164.673057123676
 20
4641.996892480048
 30
0.0
  0
ENDBLK
  5
191C3
330
191B8
100
AcDbEntity
  8
0
 48
50.0
100
AcDbBlockEnd
  0
BLOCK
  5
191F8
330
191EC
100
AcDbEntity
  8
0
 48
50.0
100
AcDbBlockBegin
  2
*D34
 70
     1
 10
0.0
 20
0.0
 30
0.0
  3
*D34
  1

  0
LINE
  5
191FA
330
191EC
100
AcDbEntity
  8
寸法
 62
     0
 48
50.0
370
    -2
100
AcDbLine
 10
7634.673057123677
 20
4256.270620748142
 30
0.0
 11
7634.673057123677
 21
4701.996892480052
 31
0.0
  0
LINE
  5
191FB
330
191EC
100
AcDbEntity
  8
寸法
 62
     0
 48
50.0
370
    -2
100
AcDbLine
 10
7584.673057123682
 20
4256.270620748145
 30
0.0
 11
7584.673057123682
 21
4701.996892480052
 31
0.0
  0
LINE
  5
191FC
330
191EC
100
AcDbEntity
  8
寸法
 62
     0
 48
50.0
370
    -2
100
AcDbLine
 10
7584.673057123682
 20
4641.996892480052
 30
0.0
 11
7484.673057123682
 21
4641.996892480052
 31
0.0
  0
LINE
  5
191FD
330
191EC
100
AcDbEntity
  8
寸法
 62
     0
 48
50.0
370
    -2
100
AcDbLine
 10
7634.673057123677
 20
4641.996892480052
 30
0.0
 11
8054.205582592407
 21
4641.996892480052
 31
0.0
  0
LINE
  5
191FE
330
191EC
100
AcDbEntity
  8
寸法
 62
     0
 48
50.0
370
    -2
100
AcDbLine
 10
7584.673057123682
 20
4641.996892480052
 30
0.0
 11
7634.673057123677
 21
4641.996892480052
 31
0.0
  0
INSERT
  5
191FF
330
191EC
100
AcDbEntity
  8
寸法
 62
     0
 48
50.0
370
    -2
100
AcDbBlockReference
  2
_DOTSMALL
 10
7584.673057123682
 20
4641.996892480052
 30
0.0
 41
100.0
 42
100.0
 43
100.0
  0
INSERT
  5
19200
330
191EC
100
AcDbEntity
  8
寸法
 62
     0
 48
50.0
370
    -2
100
AcDbBlockReference
  2
_DOTSMALL
 10
7634.673057123677
 20
4641.996892480052
 30
0.0
 41
100.0
 42
100.0
 43
100.0
 50
180.0
  0
MTEXT
  5
19201
330
191EC
100
AcDbEntity
  8
寸法
 62
     7
 48
50.0
100
AcDbMText
 10
7948.158338497917
 20
4741.996892480051
 30
0.0
 40
120.0
 41
0.0
 71
     5
 72
     1
  1
\A1;50
  7
STYLE1
 73
     1
 44
1.0
1001
ACAD
1000
MTEXTBEGIN
1070
    73
1070
     1
1070
    44
1040
1.0
1070
    74
1070
     0
1000
MTEXTEND
  0
POINT
  5
19202
330
191EC
100
AcDbEntity
  8
DEFPOINTS
 62
     0
 48
50.0
100
AcDbPoint
 10
7634.673057123677
 20
4236.270620748142
 30
0.0
  0
POINT
  5
19203
330
191EC
100
AcDbEntity
  8
DEFPOINTS
 62
     0
 48
50.0
100
AcDbPoint
 10
7584.673057123682
 20
4236.270620748146
 30
0.0
  0
POINT
  5
19204
330
191EC
100
AcDbEntity
  8
DEFPOINTS
 62
     0
 48
50.0
100
AcDbPoint
 10
7584.673057123682
 20
4641.996892480052
 30
0.0
  0
ENDBLK
  5
191F9
330
191EC
100
AcDbEntity
  8
0
 48
50.0
100
AcDbBlockEnd
  0
BLOCK
  5
19997
330
1998C
100
AcDbEntity
  8
0
 48
50.0
100
AcDbBlockBegin
  2
*D35
 70
     1
 10
0.0
 20
0.0
 30
0.0
  3
*D35
  1

  0
LINE
  5
19AB8
330
1998C
100
AcDbEntity
  8
寸法
 62
     0
 48
50.0
370
    -2
100
AcDbLine
 10
7604.673057123676
 20
3836.27062074814
 30
0.0
 11
7932.216159445424
 21
3836.27062074814
 31
0.0
  0
LINE
  5
19AB9
330
1998C
100
AcDbEntity
  8
寸法
 62
     0
 48
50.0
370
    -2
100
AcDbLine
 10
7604.673057123676
 20
4001.270620748138
 30
0.0
 11
7932.216159445424
 21
4001.270620748138
 31
0.0
  0
LINE
  5
19ABA
330
1998C
100
AcDbEntity
  8
寸法
 62
     0
 48
50.0
370
    -2
100
AcDbLine
 10
7872.216159445423
 20
3836.27062074814
 30
0.0
 11
7872.216159445423
 21
4001.270620748138
 31
0.0
  0
LINE
  5
19ABB
330
1998C
100
AcDbEntity
  8
寸法
 62
     0
 48
50.0
370
    -2
100
AcDbLine
 10
7872.216159445423
 20
4001.270620748138
 30
0.0
 11
7872.216159445423
 21
4378.241183496616
 31
0.0
  0
INSERT
  5
19ABC
330
1998C
100
AcDbEntity
  8
寸法
 62
     0
 48
50.0
370
    -2
100
AcDbBlockReference
  2
_DOTSMALL
 10
7872.216159445423
 20
3836.27062074814
 30
0.0
 41
100.0
 42
100.0
 43
100.0
 50
270.0
  0
INSERT
  5
19ABD
330
1998C
100
AcDbEntity
  8
寸法
 62
     0
 48
50.0
370
    -2
100
AcDbBlockReference
  2
_DOTSMALL
 10
7872.216159445423
 20
4001.270620748138
 30
0.0
 41
100.0
 42
100.0
 43
100.0
 50
90.0
  0
MTEXT
  5
19ABE
330
1998C
100
AcDbEntity
  8
寸法
 62
     7
 48
50.0
100
AcDbMText
 10
7772.216159445424
 20
4239.755902122378
 30
0.0
 40
120.0
 41
0.0
 71
     5
 72
     1
  1
\A1;165
  7
STYLE1
 11
0.0000000000000001
 21
1.0
 31
0.0
 73
     1
 44
1.0
1001
ACAD
1000
MTEXTBEGIN
1070
    73
1070
     1
1070
    44
1040
1.0
1070
    74
1070
     0
1000
MTEXTEND
  0
POINT
  5
19ABF
330
1998C
100
AcDbEntity
  8
DEFPOINTS
 62
     0
 48
50.0
100
AcDbPoint
 10
7584.673057123676
 20
3836.27062074814
 30
0.0
  0
POINT
  5
19AC0
330
1998C
100
AcDbEntity
  8
DEFPOINTS
 62
     0
 48
50.0
100
AcDbPoint
 10
7584.673057123676
 20
4001.270620748138
 30
0.0
  0
POINT
  5
19AC1
330
1998C
100
AcDbEntity
  8
DEFPOINTS
 62
     0
 48
50.0
100
AcDbPoint
 10
7872.216159445423
 20
4001.270620748138
 30
0.0
  0
ENDBLK
  5
19998
330
1998C
100
AcDbEntity
  8
0
 48
50.0
100
AcDbBlockEnd
  0
BLOCK
  5
199A5
330
19999
100
AcDbEntity
  8
0
 48
50.0
100
AcDbBlockBegin
  2
*D36
 70
     1
 10
0.0
 20
0.0
 30
0.0
  3
*D36
  1

  0
LINE
  5
19AAD
330
19999
100
AcDbEntity
  8
寸法
 62
     0
 48
50.0
370
    -2
100
AcDbLine
 10
7604.673057123676
 20
3809.270620748139
 30
0.0
 11
7932.216159445423
 21
3809.270620748139
 31
0.0
  0
LINE
  5
19AAE
330
19999
100
AcDbEntity
  8
寸法
 62
     0
 48
50.0
370
    -2
100
AcDbLine
 10
7604.673057123676
 20
3836.27062074814
 30
0.0
 11
7932.216159445423
 21
3836.27062074814
 31
0.0
  0
LINE
  5
19AAF
330
19999
100
AcDbEntity
  8
寸法
 62
     0
 48
50.0
370
    -2
100
AcDbLine
 10
7872.216159445423
 20
3809.270620748139
 30
0.0
 11
7872.216159445423
 21
3709.270620748139
 31
0.0
  0
LINE
  5
19AB0
330
19999
100
AcDbEntity
  8
寸法
 62
     0
 48
50.0
370
    -2
100
AcDbLine
 10
7872.216159445423
 20
3836.27062074814
 30
0.0
 11
7872.216159445423
 21
3936.270620748139
 31
0.0
  0
MTEXT
  5
19AB1
330
19999
100
AcDbEntity
  8
寸法
 62
     7
 48
50.0
100
AcDbMText
 10
8012.385982691789
 20
3837.237820587798
 30
0.0
 40
120.0
 41
0.0
 71
     5
 72
     1
  1
\A1;27
  7
STYLE1
 11
0.0000000000000001
 21
1.0
 31
0.0
 73
     1
 44
1.0
1001
ACAD
1000
MTEXTBEGIN
1070
    73
1070
     1
1070
    44
1040
1.0
1070
    74
1070
     0
1000
MTEXTEND
  0
LINE
  5
19AB2
330
19999
100
AcDbEntity
  8
寸法
 62
     0
 48
50.0
370
    -2
100
AcDbLine
 10
7872.216159445423
 20
3809.270620748139
 30
0.0
 11
7872.216159445423
 21
3836.27062074814
 31
0.0
  0
INSERT
  5
19AB3
330
19999
100
AcDbEntity
  8
寸法
 62
     0
 48
50.0
370
    -2
100
AcDbBlockReference
  2
_DOTSMALL
 10
7872.216159445423
 20
3809.270620748139
 30
0.0
 41
100.0
 42
100.0
 43
100.0
 50
90.0
  0
INSERT
  5
19AB4
330
19999
100
AcDbEntity
  8
寸法
 62
     0
 48
50.0
370
    -2
100
AcDbBlockReference
  2
_DOTSMALL
 10
7872.216159445423
 20
3836.27062074814
 30
0.0
 41
100.0
 42
100.0
 43
100.0
 50
270.0
  0
POINT
  5
19AB5
330
19999
100
AcDbEntity
  8
DEFPOINTS
 62
     0
 48
50.0
100
AcDbPoint
 10
7584.673057123676
 20
3809.270620748139
 30
0.0
  0
POINT
  5
19AB6
330
19999
100
AcDbEntity
  8
DEFPOINTS
 62
     0
 48
50.0
100
AcDbPoint
 10
7584.673057123676
 20
3836.27062074814
 30
0.0
  0
POINT
  5
19AB7
330
19999
100
AcDbEntity
  8
DEFPOINTS
 62
     0
 48
50.0
100
AcDbPoint
 10
7872.216159445423
 20
3836.27062074814
 30
0.0
  0
ENDBLK
  5
199A6
330
19999
100
AcDbEntity
  8
0
 48
50.0
100
AcDbBlockEnd
  0
BLOCK
  5
199B1
330
199A7
100
AcDbEntity
  8
0
 48
50.0
100
AcDbBlockBegin
  2
*D37
 70
     1
 10
0.0
 20
0.0
 30
0.0
  3
*D37
  1

  0
LINE
  5
19A0E
330
199A7
100
AcDbEntity
  8
寸法
 62
     0
 48
50.0
370
    -2
100
AcDbLine
 10
7604.673057123676
 20
2161.270620748139
 30
0.0
 11
7932.216159445423
 21
2161.270620748139
 31
0.0
  0
LINE
  5
19A0F
330
199A7
100
AcDbEntity
  8
寸法
 62
     0
 48
50.0
370
    -2
100
AcDbLine
 10
7604.673057123676
 20
3809.270620748139
 30
0.0
 11
7932.216159445423
 21
3809.270620748139
 31
0.0
  0
LINE
  5
19A10
330
199A7
100
AcDbEntity
  8
寸法
 62
     0
 48
50.0
370
    -2
100
AcDbLine
 10
7872.216159445423
 20
2161.270620748139
 30
0.0
 11
7872.216159445423
 21
3809.270620748139
 31
0.0
  0
INSERT
  5
19A11
330
199A7
100
AcDbEntity
  8
寸法
 62
     0
 48
50.0
370
    -2
100
AcDbBlockReference
  2
_DOTSMALL
 10
7872.216159445423
 20
2161.270620748139
 30
0.0
 41
100.0
 42
100.0
 43
100.0
 50
270.0
  0
INSERT
  5
19A12
330
199A7
100
AcDbEntity
  8
寸法
 62
     0
 48
50.0
370
    -2
100
AcDbBlockReference
  2
_DOTSMALL
 10
7872.216159445423
 20
3809.270620748139
 30
0.0
 41
100.0
 42
100.0
 43
100.0
 50
90.0
  0
MTEXT
  5
19A13
330
199A7
100
AcDbEntity
  8
寸法
 62
     7
 48
50.0
100
AcDbMText
 10
7772.216159445422
 20
2985.27062074814
 30
0.0
 40
120.0
 41
0.0
 71
     5
 72
     1
  1
\A1;有効開口部高サ 1648
  7
STYLE1
 11
0.0000000000000001
 21
1.0
 31
0.0
 73
     1
 44
1.0
1001
ACAD
1000
MTEXTBEGIN
1070
    73
1070
     1
1070
    44
1040
1.0
1070
    74
1070
     0
1000
MTEXTEND
  0
POINT
  5
19A14
330
199A7
100
AcDbEntity
  8
DEFPOINTS
 62
     0
 48
50.0
100
AcDbPoint
 10
7584.673057123676
 20
2161.270620748139
 30
0.0
  0
POINT
  5
19A15
330
199A7
100
AcDbEntity
  8
DEFPOINTS
 62
     0
 48
50.0
100
AcDbPoint
 10
7584.673057123676
 20
3809.270620748139
 30
0.0
  0
POINT
  5
19A16
330
199A7
100
AcDbEntity
  8
DEFPOINTS
 62
     0
 48
50.0
100
AcDbPoint
 10
7872.216159445423
 20
3809.270620748139
 30
0.0
  0
ENDBLK
  5
199B2
330
199A7
100
AcDbEntity
  8
0
 48
50.0
100
AcDbBlockEnd
  0
ENDSEC
  0
SECTION
  2
ENTITIES
  0
MTEXT
  5
763F
330
747D
100
AcDbEntity
  8
0
100
AcDbMText
 10
302.846345836809
 20
280.1983726409901
 30
0.0
 40
3.5
 41
5.323721266742722
 71
     1
 72
     5
  1

  7
MSMINCHO
 73
     1
 44
1.0
1001
ACAD
1000
MTEXTBEGIN
1070
    73
1070
     1
1070
    44
1040
1.0
1070
    74
1070
     0
1000
MTEXTEND
  0
LINE
  5
10B57
330
747D
100
AcDbEntity
  8
補助
  6
PHANTOM
 62
   230
 48
50.0
100
AcDbLine
 10
139.9999999999995
 20
11409.6
 30
0.0
 11
16307.2
 21
11409.6
 31
0.0
  0
LINE
  5
10B59
330
747D
100
AcDbEntity
  8
仕様書枠
  6
Continuous
 48
50.0
100
AcDbLine
 10
13107.2
 20
1200.0
 30
0.0
 11
13107.2
 21
-0.0000000000000729
 31
0.0
  0
LINE
  5
10B5C
330
747D
100
AcDbEntity
  8
仕様書枠
 48
50.0
100
AcDbLine
 10
16307.2
 20
1200.0
 30
0.0
 11
16307.2
 21
-0.0000000000000909
 31
0.0
  0
LINE
  5
10B5D
330
747D
100
AcDbEntity
  8
仕様書枠
 48
50.0
100
AcDbLine
 10
140.0
 20
0.0
 30
0.0
 11
16307.2
 21
-0.0000000000000909
 31
0.0
  0
LINE
  5
10B5E
330
747D
100
AcDbEntity
  8
補助
  6
PHANTOM
 62
   230
 48
50.0
100
AcDbLine
 10
16307.2
 20
11409.6
 30
0.0
 11
16307.2
 21
1200.0
 31
0.0
  0
LINE
  5
10B6C
330
747D
100
AcDbEntity
  8
仕様書枠
 48
50.0
100
AcDbLine
 10
13107.2
 20
1200.0
 30
0.0
 11
16307.2
 21
1200.0
 31
0.0
  0
LINE
  5
10B6D
330
747D
100
AcDbEntity
  8
補助
  6
PHANTOM
 62
   230
 48
50.0
100
AcDbLine
 10
13107.2
 20
11409.6
 30
0.0
 11
13107.2
 21
4800.0
 31
0.0
  0
LINE
  5
10B6F
330
747D
100
AcDbEntity
  8
補助
  6
PHANTOM
 62
   230
 48
50.0
100
AcDbLine
 10
13107.2
 20
4800.0
 30
0.0
 11
16307.2
 21
4800.0
 31
0.0
  0
LINE
  5
10B72
330
747D
100
AcDbEntity
  8
文字
 62
     7
 48
50.0
100
AcDbLine
 10
13187.2
 20
400.0
 30
0.0
 11
16227.2
 21
400.0
 31
0.0
  0
TEXT
  5
10B73
330
747D
100
AcDbEntity
  8
文字
 62
     7
 48
50.0
100
AcDbText
 10
13162.9790565769
 20
895.0906074299405
 30
0.0
 40
200.0
  1
外 形 図
  7
STYLE2
100
AcDbText
  0
TEXT
  5
10B74
330
747D
100
AcDbEntity
  8
文字
 62
     7
 48
50.0
100
AcDbText
 10
13201.43669998441
 20
477.2740661031255
 30
0.0
 40
160.0
  1
機種名
  7
STYLE2
100
AcDbText
  0
TEXT
  5
10B75
330
747D
100
AcDbEntity
  8
文字
 62
     7
 48
50.0
100
AcDbText
 10
13209.4053442172
 20
228.5435242569016
 30
0.0
 40
100.0
  1
○有効開口寸法 ： 2004×1648(mm)
  7
STYLE2
100
AcDbText
  0
TEXT
  5
10B79
330
747D
100
AcDbEntity
  8
文字
 62
     7
 48
50.0
100
AcDbText
 10
14524.131837222
 20
1031.557706291228
 30
0.0
 40
100.0
  1
NO.26      <縮尺> S=1/40
  7
STYLE2
100
AcDbText
  0
LINE
  5
10B7B
330
747D
100
AcDbEntity
  8
仕様書枠
 48
50.0
100
AcDbLine
 10
13107.2
 20
800.0
 30
0.0
 11
14251.2
 21
800.0
 31
0.0
  0
LINE
  5
10B88
330
747D
100
AcDbEntity
  8
仕様書枠
  6
Continuous
 48
50.0
100
AcDbLine
 10
14251.2
 20
1200.0
 30
0.0
 11
14251.2
 21
800.0
 31
0.0
  0
LINE
  5
127A8
330
747D
100
AcDbEntity
  8
部品1
100
AcDbLine
 10
2175.903465777292
 20
2191.174431315804
 30
0.0
 11
2325.903465777292
 21
2191.174431315804
 31
0.0
  0
LINE
  5
127A9
330
747D
100
AcDbEntity
  8
部品1
100
AcDbLine
 10
2250.903465777292
 20
2061.270620748139
 30
0.0
 11
2175.903465777292
 21
2191.174431315804
 31
0.0
  0
TEXT
  5
127AA
330
747D
100
AcDbEntity
  8
部品1
100
AcDbText
 10
2354.008407902066
 20
2097.37752435404
 30
0.0
 40
125.0
  1
G.L
  7
MSGOTHIC
100
AcDbText
  0
LINE
  5
127AB
330
747D
100
AcDbEntity
  8
部品1
100
AcDbLine
 10
2325.903465777292
 20
2191.174431315804
 30
0.0
 11
2250.903465777292
 21
2061.270620748139
 31
0.0
  0
LINE
  5
13C1F
330
747D
100
AcDbEntity
  8
部品1
100
AcDbLine
 10
3164.673057123677
 20
4095.270620748146
 30
0.0
 11
3164.673057123677
 21
2061.270620748139
 31
0.0
  0
LINE
  5
13CFC
330
747D
100
AcDbEntity
  8
部品1
100
AcDbLine
 10
7529.673057123677
 20
3836.27062074814
 30
0.0
 11
7529.673057123675
 21
2161.270620748139
 31
0.0
  0
LINE
  5
13CFE
330
747D
100
AcDbEntity
  8
部品1
100
AcDbLine
 10
3219.673057123677
 20
3836.27062074814
 30
0.0
 11
3219.673057123677
 21
2161.270620748139
 31
0.0
  0
LINE
  5
13D18
330
747D
100
AcDbEntity
  8
部品1
100
AcDbLine
 10
7584.673057123676
 20
4095.270620748148
 30
0.0
 11
7584.673057123676
 21
2061.270620748139
 31
0.0
  0
LINE
  5
146B2
330
747D
100
AcDbEntity
  8
破線
 48
5.0
100
AcDbLine
 10
7584.673057123676
 20
2061.270620748139
 30
0.0
 11
7584.673057123676
 21
1811.270620748139
 31
0.0
  0
LINE
  5
146B3
330
747D
100
AcDbEntity
  8
破線
 48
5.0
100
AcDbLine
 10
3164.673057123677
 20
2061.270620748139
 30
0.0
 11
3164.673057123675
 21
1811.270620748139
 31
0.0
  0
TEXT
  5
149A1
330
747D
100
AcDbEntity
  8
部品1
100
AcDbText
 10
5083.463127747398
 20
1218.377091529614
 30
0.0
 40
135.0
  1
正面図
  7
MSGOTHIC
100
AcDbText
  0
LWPOLYLINE
  5
149A2
330
747D
100
AcDbEntity
  8
部品1
100
AcDbPolyline
 90
        4
 70
     1
 43
0.0
 10
4992.937724009443
 20
1411.270620748139
 10
4992.937724009443
 20
1171.378299202606
 10
5756.408390237882
 20
1171.378299202606
 10
5756.408390237882
 20
1411.270620748139
  0
TEXT
  5
14E88
330
747D
100
AcDbEntity
  8
部品1
100
AcDbText
 10
5082.857333838481
 20
5802.378858851012
 30
0.0
 40
135.0
  1
平面図
  7
MSGOTHIC
100
AcDbText
  0
LWPOLYLINE
  5
14E89
330
747D
100
AcDbEntity
  8
部品1
100
AcDbPolyline
 90
        4
 70
     1
 43
0.0
 10
4992.937724009443
 20
5995.272388069536
 10
4992.937724009443
 20
5755.380066524003
 10
5756.408390237883
 20
5755.380066524003
 10
5756.408390237883
 20
5995.272388069536
  0
TEXT
  5
15550
330
747D
100
AcDbEntity
  8
文字
 62
     7
 48
50.0
100
AcDbText
 10
14663.3224864739
 20
871.9640646083623
 30
0.0
 40
100.0
  1
～一般型・多雪地型～
  7
STYLE2
100
AcDbText
  0
LINE
  5
15CE5
330
747D
100
AcDbEntity
  8
破線
 48
5.0
100
AcDbLine
 10
7529.673057123675
 20
2161.270620748139
 30
0.0
 11
7529.673057123677
 21
1811.270620748139
 31
0.0
  0
LINE
  5
15CE6
330
747D
100
AcDbEntity
  8
破線
 48
5.0
100
AcDbLine
 10
3219.673057123677
 20
2161.270620748139
 30
0.0
 11
3219.673057123675
 21
1811.270620748139
 31
0.0
  0
LINE
  5
15CE7
330
747D
100
AcDbEntity
  8
破線
 48
5.0
100
AcDbLine
 10
7584.673057123675
 20
1811.270620748139
 30
0.0
 11
7529.673057123677
 21
1811.270620748139
 31
0.0
  0
LINE
  5
15CE8
330
747D
100
AcDbEntity
  8
破線
 48
5.0
100
AcDbLine
 10
3219.673057123675
 20
1811.270620748146
 30
0.0
 11
3164.673057123675
 21
1811.270620748146
 31
0.0
  0
LINE
  5
15CE9
330
747D
100
AcDbEntity
  8
部品1
100
AcDbLine
 10
3267.673057123677
 20
3836.270620748139
 30
0.0
 11
3267.673057123677
 21
2161.270620748139
 31
0.0
  0
LINE
  5
15CEA
330
747D
100
AcDbEntity
  8
破線
 48
5.0
100
AcDbLine
 10
3267.673057123677
 20
2161.270620748139
 30
0.0
 11
3267.673057123675
 21
1911.270620748144
 31
0.0
  0
LINE
  5
15CEB
330
747D
100
AcDbEntity
  8
部品1
100
AcDbLine
 10
7481.673057123678
 20
3836.27062074814
 30
0.0
 11
7481.673057123675
 21
2161.270620748139
 31
0.0
  0
LINE
  5
15CEC
330
747D
100
AcDbEntity
  8
破線
 48
5.0
100
AcDbLine
 10
7481.673057123675
 20
2161.270620748139
 30
0.0
 11
7481.673057123678
 21
1911.270620748139
 31
0.0
  0
LINE
  5
15CED
330
747D
100
AcDbEntity
  8
破線
 48
5.0
100
AcDbLine
 10
7529.673057123679
 20
1911.270620748139
 30
0.0
 11
7481.673057123678
 21
1911.270620748139
 31
0.0
  0
LINE
  5
15CEE
330
747D
100
AcDbEntity
  8
破線
 48
5.0
100
AcDbLine
 10
3267.673057123675
 20
1911.270620748144
 30
0.0
 11
3219.673057123675
 21
1911.270620748144
 31
0.0
  0
LINE
  5
15D20
330
747D
100
AcDbEntity
  8
細線
100
AcDbLine
 10
5477.673057123674
 20
3796.270620748139
 30
0.0
 11
7481.673057123675
 21
3796.270620748139
 31
0.0
  0
LINE
  5
15D23
330
747D
100
AcDbEntity
  8
細線
100
AcDbLine
 10
5477.673057123674
 20
3406.270620748139
 30
0.0
 11
7481.673057123675
 21
3406.270620748139
 31
0.0
  0
LINE
  5
15D24
330
747D
100
AcDbEntity
  8
細線
100
AcDbLine
 10
5477.673057123674
 20
3471.270620748139
 30
0.0
 11
7481.673057123675
 21
3471.270620748139
 31
0.0
  0
LINE
  5
15D25
330
747D
100
AcDbEntity
  8
細線
100
AcDbLine
 10
5477.673057123674
 20
3536.270620748139
 30
0.0
 11
7481.673057123675
 21
3536.270620748139
 31
0.0
  0
LINE
  5
15D26
330
747D
100
AcDbEntity
  8
細線
100
AcDbLine
 10
5477.673057123674
 20
3601.270620748139
 30
0.0
 11
7481.673057123675
 21
3601.270620748139
 31
0.0
  0
LINE
  5
15D27
330
747D
100
AcDbEntity
  8
細線
100
AcDbLine
 10
5477.673057123674
 20
3666.270620748139
 30
0.0
 11
7481.673057123675
 21
3666.270620748139
 31
0.0
  0
LINE
  5
15D28
330
747D
100
AcDbEntity
  8
細線
100
AcDbLine
 10
5477.673057123674
 20
3731.270620748139
 30
0.0
 11
7481.673057123675
 21
3731.270620748139
 31
0.0
  0
LINE
  5
15D29
330
747D
100
AcDbEntity
  8
細線
100
AcDbLine
 10
5477.673057123674
 20
2756.270620748139
 30
0.0
 11
7481.673057123675
 21
2756.270620748139
 31
0.0
  0
LINE
  5
15D2A
330
747D
100
AcDbEntity
  8
細線
100
AcDbLine
 10
5477.673057123674
 20
2821.270620748139
 30
0.0
 11
7481.673057123675
 21
2821.270620748139
 31
0.0
  0
LINE
  5
15D2B
330
747D
100
AcDbEntity
  8
細線
100
AcDbLine
 10
5477.673057123674
 20
2886.270620748139
 30
0.0
 11
7481.673057123675
 21
2886.270620748139
 31
0.0
  0
LINE
  5
15D2C
330
747D
100
AcDbEntity
  8
細線
100
AcDbLine
 10
5477.673057123674
 20
2951.270620748139
 30
0.0
 11
7481.673057123675
 21
2951.270620748139
 31
0.0
  0
LINE
  5
15D2D
330
747D
100
AcDbEntity
  8
細線
100
AcDbLine
 10
5477.673057123674
 20
3016.270620748139
 30
0.0
 11
7481.673057123675
 21
3016.270620748139
 31
0.0
  0
LINE
  5
15D2E
330
747D
100
AcDbEntity
  8
細線
100
AcDbLine
 10
5477.673057123674
 20
3081.270620748139
 30
0.0
 11
7481.673057123675
 21
3081.270620748139
 31
0.0
  0
LINE
  5
15D2F
330
747D
100
AcDbEntity
  8
細線
100
AcDbLine
 10
5477.673057123674
 20
3146.270620748139
 30
0.0
 11
7481.673057123675
 21
3146.270620748139
 31
0.0
  0
LINE
  5
15D30
330
747D
100
AcDbEntity
  8
細線
100
AcDbLine
 10
5477.673057123674
 20
3211.270620748139
 30
0.0
 11
7481.673057123675
 21
3211.270620748139
 31
0.0
  0
LINE
  5
15D31
330
747D
100
AcDbEntity
  8
細線
100
AcDbLine
 10
5477.673057123674
 20
3276.270620748139
 30
0.0
 11
7481.673057123675
 21
3276.270620748139
 31
0.0
  0
LINE
  5
15D32
330
747D
100
AcDbEntity
  8
細線
100
AcDbLine
 10
5477.673057123674
 20
3341.270620748139
 30
0.0
 11
7481.673057123675
 21
3341.270620748139
 31
0.0
  0
LINE
  5
15D36
330
747D
100
AcDbEntity
  8
細線
100
AcDbLine
 10
5477.673057123674
 20
2171.270620748139
 30
0.0
 11
7481.673057123675
 21
2171.270620748139
 31
0.0
  0
LINE
  5
15D37
330
747D
100
AcDbEntity
  8
細線
100
AcDbLine
 10
5477.673057123674
 20
2236.270620748139
 30
0.0
 11
7481.673057123675
 21
2236.270620748139
 31
0.0
  0
LINE
  5
15D38
330
747D
100
AcDbEntity
  8
細線
100
AcDbLine
 10
5477.673057123674
 20
2301.270620748139
 30
0.0
 11
7481.673057123675
 21
2301.270620748139
 31
0.0
  0
LINE
  5
15D39
330
747D
100
AcDbEntity
  8
細線
100
AcDbLine
 10
5477.673057123674
 20
2366.270620748139
 30
0.0
 11
7481.673057123675
 21
2366.270620748139
 31
0.0
  0
LINE
  5
15D3A
330
747D
100
AcDbEntity
  8
細線
100
AcDbLine
 10
5477.673057123674
 20
2431.270620748139
 30
0.0
 11
7481.673057123675
 21
2431.270620748139
 31
0.0
  0
LINE
  5
15D3B
330
747D
100
AcDbEntity
  8
細線
100
AcDbLine
 10
5477.673057123674
 20
2496.270620748139
 30
0.0
 11
7481.673057123675
 21
2496.270620748139
 31
0.0
  0
LINE
  5
15D3C
330
747D
100
AcDbEntity
  8
細線
100
AcDbLine
 10
5477.673057123674
 20
2561.270620748139
 30
0.0
 11
7481.673057123675
 21
2561.270620748139
 31
0.0
  0
LINE
  5
15D3D
330
747D
100
AcDbEntity
  8
細線
100
AcDbLine
 10
5477.673057123674
 20
2626.270620748139
 30
0.0
 11
7481.673057123675
 21
2626.270620748139
 31
0.0
  0
LINE
  5
15D3E
330
747D
100
AcDbEntity
  8
細線
100
AcDbLine
 10
5477.673057123674
 20
2691.270620748139
 30
0.0
 11
7481.673057123675
 21
2691.270620748139
 31
0.0
  0
LINE
  5
15D3F
330
747D
100
AcDbEntity
  8
細線
100
AcDbLine
 10
7481.673057123678
 20
2171.270620748139
 30
0.0
 11
5477.673057123671
 21
2171.270620748139
 31
0.0
  0
CIRCLE
  5
16043
330
747D
100
AcDbEntity
  8
細線
 48
50.0
100
AcDbCircle
 10
6479.673057123675
 20
3048.770620748139
 30
0.0
 40
18.0
  0
ARC
  5
16045
330
747D
100
AcDbEntity
  8
細線
 48
50.0
100
AcDbCircle
 10
6779.673057123675
 20
2723.770620748139
 30
0.0
 40
15.0
100
AcDbArc
 50
270.0
 51
90.0
  0
ARC
  5
16046
330
747D
100
AcDbEntity
  8
細線
 48
50.0
100
AcDbCircle
 10
6679.673057123675
 20
2723.770620748139
 30
0.0
 40
15.0
100
AcDbArc
 50
90.0
 51
270.0
  0
LINE
  5
16047
330
747D
100
AcDbEntity
  8
細線
 48
50.0
100
AcDbLine
 10
6679.673057123675
 20
2738.770620748139
 30
0.0
 11
6779.673057123675
 21
2738.770620748139
 31
0.0
  0
LINE
  5
16048
330
747D
100
AcDbEntity
  8
細線
 48
50.0
100
AcDbLine
 10
6779.673057123675
 20
2708.770620748139
 30
0.0
 11
6679.673057123675
 21
2708.770620748139
 31
0.0
  0
LINE
  5
16049
330
747D
100
AcDbEntity
  8
細線
 48
50.0
100
AcDbLine
 10
6279.673057123675
 20
2708.770620748139
 30
0.0
 11
6179.673057123675
 21
2708.770620748139
 31
0.0
  0
LINE
  5
1604A
330
747D
100
AcDbEntity
  8
細線
 48
50.0
100
AcDbLine
 10
6179.673057123675
 20
2738.770620748139
 30
0.0
 11
6279.673057123675
 21
2738.770620748139
 31
0.0
  0
ARC
  5
1604B
330
747D
100
AcDbEntity
  8
細線
 48
50.0
100
AcDbCircle
 10
6279.673057123675
 20
2723.770620748139
 30
0.0
 40
15.0
100
AcDbArc
 50
270.0
 51
90.0
  0
ARC
  5
1604C
330
747D
100
AcDbEntity
  8
細線
 48
50.0
100
AcDbCircle
 10
6179.673057123675
 20
2723.770620748139
 30
0.0
 40
15.0
100
AcDbArc
 50
90.0
 51
270.0
  0
DIMENSION
  5
162CD
330
747D
100
AcDbEntity
  8
寸法
100
AcDbDimension
  2
*D1
 10
8232.099402858089
 20
7197.497424545952
 30
0.0
 11
8132.087591834467
 21
8457.497424545961
 31
0.0
 70
    32
  1
6X420=<>
 71
     5
 42
2520.000000000015
  3
INABA_S40G
100
AcDbAlignedDimension
 13
7584.673057123684
 23
9717.497424545967
 33
0.0
 14
7584.673057123659
 24
7197.497424545952
 34
0.0
 50
90.0
100
AcDbRotatedDimension
1001
ACAD
1000
DSTYLE
1002
{
1002
}
  0
DIMENSION
  5
162CE
330
747D
100
AcDbEntity
  8
寸法
100
AcDbDimension
  2
*D2
 10
8232.09940285807
 20
7142.497424545957
 30
0.0
 11
8232.099402858068
 21
6764.635957641094
 31
0.0
 70
   160
 71
     5
 42
54.99999999999636
  3
INABA_S40G
100
AcDbAlignedDimension
 13
7584.673057123659
 23
7197.497424545952
 33
0.0
 14
7584.673057123659
 24
7142.497424545957
 34
0.0
 50
90.0
100
AcDbRotatedDimension
1001
ACAD
1000
DSTYLE
1002
{
1002
}
  0
DIMENSION
  5
162CF
330
747D
100
AcDbEntity
  8
寸法
100
AcDbDimension
  2
*D3
 10
8232.099402858095
 20
9717.497424545967
 30
0.0
 11
8232.099402858095
 21
10080.9827059202
 31
0.0
 70
   160
 71
     5
 42
54.99999999999636
  3
INABA_S40G
100
AcDbAlignedDimension
 13
7584.673057123684
 23
9772.497424545964
 33
0.0
 14
7584.673057123684
 24
9717.497424545967
 34
0.0
 50
90.0
100
AcDbRotatedDimension
1001
ACAD
1000
DSTYLE
1002
{
1002
}
  0
DIMENSION
  5
162D0
330
747D
100
AcDbEntity
  8
寸法
100
AcDbDimension
  2
*D4
 10
8597.206344597729
 20
7142.497424545957
 30
0.0
 11
8497.194533574106
 21
8457.497424545961
 31
0.0
 70
    32
 71
     5
 42
2630.000000000007
  3
INABA_S40G
100
AcDbAlignedDimension
 13
7584.673057123684
 23
9772.497424545964
 33
0.0
 14
7584.673057123659
 24
7142.497424545957
 34
0.0
 50
90.0
100
AcDbRotatedDimension
1001
ACAD
1000
DSTYLE
1002
{
1002
}
  0
LINE
  5
162DC
330
747D
100
AcDbEntity
  8
部品1
100
AcDbLine
 10
7556.673057123667
 20
9744.497424545963
 30
0.0
 11
7556.67305712366
 21
7197.497424545952
 31
0.0
  0
LINE
  5
162DD
330
747D
100
AcDbEntity
  8
部品1
100
AcDbLine
 10
3192.673057123659
 20
7197.497424545821
 30
0.0
 11
3192.67305712367
 21
9744.497424545871
 31
0.0
  0
LINE
  5
162DE
330
747D
100
AcDbEntity
  8
部品1
100
AcDbLine
 10
7584.673057123684
 20
9772.497424545964
 30
0.0
 11
7584.673057123659
 21
7142.497424545957
 31
0.0
  0
LINE
  5
162DF
330
747D
100
AcDbEntity
  8
部品1
100
AcDbLine
 10
3164.673057123648
 20
9772.497424545838
 30
0.0
 11
3164.673057123677
 21
7142.497424545826
 31
0.0
  0
DIMENSION
  5
162E4
330
747D
100
AcDbEntity
  8
寸法
 48
50.0
100
AcDbDimension
  2
*D5
 10
5477.673057123677
 20
6608.0666537797
 30
0.0
 11
6479.673057123668
 21
6708.078464803323
 31
0.0
 70
    32
  1
有効開口部間口 <>
 71
     5
 42
2003.999999999982
  3
INABA_S40G
100
AcDbAlignedDimension
 13
7481.673057123659
 23
7168.497424545865
 33
0.0
 14
5477.673057123677
 24
7168.497424545865
 34
0.0
100
AcDbRotatedDimension
1001
ACAD
1000
DSTYLE
1002
{
1070
    75
1070
     1
1070
   279
1070
     2
1002
}
  0
LINE
  5
162E6
330
747D
100
AcDbEntity
  8
部品1
 48
50.0
100
AcDbLine
 10
5441.673057123676
 20
7187.997424545864
 30
0.0
 11
7517.67305712366
 21
7187.997424545864
 31
0.0
  0
DIMENSION
  5
162E7
330
747D
100
AcDbEntity
  8
寸法
100
AcDbDimension
  2
*D6
 10
7584.673057123648
 20
6161.893658188827
 30
0.0
 11
5374.673057123662
 21
6261.905469212448
 31
0.0
 70
    32
 71
     5
 42
4419.999999999971
  3
INABA_S40G
100
AcDbAlignedDimension
 13
3164.673057123677
 23
7142.497424545862
 33
0.0
 14
7584.673057123648
 24
7142.497424545957
 34
0.0
100
AcDbRotatedDimension
1001
ACAD
1000
DSTYLE
1002
{
1002
}
  0
LINE
  5
162E8
330
747D
100
AcDbEntity
  8
部品1
100
AcDbLine
 10
3219.673057123654
 20
9717.497424545888
 30
0.0
 11
3219.673057123676
 21
7207.497424545863
 31
0.0
  0
LINE
  5
162E9
330
747D
100
AcDbEntity
  8
部品1
100
AcDbLine
 10
3244.673057123655
 20
9717.497424545886
 30
0.0
 11
3244.673057123676
 21
7207.497424545863
 31
0.0
  0
DIMENSION
  5
162EA
330
747D
100
AcDbEntity
  8
寸法
 48
50.0
100
AcDbDimension
  2
*D7
 10
3164.673057123677
 20
6608.0666537797
 30
0.0
 11
2856.187775749438
 21
6608.0666537797
 31
0.0
 70
   160
 71
     5
 42
54.99999999999636
  3
INABA_S40G
100
AcDbAlignedDimension
 13
3219.673057123673
 23
7142.497424545864
 33
0.0
 14
3164.673057123677
 24
7142.497424545862
 34
0.0
100
AcDbRotatedDimension
1001
ACAD
1000
DSTYLE
1002
{
1002
}
  0
DIMENSION
  5
162EB
330
747D
100
AcDbEntity
  8
寸法
 48
50.0
100
AcDbDimension
  2
*D8
 10
5429.673057123673
 20
6608.0666537797
 30
0.0
 11
5590.575028123734
 21
6708.0666537797
 31
0.0
 70
   160
 71
     5
 42
48.00000000000363
  3
INABA_S40G
100
AcDbAlignedDimension
 13
5477.673057123677
 23
7168.497424545865
 33
0.0
 14
5429.673057123673
 24
7142.497424545864
 34
0.0
100
AcDbRotatedDimension
1001
ACAD
1000
DSTYLE
1002
{
1070
   279
1070
     2
1002
}
  0
LINE
  5
162EC
330
747D
100
AcDbEntity
  8
部品1
100
AcDbLine
 10
3219.673057123672
 20
7142.497424545864
 30
0.0
 11
3164.673057123677
 21
7142.497424545862
 31
0.0
  0
LINE
  5
162ED
330
747D
100
AcDbEntity
  8
部品1
 48
50.0
100
AcDbLine
 10
3219.673057123677
 20
7178.497424545864
 30
0.0
 11
3196.673057123677
 21
7178.497424545864
 31
0.0
  0
LINE
  5
162EE
330
747D
100
AcDbEntity
  8
部品1
 48
50.0
100
AcDbLine
 10
3229.673057123676
 20
7168.497424545865
 30
0.0
 11
3219.673057123677
 21
7147.497424545864
 31
0.0
  0
LINE
  5
162EF
330
747D
100
AcDbEntity
  8
部品1
 48
50.0
100
AcDbLine
 10
3219.673057123677
 20
7207.497424545863
 30
0.0
 11
3219.673057123673
 21
7142.497424545864
 31
0.0
  0
LINE
  5
162F0
330
747D
100
AcDbEntity
  8
部品1
 48
50.0
100
AcDbLine
 10
3267.673057123677
 20
7168.497424545865
 30
0.0
 11
3267.673057123677
 21
7177.497424545865
 31
0.0
  0
LINE
  5
162F1
330
747D
100
AcDbEntity
  8
部品1
 48
50.0
100
AcDbLine
 10
3267.673057123677
 20
7207.497424545865
 30
0.0
 11
3267.673057123677
 21
7198.497424545866
 31
0.0
  0
LINE
  5
162F2
330
747D
100
AcDbEntity
  8
部品1
100
AcDbLine
 10
3267.673057123677
 20
7207.497424545865
 30
0.0
 11
3219.673057123677
 21
7207.497424545865
 31
0.0
  0
LINE
  5
162F3
330
747D
100
AcDbEntity
  8
部品1
100
AcDbLine
 10
3267.673057123677
 20
7168.497424545865
 30
0.0
 11
3219.673057123677
 21
7168.497424545865
 31
0.0
  0
LINE
  5
162F4
330
747D
100
AcDbEntity
  8
部品1
100
AcDbLine
 10
3219.673057123676
 20
7178.497424545864
 30
0.0
 11
3196.673057123677
 21
7178.497424545864
 31
0.0
  0
LINE
  5
162F5
330
747D
100
AcDbEntity
  8
部品1
100
AcDbLine
 10
3219.673057123676
 20
7197.497424545789
 30
0.0
 11
3164.673057123675
 21
7197.497424545789
 31
0.0
  0
LINE
  5
162F6
330
747D
100
AcDbEntity
  8
部品1
100
AcDbLine
 10
3192.673057123659
 20
7197.497424545826
 30
0.0
 11
3164.673057123675
 21
7197.497424545826
 31
0.0
  0
LINE
  5
162F7
330
747D
100
AcDbEntity
  8
部品1
100
AcDbLine
 10
3192.673057123675
 20
7197.49742454584
 30
0.0
 11
3164.673057123675
 21
7197.49742454584
 31
0.0
  0
LINE
  5
162FB
330
747D
100
AcDbEntity
  8
部品1
100
AcDbLine
 10
3192.673057123663
 20
7617.49742454584
 30
0.0
 11
3164.673057123663
 21
7617.49742454584
 31
0.0
  0
LINE
  5
162FC
330
747D
100
AcDbEntity
  8
部品1
100
AcDbLine
 10
3192.673057123663
 20
8037.49742454584
 30
0.0
 11
3164.673057123663
 21
8037.49742454584
 31
0.0
  0
LINE
  5
162FE
330
747D
100
AcDbEntity
  8
部品1
100
AcDbLine
 10
3192.673057123658
 20
8457.49742454584
 30
0.0
 11
3164.673057123658
 21
8457.49742454584
 31
0.0
  0
LINE
  5
162FF
330
747D
100
AcDbEntity
  8
部品1
100
AcDbLine
 10
7529.67305712368
 20
9717.497424545886
 30
0.0
 11
7529.673057123661
 21
7142.497424545952
 31
0.0
  0
LINE
  5
16300
330
747D
100
AcDbEntity
  8
部品1
100
AcDbLine
 10
7504.673057123683
 20
9717.497424545884
 30
0.0
 11
7504.67305712366
 21
7207.497424545865
 31
0.0
  0
DIMENSION
  5
16301
330
747D
100
AcDbEntity
  8
寸法
 48
50.0
100
AcDbDimension
  2
*D9
 10
7481.673057123659
 20
6608.0666537797
 30
0.0
 11
7370.710159474912
 21
6708.0666537797
 31
0.0
 70
   160
 71
     5
 42
48.00000000000181
  3
INABA_S40G
100
AcDbAlignedDimension
 13
7529.673057123661
 23
7142.497424545952
 33
0.0
 14
7481.673057123659
 24
7168.497424545865
 34
0.0
100
AcDbRotatedDimension
1001
ACAD
1000
DSTYLE
1002
{
1070
   279
1070
     2
1002
}
  0
DIMENSION
  5
16302
330
747D
100
AcDbEntity
  8
寸法
 48
50.0
100
AcDbDimension
  2
*D10
 10
7529.673057123661
 20
6608.066653779701
 30
0.0
 11
7893.158338497896
 21
6608.066653779701
 31
0.0
 70
   160
 71
     5
 42
54.99999999999818
  3
INABA_S40G
100
AcDbAlignedDimension
 13
7584.673057123659
 23
7142.497424545957
 33
0.0
 14
7529.673057123661
 24
7142.497424545952
 34
0.0
100
AcDbRotatedDimension
1001
ACAD
1000
DSTYLE
1002
{
1002
}
  0
LINE
  5
16303
330
747D
100
AcDbEntity
  8
部品1
 48
50.0
100
AcDbLine
 10
7519.673057123658
 20
7168.497424545865
 30
0.0
 11
7529.673057123658
 21
7147.497424545864
 31
0.0
  0
LINE
  5
16304
330
747D
100
AcDbEntity
  8
部品1
100
AcDbLine
 10
7481.673057123659
 20
7207.497424545865
 30
0.0
 11
7529.673057123661
 21
7207.497424545865
 31
0.0
  0
LINE
  5
16305
330
747D
100
AcDbEntity
  8
部品1
100
AcDbLine
 10
7481.673057123659
 20
7168.497424545865
 30
0.0
 11
7529.673057123658
 21
7168.497424545865
 31
0.0
  0
LINE
  5
16306
330
747D
100
AcDbEntity
  8
部品1
 48
50.0
100
AcDbLine
 10
7481.673057123659
 20
7207.497424545865
 30
0.0
 11
7481.673057123659
 21
7198.497424545866
 31
0.0
  0
LINE
  5
16307
330
747D
100
AcDbEntity
  8
部品1
 48
50.0
100
AcDbLine
 10
7481.673057123659
 20
7168.497424545865
 30
0.0
 11
7481.673057123659
 21
7177.497424545865
 31
0.0
  0
LINE
  5
16308
330
747D
100
AcDbEntity
  8
部品1
100
AcDbLine
 10
7529.673057123658
 20
7178.497424545863
 30
0.0
 11
7552.673057123659
 21
7178.497424545864
 31
0.0
  0
LINE
  5
16309
330
747D
100
AcDbEntity
  8
部品1
100
AcDbLine
 10
7529.673057123658
 20
7197.497424545968
 30
0.0
 11
7584.673057123691
 21
7197.497424545968
 31
0.0
  0
LINE
  5
1630A
330
747D
100
AcDbEntity
  8
部品1
100
AcDbLine
 10
7584.673057123659
 20
7142.497424545957
 30
0.0
 11
7529.673057123661
 21
7142.497424545954
 31
0.0
  0
LINE
  5
16317
330
747D
100
AcDbEntity
  8
部品1
100
AcDbLine
 10
7556.673057123687
 20
7617.497424545966
 30
0.0
 11
7584.673057123687
 21
7617.497424545966
 31
0.0
  0
LINE
  5
16319
330
747D
100
AcDbEntity
  8
部品1
100
AcDbLine
 10
7556.673057123687
 20
8037.497424545966
 30
0.0
 11
7584.673057123687
 21
8037.497424545966
 31
0.0
  0
LINE
  5
1631A
330
747D
100
AcDbEntity
  8
部品1
100
AcDbLine
 10
7556.673057123685
 20
8457.497424545968
 30
0.0
 11
7584.673057123684
 21
8457.497424545968
 31
0.0
  0
LINE
  5
1631B
330
747D
100
AcDbEntity
  8
部品1
100
AcDbLine
 10
5429.673057123682
 20
9744.497424545986
 30
0.0
 11
6677.173057123681
 21
9744.497424545986
 31
0.0
  0
LINE
  5
1631C
330
747D
100
AcDbEntity
  8
部品1
100
AcDbLine
 10
5402.673057123683
 20
9744.497424545869
 30
0.0
 11
6059.673057123683
 21
9744.497424545873
 31
0.0
  0
DIMENSION
  5
1631F
330
747D
100
AcDbEntity
  8
寸法
100
AcDbDimension
  2
*D11
 10
7529.673057123684
 20
9988.305644170967
 30
0.0
 11
6479.673057123683
 21
10088.31745519459
 31
0.0
 70
    32
  1
5X420=<>
 71
     5
 42
2100.000000000001
  3
INABA_S40G
100
AcDbAlignedDimension
 13
5429.673057123682
 23
9772.49742454587
 33
0.0
 14
7529.673057123684
 24
9772.497424545964
 34
0.0
100
AcDbRotatedDimension
1001
ACAD
1000
DSTYLE
1002
{
1002
}
  0
DIMENSION
  5
16320
330
747D
100
AcDbEntity
  8
寸法
100
AcDbDimension
  2
*D12
 10
3219.673057123684
 20
9988.30564417085
 30
0.0
 11
2856.18777574941
 21
9988.30564417085
 31
0.0
 70
   160
 71
     5
 42
55.00000000003456
  3
INABA_S40G
100
AcDbAlignedDimension
 13
3164.673057123648
 23
9772.49742454587
 33
0.0
 14
3219.673057123684
 24
9772.49742454587
 34
0.0
100
AcDbRotatedDimension
1001
ACAD
1000
DSTYLE
1002
{
1002
}
  0
LINE
  5
16321
330
747D
100
AcDbEntity
  8
部品1
100
AcDbLine
 10
3219.673057123649
 20
9772.497424545838
 30
0.0
 11
3219.67305712365
 21
9744.497424545837
 31
0.0
  0
LINE
  5
16322
330
747D
100
AcDbEntity
  8
部品1
100
AcDbLine
 10
3219.673057123684
 20
9772.49742454587
 30
0.0
 11
3219.673057123684
 21
9744.497424545869
 31
0.0
  0
LINE
  5
16323
330
747D
100
AcDbEntity
  8
部品1
100
AcDbLine
 10
3192.673057123651
 20
9717.49742454584
 30
0.0
 11
3164.67305712365
 21
9717.49742454584
 31
0.0
  0
LINE
  5
16324
330
747D
100
AcDbEntity
  8
部品1
100
AcDbLine
 10
5849.673057123683
 20
9772.497424545987
 30
0.0
 11
5849.673057123683
 21
9744.497424545986
 31
0.0
  0
LINE
  5
16325
330
747D
100
AcDbEntity
  8
部品1
100
AcDbLine
 10
5849.673057123683
 20
9772.49742454587
 30
0.0
 11
5849.673057123683
 21
9744.497424545869
 31
0.0
  0
LINE
  5
16326
330
747D
100
AcDbEntity
  8
部品1
100
AcDbLine
 10
5849.673057123683
 20
9772.49742454587
 30
0.0
 11
5849.673057123683
 21
9744.497424545869
 31
0.0
  0
LINE
  5
16327
330
747D
100
AcDbEntity
  8
部品1
100
AcDbLine
 10
6702.173057123683
 20
9744.497424545983
 30
0.0
 11
7556.673057123685
 21
9744.497424545963
 31
0.0
  0
LINE
  5
16329
330
747D
100
AcDbEntity
  8
部品1
100
AcDbLine
 10
6269.673057123683
 20
9772.497424545987
 30
0.0
 11
6269.673057123683
 21
9744.497424545986
 31
0.0
  0
LINE
  5
1632A
330
747D
100
AcDbEntity
  8
部品1
100
AcDbLine
 10
6269.673057123683
 20
9772.49742454587
 30
0.0
 11
6269.673057123683
 21
9744.497424545869
 31
0.0
  0
LINE
  5
1632B
330
747D
100
AcDbEntity
  8
部品1
100
AcDbLine
 10
6269.673057123683
 20
9772.49742454587
 30
0.0
 11
6269.673057123683
 21
9744.497424545869
 31
0.0
  0
LINE
  5
1632C
330
747D
100
AcDbEntity
  8
部品1
100
AcDbLine
 10
6689.673057123683
 20
9772.497424545987
 30
0.0
 11
6689.673057123683
 21
9744.497424545986
 31
0.0
  0
LINE
  5
1632D
330
747D
100
AcDbEntity
  8
部品1
100
AcDbLine
 10
6677.173057123683
 20
9736.497424545968
 30
0.0
 11
6702.173057123683
 21
9736.497424545971
 31
0.0
  0
LINE
  5
1632E
330
747D
100
AcDbEntity
  8
部品1
100
AcDbLine
 10
6718.673057123684
 20
9762.497424545971
 30
0.0
 11
6724.673057123684
 21
9762.497424545971
 31
0.0
  0
LINE
  5
1632F
330
747D
100
AcDbEntity
  8
部品1
100
AcDbLine
 10
6724.673057123684
 20
9762.497424545971
 30
0.0
 11
6724.673057123684
 21
9744.49742454597
 31
0.0
  0
LINE
  5
16330
330
747D
100
AcDbEntity
  8
部品1
100
AcDbLine
 10
6654.673057123684
 20
9762.497424545971
 30
0.0
 11
6660.673057123684
 21
9762.497424545971
 31
0.0
  0
LINE
  5
16331
330
747D
100
AcDbEntity
  8
部品1
100
AcDbLine
 10
6654.673057123684
 20
9762.497424545971
 30
0.0
 11
6654.673057123684
 21
9744.49742454597
 31
0.0
  0
DIMENSION
  5
16333
330
747D
100
AcDbEntity
  8
寸法
100
AcDbDimension
  2
*D13
 10
7584.673057123684
 20
9988.305644170949
 30
0.0
 11
7893.158338497922
 21
9988.305644170949
 31
0.0
 70
   160
 71
     5
 42
55.0
  3
INABA_S40G
100
AcDbAlignedDimension
 13
7529.673057123684
 23
9772.497424545964
 33
0.0
 14
7584.673057123684
 24
9772.497424545964
 34
0.0
100
AcDbRotatedDimension
1001
ACAD
1000
DSTYLE
1002
{
1002
}
  0
LINE
  5
16334
330
747D
100
AcDbEntity
  8
部品1
100
AcDbLine
 10
7109.673057123682
 20
9772.497424545987
 30
0.0
 11
7109.673057123682
 21
9744.497424545986
 31
0.0
  0
LINE
  5
16335
330
747D
100
AcDbEntity
  8
部品1
100
AcDbLine
 10
7529.673057123684
 20
9772.497424545964
 30
0.0
 11
7529.673057123684
 21
9744.497424545963
 31
0.0
  0
LINE
  5
16336
330
747D
100
AcDbEntity
  8
部品1
100
AcDbLine
 10
7529.673057123684
 20
9772.497424545987
 30
0.0
 11
7529.673057123684
 21
9744.497424545986
 31
0.0
  0
LINE
  5
16337
330
747D
100
AcDbEntity
  8
部品1
100
AcDbLine
 10
7556.673057123685
 20
9717.497424545967
 30
0.0
 11
7584.673057123684
 21
9717.497424545967
 31
0.0
  0
LINE
  5
1655C
330
747D
100
AcDbEntity
  8
部品1
100
AcDbLine
 10
5271.673057123678
 20
3836.27062074814
 30
0.0
 11
5271.673057123675
 21
2161.270620748139
 31
0.0
  0
LINE
  5
1655D
330
747D
100
AcDbEntity
  8
部品1
100
AcDbLine
 10
5319.673057123677
 20
3836.27062074814
 30
0.0
 11
5319.673057123675
 21
2161.270620748139
 31
0.0
  0
LINE
  5
1655E
330
747D
100
AcDbEntity
  8
破線
 48
5.0
100
AcDbLine
 10
5271.673057123675
 20
2161.270620748139
 30
0.0
 11
5271.673057123678
 21
1911.270620748139
 31
0.0
  0
LINE
  5
1655F
330
747D
100
AcDbEntity
  8
破線
 48
5.0
100
AcDbLine
 10
5319.673057123678
 20
1911.270620748139
 30
0.0
 11
5271.673057123677
 21
1911.270620748139
 31
0.0
  0
LINE
  5
16560
330
747D
100
AcDbEntity
  8
破線
 48
5.0
100
AcDbLine
 10
5319.673057123675
 20
2161.270620748139
 30
0.0
 11
5319.673057123677
 21
1886.270620748139
 31
0.0
  0
LINE
  5
16561
330
747D
100
AcDbEntity
  8
破線
 48
5.0
100
AcDbLine
 10
5429.673057123675
 20
1886.270620748138
 30
0.0
 11
5319.673057123677
 21
1886.270620748138
 31
0.0
  0
LINE
  5
16562
330
747D
100
AcDbEntity
  8
部品1
100
AcDbLine
 10
5477.673057123677
 20
3836.270620748139
 30
0.0
 11
5477.673057123677
 21
2161.270620748139
 31
0.0
  0
LINE
  5
16563
330
747D
100
AcDbEntity
  8
破線
 48
5.0
100
AcDbLine
 10
5477.673057123677
 20
2161.270620748139
 30
0.0
 11
5477.673057123674
 21
1911.270620748144
 31
0.0
  0
LINE
  5
16564
330
747D
100
AcDbEntity
  8
破線
 48
5.0
100
AcDbLine
 10
5477.673057123674
 20
1911.270620748144
 30
0.0
 11
5429.673057123675
 21
1911.270620748144
 31
0.0
  0
LINE
  5
16565
330
747D
100
AcDbEntity
  8
破線
 48
5.0
100
AcDbLine
 10
5429.673057123676
 20
2161.270620748139
 30
0.0
 11
5429.673057123675
 21
1886.270620748139
 31
0.0
  0
LINE
  5
16566
330
747D
100
AcDbEntity
  8
部品1
100
AcDbLine
 10
5429.673057123676
 20
3836.27062074814
 30
0.0
 11
5429.673057123676
 21
2161.270620748139
 31
0.0
  0
LINE
  5
16567
330
747D
100
AcDbEntity
  8
部品1
100
AcDbLine
 10
5429.673057123676
 20
3836.270620748139
 30
0.0
 11
7584.673057123676
 21
3836.27062074814
 31
0.0
  0
DIMENSION
  5
1659A
330
747D
100
AcDbEntity
  8
寸法
 48
50.0
100
AcDbDimension
  2
*D15
 10
5271.673057123659
 20
6608.0666537797
 30
0.0
 11
5160.710159474911
 21
6708.0666537797
 31
0.0
 70
   160
 71
     5
 42
48.00000000000181
  3
INABA_S40G
100
AcDbAlignedDimension
 13
5319.673057123661
 23
7142.497424545952
 33
0.0
 14
5271.673057123659
 24
7168.497424545865
 34
0.0
100
AcDbRotatedDimension
1001
ACAD
1000
DSTYLE
1002
{
1070
   279
1070
     2
1002
}
  0
DIMENSION
  5
1659C
330
747D
100
AcDbEntity
  8
寸法
 48
50.0
100
AcDbDimension
  2
*D14
 10
3219.673057123673
 20
6608.0666537797
 30
0.0
 11
3380.575028123735
 21
6708.0666537797
 31
0.0
 70
   160
 71
     5
 42
48.00000000000363
  3
INABA_S40G
100
AcDbAlignedDimension
 13
3267.673057123677
 23
7168.497424545865
 33
0.0
 14
3219.673057123673
 24
7142.497424545864
 34
0.0
100
AcDbRotatedDimension
1001
ACAD
1000
DSTYLE
1002
{
1070
   279
1070
     2
1002
}
  0
DIMENSION
  5
165E9
330
747D
100
AcDbEntity
  8
寸法
 48
50.0
100
AcDbDimension
  2
*D16
 10
5319.673057123661
 20
6608.066653779701
 30
0.0
 11
5374.673057123667
 21
6456.37475874347
 31
0.0
 70
   160
 71
     5
 42
110.0000000000127
  3
INABA_S40G
100
AcDbAlignedDimension
 13
5429.673057123673
 23
7142.497424545864
 33
0.0
 14
5319.673057123661
 24
7142.497424545952
 34
0.0
100
AcDbRotatedDimension
1001
ACAD
1000
DSTYLE
1002
{
1070
   279
1070
     2
1002
}
  0
LINE
  5
16656
330
747D
100
AcDbEntity
  8
部品1
100
AcDbLine
 10
5271.673057123659
 20
7207.497424545865
 30
0.0
 11
5319.673057123661
 21
7207.497424545865
 31
0.0
  0
LINE
  5
16657
330
747D
100
AcDbEntity
  8
部品1
 48
50.0
100
AcDbLine
 10
5271.673057123659
 20
7207.497424545865
 30
0.0
 11
5271.673057123659
 21
7198.497424545866
 31
0.0
  0
LINE
  5
16658
330
747D
100
AcDbEntity
  8
部品1
100
AcDbLine
 10
5271.673057123659
 20
7168.497424545865
 30
0.0
 11
5319.673057123658
 21
7168.497424545865
 31
0.0
  0
LINE
  5
16659
330
747D
100
AcDbEntity
  8
部品1
 48
50.0
100
AcDbLine
 10
5271.673057123659
 20
7168.497424545865
 30
0.0
 11
5271.673057123659
 21
7177.497424545865
 31
0.0
  0
LINE
  5
1665A
330
747D
100
AcDbEntity
  8
部品1
 48
50.0
100
AcDbLine
 10
5309.673057123658
 20
7168.497424545865
 30
0.0
 11
5319.673057123658
 21
7147.497424545864
 31
0.0
  0
LINE
  5
1665B
330
747D
100
AcDbEntity
  8
部品1
100
AcDbLine
 10
5319.673057123658
 20
7178.497424545863
 30
0.0
 11
5342.673057123659
 21
7178.497424545864
 31
0.0
  0
LINE
  5
1665C
330
747D
100
AcDbEntity
  8
部品1
100
AcDbLine
 10
5477.673057123677
 20
7207.497424545865
 30
0.0
 11
5429.673057123676
 21
7207.497424545865
 31
0.0
  0
LINE
  5
1665D
330
747D
100
AcDbEntity
  8
部品1
 48
50.0
100
AcDbLine
 10
5477.673057123677
 20
7207.497424545865
 30
0.0
 11
5477.673057123677
 21
7198.497424545866
 31
0.0
  0
LINE
  5
1665E
330
747D
100
AcDbEntity
  8
部品1
100
AcDbLine
 10
5477.673057123677
 20
7168.497424545865
 30
0.0
 11
5429.673057123676
 21
7168.497424545865
 31
0.0
  0
LINE
  5
1665F
330
747D
100
AcDbEntity
  8
部品1
 48
50.0
100
AcDbLine
 10
5439.673057123677
 20
7168.497424545865
 30
0.0
 11
5429.673057123676
 21
7147.497424545864
 31
0.0
  0
LINE
  5
16660
330
747D
100
AcDbEntity
  8
部品1
100
AcDbLine
 10
5429.673057123675
 20
7178.497424545864
 30
0.0
 11
5406.673057123676
 21
7178.497424545864
 31
0.0
  0
LINE
  5
16661
330
747D
100
AcDbEntity
  8
部品1
 48
50.0
100
AcDbLine
 10
5429.673057123676
 20
7207.497424545863
 30
0.0
 11
5429.673057123673
 21
7142.497424545864
 31
0.0
  0
LINE
  5
16662
330
747D
100
AcDbEntity
  8
部品1
 48
50.0
100
AcDbLine
 10
5477.673057123677
 20
7168.497424545865
 30
0.0
 11
5477.673057123677
 21
7177.497424545865
 31
0.0
  0
LINE
  5
16663
330
747D
100
AcDbEntity
  8
部品1
100
AcDbLine
 10
5429.673057123672
 20
7142.497424545864
 30
0.0
 11
5319.673057123662
 21
7142.497424545858
 31
0.0
  0
LINE
  5
16664
330
747D
100
AcDbEntity
  8
部品1
 48
50.0
100
AcDbLine
 10
5319.673057123665
 20
7207.497424545952
 30
0.0
 11
5319.673057123662
 21
7142.497424545952
 31
0.0
  0
LINE
  5
16666
330
747D
100
AcDbEntity
  8
部品1
100
AcDbLine
 10
5429.673057123682
 20
9772.49742454587
 30
0.0
 11
5429.673057123682
 21
9744.497424545869
 31
0.0
  0
LINE
  5
16692
330
747D
100
AcDbEntity
  8
部品1
100
AcDbLine
 10
5319.673057123684
 20
9772.497424545964
 30
0.0
 11
5319.673057123684
 21
9744.497424545963
 31
0.0
  0
DIMENSION
  5
166DD
330
747D
100
AcDbEntity
  8
寸法
 48
50.0
100
AcDbDimension
  2
*D17
 10
5319.673057123684
 20
9988.305644170967
 30
0.0
 11
5374.673057123684
 21
10088.30564417096
 31
0.0
 70
    32
 71
     5
 42
109.9999999999991
  3
INABA_S40G
100
AcDbAlignedDimension
 13
5429.673057123682
 23
9772.497424545917
 33
0.0
 14
5319.673057123684
 24
9772.497424545916
 34
0.0
100
AcDbRotatedDimension
1001
ACAD
1000
DSTYLE
1002
{
1070
   279
1070
     2
1002
}
  0
LINE
  5
16760
330
747D
100
AcDbEntity
  8
部品1
 48
50.0
100
AcDbLine
 10
5374.67305712365
 20
9744.497424545912
 30
0.0
 11
5346.673057123651
 21
9772.497424545965
 31
0.0
  0
LINE
  5
16761
330
747D
100
AcDbEntity
  8
部品1
100
AcDbLine
 10
7529.673057123679
 20
9717.497424545884
 30
0.0
 11
5429.673057123663
 21
9717.497424545886
 31
0.0
  0
LINE
  5
16762
330
747D
100
AcDbEntity
  8
部品1
 48
50.0
100
AcDbLine
 10
5346.673057123651
 20
9744.497424546016
 30
0.0
 11
5346.67305712365
 21
9772.497424545965
 31
0.0
  0
LINE
  5
16763
330
747D
100
AcDbEntity
  8
部品1
 48
50.0
100
AcDbLine
 10
5346.673057123651
 20
9744.497424545912
 30
0.0
 11
5374.67305712365
 21
9744.497424545912
 31
0.0
  0
LINE
  5
168C3
330
747D
100
AcDbEntity
  8
部品1
100
AcDbLine
 10
5398.673057123668
 20
7197.497424545861
 30
0.0
 11
5350.673057123667
 21
7197.49742454586
 31
0.0
  0
LINE
  5
168C4
330
747D
100
AcDbEntity
  8
部品1
 48
50.0
100
AcDbLine
 10
5350.673057123668
 20
7197.497424545861
 30
0.0
 11
5350.67305712367
 21
7142.497424545862
 31
0.0
  0
LINE
  5
168C5
330
747D
100
AcDbEntity
  8
部品1
 48
50.0
100
AcDbLine
 10
5398.673057123668
 20
7197.497424545861
 30
0.0
 11
5398.67305712367
 21
7142.497424545862
 31
0.0
  0
DIMENSION
  5
16913
330
747D
100
AcDbEntity
  8
寸法
 48
50.0
100
AcDbDimension
  2
*D18
 10
7584.673057123684
 20
10237.62711772726
 30
0.0
 11
6479.673057123683
 21
10337.63892875088
 31
0.0
 70
    32
 71
     5
 42
2210.0
  3
INABA_S40G
100
AcDbAlignedDimension
 13
5374.673057123684
 23
10147.29355852891
 33
0.0
 14
7584.673057123684
 24
9772.497424545964
 34
0.0
100
AcDbRotatedDimension
1001
ACAD
1000
DSTYLE
1002
{
1070
    75
1070
     1
1070
   279
1070
     2
1002
}
  0
LINE
  5
172BC
330
747D
100
AcDbEntity
  8
部品1
 48
50.0
100
AcDbLine
 10
5402.673057123651
 20
9717.497424545886
 30
0.0
 11
5402.673057123717
 21
9772.497424545917
 31
0.0
  0
LINE
  5
172BD
330
747D
100
AcDbEntity
  8
部品1
 48
50.0
100
AcDbLine
 10
5346.673057123651
 20
9717.497424545886
 30
0.0
 11
5346.673057123651
 21
9744.497424545912
 31
0.0
  0
LINE
  5
174C8
330
747D
100
AcDbEntity
  8
部品1
 48
50.0
100
AcDbLine
 10
7504.673057123683
 20
9692.497424545841
 30
0.0
 11
5454.673057123637
 21
9692.497424545816
 31
0.0
  0
LINE
  5
174C9
330
747D
100
AcDbEntity
  8
部品1
 48
50.0
100
AcDbLine
 10
7556.673057123685
 20
9744.497424545963
 30
0.0
 11
7529.673057123679
 21
9717.497424545884
 31
0.0
  0
LINE
  5
174CA
330
747D
100
AcDbEntity
  8
部品1
 48
50.0
100
AcDbLine
 10
3219.673057123654
 20
9717.497424545888
 30
0.0
 11
3192.67305712367
 21
9744.497424545986
 31
0.0
  0
LINE
  5
174CB
330
747D
100
AcDbEntity
  8
部品1
 48
50.0
100
AcDbLine
 10
6677.173057123683
 20
9736.497424545968
 30
0.0
 11
6677.173057123681
 21
9744.497424545986
 31
0.0
  0
LINE
  5
174CC
330
747D
100
AcDbEntity
  8
部品1
 48
50.0
100
AcDbLine
 10
6702.173057123683
 20
9736.497424545971
 30
0.0
 11
6702.173057123683
 21
9744.497424545983
 31
0.0
  0
LINE
  5
17B10
330
747D
100
AcDbEntity
  8
細線
100
AcDbLine
 10
5271.673057123677
 20
2171.270620748139
 30
0.0
 11
3267.673057123671
 21
2171.270620748139
 31
0.0
  0
CIRCLE
  5
17B17
330
747D
100
AcDbEntity
  8
細線
 48
50.0
100
AcDbCircle
 10
4269.673057123674
 20
3048.770620748139
 30
0.0
 40
18.0
  0
ARC
  5
17B18
330
747D
100
AcDbEntity
  8
細線
 48
50.0
100
AcDbCircle
 10
4569.673057123675
 20
2723.770620748139
 30
0.0
 40
15.0
100
AcDbArc
 50
270.0
 51
90.0
  0
ARC
  5
17B19
330
747D
100
AcDbEntity
  8
細線
 48
50.0
100
AcDbCircle
 10
4469.673057123674
 20
2723.770620748139
 30
0.0
 40
15.0
100
AcDbArc
 50
90.0
 51
270.0
  0
LINE
  5
17B1A
330
747D
100
AcDbEntity
  8
細線
 48
50.0
100
AcDbLine
 10
4469.673057123674
 20
2738.77062074814
 30
0.0
 11
4569.673057123675
 21
2738.77062074814
 31
0.0
  0
LINE
  5
17B1B
330
747D
100
AcDbEntity
  8
細線
 48
50.0
100
AcDbLine
 10
4569.673057123675
 20
2708.770620748139
 30
0.0
 11
4469.673057123674
 21
2708.770620748139
 31
0.0
  0
ARC
  5
17B1C
330
747D
100
AcDbEntity
  8
細線
 48
50.0
100
AcDbCircle
 10
4069.673057123675
 20
2723.770620748139
 30
0.0
 40
15.0
100
AcDbArc
 50
270.0
 51
90.0
  0
ARC
  5
17B1D
330
747D
100
AcDbEntity
  8
細線
 48
50.0
100
AcDbCircle
 10
3969.673057123675
 20
2723.770620748139
 30
0.0
 40
15.0
100
AcDbArc
 50
90.0
 51
270.0
  0
LINE
  5
17B1E
330
747D
100
AcDbEntity
  8
細線
100
AcDbLine
 10
3267.673057123673
 20
3796.270620748139
 30
0.0
 11
5271.673057123675
 21
3796.270620748139
 31
0.0
  0
LINE
  5
17B21
330
747D
100
AcDbEntity
  8
細線
100
AcDbLine
 10
3267.673057123673
 20
3406.270620748139
 30
0.0
 11
5271.673057123675
 21
3406.270620748139
 31
0.0
  0
LINE
  5
17B22
330
747D
100
AcDbEntity
  8
細線
100
AcDbLine
 10
3267.673057123673
 20
3471.27062074814
 30
0.0
 11
5271.673057123675
 21
3471.27062074814
 31
0.0
  0
LINE
  5
17B23
330
747D
100
AcDbEntity
  8
細線
100
AcDbLine
 10
3267.673057123673
 20
3536.27062074814
 30
0.0
 11
5271.673057123675
 21
3536.27062074814
 31
0.0
  0
LINE
  5
17B24
330
747D
100
AcDbEntity
  8
細線
100
AcDbLine
 10
3267.673057123673
 20
3601.270620748139
 30
0.0
 11
5271.673057123675
 21
3601.270620748139
 31
0.0
  0
LINE
  5
17B25
330
747D
100
AcDbEntity
  8
細線
100
AcDbLine
 10
3267.673057123673
 20
3666.270620748139
 30
0.0
 11
5271.673057123675
 21
3666.270620748139
 31
0.0
  0
LINE
  5
17B26
330
747D
100
AcDbEntity
  8
細線
100
AcDbLine
 10
3267.673057123673
 20
3731.270620748139
 30
0.0
 11
5271.673057123675
 21
3731.270620748139
 31
0.0
  0
LINE
  5
17B27
330
747D
100
AcDbEntity
  8
細線
100
AcDbLine
 10
3267.673057123673
 20
2756.27062074814
 30
0.0
 11
5271.673057123675
 21
2756.27062074814
 31
0.0
  0
LINE
  5
17B28
330
747D
100
AcDbEntity
  8
細線
100
AcDbLine
 10
3267.673057123673
 20
2821.270620748139
 30
0.0
 11
5271.673057123675
 21
2821.270620748139
 31
0.0
  0
LINE
  5
17B29
330
747D
100
AcDbEntity
  8
細線
100
AcDbLine
 10
3267.673057123673
 20
2886.270620748139
 30
0.0
 11
5271.673057123675
 21
2886.270620748139
 31
0.0
  0
LINE
  5
17B2A
330
747D
100
AcDbEntity
  8
細線
100
AcDbLine
 10
3267.673057123673
 20
2951.27062074814
 30
0.0
 11
5271.673057123675
 21
2951.27062074814
 31
0.0
  0
LINE
  5
17B2B
330
747D
100
AcDbEntity
  8
細線
100
AcDbLine
 10
3267.673057123673
 20
3016.27062074814
 30
0.0
 11
5271.673057123675
 21
3016.27062074814
 31
0.0
  0
LINE
  5
17B2C
330
747D
100
AcDbEntity
  8
細線
100
AcDbLine
 10
3267.673057123673
 20
3081.270620748139
 30
0.0
 11
5271.673057123675
 21
3081.270620748139
 31
0.0
  0
LINE
  5
17B2D
330
747D
100
AcDbEntity
  8
細線
100
AcDbLine
 10
3267.673057123673
 20
3146.270620748139
 30
0.0
 11
5271.673057123675
 21
3146.270620748139
 31
0.0
  0
LINE
  5
17B2E
330
747D
100
AcDbEntity
  8
細線
100
AcDbLine
 10
3267.673057123673
 20
3211.27062074814
 30
0.0
 11
5271.673057123675
 21
3211.27062074814
 31
0.0
  0
LINE
  5
17B2F
330
747D
100
AcDbEntity
  8
細線
100
AcDbLine
 10
3267.673057123673
 20
3276.270620748139
 30
0.0
 11
5271.673057123675
 21
3276.270620748139
 31
0.0
  0
LINE
  5
17B30
330
747D
100
AcDbEntity
  8
細線
100
AcDbLine
 10
3267.673057123673
 20
3341.270620748139
 30
0.0
 11
5271.673057123675
 21
3341.270620748139
 31
0.0
  0
LINE
  5
17B33
330
747D
100
AcDbEntity
  8
細線
100
AcDbLine
 10
3267.673057123673
 20
2236.270620748139
 30
0.0
 11
5271.673057123675
 21
2236.270620748139
 31
0.0
  0
LINE
  5
17B34
330
747D
100
AcDbEntity
  8
細線
100
AcDbLine
 10
3267.673057123673
 20
2301.270620748139
 30
0.0
 11
5271.673057123675
 21
2301.270620748139
 31
0.0
  0
LINE
  5
17B35
330
747D
100
AcDbEntity
  8
細線
100
AcDbLine
 10
3267.673057123673
 20
2366.270620748139
 30
0.0
 11
5271.673057123675
 21
2366.270620748139
 31
0.0
  0
LINE
  5
17B36
330
747D
100
AcDbEntity
  8
細線
100
AcDbLine
 10
3267.673057123673
 20
2431.27062074814
 30
0.0
 11
5271.673057123675
 21
2431.27062074814
 31
0.0
  0
LINE
  5
17B37
330
747D
100
AcDbEntity
  8
細線
100
AcDbLine
 10
3267.673057123673
 20
2496.270620748139
 30
0.0
 11
5271.673057123675
 21
2496.270620748139
 31
0.0
  0
LINE
  5
17B38
330
747D
100
AcDbEntity
  8
細線
100
AcDbLine
 10
3267.673057123673
 20
2561.270620748139
 30
0.0
 11
5271.673057123675
 21
2561.270620748139
 31
0.0
  0
LINE
  5
17B39
330
747D
100
AcDbEntity
  8
細線
100
AcDbLine
 10
3267.673057123673
 20
2626.270620748139
 30
0.0
 11
5271.673057123675
 21
2626.270620748139
 31
0.0
  0
LINE
  5
17B3A
330
747D
100
AcDbEntity
  8
細線
100
AcDbLine
 10
3267.673057123673
 20
2691.270620748139
 30
0.0
 11
5271.673057123675
 21
2691.270620748139
 31
0.0
  0
LINE
  5
17B3B
330
747D
100
AcDbEntity
  8
細線
 48
50.0
100
AcDbLine
 10
4069.673057123675
 20
2708.770620748139
 30
0.0
 11
3969.673057123675
 21
2708.770620748139
 31
0.0
  0
LINE
  5
17B3C
330
747D
100
AcDbEntity
  8
細線
 48
50.0
100
AcDbLine
 10
3969.673057123675
 20
2738.77062074814
 30
0.0
 11
4069.673057123675
 21
2738.77062074814
 31
0.0
  0
LINE
  5
17B5A
330
747D
100
AcDbEntity
  8
部品1
100
AcDbLine
 10
3164.673057123677
 20
3836.270620748139
 30
0.0
 11
5429.673057123676
 21
3836.270620748139
 31
0.0
  0
DIMENSION
  5
17B86
330
747D
100
AcDbEntity
  8
寸法
 48
50.0
100
AcDbDimension
  2
*D21
 10
5374.673057123684
 20
10237.62711772726
 30
0.0
 11
4269.673057123665
 21
10337.63892875088
 31
0.0
 70
    32
 71
     5
 42
2210.000000000036
  3
INABA_S40G
100
AcDbAlignedDimension
 13
3164.673057123648
 23
9772.497424545838
 33
0.0
 14
5374.673057123684
 24
10147.29355852891
 34
0.0
100
AcDbRotatedDimension
1001
ACAD
1000
DSTYLE
1002
{
1070
   279
1070
     2
1002
}
  0
DIMENSION
  5
17B87
330
747D
100
AcDbEntity
  8
寸法
100
AcDbDimension
  2
*D20
 10
5319.673057123684
 20
9988.305644170967
 30
0.0
 11
4269.673057123684
 21
10088.31745519459
 31
0.0
 70
    32
  1
5X420=<>
 71
     5
 42
2100.000000000001
  3
INABA_S40G
100
AcDbAlignedDimension
 13
3219.673057123684
 23
9772.49742454587
 33
0.0
 14
5319.673057123684
 24
9772.497424545964
 34
0.0
100
AcDbRotatedDimension
1001
ACAD
1000
DSTYLE
1002
{
1002
}
  0
LINE
  5
17B8B
330
747D
100
AcDbEntity
  8
部品1
 48
50.0
100
AcDbLine
 10
5294.673057123654
 20
9692.497424545791
 30
0.0
 11
3244.673057123654
 21
9692.497424545789
 31
0.0
  0
LINE
  5
17B98
330
747D
100
AcDbEntity
  8
部品1
 48
50.0
100
AcDbLine
 10
4492.173057123682
 20
9736.497424545971
 30
0.0
 11
4492.173057123682
 21
9744.497424545983
 31
0.0
  0
LINE
  5
17B99
330
747D
100
AcDbEntity
  8
部品1
 48
50.0
100
AcDbLine
 10
4467.173057123683
 20
9736.497424545968
 30
0.0
 11
4467.173057123683
 21
9744.497424545986
 31
0.0
  0
LINE
  5
17BA3
330
747D
100
AcDbEntity
  8
部品1
100
AcDbLine
 10
4899.673057123682
 20
9772.497424545987
 30
0.0
 11
4899.673057123682
 21
9744.497424545986
 31
0.0
  0
LINE
  5
17BA4
330
747D
100
AcDbEntity
  8
部品1
100
AcDbLine
 10
4059.673057123683
 20
9772.49742454587
 30
0.0
 11
4059.673057123683
 21
9744.497424545869
 31
0.0
  0
LINE
  5
17BA5
330
747D
100
AcDbEntity
  8
部品1
100
AcDbLine
 10
4059.673057123683
 20
9772.49742454587
 30
0.0
 11
4059.673057123683
 21
9744.497424545869
 31
0.0
  0
LINE
  5
17BA6
330
747D
100
AcDbEntity
  8
部品1
100
AcDbLine
 10
4059.673057123683
 20
9772.497424545987
 30
0.0
 11
4059.673057123683
 21
9744.497424545986
 31
0.0
  0
LINE
  5
17BA7
330
747D
100
AcDbEntity
  8
部品1
100
AcDbLine
 10
3639.673057123683
 20
9772.49742454587
 30
0.0
 11
3639.673057123683
 21
9744.497424545869
 31
0.0
  0
LINE
  5
17BA8
330
747D
100
AcDbEntity
  8
部品1
100
AcDbLine
 10
3639.673057123683
 20
9772.49742454587
 30
0.0
 11
3639.673057123683
 21
9744.497424545869
 31
0.0
  0
LINE
  5
17BA9
330
747D
100
AcDbEntity
  8
部品1
100
AcDbLine
 10
3639.673057123683
 20
9772.497424545987
 30
0.0
 11
3639.673057123683
 21
9744.497424545986
 31
0.0
  0
LINE
  5
17BAA
330
747D
100
AcDbEntity
  8
部品1
100
AcDbLine
 10
3192.67305712367
 20
9744.497424545986
 30
0.0
 11
4467.173057123681
 21
9744.497424545986
 31
0.0
  0
LINE
  5
17BAB
330
747D
100
AcDbEntity
  8
部品1
100
AcDbLine
 10
4492.173057123682
 20
9744.497424545983
 30
0.0
 11
5346.673057123684
 21
9744.497424545963
 31
0.0
  0
LINE
  5
17BAC
330
747D
100
AcDbEntity
  8
部品1
100
AcDbLine
 10
4444.673057123683
 20
9762.497424545971
 30
0.0
 11
4444.673057123683
 21
9744.49742454597
 31
0.0
  0
LINE
  5
17BAD
330
747D
100
AcDbEntity
  8
部品1
100
AcDbLine
 10
4444.673057123683
 20
9762.497424545971
 30
0.0
 11
4450.673057123682
 21
9762.497424545971
 31
0.0
  0
LINE
  5
17BAE
330
747D
100
AcDbEntity
  8
部品1
100
AcDbLine
 10
4514.673057123682
 20
9762.497424545971
 30
0.0
 11
4514.673057123682
 21
9744.49742454597
 31
0.0
  0
LINE
  5
17BAF
330
747D
100
AcDbEntity
  8
部品1
100
AcDbLine
 10
4508.673057123683
 20
9762.497424545971
 30
0.0
 11
4514.673057123682
 21
9762.497424545971
 31
0.0
  0
LINE
  5
17BB0
330
747D
100
AcDbEntity
  8
部品1
100
AcDbLine
 10
4467.173057123683
 20
9736.497424545968
 30
0.0
 11
4492.173057123682
 21
9736.497424545971
 31
0.0
  0
LINE
  5
17BB1
330
747D
100
AcDbEntity
  8
部品1
100
AcDbLine
 10
4479.673057123682
 20
9772.497424545987
 30
0.0
 11
4479.673057123682
 21
9744.497424545986
 31
0.0
  0
LINE
  5
17BC2
330
747D
100
AcDbEntity
  8
部品1
 48
50.0
100
AcDbLine
 10
3231.673057123676
 20
7187.997424545864
 30
0.0
 11
5307.67305712366
 21
7187.997424545864
 31
0.0
  0
DIMENSION
  5
17BC3
330
747D
100
AcDbEntity
  8
寸法
 48
50.0
100
AcDbDimension
  2
*D19
 10
3267.673057123677
 20
6608.0666537797
 30
0.0
 11
4269.673057123667
 21
6708.078464803323
 31
0.0
 70
    32
  1
有効開口部間口 <>
 71
     5
 42
2003.999999999982
  3
INABA_S40G
100
AcDbAlignedDimension
 13
5271.673057123659
 23
7168.497424545865
 33
0.0
 14
3267.673057123677
 24
7168.497424545865
 34
0.0
100
AcDbRotatedDimension
1001
ACAD
1000
DSTYLE
1002
{
1070
    75
1070
     1
1070
   279
1070
     2
1002
}
  0
LINE
  5
17D0F
330
747D
100
AcDbEntity
  8
部品1
100
AcDbLine
 10
7556.673057123674
 20
9297.497424545957
 30
0.0
 11
7584.673057123675
 21
9297.497424545957
 31
0.0
  0
LINE
  5
17D10
330
747D
100
AcDbEntity
  8
部品1
100
AcDbLine
 10
7556.673057123679
 20
8877.497424545957
 30
0.0
 11
7584.673057123679
 21
8877.497424545957
 31
0.0
  0
LINE
  5
17D11
330
747D
100
AcDbEntity
  8
部品1
100
AcDbLine
 10
3192.673057123649
 20
9297.497424545831
 30
0.0
 11
3164.673057123648
 21
9297.497424545831
 31
0.0
  0
LINE
  5
17D12
330
747D
100
AcDbEntity
  8
部品1
100
AcDbLine
 10
3192.673057123654
 20
8877.497424545831
 30
0.0
 11
3164.673057123654
 21
8877.497424545831
 31
0.0
  0
LINE
  5
180FF
330
747D
100
AcDbEntity
  8
部品1
100
AcDbLine
 10
3164.673057123677
 20
2161.270620748139
 30
0.0
 11
7584.673057123676
 21
2161.270620748139
 31
0.0
  0
LINE
  5
18100
330
747D
100
AcDbEntity
  8
Ｇ．Ｌ
100
AcDbLine
 10
2076.406454453192
 20
2061.270620748139
 30
0.0
 11
13411.30542539653
 21
2061.270620748139
 31
0.0
  0
LINE
  5
18105
330
747D
100
AcDbEntity
  8
部品1
100
AcDbLine
 10
3164.673057123648
 20
9772.49742454588
 30
0.0
 11
7584.673057123684
 21
9772.497424545964
 31
0.0
  0
LINE
  5
18161
330
747D
100
AcDbEntity
  8
部品1
100
AcDbLine
 10
5374.673057123669
 20
9717.497424545832
 30
0.0
 11
5374.673057123642
 21
7197.497424545807
 31
0.0
  0
LINE
  5
18162
330
747D
100
AcDbEntity
  8
部品1
100
AcDbLine
 10
5402.673057123629
 20
7142.497424545813
 30
0.0
 11
5402.673057123653
 21
9772.497424545861
 31
0.0
  0
LINE
  5
18163
330
747D
100
AcDbEntity
  8
部品1
 48
10.0
100
AcDbLine
 10
5454.673057123684
 20
7207.497424545812
 30
0.0
 11
5454.673057123637
 21
9717.497424545832
 31
0.0
  0
LINE
  5
18164
330
747D
100
AcDbEntity
  8
部品1
100
AcDbLine
 10
5429.673057123689
 20
7207.497424545812
 30
0.0
 11
5429.673057123662
 21
9717.497424545809
 31
0.0
  0
LINE
  5
18165
330
747D
100
AcDbEntity
  8
部品1
100
AcDbLine
 10
5346.673057123651
 20
9744.497424545912
 30
0.0
 11
5346.673057123634
 21
7142.497424545807
 31
0.0
  0
LINE
  5
18166
330
747D
100
AcDbEntity
  8
部品1
 48
10.0
100
AcDbLine
 10
5294.673057123678
 20
7207.497424545812
 30
0.0
 11
5294.673057123652
 21
9717.497424545815
 31
0.0
  0
LINE
  5
18167
330
747D
100
AcDbEntity
  8
部品1
100
AcDbLine
 10
5319.673057123669
 20
7207.497424545812
 30
0.0
 11
5319.673057123662
 21
9717.497424545815
 31
0.0
  0
LINE
  5
18168
330
747D
100
AcDbEntity
  8
部品1
100
AcDbLine
 10
5346.673057123672
 20
8457.497424545914
 30
0.0
 11
5374.673057123671
 21
8457.497424545914
 31
0.0
  0
LINE
  5
18169
330
747D
100
AcDbEntity
  8
部品1
100
AcDbLine
 10
5346.673057123672
 20
8877.497424545914
 30
0.0
 11
5374.673057123671
 21
8877.497424545914
 31
0.0
  0
LINE
  5
1816A
330
747D
100
AcDbEntity
  8
部品1
100
AcDbLine
 10
5346.673057123672
 20
9297.497424545914
 30
0.0
 11
5374.673057123671
 21
9297.497424545914
 31
0.0
  0
LINE
  5
1816B
330
747D
100
AcDbEntity
  8
部品1
 48
50.0
100
AcDbLine
 10
5402.673057123704
 20
9744.497424545723
 30
0.0
 11
5429.673057123693
 21
9717.497424545737
 31
0.0
  0
LINE
  5
1816C
330
747D
100
AcDbEntity
  8
部品1
 48
50.0
100
AcDbLine
 10
5346.673057123719
 20
9744.497424545818
 30
0.0
 11
5319.673057123715
 21
9717.497424545813
 31
0.0
  0
LINE
  5
1816F
330
747D
100
AcDbEntity
  8
部品1
100
AcDbLine
 10
5319.673057123662
 20
9717.497424545884
 30
0.0
 11
3219.673057123654
 21
9717.497424545888
 31
0.0
  0
LINE
  5
18170
330
747D
100
AcDbEntity
  8
部品1
100
AcDbLine
 10
5402.673057123652
 20
9717.497424545886
 30
0.0
 11
5346.67305712365
 21
9717.497424545884
 31
0.0
  0
LINE
  5
18171
330
747D
100
AcDbEntity
  8
部品1
100
AcDbLine
 10
5346.673057123678
 20
8037.497424545914
 30
0.0
 11
5374.673057123677
 21
8037.497424545914
 31
0.0
  0
LINE
  5
18172
330
747D
100
AcDbEntity
  8
部品1
100
AcDbLine
 10
5346.673057123678
 20
7617.497424545914
 30
0.0
 11
5374.673057123677
 21
7617.497424545914
 31
0.0
  0
TEXT
  5
182A9
330
747D
100
AcDbEntity
  8
文字
 62
     7
 48
50.0
100
AcDbText
 10
15022.63965474516
 20
9910.013745883727
 30
0.0
 40
100.0
  1
F12,Y10        1.0
  7
STYLE1
100
AcDbText
  0
TEXT
  5
182AA
330
747D
100
AcDbEntity
  8
文字
 62
     7
 48
50.0
100
AcDbText
 10
13583.11819016569
 20
9910.01374588373
 30
0.0
 40
100.0
  1
梁中
  7
STYLE1
100
AcDbText
  0
TEXT
  5
182AB
330
747D
100
AcDbEntity
  8
文字
 62
     7
 48
50.0
100
AcDbText
 10
13248.77747366448
 20
8720.013745883731
 30
0.0
 40
100.0
  1
14
  7
STYLE1
100
AcDbText
  0
LINE
  5
182AC
330
747D
100
AcDbEntity
  8
仕様書枠
 48
50.0
100
AcDbLine
 10
16307.19999999999
 20
9879.599999999999
 30
0.0
 11
13127.2
 21
9879.600000000001
 31
0.0
  0
LINE
  5
182AD
330
747D
100
AcDbEntity
  8
仕様書枠
 48
50.0
100
AcDbLine
 10
16307.19999999999
 20
11239.6
 30
0.0
 11
13127.2
 21
11239.6
 31
0.0
  0
LINE
  5
182AE
330
747D
100
AcDbEntity
  8
仕様書枠
 48
50.0
100
AcDbLine
 10
16307.2
 20
8179.6
 30
0.0
 11
16307.2
 21
11239.6
 31
0.0
  0
LINE
  5
182AF
330
747D
100
AcDbEntity
  8
仕様書枠
 48
50.0
100
AcDbLine
 10
14785.2
 20
11239.59999999999
 30
0.0
 11
14785.2
 21
8689.600000000003
 31
0.0
  0
LINE
  5
182B0
330
747D
100
AcDbEntity
  8
仕様書枠
 48
50.0
100
AcDbLine
 10
13490.2
 20
11239.6
 30
0.0
 11
13490.2
 21
8689.6
 31
0.0
  0
LINE
  5
182B1
330
747D
100
AcDbEntity
  8
仕様書枠
 48
50.0
100
AcDbLine
 10
16307.19999999999
 20
11069.6
 30
0.0
 11
13127.2
 21
11069.6
 31
0.0
  0
LINE
  5
182B2
330
747D
100
AcDbEntity
  8
仕様書枠
 48
50.0
100
AcDbLine
 10
16307.19999999999
 20
10729.6
 30
0.0
 11
13127.2
 21
10729.6
 31
0.0
  0
LINE
  5
182B3
330
747D
100
AcDbEntity
  8
仕様書枠
 48
50.0
100
AcDbLine
 10
16307.19999999999
 20
10899.6
 30
0.0
 11
13127.2
 21
10899.6
 31
0.0
  0
LINE
  5
182B4
330
747D
100
AcDbEntity
  8
仕様書枠
 48
50.0
100
AcDbLine
 10
16307.19999999999
 20
10389.6
 30
0.0
 11
13127.19999999999
 21
10389.6
 31
0.0
  0
LINE
  5
182B5
330
747D
100
AcDbEntity
  8
仕様書枠
 48
50.0
100
AcDbLine
 10
16307.19999999999
 20
10219.6
 30
0.0
 11
13127.19999999999
 21
10219.6
 31
0.0
  0
LINE
  5
182B6
330
747D
100
AcDbEntity
  8
仕様書枠
 48
50.0
100
AcDbLine
 10
16307.19999999999
 20
10559.6
 30
0.0
 11
13127.19999999999
 21
10559.6
 31
0.0
  0
TEXT
  5
182B7
330
747D
100
AcDbEntity
  8
文字
 62
     7
 48
50.0
100
AcDbText
 10
13197.42518560407
 20
11100.01374588373
 30
0.0
 40
100.0
  1
品番
  7
STYLE1
100
AcDbText
  0
TEXT
  5
182B8
330
747D
100
AcDbEntity
  8
文字
 62
     7
 48
50.0
100
AcDbText
 10
13271.19032244792
 20
10930.01374588373
 30
0.0
 40
100.0
  1
1
  7
STYLE1
100
AcDbText
  0
TEXT
  5
182B9
330
747D
100
AcDbEntity
  8
文字
 62
     7
 48
50.0
100
AcDbText
 10
13271.19032244792
 20
10760.01374588373
 30
0.0
 40
100.0
  1
2
  7
STYLE1
100
AcDbText
  0
TEXT
  5
182BA
330
747D
100
AcDbEntity
  8
文字
 62
     7
 48
50.0
100
AcDbText
 10
13271.19032244792
 20
10420.01374588373
 30
0.0
 40
100.0
  1
4
  7
STYLE1
100
AcDbText
  0
TEXT
  5
182BB
330
747D
100
AcDbEntity
  8
文字
 62
     7
 48
50.0
100
AcDbText
 10
13271.19032244792
 20
10590.01374588373
 30
0.0
 40
100.0
  1
3
  7
STYLE1
100
AcDbText
  0
TEXT
  5
182BC
330
747D
100
AcDbEntity
  8
文字
 62
     7
 48
50.0
100
AcDbText
 10
13732.03840939434
 20
11100.01374588373
 30
0.0
 40
100.0
  1
部　　品　　名
  7
STYLE1
100
AcDbText
  0
TEXT
  5
182BD
330
747D
100
AcDbEntity
  8
文字
 62
     7
 48
50.0
100
AcDbText
 10
14859.79774614482
 20
11100.01374588373
 30
0.0
 40
100.0
  1
材料（材質）　　単位mm
  7
STYLE1
100
AcDbText
  0
TEXT
  5
182BE
330
747D
100
AcDbEntity
  8
文字
 62
     7
 48
50.0
100
AcDbText
 10
13583.11819016569
 20
10930.01374588372
 30
0.0
 40
100.0
  1
土台枠
  7
STYLE1
100
AcDbText
  0
TEXT
  5
182C0
330
747D
100
AcDbEntity
  8
文字
 62
     7
 48
50.0
100
AcDbText
 10
13583.11819016569
 20
10590.01374588373
 30
0.0
 40
100.0
  1
桁前
  7
STYLE1
100
AcDbText
  0
TEXT
  5
182C1
330
747D
100
AcDbEntity
  8
文字
 62
     7
 48
50.0
100
AcDbText
 10
13583.11819016569
 20
10420.01374588373
 30
0.0
 40
100.0
  1
桁後
  7
STYLE1
100
AcDbText
  0
TEXT
  5
182C2
330
747D
100
AcDbEntity
  8
文字
 62
     7
 48
50.0
100
AcDbText
 10
13271.19032244792
 20
10250.01374588373
 30
0.0
 40
100.0
  1
5
  7
STYLE1
100
AcDbText
  0
TEXT
  5
182C3
330
747D
100
AcDbEntity
  8
文字
 62
     7
 48
50.0
100
AcDbText
 10
13583.11819016569
 20
10250.01374588373
 30
0.0
 40
100.0
  1
妻板左右
  7
STYLE1
100
AcDbText
  0
TEXT
  5
182C4
330
747D
100
AcDbEntity
  8
文字
 62
     7
 48
50.0
100
AcDbText
 10
13583.11819016569
 20
8890.013745883727
 30
0.0
 40
100.0
  1
シャッターレール
  7
STYLE1
100
AcDbText
  0
TEXT
  5
182C5
330
747D
100
AcDbEntity
  8
文字
 62
     7
 48
50.0
100
AcDbText
 10
13248.77747366448
 20
9400.013745883727
 30
0.0
 40
100.0
  1
10
  7
STYLE1
100
AcDbText
  0
TEXT
  5
182C6
330
747D
100
AcDbEntity
  8
文字
 62
     7
 48
50.0
100
AcDbText
 10
13583.11819016569
 20
9400.013745883729
 30
0.0
 40
100.0
  1
壁パネル
  7
STYLE1
100
AcDbText
  0
TEXT
  5
182C7
330
747D
100
AcDbEntity
  8
文字
 62
     7
 48
50.0
100
AcDbText
 10
13583.11819016569
 20
9570.013745883727
 30
0.0
 40
100.0
  1
屋根パネル
  7
STYLE1
100
AcDbText
  0
TEXT
  5
182C8
330
747D
100
AcDbEntity
  8
文字
 62
     7
 48
50.0
100
AcDbText
 10
13583.11819016569
 20
9740.013745883729
 30
0.0
 40
100.0
  1
母屋中
  7
STYLE1
100
AcDbText
  0
TEXT
  5
182C9
330
747D
100
AcDbEntity
  8
文字
 62
     7
 48
50.0
100
AcDbText
 10
13583.11819016569
 20
10080.01374588372
 30
0.0
 40
100.0
  1
鼻隠シ前後
  7
STYLE1
100
AcDbText
  0
TEXT
  5
182CA
330
747D
100
AcDbEntity
  8
文字
 62
     7
 48
50.0
100
AcDbText
 10
13271.19032244792
 20
9740.013745883729
 30
0.0
 40
100.0
  1
8
  7
STYLE1
100
AcDbText
  0
TEXT
  5
182CB
330
747D
100
AcDbEntity
  8
文字
 62
     7
 48
50.0
100
AcDbText
 10
13271.19032244792
 20
9570.013745883729
 30
0.0
 40
100.0
  1
9
  7
STYLE1
100
AcDbText
  0
TEXT
  5
182CC
330
747D
100
AcDbEntity
  8
文字
 62
     7
 48
50.0
100
AcDbText
 10
13271.19032244792
 20
9910.01374588373
 30
0.0
 40
100.0
  1
7
  7
STYLE1
100
AcDbText
  0
TEXT
  5
182CD
330
747D
100
AcDbEntity
  8
文字
 62
     7
 48
50.0
100
AcDbText
 10
13271.19032244792
 20
10080.01374588373
 30
0.0
 40
100.0
  1
6
  7
STYLE1
100
AcDbText
  0
LINE
  5
182CE
330
747D
100
AcDbEntity
  8
仕様書枠
 48
50.0
100
AcDbLine
 10
16307.19999999999
 20
9539.599999999998
 30
0.0
 11
13127.19999999999
 21
9539.6
 31
0.0
  0
LINE
  5
182CF
330
747D
100
AcDbEntity
  8
仕様書枠
 48
50.0
100
AcDbLine
 10
16307.19999999999
 20
9199.599999999998
 30
0.0
 11
13127.19999999999
 21
9199.600000000001
 31
0.0
  0
LINE
  5
182D0
330
747D
100
AcDbEntity
  8
仕様書枠
 48
50.0
100
AcDbLine
 10
16307.19999999999
 20
9369.599999999998
 30
0.0
 11
13127.19999999999
 21
9369.600000000001
 31
0.0
  0
LINE
  5
182D1
330
747D
100
AcDbEntity
  8
仕様書枠
 48
50.0
100
AcDbLine
 10
16307.19999999999
 20
10049.6
 30
0.0
 11
13127.2
 21
10049.6
 31
0.0
  0
LINE
  5
182D2
330
747D
100
AcDbEntity
  8
仕様書枠
 48
50.0
100
AcDbLine
 10
16307.19999999999
 20
9709.6
 30
0.0
 11
13127.2
 21
9709.600000000001
 31
0.0
  0
TEXT
  5
182D3
330
747D
100
AcDbEntity
  8
文字
 62
     7
 48
50.0
100
AcDbText
 10
13248.77747366448
 20
9230.013745883727
 30
0.0
 40
100.0
  1
11
  7
STYLE1
100
AcDbText
  0
TEXT
  5
182D4
330
747D
100
AcDbEntity
  8
文字
 62
     7
 48
50.0
100
AcDbText
 10
13583.11819016569
 20
9060.013745883727
 30
0.0
 40
100.0
  1
シャッターカバー
 41
0.9
  7
STYLE1
100
AcDbText
  0
LINE
  5
182D5
330
747D
100
AcDbEntity
  8
仕様書枠
 48
50.0
100
AcDbLine
 10
16307.19999999999
 20
9029.6
 30
0.0
 11
13127.19999999999
 21
9029.6
 31
0.0
  0
TEXT
  5
182D7
330
747D
100
AcDbEntity
  8
文字
 62
     7
 48
50.0
100
AcDbText
 10
13583.11819016569
 20
8720.013745883729
 30
0.0
 40
100.0
  1
棚板（別売）
  7
STYLE1
100
AcDbText
  0
LINE
  5
182D8
330
747D
100
AcDbEntity
  8
仕様書枠
 48
50.0
100
AcDbLine
 10
16307.19999999999
 20
8859.6
 30
0.0
 11
13127.19999999999
 21
8859.600000000002
 31
0.0
  0
TEXT
  5
182D9
330
747D
100
AcDbEntity
  8
文字
 62
     7
 48
50.0
100
AcDbText
 10
13583.11819016568
 20
9230.013745883729
 30
0.0
 40
100.0
  1
シャッター
  7
STYLE1
100
AcDbText
  0
TEXT
  5
182DA
330
747D
100
AcDbEntity
  8
文字
 62
     7
 48
50.0
100
AcDbText
 10
13248.77747366448
 20
8890.013745883729
 30
0.0
 40
100.0
  1
13
  7
STYLE1
100
AcDbText
  0
TEXT
  5
182DB
330
747D
100
AcDbEntity
  8
文字
 62
     7
 48
50.0
100
AcDbText
 10
13248.77747366448
 20
9060.013745883729
 30
0.0
 40
100.0
  1
12
  7
STYLE1
100
AcDbText
  0
TEXT
  5
182DC
330
747D
100
AcDbEntity
  8
文字
 62
     7
 48
50.0
100
AcDbText
 10
15022.63965474517
 20
10930.01374588372
 30
0.0
 40
100.0
  1
F12            1.2
  7
STYLE1
100
AcDbText
  0
TEXT
  5
182DE
330
747D
100
AcDbEntity
  8
文字
 62
     7
 48
50.0
100
AcDbText
 10
15022.63965474516
 20
10590.01374588372
 30
0.0
 40
100.0
  1
Y10            1.0
  7
STYLE1
100
AcDbText
  0
TEXT
  5
182DF
330
747D
100
AcDbEntity
  8
文字
 62
     7
 48
50.0
100
AcDbText
 10
15022.63965474516
 20
10420.01374588372
 30
0.0
 40
100.0
  1
Y10            1.0
  7
STYLE1
100
AcDbText
  0
TEXT
  5
182E0
330
747D
100
AcDbEntity
  8
文字
 62
     7
 48
50.0
100
AcDbText
 10
15022.63965474516
 20
10250.01374588372
 30
0.0
 40
100.0
  1
Y10            0.7
  7
STYLE1
100
AcDbText
  0
TEXT
  5
182E1
330
747D
100
AcDbEntity
  8
文字
 62
     7
 48
50.0
100
AcDbText
 10
15022.63965474516
 20
10080.01374588372
 30
0.0
 40
100.0
  1
Y10            0.7
  7
STYLE1
100
AcDbText
  0
TEXT
  5
182E3
330
747D
100
AcDbEntity
  8
文字
 62
     7
 48
50.0
100
AcDbText
 10
15022.63965474517
 20
9570.013745883725
 30
0.0
 40
100.0
  1
Y10            0.5
  7
STYLE1
100
AcDbText
  0
TEXT
  5
182E4
330
747D
100
AcDbEntity
  8
文字
 62
     7
 48
50.0
100
AcDbText
 10
15022.63965474516
 20
9400.013745883725
 30
0.0
 40
100.0
  1
F12            0.6
  7
STYLE1
100
AcDbText
  0
TEXT
  5
182E5
330
747D
100
AcDbEntity
  8
文字
 62
     7
 48
50.0
100
AcDbText
 10
14850.83183167176
 20
8890.013745883726
 30
0.0
 40
100.0
  1
アルミニウム合金押出形材
  7
STYLE1
100
AcDbText
  0
TEXT
  5
182E7
330
747D
100
AcDbEntity
  8
文字
 62
     7
 48
50.0
100
AcDbText
 10
15022.63965474515
 20
9230.013745883725
 30
0.0
 40
100.0
  1
Z08            0.5
  7
STYLE1
100
AcDbText
  0
TEXT
  5
182E8
330
747D
100
AcDbEntity
  8
文字
 62
     7
 48
50.0
100
AcDbText
 10
15022.63965474515
 20
8720.013745883727
 30
0.0
 40
100.0
  1
F12            0.6
  7
STYLE1
100
AcDbText
  0
LINE
  5
182E9
330
747D
100
AcDbEntity
  8
仕様書枠
 48
50.0
100
AcDbLine
 10
16307.20000000001
 20
8519.599999999998
 30
0.0
 11
13127.20000000001
 21
8519.600000000002
 31
0.0
  0
LINE
  5
182EA
330
747D
100
AcDbEntity
  8
仕様書枠
 48
50.0
100
AcDbLine
 10
16307.20000000001
 20
8349.599999999998
 30
0.0
 11
13127.20000000001
 21
8349.6
 31
0.0
  0
LINE
  5
182EB
330
747D
100
AcDbEntity
  8
仕様書枠
 48
50.0
100
AcDbLine
 10
16307.20000000001
 20
8179.599999999998
 30
0.0
 11
13127.20000000001
 21
8179.6
 31
0.0
  0
TEXT
  5
182EC
330
747D
100
AcDbEntity
  8
文字
 62
     7
 48
50.0
100
AcDbText
 10
13229.83081656557
 20
8550.013745883727
 30
0.0
 40
100.0
  1
F12→溶融亜鉛めっき鋼板(JIS G 3302)
  7
STYLE1
100
AcDbText
  0
TEXT
  5
182ED
330
747D
100
AcDbEntity
  8
文字
 62
     7
 48
50.0
100
AcDbText
 10
13229.83081656556
 20
8380.013745883728
 30
0.0
 40
100.0
  1
Y10→溶融亜鉛-5％アルミニウム合金めっき鋼板(JIS G 3317)
 41
0.9
  7
STYLE1
100
AcDbText
  0
TEXT
  5
182EE
330
747D
100
AcDbEntity
  8
文字
 62
     7
 48
50.0
100
AcDbText
 10
13229.83081656557
 20
8210.013745883729
 30
0.0
 40
100.0
  1
Z08→塗装溶融亜鉛めっき鋼板(JIS G 3313)
  7
STYLE1
100
AcDbText
  0
LINE
  5
182EF
330
747D
100
AcDbEntity
  8
仕様書枠
 48
50.0
100
AcDbLine
 10
13127.2
 20
11239.6
 30
0.0
 11
13127.2
 21
8179.600000000002
 31
0.0
  0
TEXT
  5
182F5
330
747D
100
AcDbEntity
  8
文字
 62
     7
 48
50.0
100
AcDbText
 10
14830.49062778118
 20
9743.579206374931
 30
0.0
 40
100.0
  1
F12    1.0(多雪地型  2.3)
  7
STYLE1
100
AcDbText
  0
TEXT
  5
182FB
330
747D
100
AcDbEntity
  8
文字
 62
     7
 48
50.0
100
AcDbText
 10
13203.82415985932
 20
58.66862742757439
 30
0.0
 40
100.0
  1
○床面積 ： 11.62㎡(3.52坪)
  7
STYLE2
100
AcDbText
  0
DIMENSION
  5
18978
330
747D
100
AcDbEntity
  8
寸法
100
AcDbDimension
  2
*D22
 10
9368.09970133004
 20
2211.270620748134
 30
0.0
 11
9268.09970133004
 21
3106.270620748137
 31
0.0
 70
    32
 71
     5
 42
1790.000000000002
  3
INABA_S40G
100
AcDbAlignedDimension
 13
10211.8498305133
 23
4001.270620748136
 33
0.0
 14
10211.8498305133
 24
2211.270620748134
 34
0.0
 50
90.0
100
AcDbRotatedDimension
1001
ACAD
1000
DSTYLE
1002
{
1070
   174
1070
     0
1070
   272
1070
     1
1070
   288
1070
     0
1070
   341
1005
0
1002
}
  0
DIMENSION
  5
18979
330
747D
100
AcDbEntity
  8
寸法
100
AcDbDimension
  2
*D23
 10
9068.099701330039
 20
4236.270620748139
 30
0.0
 11
8968.087890306417
 21
3198.770620748139
 31
0.0
 70
    32
 71
     5
 42
2075.000000000005
  3
INABA_S40G
100
AcDbAlignedDimension
 13
10211.8498305133
 23
2161.270620748134
 33
0.0
 14
10151.8498305133
 24
4236.270620748139
 34
0.0
 50
90.0
100
AcDbRotatedDimension
1001
ACAD
1000
DSTYLE
1002
{
1070
   174
1070
     0
1070
   272
1070
     1
1070
   288
1070
     0
1070
   341
1005
0
1002
}
  0
DIMENSION
  5
1897A
330
747D
100
AcDbEntity
  8
寸法
100
AcDbDimension
  2
*D24
 10
13546.77698848543
 20
4181.270620748142
 30
0.0
 11
13446.76517746181
 21
3171.270620748144
 31
0.0
 70
    32
 71
     5
 42
2020.0
  3
INABA_S40G
100
AcDbAlignedDimension
 13
12841.8498305133
 23
2161.270620748142
 33
0.0
 14
12921.8498305133
 24
4181.270620748142
 34
0.0
 50
90.0
100
AcDbRotatedDimension
1001
ACAD
1000
DSTYLE
1002
{
1070
   174
1070
     0
1070
   272
1070
     1
1070
   288
1070
     0
1070
   341
1005
0
1002
}
  0
LINE
  5
1897B
330
747D
100
AcDbEntity
  8
細線
 48
50.0
100
AcDbLine
 10
12289.3498305133
 20
4001.270620748138
 30
0.0
 11
12289.3498305133
 21
2211.270620748142
 31
0.0
  0
LINE
  5
1897C
330
747D
100
AcDbEntity
  8
細線
 48
50.0
100
AcDbLine
 10
12304.3498305133
 20
4001.270620748138
 30
0.0
 11
12304.3498305133
 21
2211.270620748142
 31
0.0
  0
LINE
  5
1897D
330
747D
100
AcDbEntity
  8
細線
 48
50.0
100
AcDbLine
 10
12164.3498305133
 20
4001.270620748138
 30
0.0
 11
12164.3498305133
 21
2211.270620748142
 31
0.0
  0
LINE
  5
1897E
330
747D
100
AcDbEntity
  8
細線
 48
50.0
100
AcDbLine
 10
12149.3498305133
 20
4001.270620748138
 30
0.0
 11
12149.3498305133
 21
2211.270620748142
 31
0.0
  0
LINE
  5
1897F
330
747D
100
AcDbEntity
  8
細線
 48
50.0
100
AcDbLine
 10
12009.3498305133
 20
4001.270620748138
 30
0.0
 11
12009.3498305133
 21
2211.270620748142
 31
0.0
  0
LINE
  5
18980
330
747D
100
AcDbEntity
  8
細線
 48
50.0
100
AcDbLine
 10
12024.3498305133
 20
4001.270620748138
 30
0.0
 11
12024.3498305133
 21
2211.270620748142
 31
0.0
  0
LINE
  5
18981
330
747D
100
AcDbEntity
  8
部品1
100
AcDbLine
 10
11946.84983051329
 20
4001.270620748138
 30
0.0
 11
11946.84983051329
 21
2211.270620748142
 31
0.0
  0
LINE
  5
18982
330
747D
100
AcDbEntity
  8
部品1
100
AcDbLine
 10
11387.07496094254
 20
4361.475008711157
 30
0.0
 11
11712.52997458557
 21
4343.956949752297
 31
0.0
  0
ARC
  5
18983
330
747D
100
AcDbEntity
  8
部品1
100
AcDbCircle
 10
12907.47736632724
 20
4075.294378013932
 30
0.0
 40
0.7
100
AcDbArc
 50
275.0921697642102
 51
354.1866997667606
  0
ARC
  5
18984
330
747D
100
AcDbEntity
  8
部品1
100
AcDbCircle
 10
12918.33671207656
 20
4152.337632831855
 30
0.0
 40
0.7
100
AcDbArc
 50
275.0921697642102
 51
354.1866997665532
  0
ARC
  5
18985
330
747D
100
AcDbEntity
  8
部品1
100
AcDbCircle
 10
12918.66511731916
 20
4148.652235974768
 30
0.0
 40
3.0
100
AcDbArc
 50
95.0921697642102
 51
174.1866997665532
  0
ARC
  5
18986
330
747D
100
AcDbEntity
  8
部品1
100
AcDbCircle
 10
12907.80577156983
 20
4071.608981156841
 30
0.0
 40
3.0
100
AcDbArc
 50
95.0921697642102
 51
174.1866997665532
  0
ARC
  5
18987
330
747D
100
AcDbEntity
  8
部品1
 48
50.0
100
AcDbCircle
 10
12896.77763629473
 20
4062.018236552961
 30
0.0
 40
7.0
100
AcDbArc
 50
267.8377559869492
 51
354.1866997665532
  0
ARC
  5
18988
330
747D
100
AcDbEntity
  8
部品1
 48
50.0
100
AcDbCircle
 10
12914.09973275924
 20
4172.920783695135
 30
0.0
 40
7.0
100
AcDbArc
 50
354.1866997665532
 51
87.03587545283093
  0
LINE
  5
18989
330
747D
100
AcDbEntity
  8
部品1
 48
50.0
100
AcDbLine
 10
12904.82119989923
 20
4071.912842873746
 30
0.0
 11
12903.74163685949
 21
4061.309225880187
 31
0.0
  0
LINE
  5
1898A
330
747D
100
AcDbEntity
  8
部品1
 48
50.0
100
AcDbLine
 10
12915.68054564855
 20
4148.956097691669
 30
0.0
 11
12908.17376638371
 21
4075.22347694666
 31
0.0
  0
LINE
  5
1898B
330
747D
100
AcDbEntity
  8
部品1
 48
50.0
100
AcDbLine
 10
12921.063733324
 20
4172.211773022358
 30
0.0
 11
12919.03311213303
 21
4152.266731764579
 31
0.0
  0
ARC
  5
1898C
330
747D
100
AcDbEntity
  8
部品1
100
AcDbCircle
 10
10157.88692238466
 20
4115.084779707046
 30
0.0
 40
0.7
100
AcDbArc
 50
181.0932240293156
 51
260.1877540314845
  0
ARC
  5
1898D
330
747D
100
AcDbEntity
  8
部品1
100
AcDbCircle
 10
10153.11424878705
 20
4207.950557907163
 30
0.0
 40
0.7
100
AcDbArc
 50
181.0932240292114
 51
260.1877540314845
  0
ARC
  5
1898E
330
747D
100
AcDbEntity
  8
部品1
100
AcDbCircle
 10
10152.48369438403
 20
4204.304683369766
 30
0.0
 40
3.0
100
AcDbArc
 50
1.093224029315636
 51
80.18775403169875
  0
ARC
  5
1898F
330
747D
100
AcDbEntity
  8
部品1
100
AcDbCircle
 10
10157.25636798164
 20
4111.438905169645
 30
0.0
 40
3.0
100
AcDbArc
 50
1.093224029315636
 51
80.18775403169875
  0
ARC
  5
18990
330
747D
100
AcDbEntity
  8
部品1
 48
50.0
100
AcDbCircle
 10
10167.45650035684
 20
4101.046661787164
 30
0.0
 40
7.0
100
AcDbArc
 50
181.0932240293156
 51
267.8377559869492
  0
ARC
  5
18991
330
747D
100
AcDbEntity
  8
部品1
 48
50.0
100
AcDbCircle
 10
10159.03284225474
 20
4227.997721320262
 30
0.0
 40
7.0
100
AcDbArc
 50
87.03587545283093
 51
181.0932240293156
  0
LINE
  5
18992
330
747D
100
AcDbEntity
  8
部品1
 48
50.0
100
AcDbLine
 10
10160.25582190807
 20
4111.49614277283
 30
0.0
 11
10160.4577745285
 21
4100.913107379736
 31
0.0
  0
LINE
  5
18993
330
747D
100
AcDbEntity
  8
細線
 48
50.0
100
AcDbLine
 10
10157.6497288514
 20
4114.426190891637
 30
0.0
 11
12907.65339328204
 21
4074.616871917143
 31
0.0
  0
LINE
  5
18994
330
747D
100
AcDbEntity
  8
細線
 48
50.0
100
AcDbLine
 10
10152.88925361411
 20
4207.287702589503
 30
0.0
 11
12918.52523835928
 21
4151.663497948674
 31
0.0
  0
LINE
  5
18995
330
747D
100
AcDbEntity
  8
部品1
 48
50.0
100
AcDbLine
 10
10155.48314831046
 20
4204.361920972948
 30
0.0
 11
10157.18704980183
 21
4115.071424266301
 31
0.0
  0
LINE
  5
18996
330
747D
100
AcDbEntity
  8
部品1
 48
50.0
100
AcDbLine
 10
10152.0341164264
 20
4227.864166912834
 30
0.0
 11
10152.41437620422
 21
4207.937202466422
 31
0.0
  0
LINE
  5
18997
330
747D
100
AcDbEntity
  8
細線
 48
50.0
100
AcDbLine
 10
12888.81911370699
 20
4180.424043227609
 30
0.0
 11
12884.1021476253
 21
4055.491827292692
 31
0.0
  0
LINE
  5
18998
330
747D
100
AcDbEntity
  8
細線
 48
50.0
100
AcDbLine
 10
10184.8498305133
 20
4233.670297123546
 30
0.0
 11
10179.56072895779
 21
4093.584664496189
 31
0.0
  0
LINE
  5
18999
330
747D
100
AcDbEntity
  8
部品1
100
AcDbLine
 10
10167.19239511525
 20
4094.051645817108
 30
0.0
 11
12896.51353105315
 21
4055.023220582902
 31
0.0
  0
LINE
  5
1899A
330
747D
100
AcDbEntity
  8
部品1
100
AcDbLine
 10
10159.39481687026
 20
4234.988356082405
 30
0.0
 11
12914.46170737477
 21
4179.911418457279
 31
0.0
  0
LINE
  5
1899B
330
747D
100
AcDbEntity
  8
部品1
 48
50.0
100
AcDbLine
 10
11412.52997458557
 20
4360.156949752298
 30
0.0
 11
11712.52997458557
 21
4360.156949752298
 31
0.0
  0
LINE
  5
1899C
330
747D
100
AcDbEntity
  8
部品1
 48
50.0
100
AcDbLine
 10
11712.52997458557
 20
4360.156949752298
 30
0.0
 11
11712.52997458557
 21
4343.956949752297
 31
0.0
  0
TEXT
  5
1899D
330
747D
100
AcDbEntity
  8
部品1
 48
50.0
100
AcDbText
 10
11400.7978098093
 20
4396.040971904731
 30
0.0
 40
120.0
  1
1000
  7
STYLE1
100
AcDbText
  0
TEXT
  5
1899E
330
747D
100
AcDbEntity
  8
部品1
 48
50.0
100
AcDbText
 10
11878.43083247439
 20
4258.539713686448
 30
0.0
 40
120.0
  1
37
 50
90.0
  7
STYLE1
100
AcDbText
  0
LINE
  5
1899F
330
747D
100
AcDbEntity
  8
細線
 48
50.0
100
AcDbLine
 10
11604.3498305133
 20
4001.270620748138
 30
0.0
 11
11604.3498305133
 21
2211.270620748139
 31
0.0
  0
LINE
  5
189A0
330
747D
100
AcDbEntity
  8
細線
 48
50.0
100
AcDbLine
 10
11589.3498305133
 20
4001.270620748138
 30
0.0
 11
11589.3498305133
 21
2211.270620748139
 31
0.0
  0
LINE
  5
189A1
330
747D
100
AcDbEntity
  8
細線
 48
50.0
100
AcDbLine
 10
11729.3498305133
 20
4001.270620748138
 30
0.0
 11
11729.3498305133
 21
2211.270620748139
 31
0.0
  0
LINE
  5
189A2
330
747D
100
AcDbEntity
  8
細線
 48
50.0
100
AcDbLine
 10
11744.3498305133
 20
4001.270620748138
 30
0.0
 11
11744.3498305133
 21
2211.270620748139
 31
0.0
  0
LINE
  5
189A3
330
747D
100
AcDbEntity
  8
細線
 48
50.0
100
AcDbLine
 10
11884.3498305133
 20
4001.270620748138
 30
0.0
 11
11884.3498305133
 21
2211.270620748139
 31
0.0
  0
LINE
  5
189A4
330
747D
100
AcDbEntity
  8
細線
 48
50.0
100
AcDbLine
 10
11869.3498305133
 20
4001.270620748138
 30
0.0
 11
11869.3498305133
 21
2211.270620748139
 31
0.0
  0
LINE
  5
189A5
330
747D
100
AcDbEntity
  8
部品1
100
AcDbLine
 10
12366.8498305133
 20
4001.270620748138
 30
0.0
 11
12366.8498305133
 21
2211.270620748142
 31
0.0
  0
LINE
  5
189A6
330
747D
100
AcDbEntity
  8
部品1
100
AcDbLine
 10
10211.8498305133
 20
4001.270620748138
 30
0.0
 11
12841.8498305133
 21
4001.270620748138
 31
0.0
  0
LINE
  5
189A7
330
747D
100
AcDbEntity
  8
部品1
100
AcDbLine
 10
10266.84983051329
 20
2211.270620748139
 30
0.0
 11
12841.8498305133
 21
2211.270620748142
 31
0.0
  0
LINE
  5
189A8
330
747D
100
AcDbEntity
  8
部品1
100
AcDbLine
 10
10266.8498305133
 20
4001.270620748138
 30
0.0
 11
10266.8498305133
 21
2061.270620748143
 31
0.0
  0
LINE
  5
189A9
330
747D
100
AcDbEntity
  8
部品1
100
AcDbLine
 10
10211.8498305133
 20
4093.413058677018
 30
0.0
 11
10211.8498305133
 21
2061.270620748139
 31
0.0
  0
DIMENSION
  5
189AA
330
747D
100
AcDbEntity
  8
寸法
100
AcDbDimension
  2
*D25
 10
9368.09970133004
 20
2161.27062074814
 30
0.0
 11
9368.09970133004
 21
1855.22337665365
 31
0.0
 70
   160
 71
     5
 42
50.0
  3
INABA_S40G
100
AcDbAlignedDimension
 13
10211.8498305133
 23
2211.27062074814
 33
0.0
 14
10156.8498305133
 24
2161.27062074814
 34
0.0
 50
90.0
100
AcDbRotatedDimension
1001
ACAD
1000
DSTYLE
1002
{
1070
   174
1070
     0
1070
   272
1070
     1
1070
   288
1070
     0
1070
   341
1005
0
1002
}
  0
LINE
  5
189AB
330
747D
100
AcDbEntity
  8
部品1
100
AcDbLine
 10
10686.8498305133
 20
4001.270620748138
 30
0.0
 11
10686.8498305133
 21
2211.270620748139
 31
0.0
  0
LINE
  5
189AC
330
747D
100
AcDbEntity
  8
部品1
100
AcDbLine
 10
12841.8498305133
 20
4055.804894135879
 30
0.0
 11
12841.8498305133
 21
2061.270620748143
 31
0.0
  0
LINE
  5
189AD
330
747D
100
AcDbEntity
  8
部品1
100
AcDbLine
 10
12786.8498305133
 20
4001.270620748138
 30
0.0
 11
12786.8498305133
 21
2211.270620748142
 31
0.0
  0
DIMENSION
  5
189AE
330
747D
100
AcDbEntity
  8
寸法
 48
50.0
100
AcDbDimension
  2
*D26
 10
10211.8498305133
 20
4634.928074327445
 30
0.0
 11
11526.8498305133
 21
4634.928074327445
 31
0.0
 70
   160
  1
柱外寸法<>
 71
     5
 42
2630.0
  3
INABA_S40G
100
AcDbAlignedDimension
 13
12841.8498305133
 23
4183.081300359793
 33
0.0
 14
10211.8498305133
 24
4232.272238871116
 34
0.0
100
AcDbRotatedDimension
1001
ACAD
1000
DSTYLE
1002
{
1070
   174
1070
     0
1070
   272
1070
     1
1070
   288
1070
     0
1070
   341
1005
0
1002
}
  0
DIMENSION
  5
189AF
330
747D
100
AcDbEntity
  8
寸法
 48
50.0
100
AcDbDimension
  2
*D27
 10
10151.8498305133
 20
4634.928074327444
 30
0.0
 11
9842.212035237709
 21
4634.928074327444
 31
0.0
 70
   160
 71
     5
 42
60.0
  3
INABA_S40G
100
AcDbAlignedDimension
 13
10211.8498305133
 23
4232.272238871116
 33
0.0
 14
10151.8498305133
 24
4236.270620748145
 34
0.0
100
AcDbRotatedDimension
1001
ACAD
1000
DSTYLE
1002
{
1070
   174
1070
     0
1070
   272
1070
     1
1070
   288
1070
     0
1070
   341
1005
0
1002
}
  0
DIMENSION
  5
189B0
330
747D
100
AcDbEntity
  8
寸法
 48
50.0
100
AcDbDimension
  2
*D28
 10
10151.8498305133
 20
4855.138761059062
 30
0.0
 11
11536.8498305133
 21
4855.138761059062
 31
0.0
 70
   160
 71
     5
 42
2770.0
  3
INABA_S40G
100
AcDbAlignedDimension
 13
12921.8498305133
 23
4181.270620748142
 33
0.0
 14
10151.8498305133
 24
4236.270620748145
 34
0.0
100
AcDbRotatedDimension
1001
ACAD
1000
DSTYLE
1002
{
1070
   174
1070
     0
1070
   272
1070
     1
1070
   288
1070
     0
1070
   341
1005
0
1002
}
  0
LINE
  5
189B1
330
747D
100
AcDbEntity
  8
部品1
100
AcDbLine
 10
10266.8498305133
 20
2161.270620748139
 30
0.0
 11
12841.8498305133
 21
2161.270620748139
 31
0.0
  0
LINE
  5
189B2
330
747D
100
AcDbEntity
  8
細線
 48
50.0
100
AcDbLine
 10
10764.3498305133
 20
4001.270620748138
 30
0.0
 11
10764.3498305133
 21
2211.270620748139
 31
0.0
  0
LINE
  5
189B3
330
747D
100
AcDbEntity
  8
細線
 48
50.0
100
AcDbLine
 10
10749.3498305133
 20
4001.270620748138
 30
0.0
 11
10749.3498305133
 21
2211.270620748139
 31
0.0
  0
LINE
  5
189B4
330
747D
100
AcDbEntity
  8
細線
 48
50.0
100
AcDbLine
 10
10889.3498305133
 20
4001.270620748138
 30
0.0
 11
10889.3498305133
 21
2211.270620748139
 31
0.0
  0
LINE
  5
189B5
330
747D
100
AcDbEntity
  8
細線
 48
50.0
100
AcDbLine
 10
10904.3498305133
 20
4001.270620748138
 30
0.0
 11
10904.3498305133
 21
2211.270620748139
 31
0.0
  0
LINE
  5
189B6
330
747D
100
AcDbEntity
  8
細線
 48
50.0
100
AcDbLine
 10
11044.3498305133
 20
4001.270620748138
 30
0.0
 11
11044.3498305133
 21
2211.270620748139
 31
0.0
  0
LINE
  5
189B7
330
747D
100
AcDbEntity
  8
細線
 48
50.0
100
AcDbLine
 10
11029.3498305133
 20
4001.270620748138
 30
0.0
 11
11029.3498305133
 21
2211.270620748139
 31
0.0
  0
LINE
  5
189B8
330
747D
100
AcDbEntity
  8
細線
 48
50.0
100
AcDbLine
 10
10609.3498305133
 20
4001.270620748138
 30
0.0
 11
10609.3498305133
 21
2211.270620748139
 31
0.0
  0
LINE
  5
189B9
330
747D
100
AcDbEntity
  8
細線
 48
50.0
100
AcDbLine
 10
10624.3498305133
 20
4001.270620748138
 30
0.0
 11
10624.3498305133
 21
2211.270620748139
 31
0.0
  0
LINE
  5
189BA
330
747D
100
AcDbEntity
  8
細線
 48
50.0
100
AcDbLine
 10
10484.3498305133
 20
4001.270620748138
 30
0.0
 11
10484.3498305133
 21
2211.270620748139
 31
0.0
  0
LINE
  5
189BB
330
747D
100
AcDbEntity
  8
細線
 48
50.0
100
AcDbLine
 10
10469.3498305133
 20
4001.270620748138
 30
0.0
 11
10469.3498305133
 21
2211.270620748139
 31
0.0
  0
LINE
  5
189BC
330
747D
100
AcDbEntity
  8
細線
 48
50.0
100
AcDbLine
 10
10329.3498305133
 20
4001.270620748138
 30
0.0
 11
10329.3498305133
 21
2211.270620748139
 31
0.0
  0
LINE
  5
189BD
330
747D
100
AcDbEntity
  8
細線
 48
50.0
100
AcDbLine
 10
10344.3498305133
 20
4001.270620748138
 30
0.0
 11
10344.3498305133
 21
2211.270620748139
 31
0.0
  0
DIMENSION
  5
189BE
330
747D
100
AcDbEntity
  8
寸法
 48
50.0
100
AcDbDimension
  2
*D29
 10
12921.8498305133
 20
4634.928074327445
 30
0.0
 11
13127.89707460779
 21
4634.928074327445
 31
0.0
 70
   160
 71
     5
 42
80.0
  3
INABA_S40G
100
AcDbAlignedDimension
 13
12841.8498305133
 23
4183.081300359793
 33
0.0
 14
12921.8498305133
 24
4181.270620748142
 34
0.0
100
AcDbRotatedDimension
1001
ACAD
1000
DSTYLE
1002
{
1070
   174
1070
     0
1070
   272
1070
     1
1070
   288
1070
     0
1070
   341
1005
0
1002
}
  0
LINE
  5
189BF
330
747D
100
AcDbEntity
  8
部品1
100
AcDbLine
 10
11106.8498305133
 20
4001.270620748138
 30
0.0
 11
11106.8498305133
 21
2211.270620748139
 31
0.0
  0
LINE
  5
189C0
330
747D
100
AcDbEntity
  8
細線
 48
50.0
100
AcDbLine
 10
11449.3498305133
 20
4001.270620748138
 30
0.0
 11
11449.3498305133
 21
2211.270620748139
 31
0.0
  0
LINE
  5
189C1
330
747D
100
AcDbEntity
  8
細線
 48
50.0
100
AcDbLine
 10
11464.3498305133
 20
4001.270620748138
 30
0.0
 11
11464.3498305133
 21
2211.270620748139
 31
0.0
  0
LINE
  5
189C2
330
747D
100
AcDbEntity
  8
細線
 48
50.0
100
AcDbLine
 10
11324.3498305133
 20
4001.270620748138
 30
0.0
 11
11324.3498305133
 21
2211.270620748139
 31
0.0
  0
LINE
  5
189C3
330
747D
100
AcDbEntity
  8
細線
 48
50.0
100
AcDbLine
 10
11309.3498305133
 20
4001.270620748138
 30
0.0
 11
11309.3498305133
 21
2211.270620748139
 31
0.0
  0
LINE
  5
189C4
330
747D
100
AcDbEntity
  8
細線
 48
50.0
100
AcDbLine
 10
11169.3498305133
 20
4001.270620748138
 30
0.0
 11
11169.3498305133
 21
2211.270620748139
 31
0.0
  0
LINE
  5
189C5
330
747D
100
AcDbEntity
  8
細線
 48
50.0
100
AcDbLine
 10
11184.3498305133
 20
4001.270620748138
 30
0.0
 11
11184.3498305133
 21
2211.270620748139
 31
0.0
  0
LINE
  5
189C6
330
747D
100
AcDbEntity
  8
部品1
100
AcDbLine
 10
11526.8498305133
 20
4001.270620748138
 30
0.0
 11
11526.8498305133
 21
2211.270620748139
 31
0.0
  0
LINE
  5
189C7
330
747D
100
AcDbEntity
  8
細線
 48
50.0
100
AcDbLine
 10
12444.34983051331
 20
4001.270620748138
 30
0.0
 11
12444.34983051331
 21
2211.270620748142
 31
0.0
  0
LINE
  5
189C8
330
747D
100
AcDbEntity
  8
細線
 48
50.0
100
AcDbLine
 10
12429.3498305133
 20
4001.270620748138
 30
0.0
 11
12429.3498305133
 21
2211.270620748142
 31
0.0
  0
LINE
  5
189C9
330
747D
100
AcDbEntity
  8
細線
 48
50.0
100
AcDbLine
 10
12569.34983051331
 20
4001.270620748138
 30
0.0
 11
12569.34983051331
 21
2211.270620748142
 31
0.0
  0
LINE
  5
189CA
330
747D
100
AcDbEntity
  8
細線
 48
50.0
100
AcDbLine
 10
12584.34983051331
 20
4001.270620748138
 30
0.0
 11
12584.34983051331
 21
2211.270620748142
 31
0.0
  0
LINE
  5
189CB
330
747D
100
AcDbEntity
  8
細線
 48
50.0
100
AcDbLine
 10
12724.34983051331
 20
4001.270620748138
 30
0.0
 11
12724.34983051331
 21
2211.270620748142
 31
0.0
  0
LINE
  5
189CC
330
747D
100
AcDbEntity
  8
細線
 48
50.0
100
AcDbLine
 10
12709.34983051331
 20
4001.270620748138
 30
0.0
 11
12709.34983051331
 21
2211.270620748142
 31
0.0
  0
DIMENSION
  5
189CD
330
747D
100
AcDbEntity
  8
寸法
 48
50.0
100
AcDbDimension
  2
*D30
 10
9591.241423744918
 20
4110.615879621471
 30
0.0
 11
9601.906899003843
 21
4481.46254286317
 31
0.0
 70
   161
 71
     5
 42
141.0
  3
INABA_S40G
100
AcDbAlignedDimension
 13
10171.24585067188
 23
4234.993369582819
 33
0.0
 14
10167.19239511525
 24
4094.051645817106
 34
0.0
1001
ACAD
1000
DSTYLE
1002
{
1070
   174
1070
     0
1070
   272
1070
     1
1070
   288
1070
     0
1070
   341
1005
0
1002
}
  0
LINE
  5
189D3
330
747D
100
AcDbEntity
  8
破線
 48
5.0
100
AcDbLine
 10
10211.8498305133
 20
2061.270620748139
 30
0.0
 11
10211.8498305133
 21
1811.270620748139
 31
0.0
  0
LINE
  5
189D4
330
747D
100
AcDbEntity
  8
破線
 48
5.0
100
AcDbLine
 10
10266.8498305133
 20
2061.270620748139
 30
0.0
 11
10266.8498305133
 21
1811.270620748139
 31
0.0
  0
LINE
  5
189D5
330
747D
100
AcDbEntity
  8
破線
 48
5.0
100
AcDbLine
 10
10211.8498305133
 20
1811.270620748139
 30
0.0
 11
10266.8498305133
 21
1811.270620748139
 31
0.0
  0
LINE
  5
189D6
330
747D
100
AcDbEntity
  8
部品1
100
AcDbLine
 10
10211.8498305133
 20
2161.270620748139
 30
0.0
 11
9818.852616304452
 21
2061.270620748139
 31
0.0
  0
TEXT
  5
189D7
330
747D
100
AcDbEntity
  8
文字
 62
     7
 48
50.0
100
AcDbText
 10
14237.10790177236
 20
483.8967129911416
 30
0.0
 40
160.0
  1
FXN-2226SL-2
  7
MSPゴシック
100
AcDbText
  0
LWPOLYLINE
  5
189D8
330
747D
100
AcDbEntity
  8
部品1
100
AcDbPolyline
 90
        4
 70
     1
 43
0.0
 10
11155.11449739908
 20
1411.270620748139
 10
11155.11449739908
 20
1171.378299202606
 10
11918.58516362752
 20
1171.378299202606
 10
11918.58516362752
 20
1411.270620748139
  0
TEXT
  5
189D9
330
747D
100
AcDbEntity
  8
部品1
100
AcDbText
 10
11239.17762962742
 20
1218.377091529614
 30
0.0
 40
135.0
  1
側面図
  7
MSGOTHIC
100
AcDbText
  0
LINE
  5
18D9C
330
747D
100
AcDbEntity
  8
補助
  6
PHANTOM
 62
   230
 48
50.0
100
AcDbLine
 10
140.0
 20
0.0
 30
0.0
 11
140.0
 21
11409.6
 31
0.0
  0
DIMENSION
  5
19128
330
747D
100
AcDbEntity
  8
寸法
 48
50.0
100
AcDbDimension
  2
*D33
 10
3164.673057123676
 20
4641.996892480048
 30
0.0
 11
5374.673057123676
 21
4641.996892480048
 31
0.0
 70
   160
  1
柱外寸法<>
 71
     5
 42
4420.000000000005
  3
INABA_S40G
100
AcDbAlignedDimension
 13
7584.673057123682
 23
4236.270620748146
 33
0.0
 14
3164.673057123676
 24
4236.270620748146
 34
0.0
100
AcDbRotatedDimension
  0
DIMENSION
  5
19129
330
747D
100
AcDbEntity
  8
寸法
 48
50.0
100
AcDbDimension
  2
*D32
 10
7634.673057123677
 20
4841.905813694139
 30
0.0
 11
5374.673057123676
 21
4841.905813694139
 31
0.0
 70
   160
 71
     5
 42
4520.000000000002
  3
INABA_S40G
100
AcDbAlignedDimension
 13
3114.673057123676
 23
4236.270620748146
 33
0.0
 14
7634.673057123677
 24
4236.270620748142
 34
0.0
100
AcDbRotatedDimension
  0
DIMENSION
  5
1912A
330
747D
100
AcDbEntity
  8
寸法
 48
50.0
100
AcDbDimension
  2
*D31
 10
3114.673057123676
 20
4641.996892480048
 30
0.0
 11
2801.187775749429
 21
4641.996892480048
 31
0.0
 70
   160
 71
     5
 42
50.0
  3
INABA_S40G
100
AcDbAlignedDimension
 13
3164.673057123676
 23
4236.270620748146
 33
0.0
 14
3114.673057123676
 24
4236.270620748146
 34
0.0
100
AcDbRotatedDimension
1001
ACAD
1000
DSTYLE
1002
{
1002
}
  0
LINE
  5
1912B
330
747D
100
AcDbEntity
  8
部品1
100
AcDbLine
 10
3115.092718139007
 20
4228.874095352905
 30
0.0
 11
3116.226115471355
 21
4208.897967370304
 31
0.0
  0
LINE
  5
1912C
330
747D
100
AcDbEntity
  8
部品1
100
AcDbLine
 10
3127.663135792936
 20
4113.240560203244
 30
0.0
 11
3128.308041600044
 21
4101.874095352905
 31
0.0
  0
LINE
  5
1912D
330
747D
100
AcDbEntity
  8
部品1
100
AcDbLine
 10
3119.427105268084
 20
4205.440560203245
 30
0.0
 11
3124.462145996199
 21
4116.697967370302
 31
0.0
  0
ARC
  5
1912E
330
747D
100
AcDbEntity
  8
部品1
 48
50.0
100
AcDbCircle
 10
3116.431922371899
 20
4205.270620748146
 30
0.0
 40
3.0
100
AcDbArc
 50
3.24734279033436
 51
82.3418727926348
  0
ARC
  5
1912F
330
747D
100
AcDbEntity
  8
部品1
 48
50.0
100
AcDbCircle
 10
3124.667952896743
 20
4113.070620748142
 30
0.0
 40
3.0
100
AcDbArc
 50
3.24734279033436
 51
82.3418727926348
  0
ARC
  5
19130
330
747D
100
AcDbEntity
  8
部品1
 48
50.0
100
AcDbCircle
 10
3125.161022005304
 20
4116.737619909826
 30
0.0
 40
0.7
100
AcDbArc
 50
183.2473427903344
 51
262.3418727926349
  0
ARC
  5
19131
330
747D
100
AcDbEntity
  8
部品1
 48
50.0
100
AcDbCircle
 10
3116.924991480467
 20
4208.937619909829
 30
0.0
 40
0.7
100
AcDbArc
 50
183.2473427903344
 51
262.3418727926349
  0
ARC
  5
19132
330
747D
100
AcDbEntity
  8
部品1
100
AcDbCircle
 10
3135.296801691139
 20
4102.270620748146
 30
0.0
 40
7.0
100
AcDbArc
 50
183.2473427903344
 51
270.0
  0
ARC
  5
19133
330
747D
100
AcDbEntity
  8
部品1
100
AcDbCircle
 10
3122.081478230109
 20
4229.270620748142
 30
0.0
 40
7.0
100
AcDbArc
 50
90.0
 51
183.2473427903344
  0
LINE
  5
19134
330
747D
100
AcDbEntity
  8
細線
 48
50.0
100
AcDbLine
 10
3147.673057123676
 20
4236.270620748142
 30
0.0
 11
3147.673057123676
 21
4095.270620748142
 31
0.0
  0
LINE
  5
19135
330
747D
100
AcDbEntity
  8
細線
 48
50.0
100
AcDbLine
 10
7624.397488377368
 20
4116.070620748135
 30
0.0
 11
3124.948625869946
 21
4116.070620748145
 31
0.0
  0
LINE
  5
19136
330
747D
100
AcDbEntity
  8
細線
 48
50.0
100
AcDbLine
 10
7632.633518902249
 20
4208.270620748147
 30
0.0
 11
3116.712595345117
 21
4208.270620748142
 31
0.0
  0
LINE
  5
19137
330
747D
100
AcDbEntity
  8
部品1
 48
50.0
100
AcDbLine
 10
7614.049312556215
 20
4095.270620748147
 30
0.0
 11
3135.296801691139
 21
4095.270620748146
 31
0.0
  0
LINE
  5
19138
330
747D
100
AcDbEntity
  8
部品1
 48
50.0
100
AcDbLine
 10
7627.264636017248
 20
4236.270620748141
 30
0.0
 11
3122.081478230109
 21
4236.270620748146
 31
0.0
  0
LINE
  5
19139
330
747D
100
AcDbEntity
  8
部品1
100
AcDbLine
 10
3164.673057123676
 20
4001.270620748138
 30
0.0
 11
7584.673057123676
 21
4001.270620748136
 31
0.0
  0
DIMENSION
  5
191E1
330
747D
100
AcDbEntity
  8
寸法
 48
50.0
100
AcDbDimension
  2
*D34
 10
7584.673057123682
 20
4641.996892480052
 30
0.0
 11
7948.158338497917
 21
4641.996892480052
 31
0.0
 70
   160
 71
     5
 42
49.99999999999636
  3
INABA_S40G
100
AcDbAlignedDimension
 13
7634.673057123677
 23
4236.270620748142
 33
0.0
 14
7584.673057123682
 24
4236.270620748146
 34
0.0
100
AcDbRotatedDimension
  0
ARC
  5
191E2
330
747D
100
AcDbEntity
  8
部品1
100
AcDbCircle
 10
7627.264636017248
 20
4229.270620748145
 30
0.0
 40
7.0
100
AcDbArc
 50
356.7526572096657
 51
90.0
  0
ARC
  5
191E3
330
747D
100
AcDbEntity
  8
部品1
100
AcDbCircle
 10
7614.049312556215
 20
4102.270620748146
 30
0.0
 40
7.0
100
AcDbArc
 50
270.0
 51
356.7526572096657
  0
ARC
  5
191E4
330
747D
100
AcDbEntity
  8
部品1
 48
50.0
100
AcDbCircle
 10
7632.421122766889
 20
4208.937619909829
 30
0.0
 40
0.7
100
AcDbArc
 50
277.6581272073652
 51
356.7526572096657
  0
ARC
  5
191E5
330
747D
100
AcDbEntity
  8
部品1
 48
50.0
100
AcDbCircle
 10
7624.18509224205
 20
4116.737619909829
 30
0.0
 40
0.7
100
AcDbArc
 50
277.6581272073652
 51
356.7526572096657
  0
ARC
  5
191E6
330
747D
100
AcDbEntity
  8
部品1
 48
50.0
100
AcDbCircle
 10
7624.678161350612
 20
4113.070620748142
 30
0.0
 40
3.0
100
AcDbArc
 50
97.65812720736519
 51
176.7526572096656
  0
ARC
  5
191E7
330
747D
100
AcDbEntity
  8
部品1
 48
50.0
100
AcDbCircle
 10
7632.914191875454
 20
4205.270620748146
 30
0.0
 40
3.0
100
AcDbArc
 50
97.65812720736519
 51
176.7526572096656
  0
LINE
  5
191E8
330
747D
100
AcDbEntity
  8
部品1
100
AcDbLine
 10
7629.919008979269
 20
4205.440560203249
 30
0.0
 11
7624.883968251158
 21
4116.697967370302
 31
0.0
  0
LINE
  5
191E9
330
747D
100
AcDbEntity
  8
部品1
100
AcDbLine
 10
7621.682978454422
 20
4113.240560203244
 30
0.0
 11
7621.038072647313
 21
4101.874095352905
 31
0.0
  0
LINE
  5
191EA
330
747D
100
AcDbEntity
  8
細線
 48
50.0
100
AcDbLine
 10
7601.673057123678
 20
4236.270620748146
 30
0.0
 11
7601.673057123678
 21
4095.270620748146
 31
0.0
  0
LINE
  5
191EB
330
747D
100
AcDbEntity
  8
部品1
100
AcDbLine
 10
7634.253396108348
 20
4228.874095352905
 30
0.0
 11
7633.119998775999
 21
4208.897967370307
 31
0.0
  0
LINE
  5
19528
330
747D
100
AcDbEntity
  8
部品1
 48
50.0
100
AcDbLine
 10
5364.67305712368
 20
4095.270620748143
 30
0.0
 11
5364.673057123678
 21
4236.270620748142
 31
0.0
  0
LINE
  5
19529
330
747D
100
AcDbEntity
  8
部品1
 48
50.0
100
AcDbLine
 10
5374.673057123681
 20
3836.270620748139
 30
0.0
 11
5374.67305712368
 21
4095.270620748143
 31
0.0
  0
ARC
  5
1963F
330
747D
100
AcDbEntity
  8
部品1
 48
0.01
100
AcDbCircle
 10
4796.67305712368
 20
4033.770620748138
 30
0.0
 40
2.0
100
AcDbArc
 50
180.0
 51
270.0
  0
ARC
  5
19640
330
747D
100
AcDbEntity
  8
部品1
 48
0.01
100
AcDbCircle
 10
4796.673057123676
 20
4065.270620748139
 30
0.0
 40
2.0
100
AcDbArc
 50
90.0
 51
180.0
  0
ARC
  5
19641
330
747D
100
AcDbEntity
  8
部品1
 48
0.01
100
AcDbCircle
 10
4972.673057123677
 20
4033.770620748138
 30
0.0
 40
2.0
100
AcDbArc
 50
270.0
 51
0.0
  0
ARC
  5
19642
330
747D
100
AcDbEntity
  8
部品1
 48
0.01
100
AcDbCircle
 10
4972.673057123677
 20
4065.270620748139
 30
0.0
 40
2.0
100
AcDbArc
 50
0.0
 51
90.0
  0
LINE
  5
19643
330
747D
100
AcDbEntity
  8
細線
100
AcDbLine
 10
4884.673057123681
 20
4037.770620748139
 30
0.0
 11
4810.673057123676
 21
4037.770620748139
 31
0.0
  0
LINE
  5
19644
330
747D
100
AcDbEntity
  8
細線
100
AcDbLine
 10
4884.673057123677
 20
4060.770620748138
 30
0.0
 11
4958.673057123677
 21
4060.770620748138
 31
0.0
  0
LINE
  5
19645
330
747D
100
AcDbEntity
  8
細線
100
AcDbLine
 10
4958.673057123677
 20
4037.770620748139
 30
0.0
 11
4884.673057123677
 21
4037.770620748139
 31
0.0
  0
LINE
  5
19646
330
747D
100
AcDbEntity
  8
細線
100
AcDbLine
 10
4810.673057123676
 20
4060.770620748138
 30
0.0
 11
4884.673057123677
 21
4060.770620748138
 31
0.0
  0
LINE
  5
19647
330
747D
100
AcDbEntity
  8
細線
100
AcDbLine
 10
4810.673057123676
 20
4037.770620748139
 30
0.0
 11
4810.673057123676
 21
4060.770620748138
 31
0.0
  0
LINE
  5
19648
330
747D
100
AcDbEntity
  8
細線
100
AcDbLine
 10
4958.673057123677
 20
4060.770620748138
 30
0.0
 11
4958.673057123677
 21
4037.770620748139
 31
0.0
  0
LINE
  5
19649
330
747D
100
AcDbEntity
  8
部品1
 48
0.01
100
AcDbLine
 10
4794.67305712368
 20
4033.770620748138
 30
0.0
 11
4794.673057123676
 21
4065.270620748139
 31
0.0
  0
LINE
  5
1964A
330
747D
100
AcDbEntity
  8
部品1
 48
0.01
100
AcDbLine
 10
4972.673057123677
 20
4031.770620748138
 30
0.0
 11
4796.67305712368
 21
4031.770620748138
 31
0.0
  0
LINE
  5
1964B
330
747D
100
AcDbEntity
  8
部品1
 48
0.01
100
AcDbLine
 10
4974.673057123677
 20
4065.270620748139
 30
0.0
 11
4974.673057123677
 21
4033.770620748138
 31
0.0
  0
LINE
  5
1964C
330
747D
100
AcDbEntity
  8
部品1
 48
0.01
100
AcDbLine
 10
4796.673057123676
 20
4067.270620748138
 30
0.0
 11
4972.673057123677
 21
4067.270620748138
 31
0.0
  0
LINE
  5
1964D
330
747D
100
AcDbEntity
  8
細線
100
AcDbLine
 10
4958.673057123677
 20
4054.770620748139
 30
0.0
 11
4884.673057123677
 21
4054.770620748139
 31
0.0
  0
LINE
  5
1964E
330
747D
100
AcDbEntity
  8
細線
100
AcDbLine
 10
4958.673057123677
 20
4048.770620748139
 30
0.0
 11
4884.673057123677
 21
4048.770620748139
 31
0.0
  0
LINE
  5
1964F
330
747D
100
AcDbEntity
  8
細線
100
AcDbLine
 10
4958.673057123681
 20
4042.770620748139
 30
0.0
 11
4884.673057123677
 21
4042.770620748139
 31
0.0
  0
LINE
  5
19650
330
747D
100
AcDbEntity
  8
細線
100
AcDbLine
 10
4958.673057123677
 20
4054.770620748139
 30
0.0
 11
4889.673057123676
 21
4054.770620748139
 31
0.0
  0
LINE
  5
19651
330
747D
100
AcDbEntity
  8
細線
100
AcDbLine
 10
4810.67305712368
 20
4054.770620748139
 30
0.0
 11
4884.673057123677
 21
4054.770620748139
 31
0.0
  0
LINE
  5
19652
330
747D
100
AcDbEntity
  8
細線
100
AcDbLine
 10
4810.67305712368
 20
4042.770620748139
 30
0.0
 11
4884.673057123677
 21
4042.770620748139
 31
0.0
  0
LINE
  5
19653
330
747D
100
AcDbEntity
  8
細線
100
AcDbLine
 10
4810.67305712368
 20
4048.770620748139
 30
0.0
 11
4884.673057123677
 21
4048.770620748139
 31
0.0
  0
LINE
  5
19654
330
747D
100
AcDbEntity
  8
細線
100
AcDbLine
 10
4884.673057123677
 20
4060.770620748138
 30
0.0
 11
4884.673057123681
 21
4037.770620748139
 31
0.0
  0
LINE
  5
19655
330
747D
100
AcDbEntity
  8
細線
100
AcDbLine
 10
3654.673057123681
 20
4060.770620748138
 30
0.0
 11
3654.673057123677
 21
4037.770620748139
 31
0.0
  0
LINE
  5
19656
330
747D
100
AcDbEntity
  8
細線
100
AcDbLine
 10
3728.673057123677
 20
4048.770620748139
 30
0.0
 11
3654.673057123681
 21
4048.770620748139
 31
0.0
  0
LINE
  5
19657
330
747D
100
AcDbEntity
  8
細線
100
AcDbLine
 10
3728.673057123677
 20
4042.770620748139
 30
0.0
 11
3654.673057123681
 21
4042.770620748139
 31
0.0
  0
LINE
  5
19658
330
747D
100
AcDbEntity
  8
細線
100
AcDbLine
 10
3728.673057123677
 20
4054.770620748139
 30
0.0
 11
3654.673057123681
 21
4054.770620748139
 31
0.0
  0
LINE
  5
19659
330
747D
100
AcDbEntity
  8
細線
100
AcDbLine
 10
3580.673057123681
 20
4054.770620748139
 30
0.0
 11
3649.67305712368
 21
4054.770620748139
 31
0.0
  0
LINE
  5
1965A
330
747D
100
AcDbEntity
  8
細線
100
AcDbLine
 10
3580.673057123677
 20
4042.770620748139
 30
0.0
 11
3654.673057123681
 21
4042.770620748139
 31
0.0
  0
LINE
  5
1965B
330
747D
100
AcDbEntity
  8
細線
100
AcDbLine
 10
3580.673057123681
 20
4048.770620748139
 30
0.0
 11
3654.673057123681
 21
4048.770620748139
 31
0.0
  0
LINE
  5
1965C
330
747D
100
AcDbEntity
  8
細線
100
AcDbLine
 10
3580.673057123681
 20
4054.770620748139
 30
0.0
 11
3654.673057123681
 21
4054.770620748139
 31
0.0
  0
LINE
  5
1965D
330
747D
100
AcDbEntity
  8
部品1
 48
0.01
100
AcDbLine
 10
3742.67305712368
 20
4067.270620748138
 30
0.0
 11
3566.673057123681
 21
4067.270620748138
 31
0.0
  0
LINE
  5
1965E
330
747D
100
AcDbEntity
  8
部品1
 48
0.01
100
AcDbLine
 10
3564.67305712368
 20
4065.270620748139
 30
0.0
 11
3564.67305712368
 21
4033.770620748138
 31
0.0
  0
LINE
  5
1965F
330
747D
100
AcDbEntity
  8
部品1
 48
0.01
100
AcDbLine
 10
3566.673057123681
 20
4031.770620748138
 30
0.0
 11
3742.673057123677
 21
4031.770620748138
 31
0.0
  0
LINE
  5
19660
330
747D
100
AcDbEntity
  8
部品1
 48
0.01
100
AcDbLine
 10
3744.673057123677
 20
4033.770620748138
 30
0.0
 11
3744.673057123681
 21
4065.270620748139
 31
0.0
  0
LINE
  5
19661
330
747D
100
AcDbEntity
  8
細線
100
AcDbLine
 10
3580.673057123681
 20
4060.770620748138
 30
0.0
 11
3580.673057123681
 21
4037.770620748139
 31
0.0
  0
LINE
  5
19662
330
747D
100
AcDbEntity
  8
細線
100
AcDbLine
 10
3728.673057123681
 20
4037.770620748139
 30
0.0
 11
3728.673057123681
 21
4060.770620748138
 31
0.0
  0
LINE
  5
19663
330
747D
100
AcDbEntity
  8
細線
100
AcDbLine
 10
3728.673057123681
 20
4060.770620748138
 30
0.0
 11
3654.673057123681
 21
4060.770620748138
 31
0.0
  0
LINE
  5
19664
330
747D
100
AcDbEntity
  8
細線
100
AcDbLine
 10
3580.673057123681
 20
4037.770620748139
 30
0.0
 11
3654.673057123681
 21
4037.770620748139
 31
0.0
  0
LINE
  5
19665
330
747D
100
AcDbEntity
  8
細線
100
AcDbLine
 10
3654.673057123681
 20
4060.770620748138
 30
0.0
 11
3580.673057123681
 21
4060.770620748138
 31
0.0
  0
LINE
  5
19666
330
747D
100
AcDbEntity
  8
細線
100
AcDbLine
 10
3654.673057123677
 20
4037.770620748139
 30
0.0
 11
3728.673057123681
 21
4037.770620748139
 31
0.0
  0
ARC
  5
19667
330
747D
100
AcDbEntity
  8
部品1
 48
0.01
100
AcDbCircle
 10
3566.673057123681
 20
4065.270620748139
 30
0.0
 40
2.0
100
AcDbArc
 50
90.0
 51
180.0
  0
ARC
  5
19668
330
747D
100
AcDbEntity
  8
部品1
 48
0.01
100
AcDbCircle
 10
3566.673057123681
 20
4033.770620748138
 30
0.0
 40
2.0
100
AcDbArc
 50
180.0
 51
270.0
  0
ARC
  5
19669
330
747D
100
AcDbEntity
  8
部品1
 48
0.01
100
AcDbCircle
 10
3742.67305712368
 20
4065.270620748139
 30
0.0
 40
2.0
100
AcDbArc
 50
0.0
 51
90.0
  0
ARC
  5
1966A
330
747D
100
AcDbEntity
  8
部品1
 48
0.01
100
AcDbCircle
 10
3742.673057123677
 20
4033.770620748138
 30
0.0
 40
2.0
100
AcDbArc
 50
270.0
 51
0.0
  0
ARC
  5
19790
330
747D
100
AcDbEntity
  8
部品1
 48
0.01
100
AcDbCircle
 10
5952.673057123677
 20
4033.770620748139
 30
0.0
 40
2.0
100
AcDbArc
 50
270.0
 51
0.0
  0
ARC
  5
19791
330
747D
100
AcDbEntity
  8
部品1
 48
0.01
100
AcDbCircle
 10
5952.67305712368
 20
4065.270620748139
 30
0.0
 40
2.0
100
AcDbArc
 50
0.0
 51
90.0
  0
ARC
  5
19792
330
747D
100
AcDbEntity
  8
部品1
 48
0.01
100
AcDbCircle
 10
5776.67305712368
 20
4033.770620748139
 30
0.0
 40
2.0
100
AcDbArc
 50
180.0
 51
270.0
  0
ARC
  5
19793
330
747D
100
AcDbEntity
  8
部品1
 48
0.01
100
AcDbCircle
 10
5776.67305712368
 20
4065.270620748139
 30
0.0
 40
2.0
100
AcDbArc
 50
90.0
 51
180.0
  0
LINE
  5
19794
330
747D
100
AcDbEntity
  8
細線
100
AcDbLine
 10
5864.673057123677
 20
4037.77062074814
 30
0.0
 11
5938.67305712368
 21
4037.77062074814
 31
0.0
  0
LINE
  5
19795
330
747D
100
AcDbEntity
  8
細線
100
AcDbLine
 10
5864.67305712368
 20
4060.770620748139
 30
0.0
 11
5790.67305712368
 21
4060.770620748139
 31
0.0
  0
LINE
  5
19796
330
747D
100
AcDbEntity
  8
細線
100
AcDbLine
 10
5790.67305712368
 20
4037.77062074814
 30
0.0
 11
5864.67305712368
 21
4037.77062074814
 31
0.0
  0
LINE
  5
19797
330
747D
100
AcDbEntity
  8
細線
100
AcDbLine
 10
5938.67305712368
 20
4060.770620748139
 30
0.0
 11
5864.67305712368
 21
4060.770620748139
 31
0.0
  0
LINE
  5
19798
330
747D
100
AcDbEntity
  8
細線
100
AcDbLine
 10
5938.67305712368
 20
4037.77062074814
 30
0.0
 11
5938.67305712368
 21
4060.770620748139
 31
0.0
  0
LINE
  5
19799
330
747D
100
AcDbEntity
  8
細線
100
AcDbLine
 10
5790.67305712368
 20
4060.770620748139
 30
0.0
 11
5790.67305712368
 21
4037.77062074814
 31
0.0
  0
LINE
  5
1979A
330
747D
100
AcDbEntity
  8
部品1
 48
0.01
100
AcDbLine
 10
5954.673057123677
 20
4033.770620748139
 30
0.0
 11
5954.673057123681
 21
4065.270620748139
 31
0.0
  0
LINE
  5
1979B
330
747D
100
AcDbEntity
  8
部品1
 48
0.01
100
AcDbLine
 10
5776.67305712368
 20
4031.770620748139
 30
0.0
 11
5952.673057123677
 21
4031.770620748139
 31
0.0
  0
LINE
  5
1979C
330
747D
100
AcDbEntity
  8
部品1
 48
0.01
100
AcDbLine
 10
5774.67305712368
 20
4065.270620748139
 30
0.0
 11
5774.67305712368
 21
4033.770620748139
 31
0.0
  0
LINE
  5
1979D
330
747D
100
AcDbEntity
  8
部品1
 48
0.01
100
AcDbLine
 10
5952.67305712368
 20
4067.270620748138
 30
0.0
 11
5776.67305712368
 21
4067.270620748138
 31
0.0
  0
LINE
  5
1979E
330
747D
100
AcDbEntity
  8
細線
100
AcDbLine
 10
5790.67305712368
 20
4054.770620748139
 30
0.0
 11
5864.67305712368
 21
4054.770620748139
 31
0.0
  0
LINE
  5
1979F
330
747D
100
AcDbEntity
  8
細線
100
AcDbLine
 10
5790.67305712368
 20
4048.770620748139
 30
0.0
 11
5864.67305712368
 21
4048.770620748139
 31
0.0
  0
LINE
  5
197A0
330
747D
100
AcDbEntity
  8
細線
100
AcDbLine
 10
5790.673057123677
 20
4042.770620748139
 30
0.0
 11
5864.67305712368
 21
4042.770620748139
 31
0.0
  0
LINE
  5
197A1
330
747D
100
AcDbEntity
  8
細線
100
AcDbLine
 10
5790.67305712368
 20
4054.770620748139
 30
0.0
 11
5859.67305712368
 21
4054.770620748139
 31
0.0
  0
LINE
  5
197A2
330
747D
100
AcDbEntity
  8
細線
100
AcDbLine
 10
5938.673057123676
 20
4054.770620748139
 30
0.0
 11
5864.67305712368
 21
4054.770620748139
 31
0.0
  0
LINE
  5
197A3
330
747D
100
AcDbEntity
  8
細線
100
AcDbLine
 10
5938.673057123676
 20
4042.770620748139
 30
0.0
 11
5864.67305712368
 21
4042.770620748139
 31
0.0
  0
LINE
  5
197A4
330
747D
100
AcDbEntity
  8
細線
100
AcDbLine
 10
5938.673057123676
 20
4048.770620748139
 30
0.0
 11
5864.67305712368
 21
4048.770620748139
 31
0.0
  0
LINE
  5
197A5
330
747D
100
AcDbEntity
  8
細線
100
AcDbLine
 10
5864.67305712368
 20
4060.770620748139
 30
0.0
 11
5864.673057123677
 21
4037.77062074814
 31
0.0
  0
LINE
  5
197A6
330
747D
100
AcDbEntity
  8
細線
100
AcDbLine
 10
7094.673057123677
 20
4060.770620748139
 30
0.0
 11
7094.67305712368
 21
4037.77062074814
 31
0.0
  0
LINE
  5
197A7
330
747D
100
AcDbEntity
  8
細線
100
AcDbLine
 10
7020.67305712368
 20
4048.770620748139
 30
0.0
 11
7094.673057123677
 21
4048.770620748139
 31
0.0
  0
LINE
  5
197A8
330
747D
100
AcDbEntity
  8
細線
100
AcDbLine
 10
7020.67305712368
 20
4042.770620748139
 30
0.0
 11
7094.673057123677
 21
4042.770620748139
 31
0.0
  0
LINE
  5
197A9
330
747D
100
AcDbEntity
  8
細線
100
AcDbLine
 10
7020.67305712368
 20
4054.770620748139
 30
0.0
 11
7094.673057123677
 21
4054.770620748139
 31
0.0
  0
LINE
  5
197AA
330
747D
100
AcDbEntity
  8
細線
100
AcDbLine
 10
7168.673057123676
 20
4054.770620748139
 30
0.0
 11
7099.673057123677
 21
4054.770620748139
 31
0.0
  0
LINE
  5
197AB
330
747D
100
AcDbEntity
  8
細線
100
AcDbLine
 10
7168.67305712368
 20
4042.770620748139
 30
0.0
 11
7094.673057123677
 21
4042.770620748139
 31
0.0
  0
LINE
  5
197AC
330
747D
100
AcDbEntity
  8
細線
100
AcDbLine
 10
7168.673057123676
 20
4048.770620748139
 30
0.0
 11
7094.673057123677
 21
4048.770620748139
 31
0.0
  0
LINE
  5
197AD
330
747D
100
AcDbEntity
  8
細線
100
AcDbLine
 10
7168.673057123676
 20
4054.770620748139
 30
0.0
 11
7094.673057123677
 21
4054.770620748139
 31
0.0
  0
LINE
  5
197AE
330
747D
100
AcDbEntity
  8
部品1
 48
0.01
100
AcDbLine
 10
7006.673057123677
 20
4067.270620748138
 30
0.0
 11
7182.673057123676
 21
4067.270620748138
 31
0.0
  0
LINE
  5
197AF
330
747D
100
AcDbEntity
  8
部品1
 48
0.01
100
AcDbLine
 10
7184.673057123676
 20
4065.270620748139
 30
0.0
 11
7184.673057123676
 21
4033.770620748139
 31
0.0
  0
LINE
  5
197B0
330
747D
100
AcDbEntity
  8
部品1
 48
0.01
100
AcDbLine
 10
7182.673057123676
 20
4031.770620748139
 30
0.0
 11
7006.673057123681
 21
4031.770620748139
 31
0.0
  0
LINE
  5
197B1
330
747D
100
AcDbEntity
  8
部品1
 48
0.01
100
AcDbLine
 10
7004.673057123681
 20
4033.770620748139
 30
0.0
 11
7004.673057123676
 21
4065.270620748139
 31
0.0
  0
LINE
  5
197B2
330
747D
100
AcDbEntity
  8
細線
100
AcDbLine
 10
7168.673057123676
 20
4060.770620748139
 30
0.0
 11
7168.673057123676
 21
4037.77062074814
 31
0.0
  0
LINE
  5
197B3
330
747D
100
AcDbEntity
  8
細線
100
AcDbLine
 10
7020.673057123677
 20
4037.77062074814
 30
0.0
 11
7020.673057123677
 21
4060.770620748139
 31
0.0
  0
LINE
  5
197B4
330
747D
100
AcDbEntity
  8
細線
100
AcDbLine
 10
7020.673057123677
 20
4060.770620748139
 30
0.0
 11
7094.673057123677
 21
4060.770620748139
 31
0.0
  0
LINE
  5
197B5
330
747D
100
AcDbEntity
  8
細線
100
AcDbLine
 10
7168.673057123676
 20
4037.77062074814
 30
0.0
 11
7094.673057123677
 21
4037.77062074814
 31
0.0
  0
LINE
  5
197B6
330
747D
100
AcDbEntity
  8
細線
100
AcDbLine
 10
7094.673057123677
 20
4060.770620748139
 30
0.0
 11
7168.673057123676
 21
4060.770620748139
 31
0.0
  0
LINE
  5
197B7
330
747D
100
AcDbEntity
  8
細線
100
AcDbLine
 10
7094.67305712368
 20
4037.77062074814
 30
0.0
 11
7020.673057123677
 21
4037.77062074814
 31
0.0
  0
ARC
  5
197B8
330
747D
100
AcDbEntity
  8
部品1
 48
0.01
100
AcDbCircle
 10
7182.673057123676
 20
4065.270620748139
 30
0.0
 40
2.0
100
AcDbArc
 50
0.0
 51
90.0
  0
ARC
  5
197B9
330
747D
100
AcDbEntity
  8
部品1
 48
0.01
100
AcDbCircle
 10
7182.673057123676
 20
4033.770620748139
 30
0.0
 40
2.0
100
AcDbArc
 50
270.0
 51
0.0
  0
ARC
  5
197BA
330
747D
100
AcDbEntity
  8
部品1
 48
0.01
100
AcDbCircle
 10
7006.673057123677
 20
4065.270620748139
 30
0.0
 40
2.0
100
AcDbArc
 50
90.0
 51
180.0
  0
ARC
  5
197BB
330
747D
100
AcDbEntity
  8
部品1
 48
0.01
100
AcDbCircle
 10
7006.673057123681
 20
4033.770620748139
 30
0.0
 40
2.0
100
AcDbArc
 50
180.0
 51
270.0
  0
DIMENSION
  5
1991C
330
747D
100
AcDbEntity
  8
寸法
 48
50.0
100
AcDbDimension
  2
*D35
 10
7872.216159445423
 20
4001.270620748138
 30
0.0
 11
7872.216159445423
 21
4239.755902122378
 31
0.0
 70
   160
 71
     5
 42
164.9999999999995
  3
INABA_S40G
100
AcDbAlignedDimension
 13
7584.673057123676
 23
3836.27062074814
 33
0.0
 14
7584.673057123676
 24
4001.270620748138
 34
0.0
 50
90.0
100
AcDbRotatedDimension
1001
ACAD
1000
DSTYLE
1002
{
1002
}
  0
DIMENSION
  5
1991D
330
747D
100
AcDbEntity
  8
寸法
 48
50.0
100
AcDbDimension
  2
*D36
 10
7872.216159445423
 20
3836.27062074814
 30
0.0
 11
8012.385982691789
 21
3837.237820587798
 31
0.0
 70
   160
 71
     5
 42
27.00000000000045
  3
INABA_S40G
100
AcDbAlignedDimension
 13
7584.673057123676
 23
3809.270620748139
 33
0.0
 14
7584.673057123676
 24
3836.27062074814
 34
0.0
 50
90.0
100
AcDbRotatedDimension
1001
ACAD
1000
DSTYLE
1002
{
1070
   279
1070
     2
1002
}
  0
DIMENSION
  5
1991E
330
747D
100
AcDbEntity
  8
寸法
 48
50.0
100
AcDbDimension
  2
*D37
 10
7872.216159445423
 20
3809.270620748139
 30
0.0
 11
7772.216159445422
 21
2985.27062074814
 31
0.0
 70
    32
  1
有効開口部高サ <>
 71
     5
 42
1648.0
  3
INABA_S40G
100
AcDbAlignedDimension
 13
7584.673057123676
 23
2161.270620748139
 33
0.0
 14
7584.673057123676
 24
3809.270620748139
 34
0.0
 50
90.0
100
AcDbRotatedDimension
  0
TEXT
  5
19A43
330
747D
100
AcDbEntity
  8
文字
 62
     7
 48
50.0
100
AcDbText
 10
13583.11819016569
 20
10760.01374588372
 30
0.0
 40
100.0
  1
柱
  7
STYLE1
100
AcDbText
  0
TEXT
  5
19A44
330
747D
100
AcDbEntity
  8
文字
 62
     7
 48
50.0
100
AcDbText
 10
15022.63965474517
 20
10760.01374588372
 30
0.0
 40
100.0
  1
F12         1.0,1.2
  7
STYLE1
100
AcDbText
  0
LINE
  5
19A4D
330
747D
100
AcDbEntity
  8
仕様書枠
 48
50.0
100
AcDbLine
 10
16307.19999999998
 20
8689.6
 30
0.0
 11
13127.19999999999
 21
8689.600000000003
 31
0.0
  0
TEXT
  5
19A51
330
747D
100
AcDbEntity
  8
文字
 62
     7
 48
50.0
100
AcDbText
 10
15022.63965474516
 20
9060.013745883727
 30
0.0
 40
100.0
  1
F12            0.7
  7
STYLE1
100
AcDbText
  0
LINE
  5
19A53
330
747D
100
AcDbEntity
  8
破線
 48
10.0
100
AcDbLine
 10
5374.673057123676
 20
1886.270620748138
 30
0.0
 11
5374.673057123676
 21
1811.270620748139
 31
0.0
  0
LINE
  5
19A54
330
747D
100
AcDbEntity
  8
破線
 48
5.0
100
AcDbLine
 10
5324.673057123676
 20
1811.270620748139
 30
0.0
 11
5424.673057123676
 21
1811.270620748139
 31
0.0
  0
ENDSEC
  0
SECTION
  2
OBJECTS
  0
DICTIONARY
  5
7471
330
0
100
AcDbDictionary
281
     1
  3
ACAD_COLOR
350
17AE2
  3
ACAD_GROUP
350
7472
  3
ACAD_LAYOUT
350
17AE3
  3
ACAD_MATERIAL
350
17AE1
  3
ACAD_MLINESTYLE
350
7473
  3
ACAD_PLOTSETTINGS
350
17AE4
  3
ACAD_PLOTSTYLENAME
350
17ADF
  3
ACDBHEADERROUNDTRIPXREC
350
19AD1
  3
AcDbVariableDictionary
350
19ACD
  3
CONTENTDICTIONARY
350
E71C
  3
DRAWINGVARIABLESDICT
350
F3B9
  0
DICTIONARY
  5
18794
330
7467
100
AcDbDictionary
280
     1
281
     1
  3
ACAD_LAYERSTATES
360
18795
  0
DICTIONARY
  5
17AE2
102
{ACAD_REACTORS
330
7471
102
}
330
7471
100
AcDbDictionary
281
     1
  0
DICTIONARY
  5
7472
102
{ACAD_REACTORS
330
7471
102
}
330
7471
100
AcDbDictionary
281
     1
  3
*A1
350
17FA7
  3
*A2
350
180C7
  3
*A3
350
180D2
  0
DICTIONARY
  5
17AE3
102
{ACAD_REACTORS
330
7471
102
}
330
7471
100
AcDbDictionary
281
     1
  3
Model
350
17AE5
  3
レイアウト1
350
17AE6
  0
DICTIONARY
  5
17AE1
102
{ACAD_REACTORS
330
7471
102
}
330
7471
100
AcDbDictionary
281
     1
  0
DICTIONARY
  5
7473
102
{ACAD_REACTORS
330
7471
102
}
330
7471
100
AcDbDictionary
281
     1
  3
STANDARD
350
7480
  0
DICTIONARY
  5
17AE4
102
{ACAD_REACTORS
330
7471
102
}
330
7471
100
AcDbDictionary
281
     1
  0
ACDBDICTIONARYWDFLT
  5
17ADF
102
{ACAD_REACTORS
330
7471
102
}
330
7471
100
AcDbDictionary
281
     1
  3
Normal
350
17AE0
100
AcDbDictionaryWithDefault
340
17AE0
  0
DICTIONARY
  5
19AD1
102
{ACAD_REACTORS
330
7471
102
}
330
7471
100
AcDbDictionary
281
     1
  3
COLORDICT
350
19AD3
  3
MATERIALDICT
350
19AD2
  0
DICTIONARY
  5
19ACD
102
{ACAD_REACTORS
330
7471
102
}
330
7471
100
AcDbDictionary
281
     1
  3
DIMASSOC
350
19ACE
  3
PROJECTNAME
350
19ACF
  0
DICTIONARY
  5
E71C
102
{ACAD_REACTORS
330
7471
102
}
330
7471
100
AcDbDictionary
281
     1
  0
DICTIONARY
  5
F3B9
102
{ACAD_REACTORS
330
7471
102
}
330
7471
100
AcDbDictionary
281
     1
1001
DRAWINGVARIABLESXDATA
1000
POLARMODE
1000
1
  0
DICTIONARY
  5
18795
102
{ACAD_REACTORS
330
18794
102
}
330
18794
100
AcDbDictionary
281
     1
  0
GROUP
  5
17FA7
102
{ACAD_REACTORS
330
7472
102
}
330
7472
100
AcDbGroup
300

 70
     1
 71
     1
  0
GROUP
  5
180C7
102
{ACAD_REACTORS
330
7472
102
}
330
7472
100
AcDbGroup
300

 70
     1
 71
     1
  0
GROUP
  5
180D2
102
{ACAD_REACTORS
330
7472
102
}
330
7472
100
AcDbGroup
300

 70
     1
 71
     1
  0
LAYOUT
  5
17AE5
102
{ACAD_XDICTIONARY
360
19AD4
102
}
102
{ACAD_REACTORS
330
17AE3
102
}
330
17AE3
100
AcDbPlotSettings
  1

  2
Canon iR C3880/C4580 LIPSLX
  4
A3
  6

 40
5.873749732971191
 41
5.873747825622558
 42
5.873748779296875
 43
5.873748779296875
 44
296.9259948730469
 45
419.9466552734374
 46
0.0
 47
0.0
 48
0.0
 49
0.0
140
0.0
141
0.0
142
1.0
143
40.0
 70
 11952
 72
     1
 73
     1
 74
     2
  7
inaba.ctb
 75
    24
147
0.025
148
0.0
149
0.0
100
AcDbLayout
  1
Model
 70
     1
 71
     0
 10
0.0
 20
0.0
 11
12.0
 21
9.0
 12
0.0
 22
0.0
 32
0.0
 14
0.0
 24
0.0
 34
0.0
 15
0.0
 25
0.0
 35
0.0
146
0.0
 13
0.0
 23
0.0
 33
0.0
 16
1.0
 26
0.0
 36
0.0
 17
0.0
 27
1.0
 37
0.0
 76
     0
330
747D
  0
LAYOUT
  5
17AE6
102
{ACAD_XDICTIONARY
360
19AD6
102
}
102
{ACAD_REACTORS
330
17AE3
102
}
330
17AE3
100
AcDbPlotSettings
  1

  2
EPSON LP-8300
  4

  6

 40
0.0
 41
0.0
 42
0.0
 43
0.0
 44
0.0
 45
0.0
 46
0.0
 47
0.0
 48
0.0
 49
0.0
140
0.0
141
0.0
142
1.0
143
1.0
 70
   688
 72
     0
 73
     0
 74
     5
  7
inaba.ctb
 75
    16
147
1.0
148
0.0
149
0.0
100
AcDbLayout
  1
レイアウト1
 70
     0
 71
     1
 10
0.0
 20
0.0
 11
420.0
 21
297.0
 12
0.0
 22
0.0
 32
0.0
 14
1.000000000000000E+20
 24
1.000000000000000E+20
 34
1.000000000000000E+20
 15
-1.000000000000000E+20
 25
-1.000000000000000E+20
 35
-1.000000000000000E+20
146
0.0
 13
0.0
 23
0.0
 33
0.0
 16
1.0
 26
0.0
 36
0.0
 17
0.0
 27
1.0
 37
0.0
 76
     0
330
747A
  0
MLINESTYLE
  5
7480
102
{ACAD_REACTORS
330
7473
102
}
330
7473
100
AcDbMlineStyle
  2
STANDARD
 70
     0
  3

 62
     0
 51
90.0
 52
90.0
 71
     2
 49
0.5
 62
   256
  6
BYLAYER
 49
-0.5
 62
   256
  6
BYLAYER
  0
ACDBPLACEHOLDER
  5
17AE0
102
{ACAD_REACTORS
330
17ADF
102
}
330
17ADF
  0
XRECORD
  5
19AD3
102
{ACAD_REACTORS
330
19AD1
102
}
330
19AD1
100
AcDbXrecord
280
     1
340
17AE2
  0
XRECORD
  5
19AD2
102
{ACAD_REACTORS
330
19AD1
102
}
330
19AD1
100
AcDbXrecord
280
     1
340
17AE1
  0
DICTIONARYVAR
  5
19ACE
102
{ACAD_REACTORS
330
19ACD
102
}
330
19ACD
100
DictionaryVariables
280
     0
  1
1
  0
DICTIONARYVAR
  5
19ACF
102
{ACAD_REACTORS
330
19ACD
102
}
330
19ACD
100
DictionaryVariables
280
     0
  1

  0
DICTIONARY
  5
19AD4
330
17AE5
100
AcDbDictionary
280
     1
281
     1
  3
ACAD_XREC_ROUNDTRIP
360
19AD5
  0
DICTIONARY
  5
19AD6
330
17AE6
100
AcDbDictionary
280
     1
281
     1
  3
ACAD_XREC_ROUNDTRIP
360
19AD7
  0
XRECORD
  5
19AD5
102
{ACAD_REACTORS
330
19AD4
102
}
330
19AD4
100
AcDbXrecord
280
     1
102
SHADEPLOT
 70
     0
102
SHADEPLOTRESLEVEL
 70
     2
102
SHADEPLOTCUSTOMDPI
 70
   300
  0
XRECORD
  5
19AD7
102
{ACAD_REACTORS
330
19AD6
102
}
330
19AD6
100
AcDbXrecord
280
     1
102
SHADEPLOT
 70
     0
102
SHADEPLOTRESLEVEL
 70
     2
102
SHADEPLOTCUSTOMDPI
 70
   300
  0
ENDSEC
  0
EOF
