  0
SECTION
  2
HEADER
  9
$ACADVER
  1
AC1015
  9
$ACADMAINTVER
 70
    20
  9
$DWGCODEPAGE
  3
ANSI_932
  9
$INSBASE
 10
0.0
 20
0.0
 30
0.0
  9
$EXTMIN
 10
139.9999999999995
 20
-0.0000000000000909
 30
0.0
  9
$EXTMAX
 10
16307.2
 20
11409.6
 30
0.0
  9
$LIMMIN
 10
0.0
 20
0.0
  9
$LIMMAX
 10
16800.0
 20
11880.0
  9
$ORTHOMODE
 70
     0
  9
$REGENMODE
 70
     1
  9
$FILLMODE
 70
     1
  9
$QTEXTMODE
 70
     0
  9
$MIRRTEXT
 70
     1
  9
$LTSCALE
 40
20.0
  9
$ATTMODE
 70
     1
  9
$TEXTSIZE
 40
3.5
  9
$TRACEWID
 40
1.0
  9
$TEXTSTYLE
  7
MSGOTHIC
  9
$CLAYER
  8
部品1
  9
$CELTYPE
  6
BYLAYER
  9
$CECOLOR
 62
   256
  9
$CELTSCALE
 40
50.0
  9
$DISPSILH
 70
     0
  9
$DIMSCALE
 40
40.0
  9
$DIMASZ
 40
2.5
  9
$DIMEXO
 40
0.5
  9
$DIMDLI
 40
7.0
  9
$DIMRND
 40
0.0
  9
$DIMDLE
 40
0.0
  9
$DIMEXE
 40
1.5
  9
$DIMTP
 40
0.0
  9
$DIMTM
 40
0.0
  9
$DIMTXT
 40
3.0
  9
$DIMCEN
 40
0.0
  9
$DIMTSZ
 40
0.0
  9
$DIMTOL
 70
     0
  9
$DIMLIM
 70
     0
  9
$DIMTIH
 70
     0
  9
$DIMTOH
 70
     0
  9
$DIMSE1
 70
     0
  9
$DIMSE2
 70
     0
  9
$DIMTAD
 70
     3
  9
$DIMZIN
 70
     8
  9
$DIMBLK
  1

  9
$DIMASO
 70
     1
  9
$DIMSHO
 70
     1
  9
$DIMPOST
  1

  9
$DIMAPOST
  1

  9
$DIMALT
 70
     0
  9
$DIMALTD
 70
     2
  9
$DIMALTF
 40
0.0394
  9
$DIMLFAC
 40
1.0
  9
$DIMTOFL
 70
     1
  9
$DIMTVP
 40
0.0
  9
$DIMTIX
 70
     1
  9
$DIMSOXD
 70
     0
  9
$DIMSAH
 70
     1
  9
$DIMBLK1
  1
DOTSMALL
  9
$DIMBLK2
  1
DOTSMALL
  9
$DIMSTYLE
  2
INABA_S40G
  9
$DIMCLRD
 70
     0
  9
$DIMCLRE
 70
     0
  9
$DIMCLRT
 70
     7
  9
$DIMTFAC
 40
1.0
  9
$DIMGAP
 40
1.0
  9
$DIMJUST
 70
     0
  9
$DIMSD1
 70
     0
  9
$DIMSD2
 70
     0
  9
$DIMTOLJ
 70
     1
  9
$DIMTZIN
 70
     0
  9
$DIMALTZ
 70
     0
  9
$DIMALTTZ
 70
     0
  9
$DIMUPT
 70
     0
  9
$DIMDEC
 70
     1
  9
$DIMTDEC
 70
     4
  9
$DIMALTU
 70
     2
  9
$DIMALTTD
 70
     2
  9
$DIMTXSTY
  7
STYLE1
  9
$DIMAUNIT
 70
     0
  9
$DIMADEC
 70
     0
  9
$DIMALTRND
 40
0.0
  9
$DIMAZIN
 70
     0
  9
$DIMDSEP
 70
    46
  9
$DIMATFIT
 70
     3
  9
$DIMFRAC
 70
     0
  9
$DIMLDRBLK
  1

  9
$DIMLUNIT
 70
     2
  9
$DIMLWD
 70
    -2
  9
$DIMLWE
 70
    -2
  9
$DIMTMOVE
 70
     0
  9
$LUNITS
 70
     2
  9
$LUPREC
 70
     1
  9
$SKETCHINC
 40
1.0
  9
$FILLETRAD
 40
3.0
  9
$AUNITS
 70
     0
  9
$AUPREC
 70
     0
  9
$MENU
  1
acad
  9
$ELEVATION
 40
0.0
  9
$PELEVATION
 40
0.0
  9
$THICKNESS
 40
0.0
  9
$LIMCHECK
 70
     0
  9
$CHAMFERA
 40
0.0
  9
$CHAMFERB
 40
0.0
  9
$CHAMFERC
 40
0.0
  9
$CHAMFERD
 40
0.0
  9
$SKPOLY
 70
     0
  9
$TDCREATE
 40
2451368.612993866
  9
$TDUCREATE
 40
2451368.237993866
  9
$TDUPDATE
 40
2455569.644138449
  9
$TDUUPDATE
 40
2455569.269138449
  9
$TDINDWG
 40
0.6482873495
  9
$TDUSRTIMER
 40
0.6482873495
  9
$USRTIMER
 70
     1
  9
$ANGBASE
 50
0.0
  9
$ANGDIR
 70
     0
  9
$PDMODE
 70
     3
  9
$PDSIZE
 40
2.0
  9
$PLINEWID
 40
0.0
  9
$SPLFRAME
 70
     0
  9
$SPLINETYPE
 70
     6
  9
$SPLINESEGS
 70
     8
  9
$HANDSEED
  5
17AD9
  9
$SURFTAB1
 70
     6
  9
$SURFTAB2
 70
     6
  9
$SURFTYPE
 70
     6
  9
$SURFU
 70
     6
  9
$SURFV
 70
     6
  9
$UCSBASE
  2

  9
$UCSNAME
  2

  9
$UCSORG
 10
0.0
 20
0.0
 30
0.0
  9
$UCSXDIR
 10
1.0
 20
0.0
 30
0.0
  9
$UCSYDIR
 10
0.0
 20
1.0
 30
0.0
  9
$UCSORTHOREF
  2

  9
$UCSORTHOVIEW
 70
     0
  9
$UCSORGTOP
 10
0.0
 20
0.0
 30
0.0
  9
$UCSORGBOTTOM
 10
0.0
 20
0.0
 30
0.0
  9
$UCSORGLEFT
 10
0.0
 20
0.0
 30
0.0
  9
$UCSORGRIGHT
 10
0.0
 20
0.0
 30
0.0
  9
$UCSORGFRONT
 10
0.0
 20
0.0
 30
0.0
  9
$UCSORGBACK
 10
0.0
 20
0.0
 30
0.0
  9
$PUCSBASE
  2

  9
$PUCSNAME
  2

  9
$PUCSORG
 10
0.0
 20
0.0
 30
0.0
  9
$PUCSXDIR
 10
1.0
 20
0.0
 30
0.0
  9
$PUCSYDIR
 10
0.0
 20
1.0
 30
0.0
  9
$PUCSORTHOREF
  2

  9
$PUCSORTHOVIEW
 70
     0
  9
$PUCSORGTOP
 10
0.0
 20
0.0
 30
0.0
  9
$PUCSORGBOTTOM
 10
0.0
 20
0.0
 30
0.0
  9
$PUCSORGLEFT
 10
0.0
 20
0.0
 30
0.0
  9
$PUCSORGRIGHT
 10
0.0
 20
0.0
 30
0.0
  9
$PUCSORGFRONT
 10
0.0
 20
0.0
 30
0.0
  9
$PUCSORGBACK
 10
0.0
 20
0.0
 30
0.0
  9
$USERI1
 70
     0
  9
$USERI2
 70
     0
  9
$USERI3
 70
     0
  9
$USERI4
 70
     0
  9
$USERI5
 70
     0
  9
$USERR1
 40
0.0
  9
$USERR2
 40
0.0
  9
$USERR3
 40
0.0
  9
$USERR4
 40
0.0
  9
$USERR5
 40
0.0
  9
$WORLDVIEW
 70
     1
  9
$SHADEDGE
 70
     3
  9
$SHADEDIF
 70
    70
  9
$TILEMODE
 70
     1
  9
$MAXACTVP
 70
    16
  9
$PINSBASE
 10
0.0
 20
0.0
 30
0.0
  9
$PLIMCHECK
 70
     0
  9
$PEXTMIN
 10
1.000000000000000E+20
 20
1.000000000000000E+20
 30
1.000000000000000E+20
  9
$PEXTMAX
 10
-1.000000000000000E+20
 20
-1.000000000000000E+20
 30
-1.000000000000000E+20
  9
$PLIMMIN
 10
0.0
 20
0.0
  9
$PLIMMAX
 10
420.0
 20
297.0
  9
$UNITMODE
 70
     0
  9
$VISRETAIN
 70
     0
  9
$PLINEGEN
 70
     0
  9
$PSLTSCALE
 70
     0
  9
$TREEDEPTH
 70
  3020
  9
$CMLSTYLE
  2
STANDARD
  9
$CMLJUST
 70
     0
  9
$CMLSCALE
 40
1.0
  9
$PROXYGRAPHICS
 70
     1
  9
$MEASUREMENT
 70
     1
  9
$CELWEIGHT
370
    -1
  9
$ENDCAPS
280
     0
  9
$JOINSTYLE
280
     0
  9
$LWDISPLAY
290
     0
  9
$INSUNITS
 70
     0
  9
$HYPERLINKBASE
  1

  9
$STYLESHEET
  1
inaba.ctb
  9
$XEDIT
290
     1
  9
$CEPSNTYPE
380
     0
  9
$PSTYLEMODE
290
     1
  9
$FINGERPRINTGUID
  2
{7EF67755-B4CB-428E-86A3-555A86C44D7E}
  9
$VERSIONGUID
  2
{813983E6-9828-4EA1-829E-B84F38D4640F}
  9
$EXTNAMES
290
     1
  9
$PSVPSCALE
 40
0.0
  9
$OLESTARTUP
290
     0
  0
ENDSEC
  0
SECTION
  2
CLASSES
  0
CLASS
  1
ACDBDICTIONARYWDFLT
  2
AcDbDictionaryWithDefault
  3
ObjectDBX Classes
 90
        0
280
     0
281
     0
  0
CLASS
  1
DICTIONARYVAR
  2
AcDbDictionaryVar
  3
ObjectDBX Classes
 90
        0
280
     0
281
     0
  0
CLASS
  1
ACDBPLACEHOLDER
  2
AcDbPlaceHolder
  3
ObjectDBX Classes
 90
        0
280
     0
281
     0
  0
CLASS
  1
LAYOUT
  2
AcDbLayout
  3
ObjectDBX Classes
 90
        0
280
     0
281
     0
  0
ENDSEC
  0
SECTION
  2
TABLES
  0
TABLE
  2
VPORT
  5
746D
330
0
100
AcDbSymbolTable
 70
     2
  0
VPORT
  5
17AD1
330
746D
100
AcDbSymbolTableRecord
100
AcDbViewportTableRecord
  2
*Active
 70
     0
 10
0.0
 20
0.0
 11
1.0
 21
1.0
 12
11720.25903428193
 22
5704.513862896347
 13
0.0
 23
0.0
 14
10.0
 24
10.0
 15
10.0
 25
10.0
 16
0.0
 26
0.0
 36
1.0
 17
0.0
 27
0.0
 37
0.0
 40
11513.95019505916
 41
2.234800838574423
 42
50.0
 43
0.0
 44
0.0
 50
0.0
 51
0.0
 71
     0
 72
     0
 73
     1
 74
     0
 75
     0
 76
     0
 77
     0
 78
     0
281
     0
 65
     1
110
0.0
120
0.0
130
0.0
111
1.0
121
0.0
131
0.0
112
0.0
122
1.0
132
0.0
 79
     0
146
0.0
  0
ENDTAB
  0
TABLE
  2
LTYPE
  5
746A
330
0
100
AcDbSymbolTable
 70
     3
  0
LTYPE
  5
7477
330
746A
100
AcDbSymbolTableRecord
100
AcDbLinetypeTableRecord
  2
BYBLOCK
 70
     0
  3

 72
    65
 73
     0
 40
0.0
  0
LTYPE
  5
7478
330
746A
100
AcDbSymbolTableRecord
100
AcDbLinetypeTableRecord
  2
BYLAYER
 70
     0
  3

 72
    65
 73
     0
 40
0.0
  0
LTYPE
  5
7479
330
746A
100
AcDbSymbolTableRecord
100
AcDbLinetypeTableRecord
  2
CONTINUOUS
 70
     0
  3
Solid line
 72
    65
 73
     0
 40
0.0
  0
LTYPE
  5
781A
330
746A
100
AcDbSymbolTableRecord
100
AcDbLinetypeTableRecord
  2
HIDDEN
 70
     0
  3
__ __ __ __ __ __ __ __ __ __ __ __ __ __ __ __
 72
    65
 73
     2
 40
0.375
 49
0.25
 74
     0
 49
-0.125
 74
     0
  0
LTYPE
  5
781B
330
746A
100
AcDbSymbolTableRecord
100
AcDbLinetypeTableRecord
  2
PHANTOM
 70
     0
  3
______  __  __  ______  __  __  ______  __  __ 
 72
    65
 73
     6
 40
2.5
 49
1.25
 74
     0
 49
-0.25
 74
     0
 49
0.25
 74
     0
 49
-0.25
 74
     0
 49
0.25
 74
     0
 49
-0.25
 74
     0
  0
ENDTAB
  0
TABLE
  2
LAYER
  5
7467
102
{ACAD_XDICTIONARY
360
16F32
102
}
330
0
100
AcDbSymbolTable
 70
    10
  0
LAYER
  5
7474
330
7467
100
AcDbSymbolTableRecord
100
AcDbLayerTableRecord
  2
0
 70
     0
 62
     7
  6
CONTINUOUS
370
    -3
390
16603
  0
LAYER
  5
DEB3
330
7467
100
AcDbSymbolTableRecord
100
AcDbLayerTableRecord
  2
寸法
 70
     0
 62
     4
  6
CONTINUOUS
370
    -3
390
16603
  0
LAYER
  5
DEB4
330
7467
100
AcDbSymbolTableRecord
100
AcDbLayerTableRecord
  2
部品1
 70
     0
 62
     7
  6
CONTINUOUS
370
    -3
390
16603
  0
LAYER
  5
DEB5
330
7467
100
AcDbSymbolTableRecord
100
AcDbLayerTableRecord
  2
補助
 70
     0
 62
    -1
  6
CONTINUOUS
370
    -3
390
16603
  0
LAYER
  5
DEB6
330
7467
100
AcDbSymbolTableRecord
100
AcDbLayerTableRecord
  2
文字
 70
     0
 62
     7
  6
CONTINUOUS
370
    -3
390
16603
  0
LAYER
  5
F255
330
7467
100
AcDbSymbolTableRecord
100
AcDbLayerTableRecord
  2
DEFPOINTS
 70
     0
 62
     7
  6
CONTINUOUS
290
     0
370
    -3
390
16603
  0
LAYER
  5
10B54
330
7467
100
AcDbSymbolTableRecord
100
AcDbLayerTableRecord
  2
仕様書枠
 70
     0
 62
   230
  6
CONTINUOUS
370
    -3
390
16603
  0
LAYER
  5
11729
330
7467
100
AcDbSymbolTableRecord
100
AcDbLayerTableRecord
  2
Ｇ．Ｌ
 70
     0
 62
    30
  6
CONTINUOUS
370
    -3
390
16603
  0
LAYER
  5
1173F
330
7467
100
AcDbSymbolTableRecord
100
AcDbLayerTableRecord
  2
細線
 70
     0
 62
     5
  6
CONTINUOUS
370
    -3
390
16603
  0
LAYER
  5
142E2
330
7467
100
AcDbSymbolTableRecord
100
AcDbLayerTableRecord
  2
破線
 70
     0
 62
     2
  6
HIDDEN
370
    -3
390
16603
  0
ENDTAB
  0
TABLE
  2
STYLE
  5
7468
330
0
100
AcDbSymbolTable
 70
     6
  0
STYLE
  5
7475
330
7468
100
AcDbSymbolTableRecord
100
AcDbTextStyleTableRecord
  2
STANDARD
 70
     0
 40
0.0
 41
1.0
 50
0.0
 71
     0
 42
4.0
  3
txt
  4
C:\AutoCAD LT\bigfont.shx
  0
STYLE
  5
763C
330
7468
100
AcDbSymbolTableRecord
100
AcDbTextStyleTableRecord
  2
MSMINCHO
 70
     0
 40
0.0
 41
1.0
 50
0.0
 71
     0
 42
1.199999999999999
  3
C:\AutoCAD LT\msminch2.TTF
  4

  0
STYLE
  5
F706
330
7468
100
AcDbSymbolTableRecord
100
AcDbTextStyleTableRecord
  2
STYLE1
 70
     0
 40
0.0
 41
1.0
 50
0.0
 71
     0
 42
4.0
  3
isocp.shx
  4
bigfont.shx
  0
STYLE
  5
103BF
330
7468
100
AcDbSymbolTableRecord
100
AcDbTextStyleTableRecord
  2
STYLE2
 70
     0
 40
0.0
 41
1.0
 50
0.0
 71
     0
 42
100.0
  3
MS PGothic.ttf
  4

1001
ACAD
1000
MS PGothic
1071
    32818
  0
STYLE
  5
10BAA
330
7468
100
AcDbSymbolTableRecord
100
AcDbTextStyleTableRecord
  2
STYLE3
 70
     0
 40
0.0
 41
1.0
 50
0.0
 71
     0
 42
100.0
  3
DFPGothic-EB.ttf
  4

1001
ACAD
1000
DFPGothic-EB
1071
    32818
  0
STYLE
  5
11A15
330
7468
100
AcDbSymbolTableRecord
100
AcDbTextStyleTableRecord
  2
MSGOTHIC
 70
     0
 40
0.0
 41
1.0
 50
0.0
 71
     0
 42
3.5
  3
MS PGothic.ttf
  4

1001
ACAD
1000
MS PGothic
1071
    32818
  0
ENDTAB
  0
TABLE
  2
VIEW
  5
746B
330
0
100
AcDbSymbolTable
 70
     0
  0
ENDTAB
  0
TABLE
  2
UCS
  5
746C
330
0
100
AcDbSymbolTable
 70
     0
  0
ENDTAB
  0
TABLE
  2
APPID
  5
746E
330
0
100
AcDbSymbolTable
 70
     6
  0
APPID
  5
7476
330
746E
100
AcDbSymbolTableRecord
100
AcDbRegAppTableRecord
  2
ACAD
 70
     0
  0
APPID
  5
DEA9
330
746E
100
AcDbSymbolTableRecord
100
AcDbRegAppTableRecord
  2
CONTENTBLOCKICON
 70
     0
  0
APPID
  5
DEAA
330
746E
100
AcDbSymbolTableRecord
100
AcDbRegAppTableRecord
  2
CONTENTBLOCKDESCRIPTION
 70
     0
  0
APPID
  5
E71D
330
746E
100
AcDbSymbolTableRecord
100
AcDbRegAppTableRecord
  2
CONTENTTABDATA
 70
     0
  0
APPID
  5
E71E
330
746E
100
AcDbSymbolTableRecord
100
AcDbRegAppTableRecord
  2
CONTENTCURRENTTAB
 70
     0
  0
APPID
  5
F3BA
330
746E
100
AcDbSymbolTableRecord
100
AcDbRegAppTableRecord
  2
DRAWINGVARIABLESXDATA
 70
     0
  0
ENDTAB
  0
TABLE
  2
DIMSTYLE
  5
746F
330
0
100
AcDbSymbolTable
 70
     1
100
AcDbDimStyleTable
 71
     1
340
F71F
  0
DIMSTYLE
105
F71F
102
{ACAD_REACTORS
330
163BA
330
163BB
330
163BC
330
163BD
330
163D1
330
163D4
330
163D7
330
163D8
330
163EE
330
163EF
330
1640C
330
1640D
330
16420
330
1711F
330
1712E
330
1713C
330
1713D
330
1713E
330
17142
330
17172
330
17173
330
17174
330
176DC
330
176DD
330
176DA
330
1777F
330
17949
330
1794A
330
1794B
102
}
330
746F
100
AcDbSymbolTableRecord
100
AcDbDimStyleTableRecord
  2
INABA_S40G
 70
     0
 40
40.0
 41
2.5
 42
0.5
 43
7.0
 44
1.5
 73
     0
 74
     0
 77
     3
 78
     8
140
3.0
141
0.0
143
0.0394
147
1.0
172
     1
173
     1
174
     1
178
     7
271
     1
340
F706
341
F770
343
F770
344
F770
  0
ENDTAB
  0
TABLE
  2
BLOCK_RECORD
  5
7466
330
0
100
AcDbSymbolTable
 70
    30
  0
BLOCK_RECORD
  5
747D
330
7466
100
AcDbSymbolTableRecord
100
AcDbBlockTableRecord
  2
*MODEL_SPACE
340
16608
  0
BLOCK_RECORD
  5
747A
330
7466
100
AcDbSymbolTableRecord
100
AcDbBlockTableRecord
  2
*PAPER_SPACE
340
16609
  0
BLOCK_RECORD
  5
F770
330
7466
100
AcDbSymbolTableRecord
100
AcDbBlockTableRecord
  2
_DOTSMALL
340
0
102
{BLKREFS
331
16B6C
331
16B6D
331
16B77
331
16B78
331
16B80
331
16B81
331
16B8B
331
16B8C
331
16B97
331
16B98
331
16BA2
331
16BA3
331
16BAC
331
16BAD
331
16BB5
331
16BB6
331
16BBD
331
16BBE
331
16BC6
331
16BC7
331
16BD1
331
16BD2
331
16BDC
331
16BDD
331
16BE5
331
16BE6
331
17674
331
17675
331
1767D
331
1767E
331
17686
331
17687
331
17691
331
17692
331
176A5
331
176A6
331
176B8
331
176B9
331
176C2
331
176C3
331
17770
331
17771
331
1779D
331
1779E
331
177B9
331
177BA
331
177C2
331
177C3
331
17A3E
331
17A3F
331
17A99
331
17A9A
331
17AA2
331
17AA3
331
17AB8
331
17AB9
331
17AC1
331
17AC2
102
}
  0
BLOCK_RECORD
  5
16425
330
7466
100
AcDbSymbolTableRecord
100
AcDbBlockTableRecord
  2
*D1
340
0
  0
BLOCK_RECORD
  5
16431
330
7466
100
AcDbSymbolTableRecord
100
AcDbBlockTableRecord
  2
*D2
340
0
  0
BLOCK_RECORD
  5
1643F
330
7466
100
AcDbSymbolTableRecord
100
AcDbBlockTableRecord
  2
*D3
340
0
  0
BLOCK_RECORD
  5
1644D
330
7466
100
AcDbSymbolTableRecord
100
AcDbBlockTableRecord
  2
*D4
340
0
  0
BLOCK_RECORD
  5
16471
330
7466
100
AcDbSymbolTableRecord
100
AcDbBlockTableRecord
  2
*D5
340
0
  0
BLOCK_RECORD
  5
1647C
330
7466
100
AcDbSymbolTableRecord
100
AcDbBlockTableRecord
  2
*D6
340
0
  0
BLOCK_RECORD
  5
16488
330
7466
100
AcDbSymbolTableRecord
100
AcDbBlockTableRecord
  2
*D7
340
0
  0
BLOCK_RECORD
  5
16496
330
7466
100
AcDbSymbolTableRecord
100
AcDbBlockTableRecord
  2
*D8
340
0
  0
BLOCK_RECORD
  5
164A5
330
7466
100
AcDbSymbolTableRecord
100
AcDbBlockTableRecord
  2
*D9
340
0
  0
BLOCK_RECORD
  5
164B4
330
7466
100
AcDbSymbolTableRecord
100
AcDbBlockTableRecord
  2
*D10
340
0
  0
BLOCK_RECORD
  5
164CE
330
7466
100
AcDbSymbolTableRecord
100
AcDbBlockTableRecord
  2
*D11
340
0
  0
BLOCK_RECORD
  5
164DA
330
7466
100
AcDbSymbolTableRecord
100
AcDbBlockTableRecord
  2
*D12
340
0
  0
BLOCK_RECORD
  5
164E8
330
7466
100
AcDbSymbolTableRecord
100
AcDbBlockTableRecord
  2
*D13
340
0
  0
BLOCK_RECORD
  5
172A8
330
7466
100
AcDbSymbolTableRecord
100
AcDbBlockTableRecord
  2
*D14
340
0
  0
BLOCK_RECORD
  5
172B5
330
7466
100
AcDbSymbolTableRecord
100
AcDbBlockTableRecord
  2
*D15
340
0
  0
BLOCK_RECORD
  5
172C2
330
7466
100
AcDbSymbolTableRecord
100
AcDbBlockTableRecord
  2
*D16
340
0
  0
BLOCK_RECORD
  5
172CE
330
7466
100
AcDbSymbolTableRecord
100
AcDbBlockTableRecord
  2
*D17
340
0
  0
BLOCK_RECORD
  5
172DC
330
7466
100
AcDbSymbolTableRecord
100
AcDbBlockTableRecord
  2
*D18
340
0
  0
BLOCK_RECORD
  5
172E8
330
7466
100
AcDbSymbolTableRecord
100
AcDbBlockTableRecord
  2
*D19
340
0
  0
BLOCK_RECORD
  5
172F6
330
7466
100
AcDbSymbolTableRecord
100
AcDbBlockTableRecord
  2
*D20
340
0
  0
BLOCK_RECORD
  5
17302
330
7466
100
AcDbSymbolTableRecord
100
AcDbBlockTableRecord
  2
*D21
340
0
  0
BLOCK_RECORD
  5
1730E
330
7466
100
AcDbSymbolTableRecord
100
AcDbBlockTableRecord
  2
*D22
340
0
  0
BLOCK_RECORD
  5
17723
330
7466
100
AcDbSymbolTableRecord
100
AcDbBlockTableRecord
  2
*D23
340
0
  0
BLOCK_RECORD
  5
1773D
330
7466
100
AcDbSymbolTableRecord
100
AcDbBlockTableRecord
  2
*D24
340
0
  0
BLOCK_RECORD
  5
1774B
330
7466
100
AcDbSymbolTableRecord
100
AcDbBlockTableRecord
  2
*D25
340
0
  0
BLOCK_RECORD
  5
1778A
330
7466
100
AcDbSymbolTableRecord
100
AcDbBlockTableRecord
  2
*D26
340
0
  0
BLOCK_RECORD
  5
179B9
330
7466
100
AcDbSymbolTableRecord
100
AcDbBlockTableRecord
  2
*D27
340
0
  0
BLOCK_RECORD
  5
179C6
330
7466
100
AcDbSymbolTableRecord
100
AcDbBlockTableRecord
  2
*D28
340
0
  0
BLOCK_RECORD
  5
179D4
330
7466
100
AcDbSymbolTableRecord
100
AcDbBlockTableRecord
  2
*D29
340
0
  0
ENDTAB
  0
ENDSEC
  0
SECTION
  2
BLOCKS
  0
BLOCK
  5
7489
330
747D
100
AcDbEntity
  8
0
100
AcDbBlockBegin
  2
*MODEL_SPACE
 70
     0
 10
0.0
 20
0.0
 30
0.0
  3
*MODEL_SPACE
  1

  0
ENDBLK
  5
748A
330
747D
100
AcDbEntity
  8
0
100
AcDbBlockEnd
  0
BLOCK
  5
7487
330
747A
100
AcDbEntity
 67
     1
  8
0
100
AcDbBlockBegin
  2
*PAPER_SPACE
 70
     0
 10
0.0
 20
0.0
 30
0.0
  3
*PAPER_SPACE
  1

  0
ENDBLK
  5
7488
330
747A
100
AcDbEntity
 67
     1
  8
0
100
AcDbBlockEnd
  0
BLOCK
  5
F771
330
F770
100
AcDbEntity
  8
0
 48
50.0
100
AcDbBlockBegin
  2
_DOTSMALL
 70
     0
 10
0.0
 20
0.0
 30
0.0
  3
_DOTSMALL
  1

  0
LWPOLYLINE
  5
F772
330
F770
100
AcDbEntity
  8
0
  6
ByBlock
 62
     0
 48
50.0
100
AcDbPolyline
 90
        2
 70
     1
 43
0.5
 10
-0.0625
 20
0.0
 42
1.0
 10
0.0625
 20
0.0
 42
1.0
  0
ENDBLK
  5
F776
330
F770
100
AcDbEntity
  8
0
 48
50.0
100
AcDbBlockEnd
  0
BLOCK
  5
165CD
330
16425
100
AcDbEntity
  8
0
 48
50.0
100
AcDbBlockBegin
  2
*D1
 70
     1
 10
0.0
 20
0.0
 30
0.0
  3
*D1
  1

  0
LINE
  5
16BE2
330
16425
100
AcDbEntity
  8
寸法
 62
     0
 48
50.0
370
    -2
100
AcDbLine
 10
7394.673057123664
 20
9853.5762348529
 30
0.0
 11
8082.099402858069
 21
9853.5762348529
 31
0.0
  0
LINE
  5
16BE3
330
16425
100
AcDbEntity
  8
寸法
 62
     0
 48
50.0
370
    -2
100
AcDbLine
 10
7394.673057123639
 20
7333.576234852884
 30
0.0
 11
8082.099402858069
 21
7333.576234852884
 31
0.0
  0
LINE
  5
16BE4
330
16425
100
AcDbEntity
  8
寸法
 62
     0
 48
50.0
370
    -2
100
AcDbLine
 10
8022.099402858071
 20
9853.5762348529
 30
0.0
 11
8022.099402858071
 21
7333.576234852884
 31
0.0
  0
INSERT
  5
16BE5
330
16425
100
AcDbEntity
  8
寸法
 62
     0
 48
50.0
370
    -2
100
AcDbBlockReference
  2
_DOTSMALL
 10
8022.099402858071
 20
9853.5762348529
 30
0.0
 41
100.0
 42
100.0
 43
100.0
 50
90.0
  0
INSERT
  5
16BE6
330
16425
100
AcDbEntity
  8
寸法
 62
     0
 48
50.0
370
    -2
100
AcDbBlockReference
  2
_DOTSMALL
 10
8022.099402858071
 20
7333.576234852884
 30
0.0
 41
100.0
 42
100.0
 43
100.0
 50
270.0
  0
MTEXT
  5
16BE7
330
16425
100
AcDbEntity
  8
寸法
 62
     7
 48
50.0
100
AcDbMText
 10
7922.087591834447
 20
8593.576234852895
 30
0.0
 40
120.0
 41
0.0
 71
     5
 72
     1
  1
\A1;6X420=2520
  7
STYLE1
 11
0.0000000000000001
 21
1.0
 31
0.0
 73
     1
 44
1.0
1001
ACAD
1000
MTEXTBEGIN
1070
    73
1070
     1
1070
    44
1040
1.0
1070
    74
1070
     0
1000
MTEXTEND
  0
POINT
  5
16BE8
330
16425
100
AcDbEntity
  8
DEFPOINTS
 62
     0
 48
50.0
100
AcDbPoint
 10
7374.673057123664
 20
9853.5762348529
 30
0.0
  0
POINT
  5
16BE9
330
16425
100
AcDbEntity
  8
DEFPOINTS
 62
     0
 48
50.0
100
AcDbPoint
 10
7374.673057123638
 20
7333.576234852884
 30
0.0
  0
POINT
  5
16BEA
330
16425
100
AcDbEntity
  8
DEFPOINTS
 62
     0
 48
50.0
100
AcDbPoint
 10
8022.099402858071
 20
7333.576234852884
 30
0.0
  0
ENDBLK
  5
165D7
330
16425
100
AcDbEntity
  8
0
 48
50.0
100
AcDbBlockEnd
  0
BLOCK
  5
16501
330
16431
100
AcDbEntity
  8
0
 48
50.0
100
AcDbBlockBegin
  2
*D2
 70
     1
 10
0.0
 20
0.0
 30
0.0
  3
*D2
  1

  0
LINE
  5
16BD7
330
16431
100
AcDbEntity
  8
寸法
 62
     0
 48
50.0
370
    -2
100
AcDbLine
 10
7394.673057123639
 20
7333.576234852884
 30
0.0
 11
8082.09940285805
 21
7333.576234852884
 31
0.0
  0
LINE
  5
16BD8
330
16431
100
AcDbEntity
  8
寸法
 62
     0
 48
50.0
370
    -2
100
AcDbLine
 10
7394.673057123639
 20
7278.576234852888
 30
0.0
 11
8082.09940285805
 21
7278.576234852888
 31
0.0
  0
LINE
  5
16BD9
330
16431
100
AcDbEntity
  8
寸法
 62
     0
 48
50.0
370
    -2
100
AcDbLine
 10
8022.099402858051
 20
7333.576234852884
 30
0.0
 11
8022.099402858051
 21
7433.576234852885
 31
0.0
  0
LINE
  5
16BDA
330
16431
100
AcDbEntity
  8
寸法
 62
     0
 48
50.0
370
    -2
100
AcDbLine
 10
8022.099402858051
 20
7278.576234852888
 30
0.0
 11
8022.099402858051
 21
6792.229486573785
 31
0.0
  0
LINE
  5
16BDB
330
16431
100
AcDbEntity
  8
寸法
 62
     0
 48
50.0
370
    -2
100
AcDbLine
 10
8022.099402858051
 20
7333.576234852884
 30
0.0
 11
8022.099402858051
 21
7278.576234852888
 31
0.0
  0
INSERT
  5
16BDC
330
16431
100
AcDbEntity
  8
寸法
 62
     0
 48
50.0
370
    -2
100
AcDbBlockReference
  2
_DOTSMALL
 10
8022.099402858051
 20
7333.576234852884
 30
0.0
 41
100.0
 42
100.0
 43
100.0
 50
270.0
  0
INSERT
  5
16BDD
330
16431
100
AcDbEntity
  8
寸法
 62
     0
 48
50.0
370
    -2
100
AcDbBlockReference
  2
_DOTSMALL
 10
8022.099402858051
 20
7278.576234852888
 30
0.0
 41
100.0
 42
100.0
 43
100.0
 50
90.0
  0
MTEXT
  5
16BDE
330
16431
100
AcDbEntity
  8
寸法
 62
     7
 48
50.0
100
AcDbMText
 10
7922.099402858048
 20
6900.714767948025
 30
0.0
 40
120.0
 41
0.0
 71
     5
 72
     1
  1
\A1;55
  7
STYLE1
 11
0.0000000000000001
 21
1.0
 31
0.0
 73
     1
 44
1.0
1001
ACAD
1000
MTEXTBEGIN
1070
    73
1070
     1
1070
    44
1040
1.0
1070
    74
1070
     0
1000
MTEXTEND
  0
POINT
  5
16BDF
330
16431
100
AcDbEntity
  8
DEFPOINTS
 62
     0
 48
50.0
100
AcDbPoint
 10
7374.673057123638
 20
7333.576234852884
 30
0.0
  0
POINT
  5
16BE0
330
16431
100
AcDbEntity
  8
DEFPOINTS
 62
     0
 48
50.0
100
AcDbPoint
 10
7374.673057123638
 20
7278.576234852888
 30
0.0
  0
POINT
  5
16BE1
330
16431
100
AcDbEntity
  8
DEFPOINTS
 62
     0
 48
50.0
100
AcDbPoint
 10
8022.099402858051
 20
7278.576234852888
 30
0.0
  0
ENDBLK
  5
1650D
330
16431
100
AcDbEntity
  8
0
 48
50.0
100
AcDbBlockEnd
  0
BLOCK
  5
1650E
330
1643F
100
AcDbEntity
  8
0
 48
50.0
100
AcDbBlockBegin
  2
*D3
 70
     1
 10
0.0
 20
0.0
 30
0.0
  3
*D3
  1

  0
LINE
  5
16BCC
330
1643F
100
AcDbEntity
  8
寸法
 62
     0
 48
50.0
370
    -2
100
AcDbLine
 10
7394.673057123664
 20
9908.576234852896
 30
0.0
 11
8082.099402858075
 21
9908.576234852896
 31
0.0
  0
LINE
  5
16BCD
330
1643F
100
AcDbEntity
  8
寸法
 62
     0
 48
50.0
370
    -2
100
AcDbLine
 10
7394.673057123664
 20
9853.5762348529
 30
0.0
 11
8082.099402858075
 21
9853.5762348529
 31
0.0
  0
LINE
  5
16BCE
330
1643F
100
AcDbEntity
  8
寸法
 62
     0
 48
50.0
370
    -2
100
AcDbLine
 10
8022.099402858074
 20
9853.5762348529
 30
0.0
 11
8022.099402858074
 21
9753.5762348529
 31
0.0
  0
LINE
  5
16BCF
330
1643F
100
AcDbEntity
  8
寸法
 62
     0
 48
50.0
370
    -2
100
AcDbLine
 10
8022.099402858074
 20
9908.576234852896
 30
0.0
 11
8022.099402858076
 21
10325.54679760137
 31
0.0
  0
LINE
  5
16BD0
330
1643F
100
AcDbEntity
  8
寸法
 62
     0
 48
50.0
370
    -2
100
AcDbLine
 10
8022.099402858074
 20
9853.5762348529
 30
0.0
 11
8022.099402858074
 21
9908.576234852896
 31
0.0
  0
INSERT
  5
16BD1
330
1643F
100
AcDbEntity
  8
寸法
 62
     0
 48
50.0
370
    -2
100
AcDbBlockReference
  2
_DOTSMALL
 10
8022.099402858074
 20
9853.5762348529
 30
0.0
 41
100.0
 42
100.0
 43
100.0
 50
90.0
  0
INSERT
  5
16BD2
330
1643F
100
AcDbEntity
  8
寸法
 62
     0
 48
50.0
370
    -2
100
AcDbBlockReference
  2
_DOTSMALL
 10
8022.099402858074
 20
9908.576234852896
 30
0.0
 41
100.0
 42
100.0
 43
100.0
 50
270.0
  0
MTEXT
  5
16BD3
330
1643F
100
AcDbEntity
  8
寸法
 62
     7
 48
50.0
100
AcDbMText
 10
7922.099402858073
 20
10217.06151622713
 30
0.0
 40
120.0
 41
0.0
 71
     5
 72
     1
  1
\A1;55
  7
STYLE1
 11
0.0000000000000001
 21
1.0
 31
0.0
 73
     1
 44
1.0
1001
ACAD
1000
MTEXTBEGIN
1070
    73
1070
     1
1070
    44
1040
1.0
1070
    74
1070
     0
1000
MTEXTEND
  0
POINT
  5
16BD4
330
1643F
100
AcDbEntity
  8
DEFPOINTS
 62
     0
 48
50.0
100
AcDbPoint
 10
7374.673057123664
 20
9908.576234852896
 30
0.0
  0
POINT
  5
16BD5
330
1643F
100
AcDbEntity
  8
DEFPOINTS
 62
     0
 48
50.0
100
AcDbPoint
 10
7374.673057123664
 20
9853.5762348529
 30
0.0
  0
POINT
  5
16BD6
330
1643F
100
AcDbEntity
  8
DEFPOINTS
 62
     0
 48
50.0
100
AcDbPoint
 10
8022.099402858074
 20
9853.5762348529
 30
0.0
  0
ENDBLK
  5
1651A
330
1643F
100
AcDbEntity
  8
0
 48
50.0
100
AcDbBlockEnd
  0
BLOCK
  5
165C2
330
1644D
100
AcDbEntity
  8
0
 48
50.0
100
AcDbBlockBegin
  2
*D4
 70
     1
 10
0.0
 20
0.0
 30
0.0
  3
*D4
  1

  0
LINE
  5
16BC3
330
1644D
100
AcDbEntity
  8
寸法
 62
     0
 48
50.0
370
    -2
100
AcDbLine
 10
7394.673057123664
 20
9908.576234852896
 30
0.0
 11
8447.206344597709
 21
9908.576234852896
 31
0.0
  0
LINE
  5
16BC4
330
1644D
100
AcDbEntity
  8
寸法
 62
     0
 48
50.0
370
    -2
100
AcDbLine
 10
7394.673057123639
 20
7278.576234852888
 30
0.0
 11
8447.206344597709
 21
7278.576234852888
 31
0.0
  0
LINE
  5
16BC5
330
1644D
100
AcDbEntity
  8
寸法
 62
     0
 48
50.0
370
    -2
100
AcDbLine
 10
8387.206344597709
 20
9908.576234852896
 30
0.0
 11
8387.206344597709
 21
7278.576234852888
 31
0.0
  0
INSERT
  5
16BC6
330
1644D
100
AcDbEntity
  8
寸法
 62
     0
 48
50.0
370
    -2
100
AcDbBlockReference
  2
_DOTSMALL
 10
8387.206344597709
 20
9908.576234852896
 30
0.0
 41
100.0
 42
100.0
 43
100.0
 50
90.0
  0
INSERT
  5
16BC7
330
1644D
100
AcDbEntity
  8
寸法
 62
     0
 48
50.0
370
    -2
100
AcDbBlockReference
  2
_DOTSMALL
 10
8387.206344597709
 20
7278.576234852888
 30
0.0
 41
100.0
 42
100.0
 43
100.0
 50
270.0
  0
MTEXT
  5
16BC8
330
1644D
100
AcDbEntity
  8
寸法
 62
     7
 48
50.0
100
AcDbMText
 10
8287.194533574085
 20
8593.576234852895
 30
0.0
 40
120.0
 41
0.0
 71
     5
 72
     1
  1
\A1;2630
  7
STYLE1
 11
0.0000000000000001
 21
1.0
 31
0.0
 73
     1
 44
1.0
1001
ACAD
1000
MTEXTBEGIN
1070
    73
1070
     1
1070
    44
1040
1.0
1070
    74
1070
     0
1000
MTEXTEND
  0
POINT
  5
16BC9
330
1644D
100
AcDbEntity
  8
DEFPOINTS
 62
     0
 48
50.0
100
AcDbPoint
 10
7374.673057123664
 20
9908.576234852896
 30
0.0
  0
POINT
  5
16BCA
330
1644D
100
AcDbEntity
  8
DEFPOINTS
 62
     0
 48
50.0
100
AcDbPoint
 10
7374.673057123638
 20
7278.576234852888
 30
0.0
  0
POINT
  5
16BCB
330
1644D
100
AcDbEntity
  8
DEFPOINTS
 62
     0
 48
50.0
100
AcDbPoint
 10
8387.206344597709
 20
7278.576234852888
 30
0.0
  0
ENDBLK
  5
165CC
330
1644D
100
AcDbEntity
  8
0
 48
50.0
100
AcDbBlockEnd
  0
BLOCK
  5
1653C
330
16471
100
AcDbEntity
  8
0
 48
50.0
100
AcDbBlockBegin
  2
*D5
 70
     1
 10
0.0
 20
0.0
 30
0.0
  3
*D5
  1

  0
LINE
  5
16BBB
330
16471
100
AcDbEntity
  8
寸法
 62
     0
 48
50.0
370
    -2
100
AcDbLine
 10
5267.673057123657
 20
7284.576234852796
 30
0.0
 11
5267.673057123657
 21
6684.145464086632
 31
0.0
  0
LINE
  5
16BBC
330
16471
100
AcDbEntity
  8
寸法
 62
     0
 48
50.0
370
    -2
100
AcDbLine
 10
7271.673057123638
 20
6744.145464086632
 30
0.0
 11
5267.673057123657
 21
6744.145464086632
 31
0.0
  0
INSERT
  5
16BBD
330
16471
100
AcDbEntity
  8
寸法
 62
     0
 48
50.0
370
    -2
100
AcDbBlockReference
  2
_DOTSMALL
 10
7271.673057123638
 20
6744.145464086632
 30
0.0
 41
100.0
 42
100.0
 43
100.0
  0
INSERT
  5
16BBE
330
16471
100
AcDbEntity
  8
寸法
 62
     0
 48
50.0
370
    -2
100
AcDbBlockReference
  2
_DOTSMALL
 10
5267.673057123657
 20
6744.145464086632
 30
0.0
 41
100.0
 42
100.0
 43
100.0
 50
180.0
  0
MTEXT
  5
16BBF
330
16471
100
AcDbEntity
  8
寸法
 62
     7
 48
50.0
100
AcDbMText
 10
6269.673057123648
 20
6844.157275110254
 30
0.0
 40
120.0
 41
0.0
 71
     5
 72
     1
  1
\A1;有効開口部間口 2004
  7
STYLE1
 73
     1
 44
1.0
1001
ACAD
1000
MTEXTBEGIN
1070
    73
1070
     1
1070
    44
1040
1.0
1070
    74
1070
     0
1000
MTEXTEND
  0
POINT
  5
16BC0
330
16471
100
AcDbEntity
  8
DEFPOINTS
 62
     0
 48
50.0
100
AcDbPoint
 10
7271.673057123638
 20
7304.576234852797
 30
0.0
  0
POINT
  5
16BC1
330
16471
100
AcDbEntity
  8
DEFPOINTS
 62
     0
 48
50.0
100
AcDbPoint
 10
5267.673057123657
 20
7304.576234852795
 30
0.0
  0
POINT
  5
16BC2
330
16471
100
AcDbEntity
  8
DEFPOINTS
 62
     0
 48
50.0
100
AcDbPoint
 10
5267.673057123657
 20
6744.145464086632
 30
0.0
  0
ENDBLK
  5
16545
330
16471
100
AcDbEntity
  8
0
 48
50.0
100
AcDbBlockEnd
  0
BLOCK
  5
16546
330
1647C
100
AcDbEntity
  8
0
 48
50.0
100
AcDbBlockBegin
  2
*D6
 70
     1
 10
0.0
 20
0.0
 30
0.0
  3
*D6
  1

  0
LINE
  5
16BB2
330
1647C
100
AcDbEntity
  8
寸法
 62
     0
 48
50.0
370
    -2
100
AcDbLine
 10
5164.673057123657
 20
7258.576234852724
 30
0.0
 11
5164.673057123657
 21
6397.972468495758
 31
0.0
  0
LINE
  5
16BB3
330
1647C
100
AcDbEntity
  8
寸法
 62
     0
 48
50.0
370
    -2
100
AcDbLine
 10
7374.673057123638
 20
7258.576234852852
 30
0.0
 11
7374.673057123638
 21
6397.972468495758
 31
0.0
  0
LINE
  5
16BB4
330
1647C
100
AcDbEntity
  8
寸法
 62
     0
 48
50.0
370
    -2
100
AcDbLine
 10
5164.673057123657
 20
6457.972468495758
 30
0.0
 11
7374.673057123638
 21
6457.972468495758
 31
0.0
  0
INSERT
  5
16BB5
330
1647C
100
AcDbEntity
  8
寸法
 62
     0
 48
50.0
370
    -2
100
AcDbBlockReference
  2
_DOTSMALL
 10
5164.673057123657
 20
6457.972468495758
 30
0.0
 41
100.0
 42
100.0
 43
100.0
 50
180.0
  0
INSERT
  5
16BB6
330
1647C
100
AcDbEntity
  8
寸法
 62
     0
 48
50.0
370
    -2
100
AcDbBlockReference
  2
_DOTSMALL
 10
7374.673057123638
 20
6457.972468495758
 30
0.0
 41
100.0
 42
100.0
 43
100.0
  0
MTEXT
  5
16BB7
330
1647C
100
AcDbEntity
  8
寸法
 62
     7
 48
50.0
100
AcDbMText
 10
6269.673057123648
 20
6557.98427951938
 30
0.0
 40
120.0
 41
0.0
 71
     5
 72
     1
  1
\A1;2210
  7
STYLE1
 73
     1
 44
1.0
1001
ACAD
1000
MTEXTBEGIN
1070
    73
1070
     1
1070
    44
1040
1.0
1070
    74
1070
     0
1000
MTEXTEND
  0
POINT
  5
16BB8
330
1647C
100
AcDbEntity
  8
DEFPOINTS
 62
     0
 48
50.0
100
AcDbPoint
 10
5164.673057123657
 20
7278.576234852724
 30
0.0
  0
POINT
  5
16BB9
330
1647C
100
AcDbEntity
  8
DEFPOINTS
 62
     0
 48
50.0
100
AcDbPoint
 10
7374.673057123638
 20
7278.576234852852
 30
0.0
  0
POINT
  5
16BBA
330
1647C
100
AcDbEntity
  8
DEFPOINTS
 62
     0
 48
50.0
100
AcDbPoint
 10
7374.673057123638
 20
6457.972468495758
 30
0.0
  0
ENDBLK
  5
16550
330
1647C
100
AcDbEntity
  8
0
 48
50.0
100
AcDbBlockEnd
  0
BLOCK
  5
16551
330
16488
100
AcDbEntity
  8
0
 48
50.0
100
AcDbBlockBegin
  2
*D7
 70
     1
 10
0.0
 20
0.0
 30
0.0
  3
*D7
  1

  0
LINE
  5
16BA7
330
16488
100
AcDbEntity
  8
寸法
 62
     0
 48
50.0
370
    -2
100
AcDbLine
 10
5219.673057123653
 20
7258.576234852796
 30
0.0
 11
5219.673057123653
 21
6684.145464086632
 31
0.0
  0
LINE
  5
16BA8
330
16488
100
AcDbEntity
  8
寸法
 62
     0
 48
50.0
370
    -2
100
AcDbLine
 10
5164.673057123657
 20
7258.576234852793
 30
0.0
 11
5164.673057123657
 21
6684.145464086632
 31
0.0
  0
LINE
  5
16BA9
330
16488
100
AcDbEntity
  8
寸法
 62
     0
 48
50.0
370
    -2
100
AcDbLine
 10
5219.673057123653
 20
6744.145464086632
 30
0.0
 11
5319.673057123653
 21
6744.145464086632
 31
0.0
  0
LINE
  5
16BAA
330
16488
100
AcDbEntity
  8
寸法
 62
     0
 48
50.0
370
    -2
100
AcDbLine
 10
5164.673057123657
 20
6744.145464086632
 30
0.0
 11
4747.702494375179
 21
6744.145464086632
 31
0.0
  0
LINE
  5
16BAB
330
16488
100
AcDbEntity
  8
寸法
 62
     0
 48
50.0
370
    -2
100
AcDbLine
 10
5219.673057123653
 20
6744.145464086632
 30
0.0
 11
5164.673057123657
 21
6744.145464086632
 31
0.0
  0
INSERT
  5
16BAC
330
16488
100
AcDbEntity
  8
寸法
 62
     0
 48
50.0
370
    -2
100
AcDbBlockReference
  2
_DOTSMALL
 10
5219.673057123653
 20
6744.145464086632
 30
0.0
 41
100.0
 42
100.0
 43
100.0
 50
180.0
  0
INSERT
  5
16BAD
330
16488
100
AcDbEntity
  8
寸法
 62
     0
 48
50.0
370
    -2
100
AcDbBlockReference
  2
_DOTSMALL
 10
5164.673057123657
 20
6744.145464086632
 30
0.0
 41
100.0
 42
100.0
 43
100.0
  0
MTEXT
  5
16BAE
330
16488
100
AcDbEntity
  8
寸法
 62
     7
 48
50.0
100
AcDbMText
 10
4856.187775749418
 20
6844.145464086633
 30
0.0
 40
120.0
 41
0.0
 71
     5
 72
     1
  1
\A1;55
  7
STYLE1
 73
     1
 44
1.0
1001
ACAD
1000
MTEXTBEGIN
1070
    73
1070
     1
1070
    44
1040
1.0
1070
    74
1070
     0
1000
MTEXTEND
  0
POINT
  5
16BAF
330
16488
100
AcDbEntity
  8
DEFPOINTS
 62
     0
 48
50.0
100
AcDbPoint
 10
5219.673057123653
 20
7278.576234852796
 30
0.0
  0
POINT
  5
16BB0
330
16488
100
AcDbEntity
  8
DEFPOINTS
 62
     0
 48
50.0
100
AcDbPoint
 10
5164.673057123657
 20
7278.576234852794
 30
0.0
  0
POINT
  5
16BB1
330
16488
100
AcDbEntity
  8
DEFPOINTS
 62
     0
 48
50.0
100
AcDbPoint
 10
5164.673057123657
 20
6744.145464086632
 30
0.0
  0
ENDBLK
  5
1655D
330
16488
100
AcDbEntity
  8
0
 48
50.0
100
AcDbBlockEnd
  0
BLOCK
  5
1655E
330
16496
100
AcDbEntity
  8
0
 48
50.0
100
AcDbBlockBegin
  2
*D8
 70
     1
 10
0.0
 20
0.0
 30
0.0
  3
*D8
  1

  0
LINE
  5
16B9C
330
16496
100
AcDbEntity
  8
寸法
 62
     0
 48
50.0
370
    -2
100
AcDbLine
 10
5267.673057123657
 20
7284.576234852796
 30
0.0
 11
5267.673057123657
 21
6684.145464086632
 31
0.0
  0
LINE
  5
16B9D
330
16496
100
AcDbEntity
  8
寸法
 62
     0
 48
50.0
370
    -2
100
AcDbLine
 10
5219.673057123653
 20
7258.576234852796
 30
0.0
 11
5219.673057123653
 21
6684.145464086632
 31
0.0
  0
LINE
  5
16B9E
330
16496
100
AcDbEntity
  8
寸法
 62
     0
 48
50.0
370
    -2
100
AcDbLine
 10
5267.673057123657
 20
6744.145464086632
 30
0.0
 11
5367.673057123656
 21
6744.145464086632
 31
0.0
  0
LINE
  5
16B9F
330
16496
100
AcDbEntity
  8
寸法
 62
     0
 48
50.0
370
    -2
100
AcDbLine
 10
5219.673057123653
 20
6744.145464086632
 30
0.0
 11
5119.673057123653
 21
6744.145464086632
 31
0.0
  0
MTEXT
  5
16BA0
330
16496
100
AcDbEntity
  8
寸法
 62
     7
 48
50.0
100
AcDbMText
 10
5380.575028123715
 20
6844.145464086633
 30
0.0
 40
120.0
 41
0.0
 71
     5
 72
     1
  1
\A1;48
  7
STYLE1
 73
     1
 44
1.0
1001
ACAD
1000
MTEXTBEGIN
1070
    73
1070
     1
1070
    44
1040
1.0
1070
    74
1070
     0
1000
MTEXTEND
  0
LINE
  5
16BA1
330
16496
100
AcDbEntity
  8
寸法
 62
     0
 48
50.0
370
    -2
100
AcDbLine
 10
5267.673057123657
 20
6744.145464086632
 30
0.0
 11
5219.673057123653
 21
6744.145464086632
 31
0.0
  0
INSERT
  5
16BA2
330
16496
100
AcDbEntity
  8
寸法
 62
     0
 48
50.0
370
    -2
100
AcDbBlockReference
  2
_DOTSMALL
 10
5267.673057123657
 20
6744.145464086632
 30
0.0
 41
100.0
 42
100.0
 43
100.0
 50
180.0
  0
INSERT
  5
16BA3
330
16496
100
AcDbEntity
  8
寸法
 62
     0
 48
50.0
370
    -2
100
AcDbBlockReference
  2
_DOTSMALL
 10
5219.673057123653
 20
6744.145464086632
 30
0.0
 41
100.0
 42
100.0
 43
100.0
  0
POINT
  5
16BA4
330
16496
100
AcDbEntity
  8
DEFPOINTS
 62
     0
 48
50.0
100
AcDbPoint
 10
5267.673057123657
 20
7304.576234852795
 30
0.0
  0
POINT
  5
16BA5
330
16496
100
AcDbEntity
  8
DEFPOINTS
 62
     0
 48
50.0
100
AcDbPoint
 10
5219.673057123653
 20
7278.576234852796
 30
0.0
  0
POINT
  5
16BA6
330
16496
100
AcDbEntity
  8
DEFPOINTS
 62
     0
 48
50.0
100
AcDbPoint
 10
5219.673057123653
 20
6744.145464086632
 30
0.0
  0
ENDBLK
  5
1656B
330
16496
100
AcDbEntity
  8
0
 48
50.0
100
AcDbBlockEnd
  0
BLOCK
  5
1656C
330
164A5
100
AcDbEntity
  8
0
 48
50.0
100
AcDbBlockBegin
  2
*D9
 70
     1
 10
0.0
 20
0.0
 30
0.0
  3
*D9
  1

  0
LINE
  5
16B91
330
164A5
100
AcDbEntity
  8
寸法
 62
     0
 48
50.0
370
    -2
100
AcDbLine
 10
7319.67305712364
 20
7258.576234852885
 30
0.0
 11
7319.67305712364
 21
6684.145464086632
 31
0.0
  0
LINE
  5
16B92
330
164A5
100
AcDbEntity
  8
寸法
 62
     0
 48
50.0
370
    -2
100
AcDbLine
 10
7271.673057123638
 20
7284.576234852797
 30
0.0
 11
7271.673057123638
 21
6684.145464086632
 31
0.0
  0
LINE
  5
16B93
330
164A5
100
AcDbEntity
  8
寸法
 62
     0
 48
50.0
370
    -2
100
AcDbLine
 10
7319.67305712364
 20
6744.145464086632
 30
0.0
 11
7419.67305712364
 21
6744.145464086632
 31
0.0
  0
LINE
  5
16B94
330
164A5
100
AcDbEntity
  8
寸法
 62
     0
 48
50.0
370
    -2
100
AcDbLine
 10
7271.673057123638
 20
6744.145464086632
 30
0.0
 11
7171.673057123638
 21
6744.145464086632
 31
0.0
  0
MTEXT
  5
16B95
330
164A5
100
AcDbEntity
  8
寸法
 62
     7
 48
50.0
100
AcDbMText
 10
7160.710159474891
 20
6844.145464086633
 30
0.0
 40
120.0
 41
0.0
 71
     5
 72
     1
  1
\A1;48
  7
STYLE1
 73
     1
 44
1.0
1001
ACAD
1000
MTEXTBEGIN
1070
    73
1070
     1
1070
    44
1040
1.0
1070
    74
1070
     0
1000
MTEXTEND
  0
LINE
  5
16B96
330
164A5
100
AcDbEntity
  8
寸法
 62
     0
 48
50.0
370
    -2
100
AcDbLine
 10
7319.67305712364
 20
6744.145464086632
 30
0.0
 11
7271.673057123638
 21
6744.145464086632
 31
0.0
  0
INSERT
  5
16B97
330
164A5
100
AcDbEntity
  8
寸法
 62
     0
 48
50.0
370
    -2
100
AcDbBlockReference
  2
_DOTSMALL
 10
7319.67305712364
 20
6744.145464086632
 30
0.0
 41
100.0
 42
100.0
 43
100.0
 50
180.0
  0
INSERT
  5
16B98
330
164A5
100
AcDbEntity
  8
寸法
 62
     0
 48
50.0
370
    -2
100
AcDbBlockReference
  2
_DOTSMALL
 10
7271.673057123638
 20
6744.145464086632
 30
0.0
 41
100.0
 42
100.0
 43
100.0
  0
POINT
  5
16B99
330
164A5
100
AcDbEntity
  8
DEFPOINTS
 62
     0
 48
50.0
100
AcDbPoint
 10
7319.67305712364
 20
7278.576234852884
 30
0.0
  0
POINT
  5
16B9A
330
164A5
100
AcDbEntity
  8
DEFPOINTS
 62
     0
 48
50.0
100
AcDbPoint
 10
7271.673057123638
 20
7304.576234852797
 30
0.0
  0
POINT
  5
16B9B
330
164A5
100
AcDbEntity
  8
DEFPOINTS
 62
     0
 48
50.0
100
AcDbPoint
 10
7271.673057123638
 20
6744.145464086632
 30
0.0
  0
ENDBLK
  5
16579
330
164A5
100
AcDbEntity
  8
0
 48
50.0
100
AcDbBlockEnd
  0
BLOCK
  5
1657A
330
164B4
100
AcDbEntity
  8
0
 48
50.0
100
AcDbBlockBegin
  2
*D10
 70
     1
 10
0.0
 20
0.0
 30
0.0
  3
*D10
  1

  0
LINE
  5
16B86
330
164B4
100
AcDbEntity
  8
寸法
 62
     0
 48
50.0
370
    -2
100
AcDbLine
 10
7374.673057123638
 20
7258.576234852887
 30
0.0
 11
7374.673057123638
 21
6684.145464086633
 31
0.0
  0
LINE
  5
16B87
330
164B4
100
AcDbEntity
  8
寸法
 62
     0
 48
50.0
370
    -2
100
AcDbLine
 10
7319.67305712364
 20
7258.576234852885
 30
0.0
 11
7319.67305712364
 21
6684.145464086633
 31
0.0
  0
LINE
  5
16B88
330
164B4
100
AcDbEntity
  8
寸法
 62
     0
 48
50.0
370
    -2
100
AcDbLine
 10
7319.67305712364
 20
6744.145464086634
 30
0.0
 11
7219.67305712364
 21
6744.145464086634
 31
0.0
  0
LINE
  5
16B89
330
164B4
100
AcDbEntity
  8
寸法
 62
     0
 48
50.0
370
    -2
100
AcDbLine
 10
7374.673057123638
 20
6744.145464086634
 30
0.0
 11
7791.643619872115
 21
6744.145464086634
 31
0.0
  0
LINE
  5
16B8A
330
164B4
100
AcDbEntity
  8
寸法
 62
     0
 48
50.0
370
    -2
100
AcDbLine
 10
7319.67305712364
 20
6744.145464086634
 30
0.0
 11
7374.673057123638
 21
6744.145464086634
 31
0.0
  0
INSERT
  5
16B8B
330
164B4
100
AcDbEntity
  8
寸法
 62
     0
 48
50.0
370
    -2
100
AcDbBlockReference
  2
_DOTSMALL
 10
7319.67305712364
 20
6744.145464086634
 30
0.0
 41
100.0
 42
100.0
 43
100.0
  0
INSERT
  5
16B8C
330
164B4
100
AcDbEntity
  8
寸法
 62
     0
 48
50.0
370
    -2
100
AcDbBlockReference
  2
_DOTSMALL
 10
7374.673057123638
 20
6744.145464086634
 30
0.0
 41
100.0
 42
100.0
 43
100.0
 50
180.0
  0
MTEXT
  5
16B8D
330
164B4
100
AcDbEntity
  8
寸法
 62
     7
 48
50.0
100
AcDbMText
 10
7683.158338497877
 20
6844.145464086634
 30
0.0
 40
120.0
 41
0.0
 71
     5
 72
     1
  1
\A1;55
  7
STYLE1
 73
     1
 44
1.0
1001
ACAD
1000
MTEXTBEGIN
1070
    73
1070
     1
1070
    44
1040
1.0
1070
    74
1070
     0
1000
MTEXTEND
  0
POINT
  5
16B8E
330
164B4
100
AcDbEntity
  8
DEFPOINTS
 62
     0
 48
50.0
100
AcDbPoint
 10
7374.673057123638
 20
7278.576234852888
 30
0.0
  0
POINT
  5
16B8F
330
164B4
100
AcDbEntity
  8
DEFPOINTS
 62
     0
 48
50.0
100
AcDbPoint
 10
7319.67305712364
 20
7278.576234852884
 30
0.0
  0
POINT
  5
16B90
330
164B4
100
AcDbEntity
  8
DEFPOINTS
 62
     0
 48
50.0
100
AcDbPoint
 10
7319.67305712364
 20
6744.145464086634
 30
0.0
  0
ENDBLK
  5
16586
330
164B4
100
AcDbEntity
  8
0
 48
50.0
100
AcDbBlockEnd
  0
BLOCK
  5
16592
330
164CE
100
AcDbEntity
  8
0
 48
50.0
100
AcDbBlockBegin
  2
*D11
 70
     1
 10
0.0
 20
0.0
 30
0.0
  3
*D11
  1

  0
LINE
  5
16B7D
330
164CE
100
AcDbEntity
  8
寸法
 62
     0
 48
50.0
370
    -2
100
AcDbLine
 10
5219.673057123663
 20
9928.576234852801
 30
0.0
 11
5219.673057123663
 21
10184.3844544779
 31
0.0
  0
LINE
  5
16B7E
330
164CE
100
AcDbEntity
  8
寸法
 62
     0
 48
50.0
370
    -2
100
AcDbLine
 10
7319.673057123664
 20
9928.576234852895
 30
0.0
 11
7319.673057123664
 21
10184.3844544779
 31
0.0
  0
LINE
  5
16B7F
330
164CE
100
AcDbEntity
  8
寸法
 62
     0
 48
50.0
370
    -2
100
AcDbLine
 10
5219.673057123663
 20
10124.3844544779
 30
0.0
 11
7319.673057123664
 21
10124.3844544779
 31
0.0
  0
INSERT
  5
16B80
330
164CE
100
AcDbEntity
  8
寸法
 62
     0
 48
50.0
370
    -2
100
AcDbBlockReference
  2
_DOTSMALL
 10
5219.673057123663
 20
10124.3844544779
 30
0.0
 41
100.0
 42
100.0
 43
100.0
 50
180.0
  0
INSERT
  5
16B81
330
164CE
100
AcDbEntity
  8
寸法
 62
     0
 48
50.0
370
    -2
100
AcDbBlockReference
  2
_DOTSMALL
 10
7319.673057123664
 20
10124.3844544779
 30
0.0
 41
100.0
 42
100.0
 43
100.0
  0
MTEXT
  5
16B82
330
164CE
100
AcDbEntity
  8
寸法
 62
     7
 48
50.0
100
AcDbMText
 10
6269.673057123664
 20
10224.39626550152
 30
0.0
 40
120.0
 41
0.0
 71
     5
 72
     1
  1
\A1;5X420=2100
  7
STYLE1
 73
     1
 44
1.0
1001
ACAD
1000
MTEXTBEGIN
1070
    73
1070
     1
1070
    44
1040
1.0
1070
    74
1070
     0
1000
MTEXTEND
  0
POINT
  5
16B83
330
164CE
100
AcDbEntity
  8
DEFPOINTS
 62
     0
 48
50.0
100
AcDbPoint
 10
5219.673057123663
 20
9908.576234852802
 30
0.0
  0
POINT
  5
16B84
330
164CE
100
AcDbEntity
  8
DEFPOINTS
 62
     0
 48
50.0
100
AcDbPoint
 10
7319.673057123664
 20
9908.576234852896
 30
0.0
  0
POINT
  5
16B85
330
164CE
100
AcDbEntity
  8
DEFPOINTS
 62
     0
 48
50.0
100
AcDbPoint
 10
7319.673057123664
 20
10124.3844544779
 30
0.0
  0
ENDBLK
  5
1659C
330
164CE
100
AcDbEntity
  8
0
 48
50.0
100
AcDbBlockEnd
  0
BLOCK
  5
1659D
330
164DA
100
AcDbEntity
  8
0
 48
50.0
100
AcDbBlockBegin
  2
*D12
 70
     1
 10
0.0
 20
0.0
 30
0.0
  3
*D12
  1

  0
LINE
  5
16B72
330
164DA
100
AcDbEntity
  8
寸法
 62
     0
 48
50.0
370
    -2
100
AcDbLine
 10
5164.673057123629
 20
9928.576234852801
 30
0.0
 11
5164.673057123629
 21
10184.38445447778
 31
0.0
  0
LINE
  5
16B73
330
164DA
100
AcDbEntity
  8
寸法
 62
     0
 48
50.0
370
    -2
100
AcDbLine
 10
5219.673057123663
 20
9928.576234852801
 30
0.0
 11
5219.673057123663
 21
10184.38445447778
 31
0.0
  0
LINE
  5
16B74
330
164DA
100
AcDbEntity
  8
寸法
 62
     0
 48
50.0
370
    -2
100
AcDbLine
 10
5219.673057123663
 20
10124.38445447778
 30
0.0
 11
5319.673057123663
 21
10124.38445447778
 31
0.0
  0
LINE
  5
16B75
330
164DA
100
AcDbEntity
  8
寸法
 62
     0
 48
50.0
370
    -2
100
AcDbLine
 10
5164.673057123629
 20
10124.38445447778
 30
0.0
 11
4747.702494375151
 21
10124.38445447778
 31
0.0
  0
LINE
  5
16B76
330
164DA
100
AcDbEntity
  8
寸法
 62
     0
 48
50.0
370
    -2
100
AcDbLine
 10
5219.673057123663
 20
10124.38445447778
 30
0.0
 11
5164.673057123629
 21
10124.38445447778
 31
0.0
  0
INSERT
  5
16B77
330
164DA
100
AcDbEntity
  8
寸法
 62
     0
 48
50.0
370
    -2
100
AcDbBlockReference
  2
_DOTSMALL
 10
5219.673057123663
 20
10124.38445447778
 30
0.0
 41
100.0
 42
100.0
 43
100.0
 50
180.0
  0
INSERT
  5
16B78
330
164DA
100
AcDbEntity
  8
寸法
 62
     0
 48
50.0
370
    -2
100
AcDbBlockReference
  2
_DOTSMALL
 10
5164.673057123629
 20
10124.38445447778
 30
0.0
 41
100.0
 42
100.0
 43
100.0
  0
MTEXT
  5
16B79
330
164DA
100
AcDbEntity
  8
寸法
 62
     7
 48
50.0
100
AcDbMText
 10
4856.18777574939
 20
10224.38445447778
 30
0.0
 40
120.0
 41
0.0
 71
     5
 72
     1
  1
\A1;55
  7
STYLE1
 73
     1
 44
1.0
1001
ACAD
1000
MTEXTBEGIN
1070
    73
1070
     1
1070
    44
1040
1.0
1070
    74
1070
     0
1000
MTEXTEND
  0
POINT
  5
16B7A
330
164DA
100
AcDbEntity
  8
DEFPOINTS
 62
     0
 48
50.0
100
AcDbPoint
 10
5164.673057123629
 20
9908.576234852802
 30
0.0
  0
POINT
  5
16B7B
330
164DA
100
AcDbEntity
  8
DEFPOINTS
 62
     0
 48
50.0
100
AcDbPoint
 10
5219.673057123663
 20
9908.576234852802
 30
0.0
  0
POINT
  5
16B7C
330
164DA
100
AcDbEntity
  8
DEFPOINTS
 62
     0
 48
50.0
100
AcDbPoint
 10
5219.673057123663
 20
10124.38445447778
 30
0.0
  0
ENDBLK
  5
165A9
330
164DA
100
AcDbEntity
  8
0
 48
50.0
100
AcDbBlockEnd
  0
BLOCK
  5
165AA
330
164E8
100
AcDbEntity
  8
0
 48
50.0
100
AcDbBlockBegin
  2
*D13
 70
     1
 10
0.0
 20
0.0
 30
0.0
  3
*D13
  1

  0
LINE
  5
16B67
330
164E8
100
AcDbEntity
  8
寸法
 62
     0
 48
50.0
370
    -2
100
AcDbLine
 10
7319.673057123664
 20
9928.576234852895
 30
0.0
 11
7319.673057123664
 21
10184.38445447788
 31
0.0
  0
LINE
  5
16B68
330
164E8
100
AcDbEntity
  8
寸法
 62
     0
 48
50.0
370
    -2
100
AcDbLine
 10
7374.673057123664
 20
9928.576234852895
 30
0.0
 11
7374.673057123664
 21
10184.38445447788
 31
0.0
  0
LINE
  5
16B69
330
164E8
100
AcDbEntity
  8
寸法
 62
     0
 48
50.0
370
    -2
100
AcDbLine
 10
7319.673057123664
 20
10124.38445447788
 30
0.0
 11
7219.673057123664
 21
10124.38445447788
 31
0.0
  0
LINE
  5
16B6A
330
164E8
100
AcDbEntity
  8
寸法
 62
     0
 48
50.0
370
    -2
100
AcDbLine
 10
7374.673057123664
 20
10124.38445447788
 30
0.0
 11
7791.643619872141
 21
10124.38445447788
 31
0.0
  0
LINE
  5
16B6B
330
164E8
100
AcDbEntity
  8
寸法
 62
     0
 48
50.0
370
    -2
100
AcDbLine
 10
7319.673057123664
 20
10124.38445447788
 30
0.0
 11
7374.673057123664
 21
10124.38445447788
 31
0.0
  0
INSERT
  5
16B6C
330
164E8
100
AcDbEntity
  8
寸法
 62
     0
 48
50.0
370
    -2
100
AcDbBlockReference
  2
_DOTSMALL
 10
7319.673057123664
 20
10124.38445447788
 30
0.0
 41
100.0
 42
100.0
 43
100.0
  0
INSERT
  5
16B6D
330
164E8
100
AcDbEntity
  8
寸法
 62
     0
 48
50.0
370
    -2
100
AcDbBlockReference
  2
_DOTSMALL
 10
7374.673057123664
 20
10124.38445447788
 30
0.0
 41
100.0
 42
100.0
 43
100.0
 50
180.0
  0
MTEXT
  5
16B6E
330
164E8
100
AcDbEntity
  8
寸法
 62
     7
 48
50.0
100
AcDbMText
 10
7683.158338497903
 20
10224.38445447788
 30
0.0
 40
120.0
 41
0.0
 71
     5
 72
     1
  1
\A1;55
  7
STYLE1
 73
     1
 44
1.0
1001
ACAD
1000
MTEXTBEGIN
1070
    73
1070
     1
1070
    44
1040
1.0
1070
    74
1070
     0
1000
MTEXTEND
  0
POINT
  5
16B6F
330
164E8
100
AcDbEntity
  8
DEFPOINTS
 62
     0
 48
50.0
100
AcDbPoint
 10
7319.673057123664
 20
9908.576234852896
 30
0.0
  0
POINT
  5
16B70
330
164E8
100
AcDbEntity
  8
DEFPOINTS
 62
     0
 48
50.0
100
AcDbPoint
 10
7374.673057123664
 20
9908.576234852896
 30
0.0
  0
POINT
  5
16B71
330
164E8
100
AcDbEntity
  8
DEFPOINTS
 62
     0
 48
50.0
100
AcDbPoint
 10
7374.673057123664
 20
10124.38445447788
 30
0.0
  0
ENDBLK
  5
165B6
330
164E8
100
AcDbEntity
  8
0
 48
50.0
100
AcDbBlockEnd
  0
BLOCK
  5
172B3
330
172A8
100
AcDbEntity
  8
0
 48
50.0
100
AcDbBlockBegin
  2
*D14
 70
     1
 10
0.0
 20
0.0
 30
0.0
  3
*D14
  1

  0
LINE
  5
176BE
330
172A8
100
AcDbEntity
  8
寸法
 62
     0
 48
50.0
370
    -2
100
AcDbLine
 10
9941.25411680438
 20
4612.229305782924
 30
0.0
 11
9325.319677699093
 21
4629.943456057254
 31
0.0
  0
LINE
  5
176BF
330
172A8
100
AcDbEntity
  8
寸法
 62
     0
 48
50.0
370
    -2
100
AcDbLine
 10
9937.200661247754
 20
4471.287582017211
 30
0.0
 11
9321.266222142467
 21
4489.001732291541
 31
0.0
  0
LINE
  5
176C0
330
172A8
100
AcDbEntity
  8
寸法
 62
     0
 48
50.0
370
    -2
100
AcDbLine
 10
9381.241423744898
 20
4487.276857586594
 30
0.0
 11
9385.294879301524
 21
4628.218581352306
 31
0.0
  0
LINE
  5
176C1
330
172A8
100
AcDbEntity
  8
寸法
 62
     0
 48
50.0
370
    -2
100
AcDbLine
 10
9385.294879301524
 20
4628.218581352306
 30
0.0
 11
9395.644127531211
 21
4988.069790966893
 31
0.0
  0
INSERT
  5
176C2
330
172A8
100
AcDbEntity
  8
寸法
 62
     0
 48
50.0
370
    -2
100
AcDbBlockReference
  2
_DOTSMALL
 10
9381.241423744898
 20
4487.276857586594
 30
0.0
 41
100.0
 42
100.0
 43
100.0
 50
268.3526390256378
  0
INSERT
  5
176C3
330
172A8
100
AcDbEntity
  8
寸法
 62
     0
 48
50.0
370
    -2
100
AcDbBlockReference
  2
_DOTSMALL
 10
9385.294879301524
 20
4628.218581352306
 30
0.0
 41
100.0
 42
100.0
 43
100.0
 50
88.35263902563776
  0
MTEXT
  5
176C4
330
172A8
100
AcDbEntity
  8
寸法
 62
     7
 48
50.0
100
AcDbMText
 10
9291.94822966644
 20
4860.998312003204
 30
0.0
 40
120.0
 41
0.0
 71
     5
 72
     1
  1
\A1;141
  7
STYLE1
 11
0.0287479117491237
 21
0.9995866933738488
 31
0.0
 73
     1
 44
1.0
1001
ACAD
1000
MTEXTBEGIN
1070
    73
1070
     1
1070
    44
1040
1.0
1070
    74
1070
     0
1000
MTEXTEND
  0
POINT
  5
176C5
330
172A8
100
AcDbEntity
  8
DEFPOINTS
 62
     0
 48
50.0
100
AcDbPoint
 10
9961.245850671856
 20
4611.654347547943
 30
0.0
  0
POINT
  5
176C6
330
172A8
100
AcDbEntity
  8
DEFPOINTS
 62
     0
 48
50.0
100
AcDbPoint
 10
9957.19239511523
 20
4470.712623782229
 30
0.0
  0
POINT
  5
176C7
330
172A8
100
AcDbEntity
  8
DEFPOINTS
 62
     0
 48
50.0
100
AcDbPoint
 10
9381.241423744898
 20
4487.276857586594
 30
0.0
  0
ENDBLK
  5
172B4
330
172A8
100
AcDbEntity
  8
0
 48
50.0
100
AcDbBlockEnd
  0
BLOCK
  5
172C0
330
172B5
100
AcDbEntity
  8
0
 48
50.0
100
AcDbBlockBegin
  2
*D15
 70
     1
 10
0.0
 20
0.0
 30
0.0
  3
*D15
  1

  0
LINE
  5
176B4
330
172B5
100
AcDbEntity
  8
寸法
 62
     0
 48
50.0
370
    -2
100
AcDbLine
 10
12631.84983051327
 20
4579.742278324916
 30
0.0
 11
12631.84983051327
 21
5071.589052292568
 31
0.0
  0
LINE
  5
176B5
330
172B5
100
AcDbEntity
  8
寸法
 62
     0
 48
50.0
370
    -2
100
AcDbLine
 10
12711.84983051327
 20
4577.931598713264
 30
0.0
 11
12711.84983051327
 21
5071.589052292568
 31
0.0
  0
LINE
  5
176B6
330
172B5
100
AcDbEntity
  8
寸法
 62
     0
 48
50.0
370
    -2
100
AcDbLine
 10
12631.84983051327
 20
5011.589052292568
 30
0.0
 11
12711.84983051327
 21
5011.589052292568
 31
0.0
  0
LINE
  5
176B7
330
172B5
100
AcDbEntity
  8
寸法
 62
     0
 48
50.0
370
    -2
100
AcDbLine
 10
12711.84983051327
 20
5011.589052292568
 30
0.0
 11
13023.94431870226
 21
5011.589052292568
 31
0.0
  0
INSERT
  5
176B8
330
172B5
100
AcDbEntity
  8
寸法
 62
     0
 48
50.0
370
    -2
100
AcDbBlockReference
  2
_DOTSMALL
 10
12631.84983051327
 20
5011.589052292568
 30
0.0
 41
100.0
 42
100.0
 43
100.0
 50
180.0
  0
INSERT
  5
176B9
330
172B5
100
AcDbEntity
  8
寸法
 62
     0
 48
50.0
370
    -2
100
AcDbBlockReference
  2
_DOTSMALL
 10
12711.84983051327
 20
5011.589052292568
 30
0.0
 41
100.0
 42
100.0
 43
100.0
  0
MTEXT
  5
176BA
330
172B5
100
AcDbEntity
  8
寸法
 62
     7
 48
50.0
100
AcDbMText
 10
12917.89707460777
 20
5111.589052292568
 30
0.0
 40
120.0
 41
0.0
 71
     5
 72
     1
  1
\A1;80
  7
STYLE1
 73
     1
 44
1.0
1001
ACAD
1000
MTEXTBEGIN
1070
    73
1070
     1
1070
    44
1040
1.0
1070
    74
1070
     0
1000
MTEXTEND
  0
POINT
  5
176BB
330
172B5
100
AcDbEntity
  8
DEFPOINTS
 62
     0
 48
50.0
100
AcDbPoint
 10
12631.84983051327
 20
4559.742278324915
 30
0.0
  0
POINT
  5
176BC
330
172B5
100
AcDbEntity
  8
DEFPOINTS
 62
     0
 48
50.0
100
AcDbPoint
 10
12711.84983051327
 20
4557.931598713263
 30
0.0
  0
POINT
  5
176BD
330
172B5
100
AcDbEntity
  8
DEFPOINTS
 62
     0
 48
50.0
100
AcDbPoint
 10
12711.84983051327
 20
5011.589052292568
 30
0.0
  0
ENDBLK
  5
172C1
330
172B5
100
AcDbEntity
  8
0
 48
50.0
100
AcDbBlockEnd
  0
BLOCK
  5
172CC
330
172C2
100
AcDbEntity
  8
0
 48
50.0
100
AcDbBlockBegin
  2
*D16
 70
     1
 10
0.0
 20
0.0
 30
0.0
  3
*D16
  1

  0
LINE
  5
17A96
330
172C2
100
AcDbEntity
  8
寸法
 62
     0
 48
50.0
370
    -2
100
AcDbLine
 10
12711.84983051327
 20
4577.931598713264
 30
0.0
 11
12711.84983051327
 21
5291.799739024185
 31
0.0
  0
LINE
  5
17A97
330
172C2
100
AcDbEntity
  8
寸法
 62
     0
 48
50.0
370
    -2
100
AcDbLine
 10
9941.849830513278
 20
4632.931598713268
 30
0.0
 11
9941.849830513278
 21
5291.799739024185
 31
0.0
  0
LINE
  5
17A98
330
172C2
100
AcDbEntity
  8
寸法
 62
     0
 48
50.0
370
    -2
100
AcDbLine
 10
12711.84983051327
 20
5231.799739024184
 30
0.0
 11
9941.849830513278
 21
5231.799739024184
 31
0.0
  0
INSERT
  5
17A99
330
172C2
100
AcDbEntity
  8
寸法
 62
     0
 48
50.0
370
    -2
100
AcDbBlockReference
  2
_DOTSMALL
 10
12711.84983051327
 20
5231.799739024184
 30
0.0
 41
100.0
 42
100.0
 43
100.0
  0
INSERT
  5
17A9A
330
172C2
100
AcDbEntity
  8
寸法
 62
     0
 48
50.0
370
    -2
100
AcDbBlockReference
  2
_DOTSMALL
 10
9941.849830513278
 20
5231.799739024184
 30
0.0
 41
100.0
 42
100.0
 43
100.0
 50
180.0
  0
MTEXT
  5
17A9B
330
172C2
100
AcDbEntity
  8
寸法
 62
     7
 48
50.0
100
AcDbMText
 10
11326.84983051328
 20
5331.811550047806
 30
0.0
 40
120.0
 41
0.0
 71
     5
 72
     1
  1
\A1;2770
  7
STYLE1
 73
     1
 44
1.0
1001
ACAD
1000
MTEXTBEGIN
1070
    73
1070
     1
1070
    44
1040
1.0
1070
    74
1070
     0
1000
MTEXTEND
  0
POINT
  5
17A9C
330
172C2
100
AcDbEntity
  8
DEFPOINTS
 62
     0
 48
50.0
100
AcDbPoint
 10
12711.84983051327
 20
4557.931598713263
 30
0.0
  0
POINT
  5
17A9D
330
172C2
100
AcDbEntity
  8
DEFPOINTS
 62
     0
 48
50.0
100
AcDbPoint
 10
9941.849830513278
 20
4612.931598713267
 30
0.0
  0
POINT
  5
17A9E
330
172C2
100
AcDbEntity
  8
DEFPOINTS
 62
     0
 48
50.0
100
AcDbPoint
 10
9941.849830513278
 20
5231.799739024184
 30
0.0
  0
ENDBLK
  5
172CD
330
172C2
100
AcDbEntity
  8
0
 48
50.0
100
AcDbBlockEnd
  0
BLOCK
  5
172DA
330
172CE
100
AcDbEntity
  8
0
 48
50.0
100
AcDbBlockBegin
  2
*D17
 70
     1
 10
0.0
 20
0.0
 30
0.0
  3
*D17
  1

  0
LINE
  5
176A0
330
172CE
100
AcDbEntity
  8
寸法
 62
     0
 48
50.0
370
    -2
100
AcDbLine
 10
10001.84983051328
 20
4628.933216836239
 30
0.0
 11
10001.84983051328
 21
5071.589052292567
 31
0.0
  0
LINE
  5
176A1
330
172CE
100
AcDbEntity
  8
寸法
 62
     0
 48
50.0
370
    -2
100
AcDbLine
 10
9941.849830513278
 20
4632.931598713268
 30
0.0
 11
9941.849830513278
 21
5071.589052292567
 31
0.0
  0
LINE
  5
176A2
330
172CE
100
AcDbEntity
  8
寸法
 62
     0
 48
50.0
370
    -2
100
AcDbLine
 10
10001.84983051328
 20
5011.589052292567
 30
0.0
 11
10101.84983051328
 21
5011.589052292567
 31
0.0
  0
LINE
  5
176A3
330
172CE
100
AcDbEntity
  8
寸法
 62
     0
 48
50.0
370
    -2
100
AcDbLine
 10
9941.849830513278
 20
5011.589052292567
 30
0.0
 11
9522.574239962098
 21
5011.589052292567
 31
0.0
  0
LINE
  5
176A4
330
172CE
100
AcDbEntity
  8
寸法
 62
     0
 48
50.0
370
    -2
100
AcDbLine
 10
10001.84983051328
 20
5011.589052292567
 30
0.0
 11
9941.849830513278
 21
5011.589052292567
 31
0.0
  0
INSERT
  5
176A5
330
172CE
100
AcDbEntity
  8
寸法
 62
     0
 48
50.0
370
    -2
100
AcDbBlockReference
  2
_DOTSMALL
 10
10001.84983051328
 20
5011.589052292567
 30
0.0
 41
100.0
 42
100.0
 43
100.0
 50
180.0
  0
INSERT
  5
176A6
330
172CE
100
AcDbEntity
  8
寸法
 62
     0
 48
50.0
370
    -2
100
AcDbBlockReference
  2
_DOTSMALL
 10
9941.849830513278
 20
5011.589052292567
 30
0.0
 41
100.0
 42
100.0
 43
100.0
  0
MTEXT
  5
176A7
330
172CE
100
AcDbEntity
  8
寸法
 62
     7
 48
50.0
100
AcDbMText
 10
9632.212035237689
 20
5111.589052292567
 30
0.0
 40
120.0
 41
0.0
 71
     5
 72
     1
  1
\A1;60
  7
STYLE1
 73
     1
 44
1.0
1001
ACAD
1000
MTEXTBEGIN
1070
    73
1070
     1
1070
    44
1040
1.0
1070
    74
1070
     0
1000
MTEXTEND
  0
POINT
  5
176A8
330
172CE
100
AcDbEntity
  8
DEFPOINTS
 62
     0
 48
50.0
100
AcDbPoint
 10
10001.84983051328
 20
4608.933216836239
 30
0.0
  0
POINT
  5
176A9
330
172CE
100
AcDbEntity
  8
DEFPOINTS
 62
     0
 48
50.0
100
AcDbPoint
 10
9941.849830513278
 20
4612.931598713267
 30
0.0
  0
POINT
  5
176AA
330
172CE
100
AcDbEntity
  8
DEFPOINTS
 62
     0
 48
50.0
100
AcDbPoint
 10
9941.849830513278
 20
5011.589052292567
 30
0.0
  0
ENDBLK
  5
172DB
330
172CE
100
AcDbEntity
  8
0
 48
50.0
100
AcDbBlockEnd
  0
BLOCK
  5
172E6
330
172DC
100
AcDbEntity
  8
0
 48
50.0
100
AcDbBlockBegin
  2
*D18
 70
     1
 10
0.0
 20
0.0
 30
0.0
  3
*D18
  1

  0
LINE
  5
17A9F
330
172DC
100
AcDbEntity
  8
寸法
 62
     0
 48
50.0
370
    -2
100
AcDbLine
 10
12631.84983051327
 20
4579.742278324916
 30
0.0
 11
12631.84983051327
 21
5071.589052292568
 31
0.0
  0
LINE
  5
17AA0
330
172DC
100
AcDbEntity
  8
寸法
 62
     0
 48
50.0
370
    -2
100
AcDbLine
 10
10001.84983051328
 20
4628.933216836239
 30
0.0
 11
10001.84983051328
 21
5071.589052292568
 31
0.0
  0
LINE
  5
17AA1
330
172DC
100
AcDbEntity
  8
寸法
 62
     0
 48
50.0
370
    -2
100
AcDbLine
 10
12631.84983051327
 20
5011.589052292568
 30
0.0
 11
10001.84983051328
 21
5011.589052292568
 31
0.0
  0
INSERT
  5
17AA2
330
172DC
100
AcDbEntity
  8
寸法
 62
     0
 48
50.0
370
    -2
100
AcDbBlockReference
  2
_DOTSMALL
 10
12631.84983051327
 20
5011.589052292568
 30
0.0
 41
100.0
 42
100.0
 43
100.0
  0
INSERT
  5
17AA3
330
172DC
100
AcDbEntity
  8
寸法
 62
     0
 48
50.0
370
    -2
100
AcDbBlockReference
  2
_DOTSMALL
 10
10001.84983051328
 20
5011.589052292568
 30
0.0
 41
100.0
 42
100.0
 43
100.0
 50
180.0
  0
MTEXT
  5
17AA4
330
172DC
100
AcDbEntity
  8
寸法
 62
     7
 48
50.0
100
AcDbMText
 10
11316.84983051328
 20
5111.600863316191
 30
0.0
 40
120.0
 41
0.0
 71
     5
 72
     1
  1
\A1;柱外寸法2630
  7
STYLE1
 73
     1
 44
1.0
1001
ACAD
1000
MTEXTBEGIN
1070
    73
1070
     1
1070
    44
1040
1.0
1070
    74
1070
     0
1000
MTEXTEND
  0
POINT
  5
17AA5
330
172DC
100
AcDbEntity
  8
DEFPOINTS
 62
     0
 48
50.0
100
AcDbPoint
 10
12631.84983051327
 20
4559.742278324915
 30
0.0
  0
POINT
  5
17AA6
330
172DC
100
AcDbEntity
  8
DEFPOINTS
 62
     0
 48
50.0
100
AcDbPoint
 10
10001.84983051328
 20
4608.933216836239
 30
0.0
  0
POINT
  5
17AA7
330
172DC
100
AcDbEntity
  8
DEFPOINTS
 62
     0
 48
50.0
100
AcDbPoint
 10
10001.84983051328
 20
5011.589052292568
 30
0.0
  0
ENDBLK
  5
172E7
330
172DC
100
AcDbEntity
  8
0
 48
50.0
100
AcDbBlockEnd
  0
BLOCK
  5
172F4
330
172E8
100
AcDbEntity
  8
0
 48
50.0
100
AcDbBlockBegin
  2
*D19
 70
     1
 10
0.0
 20
0.0
 30
0.0
  3
*D19
  1

  0
LINE
  5
1768C
330
172E8
100
AcDbEntity
  8
寸法
 62
     0
 48
50.0
370
    -2
100
AcDbLine
 10
9981.849830513278
 20
2587.931598713263
 30
0.0
 11
9098.099701330019
 21
2587.931598713263
 31
0.0
  0
LINE
  5
1768D
330
172E8
100
AcDbEntity
  8
寸法
 62
     0
 48
50.0
370
    -2
100
AcDbLine
 10
9926.849830513278
 20
2537.931598713262
 30
0.0
 11
9098.099701330019
 21
2537.931598713263
 31
0.0
  0
LINE
  5
1768E
330
172E8
100
AcDbEntity
  8
寸法
 62
     0
 48
50.0
370
    -2
100
AcDbLine
 10
9158.099701330019
 20
2587.931598713263
 30
0.0
 11
9158.099701330019
 21
2687.931598713263
 31
0.0
  0
LINE
  5
1768F
330
172E8
100
AcDbEntity
  8
寸法
 62
     0
 48
50.0
370
    -2
100
AcDbLine
 10
9158.099701330019
 20
2537.931598713263
 30
0.0
 11
9158.099701330019
 21
2125.837110524283
 31
0.0
  0
LINE
  5
17690
330
172E8
100
AcDbEntity
  8
寸法
 62
     0
 48
50.0
370
    -2
100
AcDbLine
 10
9158.099701330019
 20
2587.931598713263
 30
0.0
 11
9158.099701330019
 21
2537.931598713263
 31
0.0
  0
INSERT
  5
17691
330
172E8
100
AcDbEntity
  8
寸法
 62
     0
 48
50.0
370
    -2
100
AcDbBlockReference
  2
_DOTSMALL
 10
9158.099701330019
 20
2587.931598713263
 30
0.0
 41
100.0
 42
100.0
 43
100.0
 50
270.0
  0
INSERT
  5
17692
330
172E8
100
AcDbEntity
  8
寸法
 62
     0
 48
50.0
370
    -2
100
AcDbBlockReference
  2
_DOTSMALL
 10
9158.099701330019
 20
2537.931598713263
 30
0.0
 41
100.0
 42
100.0
 43
100.0
 50
90.0
  0
MTEXT
  5
17693
330
172E8
100
AcDbEntity
  8
寸法
 62
     7
 48
50.0
100
AcDbMText
 10
9058.09970133002
 20
2231.884354618773
 30
0.0
 40
120.0
 41
0.0
 71
     5
 72
     1
  1
\A1;50
  7
STYLE1
 11
0.0000000000000001
 21
1.0
 31
0.0
 73
     1
 44
1.0
1001
ACAD
1000
MTEXTBEGIN
1070
    73
1070
     1
1070
    44
1040
1.0
1070
    74
1070
     0
1000
MTEXTEND
  0
POINT
  5
17694
330
172E8
100
AcDbEntity
  8
DEFPOINTS
 62
     0
 48
50.0
100
AcDbPoint
 10
10001.84983051328
 20
2587.931598713263
 30
0.0
  0
POINT
  5
17695
330
172E8
100
AcDbEntity
  8
DEFPOINTS
 62
     0
 48
50.0
100
AcDbPoint
 10
9946.849830513279
 20
2537.931598713262
 30
0.0
  0
POINT
  5
17696
330
172E8
100
AcDbEntity
  8
DEFPOINTS
 62
     0
 48
50.0
100
AcDbPoint
 10
9158.099701330019
 20
2537.931598713263
 30
0.0
  0
ENDBLK
  5
172F5
330
172E8
100
AcDbEntity
  8
0
 48
50.0
100
AcDbBlockEnd
  0
BLOCK
  5
17300
330
172F6
100
AcDbEntity
  8
0
 48
50.0
100
AcDbBlockBegin
  2
*D20
 70
     1
 10
0.0
 20
0.0
 30
0.0
  3
*D20
  1

  0
LINE
  5
17683
330
172F6
100
AcDbEntity
  8
寸法
 62
     0
 48
50.0
370
    -2
100
AcDbLine
 10
12651.84983051327
 20
2537.931598713264
 30
0.0
 11
13396.77698848541
 21
2537.931598713264
 31
0.0
  0
LINE
  5
17684
330
172F6
100
AcDbEntity
  8
寸法
 62
     0
 48
50.0
370
    -2
100
AcDbLine
 10
12731.84983051327
 20
4557.931598713263
 30
0.0
 11
13396.77698848541
 21
4557.931598713263
 31
0.0
  0
LINE
  5
17685
330
172F6
100
AcDbEntity
  8
寸法
 62
     0
 48
50.0
370
    -2
100
AcDbLine
 10
13336.77698848541
 20
2537.931598713264
 30
0.0
 11
13336.77698848541
 21
4557.931598713263
 31
0.0
  0
INSERT
  5
17686
330
172F6
100
AcDbEntity
  8
寸法
 62
     0
 48
50.0
370
    -2
100
AcDbBlockReference
  2
_DOTSMALL
 10
13336.77698848541
 20
2537.931598713264
 30
0.0
 41
100.0
 42
100.0
 43
100.0
 50
270.0
  0
INSERT
  5
17687
330
172F6
100
AcDbEntity
  8
寸法
 62
     0
 48
50.0
370
    -2
100
AcDbBlockReference
  2
_DOTSMALL
 10
13336.77698848541
 20
4557.931598713263
 30
0.0
 41
100.0
 42
100.0
 43
100.0
 50
90.0
  0
MTEXT
  5
17688
330
172F6
100
AcDbEntity
  8
寸法
 62
     7
 48
50.0
100
AcDbMText
 10
13236.76517746178
 20
3547.931598713266
 30
0.0
 40
120.0
 41
0.0
 71
     5
 72
     1
  1
\A1;2020
  7
STYLE1
 11
0.0000000000000001
 21
1.0
 31
0.0
 73
     1
 44
1.0
1001
ACAD
1000
MTEXTBEGIN
1070
    73
1070
     1
1070
    44
1040
1.0
1070
    74
1070
     0
1000
MTEXTEND
  0
POINT
  5
17689
330
172F6
100
AcDbEntity
  8
DEFPOINTS
 62
     0
 48
50.0
100
AcDbPoint
 10
12631.84983051327
 20
2537.931598713264
 30
0.0
  0
POINT
  5
1768A
330
172F6
100
AcDbEntity
  8
DEFPOINTS
 62
     0
 48
50.0
100
AcDbPoint
 10
12711.84983051327
 20
4557.931598713263
 30
0.0
  0
POINT
  5
1768B
330
172F6
100
AcDbEntity
  8
DEFPOINTS
 62
     0
 48
50.0
100
AcDbPoint
 10
13336.77698848541
 20
4557.931598713263
 30
0.0
  0
ENDBLK
  5
17301
330
172F6
100
AcDbEntity
  8
0
 48
50.0
100
AcDbBlockEnd
  0
BLOCK
  5
1730C
330
17302
100
AcDbEntity
  8
0
 48
50.0
100
AcDbBlockBegin
  2
*D21
 70
     1
 10
0.0
 20
0.0
 30
0.0
  3
*D21
  1

  0
LINE
  5
1767A
330
17302
100
AcDbEntity
  8
寸法
 62
     0
 48
50.0
370
    -2
100
AcDbLine
 10
9981.849830513278
 20
2537.931598713257
 30
0.0
 11
8798.099701330016
 21
2537.931598713257
 31
0.0
  0
LINE
  5
1767B
330
17302
100
AcDbEntity
  8
寸法
 62
     0
 48
50.0
370
    -2
100
AcDbLine
 10
9921.849830513279
 20
4612.931598713262
 30
0.0
 11
8798.099701330018
 21
4612.931598713262
 31
0.0
  0
LINE
  5
1767C
330
17302
100
AcDbEntity
  8
寸法
 62
     0
 48
50.0
370
    -2
100
AcDbLine
 10
8858.099701330017
 20
2537.931598713257
 30
0.0
 11
8858.099701330019
 21
4612.931598713262
 31
0.0
  0
INSERT
  5
1767D
330
17302
100
AcDbEntity
  8
寸法
 62
     0
 48
50.0
370
    -2
100
AcDbBlockReference
  2
_DOTSMALL
 10
8858.099701330017
 20
2537.931598713257
 30
0.0
 41
100.0
 42
100.0
 43
100.0
 50
270.0
  0
INSERT
  5
1767E
330
17302
100
AcDbEntity
  8
寸法
 62
     0
 48
50.0
370
    -2
100
AcDbBlockReference
  2
_DOTSMALL
 10
8858.099701330019
 20
4612.931598713262
 30
0.0
 41
100.0
 42
100.0
 43
100.0
 50
90.0
  0
MTEXT
  5
1767F
330
17302
100
AcDbEntity
  8
寸法
 62
     7
 48
50.0
100
AcDbMText
 10
8758.087890306395
 20
3575.431598713261
 30
0.0
 40
120.0
 41
0.0
 71
     5
 72
     1
  1
\A1;2075
  7
STYLE1
 11
0.0000000000000001
 21
1.0
 31
0.0
 73
     1
 44
1.0
1001
ACAD
1000
MTEXTBEGIN
1070
    73
1070
     1
1070
    44
1040
1.0
1070
    74
1070
     0
1000
MTEXTEND
  0
POINT
  5
17680
330
17302
100
AcDbEntity
  8
DEFPOINTS
 62
     0
 48
50.0
100
AcDbPoint
 10
10001.84983051328
 20
2537.931598713257
 30
0.0
  0
POINT
  5
17681
330
17302
100
AcDbEntity
  8
DEFPOINTS
 62
     0
 48
50.0
100
AcDbPoint
 10
9941.849830513278
 20
4612.931598713262
 30
0.0
  0
POINT
  5
17682
330
17302
100
AcDbEntity
  8
DEFPOINTS
 62
     0
 48
50.0
100
AcDbPoint
 10
8858.099701330019
 20
4612.931598713262
 30
0.0
  0
ENDBLK
  5
1730D
330
17302
100
AcDbEntity
  8
0
 48
50.0
100
AcDbBlockEnd
  0
BLOCK
  5
17318
330
1730E
100
AcDbEntity
  8
0
 48
50.0
100
AcDbBlockBegin
  2
*D22
 70
     1
 10
0.0
 20
0.0
 30
0.0
  3
*D22
  1

  0
LINE
  5
17671
330
1730E
100
AcDbEntity
  8
寸法
 62
     0
 48
50.0
370
    -2
100
AcDbLine
 10
9981.849830513278
 20
4377.931598713258
 30
0.0
 11
9098.099701330021
 21
4377.931598713258
 31
0.0
  0
LINE
  5
17672
330
1730E
100
AcDbEntity
  8
寸法
 62
     0
 48
50.0
370
    -2
100
AcDbLine
 10
9981.849830513278
 20
2587.931598713257
 30
0.0
 11
9098.099701330019
 21
2587.931598713257
 31
0.0
  0
LINE
  5
17673
330
1730E
100
AcDbEntity
  8
寸法
 62
     0
 48
50.0
370
    -2
100
AcDbLine
 10
9158.099701330021
 20
4377.931598713258
 30
0.0
 11
9158.099701330019
 21
2587.931598713257
 31
0.0
  0
INSERT
  5
17674
330
1730E
100
AcDbEntity
  8
寸法
 62
     0
 48
50.0
370
    -2
100
AcDbBlockReference
  2
_DOTSMALL
 10
9158.099701330021
 20
4377.931598713258
 30
0.0
 41
100.0
 42
100.0
 43
100.0
 50
90.0
  0
INSERT
  5
17675
330
1730E
100
AcDbEntity
  8
寸法
 62
     0
 48
50.0
370
    -2
100
AcDbBlockReference
  2
_DOTSMALL
 10
9158.099701330019
 20
2587.931598713257
 30
0.0
 41
100.0
 42
100.0
 43
100.0
 50
270.0
  0
MTEXT
  5
17676
330
1730E
100
AcDbEntity
  8
寸法
 62
     7
 48
50.0
100
AcDbMText
 10
9058.09970133002
 20
3482.931598713259
 30
0.0
 40
120.0
 41
0.0
 71
     5
 72
     1
  1
\A1;1790
  7
STYLE1
 11
0.0000000000000001
 21
1.0
 31
0.0
 73
     1
 44
1.0
1001
ACAD
1000
MTEXTBEGIN
1070
    73
1070
     1
1070
    44
1040
1.0
1070
    74
1070
     0
1000
MTEXTEND
  0
POINT
  5
17677
330
1730E
100
AcDbEntity
  8
DEFPOINTS
 62
     0
 48
50.0
100
AcDbPoint
 10
10001.84983051328
 20
4377.931598713258
 30
0.0
  0
POINT
  5
17678
330
1730E
100
AcDbEntity
  8
DEFPOINTS
 62
     0
 48
50.0
100
AcDbPoint
 10
10001.84983051328
 20
2587.931598713257
 30
0.0
  0
POINT
  5
17679
330
1730E
100
AcDbEntity
  8
DEFPOINTS
 62
     0
 48
50.0
100
AcDbPoint
 10
9158.099701330019
 20
2587.931598713257
 30
0.0
  0
ENDBLK
  5
17319
330
1730E
100
AcDbEntity
  8
0
 48
50.0
100
AcDbBlockEnd
  0
BLOCK
  5
1772D
330
17723
100
AcDbEntity
  8
0
 48
50.0
100
AcDbBlockBegin
  2
*D23
 70
     1
 10
0.0
 20
0.0
 30
0.0
  3
*D23
  1

  0
LINE
  5
177B6
330
17723
100
AcDbEntity
  8
寸法
 62
     0
 48
50.0
370
    -2
100
AcDbLine
 10
5114.67305712366
 20
4632.931598713268
 30
0.0
 11
5114.67305712366
 21
5278.566791659262
 31
0.0
  0
LINE
  5
177B7
330
17723
100
AcDbEntity
  8
寸法
 62
     0
 48
50.0
370
    -2
100
AcDbLine
 10
7424.673057123657
 20
4632.931598713265
 30
0.0
 11
7424.673057123657
 21
5278.566791659262
 31
0.0
  0
LINE
  5
177B8
330
17723
100
AcDbEntity
  8
寸法
 62
     0
 48
50.0
370
    -2
100
AcDbLine
 10
5114.67305712366
 20
5218.566791659262
 30
0.0
 11
7424.673057123657
 21
5218.566791659262
 31
0.0
  0
INSERT
  5
177B9
330
17723
100
AcDbEntity
  8
寸法
 62
     0
 48
50.0
370
    -2
100
AcDbBlockReference
  2
_DOTSMALL
 10
5114.67305712366
 20
5218.566791659262
 30
0.0
 41
100.0
 42
100.0
 43
100.0
 50
180.0
  0
INSERT
  5
177BA
330
17723
100
AcDbEntity
  8
寸法
 62
     0
 48
50.0
370
    -2
100
AcDbBlockReference
  2
_DOTSMALL
 10
7424.673057123657
 20
5218.566791659262
 30
0.0
 41
100.0
 42
100.0
 43
100.0
  0
MTEXT
  5
177BB
330
17723
100
AcDbEntity
  8
寸法
 62
     7
 48
50.0
100
AcDbMText
 10
6269.673057123658
 20
5318.578602682883
 30
0.0
 40
120.0
 41
0.0
 71
     5
 72
     1
  1
\A1;2310
  7
STYLE1
 73
     1
 44
1.0
1001
ACAD
1000
MTEXTBEGIN
1070
    73
1070
     1
1070
    44
1040
1.0
1070
    74
1070
     0
1000
MTEXTEND
  0
POINT
  5
177BC
330
17723
100
AcDbEntity
  8
DEFPOINTS
 62
     0
 48
50.0
100
AcDbPoint
 10
5114.67305712366
 20
4612.931598713267
 30
0.0
  0
POINT
  5
177BD
330
17723
100
AcDbEntity
  8
DEFPOINTS
 62
     0
 48
50.0
100
AcDbPoint
 10
7424.673057123657
 20
4612.931598713265
 30
0.0
  0
POINT
  5
177BE
330
17723
100
AcDbEntity
  8
DEFPOINTS
 62
     0
 48
50.0
100
AcDbPoint
 10
7424.673057123657
 20
5218.566791659262
 30
0.0
  0
ENDBLK
  5
1772E
330
17723
100
AcDbEntity
  8
0
 48
50.0
100
AcDbBlockEnd
  0
BLOCK
  5
17749
330
1773D
100
AcDbEntity
  8
0
 48
50.0
100
AcDbBlockBegin
  2
*D24
 70
     1
 10
0.0
 20
0.0
 30
0.0
  3
*D24
  1

  0
LINE
  5
1776B
330
1773D
100
AcDbEntity
  8
寸法
 62
     0
 48
50.0
370
    -2
100
AcDbLine
 10
5164.67305712366
 20
4632.931598713269
 30
0.0
 11
5164.67305712366
 21
5078.657870445172
 31
0.0
  0
LINE
  5
1776C
330
1773D
100
AcDbEntity
  8
寸法
 62
     0
 48
50.0
370
    -2
100
AcDbLine
 10
5114.67305712366
 20
4632.931598713268
 30
0.0
 11
5114.67305712366
 21
5078.657870445172
 31
0.0
  0
LINE
  5
1776D
330
1773D
100
AcDbEntity
  8
寸法
 62
     0
 48
50.0
370
    -2
100
AcDbLine
 10
5164.67305712366
 20
5018.657870445172
 30
0.0
 11
5264.67305712366
 21
5018.657870445172
 31
0.0
  0
LINE
  5
1776E
330
1773D
100
AcDbEntity
  8
寸法
 62
     0
 48
50.0
370
    -2
100
AcDbLine
 10
5114.67305712366
 20
5018.657870445172
 30
0.0
 11
4695.140531654925
 21
5018.657870445172
 31
0.0
  0
LINE
  5
1776F
330
1773D
100
AcDbEntity
  8
寸法
 62
     0
 48
50.0
370
    -2
100
AcDbLine
 10
5164.67305712366
 20
5018.657870445172
 30
0.0
 11
5114.67305712366
 21
5018.657870445172
 31
0.0
  0
INSERT
  5
17770
330
1773D
100
AcDbEntity
  8
寸法
 62
     0
 48
50.0
370
    -2
100
AcDbBlockReference
  2
_DOTSMALL
 10
5164.67305712366
 20
5018.657870445172
 30
0.0
 41
100.0
 42
100.0
 43
100.0
 50
180.0
  0
INSERT
  5
17771
330
1773D
100
AcDbEntity
  8
寸法
 62
     0
 48
50.0
370
    -2
100
AcDbBlockReference
  2
_DOTSMALL
 10
5114.67305712366
 20
5018.657870445172
 30
0.0
 41
100.0
 42
100.0
 43
100.0
  0
MTEXT
  5
17772
330
1773D
100
AcDbEntity
  8
寸法
 62
     7
 48
50.0
100
AcDbMText
 10
4801.187775749413
 20
5118.657870445172
 30
0.0
 40
120.0
 41
0.0
 71
     5
 72
     1
  1
\A1;50
  7
STYLE1
 73
     1
 44
1.0
1001
ACAD
1000
MTEXTBEGIN
1070
    73
1070
     1
1070
    44
1040
1.0
1070
    74
1070
     0
1000
MTEXTEND
  0
POINT
  5
17773
330
1773D
100
AcDbEntity
  8
DEFPOINTS
 62
     0
 48
50.0
100
AcDbPoint
 10
5164.67305712366
 20
4612.931598713268
 30
0.0
  0
POINT
  5
17774
330
1773D
100
AcDbEntity
  8
DEFPOINTS
 62
     0
 48
50.0
100
AcDbPoint
 10
5114.67305712366
 20
4612.931598713267
 30
0.0
  0
POINT
  5
17775
330
1773D
100
AcDbEntity
  8
DEFPOINTS
 62
     0
 48
50.0
100
AcDbPoint
 10
5114.67305712366
 20
5018.657870445172
 30
0.0
  0
ENDBLK
  5
1774A
330
1773D
100
AcDbEntity
  8
0
 48
50.0
100
AcDbBlockEnd
  0
BLOCK
  5
17755
330
1774B
100
AcDbEntity
  8
0
 48
50.0
100
AcDbBlockBegin
  2
*D25
 70
     1
 10
0.0
 20
0.0
 30
0.0
  3
*D25
  1

  0
LINE
  5
177BF
330
1774B
100
AcDbEntity
  8
寸法
 62
     0
 48
50.0
370
    -2
100
AcDbLine
 10
7374.673057123661
 20
4632.931598713268
 30
0.0
 11
7374.673057123661
 21
5078.657870445172
 31
0.0
  0
LINE
  5
177C0
330
1774B
100
AcDbEntity
  8
寸法
 62
     0
 48
50.0
370
    -2
100
AcDbLine
 10
5164.67305712366
 20
4632.931598713269
 30
0.0
 11
5164.67305712366
 21
5078.657870445172
 31
0.0
  0
LINE
  5
177C1
330
1774B
100
AcDbEntity
  8
寸法
 62
     0
 48
50.0
370
    -2
100
AcDbLine
 10
7374.673057123661
 20
5018.657870445172
 30
0.0
 11
5164.67305712366
 21
5018.657870445172
 31
0.0
  0
INSERT
  5
177C2
330
1774B
100
AcDbEntity
  8
寸法
 62
     0
 48
50.0
370
    -2
100
AcDbBlockReference
  2
_DOTSMALL
 10
7374.673057123661
 20
5018.657870445172
 30
0.0
 41
100.0
 42
100.0
 43
100.0
  0
INSERT
  5
177C3
330
1774B
100
AcDbEntity
  8
寸法
 62
     0
 48
50.0
370
    -2
100
AcDbBlockReference
  2
_DOTSMALL
 10
5164.67305712366
 20
5018.657870445172
 30
0.0
 41
100.0
 42
100.0
 43
100.0
 50
180.0
  0
MTEXT
  5
177C4
330
1774B
100
AcDbEntity
  8
寸法
 62
     7
 48
50.0
100
AcDbMText
 10
6269.673057123658
 20
5118.669681468794
 30
0.0
 40
120.0
 41
0.0
 71
     5
 72
     1
  1
\A1;柱外寸法2210
  7
STYLE1
 73
     1
 44
1.0
1001
ACAD
1000
MTEXTBEGIN
1070
    73
1070
     1
1070
    44
1040
1.0
1070
    74
1070
     0
1000
MTEXTEND
  0
POINT
  5
177C5
330
1774B
100
AcDbEntity
  8
DEFPOINTS
 62
     0
 48
50.0
100
AcDbPoint
 10
7374.673057123661
 20
4612.931598713267
 30
0.0
  0
POINT
  5
177C6
330
1774B
100
AcDbEntity
  8
DEFPOINTS
 62
     0
 48
50.0
100
AcDbPoint
 10
5164.67305712366
 20
4612.931598713268
 30
0.0
  0
POINT
  5
177C7
330
1774B
100
AcDbEntity
  8
DEFPOINTS
 62
     0
 48
50.0
100
AcDbPoint
 10
5164.67305712366
 20
5018.657870445172
 30
0.0
  0
ENDBLK
  5
17756
330
1774B
100
AcDbEntity
  8
0
 48
50.0
100
AcDbBlockEnd
  0
BLOCK
  5
17796
330
1778A
100
AcDbEntity
  8
0
 48
50.0
100
AcDbBlockBegin
  2
*D26
 70
     1
 10
0.0
 20
0.0
 30
0.0
  3
*D26
  1

  0
LINE
  5
17798
330
1778A
100
AcDbEntity
  8
寸法
 62
     0
 48
50.0
370
    -2
100
AcDbLine
 10
7424.673057123657
 20
4632.931598713265
 30
0.0
 11
7424.673057123657
 21
5078.657870445172
 31
0.0
  0
LINE
  5
17799
330
1778A
100
AcDbEntity
  8
寸法
 62
     0
 48
50.0
370
    -2
100
AcDbLine
 10
7374.673057123661
 20
4632.931598713268
 30
0.0
 11
7374.673057123661
 21
5078.657870445172
 31
0.0
  0
LINE
  5
1779A
330
1778A
100
AcDbEntity
  8
寸法
 62
     0
 48
50.0
370
    -2
100
AcDbLine
 10
7374.673057123661
 20
5018.657870445172
 30
0.0
 11
7274.673057123661
 21
5018.657870445172
 31
0.0
  0
LINE
  5
1779B
330
1778A
100
AcDbEntity
  8
寸法
 62
     0
 48
50.0
370
    -2
100
AcDbLine
 10
7424.673057123657
 20
5018.657870445172
 30
0.0
 11
7844.205582592384
 21
5018.657870445172
 31
0.0
  0
LINE
  5
1779C
330
1778A
100
AcDbEntity
  8
寸法
 62
     0
 48
50.0
370
    -2
100
AcDbLine
 10
7374.673057123661
 20
5018.657870445172
 30
0.0
 11
7424.673057123657
 21
5018.657870445172
 31
0.0
  0
INSERT
  5
1779D
330
1778A
100
AcDbEntity
  8
寸法
 62
     0
 48
50.0
370
    -2
100
AcDbBlockReference
  2
_DOTSMALL
 10
7374.673057123661
 20
5018.657870445172
 30
0.0
 41
100.0
 42
100.0
 43
100.0
  0
INSERT
  5
1779E
330
1778A
100
AcDbEntity
  8
寸法
 62
     0
 48
50.0
370
    -2
100
AcDbBlockReference
  2
_DOTSMALL
 10
7424.673057123657
 20
5018.657870445172
 30
0.0
 41
100.0
 42
100.0
 43
100.0
 50
180.0
  0
MTEXT
  5
1779F
330
1778A
100
AcDbEntity
  8
寸法
 62
     7
 48
50.0
100
AcDbMText
 10
7738.158338497896
 20
5118.657870445172
 30
0.0
 40
120.0
 41
0.0
 71
     5
 72
     1
  1
\A1;50
  7
STYLE1
 73
     1
 44
1.0
1001
ACAD
1000
MTEXTBEGIN
1070
    73
1070
     1
1070
    44
1040
1.0
1070
    74
1070
     0
1000
MTEXTEND
  0
POINT
  5
177A0
330
1778A
100
AcDbEntity
  8
DEFPOINTS
 62
     0
 48
50.0
100
AcDbPoint
 10
7424.673057123657
 20
4612.931598713265
 30
0.0
  0
POINT
  5
177A1
330
1778A
100
AcDbEntity
  8
DEFPOINTS
 62
     0
 48
50.0
100
AcDbPoint
 10
7374.673057123661
 20
4612.931598713267
 30
0.0
  0
POINT
  5
177A2
330
1778A
100
AcDbEntity
  8
DEFPOINTS
 62
     0
 48
50.0
100
AcDbPoint
 10
7374.673057123661
 20
5018.657870445172
 30
0.0
  0
ENDBLK
  5
17797
330
1778A
100
AcDbEntity
  8
0
 48
50.0
100
AcDbBlockEnd
  0
BLOCK
  5
179C4
330
179B9
100
AcDbEntity
  8
0
 48
50.0
100
AcDbBlockBegin
  2
*D27
 70
     1
 10
0.0
 20
0.0
 30
0.0
  3
*D27
  1

  0
LINE
  5
17ABD
330
179B9
100
AcDbEntity
  8
寸法
 62
     0
 48
50.0
370
    -2
100
AcDbLine
 10
7394.67305712366
 20
4212.931598713262
 30
0.0
 11
7722.216159445403
 21
4212.931598713262
 31
0.0
  0
LINE
  5
17ABE
330
179B9
100
AcDbEntity
  8
寸法
 62
     0
 48
50.0
370
    -2
100
AcDbLine
 10
7394.673057123657
 20
4377.931598713261
 30
0.0
 11
7722.216159445403
 21
4377.931598713261
 31
0.0
  0
LINE
  5
17ABF
330
179B9
100
AcDbEntity
  8
寸法
 62
     0
 48
50.0
370
    -2
100
AcDbLine
 10
7662.216159445404
 20
4212.931598713262
 30
0.0
 11
7662.216159445404
 21
4377.931598713261
 31
0.0
  0
LINE
  5
17AC0
330
179B9
100
AcDbEntity
  8
寸法
 62
     0
 48
50.0
370
    -2
100
AcDbLine
 10
7662.216159445404
 20
4377.931598713261
 30
0.0
 11
7662.216159445404
 21
4754.902161461738
 31
0.0
  0
INSERT
  5
17AC1
330
179B9
100
AcDbEntity
  8
寸法
 62
     0
 48
50.0
370
    -2
100
AcDbBlockReference
  2
_DOTSMALL
 10
7662.216159445404
 20
4212.931598713262
 30
0.0
 41
100.0
 42
100.0
 43
100.0
 50
270.0
  0
INSERT
  5
17AC2
330
179B9
100
AcDbEntity
  8
寸法
 62
     0
 48
50.0
370
    -2
100
AcDbBlockReference
  2
_DOTSMALL
 10
7662.216159445404
 20
4377.931598713261
 30
0.0
 41
100.0
 42
100.0
 43
100.0
 50
90.0
  0
MTEXT
  5
17AC3
330
179B9
100
AcDbEntity
  8
寸法
 62
     7
 48
50.0
100
AcDbMText
 10
7562.216159445402
 20
4616.4168800875
 30
0.0
 40
120.0
 41
0.0
 71
     5
 72
     1
  1
\A1;165
  7
STYLE1
 11
0.0000000000000001
 21
1.0
 31
0.0
 73
     1
 44
1.0
1001
ACAD
1000
MTEXTBEGIN
1070
    73
1070
     1
1070
    44
1040
1.0
1070
    74
1070
     0
1000
MTEXTEND
  0
POINT
  5
17AC4
330
179B9
100
AcDbEntity
  8
DEFPOINTS
 62
     0
 48
50.0
100
AcDbPoint
 10
7374.67305712366
 20
4212.931598713262
 30
0.0
  0
POINT
  5
17AC5
330
179B9
100
AcDbEntity
  8
DEFPOINTS
 62
     0
 48
50.0
100
AcDbPoint
 10
7374.673057123657
 20
4377.931598713261
 30
0.0
  0
POINT
  5
17AC6
330
179B9
100
AcDbEntity
  8
DEFPOINTS
 62
     0
 48
50.0
100
AcDbPoint
 10
7662.216159445404
 20
4377.931598713261
 30
0.0
  0
ENDBLK
  5
179C5
330
179B9
100
AcDbEntity
  8
0
 48
50.0
100
AcDbBlockEnd
  0
BLOCK
  5
179D2
330
179C6
100
AcDbEntity
  8
0
 48
50.0
100
AcDbBlockBegin
  2
*D28
 70
     1
 10
0.0
 20
0.0
 30
0.0
  3
*D28
  1

  0
LINE
  5
17AB2
330
179C6
100
AcDbEntity
  8
寸法
 62
     0
 48
50.0
370
    -2
100
AcDbLine
 10
7394.673057123657
 20
4185.931598713261
 30
0.0
 11
7722.216159445403
 21
4185.931598713261
 31
0.0
  0
LINE
  5
17AB3
330
179C6
100
AcDbEntity
  8
寸法
 62
     0
 48
50.0
370
    -2
100
AcDbLine
 10
7394.67305712366
 20
4212.931598713262
 30
0.0
 11
7722.216159445403
 21
4212.931598713262
 31
0.0
  0
LINE
  5
17AB4
330
179C6
100
AcDbEntity
  8
寸法
 62
     0
 48
50.0
370
    -2
100
AcDbLine
 10
7662.216159445403
 20
4185.931598713261
 30
0.0
 11
7662.216159445403
 21
4085.931598713261
 31
0.0
  0
LINE
  5
17AB5
330
179C6
100
AcDbEntity
  8
寸法
 62
     0
 48
50.0
370
    -2
100
AcDbLine
 10
7662.216159445403
 20
4212.931598713262
 30
0.0
 11
7662.216159445403
 21
4312.931598713261
 31
0.0
  0
MTEXT
  5
17AB6
330
179C6
100
AcDbEntity
  8
寸法
 62
     7
 48
50.0
100
AcDbMText
 10
7802.385982691768
 20
4213.898798552921
 30
0.0
 40
120.0
 41
0.0
 71
     5
 72
     1
  1
\A1;27
  7
STYLE1
 11
0.0000000000000001
 21
1.0
 31
0.0
 73
     1
 44
1.0
1001
ACAD
1000
MTEXTBEGIN
1070
    73
1070
     1
1070
    44
1040
1.0
1070
    74
1070
     0
1000
MTEXTEND
  0
LINE
  5
17AB7
330
179C6
100
AcDbEntity
  8
寸法
 62
     0
 48
50.0
370
    -2
100
AcDbLine
 10
7662.216159445403
 20
4185.931598713261
 30
0.0
 11
7662.216159445403
 21
4212.931598713262
 31
0.0
  0
INSERT
  5
17AB8
330
179C6
100
AcDbEntity
  8
寸法
 62
     0
 48
50.0
370
    -2
100
AcDbBlockReference
  2
_DOTSMALL
 10
7662.216159445403
 20
4185.931598713261
 30
0.0
 41
100.0
 42
100.0
 43
100.0
 50
90.0
  0
INSERT
  5
17AB9
330
179C6
100
AcDbEntity
  8
寸法
 62
     0
 48
50.0
370
    -2
100
AcDbBlockReference
  2
_DOTSMALL
 10
7662.216159445403
 20
4212.931598713262
 30
0.0
 41
100.0
 42
100.0
 43
100.0
 50
270.0
  0
POINT
  5
17ABA
330
179C6
100
AcDbEntity
  8
DEFPOINTS
 62
     0
 48
50.0
100
AcDbPoint
 10
7374.673057123657
 20
4185.931598713261
 30
0.0
  0
POINT
  5
17ABB
330
179C6
100
AcDbEntity
  8
DEFPOINTS
 62
     0
 48
50.0
100
AcDbPoint
 10
7374.67305712366
 20
4212.931598713262
 30
0.0
  0
POINT
  5
17ABC
330
179C6
100
AcDbEntity
  8
DEFPOINTS
 62
     0
 48
50.0
100
AcDbPoint
 10
7662.216159445403
 20
4212.931598713262
 30
0.0
  0
ENDBLK
  5
179D3
330
179C6
100
AcDbEntity
  8
0
 48
50.0
100
AcDbBlockEnd
  0
BLOCK
  5
179DE
330
179D4
100
AcDbEntity
  8
0
 48
50.0
100
AcDbBlockBegin
  2
*D29
 70
     1
 10
0.0
 20
0.0
 30
0.0
  3
*D29
  1

  0
LINE
  5
17A3B
330
179D4
100
AcDbEntity
  8
寸法
 62
     0
 48
50.0
370
    -2
100
AcDbLine
 10
7394.673057123657
 20
2537.931598713262
 30
0.0
 11
7722.216159445403
 21
2537.931598713262
 31
0.0
  0
LINE
  5
17A3C
330
179D4
100
AcDbEntity
  8
寸法
 62
     0
 48
50.0
370
    -2
100
AcDbLine
 10
7394.673057123657
 20
4185.931598713261
 30
0.0
 11
7722.216159445403
 21
4185.931598713261
 31
0.0
  0
LINE
  5
17A3D
330
179D4
100
AcDbEntity
  8
寸法
 62
     0
 48
50.0
370
    -2
100
AcDbLine
 10
7662.216159445403
 20
2537.931598713262
 30
0.0
 11
7662.216159445403
 21
4185.931598713261
 31
0.0
  0
INSERT
  5
17A3E
330
179D4
100
AcDbEntity
  8
寸法
 62
     0
 48
50.0
370
    -2
100
AcDbBlockReference
  2
_DOTSMALL
 10
7662.216159445403
 20
2537.931598713262
 30
0.0
 41
100.0
 42
100.0
 43
100.0
 50
270.0
  0
INSERT
  5
17A3F
330
179D4
100
AcDbEntity
  8
寸法
 62
     0
 48
50.0
370
    -2
100
AcDbBlockReference
  2
_DOTSMALL
 10
7662.216159445403
 20
4185.931598713261
 30
0.0
 41
100.0
 42
100.0
 43
100.0
 50
90.0
  0
MTEXT
  5
17A40
330
179D4
100
AcDbEntity
  8
寸法
 62
     7
 48
50.0
100
AcDbMText
 10
7562.216159445402
 20
3361.931598713263
 30
0.0
 40
120.0
 41
0.0
 71
     5
 72
     1
  1
\A1;有効開口部高サ 1648
  7
STYLE1
 11
0.0000000000000001
 21
1.0
 31
0.0
 73
     1
 44
1.0
1001
ACAD
1000
MTEXTBEGIN
1070
    73
1070
     1
1070
    44
1040
1.0
1070
    74
1070
     0
1000
MTEXTEND
  0
POINT
  5
17A41
330
179D4
100
AcDbEntity
  8
DEFPOINTS
 62
     0
 48
50.0
100
AcDbPoint
 10
7374.673057123657
 20
2537.931598713262
 30
0.0
  0
POINT
  5
17A42
330
179D4
100
AcDbEntity
  8
DEFPOINTS
 62
     0
 48
50.0
100
AcDbPoint
 10
7374.673057123657
 20
4185.931598713261
 30
0.0
  0
POINT
  5
17A43
330
179D4
100
AcDbEntity
  8
DEFPOINTS
 62
     0
 48
50.0
100
AcDbPoint
 10
7662.216159445403
 20
4185.931598713261
 30
0.0
  0
ENDBLK
  5
179DF
330
179D4
100
AcDbEntity
  8
0
 48
50.0
100
AcDbBlockEnd
  0
ENDSEC
  0
SECTION
  2
ENTITIES
  0
MTEXT
  5
763F
330
747D
100
AcDbEntity
  8
0
100
AcDbMText
 10
302.846345836809
 20
280.1983726409901
 30
0.0
 40
3.5
 41
5.323721266742722
 71
     1
 72
     5
  1

  7
MSMINCHO
 73
     1
 44
1.0
1001
ACAD
1000
MTEXTBEGIN
1070
    73
1070
     1
1070
    44
1040
1.0
1070
    74
1070
     0
1000
MTEXTEND
  0
LINE
  5
10B57
330
747D
100
AcDbEntity
  8
補助
  6
PHANTOM
 62
   230
 48
50.0
100
AcDbLine
 10
139.9999999999995
 20
11409.6
 30
0.0
 11
16307.2
 21
11409.6
 31
0.0
  0
LINE
  5
10B59
330
747D
100
AcDbEntity
  8
仕様書枠
  6
Continuous
 48
50.0
100
AcDbLine
 10
13107.2
 20
1200.0
 30
0.0
 11
13107.2
 21
-0.0000000000000729
 31
0.0
  0
LINE
  5
10B5C
330
747D
100
AcDbEntity
  8
仕様書枠
 48
50.0
100
AcDbLine
 10
16307.2
 20
1200.0
 30
0.0
 11
16307.2
 21
-0.0000000000000909
 31
0.0
  0
LINE
  5
10B5D
330
747D
100
AcDbEntity
  8
仕様書枠
 48
50.0
100
AcDbLine
 10
140.0
 20
0.0
 30
0.0
 11
16307.2
 21
-0.0000000000000909
 31
0.0
  0
LINE
  5
10B5E
330
747D
100
AcDbEntity
  8
補助
  6
PHANTOM
 62
   230
 48
50.0
100
AcDbLine
 10
16307.2
 20
11409.6
 30
0.0
 11
16307.2
 21
1200.0
 31
0.0
  0
LINE
  5
10B6C
330
747D
100
AcDbEntity
  8
仕様書枠
 48
50.0
100
AcDbLine
 10
13107.2
 20
1200.0
 30
0.0
 11
16307.2
 21
1200.0
 31
0.0
  0
LINE
  5
10B6D
330
747D
100
AcDbEntity
  8
補助
  6
PHANTOM
 62
   230
 48
50.0
100
AcDbLine
 10
13107.2
 20
11409.6
 30
0.0
 11
13107.2
 21
4800.0
 31
0.0
  0
LINE
  5
10B6F
330
747D
100
AcDbEntity
  8
補助
  6
PHANTOM
 62
   230
 48
50.0
100
AcDbLine
 10
13107.2
 20
4800.0
 30
0.0
 11
16307.2
 21
4800.0
 31
0.0
  0
LINE
  5
10B72
330
747D
100
AcDbEntity
  8
文字
 62
     7
 48
50.0
100
AcDbLine
 10
13187.2
 20
400.0
 30
0.0
 11
16227.2
 21
400.0
 31
0.0
  0
TEXT
  5
10B73
330
747D
100
AcDbEntity
  8
文字
 62
     7
 48
50.0
100
AcDbText
 10
13162.9790565769
 20
895.0906074299405
 30
0.0
 40
200.0
  1
外 形 図
  7
STYLE2
100
AcDbText
  0
TEXT
  5
10B74
330
747D
100
AcDbEntity
  8
文字
 62
     7
 48
50.0
100
AcDbText
 10
13201.43669998441
 20
477.2740661031255
 30
0.0
 40
160.0
  1
機種名
  7
STYLE2
100
AcDbText
  0
TEXT
  5
10B75
330
747D
100
AcDbEntity
  8
文字
 62
     7
 48
50.0
100
AcDbText
 10
13209.4053442172
 20
228.5435242569016
 30
0.0
 40
100.0
  1
○有効開口寸法 ： 2004×1648(mm)
  7
STYLE2
100
AcDbText
  0
TEXT
  5
10B76
330
747D
100
AcDbEntity
  8
文字
 62
     7
 48
50.0
100
AcDbText
 10
13209.4053442172
 20
76.09434707649343
 30
0.0
 40
100.0
  1
○床面積 ： 5.81㎡(1.76坪) 　
  7
STYLE2
100
AcDbText
  0
TEXT
  5
10B79
330
747D
100
AcDbEntity
  8
文字
 62
     7
 48
50.0
100
AcDbText
 10
14524.131837222
 20
1031.557706291228
 30
0.0
 40
100.0
  1
NO.25      <縮尺> S=1/40
  7
STYLE2
100
AcDbText
  0
LINE
  5
10B7B
330
747D
100
AcDbEntity
  8
仕様書枠
 48
50.0
100
AcDbLine
 10
13107.2
 20
800.0
 30
0.0
 11
14251.2
 21
800.0
 31
0.0
  0
LINE
  5
10B88
330
747D
100
AcDbEntity
  8
仕様書枠
  6
Continuous
 48
50.0
100
AcDbLine
 10
14251.2
 20
1200.0
 30
0.0
 11
14251.2
 21
800.0
 31
0.0
  0
LINE
  5
12765
330
747D
100
AcDbEntity
  8
Ｇ．Ｌ
100
AcDbLine
 10
4109.761915056706
 20
2437.931598713261
 30
0.0
 11
13630.79354554682
 21
2437.931598713261
 31
0.0
  0
LINE
  5
127A8
330
747D
100
AcDbEntity
  8
部品1
100
AcDbLine
 10
4136.444509552503
 20
2567.835409280926
 30
0.0
 11
4286.444509552502
 21
2567.835409280926
 31
0.0
  0
LINE
  5
127A9
330
747D
100
AcDbEntity
  8
部品1
100
AcDbLine
 10
4211.444509552502
 20
2437.931598713261
 30
0.0
 11
4136.444509552503
 21
2567.835409280926
 31
0.0
  0
TEXT
  5
127AA
330
747D
100
AcDbEntity
  8
部品1
100
AcDbText
 10
4314.549451677276
 20
2474.038502319163
 30
0.0
 40
125.0
  1
G.L
  7
MSGOTHIC
100
AcDbText
  0
LINE
  5
127AB
330
747D
100
AcDbEntity
  8
部品1
100
AcDbLine
 10
4286.444509552502
 20
2567.835409280926
 30
0.0
 11
4211.444509552502
 21
2437.931598713261
 31
0.0
  0
LINE
  5
13BE8
330
747D
100
AcDbEntity
  8
部品1
100
AcDbLine
 10
5164.673057123657
 20
2537.931598713262
 30
0.0
 11
7374.673057123657
 21
2537.931598713262
 31
0.0
  0
LINE
  5
13C1F
330
747D
100
AcDbEntity
  8
部品1
100
AcDbLine
 10
5164.673057123657
 20
4471.931598713268
 30
0.0
 11
5164.673057123657
 21
2437.931598713261
 31
0.0
  0
LINE
  5
13CFC
330
747D
100
AcDbEntity
  8
部品1
100
AcDbLine
 10
7319.673057123655
 20
4212.931598713262
 30
0.0
 11
7319.673057123655
 21
2537.931598713262
 31
0.0
  0
LINE
  5
13CFE
330
747D
100
AcDbEntity
  8
部品1
100
AcDbLine
 10
5219.673057123657
 20
4212.93159871326
 30
0.0
 11
5219.673057123657
 21
2537.931598713262
 31
0.0
  0
LINE
  5
13D18
330
747D
100
AcDbEntity
  8
部品1
100
AcDbLine
 10
7374.673057123658
 20
4471.931598713269
 30
0.0
 11
7374.673057123657
 21
2437.931598713261
 31
0.0
  0
LINE
  5
146B2
330
747D
100
AcDbEntity
  8
破線
 48
5.0
100
AcDbLine
 10
7374.673057123657
 20
2437.931598713261
 30
0.0
 11
7374.673057123657
 21
2187.931598713261
 31
0.0
  0
LINE
  5
146B3
330
747D
100
AcDbEntity
  8
破線
 48
5.0
100
AcDbLine
 10
5164.673057123657
 20
2437.931598713261
 30
0.0
 11
5164.673057123656
 21
2187.931598713261
 31
0.0
  0
TEXT
  5
149A1
330
747D
100
AcDbEntity
  8
部品1
100
AcDbText
 10
5980.265457350326
 20
1595.038069494737
 30
0.0
 40
135.0
  1
正面図
  7
MSGOTHIC
100
AcDbText
  0
LWPOLYLINE
  5
149A2
330
747D
100
AcDbEntity
  8
部品1
100
AcDbPolyline
 90
        4
 70
     1
 43
0.0
 10
5887.937724009429
 20
1787.931598713261
 10
5887.937724009429
 20
1548.039277167729
 10
6651.408390237867
 20
1548.039277167729
 10
6651.408390237867
 20
1787.931598713261
  0
TEXT
  5
14E88
330
747D
100
AcDbEntity
  8
部品1
100
AcDbText
 10
5979.659663441408
 20
6098.457669158013
 30
0.0
 40
135.0
  1
平面図
  7
MSGOTHIC
100
AcDbText
  0
LWPOLYLINE
  5
14E89
330
747D
100
AcDbEntity
  8
部品1
100
AcDbPolyline
 90
        4
 70
     1
 43
0.0
 10
5887.937724009429
 20
6291.351198376537
 10
5887.937724009429
 20
6051.458876831004
 10
6651.408390237867
 20
6051.458876831004
 10
6651.408390237867
 20
6291.351198376537
  0
TEXT
  5
15550
330
747D
100
AcDbEntity
  8
文字
 62
     7
 48
50.0
100
AcDbText
 10
14646.46056207479
 20
871.9640646083623
 30
0.0
 40
100.0
  1
～一般型・多雪地型～
  7
STYLE2
100
AcDbText
  0
LINE
  5
15CE5
330
747D
100
AcDbEntity
  8
破線
 48
5.0
100
AcDbLine
 10
7319.673057123655
 20
2537.931598713262
 30
0.0
 11
7319.673057123657
 21
2187.931598713261
 31
0.0
  0
LINE
  5
15CE6
330
747D
100
AcDbEntity
  8
破線
 48
5.0
100
AcDbLine
 10
5219.673057123657
 20
2537.931598713262
 30
0.0
 11
5219.673057123656
 21
2187.931598713261
 31
0.0
  0
LINE
  5
15CE7
330
747D
100
AcDbEntity
  8
破線
 48
5.0
100
AcDbLine
 10
7374.673057123655
 20
2187.931598713261
 30
0.0
 11
7319.673057123657
 21
2187.931598713261
 31
0.0
  0
LINE
  5
15CE8
330
747D
100
AcDbEntity
  8
破線
 48
5.0
100
AcDbLine
 10
5219.673057123655
 20
2187.931598713269
 30
0.0
 11
5164.673057123656
 21
2187.931598713269
 31
0.0
  0
LINE
  5
15CE9
330
747D
100
AcDbEntity
  8
部品1
100
AcDbLine
 10
5267.673057123657
 20
4212.931598713261
 30
0.0
 11
5267.673057123657
 21
2537.931598713262
 31
0.0
  0
LINE
  5
15CEA
330
747D
100
AcDbEntity
  8
破線
 48
5.0
100
AcDbLine
 10
5267.673057123657
 20
2537.931598713262
 30
0.0
 11
5267.673057123655
 21
2287.931598713267
 31
0.0
  0
LINE
  5
15CEB
330
747D
100
AcDbEntity
  8
部品1
100
AcDbLine
 10
7271.673057123658
 20
4212.931598713262
 30
0.0
 11
7271.673057123655
 21
2537.931598713262
 31
0.0
  0
LINE
  5
15CEC
330
747D
100
AcDbEntity
  8
破線
 48
5.0
100
AcDbLine
 10
7271.673057123655
 20
2537.931598713262
 30
0.0
 11
7271.673057123656
 21
2287.931598713262
 31
0.0
  0
LINE
  5
15CED
330
747D
100
AcDbEntity
  8
破線
 48
5.0
100
AcDbLine
 10
7319.673057123657
 20
2287.931598713262
 30
0.0
 11
7271.673057123656
 21
2287.931598713262
 31
0.0
  0
LINE
  5
15CEE
330
747D
100
AcDbEntity
  8
破線
 48
5.0
100
AcDbLine
 10
5267.673057123656
 20
2287.931598713267
 30
0.0
 11
5219.673057123655
 21
2287.931598713267
 31
0.0
  0
LINE
  5
15CF0
330
747D
100
AcDbEntity
  8
部品1
100
AcDbLine
 10
5164.673057123657
 20
4212.93159871326
 30
0.0
 11
7374.67305712366
 21
4212.931598713262
 31
0.0
  0
LINE
  5
15D20
330
747D
100
AcDbEntity
  8
細線
100
AcDbLine
 10
5267.673057123653
 20
4172.931598713261
 30
0.0
 11
7271.673057123655
 21
4172.931598713261
 31
0.0
  0
LINE
  5
15D23
330
747D
100
AcDbEntity
  8
細線
100
AcDbLine
 10
5267.673057123653
 20
3782.931598713262
 30
0.0
 11
7271.673057123655
 21
3782.931598713262
 31
0.0
  0
LINE
  5
15D24
330
747D
100
AcDbEntity
  8
細線
100
AcDbLine
 10
5267.673057123653
 20
3847.931598713262
 30
0.0
 11
7271.673057123655
 21
3847.931598713262
 31
0.0
  0
LINE
  5
15D25
330
747D
100
AcDbEntity
  8
細線
100
AcDbLine
 10
5267.673057123653
 20
3912.931598713262
 30
0.0
 11
7271.673057123655
 21
3912.931598713262
 31
0.0
  0
LINE
  5
15D26
330
747D
100
AcDbEntity
  8
細線
100
AcDbLine
 10
5267.673057123653
 20
3977.931598713261
 30
0.0
 11
7271.673057123655
 21
3977.931598713261
 31
0.0
  0
LINE
  5
15D27
330
747D
100
AcDbEntity
  8
細線
100
AcDbLine
 10
5267.673057123653
 20
4042.931598713261
 30
0.0
 11
7271.673057123655
 21
4042.931598713261
 31
0.0
  0
LINE
  5
15D28
330
747D
100
AcDbEntity
  8
細線
100
AcDbLine
 10
5267.673057123653
 20
4107.931598713261
 30
0.0
 11
7271.673057123655
 21
4107.931598713261
 31
0.0
  0
LINE
  5
15D29
330
747D
100
AcDbEntity
  8
細線
100
AcDbLine
 10
5267.673057123653
 20
3132.931598713261
 30
0.0
 11
7271.673057123655
 21
3132.931598713261
 31
0.0
  0
LINE
  5
15D2A
330
747D
100
AcDbEntity
  8
細線
100
AcDbLine
 10
5267.673057123653
 20
3197.931598713262
 30
0.0
 11
7271.673057123655
 21
3197.931598713262
 31
0.0
  0
LINE
  5
15D2B
330
747D
100
AcDbEntity
  8
細線
100
AcDbLine
 10
5267.673057123653
 20
3262.931598713262
 30
0.0
 11
7271.673057123655
 21
3262.931598713262
 31
0.0
  0
LINE
  5
15D2C
330
747D
100
AcDbEntity
  8
細線
100
AcDbLine
 10
5267.673057123653
 20
3327.931598713262
 30
0.0
 11
7271.673057123655
 21
3327.931598713262
 31
0.0
  0
LINE
  5
15D2D
330
747D
100
AcDbEntity
  8
細線
100
AcDbLine
 10
5267.673057123653
 20
3392.931598713261
 30
0.0
 11
7271.673057123655
 21
3392.931598713261
 31
0.0
  0
LINE
  5
15D2E
330
747D
100
AcDbEntity
  8
細線
100
AcDbLine
 10
5267.673057123653
 20
3457.931598713262
 30
0.0
 11
7271.673057123655
 21
3457.931598713262
 31
0.0
  0
LINE
  5
15D2F
330
747D
100
AcDbEntity
  8
細線
100
AcDbLine
 10
5267.673057123653
 20
3522.931598713262
 30
0.0
 11
7271.673057123655
 21
3522.931598713262
 31
0.0
  0
LINE
  5
15D30
330
747D
100
AcDbEntity
  8
細線
100
AcDbLine
 10
5267.673057123653
 20
3587.931598713261
 30
0.0
 11
7271.673057123655
 21
3587.931598713261
 31
0.0
  0
LINE
  5
15D31
330
747D
100
AcDbEntity
  8
細線
100
AcDbLine
 10
5267.673057123653
 20
3652.931598713261
 30
0.0
 11
7271.673057123655
 21
3652.931598713261
 31
0.0
  0
LINE
  5
15D32
330
747D
100
AcDbEntity
  8
細線
100
AcDbLine
 10
5267.673057123653
 20
3717.931598713261
 30
0.0
 11
7271.673057123655
 21
3717.931598713261
 31
0.0
  0
LINE
  5
15D36
330
747D
100
AcDbEntity
  8
細線
100
AcDbLine
 10
5267.673057123653
 20
2547.931598713262
 30
0.0
 11
7271.673057123655
 21
2547.931598713262
 31
0.0
  0
LINE
  5
15D37
330
747D
100
AcDbEntity
  8
細線
100
AcDbLine
 10
5267.673057123653
 20
2612.931598713262
 30
0.0
 11
7271.673057123655
 21
2612.931598713262
 31
0.0
  0
LINE
  5
15D38
330
747D
100
AcDbEntity
  8
細線
100
AcDbLine
 10
5267.673057123653
 20
2677.931598713261
 30
0.0
 11
7271.673057123655
 21
2677.931598713261
 31
0.0
  0
LINE
  5
15D39
330
747D
100
AcDbEntity
  8
細線
100
AcDbLine
 10
5267.673057123653
 20
2742.931598713262
 30
0.0
 11
7271.673057123655
 21
2742.931598713262
 31
0.0
  0
LINE
  5
15D3A
330
747D
100
AcDbEntity
  8
細線
100
AcDbLine
 10
5267.673057123653
 20
2807.931598713262
 30
0.0
 11
7271.673057123655
 21
2807.931598713262
 31
0.0
  0
LINE
  5
15D3B
330
747D
100
AcDbEntity
  8
細線
100
AcDbLine
 10
5267.673057123653
 20
2872.931598713261
 30
0.0
 11
7271.673057123655
 21
2872.931598713261
 31
0.0
  0
LINE
  5
15D3C
330
747D
100
AcDbEntity
  8
細線
100
AcDbLine
 10
5267.673057123653
 20
2937.931598713261
 30
0.0
 11
7271.673057123655
 21
2937.931598713261
 31
0.0
  0
LINE
  5
15D3D
330
747D
100
AcDbEntity
  8
細線
100
AcDbLine
 10
5267.673057123653
 20
3002.931598713261
 30
0.0
 11
7271.673057123655
 21
3002.931598713261
 31
0.0
  0
LINE
  5
15D3E
330
747D
100
AcDbEntity
  8
細線
100
AcDbLine
 10
5267.673057123653
 20
3067.931598713262
 30
0.0
 11
7271.673057123655
 21
3067.931598713262
 31
0.0
  0
LINE
  5
15D3F
330
747D
100
AcDbEntity
  8
細線
100
AcDbLine
 10
7271.673057123656
 20
2547.931598713262
 30
0.0
 11
5267.673057123651
 21
2547.931598713262
 31
0.0
  0
DIMENSION
  5
163BA
330
747D
100
AcDbEntity
  8
寸法
100
AcDbDimension
  2
*D1
 10
8022.099402858071
 20
7333.576234852884
 30
0.0
 11
7922.087591834447
 21
8593.576234852895
 31
0.0
 70
    32
  1
6X420=<>
 71
     5
 42
2520.000000000015
  3
INABA_S40G
100
AcDbAlignedDimension
 13
7374.673057123664
 23
9853.5762348529
 33
0.0
 14
7374.673057123638
 24
7333.576234852884
 34
0.0
 50
90.0
100
AcDbRotatedDimension
1001
ACAD
1000
DSTYLE
1002
{
1002
}
  0
DIMENSION
  5
163BB
330
747D
100
AcDbEntity
  8
寸法
100
AcDbDimension
  2
*D2
 10
8022.099402858051
 20
7278.576234852888
 30
0.0
 11
8022.099402858048
 21
6900.714767948025
 31
0.0
 70
   160
 71
     5
 42
54.99999999999636
  3
INABA_S40G
100
AcDbAlignedDimension
 13
7374.673057123638
 23
7333.576234852884
 33
0.0
 14
7374.673057123638
 24
7278.576234852888
 34
0.0
 50
90.0
100
AcDbRotatedDimension
1001
ACAD
1000
DSTYLE
1002
{
1002
}
  0
DIMENSION
  5
163BC
330
747D
100
AcDbEntity
  8
寸法
100
AcDbDimension
  2
*D3
 10
8022.099402858074
 20
9853.5762348529
 30
0.0
 11
8022.099402858072
 21
10217.06151622713
 31
0.0
 70
   160
 71
     5
 42
54.99999999999636
  3
INABA_S40G
100
AcDbAlignedDimension
 13
7374.673057123664
 23
9908.576234852896
 33
0.0
 14
7374.673057123664
 24
9853.5762348529
 34
0.0
 50
90.0
100
AcDbRotatedDimension
1001
ACAD
1000
DSTYLE
1002
{
1002
}
  0
DIMENSION
  5
163BD
330
747D
100
AcDbEntity
  8
寸法
100
AcDbDimension
  2
*D4
 10
8387.206344597709
 20
7278.576234852888
 30
0.0
 11
8287.194533574085
 21
8593.576234852895
 31
0.0
 70
    32
 71
     5
 42
2630.000000000007
  3
INABA_S40G
100
AcDbAlignedDimension
 13
7374.673057123664
 23
9908.576234852896
 33
0.0
 14
7374.673057123638
 24
7278.576234852888
 34
0.0
 50
90.0
100
AcDbRotatedDimension
1001
ACAD
1000
DSTYLE
1002
{
1002
}
  0
LINE
  5
163C9
330
747D
100
AcDbEntity
  8
部品1
100
AcDbLine
 10
7346.673057123648
 20
9880.576234852895
 30
0.0
 11
7346.673057123641
 21
7333.576234852884
 31
0.0
  0
LINE
  5
163CA
330
747D
100
AcDbEntity
  8
部品1
100
AcDbLine
 10
5192.673057123638
 20
7333.576234852754
 30
0.0
 11
5192.673057123649
 21
9880.576234852803
 31
0.0
  0
LINE
  5
163CB
330
747D
100
AcDbEntity
  8
部品1
100
AcDbLine
 10
7374.673057123664
 20
9908.576234852896
 30
0.0
 11
7374.673057123638
 21
7278.576234852888
 31
0.0
  0
LINE
  5
163CC
330
747D
100
AcDbEntity
  8
部品1
100
AcDbLine
 10
5164.673057123629
 20
9908.576234852768
 30
0.0
 11
5164.673057123657
 21
7278.576234852756
 31
0.0
  0
DIMENSION
  5
163D1
330
747D
100
AcDbEntity
  8
寸法
 48
50.0
100
AcDbDimension
  2
*D5
 10
5267.673057123657
 20
6744.145464086632
 30
0.0
 11
6269.673057123648
 21
6844.157275110254
 31
0.0
 70
    32
  1
有効開口部間口 <>
 71
     5
 42
2003.999999999982
  3
INABA_S40G
100
AcDbAlignedDimension
 13
7271.673057123638
 23
7304.576234852797
 33
0.0
 14
5267.673057123657
 24
7304.576234852795
 34
0.0
100
AcDbRotatedDimension
1001
ACAD
1000
DSTYLE
1002
{
1070
    75
1070
     1
1070
   279
1070
     2
1002
}
  0
LINE
  5
163D3
330
747D
100
AcDbEntity
  8
部品1
 48
50.0
100
AcDbLine
 10
5231.673057123656
 20
7324.076234852795
 30
0.0
 11
7307.67305712364
 21
7324.076234852795
 31
0.0
  0
DIMENSION
  5
163D4
330
747D
100
AcDbEntity
  8
寸法
100
AcDbDimension
  2
*D6
 10
7374.673057123638
 20
6457.972468495758
 30
0.0
 11
6269.673057123648
 21
6557.98427951938
 31
0.0
 70
    32
 71
     5
 42
2209.999999999982
  3
INABA_S40G
100
AcDbAlignedDimension
 13
5164.673057123657
 23
7278.576234852724
 33
0.0
 14
7374.673057123638
 24
7278.576234852852
 34
0.0
100
AcDbRotatedDimension
1001
ACAD
1000
DSTYLE
1002
{
1002
}
  0
LINE
  5
163D5
330
747D
100
AcDbEntity
  8
部品1
100
AcDbLine
 10
5219.673057123663
 20
9853.576234852759
 30
0.0
 11
5219.673057123656
 21
7343.576234852796
 31
0.0
  0
LINE
  5
163D6
330
747D
100
AcDbEntity
  8
部品1
100
AcDbLine
 10
5244.673057123637
 20
9853.576234852759
 30
0.0
 11
5244.673057123655
 21
7343.576234852796
 31
0.0
  0
DIMENSION
  5
163D7
330
747D
100
AcDbEntity
  8
寸法
 48
50.0
100
AcDbDimension
  2
*D7
 10
5164.673057123657
 20
6744.145464086632
 30
0.0
 11
4856.187775749418
 21
6744.145464086632
 31
0.0
 70
   160
 71
     5
 42
54.99999999999636
  3
INABA_S40G
100
AcDbAlignedDimension
 13
5219.673057123653
 23
7278.576234852796
 33
0.0
 14
5164.673057123657
 24
7278.576234852794
 34
0.0
100
AcDbRotatedDimension
1001
ACAD
1000
DSTYLE
1002
{
1002
}
  0
DIMENSION
  5
163D8
330
747D
100
AcDbEntity
  8
寸法
 48
50.0
100
AcDbDimension
  2
*D8
 10
5219.673057123653
 20
6744.145464086632
 30
0.0
 11
5380.575028123715
 21
6844.145464086633
 31
0.0
 70
   160
 71
     5
 42
48.00000000000363
  3
INABA_S40G
100
AcDbAlignedDimension
 13
5267.673057123657
 23
7304.576234852795
 33
0.0
 14
5219.673057123653
 24
7278.576234852796
 34
0.0
100
AcDbRotatedDimension
1001
ACAD
1000
DSTYLE
1002
{
1070
   279
1070
     2
1002
}
  0
LINE
  5
163D9
330
747D
100
AcDbEntity
  8
部品1
100
AcDbLine
 10
5219.673057123652
 20
7278.576234852796
 30
0.0
 11
5164.673057123657
 21
7278.576234852794
 31
0.0
  0
LINE
  5
163DA
330
747D
100
AcDbEntity
  8
部品1
 48
50.0
100
AcDbLine
 10
5219.673057123657
 20
7314.576234852795
 30
0.0
 11
5196.673057123657
 21
7314.576234852795
 31
0.0
  0
LINE
  5
163DB
330
747D
100
AcDbEntity
  8
部品1
 48
50.0
100
AcDbLine
 10
5229.673057123656
 20
7304.576234852795
 30
0.0
 11
5219.673057123657
 21
7283.576234852796
 31
0.0
  0
LINE
  5
163DC
330
747D
100
AcDbEntity
  8
部品1
 48
50.0
100
AcDbLine
 10
5219.673057123657
 20
7343.576234852796
 30
0.0
 11
5219.673057123653
 21
7278.576234852796
 31
0.0
  0
LINE
  5
163DD
330
747D
100
AcDbEntity
  8
部品1
 48
50.0
100
AcDbLine
 10
5267.673057123657
 20
7304.576234852797
 30
0.0
 11
5267.673057123657
 21
7313.576234852797
 31
0.0
  0
LINE
  5
163DE
330
747D
100
AcDbEntity
  8
部品1
 48
50.0
100
AcDbLine
 10
5267.673057123657
 20
7343.576234852797
 30
0.0
 11
5267.673057123657
 21
7334.576234852796
 31
0.0
  0
LINE
  5
163DF
330
747D
100
AcDbEntity
  8
部品1
100
AcDbLine
 10
5267.673057123657
 20
7343.576234852797
 30
0.0
 11
5219.673057123657
 21
7343.576234852796
 31
0.0
  0
LINE
  5
163E0
330
747D
100
AcDbEntity
  8
部品1
100
AcDbLine
 10
5267.673057123657
 20
7304.576234852797
 30
0.0
 11
5219.673057123657
 21
7304.576234852795
 31
0.0
  0
LINE
  5
163E1
330
747D
100
AcDbEntity
  8
部品1
100
AcDbLine
 10
5219.673057123656
 20
7314.576234852795
 30
0.0
 11
5196.673057123657
 21
7314.576234852795
 31
0.0
  0
LINE
  5
163E2
330
747D
100
AcDbEntity
  8
部品1
100
AcDbLine
 10
5219.673057123656
 20
7333.576234852721
 30
0.0
 11
5164.673057123655
 21
7333.576234852721
 31
0.0
  0
LINE
  5
163E3
330
747D
100
AcDbEntity
  8
部品1
100
AcDbLine
 10
5192.673057123638
 20
7333.576234852756
 30
0.0
 11
5164.673057123655
 21
7333.576234852756
 31
0.0
  0
LINE
  5
163E4
330
747D
100
AcDbEntity
  8
部品1
100
AcDbLine
 10
5192.673057123655
 20
7333.576234852772
 30
0.0
 11
5164.673057123655
 21
7333.576234852772
 31
0.0
  0
LINE
  5
163E5
330
747D
100
AcDbEntity
  8
部品1
100
AcDbLine
 10
5192.673057123643
 20
7753.576234852771
 30
0.0
 11
5164.673057123643
 21
7753.576234852771
 31
0.0
  0
LINE
  5
163E7
330
747D
100
AcDbEntity
  8
部品1
100
AcDbLine
 10
5192.673057123643
 20
8173.576234852772
 30
0.0
 11
5164.673057123643
 21
8173.576234852772
 31
0.0
  0
LINE
  5
163E8
330
747D
100
AcDbEntity
  8
部品1
100
AcDbLine
 10
5192.673057123643
 20
8593.576234852772
 30
0.0
 11
5164.673057123643
 21
8593.576234852772
 31
0.0
  0
LINE
  5
163E9
330
747D
100
AcDbEntity
  8
部品1
100
AcDbLine
 10
5192.673057123643
 20
9013.576234852772
 30
0.0
 11
5164.673057123643
 21
9013.576234852772
 31
0.0
  0
LINE
  5
163EB
330
747D
100
AcDbEntity
  8
部品1
100
AcDbLine
 10
5192.673057123638
 20
9433.576234852772
 30
0.0
 11
5164.673057123637
 21
9433.576234852772
 31
0.0
  0
LINE
  5
163EC
330
747D
100
AcDbEntity
  8
部品1
100
AcDbLine
 10
7319.673057123658
 20
9853.576234852749
 30
0.0
 11
7319.67305712364
 21
7278.576234852884
 31
0.0
  0
LINE
  5
163ED
330
747D
100
AcDbEntity
  8
部品1
100
AcDbLine
 10
7294.673057123661
 20
9853.576234852749
 30
0.0
 11
7294.67305712364
 21
7343.576234852796
 31
0.0
  0
DIMENSION
  5
163EE
330
747D
100
AcDbEntity
  8
寸法
 48
50.0
100
AcDbDimension
  2
*D9
 10
7271.673057123638
 20
6744.145464086632
 30
0.0
 11
7160.710159474891
 21
6844.145464086633
 31
0.0
 70
   160
 71
     5
 42
48.00000000000181
  3
INABA_S40G
100
AcDbAlignedDimension
 13
7319.67305712364
 23
7278.576234852884
 33
0.0
 14
7271.673057123638
 24
7304.576234852797
 34
0.0
100
AcDbRotatedDimension
1001
ACAD
1000
DSTYLE
1002
{
1070
   279
1070
     2
1002
}
  0
DIMENSION
  5
163EF
330
747D
100
AcDbEntity
  8
寸法
 48
50.0
100
AcDbDimension
  2
*D10
 10
7319.67305712364
 20
6744.145464086634
 30
0.0
 11
7683.158338497877
 21
6744.145464086634
 31
0.0
 70
   160
 71
     5
 42
54.99999999999818
  3
INABA_S40G
100
AcDbAlignedDimension
 13
7374.673057123638
 23
7278.576234852888
 33
0.0
 14
7319.67305712364
 24
7278.576234852884
 34
0.0
100
AcDbRotatedDimension
1001
ACAD
1000
DSTYLE
1002
{
1002
}
  0
LINE
  5
163F0
330
747D
100
AcDbEntity
  8
部品1
 48
50.0
100
AcDbLine
 10
7309.673057123639
 20
7304.576234852795
 30
0.0
 11
7319.673057123639
 21
7283.576234852796
 31
0.0
  0
LINE
  5
163F1
330
747D
100
AcDbEntity
  8
部品1
100
AcDbLine
 10
7271.673057123638
 20
7343.576234852797
 30
0.0
 11
7319.67305712364
 21
7343.576234852796
 31
0.0
  0
LINE
  5
163F2
330
747D
100
AcDbEntity
  8
部品1
100
AcDbLine
 10
7271.673057123638
 20
7304.576234852797
 30
0.0
 11
7319.673057123639
 21
7304.576234852795
 31
0.0
  0
LINE
  5
163F3
330
747D
100
AcDbEntity
  8
部品1
 48
50.0
100
AcDbLine
 10
7271.673057123638
 20
7343.576234852797
 30
0.0
 11
7271.673057123638
 21
7334.576234852796
 31
0.0
  0
LINE
  5
163F4
330
747D
100
AcDbEntity
  8
部品1
 48
50.0
100
AcDbLine
 10
7271.673057123638
 20
7304.576234852797
 30
0.0
 11
7271.673057123638
 21
7313.576234852797
 31
0.0
  0
LINE
  5
163F5
330
747D
100
AcDbEntity
  8
部品1
100
AcDbLine
 10
7319.673057123639
 20
7314.576234852793
 30
0.0
 11
7342.673057123639
 21
7314.576234852795
 31
0.0
  0
LINE
  5
163F6
330
747D
100
AcDbEntity
  8
部品1
100
AcDbLine
 10
7319.673057123639
 20
7333.576234852898
 30
0.0
 11
7374.673057123671
 21
7333.576234852898
 31
0.0
  0
LINE
  5
163F7
330
747D
100
AcDbEntity
  8
部品1
100
AcDbLine
 10
7374.673057123638
 20
7278.576234852888
 30
0.0
 11
7319.67305712364
 21
7278.576234852884
 31
0.0
  0
LINE
  5
163F8
330
747D
100
AcDbEntity
  8
部品1
100
AcDbLine
 10
7346.673057123668
 20
7753.576234852899
 30
0.0
 11
7374.673057123668
 21
7753.576234852899
 31
0.0
  0
LINE
  5
16403
330
747D
100
AcDbEntity
  8
部品1
100
AcDbLine
 10
7346.673057123668
 20
8173.5762348529
 30
0.0
 11
7374.673057123668
 21
8173.5762348529
 31
0.0
  0
LINE
  5
16404
330
747D
100
AcDbEntity
  8
部品1
100
AcDbLine
 10
7346.673057123668
 20
8593.5762348529
 30
0.0
 11
7374.673057123668
 21
8593.5762348529
 31
0.0
  0
LINE
  5
16406
330
747D
100
AcDbEntity
  8
部品1
100
AcDbLine
 10
7346.673057123668
 20
9013.576234852898
 30
0.0
 11
7374.673057123668
 21
9013.576234852898
 31
0.0
  0
LINE
  5
16407
330
747D
100
AcDbEntity
  8
部品1
100
AcDbLine
 10
7346.673057123664
 20
9433.576234852898
 30
0.0
 11
7374.673057123664
 21
9433.576234852898
 31
0.0
  0
LINE
  5
16408
330
747D
100
AcDbEntity
  8
部品1
100
AcDbLine
 10
5219.673057123663
 20
9880.576234852917
 30
0.0
 11
6467.173057123662
 21
9880.576234852906
 31
0.0
  0
LINE
  5
16409
330
747D
100
AcDbEntity
  8
部品1
100
AcDbLine
 10
5192.673057123663
 20
9880.576234852801
 30
0.0
 11
5849.673057123663
 21
9880.576234852805
 31
0.0
  0
LINE
  5
1640A
330
747D
100
AcDbEntity
  8
部品1
100
AcDbLine
 10
5164.673057123663
 20
9908.576234852802
 30
0.0
 11
7374.673057123664
 21
9908.576234852896
 31
0.0
  0
DIMENSION
  5
1640C
330
747D
100
AcDbEntity
  8
寸法
100
AcDbDimension
  2
*D11
 10
7319.673057123664
 20
10124.3844544779
 30
0.0
 11
6269.673057123664
 21
10224.39626550152
 31
0.0
 70
    32
  1
5X420=<>
 71
     5
 42
2100.000000000001
  3
INABA_S40G
100
AcDbAlignedDimension
 13
5219.673057123663
 23
9908.576234852802
 33
0.0
 14
7319.673057123664
 24
9908.576234852896
 34
0.0
100
AcDbRotatedDimension
1001
ACAD
1000
DSTYLE
1002
{
1002
}
  0
DIMENSION
  5
1640D
330
747D
100
AcDbEntity
  8
寸法
100
AcDbDimension
  2
*D12
 10
5219.673057123663
 20
10124.38445447778
 30
0.0
 11
4856.18777574939
 21
10124.38445447778
 31
0.0
 70
   160
 71
     5
 42
55.00000000003456
  3
INABA_S40G
100
AcDbAlignedDimension
 13
5164.673057123629
 23
9908.576234852802
 33
0.0
 14
5219.673057123663
 24
9908.576234852802
 34
0.0
100
AcDbRotatedDimension
1001
ACAD
1000
DSTYLE
1002
{
1002
}
  0
LINE
  5
1640E
330
747D
100
AcDbEntity
  8
部品1
100
AcDbLine
 10
5219.673057123628
 20
9908.576234852768
 30
0.0
 11
5219.67305712363
 21
9880.576234852767
 31
0.0
  0
LINE
  5
1640F
330
747D
100
AcDbEntity
  8
部品1
100
AcDbLine
 10
5219.673057123663
 20
9908.576234852802
 30
0.0
 11
5219.673057123663
 21
9880.576234852801
 31
0.0
  0
LINE
  5
16410
330
747D
100
AcDbEntity
  8
部品1
100
AcDbLine
 10
5192.673057123631
 20
9853.576234852772
 30
0.0
 11
5164.67305712363
 21
9853.576234852772
 31
0.0
  0
DIMENSION
  5
16420
330
747D
100
AcDbEntity
  8
寸法
100
AcDbDimension
  2
*D13
 10
7374.673057123664
 20
10124.38445447788
 30
0.0
 11
7683.158338497903
 21
10124.38445447788
 31
0.0
 70
   160
 71
     5
 42
55.0
  3
INABA_S40G
100
AcDbAlignedDimension
 13
7319.673057123664
 23
9908.576234852896
 33
0.0
 14
7374.673057123664
 24
9908.576234852896
 34
0.0
100
AcDbRotatedDimension
1001
ACAD
1000
DSTYLE
1002
{
1002
}
  0
LINE
  5
16422
330
747D
100
AcDbEntity
  8
部品1
100
AcDbLine
 10
7319.673057123664
 20
9908.576234852896
 30
0.0
 11
7319.673057123664
 21
9880.576234852895
 31
0.0
  0
LINE
  5
16423
330
747D
100
AcDbEntity
  8
部品1
100
AcDbLine
 10
7319.673057123664
 20
9908.576234852917
 30
0.0
 11
7319.673057123664
 21
9880.576234852917
 31
0.0
  0
LINE
  5
16424
330
747D
100
AcDbEntity
  8
部品1
100
AcDbLine
 10
7346.673057123664
 20
9853.5762348529
 30
0.0
 11
7374.673057123664
 21
9853.5762348529
 31
0.0
  0
LINE
  5
165FC
330
747D
100
AcDbEntity
  8
部品1
 48
50.0
100
AcDbLine
 10
7294.673057123661
 20
9828.576234852677
 30
0.0
 11
5244.673057123637
 21
9828.576234852681
 31
0.0
  0
LINE
  5
165FD
330
747D
100
AcDbEntity
  8
部品1
 48
50.0
100
AcDbLine
 10
7319.67305712366
 20
9853.576234852749
 30
0.0
 11
5219.673057123663
 21
9853.576234852759
 31
0.0
  0
LINE
  5
165FE
330
747D
100
AcDbEntity
  8
部品1
 48
50.0
100
AcDbLine
 10
5192.673057123663
 20
9880.576234852801
 30
0.0
 11
5219.673057123636
 21
9853.576234852759
 31
0.0
  0
LINE
  5
165FF
330
747D
100
AcDbEntity
  8
部品1
 48
50.0
100
AcDbLine
 10
7346.673057123648
 20
9880.576234852895
 30
0.0
 11
7319.67305712366
 21
9853.576234852749
 31
0.0
  0
LINE
  5
16801
330
747D
100
AcDbEntity
  8
部品1
 48
50.0
100
AcDbLine
 10
6492.173057123664
 20
9872.576234852903
 30
0.0
 11
6492.173057123664
 21
9880.576234852913
 31
0.0
  0
LINE
  5
16802
330
747D
100
AcDbEntity
  8
部品1
 48
50.0
100
AcDbLine
 10
6467.173057123663
 20
9872.5762348529
 30
0.0
 11
6467.173057123662
 21
9880.576234852917
 31
0.0
  0
LINE
  5
16811
330
747D
100
AcDbEntity
  8
部品1
100
AcDbLine
 10
6899.673057123663
 20
9908.576234852917
 30
0.0
 11
6899.673057123663
 21
9880.576234852917
 31
0.0
  0
LINE
  5
16813
330
747D
100
AcDbEntity
  8
部品1
100
AcDbLine
 10
6444.673057123663
 20
9898.576234852903
 30
0.0
 11
6444.673057123663
 21
9880.576234852902
 31
0.0
  0
LINE
  5
16814
330
747D
100
AcDbEntity
  8
部品1
100
AcDbLine
 10
6444.673057123663
 20
9898.576234852903
 30
0.0
 11
6450.673057123663
 21
9898.576234852903
 31
0.0
  0
LINE
  5
16815
330
747D
100
AcDbEntity
  8
部品1
100
AcDbLine
 10
6514.673057123663
 20
9898.576234852903
 30
0.0
 11
6514.673057123663
 21
9880.576234852902
 31
0.0
  0
LINE
  5
16816
330
747D
100
AcDbEntity
  8
部品1
100
AcDbLine
 10
6508.673057123663
 20
9898.576234852903
 30
0.0
 11
6514.673057123663
 21
9898.576234852903
 31
0.0
  0
LINE
  5
16817
330
747D
100
AcDbEntity
  8
部品1
100
AcDbLine
 10
6467.173057123663
 20
9872.5762348529
 30
0.0
 11
6492.173057123664
 21
9872.576234852903
 31
0.0
  0
LINE
  5
16818
330
747D
100
AcDbEntity
  8
部品1
100
AcDbLine
 10
6479.673057123664
 20
9908.576234852917
 30
0.0
 11
6479.673057123664
 21
9880.576234852917
 31
0.0
  0
LINE
  5
16819
330
747D
100
AcDbEntity
  8
部品1
100
AcDbLine
 10
6059.673057123664
 20
9908.576234852802
 30
0.0
 11
6059.673057123664
 21
9880.576234852801
 31
0.0
  0
LINE
  5
1681A
330
747D
100
AcDbEntity
  8
部品1
100
AcDbLine
 10
6059.673057123664
 20
9908.576234852802
 30
0.0
 11
6059.673057123664
 21
9880.576234852801
 31
0.0
  0
LINE
  5
1681B
330
747D
100
AcDbEntity
  8
部品1
100
AcDbLine
 10
6059.673057123664
 20
9908.576234852917
 30
0.0
 11
6059.673057123664
 21
9880.576234852917
 31
0.0
  0
LINE
  5
1681D
330
747D
100
AcDbEntity
  8
部品1
100
AcDbLine
 10
5639.673057123663
 20
9908.576234852802
 30
0.0
 11
5639.673057123663
 21
9880.576234852801
 31
0.0
  0
LINE
  5
1681E
330
747D
100
AcDbEntity
  8
部品1
100
AcDbLine
 10
5639.673057123663
 20
9908.576234852802
 30
0.0
 11
5639.673057123663
 21
9880.576234852801
 31
0.0
  0
LINE
  5
1681F
330
747D
100
AcDbEntity
  8
部品1
100
AcDbLine
 10
5639.673057123663
 20
9908.576234852917
 30
0.0
 11
5639.673057123663
 21
9880.576234852917
 31
0.0
  0
LINE
  5
16B15
330
747D
100
AcDbEntity
  8
部品1
100
AcDbLine
 10
6492.173057123664
 20
9880.576234852906
 30
0.0
 11
7346.673057123648
 21
9880.576234852895
 31
0.0
  0
CIRCLE
  5
16B1F
330
747D
100
AcDbEntity
  8
細線
 48
50.0
100
AcDbCircle
 10
6269.673057123654
 20
3425.431598713262
 30
0.0
 40
18.0
  0
ARC
  5
16B20
330
747D
100
AcDbEntity
  8
細線
 48
50.0
100
AcDbCircle
 10
6569.673057123655
 20
3100.431598713262
 30
0.0
 40
15.0
100
AcDbArc
 50
270.0
 51
90.0
  0
ARC
  5
16B21
330
747D
100
AcDbEntity
  8
細線
 48
50.0
100
AcDbCircle
 10
6469.673057123654
 20
3100.431598713262
 30
0.0
 40
15.0
100
AcDbArc
 50
90.0
 51
270.0
  0
LINE
  5
16B22
330
747D
100
AcDbEntity
  8
細線
 48
50.0
100
AcDbLine
 10
6469.673057123654
 20
3115.431598713261
 30
0.0
 11
6569.673057123655
 21
3115.431598713261
 31
0.0
  0
LINE
  5
16B23
330
747D
100
AcDbEntity
  8
細線
 48
50.0
100
AcDbLine
 10
6569.673057123655
 20
3085.431598713262
 30
0.0
 11
6469.673057123654
 21
3085.431598713262
 31
0.0
  0
LINE
  5
16B24
330
747D
100
AcDbEntity
  8
細線
 48
50.0
100
AcDbLine
 10
6069.673057123655
 20
3085.431598713262
 30
0.0
 11
5969.673057123654
 21
3085.431598713262
 31
0.0
  0
LINE
  5
16B25
330
747D
100
AcDbEntity
  8
細線
 48
50.0
100
AcDbLine
 10
5969.673057123654
 20
3115.431598713261
 30
0.0
 11
6069.673057123655
 21
3115.431598713261
 31
0.0
  0
ARC
  5
16B26
330
747D
100
AcDbEntity
  8
細線
 48
50.0
100
AcDbCircle
 10
6069.673057123655
 20
3100.431598713262
 30
0.0
 40
15.0
100
AcDbArc
 50
270.0
 51
90.0
  0
ARC
  5
16B27
330
747D
100
AcDbEntity
  8
細線
 48
50.0
100
AcDbCircle
 10
5969.673057123654
 20
3100.431598713262
 30
0.0
 40
15.0
100
AcDbArc
 50
90.0
 51
270.0
  0
LINE
  5
16CA4
330
747D
100
AcDbEntity
  8
仕様書枠
 48
50.0
100
AcDbLine
 10
16307.19999999999
 20
9709.6
 30
0.0
 11
13127.19999999999
 21
9709.600000000001
 31
0.0
  0
TEXT
  5
16CA5
330
747D
100
AcDbEntity
  8
文字
 62
     7
 48
50.0
100
AcDbText
 10
13229.83081656555
 20
8380.013745883731
 30
0.0
 40
100.0
  1
Z08→塗装溶融亜鉛めっき鋼板(JIS G 3313)
  7
STYLE1
100
AcDbText
  0
TEXT
  5
16CA6
330
747D
100
AcDbEntity
  8
文字
 62
     7
 48
50.0
100
AcDbText
 10
13229.83081656555
 20
8550.013745883729
 30
0.0
 40
100.0
  1
Y10→溶融亜鉛-5％アルミニウム合金めっき鋼板(JIS G 3317)
 41
0.9
  7
STYLE1
100
AcDbText
  0
TEXT
  5
16CA7
330
747D
100
AcDbEntity
  8
文字
 62
     7
 48
50.0
100
AcDbText
 10
13229.83081656555
 20
8720.013745883729
 30
0.0
 40
100.0
  1
F12→溶融亜鉛めっき鋼板(JIS G 3302)
  7
STYLE1
100
AcDbText
  0
LINE
  5
16CA8
330
747D
100
AcDbEntity
  8
仕様書枠
 48
50.0
100
AcDbLine
 10
16307.19999999999
 20
8349.6
 30
0.0
 11
13127.19999999999
 21
8349.600000000002
 31
0.0
  0
LINE
  5
16CA9
330
747D
100
AcDbEntity
  8
仕様書枠
 48
50.0
100
AcDbLine
 10
16307.19999999999
 20
8519.600000000002
 30
0.0
 11
13127.19999999999
 21
8519.600000000002
 31
0.0
  0
LINE
  5
16CAA
330
747D
100
AcDbEntity
  8
仕様書枠
 48
50.0
100
AcDbLine
 10
16307.19999999999
 20
8689.6
 30
0.0
 11
13127.19999999999
 21
8689.600000000003
 31
0.0
  0
TEXT
  5
16CAB
330
747D
100
AcDbEntity
  8
文字
 62
     7
 48
50.0
100
AcDbText
 10
15022.63965474515
 20
8890.013745883727
 30
0.0
 40
100.0
  1
F12            0.6
  7
STYLE1
100
AcDbText
  0
TEXT
  5
16CAC
330
747D
100
AcDbEntity
  8
文字
 62
     7
 48
50.0
100
AcDbText
 10
15022.63965474515
 20
9400.013745883722
 30
0.0
 40
100.0
  1
Z08            0.5
  7
STYLE1
100
AcDbText
  0
TEXT
  5
16CAE
330
747D
100
AcDbEntity
  8
文字
 62
     7
 48
50.0
100
AcDbText
 10
14850.83183167176
 20
9060.013745883729
 30
0.0
 40
100.0
  1
アルミニウム合金押出形材
  7
STYLE1
100
AcDbText
  0
TEXT
  5
16CAF
330
747D
100
AcDbEntity
  8
文字
 62
     7
 48
50.0
100
AcDbText
 10
15022.63965474516
 20
9570.013745883725
 30
0.0
 40
100.0
  1
F12            0.6
  7
STYLE1
100
AcDbText
  0
TEXT
  5
16CB0
330
747D
100
AcDbEntity
  8
文字
 62
     7
 48
50.0
100
AcDbText
 10
15022.63965474517
 20
9740.013745883725
 30
0.0
 40
100.0
  1
Y10            0.5
  7
STYLE1
100
AcDbText
  0
TEXT
  5
16CB1
330
747D
100
AcDbEntity
  8
文字
 62
     7
 48
50.0
100
AcDbText
 10
14834.39215341524
 20
9910.013745883725
 30
0.0
 40
100.0
  1
F12    1.0(多雪地型  2.3)
  7
STYLE1
100
AcDbText
  0
TEXT
  5
16CB2
330
747D
100
AcDbEntity
  8
文字
 62
     7
 48
50.0
100
AcDbText
 10
15022.63965474516
 20
10080.01374588372
 30
0.0
 40
100.0
  1
Y10            0.7
  7
STYLE1
100
AcDbText
  0
TEXT
  5
16CB3
330
747D
100
AcDbEntity
  8
文字
 62
     7
 48
50.0
100
AcDbText
 10
15022.63965474516
 20
10250.01374588372
 30
0.0
 40
100.0
  1
Y10            0.7
  7
STYLE1
100
AcDbText
  0
TEXT
  5
16CB4
330
747D
100
AcDbEntity
  8
文字
 62
     7
 48
50.0
100
AcDbText
 10
15022.63965474516
 20
10420.01374588372
 30
0.0
 40
100.0
  1
Y10            1.0
  7
STYLE1
100
AcDbText
  0
TEXT
  5
16CB5
330
747D
100
AcDbEntity
  8
文字
 62
     7
 48
50.0
100
AcDbText
 10
15022.63965474516
 20
10590.01374588372
 30
0.0
 40
100.0
  1
Y10            1.0
  7
STYLE1
100
AcDbText
  0
TEXT
  5
16CB7
330
747D
100
AcDbEntity
  8
文字
 62
     7
 48
50.0
100
AcDbText
 10
15022.63965474517
 20
10930.01374588372
 30
0.0
 40
100.0
  1
F12            1.2
  7
STYLE1
100
AcDbText
  0
TEXT
  5
16CB8
330
747D
100
AcDbEntity
  8
文字
 62
     7
 48
50.0
100
AcDbText
 10
13248.77747366448
 20
9060.013745883729
 30
0.0
 40
100.0
  1
12
  7
STYLE1
100
AcDbText
  0
TEXT
  5
16CB9
330
747D
100
AcDbEntity
  8
文字
 62
     7
 48
50.0
100
AcDbText
 10
13248.77747366448
 20
8890.013745883729
 30
0.0
 40
100.0
  1
13
  7
STYLE1
100
AcDbText
  0
TEXT
  5
16CBA
330
747D
100
AcDbEntity
  8
文字
 62
     7
 48
50.0
100
AcDbText
 10
13583.11819016569
 20
9400.013745883725
 30
0.0
 40
100.0
  1
シャッター
  7
STYLE1
100
AcDbText
  0
LINE
  5
16CBB
330
747D
100
AcDbEntity
  8
仕様書枠
 48
50.0
100
AcDbLine
 10
16307.19999999999
 20
9029.6
 30
0.0
 11
13127.19999999999
 21
9029.600000000002
 31
0.0
  0
TEXT
  5
16CBC
330
747D
100
AcDbEntity
  8
文字
 62
     7
 48
50.0
100
AcDbText
 10
13583.11819016569
 20
8890.013745883729
 30
0.0
 40
100.0
  1
棚板（別売）
  7
STYLE1
100
AcDbText
  0
LINE
  5
16CBE
330
747D
100
AcDbEntity
  8
仕様書枠
 48
50.0
100
AcDbLine
 10
16307.19999999999
 20
9199.599999999998
 30
0.0
 11
13127.19999999999
 21
9199.600000000001
 31
0.0
  0
TEXT
  5
16CBF
330
747D
100
AcDbEntity
  8
文字
 62
     7
 48
50.0
100
AcDbText
 10
13583.11819016569
 20
9230.013745883727
 30
0.0
 40
100.0
  1
シャッターカバー
 41
0.9
  7
STYLE1
100
AcDbText
  0
TEXT
  5
16CC0
330
747D
100
AcDbEntity
  8
文字
 62
     7
 48
50.0
100
AcDbText
 10
13248.77747366448
 20
9230.013745883727
 30
0.0
 40
100.0
  1
11
  7
STYLE1
100
AcDbText
  0
LINE
  5
16CC1
330
747D
100
AcDbEntity
  8
仕様書枠
 48
50.0
100
AcDbLine
 10
16307.19999999999
 20
9879.599999999999
 30
0.0
 11
13127.2
 21
9879.600000000001
 31
0.0
  0
LINE
  5
16CC2
330
747D
100
AcDbEntity
  8
仕様書枠
 48
50.0
100
AcDbLine
 10
16307.19999999999
 20
10049.6
 30
0.0
 11
13127.2
 21
10049.6
 31
0.0
  0
LINE
  5
16CC3
330
747D
100
AcDbEntity
  8
仕様書枠
 48
50.0
100
AcDbLine
 10
16307.19999999999
 20
9539.599999999998
 30
0.0
 11
13127.19999999999
 21
9539.6
 31
0.0
  0
LINE
  5
16CC4
330
747D
100
AcDbEntity
  8
仕様書枠
 48
50.0
100
AcDbLine
 10
16307.19999999999
 20
9369.599999999998
 30
0.0
 11
13127.19999999999
 21
9369.600000000001
 31
0.0
  0
TEXT
  5
16CC5
330
747D
100
AcDbEntity
  8
文字
 62
     7
 48
50.0
100
AcDbText
 10
13271.19032244792
 20
10080.01374588373
 30
0.0
 40
100.0
  1
6
  7
STYLE1
100
AcDbText
  0
TEXT
  5
16CC6
330
747D
100
AcDbEntity
  8
文字
 62
     7
 48
50.0
100
AcDbText
 10
13271.19032244792
 20
9910.01374588373
 30
0.0
 40
100.0
  1
7
  7
STYLE1
100
AcDbText
  0
TEXT
  5
16CC7
330
747D
100
AcDbEntity
  8
文字
 62
     7
 48
50.0
100
AcDbText
 10
13271.19032244792
 20
9570.013745883729
 30
0.0
 40
100.0
  1
9
  7
STYLE1
100
AcDbText
  0
TEXT
  5
16CC8
330
747D
100
AcDbEntity
  8
文字
 62
     7
 48
50.0
100
AcDbText
 10
13271.19032244792
 20
9740.013745883729
 30
0.0
 40
100.0
  1
8
  7
STYLE1
100
AcDbText
  0
TEXT
  5
16CC9
330
747D
100
AcDbEntity
  8
文字
 62
     7
 48
50.0
100
AcDbText
 10
13583.11819016569
 20
10080.01374588372
 30
0.0
 40
100.0
  1
鼻隠シ前後
  7
STYLE1
100
AcDbText
  0
TEXT
  5
16CCA
330
747D
100
AcDbEntity
  8
文字
 62
     7
 48
50.0
100
AcDbText
 10
13583.11819016569
 20
9910.013745883727
 30
0.0
 40
100.0
  1
母屋中
  7
STYLE1
100
AcDbText
  0
TEXT
  5
16CCB
330
747D
100
AcDbEntity
  8
文字
 62
     7
 48
50.0
100
AcDbText
 10
13583.11819016569
 20
9740.013745883729
 30
0.0
 40
100.0
  1
屋根パネル
  7
STYLE1
100
AcDbText
  0
TEXT
  5
16CCC
330
747D
100
AcDbEntity
  8
文字
 62
     7
 48
50.0
100
AcDbText
 10
13583.11819016569
 20
9570.013745883729
 30
0.0
 40
100.0
  1
壁パネル
  7
STYLE1
100
AcDbText
  0
TEXT
  5
16CCD
330
747D
100
AcDbEntity
  8
文字
 62
     7
 48
50.0
100
AcDbText
 10
13248.77747366448
 20
9400.013745883727
 30
0.0
 40
100.0
  1
10
  7
STYLE1
100
AcDbText
  0
TEXT
  5
16CCE
330
747D
100
AcDbEntity
  8
文字
 62
     7
 48
50.0
100
AcDbText
 10
13583.11819016569
 20
9060.013745883731
 30
0.0
 40
100.0
  1
シャッターレール
  7
STYLE1
100
AcDbText
  0
TEXT
  5
16CCF
330
747D
100
AcDbEntity
  8
文字
 62
     7
 48
50.0
100
AcDbText
 10
13583.11819016569
 20
10250.01374588373
 30
0.0
 40
100.0
  1
妻板左右
  7
STYLE1
100
AcDbText
  0
TEXT
  5
16CD0
330
747D
100
AcDbEntity
  8
文字
 62
     7
 48
50.0
100
AcDbText
 10
13271.19032244792
 20
10250.01374588373
 30
0.0
 40
100.0
  1
5
  7
STYLE1
100
AcDbText
  0
TEXT
  5
16CD1
330
747D
100
AcDbEntity
  8
文字
 62
     7
 48
50.0
100
AcDbText
 10
13583.11819016569
 20
10420.01374588373
 30
0.0
 40
100.0
  1
桁後
  7
STYLE1
100
AcDbText
  0
TEXT
  5
16CD2
330
747D
100
AcDbEntity
  8
文字
 62
     7
 48
50.0
100
AcDbText
 10
13583.11819016569
 20
10590.01374588373
 30
0.0
 40
100.0
  1
桁前
  7
STYLE1
100
AcDbText
  0
TEXT
  5
16CD3
330
747D
100
AcDbEntity
  8
文字
 62
     7
 48
50.0
100
AcDbText
 10
13583.11819016569
 20
10760.01374588372
 30
0.0
 40
100.0
  1
柱
  7
STYLE1
100
AcDbText
  0
TEXT
  5
16CD4
330
747D
100
AcDbEntity
  8
文字
 62
     7
 48
50.0
100
AcDbText
 10
13583.11819016569
 20
10930.01374588372
 30
0.0
 40
100.0
  1
土台枠
  7
STYLE1
100
AcDbText
  0
TEXT
  5
16CD5
330
747D
100
AcDbEntity
  8
文字
 62
     7
 48
50.0
100
AcDbText
 10
14859.79774614482
 20
11100.01374588373
 30
0.0
 40
100.0
  1
材料（材質）　　単位mm
  7
STYLE1
100
AcDbText
  0
TEXT
  5
16CD6
330
747D
100
AcDbEntity
  8
文字
 62
     7
 48
50.0
100
AcDbText
 10
13732.03840939434
 20
11100.01374588373
 30
0.0
 40
100.0
  1
部　　品　　名
  7
STYLE1
100
AcDbText
  0
TEXT
  5
16CD7
330
747D
100
AcDbEntity
  8
文字
 62
     7
 48
50.0
100
AcDbText
 10
13271.19032244792
 20
10590.01374588373
 30
0.0
 40
100.0
  1
3
  7
STYLE1
100
AcDbText
  0
TEXT
  5
16CD8
330
747D
100
AcDbEntity
  8
文字
 62
     7
 48
50.0
100
AcDbText
 10
13271.19032244792
 20
10420.01374588373
 30
0.0
 40
100.0
  1
4
  7
STYLE1
100
AcDbText
  0
TEXT
  5
16CD9
330
747D
100
AcDbEntity
  8
文字
 62
     7
 48
50.0
100
AcDbText
 10
13271.19032244792
 20
10760.01374588373
 30
0.0
 40
100.0
  1
2
  7
STYLE1
100
AcDbText
  0
TEXT
  5
16CDA
330
747D
100
AcDbEntity
  8
文字
 62
     7
 48
50.0
100
AcDbText
 10
13271.19032244792
 20
10930.01374588373
 30
0.0
 40
100.0
  1
1
  7
STYLE1
100
AcDbText
  0
TEXT
  5
16CDB
330
747D
100
AcDbEntity
  8
文字
 62
     7
 48
50.0
100
AcDbText
 10
13197.42518560407
 20
11100.01374588373
 30
0.0
 40
100.0
  1
品番
  7
STYLE1
100
AcDbText
  0
LINE
  5
16CDC
330
747D
100
AcDbEntity
  8
仕様書枠
 48
50.0
100
AcDbLine
 10
16307.19999999999
 20
10559.6
 30
0.0
 11
13127.19999999999
 21
10559.6
 31
0.0
  0
LINE
  5
16CDD
330
747D
100
AcDbEntity
  8
仕様書枠
 48
50.0
100
AcDbLine
 10
16307.19999999999
 20
10219.6
 30
0.0
 11
13127.19999999999
 21
10219.6
 31
0.0
  0
LINE
  5
16CDE
330
747D
100
AcDbEntity
  8
仕様書枠
 48
50.0
100
AcDbLine
 10
16307.19999999999
 20
10389.6
 30
0.0
 11
13127.19999999999
 21
10389.6
 31
0.0
  0
LINE
  5
16CDF
330
747D
100
AcDbEntity
  8
仕様書枠
 48
50.0
100
AcDbLine
 10
16307.19999999999
 20
10899.6
 30
0.0
 11
13127.2
 21
10899.6
 31
0.0
  0
LINE
  5
16CE0
330
747D
100
AcDbEntity
  8
仕様書枠
 48
50.0
100
AcDbLine
 10
16307.19999999999
 20
10729.6
 30
0.0
 11
13127.2
 21
10729.6
 31
0.0
  0
LINE
  5
16CE1
330
747D
100
AcDbEntity
  8
仕様書枠
 48
50.0
100
AcDbLine
 10
16307.19999999999
 20
11069.6
 30
0.0
 11
13127.2
 21
11069.6
 31
0.0
  0
LINE
  5
16CE2
330
747D
100
AcDbEntity
  8
仕様書枠
 48
50.0
100
AcDbLine
 10
13490.2
 20
11239.6
 30
0.0
 11
13490.20000000001
 21
8859.600000000005
 31
0.0
  0
LINE
  5
16CE3
330
747D
100
AcDbEntity
  8
仕様書枠
 48
50.0
100
AcDbLine
 10
14785.2
 20
11239.59999999999
 30
0.0
 11
14785.2
 21
8859.600000000005
 31
0.0
  0
LINE
  5
16CE4
330
747D
100
AcDbEntity
  8
仕様書枠
 48
50.0
100
AcDbLine
 10
16307.2
 20
8349.6
 30
0.0
 11
16307.2
 21
11239.6
 31
0.0
  0
LINE
  5
16CE5
330
747D
100
AcDbEntity
  8
仕様書枠
 48
50.0
100
AcDbLine
 10
13127.2
 20
11239.6
 30
0.0
 11
13127.2
 21
8349.600000000002
 31
0.0
  0
LINE
  5
16CE6
330
747D
100
AcDbEntity
  8
仕様書枠
 48
50.0
100
AcDbLine
 10
16307.19999999999
 20
11239.6
 30
0.0
 11
13127.2
 21
11239.6
 31
0.0
  0
TEXT
  5
17113
330
747D
100
AcDbEntity
  8
部品1
100
AcDbText
 10
11044.68183727767
 20
1595.038069494741
 30
0.0
 40
135.0
  1
側面図
  7
MSGOTHIC
100
AcDbText
  0
LWPOLYLINE
  5
17114
330
747D
100
AcDbEntity
  8
部品1
100
AcDbPolyline
 90
        4
 70
     1
 43
0.0
 10
10945.11449739906
 20
1787.931598713265
 10
10945.11449739906
 20
1548.039277167732
 10
11708.5851636275
 20
1548.039277167732
 10
11708.5851636275
 20
1787.931598713265
  0
TEXT
  5
17115
330
747D
100
AcDbEntity
  8
文字
 62
     7
 48
50.0
100
AcDbText
 10
14528.81784699908
 20
483.8967129911416
 30
0.0
 40
160.0
  1
FXN-2226S
  7
MSGOTHIC
100
AcDbText
  0
LINE
  5
17116
330
747D
100
AcDbEntity
  8
部品1
100
AcDbLine
 10
10001.84983051328
 20
2537.931598713262
 30
0.0
 11
9608.852616304432
 21
2437.931598713261
 31
0.0
  0
LINE
  5
17117
330
747D
100
AcDbEntity
  8
破線
 48
5.0
100
AcDbLine
 10
10001.84983051328
 20
2187.931598713261
 30
0.0
 11
10056.84983051328
 21
2187.931598713261
 31
0.0
  0
LINE
  5
17118
330
747D
100
AcDbEntity
  8
破線
 48
5.0
100
AcDbLine
 10
10056.84983051328
 20
2437.931598713261
 30
0.0
 11
10056.84983051328
 21
2187.931598713261
 31
0.0
  0
LINE
  5
17119
330
747D
100
AcDbEntity
  8
破線
 48
5.0
100
AcDbLine
 10
10001.84983051328
 20
2437.931598713261
 30
0.0
 11
10001.84983051328
 21
2187.931598713261
 31
0.0
  0
DIMENSION
  5
1711F
330
747D
100
AcDbEntity
  8
寸法
 48
50.0
100
AcDbDimension
  2
*D14
 10
9381.241423744898
 20
4487.276857586594
 30
0.0
 11
9391.906899003823
 21
4858.123520828293
 31
0.0
 70
   161
 71
     5
 42
141.0000000000009
  3
INABA_S40G
100
AcDbAlignedDimension
 13
9961.245850671858
 23
4611.654347547943
 33
0.0
 14
9957.192395115232
 24
4470.712623782229
 34
0.0
1001
ACAD
1000
DSTYLE
1002
{
1070
   174
1070
     0
1070
   272
1070
     1
1070
   288
1070
     0
1070
   341
1005
0
1002
}
  0
LINE
  5
17120
330
747D
100
AcDbEntity
  8
細線
 48
50.0
100
AcDbLine
 10
12499.34983051328
 20
4377.931598713261
 30
0.0
 11
12499.34983051328
 21
2587.931598713265
 31
0.0
  0
LINE
  5
17121
330
747D
100
AcDbEntity
  8
細線
 48
50.0
100
AcDbLine
 10
12514.34983051328
 20
4377.931598713261
 30
0.0
 11
12514.34983051328
 21
2587.931598713265
 31
0.0
  0
LINE
  5
17122
330
747D
100
AcDbEntity
  8
細線
 48
50.0
100
AcDbLine
 10
12374.34983051328
 20
4377.931598713261
 30
0.0
 11
12374.34983051328
 21
2587.931598713265
 31
0.0
  0
LINE
  5
17123
330
747D
100
AcDbEntity
  8
細線
 48
50.0
100
AcDbLine
 10
12359.34983051328
 20
4377.931598713261
 30
0.0
 11
12359.34983051328
 21
2587.931598713265
 31
0.0
  0
LINE
  5
17124
330
747D
100
AcDbEntity
  8
細線
 48
50.0
100
AcDbLine
 10
12219.34983051328
 20
4377.931598713261
 30
0.0
 11
12219.34983051328
 21
2587.931598713265
 31
0.0
  0
LINE
  5
17125
330
747D
100
AcDbEntity
  8
細線
 48
50.0
100
AcDbLine
 10
12234.34983051328
 20
4377.931598713261
 30
0.0
 11
12234.34983051328
 21
2587.931598713265
 31
0.0
  0
LINE
  5
17126
330
747D
100
AcDbEntity
  8
部品1
100
AcDbLine
 10
11316.84983051328
 20
4377.931598713261
 30
0.0
 11
11316.84983051328
 21
2587.931598713261
 31
0.0
  0
LINE
  5
17127
330
747D
100
AcDbEntity
  8
細線
 48
50.0
100
AcDbLine
 10
10974.34983051328
 20
4377.931598713261
 30
0.0
 11
10974.34983051328
 21
2587.931598713261
 31
0.0
  0
LINE
  5
17128
330
747D
100
AcDbEntity
  8
細線
 48
50.0
100
AcDbLine
 10
10959.34983051328
 20
4377.931598713261
 30
0.0
 11
10959.34983051328
 21
2587.931598713261
 31
0.0
  0
LINE
  5
17129
330
747D
100
AcDbEntity
  8
細線
 48
50.0
100
AcDbLine
 10
11099.34983051328
 20
4377.931598713261
 30
0.0
 11
11099.34983051328
 21
2587.931598713261
 31
0.0
  0
LINE
  5
1712A
330
747D
100
AcDbEntity
  8
細線
 48
50.0
100
AcDbLine
 10
11114.34983051328
 20
4377.931598713261
 30
0.0
 11
11114.34983051328
 21
2587.931598713261
 31
0.0
  0
LINE
  5
1712B
330
747D
100
AcDbEntity
  8
細線
 48
50.0
100
AcDbLine
 10
11254.34983051328
 20
4377.931598713261
 30
0.0
 11
11254.34983051328
 21
2587.931598713261
 31
0.0
  0
LINE
  5
1712C
330
747D
100
AcDbEntity
  8
細線
 48
50.0
100
AcDbLine
 10
11239.34983051328
 20
4377.931598713261
 30
0.0
 11
11239.34983051328
 21
2587.931598713261
 31
0.0
  0
LINE
  5
1712D
330
747D
100
AcDbEntity
  8
部品1
100
AcDbLine
 10
10896.84983051327
 20
4377.931598713261
 30
0.0
 11
10896.84983051327
 21
2587.931598713261
 31
0.0
  0
DIMENSION
  5
1712E
330
747D
100
AcDbEntity
  8
寸法
 48
50.0
100
AcDbDimension
  2
*D15
 10
12711.84983051327
 20
5011.589052292568
 30
0.0
 11
12917.89707460777
 21
5011.589052292568
 31
0.0
 70
   160
 71
     5
 42
80.0
  3
INABA_S40G
100
AcDbAlignedDimension
 13
12631.84983051327
 23
4559.742278324915
 33
0.0
 14
12711.84983051327
 24
4557.931598713263
 34
0.0
100
AcDbRotatedDimension
1001
ACAD
1000
DSTYLE
1002
{
1070
   174
1070
     0
1070
   272
1070
     1
1070
   288
1070
     0
1070
   341
1005
0
1002
}
  0
LINE
  5
1712F
330
747D
100
AcDbEntity
  8
細線
 48
50.0
100
AcDbLine
 10
10134.34983051328
 20
4377.931598713261
 30
0.0
 11
10134.34983051328
 21
2587.931598713261
 31
0.0
  0
LINE
  5
17130
330
747D
100
AcDbEntity
  8
細線
 48
50.0
100
AcDbLine
 10
10119.34983051328
 20
4377.931598713261
 30
0.0
 11
10119.34983051328
 21
2587.931598713261
 31
0.0
  0
LINE
  5
17131
330
747D
100
AcDbEntity
  8
細線
 48
50.0
100
AcDbLine
 10
10259.34983051328
 20
4377.931598713261
 30
0.0
 11
10259.34983051328
 21
2587.931598713261
 31
0.0
  0
LINE
  5
17132
330
747D
100
AcDbEntity
  8
細線
 48
50.0
100
AcDbLine
 10
10274.34983051328
 20
4377.931598713261
 30
0.0
 11
10274.34983051328
 21
2587.931598713261
 31
0.0
  0
LINE
  5
17133
330
747D
100
AcDbEntity
  8
細線
 48
50.0
100
AcDbLine
 10
10414.34983051328
 20
4377.931598713261
 30
0.0
 11
10414.34983051328
 21
2587.931598713261
 31
0.0
  0
LINE
  5
17134
330
747D
100
AcDbEntity
  8
細線
 48
50.0
100
AcDbLine
 10
10399.34983051328
 20
4377.931598713261
 30
0.0
 11
10399.34983051328
 21
2587.931598713261
 31
0.0
  0
LINE
  5
17135
330
747D
100
AcDbEntity
  8
細線
 48
50.0
100
AcDbLine
 10
10819.34983051328
 20
4377.931598713261
 30
0.0
 11
10819.34983051328
 21
2587.931598713261
 31
0.0
  0
LINE
  5
17136
330
747D
100
AcDbEntity
  8
細線
 48
50.0
100
AcDbLine
 10
10834.34983051328
 20
4377.931598713261
 30
0.0
 11
10834.34983051328
 21
2587.931598713261
 31
0.0
  0
LINE
  5
17137
330
747D
100
AcDbEntity
  8
細線
 48
50.0
100
AcDbLine
 10
10694.34983051328
 20
4377.931598713261
 30
0.0
 11
10694.34983051328
 21
2587.931598713261
 31
0.0
  0
LINE
  5
17138
330
747D
100
AcDbEntity
  8
細線
 48
50.0
100
AcDbLine
 10
10679.34983051328
 20
4377.931598713261
 30
0.0
 11
10679.34983051328
 21
2587.931598713261
 31
0.0
  0
LINE
  5
17139
330
747D
100
AcDbEntity
  8
細線
 48
50.0
100
AcDbLine
 10
10539.34983051328
 20
4377.931598713261
 30
0.0
 11
10539.34983051328
 21
2587.931598713261
 31
0.0
  0
LINE
  5
1713A
330
747D
100
AcDbEntity
  8
細線
 48
50.0
100
AcDbLine
 10
10554.34983051328
 20
4377.931598713261
 30
0.0
 11
10554.34983051328
 21
2587.931598713261
 31
0.0
  0
LINE
  5
1713B
330
747D
100
AcDbEntity
  8
部品1
100
AcDbLine
 10
10056.84983051328
 20
2537.931598713262
 30
0.0
 11
12631.84983051327
 21
2537.931598713262
 31
0.0
  0
DIMENSION
  5
1713C
330
747D
100
AcDbEntity
  8
寸法
 48
50.0
100
AcDbDimension
  2
*D16
 10
9941.849830513278
 20
5231.799739024184
 30
0.0
 11
11326.84983051328
 21
5231.799739024184
 31
0.0
 70
   160
 71
     5
 42
2770.0
  3
INABA_S40G
100
AcDbAlignedDimension
 13
12711.84983051327
 23
4557.931598713263
 33
0.0
 14
9941.849830513278
 24
4612.931598713267
 34
0.0
100
AcDbRotatedDimension
1001
ACAD
1000
DSTYLE
1002
{
1070
   174
1070
     0
1070
   272
1070
     1
1070
   288
1070
     0
1070
   341
1005
0
1002
}
  0
DIMENSION
  5
1713D
330
747D
100
AcDbEntity
  8
寸法
 48
50.0
100
AcDbDimension
  2
*D17
 10
9941.849830513278
 20
5011.589052292567
 30
0.0
 11
9632.212035237689
 21
5011.589052292567
 31
0.0
 70
   160
 71
     5
 42
60.0
  3
INABA_S40G
100
AcDbAlignedDimension
 13
10001.84983051328
 23
4608.933216836239
 33
0.0
 14
9941.849830513278
 24
4612.931598713267
 34
0.0
100
AcDbRotatedDimension
1001
ACAD
1000
DSTYLE
1002
{
1070
   174
1070
     0
1070
   272
1070
     1
1070
   288
1070
     0
1070
   341
1005
0
1002
}
  0
DIMENSION
  5
1713E
330
747D
100
AcDbEntity
  8
寸法
 48
50.0
100
AcDbDimension
  2
*D18
 10
10001.84983051328
 20
5011.589052292568
 30
0.0
 11
11316.84983051328
 21
5011.589052292568
 31
0.0
 70
   160
  1
柱外寸法<>
 71
     5
 42
2630.0
  3
INABA_S40G
100
AcDbAlignedDimension
 13
12631.84983051327
 23
4559.742278324915
 33
0.0
 14
10001.84983051328
 24
4608.933216836239
 34
0.0
100
AcDbRotatedDimension
1001
ACAD
1000
DSTYLE
1002
{
1070
   174
1070
     0
1070
   272
1070
     1
1070
   288
1070
     0
1070
   341
1005
0
1002
}
  0
LINE
  5
1713F
330
747D
100
AcDbEntity
  8
部品1
100
AcDbLine
 10
12576.84983051328
 20
4377.931598713261
 30
0.0
 11
12576.84983051328
 21
2587.931598713265
 31
0.0
  0
LINE
  5
17140
330
747D
100
AcDbEntity
  8
部品1
100
AcDbLine
 10
12631.84983051327
 20
4432.465872101001
 30
0.0
 11
12631.84983051327
 21
2437.931598713265
 31
0.0
  0
LINE
  5
17141
330
747D
100
AcDbEntity
  8
部品1
100
AcDbLine
 10
10476.84983051328
 20
4377.931598713261
 30
0.0
 11
10476.84983051328
 21
2587.931598713261
 31
0.0
  0
DIMENSION
  5
17142
330
747D
100
AcDbEntity
  8
寸法
100
AcDbDimension
  2
*D19
 10
9158.099701330019
 20
2537.931598713263
 30
0.0
 11
9158.099701330019
 21
2231.884354618773
 31
0.0
 70
   160
 71
     5
 42
50.0
  3
INABA_S40G
100
AcDbAlignedDimension
 13
10001.84983051328
 23
2587.931598713263
 33
0.0
 14
9946.849830513279
 24
2537.931598713262
 34
0.0
 50
90.0
100
AcDbRotatedDimension
1001
ACAD
1000
DSTYLE
1002
{
1070
   174
1070
     0
1070
   272
1070
     1
1070
   288
1070
     0
1070
   341
1005
0
1002
}
  0
LINE
  5
17143
330
747D
100
AcDbEntity
  8
部品1
100
AcDbLine
 10
10001.84983051328
 20
4470.074036642141
 30
0.0
 11
10001.84983051328
 21
2437.931598713261
 31
0.0
  0
LINE
  5
17144
330
747D
100
AcDbEntity
  8
部品1
100
AcDbLine
 10
10056.84983051328
 20
4377.931598713261
 30
0.0
 11
10056.84983051328
 21
2437.931598713265
 31
0.0
  0
LINE
  5
17145
330
747D
100
AcDbEntity
  8
部品1
100
AcDbLine
 10
10056.84983051327
 20
2587.931598713261
 30
0.0
 11
12631.84983051327
 21
2587.931598713265
 31
0.0
  0
LINE
  5
17146
330
747D
100
AcDbEntity
  8
部品1
100
AcDbLine
 10
10001.84983051328
 20
4377.931598713261
 30
0.0
 11
12631.84983051327
 21
4377.931598713261
 31
0.0
  0
LINE
  5
17147
330
747D
100
AcDbEntity
  8
部品1
100
AcDbLine
 10
12156.84983051328
 20
4377.931598713261
 30
0.0
 11
12156.84983051328
 21
2587.931598713265
 31
0.0
  0
LINE
  5
17148
330
747D
100
AcDbEntity
  8
細線
 48
50.0
100
AcDbLine
 10
11659.34983051328
 20
4377.931598713261
 30
0.0
 11
11659.34983051328
 21
2587.931598713261
 31
0.0
  0
LINE
  5
17149
330
747D
100
AcDbEntity
  8
細線
 48
50.0
100
AcDbLine
 10
11674.34983051327
 20
4377.931598713261
 30
0.0
 11
11674.34983051327
 21
2587.931598713261
 31
0.0
  0
LINE
  5
1714A
330
747D
100
AcDbEntity
  8
細線
 48
50.0
100
AcDbLine
 10
11534.34983051327
 20
4377.931598713261
 30
0.0
 11
11534.34983051327
 21
2587.931598713261
 31
0.0
  0
LINE
  5
1714B
330
747D
100
AcDbEntity
  8
細線
 48
50.0
100
AcDbLine
 10
11519.34983051328
 20
4377.931598713261
 30
0.0
 11
11519.34983051328
 21
2587.931598713261
 31
0.0
  0
LINE
  5
1714C
330
747D
100
AcDbEntity
  8
細線
 48
50.0
100
AcDbLine
 10
11379.34983051328
 20
4377.931598713261
 30
0.0
 11
11379.34983051328
 21
2587.931598713261
 31
0.0
  0
LINE
  5
1714D
330
747D
100
AcDbEntity
  8
細線
 48
50.0
100
AcDbLine
 10
11394.34983051328
 20
4377.931598713261
 30
0.0
 11
11394.34983051328
 21
2587.931598713261
 31
0.0
  0
TEXT
  5
1714E
330
747D
100
AcDbEntity
  8
部品1
 48
50.0
100
AcDbText
 10
11668.43083247437
 20
4635.200691651571
 30
0.0
 40
120.0
  1
37
 50
90.0
  7
STYLE1
100
AcDbText
  0
TEXT
  5
1714F
330
747D
100
AcDbEntity
  8
部品1
 48
50.0
100
AcDbText
 10
11190.79780980928
 20
4772.701949869854
 30
0.0
 40
120.0
  1
1000
  7
STYLE1
100
AcDbText
  0
LINE
  5
17150
330
747D
100
AcDbEntity
  8
部品1
 48
50.0
100
AcDbLine
 10
11502.52997458555
 20
4736.81792771742
 30
0.0
 11
11502.52997458555
 21
4720.61792771742
 31
0.0
  0
LINE
  5
17151
330
747D
100
AcDbEntity
  8
部品1
 48
50.0
100
AcDbLine
 10
11202.52997458555
 20
4736.81792771742
 30
0.0
 11
11502.52997458555
 21
4736.81792771742
 31
0.0
  0
LINE
  5
17152
330
747D
100
AcDbEntity
  8
部品1
100
AcDbLine
 10
9949.394816870242
 20
4611.649334047528
 30
0.0
 11
12704.46170737475
 21
4556.572396422402
 31
0.0
  0
LINE
  5
17153
330
747D
100
AcDbEntity
  8
部品1
100
AcDbLine
 10
9957.192395115232
 20
4470.71262378223
 30
0.0
 11
12686.51353105313
 21
4431.684198548024
 31
0.0
  0
LINE
  5
17154
330
747D
100
AcDbEntity
  8
細線
 48
50.0
100
AcDbLine
 10
9974.849830513278
 20
4610.331275088668
 30
0.0
 11
9969.560728957771
 21
4470.245642461311
 31
0.0
  0
LINE
  5
17155
330
747D
100
AcDbEntity
  8
細線
 48
50.0
100
AcDbLine
 10
12678.81911370697
 20
4557.085021192732
 30
0.0
 11
12674.10214762528
 21
4432.152805257814
 31
0.0
  0
LINE
  5
17156
330
747D
100
AcDbEntity
  8
部品1
 48
50.0
100
AcDbLine
 10
9942.034116426384
 20
4604.525144877956
 30
0.0
 11
9942.414376204197
 21
4584.598180431544
 31
0.0
  0
LINE
  5
17157
330
747D
100
AcDbEntity
  8
部品1
 48
50.0
100
AcDbLine
 10
9945.483148310444
 20
4581.02289893807
 30
0.0
 11
9947.187049801808
 21
4491.732402231424
 31
0.0
  0
LINE
  5
17158
330
747D
100
AcDbEntity
  8
細線
 48
50.0
100
AcDbLine
 10
9942.889253614092
 20
4583.948680554626
 30
0.0
 11
12708.52523835926
 21
4528.324475913796
 31
0.0
  0
LINE
  5
17159
330
747D
100
AcDbEntity
  8
細線
 48
50.0
100
AcDbLine
 10
9947.649728851379
 20
4491.08716885676
 30
0.0
 11
12697.65339328202
 21
4451.277849882266
 31
0.0
  0
LINE
  5
1715A
330
747D
100
AcDbEntity
  8
部品1
 48
50.0
100
AcDbLine
 10
9950.255821908051
 20
4488.157120737953
 30
0.0
 11
9950.45777452848
 21
4477.574085344858
 31
0.0
  0
ARC
  5
1715B
330
747D
100
AcDbEntity
  8
部品1
 48
50.0
100
AcDbCircle
 10
9949.032842254725
 20
4604.658699285384
 30
0.0
 40
7.0
100
AcDbArc
 50
87.03587545283228
 51
181.0932240293156
  0
ARC
  5
1715C
330
747D
100
AcDbEntity
  8
部品1
 48
50.0
100
AcDbCircle
 10
9957.456500356821
 20
4477.707639752287
 30
0.0
 40
7.0
100
AcDbArc
 50
181.0932240293156
 51
267.8377559869492
  0
ARC
  5
1715D
330
747D
100
AcDbEntity
  8
部品1
100
AcDbCircle
 10
9947.256367981619
 20
4488.099883134768
 30
0.0
 40
3.0
100
AcDbArc
 50
1.093224029315636
 51
80.18775403169875
  0
ARC
  5
1715E
330
747D
100
AcDbEntity
  8
部品1
100
AcDbCircle
 10
9942.483694384014
 20
4580.965661334889
 30
0.0
 40
3.0
100
AcDbArc
 50
1.093224029315636
 51
80.18775403169875
  0
ARC
  5
1715F
330
747D
100
AcDbEntity
  8
部品1
100
AcDbCircle
 10
9943.114248787034
 20
4584.611535872285
 30
0.0
 40
0.7
100
AcDbArc
 50
181.0932240292114
 51
260.1877540314845
  0
ARC
  5
17160
330
747D
100
AcDbEntity
  8
部品1
100
AcDbCircle
 10
9947.886922384647
 20
4491.745757672168
 30
0.0
 40
0.7
100
AcDbArc
 50
181.0932240293156
 51
260.1877540314845
  0
LINE
  5
17161
330
747D
100
AcDbEntity
  8
部品1
 48
50.0
100
AcDbLine
 10
12711.06373332398
 20
4548.87275098748
 30
0.0
 11
12709.03311213301
 21
4528.927709729702
 31
0.0
  0
LINE
  5
17162
330
747D
100
AcDbEntity
  8
部品1
 48
50.0
100
AcDbLine
 10
12705.68054564852
 20
4525.617075656792
 30
0.0
 11
12698.17376638369
 21
4451.884454911782
 31
0.0
  0
LINE
  5
17163
330
747D
100
AcDbEntity
  8
部品1
 48
50.0
100
AcDbLine
 10
12694.82119989921
 20
4448.573820838868
 30
0.0
 11
12693.74163685947
 21
4437.97020384531
 31
0.0
  0
ARC
  5
17164
330
747D
100
AcDbEntity
  8
部品1
 48
50.0
100
AcDbCircle
 10
12704.09973275922
 20
4549.581761660258
 30
0.0
 40
7.0
100
AcDbArc
 50
354.1866997665532
 51
87.03587545283228
  0
ARC
  5
17165
330
747D
100
AcDbEntity
  8
部品1
 48
50.0
100
AcDbCircle
 10
12686.77763629471
 20
4438.679214518084
 30
0.0
 40
7.0
100
AcDbArc
 50
267.8377559869492
 51
354.1866997665532
  0
ARC
  5
17166
330
747D
100
AcDbEntity
  8
部品1
100
AcDbCircle
 10
12697.80577156981
 20
4448.269959121964
 30
0.0
 40
3.0
100
AcDbArc
 50
95.09216976420788
 51
174.1866997665532
  0
ARC
  5
17167
330
747D
100
AcDbEntity
  8
部品1
100
AcDbCircle
 10
12708.66511731914
 20
4525.313213939891
 30
0.0
 40
3.0
100
AcDbArc
 50
95.09216976420788
 51
174.1866997665532
  0
ARC
  5
17168
330
747D
100
AcDbEntity
  8
部品1
100
AcDbCircle
 10
12708.33671207653
 20
4528.998610796977
 30
0.0
 40
0.7
100
AcDbArc
 50
275.0921697642079
 51
354.1866997665532
  0
ARC
  5
17169
330
747D
100
AcDbEntity
  8
部品1
100
AcDbCircle
 10
12697.47736632721
 20
4451.955355979055
 30
0.0
 40
0.7
100
AcDbArc
 50
275.0921697642079
 51
354.1866997667606
  0
LINE
  5
1716A
330
747D
100
AcDbEntity
  8
部品1
100
AcDbLine
 10
11177.07496094252
 20
4738.135986676279
 30
0.0
 11
11502.52997458555
 21
4720.61792771742
 31
0.0
  0
LINE
  5
1716B
330
747D
100
AcDbEntity
  8
部品1
100
AcDbLine
 10
11736.84983051327
 20
4377.931598713261
 30
0.0
 11
11736.84983051327
 21
2587.931598713265
 31
0.0
  0
LINE
  5
1716C
330
747D
100
AcDbEntity
  8
細線
 48
50.0
100
AcDbLine
 10
11814.34983051327
 20
4377.931598713261
 30
0.0
 11
11814.34983051327
 21
2587.931598713265
 31
0.0
  0
LINE
  5
1716D
330
747D
100
AcDbEntity
  8
細線
 48
50.0
100
AcDbLine
 10
11799.34983051328
 20
4377.931598713261
 30
0.0
 11
11799.34983051328
 21
2587.931598713265
 31
0.0
  0
LINE
  5
1716E
330
747D
100
AcDbEntity
  8
細線
 48
50.0
100
AcDbLine
 10
11939.34983051328
 20
4377.931598713261
 30
0.0
 11
11939.34983051328
 21
2587.931598713265
 31
0.0
  0
LINE
  5
1716F
330
747D
100
AcDbEntity
  8
細線
 48
50.0
100
AcDbLine
 10
11954.34983051328
 20
4377.931598713261
 30
0.0
 11
11954.34983051328
 21
2587.931598713265
 31
0.0
  0
LINE
  5
17170
330
747D
100
AcDbEntity
  8
細線
 48
50.0
100
AcDbLine
 10
12094.34983051328
 20
4377.931598713261
 30
0.0
 11
12094.34983051328
 21
2587.931598713265
 31
0.0
  0
LINE
  5
17171
330
747D
100
AcDbEntity
  8
細線
 48
50.0
100
AcDbLine
 10
12079.34983051328
 20
4377.931598713261
 30
0.0
 11
12079.34983051328
 21
2587.931598713265
 31
0.0
  0
DIMENSION
  5
17172
330
747D
100
AcDbEntity
  8
寸法
100
AcDbDimension
  2
*D20
 10
13336.77698848541
 20
4557.931598713263
 30
0.0
 11
13236.76517746178
 21
3547.931598713266
 31
0.0
 70
    32
 71
     5
 42
2020.0
  3
INABA_S40G
100
AcDbAlignedDimension
 13
12631.84983051327
 23
2537.931598713264
 33
0.0
 14
12711.84983051327
 24
4557.931598713263
 34
0.0
 50
90.0
100
AcDbRotatedDimension
1001
ACAD
1000
DSTYLE
1002
{
1070
   174
1070
     0
1070
   272
1070
     1
1070
   288
1070
     0
1070
   341
1005
0
1002
}
  0
DIMENSION
  5
17173
330
747D
100
AcDbEntity
  8
寸法
100
AcDbDimension
  2
*D21
 10
8858.099701330019
 20
4612.931598713262
 30
0.0
 11
8758.087890306395
 21
3575.431598713261
 31
0.0
 70
    32
 71
     5
 42
2075.000000000005
  3
INABA_S40G
100
AcDbAlignedDimension
 13
10001.84983051328
 23
2537.931598713257
 33
0.0
 14
9941.849830513278
 24
4612.931598713262
 34
0.0
 50
90.0
100
AcDbRotatedDimension
1001
ACAD
1000
DSTYLE
1002
{
1070
   174
1070
     0
1070
   272
1070
     1
1070
   288
1070
     0
1070
   341
1005
0
1002
}
  0
DIMENSION
  5
17174
330
747D
100
AcDbEntity
  8
寸法
100
AcDbDimension
  2
*D22
 10
9158.099701330019
 20
2587.931598713257
 30
0.0
 11
9058.09970133002
 21
3482.931598713259
 31
0.0
 70
    32
 71
     5
 42
1790.000000000001
  3
INABA_S40G
100
AcDbAlignedDimension
 13
10001.84983051328
 23
4377.931598713258
 33
0.0
 14
10001.84983051328
 24
2587.931598713257
 34
0.0
 50
90.0
100
AcDbRotatedDimension
1001
ACAD
1000
DSTYLE
1002
{
1070
   174
1070
     0
1070
   272
1070
     1
1070
   288
1070
     0
1070
   341
1005
0
1002
}
  0
LINE
  5
17534
330
747D
100
AcDbEntity
  8
補助
  6
PHANTOM
 62
   230
 48
50.0
100
AcDbLine
 10
140.0
 20
0.0
 30
0.0
 11
139.9999999999995
 21
11409.6
 31
0.0
  0
DIMENSION
  5
176DA
330
747D
100
AcDbEntity
  8
寸法
 48
50.0
100
AcDbDimension
  2
*D25
 10
5164.67305712366
 20
5018.657870445172
 30
0.0
 11
6269.673057123658
 21
5018.657870445172
 31
0.0
 70
   160
  1
柱外寸法<>
 71
     5
 42
2210.0
  3
INABA_S40G
100
AcDbAlignedDimension
 13
7374.673057123661
 23
4612.931598713267
 33
0.0
 14
5164.67305712366
 24
4612.931598713268
 34
0.0
100
AcDbRotatedDimension
  0
DIMENSION
  5
176DC
330
747D
100
AcDbEntity
  8
寸法
 48
50.0
100
AcDbDimension
  2
*D23
 10
7424.673057123657
 20
5218.566791659262
 30
0.0
 11
6269.673057123658
 21
5218.566791659262
 31
0.0
 70
   160
 71
     5
 42
2309.999999999996
  3
INABA_S40G
100
AcDbAlignedDimension
 13
5114.67305712366
 23
4612.931598713267
 33
0.0
 14
7424.673057123657
 24
4612.931598713265
 34
0.0
100
AcDbRotatedDimension
  0
DIMENSION
  5
176DD
330
747D
100
AcDbEntity
  8
寸法
 48
50.0
100
AcDbDimension
  2
*D24
 10
5114.67305712366
 20
5018.657870445172
 30
0.0
 11
4801.187775749413
 21
5018.657870445172
 31
0.0
 70
   160
 71
     5
 42
50.0
  3
INABA_S40G
100
AcDbAlignedDimension
 13
5164.67305712366
 23
4612.931598713268
 33
0.0
 14
5114.67305712366
 24
4612.931598713267
 34
0.0
100
AcDbRotatedDimension
1001
ACAD
1000
DSTYLE
1002
{
1002
}
  0
ARC
  5
176DE
330
747D
100
AcDbEntity
  8
部品1
 48
0.01
100
AcDbCircle
 10
5742.673057123656
 20
4410.431598713262
 30
0.0
 40
2.0
100
AcDbArc
 50
270.0
 51
0.0
  0
ARC
  5
176DF
330
747D
100
AcDbEntity
  8
部品1
 48
0.01
100
AcDbCircle
 10
5742.67305712366
 20
4441.931598713261
 30
0.0
 40
2.0
100
AcDbArc
 50
0.0
 51
90.0
  0
ARC
  5
176E0
330
747D
100
AcDbEntity
  8
部品1
 48
0.01
100
AcDbCircle
 10
5566.673057123661
 20
4410.431598713262
 30
0.0
 40
2.0
100
AcDbArc
 50
180.0
 51
270.0
  0
ARC
  5
176E1
330
747D
100
AcDbEntity
  8
部品1
 48
0.01
100
AcDbCircle
 10
5566.673057123661
 20
4441.931598713261
 30
0.0
 40
2.0
100
AcDbArc
 50
90.0
 51
180.0
  0
LINE
  5
176E2
330
747D
100
AcDbEntity
  8
細線
100
AcDbLine
 10
5654.673057123656
 20
4414.431598713261
 30
0.0
 11
5728.673057123661
 21
4414.431598713261
 31
0.0
  0
LINE
  5
176E3
330
747D
100
AcDbEntity
  8
細線
100
AcDbLine
 10
5654.67305712366
 20
4437.431598713261
 30
0.0
 11
5580.673057123661
 21
4437.431598713261
 31
0.0
  0
LINE
  5
176E4
330
747D
100
AcDbEntity
  8
細線
100
AcDbLine
 10
5580.673057123661
 20
4414.431598713261
 30
0.0
 11
5654.67305712366
 21
4414.431598713261
 31
0.0
  0
LINE
  5
176E5
330
747D
100
AcDbEntity
  8
細線
100
AcDbLine
 10
5728.673057123661
 20
4437.431598713261
 30
0.0
 11
5654.67305712366
 21
4437.431598713261
 31
0.0
  0
LINE
  5
176E6
330
747D
100
AcDbEntity
  8
細線
100
AcDbLine
 10
5728.673057123661
 20
4414.431598713261
 30
0.0
 11
5728.673057123661
 21
4437.431598713261
 31
0.0
  0
LINE
  5
176E7
330
747D
100
AcDbEntity
  8
細線
100
AcDbLine
 10
5580.673057123661
 20
4437.431598713261
 30
0.0
 11
5580.673057123661
 21
4414.431598713261
 31
0.0
  0
LINE
  5
176E8
330
747D
100
AcDbEntity
  8
部品1
 48
0.01
100
AcDbLine
 10
5744.673057123657
 20
4410.431598713262
 30
0.0
 11
5744.673057123661
 21
4441.931598713261
 31
0.0
  0
LINE
  5
176E9
330
747D
100
AcDbEntity
  8
部品1
 48
0.01
100
AcDbLine
 10
5566.673057123661
 20
4408.431598713261
 30
0.0
 11
5742.673057123656
 21
4408.431598713261
 31
0.0
  0
LINE
  5
176EA
330
747D
100
AcDbEntity
  8
部品1
 48
0.01
100
AcDbLine
 10
5564.67305712366
 20
4441.931598713261
 30
0.0
 11
5564.67305712366
 21
4410.431598713262
 31
0.0
  0
LINE
  5
176EB
330
747D
100
AcDbEntity
  8
部品1
 48
0.01
100
AcDbLine
 10
5742.67305712366
 20
4443.931598713262
 30
0.0
 11
5566.673057123661
 21
4443.931598713262
 31
0.0
  0
LINE
  5
176EC
330
747D
100
AcDbEntity
  8
細線
100
AcDbLine
 10
5580.673057123661
 20
4431.431598713261
 30
0.0
 11
5654.67305712366
 21
4431.431598713261
 31
0.0
  0
LINE
  5
176ED
330
747D
100
AcDbEntity
  8
細線
100
AcDbLine
 10
5580.673057123661
 20
4425.431598713261
 30
0.0
 11
5654.67305712366
 21
4425.431598713261
 31
0.0
  0
LINE
  5
176EE
330
747D
100
AcDbEntity
  8
細線
100
AcDbLine
 10
5580.673057123657
 20
4419.431598713261
 30
0.0
 11
5654.67305712366
 21
4419.431598713261
 31
0.0
  0
LINE
  5
176EF
330
747D
100
AcDbEntity
  8
細線
100
AcDbLine
 10
5580.673057123661
 20
4431.431598713261
 30
0.0
 11
5649.67305712366
 21
4431.431598713261
 31
0.0
  0
LINE
  5
176F0
330
747D
100
AcDbEntity
  8
細線
100
AcDbLine
 10
5728.673057123657
 20
4431.431598713261
 30
0.0
 11
5654.67305712366
 21
4431.431598713261
 31
0.0
  0
LINE
  5
176F1
330
747D
100
AcDbEntity
  8
細線
100
AcDbLine
 10
5728.673057123657
 20
4419.431598713261
 30
0.0
 11
5654.67305712366
 21
4419.431598713261
 31
0.0
  0
LINE
  5
176F2
330
747D
100
AcDbEntity
  8
細線
100
AcDbLine
 10
5728.673057123657
 20
4425.431598713261
 30
0.0
 11
5654.67305712366
 21
4425.431598713261
 31
0.0
  0
LINE
  5
176F3
330
747D
100
AcDbEntity
  8
細線
100
AcDbLine
 10
5654.67305712366
 20
4437.431598713261
 30
0.0
 11
5654.673057123656
 21
4414.431598713261
 31
0.0
  0
LINE
  5
176F4
330
747D
100
AcDbEntity
  8
細線
100
AcDbLine
 10
6884.673057123656
 20
4437.431598713261
 30
0.0
 11
6884.67305712366
 21
4414.431598713261
 31
0.0
  0
LINE
  5
176F5
330
747D
100
AcDbEntity
  8
細線
100
AcDbLine
 10
6810.673057123661
 20
4425.431598713261
 30
0.0
 11
6884.673057123656
 21
4425.431598713261
 31
0.0
  0
LINE
  5
176F6
330
747D
100
AcDbEntity
  8
細線
100
AcDbLine
 10
6810.673057123661
 20
4419.431598713261
 30
0.0
 11
6884.673057123656
 21
4419.431598713261
 31
0.0
  0
LINE
  5
176F7
330
747D
100
AcDbEntity
  8
細線
100
AcDbLine
 10
6810.673057123661
 20
4431.431598713261
 30
0.0
 11
6884.673057123656
 21
4431.431598713261
 31
0.0
  0
LINE
  5
176F8
330
747D
100
AcDbEntity
  8
細線
100
AcDbLine
 10
6958.673057123657
 20
4431.431598713261
 30
0.0
 11
6889.673057123657
 21
4431.431598713261
 31
0.0
  0
LINE
  5
176F9
330
747D
100
AcDbEntity
  8
細線
100
AcDbLine
 10
6958.67305712366
 20
4419.431598713261
 30
0.0
 11
6884.673057123656
 21
4419.431598713261
 31
0.0
  0
LINE
  5
176FA
330
747D
100
AcDbEntity
  8
細線
100
AcDbLine
 10
6958.673057123657
 20
4425.431598713261
 30
0.0
 11
6884.673057123656
 21
4425.431598713261
 31
0.0
  0
LINE
  5
176FB
330
747D
100
AcDbEntity
  8
細線
100
AcDbLine
 10
6958.673057123657
 20
4431.431598713261
 30
0.0
 11
6884.673057123656
 21
4431.431598713261
 31
0.0
  0
LINE
  5
176FC
330
747D
100
AcDbEntity
  8
部品1
 48
0.01
100
AcDbLine
 10
6796.673057123657
 20
4443.931598713262
 30
0.0
 11
6972.673057123657
 21
4443.931598713262
 31
0.0
  0
LINE
  5
176FD
330
747D
100
AcDbEntity
  8
部品1
 48
0.01
100
AcDbLine
 10
6974.673057123657
 20
4441.931598713261
 30
0.0
 11
6974.673057123657
 21
4410.431598713262
 31
0.0
  0
LINE
  5
176FE
330
747D
100
AcDbEntity
  8
部品1
 48
0.01
100
AcDbLine
 10
6972.673057123657
 20
4408.431598713261
 30
0.0
 11
6796.673057123661
 21
4408.431598713261
 31
0.0
  0
LINE
  5
176FF
330
747D
100
AcDbEntity
  8
部品1
 48
0.01
100
AcDbLine
 10
6794.673057123659
 20
4410.431598713262
 30
0.0
 11
6794.673057123657
 21
4441.931598713261
 31
0.0
  0
LINE
  5
17700
330
747D
100
AcDbEntity
  8
細線
100
AcDbLine
 10
6958.673057123657
 20
4437.431598713261
 30
0.0
 11
6958.673057123657
 21
4414.431598713261
 31
0.0
  0
LINE
  5
17701
330
747D
100
AcDbEntity
  8
細線
100
AcDbLine
 10
6810.673057123657
 20
4414.431598713261
 30
0.0
 11
6810.673057123657
 21
4437.431598713261
 31
0.0
  0
LINE
  5
17702
330
747D
100
AcDbEntity
  8
細線
100
AcDbLine
 10
6810.673057123657
 20
4437.431598713261
 30
0.0
 11
6884.673057123656
 21
4437.431598713261
 31
0.0
  0
LINE
  5
17703
330
747D
100
AcDbEntity
  8
細線
100
AcDbLine
 10
6958.673057123657
 20
4414.431598713261
 30
0.0
 11
6884.673057123656
 21
4414.431598713261
 31
0.0
  0
LINE
  5
17704
330
747D
100
AcDbEntity
  8
細線
100
AcDbLine
 10
6884.673057123656
 20
4437.431598713261
 30
0.0
 11
6958.673057123657
 21
4437.431598713261
 31
0.0
  0
LINE
  5
17705
330
747D
100
AcDbEntity
  8
細線
100
AcDbLine
 10
6884.67305712366
 20
4414.431598713261
 30
0.0
 11
6810.673057123657
 21
4414.431598713261
 31
0.0
  0
ARC
  5
17706
330
747D
100
AcDbEntity
  8
部品1
 48
0.01
100
AcDbCircle
 10
6972.673057123657
 20
4441.931598713261
 30
0.0
 40
2.0
100
AcDbArc
 50
0.0
 51
90.0
  0
ARC
  5
17707
330
747D
100
AcDbEntity
  8
部品1
 48
0.01
100
AcDbCircle
 10
6972.673057123657
 20
4410.431598713262
 30
0.0
 40
2.0
100
AcDbArc
 50
270.0
 51
0.0
  0
ARC
  5
17708
330
747D
100
AcDbEntity
  8
部品1
 48
0.01
100
AcDbCircle
 10
6796.673057123657
 20
4441.931598713261
 30
0.0
 40
2.0
100
AcDbArc
 50
90.0
 51
180.0
  0
ARC
  5
17709
330
747D
100
AcDbEntity
  8
部品1
 48
0.01
100
AcDbCircle
 10
6796.673057123661
 20
4410.431598713262
 30
0.0
 40
2.0
100
AcDbArc
 50
180.0
 51
270.0
  0
LINE
  5
1770A
330
747D
100
AcDbEntity
  8
部品1
100
AcDbLine
 10
5115.092718138991
 20
4605.535073318027
 30
0.0
 11
5116.22611547134
 21
4585.558945335427
 31
0.0
  0
LINE
  5
1770B
330
747D
100
AcDbEntity
  8
部品1
100
AcDbLine
 10
5127.663135792916
 20
4489.901538168367
 30
0.0
 11
5128.308041600025
 21
4478.535073318027
 31
0.0
  0
LINE
  5
1770C
330
747D
100
AcDbEntity
  8
部品1
100
AcDbLine
 10
5119.427105268069
 20
4582.10153816837
 30
0.0
 11
5124.462145996179
 21
4493.358945335425
 31
0.0
  0
ARC
  5
1770D
330
747D
100
AcDbEntity
  8
部品1
 48
50.0
100
AcDbCircle
 10
5116.431922371884
 20
4581.931598713269
 30
0.0
 40
3.0
100
AcDbArc
 50
3.247342790337682
 51
82.3418727926348
  0
ARC
  5
1770E
330
747D
100
AcDbEntity
  8
部品1
 48
50.0
100
AcDbCircle
 10
5124.667952896727
 20
4489.731598713264
 30
0.0
 40
3.0
100
AcDbArc
 50
3.247342790337682
 51
82.3418727926348
  0
ARC
  5
1770F
330
747D
100
AcDbEntity
  8
部品1
 48
50.0
100
AcDbCircle
 10
5125.161022005288
 20
4493.398597874949
 30
0.0
 40
0.7
100
AcDbArc
 50
183.2473427902856
 51
262.3418727926349
  0
ARC
  5
17710
330
747D
100
AcDbEntity
  8
部品1
 48
50.0
100
AcDbCircle
 10
5116.924991480448
 20
4585.598597874952
 30
0.0
 40
0.7
100
AcDbArc
 50
183.2473427903897
 51
262.3418727926349
  0
ARC
  5
17711
330
747D
100
AcDbEntity
  8
部品1
100
AcDbCircle
 10
5135.296801691123
 20
4478.931598713269
 30
0.0
 40
7.0
100
AcDbArc
 50
183.2473427903377
 51
270.0
  0
ARC
  5
17712
330
747D
100
AcDbEntity
  8
部品1
100
AcDbCircle
 10
5122.081478230089
 20
4605.931598713267
 30
0.0
 40
7.0
100
AcDbArc
 50
90.0
 51
183.2473427903377
  0
LINE
  5
1771B
330
747D
100
AcDbEntity
  8
細線
 48
50.0
100
AcDbLine
 10
5147.67305712366
 20
4612.931598713267
 30
0.0
 11
5147.67305712366
 21
4471.931598713267
 31
0.0
  0
LINE
  5
1771E
330
747D
100
AcDbEntity
  8
細線
 48
50.0
100
AcDbLine
 10
7414.39748837736
 20
4492.731598713258
 30
0.0
 11
5124.94862586993
 21
4492.731598713268
 31
0.0
  0
LINE
  5
1771F
330
747D
100
AcDbEntity
  8
細線
 48
50.0
100
AcDbLine
 10
7422.633518902223
 20
4584.931598713268
 30
0.0
 11
5116.712595345101
 21
4584.931598713264
 31
0.0
  0
LINE
  5
17720
330
747D
100
AcDbEntity
  8
部品1
 48
50.0
100
AcDbLine
 10
7404.049312556193
 20
4471.931598713268
 30
0.0
 11
5135.296801691123
 21
4471.931598713268
 31
0.0
  0
LINE
  5
17721
330
747D
100
AcDbEntity
  8
部品1
 48
50.0
100
AcDbLine
 10
7417.264636017228
 20
4612.931598713266
 30
0.0
 11
5122.081478230089
 21
4612.931598713268
 31
0.0
  0
LINE
  5
17722
330
747D
100
AcDbEntity
  8
部品1
100
AcDbLine
 10
5164.673057123657
 20
4377.931598713261
 30
0.0
 11
7374.673057123657
 21
4377.93159871326
 31
0.0
  0
DIMENSION
  5
1777F
330
747D
100
AcDbEntity
  8
寸法
 48
50.0
100
AcDbDimension
  2
*D26
 10
7374.673057123661
 20
5018.657870445172
 30
0.0
 11
7738.158338497896
 21
5018.657870445172
 31
0.0
 70
   160
 71
     5
 42
49.99999999999636
  3
INABA_S40G
100
AcDbAlignedDimension
 13
7424.673057123657
 23
4612.931598713265
 33
0.0
 14
7374.673057123661
 24
4612.931598713267
 34
0.0
100
AcDbRotatedDimension
  0
ARC
  5
17780
330
747D
100
AcDbEntity
  8
部品1
100
AcDbCircle
 10
7417.264636017228
 20
4605.931598713267
 30
0.0
 40
7.0
100
AcDbArc
 50
356.7526572096623
 51
90.0
  0
ARC
  5
17781
330
747D
100
AcDbEntity
  8
部品1
100
AcDbCircle
 10
7404.049312556193
 20
4478.931598713269
 30
0.0
 40
7.0
100
AcDbArc
 50
270.0
 51
356.7526572096623
  0
ARC
  5
17782
330
747D
100
AcDbEntity
  8
部品1
 48
50.0
100
AcDbCircle
 10
7422.421122766869
 20
4585.598597874952
 30
0.0
 40
0.7
100
AcDbArc
 50
277.6581272073652
 51
356.7526572096103
  0
ARC
  5
17783
330
747D
100
AcDbEntity
  8
部品1
 48
50.0
100
AcDbCircle
 10
7414.185092242028
 20
4493.398597874949
 30
0.0
 40
0.7
100
AcDbArc
 50
277.6581272073652
 51
356.7526572097143
  0
ARC
  5
17784
330
747D
100
AcDbEntity
  8
部品1
 48
50.0
100
AcDbCircle
 10
7414.67816135059
 20
4489.731598713264
 30
0.0
 40
3.0
100
AcDbArc
 50
97.65812720736519
 51
176.7526572096623
  0
ARC
  5
17785
330
747D
100
AcDbEntity
  8
部品1
 48
50.0
100
AcDbCircle
 10
7422.914191875434
 20
4581.931598713269
 30
0.0
 40
3.0
100
AcDbArc
 50
97.65812720736519
 51
176.7526572096623
  0
LINE
  5
17786
330
747D
100
AcDbEntity
  8
部品1
100
AcDbLine
 10
7419.919008979248
 20
4582.10153816837
 30
0.0
 11
7414.883968251136
 21
4493.358945335425
 31
0.0
  0
LINE
  5
17787
330
747D
100
AcDbEntity
  8
部品1
100
AcDbLine
 10
7411.6829784544
 20
4489.901538168367
 30
0.0
 11
7411.038072647293
 21
4478.535073318027
 31
0.0
  0
LINE
  5
17788
330
747D
100
AcDbEntity
  8
細線
 48
50.0
100
AcDbLine
 10
7391.673057123657
 20
4612.931598713267
 30
0.0
 11
7391.673057123657
 21
4471.931598713267
 31
0.0
  0
LINE
  5
17789
330
747D
100
AcDbEntity
  8
部品1
100
AcDbLine
 10
7424.253396108326
 20
4605.535073318027
 30
0.0
 11
7423.119998775978
 21
4585.558945335427
 31
0.0
  0
DIMENSION
  5
17949
330
747D
100
AcDbEntity
  8
寸法
 48
50.0
100
AcDbDimension
  2
*D27
 10
7662.216159445404
 20
4377.931598713261
 30
0.0
 11
7662.216159445403
 21
4616.4168800875
 31
0.0
 70
   160
 71
     5
 42
164.9999999999991
  3
INABA_S40G
100
AcDbAlignedDimension
 13
7374.67305712366
 23
4212.931598713262
 33
0.0
 14
7374.673057123657
 24
4377.931598713261
 34
0.0
 50
90.0
100
AcDbRotatedDimension
1001
ACAD
1000
DSTYLE
1002
{
1002
}
  0
DIMENSION
  5
1794A
330
747D
100
AcDbEntity
  8
寸法
 48
50.0
100
AcDbDimension
  2
*D28
 10
7662.216159445403
 20
4212.931598713262
 30
0.0
 11
7802.385982691768
 21
4213.898798552921
 31
0.0
 70
   160
 71
     5
 42
27.00000000000091
  3
INABA_S40G
100
AcDbAlignedDimension
 13
7374.673057123657
 23
4185.931598713261
 33
0.0
 14
7374.67305712366
 24
4212.931598713262
 34
0.0
 50
90.0
100
AcDbRotatedDimension
1001
ACAD
1000
DSTYLE
1002
{
1070
   279
1070
     2
1002
}
  0
DIMENSION
  5
1794B
330
747D
100
AcDbEntity
  8
寸法
 48
50.0
100
AcDbDimension
  2
*D29
 10
7662.216159445403
 20
4185.931598713261
 30
0.0
 11
7562.216159445402
 21
3361.931598713263
 31
0.0
 70
    32
  1
有効開口部高サ <>
 71
     5
 42
1648.0
  3
INABA_S40G
100
AcDbAlignedDimension
 13
7374.673057123657
 23
2537.931598713262
 33
0.0
 14
7374.673057123657
 24
4185.931598713261
 34
0.0
 50
90.0
100
AcDbRotatedDimension
  0
LINE
  5
17A6E
330
747D
100
AcDbEntity
  8
仕様書枠
 48
50.0
100
AcDbLine
 10
16307.19999999999
 20
8859.600000000002
 30
0.0
 11
13127.2
 21
8859.600000000005
 31
0.0
  0
TEXT
  5
17A70
330
747D
100
AcDbEntity
  8
文字
 62
     7
 48
50.0
100
AcDbText
 10
15022.63965474517
 20
10760.01374588372
 30
0.0
 40
100.0
  1
F12         1.0,1.2
  7
STYLE1
100
AcDbText
  0
TEXT
  5
17A73
330
747D
100
AcDbEntity
  8
文字
 62
     7
 48
50.0
100
AcDbText
 10
15022.63965474516
 20
9230.013745883725
 30
0.0
 40
100.0
  1
F12            0.7
  7
STYLE1
100
AcDbText
  0
ENDSEC
  0
SECTION
  2
OBJECTS
  0
DICTIONARY
  5
7471
330
0
100
AcDbDictionary
281
     1
  3
ACAD_COLOR
350
16605
  3
ACAD_GROUP
350
7472
  3
ACAD_LAYOUT
350
16606
  3
ACAD_MATERIAL
350
16604
  3
ACAD_MLINESTYLE
350
7473
  3
ACAD_PLOTSETTINGS
350
16607
  3
ACAD_PLOTSTYLENAME
350
16602
  3
ACDBHEADERROUNDTRIPXREC
350
17AD2
  3
AcDbVariableDictionary
350
16B5C
  3
CONTENTDICTIONARY
350
E71C
  3
DRAWINGVARIABLESDICT
350
F3B9
  0
DICTIONARY
  5
16F32
330
7467
100
AcDbDictionary
280
     1
281
     1
  3
ACAD_LAYERSTATES
360
16F33
  0
DICTIONARY
  5
16605
102
{ACAD_REACTORS
330
7471
102
}
330
7471
100
AcDbDictionary
281
     1
  0
DICTIONARY
  5
7472
102
{ACAD_REACTORS
330
7471
102
}
330
7471
100
AcDbDictionary
281
     1
  0
DICTIONARY
  5
16606
102
{ACAD_REACTORS
330
7471
102
}
330
7471
100
AcDbDictionary
281
     1
  3
Model
350
16608
  3
レイアウト1
350
16609
  0
DICTIONARY
  5
16604
102
{ACAD_REACTORS
330
7471
102
}
330
7471
100
AcDbDictionary
281
     1
  0
DICTIONARY
  5
7473
102
{ACAD_REACTORS
330
7471
102
}
330
7471
100
AcDbDictionary
281
     1
  3
STANDARD
350
7480
  0
DICTIONARY
  5
16607
102
{ACAD_REACTORS
330
7471
102
}
330
7471
100
AcDbDictionary
281
     1
  0
ACDBDICTIONARYWDFLT
  5
16602
102
{ACAD_REACTORS
330
7471
102
}
330
7471
100
AcDbDictionary
281
     1
  3
Normal
350
16603
100
AcDbDictionaryWithDefault
340
16603
  0
DICTIONARY
  5
17AD2
102
{ACAD_REACTORS
330
7471
102
}
330
7471
100
AcDbDictionary
281
     1
  3
COLORDICT
350
17AD4
  3
MATERIALDICT
350
17AD3
  0
DICTIONARY
  5
16B5C
102
{ACAD_REACTORS
330
7471
102
}
330
7471
100
AcDbDictionary
281
     1
  3
DIMASSOC
350
16B5D
  3
PROJECTNAME
350
16B5E
  0
DICTIONARY
  5
E71C
102
{ACAD_REACTORS
330
7471
102
}
330
7471
100
AcDbDictionary
281
     1
  0
DICTIONARY
  5
F3B9
102
{ACAD_REACTORS
330
7471
102
}
330
7471
100
AcDbDictionary
281
     1
1001
DRAWINGVARIABLESXDATA
1000
POLARMODE
1000
1
  0
DICTIONARY
  5
16F33
102
{ACAD_REACTORS
330
16F32
102
}
330
16F32
100
AcDbDictionary
281
     1
  0
LAYOUT
  5
16608
102
{ACAD_XDICTIONARY
360
17AD5
102
}
102
{ACAD_REACTORS
330
16606
102
}
330
16606
100
AcDbPlotSettings
  1

  2
Canon iR C3880/C4580 LIPSLX
  4
A3
  6

 40
5.873749732971191
 41
5.873747825622558
 42
5.873748779296875
 43
5.873748779296875
 44
296.9259948730469
 45
419.9466552734374
 46
0.0
 47
0.0
 48
0.0
 49
0.0
140
0.0
141
0.0
142
1.0
143
40.0
 70
 11952
 72
     1
 73
     1
 74
     2
  7
inaba.ctb
 75
    24
147
0.025
148
0.0
149
0.0
100
AcDbLayout
  1
Model
 70
     1
 71
     0
 10
0.0
 20
0.0
 11
12.0
 21
9.0
 12
0.0
 22
0.0
 32
0.0
 14
0.0
 24
0.0
 34
0.0
 15
0.0
 25
0.0
 35
0.0
146
0.0
 13
0.0
 23
0.0
 33
0.0
 16
1.0
 26
0.0
 36
0.0
 17
0.0
 27
1.0
 37
0.0
 76
     0
330
747D
  0
LAYOUT
  5
16609
102
{ACAD_XDICTIONARY
360
17AD7
102
}
102
{ACAD_REACTORS
330
16606
102
}
330
16606
100
AcDbPlotSettings
  1

  2
EPSON LP-7000C
  4

  6

 40
0.0
 41
0.0
 42
0.0
 43
0.0
 44
0.0
 45
0.0
 46
0.0
 47
0.0
 48
0.0
 49
0.0
140
0.0
141
0.0
142
1.0
143
1.0
 70
   688
 72
     0
 73
     0
 74
     5
  7
inaba.ctb
 75
    16
147
1.0
148
0.0
149
0.0
100
AcDbLayout
  1
レイアウト1
 70
     0
 71
     1
 10
0.0
 20
0.0
 11
420.0
 21
297.0
 12
0.0
 22
0.0
 32
0.0
 14
1.000000000000000E+20
 24
1.000000000000000E+20
 34
1.000000000000000E+20
 15
-1.000000000000000E+20
 25
-1.000000000000000E+20
 35
-1.000000000000000E+20
146
0.0
 13
0.0
 23
0.0
 33
0.0
 16
1.0
 26
0.0
 36
0.0
 17
0.0
 27
1.0
 37
0.0
 76
     0
330
747A
  0
MLINESTYLE
  5
7480
102
{ACAD_REACTORS
330
7473
102
}
330
7473
100
AcDbMlineStyle
  2
STANDARD
 70
     0
  3

 62
     0
 51
90.0
 52
90.0
 71
     2
 49
0.5
 62
   256
  6
BYLAYER
 49
-0.5
 62
   256
  6
BYLAYER
  0
ACDBPLACEHOLDER
  5
16603
102
{ACAD_REACTORS
330
16602
102
}
330
16602
  0
XRECORD
  5
17AD4
102
{ACAD_REACTORS
330
17AD2
102
}
330
17AD2
100
AcDbXrecord
280
     1
340
16605
  0
XRECORD
  5
17AD3
102
{ACAD_REACTORS
330
17AD2
102
}
330
17AD2
100
AcDbXrecord
280
     1
340
16604
  0
DICTIONARYVAR
  5
16B5D
102
{ACAD_REACTORS
330
16B5C
102
}
330
16B5C
100
DictionaryVariables
280
     0
  1
1
  0
DICTIONARYVAR
  5
16B5E
102
{ACAD_REACTORS
330
16B5C
102
}
330
16B5C
100
DictionaryVariables
280
     0
  1

  0
DICTIONARY
  5
17AD5
330
16608
100
AcDbDictionary
280
     1
281
     1
  3
ACAD_XREC_ROUNDTRIP
360
17AD6
  0
DICTIONARY
  5
17AD7
330
16609
100
AcDbDictionary
280
     1
281
     1
  3
ACAD_XREC_ROUNDTRIP
360
17AD8
  0
XRECORD
  5
17AD6
102
{ACAD_REACTORS
330
17AD5
102
}
330
17AD5
100
AcDbXrecord
280
     1
102
SHADEPLOT
 70
     0
102
SHADEPLOTRESLEVEL
 70
     2
102
SHADEPLOTCUSTOMDPI
 70
   300
  0
XRECORD
  5
17AD8
102
{ACAD_REACTORS
330
17AD7
102
}
330
17AD7
100
AcDbXrecord
280
     1
102
SHADEPLOT
 70
     0
102
SHADEPLOTRESLEVEL
 70
     2
102
SHADEPLOTCUSTOMDPI
 70
   300
  0
ENDSEC
  0
EOF
