  0
SECTION
  2
HEADER
  9
$ACADVER
  1
AC1015
  9
$ACADMAINTVER
 70
    20
  9
$DWGCODEPAGE
  3
ANSI_932
  9
$INSBASE
 10
0.0
 20
0.0
 30
0.0
  9
$EXTMIN
 10
139.9999999999995
 20
-0.0000000000000909
 30
0.0
  9
$EXTMAX
 10
16307.2
 20
11409.6
 30
0.0
  9
$LIMMIN
 10
0.0
 20
0.0
  9
$LIMMAX
 10
16800.0
 20
11880.0
  9
$ORTHOMODE
 70
     0
  9
$REGENMODE
 70
     1
  9
$FILLMODE
 70
     1
  9
$QTEXTMODE
 70
     0
  9
$MIRRTEXT
 70
     1
  9
$LTSCALE
 40
20.0
  9
$ATTMODE
 70
     1
  9
$TEXTSIZE
 40
4.0
  9
$TRACEWID
 40
1.0
  9
$TEXTSTYLE
  7
MSPゴシック
  9
$CLAYER
  8
寸法
  9
$CELTYPE
  6
BYLAYER
  9
$CECOLOR
 62
   256
  9
$CELTSCALE
 40
50.0
  9
$DISPSILH
 70
     0
  9
$DIMSCALE
 40
40.0
  9
$DIMASZ
 40
2.5
  9
$DIMEXO
 40
0.5
  9
$DIMDLI
 40
7.0
  9
$DIMRND
 40
0.0
  9
$DIMDLE
 40
0.0
  9
$DIMEXE
 40
1.5
  9
$DIMTP
 40
0.0
  9
$DIMTM
 40
0.0
  9
$DIMTXT
 40
3.0
  9
$DIMCEN
 40
0.0
  9
$DIMTSZ
 40
0.0
  9
$DIMTOL
 70
     0
  9
$DIMLIM
 70
     0
  9
$DIMTIH
 70
     0
  9
$DIMTOH
 70
     0
  9
$DIMSE1
 70
     0
  9
$DIMSE2
 70
     0
  9
$DIMTAD
 70
     3
  9
$DIMZIN
 70
     8
  9
$DIMBLK
  1

  9
$DIMASO
 70
     1
  9
$DIMSHO
 70
     1
  9
$DIMPOST
  1

  9
$DIMAPOST
  1

  9
$DIMALT
 70
     0
  9
$DIMALTD
 70
     2
  9
$DIMALTF
 40
0.0394
  9
$DIMLFAC
 40
1.0
  9
$DIMTOFL
 70
     1
  9
$DIMTVP
 40
0.0
  9
$DIMTIX
 70
     1
  9
$DIMSOXD
 70
     0
  9
$DIMSAH
 70
     1
  9
$DIMBLK1
  1
DOTSMALL
  9
$DIMBLK2
  1
DOTSMALL
  9
$DIMSTYLE
  2
INABA_S40G
  9
$DIMCLRD
 70
     0
  9
$DIMCLRE
 70
     0
  9
$DIMCLRT
 70
     7
  9
$DIMTFAC
 40
1.0
  9
$DIMGAP
 40
1.0
  9
$DIMJUST
 70
     0
  9
$DIMSD1
 70
     0
  9
$DIMSD2
 70
     0
  9
$DIMTOLJ
 70
     1
  9
$DIMTZIN
 70
     0
  9
$DIMALTZ
 70
     0
  9
$DIMALTTZ
 70
     0
  9
$DIMUPT
 70
     0
  9
$DIMDEC
 70
     1
  9
$DIMTDEC
 70
     4
  9
$DIMALTU
 70
     2
  9
$DIMALTTD
 70
     2
  9
$DIMTXSTY
  7
STYLE1
  9
$DIMAUNIT
 70
     0
  9
$DIMADEC
 70
     0
  9
$DIMALTRND
 40
0.0
  9
$DIMAZIN
 70
     0
  9
$DIMDSEP
 70
    46
  9
$DIMATFIT
 70
     3
  9
$DIMFRAC
 70
     0
  9
$DIMLDRBLK
  1

  9
$DIMLUNIT
 70
     2
  9
$DIMLWD
 70
    -2
  9
$DIMLWE
 70
    -2
  9
$DIMTMOVE
 70
     2
  9
$LUNITS
 70
     2
  9
$LUPREC
 70
     1
  9
$SKETCHINC
 40
1.0
  9
$FILLETRAD
 40
3.0
  9
$AUNITS
 70
     0
  9
$AUPREC
 70
     0
  9
$MENU
  1
acad
  9
$ELEVATION
 40
0.0
  9
$PELEVATION
 40
0.0
  9
$THICKNESS
 40
0.0
  9
$LIMCHECK
 70
     0
  9
$CHAMFERA
 40
0.0
  9
$CHAMFERB
 40
0.0
  9
$CHAMFERC
 40
0.0
  9
$CHAMFERD
 40
0.0
  9
$SKPOLY
 70
     0
  9
$TDCREATE
 40
2451368.612993866
  9
$TDUCREATE
 40
2451368.237993866
  9
$TDUPDATE
 40
2455569.644401400
  9
$TDUUPDATE
 40
2455569.269401400
  9
$TDINDWG
 40
0.8312537500
  9
$TDUSRTIMER
 40
0.8312537500
  9
$USRTIMER
 70
     1
  9
$ANGBASE
 50
0.0
  9
$ANGDIR
 70
     0
  9
$PDMODE
 70
     3
  9
$PDSIZE
 40
2.0
  9
$PLINEWID
 40
0.0
  9
$SPLFRAME
 70
     0
  9
$SPLINETYPE
 70
     6
  9
$SPLINESEGS
 70
     8
  9
$HANDSEED
  5
194F8
  9
$SURFTAB1
 70
     6
  9
$SURFTAB2
 70
     6
  9
$SURFTYPE
 70
     6
  9
$SURFU
 70
     6
  9
$SURFV
 70
     6
  9
$UCSBASE
  2

  9
$UCSNAME
  2

  9
$UCSORG
 10
0.0
 20
0.0
 30
0.0
  9
$UCSXDIR
 10
1.0
 20
0.0
 30
0.0
  9
$UCSYDIR
 10
0.0
 20
1.0
 30
0.0
  9
$UCSORTHOREF
  2

  9
$UCSORTHOVIEW
 70
     0
  9
$UCSORGTOP
 10
0.0
 20
0.0
 30
0.0
  9
$UCSORGBOTTOM
 10
0.0
 20
0.0
 30
0.0
  9
$UCSORGLEFT
 10
0.0
 20
0.0
 30
0.0
  9
$UCSORGRIGHT
 10
0.0
 20
0.0
 30
0.0
  9
$UCSORGFRONT
 10
0.0
 20
0.0
 30
0.0
  9
$UCSORGBACK
 10
0.0
 20
0.0
 30
0.0
  9
$PUCSBASE
  2

  9
$PUCSNAME
  2

  9
$PUCSORG
 10
0.0
 20
0.0
 30
0.0
  9
$PUCSXDIR
 10
1.0
 20
0.0
 30
0.0
  9
$PUCSYDIR
 10
0.0
 20
1.0
 30
0.0
  9
$PUCSORTHOREF
  2

  9
$PUCSORTHOVIEW
 70
     0
  9
$PUCSORGTOP
 10
0.0
 20
0.0
 30
0.0
  9
$PUCSORGBOTTOM
 10
0.0
 20
0.0
 30
0.0
  9
$PUCSORGLEFT
 10
0.0
 20
0.0
 30
0.0
  9
$PUCSORGRIGHT
 10
0.0
 20
0.0
 30
0.0
  9
$PUCSORGFRONT
 10
0.0
 20
0.0
 30
0.0
  9
$PUCSORGBACK
 10
0.0
 20
0.0
 30
0.0
  9
$USERI1
 70
     0
  9
$USERI2
 70
     0
  9
$USERI3
 70
     0
  9
$USERI4
 70
     0
  9
$USERI5
 70
     0
  9
$USERR1
 40
0.0
  9
$USERR2
 40
0.0
  9
$USERR3
 40
0.0
  9
$USERR4
 40
0.0
  9
$USERR5
 40
0.0
  9
$WORLDVIEW
 70
     1
  9
$SHADEDGE
 70
     3
  9
$SHADEDIF
 70
    70
  9
$TILEMODE
 70
     1
  9
$MAXACTVP
 70
    16
  9
$PINSBASE
 10
0.0
 20
0.0
 30
0.0
  9
$PLIMCHECK
 70
     0
  9
$PEXTMIN
 10
1.000000000000000E+20
 20
1.000000000000000E+20
 30
1.000000000000000E+20
  9
$PEXTMAX
 10
-1.000000000000000E+20
 20
-1.000000000000000E+20
 30
-1.000000000000000E+20
  9
$PLIMMIN
 10
0.0
 20
0.0
  9
$PLIMMAX
 10
420.0
 20
297.0
  9
$UNITMODE
 70
     0
  9
$VISRETAIN
 70
     0
  9
$PLINEGEN
 70
     0
  9
$PSLTSCALE
 70
     0
  9
$TREEDEPTH
 70
  3020
  9
$CMLSTYLE
  2
STANDARD
  9
$CMLJUST
 70
     0
  9
$CMLSCALE
 40
1.0
  9
$PROXYGRAPHICS
 70
     1
  9
$MEASUREMENT
 70
     1
  9
$CELWEIGHT
370
    -1
  9
$ENDCAPS
280
     0
  9
$JOINSTYLE
280
     0
  9
$LWDISPLAY
290
     0
  9
$INSUNITS
 70
     0
  9
$HYPERLINKBASE
  1

  9
$STYLESHEET
  1
inaba.ctb
  9
$XEDIT
290
     1
  9
$CEPSNTYPE
380
     0
  9
$PSTYLEMODE
290
     1
  9
$FINGERPRINTGUID
  2
{0E4A3AB3-ADAA-44DC-861C-9525B65BB1EC}
  9
$VERSIONGUID
  2
{94DEC3EC-F8E5-4C61-9C8D-2A6D9B345CFE}
  9
$EXTNAMES
290
     1
  9
$PSVPSCALE
 40
0.0
  9
$OLESTARTUP
290
     0
  0
ENDSEC
  0
SECTION
  2
CLASSES
  0
CLASS
  1
ACDBDICTIONARYWDFLT
  2
AcDbDictionaryWithDefault
  3
ObjectDBX Classes
 90
        0
280
     0
281
     0
  0
CLASS
  1
DICTIONARYVAR
  2
AcDbDictionaryVar
  3
ObjectDBX Classes
 90
        0
280
     0
281
     0
  0
CLASS
  1
ACDBPLACEHOLDER
  2
AcDbPlaceHolder
  3
ObjectDBX Classes
 90
        0
280
     0
281
     0
  0
CLASS
  1
LAYOUT
  2
AcDbLayout
  3
ObjectDBX Classes
 90
        0
280
     0
281
     0
  0
ENDSEC
  0
SECTION
  2
TABLES
  0
TABLE
  2
VPORT
  5
746D
330
0
100
AcDbSymbolTable
 70
     2
  0
VPORT
  5
194F0
330
746D
100
AcDbSymbolTableRecord
100
AcDbViewportTableRecord
  2
*Active
 70
     0
 10
0.0
 20
0.0
 11
1.0
 21
1.0
 12
11720.25903428193
 22
5704.513862896347
 13
0.0
 23
0.0
 14
10.0
 24
10.0
 15
10.0
 25
10.0
 16
0.0
 26
0.0
 36
1.0
 17
0.0
 27
0.0
 37
0.0
 40
11513.95019505916
 41
2.234800838574423
 42
50.0
 43
0.0
 44
0.0
 50
0.0
 51
0.0
 71
     0
 72
     0
 73
     1
 74
     0
 75
     0
 76
     0
 77
     0
 78
     0
281
     0
 65
     1
110
0.0
120
0.0
130
0.0
111
1.0
121
0.0
131
0.0
112
0.0
122
1.0
132
0.0
 79
     0
146
0.0
  0
ENDTAB
  0
TABLE
  2
LTYPE
  5
746A
330
0
100
AcDbSymbolTable
 70
     3
  0
LTYPE
  5
7477
330
746A
100
AcDbSymbolTableRecord
100
AcDbLinetypeTableRecord
  2
BYBLOCK
 70
     0
  3

 72
    65
 73
     0
 40
0.0
  0
LTYPE
  5
7478
330
746A
100
AcDbSymbolTableRecord
100
AcDbLinetypeTableRecord
  2
BYLAYER
 70
     0
  3

 72
    65
 73
     0
 40
0.0
  0
LTYPE
  5
7479
330
746A
100
AcDbSymbolTableRecord
100
AcDbLinetypeTableRecord
  2
CONTINUOUS
 70
     0
  3
Solid line
 72
    65
 73
     0
 40
0.0
  0
LTYPE
  5
781A
330
746A
100
AcDbSymbolTableRecord
100
AcDbLinetypeTableRecord
  2
HIDDEN
 70
     0
  3
__ __ __ __ __ __ __ __ __ __ __ __ __ __ __ __
 72
    65
 73
     2
 40
0.375
 49
0.25
 74
     0
 49
-0.125
 74
     0
  0
LTYPE
  5
781B
330
746A
100
AcDbSymbolTableRecord
100
AcDbLinetypeTableRecord
  2
PHANTOM
 70
     0
  3
______  __  __  ______  __  __  ______  __  __ 
 72
    65
 73
     6
 40
2.5
 49
1.25
 74
     0
 49
-0.25
 74
     0
 49
0.25
 74
     0
 49
-0.25
 74
     0
 49
0.25
 74
     0
 49
-0.25
 74
     0
  0
ENDTAB
  0
TABLE
  2
LAYER
  5
7467
102
{ACAD_XDICTIONARY
360
186EF
102
}
330
0
100
AcDbSymbolTable
 70
    10
  0
LAYER
  5
7474
330
7467
100
AcDbSymbolTableRecord
100
AcDbLayerTableRecord
  2
0
 70
     0
 62
     7
  6
CONTINUOUS
370
    -3
390
17AE0
  0
LAYER
  5
DEB3
330
7467
100
AcDbSymbolTableRecord
100
AcDbLayerTableRecord
  2
寸法
 70
     0
 62
     4
  6
CONTINUOUS
370
    -3
390
17AE0
  0
LAYER
  5
DEB4
330
7467
100
AcDbSymbolTableRecord
100
AcDbLayerTableRecord
  2
部品1
 70
     0
 62
     7
  6
CONTINUOUS
370
    -3
390
17AE0
  0
LAYER
  5
DEB5
330
7467
100
AcDbSymbolTableRecord
100
AcDbLayerTableRecord
  2
補助
 70
     0
 62
    -1
  6
CONTINUOUS
370
    -3
390
17AE0
  0
LAYER
  5
DEB6
330
7467
100
AcDbSymbolTableRecord
100
AcDbLayerTableRecord
  2
文字
 70
     0
 62
     7
  6
CONTINUOUS
370
    -3
390
17AE0
  0
LAYER
  5
F255
330
7467
100
AcDbSymbolTableRecord
100
AcDbLayerTableRecord
  2
DEFPOINTS
 70
     0
 62
     7
  6
CONTINUOUS
290
     0
370
    -3
390
17AE0
  0
LAYER
  5
10B54
330
7467
100
AcDbSymbolTableRecord
100
AcDbLayerTableRecord
  2
仕様書枠
 70
     0
 62
   230
  6
CONTINUOUS
370
    -3
390
17AE0
  0
LAYER
  5
11729
330
7467
100
AcDbSymbolTableRecord
100
AcDbLayerTableRecord
  2
Ｇ．Ｌ
 70
     0
 62
    30
  6
CONTINUOUS
370
    -3
390
17AE0
  0
LAYER
  5
1173F
330
7467
100
AcDbSymbolTableRecord
100
AcDbLayerTableRecord
  2
細線
 70
     0
 62
     5
  6
CONTINUOUS
370
    -3
390
17AE0
  0
LAYER
  5
142E2
330
7467
100
AcDbSymbolTableRecord
100
AcDbLayerTableRecord
  2
破線
 70
     0
 62
     2
  6
HIDDEN
370
    -3
390
17AE0
  0
ENDTAB
  0
TABLE
  2
STYLE
  5
7468
330
0
100
AcDbSymbolTable
 70
     7
  0
STYLE
  5
7475
330
7468
100
AcDbSymbolTableRecord
100
AcDbTextStyleTableRecord
  2
STANDARD
 70
     0
 40
0.0
 41
1.0
 50
0.0
 71
     0
 42
4.0
  3
txt
  4
C:\AutoCAD LT\bigfont.shx
  0
STYLE
  5
763C
330
7468
100
AcDbSymbolTableRecord
100
AcDbTextStyleTableRecord
  2
MSMINCHO
 70
     0
 40
0.0
 41
1.0
 50
0.0
 71
     0
 42
1.199999999999999
  3
MS PMincho.ttf
  4

1001
ACAD
1000
MS PMincho
1071
    32786
  0
STYLE
  5
F706
330
7468
100
AcDbSymbolTableRecord
100
AcDbTextStyleTableRecord
  2
STYLE1
 70
     0
 40
0.0
 41
1.0
 50
0.0
 71
     0
 42
4.0
  3
isocp.shx
  4
bigfont.shx
  0
STYLE
  5
103BF
330
7468
100
AcDbSymbolTableRecord
100
AcDbTextStyleTableRecord
  2
STYLE2
 70
     0
 40
0.0
 41
1.0
 50
0.0
 71
     0
 42
100.0
  3
MS PGothic.ttf
  4

1001
ACAD
1000
MS PGothic
1071
    32818
  0
STYLE
  5
10BAA
330
7468
100
AcDbSymbolTableRecord
100
AcDbTextStyleTableRecord
  2
STYLE3
 70
     0
 40
0.0
 41
1.0
 50
0.0
 71
     0
 42
100.0
  3
DFPGothic-EB.ttf
  4

1001
ACAD
1000
DFPGothic-EB
1071
    32818
  0
STYLE
  5
11A15
330
7468
100
AcDbSymbolTableRecord
100
AcDbTextStyleTableRecord
  2
MSGOTHIC
 70
     0
 40
0.0
 41
1.0
 50
0.0
 71
     0
 42
3.5
  3
MS PGothic.ttf
  4

1001
ACAD
1000
MS PGothic
1071
    32818
  0
STYLE
  5
13E96
330
7468
100
AcDbSymbolTableRecord
100
AcDbTextStyleTableRecord
  2
MSPゴシック
 70
     0
 40
0.0
 41
1.0
 50
0.0
 71
     0
 42
4.0
  3
MS PGothic.ttf
  4

1001
ACAD
1000
MS PGothic
1071
    32818
  0
ENDTAB
  0
TABLE
  2
VIEW
  5
746B
330
0
100
AcDbSymbolTable
 70
     0
  0
ENDTAB
  0
TABLE
  2
UCS
  5
746C
330
0
100
AcDbSymbolTable
 70
     0
  0
ENDTAB
  0
TABLE
  2
APPID
  5
746E
330
0
100
AcDbSymbolTable
 70
     6
  0
APPID
  5
7476
330
746E
100
AcDbSymbolTableRecord
100
AcDbRegAppTableRecord
  2
ACAD
 70
     0
  0
APPID
  5
DEA9
330
746E
100
AcDbSymbolTableRecord
100
AcDbRegAppTableRecord
  2
CONTENTBLOCKICON
 70
     0
  0
APPID
  5
DEAA
330
746E
100
AcDbSymbolTableRecord
100
AcDbRegAppTableRecord
  2
CONTENTBLOCKDESCRIPTION
 70
     0
  0
APPID
  5
E71D
330
746E
100
AcDbSymbolTableRecord
100
AcDbRegAppTableRecord
  2
CONTENTTABDATA
 70
     0
  0
APPID
  5
E71E
330
746E
100
AcDbSymbolTableRecord
100
AcDbRegAppTableRecord
  2
CONTENTCURRENTTAB
 70
     0
  0
APPID
  5
F3BA
330
746E
100
AcDbSymbolTableRecord
100
AcDbRegAppTableRecord
  2
DRAWINGVARIABLESXDATA
 70
     0
  0
ENDTAB
  0
TABLE
  2
DIMSTYLE
  5
746F
330
0
100
AcDbSymbolTable
 70
     1
100
AcDbDimStyleTable
 71
     1
340
F71F
  0
DIMSTYLE
105
F71F
102
{ACAD_REACTORS
330
162CD
330
162CE
330
162CF
330
162D0
330
162E4
330
162E7
330
162EA
330
162EB
330
16301
330
16302
330
1631F
330
16320
330
16333
330
1659C
330
1659A
330
165E9
330
166DD
330
16913
330
17BC3
330
17B87
330
17B86
330
188E4
330
188F3
330
18901
330
18902
330
18903
330
18907
330
18937
330
18938
330
18939
330
19073
330
19083
330
19084
330
19085
330
1933E
330
1933F
330
19340
102
}
330
746F
100
AcDbSymbolTableRecord
100
AcDbDimStyleTableRecord
  2
INABA_S40G
 70
     0
 40
40.0
 41
2.5
 42
0.5
 43
7.0
 44
1.5
 73
     0
 74
     0
 77
     3
 78
     8
140
3.0
141
0.0
143
0.0394
147
1.0
172
     1
173
     1
174
     1
178
     7
271
     1
340
F706
341
F770
343
F770
344
F770
  0
ENDTAB
  0
TABLE
  2
BLOCK_RECORD
  5
7466
330
0
100
AcDbSymbolTable
 70
    38
  0
BLOCK_RECORD
  5
747D
330
7466
100
AcDbSymbolTableRecord
100
AcDbBlockTableRecord
  2
*MODEL_SPACE
340
17AE5
  0
BLOCK_RECORD
  5
747A
330
7466
100
AcDbSymbolTableRecord
100
AcDbBlockTableRecord
  2
*PAPER_SPACE
340
17AE6
  0
BLOCK_RECORD
  5
F770
330
7466
100
AcDbSymbolTableRecord
100
AcDbBlockTableRecord
  2
_DOTSMALL
340
0
102
{BLKREFS
331
183AE
331
183AF
331
183B7
331
183B8
331
183C0
331
183C1
331
183C8
331
183C9
331
183D3
331
183D4
331
183DD
331
183DE
331
183E8
331
183E9
331
183F3
331
183F4
331
183FD
331
183FE
331
18408
331
18409
331
18411
331
18412
331
1841C
331
1841D
331
18428
331
18429
331
18433
331
18434
331
1843D
331
1843E
331
18446
331
18447
331
1844E
331
1844F
331
18457
331
18458
331
18462
331
18463
331
1846D
331
1846E
331
18476
331
18477
331
18E41
331
18E42
331
18E4A
331
18E4B
331
18E55
331
18E56
331
18E69
331
18E6A
331
18E7C
331
18E7D
331
18E86
331
18E87
331
18EA1
331
18EA2
331
191CD
331
191CE
331
191D6
331
191D7
331
191E1
331
191E2
331
191EC
331
191ED
331
19460
331
19461
331
194B3
331
194B4
331
194BC
331
194BD
331
194D1
331
194D2
331
194DD
331
194DE
102
}
  0
BLOCK_RECORD
  5
16338
330
7466
100
AcDbSymbolTableRecord
100
AcDbBlockTableRecord
  2
*D1
340
0
  0
BLOCK_RECORD
  5
16344
330
7466
100
AcDbSymbolTableRecord
100
AcDbBlockTableRecord
  2
*D2
340
0
  0
BLOCK_RECORD
  5
16352
330
7466
100
AcDbSymbolTableRecord
100
AcDbBlockTableRecord
  2
*D3
340
0
  0
BLOCK_RECORD
  5
16360
330
7466
100
AcDbSymbolTableRecord
100
AcDbBlockTableRecord
  2
*D4
340
0
  0
BLOCK_RECORD
  5
16384
330
7466
100
AcDbSymbolTableRecord
100
AcDbBlockTableRecord
  2
*D5
340
0
  0
BLOCK_RECORD
  5
1638F
330
7466
100
AcDbSymbolTableRecord
100
AcDbBlockTableRecord
  2
*D6
340
0
  0
BLOCK_RECORD
  5
1639B
330
7466
100
AcDbSymbolTableRecord
100
AcDbBlockTableRecord
  2
*D7
340
0
  0
BLOCK_RECORD
  5
163A9
330
7466
100
AcDbSymbolTableRecord
100
AcDbBlockTableRecord
  2
*D8
340
0
  0
BLOCK_RECORD
  5
163B8
330
7466
100
AcDbSymbolTableRecord
100
AcDbBlockTableRecord
  2
*D9
340
0
  0
BLOCK_RECORD
  5
163C7
330
7466
100
AcDbSymbolTableRecord
100
AcDbBlockTableRecord
  2
*D10
340
0
  0
BLOCK_RECORD
  5
163E1
330
7466
100
AcDbSymbolTableRecord
100
AcDbBlockTableRecord
  2
*D11
340
0
  0
BLOCK_RECORD
  5
163ED
330
7466
100
AcDbSymbolTableRecord
100
AcDbBlockTableRecord
  2
*D12
340
0
  0
BLOCK_RECORD
  5
163FB
330
7466
100
AcDbSymbolTableRecord
100
AcDbBlockTableRecord
  2
*D13
340
0
  0
BLOCK_RECORD
  5
165B5
330
7466
100
AcDbSymbolTableRecord
100
AcDbBlockTableRecord
  2
*D14
340
0
  0
BLOCK_RECORD
  5
165C4
330
7466
100
AcDbSymbolTableRecord
100
AcDbBlockTableRecord
  2
*D15
340
0
  0
BLOCK_RECORD
  5
165EA
330
7466
100
AcDbSymbolTableRecord
100
AcDbBlockTableRecord
  2
*D16
340
0
  0
BLOCK_RECORD
  5
166CF
330
7466
100
AcDbSymbolTableRecord
100
AcDbBlockTableRecord
  2
*D17
340
0
  0
BLOCK_RECORD
  5
16908
330
7466
100
AcDbSymbolTableRecord
100
AcDbBlockTableRecord
  2
*D18
340
0
  0
BLOCK_RECORD
  5
17BD3
330
7466
100
AcDbSymbolTableRecord
100
AcDbBlockTableRecord
  2
*D19
340
0
  0
BLOCK_RECORD
  5
17BDE
330
7466
100
AcDbSymbolTableRecord
100
AcDbBlockTableRecord
  2
*D20
340
0
  0
BLOCK_RECORD
  5
17BF8
330
7466
100
AcDbSymbolTableRecord
100
AcDbBlockTableRecord
  2
*D21
340
0
  0
BLOCK_RECORD
  5
18A75
330
7466
100
AcDbSymbolTableRecord
100
AcDbBlockTableRecord
  2
*D22
340
0
  0
BLOCK_RECORD
  5
18A82
330
7466
100
AcDbSymbolTableRecord
100
AcDbBlockTableRecord
  2
*D23
340
0
  0
BLOCK_RECORD
  5
18A8F
330
7466
100
AcDbSymbolTableRecord
100
AcDbBlockTableRecord
  2
*D24
340
0
  0
BLOCK_RECORD
  5
18A9B
330
7466
100
AcDbSymbolTableRecord
100
AcDbBlockTableRecord
  2
*D25
340
0
  0
BLOCK_RECORD
  5
18AA9
330
7466
100
AcDbSymbolTableRecord
100
AcDbBlockTableRecord
  2
*D26
340
0
  0
BLOCK_RECORD
  5
18AB5
330
7466
100
AcDbSymbolTableRecord
100
AcDbBlockTableRecord
  2
*D27
340
0
  0
BLOCK_RECORD
  5
18AC3
330
7466
100
AcDbSymbolTableRecord
100
AcDbBlockTableRecord
  2
*D28
340
0
  0
BLOCK_RECORD
  5
18ACF
330
7466
100
AcDbSymbolTableRecord
100
AcDbBlockTableRecord
  2
*D29
340
0
  0
BLOCK_RECORD
  5
18ADB
330
7466
100
AcDbSymbolTableRecord
100
AcDbBlockTableRecord
  2
*D30
340
0
  0
BLOCK_RECORD
  5
190FF
330
7466
100
AcDbSymbolTableRecord
100
AcDbBlockTableRecord
  2
*D31
340
0
  0
BLOCK_RECORD
  5
1910D
330
7466
100
AcDbSymbolTableRecord
100
AcDbBlockTableRecord
  2
*D32
340
0
  0
BLOCK_RECORD
  5
1911B
330
7466
100
AcDbSymbolTableRecord
100
AcDbBlockTableRecord
  2
*D33
340
0
  0
BLOCK_RECORD
  5
19127
330
7466
100
AcDbSymbolTableRecord
100
AcDbBlockTableRecord
  2
*D34
340
0
  0
BLOCK_RECORD
  5
1939E
330
7466
100
AcDbSymbolTableRecord
100
AcDbBlockTableRecord
  2
*D35
340
0
  0
BLOCK_RECORD
  5
193AA
330
7466
100
AcDbSymbolTableRecord
100
AcDbBlockTableRecord
  2
*D36
340
0
  0
BLOCK_RECORD
  5
193B8
330
7466
100
AcDbSymbolTableRecord
100
AcDbBlockTableRecord
  2
*D37
340
0
  0
ENDTAB
  0
ENDSEC
  0
SECTION
  2
BLOCKS
  0
BLOCK
  5
7489
330
747D
100
AcDbEntity
  8
0
100
AcDbBlockBegin
  2
*MODEL_SPACE
 70
     0
 10
0.0
 20
0.0
 30
0.0
  3
*MODEL_SPACE
  1

  0
ENDBLK
  5
748A
330
747D
100
AcDbEntity
  8
0
100
AcDbBlockEnd
  0
BLOCK
  5
7487
330
747A
100
AcDbEntity
 67
     1
  8
0
100
AcDbBlockBegin
  2
*PAPER_SPACE
 70
     0
 10
0.0
 20
0.0
 30
0.0
  3
*PAPER_SPACE
  1

  0
ENDBLK
  5
7488
330
747A
100
AcDbEntity
 67
     1
  8
0
100
AcDbBlockEnd
  0
BLOCK
  5
F771
330
F770
100
AcDbEntity
  8
0
 48
50.0
100
AcDbBlockBegin
  2
_DOTSMALL
 70
     0
 10
0.0
 20
0.0
 30
0.0
  3
_DOTSMALL
  1

  0
LWPOLYLINE
  5
F772
330
F770
100
AcDbEntity
  8
0
  6
ByBlock
 62
     0
 48
50.0
100
AcDbPolyline
 90
        2
 70
     1
 43
0.5
 10
-0.0625
 20
0.0
 42
1.0
 10
0.0625
 20
0.0
 42
1.0
  0
ENDBLK
  5
F776
330
F770
100
AcDbEntity
  8
0
 48
50.0
100
AcDbBlockEnd
  0
BLOCK
  5
164EB
330
16338
100
AcDbEntity
  8
0
 48
50.0
100
AcDbBlockBegin
  2
*D1
 70
     1
 10
0.0
 20
0.0
 30
0.0
  3
*D1
  1

  0
LINE
  5
18473
330
16338
100
AcDbEntity
  8
寸法
 62
     0
 48
50.0
370
    -2
100
AcDbLine
 10
7604.673057123683
 20
9717.497424545967
 30
0.0
 11
8292.09940285809
 21
9717.497424545967
 31
0.0
  0
LINE
  5
18474
330
16338
100
AcDbEntity
  8
寸法
 62
     0
 48
50.0
370
    -2
100
AcDbLine
 10
7604.673057123658
 20
7197.497424545952
 30
0.0
 11
8292.09940285809
 21
7197.497424545952
 31
0.0
  0
LINE
  5
18475
330
16338
100
AcDbEntity
  8
寸法
 62
     0
 48
50.0
370
    -2
100
AcDbLine
 10
8232.099402858089
 20
9717.497424545967
 30
0.0
 11
8232.099402858089
 21
7197.497424545952
 31
0.0
  0
INSERT
  5
18476
330
16338
100
AcDbEntity
  8
寸法
 62
     0
 48
50.0
370
    -2
100
AcDbBlockReference
  2
_DOTSMALL
 10
8232.099402858089
 20
9717.497424545967
 30
0.0
 41
100.0
 42
100.0
 43
100.0
 50
90.0
  0
INSERT
  5
18477
330
16338
100
AcDbEntity
  8
寸法
 62
     0
 48
50.0
370
    -2
100
AcDbBlockReference
  2
_DOTSMALL
 10
8232.099402858089
 20
7197.497424545952
 30
0.0
 41
100.0
 42
100.0
 43
100.0
 50
270.0
  0
MTEXT
  5
18478
330
16338
100
AcDbEntity
  8
寸法
 62
     7
 48
50.0
100
AcDbMText
 10
8132.087591834467
 20
8457.497424545961
 30
0.0
 40
120.0
 41
0.0
 71
     5
 72
     1
  1
\A1;6X420=2520
  7
STYLE1
 11
0.0000000000000001
 21
1.0
 31
0.0
 73
     1
 44
1.0
1001
ACAD
1000
MTEXTBEGIN
1070
    73
1070
     1
1070
    44
1040
1.0
1070
    74
1070
     0
1000
MTEXTEND
  0
POINT
  5
18479
330
16338
100
AcDbEntity
  8
DEFPOINTS
 62
     0
 48
50.0
100
AcDbPoint
 10
7584.673057123684
 20
9717.497424545967
 30
0.0
  0
POINT
  5
1847A
330
16338
100
AcDbEntity
  8
DEFPOINTS
 62
     0
 48
50.0
100
AcDbPoint
 10
7584.673057123659
 20
7197.497424545952
 30
0.0
  0
POINT
  5
1847B
330
16338
100
AcDbEntity
  8
DEFPOINTS
 62
     0
 48
50.0
100
AcDbPoint
 10
8232.099402858089
 20
7197.497424545952
 30
0.0
  0
ENDBLK
  5
164F5
330
16338
100
AcDbEntity
  8
0
 48
50.0
100
AcDbBlockEnd
  0
BLOCK
  5
16414
330
16344
100
AcDbEntity
  8
0
 48
50.0
100
AcDbBlockBegin
  2
*D2
 70
     1
 10
0.0
 20
0.0
 30
0.0
  3
*D2
  1

  0
LINE
  5
18468
330
16344
100
AcDbEntity
  8
寸法
 62
     0
 48
50.0
370
    -2
100
AcDbLine
 10
7604.673057123658
 20
7197.497424545952
 30
0.0
 11
8292.099402858069
 21
7197.497424545952
 31
0.0
  0
LINE
  5
18469
330
16344
100
AcDbEntity
  8
寸法
 62
     0
 48
50.0
370
    -2
100
AcDbLine
 10
7604.673057123658
 20
7142.497424545957
 30
0.0
 11
8292.099402858069
 21
7142.497424545957
 31
0.0
  0
LINE
  5
1846A
330
16344
100
AcDbEntity
  8
寸法
 62
     0
 48
50.0
370
    -2
100
AcDbLine
 10
8232.09940285807
 20
7197.497424545952
 30
0.0
 11
8232.09940285807
 21
7297.497424545952
 31
0.0
  0
LINE
  5
1846B
330
16344
100
AcDbEntity
  8
寸法
 62
     0
 48
50.0
370
    -2
100
AcDbLine
 10
8232.09940285807
 20
7142.497424545957
 30
0.0
 11
8232.09940285807
 21
6656.150676266854
 31
0.0
  0
LINE
  5
1846C
330
16344
100
AcDbEntity
  8
寸法
 62
     0
 48
50.0
370
    -2
100
AcDbLine
 10
8232.09940285807
 20
7197.497424545952
 30
0.0
 11
8232.09940285807
 21
7142.497424545957
 31
0.0
  0
INSERT
  5
1846D
330
16344
100
AcDbEntity
  8
寸法
 62
     0
 48
50.0
370
    -2
100
AcDbBlockReference
  2
_DOTSMALL
 10
8232.09940285807
 20
7197.497424545952
 30
0.0
 41
100.0
 42
100.0
 43
100.0
 50
270.0
  0
INSERT
  5
1846E
330
16344
100
AcDbEntity
  8
寸法
 62
     0
 48
50.0
370
    -2
100
AcDbBlockReference
  2
_DOTSMALL
 10
8232.09940285807
 20
7142.497424545957
 30
0.0
 41
100.0
 42
100.0
 43
100.0
 50
90.0
  0
MTEXT
  5
1846F
330
16344
100
AcDbEntity
  8
寸法
 62
     7
 48
50.0
100
AcDbMText
 10
8132.099402858068
 20
6764.635957641094
 30
0.0
 40
120.0
 41
0.0
 71
     5
 72
     1
  1
\A1;55
  7
STYLE1
 11
0.0000000000000001
 21
1.0
 31
0.0
 73
     1
 44
1.0
1001
ACAD
1000
MTEXTBEGIN
1070
    73
1070
     1
1070
    44
1040
1.0
1070
    74
1070
     0
1000
MTEXTEND
  0
POINT
  5
18470
330
16344
100
AcDbEntity
  8
DEFPOINTS
 62
     0
 48
50.0
100
AcDbPoint
 10
7584.673057123659
 20
7197.497424545952
 30
0.0
  0
POINT
  5
18471
330
16344
100
AcDbEntity
  8
DEFPOINTS
 62
     0
 48
50.0
100
AcDbPoint
 10
7584.673057123659
 20
7142.497424545957
 30
0.0
  0
POINT
  5
18472
330
16344
100
AcDbEntity
  8
DEFPOINTS
 62
     0
 48
50.0
100
AcDbPoint
 10
8232.09940285807
 20
7142.497424545957
 30
0.0
  0
ENDBLK
  5
16420
330
16344
100
AcDbEntity
  8
0
 48
50.0
100
AcDbBlockEnd
  0
BLOCK
  5
16421
330
16352
100
AcDbEntity
  8
0
 48
50.0
100
AcDbBlockBegin
  2
*D3
 70
     1
 10
0.0
 20
0.0
 30
0.0
  3
*D3
  1

  0
LINE
  5
1845D
330
16352
100
AcDbEntity
  8
寸法
 62
     0
 48
50.0
370
    -2
100
AcDbLine
 10
7604.673057123683
 20
9772.497424545964
 30
0.0
 11
8292.099402858095
 21
9772.497424545964
 31
0.0
  0
LINE
  5
1845E
330
16352
100
AcDbEntity
  8
寸法
 62
     0
 48
50.0
370
    -2
100
AcDbLine
 10
7604.673057123683
 20
9717.497424545967
 30
0.0
 11
8292.099402858095
 21
9717.497424545967
 31
0.0
  0
LINE
  5
1845F
330
16352
100
AcDbEntity
  8
寸法
 62
     0
 48
50.0
370
    -2
100
AcDbLine
 10
8232.099402858095
 20
9717.497424545967
 30
0.0
 11
8232.099402858095
 21
9617.497424545968
 31
0.0
  0
LINE
  5
18460
330
16352
100
AcDbEntity
  8
寸法
 62
     0
 48
50.0
370
    -2
100
AcDbLine
 10
8232.099402858095
 20
9772.497424545964
 30
0.0
 11
8232.099402858095
 21
10189.46798729444
 31
0.0
  0
LINE
  5
18461
330
16352
100
AcDbEntity
  8
寸法
 62
     0
 48
50.0
370
    -2
100
AcDbLine
 10
8232.099402858095
 20
9717.497424545967
 30
0.0
 11
8232.099402858095
 21
9772.497424545964
 31
0.0
  0
INSERT
  5
18462
330
16352
100
AcDbEntity
  8
寸法
 62
     0
 48
50.0
370
    -2
100
AcDbBlockReference
  2
_DOTSMALL
 10
8232.099402858095
 20
9717.497424545967
 30
0.0
 41
100.0
 42
100.0
 43
100.0
 50
90.0
  0
INSERT
  5
18463
330
16352
100
AcDbEntity
  8
寸法
 62
     0
 48
50.0
370
    -2
100
AcDbBlockReference
  2
_DOTSMALL
 10
8232.099402858095
 20
9772.497424545964
 30
0.0
 41
100.0
 42
100.0
 43
100.0
 50
270.0
  0
MTEXT
  5
18464
330
16352
100
AcDbEntity
  8
寸法
 62
     7
 48
50.0
100
AcDbMText
 10
8132.099402858093
 20
10080.9827059202
 30
0.0
 40
120.0
 41
0.0
 71
     5
 72
     1
  1
\A1;55
  7
STYLE1
 11
0.0000000000000001
 21
1.0
 31
0.0
 73
     1
 44
1.0
1001
ACAD
1000
MTEXTBEGIN
1070
    73
1070
     1
1070
    44
1040
1.0
1070
    74
1070
     0
1000
MTEXTEND
  0
POINT
  5
18465
330
16352
100
AcDbEntity
  8
DEFPOINTS
 62
     0
 48
50.0
100
AcDbPoint
 10
7584.673057123684
 20
9772.497424545964
 30
0.0
  0
POINT
  5
18466
330
16352
100
AcDbEntity
  8
DEFPOINTS
 62
     0
 48
50.0
100
AcDbPoint
 10
7584.673057123684
 20
9717.497424545967
 30
0.0
  0
POINT
  5
18467
330
16352
100
AcDbEntity
  8
DEFPOINTS
 62
     0
 48
50.0
100
AcDbPoint
 10
8232.099402858095
 20
9717.497424545967
 30
0.0
  0
ENDBLK
  5
1642D
330
16352
100
AcDbEntity
  8
0
 48
50.0
100
AcDbBlockEnd
  0
BLOCK
  5
164CA
330
16360
100
AcDbEntity
  8
0
 48
50.0
100
AcDbBlockBegin
  2
*D4
 70
     1
 10
0.0
 20
0.0
 30
0.0
  3
*D4
  1

  0
LINE
  5
18454
330
16360
100
AcDbEntity
  8
寸法
 62
     0
 48
50.0
370
    -2
100
AcDbLine
 10
7604.673057123683
 20
9772.497424545964
 30
0.0
 11
8657.20634459773
 21
9772.497424545964
 31
0.0
  0
LINE
  5
18455
330
16360
100
AcDbEntity
  8
寸法
 62
     0
 48
50.0
370
    -2
100
AcDbLine
 10
7604.673057123658
 20
7142.497424545957
 30
0.0
 11
8657.20634459773
 21
7142.497424545957
 31
0.0
  0
LINE
  5
18456
330
16360
100
AcDbEntity
  8
寸法
 62
     0
 48
50.0
370
    -2
100
AcDbLine
 10
8597.206344597729
 20
9772.497424545964
 30
0.0
 11
8597.206344597729
 21
7142.497424545957
 31
0.0
  0
INSERT
  5
18457
330
16360
100
AcDbEntity
  8
寸法
 62
     0
 48
50.0
370
    -2
100
AcDbBlockReference
  2
_DOTSMALL
 10
8597.206344597729
 20
9772.497424545964
 30
0.0
 41
100.0
 42
100.0
 43
100.0
 50
90.0
  0
INSERT
  5
18458
330
16360
100
AcDbEntity
  8
寸法
 62
     0
 48
50.0
370
    -2
100
AcDbBlockReference
  2
_DOTSMALL
 10
8597.206344597729
 20
7142.497424545957
 30
0.0
 41
100.0
 42
100.0
 43
100.0
 50
270.0
  0
MTEXT
  5
18459
330
16360
100
AcDbEntity
  8
寸法
 62
     7
 48
50.0
100
AcDbMText
 10
8497.194533574106
 20
8457.497424545961
 30
0.0
 40
120.0
 41
0.0
 71
     5
 72
     1
  1
\A1;2630
  7
STYLE1
 11
0.0000000000000001
 21
1.0
 31
0.0
 73
     1
 44
1.0
1001
ACAD
1000
MTEXTBEGIN
1070
    73
1070
     1
1070
    44
1040
1.0
1070
    74
1070
     0
1000
MTEXTEND
  0
POINT
  5
1845A
330
16360
100
AcDbEntity
  8
DEFPOINTS
 62
     0
 48
50.0
100
AcDbPoint
 10
7584.673057123684
 20
9772.497424545964
 30
0.0
  0
POINT
  5
1845B
330
16360
100
AcDbEntity
  8
DEFPOINTS
 62
     0
 48
50.0
100
AcDbPoint
 10
7584.673057123659
 20
7142.497424545957
 30
0.0
  0
POINT
  5
1845C
330
16360
100
AcDbEntity
  8
DEFPOINTS
 62
     0
 48
50.0
100
AcDbPoint
 10
8597.206344597729
 20
7142.497424545957
 30
0.0
  0
ENDBLK
  5
164D4
330
16360
100
AcDbEntity
  8
0
 48
50.0
100
AcDbBlockEnd
  0
BLOCK
  5
1728C
330
16384
100
AcDbEntity
  8
0
 48
50.0
100
AcDbBlockBegin
  2
*D5
 70
     1
 10
0.0
 20
0.0
 30
0.0
  3
*D5
  1

  0
LINE
  5
1844C
330
16384
100
AcDbEntity
  8
寸法
 62
     0
 48
50.0
370
    -2
100
AcDbLine
 10
5477.673057123677
 20
7148.497424545865
 30
0.0
 11
5477.673057123677
 21
6548.0666537797
 31
0.0
  0
LINE
  5
1844D
330
16384
100
AcDbEntity
  8
寸法
 62
     0
 48
50.0
370
    -2
100
AcDbLine
 10
7481.673057123659
 20
6608.0666537797
 30
0.0
 11
5477.673057123677
 21
6608.0666537797
 31
0.0
  0
INSERT
  5
1844E
330
16384
100
AcDbEntity
  8
寸法
 62
     0
 48
50.0
370
    -2
100
AcDbBlockReference
  2
_DOTSMALL
 10
7481.673057123659
 20
6608.0666537797
 30
0.0
 41
100.0
 42
100.0
 43
100.0
  0
INSERT
  5
1844F
330
16384
100
AcDbEntity
  8
寸法
 62
     0
 48
50.0
370
    -2
100
AcDbBlockReference
  2
_DOTSMALL
 10
5477.673057123677
 20
6608.0666537797
 30
0.0
 41
100.0
 42
100.0
 43
100.0
 50
180.0
  0
MTEXT
  5
18450
330
16384
100
AcDbEntity
  8
寸法
 62
     7
 48
50.0
100
AcDbMText
 10
6479.673057123668
 20
6708.078464803323
 30
0.0
 40
120.0
 41
0.0
 71
     5
 72
     1
  1
\A1;有効開口部間口 2004
  7
STYLE1
 73
     1
 44
1.0
1001
ACAD
1000
MTEXTBEGIN
1070
    73
1070
     1
1070
    44
1040
1.0
1070
    74
1070
     0
1000
MTEXTEND
  0
POINT
  5
18451
330
16384
100
AcDbEntity
  8
DEFPOINTS
 62
     0
 48
50.0
100
AcDbPoint
 10
7481.673057123659
 20
7168.497424545865
 30
0.0
  0
POINT
  5
18452
330
16384
100
AcDbEntity
  8
DEFPOINTS
 62
     0
 48
50.0
100
AcDbPoint
 10
5477.673057123677
 20
7168.497424545865
 30
0.0
  0
POINT
  5
18453
330
16384
100
AcDbEntity
  8
DEFPOINTS
 62
     0
 48
50.0
100
AcDbPoint
 10
5477.673057123677
 20
6608.0666537797
 30
0.0
  0
ENDBLK
  5
17295
330
16384
100
AcDbEntity
  8
0
 48
50.0
100
AcDbBlockEnd
  0
BLOCK
  5
17261
330
1638F
100
AcDbEntity
  8
0
 48
50.0
100
AcDbBlockBegin
  2
*D6
 70
     1
 10
0.0
 20
0.0
 30
0.0
  3
*D6
  1

  0
LINE
  5
18443
330
1638F
100
AcDbEntity
  8
寸法
 62
     0
 48
50.0
370
    -2
100
AcDbLine
 10
3164.673057123677
 20
7122.497424545861
 30
0.0
 11
3164.673057123677
 21
6101.893658188827
 31
0.0
  0
LINE
  5
18444
330
1638F
100
AcDbEntity
  8
寸法
 62
     0
 48
50.0
370
    -2
100
AcDbLine
 10
7584.673057123648
 20
7122.497424545956
 30
0.0
 11
7584.673057123648
 21
6101.893658188827
 31
0.0
  0
LINE
  5
18445
330
1638F
100
AcDbEntity
  8
寸法
 62
     0
 48
50.0
370
    -2
100
AcDbLine
 10
3164.673057123677
 20
6161.893658188827
 30
0.0
 11
7584.673057123648
 21
6161.893658188827
 31
0.0
  0
INSERT
  5
18446
330
1638F
100
AcDbEntity
  8
寸法
 62
     0
 48
50.0
370
    -2
100
AcDbBlockReference
  2
_DOTSMALL
 10
3164.673057123677
 20
6161.893658188827
 30
0.0
 41
100.0
 42
100.0
 43
100.0
 50
180.0
  0
INSERT
  5
18447
330
1638F
100
AcDbEntity
  8
寸法
 62
     0
 48
50.0
370
    -2
100
AcDbBlockReference
  2
_DOTSMALL
 10
7584.673057123648
 20
6161.893658188827
 30
0.0
 41
100.0
 42
100.0
 43
100.0
  0
MTEXT
  5
18448
330
1638F
100
AcDbEntity
  8
寸法
 62
     7
 48
50.0
100
AcDbMText
 10
5374.673057123662
 20
6261.905469212448
 30
0.0
 40
120.0
 41
0.0
 71
     5
 72
     1
  1
\A1;4420
  7
STYLE1
 73
     1
 44
1.0
1001
ACAD
1000
MTEXTBEGIN
1070
    73
1070
     1
1070
    44
1040
1.0
1070
    74
1070
     0
1000
MTEXTEND
  0
POINT
  5
18449
330
1638F
100
AcDbEntity
  8
DEFPOINTS
 62
     0
 48
50.0
100
AcDbPoint
 10
3164.673057123677
 20
7142.497424545862
 30
0.0
  0
POINT
  5
1844A
330
1638F
100
AcDbEntity
  8
DEFPOINTS
 62
     0
 48
50.0
100
AcDbPoint
 10
7584.673057123648
 20
7142.497424545957
 30
0.0
  0
POINT
  5
1844B
330
1638F
100
AcDbEntity
  8
DEFPOINTS
 62
     0
 48
50.0
100
AcDbPoint
 10
7584.673057123648
 20
6161.893658188827
 30
0.0
  0
ENDBLK
  5
1726B
330
1638F
100
AcDbEntity
  8
0
 48
50.0
100
AcDbBlockEnd
  0
BLOCK
  5
16464
330
1639B
100
AcDbEntity
  8
0
 48
50.0
100
AcDbBlockBegin
  2
*D7
 70
     1
 10
0.0
 20
0.0
 30
0.0
  3
*D7
  1

  0
LINE
  5
18438
330
1639B
100
AcDbEntity
  8
寸法
 62
     0
 48
50.0
370
    -2
100
AcDbLine
 10
3219.673057123673
 20
7122.497424545864
 30
0.0
 11
3219.673057123673
 21
6548.0666537797
 31
0.0
  0
LINE
  5
18439
330
1639B
100
AcDbEntity
  8
寸法
 62
     0
 48
50.0
370
    -2
100
AcDbLine
 10
3164.673057123677
 20
7122.497424545861
 30
0.0
 11
3164.673057123677
 21
6548.0666537797
 31
0.0
  0
LINE
  5
1843A
330
1639B
100
AcDbEntity
  8
寸法
 62
     0
 48
50.0
370
    -2
100
AcDbLine
 10
3219.673057123673
 20
6608.0666537797
 30
0.0
 11
3319.673057123673
 21
6608.0666537797
 31
0.0
  0
LINE
  5
1843B
330
1639B
100
AcDbEntity
  8
寸法
 62
     0
 48
50.0
370
    -2
100
AcDbLine
 10
3164.673057123677
 20
6608.0666537797
 30
0.0
 11
2747.7024943752
 21
6608.0666537797
 31
0.0
  0
LINE
  5
1843C
330
1639B
100
AcDbEntity
  8
寸法
 62
     0
 48
50.0
370
    -2
100
AcDbLine
 10
3219.673057123673
 20
6608.0666537797
 30
0.0
 11
3164.673057123677
 21
6608.0666537797
 31
0.0
  0
INSERT
  5
1843D
330
1639B
100
AcDbEntity
  8
寸法
 62
     0
 48
50.0
370
    -2
100
AcDbBlockReference
  2
_DOTSMALL
 10
3219.673057123673
 20
6608.0666537797
 30
0.0
 41
100.0
 42
100.0
 43
100.0
 50
180.0
  0
INSERT
  5
1843E
330
1639B
100
AcDbEntity
  8
寸法
 62
     0
 48
50.0
370
    -2
100
AcDbBlockReference
  2
_DOTSMALL
 10
3164.673057123677
 20
6608.0666537797
 30
0.0
 41
100.0
 42
100.0
 43
100.0
  0
MTEXT
  5
1843F
330
1639B
100
AcDbEntity
  8
寸法
 62
     7
 48
50.0
100
AcDbMText
 10
2856.187775749438
 20
6708.0666537797
 30
0.0
 40
120.0
 41
0.0
 71
     5
 72
     1
  1
\A1;55
  7
STYLE1
 73
     1
 44
1.0
1001
ACAD
1000
MTEXTBEGIN
1070
    73
1070
     1
1070
    44
1040
1.0
1070
    74
1070
     0
1000
MTEXTEND
  0
POINT
  5
18440
330
1639B
100
AcDbEntity
  8
DEFPOINTS
 62
     0
 48
50.0
100
AcDbPoint
 10
3219.673057123673
 20
7142.497424545864
 30
0.0
  0
POINT
  5
18441
330
1639B
100
AcDbEntity
  8
DEFPOINTS
 62
     0
 48
50.0
100
AcDbPoint
 10
3164.673057123677
 20
7142.497424545862
 30
0.0
  0
POINT
  5
18442
330
1639B
100
AcDbEntity
  8
DEFPOINTS
 62
     0
 48
50.0
100
AcDbPoint
 10
3164.673057123677
 20
6608.0666537797
 30
0.0
  0
ENDBLK
  5
16470
330
1639B
100
AcDbEntity
  8
0
 48
50.0
100
AcDbBlockEnd
  0
BLOCK
  5
16471
330
163A9
100
AcDbEntity
  8
0
 48
50.0
100
AcDbBlockBegin
  2
*D8
 70
     1
 10
0.0
 20
0.0
 30
0.0
  3
*D8
  1

  0
LINE
  5
1842D
330
163A9
100
AcDbEntity
  8
寸法
 62
     0
 48
50.0
370
    -2
100
AcDbLine
 10
5477.673057123677
 20
7148.497424545865
 30
0.0
 11
5477.673057123677
 21
6548.0666537797
 31
0.0
  0
LINE
  5
1842E
330
163A9
100
AcDbEntity
  8
寸法
 62
     0
 48
50.0
370
    -2
100
AcDbLine
 10
5429.673057123673
 20
7122.497424545864
 30
0.0
 11
5429.673057123673
 21
6548.0666537797
 31
0.0
  0
LINE
  5
1842F
330
163A9
100
AcDbEntity
  8
寸法
 62
     0
 48
50.0
370
    -2
100
AcDbLine
 10
5477.673057123677
 20
6608.0666537797
 30
0.0
 11
5577.673057123677
 21
6608.0666537797
 31
0.0
  0
LINE
  5
18430
330
163A9
100
AcDbEntity
  8
寸法
 62
     0
 48
50.0
370
    -2
100
AcDbLine
 10
5429.673057123673
 20
6608.0666537797
 30
0.0
 11
5329.673057123673
 21
6608.0666537797
 31
0.0
  0
MTEXT
  5
18431
330
163A9
100
AcDbEntity
  8
寸法
 62
     7
 48
50.0
100
AcDbMText
 10
5590.575028123734
 20
6708.0666537797
 30
0.0
 40
120.0
 41
0.0
 71
     5
 72
     1
  1
\A1;48
  7
STYLE1
 73
     1
 44
1.0
1001
ACAD
1000
MTEXTBEGIN
1070
    73
1070
     1
1070
    44
1040
1.0
1070
    74
1070
     0
1000
MTEXTEND
  0
LINE
  5
18432
330
163A9
100
AcDbEntity
  8
寸法
 62
     0
 48
50.0
370
    -2
100
AcDbLine
 10
5477.673057123677
 20
6608.0666537797
 30
0.0
 11
5429.673057123673
 21
6608.0666537797
 31
0.0
  0
INSERT
  5
18433
330
163A9
100
AcDbEntity
  8
寸法
 62
     0
 48
50.0
370
    -2
100
AcDbBlockReference
  2
_DOTSMALL
 10
5477.673057123677
 20
6608.0666537797
 30
0.0
 41
100.0
 42
100.0
 43
100.0
 50
180.0
  0
INSERT
  5
18434
330
163A9
100
AcDbEntity
  8
寸法
 62
     0
 48
50.0
370
    -2
100
AcDbBlockReference
  2
_DOTSMALL
 10
5429.673057123673
 20
6608.0666537797
 30
0.0
 41
100.0
 42
100.0
 43
100.0
  0
POINT
  5
18435
330
163A9
100
AcDbEntity
  8
DEFPOINTS
 62
     0
 48
50.0
100
AcDbPoint
 10
5477.673057123677
 20
7168.497424545865
 30
0.0
  0
POINT
  5
18436
330
163A9
100
AcDbEntity
  8
DEFPOINTS
 62
     0
 48
50.0
100
AcDbPoint
 10
5429.673057123673
 20
7142.497424545864
 30
0.0
  0
POINT
  5
18437
330
163A9
100
AcDbEntity
  8
DEFPOINTS
 62
     0
 48
50.0
100
AcDbPoint
 10
5429.673057123673
 20
6608.0666537797
 30
0.0
  0
ENDBLK
  5
1647E
330
163A9
100
AcDbEntity
  8
0
 48
50.0
100
AcDbBlockEnd
  0
BLOCK
  5
1647F
330
163B8
100
AcDbEntity
  8
0
 48
50.0
100
AcDbBlockBegin
  2
*D9
 70
     1
 10
0.0
 20
0.0
 30
0.0
  3
*D9
  1

  0
LINE
  5
18422
330
163B8
100
AcDbEntity
  8
寸法
 62
     0
 48
50.0
370
    -2
100
AcDbLine
 10
7529.673057123661
 20
7122.497424545952
 30
0.0
 11
7529.673057123661
 21
6548.0666537797
 31
0.0
  0
LINE
  5
18423
330
163B8
100
AcDbEntity
  8
寸法
 62
     0
 48
50.0
370
    -2
100
AcDbLine
 10
7481.673057123659
 20
7148.497424545865
 30
0.0
 11
7481.673057123659
 21
6548.0666537797
 31
0.0
  0
LINE
  5
18424
330
163B8
100
AcDbEntity
  8
寸法
 62
     0
 48
50.0
370
    -2
100
AcDbLine
 10
7529.673057123661
 20
6608.0666537797
 30
0.0
 11
7629.67305712366
 21
6608.0666537797
 31
0.0
  0
LINE
  5
18425
330
163B8
100
AcDbEntity
  8
寸法
 62
     0
 48
50.0
370
    -2
100
AcDbLine
 10
7481.673057123659
 20
6608.0666537797
 30
0.0
 11
7381.673057123659
 21
6608.0666537797
 31
0.0
  0
MTEXT
  5
18426
330
163B8
100
AcDbEntity
  8
寸法
 62
     7
 48
50.0
100
AcDbMText
 10
7370.710159474912
 20
6708.0666537797
 30
0.0
 40
120.0
 41
0.0
 71
     5
 72
     1
  1
\A1;48
  7
STYLE1
 73
     1
 44
1.0
1001
ACAD
1000
MTEXTBEGIN
1070
    73
1070
     1
1070
    44
1040
1.0
1070
    74
1070
     0
1000
MTEXTEND
  0
LINE
  5
18427
330
163B8
100
AcDbEntity
  8
寸法
 62
     0
 48
50.0
370
    -2
100
AcDbLine
 10
7529.673057123661
 20
6608.0666537797
 30
0.0
 11
7481.673057123659
 21
6608.0666537797
 31
0.0
  0
INSERT
  5
18428
330
163B8
100
AcDbEntity
  8
寸法
 62
     0
 48
50.0
370
    -2
100
AcDbBlockReference
  2
_DOTSMALL
 10
7529.673057123661
 20
6608.0666537797
 30
0.0
 41
100.0
 42
100.0
 43
100.0
 50
180.0
  0
INSERT
  5
18429
330
163B8
100
AcDbEntity
  8
寸法
 62
     0
 48
50.0
370
    -2
100
AcDbBlockReference
  2
_DOTSMALL
 10
7481.673057123659
 20
6608.0666537797
 30
0.0
 41
100.0
 42
100.0
 43
100.0
  0
POINT
  5
1842A
330
163B8
100
AcDbEntity
  8
DEFPOINTS
 62
     0
 48
50.0
100
AcDbPoint
 10
7529.673057123661
 20
7142.497424545952
 30
0.0
  0
POINT
  5
1842B
330
163B8
100
AcDbEntity
  8
DEFPOINTS
 62
     0
 48
50.0
100
AcDbPoint
 10
7481.673057123659
 20
7168.497424545865
 30
0.0
  0
POINT
  5
1842C
330
163B8
100
AcDbEntity
  8
DEFPOINTS
 62
     0
 48
50.0
100
AcDbPoint
 10
7481.673057123659
 20
6608.0666537797
 30
0.0
  0
ENDBLK
  5
1648C
330
163B8
100
AcDbEntity
  8
0
 48
50.0
100
AcDbBlockEnd
  0
BLOCK
  5
1648D
330
163C7
100
AcDbEntity
  8
0
 48
50.0
100
AcDbBlockBegin
  2
*D10
 70
     1
 10
0.0
 20
0.0
 30
0.0
  3
*D10
  1

  0
LINE
  5
18417
330
163C7
100
AcDbEntity
  8
寸法
 62
     0
 48
50.0
370
    -2
100
AcDbLine
 10
7584.673057123659
 20
7122.497424545956
 30
0.0
 11
7584.673057123659
 21
6548.066653779702
 31
0.0
  0
LINE
  5
18418
330
163C7
100
AcDbEntity
  8
寸法
 62
     0
 48
50.0
370
    -2
100
AcDbLine
 10
7529.673057123661
 20
7122.497424545952
 30
0.0
 11
7529.673057123661
 21
6548.066653779702
 31
0.0
  0
LINE
  5
18419
330
163C7
100
AcDbEntity
  8
寸法
 62
     0
 48
50.0
370
    -2
100
AcDbLine
 10
7529.673057123661
 20
6608.066653779701
 30
0.0
 11
7429.673057123661
 21
6608.066653779701
 31
0.0
  0
LINE
  5
1841A
330
163C7
100
AcDbEntity
  8
寸法
 62
     0
 48
50.0
370
    -2
100
AcDbLine
 10
7584.673057123659
 20
6608.066653779701
 30
0.0
 11
8001.643619872137
 21
6608.066653779701
 31
0.0
  0
LINE
  5
1841B
330
163C7
100
AcDbEntity
  8
寸法
 62
     0
 48
50.0
370
    -2
100
AcDbLine
 10
7529.673057123661
 20
6608.066653779701
 30
0.0
 11
7584.673057123659
 21
6608.066653779701
 31
0.0
  0
INSERT
  5
1841C
330
163C7
100
AcDbEntity
  8
寸法
 62
     0
 48
50.0
370
    -2
100
AcDbBlockReference
  2
_DOTSMALL
 10
7529.673057123661
 20
6608.066653779701
 30
0.0
 41
100.0
 42
100.0
 43
100.0
  0
INSERT
  5
1841D
330
163C7
100
AcDbEntity
  8
寸法
 62
     0
 48
50.0
370
    -2
100
AcDbBlockReference
  2
_DOTSMALL
 10
7584.673057123659
 20
6608.066653779701
 30
0.0
 41
100.0
 42
100.0
 43
100.0
 50
180.0
  0
MTEXT
  5
1841E
330
163C7
100
AcDbEntity
  8
寸法
 62
     7
 48
50.0
100
AcDbMText
 10
7893.158338497896
 20
6708.066653779702
 30
0.0
 40
120.0
 41
0.0
 71
     5
 72
     1
  1
\A1;55
  7
STYLE1
 73
     1
 44
1.0
1001
ACAD
1000
MTEXTBEGIN
1070
    73
1070
     1
1070
    44
1040
1.0
1070
    74
1070
     0
1000
MTEXTEND
  0
POINT
  5
1841F
330
163C7
100
AcDbEntity
  8
DEFPOINTS
 62
     0
 48
50.0
100
AcDbPoint
 10
7584.673057123659
 20
7142.497424545957
 30
0.0
  0
POINT
  5
18420
330
163C7
100
AcDbEntity
  8
DEFPOINTS
 62
     0
 48
50.0
100
AcDbPoint
 10
7529.673057123661
 20
7142.497424545952
 30
0.0
  0
POINT
  5
18421
330
163C7
100
AcDbEntity
  8
DEFPOINTS
 62
     0
 48
50.0
100
AcDbPoint
 10
7529.673057123661
 20
6608.066653779701
 30
0.0
  0
ENDBLK
  5
16499
330
163C7
100
AcDbEntity
  8
0
 48
50.0
100
AcDbBlockEnd
  0
BLOCK
  5
172A1
330
163E1
100
AcDbEntity
  8
0
 48
50.0
100
AcDbBlockBegin
  2
*D11
 70
     1
 10
0.0
 20
0.0
 30
0.0
  3
*D11
  1

  0
LINE
  5
1840E
330
163E1
100
AcDbEntity
  8
寸法
 62
     0
 48
50.0
370
    -2
100
AcDbLine
 10
5429.673057123682
 20
9792.497424545869
 30
0.0
 11
5429.673057123682
 21
10048.30564417096
 31
0.0
  0
LINE
  5
1840F
330
163E1
100
AcDbEntity
  8
寸法
 62
     0
 48
50.0
370
    -2
100
AcDbLine
 10
7529.673057123684
 20
9792.497424545963
 30
0.0
 11
7529.673057123684
 21
10048.30564417096
 31
0.0
  0
LINE
  5
18410
330
163E1
100
AcDbEntity
  8
寸法
 62
     0
 48
50.0
370
    -2
100
AcDbLine
 10
5429.673057123682
 20
9988.305644170967
 30
0.0
 11
7529.673057123684
 21
9988.305644170967
 31
0.0
  0
INSERT
  5
18411
330
163E1
100
AcDbEntity
  8
寸法
 62
     0
 48
50.0
370
    -2
100
AcDbBlockReference
  2
_DOTSMALL
 10
5429.673057123682
 20
9988.305644170967
 30
0.0
 41
100.0
 42
100.0
 43
100.0
 50
180.0
  0
INSERT
  5
18412
330
163E1
100
AcDbEntity
  8
寸法
 62
     0
 48
50.0
370
    -2
100
AcDbBlockReference
  2
_DOTSMALL
 10
7529.673057123684
 20
9988.305644170967
 30
0.0
 41
100.0
 42
100.0
 43
100.0
  0
MTEXT
  5
18413
330
163E1
100
AcDbEntity
  8
寸法
 62
     7
 48
50.0
100
AcDbMText
 10
6479.673057123683
 20
10088.31745519459
 30
0.0
 40
120.0
 41
0.0
 71
     5
 72
     1
  1
\A1;5X420=2100
  7
STYLE1
 73
     1
 44
1.0
1001
ACAD
1000
MTEXTBEGIN
1070
    73
1070
     1
1070
    44
1040
1.0
1070
    74
1070
     0
1000
MTEXTEND
  0
POINT
  5
18414
330
163E1
100
AcDbEntity
  8
DEFPOINTS
 62
     0
 48
50.0
100
AcDbPoint
 10
5429.673057123682
 20
9772.49742454587
 30
0.0
  0
POINT
  5
18415
330
163E1
100
AcDbEntity
  8
DEFPOINTS
 62
     0
 48
50.0
100
AcDbPoint
 10
7529.673057123684
 20
9772.497424545964
 30
0.0
  0
POINT
  5
18416
330
163E1
100
AcDbEntity
  8
DEFPOINTS
 62
     0
 48
50.0
100
AcDbPoint
 10
7529.673057123684
 20
9988.305644170967
 30
0.0
  0
ENDBLK
  5
172AB
330
163E1
100
AcDbEntity
  8
0
 48
50.0
100
AcDbBlockEnd
  0
BLOCK
  5
164B0
330
163ED
100
AcDbEntity
  8
0
 48
50.0
100
AcDbBlockBegin
  2
*D12
 70
     1
 10
0.0
 20
0.0
 30
0.0
  3
*D12
  1

  0
LINE
  5
18403
330
163ED
100
AcDbEntity
  8
寸法
 62
     0
 48
50.0
370
    -2
100
AcDbLine
 10
3164.673057123648
 20
9792.497424545869
 30
0.0
 11
3164.673057123648
 21
10048.30564417085
 31
0.0
  0
LINE
  5
18404
330
163ED
100
AcDbEntity
  8
寸法
 62
     0
 48
50.0
370
    -2
100
AcDbLine
 10
3219.673057123684
 20
9792.497424545869
 30
0.0
 11
3219.673057123684
 21
10048.30564417085
 31
0.0
  0
LINE
  5
18405
330
163ED
100
AcDbEntity
  8
寸法
 62
     0
 48
50.0
370
    -2
100
AcDbLine
 10
3219.673057123684
 20
9988.30564417085
 30
0.0
 11
3319.673057123683
 21
9988.30564417085
 31
0.0
  0
LINE
  5
18406
330
163ED
100
AcDbEntity
  8
寸法
 62
     0
 48
50.0
370
    -2
100
AcDbLine
 10
3164.673057123648
 20
9988.30564417085
 30
0.0
 11
2747.702494375171
 21
9988.30564417085
 31
0.0
  0
LINE
  5
18407
330
163ED
100
AcDbEntity
  8
寸法
 62
     0
 48
50.0
370
    -2
100
AcDbLine
 10
3219.673057123684
 20
9988.30564417085
 30
0.0
 11
3164.673057123648
 21
9988.30564417085
 31
0.0
  0
INSERT
  5
18408
330
163ED
100
AcDbEntity
  8
寸法
 62
     0
 48
50.0
370
    -2
100
AcDbBlockReference
  2
_DOTSMALL
 10
3219.673057123684
 20
9988.30564417085
 30
0.0
 41
100.0
 42
100.0
 43
100.0
 50
180.0
  0
INSERT
  5
18409
330
163ED
100
AcDbEntity
  8
寸法
 62
     0
 48
50.0
370
    -2
100
AcDbBlockReference
  2
_DOTSMALL
 10
3164.673057123648
 20
9988.30564417085
 30
0.0
 41
100.0
 42
100.0
 43
100.0
  0
MTEXT
  5
1840A
330
163ED
100
AcDbEntity
  8
寸法
 62
     7
 48
50.0
100
AcDbMText
 10
2856.18777574941
 20
10088.30564417085
 30
0.0
 40
120.0
 41
0.0
 71
     5
 72
     1
  1
\A1;55
  7
STYLE1
 73
     1
 44
1.0
1001
ACAD
1000
MTEXTBEGIN
1070
    73
1070
     1
1070
    44
1040
1.0
1070
    74
1070
     0
1000
MTEXTEND
  0
POINT
  5
1840B
330
163ED
100
AcDbEntity
  8
DEFPOINTS
 62
     0
 48
50.0
100
AcDbPoint
 10
3164.673057123648
 20
9772.49742454587
 30
0.0
  0
POINT
  5
1840C
330
163ED
100
AcDbEntity
  8
DEFPOINTS
 62
     0
 48
50.0
100
AcDbPoint
 10
3219.673057123684
 20
9772.49742454587
 30
0.0
  0
POINT
  5
1840D
330
163ED
100
AcDbEntity
  8
DEFPOINTS
 62
     0
 48
50.0
100
AcDbPoint
 10
3219.673057123684
 20
9988.30564417085
 30
0.0
  0
ENDBLK
  5
164BC
330
163ED
100
AcDbEntity
  8
0
 48
50.0
100
AcDbBlockEnd
  0
BLOCK
  5
164BD
330
163FB
100
AcDbEntity
  8
0
 48
50.0
100
AcDbBlockBegin
  2
*D13
 70
     1
 10
0.0
 20
0.0
 30
0.0
  3
*D13
  1

  0
LINE
  5
183F8
330
163FB
100
AcDbEntity
  8
寸法
 62
     0
 48
50.0
370
    -2
100
AcDbLine
 10
7529.673057123684
 20
9792.497424545963
 30
0.0
 11
7529.673057123684
 21
10048.30564417095
 31
0.0
  0
LINE
  5
183F9
330
163FB
100
AcDbEntity
  8
寸法
 62
     0
 48
50.0
370
    -2
100
AcDbLine
 10
7584.673057123684
 20
9792.497424545963
 30
0.0
 11
7584.673057123684
 21
10048.30564417095
 31
0.0
  0
LINE
  5
183FA
330
163FB
100
AcDbEntity
  8
寸法
 62
     0
 48
50.0
370
    -2
100
AcDbLine
 10
7529.673057123684
 20
9988.305644170949
 30
0.0
 11
7429.673057123683
 21
9988.305644170949
 31
0.0
  0
LINE
  5
183FB
330
163FB
100
AcDbEntity
  8
寸法
 62
     0
 48
50.0
370
    -2
100
AcDbLine
 10
7584.673057123684
 20
9988.305644170949
 30
0.0
 11
8001.643619872162
 21
9988.305644170949
 31
0.0
  0
LINE
  5
183FC
330
163FB
100
AcDbEntity
  8
寸法
 62
     0
 48
50.0
370
    -2
100
AcDbLine
 10
7529.673057123684
 20
9988.305644170949
 30
0.0
 11
7584.673057123684
 21
9988.305644170949
 31
0.0
  0
INSERT
  5
183FD
330
163FB
100
AcDbEntity
  8
寸法
 62
     0
 48
50.0
370
    -2
100
AcDbBlockReference
  2
_DOTSMALL
 10
7529.673057123684
 20
9988.305644170949
 30
0.0
 41
100.0
 42
100.0
 43
100.0
  0
INSERT
  5
183FE
330
163FB
100
AcDbEntity
  8
寸法
 62
     0
 48
50.0
370
    -2
100
AcDbBlockReference
  2
_DOTSMALL
 10
7584.673057123684
 20
9988.305644170949
 30
0.0
 41
100.0
 42
100.0
 43
100.0
 50
180.0
  0
MTEXT
  5
183FF
330
163FB
100
AcDbEntity
  8
寸法
 62
     7
 48
50.0
100
AcDbMText
 10
7893.158338497922
 20
10088.30564417095
 30
0.0
 40
120.0
 41
0.0
 71
     5
 72
     1
  1
\A1;55
  7
STYLE1
 73
     1
 44
1.0
1001
ACAD
1000
MTEXTBEGIN
1070
    73
1070
     1
1070
    44
1040
1.0
1070
    74
1070
     0
1000
MTEXTEND
  0
POINT
  5
18400
330
163FB
100
AcDbEntity
  8
DEFPOINTS
 62
     0
 48
50.0
100
AcDbPoint
 10
7529.673057123684
 20
9772.497424545964
 30
0.0
  0
POINT
  5
18401
330
163FB
100
AcDbEntity
  8
DEFPOINTS
 62
     0
 48
50.0
100
AcDbPoint
 10
7584.673057123684
 20
9772.497424545964
 30
0.0
  0
POINT
  5
18402
330
163FB
100
AcDbEntity
  8
DEFPOINTS
 62
     0
 48
50.0
100
AcDbPoint
 10
7584.673057123684
 20
9988.305644170949
 30
0.0
  0
ENDBLK
  5
164C9
330
163FB
100
AcDbEntity
  8
0
 48
50.0
100
AcDbBlockEnd
  0
BLOCK
  5
165B6
330
165B5
100
AcDbEntity
  8
0
 48
50.0
100
AcDbBlockBegin
  2
*D14
 70
     1
 10
0.0
 20
0.0
 30
0.0
  3
*D14
  1

  0
LINE
  5
183E2
330
165B5
100
AcDbEntity
  8
寸法
 62
     0
 48
50.0
370
    -2
100
AcDbLine
 10
3267.673057123677
 20
7148.497424545865
 30
0.0
 11
3267.673057123677
 21
6548.0666537797
 31
0.0
  0
LINE
  5
183E3
330
165B5
100
AcDbEntity
  8
寸法
 62
     0
 48
50.0
370
    -2
100
AcDbLine
 10
3219.673057123673
 20
7122.497424545864
 30
0.0
 11
3219.673057123673
 21
6548.0666537797
 31
0.0
  0
LINE
  5
183E4
330
165B5
100
AcDbEntity
  8
寸法
 62
     0
 48
50.0
370
    -2
100
AcDbLine
 10
3267.673057123677
 20
6608.0666537797
 30
0.0
 11
3367.673057123677
 21
6608.0666537797
 31
0.0
  0
LINE
  5
183E5
330
165B5
100
AcDbEntity
  8
寸法
 62
     0
 48
50.0
370
    -2
100
AcDbLine
 10
3219.673057123673
 20
6608.0666537797
 30
0.0
 11
3119.673057123673
 21
6608.0666537797
 31
0.0
  0
MTEXT
  5
183E6
330
165B5
100
AcDbEntity
  8
寸法
 62
     7
 48
50.0
100
AcDbMText
 10
3380.575028123735
 20
6708.0666537797
 30
0.0
 40
120.0
 41
0.0
 71
     5
 72
     1
  1
\A1;48
  7
STYLE1
 73
     1
 44
1.0
1001
ACAD
1000
MTEXTBEGIN
1070
    73
1070
     1
1070
    44
1040
1.0
1070
    74
1070
     0
1000
MTEXTEND
  0
LINE
  5
183E7
330
165B5
100
AcDbEntity
  8
寸法
 62
     0
 48
50.0
370
    -2
100
AcDbLine
 10
3267.673057123677
 20
6608.0666537797
 30
0.0
 11
3219.673057123673
 21
6608.0666537797
 31
0.0
  0
INSERT
  5
183E8
330
165B5
100
AcDbEntity
  8
寸法
 62
     0
 48
50.0
370
    -2
100
AcDbBlockReference
  2
_DOTSMALL
 10
3267.673057123677
 20
6608.0666537797
 30
0.0
 41
100.0
 42
100.0
 43
100.0
 50
180.0
  0
INSERT
  5
183E9
330
165B5
100
AcDbEntity
  8
寸法
 62
     0
 48
50.0
370
    -2
100
AcDbBlockReference
  2
_DOTSMALL
 10
3219.673057123673
 20
6608.0666537797
 30
0.0
 41
100.0
 42
100.0
 43
100.0
  0
POINT
  5
183EA
330
165B5
100
AcDbEntity
  8
DEFPOINTS
 62
     0
 48
50.0
100
AcDbPoint
 10
3267.673057123677
 20
7168.497424545865
 30
0.0
  0
POINT
  5
183EB
330
165B5
100
AcDbEntity
  8
DEFPOINTS
 62
     0
 48
50.0
100
AcDbPoint
 10
3219.673057123673
 20
7142.497424545864
 30
0.0
  0
POINT
  5
183EC
330
165B5
100
AcDbEntity
  8
DEFPOINTS
 62
     0
 48
50.0
100
AcDbPoint
 10
3219.673057123673
 20
6608.0666537797
 30
0.0
  0
ENDBLK
  5
165C3
330
165B5
100
AcDbEntity
  8
0
 48
50.0
100
AcDbBlockEnd
  0
BLOCK
  5
165C5
330
165C4
100
AcDbEntity
  8
0
 48
50.0
100
AcDbBlockBegin
  2
*D15
 70
     1
 10
0.0
 20
0.0
 30
0.0
  3
*D15
  1

  0
LINE
  5
183ED
330
165C4
100
AcDbEntity
  8
寸法
 62
     0
 48
50.0
370
    -2
100
AcDbLine
 10
5319.673057123661
 20
7122.497424545952
 30
0.0
 11
5319.673057123661
 21
6548.0666537797
 31
0.0
  0
LINE
  5
183EE
330
165C4
100
AcDbEntity
  8
寸法
 62
     0
 48
50.0
370
    -2
100
AcDbLine
 10
5271.673057123659
 20
7148.497424545865
 30
0.0
 11
5271.673057123659
 21
6548.0666537797
 31
0.0
  0
LINE
  5
183EF
330
165C4
100
AcDbEntity
  8
寸法
 62
     0
 48
50.0
370
    -2
100
AcDbLine
 10
5319.673057123661
 20
6608.0666537797
 30
0.0
 11
5419.67305712366
 21
6608.0666537797
 31
0.0
  0
LINE
  5
183F0
330
165C4
100
AcDbEntity
  8
寸法
 62
     0
 48
50.0
370
    -2
100
AcDbLine
 10
5271.673057123659
 20
6608.0666537797
 30
0.0
 11
5171.673057123658
 21
6608.0666537797
 31
0.0
  0
MTEXT
  5
183F1
330
165C4
100
AcDbEntity
  8
寸法
 62
     7
 48
50.0
100
AcDbMText
 10
5160.710159474911
 20
6708.0666537797
 30
0.0
 40
120.0
 41
0.0
 71
     5
 72
     1
  1
\A1;48
  7
STYLE1
 73
     1
 44
1.0
1001
ACAD
1000
MTEXTBEGIN
1070
    73
1070
     1
1070
    44
1040
1.0
1070
    74
1070
     0
1000
MTEXTEND
  0
LINE
  5
183F2
330
165C4
100
AcDbEntity
  8
寸法
 62
     0
 48
50.0
370
    -2
100
AcDbLine
 10
5319.673057123661
 20
6608.0666537797
 30
0.0
 11
5271.673057123659
 21
6608.0666537797
 31
0.0
  0
INSERT
  5
183F3
330
165C4
100
AcDbEntity
  8
寸法
 62
     0
 48
50.0
370
    -2
100
AcDbBlockReference
  2
_DOTSMALL
 10
5319.673057123661
 20
6608.0666537797
 30
0.0
 41
100.0
 42
100.0
 43
100.0
 50
180.0
  0
INSERT
  5
183F4
330
165C4
100
AcDbEntity
  8
寸法
 62
     0
 48
50.0
370
    -2
100
AcDbBlockReference
  2
_DOTSMALL
 10
5271.673057123659
 20
6608.0666537797
 30
0.0
 41
100.0
 42
100.0
 43
100.0
  0
POINT
  5
183F5
330
165C4
100
AcDbEntity
  8
DEFPOINTS
 62
     0
 48
50.0
100
AcDbPoint
 10
5319.673057123661
 20
7142.497424545952
 30
0.0
  0
POINT
  5
183F6
330
165C4
100
AcDbEntity
  8
DEFPOINTS
 62
     0
 48
50.0
100
AcDbPoint
 10
5271.673057123659
 20
7168.497424545865
 30
0.0
  0
POINT
  5
183F7
330
165C4
100
AcDbEntity
  8
DEFPOINTS
 62
     0
 48
50.0
100
AcDbPoint
 10
5271.673057123659
 20
6608.0666537797
 30
0.0
  0
ENDBLK
  5
165D2
330
165C4
100
AcDbEntity
  8
0
 48
50.0
100
AcDbBlockEnd
  0
BLOCK
  5
1663F
330
165EA
100
AcDbEntity
  8
0
 48
50.0
100
AcDbBlockBegin
  2
*D16
 70
     1
 10
0.0
 20
0.0
 30
0.0
  3
*D16
  1

  0
LINE
  5
183D9
330
165EA
100
AcDbEntity
  8
寸法
 62
     0
 48
50.0
370
    -2
100
AcDbLine
 10
5429.673057123673
 20
7122.497424545864
 30
0.0
 11
5429.673057123673
 21
6548.066653779702
 31
0.0
  0
LINE
  5
183DA
330
165EA
100
AcDbEntity
  8
寸法
 62
     0
 48
50.0
370
    -2
100
AcDbLine
 10
5319.673057123661
 20
7122.497424545952
 30
0.0
 11
5319.673057123661
 21
6548.066653779702
 31
0.0
  0
LINE
  5
183DB
330
165EA
100
AcDbEntity
  8
寸法
 62
     0
 48
50.0
370
    -2
100
AcDbLine
 10
5429.673057123673
 20
6608.066653779701
 30
0.0
 11
5319.673057123661
 21
6608.066653779701
 31
0.0
  0
MTEXT
  5
183DC
330
165EA
100
AcDbEntity
  8
寸法
 62
     7
 48
50.0
100
AcDbMText
 10
5374.673057123667
 20
6456.37475874347
 30
0.0
 40
120.0
 41
0.0
 71
     5
 72
     1
  1
\A1;110
  7
STYLE1
 73
     1
 44
1.0
1001
ACAD
1000
MTEXTBEGIN
1070
    73
1070
     1
1070
    44
1040
1.0
1070
    74
1070
     0
1000
MTEXTEND
  0
INSERT
  5
183DD
330
165EA
100
AcDbEntity
  8
寸法
 62
     0
 48
50.0
370
    -2
100
AcDbBlockReference
  2
_DOTSMALL
 10
5429.673057123673
 20
6608.066653779701
 30
0.0
 41
100.0
 42
100.0
 43
100.0
  0
INSERT
  5
183DE
330
165EA
100
AcDbEntity
  8
寸法
 62
     0
 48
50.0
370
    -2
100
AcDbBlockReference
  2
_DOTSMALL
 10
5319.673057123661
 20
6608.066653779701
 30
0.0
 41
100.0
 42
100.0
 43
100.0
 50
180.0
  0
POINT
  5
183DF
330
165EA
100
AcDbEntity
  8
DEFPOINTS
 62
     0
 48
50.0
100
AcDbPoint
 10
5429.673057123673
 20
7142.497424545864
 30
0.0
  0
POINT
  5
183E0
330
165EA
100
AcDbEntity
  8
DEFPOINTS
 62
     0
 48
50.0
100
AcDbPoint
 10
5319.673057123661
 20
7142.497424545952
 30
0.0
  0
POINT
  5
183E1
330
165EA
100
AcDbEntity
  8
DEFPOINTS
 62
     0
 48
50.0
100
AcDbPoint
 10
5319.673057123661
 20
6608.066653779701
 30
0.0
  0
ENDBLK
  5
16649
330
165EA
100
AcDbEntity
  8
0
 48
50.0
100
AcDbBlockEnd
  0
BLOCK
  5
166D0
330
166CF
100
AcDbEntity
  8
0
 48
50.0
100
AcDbBlockBegin
  2
*D17
 70
     1
 10
0.0
 20
0.0
 30
0.0
  3
*D17
  1

  0
LINE
  5
183CE
330
166CF
100
AcDbEntity
  8
寸法
 62
     0
 48
50.0
370
    -2
100
AcDbLine
 10
5429.673057123682
 20
9792.497424545919
 30
0.0
 11
5429.673057123682
 21
10048.30564417096
 31
0.0
  0
LINE
  5
183CF
330
166CF
100
AcDbEntity
  8
寸法
 62
     0
 48
50.0
370
    -2
100
AcDbLine
 10
5319.673057123684
 20
9792.497424545913
 30
0.0
 11
5319.673057123684
 21
10048.30564417096
 31
0.0
  0
LINE
  5
183D0
330
166CF
100
AcDbEntity
  8
寸法
 62
     0
 48
50.0
370
    -2
100
AcDbLine
 10
5429.673057123682
 20
9988.305644170967
 30
0.0
 11
5529.673057123683
 21
9988.305644170967
 31
0.0
  0
LINE
  5
183D1
330
166CF
100
AcDbEntity
  8
寸法
 62
     0
 48
50.0
370
    -2
100
AcDbLine
 10
5319.673057123684
 20
9988.305644170967
 30
0.0
 11
5219.673057123684
 21
9988.305644170967
 31
0.0
  0
LINE
  5
183D2
330
166CF
100
AcDbEntity
  8
寸法
 62
     0
 48
50.0
370
    -2
100
AcDbLine
 10
5429.673057123682
 20
9988.305644170967
 30
0.0
 11
5319.673057123684
 21
9988.305644170967
 31
0.0
  0
INSERT
  5
183D3
330
166CF
100
AcDbEntity
  8
寸法
 62
     0
 48
50.0
370
    -2
100
AcDbBlockReference
  2
_DOTSMALL
 10
5429.673057123682
 20
9988.305644170967
 30
0.0
 41
100.0
 42
100.0
 43
100.0
 50
180.0
  0
INSERT
  5
183D4
330
166CF
100
AcDbEntity
  8
寸法
 62
     0
 48
50.0
370
    -2
100
AcDbBlockReference
  2
_DOTSMALL
 10
5319.673057123684
 20
9988.305644170967
 30
0.0
 41
100.0
 42
100.0
 43
100.0
  0
MTEXT
  5
183D5
330
166CF
100
AcDbEntity
  8
寸法
 62
     7
 48
50.0
100
AcDbMText
 10
5374.673057123684
 20
10088.30564417096
 30
0.0
 40
120.0
 41
0.0
 71
     5
 72
     1
  1
\A1;110
  7
STYLE1
 73
     1
 44
1.0
1001
ACAD
1000
MTEXTBEGIN
1070
    73
1070
     1
1070
    44
1040
1.0
1070
    74
1070
     0
1000
MTEXTEND
  0
POINT
  5
183D6
330
166CF
100
AcDbEntity
  8
DEFPOINTS
 62
     0
 48
50.0
100
AcDbPoint
 10
5429.673057123682
 20
9772.497424545917
 30
0.0
  0
POINT
  5
183D7
330
166CF
100
AcDbEntity
  8
DEFPOINTS
 62
     0
 48
50.0
100
AcDbPoint
 10
5319.673057123684
 20
9772.497424545916
 30
0.0
  0
POINT
  5
183D8
330
166CF
100
AcDbEntity
  8
DEFPOINTS
 62
     0
 48
50.0
100
AcDbPoint
 10
5319.673057123684
 20
9988.305644170967
 30
0.0
  0
ENDBLK
  5
166DC
330
166CF
100
AcDbEntity
  8
0
 48
50.0
100
AcDbBlockEnd
  0
BLOCK
  5
1726C
330
16908
100
AcDbEntity
  8
0
 48
50.0
100
AcDbBlockBegin
  2
*D18
 70
     1
 10
0.0
 20
0.0
 30
0.0
  3
*D18
  1

  0
LINE
  5
183C6
330
16908
100
AcDbEntity
  8
寸法
 62
     0
 48
50.0
370
    -2
100
AcDbLine
 10
7584.673057123684
 20
9792.497424545963
 30
0.0
 11
7584.673057123684
 21
10297.62711772726
 31
0.0
  0
LINE
  5
183C7
330
16908
100
AcDbEntity
  8
寸法
 62
     0
 48
50.0
370
    -2
100
AcDbLine
 10
5374.673057123684
 20
10237.62711772726
 30
0.0
 11
7584.673057123684
 21
10237.62711772726
 31
0.0
  0
INSERT
  5
183C8
330
16908
100
AcDbEntity
  8
寸法
 62
     0
 48
50.0
370
    -2
100
AcDbBlockReference
  2
_DOTSMALL
 10
5374.673057123684
 20
10237.62711772726
 30
0.0
 41
100.0
 42
100.0
 43
100.0
 50
180.0
  0
INSERT
  5
183C9
330
16908
100
AcDbEntity
  8
寸法
 62
     0
 48
50.0
370
    -2
100
AcDbBlockReference
  2
_DOTSMALL
 10
7584.673057123684
 20
10237.62711772726
 30
0.0
 41
100.0
 42
100.0
 43
100.0
  0
MTEXT
  5
183CA
330
16908
100
AcDbEntity
  8
寸法
 62
     7
 48
50.0
100
AcDbMText
 10
6479.673057123683
 20
10337.63892875088
 30
0.0
 40
120.0
 41
0.0
 71
     5
 72
     1
  1
\A1;2210
  7
STYLE1
 73
     1
 44
1.0
1001
ACAD
1000
MTEXTBEGIN
1070
    73
1070
     1
1070
    44
1040
1.0
1070
    74
1070
     0
1000
MTEXTEND
  0
POINT
  5
183CB
330
16908
100
AcDbEntity
  8
DEFPOINTS
 62
     0
 48
50.0
100
AcDbPoint
 10
5374.673057123684
 20
10147.29355852891
 30
0.0
  0
POINT
  5
183CC
330
16908
100
AcDbEntity
  8
DEFPOINTS
 62
     0
 48
50.0
100
AcDbPoint
 10
7584.673057123684
 20
9772.497424545964
 30
0.0
  0
POINT
  5
183CD
330
16908
100
AcDbEntity
  8
DEFPOINTS
 62
     0
 48
50.0
100
AcDbPoint
 10
7584.673057123684
 20
10237.62711772726
 30
0.0
  0
ENDBLK
  5
17275
330
16908
100
AcDbEntity
  8
0
 48
50.0
100
AcDbBlockEnd
  0
BLOCK
  5
17BDC
330
17BD3
100
AcDbEntity
  8
0
 48
50.0
100
AcDbBlockBegin
  2
*D19
 70
     1
 10
0.0
 20
0.0
 30
0.0
  3
*D19
  1

  0
LINE
  5
183AC
330
17BD3
100
AcDbEntity
  8
寸法
 62
     0
 48
50.0
370
    -2
100
AcDbLine
 10
3267.673057123677
 20
7148.497424545865
 30
0.0
 11
3267.673057123677
 21
6548.0666537797
 31
0.0
  0
LINE
  5
183AD
330
17BD3
100
AcDbEntity
  8
寸法
 62
     0
 48
50.0
370
    -2
100
AcDbLine
 10
5271.673057123659
 20
6608.0666537797
 30
0.0
 11
3267.673057123677
 21
6608.0666537797
 31
0.0
  0
INSERT
  5
183AE
330
17BD3
100
AcDbEntity
  8
寸法
 62
     0
 48
50.0
370
    -2
100
AcDbBlockReference
  2
_DOTSMALL
 10
5271.673057123659
 20
6608.0666537797
 30
0.0
 41
100.0
 42
100.0
 43
100.0
  0
INSERT
  5
183AF
330
17BD3
100
AcDbEntity
  8
寸法
 62
     0
 48
50.0
370
    -2
100
AcDbBlockReference
  2
_DOTSMALL
 10
3267.673057123677
 20
6608.0666537797
 30
0.0
 41
100.0
 42
100.0
 43
100.0
 50
180.0
  0
MTEXT
  5
183B0
330
17BD3
100
AcDbEntity
  8
寸法
 62
     7
 48
50.0
100
AcDbMText
 10
4269.673057123667
 20
6708.078464803323
 30
0.0
 40
120.0
 41
0.0
 71
     5
 72
     1
  1
\A1;有効開口部間口 2004
  7
STYLE1
 73
     1
 44
1.0
1001
ACAD
1000
MTEXTBEGIN
1070
    73
1070
     1
1070
    44
1040
1.0
1070
    74
1070
     0
1000
MTEXTEND
  0
POINT
  5
183B1
330
17BD3
100
AcDbEntity
  8
DEFPOINTS
 62
     0
 48
50.0
100
AcDbPoint
 10
5271.673057123659
 20
7168.497424545865
 30
0.0
  0
POINT
  5
183B2
330
17BD3
100
AcDbEntity
  8
DEFPOINTS
 62
     0
 48
50.0
100
AcDbPoint
 10
3267.673057123677
 20
7168.497424545865
 30
0.0
  0
POINT
  5
183B3
330
17BD3
100
AcDbEntity
  8
DEFPOINTS
 62
     0
 48
50.0
100
AcDbPoint
 10
3267.673057123677
 20
6608.0666537797
 30
0.0
  0
ENDBLK
  5
17BDD
330
17BD3
100
AcDbEntity
  8
0
 48
50.0
100
AcDbBlockEnd
  0
BLOCK
  5
17BE8
330
17BDE
100
AcDbEntity
  8
0
 48
50.0
100
AcDbBlockBegin
  2
*D20
 70
     1
 10
0.0
 20
0.0
 30
0.0
  3
*D20
  1

  0
LINE
  5
183B4
330
17BDE
100
AcDbEntity
  8
寸法
 62
     0
 48
50.0
370
    -2
100
AcDbLine
 10
3219.673057123684
 20
9792.497424545869
 30
0.0
 11
3219.673057123684
 21
10048.30564417096
 31
0.0
  0
LINE
  5
183B5
330
17BDE
100
AcDbEntity
  8
寸法
 62
     0
 48
50.0
370
    -2
100
AcDbLine
 10
5319.673057123684
 20
9792.497424545963
 30
0.0
 11
5319.673057123684
 21
10048.30564417096
 31
0.0
  0
LINE
  5
183B6
330
17BDE
100
AcDbEntity
  8
寸法
 62
     0
 48
50.0
370
    -2
100
AcDbLine
 10
3219.673057123684
 20
9988.305644170967
 30
0.0
 11
5319.673057123684
 21
9988.305644170967
 31
0.0
  0
INSERT
  5
183B7
330
17BDE
100
AcDbEntity
  8
寸法
 62
     0
 48
50.0
370
    -2
100
AcDbBlockReference
  2
_DOTSMALL
 10
3219.673057123684
 20
9988.305644170967
 30
0.0
 41
100.0
 42
100.0
 43
100.0
 50
180.0
  0
INSERT
  5
183B8
330
17BDE
100
AcDbEntity
  8
寸法
 62
     0
 48
50.0
370
    -2
100
AcDbBlockReference
  2
_DOTSMALL
 10
5319.673057123684
 20
9988.305644170967
 30
0.0
 41
100.0
 42
100.0
 43
100.0
  0
MTEXT
  5
183B9
330
17BDE
100
AcDbEntity
  8
寸法
 62
     7
 48
50.0
100
AcDbMText
 10
4269.673057123684
 20
10088.31745519459
 30
0.0
 40
120.0
 41
0.0
 71
     5
 72
     1
  1
\A1;5X420=2100
  7
STYLE1
 73
     1
 44
1.0
1001
ACAD
1000
MTEXTBEGIN
1070
    73
1070
     1
1070
    44
1040
1.0
1070
    74
1070
     0
1000
MTEXTEND
  0
POINT
  5
183BA
330
17BDE
100
AcDbEntity
  8
DEFPOINTS
 62
     0
 48
50.0
100
AcDbPoint
 10
3219.673057123684
 20
9772.49742454587
 30
0.0
  0
POINT
  5
183BB
330
17BDE
100
AcDbEntity
  8
DEFPOINTS
 62
     0
 48
50.0
100
AcDbPoint
 10
5319.673057123684
 20
9772.497424545964
 30
0.0
  0
POINT
  5
183BC
330
17BDE
100
AcDbEntity
  8
DEFPOINTS
 62
     0
 48
50.0
100
AcDbPoint
 10
5319.673057123684
 20
9988.305644170967
 30
0.0
  0
ENDBLK
  5
17BE9
330
17BDE
100
AcDbEntity
  8
0
 48
50.0
100
AcDbBlockEnd
  0
BLOCK
  5
17C02
330
17BF8
100
AcDbEntity
  8
0
 48
50.0
100
AcDbBlockBegin
  2
*D21
 70
     1
 10
0.0
 20
0.0
 30
0.0
  3
*D21
  1

  0
LINE
  5
183BD
330
17BF8
100
AcDbEntity
  8
寸法
 62
     0
 48
50.0
370
    -2
100
AcDbLine
 10
3164.673057123648
 20
9792.497424545835
 30
0.0
 11
3164.673057123648
 21
10297.62711772726
 31
0.0
  0
LINE
  5
183BE
330
17BF8
100
AcDbEntity
  8
寸法
 62
     0
 48
50.0
370
    -2
100
AcDbLine
 10
5374.673057123684
 20
10167.29355852891
 30
0.0
 11
5374.673057123684
 21
10297.62711772726
 31
0.0
  0
LINE
  5
183BF
330
17BF8
100
AcDbEntity
  8
寸法
 62
     0
 48
50.0
370
    -2
100
AcDbLine
 10
3164.673057123648
 20
10237.62711772726
 30
0.0
 11
5374.673057123684
 21
10237.62711772726
 31
0.0
  0
INSERT
  5
183C0
330
17BF8
100
AcDbEntity
  8
寸法
 62
     0
 48
50.0
370
    -2
100
AcDbBlockReference
  2
_DOTSMALL
 10
3164.673057123648
 20
10237.62711772726
 30
0.0
 41
100.0
 42
100.0
 43
100.0
 50
180.0
  0
INSERT
  5
183C1
330
17BF8
100
AcDbEntity
  8
寸法
 62
     0
 48
50.0
370
    -2
100
AcDbBlockReference
  2
_DOTSMALL
 10
5374.673057123684
 20
10237.62711772726
 30
0.0
 41
100.0
 42
100.0
 43
100.0
  0
MTEXT
  5
183C2
330
17BF8
100
AcDbEntity
  8
寸法
 62
     7
 48
50.0
100
AcDbMText
 10
4269.673057123665
 20
10337.63892875088
 30
0.0
 40
120.0
 41
0.0
 71
     5
 72
     1
  1
\A1;2210
  7
STYLE1
 73
     1
 44
1.0
1001
ACAD
1000
MTEXTBEGIN
1070
    73
1070
     1
1070
    44
1040
1.0
1070
    74
1070
     0
1000
MTEXTEND
  0
POINT
  5
183C3
330
17BF8
100
AcDbEntity
  8
DEFPOINTS
 62
     0
 48
50.0
100
AcDbPoint
 10
3164.673057123648
 20
9772.497424545838
 30
0.0
  0
POINT
  5
183C4
330
17BF8
100
AcDbEntity
  8
DEFPOINTS
 62
     0
 48
50.0
100
AcDbPoint
 10
5374.673057123684
 20
10147.29355852891
 30
0.0
  0
POINT
  5
183C5
330
17BF8
100
AcDbEntity
  8
DEFPOINTS
 62
     0
 48
50.0
100
AcDbPoint
 10
5374.673057123684
 20
10237.62711772726
 30
0.0
  0
ENDBLK
  5
17C03
330
17BF8
100
AcDbEntity
  8
0
 48
50.0
100
AcDbBlockEnd
  0
BLOCK
  5
18A80
330
18A75
100
AcDbEntity
  8
0
 48
50.0
100
AcDbBlockBegin
  2
*D22
 70
     1
 10
0.0
 20
0.0
 30
0.0
  3
*D22
  1

  0
LINE
  5
18E82
330
18A75
100
AcDbEntity
  8
寸法
 62
     0
 48
50.0
370
    -2
100
AcDbLine
 10
10151.2541168044
 20
4535.568327817801
 30
0.0
 11
9535.319677699108
 21
4553.282478092131
 31
0.0
  0
LINE
  5
18E83
330
18A75
100
AcDbEntity
  8
寸法
 62
     0
 48
50.0
370
    -2
100
AcDbLine
 10
10147.20066124777
 20
4394.626604052089
 30
0.0
 11
9531.266222142482
 21
4412.340754326419
 31
0.0
  0
LINE
  5
18E84
330
18A75
100
AcDbEntity
  8
寸法
 62
     0
 48
50.0
370
    -2
100
AcDbLine
 10
9591.241423744913
 20
4410.615879621471
 30
0.0
 11
9595.294879301539
 21
4551.557603387183
 31
0.0
  0
LINE
  5
18E85
330
18A75
100
AcDbEntity
  8
寸法
 62
     0
 48
50.0
370
    -2
100
AcDbLine
 10
9595.294879301539
 20
4551.557603387183
 30
0.0
 11
9605.644127531226
 21
4911.40881300177
 31
0.0
  0
INSERT
  5
18E86
330
18A75
100
AcDbEntity
  8
寸法
 62
     0
 48
50.0
370
    -2
100
AcDbBlockReference
  2
_DOTSMALL
 10
9591.241423744913
 20
4410.615879621471
 30
0.0
 41
100.0
 42
100.0
 43
100.0
 50
268.3526390256378
  0
INSERT
  5
18E87
330
18A75
100
AcDbEntity
  8
寸法
 62
     0
 48
50.0
370
    -2
100
AcDbBlockReference
  2
_DOTSMALL
 10
9595.294879301539
 20
4551.557603387183
 30
0.0
 41
100.0
 42
100.0
 43
100.0
 50
88.35263902563776
  0
MTEXT
  5
18E88
330
18A75
100
AcDbEntity
  8
寸法
 62
     7
 48
50.0
100
AcDbMText
 10
9501.948229666451
 20
4784.337334038082
 30
0.0
 40
120.0
 41
0.0
 71
     5
 72
     1
  1
\A1;141
  7
STYLE1
 11
0.0287479117491237
 21
0.9995866933738488
 31
0.0
 73
     1
 44
1.0
1001
ACAD
1000
MTEXTBEGIN
1070
    73
1070
     1
1070
    44
1040
1.0
1070
    74
1070
     0
1000
MTEXTEND
  0
POINT
  5
18E89
330
18A75
100
AcDbEntity
  8
DEFPOINTS
 62
     0
 48
50.0
100
AcDbPoint
 10
10171.24585067187
 20
4534.99336958282
 30
0.0
  0
POINT
  5
18E8A
330
18A75
100
AcDbEntity
  8
DEFPOINTS
 62
     0
 48
50.0
100
AcDbPoint
 10
10167.19239511524
 20
4394.051645817106
 30
0.0
  0
POINT
  5
18E8B
330
18A75
100
AcDbEntity
  8
DEFPOINTS
 62
     0
 48
50.0
100
AcDbPoint
 10
9591.241423744913
 20
4410.615879621471
 30
0.0
  0
ENDBLK
  5
18A81
330
18A75
100
AcDbEntity
  8
0
 48
50.0
100
AcDbBlockEnd
  0
BLOCK
  5
18A8D
330
18A82
100
AcDbEntity
  8
0
 48
50.0
100
AcDbBlockBegin
  2
*D23
 70
     1
 10
0.0
 20
0.0
 30
0.0
  3
*D23
  1

  0
LINE
  5
18E78
330
18A82
100
AcDbEntity
  8
寸法
 62
     0
 48
50.0
370
    -2
100
AcDbLine
 10
12841.84983051329
 20
4503.081300359793
 30
0.0
 11
12841.84983051329
 21
4994.928074327446
 31
0.0
  0
LINE
  5
18E79
330
18A82
100
AcDbEntity
  8
寸法
 62
     0
 48
50.0
370
    -2
100
AcDbLine
 10
12921.84983051329
 20
4501.270620748141
 30
0.0
 11
12921.84983051329
 21
4994.928074327446
 31
0.0
  0
LINE
  5
18E7A
330
18A82
100
AcDbEntity
  8
寸法
 62
     0
 48
50.0
370
    -2
100
AcDbLine
 10
12841.84983051329
 20
4934.928074327445
 30
0.0
 11
12921.84983051329
 21
4934.928074327445
 31
0.0
  0
LINE
  5
18E7B
330
18A82
100
AcDbEntity
  8
寸法
 62
     0
 48
50.0
370
    -2
100
AcDbLine
 10
12921.84983051329
 20
4934.928074327445
 30
0.0
 11
13233.94431870227
 21
4934.928074327445
 31
0.0
  0
INSERT
  5
18E7C
330
18A82
100
AcDbEntity
  8
寸法
 62
     0
 48
50.0
370
    -2
100
AcDbBlockReference
  2
_DOTSMALL
 10
12841.84983051329
 20
4934.928074327445
 30
0.0
 41
100.0
 42
100.0
 43
100.0
 50
180.0
  0
INSERT
  5
18E7D
330
18A82
100
AcDbEntity
  8
寸法
 62
     0
 48
50.0
370
    -2
100
AcDbBlockReference
  2
_DOTSMALL
 10
12921.84983051329
 20
4934.928074327445
 30
0.0
 41
100.0
 42
100.0
 43
100.0
  0
MTEXT
  5
18E7E
330
18A82
100
AcDbEntity
  8
寸法
 62
     7
 48
50.0
100
AcDbMText
 10
13127.89707460779
 20
5034.928074327446
 30
0.0
 40
120.0
 41
0.0
 71
     5
 72
     1
  1
\A1;80
  7
STYLE1
 73
     1
 44
1.0
1001
ACAD
1000
MTEXTBEGIN
1070
    73
1070
     1
1070
    44
1040
1.0
1070
    74
1070
     0
1000
MTEXTEND
  0
POINT
  5
18E7F
330
18A82
100
AcDbEntity
  8
DEFPOINTS
 62
     0
 48
50.0
100
AcDbPoint
 10
12841.84983051329
 20
4483.081300359793
 30
0.0
  0
POINT
  5
18E80
330
18A82
100
AcDbEntity
  8
DEFPOINTS
 62
     0
 48
50.0
100
AcDbPoint
 10
12921.84983051329
 20
4481.270620748142
 30
0.0
  0
POINT
  5
18E81
330
18A82
100
AcDbEntity
  8
DEFPOINTS
 62
     0
 48
50.0
100
AcDbPoint
 10
12921.84983051329
 20
4934.928074327445
 30
0.0
  0
ENDBLK
  5
18A8E
330
18A82
100
AcDbEntity
  8
0
 48
50.0
100
AcDbBlockEnd
  0
BLOCK
  5
18A99
330
18A8F
100
AcDbEntity
  8
0
 48
50.0
100
AcDbBlockBegin
  2
*D24
 70
     1
 10
0.0
 20
0.0
 30
0.0
  3
*D24
  1

  0
LINE
  5
194B0
330
18A8F
100
AcDbEntity
  8
寸法
 62
     0
 48
50.0
370
    -2
100
AcDbLine
 10
12921.84983051329
 20
4501.270620748141
 30
0.0
 11
12921.84983051329
 21
5215.138761059062
 31
0.0
  0
LINE
  5
194B1
330
18A8F
100
AcDbEntity
  8
寸法
 62
     0
 48
50.0
370
    -2
100
AcDbLine
 10
10151.84983051329
 20
4556.270620748145
 30
0.0
 11
10151.84983051329
 21
5215.138761059062
 31
0.0
  0
LINE
  5
194B2
330
18A8F
100
AcDbEntity
  8
寸法
 62
     0
 48
50.0
370
    -2
100
AcDbLine
 10
12921.84983051329
 20
5155.138761059061
 30
0.0
 11
10151.84983051329
 21
5155.138761059061
 31
0.0
  0
INSERT
  5
194B3
330
18A8F
100
AcDbEntity
  8
寸法
 62
     0
 48
50.0
370
    -2
100
AcDbBlockReference
  2
_DOTSMALL
 10
12921.84983051329
 20
5155.138761059061
 30
0.0
 41
100.0
 42
100.0
 43
100.0
  0
INSERT
  5
194B4
330
18A8F
100
AcDbEntity
  8
寸法
 62
     0
 48
50.0
370
    -2
100
AcDbBlockReference
  2
_DOTSMALL
 10
10151.84983051329
 20
5155.138761059061
 30
0.0
 41
100.0
 42
100.0
 43
100.0
 50
180.0
  0
MTEXT
  5
194B5
330
18A8F
100
AcDbEntity
  8
寸法
 62
     7
 48
50.0
100
AcDbMText
 10
11536.84983051329
 20
5255.150572082683
 30
0.0
 40
120.0
 41
0.0
 71
     5
 72
     1
  1
\A1;2770
  7
STYLE1
 73
     1
 44
1.0
1001
ACAD
1000
MTEXTBEGIN
1070
    73
1070
     1
1070
    44
1040
1.0
1070
    74
1070
     0
1000
MTEXTEND
  0
POINT
  5
194B6
330
18A8F
100
AcDbEntity
  8
DEFPOINTS
 62
     0
 48
50.0
100
AcDbPoint
 10
12921.84983051329
 20
4481.270620748142
 30
0.0
  0
POINT
  5
194B7
330
18A8F
100
AcDbEntity
  8
DEFPOINTS
 62
     0
 48
50.0
100
AcDbPoint
 10
10151.84983051329
 20
4536.270620748145
 30
0.0
  0
POINT
  5
194B8
330
18A8F
100
AcDbEntity
  8
DEFPOINTS
 62
     0
 48
50.0
100
AcDbPoint
 10
10151.84983051329
 20
5155.138761059061
 30
0.0
  0
ENDBLK
  5
18A9A
330
18A8F
100
AcDbEntity
  8
0
 48
50.0
100
AcDbBlockEnd
  0
BLOCK
  5
18AA7
330
18A9B
100
AcDbEntity
  8
0
 48
50.0
100
AcDbBlockBegin
  2
*D25
 70
     1
 10
0.0
 20
0.0
 30
0.0
  3
*D25
  1

  0
LINE
  5
18E64
330
18A9B
100
AcDbEntity
  8
寸法
 62
     0
 48
50.0
370
    -2
100
AcDbLine
 10
10211.84983051329
 20
4552.272238871116
 30
0.0
 11
10211.84983051329
 21
4994.928074327444
 31
0.0
  0
LINE
  5
18E65
330
18A9B
100
AcDbEntity
  8
寸法
 62
     0
 48
50.0
370
    -2
100
AcDbLine
 10
10151.84983051329
 20
4556.270620748145
 30
0.0
 11
10151.84983051329
 21
4994.928074327444
 31
0.0
  0
LINE
  5
18E66
330
18A9B
100
AcDbEntity
  8
寸法
 62
     0
 48
50.0
370
    -2
100
AcDbLine
 10
10211.84983051329
 20
4934.928074327444
 30
0.0
 11
10311.84983051329
 21
4934.928074327444
 31
0.0
  0
LINE
  5
18E67
330
18A9B
100
AcDbEntity
  8
寸法
 62
     0
 48
50.0
370
    -2
100
AcDbLine
 10
10151.84983051329
 20
4934.928074327444
 30
0.0
 11
9732.574239962117
 21
4934.928074327444
 31
0.0
  0
LINE
  5
18E68
330
18A9B
100
AcDbEntity
  8
寸法
 62
     0
 48
50.0
370
    -2
100
AcDbLine
 10
10211.84983051329
 20
4934.928074327444
 30
0.0
 11
10151.84983051329
 21
4934.928074327444
 31
0.0
  0
INSERT
  5
18E69
330
18A9B
100
AcDbEntity
  8
寸法
 62
     0
 48
50.0
370
    -2
100
AcDbBlockReference
  2
_DOTSMALL
 10
10211.84983051329
 20
4934.928074327444
 30
0.0
 41
100.0
 42
100.0
 43
100.0
 50
180.0
  0
INSERT
  5
18E6A
330
18A9B
100
AcDbEntity
  8
寸法
 62
     0
 48
50.0
370
    -2
100
AcDbBlockReference
  2
_DOTSMALL
 10
10151.84983051329
 20
4934.928074327444
 30
0.0
 41
100.0
 42
100.0
 43
100.0
  0
MTEXT
  5
18E6B
330
18A9B
100
AcDbEntity
  8
寸法
 62
     7
 48
50.0
100
AcDbMText
 10
9842.212035237707
 20
5034.928074327444
 30
0.0
 40
120.0
 41
0.0
 71
     5
 72
     1
  1
\A1;60
  7
STYLE1
 73
     1
 44
1.0
1001
ACAD
1000
MTEXTBEGIN
1070
    73
1070
     1
1070
    44
1040
1.0
1070
    74
1070
     0
1000
MTEXTEND
  0
POINT
  5
18E6C
330
18A9B
100
AcDbEntity
  8
DEFPOINTS
 62
     0
 48
50.0
100
AcDbPoint
 10
10211.84983051329
 20
4532.272238871116
 30
0.0
  0
POINT
  5
18E6D
330
18A9B
100
AcDbEntity
  8
DEFPOINTS
 62
     0
 48
50.0
100
AcDbPoint
 10
10151.84983051329
 20
4536.270620748145
 30
0.0
  0
POINT
  5
18E6E
330
18A9B
100
AcDbEntity
  8
DEFPOINTS
 62
     0
 48
50.0
100
AcDbPoint
 10
10151.84983051329
 20
4934.928074327444
 30
0.0
  0
ENDBLK
  5
18AA8
330
18A9B
100
AcDbEntity
  8
0
 48
50.0
100
AcDbBlockEnd
  0
BLOCK
  5
18AB3
330
18AA9
100
AcDbEntity
  8
0
 48
50.0
100
AcDbBlockBegin
  2
*D26
 70
     1
 10
0.0
 20
0.0
 30
0.0
  3
*D26
  1

  0
LINE
  5
194B9
330
18AA9
100
AcDbEntity
  8
寸法
 62
     0
 48
50.0
370
    -2
100
AcDbLine
 10
12841.84983051329
 20
4503.081300359793
 30
0.0
 11
12841.84983051329
 21
4994.928074327446
 31
0.0
  0
LINE
  5
194BA
330
18AA9
100
AcDbEntity
  8
寸法
 62
     0
 48
50.0
370
    -2
100
AcDbLine
 10
10211.84983051329
 20
4552.272238871116
 30
0.0
 11
10211.84983051329
 21
4994.928074327446
 31
0.0
  0
LINE
  5
194BB
330
18AA9
100
AcDbEntity
  8
寸法
 62
     0
 48
50.0
370
    -2
100
AcDbLine
 10
12841.84983051329
 20
4934.928074327445
 30
0.0
 11
10211.84983051329
 21
4934.928074327445
 31
0.0
  0
INSERT
  5
194BC
330
18AA9
100
AcDbEntity
  8
寸法
 62
     0
 48
50.0
370
    -2
100
AcDbBlockReference
  2
_DOTSMALL
 10
12841.84983051329
 20
4934.928074327445
 30
0.0
 41
100.0
 42
100.0
 43
100.0
  0
INSERT
  5
194BD
330
18AA9
100
AcDbEntity
  8
寸法
 62
     0
 48
50.0
370
    -2
100
AcDbBlockReference
  2
_DOTSMALL
 10
10211.84983051329
 20
4934.928074327445
 30
0.0
 41
100.0
 42
100.0
 43
100.0
 50
180.0
  0
MTEXT
  5
194BE
330
18AA9
100
AcDbEntity
  8
寸法
 62
     7
 48
50.0
100
AcDbMText
 10
11526.84983051329
 20
5034.939885351068
 30
0.0
 40
120.0
 41
0.0
 71
     5
 72
     1
  1
\A1;柱外寸法2630
  7
STYLE1
 73
     1
 44
1.0
1001
ACAD
1000
MTEXTBEGIN
1070
    73
1070
     1
1070
    44
1040
1.0
1070
    74
1070
     0
1000
MTEXTEND
  0
POINT
  5
194BF
330
18AA9
100
AcDbEntity
  8
DEFPOINTS
 62
     0
 48
50.0
100
AcDbPoint
 10
12841.84983051329
 20
4483.081300359793
 30
0.0
  0
POINT
  5
194C0
330
18AA9
100
AcDbEntity
  8
DEFPOINTS
 62
     0
 48
50.0
100
AcDbPoint
 10
10211.84983051329
 20
4532.272238871116
 30
0.0
  0
POINT
  5
194C1
330
18AA9
100
AcDbEntity
  8
DEFPOINTS
 62
     0
 48
50.0
100
AcDbPoint
 10
10211.84983051329
 20
4934.928074327445
 30
0.0
  0
ENDBLK
  5
18AB4
330
18AA9
100
AcDbEntity
  8
0
 48
50.0
100
AcDbBlockEnd
  0
BLOCK
  5
18AC1
330
18AB5
100
AcDbEntity
  8
0
 48
50.0
100
AcDbBlockBegin
  2
*D27
 70
     1
 10
0.0
 20
0.0
 30
0.0
  3
*D27
  1

  0
LINE
  5
18E50
330
18AB5
100
AcDbEntity
  8
寸法
 62
     0
 48
50.0
370
    -2
100
AcDbLine
 10
10191.84983051329
 20
2211.27062074814
 30
0.0
 11
9308.099701330036
 21
2211.27062074814
 31
0.0
  0
LINE
  5
18E51
330
18AB5
100
AcDbEntity
  8
寸法
 62
     0
 48
50.0
370
    -2
100
AcDbLine
 10
10136.84983051329
 20
2161.27062074814
 30
0.0
 11
9308.099701330036
 21
2161.27062074814
 31
0.0
  0
LINE
  5
18E52
330
18AB5
100
AcDbEntity
  8
寸法
 62
     0
 48
50.0
370
    -2
100
AcDbLine
 10
9368.099701330036
 20
2211.27062074814
 30
0.0
 11
9368.099701330036
 21
2311.27062074814
 31
0.0
  0
LINE
  5
18E53
330
18AB5
100
AcDbEntity
  8
寸法
 62
     0
 48
50.0
370
    -2
100
AcDbLine
 10
9368.099701330036
 20
2161.27062074814
 30
0.0
 11
9368.099701330036
 21
1749.17613255916
 31
0.0
  0
LINE
  5
18E54
330
18AB5
100
AcDbEntity
  8
寸法
 62
     0
 48
50.0
370
    -2
100
AcDbLine
 10
9368.099701330036
 20
2211.27062074814
 30
0.0
 11
9368.099701330036
 21
2161.27062074814
 31
0.0
  0
INSERT
  5
18E55
330
18AB5
100
AcDbEntity
  8
寸法
 62
     0
 48
50.0
370
    -2
100
AcDbBlockReference
  2
_DOTSMALL
 10
9368.099701330036
 20
2211.27062074814
 30
0.0
 41
100.0
 42
100.0
 43
100.0
 50
270.0
  0
INSERT
  5
18E56
330
18AB5
100
AcDbEntity
  8
寸法
 62
     0
 48
50.0
370
    -2
100
AcDbBlockReference
  2
_DOTSMALL
 10
9368.099701330036
 20
2161.27062074814
 30
0.0
 41
100.0
 42
100.0
 43
100.0
 50
90.0
  0
MTEXT
  5
18E57
330
18AB5
100
AcDbEntity
  8
寸法
 62
     7
 48
50.0
100
AcDbMText
 10
9268.099701330037
 20
1855.223376653649
 30
0.0
 40
120.0
 41
0.0
 71
     5
 72
     1
  1
\A1;50
  7
STYLE1
 11
0.0000000000000001
 21
1.0
 31
0.0
 73
     1
 44
1.0
1001
ACAD
1000
MTEXTBEGIN
1070
    73
1070
     1
1070
    44
1040
1.0
1070
    74
1070
     0
1000
MTEXTEND
  0
POINT
  5
18E58
330
18AB5
100
AcDbEntity
  8
DEFPOINTS
 62
     0
 48
50.0
100
AcDbPoint
 10
10211.84983051329
 20
2211.27062074814
 30
0.0
  0
POINT
  5
18E59
330
18AB5
100
AcDbEntity
  8
DEFPOINTS
 62
     0
 48
50.0
100
AcDbPoint
 10
10156.84983051329
 20
2161.27062074814
 30
0.0
  0
POINT
  5
18E5A
330
18AB5
100
AcDbEntity
  8
DEFPOINTS
 62
     0
 48
50.0
100
AcDbPoint
 10
9368.099701330036
 20
2161.27062074814
 30
0.0
  0
ENDBLK
  5
18AC2
330
18AB5
100
AcDbEntity
  8
0
 48
50.0
100
AcDbBlockEnd
  0
BLOCK
  5
18ACD
330
18AC3
100
AcDbEntity
  8
0
 48
50.0
100
AcDbBlockBegin
  2
*D28
 70
     1
 10
0.0
 20
0.0
 30
0.0
  3
*D28
  1

  0
LINE
  5
18E47
330
18AC3
100
AcDbEntity
  8
寸法
 62
     0
 48
50.0
370
    -2
100
AcDbLine
 10
12861.84983051329
 20
2161.270620748142
 30
0.0
 11
13606.77698848542
 21
2161.270620748141
 31
0.0
  0
LINE
  5
18E48
330
18AC3
100
AcDbEntity
  8
寸法
 62
     0
 48
50.0
370
    -2
100
AcDbLine
 10
12941.84983051329
 20
4481.270620748142
 30
0.0
 11
13606.77698848543
 21
4481.270620748142
 31
0.0
  0
LINE
  5
18E49
330
18AC3
100
AcDbEntity
  8
寸法
 62
     0
 48
50.0
370
    -2
100
AcDbLine
 10
13546.77698848542
 20
2161.270620748141
 30
0.0
 11
13546.77698848543
 21
4481.270620748142
 31
0.0
  0
INSERT
  5
18E4A
330
18AC3
100
AcDbEntity
  8
寸法
 62
     0
 48
50.0
370
    -2
100
AcDbBlockReference
  2
_DOTSMALL
 10
13546.77698848542
 20
2161.270620748141
 30
0.0
 41
100.0
 42
100.0
 43
100.0
 50
270.0
  0
INSERT
  5
18E4B
330
18AC3
100
AcDbEntity
  8
寸法
 62
     0
 48
50.0
370
    -2
100
AcDbBlockReference
  2
_DOTSMALL
 10
13546.77698848543
 20
4481.270620748142
 30
0.0
 41
100.0
 42
100.0
 43
100.0
 50
90.0
  0
MTEXT
  5
18E4C
330
18AC3
100
AcDbEntity
  8
寸法
 62
     7
 48
50.0
100
AcDbMText
 10
13446.7651774618
 20
3321.270620748143
 30
0.0
 40
120.0
 41
0.0
 71
     5
 72
     1
  1
\A1;2320
  7
STYLE1
 11
0.0000000000000001
 21
1.0
 31
0.0
 73
     1
 44
1.0
1001
ACAD
1000
MTEXTBEGIN
1070
    73
1070
     1
1070
    44
1040
1.0
1070
    74
1070
     0
1000
MTEXTEND
  0
POINT
  5
18E4D
330
18AC3
100
AcDbEntity
  8
DEFPOINTS
 62
     0
 48
50.0
100
AcDbPoint
 10
12841.84983051329
 20
2161.270620748142
 30
0.0
  0
POINT
  5
18E4E
330
18AC3
100
AcDbEntity
  8
DEFPOINTS
 62
     0
 48
50.0
100
AcDbPoint
 10
12921.84983051329
 20
4481.270620748142
 30
0.0
  0
POINT
  5
18E4F
330
18AC3
100
AcDbEntity
  8
DEFPOINTS
 62
     0
 48
50.0
100
AcDbPoint
 10
13546.77698848543
 20
4481.270620748142
 30
0.0
  0
ENDBLK
  5
18ACE
330
18AC3
100
AcDbEntity
  8
0
 48
50.0
100
AcDbBlockEnd
  0
BLOCK
  5
18AD9
330
18ACF
100
AcDbEntity
  8
0
 48
50.0
100
AcDbBlockBegin
  2
*D29
 70
     1
 10
0.0
 20
0.0
 30
0.0
  3
*D29
  1

  0
LINE
  5
18E9E
330
18ACF
100
AcDbEntity
  8
寸法
 62
     0
 48
50.0
370
    -2
100
AcDbLine
 10
10191.84983051329
 20
2161.270620748134
 30
0.0
 11
9008.099701330035
 21
2161.270620748135
 31
0.0
  0
LINE
  5
18E9F
330
18ACF
100
AcDbEntity
  8
寸法
 62
     0
 48
50.0
370
    -2
100
AcDbLine
 10
10131.84983051329
 20
4536.27062074814
 30
0.0
 11
9008.099701330037
 21
4536.27062074814
 31
0.0
  0
LINE
  5
18EA0
330
18ACF
100
AcDbEntity
  8
寸法
 62
     0
 48
50.0
370
    -2
100
AcDbLine
 10
9068.099701330035
 20
2161.270620748135
 30
0.0
 11
9068.099701330037
 21
4536.27062074814
 31
0.0
  0
INSERT
  5
18EA1
330
18ACF
100
AcDbEntity
  8
寸法
 62
     0
 48
50.0
370
    -2
100
AcDbBlockReference
  2
_DOTSMALL
 10
9068.099701330035
 20
2161.270620748135
 30
0.0
 41
100.0
 42
100.0
 43
100.0
 50
270.0
  0
INSERT
  5
18EA2
330
18ACF
100
AcDbEntity
  8
寸法
 62
     0
 48
50.0
370
    -2
100
AcDbBlockReference
  2
_DOTSMALL
 10
9068.099701330037
 20
4536.27062074814
 30
0.0
 41
100.0
 42
100.0
 43
100.0
 50
90.0
  0
MTEXT
  5
18EA3
330
18ACF
100
AcDbEntity
  8
寸法
 62
     7
 48
50.0
100
AcDbMText
 10
8968.087890306412
 20
3348.770620748138
 30
0.0
 40
120.0
 41
0.0
 71
     5
 72
     1
  1
\A1;2375
  7
STYLE1
 11
0.0000000000000001
 21
1.0
 31
0.0
 73
     1
 44
1.0
1001
ACAD
1000
MTEXTBEGIN
1070
    73
1070
     1
1070
    44
1040
1.0
1070
    74
1070
     0
1000
MTEXTEND
  0
POINT
  5
18EA4
330
18ACF
100
AcDbEntity
  8
DEFPOINTS
 62
     0
 48
50.0
100
AcDbPoint
 10
10211.84983051329
 20
2161.270620748134
 30
0.0
  0
POINT
  5
18EA5
330
18ACF
100
AcDbEntity
  8
DEFPOINTS
 62
     0
 48
50.0
100
AcDbPoint
 10
10151.84983051329
 20
4536.27062074814
 30
0.0
  0
POINT
  5
18EA6
330
18ACF
100
AcDbEntity
  8
DEFPOINTS
 62
     0
 48
50.0
100
AcDbPoint
 10
9068.099701330037
 20
4536.27062074814
 30
0.0
  0
ENDBLK
  5
18ADA
330
18ACF
100
AcDbEntity
  8
0
 48
50.0
100
AcDbBlockEnd
  0
BLOCK
  5
18AE5
330
18ADB
100
AcDbEntity
  8
0
 48
50.0
100
AcDbBlockBegin
  2
*D30
 70
     1
 10
0.0
 20
0.0
 30
0.0
  3
*D30
  1

  0
LINE
  5
18E3E
330
18ADB
100
AcDbEntity
  8
寸法
 62
     0
 48
50.0
370
    -2
100
AcDbLine
 10
10191.84983051329
 20
4301.270620748136
 30
0.0
 11
9308.099701330039
 21
4301.270620748136
 31
0.0
  0
LINE
  5
18E3F
330
18ADB
100
AcDbEntity
  8
寸法
 62
     0
 48
50.0
370
    -2
100
AcDbLine
 10
10191.84983051329
 20
2211.270620748134
 30
0.0
 11
9308.099701330036
 21
2211.270620748134
 31
0.0
  0
LINE
  5
18E40
330
18ADB
100
AcDbEntity
  8
寸法
 62
     0
 48
50.0
370
    -2
100
AcDbLine
 10
9368.099701330038
 20
4301.270620748136
 30
0.0
 11
9368.099701330036
 21
2211.270620748134
 31
0.0
  0
INSERT
  5
18E41
330
18ADB
100
AcDbEntity
  8
寸法
 62
     0
 48
50.0
370
    -2
100
AcDbBlockReference
  2
_DOTSMALL
 10
9368.099701330038
 20
4301.270620748136
 30
0.0
 41
100.0
 42
100.0
 43
100.0
 50
90.0
  0
INSERT
  5
18E42
330
18ADB
100
AcDbEntity
  8
寸法
 62
     0
 48
50.0
370
    -2
100
AcDbBlockReference
  2
_DOTSMALL
 10
9368.099701330036
 20
2211.270620748134
 30
0.0
 41
100.0
 42
100.0
 43
100.0
 50
270.0
  0
MTEXT
  5
18E43
330
18ADB
100
AcDbEntity
  8
寸法
 62
     7
 48
50.0
100
AcDbMText
 10
9268.087890306416
 20
3256.270620748136
 30
0.0
 40
120.0
 41
0.0
 71
     5
 72
     1
  1
\A1;2090
  7
STYLE1
 11
0.0000000000000001
 21
1.0
 31
0.0
 73
     1
 44
1.0
1001
ACAD
1000
MTEXTBEGIN
1070
    73
1070
     1
1070
    44
1040
1.0
1070
    74
1070
     0
1000
MTEXTEND
  0
POINT
  5
18E44
330
18ADB
100
AcDbEntity
  8
DEFPOINTS
 62
     0
 48
50.0
100
AcDbPoint
 10
10211.84983051329
 20
4301.270620748136
 30
0.0
  0
POINT
  5
18E45
330
18ADB
100
AcDbEntity
  8
DEFPOINTS
 62
     0
 48
50.0
100
AcDbPoint
 10
10211.84983051329
 20
2211.270620748134
 30
0.0
  0
POINT
  5
18E46
330
18ADB
100
AcDbEntity
  8
DEFPOINTS
 62
     0
 48
50.0
100
AcDbPoint
 10
9368.099701330036
 20
2211.270620748134
 30
0.0
  0
ENDBLK
  5
18AE6
330
18ADB
100
AcDbEntity
  8
0
 48
50.0
100
AcDbBlockEnd
  0
BLOCK
  5
1910B
330
190FF
100
AcDbEntity
  8
0
 48
50.0
100
AcDbBlockBegin
  2
*D31
 70
     1
 10
0.0
 20
0.0
 30
0.0
  3
*D31
  1

  0
LINE
  5
191DC
330
190FF
100
AcDbEntity
  8
寸法
 62
     0
 48
50.0
370
    -2
100
AcDbLine
 10
7634.673057123677
 20
4556.270620748143
 30
0.0
 11
7634.673057123677
 21
5001.996892480052
 31
0.0
  0
LINE
  5
191DD
330
190FF
100
AcDbEntity
  8
寸法
 62
     0
 48
50.0
370
    -2
100
AcDbLine
 10
7584.673057123682
 20
4556.270620748146
 30
0.0
 11
7584.673057123682
 21
5001.996892480052
 31
0.0
  0
LINE
  5
191DE
330
190FF
100
AcDbEntity
  8
寸法
 62
     0
 48
50.0
370
    -2
100
AcDbLine
 10
7584.673057123682
 20
4941.996892480052
 30
0.0
 11
7484.673057123682
 21
4941.996892480052
 31
0.0
  0
LINE
  5
191DF
330
190FF
100
AcDbEntity
  8
寸法
 62
     0
 48
50.0
370
    -2
100
AcDbLine
 10
7634.673057123677
 20
4941.996892480052
 30
0.0
 11
8054.205582592407
 21
4941.996892480052
 31
0.0
  0
LINE
  5
191E0
330
190FF
100
AcDbEntity
  8
寸法
 62
     0
 48
50.0
370
    -2
100
AcDbLine
 10
7584.673057123682
 20
4941.996892480052
 30
0.0
 11
7634.673057123677
 21
4941.996892480052
 31
0.0
  0
INSERT
  5
191E1
330
190FF
100
AcDbEntity
  8
寸法
 62
     0
 48
50.0
370
    -2
100
AcDbBlockReference
  2
_DOTSMALL
 10
7584.673057123682
 20
4941.996892480052
 30
0.0
 41
100.0
 42
100.0
 43
100.0
  0
INSERT
  5
191E2
330
190FF
100
AcDbEntity
  8
寸法
 62
     0
 48
50.0
370
    -2
100
AcDbBlockReference
  2
_DOTSMALL
 10
7634.673057123677
 20
4941.996892480052
 30
0.0
 41
100.0
 42
100.0
 43
100.0
 50
180.0
  0
MTEXT
  5
191E3
330
190FF
100
AcDbEntity
  8
寸法
 62
     7
 48
50.0
100
AcDbMText
 10
7948.158338497917
 20
5041.996892480052
 30
0.0
 40
120.0
 41
0.0
 71
     5
 72
     1
  1
\A1;50
  7
STYLE1
 73
     1
 44
1.0
1001
ACAD
1000
MTEXTBEGIN
1070
    73
1070
     1
1070
    44
1040
1.0
1070
    74
1070
     0
1000
MTEXTEND
  0
POINT
  5
191E4
330
190FF
100
AcDbEntity
  8
DEFPOINTS
 62
     0
 48
50.0
100
AcDbPoint
 10
7634.673057123677
 20
4536.270620748142
 30
0.0
  0
POINT
  5
191E5
330
190FF
100
AcDbEntity
  8
DEFPOINTS
 62
     0
 48
50.0
100
AcDbPoint
 10
7584.673057123682
 20
4536.270620748146
 30
0.0
  0
POINT
  5
191E6
330
190FF
100
AcDbEntity
  8
DEFPOINTS
 62
     0
 48
50.0
100
AcDbPoint
 10
7584.673057123682
 20
4941.996892480052
 30
0.0
  0
ENDBLK
  5
1910C
330
190FF
100
AcDbEntity
  8
0
 48
50.0
100
AcDbBlockEnd
  0
BLOCK
  5
19119
330
1910D
100
AcDbEntity
  8
0
 48
50.0
100
AcDbBlockBegin
  2
*D32
 70
     1
 10
0.0
 20
0.0
 30
0.0
  3
*D32
  1

  0
LINE
  5
191E7
330
1910D
100
AcDbEntity
  8
寸法
 62
     0
 48
50.0
370
    -2
100
AcDbLine
 10
3164.673057123676
 20
4556.270620748146
 30
0.0
 11
3164.673057123676
 21
5001.996892480049
 31
0.0
  0
LINE
  5
191E8
330
1910D
100
AcDbEntity
  8
寸法
 62
     0
 48
50.0
370
    -2
100
AcDbLine
 10
3114.673057123676
 20
4556.270620748146
 30
0.0
 11
3114.673057123676
 21
5001.996892480049
 31
0.0
  0
LINE
  5
191E9
330
1910D
100
AcDbEntity
  8
寸法
 62
     0
 48
50.0
370
    -2
100
AcDbLine
 10
3164.673057123676
 20
4941.996892480048
 30
0.0
 11
3264.673057123676
 21
4941.996892480048
 31
0.0
  0
LINE
  5
191EA
330
1910D
100
AcDbEntity
  8
寸法
 62
     0
 48
50.0
370
    -2
100
AcDbLine
 10
3114.673057123676
 20
4941.996892480048
 30
0.0
 11
2695.140531654941
 21
4941.996892480048
 31
0.0
  0
LINE
  5
191EB
330
1910D
100
AcDbEntity
  8
寸法
 62
     0
 48
50.0
370
    -2
100
AcDbLine
 10
3164.673057123676
 20
4941.996892480048
 30
0.0
 11
3114.673057123676
 21
4941.996892480048
 31
0.0
  0
INSERT
  5
191EC
330
1910D
100
AcDbEntity
  8
寸法
 62
     0
 48
50.0
370
    -2
100
AcDbBlockReference
  2
_DOTSMALL
 10
3164.673057123676
 20
4941.996892480048
 30
0.0
 41
100.0
 42
100.0
 43
100.0
 50
180.0
  0
INSERT
  5
191ED
330
1910D
100
AcDbEntity
  8
寸法
 62
     0
 48
50.0
370
    -2
100
AcDbBlockReference
  2
_DOTSMALL
 10
3114.673057123676
 20
4941.996892480048
 30
0.0
 41
100.0
 42
100.0
 43
100.0
  0
MTEXT
  5
191EE
330
1910D
100
AcDbEntity
  8
寸法
 62
     7
 48
50.0
100
AcDbMText
 10
2801.187775749429
 20
5041.996892480049
 30
0.0
 40
120.0
 41
0.0
 71
     5
 72
     1
  1
\A1;50
  7
STYLE1
 73
     1
 44
1.0
1001
ACAD
1000
MTEXTBEGIN
1070
    73
1070
     1
1070
    44
1040
1.0
1070
    74
1070
     0
1000
MTEXTEND
  0
POINT
  5
191EF
330
1910D
100
AcDbEntity
  8
DEFPOINTS
 62
     0
 48
50.0
100
AcDbPoint
 10
3164.673057123676
 20
4536.270620748146
 30
0.0
  0
POINT
  5
191F0
330
1910D
100
AcDbEntity
  8
DEFPOINTS
 62
     0
 48
50.0
100
AcDbPoint
 10
3114.673057123676
 20
4536.270620748146
 30
0.0
  0
POINT
  5
191F1
330
1910D
100
AcDbEntity
  8
DEFPOINTS
 62
     0
 48
50.0
100
AcDbPoint
 10
3114.673057123676
 20
4941.996892480048
 30
0.0
  0
ENDBLK
  5
1911A
330
1910D
100
AcDbEntity
  8
0
 48
50.0
100
AcDbBlockEnd
  0
BLOCK
  5
19125
330
1911B
100
AcDbEntity
  8
0
 48
50.0
100
AcDbBlockBegin
  2
*D33
 70
     1
 10
0.0
 20
0.0
 30
0.0
  3
*D33
  1

  0
LINE
  5
191D3
330
1911B
100
AcDbEntity
  8
寸法
 62
     0
 48
50.0
370
    -2
100
AcDbLine
 10
3114.673057123676
 20
4556.270620748146
 30
0.0
 11
3114.673057123676
 21
5201.905813694139
 31
0.0
  0
LINE
  5
191D4
330
1911B
100
AcDbEntity
  8
寸法
 62
     0
 48
50.0
370
    -2
100
AcDbLine
 10
7634.673057123677
 20
4556.270620748143
 30
0.0
 11
7634.673057123677
 21
5201.905813694139
 31
0.0
  0
LINE
  5
191D5
330
1911B
100
AcDbEntity
  8
寸法
 62
     0
 48
50.0
370
    -2
100
AcDbLine
 10
3114.673057123676
 20
5141.905813694139
 30
0.0
 11
7634.673057123677
 21
5141.905813694139
 31
0.0
  0
INSERT
  5
191D6
330
1911B
100
AcDbEntity
  8
寸法
 62
     0
 48
50.0
370
    -2
100
AcDbBlockReference
  2
_DOTSMALL
 10
3114.673057123676
 20
5141.905813694139
 30
0.0
 41
100.0
 42
100.0
 43
100.0
 50
180.0
  0
INSERT
  5
191D7
330
1911B
100
AcDbEntity
  8
寸法
 62
     0
 48
50.0
370
    -2
100
AcDbBlockReference
  2
_DOTSMALL
 10
7634.673057123677
 20
5141.905813694139
 30
0.0
 41
100.0
 42
100.0
 43
100.0
  0
MTEXT
  5
191D8
330
1911B
100
AcDbEntity
  8
寸法
 62
     7
 48
50.0
100
AcDbMText
 10
5374.673057123676
 20
5241.917624717761
 30
0.0
 40
120.0
 41
0.0
 71
     5
 72
     1
  1
\A1;4520
  7
STYLE1
 73
     1
 44
1.0
1001
ACAD
1000
MTEXTBEGIN
1070
    73
1070
     1
1070
    44
1040
1.0
1070
    74
1070
     0
1000
MTEXTEND
  0
POINT
  5
191D9
330
1911B
100
AcDbEntity
  8
DEFPOINTS
 62
     0
 48
50.0
100
AcDbPoint
 10
3114.673057123676
 20
4536.270620748146
 30
0.0
  0
POINT
  5
191DA
330
1911B
100
AcDbEntity
  8
DEFPOINTS
 62
     0
 48
50.0
100
AcDbPoint
 10
7634.673057123677
 20
4536.270620748142
 30
0.0
  0
POINT
  5
191DB
330
1911B
100
AcDbEntity
  8
DEFPOINTS
 62
     0
 48
50.0
100
AcDbPoint
 10
7634.673057123677
 20
5141.905813694139
 30
0.0
  0
ENDBLK
  5
19126
330
1911B
100
AcDbEntity
  8
0
 48
50.0
100
AcDbBlockEnd
  0
BLOCK
  5
19131
330
19127
100
AcDbEntity
  8
0
 48
50.0
100
AcDbBlockBegin
  2
*D34
 70
     1
 10
0.0
 20
0.0
 30
0.0
  3
*D34
  1

  0
LINE
  5
191CA
330
19127
100
AcDbEntity
  8
寸法
 62
     0
 48
50.0
370
    -2
100
AcDbLine
 10
7584.673057123682
 20
4556.270620748146
 30
0.0
 11
7584.673057123682
 21
5001.996892480049
 31
0.0
  0
LINE
  5
191CB
330
19127
100
AcDbEntity
  8
寸法
 62
     0
 48
50.0
370
    -2
100
AcDbLine
 10
3164.673057123676
 20
4556.270620748146
 30
0.0
 11
3164.673057123676
 21
5001.996892480049
 31
0.0
  0
LINE
  5
191CC
330
19127
100
AcDbEntity
  8
寸法
 62
     0
 48
50.0
370
    -2
100
AcDbLine
 10
7584.673057123682
 20
4941.996892480048
 30
0.0
 11
3164.673057123676
 21
4941.996892480048
 31
0.0
  0
INSERT
  5
191CD
330
19127
100
AcDbEntity
  8
寸法
 62
     0
 48
50.0
370
    -2
100
AcDbBlockReference
  2
_DOTSMALL
 10
7584.673057123682
 20
4941.996892480048
 30
0.0
 41
100.0
 42
100.0
 43
100.0
  0
INSERT
  5
191CE
330
19127
100
AcDbEntity
  8
寸法
 62
     0
 48
50.0
370
    -2
100
AcDbBlockReference
  2
_DOTSMALL
 10
3164.673057123676
 20
4941.996892480048
 30
0.0
 41
100.0
 42
100.0
 43
100.0
 50
180.0
  0
MTEXT
  5
191CF
330
19127
100
AcDbEntity
  8
寸法
 62
     7
 48
50.0
100
AcDbMText
 10
5374.673057123676
 20
5042.008703503671
 30
0.0
 40
120.0
 41
0.0
 71
     5
 72
     1
  1
\A1;柱外寸法4420
  7
STYLE1
 73
     1
 44
1.0
1001
ACAD
1000
MTEXTBEGIN
1070
    73
1070
     1
1070
    44
1040
1.0
1070
    74
1070
     0
1000
MTEXTEND
  0
POINT
  5
191D0
330
19127
100
AcDbEntity
  8
DEFPOINTS
 62
     0
 48
50.0
100
AcDbPoint
 10
7584.673057123682
 20
4536.270620748146
 30
0.0
  0
POINT
  5
191D1
330
19127
100
AcDbEntity
  8
DEFPOINTS
 62
     0
 48
50.0
100
AcDbPoint
 10
3164.673057123676
 20
4536.270620748146
 30
0.0
  0
POINT
  5
191D2
330
19127
100
AcDbEntity
  8
DEFPOINTS
 62
     0
 48
50.0
100
AcDbPoint
 10
3164.673057123676
 20
4941.996892480048
 30
0.0
  0
ENDBLK
  5
19132
330
19127
100
AcDbEntity
  8
0
 48
50.0
100
AcDbBlockEnd
  0
BLOCK
  5
193A8
330
1939E
100
AcDbEntity
  8
0
 48
50.0
100
AcDbBlockBegin
  2
*D35
 70
     1
 10
0.0
 20
0.0
 30
0.0
  3
*D35
  1

  0
LINE
  5
1945D
330
1939E
100
AcDbEntity
  8
寸法
 62
     0
 48
50.0
370
    -2
100
AcDbLine
 10
7604.673057123676
 20
2161.270620748139
 30
0.0
 11
7932.216159445423
 21
2161.270620748139
 31
0.0
  0
LINE
  5
1945E
330
1939E
100
AcDbEntity
  8
寸法
 62
     0
 48
50.0
370
    -2
100
AcDbLine
 10
7604.673057123676
 20
4109.270620748139
 30
0.0
 11
7932.216159445423
 21
4109.270620748139
 31
0.0
  0
LINE
  5
1945F
330
1939E
100
AcDbEntity
  8
寸法
 62
     0
 48
50.0
370
    -2
100
AcDbLine
 10
7872.216159445423
 20
2161.270620748139
 30
0.0
 11
7872.216159445423
 21
4109.270620748139
 31
0.0
  0
INSERT
  5
19460
330
1939E
100
AcDbEntity
  8
寸法
 62
     0
 48
50.0
370
    -2
100
AcDbBlockReference
  2
_DOTSMALL
 10
7872.216159445423
 20
2161.270620748139
 30
0.0
 41
100.0
 42
100.0
 43
100.0
 50
270.0
  0
INSERT
  5
19461
330
1939E
100
AcDbEntity
  8
寸法
 62
     0
 48
50.0
370
    -2
100
AcDbBlockReference
  2
_DOTSMALL
 10
7872.216159445423
 20
4109.270620748139
 30
0.0
 41
100.0
 42
100.0
 43
100.0
 50
90.0
  0
MTEXT
  5
19462
330
1939E
100
AcDbEntity
  8
寸法
 62
     7
 48
50.0
100
AcDbMText
 10
7772.216159445422
 20
3135.27062074814
 30
0.0
 40
120.0
 41
0.0
 71
     5
 72
     1
  1
\A1;有効開口部高サ 1948
  7
STYLE1
 11
0.0000000000000001
 21
1.0
 31
0.0
 73
     1
 44
1.0
1001
ACAD
1000
MTEXTBEGIN
1070
    73
1070
     1
1070
    44
1040
1.0
1070
    74
1070
     0
1000
MTEXTEND
  0
POINT
  5
19463
330
1939E
100
AcDbEntity
  8
DEFPOINTS
 62
     0
 48
50.0
100
AcDbPoint
 10
7584.673057123676
 20
2161.270620748139
 30
0.0
  0
POINT
  5
19464
330
1939E
100
AcDbEntity
  8
DEFPOINTS
 62
     0
 48
50.0
100
AcDbPoint
 10
7584.673057123676
 20
4109.270620748139
 30
0.0
  0
POINT
  5
19465
330
1939E
100
AcDbEntity
  8
DEFPOINTS
 62
     0
 48
50.0
100
AcDbPoint
 10
7872.216159445423
 20
4109.270620748139
 30
0.0
  0
ENDBLK
  5
193A9
330
1939E
100
AcDbEntity
  8
0
 48
50.0
100
AcDbBlockEnd
  0
BLOCK
  5
193B6
330
193AA
100
AcDbEntity
  8
0
 48
50.0
100
AcDbBlockBegin
  2
*D36
 70
     1
 10
0.0
 20
0.0
 30
0.0
  3
*D36
  1

  0
LINE
  5
194D7
330
193AA
100
AcDbEntity
  8
寸法
 62
     0
 48
50.0
370
    -2
100
AcDbLine
 10
7604.673057123676
 20
4109.270620748139
 30
0.0
 11
7932.216159445423
 21
4109.270620748139
 31
0.0
  0
LINE
  5
194D8
330
193AA
100
AcDbEntity
  8
寸法
 62
     0
 48
50.0
370
    -2
100
AcDbLine
 10
7604.673057123675
 20
4136.270620748139
 30
0.0
 11
7932.216159445423
 21
4136.270620748139
 31
0.0
  0
LINE
  5
194D9
330
193AA
100
AcDbEntity
  8
寸法
 62
     0
 48
50.0
370
    -2
100
AcDbLine
 10
7872.216159445423
 20
4109.270620748139
 30
0.0
 11
7872.216159445423
 21
4009.270620748139
 31
0.0
  0
LINE
  5
194DA
330
193AA
100
AcDbEntity
  8
寸法
 62
     0
 48
50.0
370
    -2
100
AcDbLine
 10
7872.216159445423
 20
4136.270620748139
 30
0.0
 11
7872.216159445423
 21
4236.270620748139
 31
0.0
  0
MTEXT
  5
194DB
330
193AA
100
AcDbEntity
  8
寸法
 62
     7
 48
50.0
100
AcDbMText
 10
8012.385982691789
 20
4137.237820587798
 30
0.0
 40
120.0
 41
0.0
 71
     5
 72
     1
  1
\A1;27
  7
STYLE1
 11
0.0000000000000001
 21
1.0
 31
0.0
 73
     1
 44
1.0
1001
ACAD
1000
MTEXTBEGIN
1070
    73
1070
     1
1070
    44
1040
1.0
1070
    74
1070
     0
1000
MTEXTEND
  0
LINE
  5
194DC
330
193AA
100
AcDbEntity
  8
寸法
 62
     0
 48
50.0
370
    -2
100
AcDbLine
 10
7872.216159445423
 20
4109.270620748139
 30
0.0
 11
7872.216159445423
 21
4136.270620748139
 31
0.0
  0
INSERT
  5
194DD
330
193AA
100
AcDbEntity
  8
寸法
 62
     0
 48
50.0
370
    -2
100
AcDbBlockReference
  2
_DOTSMALL
 10
7872.216159445423
 20
4109.270620748139
 30
0.0
 41
100.0
 42
100.0
 43
100.0
 50
90.0
  0
INSERT
  5
194DE
330
193AA
100
AcDbEntity
  8
寸法
 62
     0
 48
50.0
370
    -2
100
AcDbBlockReference
  2
_DOTSMALL
 10
7872.216159445423
 20
4136.270620748139
 30
0.0
 41
100.0
 42
100.0
 43
100.0
 50
270.0
  0
POINT
  5
194DF
330
193AA
100
AcDbEntity
  8
DEFPOINTS
 62
     0
 48
50.0
100
AcDbPoint
 10
7584.673057123676
 20
4109.270620748139
 30
0.0
  0
POINT
  5
194E0
330
193AA
100
AcDbEntity
  8
DEFPOINTS
 62
     0
 48
50.0
100
AcDbPoint
 10
7584.673057123675
 20
4136.270620748139
 30
0.0
  0
POINT
  5
194E1
330
193AA
100
AcDbEntity
  8
DEFPOINTS
 62
     0
 48
50.0
100
AcDbPoint
 10
7872.216159445423
 20
4136.270620748139
 30
0.0
  0
ENDBLK
  5
193B7
330
193AA
100
AcDbEntity
  8
0
 48
50.0
100
AcDbBlockEnd
  0
BLOCK
  5
193C3
330
193B8
100
AcDbEntity
  8
0
 48
50.0
100
AcDbBlockBegin
  2
*D37
 70
     1
 10
0.0
 20
0.0
 30
0.0
  3
*D37
  1

  0
LINE
  5
194CD
330
193B8
100
AcDbEntity
  8
寸法
 62
     0
 48
50.0
370
    -2
100
AcDbLine
 10
7604.673057123675
 20
4136.270620748139
 30
0.0
 11
7932.216159445424
 21
4136.270620748139
 31
0.0
  0
LINE
  5
194CE
330
193B8
100
AcDbEntity
  8
寸法
 62
     0
 48
50.0
370
    -2
100
AcDbLine
 10
7604.673057123676
 20
4301.270620748138
 30
0.0
 11
7932.216159445424
 21
4301.270620748138
 31
0.0
  0
LINE
  5
194CF
330
193B8
100
AcDbEntity
  8
寸法
 62
     0
 48
50.0
370
    -2
100
AcDbLine
 10
7872.216159445423
 20
4136.270620748139
 30
0.0
 11
7872.216159445423
 21
4301.270620748138
 31
0.0
  0
LINE
  5
194D0
330
193B8
100
AcDbEntity
  8
寸法
 62
     0
 48
50.0
370
    -2
100
AcDbLine
 10
7872.216159445423
 20
4301.270620748138
 30
0.0
 11
7872.216159445423
 21
4678.241183496615
 31
0.0
  0
INSERT
  5
194D1
330
193B8
100
AcDbEntity
  8
寸法
 62
     0
 48
50.0
370
    -2
100
AcDbBlockReference
  2
_DOTSMALL
 10
7872.216159445423
 20
4136.270620748139
 30
0.0
 41
100.0
 42
100.0
 43
100.0
 50
270.0
  0
INSERT
  5
194D2
330
193B8
100
AcDbEntity
  8
寸法
 62
     0
 48
50.0
370
    -2
100
AcDbBlockReference
  2
_DOTSMALL
 10
7872.216159445423
 20
4301.270620748138
 30
0.0
 41
100.0
 42
100.0
 43
100.0
 50
90.0
  0
MTEXT
  5
194D3
330
193B8
100
AcDbEntity
  8
寸法
 62
     7
 48
50.0
100
AcDbMText
 10
7772.216159445424
 20
4539.755902122378
 30
0.0
 40
120.0
 41
0.0
 71
     5
 72
     1
  1
\A1;165
  7
STYLE1
 11
0.0000000000000001
 21
1.0
 31
0.0
 73
     1
 44
1.0
1001
ACAD
1000
MTEXTBEGIN
1070
    73
1070
     1
1070
    44
1040
1.0
1070
    74
1070
     0
1000
MTEXTEND
  0
POINT
  5
194D4
330
193B8
100
AcDbEntity
  8
DEFPOINTS
 62
     0
 48
50.0
100
AcDbPoint
 10
7584.673057123675
 20
4136.270620748139
 30
0.0
  0
POINT
  5
194D5
330
193B8
100
AcDbEntity
  8
DEFPOINTS
 62
     0
 48
50.0
100
AcDbPoint
 10
7584.673057123676
 20
4301.270620748138
 30
0.0
  0
POINT
  5
194D6
330
193B8
100
AcDbEntity
  8
DEFPOINTS
 62
     0
 48
50.0
100
AcDbPoint
 10
7872.216159445423
 20
4301.270620748138
 30
0.0
  0
ENDBLK
  5
193C4
330
193B8
100
AcDbEntity
  8
0
 48
50.0
100
AcDbBlockEnd
  0
ENDSEC
  0
SECTION
  2
ENTITIES
  0
MTEXT
  5
763F
330
747D
100
AcDbEntity
  8
0
100
AcDbMText
 10
302.846345836809
 20
280.1983726409901
 30
0.0
 40
3.5
 41
5.323721266742722
 71
     1
 72
     5
  1

  7
MSMINCHO
 73
     1
 44
1.0
1001
ACAD
1000
MTEXTBEGIN
1070
    73
1070
     1
1070
    44
1040
1.0
1070
    74
1070
     0
1000
MTEXTEND
  0
LINE
  5
10B57
330
747D
100
AcDbEntity
  8
補助
  6
PHANTOM
 62
   230
 48
50.0
100
AcDbLine
 10
139.9999999999995
 20
11409.6
 30
0.0
 11
16307.2
 21
11409.6
 31
0.0
  0
LINE
  5
10B59
330
747D
100
AcDbEntity
  8
仕様書枠
  6
Continuous
 48
50.0
100
AcDbLine
 10
13107.2
 20
1200.0
 30
0.0
 11
13107.2
 21
-0.0000000000000729
 31
0.0
  0
LINE
  5
10B5C
330
747D
100
AcDbEntity
  8
仕様書枠
 48
50.0
100
AcDbLine
 10
16307.2
 20
1200.0
 30
0.0
 11
16307.2
 21
-0.0000000000000909
 31
0.0
  0
LINE
  5
10B5D
330
747D
100
AcDbEntity
  8
仕様書枠
 48
50.0
100
AcDbLine
 10
140.0
 20
0.0
 30
0.0
 11
16307.2
 21
-0.0000000000000909
 31
0.0
  0
LINE
  5
10B5E
330
747D
100
AcDbEntity
  8
補助
  6
PHANTOM
 62
   230
 48
50.0
100
AcDbLine
 10
16307.2
 20
11409.6
 30
0.0
 11
16307.2
 21
1200.0
 31
0.0
  0
LINE
  5
10B6C
330
747D
100
AcDbEntity
  8
仕様書枠
 48
50.0
100
AcDbLine
 10
13107.2
 20
1200.0
 30
0.0
 11
16307.2
 21
1200.0
 31
0.0
  0
LINE
  5
10B6D
330
747D
100
AcDbEntity
  8
補助
  6
PHANTOM
 62
   230
 48
50.0
100
AcDbLine
 10
13107.2
 20
11409.6
 30
0.0
 11
13107.2
 21
4800.0
 31
0.0
  0
LINE
  5
10B6F
330
747D
100
AcDbEntity
  8
補助
  6
PHANTOM
 62
   230
 48
50.0
100
AcDbLine
 10
13107.2
 20
4800.0
 30
0.0
 11
16307.2
 21
4800.0
 31
0.0
  0
LINE
  5
10B72
330
747D
100
AcDbEntity
  8
文字
 62
     7
 48
50.0
100
AcDbLine
 10
13187.2
 20
400.0
 30
0.0
 11
16227.2
 21
400.0
 31
0.0
  0
TEXT
  5
10B73
330
747D
100
AcDbEntity
  8
文字
 62
     7
 48
50.0
100
AcDbText
 10
13162.9790565769
 20
895.0906074299405
 30
0.0
 40
200.0
  1
外 形 図
  7
STYLE2
100
AcDbText
  0
TEXT
  5
10B74
330
747D
100
AcDbEntity
  8
文字
 62
     7
 48
50.0
100
AcDbText
 10
13201.43669998441
 20
477.2740661031255
 30
0.0
 40
160.0
  1
機種名
  7
STYLE2
100
AcDbText
  0
TEXT
  5
10B75
330
747D
100
AcDbEntity
  8
文字
 62
     7
 48
50.0
100
AcDbText
 10
13209.4053442172
 20
228.5435242569016
 30
0.0
 40
100.0
  1
○有効開口寸法 ： 2004×1948(mm)
  7
STYLE2
100
AcDbText
  0
TEXT
  5
10B79
330
747D
100
AcDbEntity
  8
文字
 62
     7
 48
50.0
100
AcDbText
 10
14524.131837222
 20
1031.557706291228
 30
0.0
 40
100.0
  1
NO.29      <縮尺> S=1/40
  7
STYLE2
100
AcDbText
  0
LINE
  5
10B7B
330
747D
100
AcDbEntity
  8
仕様書枠
 48
50.0
100
AcDbLine
 10
13107.2
 20
800.0
 30
0.0
 11
14251.2
 21
800.0
 31
0.0
  0
LINE
  5
10B88
330
747D
100
AcDbEntity
  8
仕様書枠
  6
Continuous
 48
50.0
100
AcDbLine
 10
14251.2
 20
1200.0
 30
0.0
 11
14251.2
 21
800.0
 31
0.0
  0
LINE
  5
127A8
330
747D
100
AcDbEntity
  8
部品1
100
AcDbLine
 10
2175.903465777292
 20
2191.174431315804
 30
0.0
 11
2325.903465777292
 21
2191.174431315804
 31
0.0
  0
LINE
  5
127A9
330
747D
100
AcDbEntity
  8
部品1
100
AcDbLine
 10
2250.903465777292
 20
2061.270620748139
 30
0.0
 11
2175.903465777292
 21
2191.174431315804
 31
0.0
  0
TEXT
  5
127AA
330
747D
100
AcDbEntity
  8
部品1
100
AcDbText
 10
2354.008407902066
 20
2097.37752435404
 30
0.0
 40
125.0
  1
G.L
  7
MSGOTHIC
100
AcDbText
  0
LINE
  5
127AB
330
747D
100
AcDbEntity
  8
部品1
100
AcDbLine
 10
2325.903465777292
 20
2191.174431315804
 30
0.0
 11
2250.903465777292
 21
2061.270620748139
 31
0.0
  0
LINE
  5
13C1F
330
747D
100
AcDbEntity
  8
部品1
100
AcDbLine
 10
3164.673057123676
 20
4395.270620748146
 30
0.0
 11
3164.673057123677
 21
2061.270620748139
 31
0.0
  0
LINE
  5
13CFC
330
747D
100
AcDbEntity
  8
部品1
100
AcDbLine
 10
7529.673057123677
 20
4136.270620748138
 30
0.0
 11
7529.673057123675
 21
2161.270620748139
 31
0.0
  0
LINE
  5
13CFE
330
747D
100
AcDbEntity
  8
部品1
100
AcDbLine
 10
3219.673057123677
 20
4136.270620748137
 30
0.0
 11
3219.673057123677
 21
2161.270620748139
 31
0.0
  0
LINE
  5
13D18
330
747D
100
AcDbEntity
  8
部品1
100
AcDbLine
 10
7584.673057123676
 20
4395.270620748147
 30
0.0
 11
7584.673057123676
 21
2061.270620748139
 31
0.0
  0
LINE
  5
146B2
330
747D
100
AcDbEntity
  8
破線
 48
5.0
100
AcDbLine
 10
7584.673057123676
 20
2061.270620748139
 30
0.0
 11
7584.673057123676
 21
1811.270620748139
 31
0.0
  0
LINE
  5
146B3
330
747D
100
AcDbEntity
  8
破線
 48
5.0
100
AcDbLine
 10
3164.673057123677
 20
2061.270620748139
 30
0.0
 11
3164.673057123675
 21
1811.270620748139
 31
0.0
  0
TEXT
  5
149A1
330
747D
100
AcDbEntity
  8
部品1
100
AcDbText
 10
5083.463127747398
 20
1218.377091529614
 30
0.0
 40
135.0
  1
正面図
  7
MSGOTHIC
100
AcDbText
  0
LWPOLYLINE
  5
149A2
330
747D
100
AcDbEntity
  8
部品1
100
AcDbPolyline
 90
        4
 70
     1
 43
0.0
 10
4992.937724009443
 20
1411.270620748139
 10
4992.937724009443
 20
1171.378299202606
 10
5756.408390237882
 20
1171.378299202606
 10
5756.408390237882
 20
1411.270620748139
  0
TEXT
  5
14E88
330
747D
100
AcDbEntity
  8
部品1
100
AcDbText
 10
5082.857333838481
 20
5802.378858851012
 30
0.0
 40
135.0
  1
平面図
  7
MSGOTHIC
100
AcDbText
  0
LWPOLYLINE
  5
14E89
330
747D
100
AcDbEntity
  8
部品1
100
AcDbPolyline
 90
        4
 70
     1
 43
0.0
 10
4992.937724009443
 20
5995.272388069536
 10
4992.937724009443
 20
5755.380066524003
 10
5756.408390237883
 20
5755.380066524003
 10
5756.408390237883
 20
5995.272388069536
  0
TEXT
  5
15550
330
747D
100
AcDbEntity
  8
文字
 62
     7
 48
50.0
100
AcDbText
 10
14663.3224864739
 20
871.9640646083623
 30
0.0
 40
100.0
  1
～一般型・多雪地型～
  7
STYLE2
100
AcDbText
  0
LINE
  5
15CE5
330
747D
100
AcDbEntity
  8
破線
 48
5.0
100
AcDbLine
 10
7529.673057123675
 20
2161.270620748139
 30
0.0
 11
7529.673057123677
 21
1811.270620748139
 31
0.0
  0
LINE
  5
15CE6
330
747D
100
AcDbEntity
  8
破線
 48
5.0
100
AcDbLine
 10
3219.673057123677
 20
2161.270620748139
 30
0.0
 11
3219.673057123675
 21
1811.270620748139
 31
0.0
  0
LINE
  5
15CE7
330
747D
100
AcDbEntity
  8
破線
 48
5.0
100
AcDbLine
 10
7584.673057123675
 20
1811.270620748139
 30
0.0
 11
7529.673057123677
 21
1811.270620748139
 31
0.0
  0
LINE
  5
15CE8
330
747D
100
AcDbEntity
  8
破線
 48
5.0
100
AcDbLine
 10
3219.673057123675
 20
1811.270620748146
 30
0.0
 11
3164.673057123675
 21
1811.270620748146
 31
0.0
  0
LINE
  5
15CE9
330
747D
100
AcDbEntity
  8
部品1
100
AcDbLine
 10
3267.673057123677
 20
4136.270620748138
 30
0.0
 11
3267.673057123677
 21
2161.270620748139
 31
0.0
  0
LINE
  5
15CEA
330
747D
100
AcDbEntity
  8
破線
 48
5.0
100
AcDbLine
 10
3267.673057123677
 20
2161.270620748139
 30
0.0
 11
3267.673057123675
 21
1911.270620748144
 31
0.0
  0
LINE
  5
15CEB
330
747D
100
AcDbEntity
  8
部品1
100
AcDbLine
 10
7481.673057123678
 20
4136.270620748139
 30
0.0
 11
7481.673057123675
 21
2161.270620748139
 31
0.0
  0
LINE
  5
15CEC
330
747D
100
AcDbEntity
  8
破線
 48
5.0
100
AcDbLine
 10
7481.673057123675
 20
2161.270620748139
 30
0.0
 11
7481.673057123678
 21
1911.270620748139
 31
0.0
  0
LINE
  5
15CED
330
747D
100
AcDbEntity
  8
破線
 48
5.0
100
AcDbLine
 10
7529.673057123679
 20
1911.270620748139
 30
0.0
 11
7481.673057123678
 21
1911.270620748139
 31
0.0
  0
LINE
  5
15CEE
330
747D
100
AcDbEntity
  8
破線
 48
5.0
100
AcDbLine
 10
3267.673057123675
 20
1911.270620748144
 30
0.0
 11
3219.673057123675
 21
1911.270620748144
 31
0.0
  0
LINE
  5
15D20
330
747D
100
AcDbEntity
  8
細線
100
AcDbLine
 10
5477.673057123674
 20
3796.270620748139
 30
0.0
 11
7481.673057123675
 21
3796.270620748139
 31
0.0
  0
LINE
  5
15D21
330
747D
100
AcDbEntity
  8
細線
100
AcDbLine
 10
5477.673057123674
 20
3861.270620748139
 30
0.0
 11
7481.673057123675
 21
3861.270620748139
 31
0.0
  0
LINE
  5
15D22
330
747D
100
AcDbEntity
  8
細線
100
AcDbLine
 10
5477.673057123674
 20
3926.270620748139
 30
0.0
 11
7481.673057123675
 21
3926.270620748139
 31
0.0
  0
LINE
  5
15D23
330
747D
100
AcDbEntity
  8
細線
100
AcDbLine
 10
5477.673057123674
 20
3406.270620748139
 30
0.0
 11
7481.673057123675
 21
3406.270620748139
 31
0.0
  0
LINE
  5
15D24
330
747D
100
AcDbEntity
  8
細線
100
AcDbLine
 10
5477.673057123674
 20
3471.270620748139
 30
0.0
 11
7481.673057123675
 21
3471.270620748139
 31
0.0
  0
LINE
  5
15D25
330
747D
100
AcDbEntity
  8
細線
100
AcDbLine
 10
5477.673057123674
 20
3536.270620748139
 30
0.0
 11
7481.673057123675
 21
3536.270620748139
 31
0.0
  0
LINE
  5
15D26
330
747D
100
AcDbEntity
  8
細線
100
AcDbLine
 10
5477.673057123674
 20
3601.270620748139
 30
0.0
 11
7481.673057123675
 21
3601.270620748139
 31
0.0
  0
LINE
  5
15D27
330
747D
100
AcDbEntity
  8
細線
100
AcDbLine
 10
5477.673057123674
 20
3666.270620748139
 30
0.0
 11
7481.673057123675
 21
3666.270620748139
 31
0.0
  0
LINE
  5
15D28
330
747D
100
AcDbEntity
  8
細線
100
AcDbLine
 10
5477.673057123674
 20
3731.270620748139
 30
0.0
 11
7481.673057123675
 21
3731.270620748139
 31
0.0
  0
LINE
  5
15D29
330
747D
100
AcDbEntity
  8
細線
100
AcDbLine
 10
5477.673057123674
 20
2756.270620748139
 30
0.0
 11
7481.673057123675
 21
2756.270620748139
 31
0.0
  0
LINE
  5
15D2A
330
747D
100
AcDbEntity
  8
細線
100
AcDbLine
 10
5477.673057123674
 20
2821.270620748139
 30
0.0
 11
7481.673057123675
 21
2821.270620748139
 31
0.0
  0
LINE
  5
15D2B
330
747D
100
AcDbEntity
  8
細線
100
AcDbLine
 10
5477.673057123674
 20
2886.270620748139
 30
0.0
 11
7481.673057123675
 21
2886.270620748139
 31
0.0
  0
LINE
  5
15D2C
330
747D
100
AcDbEntity
  8
細線
100
AcDbLine
 10
5477.673057123674
 20
2951.270620748139
 30
0.0
 11
7481.673057123675
 21
2951.270620748139
 31
0.0
  0
LINE
  5
15D2D
330
747D
100
AcDbEntity
  8
細線
100
AcDbLine
 10
5477.673057123674
 20
3016.270620748139
 30
0.0
 11
7481.673057123675
 21
3016.270620748139
 31
0.0
  0
LINE
  5
15D2E
330
747D
100
AcDbEntity
  8
細線
100
AcDbLine
 10
5477.673057123674
 20
3081.270620748139
 30
0.0
 11
7481.673057123675
 21
3081.270620748139
 31
0.0
  0
LINE
  5
15D2F
330
747D
100
AcDbEntity
  8
細線
100
AcDbLine
 10
5477.673057123674
 20
3146.270620748139
 30
0.0
 11
7481.673057123675
 21
3146.270620748139
 31
0.0
  0
LINE
  5
15D30
330
747D
100
AcDbEntity
  8
細線
100
AcDbLine
 10
5477.673057123674
 20
3211.270620748139
 30
0.0
 11
7481.673057123675
 21
3211.270620748139
 31
0.0
  0
LINE
  5
15D31
330
747D
100
AcDbEntity
  8
細線
100
AcDbLine
 10
5477.673057123674
 20
3276.270620748139
 30
0.0
 11
7481.673057123675
 21
3276.270620748139
 31
0.0
  0
LINE
  5
15D32
330
747D
100
AcDbEntity
  8
細線
100
AcDbLine
 10
5477.673057123674
 20
3341.270620748139
 30
0.0
 11
7481.673057123675
 21
3341.270620748139
 31
0.0
  0
LINE
  5
15D33
330
747D
100
AcDbEntity
  8
細線
100
AcDbLine
 10
5477.673057123674
 20
4056.270620748139
 30
0.0
 11
7481.673057123675
 21
4056.270620748139
 31
0.0
  0
LINE
  5
15D34
330
747D
100
AcDbEntity
  8
細線
100
AcDbLine
 10
5477.673057123674
 20
4121.270620748139
 30
0.0
 11
7481.673057123675
 21
4121.270620748139
 31
0.0
  0
LINE
  5
15D35
330
747D
100
AcDbEntity
  8
細線
100
AcDbLine
 10
5477.673057123674
 20
3991.270620748139
 30
0.0
 11
7481.673057123675
 21
3991.270620748139
 31
0.0
  0
LINE
  5
15D36
330
747D
100
AcDbEntity
  8
細線
100
AcDbLine
 10
5477.673057123674
 20
2171.270620748139
 30
0.0
 11
7481.673057123675
 21
2171.270620748139
 31
0.0
  0
LINE
  5
15D37
330
747D
100
AcDbEntity
  8
細線
100
AcDbLine
 10
5477.673057123674
 20
2236.270620748139
 30
0.0
 11
7481.673057123675
 21
2236.270620748139
 31
0.0
  0
LINE
  5
15D38
330
747D
100
AcDbEntity
  8
細線
100
AcDbLine
 10
5477.673057123674
 20
2301.270620748139
 30
0.0
 11
7481.673057123675
 21
2301.270620748139
 31
0.0
  0
LINE
  5
15D39
330
747D
100
AcDbEntity
  8
細線
100
AcDbLine
 10
5477.673057123674
 20
2366.270620748139
 30
0.0
 11
7481.673057123675
 21
2366.270620748139
 31
0.0
  0
LINE
  5
15D3A
330
747D
100
AcDbEntity
  8
細線
100
AcDbLine
 10
5477.673057123674
 20
2431.270620748139
 30
0.0
 11
7481.673057123675
 21
2431.270620748139
 31
0.0
  0
LINE
  5
15D3B
330
747D
100
AcDbEntity
  8
細線
100
AcDbLine
 10
5477.673057123674
 20
2496.270620748139
 30
0.0
 11
7481.673057123675
 21
2496.270620748139
 31
0.0
  0
LINE
  5
15D3C
330
747D
100
AcDbEntity
  8
細線
100
AcDbLine
 10
5477.673057123674
 20
2561.270620748139
 30
0.0
 11
7481.673057123675
 21
2561.270620748139
 31
0.0
  0
LINE
  5
15D3D
330
747D
100
AcDbEntity
  8
細線
100
AcDbLine
 10
5477.673057123674
 20
2626.270620748139
 30
0.0
 11
7481.673057123675
 21
2626.270620748139
 31
0.0
  0
LINE
  5
15D3E
330
747D
100
AcDbEntity
  8
細線
100
AcDbLine
 10
5477.673057123674
 20
2691.270620748139
 30
0.0
 11
7481.673057123675
 21
2691.270620748139
 31
0.0
  0
LINE
  5
15D3F
330
747D
100
AcDbEntity
  8
細線
100
AcDbLine
 10
7481.673057123678
 20
2171.270620748139
 30
0.0
 11
5477.673057123671
 21
2171.270620748139
 31
0.0
  0
CIRCLE
  5
16043
330
747D
100
AcDbEntity
  8
細線
 48
50.0
100
AcDbCircle
 10
6479.673057123675
 20
3048.770620748139
 30
0.0
 40
18.0
  0
ARC
  5
16045
330
747D
100
AcDbEntity
  8
細線
 48
50.0
100
AcDbCircle
 10
6779.673057123675
 20
2723.770620748139
 30
0.0
 40
15.0
100
AcDbArc
 50
270.0
 51
90.0
  0
ARC
  5
16046
330
747D
100
AcDbEntity
  8
細線
 48
50.0
100
AcDbCircle
 10
6679.673057123675
 20
2723.770620748139
 30
0.0
 40
15.0
100
AcDbArc
 50
90.0
 51
270.0
  0
LINE
  5
16047
330
747D
100
AcDbEntity
  8
細線
 48
50.0
100
AcDbLine
 10
6679.673057123675
 20
2738.770620748139
 30
0.0
 11
6779.673057123675
 21
2738.770620748139
 31
0.0
  0
LINE
  5
16048
330
747D
100
AcDbEntity
  8
細線
 48
50.0
100
AcDbLine
 10
6779.673057123675
 20
2708.770620748139
 30
0.0
 11
6679.673057123675
 21
2708.770620748139
 31
0.0
  0
LINE
  5
16049
330
747D
100
AcDbEntity
  8
細線
 48
50.0
100
AcDbLine
 10
6279.673057123675
 20
2708.770620748139
 30
0.0
 11
6179.673057123675
 21
2708.770620748139
 31
0.0
  0
LINE
  5
1604A
330
747D
100
AcDbEntity
  8
細線
 48
50.0
100
AcDbLine
 10
6179.673057123675
 20
2738.770620748139
 30
0.0
 11
6279.673057123675
 21
2738.770620748139
 31
0.0
  0
ARC
  5
1604B
330
747D
100
AcDbEntity
  8
細線
 48
50.0
100
AcDbCircle
 10
6279.673057123675
 20
2723.770620748139
 30
0.0
 40
15.0
100
AcDbArc
 50
270.0
 51
90.0
  0
ARC
  5
1604C
330
747D
100
AcDbEntity
  8
細線
 48
50.0
100
AcDbCircle
 10
6179.673057123675
 20
2723.770620748139
 30
0.0
 40
15.0
100
AcDbArc
 50
90.0
 51
270.0
  0
DIMENSION
  5
162CD
330
747D
100
AcDbEntity
  8
寸法
100
AcDbDimension
  2
*D1
 10
8232.099402858089
 20
7197.497424545952
 30
0.0
 11
8132.087591834467
 21
8457.497424545961
 31
0.0
 70
    32
  1
6X420=<>
 71
     5
 42
2520.000000000015
  3
INABA_S40G
100
AcDbAlignedDimension
 13
7584.673057123684
 23
9717.497424545967
 33
0.0
 14
7584.673057123659
 24
7197.497424545952
 34
0.0
 50
90.0
100
AcDbRotatedDimension
1001
ACAD
1000
DSTYLE
1002
{
1002
}
  0
DIMENSION
  5
162CE
330
747D
100
AcDbEntity
  8
寸法
100
AcDbDimension
  2
*D2
 10
8232.09940285807
 20
7142.497424545957
 30
0.0
 11
8232.099402858068
 21
6764.635957641094
 31
0.0
 70
   160
 71
     5
 42
54.99999999999636
  3
INABA_S40G
100
AcDbAlignedDimension
 13
7584.673057123659
 23
7197.497424545952
 33
0.0
 14
7584.673057123659
 24
7142.497424545957
 34
0.0
 50
90.0
100
AcDbRotatedDimension
1001
ACAD
1000
DSTYLE
1002
{
1002
}
  0
DIMENSION
  5
162CF
330
747D
100
AcDbEntity
  8
寸法
100
AcDbDimension
  2
*D3
 10
8232.099402858095
 20
9717.497424545967
 30
0.0
 11
8232.099402858095
 21
10080.9827059202
 31
0.0
 70
   160
 71
     5
 42
54.99999999999636
  3
INABA_S40G
100
AcDbAlignedDimension
 13
7584.673057123684
 23
9772.497424545964
 33
0.0
 14
7584.673057123684
 24
9717.497424545967
 34
0.0
 50
90.0
100
AcDbRotatedDimension
1001
ACAD
1000
DSTYLE
1002
{
1002
}
  0
DIMENSION
  5
162D0
330
747D
100
AcDbEntity
  8
寸法
100
AcDbDimension
  2
*D4
 10
8597.206344597729
 20
7142.497424545957
 30
0.0
 11
8497.194533574106
 21
8457.497424545961
 31
0.0
 70
    32
 71
     5
 42
2630.000000000007
  3
INABA_S40G
100
AcDbAlignedDimension
 13
7584.673057123684
 23
9772.497424545964
 33
0.0
 14
7584.673057123659
 24
7142.497424545957
 34
0.0
 50
90.0
100
AcDbRotatedDimension
1001
ACAD
1000
DSTYLE
1002
{
1002
}
  0
LINE
  5
162DC
330
747D
100
AcDbEntity
  8
部品1
100
AcDbLine
 10
7556.673057123667
 20
9744.497424545963
 30
0.0
 11
7556.67305712366
 21
7197.497424545952
 31
0.0
  0
LINE
  5
162DD
330
747D
100
AcDbEntity
  8
部品1
100
AcDbLine
 10
3192.673057123659
 20
7197.497424545821
 30
0.0
 11
3192.67305712367
 21
9744.497424545871
 31
0.0
  0
LINE
  5
162DE
330
747D
100
AcDbEntity
  8
部品1
100
AcDbLine
 10
7584.673057123684
 20
9772.497424545964
 30
0.0
 11
7584.673057123659
 21
7142.497424545957
 31
0.0
  0
LINE
  5
162DF
330
747D
100
AcDbEntity
  8
部品1
100
AcDbLine
 10
3164.673057123648
 20
9772.497424545838
 30
0.0
 11
3164.673057123677
 21
7142.497424545826
 31
0.0
  0
DIMENSION
  5
162E4
330
747D
100
AcDbEntity
  8
寸法
 48
50.0
100
AcDbDimension
  2
*D5
 10
5477.673057123677
 20
6608.0666537797
 30
0.0
 11
6479.673057123668
 21
6708.078464803323
 31
0.0
 70
    32
  1
有効開口部間口 <>
 71
     5
 42
2003.999999999982
  3
INABA_S40G
100
AcDbAlignedDimension
 13
7481.673057123659
 23
7168.497424545865
 33
0.0
 14
5477.673057123677
 24
7168.497424545865
 34
0.0
100
AcDbRotatedDimension
1001
ACAD
1000
DSTYLE
1002
{
1070
    75
1070
     1
1070
   279
1070
     2
1002
}
  0
LINE
  5
162E6
330
747D
100
AcDbEntity
  8
部品1
 48
50.0
100
AcDbLine
 10
5441.673057123676
 20
7187.997424545864
 30
0.0
 11
7517.67305712366
 21
7187.997424545864
 31
0.0
  0
DIMENSION
  5
162E7
330
747D
100
AcDbEntity
  8
寸法
100
AcDbDimension
  2
*D6
 10
7584.673057123648
 20
6161.893658188827
 30
0.0
 11
5374.673057123662
 21
6261.905469212448
 31
0.0
 70
    32
 71
     5
 42
4419.999999999971
  3
INABA_S40G
100
AcDbAlignedDimension
 13
3164.673057123677
 23
7142.497424545862
 33
0.0
 14
7584.673057123648
 24
7142.497424545957
 34
0.0
100
AcDbRotatedDimension
1001
ACAD
1000
DSTYLE
1002
{
1002
}
  0
LINE
  5
162E8
330
747D
100
AcDbEntity
  8
部品1
100
AcDbLine
 10
3219.673057123654
 20
9717.497424545888
 30
0.0
 11
3219.673057123676
 21
7207.497424545863
 31
0.0
  0
LINE
  5
162E9
330
747D
100
AcDbEntity
  8
部品1
100
AcDbLine
 10
3244.673057123655
 20
9717.497424545886
 30
0.0
 11
3244.673057123676
 21
7207.497424545863
 31
0.0
  0
DIMENSION
  5
162EA
330
747D
100
AcDbEntity
  8
寸法
 48
50.0
100
AcDbDimension
  2
*D7
 10
3164.673057123677
 20
6608.0666537797
 30
0.0
 11
2856.187775749438
 21
6608.0666537797
 31
0.0
 70
   160
 71
     5
 42
54.99999999999636
  3
INABA_S40G
100
AcDbAlignedDimension
 13
3219.673057123673
 23
7142.497424545864
 33
0.0
 14
3164.673057123677
 24
7142.497424545862
 34
0.0
100
AcDbRotatedDimension
1001
ACAD
1000
DSTYLE
1002
{
1002
}
  0
DIMENSION
  5
162EB
330
747D
100
AcDbEntity
  8
寸法
 48
50.0
100
AcDbDimension
  2
*D8
 10
5429.673057123673
 20
6608.0666537797
 30
0.0
 11
5590.575028123734
 21
6708.0666537797
 31
0.0
 70
   160
 71
     5
 42
48.00000000000363
  3
INABA_S40G
100
AcDbAlignedDimension
 13
5477.673057123677
 23
7168.497424545865
 33
0.0
 14
5429.673057123673
 24
7142.497424545864
 34
0.0
100
AcDbRotatedDimension
1001
ACAD
1000
DSTYLE
1002
{
1070
   279
1070
     2
1002
}
  0
LINE
  5
162EC
330
747D
100
AcDbEntity
  8
部品1
100
AcDbLine
 10
3219.673057123672
 20
7142.497424545864
 30
0.0
 11
3164.673057123677
 21
7142.497424545862
 31
0.0
  0
LINE
  5
162ED
330
747D
100
AcDbEntity
  8
部品1
 48
50.0
100
AcDbLine
 10
3219.673057123677
 20
7178.497424545864
 30
0.0
 11
3196.673057123677
 21
7178.497424545864
 31
0.0
  0
LINE
  5
162EE
330
747D
100
AcDbEntity
  8
部品1
 48
50.0
100
AcDbLine
 10
3229.673057123676
 20
7168.497424545865
 30
0.0
 11
3219.673057123677
 21
7147.497424545864
 31
0.0
  0
LINE
  5
162EF
330
747D
100
AcDbEntity
  8
部品1
 48
50.0
100
AcDbLine
 10
3219.673057123677
 20
7207.497424545863
 30
0.0
 11
3219.673057123673
 21
7142.497424545864
 31
0.0
  0
LINE
  5
162F0
330
747D
100
AcDbEntity
  8
部品1
 48
50.0
100
AcDbLine
 10
3267.673057123677
 20
7168.497424545865
 30
0.0
 11
3267.673057123677
 21
7177.497424545865
 31
0.0
  0
LINE
  5
162F1
330
747D
100
AcDbEntity
  8
部品1
 48
50.0
100
AcDbLine
 10
3267.673057123677
 20
7207.497424545865
 30
0.0
 11
3267.673057123677
 21
7198.497424545866
 31
0.0
  0
LINE
  5
162F2
330
747D
100
AcDbEntity
  8
部品1
100
AcDbLine
 10
3267.673057123677
 20
7207.497424545865
 30
0.0
 11
3219.673057123677
 21
7207.497424545865
 31
0.0
  0
LINE
  5
162F3
330
747D
100
AcDbEntity
  8
部品1
100
AcDbLine
 10
3267.673057123677
 20
7168.497424545865
 30
0.0
 11
3219.673057123677
 21
7168.497424545865
 31
0.0
  0
LINE
  5
162F4
330
747D
100
AcDbEntity
  8
部品1
100
AcDbLine
 10
3219.673057123676
 20
7178.497424545864
 30
0.0
 11
3196.673057123677
 21
7178.497424545864
 31
0.0
  0
LINE
  5
162F5
330
747D
100
AcDbEntity
  8
部品1
100
AcDbLine
 10
3219.673057123676
 20
7197.497424545789
 30
0.0
 11
3164.673057123675
 21
7197.497424545789
 31
0.0
  0
LINE
  5
162F6
330
747D
100
AcDbEntity
  8
部品1
100
AcDbLine
 10
3192.673057123659
 20
7197.497424545826
 30
0.0
 11
3164.673057123675
 21
7197.497424545826
 31
0.0
  0
LINE
  5
162F7
330
747D
100
AcDbEntity
  8
部品1
100
AcDbLine
 10
3192.673057123675
 20
7197.49742454584
 30
0.0
 11
3164.673057123675
 21
7197.49742454584
 31
0.0
  0
LINE
  5
162FB
330
747D
100
AcDbEntity
  8
部品1
100
AcDbLine
 10
3192.673057123663
 20
7617.49742454584
 30
0.0
 11
3164.673057123663
 21
7617.49742454584
 31
0.0
  0
LINE
  5
162FC
330
747D
100
AcDbEntity
  8
部品1
100
AcDbLine
 10
3192.673057123663
 20
8037.49742454584
 30
0.0
 11
3164.673057123663
 21
8037.49742454584
 31
0.0
  0
LINE
  5
162FE
330
747D
100
AcDbEntity
  8
部品1
100
AcDbLine
 10
3192.673057123658
 20
8457.49742454584
 30
0.0
 11
3164.673057123658
 21
8457.49742454584
 31
0.0
  0
LINE
  5
162FF
330
747D
100
AcDbEntity
  8
部品1
100
AcDbLine
 10
7529.67305712368
 20
9717.497424545886
 30
0.0
 11
7529.673057123661
 21
7142.497424545952
 31
0.0
  0
LINE
  5
16300
330
747D
100
AcDbEntity
  8
部品1
100
AcDbLine
 10
7504.673057123683
 20
9717.497424545884
 30
0.0
 11
7504.67305712366
 21
7207.497424545865
 31
0.0
  0
DIMENSION
  5
16301
330
747D
100
AcDbEntity
  8
寸法
 48
50.0
100
AcDbDimension
  2
*D9
 10
7481.673057123659
 20
6608.0666537797
 30
0.0
 11
7370.710159474912
 21
6708.0666537797
 31
0.0
 70
   160
 71
     5
 42
48.00000000000181
  3
INABA_S40G
100
AcDbAlignedDimension
 13
7529.673057123661
 23
7142.497424545952
 33
0.0
 14
7481.673057123659
 24
7168.497424545865
 34
0.0
100
AcDbRotatedDimension
1001
ACAD
1000
DSTYLE
1002
{
1070
   279
1070
     2
1002
}
  0
DIMENSION
  5
16302
330
747D
100
AcDbEntity
  8
寸法
 48
50.0
100
AcDbDimension
  2
*D10
 10
7529.673057123661
 20
6608.066653779701
 30
0.0
 11
7893.158338497896
 21
6608.066653779701
 31
0.0
 70
   160
 71
     5
 42
54.99999999999818
  3
INABA_S40G
100
AcDbAlignedDimension
 13
7584.673057123659
 23
7142.497424545957
 33
0.0
 14
7529.673057123661
 24
7142.497424545952
 34
0.0
100
AcDbRotatedDimension
1001
ACAD
1000
DSTYLE
1002
{
1002
}
  0
LINE
  5
16303
330
747D
100
AcDbEntity
  8
部品1
 48
50.0
100
AcDbLine
 10
7519.673057123658
 20
7168.497424545865
 30
0.0
 11
7529.673057123658
 21
7147.497424545864
 31
0.0
  0
LINE
  5
16304
330
747D
100
AcDbEntity
  8
部品1
100
AcDbLine
 10
7481.673057123659
 20
7207.497424545865
 30
0.0
 11
7529.673057123661
 21
7207.497424545865
 31
0.0
  0
LINE
  5
16305
330
747D
100
AcDbEntity
  8
部品1
100
AcDbLine
 10
7481.673057123659
 20
7168.497424545865
 30
0.0
 11
7529.673057123658
 21
7168.497424545865
 31
0.0
  0
LINE
  5
16306
330
747D
100
AcDbEntity
  8
部品1
 48
50.0
100
AcDbLine
 10
7481.673057123659
 20
7207.497424545865
 30
0.0
 11
7481.673057123659
 21
7198.497424545866
 31
0.0
  0
LINE
  5
16307
330
747D
100
AcDbEntity
  8
部品1
 48
50.0
100
AcDbLine
 10
7481.673057123659
 20
7168.497424545865
 30
0.0
 11
7481.673057123659
 21
7177.497424545865
 31
0.0
  0
LINE
  5
16308
330
747D
100
AcDbEntity
  8
部品1
100
AcDbLine
 10
7529.673057123658
 20
7178.497424545863
 30
0.0
 11
7552.673057123659
 21
7178.497424545864
 31
0.0
  0
LINE
  5
16309
330
747D
100
AcDbEntity
  8
部品1
100
AcDbLine
 10
7529.673057123658
 20
7197.497424545968
 30
0.0
 11
7584.673057123691
 21
7197.497424545968
 31
0.0
  0
LINE
  5
1630A
330
747D
100
AcDbEntity
  8
部品1
100
AcDbLine
 10
7584.673057123659
 20
7142.497424545957
 30
0.0
 11
7529.673057123661
 21
7142.497424545954
 31
0.0
  0
LINE
  5
16317
330
747D
100
AcDbEntity
  8
部品1
100
AcDbLine
 10
7556.673057123687
 20
7617.497424545966
 30
0.0
 11
7584.673057123687
 21
7617.497424545966
 31
0.0
  0
LINE
  5
16319
330
747D
100
AcDbEntity
  8
部品1
100
AcDbLine
 10
7556.673057123687
 20
8037.497424545966
 30
0.0
 11
7584.673057123687
 21
8037.497424545966
 31
0.0
  0
LINE
  5
1631A
330
747D
100
AcDbEntity
  8
部品1
100
AcDbLine
 10
7556.673057123685
 20
8457.497424545968
 30
0.0
 11
7584.673057123684
 21
8457.497424545968
 31
0.0
  0
LINE
  5
1631B
330
747D
100
AcDbEntity
  8
部品1
100
AcDbLine
 10
5429.673057123682
 20
9744.497424545986
 30
0.0
 11
6677.173057123681
 21
9744.497424545986
 31
0.0
  0
LINE
  5
1631C
330
747D
100
AcDbEntity
  8
部品1
100
AcDbLine
 10
5402.673057123683
 20
9744.497424545869
 30
0.0
 11
6059.673057123683
 21
9744.497424545873
 31
0.0
  0
DIMENSION
  5
1631F
330
747D
100
AcDbEntity
  8
寸法
100
AcDbDimension
  2
*D11
 10
7529.673057123684
 20
9988.305644170967
 30
0.0
 11
6479.673057123683
 21
10088.31745519459
 31
0.0
 70
    32
  1
5X420=<>
 71
     5
 42
2100.000000000001
  3
INABA_S40G
100
AcDbAlignedDimension
 13
5429.673057123682
 23
9772.49742454587
 33
0.0
 14
7529.673057123684
 24
9772.497424545964
 34
0.0
100
AcDbRotatedDimension
1001
ACAD
1000
DSTYLE
1002
{
1002
}
  0
DIMENSION
  5
16320
330
747D
100
AcDbEntity
  8
寸法
100
AcDbDimension
  2
*D12
 10
3219.673057123684
 20
9988.30564417085
 30
0.0
 11
2856.18777574941
 21
9988.30564417085
 31
0.0
 70
   160
 71
     5
 42
55.00000000003456
  3
INABA_S40G
100
AcDbAlignedDimension
 13
3164.673057123648
 23
9772.49742454587
 33
0.0
 14
3219.673057123684
 24
9772.49742454587
 34
0.0
100
AcDbRotatedDimension
1001
ACAD
1000
DSTYLE
1002
{
1002
}
  0
LINE
  5
16321
330
747D
100
AcDbEntity
  8
部品1
100
AcDbLine
 10
3219.673057123649
 20
9772.497424545838
 30
0.0
 11
3219.67305712365
 21
9744.497424545837
 31
0.0
  0
LINE
  5
16322
330
747D
100
AcDbEntity
  8
部品1
100
AcDbLine
 10
3219.673057123684
 20
9772.49742454587
 30
0.0
 11
3219.673057123684
 21
9744.497424545869
 31
0.0
  0
LINE
  5
16323
330
747D
100
AcDbEntity
  8
部品1
100
AcDbLine
 10
3192.673057123651
 20
9717.49742454584
 30
0.0
 11
3164.67305712365
 21
9717.49742454584
 31
0.0
  0
LINE
  5
16324
330
747D
100
AcDbEntity
  8
部品1
100
AcDbLine
 10
5849.673057123683
 20
9772.497424545987
 30
0.0
 11
5849.673057123683
 21
9744.497424545986
 31
0.0
  0
LINE
  5
16325
330
747D
100
AcDbEntity
  8
部品1
100
AcDbLine
 10
5849.673057123683
 20
9772.49742454587
 30
0.0
 11
5849.673057123683
 21
9744.497424545869
 31
0.0
  0
LINE
  5
16326
330
747D
100
AcDbEntity
  8
部品1
100
AcDbLine
 10
5849.673057123683
 20
9772.49742454587
 30
0.0
 11
5849.673057123683
 21
9744.497424545869
 31
0.0
  0
LINE
  5
16327
330
747D
100
AcDbEntity
  8
部品1
100
AcDbLine
 10
6702.173057123683
 20
9744.497424545983
 30
0.0
 11
7556.673057123685
 21
9744.497424545963
 31
0.0
  0
LINE
  5
16329
330
747D
100
AcDbEntity
  8
部品1
100
AcDbLine
 10
6269.673057123683
 20
9772.497424545987
 30
0.0
 11
6269.673057123683
 21
9744.497424545986
 31
0.0
  0
LINE
  5
1632A
330
747D
100
AcDbEntity
  8
部品1
100
AcDbLine
 10
6269.673057123683
 20
9772.49742454587
 30
0.0
 11
6269.673057123683
 21
9744.497424545869
 31
0.0
  0
LINE
  5
1632B
330
747D
100
AcDbEntity
  8
部品1
100
AcDbLine
 10
6269.673057123683
 20
9772.49742454587
 30
0.0
 11
6269.673057123683
 21
9744.497424545869
 31
0.0
  0
LINE
  5
1632C
330
747D
100
AcDbEntity
  8
部品1
100
AcDbLine
 10
6689.673057123683
 20
9772.497424545987
 30
0.0
 11
6689.673057123683
 21
9744.497424545986
 31
0.0
  0
LINE
  5
1632D
330
747D
100
AcDbEntity
  8
部品1
100
AcDbLine
 10
6677.173057123683
 20
9736.497424545968
 30
0.0
 11
6702.173057123683
 21
9736.497424545971
 31
0.0
  0
LINE
  5
1632E
330
747D
100
AcDbEntity
  8
部品1
100
AcDbLine
 10
6718.673057123684
 20
9762.497424545971
 30
0.0
 11
6724.673057123684
 21
9762.497424545971
 31
0.0
  0
LINE
  5
1632F
330
747D
100
AcDbEntity
  8
部品1
100
AcDbLine
 10
6724.673057123684
 20
9762.497424545971
 30
0.0
 11
6724.673057123684
 21
9744.49742454597
 31
0.0
  0
LINE
  5
16330
330
747D
100
AcDbEntity
  8
部品1
100
AcDbLine
 10
6654.673057123684
 20
9762.497424545971
 30
0.0
 11
6660.673057123684
 21
9762.497424545971
 31
0.0
  0
LINE
  5
16331
330
747D
100
AcDbEntity
  8
部品1
100
AcDbLine
 10
6654.673057123684
 20
9762.497424545971
 30
0.0
 11
6654.673057123684
 21
9744.49742454597
 31
0.0
  0
DIMENSION
  5
16333
330
747D
100
AcDbEntity
  8
寸法
100
AcDbDimension
  2
*D13
 10
7584.673057123684
 20
9988.305644170949
 30
0.0
 11
7893.158338497922
 21
9988.305644170949
 31
0.0
 70
   160
 71
     5
 42
55.0
  3
INABA_S40G
100
AcDbAlignedDimension
 13
7529.673057123684
 23
9772.497424545964
 33
0.0
 14
7584.673057123684
 24
9772.497424545964
 34
0.0
100
AcDbRotatedDimension
1001
ACAD
1000
DSTYLE
1002
{
1002
}
  0
LINE
  5
16334
330
747D
100
AcDbEntity
  8
部品1
100
AcDbLine
 10
7109.673057123682
 20
9772.497424545987
 30
0.0
 11
7109.673057123682
 21
9744.497424545986
 31
0.0
  0
LINE
  5
16335
330
747D
100
AcDbEntity
  8
部品1
100
AcDbLine
 10
7529.673057123684
 20
9772.497424545964
 30
0.0
 11
7529.673057123684
 21
9744.497424545963
 31
0.0
  0
LINE
  5
16336
330
747D
100
AcDbEntity
  8
部品1
100
AcDbLine
 10
7529.673057123684
 20
9772.497424545987
 30
0.0
 11
7529.673057123684
 21
9744.497424545986
 31
0.0
  0
LINE
  5
16337
330
747D
100
AcDbEntity
  8
部品1
100
AcDbLine
 10
7556.673057123685
 20
9717.497424545967
 30
0.0
 11
7584.673057123684
 21
9717.497424545967
 31
0.0
  0
LINE
  5
1655C
330
747D
100
AcDbEntity
  8
部品1
100
AcDbLine
 10
5271.673057123678
 20
4136.270620748139
 30
0.0
 11
5271.673057123675
 21
2161.270620748139
 31
0.0
  0
LINE
  5
1655D
330
747D
100
AcDbEntity
  8
部品1
100
AcDbLine
 10
5319.673057123677
 20
4136.270620748137
 30
0.0
 11
5319.673057123675
 21
2161.270620748139
 31
0.0
  0
LINE
  5
1655E
330
747D
100
AcDbEntity
  8
破線
 48
5.0
100
AcDbLine
 10
5271.673057123675
 20
2161.270620748139
 30
0.0
 11
5271.673057123678
 21
1911.270620748139
 31
0.0
  0
LINE
  5
1655F
330
747D
100
AcDbEntity
  8
破線
 48
5.0
100
AcDbLine
 10
5319.673057123678
 20
1911.270620748139
 30
0.0
 11
5271.673057123677
 21
1911.270620748139
 31
0.0
  0
LINE
  5
16560
330
747D
100
AcDbEntity
  8
破線
 48
5.0
100
AcDbLine
 10
5319.673057123675
 20
2161.270620748139
 30
0.0
 11
5319.673057123677
 21
1886.270620748139
 31
0.0
  0
LINE
  5
16561
330
747D
100
AcDbEntity
  8
破線
 48
5.0
100
AcDbLine
 10
5429.673057123675
 20
1886.270620748138
 30
0.0
 11
5319.673057123677
 21
1886.270620748138
 31
0.0
  0
LINE
  5
16562
330
747D
100
AcDbEntity
  8
部品1
100
AcDbLine
 10
5477.673057123677
 20
4136.270620748138
 30
0.0
 11
5477.673057123677
 21
2161.270620748139
 31
0.0
  0
LINE
  5
16563
330
747D
100
AcDbEntity
  8
破線
 48
5.0
100
AcDbLine
 10
5477.673057123677
 20
2161.270620748139
 30
0.0
 11
5477.673057123674
 21
1911.270620748144
 31
0.0
  0
LINE
  5
16564
330
747D
100
AcDbEntity
  8
破線
 48
5.0
100
AcDbLine
 10
5477.673057123674
 20
1911.270620748144
 30
0.0
 11
5429.673057123675
 21
1911.270620748144
 31
0.0
  0
LINE
  5
16565
330
747D
100
AcDbEntity
  8
破線
 48
5.0
100
AcDbLine
 10
5429.673057123676
 20
2161.270620748139
 30
0.0
 11
5429.673057123675
 21
1886.270620748139
 31
0.0
  0
LINE
  5
16566
330
747D
100
AcDbEntity
  8
部品1
100
AcDbLine
 10
5429.673057123676
 20
4136.270620748137
 30
0.0
 11
5429.673057123676
 21
2161.270620748139
 31
0.0
  0
LINE
  5
16567
330
747D
100
AcDbEntity
  8
部品1
100
AcDbLine
 10
5429.673057123676
 20
4136.270620748138
 30
0.0
 11
7584.673057123677
 21
4136.270620748141
 31
0.0
  0
DIMENSION
  5
1659A
330
747D
100
AcDbEntity
  8
寸法
 48
50.0
100
AcDbDimension
  2
*D15
 10
5271.673057123659
 20
6608.0666537797
 30
0.0
 11
5160.710159474911
 21
6708.0666537797
 31
0.0
 70
   160
 71
     5
 42
48.00000000000181
  3
INABA_S40G
100
AcDbAlignedDimension
 13
5319.673057123661
 23
7142.497424545952
 33
0.0
 14
5271.673057123659
 24
7168.497424545865
 34
0.0
100
AcDbRotatedDimension
1001
ACAD
1000
DSTYLE
1002
{
1070
   279
1070
     2
1002
}
  0
DIMENSION
  5
1659C
330
747D
100
AcDbEntity
  8
寸法
 48
50.0
100
AcDbDimension
  2
*D14
 10
3219.673057123673
 20
6608.0666537797
 30
0.0
 11
3380.575028123735
 21
6708.0666537797
 31
0.0
 70
   160
 71
     5
 42
48.00000000000363
  3
INABA_S40G
100
AcDbAlignedDimension
 13
3267.673057123677
 23
7168.497424545865
 33
0.0
 14
3219.673057123673
 24
7142.497424545864
 34
0.0
100
AcDbRotatedDimension
1001
ACAD
1000
DSTYLE
1002
{
1070
   279
1070
     2
1002
}
  0
DIMENSION
  5
165E9
330
747D
100
AcDbEntity
  8
寸法
 48
50.0
100
AcDbDimension
  2
*D16
 10
5319.673057123661
 20
6608.066653779701
 30
0.0
 11
5374.673057123667
 21
6456.37475874347
 31
0.0
 70
   160
 71
     5
 42
110.0000000000127
  3
INABA_S40G
100
AcDbAlignedDimension
 13
5429.673057123673
 23
7142.497424545864
 33
0.0
 14
5319.673057123661
 24
7142.497424545952
 34
0.0
100
AcDbRotatedDimension
1001
ACAD
1000
DSTYLE
1002
{
1070
   279
1070
     2
1002
}
  0
LINE
  5
16656
330
747D
100
AcDbEntity
  8
部品1
100
AcDbLine
 10
5271.673057123659
 20
7207.497424545865
 30
0.0
 11
5319.673057123661
 21
7207.497424545865
 31
0.0
  0
LINE
  5
16657
330
747D
100
AcDbEntity
  8
部品1
 48
50.0
100
AcDbLine
 10
5271.673057123659
 20
7207.497424545865
 30
0.0
 11
5271.673057123659
 21
7198.497424545866
 31
0.0
  0
LINE
  5
16658
330
747D
100
AcDbEntity
  8
部品1
100
AcDbLine
 10
5271.673057123659
 20
7168.497424545865
 30
0.0
 11
5319.673057123658
 21
7168.497424545865
 31
0.0
  0
LINE
  5
16659
330
747D
100
AcDbEntity
  8
部品1
 48
50.0
100
AcDbLine
 10
5271.673057123659
 20
7168.497424545865
 30
0.0
 11
5271.673057123659
 21
7177.497424545865
 31
0.0
  0
LINE
  5
1665A
330
747D
100
AcDbEntity
  8
部品1
 48
50.0
100
AcDbLine
 10
5309.673057123658
 20
7168.497424545865
 30
0.0
 11
5319.673057123658
 21
7147.497424545864
 31
0.0
  0
LINE
  5
1665B
330
747D
100
AcDbEntity
  8
部品1
100
AcDbLine
 10
5319.673057123658
 20
7178.497424545863
 30
0.0
 11
5342.673057123659
 21
7178.497424545864
 31
0.0
  0
LINE
  5
1665C
330
747D
100
AcDbEntity
  8
部品1
100
AcDbLine
 10
5477.673057123677
 20
7207.497424545865
 30
0.0
 11
5429.673057123676
 21
7207.497424545865
 31
0.0
  0
LINE
  5
1665D
330
747D
100
AcDbEntity
  8
部品1
 48
50.0
100
AcDbLine
 10
5477.673057123677
 20
7207.497424545865
 30
0.0
 11
5477.673057123677
 21
7198.497424545866
 31
0.0
  0
LINE
  5
1665E
330
747D
100
AcDbEntity
  8
部品1
100
AcDbLine
 10
5477.673057123677
 20
7168.497424545865
 30
0.0
 11
5429.673057123676
 21
7168.497424545865
 31
0.0
  0
LINE
  5
1665F
330
747D
100
AcDbEntity
  8
部品1
 48
50.0
100
AcDbLine
 10
5439.673057123677
 20
7168.497424545865
 30
0.0
 11
5429.673057123676
 21
7147.497424545864
 31
0.0
  0
LINE
  5
16660
330
747D
100
AcDbEntity
  8
部品1
100
AcDbLine
 10
5429.673057123675
 20
7178.497424545864
 30
0.0
 11
5406.673057123676
 21
7178.497424545864
 31
0.0
  0
LINE
  5
16661
330
747D
100
AcDbEntity
  8
部品1
 48
50.0
100
AcDbLine
 10
5429.673057123676
 20
7207.497424545863
 30
0.0
 11
5429.673057123673
 21
7142.497424545864
 31
0.0
  0
LINE
  5
16662
330
747D
100
AcDbEntity
  8
部品1
 48
50.0
100
AcDbLine
 10
5477.673057123677
 20
7168.497424545865
 30
0.0
 11
5477.673057123677
 21
7177.497424545865
 31
0.0
  0
LINE
  5
16663
330
747D
100
AcDbEntity
  8
部品1
100
AcDbLine
 10
5429.673057123672
 20
7142.497424545864
 30
0.0
 11
5319.673057123662
 21
7142.497424545858
 31
0.0
  0
LINE
  5
16664
330
747D
100
AcDbEntity
  8
部品1
 48
50.0
100
AcDbLine
 10
5319.673057123665
 20
7207.497424545952
 30
0.0
 11
5319.673057123662
 21
7142.497424545952
 31
0.0
  0
LINE
  5
16666
330
747D
100
AcDbEntity
  8
部品1
100
AcDbLine
 10
5429.673057123682
 20
9772.49742454587
 30
0.0
 11
5429.673057123682
 21
9744.497424545869
 31
0.0
  0
LINE
  5
16692
330
747D
100
AcDbEntity
  8
部品1
100
AcDbLine
 10
5319.673057123684
 20
9772.497424545964
 30
0.0
 11
5319.673057123684
 21
9744.497424545963
 31
0.0
  0
DIMENSION
  5
166DD
330
747D
100
AcDbEntity
  8
寸法
 48
50.0
100
AcDbDimension
  2
*D17
 10
5319.673057123684
 20
9988.305644170967
 30
0.0
 11
5374.673057123684
 21
10088.30564417096
 31
0.0
 70
    32
 71
     5
 42
109.9999999999991
  3
INABA_S40G
100
AcDbAlignedDimension
 13
5429.673057123682
 23
9772.497424545917
 33
0.0
 14
5319.673057123684
 24
9772.497424545916
 34
0.0
100
AcDbRotatedDimension
1001
ACAD
1000
DSTYLE
1002
{
1070
   279
1070
     2
1002
}
  0
LINE
  5
16760
330
747D
100
AcDbEntity
  8
部品1
 48
50.0
100
AcDbLine
 10
5374.67305712365
 20
9744.497424545912
 30
0.0
 11
5346.673057123651
 21
9772.497424545965
 31
0.0
  0
LINE
  5
16761
330
747D
100
AcDbEntity
  8
部品1
100
AcDbLine
 10
7529.673057123679
 20
9717.497424545884
 30
0.0
 11
5429.673057123663
 21
9717.497424545886
 31
0.0
  0
LINE
  5
16762
330
747D
100
AcDbEntity
  8
部品1
 48
50.0
100
AcDbLine
 10
5346.673057123651
 20
9744.497424546016
 30
0.0
 11
5346.67305712365
 21
9772.497424545965
 31
0.0
  0
LINE
  5
16763
330
747D
100
AcDbEntity
  8
部品1
 48
50.0
100
AcDbLine
 10
5346.673057123651
 20
9744.497424545912
 30
0.0
 11
5374.67305712365
 21
9744.497424545912
 31
0.0
  0
LINE
  5
168C3
330
747D
100
AcDbEntity
  8
部品1
100
AcDbLine
 10
5398.673057123668
 20
7197.497424545861
 30
0.0
 11
5350.673057123667
 21
7197.49742454586
 31
0.0
  0
LINE
  5
168C4
330
747D
100
AcDbEntity
  8
部品1
 48
50.0
100
AcDbLine
 10
5350.673057123668
 20
7197.497424545861
 30
0.0
 11
5350.67305712367
 21
7142.497424545862
 31
0.0
  0
LINE
  5
168C5
330
747D
100
AcDbEntity
  8
部品1
 48
50.0
100
AcDbLine
 10
5398.673057123668
 20
7197.497424545861
 30
0.0
 11
5398.67305712367
 21
7142.497424545862
 31
0.0
  0
DIMENSION
  5
16913
330
747D
100
AcDbEntity
  8
寸法
 48
50.0
100
AcDbDimension
  2
*D18
 10
7584.673057123684
 20
10237.62711772726
 30
0.0
 11
6479.673057123683
 21
10337.63892875088
 31
0.0
 70
    32
 71
     5
 42
2210.0
  3
INABA_S40G
100
AcDbAlignedDimension
 13
5374.673057123684
 23
10147.29355852891
 33
0.0
 14
7584.673057123684
 24
9772.497424545964
 34
0.0
100
AcDbRotatedDimension
1001
ACAD
1000
DSTYLE
1002
{
1070
    75
1070
     1
1070
   279
1070
     2
1002
}
  0
LINE
  5
172BC
330
747D
100
AcDbEntity
  8
部品1
 48
50.0
100
AcDbLine
 10
5402.673057123651
 20
9717.497424545886
 30
0.0
 11
5402.673057123717
 21
9772.497424545917
 31
0.0
  0
LINE
  5
172BD
330
747D
100
AcDbEntity
  8
部品1
 48
50.0
100
AcDbLine
 10
5346.673057123651
 20
9717.497424545886
 30
0.0
 11
5346.673057123651
 21
9744.497424545912
 31
0.0
  0
LINE
  5
174C8
330
747D
100
AcDbEntity
  8
部品1
 48
50.0
100
AcDbLine
 10
7504.673057123683
 20
9692.497424545841
 30
0.0
 11
5454.673057123637
 21
9692.497424545816
 31
0.0
  0
LINE
  5
174C9
330
747D
100
AcDbEntity
  8
部品1
 48
50.0
100
AcDbLine
 10
7556.673057123685
 20
9744.497424545963
 30
0.0
 11
7529.673057123679
 21
9717.497424545884
 31
0.0
  0
LINE
  5
174CA
330
747D
100
AcDbEntity
  8
部品1
 48
50.0
100
AcDbLine
 10
3219.673057123654
 20
9717.497424545888
 30
0.0
 11
3192.67305712367
 21
9744.497424545986
 31
0.0
  0
LINE
  5
174CB
330
747D
100
AcDbEntity
  8
部品1
 48
50.0
100
AcDbLine
 10
6677.173057123683
 20
9736.497424545968
 30
0.0
 11
6677.173057123681
 21
9744.497424545986
 31
0.0
  0
LINE
  5
174CC
330
747D
100
AcDbEntity
  8
部品1
 48
50.0
100
AcDbLine
 10
6702.173057123683
 20
9736.497424545971
 30
0.0
 11
6702.173057123683
 21
9744.497424545983
 31
0.0
  0
LINE
  5
17B10
330
747D
100
AcDbEntity
  8
細線
100
AcDbLine
 10
5271.673057123677
 20
2171.270620748139
 30
0.0
 11
3267.673057123671
 21
2171.270620748139
 31
0.0
  0
CIRCLE
  5
17B17
330
747D
100
AcDbEntity
  8
細線
 48
50.0
100
AcDbCircle
 10
4269.673057123674
 20
3048.770620748139
 30
0.0
 40
18.0
  0
ARC
  5
17B18
330
747D
100
AcDbEntity
  8
細線
 48
50.0
100
AcDbCircle
 10
4569.673057123675
 20
2723.770620748139
 30
0.0
 40
15.0
100
AcDbArc
 50
270.0
 51
90.0
  0
ARC
  5
17B19
330
747D
100
AcDbEntity
  8
細線
 48
50.0
100
AcDbCircle
 10
4469.673057123674
 20
2723.770620748139
 30
0.0
 40
15.0
100
AcDbArc
 50
90.0
 51
270.0
  0
LINE
  5
17B1A
330
747D
100
AcDbEntity
  8
細線
 48
50.0
100
AcDbLine
 10
4469.673057123674
 20
2738.77062074814
 30
0.0
 11
4569.673057123675
 21
2738.77062074814
 31
0.0
  0
LINE
  5
17B1B
330
747D
100
AcDbEntity
  8
細線
 48
50.0
100
AcDbLine
 10
4569.673057123675
 20
2708.770620748139
 30
0.0
 11
4469.673057123674
 21
2708.770620748139
 31
0.0
  0
ARC
  5
17B1C
330
747D
100
AcDbEntity
  8
細線
 48
50.0
100
AcDbCircle
 10
4069.673057123675
 20
2723.770620748139
 30
0.0
 40
15.0
100
AcDbArc
 50
270.0
 51
90.0
  0
ARC
  5
17B1D
330
747D
100
AcDbEntity
  8
細線
 48
50.0
100
AcDbCircle
 10
3969.673057123675
 20
2723.770620748139
 30
0.0
 40
15.0
100
AcDbArc
 50
90.0
 51
270.0
  0
LINE
  5
17B1E
330
747D
100
AcDbEntity
  8
細線
100
AcDbLine
 10
3267.673057123673
 20
3796.270620748139
 30
0.0
 11
5271.673057123675
 21
3796.270620748139
 31
0.0
  0
LINE
  5
17B1F
330
747D
100
AcDbEntity
  8
細線
100
AcDbLine
 10
3267.673057123673
 20
3861.270620748139
 30
0.0
 11
5271.673057123675
 21
3861.270620748139
 31
0.0
  0
LINE
  5
17B20
330
747D
100
AcDbEntity
  8
細線
100
AcDbLine
 10
3267.673057123673
 20
3926.270620748139
 30
0.0
 11
5271.673057123675
 21
3926.270620748139
 31
0.0
  0
LINE
  5
17B21
330
747D
100
AcDbEntity
  8
細線
100
AcDbLine
 10
3267.673057123673
 20
3406.270620748139
 30
0.0
 11
5271.673057123675
 21
3406.270620748139
 31
0.0
  0
LINE
  5
17B22
330
747D
100
AcDbEntity
  8
細線
100
AcDbLine
 10
3267.673057123673
 20
3471.27062074814
 30
0.0
 11
5271.673057123675
 21
3471.27062074814
 31
0.0
  0
LINE
  5
17B23
330
747D
100
AcDbEntity
  8
細線
100
AcDbLine
 10
3267.673057123673
 20
3536.27062074814
 30
0.0
 11
5271.673057123675
 21
3536.27062074814
 31
0.0
  0
LINE
  5
17B24
330
747D
100
AcDbEntity
  8
細線
100
AcDbLine
 10
3267.673057123673
 20
3601.270620748139
 30
0.0
 11
5271.673057123675
 21
3601.270620748139
 31
0.0
  0
LINE
  5
17B25
330
747D
100
AcDbEntity
  8
細線
100
AcDbLine
 10
3267.673057123673
 20
3666.270620748139
 30
0.0
 11
5271.673057123675
 21
3666.270620748139
 31
0.0
  0
LINE
  5
17B26
330
747D
100
AcDbEntity
  8
細線
100
AcDbLine
 10
3267.673057123673
 20
3731.270620748139
 30
0.0
 11
5271.673057123675
 21
3731.270620748139
 31
0.0
  0
LINE
  5
17B27
330
747D
100
AcDbEntity
  8
細線
100
AcDbLine
 10
3267.673057123673
 20
2756.27062074814
 30
0.0
 11
5271.673057123675
 21
2756.27062074814
 31
0.0
  0
LINE
  5
17B28
330
747D
100
AcDbEntity
  8
細線
100
AcDbLine
 10
3267.673057123673
 20
2821.270620748139
 30
0.0
 11
5271.673057123675
 21
2821.270620748139
 31
0.0
  0
LINE
  5
17B29
330
747D
100
AcDbEntity
  8
細線
100
AcDbLine
 10
3267.673057123673
 20
2886.270620748139
 30
0.0
 11
5271.673057123675
 21
2886.270620748139
 31
0.0
  0
LINE
  5
17B2A
330
747D
100
AcDbEntity
  8
細線
100
AcDbLine
 10
3267.673057123673
 20
2951.27062074814
 30
0.0
 11
5271.673057123675
 21
2951.27062074814
 31
0.0
  0
LINE
  5
17B2B
330
747D
100
AcDbEntity
  8
細線
100
AcDbLine
 10
3267.673057123673
 20
3016.27062074814
 30
0.0
 11
5271.673057123675
 21
3016.27062074814
 31
0.0
  0
LINE
  5
17B2C
330
747D
100
AcDbEntity
  8
細線
100
AcDbLine
 10
3267.673057123673
 20
3081.270620748139
 30
0.0
 11
5271.673057123675
 21
3081.270620748139
 31
0.0
  0
LINE
  5
17B2D
330
747D
100
AcDbEntity
  8
細線
100
AcDbLine
 10
3267.673057123673
 20
3146.270620748139
 30
0.0
 11
5271.673057123675
 21
3146.270620748139
 31
0.0
  0
LINE
  5
17B2E
330
747D
100
AcDbEntity
  8
細線
100
AcDbLine
 10
3267.673057123673
 20
3211.27062074814
 30
0.0
 11
5271.673057123675
 21
3211.27062074814
 31
0.0
  0
LINE
  5
17B2F
330
747D
100
AcDbEntity
  8
細線
100
AcDbLine
 10
3267.673057123673
 20
3276.270620748139
 30
0.0
 11
5271.673057123675
 21
3276.270620748139
 31
0.0
  0
LINE
  5
17B30
330
747D
100
AcDbEntity
  8
細線
100
AcDbLine
 10
3267.673057123673
 20
3341.270620748139
 30
0.0
 11
5271.673057123675
 21
3341.270620748139
 31
0.0
  0
LINE
  5
17B31
330
747D
100
AcDbEntity
  8
細線
100
AcDbLine
 10
3267.673057123673
 20
4056.270620748139
 30
0.0
 11
5271.673057123675
 21
4056.270620748139
 31
0.0
  0
LINE
  5
17B32
330
747D
100
AcDbEntity
  8
細線
100
AcDbLine
 10
3267.673057123673
 20
3991.270620748139
 30
0.0
 11
5271.673057123675
 21
3991.270620748139
 31
0.0
  0
LINE
  5
17B33
330
747D
100
AcDbEntity
  8
細線
100
AcDbLine
 10
3267.673057123673
 20
2236.270620748139
 30
0.0
 11
5271.673057123675
 21
2236.270620748139
 31
0.0
  0
LINE
  5
17B34
330
747D
100
AcDbEntity
  8
細線
100
AcDbLine
 10
3267.673057123673
 20
2301.270620748139
 30
0.0
 11
5271.673057123675
 21
2301.270620748139
 31
0.0
  0
LINE
  5
17B35
330
747D
100
AcDbEntity
  8
細線
100
AcDbLine
 10
3267.673057123673
 20
2366.270620748139
 30
0.0
 11
5271.673057123675
 21
2366.270620748139
 31
0.0
  0
LINE
  5
17B36
330
747D
100
AcDbEntity
  8
細線
100
AcDbLine
 10
3267.673057123673
 20
2431.27062074814
 30
0.0
 11
5271.673057123675
 21
2431.27062074814
 31
0.0
  0
LINE
  5
17B37
330
747D
100
AcDbEntity
  8
細線
100
AcDbLine
 10
3267.673057123673
 20
2496.270620748139
 30
0.0
 11
5271.673057123675
 21
2496.270620748139
 31
0.0
  0
LINE
  5
17B38
330
747D
100
AcDbEntity
  8
細線
100
AcDbLine
 10
3267.673057123673
 20
2561.270620748139
 30
0.0
 11
5271.673057123675
 21
2561.270620748139
 31
0.0
  0
LINE
  5
17B39
330
747D
100
AcDbEntity
  8
細線
100
AcDbLine
 10
3267.673057123673
 20
2626.270620748139
 30
0.0
 11
5271.673057123675
 21
2626.270620748139
 31
0.0
  0
LINE
  5
17B3A
330
747D
100
AcDbEntity
  8
細線
100
AcDbLine
 10
3267.673057123673
 20
2691.270620748139
 30
0.0
 11
5271.673057123675
 21
2691.270620748139
 31
0.0
  0
LINE
  5
17B3B
330
747D
100
AcDbEntity
  8
細線
 48
50.0
100
AcDbLine
 10
4069.673057123675
 20
2708.770620748139
 30
0.0
 11
3969.673057123675
 21
2708.770620748139
 31
0.0
  0
LINE
  5
17B3C
330
747D
100
AcDbEntity
  8
細線
 48
50.0
100
AcDbLine
 10
3969.673057123675
 20
2738.77062074814
 30
0.0
 11
4069.673057123675
 21
2738.77062074814
 31
0.0
  0
LINE
  5
17B3D
330
747D
100
AcDbEntity
  8
細線
100
AcDbLine
 10
3267.673057123673
 20
4121.270620748139
 30
0.0
 11
5271.673057123675
 21
4121.270620748139
 31
0.0
  0
LINE
  5
17B5A
330
747D
100
AcDbEntity
  8
部品1
100
AcDbLine
 10
3164.673057123677
 20
4136.270620748137
 30
0.0
 11
5429.673057123675
 21
4136.270620748138
 31
0.0
  0
DIMENSION
  5
17B86
330
747D
100
AcDbEntity
  8
寸法
 48
50.0
100
AcDbDimension
  2
*D21
 10
5374.673057123684
 20
10237.62711772726
 30
0.0
 11
4269.673057123665
 21
10337.63892875088
 31
0.0
 70
    32
 71
     5
 42
2210.000000000036
  3
INABA_S40G
100
AcDbAlignedDimension
 13
3164.673057123648
 23
9772.497424545838
 33
0.0
 14
5374.673057123684
 24
10147.29355852891
 34
0.0
100
AcDbRotatedDimension
1001
ACAD
1000
DSTYLE
1002
{
1070
   279
1070
     2
1002
}
  0
DIMENSION
  5
17B87
330
747D
100
AcDbEntity
  8
寸法
100
AcDbDimension
  2
*D20
 10
5319.673057123684
 20
9988.305644170967
 30
0.0
 11
4269.673057123684
 21
10088.31745519459
 31
0.0
 70
    32
  1
5X420=<>
 71
     5
 42
2100.000000000001
  3
INABA_S40G
100
AcDbAlignedDimension
 13
3219.673057123684
 23
9772.49742454587
 33
0.0
 14
5319.673057123684
 24
9772.497424545964
 34
0.0
100
AcDbRotatedDimension
1001
ACAD
1000
DSTYLE
1002
{
1002
}
  0
LINE
  5
17B8B
330
747D
100
AcDbEntity
  8
部品1
 48
50.0
100
AcDbLine
 10
5294.673057123654
 20
9692.497424545791
 30
0.0
 11
3244.673057123654
 21
9692.497424545789
 31
0.0
  0
LINE
  5
17B98
330
747D
100
AcDbEntity
  8
部品1
 48
50.0
100
AcDbLine
 10
4492.173057123682
 20
9736.497424545971
 30
0.0
 11
4492.173057123682
 21
9744.497424545983
 31
0.0
  0
LINE
  5
17B99
330
747D
100
AcDbEntity
  8
部品1
 48
50.0
100
AcDbLine
 10
4467.173057123683
 20
9736.497424545968
 30
0.0
 11
4467.173057123683
 21
9744.497424545986
 31
0.0
  0
LINE
  5
17BA3
330
747D
100
AcDbEntity
  8
部品1
100
AcDbLine
 10
4899.673057123682
 20
9772.497424545987
 30
0.0
 11
4899.673057123682
 21
9744.497424545986
 31
0.0
  0
LINE
  5
17BA4
330
747D
100
AcDbEntity
  8
部品1
100
AcDbLine
 10
4059.673057123683
 20
9772.49742454587
 30
0.0
 11
4059.673057123683
 21
9744.497424545869
 31
0.0
  0
LINE
  5
17BA5
330
747D
100
AcDbEntity
  8
部品1
100
AcDbLine
 10
4059.673057123683
 20
9772.49742454587
 30
0.0
 11
4059.673057123683
 21
9744.497424545869
 31
0.0
  0
LINE
  5
17BA6
330
747D
100
AcDbEntity
  8
部品1
100
AcDbLine
 10
4059.673057123683
 20
9772.497424545987
 30
0.0
 11
4059.673057123683
 21
9744.497424545986
 31
0.0
  0
LINE
  5
17BA7
330
747D
100
AcDbEntity
  8
部品1
100
AcDbLine
 10
3639.673057123683
 20
9772.49742454587
 30
0.0
 11
3639.673057123683
 21
9744.497424545869
 31
0.0
  0
LINE
  5
17BA8
330
747D
100
AcDbEntity
  8
部品1
100
AcDbLine
 10
3639.673057123683
 20
9772.49742454587
 30
0.0
 11
3639.673057123683
 21
9744.497424545869
 31
0.0
  0
LINE
  5
17BA9
330
747D
100
AcDbEntity
  8
部品1
100
AcDbLine
 10
3639.673057123683
 20
9772.497424545987
 30
0.0
 11
3639.673057123683
 21
9744.497424545986
 31
0.0
  0
LINE
  5
17BAA
330
747D
100
AcDbEntity
  8
部品1
100
AcDbLine
 10
3192.67305712367
 20
9744.497424545986
 30
0.0
 11
4467.173057123681
 21
9744.497424545986
 31
0.0
  0
LINE
  5
17BAB
330
747D
100
AcDbEntity
  8
部品1
100
AcDbLine
 10
4492.173057123682
 20
9744.497424545983
 30
0.0
 11
5346.673057123684
 21
9744.497424545963
 31
0.0
  0
LINE
  5
17BAC
330
747D
100
AcDbEntity
  8
部品1
100
AcDbLine
 10
4444.673057123683
 20
9762.497424545971
 30
0.0
 11
4444.673057123683
 21
9744.49742454597
 31
0.0
  0
LINE
  5
17BAD
330
747D
100
AcDbEntity
  8
部品1
100
AcDbLine
 10
4444.673057123683
 20
9762.497424545971
 30
0.0
 11
4450.673057123682
 21
9762.497424545971
 31
0.0
  0
LINE
  5
17BAE
330
747D
100
AcDbEntity
  8
部品1
100
AcDbLine
 10
4514.673057123682
 20
9762.497424545971
 30
0.0
 11
4514.673057123682
 21
9744.49742454597
 31
0.0
  0
LINE
  5
17BAF
330
747D
100
AcDbEntity
  8
部品1
100
AcDbLine
 10
4508.673057123683
 20
9762.497424545971
 30
0.0
 11
4514.673057123682
 21
9762.497424545971
 31
0.0
  0
LINE
  5
17BB0
330
747D
100
AcDbEntity
  8
部品1
100
AcDbLine
 10
4467.173057123683
 20
9736.497424545968
 30
0.0
 11
4492.173057123682
 21
9736.497424545971
 31
0.0
  0
LINE
  5
17BB1
330
747D
100
AcDbEntity
  8
部品1
100
AcDbLine
 10
4479.673057123682
 20
9772.497424545987
 30
0.0
 11
4479.673057123682
 21
9744.497424545986
 31
0.0
  0
LINE
  5
17BC2
330
747D
100
AcDbEntity
  8
部品1
 48
50.0
100
AcDbLine
 10
3231.673057123676
 20
7187.997424545864
 30
0.0
 11
5307.67305712366
 21
7187.997424545864
 31
0.0
  0
DIMENSION
  5
17BC3
330
747D
100
AcDbEntity
  8
寸法
 48
50.0
100
AcDbDimension
  2
*D19
 10
3267.673057123677
 20
6608.0666537797
 30
0.0
 11
4269.673057123667
 21
6708.078464803323
 31
0.0
 70
    32
  1
有効開口部間口 <>
 71
     5
 42
2003.999999999982
  3
INABA_S40G
100
AcDbAlignedDimension
 13
5271.673057123659
 23
7168.497424545865
 33
0.0
 14
3267.673057123677
 24
7168.497424545865
 34
0.0
100
AcDbRotatedDimension
1001
ACAD
1000
DSTYLE
1002
{
1070
    75
1070
     1
1070
   279
1070
     2
1002
}
  0
LINE
  5
17D0F
330
747D
100
AcDbEntity
  8
部品1
100
AcDbLine
 10
7556.673057123674
 20
9297.497424545957
 30
0.0
 11
7584.673057123675
 21
9297.497424545957
 31
0.0
  0
LINE
  5
17D10
330
747D
100
AcDbEntity
  8
部品1
100
AcDbLine
 10
7556.673057123679
 20
8877.497424545957
 30
0.0
 11
7584.673057123679
 21
8877.497424545957
 31
0.0
  0
LINE
  5
17D11
330
747D
100
AcDbEntity
  8
部品1
100
AcDbLine
 10
3192.673057123649
 20
9297.497424545831
 30
0.0
 11
3164.673057123648
 21
9297.497424545831
 31
0.0
  0
LINE
  5
17D12
330
747D
100
AcDbEntity
  8
部品1
100
AcDbLine
 10
3192.673057123654
 20
8877.497424545831
 30
0.0
 11
3164.673057123654
 21
8877.497424545831
 31
0.0
  0
LINE
  5
180FF
330
747D
100
AcDbEntity
  8
部品1
100
AcDbLine
 10
3164.673057123677
 20
2161.270620748139
 30
0.0
 11
7584.673057123676
 21
2161.270620748139
 31
0.0
  0
LINE
  5
18100
330
747D
100
AcDbEntity
  8
Ｇ．Ｌ
100
AcDbLine
 10
2076.406454453192
 20
2061.270620748139
 30
0.0
 11
13411.30542539653
 21
2061.270620748139
 31
0.0
  0
LINE
  5
18105
330
747D
100
AcDbEntity
  8
部品1
100
AcDbLine
 10
3164.673057123648
 20
9772.49742454588
 30
0.0
 11
7584.673057123684
 21
9772.497424545964
 31
0.0
  0
LINE
  5
18161
330
747D
100
AcDbEntity
  8
部品1
100
AcDbLine
 10
5374.673057123669
 20
9717.497424545832
 30
0.0
 11
5374.673057123642
 21
7197.497424545807
 31
0.0
  0
LINE
  5
18162
330
747D
100
AcDbEntity
  8
部品1
100
AcDbLine
 10
5402.673057123629
 20
7142.497424545813
 30
0.0
 11
5402.673057123653
 21
9772.497424545861
 31
0.0
  0
LINE
  5
18163
330
747D
100
AcDbEntity
  8
部品1
 48
10.0
100
AcDbLine
 10
5454.673057123684
 20
7207.497424545812
 30
0.0
 11
5454.673057123637
 21
9717.497424545832
 31
0.0
  0
LINE
  5
18164
330
747D
100
AcDbEntity
  8
部品1
100
AcDbLine
 10
5429.673057123689
 20
7207.497424545812
 30
0.0
 11
5429.673057123662
 21
9717.497424545809
 31
0.0
  0
LINE
  5
18165
330
747D
100
AcDbEntity
  8
部品1
100
AcDbLine
 10
5346.673057123651
 20
9744.497424545912
 30
0.0
 11
5346.673057123634
 21
7142.497424545807
 31
0.0
  0
LINE
  5
18166
330
747D
100
AcDbEntity
  8
部品1
 48
10.0
100
AcDbLine
 10
5294.673057123678
 20
7207.497424545812
 30
0.0
 11
5294.673057123652
 21
9717.497424545815
 31
0.0
  0
LINE
  5
18167
330
747D
100
AcDbEntity
  8
部品1
100
AcDbLine
 10
5319.673057123669
 20
7207.497424545812
 30
0.0
 11
5319.673057123662
 21
9717.497424545815
 31
0.0
  0
LINE
  5
18168
330
747D
100
AcDbEntity
  8
部品1
100
AcDbLine
 10
5346.673057123672
 20
8457.497424545914
 30
0.0
 11
5374.673057123671
 21
8457.497424545914
 31
0.0
  0
LINE
  5
18169
330
747D
100
AcDbEntity
  8
部品1
100
AcDbLine
 10
5346.673057123672
 20
8877.497424545914
 30
0.0
 11
5374.673057123671
 21
8877.497424545914
 31
0.0
  0
LINE
  5
1816A
330
747D
100
AcDbEntity
  8
部品1
100
AcDbLine
 10
5346.673057123672
 20
9297.497424545914
 30
0.0
 11
5374.673057123671
 21
9297.497424545914
 31
0.0
  0
LINE
  5
1816B
330
747D
100
AcDbEntity
  8
部品1
 48
50.0
100
AcDbLine
 10
5402.673057123704
 20
9744.497424545723
 30
0.0
 11
5429.673057123693
 21
9717.497424545737
 31
0.0
  0
LINE
  5
1816C
330
747D
100
AcDbEntity
  8
部品1
 48
50.0
100
AcDbLine
 10
5346.673057123719
 20
9744.497424545818
 30
0.0
 11
5319.673057123715
 21
9717.497424545813
 31
0.0
  0
LINE
  5
1816F
330
747D
100
AcDbEntity
  8
部品1
100
AcDbLine
 10
5319.673057123662
 20
9717.497424545884
 30
0.0
 11
3219.673057123654
 21
9717.497424545888
 31
0.0
  0
LINE
  5
18170
330
747D
100
AcDbEntity
  8
部品1
100
AcDbLine
 10
5402.673057123652
 20
9717.497424545886
 30
0.0
 11
5346.67305712365
 21
9717.497424545884
 31
0.0
  0
LINE
  5
18171
330
747D
100
AcDbEntity
  8
部品1
100
AcDbLine
 10
5346.673057123678
 20
8037.497424545914
 30
0.0
 11
5374.673057123677
 21
8037.497424545914
 31
0.0
  0
LINE
  5
18172
330
747D
100
AcDbEntity
  8
部品1
100
AcDbLine
 10
5346.673057123678
 20
7617.497424545914
 30
0.0
 11
5374.673057123677
 21
7617.497424545914
 31
0.0
  0
TEXT
  5
182A9
330
747D
100
AcDbEntity
  8
文字
 62
     7
 48
50.0
100
AcDbText
 10
15022.63965474516
 20
9910.013745883727
 30
0.0
 40
100.0
  1
F12,Y10        1.0
  7
STYLE1
100
AcDbText
  0
TEXT
  5
182AA
330
747D
100
AcDbEntity
  8
文字
 62
     7
 48
50.0
100
AcDbText
 10
13583.11819016569
 20
9910.01374588373
 30
0.0
 40
100.0
  1
梁中
  7
STYLE1
100
AcDbText
  0
TEXT
  5
182AB
330
747D
100
AcDbEntity
  8
文字
 62
     7
 48
50.0
100
AcDbText
 10
13248.77747366448
 20
8720.013745883731
 30
0.0
 40
100.0
  1
14
  7
STYLE1
100
AcDbText
  0
LINE
  5
182AC
330
747D
100
AcDbEntity
  8
仕様書枠
 48
50.0
100
AcDbLine
 10
16307.19999999999
 20
9879.599999999999
 30
0.0
 11
13127.2
 21
9879.600000000001
 31
0.0
  0
LINE
  5
182AD
330
747D
100
AcDbEntity
  8
仕様書枠
 48
50.0
100
AcDbLine
 10
16307.19999999999
 20
11239.6
 30
0.0
 11
13127.2
 21
11239.6
 31
0.0
  0
LINE
  5
182AE
330
747D
100
AcDbEntity
  8
仕様書枠
 48
50.0
100
AcDbLine
 10
16307.2
 20
8179.6
 30
0.0
 11
16307.2
 21
11239.6
 31
0.0
  0
LINE
  5
182AF
330
747D
100
AcDbEntity
  8
仕様書枠
 48
50.0
100
AcDbLine
 10
14785.2
 20
11239.59999999999
 30
0.0
 11
14785.2
 21
8689.600000000003
 31
0.0
  0
LINE
  5
182B0
330
747D
100
AcDbEntity
  8
仕様書枠
 48
50.0
100
AcDbLine
 10
13490.2
 20
11239.6
 30
0.0
 11
13490.2
 21
8689.6
 31
0.0
  0
LINE
  5
182B1
330
747D
100
AcDbEntity
  8
仕様書枠
 48
50.0
100
AcDbLine
 10
16307.19999999999
 20
11069.6
 30
0.0
 11
13127.2
 21
11069.6
 31
0.0
  0
LINE
  5
182B2
330
747D
100
AcDbEntity
  8
仕様書枠
 48
50.0
100
AcDbLine
 10
16307.19999999999
 20
10729.6
 30
0.0
 11
13127.2
 21
10729.6
 31
0.0
  0
LINE
  5
182B3
330
747D
100
AcDbEntity
  8
仕様書枠
 48
50.0
100
AcDbLine
 10
16307.19999999999
 20
10899.6
 30
0.0
 11
13127.2
 21
10899.6
 31
0.0
  0
LINE
  5
182B4
330
747D
100
AcDbEntity
  8
仕様書枠
 48
50.0
100
AcDbLine
 10
16307.19999999999
 20
10389.6
 30
0.0
 11
13127.19999999999
 21
10389.6
 31
0.0
  0
LINE
  5
182B5
330
747D
100
AcDbEntity
  8
仕様書枠
 48
50.0
100
AcDbLine
 10
16307.19999999999
 20
10219.6
 30
0.0
 11
13127.19999999999
 21
10219.6
 31
0.0
  0
LINE
  5
182B6
330
747D
100
AcDbEntity
  8
仕様書枠
 48
50.0
100
AcDbLine
 10
16307.19999999999
 20
10559.6
 30
0.0
 11
13127.19999999999
 21
10559.6
 31
0.0
  0
TEXT
  5
182B7
330
747D
100
AcDbEntity
  8
文字
 62
     7
 48
50.0
100
AcDbText
 10
13197.42518560407
 20
11100.01374588373
 30
0.0
 40
100.0
  1
品番
  7
STYLE1
100
AcDbText
  0
TEXT
  5
182B8
330
747D
100
AcDbEntity
  8
文字
 62
     7
 48
50.0
100
AcDbText
 10
13271.19032244792
 20
10930.01374588373
 30
0.0
 40
100.0
  1
1
  7
STYLE1
100
AcDbText
  0
TEXT
  5
182B9
330
747D
100
AcDbEntity
  8
文字
 62
     7
 48
50.0
100
AcDbText
 10
13271.19032244792
 20
10760.01374588373
 30
0.0
 40
100.0
  1
2
  7
STYLE1
100
AcDbText
  0
TEXT
  5
182BA
330
747D
100
AcDbEntity
  8
文字
 62
     7
 48
50.0
100
AcDbText
 10
13271.19032244792
 20
10420.01374588373
 30
0.0
 40
100.0
  1
4
  7
STYLE1
100
AcDbText
  0
TEXT
  5
182BB
330
747D
100
AcDbEntity
  8
文字
 62
     7
 48
50.0
100
AcDbText
 10
13271.19032244792
 20
10590.01374588373
 30
0.0
 40
100.0
  1
3
  7
STYLE1
100
AcDbText
  0
TEXT
  5
182BC
330
747D
100
AcDbEntity
  8
文字
 62
     7
 48
50.0
100
AcDbText
 10
13732.03840939434
 20
11100.01374588373
 30
0.0
 40
100.0
  1
部　　品　　名
  7
STYLE1
100
AcDbText
  0
TEXT
  5
182BD
330
747D
100
AcDbEntity
  8
文字
 62
     7
 48
50.0
100
AcDbText
 10
14859.79774614482
 20
11100.01374588373
 30
0.0
 40
100.0
  1
材料（材質）　　単位mm
  7
STYLE1
100
AcDbText
  0
TEXT
  5
182BE
330
747D
100
AcDbEntity
  8
文字
 62
     7
 48
50.0
100
AcDbText
 10
13583.11819016569
 20
10930.01374588372
 30
0.0
 40
100.0
  1
土台枠
  7
STYLE1
100
AcDbText
  0
TEXT
  5
182BF
330
747D
100
AcDbEntity
  8
文字
 62
     7
 48
50.0
100
AcDbText
 10
13583.11819016569
 20
10760.01374588372
 30
0.0
 40
100.0
  1
柱
  7
STYLE1
100
AcDbText
  0
TEXT
  5
182C0
330
747D
100
AcDbEntity
  8
文字
 62
     7
 48
50.0
100
AcDbText
 10
13583.11819016569
 20
10590.01374588373
 30
0.0
 40
100.0
  1
桁前
  7
STYLE1
100
AcDbText
  0
TEXT
  5
182C1
330
747D
100
AcDbEntity
  8
文字
 62
     7
 48
50.0
100
AcDbText
 10
13583.11819016569
 20
10420.01374588373
 30
0.0
 40
100.0
  1
桁後
  7
STYLE1
100
AcDbText
  0
TEXT
  5
182C2
330
747D
100
AcDbEntity
  8
文字
 62
     7
 48
50.0
100
AcDbText
 10
13271.19032244792
 20
10250.01374588373
 30
0.0
 40
100.0
  1
5
  7
STYLE1
100
AcDbText
  0
TEXT
  5
182C3
330
747D
100
AcDbEntity
  8
文字
 62
     7
 48
50.0
100
AcDbText
 10
13583.11819016569
 20
10250.01374588373
 30
0.0
 40
100.0
  1
妻板左右
  7
STYLE1
100
AcDbText
  0
TEXT
  5
182C4
330
747D
100
AcDbEntity
  8
文字
 62
     7
 48
50.0
100
AcDbText
 10
13583.11819016569
 20
8890.013745883727
 30
0.0
 40
100.0
  1
シャッターレール
  7
STYLE1
100
AcDbText
  0
TEXT
  5
182C5
330
747D
100
AcDbEntity
  8
文字
 62
     7
 48
50.0
100
AcDbText
 10
13248.77747366448
 20
9400.013745883727
 30
0.0
 40
100.0
  1
10
  7
STYLE1
100
AcDbText
  0
TEXT
  5
182C6
330
747D
100
AcDbEntity
  8
文字
 62
     7
 48
50.0
100
AcDbText
 10
13583.11819016569
 20
9400.013745883729
 30
0.0
 40
100.0
  1
壁パネル
  7
STYLE1
100
AcDbText
  0
TEXT
  5
182C7
330
747D
100
AcDbEntity
  8
文字
 62
     7
 48
50.0
100
AcDbText
 10
13583.11819016569
 20
9570.013745883727
 30
0.0
 40
100.0
  1
屋根パネル
  7
STYLE1
100
AcDbText
  0
TEXT
  5
182C8
330
747D
100
AcDbEntity
  8
文字
 62
     7
 48
50.0
100
AcDbText
 10
13583.11819016569
 20
9740.013745883729
 30
0.0
 40
100.0
  1
母屋中
  7
STYLE1
100
AcDbText
  0
TEXT
  5
182C9
330
747D
100
AcDbEntity
  8
文字
 62
     7
 48
50.0
100
AcDbText
 10
13583.11819016569
 20
10080.01374588372
 30
0.0
 40
100.0
  1
鼻隠シ前後
  7
STYLE1
100
AcDbText
  0
TEXT
  5
182CA
330
747D
100
AcDbEntity
  8
文字
 62
     7
 48
50.0
100
AcDbText
 10
13271.19032244792
 20
9740.013745883729
 30
0.0
 40
100.0
  1
8
  7
STYLE1
100
AcDbText
  0
TEXT
  5
182CB
330
747D
100
AcDbEntity
  8
文字
 62
     7
 48
50.0
100
AcDbText
 10
13271.19032244792
 20
9570.013745883729
 30
0.0
 40
100.0
  1
9
  7
STYLE1
100
AcDbText
  0
TEXT
  5
182CC
330
747D
100
AcDbEntity
  8
文字
 62
     7
 48
50.0
100
AcDbText
 10
13271.19032244792
 20
9910.01374588373
 30
0.0
 40
100.0
  1
7
  7
STYLE1
100
AcDbText
  0
TEXT
  5
182CD
330
747D
100
AcDbEntity
  8
文字
 62
     7
 48
50.0
100
AcDbText
 10
13271.19032244792
 20
10080.01374588373
 30
0.0
 40
100.0
  1
6
  7
STYLE1
100
AcDbText
  0
LINE
  5
182CE
330
747D
100
AcDbEntity
  8
仕様書枠
 48
50.0
100
AcDbLine
 10
16307.19999999999
 20
9539.599999999998
 30
0.0
 11
13127.19999999999
 21
9539.6
 31
0.0
  0
LINE
  5
182CF
330
747D
100
AcDbEntity
  8
仕様書枠
 48
50.0
100
AcDbLine
 10
16307.19999999999
 20
9199.599999999998
 30
0.0
 11
13127.19999999999
 21
9199.600000000001
 31
0.0
  0
LINE
  5
182D0
330
747D
100
AcDbEntity
  8
仕様書枠
 48
50.0
100
AcDbLine
 10
16307.19999999999
 20
9369.599999999998
 30
0.0
 11
13127.19999999999
 21
9369.600000000001
 31
0.0
  0
LINE
  5
182D1
330
747D
100
AcDbEntity
  8
仕様書枠
 48
50.0
100
AcDbLine
 10
16307.19999999999
 20
10049.6
 30
0.0
 11
13127.2
 21
10049.6
 31
0.0
  0
LINE
  5
182D2
330
747D
100
AcDbEntity
  8
仕様書枠
 48
50.0
100
AcDbLine
 10
16307.19999999999
 20
9709.6
 30
0.0
 11
13127.2
 21
9709.600000000001
 31
0.0
  0
TEXT
  5
182D3
330
747D
100
AcDbEntity
  8
文字
 62
     7
 48
50.0
100
AcDbText
 10
13248.77747366448
 20
9230.013745883727
 30
0.0
 40
100.0
  1
11
  7
STYLE1
100
AcDbText
  0
TEXT
  5
182D4
330
747D
100
AcDbEntity
  8
文字
 62
     7
 48
50.0
100
AcDbText
 10
13583.11819016569
 20
9060.013745883727
 30
0.0
 40
100.0
  1
シャッターカバー
 41
0.9
  7
STYLE1
100
AcDbText
  0
LINE
  5
182D5
330
747D
100
AcDbEntity
  8
仕様書枠
 48
50.0
100
AcDbLine
 10
16307.19999999999
 20
9029.6
 30
0.0
 11
13127.19999999999
 21
9029.6
 31
0.0
  0
LINE
  5
182D6
330
747D
100
AcDbEntity
  8
仕様書枠
 48
50.0
100
AcDbLine
 10
16307.19999999999
 20
8689.599999999998
 30
0.0
 11
13127.19999999999
 21
8689.6
 31
0.0
  0
TEXT
  5
182D7
330
747D
100
AcDbEntity
  8
文字
 62
     7
 48
50.0
100
AcDbText
 10
13583.11819016569
 20
8720.013745883729
 30
0.0
 40
100.0
  1
棚板（別売）
  7
STYLE1
100
AcDbText
  0
LINE
  5
182D8
330
747D
100
AcDbEntity
  8
仕様書枠
 48
50.0
100
AcDbLine
 10
16307.19999999999
 20
8859.6
 30
0.0
 11
13127.19999999999
 21
8859.600000000002
 31
0.0
  0
TEXT
  5
182D9
330
747D
100
AcDbEntity
  8
文字
 62
     7
 48
50.0
100
AcDbText
 10
13583.11819016569
 20
9230.013745883727
 30
0.0
 40
100.0
  1
シャッター
  7
STYLE1
100
AcDbText
  0
TEXT
  5
182DA
330
747D
100
AcDbEntity
  8
文字
 62
     7
 48
50.0
100
AcDbText
 10
13248.77747366448
 20
8890.013745883729
 30
0.0
 40
100.0
  1
13
  7
STYLE1
100
AcDbText
  0
TEXT
  5
182DB
330
747D
100
AcDbEntity
  8
文字
 62
     7
 48
50.0
100
AcDbText
 10
13248.77747366448
 20
9060.013745883729
 30
0.0
 40
100.0
  1
12
  7
STYLE1
100
AcDbText
  0
TEXT
  5
182DC
330
747D
100
AcDbEntity
  8
文字
 62
     7
 48
50.0
100
AcDbText
 10
15022.63965474517
 20
10930.01374588372
 30
0.0
 40
100.0
  1
F12            1.2
  7
STYLE1
100
AcDbText
  0
TEXT
  5
182DE
330
747D
100
AcDbEntity
  8
文字
 62
     7
 48
50.0
100
AcDbText
 10
15022.63965474516
 20
10590.01374588372
 30
0.0
 40
100.0
  1
Y10            1.0
  7
STYLE1
100
AcDbText
  0
TEXT
  5
182DF
330
747D
100
AcDbEntity
  8
文字
 62
     7
 48
50.0
100
AcDbText
 10
15022.63965474516
 20
10420.01374588372
 30
0.0
 40
100.0
  1
Y10            1.0
  7
STYLE1
100
AcDbText
  0
TEXT
  5
182E0
330
747D
100
AcDbEntity
  8
文字
 62
     7
 48
50.0
100
AcDbText
 10
15022.63965474516
 20
10250.01374588372
 30
0.0
 40
100.0
  1
Y10            0.7
  7
STYLE1
100
AcDbText
  0
TEXT
  5
182E1
330
747D
100
AcDbEntity
  8
文字
 62
     7
 48
50.0
100
AcDbText
 10
15022.63965474516
 20
10080.01374588372
 30
0.0
 40
100.0
  1
Y10            0.7
  7
STYLE1
100
AcDbText
  0
TEXT
  5
182E3
330
747D
100
AcDbEntity
  8
文字
 62
     7
 48
50.0
100
AcDbText
 10
15022.63965474516
 20
9570.013745883725
 30
0.0
 40
100.0
  1
Y10            0.5
  7
STYLE1
100
AcDbText
  0
TEXT
  5
182E4
330
747D
100
AcDbEntity
  8
文字
 62
     7
 48
50.0
100
AcDbText
 10
15022.63965474516
 20
9400.013745883725
 30
0.0
 40
100.0
  1
F12            0.7
  7
STYLE1
100
AcDbText
  0
TEXT
  5
182E5
330
747D
100
AcDbEntity
  8
文字
 62
     7
 48
50.0
100
AcDbText
 10
14850.83183167176
 20
8890.013745883726
 30
0.0
 40
100.0
  1
アルミニウム合金押出形材
  7
STYLE1
100
AcDbText
  0
TEXT
  5
182E7
330
747D
100
AcDbEntity
  8
文字
 62
     7
 48
50.0
100
AcDbText
 10
15022.63965474516
 20
9230.013745883724
 30
0.0
 40
100.0
  1
Z08            0.5
  7
STYLE1
100
AcDbText
  0
TEXT
  5
182E8
330
747D
100
AcDbEntity
  8
文字
 62
     7
 48
50.0
100
AcDbText
 10
15022.63965474515
 20
8720.013745883727
 30
0.0
 40
100.0
  1
F12            0.6
  7
STYLE1
100
AcDbText
  0
LINE
  5
182E9
330
747D
100
AcDbEntity
  8
仕様書枠
 48
50.0
100
AcDbLine
 10
16307.19999999999
 20
8519.599999999998
 30
0.0
 11
13127.19999999999
 21
8519.600000000002
 31
0.0
  0
LINE
  5
182EA
330
747D
100
AcDbEntity
  8
仕様書枠
 48
50.0
100
AcDbLine
 10
16307.19999999999
 20
8349.599999999998
 30
0.0
 11
13127.19999999999
 21
8349.6
 31
0.0
  0
LINE
  5
182EB
330
747D
100
AcDbEntity
  8
仕様書枠
 48
50.0
100
AcDbLine
 10
16307.19999999999
 20
8179.599999999998
 30
0.0
 11
13127.19999999999
 21
8179.6
 31
0.0
  0
TEXT
  5
182EC
330
747D
100
AcDbEntity
  8
文字
 62
     7
 48
50.0
100
AcDbText
 10
13229.83081656555
 20
8550.013745883727
 30
0.0
 40
100.0
  1
F12→溶融亜鉛めっき鋼板(JIS G 3302)
  7
STYLE1
100
AcDbText
  0
TEXT
  5
182ED
330
747D
100
AcDbEntity
  8
文字
 62
     7
 48
50.0
100
AcDbText
 10
13229.83081656554
 20
8380.013745883728
 30
0.0
 40
100.0
  1
Y10→溶融亜鉛-5％アルミニウム合金めっき鋼板(JIS G 3317)
 41
0.9
  7
STYLE1
100
AcDbText
  0
TEXT
  5
182EE
330
747D
100
AcDbEntity
  8
文字
 62
     7
 48
50.0
100
AcDbText
 10
13229.83081656555
 20
8210.013745883729
 30
0.0
 40
100.0
  1
Z08→塗装溶融亜鉛めっき鋼板(JIS G 3313)
  7
STYLE1
100
AcDbText
  0
LINE
  5
182EF
330
747D
100
AcDbEntity
  8
仕様書枠
 48
50.0
100
AcDbLine
 10
13127.2
 20
11239.6
 30
0.0
 11
13127.2
 21
8179.600000000002
 31
0.0
  0
TEXT
  5
182F5
330
747D
100
AcDbEntity
  8
文字
 62
     7
 48
50.0
100
AcDbText
 10
14830.49062778117
 20
9743.579206374931
 30
0.0
 40
100.0
  1
F12    1.0(多雪地型  2.3)
  7
STYLE1
100
AcDbText
  0
TEXT
  5
182FB
330
747D
100
AcDbEntity
  8
文字
 62
     7
 48
50.0
100
AcDbText
 10
13203.82415985932
 20
58.66862742757439
 30
0.0
 40
100.0
  1
○床面積 ： 11.62㎡(3.52坪)
  7
STYLE2
100
AcDbText
  0
TEXT
  5
188D8
330
747D
100
AcDbEntity
  8
部品1
100
AcDbText
 10
11255.23792064437
 20
1218.377091529614
 30
0.0
 40
135.0
  1
側面図
  7
MSGOTHIC
100
AcDbText
  0
LWPOLYLINE
  5
188D9
330
747D
100
AcDbEntity
  8
部品1
100
AcDbPolyline
 90
        4
 70
     1
 43
0.0
 10
11155.11449739908
 20
1411.270620748139
 10
11155.11449739908
 20
1171.378299202606
 10
11918.58516362751
 20
1171.378299202606
 10
11918.58516362751
 20
1411.270620748139
  0
TEXT
  5
188DA
330
747D
100
AcDbEntity
  8
文字
 62
     7
 48
50.0
100
AcDbText
 10
14300.82295705533
 20
483.8967129911416
 30
0.0
 40
160.0
  1
FXN-2226HL-2
  7
MSPゴシック
100
AcDbText
  0
LINE
  5
188DB
330
747D
100
AcDbEntity
  8
部品1
100
AcDbLine
 10
10211.84983051329
 20
2161.270620748139
 30
0.0
 11
9818.852616304448
 21
2061.270620748139
 31
0.0
  0
LINE
  5
188DC
330
747D
100
AcDbEntity
  8
破線
 48
5.0
100
AcDbLine
 10
10211.84983051329
 20
1811.270620748139
 30
0.0
 11
10266.84983051329
 21
1811.270620748139
 31
0.0
  0
LINE
  5
188DD
330
747D
100
AcDbEntity
  8
破線
 48
5.0
100
AcDbLine
 10
10266.84983051329
 20
2061.270620748139
 30
0.0
 11
10266.84983051329
 21
1811.270620748139
 31
0.0
  0
LINE
  5
188DE
330
747D
100
AcDbEntity
  8
破線
 48
5.0
100
AcDbLine
 10
10211.84983051329
 20
2061.270620748139
 30
0.0
 11
10211.84983051329
 21
1811.270620748139
 31
0.0
  0
DIMENSION
  5
188E4
330
747D
100
AcDbEntity
  8
寸法
 48
50.0
100
AcDbDimension
  2
*D22
 10
9591.241423744913
 20
4410.615879621471
 30
0.0
 11
9601.906899003838
 21
4781.462542863169
 31
0.0
 70
   161
 71
     5
 42
141.0
  3
INABA_S40G
100
AcDbAlignedDimension
 13
10171.24585067187
 23
4534.99336958282
 33
0.0
 14
10167.19239511525
 24
4394.051645817106
 34
0.0
1001
ACAD
1000
DSTYLE
1002
{
1070
   174
1070
     0
1070
   272
1070
     1
1070
   288
1070
     0
1070
   341
1005
0
1002
}
  0
LINE
  5
188E5
330
747D
100
AcDbEntity
  8
細線
 48
50.0
100
AcDbLine
 10
12709.3498305133
 20
4301.270620748138
 30
0.0
 11
12709.3498305133
 21
2211.270620748142
 31
0.0
  0
LINE
  5
188E6
330
747D
100
AcDbEntity
  8
細線
 48
50.0
100
AcDbLine
 10
12724.3498305133
 20
4301.270620748138
 30
0.0
 11
12724.3498305133
 21
2211.270620748142
 31
0.0
  0
LINE
  5
188E7
330
747D
100
AcDbEntity
  8
細線
 48
50.0
100
AcDbLine
 10
12584.3498305133
 20
4301.270620748138
 30
0.0
 11
12584.3498305133
 21
2211.270620748142
 31
0.0
  0
LINE
  5
188E8
330
747D
100
AcDbEntity
  8
細線
 48
50.0
100
AcDbLine
 10
12569.3498305133
 20
4301.270620748138
 30
0.0
 11
12569.3498305133
 21
2211.270620748142
 31
0.0
  0
LINE
  5
188E9
330
747D
100
AcDbEntity
  8
細線
 48
50.0
100
AcDbLine
 10
12429.3498305133
 20
4301.270620748138
 30
0.0
 11
12429.3498305133
 21
2211.270620748142
 31
0.0
  0
LINE
  5
188EA
330
747D
100
AcDbEntity
  8
細線
 48
50.0
100
AcDbLine
 10
12444.3498305133
 20
4301.270620748138
 30
0.0
 11
12444.3498305133
 21
2211.270620748142
 31
0.0
  0
LINE
  5
188EB
330
747D
100
AcDbEntity
  8
部品1
100
AcDbLine
 10
11526.84983051329
 20
4301.270620748138
 30
0.0
 11
11526.84983051329
 21
2211.270620748139
 31
0.0
  0
LINE
  5
188EC
330
747D
100
AcDbEntity
  8
細線
 48
50.0
100
AcDbLine
 10
11184.34983051329
 20
4301.270620748138
 30
0.0
 11
11184.3498305133
 21
2211.270620748139
 31
0.0
  0
LINE
  5
188ED
330
747D
100
AcDbEntity
  8
細線
 48
50.0
100
AcDbLine
 10
11169.34983051329
 20
4301.270620748138
 30
0.0
 11
11169.3498305133
 21
2211.270620748139
 31
0.0
  0
LINE
  5
188EE
330
747D
100
AcDbEntity
  8
細線
 48
50.0
100
AcDbLine
 10
11309.3498305133
 20
4301.270620748138
 30
0.0
 11
11309.3498305133
 21
2211.270620748139
 31
0.0
  0
LINE
  5
188EF
330
747D
100
AcDbEntity
  8
細線
 48
50.0
100
AcDbLine
 10
11324.34983051329
 20
4301.270620748138
 30
0.0
 11
11324.3498305133
 21
2211.270620748139
 31
0.0
  0
LINE
  5
188F0
330
747D
100
AcDbEntity
  8
細線
 48
50.0
100
AcDbLine
 10
11464.34983051329
 20
4301.270620748138
 30
0.0
 11
11464.34983051329
 21
2211.270620748139
 31
0.0
  0
LINE
  5
188F1
330
747D
100
AcDbEntity
  8
細線
 48
50.0
100
AcDbLine
 10
11449.34983051329
 20
4301.270620748138
 30
0.0
 11
11449.34983051329
 21
2211.270620748139
 31
0.0
  0
LINE
  5
188F2
330
747D
100
AcDbEntity
  8
部品1
100
AcDbLine
 10
11106.84983051329
 20
4301.270620748138
 30
0.0
 11
11106.84983051329
 21
2211.270620748139
 31
0.0
  0
DIMENSION
  5
188F3
330
747D
100
AcDbEntity
  8
寸法
 48
50.0
100
AcDbDimension
  2
*D23
 10
12921.84983051329
 20
4934.928074327445
 30
0.0
 11
13127.89707460779
 21
4934.928074327445
 31
0.0
 70
   160
 71
     5
 42
80.0
  3
INABA_S40G
100
AcDbAlignedDimension
 13
12841.84983051329
 23
4483.081300359793
 33
0.0
 14
12921.84983051329
 24
4481.270620748142
 34
0.0
100
AcDbRotatedDimension
1001
ACAD
1000
DSTYLE
1002
{
1070
   174
1070
     0
1070
   272
1070
     1
1070
   288
1070
     0
1070
   341
1005
0
1002
}
  0
LINE
  5
188F4
330
747D
100
AcDbEntity
  8
細線
 48
50.0
100
AcDbLine
 10
10344.34983051329
 20
4301.270620748138
 30
0.0
 11
10344.34983051329
 21
2211.270620748139
 31
0.0
  0
LINE
  5
188F5
330
747D
100
AcDbEntity
  8
細線
 48
50.0
100
AcDbLine
 10
10329.34983051329
 20
4301.270620748138
 30
0.0
 11
10329.34983051329
 21
2211.270620748139
 31
0.0
  0
LINE
  5
188F6
330
747D
100
AcDbEntity
  8
細線
 48
50.0
100
AcDbLine
 10
10469.34983051329
 20
4301.270620748138
 30
0.0
 11
10469.34983051329
 21
2211.270620748139
 31
0.0
  0
LINE
  5
188F7
330
747D
100
AcDbEntity
  8
細線
 48
50.0
100
AcDbLine
 10
10484.34983051329
 20
4301.270620748138
 30
0.0
 11
10484.34983051329
 21
2211.270620748139
 31
0.0
  0
LINE
  5
188F8
330
747D
100
AcDbEntity
  8
細線
 48
50.0
100
AcDbLine
 10
10624.34983051329
 20
4301.270620748138
 30
0.0
 11
10624.34983051329
 21
2211.270620748139
 31
0.0
  0
LINE
  5
188F9
330
747D
100
AcDbEntity
  8
細線
 48
50.0
100
AcDbLine
 10
10609.34983051329
 20
4301.270620748138
 30
0.0
 11
10609.34983051329
 21
2211.270620748139
 31
0.0
  0
LINE
  5
188FA
330
747D
100
AcDbEntity
  8
細線
 48
50.0
100
AcDbLine
 10
11029.34983051329
 20
4301.270620748138
 30
0.0
 11
11029.34983051329
 21
2211.270620748139
 31
0.0
  0
LINE
  5
188FB
330
747D
100
AcDbEntity
  8
細線
 48
50.0
100
AcDbLine
 10
11044.34983051329
 20
4301.270620748138
 30
0.0
 11
11044.34983051329
 21
2211.270620748139
 31
0.0
  0
LINE
  5
188FC
330
747D
100
AcDbEntity
  8
細線
 48
50.0
100
AcDbLine
 10
10904.34983051329
 20
4301.270620748138
 30
0.0
 11
10904.34983051329
 21
2211.270620748139
 31
0.0
  0
LINE
  5
188FD
330
747D
100
AcDbEntity
  8
細線
 48
50.0
100
AcDbLine
 10
10889.34983051329
 20
4301.270620748138
 30
0.0
 11
10889.34983051329
 21
2211.270620748139
 31
0.0
  0
LINE
  5
188FE
330
747D
100
AcDbEntity
  8
細線
 48
50.0
100
AcDbLine
 10
10749.34983051329
 20
4301.270620748138
 30
0.0
 11
10749.34983051329
 21
2211.270620748139
 31
0.0
  0
LINE
  5
188FF
330
747D
100
AcDbEntity
  8
細線
 48
50.0
100
AcDbLine
 10
10764.34983051329
 20
4301.270620748138
 30
0.0
 11
10764.34983051329
 21
2211.270620748139
 31
0.0
  0
LINE
  5
18900
330
747D
100
AcDbEntity
  8
部品1
100
AcDbLine
 10
10266.84983051329
 20
2161.270620748139
 30
0.0
 11
12841.84983051329
 21
2161.270620748139
 31
0.0
  0
DIMENSION
  5
18901
330
747D
100
AcDbEntity
  8
寸法
 48
50.0
100
AcDbDimension
  2
*D24
 10
10151.84983051329
 20
5155.138761059061
 30
0.0
 11
11536.84983051329
 21
5155.138761059061
 31
0.0
 70
   160
 71
     5
 42
2770.0
  3
INABA_S40G
100
AcDbAlignedDimension
 13
12921.84983051329
 23
4481.270620748142
 33
0.0
 14
10151.84983051329
 24
4536.270620748145
 34
0.0
100
AcDbRotatedDimension
1001
ACAD
1000
DSTYLE
1002
{
1070
   174
1070
     0
1070
   272
1070
     1
1070
   288
1070
     0
1070
   341
1005
0
1002
}
  0
DIMENSION
  5
18902
330
747D
100
AcDbEntity
  8
寸法
 48
50.0
100
AcDbDimension
  2
*D25
 10
10151.84983051329
 20
4934.928074327444
 30
0.0
 11
9842.212035237707
 21
4934.928074327444
 31
0.0
 70
   160
 71
     5
 42
60.0
  3
INABA_S40G
100
AcDbAlignedDimension
 13
10211.84983051329
 23
4532.272238871116
 33
0.0
 14
10151.84983051329
 24
4536.270620748145
 34
0.0
100
AcDbRotatedDimension
1001
ACAD
1000
DSTYLE
1002
{
1070
   174
1070
     0
1070
   272
1070
     1
1070
   288
1070
     0
1070
   341
1005
0
1002
}
  0
DIMENSION
  5
18903
330
747D
100
AcDbEntity
  8
寸法
 48
50.0
100
AcDbDimension
  2
*D26
 10
10211.84983051329
 20
4934.928074327445
 30
0.0
 11
11526.84983051329
 21
4934.928074327445
 31
0.0
 70
   160
  1
柱外寸法<>
 71
     5
 42
2630.0
  3
INABA_S40G
100
AcDbAlignedDimension
 13
12841.84983051329
 23
4483.081300359793
 33
0.0
 14
10211.84983051329
 24
4532.272238871116
 34
0.0
100
AcDbRotatedDimension
1001
ACAD
1000
DSTYLE
1002
{
1070
   174
1070
     0
1070
   272
1070
     1
1070
   288
1070
     0
1070
   341
1005
0
1002
}
  0
LINE
  5
18904
330
747D
100
AcDbEntity
  8
部品1
100
AcDbLine
 10
12786.84983051329
 20
4301.270620748138
 30
0.0
 11
12786.84983051329
 21
2211.270620748142
 31
0.0
  0
LINE
  5
18905
330
747D
100
AcDbEntity
  8
部品1
100
AcDbLine
 10
12841.84983051329
 20
4355.804894135879
 30
0.0
 11
12841.84983051329
 21
2061.270620748143
 31
0.0
  0
LINE
  5
18906
330
747D
100
AcDbEntity
  8
部品1
100
AcDbLine
 10
10686.84983051329
 20
4301.270620748138
 30
0.0
 11
10686.84983051329
 21
2211.270620748139
 31
0.0
  0
DIMENSION
  5
18907
330
747D
100
AcDbEntity
  8
寸法
100
AcDbDimension
  2
*D27
 10
9368.099701330036
 20
2161.27062074814
 30
0.0
 11
9368.099701330036
 21
1855.223376653649
 31
0.0
 70
   160
 71
     5
 42
50.0
  3
INABA_S40G
100
AcDbAlignedDimension
 13
10211.84983051329
 23
2211.27062074814
 33
0.0
 14
10156.84983051329
 24
2161.27062074814
 34
0.0
 50
90.0
100
AcDbRotatedDimension
1001
ACAD
1000
DSTYLE
1002
{
1070
   174
1070
     0
1070
   272
1070
     1
1070
   288
1070
     0
1070
   341
1005
0
1002
}
  0
LINE
  5
18908
330
747D
100
AcDbEntity
  8
部品1
100
AcDbLine
 10
10211.84983051329
 20
4393.413058677018
 30
0.0
 11
10211.84983051329
 21
2061.270620748139
 31
0.0
  0
LINE
  5
18909
330
747D
100
AcDbEntity
  8
部品1
100
AcDbLine
 10
10266.84983051329
 20
4301.270620748138
 30
0.0
 11
10266.84983051329
 21
2061.270620748143
 31
0.0
  0
LINE
  5
1890A
330
747D
100
AcDbEntity
  8
部品1
100
AcDbLine
 10
10266.84983051329
 20
2211.270620748139
 30
0.0
 11
12841.84983051329
 21
2211.270620748142
 31
0.0
  0
LINE
  5
1890B
330
747D
100
AcDbEntity
  8
部品1
100
AcDbLine
 10
10211.84983051329
 20
4301.270620748138
 30
0.0
 11
12841.84983051329
 21
4301.270620748138
 31
0.0
  0
LINE
  5
1890C
330
747D
100
AcDbEntity
  8
部品1
100
AcDbLine
 10
12366.84983051329
 20
4301.270620748138
 30
0.0
 11
12366.84983051329
 21
2211.270620748142
 31
0.0
  0
LINE
  5
1890D
330
747D
100
AcDbEntity
  8
細線
 48
50.0
100
AcDbLine
 10
11869.34983051329
 20
4301.270620748138
 30
0.0
 11
11869.34983051329
 21
2211.270620748139
 31
0.0
  0
LINE
  5
1890E
330
747D
100
AcDbEntity
  8
細線
 48
50.0
100
AcDbLine
 10
11884.34983051329
 20
4301.270620748138
 30
0.0
 11
11884.34983051329
 21
2211.270620748139
 31
0.0
  0
LINE
  5
1890F
330
747D
100
AcDbEntity
  8
細線
 48
50.0
100
AcDbLine
 10
11744.34983051329
 20
4301.270620748138
 30
0.0
 11
11744.34983051329
 21
2211.270620748139
 31
0.0
  0
LINE
  5
18910
330
747D
100
AcDbEntity
  8
細線
 48
50.0
100
AcDbLine
 10
11729.34983051329
 20
4301.270620748138
 30
0.0
 11
11729.34983051329
 21
2211.270620748139
 31
0.0
  0
LINE
  5
18911
330
747D
100
AcDbEntity
  8
細線
 48
50.0
100
AcDbLine
 10
11589.34983051329
 20
4301.270620748138
 30
0.0
 11
11589.34983051329
 21
2211.270620748139
 31
0.0
  0
LINE
  5
18912
330
747D
100
AcDbEntity
  8
細線
 48
50.0
100
AcDbLine
 10
11604.34983051329
 20
4301.270620748138
 30
0.0
 11
11604.34983051329
 21
2211.270620748139
 31
0.0
  0
TEXT
  5
18913
330
747D
100
AcDbEntity
  8
部品1
 48
50.0
100
AcDbText
 10
11878.43083247439
 20
4558.539713686449
 30
0.0
 40
120.0
  1
37
 50
90.0
  7
STYLE1
100
AcDbText
  0
TEXT
  5
18914
330
747D
100
AcDbEntity
  8
部品1
 48
50.0
100
AcDbText
 10
11400.7978098093
 20
4696.040971904731
 30
0.0
 40
120.0
  1
1000
  7
STYLE1
100
AcDbText
  0
LINE
  5
18915
330
747D
100
AcDbEntity
  8
部品1
 48
50.0
100
AcDbLine
 10
11712.52997458557
 20
4660.156949752297
 30
0.0
 11
11712.52997458557
 21
4643.956949752297
 31
0.0
  0
LINE
  5
18916
330
747D
100
AcDbEntity
  8
部品1
 48
50.0
100
AcDbLine
 10
11412.52997458557
 20
4660.156949752297
 30
0.0
 11
11712.52997458557
 21
4660.156949752297
 31
0.0
  0
LINE
  5
18917
330
747D
100
AcDbEntity
  8
部品1
100
AcDbLine
 10
10159.39481687026
 20
4534.988356082405
 30
0.0
 11
12914.46170737476
 21
4479.911418457279
 31
0.0
  0
LINE
  5
18918
330
747D
100
AcDbEntity
  8
部品1
100
AcDbLine
 10
10167.19239511525
 20
4394.051645817108
 30
0.0
 11
12896.51353105315
 21
4355.023220582902
 31
0.0
  0
LINE
  5
18919
330
747D
100
AcDbEntity
  8
細線
 48
50.0
100
AcDbLine
 10
10184.84983051329
 20
4533.670297123546
 30
0.0
 11
10179.56072895779
 21
4393.584664496189
 31
0.0
  0
LINE
  5
1891A
330
747D
100
AcDbEntity
  8
細線
 48
50.0
100
AcDbLine
 10
12888.81911370699
 20
4480.42404322761
 30
0.0
 11
12884.1021476253
 21
4355.491827292691
 31
0.0
  0
LINE
  5
1891B
330
747D
100
AcDbEntity
  8
部品1
 48
50.0
100
AcDbLine
 10
10152.0341164264
 20
4527.864166912833
 30
0.0
 11
10152.41437620421
 21
4507.937202466422
 31
0.0
  0
LINE
  5
1891C
330
747D
100
AcDbEntity
  8
部品1
 48
50.0
100
AcDbLine
 10
10155.48314831046
 20
4504.361920972947
 30
0.0
 11
10157.18704980182
 21
4415.071424266301
 31
0.0
  0
LINE
  5
1891D
330
747D
100
AcDbEntity
  8
細線
 48
50.0
100
AcDbLine
 10
10152.88925361411
 20
4507.287702589503
 30
0.0
 11
12918.52523835928
 21
4451.663497948674
 31
0.0
  0
LINE
  5
1891E
330
747D
100
AcDbEntity
  8
細線
 48
50.0
100
AcDbLine
 10
10157.64972885139
 20
4414.426190891638
 30
0.0
 11
12907.65339328204
 21
4374.616871917143
 31
0.0
  0
LINE
  5
1891F
330
747D
100
AcDbEntity
  8
部品1
 48
50.0
100
AcDbLine
 10
10160.25582190807
 20
4411.49614277283
 30
0.0
 11
10160.4577745285
 21
4400.913107379736
 31
0.0
  0
ARC
  5
18920
330
747D
100
AcDbEntity
  8
部品1
 48
50.0
100
AcDbCircle
 10
10159.03284225474
 20
4527.997721320262
 30
0.0
 40
7.0
100
AcDbArc
 50
87.03587545283093
 51
181.0932240293156
  0
ARC
  5
18921
330
747D
100
AcDbEntity
  8
部品1
 48
50.0
100
AcDbCircle
 10
10167.45650035684
 20
4401.046661787164
 30
0.0
 40
7.0
100
AcDbArc
 50
181.0932240293156
 51
267.8377559869492
  0
ARC
  5
18922
330
747D
100
AcDbEntity
  8
部品1
100
AcDbCircle
 10
10157.25636798163
 20
4411.438905169645
 30
0.0
 40
3.0
100
AcDbArc
 50
1.093224029315636
 51
80.18775403169875
  0
ARC
  5
18923
330
747D
100
AcDbEntity
  8
部品1
100
AcDbCircle
 10
10152.48369438403
 20
4504.304683369766
 30
0.0
 40
3.0
100
AcDbArc
 50
1.093224029315636
 51
80.18775403169875
  0
ARC
  5
18924
330
747D
100
AcDbEntity
  8
部品1
100
AcDbCircle
 10
10153.11424878705
 20
4507.950557907163
 30
0.0
 40
0.7
100
AcDbArc
 50
181.0932240292114
 51
260.1877540314845
  0
ARC
  5
18925
330
747D
100
AcDbEntity
  8
部品1
100
AcDbCircle
 10
10157.88692238466
 20
4415.084779707045
 30
0.0
 40
0.7
100
AcDbArc
 50
181.0932240293156
 51
260.1877540314845
  0
LINE
  5
18926
330
747D
100
AcDbEntity
  8
部品1
 48
50.0
100
AcDbLine
 10
12921.063733324
 20
4472.211773022357
 30
0.0
 11
12919.03311213303
 21
4452.266731764579
 31
0.0
  0
LINE
  5
18927
330
747D
100
AcDbEntity
  8
部品1
 48
50.0
100
AcDbLine
 10
12915.68054564854
 20
4448.956097691669
 30
0.0
 11
12908.17376638371
 21
4375.22347694666
 31
0.0
  0
LINE
  5
18928
330
747D
100
AcDbEntity
  8
部品1
 48
50.0
100
AcDbLine
 10
12904.82119989923
 20
4371.912842873745
 30
0.0
 11
12903.74163685948
 21
4361.309225880187
 31
0.0
  0
ARC
  5
18929
330
747D
100
AcDbEntity
  8
部品1
 48
50.0
100
AcDbCircle
 10
12914.09973275924
 20
4472.920783695135
 30
0.0
 40
7.0
100
AcDbArc
 50
354.1866997665532
 51
87.03587545283093
  0
ARC
  5
1892A
330
747D
100
AcDbEntity
  8
部品1
 48
50.0
100
AcDbCircle
 10
12896.77763629472
 20
4362.018236552962
 30
0.0
 40
7.0
100
AcDbArc
 50
267.8377559869492
 51
354.1866997665532
  0
ARC
  5
1892B
330
747D
100
AcDbEntity
  8
部品1
100
AcDbCircle
 10
12907.80577156983
 20
4371.608981156842
 30
0.0
 40
3.0
100
AcDbArc
 50
95.0921697642102
 51
174.1866997665532
  0
ARC
  5
1892C
330
747D
100
AcDbEntity
  8
部品1
100
AcDbCircle
 10
12918.66511731915
 20
4448.652235974768
 30
0.0
 40
3.0
100
AcDbArc
 50
95.0921697642102
 51
174.1866997665532
  0
ARC
  5
1892D
330
747D
100
AcDbEntity
  8
部品1
100
AcDbCircle
 10
12918.33671207655
 20
4452.337632831855
 30
0.0
 40
0.7
100
AcDbArc
 50
275.0921697642102
 51
354.1866997665532
  0
ARC
  5
1892E
330
747D
100
AcDbEntity
  8
部品1
100
AcDbCircle
 10
12907.47736632723
 20
4375.294378013932
 30
0.0
 40
0.7
100
AcDbArc
 50
275.0921697642102
 51
354.1866997667606
  0
LINE
  5
1892F
330
747D
100
AcDbEntity
  8
部品1
100
AcDbLine
 10
11387.07496094254
 20
4661.475008711157
 30
0.0
 11
11712.52997458557
 21
4643.956949752297
 31
0.0
  0
LINE
  5
18930
330
747D
100
AcDbEntity
  8
部品1
100
AcDbLine
 10
11946.84983051329
 20
4301.270620748138
 30
0.0
 11
11946.84983051329
 21
2211.270620748142
 31
0.0
  0
LINE
  5
18931
330
747D
100
AcDbEntity
  8
細線
 48
50.0
100
AcDbLine
 10
12024.34983051329
 20
4301.270620748138
 30
0.0
 11
12024.34983051329
 21
2211.270620748142
 31
0.0
  0
LINE
  5
18932
330
747D
100
AcDbEntity
  8
細線
 48
50.0
100
AcDbLine
 10
12009.34983051329
 20
4301.270620748138
 30
0.0
 11
12009.34983051329
 21
2211.270620748142
 31
0.0
  0
LINE
  5
18933
330
747D
100
AcDbEntity
  8
細線
 48
50.0
100
AcDbLine
 10
12149.34983051329
 20
4301.270620748138
 30
0.0
 11
12149.34983051329
 21
2211.270620748142
 31
0.0
  0
LINE
  5
18934
330
747D
100
AcDbEntity
  8
細線
 48
50.0
100
AcDbLine
 10
12164.34983051329
 20
4301.270620748138
 30
0.0
 11
12164.34983051329
 21
2211.270620748142
 31
0.0
  0
LINE
  5
18935
330
747D
100
AcDbEntity
  8
細線
 48
50.0
100
AcDbLine
 10
12304.34983051329
 20
4301.270620748138
 30
0.0
 11
12304.34983051329
 21
2211.270620748142
 31
0.0
  0
LINE
  5
18936
330
747D
100
AcDbEntity
  8
細線
 48
50.0
100
AcDbLine
 10
12289.34983051329
 20
4301.270620748138
 30
0.0
 11
12289.34983051329
 21
2211.270620748142
 31
0.0
  0
DIMENSION
  5
18937
330
747D
100
AcDbEntity
  8
寸法
100
AcDbDimension
  2
*D28
 10
13546.77698848543
 20
4481.270620748142
 30
0.0
 11
13446.7651774618
 21
3321.270620748143
 31
0.0
 70
    32
 71
     5
 42
2320.0
  3
INABA_S40G
100
AcDbAlignedDimension
 13
12841.84983051329
 23
2161.270620748142
 33
0.0
 14
12921.84983051329
 24
4481.270620748142
 34
0.0
 50
90.0
100
AcDbRotatedDimension
1001
ACAD
1000
DSTYLE
1002
{
1070
   174
1070
     0
1070
   272
1070
     1
1070
   288
1070
     0
1070
   341
1005
0
1002
}
  0
DIMENSION
  5
18938
330
747D
100
AcDbEntity
  8
寸法
100
AcDbDimension
  2
*D29
 10
9068.099701330037
 20
4536.27062074814
 30
0.0
 11
8968.087890306412
 21
3348.770620748138
 31
0.0
 70
    32
 71
     5
 42
2375.000000000005
  3
INABA_S40G
100
AcDbAlignedDimension
 13
10211.84983051329
 23
2161.270620748134
 33
0.0
 14
10151.84983051329
 24
4536.27062074814
 34
0.0
 50
90.0
100
AcDbRotatedDimension
1001
ACAD
1000
DSTYLE
1002
{
1070
   174
1070
     0
1070
   272
1070
     1
1070
   288
1070
     0
1070
   341
1005
0
1002
}
  0
DIMENSION
  5
18939
330
747D
100
AcDbEntity
  8
寸法
100
AcDbDimension
  2
*D30
 10
9368.099701330036
 20
2211.270620748134
 30
0.0
 11
9268.087890306416
 21
3256.270620748136
 31
0.0
 70
    32
 71
     5
 42
2090.000000000001
  3
INABA_S40G
100
AcDbAlignedDimension
 13
10211.84983051329
 23
4301.270620748136
 33
0.0
 14
10211.84983051329
 24
2211.270620748134
 34
0.0
 50
90.0
100
AcDbRotatedDimension
1001
ACAD
1000
DSTYLE
1002
{
1070
   174
1070
     0
1070
   272
1070
     1
1070
   288
1070
     0
1070
   341
1005
0
1002
}
  0
LINE
  5
18D01
330
747D
100
AcDbEntity
  8
補助
  6
PHANTOM
 62
   230
 48
50.0
100
AcDbLine
 10
140.0
 20
0.0
 30
0.0
 11
140.0
 21
11409.6
 31
0.0
  0
ARC
  5
1900F
330
747D
100
AcDbEntity
  8
部品1
 48
0.01
100
AcDbCircle
 10
7006.673057123681
 20
4333.770620748139
 30
0.0
 40
2.0
100
AcDbArc
 50
180.0
 51
270.0
  0
ARC
  5
19010
330
747D
100
AcDbEntity
  8
部品1
 48
0.01
100
AcDbCircle
 10
7006.673057123677
 20
4365.270620748138
 30
0.0
 40
2.0
100
AcDbArc
 50
90.0
 51
180.0
  0
ARC
  5
19011
330
747D
100
AcDbEntity
  8
部品1
 48
0.01
100
AcDbCircle
 10
7182.673057123676
 20
4333.770620748139
 30
0.0
 40
2.0
100
AcDbArc
 50
270.0
 51
0.0
  0
ARC
  5
19012
330
747D
100
AcDbEntity
  8
部品1
 48
0.01
100
AcDbCircle
 10
7182.673057123676
 20
4365.270620748138
 30
0.0
 40
2.0
100
AcDbArc
 50
0.0
 51
90.0
  0
LINE
  5
19013
330
747D
100
AcDbEntity
  8
細線
100
AcDbLine
 10
7094.67305712368
 20
4337.770620748139
 30
0.0
 11
7020.673057123677
 21
4337.770620748139
 31
0.0
  0
LINE
  5
19014
330
747D
100
AcDbEntity
  8
細線
100
AcDbLine
 10
7094.673057123677
 20
4360.770620748138
 30
0.0
 11
7168.673057123676
 21
4360.770620748138
 31
0.0
  0
LINE
  5
19015
330
747D
100
AcDbEntity
  8
細線
100
AcDbLine
 10
7168.673057123676
 20
4337.770620748139
 30
0.0
 11
7094.673057123677
 21
4337.770620748139
 31
0.0
  0
LINE
  5
19016
330
747D
100
AcDbEntity
  8
細線
100
AcDbLine
 10
7020.673057123677
 20
4360.770620748138
 30
0.0
 11
7094.673057123677
 21
4360.770620748138
 31
0.0
  0
LINE
  5
19017
330
747D
100
AcDbEntity
  8
細線
100
AcDbLine
 10
7020.673057123677
 20
4337.770620748139
 30
0.0
 11
7020.673057123677
 21
4360.770620748138
 31
0.0
  0
LINE
  5
19018
330
747D
100
AcDbEntity
  8
細線
100
AcDbLine
 10
7168.673057123676
 20
4360.770620748138
 30
0.0
 11
7168.673057123676
 21
4337.770620748139
 31
0.0
  0
LINE
  5
19019
330
747D
100
AcDbEntity
  8
部品1
 48
0.01
100
AcDbLine
 10
7004.673057123681
 20
4333.770620748139
 30
0.0
 11
7004.673057123676
 21
4365.270620748138
 31
0.0
  0
LINE
  5
1901A
330
747D
100
AcDbEntity
  8
部品1
 48
0.01
100
AcDbLine
 10
7182.673057123676
 20
4331.770620748138
 30
0.0
 11
7006.673057123681
 21
4331.770620748138
 31
0.0
  0
LINE
  5
1901B
330
747D
100
AcDbEntity
  8
部品1
 48
0.01
100
AcDbLine
 10
7184.673057123676
 20
4365.270620748138
 30
0.0
 11
7184.673057123676
 21
4333.770620748139
 31
0.0
  0
LINE
  5
1901C
330
747D
100
AcDbEntity
  8
部品1
 48
0.01
100
AcDbLine
 10
7006.673057123677
 20
4367.270620748139
 30
0.0
 11
7182.673057123676
 21
4367.270620748139
 31
0.0
  0
LINE
  5
1901D
330
747D
100
AcDbEntity
  8
細線
100
AcDbLine
 10
7168.673057123676
 20
4354.770620748139
 30
0.0
 11
7094.673057123677
 21
4354.770620748139
 31
0.0
  0
LINE
  5
1901E
330
747D
100
AcDbEntity
  8
細線
100
AcDbLine
 10
7168.673057123676
 20
4348.770620748139
 30
0.0
 11
7094.673057123677
 21
4348.770620748139
 31
0.0
  0
LINE
  5
1901F
330
747D
100
AcDbEntity
  8
細線
100
AcDbLine
 10
7168.67305712368
 20
4342.770620748138
 30
0.0
 11
7094.673057123677
 21
4342.770620748138
 31
0.0
  0
LINE
  5
19020
330
747D
100
AcDbEntity
  8
細線
100
AcDbLine
 10
7168.673057123676
 20
4354.770620748139
 30
0.0
 11
7099.673057123677
 21
4354.770620748139
 31
0.0
  0
LINE
  5
19021
330
747D
100
AcDbEntity
  8
細線
100
AcDbLine
 10
7020.67305712368
 20
4354.770620748139
 30
0.0
 11
7094.673057123677
 21
4354.770620748139
 31
0.0
  0
LINE
  5
19022
330
747D
100
AcDbEntity
  8
細線
100
AcDbLine
 10
7020.67305712368
 20
4342.770620748138
 30
0.0
 11
7094.673057123677
 21
4342.770620748138
 31
0.0
  0
LINE
  5
19023
330
747D
100
AcDbEntity
  8
細線
100
AcDbLine
 10
7020.67305712368
 20
4348.770620748139
 30
0.0
 11
7094.673057123677
 21
4348.770620748139
 31
0.0
  0
LINE
  5
19024
330
747D
100
AcDbEntity
  8
細線
100
AcDbLine
 10
7094.673057123677
 20
4360.770620748138
 30
0.0
 11
7094.67305712368
 21
4337.770620748139
 31
0.0
  0
LINE
  5
19025
330
747D
100
AcDbEntity
  8
細線
100
AcDbLine
 10
5864.67305712368
 20
4360.770620748138
 30
0.0
 11
5864.673057123677
 21
4337.770620748139
 31
0.0
  0
LINE
  5
19026
330
747D
100
AcDbEntity
  8
細線
100
AcDbLine
 10
5938.673057123676
 20
4348.770620748139
 30
0.0
 11
5864.67305712368
 21
4348.770620748139
 31
0.0
  0
LINE
  5
19027
330
747D
100
AcDbEntity
  8
細線
100
AcDbLine
 10
5938.673057123676
 20
4342.770620748138
 30
0.0
 11
5864.67305712368
 21
4342.770620748138
 31
0.0
  0
LINE
  5
19028
330
747D
100
AcDbEntity
  8
細線
100
AcDbLine
 10
5938.673057123676
 20
4354.770620748139
 30
0.0
 11
5864.67305712368
 21
4354.770620748139
 31
0.0
  0
LINE
  5
19029
330
747D
100
AcDbEntity
  8
細線
100
AcDbLine
 10
5790.67305712368
 20
4354.770620748139
 30
0.0
 11
5859.67305712368
 21
4354.770620748139
 31
0.0
  0
LINE
  5
1902A
330
747D
100
AcDbEntity
  8
細線
100
AcDbLine
 10
5790.673057123677
 20
4342.770620748138
 30
0.0
 11
5864.67305712368
 21
4342.770620748138
 31
0.0
  0
LINE
  5
1902B
330
747D
100
AcDbEntity
  8
細線
100
AcDbLine
 10
5790.67305712368
 20
4348.770620748139
 30
0.0
 11
5864.67305712368
 21
4348.770620748139
 31
0.0
  0
LINE
  5
1902C
330
747D
100
AcDbEntity
  8
細線
100
AcDbLine
 10
5790.67305712368
 20
4354.770620748139
 30
0.0
 11
5864.67305712368
 21
4354.770620748139
 31
0.0
  0
LINE
  5
1902D
330
747D
100
AcDbEntity
  8
部品1
 48
0.01
100
AcDbLine
 10
5952.67305712368
 20
4367.270620748139
 30
0.0
 11
5776.67305712368
 21
4367.270620748139
 31
0.0
  0
LINE
  5
1902E
330
747D
100
AcDbEntity
  8
部品1
 48
0.01
100
AcDbLine
 10
5774.67305712368
 20
4365.270620748138
 30
0.0
 11
5774.67305712368
 21
4333.770620748139
 31
0.0
  0
LINE
  5
1902F
330
747D
100
AcDbEntity
  8
部品1
 48
0.01
100
AcDbLine
 10
5776.67305712368
 20
4331.770620748138
 30
0.0
 11
5952.673057123677
 21
4331.770620748138
 31
0.0
  0
LINE
  5
19030
330
747D
100
AcDbEntity
  8
部品1
 48
0.01
100
AcDbLine
 10
5954.673057123677
 20
4333.770620748139
 30
0.0
 11
5954.673057123681
 21
4365.270620748138
 31
0.0
  0
LINE
  5
19031
330
747D
100
AcDbEntity
  8
細線
100
AcDbLine
 10
5790.67305712368
 20
4360.770620748138
 30
0.0
 11
5790.67305712368
 21
4337.770620748139
 31
0.0
  0
LINE
  5
19032
330
747D
100
AcDbEntity
  8
細線
100
AcDbLine
 10
5938.67305712368
 20
4337.770620748139
 30
0.0
 11
5938.67305712368
 21
4360.770620748138
 31
0.0
  0
LINE
  5
19033
330
747D
100
AcDbEntity
  8
細線
100
AcDbLine
 10
5938.67305712368
 20
4360.770620748138
 30
0.0
 11
5864.67305712368
 21
4360.770620748138
 31
0.0
  0
LINE
  5
19034
330
747D
100
AcDbEntity
  8
細線
100
AcDbLine
 10
5790.67305712368
 20
4337.770620748139
 30
0.0
 11
5864.67305712368
 21
4337.770620748139
 31
0.0
  0
LINE
  5
19035
330
747D
100
AcDbEntity
  8
細線
100
AcDbLine
 10
5864.67305712368
 20
4360.770620748138
 30
0.0
 11
5790.67305712368
 21
4360.770620748138
 31
0.0
  0
LINE
  5
19036
330
747D
100
AcDbEntity
  8
細線
100
AcDbLine
 10
5864.673057123677
 20
4337.770620748139
 30
0.0
 11
5938.67305712368
 21
4337.770620748139
 31
0.0
  0
ARC
  5
19037
330
747D
100
AcDbEntity
  8
部品1
 48
0.01
100
AcDbCircle
 10
5776.67305712368
 20
4365.270620748138
 30
0.0
 40
2.0
100
AcDbArc
 50
90.0
 51
180.0
  0
ARC
  5
19038
330
747D
100
AcDbEntity
  8
部品1
 48
0.01
100
AcDbCircle
 10
5776.67305712368
 20
4333.770620748139
 30
0.0
 40
2.0
100
AcDbArc
 50
180.0
 51
270.0
  0
ARC
  5
19039
330
747D
100
AcDbEntity
  8
部品1
 48
0.01
100
AcDbCircle
 10
5952.67305712368
 20
4365.270620748138
 30
0.0
 40
2.0
100
AcDbArc
 50
0.0
 51
90.0
  0
ARC
  5
1903A
330
747D
100
AcDbEntity
  8
部品1
 48
0.01
100
AcDbCircle
 10
5952.673057123677
 20
4333.770620748139
 30
0.0
 40
2.0
100
AcDbArc
 50
270.0
 51
0.0
  0
ARC
  5
1903B
330
747D
100
AcDbEntity
  8
部品1
 48
0.01
100
AcDbCircle
 10
3742.673057123677
 20
4333.770620748139
 30
0.0
 40
2.0
100
AcDbArc
 50
270.0
 51
0.0
  0
ARC
  5
1903C
330
747D
100
AcDbEntity
  8
部品1
 48
0.01
100
AcDbCircle
 10
3742.67305712368
 20
4365.270620748138
 30
0.0
 40
2.0
100
AcDbArc
 50
0.0
 51
90.0
  0
ARC
  5
1903D
330
747D
100
AcDbEntity
  8
部品1
 48
0.01
100
AcDbCircle
 10
3566.673057123681
 20
4333.770620748139
 30
0.0
 40
2.0
100
AcDbArc
 50
180.0
 51
270.0
  0
ARC
  5
1903E
330
747D
100
AcDbEntity
  8
部品1
 48
0.01
100
AcDbCircle
 10
3566.673057123681
 20
4365.270620748138
 30
0.0
 40
2.0
100
AcDbArc
 50
90.0
 51
180.0
  0
LINE
  5
1903F
330
747D
100
AcDbEntity
  8
細線
100
AcDbLine
 10
3654.673057123677
 20
4337.770620748139
 30
0.0
 11
3728.673057123681
 21
4337.770620748139
 31
0.0
  0
LINE
  5
19040
330
747D
100
AcDbEntity
  8
細線
100
AcDbLine
 10
3654.673057123681
 20
4360.770620748138
 30
0.0
 11
3580.673057123681
 21
4360.770620748138
 31
0.0
  0
LINE
  5
19041
330
747D
100
AcDbEntity
  8
細線
100
AcDbLine
 10
3580.673057123681
 20
4337.770620748139
 30
0.0
 11
3654.673057123681
 21
4337.770620748139
 31
0.0
  0
LINE
  5
19042
330
747D
100
AcDbEntity
  8
細線
100
AcDbLine
 10
3728.673057123681
 20
4360.770620748138
 30
0.0
 11
3654.673057123681
 21
4360.770620748138
 31
0.0
  0
LINE
  5
19043
330
747D
100
AcDbEntity
  8
細線
100
AcDbLine
 10
3728.673057123681
 20
4337.770620748139
 30
0.0
 11
3728.673057123681
 21
4360.770620748138
 31
0.0
  0
LINE
  5
19044
330
747D
100
AcDbEntity
  8
細線
100
AcDbLine
 10
3580.673057123681
 20
4360.770620748138
 30
0.0
 11
3580.673057123681
 21
4337.770620748139
 31
0.0
  0
LINE
  5
19045
330
747D
100
AcDbEntity
  8
部品1
 48
0.01
100
AcDbLine
 10
3744.673057123677
 20
4333.770620748139
 30
0.0
 11
3744.673057123681
 21
4365.270620748138
 31
0.0
  0
LINE
  5
19046
330
747D
100
AcDbEntity
  8
部品1
 48
0.01
100
AcDbLine
 10
3566.673057123681
 20
4331.770620748138
 30
0.0
 11
3742.673057123677
 21
4331.770620748138
 31
0.0
  0
LINE
  5
19047
330
747D
100
AcDbEntity
  8
部品1
 48
0.01
100
AcDbLine
 10
3564.67305712368
 20
4365.270620748138
 30
0.0
 11
3564.67305712368
 21
4333.770620748139
 31
0.0
  0
LINE
  5
19048
330
747D
100
AcDbEntity
  8
部品1
 48
0.01
100
AcDbLine
 10
3742.67305712368
 20
4367.270620748139
 30
0.0
 11
3566.673057123681
 21
4367.270620748139
 31
0.0
  0
LINE
  5
19049
330
747D
100
AcDbEntity
  8
細線
100
AcDbLine
 10
3580.673057123681
 20
4354.770620748139
 30
0.0
 11
3654.673057123681
 21
4354.770620748139
 31
0.0
  0
LINE
  5
1904A
330
747D
100
AcDbEntity
  8
細線
100
AcDbLine
 10
3580.673057123681
 20
4348.770620748139
 30
0.0
 11
3654.673057123681
 21
4348.770620748139
 31
0.0
  0
LINE
  5
1904B
330
747D
100
AcDbEntity
  8
細線
100
AcDbLine
 10
3580.673057123677
 20
4342.770620748138
 30
0.0
 11
3654.673057123681
 21
4342.770620748138
 31
0.0
  0
LINE
  5
1904C
330
747D
100
AcDbEntity
  8
細線
100
AcDbLine
 10
3580.673057123681
 20
4354.770620748139
 30
0.0
 11
3649.67305712368
 21
4354.770620748139
 31
0.0
  0
LINE
  5
1904D
330
747D
100
AcDbEntity
  8
細線
100
AcDbLine
 10
3728.673057123677
 20
4354.770620748139
 30
0.0
 11
3654.673057123681
 21
4354.770620748139
 31
0.0
  0
LINE
  5
1904E
330
747D
100
AcDbEntity
  8
細線
100
AcDbLine
 10
3728.673057123677
 20
4342.770620748138
 30
0.0
 11
3654.673057123681
 21
4342.770620748138
 31
0.0
  0
LINE
  5
1904F
330
747D
100
AcDbEntity
  8
細線
100
AcDbLine
 10
3728.673057123677
 20
4348.770620748139
 30
0.0
 11
3654.673057123681
 21
4348.770620748139
 31
0.0
  0
LINE
  5
19050
330
747D
100
AcDbEntity
  8
細線
100
AcDbLine
 10
3654.673057123681
 20
4360.770620748138
 30
0.0
 11
3654.673057123677
 21
4337.770620748139
 31
0.0
  0
LINE
  5
19051
330
747D
100
AcDbEntity
  8
細線
100
AcDbLine
 10
4884.673057123677
 20
4360.770620748138
 30
0.0
 11
4884.673057123681
 21
4337.770620748139
 31
0.0
  0
LINE
  5
19052
330
747D
100
AcDbEntity
  8
細線
100
AcDbLine
 10
4810.67305712368
 20
4348.770620748139
 30
0.0
 11
4884.673057123677
 21
4348.770620748139
 31
0.0
  0
LINE
  5
19053
330
747D
100
AcDbEntity
  8
細線
100
AcDbLine
 10
4810.67305712368
 20
4342.770620748138
 30
0.0
 11
4884.673057123677
 21
4342.770620748138
 31
0.0
  0
LINE
  5
19054
330
747D
100
AcDbEntity
  8
細線
100
AcDbLine
 10
4810.67305712368
 20
4354.770620748139
 30
0.0
 11
4884.673057123677
 21
4354.770620748139
 31
0.0
  0
LINE
  5
19055
330
747D
100
AcDbEntity
  8
細線
100
AcDbLine
 10
4958.673057123677
 20
4354.770620748139
 30
0.0
 11
4889.673057123676
 21
4354.770620748139
 31
0.0
  0
LINE
  5
19056
330
747D
100
AcDbEntity
  8
細線
100
AcDbLine
 10
4958.673057123681
 20
4342.770620748138
 30
0.0
 11
4884.673057123677
 21
4342.770620748138
 31
0.0
  0
LINE
  5
19057
330
747D
100
AcDbEntity
  8
細線
100
AcDbLine
 10
4958.673057123677
 20
4348.770620748139
 30
0.0
 11
4884.673057123677
 21
4348.770620748139
 31
0.0
  0
LINE
  5
19058
330
747D
100
AcDbEntity
  8
細線
100
AcDbLine
 10
4958.673057123677
 20
4354.770620748139
 30
0.0
 11
4884.673057123677
 21
4354.770620748139
 31
0.0
  0
LINE
  5
19059
330
747D
100
AcDbEntity
  8
部品1
 48
0.01
100
AcDbLine
 10
4796.673057123676
 20
4367.270620748139
 30
0.0
 11
4972.673057123677
 21
4367.270620748139
 31
0.0
  0
LINE
  5
1905A
330
747D
100
AcDbEntity
  8
部品1
 48
0.01
100
AcDbLine
 10
4974.673057123677
 20
4365.270620748138
 30
0.0
 11
4974.673057123677
 21
4333.770620748139
 31
0.0
  0
LINE
  5
1905B
330
747D
100
AcDbEntity
  8
部品1
 48
0.01
100
AcDbLine
 10
4972.673057123677
 20
4331.770620748138
 30
0.0
 11
4796.67305712368
 21
4331.770620748138
 31
0.0
  0
LINE
  5
1905C
330
747D
100
AcDbEntity
  8
部品1
 48
0.01
100
AcDbLine
 10
4794.67305712368
 20
4333.770620748139
 30
0.0
 11
4794.673057123676
 21
4365.270620748138
 31
0.0
  0
LINE
  5
1905D
330
747D
100
AcDbEntity
  8
細線
100
AcDbLine
 10
4958.673057123677
 20
4360.770620748138
 30
0.0
 11
4958.673057123677
 21
4337.770620748139
 31
0.0
  0
LINE
  5
1905E
330
747D
100
AcDbEntity
  8
細線
100
AcDbLine
 10
4810.673057123676
 20
4337.770620748139
 30
0.0
 11
4810.673057123676
 21
4360.770620748138
 31
0.0
  0
LINE
  5
1905F
330
747D
100
AcDbEntity
  8
細線
100
AcDbLine
 10
4810.673057123676
 20
4360.770620748138
 30
0.0
 11
4884.673057123677
 21
4360.770620748138
 31
0.0
  0
LINE
  5
19060
330
747D
100
AcDbEntity
  8
細線
100
AcDbLine
 10
4958.673057123677
 20
4337.770620748139
 30
0.0
 11
4884.673057123677
 21
4337.770620748139
 31
0.0
  0
LINE
  5
19061
330
747D
100
AcDbEntity
  8
細線
100
AcDbLine
 10
4884.673057123677
 20
4360.770620748138
 30
0.0
 11
4958.673057123677
 21
4360.770620748138
 31
0.0
  0
LINE
  5
19062
330
747D
100
AcDbEntity
  8
細線
100
AcDbLine
 10
4884.673057123681
 20
4337.770620748139
 30
0.0
 11
4810.673057123676
 21
4337.770620748139
 31
0.0
  0
ARC
  5
19063
330
747D
100
AcDbEntity
  8
部品1
 48
0.01
100
AcDbCircle
 10
4972.673057123677
 20
4365.270620748138
 30
0.0
 40
2.0
100
AcDbArc
 50
0.0
 51
90.0
  0
ARC
  5
19064
330
747D
100
AcDbEntity
  8
部品1
 48
0.01
100
AcDbCircle
 10
4972.673057123677
 20
4333.770620748139
 30
0.0
 40
2.0
100
AcDbArc
 50
270.0
 51
0.0
  0
ARC
  5
19065
330
747D
100
AcDbEntity
  8
部品1
 48
0.01
100
AcDbCircle
 10
4796.673057123676
 20
4365.270620748138
 30
0.0
 40
2.0
100
AcDbArc
 50
90.0
 51
180.0
  0
ARC
  5
19066
330
747D
100
AcDbEntity
  8
部品1
 48
0.01
100
AcDbCircle
 10
4796.67305712368
 20
4333.770620748139
 30
0.0
 40
2.0
100
AcDbArc
 50
180.0
 51
270.0
  0
LINE
  5
19067
330
747D
100
AcDbEntity
  8
部品1
 48
50.0
100
AcDbLine
 10
5374.673057123681
 20
4136.270620748138
 30
0.0
 11
5374.67305712368
 21
4395.270620748143
 31
0.0
  0
LINE
  5
19068
330
747D
100
AcDbEntity
  8
部品1
 48
50.0
100
AcDbLine
 10
5364.67305712368
 20
4395.270620748143
 30
0.0
 11
5364.673057123678
 21
4536.270620748143
 31
0.0
  0
LINE
  5
19069
330
747D
100
AcDbEntity
  8
部品1
100
AcDbLine
 10
7634.253396108348
 20
4528.874095352905
 30
0.0
 11
7633.119998775999
 21
4508.897967370307
 31
0.0
  0
LINE
  5
1906A
330
747D
100
AcDbEntity
  8
細線
 48
50.0
100
AcDbLine
 10
7601.673057123678
 20
4536.270620748146
 30
0.0
 11
7601.673057123678
 21
4395.270620748146
 31
0.0
  0
LINE
  5
1906B
330
747D
100
AcDbEntity
  8
部品1
100
AcDbLine
 10
7621.682978454422
 20
4413.240560203244
 30
0.0
 11
7621.038072647313
 21
4401.874095352905
 31
0.0
  0
LINE
  5
1906C
330
747D
100
AcDbEntity
  8
部品1
100
AcDbLine
 10
7629.919008979269
 20
4505.44056020325
 30
0.0
 11
7624.883968251158
 21
4416.697967370303
 31
0.0
  0
ARC
  5
1906D
330
747D
100
AcDbEntity
  8
部品1
 48
50.0
100
AcDbCircle
 10
7632.914191875454
 20
4505.270620748146
 30
0.0
 40
3.0
100
AcDbArc
 50
97.65812720736519
 51
176.7526572096653
  0
ARC
  5
1906E
330
747D
100
AcDbEntity
  8
部品1
 48
50.0
100
AcDbCircle
 10
7624.678161350612
 20
4413.070620748142
 30
0.0
 40
3.0
100
AcDbArc
 50
97.65812720736519
 51
176.7526572096653
  0
ARC
  5
1906F
330
747D
100
AcDbEntity
  8
部品1
 48
50.0
100
AcDbCircle
 10
7624.18509224205
 20
4416.737619909829
 30
0.0
 40
0.7
100
AcDbArc
 50
277.6581272073652
 51
356.7526572096653
  0
ARC
  5
19070
330
747D
100
AcDbEntity
  8
部品1
 48
50.0
100
AcDbCircle
 10
7632.421122766889
 20
4508.937619909829
 30
0.0
 40
0.7
100
AcDbArc
 50
277.6581272073652
 51
356.7526572096653
  0
ARC
  5
19071
330
747D
100
AcDbEntity
  8
部品1
100
AcDbCircle
 10
7614.049312556215
 20
4402.270620748146
 30
0.0
 40
7.0
100
AcDbArc
 50
270.0
 51
356.7526572096653
  0
ARC
  5
19072
330
747D
100
AcDbEntity
  8
部品1
100
AcDbCircle
 10
7627.264636017248
 20
4529.270620748145
 30
0.0
 40
7.0
100
AcDbArc
 50
356.7526572096653
 51
90.0
  0
DIMENSION
  5
19073
330
747D
100
AcDbEntity
  8
寸法
 48
50.0
100
AcDbDimension
  2
*D31
 10
7584.673057123682
 20
4941.996892480052
 30
0.0
 11
7948.158338497917
 21
4941.996892480052
 31
0.0
 70
   160
 71
     5
 42
49.99999999999636
  3
INABA_S40G
100
AcDbAlignedDimension
 13
7634.673057123677
 23
4536.270620748142
 33
0.0
 14
7584.673057123682
 24
4536.270620748146
 34
0.0
100
AcDbRotatedDimension
  0
LINE
  5
19074
330
747D
100
AcDbEntity
  8
部品1
100
AcDbLine
 10
3164.673057123676
 20
4301.270620748138
 30
0.0
 11
7584.673057123676
 21
4301.270620748137
 31
0.0
  0
LINE
  5
19075
330
747D
100
AcDbEntity
  8
部品1
 48
50.0
100
AcDbLine
 10
7627.264636017248
 20
4536.270620748141
 30
0.0
 11
3122.081478230109
 21
4536.270620748146
 31
0.0
  0
LINE
  5
19076
330
747D
100
AcDbEntity
  8
部品1
 48
50.0
100
AcDbLine
 10
7614.049312556215
 20
4395.270620748147
 30
0.0
 11
3135.296801691139
 21
4395.270620748146
 31
0.0
  0
LINE
  5
19077
330
747D
100
AcDbEntity
  8
細線
 48
50.0
100
AcDbLine
 10
7632.633518902249
 20
4508.270620748148
 30
0.0
 11
3116.712595345117
 21
4508.270620748142
 31
0.0
  0
LINE
  5
19078
330
747D
100
AcDbEntity
  8
細線
 48
50.0
100
AcDbLine
 10
7624.397488377368
 20
4416.070620748135
 30
0.0
 11
3124.948625869946
 21
4416.070620748145
 31
0.0
  0
LINE
  5
19079
330
747D
100
AcDbEntity
  8
細線
 48
50.0
100
AcDbLine
 10
3147.673057123676
 20
4536.270620748142
 30
0.0
 11
3147.673057123676
 21
4395.270620748142
 31
0.0
  0
ARC
  5
1907A
330
747D
100
AcDbEntity
  8
部品1
100
AcDbCircle
 10
3122.081478230109
 20
4529.270620748142
 30
0.0
 40
7.0
100
AcDbArc
 50
90.0
 51
183.2473427903347
  0
ARC
  5
1907B
330
747D
100
AcDbEntity
  8
部品1
100
AcDbCircle
 10
3135.296801691139
 20
4402.270620748146
 30
0.0
 40
7.0
100
AcDbArc
 50
183.2473427903347
 51
270.0
  0
ARC
  5
1907C
330
747D
100
AcDbEntity
  8
部品1
 48
50.0
100
AcDbCircle
 10
3116.924991480467
 20
4508.937619909829
 30
0.0
 40
0.7
100
AcDbArc
 50
183.2473427903347
 51
262.3418727926349
  0
ARC
  5
1907D
330
747D
100
AcDbEntity
  8
部品1
 48
50.0
100
AcDbCircle
 10
3125.161022005304
 20
4416.737619909826
 30
0.0
 40
0.7
100
AcDbArc
 50
183.2473427903347
 51
262.3418727926349
  0
ARC
  5
1907E
330
747D
100
AcDbEntity
  8
部品1
 48
50.0
100
AcDbCircle
 10
3124.667952896743
 20
4413.070620748142
 30
0.0
 40
3.0
100
AcDbArc
 50
3.24734279033473
 51
82.3418727926348
  0
ARC
  5
1907F
330
747D
100
AcDbEntity
  8
部品1
 48
50.0
100
AcDbCircle
 10
3116.431922371899
 20
4505.270620748146
 30
0.0
 40
3.0
100
AcDbArc
 50
3.24734279033473
 51
82.3418727926348
  0
LINE
  5
19080
330
747D
100
AcDbEntity
  8
部品1
100
AcDbLine
 10
3119.427105268084
 20
4505.440560203246
 30
0.0
 11
3124.462145996199
 21
4416.697967370303
 31
0.0
  0
LINE
  5
19081
330
747D
100
AcDbEntity
  8
部品1
100
AcDbLine
 10
3127.663135792936
 20
4413.240560203244
 30
0.0
 11
3128.308041600044
 21
4401.874095352905
 31
0.0
  0
LINE
  5
19082
330
747D
100
AcDbEntity
  8
部品1
100
AcDbLine
 10
3115.092718139007
 20
4528.874095352905
 30
0.0
 11
3116.226115471355
 21
4508.897967370304
 31
0.0
  0
DIMENSION
  5
19083
330
747D
100
AcDbEntity
  8
寸法
 48
50.0
100
AcDbDimension
  2
*D32
 10
3114.673057123676
 20
4941.996892480048
 30
0.0
 11
2801.187775749429
 21
4941.996892480048
 31
0.0
 70
   160
 71
     5
 42
50.0
  3
INABA_S40G
100
AcDbAlignedDimension
 13
3164.673057123676
 23
4536.270620748146
 33
0.0
 14
3114.673057123676
 24
4536.270620748146
 34
0.0
100
AcDbRotatedDimension
1001
ACAD
1000
DSTYLE
1002
{
1002
}
  0
DIMENSION
  5
19084
330
747D
100
AcDbEntity
  8
寸法
 48
50.0
100
AcDbDimension
  2
*D33
 10
7634.673057123677
 20
5141.905813694139
 30
0.0
 11
5374.673057123676
 21
5141.905813694139
 31
0.0
 70
   160
 71
     5
 42
4520.000000000002
  3
INABA_S40G
100
AcDbAlignedDimension
 13
3114.673057123676
 23
4536.270620748146
 33
0.0
 14
7634.673057123677
 24
4536.270620748142
 34
0.0
100
AcDbRotatedDimension
  0
DIMENSION
  5
19085
330
747D
100
AcDbEntity
  8
寸法
 48
50.0
100
AcDbDimension
  2
*D34
 10
3164.673057123676
 20
4941.996892480048
 30
0.0
 11
5374.673057123676
 21
4941.996892480048
 31
0.0
 70
   160
  1
柱外寸法<>
 71
     5
 42
4420.000000000005
  3
INABA_S40G
100
AcDbAlignedDimension
 13
7584.673057123682
 23
4536.270620748146
 33
0.0
 14
3164.673057123676
 24
4536.270620748146
 34
0.0
100
AcDbRotatedDimension
  0
DIMENSION
  5
1933E
330
747D
100
AcDbEntity
  8
寸法
 48
50.0
100
AcDbDimension
  2
*D35
 10
7872.216159445423
 20
4109.270620748139
 30
0.0
 11
7772.216159445422
 21
3135.27062074814
 31
0.0
 70
    32
  1
有効開口部高サ <>
 71
     5
 42
1948.0
  3
INABA_S40G
100
AcDbAlignedDimension
 13
7584.673057123676
 23
2161.270620748139
 33
0.0
 14
7584.673057123676
 24
4109.270620748139
 34
0.0
 50
90.0
100
AcDbRotatedDimension
  0
DIMENSION
  5
1933F
330
747D
100
AcDbEntity
  8
寸法
 48
50.0
100
AcDbDimension
  2
*D36
 10
7872.216159445423
 20
4136.270620748139
 30
0.0
 11
8012.385982691789
 21
4137.237820587798
 31
0.0
 70
   160
 71
     5
 42
27.00000000000091
  3
INABA_S40G
100
AcDbAlignedDimension
 13
7584.673057123676
 23
4109.270620748139
 33
0.0
 14
7584.673057123675
 24
4136.270620748139
 34
0.0
 50
90.0
100
AcDbRotatedDimension
1001
ACAD
1000
DSTYLE
1002
{
1070
   279
1070
     2
1002
}
  0
DIMENSION
  5
19340
330
747D
100
AcDbEntity
  8
寸法
 48
50.0
100
AcDbDimension
  2
*D37
 10
7872.216159445423
 20
4301.270620748138
 30
0.0
 11
7872.216159445423
 21
4539.755902122378
 31
0.0
 70
   160
 71
     5
 42
164.9999999999991
  3
INABA_S40G
100
AcDbAlignedDimension
 13
7584.673057123675
 23
4136.270620748139
 33
0.0
 14
7584.673057123676
 24
4301.270620748138
 34
0.0
 50
90.0
100
AcDbRotatedDimension
1001
ACAD
1000
DSTYLE
1002
{
1002
}
  0
TEXT
  5
19487
330
747D
100
AcDbEntity
  8
文字
 62
     7
 48
50.0
100
AcDbText
 10
15022.63965474517
 20
10760.01374588372
 30
0.0
 40
100.0
  1
F12         1.0,1.2
  7
STYLE1
100
AcDbText
  0
TEXT
  5
1948A
330
747D
100
AcDbEntity
  8
文字
 62
     7
 48
50.0
100
AcDbText
 10
15022.63965474516
 20
9060.013745883727
 30
0.0
 40
100.0
  1
F12            0.7
  7
STYLE1
100
AcDbText
  0
LINE
  5
1948C
330
747D
100
AcDbEntity
  8
破線
 48
5.0
100
AcDbLine
 10
5374.673057123676
 20
1886.270620748138
 30
0.0
 11
5374.673057123676
 21
1811.270620748139
 31
0.0
  0
LINE
  5
1948D
330
747D
100
AcDbEntity
  8
破線
 48
5.0
100
AcDbLine
 10
5324.673057123676
 20
1811.270620748139
 30
0.0
 11
5424.673057123676
 21
1811.270620748139
 31
0.0
  0
ENDSEC
  0
SECTION
  2
OBJECTS
  0
DICTIONARY
  5
7471
330
0
100
AcDbDictionary
281
     1
  3
ACAD_COLOR
350
17AE2
  3
ACAD_GROUP
350
7472
  3
ACAD_LAYOUT
350
17AE3
  3
ACAD_MATERIAL
350
17AE1
  3
ACAD_MLINESTYLE
350
7473
  3
ACAD_PLOTSETTINGS
350
17AE4
  3
ACAD_PLOTSTYLENAME
350
17ADF
  3
ACDBHEADERROUNDTRIPXREC
350
194F1
  3
AcDbVariableDictionary
350
194ED
  3
CONTENTDICTIONARY
350
E71C
  3
DRAWINGVARIABLESDICT
350
F3B9
  0
DICTIONARY
  5
186EF
330
7467
100
AcDbDictionary
280
     1
281
     1
  3
ACAD_LAYERSTATES
360
186F0
  0
DICTIONARY
  5
17AE2
102
{ACAD_REACTORS
330
7471
102
}
330
7471
100
AcDbDictionary
281
     1
  0
DICTIONARY
  5
7472
102
{ACAD_REACTORS
330
7471
102
}
330
7471
100
AcDbDictionary
281
     1
  3
*A1
350
17FA7
  3
*A2
350
180C7
  3
*A3
350
180D2
  0
DICTIONARY
  5
17AE3
102
{ACAD_REACTORS
330
7471
102
}
330
7471
100
AcDbDictionary
281
     1
  3
Model
350
17AE5
  3
レイアウト1
350
17AE6
  0
DICTIONARY
  5
17AE1
102
{ACAD_REACTORS
330
7471
102
}
330
7471
100
AcDbDictionary
281
     1
  0
DICTIONARY
  5
7473
102
{ACAD_REACTORS
330
7471
102
}
330
7471
100
AcDbDictionary
281
     1
  3
STANDARD
350
7480
  0
DICTIONARY
  5
17AE4
102
{ACAD_REACTORS
330
7471
102
}
330
7471
100
AcDbDictionary
281
     1
  0
ACDBDICTIONARYWDFLT
  5
17ADF
102
{ACAD_REACTORS
330
7471
102
}
330
7471
100
AcDbDictionary
281
     1
  3
Normal
350
17AE0
100
AcDbDictionaryWithDefault
340
17AE0
  0
DICTIONARY
  5
194F1
102
{ACAD_REACTORS
330
7471
102
}
330
7471
100
AcDbDictionary
281
     1
  3
COLORDICT
350
194F3
  3
MATERIALDICT
350
194F2
  0
DICTIONARY
  5
194ED
102
{ACAD_REACTORS
330
7471
102
}
330
7471
100
AcDbDictionary
281
     1
  3
DIMASSOC
350
194EE
  3
PROJECTNAME
350
194EF
  0
DICTIONARY
  5
E71C
102
{ACAD_REACTORS
330
7471
102
}
330
7471
100
AcDbDictionary
281
     1
  0
DICTIONARY
  5
F3B9
102
{ACAD_REACTORS
330
7471
102
}
330
7471
100
AcDbDictionary
281
     1
1001
DRAWINGVARIABLESXDATA
1000
POLARMODE
1000
1
  0
DICTIONARY
  5
186F0
102
{ACAD_REACTORS
330
186EF
102
}
330
186EF
100
AcDbDictionary
281
     1
  0
GROUP
  5
17FA7
102
{ACAD_REACTORS
330
7472
102
}
330
7472
100
AcDbGroup
300

 70
     1
 71
     1
  0
GROUP
  5
180C7
102
{ACAD_REACTORS
330
7472
102
}
330
7472
100
AcDbGroup
300

 70
     1
 71
     1
  0
GROUP
  5
180D2
102
{ACAD_REACTORS
330
7472
102
}
330
7472
100
AcDbGroup
300

 70
     1
 71
     1
  0
LAYOUT
  5
17AE5
102
{ACAD_XDICTIONARY
360
194F4
102
}
102
{ACAD_REACTORS
330
17AE3
102
}
330
17AE3
100
AcDbPlotSettings
  1

  2
Canon iR C3880/C4580 LIPSLX
  4
A3
  6

 40
5.873749732971191
 41
5.873747825622558
 42
5.873748779296875
 43
5.873748779296875
 44
296.9259948730469
 45
419.9466552734374
 46
0.0
 47
0.0
 48
0.0
 49
0.0
140
0.0
141
0.0
142
1.0
143
40.0
 70
 11952
 72
     1
 73
     1
 74
     1
  7
inaba.ctb
 75
    24
147
0.025
148
-139.196816621341
149
0.1811693038616795
100
AcDbLayout
  1
Model
 70
     1
 71
     0
 10
0.0
 20
0.0
 11
12.0
 21
9.0
 12
0.0
 22
0.0
 32
0.0
 14
0.0
 24
0.0
 34
0.0
 15
0.0
 25
0.0
 35
0.0
146
0.0
 13
0.0
 23
0.0
 33
0.0
 16
1.0
 26
0.0
 36
0.0
 17
0.0
 27
1.0
 37
0.0
 76
     0
330
747D
  0
LAYOUT
  5
17AE6
102
{ACAD_XDICTIONARY
360
194F6
102
}
102
{ACAD_REACTORS
330
17AE3
102
}
330
17AE3
100
AcDbPlotSettings
  1

  2
EPSON LP-8300
  4

  6

 40
0.0
 41
0.0
 42
0.0
 43
0.0
 44
0.0
 45
0.0
 46
0.0
 47
0.0
 48
0.0
 49
0.0
140
0.0
141
0.0
142
1.0
143
1.0
 70
   688
 72
     0
 73
     0
 74
     5
  7
inaba.ctb
 75
    16
147
1.0
148
0.0
149
0.0
100
AcDbLayout
  1
レイアウト1
 70
     0
 71
     1
 10
0.0
 20
0.0
 11
420.0
 21
297.0
 12
0.0
 22
0.0
 32
0.0
 14
1.000000000000000E+20
 24
1.000000000000000E+20
 34
1.000000000000000E+20
 15
-1.000000000000000E+20
 25
-1.000000000000000E+20
 35
-1.000000000000000E+20
146
0.0
 13
0.0
 23
0.0
 33
0.0
 16
1.0
 26
0.0
 36
0.0
 17
0.0
 27
1.0
 37
0.0
 76
     0
330
747A
  0
MLINESTYLE
  5
7480
102
{ACAD_REACTORS
330
7473
102
}
330
7473
100
AcDbMlineStyle
  2
STANDARD
 70
     0
  3

 62
     0
 51
90.0
 52
90.0
 71
     2
 49
0.5
 62
   256
  6
BYLAYER
 49
-0.5
 62
   256
  6
BYLAYER
  0
ACDBPLACEHOLDER
  5
17AE0
102
{ACAD_REACTORS
330
17ADF
102
}
330
17ADF
  0
XRECORD
  5
194F3
102
{ACAD_REACTORS
330
194F1
102
}
330
194F1
100
AcDbXrecord
280
     1
340
17AE2
  0
XRECORD
  5
194F2
102
{ACAD_REACTORS
330
194F1
102
}
330
194F1
100
AcDbXrecord
280
     1
340
17AE1
  0
DICTIONARYVAR
  5
194EE
102
{ACAD_REACTORS
330
194ED
102
}
330
194ED
100
DictionaryVariables
280
     0
  1
1
  0
DICTIONARYVAR
  5
194EF
102
{ACAD_REACTORS
330
194ED
102
}
330
194ED
100
DictionaryVariables
280
     0
  1

  0
DICTIONARY
  5
194F4
330
17AE5
100
AcDbDictionary
280
     1
281
     1
  3
ACAD_XREC_ROUNDTRIP
360
194F5
  0
DICTIONARY
  5
194F6
330
17AE6
100
AcDbDictionary
280
     1
281
     1
  3
ACAD_XREC_ROUNDTRIP
360
194F7
  0
XRECORD
  5
194F5
102
{ACAD_REACTORS
330
194F4
102
}
330
194F4
100
AcDbXrecord
280
     1
102
SHADEPLOT
 70
     0
102
SHADEPLOTRESLEVEL
 70
     2
102
SHADEPLOTCUSTOMDPI
 70
   300
  0
XRECORD
  5
194F7
102
{ACAD_REACTORS
330
194F6
102
}
330
194F6
100
AcDbXrecord
280
     1
102
SHADEPLOT
 70
     0
102
SHADEPLOTRESLEVEL
 70
     2
102
SHADEPLOTCUSTOMDPI
 70
   300
  0
ENDSEC
  0
EOF
