  0
SECTION
  2
HEADER
  9
$ACADVER
  1
AC1015
  9
$ACADMAINTVER
 70
    20
  9
$DWGCODEPAGE
  3
ANSI_932
  9
$INSBASE
 10
0.0
 20
0.0
 30
0.0
  9
$EXTMIN
 10
139.9999999999995
 20
0.0
 30
0.0
  9
$EXTMAX
 10
16307.2
 20
11409.6
 30
0.0
  9
$LIMMIN
 10
0.0
 20
0.0
  9
$LIMMAX
 10
16800.0
 20
11880.0
  9
$ORTHOMODE
 70
     0
  9
$REGENMODE
 70
     1
  9
$FILLMODE
 70
     1
  9
$QTEXTMODE
 70
     0
  9
$MIRRTEXT
 70
     1
  9
$LTSCALE
 40
20.0
  9
$ATTMODE
 70
     1
  9
$TEXTSIZE
 40
100.0
  9
$TRACEWID
 40
1.0
  9
$TEXTSTYLE
  7
MSGOTHIC
  9
$CLAYER
  8
隠れ線２
  9
$CELTYPE
  6
BYLAYER
  9
$CECOLOR
 62
   256
  9
$CELTSCALE
 40
50.0
  9
$DISPSILH
 70
     0
  9
$DIMSCALE
 40
40.0
  9
$DIMASZ
 40
2.5
  9
$DIMEXO
 40
0.5
  9
$DIMDLI
 40
7.0
  9
$DIMRND
 40
0.0
  9
$DIMDLE
 40
0.0
  9
$DIMEXE
 40
1.5
  9
$DIMTP
 40
0.0
  9
$DIMTM
 40
0.0
  9
$DIMTXT
 40
3.0
  9
$DIMCEN
 40
0.0
  9
$DIMTSZ
 40
0.0
  9
$DIMTOL
 70
     0
  9
$DIMLIM
 70
     0
  9
$DIMTIH
 70
     0
  9
$DIMTOH
 70
     0
  9
$DIMSE1
 70
     0
  9
$DIMSE2
 70
     0
  9
$DIMTAD
 70
     3
  9
$DIMZIN
 70
     8
  9
$DIMBLK
  1

  9
$DIMASO
 70
     1
  9
$DIMSHO
 70
     1
  9
$DIMPOST
  1

  9
$DIMAPOST
  1

  9
$DIMALT
 70
     0
  9
$DIMALTD
 70
     2
  9
$DIMALTF
 40
0.0394
  9
$DIMLFAC
 40
1.0
  9
$DIMTOFL
 70
     1
  9
$DIMTVP
 40
0.0
  9
$DIMTIX
 70
     1
  9
$DIMSOXD
 70
     0
  9
$DIMSAH
 70
     1
  9
$DIMBLK1
  1
DOTSMALL
  9
$DIMBLK2
  1
DOTSMALL
  9
$DIMSTYLE
  2
INABA_S40G
  9
$DIMCLRD
 70
     0
  9
$DIMCLRE
 70
     0
  9
$DIMCLRT
 70
     7
  9
$DIMTFAC
 40
1.0
  9
$DIMGAP
 40
1.0
  9
$DIMJUST
 70
     0
  9
$DIMSD1
 70
     0
  9
$DIMSD2
 70
     0
  9
$DIMTOLJ
 70
     1
  9
$DIMTZIN
 70
     0
  9
$DIMALTZ
 70
     0
  9
$DIMALTTZ
 70
     0
  9
$DIMUPT
 70
     0
  9
$DIMDEC
 70
     1
  9
$DIMTDEC
 70
     4
  9
$DIMALTU
 70
     2
  9
$DIMALTTD
 70
     2
  9
$DIMTXSTY
  7
STYLE1
  9
$DIMAUNIT
 70
     0
  9
$DIMADEC
 70
     0
  9
$DIMALTRND
 40
0.0
  9
$DIMAZIN
 70
     0
  9
$DIMDSEP
 70
    46
  9
$DIMATFIT
 70
     3
  9
$DIMFRAC
 70
     0
  9
$DIMLDRBLK
  1

  9
$DIMLUNIT
 70
     2
  9
$DIMLWD
 70
    -2
  9
$DIMLWE
 70
    -2
  9
$DIMTMOVE
 70
     0
  9
$LUNITS
 70
     2
  9
$LUPREC
 70
     1
  9
$SKETCHINC
 40
1.0
  9
$FILLETRAD
 40
3.0
  9
$AUNITS
 70
     0
  9
$AUPREC
 70
     0
  9
$MENU
  1
acad
  9
$ELEVATION
 40
0.0
  9
$PELEVATION
 40
0.0
  9
$THICKNESS
 40
0.0
  9
$LIMCHECK
 70
     0
  9
$CHAMFERA
 40
0.0
  9
$CHAMFERB
 40
0.0
  9
$CHAMFERC
 40
0.0
  9
$CHAMFERD
 40
0.0
  9
$SKPOLY
 70
     0
  9
$TDCREATE
 40
2451368.612993866
  9
$TDUCREATE
 40
2451368.237993866
  9
$TDUPDATE
 40
2455569.644340637
  9
$TDUUPDATE
 40
2455569.269340637
  9
$TDINDWG
 40
0.7217684491
  9
$TDUSRTIMER
 40
0.7217684491
  9
$USRTIMER
 70
     1
  9
$ANGBASE
 50
0.0
  9
$ANGDIR
 70
     0
  9
$PDMODE
 70
     3
  9
$PDSIZE
 40
2.0
  9
$PLINEWID
 40
0.0
  9
$SPLFRAME
 70
     0
  9
$SPLINETYPE
 70
     6
  9
$SPLINESEGS
 70
     8
  9
$HANDSEED
  5
1C063
  9
$SURFTAB1
 70
     6
  9
$SURFTAB2
 70
     6
  9
$SURFTYPE
 70
     6
  9
$SURFU
 70
     6
  9
$SURFV
 70
     6
  9
$UCSBASE
  2

  9
$UCSNAME
  2

  9
$UCSORG
 10
0.0
 20
0.0
 30
0.0
  9
$UCSXDIR
 10
1.0
 20
0.0
 30
0.0
  9
$UCSYDIR
 10
0.0
 20
1.0
 30
0.0
  9
$UCSORTHOREF
  2

  9
$UCSORTHOVIEW
 70
     0
  9
$UCSORGTOP
 10
0.0
 20
0.0
 30
0.0
  9
$UCSORGBOTTOM
 10
0.0
 20
0.0
 30
0.0
  9
$UCSORGLEFT
 10
0.0
 20
0.0
 30
0.0
  9
$UCSORGRIGHT
 10
0.0
 20
0.0
 30
0.0
  9
$UCSORGFRONT
 10
0.0
 20
0.0
 30
0.0
  9
$UCSORGBACK
 10
0.0
 20
0.0
 30
0.0
  9
$PUCSBASE
  2

  9
$PUCSNAME
  2

  9
$PUCSORG
 10
0.0
 20
0.0
 30
0.0
  9
$PUCSXDIR
 10
1.0
 20
0.0
 30
0.0
  9
$PUCSYDIR
 10
0.0
 20
1.0
 30
0.0
  9
$PUCSORTHOREF
  2

  9
$PUCSORTHOVIEW
 70
     0
  9
$PUCSORGTOP
 10
0.0
 20
0.0
 30
0.0
  9
$PUCSORGBOTTOM
 10
0.0
 20
0.0
 30
0.0
  9
$PUCSORGLEFT
 10
0.0
 20
0.0
 30
0.0
  9
$PUCSORGRIGHT
 10
0.0
 20
0.0
 30
0.0
  9
$PUCSORGFRONT
 10
0.0
 20
0.0
 30
0.0
  9
$PUCSORGBACK
 10
0.0
 20
0.0
 30
0.0
  9
$USERI1
 70
     0
  9
$USERI2
 70
     0
  9
$USERI3
 70
     0
  9
$USERI4
 70
     0
  9
$USERI5
 70
     0
  9
$USERR1
 40
0.0
  9
$USERR2
 40
0.0
  9
$USERR3
 40
0.0
  9
$USERR4
 40
0.0
  9
$USERR5
 40
0.0
  9
$WORLDVIEW
 70
     1
  9
$SHADEDGE
 70
     3
  9
$SHADEDIF
 70
    70
  9
$TILEMODE
 70
     1
  9
$MAXACTVP
 70
    16
  9
$PINSBASE
 10
0.0
 20
0.0
 30
0.0
  9
$PLIMCHECK
 70
     0
  9
$PEXTMIN
 10
1.000000000000000E+20
 20
1.000000000000000E+20
 30
1.000000000000000E+20
  9
$PEXTMAX
 10
-1.000000000000000E+20
 20
-1.000000000000000E+20
 30
-1.000000000000000E+20
  9
$PLIMMIN
 10
0.0
 20
0.0
  9
$PLIMMAX
 10
420.0
 20
297.0
  9
$UNITMODE
 70
     0
  9
$VISRETAIN
 70
     0
  9
$PLINEGEN
 70
     0
  9
$PSLTSCALE
 70
     0
  9
$TREEDEPTH
 70
  3020
  9
$CMLSTYLE
  2
STANDARD
  9
$CMLJUST
 70
     0
  9
$CMLSCALE
 40
1.0
  9
$PROXYGRAPHICS
 70
     1
  9
$MEASUREMENT
 70
     1
  9
$CELWEIGHT
370
    -1
  9
$ENDCAPS
280
     0
  9
$JOINSTYLE
280
     0
  9
$LWDISPLAY
290
     0
  9
$INSUNITS
 70
     0
  9
$HYPERLINKBASE
  1

  9
$STYLESHEET
  1
inaba.ctb
  9
$XEDIT
290
     1
  9
$CEPSNTYPE
380
     0
  9
$PSTYLEMODE
290
     1
  9
$FINGERPRINTGUID
  2
{7EF67755-B4CB-428E-86A3-555A86C44D7E}
  9
$VERSIONGUID
  2
{01D0A0E9-4FA8-4673-9C85-CF382F4FF364}
  9
$EXTNAMES
290
     1
  9
$PSVPSCALE
 40
0.0
  9
$OLESTARTUP
290
     0
  0
ENDSEC
  0
SECTION
  2
CLASSES
  0
CLASS
  1
ACDBDICTIONARYWDFLT
  2
AcDbDictionaryWithDefault
  3
ObjectDBX Classes
 90
        0
280
     0
281
     0
  0
CLASS
  1
DICTIONARYVAR
  2
AcDbDictionaryVar
  3
ObjectDBX Classes
 90
        0
280
     0
281
     0
  0
CLASS
  1
ACDBPLACEHOLDER
  2
AcDbPlaceHolder
  3
ObjectDBX Classes
 90
        0
280
     0
281
     0
  0
CLASS
  1
LAYOUT
  2
AcDbLayout
  3
ObjectDBX Classes
 90
        0
280
     0
281
     0
  0
ENDSEC
  0
SECTION
  2
TABLES
  0
TABLE
  2
VPORT
  5
746D
330
0
100
AcDbSymbolTable
 70
     2
  0
VPORT
  5
1C05B
330
746D
100
AcDbSymbolTableRecord
100
AcDbViewportTableRecord
  2
*Active
 70
     0
 10
0.0
 20
0.0
 11
1.0
 21
1.0
 12
11720.20754942435
 22
5704.604795030004
 13
0.0
 23
0.0
 14
10.0
 24
10.0
 15
10.0
 25
10.0
 16
0.0
 26
0.0
 36
1.0
 17
0.0
 27
0.0
 37
0.0
 40
11513.78065568448
 41
2.234800838574423
 42
50.0
 43
0.0
 44
0.0
 50
0.0
 51
0.0
 71
     0
 72
     0
 73
     1
 74
     0
 75
     0
 76
     0
 77
     0
 78
     0
281
     0
 65
     1
110
0.0
120
0.0
130
0.0
111
1.0
121
0.0
131
0.0
112
0.0
122
1.0
132
0.0
 79
     0
146
0.0
  0
ENDTAB
  0
TABLE
  2
LTYPE
  5
746A
330
0
100
AcDbSymbolTable
 70
     5
  0
LTYPE
  5
7477
330
746A
100
AcDbSymbolTableRecord
100
AcDbLinetypeTableRecord
  2
BYBLOCK
 70
     0
  3

 72
    65
 73
     0
 40
0.0
  0
LTYPE
  5
7478
330
746A
100
AcDbSymbolTableRecord
100
AcDbLinetypeTableRecord
  2
BYLAYER
 70
     0
  3

 72
    65
 73
     0
 40
0.0
  0
LTYPE
  5
7479
330
746A
100
AcDbSymbolTableRecord
100
AcDbLinetypeTableRecord
  2
CONTINUOUS
 70
     0
  3
Solid line
 72
    65
 73
     0
 40
0.0
  0
LTYPE
  5
781A
330
746A
100
AcDbSymbolTableRecord
100
AcDbLinetypeTableRecord
  2
HIDDEN
 70
     0
  3
__ __ __ __ __ __ __ __ __ __ __ __ __ __ __ __
 72
    65
 73
     2
 40
0.375
 49
0.25
 74
     0
 49
-0.125
 74
     0
  0
LTYPE
  5
781B
330
746A
100
AcDbSymbolTableRecord
100
AcDbLinetypeTableRecord
  2
PHANTOM
 70
     0
  3
______  __  __  ______  __  __  ______  __  __ 
 72
    65
 73
     6
 40
2.5
 49
1.25
 74
     0
 49
-0.25
 74
     0
 49
0.25
 74
     0
 49
-0.25
 74
     0
 49
0.25
 74
     0
 49
-0.25
 74
     0
  0
LTYPE
  5
17987
330
746A
100
AcDbSymbolTableRecord
100
AcDbLinetypeTableRecord
  2
CENTER
 70
     0
  3
____ _ ____ _ ____ _ ____ _ ____ _ ____ _ ____ 
 72
    65
 73
     4
 40
2.0
 49
1.25
 74
     0
 49
-0.25
 74
     0
 49
0.25
 74
     0
 49
-0.25
 74
     0
  0
LTYPE
  5
17988
330
746A
100
AcDbSymbolTableRecord
100
AcDbLinetypeTableRecord
  2
HIDDENX2
 70
     0
  3
Hidden (2x) ____ ____ ____ ____ ____ ____ ____
 72
    65
 73
     2
 40
19.05
 49
12.7
 74
     0
 49
-6.349999999999999
 74
     0
  0
ENDTAB
  0
TABLE
  2
LAYER
  5
7467
102
{ACAD_XDICTIONARY
360
16E8F
102
}
330
0
100
AcDbSymbolTable
 70
    12
  0
LAYER
  5
7474
330
7467
100
AcDbSymbolTableRecord
100
AcDbLayerTableRecord
  2
0
 70
     0
 62
     7
  6
CONTINUOUS
370
    -3
390
16603
  0
LAYER
  5
DEB3
330
7467
100
AcDbSymbolTableRecord
100
AcDbLayerTableRecord
  2
寸法
 70
     0
 62
     4
  6
CONTINUOUS
370
    -3
390
16603
  0
LAYER
  5
DEB4
330
7467
100
AcDbSymbolTableRecord
100
AcDbLayerTableRecord
  2
部品1
 70
     0
 62
     7
  6
CONTINUOUS
370
    -3
390
16603
  0
LAYER
  5
DEB5
330
7467
100
AcDbSymbolTableRecord
100
AcDbLayerTableRecord
  2
補助
 70
     0
 62
    -1
  6
CONTINUOUS
370
    -3
390
16603
  0
LAYER
  5
DEB6
330
7467
100
AcDbSymbolTableRecord
100
AcDbLayerTableRecord
  2
文字
 70
     0
 62
     7
  6
CONTINUOUS
370
    -3
390
16603
  0
LAYER
  5
F255
330
7467
100
AcDbSymbolTableRecord
100
AcDbLayerTableRecord
  2
DEFPOINTS
 70
     0
 62
     7
  6
CONTINUOUS
290
     0
370
    -3
390
16603
  0
LAYER
  5
10B54
330
7467
100
AcDbSymbolTableRecord
100
AcDbLayerTableRecord
  2
仕様書枠
 70
     0
 62
   230
  6
CONTINUOUS
370
    -3
390
16603
  0
LAYER
  5
11729
330
7467
100
AcDbSymbolTableRecord
100
AcDbLayerTableRecord
  2
Ｇ．Ｌ
 70
     0
 62
    30
  6
CONTINUOUS
370
    -3
390
16603
  0
LAYER
  5
1173F
330
7467
100
AcDbSymbolTableRecord
100
AcDbLayerTableRecord
  2
細線
 70
     0
 62
     5
  6
CONTINUOUS
370
    -3
390
16603
  0
LAYER
  5
142E2
330
7467
100
AcDbSymbolTableRecord
100
AcDbLayerTableRecord
  2
破線
 70
     0
 62
     2
  6
HIDDEN
370
    -3
390
16603
  0
LAYER
  5
17989
330
7467
100
AcDbSymbolTableRecord
100
AcDbLayerTableRecord
  2
センター
 70
     0
 62
     3
  6
CENTER
370
    -3
390
16603
  0
LAYER
  5
1798A
330
7467
100
AcDbSymbolTableRecord
100
AcDbLayerTableRecord
  2
隠れ線２
 70
     0
 62
     2
  6
HIDDENX2
370
    -3
390
16603
  0
ENDTAB
  0
TABLE
  2
STYLE
  5
7468
330
0
100
AcDbSymbolTable
 70
     6
  0
STYLE
  5
7475
330
7468
100
AcDbSymbolTableRecord
100
AcDbTextStyleTableRecord
  2
STANDARD
 70
     0
 40
0.0
 41
1.0
 50
0.0
 71
     0
 42
4.0
  3
txt
  4
C:\AutoCAD LT\bigfont.shx
  0
STYLE
  5
763C
330
7468
100
AcDbSymbolTableRecord
100
AcDbTextStyleTableRecord
  2
MSMINCHO
 70
     0
 40
0.0
 41
1.0
 50
0.0
 71
     0
 42
1.199999999999999
  3
C:\AutoCAD LT\msminch2.TTF
  4

  0
STYLE
  5
F706
330
7468
100
AcDbSymbolTableRecord
100
AcDbTextStyleTableRecord
  2
STYLE1
 70
     0
 40
0.0
 41
1.0
 50
0.0
 71
     0
 42
4.0
  3
isocp.shx
  4
bigfont.shx
  0
STYLE
  5
103BF
330
7468
100
AcDbSymbolTableRecord
100
AcDbTextStyleTableRecord
  2
STYLE2
 70
     0
 40
0.0
 41
1.0
 50
0.0
 71
     0
 42
100.0
  3
MS PGothic.ttf
  4

1001
ACAD
1000
MS PGothic
1071
    32818
  0
STYLE
  5
10BAA
330
7468
100
AcDbSymbolTableRecord
100
AcDbTextStyleTableRecord
  2
STYLE3
 70
     0
 40
0.0
 41
1.0
 50
0.0
 71
     0
 42
100.0
  3
DFPGothic-EB.ttf
  4

1001
ACAD
1000
DFPGothic-EB
1071
    32818
  0
STYLE
  5
11A15
330
7468
100
AcDbSymbolTableRecord
100
AcDbTextStyleTableRecord
  2
MSGOTHIC
 70
     0
 40
0.0
 41
1.0
 50
0.0
 71
     0
 42
100.0
  3
MS PGothic.ttf
  4

1001
ACAD
1000
MS PGothic
1071
    32818
  0
ENDTAB
  0
TABLE
  2
VIEW
  5
746B
330
0
100
AcDbSymbolTable
 70
     0
  0
ENDTAB
  0
TABLE
  2
UCS
  5
746C
330
0
100
AcDbSymbolTable
 70
     0
  0
ENDTAB
  0
TABLE
  2
APPID
  5
746E
330
0
100
AcDbSymbolTable
 70
     6
  0
APPID
  5
7476
330
746E
100
AcDbSymbolTableRecord
100
AcDbRegAppTableRecord
  2
ACAD
 70
     0
  0
APPID
  5
DEA9
330
746E
100
AcDbSymbolTableRecord
100
AcDbRegAppTableRecord
  2
CONTENTBLOCKICON
 70
     0
  0
APPID
  5
DEAA
330
746E
100
AcDbSymbolTableRecord
100
AcDbRegAppTableRecord
  2
CONTENTBLOCKDESCRIPTION
 70
     0
  0
APPID
  5
E71D
330
746E
100
AcDbSymbolTableRecord
100
AcDbRegAppTableRecord
  2
CONTENTTABDATA
 70
     0
  0
APPID
  5
E71E
330
746E
100
AcDbSymbolTableRecord
100
AcDbRegAppTableRecord
  2
CONTENTCURRENTTAB
 70
     0
  0
APPID
  5
F3BA
330
746E
100
AcDbSymbolTableRecord
100
AcDbRegAppTableRecord
  2
DRAWINGVARIABLESXDATA
 70
     0
  0
ENDTAB
  0
TABLE
  2
DIMSTYLE
  5
746F
330
0
100
AcDbSymbolTable
 70
     6
100
AcDbDimStyleTable
 71
     1
340
F71F
  0
DIMSTYLE
105
F71F
102
{ACAD_REACTORS
330
1B91D
330
1B91E
330
1B91F
330
1B965
330
1B966
330
1B967
330
1B968
330
1B975
330
1B984
330
1B992
330
1B993
330
1B994
330
1B998
330
1B9C8
330
1B9C9
330
1B9CA
330
1BA2E
330
1BA32
330
1BA33
330
1BA44
330
1BA45
330
1BA59
330
1BA5A
330
1BA5D
330
1BA5F
330
1BA64
330
1BA65
330
1BA66
330
1BA67
102
}
330
746F
100
AcDbSymbolTableRecord
100
AcDbDimStyleTableRecord
  2
INABA_S40G
 70
     0
 40
40.0
 41
2.5
 42
0.5
 43
7.0
 44
1.5
 73
     0
 74
     0
 77
     3
 78
     8
140
3.0
141
0.0
143
0.0394
147
1.0
172
     1
173
     1
174
     1
178
     7
271
     1
340
F706
341
F770
343
F770
344
F770
  0
DIMSTYLE
105
1798B
330
746F
100
AcDbSymbolTableRecord
100
AcDbDimStyleTableRecord
  2
INABA_S1
 70
     0
 40
0.0
 41
2.5
 42
0.5
 43
7.0
 44
1.5
 73
     0
 74
     0
 77
     3
 78
     8
140
3.0
141
0.0
143
0.0394
146
0.5
147
0.5
172
     1
173
     1
176
   256
177
   256
178
     7
271
     2
272
     2
284
     8
288
     1
340
7475
341
17883
343
17883
344
17883
  0
DIMSTYLE
105
1798C
330
746F
100
AcDbSymbolTableRecord
100
AcDbDimStyleTableRecord
  2
INABA_S1F
 70
     0
 40
0.0
 41
2.5
 42
0.5
 43
7.0
 44
1.5
 73
     0
 77
     3
 78
     8
140
3.0
141
0.0
143
0.0394
146
0.5
147
0.5
173
     1
176
   256
177
   256
178
     7
271
     2
272
     2
284
     8
288
     1
340
7475
341
17883
343
17883
344
17883
  0
DIMSTYLE
105
1798D
330
746F
100
AcDbSymbolTableRecord
100
AcDbDimStyleTableRecord
  2
INABA-1
 70
     0
 40
0.0
 41
2.5
 42
0.5
 43
7.0
 44
1.5
 73
     0
 77
     3
 78
     8
140
3.0
141
0.0
143
0.0394
146
0.5
147
0.5
173
     1
176
   256
177
   256
178
     7
271
     2
272
     2
284
     8
288
     1
340
7475
343
17889
344
17883
  0
DIMSTYLE
105
1798E
330
746F
100
AcDbSymbolTableRecord
100
AcDbDimStyleTableRecord
  2
INABA
 70
     0
 40
0.0
 41
2.5
 42
0.5
 43
7.0
 44
1.5
 73
     0
 77
     3
 78
     8
140
3.0
141
0.0
143
0.0394
146
0.5
147
0.5
173
     1
176
   256
177
   256
178
     7
271
     2
272
     2
284
     8
288
     1
340
7475
343
17883
344
17889
  0
DIMSTYLE
105
1798F
330
746F
100
AcDbSymbolTableRecord
100
AcDbDimStyleTableRecord
  2
INABA_S283
 70
     0
 41
7.075
 42
1.415
 43
7.0
 44
4.245
 73
     0
 74
     0
 77
     3
 78
     8
140
8.49
141
0.0
143
0.0394
147
1.415
172
     1
173
     1
174
     1
175
     1
178
     7
289
     0
340
7475
341
17883
343
17883
344
17883
  0
ENDTAB
  0
TABLE
  2
BLOCK_RECORD
  5
7466
330
0
100
AcDbSymbolTable
 70
    32
  0
BLOCK_RECORD
  5
747D
330
7466
100
AcDbSymbolTableRecord
100
AcDbBlockTableRecord
  2
*MODEL_SPACE
340
16608
  0
BLOCK_RECORD
  5
747A
330
7466
100
AcDbSymbolTableRecord
100
AcDbBlockTableRecord
  2
*PAPER_SPACE
340
16609
  0
BLOCK_RECORD
  5
F770
330
7466
100
AcDbSymbolTableRecord
100
AcDbBlockTableRecord
  2
_DOTSMALL
340
0
102
{BLKREFS
331
1BEF7
331
1BEF8
331
1BF02
331
1BF03
331
1BF0D
331
1BF0E
331
1BF16
331
1BF17
331
1BF1E
331
1BF1F
331
1BF27
331
1BF28
331
1BF32
331
1BF33
331
1BF3E
331
1BF3F
331
1BF49
331
1BF4A
331
1BF53
331
1BF54
331
1BF5C
331
1BF5D
331
1BF67
331
1BF68
331
1BF72
331
1BF73
331
1BF7B
331
1BF7C
331
1BF84
331
1BF85
331
1BF8F
331
1BF90
331
1BF9A
331
1BF9B
331
1BFA4
331
1BFA5
331
1BFAD
331
1BFAE
331
1BFB6
331
1BFB7
331
1BFC1
331
1BFC2
331
1BFCC
331
1BFCD
331
1BFD5
331
1BFD6
331
1BFF3
331
1BFF4
331
1C00F
331
1C010
331
1C022
331
1C023
331
1C02B
331
1C02C
331
1C042
331
1C043
331
1C04B
331
1C04C
102
}
  0
BLOCK_RECORD
  5
17883
330
7466
100
AcDbSymbolTableRecord
100
AcDbBlockTableRecord
  2
_OPEN
340
0
  0
BLOCK_RECORD
  5
17889
330
7466
100
AcDbSymbolTableRecord
100
AcDbBlockTableRecord
  2
_Oblique
340
0
  0
BLOCK_RECORD
  5
1BAC3
330
7466
100
AcDbSymbolTableRecord
100
AcDbBlockTableRecord
  2
*D3
340
0
  0
BLOCK_RECORD
  5
1BAD0
330
7466
100
AcDbSymbolTableRecord
100
AcDbBlockTableRecord
  2
*D4
340
0
  0
BLOCK_RECORD
  5
1BADE
330
7466
100
AcDbSymbolTableRecord
100
AcDbBlockTableRecord
  2
*D5
340
0
  0
BLOCK_RECORD
  5
1BAEA
330
7466
100
AcDbSymbolTableRecord
100
AcDbBlockTableRecord
  2
*D6
340
0
  0
BLOCK_RECORD
  5
1BAF8
330
7466
100
AcDbSymbolTableRecord
100
AcDbBlockTableRecord
  2
*D7
340
0
  0
BLOCK_RECORD
  5
1BB06
330
7466
100
AcDbSymbolTableRecord
100
AcDbBlockTableRecord
  2
*D8
340
0
  0
BLOCK_RECORD
  5
1BB12
330
7466
100
AcDbSymbolTableRecord
100
AcDbBlockTableRecord
  2
*D9
340
0
  0
BLOCK_RECORD
  5
1BB36
330
7466
100
AcDbSymbolTableRecord
100
AcDbBlockTableRecord
  2
*D10
340
0
  0
BLOCK_RECORD
  5
1BB43
330
7466
100
AcDbSymbolTableRecord
100
AcDbBlockTableRecord
  2
*D11
340
0
  0
BLOCK_RECORD
  5
1BB50
330
7466
100
AcDbSymbolTableRecord
100
AcDbBlockTableRecord
  2
*D12
340
0
  0
BLOCK_RECORD
  5
1BB5C
330
7466
100
AcDbSymbolTableRecord
100
AcDbBlockTableRecord
  2
*D13
340
0
  0
BLOCK_RECORD
  5
1BB6A
330
7466
100
AcDbSymbolTableRecord
100
AcDbBlockTableRecord
  2
*D14
340
0
  0
BLOCK_RECORD
  5
1BB76
330
7466
100
AcDbSymbolTableRecord
100
AcDbBlockTableRecord
  2
*D15
340
0
  0
BLOCK_RECORD
  5
1BB84
330
7466
100
AcDbSymbolTableRecord
100
AcDbBlockTableRecord
  2
*D16
340
0
  0
BLOCK_RECORD
  5
1BB90
330
7466
100
AcDbSymbolTableRecord
100
AcDbBlockTableRecord
  2
*D17
340
0
  0
BLOCK_RECORD
  5
1BB9C
330
7466
100
AcDbSymbolTableRecord
100
AcDbBlockTableRecord
  2
*D18
340
0
  0
BLOCK_RECORD
  5
1BBA8
330
7466
100
AcDbSymbolTableRecord
100
AcDbBlockTableRecord
  2
*D19
340
0
  0
BLOCK_RECORD
  5
1BBB6
330
7466
100
AcDbSymbolTableRecord
100
AcDbBlockTableRecord
  2
*D20
340
0
  0
BLOCK_RECORD
  5
1BBC4
330
7466
100
AcDbSymbolTableRecord
100
AcDbBlockTableRecord
  2
*D21
340
0
  0
BLOCK_RECORD
  5
1BBD0
330
7466
100
AcDbSymbolTableRecord
100
AcDbBlockTableRecord
  2
*D22
340
0
  0
BLOCK_RECORD
  5
1BBDE
330
7466
100
AcDbSymbolTableRecord
100
AcDbBlockTableRecord
  2
*D23
340
0
  0
BLOCK_RECORD
  5
1BBEC
330
7466
100
AcDbSymbolTableRecord
100
AcDbBlockTableRecord
  2
*D24
340
0
  0
BLOCK_RECORD
  5
1BBFA
330
7466
100
AcDbSymbolTableRecord
100
AcDbBlockTableRecord
  2
*D25
340
0
  0
BLOCK_RECORD
  5
1BC08
330
7466
100
AcDbSymbolTableRecord
100
AcDbBlockTableRecord
  2
*D26
340
0
  0
BLOCK_RECORD
  5
1BC14
330
7466
100
AcDbSymbolTableRecord
100
AcDbBlockTableRecord
  2
*D27
340
0
  0
BLOCK_RECORD
  5
1BC1F
330
7466
100
AcDbSymbolTableRecord
100
AcDbBlockTableRecord
  2
*D28
340
0
  0
BLOCK_RECORD
  5
1BC2B
330
7466
100
AcDbSymbolTableRecord
100
AcDbBlockTableRecord
  2
*D29
340
0
  0
BLOCK_RECORD
  5
1BC39
330
7466
100
AcDbSymbolTableRecord
100
AcDbBlockTableRecord
  2
*D30
340
0
  0
BLOCK_RECORD
  5
1BC47
330
7466
100
AcDbSymbolTableRecord
100
AcDbBlockTableRecord
  2
*D31
340
0
  0
ENDTAB
  0
ENDSEC
  0
SECTION
  2
BLOCKS
  0
BLOCK
  5
7489
330
747D
100
AcDbEntity
  8
0
100
AcDbBlockBegin
  2
*MODEL_SPACE
 70
     0
 10
0.0
 20
0.0
 30
0.0
  3
*MODEL_SPACE
  1

  0
ENDBLK
  5
748A
330
747D
100
AcDbEntity
  8
0
100
AcDbBlockEnd
  0
BLOCK
  5
7487
330
747A
100
AcDbEntity
 67
     1
  8
0
100
AcDbBlockBegin
  2
*PAPER_SPACE
 70
     0
 10
0.0
 20
0.0
 30
0.0
  3
*PAPER_SPACE
  1

  0
ENDBLK
  5
7488
330
747A
100
AcDbEntity
 67
     1
  8
0
100
AcDbBlockEnd
  0
BLOCK
  5
F771
330
F770
100
AcDbEntity
  8
0
 48
50.0
100
AcDbBlockBegin
  2
_DOTSMALL
 70
     0
 10
0.0
 20
0.0
 30
0.0
  3
_DOTSMALL
  1

  0
LWPOLYLINE
  5
F772
330
F770
100
AcDbEntity
  8
0
  6
ByBlock
 62
     0
 48
50.0
100
AcDbPolyline
 90
        2
 70
     1
 43
0.5
 10
-0.0625
 20
0.0
 42
1.0
 10
0.0625
 20
0.0
 42
1.0
  0
ENDBLK
  5
F776
330
F770
100
AcDbEntity
  8
0
 48
50.0
100
AcDbBlockEnd
  0
BLOCK
  5
17884
330
17883
100
AcDbEntity
  8
0
100
AcDbBlockBegin
  2
_OPEN
 70
     0
 10
0.0
 20
0.0
 30
0.0
  3
_OPEN
  1

  0
LINE
  5
17885
330
17883
100
AcDbEntity
  8
0
  6
ByBlock
 62
     0
100
AcDbLine
 10
-1.0
 20
0.1666666666666666
 30
0.0
 11
0.0
 21
0.0
 31
0.0
  0
LINE
  5
17886
330
17883
100
AcDbEntity
  8
0
  6
ByBlock
 62
     0
100
AcDbLine
 10
0.0
 20
0.0
 30
0.0
 11
-1.0
 21
-0.1666666666666666
 31
0.0
  0
LINE
  5
17887
330
17883
100
AcDbEntity
  8
0
  6
ByBlock
 62
     0
100
AcDbLine
 10
0.0
 20
0.0
 30
0.0
 11
-1.0
 21
0.0
 31
0.0
  0
ENDBLK
  5
17888
330
17883
100
AcDbEntity
  8
0
100
AcDbBlockEnd
  0
BLOCK
  5
1788A
330
17889
100
AcDbEntity
  8
0
 48
5.0
100
AcDbBlockBegin
  2
_Oblique
 70
     0
 10
0.0
 20
0.0
 30
0.0
  3
_Oblique
  1

  0
LINE
  5
1788B
330
17889
100
AcDbEntity
  8
0
  6
ByBlock
 62
     0
370
    -2
100
AcDbLine
 10
-0.5
 20
-0.5
 30
0.0
 11
0.5
 21
0.5
 31
0.0
  0
ENDBLK
  5
1788C
330
17889
100
AcDbEntity
  8
0
 48
5.0
100
AcDbBlockEnd
  0
BLOCK
  5
1BACE
330
1BAC3
100
AcDbEntity
  8
0
 48
50.0
100
AcDbBlockBegin
  2
*D3
 70
     1
 10
0.0
 20
0.0
 30
0.0
  3
*D3
  1

  0
LINE
  5
1C047
330
1BAC3
100
AcDbEntity
  8
寸法
 62
     0
 48
50.0
370
    -2
100
AcDbLine
 10
7394.673057123663
 20
4481.69605741873
 30
0.0
 11
7722.216159445405
 21
4481.69605741873
 31
0.0
  0
LINE
  5
1C048
330
1BAC3
100
AcDbEntity
  8
寸法
 62
     0
 48
50.0
370
    -2
100
AcDbLine
 10
7394.673057123663
 20
4646.69605741873
 30
0.0
 11
7722.216159445405
 21
4646.69605741873
 31
0.0
  0
LINE
  5
1C049
330
1BAC3
100
AcDbEntity
  8
寸法
 62
     0
 48
50.0
370
    -2
100
AcDbLine
 10
7662.216159445406
 20
4481.69605741873
 30
0.0
 11
7662.216159445406
 21
4646.69605741873
 31
0.0
  0
LINE
  5
1C04A
330
1BAC3
100
AcDbEntity
  8
寸法
 62
     0
 48
50.0
370
    -2
100
AcDbLine
 10
7662.216159445406
 20
4646.69605741873
 30
0.0
 11
7662.216159445406
 21
5023.666620167211
 31
0.0
  0
INSERT
  5
1C04B
330
1BAC3
100
AcDbEntity
  8
寸法
 62
     0
 48
50.0
370
    -2
100
AcDbBlockReference
  2
_DOTSMALL
 10
7662.216159445406
 20
4481.69605741873
 30
0.0
 41
100.0
 42
100.0
 43
100.0
 50
270.0
  0
INSERT
  5
1C04C
330
1BAC3
100
AcDbEntity
  8
寸法
 62
     0
 48
50.0
370
    -2
100
AcDbBlockReference
  2
_DOTSMALL
 10
7662.216159445406
 20
4646.69605741873
 30
0.0
 41
100.0
 42
100.0
 43
100.0
 50
90.0
  0
MTEXT
  5
1C04D
330
1BAC3
100
AcDbEntity
  8
寸法
 62
     7
 48
50.0
100
AcDbMText
 10
7562.216159445404
 20
4885.181338792972
 30
0.0
 40
120.0
 41
0.0
 71
     5
 72
     1
  1
\A1;165
  7
STYLE1
 11
0.0000000000000001
 21
1.0
 31
0.0
 73
     1
 44
1.0
1001
ACAD
1000
MTEXTBEGIN
1070
    73
1070
     1
1070
    44
1040
1.0
1070
    74
1070
     0
1000
MTEXTEND
  0
POINT
  5
1C04E
330
1BAC3
100
AcDbEntity
  8
DEFPOINTS
 62
     0
 48
50.0
100
AcDbPoint
 10
7374.673057123662
 20
4481.69605741873
 30
0.0
  0
POINT
  5
1C04F
330
1BAC3
100
AcDbEntity
  8
DEFPOINTS
 62
     0
 48
50.0
100
AcDbPoint
 10
7374.673057123662
 20
4646.69605741873
 30
0.0
  0
POINT
  5
1C050
330
1BAC3
100
AcDbEntity
  8
DEFPOINTS
 62
     0
 48
50.0
100
AcDbPoint
 10
7662.216159445406
 20
4646.69605741873
 30
0.0
  0
ENDBLK
  5
1BACF
330
1BAC3
100
AcDbEntity
  8
0
 48
50.0
100
AcDbBlockEnd
  0
BLOCK
  5
1BADC
330
1BAD0
100
AcDbEntity
  8
0
 48
50.0
100
AcDbBlockBegin
  2
*D4
 70
     1
 10
0.0
 20
0.0
 30
0.0
  3
*D4
  1

  0
LINE
  5
1C03C
330
1BAD0
100
AcDbEntity
  8
寸法
 62
     0
 48
50.0
370
    -2
100
AcDbLine
 10
7394.673057123663
 20
4454.696057418731
 30
0.0
 11
7722.216159445405
 21
4454.696057418731
 31
0.0
  0
LINE
  5
1C03D
330
1BAD0
100
AcDbEntity
  8
寸法
 62
     0
 48
50.0
370
    -2
100
AcDbLine
 10
7394.673057123663
 20
4481.69605741873
 30
0.0
 11
7722.216159445405
 21
4481.69605741873
 31
0.0
  0
LINE
  5
1C03E
330
1BAD0
100
AcDbEntity
  8
寸法
 62
     0
 48
50.0
370
    -2
100
AcDbLine
 10
7662.216159445404
 20
4454.696057418731
 30
0.0
 11
7662.216159445404
 21
4354.69605741873
 31
0.0
  0
LINE
  5
1C03F
330
1BAD0
100
AcDbEntity
  8
寸法
 62
     0
 48
50.0
370
    -2
100
AcDbLine
 10
7662.216159445404
 20
4481.69605741873
 30
0.0
 11
7662.216159445404
 21
4581.696057418731
 31
0.0
  0
MTEXT
  5
1C040
330
1BAD0
100
AcDbEntity
  8
寸法
 62
     7
 48
50.0
100
AcDbMText
 10
7802.385982691773
 20
4482.66325725839
 30
0.0
 40
120.0
 41
0.0
 71
     5
 72
     1
  1
\A1;27
  7
STYLE1
 11
0.0000000000000001
 21
1.0
 31
0.0
 73
     1
 44
1.0
1001
ACAD
1000
MTEXTBEGIN
1070
    73
1070
     1
1070
    44
1040
1.0
1070
    74
1070
     0
1000
MTEXTEND
  0
LINE
  5
1C041
330
1BAD0
100
AcDbEntity
  8
寸法
 62
     0
 48
50.0
370
    -2
100
AcDbLine
 10
7662.216159445404
 20
4454.696057418731
 30
0.0
 11
7662.216159445404
 21
4481.69605741873
 31
0.0
  0
INSERT
  5
1C042
330
1BAD0
100
AcDbEntity
  8
寸法
 62
     0
 48
50.0
370
    -2
100
AcDbBlockReference
  2
_DOTSMALL
 10
7662.216159445404
 20
4454.696057418731
 30
0.0
 41
100.0
 42
100.0
 43
100.0
 50
90.0
  0
INSERT
  5
1C043
330
1BAD0
100
AcDbEntity
  8
寸法
 62
     0
 48
50.0
370
    -2
100
AcDbBlockReference
  2
_DOTSMALL
 10
7662.216159445404
 20
4481.69605741873
 30
0.0
 41
100.0
 42
100.0
 43
100.0
 50
270.0
  0
POINT
  5
1C044
330
1BAD0
100
AcDbEntity
  8
DEFPOINTS
 62
     0
 48
50.0
100
AcDbPoint
 10
7374.673057123662
 20
4454.696057418731
 30
0.0
  0
POINT
  5
1C045
330
1BAD0
100
AcDbEntity
  8
DEFPOINTS
 62
     0
 48
50.0
100
AcDbPoint
 10
7374.673057123662
 20
4481.69605741873
 30
0.0
  0
POINT
  5
1C046
330
1BAD0
100
AcDbEntity
  8
DEFPOINTS
 62
     0
 48
50.0
100
AcDbPoint
 10
7662.216159445404
 20
4481.69605741873
 30
0.0
  0
ENDBLK
  5
1BADD
330
1BAD0
100
AcDbEntity
  8
0
 48
50.0
100
AcDbBlockEnd
  0
BLOCK
  5
1BAE8
330
1BADE
100
AcDbEntity
  8
0
 48
50.0
100
AcDbBlockBegin
  2
*D5
 70
     1
 10
0.0
 20
0.0
 30
0.0
  3
*D5
  1

  0
LINE
  5
1BFD2
330
1BADE
100
AcDbEntity
  8
寸法
 62
     0
 48
50.0
370
    -2
100
AcDbLine
 10
7394.673057123663
 20
2506.696057418732
 30
0.0
 11
7722.216159445405
 21
2506.696057418732
 31
0.0
  0
LINE
  5
1BFD3
330
1BADE
100
AcDbEntity
  8
寸法
 62
     0
 48
50.0
370
    -2
100
AcDbLine
 10
7394.673057123663
 20
4454.696057418731
 30
0.0
 11
7722.216159445405
 21
4454.696057418731
 31
0.0
  0
LINE
  5
1BFD4
330
1BADE
100
AcDbEntity
  8
寸法
 62
     0
 48
50.0
370
    -2
100
AcDbLine
 10
7662.216159445404
 20
2506.696057418732
 30
0.0
 11
7662.216159445404
 21
4454.696057418731
 31
0.0
  0
INSERT
  5
1BFD5
330
1BADE
100
AcDbEntity
  8
寸法
 62
     0
 48
50.0
370
    -2
100
AcDbBlockReference
  2
_DOTSMALL
 10
7662.216159445404
 20
2506.696057418732
 30
0.0
 41
100.0
 42
100.0
 43
100.0
 50
270.0
  0
INSERT
  5
1BFD6
330
1BADE
100
AcDbEntity
  8
寸法
 62
     0
 48
50.0
370
    -2
100
AcDbBlockReference
  2
_DOTSMALL
 10
7662.216159445404
 20
4454.696057418731
 30
0.0
 41
100.0
 42
100.0
 43
100.0
 50
90.0
  0
MTEXT
  5
1BFD7
330
1BADE
100
AcDbEntity
  8
寸法
 62
     7
 48
50.0
100
AcDbMText
 10
7562.216159445404
 20
3480.696057418733
 30
0.0
 40
120.0
 41
0.0
 71
     5
 72
     1
  1
\A1;有効開口部高サ 1948
  7
STYLE1
 11
0.0000000000000001
 21
1.0
 31
0.0
 73
     1
 44
1.0
1001
ACAD
1000
MTEXTBEGIN
1070
    73
1070
     1
1070
    44
1040
1.0
1070
    74
1070
     0
1000
MTEXTEND
  0
POINT
  5
1BFD8
330
1BADE
100
AcDbEntity
  8
DEFPOINTS
 62
     0
 48
50.0
100
AcDbPoint
 10
7374.673057123662
 20
2506.696057418732
 30
0.0
  0
POINT
  5
1BFD9
330
1BADE
100
AcDbEntity
  8
DEFPOINTS
 62
     0
 48
50.0
100
AcDbPoint
 10
7374.673057123662
 20
4454.696057418731
 30
0.0
  0
POINT
  5
1BFDA
330
1BADE
100
AcDbEntity
  8
DEFPOINTS
 62
     0
 48
50.0
100
AcDbPoint
 10
7662.216159445404
 20
4454.696057418731
 30
0.0
  0
ENDBLK
  5
1BAE9
330
1BADE
100
AcDbEntity
  8
0
 48
50.0
100
AcDbBlockEnd
  0
BLOCK
  5
1BAF6
330
1BAEA
100
AcDbEntity
  8
0
 48
50.0
100
AcDbBlockBegin
  2
*D6
 70
     1
 10
0.0
 20
0.0
 30
0.0
  3
*D6
  1

  0
LINE
  5
1BFC7
330
1BAEA
100
AcDbEntity
  8
寸法
 62
     0
 48
50.0
370
    -2
100
AcDbLine
 10
5164.673057123666
 20
4901.696057418737
 30
0.0
 11
5164.673057123666
 21
5347.422329150641
 31
0.0
  0
LINE
  5
1BFC8
330
1BAEA
100
AcDbEntity
  8
寸法
 62
     0
 48
50.0
370
    -2
100
AcDbLine
 10
5114.673057123666
 20
4901.696057418735
 30
0.0
 11
5114.673057123666
 21
5347.422329150641
 31
0.0
  0
LINE
  5
1BFC9
330
1BAEA
100
AcDbEntity
  8
寸法
 62
     0
 48
50.0
370
    -2
100
AcDbLine
 10
5164.673057123666
 20
5287.422329150642
 30
0.0
 11
5264.673057123665
 21
5287.422329150642
 31
0.0
  0
LINE
  5
1BFCA
330
1BAEA
100
AcDbEntity
  8
寸法
 62
     0
 48
50.0
370
    -2
100
AcDbLine
 10
5114.673057123666
 20
5287.422329150642
 30
0.0
 11
4695.140531654931
 21
5287.422329150642
 31
0.0
  0
LINE
  5
1BFCB
330
1BAEA
100
AcDbEntity
  8
寸法
 62
     0
 48
50.0
370
    -2
100
AcDbLine
 10
5164.673057123666
 20
5287.422329150642
 30
0.0
 11
5114.673057123666
 21
5287.422329150642
 31
0.0
  0
INSERT
  5
1BFCC
330
1BAEA
100
AcDbEntity
  8
寸法
 62
     0
 48
50.0
370
    -2
100
AcDbBlockReference
  2
_DOTSMALL
 10
5164.673057123666
 20
5287.422329150642
 30
0.0
 41
100.0
 42
100.0
 43
100.0
 50
180.0
  0
INSERT
  5
1BFCD
330
1BAEA
100
AcDbEntity
  8
寸法
 62
     0
 48
50.0
370
    -2
100
AcDbBlockReference
  2
_DOTSMALL
 10
5114.673057123666
 20
5287.422329150642
 30
0.0
 41
100.0
 42
100.0
 43
100.0
  0
MTEXT
  5
1BFCE
330
1BAEA
100
AcDbEntity
  8
寸法
 62
     7
 48
50.0
100
AcDbMText
 10
4801.187775749419
 20
5387.422329150641
 30
0.0
 40
120.0
 41
0.0
 71
     5
 72
     1
  1
\A1;50
  7
STYLE1
 73
     1
 44
1.0
1001
ACAD
1000
MTEXTBEGIN
1070
    73
1070
     1
1070
    44
1040
1.0
1070
    74
1070
     0
1000
MTEXTEND
  0
POINT
  5
1BFCF
330
1BAEA
100
AcDbEntity
  8
DEFPOINTS
 62
     0
 48
50.0
100
AcDbPoint
 10
5164.673057123666
 20
4881.696057418737
 30
0.0
  0
POINT
  5
1BFD0
330
1BAEA
100
AcDbEntity
  8
DEFPOINTS
 62
     0
 48
50.0
100
AcDbPoint
 10
5114.673057123666
 20
4881.696057418736
 30
0.0
  0
POINT
  5
1BFD1
330
1BAEA
100
AcDbEntity
  8
DEFPOINTS
 62
     0
 48
50.0
100
AcDbPoint
 10
5114.673057123666
 20
5287.422329150642
 30
0.0
  0
ENDBLK
  5
1BAF7
330
1BAEA
100
AcDbEntity
  8
0
 48
50.0
100
AcDbBlockEnd
  0
BLOCK
  5
1BB04
330
1BAF8
100
AcDbEntity
  8
0
 48
50.0
100
AcDbBlockBegin
  2
*D7
 70
     1
 10
0.0
 20
0.0
 30
0.0
  3
*D7
  1

  0
LINE
  5
1BFBC
330
1BAF8
100
AcDbEntity
  8
寸法
 62
     0
 48
50.0
370
    -2
100
AcDbLine
 10
7424.673057123662
 20
4901.696057418734
 30
0.0
 11
7424.673057123662
 21
5347.422329150641
 31
0.0
  0
LINE
  5
1BFBD
330
1BAF8
100
AcDbEntity
  8
寸法
 62
     0
 48
50.0
370
    -2
100
AcDbLine
 10
7374.673057123665
 20
4901.696057418735
 30
0.0
 11
7374.673057123665
 21
5347.422329150641
 31
0.0
  0
LINE
  5
1BFBE
330
1BAF8
100
AcDbEntity
  8
寸法
 62
     0
 48
50.0
370
    -2
100
AcDbLine
 10
7374.673057123665
 20
5287.422329150642
 30
0.0
 11
7274.673057123665
 21
5287.422329150642
 31
0.0
  0
LINE
  5
1BFBF
330
1BAF8
100
AcDbEntity
  8
寸法
 62
     0
 48
50.0
370
    -2
100
AcDbLine
 10
7424.673057123662
 20
5287.422329150642
 30
0.0
 11
7844.205582592386
 21
5287.422329150642
 31
0.0
  0
LINE
  5
1BFC0
330
1BAF8
100
AcDbEntity
  8
寸法
 62
     0
 48
50.0
370
    -2
100
AcDbLine
 10
7374.673057123665
 20
5287.422329150642
 30
0.0
 11
7424.673057123662
 21
5287.422329150642
 31
0.0
  0
INSERT
  5
1BFC1
330
1BAF8
100
AcDbEntity
  8
寸法
 62
     0
 48
50.0
370
    -2
100
AcDbBlockReference
  2
_DOTSMALL
 10
7374.673057123665
 20
5287.422329150642
 30
0.0
 41
100.0
 42
100.0
 43
100.0
  0
INSERT
  5
1BFC2
330
1BAF8
100
AcDbEntity
  8
寸法
 62
     0
 48
50.0
370
    -2
100
AcDbBlockReference
  2
_DOTSMALL
 10
7424.673057123662
 20
5287.422329150642
 30
0.0
 41
100.0
 42
100.0
 43
100.0
 50
180.0
  0
MTEXT
  5
1BFC3
330
1BAF8
100
AcDbEntity
  8
寸法
 62
     7
 48
50.0
100
AcDbMText
 10
7738.158338497898
 20
5387.422329150641
 30
0.0
 40
120.0
 41
0.0
 71
     5
 72
     1
  1
\A1;50
  7
STYLE1
 73
     1
 44
1.0
1001
ACAD
1000
MTEXTBEGIN
1070
    73
1070
     1
1070
    44
1040
1.0
1070
    74
1070
     0
1000
MTEXTEND
  0
POINT
  5
1BFC4
330
1BAF8
100
AcDbEntity
  8
DEFPOINTS
 62
     0
 48
50.0
100
AcDbPoint
 10
7424.673057123662
 20
4881.696057418734
 30
0.0
  0
POINT
  5
1BFC5
330
1BAF8
100
AcDbEntity
  8
DEFPOINTS
 62
     0
 48
50.0
100
AcDbPoint
 10
7374.673057123665
 20
4881.696057418736
 30
0.0
  0
POINT
  5
1BFC6
330
1BAF8
100
AcDbEntity
  8
DEFPOINTS
 62
     0
 48
50.0
100
AcDbPoint
 10
7374.673057123665
 20
5287.422329150642
 30
0.0
  0
ENDBLK
  5
1BB05
330
1BAF8
100
AcDbEntity
  8
0
 48
50.0
100
AcDbBlockEnd
  0
BLOCK
  5
1BB10
330
1BB06
100
AcDbEntity
  8
0
 48
50.0
100
AcDbBlockBegin
  2
*D8
 70
     1
 10
0.0
 20
0.0
 30
0.0
  3
*D8
  1

  0
LINE
  5
1BFB3
330
1BB06
100
AcDbEntity
  8
寸法
 62
     0
 48
50.0
370
    -2
100
AcDbLine
 10
5114.673057123666
 20
4901.696057418735
 30
0.0
 11
5114.673057123666
 21
5547.331250364731
 31
0.0
  0
LINE
  5
1BFB4
330
1BB06
100
AcDbEntity
  8
寸法
 62
     0
 48
50.0
370
    -2
100
AcDbLine
 10
7424.673057123662
 20
4901.696057418734
 30
0.0
 11
7424.673057123662
 21
5547.331250364731
 31
0.0
  0
LINE
  5
1BFB5
330
1BB06
100
AcDbEntity
  8
寸法
 62
     0
 48
50.0
370
    -2
100
AcDbLine
 10
5114.673057123666
 20
5487.33125036473
 30
0.0
 11
7424.673057123662
 21
5487.33125036473
 31
0.0
  0
INSERT
  5
1BFB6
330
1BB06
100
AcDbEntity
  8
寸法
 62
     0
 48
50.0
370
    -2
100
AcDbBlockReference
  2
_DOTSMALL
 10
5114.673057123666
 20
5487.33125036473
 30
0.0
 41
100.0
 42
100.0
 43
100.0
 50
180.0
  0
INSERT
  5
1BFB7
330
1BB06
100
AcDbEntity
  8
寸法
 62
     0
 48
50.0
370
    -2
100
AcDbBlockReference
  2
_DOTSMALL
 10
7424.673057123662
 20
5487.33125036473
 30
0.0
 41
100.0
 42
100.0
 43
100.0
  0
MTEXT
  5
1BFB8
330
1BB06
100
AcDbEntity
  8
寸法
 62
     7
 48
50.0
100
AcDbMText
 10
6269.673057123662
 20
5587.343061388352
 30
0.0
 40
120.0
 41
0.0
 71
     5
 72
     1
  1
\A1;2310
  7
STYLE1
 73
     1
 44
1.0
1001
ACAD
1000
MTEXTBEGIN
1070
    73
1070
     1
1070
    44
1040
1.0
1070
    74
1070
     0
1000
MTEXTEND
  0
POINT
  5
1BFB9
330
1BB06
100
AcDbEntity
  8
DEFPOINTS
 62
     0
 48
50.0
100
AcDbPoint
 10
5114.673057123666
 20
4881.696057418736
 30
0.0
  0
POINT
  5
1BFBA
330
1BB06
100
AcDbEntity
  8
DEFPOINTS
 62
     0
 48
50.0
100
AcDbPoint
 10
7424.673057123662
 20
4881.696057418734
 30
0.0
  0
POINT
  5
1BFBB
330
1BB06
100
AcDbEntity
  8
DEFPOINTS
 62
     0
 48
50.0
100
AcDbPoint
 10
7424.673057123662
 20
5487.33125036473
 30
0.0
  0
ENDBLK
  5
1BB11
330
1BB06
100
AcDbEntity
  8
0
 48
50.0
100
AcDbBlockEnd
  0
BLOCK
  5
1BB1C
330
1BB12
100
AcDbEntity
  8
0
 48
50.0
100
AcDbBlockBegin
  2
*D9
 70
     1
 10
0.0
 20
0.0
 30
0.0
  3
*D9
  1

  0
LINE
  5
1BFAA
330
1BB12
100
AcDbEntity
  8
寸法
 62
     0
 48
50.0
370
    -2
100
AcDbLine
 10
7374.673057123665
 20
4901.696057418735
 30
0.0
 11
7374.673057123665
 21
5347.422329150641
 31
0.0
  0
LINE
  5
1BFAB
330
1BB12
100
AcDbEntity
  8
寸法
 62
     0
 48
50.0
370
    -2
100
AcDbLine
 10
5164.673057123666
 20
4901.696057418737
 30
0.0
 11
5164.673057123666
 21
5347.422329150641
 31
0.0
  0
LINE
  5
1BFAC
330
1BB12
100
AcDbEntity
  8
寸法
 62
     0
 48
50.0
370
    -2
100
AcDbLine
 10
7374.673057123665
 20
5287.422329150642
 30
0.0
 11
5164.673057123666
 21
5287.422329150642
 31
0.0
  0
INSERT
  5
1BFAD
330
1BB12
100
AcDbEntity
  8
寸法
 62
     0
 48
50.0
370
    -2
100
AcDbBlockReference
  2
_DOTSMALL
 10
7374.673057123665
 20
5287.422329150642
 30
0.0
 41
100.0
 42
100.0
 43
100.0
  0
INSERT
  5
1BFAE
330
1BB12
100
AcDbEntity
  8
寸法
 62
     0
 48
50.0
370
    -2
100
AcDbBlockReference
  2
_DOTSMALL
 10
5164.673057123666
 20
5287.422329150642
 30
0.0
 41
100.0
 42
100.0
 43
100.0
 50
180.0
  0
MTEXT
  5
1BFAF
330
1BB12
100
AcDbEntity
  8
寸法
 62
     7
 48
50.0
100
AcDbMText
 10
6269.673057123662
 20
5387.434140174264
 30
0.0
 40
120.0
 41
0.0
 71
     5
 72
     1
  1
\A1;柱外寸法2210
  7
STYLE1
 73
     1
 44
1.0
1001
ACAD
1000
MTEXTBEGIN
1070
    73
1070
     1
1070
    44
1040
1.0
1070
    74
1070
     0
1000
MTEXTEND
  0
POINT
  5
1BFB0
330
1BB12
100
AcDbEntity
  8
DEFPOINTS
 62
     0
 48
50.0
100
AcDbPoint
 10
7374.673057123665
 20
4881.696057418736
 30
0.0
  0
POINT
  5
1BFB1
330
1BB12
100
AcDbEntity
  8
DEFPOINTS
 62
     0
 48
50.0
100
AcDbPoint
 10
5164.673057123666
 20
4881.696057418737
 30
0.0
  0
POINT
  5
1BFB2
330
1BB12
100
AcDbEntity
  8
DEFPOINTS
 62
     0
 48
50.0
100
AcDbPoint
 10
5164.673057123666
 20
5287.422329150642
 30
0.0
  0
ENDBLK
  5
1BB1D
330
1BB12
100
AcDbEntity
  8
0
 48
50.0
100
AcDbBlockEnd
  0
BLOCK
  5
1BB41
330
1BB36
100
AcDbEntity
  8
0
 48
50.0
100
AcDbBlockBegin
  2
*D10
 70
     1
 10
0.0
 20
0.0
 30
0.0
  3
*D10
  1

  0
LINE
  5
1BFA0
330
1BB36
100
AcDbEntity
  8
寸法
 62
     0
 48
50.0
370
    -2
100
AcDbLine
 10
9941.254116804383
 20
4880.993764488394
 30
0.0
 11
9325.319677699091
 21
4898.707914762724
 31
0.0
  0
LINE
  5
1BFA1
330
1BB36
100
AcDbEntity
  8
寸法
 62
     0
 48
50.0
370
    -2
100
AcDbLine
 10
9937.200661247757
 20
4740.05204072268
 30
0.0
 11
9321.266222142465
 21
4757.76619099701
 31
0.0
  0
LINE
  5
1BFA2
330
1BB36
100
AcDbEntity
  8
寸法
 62
     0
 48
50.0
370
    -2
100
AcDbLine
 10
9381.241423744896
 20
4756.041316292063
 30
0.0
 11
9385.294879301522
 21
4896.983040057777
 31
0.0
  0
LINE
  5
1BFA3
330
1BB36
100
AcDbEntity
  8
寸法
 62
     0
 48
50.0
370
    -2
100
AcDbLine
 10
9385.294879301522
 20
4896.983040057777
 30
0.0
 11
9395.644127531209
 21
5256.834249672362
 31
0.0
  0
INSERT
  5
1BFA4
330
1BB36
100
AcDbEntity
  8
寸法
 62
     0
 48
50.0
370
    -2
100
AcDbBlockReference
  2
_DOTSMALL
 10
9381.241423744896
 20
4756.041316292063
 30
0.0
 41
100.0
 42
100.0
 43
100.0
 50
268.3526390256378
  0
INSERT
  5
1BFA5
330
1BB36
100
AcDbEntity
  8
寸法
 62
     0
 48
50.0
370
    -2
100
AcDbBlockReference
  2
_DOTSMALL
 10
9385.294879301522
 20
4896.983040057777
 30
0.0
 41
100.0
 42
100.0
 43
100.0
 50
88.35263902563776
  0
MTEXT
  5
1BFA6
330
1BB36
100
AcDbEntity
  8
寸法
 62
     7
 48
50.0
100
AcDbMText
 10
9291.948229666436
 20
5129.762770708675
 30
0.0
 40
120.0
 41
0.0
 71
     5
 72
     1
  1
\A1;141
  7
STYLE1
 11
0.0287479117491237
 21
0.9995866933738488
 31
0.0
 73
     1
 44
1.0
1001
ACAD
1000
MTEXTBEGIN
1070
    73
1070
     1
1070
    44
1040
1.0
1070
    74
1070
     0
1000
MTEXTEND
  0
POINT
  5
1BFA7
330
1BB36
100
AcDbEntity
  8
DEFPOINTS
 62
     0
 48
50.0
100
AcDbPoint
 10
9961.245850671859
 20
4880.418806253412
 30
0.0
  0
POINT
  5
1BFA8
330
1BB36
100
AcDbEntity
  8
DEFPOINTS
 62
     0
 48
50.0
100
AcDbPoint
 10
9957.192395115235
 20
4739.477082487698
 30
0.0
  0
POINT
  5
1BFA9
330
1BB36
100
AcDbEntity
  8
DEFPOINTS
 62
     0
 48
50.0
100
AcDbPoint
 10
9381.241423744896
 20
4756.041316292063
 30
0.0
  0
ENDBLK
  5
1BB42
330
1BB36
100
AcDbEntity
  8
0
 48
50.0
100
AcDbBlockEnd
  0
BLOCK
  5
1BB4E
330
1BB43
100
AcDbEntity
  8
0
 48
50.0
100
AcDbBlockBegin
  2
*D11
 70
     1
 10
0.0
 20
0.0
 30
0.0
  3
*D11
  1

  0
LINE
  5
1C00B
330
1BB43
100
AcDbEntity
  8
寸法
 62
     0
 48
50.0
370
    -2
100
AcDbLine
 10
12631.84983051327
 20
4848.506737030384
 30
0.0
 11
12631.84983051327
 21
5340.353510998037
 31
0.0
  0
LINE
  5
1C00C
330
1BB43
100
AcDbEntity
  8
寸法
 62
     0
 48
50.0
370
    -2
100
AcDbLine
 10
12711.84983051327
 20
4846.696057418733
 30
0.0
 11
12711.84983051327
 21
5340.353510998037
 31
0.0
  0
LINE
  5
1C00D
330
1BB43
100
AcDbEntity
  8
寸法
 62
     0
 48
50.0
370
    -2
100
AcDbLine
 10
12631.84983051327
 20
5280.353510998036
 30
0.0
 11
12711.84983051327
 21
5280.353510998036
 31
0.0
  0
LINE
  5
1C00E
330
1BB43
100
AcDbEntity
  8
寸法
 62
     0
 48
50.0
370
    -2
100
AcDbLine
 10
12711.84983051327
 20
5280.353510998036
 30
0.0
 11
13023.94431870226
 21
5280.353510998036
 31
0.0
  0
INSERT
  5
1C00F
330
1BB43
100
AcDbEntity
  8
寸法
 62
     0
 48
50.0
370
    -2
100
AcDbBlockReference
  2
_DOTSMALL
 10
12631.84983051327
 20
5280.353510998036
 30
0.0
 41
100.0
 42
100.0
 43
100.0
 50
180.0
  0
INSERT
  5
1C010
330
1BB43
100
AcDbEntity
  8
寸法
 62
     0
 48
50.0
370
    -2
100
AcDbBlockReference
  2
_DOTSMALL
 10
12711.84983051327
 20
5280.353510998036
 30
0.0
 41
100.0
 42
100.0
 43
100.0
  0
MTEXT
  5
1C011
330
1BB43
100
AcDbEntity
  8
寸法
 62
     7
 48
50.0
100
AcDbMText
 10
12917.89707460777
 20
5380.353510998037
 30
0.0
 40
120.0
 41
0.0
 71
     5
 72
     1
  1
\A1;80
  7
STYLE1
 73
     1
 44
1.0
1001
ACAD
1000
MTEXTBEGIN
1070
    73
1070
     1
1070
    44
1040
1.0
1070
    74
1070
     0
1000
MTEXTEND
  0
POINT
  5
1C012
330
1BB43
100
AcDbEntity
  8
DEFPOINTS
 62
     0
 48
50.0
100
AcDbPoint
 10
12631.84983051327
 20
4828.506737030384
 30
0.0
  0
POINT
  5
1C013
330
1BB43
100
AcDbEntity
  8
DEFPOINTS
 62
     0
 48
50.0
100
AcDbPoint
 10
12711.84983051327
 20
4826.696057418733
 30
0.0
  0
POINT
  5
1C014
330
1BB43
100
AcDbEntity
  8
DEFPOINTS
 62
     0
 48
50.0
100
AcDbPoint
 10
12711.84983051327
 20
5280.353510998036
 30
0.0
  0
ENDBLK
  5
1BB4F
330
1BB43
100
AcDbEntity
  8
0
 48
50.0
100
AcDbBlockEnd
  0
BLOCK
  5
1BB5A
330
1BB50
100
AcDbEntity
  8
0
 48
50.0
100
AcDbBlockBegin
  2
*D12
 70
     1
 10
0.0
 20
0.0
 30
0.0
  3
*D12
  1

  0
LINE
  5
1C01F
330
1BB50
100
AcDbEntity
  8
寸法
 62
     0
 48
50.0
370
    -2
100
AcDbLine
 10
12711.84983051327
 20
4846.696057418733
 30
0.0
 11
12711.84983051327
 21
5560.564197729654
 31
0.0
  0
LINE
  5
1C020
330
1BB50
100
AcDbEntity
  8
寸法
 62
     0
 48
50.0
370
    -2
100
AcDbLine
 10
9941.849830513282
 20
4901.696057418735
 30
0.0
 11
9941.849830513282
 21
5560.564197729654
 31
0.0
  0
LINE
  5
1C021
330
1BB50
100
AcDbEntity
  8
寸法
 62
     0
 48
50.0
370
    -2
100
AcDbLine
 10
12711.84983051327
 20
5500.564197729653
 30
0.0
 11
9941.849830513282
 21
5500.564197729653
 31
0.0
  0
INSERT
  5
1C022
330
1BB50
100
AcDbEntity
  8
寸法
 62
     0
 48
50.0
370
    -2
100
AcDbBlockReference
  2
_DOTSMALL
 10
12711.84983051327
 20
5500.564197729653
 30
0.0
 41
100.0
 42
100.0
 43
100.0
  0
INSERT
  5
1C023
330
1BB50
100
AcDbEntity
  8
寸法
 62
     0
 48
50.0
370
    -2
100
AcDbBlockReference
  2
_DOTSMALL
 10
9941.849830513282
 20
5500.564197729653
 30
0.0
 41
100.0
 42
100.0
 43
100.0
 50
180.0
  0
MTEXT
  5
1C024
330
1BB50
100
AcDbEntity
  8
寸法
 62
     7
 48
50.0
100
AcDbMText
 10
11326.84983051328
 20
5600.576008753275
 30
0.0
 40
120.0
 41
0.0
 71
     5
 72
     1
  1
\A1;2770
  7
STYLE1
 73
     1
 44
1.0
1001
ACAD
1000
MTEXTBEGIN
1070
    73
1070
     1
1070
    44
1040
1.0
1070
    74
1070
     0
1000
MTEXTEND
  0
POINT
  5
1C025
330
1BB50
100
AcDbEntity
  8
DEFPOINTS
 62
     0
 48
50.0
100
AcDbPoint
 10
12711.84983051327
 20
4826.696057418733
 30
0.0
  0
POINT
  5
1C026
330
1BB50
100
AcDbEntity
  8
DEFPOINTS
 62
     0
 48
50.0
100
AcDbPoint
 10
9941.849830513282
 20
4881.696057418736
 30
0.0
  0
POINT
  5
1C027
330
1BB50
100
AcDbEntity
  8
DEFPOINTS
 62
     0
 48
50.0
100
AcDbPoint
 10
9941.849830513282
 20
5500.564197729653
 30
0.0
  0
ENDBLK
  5
1BB5B
330
1BB50
100
AcDbEntity
  8
0
 48
50.0
100
AcDbBlockEnd
  0
BLOCK
  5
1BB68
330
1BB5C
100
AcDbEntity
  8
0
 48
50.0
100
AcDbBlockBegin
  2
*D13
 70
     1
 10
0.0
 20
0.0
 30
0.0
  3
*D13
  1

  0
LINE
  5
1BF95
330
1BB5C
100
AcDbEntity
  8
寸法
 62
     0
 48
50.0
370
    -2
100
AcDbLine
 10
10001.84983051328
 20
4897.697675541706
 30
0.0
 11
10001.84983051328
 21
5340.353510998037
 31
0.0
  0
LINE
  5
1BF96
330
1BB5C
100
AcDbEntity
  8
寸法
 62
     0
 48
50.0
370
    -2
100
AcDbLine
 10
9941.849830513282
 20
4901.696057418735
 30
0.0
 11
9941.849830513282
 21
5340.353510998037
 31
0.0
  0
LINE
  5
1BF97
330
1BB5C
100
AcDbEntity
  8
寸法
 62
     0
 48
50.0
370
    -2
100
AcDbLine
 10
10001.84983051328
 20
5280.353510998036
 30
0.0
 11
10101.84983051328
 21
5280.353510998036
 31
0.0
  0
LINE
  5
1BF98
330
1BB5C
100
AcDbEntity
  8
寸法
 62
     0
 48
50.0
370
    -2
100
AcDbLine
 10
9941.849830513282
 20
5280.353510998036
 30
0.0
 11
9522.574239962102
 21
5280.353510998036
 31
0.0
  0
LINE
  5
1BF99
330
1BB5C
100
AcDbEntity
  8
寸法
 62
     0
 48
50.0
370
    -2
100
AcDbLine
 10
10001.84983051328
 20
5280.353510998036
 30
0.0
 11
9941.849830513282
 21
5280.353510998036
 31
0.0
  0
INSERT
  5
1BF9A
330
1BB5C
100
AcDbEntity
  8
寸法
 62
     0
 48
50.0
370
    -2
100
AcDbBlockReference
  2
_DOTSMALL
 10
10001.84983051328
 20
5280.353510998036
 30
0.0
 41
100.0
 42
100.0
 43
100.0
 50
180.0
  0
INSERT
  5
1BF9B
330
1BB5C
100
AcDbEntity
  8
寸法
 62
     0
 48
50.0
370
    -2
100
AcDbBlockReference
  2
_DOTSMALL
 10
9941.849830513282
 20
5280.353510998036
 30
0.0
 41
100.0
 42
100.0
 43
100.0
  0
MTEXT
  5
1BF9C
330
1BB5C
100
AcDbEntity
  8
寸法
 62
     7
 48
50.0
100
AcDbMText
 10
9632.212035237692
 20
5380.353510998037
 30
0.0
 40
120.0
 41
0.0
 71
     5
 72
     1
  1
\A1;60
  7
STYLE1
 73
     1
 44
1.0
1001
ACAD
1000
MTEXTBEGIN
1070
    73
1070
     1
1070
    44
1040
1.0
1070
    74
1070
     0
1000
MTEXTEND
  0
POINT
  5
1BF9D
330
1BB5C
100
AcDbEntity
  8
DEFPOINTS
 62
     0
 48
50.0
100
AcDbPoint
 10
10001.84983051328
 20
4877.697675541707
 30
0.0
  0
POINT
  5
1BF9E
330
1BB5C
100
AcDbEntity
  8
DEFPOINTS
 62
     0
 48
50.0
100
AcDbPoint
 10
9941.849830513282
 20
4881.696057418736
 30
0.0
  0
POINT
  5
1BF9F
330
1BB5C
100
AcDbEntity
  8
DEFPOINTS
 62
     0
 48
50.0
100
AcDbPoint
 10
9941.849830513282
 20
5280.353510998036
 30
0.0
  0
ENDBLK
  5
1BB69
330
1BB5C
100
AcDbEntity
  8
0
 48
50.0
100
AcDbBlockEnd
  0
BLOCK
  5
1BB74
330
1BB6A
100
AcDbEntity
  8
0
 48
50.0
100
AcDbBlockBegin
  2
*D14
 70
     1
 10
0.0
 20
0.0
 30
0.0
  3
*D14
  1

  0
LINE
  5
1C028
330
1BB6A
100
AcDbEntity
  8
寸法
 62
     0
 48
50.0
370
    -2
100
AcDbLine
 10
12631.84983051327
 20
4848.506737030384
 30
0.0
 11
12631.84983051327
 21
5340.353510998037
 31
0.0
  0
LINE
  5
1C029
330
1BB6A
100
AcDbEntity
  8
寸法
 62
     0
 48
50.0
370
    -2
100
AcDbLine
 10
10001.84983051328
 20
4897.697675541706
 30
0.0
 11
10001.84983051328
 21
5340.353510998037
 31
0.0
  0
LINE
  5
1C02A
330
1BB6A
100
AcDbEntity
  8
寸法
 62
     0
 48
50.0
370
    -2
100
AcDbLine
 10
12631.84983051327
 20
5280.353510998036
 30
0.0
 11
10001.84983051328
 21
5280.353510998036
 31
0.0
  0
INSERT
  5
1C02B
330
1BB6A
100
AcDbEntity
  8
寸法
 62
     0
 48
50.0
370
    -2
100
AcDbBlockReference
  2
_DOTSMALL
 10
12631.84983051327
 20
5280.353510998036
 30
0.0
 41
100.0
 42
100.0
 43
100.0
  0
INSERT
  5
1C02C
330
1BB6A
100
AcDbEntity
  8
寸法
 62
     0
 48
50.0
370
    -2
100
AcDbBlockReference
  2
_DOTSMALL
 10
10001.84983051328
 20
5280.353510998036
 30
0.0
 41
100.0
 42
100.0
 43
100.0
 50
180.0
  0
MTEXT
  5
1C02D
330
1BB6A
100
AcDbEntity
  8
寸法
 62
     7
 48
50.0
100
AcDbMText
 10
11316.84983051328
 20
5380.365322021658
 30
0.0
 40
120.0
 41
0.0
 71
     5
 72
     1
  1
\A1;柱外寸法2630
  7
STYLE1
 73
     1
 44
1.0
1001
ACAD
1000
MTEXTBEGIN
1070
    73
1070
     1
1070
    44
1040
1.0
1070
    74
1070
     0
1000
MTEXTEND
  0
POINT
  5
1C02E
330
1BB6A
100
AcDbEntity
  8
DEFPOINTS
 62
     0
 48
50.0
100
AcDbPoint
 10
12631.84983051327
 20
4828.506737030384
 30
0.0
  0
POINT
  5
1C02F
330
1BB6A
100
AcDbEntity
  8
DEFPOINTS
 62
     0
 48
50.0
100
AcDbPoint
 10
10001.84983051328
 20
4877.697675541707
 30
0.0
  0
POINT
  5
1C030
330
1BB6A
100
AcDbEntity
  8
DEFPOINTS
 62
     0
 48
50.0
100
AcDbPoint
 10
10001.84983051328
 20
5280.353510998036
 30
0.0
  0
ENDBLK
  5
1BB75
330
1BB6A
100
AcDbEntity
  8
0
 48
50.0
100
AcDbBlockEnd
  0
BLOCK
  5
1BB82
330
1BB76
100
AcDbEntity
  8
0
 48
50.0
100
AcDbBlockBegin
  2
*D15
 70
     1
 10
0.0
 20
0.0
 30
0.0
  3
*D15
  1

  0
LINE
  5
1BF8A
330
1BB76
100
AcDbEntity
  8
寸法
 62
     0
 48
50.0
370
    -2
100
AcDbLine
 10
9981.849830513285
 20
2556.696057418733
 30
0.0
 11
9098.099701330026
 21
2556.696057418733
 31
0.0
  0
LINE
  5
1BF8B
330
1BB76
100
AcDbEntity
  8
寸法
 62
     0
 48
50.0
370
    -2
100
AcDbLine
 10
9926.849830513285
 20
2506.696057418732
 30
0.0
 11
9098.099701330026
 21
2506.696057418733
 31
0.0
  0
LINE
  5
1BF8C
330
1BB76
100
AcDbEntity
  8
寸法
 62
     0
 48
50.0
370
    -2
100
AcDbLine
 10
9158.099701330026
 20
2556.696057418733
 30
0.0
 11
9158.099701330026
 21
2656.696057418733
 31
0.0
  0
LINE
  5
1BF8D
330
1BB76
100
AcDbEntity
  8
寸法
 62
     0
 48
50.0
370
    -2
100
AcDbLine
 10
9158.099701330026
 20
2506.696057418733
 30
0.0
 11
9158.099701330026
 21
2094.601569229753
 31
0.0
  0
LINE
  5
1BF8E
330
1BB76
100
AcDbEntity
  8
寸法
 62
     0
 48
50.0
370
    -2
100
AcDbLine
 10
9158.099701330026
 20
2556.696057418733
 30
0.0
 11
9158.099701330026
 21
2506.696057418733
 31
0.0
  0
INSERT
  5
1BF8F
330
1BB76
100
AcDbEntity
  8
寸法
 62
     0
 48
50.0
370
    -2
100
AcDbBlockReference
  2
_DOTSMALL
 10
9158.099701330026
 20
2556.696057418733
 30
0.0
 41
100.0
 42
100.0
 43
100.0
 50
270.0
  0
INSERT
  5
1BF90
330
1BB76
100
AcDbEntity
  8
寸法
 62
     0
 48
50.0
370
    -2
100
AcDbBlockReference
  2
_DOTSMALL
 10
9158.099701330026
 20
2506.696057418733
 30
0.0
 41
100.0
 42
100.0
 43
100.0
 50
90.0
  0
MTEXT
  5
1BF91
330
1BB76
100
AcDbEntity
  8
寸法
 62
     7
 48
50.0
100
AcDbMText
 10
9058.099701330027
 20
2200.648813324242
 30
0.0
 40
120.0
 41
0.0
 71
     5
 72
     1
  1
\A1;50
  7
STYLE1
 11
0.0000000000000001
 21
1.0
 31
0.0
 73
     1
 44
1.0
1001
ACAD
1000
MTEXTBEGIN
1070
    73
1070
     1
1070
    44
1040
1.0
1070
    74
1070
     0
1000
MTEXTEND
  0
POINT
  5
1BF92
330
1BB76
100
AcDbEntity
  8
DEFPOINTS
 62
     0
 48
50.0
100
AcDbPoint
 10
10001.84983051328
 20
2556.696057418733
 30
0.0
  0
POINT
  5
1BF93
330
1BB76
100
AcDbEntity
  8
DEFPOINTS
 62
     0
 48
50.0
100
AcDbPoint
 10
9946.849830513286
 20
2506.696057418732
 30
0.0
  0
POINT
  5
1BF94
330
1BB76
100
AcDbEntity
  8
DEFPOINTS
 62
     0
 48
50.0
100
AcDbPoint
 10
9158.099701330026
 20
2506.696057418733
 30
0.0
  0
ENDBLK
  5
1BB83
330
1BB76
100
AcDbEntity
  8
0
 48
50.0
100
AcDbBlockEnd
  0
BLOCK
  5
1BB8E
330
1BB84
100
AcDbEntity
  8
0
 48
50.0
100
AcDbBlockBegin
  2
*D16
 70
     1
 10
0.0
 20
0.0
 30
0.0
  3
*D16
  1

  0
LINE
  5
1BFF0
330
1BB84
100
AcDbEntity
  8
寸法
 62
     0
 48
50.0
370
    -2
100
AcDbLine
 10
12651.84983051327
 20
2506.696057418734
 30
0.0
 11
13396.77698848541
 21
2506.696057418734
 31
0.0
  0
LINE
  5
1BFF1
330
1BB84
100
AcDbEntity
  8
寸法
 62
     0
 48
50.0
370
    -2
100
AcDbLine
 10
12731.84983051327
 20
4826.696057418733
 30
0.0
 11
13396.77698848541
 21
4826.696057418733
 31
0.0
  0
LINE
  5
1BFF2
330
1BB84
100
AcDbEntity
  8
寸法
 62
     0
 48
50.0
370
    -2
100
AcDbLine
 10
13336.77698848541
 20
2506.696057418734
 30
0.0
 11
13336.77698848541
 21
4826.696057418733
 31
0.0
  0
INSERT
  5
1BFF3
330
1BB84
100
AcDbEntity
  8
寸法
 62
     0
 48
50.0
370
    -2
100
AcDbBlockReference
  2
_DOTSMALL
 10
13336.77698848541
 20
2506.696057418734
 30
0.0
 41
100.0
 42
100.0
 43
100.0
 50
270.0
  0
INSERT
  5
1BFF4
330
1BB84
100
AcDbEntity
  8
寸法
 62
     0
 48
50.0
370
    -2
100
AcDbBlockReference
  2
_DOTSMALL
 10
13336.77698848541
 20
4826.696057418733
 30
0.0
 41
100.0
 42
100.0
 43
100.0
 50
90.0
  0
MTEXT
  5
1BFF5
330
1BB84
100
AcDbEntity
  8
寸法
 62
     7
 48
50.0
100
AcDbMText
 10
13236.76517746179
 20
3666.696057418735
 30
0.0
 40
120.0
 41
0.0
 71
     5
 72
     1
  1
\A1;2320
  7
STYLE1
 11
0.0000000000000001
 21
1.0
 31
0.0
 73
     1
 44
1.0
1001
ACAD
1000
MTEXTBEGIN
1070
    73
1070
     1
1070
    44
1040
1.0
1070
    74
1070
     0
1000
MTEXTEND
  0
POINT
  5
1BFF6
330
1BB84
100
AcDbEntity
  8
DEFPOINTS
 62
     0
 48
50.0
100
AcDbPoint
 10
12631.84983051327
 20
2506.696057418734
 30
0.0
  0
POINT
  5
1BFF7
330
1BB84
100
AcDbEntity
  8
DEFPOINTS
 62
     0
 48
50.0
100
AcDbPoint
 10
12711.84983051327
 20
4826.696057418733
 30
0.0
  0
POINT
  5
1BFF8
330
1BB84
100
AcDbEntity
  8
DEFPOINTS
 62
     0
 48
50.0
100
AcDbPoint
 10
13336.77698848541
 20
4826.696057418733
 30
0.0
  0
ENDBLK
  5
1BB8F
330
1BB84
100
AcDbEntity
  8
0
 48
50.0
100
AcDbBlockEnd
  0
BLOCK
  5
1BB9A
330
1BB90
100
AcDbEntity
  8
0
 48
50.0
100
AcDbBlockBegin
  2
*D17
 70
     1
 10
0.0
 20
0.0
 30
0.0
  3
*D17
  1

  0
LINE
  5
1BF81
330
1BB90
100
AcDbEntity
  8
寸法
 62
     0
 48
50.0
370
    -2
100
AcDbLine
 10
9981.849830513285
 20
2506.696057418727
 30
0.0
 11
8798.099701330023
 21
2506.696057418727
 31
0.0
  0
LINE
  5
1BF82
330
1BB90
100
AcDbEntity
  8
寸法
 62
     0
 48
50.0
370
    -2
100
AcDbLine
 10
9921.849830513281
 20
4881.69605741873
 30
0.0
 11
8798.099701330025
 21
4881.69605741873
 31
0.0
  0
LINE
  5
1BF83
330
1BB90
100
AcDbEntity
  8
寸法
 62
     0
 48
50.0
370
    -2
100
AcDbLine
 10
8858.099701330024
 20
2506.696057418727
 30
0.0
 11
8858.099701330026
 21
4881.69605741873
 31
0.0
  0
INSERT
  5
1BF84
330
1BB90
100
AcDbEntity
  8
寸法
 62
     0
 48
50.0
370
    -2
100
AcDbBlockReference
  2
_DOTSMALL
 10
8858.099701330024
 20
2506.696057418727
 30
0.0
 41
100.0
 42
100.0
 43
100.0
 50
270.0
  0
INSERT
  5
1BF85
330
1BB90
100
AcDbEntity
  8
寸法
 62
     0
 48
50.0
370
    -2
100
AcDbBlockReference
  2
_DOTSMALL
 10
8858.099701330026
 20
4881.69605741873
 30
0.0
 41
100.0
 42
100.0
 43
100.0
 50
90.0
  0
MTEXT
  5
1BF86
330
1BB90
100
AcDbEntity
  8
寸法
 62
     7
 48
50.0
100
AcDbMText
 10
8758.087890306402
 20
3694.19605741873
 30
0.0
 40
120.0
 41
0.0
 71
     5
 72
     1
  1
\A1;2375
  7
STYLE1
 11
0.0000000000000001
 21
1.0
 31
0.0
 73
     1
 44
1.0
1001
ACAD
1000
MTEXTBEGIN
1070
    73
1070
     1
1070
    44
1040
1.0
1070
    74
1070
     0
1000
MTEXTEND
  0
POINT
  5
1BF87
330
1BB90
100
AcDbEntity
  8
DEFPOINTS
 62
     0
 48
50.0
100
AcDbPoint
 10
10001.84983051328
 20
2506.696057418727
 30
0.0
  0
POINT
  5
1BF88
330
1BB90
100
AcDbEntity
  8
DEFPOINTS
 62
     0
 48
50.0
100
AcDbPoint
 10
9941.849830513282
 20
4881.69605741873
 30
0.0
  0
POINT
  5
1BF89
330
1BB90
100
AcDbEntity
  8
DEFPOINTS
 62
     0
 48
50.0
100
AcDbPoint
 10
8858.099701330026
 20
4881.69605741873
 30
0.0
  0
ENDBLK
  5
1BB9B
330
1BB90
100
AcDbEntity
  8
0
 48
50.0
100
AcDbBlockEnd
  0
BLOCK
  5
1BBA6
330
1BB9C
100
AcDbEntity
  8
0
 48
50.0
100
AcDbBlockBegin
  2
*D18
 70
     1
 10
0.0
 20
0.0
 30
0.0
  3
*D18
  1

  0
LINE
  5
1BF78
330
1BB9C
100
AcDbEntity
  8
寸法
 62
     0
 48
50.0
370
    -2
100
AcDbLine
 10
9981.849830513285
 20
4646.696057418727
 30
0.0
 11
9098.099701330028
 21
4646.696057418727
 31
0.0
  0
LINE
  5
1BF79
330
1BB9C
100
AcDbEntity
  8
寸法
 62
     0
 48
50.0
370
    -2
100
AcDbLine
 10
9981.849830513285
 20
2556.696057418727
 30
0.0
 11
9098.099701330026
 21
2556.696057418728
 31
0.0
  0
LINE
  5
1BF7A
330
1BB9C
100
AcDbEntity
  8
寸法
 62
     0
 48
50.0
370
    -2
100
AcDbLine
 10
9158.099701330028
 20
4646.696057418727
 30
0.0
 11
9158.099701330026
 21
2556.696057418728
 31
0.0
  0
INSERT
  5
1BF7B
330
1BB9C
100
AcDbEntity
  8
寸法
 62
     0
 48
50.0
370
    -2
100
AcDbBlockReference
  2
_DOTSMALL
 10
9158.099701330028
 20
4646.696057418727
 30
0.0
 41
100.0
 42
100.0
 43
100.0
 50
90.0
  0
INSERT
  5
1BF7C
330
1BB9C
100
AcDbEntity
  8
寸法
 62
     0
 48
50.0
370
    -2
100
AcDbBlockReference
  2
_DOTSMALL
 10
9158.099701330026
 20
2556.696057418728
 30
0.0
 41
100.0
 42
100.0
 43
100.0
 50
270.0
  0
MTEXT
  5
1BF7D
330
1BB9C
100
AcDbEntity
  8
寸法
 62
     7
 48
50.0
100
AcDbMText
 10
9058.087890306405
 20
3601.696057418729
 30
0.0
 40
120.0
 41
0.0
 71
     5
 72
     1
  1
\A1;2090
  7
STYLE1
 11
0.0000000000000001
 21
1.0
 31
0.0
 73
     1
 44
1.0
1001
ACAD
1000
MTEXTBEGIN
1070
    73
1070
     1
1070
    44
1040
1.0
1070
    74
1070
     0
1000
MTEXTEND
  0
POINT
  5
1BF7E
330
1BB9C
100
AcDbEntity
  8
DEFPOINTS
 62
     0
 48
50.0
100
AcDbPoint
 10
10001.84983051328
 20
4646.696057418727
 30
0.0
  0
POINT
  5
1BF7F
330
1BB9C
100
AcDbEntity
  8
DEFPOINTS
 62
     0
 48
50.0
100
AcDbPoint
 10
10001.84983051328
 20
2556.696057418727
 30
0.0
  0
POINT
  5
1BF80
330
1BB9C
100
AcDbEntity
  8
DEFPOINTS
 62
     0
 48
50.0
100
AcDbPoint
 10
9158.099701330026
 20
2556.696057418728
 30
0.0
  0
ENDBLK
  5
1BBA7
330
1BB9C
100
AcDbEntity
  8
0
 48
50.0
100
AcDbBlockEnd
  0
BLOCK
  5
1BBB4
330
1BBA8
100
AcDbEntity
  8
0
 48
50.0
100
AcDbBlockBegin
  2
*D19
 70
     1
 10
0.0
 20
0.0
 30
0.0
  3
*D19
  1

  0
LINE
  5
1BF6D
330
1BBA8
100
AcDbEntity
  8
寸法
 62
     0
 48
50.0
370
    -2
100
AcDbLine
 10
7319.67305712367
 20
9897.340693558364
 30
0.0
 11
7319.67305712367
 21
10153.14891318335
 31
0.0
  0
LINE
  5
1BF6E
330
1BBA8
100
AcDbEntity
  8
寸法
 62
     0
 48
50.0
370
    -2
100
AcDbLine
 10
7374.673057123669
 20
9897.340693558364
 30
0.0
 11
7374.673057123669
 21
10153.14891318335
 31
0.0
  0
LINE
  5
1BF6F
330
1BBA8
100
AcDbEntity
  8
寸法
 62
     0
 48
50.0
370
    -2
100
AcDbLine
 10
7319.67305712367
 20
10093.14891318335
 30
0.0
 11
7219.67305712367
 21
10093.14891318335
 31
0.0
  0
LINE
  5
1BF70
330
1BBA8
100
AcDbEntity
  8
寸法
 62
     0
 48
50.0
370
    -2
100
AcDbLine
 10
7374.673057123669
 20
10093.14891318335
 30
0.0
 11
7791.643619872148
 21
10093.14891318335
 31
0.0
  0
LINE
  5
1BF71
330
1BBA8
100
AcDbEntity
  8
寸法
 62
     0
 48
50.0
370
    -2
100
AcDbLine
 10
7319.67305712367
 20
10093.14891318335
 30
0.0
 11
7374.673057123669
 21
10093.14891318335
 31
0.0
  0
INSERT
  5
1BF72
330
1BBA8
100
AcDbEntity
  8
寸法
 62
     0
 48
50.0
370
    -2
100
AcDbBlockReference
  2
_DOTSMALL
 10
7319.67305712367
 20
10093.14891318335
 30
0.0
 41
100.0
 42
100.0
 43
100.0
  0
INSERT
  5
1BF73
330
1BBA8
100
AcDbEntity
  8
寸法
 62
     0
 48
50.0
370
    -2
100
AcDbBlockReference
  2
_DOTSMALL
 10
7374.673057123669
 20
10093.14891318335
 30
0.0
 41
100.0
 42
100.0
 43
100.0
 50
180.0
  0
MTEXT
  5
1BF74
330
1BBA8
100
AcDbEntity
  8
寸法
 62
     7
 48
50.0
100
AcDbMText
 10
7683.15833849791
 20
10193.14891318335
 30
0.0
 40
120.0
 41
0.0
 71
     5
 72
     1
  1
\A1;55
  7
STYLE1
 73
     1
 44
1.0
1001
ACAD
1000
MTEXTBEGIN
1070
    73
1070
     1
1070
    44
1040
1.0
1070
    74
1070
     0
1000
MTEXTEND
  0
POINT
  5
1BF75
330
1BBA8
100
AcDbEntity
  8
DEFPOINTS
 62
     0
 48
50.0
100
AcDbPoint
 10
7319.67305712367
 20
9877.340693558366
 30
0.0
  0
POINT
  5
1BF76
330
1BBA8
100
AcDbEntity
  8
DEFPOINTS
 62
     0
 48
50.0
100
AcDbPoint
 10
7374.673057123669
 20
9877.340693558366
 30
0.0
  0
POINT
  5
1BF77
330
1BBA8
100
AcDbEntity
  8
DEFPOINTS
 62
     0
 48
50.0
100
AcDbPoint
 10
7374.673057123669
 20
10093.14891318335
 30
0.0
  0
ENDBLK
  5
1BBB5
330
1BBA8
100
AcDbEntity
  8
0
 48
50.0
100
AcDbBlockEnd
  0
BLOCK
  5
1BBC2
330
1BBB6
100
AcDbEntity
  8
0
 48
50.0
100
AcDbBlockBegin
  2
*D20
 70
     1
 10
0.0
 20
0.0
 30
0.0
  3
*D20
  1

  0
LINE
  5
1BF62
330
1BBB6
100
AcDbEntity
  8
寸法
 62
     0
 48
50.0
370
    -2
100
AcDbLine
 10
5164.673057123633
 20
9897.340693558271
 30
0.0
 11
5164.673057123633
 21
10153.14891318325
 31
0.0
  0
LINE
  5
1BF63
330
1BBB6
100
AcDbEntity
  8
寸法
 62
     0
 48
50.0
370
    -2
100
AcDbLine
 10
5219.673057123666
 20
9897.340693558271
 30
0.0
 11
5219.673057123666
 21
10153.14891318325
 31
0.0
  0
LINE
  5
1BF64
330
1BBB6
100
AcDbEntity
  8
寸法
 62
     0
 48
50.0
370
    -2
100
AcDbLine
 10
5219.673057123666
 20
10093.14891318325
 30
0.0
 11
5319.673057123665
 21
10093.14891318325
 31
0.0
  0
LINE
  5
1BF65
330
1BBB6
100
AcDbEntity
  8
寸法
 62
     0
 48
50.0
370
    -2
100
AcDbLine
 10
5164.673057123633
 20
10093.14891318325
 30
0.0
 11
4747.702494375153
 21
10093.14891318325
 31
0.0
  0
LINE
  5
1BF66
330
1BBB6
100
AcDbEntity
  8
寸法
 62
     0
 48
50.0
370
    -2
100
AcDbLine
 10
5219.673057123666
 20
10093.14891318325
 30
0.0
 11
5164.673057123633
 21
10093.14891318325
 31
0.0
  0
INSERT
  5
1BF67
330
1BBB6
100
AcDbEntity
  8
寸法
 62
     0
 48
50.0
370
    -2
100
AcDbBlockReference
  2
_DOTSMALL
 10
5219.673057123666
 20
10093.14891318325
 30
0.0
 41
100.0
 42
100.0
 43
100.0
 50
180.0
  0
INSERT
  5
1BF68
330
1BBB6
100
AcDbEntity
  8
寸法
 62
     0
 48
50.0
370
    -2
100
AcDbBlockReference
  2
_DOTSMALL
 10
5164.673057123633
 20
10093.14891318325
 30
0.0
 41
100.0
 42
100.0
 43
100.0
  0
MTEXT
  5
1BF69
330
1BBB6
100
AcDbEntity
  8
寸法
 62
     7
 48
50.0
100
AcDbMText
 10
4856.187775749393
 20
10193.14891318325
 30
0.0
 40
120.0
 41
0.0
 71
     5
 72
     1
  1
\A1;55
  7
STYLE1
 73
     1
 44
1.0
1001
ACAD
1000
MTEXTBEGIN
1070
    73
1070
     1
1070
    44
1040
1.0
1070
    74
1070
     0
1000
MTEXTEND
  0
POINT
  5
1BF6A
330
1BBB6
100
AcDbEntity
  8
DEFPOINTS
 62
     0
 48
50.0
100
AcDbPoint
 10
5164.673057123633
 20
9877.340693558272
 30
0.0
  0
POINT
  5
1BF6B
330
1BBB6
100
AcDbEntity
  8
DEFPOINTS
 62
     0
 48
50.0
100
AcDbPoint
 10
5219.673057123666
 20
9877.340693558272
 30
0.0
  0
POINT
  5
1BF6C
330
1BBB6
100
AcDbEntity
  8
DEFPOINTS
 62
     0
 48
50.0
100
AcDbPoint
 10
5219.673057123666
 20
10093.14891318325
 30
0.0
  0
ENDBLK
  5
1BBC3
330
1BBB6
100
AcDbEntity
  8
0
 48
50.0
100
AcDbBlockEnd
  0
BLOCK
  5
1BBCE
330
1BBC4
100
AcDbEntity
  8
0
 48
50.0
100
AcDbBlockBegin
  2
*D21
 70
     1
 10
0.0
 20
0.0
 30
0.0
  3
*D21
  1

  0
LINE
  5
1BF59
330
1BBC4
100
AcDbEntity
  8
寸法
 62
     0
 48
50.0
370
    -2
100
AcDbLine
 10
5219.673057123666
 20
9897.340693558271
 30
0.0
 11
5219.673057123666
 21
10153.14891318337
 31
0.0
  0
LINE
  5
1BF5A
330
1BBC4
100
AcDbEntity
  8
寸法
 62
     0
 48
50.0
370
    -2
100
AcDbLine
 10
7319.67305712367
 20
9897.340693558364
 30
0.0
 11
7319.67305712367
 21
10153.14891318337
 31
0.0
  0
LINE
  5
1BF5B
330
1BBC4
100
AcDbEntity
  8
寸法
 62
     0
 48
50.0
370
    -2
100
AcDbLine
 10
5219.673057123666
 20
10093.14891318337
 30
0.0
 11
7319.67305712367
 21
10093.14891318337
 31
0.0
  0
INSERT
  5
1BF5C
330
1BBC4
100
AcDbEntity
  8
寸法
 62
     0
 48
50.0
370
    -2
100
AcDbBlockReference
  2
_DOTSMALL
 10
5219.673057123666
 20
10093.14891318337
 30
0.0
 41
100.0
 42
100.0
 43
100.0
 50
180.0
  0
INSERT
  5
1BF5D
330
1BBC4
100
AcDbEntity
  8
寸法
 62
     0
 48
50.0
370
    -2
100
AcDbBlockReference
  2
_DOTSMALL
 10
7319.67305712367
 20
10093.14891318337
 30
0.0
 41
100.0
 42
100.0
 43
100.0
  0
MTEXT
  5
1BF5E
330
1BBC4
100
AcDbEntity
  8
寸法
 62
     7
 48
50.0
100
AcDbMText
 10
6269.673057123668
 20
10193.16072420699
 30
0.0
 40
120.0
 41
0.0
 71
     5
 72
     1
  1
\A1;5X420=2100
  7
STYLE1
 73
     1
 44
1.0
1001
ACAD
1000
MTEXTBEGIN
1070
    73
1070
     1
1070
    44
1040
1.0
1070
    74
1070
     0
1000
MTEXTEND
  0
POINT
  5
1BF5F
330
1BBC4
100
AcDbEntity
  8
DEFPOINTS
 62
     0
 48
50.0
100
AcDbPoint
 10
5219.673057123666
 20
9877.340693558272
 30
0.0
  0
POINT
  5
1BF60
330
1BBC4
100
AcDbEntity
  8
DEFPOINTS
 62
     0
 48
50.0
100
AcDbPoint
 10
7319.67305712367
 20
9877.340693558366
 30
0.0
  0
POINT
  5
1BF61
330
1BBC4
100
AcDbEntity
  8
DEFPOINTS
 62
     0
 48
50.0
100
AcDbPoint
 10
7319.67305712367
 20
10093.14891318337
 30
0.0
  0
ENDBLK
  5
1BBCF
330
1BBC4
100
AcDbEntity
  8
0
 48
50.0
100
AcDbBlockEnd
  0
BLOCK
  5
1BBDC
330
1BBD0
100
AcDbEntity
  8
0
 48
50.0
100
AcDbBlockBegin
  2
*D22
 70
     1
 10
0.0
 20
0.0
 30
0.0
  3
*D22
  1

  0
LINE
  5
1BF4E
330
1BBD0
100
AcDbEntity
  8
寸法
 62
     0
 48
50.0
370
    -2
100
AcDbLine
 10
7374.67305712364
 20
7227.340693558357
 30
0.0
 11
7374.67305712364
 21
6652.909922792104
 31
0.0
  0
LINE
  5
1BF4F
330
1BBD0
100
AcDbEntity
  8
寸法
 62
     0
 48
50.0
370
    -2
100
AcDbLine
 10
7319.673057123644
 20
7227.340693558353
 30
0.0
 11
7319.673057123644
 21
6652.909922792104
 31
0.0
  0
LINE
  5
1BF50
330
1BBD0
100
AcDbEntity
  8
寸法
 62
     0
 48
50.0
370
    -2
100
AcDbLine
 10
7319.673057123644
 20
6712.909922792103
 30
0.0
 11
7219.673057123644
 21
6712.909922792103
 31
0.0
  0
LINE
  5
1BF51
330
1BBD0
100
AcDbEntity
  8
寸法
 62
     0
 48
50.0
370
    -2
100
AcDbLine
 10
7374.67305712364
 20
6712.909922792103
 30
0.0
 11
7791.64361987212
 21
6712.909922792103
 31
0.0
  0
LINE
  5
1BF52
330
1BBD0
100
AcDbEntity
  8
寸法
 62
     0
 48
50.0
370
    -2
100
AcDbLine
 10
7319.673057123644
 20
6712.909922792103
 30
0.0
 11
7374.67305712364
 21
6712.909922792103
 31
0.0
  0
INSERT
  5
1BF53
330
1BBD0
100
AcDbEntity
  8
寸法
 62
     0
 48
50.0
370
    -2
100
AcDbBlockReference
  2
_DOTSMALL
 10
7319.673057123644
 20
6712.909922792103
 30
0.0
 41
100.0
 42
100.0
 43
100.0
  0
INSERT
  5
1BF54
330
1BBD0
100
AcDbEntity
  8
寸法
 62
     0
 48
50.0
370
    -2
100
AcDbBlockReference
  2
_DOTSMALL
 10
7374.67305712364
 20
6712.909922792103
 30
0.0
 41
100.0
 42
100.0
 43
100.0
 50
180.0
  0
MTEXT
  5
1BF55
330
1BBD0
100
AcDbEntity
  8
寸法
 62
     7
 48
50.0
100
AcDbMText
 10
7683.15833849788
 20
6812.909922792103
 30
0.0
 40
120.0
 41
0.0
 71
     5
 72
     1
  1
\A1;55
  7
STYLE1
 73
     1
 44
1.0
1001
ACAD
1000
MTEXTBEGIN
1070
    73
1070
     1
1070
    44
1040
1.0
1070
    74
1070
     0
1000
MTEXTEND
  0
POINT
  5
1BF56
330
1BBD0
100
AcDbEntity
  8
DEFPOINTS
 62
     0
 48
50.0
100
AcDbPoint
 10
7374.67305712364
 20
7247.340693558356
 30
0.0
  0
POINT
  5
1BF57
330
1BBD0
100
AcDbEntity
  8
DEFPOINTS
 62
     0
 48
50.0
100
AcDbPoint
 10
7319.673057123644
 20
7247.340693558354
 30
0.0
  0
POINT
  5
1BF58
330
1BBD0
100
AcDbEntity
  8
DEFPOINTS
 62
     0
 48
50.0
100
AcDbPoint
 10
7319.673057123644
 20
6712.909922792103
 30
0.0
  0
ENDBLK
  5
1BBDD
330
1BBD0
100
AcDbEntity
  8
0
 48
50.0
100
AcDbBlockEnd
  0
BLOCK
  5
1BBEA
330
1BBDE
100
AcDbEntity
  8
0
 48
50.0
100
AcDbBlockBegin
  2
*D23
 70
     1
 10
0.0
 20
0.0
 30
0.0
  3
*D23
  1

  0
LINE
  5
1BF43
330
1BBDE
100
AcDbEntity
  8
寸法
 62
     0
 48
50.0
370
    -2
100
AcDbLine
 10
7319.673057123644
 20
7227.340693558353
 30
0.0
 11
7319.673057123644
 21
6652.909922792102
 31
0.0
  0
LINE
  5
1BF44
330
1BBDE
100
AcDbEntity
  8
寸法
 62
     0
 48
50.0
370
    -2
100
AcDbLine
 10
7271.673057123641
 20
7253.340693558266
 30
0.0
 11
7271.673057123641
 21
6652.909922792102
 31
0.0
  0
LINE
  5
1BF45
330
1BBDE
100
AcDbEntity
  8
寸法
 62
     0
 48
50.0
370
    -2
100
AcDbLine
 10
7319.673057123644
 20
6712.909922792102
 30
0.0
 11
7419.673057123644
 21
6712.909922792102
 31
0.0
  0
LINE
  5
1BF46
330
1BBDE
100
AcDbEntity
  8
寸法
 62
     0
 48
50.0
370
    -2
100
AcDbLine
 10
7271.673057123641
 20
6712.909922792102
 30
0.0
 11
7171.673057123641
 21
6712.909922792102
 31
0.0
  0
MTEXT
  5
1BF47
330
1BBDE
100
AcDbEntity
  8
寸法
 62
     7
 48
50.0
100
AcDbMText
 10
7160.710159474892
 20
6812.909922792103
 30
0.0
 40
120.0
 41
0.0
 71
     5
 72
     1
  1
\A1;48
  7
STYLE1
 73
     1
 44
1.0
1001
ACAD
1000
MTEXTBEGIN
1070
    73
1070
     1
1070
    44
1040
1.0
1070
    74
1070
     0
1000
MTEXTEND
  0
LINE
  5
1BF48
330
1BBDE
100
AcDbEntity
  8
寸法
 62
     0
 48
50.0
370
    -2
100
AcDbLine
 10
7319.673057123644
 20
6712.909922792102
 30
0.0
 11
7271.673057123641
 21
6712.909922792102
 31
0.0
  0
INSERT
  5
1BF49
330
1BBDE
100
AcDbEntity
  8
寸法
 62
     0
 48
50.0
370
    -2
100
AcDbBlockReference
  2
_DOTSMALL
 10
7319.673057123644
 20
6712.909922792102
 30
0.0
 41
100.0
 42
100.0
 43
100.0
 50
180.0
  0
INSERT
  5
1BF4A
330
1BBDE
100
AcDbEntity
  8
寸法
 62
     0
 48
50.0
370
    -2
100
AcDbBlockReference
  2
_DOTSMALL
 10
7271.673057123641
 20
6712.909922792102
 30
0.0
 41
100.0
 42
100.0
 43
100.0
  0
POINT
  5
1BF4B
330
1BBDE
100
AcDbEntity
  8
DEFPOINTS
 62
     0
 48
50.0
100
AcDbPoint
 10
7319.673057123644
 20
7247.340693558354
 30
0.0
  0
POINT
  5
1BF4C
330
1BBDE
100
AcDbEntity
  8
DEFPOINTS
 62
     0
 48
50.0
100
AcDbPoint
 10
7271.673057123641
 20
7273.340693558266
 30
0.0
  0
POINT
  5
1BF4D
330
1BBDE
100
AcDbEntity
  8
DEFPOINTS
 62
     0
 48
50.0
100
AcDbPoint
 10
7271.673057123641
 20
6712.909922792102
 30
0.0
  0
ENDBLK
  5
1BBEB
330
1BBDE
100
AcDbEntity
  8
0
 48
50.0
100
AcDbBlockEnd
  0
BLOCK
  5
1BBF8
330
1BBEC
100
AcDbEntity
  8
0
 48
50.0
100
AcDbBlockBegin
  2
*D24
 70
     1
 10
0.0
 20
0.0
 30
0.0
  3
*D24
  1

  0
LINE
  5
1BF38
330
1BBEC
100
AcDbEntity
  8
寸法
 62
     0
 48
50.0
370
    -2
100
AcDbLine
 10
5267.673057123662
 20
7253.340693558264
 30
0.0
 11
5267.673057123662
 21
6652.909922792102
 31
0.0
  0
LINE
  5
1BF39
330
1BBEC
100
AcDbEntity
  8
寸法
 62
     0
 48
50.0
370
    -2
100
AcDbLine
 10
5219.673057123658
 20
7227.340693558264
 30
0.0
 11
5219.673057123658
 21
6652.909922792102
 31
0.0
  0
LINE
  5
1BF3A
330
1BBEC
100
AcDbEntity
  8
寸法
 62
     0
 48
50.0
370
    -2
100
AcDbLine
 10
5267.673057123662
 20
6712.909922792102
 30
0.0
 11
5367.673057123663
 21
6712.909922792102
 31
0.0
  0
LINE
  5
1BF3B
330
1BBEC
100
AcDbEntity
  8
寸法
 62
     0
 48
50.0
370
    -2
100
AcDbLine
 10
5219.673057123658
 20
6712.909922792102
 30
0.0
 11
5119.673057123659
 21
6712.909922792102
 31
0.0
  0
MTEXT
  5
1BF3C
330
1BBEC
100
AcDbEntity
  8
寸法
 62
     7
 48
50.0
100
AcDbMText
 10
5380.575028123719
 20
6812.909922792103
 30
0.0
 40
120.0
 41
0.0
 71
     5
 72
     1
  1
\A1;48
  7
STYLE1
 73
     1
 44
1.0
1001
ACAD
1000
MTEXTBEGIN
1070
    73
1070
     1
1070
    44
1040
1.0
1070
    74
1070
     0
1000
MTEXTEND
  0
LINE
  5
1BF3D
330
1BBEC
100
AcDbEntity
  8
寸法
 62
     0
 48
50.0
370
    -2
100
AcDbLine
 10
5267.673057123662
 20
6712.909922792102
 30
0.0
 11
5219.673057123658
 21
6712.909922792102
 31
0.0
  0
INSERT
  5
1BF3E
330
1BBEC
100
AcDbEntity
  8
寸法
 62
     0
 48
50.0
370
    -2
100
AcDbBlockReference
  2
_DOTSMALL
 10
5267.673057123662
 20
6712.909922792102
 30
0.0
 41
100.0
 42
100.0
 43
100.0
 50
180.0
  0
INSERT
  5
1BF3F
330
1BBEC
100
AcDbEntity
  8
寸法
 62
     0
 48
50.0
370
    -2
100
AcDbBlockReference
  2
_DOTSMALL
 10
5219.673057123658
 20
6712.909922792102
 30
0.0
 41
100.0
 42
100.0
 43
100.0
  0
POINT
  5
1BF40
330
1BBEC
100
AcDbEntity
  8
DEFPOINTS
 62
     0
 48
50.0
100
AcDbPoint
 10
5267.673057123662
 20
7273.340693558265
 30
0.0
  0
POINT
  5
1BF41
330
1BBEC
100
AcDbEntity
  8
DEFPOINTS
 62
     0
 48
50.0
100
AcDbPoint
 10
5219.673057123658
 20
7247.340693558264
 30
0.0
  0
POINT
  5
1BF42
330
1BBEC
100
AcDbEntity
  8
DEFPOINTS
 62
     0
 48
50.0
100
AcDbPoint
 10
5219.673057123658
 20
6712.909922792102
 30
0.0
  0
ENDBLK
  5
1BBF9
330
1BBEC
100
AcDbEntity
  8
0
 48
50.0
100
AcDbBlockEnd
  0
BLOCK
  5
1BC06
330
1BBFA
100
AcDbEntity
  8
0
 48
50.0
100
AcDbBlockBegin
  2
*D25
 70
     1
 10
0.0
 20
0.0
 30
0.0
  3
*D25
  1

  0
LINE
  5
1BF2D
330
1BBFA
100
AcDbEntity
  8
寸法
 62
     0
 48
50.0
370
    -2
100
AcDbLine
 10
5219.673057123658
 20
7227.340693558264
 30
0.0
 11
5219.673057123658
 21
6652.909922792102
 31
0.0
  0
LINE
  5
1BF2E
330
1BBFA
100
AcDbEntity
  8
寸法
 62
     0
 48
50.0
370
    -2
100
AcDbLine
 10
5164.673057123662
 20
7227.340693558264
 30
0.0
 11
5164.673057123662
 21
6652.909922792102
 31
0.0
  0
LINE
  5
1BF2F
330
1BBFA
100
AcDbEntity
  8
寸法
 62
     0
 48
50.0
370
    -2
100
AcDbLine
 10
5219.673057123658
 20
6712.909922792102
 30
0.0
 11
5319.673057123658
 21
6712.909922792102
 31
0.0
  0
LINE
  5
1BF30
330
1BBFA
100
AcDbEntity
  8
寸法
 62
     0
 48
50.0
370
    -2
100
AcDbLine
 10
5164.673057123662
 20
6712.909922792102
 30
0.0
 11
4747.702494375182
 21
6712.909922792102
 31
0.0
  0
LINE
  5
1BF31
330
1BBFA
100
AcDbEntity
  8
寸法
 62
     0
 48
50.0
370
    -2
100
AcDbLine
 10
5219.673057123658
 20
6712.909922792102
 30
0.0
 11
5164.673057123662
 21
6712.909922792102
 31
0.0
  0
INSERT
  5
1BF32
330
1BBFA
100
AcDbEntity
  8
寸法
 62
     0
 48
50.0
370
    -2
100
AcDbBlockReference
  2
_DOTSMALL
 10
5219.673057123658
 20
6712.909922792102
 30
0.0
 41
100.0
 42
100.0
 43
100.0
 50
180.0
  0
INSERT
  5
1BF33
330
1BBFA
100
AcDbEntity
  8
寸法
 62
     0
 48
50.0
370
    -2
100
AcDbBlockReference
  2
_DOTSMALL
 10
5164.673057123662
 20
6712.909922792102
 30
0.0
 41
100.0
 42
100.0
 43
100.0
  0
MTEXT
  5
1BF34
330
1BBFA
100
AcDbEntity
  8
寸法
 62
     7
 48
50.0
100
AcDbMText
 10
4856.187775749422
 20
6812.909922792101
 30
0.0
 40
120.0
 41
0.0
 71
     5
 72
     1
  1
\A1;55
  7
STYLE1
 73
     1
 44
1.0
1001
ACAD
1000
MTEXTBEGIN
1070
    73
1070
     1
1070
    44
1040
1.0
1070
    74
1070
     0
1000
MTEXTEND
  0
POINT
  5
1BF35
330
1BBFA
100
AcDbEntity
  8
DEFPOINTS
 62
     0
 48
50.0
100
AcDbPoint
 10
5219.673057123658
 20
7247.340693558264
 30
0.0
  0
POINT
  5
1BF36
330
1BBFA
100
AcDbEntity
  8
DEFPOINTS
 62
     0
 48
50.0
100
AcDbPoint
 10
5164.673057123662
 20
7247.340693558263
 30
0.0
  0
POINT
  5
1BF37
330
1BBFA
100
AcDbEntity
  8
DEFPOINTS
 62
     0
 48
50.0
100
AcDbPoint
 10
5164.673057123662
 20
6712.909922792102
 30
0.0
  0
ENDBLK
  5
1BC07
330
1BBFA
100
AcDbEntity
  8
0
 48
50.0
100
AcDbBlockEnd
  0
BLOCK
  5
1BC12
330
1BC08
100
AcDbEntity
  8
0
 48
50.0
100
AcDbBlockBegin
  2
*D26
 70
     1
 10
0.0
 20
0.0
 30
0.0
  3
*D26
  1

  0
LINE
  5
1BF24
330
1BC08
100
AcDbEntity
  8
寸法
 62
     0
 48
50.0
370
    -2
100
AcDbLine
 10
5164.673057123662
 20
7227.340693558193
 30
0.0
 11
5164.673057123662
 21
6366.736927201227
 31
0.0
  0
LINE
  5
1BF25
330
1BC08
100
AcDbEntity
  8
寸法
 62
     0
 48
50.0
370
    -2
100
AcDbLine
 10
7374.67305712364
 20
7227.340693558321
 30
0.0
 11
7374.67305712364
 21
6366.736927201227
 31
0.0
  0
LINE
  5
1BF26
330
1BC08
100
AcDbEntity
  8
寸法
 62
     0
 48
50.0
370
    -2
100
AcDbLine
 10
5164.673057123662
 20
6426.736927201227
 30
0.0
 11
7374.67305712364
 21
6426.736927201227
 31
0.0
  0
INSERT
  5
1BF27
330
1BC08
100
AcDbEntity
  8
寸法
 62
     0
 48
50.0
370
    -2
100
AcDbBlockReference
  2
_DOTSMALL
 10
5164.673057123662
 20
6426.736927201227
 30
0.0
 41
100.0
 42
100.0
 43
100.0
 50
180.0
  0
INSERT
  5
1BF28
330
1BC08
100
AcDbEntity
  8
寸法
 62
     0
 48
50.0
370
    -2
100
AcDbBlockReference
  2
_DOTSMALL
 10
7374.67305712364
 20
6426.736927201227
 30
0.0
 41
100.0
 42
100.0
 43
100.0
  0
MTEXT
  5
1BF29
330
1BC08
100
AcDbEntity
  8
寸法
 62
     7
 48
50.0
100
AcDbMText
 10
6269.673057123651
 20
6526.748738224849
 30
0.0
 40
120.0
 41
0.0
 71
     5
 72
     1
  1
\A1;2210
  7
STYLE1
 73
     1
 44
1.0
1001
ACAD
1000
MTEXTBEGIN
1070
    73
1070
     1
1070
    44
1040
1.0
1070
    74
1070
     0
1000
MTEXTEND
  0
POINT
  5
1BF2A
330
1BC08
100
AcDbEntity
  8
DEFPOINTS
 62
     0
 48
50.0
100
AcDbPoint
 10
5164.673057123662
 20
7247.340693558193
 30
0.0
  0
POINT
  5
1BF2B
330
1BC08
100
AcDbEntity
  8
DEFPOINTS
 62
     0
 48
50.0
100
AcDbPoint
 10
7374.67305712364
 20
7247.340693558321
 30
0.0
  0
POINT
  5
1BF2C
330
1BC08
100
AcDbEntity
  8
DEFPOINTS
 62
     0
 48
50.0
100
AcDbPoint
 10
7374.67305712364
 20
6426.736927201227
 30
0.0
  0
ENDBLK
  5
1BC13
330
1BC08
100
AcDbEntity
  8
0
 48
50.0
100
AcDbBlockEnd
  0
BLOCK
  5
1BC1D
330
1BC14
100
AcDbEntity
  8
0
 48
50.0
100
AcDbBlockBegin
  2
*D27
 70
     1
 10
0.0
 20
0.0
 30
0.0
  3
*D27
  1

  0
LINE
  5
1BF1C
330
1BC14
100
AcDbEntity
  8
寸法
 62
     0
 48
50.0
370
    -2
100
AcDbLine
 10
5267.673057123662
 20
7253.340693558264
 30
0.0
 11
5267.673057123662
 21
6652.909922792102
 31
0.0
  0
LINE
  5
1BF1D
330
1BC14
100
AcDbEntity
  8
寸法
 62
     0
 48
50.0
370
    -2
100
AcDbLine
 10
7271.673057123641
 20
6712.909922792102
 30
0.0
 11
5267.673057123662
 21
6712.909922792102
 31
0.0
  0
INSERT
  5
1BF1E
330
1BC14
100
AcDbEntity
  8
寸法
 62
     0
 48
50.0
370
    -2
100
AcDbBlockReference
  2
_DOTSMALL
 10
7271.673057123641
 20
6712.909922792102
 30
0.0
 41
100.0
 42
100.0
 43
100.0
  0
INSERT
  5
1BF1F
330
1BC14
100
AcDbEntity
  8
寸法
 62
     0
 48
50.0
370
    -2
100
AcDbBlockReference
  2
_DOTSMALL
 10
5267.673057123662
 20
6712.909922792102
 30
0.0
 41
100.0
 42
100.0
 43
100.0
 50
180.0
  0
MTEXT
  5
1BF20
330
1BC14
100
AcDbEntity
  8
寸法
 62
     7
 48
50.0
100
AcDbMText
 10
6269.673057123651
 20
6812.921733815723
 30
0.0
 40
120.0
 41
0.0
 71
     5
 72
     1
  1
\A1;有効開口部間口 2004
  7
STYLE1
 73
     1
 44
1.0
1001
ACAD
1000
MTEXTBEGIN
1070
    73
1070
     1
1070
    44
1040
1.0
1070
    74
1070
     0
1000
MTEXTEND
  0
POINT
  5
1BF21
330
1BC14
100
AcDbEntity
  8
DEFPOINTS
 62
     0
 48
50.0
100
AcDbPoint
 10
7271.673057123641
 20
7273.340693558266
 30
0.0
  0
POINT
  5
1BF22
330
1BC14
100
AcDbEntity
  8
DEFPOINTS
 62
     0
 48
50.0
100
AcDbPoint
 10
5267.673057123662
 20
7273.340693558265
 30
0.0
  0
POINT
  5
1BF23
330
1BC14
100
AcDbEntity
  8
DEFPOINTS
 62
     0
 48
50.0
100
AcDbPoint
 10
5267.673057123662
 20
6712.909922792102
 30
0.0
  0
ENDBLK
  5
1BC1E
330
1BC14
100
AcDbEntity
  8
0
 48
50.0
100
AcDbBlockEnd
  0
BLOCK
  5
1BC29
330
1BC1F
100
AcDbEntity
  8
0
 48
50.0
100
AcDbBlockBegin
  2
*D28
 70
     1
 10
0.0
 20
0.0
 30
0.0
  3
*D28
  1

  0
LINE
  5
1BF13
330
1BC1F
100
AcDbEntity
  8
寸法
 62
     0
 48
50.0
370
    -2
100
AcDbLine
 10
7394.67305712367
 20
9877.340693558366
 30
0.0
 11
8447.206344597715
 21
9877.340693558366
 31
0.0
  0
LINE
  5
1BF14
330
1BC1F
100
AcDbEntity
  8
寸法
 62
     0
 48
50.0
370
    -2
100
AcDbLine
 10
7394.67305712364
 20
7247.340693558356
 30
0.0
 11
8447.206344597715
 21
7247.340693558356
 31
0.0
  0
LINE
  5
1BF15
330
1BC1F
100
AcDbEntity
  8
寸法
 62
     0
 48
50.0
370
    -2
100
AcDbLine
 10
8387.206344597714
 20
9877.340693558366
 30
0.0
 11
8387.206344597714
 21
7247.340693558356
 31
0.0
  0
INSERT
  5
1BF16
330
1BC1F
100
AcDbEntity
  8
寸法
 62
     0
 48
50.0
370
    -2
100
AcDbBlockReference
  2
_DOTSMALL
 10
8387.206344597714
 20
9877.340693558366
 30
0.0
 41
100.0
 42
100.0
 43
100.0
 50
90.0
  0
INSERT
  5
1BF17
330
1BC1F
100
AcDbEntity
  8
寸法
 62
     0
 48
50.0
370
    -2
100
AcDbBlockReference
  2
_DOTSMALL
 10
8387.206344597714
 20
7247.340693558356
 30
0.0
 41
100.0
 42
100.0
 43
100.0
 50
270.0
  0
MTEXT
  5
1BF18
330
1BC1F
100
AcDbEntity
  8
寸法
 62
     7
 48
50.0
100
AcDbMText
 10
8287.194533574092
 20
8562.340693558363
 30
0.0
 40
120.0
 41
0.0
 71
     5
 72
     1
  1
\A1;2630
  7
STYLE1
 11
0.0000000000000001
 21
1.0
 31
0.0
 73
     1
 44
1.0
1001
ACAD
1000
MTEXTBEGIN
1070
    73
1070
     1
1070
    44
1040
1.0
1070
    74
1070
     0
1000
MTEXTEND
  0
POINT
  5
1BF19
330
1BC1F
100
AcDbEntity
  8
DEFPOINTS
 62
     0
 48
50.0
100
AcDbPoint
 10
7374.673057123669
 20
9877.340693558366
 30
0.0
  0
POINT
  5
1BF1A
330
1BC1F
100
AcDbEntity
  8
DEFPOINTS
 62
     0
 48
50.0
100
AcDbPoint
 10
7374.67305712364
 20
7247.340693558356
 30
0.0
  0
POINT
  5
1BF1B
330
1BC1F
100
AcDbEntity
  8
DEFPOINTS
 62
     0
 48
50.0
100
AcDbPoint
 10
8387.206344597714
 20
7247.340693558356
 30
0.0
  0
ENDBLK
  5
1BC2A
330
1BC1F
100
AcDbEntity
  8
0
 48
50.0
100
AcDbBlockEnd
  0
BLOCK
  5
1BC37
330
1BC2B
100
AcDbEntity
  8
0
 48
50.0
100
AcDbBlockBegin
  2
*D29
 70
     1
 10
0.0
 20
0.0
 30
0.0
  3
*D29
  1

  0
LINE
  5
1BF08
330
1BC2B
100
AcDbEntity
  8
寸法
 62
     0
 48
50.0
370
    -2
100
AcDbLine
 10
7394.67305712367
 20
9877.340693558366
 30
0.0
 11
8082.099402858077
 21
9877.340693558366
 31
0.0
  0
LINE
  5
1BF09
330
1BC2B
100
AcDbEntity
  8
寸法
 62
     0
 48
50.0
370
    -2
100
AcDbLine
 10
7394.67305712367
 20
9822.34069355837
 30
0.0
 11
8082.099402858077
 21
9822.34069355837
 31
0.0
  0
LINE
  5
1BF0A
330
1BC2B
100
AcDbEntity
  8
寸法
 62
     0
 48
50.0
370
    -2
100
AcDbLine
 10
8022.099402858076
 20
9822.34069355837
 30
0.0
 11
8022.099402858076
 21
9722.34069355837
 31
0.0
  0
LINE
  5
1BF0B
330
1BC2B
100
AcDbEntity
  8
寸法
 62
     0
 48
50.0
370
    -2
100
AcDbLine
 10
8022.099402858076
 20
9877.340693558366
 30
0.0
 11
8022.099402858078
 21
10294.31125630684
 31
0.0
  0
LINE
  5
1BF0C
330
1BC2B
100
AcDbEntity
  8
寸法
 62
     0
 48
50.0
370
    -2
100
AcDbLine
 10
8022.099402858076
 20
9822.34069355837
 30
0.0
 11
8022.099402858076
 21
9877.340693558366
 31
0.0
  0
INSERT
  5
1BF0D
330
1BC2B
100
AcDbEntity
  8
寸法
 62
     0
 48
50.0
370
    -2
100
AcDbBlockReference
  2
_DOTSMALL
 10
8022.099402858076
 20
9822.34069355837
 30
0.0
 41
100.0
 42
100.0
 43
100.0
 50
90.0
  0
INSERT
  5
1BF0E
330
1BC2B
100
AcDbEntity
  8
寸法
 62
     0
 48
50.0
370
    -2
100
AcDbBlockReference
  2
_DOTSMALL
 10
8022.099402858076
 20
9877.340693558366
 30
0.0
 41
100.0
 42
100.0
 43
100.0
 50
270.0
  0
MTEXT
  5
1BF0F
330
1BC2B
100
AcDbEntity
  8
寸法
 62
     7
 48
50.0
100
AcDbMText
 10
7922.099402858076
 20
10185.8259749326
 30
0.0
 40
120.0
 41
0.0
 71
     5
 72
     1
  1
\A1;55
  7
STYLE1
 11
0.0000000000000001
 21
1.0
 31
0.0
 73
     1
 44
1.0
1001
ACAD
1000
MTEXTBEGIN
1070
    73
1070
     1
1070
    44
1040
1.0
1070
    74
1070
     0
1000
MTEXTEND
  0
POINT
  5
1BF10
330
1BC2B
100
AcDbEntity
  8
DEFPOINTS
 62
     0
 48
50.0
100
AcDbPoint
 10
7374.673057123669
 20
9877.340693558366
 30
0.0
  0
POINT
  5
1BF11
330
1BC2B
100
AcDbEntity
  8
DEFPOINTS
 62
     0
 48
50.0
100
AcDbPoint
 10
7374.673057123669
 20
9822.34069355837
 30
0.0
  0
POINT
  5
1BF12
330
1BC2B
100
AcDbEntity
  8
DEFPOINTS
 62
     0
 48
50.0
100
AcDbPoint
 10
8022.099402858076
 20
9822.34069355837
 30
0.0
  0
ENDBLK
  5
1BC38
330
1BC2B
100
AcDbEntity
  8
0
 48
50.0
100
AcDbBlockEnd
  0
BLOCK
  5
1BC45
330
1BC39
100
AcDbEntity
  8
0
 48
50.0
100
AcDbBlockBegin
  2
*D30
 70
     1
 10
0.0
 20
0.0
 30
0.0
  3
*D30
  1

  0
LINE
  5
1BEFD
330
1BC39
100
AcDbEntity
  8
寸法
 62
     0
 48
50.0
370
    -2
100
AcDbLine
 10
7394.67305712364
 20
7302.340693558353
 30
0.0
 11
8082.099402858052
 21
7302.340693558353
 31
0.0
  0
LINE
  5
1BEFE
330
1BC39
100
AcDbEntity
  8
寸法
 62
     0
 48
50.0
370
    -2
100
AcDbLine
 10
7394.67305712364
 20
7247.340693558356
 30
0.0
 11
8082.099402858052
 21
7247.340693558356
 31
0.0
  0
LINE
  5
1BEFF
330
1BC39
100
AcDbEntity
  8
寸法
 62
     0
 48
50.0
370
    -2
100
AcDbLine
 10
8022.099402858051
 20
7302.340693558353
 30
0.0
 11
8022.099402858051
 21
7402.340693558354
 31
0.0
  0
LINE
  5
1BF00
330
1BC39
100
AcDbEntity
  8
寸法
 62
     0
 48
50.0
370
    -2
100
AcDbLine
 10
8022.099402858051
 20
7247.340693558356
 30
0.0
 11
8022.099402858051
 21
6760.993945279254
 31
0.0
  0
LINE
  5
1BF01
330
1BC39
100
AcDbEntity
  8
寸法
 62
     0
 48
50.0
370
    -2
100
AcDbLine
 10
8022.099402858051
 20
7302.340693558353
 30
0.0
 11
8022.099402858051
 21
7247.340693558356
 31
0.0
  0
INSERT
  5
1BF02
330
1BC39
100
AcDbEntity
  8
寸法
 62
     0
 48
50.0
370
    -2
100
AcDbBlockReference
  2
_DOTSMALL
 10
8022.099402858051
 20
7302.340693558353
 30
0.0
 41
100.0
 42
100.0
 43
100.0
 50
270.0
  0
INSERT
  5
1BF03
330
1BC39
100
AcDbEntity
  8
寸法
 62
     0
 48
50.0
370
    -2
100
AcDbBlockReference
  2
_DOTSMALL
 10
8022.099402858051
 20
7247.340693558356
 30
0.0
 41
100.0
 42
100.0
 43
100.0
 50
90.0
  0
MTEXT
  5
1BF04
330
1BC39
100
AcDbEntity
  8
寸法
 62
     7
 48
50.0
100
AcDbMText
 10
7922.099402858051
 20
6869.479226653495
 30
0.0
 40
120.0
 41
0.0
 71
     5
 72
     1
  1
\A1;55
  7
STYLE1
 11
0.0000000000000001
 21
1.0
 31
0.0
 73
     1
 44
1.0
1001
ACAD
1000
MTEXTBEGIN
1070
    73
1070
     1
1070
    44
1040
1.0
1070
    74
1070
     0
1000
MTEXTEND
  0
POINT
  5
1BF05
330
1BC39
100
AcDbEntity
  8
DEFPOINTS
 62
     0
 48
50.0
100
AcDbPoint
 10
7374.67305712364
 20
7302.340693558353
 30
0.0
  0
POINT
  5
1BF06
330
1BC39
100
AcDbEntity
  8
DEFPOINTS
 62
     0
 48
50.0
100
AcDbPoint
 10
7374.67305712364
 20
7247.340693558356
 30
0.0
  0
POINT
  5
1BF07
330
1BC39
100
AcDbEntity
  8
DEFPOINTS
 62
     0
 48
50.0
100
AcDbPoint
 10
8022.099402858051
 20
7247.340693558356
 30
0.0
  0
ENDBLK
  5
1BC46
330
1BC39
100
AcDbEntity
  8
0
 48
50.0
100
AcDbBlockEnd
  0
BLOCK
  5
1BC51
330
1BC47
100
AcDbEntity
  8
0
 48
50.0
100
AcDbBlockBegin
  2
*D31
 70
     1
 10
0.0
 20
0.0
 30
0.0
  3
*D31
  1

  0
LINE
  5
1BEF4
330
1BC47
100
AcDbEntity
  8
寸法
 62
     0
 48
50.0
370
    -2
100
AcDbLine
 10
7394.67305712367
 20
9822.34069355837
 30
0.0
 11
8082.099402858075
 21
9822.34069355837
 31
0.0
  0
LINE
  5
1BEF5
330
1BC47
100
AcDbEntity
  8
寸法
 62
     0
 48
50.0
370
    -2
100
AcDbLine
 10
7394.67305712364
 20
7302.340693558353
 30
0.0
 11
8082.099402858075
 21
7302.340693558353
 31
0.0
  0
LINE
  5
1BEF6
330
1BC47
100
AcDbEntity
  8
寸法
 62
     0
 48
50.0
370
    -2
100
AcDbLine
 10
8022.099402858076
 20
9822.34069355837
 30
0.0
 11
8022.099402858076
 21
7302.340693558353
 31
0.0
  0
INSERT
  5
1BEF7
330
1BC47
100
AcDbEntity
  8
寸法
 62
     0
 48
50.0
370
    -2
100
AcDbBlockReference
  2
_DOTSMALL
 10
8022.099402858076
 20
9822.34069355837
 30
0.0
 41
100.0
 42
100.0
 43
100.0
 50
90.0
  0
INSERT
  5
1BEF8
330
1BC47
100
AcDbEntity
  8
寸法
 62
     0
 48
50.0
370
    -2
100
AcDbBlockReference
  2
_DOTSMALL
 10
8022.099402858076
 20
7302.340693558353
 30
0.0
 41
100.0
 42
100.0
 43
100.0
 50
270.0
  0
MTEXT
  5
1BEF9
330
1BC47
100
AcDbEntity
  8
寸法
 62
     7
 48
50.0
100
AcDbMText
 10
7922.087591834453
 20
8562.340693558363
 30
0.0
 40
120.0
 41
0.0
 71
     5
 72
     1
  1
\A1;6X420=2520
  7
STYLE1
 11
0.0000000000000001
 21
1.0
 31
0.0
 73
     1
 44
1.0
1001
ACAD
1000
MTEXTBEGIN
1070
    73
1070
     1
1070
    44
1040
1.0
1070
    74
1070
     0
1000
MTEXTEND
  0
POINT
  5
1BEFA
330
1BC47
100
AcDbEntity
  8
DEFPOINTS
 62
     0
 48
50.0
100
AcDbPoint
 10
7374.673057123669
 20
9822.34069355837
 30
0.0
  0
POINT
  5
1BEFB
330
1BC47
100
AcDbEntity
  8
DEFPOINTS
 62
     0
 48
50.0
100
AcDbPoint
 10
7374.67305712364
 20
7302.340693558353
 30
0.0
  0
POINT
  5
1BEFC
330
1BC47
100
AcDbEntity
  8
DEFPOINTS
 62
     0
 48
50.0
100
AcDbPoint
 10
8022.099402858076
 20
7302.340693558353
 30
0.0
  0
ENDBLK
  5
1BC52
330
1BC47
100
AcDbEntity
  8
0
 48
50.0
100
AcDbBlockEnd
  0
ENDSEC
  0
SECTION
  2
ENTITIES
  0
MTEXT
  5
763F
330
747D
100
AcDbEntity
  8
0
100
AcDbMText
 10
302.846345836809
 20
280.1983726409901
 30
0.0
 40
3.5
 41
5.323721266742722
 71
     1
 72
     5
  1

  7
MSMINCHO
 73
     1
 44
1.0
1001
ACAD
1000
MTEXTBEGIN
1070
    73
1070
     1
1070
    44
1040
1.0
1070
    74
1070
     0
1000
MTEXTEND
  0
LINE
  5
10B57
330
747D
100
AcDbEntity
  8
補助
  6
PHANTOM
 62
   230
 48
50.0
100
AcDbLine
 10
139.9999999999995
 20
11409.6
 30
0.0
 11
16307.2
 21
11409.6
 31
0.0
  0
LINE
  5
10B5E
330
747D
100
AcDbEntity
  8
補助
  6
PHANTOM
 62
   230
 48
50.0
100
AcDbLine
 10
16307.2
 20
11409.6
 30
0.0
 11
16307.2
 21
1200.0
 31
0.0
  0
LINE
  5
10B6D
330
747D
100
AcDbEntity
  8
補助
  6
PHANTOM
 62
   230
 48
50.0
100
AcDbLine
 10
13107.2
 20
11409.6
 30
0.0
 11
13107.2
 21
4800.0
 31
0.0
  0
LINE
  5
10B6F
330
747D
100
AcDbEntity
  8
補助
  6
PHANTOM
 62
   230
 48
50.0
100
AcDbLine
 10
13107.2
 20
4800.0
 30
0.0
 11
16307.2
 21
4800.0
 31
0.0
  0
LINE
  5
16CF2
330
747D
100
AcDbEntity
  8
補助
  6
PHANTOM
 62
   230
 48
50.0
100
AcDbLine
 10
140.0
 20
0.0
 30
0.0
 11
139.9999999999995
 21
11409.6
 31
0.0
  0
DIMENSION
  5
1B91D
330
747D
100
AcDbEntity
  8
寸法
 48
50.0
100
AcDbDimension
  2
*D3
 10
7662.216159445406
 20
4646.69605741873
 30
0.0
 11
7662.216159445404
 21
4885.181338792972
 31
0.0
 70
   160
 71
     5
 42
165.0
  3
INABA_S40G
100
AcDbAlignedDimension
 13
7374.673057123662
 23
4481.69605741873
 33
0.0
 14
7374.673057123662
 24
4646.69605741873
 34
0.0
 50
90.0
100
AcDbRotatedDimension
1001
ACAD
1000
DSTYLE
1002
{
1002
}
  0
DIMENSION
  5
1B91E
330
747D
100
AcDbEntity
  8
寸法
 48
50.0
100
AcDbDimension
  2
*D4
 10
7662.216159445404
 20
4481.69605741873
 30
0.0
 11
7802.385982691773
 21
4482.66325725839
 31
0.0
 70
   160
 71
     5
 42
27.0
  3
INABA_S40G
100
AcDbAlignedDimension
 13
7374.673057123662
 23
4454.696057418731
 33
0.0
 14
7374.673057123662
 24
4481.69605741873
 34
0.0
 50
90.0
100
AcDbRotatedDimension
1001
ACAD
1000
DSTYLE
1002
{
1070
   279
1070
     2
1002
}
  0
DIMENSION
  5
1B91F
330
747D
100
AcDbEntity
  8
寸法
 48
50.0
100
AcDbDimension
  2
*D5
 10
7662.216159445404
 20
4454.696057418731
 30
0.0
 11
7562.216159445404
 21
3480.696057418733
 31
0.0
 70
    32
  1
有効開口部高サ <>
 71
     5
 42
1947.999999999998
  3
INABA_S40G
100
AcDbAlignedDimension
 13
7374.673057123662
 23
2506.696057418732
 33
0.0
 14
7374.673057123662
 24
4454.696057418731
 34
0.0
 50
90.0
100
AcDbRotatedDimension
  0
LINE
  5
1B920
330
747D
100
AcDbEntity
  8
部品1
100
AcDbLine
 10
7424.253396108328
 20
4874.299532023496
 30
0.0
 11
7423.119998775979
 21
4854.323404040897
 31
0.0
  0
LINE
  5
1B921
330
747D
100
AcDbEntity
  8
細線
 48
50.0
100
AcDbLine
 10
7391.673057123663
 20
4881.696057418736
 30
0.0
 11
7391.673057123663
 21
4740.696057418735
 31
0.0
  0
LINE
  5
1B922
330
747D
100
AcDbEntity
  8
部品1
100
AcDbLine
 10
7411.682978454402
 20
4758.665996873836
 30
0.0
 11
7411.038072647298
 21
4747.299532023496
 31
0.0
  0
LINE
  5
1B923
330
747D
100
AcDbEntity
  8
部品1
100
AcDbLine
 10
7419.919008979251
 20
4850.865996873839
 30
0.0
 11
7414.883968251139
 21
4762.123404040894
 31
0.0
  0
ARC
  5
1B924
330
747D
100
AcDbEntity
  8
部品1
 48
50.0
100
AcDbCircle
 10
7422.914191875439
 20
4850.696057418737
 30
0.0
 40
3.0
100
AcDbArc
 50
97.6581272073637
 51
176.752657209659
  0
ARC
  5
1B925
330
747D
100
AcDbEntity
  8
部品1
 48
50.0
100
AcDbCircle
 10
7414.678161350595
 20
4758.496057418733
 30
0.0
 40
3.0
100
AcDbArc
 50
97.6581272073637
 51
176.752657209659
  0
ARC
  5
1B926
330
747D
100
AcDbEntity
  8
部品1
 48
50.0
100
AcDbCircle
 10
7414.18509224203
 20
4762.163056580418
 30
0.0
 40
0.7
100
AcDbArc
 50
277.6581272073637
 51
356.7526572097111
  0
ARC
  5
1B927
330
747D
100
AcDbEntity
  8
部品1
 48
50.0
100
AcDbCircle
 10
7422.421122766874
 20
4854.363056580421
 30
0.0
 40
0.7
100
AcDbArc
 50
277.6581272073637
 51
356.752657209607
  0
ARC
  5
1B928
330
747D
100
AcDbEntity
  8
部品1
100
AcDbCircle
 10
7404.049312556195
 20
4747.696057418738
 30
0.0
 40
7.0
100
AcDbArc
 50
270.0
 51
356.752657209659
  0
ARC
  5
1B929
330
747D
100
AcDbEntity
  8
部品1
100
AcDbCircle
 10
7417.264636017233
 20
4874.696057418736
 30
0.0
 40
7.0
100
AcDbArc
 50
356.752657209659
 51
90.0
  0
LINE
  5
1B92A
330
747D
100
AcDbEntity
  8
部品1
100
AcDbLine
 10
5164.673057123662
 20
4646.69605741873
 30
0.0
 11
7374.673057123662
 21
4646.696057418728
 31
0.0
  0
LINE
  5
1B92B
330
747D
100
AcDbEntity
  8
部品1
 48
50.0
100
AcDbLine
 10
7417.264636017233
 20
4881.696057418736
 30
0.0
 11
5122.081478230091
 21
4881.696057418737
 31
0.0
  0
LINE
  5
1B92C
330
747D
100
AcDbEntity
  8
部品1
 48
50.0
100
AcDbLine
 10
7404.049312556195
 20
4740.696057418737
 30
0.0
 11
5135.296801691126
 21
4740.696057418737
 31
0.0
  0
LINE
  5
1B92D
330
747D
100
AcDbEntity
  8
細線
 48
50.0
100
AcDbLine
 10
7422.633518902228
 20
4853.696057418738
 30
0.0
 11
5116.712595345103
 21
4853.696057418734
 31
0.0
  0
LINE
  5
1B92E
330
747D
100
AcDbEntity
  8
細線
 48
50.0
100
AcDbLine
 10
7414.397488377362
 20
4761.496057418729
 30
0.0
 11
5124.948625869933
 21
4761.496057418737
 31
0.0
  0
LINE
  5
1B92F
330
747D
100
AcDbEntity
  8
細線
 48
50.0
100
AcDbLine
 10
5147.673057123665
 20
4881.696057418736
 30
0.0
 11
5147.673057123665
 21
4740.696057418735
 31
0.0
  0
ARC
  5
1B930
330
747D
100
AcDbEntity
  8
部品1
100
AcDbCircle
 10
5122.081478230091
 20
4874.696057418736
 30
0.0
 40
7.0
100
AcDbArc
 50
90.0
 51
183.247342790341
  0
ARC
  5
1B931
330
747D
100
AcDbEntity
  8
部品1
100
AcDbCircle
 10
5135.296801691126
 20
4747.696057418738
 30
0.0
 40
7.0
100
AcDbArc
 50
183.247342790341
 51
270.0
  0
ARC
  5
1B932
330
747D
100
AcDbEntity
  8
部品1
 48
50.0
100
AcDbCircle
 10
5116.924991480449
 20
4854.363056580421
 30
0.0
 40
0.7
100
AcDbArc
 50
183.2473427903929
 51
262.3418727926363
  0
ARC
  5
1B933
330
747D
100
AcDbEntity
  8
部品1
 48
50.0
100
AcDbCircle
 10
5125.161022005293
 20
4762.163056580418
 30
0.0
 40
0.7
100
AcDbArc
 50
183.2473427902889
 51
262.3418727926363
  0
ARC
  5
1B934
330
747D
100
AcDbEntity
  8
部品1
 48
50.0
100
AcDbCircle
 10
5124.667952896732
 20
4758.496057418733
 30
0.0
 40
3.0
100
AcDbArc
 50
3.247342790340932
 51
82.34187279263631
  0
ARC
  5
1B935
330
747D
100
AcDbEntity
  8
部品1
 48
50.0
100
AcDbCircle
 10
5116.431922371888
 20
4850.696057418737
 30
0.0
 40
3.0
100
AcDbArc
 50
3.247342790340932
 51
82.34187279263631
  0
LINE
  5
1B936
330
747D
100
AcDbEntity
  8
部品1
100
AcDbLine
 10
5119.427105268074
 20
4850.865996873839
 30
0.0
 11
5124.462145996182
 21
4762.123404040894
 31
0.0
  0
LINE
  5
1B937
330
747D
100
AcDbEntity
  8
部品1
100
AcDbLine
 10
5127.663135792918
 20
4758.665996873836
 30
0.0
 11
5128.308041600027
 21
4747.299532023496
 31
0.0
  0
LINE
  5
1B938
330
747D
100
AcDbEntity
  8
部品1
100
AcDbLine
 10
5115.092718138996
 20
4874.299532023496
 30
0.0
 11
5116.226115471345
 21
4854.323404040897
 31
0.0
  0
ARC
  5
1B939
330
747D
100
AcDbEntity
  8
部品1
 48
0.01
100
AcDbCircle
 10
6796.673057123665
 20
4679.196057418731
 30
0.0
 40
2.0
100
AcDbArc
 50
180.0
 51
270.0
  0
ARC
  5
1B93A
330
747D
100
AcDbEntity
  8
部品1
 48
0.01
100
AcDbCircle
 10
6796.673057123662
 20
4710.69605741873
 30
0.0
 40
2.0
100
AcDbArc
 50
90.0
 51
180.0
  0
ARC
  5
1B93B
330
747D
100
AcDbEntity
  8
部品1
 48
0.01
100
AcDbCircle
 10
6972.673057123663
 20
4679.196057418731
 30
0.0
 40
2.0
100
AcDbArc
 50
270.0
 51
0.0
  0
ARC
  5
1B93C
330
747D
100
AcDbEntity
  8
部品1
 48
0.01
100
AcDbCircle
 10
6972.673057123663
 20
4710.69605741873
 30
0.0
 40
2.0
100
AcDbArc
 50
0.0
 51
90.0
  0
LINE
  5
1B93D
330
747D
100
AcDbEntity
  8
細線
100
AcDbLine
 10
6884.673057123662
 20
4683.19605741873
 30
0.0
 11
6810.673057123662
 21
4683.19605741873
 31
0.0
  0
LINE
  5
1B93E
330
747D
100
AcDbEntity
  8
細線
100
AcDbLine
 10
6884.673057123659
 20
4706.19605741873
 30
0.0
 11
6958.673057123663
 21
4706.19605741873
 31
0.0
  0
LINE
  5
1B93F
330
747D
100
AcDbEntity
  8
細線
100
AcDbLine
 10
6958.673057123663
 20
4683.19605741873
 30
0.0
 11
6884.673057123659
 21
4683.19605741873
 31
0.0
  0
LINE
  5
1B940
330
747D
100
AcDbEntity
  8
細線
100
AcDbLine
 10
6810.673057123662
 20
4706.19605741873
 30
0.0
 11
6884.673057123659
 21
4706.19605741873
 31
0.0
  0
LINE
  5
1B941
330
747D
100
AcDbEntity
  8
細線
100
AcDbLine
 10
6810.673057123662
 20
4683.19605741873
 30
0.0
 11
6810.673057123662
 21
4706.19605741873
 31
0.0
  0
LINE
  5
1B942
330
747D
100
AcDbEntity
  8
細線
100
AcDbLine
 10
6958.673057123663
 20
4706.19605741873
 30
0.0
 11
6958.673057123663
 21
4683.19605741873
 31
0.0
  0
LINE
  5
1B943
330
747D
100
AcDbEntity
  8
部品1
 48
0.01
100
AcDbLine
 10
6794.673057123663
 20
4679.196057418731
 30
0.0
 11
6794.673057123663
 21
4710.69605741873
 31
0.0
  0
LINE
  5
1B944
330
747D
100
AcDbEntity
  8
部品1
 48
0.01
100
AcDbLine
 10
6972.673057123663
 20
4677.19605741873
 30
0.0
 11
6796.673057123665
 21
4677.19605741873
 31
0.0
  0
LINE
  5
1B945
330
747D
100
AcDbEntity
  8
部品1
 48
0.01
100
AcDbLine
 10
6974.673057123663
 20
4710.69605741873
 30
0.0
 11
6974.673057123663
 21
4679.196057418731
 31
0.0
  0
LINE
  5
1B946
330
747D
100
AcDbEntity
  8
部品1
 48
0.01
100
AcDbLine
 10
6796.673057123662
 20
4712.696057418731
 30
0.0
 11
6972.673057123663
 21
4712.696057418731
 31
0.0
  0
LINE
  5
1B947
330
747D
100
AcDbEntity
  8
細線
100
AcDbLine
 10
6958.673057123663
 20
4700.196057418731
 30
0.0
 11
6884.673057123659
 21
4700.196057418731
 31
0.0
  0
LINE
  5
1B948
330
747D
100
AcDbEntity
  8
細線
100
AcDbLine
 10
6958.673057123663
 20
4694.19605741873
 30
0.0
 11
6884.673057123659
 21
4694.19605741873
 31
0.0
  0
LINE
  5
1B949
330
747D
100
AcDbEntity
  8
細線
100
AcDbLine
 10
6958.673057123663
 20
4688.19605741873
 30
0.0
 11
6884.673057123659
 21
4688.19605741873
 31
0.0
  0
LINE
  5
1B94A
330
747D
100
AcDbEntity
  8
細線
100
AcDbLine
 10
6958.673057123663
 20
4700.196057418731
 30
0.0
 11
6889.673057123662
 21
4700.196057418731
 31
0.0
  0
LINE
  5
1B94B
330
747D
100
AcDbEntity
  8
細線
100
AcDbLine
 10
6810.673057123665
 20
4700.196057418731
 30
0.0
 11
6884.673057123659
 21
4700.196057418731
 31
0.0
  0
LINE
  5
1B94C
330
747D
100
AcDbEntity
  8
細線
100
AcDbLine
 10
6810.673057123665
 20
4688.19605741873
 30
0.0
 11
6884.673057123659
 21
4688.19605741873
 31
0.0
  0
LINE
  5
1B94D
330
747D
100
AcDbEntity
  8
細線
100
AcDbLine
 10
6810.673057123665
 20
4694.19605741873
 30
0.0
 11
6884.673057123659
 21
4694.19605741873
 31
0.0
  0
LINE
  5
1B94E
330
747D
100
AcDbEntity
  8
細線
100
AcDbLine
 10
6884.673057123659
 20
4706.19605741873
 30
0.0
 11
6884.673057123662
 21
4683.19605741873
 31
0.0
  0
LINE
  5
1B94F
330
747D
100
AcDbEntity
  8
細線
100
AcDbLine
 10
5654.673057123662
 20
4706.19605741873
 30
0.0
 11
5654.673057123659
 21
4683.19605741873
 31
0.0
  0
LINE
  5
1B950
330
747D
100
AcDbEntity
  8
細線
100
AcDbLine
 10
5728.673057123662
 20
4694.19605741873
 30
0.0
 11
5654.673057123662
 21
4694.19605741873
 31
0.0
  0
LINE
  5
1B951
330
747D
100
AcDbEntity
  8
細線
100
AcDbLine
 10
5728.673057123662
 20
4688.19605741873
 30
0.0
 11
5654.673057123662
 21
4688.19605741873
 31
0.0
  0
LINE
  5
1B952
330
747D
100
AcDbEntity
  8
細線
100
AcDbLine
 10
5728.673057123662
 20
4700.196057418731
 30
0.0
 11
5654.673057123662
 21
4700.196057418731
 31
0.0
  0
LINE
  5
1B953
330
747D
100
AcDbEntity
  8
細線
100
AcDbLine
 10
5580.673057123665
 20
4700.196057418731
 30
0.0
 11
5649.673057123663
 21
4700.196057418731
 31
0.0
  0
LINE
  5
1B954
330
747D
100
AcDbEntity
  8
細線
100
AcDbLine
 10
5580.673057123662
 20
4688.19605741873
 30
0.0
 11
5654.673057123662
 21
4688.19605741873
 31
0.0
  0
LINE
  5
1B955
330
747D
100
AcDbEntity
  8
細線
100
AcDbLine
 10
5580.673057123665
 20
4694.19605741873
 30
0.0
 11
5654.673057123662
 21
4694.19605741873
 31
0.0
  0
LINE
  5
1B956
330
747D
100
AcDbEntity
  8
細線
100
AcDbLine
 10
5580.673057123665
 20
4700.196057418731
 30
0.0
 11
5654.673057123662
 21
4700.196057418731
 31
0.0
  0
LINE
  5
1B957
330
747D
100
AcDbEntity
  8
部品1
 48
0.01
100
AcDbLine
 10
5742.673057123663
 20
4712.696057418731
 30
0.0
 11
5566.673057123665
 21
4712.696057418731
 31
0.0
  0
LINE
  5
1B958
330
747D
100
AcDbEntity
  8
部品1
 48
0.01
100
AcDbLine
 10
5564.673057123663
 20
4710.69605741873
 30
0.0
 11
5564.673057123663
 21
4679.196057418731
 31
0.0
  0
LINE
  5
1B959
330
747D
100
AcDbEntity
  8
部品1
 48
0.01
100
AcDbLine
 10
5566.673057123665
 20
4677.19605741873
 30
0.0
 11
5742.673057123659
 21
4677.19605741873
 31
0.0
  0
LINE
  5
1B95A
330
747D
100
AcDbEntity
  8
部品1
 48
0.01
100
AcDbLine
 10
5744.673057123662
 20
4679.196057418731
 30
0.0
 11
5744.673057123666
 21
4710.69605741873
 31
0.0
  0
LINE
  5
1B95B
330
747D
100
AcDbEntity
  8
細線
100
AcDbLine
 10
5580.673057123665
 20
4706.19605741873
 30
0.0
 11
5580.673057123665
 21
4683.19605741873
 31
0.0
  0
LINE
  5
1B95C
330
747D
100
AcDbEntity
  8
細線
100
AcDbLine
 10
5728.673057123666
 20
4683.19605741873
 30
0.0
 11
5728.673057123666
 21
4706.19605741873
 31
0.0
  0
LINE
  5
1B95D
330
747D
100
AcDbEntity
  8
細線
100
AcDbLine
 10
5728.673057123666
 20
4706.19605741873
 30
0.0
 11
5654.673057123662
 21
4706.19605741873
 31
0.0
  0
LINE
  5
1B95E
330
747D
100
AcDbEntity
  8
細線
100
AcDbLine
 10
5580.673057123665
 20
4683.19605741873
 30
0.0
 11
5654.673057123662
 21
4683.19605741873
 31
0.0
  0
LINE
  5
1B95F
330
747D
100
AcDbEntity
  8
細線
100
AcDbLine
 10
5654.673057123662
 20
4706.19605741873
 30
0.0
 11
5580.673057123665
 21
4706.19605741873
 31
0.0
  0
LINE
  5
1B960
330
747D
100
AcDbEntity
  8
細線
100
AcDbLine
 10
5654.673057123659
 20
4683.19605741873
 30
0.0
 11
5728.673057123666
 21
4683.19605741873
 31
0.0
  0
ARC
  5
1B961
330
747D
100
AcDbEntity
  8
部品1
 48
0.01
100
AcDbCircle
 10
5566.673057123665
 20
4710.69605741873
 30
0.0
 40
2.0
100
AcDbArc
 50
90.0
 51
180.0
  0
ARC
  5
1B962
330
747D
100
AcDbEntity
  8
部品1
 48
0.01
100
AcDbCircle
 10
5566.673057123665
 20
4679.196057418731
 30
0.0
 40
2.0
100
AcDbArc
 50
180.0
 51
270.0
  0
ARC
  5
1B963
330
747D
100
AcDbEntity
  8
部品1
 48
0.01
100
AcDbCircle
 10
5742.673057123663
 20
4710.69605741873
 30
0.0
 40
2.0
100
AcDbArc
 50
0.0
 51
90.0
  0
ARC
  5
1B964
330
747D
100
AcDbEntity
  8
部品1
 48
0.01
100
AcDbCircle
 10
5742.673057123659
 20
4679.196057418731
 30
0.0
 40
2.0
100
AcDbArc
 50
270.0
 51
0.0
  0
DIMENSION
  5
1B965
330
747D
100
AcDbEntity
  8
寸法
 48
50.0
100
AcDbDimension
  2
*D6
 10
5114.673057123666
 20
5287.422329150642
 30
0.0
 11
4801.187775749419
 21
5287.422329150642
 31
0.0
 70
   160
 71
     5
 42
50.0
  3
INABA_S40G
100
AcDbAlignedDimension
 13
5164.673057123666
 23
4881.696057418737
 33
0.0
 14
5114.673057123666
 24
4881.696057418736
 34
0.0
100
AcDbRotatedDimension
1001
ACAD
1000
DSTYLE
1002
{
1002
}
  0
DIMENSION
  5
1B966
330
747D
100
AcDbEntity
  8
寸法
 48
50.0
100
AcDbDimension
  2
*D7
 10
7374.673057123665
 20
5287.422329150642
 30
0.0
 11
7738.158338497898
 21
5287.422329150642
 31
0.0
 70
   160
 71
     5
 42
49.99999999999636
  3
INABA_S40G
100
AcDbAlignedDimension
 13
7424.673057123662
 23
4881.696057418734
 33
0.0
 14
7374.673057123665
 24
4881.696057418736
 34
0.0
100
AcDbRotatedDimension
  0
DIMENSION
  5
1B967
330
747D
100
AcDbEntity
  8
寸法
 48
50.0
100
AcDbDimension
  2
*D8
 10
7424.673057123662
 20
5487.33125036473
 30
0.0
 11
6269.673057123662
 21
5487.33125036473
 31
0.0
 70
   160
 71
     5
 42
2309.999999999996
  3
INABA_S40G
100
AcDbAlignedDimension
 13
5114.673057123666
 23
4881.696057418736
 33
0.0
 14
7424.673057123662
 24
4881.696057418734
 34
0.0
100
AcDbRotatedDimension
  0
DIMENSION
  5
1B968
330
747D
100
AcDbEntity
  8
寸法
 48
50.0
100
AcDbDimension
  2
*D9
 10
5164.673057123666
 20
5287.422329150642
 30
0.0
 11
6269.673057123662
 21
5287.422329150642
 31
0.0
 70
   160
  1
柱外寸法<>
 71
     5
 42
2210.0
  3
INABA_S40G
100
AcDbAlignedDimension
 13
7374.673057123665
 23
4881.696057418736
 33
0.0
 14
5164.673057123666
 24
4881.696057418737
 34
0.0
100
AcDbRotatedDimension
  0
TEXT
  5
1B969
330
747D
100
AcDbEntity
  8
部品1
100
AcDbText
 10
11040.79568471289
 20
1563.802528200215
 30
0.0
 40
135.0
  1
側面図
  7
MSGOTHIC
100
AcDbText
  0
LWPOLYLINE
  5
1B96A
330
747D
100
AcDbEntity
  8
部品1
100
AcDbPolyline
 90
        4
 70
     1
 43
0.0
 10
10945.11449739906
 20
1756.696057418739
 10
10945.11449739906
 20
1516.803735873205
 10
11708.5851636275
 20
1516.803735873205
 10
11708.5851636275
 20
1756.696057418739
  0
TEXT
  5
1B96B
330
747D
100
AcDbEntity
  8
文字
 62
     7
 48
50.0
100
AcDbText
 10
14528.81784699908
 20
552.6611716966112
 30
0.0
 40
160.0
  1
FXN-2226H
  7
MSGOTHIC
100
AcDbText
  0
LINE
  5
1B96C
330
747D
100
AcDbEntity
  8
部品1
100
AcDbLine
 10
10001.84983051328
 20
2506.696057418732
 30
0.0
 11
9608.852616304433
 21
2406.696057418731
 31
0.0
  0
LINE
  5
1B96D
330
747D
100
AcDbEntity
  8
破線
 48
5.0
100
AcDbLine
 10
10001.84983051328
 20
2156.696057418731
 30
0.0
 11
10056.84983051328
 21
2156.696057418731
 31
0.0
  0
LINE
  5
1B96E
330
747D
100
AcDbEntity
  8
破線
 48
5.0
100
AcDbLine
 10
10056.84983051328
 20
2406.696057418731
 30
0.0
 11
10056.84983051328
 21
2156.696057418731
 31
0.0
  0
LINE
  5
1B96F
330
747D
100
AcDbEntity
  8
破線
 48
5.0
100
AcDbLine
 10
10001.84983051328
 20
2406.696057418731
 30
0.0
 11
10001.84983051328
 21
2156.696057418731
 31
0.0
  0
DIMENSION
  5
1B975
330
747D
100
AcDbEntity
  8
寸法
 48
50.0
100
AcDbDimension
  2
*D10
 10
9381.241423744896
 20
4756.041316292063
 30
0.0
 11
9391.906899003821
 21
5126.887979533762
 31
0.0
 70
   161
 71
     5
 42
141.0
  3
INABA_S40G
100
AcDbAlignedDimension
 13
9961.245850671861
 23
4880.418806253412
 33
0.0
 14
9957.192395115235
 24
4739.477082487698
 34
0.0
1001
ACAD
1000
DSTYLE
1002
{
1070
   174
1070
     0
1070
   272
1070
     1
1070
   288
1070
     0
1070
   341
1005
0
1002
}
  0
LINE
  5
1B976
330
747D
100
AcDbEntity
  8
細線
 48
50.0
100
AcDbLine
 10
12499.34983051328
 20
4646.69605741873
 30
0.0
 11
12499.34983051328
 21
2556.696057418735
 31
0.0
  0
LINE
  5
1B977
330
747D
100
AcDbEntity
  8
細線
 48
50.0
100
AcDbLine
 10
12514.34983051328
 20
4646.69605741873
 30
0.0
 11
12514.34983051328
 21
2556.696057418735
 31
0.0
  0
LINE
  5
1B978
330
747D
100
AcDbEntity
  8
細線
 48
50.0
100
AcDbLine
 10
12374.34983051328
 20
4646.69605741873
 30
0.0
 11
12374.34983051328
 21
2556.696057418735
 31
0.0
  0
LINE
  5
1B979
330
747D
100
AcDbEntity
  8
細線
 48
50.0
100
AcDbLine
 10
12359.34983051328
 20
4646.69605741873
 30
0.0
 11
12359.34983051328
 21
2556.696057418735
 31
0.0
  0
LINE
  5
1B97A
330
747D
100
AcDbEntity
  8
細線
 48
50.0
100
AcDbLine
 10
12219.34983051328
 20
4646.69605741873
 30
0.0
 11
12219.34983051328
 21
2556.696057418735
 31
0.0
  0
LINE
  5
1B97B
330
747D
100
AcDbEntity
  8
細線
 48
50.0
100
AcDbLine
 10
12234.34983051328
 20
4646.69605741873
 30
0.0
 11
12234.34983051328
 21
2556.696057418735
 31
0.0
  0
LINE
  5
1B97C
330
747D
100
AcDbEntity
  8
部品1
100
AcDbLine
 10
11316.84983051328
 20
4646.69605741873
 30
0.0
 11
11316.84983051328
 21
2556.696057418731
 31
0.0
  0
LINE
  5
1B97D
330
747D
100
AcDbEntity
  8
細線
 48
50.0
100
AcDbLine
 10
10974.34983051328
 20
4646.69605741873
 30
0.0
 11
10974.34983051328
 21
2556.696057418731
 31
0.0
  0
LINE
  5
1B97E
330
747D
100
AcDbEntity
  8
細線
 48
50.0
100
AcDbLine
 10
10959.34983051328
 20
4646.69605741873
 30
0.0
 11
10959.34983051328
 21
2556.696057418731
 31
0.0
  0
LINE
  5
1B97F
330
747D
100
AcDbEntity
  8
細線
 48
50.0
100
AcDbLine
 10
11099.34983051328
 20
4646.69605741873
 30
0.0
 11
11099.34983051328
 21
2556.696057418731
 31
0.0
  0
LINE
  5
1B980
330
747D
100
AcDbEntity
  8
細線
 48
50.0
100
AcDbLine
 10
11114.34983051328
 20
4646.69605741873
 30
0.0
 11
11114.34983051328
 21
2556.696057418731
 31
0.0
  0
LINE
  5
1B981
330
747D
100
AcDbEntity
  8
細線
 48
50.0
100
AcDbLine
 10
11254.34983051328
 20
4646.69605741873
 30
0.0
 11
11254.34983051328
 21
2556.696057418731
 31
0.0
  0
LINE
  5
1B982
330
747D
100
AcDbEntity
  8
細線
 48
50.0
100
AcDbLine
 10
11239.34983051328
 20
4646.69605741873
 30
0.0
 11
11239.34983051328
 21
2556.696057418731
 31
0.0
  0
LINE
  5
1B983
330
747D
100
AcDbEntity
  8
部品1
100
AcDbLine
 10
10896.84983051327
 20
4646.69605741873
 30
0.0
 11
10896.84983051327
 21
2556.696057418731
 31
0.0
  0
DIMENSION
  5
1B984
330
747D
100
AcDbEntity
  8
寸法
 48
50.0
100
AcDbDimension
  2
*D11
 10
12711.84983051327
 20
5280.353510998036
 30
0.0
 11
12917.89707460777
 21
5280.353510998036
 31
0.0
 70
   160
 71
     5
 42
80.0
  3
INABA_S40G
100
AcDbAlignedDimension
 13
12631.84983051327
 23
4828.506737030384
 33
0.0
 14
12711.84983051327
 24
4826.696057418733
 34
0.0
100
AcDbRotatedDimension
1001
ACAD
1000
DSTYLE
1002
{
1070
   174
1070
     0
1070
   272
1070
     1
1070
   288
1070
     0
1070
   341
1005
0
1002
}
  0
LINE
  5
1B985
330
747D
100
AcDbEntity
  8
細線
 48
50.0
100
AcDbLine
 10
10134.34983051328
 20
4646.69605741873
 30
0.0
 11
10134.34983051328
 21
2556.696057418731
 31
0.0
  0
LINE
  5
1B986
330
747D
100
AcDbEntity
  8
細線
 48
50.0
100
AcDbLine
 10
10119.34983051328
 20
4646.69605741873
 30
0.0
 11
10119.34983051328
 21
2556.696057418731
 31
0.0
  0
LINE
  5
1B987
330
747D
100
AcDbEntity
  8
細線
 48
50.0
100
AcDbLine
 10
10259.34983051328
 20
4646.69605741873
 30
0.0
 11
10259.34983051328
 21
2556.696057418731
 31
0.0
  0
LINE
  5
1B988
330
747D
100
AcDbEntity
  8
細線
 48
50.0
100
AcDbLine
 10
10274.34983051328
 20
4646.69605741873
 30
0.0
 11
10274.34983051328
 21
2556.696057418731
 31
0.0
  0
LINE
  5
1B989
330
747D
100
AcDbEntity
  8
細線
 48
50.0
100
AcDbLine
 10
10414.34983051328
 20
4646.69605741873
 30
0.0
 11
10414.34983051328
 21
2556.696057418731
 31
0.0
  0
LINE
  5
1B98A
330
747D
100
AcDbEntity
  8
細線
 48
50.0
100
AcDbLine
 10
10399.34983051328
 20
4646.69605741873
 30
0.0
 11
10399.34983051328
 21
2556.696057418731
 31
0.0
  0
LINE
  5
1B98B
330
747D
100
AcDbEntity
  8
細線
 48
50.0
100
AcDbLine
 10
10819.34983051328
 20
4646.69605741873
 30
0.0
 11
10819.34983051328
 21
2556.696057418731
 31
0.0
  0
LINE
  5
1B98C
330
747D
100
AcDbEntity
  8
細線
 48
50.0
100
AcDbLine
 10
10834.34983051328
 20
4646.69605741873
 30
0.0
 11
10834.34983051328
 21
2556.696057418731
 31
0.0
  0
LINE
  5
1B98D
330
747D
100
AcDbEntity
  8
細線
 48
50.0
100
AcDbLine
 10
10694.34983051328
 20
4646.69605741873
 30
0.0
 11
10694.34983051328
 21
2556.696057418731
 31
0.0
  0
LINE
  5
1B98E
330
747D
100
AcDbEntity
  8
細線
 48
50.0
100
AcDbLine
 10
10679.34983051328
 20
4646.69605741873
 30
0.0
 11
10679.34983051328
 21
2556.696057418731
 31
0.0
  0
LINE
  5
1B98F
330
747D
100
AcDbEntity
  8
細線
 48
50.0
100
AcDbLine
 10
10539.34983051328
 20
4646.69605741873
 30
0.0
 11
10539.34983051328
 21
2556.696057418731
 31
0.0
  0
LINE
  5
1B990
330
747D
100
AcDbEntity
  8
細線
 48
50.0
100
AcDbLine
 10
10554.34983051328
 20
4646.69605741873
 30
0.0
 11
10554.34983051328
 21
2556.696057418731
 31
0.0
  0
LINE
  5
1B991
330
747D
100
AcDbEntity
  8
部品1
100
AcDbLine
 10
10056.84983051328
 20
2506.696057418732
 30
0.0
 11
12631.84983051327
 21
2506.696057418732
 31
0.0
  0
DIMENSION
  5
1B992
330
747D
100
AcDbEntity
  8
寸法
 48
50.0
100
AcDbDimension
  2
*D12
 10
9941.849830513282
 20
5500.564197729653
 30
0.0
 11
11326.84983051328
 21
5500.564197729653
 31
0.0
 70
   160
 71
     5
 42
2769.999999999993
  3
INABA_S40G
100
AcDbAlignedDimension
 13
12711.84983051327
 23
4826.696057418733
 33
0.0
 14
9941.849830513282
 24
4881.696057418736
 34
0.0
100
AcDbRotatedDimension
1001
ACAD
1000
DSTYLE
1002
{
1070
   174
1070
     0
1070
   272
1070
     1
1070
   288
1070
     0
1070
   341
1005
0
1002
}
  0
DIMENSION
  5
1B993
330
747D
100
AcDbEntity
  8
寸法
 48
50.0
100
AcDbDimension
  2
*D13
 10
9941.849830513282
 20
5280.353510998036
 30
0.0
 11
9632.212035237692
 21
5280.353510998036
 31
0.0
 70
   160
 71
     5
 42
60.00000000000364
  3
INABA_S40G
100
AcDbAlignedDimension
 13
10001.84983051328
 23
4877.697675541707
 33
0.0
 14
9941.849830513282
 24
4881.696057418736
 34
0.0
100
AcDbRotatedDimension
1001
ACAD
1000
DSTYLE
1002
{
1070
   174
1070
     0
1070
   272
1070
     1
1070
   288
1070
     0
1070
   341
1005
0
1002
}
  0
DIMENSION
  5
1B994
330
747D
100
AcDbEntity
  8
寸法
 48
50.0
100
AcDbDimension
  2
*D14
 10
10001.84983051328
 20
5280.353510998036
 30
0.0
 11
11316.84983051328
 21
5280.353510998036
 31
0.0
 70
   160
  1
柱外寸法<>
 71
     5
 42
2629.999999999989
  3
INABA_S40G
100
AcDbAlignedDimension
 13
12631.84983051327
 23
4828.506737030384
 33
0.0
 14
10001.84983051328
 24
4877.697675541707
 34
0.0
100
AcDbRotatedDimension
1001
ACAD
1000
DSTYLE
1002
{
1070
   174
1070
     0
1070
   272
1070
     1
1070
   288
1070
     0
1070
   341
1005
0
1002
}
  0
LINE
  5
1B995
330
747D
100
AcDbEntity
  8
部品1
100
AcDbLine
 10
12576.84983051328
 20
4646.69605741873
 30
0.0
 11
12576.84983051328
 21
2556.696057418735
 31
0.0
  0
LINE
  5
1B996
330
747D
100
AcDbEntity
  8
部品1
100
AcDbLine
 10
12631.84983051327
 20
4701.23033080647
 30
0.0
 11
12631.84983051327
 21
2406.696057418735
 31
0.0
  0
LINE
  5
1B997
330
747D
100
AcDbEntity
  8
部品1
100
AcDbLine
 10
10476.84983051328
 20
4646.69605741873
 30
0.0
 11
10476.84983051328
 21
2556.696057418731
 31
0.0
  0
DIMENSION
  5
1B998
330
747D
100
AcDbEntity
  8
寸法
100
AcDbDimension
  2
*D15
 10
9158.099701330026
 20
2506.696057418733
 30
0.0
 11
9158.099701330026
 21
2200.648813324242
 31
0.0
 70
   160
 71
     5
 42
50.00000000000091
  3
INABA_S40G
100
AcDbAlignedDimension
 13
10001.84983051328
 23
2556.696057418733
 33
0.0
 14
9946.849830513286
 24
2506.696057418732
 34
0.0
 50
90.0
100
AcDbRotatedDimension
1001
ACAD
1000
DSTYLE
1002
{
1070
   174
1070
     0
1070
   272
1070
     1
1070
   288
1070
     0
1070
   341
1005
0
1002
}
  0
LINE
  5
1B999
330
747D
100
AcDbEntity
  8
部品1
100
AcDbLine
 10
10001.84983051328
 20
4738.83849534761
 30
0.0
 11
10001.84983051328
 21
2406.696057418731
 31
0.0
  0
LINE
  5
1B99A
330
747D
100
AcDbEntity
  8
部品1
100
AcDbLine
 10
10056.84983051328
 20
4646.69605741873
 30
0.0
 11
10056.84983051328
 21
2406.696057418735
 31
0.0
  0
LINE
  5
1B99B
330
747D
100
AcDbEntity
  8
部品1
100
AcDbLine
 10
10056.84983051327
 20
2556.696057418731
 30
0.0
 11
12631.84983051327
 21
2556.696057418735
 31
0.0
  0
LINE
  5
1B99C
330
747D
100
AcDbEntity
  8
部品1
100
AcDbLine
 10
10001.84983051328
 20
4646.69605741873
 30
0.0
 11
12631.84983051327
 21
4646.69605741873
 31
0.0
  0
LINE
  5
1B99D
330
747D
100
AcDbEntity
  8
部品1
100
AcDbLine
 10
12156.84983051328
 20
4646.69605741873
 30
0.0
 11
12156.84983051328
 21
2556.696057418735
 31
0.0
  0
LINE
  5
1B99E
330
747D
100
AcDbEntity
  8
細線
 48
50.0
100
AcDbLine
 10
11659.34983051328
 20
4646.69605741873
 30
0.0
 11
11659.34983051328
 21
2556.696057418731
 31
0.0
  0
LINE
  5
1B99F
330
747D
100
AcDbEntity
  8
細線
 48
50.0
100
AcDbLine
 10
11674.34983051327
 20
4646.69605741873
 30
0.0
 11
11674.34983051327
 21
2556.696057418731
 31
0.0
  0
LINE
  5
1B9A0
330
747D
100
AcDbEntity
  8
細線
 48
50.0
100
AcDbLine
 10
11534.34983051327
 20
4646.69605741873
 30
0.0
 11
11534.34983051327
 21
2556.696057418731
 31
0.0
  0
LINE
  5
1B9A1
330
747D
100
AcDbEntity
  8
細線
 48
50.0
100
AcDbLine
 10
11519.34983051328
 20
4646.69605741873
 30
0.0
 11
11519.34983051328
 21
2556.696057418731
 31
0.0
  0
LINE
  5
1B9A2
330
747D
100
AcDbEntity
  8
細線
 48
50.0
100
AcDbLine
 10
11379.34983051328
 20
4646.69605741873
 30
0.0
 11
11379.34983051328
 21
2556.696057418731
 31
0.0
  0
LINE
  5
1B9A3
330
747D
100
AcDbEntity
  8
細線
 48
50.0
100
AcDbLine
 10
11394.34983051328
 20
4646.69605741873
 30
0.0
 11
11394.34983051328
 21
2556.696057418731
 31
0.0
  0
TEXT
  5
1B9A4
330
747D
100
AcDbEntity
  8
部品1
 48
50.0
100
AcDbText
 10
11668.43083247437
 20
4903.96515035704
 30
0.0
 40
120.0
  1
37
 50
90.0
  7
STYLE1
100
AcDbText
  0
TEXT
  5
1B9A5
330
747D
100
AcDbEntity
  8
部品1
 48
50.0
100
AcDbText
 10
11190.79780980928
 20
5041.466408575323
 30
0.0
 40
120.0
  1
1000
  7
STYLE1
100
AcDbText
  0
LINE
  5
1B9A6
330
747D
100
AcDbEntity
  8
部品1
 48
50.0
100
AcDbLine
 10
11502.52997458555
 20
5005.58238642289
 30
0.0
 11
11502.52997458555
 21
4989.382386422889
 31
0.0
  0
LINE
  5
1B9A7
330
747D
100
AcDbEntity
  8
部品1
 48
50.0
100
AcDbLine
 10
11202.52997458555
 20
5005.58238642289
 30
0.0
 11
11502.52997458555
 21
5005.58238642289
 31
0.0
  0
LINE
  5
1B9A8
330
747D
100
AcDbEntity
  8
部品1
100
AcDbLine
 10
9949.394816870245
 20
4880.413792752997
 30
0.0
 11
12704.46170737475
 21
4825.336855127871
 31
0.0
  0
LINE
  5
1B9A9
330
747D
100
AcDbEntity
  8
部品1
100
AcDbLine
 10
9957.192395115235
 20
4739.477082487698
 30
0.0
 11
12686.51353105313
 21
4700.448657253494
 31
0.0
  0
LINE
  5
1B9AA
330
747D
100
AcDbEntity
  8
細線
 48
50.0
100
AcDbLine
 10
9974.849830513282
 20
4879.095733794138
 30
0.0
 11
9969.560728957779
 21
4739.01010116678
 31
0.0
  0
LINE
  5
1B9AB
330
747D
100
AcDbEntity
  8
細線
 48
50.0
100
AcDbLine
 10
12678.81911370697
 20
4825.849479898201
 30
0.0
 11
12674.10214762528
 21
4700.917263963282
 31
0.0
  0
LINE
  5
1B9AC
330
747D
100
AcDbEntity
  8
部品1
 48
50.0
100
AcDbLine
 10
9942.034116426389
 20
4873.289603583426
 30
0.0
 11
9942.414376204197
 21
4853.362639137015
 31
0.0
  0
LINE
  5
1B9AD
330
747D
100
AcDbEntity
  8
部品1
 48
50.0
100
AcDbLine
 10
9945.483148310447
 20
4849.787357643539
 30
0.0
 11
9947.187049801812
 21
4760.496860936892
 31
0.0
  0
LINE
  5
1B9AE
330
747D
100
AcDbEntity
  8
細線
 48
50.0
100
AcDbLine
 10
9942.889253614097
 20
4852.713139260095
 30
0.0
 11
12708.52523835926
 21
4797.088934619265
 31
0.0
  0
LINE
  5
1B9AF
330
747D
100
AcDbEntity
  8
細線
 48
50.0
100
AcDbLine
 10
9947.649728851382
 20
4759.85162756223
 30
0.0
 11
12697.65339328203
 21
4720.042308587735
 31
0.0
  0
LINE
  5
1B9B0
330
747D
100
AcDbEntity
  8
部品1
 48
50.0
100
AcDbLine
 10
9950.255821908058
 20
4756.921579443421
 30
0.0
 11
9950.457774528485
 21
4746.338544050327
 31
0.0
  0
ARC
  5
1B9B1
330
747D
100
AcDbEntity
  8
部品1
 48
50.0
100
AcDbCircle
 10
9949.032842254728
 20
4873.423157990853
 30
0.0
 40
7.0
100
AcDbArc
 50
87.03587545283102
 51
181.0932240293156
  0
ARC
  5
1B9B2
330
747D
100
AcDbEntity
  8
部品1
 48
50.0
100
AcDbCircle
 10
9957.456500356824
 20
4746.472098457756
 30
0.0
 40
7.0
100
AcDbArc
 50
181.0932240293156
 51
267.8377559869488
  0
ARC
  5
1B9B3
330
747D
100
AcDbEntity
  8
部品1
100
AcDbCircle
 10
9947.256367981623
 20
4756.864341840237
 30
0.0
 40
3.0
100
AcDbArc
 50
1.093224029315636
 51
80.18775403169737
  0
ARC
  5
1B9B4
330
747D
100
AcDbEntity
  8
部品1
100
AcDbCircle
 10
9942.483694384016
 20
4849.730120040359
 30
0.0
 40
3.0
100
AcDbArc
 50
1.093224029315636
 51
80.18775403169737
  0
ARC
  5
1B9B5
330
747D
100
AcDbEntity
  8
部品1
100
AcDbCircle
 10
9943.114248787034
 20
4853.375994577755
 30
0.0
 40
0.7
100
AcDbArc
 50
181.0932240292114
 51
260.1877540314859
  0
ARC
  5
1B9B6
330
747D
100
AcDbEntity
  8
部品1
100
AcDbCircle
 10
9947.886922384654
 20
4760.510216377637
 30
0.0
 40
0.7
100
AcDbArc
 50
181.0932240293156
 51
260.1877540314859
  0
LINE
  5
1B9B7
330
747D
100
AcDbEntity
  8
部品1
 48
50.0
100
AcDbLine
 10
12711.06373332398
 20
4817.63720969295
 30
0.0
 11
12709.03311213301
 21
4797.69216843517
 31
0.0
  0
LINE
  5
1B9B8
330
747D
100
AcDbEntity
  8
部品1
 48
50.0
100
AcDbLine
 10
12705.68054564852
 20
4794.381534362261
 30
0.0
 11
12698.17376638369
 21
4720.648913617251
 31
0.0
  0
LINE
  5
1B9B9
330
747D
100
AcDbEntity
  8
部品1
 48
50.0
100
AcDbLine
 10
12694.82119989921
 20
4717.338279544336
 30
0.0
 11
12693.74163685947
 21
4706.734662550778
 31
0.0
  0
ARC
  5
1B9BA
330
747D
100
AcDbEntity
  8
部品1
 48
50.0
100
AcDbCircle
 10
12704.09973275922
 20
4818.346220365727
 30
0.0
 40
7.0
100
AcDbArc
 50
354.186699766558
 51
87.03587545283102
  0
ARC
  5
1B9BB
330
747D
100
AcDbEntity
  8
部品1
 48
50.0
100
AcDbCircle
 10
12686.77763629471
 20
4707.443673223553
 30
0.0
 40
7.0
100
AcDbArc
 50
267.8377559869488
 51
354.186699766558
  0
ARC
  5
1B9BC
330
747D
100
AcDbEntity
  8
部品1
100
AcDbCircle
 10
12697.80577156981
 20
4717.034417827433
 30
0.0
 40
3.0
100
AcDbArc
 50
95.0921697642102
 51
174.186699766558
  0
ARC
  5
1B9BD
330
747D
100
AcDbEntity
  8
部品1
100
AcDbCircle
 10
12708.66511731914
 20
4794.07767264536
 30
0.0
 40
3.0
100
AcDbArc
 50
95.0921697642102
 51
174.186699766558
  0
ARC
  5
1B9BE
330
747D
100
AcDbEntity
  8
部品1
100
AcDbCircle
 10
12708.33671207653
 20
4797.763069502447
 30
0.0
 40
0.7
100
AcDbArc
 50
275.0921697642102
 51
354.186699766558
  0
ARC
  5
1B9BF
330
747D
100
AcDbEntity
  8
部品1
100
AcDbCircle
 10
12697.47736632721
 20
4720.719814684523
 30
0.0
 40
0.7
100
AcDbArc
 50
275.0921697642102
 51
354.1866997667638
  0
LINE
  5
1B9C0
330
747D
100
AcDbEntity
  8
部品1
100
AcDbLine
 10
11177.07496094252
 20
5006.900445381749
 30
0.0
 11
11502.52997458555
 21
4989.382386422889
 31
0.0
  0
LINE
  5
1B9C1
330
747D
100
AcDbEntity
  8
部品1
100
AcDbLine
 10
11736.84983051327
 20
4646.69605741873
 30
0.0
 11
11736.84983051327
 21
2556.696057418735
 31
0.0
  0
LINE
  5
1B9C2
330
747D
100
AcDbEntity
  8
細線
 48
50.0
100
AcDbLine
 10
11814.34983051327
 20
4646.69605741873
 30
0.0
 11
11814.34983051327
 21
2556.696057418735
 31
0.0
  0
LINE
  5
1B9C3
330
747D
100
AcDbEntity
  8
細線
 48
50.0
100
AcDbLine
 10
11799.34983051328
 20
4646.69605741873
 30
0.0
 11
11799.34983051328
 21
2556.696057418735
 31
0.0
  0
LINE
  5
1B9C4
330
747D
100
AcDbEntity
  8
細線
 48
50.0
100
AcDbLine
 10
11939.34983051328
 20
4646.69605741873
 30
0.0
 11
11939.34983051328
 21
2556.696057418735
 31
0.0
  0
LINE
  5
1B9C5
330
747D
100
AcDbEntity
  8
細線
 48
50.0
100
AcDbLine
 10
11954.34983051328
 20
4646.69605741873
 30
0.0
 11
11954.34983051328
 21
2556.696057418735
 31
0.0
  0
LINE
  5
1B9C6
330
747D
100
AcDbEntity
  8
細線
 48
50.0
100
AcDbLine
 10
12094.34983051328
 20
4646.69605741873
 30
0.0
 11
12094.34983051328
 21
2556.696057418735
 31
0.0
  0
LINE
  5
1B9C7
330
747D
100
AcDbEntity
  8
細線
 48
50.0
100
AcDbLine
 10
12079.34983051328
 20
4646.69605741873
 30
0.0
 11
12079.34983051328
 21
2556.696057418735
 31
0.0
  0
DIMENSION
  5
1B9C8
330
747D
100
AcDbEntity
  8
寸法
100
AcDbDimension
  2
*D16
 10
13336.77698848541
 20
4826.696057418733
 30
0.0
 11
13236.76517746179
 21
3666.696057418735
 31
0.0
 70
    32
 71
     5
 42
2320.0
  3
INABA_S40G
100
AcDbAlignedDimension
 13
12631.84983051327
 23
2506.696057418734
 33
0.0
 14
12711.84983051327
 24
4826.696057418733
 34
0.0
 50
90.0
100
AcDbRotatedDimension
1001
ACAD
1000
DSTYLE
1002
{
1070
   174
1070
     0
1070
   272
1070
     1
1070
   288
1070
     0
1070
   341
1005
0
1002
}
  0
DIMENSION
  5
1B9C9
330
747D
100
AcDbEntity
  8
寸法
100
AcDbDimension
  2
*D17
 10
8858.099701330026
 20
4881.69605741873
 30
0.0
 11
8758.087890306402
 21
3694.19605741873
 31
0.0
 70
    32
 71
     5
 42
2375.000000000003
  3
INABA_S40G
100
AcDbAlignedDimension
 13
10001.84983051328
 23
2506.696057418727
 33
0.0
 14
9941.849830513282
 24
4881.69605741873
 34
0.0
 50
90.0
100
AcDbRotatedDimension
1001
ACAD
1000
DSTYLE
1002
{
1070
   174
1070
     0
1070
   272
1070
     1
1070
   288
1070
     0
1070
   341
1005
0
1002
}
  0
DIMENSION
  5
1B9CA
330
747D
100
AcDbEntity
  8
寸法
100
AcDbDimension
  2
*D18
 10
9158.099701330026
 20
2556.696057418728
 30
0.0
 11
9058.087890306405
 21
3601.696057418729
 31
0.0
 70
    32
 71
     5
 42
2089.999999999999
  3
INABA_S40G
100
AcDbAlignedDimension
 13
10001.84983051328
 23
4646.696057418727
 33
0.0
 14
10001.84983051328
 24
2556.696057418727
 34
0.0
 50
90.0
100
AcDbRotatedDimension
1001
ACAD
1000
DSTYLE
1002
{
1070
   174
1070
     0
1070
   272
1070
     1
1070
   288
1070
     0
1070
   341
1005
0
1002
}
  0
LINE
  5
1B9CB
330
747D
100
AcDbEntity
  8
仕様書枠
 48
50.0
100
AcDbLine
 10
16307.19999999999
 20
11108.36445870547
 30
0.0
 11
13127.2
 21
11108.36445870547
 31
0.0
  0
LINE
  5
1B9CC
330
747D
100
AcDbEntity
  8
仕様書枠
 48
50.0
100
AcDbLine
 10
13127.2
 20
11108.36445870547
 30
0.0
 11
13127.2
 21
8218.364458705471
 31
0.0
  0
LINE
  5
1B9CD
330
747D
100
AcDbEntity
  8
仕様書枠
 48
50.0
100
AcDbLine
 10
16307.19999999999
 20
8218.364458705471
 30
0.0
 11
16307.2
 21
11108.36445870547
 31
0.0
  0
LINE
  5
1B9CE
330
747D
100
AcDbEntity
  8
仕様書枠
 48
50.0
100
AcDbLine
 10
14785.2
 20
11108.36445870546
 30
0.0
 11
14785.2
 21
8728.364458705469
 31
0.0
  0
LINE
  5
1B9CF
330
747D
100
AcDbEntity
  8
仕様書枠
 48
50.0
100
AcDbLine
 10
13490.2
 20
11108.36445870547
 30
0.0
 11
13490.2
 21
8728.364458705469
 31
0.0
  0
LINE
  5
1B9D0
330
747D
100
AcDbEntity
  8
仕様書枠
 48
50.0
100
AcDbLine
 10
16307.19999999999
 20
10938.36445870547
 30
0.0
 11
13127.2
 21
10938.36445870547
 31
0.0
  0
LINE
  5
1B9D1
330
747D
100
AcDbEntity
  8
仕様書枠
 48
50.0
100
AcDbLine
 10
16307.19999999999
 20
10598.36445870547
 30
0.0
 11
13127.2
 21
10598.36445870547
 31
0.0
  0
LINE
  5
1B9D2
330
747D
100
AcDbEntity
  8
仕様書枠
 48
50.0
100
AcDbLine
 10
16307.19999999999
 20
10768.36445870547
 30
0.0
 11
13127.2
 21
10768.36445870547
 31
0.0
  0
LINE
  5
1B9D3
330
747D
100
AcDbEntity
  8
仕様書枠
 48
50.0
100
AcDbLine
 10
16307.19999999999
 20
10258.36445870547
 30
0.0
 11
13127.19999999999
 21
10258.36445870547
 31
0.0
  0
LINE
  5
1B9D4
330
747D
100
AcDbEntity
  8
仕様書枠
 48
50.0
100
AcDbLine
 10
16307.19999999999
 20
10088.36445870547
 30
0.0
 11
13127.19999999999
 21
10088.36445870547
 31
0.0
  0
LINE
  5
1B9D5
330
747D
100
AcDbEntity
  8
仕様書枠
 48
50.0
100
AcDbLine
 10
16307.19999999999
 20
10428.36445870547
 30
0.0
 11
13127.19999999999
 21
10428.36445870547
 31
0.0
  0
TEXT
  5
1B9D6
330
747D
100
AcDbEntity
  8
文字
 62
     7
 48
50.0
100
AcDbText
 10
13197.42518560407
 20
10968.77820458919
 30
0.0
 40
100.0
  1
品番
  7
STYLE1
100
AcDbText
  0
TEXT
  5
1B9D7
330
747D
100
AcDbEntity
  8
文字
 62
     7
 48
50.0
100
AcDbText
 10
13271.19032244792
 20
10798.7782045892
 30
0.0
 40
100.0
  1
1
  7
STYLE1
100
AcDbText
  0
TEXT
  5
1B9D8
330
747D
100
AcDbEntity
  8
文字
 62
     7
 48
50.0
100
AcDbText
 10
13271.19032244792
 20
10628.77820458919
 30
0.0
 40
100.0
  1
2
  7
STYLE1
100
AcDbText
  0
TEXT
  5
1B9D9
330
747D
100
AcDbEntity
  8
文字
 62
     7
 48
50.0
100
AcDbText
 10
13271.19032244792
 20
10288.7782045892
 30
0.0
 40
100.0
  1
4
  7
STYLE1
100
AcDbText
  0
TEXT
  5
1B9DA
330
747D
100
AcDbEntity
  8
文字
 62
     7
 48
50.0
100
AcDbText
 10
13271.19032244792
 20
10458.7782045892
 30
0.0
 40
100.0
  1
3
  7
STYLE1
100
AcDbText
  0
TEXT
  5
1B9DB
330
747D
100
AcDbEntity
  8
文字
 62
     7
 48
50.0
100
AcDbText
 10
13732.03840939434
 20
10968.77820458919
 30
0.0
 40
100.0
  1
部　　品　　名
  7
STYLE1
100
AcDbText
  0
TEXT
  5
1B9DC
330
747D
100
AcDbEntity
  8
文字
 62
     7
 48
50.0
100
AcDbText
 10
14859.79774614482
 20
10968.77820458919
 30
0.0
 40
100.0
  1
材料（材質）　　単位mm
  7
STYLE1
100
AcDbText
  0
TEXT
  5
1B9DD
330
747D
100
AcDbEntity
  8
文字
 62
     7
 48
50.0
100
AcDbText
 10
13583.11819016569
 20
10798.7782045892
 30
0.0
 40
100.0
  1
土台枠
  7
STYLE1
100
AcDbText
  0
TEXT
  5
1B9DE
330
747D
100
AcDbEntity
  8
文字
 62
     7
 48
50.0
100
AcDbText
 10
13583.11819016569
 20
10628.77820458919
 30
0.0
 40
100.0
  1
柱
  7
STYLE1
100
AcDbText
  0
TEXT
  5
1B9DF
330
747D
100
AcDbEntity
  8
文字
 62
     7
 48
50.0
100
AcDbText
 10
13583.11819016569
 20
10458.77820458919
 30
0.0
 40
100.0
  1
桁前
  7
STYLE1
100
AcDbText
  0
TEXT
  5
1B9E0
330
747D
100
AcDbEntity
  8
文字
 62
     7
 48
50.0
100
AcDbText
 10
13583.11819016569
 20
10288.7782045892
 30
0.0
 40
100.0
  1
桁後
  7
STYLE1
100
AcDbText
  0
TEXT
  5
1B9E1
330
747D
100
AcDbEntity
  8
文字
 62
     7
 48
50.0
100
AcDbText
 10
13271.19032244792
 20
10118.77820458919
 30
0.0
 40
100.0
  1
5
  7
STYLE1
100
AcDbText
  0
TEXT
  5
1B9E2
330
747D
100
AcDbEntity
  8
文字
 62
     7
 48
50.0
100
AcDbText
 10
13583.11819016569
 20
10118.77820458919
 30
0.0
 40
100.0
  1
妻板左右
  7
STYLE1
100
AcDbText
  0
TEXT
  5
1B9E3
330
747D
100
AcDbEntity
  8
文字
 62
     7
 48
50.0
100
AcDbText
 10
13583.11819016569
 20
8928.7782045892
 30
0.0
 40
100.0
  1
シャッターレール
  7
STYLE1
100
AcDbText
  0
TEXT
  5
1B9E4
330
747D
100
AcDbEntity
  8
文字
 62
     7
 48
50.0
100
AcDbText
 10
13248.77747366448
 20
9268.778204589198
 30
0.0
 40
100.0
  1
10
  7
STYLE1
100
AcDbText
  0
TEXT
  5
1B9E5
330
747D
100
AcDbEntity
  8
文字
 62
     7
 48
50.0
100
AcDbText
 10
13583.11819016569
 20
9438.778204589198
 30
0.0
 40
100.0
  1
壁パネル
  7
STYLE1
100
AcDbText
  0
TEXT
  5
1B9E6
330
747D
100
AcDbEntity
  8
文字
 62
     7
 48
50.0
100
AcDbText
 10
13583.11819016569
 20
9608.778204589199
 30
0.0
 40
100.0
  1
屋根パネル
  7
STYLE1
100
AcDbText
  0
TEXT
  5
1B9E7
330
747D
100
AcDbEntity
  8
文字
 62
     7
 48
50.0
100
AcDbText
 10
13583.11819016569
 20
9778.778204589189
 30
0.0
 40
100.0
  1
母屋中
  7
STYLE1
100
AcDbText
  0
TEXT
  5
1B9E8
330
747D
100
AcDbEntity
  8
文字
 62
     7
 48
50.0
100
AcDbText
 10
13583.11819016569
 20
9948.778204589199
 30
0.0
 40
100.0
  1
鼻隠シ前後
  7
STYLE1
100
AcDbText
  0
TEXT
  5
1B9E9
330
747D
100
AcDbEntity
  8
文字
 62
     7
 48
50.0
100
AcDbText
 10
13271.19032244792
 20
9608.778204589199
 30
0.0
 40
100.0
  1
8
  7
STYLE1
100
AcDbText
  0
TEXT
  5
1B9EA
330
747D
100
AcDbEntity
  8
文字
 62
     7
 48
50.0
100
AcDbText
 10
13271.19032244792
 20
9438.778204589198
 30
0.0
 40
100.0
  1
9
  7
STYLE1
100
AcDbText
  0
TEXT
  5
1B9EB
330
747D
100
AcDbEntity
  8
文字
 62
     7
 48
50.0
100
AcDbText
 10
13271.19032244792
 20
9778.778204589199
 30
0.0
 40
100.0
  1
7
  7
STYLE1
100
AcDbText
  0
TEXT
  5
1B9EC
330
747D
100
AcDbEntity
  8
文字
 62
     7
 48
50.0
100
AcDbText
 10
13271.19032244792
 20
9948.778204589199
 30
0.0
 40
100.0
  1
6
  7
STYLE1
100
AcDbText
  0
LINE
  5
1B9ED
330
747D
100
AcDbEntity
  8
仕様書枠
 48
50.0
100
AcDbLine
 10
16307.19999999999
 20
9238.364458705467
 30
0.0
 11
13127.19999999999
 21
9238.36445870547
 31
0.0
  0
LINE
  5
1B9EE
330
747D
100
AcDbEntity
  8
仕様書枠
 48
50.0
100
AcDbLine
 10
16307.19999999999
 20
9408.364458705468
 30
0.0
 11
13127.19999999999
 21
9408.364458705468
 31
0.0
  0
LINE
  5
1B9EF
330
747D
100
AcDbEntity
  8
仕様書枠
 48
50.0
100
AcDbLine
 10
16307.19999999999
 20
9918.36445870547
 30
0.0
 11
13127.2
 21
9918.36445870547
 31
0.0
  0
LINE
  5
1B9F0
330
747D
100
AcDbEntity
  8
仕様書枠
 48
50.0
100
AcDbLine
 10
16307.19999999999
 20
9748.36445870547
 30
0.0
 11
13127.2
 21
9748.36445870547
 31
0.0
  0
TEXT
  5
1B9F1
330
747D
100
AcDbEntity
  8
文字
 62
     7
 48
50.0
100
AcDbText
 10
13248.77747366448
 20
9098.7782045892
 30
0.0
 40
100.0
  1
11
  7
STYLE1
100
AcDbText
  0
TEXT
  5
1B9F2
330
747D
100
AcDbEntity
  8
文字
 62
     7
 48
50.0
100
AcDbText
 10
13583.11819016569
 20
9098.7782045892
 30
0.0
 40
100.0
  1
シャッターカバー
 41
0.9
  7
STYLE1
100
AcDbText
  0
LINE
  5
1B9F3
330
747D
100
AcDbEntity
  8
仕様書枠
 48
50.0
100
AcDbLine
 10
16307.19999999999
 20
9068.364458705465
 30
0.0
 11
13127.19999999999
 21
9068.36445870547
 31
0.0
  0
TEXT
  5
1B9F5
330
747D
100
AcDbEntity
  8
文字
 62
     7
 48
50.0
100
AcDbText
 10
13583.11819016569
 20
8758.778204589198
 30
0.0
 40
100.0
  1
棚板（別売）
  7
STYLE1
100
AcDbText
  0
LINE
  5
1B9F6
330
747D
100
AcDbEntity
  8
仕様書枠
 48
50.0
100
AcDbLine
 10
16307.19999999999
 20
8898.36445870547
 30
0.0
 11
13127.19999999999
 21
8898.36445870547
 31
0.0
  0
TEXT
  5
1B9F7
330
747D
100
AcDbEntity
  8
文字
 62
     7
 48
50.0
100
AcDbText
 10
13583.11819016568
 20
9268.778204589198
 30
0.0
 40
100.0
  1
シャッター
  7
STYLE1
100
AcDbText
  0
TEXT
  5
1B9F8
330
747D
100
AcDbEntity
  8
文字
 62
     7
 48
50.0
100
AcDbText
 10
13248.77747366448
 20
8758.778204589198
 30
0.0
 40
100.0
  1
13
  7
STYLE1
100
AcDbText
  0
TEXT
  5
1B9F9
330
747D
100
AcDbEntity
  8
文字
 62
     7
 48
50.0
100
AcDbText
 10
13248.77747366448
 20
8928.778204589198
 30
0.0
 40
100.0
  1
12
  7
STYLE1
100
AcDbText
  0
TEXT
  5
1B9FA
330
747D
100
AcDbEntity
  8
文字
 62
     7
 48
50.0
100
AcDbText
 10
15022.63965474517
 20
10798.77820458919
 30
0.0
 40
100.0
  1
F12            1.2
  7
STYLE1
100
AcDbText
  0
TEXT
  5
1B9FC
330
747D
100
AcDbEntity
  8
文字
 62
     7
 48
50.0
100
AcDbText
 10
15022.63965474516
 20
10458.77820458919
 30
0.0
 40
100.0
  1
Y10            1.0
  7
STYLE1
100
AcDbText
  0
TEXT
  5
1B9FD
330
747D
100
AcDbEntity
  8
文字
 62
     7
 48
50.0
100
AcDbText
 10
15022.63965474516
 20
10288.77820458919
 30
0.0
 40
100.0
  1
Y10            1.0
  7
STYLE1
100
AcDbText
  0
TEXT
  5
1B9FE
330
747D
100
AcDbEntity
  8
文字
 62
     7
 48
50.0
100
AcDbText
 10
15022.63965474516
 20
10118.77820458919
 30
0.0
 40
100.0
  1
Y10            0.7
  7
STYLE1
100
AcDbText
  0
TEXT
  5
1B9FF
330
747D
100
AcDbEntity
  8
文字
 62
     7
 48
50.0
100
AcDbText
 10
15022.63965474516
 20
9948.778204589189
 30
0.0
 40
100.0
  1
Y10            0.7
  7
STYLE1
100
AcDbText
  0
TEXT
  5
1BA00
330
747D
100
AcDbEntity
  8
文字
 62
     7
 48
50.0
100
AcDbText
 10
14834.39215341524
 20
9778.778204589189
 30
0.0
 40
100.0
  1
F12    1.0(多雪地型  2.3)
  7
STYLE1
100
AcDbText
  0
TEXT
  5
1BA01
330
747D
100
AcDbEntity
  8
文字
 62
     7
 48
50.0
100
AcDbText
 10
15022.63965474517
 20
9608.778204589192
 30
0.0
 40
100.0
  1
Y10            0.5
  7
STYLE1
100
AcDbText
  0
TEXT
  5
1BA02
330
747D
100
AcDbEntity
  8
文字
 62
     7
 48
50.0
100
AcDbText
 10
15022.63965474516
 20
9438.778204589192
 30
0.0
 40
100.0
  1
F12            0.7
  7
STYLE1
100
AcDbText
  0
TEXT
  5
1BA03
330
747D
100
AcDbEntity
  8
文字
 62
     7
 48
50.0
100
AcDbText
 10
14850.83183167176
 20
8928.778204589194
 30
0.0
 40
100.0
  1
アルミニウム合金押出形材
  7
STYLE1
100
AcDbText
  0
TEXT
  5
1BA05
330
747D
100
AcDbEntity
  8
文字
 62
     7
 48
50.0
100
AcDbText
 10
15022.63965474514
 20
9268.778204589192
 30
0.0
 40
100.0
  1
Z08            0.5
  7
STYLE1
100
AcDbText
  0
TEXT
  5
1BA06
330
747D
100
AcDbEntity
  8
文字
 62
     7
 48
50.0
100
AcDbText
 10
15022.63965474515
 20
8758.778204589198
 30
0.0
 40
100.0
  1
F12            0.6
  7
STYLE1
100
AcDbText
  0
LINE
  5
1BA07
330
747D
100
AcDbEntity
  8
仕様書枠
 48
50.0
100
AcDbLine
 10
16307.19999999999
 20
8558.364458705469
 30
0.0
 11
13127.19999999999
 21
8558.364458705472
 31
0.0
  0
LINE
  5
1BA08
330
747D
100
AcDbEntity
  8
仕様書枠
 48
50.0
100
AcDbLine
 10
16307.19999999999
 20
8388.364458705471
 30
0.0
 11
13127.19999999999
 21
8388.364458705472
 31
0.0
  0
LINE
  5
1BA09
330
747D
100
AcDbEntity
  8
仕様書枠
 48
50.0
100
AcDbLine
 10
16307.19999999999
 20
8218.364458705471
 30
0.0
 11
13127.19999999999
 21
8218.364458705471
 31
0.0
  0
TEXT
  5
1BA0A
330
747D
100
AcDbEntity
  8
文字
 62
     7
 48
50.0
100
AcDbText
 10
13229.83081656555
 20
8588.778204589198
 30
0.0
 40
100.0
  1
F12→溶融亜鉛めっき鋼板(JIS G 3302)
  7
STYLE1
100
AcDbText
  0
TEXT
  5
1BA0B
330
747D
100
AcDbEntity
  8
文字
 62
     7
 48
50.0
100
AcDbText
 10
13229.83081656555
 20
8418.778204589198
 30
0.0
 40
100.0
  1
Y10→溶融亜鉛-5％アルミニウム合金めっき鋼板(JIS G 3317)
 41
0.9
  7
STYLE1
100
AcDbText
  0
TEXT
  5
1BA0C
330
747D
100
AcDbEntity
  8
文字
 62
     7
 48
50.0
100
AcDbText
 10
13229.83081656555
 20
8248.7782045892
 30
0.0
 40
100.0
  1
Z08→塗装溶融亜鉛めっき鋼板(JIS G 3313)
  7
STYLE1
100
AcDbText
  0
LINE
  5
1BA0D
330
747D
100
AcDbEntity
  8
仕様書枠
 48
50.0
100
AcDbLine
 10
16307.19999999999
 20
9578.36445870547
 30
0.0
 11
13127.19999999999
 21
9578.36445870547
 31
0.0
  0
ARC
  5
1BA0E
330
747D
100
AcDbEntity
  8
細線
 48
50.0
100
AcDbCircle
 10
5969.673057123658
 20
3069.196057418732
 30
0.0
 40
15.0
100
AcDbArc
 50
90.0
 51
270.0
  0
ARC
  5
1BA0F
330
747D
100
AcDbEntity
  8
細線
 48
50.0
100
AcDbCircle
 10
6069.673057123658
 20
3069.196057418732
 30
0.0
 40
15.0
100
AcDbArc
 50
270.0
 51
90.0
  0
LINE
  5
1BA10
330
747D
100
AcDbEntity
  8
細線
 48
50.0
100
AcDbLine
 10
5969.673057123658
 20
3084.196057418731
 30
0.0
 11
6069.673057123658
 21
3084.196057418731
 31
0.0
  0
LINE
  5
1BA11
330
747D
100
AcDbEntity
  8
細線
 48
50.0
100
AcDbLine
 10
6069.673057123658
 20
3054.196057418732
 30
0.0
 11
5969.673057123658
 21
3054.196057418732
 31
0.0
  0
LINE
  5
1BA12
330
747D
100
AcDbEntity
  8
細線
 48
50.0
100
AcDbLine
 10
6569.673057123658
 20
3054.196057418732
 30
0.0
 11
6469.673057123658
 21
3054.196057418732
 31
0.0
  0
LINE
  5
1BA13
330
747D
100
AcDbEntity
  8
細線
 48
50.0
100
AcDbLine
 10
6469.673057123658
 20
3084.196057418731
 30
0.0
 11
6569.673057123658
 21
3084.196057418731
 31
0.0
  0
ARC
  5
1BA14
330
747D
100
AcDbEntity
  8
細線
 48
50.0
100
AcDbCircle
 10
6469.673057123658
 20
3069.196057418732
 30
0.0
 40
15.0
100
AcDbArc
 50
90.0
 51
270.0
  0
ARC
  5
1BA15
330
747D
100
AcDbEntity
  8
細線
 48
50.0
100
AcDbCircle
 10
6569.673057123658
 20
3069.196057418732
 30
0.0
 40
15.0
100
AcDbArc
 50
270.0
 51
90.0
  0
CIRCLE
  5
1BA16
330
747D
100
AcDbEntity
  8
細線
 48
50.0
100
AcDbCircle
 10
6269.673057123658
 20
3394.196057418731
 30
0.0
 40
18.0
  0
LINE
  5
1BA17
330
747D
100
AcDbEntity
  8
部品1
100
AcDbLine
 10
6492.173057123669
 20
9849.340693558374
 30
0.0
 11
7346.673057123651
 21
9849.340693558366
 31
0.0
  0
LINE
  5
1BA18
330
747D
100
AcDbEntity
  8
部品1
100
AcDbLine
 10
5639.673057123665
 20
9877.340693558387
 30
0.0
 11
5639.673057123665
 21
9849.340693558387
 31
0.0
  0
LINE
  5
1BA19
330
747D
100
AcDbEntity
  8
部品1
100
AcDbLine
 10
5639.673057123665
 20
9877.340693558272
 30
0.0
 11
5639.673057123665
 21
9849.34069355827
 31
0.0
  0
LINE
  5
1BA1A
330
747D
100
AcDbEntity
  8
部品1
100
AcDbLine
 10
5639.673057123665
 20
9877.340693558272
 30
0.0
 11
5639.673057123665
 21
9849.34069355827
 31
0.0
  0
LINE
  5
1BA1B
330
747D
100
AcDbEntity
  8
部品1
100
AcDbLine
 10
6059.67305712367
 20
9877.340693558387
 30
0.0
 11
6059.67305712367
 21
9849.340693558387
 31
0.0
  0
LINE
  5
1BA1C
330
747D
100
AcDbEntity
  8
部品1
100
AcDbLine
 10
6059.67305712367
 20
9877.340693558272
 30
0.0
 11
6059.67305712367
 21
9849.34069355827
 31
0.0
  0
LINE
  5
1BA1D
330
747D
100
AcDbEntity
  8
部品1
100
AcDbLine
 10
6059.67305712367
 20
9877.340693558272
 30
0.0
 11
6059.67305712367
 21
9849.34069355827
 31
0.0
  0
LINE
  5
1BA1E
330
747D
100
AcDbEntity
  8
部品1
100
AcDbLine
 10
6479.673057123669
 20
9877.340693558387
 30
0.0
 11
6479.673057123669
 21
9849.340693558387
 31
0.0
  0
LINE
  5
1BA1F
330
747D
100
AcDbEntity
  8
部品1
100
AcDbLine
 10
6467.173057123666
 20
9841.34069355837
 30
0.0
 11
6492.173057123669
 21
9841.340693558374
 31
0.0
  0
LINE
  5
1BA20
330
747D
100
AcDbEntity
  8
部品1
100
AcDbLine
 10
6508.673057123665
 20
9867.340693558375
 30
0.0
 11
6514.673057123665
 21
9867.340693558375
 31
0.0
  0
LINE
  5
1BA21
330
747D
100
AcDbEntity
  8
部品1
100
AcDbLine
 10
6514.673057123665
 20
9867.340693558375
 30
0.0
 11
6514.673057123665
 21
9849.340693558373
 31
0.0
  0
LINE
  5
1BA22
330
747D
100
AcDbEntity
  8
部品1
100
AcDbLine
 10
6444.673057123665
 20
9867.340693558375
 30
0.0
 11
6450.673057123665
 21
9867.340693558375
 31
0.0
  0
LINE
  5
1BA23
330
747D
100
AcDbEntity
  8
部品1
100
AcDbLine
 10
6444.673057123665
 20
9867.340693558375
 30
0.0
 11
6444.673057123665
 21
9849.340693558373
 31
0.0
  0
LINE
  5
1BA24
330
747D
100
AcDbEntity
  8
部品1
100
AcDbLine
 10
6899.673057123665
 20
9877.340693558387
 30
0.0
 11
6899.673057123665
 21
9849.340693558387
 31
0.0
  0
LINE
  5
1BA25
330
747D
100
AcDbEntity
  8
部品1
 48
50.0
100
AcDbLine
 10
6467.173057123666
 20
9841.34069355837
 30
0.0
 11
6467.173057123666
 21
9849.340693558387
 31
0.0
  0
LINE
  5
1BA26
330
747D
100
AcDbEntity
  8
部品1
 48
50.0
100
AcDbLine
 10
6492.173057123669
 20
9841.340693558374
 30
0.0
 11
6492.173057123669
 21
9849.340693558383
 31
0.0
  0
LINE
  5
1BA27
330
747D
100
AcDbEntity
  8
部品1
 48
50.0
100
AcDbLine
 10
7346.673057123651
 20
9849.340693558366
 30
0.0
 11
7319.673057123663
 21
9822.340693558217
 31
0.0
  0
LINE
  5
1BA28
330
747D
100
AcDbEntity
  8
部品1
 48
50.0
100
AcDbLine
 10
5192.673057123666
 20
9849.34069355827
 30
0.0
 11
5219.67305712364
 21
9822.340693558231
 31
0.0
  0
LINE
  5
1BA29
330
747D
100
AcDbEntity
  8
部品1
 48
50.0
100
AcDbLine
 10
7319.673057123663
 20
9822.340693558217
 30
0.0
 11
5219.673057123666
 21
9822.340693558231
 31
0.0
  0
LINE
  5
1BA2A
330
747D
100
AcDbEntity
  8
部品1
 48
50.0
100
AcDbLine
 10
7294.673057123666
 20
9797.340693558146
 30
0.0
 11
5244.67305712364
 21
9797.340693558147
 31
0.0
  0
LINE
  5
1BA2B
330
747D
100
AcDbEntity
  8
部品1
100
AcDbLine
 10
7346.67305712367
 20
9822.34069355837
 30
0.0
 11
7374.673057123669
 21
9822.34069355837
 31
0.0
  0
LINE
  5
1BA2C
330
747D
100
AcDbEntity
  8
部品1
100
AcDbLine
 10
7319.67305712367
 20
9877.340693558387
 30
0.0
 11
7319.67305712367
 21
9849.340693558387
 31
0.0
  0
LINE
  5
1BA2D
330
747D
100
AcDbEntity
  8
部品1
100
AcDbLine
 10
7319.67305712367
 20
9877.340693558366
 30
0.0
 11
7319.67305712367
 21
9849.340693558366
 31
0.0
  0
DIMENSION
  5
1BA2E
330
747D
100
AcDbEntity
  8
寸法
100
AcDbDimension
  2
*D19
 10
7374.673057123669
 20
10093.14891318335
 30
0.0
 11
7683.15833849791
 21
10093.14891318335
 31
0.0
 70
   160
 71
     5
 42
55.0
  3
INABA_S40G
100
AcDbAlignedDimension
 13
7319.67305712367
 23
9877.340693558366
 33
0.0
 14
7374.673057123669
 24
9877.340693558366
 34
0.0
100
AcDbRotatedDimension
1001
ACAD
1000
DSTYLE
1002
{
1002
}
  0
LINE
  5
1BA2F
330
747D
100
AcDbEntity
  8
部品1
100
AcDbLine
 10
5192.673057123637
 20
9822.34069355824
 30
0.0
 11
5164.673057123633
 21
9822.34069355824
 31
0.0
  0
LINE
  5
1BA30
330
747D
100
AcDbEntity
  8
部品1
100
AcDbLine
 10
5219.673057123666
 20
9877.340693558272
 30
0.0
 11
5219.673057123666
 21
9849.34069355827
 31
0.0
  0
LINE
  5
1BA31
330
747D
100
AcDbEntity
  8
部品1
100
AcDbLine
 10
5219.673057123629
 20
9877.340693558238
 30
0.0
 11
5219.673057123633
 21
9849.340693558238
 31
0.0
  0
DIMENSION
  5
1BA32
330
747D
100
AcDbEntity
  8
寸法
100
AcDbDimension
  2
*D20
 10
5219.673057123666
 20
10093.14891318325
 30
0.0
 11
4856.187775749393
 21
10093.14891318325
 31
0.0
 70
   160
 71
     5
 42
55.00000000003274
  3
INABA_S40G
100
AcDbAlignedDimension
 13
5164.673057123633
 23
9877.340693558272
 33
0.0
 14
5219.673057123666
 24
9877.340693558272
 34
0.0
100
AcDbRotatedDimension
1001
ACAD
1000
DSTYLE
1002
{
1002
}
  0
DIMENSION
  5
1BA33
330
747D
100
AcDbEntity
  8
寸法
100
AcDbDimension
  2
*D21
 10
7319.67305712367
 20
10093.14891318337
 30
0.0
 11
6269.673057123668
 21
10193.16072420699
 31
0.0
 70
    32
  1
5X420=<>
 71
     5
 42
2100.000000000004
  3
INABA_S40G
100
AcDbAlignedDimension
 13
5219.673057123666
 23
9877.340693558272
 33
0.0
 14
7319.67305712367
 24
9877.340693558366
 34
0.0
100
AcDbRotatedDimension
1001
ACAD
1000
DSTYLE
1002
{
1002
}
  0
LINE
  5
1BA34
330
747D
100
AcDbEntity
  8
部品1
100
AcDbLine
 10
5164.673057123666
 20
9877.340693558272
 30
0.0
 11
7374.673057123669
 21
9877.340693558366
 31
0.0
  0
LINE
  5
1BA35
330
747D
100
AcDbEntity
  8
部品1
100
AcDbLine
 10
5192.673057123666
 20
9849.34069355827
 30
0.0
 11
5849.673057123666
 21
9849.340693558275
 31
0.0
  0
LINE
  5
1BA36
330
747D
100
AcDbEntity
  8
部品1
100
AcDbLine
 10
5219.673057123666
 20
9849.340693558387
 30
0.0
 11
6467.173057123666
 21
9849.340693558374
 31
0.0
  0
LINE
  5
1BA37
330
747D
100
AcDbEntity
  8
部品1
100
AcDbLine
 10
7346.67305712367
 20
9402.340693558368
 30
0.0
 11
7374.673057123669
 21
9402.340693558368
 31
0.0
  0
LINE
  5
1BA38
330
747D
100
AcDbEntity
  8
部品1
100
AcDbLine
 10
7346.673057123673
 20
8982.340693558368
 30
0.0
 11
7374.673057123674
 21
8982.340693558368
 31
0.0
  0
LINE
  5
1BA39
330
747D
100
AcDbEntity
  8
部品1
100
AcDbLine
 10
7346.673057123673
 20
8562.34069355837
 30
0.0
 11
7374.673057123674
 21
8562.34069355837
 31
0.0
  0
LINE
  5
1BA3A
330
747D
100
AcDbEntity
  8
部品1
100
AcDbLine
 10
7346.673057123673
 20
8142.34069355837
 30
0.0
 11
7374.673057123674
 21
8142.34069355837
 31
0.0
  0
LINE
  5
1BA3B
330
747D
100
AcDbEntity
  8
部品1
100
AcDbLine
 10
7346.673057123673
 20
7722.340693558368
 30
0.0
 11
7374.673057123674
 21
7722.340693558368
 31
0.0
  0
LINE
  5
1BA3C
330
747D
100
AcDbEntity
  8
部品1
100
AcDbLine
 10
7374.67305712364
 20
7247.340693558356
 30
0.0
 11
7319.673057123644
 21
7247.340693558354
 31
0.0
  0
LINE
  5
1BA3D
330
747D
100
AcDbEntity
  8
部品1
100
AcDbLine
 10
7319.673057123644
 20
7302.340693558368
 30
0.0
 11
7374.673057123674
 21
7302.340693558368
 31
0.0
  0
LINE
  5
1BA3E
330
747D
100
AcDbEntity
  8
部品1
100
AcDbLine
 10
7319.673057123644
 20
7283.340693558263
 30
0.0
 11
7342.673057123644
 21
7283.340693558264
 31
0.0
  0
LINE
  5
1BA3F
330
747D
100
AcDbEntity
  8
部品1
 48
50.0
100
AcDbLine
 10
7271.673057123641
 20
7273.340693558266
 30
0.0
 11
7271.673057123641
 21
7282.340693558267
 31
0.0
  0
LINE
  5
1BA40
330
747D
100
AcDbEntity
  8
部品1
 48
50.0
100
AcDbLine
 10
7271.673057123641
 20
7312.340693558266
 30
0.0
 11
7271.673057123641
 21
7303.340693558265
 31
0.0
  0
LINE
  5
1BA41
330
747D
100
AcDbEntity
  8
部品1
100
AcDbLine
 10
7271.673057123641
 20
7273.340693558266
 30
0.0
 11
7319.673057123644
 21
7273.340693558265
 31
0.0
  0
LINE
  5
1BA42
330
747D
100
AcDbEntity
  8
部品1
100
AcDbLine
 10
7271.673057123641
 20
7312.340693558266
 30
0.0
 11
7319.673057123644
 21
7312.340693558265
 31
0.0
  0
LINE
  5
1BA43
330
747D
100
AcDbEntity
  8
部品1
 48
50.0
100
AcDbLine
 10
7309.673057123643
 20
7273.340693558265
 30
0.0
 11
7319.673057123644
 21
7252.340693558264
 31
0.0
  0
DIMENSION
  5
1BA44
330
747D
100
AcDbEntity
  8
寸法
 48
50.0
100
AcDbDimension
  2
*D22
 10
7319.673057123644
 20
6712.909922792103
 30
0.0
 11
7683.15833849788
 21
6712.909922792103
 31
0.0
 70
   160
 71
     5
 42
54.99999999999636
  3
INABA_S40G
100
AcDbAlignedDimension
 13
7374.67305712364
 23
7247.340693558356
 33
0.0
 14
7319.673057123644
 24
7247.340693558354
 34
0.0
100
AcDbRotatedDimension
1001
ACAD
1000
DSTYLE
1002
{
1002
}
  0
DIMENSION
  5
1BA45
330
747D
100
AcDbEntity
  8
寸法
 48
50.0
100
AcDbDimension
  2
*D23
 10
7271.673057123641
 20
6712.909922792102
 30
0.0
 11
7160.710159474892
 21
6812.909922792103
 31
0.0
 70
   160
 71
     5
 42
48.00000000000363
  3
INABA_S40G
100
AcDbAlignedDimension
 13
7319.673057123644
 23
7247.340693558354
 33
0.0
 14
7271.673057123641
 24
7273.340693558266
 34
0.0
100
AcDbRotatedDimension
1001
ACAD
1000
DSTYLE
1002
{
1070
   279
1070
     2
1002
}
  0
LINE
  5
1BA46
330
747D
100
AcDbEntity
  8
部品1
100
AcDbLine
 10
7294.673057123666
 20
9822.340693558217
 30
0.0
 11
7294.673057123644
 21
7312.340693558265
 31
0.0
  0
LINE
  5
1BA47
330
747D
100
AcDbEntity
  8
部品1
100
AcDbLine
 10
7319.673057123663
 20
9822.340693558217
 30
0.0
 11
7319.673057123644
 21
7247.340693558354
 31
0.0
  0
LINE
  5
1BA48
330
747D
100
AcDbEntity
  8
部品1
100
AcDbLine
 10
5192.673057123641
 20
9402.340693558242
 30
0.0
 11
5164.67305712364
 21
9402.340693558242
 31
0.0
  0
LINE
  5
1BA49
330
747D
100
AcDbEntity
  8
部品1
100
AcDbLine
 10
5192.673057123648
 20
8982.34069355824
 30
0.0
 11
5164.673057123647
 21
8982.34069355824
 31
0.0
  0
LINE
  5
1BA4A
330
747D
100
AcDbEntity
  8
部品1
100
AcDbLine
 10
5192.673057123648
 20
8562.34069355824
 30
0.0
 11
5164.673057123647
 21
8562.34069355824
 31
0.0
  0
LINE
  5
1BA4B
330
747D
100
AcDbEntity
  8
部品1
100
AcDbLine
 10
5192.673057123648
 20
8142.340693558242
 30
0.0
 11
5164.673057123647
 21
8142.340693558242
 31
0.0
  0
LINE
  5
1BA4C
330
747D
100
AcDbEntity
  8
部品1
100
AcDbLine
 10
5192.673057123648
 20
7722.340693558241
 30
0.0
 11
5164.673057123647
 21
7722.340693558241
 31
0.0
  0
LINE
  5
1BA4D
330
747D
100
AcDbEntity
  8
部品1
100
AcDbLine
 10
5192.673057123659
 20
7302.340693558242
 30
0.0
 11
5164.673057123659
 21
7302.340693558242
 31
0.0
  0
LINE
  5
1BA4E
330
747D
100
AcDbEntity
  8
部品1
100
AcDbLine
 10
5192.673057123641
 20
7302.340693558226
 30
0.0
 11
5164.673057123659
 21
7302.340693558226
 31
0.0
  0
LINE
  5
1BA4F
330
747D
100
AcDbEntity
  8
部品1
100
AcDbLine
 10
5219.673057123658
 20
7302.34069355819
 30
0.0
 11
5164.673057123659
 21
7302.34069355819
 31
0.0
  0
LINE
  5
1BA50
330
747D
100
AcDbEntity
  8
部品1
100
AcDbLine
 10
5219.673057123658
 20
7283.340693558264
 30
0.0
 11
5196.673057123662
 21
7283.340693558264
 31
0.0
  0
LINE
  5
1BA51
330
747D
100
AcDbEntity
  8
部品1
100
AcDbLine
 10
5267.673057123662
 20
7273.340693558266
 30
0.0
 11
5219.673057123662
 21
7273.340693558265
 31
0.0
  0
LINE
  5
1BA52
330
747D
100
AcDbEntity
  8
部品1
100
AcDbLine
 10
5267.673057123662
 20
7312.340693558266
 30
0.0
 11
5219.673057123662
 21
7312.340693558265
 31
0.0
  0
LINE
  5
1BA53
330
747D
100
AcDbEntity
  8
部品1
 48
50.0
100
AcDbLine
 10
5267.673057123662
 20
7312.340693558266
 30
0.0
 11
5267.673057123662
 21
7303.340693558265
 31
0.0
  0
LINE
  5
1BA54
330
747D
100
AcDbEntity
  8
部品1
 48
50.0
100
AcDbLine
 10
5267.673057123662
 20
7273.340693558266
 30
0.0
 11
5267.673057123662
 21
7282.340693558267
 31
0.0
  0
LINE
  5
1BA55
330
747D
100
AcDbEntity
  8
部品1
 48
50.0
100
AcDbLine
 10
5219.673057123662
 20
7312.340693558265
 30
0.0
 11
5219.673057123658
 21
7247.340693558264
 31
0.0
  0
LINE
  5
1BA56
330
747D
100
AcDbEntity
  8
部品1
 48
50.0
100
AcDbLine
 10
5229.673057123658
 20
7273.340693558265
 30
0.0
 11
5219.673057123662
 21
7252.340693558264
 31
0.0
  0
LINE
  5
1BA57
330
747D
100
AcDbEntity
  8
部品1
 48
50.0
100
AcDbLine
 10
5219.673057123662
 20
7283.340693558264
 30
0.0
 11
5196.673057123662
 21
7283.340693558264
 31
0.0
  0
LINE
  5
1BA58
330
747D
100
AcDbEntity
  8
部品1
100
AcDbLine
 10
5219.673057123655
 20
7247.340693558264
 30
0.0
 11
5164.673057123662
 21
7247.340693558263
 31
0.0
  0
DIMENSION
  5
1BA59
330
747D
100
AcDbEntity
  8
寸法
 48
50.0
100
AcDbDimension
  2
*D24
 10
5219.673057123658
 20
6712.909922792102
 30
0.0
 11
5380.575028123719
 21
6812.909922792103
 31
0.0
 70
   160
 71
     5
 42
48.00000000000363
  3
INABA_S40G
100
AcDbAlignedDimension
 13
5267.673057123662
 23
7273.340693558265
 33
0.0
 14
5219.673057123658
 24
7247.340693558264
 34
0.0
100
AcDbRotatedDimension
1001
ACAD
1000
DSTYLE
1002
{
1070
   279
1070
     2
1002
}
  0
DIMENSION
  5
1BA5A
330
747D
100
AcDbEntity
  8
寸法
 48
50.0
100
AcDbDimension
  2
*D25
 10
5164.673057123662
 20
6712.909922792102
 30
0.0
 11
4856.187775749422
 21
6712.909922792102
 31
0.0
 70
   160
 71
     5
 42
54.99999999999636
  3
INABA_S40G
100
AcDbAlignedDimension
 13
5219.673057123658
 23
7247.340693558264
 33
0.0
 14
5164.673057123662
 24
7247.340693558263
 34
0.0
100
AcDbRotatedDimension
1001
ACAD
1000
DSTYLE
1002
{
1002
}
  0
LINE
  5
1BA5B
330
747D
100
AcDbEntity
  8
部品1
100
AcDbLine
 10
5244.67305712364
 20
9822.340693558231
 30
0.0
 11
5244.673057123659
 21
7312.340693558265
 31
0.0
  0
LINE
  5
1BA5C
330
747D
100
AcDbEntity
  8
部品1
100
AcDbLine
 10
5219.673057123666
 20
9822.340693558231
 30
0.0
 11
5219.673057123658
 21
7312.340693558265
 31
0.0
  0
DIMENSION
  5
1BA5D
330
747D
100
AcDbEntity
  8
寸法
100
AcDbDimension
  2
*D26
 10
7374.67305712364
 20
6426.736927201227
 30
0.0
 11
6269.673057123651
 21
6526.748738224849
 31
0.0
 70
    32
 71
     5
 42
2209.999999999978
  3
INABA_S40G
100
AcDbAlignedDimension
 13
5164.673057123662
 23
7247.340693558193
 33
0.0
 14
7374.67305712364
 24
7247.340693558321
 34
0.0
100
AcDbRotatedDimension
1001
ACAD
1000
DSTYLE
1002
{
1002
}
  0
LINE
  5
1BA5E
330
747D
100
AcDbEntity
  8
部品1
 48
50.0
100
AcDbLine
 10
5231.673057123658
 20
7292.840693558265
 30
0.0
 11
7307.673057123643
 21
7292.840693558265
 31
0.0
  0
DIMENSION
  5
1BA5F
330
747D
100
AcDbEntity
  8
寸法
 48
50.0
100
AcDbDimension
  2
*D27
 10
5267.673057123662
 20
6712.909922792102
 30
0.0
 11
6269.673057123651
 21
6812.921733815723
 31
0.0
 70
    32
  1
有効開口部間口 <>
 71
     5
 42
2003.999999999978
  3
INABA_S40G
100
AcDbAlignedDimension
 13
7271.673057123641
 23
7273.340693558266
 33
0.0
 14
5267.673057123662
 24
7273.340693558265
 34
0.0
100
AcDbRotatedDimension
1001
ACAD
1000
DSTYLE
1002
{
1070
    75
1070
     1
1070
   279
1070
     2
1002
}
  0
LINE
  5
1BA60
330
747D
100
AcDbEntity
  8
部品1
100
AcDbLine
 10
5164.673057123633
 20
9877.340693558238
 30
0.0
 11
5164.673057123662
 21
7247.340693558225
 31
0.0
  0
LINE
  5
1BA61
330
747D
100
AcDbEntity
  8
部品1
100
AcDbLine
 10
7374.673057123669
 20
9877.340693558366
 30
0.0
 11
7374.67305712364
 21
7247.340693558356
 31
0.0
  0
LINE
  5
1BA62
330
747D
100
AcDbEntity
  8
部品1
100
AcDbLine
 10
5192.673057123641
 20
7302.340693558223
 30
0.0
 11
5192.673057123651
 21
9849.340693558275
 31
0.0
  0
LINE
  5
1BA63
330
747D
100
AcDbEntity
  8
部品1
100
AcDbLine
 10
7346.673057123651
 20
9849.340693558366
 30
0.0
 11
7346.673057123644
 21
7302.340693558353
 31
0.0
  0
DIMENSION
  5
1BA64
330
747D
100
AcDbEntity
  8
寸法
100
AcDbDimension
  2
*D28
 10
8387.206344597714
 20
7247.340693558356
 30
0.0
 11
8287.194533574092
 21
8562.340693558363
 31
0.0
 70
    32
 71
     5
 42
2630.000000000007
  3
INABA_S40G
100
AcDbAlignedDimension
 13
7374.673057123669
 23
9877.340693558366
 33
0.0
 14
7374.67305712364
 24
7247.340693558356
 34
0.0
 50
90.0
100
AcDbRotatedDimension
1001
ACAD
1000
DSTYLE
1002
{
1002
}
  0
DIMENSION
  5
1BA65
330
747D
100
AcDbEntity
  8
寸法
100
AcDbDimension
  2
*D29
 10
8022.099402858076
 20
9822.34069355837
 30
0.0
 11
8022.099402858076
 21
10185.8259749326
 31
0.0
 70
   160
 71
     5
 42
54.99999999999454
  3
INABA_S40G
100
AcDbAlignedDimension
 13
7374.673057123669
 23
9877.340693558366
 33
0.0
 14
7374.673057123669
 24
9822.34069355837
 34
0.0
 50
90.0
100
AcDbRotatedDimension
1001
ACAD
1000
DSTYLE
1002
{
1002
}
  0
DIMENSION
  5
1BA66
330
747D
100
AcDbEntity
  8
寸法
100
AcDbDimension
  2
*D30
 10
8022.099402858051
 20
7247.340693558356
 30
0.0
 11
8022.099402858051
 21
6869.479226653495
 31
0.0
 70
   160
 71
     5
 42
54.99999999999636
  3
INABA_S40G
100
AcDbAlignedDimension
 13
7374.67305712364
 23
7302.340693558353
 33
0.0
 14
7374.67305712364
 24
7247.340693558356
 34
0.0
 50
90.0
100
AcDbRotatedDimension
1001
ACAD
1000
DSTYLE
1002
{
1002
}
  0
DIMENSION
  5
1BA67
330
747D
100
AcDbEntity
  8
寸法
100
AcDbDimension
  2
*D31
 10
8022.099402858076
 20
7302.340693558353
 30
0.0
 11
7922.087591834453
 21
8562.340693558363
 31
0.0
 70
    32
  1
6X420=<>
 71
     5
 42
2520.000000000016
  3
INABA_S40G
100
AcDbAlignedDimension
 13
7374.673057123669
 23
9822.34069355837
 33
0.0
 14
7374.67305712364
 24
7302.340693558353
 34
0.0
 50
90.0
100
AcDbRotatedDimension
1001
ACAD
1000
DSTYLE
1002
{
1002
}
  0
LINE
  5
1BA68
330
747D
100
AcDbEntity
  8
細線
100
AcDbLine
 10
7271.673057123658
 20
2516.696057418732
 30
0.0
 11
5267.673057123655
 21
2516.696057418732
 31
0.0
  0
LINE
  5
1BA69
330
747D
100
AcDbEntity
  8
細線
100
AcDbLine
 10
5267.673057123658
 20
3036.696057418732
 30
0.0
 11
7271.673057123658
 21
3036.696057418732
 31
0.0
  0
LINE
  5
1BA6A
330
747D
100
AcDbEntity
  8
細線
100
AcDbLine
 10
5267.673057123658
 20
2971.696057418731
 30
0.0
 11
7271.673057123658
 21
2971.696057418731
 31
0.0
  0
LINE
  5
1BA6B
330
747D
100
AcDbEntity
  8
細線
100
AcDbLine
 10
5267.673057123658
 20
2906.696057418731
 30
0.0
 11
7271.673057123658
 21
2906.696057418731
 31
0.0
  0
LINE
  5
1BA6C
330
747D
100
AcDbEntity
  8
細線
100
AcDbLine
 10
5267.673057123658
 20
2841.696057418731
 30
0.0
 11
7271.673057123658
 21
2841.696057418731
 31
0.0
  0
LINE
  5
1BA6D
330
747D
100
AcDbEntity
  8
細線
100
AcDbLine
 10
5267.673057123658
 20
2776.696057418732
 30
0.0
 11
7271.673057123658
 21
2776.696057418732
 31
0.0
  0
LINE
  5
1BA6E
330
747D
100
AcDbEntity
  8
細線
100
AcDbLine
 10
5267.673057123658
 20
2711.696057418732
 30
0.0
 11
7271.673057123658
 21
2711.696057418732
 31
0.0
  0
LINE
  5
1BA6F
330
747D
100
AcDbEntity
  8
細線
100
AcDbLine
 10
5267.673057123658
 20
2646.696057418731
 30
0.0
 11
7271.673057123658
 21
2646.696057418731
 31
0.0
  0
LINE
  5
1BA70
330
747D
100
AcDbEntity
  8
細線
100
AcDbLine
 10
5267.673057123658
 20
2581.696057418732
 30
0.0
 11
7271.673057123658
 21
2581.696057418732
 31
0.0
  0
LINE
  5
1BA71
330
747D
100
AcDbEntity
  8
細線
100
AcDbLine
 10
5267.673057123658
 20
2516.696057418732
 30
0.0
 11
7271.673057123658
 21
2516.696057418732
 31
0.0
  0
LINE
  5
1BA72
330
747D
100
AcDbEntity
  8
細線
100
AcDbLine
 10
5267.673057123658
 20
4336.69605741873
 30
0.0
 11
7271.673057123658
 21
4336.69605741873
 31
0.0
  0
LINE
  5
1BA73
330
747D
100
AcDbEntity
  8
細線
100
AcDbLine
 10
5267.673057123658
 20
4466.69605741873
 30
0.0
 11
7271.673057123658
 21
4466.69605741873
 31
0.0
  0
LINE
  5
1BA74
330
747D
100
AcDbEntity
  8
細線
100
AcDbLine
 10
5267.673057123658
 20
4401.696057418731
 30
0.0
 11
7271.673057123658
 21
4401.696057418731
 31
0.0
  0
LINE
  5
1BA75
330
747D
100
AcDbEntity
  8
細線
100
AcDbLine
 10
5267.673057123658
 20
3686.696057418731
 30
0.0
 11
7271.673057123658
 21
3686.696057418731
 31
0.0
  0
LINE
  5
1BA76
330
747D
100
AcDbEntity
  8
細線
100
AcDbLine
 10
5267.673057123658
 20
3621.696057418731
 30
0.0
 11
7271.673057123658
 21
3621.696057418731
 31
0.0
  0
LINE
  5
1BA77
330
747D
100
AcDbEntity
  8
細線
100
AcDbLine
 10
5267.673057123658
 20
3556.696057418731
 30
0.0
 11
7271.673057123658
 21
3556.696057418731
 31
0.0
  0
LINE
  5
1BA78
330
747D
100
AcDbEntity
  8
細線
100
AcDbLine
 10
5267.673057123658
 20
3491.696057418732
 30
0.0
 11
7271.673057123658
 21
3491.696057418732
 31
0.0
  0
LINE
  5
1BA79
330
747D
100
AcDbEntity
  8
細線
100
AcDbLine
 10
5267.673057123658
 20
3426.696057418732
 30
0.0
 11
7271.673057123658
 21
3426.696057418732
 31
0.0
  0
LINE
  5
1BA7A
330
747D
100
AcDbEntity
  8
細線
100
AcDbLine
 10
5267.673057123658
 20
3361.69605741873
 30
0.0
 11
7271.673057123658
 21
3361.69605741873
 31
0.0
  0
LINE
  5
1BA7B
330
747D
100
AcDbEntity
  8
細線
100
AcDbLine
 10
5267.673057123658
 20
3296.696057418732
 30
0.0
 11
7271.673057123658
 21
3296.696057418732
 31
0.0
  0
LINE
  5
1BA7C
330
747D
100
AcDbEntity
  8
細線
100
AcDbLine
 10
5267.673057123658
 20
3231.696057418731
 30
0.0
 11
7271.673057123658
 21
3231.696057418731
 31
0.0
  0
LINE
  5
1BA7D
330
747D
100
AcDbEntity
  8
細線
100
AcDbLine
 10
5267.673057123658
 20
3166.696057418731
 30
0.0
 11
7271.673057123658
 21
3166.696057418731
 31
0.0
  0
LINE
  5
1BA7E
330
747D
100
AcDbEntity
  8
細線
100
AcDbLine
 10
5267.673057123658
 20
3101.696057418731
 30
0.0
 11
7271.673057123658
 21
3101.696057418731
 31
0.0
  0
LINE
  5
1BA7F
330
747D
100
AcDbEntity
  8
細線
100
AcDbLine
 10
5267.673057123658
 20
4076.696057418731
 30
0.0
 11
7271.673057123658
 21
4076.696057418731
 31
0.0
  0
LINE
  5
1BA80
330
747D
100
AcDbEntity
  8
細線
100
AcDbLine
 10
5267.673057123658
 20
4011.69605741873
 30
0.0
 11
7271.673057123658
 21
4011.69605741873
 31
0.0
  0
LINE
  5
1BA81
330
747D
100
AcDbEntity
  8
細線
100
AcDbLine
 10
5267.673057123658
 20
3946.69605741873
 30
0.0
 11
7271.673057123658
 21
3946.69605741873
 31
0.0
  0
LINE
  5
1BA82
330
747D
100
AcDbEntity
  8
細線
100
AcDbLine
 10
5267.673057123658
 20
3881.696057418731
 30
0.0
 11
7271.673057123658
 21
3881.696057418731
 31
0.0
  0
LINE
  5
1BA83
330
747D
100
AcDbEntity
  8
細線
100
AcDbLine
 10
5267.673057123658
 20
3816.696057418731
 30
0.0
 11
7271.673057123658
 21
3816.696057418731
 31
0.0
  0
LINE
  5
1BA84
330
747D
100
AcDbEntity
  8
細線
100
AcDbLine
 10
5267.673057123658
 20
3751.696057418732
 30
0.0
 11
7271.673057123658
 21
3751.696057418732
 31
0.0
  0
LINE
  5
1BA85
330
747D
100
AcDbEntity
  8
細線
100
AcDbLine
 10
5267.673057123658
 20
4271.69605741873
 30
0.0
 11
7271.673057123658
 21
4271.69605741873
 31
0.0
  0
LINE
  5
1BA86
330
747D
100
AcDbEntity
  8
細線
100
AcDbLine
 10
5267.673057123658
 20
4206.696057418731
 30
0.0
 11
7271.673057123658
 21
4206.696057418731
 31
0.0
  0
LINE
  5
1BA87
330
747D
100
AcDbEntity
  8
細線
100
AcDbLine
 10
5267.673057123658
 20
4141.69605741873
 30
0.0
 11
7271.673057123658
 21
4141.69605741873
 31
0.0
  0
LINE
  5
1BA88
330
747D
100
AcDbEntity
  8
部品1
100
AcDbLine
 10
5164.673057123662
 20
4481.696057418729
 30
0.0
 11
7374.673057123662
 21
4481.69605741873
 31
0.0
  0
LINE
  5
1BA89
330
747D
100
AcDbEntity
  8
破線
 48
5.0
100
AcDbLine
 10
5267.673057123658
 20
2256.696057418737
 30
0.0
 11
5219.673057123658
 21
2256.696057418737
 31
0.0
  0
LINE
  5
1BA8A
330
747D
100
AcDbEntity
  8
破線
 48
5.0
100
AcDbLine
 10
7319.673057123663
 20
2256.69605741873
 30
0.0
 11
7271.673057123658
 21
2256.69605741873
 31
0.0
  0
LINE
  5
1BA8B
330
747D
100
AcDbEntity
  8
破線
 48
5.0
100
AcDbLine
 10
7271.673057123658
 20
2506.696057418732
 30
0.0
 11
7271.673057123658
 21
2256.69605741873
 31
0.0
  0
LINE
  5
1BA8C
330
747D
100
AcDbEntity
  8
部品1
100
AcDbLine
 10
7271.673057123662
 20
4481.69605741873
 30
0.0
 11
7271.673057123658
 21
2506.696057418732
 31
0.0
  0
LINE
  5
1BA8D
330
747D
100
AcDbEntity
  8
破線
 48
5.0
100
AcDbLine
 10
5267.673057123662
 20
2506.696057418732
 30
0.0
 11
5267.673057123658
 21
2256.696057418737
 31
0.0
  0
LINE
  5
1BA8E
330
747D
100
AcDbEntity
  8
部品1
100
AcDbLine
 10
5267.673057123662
 20
4481.69605741873
 30
0.0
 11
5267.673057123662
 21
2506.696057418732
 31
0.0
  0
LINE
  5
1BA8F
330
747D
100
AcDbEntity
  8
破線
 48
5.0
100
AcDbLine
 10
5219.673057123658
 20
2156.696057418739
 30
0.0
 11
5164.673057123659
 21
2156.696057418739
 31
0.0
  0
LINE
  5
1BA90
330
747D
100
AcDbEntity
  8
破線
 48
5.0
100
AcDbLine
 10
7374.673057123658
 20
2156.696057418731
 30
0.0
 11
7319.673057123663
 21
2156.696057418731
 31
0.0
  0
LINE
  5
1BA91
330
747D
100
AcDbEntity
  8
破線
 48
5.0
100
AcDbLine
 10
5219.673057123662
 20
2506.696057418732
 30
0.0
 11
5219.673057123658
 21
2156.696057418731
 31
0.0
  0
LINE
  5
1BA92
330
747D
100
AcDbEntity
  8
破線
 48
5.0
100
AcDbLine
 10
7319.673057123658
 20
2506.696057418732
 30
0.0
 11
7319.673057123663
 21
2156.696057418731
 31
0.0
  0
TEXT
  5
1BA93
330
747D
100
AcDbEntity
  8
文字
 62
     7
 48
50.0
100
AcDbText
 10
14646.46056207479
 20
940.7285233138319
 30
0.0
 40
100.0
  1
～一般型・多雪地型～
  7
STYLE2
100
AcDbText
  0
LWPOLYLINE
  5
1BA94
330
747D
100
AcDbEntity
  8
部品1
100
AcDbPolyline
 90
        4
 70
     1
 43
0.0
 10
5887.937724009432
 20
6260.115657082006
 10
5887.937724009432
 20
6020.223335536472
 10
6651.40839023787
 20
6020.223335536472
 10
6651.40839023787
 20
6260.115657082006
  0
TEXT
  5
1BA95
330
747D
100
AcDbEntity
  8
部品1
100
AcDbText
 10
5975.773510876631
 20
6067.222127863481
 30
0.0
 40
135.0
  1
平面図
  7
MSGOTHIC
100
AcDbText
  0
LWPOLYLINE
  5
1BA96
330
747D
100
AcDbEntity
  8
部品1
100
AcDbPolyline
 90
        4
 70
     1
 43
0.0
 10
5887.937724009432
 20
1756.696057418739
 10
5887.937724009432
 20
1516.803735873205
 10
6651.40839023787
 20
1516.803735873205
 10
6651.40839023787
 20
1756.696057418739
  0
TEXT
  5
1BA97
330
747D
100
AcDbEntity
  8
部品1
100
AcDbText
 10
5976.379304785547
 20
1563.802528200215
 30
0.0
 40
135.0
  1
正面図
  7
MSGOTHIC
100
AcDbText
  0
LINE
  5
1BA99
330
747D
100
AcDbEntity
  8
破線
 48
5.0
100
AcDbLine
 10
5164.673057123662
 20
2406.696057418731
 30
0.0
 11
5164.673057123659
 21
2156.696057418731
 31
0.0
  0
LINE
  5
1BA9A
330
747D
100
AcDbEntity
  8
破線
 48
5.0
100
AcDbLine
 10
7374.673057123662
 20
2406.696057418731
 30
0.0
 11
7374.673057123662
 21
2156.696057418731
 31
0.0
  0
LINE
  5
1BAA1
330
747D
100
AcDbEntity
  8
部品1
100
AcDbLine
 10
7374.673057123662
 20
4740.696057418737
 30
0.0
 11
7374.673057123662
 21
2406.696057418731
 31
0.0
  0
LINE
  5
1BAA2
330
747D
100
AcDbEntity
  8
部品1
100
AcDbLine
 10
5219.673057123662
 20
4481.696057418729
 30
0.0
 11
5219.673057123662
 21
2506.696057418732
 31
0.0
  0
LINE
  5
1BAA3
330
747D
100
AcDbEntity
  8
部品1
100
AcDbLine
 10
7319.673057123663
 20
4481.69605741873
 30
0.0
 11
7319.673057123658
 21
2506.696057418732
 31
0.0
  0
LINE
  5
1BAA4
330
747D
100
AcDbEntity
  8
部品1
100
AcDbLine
 10
5164.673057123662
 20
4740.696057418737
 30
0.0
 11
5164.673057123662
 21
2406.696057418731
 31
0.0
  0
LINE
  5
1BAA5
330
747D
100
AcDbEntity
  8
部品1
100
AcDbLine
 10
5164.673057123662
 20
2506.696057418732
 30
0.0
 11
7374.673057123662
 21
2506.696057418732
 31
0.0
  0
LINE
  5
1BAA6
330
747D
100
AcDbEntity
  8
部品1
100
AcDbLine
 10
4286.444509552504
 20
2536.599867986396
 30
0.0
 11
4211.444509552504
 21
2406.696057418731
 31
0.0
  0
TEXT
  5
1BAA7
330
747D
100
AcDbEntity
  8
部品1
100
AcDbText
 10
4314.549451677278
 20
2442.802961024633
 30
0.0
 40
125.0
  1
G.L
  7
MSGOTHIC
100
AcDbText
  0
LINE
  5
1BAA8
330
747D
100
AcDbEntity
  8
部品1
100
AcDbLine
 10
4211.444509552504
 20
2406.696057418731
 30
0.0
 11
4136.444509552507
 21
2536.599867986396
 31
0.0
  0
LINE
  5
1BAA9
330
747D
100
AcDbEntity
  8
部品1
100
AcDbLine
 10
4136.444509552507
 20
2536.599867986396
 30
0.0
 11
4286.444509552504
 21
2536.599867986396
 31
0.0
  0
LINE
  5
1BAAA
330
747D
100
AcDbEntity
  8
Ｇ．Ｌ
100
AcDbLine
 10
4109.761915056707
 20
2406.696057418731
 30
0.0
 11
13630.79354554682
 21
2406.696057418731
 31
0.0
  0
LINE
  5
1BAAB
330
747D
100
AcDbEntity
  8
仕様書枠
  6
Continuous
 48
50.0
100
AcDbLine
 10
14251.2
 20
1268.764458705469
 30
0.0
 11
14251.2
 21
868.7644587054695
 31
0.0
  0
LINE
  5
1BAAC
330
747D
100
AcDbEntity
  8
仕様書枠
 48
50.0
100
AcDbLine
 10
13107.2
 20
868.7644587054695
 30
0.0
 11
14251.2
 21
868.7644587054695
 31
0.0
  0
TEXT
  5
1BAAD
330
747D
100
AcDbEntity
  8
文字
 62
     7
 48
50.0
100
AcDbText
 10
14524.131837222
 20
1100.322164996697
 30
0.0
 40
100.0
  1
NO.28      <縮尺> S=1/40
  7
STYLE2
100
AcDbText
  0
TEXT
  5
1BAAE
330
747D
100
AcDbEntity
  8
文字
 62
     7
 48
50.0
100
AcDbText
 10
13209.4053442172
 20
144.8588057819629
 30
0.0
 40
100.0
  1
○床面積 ： 5.81㎡(1.76坪) 　
  7
STYLE2
100
AcDbText
  0
TEXT
  5
1BAAF
330
747D
100
AcDbEntity
  8
文字
 62
     7
 48
50.0
100
AcDbText
 10
13209.4053442172
 20
297.3079829623712
 30
0.0
 40
100.0
  1
○有効開口寸法 ： 2004×1948(mm)
  7
STYLE2
100
AcDbText
  0
TEXT
  5
1BAB0
330
747D
100
AcDbEntity
  8
文字
 62
     7
 48
50.0
100
AcDbText
 10
13201.43669998441
 20
546.0385248085949
 30
0.0
 40
160.0
  1
機種名
  7
STYLE2
100
AcDbText
  0
TEXT
  5
1BAB1
330
747D
100
AcDbEntity
  8
文字
 62
     7
 48
50.0
100
AcDbText
 10
13162.9790565769
 20
963.85506613541
 30
0.0
 40
200.0
  1
外 形 図
  7
STYLE2
100
AcDbText
  0
LINE
  5
1BAB2
330
747D
100
AcDbEntity
  8
文字
 62
     7
 48
50.0
100
AcDbLine
 10
13187.2
 20
468.7644587054694
 30
0.0
 11
16227.2
 21
468.7644587054694
 31
0.0
  0
LINE
  5
1BAB3
330
747D
100
AcDbEntity
  8
仕様書枠
 48
50.0
100
AcDbLine
 10
13107.2
 20
1268.764458705469
 30
0.0
 11
16307.2
 21
1268.764458705469
 31
0.0
  0
LINE
  5
1BAB4
330
747D
100
AcDbEntity
  8
仕様書枠
 48
50.0
100
AcDbLine
 10
140.0000000000036
 20
68.76445870546945
 30
0.0
 11
16307.2
 21
68.76445870546945
 31
0.0
  0
LINE
  5
1BAB5
330
747D
100
AcDbEntity
  8
仕様書枠
 48
50.0
100
AcDbLine
 10
16307.2
 20
1268.764458705469
 30
0.0
 11
16307.2
 21
68.76445870546945
 31
0.0
  0
LINE
  5
1BAB6
330
747D
100
AcDbEntity
  8
仕様書枠
  6
Continuous
 48
50.0
100
AcDbLine
 10
13107.2
 20
1268.764458705469
 30
0.0
 11
13107.2
 21
68.76445870546945
 31
0.0
  0
LINE
  5
1BED7
330
747D
100
AcDbEntity
  8
仕様書枠
 48
50.0
100
AcDbLine
 10
16307.2
 20
8728.364458705469
 30
0.0
 11
13127.2
 21
8728.364458705469
 31
0.0
  0
TEXT
  5
1BEDB
330
747D
100
AcDbEntity
  8
文字
 62
     7
 48
50.0
100
AcDbText
 10
15022.63965474517
 20
10628.77820458919
 30
0.0
 40
100.0
  1
F12         1.0,1.2
  7
STYLE1
100
AcDbText
  0
TEXT
  5
1BEDE
330
747D
100
AcDbEntity
  8
文字
 62
     7
 48
50.0
100
AcDbText
 10
15022.63965474516
 20
9098.778204589191
 30
0.0
 40
100.0
  1
F12            0.7
  7
STYLE1
100
AcDbText
  0
ENDSEC
  0
SECTION
  2
OBJECTS
  0
DICTIONARY
  5
7471
330
0
100
AcDbDictionary
281
     1
  3
ACAD_COLOR
350
16605
  3
ACAD_GROUP
350
7472
  3
ACAD_LAYOUT
350
16606
  3
ACAD_MATERIAL
350
16604
  3
ACAD_MLINESTYLE
350
7473
  3
ACAD_PLOTSETTINGS
350
16607
  3
ACAD_PLOTSTYLENAME
350
16602
  3
ACDBHEADERROUNDTRIPXREC
350
1C05C
  3
AcDbVariableDictionary
350
16B5C
  3
CONTENTDICTIONARY
350
E71C
  3
DRAWINGVARIABLESDICT
350
F3B9
  0
DICTIONARY
  5
16E8F
330
7467
100
AcDbDictionary
280
     1
281
     1
  3
ACAD_LAYERSTATES
360
16E90
  0
DICTIONARY
  5
16605
102
{ACAD_REACTORS
330
7471
102
}
330
7471
100
AcDbDictionary
281
     1
  0
DICTIONARY
  5
7472
102
{ACAD_REACTORS
330
7471
102
}
330
7471
100
AcDbDictionary
281
     1
  3
*A1
350
19249
  3
*A10
350
1A813
  3
*A2
350
1B19B
  3
*A3
350
1B5D6
  3
*A4
350
19F5A
  3
*A5
350
19F5B
  3
*A6
350
19F5C
  3
*A7
350
19F5D
  3
*A8
350
19F5E
  3
*A9
350
1A3B9
  0
DICTIONARY
  5
16606
102
{ACAD_REACTORS
330
7471
102
}
330
7471
100
AcDbDictionary
281
     1
  3
Model
350
16608
  3
レイアウト1
350
16609
  0
DICTIONARY
  5
16604
102
{ACAD_REACTORS
330
7471
102
}
330
7471
100
AcDbDictionary
281
     1
  0
DICTIONARY
  5
7473
102
{ACAD_REACTORS
330
7471
102
}
330
7471
100
AcDbDictionary
281
     1
  3
STANDARD
350
7480
  0
DICTIONARY
  5
16607
102
{ACAD_REACTORS
330
7471
102
}
330
7471
100
AcDbDictionary
281
     1
  0
ACDBDICTIONARYWDFLT
  5
16602
102
{ACAD_REACTORS
330
7471
102
}
330
7471
100
AcDbDictionary
281
     1
  3
Normal
350
16603
100
AcDbDictionaryWithDefault
340
16603
  0
DICTIONARY
  5
1C05C
102
{ACAD_REACTORS
330
7471
102
}
330
7471
100
AcDbDictionary
281
     1
  3
COLORDICT
350
1C05E
  3
MATERIALDICT
350
1C05D
  0
DICTIONARY
  5
16B5C
102
{ACAD_REACTORS
330
7471
102
}
330
7471
100
AcDbDictionary
281
     1
  3
DIMASSOC
350
16B5D
  3
PROJECTNAME
350
16B5E
  0
DICTIONARY
  5
E71C
102
{ACAD_REACTORS
330
7471
102
}
330
7471
100
AcDbDictionary
281
     1
  0
DICTIONARY
  5
F3B9
102
{ACAD_REACTORS
330
7471
102
}
330
7471
100
AcDbDictionary
281
     1
1001
DRAWINGVARIABLESXDATA
1000
POLARMODE
1000
1
  0
DICTIONARY
  5
16E90
102
{ACAD_REACTORS
330
16E8F
102
}
330
16E8F
100
AcDbDictionary
281
     1
  0
GROUP
  5
19249
102
{ACAD_REACTORS
330
7472
102
}
330
7472
100
AcDbGroup
300

 70
     1
 71
     1
  0
GROUP
  5
1A813
102
{ACAD_REACTORS
330
7472
102
}
330
7472
100
AcDbGroup
300

 70
     1
 71
     1
  0
GROUP
  5
1B19B
102
{ACAD_REACTORS
330
7472
102
}
330
7472
100
AcDbGroup
300

 70
     1
 71
     1
  0
GROUP
  5
1B5D6
102
{ACAD_REACTORS
330
7472
102
}
330
7472
100
AcDbGroup
300

 70
     1
 71
     1
  0
GROUP
  5
19F5A
102
{ACAD_REACTORS
330
7472
102
}
330
7472
100
AcDbGroup
300

 70
     1
 71
     1
  0
GROUP
  5
19F5B
102
{ACAD_REACTORS
330
7472
102
}
330
7472
100
AcDbGroup
300

 70
     1
 71
     1
  0
GROUP
  5
19F5C
102
{ACAD_REACTORS
330
7472
102
}
330
7472
100
AcDbGroup
300

 70
     1
 71
     1
  0
GROUP
  5
19F5D
102
{ACAD_REACTORS
330
7472
102
}
330
7472
100
AcDbGroup
300

 70
     1
 71
     1
  0
GROUP
  5
19F5E
102
{ACAD_REACTORS
330
7472
102
}
330
7472
100
AcDbGroup
300

 70
     1
 71
     1
  0
GROUP
  5
1A3B9
102
{ACAD_REACTORS
330
7472
102
}
330
7472
100
AcDbGroup
300

 70
     1
 71
     1
  0
LAYOUT
  5
16608
102
{ACAD_XDICTIONARY
360
1C05F
102
}
102
{ACAD_REACTORS
330
16606
102
}
330
16606
100
AcDbPlotSettings
  1

  2
Canon iR C3880/C4580 LIPSLX
  4
A3
  6

 40
5.873749732971191
 41
5.873747825622558
 42
5.873748779296875
 43
5.873748779296875
 44
296.9259948730469
 45
419.9466552734374
 46
0.0
 47
0.0
 48
0.0
 49
0.0
140
0.0
141
0.0
142
1.0
143
40.0
 70
 11952
 72
     1
 73
     1
 74
     2
  7
inaba.ctb
 75
    24
147
0.025
148
0.0
149
0.0
100
AcDbLayout
  1
Model
 70
     1
 71
     0
 10
0.0
 20
0.0
 11
12.0
 21
9.0
 12
0.0
 22
0.0
 32
0.0
 14
0.0
 24
0.0
 34
0.0
 15
0.0
 25
0.0
 35
0.0
146
0.0
 13
0.0
 23
0.0
 33
0.0
 16
1.0
 26
0.0
 36
0.0
 17
0.0
 27
1.0
 37
0.0
 76
     0
330
747D
  0
LAYOUT
  5
16609
102
{ACAD_XDICTIONARY
360
1C061
102
}
102
{ACAD_REACTORS
330
16606
102
}
330
16606
100
AcDbPlotSettings
  1

  2
EPSON LP-7000C
  4

  6

 40
0.0
 41
0.0
 42
0.0
 43
0.0
 44
0.0
 45
0.0
 46
0.0
 47
0.0
 48
0.0
 49
0.0
140
0.0
141
0.0
142
1.0
143
1.0
 70
   688
 72
     0
 73
     0
 74
     5
  7
inaba.ctb
 75
    16
147
1.0
148
0.0
149
0.0
100
AcDbLayout
  1
レイアウト1
 70
     0
 71
     1
 10
0.0
 20
0.0
 11
420.0
 21
297.0
 12
0.0
 22
0.0
 32
0.0
 14
1.000000000000000E+20
 24
1.000000000000000E+20
 34
1.000000000000000E+20
 15
-1.000000000000000E+20
 25
-1.000000000000000E+20
 35
-1.000000000000000E+20
146
0.0
 13
0.0
 23
0.0
 33
0.0
 16
1.0
 26
0.0
 36
0.0
 17
0.0
 27
1.0
 37
0.0
 76
     0
330
747A
  0
MLINESTYLE
  5
7480
102
{ACAD_REACTORS
330
7473
102
}
330
7473
100
AcDbMlineStyle
  2
STANDARD
 70
     0
  3

 62
     0
 51
90.0
 52
90.0
 71
     2
 49
0.5
 62
   256
  6
BYLAYER
 49
-0.5
 62
   256
  6
BYLAYER
  0
ACDBPLACEHOLDER
  5
16603
102
{ACAD_REACTORS
330
16602
102
}
330
16602
  0
XRECORD
  5
1C05E
102
{ACAD_REACTORS
330
1C05C
102
}
330
1C05C
100
AcDbXrecord
280
     1
340
16605
  0
XRECORD
  5
1C05D
102
{ACAD_REACTORS
330
1C05C
102
}
330
1C05C
100
AcDbXrecord
280
     1
340
16604
  0
DICTIONARYVAR
  5
16B5D
102
{ACAD_REACTORS
330
16B5C
102
}
330
16B5C
100
DictionaryVariables
280
     0
  1
1
  0
DICTIONARYVAR
  5
16B5E
102
{ACAD_REACTORS
330
16B5C
102
}
330
16B5C
100
DictionaryVariables
280
     0
  1

  0
DICTIONARY
  5
1C05F
330
16608
100
AcDbDictionary
280
     1
281
     1
  3
ACAD_XREC_ROUNDTRIP
360
1C060
  0
DICTIONARY
  5
1C061
330
16609
100
AcDbDictionary
280
     1
281
     1
  3
ACAD_XREC_ROUNDTRIP
360
1C062
  0
XRECORD
  5
1C060
102
{ACAD_REACTORS
330
1C05F
102
}
330
1C05F
100
AcDbXrecord
280
     1
102
SHADEPLOT
 70
     0
102
SHADEPLOTRESLEVEL
 70
     2
102
SHADEPLOTCUSTOMDPI
 70
   300
  0
XRECORD
  5
1C062
102
{ACAD_REACTORS
330
1C061
102
}
330
1C061
100
AcDbXrecord
280
     1
102
SHADEPLOT
 70
     0
102
SHADEPLOTRESLEVEL
 70
     2
102
SHADEPLOTCUSTOMDPI
 70
   300
  0
ENDSEC
  0
EOF
