  0
SECTION
  2
HEADER
  9
$ACADVER
  1
AC1015
  9
$ACADMAINTVER
 70
    20
  9
$DWGCODEPAGE
  3
ANSI_932
  9
$INSBASE
 10
0.0
 20
0.0
 30
0.0
  9
$EXTMIN
 10
139.9999999999995
 20
-0.0000000000000909
 30
0.0
  9
$EXTMAX
 10
16307.2
 20
11409.6
 30
0.0
  9
$LIMMIN
 10
0.0
 20
0.0
  9
$LIMMAX
 10
16800.0
 20
11880.0
  9
$ORTHOMODE
 70
     0
  9
$REGENMODE
 70
     1
  9
$FILLMODE
 70
     1
  9
$QTEXTMODE
 70
     0
  9
$MIRRTEXT
 70
     1
  9
$LTSCALE
 40
20.0
  9
$ATTMODE
 70
     1
  9
$TEXTSIZE
 40
4.0
  9
$TRACEWID
 40
1.0
  9
$TEXTSTYLE
  7
MSPゴシック
  9
$CLAYER
  8
寸法
  9
$CELTYPE
  6
BYLAYER
  9
$CECOLOR
 62
   256
  9
$CELTSCALE
 40
50.0
  9
$DISPSILH
 70
     0
  9
$DIMSCALE
 40
40.0
  9
$DIMASZ
 40
2.5
  9
$DIMEXO
 40
0.5
  9
$DIMDLI
 40
7.0
  9
$DIMRND
 40
0.0
  9
$DIMDLE
 40
0.0
  9
$DIMEXE
 40
1.5
  9
$DIMTP
 40
0.0
  9
$DIMTM
 40
0.0
  9
$DIMTXT
 40
3.0
  9
$DIMCEN
 40
0.0
  9
$DIMTSZ
 40
0.0
  9
$DIMTOL
 70
     0
  9
$DIMLIM
 70
     0
  9
$DIMTIH
 70
     0
  9
$DIMTOH
 70
     0
  9
$DIMSE1
 70
     0
  9
$DIMSE2
 70
     0
  9
$DIMTAD
 70
     3
  9
$DIMZIN
 70
     8
  9
$DIMBLK
  1

  9
$DIMASO
 70
     1
  9
$DIMSHO
 70
     1
  9
$DIMPOST
  1

  9
$DIMAPOST
  1

  9
$DIMALT
 70
     0
  9
$DIMALTD
 70
     2
  9
$DIMALTF
 40
0.0394
  9
$DIMLFAC
 40
1.0
  9
$DIMTOFL
 70
     1
  9
$DIMTVP
 40
0.0
  9
$DIMTIX
 70
     1
  9
$DIMSOXD
 70
     0
  9
$DIMSAH
 70
     1
  9
$DIMBLK1
  1
DOTSMALL
  9
$DIMBLK2
  1
DOTSMALL
  9
$DIMSTYLE
  2
INABA_S40G
  9
$DIMCLRD
 70
     0
  9
$DIMCLRE
 70
     0
  9
$DIMCLRT
 70
     7
  9
$DIMTFAC
 40
1.0
  9
$DIMGAP
 40
1.0
  9
$DIMJUST
 70
     0
  9
$DIMSD1
 70
     0
  9
$DIMSD2
 70
     0
  9
$DIMTOLJ
 70
     1
  9
$DIMTZIN
 70
     0
  9
$DIMALTZ
 70
     0
  9
$DIMALTTZ
 70
     0
  9
$DIMUPT
 70
     0
  9
$DIMDEC
 70
     1
  9
$DIMTDEC
 70
     4
  9
$DIMALTU
 70
     2
  9
$DIMALTTD
 70
     2
  9
$DIMTXSTY
  7
STYLE1
  9
$DIMAUNIT
 70
     0
  9
$DIMADEC
 70
     0
  9
$DIMALTRND
 40
0.0
  9
$DIMAZIN
 70
     0
  9
$DIMDSEP
 70
    46
  9
$DIMATFIT
 70
     3
  9
$DIMFRAC
 70
     0
  9
$DIMLDRBLK
  1

  9
$DIMLUNIT
 70
     2
  9
$DIMLWD
 70
    -2
  9
$DIMLWE
 70
    -2
  9
$DIMTMOVE
 70
     2
  9
$LUNITS
 70
     2
  9
$LUPREC
 70
     1
  9
$SKETCHINC
 40
1.0
  9
$FILLETRAD
 40
3.0
  9
$AUNITS
 70
     0
  9
$AUPREC
 70
     0
  9
$MENU
  1
acad
  9
$ELEVATION
 40
0.0
  9
$PELEVATION
 40
0.0
  9
$THICKNESS
 40
0.0
  9
$LIMCHECK
 70
     0
  9
$CHAMFERA
 40
0.0
  9
$CHAMFERB
 40
0.0
  9
$CHAMFERC
 40
0.0
  9
$CHAMFERD
 40
0.0
  9
$SKPOLY
 70
     0
  9
$TDCREATE
 40
2451368.612993866
  9
$TDUCREATE
 40
2451368.237993866
  9
$TDUPDATE
 40
2455569.643890150
  9
$TDUUPDATE
 40
2455569.268890151
  9
$TDINDWG
 40
0.8706900116
  9
$TDUSRTIMER
 40
0.8706900116
  9
$USRTIMER
 70
     1
  9
$ANGBASE
 50
0.0
  9
$ANGDIR
 70
     0
  9
$PDMODE
 70
     3
  9
$PDSIZE
 40
2.0
  9
$PLINEWID
 40
0.0
  9
$SPLFRAME
 70
     0
  9
$SPLINETYPE
 70
     6
  9
$SPLINESEGS
 70
     8
  9
$HANDSEED
  5
1A6CF
  9
$SURFTAB1
 70
     6
  9
$SURFTAB2
 70
     6
  9
$SURFTYPE
 70
     6
  9
$SURFU
 70
     6
  9
$SURFV
 70
     6
  9
$UCSBASE
  2

  9
$UCSNAME
  2

  9
$UCSORG
 10
0.0
 20
0.0
 30
0.0
  9
$UCSXDIR
 10
1.0
 20
0.0
 30
0.0
  9
$UCSYDIR
 10
0.0
 20
1.0
 30
0.0
  9
$UCSORTHOREF
  2

  9
$UCSORTHOVIEW
 70
     0
  9
$UCSORGTOP
 10
0.0
 20
0.0
 30
0.0
  9
$UCSORGBOTTOM
 10
0.0
 20
0.0
 30
0.0
  9
$UCSORGLEFT
 10
0.0
 20
0.0
 30
0.0
  9
$UCSORGRIGHT
 10
0.0
 20
0.0
 30
0.0
  9
$UCSORGFRONT
 10
0.0
 20
0.0
 30
0.0
  9
$UCSORGBACK
 10
0.0
 20
0.0
 30
0.0
  9
$PUCSBASE
  2

  9
$PUCSNAME
  2

  9
$PUCSORG
 10
0.0
 20
0.0
 30
0.0
  9
$PUCSXDIR
 10
1.0
 20
0.0
 30
0.0
  9
$PUCSYDIR
 10
0.0
 20
1.0
 30
0.0
  9
$PUCSORTHOREF
  2

  9
$PUCSORTHOVIEW
 70
     0
  9
$PUCSORGTOP
 10
0.0
 20
0.0
 30
0.0
  9
$PUCSORGBOTTOM
 10
0.0
 20
0.0
 30
0.0
  9
$PUCSORGLEFT
 10
0.0
 20
0.0
 30
0.0
  9
$PUCSORGRIGHT
 10
0.0
 20
0.0
 30
0.0
  9
$PUCSORGFRONT
 10
0.0
 20
0.0
 30
0.0
  9
$PUCSORGBACK
 10
0.0
 20
0.0
 30
0.0
  9
$USERI1
 70
     0
  9
$USERI2
 70
     0
  9
$USERI3
 70
     0
  9
$USERI4
 70
     0
  9
$USERI5
 70
     0
  9
$USERR1
 40
0.0
  9
$USERR2
 40
0.0
  9
$USERR3
 40
0.0
  9
$USERR4
 40
0.0
  9
$USERR5
 40
0.0
  9
$WORLDVIEW
 70
     1
  9
$SHADEDGE
 70
     3
  9
$SHADEDIF
 70
    70
  9
$TILEMODE
 70
     1
  9
$MAXACTVP
 70
    16
  9
$PINSBASE
 10
0.0
 20
0.0
 30
0.0
  9
$PLIMCHECK
 70
     0
  9
$PEXTMIN
 10
1.000000000000000E+20
 20
1.000000000000000E+20
 30
1.000000000000000E+20
  9
$PEXTMAX
 10
-1.000000000000000E+20
 20
-1.000000000000000E+20
 30
-1.000000000000000E+20
  9
$PLIMMIN
 10
0.0
 20
0.0
  9
$PLIMMAX
 10
420.0
 20
297.0
  9
$UNITMODE
 70
     0
  9
$VISRETAIN
 70
     0
  9
$PLINEGEN
 70
     0
  9
$PSLTSCALE
 70
     0
  9
$TREEDEPTH
 70
  3020
  9
$CMLSTYLE
  2
STANDARD
  9
$CMLJUST
 70
     0
  9
$CMLSCALE
 40
1.0
  9
$PROXYGRAPHICS
 70
     1
  9
$MEASUREMENT
 70
     1
  9
$CELWEIGHT
370
    -1
  9
$ENDCAPS
280
     0
  9
$JOINSTYLE
280
     0
  9
$LWDISPLAY
290
     0
  9
$INSUNITS
 70
     0
  9
$HYPERLINKBASE
  1

  9
$STYLESHEET
  1
inaba.ctb
  9
$XEDIT
290
     1
  9
$CEPSNTYPE
380
     0
  9
$PSTYLEMODE
290
     1
  9
$FINGERPRINTGUID
  2
{0E4A3AB3-ADAA-44DC-861C-9525B65BB1EC}
  9
$VERSIONGUID
  2
{44A98F80-0F36-4FF1-A6EB-F0D2E5E5EF20}
  9
$EXTNAMES
290
     1
  9
$PSVPSCALE
 40
0.0
  9
$OLESTARTUP
290
     0
  0
ENDSEC
  0
SECTION
  2
CLASSES
  0
CLASS
  1
ACDBDICTIONARYWDFLT
  2
AcDbDictionaryWithDefault
  3
ObjectDBX Classes
 90
        0
280
     0
281
     0
  0
CLASS
  1
DICTIONARYVAR
  2
AcDbDictionaryVar
  3
ObjectDBX Classes
 90
        0
280
     0
281
     0
  0
CLASS
  1
ACDBPLACEHOLDER
  2
AcDbPlaceHolder
  3
ObjectDBX Classes
 90
        0
280
     0
281
     0
  0
CLASS
  1
LAYOUT
  2
AcDbLayout
  3
ObjectDBX Classes
 90
        0
280
     0
281
     0
  0
ENDSEC
  0
SECTION
  2
TABLES
  0
TABLE
  2
VPORT
  5
746D
330
0
100
AcDbSymbolTable
 70
     2
  0
VPORT
  5
1A6C7
330
746D
100
AcDbSymbolTableRecord
100
AcDbViewportTableRecord
  2
*Active
 70
     0
 10
0.0
 20
0.0
 11
1.0
 21
1.0
 12
11720.1104147939
 22
5704.776353418473
 13
0.0
 23
0.0
 14
10.0
 24
10.0
 15
10.0
 25
10.0
 16
0.0
 26
0.0
 36
1.0
 17
0.0
 27
0.0
 37
0.0
 40
11513.4607918395
 41
2.234800838574423
 42
50.0
 43
0.0
 44
0.0
 50
0.0
 51
0.0
 71
     0
 72
     0
 73
     1
 74
     0
 75
     0
 76
     0
 77
     0
 78
     0
281
     0
 65
     1
110
0.0
120
0.0
130
0.0
111
1.0
121
0.0
131
0.0
112
0.0
122
1.0
132
0.0
 79
     0
146
0.0
  0
ENDTAB
  0
TABLE
  2
LTYPE
  5
746A
330
0
100
AcDbSymbolTable
 70
     3
  0
LTYPE
  5
7477
330
746A
100
AcDbSymbolTableRecord
100
AcDbLinetypeTableRecord
  2
BYBLOCK
 70
     0
  3

 72
    65
 73
     0
 40
0.0
  0
LTYPE
  5
7478
330
746A
100
AcDbSymbolTableRecord
100
AcDbLinetypeTableRecord
  2
BYLAYER
 70
     0
  3

 72
    65
 73
     0
 40
0.0
  0
LTYPE
  5
7479
330
746A
100
AcDbSymbolTableRecord
100
AcDbLinetypeTableRecord
  2
CONTINUOUS
 70
     0
  3
Solid line
 72
    65
 73
     0
 40
0.0
  0
LTYPE
  5
781A
330
746A
100
AcDbSymbolTableRecord
100
AcDbLinetypeTableRecord
  2
HIDDEN
 70
     0
  3
__ __ __ __ __ __ __ __ __ __ __ __ __ __ __ __
 72
    65
 73
     2
 40
0.375
 49
0.25
 74
     0
 49
-0.125
 74
     0
  0
LTYPE
  5
781B
330
746A
100
AcDbSymbolTableRecord
100
AcDbLinetypeTableRecord
  2
PHANTOM
 70
     0
  3
______  __  __  ______  __  __  ______  __  __ 
 72
    65
 73
     6
 40
2.5
 49
1.25
 74
     0
 49
-0.25
 74
     0
 49
0.25
 74
     0
 49
-0.25
 74
     0
 49
0.25
 74
     0
 49
-0.25
 74
     0
  0
ENDTAB
  0
TABLE
  2
LAYER
  5
7467
102
{ACAD_XDICTIONARY
360
1926C
102
}
330
0
100
AcDbSymbolTable
 70
    10
  0
LAYER
  5
7474
330
7467
100
AcDbSymbolTableRecord
100
AcDbLayerTableRecord
  2
0
 70
     0
 62
     7
  6
CONTINUOUS
370
    -3
390
17AE0
  0
LAYER
  5
DEB3
330
7467
100
AcDbSymbolTableRecord
100
AcDbLayerTableRecord
  2
寸法
 70
     0
 62
     4
  6
CONTINUOUS
370
    -3
390
17AE0
  0
LAYER
  5
DEB4
330
7467
100
AcDbSymbolTableRecord
100
AcDbLayerTableRecord
  2
部品1
 70
     0
 62
     7
  6
CONTINUOUS
370
    -3
390
17AE0
  0
LAYER
  5
DEB5
330
7467
100
AcDbSymbolTableRecord
100
AcDbLayerTableRecord
  2
補助
 70
     0
 62
    -1
  6
CONTINUOUS
370
    -3
390
17AE0
  0
LAYER
  5
DEB6
330
7467
100
AcDbSymbolTableRecord
100
AcDbLayerTableRecord
  2
文字
 70
     0
 62
     7
  6
CONTINUOUS
370
    -3
390
17AE0
  0
LAYER
  5
F255
330
7467
100
AcDbSymbolTableRecord
100
AcDbLayerTableRecord
  2
DEFPOINTS
 70
     0
 62
     7
  6
CONTINUOUS
290
     0
370
    -3
390
17AE0
  0
LAYER
  5
10B54
330
7467
100
AcDbSymbolTableRecord
100
AcDbLayerTableRecord
  2
仕様書枠
 70
     0
 62
   230
  6
CONTINUOUS
370
    -3
390
17AE0
  0
LAYER
  5
11729
330
7467
100
AcDbSymbolTableRecord
100
AcDbLayerTableRecord
  2
Ｇ．Ｌ
 70
     0
 62
    30
  6
CONTINUOUS
370
    -3
390
17AE0
  0
LAYER
  5
1173F
330
7467
100
AcDbSymbolTableRecord
100
AcDbLayerTableRecord
  2
細線
 70
     0
 62
     5
  6
CONTINUOUS
370
    -3
390
17AE0
  0
LAYER
  5
142E2
330
7467
100
AcDbSymbolTableRecord
100
AcDbLayerTableRecord
  2
破線
 70
     0
 62
     2
  6
HIDDEN
370
    -3
390
17AE0
  0
ENDTAB
  0
TABLE
  2
STYLE
  5
7468
330
0
100
AcDbSymbolTable
 70
     7
  0
STYLE
  5
7475
330
7468
100
AcDbSymbolTableRecord
100
AcDbTextStyleTableRecord
  2
STANDARD
 70
     0
 40
0.0
 41
1.0
 50
0.0
 71
     0
 42
4.0
  3
txt
  4
C:\AutoCAD LT\bigfont.shx
  0
STYLE
  5
763C
330
7468
100
AcDbSymbolTableRecord
100
AcDbTextStyleTableRecord
  2
MSMINCHO
 70
     0
 40
0.0
 41
1.0
 50
0.0
 71
     0
 42
1.199999999999999
  3
MS PMincho.ttf
  4

1001
ACAD
1000
MS PMincho
1071
    32786
  0
STYLE
  5
F706
330
7468
100
AcDbSymbolTableRecord
100
AcDbTextStyleTableRecord
  2
STYLE1
 70
     0
 40
0.0
 41
1.0
 50
0.0
 71
     0
 42
4.0
  3
isocp.shx
  4
bigfont.shx
  0
STYLE
  5
103BF
330
7468
100
AcDbSymbolTableRecord
100
AcDbTextStyleTableRecord
  2
STYLE2
 70
     0
 40
0.0
 41
1.0
 50
0.0
 71
     0
 42
100.0
  3
MS PGothic.ttf
  4

1001
ACAD
1000
MS PGothic
1071
    32818
  0
STYLE
  5
10BAA
330
7468
100
AcDbSymbolTableRecord
100
AcDbTextStyleTableRecord
  2
STYLE3
 70
     0
 40
0.0
 41
1.0
 50
0.0
 71
     0
 42
100.0
  3
DFPGothic-EB.ttf
  4

1001
ACAD
1000
DFPGothic-EB
1071
    32818
  0
STYLE
  5
11A15
330
7468
100
AcDbSymbolTableRecord
100
AcDbTextStyleTableRecord
  2
MSGOTHIC
 70
     0
 40
0.0
 41
1.0
 50
0.0
 71
     0
 42
3.5
  3
MS PGothic.ttf
  4

1001
ACAD
1000
MS PGothic
1071
    32818
  0
STYLE
  5
13E96
330
7468
100
AcDbSymbolTableRecord
100
AcDbTextStyleTableRecord
  2
MSPゴシック
 70
     0
 40
0.0
 41
1.0
 50
0.0
 71
     0
 42
4.0
  3
MS PGothic.ttf
  4

1001
ACAD
1000
MS PGothic
1071
    32818
  0
ENDTAB
  0
TABLE
  2
VIEW
  5
746B
330
0
100
AcDbSymbolTable
 70
     0
  0
ENDTAB
  0
TABLE
  2
UCS
  5
746C
330
0
100
AcDbSymbolTable
 70
     0
  0
ENDTAB
  0
TABLE
  2
APPID
  5
746E
330
0
100
AcDbSymbolTable
 70
     6
  0
APPID
  5
7476
330
746E
100
AcDbSymbolTableRecord
100
AcDbRegAppTableRecord
  2
ACAD
 70
     0
  0
APPID
  5
DEA9
330
746E
100
AcDbSymbolTableRecord
100
AcDbRegAppTableRecord
  2
CONTENTBLOCKICON
 70
     0
  0
APPID
  5
DEAA
330
746E
100
AcDbSymbolTableRecord
100
AcDbRegAppTableRecord
  2
CONTENTBLOCKDESCRIPTION
 70
     0
  0
APPID
  5
E71D
330
746E
100
AcDbSymbolTableRecord
100
AcDbRegAppTableRecord
  2
CONTENTTABDATA
 70
     0
  0
APPID
  5
E71E
330
746E
100
AcDbSymbolTableRecord
100
AcDbRegAppTableRecord
  2
CONTENTCURRENTTAB
 70
     0
  0
APPID
  5
F3BA
330
746E
100
AcDbSymbolTableRecord
100
AcDbRegAppTableRecord
  2
DRAWINGVARIABLESXDATA
 70
     0
  0
ENDTAB
  0
TABLE
  2
DIMSTYLE
  5
746F
330
0
100
AcDbSymbolTable
 70
     1
100
AcDbDimStyleTable
 71
     1
340
F71F
  0
DIMSTYLE
105
F71F
102
{ACAD_REACTORS
330
162CD
330
162CE
330
162CF
330
162D0
330
162E4
330
162E7
330
162EA
330
162EB
330
16301
330
16302
330
1631F
330
16320
330
16333
330
1659C
330
1659A
330
165E9
330
166DD
330
16913
330
17BC4
330
17BC3
330
17B87
330
17B88
330
17B86
330
17C47
330
17C46
330
19538
330
19547
330
19555
330
19556
330
19557
330
1955B
330
1958B
330
1958C
330
1958D
330
1A0CC
330
1A0CB
330
1A0CA
330
1A0C9
330
1A341
330
1A342
330
1A343
102
}
330
746F
100
AcDbSymbolTableRecord
100
AcDbDimStyleTableRecord
  2
INABA_S40G
 70
     0
 40
40.0
 41
2.5
 42
0.5
 43
7.0
 44
1.5
 73
     0
 74
     0
 77
     3
 78
     8
140
3.0
141
0.0
143
0.0394
147
1.0
172
     1
173
     1
174
     1
178
     7
271
     1
340
F706
341
F770
343
F770
344
F770
  0
ENDTAB
  0
TABLE
  2
BLOCK_RECORD
  5
7466
330
0
100
AcDbSymbolTable
 70
    42
  0
BLOCK_RECORD
  5
747D
330
7466
100
AcDbSymbolTableRecord
100
AcDbBlockTableRecord
  2
*MODEL_SPACE
340
17AE5
  0
BLOCK_RECORD
  5
747A
330
7466
100
AcDbSymbolTableRecord
100
AcDbBlockTableRecord
  2
*PAPER_SPACE
340
17AE6
  0
BLOCK_RECORD
  5
F770
330
7466
100
AcDbSymbolTableRecord
100
AcDbBlockTableRecord
  2
_DOTSMALL
340
0
102
{BLKREFS
331
18D8B
331
18D8C
331
18D94
331
18D95
331
18D9F
331
18DA0
331
18DA6
331
18DA7
331
18DB1
331
18DB2
331
18DBA
331
18DBB
331
18DC3
331
18DC4
331
18DCB
331
18DCC
331
18DD6
331
18DD7
331
18DE0
331
18DE1
331
18DEB
331
18DEC
331
18DF6
331
18DF7
331
18E00
331
18E01
331
18E0B
331
18E0C
331
18E14
331
18E15
331
18E1F
331
18E20
331
18E2B
331
18E2C
331
18E36
331
18E37
331
18E40
331
18E41
331
18E51
331
18E52
331
18E5A
331
18E5B
331
18E65
331
18E66
331
18E70
331
18E71
331
18E79
331
18E7A
331
18F58
331
18F59
331
19C19
331
19C1A
331
19C22
331
19C23
331
19C2B
331
19C2C
331
19C36
331
19C37
331
19C4A
331
19C4B
331
19C5D
331
19C5E
331
19C67
331
19C68
331
1A1A8
331
1A1A9
331
1A1B1
331
1A1B2
331
1A1BA
331
1A1BB
331
1A1C5
331
1A1C6
331
1A436
331
1A437
331
1A4DC
331
1A4DD
331
1A4E1
331
1A4E2
331
1A68A
331
1A68B
331
1A693
331
1A694
331
1A6AA
331
1A6AB
331
1A6B3
331
1A6B4
102
}
  0
BLOCK_RECORD
  5
16338
330
7466
100
AcDbSymbolTableRecord
100
AcDbBlockTableRecord
  2
*D1
340
0
  0
BLOCK_RECORD
  5
16344
330
7466
100
AcDbSymbolTableRecord
100
AcDbBlockTableRecord
  2
*D2
340
0
  0
BLOCK_RECORD
  5
16352
330
7466
100
AcDbSymbolTableRecord
100
AcDbBlockTableRecord
  2
*D3
340
0
  0
BLOCK_RECORD
  5
16360
330
7466
100
AcDbSymbolTableRecord
100
AcDbBlockTableRecord
  2
*D4
340
0
  0
BLOCK_RECORD
  5
16384
330
7466
100
AcDbSymbolTableRecord
100
AcDbBlockTableRecord
  2
*D5
340
0
  0
BLOCK_RECORD
  5
1638F
330
7466
100
AcDbSymbolTableRecord
100
AcDbBlockTableRecord
  2
*D6
340
0
  0
BLOCK_RECORD
  5
1639B
330
7466
100
AcDbSymbolTableRecord
100
AcDbBlockTableRecord
  2
*D7
340
0
  0
BLOCK_RECORD
  5
163A9
330
7466
100
AcDbSymbolTableRecord
100
AcDbBlockTableRecord
  2
*D8
340
0
  0
BLOCK_RECORD
  5
163B8
330
7466
100
AcDbSymbolTableRecord
100
AcDbBlockTableRecord
  2
*D9
340
0
  0
BLOCK_RECORD
  5
163C7
330
7466
100
AcDbSymbolTableRecord
100
AcDbBlockTableRecord
  2
*D10
340
0
  0
BLOCK_RECORD
  5
163E1
330
7466
100
AcDbSymbolTableRecord
100
AcDbBlockTableRecord
  2
*D11
340
0
  0
BLOCK_RECORD
  5
163ED
330
7466
100
AcDbSymbolTableRecord
100
AcDbBlockTableRecord
  2
*D12
340
0
  0
BLOCK_RECORD
  5
163FB
330
7466
100
AcDbSymbolTableRecord
100
AcDbBlockTableRecord
  2
*D13
340
0
  0
BLOCK_RECORD
  5
165B5
330
7466
100
AcDbSymbolTableRecord
100
AcDbBlockTableRecord
  2
*D14
340
0
  0
BLOCK_RECORD
  5
165C4
330
7466
100
AcDbSymbolTableRecord
100
AcDbBlockTableRecord
  2
*D15
340
0
  0
BLOCK_RECORD
  5
165EA
330
7466
100
AcDbSymbolTableRecord
100
AcDbBlockTableRecord
  2
*D16
340
0
  0
BLOCK_RECORD
  5
166CF
330
7466
100
AcDbSymbolTableRecord
100
AcDbBlockTableRecord
  2
*D17
340
0
  0
BLOCK_RECORD
  5
16908
330
7466
100
AcDbSymbolTableRecord
100
AcDbBlockTableRecord
  2
*D18
340
0
  0
BLOCK_RECORD
  5
17BC5
330
7466
100
AcDbSymbolTableRecord
100
AcDbBlockTableRecord
  2
*D19
340
0
  0
BLOCK_RECORD
  5
17BD3
330
7466
100
AcDbSymbolTableRecord
100
AcDbBlockTableRecord
  2
*D20
340
0
  0
BLOCK_RECORD
  5
17BDE
330
7466
100
AcDbSymbolTableRecord
100
AcDbBlockTableRecord
  2
*D21
340
0
  0
BLOCK_RECORD
  5
17BEA
330
7466
100
AcDbSymbolTableRecord
100
AcDbBlockTableRecord
  2
*D22
340
0
  0
BLOCK_RECORD
  5
17BF8
330
7466
100
AcDbSymbolTableRecord
100
AcDbBlockTableRecord
  2
*D23
340
0
  0
BLOCK_RECORD
  5
17C48
330
7466
100
AcDbSymbolTableRecord
100
AcDbBlockTableRecord
  2
*D24
340
0
  0
BLOCK_RECORD
  5
17C56
330
7466
100
AcDbSymbolTableRecord
100
AcDbBlockTableRecord
  2
*D25
340
0
  0
BLOCK_RECORD
  5
19730
330
7466
100
AcDbSymbolTableRecord
100
AcDbBlockTableRecord
  2
*D26
340
0
  0
BLOCK_RECORD
  5
1973D
330
7466
100
AcDbSymbolTableRecord
100
AcDbBlockTableRecord
  2
*D27
340
0
  0
BLOCK_RECORD
  5
1974A
330
7466
100
AcDbSymbolTableRecord
100
AcDbBlockTableRecord
  2
*D28
340
0
  0
BLOCK_RECORD
  5
19756
330
7466
100
AcDbSymbolTableRecord
100
AcDbBlockTableRecord
  2
*D29
340
0
  0
BLOCK_RECORD
  5
19764
330
7466
100
AcDbSymbolTableRecord
100
AcDbBlockTableRecord
  2
*D30
340
0
  0
BLOCK_RECORD
  5
19770
330
7466
100
AcDbSymbolTableRecord
100
AcDbBlockTableRecord
  2
*D31
340
0
  0
BLOCK_RECORD
  5
1977E
330
7466
100
AcDbSymbolTableRecord
100
AcDbBlockTableRecord
  2
*D32
340
0
  0
BLOCK_RECORD
  5
1978A
330
7466
100
AcDbSymbolTableRecord
100
AcDbBlockTableRecord
  2
*D33
340
0
  0
BLOCK_RECORD
  5
19796
330
7466
100
AcDbSymbolTableRecord
100
AcDbBlockTableRecord
  2
*D34
340
0
  0
BLOCK_RECORD
  5
1A16F
330
7466
100
AcDbSymbolTableRecord
100
AcDbBlockTableRecord
  2
*D35
340
0
  0
BLOCK_RECORD
  5
1A17D
330
7466
100
AcDbSymbolTableRecord
100
AcDbBlockTableRecord
  2
*D36
340
0
  0
BLOCK_RECORD
  5
1A189
330
7466
100
AcDbSymbolTableRecord
100
AcDbBlockTableRecord
  2
*D37
340
0
  0
BLOCK_RECORD
  5
1A195
330
7466
100
AcDbSymbolTableRecord
100
AcDbBlockTableRecord
  2
*D38
340
0
  0
BLOCK_RECORD
  5
1A3B1
330
7466
100
AcDbSymbolTableRecord
100
AcDbBlockTableRecord
  2
*D39
340
0
  0
BLOCK_RECORD
  5
1A3BE
330
7466
100
AcDbSymbolTableRecord
100
AcDbBlockTableRecord
  2
*D40
340
0
  0
BLOCK_RECORD
  5
1A3CC
330
7466
100
AcDbSymbolTableRecord
100
AcDbBlockTableRecord
  2
*D41
340
0
  0
ENDTAB
  0
ENDSEC
  0
SECTION
  2
BLOCKS
  0
BLOCK
  5
7489
330
747D
100
AcDbEntity
  8
0
100
AcDbBlockBegin
  2
*MODEL_SPACE
 70
     0
 10
0.0
 20
0.0
 30
0.0
  3
*MODEL_SPACE
  1

  0
ENDBLK
  5
748A
330
747D
100
AcDbEntity
  8
0
100
AcDbBlockEnd
  0
BLOCK
  5
7487
330
747A
100
AcDbEntity
 67
     1
  8
0
100
AcDbBlockBegin
  2
*PAPER_SPACE
 70
     0
 10
0.0
 20
0.0
 30
0.0
  3
*PAPER_SPACE
  1

  0
ENDBLK
  5
7488
330
747A
100
AcDbEntity
 67
     1
  8
0
100
AcDbBlockEnd
  0
BLOCK
  5
F771
330
F770
100
AcDbEntity
  8
0
 48
50.0
100
AcDbBlockBegin
  2
_DOTSMALL
 70
     0
 10
0.0
 20
0.0
 30
0.0
  3
_DOTSMALL
  1

  0
LWPOLYLINE
  5
F772
330
F770
100
AcDbEntity
  8
0
  6
ByBlock
 62
     0
 48
50.0
100
AcDbPolyline
 90
        2
 70
     1
 43
0.5
 10
-0.0625
 20
0.0
 42
1.0
 10
0.0625
 20
0.0
 42
1.0
  0
ENDBLK
  5
F776
330
F770
100
AcDbEntity
  8
0
 48
50.0
100
AcDbBlockEnd
  0
BLOCK
  5
164EB
330
16338
100
AcDbEntity
  8
0
 48
50.0
100
AcDbBlockBegin
  2
*D1
 70
     1
 10
0.0
 20
0.0
 30
0.0
  3
*D1
  1

  0
LINE
  5
18E76
330
16338
100
AcDbEntity
  8
寸法
 62
     0
 48
50.0
370
    -2
100
AcDbLine
 10
8289.673057123664
 20
10144.73905351664
 30
0.0
 11
8977.099402858071
 21
10144.73905351664
 31
0.0
  0
LINE
  5
18E77
330
16338
100
AcDbEntity
  8
寸法
 62
     0
 48
50.0
370
    -2
100
AcDbLine
 10
8289.673057123639
 20
7204.739053516627
 30
0.0
 11
8977.099402858071
 21
7204.739053516627
 31
0.0
  0
LINE
  5
18E78
330
16338
100
AcDbEntity
  8
寸法
 62
     0
 48
50.0
370
    -2
100
AcDbLine
 10
8917.099402858069
 20
10144.73905351664
 30
0.0
 11
8917.099402858069
 21
7204.739053516627
 31
0.0
  0
INSERT
  5
18E79
330
16338
100
AcDbEntity
  8
寸法
 62
     0
 48
50.0
370
    -2
100
AcDbBlockReference
  2
_DOTSMALL
 10
8917.099402858069
 20
10144.73905351664
 30
0.0
 41
100.0
 42
100.0
 43
100.0
 50
90.0
  0
INSERT
  5
18E7A
330
16338
100
AcDbEntity
  8
寸法
 62
     0
 48
50.0
370
    -2
100
AcDbBlockReference
  2
_DOTSMALL
 10
8917.099402858069
 20
7204.739053516627
 30
0.0
 41
100.0
 42
100.0
 43
100.0
 50
270.0
  0
MTEXT
  5
18E7B
330
16338
100
AcDbEntity
  8
寸法
 62
     7
 48
50.0
100
AcDbMText
 10
8817.087591834447
 20
8674.739053516637
 30
0.0
 40
120.0
 41
0.0
 71
     5
 72
     1
  1
\A1;7X420=2940
  7
STYLE1
 11
0.0000000000000001
 21
1.0
 31
0.0
 73
     1
 44
1.0
1001
ACAD
1000
MTEXTBEGIN
1070
    73
1070
     1
1070
    44
1040
1.0
1070
    74
1070
     0
1000
MTEXTEND
  0
POINT
  5
18E7C
330
16338
100
AcDbEntity
  8
DEFPOINTS
 62
     0
 48
50.0
100
AcDbPoint
 10
8269.673057123664
 20
10144.73905351664
 30
0.0
  0
POINT
  5
18E7D
330
16338
100
AcDbEntity
  8
DEFPOINTS
 62
     0
 48
50.0
100
AcDbPoint
 10
8269.673057123638
 20
7204.739053516627
 30
0.0
  0
POINT
  5
18E7E
330
16338
100
AcDbEntity
  8
DEFPOINTS
 62
     0
 48
50.0
100
AcDbPoint
 10
8917.099402858069
 20
7204.739053516627
 30
0.0
  0
ENDBLK
  5
164F5
330
16338
100
AcDbEntity
  8
0
 48
50.0
100
AcDbBlockEnd
  0
BLOCK
  5
16414
330
16344
100
AcDbEntity
  8
0
 48
50.0
100
AcDbBlockBegin
  2
*D2
 70
     1
 10
0.0
 20
0.0
 30
0.0
  3
*D2
  1

  0
LINE
  5
18E6B
330
16344
100
AcDbEntity
  8
寸法
 62
     0
 48
50.0
370
    -2
100
AcDbLine
 10
8289.673057123639
 20
7204.739053516627
 30
0.0
 11
8977.099402858049
 21
7204.739053516627
 31
0.0
  0
LINE
  5
18E6C
330
16344
100
AcDbEntity
  8
寸法
 62
     0
 48
50.0
370
    -2
100
AcDbLine
 10
8289.673057123639
 20
7149.73905351663
 30
0.0
 11
8977.099402858049
 21
7149.73905351663
 31
0.0
  0
LINE
  5
18E6D
330
16344
100
AcDbEntity
  8
寸法
 62
     0
 48
50.0
370
    -2
100
AcDbLine
 10
8917.099402858049
 20
7204.739053516627
 30
0.0
 11
8917.099402858049
 21
7304.739053516627
 31
0.0
  0
LINE
  5
18E6E
330
16344
100
AcDbEntity
  8
寸法
 62
     0
 48
50.0
370
    -2
100
AcDbLine
 10
8917.099402858049
 20
7149.73905351663
 30
0.0
 11
8917.099402858049
 21
6663.392305237528
 31
0.0
  0
LINE
  5
18E6F
330
16344
100
AcDbEntity
  8
寸法
 62
     0
 48
50.0
370
    -2
100
AcDbLine
 10
8917.099402858049
 20
7204.739053516627
 30
0.0
 11
8917.099402858049
 21
7149.73905351663
 31
0.0
  0
INSERT
  5
18E70
330
16344
100
AcDbEntity
  8
寸法
 62
     0
 48
50.0
370
    -2
100
AcDbBlockReference
  2
_DOTSMALL
 10
8917.099402858049
 20
7204.739053516627
 30
0.0
 41
100.0
 42
100.0
 43
100.0
 50
270.0
  0
INSERT
  5
18E71
330
16344
100
AcDbEntity
  8
寸法
 62
     0
 48
50.0
370
    -2
100
AcDbBlockReference
  2
_DOTSMALL
 10
8917.099402858049
 20
7149.73905351663
 30
0.0
 41
100.0
 42
100.0
 43
100.0
 50
90.0
  0
MTEXT
  5
18E72
330
16344
100
AcDbEntity
  8
寸法
 62
     7
 48
50.0
100
AcDbMText
 10
8817.099402858048
 20
6771.877586611768
 30
0.0
 40
120.0
 41
0.0
 71
     5
 72
     1
  1
\A1;55
  7
STYLE1
 11
0.0000000000000001
 21
1.0
 31
0.0
 73
     1
 44
1.0
1001
ACAD
1000
MTEXTBEGIN
1070
    73
1070
     1
1070
    44
1040
1.0
1070
    74
1070
     0
1000
MTEXTEND
  0
POINT
  5
18E73
330
16344
100
AcDbEntity
  8
DEFPOINTS
 62
     0
 48
50.0
100
AcDbPoint
 10
8269.673057123638
 20
7204.739053516627
 30
0.0
  0
POINT
  5
18E74
330
16344
100
AcDbEntity
  8
DEFPOINTS
 62
     0
 48
50.0
100
AcDbPoint
 10
8269.673057123638
 20
7149.73905351663
 30
0.0
  0
POINT
  5
18E75
330
16344
100
AcDbEntity
  8
DEFPOINTS
 62
     0
 48
50.0
100
AcDbPoint
 10
8917.099402858049
 20
7149.73905351663
 30
0.0
  0
ENDBLK
  5
16420
330
16344
100
AcDbEntity
  8
0
 48
50.0
100
AcDbBlockEnd
  0
BLOCK
  5
16421
330
16352
100
AcDbEntity
  8
0
 48
50.0
100
AcDbBlockBegin
  2
*D3
 70
     1
 10
0.0
 20
0.0
 30
0.0
  3
*D3
  1

  0
LINE
  5
18E60
330
16352
100
AcDbEntity
  8
寸法
 62
     0
 48
50.0
370
    -2
100
AcDbLine
 10
8289.673057123664
 20
10199.73905351664
 30
0.0
 11
8977.099402858076
 21
10199.73905351664
 31
0.0
  0
LINE
  5
18E61
330
16352
100
AcDbEntity
  8
寸法
 62
     0
 48
50.0
370
    -2
100
AcDbLine
 10
8289.673057123664
 20
10144.73905351664
 30
0.0
 11
8977.099402858076
 21
10144.73905351664
 31
0.0
  0
LINE
  5
18E62
330
16352
100
AcDbEntity
  8
寸法
 62
     0
 48
50.0
370
    -2
100
AcDbLine
 10
8917.099402858076
 20
10144.73905351664
 30
0.0
 11
8917.099402858076
 21
10044.73905351664
 31
0.0
  0
LINE
  5
18E63
330
16352
100
AcDbEntity
  8
寸法
 62
     0
 48
50.0
370
    -2
100
AcDbLine
 10
8917.099402858076
 20
10199.73905351664
 30
0.0
 11
8917.099402858076
 21
10616.70961626511
 31
0.0
  0
LINE
  5
18E64
330
16352
100
AcDbEntity
  8
寸法
 62
     0
 48
50.0
370
    -2
100
AcDbLine
 10
8917.099402858076
 20
10144.73905351664
 30
0.0
 11
8917.099402858076
 21
10199.73905351664
 31
0.0
  0
INSERT
  5
18E65
330
16352
100
AcDbEntity
  8
寸法
 62
     0
 48
50.0
370
    -2
100
AcDbBlockReference
  2
_DOTSMALL
 10
8917.099402858076
 20
10144.73905351664
 30
0.0
 41
100.0
 42
100.0
 43
100.0
 50
90.0
  0
INSERT
  5
18E66
330
16352
100
AcDbEntity
  8
寸法
 62
     0
 48
50.0
370
    -2
100
AcDbBlockReference
  2
_DOTSMALL
 10
8917.099402858076
 20
10199.73905351664
 30
0.0
 41
100.0
 42
100.0
 43
100.0
 50
270.0
  0
MTEXT
  5
18E67
330
16352
100
AcDbEntity
  8
寸法
 62
     7
 48
50.0
100
AcDbMText
 10
8817.099402858074
 20
10508.22433489088
 30
0.0
 40
120.0
 41
0.0
 71
     5
 72
     1
  1
\A1;55
  7
STYLE1
 11
0.0000000000000001
 21
1.0
 31
0.0
 73
     1
 44
1.0
1001
ACAD
1000
MTEXTBEGIN
1070
    73
1070
     1
1070
    44
1040
1.0
1070
    74
1070
     0
1000
MTEXTEND
  0
POINT
  5
18E68
330
16352
100
AcDbEntity
  8
DEFPOINTS
 62
     0
 48
50.0
100
AcDbPoint
 10
8269.673057123664
 20
10199.73905351664
 30
0.0
  0
POINT
  5
18E69
330
16352
100
AcDbEntity
  8
DEFPOINTS
 62
     0
 48
50.0
100
AcDbPoint
 10
8269.673057123664
 20
10144.73905351664
 30
0.0
  0
POINT
  5
18E6A
330
16352
100
AcDbEntity
  8
DEFPOINTS
 62
     0
 48
50.0
100
AcDbPoint
 10
8917.099402858076
 20
10144.73905351664
 30
0.0
  0
ENDBLK
  5
1642D
330
16352
100
AcDbEntity
  8
0
 48
50.0
100
AcDbBlockEnd
  0
BLOCK
  5
164CA
330
16360
100
AcDbEntity
  8
0
 48
50.0
100
AcDbBlockBegin
  2
*D4
 70
     1
 10
0.0
 20
0.0
 30
0.0
  3
*D4
  1

  0
LINE
  5
18E57
330
16360
100
AcDbEntity
  8
寸法
 62
     0
 48
50.0
370
    -2
100
AcDbLine
 10
8289.673057123664
 20
10199.73905351664
 30
0.0
 11
9342.206344597709
 21
10199.73905351664
 31
0.0
  0
LINE
  5
18E58
330
16360
100
AcDbEntity
  8
寸法
 62
     0
 48
50.0
370
    -2
100
AcDbLine
 10
8289.673057123639
 20
7149.73905351663
 30
0.0
 11
9342.206344597709
 21
7149.73905351663
 31
0.0
  0
LINE
  5
18E59
330
16360
100
AcDbEntity
  8
寸法
 62
     0
 48
50.0
370
    -2
100
AcDbLine
 10
9282.206344597708
 20
10199.73905351664
 30
0.0
 11
9282.206344597708
 21
7149.73905351663
 31
0.0
  0
INSERT
  5
18E5A
330
16360
100
AcDbEntity
  8
寸法
 62
     0
 48
50.0
370
    -2
100
AcDbBlockReference
  2
_DOTSMALL
 10
9282.206344597708
 20
10199.73905351664
 30
0.0
 41
100.0
 42
100.0
 43
100.0
 50
90.0
  0
INSERT
  5
18E5B
330
16360
100
AcDbEntity
  8
寸法
 62
     0
 48
50.0
370
    -2
100
AcDbBlockReference
  2
_DOTSMALL
 10
9282.206344597708
 20
7149.73905351663
 30
0.0
 41
100.0
 42
100.0
 43
100.0
 50
270.0
  0
MTEXT
  5
18E5C
330
16360
100
AcDbEntity
  8
寸法
 62
     7
 48
50.0
100
AcDbMText
 10
9182.206344597707
 20
8674.739053516637
 30
0.0
 40
120.0
 41
0.0
 71
     5
 72
     1
  1
\A1;3050
  7
STYLE1
 11
0.0000000000000001
 21
1.0
 31
0.0
 73
     1
 44
1.0
1001
ACAD
1000
MTEXTBEGIN
1070
    73
1070
     1
1070
    44
1040
1.0
1070
    74
1070
     0
1000
MTEXTEND
  0
POINT
  5
18E5D
330
16360
100
AcDbEntity
  8
DEFPOINTS
 62
     0
 48
50.0
100
AcDbPoint
 10
8269.673057123664
 20
10199.73905351664
 30
0.0
  0
POINT
  5
18E5E
330
16360
100
AcDbEntity
  8
DEFPOINTS
 62
     0
 48
50.0
100
AcDbPoint
 10
8269.673057123638
 20
7149.73905351663
 30
0.0
  0
POINT
  5
18E5F
330
16360
100
AcDbEntity
  8
DEFPOINTS
 62
     0
 48
50.0
100
AcDbPoint
 10
9282.206344597708
 20
7149.73905351663
 30
0.0
  0
ENDBLK
  5
164D4
330
16360
100
AcDbEntity
  8
0
 48
50.0
100
AcDbBlockEnd
  0
BLOCK
  5
1728C
330
16384
100
AcDbEntity
  8
0
 48
50.0
100
AcDbBlockBegin
  2
*D5
 70
     1
 10
0.0
 20
0.0
 30
0.0
  3
*D5
  1

  0
LINE
  5
18E4F
330
16384
100
AcDbEntity
  8
寸法
 62
     0
 48
50.0
370
    -2
100
AcDbLine
 10
6582.673057123656
 20
7155.739053516538
 30
0.0
 11
6582.673057123656
 21
6555.308282750374
 31
0.0
  0
LINE
  5
18E50
330
16384
100
AcDbEntity
  8
寸法
 62
     0
 48
50.0
370
    -2
100
AcDbLine
 10
8166.673057123638
 20
6615.308282750375
 30
0.0
 11
6582.673057123656
 21
6615.308282750375
 31
0.0
  0
INSERT
  5
18E51
330
16384
100
AcDbEntity
  8
寸法
 62
     0
 48
50.0
370
    -2
100
AcDbBlockReference
  2
_DOTSMALL
 10
8166.673057123638
 20
6615.308282750375
 30
0.0
 41
100.0
 42
100.0
 43
100.0
  0
INSERT
  5
18E52
330
16384
100
AcDbEntity
  8
寸法
 62
     0
 48
50.0
370
    -2
100
AcDbBlockReference
  2
_DOTSMALL
 10
6582.673057123656
 20
6615.308282750375
 30
0.0
 41
100.0
 42
100.0
 43
100.0
 50
180.0
  0
MTEXT
  5
18E53
330
16384
100
AcDbEntity
  8
寸法
 62
     7
 48
50.0
100
AcDbMText
 10
7374.673057123648
 20
6815.308282750375
 30
0.0
 40
120.0
 41
0.0
 71
     5
 72
     1
  1
\A1;有効開口部間口\P 1584
  7
STYLE1
 73
     1
 44
1.0
1001
ACAD
1000
MTEXTBEGIN
1070
    73
1070
     1
1070
    44
1040
1.0
1070
    74
1070
     0
1000
MTEXTEND
  0
POINT
  5
18E54
330
16384
100
AcDbEntity
  8
DEFPOINTS
 62
     0
 48
50.0
100
AcDbPoint
 10
8166.673057123638
 20
7175.73905351654
 30
0.0
  0
POINT
  5
18E55
330
16384
100
AcDbEntity
  8
DEFPOINTS
 62
     0
 48
50.0
100
AcDbPoint
 10
6582.673057123656
 20
7175.739053516538
 30
0.0
  0
POINT
  5
18E56
330
16384
100
AcDbEntity
  8
DEFPOINTS
 62
     0
 48
50.0
100
AcDbPoint
 10
6582.673057123656
 20
6615.308282750375
 30
0.0
  0
ENDBLK
  5
17295
330
16384
100
AcDbEntity
  8
0
 48
50.0
100
AcDbBlockEnd
  0
BLOCK
  5
17261
330
1638F
100
AcDbEntity
  8
0
 48
50.0
100
AcDbBlockBegin
  2
*D6
 70
     1
 10
0.0
 20
0.0
 30
0.0
  3
*D6
  1

  0
LINE
  5
18F55
330
1638F
100
AcDbEntity
  8
寸法
 62
     0
 48
50.0
370
    -2
100
AcDbLine
 10
2899.673057123657
 20
7129.739053516536
 30
0.0
 11
2899.673057123657
 21
6109.1352871595
 31
0.0
  0
LINE
  5
18F56
330
1638F
100
AcDbEntity
  8
寸法
 62
     0
 48
50.0
370
    -2
100
AcDbLine
 10
8269.673057123627
 20
7129.73905351663
 30
0.0
 11
8269.673057123627
 21
6109.1352871595
 31
0.0
  0
LINE
  5
18F57
330
1638F
100
AcDbEntity
  8
寸法
 62
     0
 48
50.0
370
    -2
100
AcDbLine
 10
2899.673057123657
 20
6169.135287159501
 30
0.0
 11
8269.673057123627
 21
6169.135287159501
 31
0.0
  0
INSERT
  5
18F58
330
1638F
100
AcDbEntity
  8
寸法
 62
     0
 48
50.0
370
    -2
100
AcDbBlockReference
  2
_DOTSMALL
 10
2899.673057123657
 20
6169.135287159501
 30
0.0
 41
100.0
 42
100.0
 43
100.0
 50
180.0
  0
INSERT
  5
18F59
330
1638F
100
AcDbEntity
  8
寸法
 62
     0
 48
50.0
370
    -2
100
AcDbBlockReference
  2
_DOTSMALL
 10
8269.673057123627
 20
6169.135287159501
 30
0.0
 41
100.0
 42
100.0
 43
100.0
  0
MTEXT
  5
18F5A
330
1638F
100
AcDbEntity
  8
寸法
 62
     7
 48
50.0
100
AcDbMText
 10
5584.673057123642
 20
6269.1352871595
 30
0.0
 40
120.0
 41
0.0
 71
     5
 72
     1
  1
\A1;N X 1790
  7
STYLE1
 73
     1
 44
1.0
1001
ACAD
1000
MTEXTBEGIN
1070
    73
1070
     1
1070
    44
1040
1.0
1070
    74
1070
     0
1000
MTEXTEND
  0
POINT
  5
18F5B
330
1638F
100
AcDbEntity
  8
DEFPOINTS
 62
     0
 48
50.0
100
AcDbPoint
 10
2899.673057123657
 20
7149.739053516537
 30
0.0
  0
POINT
  5
18F5C
330
1638F
100
AcDbEntity
  8
DEFPOINTS
 62
     0
 48
50.0
100
AcDbPoint
 10
8269.673057123627
 20
7149.73905351663
 30
0.0
  0
POINT
  5
18F5D
330
1638F
100
AcDbEntity
  8
DEFPOINTS
 62
     0
 48
50.0
100
AcDbPoint
 10
8269.673057123627
 20
6169.135287159501
 30
0.0
  0
ENDBLK
  5
1726B
330
1638F
100
AcDbEntity
  8
0
 48
50.0
100
AcDbBlockEnd
  0
BLOCK
  5
16464
330
1639B
100
AcDbEntity
  8
0
 48
50.0
100
AcDbBlockBegin
  2
*D7
 70
     1
 10
0.0
 20
0.0
 30
0.0
  3
*D7
  1

  0
LINE
  5
18E3B
330
1639B
100
AcDbEntity
  8
寸法
 62
     0
 48
50.0
370
    -2
100
AcDbLine
 10
2954.673057123653
 20
7129.739053516539
 30
0.0
 11
2954.673057123653
 21
6555.308282750374
 31
0.0
  0
LINE
  5
18E3C
330
1639B
100
AcDbEntity
  8
寸法
 62
     0
 48
50.0
370
    -2
100
AcDbLine
 10
2899.673057123657
 20
7129.739053516536
 30
0.0
 11
2899.673057123657
 21
6555.308282750374
 31
0.0
  0
LINE
  5
18E3D
330
1639B
100
AcDbEntity
  8
寸法
 62
     0
 48
50.0
370
    -2
100
AcDbLine
 10
2954.673057123653
 20
6615.308282750375
 30
0.0
 11
3054.673057123653
 21
6615.308282750375
 31
0.0
  0
LINE
  5
18E3E
330
1639B
100
AcDbEntity
  8
寸法
 62
     0
 48
50.0
370
    -2
100
AcDbLine
 10
2899.673057123657
 20
6615.308282750375
 30
0.0
 11
2482.70249437518
 21
6615.308282750375
 31
0.0
  0
LINE
  5
18E3F
330
1639B
100
AcDbEntity
  8
寸法
 62
     0
 48
50.0
370
    -2
100
AcDbLine
 10
2954.673057123653
 20
6615.308282750375
 30
0.0
 11
2899.673057123657
 21
6615.308282750375
 31
0.0
  0
INSERT
  5
18E40
330
1639B
100
AcDbEntity
  8
寸法
 62
     0
 48
50.0
370
    -2
100
AcDbBlockReference
  2
_DOTSMALL
 10
2954.673057123653
 20
6615.308282750375
 30
0.0
 41
100.0
 42
100.0
 43
100.0
 50
180.0
  0
INSERT
  5
18E41
330
1639B
100
AcDbEntity
  8
寸法
 62
     0
 48
50.0
370
    -2
100
AcDbBlockReference
  2
_DOTSMALL
 10
2899.673057123657
 20
6615.308282750375
 30
0.0
 41
100.0
 42
100.0
 43
100.0
  0
MTEXT
  5
18E42
330
1639B
100
AcDbEntity
  8
寸法
 62
     7
 48
50.0
100
AcDbMText
 10
2591.187775749418
 20
6715.308282750375
 30
0.0
 40
120.0
 41
0.0
 71
     5
 72
     1
  1
\A1;55
  7
STYLE1
 73
     1
 44
1.0
1001
ACAD
1000
MTEXTBEGIN
1070
    73
1070
     1
1070
    44
1040
1.0
1070
    74
1070
     0
1000
MTEXTEND
  0
POINT
  5
18E43
330
1639B
100
AcDbEntity
  8
DEFPOINTS
 62
     0
 48
50.0
100
AcDbPoint
 10
2954.673057123653
 20
7149.739053516539
 30
0.0
  0
POINT
  5
18E44
330
1639B
100
AcDbEntity
  8
DEFPOINTS
 62
     0
 48
50.0
100
AcDbPoint
 10
2899.673057123657
 20
7149.739053516537
 30
0.0
  0
POINT
  5
18E45
330
1639B
100
AcDbEntity
  8
DEFPOINTS
 62
     0
 48
50.0
100
AcDbPoint
 10
2899.673057123657
 20
6615.308282750375
 30
0.0
  0
ENDBLK
  5
16470
330
1639B
100
AcDbEntity
  8
0
 48
50.0
100
AcDbBlockEnd
  0
BLOCK
  5
16471
330
163A9
100
AcDbEntity
  8
0
 48
50.0
100
AcDbBlockBegin
  2
*D8
 70
     1
 10
0.0
 20
0.0
 30
0.0
  3
*D8
  1

  0
LINE
  5
18E30
330
163A9
100
AcDbEntity
  8
寸法
 62
     0
 48
50.0
370
    -2
100
AcDbLine
 10
6582.673057123656
 20
7155.739053516538
 30
0.0
 11
6582.673057123656
 21
6555.308282750374
 31
0.0
  0
LINE
  5
18E31
330
163A9
100
AcDbEntity
  8
寸法
 62
     0
 48
50.0
370
    -2
100
AcDbLine
 10
6534.673057123653
 20
7129.739053516539
 30
0.0
 11
6534.673057123653
 21
6555.308282750374
 31
0.0
  0
LINE
  5
18E32
330
163A9
100
AcDbEntity
  8
寸法
 62
     0
 48
50.0
370
    -2
100
AcDbLine
 10
6582.673057123656
 20
6615.308282750375
 30
0.0
 11
6682.673057123657
 21
6615.308282750375
 31
0.0
  0
LINE
  5
18E33
330
163A9
100
AcDbEntity
  8
寸法
 62
     0
 48
50.0
370
    -2
100
AcDbLine
 10
6534.673057123653
 20
6615.308282750375
 30
0.0
 11
6434.673057123653
 21
6615.308282750375
 31
0.0
  0
MTEXT
  5
18E34
330
163A9
100
AcDbEntity
  8
寸法
 62
     7
 48
50.0
100
AcDbMText
 10
6695.575028123714
 20
6715.308282750375
 30
0.0
 40
120.0
 41
0.0
 71
     5
 72
     1
  1
\A1;48
  7
STYLE1
 73
     1
 44
1.0
1001
ACAD
1000
MTEXTBEGIN
1070
    73
1070
     1
1070
    44
1040
1.0
1070
    74
1070
     0
1000
MTEXTEND
  0
LINE
  5
18E35
330
163A9
100
AcDbEntity
  8
寸法
 62
     0
 48
50.0
370
    -2
100
AcDbLine
 10
6582.673057123656
 20
6615.308282750375
 30
0.0
 11
6534.673057123653
 21
6615.308282750375
 31
0.0
  0
INSERT
  5
18E36
330
163A9
100
AcDbEntity
  8
寸法
 62
     0
 48
50.0
370
    -2
100
AcDbBlockReference
  2
_DOTSMALL
 10
6582.673057123656
 20
6615.308282750375
 30
0.0
 41
100.0
 42
100.0
 43
100.0
 50
180.0
  0
INSERT
  5
18E37
330
163A9
100
AcDbEntity
  8
寸法
 62
     0
 48
50.0
370
    -2
100
AcDbBlockReference
  2
_DOTSMALL
 10
6534.673057123653
 20
6615.308282750375
 30
0.0
 41
100.0
 42
100.0
 43
100.0
  0
POINT
  5
18E38
330
163A9
100
AcDbEntity
  8
DEFPOINTS
 62
     0
 48
50.0
100
AcDbPoint
 10
6582.673057123656
 20
7175.739053516538
 30
0.0
  0
POINT
  5
18E39
330
163A9
100
AcDbEntity
  8
DEFPOINTS
 62
     0
 48
50.0
100
AcDbPoint
 10
6534.673057123653
 20
7149.739053516539
 30
0.0
  0
POINT
  5
18E3A
330
163A9
100
AcDbEntity
  8
DEFPOINTS
 62
     0
 48
50.0
100
AcDbPoint
 10
6534.673057123653
 20
6615.308282750375
 30
0.0
  0
ENDBLK
  5
1647E
330
163A9
100
AcDbEntity
  8
0
 48
50.0
100
AcDbBlockEnd
  0
BLOCK
  5
1647F
330
163B8
100
AcDbEntity
  8
0
 48
50.0
100
AcDbBlockBegin
  2
*D9
 70
     1
 10
0.0
 20
0.0
 30
0.0
  3
*D9
  1

  0
LINE
  5
18E25
330
163B8
100
AcDbEntity
  8
寸法
 62
     0
 48
50.0
370
    -2
100
AcDbLine
 10
8214.67305712364
 20
7129.739053516627
 30
0.0
 11
8214.67305712364
 21
6555.308282750374
 31
0.0
  0
LINE
  5
18E26
330
163B8
100
AcDbEntity
  8
寸法
 62
     0
 48
50.0
370
    -2
100
AcDbLine
 10
8166.673057123638
 20
7155.73905351654
 30
0.0
 11
8166.673057123638
 21
6555.308282750374
 31
0.0
  0
LINE
  5
18E27
330
163B8
100
AcDbEntity
  8
寸法
 62
     0
 48
50.0
370
    -2
100
AcDbLine
 10
8214.67305712364
 20
6615.308282750375
 30
0.0
 11
8314.67305712364
 21
6615.308282750375
 31
0.0
  0
LINE
  5
18E28
330
163B8
100
AcDbEntity
  8
寸法
 62
     0
 48
50.0
370
    -2
100
AcDbLine
 10
8166.673057123638
 20
6615.308282750375
 30
0.0
 11
8066.673057123638
 21
6615.308282750375
 31
0.0
  0
MTEXT
  5
18E29
330
163B8
100
AcDbEntity
  8
寸法
 62
     7
 48
50.0
100
AcDbMText
 10
8055.710159474891
 20
6715.308282750375
 30
0.0
 40
120.0
 41
0.0
 71
     5
 72
     1
  1
\A1;48
  7
STYLE1
 73
     1
 44
1.0
1001
ACAD
1000
MTEXTBEGIN
1070
    73
1070
     1
1070
    44
1040
1.0
1070
    74
1070
     0
1000
MTEXTEND
  0
LINE
  5
18E2A
330
163B8
100
AcDbEntity
  8
寸法
 62
     0
 48
50.0
370
    -2
100
AcDbLine
 10
8214.67305712364
 20
6615.308282750375
 30
0.0
 11
8166.673057123638
 21
6615.308282750375
 31
0.0
  0
INSERT
  5
18E2B
330
163B8
100
AcDbEntity
  8
寸法
 62
     0
 48
50.0
370
    -2
100
AcDbBlockReference
  2
_DOTSMALL
 10
8214.67305712364
 20
6615.308282750375
 30
0.0
 41
100.0
 42
100.0
 43
100.0
 50
180.0
  0
INSERT
  5
18E2C
330
163B8
100
AcDbEntity
  8
寸法
 62
     0
 48
50.0
370
    -2
100
AcDbBlockReference
  2
_DOTSMALL
 10
8166.673057123638
 20
6615.308282750375
 30
0.0
 41
100.0
 42
100.0
 43
100.0
  0
POINT
  5
18E2D
330
163B8
100
AcDbEntity
  8
DEFPOINTS
 62
     0
 48
50.0
100
AcDbPoint
 10
8214.67305712364
 20
7149.739053516627
 30
0.0
  0
POINT
  5
18E2E
330
163B8
100
AcDbEntity
  8
DEFPOINTS
 62
     0
 48
50.0
100
AcDbPoint
 10
8166.673057123638
 20
7175.73905351654
 30
0.0
  0
POINT
  5
18E2F
330
163B8
100
AcDbEntity
  8
DEFPOINTS
 62
     0
 48
50.0
100
AcDbPoint
 10
8166.673057123638
 20
6615.308282750375
 30
0.0
  0
ENDBLK
  5
1648C
330
163B8
100
AcDbEntity
  8
0
 48
50.0
100
AcDbBlockEnd
  0
BLOCK
  5
1648D
330
163C7
100
AcDbEntity
  8
0
 48
50.0
100
AcDbBlockBegin
  2
*D10
 70
     1
 10
0.0
 20
0.0
 30
0.0
  3
*D10
  1

  0
LINE
  5
18E1A
330
163C7
100
AcDbEntity
  8
寸法
 62
     0
 48
50.0
370
    -2
100
AcDbLine
 10
8269.673057123638
 20
7129.73905351663
 30
0.0
 11
8269.673057123638
 21
6555.308282750376
 31
0.0
  0
LINE
  5
18E1B
330
163C7
100
AcDbEntity
  8
寸法
 62
     0
 48
50.0
370
    -2
100
AcDbLine
 10
8214.67305712364
 20
7129.739053516627
 30
0.0
 11
8214.67305712364
 21
6555.308282750376
 31
0.0
  0
LINE
  5
18E1C
330
163C7
100
AcDbEntity
  8
寸法
 62
     0
 48
50.0
370
    -2
100
AcDbLine
 10
8214.67305712364
 20
6615.308282750376
 30
0.0
 11
8114.67305712364
 21
6615.308282750376
 31
0.0
  0
LINE
  5
18E1D
330
163C7
100
AcDbEntity
  8
寸法
 62
     0
 48
50.0
370
    -2
100
AcDbLine
 10
8269.673057123638
 20
6615.308282750376
 30
0.0
 11
8686.643619872114
 21
6615.308282750376
 31
0.0
  0
LINE
  5
18E1E
330
163C7
100
AcDbEntity
  8
寸法
 62
     0
 48
50.0
370
    -2
100
AcDbLine
 10
8214.67305712364
 20
6615.308282750376
 30
0.0
 11
8269.673057123638
 21
6615.308282750376
 31
0.0
  0
INSERT
  5
18E1F
330
163C7
100
AcDbEntity
  8
寸法
 62
     0
 48
50.0
370
    -2
100
AcDbBlockReference
  2
_DOTSMALL
 10
8214.67305712364
 20
6615.308282750376
 30
0.0
 41
100.0
 42
100.0
 43
100.0
  0
INSERT
  5
18E20
330
163C7
100
AcDbEntity
  8
寸法
 62
     0
 48
50.0
370
    -2
100
AcDbBlockReference
  2
_DOTSMALL
 10
8269.673057123638
 20
6615.308282750376
 30
0.0
 41
100.0
 42
100.0
 43
100.0
 50
180.0
  0
MTEXT
  5
18E21
330
163C7
100
AcDbEntity
  8
寸法
 62
     7
 48
50.0
100
AcDbMText
 10
8578.158338497877
 20
6715.308282750377
 30
0.0
 40
120.0
 41
0.0
 71
     5
 72
     1
  1
\A1;55
  7
STYLE1
 73
     1
 44
1.0
1001
ACAD
1000
MTEXTBEGIN
1070
    73
1070
     1
1070
    44
1040
1.0
1070
    74
1070
     0
1000
MTEXTEND
  0
POINT
  5
18E22
330
163C7
100
AcDbEntity
  8
DEFPOINTS
 62
     0
 48
50.0
100
AcDbPoint
 10
8269.673057123638
 20
7149.73905351663
 30
0.0
  0
POINT
  5
18E23
330
163C7
100
AcDbEntity
  8
DEFPOINTS
 62
     0
 48
50.0
100
AcDbPoint
 10
8214.67305712364
 20
7149.739053516627
 30
0.0
  0
POINT
  5
18E24
330
163C7
100
AcDbEntity
  8
DEFPOINTS
 62
     0
 48
50.0
100
AcDbPoint
 10
8214.67305712364
 20
6615.308282750376
 30
0.0
  0
ENDBLK
  5
16499
330
163C7
100
AcDbEntity
  8
0
 48
50.0
100
AcDbBlockEnd
  0
BLOCK
  5
172A1
330
163E1
100
AcDbEntity
  8
0
 48
50.0
100
AcDbBlockBegin
  2
*D11
 70
     1
 10
0.0
 20
0.0
 30
0.0
  3
*D11
  1

  0
LINE
  5
18E11
330
163E1
100
AcDbEntity
  8
寸法
 62
     0
 48
50.0
370
    -2
100
AcDbLine
 10
6534.673057123663
 20
10219.73905351654
 30
0.0
 11
6534.673057123663
 21
10475.54727314164
 31
0.0
  0
LINE
  5
18E12
330
163E1
100
AcDbEntity
  8
寸法
 62
     0
 48
50.0
370
    -2
100
AcDbLine
 10
8214.673057123665
 20
10219.73905351664
 30
0.0
 11
8214.673057123665
 21
10475.54727314164
 31
0.0
  0
LINE
  5
18E13
330
163E1
100
AcDbEntity
  8
寸法
 62
     0
 48
50.0
370
    -2
100
AcDbLine
 10
6534.673057123663
 20
10415.54727314164
 30
0.0
 11
8214.673057123665
 21
10415.54727314164
 31
0.0
  0
INSERT
  5
18E14
330
163E1
100
AcDbEntity
  8
寸法
 62
     0
 48
50.0
370
    -2
100
AcDbBlockReference
  2
_DOTSMALL
 10
6534.673057123663
 20
10415.54727314164
 30
0.0
 41
100.0
 42
100.0
 43
100.0
 50
180.0
  0
INSERT
  5
18E15
330
163E1
100
AcDbEntity
  8
寸法
 62
     0
 48
50.0
370
    -2
100
AcDbBlockReference
  2
_DOTSMALL
 10
8214.673057123665
 20
10415.54727314164
 30
0.0
 41
100.0
 42
100.0
 43
100.0
  0
MTEXT
  5
18E16
330
163E1
100
AcDbEntity
  8
寸法
 62
     7
 48
50.0
100
AcDbMText
 10
7374.673057123664
 20
10515.55908416526
 30
0.0
 40
120.0
 41
0.0
 71
     5
 72
     1
  1
\A1;4X420=1680
  7
STYLE1
 73
     1
 44
1.0
1001
ACAD
1000
MTEXTBEGIN
1070
    73
1070
     1
1070
    44
1040
1.0
1070
    74
1070
     0
1000
MTEXTEND
  0
POINT
  5
18E17
330
163E1
100
AcDbEntity
  8
DEFPOINTS
 62
     0
 48
50.0
100
AcDbPoint
 10
6534.673057123663
 20
10199.73905351654
 30
0.0
  0
POINT
  5
18E18
330
163E1
100
AcDbEntity
  8
DEFPOINTS
 62
     0
 48
50.0
100
AcDbPoint
 10
8214.673057123665
 20
10199.73905351664
 30
0.0
  0
POINT
  5
18E19
330
163E1
100
AcDbEntity
  8
DEFPOINTS
 62
     0
 48
50.0
100
AcDbPoint
 10
8214.673057123665
 20
10415.54727314164
 30
0.0
  0
ENDBLK
  5
172AB
330
163E1
100
AcDbEntity
  8
0
 48
50.0
100
AcDbBlockEnd
  0
BLOCK
  5
164B0
330
163ED
100
AcDbEntity
  8
0
 48
50.0
100
AcDbBlockBegin
  2
*D12
 70
     1
 10
0.0
 20
0.0
 30
0.0
  3
*D12
  1

  0
LINE
  5
18E06
330
163ED
100
AcDbEntity
  8
寸法
 62
     0
 48
50.0
370
    -2
100
AcDbLine
 10
2899.673057123628
 20
10219.73905351654
 30
0.0
 11
2899.673057123628
 21
10475.54727314152
 31
0.0
  0
LINE
  5
18E07
330
163ED
100
AcDbEntity
  8
寸法
 62
     0
 48
50.0
370
    -2
100
AcDbLine
 10
2954.673057123663
 20
10219.73905351654
 30
0.0
 11
2954.673057123663
 21
10475.54727314152
 31
0.0
  0
LINE
  5
18E08
330
163ED
100
AcDbEntity
  8
寸法
 62
     0
 48
50.0
370
    -2
100
AcDbLine
 10
2954.673057123663
 20
10415.54727314152
 30
0.0
 11
3054.673057123663
 21
10415.54727314152
 31
0.0
  0
LINE
  5
18E09
330
163ED
100
AcDbEntity
  8
寸法
 62
     0
 48
50.0
370
    -2
100
AcDbLine
 10
2899.673057123628
 20
10415.54727314152
 30
0.0
 11
2482.702494375152
 21
10415.54727314152
 31
0.0
  0
LINE
  5
18E0A
330
163ED
100
AcDbEntity
  8
寸法
 62
     0
 48
50.0
370
    -2
100
AcDbLine
 10
2954.673057123663
 20
10415.54727314152
 30
0.0
 11
2899.673057123628
 21
10415.54727314152
 31
0.0
  0
INSERT
  5
18E0B
330
163ED
100
AcDbEntity
  8
寸法
 62
     0
 48
50.0
370
    -2
100
AcDbBlockReference
  2
_DOTSMALL
 10
2954.673057123663
 20
10415.54727314152
 30
0.0
 41
100.0
 42
100.0
 43
100.0
 50
180.0
  0
INSERT
  5
18E0C
330
163ED
100
AcDbEntity
  8
寸法
 62
     0
 48
50.0
370
    -2
100
AcDbBlockReference
  2
_DOTSMALL
 10
2899.673057123628
 20
10415.54727314152
 30
0.0
 41
100.0
 42
100.0
 43
100.0
  0
MTEXT
  5
18E0D
330
163ED
100
AcDbEntity
  8
寸法
 62
     7
 48
50.0
100
AcDbMText
 10
2591.18777574939
 20
10515.54727314152
 30
0.0
 40
120.0
 41
0.0
 71
     5
 72
     1
  1
\A1;55
  7
STYLE1
 73
     1
 44
1.0
1001
ACAD
1000
MTEXTBEGIN
1070
    73
1070
     1
1070
    44
1040
1.0
1070
    74
1070
     0
1000
MTEXTEND
  0
POINT
  5
18E0E
330
163ED
100
AcDbEntity
  8
DEFPOINTS
 62
     0
 48
50.0
100
AcDbPoint
 10
2899.673057123628
 20
10199.73905351654
 30
0.0
  0
POINT
  5
18E0F
330
163ED
100
AcDbEntity
  8
DEFPOINTS
 62
     0
 48
50.0
100
AcDbPoint
 10
2954.673057123663
 20
10199.73905351654
 30
0.0
  0
POINT
  5
18E10
330
163ED
100
AcDbEntity
  8
DEFPOINTS
 62
     0
 48
50.0
100
AcDbPoint
 10
2954.673057123663
 20
10415.54727314152
 30
0.0
  0
ENDBLK
  5
164BC
330
163ED
100
AcDbEntity
  8
0
 48
50.0
100
AcDbBlockEnd
  0
BLOCK
  5
164BD
330
163FB
100
AcDbEntity
  8
0
 48
50.0
100
AcDbBlockBegin
  2
*D13
 70
     1
 10
0.0
 20
0.0
 30
0.0
  3
*D13
  1

  0
LINE
  5
18DFB
330
163FB
100
AcDbEntity
  8
寸法
 62
     0
 48
50.0
370
    -2
100
AcDbLine
 10
8214.673057123665
 20
10219.73905351664
 30
0.0
 11
8214.673057123665
 21
10475.54727314162
 31
0.0
  0
LINE
  5
18DFC
330
163FB
100
AcDbEntity
  8
寸法
 62
     0
 48
50.0
370
    -2
100
AcDbLine
 10
8269.673057123664
 20
10219.73905351664
 30
0.0
 11
8269.673057123664
 21
10475.54727314162
 31
0.0
  0
LINE
  5
18DFD
330
163FB
100
AcDbEntity
  8
寸法
 62
     0
 48
50.0
370
    -2
100
AcDbLine
 10
8214.673057123665
 20
10415.54727314162
 30
0.0
 11
8114.673057123665
 21
10415.54727314162
 31
0.0
  0
LINE
  5
18DFE
330
163FB
100
AcDbEntity
  8
寸法
 62
     0
 48
50.0
370
    -2
100
AcDbLine
 10
8269.673057123664
 20
10415.54727314162
 30
0.0
 11
8686.643619872141
 21
10415.54727314162
 31
0.0
  0
LINE
  5
18DFF
330
163FB
100
AcDbEntity
  8
寸法
 62
     0
 48
50.0
370
    -2
100
AcDbLine
 10
8214.673057123665
 20
10415.54727314162
 30
0.0
 11
8269.673057123664
 21
10415.54727314162
 31
0.0
  0
INSERT
  5
18E00
330
163FB
100
AcDbEntity
  8
寸法
 62
     0
 48
50.0
370
    -2
100
AcDbBlockReference
  2
_DOTSMALL
 10
8214.673057123665
 20
10415.54727314162
 30
0.0
 41
100.0
 42
100.0
 43
100.0
  0
INSERT
  5
18E01
330
163FB
100
AcDbEntity
  8
寸法
 62
     0
 48
50.0
370
    -2
100
AcDbBlockReference
  2
_DOTSMALL
 10
8269.673057123664
 20
10415.54727314162
 30
0.0
 41
100.0
 42
100.0
 43
100.0
 50
180.0
  0
MTEXT
  5
18E02
330
163FB
100
AcDbEntity
  8
寸法
 62
     7
 48
50.0
100
AcDbMText
 10
8578.158338497903
 20
10515.54727314162
 30
0.0
 40
120.0
 41
0.0
 71
     5
 72
     1
  1
\A1;55
  7
STYLE1
 73
     1
 44
1.0
1001
ACAD
1000
MTEXTBEGIN
1070
    73
1070
     1
1070
    44
1040
1.0
1070
    74
1070
     0
1000
MTEXTEND
  0
POINT
  5
18E03
330
163FB
100
AcDbEntity
  8
DEFPOINTS
 62
     0
 48
50.0
100
AcDbPoint
 10
8214.673057123665
 20
10199.73905351664
 30
0.0
  0
POINT
  5
18E04
330
163FB
100
AcDbEntity
  8
DEFPOINTS
 62
     0
 48
50.0
100
AcDbPoint
 10
8269.673057123664
 20
10199.73905351664
 30
0.0
  0
POINT
  5
18E05
330
163FB
100
AcDbEntity
  8
DEFPOINTS
 62
     0
 48
50.0
100
AcDbPoint
 10
8269.673057123664
 20
10415.54727314162
 30
0.0
  0
ENDBLK
  5
164C9
330
163FB
100
AcDbEntity
  8
0
 48
50.0
100
AcDbBlockEnd
  0
BLOCK
  5
165B6
330
165B5
100
AcDbEntity
  8
0
 48
50.0
100
AcDbBlockBegin
  2
*D14
 70
     1
 10
0.0
 20
0.0
 30
0.0
  3
*D14
  1

  0
LINE
  5
18DE5
330
165B5
100
AcDbEntity
  8
寸法
 62
     0
 48
50.0
370
    -2
100
AcDbLine
 10
3002.673057123657
 20
7155.739053516538
 30
0.0
 11
3002.673057123657
 21
6555.308282750374
 31
0.0
  0
LINE
  5
18DE6
330
165B5
100
AcDbEntity
  8
寸法
 62
     0
 48
50.0
370
    -2
100
AcDbLine
 10
2954.673057123653
 20
7129.739053516539
 30
0.0
 11
2954.673057123653
 21
6555.308282750374
 31
0.0
  0
LINE
  5
18DE7
330
165B5
100
AcDbEntity
  8
寸法
 62
     0
 48
50.0
370
    -2
100
AcDbLine
 10
3002.673057123657
 20
6615.308282750375
 30
0.0
 11
3102.673057123657
 21
6615.308282750375
 31
0.0
  0
LINE
  5
18DE8
330
165B5
100
AcDbEntity
  8
寸法
 62
     0
 48
50.0
370
    -2
100
AcDbLine
 10
2954.673057123653
 20
6615.308282750375
 30
0.0
 11
2854.673057123653
 21
6615.308282750375
 31
0.0
  0
MTEXT
  5
18DE9
330
165B5
100
AcDbEntity
  8
寸法
 62
     7
 48
50.0
100
AcDbMText
 10
3115.575028123715
 20
6715.308282750375
 30
0.0
 40
120.0
 41
0.0
 71
     5
 72
     1
  1
\A1;48
  7
STYLE1
 73
     1
 44
1.0
1001
ACAD
1000
MTEXTBEGIN
1070
    73
1070
     1
1070
    44
1040
1.0
1070
    74
1070
     0
1000
MTEXTEND
  0
LINE
  5
18DEA
330
165B5
100
AcDbEntity
  8
寸法
 62
     0
 48
50.0
370
    -2
100
AcDbLine
 10
3002.673057123657
 20
6615.308282750375
 30
0.0
 11
2954.673057123653
 21
6615.308282750375
 31
0.0
  0
INSERT
  5
18DEB
330
165B5
100
AcDbEntity
  8
寸法
 62
     0
 48
50.0
370
    -2
100
AcDbBlockReference
  2
_DOTSMALL
 10
3002.673057123657
 20
6615.308282750375
 30
0.0
 41
100.0
 42
100.0
 43
100.0
 50
180.0
  0
INSERT
  5
18DEC
330
165B5
100
AcDbEntity
  8
寸法
 62
     0
 48
50.0
370
    -2
100
AcDbBlockReference
  2
_DOTSMALL
 10
2954.673057123653
 20
6615.308282750375
 30
0.0
 41
100.0
 42
100.0
 43
100.0
  0
POINT
  5
18DED
330
165B5
100
AcDbEntity
  8
DEFPOINTS
 62
     0
 48
50.0
100
AcDbPoint
 10
3002.673057123657
 20
7175.739053516538
 30
0.0
  0
POINT
  5
18DEE
330
165B5
100
AcDbEntity
  8
DEFPOINTS
 62
     0
 48
50.0
100
AcDbPoint
 10
2954.673057123653
 20
7149.739053516539
 30
0.0
  0
POINT
  5
18DEF
330
165B5
100
AcDbEntity
  8
DEFPOINTS
 62
     0
 48
50.0
100
AcDbPoint
 10
2954.673057123653
 20
6615.308282750375
 30
0.0
  0
ENDBLK
  5
165C3
330
165B5
100
AcDbEntity
  8
0
 48
50.0
100
AcDbBlockEnd
  0
BLOCK
  5
165C5
330
165C4
100
AcDbEntity
  8
0
 48
50.0
100
AcDbBlockBegin
  2
*D15
 70
     1
 10
0.0
 20
0.0
 30
0.0
  3
*D15
  1

  0
LINE
  5
18DF0
330
165C4
100
AcDbEntity
  8
寸法
 62
     0
 48
50.0
370
    -2
100
AcDbLine
 10
6424.67305712364
 20
7129.739053516627
 30
0.0
 11
6424.67305712364
 21
6555.308282750374
 31
0.0
  0
LINE
  5
18DF1
330
165C4
100
AcDbEntity
  8
寸法
 62
     0
 48
50.0
370
    -2
100
AcDbLine
 10
6376.673057123639
 20
7155.73905351654
 30
0.0
 11
6376.673057123639
 21
6555.308282750374
 31
0.0
  0
LINE
  5
18DF2
330
165C4
100
AcDbEntity
  8
寸法
 62
     0
 48
50.0
370
    -2
100
AcDbLine
 10
6424.67305712364
 20
6615.308282750375
 30
0.0
 11
6524.673057123639
 21
6615.308282750375
 31
0.0
  0
LINE
  5
18DF3
330
165C4
100
AcDbEntity
  8
寸法
 62
     0
 48
50.0
370
    -2
100
AcDbLine
 10
6376.673057123639
 20
6615.308282750375
 30
0.0
 11
6276.673057123638
 21
6615.308282750375
 31
0.0
  0
MTEXT
  5
18DF4
330
165C4
100
AcDbEntity
  8
寸法
 62
     7
 48
50.0
100
AcDbMText
 10
6265.710159474891
 20
6715.308282750375
 30
0.0
 40
120.0
 41
0.0
 71
     5
 72
     1
  1
\A1;48
  7
STYLE1
 73
     1
 44
1.0
1001
ACAD
1000
MTEXTBEGIN
1070
    73
1070
     1
1070
    44
1040
1.0
1070
    74
1070
     0
1000
MTEXTEND
  0
LINE
  5
18DF5
330
165C4
100
AcDbEntity
  8
寸法
 62
     0
 48
50.0
370
    -2
100
AcDbLine
 10
6424.67305712364
 20
6615.308282750375
 30
0.0
 11
6376.673057123639
 21
6615.308282750375
 31
0.0
  0
INSERT
  5
18DF6
330
165C4
100
AcDbEntity
  8
寸法
 62
     0
 48
50.0
370
    -2
100
AcDbBlockReference
  2
_DOTSMALL
 10
6424.67305712364
 20
6615.308282750375
 30
0.0
 41
100.0
 42
100.0
 43
100.0
 50
180.0
  0
INSERT
  5
18DF7
330
165C4
100
AcDbEntity
  8
寸法
 62
     0
 48
50.0
370
    -2
100
AcDbBlockReference
  2
_DOTSMALL
 10
6376.673057123639
 20
6615.308282750375
 30
0.0
 41
100.0
 42
100.0
 43
100.0
  0
POINT
  5
18DF8
330
165C4
100
AcDbEntity
  8
DEFPOINTS
 62
     0
 48
50.0
100
AcDbPoint
 10
6424.67305712364
 20
7149.739053516627
 30
0.0
  0
POINT
  5
18DF9
330
165C4
100
AcDbEntity
  8
DEFPOINTS
 62
     0
 48
50.0
100
AcDbPoint
 10
6376.673057123639
 20
7175.73905351654
 30
0.0
  0
POINT
  5
18DFA
330
165C4
100
AcDbEntity
  8
DEFPOINTS
 62
     0
 48
50.0
100
AcDbPoint
 10
6376.673057123639
 20
6615.308282750375
 30
0.0
  0
ENDBLK
  5
165D2
330
165C4
100
AcDbEntity
  8
0
 48
50.0
100
AcDbBlockEnd
  0
BLOCK
  5
1663F
330
165EA
100
AcDbEntity
  8
0
 48
50.0
100
AcDbBlockBegin
  2
*D16
 70
     1
 10
0.0
 20
0.0
 30
0.0
  3
*D16
  1

  0
LINE
  5
18DDC
330
165EA
100
AcDbEntity
  8
寸法
 62
     0
 48
50.0
370
    -2
100
AcDbLine
 10
6534.673057123653
 20
7129.739053516539
 30
0.0
 11
6534.673057123653
 21
6555.308282750376
 31
0.0
  0
LINE
  5
18DDD
330
165EA
100
AcDbEntity
  8
寸法
 62
     0
 48
50.0
370
    -2
100
AcDbLine
 10
6424.67305712364
 20
7129.739053516627
 30
0.0
 11
6424.67305712364
 21
6555.308282750376
 31
0.0
  0
LINE
  5
18DDE
330
165EA
100
AcDbEntity
  8
寸法
 62
     0
 48
50.0
370
    -2
100
AcDbLine
 10
6534.673057123653
 20
6615.308282750376
 30
0.0
 11
6424.67305712364
 21
6615.308282750376
 31
0.0
  0
MTEXT
  5
18DDF
330
165EA
100
AcDbEntity
  8
寸法
 62
     7
 48
50.0
100
AcDbMText
 10
6479.673057123647
 20
6463.616387714144
 30
0.0
 40
120.0
 41
0.0
 71
     5
 72
     1
  1
\A1;110
  7
STYLE1
 73
     1
 44
1.0
1001
ACAD
1000
MTEXTBEGIN
1070
    73
1070
     1
1070
    44
1040
1.0
1070
    74
1070
     0
1000
MTEXTEND
  0
INSERT
  5
18DE0
330
165EA
100
AcDbEntity
  8
寸法
 62
     0
 48
50.0
370
    -2
100
AcDbBlockReference
  2
_DOTSMALL
 10
6534.673057123653
 20
6615.308282750376
 30
0.0
 41
100.0
 42
100.0
 43
100.0
  0
INSERT
  5
18DE1
330
165EA
100
AcDbEntity
  8
寸法
 62
     0
 48
50.0
370
    -2
100
AcDbBlockReference
  2
_DOTSMALL
 10
6424.67305712364
 20
6615.308282750376
 30
0.0
 41
100.0
 42
100.0
 43
100.0
 50
180.0
  0
POINT
  5
18DE2
330
165EA
100
AcDbEntity
  8
DEFPOINTS
 62
     0
 48
50.0
100
AcDbPoint
 10
6534.673057123653
 20
7149.739053516539
 30
0.0
  0
POINT
  5
18DE3
330
165EA
100
AcDbEntity
  8
DEFPOINTS
 62
     0
 48
50.0
100
AcDbPoint
 10
6424.67305712364
 20
7149.739053516627
 30
0.0
  0
POINT
  5
18DE4
330
165EA
100
AcDbEntity
  8
DEFPOINTS
 62
     0
 48
50.0
100
AcDbPoint
 10
6424.67305712364
 20
6615.308282750376
 30
0.0
  0
ENDBLK
  5
16649
330
165EA
100
AcDbEntity
  8
0
 48
50.0
100
AcDbBlockEnd
  0
BLOCK
  5
166D0
330
166CF
100
AcDbEntity
  8
0
 48
50.0
100
AcDbBlockBegin
  2
*D17
 70
     1
 10
0.0
 20
0.0
 30
0.0
  3
*D17
  1

  0
LINE
  5
18DD1
330
166CF
100
AcDbEntity
  8
寸法
 62
     0
 48
50.0
370
    -2
100
AcDbLine
 10
6534.673057123663
 20
10219.73905351659
 30
0.0
 11
6534.673057123663
 21
10475.54727314164
 31
0.0
  0
LINE
  5
18DD2
330
166CF
100
AcDbEntity
  8
寸法
 62
     0
 48
50.0
370
    -2
100
AcDbLine
 10
6424.673057123664
 20
10219.73905351659
 30
0.0
 11
6424.673057123664
 21
10475.54727314164
 31
0.0
  0
LINE
  5
18DD3
330
166CF
100
AcDbEntity
  8
寸法
 62
     0
 48
50.0
370
    -2
100
AcDbLine
 10
6534.673057123663
 20
10415.54727314164
 30
0.0
 11
6634.673057123663
 21
10415.54727314164
 31
0.0
  0
LINE
  5
18DD4
330
166CF
100
AcDbEntity
  8
寸法
 62
     0
 48
50.0
370
    -2
100
AcDbLine
 10
6424.673057123664
 20
10415.54727314164
 30
0.0
 11
6324.673057123664
 21
10415.54727314164
 31
0.0
  0
LINE
  5
18DD5
330
166CF
100
AcDbEntity
  8
寸法
 62
     0
 48
50.0
370
    -2
100
AcDbLine
 10
6534.673057123663
 20
10415.54727314164
 30
0.0
 11
6424.673057123664
 21
10415.54727314164
 31
0.0
  0
INSERT
  5
18DD6
330
166CF
100
AcDbEntity
  8
寸法
 62
     0
 48
50.0
370
    -2
100
AcDbBlockReference
  2
_DOTSMALL
 10
6534.673057123663
 20
10415.54727314164
 30
0.0
 41
100.0
 42
100.0
 43
100.0
 50
180.0
  0
INSERT
  5
18DD7
330
166CF
100
AcDbEntity
  8
寸法
 62
     0
 48
50.0
370
    -2
100
AcDbBlockReference
  2
_DOTSMALL
 10
6424.673057123664
 20
10415.54727314164
 30
0.0
 41
100.0
 42
100.0
 43
100.0
  0
MTEXT
  5
18DD8
330
166CF
100
AcDbEntity
  8
寸法
 62
     7
 48
50.0
100
AcDbMText
 10
6479.673057123664
 20
10515.54727314164
 30
0.0
 40
120.0
 41
0.0
 71
     5
 72
     1
  1
\A1;110
  7
STYLE1
 73
     1
 44
1.0
1001
ACAD
1000
MTEXTBEGIN
1070
    73
1070
     1
1070
    44
1040
1.0
1070
    74
1070
     0
1000
MTEXTEND
  0
POINT
  5
18DD9
330
166CF
100
AcDbEntity
  8
DEFPOINTS
 62
     0
 48
50.0
100
AcDbPoint
 10
6534.673057123663
 20
10199.73905351659
 30
0.0
  0
POINT
  5
18DDA
330
166CF
100
AcDbEntity
  8
DEFPOINTS
 62
     0
 48
50.0
100
AcDbPoint
 10
6424.673057123664
 20
10199.73905351659
 30
0.0
  0
POINT
  5
18DDB
330
166CF
100
AcDbEntity
  8
DEFPOINTS
 62
     0
 48
50.0
100
AcDbPoint
 10
6424.673057123664
 20
10415.54727314164
 30
0.0
  0
ENDBLK
  5
166DC
330
166CF
100
AcDbEntity
  8
0
 48
50.0
100
AcDbBlockEnd
  0
BLOCK
  5
1726C
330
16908
100
AcDbEntity
  8
0
 48
50.0
100
AcDbBlockBegin
  2
*D18
 70
     1
 10
0.0
 20
0.0
 30
0.0
  3
*D18
  1

  0
LINE
  5
18DC9
330
16908
100
AcDbEntity
  8
寸法
 62
     0
 48
50.0
370
    -2
100
AcDbLine
 10
8269.673057123664
 20
10219.73905351664
 30
0.0
 11
8269.673057123664
 21
10724.86874669793
 31
0.0
  0
LINE
  5
18DCA
330
16908
100
AcDbEntity
  8
寸法
 62
     0
 48
50.0
370
    -2
100
AcDbLine
 10
6479.673057123664
 20
10664.86874669793
 30
0.0
 11
8269.673057123664
 21
10664.86874669793
 31
0.0
  0
INSERT
  5
18DCB
330
16908
100
AcDbEntity
  8
寸法
 62
     0
 48
50.0
370
    -2
100
AcDbBlockReference
  2
_DOTSMALL
 10
6479.673057123664
 20
10664.86874669793
 30
0.0
 41
100.0
 42
100.0
 43
100.0
 50
180.0
  0
INSERT
  5
18DCC
330
16908
100
AcDbEntity
  8
寸法
 62
     0
 48
50.0
370
    -2
100
AcDbBlockReference
  2
_DOTSMALL
 10
8269.673057123664
 20
10664.86874669793
 30
0.0
 41
100.0
 42
100.0
 43
100.0
  0
MTEXT
  5
18DCD
330
16908
100
AcDbEntity
  8
寸法
 62
     7
 48
50.0
100
AcDbMText
 10
7374.673057123664
 20
10764.86874669793
 30
0.0
 40
120.0
 41
0.0
 71
     5
 72
     1
  1
\A1;1790
  7
STYLE1
 73
     1
 44
1.0
1001
ACAD
1000
MTEXTBEGIN
1070
    73
1070
     1
1070
    44
1040
1.0
1070
    74
1070
     0
1000
MTEXTEND
  0
POINT
  5
18DCE
330
16908
100
AcDbEntity
  8
DEFPOINTS
 62
     0
 48
50.0
100
AcDbPoint
 10
6479.673057123664
 20
10574.53518749958
 30
0.0
  0
POINT
  5
18DCF
330
16908
100
AcDbEntity
  8
DEFPOINTS
 62
     0
 48
50.0
100
AcDbPoint
 10
8269.673057123664
 20
10199.73905351664
 30
0.0
  0
POINT
  5
18DD0
330
16908
100
AcDbEntity
  8
DEFPOINTS
 62
     0
 48
50.0
100
AcDbPoint
 10
8269.673057123664
 20
10664.86874669793
 30
0.0
  0
ENDBLK
  5
17275
330
16908
100
AcDbEntity
  8
0
 48
50.0
100
AcDbBlockEnd
  0
BLOCK
  5
17BD1
330
17BC5
100
AcDbEntity
  8
0
 48
50.0
100
AcDbBlockBegin
  2
*D19
 70
     1
 10
0.0
 20
0.0
 30
0.0
  3
*D19
  1

  0
LINE
  5
18D99
330
17BC5
100
AcDbEntity
  8
寸法
 62
     0
 48
50.0
370
    -2
100
AcDbLine
 10
4634.673057123641
 20
7129.739053516627
 30
0.0
 11
4634.673057123641
 21
6555.308282750374
 31
0.0
  0
LINE
  5
18D9A
330
17BC5
100
AcDbEntity
  8
寸法
 62
     0
 48
50.0
370
    -2
100
AcDbLine
 10
4586.673057123639
 20
7155.73905351654
 30
0.0
 11
4586.673057123639
 21
6555.308282750374
 31
0.0
  0
LINE
  5
18D9B
330
17BC5
100
AcDbEntity
  8
寸法
 62
     0
 48
50.0
370
    -2
100
AcDbLine
 10
4634.673057123641
 20
6615.308282750375
 30
0.0
 11
4734.67305712364
 21
6615.308282750375
 31
0.0
  0
LINE
  5
18D9C
330
17BC5
100
AcDbEntity
  8
寸法
 62
     0
 48
50.0
370
    -2
100
AcDbLine
 10
4586.673057123639
 20
6615.308282750375
 30
0.0
 11
4486.673057123638
 21
6615.308282750375
 31
0.0
  0
MTEXT
  5
18D9D
330
17BC5
100
AcDbEntity
  8
寸法
 62
     7
 48
50.0
100
AcDbMText
 10
4475.710159474891
 20
6715.308282750375
 30
0.0
 40
120.0
 41
0.0
 71
     5
 72
     1
  1
\A1;48
  7
STYLE1
 73
     1
 44
1.0
1001
ACAD
1000
MTEXTBEGIN
1070
    73
1070
     1
1070
    44
1040
1.0
1070
    74
1070
     0
1000
MTEXTEND
  0
LINE
  5
18D9E
330
17BC5
100
AcDbEntity
  8
寸法
 62
     0
 48
50.0
370
    -2
100
AcDbLine
 10
4634.673057123641
 20
6615.308282750375
 30
0.0
 11
4586.673057123639
 21
6615.308282750375
 31
0.0
  0
INSERT
  5
18D9F
330
17BC5
100
AcDbEntity
  8
寸法
 62
     0
 48
50.0
370
    -2
100
AcDbBlockReference
  2
_DOTSMALL
 10
4634.673057123641
 20
6615.308282750375
 30
0.0
 41
100.0
 42
100.0
 43
100.0
 50
180.0
  0
INSERT
  5
18DA0
330
17BC5
100
AcDbEntity
  8
寸法
 62
     0
 48
50.0
370
    -2
100
AcDbBlockReference
  2
_DOTSMALL
 10
4586.673057123639
 20
6615.308282750375
 30
0.0
 41
100.0
 42
100.0
 43
100.0
  0
POINT
  5
18DA1
330
17BC5
100
AcDbEntity
  8
DEFPOINTS
 62
     0
 48
50.0
100
AcDbPoint
 10
4634.673057123641
 20
7149.739053516627
 30
0.0
  0
POINT
  5
18DA2
330
17BC5
100
AcDbEntity
  8
DEFPOINTS
 62
     0
 48
50.0
100
AcDbPoint
 10
4586.673057123639
 20
7175.73905351654
 30
0.0
  0
POINT
  5
18DA3
330
17BC5
100
AcDbEntity
  8
DEFPOINTS
 62
     0
 48
50.0
100
AcDbPoint
 10
4586.673057123639
 20
6615.308282750375
 30
0.0
  0
ENDBLK
  5
17BD2
330
17BC5
100
AcDbEntity
  8
0
 48
50.0
100
AcDbBlockEnd
  0
BLOCK
  5
17BDC
330
17BD3
100
AcDbEntity
  8
0
 48
50.0
100
AcDbBlockBegin
  2
*D20
 70
     1
 10
0.0
 20
0.0
 30
0.0
  3
*D20
  1

  0
LINE
  5
18DA4
330
17BD3
100
AcDbEntity
  8
寸法
 62
     0
 48
50.0
370
    -2
100
AcDbLine
 10
3002.673057123657
 20
7155.739053516538
 30
0.0
 11
3002.673057123657
 21
6555.308282750374
 31
0.0
  0
LINE
  5
18DA5
330
17BD3
100
AcDbEntity
  8
寸法
 62
     0
 48
50.0
370
    -2
100
AcDbLine
 10
4586.673057123639
 20
6615.308282750375
 30
0.0
 11
3002.673057123657
 21
6615.308282750375
 31
0.0
  0
INSERT
  5
18DA6
330
17BD3
100
AcDbEntity
  8
寸法
 62
     0
 48
50.0
370
    -2
100
AcDbBlockReference
  2
_DOTSMALL
 10
4586.673057123639
 20
6615.308282750375
 30
0.0
 41
100.0
 42
100.0
 43
100.0
  0
INSERT
  5
18DA7
330
17BD3
100
AcDbEntity
  8
寸法
 62
     0
 48
50.0
370
    -2
100
AcDbBlockReference
  2
_DOTSMALL
 10
3002.673057123657
 20
6615.308282750375
 30
0.0
 41
100.0
 42
100.0
 43
100.0
 50
180.0
  0
MTEXT
  5
18DA8
330
17BD3
100
AcDbEntity
  8
寸法
 62
     7
 48
50.0
100
AcDbMText
 10
3794.673057123648
 20
6815.308282750375
 30
0.0
 40
120.0
 41
0.0
 71
     5
 72
     1
  1
\A1;有効開口部間口\P 1584
  7
STYLE1
 73
     1
 44
1.0
1001
ACAD
1000
MTEXTBEGIN
1070
    73
1070
     1
1070
    44
1040
1.0
1070
    74
1070
     0
1000
MTEXTEND
  0
POINT
  5
18DA9
330
17BD3
100
AcDbEntity
  8
DEFPOINTS
 62
     0
 48
50.0
100
AcDbPoint
 10
4586.673057123639
 20
7175.73905351654
 30
0.0
  0
POINT
  5
18DAA
330
17BD3
100
AcDbEntity
  8
DEFPOINTS
 62
     0
 48
50.0
100
AcDbPoint
 10
3002.673057123657
 20
7175.739053516538
 30
0.0
  0
POINT
  5
18DAB
330
17BD3
100
AcDbEntity
  8
DEFPOINTS
 62
     0
 48
50.0
100
AcDbPoint
 10
3002.673057123657
 20
6615.308282750375
 30
0.0
  0
ENDBLK
  5
17BDD
330
17BD3
100
AcDbEntity
  8
0
 48
50.0
100
AcDbBlockEnd
  0
BLOCK
  5
17BE8
330
17BDE
100
AcDbEntity
  8
0
 48
50.0
100
AcDbBlockBegin
  2
*D21
 70
     1
 10
0.0
 20
0.0
 30
0.0
  3
*D21
  1

  0
LINE
  5
18DB7
330
17BDE
100
AcDbEntity
  8
寸法
 62
     0
 48
50.0
370
    -2
100
AcDbLine
 10
2954.673057123663
 20
10219.73905351654
 30
0.0
 11
2954.673057123663
 21
10475.54727314164
 31
0.0
  0
LINE
  5
18DB8
330
17BDE
100
AcDbEntity
  8
寸法
 62
     0
 48
50.0
370
    -2
100
AcDbLine
 10
4634.673057123664
 20
10219.73905351664
 30
0.0
 11
4634.673057123664
 21
10475.54727314164
 31
0.0
  0
LINE
  5
18DB9
330
17BDE
100
AcDbEntity
  8
寸法
 62
     0
 48
50.0
370
    -2
100
AcDbLine
 10
2954.673057123663
 20
10415.54727314164
 30
0.0
 11
4634.673057123664
 21
10415.54727314164
 31
0.0
  0
INSERT
  5
18DBA
330
17BDE
100
AcDbEntity
  8
寸法
 62
     0
 48
50.0
370
    -2
100
AcDbBlockReference
  2
_DOTSMALL
 10
2954.673057123663
 20
10415.54727314164
 30
0.0
 41
100.0
 42
100.0
 43
100.0
 50
180.0
  0
INSERT
  5
18DBB
330
17BDE
100
AcDbEntity
  8
寸法
 62
     0
 48
50.0
370
    -2
100
AcDbBlockReference
  2
_DOTSMALL
 10
4634.673057123664
 20
10415.54727314164
 30
0.0
 41
100.0
 42
100.0
 43
100.0
  0
MTEXT
  5
18DBC
330
17BDE
100
AcDbEntity
  8
寸法
 62
     7
 48
50.0
100
AcDbMText
 10
3794.673057123663
 20
10515.55908416526
 30
0.0
 40
120.0
 41
0.0
 71
     5
 72
     1
  1
\A1;4X420=1680
  7
STYLE1
 73
     1
 44
1.0
1001
ACAD
1000
MTEXTBEGIN
1070
    73
1070
     1
1070
    44
1040
1.0
1070
    74
1070
     0
1000
MTEXTEND
  0
POINT
  5
18DBD
330
17BDE
100
AcDbEntity
  8
DEFPOINTS
 62
     0
 48
50.0
100
AcDbPoint
 10
2954.673057123663
 20
10199.73905351654
 30
0.0
  0
POINT
  5
18DBE
330
17BDE
100
AcDbEntity
  8
DEFPOINTS
 62
     0
 48
50.0
100
AcDbPoint
 10
4634.673057123664
 20
10199.73905351664
 30
0.0
  0
POINT
  5
18DBF
330
17BDE
100
AcDbEntity
  8
DEFPOINTS
 62
     0
 48
50.0
100
AcDbPoint
 10
4634.673057123664
 20
10415.54727314164
 30
0.0
  0
ENDBLK
  5
17BE9
330
17BDE
100
AcDbEntity
  8
0
 48
50.0
100
AcDbBlockEnd
  0
BLOCK
  5
17BF6
330
17BEA
100
AcDbEntity
  8
0
 48
50.0
100
AcDbBlockBegin
  2
*D22
 70
     1
 10
0.0
 20
0.0
 30
0.0
  3
*D22
  1

  0
LINE
  5
18DAC
330
17BEA
100
AcDbEntity
  8
寸法
 62
     0
 48
50.0
370
    -2
100
AcDbLine
 10
4744.673057123662
 20
10219.73905351659
 30
0.0
 11
4744.673057123662
 21
10475.54727314164
 31
0.0
  0
LINE
  5
18DAD
330
17BEA
100
AcDbEntity
  8
寸法
 62
     0
 48
50.0
370
    -2
100
AcDbLine
 10
4634.673057123664
 20
10219.73905351659
 30
0.0
 11
4634.673057123664
 21
10475.54727314164
 31
0.0
  0
LINE
  5
18DAE
330
17BEA
100
AcDbEntity
  8
寸法
 62
     0
 48
50.0
370
    -2
100
AcDbLine
 10
4744.673057123662
 20
10415.54727314164
 30
0.0
 11
4844.673057123663
 21
10415.54727314164
 31
0.0
  0
LINE
  5
18DAF
330
17BEA
100
AcDbEntity
  8
寸法
 62
     0
 48
50.0
370
    -2
100
AcDbLine
 10
4634.673057123664
 20
10415.54727314164
 30
0.0
 11
4534.673057123664
 21
10415.54727314164
 31
0.0
  0
LINE
  5
18DB0
330
17BEA
100
AcDbEntity
  8
寸法
 62
     0
 48
50.0
370
    -2
100
AcDbLine
 10
4744.673057123662
 20
10415.54727314164
 30
0.0
 11
4634.673057123664
 21
10415.54727314164
 31
0.0
  0
INSERT
  5
18DB1
330
17BEA
100
AcDbEntity
  8
寸法
 62
     0
 48
50.0
370
    -2
100
AcDbBlockReference
  2
_DOTSMALL
 10
4744.673057123662
 20
10415.54727314164
 30
0.0
 41
100.0
 42
100.0
 43
100.0
 50
180.0
  0
INSERT
  5
18DB2
330
17BEA
100
AcDbEntity
  8
寸法
 62
     0
 48
50.0
370
    -2
100
AcDbBlockReference
  2
_DOTSMALL
 10
4634.673057123664
 20
10415.54727314164
 30
0.0
 41
100.0
 42
100.0
 43
100.0
  0
MTEXT
  5
18DB3
330
17BEA
100
AcDbEntity
  8
寸法
 62
     7
 48
50.0
100
AcDbMText
 10
4689.673057123664
 20
10515.54727314164
 30
0.0
 40
120.0
 41
0.0
 71
     5
 72
     1
  1
\A1;110
  7
STYLE1
 73
     1
 44
1.0
1001
ACAD
1000
MTEXTBEGIN
1070
    73
1070
     1
1070
    44
1040
1.0
1070
    74
1070
     0
1000
MTEXTEND
  0
POINT
  5
18DB4
330
17BEA
100
AcDbEntity
  8
DEFPOINTS
 62
     0
 48
50.0
100
AcDbPoint
 10
4744.673057123662
 20
10199.73905351659
 30
0.0
  0
POINT
  5
18DB5
330
17BEA
100
AcDbEntity
  8
DEFPOINTS
 62
     0
 48
50.0
100
AcDbPoint
 10
4634.673057123664
 20
10199.73905351659
 30
0.0
  0
POINT
  5
18DB6
330
17BEA
100
AcDbEntity
  8
DEFPOINTS
 62
     0
 48
50.0
100
AcDbPoint
 10
4634.673057123664
 20
10415.54727314164
 30
0.0
  0
ENDBLK
  5
17BF7
330
17BEA
100
AcDbEntity
  8
0
 48
50.0
100
AcDbBlockEnd
  0
BLOCK
  5
17C02
330
17BF8
100
AcDbEntity
  8
0
 48
50.0
100
AcDbBlockBegin
  2
*D23
 70
     1
 10
0.0
 20
0.0
 30
0.0
  3
*D23
  1

  0
LINE
  5
18DC0
330
17BF8
100
AcDbEntity
  8
寸法
 62
     0
 48
50.0
370
    -2
100
AcDbLine
 10
2899.673057123628
 20
10219.73905351651
 30
0.0
 11
2899.673057123628
 21
10724.86874669793
 31
0.0
  0
LINE
  5
18DC1
330
17BF8
100
AcDbEntity
  8
寸法
 62
     0
 48
50.0
370
    -2
100
AcDbLine
 10
4689.673057123664
 20
10594.53518749958
 30
0.0
 11
4689.673057123664
 21
10724.86874669793
 31
0.0
  0
LINE
  5
18DC2
330
17BF8
100
AcDbEntity
  8
寸法
 62
     0
 48
50.0
370
    -2
100
AcDbLine
 10
2899.673057123628
 20
10664.86874669793
 30
0.0
 11
4689.673057123664
 21
10664.86874669793
 31
0.0
  0
INSERT
  5
18DC3
330
17BF8
100
AcDbEntity
  8
寸法
 62
     0
 48
50.0
370
    -2
100
AcDbBlockReference
  2
_DOTSMALL
 10
2899.673057123628
 20
10664.86874669793
 30
0.0
 41
100.0
 42
100.0
 43
100.0
 50
180.0
  0
INSERT
  5
18DC4
330
17BF8
100
AcDbEntity
  8
寸法
 62
     0
 48
50.0
370
    -2
100
AcDbBlockReference
  2
_DOTSMALL
 10
4689.673057123664
 20
10664.86874669793
 30
0.0
 41
100.0
 42
100.0
 43
100.0
  0
MTEXT
  5
18DC5
330
17BF8
100
AcDbEntity
  8
寸法
 62
     7
 48
50.0
100
AcDbMText
 10
3794.673057123647
 20
10764.86874669793
 30
0.0
 40
120.0
 41
0.0
 71
     5
 72
     1
  1
\A1;1790
  7
STYLE1
 73
     1
 44
1.0
1001
ACAD
1000
MTEXTBEGIN
1070
    73
1070
     1
1070
    44
1040
1.0
1070
    74
1070
     0
1000
MTEXTEND
  0
POINT
  5
18DC6
330
17BF8
100
AcDbEntity
  8
DEFPOINTS
 62
     0
 48
50.0
100
AcDbPoint
 10
2899.673057123628
 20
10199.73905351651
 30
0.0
  0
POINT
  5
18DC7
330
17BF8
100
AcDbEntity
  8
DEFPOINTS
 62
     0
 48
50.0
100
AcDbPoint
 10
4689.673057123664
 20
10574.53518749958
 30
0.0
  0
POINT
  5
18DC8
330
17BF8
100
AcDbEntity
  8
DEFPOINTS
 62
     0
 48
50.0
100
AcDbPoint
 10
4689.673057123664
 20
10664.86874669793
 30
0.0
  0
ENDBLK
  5
17C03
330
17BF8
100
AcDbEntity
  8
0
 48
50.0
100
AcDbBlockEnd
  0
BLOCK
  5
17C54
330
17C48
100
AcDbEntity
  8
0
 48
50.0
100
AcDbBlockBegin
  2
*D24
 70
     1
 10
0.0
 20
0.0
 30
0.0
  3
*D24
  1

  0
LINE
  5
18D85
330
17C48
100
AcDbEntity
  8
寸法
 62
     0
 48
50.0
370
    -2
100
AcDbLine
 10
4792.673057123656
 20
7155.739053516538
 30
0.0
 11
4792.673057123656
 21
6555.308282750374
 31
0.0
  0
LINE
  5
18D86
330
17C48
100
AcDbEntity
  8
寸法
 62
     0
 48
50.0
370
    -2
100
AcDbLine
 10
4744.673057123653
 20
7129.739053516539
 30
0.0
 11
4744.673057123653
 21
6555.308282750374
 31
0.0
  0
LINE
  5
18D87
330
17C48
100
AcDbEntity
  8
寸法
 62
     0
 48
50.0
370
    -2
100
AcDbLine
 10
4792.673057123656
 20
6615.308282750375
 30
0.0
 11
4892.673057123657
 21
6615.308282750375
 31
0.0
  0
LINE
  5
18D88
330
17C48
100
AcDbEntity
  8
寸法
 62
     0
 48
50.0
370
    -2
100
AcDbLine
 10
4744.673057123653
 20
6615.308282750375
 30
0.0
 11
4644.673057123653
 21
6615.308282750375
 31
0.0
  0
MTEXT
  5
18D89
330
17C48
100
AcDbEntity
  8
寸法
 62
     7
 48
50.0
100
AcDbMText
 10
4905.575028123714
 20
6715.308282750375
 30
0.0
 40
120.0
 41
0.0
 71
     5
 72
     1
  1
\A1;48
  7
STYLE1
 73
     1
 44
1.0
1001
ACAD
1000
MTEXTBEGIN
1070
    73
1070
     1
1070
    44
1040
1.0
1070
    74
1070
     0
1000
MTEXTEND
  0
LINE
  5
18D8A
330
17C48
100
AcDbEntity
  8
寸法
 62
     0
 48
50.0
370
    -2
100
AcDbLine
 10
4792.673057123656
 20
6615.308282750375
 30
0.0
 11
4744.673057123653
 21
6615.308282750375
 31
0.0
  0
INSERT
  5
18D8B
330
17C48
100
AcDbEntity
  8
寸法
 62
     0
 48
50.0
370
    -2
100
AcDbBlockReference
  2
_DOTSMALL
 10
4792.673057123656
 20
6615.308282750375
 30
0.0
 41
100.0
 42
100.0
 43
100.0
 50
180.0
  0
INSERT
  5
18D8C
330
17C48
100
AcDbEntity
  8
寸法
 62
     0
 48
50.0
370
    -2
100
AcDbBlockReference
  2
_DOTSMALL
 10
4744.673057123653
 20
6615.308282750375
 30
0.0
 41
100.0
 42
100.0
 43
100.0
  0
POINT
  5
18D8D
330
17C48
100
AcDbEntity
  8
DEFPOINTS
 62
     0
 48
50.0
100
AcDbPoint
 10
4792.673057123656
 20
7175.739053516538
 30
0.0
  0
POINT
  5
18D8E
330
17C48
100
AcDbEntity
  8
DEFPOINTS
 62
     0
 48
50.0
100
AcDbPoint
 10
4744.673057123653
 20
7149.739053516539
 30
0.0
  0
POINT
  5
18D8F
330
17C48
100
AcDbEntity
  8
DEFPOINTS
 62
     0
 48
50.0
100
AcDbPoint
 10
4744.673057123653
 20
6615.308282750375
 30
0.0
  0
ENDBLK
  5
17C55
330
17C48
100
AcDbEntity
  8
0
 48
50.0
100
AcDbBlockEnd
  0
BLOCK
  5
17C60
330
17C56
100
AcDbEntity
  8
0
 48
50.0
100
AcDbBlockBegin
  2
*D25
 70
     1
 10
0.0
 20
0.0
 30
0.0
  3
*D25
  1

  0
LINE
  5
18D90
330
17C56
100
AcDbEntity
  8
寸法
 62
     0
 48
50.0
370
    -2
100
AcDbLine
 10
4744.673057123653
 20
7129.739053516539
 30
0.0
 11
4744.673057123653
 21
6555.308282750376
 31
0.0
  0
LINE
  5
18D91
330
17C56
100
AcDbEntity
  8
寸法
 62
     0
 48
50.0
370
    -2
100
AcDbLine
 10
4634.673057123641
 20
7129.739053516627
 30
0.0
 11
4634.673057123641
 21
6555.308282750376
 31
0.0
  0
LINE
  5
18D92
330
17C56
100
AcDbEntity
  8
寸法
 62
     0
 48
50.0
370
    -2
100
AcDbLine
 10
4744.673057123653
 20
6615.308282750376
 30
0.0
 11
4634.673057123641
 21
6615.308282750376
 31
0.0
  0
MTEXT
  5
18D93
330
17C56
100
AcDbEntity
  8
寸法
 62
     7
 48
50.0
100
AcDbMText
 10
4689.673057123647
 20
6463.616387714144
 30
0.0
 40
120.0
 41
0.0
 71
     5
 72
     1
  1
\A1;110
  7
STYLE1
 73
     1
 44
1.0
1001
ACAD
1000
MTEXTBEGIN
1070
    73
1070
     1
1070
    44
1040
1.0
1070
    74
1070
     0
1000
MTEXTEND
  0
INSERT
  5
18D94
330
17C56
100
AcDbEntity
  8
寸法
 62
     0
 48
50.0
370
    -2
100
AcDbBlockReference
  2
_DOTSMALL
 10
4744.673057123653
 20
6615.308282750376
 30
0.0
 41
100.0
 42
100.0
 43
100.0
  0
INSERT
  5
18D95
330
17C56
100
AcDbEntity
  8
寸法
 62
     0
 48
50.0
370
    -2
100
AcDbBlockReference
  2
_DOTSMALL
 10
4634.673057123641
 20
6615.308282750376
 30
0.0
 41
100.0
 42
100.0
 43
100.0
 50
180.0
  0
POINT
  5
18D96
330
17C56
100
AcDbEntity
  8
DEFPOINTS
 62
     0
 48
50.0
100
AcDbPoint
 10
4744.673057123653
 20
7149.739053516539
 30
0.0
  0
POINT
  5
18D97
330
17C56
100
AcDbEntity
  8
DEFPOINTS
 62
     0
 48
50.0
100
AcDbPoint
 10
4634.673057123641
 20
7149.739053516627
 30
0.0
  0
POINT
  5
18D98
330
17C56
100
AcDbEntity
  8
DEFPOINTS
 62
     0
 48
50.0
100
AcDbPoint
 10
4634.673057123641
 20
6615.308282750376
 30
0.0
  0
ENDBLK
  5
17C61
330
17C56
100
AcDbEntity
  8
0
 48
50.0
100
AcDbBlockEnd
  0
BLOCK
  5
1973B
330
19730
100
AcDbEntity
  8
0
 48
50.0
100
AcDbBlockBegin
  2
*D26
 70
     1
 10
0.0
 20
0.0
 30
0.0
  3
*D26
  1

  0
LINE
  5
19C63
330
19730
100
AcDbEntity
  8
寸法
 62
     0
 48
50.0
370
    -2
100
AcDbLine
 10
10899.91323435719
 20
4262.655806346851
 30
0.0
 11
10283.9787952519
 21
4280.369956621181
 31
0.0
  0
LINE
  5
19C64
330
19730
100
AcDbEntity
  8
寸法
 62
     0
 48
50.0
370
    -2
100
AcDbLine
 10
10895.85977880056
 20
4121.714082581138
 30
0.0
 11
10279.92533969527
 21
4139.428232855467
 31
0.0
  0
LINE
  5
19C65
330
19730
100
AcDbEntity
  8
寸法
 62
     0
 48
50.0
370
    -2
100
AcDbLine
 10
10339.9005412977
 20
4137.70335815052
 30
0.0
 11
10343.95399685433
 21
4278.645081916232
 31
0.0
  0
LINE
  5
19C66
330
19730
100
AcDbEntity
  8
寸法
 62
     0
 48
50.0
370
    -2
100
AcDbLine
 10
10343.95399685433
 20
4278.645081916232
 30
0.0
 11
10354.30324508401
 21
4638.496291530818
 31
0.0
  0
INSERT
  5
19C67
330
19730
100
AcDbEntity
  8
寸法
 62
     0
 48
50.0
370
    -2
100
AcDbBlockReference
  2
_DOTSMALL
 10
10339.9005412977
 20
4137.70335815052
 30
0.0
 41
100.0
 42
100.0
 43
100.0
 50
268.3526390256378
  0
INSERT
  5
19C68
330
19730
100
AcDbEntity
  8
寸法
 62
     0
 48
50.0
370
    -2
100
AcDbBlockReference
  2
_DOTSMALL
 10
10343.95399685433
 20
4278.645081916232
 30
0.0
 41
100.0
 42
100.0
 43
100.0
 50
88.35263902563776
  0
MTEXT
  5
19C69
330
19730
100
AcDbEntity
  8
寸法
 62
     7
 48
50.0
100
AcDbMText
 10
10250.60734721924
 20
4511.424812567132
 30
0.0
 40
120.0
 41
0.0
 71
     5
 72
     1
  1
\A1;141
  7
STYLE1
 11
0.0287479117491237
 21
0.9995866933738488
 31
0.0
 73
     1
 44
1.0
1001
ACAD
1000
MTEXTBEGIN
1070
    73
1070
     1
1070
    44
1040
1.0
1070
    74
1070
     0
1000
MTEXTEND
  0
POINT
  5
19C6A
330
19730
100
AcDbEntity
  8
DEFPOINTS
 62
     0
 48
50.0
100
AcDbPoint
 10
10919.90496822466
 20
4262.080848111868
 30
0.0
  0
POINT
  5
19C6B
330
19730
100
AcDbEntity
  8
DEFPOINTS
 62
     0
 48
50.0
100
AcDbPoint
 10
10915.85151266804
 20
4121.139124346155
 30
0.0
  0
POINT
  5
19C6C
330
19730
100
AcDbEntity
  8
DEFPOINTS
 62
     0
 48
50.0
100
AcDbPoint
 10
10339.9005412977
 20
4137.70335815052
 30
0.0
  0
ENDBLK
  5
1973C
330
19730
100
AcDbEntity
  8
0
 48
50.0
100
AcDbBlockEnd
  0
BLOCK
  5
19748
330
1973D
100
AcDbEntity
  8
0
 48
50.0
100
AcDbBlockBegin
  2
*D27
 70
     1
 10
0.0
 20
0.0
 30
0.0
  3
*D27
  1

  0
LINE
  5
19C59
330
1973D
100
AcDbEntity
  8
寸法
 62
     0
 48
50.0
370
    -2
100
AcDbLine
 10
14010.50894806608
 20
4230.168778888844
 30
0.0
 11
14010.50894806608
 21
4722.015552856496
 31
0.0
  0
LINE
  5
19C5A
330
1973D
100
AcDbEntity
  8
寸法
 62
     0
 48
50.0
370
    -2
100
AcDbLine
 10
14090.50894806608
 20
4228.358099277193
 30
0.0
 11
14090.50894806608
 21
4722.015552856496
 31
0.0
  0
LINE
  5
19C5B
330
1973D
100
AcDbEntity
  8
寸法
 62
     0
 48
50.0
370
    -2
100
AcDbLine
 10
14010.50894806608
 20
4662.015552856495
 30
0.0
 11
14090.50894806608
 21
4662.015552856495
 31
0.0
  0
LINE
  5
19C5C
330
1973D
100
AcDbEntity
  8
寸法
 62
     0
 48
50.0
370
    -2
100
AcDbLine
 10
14090.50894806608
 20
4662.015552856495
 30
0.0
 11
14402.60343625506
 21
4662.015552856495
 31
0.0
  0
INSERT
  5
19C5D
330
1973D
100
AcDbEntity
  8
寸法
 62
     0
 48
50.0
370
    -2
100
AcDbBlockReference
  2
_DOTSMALL
 10
14010.50894806608
 20
4662.015552856495
 30
0.0
 41
100.0
 42
100.0
 43
100.0
 50
180.0
  0
INSERT
  5
19C5E
330
1973D
100
AcDbEntity
  8
寸法
 62
     0
 48
50.0
370
    -2
100
AcDbBlockReference
  2
_DOTSMALL
 10
14090.50894806608
 20
4662.015552856495
 30
0.0
 41
100.0
 42
100.0
 43
100.0
  0
MTEXT
  5
19C5F
330
1973D
100
AcDbEntity
  8
寸法
 62
     7
 48
50.0
100
AcDbMText
 10
14296.55619216057
 20
4762.015552856495
 30
0.0
 40
120.0
 41
0.0
 71
     5
 72
     1
  1
\A1;80
  7
STYLE1
 73
     1
 44
1.0
1001
ACAD
1000
MTEXTBEGIN
1070
    73
1070
     1
1070
    44
1040
1.0
1070
    74
1070
     0
1000
MTEXTEND
  0
POINT
  5
19C60
330
1973D
100
AcDbEntity
  8
DEFPOINTS
 62
     0
 48
50.0
100
AcDbPoint
 10
14010.50894806608
 20
4210.168778888845
 30
0.0
  0
POINT
  5
19C61
330
1973D
100
AcDbEntity
  8
DEFPOINTS
 62
     0
 48
50.0
100
AcDbPoint
 10
14090.50894806608
 20
4208.358099277194
 30
0.0
  0
POINT
  5
19C62
330
1973D
100
AcDbEntity
  8
DEFPOINTS
 62
     0
 48
50.0
100
AcDbPoint
 10
14090.50894806608
 20
4662.015552856495
 30
0.0
  0
ENDBLK
  5
19749
330
1973D
100
AcDbEntity
  8
0
 48
50.0
100
AcDbBlockEnd
  0
BLOCK
  5
19754
330
1974A
100
AcDbEntity
  8
0
 48
50.0
100
AcDbBlockBegin
  2
*D28
 70
     1
 10
0.0
 20
0.0
 30
0.0
  3
*D28
  1

  0
LINE
  5
1A687
330
1974A
100
AcDbEntity
  8
寸法
 62
     0
 48
50.0
370
    -2
100
AcDbLine
 10
14090.50894806608
 20
4228.358099277191
 30
0.0
 11
14090.50894806608
 21
4952.129145642771
 31
0.0
  0
LINE
  5
1A688
330
1974A
100
AcDbEntity
  8
寸法
 62
     0
 48
50.0
370
    -2
100
AcDbLine
 10
10900.50894806608
 20
4283.358099277195
 30
0.0
 11
10900.50894806608
 21
4952.129145642771
 31
0.0
  0
LINE
  5
1A689
330
1974A
100
AcDbEntity
  8
寸法
 62
     0
 48
50.0
370
    -2
100
AcDbLine
 10
14090.50894806608
 20
4892.129145642772
 30
0.0
 11
10900.50894806608
 21
4892.129145642772
 31
0.0
  0
INSERT
  5
1A68A
330
1974A
100
AcDbEntity
  8
寸法
 62
     0
 48
50.0
370
    -2
100
AcDbBlockReference
  2
_DOTSMALL
 10
14090.50894806608
 20
4892.129145642772
 30
0.0
 41
100.0
 42
100.0
 43
100.0
  0
INSERT
  5
1A68B
330
1974A
100
AcDbEntity
  8
寸法
 62
     0
 48
50.0
370
    -2
100
AcDbBlockReference
  2
_DOTSMALL
 10
10900.50894806608
 20
4892.129145642772
 30
0.0
 41
100.0
 42
100.0
 43
100.0
 50
180.0
  0
MTEXT
  5
1A68C
330
1974A
100
AcDbEntity
  8
寸法
 62
     7
 48
50.0
100
AcDbMText
 10
12495.50894806608
 20
4992.129145642771
 30
0.0
 40
120.0
 41
0.0
 71
     5
 72
     1
  1
\A1;3190
  7
STYLE1
 73
     1
 44
1.0
1001
ACAD
1000
MTEXTBEGIN
1070
    73
1070
     1
1070
    44
1040
1.0
1070
    74
1070
     0
1000
MTEXTEND
  0
POINT
  5
1A68D
330
1974A
100
AcDbEntity
  8
DEFPOINTS
 62
     0
 48
50.0
100
AcDbPoint
 10
14090.50894806608
 20
4208.358099277191
 30
0.0
  0
POINT
  5
1A68E
330
1974A
100
AcDbEntity
  8
DEFPOINTS
 62
     0
 48
50.0
100
AcDbPoint
 10
10900.50894806608
 20
4263.358099277194
 30
0.0
  0
POINT
  5
1A68F
330
1974A
100
AcDbEntity
  8
DEFPOINTS
 62
     0
 48
50.0
100
AcDbPoint
 10
10900.50894806608
 20
4892.129145642772
 30
0.0
  0
ENDBLK
  5
19755
330
1974A
100
AcDbEntity
  8
0
 48
50.0
100
AcDbBlockEnd
  0
BLOCK
  5
19762
330
19756
100
AcDbEntity
  8
0
 48
50.0
100
AcDbBlockBegin
  2
*D29
 70
     1
 10
0.0
 20
0.0
 30
0.0
  3
*D29
  1

  0
LINE
  5
19C45
330
19756
100
AcDbEntity
  8
寸法
 62
     0
 48
50.0
370
    -2
100
AcDbLine
 10
10960.50894806609
 20
4279.359717400166
 30
0.0
 11
10960.50894806609
 21
4722.015552856493
 31
0.0
  0
LINE
  5
19C46
330
19756
100
AcDbEntity
  8
寸法
 62
     0
 48
50.0
370
    -2
100
AcDbLine
 10
10900.50894806608
 20
4283.358099277195
 30
0.0
 11
10900.50894806608
 21
4722.015552856493
 31
0.0
  0
LINE
  5
19C47
330
19756
100
AcDbEntity
  8
寸法
 62
     0
 48
50.0
370
    -2
100
AcDbLine
 10
10960.50894806609
 20
4662.015552856494
 30
0.0
 11
11060.50894806609
 21
4662.015552856494
 31
0.0
  0
LINE
  5
19C48
330
19756
100
AcDbEntity
  8
寸法
 62
     0
 48
50.0
370
    -2
100
AcDbLine
 10
10900.50894806608
 20
4662.015552856494
 30
0.0
 11
10481.2333575149
 21
4662.015552856494
 31
0.0
  0
LINE
  5
19C49
330
19756
100
AcDbEntity
  8
寸法
 62
     0
 48
50.0
370
    -2
100
AcDbLine
 10
10960.50894806609
 20
4662.015552856494
 30
0.0
 11
10900.50894806608
 21
4662.015552856494
 31
0.0
  0
INSERT
  5
19C4A
330
19756
100
AcDbEntity
  8
寸法
 62
     0
 48
50.0
370
    -2
100
AcDbBlockReference
  2
_DOTSMALL
 10
10960.50894806609
 20
4662.015552856494
 30
0.0
 41
100.0
 42
100.0
 43
100.0
 50
180.0
  0
INSERT
  5
19C4B
330
19756
100
AcDbEntity
  8
寸法
 62
     0
 48
50.0
370
    -2
100
AcDbBlockReference
  2
_DOTSMALL
 10
10900.50894806608
 20
4662.015552856494
 30
0.0
 41
100.0
 42
100.0
 43
100.0
  0
MTEXT
  5
19C4C
330
19756
100
AcDbEntity
  8
寸法
 62
     7
 48
50.0
100
AcDbMText
 10
10590.87115279049
 20
4762.015552856493
 30
0.0
 40
120.0
 41
0.0
 71
     5
 72
     1
  1
\A1;60
  7
STYLE1
 73
     1
 44
1.0
1001
ACAD
1000
MTEXTBEGIN
1070
    73
1070
     1
1070
    44
1040
1.0
1070
    74
1070
     0
1000
MTEXTEND
  0
POINT
  5
19C4D
330
19756
100
AcDbEntity
  8
DEFPOINTS
 62
     0
 48
50.0
100
AcDbPoint
 10
10960.50894806609
 20
4259.359717400166
 30
0.0
  0
POINT
  5
19C4E
330
19756
100
AcDbEntity
  8
DEFPOINTS
 62
     0
 48
50.0
100
AcDbPoint
 10
10900.50894806608
 20
4263.358099277194
 30
0.0
  0
POINT
  5
19C4F
330
19756
100
AcDbEntity
  8
DEFPOINTS
 62
     0
 48
50.0
100
AcDbPoint
 10
10900.50894806608
 20
4662.015552856494
 30
0.0
  0
ENDBLK
  5
19763
330
19756
100
AcDbEntity
  8
0
 48
50.0
100
AcDbBlockEnd
  0
BLOCK
  5
1976E
330
19764
100
AcDbEntity
  8
0
 48
50.0
100
AcDbBlockBegin
  2
*D30
 70
     1
 10
0.0
 20
0.0
 30
0.0
  3
*D30
  1

  0
LINE
  5
1A690
330
19764
100
AcDbEntity
  8
寸法
 62
     0
 48
50.0
370
    -2
100
AcDbLine
 10
14010.50894806608
 20
4230.168778888844
 30
0.0
 11
14010.50894806608
 21
4722.015552856496
 31
0.0
  0
LINE
  5
1A691
330
19764
100
AcDbEntity
  8
寸法
 62
     0
 48
50.0
370
    -2
100
AcDbLine
 10
10960.50894806609
 20
4279.359717400166
 30
0.0
 11
10960.50894806609
 21
4722.015552856496
 31
0.0
  0
LINE
  5
1A692
330
19764
100
AcDbEntity
  8
寸法
 62
     0
 48
50.0
370
    -2
100
AcDbLine
 10
14010.50894806608
 20
4662.015552856495
 30
0.0
 11
10960.50894806609
 21
4662.015552856495
 31
0.0
  0
INSERT
  5
1A693
330
19764
100
AcDbEntity
  8
寸法
 62
     0
 48
50.0
370
    -2
100
AcDbBlockReference
  2
_DOTSMALL
 10
14010.50894806608
 20
4662.015552856495
 30
0.0
 41
100.0
 42
100.0
 43
100.0
  0
INSERT
  5
1A694
330
19764
100
AcDbEntity
  8
寸法
 62
     0
 48
50.0
370
    -2
100
AcDbBlockReference
  2
_DOTSMALL
 10
10960.50894806609
 20
4662.015552856495
 30
0.0
 41
100.0
 42
100.0
 43
100.0
 50
180.0
  0
MTEXT
  5
1A695
330
19764
100
AcDbEntity
  8
寸法
 62
     7
 48
50.0
100
AcDbMText
 10
12485.50894806608
 20
4762.015552856495
 30
0.0
 40
120.0
 41
0.0
 71
     5
 72
     1
  1
\A1;柱外寸法3050
  7
STYLE1
 73
     1
 44
1.0
1001
ACAD
1000
MTEXTBEGIN
1070
    73
1070
     1
1070
    44
1040
1.0
1070
    74
1070
     0
1000
MTEXTEND
  0
POINT
  5
1A696
330
19764
100
AcDbEntity
  8
DEFPOINTS
 62
     0
 48
50.0
100
AcDbPoint
 10
14010.50894806608
 20
4210.168778888845
 30
0.0
  0
POINT
  5
1A697
330
19764
100
AcDbEntity
  8
DEFPOINTS
 62
     0
 48
50.0
100
AcDbPoint
 10
10960.50894806609
 20
4259.359717400166
 30
0.0
  0
POINT
  5
1A698
330
19764
100
AcDbEntity
  8
DEFPOINTS
 62
     0
 48
50.0
100
AcDbPoint
 10
10960.50894806609
 20
4662.015552856495
 30
0.0
  0
ENDBLK
  5
1976F
330
19764
100
AcDbEntity
  8
0
 48
50.0
100
AcDbBlockEnd
  0
BLOCK
  5
1977C
330
19770
100
AcDbEntity
  8
0
 48
50.0
100
AcDbBlockBegin
  2
*D31
 70
     1
 10
0.0
 20
0.0
 30
0.0
  3
*D31
  1

  0
LINE
  5
19C31
330
19770
100
AcDbEntity
  8
寸法
 62
     0
 48
50.0
370
    -2
100
AcDbLine
 10
10940.50894806608
 20
2238.35809927719
 30
0.0
 11
10056.75881888282
 21
2238.35809927719
 31
0.0
  0
LINE
  5
19C32
330
19770
100
AcDbEntity
  8
寸法
 62
     0
 48
50.0
370
    -2
100
AcDbLine
 10
10885.50894806608
 20
2188.35809927719
 30
0.0
 11
10056.75881888282
 21
2188.35809927719
 31
0.0
  0
LINE
  5
19C33
330
19770
100
AcDbEntity
  8
寸法
 62
     0
 48
50.0
370
    -2
100
AcDbLine
 10
10116.75881888282
 20
2238.35809927719
 30
0.0
 11
10116.75881888282
 21
2338.35809927719
 31
0.0
  0
LINE
  5
19C34
330
19770
100
AcDbEntity
  8
寸法
 62
     0
 48
50.0
370
    -2
100
AcDbLine
 10
10116.75881888282
 20
2188.35809927719
 30
0.0
 11
10116.75881888282
 21
1776.26361108821
 31
0.0
  0
LINE
  5
19C35
330
19770
100
AcDbEntity
  8
寸法
 62
     0
 48
50.0
370
    -2
100
AcDbLine
 10
10116.75881888282
 20
2238.35809927719
 30
0.0
 11
10116.75881888282
 21
2188.35809927719
 31
0.0
  0
INSERT
  5
19C36
330
19770
100
AcDbEntity
  8
寸法
 62
     0
 48
50.0
370
    -2
100
AcDbBlockReference
  2
_DOTSMALL
 10
10116.75881888282
 20
2238.35809927719
 30
0.0
 41
100.0
 42
100.0
 43
100.0
 50
270.0
  0
INSERT
  5
19C37
330
19770
100
AcDbEntity
  8
寸法
 62
     0
 48
50.0
370
    -2
100
AcDbBlockReference
  2
_DOTSMALL
 10
10116.75881888282
 20
2188.35809927719
 30
0.0
 41
100.0
 42
100.0
 43
100.0
 50
90.0
  0
MTEXT
  5
19C38
330
19770
100
AcDbEntity
  8
寸法
 62
     7
 48
50.0
100
AcDbMText
 10
10016.75881888282
 20
1882.310855182699
 30
0.0
 40
120.0
 41
0.0
 71
     5
 72
     1
  1
\A1;50
  7
STYLE1
 11
0.0000000000000001
 21
1.0
 31
0.0
 73
     1
 44
1.0
1001
ACAD
1000
MTEXTBEGIN
1070
    73
1070
     1
1070
    44
1040
1.0
1070
    74
1070
     0
1000
MTEXTEND
  0
POINT
  5
19C39
330
19770
100
AcDbEntity
  8
DEFPOINTS
 62
     0
 48
50.0
100
AcDbPoint
 10
10960.50894806609
 20
2238.35809927719
 30
0.0
  0
POINT
  5
19C3A
330
19770
100
AcDbEntity
  8
DEFPOINTS
 62
     0
 48
50.0
100
AcDbPoint
 10
10905.50894806608
 20
2188.35809927719
 30
0.0
  0
POINT
  5
19C3B
330
19770
100
AcDbEntity
  8
DEFPOINTS
 62
     0
 48
50.0
100
AcDbPoint
 10
10116.75881888282
 20
2188.35809927719
 30
0.0
  0
ENDBLK
  5
1977D
330
19770
100
AcDbEntity
  8
0
 48
50.0
100
AcDbBlockEnd
  0
BLOCK
  5
19788
330
1977E
100
AcDbEntity
  8
0
 48
50.0
100
AcDbBlockBegin
  2
*D32
 70
     1
 10
0.0
 20
0.0
 30
0.0
  3
*D32
  1

  0
LINE
  5
19C28
330
1977E
100
AcDbEntity
  8
寸法
 62
     0
 48
50.0
370
    -2
100
AcDbLine
 10
14030.50894806608
 20
2188.358099277192
 30
0.0
 11
14775.43610603821
 21
2188.358099277192
 31
0.0
  0
LINE
  5
19C29
330
1977E
100
AcDbEntity
  8
寸法
 62
     0
 48
50.0
370
    -2
100
AcDbLine
 10
14110.50894806608
 20
4208.358099277191
 30
0.0
 11
14775.43610603821
 21
4208.35809927719
 31
0.0
  0
LINE
  5
19C2A
330
1977E
100
AcDbEntity
  8
寸法
 62
     0
 48
50.0
370
    -2
100
AcDbLine
 10
14715.43610603821
 20
2188.358099277192
 30
0.0
 11
14715.43610603821
 21
4208.35809927719
 31
0.0
  0
INSERT
  5
19C2B
330
1977E
100
AcDbEntity
  8
寸法
 62
     0
 48
50.0
370
    -2
100
AcDbBlockReference
  2
_DOTSMALL
 10
14715.43610603821
 20
2188.358099277192
 30
0.0
 41
100.0
 42
100.0
 43
100.0
 50
270.0
  0
INSERT
  5
19C2C
330
1977E
100
AcDbEntity
  8
寸法
 62
     0
 48
50.0
370
    -2
100
AcDbBlockReference
  2
_DOTSMALL
 10
14715.43610603821
 20
4208.35809927719
 30
0.0
 41
100.0
 42
100.0
 43
100.0
 50
90.0
  0
MTEXT
  5
19C2D
330
1977E
100
AcDbEntity
  8
寸法
 62
     7
 48
50.0
100
AcDbMText
 10
14615.42429501458
 20
3198.358099277194
 30
0.0
 40
120.0
 41
0.0
 71
     5
 72
     1
  1
\A1;2020
  7
STYLE1
 11
0.0000000000000001
 21
1.0
 31
0.0
 73
     1
 44
1.0
1001
ACAD
1000
MTEXTBEGIN
1070
    73
1070
     1
1070
    44
1040
1.0
1070
    74
1070
     0
1000
MTEXTEND
  0
POINT
  5
19C2E
330
1977E
100
AcDbEntity
  8
DEFPOINTS
 62
     0
 48
50.0
100
AcDbPoint
 10
14010.50894806608
 20
2188.358099277192
 30
0.0
  0
POINT
  5
19C2F
330
1977E
100
AcDbEntity
  8
DEFPOINTS
 62
     0
 48
50.0
100
AcDbPoint
 10
14090.50894806608
 20
4208.358099277191
 30
0.0
  0
POINT
  5
19C30
330
1977E
100
AcDbEntity
  8
DEFPOINTS
 62
     0
 48
50.0
100
AcDbPoint
 10
14715.43610603821
 20
4208.35809927719
 30
0.0
  0
ENDBLK
  5
19789
330
1977E
100
AcDbEntity
  8
0
 48
50.0
100
AcDbBlockEnd
  0
BLOCK
  5
19794
330
1978A
100
AcDbEntity
  8
0
 48
50.0
100
AcDbBlockBegin
  2
*D33
 70
     1
 10
0.0
 20
0.0
 30
0.0
  3
*D33
  1

  0
LINE
  5
19C1F
330
1978A
100
AcDbEntity
  8
寸法
 62
     0
 48
50.0
370
    -2
100
AcDbLine
 10
10940.50894806608
 20
2188.358099277184
 30
0.0
 11
9756.758818882826
 21
2188.358099277184
 31
0.0
  0
LINE
  5
19C20
330
1978A
100
AcDbEntity
  8
寸法
 62
     0
 48
50.0
370
    -2
100
AcDbLine
 10
10880.50894806609
 20
4263.35809927719
 30
0.0
 11
9756.758818882827
 21
4263.35809927719
 31
0.0
  0
LINE
  5
19C21
330
1978A
100
AcDbEntity
  8
寸法
 62
     0
 48
50.0
370
    -2
100
AcDbLine
 10
9816.758818882824
 20
2188.358099277184
 30
0.0
 11
9816.758818882828
 21
4263.35809927719
 31
0.0
  0
INSERT
  5
19C22
330
1978A
100
AcDbEntity
  8
寸法
 62
     0
 48
50.0
370
    -2
100
AcDbBlockReference
  2
_DOTSMALL
 10
9816.758818882824
 20
2188.358099277184
 30
0.0
 41
100.0
 42
100.0
 43
100.0
 50
270.0
  0
INSERT
  5
19C23
330
1978A
100
AcDbEntity
  8
寸法
 62
     0
 48
50.0
370
    -2
100
AcDbBlockReference
  2
_DOTSMALL
 10
9816.758818882828
 20
4263.35809927719
 30
0.0
 41
100.0
 42
100.0
 43
100.0
 50
90.0
  0
MTEXT
  5
19C24
330
1978A
100
AcDbEntity
  8
寸法
 62
     7
 48
50.0
100
AcDbMText
 10
9716.747007859204
 20
3225.858099277189
 30
0.0
 40
120.0
 41
0.0
 71
     5
 72
     1
  1
\A1;2075
  7
STYLE1
 11
0.0000000000000001
 21
1.0
 31
0.0
 73
     1
 44
1.0
1001
ACAD
1000
MTEXTBEGIN
1070
    73
1070
     1
1070
    44
1040
1.0
1070
    74
1070
     0
1000
MTEXTEND
  0
POINT
  5
19C25
330
1978A
100
AcDbEntity
  8
DEFPOINTS
 62
     0
 48
50.0
100
AcDbPoint
 10
10960.50894806609
 20
2188.358099277184
 30
0.0
  0
POINT
  5
19C26
330
1978A
100
AcDbEntity
  8
DEFPOINTS
 62
     0
 48
50.0
100
AcDbPoint
 10
10900.50894806608
 20
4263.35809927719
 30
0.0
  0
POINT
  5
19C27
330
1978A
100
AcDbEntity
  8
DEFPOINTS
 62
     0
 48
50.0
100
AcDbPoint
 10
9816.758818882828
 20
4263.35809927719
 30
0.0
  0
ENDBLK
  5
19795
330
1978A
100
AcDbEntity
  8
0
 48
50.0
100
AcDbBlockEnd
  0
BLOCK
  5
197A0
330
19796
100
AcDbEntity
  8
0
 48
50.0
100
AcDbBlockBegin
  2
*D34
 70
     1
 10
0.0
 20
0.0
 30
0.0
  3
*D34
  1

  0
LINE
  5
19C16
330
19796
100
AcDbEntity
  8
寸法
 62
     0
 48
50.0
370
    -2
100
AcDbLine
 10
10940.50894806608
 20
4028.358099277187
 30
0.0
 11
10056.75881888282
 21
4028.358099277187
 31
0.0
  0
LINE
  5
19C17
330
19796
100
AcDbEntity
  8
寸法
 62
     0
 48
50.0
370
    -2
100
AcDbLine
 10
10940.50894806608
 20
2238.358099277184
 30
0.0
 11
10056.75881888282
 21
2238.358099277184
 31
0.0
  0
LINE
  5
19C18
330
19796
100
AcDbEntity
  8
寸法
 62
     0
 48
50.0
370
    -2
100
AcDbLine
 10
10116.75881888282
 20
4028.358099277187
 30
0.0
 11
10116.75881888282
 21
2238.358099277184
 31
0.0
  0
INSERT
  5
19C19
330
19796
100
AcDbEntity
  8
寸法
 62
     0
 48
50.0
370
    -2
100
AcDbBlockReference
  2
_DOTSMALL
 10
10116.75881888282
 20
4028.358099277187
 30
0.0
 41
100.0
 42
100.0
 43
100.0
 50
90.0
  0
INSERT
  5
19C1A
330
19796
100
AcDbEntity
  8
寸法
 62
     0
 48
50.0
370
    -2
100
AcDbBlockReference
  2
_DOTSMALL
 10
10116.75881888282
 20
2238.358099277184
 30
0.0
 41
100.0
 42
100.0
 43
100.0
 50
270.0
  0
MTEXT
  5
19C1B
330
19796
100
AcDbEntity
  8
寸法
 62
     7
 48
50.0
100
AcDbMText
 10
10016.75881888282
 20
3133.358099277187
 30
0.0
 40
120.0
 41
0.0
 71
     5
 72
     1
  1
\A1;1790
  7
STYLE1
 11
0.0000000000000001
 21
1.0
 31
0.0
 73
     1
 44
1.0
1001
ACAD
1000
MTEXTBEGIN
1070
    73
1070
     1
1070
    44
1040
1.0
1070
    74
1070
     0
1000
MTEXTEND
  0
POINT
  5
19C1C
330
19796
100
AcDbEntity
  8
DEFPOINTS
 62
     0
 48
50.0
100
AcDbPoint
 10
10960.50894806609
 20
4028.358099277187
 30
0.0
  0
POINT
  5
19C1D
330
19796
100
AcDbEntity
  8
DEFPOINTS
 62
     0
 48
50.0
100
AcDbPoint
 10
10960.50894806609
 20
2238.358099277184
 30
0.0
  0
POINT
  5
19C1E
330
19796
100
AcDbEntity
  8
DEFPOINTS
 62
     0
 48
50.0
100
AcDbPoint
 10
10116.75881888282
 20
2238.358099277184
 30
0.0
  0
ENDBLK
  5
197A1
330
19796
100
AcDbEntity
  8
0
 48
50.0
100
AcDbBlockEnd
  0
BLOCK
  5
1A17B
330
1A16F
100
AcDbEntity
  8
0
 48
50.0
100
AcDbBlockBegin
  2
*D35
 70
     1
 10
0.0
 20
0.0
 30
0.0
  3
*D35
  1

  0
LINE
  5
1A1A3
330
1A16F
100
AcDbEntity
  8
寸法
 62
     0
 48
50.0
370
    -2
100
AcDbLine
 10
2899.673057123655
 20
4283.358099277196
 30
0.0
 11
2899.673057123655
 21
4729.0843710091
 31
0.0
  0
LINE
  5
1A1A4
330
1A16F
100
AcDbEntity
  8
寸法
 62
     0
 48
50.0
370
    -2
100
AcDbLine
 10
2849.673057123655
 20
4283.358099277196
 30
0.0
 11
2849.673057123655
 21
4729.0843710091
 31
0.0
  0
LINE
  5
1A1A5
330
1A16F
100
AcDbEntity
  8
寸法
 62
     0
 48
50.0
370
    -2
100
AcDbLine
 10
2899.673057123655
 20
4669.084371009099
 30
0.0
 11
2999.673057123655
 21
4669.084371009099
 31
0.0
  0
LINE
  5
1A1A6
330
1A16F
100
AcDbEntity
  8
寸法
 62
     0
 48
50.0
370
    -2
100
AcDbLine
 10
2849.673057123655
 20
4669.084371009099
 30
0.0
 11
2430.140531654919
 21
4669.084371009099
 31
0.0
  0
LINE
  5
1A1A7
330
1A16F
100
AcDbEntity
  8
寸法
 62
     0
 48
50.0
370
    -2
100
AcDbLine
 10
2899.673057123655
 20
4669.084371009099
 30
0.0
 11
2849.673057123655
 21
4669.084371009099
 31
0.0
  0
INSERT
  5
1A1A8
330
1A16F
100
AcDbEntity
  8
寸法
 62
     0
 48
50.0
370
    -2
100
AcDbBlockReference
  2
_DOTSMALL
 10
2899.673057123655
 20
4669.084371009099
 30
0.0
 41
100.0
 42
100.0
 43
100.0
 50
180.0
  0
INSERT
  5
1A1A9
330
1A16F
100
AcDbEntity
  8
寸法
 62
     0
 48
50.0
370
    -2
100
AcDbBlockReference
  2
_DOTSMALL
 10
2849.673057123655
 20
4669.084371009099
 30
0.0
 41
100.0
 42
100.0
 43
100.0
  0
MTEXT
  5
1A1AA
330
1A16F
100
AcDbEntity
  8
寸法
 62
     7
 48
50.0
100
AcDbMText
 10
2536.187775749408
 20
4769.084371009099
 30
0.0
 40
120.0
 41
0.0
 71
     5
 72
     1
  1
\A1;50
  7
STYLE1
 73
     1
 44
1.0
1001
ACAD
1000
MTEXTBEGIN
1070
    73
1070
     1
1070
    44
1040
1.0
1070
    74
1070
     0
1000
MTEXTEND
  0
POINT
  5
1A1AB
330
1A16F
100
AcDbEntity
  8
DEFPOINTS
 62
     0
 48
50.0
100
AcDbPoint
 10
2899.673057123655
 20
4263.358099277197
 30
0.0
  0
POINT
  5
1A1AC
330
1A16F
100
AcDbEntity
  8
DEFPOINTS
 62
     0
 48
50.0
100
AcDbPoint
 10
2849.673057123655
 20
4263.358099277197
 30
0.0
  0
POINT
  5
1A1AD
330
1A16F
100
AcDbEntity
  8
DEFPOINTS
 62
     0
 48
50.0
100
AcDbPoint
 10
2849.673057123655
 20
4669.084371009099
 30
0.0
  0
ENDBLK
  5
1A17C
330
1A16F
100
AcDbEntity
  8
0
 48
50.0
100
AcDbBlockEnd
  0
BLOCK
  5
1A187
330
1A17D
100
AcDbEntity
  8
0
 48
50.0
100
AcDbBlockBegin
  2
*D36
 70
     1
 10
0.0
 20
0.0
 30
0.0
  3
*D36
  1

  0
LINE
  5
1A1AE
330
1A17D
100
AcDbEntity
  8
寸法
 62
     0
 48
50.0
370
    -2
100
AcDbLine
 10
2849.673057123655
 20
4283.358099277195
 30
0.0
 11
2849.673057123655
 21
4928.993292223189
 31
0.0
  0
LINE
  5
1A1AF
330
1A17D
100
AcDbEntity
  8
寸法
 62
     0
 48
50.0
370
    -2
100
AcDbLine
 10
8319.673057123656
 20
4283.358099277194
 30
0.0
 11
8319.673057123656
 21
4928.993292223189
 31
0.0
  0
LINE
  5
1A1B0
330
1A17D
100
AcDbEntity
  8
寸法
 62
     0
 48
50.0
370
    -2
100
AcDbLine
 10
2849.673057123655
 20
4868.993292223189
 30
0.0
 11
8319.673057123656
 21
4868.993292223189
 31
0.0
  0
INSERT
  5
1A1B1
330
1A17D
100
AcDbEntity
  8
寸法
 62
     0
 48
50.0
370
    -2
100
AcDbBlockReference
  2
_DOTSMALL
 10
2849.673057123655
 20
4868.993292223189
 30
0.0
 41
100.0
 42
100.0
 43
100.0
 50
180.0
  0
INSERT
  5
1A1B2
330
1A17D
100
AcDbEntity
  8
寸法
 62
     0
 48
50.0
370
    -2
100
AcDbBlockReference
  2
_DOTSMALL
 10
8319.673057123656
 20
4868.993292223189
 30
0.0
 41
100.0
 42
100.0
 43
100.0
  0
MTEXT
  5
1A1B3
330
1A17D
100
AcDbEntity
  8
寸法
 62
     7
 48
50.0
100
AcDbMText
 10
5584.673057123657
 20
4968.993292223188
 30
0.0
 40
120.0
 41
0.0
 71
     5
 72
     1
  1
\A1;N X 1790+100
  7
STYLE1
 73
     1
 44
1.0
1001
ACAD
1000
MTEXTBEGIN
1070
    73
1070
     1
1070
    44
1040
1.0
1070
    74
1070
     0
1000
MTEXTEND
  0
POINT
  5
1A1B4
330
1A17D
100
AcDbEntity
  8
DEFPOINTS
 62
     0
 48
50.0
100
AcDbPoint
 10
2849.673057123655
 20
4263.358099277194
 30
0.0
  0
POINT
  5
1A1B5
330
1A17D
100
AcDbEntity
  8
DEFPOINTS
 62
     0
 48
50.0
100
AcDbPoint
 10
8319.673057123656
 20
4263.358099277193
 30
0.0
  0
POINT
  5
1A1B6
330
1A17D
100
AcDbEntity
  8
DEFPOINTS
 62
     0
 48
50.0
100
AcDbPoint
 10
8319.673057123656
 20
4868.993292223189
 30
0.0
  0
ENDBLK
  5
1A188
330
1A17D
100
AcDbEntity
  8
0
 48
50.0
100
AcDbBlockEnd
  0
BLOCK
  5
1A193
330
1A189
100
AcDbEntity
  8
0
 48
50.0
100
AcDbBlockBegin
  2
*D37
 70
     1
 10
0.0
 20
0.0
 30
0.0
  3
*D37
  1

  0
LINE
  5
1A1B7
330
1A189
100
AcDbEntity
  8
寸法
 62
     0
 48
50.0
370
    -2
100
AcDbLine
 10
8269.673057123659
 20
4283.358099277197
 30
0.0
 11
8269.673057123659
 21
4729.0843710091
 31
0.0
  0
LINE
  5
1A1B8
330
1A189
100
AcDbEntity
  8
寸法
 62
     0
 48
50.0
370
    -2
100
AcDbLine
 10
2899.673057123655
 20
4283.358099277196
 30
0.0
 11
2899.673057123655
 21
4729.0843710091
 31
0.0
  0
LINE
  5
1A1B9
330
1A189
100
AcDbEntity
  8
寸法
 62
     0
 48
50.0
370
    -2
100
AcDbLine
 10
8269.673057123659
 20
4669.084371009099
 30
0.0
 11
2899.673057123655
 21
4669.084371009099
 31
0.0
  0
INSERT
  5
1A1BA
330
1A189
100
AcDbEntity
  8
寸法
 62
     0
 48
50.0
370
    -2
100
AcDbBlockReference
  2
_DOTSMALL
 10
8269.673057123659
 20
4669.084371009099
 30
0.0
 41
100.0
 42
100.0
 43
100.0
  0
INSERT
  5
1A1BB
330
1A189
100
AcDbEntity
  8
寸法
 62
     0
 48
50.0
370
    -2
100
AcDbBlockReference
  2
_DOTSMALL
 10
2899.673057123655
 20
4669.084371009099
 30
0.0
 41
100.0
 42
100.0
 43
100.0
 50
180.0
  0
MTEXT
  5
1A1BC
330
1A189
100
AcDbEntity
  8
寸法
 62
     7
 48
50.0
100
AcDbMText
 10
5584.673057123658
 20
4769.084371009099
 30
0.0
 40
120.0
 41
0.0
 71
     5
 72
     1
  1
\A1;柱外寸法 N X 1790
  7
STYLE1
 73
     1
 44
1.0
1001
ACAD
1000
MTEXTBEGIN
1070
    73
1070
     1
1070
    44
1040
1.0
1070
    74
1070
     0
1000
MTEXTEND
  0
POINT
  5
1A1BD
330
1A189
100
AcDbEntity
  8
DEFPOINTS
 62
     0
 48
50.0
100
AcDbPoint
 10
8269.673057123659
 20
4263.358099277197
 30
0.0
  0
POINT
  5
1A1BE
330
1A189
100
AcDbEntity
  8
DEFPOINTS
 62
     0
 48
50.0
100
AcDbPoint
 10
2899.673057123655
 20
4263.358099277196
 30
0.0
  0
POINT
  5
1A1BF
330
1A189
100
AcDbEntity
  8
DEFPOINTS
 62
     0
 48
50.0
100
AcDbPoint
 10
2899.673057123655
 20
4669.084371009099
 30
0.0
  0
ENDBLK
  5
1A194
330
1A189
100
AcDbEntity
  8
0
 48
50.0
100
AcDbBlockEnd
  0
BLOCK
  5
1A1A1
330
1A195
100
AcDbEntity
  8
0
 48
50.0
100
AcDbBlockBegin
  2
*D38
 70
     1
 10
0.0
 20
0.0
 30
0.0
  3
*D38
  1

  0
LINE
  5
1A1C0
330
1A195
100
AcDbEntity
  8
寸法
 62
     0
 48
50.0
370
    -2
100
AcDbLine
 10
8319.673057123656
 20
4283.358099277194
 30
0.0
 11
8319.673057123656
 21
4729.084371009103
 31
0.0
  0
LINE
  5
1A1C1
330
1A195
100
AcDbEntity
  8
寸法
 62
     0
 48
50.0
370
    -2
100
AcDbLine
 10
8269.673057123659
 20
4283.358099277197
 30
0.0
 11
8269.673057123659
 21
4729.084371009103
 31
0.0
  0
LINE
  5
1A1C2
330
1A195
100
AcDbEntity
  8
寸法
 62
     0
 48
50.0
370
    -2
100
AcDbLine
 10
8269.673057123659
 20
4669.084371009104
 30
0.0
 11
8169.673057123659
 21
4669.084371009104
 31
0.0
  0
LINE
  5
1A1C3
330
1A195
100
AcDbEntity
  8
寸法
 62
     0
 48
50.0
370
    -2
100
AcDbLine
 10
8319.673057123656
 20
4669.084371009104
 30
0.0
 11
8739.205582592386
 21
4669.084371009104
 31
0.0
  0
LINE
  5
1A1C4
330
1A195
100
AcDbEntity
  8
寸法
 62
     0
 48
50.0
370
    -2
100
AcDbLine
 10
8269.673057123659
 20
4669.084371009104
 30
0.0
 11
8319.673057123656
 21
4669.084371009104
 31
0.0
  0
INSERT
  5
1A1C5
330
1A195
100
AcDbEntity
  8
寸法
 62
     0
 48
50.0
370
    -2
100
AcDbBlockReference
  2
_DOTSMALL
 10
8269.673057123659
 20
4669.084371009104
 30
0.0
 41
100.0
 42
100.0
 43
100.0
  0
INSERT
  5
1A1C6
330
1A195
100
AcDbEntity
  8
寸法
 62
     0
 48
50.0
370
    -2
100
AcDbBlockReference
  2
_DOTSMALL
 10
8319.673057123656
 20
4669.084371009104
 30
0.0
 41
100.0
 42
100.0
 43
100.0
 50
180.0
  0
MTEXT
  5
1A1C7
330
1A195
100
AcDbEntity
  8
寸法
 62
     7
 48
50.0
100
AcDbMText
 10
8633.158338497898
 20
4769.084371009103
 30
0.0
 40
120.0
 41
0.0
 71
     5
 72
     1
  1
\A1;50
  7
STYLE1
 73
     1
 44
1.0
1001
ACAD
1000
MTEXTBEGIN
1070
    73
1070
     1
1070
    44
1040
1.0
1070
    74
1070
     0
1000
MTEXTEND
  0
POINT
  5
1A1C8
330
1A195
100
AcDbEntity
  8
DEFPOINTS
 62
     0
 48
50.0
100
AcDbPoint
 10
8319.673057123656
 20
4263.358099277193
 30
0.0
  0
POINT
  5
1A1C9
330
1A195
100
AcDbEntity
  8
DEFPOINTS
 62
     0
 48
50.0
100
AcDbPoint
 10
8269.673057123659
 20
4263.358099277197
 30
0.0
  0
POINT
  5
1A1CA
330
1A195
100
AcDbEntity
  8
DEFPOINTS
 62
     0
 48
50.0
100
AcDbPoint
 10
8269.673057123659
 20
4669.084371009104
 30
0.0
  0
ENDBLK
  5
1A1A2
330
1A195
100
AcDbEntity
  8
0
 48
50.0
100
AcDbBlockEnd
  0
BLOCK
  5
1A3BC
330
1A3B1
100
AcDbEntity
  8
0
 48
50.0
100
AcDbBlockBegin
  2
*D39
 70
     1
 10
0.0
 20
0.0
 30
0.0
  3
*D39
  1

  0
LINE
  5
1A6AF
330
1A3B1
100
AcDbEntity
  8
寸法
 62
     0
 48
50.0
370
    -2
100
AcDbLine
 10
8289.673057123657
 20
3863.35809927719
 30
0.0
 11
8617.216159445403
 21
3863.35809927719
 31
0.0
  0
LINE
  5
1A6B0
330
1A3B1
100
AcDbEntity
  8
寸法
 62
     0
 48
50.0
370
    -2
100
AcDbLine
 10
8289.673057123657
 20
4028.358099277189
 30
0.0
 11
8617.216159445403
 21
4028.358099277189
 31
0.0
  0
LINE
  5
1A6B1
330
1A3B1
100
AcDbEntity
  8
寸法
 62
     0
 48
50.0
370
    -2
100
AcDbLine
 10
8557.216159445403
 20
3863.35809927719
 30
0.0
 11
8557.216159445403
 21
4028.358099277189
 31
0.0
  0
LINE
  5
1A6B2
330
1A3B1
100
AcDbEntity
  8
寸法
 62
     0
 48
50.0
370
    -2
100
AcDbLine
 10
8557.216159445403
 20
4028.358099277189
 30
0.0
 11
8557.216159445404
 21
4405.328662025667
 31
0.0
  0
INSERT
  5
1A6B3
330
1A3B1
100
AcDbEntity
  8
寸法
 62
     0
 48
50.0
370
    -2
100
AcDbBlockReference
  2
_DOTSMALL
 10
8557.216159445403
 20
3863.35809927719
 30
0.0
 41
100.0
 42
100.0
 43
100.0
 50
270.0
  0
INSERT
  5
1A6B4
330
1A3B1
100
AcDbEntity
  8
寸法
 62
     0
 48
50.0
370
    -2
100
AcDbBlockReference
  2
_DOTSMALL
 10
8557.216159445403
 20
4028.358099277189
 30
0.0
 41
100.0
 42
100.0
 43
100.0
 50
90.0
  0
MTEXT
  5
1A6B5
330
1A3B1
100
AcDbEntity
  8
寸法
 62
     7
 48
50.0
100
AcDbMText
 10
8457.216159445403
 20
4266.843380651429
 30
0.0
 40
120.0
 41
0.0
 71
     5
 72
     1
  1
\A1;165
  7
STYLE1
 11
0.0000000000000001
 21
1.0
 31
0.0
 73
     1
 44
1.0
1001
ACAD
1000
MTEXTBEGIN
1070
    73
1070
     1
1070
    44
1040
1.0
1070
    74
1070
     0
1000
MTEXTEND
  0
POINT
  5
1A6B6
330
1A3B1
100
AcDbEntity
  8
DEFPOINTS
 62
     0
 48
50.0
100
AcDbPoint
 10
8269.673057123657
 20
3863.35809927719
 30
0.0
  0
POINT
  5
1A6B7
330
1A3B1
100
AcDbEntity
  8
DEFPOINTS
 62
     0
 48
50.0
100
AcDbPoint
 10
8269.673057123657
 20
4028.358099277189
 30
0.0
  0
POINT
  5
1A6B8
330
1A3B1
100
AcDbEntity
  8
DEFPOINTS
 62
     0
 48
50.0
100
AcDbPoint
 10
8557.216159445403
 20
4028.358099277189
 30
0.0
  0
ENDBLK
  5
1A3BD
330
1A3B1
100
AcDbEntity
  8
0
 48
50.0
100
AcDbBlockEnd
  0
BLOCK
  5
1A3CA
330
1A3BE
100
AcDbEntity
  8
0
 48
50.0
100
AcDbBlockBegin
  2
*D40
 70
     1
 10
0.0
 20
0.0
 30
0.0
  3
*D40
  1

  0
LINE
  5
1A6A4
330
1A3BE
100
AcDbEntity
  8
寸法
 62
     0
 48
50.0
370
    -2
100
AcDbLine
 10
8289.673057123657
 20
3836.35809927719
 30
0.0
 11
8617.216159445403
 21
3836.35809927719
 31
0.0
  0
LINE
  5
1A6A5
330
1A3BE
100
AcDbEntity
  8
寸法
 62
     0
 48
50.0
370
    -2
100
AcDbLine
 10
8289.673057123657
 20
3863.35809927719
 30
0.0
 11
8617.216159445403
 21
3863.35809927719
 31
0.0
  0
LINE
  5
1A6A6
330
1A3BE
100
AcDbEntity
  8
寸法
 62
     0
 48
50.0
370
    -2
100
AcDbLine
 10
8557.216159445403
 20
3836.35809927719
 30
0.0
 11
8557.216159445403
 21
3736.35809927719
 31
0.0
  0
LINE
  5
1A6A7
330
1A3BE
100
AcDbEntity
  8
寸法
 62
     0
 48
50.0
370
    -2
100
AcDbLine
 10
8557.216159445403
 20
3863.35809927719
 30
0.0
 11
8557.216159445403
 21
3963.35809927719
 31
0.0
  0
MTEXT
  5
1A6A8
330
1A3BE
100
AcDbEntity
  8
寸法
 62
     7
 48
50.0
100
AcDbMText
 10
8697.385982691768
 20
3864.325299116848
 30
0.0
 40
120.0
 41
0.0
 71
     5
 72
     1
  1
\A1;27
  7
STYLE1
 11
0.0000000000000001
 21
1.0
 31
0.0
 73
     1
 44
1.0
1001
ACAD
1000
MTEXTBEGIN
1070
    73
1070
     1
1070
    44
1040
1.0
1070
    74
1070
     0
1000
MTEXTEND
  0
LINE
  5
1A6A9
330
1A3BE
100
AcDbEntity
  8
寸法
 62
     0
 48
50.0
370
    -2
100
AcDbLine
 10
8557.216159445403
 20
3836.35809927719
 30
0.0
 11
8557.216159445403
 21
3863.35809927719
 31
0.0
  0
INSERT
  5
1A6AA
330
1A3BE
100
AcDbEntity
  8
寸法
 62
     0
 48
50.0
370
    -2
100
AcDbBlockReference
  2
_DOTSMALL
 10
8557.216159445403
 20
3836.35809927719
 30
0.0
 41
100.0
 42
100.0
 43
100.0
 50
90.0
  0
INSERT
  5
1A6AB
330
1A3BE
100
AcDbEntity
  8
寸法
 62
     0
 48
50.0
370
    -2
100
AcDbBlockReference
  2
_DOTSMALL
 10
8557.216159445403
 20
3863.35809927719
 30
0.0
 41
100.0
 42
100.0
 43
100.0
 50
270.0
  0
POINT
  5
1A6AC
330
1A3BE
100
AcDbEntity
  8
DEFPOINTS
 62
     0
 48
50.0
100
AcDbPoint
 10
8269.673057123657
 20
3836.35809927719
 30
0.0
  0
POINT
  5
1A6AD
330
1A3BE
100
AcDbEntity
  8
DEFPOINTS
 62
     0
 48
50.0
100
AcDbPoint
 10
8269.673057123657
 20
3863.35809927719
 30
0.0
  0
POINT
  5
1A6AE
330
1A3BE
100
AcDbEntity
  8
DEFPOINTS
 62
     0
 48
50.0
100
AcDbPoint
 10
8557.216159445403
 20
3863.35809927719
 30
0.0
  0
ENDBLK
  5
1A3CB
330
1A3BE
100
AcDbEntity
  8
0
 48
50.0
100
AcDbBlockEnd
  0
BLOCK
  5
1A3D6
330
1A3CC
100
AcDbEntity
  8
0
 48
50.0
100
AcDbBlockBegin
  2
*D41
 70
     1
 10
0.0
 20
0.0
 30
0.0
  3
*D41
  1

  0
LINE
  5
1A433
330
1A3CC
100
AcDbEntity
  8
寸法
 62
     0
 48
50.0
370
    -2
100
AcDbLine
 10
8289.673057123657
 20
2188.35809927719
 30
0.0
 11
8617.216159445403
 21
2188.35809927719
 31
0.0
  0
LINE
  5
1A434
330
1A3CC
100
AcDbEntity
  8
寸法
 62
     0
 48
50.0
370
    -2
100
AcDbLine
 10
8289.673057123657
 20
3836.35809927719
 30
0.0
 11
8617.216159445403
 21
3836.35809927719
 31
0.0
  0
LINE
  5
1A435
330
1A3CC
100
AcDbEntity
  8
寸法
 62
     0
 48
50.0
370
    -2
100
AcDbLine
 10
8557.216159445403
 20
2188.35809927719
 30
0.0
 11
8557.216159445403
 21
3836.35809927719
 31
0.0
  0
INSERT
  5
1A436
330
1A3CC
100
AcDbEntity
  8
寸法
 62
     0
 48
50.0
370
    -2
100
AcDbBlockReference
  2
_DOTSMALL
 10
8557.216159445403
 20
2188.35809927719
 30
0.0
 41
100.0
 42
100.0
 43
100.0
 50
270.0
  0
INSERT
  5
1A437
330
1A3CC
100
AcDbEntity
  8
寸法
 62
     0
 48
50.0
370
    -2
100
AcDbBlockReference
  2
_DOTSMALL
 10
8557.216159445403
 20
3836.35809927719
 30
0.0
 41
100.0
 42
100.0
 43
100.0
 50
90.0
  0
MTEXT
  5
1A438
330
1A3CC
100
AcDbEntity
  8
寸法
 62
     7
 48
50.0
100
AcDbMText
 10
8457.216159445403
 20
3012.358099277191
 30
0.0
 40
120.0
 41
0.0
 71
     5
 72
     1
  1
\A1;有効開口部高サ 1648
  7
STYLE1
 11
0.0000000000000001
 21
1.0
 31
0.0
 73
     1
 44
1.0
1001
ACAD
1000
MTEXTBEGIN
1070
    73
1070
     1
1070
    44
1040
1.0
1070
    74
1070
     0
1000
MTEXTEND
  0
POINT
  5
1A439
330
1A3CC
100
AcDbEntity
  8
DEFPOINTS
 62
     0
 48
50.0
100
AcDbPoint
 10
8269.673057123657
 20
2188.35809927719
 30
0.0
  0
POINT
  5
1A43A
330
1A3CC
100
AcDbEntity
  8
DEFPOINTS
 62
     0
 48
50.0
100
AcDbPoint
 10
8269.673057123657
 20
3836.35809927719
 30
0.0
  0
POINT
  5
1A43B
330
1A3CC
100
AcDbEntity
  8
DEFPOINTS
 62
     0
 48
50.0
100
AcDbPoint
 10
8557.216159445403
 20
3836.35809927719
 30
0.0
  0
ENDBLK
  5
1A3D7
330
1A3CC
100
AcDbEntity
  8
0
 48
50.0
100
AcDbBlockEnd
  0
ENDSEC
  0
SECTION
  2
ENTITIES
  0
MTEXT
  5
763F
330
747D
100
AcDbEntity
  8
0
100
AcDbMText
 10
302.846345836809
 20
280.1983726409901
 30
0.0
 40
3.5
 41
5.323721266742722
 71
     1
 72
     5
  1

  7
MSMINCHO
 73
     1
 44
1.0
1001
ACAD
1000
MTEXTBEGIN
1070
    73
1070
     1
1070
    44
1040
1.0
1070
    74
1070
     0
1000
MTEXTEND
  0
LINE
  5
10B57
330
747D
100
AcDbEntity
  8
補助
  6
PHANTOM
 62
   230
 48
50.0
100
AcDbLine
 10
139.9999999999995
 20
11409.6
 30
0.0
 11
16307.2
 21
11409.6
 31
0.0
  0
LINE
  5
10B59
330
747D
100
AcDbEntity
  8
仕様書枠
  6
Continuous
 48
50.0
100
AcDbLine
 10
13107.2
 20
1200.0
 30
0.0
 11
13107.2
 21
-0.0000000000000729
 31
0.0
  0
LINE
  5
10B5C
330
747D
100
AcDbEntity
  8
仕様書枠
 48
50.0
100
AcDbLine
 10
16307.2
 20
1200.0
 30
0.0
 11
16307.2
 21
-0.0000000000000909
 31
0.0
  0
LINE
  5
10B5D
330
747D
100
AcDbEntity
  8
仕様書枠
 48
50.0
100
AcDbLine
 10
140.0
 20
0.0
 30
0.0
 11
16307.2
 21
-0.0000000000000909
 31
0.0
  0
LINE
  5
10B5E
330
747D
100
AcDbEntity
  8
補助
  6
PHANTOM
 62
   230
 48
50.0
100
AcDbLine
 10
16307.2
 20
11409.6
 30
0.0
 11
16307.2
 21
1200.0
 31
0.0
  0
LINE
  5
10B6C
330
747D
100
AcDbEntity
  8
仕様書枠
 48
50.0
100
AcDbLine
 10
13107.2
 20
1200.0
 30
0.0
 11
16307.2
 21
1200.0
 31
0.0
  0
LINE
  5
10B6D
330
747D
100
AcDbEntity
  8
補助
  6
PHANTOM
 62
   230
 48
50.0
100
AcDbLine
 10
13107.2
 20
11409.6
 30
0.0
 11
13107.2
 21
4800.0
 31
0.0
  0
LINE
  5
10B6F
330
747D
100
AcDbEntity
  8
補助
  6
PHANTOM
 62
   230
 48
50.0
100
AcDbLine
 10
13107.2
 20
4800.0
 30
0.0
 11
16307.2
 21
4800.0
 31
0.0
  0
LINE
  5
10B72
330
747D
100
AcDbEntity
  8
文字
 62
     7
 48
50.0
100
AcDbLine
 10
13187.2
 20
400.0
 30
0.0
 11
16227.2
 21
400.0
 31
0.0
  0
TEXT
  5
10B73
330
747D
100
AcDbEntity
  8
文字
 62
     7
 48
50.0
100
AcDbText
 10
13162.9790565769
 20
895.0906074299405
 30
0.0
 40
200.0
  1
外 形 図
  7
STYLE2
100
AcDbText
  0
TEXT
  5
10B74
330
747D
100
AcDbEntity
  8
文字
 62
     7
 48
50.0
100
AcDbText
 10
13201.43669998441
 20
477.2740661031255
 30
0.0
 40
160.0
  1
機種名
  7
STYLE2
100
AcDbText
  0
TEXT
  5
10B75
330
747D
100
AcDbEntity
  8
文字
 62
     7
 48
50.0
100
AcDbText
 10
13209.4053442172
 20
228.5435242569016
 30
0.0
 40
100.0
  1
○有効開口寸法 ： 1584×1648(mm)
  7
STYLE2
100
AcDbText
  0
TEXT
  5
10B79
330
747D
100
AcDbEntity
  8
文字
 62
     7
 48
50.0
100
AcDbText
 10
14524.131837222
 20
1031.557706291228
 30
0.0
 40
100.0
  1
NO.21      <縮尺> S=1/40
  7
STYLE2
100
AcDbText
  0
LINE
  5
10B7B
330
747D
100
AcDbEntity
  8
仕様書枠
 48
50.0
100
AcDbLine
 10
13107.2
 20
800.0
 30
0.0
 11
14251.2
 21
800.0
 31
0.0
  0
LINE
  5
10B88
330
747D
100
AcDbEntity
  8
仕様書枠
  6
Continuous
 48
50.0
100
AcDbLine
 10
14251.2
 20
1200.0
 30
0.0
 11
14251.2
 21
800.0
 31
0.0
  0
LINE
  5
127A8
330
747D
100
AcDbEntity
  8
部品1
100
AcDbLine
 10
1910.903465777273
 20
2218.261909844854
 30
0.0
 11
2060.903465777274
 21
2218.261909844854
 31
0.0
  0
LINE
  5
127A9
330
747D
100
AcDbEntity
  8
部品1
100
AcDbLine
 10
1985.903465777273
 20
2088.358099277189
 30
0.0
 11
1910.903465777273
 21
2218.261909844854
 31
0.0
  0
TEXT
  5
127AA
330
747D
100
AcDbEntity
  8
部品1
100
AcDbText
 10
2089.008407902047
 20
2124.465002883091
 30
0.0
 40
125.0
  1
G.L
  7
MSGOTHIC
100
AcDbText
  0
LINE
  5
127AB
330
747D
100
AcDbEntity
  8
部品1
100
AcDbLine
 10
2060.903465777274
 20
2218.261909844854
 30
0.0
 11
1985.903465777273
 21
2088.358099277189
 31
0.0
  0
LINE
  5
13C1F
330
747D
100
AcDbEntity
  8
部品1
100
AcDbLine
 10
2899.673057123657
 20
4122.358099277197
 30
0.0
 11
2899.673057123657
 21
2088.358099277189
 31
0.0
  0
LINE
  5
13CFC
330
747D
100
AcDbEntity
  8
部品1
100
AcDbLine
 10
8214.673057123658
 20
3863.358099277188
 30
0.0
 11
8214.673057123654
 21
2188.35809927719
 31
0.0
  0
LINE
  5
13CFE
330
747D
100
AcDbEntity
  8
部品1
100
AcDbLine
 10
2954.673057123656
 20
3863.35809927719
 30
0.0
 11
2954.673057123656
 21
2188.35809927719
 31
0.0
  0
LINE
  5
13D18
330
747D
100
AcDbEntity
  8
部品1
100
AcDbLine
 10
8269.673057123657
 20
4122.358099277198
 30
0.0
 11
8269.673057123657
 21
2088.358099277189
 31
0.0
  0
LINE
  5
146B2
330
747D
100
AcDbEntity
  8
破線
 48
5.0
100
AcDbLine
 10
8269.673057123657
 20
2088.358099277189
 30
0.0
 11
8269.673057123657
 21
1838.358099277189
 31
0.0
  0
LINE
  5
146B3
330
747D
100
AcDbEntity
  8
破線
 48
5.0
100
AcDbLine
 10
2899.673057123657
 20
2088.358099277189
 30
0.0
 11
2899.673057123655
 21
1838.358099277189
 31
0.0
  0
TEXT
  5
149A1
330
747D
100
AcDbEntity
  8
部品1
100
AcDbText
 10
5303.990718034578
 20
1245.464570058665
 30
0.0
 40
135.0
  1
正面図
  7
MSGOTHIC
100
AcDbText
  0
LWPOLYLINE
  5
149A2
330
747D
100
AcDbEntity
  8
部品1
100
AcDbPolyline
 90
        4
 70
     1
 43
0.0
 10
5213.465314296623
 20
1438.35809927719
 10
5213.465314296623
 20
1198.465777731657
 10
5976.935980525062
 20
1198.465777731657
 10
5976.935980525062
 20
1438.35809927719
  0
TEXT
  5
14E88
330
747D
100
AcDbEntity
  8
部品1
100
AcDbText
 10
5303.384924125661
 20
5809.620487821686
 30
0.0
 40
135.0
  1
平面図
  7
MSGOTHIC
100
AcDbText
  0
LWPOLYLINE
  5
14E89
330
747D
100
AcDbEntity
  8
部品1
100
AcDbPolyline
 90
        4
 70
     1
 43
0.0
 10
5213.465314296623
 20
6002.51401704021
 10
5213.465314296623
 20
5762.621695494678
 10
5976.935980525063
 20
5762.621695494678
 10
5976.935980525063
 20
6002.51401704021
  0
TEXT
  5
15550
330
747D
100
AcDbEntity
  8
文字
 62
     7
 48
50.0
100
AcDbText
 10
14666.84881187329
 20
871.9640646083623
 30
0.0
 40
100.0
  1
～一般型・多雪地型～
  7
STYLE2
100
AcDbText
  0
LINE
  5
15CE5
330
747D
100
AcDbEntity
  8
破線
 48
5.0
100
AcDbLine
 10
8214.673057123654
 20
2188.35809927719
 30
0.0
 11
8214.673057123658
 21
1838.358099277189
 31
0.0
  0
LINE
  5
15CE6
330
747D
100
AcDbEntity
  8
破線
 48
5.0
100
AcDbLine
 10
2954.673057123656
 20
2188.35809927719
 30
0.0
 11
2954.673057123655
 21
1838.358099277189
 31
0.0
  0
LINE
  5
15CE7
330
747D
100
AcDbEntity
  8
破線
 48
5.0
100
AcDbLine
 10
8269.673057123656
 20
1838.358099277189
 30
0.0
 11
8214.673057123658
 21
1838.358099277189
 31
0.0
  0
LINE
  5
15CE8
330
747D
100
AcDbEntity
  8
破線
 48
5.0
100
AcDbLine
 10
2954.673057123655
 20
1838.358099277197
 30
0.0
 11
2899.673057123655
 21
1838.358099277197
 31
0.0
  0
LINE
  5
15CE9
330
747D
100
AcDbEntity
  8
部品1
100
AcDbLine
 10
3002.673057123657
 20
3863.35809927719
 30
0.0
 11
3002.673057123657
 21
2188.35809927719
 31
0.0
  0
LINE
  5
15CEA
330
747D
100
AcDbEntity
  8
破線
 48
5.0
100
AcDbLine
 10
3002.673057123657
 20
2188.35809927719
 30
0.0
 11
3002.673057123656
 21
1938.358099277195
 31
0.0
  0
LINE
  5
15CEB
330
747D
100
AcDbEntity
  8
部品1
100
AcDbLine
 10
8166.673057123658
 20
3863.358099277191
 30
0.0
 11
8166.673057123656
 21
2188.35809927719
 31
0.0
  0
LINE
  5
15CEC
330
747D
100
AcDbEntity
  8
破線
 48
5.0
100
AcDbLine
 10
8166.673057123656
 20
2188.35809927719
 30
0.0
 11
8166.673057123658
 21
1938.358099277189
 31
0.0
  0
LINE
  5
15CED
330
747D
100
AcDbEntity
  8
破線
 48
5.0
100
AcDbLine
 10
8214.673057123659
 20
1938.358099277189
 30
0.0
 11
8166.673057123658
 21
1938.358099277189
 31
0.0
  0
LINE
  5
15CEE
330
747D
100
AcDbEntity
  8
破線
 48
5.0
100
AcDbLine
 10
3002.673057123655
 20
1938.358099277195
 30
0.0
 11
2954.673057123655
 21
1938.358099277195
 31
0.0
  0
LINE
  5
15D20
330
747D
100
AcDbEntity
  8
細線
100
AcDbLine
 10
6582.673057123654
 20
3823.35809927719
 30
0.0
 11
8166.673057123656
 21
3823.35809927719
 31
0.0
  0
LINE
  5
15D23
330
747D
100
AcDbEntity
  8
細線
100
AcDbLine
 10
6582.673057123654
 20
3433.358099277189
 30
0.0
 11
8166.673057123656
 21
3433.358099277189
 31
0.0
  0
LINE
  5
15D24
330
747D
100
AcDbEntity
  8
細線
100
AcDbLine
 10
6582.673057123654
 20
3498.35809927719
 30
0.0
 11
8166.673057123656
 21
3498.35809927719
 31
0.0
  0
LINE
  5
15D25
330
747D
100
AcDbEntity
  8
細線
100
AcDbLine
 10
6582.673057123654
 20
3563.35809927719
 30
0.0
 11
8166.673057123656
 21
3563.35809927719
 31
0.0
  0
LINE
  5
15D26
330
747D
100
AcDbEntity
  8
細線
100
AcDbLine
 10
6582.673057123654
 20
3628.358099277189
 30
0.0
 11
8166.673057123656
 21
3628.358099277189
 31
0.0
  0
LINE
  5
15D27
330
747D
100
AcDbEntity
  8
細線
100
AcDbLine
 10
6582.673057123654
 20
3693.358099277189
 30
0.0
 11
8166.673057123656
 21
3693.358099277189
 31
0.0
  0
LINE
  5
15D28
330
747D
100
AcDbEntity
  8
細線
100
AcDbLine
 10
6582.673057123654
 20
3758.358099277189
 30
0.0
 11
8166.673057123656
 21
3758.358099277189
 31
0.0
  0
LINE
  5
15D29
330
747D
100
AcDbEntity
  8
細線
100
AcDbLine
 10
6582.673057123654
 20
2783.35809927719
 30
0.0
 11
8166.673057123656
 21
2783.35809927719
 31
0.0
  0
LINE
  5
15D2A
330
747D
100
AcDbEntity
  8
細線
100
AcDbLine
 10
6582.673057123654
 20
2848.35809927719
 30
0.0
 11
8166.673057123656
 21
2848.35809927719
 31
0.0
  0
LINE
  5
15D2B
330
747D
100
AcDbEntity
  8
細線
100
AcDbLine
 10
6582.673057123654
 20
2913.35809927719
 30
0.0
 11
8166.673057123656
 21
2913.35809927719
 31
0.0
  0
LINE
  5
15D2C
330
747D
100
AcDbEntity
  8
細線
100
AcDbLine
 10
6582.673057123654
 20
2978.35809927719
 30
0.0
 11
8166.673057123656
 21
2978.35809927719
 31
0.0
  0
LINE
  5
15D2D
330
747D
100
AcDbEntity
  8
細線
100
AcDbLine
 10
6582.673057123654
 20
3043.35809927719
 30
0.0
 11
8166.673057123656
 21
3043.35809927719
 31
0.0
  0
LINE
  5
15D2E
330
747D
100
AcDbEntity
  8
細線
100
AcDbLine
 10
6582.673057123654
 20
3108.35809927719
 30
0.0
 11
8166.673057123656
 21
3108.35809927719
 31
0.0
  0
LINE
  5
15D2F
330
747D
100
AcDbEntity
  8
細線
100
AcDbLine
 10
6582.673057123654
 20
3173.358099277189
 30
0.0
 11
8166.673057123656
 21
3173.358099277189
 31
0.0
  0
LINE
  5
15D30
330
747D
100
AcDbEntity
  8
細線
100
AcDbLine
 10
6582.673057123654
 20
3238.35809927719
 30
0.0
 11
8166.673057123656
 21
3238.35809927719
 31
0.0
  0
LINE
  5
15D31
330
747D
100
AcDbEntity
  8
細線
100
AcDbLine
 10
6582.673057123654
 20
3303.35809927719
 30
0.0
 11
8166.673057123656
 21
3303.35809927719
 31
0.0
  0
LINE
  5
15D32
330
747D
100
AcDbEntity
  8
細線
100
AcDbLine
 10
6582.673057123654
 20
3368.35809927719
 30
0.0
 11
8166.673057123656
 21
3368.35809927719
 31
0.0
  0
LINE
  5
15D36
330
747D
100
AcDbEntity
  8
細線
100
AcDbLine
 10
6582.673057123654
 20
2198.358099277189
 30
0.0
 11
8166.673057123656
 21
2198.358099277189
 31
0.0
  0
LINE
  5
15D37
330
747D
100
AcDbEntity
  8
細線
100
AcDbLine
 10
6582.673057123654
 20
2263.358099277189
 30
0.0
 11
8166.673057123656
 21
2263.358099277189
 31
0.0
  0
LINE
  5
15D38
330
747D
100
AcDbEntity
  8
細線
100
AcDbLine
 10
6582.673057123654
 20
2328.35809927719
 30
0.0
 11
8166.673057123656
 21
2328.35809927719
 31
0.0
  0
LINE
  5
15D39
330
747D
100
AcDbEntity
  8
細線
100
AcDbLine
 10
6582.673057123654
 20
2393.35809927719
 30
0.0
 11
8166.673057123656
 21
2393.35809927719
 31
0.0
  0
LINE
  5
15D3A
330
747D
100
AcDbEntity
  8
細線
100
AcDbLine
 10
6582.673057123654
 20
2458.35809927719
 30
0.0
 11
8166.673057123656
 21
2458.35809927719
 31
0.0
  0
LINE
  5
15D3B
330
747D
100
AcDbEntity
  8
細線
100
AcDbLine
 10
6582.673057123654
 20
2523.35809927719
 30
0.0
 11
8166.673057123656
 21
2523.35809927719
 31
0.0
  0
LINE
  5
15D3C
330
747D
100
AcDbEntity
  8
細線
100
AcDbLine
 10
6582.673057123654
 20
2588.35809927719
 30
0.0
 11
8166.673057123656
 21
2588.35809927719
 31
0.0
  0
LINE
  5
15D3D
330
747D
100
AcDbEntity
  8
細線
100
AcDbLine
 10
6582.673057123654
 20
2653.35809927719
 30
0.0
 11
8166.673057123656
 21
2653.35809927719
 31
0.0
  0
LINE
  5
15D3E
330
747D
100
AcDbEntity
  8
細線
100
AcDbLine
 10
6582.673057123654
 20
2718.358099277189
 30
0.0
 11
8166.673057123656
 21
2718.358099277189
 31
0.0
  0
LINE
  5
15D3F
330
747D
100
AcDbEntity
  8
細線
100
AcDbLine
 10
8166.673057123658
 20
2198.358099277189
 30
0.0
 11
6582.673057123651
 21
2198.358099277189
 31
0.0
  0
DIMENSION
  5
162CD
330
747D
100
AcDbEntity
  8
寸法
100
AcDbDimension
  2
*D1
 10
8917.099402858069
 20
7204.739053516627
 30
0.0
 11
8817.087591834447
 21
8674.739053516637
 31
0.0
 70
    32
  1
7X420=<>
 71
     5
 42
2940.000000000015
  3
INABA_S40G
100
AcDbAlignedDimension
 13
8269.673057123664
 23
10144.73905351664
 33
0.0
 14
8269.673057123638
 24
7204.739053516627
 34
0.0
 50
90.0
100
AcDbRotatedDimension
1001
ACAD
1000
DSTYLE
1002
{
1002
}
  0
DIMENSION
  5
162CE
330
747D
100
AcDbEntity
  8
寸法
100
AcDbDimension
  2
*D2
 10
8917.099402858049
 20
7149.73905351663
 30
0.0
 11
8917.099402858047
 21
6771.877586611768
 31
0.0
 70
   160
 71
     5
 42
54.99999999999636
  3
INABA_S40G
100
AcDbAlignedDimension
 13
8269.673057123638
 23
7204.739053516627
 33
0.0
 14
8269.673057123638
 24
7149.73905351663
 34
0.0
 50
90.0
100
AcDbRotatedDimension
1001
ACAD
1000
DSTYLE
1002
{
1002
}
  0
DIMENSION
  5
162CF
330
747D
100
AcDbEntity
  8
寸法
100
AcDbDimension
  2
*D3
 10
8917.099402858076
 20
10144.73905351664
 30
0.0
 11
8917.099402858074
 21
10508.22433489088
 31
0.0
 70
   160
 71
     5
 42
54.99999999999636
  3
INABA_S40G
100
AcDbAlignedDimension
 13
8269.673057123664
 23
10199.73905351664
 33
0.0
 14
8269.673057123664
 24
10144.73905351664
 34
0.0
 50
90.0
100
AcDbRotatedDimension
1001
ACAD
1000
DSTYLE
1002
{
1002
}
  0
DIMENSION
  5
162D0
330
747D
100
AcDbEntity
  8
寸法
100
AcDbDimension
  2
*D4
 10
9282.206344597708
 20
7149.73905351663
 30
0.0
 11
9182.206344597707
 21
8674.739053516637
 31
0.0
 70
    32
 71
     5
 42
3050.000000000008
  3
INABA_S40G
100
AcDbAlignedDimension
 13
8269.673057123664
 23
10199.73905351664
 33
0.0
 14
8269.673057123638
 24
7149.73905351663
 34
0.0
 50
90.0
100
AcDbRotatedDimension
1001
ACAD
1000
DSTYLE
1002
{
1002
}
  0
LINE
  5
162DC
330
747D
100
AcDbEntity
  8
部品1
100
AcDbLine
 10
8241.673057123646
 20
10171.73905351663
 30
0.0
 11
8241.673057123639
 21
7204.739053516627
 31
0.0
  0
LINE
  5
162DD
330
747D
100
AcDbEntity
  8
部品1
100
AcDbLine
 10
2927.673057123639
 20
7204.739053516497
 30
0.0
 11
2927.67305712365
 21
10171.73905351654
 31
0.0
  0
LINE
  5
162DE
330
747D
100
AcDbEntity
  8
部品1
100
AcDbLine
 10
8269.673057123664
 20
10199.73905351664
 30
0.0
 11
8269.673057123638
 21
7149.73905351663
 31
0.0
  0
LINE
  5
162DF
330
747D
100
AcDbEntity
  8
部品1
100
AcDbLine
 10
2899.67305712363
 20
10199.73905351651
 30
0.0
 11
2899.673057123657
 21
7149.739053516499
 31
0.0
  0
DIMENSION
  5
162E4
330
747D
100
AcDbEntity
  8
寸法
 48
50.0
100
AcDbDimension
  2
*D5
 10
6582.673057123656
 20
6615.308282750375
 30
0.0
 11
7374.673057123648
 21
6815.308282750375
 31
0.0
 70
    32
  1
有効開口部間口\P <>
 71
     5
 42
1583.999999999982
  3
INABA_S40G
100
AcDbAlignedDimension
 13
8166.673057123638
 23
7175.73905351654
 33
0.0
 14
6582.673057123656
 24
7175.739053516538
 34
0.0
100
AcDbRotatedDimension
1001
ACAD
1000
DSTYLE
1002
{
1070
    75
1070
     1
1070
   279
1070
     2
1002
}
  0
LINE
  5
162E6
330
747D
100
AcDbEntity
  8
部品1
 48
50.0
100
AcDbLine
 10
6546.673057123655
 20
7195.239053516537
 30
0.0
 11
8202.673057123639
 21
7195.239053516537
 31
0.0
  0
DIMENSION
  5
162E7
330
747D
100
AcDbEntity
  8
寸法
100
AcDbDimension
  2
*D6
 10
8269.673057123627
 20
6169.135287159501
 30
0.0
 11
5584.673057123642
 21
6269.1352871595
 31
0.0
 70
    32
  1
N X 1790
 71
     5
 42
5369.999999999971
  3
INABA_S40G
100
AcDbAlignedDimension
 13
2899.673057123657
 23
7149.739053516537
 33
0.0
 14
8269.673057123627
 24
7149.73905351663
 34
0.0
100
AcDbRotatedDimension
1001
ACAD
1000
DSTYLE
1002
{
1002
}
  0
LINE
  5
162E8
330
747D
100
AcDbEntity
  8
部品1
100
AcDbLine
 10
2954.673057123633
 20
10144.73905351656
 30
0.0
 11
2954.673057123655
 21
7214.739053516538
 31
0.0
  0
LINE
  5
162E9
330
747D
100
AcDbEntity
  8
部品1
100
AcDbLine
 10
2979.673057123635
 20
10144.73905351656
 30
0.0
 11
2979.673057123655
 21
7214.739053516538
 31
0.0
  0
DIMENSION
  5
162EA
330
747D
100
AcDbEntity
  8
寸法
 48
50.0
100
AcDbDimension
  2
*D7
 10
2899.673057123657
 20
6615.308282750375
 30
0.0
 11
2591.187775749418
 21
6615.308282750375
 31
0.0
 70
   160
 71
     5
 42
54.99999999999636
  3
INABA_S40G
100
AcDbAlignedDimension
 13
2954.673057123653
 23
7149.739053516539
 33
0.0
 14
2899.673057123657
 24
7149.739053516537
 34
0.0
100
AcDbRotatedDimension
1001
ACAD
1000
DSTYLE
1002
{
1002
}
  0
DIMENSION
  5
162EB
330
747D
100
AcDbEntity
  8
寸法
 48
50.0
100
AcDbDimension
  2
*D8
 10
6534.673057123653
 20
6615.308282750375
 30
0.0
 11
6695.575028123714
 21
6715.308282750375
 31
0.0
 70
   160
 71
     5
 42
48.00000000000363
  3
INABA_S40G
100
AcDbAlignedDimension
 13
6582.673057123656
 23
7175.739053516538
 33
0.0
 14
6534.673057123653
 24
7149.739053516539
 34
0.0
100
AcDbRotatedDimension
1001
ACAD
1000
DSTYLE
1002
{
1070
   279
1070
     2
1002
}
  0
LINE
  5
162EC
330
747D
100
AcDbEntity
  8
部品1
100
AcDbLine
 10
2954.673057123651
 20
7149.739053516539
 30
0.0
 11
2899.673057123657
 21
7149.739053516537
 31
0.0
  0
LINE
  5
162ED
330
747D
100
AcDbEntity
  8
部品1
 48
50.0
100
AcDbLine
 10
2954.673057123656
 20
7185.739053516538
 30
0.0
 11
2931.673057123657
 21
7185.739053516538
 31
0.0
  0
LINE
  5
162EE
330
747D
100
AcDbEntity
  8
部品1
 48
50.0
100
AcDbLine
 10
2964.673057123657
 20
7175.739053516538
 30
0.0
 11
2954.673057123656
 21
7154.739053516539
 31
0.0
  0
LINE
  5
162EF
330
747D
100
AcDbEntity
  8
部品1
 48
50.0
100
AcDbLine
 10
2954.673057123656
 20
7214.739053516538
 30
0.0
 11
2954.673057123653
 21
7149.739053516539
 31
0.0
  0
LINE
  5
162F0
330
747D
100
AcDbEntity
  8
部品1
 48
50.0
100
AcDbLine
 10
3002.673057123657
 20
7175.73905351654
 30
0.0
 11
3002.673057123657
 21
7184.73905351654
 31
0.0
  0
LINE
  5
162F1
330
747D
100
AcDbEntity
  8
部品1
 48
50.0
100
AcDbLine
 10
3002.673057123657
 20
7214.73905351654
 30
0.0
 11
3002.673057123657
 21
7205.739053516539
 31
0.0
  0
LINE
  5
162F2
330
747D
100
AcDbEntity
  8
部品1
100
AcDbLine
 10
3002.673057123657
 20
7214.73905351654
 30
0.0
 11
2954.673057123656
 21
7214.739053516538
 31
0.0
  0
LINE
  5
162F3
330
747D
100
AcDbEntity
  8
部品1
100
AcDbLine
 10
3002.673057123657
 20
7175.73905351654
 30
0.0
 11
2954.673057123656
 21
7175.739053516538
 31
0.0
  0
LINE
  5
162F4
330
747D
100
AcDbEntity
  8
部品1
100
AcDbLine
 10
2954.673057123655
 20
7185.739053516538
 30
0.0
 11
2931.673057123657
 21
7185.739053516538
 31
0.0
  0
LINE
  5
162F5
330
747D
100
AcDbEntity
  8
部品1
100
AcDbLine
 10
2954.673057123655
 20
7204.739053516464
 30
0.0
 11
2899.673057123655
 21
7204.739053516464
 31
0.0
  0
LINE
  5
162F6
330
747D
100
AcDbEntity
  8
部品1
100
AcDbLine
 10
2927.673057123639
 20
7204.739053516499
 30
0.0
 11
2899.673057123655
 21
7204.739053516499
 31
0.0
  0
LINE
  5
162F7
330
747D
100
AcDbEntity
  8
部品1
100
AcDbLine
 10
2927.673057123655
 20
7204.739053516515
 30
0.0
 11
2899.673057123655
 21
7204.739053516515
 31
0.0
  0
LINE
  5
162FB
330
747D
100
AcDbEntity
  8
部品1
100
AcDbLine
 10
2927.673057123644
 20
7624.739053516513
 30
0.0
 11
2899.673057123644
 21
7624.739053516513
 31
0.0
  0
LINE
  5
162FC
330
747D
100
AcDbEntity
  8
部品1
100
AcDbLine
 10
2927.673057123644
 20
8044.739053516513
 30
0.0
 11
2899.673057123644
 21
8044.739053516513
 31
0.0
  0
LINE
  5
162FE
330
747D
100
AcDbEntity
  8
部品1
100
AcDbLine
 10
2927.673057123637
 20
8464.739053516515
 30
0.0
 11
2899.673057123637
 21
8464.739053516515
 31
0.0
  0
LINE
  5
162FF
330
747D
100
AcDbEntity
  8
部品1
100
AcDbLine
 10
8214.673057123659
 20
10144.73905351656
 30
0.0
 11
8214.67305712364
 21
7149.739053516627
 31
0.0
  0
LINE
  5
16300
330
747D
100
AcDbEntity
  8
部品1
100
AcDbLine
 10
8189.673057123664
 20
10144.73905351656
 30
0.0
 11
8189.67305712364
 21
7214.739053516538
 31
0.0
  0
DIMENSION
  5
16301
330
747D
100
AcDbEntity
  8
寸法
 48
50.0
100
AcDbDimension
  2
*D9
 10
8166.673057123638
 20
6615.308282750375
 30
0.0
 11
8055.710159474891
 21
6715.308282750375
 31
0.0
 70
   160
 71
     5
 42
48.00000000000181
  3
INABA_S40G
100
AcDbAlignedDimension
 13
8214.67305712364
 23
7149.739053516627
 33
0.0
 14
8166.673057123638
 24
7175.73905351654
 34
0.0
100
AcDbRotatedDimension
1001
ACAD
1000
DSTYLE
1002
{
1070
   279
1070
     2
1002
}
  0
DIMENSION
  5
16302
330
747D
100
AcDbEntity
  8
寸法
 48
50.0
100
AcDbDimension
  2
*D10
 10
8214.67305712364
 20
6615.308282750376
 30
0.0
 11
8578.158338497877
 21
6615.308282750376
 31
0.0
 70
   160
 71
     5
 42
54.99999999999818
  3
INABA_S40G
100
AcDbAlignedDimension
 13
8269.673057123638
 23
7149.73905351663
 33
0.0
 14
8214.67305712364
 24
7149.739053516627
 34
0.0
100
AcDbRotatedDimension
1001
ACAD
1000
DSTYLE
1002
{
1002
}
  0
LINE
  5
16303
330
747D
100
AcDbEntity
  8
部品1
 48
50.0
100
AcDbLine
 10
8204.673057123638
 20
7175.739053516538
 30
0.0
 11
8214.673057123638
 21
7154.739053516539
 31
0.0
  0
LINE
  5
16304
330
747D
100
AcDbEntity
  8
部品1
100
AcDbLine
 10
8166.673057123638
 20
7214.73905351654
 30
0.0
 11
8214.67305712364
 21
7214.739053516538
 31
0.0
  0
LINE
  5
16305
330
747D
100
AcDbEntity
  8
部品1
100
AcDbLine
 10
8166.673057123638
 20
7175.73905351654
 30
0.0
 11
8214.673057123638
 21
7175.739053516538
 31
0.0
  0
LINE
  5
16306
330
747D
100
AcDbEntity
  8
部品1
 48
50.0
100
AcDbLine
 10
8166.673057123638
 20
7214.73905351654
 30
0.0
 11
8166.673057123638
 21
7205.739053516539
 31
0.0
  0
LINE
  5
16307
330
747D
100
AcDbEntity
  8
部品1
 48
50.0
100
AcDbLine
 10
8166.673057123638
 20
7175.73905351654
 30
0.0
 11
8166.673057123638
 21
7184.73905351654
 31
0.0
  0
LINE
  5
16308
330
747D
100
AcDbEntity
  8
部品1
100
AcDbLine
 10
8214.673057123638
 20
7185.739053516536
 30
0.0
 11
8237.67305712364
 21
7185.739053516538
 31
0.0
  0
LINE
  5
16309
330
747D
100
AcDbEntity
  8
部品1
100
AcDbLine
 10
8214.673057123638
 20
7204.739053516641
 30
0.0
 11
8269.673057123672
 21
7204.739053516641
 31
0.0
  0
LINE
  5
1630A
330
747D
100
AcDbEntity
  8
部品1
100
AcDbLine
 10
8269.673057123638
 20
7149.73905351663
 30
0.0
 11
8214.67305712364
 21
7149.739053516627
 31
0.0
  0
LINE
  5
16317
330
747D
100
AcDbEntity
  8
部品1
100
AcDbLine
 10
8241.673057123668
 20
7624.739053516641
 30
0.0
 11
8269.673057123666
 21
7624.739053516641
 31
0.0
  0
LINE
  5
16319
330
747D
100
AcDbEntity
  8
部品1
100
AcDbLine
 10
8241.673057123668
 20
8044.739053516641
 30
0.0
 11
8269.673057123666
 21
8044.739053516641
 31
0.0
  0
LINE
  5
1631A
330
747D
100
AcDbEntity
  8
部品1
100
AcDbLine
 10
8241.673057123664
 20
8464.739053516643
 30
0.0
 11
8269.673057123664
 21
8464.739053516643
 31
0.0
  0
LINE
  5
1631B
330
747D
100
AcDbEntity
  8
部品1
100
AcDbLine
 10
6534.673057123661
 20
10171.73905351666
 30
0.0
 11
7362.173057123662
 21
10171.73905351666
 31
0.0
  0
LINE
  5
1631C
330
747D
100
AcDbEntity
  8
部品1
100
AcDbLine
 10
6507.673057123662
 20
10171.73905351654
 30
0.0
 11
7164.673057123661
 21
10171.73905351654
 31
0.0
  0
LINE
  5
1631D
330
747D
100
AcDbEntity
  8
部品1
100
AcDbLine
 10
2899.673057123662
 20
10199.73905351654
 30
0.0
 11
8269.673057123663
 21
10199.73905351664
 31
0.0
  0
DIMENSION
  5
1631F
330
747D
100
AcDbEntity
  8
寸法
100
AcDbDimension
  2
*D11
 10
8214.673057123665
 20
10415.54727314164
 30
0.0
 11
7374.673057123664
 21
10515.55908416526
 31
0.0
 70
    32
  1
4X420=<>
 71
     5
 42
1680.000000000001
  3
INABA_S40G
100
AcDbAlignedDimension
 13
6534.673057123663
 23
10199.73905351654
 33
0.0
 14
8214.673057123665
 24
10199.73905351664
 34
0.0
100
AcDbRotatedDimension
1001
ACAD
1000
DSTYLE
1002
{
1002
}
  0
DIMENSION
  5
16320
330
747D
100
AcDbEntity
  8
寸法
100
AcDbDimension
  2
*D12
 10
2954.673057123663
 20
10415.54727314152
 30
0.0
 11
2591.18777574939
 21
10415.54727314152
 31
0.0
 70
   160
 71
     5
 42
55.00000000003456
  3
INABA_S40G
100
AcDbAlignedDimension
 13
2899.673057123628
 23
10199.73905351654
 33
0.0
 14
2954.673057123663
 24
10199.73905351654
 34
0.0
100
AcDbRotatedDimension
1001
ACAD
1000
DSTYLE
1002
{
1002
}
  0
LINE
  5
16321
330
747D
100
AcDbEntity
  8
部品1
100
AcDbLine
 10
2954.67305712363
 20
10199.73905351651
 30
0.0
 11
2954.67305712363
 21
10171.73905351651
 31
0.0
  0
LINE
  5
16322
330
747D
100
AcDbEntity
  8
部品1
100
AcDbLine
 10
2954.673057123662
 20
10199.73905351654
 30
0.0
 11
2954.673057123662
 21
10171.73905351654
 31
0.0
  0
LINE
  5
16323
330
747D
100
AcDbEntity
  8
部品1
100
AcDbLine
 10
2927.67305712363
 20
10144.73905351651
 30
0.0
 11
2899.67305712363
 21
10144.73905351651
 31
0.0
  0
LINE
  5
16324
330
747D
100
AcDbEntity
  8
部品1
100
AcDbLine
 10
6954.673057123662
 20
10199.73905351666
 30
0.0
 11
6954.673057123662
 21
10171.73905351666
 31
0.0
  0
LINE
  5
16325
330
747D
100
AcDbEntity
  8
部品1
100
AcDbLine
 10
6954.673057123662
 20
10199.73905351654
 30
0.0
 11
6954.673057123662
 21
10171.73905351654
 31
0.0
  0
LINE
  5
16326
330
747D
100
AcDbEntity
  8
部品1
100
AcDbLine
 10
6954.673057123662
 20
10199.73905351654
 30
0.0
 11
6954.673057123662
 21
10171.73905351654
 31
0.0
  0
LINE
  5
16327
330
747D
100
AcDbEntity
  8
部品1
100
AcDbLine
 10
7387.173057123662
 20
10171.73905351665
 30
0.0
 11
8241.673057123664
 21
10171.73905351663
 31
0.0
  0
LINE
  5
1632C
330
747D
100
AcDbEntity
  8
部品1
100
AcDbLine
 10
7374.673057123662
 20
10199.73905351666
 30
0.0
 11
7374.673057123662
 21
10171.73905351666
 31
0.0
  0
LINE
  5
1632D
330
747D
100
AcDbEntity
  8
部品1
100
AcDbLine
 10
7362.173057123662
 20
10163.73905351664
 30
0.0
 11
7387.173057123662
 21
10163.73905351664
 31
0.0
  0
LINE
  5
1632E
330
747D
100
AcDbEntity
  8
部品1
100
AcDbLine
 10
7403.673057123661
 20
10189.73905351664
 30
0.0
 11
7409.673057123661
 21
10189.73905351664
 31
0.0
  0
LINE
  5
1632F
330
747D
100
AcDbEntity
  8
部品1
100
AcDbLine
 10
7409.673057123661
 20
10189.73905351664
 30
0.0
 11
7409.673057123661
 21
10171.73905351664
 31
0.0
  0
LINE
  5
16330
330
747D
100
AcDbEntity
  8
部品1
100
AcDbLine
 10
7339.673057123661
 20
10189.73905351664
 30
0.0
 11
7345.673057123661
 21
10189.73905351664
 31
0.0
  0
LINE
  5
16331
330
747D
100
AcDbEntity
  8
部品1
100
AcDbLine
 10
7339.673057123661
 20
10189.73905351664
 30
0.0
 11
7339.673057123661
 21
10171.73905351664
 31
0.0
  0
DIMENSION
  5
16333
330
747D
100
AcDbEntity
  8
寸法
100
AcDbDimension
  2
*D13
 10
8269.673057123664
 20
10415.54727314162
 30
0.0
 11
8578.158338497903
 21
10415.54727314162
 31
0.0
 70
   160
 71
     5
 42
55.0
  3
INABA_S40G
100
AcDbAlignedDimension
 13
8214.673057123665
 23
10199.73905351664
 33
0.0
 14
8269.673057123664
 24
10199.73905351664
 34
0.0
100
AcDbRotatedDimension
1001
ACAD
1000
DSTYLE
1002
{
1002
}
  0
LINE
  5
16334
330
747D
100
AcDbEntity
  8
部品1
100
AcDbLine
 10
7794.673057123663
 20
10199.73905351666
 30
0.0
 11
7794.673057123663
 21
10171.73905351666
 31
0.0
  0
LINE
  5
16335
330
747D
100
AcDbEntity
  8
部品1
100
AcDbLine
 10
8214.673057123665
 20
10199.73905351664
 30
0.0
 11
8214.673057123665
 21
10171.73905351663
 31
0.0
  0
LINE
  5
16336
330
747D
100
AcDbEntity
  8
部品1
100
AcDbLine
 10
8214.673057123665
 20
10199.73905351666
 30
0.0
 11
8214.673057123665
 21
10171.73905351666
 31
0.0
  0
LINE
  5
16337
330
747D
100
AcDbEntity
  8
部品1
100
AcDbLine
 10
8241.673057123664
 20
10144.73905351664
 30
0.0
 11
8269.673057123664
 21
10144.73905351664
 31
0.0
  0
LINE
  5
1655C
330
747D
100
AcDbEntity
  8
部品1
100
AcDbLine
 10
6376.673057123658
 20
3863.358099277191
 30
0.0
 11
6376.673057123655
 21
2188.35809927719
 31
0.0
  0
LINE
  5
1655D
330
747D
100
AcDbEntity
  8
部品1
100
AcDbLine
 10
6424.673057123655
 20
3863.358099277189
 30
0.0
 11
6424.673057123655
 21
2188.35809927719
 31
0.0
  0
LINE
  5
1655E
330
747D
100
AcDbEntity
  8
破線
 48
5.0
100
AcDbLine
 10
6376.673057123655
 20
2188.35809927719
 30
0.0
 11
6376.673057123658
 21
1938.358099277189
 31
0.0
  0
LINE
  5
1655F
330
747D
100
AcDbEntity
  8
破線
 48
5.0
100
AcDbLine
 10
6424.673057123658
 20
1938.358099277189
 30
0.0
 11
6376.673057123657
 21
1938.358099277189
 31
0.0
  0
LINE
  5
16560
330
747D
100
AcDbEntity
  8
破線
 48
5.0
100
AcDbLine
 10
6424.673057123655
 20
2188.35809927719
 30
0.0
 11
6424.673057123658
 21
1913.358099277189
 31
0.0
  0
LINE
  5
16561
330
747D
100
AcDbEntity
  8
破線
 48
5.0
100
AcDbLine
 10
6534.673057123654
 20
1913.358099277189
 30
0.0
 11
6424.673057123657
 21
1913.358099277189
 31
0.0
  0
LINE
  5
16562
330
747D
100
AcDbEntity
  8
部品1
100
AcDbLine
 10
6582.673057123656
 20
3863.35809927719
 30
0.0
 11
6582.673057123656
 21
2188.35809927719
 31
0.0
  0
LINE
  5
16563
330
747D
100
AcDbEntity
  8
破線
 48
5.0
100
AcDbLine
 10
6582.673057123656
 20
2188.35809927719
 30
0.0
 11
6582.673057123655
 21
1938.358099277195
 31
0.0
  0
LINE
  5
16564
330
747D
100
AcDbEntity
  8
破線
 48
5.0
100
AcDbLine
 10
6582.673057123655
 20
1938.358099277195
 30
0.0
 11
6534.673057123654
 21
1938.358099277195
 31
0.0
  0
LINE
  5
16565
330
747D
100
AcDbEntity
  8
破線
 48
5.0
100
AcDbLine
 10
6534.673057123656
 20
2188.35809927719
 30
0.0
 11
6534.673057123654
 21
1913.358099277189
 31
0.0
  0
LINE
  5
16566
330
747D
100
AcDbEntity
  8
部品1
100
AcDbLine
 10
6534.673057123656
 20
3863.358099277189
 30
0.0
 11
6534.673057123656
 21
2188.35809927719
 31
0.0
  0
LINE
  5
16567
330
747D
100
AcDbEntity
  8
部品1
100
AcDbLine
 10
6534.673057123656
 20
3863.35809927719
 30
0.0
 11
8269.673057123657
 21
3863.358099277191
 31
0.0
  0
DIMENSION
  5
1659A
330
747D
100
AcDbEntity
  8
寸法
 48
50.0
100
AcDbDimension
  2
*D15
 10
6376.673057123639
 20
6615.308282750375
 30
0.0
 11
6265.710159474891
 21
6715.308282750375
 31
0.0
 70
   160
 71
     5
 42
48.00000000000181
  3
INABA_S40G
100
AcDbAlignedDimension
 13
6424.67305712364
 23
7149.739053516627
 33
0.0
 14
6376.673057123639
 24
7175.73905351654
 34
0.0
100
AcDbRotatedDimension
1001
ACAD
1000
DSTYLE
1002
{
1070
   279
1070
     2
1002
}
  0
DIMENSION
  5
1659C
330
747D
100
AcDbEntity
  8
寸法
 48
50.0
100
AcDbDimension
  2
*D14
 10
2954.673057123653
 20
6615.308282750375
 30
0.0
 11
3115.575028123715
 21
6715.308282750375
 31
0.0
 70
   160
 71
     5
 42
48.00000000000363
  3
INABA_S40G
100
AcDbAlignedDimension
 13
3002.673057123657
 23
7175.739053516538
 33
0.0
 14
2954.673057123653
 24
7149.739053516539
 34
0.0
100
AcDbRotatedDimension
1001
ACAD
1000
DSTYLE
1002
{
1070
   279
1070
     2
1002
}
  0
DIMENSION
  5
165E9
330
747D
100
AcDbEntity
  8
寸法
 48
50.0
100
AcDbDimension
  2
*D16
 10
6424.67305712364
 20
6615.308282750376
 30
0.0
 11
6479.673057123647
 21
6463.616387714144
 31
0.0
 70
   160
 71
     5
 42
110.0000000000127
  3
INABA_S40G
100
AcDbAlignedDimension
 13
6534.673057123653
 23
7149.739053516539
 33
0.0
 14
6424.67305712364
 24
7149.739053516627
 34
0.0
100
AcDbRotatedDimension
1001
ACAD
1000
DSTYLE
1002
{
1070
   279
1070
     2
1002
}
  0
LINE
  5
16656
330
747D
100
AcDbEntity
  8
部品1
100
AcDbLine
 10
6376.673057123639
 20
7214.73905351654
 30
0.0
 11
6424.67305712364
 21
7214.739053516538
 31
0.0
  0
LINE
  5
16657
330
747D
100
AcDbEntity
  8
部品1
 48
50.0
100
AcDbLine
 10
6376.673057123639
 20
7214.73905351654
 30
0.0
 11
6376.673057123639
 21
7205.739053516539
 31
0.0
  0
LINE
  5
16658
330
747D
100
AcDbEntity
  8
部品1
100
AcDbLine
 10
6376.673057123639
 20
7175.73905351654
 30
0.0
 11
6424.673057123638
 21
7175.739053516538
 31
0.0
  0
LINE
  5
16659
330
747D
100
AcDbEntity
  8
部品1
 48
50.0
100
AcDbLine
 10
6376.673057123639
 20
7175.73905351654
 30
0.0
 11
6376.673057123639
 21
7184.73905351654
 31
0.0
  0
LINE
  5
1665A
330
747D
100
AcDbEntity
  8
部品1
 48
50.0
100
AcDbLine
 10
6414.673057123639
 20
7175.739053516538
 30
0.0
 11
6424.673057123638
 21
7154.739053516539
 31
0.0
  0
LINE
  5
1665B
330
747D
100
AcDbEntity
  8
部品1
100
AcDbLine
 10
6424.673057123638
 20
7185.739053516536
 30
0.0
 11
6447.673057123639
 21
7185.739053516538
 31
0.0
  0
LINE
  5
1665C
330
747D
100
AcDbEntity
  8
部品1
100
AcDbLine
 10
6582.673057123656
 20
7214.73905351654
 30
0.0
 11
6534.673057123656
 21
7214.739053516538
 31
0.0
  0
LINE
  5
1665D
330
747D
100
AcDbEntity
  8
部品1
 48
50.0
100
AcDbLine
 10
6582.673057123656
 20
7214.73905351654
 30
0.0
 11
6582.673057123656
 21
7205.739053516539
 31
0.0
  0
LINE
  5
1665E
330
747D
100
AcDbEntity
  8
部品1
100
AcDbLine
 10
6582.673057123656
 20
7175.73905351654
 30
0.0
 11
6534.673057123656
 21
7175.739053516538
 31
0.0
  0
LINE
  5
1665F
330
747D
100
AcDbEntity
  8
部品1
 48
50.0
100
AcDbLine
 10
6544.673057123657
 20
7175.739053516538
 30
0.0
 11
6534.673057123656
 21
7154.739053516539
 31
0.0
  0
LINE
  5
16660
330
747D
100
AcDbEntity
  8
部品1
100
AcDbLine
 10
6534.673057123654
 20
7185.739053516538
 30
0.0
 11
6511.673057123657
 21
7185.739053516538
 31
0.0
  0
LINE
  5
16661
330
747D
100
AcDbEntity
  8
部品1
 48
50.0
100
AcDbLine
 10
6534.673057123656
 20
7214.739053516538
 30
0.0
 11
6534.673057123653
 21
7149.739053516539
 31
0.0
  0
LINE
  5
16662
330
747D
100
AcDbEntity
  8
部品1
 48
50.0
100
AcDbLine
 10
6582.673057123656
 20
7175.73905351654
 30
0.0
 11
6582.673057123656
 21
7184.73905351654
 31
0.0
  0
LINE
  5
16663
330
747D
100
AcDbEntity
  8
部品1
100
AcDbLine
 10
6534.673057123652
 20
7149.739053516539
 30
0.0
 11
6424.673057123643
 21
7149.739053516533
 31
0.0
  0
LINE
  5
16664
330
747D
100
AcDbEntity
  8
部品1
 48
50.0
100
AcDbLine
 10
6424.673057123644
 20
7214.739053516627
 30
0.0
 11
6424.67305712364
 21
7149.739053516627
 31
0.0
  0
LINE
  5
16666
330
747D
100
AcDbEntity
  8
部品1
100
AcDbLine
 10
6534.673057123661
 20
10199.73905351654
 30
0.0
 11
6534.673057123661
 21
10171.73905351654
 31
0.0
  0
LINE
  5
16688
330
747D
100
AcDbEntity
  8
部品1
100
AcDbLine
 10
4717.67305712365
 20
10171.73905351666
 30
0.0
 11
5572.173057123662
 21
10171.73905351665
 31
0.0
  0
LINE
  5
1668A
330
747D
100
AcDbEntity
  8
部品1
100
AcDbLine
 10
5164.673057123662
 20
10199.73905351666
 30
0.0
 11
5164.673057123662
 21
10171.73905351666
 31
0.0
  0
LINE
  5
1668B
330
747D
100
AcDbEntity
  8
部品1
100
AcDbLine
 10
5164.673057123662
 20
10199.73905351654
 30
0.0
 11
5164.673057123662
 21
10171.73905351654
 31
0.0
  0
LINE
  5
1668C
330
747D
100
AcDbEntity
  8
部品1
100
AcDbLine
 10
5164.673057123662
 20
10199.73905351654
 30
0.0
 11
5164.673057123662
 21
10171.73905351654
 31
0.0
  0
LINE
  5
16691
330
747D
100
AcDbEntity
  8
部品1
100
AcDbLine
 10
6004.673057123662
 20
10199.73905351666
 30
0.0
 11
6004.673057123662
 21
10171.73905351666
 31
0.0
  0
LINE
  5
16692
330
747D
100
AcDbEntity
  8
部品1
100
AcDbLine
 10
6424.673057123664
 20
10199.73905351664
 30
0.0
 11
6424.673057123664
 21
10171.73905351663
 31
0.0
  0
DIMENSION
  5
166DD
330
747D
100
AcDbEntity
  8
寸法
 48
50.0
100
AcDbDimension
  2
*D17
 10
6424.673057123664
 20
10415.54727314164
 30
0.0
 11
6479.673057123664
 21
10515.54727314164
 31
0.0
 70
    32
 71
     5
 42
109.9999999999991
  3
INABA_S40G
100
AcDbAlignedDimension
 13
6534.673057123663
 23
10199.73905351659
 33
0.0
 14
6424.673057123664
 24
10199.73905351659
 34
0.0
100
AcDbRotatedDimension
1001
ACAD
1000
DSTYLE
1002
{
1070
   279
1070
     2
1002
}
  0
LINE
  5
16760
330
747D
100
AcDbEntity
  8
部品1
 48
50.0
100
AcDbLine
 10
6479.67305712363
 20
10171.73905351658
 30
0.0
 11
6451.673057123631
 21
10199.73905351664
 31
0.0
  0
LINE
  5
16761
330
747D
100
AcDbEntity
  8
部品1
100
AcDbLine
 10
8214.673057123659
 20
10144.73905351656
 30
0.0
 11
6534.673057123644
 21
10144.73905351656
 31
0.0
  0
LINE
  5
16762
330
747D
100
AcDbEntity
  8
部品1
 48
50.0
100
AcDbLine
 10
6451.673057123631
 20
10171.73905351669
 30
0.0
 11
6451.673057123629
 21
10199.73905351664
 31
0.0
  0
LINE
  5
16763
330
747D
100
AcDbEntity
  8
部品1
 48
50.0
100
AcDbLine
 10
6451.673057123631
 20
10171.73905351658
 30
0.0
 11
6479.67305712363
 21
10171.73905351658
 31
0.0
  0
LINE
  5
168C3
330
747D
100
AcDbEntity
  8
部品1
100
AcDbLine
 10
6503.673057123648
 20
7204.739053516535
 30
0.0
 11
6455.673057123647
 21
7204.739053516535
 31
0.0
  0
LINE
  5
168C4
330
747D
100
AcDbEntity
  8
部品1
 48
50.0
100
AcDbLine
 10
6455.673057123647
 20
7204.739053516536
 30
0.0
 11
6455.673057123651
 21
7149.739053516537
 31
0.0
  0
LINE
  5
168C5
330
747D
100
AcDbEntity
  8
部品1
 48
50.0
100
AcDbLine
 10
6503.673057123648
 20
7204.739053516536
 30
0.0
 11
6503.673057123652
 21
7149.739053516537
 31
0.0
  0
DIMENSION
  5
16913
330
747D
100
AcDbEntity
  8
寸法
 48
50.0
100
AcDbDimension
  2
*D18
 10
8269.673057123664
 20
10664.86874669793
 30
0.0
 11
7374.673057123664
 21
10764.86874669793
 31
0.0
 70
    32
 71
     5
 42
1790.0
  3
INABA_S40G
100
AcDbAlignedDimension
 13
6479.673057123664
 23
10574.53518749958
 33
0.0
 14
8269.673057123664
 24
10199.73905351664
 34
0.0
100
AcDbRotatedDimension
1001
ACAD
1000
DSTYLE
1002
{
1070
    75
1070
     1
1070
   279
1070
     2
1002
}
  0
LINE
  5
172BC
330
747D
100
AcDbEntity
  8
部品1
 48
50.0
100
AcDbLine
 10
6507.673057123631
 20
10144.73905351656
 30
0.0
 11
6507.673057123696
 21
10199.73905351659
 31
0.0
  0
LINE
  5
172BD
330
747D
100
AcDbEntity
  8
部品1
 48
50.0
100
AcDbLine
 10
6451.673057123631
 20
10144.73905351656
 30
0.0
 11
6451.673057123631
 21
10171.73905351658
 31
0.0
  0
LINE
  5
174C8
330
747D
100
AcDbEntity
  8
部品1
 48
50.0
100
AcDbLine
 10
8189.673057123664
 20
10119.73905351651
 30
0.0
 11
6559.673057123617
 21
10119.73905351649
 31
0.0
  0
LINE
  5
174C9
330
747D
100
AcDbEntity
  8
部品1
 48
50.0
100
AcDbLine
 10
8241.673057123664
 20
10171.73905351663
 30
0.0
 11
8214.673057123659
 21
10144.73905351656
 31
0.0
  0
LINE
  5
174CA
330
747D
100
AcDbEntity
  8
部品1
 48
50.0
100
AcDbLine
 10
2954.673057123633
 20
10144.73905351656
 30
0.0
 11
2927.67305712365
 21
10171.73905351666
 31
0.0
  0
LINE
  5
174CB
330
747D
100
AcDbEntity
  8
部品1
 48
50.0
100
AcDbLine
 10
7362.173057123662
 20
10163.73905351664
 30
0.0
 11
7362.173057123662
 21
10171.73905351666
 31
0.0
  0
LINE
  5
174CC
330
747D
100
AcDbEntity
  8
部品1
 48
50.0
100
AcDbLine
 10
7387.173057123662
 20
10163.73905351664
 30
0.0
 11
7387.173057123662
 21
10171.73905351665
 31
0.0
  0
LINE
  5
17B10
330
747D
100
AcDbEntity
  8
細線
100
AcDbLine
 10
4586.673057123657
 20
2198.35809927719
 30
0.0
 11
3002.673057123651
 21
2198.35809927719
 31
0.0
  0
LINE
  5
17B13
330
747D
100
AcDbEntity
  8
部品1
100
AcDbLine
 10
4744.673057123656
 20
3863.35809927719
 30
0.0
 11
4744.673057123656
 21
2188.35809927719
 31
0.0
  0
LINE
  5
17B14
330
747D
100
AcDbEntity
  8
部品1
100
AcDbLine
 10
4792.673057123656
 20
3863.35809927719
 30
0.0
 11
4792.673057123656
 21
2188.35809927719
 31
0.0
  0
LINE
  5
17B15
330
747D
100
AcDbEntity
  8
部品1
100
AcDbLine
 10
4634.673057123657
 20
3863.35809927719
 30
0.0
 11
4634.673057123655
 21
2188.35809927719
 31
0.0
  0
LINE
  5
17B16
330
747D
100
AcDbEntity
  8
部品1
100
AcDbLine
 10
4586.673057123658
 20
3863.358099277191
 30
0.0
 11
4586.673057123655
 21
2188.35809927719
 31
0.0
  0
LINE
  5
17B1E
330
747D
100
AcDbEntity
  8
細線
100
AcDbLine
 10
3002.673057123653
 20
3823.35809927719
 30
0.0
 11
4586.673057123655
 21
3823.35809927719
 31
0.0
  0
LINE
  5
17B21
330
747D
100
AcDbEntity
  8
細線
100
AcDbLine
 10
3002.673057123653
 20
3433.35809927719
 30
0.0
 11
4586.673057123655
 21
3433.35809927719
 31
0.0
  0
LINE
  5
17B22
330
747D
100
AcDbEntity
  8
細線
100
AcDbLine
 10
3002.673057123653
 20
3498.35809927719
 30
0.0
 11
4586.673057123655
 21
3498.35809927719
 31
0.0
  0
LINE
  5
17B23
330
747D
100
AcDbEntity
  8
細線
100
AcDbLine
 10
3002.673057123653
 20
3563.35809927719
 30
0.0
 11
4586.673057123655
 21
3563.35809927719
 31
0.0
  0
LINE
  5
17B24
330
747D
100
AcDbEntity
  8
細線
100
AcDbLine
 10
3002.673057123653
 20
3628.35809927719
 30
0.0
 11
4586.673057123655
 21
3628.35809927719
 31
0.0
  0
LINE
  5
17B25
330
747D
100
AcDbEntity
  8
細線
100
AcDbLine
 10
3002.673057123653
 20
3693.35809927719
 30
0.0
 11
4586.673057123655
 21
3693.35809927719
 31
0.0
  0
LINE
  5
17B26
330
747D
100
AcDbEntity
  8
細線
100
AcDbLine
 10
3002.673057123653
 20
3758.358099277189
 30
0.0
 11
4586.673057123655
 21
3758.358099277189
 31
0.0
  0
LINE
  5
17B27
330
747D
100
AcDbEntity
  8
細線
100
AcDbLine
 10
3002.673057123653
 20
2783.35809927719
 30
0.0
 11
4586.673057123655
 21
2783.35809927719
 31
0.0
  0
LINE
  5
17B28
330
747D
100
AcDbEntity
  8
細線
100
AcDbLine
 10
3002.673057123653
 20
2848.35809927719
 30
0.0
 11
4586.673057123655
 21
2848.35809927719
 31
0.0
  0
LINE
  5
17B29
330
747D
100
AcDbEntity
  8
細線
100
AcDbLine
 10
3002.673057123653
 20
2913.35809927719
 30
0.0
 11
4586.673057123655
 21
2913.35809927719
 31
0.0
  0
LINE
  5
17B2A
330
747D
100
AcDbEntity
  8
細線
100
AcDbLine
 10
3002.673057123653
 20
2978.35809927719
 30
0.0
 11
4586.673057123655
 21
2978.35809927719
 31
0.0
  0
LINE
  5
17B2B
330
747D
100
AcDbEntity
  8
細線
100
AcDbLine
 10
3002.673057123653
 20
3043.35809927719
 30
0.0
 11
4586.673057123655
 21
3043.35809927719
 31
0.0
  0
LINE
  5
17B2C
330
747D
100
AcDbEntity
  8
細線
100
AcDbLine
 10
3002.673057123653
 20
3108.35809927719
 30
0.0
 11
4586.673057123655
 21
3108.35809927719
 31
0.0
  0
LINE
  5
17B2D
330
747D
100
AcDbEntity
  8
細線
100
AcDbLine
 10
3002.673057123653
 20
3173.35809927719
 30
0.0
 11
4586.673057123655
 21
3173.35809927719
 31
0.0
  0
LINE
  5
17B2E
330
747D
100
AcDbEntity
  8
細線
100
AcDbLine
 10
3002.673057123653
 20
3238.35809927719
 30
0.0
 11
4586.673057123655
 21
3238.35809927719
 31
0.0
  0
LINE
  5
17B2F
330
747D
100
AcDbEntity
  8
細線
100
AcDbLine
 10
3002.673057123653
 20
3303.35809927719
 30
0.0
 11
4586.673057123655
 21
3303.35809927719
 31
0.0
  0
LINE
  5
17B30
330
747D
100
AcDbEntity
  8
細線
100
AcDbLine
 10
3002.673057123653
 20
3368.35809927719
 30
0.0
 11
4586.673057123655
 21
3368.35809927719
 31
0.0
  0
LINE
  5
17B33
330
747D
100
AcDbEntity
  8
細線
100
AcDbLine
 10
3002.673057123653
 20
2263.35809927719
 30
0.0
 11
4586.673057123655
 21
2263.35809927719
 31
0.0
  0
LINE
  5
17B34
330
747D
100
AcDbEntity
  8
細線
100
AcDbLine
 10
3002.673057123653
 20
2328.35809927719
 30
0.0
 11
4586.673057123655
 21
2328.35809927719
 31
0.0
  0
LINE
  5
17B35
330
747D
100
AcDbEntity
  8
細線
100
AcDbLine
 10
3002.673057123653
 20
2393.35809927719
 30
0.0
 11
4586.673057123655
 21
2393.35809927719
 31
0.0
  0
LINE
  5
17B36
330
747D
100
AcDbEntity
  8
細線
100
AcDbLine
 10
3002.673057123653
 20
2458.35809927719
 30
0.0
 11
4586.673057123655
 21
2458.35809927719
 31
0.0
  0
LINE
  5
17B37
330
747D
100
AcDbEntity
  8
細線
100
AcDbLine
 10
3002.673057123653
 20
2523.35809927719
 30
0.0
 11
4586.673057123655
 21
2523.35809927719
 31
0.0
  0
LINE
  5
17B38
330
747D
100
AcDbEntity
  8
細線
100
AcDbLine
 10
3002.673057123653
 20
2588.35809927719
 30
0.0
 11
4586.673057123655
 21
2588.35809927719
 31
0.0
  0
LINE
  5
17B39
330
747D
100
AcDbEntity
  8
細線
100
AcDbLine
 10
3002.673057123653
 20
2653.35809927719
 30
0.0
 11
4586.673057123655
 21
2653.35809927719
 31
0.0
  0
LINE
  5
17B3A
330
747D
100
AcDbEntity
  8
細線
100
AcDbLine
 10
3002.673057123653
 20
2718.35809927719
 30
0.0
 11
4586.673057123655
 21
2718.35809927719
 31
0.0
  0
LINE
  5
17B5A
330
747D
100
AcDbEntity
  8
部品1
100
AcDbLine
 10
2899.673057123657
 20
3863.35809927719
 30
0.0
 11
4744.673057123656
 21
3863.35809927719
 31
0.0
  0
LINE
  5
17B5E
330
747D
100
AcDbEntity
  8
破線
 48
5.0
100
AcDbLine
 10
4744.673057123656
 20
2188.35809927719
 30
0.0
 11
4744.673057123656
 21
1913.35809927719
 31
0.0
  0
LINE
  5
17B5F
330
747D
100
AcDbEntity
  8
破線
 48
5.0
100
AcDbLine
 10
4792.673057123654
 20
1938.358099277195
 30
0.0
 11
4744.673057123654
 21
1938.358099277195
 31
0.0
  0
LINE
  5
17B60
330
747D
100
AcDbEntity
  8
破線
 48
5.0
100
AcDbLine
 10
4792.673057123656
 20
2188.35809927719
 30
0.0
 11
4792.673057123654
 21
1938.358099277195
 31
0.0
  0
LINE
  5
17B61
330
747D
100
AcDbEntity
  8
破線
 48
5.0
100
AcDbLine
 10
4744.673057123654
 20
1913.35809927719
 30
0.0
 11
4634.673057123657
 21
1913.35809927719
 31
0.0
  0
LINE
  5
17B62
330
747D
100
AcDbEntity
  8
破線
 48
5.0
100
AcDbLine
 10
4634.673057123655
 20
2188.35809927719
 30
0.0
 11
4634.673057123657
 21
1913.35809927719
 31
0.0
  0
LINE
  5
17B63
330
747D
100
AcDbEntity
  8
破線
 48
5.0
100
AcDbLine
 10
4634.673057123658
 20
1938.35809927719
 30
0.0
 11
4586.673057123657
 21
1938.35809927719
 31
0.0
  0
LINE
  5
17B64
330
747D
100
AcDbEntity
  8
破線
 48
5.0
100
AcDbLine
 10
4586.673057123655
 20
2188.35809927719
 30
0.0
 11
4586.673057123656
 21
1938.35809927719
 31
0.0
  0
DIMENSION
  5
17B86
330
747D
100
AcDbEntity
  8
寸法
 48
50.0
100
AcDbDimension
  2
*D23
 10
4689.673057123664
 20
10664.86874669793
 30
0.0
 11
3794.673057123647
 21
10764.86874669793
 31
0.0
 70
    32
 71
     5
 42
1790.000000000035
  3
INABA_S40G
100
AcDbAlignedDimension
 13
2899.673057123628
 23
10199.73905351651
 33
0.0
 14
4689.673057123664
 24
10574.53518749958
 34
0.0
100
AcDbRotatedDimension
1001
ACAD
1000
DSTYLE
1002
{
1070
   279
1070
     2
1002
}
  0
DIMENSION
  5
17B87
330
747D
100
AcDbEntity
  8
寸法
100
AcDbDimension
  2
*D21
 10
4634.673057123664
 20
10415.54727314164
 30
0.0
 11
3794.673057123663
 21
10515.55908416526
 31
0.0
 70
    32
  1
4X420=<>
 71
     5
 42
1680.000000000001
  3
INABA_S40G
100
AcDbAlignedDimension
 13
2954.673057123663
 23
10199.73905351654
 33
0.0
 14
4634.673057123664
 24
10199.73905351664
 34
0.0
100
AcDbRotatedDimension
1001
ACAD
1000
DSTYLE
1002
{
1002
}
  0
DIMENSION
  5
17B88
330
747D
100
AcDbEntity
  8
寸法
 48
50.0
100
AcDbDimension
  2
*D22
 10
4634.673057123664
 20
10415.54727314164
 30
0.0
 11
4689.673057123664
 21
10515.54727314164
 31
0.0
 70
    32
 71
     5
 42
109.9999999999991
  3
INABA_S40G
100
AcDbAlignedDimension
 13
4744.673057123662
 23
10199.73905351659
 33
0.0
 14
4634.673057123664
 24
10199.73905351659
 34
0.0
100
AcDbRotatedDimension
1001
ACAD
1000
DSTYLE
1002
{
1070
   279
1070
     2
1002
}
  0
LINE
  5
17B89
330
747D
100
AcDbEntity
  8
部品1
100
AcDbLine
 10
4717.673057123629
 20
10144.73905351656
 30
0.0
 11
4661.673057123631
 21
10144.73905351656
 31
0.0
  0
LINE
  5
17B8B
330
747D
100
AcDbEntity
  8
部品1
 48
50.0
100
AcDbLine
 10
4609.673057123632
 20
10119.73905351646
 30
0.0
 11
2979.673057123633
 21
10119.73905351646
 31
0.0
  0
LINE
  5
17B98
330
747D
100
AcDbEntity
  8
部品1
 48
50.0
100
AcDbLine
 10
3807.173057123662
 20
10163.73905351664
 30
0.0
 11
3807.173057123662
 21
10171.73905351665
 31
0.0
  0
LINE
  5
17B99
330
747D
100
AcDbEntity
  8
部品1
 48
50.0
100
AcDbLine
 10
3782.173057123662
 20
10163.73905351664
 30
0.0
 11
3782.173057123662
 21
10171.73905351666
 31
0.0
  0
LINE
  5
17B9A
330
747D
100
AcDbEntity
  8
部品1
 48
50.0
100
AcDbLine
 10
4661.673057123631
 20
10144.73905351656
 30
0.0
 11
4661.673057123631
 21
10171.73905351658
 31
0.0
  0
LINE
  5
17B9B
330
747D
100
AcDbEntity
  8
部品1
 48
50.0
100
AcDbLine
 10
4717.673057123631
 20
10144.73905351656
 30
0.0
 11
4717.673057123696
 21
10199.73905351659
 31
0.0
  0
LINE
  5
17B9C
330
747D
100
AcDbEntity
  8
部品1
 48
50.0
100
AcDbLine
 10
4713.673057123648
 20
7204.739053516536
 30
0.0
 11
4713.673057123651
 21
7149.739053516537
 31
0.0
  0
LINE
  5
17B9D
330
747D
100
AcDbEntity
  8
部品1
 48
50.0
100
AcDbLine
 10
4665.673057123647
 20
7204.739053516536
 30
0.0
 11
4665.673057123651
 21
7149.739053516537
 31
0.0
  0
LINE
  5
17B9E
330
747D
100
AcDbEntity
  8
部品1
100
AcDbLine
 10
4713.673057123648
 20
7204.739053516535
 30
0.0
 11
4665.673057123647
 21
7204.739053516535
 31
0.0
  0
LINE
  5
17B9F
330
747D
100
AcDbEntity
  8
部品1
 48
50.0
100
AcDbLine
 10
4661.673057123631
 20
10171.73905351658
 30
0.0
 11
4689.67305712363
 21
10171.73905351658
 31
0.0
  0
LINE
  5
17BA0
330
747D
100
AcDbEntity
  8
部品1
 48
50.0
100
AcDbLine
 10
4661.673057123631
 20
10171.73905351669
 30
0.0
 11
4661.673057123629
 21
10199.73905351664
 31
0.0
  0
LINE
  5
17BA1
330
747D
100
AcDbEntity
  8
部品1
 48
50.0
100
AcDbLine
 10
4689.67305712363
 20
10171.73905351658
 30
0.0
 11
4661.673057123631
 21
10199.73905351664
 31
0.0
  0
LINE
  5
17BA2
330
747D
100
AcDbEntity
  8
部品1
100
AcDbLine
 10
4634.673057123664
 20
10199.73905351664
 30
0.0
 11
4634.673057123664
 21
10171.73905351663
 31
0.0
  0
LINE
  5
17BA3
330
747D
100
AcDbEntity
  8
部品1
100
AcDbLine
 10
4214.673057123662
 20
10199.73905351666
 30
0.0
 11
4214.673057123662
 21
10171.73905351666
 31
0.0
  0
LINE
  5
17BA4
330
747D
100
AcDbEntity
  8
部品1
100
AcDbLine
 10
3374.673057123663
 20
10199.73905351654
 30
0.0
 11
3374.673057123663
 21
10171.73905351654
 31
0.0
  0
LINE
  5
17BA5
330
747D
100
AcDbEntity
  8
部品1
100
AcDbLine
 10
3374.673057123663
 20
10199.73905351654
 30
0.0
 11
3374.673057123663
 21
10171.73905351654
 31
0.0
  0
LINE
  5
17BA6
330
747D
100
AcDbEntity
  8
部品1
100
AcDbLine
 10
3374.673057123663
 20
10199.73905351666
 30
0.0
 11
3374.673057123663
 21
10171.73905351666
 31
0.0
  0
LINE
  5
17BA7
330
747D
100
AcDbEntity
  8
部品1
100
AcDbLine
 10
3374.673057123663
 20
10199.73905351654
 30
0.0
 11
3374.673057123663
 21
10171.73905351654
 31
0.0
  0
LINE
  5
17BA8
330
747D
100
AcDbEntity
  8
部品1
100
AcDbLine
 10
3374.673057123663
 20
10199.73905351654
 30
0.0
 11
3374.673057123663
 21
10171.73905351654
 31
0.0
  0
LINE
  5
17BA9
330
747D
100
AcDbEntity
  8
部品1
100
AcDbLine
 10
3374.673057123663
 20
10199.73905351666
 30
0.0
 11
3374.673057123663
 21
10171.73905351666
 31
0.0
  0
LINE
  5
17BAA
330
747D
100
AcDbEntity
  8
部品1
100
AcDbLine
 10
2927.67305712365
 20
10171.73905351666
 30
0.0
 11
3782.173057123662
 21
10171.73905351666
 31
0.0
  0
LINE
  5
17BAB
330
747D
100
AcDbEntity
  8
部品1
100
AcDbLine
 10
3807.173057123662
 20
10171.73905351665
 30
0.0
 11
4661.673057123663
 21
10171.73905351663
 31
0.0
  0
LINE
  5
17BAC
330
747D
100
AcDbEntity
  8
部品1
100
AcDbLine
 10
3759.673057123662
 20
10189.73905351664
 30
0.0
 11
3759.673057123662
 21
10171.73905351664
 31
0.0
  0
LINE
  5
17BAD
330
747D
100
AcDbEntity
  8
部品1
100
AcDbLine
 10
3759.673057123662
 20
10189.73905351664
 30
0.0
 11
3765.673057123662
 21
10189.73905351664
 31
0.0
  0
LINE
  5
17BAE
330
747D
100
AcDbEntity
  8
部品1
100
AcDbLine
 10
3829.673057123662
 20
10189.73905351664
 30
0.0
 11
3829.673057123662
 21
10171.73905351664
 31
0.0
  0
LINE
  5
17BAF
330
747D
100
AcDbEntity
  8
部品1
100
AcDbLine
 10
3823.673057123662
 20
10189.73905351664
 30
0.0
 11
3829.673057123662
 21
10189.73905351664
 31
0.0
  0
LINE
  5
17BB0
330
747D
100
AcDbEntity
  8
部品1
100
AcDbLine
 10
3782.173057123662
 20
10163.73905351664
 30
0.0
 11
3807.173057123662
 21
10163.73905351664
 31
0.0
  0
LINE
  5
17BB1
330
747D
100
AcDbEntity
  8
部品1
100
AcDbLine
 10
3794.673057123662
 20
10199.73905351666
 30
0.0
 11
3794.673057123662
 21
10171.73905351666
 31
0.0
  0
LINE
  5
17BB2
330
747D
100
AcDbEntity
  8
部品1
100
AcDbLine
 10
4744.673057123661
 20
10199.73905351654
 30
0.0
 11
4744.673057123661
 21
10171.73905351654
 31
0.0
  0
LINE
  5
17BB3
330
747D
100
AcDbEntity
  8
部品1
 48
50.0
100
AcDbLine
 10
4634.673057123644
 20
7214.739053516627
 30
0.0
 11
4634.673057123641
 21
7149.739053516627
 31
0.0
  0
LINE
  5
17BB4
330
747D
100
AcDbEntity
  8
部品1
100
AcDbLine
 10
4744.673057123651
 20
7149.739053516539
 30
0.0
 11
4634.673057123642
 21
7149.739053516533
 31
0.0
  0
LINE
  5
17BB5
330
747D
100
AcDbEntity
  8
部品1
 48
50.0
100
AcDbLine
 10
4792.673057123656
 20
7175.73905351654
 30
0.0
 11
4792.673057123656
 21
7184.73905351654
 31
0.0
  0
LINE
  5
17BB6
330
747D
100
AcDbEntity
  8
部品1
 48
50.0
100
AcDbLine
 10
4744.673057123656
 20
7214.739053516538
 30
0.0
 11
4744.673057123653
 21
7149.739053516539
 31
0.0
  0
LINE
  5
17BB7
330
747D
100
AcDbEntity
  8
部品1
100
AcDbLine
 10
4744.673057123654
 20
7185.739053516538
 30
0.0
 11
4721.673057123656
 21
7185.739053516538
 31
0.0
  0
LINE
  5
17BB8
330
747D
100
AcDbEntity
  8
部品1
 48
50.0
100
AcDbLine
 10
4754.673057123656
 20
7175.739053516538
 30
0.0
 11
4744.673057123656
 21
7154.739053516539
 31
0.0
  0
LINE
  5
17BB9
330
747D
100
AcDbEntity
  8
部品1
100
AcDbLine
 10
4792.673057123656
 20
7175.73905351654
 30
0.0
 11
4744.673057123656
 21
7175.739053516538
 31
0.0
  0
LINE
  5
17BBA
330
747D
100
AcDbEntity
  8
部品1
 48
50.0
100
AcDbLine
 10
4792.673057123656
 20
7214.73905351654
 30
0.0
 11
4792.673057123656
 21
7205.739053516539
 31
0.0
  0
LINE
  5
17BBB
330
747D
100
AcDbEntity
  8
部品1
100
AcDbLine
 10
4792.673057123656
 20
7214.73905351654
 30
0.0
 11
4744.673057123656
 21
7214.739053516538
 31
0.0
  0
LINE
  5
17BBC
330
747D
100
AcDbEntity
  8
部品1
100
AcDbLine
 10
4634.673057123638
 20
7185.739053516536
 30
0.0
 11
4657.673057123639
 21
7185.739053516538
 31
0.0
  0
LINE
  5
17BBD
330
747D
100
AcDbEntity
  8
部品1
 48
50.0
100
AcDbLine
 10
4624.673057123638
 20
7175.739053516538
 30
0.0
 11
4634.673057123638
 21
7154.739053516539
 31
0.0
  0
LINE
  5
17BBE
330
747D
100
AcDbEntity
  8
部品1
 48
50.0
100
AcDbLine
 10
4586.673057123639
 20
7175.73905351654
 30
0.0
 11
4586.673057123639
 21
7184.73905351654
 31
0.0
  0
LINE
  5
17BBF
330
747D
100
AcDbEntity
  8
部品1
100
AcDbLine
 10
4586.673057123639
 20
7175.73905351654
 30
0.0
 11
4634.673057123638
 21
7175.739053516538
 31
0.0
  0
LINE
  5
17BC0
330
747D
100
AcDbEntity
  8
部品1
 48
50.0
100
AcDbLine
 10
4586.673057123639
 20
7214.73905351654
 30
0.0
 11
4586.673057123639
 21
7205.739053516539
 31
0.0
  0
LINE
  5
17BC1
330
747D
100
AcDbEntity
  8
部品1
100
AcDbLine
 10
4586.673057123639
 20
7214.73905351654
 30
0.0
 11
4634.673057123641
 21
7214.739053516538
 31
0.0
  0
LINE
  5
17BC2
330
747D
100
AcDbEntity
  8
部品1
 48
50.0
100
AcDbLine
 10
2966.673057123655
 20
7195.239053516537
 30
0.0
 11
4622.67305712364
 21
7195.239053516537
 31
0.0
  0
DIMENSION
  5
17BC3
330
747D
100
AcDbEntity
  8
寸法
 48
50.0
100
AcDbDimension
  2
*D20
 10
3002.673057123657
 20
6615.308282750375
 30
0.0
 11
3794.673057123648
 21
6815.308282750375
 31
0.0
 70
    32
  1
有効開口部間口\P <>
 71
     5
 42
1583.999999999982
  3
INABA_S40G
100
AcDbAlignedDimension
 13
4586.673057123639
 23
7175.73905351654
 33
0.0
 14
3002.673057123657
 24
7175.739053516538
 34
0.0
100
AcDbRotatedDimension
1001
ACAD
1000
DSTYLE
1002
{
1070
    75
1070
     1
1070
   279
1070
     2
1002
}
  0
DIMENSION
  5
17BC4
330
747D
100
AcDbEntity
  8
寸法
 48
50.0
100
AcDbDimension
  2
*D19
 10
4586.673057123639
 20
6615.308282750375
 30
0.0
 11
4475.710159474891
 21
6715.308282750375
 31
0.0
 70
   160
 71
     5
 42
48.00000000000181
  3
INABA_S40G
100
AcDbAlignedDimension
 13
4634.673057123641
 23
7149.739053516627
 33
0.0
 14
4586.673057123639
 24
7175.73905351654
 34
0.0
100
AcDbRotatedDimension
1001
ACAD
1000
DSTYLE
1002
{
1070
   279
1070
     2
1002
}
  0
DIMENSION
  5
17C46
330
747D
100
AcDbEntity
  8
寸法
 48
50.0
100
AcDbDimension
  2
*D25
 10
4634.673057123641
 20
6615.308282750376
 30
0.0
 11
4689.673057123647
 21
6463.616387714144
 31
0.0
 70
   160
 71
     5
 42
110.0000000000127
  3
INABA_S40G
100
AcDbAlignedDimension
 13
4744.673057123653
 23
7149.739053516539
 33
0.0
 14
4634.673057123641
 24
7149.739053516627
 34
0.0
100
AcDbRotatedDimension
1001
ACAD
1000
DSTYLE
1002
{
1070
   279
1070
     2
1002
}
  0
DIMENSION
  5
17C47
330
747D
100
AcDbEntity
  8
寸法
 48
50.0
100
AcDbDimension
  2
*D24
 10
4744.673057123653
 20
6615.308282750375
 30
0.0
 11
4905.575028123714
 21
6715.308282750375
 31
0.0
 70
   160
 71
     5
 42
48.00000000000363
  3
INABA_S40G
100
AcDbAlignedDimension
 13
4792.673057123656
 23
7175.739053516538
 33
0.0
 14
4744.673057123653
 24
7149.739053516539
 34
0.0
100
AcDbRotatedDimension
1001
ACAD
1000
DSTYLE
1002
{
1070
   279
1070
     2
1002
}
  0
LINE
  5
17D0F
330
747D
100
AcDbEntity
  8
部品1
100
AcDbLine
 10
8241.673057123655
 20
9724.739053516634
 30
0.0
 11
8269.673057123656
 21
9724.739053516634
 31
0.0
  0
LINE
  5
17D10
330
747D
100
AcDbEntity
  8
部品1
100
AcDbLine
 10
8241.673057123659
 20
8884.739053516632
 30
0.0
 11
8269.673057123659
 21
8884.739053516632
 31
0.0
  0
LINE
  5
17D11
330
747D
100
AcDbEntity
  8
部品1
100
AcDbLine
 10
2927.67305712363
 20
9724.739053516506
 30
0.0
 11
2899.67305712363
 21
9724.739053516506
 31
0.0
  0
LINE
  5
17D12
330
747D
100
AcDbEntity
  8
部品1
100
AcDbLine
 10
2927.673057123633
 20
8884.739053516504
 30
0.0
 11
2899.673057123633
 21
8884.739053516504
 31
0.0
  0
TEXT
  5
180AD
330
747D
100
AcDbEntity
  8
文字
 48
50.0
100
AcDbText
 10
5649.043058850573
 20
6650.777407354123
 30
0.0
 40
120.0
  1
1584
  7
STYLE1
100
AcDbText
  0
LINE
  5
180D8
330
747D
100
AcDbEntity
  8
寸法
 48
50.0
100
AcDbLine
 10
6276.673057123638
 20
6615.308282750375
 30
0.0
 11
5660.28692638396
 21
6615.308282750375
 31
0.0
  0
LINE
  5
180D9
330
747D
100
AcDbEntity
  8
寸法
 48
50.0
100
AcDbLine
 10
5461.418645771679
 20
6615.308282750375
 30
0.0
 11
4796.673057123636
 21
6615.308282750375
 31
0.0
  0
TEXT
  5
180DA
330
747D
100
AcDbEntity
  8
文字
 48
50.0
100
AcDbText
 10
5149.811617545235
 20
6650.777407354123
 30
0.0
 40
120.0
  1
1584
  7
STYLE1
100
AcDbText
  0
LINE
  5
180FF
330
747D
100
AcDbEntity
  8
部品1
100
AcDbLine
 10
2899.673057123657
 20
2188.35809927719
 30
0.0
 11
8269.673057123657
 21
2188.35809927719
 31
0.0
  0
LINE
  5
18100
330
747D
100
AcDbEntity
  8
Ｇ．Ｌ
100
AcDbLine
 10
1811.406454453172
 20
2088.35809927719
 30
0.0
 11
14516.30542539651
 21
2088.358099277189
 31
0.0
  0
LINE
  5
18102
330
747D
100
AcDbEntity
  8
部品1
 48
50.0
100
AcDbLine
 10
6399.673057123633
 20
10119.73905351649
 30
0.0
 11
4769.673057123632
 21
10119.73905351646
 31
0.0
  0
LINE
  5
18103
330
747D
100
AcDbEntity
  8
部品1
100
AcDbLine
 10
6424.673057123643
 20
10144.73905351656
 30
0.0
 11
4744.673057123642
 21
10144.73905351656
 31
0.0
  0
LINE
  5
18157
330
747D
100
AcDbEntity
  8
部品1
100
AcDbLine
 10
4661.673057123651
 20
9724.739053516589
 30
0.0
 11
4689.673057123651
 21
9724.739053516589
 31
0.0
  0
LINE
  5
18158
330
747D
100
AcDbEntity
  8
部品1
100
AcDbLine
 10
4661.673057123651
 20
8884.739053516588
 30
0.0
 11
4689.673057123651
 21
8884.739053516588
 31
0.0
  0
LINE
  5
18159
330
747D
100
AcDbEntity
  8
部品1
100
AcDbLine
 10
4661.673057123651
 20
8464.739053516588
 30
0.0
 11
4689.673057123651
 21
8464.739053516588
 31
0.0
  0
LINE
  5
1815A
330
747D
100
AcDbEntity
  8
部品1
100
AcDbLine
 10
4634.673057123649
 20
7214.739053516487
 30
0.0
 11
4634.673057123642
 21
10144.73905351649
 31
0.0
  0
LINE
  5
1815B
330
747D
100
AcDbEntity
  8
部品1
 48
10.0
100
AcDbLine
 10
4609.673057123658
 20
7214.739053516487
 30
0.0
 11
4609.673057123632
 21
10144.73905351649
 31
0.0
  0
LINE
  5
1815C
330
747D
100
AcDbEntity
  8
部品1
100
AcDbLine
 10
4661.673057123631
 20
10171.73905351658
 30
0.0
 11
4661.673057123614
 21
7149.739053516481
 31
0.0
  0
LINE
  5
1815D
330
747D
100
AcDbEntity
  8
部品1
100
AcDbLine
 10
4744.673057123669
 20
7214.739053516487
 30
0.0
 11
4744.673057123642
 21
10144.73905351648
 31
0.0
  0
LINE
  5
1815E
330
747D
100
AcDbEntity
  8
部品1
 48
10.0
100
AcDbLine
 10
4769.673057123664
 20
7214.739053516487
 30
0.0
 11
4769.673057123616
 21
10144.7390535165
 31
0.0
  0
LINE
  5
1815F
330
747D
100
AcDbEntity
  8
部品1
100
AcDbLine
 10
4717.673057123609
 20
7149.739053516487
 30
0.0
 11
4717.673057123633
 21
10199.73905351653
 31
0.0
  0
LINE
  5
18160
330
747D
100
AcDbEntity
  8
部品1
100
AcDbLine
 10
4689.673057123649
 20
10144.7390535165
 30
0.0
 11
4689.673057123622
 21
7204.739053516481
 31
0.0
  0
LINE
  5
18161
330
747D
100
AcDbEntity
  8
部品1
100
AcDbLine
 10
6479.673057123649
 20
10144.7390535165
 30
0.0
 11
6479.673057123623
 21
7204.739053516481
 31
0.0
  0
LINE
  5
18162
330
747D
100
AcDbEntity
  8
部品1
100
AcDbLine
 10
6507.67305712361
 20
7149.739053516487
 30
0.0
 11
6507.673057123632
 21
10199.73905351653
 31
0.0
  0
LINE
  5
18163
330
747D
100
AcDbEntity
  8
部品1
 48
10.0
100
AcDbLine
 10
6559.673057123664
 20
7214.739053516487
 30
0.0
 11
6559.673057123617
 21
10144.7390535165
 31
0.0
  0
LINE
  5
18164
330
747D
100
AcDbEntity
  8
部品1
100
AcDbLine
 10
6534.673057123669
 20
7214.739053516487
 30
0.0
 11
6534.673057123642
 21
10144.73905351648
 31
0.0
  0
LINE
  5
18165
330
747D
100
AcDbEntity
  8
部品1
100
AcDbLine
 10
6451.673057123631
 20
10171.73905351658
 30
0.0
 11
6451.673057123615
 21
7149.739053516481
 31
0.0
  0
LINE
  5
18166
330
747D
100
AcDbEntity
  8
部品1
 48
10.0
100
AcDbLine
 10
6399.673057123659
 20
7214.739053516487
 30
0.0
 11
6399.673057123633
 21
10144.73905351649
 31
0.0
  0
LINE
  5
18167
330
747D
100
AcDbEntity
  8
部品1
100
AcDbLine
 10
6424.67305712365
 20
7214.739053516487
 30
0.0
 11
6424.673057123643
 21
10144.73905351649
 31
0.0
  0
LINE
  5
18168
330
747D
100
AcDbEntity
  8
部品1
100
AcDbLine
 10
6451.673057123651
 20
8464.739053516588
 30
0.0
 11
6479.673057123651
 21
8464.739053516588
 31
0.0
  0
LINE
  5
18169
330
747D
100
AcDbEntity
  8
部品1
100
AcDbLine
 10
6451.673057123651
 20
8884.739053516588
 30
0.0
 11
6479.673057123651
 21
8884.739053516588
 31
0.0
  0
LINE
  5
1816A
330
747D
100
AcDbEntity
  8
部品1
100
AcDbLine
 10
6451.673057123651
 20
9724.739053516589
 30
0.0
 11
6479.673057123651
 21
9724.739053516589
 31
0.0
  0
LINE
  5
1816B
330
747D
100
AcDbEntity
  8
部品1
 48
50.0
100
AcDbLine
 10
6507.673057123684
 20
10171.73905351639
 30
0.0
 11
6534.673057123673
 21
10144.73905351641
 31
0.0
  0
LINE
  5
1816C
330
747D
100
AcDbEntity
  8
部品1
 48
50.0
100
AcDbLine
 10
6451.673057123699
 20
10171.73905351649
 30
0.0
 11
6424.673057123695
 21
10144.73905351648
 31
0.0
  0
LINE
  5
1816D
330
747D
100
AcDbEntity
  8
部品1
 48
50.0
100
AcDbLine
 10
4717.673057123684
 20
10171.73905351639
 30
0.0
 11
4744.673057123673
 21
10144.73905351641
 31
0.0
  0
LINE
  5
1816E
330
747D
100
AcDbEntity
  8
部品1
 48
50.0
100
AcDbLine
 10
4661.673057123699
 20
10171.73905351649
 30
0.0
 11
4634.673057123694
 21
10144.73905351648
 31
0.0
  0
LINE
  5
1816F
330
747D
100
AcDbEntity
  8
部品1
100
AcDbLine
 10
4634.673057123642
 20
10144.73905351656
 30
0.0
 11
2954.673057123633
 21
10144.73905351656
 31
0.0
  0
LINE
  5
18170
330
747D
100
AcDbEntity
  8
部品1
100
AcDbLine
 10
6507.673057123632
 20
10144.73905351656
 30
0.0
 11
6451.673057123629
 21
10144.73905351656
 31
0.0
  0
LINE
  5
18171
330
747D
100
AcDbEntity
  8
部品1
100
AcDbLine
 10
6451.67305712366
 20
8044.73905351659
 30
0.0
 11
6479.673057123658
 21
8044.73905351659
 31
0.0
  0
LINE
  5
18172
330
747D
100
AcDbEntity
  8
部品1
100
AcDbLine
 10
6451.67305712366
 20
7624.739053516589
 30
0.0
 11
6479.673057123658
 21
7624.739053516589
 31
0.0
  0
LINE
  5
18173
330
747D
100
AcDbEntity
  8
部品1
100
AcDbLine
 10
4661.673057123659
 20
7624.739053516589
 30
0.0
 11
4689.673057123658
 21
7624.739053516589
 31
0.0
  0
LINE
  5
18174
330
747D
100
AcDbEntity
  8
部品1
100
AcDbLine
 10
4661.673057123659
 20
8044.73905351659
 30
0.0
 11
4689.673057123658
 21
8044.73905351659
 31
0.0
  0
CIRCLE
  5
1834F
330
747D
100
AcDbEntity
  8
細線
 48
50.0
100
AcDbCircle
 10
7374.673057123651
 20
3075.85809927719
 30
0.0
 40
18.0
  0
ARC
  5
18350
330
747D
100
AcDbEntity
  8
細線
 48
50.0
100
AcDbCircle
 10
7674.673057123651
 20
2750.85809927719
 30
0.0
 40
15.0
100
AcDbArc
 50
270.0
 51
90.0
  0
ARC
  5
18351
330
747D
100
AcDbEntity
  8
細線
 48
50.0
100
AcDbCircle
 10
7574.673057123651
 20
2750.85809927719
 30
0.0
 40
15.0
100
AcDbArc
 50
90.0
 51
270.0
  0
LINE
  5
18352
330
747D
100
AcDbEntity
  8
細線
 48
50.0
100
AcDbLine
 10
7574.673057123651
 20
2765.85809927719
 30
0.0
 11
7674.673057123651
 21
2765.85809927719
 31
0.0
  0
LINE
  5
18353
330
747D
100
AcDbEntity
  8
細線
 48
50.0
100
AcDbLine
 10
7674.673057123651
 20
2735.858099277189
 30
0.0
 11
7574.673057123651
 21
2735.858099277189
 31
0.0
  0
LINE
  5
18354
330
747D
100
AcDbEntity
  8
細線
 48
50.0
100
AcDbLine
 10
7174.673057123651
 20
2735.858099277189
 30
0.0
 11
7074.673057123651
 21
2735.858099277189
 31
0.0
  0
LINE
  5
18355
330
747D
100
AcDbEntity
  8
細線
 48
50.0
100
AcDbLine
 10
7074.673057123651
 20
2765.85809927719
 30
0.0
 11
7174.673057123651
 21
2765.85809927719
 31
0.0
  0
ARC
  5
18356
330
747D
100
AcDbEntity
  8
細線
 48
50.0
100
AcDbCircle
 10
7174.673057123651
 20
2750.85809927719
 30
0.0
 40
15.0
100
AcDbArc
 50
270.0
 51
90.0
  0
ARC
  5
18357
330
747D
100
AcDbEntity
  8
細線
 48
50.0
100
AcDbCircle
 10
7074.673057123651
 20
2750.85809927719
 30
0.0
 40
15.0
100
AcDbArc
 50
90.0
 51
270.0
  0
ARC
  5
18792
330
747D
100
AcDbEntity
  8
細線
 48
50.0
100
AcDbCircle
 10
3494.673057123652
 20
2750.85809927719
 30
0.0
 40
15.0
100
AcDbArc
 50
90.0
 51
270.0
  0
ARC
  5
18793
330
747D
100
AcDbEntity
  8
細線
 48
50.0
100
AcDbCircle
 10
3594.673057123652
 20
2750.85809927719
 30
0.0
 40
15.0
100
AcDbArc
 50
270.0
 51
90.0
  0
LINE
  5
18794
330
747D
100
AcDbEntity
  8
細線
 48
50.0
100
AcDbLine
 10
3494.673057123652
 20
2765.85809927719
 30
0.0
 11
3594.673057123652
 21
2765.85809927719
 31
0.0
  0
LINE
  5
18795
330
747D
100
AcDbEntity
  8
細線
 48
50.0
100
AcDbLine
 10
3594.673057123652
 20
2735.858099277189
 30
0.0
 11
3494.673057123652
 21
2735.858099277189
 31
0.0
  0
LINE
  5
18796
330
747D
100
AcDbEntity
  8
細線
 48
50.0
100
AcDbLine
 10
4094.673057123651
 20
2735.858099277189
 30
0.0
 11
3994.673057123652
 21
2735.858099277189
 31
0.0
  0
LINE
  5
18797
330
747D
100
AcDbEntity
  8
細線
 48
50.0
100
AcDbLine
 10
3994.673057123652
 20
2765.85809927719
 30
0.0
 11
4094.673057123651
 21
2765.85809927719
 31
0.0
  0
ARC
  5
18798
330
747D
100
AcDbEntity
  8
細線
 48
50.0
100
AcDbCircle
 10
3994.673057123652
 20
2750.85809927719
 30
0.0
 40
15.0
100
AcDbArc
 50
90.0
 51
270.0
  0
ARC
  5
18799
330
747D
100
AcDbEntity
  8
細線
 48
50.0
100
AcDbCircle
 10
4094.673057123651
 20
2750.85809927719
 30
0.0
 40
15.0
100
AcDbArc
 50
270.0
 51
90.0
  0
CIRCLE
  5
1879A
330
747D
100
AcDbEntity
  8
細線
 48
50.0
100
AcDbCircle
 10
3794.673057123651
 20
3075.85809927719
 30
0.0
 40
18.0
  0
LINE
  5
1884E
330
747D
100
AcDbEntity
  8
部品1
100
AcDbLine
 10
6451.673057123651
 20
9304.739053516581
 30
0.0
 11
6479.673057123651
 21
9304.739053516581
 31
0.0
  0
LINE
  5
1884F
330
747D
100
AcDbEntity
  8
部品1
100
AcDbLine
 10
4661.673057123651
 20
9304.739053516581
 30
0.0
 11
4689.673057123651
 21
9304.739053516581
 31
0.0
  0
LINE
  5
18850
330
747D
100
AcDbEntity
  8
部品1
100
AcDbLine
 10
2927.673057123633
 20
9304.739053516497
 30
0.0
 11
2899.673057123633
 21
9304.739053516497
 31
0.0
  0
LINE
  5
18851
330
747D
100
AcDbEntity
  8
部品1
100
AcDbLine
 10
8241.673057123659
 20
9304.739053516623
 30
0.0
 11
8269.673057123659
 21
9304.739053516623
 31
0.0
  0
TEXT
  5
18D3E
330
747D
100
AcDbEntity
  8
文字
 62
     7
 48
50.0
100
AcDbText
 10
15022.63965474516
 20
9910.013745883727
 30
0.0
 40
100.0
  1
F12,Y10     1.2+1.6
  7
STYLE1
100
AcDbText
  0
TEXT
  5
18D3F
330
747D
100
AcDbEntity
  8
文字
 62
     7
 48
50.0
100
AcDbText
 10
13583.11819016569
 20
9910.01374588373
 30
0.0
 40
100.0
  1
梁中
  7
STYLE1
100
AcDbText
  0
TEXT
  5
18D40
330
747D
100
AcDbEntity
  8
文字
 62
     7
 48
50.0
100
AcDbText
 10
13248.77747366448
 20
8720.013745883731
 30
0.0
 40
100.0
  1
14
  7
STYLE1
100
AcDbText
  0
LINE
  5
18D41
330
747D
100
AcDbEntity
  8
仕様書枠
 48
50.0
100
AcDbLine
 10
16307.19999999999
 20
9879.599999999999
 30
0.0
 11
13127.2
 21
9879.600000000001
 31
0.0
  0
LINE
  5
18D42
330
747D
100
AcDbEntity
  8
仕様書枠
 48
50.0
100
AcDbLine
 10
16307.19999999999
 20
11239.6
 30
0.0
 11
13127.2
 21
11239.6
 31
0.0
  0
LINE
  5
18D43
330
747D
100
AcDbEntity
  8
仕様書枠
 48
50.0
100
AcDbLine
 10
16307.2
 20
8179.599999999998
 30
0.0
 11
16307.2
 21
11239.6
 31
0.0
  0
LINE
  5
18D44
330
747D
100
AcDbEntity
  8
仕様書枠
 48
50.0
100
AcDbLine
 10
14785.2
 20
11239.59999999999
 30
0.0
 11
14785.2
 21
8689.600000000003
 31
0.0
  0
LINE
  5
18D45
330
747D
100
AcDbEntity
  8
仕様書枠
 48
50.0
100
AcDbLine
 10
13490.2
 20
11239.6
 30
0.0
 11
13490.2
 21
8689.600000000003
 31
0.0
  0
LINE
  5
18D46
330
747D
100
AcDbEntity
  8
仕様書枠
 48
50.0
100
AcDbLine
 10
16307.19999999999
 20
11069.6
 30
0.0
 11
13127.2
 21
11069.6
 31
0.0
  0
LINE
  5
18D47
330
747D
100
AcDbEntity
  8
仕様書枠
 48
50.0
100
AcDbLine
 10
16307.19999999999
 20
10729.6
 30
0.0
 11
13127.2
 21
10729.6
 31
0.0
  0
LINE
  5
18D48
330
747D
100
AcDbEntity
  8
仕様書枠
 48
50.0
100
AcDbLine
 10
16307.19999999999
 20
10899.6
 30
0.0
 11
13127.2
 21
10899.6
 31
0.0
  0
LINE
  5
18D49
330
747D
100
AcDbEntity
  8
仕様書枠
 48
50.0
100
AcDbLine
 10
16307.19999999999
 20
10389.6
 30
0.0
 11
13127.19999999999
 21
10389.6
 31
0.0
  0
LINE
  5
18D4A
330
747D
100
AcDbEntity
  8
仕様書枠
 48
50.0
100
AcDbLine
 10
16307.19999999999
 20
10219.6
 30
0.0
 11
13127.19999999999
 21
10219.6
 31
0.0
  0
LINE
  5
18D4B
330
747D
100
AcDbEntity
  8
仕様書枠
 48
50.0
100
AcDbLine
 10
16307.19999999999
 20
10559.6
 30
0.0
 11
13127.19999999999
 21
10559.6
 31
0.0
  0
TEXT
  5
18D4C
330
747D
100
AcDbEntity
  8
文字
 62
     7
 48
50.0
100
AcDbText
 10
13197.42518560407
 20
11100.01374588373
 30
0.0
 40
100.0
  1
品番
  7
STYLE1
100
AcDbText
  0
TEXT
  5
18D4D
330
747D
100
AcDbEntity
  8
文字
 62
     7
 48
50.0
100
AcDbText
 10
13271.19032244792
 20
10930.01374588373
 30
0.0
 40
100.0
  1
1
  7
STYLE1
100
AcDbText
  0
TEXT
  5
18D4E
330
747D
100
AcDbEntity
  8
文字
 62
     7
 48
50.0
100
AcDbText
 10
13271.19032244792
 20
10760.01374588373
 30
0.0
 40
100.0
  1
2
  7
STYLE1
100
AcDbText
  0
TEXT
  5
18D4F
330
747D
100
AcDbEntity
  8
文字
 62
     7
 48
50.0
100
AcDbText
 10
13271.19032244792
 20
10420.01374588373
 30
0.0
 40
100.0
  1
4
  7
STYLE1
100
AcDbText
  0
TEXT
  5
18D50
330
747D
100
AcDbEntity
  8
文字
 62
     7
 48
50.0
100
AcDbText
 10
13271.19032244792
 20
10590.01374588373
 30
0.0
 40
100.0
  1
3
  7
STYLE1
100
AcDbText
  0
TEXT
  5
18D51
330
747D
100
AcDbEntity
  8
文字
 62
     7
 48
50.0
100
AcDbText
 10
13732.03840939434
 20
11100.01374588373
 30
0.0
 40
100.0
  1
部　　品　　名
  7
STYLE1
100
AcDbText
  0
TEXT
  5
18D52
330
747D
100
AcDbEntity
  8
文字
 62
     7
 48
50.0
100
AcDbText
 10
14859.79774614482
 20
11100.01374588373
 30
0.0
 40
100.0
  1
材料（材質）　　単位mm
  7
STYLE1
100
AcDbText
  0
TEXT
  5
18D53
330
747D
100
AcDbEntity
  8
文字
 62
     7
 48
50.0
100
AcDbText
 10
13583.11819016569
 20
10930.01374588372
 30
0.0
 40
100.0
  1
土台枠
  7
STYLE1
100
AcDbText
  0
TEXT
  5
18D54
330
747D
100
AcDbEntity
  8
文字
 62
     7
 48
50.0
100
AcDbText
 10
13583.11819016569
 20
10760.01374588372
 30
0.0
 40
100.0
  1
柱
  7
STYLE1
100
AcDbText
  0
TEXT
  5
18D55
330
747D
100
AcDbEntity
  8
文字
 62
     7
 48
50.0
100
AcDbText
 10
13583.11819016569
 20
10590.01374588373
 30
0.0
 40
100.0
  1
桁前
  7
STYLE1
100
AcDbText
  0
TEXT
  5
18D56
330
747D
100
AcDbEntity
  8
文字
 62
     7
 48
50.0
100
AcDbText
 10
13583.11819016569
 20
10420.01374588373
 30
0.0
 40
100.0
  1
桁後
  7
STYLE1
100
AcDbText
  0
TEXT
  5
18D57
330
747D
100
AcDbEntity
  8
文字
 62
     7
 48
50.0
100
AcDbText
 10
13271.19032244792
 20
10250.01374588373
 30
0.0
 40
100.0
  1
5
  7
STYLE1
100
AcDbText
  0
TEXT
  5
18D58
330
747D
100
AcDbEntity
  8
文字
 62
     7
 48
50.0
100
AcDbText
 10
13583.11819016569
 20
10250.01374588373
 30
0.0
 40
100.0
  1
妻板左右
  7
STYLE1
100
AcDbText
  0
TEXT
  5
18D59
330
747D
100
AcDbEntity
  8
文字
 62
     7
 48
50.0
100
AcDbText
 10
13583.11819016568
 20
8890.013745883731
 30
0.0
 40
100.0
  1
シャッターレール
  7
STYLE1
100
AcDbText
  0
TEXT
  5
18D5A
330
747D
100
AcDbEntity
  8
文字
 62
     7
 48
50.0
100
AcDbText
 10
13248.77747366448
 20
9400.013745883727
 30
0.0
 40
100.0
  1
10
  7
STYLE1
100
AcDbText
  0
TEXT
  5
18D5B
330
747D
100
AcDbEntity
  8
文字
 62
     7
 48
50.0
100
AcDbText
 10
13583.11819016568
 20
9400.013745883729
 30
0.0
 40
100.0
  1
壁パネル
  7
STYLE1
100
AcDbText
  0
TEXT
  5
18D5C
330
747D
100
AcDbEntity
  8
文字
 62
     7
 48
50.0
100
AcDbText
 10
13583.11819016568
 20
9570.013745883727
 30
0.0
 40
100.0
  1
屋根パネル
  7
STYLE1
100
AcDbText
  0
TEXT
  5
18D5D
330
747D
100
AcDbEntity
  8
文字
 62
     7
 48
50.0
100
AcDbText
 10
13583.11819016568
 20
9740.013745883729
 30
0.0
 40
100.0
  1
母屋中
  7
STYLE1
100
AcDbText
  0
TEXT
  5
18D5E
330
747D
100
AcDbEntity
  8
文字
 62
     7
 48
50.0
100
AcDbText
 10
13583.11819016569
 20
10080.01374588372
 30
0.0
 40
100.0
  1
鼻隠シ前後
  7
STYLE1
100
AcDbText
  0
TEXT
  5
18D5F
330
747D
100
AcDbEntity
  8
文字
 62
     7
 48
50.0
100
AcDbText
 10
13271.19032244792
 20
9740.013745883729
 30
0.0
 40
100.0
  1
8
  7
STYLE1
100
AcDbText
  0
TEXT
  5
18D60
330
747D
100
AcDbEntity
  8
文字
 62
     7
 48
50.0
100
AcDbText
 10
13271.19032244792
 20
9570.013745883729
 30
0.0
 40
100.0
  1
9
  7
STYLE1
100
AcDbText
  0
TEXT
  5
18D61
330
747D
100
AcDbEntity
  8
文字
 62
     7
 48
50.0
100
AcDbText
 10
13271.19032244792
 20
9910.01374588373
 30
0.0
 40
100.0
  1
7
  7
STYLE1
100
AcDbText
  0
TEXT
  5
18D62
330
747D
100
AcDbEntity
  8
文字
 62
     7
 48
50.0
100
AcDbText
 10
13271.19032244792
 20
10080.01374588373
 30
0.0
 40
100.0
  1
6
  7
STYLE1
100
AcDbText
  0
LINE
  5
18D63
330
747D
100
AcDbEntity
  8
仕様書枠
 48
50.0
100
AcDbLine
 10
16307.19999999999
 20
9539.599999999998
 30
0.0
 11
13127.19999999999
 21
9539.6
 31
0.0
  0
LINE
  5
18D64
330
747D
100
AcDbEntity
  8
仕様書枠
 48
50.0
100
AcDbLine
 10
16307.19999999999
 20
9199.599999999998
 30
0.0
 11
13127.19999999999
 21
9199.600000000001
 31
0.0
  0
LINE
  5
18D65
330
747D
100
AcDbEntity
  8
仕様書枠
 48
50.0
100
AcDbLine
 10
16307.19999999999
 20
9369.599999999998
 30
0.0
 11
13127.19999999999
 21
9369.600000000001
 31
0.0
  0
LINE
  5
18D66
330
747D
100
AcDbEntity
  8
仕様書枠
 48
50.0
100
AcDbLine
 10
16307.19999999999
 20
10049.6
 30
0.0
 11
13127.2
 21
10049.6
 31
0.0
  0
LINE
  5
18D67
330
747D
100
AcDbEntity
  8
仕様書枠
 48
50.0
100
AcDbLine
 10
16307.19999999999
 20
9709.6
 30
0.0
 11
13127.2
 21
9709.600000000001
 31
0.0
  0
TEXT
  5
18D68
330
747D
100
AcDbEntity
  8
文字
 62
     7
 48
50.0
100
AcDbText
 10
13248.77747366448
 20
9230.013745883727
 30
0.0
 40
100.0
  1
11
  7
STYLE1
100
AcDbText
  0
TEXT
  5
18D69
330
747D
100
AcDbEntity
  8
文字
 62
     7
 48
50.0
100
AcDbText
 10
13583.11819016568
 20
9060.013745883727
 30
0.0
 40
100.0
  1
シャッターカバー
 41
0.9
  7
STYLE1
100
AcDbText
  0
LINE
  5
18D6A
330
747D
100
AcDbEntity
  8
仕様書枠
 48
50.0
100
AcDbLine
 10
16307.19999999999
 20
9029.6
 30
0.0
 11
13127.19999999999
 21
9029.6
 31
0.0
  0
TEXT
  5
18D6C
330
747D
100
AcDbEntity
  8
文字
 62
     7
 48
50.0
100
AcDbText
 10
13583.11819016568
 20
8720.013745883729
 30
0.0
 40
100.0
  1
棚板（別売）
  7
STYLE1
100
AcDbText
  0
LINE
  5
18D6D
330
747D
100
AcDbEntity
  8
仕様書枠
 48
50.0
100
AcDbLine
 10
16307.19999999999
 20
8859.6
 30
0.0
 11
13127.19999999999
 21
8859.600000000002
 31
0.0
  0
TEXT
  5
18D6E
330
747D
100
AcDbEntity
  8
文字
 62
     7
 48
50.0
100
AcDbText
 10
13583.11819016567
 20
9230.013745883725
 30
0.0
 40
100.0
  1
シャッター
  7
STYLE1
100
AcDbText
  0
TEXT
  5
18D6F
330
747D
100
AcDbEntity
  8
文字
 62
     7
 48
50.0
100
AcDbText
 10
13248.77747366448
 20
8890.013745883729
 30
0.0
 40
100.0
  1
13
  7
STYLE1
100
AcDbText
  0
TEXT
  5
18D70
330
747D
100
AcDbEntity
  8
文字
 62
     7
 48
50.0
100
AcDbText
 10
13248.77747366448
 20
9060.013745883729
 30
0.0
 40
100.0
  1
12
  7
STYLE1
100
AcDbText
  0
TEXT
  5
18D71
330
747D
100
AcDbEntity
  8
文字
 62
     7
 48
50.0
100
AcDbText
 10
15022.63965474517
 20
10930.01374588372
 30
0.0
 40
100.0
  1
F12            1.2
  7
STYLE1
100
AcDbText
  0
TEXT
  5
18D73
330
747D
100
AcDbEntity
  8
文字
 62
     7
 48
50.0
100
AcDbText
 10
15022.63965474516
 20
10590.01374588372
 30
0.0
 40
100.0
  1
Y10            1.0
  7
STYLE1
100
AcDbText
  0
TEXT
  5
18D74
330
747D
100
AcDbEntity
  8
文字
 62
     7
 48
50.0
100
AcDbText
 10
15022.63965474516
 20
10420.01374588372
 30
0.0
 40
100.0
  1
Y10            1.0
  7
STYLE1
100
AcDbText
  0
TEXT
  5
18D75
330
747D
100
AcDbEntity
  8
文字
 62
     7
 48
50.0
100
AcDbText
 10
15022.63965474516
 20
10250.01374588372
 30
0.0
 40
100.0
  1
Y10            0.7
  7
STYLE1
100
AcDbText
  0
TEXT
  5
18D76
330
747D
100
AcDbEntity
  8
文字
 62
     7
 48
50.0
100
AcDbText
 10
15022.63965474516
 20
10080.01374588372
 30
0.0
 40
100.0
  1
Y10            0.7
  7
STYLE1
100
AcDbText
  0
TEXT
  5
18D77
330
747D
100
AcDbEntity
  8
文字
 62
     7
 48
50.0
100
AcDbText
 10
15022.63965474516
 20
9740.013745883725
 30
0.0
 40
100.0
  1
F12            1.0
  7
STYLE1
100
AcDbText
  0
TEXT
  5
18D78
330
747D
100
AcDbEntity
  8
文字
 62
     7
 48
50.0
100
AcDbText
 10
15022.63965474516
 20
9570.013745883725
 30
0.0
 40
100.0
  1
Y10            0.5
  7
STYLE1
100
AcDbText
  0
TEXT
  5
18D79
330
747D
100
AcDbEntity
  8
文字
 62
     7
 48
50.0
100
AcDbText
 10
15022.63965474515
 20
9400.013745883725
 30
0.0
 40
100.0
  1
F12            0.6
  7
STYLE1
100
AcDbText
  0
TEXT
  5
18D7A
330
747D
100
AcDbEntity
  8
文字
 62
     7
 48
50.0
100
AcDbText
 10
14850.83183167176
 20
8890.013745883729
 30
0.0
 40
100.0
  1
アルミニウム合金押出形材
  7
STYLE1
100
AcDbText
  0
TEXT
  5
18D7C
330
747D
100
AcDbEntity
  8
文字
 62
     7
 48
50.0
100
AcDbText
 10
15022.63965474513
 20
9230.013745883722
 30
0.0
 40
100.0
  1
Z08            0.5
  7
STYLE1
100
AcDbText
  0
TEXT
  5
18D7D
330
747D
100
AcDbEntity
  8
文字
 62
     7
 48
50.0
100
AcDbText
 10
15022.63965474515
 20
8720.013745883727
 30
0.0
 40
100.0
  1
F12            0.6
  7
STYLE1
100
AcDbText
  0
LINE
  5
18D7E
330
747D
100
AcDbEntity
  8
仕様書枠
 48
50.0
100
AcDbLine
 10
16307.19999999999
 20
8519.599999999996
 30
0.0
 11
13127.19999999999
 21
8519.599999999998
 31
0.0
  0
LINE
  5
18D7F
330
747D
100
AcDbEntity
  8
仕様書枠
 48
50.0
100
AcDbLine
 10
16307.19999999999
 20
8349.599999999997
 30
0.0
 11
13127.19999999999
 21
8349.599999999998
 31
0.0
  0
LINE
  5
18D80
330
747D
100
AcDbEntity
  8
仕様書枠
 48
50.0
100
AcDbLine
 10
16307.19999999999
 20
8179.599999999997
 30
0.0
 11
13127.19999999999
 21
8179.599999999998
 31
0.0
  0
TEXT
  5
18D81
330
747D
100
AcDbEntity
  8
文字
 62
     7
 48
50.0
100
AcDbText
 10
13229.83081656554
 20
8550.013745883726
 30
0.0
 40
100.0
  1
F12→溶融亜鉛めっき鋼板(JIS G 3302)
  7
STYLE1
100
AcDbText
  0
TEXT
  5
18D82
330
747D
100
AcDbEntity
  8
文字
 62
     7
 48
50.0
100
AcDbText
 10
13229.83081656554
 20
8380.013745883726
 30
0.0
 40
100.0
  1
Y10→溶融亜鉛-5％アルミニウム合金めっき鋼板(JIS G 3317)
 41
0.9
  7
STYLE1
100
AcDbText
  0
TEXT
  5
18D83
330
747D
100
AcDbEntity
  8
文字
 62
     7
 48
50.0
100
AcDbText
 10
13229.83081656554
 20
8210.013745883726
 30
0.0
 40
100.0
  1
Z08→塗装溶融亜鉛めっき鋼板(JIS G 3313)
  7
STYLE1
100
AcDbText
  0
LINE
  5
18D84
330
747D
100
AcDbEntity
  8
仕様書枠
 48
50.0
100
AcDbLine
 10
13127.2
 20
11239.6
 30
0.0
 11
13127.2
 21
8179.599999999998
 31
0.0
  0
TEXT
  5
18F54
330
747D
100
AcDbEntity
  8
文字
 62
     7
 48
50.0
100
AcDbText
 10
13209.4053442172
 20
63.10977935368646
 30
0.0
 40
100.0
  1
○床面積 ： Ｎ［連続数］×5.46㎡(1.65坪)
  7
STYLE2
100
AcDbText
  0
TEXT
  5
1952E
330
747D
100
AcDbEntity
  8
部品1
100
AcDbText
 10
12203.21971637547
 20
1245.464570058665
 30
0.0
 40
135.0
  1
側面図
  7
STYLE2
100
AcDbText
  0
LWPOLYLINE
  5
1952F
330
747D
100
AcDbEntity
  8
部品1
100
AcDbPolyline
 90
        4
 70
     1
 43
0.0
 10
12113.77361495187
 20
1438.35809927719
 10
12113.77361495187
 20
1198.465777731657
 10
12877.2442811803
 20
1198.465777731657
 10
12877.2442811803
 20
1438.35809927719
  0
LINE
  5
19530
330
747D
100
AcDbEntity
  8
部品1
100
AcDbLine
 10
13535.50894806607
 20
4028.358099277191
 30
0.0
 11
13535.50894806607
 21
2238.358099277194
 31
0.0
  0
LINE
  5
19531
330
747D
100
AcDbEntity
  8
細線
 48
50.0
100
AcDbLine
 10
13458.00894806608
 20
4028.35809927719
 30
0.0
 11
13458.00894806608
 21
2238.358099277192
 31
0.0
  0
LINE
  5
19532
330
747D
100
AcDbEntity
  8
細線
 48
50.0
100
AcDbLine
 10
13473.00894806608
 20
4028.35809927719
 30
0.0
 11
13473.00894806608
 21
2238.358099277192
 31
0.0
  0
LINE
  5
19533
330
747D
100
AcDbEntity
  8
細線
 48
50.0
100
AcDbLine
 10
13333.00894806608
 20
4028.35809927719
 30
0.0
 11
13333.00894806608
 21
2238.358099277192
 31
0.0
  0
LINE
  5
19534
330
747D
100
AcDbEntity
  8
細線
 48
50.0
100
AcDbLine
 10
13318.00894806608
 20
4028.35809927719
 30
0.0
 11
13318.00894806608
 21
2238.358099277192
 31
0.0
  0
LINE
  5
19535
330
747D
100
AcDbEntity
  8
細線
 48
50.0
100
AcDbLine
 10
13178.00894806608
 20
4028.35809927719
 30
0.0
 11
13178.00894806608
 21
2238.358099277192
 31
0.0
  0
LINE
  5
19536
330
747D
100
AcDbEntity
  8
細線
 48
50.0
100
AcDbLine
 10
13193.00894806608
 20
4028.35809927719
 30
0.0
 11
13193.00894806608
 21
2238.358099277192
 31
0.0
  0
LINE
  5
19537
330
747D
100
AcDbEntity
  8
部品1
100
AcDbLine
 10
13115.50894806608
 20
4028.35809927719
 30
0.0
 11
13115.50894806608
 21
2238.358099277192
 31
0.0
  0
DIMENSION
  5
19538
330
747D
100
AcDbEntity
  8
寸法
 48
50.0
100
AcDbDimension
  2
*D26
 10
10339.9005412977
 20
4137.70335815052
 30
0.0
 11
10350.56601655663
 21
4508.55002139222
 31
0.0
 70
   161
 71
     5
 42
141.0
  3
INABA_S40G
100
AcDbAlignedDimension
 13
10919.90496822466
 23
4262.080848111869
 33
0.0
 14
10915.85151266804
 24
4121.139124346156
 34
0.0
1001
ACAD
1000
DSTYLE
1002
{
1070
   174
1070
     0
1070
   272
1070
     1
1070
   288
1070
     0
1070
   341
1005
0
1002
}
  0
LINE
  5
19539
330
747D
100
AcDbEntity
  8
細線
 48
50.0
100
AcDbLine
 10
13878.00894806608
 20
4028.358099277191
 30
0.0
 11
13878.00894806608
 21
2238.358099277192
 31
0.0
  0
LINE
  5
1953A
330
747D
100
AcDbEntity
  8
細線
 48
50.0
100
AcDbLine
 10
13893.00894806609
 20
4028.358099277191
 30
0.0
 11
13893.00894806609
 21
2238.358099277192
 31
0.0
  0
LINE
  5
1953B
330
747D
100
AcDbEntity
  8
細線
 48
50.0
100
AcDbLine
 10
13753.00894806608
 20
4028.358099277191
 30
0.0
 11
13753.00894806608
 21
2238.358099277192
 31
0.0
  0
LINE
  5
1953C
330
747D
100
AcDbEntity
  8
細線
 48
50.0
100
AcDbLine
 10
13738.00894806608
 20
4028.358099277191
 30
0.0
 11
13738.00894806608
 21
2238.358099277192
 31
0.0
  0
LINE
  5
1953D
330
747D
100
AcDbEntity
  8
細線
 48
50.0
100
AcDbLine
 10
13598.00894806608
 20
4028.358099277191
 30
0.0
 11
13598.00894806608
 21
2238.358099277192
 31
0.0
  0
LINE
  5
1953E
330
747D
100
AcDbEntity
  8
細線
 48
50.0
100
AcDbLine
 10
13613.00894806608
 20
4028.358099277191
 30
0.0
 11
13613.00894806608
 21
2238.358099277192
 31
0.0
  0
LINE
  5
1953F
330
747D
100
AcDbEntity
  8
部品1
100
AcDbLine
 10
12275.50894806608
 20
4028.35809927719
 30
0.0
 11
12275.50894806608
 21
2238.35809927719
 31
0.0
  0
LINE
  5
19540
330
747D
100
AcDbEntity
  8
細線
 48
50.0
100
AcDbLine
 10
11933.00894806608
 20
4028.35809927719
 30
0.0
 11
11933.00894806609
 21
2238.35809927719
 31
0.0
  0
LINE
  5
19541
330
747D
100
AcDbEntity
  8
細線
 48
50.0
100
AcDbLine
 10
11918.00894806609
 20
4028.35809927719
 30
0.0
 11
11918.00894806609
 21
2238.35809927719
 31
0.0
  0
LINE
  5
19542
330
747D
100
AcDbEntity
  8
細線
 48
50.0
100
AcDbLine
 10
12058.00894806609
 20
4028.35809927719
 30
0.0
 11
12058.00894806609
 21
2238.35809927719
 31
0.0
  0
LINE
  5
19543
330
747D
100
AcDbEntity
  8
細線
 48
50.0
100
AcDbLine
 10
12073.00894806608
 20
4028.35809927719
 30
0.0
 11
12073.00894806609
 21
2238.35809927719
 31
0.0
  0
LINE
  5
19544
330
747D
100
AcDbEntity
  8
細線
 48
50.0
100
AcDbLine
 10
12213.00894806608
 20
4028.35809927719
 30
0.0
 11
12213.00894806609
 21
2238.35809927719
 31
0.0
  0
LINE
  5
19545
330
747D
100
AcDbEntity
  8
細線
 48
50.0
100
AcDbLine
 10
12198.00894806608
 20
4028.35809927719
 30
0.0
 11
12198.00894806609
 21
2238.35809927719
 31
0.0
  0
LINE
  5
19546
330
747D
100
AcDbEntity
  8
部品1
100
AcDbLine
 10
11855.50894806608
 20
4028.35809927719
 30
0.0
 11
11855.50894806608
 21
2238.35809927719
 31
0.0
  0
DIMENSION
  5
19547
330
747D
100
AcDbEntity
  8
寸法
 48
50.0
100
AcDbDimension
  2
*D27
 10
14090.50894806608
 20
4662.015552856495
 30
0.0
 11
14296.55619216057
 21
4662.015552856495
 31
0.0
 70
   160
 71
     5
 42
80.0
  3
INABA_S40G
100
AcDbAlignedDimension
 13
14010.50894806608
 23
4210.168778888845
 33
0.0
 14
14090.50894806608
 24
4208.358099277194
 34
0.0
100
AcDbRotatedDimension
1001
ACAD
1000
DSTYLE
1002
{
1070
   174
1070
     0
1070
   272
1070
     1
1070
   288
1070
     0
1070
   341
1005
0
1002
}
  0
LINE
  5
19548
330
747D
100
AcDbEntity
  8
細線
 48
50.0
100
AcDbLine
 10
11093.00894806608
 20
4028.35809927719
 30
0.0
 11
11093.00894806608
 21
2238.35809927719
 31
0.0
  0
LINE
  5
19549
330
747D
100
AcDbEntity
  8
細線
 48
50.0
100
AcDbLine
 10
11078.00894806608
 20
4028.35809927719
 30
0.0
 11
11078.00894806608
 21
2238.35809927719
 31
0.0
  0
LINE
  5
1954A
330
747D
100
AcDbEntity
  8
細線
 48
50.0
100
AcDbLine
 10
11218.00894806608
 20
4028.35809927719
 30
0.0
 11
11218.00894806608
 21
2238.35809927719
 31
0.0
  0
LINE
  5
1954B
330
747D
100
AcDbEntity
  8
細線
 48
50.0
100
AcDbLine
 10
11233.00894806608
 20
4028.35809927719
 30
0.0
 11
11233.00894806608
 21
2238.35809927719
 31
0.0
  0
LINE
  5
1954C
330
747D
100
AcDbEntity
  8
細線
 48
50.0
100
AcDbLine
 10
11373.00894806609
 20
4028.35809927719
 30
0.0
 11
11373.00894806609
 21
2238.35809927719
 31
0.0
  0
LINE
  5
1954D
330
747D
100
AcDbEntity
  8
細線
 48
50.0
100
AcDbLine
 10
11358.00894806608
 20
4028.35809927719
 30
0.0
 11
11358.00894806608
 21
2238.35809927719
 31
0.0
  0
LINE
  5
1954E
330
747D
100
AcDbEntity
  8
細線
 48
50.0
100
AcDbLine
 10
11778.00894806608
 20
4028.35809927719
 30
0.0
 11
11778.00894806608
 21
2238.35809927719
 31
0.0
  0
LINE
  5
1954F
330
747D
100
AcDbEntity
  8
細線
 48
50.0
100
AcDbLine
 10
11793.00894806608
 20
4028.35809927719
 30
0.0
 11
11793.00894806608
 21
2238.35809927719
 31
0.0
  0
LINE
  5
19550
330
747D
100
AcDbEntity
  8
細線
 48
50.0
100
AcDbLine
 10
11653.00894806608
 20
4028.35809927719
 30
0.0
 11
11653.00894806608
 21
2238.35809927719
 31
0.0
  0
LINE
  5
19551
330
747D
100
AcDbEntity
  8
細線
 48
50.0
100
AcDbLine
 10
11638.00894806608
 20
4028.35809927719
 30
0.0
 11
11638.00894806608
 21
2238.35809927719
 31
0.0
  0
LINE
  5
19552
330
747D
100
AcDbEntity
  8
細線
 48
50.0
100
AcDbLine
 10
11498.00894806608
 20
4028.35809927719
 30
0.0
 11
11498.00894806608
 21
2238.35809927719
 31
0.0
  0
LINE
  5
19553
330
747D
100
AcDbEntity
  8
細線
 48
50.0
100
AcDbLine
 10
11513.00894806608
 20
4028.35809927719
 30
0.0
 11
11513.00894806608
 21
2238.35809927719
 31
0.0
  0
LINE
  5
19554
330
747D
100
AcDbEntity
  8
部品1
100
AcDbLine
 10
11015.50894806609
 20
2188.35809927719
 30
0.0
 11
14010.50894806608
 21
2188.35809927719
 31
0.0
  0
DIMENSION
  5
19555
330
747D
100
AcDbEntity
  8
寸法
 48
50.0
100
AcDbDimension
  2
*D28
 10
10900.50894806608
 20
4892.129145642772
 30
0.0
 11
12495.50894806608
 21
4892.129145642772
 31
0.0
 70
   160
 71
     5
 42
3190.0
  3
INABA_S40G
100
AcDbAlignedDimension
 13
14090.50894806608
 23
4208.358099277191
 33
0.0
 14
10900.50894806608
 24
4263.358099277194
 34
0.0
100
AcDbRotatedDimension
1001
ACAD
1000
DSTYLE
1002
{
1070
   174
1070
     0
1070
   272
1070
     1
1070
   288
1070
     0
1070
   341
1005
0
1002
}
  0
DIMENSION
  5
19556
330
747D
100
AcDbEntity
  8
寸法
 48
50.0
100
AcDbDimension
  2
*D29
 10
10900.50894806608
 20
4662.015552856494
 30
0.0
 11
10590.87115279049
 21
4662.015552856494
 31
0.0
 70
   160
 71
     5
 42
60.0
  3
INABA_S40G
100
AcDbAlignedDimension
 13
10960.50894806609
 23
4259.359717400166
 33
0.0
 14
10900.50894806608
 24
4263.358099277194
 34
0.0
100
AcDbRotatedDimension
1001
ACAD
1000
DSTYLE
1002
{
1070
   174
1070
     0
1070
   272
1070
     1
1070
   288
1070
     0
1070
   341
1005
0
1002
}
  0
DIMENSION
  5
19557
330
747D
100
AcDbEntity
  8
寸法
 48
50.0
100
AcDbDimension
  2
*D30
 10
10960.50894806609
 20
4662.015552856495
 30
0.0
 11
12485.50894806608
 21
4662.015552856495
 31
0.0
 70
   160
  1
柱外寸法<>
 71
     5
 42
3050.0
  3
INABA_S40G
100
AcDbAlignedDimension
 13
14010.50894806608
 23
4210.168778888845
 33
0.0
 14
10960.50894806609
 24
4259.359717400166
 34
0.0
100
AcDbRotatedDimension
1001
ACAD
1000
DSTYLE
1002
{
1070
   174
1070
     0
1070
   272
1070
     1
1070
   288
1070
     0
1070
   341
1005
0
1002
}
  0
LINE
  5
19558
330
747D
100
AcDbEntity
  8
部品1
100
AcDbLine
 10
13955.50894806608
 20
4028.358099277191
 30
0.0
 11
13955.50894806608
 21
2238.358099277192
 31
0.0
  0
LINE
  5
19559
330
747D
100
AcDbEntity
  8
部品1
100
AcDbLine
 10
14010.50894806608
 20
4082.78812705831
 30
0.0
 11
14010.50894806608
 21
2088.358099277192
 31
0.0
  0
LINE
  5
1955A
330
747D
100
AcDbEntity
  8
部品1
100
AcDbLine
 10
11435.50894806608
 20
4028.35809927719
 30
0.0
 11
11435.50894806608
 21
2238.35809927719
 31
0.0
  0
DIMENSION
  5
1955B
330
747D
100
AcDbEntity
  8
寸法
100
AcDbDimension
  2
*D31
 10
10116.75881888282
 20
2188.35809927719
 30
0.0
 11
10116.75881888282
 21
1882.310855182699
 31
0.0
 70
   160
 71
     5
 42
50.0
  3
INABA_S40G
100
AcDbAlignedDimension
 13
10960.50894806609
 23
2238.35809927719
 33
0.0
 14
10905.50894806608
 24
2188.35809927719
 34
0.0
 50
90.0
100
AcDbRotatedDimension
1001
ACAD
1000
DSTYLE
1002
{
1070
   174
1070
     0
1070
   272
1070
     1
1070
   288
1070
     0
1070
   341
1005
0
1002
}
  0
LINE
  5
1955C
330
747D
100
AcDbEntity
  8
部品1
100
AcDbLine
 10
10960.50894806609
 20
4120.500537206067
 30
0.0
 11
10960.50894806609
 21
2088.35809927719
 31
0.0
  0
LINE
  5
1955D
330
747D
100
AcDbEntity
  8
部品1
100
AcDbLine
 10
11015.50894806608
 20
4028.35809927719
 30
0.0
 11
11015.50894806609
 21
2088.35809927719
 31
0.0
  0
LINE
  5
1955E
330
747D
100
AcDbEntity
  8
部品1
100
AcDbLine
 10
11015.50894806609
 20
2238.35809927719
 30
0.0
 11
14010.50894806608
 21
2238.358099277192
 31
0.0
  0
LINE
  5
1955F
330
747D
100
AcDbEntity
  8
部品1
100
AcDbLine
 10
10960.50894806609
 20
4028.35809927719
 30
0.0
 11
14010.50894806608
 21
4028.35809927719
 31
0.0
  0
LINE
  5
19560
330
747D
100
AcDbEntity
  8
部品1
100
AcDbLine
 10
13955.50894806608
 20
4028.358099277194
 30
0.0
 11
13955.50894806608
 21
2238.358099277194
 31
0.0
  0
LINE
  5
19561
330
747D
100
AcDbEntity
  8
細線
 48
50.0
100
AcDbLine
 10
12618.00894806608
 20
4028.35809927719
 30
0.0
 11
12618.00894806608
 21
2238.35809927719
 31
0.0
  0
LINE
  5
19562
330
747D
100
AcDbEntity
  8
細線
 48
50.0
100
AcDbLine
 10
12633.00894806608
 20
4028.35809927719
 30
0.0
 11
12633.00894806608
 21
2238.35809927719
 31
0.0
  0
LINE
  5
19563
330
747D
100
AcDbEntity
  8
細線
 48
50.0
100
AcDbLine
 10
12493.00894806608
 20
4028.35809927719
 30
0.0
 11
12493.00894806608
 21
2238.35809927719
 31
0.0
  0
LINE
  5
19564
330
747D
100
AcDbEntity
  8
細線
 48
50.0
100
AcDbLine
 10
12478.00894806608
 20
4028.35809927719
 30
0.0
 11
12478.00894806608
 21
2238.35809927719
 31
0.0
  0
LINE
  5
19565
330
747D
100
AcDbEntity
  8
細線
 48
50.0
100
AcDbLine
 10
12338.00894806608
 20
4028.35809927719
 30
0.0
 11
12338.00894806608
 21
2238.35809927719
 31
0.0
  0
LINE
  5
19566
330
747D
100
AcDbEntity
  8
細線
 48
50.0
100
AcDbLine
 10
12353.00894806608
 20
4028.35809927719
 30
0.0
 11
12353.00894806608
 21
2238.35809927719
 31
0.0
  0
TEXT
  5
19567
330
747D
100
AcDbEntity
  8
部品1
 48
50.0
100
AcDbText
 10
12830.37809212145
 20
4285.627192215495
 30
0.0
 40
120.0
  1
32
 50
90.0
  7
STYLE1
100
AcDbText
  0
TEXT
  5
19568
330
747D
100
AcDbEntity
  8
部品1
 48
50.0
100
AcDbText
 10
12352.74506945636
 20
4423.128450433778
 30
0.0
 40
120.0
  1
1000
  7
STYLE1
100
AcDbText
  0
LINE
  5
19569
330
747D
100
AcDbEntity
  8
部品1
 48
50.0
100
AcDbLine
 10
12664.47723423263
 20
4387.244428281344
 30
0.0
 11
12664.47723423263
 21
4371.044428281347
 31
0.0
  0
LINE
  5
1956A
330
747D
100
AcDbEntity
  8
部品1
 48
50.0
100
AcDbLine
 10
12364.47723423263
 20
4387.244428281344
 30
0.0
 11
12664.47723423263
 21
4387.244428281344
 31
0.0
  0
LINE
  5
1956B
330
747D
100
AcDbEntity
  8
部品1
100
AcDbLine
 10
10908.05393442305
 20
4262.075834611456
 30
0.0
 11
14083.12082492755
 21
4206.99889698633
 31
0.0
  0
LINE
  5
1956C
330
747D
100
AcDbEntity
  8
部品1
100
AcDbLine
 10
10915.85151266804
 20
4121.139124346156
 30
0.0
 11
14065.17264860594
 21
4082.110699111953
 31
0.0
  0
LINE
  5
1956D
330
747D
100
AcDbEntity
  8
細線
 48
50.0
100
AcDbLine
 10
10933.50894806608
 20
4260.757775652593
 30
0.0
 11
10928.21984651058
 21
4120.67214302524
 31
0.0
  0
LINE
  5
1956E
330
747D
100
AcDbEntity
  8
細線
 48
50.0
100
AcDbLine
 10
14057.47823125978
 20
4207.51152175666
 30
0.0
 11
14052.76126517809
 21
4082.579305821742
 31
0.0
  0
LINE
  5
1956F
330
747D
100
AcDbEntity
  8
部品1
 48
50.0
100
AcDbLine
 10
10900.69323397919
 20
4254.951645441883
 30
0.0
 11
10901.073493757
 21
4235.024680995469
 31
0.0
  0
LINE
  5
19570
330
747D
100
AcDbEntity
  8
部品1
 48
50.0
100
AcDbLine
 10
10904.14226586325
 20
4231.449399501999
 30
0.0
 11
10905.84616735461
 21
4142.158902795352
 31
0.0
  0
LINE
  5
19571
330
747D
100
AcDbEntity
  8
細線
 48
50.0
100
AcDbLine
 10
10901.5483711669
 20
4234.37518111855
 30
0.0
 11
14087.18435591207
 21
4178.750976477724
 31
0.0
  0
LINE
  5
19572
330
747D
100
AcDbEntity
  8
細線
 48
50.0
100
AcDbLine
 10
10906.30884640418
 20
4141.513669420688
 30
0.0
 11
14076.31251083483
 21
4101.704350446194
 31
0.0
  0
LINE
  5
19573
330
747D
100
AcDbEntity
  8
部品1
 48
50.0
100
AcDbLine
 10
10908.91493946086
 20
4138.583621301878
 30
0.0
 11
10909.11689208129
 21
4128.000585908787
 31
0.0
  0
ARC
  5
19574
330
747D
100
AcDbEntity
  8
部品1
 48
50.0
100
AcDbCircle
 10
10907.69195980753
 20
4255.085199849309
 30
0.0
 40
7.0
100
AcDbArc
 50
87.03587545283093
 51
181.0932240293156
  0
ARC
  5
19575
330
747D
100
AcDbEntity
  8
部品1
 48
50.0
100
AcDbCircle
 10
10916.11561790963
 20
4128.134140316215
 30
0.0
 40
7.0
100
AcDbArc
 50
181.0932240293156
 51
267.8377559869492
  0
ARC
  5
19576
330
747D
100
AcDbEntity
  8
部品1
100
AcDbCircle
 10
10905.91548553442
 20
4138.526383698695
 30
0.0
 40
3.0
100
AcDbArc
 50
1.093224029315636
 51
80.18775403169875
  0
ARC
  5
19577
330
747D
100
AcDbEntity
  8
部品1
100
AcDbCircle
 10
10901.14281193682
 20
4231.392161898815
 30
0.0
 40
3.0
100
AcDbArc
 50
1.093224029315636
 51
80.18775403169875
  0
ARC
  5
19578
330
747D
100
AcDbEntity
  8
部品1
100
AcDbCircle
 10
10901.77336633984
 20
4235.038036436214
 30
0.0
 40
0.7
100
AcDbArc
 50
181.0932240292114
 51
260.1877540314845
  0
ARC
  5
19579
330
747D
100
AcDbEntity
  8
部品1
100
AcDbCircle
 10
10906.54603993745
 20
4142.172258236093
 30
0.0
 40
0.7
100
AcDbArc
 50
181.0932240292114
 51
260.1877540314845
  0
LINE
  5
1957A
330
747D
100
AcDbEntity
  8
部品1
 48
50.0
100
AcDbLine
 10
14089.72285087679
 20
4199.299251551408
 30
0.0
 11
14087.69222968582
 21
4179.35421029363
 31
0.0
  0
LINE
  5
1957B
330
747D
100
AcDbEntity
  8
部品1
 48
50.0
100
AcDbLine
 10
14084.33966320133
 20
4176.043576220719
 30
0.0
 11
14076.8328839365
 21
4102.310955475706
 31
0.0
  0
LINE
  5
1957C
330
747D
100
AcDbEntity
  8
部品1
 48
50.0
100
AcDbLine
 10
14073.48031745201
 20
4099.000321402797
 30
0.0
 11
14072.40075441228
 21
4088.396704409237
 31
0.0
  0
ARC
  5
1957D
330
747D
100
AcDbEntity
  8
部品1
 48
50.0
100
AcDbCircle
 10
14082.75885031204
 20
4200.008262224183
 30
0.0
 40
7.0
100
AcDbArc
 50
354.1866997665532
 51
87.03587545283093
  0
ARC
  5
1957E
330
747D
100
AcDbEntity
  8
部品1
 48
50.0
100
AcDbCircle
 10
14065.43675384752
 20
4089.105715082011
 30
0.0
 40
7.0
100
AcDbArc
 50
267.8377559869492
 51
354.1866997665532
  0
ARC
  5
1957F
330
747D
100
AcDbEntity
  8
部品1
100
AcDbCircle
 10
14076.46488912263
 20
4098.696459685892
 30
0.0
 40
3.0
100
AcDbArc
 50
95.0921697642102
 51
174.1866997665532
  0
ARC
  5
19580
330
747D
100
AcDbEntity
  8
部品1
100
AcDbCircle
 10
14087.32423487195
 20
4175.739714503816
 30
0.0
 40
3.0
100
AcDbArc
 50
95.0921697642102
 51
174.1866997665532
  0
ARC
  5
19581
330
747D
100
AcDbEntity
  8
部品1
100
AcDbCircle
 10
14086.99582962935
 20
4179.425111360906
 30
0.0
 40
0.7
100
AcDbArc
 50
275.0921697642102
 51
354.1866997665532
  0
ARC
  5
19582
330
747D
100
AcDbEntity
  8
部品1
100
AcDbCircle
 10
14076.13648388002
 20
4102.381856542982
 30
0.0
 40
0.7
100
AcDbArc
 50
275.0921697642102
 51
354.1866997667606
  0
LINE
  5
19583
330
747D
100
AcDbEntity
  8
部品1
100
AcDbLine
 10
12339.0222205896
 20
4388.562487240207
 30
0.0
 11
12664.47723423263
 21
4371.044428281347
 31
0.0
  0
LINE
  5
19584
330
747D
100
AcDbEntity
  8
部品1
100
AcDbLine
 10
12695.50894806608
 20
4028.35809927719
 30
0.0
 11
12695.50894806608
 21
2238.358099277192
 31
0.0
  0
LINE
  5
19585
330
747D
100
AcDbEntity
  8
細線
 48
50.0
100
AcDbLine
 10
12773.00894806608
 20
4028.35809927719
 30
0.0
 11
12773.00894806608
 21
2238.358099277192
 31
0.0
  0
LINE
  5
19586
330
747D
100
AcDbEntity
  8
細線
 48
50.0
100
AcDbLine
 10
12758.00894806608
 20
4028.35809927719
 30
0.0
 11
12758.00894806608
 21
2238.358099277192
 31
0.0
  0
LINE
  5
19587
330
747D
100
AcDbEntity
  8
細線
 48
50.0
100
AcDbLine
 10
12898.00894806608
 20
4028.35809927719
 30
0.0
 11
12898.00894806608
 21
2238.358099277192
 31
0.0
  0
LINE
  5
19588
330
747D
100
AcDbEntity
  8
細線
 48
50.0
100
AcDbLine
 10
12913.00894806608
 20
4028.35809927719
 30
0.0
 11
12913.00894806608
 21
2238.358099277192
 31
0.0
  0
LINE
  5
19589
330
747D
100
AcDbEntity
  8
細線
 48
50.0
100
AcDbLine
 10
13053.00894806608
 20
4028.35809927719
 30
0.0
 11
13053.00894806608
 21
2238.358099277192
 31
0.0
  0
LINE
  5
1958A
330
747D
100
AcDbEntity
  8
細線
 48
50.0
100
AcDbLine
 10
13038.00894806608
 20
4028.35809927719
 30
0.0
 11
13038.00894806608
 21
2238.358099277192
 31
0.0
  0
DIMENSION
  5
1958B
330
747D
100
AcDbEntity
  8
寸法
100
AcDbDimension
  2
*D32
 10
14715.43610603821
 20
4208.35809927719
 30
0.0
 11
14615.42429501458
 21
3198.358099277194
 31
0.0
 70
    32
 71
     5
 42
2019.999999999999
  3
INABA_S40G
100
AcDbAlignedDimension
 13
14010.50894806608
 23
2188.358099277192
 33
0.0
 14
14090.50894806608
 24
4208.358099277191
 34
0.0
 50
90.0
100
AcDbRotatedDimension
1001
ACAD
1000
DSTYLE
1002
{
1070
   174
1070
     0
1070
   272
1070
     1
1070
   288
1070
     0
1070
   341
1005
0
1002
}
  0
DIMENSION
  5
1958C
330
747D
100
AcDbEntity
  8
寸法
100
AcDbDimension
  2
*D33
 10
9816.758818882828
 20
4263.35809927719
 30
0.0
 11
9716.747007859204
 21
3225.858099277189
 31
0.0
 70
    32
 71
     5
 42
2075.000000000005
  3
INABA_S40G
100
AcDbAlignedDimension
 13
10960.50894806609
 23
2188.358099277184
 33
0.0
 14
10900.50894806608
 24
4263.35809927719
 34
0.0
 50
90.0
100
AcDbRotatedDimension
1001
ACAD
1000
DSTYLE
1002
{
1070
   174
1070
     0
1070
   272
1070
     1
1070
   288
1070
     0
1070
   341
1005
0
1002
}
  0
DIMENSION
  5
1958D
330
747D
100
AcDbEntity
  8
寸法
100
AcDbDimension
  2
*D34
 10
10116.75881888282
 20
2238.358099277184
 30
0.0
 11
10016.75881888282
 21
3133.358099277187
 31
0.0
 70
    32
 71
     5
 42
1790.000000000002
  3
INABA_S40G
100
AcDbAlignedDimension
 13
10960.50894806609
 23
4028.358099277187
 33
0.0
 14
10960.50894806609
 24
2238.358099277184
 34
0.0
 50
90.0
100
AcDbRotatedDimension
1001
ACAD
1000
DSTYLE
1002
{
1070
   174
1070
     0
1070
   272
1070
     1
1070
   288
1070
     0
1070
   341
1005
0
1002
}
  0
LINE
  5
19592
330
747D
100
AcDbEntity
  8
破線
 48
5.0
100
AcDbLine
 10
10960.50894806609
 20
2088.35809927719
 30
0.0
 11
10960.50894806609
 21
1838.35809927719
 31
0.0
  0
LINE
  5
19593
330
747D
100
AcDbEntity
  8
破線
 48
5.0
100
AcDbLine
 10
11015.50894806609
 20
2088.35809927719
 30
0.0
 11
11015.50894806609
 21
1838.35809927719
 31
0.0
  0
LINE
  5
19594
330
747D
100
AcDbEntity
  8
破線
 48
5.0
100
AcDbLine
 10
10960.50894806609
 20
1838.35809927719
 30
0.0
 11
11015.50894806608
 21
1838.35809927719
 31
0.0
  0
LINE
  5
19595
330
747D
100
AcDbEntity
  8
部品1
100
AcDbLine
 10
10960.50894806609
 20
2188.35809927719
 30
0.0
 11
10567.51173385724
 21
2088.35809927719
 31
0.0
  0
TEXT
  5
196F0
330
747D
100
AcDbEntity
  8
文字
 62
     7
 48
50.0
100
AcDbText
 10
14163.12214045672
 20
483.8967129911416
 30
0.0
 40
160.0
  1
FXN-1730SL-N
  7
MSPゴシック
100
AcDbText
  0
LINE
  5
19A84
330
747D
100
AcDbEntity
  8
補助
  6
PHANTOM
 62
   230
 48
50.0
100
AcDbLine
 10
140.0
 20
0.0
 30
0.0
 11
140.0
 21
11409.6
 31
0.0
  0
DIMENSION
  5
1A0C9
330
747D
100
AcDbEntity
  8
寸法
 48
50.0
100
AcDbDimension
  2
*D38
 10
8269.673057123659
 20
4669.084371009104
 30
0.0
 11
8633.158338497898
 21
4669.084371009104
 31
0.0
 70
   160
 71
     5
 42
49.99999999999636
  3
INABA_S40G
100
AcDbAlignedDimension
 13
8319.673057123656
 23
4263.358099277193
 33
0.0
 14
8269.673057123659
 24
4263.358099277197
 34
0.0
100
AcDbRotatedDimension
  0
DIMENSION
  5
1A0CA
330
747D
100
AcDbEntity
  8
寸法
 48
50.0
100
AcDbDimension
  2
*D37
 10
2899.673057123655
 20
4669.084371009099
 30
0.0
 11
5584.673057123658
 21
4769.084371009099
 31
0.0
 70
    32
  1
柱外寸法 N X 1790
 71
     5
 42
5370.000000000005
  3
INABA_S40G
100
AcDbAlignedDimension
 13
8269.673057123659
 23
4263.358099277197
 33
0.0
 14
2899.673057123655
 24
4263.358099277196
 34
0.0
100
AcDbRotatedDimension
  0
DIMENSION
  5
1A0CB
330
747D
100
AcDbEntity
  8
寸法
 48
50.0
100
AcDbDimension
  2
*D36
 10
8319.673057123656
 20
4868.993292223189
 30
0.0
 11
5584.673057123657
 21
4868.993292223189
 31
0.0
 70
   160
  1
N X 1790+100
 71
     5
 42
5470.000000000002
  3
INABA_S40G
100
AcDbAlignedDimension
 13
2849.673057123655
 23
4263.358099277194
 33
0.0
 14
8319.673057123656
 24
4263.358099277193
 34
0.0
100
AcDbRotatedDimension
  0
DIMENSION
  5
1A0CC
330
747D
100
AcDbEntity
  8
寸法
 48
50.0
100
AcDbDimension
  2
*D35
 10
2849.673057123655
 20
4669.084371009099
 30
0.0
 11
2536.187775749408
 21
4669.084371009099
 31
0.0
 70
   160
 71
     5
 42
50.0
  3
INABA_S40G
100
AcDbAlignedDimension
 13
2899.673057123655
 23
4263.358099277197
 33
0.0
 14
2849.673057123655
 24
4263.358099277197
 34
0.0
100
AcDbRotatedDimension
1001
ACAD
1000
DSTYLE
1002
{
1002
}
  0
LINE
  5
1A0CD
330
747D
100
AcDbEntity
  8
部品1
100
AcDbLine
 10
2850.092718138985
 20
4255.961573881956
 30
0.0
 11
2851.226115471334
 21
4235.985445899354
 31
0.0
  0
LINE
  5
1A0CE
330
747D
100
AcDbEntity
  8
部品1
100
AcDbLine
 10
2862.663135792915
 20
4140.328038732295
 30
0.0
 11
2863.308041600023
 21
4128.961573881955
 31
0.0
  0
LINE
  5
1A0CF
330
747D
100
AcDbEntity
  8
部品1
100
AcDbLine
 10
2854.427105268064
 20
4232.528038732296
 30
0.0
 11
2859.462145996178
 21
4143.785445899353
 31
0.0
  0
ARC
  5
1A0D0
330
747D
100
AcDbEntity
  8
部品1
 48
50.0
100
AcDbCircle
 10
2851.431922371878
 20
4232.358099277196
 30
0.0
 40
3.0
100
AcDbArc
 50
3.247342790331777
 51
82.34187279263631
  0
ARC
  5
1A0D1
330
747D
100
AcDbEntity
  8
部品1
 48
50.0
100
AcDbCircle
 10
2859.667952896721
 20
4140.158099277193
 30
0.0
 40
3.0
100
AcDbArc
 50
3.247342790331777
 51
82.34187279263631
  0
ARC
  5
1A0D2
330
747D
100
AcDbEntity
  8
部品1
 48
50.0
100
AcDbCircle
 10
2860.161022005283
 20
4143.825098438876
 30
0.0
 40
0.7
100
AcDbArc
 50
183.2473427903317
 51
262.3418727926363
  0
ARC
  5
1A0D3
330
747D
100
AcDbEntity
  8
部品1
 48
50.0
100
AcDbCircle
 10
2851.924991480446
 20
4236.02509843888
 30
0.0
 40
0.7
100
AcDbArc
 50
183.2473427903317
 51
262.3418727926363
  0
ARC
  5
1A0D4
330
747D
100
AcDbEntity
  8
部品1
100
AcDbCircle
 10
2870.296801691118
 20
4129.358099277196
 30
0.0
 40
7.0
100
AcDbArc
 50
183.2473427903317
 51
270.0
  0
ARC
  5
1A0D5
330
747D
100
AcDbEntity
  8
部品1
100
AcDbCircle
 10
2857.081478230088
 20
4256.358099277193
 30
0.0
 40
7.0
100
AcDbArc
 50
90.0
 51
183.2473427903317
  0
LINE
  5
1A0D6
330
747D
100
AcDbEntity
  8
細線
 48
50.0
100
AcDbLine
 10
2882.673057123655
 20
4263.358099277193
 30
0.0
 11
2882.673057123655
 21
4122.358099277192
 31
0.0
  0
ARC
  5
1A0D7
330
747D
100
AcDbEntity
  8
部品1
 48
0.01
100
AcDbCircle
 10
3477.673057123657
 20
4060.858099277189
 30
0.0
 40
2.0
100
AcDbArc
 50
270.0
 51
0.0
  0
ARC
  5
1A0D8
330
747D
100
AcDbEntity
  8
部品1
 48
0.01
100
AcDbCircle
 10
3477.673057123661
 20
4092.358099277189
 30
0.0
 40
2.0
100
AcDbArc
 50
0.0
 51
90.0
  0
ARC
  5
1A0D9
330
747D
100
AcDbEntity
  8
部品1
 48
0.01
100
AcDbCircle
 10
3301.673057123661
 20
4060.858099277189
 30
0.0
 40
2.0
100
AcDbArc
 50
180.0
 51
270.0
  0
ARC
  5
1A0DA
330
747D
100
AcDbEntity
  8
部品1
 48
0.01
100
AcDbCircle
 10
3301.673057123661
 20
4092.358099277189
 30
0.0
 40
2.0
100
AcDbArc
 50
90.0
 51
180.0
  0
LINE
  5
1A0DB
330
747D
100
AcDbEntity
  8
細線
100
AcDbLine
 10
3389.673057123657
 20
4064.85809927719
 30
0.0
 11
3463.67305712366
 21
4064.85809927719
 31
0.0
  0
LINE
  5
1A0DC
330
747D
100
AcDbEntity
  8
細線
100
AcDbLine
 10
3389.673057123661
 20
4087.858099277189
 30
0.0
 11
3315.67305712366
 21
4087.858099277189
 31
0.0
  0
LINE
  5
1A0DD
330
747D
100
AcDbEntity
  8
細線
100
AcDbLine
 10
3315.67305712366
 20
4064.85809927719
 30
0.0
 11
3389.673057123661
 21
4064.85809927719
 31
0.0
  0
LINE
  5
1A0DE
330
747D
100
AcDbEntity
  8
細線
100
AcDbLine
 10
3463.67305712366
 20
4087.858099277189
 30
0.0
 11
3389.673057123661
 21
4087.858099277189
 31
0.0
  0
LINE
  5
1A0DF
330
747D
100
AcDbEntity
  8
細線
100
AcDbLine
 10
3463.67305712366
 20
4064.85809927719
 30
0.0
 11
3463.67305712366
 21
4087.858099277189
 31
0.0
  0
LINE
  5
1A0E0
330
747D
100
AcDbEntity
  8
細線
100
AcDbLine
 10
3315.67305712366
 20
4087.858099277189
 30
0.0
 11
3315.67305712366
 21
4064.85809927719
 31
0.0
  0
LINE
  5
1A0E1
330
747D
100
AcDbEntity
  8
部品1
 48
0.01
100
AcDbLine
 10
3479.673057123657
 20
4060.858099277189
 30
0.0
 11
3479.67305712366
 21
4092.358099277189
 31
0.0
  0
LINE
  5
1A0E2
330
747D
100
AcDbEntity
  8
部品1
 48
0.01
100
AcDbLine
 10
3301.673057123661
 20
4058.858099277189
 30
0.0
 11
3477.673057123657
 21
4058.858099277189
 31
0.0
  0
LINE
  5
1A0E3
330
747D
100
AcDbEntity
  8
部品1
 48
0.01
100
AcDbLine
 10
3299.673057123661
 20
4092.358099277189
 30
0.0
 11
3299.673057123661
 21
4060.858099277189
 31
0.0
  0
LINE
  5
1A0E4
330
747D
100
AcDbEntity
  8
部品1
 48
0.01
100
AcDbLine
 10
3477.673057123661
 20
4094.358099277189
 30
0.0
 11
3301.673057123661
 21
4094.358099277189
 31
0.0
  0
LINE
  5
1A0E5
330
747D
100
AcDbEntity
  8
細線
100
AcDbLine
 10
3315.67305712366
 20
4081.858099277189
 30
0.0
 11
3389.673057123661
 21
4081.858099277189
 31
0.0
  0
LINE
  5
1A0E6
330
747D
100
AcDbEntity
  8
細線
100
AcDbLine
 10
3315.67305712366
 20
4075.85809927719
 30
0.0
 11
3389.673057123661
 21
4075.85809927719
 31
0.0
  0
LINE
  5
1A0E7
330
747D
100
AcDbEntity
  8
細線
100
AcDbLine
 10
3315.673057123657
 20
4069.85809927719
 30
0.0
 11
3389.673057123661
 21
4069.85809927719
 31
0.0
  0
LINE
  5
1A0E8
330
747D
100
AcDbEntity
  8
細線
100
AcDbLine
 10
3315.67305712366
 20
4081.858099277189
 30
0.0
 11
3384.673057123661
 21
4081.858099277189
 31
0.0
  0
LINE
  5
1A0E9
330
747D
100
AcDbEntity
  8
細線
100
AcDbLine
 10
3463.673057123657
 20
4081.858099277189
 30
0.0
 11
3389.673057123661
 21
4081.858099277189
 31
0.0
  0
LINE
  5
1A0EA
330
747D
100
AcDbEntity
  8
細線
100
AcDbLine
 10
3463.673057123657
 20
4069.85809927719
 30
0.0
 11
3389.673057123661
 21
4069.85809927719
 31
0.0
  0
LINE
  5
1A0EB
330
747D
100
AcDbEntity
  8
細線
100
AcDbLine
 10
3463.673057123657
 20
4075.85809927719
 30
0.0
 11
3389.673057123661
 21
4075.85809927719
 31
0.0
  0
LINE
  5
1A0EC
330
747D
100
AcDbEntity
  8
細線
100
AcDbLine
 10
3389.673057123661
 20
4087.858099277189
 30
0.0
 11
3389.673057123657
 21
4064.85809927719
 31
0.0
  0
LINE
  5
1A0ED
330
747D
100
AcDbEntity
  8
細線
100
AcDbLine
 10
4199.673057123656
 20
4087.858099277189
 30
0.0
 11
4199.67305712366
 21
4064.85809927719
 31
0.0
  0
LINE
  5
1A0EE
330
747D
100
AcDbEntity
  8
細線
100
AcDbLine
 10
4125.67305712366
 20
4075.85809927719
 30
0.0
 11
4199.673057123656
 21
4075.85809927719
 31
0.0
  0
LINE
  5
1A0EF
330
747D
100
AcDbEntity
  8
細線
100
AcDbLine
 10
4125.67305712366
 20
4069.85809927719
 30
0.0
 11
4199.673057123656
 21
4069.85809927719
 31
0.0
  0
LINE
  5
1A0F0
330
747D
100
AcDbEntity
  8
細線
100
AcDbLine
 10
4125.67305712366
 20
4081.858099277189
 30
0.0
 11
4199.673057123656
 21
4081.858099277189
 31
0.0
  0
LINE
  5
1A0F1
330
747D
100
AcDbEntity
  8
細線
100
AcDbLine
 10
4273.673057123657
 20
4081.858099277189
 30
0.0
 11
4204.673057123656
 21
4081.858099277189
 31
0.0
  0
LINE
  5
1A0F2
330
747D
100
AcDbEntity
  8
細線
100
AcDbLine
 10
4273.67305712366
 20
4069.85809927719
 30
0.0
 11
4199.673057123656
 21
4069.85809927719
 31
0.0
  0
LINE
  5
1A0F3
330
747D
100
AcDbEntity
  8
細線
100
AcDbLine
 10
4273.673057123657
 20
4075.85809927719
 30
0.0
 11
4199.673057123656
 21
4075.85809927719
 31
0.0
  0
LINE
  5
1A0F4
330
747D
100
AcDbEntity
  8
細線
100
AcDbLine
 10
4273.673057123657
 20
4081.858099277189
 30
0.0
 11
4199.673057123656
 21
4081.858099277189
 31
0.0
  0
LINE
  5
1A0F5
330
747D
100
AcDbEntity
  8
部品1
 48
0.01
100
AcDbLine
 10
4111.673057123656
 20
4094.358099277189
 30
0.0
 11
4287.673057123657
 21
4094.358099277189
 31
0.0
  0
LINE
  5
1A0F6
330
747D
100
AcDbEntity
  8
部品1
 48
0.01
100
AcDbLine
 10
4289.673057123656
 20
4092.358099277189
 30
0.0
 11
4289.673057123656
 21
4060.858099277189
 31
0.0
  0
LINE
  5
1A0F7
330
747D
100
AcDbEntity
  8
部品1
 48
0.01
100
AcDbLine
 10
4287.673057123657
 20
4058.858099277189
 30
0.0
 11
4111.67305712366
 21
4058.858099277189
 31
0.0
  0
LINE
  5
1A0F8
330
747D
100
AcDbEntity
  8
部品1
 48
0.01
100
AcDbLine
 10
4109.67305712366
 20
4060.858099277189
 30
0.0
 11
4109.673057123656
 21
4092.358099277189
 31
0.0
  0
LINE
  5
1A0F9
330
747D
100
AcDbEntity
  8
細線
100
AcDbLine
 10
4273.673057123657
 20
4087.858099277189
 30
0.0
 11
4273.673057123657
 21
4064.85809927719
 31
0.0
  0
LINE
  5
1A0FA
330
747D
100
AcDbEntity
  8
細線
100
AcDbLine
 10
4125.673057123656
 20
4064.85809927719
 30
0.0
 11
4125.673057123656
 21
4087.858099277189
 31
0.0
  0
LINE
  5
1A0FB
330
747D
100
AcDbEntity
  8
細線
100
AcDbLine
 10
4125.673057123656
 20
4087.858099277189
 30
0.0
 11
4199.673057123656
 21
4087.858099277189
 31
0.0
  0
LINE
  5
1A0FC
330
747D
100
AcDbEntity
  8
細線
100
AcDbLine
 10
4273.673057123657
 20
4064.85809927719
 30
0.0
 11
4199.673057123656
 21
4064.85809927719
 31
0.0
  0
LINE
  5
1A0FD
330
747D
100
AcDbEntity
  8
細線
100
AcDbLine
 10
4199.673057123656
 20
4087.858099277189
 30
0.0
 11
4273.673057123657
 21
4087.858099277189
 31
0.0
  0
LINE
  5
1A0FE
330
747D
100
AcDbEntity
  8
細線
100
AcDbLine
 10
4199.67305712366
 20
4064.85809927719
 30
0.0
 11
4125.673057123656
 21
4064.85809927719
 31
0.0
  0
ARC
  5
1A0FF
330
747D
100
AcDbEntity
  8
部品1
 48
0.01
100
AcDbCircle
 10
4287.673057123657
 20
4092.358099277189
 30
0.0
 40
2.0
100
AcDbArc
 50
0.0
 51
90.0
  0
ARC
  5
1A100
330
747D
100
AcDbEntity
  8
部品1
 48
0.01
100
AcDbCircle
 10
4287.673057123657
 20
4060.858099277189
 30
0.0
 40
2.0
100
AcDbArc
 50
270.0
 51
0.0
  0
ARC
  5
1A101
330
747D
100
AcDbEntity
  8
部品1
 48
0.01
100
AcDbCircle
 10
4111.673057123656
 20
4092.358099277189
 30
0.0
 40
2.0
100
AcDbArc
 50
90.0
 51
180.0
  0
ARC
  5
1A102
330
747D
100
AcDbEntity
  8
部品1
 48
0.01
100
AcDbCircle
 10
4111.67305712366
 20
4060.858099277189
 30
0.0
 40
2.0
100
AcDbArc
 50
180.0
 51
270.0
  0
LINE
  5
1A107
330
747D
100
AcDbEntity
  8
部品1
100
AcDbLine
 10
2899.673057123655
 20
4028.358099277189
 30
0.0
 11
8269.673057123659
 21
4028.358099277189
 31
0.0
  0
ARC
  5
1A108
330
747D
100
AcDbEntity
  8
部品1
100
AcDbCircle
 10
8312.264636017228
 20
4256.358099277197
 30
0.0
 40
7.0
100
AcDbArc
 50
356.7526572096682
 51
90.0
  0
ARC
  5
1A109
330
747D
100
AcDbEntity
  8
部品1
100
AcDbCircle
 10
8299.049312556194
 20
4129.358099277197
 30
0.0
 40
7.0
100
AcDbArc
 50
270.0
 51
356.7526572096682
  0
ARC
  5
1A10A
330
747D
100
AcDbEntity
  8
部品1
 48
50.0
100
AcDbCircle
 10
8317.421122766869
 20
4236.025098438881
 30
0.0
 40
0.7
100
AcDbArc
 50
277.6581272073637
 51
356.7526572096682
  0
ARC
  5
1A10B
330
747D
100
AcDbEntity
  8
部品1
 48
50.0
100
AcDbCircle
 10
8309.18509224203
 20
4143.82509843888
 30
0.0
 40
0.7
100
AcDbArc
 50
277.6581272073637
 51
356.7526572096682
  0
ARC
  5
1A10C
330
747D
100
AcDbEntity
  8
部品1
 48
50.0
100
AcDbCircle
 10
8309.678161350589
 20
4140.158099277193
 30
0.0
 40
3.0
100
AcDbArc
 50
97.6581272073637
 51
176.7526572096682
  0
ARC
  5
1A10D
330
747D
100
AcDbEntity
  8
部品1
 48
50.0
100
AcDbCircle
 10
8317.914191875434
 20
4232.358099277198
 30
0.0
 40
3.0
100
AcDbArc
 50
97.6581272073637
 51
176.7526572096682
  0
LINE
  5
1A10E
330
747D
100
AcDbEntity
  8
部品1
100
AcDbLine
 10
8314.919008979249
 20
4232.528038732301
 30
0.0
 11
8309.883968251137
 21
4143.785445899354
 31
0.0
  0
LINE
  5
1A10F
330
747D
100
AcDbEntity
  8
部品1
100
AcDbLine
 10
8306.682978454402
 20
4140.328038732296
 30
0.0
 11
8306.038072647293
 21
4128.961573881957
 31
0.0
  0
LINE
  5
1A110
330
747D
100
AcDbEntity
  8
細線
 48
50.0
100
AcDbLine
 10
8286.673057123657
 20
4263.358099277197
 30
0.0
 11
8286.673057123657
 21
4122.358099277198
 31
0.0
  0
LINE
  5
1A111
330
747D
100
AcDbEntity
  8
部品1
100
AcDbLine
 10
8319.253396108328
 20
4255.961573881957
 30
0.0
 11
8318.119998775976
 21
4235.985445899358
 31
0.0
  0
ARC
  5
1A112
330
747D
100
AcDbEntity
  8
部品1
 48
0.01
100
AcDbCircle
 10
7057.673057123657
 20
4060.85809927719
 30
0.0
 40
2.0
100
AcDbArc
 50
270.0
 51
0.0
  0
ARC
  5
1A113
330
747D
100
AcDbEntity
  8
部品1
 48
0.01
100
AcDbCircle
 10
7057.673057123661
 20
4092.35809927719
 30
0.0
 40
2.0
100
AcDbArc
 50
0.0
 51
90.0
  0
ARC
  5
1A114
330
747D
100
AcDbEntity
  8
部品1
 48
0.01
100
AcDbCircle
 10
6881.67305712366
 20
4060.85809927719
 30
0.0
 40
2.0
100
AcDbArc
 50
180.0
 51
270.0
  0
ARC
  5
1A115
330
747D
100
AcDbEntity
  8
部品1
 48
0.01
100
AcDbCircle
 10
6881.67305712366
 20
4092.35809927719
 30
0.0
 40
2.0
100
AcDbArc
 50
90.0
 51
180.0
  0
LINE
  5
1A116
330
747D
100
AcDbEntity
  8
細線
100
AcDbLine
 10
6969.673057123657
 20
4064.85809927719
 30
0.0
 11
7043.673057123661
 21
4064.85809927719
 31
0.0
  0
LINE
  5
1A117
330
747D
100
AcDbEntity
  8
細線
100
AcDbLine
 10
6969.67305712366
 20
4087.85809927719
 30
0.0
 11
6895.67305712366
 21
4087.85809927719
 31
0.0
  0
LINE
  5
1A118
330
747D
100
AcDbEntity
  8
細線
100
AcDbLine
 10
6895.67305712366
 20
4064.85809927719
 30
0.0
 11
6969.67305712366
 21
4064.85809927719
 31
0.0
  0
LINE
  5
1A119
330
747D
100
AcDbEntity
  8
細線
100
AcDbLine
 10
7043.673057123661
 20
4087.85809927719
 30
0.0
 11
6969.67305712366
 21
4087.85809927719
 31
0.0
  0
LINE
  5
1A11A
330
747D
100
AcDbEntity
  8
細線
100
AcDbLine
 10
7043.673057123661
 20
4064.85809927719
 30
0.0
 11
7043.673057123661
 21
4087.85809927719
 31
0.0
  0
LINE
  5
1A11B
330
747D
100
AcDbEntity
  8
細線
100
AcDbLine
 10
6895.67305712366
 20
4087.85809927719
 30
0.0
 11
6895.67305712366
 21
4064.85809927719
 31
0.0
  0
LINE
  5
1A11C
330
747D
100
AcDbEntity
  8
部品1
 48
0.01
100
AcDbLine
 10
7059.673057123657
 20
4060.85809927719
 30
0.0
 11
7059.67305712366
 21
4092.35809927719
 31
0.0
  0
LINE
  5
1A11D
330
747D
100
AcDbEntity
  8
部品1
 48
0.01
100
AcDbLine
 10
6881.67305712366
 20
4058.85809927719
 30
0.0
 11
7057.673057123657
 21
4058.85809927719
 31
0.0
  0
LINE
  5
1A11E
330
747D
100
AcDbEntity
  8
部品1
 48
0.01
100
AcDbLine
 10
6879.67305712366
 20
4092.35809927719
 30
0.0
 11
6879.67305712366
 21
4060.85809927719
 31
0.0
  0
LINE
  5
1A11F
330
747D
100
AcDbEntity
  8
部品1
 48
0.01
100
AcDbLine
 10
7057.673057123661
 20
4094.35809927719
 30
0.0
 11
6881.67305712366
 21
4094.35809927719
 31
0.0
  0
LINE
  5
1A120
330
747D
100
AcDbEntity
  8
細線
100
AcDbLine
 10
6895.67305712366
 20
4081.85809927719
 30
0.0
 11
6969.67305712366
 21
4081.85809927719
 31
0.0
  0
LINE
  5
1A121
330
747D
100
AcDbEntity
  8
細線
100
AcDbLine
 10
6895.67305712366
 20
4075.85809927719
 30
0.0
 11
6969.67305712366
 21
4075.85809927719
 31
0.0
  0
LINE
  5
1A122
330
747D
100
AcDbEntity
  8
細線
100
AcDbLine
 10
6895.673057123656
 20
4069.85809927719
 30
0.0
 11
6969.67305712366
 21
4069.85809927719
 31
0.0
  0
LINE
  5
1A123
330
747D
100
AcDbEntity
  8
細線
100
AcDbLine
 10
6895.67305712366
 20
4081.85809927719
 30
0.0
 11
6964.67305712366
 21
4081.85809927719
 31
0.0
  0
LINE
  5
1A124
330
747D
100
AcDbEntity
  8
細線
100
AcDbLine
 10
7043.673057123656
 20
4081.85809927719
 30
0.0
 11
6969.67305712366
 21
4081.85809927719
 31
0.0
  0
LINE
  5
1A125
330
747D
100
AcDbEntity
  8
細線
100
AcDbLine
 10
7043.673057123656
 20
4069.85809927719
 30
0.0
 11
6969.67305712366
 21
4069.85809927719
 31
0.0
  0
LINE
  5
1A126
330
747D
100
AcDbEntity
  8
細線
100
AcDbLine
 10
7043.673057123656
 20
4075.85809927719
 30
0.0
 11
6969.67305712366
 21
4075.85809927719
 31
0.0
  0
LINE
  5
1A127
330
747D
100
AcDbEntity
  8
細線
100
AcDbLine
 10
6969.67305712366
 20
4087.85809927719
 30
0.0
 11
6969.673057123657
 21
4064.85809927719
 31
0.0
  0
LINE
  5
1A128
330
747D
100
AcDbEntity
  8
細線
100
AcDbLine
 10
7779.673057123656
 20
4087.85809927719
 30
0.0
 11
7779.673057123661
 21
4064.85809927719
 31
0.0
  0
LINE
  5
1A129
330
747D
100
AcDbEntity
  8
細線
100
AcDbLine
 10
7705.67305712366
 20
4075.85809927719
 30
0.0
 11
7779.673057123656
 21
4075.85809927719
 31
0.0
  0
LINE
  5
1A12A
330
747D
100
AcDbEntity
  8
細線
100
AcDbLine
 10
7705.67305712366
 20
4069.85809927719
 30
0.0
 11
7779.673057123656
 21
4069.85809927719
 31
0.0
  0
LINE
  5
1A12B
330
747D
100
AcDbEntity
  8
細線
100
AcDbLine
 10
7705.67305712366
 20
4081.85809927719
 30
0.0
 11
7779.673057123656
 21
4081.85809927719
 31
0.0
  0
LINE
  5
1A12C
330
747D
100
AcDbEntity
  8
細線
100
AcDbLine
 10
7853.673057123657
 20
4081.85809927719
 30
0.0
 11
7784.673057123656
 21
4081.85809927719
 31
0.0
  0
LINE
  5
1A12D
330
747D
100
AcDbEntity
  8
細線
100
AcDbLine
 10
7853.673057123661
 20
4069.85809927719
 30
0.0
 11
7779.673057123656
 21
4069.85809927719
 31
0.0
  0
LINE
  5
1A12E
330
747D
100
AcDbEntity
  8
細線
100
AcDbLine
 10
7853.673057123657
 20
4075.85809927719
 30
0.0
 11
7779.673057123656
 21
4075.85809927719
 31
0.0
  0
LINE
  5
1A12F
330
747D
100
AcDbEntity
  8
細線
100
AcDbLine
 10
7853.673057123657
 20
4081.85809927719
 30
0.0
 11
7779.673057123656
 21
4081.85809927719
 31
0.0
  0
LINE
  5
1A130
330
747D
100
AcDbEntity
  8
部品1
 48
0.01
100
AcDbLine
 10
7691.673057123657
 20
4094.35809927719
 30
0.0
 11
7867.673057123657
 21
4094.35809927719
 31
0.0
  0
LINE
  5
1A131
330
747D
100
AcDbEntity
  8
部品1
 48
0.01
100
AcDbLine
 10
7869.673057123657
 20
4092.35809927719
 30
0.0
 11
7869.673057123657
 21
4060.85809927719
 31
0.0
  0
LINE
  5
1A132
330
747D
100
AcDbEntity
  8
部品1
 48
0.01
100
AcDbLine
 10
7867.673057123657
 20
4058.85809927719
 30
0.0
 11
7691.67305712366
 21
4058.85809927719
 31
0.0
  0
LINE
  5
1A133
330
747D
100
AcDbEntity
  8
部品1
 48
0.01
100
AcDbLine
 10
7689.67305712366
 20
4060.85809927719
 30
0.0
 11
7689.673057123657
 21
4092.35809927719
 31
0.0
  0
LINE
  5
1A134
330
747D
100
AcDbEntity
  8
細線
100
AcDbLine
 10
7853.673057123657
 20
4087.85809927719
 30
0.0
 11
7853.673057123657
 21
4064.85809927719
 31
0.0
  0
LINE
  5
1A135
330
747D
100
AcDbEntity
  8
細線
100
AcDbLine
 10
7705.673057123657
 20
4064.85809927719
 30
0.0
 11
7705.673057123657
 21
4087.85809927719
 31
0.0
  0
LINE
  5
1A136
330
747D
100
AcDbEntity
  8
細線
100
AcDbLine
 10
7705.673057123657
 20
4087.85809927719
 30
0.0
 11
7779.673057123656
 21
4087.85809927719
 31
0.0
  0
LINE
  5
1A137
330
747D
100
AcDbEntity
  8
細線
100
AcDbLine
 10
7853.673057123657
 20
4064.85809927719
 30
0.0
 11
7779.673057123656
 21
4064.85809927719
 31
0.0
  0
LINE
  5
1A138
330
747D
100
AcDbEntity
  8
細線
100
AcDbLine
 10
7779.673057123656
 20
4087.85809927719
 30
0.0
 11
7853.673057123657
 21
4087.85809927719
 31
0.0
  0
LINE
  5
1A139
330
747D
100
AcDbEntity
  8
細線
100
AcDbLine
 10
7779.673057123661
 20
4064.85809927719
 30
0.0
 11
7705.673057123657
 21
4064.85809927719
 31
0.0
  0
ARC
  5
1A13A
330
747D
100
AcDbEntity
  8
部品1
 48
0.01
100
AcDbCircle
 10
7867.673057123657
 20
4092.35809927719
 30
0.0
 40
2.0
100
AcDbArc
 50
0.0
 51
90.0
  0
ARC
  5
1A13B
330
747D
100
AcDbEntity
  8
部品1
 48
0.01
100
AcDbCircle
 10
7867.673057123657
 20
4060.85809927719
 30
0.0
 40
2.0
100
AcDbArc
 50
270.0
 51
0.0
  0
ARC
  5
1A13C
330
747D
100
AcDbEntity
  8
部品1
 48
0.01
100
AcDbCircle
 10
7691.673057123657
 20
4092.35809927719
 30
0.0
 40
2.0
100
AcDbArc
 50
90.0
 51
180.0
  0
ARC
  5
1A13D
330
747D
100
AcDbEntity
  8
部品1
 48
0.01
100
AcDbCircle
 10
7691.67305712366
 20
4060.85809927719
 30
0.0
 40
2.0
100
AcDbArc
 50
180.0
 51
270.0
  0
LINE
  5
1A13E
330
747D
100
AcDbEntity
  8
部品1
 48
50.0
100
AcDbLine
 10
4679.673057123658
 20
4122.358099277192
 30
0.0
 11
4679.673057123657
 21
4263.358099277193
 31
0.0
  0
LINE
  5
1A13F
330
747D
100
AcDbEntity
  8
部品1
 48
50.0
100
AcDbLine
 10
4689.673057123658
 20
3863.358099277189
 30
0.0
 11
4689.673057123658
 21
4122.358099277192
 31
0.0
  0
LINE
  5
1A168
330
747D
100
AcDbEntity
  8
部品1
 48
50.0
100
AcDbLine
 10
6479.673057123659
 20
3863.358099277189
 30
0.0
 11
6479.673057123658
 21
4122.358099277194
 31
0.0
  0
LINE
  5
1A169
330
747D
100
AcDbEntity
  8
部品1
 48
50.0
100
AcDbLine
 10
6469.673057123658
 20
4122.358099277194
 30
0.0
 11
6469.673057123657
 21
4263.358099277193
 31
0.0
  0
LINE
  5
1A16A
330
747D
100
AcDbEntity
  8
部品1
 48
50.0
100
AcDbLine
 10
8312.264636017228
 20
4263.35809927719
 30
0.0
 11
2857.081478230088
 21
4263.358099277197
 31
0.0
  0
LINE
  5
1A16B
330
747D
100
AcDbEntity
  8
細線
 48
50.0
100
AcDbLine
 10
8317.633518902217
 20
4235.358099277195
 30
0.0
 11
2851.712595345096
 21
4235.358099277193
 31
0.0
  0
LINE
  5
1A16C
330
747D
100
AcDbEntity
  8
細線
 48
50.0
100
AcDbLine
 10
8309.397488377337
 20
4143.158099277182
 30
0.0
 11
2859.948625869926
 21
4143.158099277196
 31
0.0
  0
LINE
  5
1A16D
330
747D
100
AcDbEntity
  8
部品1
 48
50.0
100
AcDbLine
 10
8299.049312556194
 20
4122.358099277198
 30
0.0
 11
2870.296801691118
 21
4122.358099277197
 31
0.0
  0
DIMENSION
  5
1A341
330
747D
100
AcDbEntity
  8
寸法
 48
50.0
100
AcDbDimension
  2
*D39
 10
8557.216159445403
 20
4028.358099277189
 30
0.0
 11
8557.216159445403
 21
4266.843380651429
 31
0.0
 70
   160
 71
     5
 42
164.9999999999995
  3
INABA_S40G
100
AcDbAlignedDimension
 13
8269.673057123657
 23
3863.35809927719
 33
0.0
 14
8269.673057123657
 24
4028.358099277189
 34
0.0
 50
90.0
100
AcDbRotatedDimension
1001
ACAD
1000
DSTYLE
1002
{
1002
}
  0
DIMENSION
  5
1A342
330
747D
100
AcDbEntity
  8
寸法
 48
50.0
100
AcDbDimension
  2
*D40
 10
8557.216159445403
 20
3863.35809927719
 30
0.0
 11
8697.385982691768
 21
3864.325299116848
 31
0.0
 70
   160
 71
     5
 42
27.00000000000045
  3
INABA_S40G
100
AcDbAlignedDimension
 13
8269.673057123657
 23
3836.35809927719
 33
0.0
 14
8269.673057123657
 24
3863.35809927719
 34
0.0
 50
90.0
100
AcDbRotatedDimension
1001
ACAD
1000
DSTYLE
1002
{
1070
   279
1070
     2
1002
}
  0
DIMENSION
  5
1A343
330
747D
100
AcDbEntity
  8
寸法
 48
50.0
100
AcDbDimension
  2
*D41
 10
8557.216159445403
 20
3836.35809927719
 30
0.0
 11
8457.216159445403
 21
3012.358099277191
 31
0.0
 70
    32
  1
有効開口部高サ <>
 71
     5
 42
1648.0
  3
INABA_S40G
100
AcDbAlignedDimension
 13
8269.673057123657
 23
2188.35809927719
 33
0.0
 14
8269.673057123657
 24
3836.35809927719
 34
0.0
 50
90.0
100
AcDbRotatedDimension
  0
LINE
  5
1A4D9
330
747D
100
AcDbEntity
  8
寸法
 48
50.0
100
AcDbLine
 10
4744.673057123662
 20
10219.73905351654
 30
0.0
 11
4744.673057123662
 21
10475.54727314164
 31
0.0
  0
LINE
  5
1A4DA
330
747D
100
AcDbEntity
  8
寸法
 48
50.0
100
AcDbLine
 10
6424.673057123664
 20
10219.73905351664
 30
0.0
 11
6424.673057123664
 21
10475.54727314164
 31
0.0
  0
LINE
  5
1A4DB
330
747D
100
AcDbEntity
  8
寸法
 48
50.0
100
AcDbLine
 10
4744.673057123662
 20
10415.54727314164
 30
0.0
 11
5474.097570791766
 21
10415.54727314164
 31
0.0
  0
INSERT
  5
1A4DC
330
747D
100
AcDbEntity
  8
寸法
 48
50.0
100
AcDbBlockReference
  2
_DOTSMALL
 10
4744.673057123662
 20
10415.54727314164
 30
0.0
 41
100.0
 42
100.0
 43
100.0
 50
180.0
  0
INSERT
  5
1A4DD
330
747D
100
AcDbEntity
  8
寸法
 48
50.0
100
AcDbBlockReference
  2
_DOTSMALL
 10
6424.673057123664
 20
10415.54727314164
 30
0.0
 41
100.0
 42
100.0
 43
100.0
  0
LINE
  5
1A4DF
330
747D
100
AcDbEntity
  8
寸法
 48
50.0
100
AcDbLine
 10
6479.673057123664
 20
10594.53518749958
 30
0.0
 11
6479.673057123664
 21
10724.86874669793
 31
0.0
  0
LINE
  5
1A4E0
330
747D
100
AcDbEntity
  8
寸法
 48
50.0
100
AcDbLine
 10
4689.673057123664
 20
10664.86874669793
 30
0.0
 11
5474.097570791765
 21
10664.86874669793
 31
0.0
  0
INSERT
  5
1A4E1
330
747D
100
AcDbEntity
  8
寸法
 48
50.0
100
AcDbBlockReference
  2
_DOTSMALL
 10
4689.673057123664
 20
10664.86874669793
 30
0.0
 41
100.0
 42
100.0
 43
100.0
 50
180.0
  0
INSERT
  5
1A4E2
330
747D
100
AcDbEntity
  8
寸法
 48
50.0
100
AcDbBlockReference
  2
_DOTSMALL
 10
6479.673057123664
 20
10664.86874669793
 30
0.0
 41
100.0
 42
100.0
 43
100.0
  0
TEXT
  5
1A546
330
747D
100
AcDbEntity
  8
文字
 48
50.0
100
AcDbText
 10
5133.301826075933
 20
10708.72595942518
 30
0.0
 40
120.0
  1
1790
  7
STYLE1
100
AcDbText
  0
TEXT
  5
1A547
330
747D
100
AcDbEntity
  8
文字
 48
50.0
100
AcDbText
 10
5744.946326482197
 20
10708.72595942518
 30
0.0
 40
120.0
  1
1790
  7
STYLE1
100
AcDbText
  0
TEXT
  5
1A54E
330
747D
100
AcDbEntity
  8
文字
 48
50.0
100
AcDbText
 10
5133.301826075933
 20
10446.23203867057
 30
0.0
 40
120.0
  1
1680
  7
STYLE1
100
AcDbText
  0
TEXT
  5
1A551
330
747D
100
AcDbEntity
  8
文字
 48
50.0
100
AcDbText
 10
5744.946326482197
 20
10446.23203867057
 30
0.0
 40
120.0
  1
1680
  7
STYLE1
100
AcDbText
  0
LINE
  5
1A5AE
330
747D
100
AcDbEntity
  8
寸法
 48
50.0
100
AcDbLine
 10
5699.004079146507
 20
10415.54727314164
 30
0.0
 11
6424.673057123664
 21
10415.54727314164
 31
0.0
  0
LINE
  5
1A5AF
330
747D
100
AcDbEntity
  8
寸法
 48
50.0
100
AcDbLine
 10
5699.004079146508
 20
10664.86874669793
 30
0.0
 11
6479.673057123664
 21
10664.86874669793
 31
0.0
  0
LINE
  5
1A5C4
330
747D
100
AcDbEntity
  8
仕様書枠
 48
50.0
100
AcDbLine
 10
16307.19999999999
 20
8689.600000000003
 30
0.0
 11
13127.19999999999
 21
8689.600000000003
 31
0.0
  0
TEXT
  5
1A5D7
330
747D
100
AcDbEntity
  8
文字
 62
     7
 48
50.0
100
AcDbText
 10
15022.63965474517
 20
10760.01374588372
 30
0.0
 40
100.0
  1
F12         1.0,1.2
  7
STYLE1
100
AcDbText
  0
TEXT
  5
1A5DB
330
747D
100
AcDbEntity
  8
文字
 62
     7
 48
50.0
100
AcDbText
 10
15022.63965474515
 20
9060.013745883729
 30
0.0
 40
100.0
  1
F12            0.7
  7
STYLE1
100
AcDbText
  0
LINE
  5
1A5DD
330
747D
100
AcDbEntity
  8
破線
 48
5.0
100
AcDbLine
 10
4689.673057123656
 20
1913.35809927719
 30
0.0
 11
4689.673057123656
 21
1838.35809927719
 31
0.0
  0
LINE
  5
1A5DE
330
747D
100
AcDbEntity
  8
破線
 48
5.0
100
AcDbLine
 10
4639.673057123656
 20
1838.35809927719
 30
0.0
 11
4739.673057123655
 21
1838.35809927719
 31
0.0
  0
LINE
  5
1A5E6
330
747D
100
AcDbEntity
  8
破線
 48
5.0
100
AcDbLine
 10
6429.673057123657
 20
1838.358099277189
 30
0.0
 11
6529.673057123656
 21
1838.358099277189
 31
0.0
  0
LINE
  5
1A5E7
330
747D
100
AcDbEntity
  8
破線
 48
5.0
100
AcDbLine
 10
6479.673057123656
 20
1913.358099277189
 30
0.0
 11
6479.673057123656
 21
1838.358099277189
 31
0.0
  0
LINE
  5
1A5FF
330
747D
100
AcDbEntity
  8
部品1
 48
50.0
100
AcDbLine
 10
4756.673057123655
 20
7195.239053516537
 30
0.0
 11
6412.67305712364
 21
7195.239053516537
 31
0.0
  0
LINE
  5
1A600
330
747D
100
AcDbEntity
  8
部品1
100
AcDbLine
 10
5584.673057123662
 20
10199.73905351666
 30
0.0
 11
5584.673057123662
 21
10171.73905351666
 31
0.0
  0
LINE
  5
1A601
330
747D
100
AcDbEntity
  8
部品1
100
AcDbLine
 10
5572.173057123662
 20
10163.73905351664
 30
0.0
 11
5597.173057123661
 21
10163.73905351664
 31
0.0
  0
LINE
  5
1A602
330
747D
100
AcDbEntity
  8
部品1
100
AcDbLine
 10
5613.673057123662
 20
10189.73905351664
 30
0.0
 11
5619.673057123662
 21
10189.73905351664
 31
0.0
  0
LINE
  5
1A603
330
747D
100
AcDbEntity
  8
部品1
100
AcDbLine
 10
5619.673057123662
 20
10189.73905351664
 30
0.0
 11
5619.673057123662
 21
10171.73905351664
 31
0.0
  0
LINE
  5
1A604
330
747D
100
AcDbEntity
  8
部品1
100
AcDbLine
 10
5549.673057123662
 20
10189.73905351664
 30
0.0
 11
5555.673057123662
 21
10189.73905351664
 31
0.0
  0
LINE
  5
1A605
330
747D
100
AcDbEntity
  8
部品1
100
AcDbLine
 10
5549.673057123662
 20
10189.73905351664
 30
0.0
 11
5549.673057123662
 21
10171.73905351664
 31
0.0
  0
LINE
  5
1A606
330
747D
100
AcDbEntity
  8
部品1
 48
50.0
100
AcDbLine
 10
5572.173057123662
 20
10163.73905351664
 30
0.0
 11
5572.173057123662
 21
10171.73905351666
 31
0.0
  0
LINE
  5
1A607
330
747D
100
AcDbEntity
  8
部品1
 48
50.0
100
AcDbLine
 10
5597.173057123661
 20
10163.73905351664
 30
0.0
 11
5597.173057123661
 21
10171.73905351665
 31
0.0
  0
LINE
  5
1A608
330
747D
100
AcDbEntity
  8
部品1
100
AcDbLine
 10
5597.173057123661
 20
10171.73905351665
 30
0.0
 11
6451.673057123631
 21
10171.73905351665
 31
0.0
  0
ARC
  5
1A609
330
747D
100
AcDbEntity
  8
部品1
 48
0.01
100
AcDbCircle
 10
5901.673057123661
 20
4060.858099277189
 30
0.0
 40
2.0
100
AcDbArc
 50
180.0
 51
270.0
  0
ARC
  5
1A60A
330
747D
100
AcDbEntity
  8
部品1
 48
0.01
100
AcDbCircle
 10
5901.673057123656
 20
4092.358099277189
 30
0.0
 40
2.0
100
AcDbArc
 50
90.0
 51
180.0
  0
ARC
  5
1A60B
330
747D
100
AcDbEntity
  8
部品1
 48
0.01
100
AcDbCircle
 10
6077.673057123657
 20
4060.858099277189
 30
0.0
 40
2.0
100
AcDbArc
 50
270.0
 51
0.0
  0
ARC
  5
1A60C
330
747D
100
AcDbEntity
  8
部品1
 48
0.01
100
AcDbCircle
 10
6077.673057123657
 20
4092.358099277189
 30
0.0
 40
2.0
100
AcDbArc
 50
0.0
 51
90.0
  0
LINE
  5
1A60D
330
747D
100
AcDbEntity
  8
細線
100
AcDbLine
 10
5989.67305712366
 20
4064.85809927719
 30
0.0
 11
5915.673057123656
 21
4064.85809927719
 31
0.0
  0
LINE
  5
1A60E
330
747D
100
AcDbEntity
  8
細線
100
AcDbLine
 10
5989.673057123656
 20
4087.858099277189
 30
0.0
 11
6063.673057123657
 21
4087.858099277189
 31
0.0
  0
LINE
  5
1A60F
330
747D
100
AcDbEntity
  8
細線
100
AcDbLine
 10
6063.673057123657
 20
4064.85809927719
 30
0.0
 11
5989.673057123656
 21
4064.85809927719
 31
0.0
  0
LINE
  5
1A610
330
747D
100
AcDbEntity
  8
細線
100
AcDbLine
 10
5915.673057123656
 20
4087.858099277189
 30
0.0
 11
5989.673057123656
 21
4087.858099277189
 31
0.0
  0
LINE
  5
1A611
330
747D
100
AcDbEntity
  8
細線
100
AcDbLine
 10
5915.673057123656
 20
4064.85809927719
 30
0.0
 11
5915.673057123656
 21
4087.858099277189
 31
0.0
  0
LINE
  5
1A612
330
747D
100
AcDbEntity
  8
細線
100
AcDbLine
 10
6063.673057123657
 20
4087.858099277189
 30
0.0
 11
6063.673057123657
 21
4064.85809927719
 31
0.0
  0
LINE
  5
1A613
330
747D
100
AcDbEntity
  8
部品1
 48
0.01
100
AcDbLine
 10
5899.67305712366
 20
4060.858099277189
 30
0.0
 11
5899.673057123656
 21
4092.358099277189
 31
0.0
  0
LINE
  5
1A614
330
747D
100
AcDbEntity
  8
部品1
 48
0.01
100
AcDbLine
 10
6077.673057123657
 20
4058.858099277189
 30
0.0
 11
5901.673057123661
 21
4058.858099277189
 31
0.0
  0
LINE
  5
1A615
330
747D
100
AcDbEntity
  8
部品1
 48
0.01
100
AcDbLine
 10
6079.673057123656
 20
4092.358099277189
 30
0.0
 11
6079.673057123656
 21
4060.858099277189
 31
0.0
  0
LINE
  5
1A616
330
747D
100
AcDbEntity
  8
部品1
 48
0.01
100
AcDbLine
 10
5901.673057123656
 20
4094.358099277189
 30
0.0
 11
6077.673057123657
 21
4094.358099277189
 31
0.0
  0
LINE
  5
1A617
330
747D
100
AcDbEntity
  8
細線
100
AcDbLine
 10
6063.673057123657
 20
4081.858099277189
 30
0.0
 11
5989.673057123656
 21
4081.858099277189
 31
0.0
  0
LINE
  5
1A618
330
747D
100
AcDbEntity
  8
細線
100
AcDbLine
 10
6063.673057123657
 20
4075.85809927719
 30
0.0
 11
5989.673057123656
 21
4075.85809927719
 31
0.0
  0
LINE
  5
1A619
330
747D
100
AcDbEntity
  8
細線
100
AcDbLine
 10
6063.673057123661
 20
4069.85809927719
 30
0.0
 11
5989.673057123656
 21
4069.85809927719
 31
0.0
  0
LINE
  5
1A61A
330
747D
100
AcDbEntity
  8
細線
100
AcDbLine
 10
6063.673057123657
 20
4081.858099277189
 30
0.0
 11
5994.673057123657
 21
4081.858099277189
 31
0.0
  0
LINE
  5
1A61B
330
747D
100
AcDbEntity
  8
細線
100
AcDbLine
 10
5915.673057123661
 20
4081.858099277189
 30
0.0
 11
5989.673057123656
 21
4081.858099277189
 31
0.0
  0
LINE
  5
1A61C
330
747D
100
AcDbEntity
  8
細線
100
AcDbLine
 10
5915.673057123661
 20
4069.85809927719
 30
0.0
 11
5989.673057123656
 21
4069.85809927719
 31
0.0
  0
LINE
  5
1A61D
330
747D
100
AcDbEntity
  8
細線
100
AcDbLine
 10
5915.673057123661
 20
4075.85809927719
 30
0.0
 11
5989.673057123656
 21
4075.85809927719
 31
0.0
  0
LINE
  5
1A61E
330
747D
100
AcDbEntity
  8
細線
100
AcDbLine
 10
5989.673057123656
 20
4087.858099277189
 30
0.0
 11
5989.67305712366
 21
4064.85809927719
 31
0.0
  0
LINE
  5
1A61F
330
747D
100
AcDbEntity
  8
細線
100
AcDbLine
 10
5179.67305712366
 20
4087.858099277189
 30
0.0
 11
5179.673057123657
 21
4064.85809927719
 31
0.0
  0
LINE
  5
1A620
330
747D
100
AcDbEntity
  8
細線
100
AcDbLine
 10
5253.673057123656
 20
4075.85809927719
 30
0.0
 11
5179.67305712366
 21
4075.85809927719
 31
0.0
  0
LINE
  5
1A621
330
747D
100
AcDbEntity
  8
細線
100
AcDbLine
 10
5253.673057123656
 20
4069.85809927719
 30
0.0
 11
5179.67305712366
 21
4069.85809927719
 31
0.0
  0
LINE
  5
1A622
330
747D
100
AcDbEntity
  8
細線
100
AcDbLine
 10
5253.673057123656
 20
4081.858099277189
 30
0.0
 11
5179.67305712366
 21
4081.858099277189
 31
0.0
  0
LINE
  5
1A623
330
747D
100
AcDbEntity
  8
細線
100
AcDbLine
 10
5105.67305712366
 20
4081.858099277189
 30
0.0
 11
5174.67305712366
 21
4081.858099277189
 31
0.0
  0
LINE
  5
1A624
330
747D
100
AcDbEntity
  8
細線
100
AcDbLine
 10
5105.673057123657
 20
4069.85809927719
 30
0.0
 11
5179.67305712366
 21
4069.85809927719
 31
0.0
  0
LINE
  5
1A625
330
747D
100
AcDbEntity
  8
細線
100
AcDbLine
 10
5105.67305712366
 20
4075.85809927719
 30
0.0
 11
5179.67305712366
 21
4075.85809927719
 31
0.0
  0
LINE
  5
1A626
330
747D
100
AcDbEntity
  8
細線
100
AcDbLine
 10
5105.67305712366
 20
4081.858099277189
 30
0.0
 11
5179.67305712366
 21
4081.858099277189
 31
0.0
  0
LINE
  5
1A627
330
747D
100
AcDbEntity
  8
部品1
 48
0.01
100
AcDbLine
 10
5267.67305712366
 20
4094.358099277189
 30
0.0
 11
5091.67305712366
 21
4094.358099277189
 31
0.0
  0
LINE
  5
1A628
330
747D
100
AcDbEntity
  8
部品1
 48
0.01
100
AcDbLine
 10
5089.67305712366
 20
4092.358099277189
 30
0.0
 11
5089.67305712366
 21
4060.858099277189
 31
0.0
  0
LINE
  5
1A629
330
747D
100
AcDbEntity
  8
部品1
 48
0.01
100
AcDbLine
 10
5091.67305712366
 20
4058.858099277189
 30
0.0
 11
5267.673057123657
 21
4058.858099277189
 31
0.0
  0
LINE
  5
1A62A
330
747D
100
AcDbEntity
  8
部品1
 48
0.01
100
AcDbLine
 10
5269.673057123657
 20
4060.858099277189
 30
0.0
 11
5269.673057123661
 21
4092.358099277189
 31
0.0
  0
LINE
  5
1A62B
330
747D
100
AcDbEntity
  8
細線
100
AcDbLine
 10
5105.67305712366
 20
4087.858099277189
 30
0.0
 11
5105.67305712366
 21
4064.85809927719
 31
0.0
  0
LINE
  5
1A62C
330
747D
100
AcDbEntity
  8
細線
100
AcDbLine
 10
5253.67305712366
 20
4064.85809927719
 30
0.0
 11
5253.67305712366
 21
4087.858099277189
 31
0.0
  0
LINE
  5
1A62D
330
747D
100
AcDbEntity
  8
細線
100
AcDbLine
 10
5253.67305712366
 20
4087.858099277189
 30
0.0
 11
5179.67305712366
 21
4087.858099277189
 31
0.0
  0
LINE
  5
1A62E
330
747D
100
AcDbEntity
  8
細線
100
AcDbLine
 10
5105.67305712366
 20
4064.85809927719
 30
0.0
 11
5179.67305712366
 21
4064.85809927719
 31
0.0
  0
LINE
  5
1A62F
330
747D
100
AcDbEntity
  8
細線
100
AcDbLine
 10
5179.67305712366
 20
4087.858099277189
 30
0.0
 11
5105.67305712366
 21
4087.858099277189
 31
0.0
  0
LINE
  5
1A630
330
747D
100
AcDbEntity
  8
細線
100
AcDbLine
 10
5179.673057123657
 20
4064.85809927719
 30
0.0
 11
5253.67305712366
 21
4064.85809927719
 31
0.0
  0
ARC
  5
1A631
330
747D
100
AcDbEntity
  8
部品1
 48
0.01
100
AcDbCircle
 10
5091.67305712366
 20
4092.358099277189
 30
0.0
 40
2.0
100
AcDbArc
 50
90.0
 51
180.0
  0
ARC
  5
1A632
330
747D
100
AcDbEntity
  8
部品1
 48
0.01
100
AcDbCircle
 10
5091.67305712366
 20
4060.858099277189
 30
0.0
 40
2.0
100
AcDbArc
 50
180.0
 51
270.0
  0
ARC
  5
1A633
330
747D
100
AcDbEntity
  8
部品1
 48
0.01
100
AcDbCircle
 10
5267.67305712366
 20
4092.358099277189
 30
0.0
 40
2.0
100
AcDbArc
 50
0.0
 51
90.0
  0
ARC
  5
1A634
330
747D
100
AcDbEntity
  8
部品1
 48
0.01
100
AcDbCircle
 10
5267.673057123657
 20
4060.858099277189
 30
0.0
 40
2.0
100
AcDbArc
 50
270.0
 51
0.0
  0
CIRCLE
  5
1A635
330
747D
100
AcDbEntity
  8
細線
 48
50.0
100
AcDbCircle
 10
5584.673057123652
 20
3075.85809927719
 30
0.0
 40
18.0
  0
ARC
  5
1A636
330
747D
100
AcDbEntity
  8
細線
 48
50.0
100
AcDbCircle
 10
5884.673057123651
 20
2750.85809927719
 30
0.0
 40
15.0
100
AcDbArc
 50
270.0
 51
90.0
  0
ARC
  5
1A637
330
747D
100
AcDbEntity
  8
細線
 48
50.0
100
AcDbCircle
 10
5784.673057123651
 20
2750.85809927719
 30
0.0
 40
15.0
100
AcDbArc
 50
90.0
 51
270.0
  0
LINE
  5
1A638
330
747D
100
AcDbEntity
  8
細線
 48
50.0
100
AcDbLine
 10
5784.673057123651
 20
2765.85809927719
 30
0.0
 11
5884.673057123651
 21
2765.85809927719
 31
0.0
  0
LINE
  5
1A639
330
747D
100
AcDbEntity
  8
細線
 48
50.0
100
AcDbLine
 10
5884.673057123651
 20
2735.858099277189
 30
0.0
 11
5784.673057123651
 21
2735.858099277189
 31
0.0
  0
LINE
  5
1A63A
330
747D
100
AcDbEntity
  8
細線
 48
50.0
100
AcDbLine
 10
5384.673057123651
 20
2735.858099277189
 30
0.0
 11
5284.673057123651
 21
2735.858099277189
 31
0.0
  0
LINE
  5
1A63B
330
747D
100
AcDbEntity
  8
細線
 48
50.0
100
AcDbLine
 10
5284.673057123651
 20
2765.85809927719
 30
0.0
 11
5384.673057123651
 21
2765.85809927719
 31
0.0
  0
ARC
  5
1A63C
330
747D
100
AcDbEntity
  8
細線
 48
50.0
100
AcDbCircle
 10
5384.673057123651
 20
2750.85809927719
 30
0.0
 40
15.0
100
AcDbArc
 50
270.0
 51
90.0
  0
ARC
  5
1A63D
330
747D
100
AcDbEntity
  8
細線
 48
50.0
100
AcDbCircle
 10
5284.673057123651
 20
2750.85809927719
 30
0.0
 40
15.0
100
AcDbArc
 50
90.0
 51
270.0
  0
LINE
  5
1A63E
330
747D
100
AcDbEntity
  8
部品1
100
AcDbLine
 10
4744.673057123656
 20
3863.35809927719
 30
0.0
 11
6534.673057123656
 21
3863.358099277189
 31
0.0
  0
LINE
  5
1A63F
330
747D
100
AcDbEntity
  8
細線
100
AcDbLine
 10
4792.673057123653
 20
2718.35809927719
 30
0.0
 11
6376.673057123655
 21
2718.35809927719
 31
0.0
  0
LINE
  5
1A640
330
747D
100
AcDbEntity
  8
細線
100
AcDbLine
 10
4792.673057123653
 20
2653.35809927719
 30
0.0
 11
6376.673057123655
 21
2653.35809927719
 31
0.0
  0
LINE
  5
1A641
330
747D
100
AcDbEntity
  8
細線
100
AcDbLine
 10
4792.673057123653
 20
2588.35809927719
 30
0.0
 11
6376.673057123655
 21
2588.35809927719
 31
0.0
  0
LINE
  5
1A642
330
747D
100
AcDbEntity
  8
細線
100
AcDbLine
 10
4792.673057123653
 20
2523.35809927719
 30
0.0
 11
6376.673057123655
 21
2523.35809927719
 31
0.0
  0
LINE
  5
1A643
330
747D
100
AcDbEntity
  8
細線
100
AcDbLine
 10
4792.673057123653
 20
2458.35809927719
 30
0.0
 11
6376.673057123655
 21
2458.35809927719
 31
0.0
  0
LINE
  5
1A644
330
747D
100
AcDbEntity
  8
細線
100
AcDbLine
 10
4792.673057123653
 20
2393.35809927719
 30
0.0
 11
6376.673057123655
 21
2393.35809927719
 31
0.0
  0
LINE
  5
1A645
330
747D
100
AcDbEntity
  8
細線
100
AcDbLine
 10
4792.673057123653
 20
2328.35809927719
 30
0.0
 11
6376.673057123655
 21
2328.35809927719
 31
0.0
  0
LINE
  5
1A646
330
747D
100
AcDbEntity
  8
細線
100
AcDbLine
 10
4792.673057123653
 20
2263.35809927719
 30
0.0
 11
6376.673057123655
 21
2263.35809927719
 31
0.0
  0
LINE
  5
1A647
330
747D
100
AcDbEntity
  8
細線
100
AcDbLine
 10
4792.673057123653
 20
3368.35809927719
 30
0.0
 11
6376.673057123655
 21
3368.35809927719
 31
0.0
  0
LINE
  5
1A648
330
747D
100
AcDbEntity
  8
細線
100
AcDbLine
 10
4792.673057123653
 20
3303.35809927719
 30
0.0
 11
6376.673057123655
 21
3303.35809927719
 31
0.0
  0
LINE
  5
1A649
330
747D
100
AcDbEntity
  8
細線
100
AcDbLine
 10
4792.673057123653
 20
3238.35809927719
 30
0.0
 11
6376.673057123655
 21
3238.35809927719
 31
0.0
  0
LINE
  5
1A64A
330
747D
100
AcDbEntity
  8
細線
100
AcDbLine
 10
4792.673057123653
 20
3173.35809927719
 30
0.0
 11
6376.673057123655
 21
3173.35809927719
 31
0.0
  0
LINE
  5
1A64B
330
747D
100
AcDbEntity
  8
細線
100
AcDbLine
 10
4792.673057123653
 20
3108.35809927719
 30
0.0
 11
6376.673057123655
 21
3108.35809927719
 31
0.0
  0
LINE
  5
1A64C
330
747D
100
AcDbEntity
  8
細線
100
AcDbLine
 10
4792.673057123653
 20
3043.35809927719
 30
0.0
 11
6376.673057123655
 21
3043.35809927719
 31
0.0
  0
LINE
  5
1A64D
330
747D
100
AcDbEntity
  8
細線
100
AcDbLine
 10
4792.673057123653
 20
2978.35809927719
 30
0.0
 11
6376.673057123655
 21
2978.35809927719
 31
0.0
  0
LINE
  5
1A64E
330
747D
100
AcDbEntity
  8
細線
100
AcDbLine
 10
4792.673057123653
 20
2913.35809927719
 30
0.0
 11
6376.673057123655
 21
2913.35809927719
 31
0.0
  0
LINE
  5
1A64F
330
747D
100
AcDbEntity
  8
細線
100
AcDbLine
 10
4792.673057123653
 20
2848.35809927719
 30
0.0
 11
6376.673057123655
 21
2848.35809927719
 31
0.0
  0
LINE
  5
1A650
330
747D
100
AcDbEntity
  8
細線
100
AcDbLine
 10
4792.673057123653
 20
2783.35809927719
 30
0.0
 11
6376.673057123655
 21
2783.35809927719
 31
0.0
  0
LINE
  5
1A651
330
747D
100
AcDbEntity
  8
細線
100
AcDbLine
 10
4792.673057123653
 20
3758.358099277189
 30
0.0
 11
6376.673057123655
 21
3758.358099277189
 31
0.0
  0
LINE
  5
1A652
330
747D
100
AcDbEntity
  8
細線
100
AcDbLine
 10
4792.673057123653
 20
3693.35809927719
 30
0.0
 11
6376.673057123655
 21
3693.35809927719
 31
0.0
  0
LINE
  5
1A653
330
747D
100
AcDbEntity
  8
細線
100
AcDbLine
 10
4792.673057123653
 20
3628.35809927719
 30
0.0
 11
6376.673057123655
 21
3628.35809927719
 31
0.0
  0
LINE
  5
1A654
330
747D
100
AcDbEntity
  8
細線
100
AcDbLine
 10
4792.673057123653
 20
3563.35809927719
 30
0.0
 11
6376.673057123655
 21
3563.35809927719
 31
0.0
  0
LINE
  5
1A655
330
747D
100
AcDbEntity
  8
細線
100
AcDbLine
 10
4792.673057123653
 20
3498.35809927719
 30
0.0
 11
6376.673057123655
 21
3498.35809927719
 31
0.0
  0
LINE
  5
1A656
330
747D
100
AcDbEntity
  8
細線
100
AcDbLine
 10
4792.673057123653
 20
3433.35809927719
 30
0.0
 11
6376.673057123655
 21
3433.35809927719
 31
0.0
  0
LINE
  5
1A657
330
747D
100
AcDbEntity
  8
細線
100
AcDbLine
 10
4792.673057123653
 20
3823.35809927719
 30
0.0
 11
6376.673057123655
 21
3823.35809927719
 31
0.0
  0
LINE
  5
1A658
330
747D
100
AcDbEntity
  8
細線
100
AcDbLine
 10
6376.673057123657
 20
2198.35809927719
 30
0.0
 11
4792.673057123651
 21
2198.35809927719
 31
0.0
  0
SPLINE
  5
1A65F
330
747D
100
AcDbEntity
  8
部品1
 48
50.0
100
AcDbSpline
210
0.0
220
0.0
230
1.0
 70
     8
 71
     3
 72
    10
 73
     6
 74
     4
 42
0.0000000001
 43
0.0000000001
 44
0.0000000001
 40
0.0
 40
0.0
 40
0.0
 40
0.0
 40
147.8767566010009
 40
301.8091093202477
 40
466.5049223087716
 40
466.5049223087716
 40
466.5049223087716
 40
466.5049223087716
 10
5652.243384856713
 20
10239.48020604245
 30
0.0
 10
5575.361702361878
 20
10230.57577238461
 30
0.0
 10
5418.450010151748
 20
10212.40226592528
 30
0.0
 10
5741.263420096095
 20
10109.88168128594
 30
0.0
 10
5571.420800426721
 20
10091.24659257374
 30
0.0
 10
5483.630795219827
 20
10081.61429569643
 30
0.0
 11
5652.243384856713
 21
10239.48020604245
 31
0.0
 11
5509.405406547943
 21
10201.20688510612
 31
0.0
 11
5642.714734467118
 21
10124.2407087465
 31
0.0
 11
5483.630795219827
 21
10081.61429569643
 31
0.0
  0
LINE
  5
1A660
330
747D
100
AcDbEntity
  8
部品1
 48
50.0
100
AcDbLine
 10
5631.205796679212
 20
10331.90160175334
 30
0.0
 11
5538.140317568111
 21
9984.576505279978
 31
0.0
  0
SPLINE
  5
1A667
330
747D
100
AcDbEntity
  8
部品1
 48
50.0
100
AcDbSpline
210
0.0
220
0.0
230
1.0
 70
     8
 71
     3
 72
    10
 73
     6
 74
     4
 42
0.0000000001
 43
0.0000000001
 44
0.0000000001
 40
0.0
 40
0.0
 40
0.0
 40
0.0
 40
147.8767566010009
 40
301.8091093202477
 40
466.5049223087716
 40
466.5049223087716
 40
466.5049223087716
 40
466.5049223087716
 10
5652.243384856698
 20
7276.480206042332
 30
0.0
 10
5575.361702361863
 20
7267.575772384493
 30
0.0
 10
5418.450010151735
 20
7249.40226592516
 30
0.0
 10
5741.263420096079
 20
7146.881681285821
 30
0.0
 10
5571.420800426705
 20
7128.246592573614
 30
0.0
 10
5483.630795219813
 20
7118.614295696307
 30
0.0
 11
5652.243384856698
 21
7276.480206042332
 31
0.0
 11
5509.405406547928
 21
7238.206885106002
 31
0.0
 11
5642.714734467102
 21
7161.24070874638
 31
0.0
 11
5483.630795219813
 21
7118.614295696307
 31
0.0
  0
LINE
  5
1A668
330
747D
100
AcDbEntity
  8
部品1
 48
50.0
100
AcDbLine
 10
5631.205796679198
 20
7368.901601753221
 30
0.0
 11
5538.140317568097
 21
7021.576505279856
 31
0.0
  0
LINE
  5
1A66F
330
747D
100
AcDbEntity
  8
部品1
 48
50.0
100
AcDbLine
 10
5939.962621336507
 20
4401.816804318568
 30
0.0
 11
5229.383492910797
 21
1749.899394235811
 31
0.0
  0
SPLINE
  5
1A670
330
747D
100
AcDbEntity
  8
部品1
 48
50.0
100
AcDbSpline
210
0.0
220
0.0
230
1.0
 70
     8
 71
     3
 72
    10
 73
     6
 74
     4
 42
0.0000000001
 43
0.0000000001
 44
0.0000000001
 40
0.0
 40
0.0
 40
0.0
 40
0.0
 40
147.8767566010009
 40
301.8091093202477
 40
466.5049223087734
 40
466.5049223087734
 40
466.5049223087734
 40
466.5049223087734
 10
5652.243384856703
 20
3157.099251802983
 30
0.0
 10
5575.361702361869
 20
3148.194818145145
 30
0.0
 10
5418.450010151741
 20
3130.021311685812
 30
0.0
 10
5741.263420096084
 20
3027.50072704647
 30
0.0
 10
5571.420800426711
 20
3008.865638334267
 30
0.0
 10
5483.630795219816
 20
2999.233341456958
 30
0.0
 11
5652.243384856703
 21
3157.099251802983
 31
0.0
 11
5509.405406547934
 21
3118.825930866654
 31
0.0
 11
5642.714734467109
 21
3041.859754507031
 31
0.0
 11
5483.630795219816
 21
2999.233341456958
 31
0.0
  0
ENDSEC
  0
SECTION
  2
OBJECTS
  0
DICTIONARY
  5
7471
330
0
100
AcDbDictionary
281
     1
  3
ACAD_COLOR
350
17AE2
  3
ACAD_GROUP
350
7472
  3
ACAD_LAYOUT
350
17AE3
  3
ACAD_MATERIAL
350
17AE1
  3
ACAD_MLINESTYLE
350
7473
  3
ACAD_PLOTSETTINGS
350
17AE4
  3
ACAD_PLOTSTYLENAME
350
17ADF
  3
ACDBHEADERROUNDTRIPXREC
350
1A6C8
  3
AcDbVariableDictionary
350
1A6C4
  3
CONTENTDICTIONARY
350
E71C
  3
DRAWINGVARIABLESDICT
350
F3B9
  0
DICTIONARY
  5
1926C
330
7467
100
AcDbDictionary
280
     1
281
     1
  3
ACAD_LAYERSTATES
360
1926D
  0
DICTIONARY
  5
17AE2
102
{ACAD_REACTORS
330
7471
102
}
330
7471
100
AcDbDictionary
281
     1
  0
DICTIONARY
  5
7472
102
{ACAD_REACTORS
330
7471
102
}
330
7471
100
AcDbDictionary
281
     1
  3
*A1
350
17FA7
  3
*A2
350
180C7
  3
*A3
350
180D2
  3
*A4
350
18B09
  0
DICTIONARY
  5
17AE3
102
{ACAD_REACTORS
330
7471
102
}
330
7471
100
AcDbDictionary
281
     1
  3
Model
350
17AE5
  3
レイアウト1
350
17AE6
  0
DICTIONARY
  5
17AE1
102
{ACAD_REACTORS
330
7471
102
}
330
7471
100
AcDbDictionary
281
     1
  0
DICTIONARY
  5
7473
102
{ACAD_REACTORS
330
7471
102
}
330
7471
100
AcDbDictionary
281
     1
  3
STANDARD
350
7480
  0
DICTIONARY
  5
17AE4
102
{ACAD_REACTORS
330
7471
102
}
330
7471
100
AcDbDictionary
281
     1
  0
ACDBDICTIONARYWDFLT
  5
17ADF
102
{ACAD_REACTORS
330
7471
102
}
330
7471
100
AcDbDictionary
281
     1
  3
Normal
350
17AE0
100
AcDbDictionaryWithDefault
340
17AE0
  0
DICTIONARY
  5
1A6C8
102
{ACAD_REACTORS
330
7471
102
}
330
7471
100
AcDbDictionary
281
     1
  3
COLORDICT
350
1A6CA
  3
MATERIALDICT
350
1A6C9
  0
DICTIONARY
  5
1A6C4
102
{ACAD_REACTORS
330
7471
102
}
330
7471
100
AcDbDictionary
281
     1
  3
DIMASSOC
350
1A6C5
  3
PROJECTNAME
350
1A6C6
  0
DICTIONARY
  5
E71C
102
{ACAD_REACTORS
330
7471
102
}
330
7471
100
AcDbDictionary
281
     1
  0
DICTIONARY
  5
F3B9
102
{ACAD_REACTORS
330
7471
102
}
330
7471
100
AcDbDictionary
281
     1
1001
DRAWINGVARIABLESXDATA
1000
POLARMODE
1000
1
  0
DICTIONARY
  5
1926D
102
{ACAD_REACTORS
330
1926C
102
}
330
1926C
100
AcDbDictionary
281
     1
  0
GROUP
  5
17FA7
102
{ACAD_REACTORS
330
7472
102
}
330
7472
100
AcDbGroup
300

 70
     1
 71
     1
  0
GROUP
  5
180C7
102
{ACAD_REACTORS
330
7472
102
}
330
7472
100
AcDbGroup
300

 70
     1
 71
     1
  0
GROUP
  5
180D2
102
{ACAD_REACTORS
330
7472
102
}
330
7472
100
AcDbGroup
300

 70
     1
 71
     1
  0
GROUP
  5
18B09
102
{ACAD_REACTORS
330
7472
102
}
330
7472
100
AcDbGroup
300

 70
     1
 71
     1
  0
LAYOUT
  5
17AE5
102
{ACAD_XDICTIONARY
360
1A6CB
102
}
102
{ACAD_REACTORS
330
17AE3
102
}
330
17AE3
100
AcDbPlotSettings
  1

  2
Canon iR C3880/C4580 LIPSLX
  4
A3
  6

 40
5.873749732971191
 41
5.873747825622558
 42
5.873748779296875
 43
5.873748779296875
 44
296.9259948730469
 45
419.9466552734374
 46
0.0
 47
0.0
 48
0.0
 49
0.0
140
0.0
141
0.0
142
1.0
143
40.0
 70
 11952
 72
     1
 73
     1
 74
     1
  7
inaba.ctb
 75
    24
147
0.025
148
-139.196816621341
149
0.5825882092758548
100
AcDbLayout
  1
Model
 70
     1
 71
     0
 10
0.0
 20
0.0
 11
12.0
 21
9.0
 12
0.0
 22
0.0
 32
0.0
 14
0.0
 24
0.0
 34
0.0
 15
0.0
 25
0.0
 35
0.0
146
0.0
 13
0.0
 23
0.0
 33
0.0
 16
1.0
 26
0.0
 36
0.0
 17
0.0
 27
1.0
 37
0.0
 76
     0
330
747D
  0
LAYOUT
  5
17AE6
102
{ACAD_XDICTIONARY
360
1A6CD
102
}
102
{ACAD_REACTORS
330
17AE3
102
}
330
17AE3
100
AcDbPlotSettings
  1

  2
EPSON LP-8300
  4

  6

 40
0.0
 41
0.0
 42
0.0
 43
0.0
 44
0.0
 45
0.0
 46
0.0
 47
0.0
 48
0.0
 49
0.0
140
0.0
141
0.0
142
1.0
143
1.0
 70
   688
 72
     0
 73
     0
 74
     5
  7
inaba.ctb
 75
    16
147
1.0
148
0.0
149
0.0
100
AcDbLayout
  1
レイアウト1
 70
     0
 71
     1
 10
0.0
 20
0.0
 11
420.0
 21
297.0
 12
0.0
 22
0.0
 32
0.0
 14
1.000000000000000E+20
 24
1.000000000000000E+20
 34
1.000000000000000E+20
 15
-1.000000000000000E+20
 25
-1.000000000000000E+20
 35
-1.000000000000000E+20
146
0.0
 13
0.0
 23
0.0
 33
0.0
 16
1.0
 26
0.0
 36
0.0
 17
0.0
 27
1.0
 37
0.0
 76
     0
330
747A
  0
MLINESTYLE
  5
7480
102
{ACAD_REACTORS
330
7473
102
}
330
7473
100
AcDbMlineStyle
  2
STANDARD
 70
     0
  3

 62
     0
 51
90.0
 52
90.0
 71
     2
 49
0.5
 62
   256
  6
BYLAYER
 49
-0.5
 62
   256
  6
BYLAYER
  0
ACDBPLACEHOLDER
  5
17AE0
102
{ACAD_REACTORS
330
17ADF
102
}
330
17ADF
  0
XRECORD
  5
1A6CA
102
{ACAD_REACTORS
330
1A6C8
102
}
330
1A6C8
100
AcDbXrecord
280
     1
340
17AE2
  0
XRECORD
  5
1A6C9
102
{ACAD_REACTORS
330
1A6C8
102
}
330
1A6C8
100
AcDbXrecord
280
     1
340
17AE1
  0
DICTIONARYVAR
  5
1A6C5
102
{ACAD_REACTORS
330
1A6C4
102
}
330
1A6C4
100
DictionaryVariables
280
     0
  1
1
  0
DICTIONARYVAR
  5
1A6C6
102
{ACAD_REACTORS
330
1A6C4
102
}
330
1A6C4
100
DictionaryVariables
280
     0
  1

  0
DICTIONARY
  5
1A6CB
330
17AE5
100
AcDbDictionary
280
     1
281
     1
  3
ACAD_XREC_ROUNDTRIP
360
1A6CC
  0
DICTIONARY
  5
1A6CD
330
17AE6
100
AcDbDictionary
280
     1
281
     1
  3
ACAD_XREC_ROUNDTRIP
360
1A6CE
  0
XRECORD
  5
1A6CC
102
{ACAD_REACTORS
330
1A6CB
102
}
330
1A6CB
100
AcDbXrecord
280
     1
102
SHADEPLOT
 70
     0
102
SHADEPLOTRESLEVEL
 70
     2
102
SHADEPLOTCUSTOMDPI
 70
   300
  0
XRECORD
  5
1A6CE
102
{ACAD_REACTORS
330
1A6CD
102
}
330
1A6CD
100
AcDbXrecord
280
     1
102
SHADEPLOT
 70
     0
102
SHADEPLOTRESLEVEL
 70
     2
102
SHADEPLOTCUSTOMDPI
 70
   300
  0
ENDSEC
  0
EOF
