  0
SECTION
  2
HEADER
  9
$ACADVER
  1
AC1015
  9
$ACADMAINTVER
 70
    20
  9
$DWGCODEPAGE
  3
ANSI_932
  9
$INSBASE
 10
0.0
 20
0.0
 30
0.0
  9
$EXTMIN
 10
139.9999999999995
 20
-0.0000000000000909
 30
0.0
  9
$EXTMAX
 10
16307.2
 20
11409.6
 30
0.0
  9
$LIMMIN
 10
0.0
 20
0.0
  9
$LIMMAX
 10
16800.0
 20
11880.0
  9
$ORTHOMODE
 70
     0
  9
$REGENMODE
 70
     1
  9
$FILLMODE
 70
     1
  9
$QTEXTMODE
 70
     0
  9
$MIRRTEXT
 70
     1
  9
$LTSCALE
 40
20.0
  9
$ATTMODE
 70
     1
  9
$TEXTSIZE
 40
4.0
  9
$TRACEWID
 40
1.0
  9
$TEXTSTYLE
  7
MSPゴシック
  9
$CLAYER
  8
寸法
  9
$CELTYPE
  6
BYLAYER
  9
$CECOLOR
 62
   256
  9
$CELTSCALE
 40
50.0
  9
$DISPSILH
 70
     0
  9
$DIMSCALE
 40
40.0
  9
$DIMASZ
 40
2.5
  9
$DIMEXO
 40
0.5
  9
$DIMDLI
 40
7.0
  9
$DIMRND
 40
0.0
  9
$DIMDLE
 40
0.0
  9
$DIMEXE
 40
1.5
  9
$DIMTP
 40
0.0
  9
$DIMTM
 40
0.0
  9
$DIMTXT
 40
3.0
  9
$DIMCEN
 40
0.0
  9
$DIMTSZ
 40
0.0
  9
$DIMTOL
 70
     0
  9
$DIMLIM
 70
     0
  9
$DIMTIH
 70
     0
  9
$DIMTOH
 70
     0
  9
$DIMSE1
 70
     0
  9
$DIMSE2
 70
     0
  9
$DIMTAD
 70
     3
  9
$DIMZIN
 70
     8
  9
$DIMBLK
  1

  9
$DIMASO
 70
     1
  9
$DIMSHO
 70
     1
  9
$DIMPOST
  1

  9
$DIMAPOST
  1

  9
$DIMALT
 70
     0
  9
$DIMALTD
 70
     2
  9
$DIMALTF
 40
0.0394
  9
$DIMLFAC
 40
1.0
  9
$DIMTOFL
 70
     1
  9
$DIMTVP
 40
0.0
  9
$DIMTIX
 70
     1
  9
$DIMSOXD
 70
     0
  9
$DIMSAH
 70
     1
  9
$DIMBLK1
  1
DOTSMALL
  9
$DIMBLK2
  1
DOTSMALL
  9
$DIMSTYLE
  2
INABA_S40G
  9
$DIMCLRD
 70
     0
  9
$DIMCLRE
 70
     0
  9
$DIMCLRT
 70
     7
  9
$DIMTFAC
 40
1.0
  9
$DIMGAP
 40
1.0
  9
$DIMJUST
 70
     0
  9
$DIMSD1
 70
     0
  9
$DIMSD2
 70
     0
  9
$DIMTOLJ
 70
     1
  9
$DIMTZIN
 70
     0
  9
$DIMALTZ
 70
     0
  9
$DIMALTTZ
 70
     0
  9
$DIMUPT
 70
     0
  9
$DIMDEC
 70
     1
  9
$DIMTDEC
 70
     4
  9
$DIMALTU
 70
     2
  9
$DIMALTTD
 70
     2
  9
$DIMTXSTY
  7
STYLE1
  9
$DIMAUNIT
 70
     0
  9
$DIMADEC
 70
     0
  9
$DIMALTRND
 40
0.0
  9
$DIMAZIN
 70
     0
  9
$DIMDSEP
 70
    46
  9
$DIMATFIT
 70
     3
  9
$DIMFRAC
 70
     0
  9
$DIMLDRBLK
  1

  9
$DIMLUNIT
 70
     2
  9
$DIMLWD
 70
    -2
  9
$DIMLWE
 70
    -2
  9
$DIMTMOVE
 70
     2
  9
$LUNITS
 70
     2
  9
$LUPREC
 70
     1
  9
$SKETCHINC
 40
1.0
  9
$FILLETRAD
 40
3.0
  9
$AUNITS
 70
     0
  9
$AUPREC
 70
     0
  9
$MENU
  1
acad
  9
$ELEVATION
 40
0.0
  9
$PELEVATION
 40
0.0
  9
$THICKNESS
 40
0.0
  9
$LIMCHECK
 70
     0
  9
$CHAMFERA
 40
0.0
  9
$CHAMFERB
 40
0.0
  9
$CHAMFERC
 40
0.0
  9
$CHAMFERD
 40
0.0
  9
$SKPOLY
 70
     0
  9
$TDCREATE
 40
2451368.612993866
  9
$TDUCREATE
 40
2451368.237993866
  9
$TDUPDATE
 40
2455569.643846933
  9
$TDUUPDATE
 40
2455569.268846933
  9
$TDINDWG
 40
0.8563653819
  9
$TDUSRTIMER
 40
0.8563653819
  9
$USRTIMER
 70
     1
  9
$ANGBASE
 50
0.0
  9
$ANGDIR
 70
     0
  9
$PDMODE
 70
     3
  9
$PDSIZE
 40
2.0
  9
$PLINEWID
 40
0.0
  9
$SPLFRAME
 70
     0
  9
$SPLINETYPE
 70
     6
  9
$SPLINESEGS
 70
     8
  9
$HANDSEED
  5
1A2AF
  9
$SURFTAB1
 70
     6
  9
$SURFTAB2
 70
     6
  9
$SURFTYPE
 70
     6
  9
$SURFU
 70
     6
  9
$SURFV
 70
     6
  9
$UCSBASE
  2

  9
$UCSNAME
  2

  9
$UCSORG
 10
0.0
 20
0.0
 30
0.0
  9
$UCSXDIR
 10
1.0
 20
0.0
 30
0.0
  9
$UCSYDIR
 10
0.0
 20
1.0
 30
0.0
  9
$UCSORTHOREF
  2

  9
$UCSORTHOVIEW
 70
     0
  9
$UCSORGTOP
 10
0.0
 20
0.0
 30
0.0
  9
$UCSORGBOTTOM
 10
0.0
 20
0.0
 30
0.0
  9
$UCSORGLEFT
 10
0.0
 20
0.0
 30
0.0
  9
$UCSORGRIGHT
 10
0.0
 20
0.0
 30
0.0
  9
$UCSORGFRONT
 10
0.0
 20
0.0
 30
0.0
  9
$UCSORGBACK
 10
0.0
 20
0.0
 30
0.0
  9
$PUCSBASE
  2

  9
$PUCSNAME
  2

  9
$PUCSORG
 10
0.0
 20
0.0
 30
0.0
  9
$PUCSXDIR
 10
1.0
 20
0.0
 30
0.0
  9
$PUCSYDIR
 10
0.0
 20
1.0
 30
0.0
  9
$PUCSORTHOREF
  2

  9
$PUCSORTHOVIEW
 70
     0
  9
$PUCSORGTOP
 10
0.0
 20
0.0
 30
0.0
  9
$PUCSORGBOTTOM
 10
0.0
 20
0.0
 30
0.0
  9
$PUCSORGLEFT
 10
0.0
 20
0.0
 30
0.0
  9
$PUCSORGRIGHT
 10
0.0
 20
0.0
 30
0.0
  9
$PUCSORGFRONT
 10
0.0
 20
0.0
 30
0.0
  9
$PUCSORGBACK
 10
0.0
 20
0.0
 30
0.0
  9
$USERI1
 70
     0
  9
$USERI2
 70
     0
  9
$USERI3
 70
     0
  9
$USERI4
 70
     0
  9
$USERI5
 70
     0
  9
$USERR1
 40
0.0
  9
$USERR2
 40
0.0
  9
$USERR3
 40
0.0
  9
$USERR4
 40
0.0
  9
$USERR5
 40
0.0
  9
$WORLDVIEW
 70
     1
  9
$SHADEDGE
 70
     3
  9
$SHADEDIF
 70
    70
  9
$TILEMODE
 70
     1
  9
$MAXACTVP
 70
    16
  9
$PINSBASE
 10
0.0
 20
0.0
 30
0.0
  9
$PLIMCHECK
 70
     0
  9
$PEXTMIN
 10
1.000000000000000E+20
 20
1.000000000000000E+20
 30
1.000000000000000E+20
  9
$PEXTMAX
 10
-1.000000000000000E+20
 20
-1.000000000000000E+20
 30
-1.000000000000000E+20
  9
$PLIMMIN
 10
0.0
 20
0.0
  9
$PLIMMAX
 10
420.0
 20
297.0
  9
$UNITMODE
 70
     0
  9
$VISRETAIN
 70
     0
  9
$PLINEGEN
 70
     0
  9
$PSLTSCALE
 70
     0
  9
$TREEDEPTH
 70
  3020
  9
$CMLSTYLE
  2
STANDARD
  9
$CMLJUST
 70
     0
  9
$CMLSCALE
 40
1.0
  9
$PROXYGRAPHICS
 70
     1
  9
$MEASUREMENT
 70
     1
  9
$CELWEIGHT
370
    -1
  9
$ENDCAPS
280
     0
  9
$JOINSTYLE
280
     0
  9
$LWDISPLAY
290
     0
  9
$INSUNITS
 70
     0
  9
$HYPERLINKBASE
  1

  9
$STYLESHEET
  1
inaba.ctb
  9
$XEDIT
290
     1
  9
$CEPSNTYPE
380
     0
  9
$PSTYLEMODE
290
     1
  9
$FINGERPRINTGUID
  2
{0E4A3AB3-ADAA-44DC-861C-9525B65BB1EC}
  9
$VERSIONGUID
  2
{4FF6E73A-51C1-4FFE-BEB6-714500F039FC}
  9
$EXTNAMES
290
     1
  9
$PSVPSCALE
 40
0.0
  9
$OLESTARTUP
290
     0
  0
ENDSEC
  0
SECTION
  2
CLASSES
  0
CLASS
  1
ACDBDICTIONARYWDFLT
  2
AcDbDictionaryWithDefault
  3
ObjectDBX Classes
 90
        0
280
     0
281
     0
  0
CLASS
  1
DICTIONARYVAR
  2
AcDbDictionaryVar
  3
ObjectDBX Classes
 90
        0
280
     0
281
     0
  0
CLASS
  1
ACDBPLACEHOLDER
  2
AcDbPlaceHolder
  3
ObjectDBX Classes
 90
        0
280
     0
281
     0
  0
CLASS
  1
LAYOUT
  2
AcDbLayout
  3
ObjectDBX Classes
 90
        0
280
     0
281
     0
  0
ENDSEC
  0
SECTION
  2
TABLES
  0
TABLE
  2
VPORT
  5
746D
330
0
100
AcDbSymbolTable
 70
     2
  0
VPORT
  5
1A2A7
330
746D
100
AcDbSymbolTableRecord
100
AcDbViewportTableRecord
  2
*Active
 70
     0
 10
0.0
 20
0.0
 11
1.0
 21
1.0
 12
11720.08798000114
 22
5704.77863699966
 13
0.0
 23
0.0
 14
10.0
 24
10.0
 15
10.0
 25
10.0
 16
0.0
 26
0.0
 36
1.0
 17
0.0
 27
0.0
 37
0.0
 40
11513.38691418082
 41
2.234800838574423
 42
50.0
 43
0.0
 44
0.0
 50
0.0
 51
0.0
 71
     0
 72
     0
 73
     1
 74
     0
 75
     0
 76
     0
 77
     0
 78
     0
281
     0
 65
     1
110
0.0
120
0.0
130
0.0
111
1.0
121
0.0
131
0.0
112
0.0
122
1.0
132
0.0
 79
     0
146
0.0
  0
ENDTAB
  0
TABLE
  2
LTYPE
  5
746A
330
0
100
AcDbSymbolTable
 70
     3
  0
LTYPE
  5
7477
330
746A
100
AcDbSymbolTableRecord
100
AcDbLinetypeTableRecord
  2
BYBLOCK
 70
     0
  3

 72
    65
 73
     0
 40
0.0
  0
LTYPE
  5
7478
330
746A
100
AcDbSymbolTableRecord
100
AcDbLinetypeTableRecord
  2
BYLAYER
 70
     0
  3

 72
    65
 73
     0
 40
0.0
  0
LTYPE
  5
7479
330
746A
100
AcDbSymbolTableRecord
100
AcDbLinetypeTableRecord
  2
CONTINUOUS
 70
     0
  3
Solid line
 72
    65
 73
     0
 40
0.0
  0
LTYPE
  5
781A
330
746A
100
AcDbSymbolTableRecord
100
AcDbLinetypeTableRecord
  2
HIDDEN
 70
     0
  3
__ __ __ __ __ __ __ __ __ __ __ __ __ __ __ __
 72
    65
 73
     2
 40
0.375
 49
0.25
 74
     0
 49
-0.125
 74
     0
  0
LTYPE
  5
781B
330
746A
100
AcDbSymbolTableRecord
100
AcDbLinetypeTableRecord
  2
PHANTOM
 70
     0
  3
______  __  __  ______  __  __  ______  __  __ 
 72
    65
 73
     6
 40
2.5
 49
1.25
 74
     0
 49
-0.25
 74
     0
 49
0.25
 74
     0
 49
-0.25
 74
     0
 49
0.25
 74
     0
 49
-0.25
 74
     0
  0
ENDTAB
  0
TABLE
  2
LAYER
  5
7467
102
{ACAD_XDICTIONARY
360
19406
102
}
330
0
100
AcDbSymbolTable
 70
    10
  0
LAYER
  5
7474
330
7467
100
AcDbSymbolTableRecord
100
AcDbLayerTableRecord
  2
0
 70
     0
 62
     7
  6
CONTINUOUS
370
    -3
390
17AE0
  0
LAYER
  5
DEB3
330
7467
100
AcDbSymbolTableRecord
100
AcDbLayerTableRecord
  2
寸法
 70
     0
 62
     4
  6
CONTINUOUS
370
    -3
390
17AE0
  0
LAYER
  5
DEB4
330
7467
100
AcDbSymbolTableRecord
100
AcDbLayerTableRecord
  2
部品1
 70
     0
 62
     7
  6
CONTINUOUS
370
    -3
390
17AE0
  0
LAYER
  5
DEB5
330
7467
100
AcDbSymbolTableRecord
100
AcDbLayerTableRecord
  2
補助
 70
     0
 62
    -1
  6
CONTINUOUS
370
    -3
390
17AE0
  0
LAYER
  5
DEB6
330
7467
100
AcDbSymbolTableRecord
100
AcDbLayerTableRecord
  2
文字
 70
     0
 62
     7
  6
CONTINUOUS
370
    -3
390
17AE0
  0
LAYER
  5
F255
330
7467
100
AcDbSymbolTableRecord
100
AcDbLayerTableRecord
  2
DEFPOINTS
 70
     0
 62
     7
  6
CONTINUOUS
290
     0
370
    -3
390
17AE0
  0
LAYER
  5
10B54
330
7467
100
AcDbSymbolTableRecord
100
AcDbLayerTableRecord
  2
仕様書枠
 70
     0
 62
   230
  6
CONTINUOUS
370
    -3
390
17AE0
  0
LAYER
  5
11729
330
7467
100
AcDbSymbolTableRecord
100
AcDbLayerTableRecord
  2
Ｇ．Ｌ
 70
     0
 62
    30
  6
CONTINUOUS
370
    -3
390
17AE0
  0
LAYER
  5
1173F
330
7467
100
AcDbSymbolTableRecord
100
AcDbLayerTableRecord
  2
細線
 70
     0
 62
     5
  6
CONTINUOUS
370
    -3
390
17AE0
  0
LAYER
  5
142E2
330
7467
100
AcDbSymbolTableRecord
100
AcDbLayerTableRecord
  2
破線
 70
     0
 62
     2
  6
HIDDEN
370
    -3
390
17AE0
  0
ENDTAB
  0
TABLE
  2
STYLE
  5
7468
330
0
100
AcDbSymbolTable
 70
     7
  0
STYLE
  5
7475
330
7468
100
AcDbSymbolTableRecord
100
AcDbTextStyleTableRecord
  2
STANDARD
 70
     0
 40
0.0
 41
1.0
 50
0.0
 71
     0
 42
4.0
  3
txt
  4
C:\AutoCAD LT\bigfont.shx
  0
STYLE
  5
763C
330
7468
100
AcDbSymbolTableRecord
100
AcDbTextStyleTableRecord
  2
MSMINCHO
 70
     0
 40
0.0
 41
1.0
 50
0.0
 71
     0
 42
1.199999999999999
  3
MS PMincho.ttf
  4

1001
ACAD
1000
MS PMincho
1071
    32786
  0
STYLE
  5
F706
330
7468
100
AcDbSymbolTableRecord
100
AcDbTextStyleTableRecord
  2
STYLE1
 70
     0
 40
0.0
 41
1.0
 50
0.0
 71
     0
 42
4.0
  3
isocp.shx
  4
bigfont.shx
  0
STYLE
  5
103BF
330
7468
100
AcDbSymbolTableRecord
100
AcDbTextStyleTableRecord
  2
STYLE2
 70
     0
 40
0.0
 41
1.0
 50
0.0
 71
     0
 42
100.0
  3
MS PGothic.ttf
  4

1001
ACAD
1000
MS PGothic
1071
    32818
  0
STYLE
  5
10BAA
330
7468
100
AcDbSymbolTableRecord
100
AcDbTextStyleTableRecord
  2
STYLE3
 70
     0
 40
0.0
 41
1.0
 50
0.0
 71
     0
 42
100.0
  3
DFPGothic-EB.ttf
  4

1001
ACAD
1000
DFPGothic-EB
1071
    32818
  0
STYLE
  5
11A15
330
7468
100
AcDbSymbolTableRecord
100
AcDbTextStyleTableRecord
  2
MSGOTHIC
 70
     0
 40
0.0
 41
1.0
 50
0.0
 71
     0
 42
3.5
  3
MS PGothic.ttf
  4

1001
ACAD
1000
MS PGothic
1071
    32818
  0
STYLE
  5
13E96
330
7468
100
AcDbSymbolTableRecord
100
AcDbTextStyleTableRecord
  2
MSPゴシック
 70
     0
 40
0.0
 41
1.0
 50
0.0
 71
     0
 42
4.0
  3
MS PGothic.ttf
  4

1001
ACAD
1000
MS PGothic
1071
    32818
  0
ENDTAB
  0
TABLE
  2
VIEW
  5
746B
330
0
100
AcDbSymbolTable
 70
     0
  0
ENDTAB
  0
TABLE
  2
UCS
  5
746C
330
0
100
AcDbSymbolTable
 70
     0
  0
ENDTAB
  0
TABLE
  2
APPID
  5
746E
330
0
100
AcDbSymbolTable
 70
     6
  0
APPID
  5
7476
330
746E
100
AcDbSymbolTableRecord
100
AcDbRegAppTableRecord
  2
ACAD
 70
     0
  0
APPID
  5
DEA9
330
746E
100
AcDbSymbolTableRecord
100
AcDbRegAppTableRecord
  2
CONTENTBLOCKICON
 70
     0
  0
APPID
  5
DEAA
330
746E
100
AcDbSymbolTableRecord
100
AcDbRegAppTableRecord
  2
CONTENTBLOCKDESCRIPTION
 70
     0
  0
APPID
  5
E71D
330
746E
100
AcDbSymbolTableRecord
100
AcDbRegAppTableRecord
  2
CONTENTTABDATA
 70
     0
  0
APPID
  5
E71E
330
746E
100
AcDbSymbolTableRecord
100
AcDbRegAppTableRecord
  2
CONTENTCURRENTTAB
 70
     0
  0
APPID
  5
F3BA
330
746E
100
AcDbSymbolTableRecord
100
AcDbRegAppTableRecord
  2
DRAWINGVARIABLESXDATA
 70
     0
  0
ENDTAB
  0
TABLE
  2
DIMSTYLE
  5
746F
330
0
100
AcDbSymbolTable
 70
     1
100
AcDbDimStyleTable
 71
     1
340
F71F
  0
DIMSTYLE
105
F71F
102
{ACAD_REACTORS
330
162CD
330
162CE
330
162CF
330
162D0
330
162E4
330
162E7
330
162EA
330
162EB
330
16301
330
16302
330
1631F
330
16320
330
16333
330
1659C
330
1659A
330
165E9
330
16913
330
17BC3
330
17B87
330
17B88
330
17B86
330
195AF
330
195B0
330
195B1
330
195E1
330
195E5
330
195E6
330
195E7
330
195F5
330
19604
330
19ED3
330
19ED4
330
19ED2
330
19ED1
330
1A104
330
1A105
330
1A106
102
}
330
746F
100
AcDbSymbolTableRecord
100
AcDbDimStyleTableRecord
  2
INABA_S40G
 70
     0
 40
40.0
 41
2.5
 42
0.5
 43
7.0
 44
1.5
 73
     0
 74
     0
 77
     3
 78
     8
140
3.0
141
0.0
143
0.0394
147
1.0
172
     1
173
     1
174
     1
178
     7
271
     1
340
F706
341
F770
343
F770
344
F770
  0
ENDTAB
  0
TABLE
  2
BLOCK_RECORD
  5
7466
330
0
100
AcDbSymbolTable
 70
    38
  0
BLOCK_RECORD
  5
747D
330
7466
100
AcDbSymbolTableRecord
100
AcDbBlockTableRecord
  2
*MODEL_SPACE
340
17AE5
  0
BLOCK_RECORD
  5
747A
330
7466
100
AcDbSymbolTableRecord
100
AcDbBlockTableRecord
  2
*PAPER_SPACE
340
17AE6
  0
BLOCK_RECORD
  5
F770
330
7466
100
AcDbSymbolTableRecord
100
AcDbBlockTableRecord
  2
_DOTSMALL
340
0
102
{BLKREFS
331
1902D
331
1902E
331
19038
331
19039
331
19041
331
19042
331
1904A
331
1904B
331
19052
331
19053
331
1905C
331
1905D
331
19067
331
19068
331
19072
331
19073
331
1907C
331
1907D
331
19087
331
19088
331
19090
331
19091
331
1909B
331
1909C
331
190A7
331
190A8
331
190B2
331
190B3
331
190BC
331
190BD
331
190C5
331
190C6
331
190CD
331
190CE
331
190D6
331
190D7
331
190E1
331
190E2
331
190EC
331
190ED
331
190F5
331
190F6
331
19B3D
331
19B3E
331
19B47
331
19B48
331
19B5B
331
19B5C
331
19B6F
331
19B70
331
19B78
331
19B79
331
19B81
331
19B82
331
19B8A
331
19B8B
331
19F81
331
19F82
331
19F8C
331
19F8D
331
19F95
331
19F96
331
19F9E
331
19F9F
331
1A1F9
331
1A1FA
331
1A26A
331
1A26B
331
1A273
331
1A274
331
1A28A
331
1A28B
331
1A293
331
1A294
102
}
  0
BLOCK_RECORD
  5
16338
330
7466
100
AcDbSymbolTableRecord
100
AcDbBlockTableRecord
  2
*D1
340
0
  0
BLOCK_RECORD
  5
16344
330
7466
100
AcDbSymbolTableRecord
100
AcDbBlockTableRecord
  2
*D2
340
0
  0
BLOCK_RECORD
  5
16352
330
7466
100
AcDbSymbolTableRecord
100
AcDbBlockTableRecord
  2
*D3
340
0
  0
BLOCK_RECORD
  5
16360
330
7466
100
AcDbSymbolTableRecord
100
AcDbBlockTableRecord
  2
*D4
340
0
  0
BLOCK_RECORD
  5
16384
330
7466
100
AcDbSymbolTableRecord
100
AcDbBlockTableRecord
  2
*D5
340
0
  0
BLOCK_RECORD
  5
1638F
330
7466
100
AcDbSymbolTableRecord
100
AcDbBlockTableRecord
  2
*D6
340
0
  0
BLOCK_RECORD
  5
1639B
330
7466
100
AcDbSymbolTableRecord
100
AcDbBlockTableRecord
  2
*D7
340
0
  0
BLOCK_RECORD
  5
163A9
330
7466
100
AcDbSymbolTableRecord
100
AcDbBlockTableRecord
  2
*D8
340
0
  0
BLOCK_RECORD
  5
163B8
330
7466
100
AcDbSymbolTableRecord
100
AcDbBlockTableRecord
  2
*D9
340
0
  0
BLOCK_RECORD
  5
163C7
330
7466
100
AcDbSymbolTableRecord
100
AcDbBlockTableRecord
  2
*D10
340
0
  0
BLOCK_RECORD
  5
163E1
330
7466
100
AcDbSymbolTableRecord
100
AcDbBlockTableRecord
  2
*D11
340
0
  0
BLOCK_RECORD
  5
163ED
330
7466
100
AcDbSymbolTableRecord
100
AcDbBlockTableRecord
  2
*D12
340
0
  0
BLOCK_RECORD
  5
163FB
330
7466
100
AcDbSymbolTableRecord
100
AcDbBlockTableRecord
  2
*D13
340
0
  0
BLOCK_RECORD
  5
165B5
330
7466
100
AcDbSymbolTableRecord
100
AcDbBlockTableRecord
  2
*D14
340
0
  0
BLOCK_RECORD
  5
165C4
330
7466
100
AcDbSymbolTableRecord
100
AcDbBlockTableRecord
  2
*D15
340
0
  0
BLOCK_RECORD
  5
165EA
330
7466
100
AcDbSymbolTableRecord
100
AcDbBlockTableRecord
  2
*D16
340
0
  0
BLOCK_RECORD
  5
16908
330
7466
100
AcDbSymbolTableRecord
100
AcDbBlockTableRecord
  2
*D17
340
0
  0
BLOCK_RECORD
  5
17BD3
330
7466
100
AcDbSymbolTableRecord
100
AcDbBlockTableRecord
  2
*D18
340
0
  0
BLOCK_RECORD
  5
17BDE
330
7466
100
AcDbSymbolTableRecord
100
AcDbBlockTableRecord
  2
*D19
340
0
  0
BLOCK_RECORD
  5
17BEA
330
7466
100
AcDbSymbolTableRecord
100
AcDbBlockTableRecord
  2
*D20
340
0
  0
BLOCK_RECORD
  5
17BF8
330
7466
100
AcDbSymbolTableRecord
100
AcDbBlockTableRecord
  2
*D21
340
0
  0
BLOCK_RECORD
  5
1974E
330
7466
100
AcDbSymbolTableRecord
100
AcDbBlockTableRecord
  2
*D22
340
0
  0
BLOCK_RECORD
  5
1975A
330
7466
100
AcDbSymbolTableRecord
100
AcDbBlockTableRecord
  2
*D23
340
0
  0
BLOCK_RECORD
  5
19766
330
7466
100
AcDbSymbolTableRecord
100
AcDbBlockTableRecord
  2
*D24
340
0
  0
BLOCK_RECORD
  5
19772
330
7466
100
AcDbSymbolTableRecord
100
AcDbBlockTableRecord
  2
*D25
340
0
  0
BLOCK_RECORD
  5
19780
330
7466
100
AcDbSymbolTableRecord
100
AcDbBlockTableRecord
  2
*D26
340
0
  0
BLOCK_RECORD
  5
1978C
330
7466
100
AcDbSymbolTableRecord
100
AcDbBlockTableRecord
  2
*D27
340
0
  0
BLOCK_RECORD
  5
1979A
330
7466
100
AcDbSymbolTableRecord
100
AcDbBlockTableRecord
  2
*D28
340
0
  0
BLOCK_RECORD
  5
197A6
330
7466
100
AcDbSymbolTableRecord
100
AcDbBlockTableRecord
  2
*D29
340
0
  0
BLOCK_RECORD
  5
197B3
330
7466
100
AcDbSymbolTableRecord
100
AcDbBlockTableRecord
  2
*D30
340
0
  0
BLOCK_RECORD
  5
19F48
330
7466
100
AcDbSymbolTableRecord
100
AcDbBlockTableRecord
  2
*D31
340
0
  0
BLOCK_RECORD
  5
19F56
330
7466
100
AcDbSymbolTableRecord
100
AcDbBlockTableRecord
  2
*D32
340
0
  0
BLOCK_RECORD
  5
19F64
330
7466
100
AcDbSymbolTableRecord
100
AcDbBlockTableRecord
  2
*D33
340
0
  0
BLOCK_RECORD
  5
19F70
330
7466
100
AcDbSymbolTableRecord
100
AcDbBlockTableRecord
  2
*D34
340
0
  0
BLOCK_RECORD
  5
1A174
330
7466
100
AcDbSymbolTableRecord
100
AcDbBlockTableRecord
  2
*D35
340
0
  0
BLOCK_RECORD
  5
1A181
330
7466
100
AcDbSymbolTableRecord
100
AcDbBlockTableRecord
  2
*D36
340
0
  0
BLOCK_RECORD
  5
1A18F
330
7466
100
AcDbSymbolTableRecord
100
AcDbBlockTableRecord
  2
*D37
340
0
  0
ENDTAB
  0
ENDSEC
  0
SECTION
  2
BLOCKS
  0
BLOCK
  5
7489
330
747D
100
AcDbEntity
  8
0
100
AcDbBlockBegin
  2
*MODEL_SPACE
 70
     0
 10
0.0
 20
0.0
 30
0.0
  3
*MODEL_SPACE
  1

  0
ENDBLK
  5
748A
330
747D
100
AcDbEntity
  8
0
100
AcDbBlockEnd
  0
BLOCK
  5
7487
330
747A
100
AcDbEntity
 67
     1
  8
0
100
AcDbBlockBegin
  2
*PAPER_SPACE
 70
     0
 10
0.0
 20
0.0
 30
0.0
  3
*PAPER_SPACE
  1

  0
ENDBLK
  5
7488
330
747A
100
AcDbEntity
 67
     1
  8
0
100
AcDbBlockEnd
  0
BLOCK
  5
F771
330
F770
100
AcDbEntity
  8
0
 48
50.0
100
AcDbBlockBegin
  2
_DOTSMALL
 70
     0
 10
0.0
 20
0.0
 30
0.0
  3
_DOTSMALL
  1

  0
LWPOLYLINE
  5
F772
330
F770
100
AcDbEntity
  8
0
  6
ByBlock
 62
     0
 48
50.0
100
AcDbPolyline
 90
        2
 70
     1
 43
0.5
 10
-0.0625
 20
0.0
 42
1.0
 10
0.0625
 20
0.0
 42
1.0
  0
ENDBLK
  5
F776
330
F770
100
AcDbEntity
  8
0
 48
50.0
100
AcDbBlockEnd
  0
BLOCK
  5
164EB
330
16338
100
AcDbEntity
  8
0
 48
50.0
100
AcDbBlockBegin
  2
*D1
 70
     1
 10
0.0
 20
0.0
 30
0.0
  3
*D1
  1

  0
LINE
  5
190F2
330
16338
100
AcDbEntity
  8
寸法
 62
     0
 48
50.0
370
    -2
100
AcDbLine
 10
7405.200647410865
 20
10144.73905351664
 30
0.0
 11
8092.626993145271
 21
10144.73905351664
 31
0.0
  0
LINE
  5
190F3
330
16338
100
AcDbEntity
  8
寸法
 62
     0
 48
50.0
370
    -2
100
AcDbLine
 10
7405.20064741084
 20
7204.739053516627
 30
0.0
 11
8092.626993145271
 21
7204.739053516627
 31
0.0
  0
LINE
  5
190F4
330
16338
100
AcDbEntity
  8
寸法
 62
     0
 48
50.0
370
    -2
100
AcDbLine
 10
8032.626993145271
 20
10144.73905351664
 30
0.0
 11
8032.626993145271
 21
7204.739053516627
 31
0.0
  0
INSERT
  5
190F5
330
16338
100
AcDbEntity
  8
寸法
 62
     0
 48
50.0
370
    -2
100
AcDbBlockReference
  2
_DOTSMALL
 10
8032.626993145271
 20
10144.73905351664
 30
0.0
 41
100.0
 42
100.0
 43
100.0
 50
90.0
  0
INSERT
  5
190F6
330
16338
100
AcDbEntity
  8
寸法
 62
     0
 48
50.0
370
    -2
100
AcDbBlockReference
  2
_DOTSMALL
 10
8032.626993145271
 20
7204.739053516627
 30
0.0
 41
100.0
 42
100.0
 43
100.0
 50
270.0
  0
MTEXT
  5
190F7
330
16338
100
AcDbEntity
  8
寸法
 62
     7
 48
50.0
100
AcDbMText
 10
7932.615182121648
 20
8674.739053516637
 30
0.0
 40
120.0
 41
0.0
 71
     5
 72
     1
  1
\A1;7X420=2940
  7
STYLE1
 11
0.0000000000000001
 21
1.0
 31
0.0
 73
     1
 44
1.0
1001
ACAD
1000
MTEXTBEGIN
1070
    73
1070
     1
1070
    44
1040
1.0
1070
    74
1070
     0
1000
MTEXTEND
  0
POINT
  5
190F8
330
16338
100
AcDbEntity
  8
DEFPOINTS
 62
     0
 48
50.0
100
AcDbPoint
 10
7385.200647410865
 20
10144.73905351664
 30
0.0
  0
POINT
  5
190F9
330
16338
100
AcDbEntity
  8
DEFPOINTS
 62
     0
 48
50.0
100
AcDbPoint
 10
7385.200647410839
 20
7204.739053516627
 30
0.0
  0
POINT
  5
190FA
330
16338
100
AcDbEntity
  8
DEFPOINTS
 62
     0
 48
50.0
100
AcDbPoint
 10
8032.626993145271
 20
7204.739053516627
 30
0.0
  0
ENDBLK
  5
164F5
330
16338
100
AcDbEntity
  8
0
 48
50.0
100
AcDbBlockEnd
  0
BLOCK
  5
16414
330
16344
100
AcDbEntity
  8
0
 48
50.0
100
AcDbBlockBegin
  2
*D2
 70
     1
 10
0.0
 20
0.0
 30
0.0
  3
*D2
  1

  0
LINE
  5
190E7
330
16344
100
AcDbEntity
  8
寸法
 62
     0
 48
50.0
370
    -2
100
AcDbLine
 10
7405.20064741084
 20
7204.739053516627
 30
0.0
 11
8092.62699314525
 21
7204.739053516627
 31
0.0
  0
LINE
  5
190E8
330
16344
100
AcDbEntity
  8
寸法
 62
     0
 48
50.0
370
    -2
100
AcDbLine
 10
7405.20064741084
 20
7149.73905351663
 30
0.0
 11
8092.62699314525
 21
7149.73905351663
 31
0.0
  0
LINE
  5
190E9
330
16344
100
AcDbEntity
  8
寸法
 62
     0
 48
50.0
370
    -2
100
AcDbLine
 10
8032.626993145251
 20
7204.739053516627
 30
0.0
 11
8032.626993145251
 21
7304.739053516627
 31
0.0
  0
LINE
  5
190EA
330
16344
100
AcDbEntity
  8
寸法
 62
     0
 48
50.0
370
    -2
100
AcDbLine
 10
8032.626993145251
 20
7149.73905351663
 30
0.0
 11
8032.626993145251
 21
6663.392305237528
 31
0.0
  0
LINE
  5
190EB
330
16344
100
AcDbEntity
  8
寸法
 62
     0
 48
50.0
370
    -2
100
AcDbLine
 10
8032.626993145251
 20
7204.739053516627
 30
0.0
 11
8032.626993145251
 21
7149.73905351663
 31
0.0
  0
INSERT
  5
190EC
330
16344
100
AcDbEntity
  8
寸法
 62
     0
 48
50.0
370
    -2
100
AcDbBlockReference
  2
_DOTSMALL
 10
8032.626993145251
 20
7204.739053516627
 30
0.0
 41
100.0
 42
100.0
 43
100.0
 50
270.0
  0
INSERT
  5
190ED
330
16344
100
AcDbEntity
  8
寸法
 62
     0
 48
50.0
370
    -2
100
AcDbBlockReference
  2
_DOTSMALL
 10
8032.626993145251
 20
7149.73905351663
 30
0.0
 41
100.0
 42
100.0
 43
100.0
 50
90.0
  0
MTEXT
  5
190EE
330
16344
100
AcDbEntity
  8
寸法
 62
     7
 48
50.0
100
AcDbMText
 10
7932.626993145248
 20
6771.877586611768
 30
0.0
 40
120.0
 41
0.0
 71
     5
 72
     1
  1
\A1;55
  7
STYLE1
 11
0.0000000000000001
 21
1.0
 31
0.0
 73
     1
 44
1.0
1001
ACAD
1000
MTEXTBEGIN
1070
    73
1070
     1
1070
    44
1040
1.0
1070
    74
1070
     0
1000
MTEXTEND
  0
POINT
  5
190EF
330
16344
100
AcDbEntity
  8
DEFPOINTS
 62
     0
 48
50.0
100
AcDbPoint
 10
7385.200647410839
 20
7204.739053516627
 30
0.0
  0
POINT
  5
190F0
330
16344
100
AcDbEntity
  8
DEFPOINTS
 62
     0
 48
50.0
100
AcDbPoint
 10
7385.200647410839
 20
7149.73905351663
 30
0.0
  0
POINT
  5
190F1
330
16344
100
AcDbEntity
  8
DEFPOINTS
 62
     0
 48
50.0
100
AcDbPoint
 10
8032.626993145251
 20
7149.73905351663
 30
0.0
  0
ENDBLK
  5
16420
330
16344
100
AcDbEntity
  8
0
 48
50.0
100
AcDbBlockEnd
  0
BLOCK
  5
16421
330
16352
100
AcDbEntity
  8
0
 48
50.0
100
AcDbBlockBegin
  2
*D3
 70
     1
 10
0.0
 20
0.0
 30
0.0
  3
*D3
  1

  0
LINE
  5
190DC
330
16352
100
AcDbEntity
  8
寸法
 62
     0
 48
50.0
370
    -2
100
AcDbLine
 10
7405.200647410865
 20
10199.73905351664
 30
0.0
 11
8092.626993145275
 21
10199.73905351664
 31
0.0
  0
LINE
  5
190DD
330
16352
100
AcDbEntity
  8
寸法
 62
     0
 48
50.0
370
    -2
100
AcDbLine
 10
7405.200647410865
 20
10144.73905351664
 30
0.0
 11
8092.626993145275
 21
10144.73905351664
 31
0.0
  0
LINE
  5
190DE
330
16352
100
AcDbEntity
  8
寸法
 62
     0
 48
50.0
370
    -2
100
AcDbLine
 10
8032.626993145276
 20
10144.73905351664
 30
0.0
 11
8032.626993145276
 21
10044.73905351664
 31
0.0
  0
LINE
  5
190DF
330
16352
100
AcDbEntity
  8
寸法
 62
     0
 48
50.0
370
    -2
100
AcDbLine
 10
8032.626993145276
 20
10199.73905351664
 30
0.0
 11
8032.626993145276
 21
10616.70961626511
 31
0.0
  0
LINE
  5
190E0
330
16352
100
AcDbEntity
  8
寸法
 62
     0
 48
50.0
370
    -2
100
AcDbLine
 10
8032.626993145276
 20
10144.73905351664
 30
0.0
 11
8032.626993145276
 21
10199.73905351664
 31
0.0
  0
INSERT
  5
190E1
330
16352
100
AcDbEntity
  8
寸法
 62
     0
 48
50.0
370
    -2
100
AcDbBlockReference
  2
_DOTSMALL
 10
8032.626993145276
 20
10144.73905351664
 30
0.0
 41
100.0
 42
100.0
 43
100.0
 50
90.0
  0
INSERT
  5
190E2
330
16352
100
AcDbEntity
  8
寸法
 62
     0
 48
50.0
370
    -2
100
AcDbBlockReference
  2
_DOTSMALL
 10
8032.626993145276
 20
10199.73905351664
 30
0.0
 41
100.0
 42
100.0
 43
100.0
 50
270.0
  0
MTEXT
  5
190E3
330
16352
100
AcDbEntity
  8
寸法
 62
     7
 48
50.0
100
AcDbMText
 10
7932.626993145274
 20
10508.22433489088
 30
0.0
 40
120.0
 41
0.0
 71
     5
 72
     1
  1
\A1;55
  7
STYLE1
 11
0.0000000000000001
 21
1.0
 31
0.0
 73
     1
 44
1.0
1001
ACAD
1000
MTEXTBEGIN
1070
    73
1070
     1
1070
    44
1040
1.0
1070
    74
1070
     0
1000
MTEXTEND
  0
POINT
  5
190E4
330
16352
100
AcDbEntity
  8
DEFPOINTS
 62
     0
 48
50.0
100
AcDbPoint
 10
7385.200647410865
 20
10199.73905351664
 30
0.0
  0
POINT
  5
190E5
330
16352
100
AcDbEntity
  8
DEFPOINTS
 62
     0
 48
50.0
100
AcDbPoint
 10
7385.200647410865
 20
10144.73905351664
 30
0.0
  0
POINT
  5
190E6
330
16352
100
AcDbEntity
  8
DEFPOINTS
 62
     0
 48
50.0
100
AcDbPoint
 10
8032.626993145276
 20
10144.73905351664
 30
0.0
  0
ENDBLK
  5
1642D
330
16352
100
AcDbEntity
  8
0
 48
50.0
100
AcDbBlockEnd
  0
BLOCK
  5
164CA
330
16360
100
AcDbEntity
  8
0
 48
50.0
100
AcDbBlockBegin
  2
*D4
 70
     1
 10
0.0
 20
0.0
 30
0.0
  3
*D4
  1

  0
LINE
  5
190D3
330
16360
100
AcDbEntity
  8
寸法
 62
     0
 48
50.0
370
    -2
100
AcDbLine
 10
7405.200647410865
 20
10199.73905351664
 30
0.0
 11
8457.73393488491
 21
10199.73905351664
 31
0.0
  0
LINE
  5
190D4
330
16360
100
AcDbEntity
  8
寸法
 62
     0
 48
50.0
370
    -2
100
AcDbLine
 10
7405.20064741084
 20
7149.73905351663
 30
0.0
 11
8457.73393488491
 21
7149.73905351663
 31
0.0
  0
LINE
  5
190D5
330
16360
100
AcDbEntity
  8
寸法
 62
     0
 48
50.0
370
    -2
100
AcDbLine
 10
8397.733934884909
 20
10199.73905351664
 30
0.0
 11
8397.733934884909
 21
7149.73905351663
 31
0.0
  0
INSERT
  5
190D6
330
16360
100
AcDbEntity
  8
寸法
 62
     0
 48
50.0
370
    -2
100
AcDbBlockReference
  2
_DOTSMALL
 10
8397.733934884909
 20
10199.73905351664
 30
0.0
 41
100.0
 42
100.0
 43
100.0
 50
90.0
  0
INSERT
  5
190D7
330
16360
100
AcDbEntity
  8
寸法
 62
     0
 48
50.0
370
    -2
100
AcDbBlockReference
  2
_DOTSMALL
 10
8397.733934884909
 20
7149.73905351663
 30
0.0
 41
100.0
 42
100.0
 43
100.0
 50
270.0
  0
MTEXT
  5
190D8
330
16360
100
AcDbEntity
  8
寸法
 62
     7
 48
50.0
100
AcDbMText
 10
8297.733934884908
 20
8674.739053516637
 30
0.0
 40
120.0
 41
0.0
 71
     5
 72
     1
  1
\A1;3050
  7
STYLE1
 11
0.0000000000000001
 21
1.0
 31
0.0
 73
     1
 44
1.0
1001
ACAD
1000
MTEXTBEGIN
1070
    73
1070
     1
1070
    44
1040
1.0
1070
    74
1070
     0
1000
MTEXTEND
  0
POINT
  5
190D9
330
16360
100
AcDbEntity
  8
DEFPOINTS
 62
     0
 48
50.0
100
AcDbPoint
 10
7385.200647410865
 20
10199.73905351664
 30
0.0
  0
POINT
  5
190DA
330
16360
100
AcDbEntity
  8
DEFPOINTS
 62
     0
 48
50.0
100
AcDbPoint
 10
7385.200647410839
 20
7149.73905351663
 30
0.0
  0
POINT
  5
190DB
330
16360
100
AcDbEntity
  8
DEFPOINTS
 62
     0
 48
50.0
100
AcDbPoint
 10
8397.733934884909
 20
7149.73905351663
 30
0.0
  0
ENDBLK
  5
164D4
330
16360
100
AcDbEntity
  8
0
 48
50.0
100
AcDbBlockEnd
  0
BLOCK
  5
1728C
330
16384
100
AcDbEntity
  8
0
 48
50.0
100
AcDbBlockBegin
  2
*D5
 70
     1
 10
0.0
 20
0.0
 30
0.0
  3
*D5
  1

  0
LINE
  5
190CB
330
16384
100
AcDbEntity
  8
寸法
 62
     0
 48
50.0
370
    -2
100
AcDbLine
 10
5698.200647410857
 20
7155.739053516538
 30
0.0
 11
5698.200647410857
 21
6555.308282750374
 31
0.0
  0
LINE
  5
190CC
330
16384
100
AcDbEntity
  8
寸法
 62
     0
 48
50.0
370
    -2
100
AcDbLine
 10
7282.200647410839
 20
6615.308282750375
 30
0.0
 11
5698.200647410857
 21
6615.308282750375
 31
0.0
  0
INSERT
  5
190CD
330
16384
100
AcDbEntity
  8
寸法
 62
     0
 48
50.0
370
    -2
100
AcDbBlockReference
  2
_DOTSMALL
 10
7282.200647410839
 20
6615.308282750375
 30
0.0
 41
100.0
 42
100.0
 43
100.0
  0
INSERT
  5
190CE
330
16384
100
AcDbEntity
  8
寸法
 62
     0
 48
50.0
370
    -2
100
AcDbBlockReference
  2
_DOTSMALL
 10
5698.200647410857
 20
6615.308282750375
 30
0.0
 41
100.0
 42
100.0
 43
100.0
 50
180.0
  0
MTEXT
  5
190CF
330
16384
100
AcDbEntity
  8
寸法
 62
     7
 48
50.0
100
AcDbMText
 10
6490.200647410849
 20
6815.308282750375
 30
0.0
 40
120.0
 41
0.0
 71
     5
 72
     1
  1
\A1;有効開口部間口\P 1584
  7
STYLE1
 73
     1
 44
1.0
1001
ACAD
1000
MTEXTBEGIN
1070
    73
1070
     1
1070
    44
1040
1.0
1070
    74
1070
     0
1000
MTEXTEND
  0
POINT
  5
190D0
330
16384
100
AcDbEntity
  8
DEFPOINTS
 62
     0
 48
50.0
100
AcDbPoint
 10
7282.200647410839
 20
7175.73905351654
 30
0.0
  0
POINT
  5
190D1
330
16384
100
AcDbEntity
  8
DEFPOINTS
 62
     0
 48
50.0
100
AcDbPoint
 10
5698.200647410857
 20
7175.739053516538
 30
0.0
  0
POINT
  5
190D2
330
16384
100
AcDbEntity
  8
DEFPOINTS
 62
     0
 48
50.0
100
AcDbPoint
 10
5698.200647410857
 20
6615.308282750375
 30
0.0
  0
ENDBLK
  5
17295
330
16384
100
AcDbEntity
  8
0
 48
50.0
100
AcDbBlockEnd
  0
BLOCK
  5
17261
330
1638F
100
AcDbEntity
  8
0
 48
50.0
100
AcDbBlockBegin
  2
*D6
 70
     1
 10
0.0
 20
0.0
 30
0.0
  3
*D6
  1

  0
LINE
  5
190C2
330
1638F
100
AcDbEntity
  8
寸法
 62
     0
 48
50.0
370
    -2
100
AcDbLine
 10
3805.200647410858
 20
7129.739053516536
 30
0.0
 11
3805.200647410858
 21
6109.1352871595
 31
0.0
  0
LINE
  5
190C3
330
1638F
100
AcDbEntity
  8
寸法
 62
     0
 48
50.0
370
    -2
100
AcDbLine
 10
7385.200647410828
 20
7129.73905351663
 30
0.0
 11
7385.200647410828
 21
6109.1352871595
 31
0.0
  0
LINE
  5
190C4
330
1638F
100
AcDbEntity
  8
寸法
 62
     0
 48
50.0
370
    -2
100
AcDbLine
 10
3805.200647410858
 20
6169.135287159501
 30
0.0
 11
7385.200647410828
 21
6169.135287159501
 31
0.0
  0
INSERT
  5
190C5
330
1638F
100
AcDbEntity
  8
寸法
 62
     0
 48
50.0
370
    -2
100
AcDbBlockReference
  2
_DOTSMALL
 10
3805.200647410858
 20
6169.135287159501
 30
0.0
 41
100.0
 42
100.0
 43
100.0
 50
180.0
  0
INSERT
  5
190C6
330
1638F
100
AcDbEntity
  8
寸法
 62
     0
 48
50.0
370
    -2
100
AcDbBlockReference
  2
_DOTSMALL
 10
7385.200647410828
 20
6169.135287159501
 30
0.0
 41
100.0
 42
100.0
 43
100.0
  0
MTEXT
  5
190C7
330
1638F
100
AcDbEntity
  8
寸法
 62
     7
 48
50.0
100
AcDbMText
 10
5595.200647410843
 20
6269.1352871595
 30
0.0
 40
120.0
 41
0.0
 71
     5
 72
     1
  1
\A1;3580
  7
STYLE1
 73
     1
 44
1.0
1001
ACAD
1000
MTEXTBEGIN
1070
    73
1070
     1
1070
    44
1040
1.0
1070
    74
1070
     0
1000
MTEXTEND
  0
POINT
  5
190C8
330
1638F
100
AcDbEntity
  8
DEFPOINTS
 62
     0
 48
50.0
100
AcDbPoint
 10
3805.200647410858
 20
7149.739053516537
 30
0.0
  0
POINT
  5
190C9
330
1638F
100
AcDbEntity
  8
DEFPOINTS
 62
     0
 48
50.0
100
AcDbPoint
 10
7385.200647410828
 20
7149.73905351663
 30
0.0
  0
POINT
  5
190CA
330
1638F
100
AcDbEntity
  8
DEFPOINTS
 62
     0
 48
50.0
100
AcDbPoint
 10
7385.200647410828
 20
6169.135287159501
 30
0.0
  0
ENDBLK
  5
1726B
330
1638F
100
AcDbEntity
  8
0
 48
50.0
100
AcDbBlockEnd
  0
BLOCK
  5
16464
330
1639B
100
AcDbEntity
  8
0
 48
50.0
100
AcDbBlockBegin
  2
*D7
 70
     1
 10
0.0
 20
0.0
 30
0.0
  3
*D7
  1

  0
LINE
  5
190B7
330
1639B
100
AcDbEntity
  8
寸法
 62
     0
 48
50.0
370
    -2
100
AcDbLine
 10
3860.200647410854
 20
7129.739053516539
 30
0.0
 11
3860.200647410854
 21
6555.308282750374
 31
0.0
  0
LINE
  5
190B8
330
1639B
100
AcDbEntity
  8
寸法
 62
     0
 48
50.0
370
    -2
100
AcDbLine
 10
3805.200647410858
 20
7129.739053516536
 30
0.0
 11
3805.200647410858
 21
6555.308282750374
 31
0.0
  0
LINE
  5
190B9
330
1639B
100
AcDbEntity
  8
寸法
 62
     0
 48
50.0
370
    -2
100
AcDbLine
 10
3860.200647410854
 20
6615.308282750375
 30
0.0
 11
3960.200647410854
 21
6615.308282750375
 31
0.0
  0
LINE
  5
190BA
330
1639B
100
AcDbEntity
  8
寸法
 62
     0
 48
50.0
370
    -2
100
AcDbLine
 10
3805.200647410858
 20
6615.308282750375
 30
0.0
 11
3388.230084662381
 21
6615.308282750375
 31
0.0
  0
LINE
  5
190BB
330
1639B
100
AcDbEntity
  8
寸法
 62
     0
 48
50.0
370
    -2
100
AcDbLine
 10
3860.200647410854
 20
6615.308282750375
 30
0.0
 11
3805.200647410858
 21
6615.308282750375
 31
0.0
  0
INSERT
  5
190BC
330
1639B
100
AcDbEntity
  8
寸法
 62
     0
 48
50.0
370
    -2
100
AcDbBlockReference
  2
_DOTSMALL
 10
3860.200647410854
 20
6615.308282750375
 30
0.0
 41
100.0
 42
100.0
 43
100.0
 50
180.0
  0
INSERT
  5
190BD
330
1639B
100
AcDbEntity
  8
寸法
 62
     0
 48
50.0
370
    -2
100
AcDbBlockReference
  2
_DOTSMALL
 10
3805.200647410858
 20
6615.308282750375
 30
0.0
 41
100.0
 42
100.0
 43
100.0
  0
MTEXT
  5
190BE
330
1639B
100
AcDbEntity
  8
寸法
 62
     7
 48
50.0
100
AcDbMText
 10
3496.715366036619
 20
6715.308282750375
 30
0.0
 40
120.0
 41
0.0
 71
     5
 72
     1
  1
\A1;55
  7
STYLE1
 73
     1
 44
1.0
1001
ACAD
1000
MTEXTBEGIN
1070
    73
1070
     1
1070
    44
1040
1.0
1070
    74
1070
     0
1000
MTEXTEND
  0
POINT
  5
190BF
330
1639B
100
AcDbEntity
  8
DEFPOINTS
 62
     0
 48
50.0
100
AcDbPoint
 10
3860.200647410854
 20
7149.739053516539
 30
0.0
  0
POINT
  5
190C0
330
1639B
100
AcDbEntity
  8
DEFPOINTS
 62
     0
 48
50.0
100
AcDbPoint
 10
3805.200647410858
 20
7149.739053516537
 30
0.0
  0
POINT
  5
190C1
330
1639B
100
AcDbEntity
  8
DEFPOINTS
 62
     0
 48
50.0
100
AcDbPoint
 10
3805.200647410858
 20
6615.308282750375
 30
0.0
  0
ENDBLK
  5
16470
330
1639B
100
AcDbEntity
  8
0
 48
50.0
100
AcDbBlockEnd
  0
BLOCK
  5
16471
330
163A9
100
AcDbEntity
  8
0
 48
50.0
100
AcDbBlockBegin
  2
*D8
 70
     1
 10
0.0
 20
0.0
 30
0.0
  3
*D8
  1

  0
LINE
  5
190AC
330
163A9
100
AcDbEntity
  8
寸法
 62
     0
 48
50.0
370
    -2
100
AcDbLine
 10
5698.200647410857
 20
7155.739053516538
 30
0.0
 11
5698.200647410857
 21
6555.308282750374
 31
0.0
  0
LINE
  5
190AD
330
163A9
100
AcDbEntity
  8
寸法
 62
     0
 48
50.0
370
    -2
100
AcDbLine
 10
5650.200647410854
 20
7129.739053516539
 30
0.0
 11
5650.200647410854
 21
6555.308282750374
 31
0.0
  0
LINE
  5
190AE
330
163A9
100
AcDbEntity
  8
寸法
 62
     0
 48
50.0
370
    -2
100
AcDbLine
 10
5698.200647410857
 20
6615.308282750375
 30
0.0
 11
5798.200647410857
 21
6615.308282750375
 31
0.0
  0
LINE
  5
190AF
330
163A9
100
AcDbEntity
  8
寸法
 62
     0
 48
50.0
370
    -2
100
AcDbLine
 10
5650.200647410854
 20
6615.308282750375
 30
0.0
 11
5550.200647410854
 21
6615.308282750375
 31
0.0
  0
MTEXT
  5
190B0
330
163A9
100
AcDbEntity
  8
寸法
 62
     7
 48
50.0
100
AcDbMText
 10
5811.102618410915
 20
6715.308282750375
 30
0.0
 40
120.0
 41
0.0
 71
     5
 72
     1
  1
\A1;48
  7
STYLE1
 73
     1
 44
1.0
1001
ACAD
1000
MTEXTBEGIN
1070
    73
1070
     1
1070
    44
1040
1.0
1070
    74
1070
     0
1000
MTEXTEND
  0
LINE
  5
190B1
330
163A9
100
AcDbEntity
  8
寸法
 62
     0
 48
50.0
370
    -2
100
AcDbLine
 10
5698.200647410857
 20
6615.308282750375
 30
0.0
 11
5650.200647410854
 21
6615.308282750375
 31
0.0
  0
INSERT
  5
190B2
330
163A9
100
AcDbEntity
  8
寸法
 62
     0
 48
50.0
370
    -2
100
AcDbBlockReference
  2
_DOTSMALL
 10
5698.200647410857
 20
6615.308282750375
 30
0.0
 41
100.0
 42
100.0
 43
100.0
 50
180.0
  0
INSERT
  5
190B3
330
163A9
100
AcDbEntity
  8
寸法
 62
     0
 48
50.0
370
    -2
100
AcDbBlockReference
  2
_DOTSMALL
 10
5650.200647410854
 20
6615.308282750375
 30
0.0
 41
100.0
 42
100.0
 43
100.0
  0
POINT
  5
190B4
330
163A9
100
AcDbEntity
  8
DEFPOINTS
 62
     0
 48
50.0
100
AcDbPoint
 10
5698.200647410857
 20
7175.739053516538
 30
0.0
  0
POINT
  5
190B5
330
163A9
100
AcDbEntity
  8
DEFPOINTS
 62
     0
 48
50.0
100
AcDbPoint
 10
5650.200647410854
 20
7149.739053516539
 30
0.0
  0
POINT
  5
190B6
330
163A9
100
AcDbEntity
  8
DEFPOINTS
 62
     0
 48
50.0
100
AcDbPoint
 10
5650.200647410854
 20
6615.308282750375
 30
0.0
  0
ENDBLK
  5
1647E
330
163A9
100
AcDbEntity
  8
0
 48
50.0
100
AcDbBlockEnd
  0
BLOCK
  5
1647F
330
163B8
100
AcDbEntity
  8
0
 48
50.0
100
AcDbBlockBegin
  2
*D9
 70
     1
 10
0.0
 20
0.0
 30
0.0
  3
*D9
  1

  0
LINE
  5
190A1
330
163B8
100
AcDbEntity
  8
寸法
 62
     0
 48
50.0
370
    -2
100
AcDbLine
 10
7330.20064741084
 20
7129.739053516627
 30
0.0
 11
7330.20064741084
 21
6555.308282750374
 31
0.0
  0
LINE
  5
190A2
330
163B8
100
AcDbEntity
  8
寸法
 62
     0
 48
50.0
370
    -2
100
AcDbLine
 10
7282.200647410839
 20
7155.73905351654
 30
0.0
 11
7282.200647410839
 21
6555.308282750374
 31
0.0
  0
LINE
  5
190A3
330
163B8
100
AcDbEntity
  8
寸法
 62
     0
 48
50.0
370
    -2
100
AcDbLine
 10
7330.20064741084
 20
6615.308282750375
 30
0.0
 11
7430.200647410841
 21
6615.308282750375
 31
0.0
  0
LINE
  5
190A4
330
163B8
100
AcDbEntity
  8
寸法
 62
     0
 48
50.0
370
    -2
100
AcDbLine
 10
7282.200647410839
 20
6615.308282750375
 30
0.0
 11
7182.200647410839
 21
6615.308282750375
 31
0.0
  0
MTEXT
  5
190A5
330
163B8
100
AcDbEntity
  8
寸法
 62
     7
 48
50.0
100
AcDbMText
 10
7171.237749762092
 20
6715.308282750375
 30
0.0
 40
120.0
 41
0.0
 71
     5
 72
     1
  1
\A1;48
  7
STYLE1
 73
     1
 44
1.0
1001
ACAD
1000
MTEXTBEGIN
1070
    73
1070
     1
1070
    44
1040
1.0
1070
    74
1070
     0
1000
MTEXTEND
  0
LINE
  5
190A6
330
163B8
100
AcDbEntity
  8
寸法
 62
     0
 48
50.0
370
    -2
100
AcDbLine
 10
7330.20064741084
 20
6615.308282750375
 30
0.0
 11
7282.200647410839
 21
6615.308282750375
 31
0.0
  0
INSERT
  5
190A7
330
163B8
100
AcDbEntity
  8
寸法
 62
     0
 48
50.0
370
    -2
100
AcDbBlockReference
  2
_DOTSMALL
 10
7330.20064741084
 20
6615.308282750375
 30
0.0
 41
100.0
 42
100.0
 43
100.0
 50
180.0
  0
INSERT
  5
190A8
330
163B8
100
AcDbEntity
  8
寸法
 62
     0
 48
50.0
370
    -2
100
AcDbBlockReference
  2
_DOTSMALL
 10
7282.200647410839
 20
6615.308282750375
 30
0.0
 41
100.0
 42
100.0
 43
100.0
  0
POINT
  5
190A9
330
163B8
100
AcDbEntity
  8
DEFPOINTS
 62
     0
 48
50.0
100
AcDbPoint
 10
7330.20064741084
 20
7149.739053516627
 30
0.0
  0
POINT
  5
190AA
330
163B8
100
AcDbEntity
  8
DEFPOINTS
 62
     0
 48
50.0
100
AcDbPoint
 10
7282.200647410839
 20
7175.73905351654
 30
0.0
  0
POINT
  5
190AB
330
163B8
100
AcDbEntity
  8
DEFPOINTS
 62
     0
 48
50.0
100
AcDbPoint
 10
7282.200647410839
 20
6615.308282750375
 30
0.0
  0
ENDBLK
  5
1648C
330
163B8
100
AcDbEntity
  8
0
 48
50.0
100
AcDbBlockEnd
  0
BLOCK
  5
1648D
330
163C7
100
AcDbEntity
  8
0
 48
50.0
100
AcDbBlockBegin
  2
*D10
 70
     1
 10
0.0
 20
0.0
 30
0.0
  3
*D10
  1

  0
LINE
  5
19096
330
163C7
100
AcDbEntity
  8
寸法
 62
     0
 48
50.0
370
    -2
100
AcDbLine
 10
7385.200647410839
 20
7129.73905351663
 30
0.0
 11
7385.200647410839
 21
6555.308282750376
 31
0.0
  0
LINE
  5
19097
330
163C7
100
AcDbEntity
  8
寸法
 62
     0
 48
50.0
370
    -2
100
AcDbLine
 10
7330.20064741084
 20
7129.739053516627
 30
0.0
 11
7330.20064741084
 21
6555.308282750376
 31
0.0
  0
LINE
  5
19098
330
163C7
100
AcDbEntity
  8
寸法
 62
     0
 48
50.0
370
    -2
100
AcDbLine
 10
7330.20064741084
 20
6615.308282750376
 30
0.0
 11
7230.200647410841
 21
6615.308282750376
 31
0.0
  0
LINE
  5
19099
330
163C7
100
AcDbEntity
  8
寸法
 62
     0
 48
50.0
370
    -2
100
AcDbLine
 10
7385.200647410839
 20
6615.308282750376
 30
0.0
 11
7802.171210159317
 21
6615.308282750376
 31
0.0
  0
LINE
  5
1909A
330
163C7
100
AcDbEntity
  8
寸法
 62
     0
 48
50.0
370
    -2
100
AcDbLine
 10
7330.20064741084
 20
6615.308282750376
 30
0.0
 11
7385.200647410839
 21
6615.308282750376
 31
0.0
  0
INSERT
  5
1909B
330
163C7
100
AcDbEntity
  8
寸法
 62
     0
 48
50.0
370
    -2
100
AcDbBlockReference
  2
_DOTSMALL
 10
7330.20064741084
 20
6615.308282750376
 30
0.0
 41
100.0
 42
100.0
 43
100.0
  0
INSERT
  5
1909C
330
163C7
100
AcDbEntity
  8
寸法
 62
     0
 48
50.0
370
    -2
100
AcDbBlockReference
  2
_DOTSMALL
 10
7385.200647410839
 20
6615.308282750376
 30
0.0
 41
100.0
 42
100.0
 43
100.0
 50
180.0
  0
MTEXT
  5
1909D
330
163C7
100
AcDbEntity
  8
寸法
 62
     7
 48
50.0
100
AcDbMText
 10
7693.685928785078
 20
6715.308282750377
 30
0.0
 40
120.0
 41
0.0
 71
     5
 72
     1
  1
\A1;55
  7
STYLE1
 73
     1
 44
1.0
1001
ACAD
1000
MTEXTBEGIN
1070
    73
1070
     1
1070
    44
1040
1.0
1070
    74
1070
     0
1000
MTEXTEND
  0
POINT
  5
1909E
330
163C7
100
AcDbEntity
  8
DEFPOINTS
 62
     0
 48
50.0
100
AcDbPoint
 10
7385.200647410839
 20
7149.73905351663
 30
0.0
  0
POINT
  5
1909F
330
163C7
100
AcDbEntity
  8
DEFPOINTS
 62
     0
 48
50.0
100
AcDbPoint
 10
7330.20064741084
 20
7149.739053516627
 30
0.0
  0
POINT
  5
190A0
330
163C7
100
AcDbEntity
  8
DEFPOINTS
 62
     0
 48
50.0
100
AcDbPoint
 10
7330.20064741084
 20
6615.308282750376
 30
0.0
  0
ENDBLK
  5
16499
330
163C7
100
AcDbEntity
  8
0
 48
50.0
100
AcDbBlockEnd
  0
BLOCK
  5
172A1
330
163E1
100
AcDbEntity
  8
0
 48
50.0
100
AcDbBlockBegin
  2
*D11
 70
     1
 10
0.0
 20
0.0
 30
0.0
  3
*D11
  1

  0
LINE
  5
1908D
330
163E1
100
AcDbEntity
  8
寸法
 62
     0
 48
50.0
370
    -2
100
AcDbLine
 10
5650.200647410864
 20
10219.73905351654
 30
0.0
 11
5650.200647410864
 21
10475.54727314164
 31
0.0
  0
LINE
  5
1908E
330
163E1
100
AcDbEntity
  8
寸法
 62
     0
 48
50.0
370
    -2
100
AcDbLine
 10
7330.200647410865
 20
10219.73905351664
 30
0.0
 11
7330.200647410865
 21
10475.54727314164
 31
0.0
  0
LINE
  5
1908F
330
163E1
100
AcDbEntity
  8
寸法
 62
     0
 48
50.0
370
    -2
100
AcDbLine
 10
5650.200647410864
 20
10415.54727314164
 30
0.0
 11
7330.200647410865
 21
10415.54727314164
 31
0.0
  0
INSERT
  5
19090
330
163E1
100
AcDbEntity
  8
寸法
 62
     0
 48
50.0
370
    -2
100
AcDbBlockReference
  2
_DOTSMALL
 10
5650.200647410864
 20
10415.54727314164
 30
0.0
 41
100.0
 42
100.0
 43
100.0
 50
180.0
  0
INSERT
  5
19091
330
163E1
100
AcDbEntity
  8
寸法
 62
     0
 48
50.0
370
    -2
100
AcDbBlockReference
  2
_DOTSMALL
 10
7330.200647410865
 20
10415.54727314164
 30
0.0
 41
100.0
 42
100.0
 43
100.0
  0
MTEXT
  5
19092
330
163E1
100
AcDbEntity
  8
寸法
 62
     7
 48
50.0
100
AcDbMText
 10
6490.200647410865
 20
10515.55908416526
 30
0.0
 40
120.0
 41
0.0
 71
     5
 72
     1
  1
\A1;4X420=1680
  7
STYLE1
 73
     1
 44
1.0
1001
ACAD
1000
MTEXTBEGIN
1070
    73
1070
     1
1070
    44
1040
1.0
1070
    74
1070
     0
1000
MTEXTEND
  0
POINT
  5
19093
330
163E1
100
AcDbEntity
  8
DEFPOINTS
 62
     0
 48
50.0
100
AcDbPoint
 10
5650.200647410864
 20
10199.73905351654
 30
0.0
  0
POINT
  5
19094
330
163E1
100
AcDbEntity
  8
DEFPOINTS
 62
     0
 48
50.0
100
AcDbPoint
 10
7330.200647410865
 20
10199.73905351664
 30
0.0
  0
POINT
  5
19095
330
163E1
100
AcDbEntity
  8
DEFPOINTS
 62
     0
 48
50.0
100
AcDbPoint
 10
7330.200647410865
 20
10415.54727314164
 30
0.0
  0
ENDBLK
  5
172AB
330
163E1
100
AcDbEntity
  8
0
 48
50.0
100
AcDbBlockEnd
  0
BLOCK
  5
164B0
330
163ED
100
AcDbEntity
  8
0
 48
50.0
100
AcDbBlockBegin
  2
*D12
 70
     1
 10
0.0
 20
0.0
 30
0.0
  3
*D12
  1

  0
LINE
  5
19082
330
163ED
100
AcDbEntity
  8
寸法
 62
     0
 48
50.0
370
    -2
100
AcDbLine
 10
3805.20064741083
 20
10219.73905351654
 30
0.0
 11
3805.20064741083
 21
10475.54727314152
 31
0.0
  0
LINE
  5
19083
330
163ED
100
AcDbEntity
  8
寸法
 62
     0
 48
50.0
370
    -2
100
AcDbLine
 10
3860.200647410864
 20
10219.73905351654
 30
0.0
 11
3860.200647410864
 21
10475.54727314152
 31
0.0
  0
LINE
  5
19084
330
163ED
100
AcDbEntity
  8
寸法
 62
     0
 48
50.0
370
    -2
100
AcDbLine
 10
3860.200647410864
 20
10415.54727314152
 30
0.0
 11
3960.200647410864
 21
10415.54727314152
 31
0.0
  0
LINE
  5
19085
330
163ED
100
AcDbEntity
  8
寸法
 62
     0
 48
50.0
370
    -2
100
AcDbLine
 10
3805.20064741083
 20
10415.54727314152
 30
0.0
 11
3388.230084662352
 21
10415.54727314152
 31
0.0
  0
LINE
  5
19086
330
163ED
100
AcDbEntity
  8
寸法
 62
     0
 48
50.0
370
    -2
100
AcDbLine
 10
3860.200647410864
 20
10415.54727314152
 30
0.0
 11
3805.20064741083
 21
10415.54727314152
 31
0.0
  0
INSERT
  5
19087
330
163ED
100
AcDbEntity
  8
寸法
 62
     0
 48
50.0
370
    -2
100
AcDbBlockReference
  2
_DOTSMALL
 10
3860.200647410864
 20
10415.54727314152
 30
0.0
 41
100.0
 42
100.0
 43
100.0
 50
180.0
  0
INSERT
  5
19088
330
163ED
100
AcDbEntity
  8
寸法
 62
     0
 48
50.0
370
    -2
100
AcDbBlockReference
  2
_DOTSMALL
 10
3805.20064741083
 20
10415.54727314152
 30
0.0
 41
100.0
 42
100.0
 43
100.0
  0
MTEXT
  5
19089
330
163ED
100
AcDbEntity
  8
寸法
 62
     7
 48
50.0
100
AcDbMText
 10
3496.71536603659
 20
10515.54727314152
 30
0.0
 40
120.0
 41
0.0
 71
     5
 72
     1
  1
\A1;55
  7
STYLE1
 73
     1
 44
1.0
1001
ACAD
1000
MTEXTBEGIN
1070
    73
1070
     1
1070
    44
1040
1.0
1070
    74
1070
     0
1000
MTEXTEND
  0
POINT
  5
1908A
330
163ED
100
AcDbEntity
  8
DEFPOINTS
 62
     0
 48
50.0
100
AcDbPoint
 10
3805.20064741083
 20
10199.73905351654
 30
0.0
  0
POINT
  5
1908B
330
163ED
100
AcDbEntity
  8
DEFPOINTS
 62
     0
 48
50.0
100
AcDbPoint
 10
3860.200647410864
 20
10199.73905351654
 30
0.0
  0
POINT
  5
1908C
330
163ED
100
AcDbEntity
  8
DEFPOINTS
 62
     0
 48
50.0
100
AcDbPoint
 10
3860.200647410864
 20
10415.54727314152
 30
0.0
  0
ENDBLK
  5
164BC
330
163ED
100
AcDbEntity
  8
0
 48
50.0
100
AcDbBlockEnd
  0
BLOCK
  5
164BD
330
163FB
100
AcDbEntity
  8
0
 48
50.0
100
AcDbBlockBegin
  2
*D13
 70
     1
 10
0.0
 20
0.0
 30
0.0
  3
*D13
  1

  0
LINE
  5
19077
330
163FB
100
AcDbEntity
  8
寸法
 62
     0
 48
50.0
370
    -2
100
AcDbLine
 10
7330.200647410865
 20
10219.73905351664
 30
0.0
 11
7330.200647410865
 21
10475.54727314162
 31
0.0
  0
LINE
  5
19078
330
163FB
100
AcDbEntity
  8
寸法
 62
     0
 48
50.0
370
    -2
100
AcDbLine
 10
7385.200647410865
 20
10219.73905351664
 30
0.0
 11
7385.200647410865
 21
10475.54727314162
 31
0.0
  0
LINE
  5
19079
330
163FB
100
AcDbEntity
  8
寸法
 62
     0
 48
50.0
370
    -2
100
AcDbLine
 10
7330.200647410865
 20
10415.54727314162
 30
0.0
 11
7230.200647410865
 21
10415.54727314162
 31
0.0
  0
LINE
  5
1907A
330
163FB
100
AcDbEntity
  8
寸法
 62
     0
 48
50.0
370
    -2
100
AcDbLine
 10
7385.200647410865
 20
10415.54727314162
 30
0.0
 11
7802.171210159342
 21
10415.54727314162
 31
0.0
  0
LINE
  5
1907B
330
163FB
100
AcDbEntity
  8
寸法
 62
     0
 48
50.0
370
    -2
100
AcDbLine
 10
7330.200647410865
 20
10415.54727314162
 30
0.0
 11
7385.200647410865
 21
10415.54727314162
 31
0.0
  0
INSERT
  5
1907C
330
163FB
100
AcDbEntity
  8
寸法
 62
     0
 48
50.0
370
    -2
100
AcDbBlockReference
  2
_DOTSMALL
 10
7330.200647410865
 20
10415.54727314162
 30
0.0
 41
100.0
 42
100.0
 43
100.0
  0
INSERT
  5
1907D
330
163FB
100
AcDbEntity
  8
寸法
 62
     0
 48
50.0
370
    -2
100
AcDbBlockReference
  2
_DOTSMALL
 10
7385.200647410865
 20
10415.54727314162
 30
0.0
 41
100.0
 42
100.0
 43
100.0
 50
180.0
  0
MTEXT
  5
1907E
330
163FB
100
AcDbEntity
  8
寸法
 62
     7
 48
50.0
100
AcDbMText
 10
7693.685928785104
 20
10515.54727314162
 30
0.0
 40
120.0
 41
0.0
 71
     5
 72
     1
  1
\A1;55
  7
STYLE1
 73
     1
 44
1.0
1001
ACAD
1000
MTEXTBEGIN
1070
    73
1070
     1
1070
    44
1040
1.0
1070
    74
1070
     0
1000
MTEXTEND
  0
POINT
  5
1907F
330
163FB
100
AcDbEntity
  8
DEFPOINTS
 62
     0
 48
50.0
100
AcDbPoint
 10
7330.200647410865
 20
10199.73905351664
 30
0.0
  0
POINT
  5
19080
330
163FB
100
AcDbEntity
  8
DEFPOINTS
 62
     0
 48
50.0
100
AcDbPoint
 10
7385.200647410865
 20
10199.73905351664
 30
0.0
  0
POINT
  5
19081
330
163FB
100
AcDbEntity
  8
DEFPOINTS
 62
     0
 48
50.0
100
AcDbPoint
 10
7385.200647410865
 20
10415.54727314162
 30
0.0
  0
ENDBLK
  5
164C9
330
163FB
100
AcDbEntity
  8
0
 48
50.0
100
AcDbBlockEnd
  0
BLOCK
  5
165B6
330
165B5
100
AcDbEntity
  8
0
 48
50.0
100
AcDbBlockBegin
  2
*D14
 70
     1
 10
0.0
 20
0.0
 30
0.0
  3
*D14
  1

  0
LINE
  5
19061
330
165B5
100
AcDbEntity
  8
寸法
 62
     0
 48
50.0
370
    -2
100
AcDbLine
 10
3908.200647410858
 20
7155.739053516538
 30
0.0
 11
3908.200647410858
 21
6555.308282750374
 31
0.0
  0
LINE
  5
19062
330
165B5
100
AcDbEntity
  8
寸法
 62
     0
 48
50.0
370
    -2
100
AcDbLine
 10
3860.200647410854
 20
7129.739053516539
 30
0.0
 11
3860.200647410854
 21
6555.308282750374
 31
0.0
  0
LINE
  5
19063
330
165B5
100
AcDbEntity
  8
寸法
 62
     0
 48
50.0
370
    -2
100
AcDbLine
 10
3908.200647410858
 20
6615.308282750375
 30
0.0
 11
4008.200647410857
 21
6615.308282750375
 31
0.0
  0
LINE
  5
19064
330
165B5
100
AcDbEntity
  8
寸法
 62
     0
 48
50.0
370
    -2
100
AcDbLine
 10
3860.200647410854
 20
6615.308282750375
 30
0.0
 11
3760.200647410854
 21
6615.308282750375
 31
0.0
  0
MTEXT
  5
19065
330
165B5
100
AcDbEntity
  8
寸法
 62
     7
 48
50.0
100
AcDbMText
 10
4021.102618410915
 20
6715.308282750375
 30
0.0
 40
120.0
 41
0.0
 71
     5
 72
     1
  1
\A1;48
  7
STYLE1
 73
     1
 44
1.0
1001
ACAD
1000
MTEXTBEGIN
1070
    73
1070
     1
1070
    44
1040
1.0
1070
    74
1070
     0
1000
MTEXTEND
  0
LINE
  5
19066
330
165B5
100
AcDbEntity
  8
寸法
 62
     0
 48
50.0
370
    -2
100
AcDbLine
 10
3908.200647410858
 20
6615.308282750375
 30
0.0
 11
3860.200647410854
 21
6615.308282750375
 31
0.0
  0
INSERT
  5
19067
330
165B5
100
AcDbEntity
  8
寸法
 62
     0
 48
50.0
370
    -2
100
AcDbBlockReference
  2
_DOTSMALL
 10
3908.200647410858
 20
6615.308282750375
 30
0.0
 41
100.0
 42
100.0
 43
100.0
 50
180.0
  0
INSERT
  5
19068
330
165B5
100
AcDbEntity
  8
寸法
 62
     0
 48
50.0
370
    -2
100
AcDbBlockReference
  2
_DOTSMALL
 10
3860.200647410854
 20
6615.308282750375
 30
0.0
 41
100.0
 42
100.0
 43
100.0
  0
POINT
  5
19069
330
165B5
100
AcDbEntity
  8
DEFPOINTS
 62
     0
 48
50.0
100
AcDbPoint
 10
3908.200647410858
 20
7175.739053516538
 30
0.0
  0
POINT
  5
1906A
330
165B5
100
AcDbEntity
  8
DEFPOINTS
 62
     0
 48
50.0
100
AcDbPoint
 10
3860.200647410854
 20
7149.739053516539
 30
0.0
  0
POINT
  5
1906B
330
165B5
100
AcDbEntity
  8
DEFPOINTS
 62
     0
 48
50.0
100
AcDbPoint
 10
3860.200647410854
 20
6615.308282750375
 30
0.0
  0
ENDBLK
  5
165C3
330
165B5
100
AcDbEntity
  8
0
 48
50.0
100
AcDbBlockEnd
  0
BLOCK
  5
165C5
330
165C4
100
AcDbEntity
  8
0
 48
50.0
100
AcDbBlockBegin
  2
*D15
 70
     1
 10
0.0
 20
0.0
 30
0.0
  3
*D15
  1

  0
LINE
  5
1906C
330
165C4
100
AcDbEntity
  8
寸法
 62
     0
 48
50.0
370
    -2
100
AcDbLine
 10
5540.200647410841
 20
7129.739053516627
 30
0.0
 11
5540.200647410841
 21
6555.308282750374
 31
0.0
  0
LINE
  5
1906D
330
165C4
100
AcDbEntity
  8
寸法
 62
     0
 48
50.0
370
    -2
100
AcDbLine
 10
5492.20064741084
 20
7155.73905351654
 30
0.0
 11
5492.20064741084
 21
6555.308282750374
 31
0.0
  0
LINE
  5
1906E
330
165C4
100
AcDbEntity
  8
寸法
 62
     0
 48
50.0
370
    -2
100
AcDbLine
 10
5540.200647410841
 20
6615.308282750375
 30
0.0
 11
5640.200647410841
 21
6615.308282750375
 31
0.0
  0
LINE
  5
1906F
330
165C4
100
AcDbEntity
  8
寸法
 62
     0
 48
50.0
370
    -2
100
AcDbLine
 10
5492.20064741084
 20
6615.308282750375
 30
0.0
 11
5392.200647410839
 21
6615.308282750375
 31
0.0
  0
MTEXT
  5
19070
330
165C4
100
AcDbEntity
  8
寸法
 62
     7
 48
50.0
100
AcDbMText
 10
5381.237749762092
 20
6715.308282750375
 30
0.0
 40
120.0
 41
0.0
 71
     5
 72
     1
  1
\A1;48
  7
STYLE1
 73
     1
 44
1.0
1001
ACAD
1000
MTEXTBEGIN
1070
    73
1070
     1
1070
    44
1040
1.0
1070
    74
1070
     0
1000
MTEXTEND
  0
LINE
  5
19071
330
165C4
100
AcDbEntity
  8
寸法
 62
     0
 48
50.0
370
    -2
100
AcDbLine
 10
5540.200647410841
 20
6615.308282750375
 30
0.0
 11
5492.20064741084
 21
6615.308282750375
 31
0.0
  0
INSERT
  5
19072
330
165C4
100
AcDbEntity
  8
寸法
 62
     0
 48
50.0
370
    -2
100
AcDbBlockReference
  2
_DOTSMALL
 10
5540.200647410841
 20
6615.308282750375
 30
0.0
 41
100.0
 42
100.0
 43
100.0
 50
180.0
  0
INSERT
  5
19073
330
165C4
100
AcDbEntity
  8
寸法
 62
     0
 48
50.0
370
    -2
100
AcDbBlockReference
  2
_DOTSMALL
 10
5492.20064741084
 20
6615.308282750375
 30
0.0
 41
100.0
 42
100.0
 43
100.0
  0
POINT
  5
19074
330
165C4
100
AcDbEntity
  8
DEFPOINTS
 62
     0
 48
50.0
100
AcDbPoint
 10
5540.200647410841
 20
7149.739053516627
 30
0.0
  0
POINT
  5
19075
330
165C4
100
AcDbEntity
  8
DEFPOINTS
 62
     0
 48
50.0
100
AcDbPoint
 10
5492.20064741084
 20
7175.73905351654
 30
0.0
  0
POINT
  5
19076
330
165C4
100
AcDbEntity
  8
DEFPOINTS
 62
     0
 48
50.0
100
AcDbPoint
 10
5492.20064741084
 20
6615.308282750375
 30
0.0
  0
ENDBLK
  5
165D2
330
165C4
100
AcDbEntity
  8
0
 48
50.0
100
AcDbBlockEnd
  0
BLOCK
  5
1663F
330
165EA
100
AcDbEntity
  8
0
 48
50.0
100
AcDbBlockBegin
  2
*D16
 70
     1
 10
0.0
 20
0.0
 30
0.0
  3
*D16
  1

  0
LINE
  5
19058
330
165EA
100
AcDbEntity
  8
寸法
 62
     0
 48
50.0
370
    -2
100
AcDbLine
 10
5650.200647410854
 20
7129.739053516539
 30
0.0
 11
5650.200647410854
 21
6555.308282750376
 31
0.0
  0
LINE
  5
19059
330
165EA
100
AcDbEntity
  8
寸法
 62
     0
 48
50.0
370
    -2
100
AcDbLine
 10
5540.200647410841
 20
7129.739053516627
 30
0.0
 11
5540.200647410841
 21
6555.308282750376
 31
0.0
  0
LINE
  5
1905A
330
165EA
100
AcDbEntity
  8
寸法
 62
     0
 48
50.0
370
    -2
100
AcDbLine
 10
5650.200647410854
 20
6615.308282750376
 30
0.0
 11
5540.200647410841
 21
6615.308282750376
 31
0.0
  0
MTEXT
  5
1905B
330
165EA
100
AcDbEntity
  8
寸法
 62
     7
 48
50.0
100
AcDbMText
 10
5595.200647410848
 20
6463.616387714144
 30
0.0
 40
120.0
 41
0.0
 71
     5
 72
     1
  1
\A1;110
  7
STYLE1
 73
     1
 44
1.0
1001
ACAD
1000
MTEXTBEGIN
1070
    73
1070
     1
1070
    44
1040
1.0
1070
    74
1070
     0
1000
MTEXTEND
  0
INSERT
  5
1905C
330
165EA
100
AcDbEntity
  8
寸法
 62
     0
 48
50.0
370
    -2
100
AcDbBlockReference
  2
_DOTSMALL
 10
5650.200647410854
 20
6615.308282750376
 30
0.0
 41
100.0
 42
100.0
 43
100.0
  0
INSERT
  5
1905D
330
165EA
100
AcDbEntity
  8
寸法
 62
     0
 48
50.0
370
    -2
100
AcDbBlockReference
  2
_DOTSMALL
 10
5540.200647410841
 20
6615.308282750376
 30
0.0
 41
100.0
 42
100.0
 43
100.0
 50
180.0
  0
POINT
  5
1905E
330
165EA
100
AcDbEntity
  8
DEFPOINTS
 62
     0
 48
50.0
100
AcDbPoint
 10
5650.200647410854
 20
7149.739053516539
 30
0.0
  0
POINT
  5
1905F
330
165EA
100
AcDbEntity
  8
DEFPOINTS
 62
     0
 48
50.0
100
AcDbPoint
 10
5540.200647410841
 20
7149.739053516627
 30
0.0
  0
POINT
  5
19060
330
165EA
100
AcDbEntity
  8
DEFPOINTS
 62
     0
 48
50.0
100
AcDbPoint
 10
5540.200647410841
 20
6615.308282750376
 30
0.0
  0
ENDBLK
  5
16649
330
165EA
100
AcDbEntity
  8
0
 48
50.0
100
AcDbBlockEnd
  0
BLOCK
  5
1726C
330
16908
100
AcDbEntity
  8
0
 48
50.0
100
AcDbBlockBegin
  2
*D17
 70
     1
 10
0.0
 20
0.0
 30
0.0
  3
*D17
  1

  0
LINE
  5
19050
330
16908
100
AcDbEntity
  8
寸法
 62
     0
 48
50.0
370
    -2
100
AcDbLine
 10
7385.200647410865
 20
10219.73905351664
 30
0.0
 11
7385.200647410865
 21
10724.86874669793
 31
0.0
  0
LINE
  5
19051
330
16908
100
AcDbEntity
  8
寸法
 62
     0
 48
50.0
370
    -2
100
AcDbLine
 10
5595.200647410865
 20
10664.86874669793
 30
0.0
 11
7385.200647410865
 21
10664.86874669793
 31
0.0
  0
INSERT
  5
19052
330
16908
100
AcDbEntity
  8
寸法
 62
     0
 48
50.0
370
    -2
100
AcDbBlockReference
  2
_DOTSMALL
 10
5595.200647410865
 20
10664.86874669793
 30
0.0
 41
100.0
 42
100.0
 43
100.0
 50
180.0
  0
INSERT
  5
19053
330
16908
100
AcDbEntity
  8
寸法
 62
     0
 48
50.0
370
    -2
100
AcDbBlockReference
  2
_DOTSMALL
 10
7385.200647410865
 20
10664.86874669793
 30
0.0
 41
100.0
 42
100.0
 43
100.0
  0
MTEXT
  5
19054
330
16908
100
AcDbEntity
  8
寸法
 62
     7
 48
50.0
100
AcDbMText
 10
6490.200647410865
 20
10764.86874669793
 30
0.0
 40
120.0
 41
0.0
 71
     5
 72
     1
  1
\A1;1790
  7
STYLE1
 73
     1
 44
1.0
1001
ACAD
1000
MTEXTBEGIN
1070
    73
1070
     1
1070
    44
1040
1.0
1070
    74
1070
     0
1000
MTEXTEND
  0
POINT
  5
19055
330
16908
100
AcDbEntity
  8
DEFPOINTS
 62
     0
 48
50.0
100
AcDbPoint
 10
5595.200647410865
 20
10574.53518749958
 30
0.0
  0
POINT
  5
19056
330
16908
100
AcDbEntity
  8
DEFPOINTS
 62
     0
 48
50.0
100
AcDbPoint
 10
7385.200647410865
 20
10199.73905351664
 30
0.0
  0
POINT
  5
19057
330
16908
100
AcDbEntity
  8
DEFPOINTS
 62
     0
 48
50.0
100
AcDbPoint
 10
7385.200647410865
 20
10664.86874669793
 30
0.0
  0
ENDBLK
  5
17275
330
16908
100
AcDbEntity
  8
0
 48
50.0
100
AcDbBlockEnd
  0
BLOCK
  5
17BDC
330
17BD3
100
AcDbEntity
  8
0
 48
50.0
100
AcDbBlockBegin
  2
*D18
 70
     1
 10
0.0
 20
0.0
 30
0.0
  3
*D18
  1

  0
LINE
  5
1902B
330
17BD3
100
AcDbEntity
  8
寸法
 62
     0
 48
50.0
370
    -2
100
AcDbLine
 10
3908.200647410858
 20
7155.739053516538
 30
0.0
 11
3908.200647410858
 21
6555.308282750374
 31
0.0
  0
LINE
  5
1902C
330
17BD3
100
AcDbEntity
  8
寸法
 62
     0
 48
50.0
370
    -2
100
AcDbLine
 10
5492.20064741084
 20
6615.308282750375
 30
0.0
 11
3908.200647410858
 21
6615.308282750375
 31
0.0
  0
INSERT
  5
1902D
330
17BD3
100
AcDbEntity
  8
寸法
 62
     0
 48
50.0
370
    -2
100
AcDbBlockReference
  2
_DOTSMALL
 10
5492.20064741084
 20
6615.308282750375
 30
0.0
 41
100.0
 42
100.0
 43
100.0
  0
INSERT
  5
1902E
330
17BD3
100
AcDbEntity
  8
寸法
 62
     0
 48
50.0
370
    -2
100
AcDbBlockReference
  2
_DOTSMALL
 10
3908.200647410858
 20
6615.308282750375
 30
0.0
 41
100.0
 42
100.0
 43
100.0
 50
180.0
  0
MTEXT
  5
1902F
330
17BD3
100
AcDbEntity
  8
寸法
 62
     7
 48
50.0
100
AcDbMText
 10
4700.200647410848
 20
6815.308282750375
 30
0.0
 40
120.0
 41
0.0
 71
     5
 72
     1
  1
\A1;有効開口部間口\P 1584
  7
STYLE1
 73
     1
 44
1.0
1001
ACAD
1000
MTEXTBEGIN
1070
    73
1070
     1
1070
    44
1040
1.0
1070
    74
1070
     0
1000
MTEXTEND
  0
POINT
  5
19030
330
17BD3
100
AcDbEntity
  8
DEFPOINTS
 62
     0
 48
50.0
100
AcDbPoint
 10
5492.20064741084
 20
7175.73905351654
 30
0.0
  0
POINT
  5
19031
330
17BD3
100
AcDbEntity
  8
DEFPOINTS
 62
     0
 48
50.0
100
AcDbPoint
 10
3908.200647410858
 20
7175.739053516538
 30
0.0
  0
POINT
  5
19032
330
17BD3
100
AcDbEntity
  8
DEFPOINTS
 62
     0
 48
50.0
100
AcDbPoint
 10
3908.200647410858
 20
6615.308282750375
 30
0.0
  0
ENDBLK
  5
17BDD
330
17BD3
100
AcDbEntity
  8
0
 48
50.0
100
AcDbBlockEnd
  0
BLOCK
  5
17BE8
330
17BDE
100
AcDbEntity
  8
0
 48
50.0
100
AcDbBlockBegin
  2
*D19
 70
     1
 10
0.0
 20
0.0
 30
0.0
  3
*D19
  1

  0
LINE
  5
1903E
330
17BDE
100
AcDbEntity
  8
寸法
 62
     0
 48
50.0
370
    -2
100
AcDbLine
 10
3860.200647410864
 20
10219.73905351654
 30
0.0
 11
3860.200647410864
 21
10475.54727314164
 31
0.0
  0
LINE
  5
1903F
330
17BDE
100
AcDbEntity
  8
寸法
 62
     0
 48
50.0
370
    -2
100
AcDbLine
 10
5540.200647410864
 20
10219.73905351664
 30
0.0
 11
5540.200647410864
 21
10475.54727314164
 31
0.0
  0
LINE
  5
19040
330
17BDE
100
AcDbEntity
  8
寸法
 62
     0
 48
50.0
370
    -2
100
AcDbLine
 10
3860.200647410864
 20
10415.54727314164
 30
0.0
 11
5540.200647410864
 21
10415.54727314164
 31
0.0
  0
INSERT
  5
19041
330
17BDE
100
AcDbEntity
  8
寸法
 62
     0
 48
50.0
370
    -2
100
AcDbBlockReference
  2
_DOTSMALL
 10
3860.200647410864
 20
10415.54727314164
 30
0.0
 41
100.0
 42
100.0
 43
100.0
 50
180.0
  0
INSERT
  5
19042
330
17BDE
100
AcDbEntity
  8
寸法
 62
     0
 48
50.0
370
    -2
100
AcDbBlockReference
  2
_DOTSMALL
 10
5540.200647410864
 20
10415.54727314164
 30
0.0
 41
100.0
 42
100.0
 43
100.0
  0
MTEXT
  5
19043
330
17BDE
100
AcDbEntity
  8
寸法
 62
     7
 48
50.0
100
AcDbMText
 10
4700.200647410864
 20
10515.55908416526
 30
0.0
 40
120.0
 41
0.0
 71
     5
 72
     1
  1
\A1;4X420=1680
  7
STYLE1
 73
     1
 44
1.0
1001
ACAD
1000
MTEXTBEGIN
1070
    73
1070
     1
1070
    44
1040
1.0
1070
    74
1070
     0
1000
MTEXTEND
  0
POINT
  5
19044
330
17BDE
100
AcDbEntity
  8
DEFPOINTS
 62
     0
 48
50.0
100
AcDbPoint
 10
3860.200647410864
 20
10199.73905351654
 30
0.0
  0
POINT
  5
19045
330
17BDE
100
AcDbEntity
  8
DEFPOINTS
 62
     0
 48
50.0
100
AcDbPoint
 10
5540.200647410864
 20
10199.73905351664
 30
0.0
  0
POINT
  5
19046
330
17BDE
100
AcDbEntity
  8
DEFPOINTS
 62
     0
 48
50.0
100
AcDbPoint
 10
5540.200647410864
 20
10415.54727314164
 30
0.0
  0
ENDBLK
  5
17BE9
330
17BDE
100
AcDbEntity
  8
0
 48
50.0
100
AcDbBlockEnd
  0
BLOCK
  5
17BF6
330
17BEA
100
AcDbEntity
  8
0
 48
50.0
100
AcDbBlockBegin
  2
*D20
 70
     1
 10
0.0
 20
0.0
 30
0.0
  3
*D20
  1

  0
LINE
  5
19033
330
17BEA
100
AcDbEntity
  8
寸法
 62
     0
 48
50.0
370
    -2
100
AcDbLine
 10
5650.200647410864
 20
10219.73905351659
 30
0.0
 11
5650.200647410864
 21
10475.54727314164
 31
0.0
  0
LINE
  5
19034
330
17BEA
100
AcDbEntity
  8
寸法
 62
     0
 48
50.0
370
    -2
100
AcDbLine
 10
5540.200647410864
 20
10219.73905351659
 30
0.0
 11
5540.200647410864
 21
10475.54727314164
 31
0.0
  0
LINE
  5
19035
330
17BEA
100
AcDbEntity
  8
寸法
 62
     0
 48
50.0
370
    -2
100
AcDbLine
 10
5650.200647410864
 20
10415.54727314164
 30
0.0
 11
5750.200647410864
 21
10415.54727314164
 31
0.0
  0
LINE
  5
19036
330
17BEA
100
AcDbEntity
  8
寸法
 62
     0
 48
50.0
370
    -2
100
AcDbLine
 10
5540.200647410864
 20
10415.54727314164
 30
0.0
 11
5440.200647410865
 21
10415.54727314164
 31
0.0
  0
LINE
  5
19037
330
17BEA
100
AcDbEntity
  8
寸法
 62
     0
 48
50.0
370
    -2
100
AcDbLine
 10
5650.200647410864
 20
10415.54727314164
 30
0.0
 11
5540.200647410864
 21
10415.54727314164
 31
0.0
  0
INSERT
  5
19038
330
17BEA
100
AcDbEntity
  8
寸法
 62
     0
 48
50.0
370
    -2
100
AcDbBlockReference
  2
_DOTSMALL
 10
5650.200647410864
 20
10415.54727314164
 30
0.0
 41
100.0
 42
100.0
 43
100.0
 50
180.0
  0
INSERT
  5
19039
330
17BEA
100
AcDbEntity
  8
寸法
 62
     0
 48
50.0
370
    -2
100
AcDbBlockReference
  2
_DOTSMALL
 10
5540.200647410864
 20
10415.54727314164
 30
0.0
 41
100.0
 42
100.0
 43
100.0
  0
MTEXT
  5
1903A
330
17BEA
100
AcDbEntity
  8
寸法
 62
     7
 48
50.0
100
AcDbMText
 10
5595.200647410864
 20
10515.54727314164
 30
0.0
 40
120.0
 41
0.0
 71
     5
 72
     1
  1
\A1;110
  7
STYLE1
 73
     1
 44
1.0
1001
ACAD
1000
MTEXTBEGIN
1070
    73
1070
     1
1070
    44
1040
1.0
1070
    74
1070
     0
1000
MTEXTEND
  0
POINT
  5
1903B
330
17BEA
100
AcDbEntity
  8
DEFPOINTS
 62
     0
 48
50.0
100
AcDbPoint
 10
5650.200647410864
 20
10199.73905351659
 30
0.0
  0
POINT
  5
1903C
330
17BEA
100
AcDbEntity
  8
DEFPOINTS
 62
     0
 48
50.0
100
AcDbPoint
 10
5540.200647410864
 20
10199.73905351659
 30
0.0
  0
POINT
  5
1903D
330
17BEA
100
AcDbEntity
  8
DEFPOINTS
 62
     0
 48
50.0
100
AcDbPoint
 10
5540.200647410864
 20
10415.54727314164
 30
0.0
  0
ENDBLK
  5
17BF7
330
17BEA
100
AcDbEntity
  8
0
 48
50.0
100
AcDbBlockEnd
  0
BLOCK
  5
17C02
330
17BF8
100
AcDbEntity
  8
0
 48
50.0
100
AcDbBlockBegin
  2
*D21
 70
     1
 10
0.0
 20
0.0
 30
0.0
  3
*D21
  1

  0
LINE
  5
19047
330
17BF8
100
AcDbEntity
  8
寸法
 62
     0
 48
50.0
370
    -2
100
AcDbLine
 10
3805.20064741083
 20
10219.73905351651
 30
0.0
 11
3805.20064741083
 21
10724.86874669793
 31
0.0
  0
LINE
  5
19048
330
17BF8
100
AcDbEntity
  8
寸法
 62
     0
 48
50.0
370
    -2
100
AcDbLine
 10
5595.200647410865
 20
10594.53518749958
 30
0.0
 11
5595.200647410865
 21
10724.86874669793
 31
0.0
  0
LINE
  5
19049
330
17BF8
100
AcDbEntity
  8
寸法
 62
     0
 48
50.0
370
    -2
100
AcDbLine
 10
3805.20064741083
 20
10664.86874669793
 30
0.0
 11
5595.200647410865
 21
10664.86874669793
 31
0.0
  0
INSERT
  5
1904A
330
17BF8
100
AcDbEntity
  8
寸法
 62
     0
 48
50.0
370
    -2
100
AcDbBlockReference
  2
_DOTSMALL
 10
3805.20064741083
 20
10664.86874669793
 30
0.0
 41
100.0
 42
100.0
 43
100.0
 50
180.0
  0
INSERT
  5
1904B
330
17BF8
100
AcDbEntity
  8
寸法
 62
     0
 48
50.0
370
    -2
100
AcDbBlockReference
  2
_DOTSMALL
 10
5595.200647410865
 20
10664.86874669793
 30
0.0
 41
100.0
 42
100.0
 43
100.0
  0
MTEXT
  5
1904C
330
17BF8
100
AcDbEntity
  8
寸法
 62
     7
 48
50.0
100
AcDbMText
 10
4700.200647410848
 20
10764.86874669793
 30
0.0
 40
120.0
 41
0.0
 71
     5
 72
     1
  1
\A1;1790
  7
STYLE1
 73
     1
 44
1.0
1001
ACAD
1000
MTEXTBEGIN
1070
    73
1070
     1
1070
    44
1040
1.0
1070
    74
1070
     0
1000
MTEXTEND
  0
POINT
  5
1904D
330
17BF8
100
AcDbEntity
  8
DEFPOINTS
 62
     0
 48
50.0
100
AcDbPoint
 10
3805.20064741083
 20
10199.73905351651
 30
0.0
  0
POINT
  5
1904E
330
17BF8
100
AcDbEntity
  8
DEFPOINTS
 62
     0
 48
50.0
100
AcDbPoint
 10
5595.200647410865
 20
10574.53518749958
 30
0.0
  0
POINT
  5
1904F
330
17BF8
100
AcDbEntity
  8
DEFPOINTS
 62
     0
 48
50.0
100
AcDbPoint
 10
5595.200647410865
 20
10664.86874669793
 30
0.0
  0
ENDBLK
  5
17C03
330
17BF8
100
AcDbEntity
  8
0
 48
50.0
100
AcDbBlockEnd
  0
BLOCK
  5
19758
330
1974E
100
AcDbEntity
  8
0
 48
50.0
100
AcDbBlockBegin
  2
*D22
 70
     1
 10
0.0
 20
0.0
 30
0.0
  3
*D22
  1

  0
LINE
  5
19B87
330
1974E
100
AcDbEntity
  8
寸法
 62
     0
 48
50.0
370
    -2
100
AcDbLine
 10
10056.03653835329
 20
4028.358099277186
 30
0.0
 11
9172.286409170029
 21
4028.358099277187
 31
0.0
  0
LINE
  5
19B88
330
1974E
100
AcDbEntity
  8
寸法
 62
     0
 48
50.0
370
    -2
100
AcDbLine
 10
10056.03653835329
 20
2238.358099277184
 30
0.0
 11
9172.286409170029
 21
2238.358099277184
 31
0.0
  0
LINE
  5
19B89
330
1974E
100
AcDbEntity
  8
寸法
 62
     0
 48
50.0
370
    -2
100
AcDbLine
 10
9232.286409170027
 20
4028.358099277186
 30
0.0
 11
9232.286409170027
 21
2238.358099277184
 31
0.0
  0
INSERT
  5
19B8A
330
1974E
100
AcDbEntity
  8
寸法
 62
     0
 48
50.0
370
    -2
100
AcDbBlockReference
  2
_DOTSMALL
 10
9232.286409170027
 20
4028.358099277186
 30
0.0
 41
100.0
 42
100.0
 43
100.0
 50
90.0
  0
INSERT
  5
19B8B
330
1974E
100
AcDbEntity
  8
寸法
 62
     0
 48
50.0
370
    -2
100
AcDbBlockReference
  2
_DOTSMALL
 10
9232.286409170027
 20
2238.358099277184
 30
0.0
 41
100.0
 42
100.0
 43
100.0
 50
270.0
  0
MTEXT
  5
19B8C
330
1974E
100
AcDbEntity
  8
寸法
 62
     7
 48
50.0
100
AcDbMText
 10
9132.286409170028
 20
3133.358099277187
 30
0.0
 40
120.0
 41
0.0
 71
     5
 72
     1
  1
\A1;1790
  7
STYLE1
 11
0.0000000000000001
 21
1.0
 31
0.0
 73
     1
 44
1.0
1001
ACAD
1000
MTEXTBEGIN
1070
    73
1070
     1
1070
    44
1040
1.0
1070
    74
1070
     0
1000
MTEXTEND
  0
POINT
  5
19B8D
330
1974E
100
AcDbEntity
  8
DEFPOINTS
 62
     0
 48
50.0
100
AcDbPoint
 10
10076.03653835329
 20
4028.358099277186
 30
0.0
  0
POINT
  5
19B8E
330
1974E
100
AcDbEntity
  8
DEFPOINTS
 62
     0
 48
50.0
100
AcDbPoint
 10
10076.03653835329
 20
2238.358099277184
 30
0.0
  0
POINT
  5
19B8F
330
1974E
100
AcDbEntity
  8
DEFPOINTS
 62
     0
 48
50.0
100
AcDbPoint
 10
9232.286409170027
 20
2238.358099277184
 30
0.0
  0
ENDBLK
  5
19759
330
1974E
100
AcDbEntity
  8
0
 48
50.0
100
AcDbBlockEnd
  0
BLOCK
  5
19764
330
1975A
100
AcDbEntity
  8
0
 48
50.0
100
AcDbBlockBegin
  2
*D23
 70
     1
 10
0.0
 20
0.0
 30
0.0
  3
*D23
  1

  0
LINE
  5
19B7E
330
1975A
100
AcDbEntity
  8
寸法
 62
     0
 48
50.0
370
    -2
100
AcDbLine
 10
10056.03653835329
 20
2188.358099277184
 30
0.0
 11
8872.286409170028
 21
2188.358099277184
 31
0.0
  0
LINE
  5
19B7F
330
1975A
100
AcDbEntity
  8
寸法
 62
     0
 48
50.0
370
    -2
100
AcDbLine
 10
9996.036538353289
 20
4263.35809927719
 30
0.0
 11
8872.286409170028
 21
4263.35809927719
 31
0.0
  0
LINE
  5
19B80
330
1975A
100
AcDbEntity
  8
寸法
 62
     0
 48
50.0
370
    -2
100
AcDbLine
 10
8932.286409170027
 20
2188.358099277184
 30
0.0
 11
8932.286409170028
 21
4263.35809927719
 31
0.0
  0
INSERT
  5
19B81
330
1975A
100
AcDbEntity
  8
寸法
 62
     0
 48
50.0
370
    -2
100
AcDbBlockReference
  2
_DOTSMALL
 10
8932.286409170027
 20
2188.358099277184
 30
0.0
 41
100.0
 42
100.0
 43
100.0
 50
270.0
  0
INSERT
  5
19B82
330
1975A
100
AcDbEntity
  8
寸法
 62
     0
 48
50.0
370
    -2
100
AcDbBlockReference
  2
_DOTSMALL
 10
8932.286409170028
 20
4263.35809927719
 30
0.0
 41
100.0
 42
100.0
 43
100.0
 50
90.0
  0
MTEXT
  5
19B83
330
1975A
100
AcDbEntity
  8
寸法
 62
     7
 48
50.0
100
AcDbMText
 10
8832.274598146405
 20
3225.858099277188
 30
0.0
 40
120.0
 41
0.0
 71
     5
 72
     1
  1
\A1;2075
  7
STYLE1
 11
0.0000000000000001
 21
1.0
 31
0.0
 73
     1
 44
1.0
1001
ACAD
1000
MTEXTBEGIN
1070
    73
1070
     1
1070
    44
1040
1.0
1070
    74
1070
     0
1000
MTEXTEND
  0
POINT
  5
19B84
330
1975A
100
AcDbEntity
  8
DEFPOINTS
 62
     0
 48
50.0
100
AcDbPoint
 10
10076.03653835329
 20
2188.358099277184
 30
0.0
  0
POINT
  5
19B85
330
1975A
100
AcDbEntity
  8
DEFPOINTS
 62
     0
 48
50.0
100
AcDbPoint
 10
10016.03653835329
 20
4263.35809927719
 30
0.0
  0
POINT
  5
19B86
330
1975A
100
AcDbEntity
  8
DEFPOINTS
 62
     0
 48
50.0
100
AcDbPoint
 10
8932.286409170028
 20
4263.35809927719
 30
0.0
  0
ENDBLK
  5
19765
330
1975A
100
AcDbEntity
  8
0
 48
50.0
100
AcDbBlockEnd
  0
BLOCK
  5
19770
330
19766
100
AcDbEntity
  8
0
 48
50.0
100
AcDbBlockBegin
  2
*D24
 70
     1
 10
0.0
 20
0.0
 30
0.0
  3
*D24
  1

  0
LINE
  5
19B75
330
19766
100
AcDbEntity
  8
寸法
 62
     0
 48
50.0
370
    -2
100
AcDbLine
 10
13146.03653835329
 20
2188.358099277191
 30
0.0
 11
13890.96369632541
 21
2188.358099277191
 31
0.0
  0
LINE
  5
19B76
330
19766
100
AcDbEntity
  8
寸法
 62
     0
 48
50.0
370
    -2
100
AcDbLine
 10
13226.03653835329
 20
4208.358099277191
 30
0.0
 11
13890.96369632541
 21
4208.358099277191
 31
0.0
  0
LINE
  5
19B77
330
19766
100
AcDbEntity
  8
寸法
 62
     0
 48
50.0
370
    -2
100
AcDbLine
 10
13830.96369632541
 20
2188.358099277191
 30
0.0
 11
13830.96369632541
 21
4208.358099277191
 31
0.0
  0
INSERT
  5
19B78
330
19766
100
AcDbEntity
  8
寸法
 62
     0
 48
50.0
370
    -2
100
AcDbBlockReference
  2
_DOTSMALL
 10
13830.96369632541
 20
2188.358099277191
 30
0.0
 41
100.0
 42
100.0
 43
100.0
 50
270.0
  0
INSERT
  5
19B79
330
19766
100
AcDbEntity
  8
寸法
 62
     0
 48
50.0
370
    -2
100
AcDbBlockReference
  2
_DOTSMALL
 10
13830.96369632541
 20
4208.358099277191
 30
0.0
 41
100.0
 42
100.0
 43
100.0
 50
90.0
  0
MTEXT
  5
19B7A
330
19766
100
AcDbEntity
  8
寸法
 62
     7
 48
50.0
100
AcDbMText
 10
13730.95188530179
 20
3198.358099277193
 30
0.0
 40
120.0
 41
0.0
 71
     5
 72
     1
  1
\A1;2020
  7
STYLE1
 11
0.0000000000000001
 21
1.0
 31
0.0
 73
     1
 44
1.0
1001
ACAD
1000
MTEXTBEGIN
1070
    73
1070
     1
1070
    44
1040
1.0
1070
    74
1070
     0
1000
MTEXTEND
  0
POINT
  5
19B7B
330
19766
100
AcDbEntity
  8
DEFPOINTS
 62
     0
 48
50.0
100
AcDbPoint
 10
13126.03653835329
 20
2188.358099277191
 30
0.0
  0
POINT
  5
19B7C
330
19766
100
AcDbEntity
  8
DEFPOINTS
 62
     0
 48
50.0
100
AcDbPoint
 10
13206.03653835329
 20
4208.358099277191
 30
0.0
  0
POINT
  5
19B7D
330
19766
100
AcDbEntity
  8
DEFPOINTS
 62
     0
 48
50.0
100
AcDbPoint
 10
13830.96369632541
 20
4208.358099277191
 30
0.0
  0
ENDBLK
  5
19771
330
19766
100
AcDbEntity
  8
0
 48
50.0
100
AcDbBlockEnd
  0
BLOCK
  5
1977E
330
19772
100
AcDbEntity
  8
0
 48
50.0
100
AcDbBlockBegin
  2
*D25
 70
     1
 10
0.0
 20
0.0
 30
0.0
  3
*D25
  1

  0
LINE
  5
19B6A
330
19772
100
AcDbEntity
  8
寸法
 62
     0
 48
50.0
370
    -2
100
AcDbLine
 10
10056.03653835329
 20
2238.358099277189
 30
0.0
 11
9172.286409170029
 21
2238.35809927719
 31
0.0
  0
LINE
  5
19B6B
330
19772
100
AcDbEntity
  8
寸法
 62
     0
 48
50.0
370
    -2
100
AcDbLine
 10
10001.03653835329
 20
2188.35809927719
 30
0.0
 11
9172.286409170029
 21
2188.35809927719
 31
0.0
  0
LINE
  5
19B6C
330
19772
100
AcDbEntity
  8
寸法
 62
     0
 48
50.0
370
    -2
100
AcDbLine
 10
9232.286409170027
 20
2238.358099277189
 30
0.0
 11
9232.286409170027
 21
2338.358099277189
 31
0.0
  0
LINE
  5
19B6D
330
19772
100
AcDbEntity
  8
寸法
 62
     0
 48
50.0
370
    -2
100
AcDbLine
 10
9232.286409170027
 20
2188.35809927719
 30
0.0
 11
9232.286409170027
 21
1776.263611088209
 31
0.0
  0
LINE
  5
19B6E
330
19772
100
AcDbEntity
  8
寸法
 62
     0
 48
50.0
370
    -2
100
AcDbLine
 10
9232.286409170027
 20
2238.358099277189
 30
0.0
 11
9232.286409170027
 21
2188.35809927719
 31
0.0
  0
INSERT
  5
19B6F
330
19772
100
AcDbEntity
  8
寸法
 62
     0
 48
50.0
370
    -2
100
AcDbBlockReference
  2
_DOTSMALL
 10
9232.286409170027
 20
2238.358099277189
 30
0.0
 41
100.0
 42
100.0
 43
100.0
 50
270.0
  0
INSERT
  5
19B70
330
19772
100
AcDbEntity
  8
寸法
 62
     0
 48
50.0
370
    -2
100
AcDbBlockReference
  2
_DOTSMALL
 10
9232.286409170027
 20
2188.35809927719
 30
0.0
 41
100.0
 42
100.0
 43
100.0
 50
90.0
  0
MTEXT
  5
19B71
330
19772
100
AcDbEntity
  8
寸法
 62
     7
 48
50.0
100
AcDbMText
 10
9132.286409170028
 20
1882.310855182699
 30
0.0
 40
120.0
 41
0.0
 71
     5
 72
     1
  1
\A1;50
  7
STYLE1
 11
0.0000000000000001
 21
1.0
 31
0.0
 73
     1
 44
1.0
1001
ACAD
1000
MTEXTBEGIN
1070
    73
1070
     1
1070
    44
1040
1.0
1070
    74
1070
     0
1000
MTEXTEND
  0
POINT
  5
19B72
330
19772
100
AcDbEntity
  8
DEFPOINTS
 62
     0
 48
50.0
100
AcDbPoint
 10
10076.03653835329
 20
2238.358099277189
 30
0.0
  0
POINT
  5
19B73
330
19772
100
AcDbEntity
  8
DEFPOINTS
 62
     0
 48
50.0
100
AcDbPoint
 10
10021.03653835329
 20
2188.35809927719
 30
0.0
  0
POINT
  5
19B74
330
19772
100
AcDbEntity
  8
DEFPOINTS
 62
     0
 48
50.0
100
AcDbPoint
 10
9232.286409170027
 20
2188.35809927719
 30
0.0
  0
ENDBLK
  5
1977F
330
19772
100
AcDbEntity
  8
0
 48
50.0
100
AcDbBlockEnd
  0
BLOCK
  5
1978A
330
19780
100
AcDbEntity
  8
0
 48
50.0
100
AcDbBlockBegin
  2
*D26
 70
     1
 10
0.0
 20
0.0
 30
0.0
  3
*D26
  1

  0
LINE
  5
1A270
330
19780
100
AcDbEntity
  8
寸法
 62
     0
 48
50.0
370
    -2
100
AcDbLine
 10
13126.03653835329
 20
4230.168778888844
 30
0.0
 11
13126.03653835329
 21
4722.015552856496
 31
0.0
  0
LINE
  5
1A271
330
19780
100
AcDbEntity
  8
寸法
 62
     0
 48
50.0
370
    -2
100
AcDbLine
 10
10076.03653835329
 20
4279.359717400166
 30
0.0
 11
10076.03653835329
 21
4722.015552856496
 31
0.0
  0
LINE
  5
1A272
330
19780
100
AcDbEntity
  8
寸法
 62
     0
 48
50.0
370
    -2
100
AcDbLine
 10
13126.03653835329
 20
4662.015552856495
 30
0.0
 11
10076.03653835329
 21
4662.015552856495
 31
0.0
  0
INSERT
  5
1A273
330
19780
100
AcDbEntity
  8
寸法
 62
     0
 48
50.0
370
    -2
100
AcDbBlockReference
  2
_DOTSMALL
 10
13126.03653835329
 20
4662.015552856495
 30
0.0
 41
100.0
 42
100.0
 43
100.0
  0
INSERT
  5
1A274
330
19780
100
AcDbEntity
  8
寸法
 62
     0
 48
50.0
370
    -2
100
AcDbBlockReference
  2
_DOTSMALL
 10
10076.03653835329
 20
4662.015552856495
 30
0.0
 41
100.0
 42
100.0
 43
100.0
 50
180.0
  0
MTEXT
  5
1A275
330
19780
100
AcDbEntity
  8
寸法
 62
     7
 48
50.0
100
AcDbMText
 10
11601.03653835329
 20
4762.015552856495
 30
0.0
 40
120.0
 41
0.0
 71
     5
 72
     1
  1
\A1;柱外寸法3050
  7
STYLE1
 73
     1
 44
1.0
1001
ACAD
1000
MTEXTBEGIN
1070
    73
1070
     1
1070
    44
1040
1.0
1070
    74
1070
     0
1000
MTEXTEND
  0
POINT
  5
1A276
330
19780
100
AcDbEntity
  8
DEFPOINTS
 62
     0
 48
50.0
100
AcDbPoint
 10
13126.03653835329
 20
4210.168778888845
 30
0.0
  0
POINT
  5
1A277
330
19780
100
AcDbEntity
  8
DEFPOINTS
 62
     0
 48
50.0
100
AcDbPoint
 10
10076.03653835329
 20
4259.359717400166
 30
0.0
  0
POINT
  5
1A278
330
19780
100
AcDbEntity
  8
DEFPOINTS
 62
     0
 48
50.0
100
AcDbPoint
 10
10076.03653835329
 20
4662.015552856495
 30
0.0
  0
ENDBLK
  5
1978B
330
19780
100
AcDbEntity
  8
0
 48
50.0
100
AcDbBlockEnd
  0
BLOCK
  5
19798
330
1978C
100
AcDbEntity
  8
0
 48
50.0
100
AcDbBlockBegin
  2
*D27
 70
     1
 10
0.0
 20
0.0
 30
0.0
  3
*D27
  1

  0
LINE
  5
19B56
330
1978C
100
AcDbEntity
  8
寸法
 62
     0
 48
50.0
370
    -2
100
AcDbLine
 10
10076.03653835329
 20
4279.359717400166
 30
0.0
 11
10076.03653835329
 21
4722.015552856493
 31
0.0
  0
LINE
  5
19B57
330
1978C
100
AcDbEntity
  8
寸法
 62
     0
 48
50.0
370
    -2
100
AcDbLine
 10
10016.03653835329
 20
4283.358099277194
 30
0.0
 11
10016.03653835329
 21
4722.015552856493
 31
0.0
  0
LINE
  5
19B58
330
1978C
100
AcDbEntity
  8
寸法
 62
     0
 48
50.0
370
    -2
100
AcDbLine
 10
10076.03653835329
 20
4662.015552856494
 30
0.0
 11
10176.03653835329
 21
4662.015552856494
 31
0.0
  0
LINE
  5
19B59
330
1978C
100
AcDbEntity
  8
寸法
 62
     0
 48
50.0
370
    -2
100
AcDbLine
 10
10016.03653835329
 20
4662.015552856494
 30
0.0
 11
9596.760947802108
 21
4662.015552856494
 31
0.0
  0
LINE
  5
19B5A
330
1978C
100
AcDbEntity
  8
寸法
 62
     0
 48
50.0
370
    -2
100
AcDbLine
 10
10076.03653835329
 20
4662.015552856494
 30
0.0
 11
10016.03653835329
 21
4662.015552856494
 31
0.0
  0
INSERT
  5
19B5B
330
1978C
100
AcDbEntity
  8
寸法
 62
     0
 48
50.0
370
    -2
100
AcDbBlockReference
  2
_DOTSMALL
 10
10076.03653835329
 20
4662.015552856494
 30
0.0
 41
100.0
 42
100.0
 43
100.0
 50
180.0
  0
INSERT
  5
19B5C
330
1978C
100
AcDbEntity
  8
寸法
 62
     0
 48
50.0
370
    -2
100
AcDbBlockReference
  2
_DOTSMALL
 10
10016.03653835329
 20
4662.015552856494
 30
0.0
 41
100.0
 42
100.0
 43
100.0
  0
MTEXT
  5
19B5D
330
1978C
100
AcDbEntity
  8
寸法
 62
     7
 48
50.0
100
AcDbMText
 10
9706.398743077699
 20
4762.015552856493
 30
0.0
 40
120.0
 41
0.0
 71
     5
 72
     1
  1
\A1;60
  7
STYLE1
 73
     1
 44
1.0
1001
ACAD
1000
MTEXTBEGIN
1070
    73
1070
     1
1070
    44
1040
1.0
1070
    74
1070
     0
1000
MTEXTEND
  0
POINT
  5
19B5E
330
1978C
100
AcDbEntity
  8
DEFPOINTS
 62
     0
 48
50.0
100
AcDbPoint
 10
10076.03653835329
 20
4259.359717400166
 30
0.0
  0
POINT
  5
19B5F
330
1978C
100
AcDbEntity
  8
DEFPOINTS
 62
     0
 48
50.0
100
AcDbPoint
 10
10016.03653835329
 20
4263.358099277193
 30
0.0
  0
POINT
  5
19B60
330
1978C
100
AcDbEntity
  8
DEFPOINTS
 62
     0
 48
50.0
100
AcDbPoint
 10
10016.03653835329
 20
4662.015552856494
 30
0.0
  0
ENDBLK
  5
19799
330
1978C
100
AcDbEntity
  8
0
 48
50.0
100
AcDbBlockEnd
  0
BLOCK
  5
197A4
330
1979A
100
AcDbEntity
  8
0
 48
50.0
100
AcDbBlockBegin
  2
*D28
 70
     1
 10
0.0
 20
0.0
 30
0.0
  3
*D28
  1

  0
LINE
  5
1A267
330
1979A
100
AcDbEntity
  8
寸法
 62
     0
 48
50.0
370
    -2
100
AcDbLine
 10
13206.03653835329
 20
4228.358099277191
 30
0.0
 11
13206.03653835329
 21
4952.129145642771
 31
0.0
  0
LINE
  5
1A268
330
1979A
100
AcDbEntity
  8
寸法
 62
     0
 48
50.0
370
    -2
100
AcDbLine
 10
10016.03653835329
 20
4283.358099277194
 30
0.0
 11
10016.03653835329
 21
4952.129145642771
 31
0.0
  0
LINE
  5
1A269
330
1979A
100
AcDbEntity
  8
寸法
 62
     0
 48
50.0
370
    -2
100
AcDbLine
 10
13206.03653835329
 20
4892.129145642772
 30
0.0
 11
10016.03653835329
 21
4892.129145642772
 31
0.0
  0
INSERT
  5
1A26A
330
1979A
100
AcDbEntity
  8
寸法
 62
     0
 48
50.0
370
    -2
100
AcDbBlockReference
  2
_DOTSMALL
 10
13206.03653835329
 20
4892.129145642772
 30
0.0
 41
100.0
 42
100.0
 43
100.0
  0
INSERT
  5
1A26B
330
1979A
100
AcDbEntity
  8
寸法
 62
     0
 48
50.0
370
    -2
100
AcDbBlockReference
  2
_DOTSMALL
 10
10016.03653835329
 20
4892.129145642772
 30
0.0
 41
100.0
 42
100.0
 43
100.0
 50
180.0
  0
MTEXT
  5
1A26C
330
1979A
100
AcDbEntity
  8
寸法
 62
     7
 48
50.0
100
AcDbMText
 10
11611.03653835328
 20
4992.129145642771
 30
0.0
 40
120.0
 41
0.0
 71
     5
 72
     1
  1
\A1;3190
  7
STYLE1
 73
     1
 44
1.0
1001
ACAD
1000
MTEXTBEGIN
1070
    73
1070
     1
1070
    44
1040
1.0
1070
    74
1070
     0
1000
MTEXTEND
  0
POINT
  5
1A26D
330
1979A
100
AcDbEntity
  8
DEFPOINTS
 62
     0
 48
50.0
100
AcDbPoint
 10
13206.03653835329
 20
4208.358099277191
 30
0.0
  0
POINT
  5
1A26E
330
1979A
100
AcDbEntity
  8
DEFPOINTS
 62
     0
 48
50.0
100
AcDbPoint
 10
10016.03653835329
 20
4263.358099277193
 30
0.0
  0
POINT
  5
1A26F
330
1979A
100
AcDbEntity
  8
DEFPOINTS
 62
     0
 48
50.0
100
AcDbPoint
 10
10016.03653835329
 20
4892.129145642772
 30
0.0
  0
ENDBLK
  5
197A5
330
1979A
100
AcDbEntity
  8
0
 48
50.0
100
AcDbBlockEnd
  0
BLOCK
  5
197B1
330
197A6
100
AcDbEntity
  8
0
 48
50.0
100
AcDbBlockBegin
  2
*D29
 70
     1
 10
0.0
 20
0.0
 30
0.0
  3
*D29
  1

  0
LINE
  5
19B43
330
197A6
100
AcDbEntity
  8
寸法
 62
     0
 48
50.0
370
    -2
100
AcDbLine
 10
13126.03653835329
 20
4230.168778888844
 30
0.0
 11
13126.03653835329
 21
4722.015552856496
 31
0.0
  0
LINE
  5
19B44
330
197A6
100
AcDbEntity
  8
寸法
 62
     0
 48
50.0
370
    -2
100
AcDbLine
 10
13206.03653835329
 20
4228.358099277193
 30
0.0
 11
13206.03653835329
 21
4722.015552856496
 31
0.0
  0
LINE
  5
19B45
330
197A6
100
AcDbEntity
  8
寸法
 62
     0
 48
50.0
370
    -2
100
AcDbLine
 10
13126.03653835329
 20
4662.015552856495
 30
0.0
 11
13206.03653835329
 21
4662.015552856495
 31
0.0
  0
LINE
  5
19B46
330
197A6
100
AcDbEntity
  8
寸法
 62
     0
 48
50.0
370
    -2
100
AcDbLine
 10
13206.03653835329
 20
4662.015552856495
 30
0.0
 11
13518.13102654227
 21
4662.015552856495
 31
0.0
  0
INSERT
  5
19B47
330
197A6
100
AcDbEntity
  8
寸法
 62
     0
 48
50.0
370
    -2
100
AcDbBlockReference
  2
_DOTSMALL
 10
13126.03653835329
 20
4662.015552856495
 30
0.0
 41
100.0
 42
100.0
 43
100.0
 50
180.0
  0
INSERT
  5
19B48
330
197A6
100
AcDbEntity
  8
寸法
 62
     0
 48
50.0
370
    -2
100
AcDbBlockReference
  2
_DOTSMALL
 10
13206.03653835329
 20
4662.015552856495
 30
0.0
 41
100.0
 42
100.0
 43
100.0
  0
MTEXT
  5
19B49
330
197A6
100
AcDbEntity
  8
寸法
 62
     7
 48
50.0
100
AcDbMText
 10
13412.08378244778
 20
4762.015552856495
 30
0.0
 40
120.0
 41
0.0
 71
     5
 72
     1
  1
\A1;80
  7
STYLE1
 73
     1
 44
1.0
1001
ACAD
1000
MTEXTBEGIN
1070
    73
1070
     1
1070
    44
1040
1.0
1070
    74
1070
     0
1000
MTEXTEND
  0
POINT
  5
19B4A
330
197A6
100
AcDbEntity
  8
DEFPOINTS
 62
     0
 48
50.0
100
AcDbPoint
 10
13126.03653835329
 20
4210.168778888845
 30
0.0
  0
POINT
  5
19B4B
330
197A6
100
AcDbEntity
  8
DEFPOINTS
 62
     0
 48
50.0
100
AcDbPoint
 10
13206.03653835329
 20
4208.358099277194
 30
0.0
  0
POINT
  5
19B4C
330
197A6
100
AcDbEntity
  8
DEFPOINTS
 62
     0
 48
50.0
100
AcDbPoint
 10
13206.03653835329
 20
4662.015552856495
 30
0.0
  0
ENDBLK
  5
197B2
330
197A6
100
AcDbEntity
  8
0
 48
50.0
100
AcDbBlockEnd
  0
BLOCK
  5
197BE
330
197B3
100
AcDbEntity
  8
0
 48
50.0
100
AcDbBlockBegin
  2
*D30
 70
     1
 10
0.0
 20
0.0
 30
0.0
  3
*D30
  1

  0
LINE
  5
19B39
330
197B3
100
AcDbEntity
  8
寸法
 62
     0
 48
50.0
370
    -2
100
AcDbLine
 10
10015.44082464439
 20
4262.655806346851
 30
0.0
 11
9399.506385539099
 21
4280.369956621181
 31
0.0
  0
LINE
  5
19B3A
330
197B3
100
AcDbEntity
  8
寸法
 62
     0
 48
50.0
370
    -2
100
AcDbLine
 10
10011.38736908776
 20
4121.714082581138
 30
0.0
 11
9395.452929982473
 21
4139.428232855467
 31
0.0
  0
LINE
  5
19B3B
330
197B3
100
AcDbEntity
  8
寸法
 62
     0
 48
50.0
370
    -2
100
AcDbLine
 10
9455.428131584906
 20
4137.70335815052
 30
0.0
 11
9459.481587141532
 21
4278.645081916233
 31
0.0
  0
LINE
  5
19B3C
330
197B3
100
AcDbEntity
  8
寸法
 62
     0
 48
50.0
370
    -2
100
AcDbLine
 10
9459.481587141532
 20
4278.645081916233
 30
0.0
 11
9469.830835371217
 21
4638.496291530821
 31
0.0
  0
INSERT
  5
19B3D
330
197B3
100
AcDbEntity
  8
寸法
 62
     0
 48
50.0
370
    -2
100
AcDbBlockReference
  2
_DOTSMALL
 10
9455.428131584906
 20
4137.70335815052
 30
0.0
 41
100.0
 42
100.0
 43
100.0
 50
268.3526390256378
  0
INSERT
  5
19B3E
330
197B3
100
AcDbEntity
  8
寸法
 62
     0
 48
50.0
370
    -2
100
AcDbBlockReference
  2
_DOTSMALL
 10
9459.481587141532
 20
4278.645081916233
 30
0.0
 41
100.0
 42
100.0
 43
100.0
 50
88.35263902563776
  0
MTEXT
  5
19B3F
330
197B3
100
AcDbEntity
  8
寸法
 62
     7
 48
50.0
100
AcDbMText
 10
9366.134937506442
 20
4511.424812567134
 30
0.0
 40
120.0
 41
0.0
 71
     5
 72
     1
  1
\A1;141
  7
STYLE1
 11
0.0287479117491237
 21
0.9995866933738488
 31
0.0
 73
     1
 44
1.0
1001
ACAD
1000
MTEXTBEGIN
1070
    73
1070
     1
1070
    44
1040
1.0
1070
    74
1070
     0
1000
MTEXTEND
  0
POINT
  5
19B40
330
197B3
100
AcDbEntity
  8
DEFPOINTS
 62
     0
 48
50.0
100
AcDbPoint
 10
10035.43255851186
 20
4262.080848111868
 30
0.0
  0
POINT
  5
19B41
330
197B3
100
AcDbEntity
  8
DEFPOINTS
 62
     0
 48
50.0
100
AcDbPoint
 10
10031.37910295524
 20
4121.139124346155
 30
0.0
  0
POINT
  5
19B42
330
197B3
100
AcDbEntity
  8
DEFPOINTS
 62
     0
 48
50.0
100
AcDbPoint
 10
9455.428131584906
 20
4137.70335815052
 30
0.0
  0
ENDBLK
  5
197BF
330
197B3
100
AcDbEntity
  8
0
 48
50.0
100
AcDbBlockEnd
  0
BLOCK
  5
19F54
330
19F48
100
AcDbEntity
  8
0
 48
50.0
100
AcDbBlockBegin
  2
*D31
 70
     1
 10
0.0
 20
0.0
 30
0.0
  3
*D31
  1

  0
LINE
  5
19F7C
330
19F48
100
AcDbEntity
  8
寸法
 62
     0
 48
50.0
370
    -2
100
AcDbLine
 10
7435.200647410859
 20
4283.358099277193
 30
0.0
 11
7435.200647410859
 21
4729.084371009103
 31
0.0
  0
LINE
  5
19F7D
330
19F48
100
AcDbEntity
  8
寸法
 62
     0
 48
50.0
370
    -2
100
AcDbLine
 10
7385.200647410862
 20
4283.358099277196
 30
0.0
 11
7385.200647410862
 21
4729.084371009103
 31
0.0
  0
LINE
  5
19F7E
330
19F48
100
AcDbEntity
  8
寸法
 62
     0
 48
50.0
370
    -2
100
AcDbLine
 10
7385.200647410862
 20
4669.084371009103
 30
0.0
 11
7285.200647410862
 21
4669.084371009103
 31
0.0
  0
LINE
  5
19F7F
330
19F48
100
AcDbEntity
  8
寸法
 62
     0
 48
50.0
370
    -2
100
AcDbLine
 10
7435.200647410859
 20
4669.084371009103
 30
0.0
 11
7854.733172879587
 21
4669.084371009103
 31
0.0
  0
LINE
  5
19F80
330
19F48
100
AcDbEntity
  8
寸法
 62
     0
 48
50.0
370
    -2
100
AcDbLine
 10
7385.200647410862
 20
4669.084371009103
 30
0.0
 11
7435.200647410859
 21
4669.084371009103
 31
0.0
  0
INSERT
  5
19F81
330
19F48
100
AcDbEntity
  8
寸法
 62
     0
 48
50.0
370
    -2
100
AcDbBlockReference
  2
_DOTSMALL
 10
7385.200647410862
 20
4669.084371009103
 30
0.0
 41
100.0
 42
100.0
 43
100.0
  0
INSERT
  5
19F82
330
19F48
100
AcDbEntity
  8
寸法
 62
     0
 48
50.0
370
    -2
100
AcDbBlockReference
  2
_DOTSMALL
 10
7435.200647410859
 20
4669.084371009103
 30
0.0
 41
100.0
 42
100.0
 43
100.0
 50
180.0
  0
MTEXT
  5
19F83
330
19F48
100
AcDbEntity
  8
寸法
 62
     7
 48
50.0
100
AcDbMText
 10
7748.685928785099
 20
4769.084371009102
 30
0.0
 40
120.0
 41
0.0
 71
     5
 72
     1
  1
\A1;50
  7
STYLE1
 73
     1
 44
1.0
1001
ACAD
1000
MTEXTBEGIN
1070
    73
1070
     1
1070
    44
1040
1.0
1070
    74
1070
     0
1000
MTEXTEND
  0
POINT
  5
19F84
330
19F48
100
AcDbEntity
  8
DEFPOINTS
 62
     0
 48
50.0
100
AcDbPoint
 10
7435.200647410859
 20
4263.358099277193
 30
0.0
  0
POINT
  5
19F85
330
19F48
100
AcDbEntity
  8
DEFPOINTS
 62
     0
 48
50.0
100
AcDbPoint
 10
7385.200647410862
 20
4263.358099277197
 30
0.0
  0
POINT
  5
19F86
330
19F48
100
AcDbEntity
  8
DEFPOINTS
 62
     0
 48
50.0
100
AcDbPoint
 10
7385.200647410862
 20
4669.084371009103
 30
0.0
  0
ENDBLK
  5
19F55
330
19F48
100
AcDbEntity
  8
0
 48
50.0
100
AcDbBlockEnd
  0
BLOCK
  5
19F62
330
19F56
100
AcDbEntity
  8
0
 48
50.0
100
AcDbBlockBegin
  2
*D32
 70
     1
 10
0.0
 20
0.0
 30
0.0
  3
*D32
  1

  0
LINE
  5
19F87
330
19F56
100
AcDbEntity
  8
寸法
 62
     0
 48
50.0
370
    -2
100
AcDbLine
 10
3805.200647410856
 20
4283.358099277196
 30
0.0
 11
3805.200647410856
 21
4729.0843710091
 31
0.0
  0
LINE
  5
19F88
330
19F56
100
AcDbEntity
  8
寸法
 62
     0
 48
50.0
370
    -2
100
AcDbLine
 10
3755.200647410857
 20
4283.358099277196
 30
0.0
 11
3755.200647410857
 21
4729.0843710091
 31
0.0
  0
LINE
  5
19F89
330
19F56
100
AcDbEntity
  8
寸法
 62
     0
 48
50.0
370
    -2
100
AcDbLine
 10
3805.200647410856
 20
4669.084371009099
 30
0.0
 11
3905.200647410857
 21
4669.084371009099
 31
0.0
  0
LINE
  5
19F8A
330
19F56
100
AcDbEntity
  8
寸法
 62
     0
 48
50.0
370
    -2
100
AcDbLine
 10
3755.200647410857
 20
4669.084371009099
 30
0.0
 11
3335.668121942121
 21
4669.084371009099
 31
0.0
  0
LINE
  5
19F8B
330
19F56
100
AcDbEntity
  8
寸法
 62
     0
 48
50.0
370
    -2
100
AcDbLine
 10
3805.200647410856
 20
4669.084371009099
 30
0.0
 11
3755.200647410857
 21
4669.084371009099
 31
0.0
  0
INSERT
  5
19F8C
330
19F56
100
AcDbEntity
  8
寸法
 62
     0
 48
50.0
370
    -2
100
AcDbBlockReference
  2
_DOTSMALL
 10
3805.200647410856
 20
4669.084371009099
 30
0.0
 41
100.0
 42
100.0
 43
100.0
 50
180.0
  0
INSERT
  5
19F8D
330
19F56
100
AcDbEntity
  8
寸法
 62
     0
 48
50.0
370
    -2
100
AcDbBlockReference
  2
_DOTSMALL
 10
3755.200647410857
 20
4669.084371009099
 30
0.0
 41
100.0
 42
100.0
 43
100.0
  0
MTEXT
  5
19F8E
330
19F56
100
AcDbEntity
  8
寸法
 62
     7
 48
50.0
100
AcDbMText
 10
3441.71536603661
 20
4769.084371009099
 30
0.0
 40
120.0
 41
0.0
 71
     5
 72
     1
  1
\A1;50
  7
STYLE1
 73
     1
 44
1.0
1001
ACAD
1000
MTEXTBEGIN
1070
    73
1070
     1
1070
    44
1040
1.0
1070
    74
1070
     0
1000
MTEXTEND
  0
POINT
  5
19F8F
330
19F56
100
AcDbEntity
  8
DEFPOINTS
 62
     0
 48
50.0
100
AcDbPoint
 10
3805.200647410856
 20
4263.358099277197
 30
0.0
  0
POINT
  5
19F90
330
19F56
100
AcDbEntity
  8
DEFPOINTS
 62
     0
 48
50.0
100
AcDbPoint
 10
3755.200647410857
 20
4263.358099277197
 30
0.0
  0
POINT
  5
19F91
330
19F56
100
AcDbEntity
  8
DEFPOINTS
 62
     0
 48
50.0
100
AcDbPoint
 10
3755.200647410857
 20
4669.084371009099
 30
0.0
  0
ENDBLK
  5
19F63
330
19F56
100
AcDbEntity
  8
0
 48
50.0
100
AcDbBlockEnd
  0
BLOCK
  5
19F6E
330
19F64
100
AcDbEntity
  8
0
 48
50.0
100
AcDbBlockBegin
  2
*D33
 70
     1
 10
0.0
 20
0.0
 30
0.0
  3
*D33
  1

  0
LINE
  5
19F92
330
19F64
100
AcDbEntity
  8
寸法
 62
     0
 48
50.0
370
    -2
100
AcDbLine
 10
3755.200647410857
 20
4283.358099277196
 30
0.0
 11
3755.200647410857
 21
4928.993292223189
 31
0.0
  0
LINE
  5
19F93
330
19F64
100
AcDbEntity
  8
寸法
 62
     0
 48
50.0
370
    -2
100
AcDbLine
 10
7435.200647410859
 20
4283.358099277193
 30
0.0
 11
7435.200647410859
 21
4928.993292223189
 31
0.0
  0
LINE
  5
19F94
330
19F64
100
AcDbEntity
  8
寸法
 62
     0
 48
50.0
370
    -2
100
AcDbLine
 10
3755.200647410857
 20
4868.993292223189
 30
0.0
 11
7435.200647410859
 21
4868.993292223189
 31
0.0
  0
INSERT
  5
19F95
330
19F64
100
AcDbEntity
  8
寸法
 62
     0
 48
50.0
370
    -2
100
AcDbBlockReference
  2
_DOTSMALL
 10
3755.200647410857
 20
4868.993292223189
 30
0.0
 41
100.0
 42
100.0
 43
100.0
 50
180.0
  0
INSERT
  5
19F96
330
19F64
100
AcDbEntity
  8
寸法
 62
     0
 48
50.0
370
    -2
100
AcDbBlockReference
  2
_DOTSMALL
 10
7435.200647410859
 20
4868.993292223189
 30
0.0
 41
100.0
 42
100.0
 43
100.0
  0
MTEXT
  5
19F97
330
19F64
100
AcDbEntity
  8
寸法
 62
     7
 48
50.0
100
AcDbMText
 10
5595.200647410856
 20
4968.993292223188
 30
0.0
 40
120.0
 41
0.0
 71
     5
 72
     1
  1
\A1;3680
  7
STYLE1
 73
     1
 44
1.0
1001
ACAD
1000
MTEXTBEGIN
1070
    73
1070
     1
1070
    44
1040
1.0
1070
    74
1070
     0
1000
MTEXTEND
  0
POINT
  5
19F98
330
19F64
100
AcDbEntity
  8
DEFPOINTS
 62
     0
 48
50.0
100
AcDbPoint
 10
3755.200647410857
 20
4263.358099277197
 30
0.0
  0
POINT
  5
19F99
330
19F64
100
AcDbEntity
  8
DEFPOINTS
 62
     0
 48
50.0
100
AcDbPoint
 10
7435.200647410859
 20
4263.358099277193
 30
0.0
  0
POINT
  5
19F9A
330
19F64
100
AcDbEntity
  8
DEFPOINTS
 62
     0
 48
50.0
100
AcDbPoint
 10
7435.200647410859
 20
4868.993292223189
 30
0.0
  0
ENDBLK
  5
19F6F
330
19F64
100
AcDbEntity
  8
0
 48
50.0
100
AcDbBlockEnd
  0
BLOCK
  5
19F7A
330
19F70
100
AcDbEntity
  8
0
 48
50.0
100
AcDbBlockBegin
  2
*D34
 70
     1
 10
0.0
 20
0.0
 30
0.0
  3
*D34
  1

  0
LINE
  5
19F9B
330
19F70
100
AcDbEntity
  8
寸法
 62
     0
 48
50.0
370
    -2
100
AcDbLine
 10
7385.200647410862
 20
4283.358099277196
 30
0.0
 11
7385.200647410862
 21
4729.0843710091
 31
0.0
  0
LINE
  5
19F9C
330
19F70
100
AcDbEntity
  8
寸法
 62
     0
 48
50.0
370
    -2
100
AcDbLine
 10
3805.200647410856
 20
4283.358099277196
 30
0.0
 11
3805.200647410856
 21
4729.0843710091
 31
0.0
  0
LINE
  5
19F9D
330
19F70
100
AcDbEntity
  8
寸法
 62
     0
 48
50.0
370
    -2
100
AcDbLine
 10
7385.200647410862
 20
4669.084371009099
 30
0.0
 11
3805.200647410856
 21
4669.084371009099
 31
0.0
  0
INSERT
  5
19F9E
330
19F70
100
AcDbEntity
  8
寸法
 62
     0
 48
50.0
370
    -2
100
AcDbBlockReference
  2
_DOTSMALL
 10
7385.200647410862
 20
4669.084371009099
 30
0.0
 41
100.0
 42
100.0
 43
100.0
  0
INSERT
  5
19F9F
330
19F70
100
AcDbEntity
  8
寸法
 62
     0
 48
50.0
370
    -2
100
AcDbBlockReference
  2
_DOTSMALL
 10
3805.200647410856
 20
4669.084371009099
 30
0.0
 41
100.0
 42
100.0
 43
100.0
 50
180.0
  0
MTEXT
  5
19FA0
330
19F70
100
AcDbEntity
  8
寸法
 62
     7
 48
50.0
100
AcDbMText
 10
5595.20064741086
 20
4769.084371009099
 30
0.0
 40
120.0
 41
0.0
 71
     5
 72
     1
  1
\A1;柱外寸法3580
  7
STYLE1
 73
     1
 44
1.0
1001
ACAD
1000
MTEXTBEGIN
1070
    73
1070
     1
1070
    44
1040
1.0
1070
    74
1070
     0
1000
MTEXTEND
  0
POINT
  5
19FA1
330
19F70
100
AcDbEntity
  8
DEFPOINTS
 62
     0
 48
50.0
100
AcDbPoint
 10
7385.200647410862
 20
4263.358099277197
 30
0.0
  0
POINT
  5
19FA2
330
19F70
100
AcDbEntity
  8
DEFPOINTS
 62
     0
 48
50.0
100
AcDbPoint
 10
3805.200647410856
 20
4263.358099277197
 30
0.0
  0
POINT
  5
19FA3
330
19F70
100
AcDbEntity
  8
DEFPOINTS
 62
     0
 48
50.0
100
AcDbPoint
 10
3805.200647410856
 20
4669.084371009099
 30
0.0
  0
ENDBLK
  5
19F7B
330
19F70
100
AcDbEntity
  8
0
 48
50.0
100
AcDbBlockEnd
  0
BLOCK
  5
1A17F
330
1A174
100
AcDbEntity
  8
0
 48
50.0
100
AcDbBlockBegin
  2
*D35
 70
     1
 10
0.0
 20
0.0
 30
0.0
  3
*D35
  1

  0
LINE
  5
1A28F
330
1A174
100
AcDbEntity
  8
寸法
 62
     0
 48
50.0
370
    -2
100
AcDbLine
 10
7405.200647410855
 20
3863.35809927719
 30
0.0
 11
7732.743749732605
 21
3863.35809927719
 31
0.0
  0
LINE
  5
1A290
330
1A174
100
AcDbEntity
  8
寸法
 62
     0
 48
50.0
370
    -2
100
AcDbLine
 10
7405.200647410858
 20
4028.358099277189
 30
0.0
 11
7732.743749732605
 21
4028.358099277189
 31
0.0
  0
LINE
  5
1A291
330
1A174
100
AcDbEntity
  8
寸法
 62
     0
 48
50.0
370
    -2
100
AcDbLine
 10
7672.743749732605
 20
3863.35809927719
 30
0.0
 11
7672.743749732605
 21
4028.358099277189
 31
0.0
  0
LINE
  5
1A292
330
1A174
100
AcDbEntity
  8
寸法
 62
     0
 48
50.0
370
    -2
100
AcDbLine
 10
7672.743749732605
 20
4028.358099277189
 30
0.0
 11
7672.743749732605
 21
4405.328662025667
 31
0.0
  0
INSERT
  5
1A293
330
1A174
100
AcDbEntity
  8
寸法
 62
     0
 48
50.0
370
    -2
100
AcDbBlockReference
  2
_DOTSMALL
 10
7672.743749732605
 20
3863.35809927719
 30
0.0
 41
100.0
 42
100.0
 43
100.0
 50
270.0
  0
INSERT
  5
1A294
330
1A174
100
AcDbEntity
  8
寸法
 62
     0
 48
50.0
370
    -2
100
AcDbBlockReference
  2
_DOTSMALL
 10
7672.743749732605
 20
4028.358099277189
 30
0.0
 41
100.0
 42
100.0
 43
100.0
 50
90.0
  0
MTEXT
  5
1A295
330
1A174
100
AcDbEntity
  8
寸法
 62
     7
 48
50.0
100
AcDbMText
 10
7572.743749732604
 20
4266.843380651429
 30
0.0
 40
120.0
 41
0.0
 71
     5
 72
     1
  1
\A1;165
  7
STYLE1
 11
0.0000000000000001
 21
1.0
 31
0.0
 73
     1
 44
1.0
1001
ACAD
1000
MTEXTBEGIN
1070
    73
1070
     1
1070
    44
1040
1.0
1070
    74
1070
     0
1000
MTEXTEND
  0
POINT
  5
1A296
330
1A174
100
AcDbEntity
  8
DEFPOINTS
 62
     0
 48
50.0
100
AcDbPoint
 10
7385.200647410854
 20
3863.35809927719
 30
0.0
  0
POINT
  5
1A297
330
1A174
100
AcDbEntity
  8
DEFPOINTS
 62
     0
 48
50.0
100
AcDbPoint
 10
7385.200647410858
 20
4028.358099277189
 30
0.0
  0
POINT
  5
1A298
330
1A174
100
AcDbEntity
  8
DEFPOINTS
 62
     0
 48
50.0
100
AcDbPoint
 10
7672.743749732605
 20
4028.358099277189
 30
0.0
  0
ENDBLK
  5
1A180
330
1A174
100
AcDbEntity
  8
0
 48
50.0
100
AcDbBlockEnd
  0
BLOCK
  5
1A18D
330
1A181
100
AcDbEntity
  8
0
 48
50.0
100
AcDbBlockBegin
  2
*D36
 70
     1
 10
0.0
 20
0.0
 30
0.0
  3
*D36
  1

  0
LINE
  5
1A284
330
1A181
100
AcDbEntity
  8
寸法
 62
     0
 48
50.0
370
    -2
100
AcDbLine
 10
7405.200647410858
 20
3836.35809927719
 30
0.0
 11
7732.743749732605
 21
3836.35809927719
 31
0.0
  0
LINE
  5
1A285
330
1A181
100
AcDbEntity
  8
寸法
 62
     0
 48
50.0
370
    -2
100
AcDbLine
 10
7405.200647410855
 20
3863.35809927719
 30
0.0
 11
7732.743749732605
 21
3863.35809927719
 31
0.0
  0
LINE
  5
1A286
330
1A181
100
AcDbEntity
  8
寸法
 62
     0
 48
50.0
370
    -2
100
AcDbLine
 10
7672.743749732603
 20
3836.35809927719
 30
0.0
 11
7672.743749732603
 21
3736.35809927719
 31
0.0
  0
LINE
  5
1A287
330
1A181
100
AcDbEntity
  8
寸法
 62
     0
 48
50.0
370
    -2
100
AcDbLine
 10
7672.743749732603
 20
3863.35809927719
 30
0.0
 11
7672.743749732603
 21
3963.35809927719
 31
0.0
  0
MTEXT
  5
1A288
330
1A181
100
AcDbEntity
  8
寸法
 62
     7
 48
50.0
100
AcDbMText
 10
7812.91357297897
 20
3864.325299116848
 30
0.0
 40
120.0
 41
0.0
 71
     5
 72
     1
  1
\A1;27
  7
STYLE1
 11
0.0000000000000001
 21
1.0
 31
0.0
 73
     1
 44
1.0
1001
ACAD
1000
MTEXTBEGIN
1070
    73
1070
     1
1070
    44
1040
1.0
1070
    74
1070
     0
1000
MTEXTEND
  0
LINE
  5
1A289
330
1A181
100
AcDbEntity
  8
寸法
 62
     0
 48
50.0
370
    -2
100
AcDbLine
 10
7672.743749732603
 20
3836.35809927719
 30
0.0
 11
7672.743749732603
 21
3863.35809927719
 31
0.0
  0
INSERT
  5
1A28A
330
1A181
100
AcDbEntity
  8
寸法
 62
     0
 48
50.0
370
    -2
100
AcDbBlockReference
  2
_DOTSMALL
 10
7672.743749732603
 20
3836.35809927719
 30
0.0
 41
100.0
 42
100.0
 43
100.0
 50
90.0
  0
INSERT
  5
1A28B
330
1A181
100
AcDbEntity
  8
寸法
 62
     0
 48
50.0
370
    -2
100
AcDbBlockReference
  2
_DOTSMALL
 10
7672.743749732603
 20
3863.35809927719
 30
0.0
 41
100.0
 42
100.0
 43
100.0
 50
270.0
  0
POINT
  5
1A28C
330
1A181
100
AcDbEntity
  8
DEFPOINTS
 62
     0
 48
50.0
100
AcDbPoint
 10
7385.200647410858
 20
3836.35809927719
 30
0.0
  0
POINT
  5
1A28D
330
1A181
100
AcDbEntity
  8
DEFPOINTS
 62
     0
 48
50.0
100
AcDbPoint
 10
7385.200647410854
 20
3863.35809927719
 30
0.0
  0
POINT
  5
1A28E
330
1A181
100
AcDbEntity
  8
DEFPOINTS
 62
     0
 48
50.0
100
AcDbPoint
 10
7672.743749732603
 20
3863.35809927719
 30
0.0
  0
ENDBLK
  5
1A18E
330
1A181
100
AcDbEntity
  8
0
 48
50.0
100
AcDbBlockEnd
  0
BLOCK
  5
1A199
330
1A18F
100
AcDbEntity
  8
0
 48
50.0
100
AcDbBlockBegin
  2
*D37
 70
     1
 10
0.0
 20
0.0
 30
0.0
  3
*D37
  1

  0
LINE
  5
1A1F6
330
1A18F
100
AcDbEntity
  8
寸法
 62
     0
 48
50.0
370
    -2
100
AcDbLine
 10
7405.200647410858
 20
2188.35809927719
 30
0.0
 11
7732.743749732605
 21
2188.35809927719
 31
0.0
  0
LINE
  5
1A1F7
330
1A18F
100
AcDbEntity
  8
寸法
 62
     0
 48
50.0
370
    -2
100
AcDbLine
 10
7405.200647410858
 20
3836.35809927719
 30
0.0
 11
7732.743749732605
 21
3836.35809927719
 31
0.0
  0
LINE
  5
1A1F8
330
1A18F
100
AcDbEntity
  8
寸法
 62
     0
 48
50.0
370
    -2
100
AcDbLine
 10
7672.743749732603
 20
2188.35809927719
 30
0.0
 11
7672.743749732603
 21
3836.35809927719
 31
0.0
  0
INSERT
  5
1A1F9
330
1A18F
100
AcDbEntity
  8
寸法
 62
     0
 48
50.0
370
    -2
100
AcDbBlockReference
  2
_DOTSMALL
 10
7672.743749732603
 20
2188.35809927719
 30
0.0
 41
100.0
 42
100.0
 43
100.0
 50
270.0
  0
INSERT
  5
1A1FA
330
1A18F
100
AcDbEntity
  8
寸法
 62
     0
 48
50.0
370
    -2
100
AcDbBlockReference
  2
_DOTSMALL
 10
7672.743749732603
 20
3836.35809927719
 30
0.0
 41
100.0
 42
100.0
 43
100.0
 50
90.0
  0
MTEXT
  5
1A1FB
330
1A18F
100
AcDbEntity
  8
寸法
 62
     7
 48
50.0
100
AcDbMText
 10
7572.743749732602
 20
3012.358099277191
 30
0.0
 40
120.0
 41
0.0
 71
     5
 72
     1
  1
\A1;有効開口部高サ 1648
  7
STYLE1
 11
0.0000000000000001
 21
1.0
 31
0.0
 73
     1
 44
1.0
1001
ACAD
1000
MTEXTBEGIN
1070
    73
1070
     1
1070
    44
1040
1.0
1070
    74
1070
     0
1000
MTEXTEND
  0
POINT
  5
1A1FC
330
1A18F
100
AcDbEntity
  8
DEFPOINTS
 62
     0
 48
50.0
100
AcDbPoint
 10
7385.200647410858
 20
2188.35809927719
 30
0.0
  0
POINT
  5
1A1FD
330
1A18F
100
AcDbEntity
  8
DEFPOINTS
 62
     0
 48
50.0
100
AcDbPoint
 10
7385.200647410858
 20
3836.35809927719
 30
0.0
  0
POINT
  5
1A1FE
330
1A18F
100
AcDbEntity
  8
DEFPOINTS
 62
     0
 48
50.0
100
AcDbPoint
 10
7672.743749732603
 20
3836.35809927719
 30
0.0
  0
ENDBLK
  5
1A19A
330
1A18F
100
AcDbEntity
  8
0
 48
50.0
100
AcDbBlockEnd
  0
ENDSEC
  0
SECTION
  2
ENTITIES
  0
MTEXT
  5
763F
330
747D
100
AcDbEntity
  8
0
100
AcDbMText
 10
302.846345836809
 20
280.1983726409901
 30
0.0
 40
3.5
 41
5.323721266742722
 71
     1
 72
     5
  1

  7
MSMINCHO
 73
     1
 44
1.0
1001
ACAD
1000
MTEXTBEGIN
1070
    73
1070
     1
1070
    44
1040
1.0
1070
    74
1070
     0
1000
MTEXTEND
  0
LINE
  5
10B57
330
747D
100
AcDbEntity
  8
補助
  6
PHANTOM
 62
   230
 48
50.0
100
AcDbLine
 10
139.9999999999995
 20
11409.6
 30
0.0
 11
16307.2
 21
11409.6
 31
0.0
  0
LINE
  5
10B59
330
747D
100
AcDbEntity
  8
仕様書枠
  6
Continuous
 48
50.0
100
AcDbLine
 10
13107.2
 20
1200.0
 30
0.0
 11
13107.2
 21
-0.0000000000000729
 31
0.0
  0
LINE
  5
10B5C
330
747D
100
AcDbEntity
  8
仕様書枠
 48
50.0
100
AcDbLine
 10
16307.2
 20
1200.0
 30
0.0
 11
16307.2
 21
-0.0000000000000909
 31
0.0
  0
LINE
  5
10B5D
330
747D
100
AcDbEntity
  8
仕様書枠
 48
50.0
100
AcDbLine
 10
140.0
 20
0.0
 30
0.0
 11
16307.2
 21
-0.0000000000000909
 31
0.0
  0
LINE
  5
10B5E
330
747D
100
AcDbEntity
  8
補助
  6
PHANTOM
 62
   230
 48
50.0
100
AcDbLine
 10
16307.2
 20
11409.6
 30
0.0
 11
16307.2
 21
1200.0
 31
0.0
  0
LINE
  5
10B6C
330
747D
100
AcDbEntity
  8
仕様書枠
 48
50.0
100
AcDbLine
 10
13107.2
 20
1200.0
 30
0.0
 11
16307.2
 21
1200.0
 31
0.0
  0
LINE
  5
10B6D
330
747D
100
AcDbEntity
  8
補助
  6
PHANTOM
 62
   230
 48
50.0
100
AcDbLine
 10
13107.2
 20
11409.6
 30
0.0
 11
13107.2
 21
4800.0
 31
0.0
  0
LINE
  5
10B6F
330
747D
100
AcDbEntity
  8
補助
  6
PHANTOM
 62
   230
 48
50.0
100
AcDbLine
 10
13107.2
 20
4800.0
 30
0.0
 11
16307.2
 21
4800.0
 31
0.0
  0
LINE
  5
10B72
330
747D
100
AcDbEntity
  8
文字
 62
     7
 48
50.0
100
AcDbLine
 10
13187.2
 20
400.0
 30
0.0
 11
16227.2
 21
400.0
 31
0.0
  0
TEXT
  5
10B73
330
747D
100
AcDbEntity
  8
文字
 62
     7
 48
50.0
100
AcDbText
 10
13162.9790565769
 20
895.0906074299405
 30
0.0
 40
200.0
  1
外 形 図
  7
STYLE2
100
AcDbText
  0
TEXT
  5
10B74
330
747D
100
AcDbEntity
  8
文字
 62
     7
 48
50.0
100
AcDbText
 10
13201.43669998441
 20
477.2740661031255
 30
0.0
 40
160.0
  1
機種名
  7
STYLE2
100
AcDbText
  0
TEXT
  5
10B75
330
747D
100
AcDbEntity
  8
文字
 62
     7
 48
50.0
100
AcDbText
 10
13209.4053442172
 20
228.5435242569016
 30
0.0
 40
100.0
  1
○有効開口寸法 ： 1584×1648(mm)
  7
STYLE2
100
AcDbText
  0
TEXT
  5
10B79
330
747D
100
AcDbEntity
  8
文字
 62
     7
 48
50.0
100
AcDbText
 10
14524.131837222
 20
1031.557706291228
 30
0.0
 40
100.0
  1
NO.20      <縮尺> S=1/40
  7
STYLE2
100
AcDbText
  0
LINE
  5
10B7B
330
747D
100
AcDbEntity
  8
仕様書枠
 48
50.0
100
AcDbLine
 10
13107.2
 20
800.0
 30
0.0
 11
14251.2
 21
800.0
 31
0.0
  0
LINE
  5
10B88
330
747D
100
AcDbEntity
  8
仕様書枠
  6
Continuous
 48
50.0
100
AcDbLine
 10
14251.2
 20
1200.0
 30
0.0
 11
14251.2
 21
800.0
 31
0.0
  0
TEXT
  5
10BB0
330
747D
100
AcDbEntity
  8
文字
 62
     7
 48
50.0
100
AcDbText
 10
14163.12214045672
 20
483.8967129911414
 30
0.0
 40
160.0
  1
FXN-1730SL-2
  7
MSPゴシック
100
AcDbText
  0
LINE
  5
127A8
330
747D
100
AcDbEntity
  8
部品1
100
AcDbLine
 10
2816.431056064475
 20
2218.261909844854
 30
0.0
 11
2966.431056064474
 21
2218.261909844854
 31
0.0
  0
LINE
  5
127A9
330
747D
100
AcDbEntity
  8
部品1
100
AcDbLine
 10
2891.431056064475
 20
2088.358099277189
 30
0.0
 11
2816.431056064475
 21
2218.261909844854
 31
0.0
  0
TEXT
  5
127AA
330
747D
100
AcDbEntity
  8
部品1
100
AcDbText
 10
2994.535998189248
 20
2124.465002883091
 30
0.0
 40
125.0
  1
G.L
  7
MSGOTHIC
100
AcDbText
  0
LINE
  5
127AB
330
747D
100
AcDbEntity
  8
部品1
100
AcDbLine
 10
2966.431056064474
 20
2218.261909844854
 30
0.0
 11
2891.431056064475
 21
2088.358099277189
 31
0.0
  0
LINE
  5
13C1F
330
747D
100
AcDbEntity
  8
部品1
100
AcDbLine
 10
3805.200647410858
 20
4122.358099277197
 30
0.0
 11
3805.200647410858
 21
2088.358099277189
 31
0.0
  0
LINE
  5
13CFC
330
747D
100
AcDbEntity
  8
部品1
100
AcDbLine
 10
7330.200647410858
 20
3863.358099277189
 30
0.0
 11
7330.200647410855
 21
2188.35809927719
 31
0.0
  0
LINE
  5
13CFE
330
747D
100
AcDbEntity
  8
部品1
100
AcDbLine
 10
3860.200647410858
 20
3863.358099277191
 30
0.0
 11
3860.200647410858
 21
2188.35809927719
 31
0.0
  0
LINE
  5
13D18
330
747D
100
AcDbEntity
  8
部品1
100
AcDbLine
 10
7385.200647410856
 20
4122.358099277198
 30
0.0
 11
7385.200647410858
 21
2088.358099277189
 31
0.0
  0
LINE
  5
146B2
330
747D
100
AcDbEntity
  8
破線
 48
5.0
100
AcDbLine
 10
7385.200647410858
 20
2088.358099277189
 30
0.0
 11
7385.200647410858
 21
1838.358099277189
 31
0.0
  0
LINE
  5
146B3
330
747D
100
AcDbEntity
  8
破線
 48
5.0
100
AcDbLine
 10
3805.200647410858
 20
2088.358099277189
 30
0.0
 11
3805.200647410856
 21
1838.358099277189
 31
0.0
  0
TEXT
  5
149A1
330
747D
100
AcDbEntity
  8
部品1
100
AcDbText
 10
5303.990718034578
 20
1245.464570058665
 30
0.0
 40
135.0
  1
正面図
  7
MSGOTHIC
100
AcDbText
  0
LWPOLYLINE
  5
149A2
330
747D
100
AcDbEntity
  8
部品1
100
AcDbPolyline
 90
        4
 70
     1
 43
0.0
 10
5213.465314296623
 20
1438.358099277189
 10
5213.465314296623
 20
1198.465777731657
 10
5976.935980525062
 20
1198.465777731657
 10
5976.935980525062
 20
1438.358099277189
  0
TEXT
  5
14E88
330
747D
100
AcDbEntity
  8
部品1
100
AcDbText
 10
5303.384924125661
 20
5809.620487821686
 30
0.0
 40
135.0
  1
平面図
  7
MSGOTHIC
100
AcDbText
  0
LWPOLYLINE
  5
14E89
330
747D
100
AcDbEntity
  8
部品1
100
AcDbPolyline
 90
        4
 70
     1
 43
0.0
 10
5213.465314296623
 20
6002.51401704021
 10
5213.465314296623
 20
5762.621695494678
 10
5976.935980525063
 20
5762.621695494678
 10
5976.935980525063
 20
6002.51401704021
  0
TEXT
  5
15550
330
747D
100
AcDbEntity
  8
文字
 62
     7
 48
50.0
100
AcDbText
 10
14666.84881187329
 20
871.9640646083623
 30
0.0
 40
100.0
  1
～一般型・多雪地型～
  7
STYLE2
100
AcDbText
  0
LINE
  5
15CE5
330
747D
100
AcDbEntity
  8
破線
 48
5.0
100
AcDbLine
 10
7330.200647410855
 20
2188.35809927719
 30
0.0
 11
7330.200647410858
 21
1838.358099277189
 31
0.0
  0
LINE
  5
15CE6
330
747D
100
AcDbEntity
  8
破線
 48
5.0
100
AcDbLine
 10
3860.200647410858
 20
2188.35809927719
 30
0.0
 11
3860.200647410856
 21
1838.358099277189
 31
0.0
  0
LINE
  5
15CE7
330
747D
100
AcDbEntity
  8
破線
 48
5.0
100
AcDbLine
 10
7385.200647410856
 20
1838.358099277189
 30
0.0
 11
7330.200647410858
 21
1838.358099277189
 31
0.0
  0
LINE
  5
15CE8
330
747D
100
AcDbEntity
  8
破線
 48
5.0
100
AcDbLine
 10
3860.200647410856
 20
1838.358099277197
 30
0.0
 11
3805.200647410856
 21
1838.358099277197
 31
0.0
  0
LINE
  5
15CE9
330
747D
100
AcDbEntity
  8
部品1
100
AcDbLine
 10
3908.200647410858
 20
3863.35809927719
 30
0.0
 11
3908.200647410858
 21
2188.35809927719
 31
0.0
  0
LINE
  5
15CEA
330
747D
100
AcDbEntity
  8
破線
 48
5.0
100
AcDbLine
 10
3908.200647410858
 20
2188.35809927719
 30
0.0
 11
3908.200647410856
 21
1938.358099277195
 31
0.0
  0
LINE
  5
15CEB
330
747D
100
AcDbEntity
  8
部品1
100
AcDbLine
 10
7282.200647410859
 20
3863.358099277191
 30
0.0
 11
7282.200647410856
 21
2188.35809927719
 31
0.0
  0
LINE
  5
15CEC
330
747D
100
AcDbEntity
  8
破線
 48
5.0
100
AcDbLine
 10
7282.200647410856
 20
2188.35809927719
 30
0.0
 11
7282.200647410859
 21
1938.358099277189
 31
0.0
  0
LINE
  5
15CED
330
747D
100
AcDbEntity
  8
破線
 48
5.0
100
AcDbLine
 10
7330.200647410859
 20
1938.358099277189
 30
0.0
 11
7282.200647410857
 21
1938.358099277189
 31
0.0
  0
LINE
  5
15CEE
330
747D
100
AcDbEntity
  8
破線
 48
5.0
100
AcDbLine
 10
3908.200647410856
 20
1938.358099277195
 30
0.0
 11
3860.200647410856
 21
1938.358099277195
 31
0.0
  0
LINE
  5
15D20
330
747D
100
AcDbEntity
  8
細線
100
AcDbLine
 10
5698.200647410853
 20
3823.35809927719
 30
0.0
 11
7282.200647410856
 21
3823.35809927719
 31
0.0
  0
LINE
  5
15D23
330
747D
100
AcDbEntity
  8
細線
100
AcDbLine
 10
5698.200647410853
 20
3433.358099277189
 30
0.0
 11
7282.200647410856
 21
3433.358099277189
 31
0.0
  0
LINE
  5
15D24
330
747D
100
AcDbEntity
  8
細線
100
AcDbLine
 10
5698.200647410853
 20
3498.35809927719
 30
0.0
 11
7282.200647410856
 21
3498.35809927719
 31
0.0
  0
LINE
  5
15D25
330
747D
100
AcDbEntity
  8
細線
100
AcDbLine
 10
5698.200647410853
 20
3563.35809927719
 30
0.0
 11
7282.200647410856
 21
3563.35809927719
 31
0.0
  0
LINE
  5
15D26
330
747D
100
AcDbEntity
  8
細線
100
AcDbLine
 10
5698.200647410853
 20
3628.358099277189
 30
0.0
 11
7282.200647410856
 21
3628.358099277189
 31
0.0
  0
LINE
  5
15D27
330
747D
100
AcDbEntity
  8
細線
100
AcDbLine
 10
5698.200647410853
 20
3693.358099277189
 30
0.0
 11
7282.200647410856
 21
3693.358099277189
 31
0.0
  0
LINE
  5
15D28
330
747D
100
AcDbEntity
  8
細線
100
AcDbLine
 10
5698.200647410853
 20
3758.358099277189
 30
0.0
 11
7282.200647410856
 21
3758.358099277189
 31
0.0
  0
LINE
  5
15D29
330
747D
100
AcDbEntity
  8
細線
100
AcDbLine
 10
5698.200647410853
 20
2783.35809927719
 30
0.0
 11
7282.200647410856
 21
2783.35809927719
 31
0.0
  0
LINE
  5
15D2A
330
747D
100
AcDbEntity
  8
細線
100
AcDbLine
 10
5698.200647410853
 20
2848.35809927719
 30
0.0
 11
7282.200647410856
 21
2848.35809927719
 31
0.0
  0
LINE
  5
15D2B
330
747D
100
AcDbEntity
  8
細線
100
AcDbLine
 10
5698.200647410853
 20
2913.35809927719
 30
0.0
 11
7282.200647410856
 21
2913.35809927719
 31
0.0
  0
LINE
  5
15D2C
330
747D
100
AcDbEntity
  8
細線
100
AcDbLine
 10
5698.200647410853
 20
2978.35809927719
 30
0.0
 11
7282.200647410856
 21
2978.35809927719
 31
0.0
  0
LINE
  5
15D2D
330
747D
100
AcDbEntity
  8
細線
100
AcDbLine
 10
5698.200647410853
 20
3043.35809927719
 30
0.0
 11
7282.200647410856
 21
3043.35809927719
 31
0.0
  0
LINE
  5
15D2E
330
747D
100
AcDbEntity
  8
細線
100
AcDbLine
 10
5698.200647410853
 20
3108.35809927719
 30
0.0
 11
7282.200647410856
 21
3108.35809927719
 31
0.0
  0
LINE
  5
15D2F
330
747D
100
AcDbEntity
  8
細線
100
AcDbLine
 10
5698.200647410853
 20
3173.358099277189
 30
0.0
 11
7282.200647410856
 21
3173.358099277189
 31
0.0
  0
LINE
  5
15D30
330
747D
100
AcDbEntity
  8
細線
100
AcDbLine
 10
5698.200647410853
 20
3238.35809927719
 30
0.0
 11
7282.200647410856
 21
3238.35809927719
 31
0.0
  0
LINE
  5
15D31
330
747D
100
AcDbEntity
  8
細線
100
AcDbLine
 10
5698.200647410853
 20
3303.35809927719
 30
0.0
 11
7282.200647410856
 21
3303.35809927719
 31
0.0
  0
LINE
  5
15D32
330
747D
100
AcDbEntity
  8
細線
100
AcDbLine
 10
5698.200647410853
 20
3368.35809927719
 30
0.0
 11
7282.200647410856
 21
3368.35809927719
 31
0.0
  0
LINE
  5
15D36
330
747D
100
AcDbEntity
  8
細線
100
AcDbLine
 10
5698.200647410853
 20
2198.358099277189
 30
0.0
 11
7282.200647410856
 21
2198.358099277189
 31
0.0
  0
LINE
  5
15D37
330
747D
100
AcDbEntity
  8
細線
100
AcDbLine
 10
5698.200647410853
 20
2263.358099277189
 30
0.0
 11
7282.200647410856
 21
2263.358099277189
 31
0.0
  0
LINE
  5
15D38
330
747D
100
AcDbEntity
  8
細線
100
AcDbLine
 10
5698.200647410853
 20
2328.35809927719
 30
0.0
 11
7282.200647410856
 21
2328.35809927719
 31
0.0
  0
LINE
  5
15D39
330
747D
100
AcDbEntity
  8
細線
100
AcDbLine
 10
5698.200647410853
 20
2393.35809927719
 30
0.0
 11
7282.200647410856
 21
2393.35809927719
 31
0.0
  0
LINE
  5
15D3A
330
747D
100
AcDbEntity
  8
細線
100
AcDbLine
 10
5698.200647410853
 20
2458.35809927719
 30
0.0
 11
7282.200647410856
 21
2458.35809927719
 31
0.0
  0
LINE
  5
15D3B
330
747D
100
AcDbEntity
  8
細線
100
AcDbLine
 10
5698.200647410853
 20
2523.35809927719
 30
0.0
 11
7282.200647410856
 21
2523.35809927719
 31
0.0
  0
LINE
  5
15D3C
330
747D
100
AcDbEntity
  8
細線
100
AcDbLine
 10
5698.200647410853
 20
2588.35809927719
 30
0.0
 11
7282.200647410856
 21
2588.35809927719
 31
0.0
  0
LINE
  5
15D3D
330
747D
100
AcDbEntity
  8
細線
100
AcDbLine
 10
5698.200647410853
 20
2653.35809927719
 30
0.0
 11
7282.200647410856
 21
2653.35809927719
 31
0.0
  0
LINE
  5
15D3E
330
747D
100
AcDbEntity
  8
細線
100
AcDbLine
 10
5698.200647410853
 20
2718.358099277189
 30
0.0
 11
7282.200647410856
 21
2718.358099277189
 31
0.0
  0
LINE
  5
15D3F
330
747D
100
AcDbEntity
  8
細線
100
AcDbLine
 10
7282.200647410857
 20
2198.358099277189
 30
0.0
 11
5698.200647410852
 21
2198.358099277189
 31
0.0
  0
DIMENSION
  5
162CD
330
747D
100
AcDbEntity
  8
寸法
100
AcDbDimension
  2
*D1
 10
8032.626993145271
 20
7204.739053516627
 30
0.0
 11
7932.615182121648
 21
8674.739053516637
 31
0.0
 70
    32
  1
7X420=<>
 71
     5
 42
2940.000000000015
  3
INABA_S40G
100
AcDbAlignedDimension
 13
7385.200647410865
 23
10144.73905351664
 33
0.0
 14
7385.200647410839
 24
7204.739053516627
 34
0.0
 50
90.0
100
AcDbRotatedDimension
1001
ACAD
1000
DSTYLE
1002
{
1002
}
  0
DIMENSION
  5
162CE
330
747D
100
AcDbEntity
  8
寸法
100
AcDbDimension
  2
*D2
 10
8032.626993145251
 20
7149.73905351663
 30
0.0
 11
8032.626993145248
 21
6771.877586611768
 31
0.0
 70
   160
 71
     5
 42
54.99999999999636
  3
INABA_S40G
100
AcDbAlignedDimension
 13
7385.200647410839
 23
7204.739053516627
 33
0.0
 14
7385.200647410839
 24
7149.73905351663
 34
0.0
 50
90.0
100
AcDbRotatedDimension
1001
ACAD
1000
DSTYLE
1002
{
1002
}
  0
DIMENSION
  5
162CF
330
747D
100
AcDbEntity
  8
寸法
100
AcDbDimension
  2
*D3
 10
8032.626993145276
 20
10144.73905351664
 30
0.0
 11
8032.626993145274
 21
10508.22433489088
 31
0.0
 70
   160
 71
     5
 42
54.99999999999636
  3
INABA_S40G
100
AcDbAlignedDimension
 13
7385.200647410865
 23
10199.73905351664
 33
0.0
 14
7385.200647410865
 24
10144.73905351664
 34
0.0
 50
90.0
100
AcDbRotatedDimension
1001
ACAD
1000
DSTYLE
1002
{
1002
}
  0
DIMENSION
  5
162D0
330
747D
100
AcDbEntity
  8
寸法
100
AcDbDimension
  2
*D4
 10
8397.733934884909
 20
7149.73905351663
 30
0.0
 11
8297.733934884908
 21
8674.739053516637
 31
0.0
 70
    32
 71
     5
 42
3050.000000000008
  3
INABA_S40G
100
AcDbAlignedDimension
 13
7385.200647410865
 23
10199.73905351664
 33
0.0
 14
7385.200647410839
 24
7149.73905351663
 34
0.0
 50
90.0
100
AcDbRotatedDimension
1001
ACAD
1000
DSTYLE
1002
{
1002
}
  0
LINE
  5
162DC
330
747D
100
AcDbEntity
  8
部品1
100
AcDbLine
 10
7357.200647410849
 20
10171.73905351663
 30
0.0
 11
7357.200647410842
 21
7204.739053516627
 31
0.0
  0
LINE
  5
162DD
330
747D
100
AcDbEntity
  8
部品1
100
AcDbLine
 10
3833.20064741084
 20
7204.739053516497
 30
0.0
 11
3833.20064741085
 21
10171.73905351654
 31
0.0
  0
LINE
  5
162DE
330
747D
100
AcDbEntity
  8
部品1
100
AcDbLine
 10
7385.200647410865
 20
10199.73905351664
 30
0.0
 11
7385.200647410839
 21
7149.73905351663
 31
0.0
  0
LINE
  5
162DF
330
747D
100
AcDbEntity
  8
部品1
100
AcDbLine
 10
3805.20064741083
 20
10199.73905351651
 30
0.0
 11
3805.200647410858
 21
7149.739053516499
 31
0.0
  0
DIMENSION
  5
162E4
330
747D
100
AcDbEntity
  8
寸法
 48
50.0
100
AcDbDimension
  2
*D5
 10
5698.200647410857
 20
6615.308282750375
 30
0.0
 11
6490.200647410849
 21
6815.308282750375
 31
0.0
 70
    32
  1
有効開口部間口\P <>
 71
     5
 42
1583.999999999982
  3
INABA_S40G
100
AcDbAlignedDimension
 13
7282.200647410839
 23
7175.73905351654
 33
0.0
 14
5698.200647410857
 24
7175.739053516538
 34
0.0
100
AcDbRotatedDimension
1001
ACAD
1000
DSTYLE
1002
{
1070
    75
1070
     1
1070
   279
1070
     2
1002
}
  0
LINE
  5
162E6
330
747D
100
AcDbEntity
  8
部品1
 48
50.0
100
AcDbLine
 10
5662.200647410855
 20
7195.239053516537
 30
0.0
 11
7318.200647410842
 21
7195.239053516537
 31
0.0
  0
DIMENSION
  5
162E7
330
747D
100
AcDbEntity
  8
寸法
100
AcDbDimension
  2
*D6
 10
7385.200647410828
 20
6169.135287159501
 30
0.0
 11
5595.200647410843
 21
6269.1352871595
 31
0.0
 70
    32
 71
     5
 42
3579.999999999972
  3
INABA_S40G
100
AcDbAlignedDimension
 13
3805.200647410858
 23
7149.739053516537
 33
0.0
 14
7385.200647410828
 24
7149.73905351663
 34
0.0
100
AcDbRotatedDimension
1001
ACAD
1000
DSTYLE
1002
{
1002
}
  0
LINE
  5
162E8
330
747D
100
AcDbEntity
  8
部品1
100
AcDbLine
 10
3860.200647410835
 20
10144.73905351656
 30
0.0
 11
3860.200647410856
 21
7214.739053516538
 31
0.0
  0
LINE
  5
162E9
330
747D
100
AcDbEntity
  8
部品1
100
AcDbLine
 10
3885.200647410836
 20
10144.73905351656
 30
0.0
 11
3885.200647410856
 21
7214.739053516538
 31
0.0
  0
DIMENSION
  5
162EA
330
747D
100
AcDbEntity
  8
寸法
 48
50.0
100
AcDbDimension
  2
*D7
 10
3805.200647410858
 20
6615.308282750375
 30
0.0
 11
3496.715366036619
 21
6615.308282750375
 31
0.0
 70
   160
 71
     5
 42
54.99999999999636
  3
INABA_S40G
100
AcDbAlignedDimension
 13
3860.200647410854
 23
7149.739053516539
 33
0.0
 14
3805.200647410858
 24
7149.739053516537
 34
0.0
100
AcDbRotatedDimension
1001
ACAD
1000
DSTYLE
1002
{
1002
}
  0
DIMENSION
  5
162EB
330
747D
100
AcDbEntity
  8
寸法
 48
50.0
100
AcDbDimension
  2
*D8
 10
5650.200647410854
 20
6615.308282750375
 30
0.0
 11
5811.102618410915
 21
6715.308282750375
 31
0.0
 70
   160
 71
     5
 42
48.00000000000363
  3
INABA_S40G
100
AcDbAlignedDimension
 13
5698.200647410857
 23
7175.739053516538
 33
0.0
 14
5650.200647410854
 24
7149.739053516539
 34
0.0
100
AcDbRotatedDimension
1001
ACAD
1000
DSTYLE
1002
{
1070
   279
1070
     2
1002
}
  0
LINE
  5
162EC
330
747D
100
AcDbEntity
  8
部品1
100
AcDbLine
 10
3860.200647410852
 20
7149.739053516539
 30
0.0
 11
3805.200647410858
 21
7149.739053516537
 31
0.0
  0
LINE
  5
162ED
330
747D
100
AcDbEntity
  8
部品1
 48
50.0
100
AcDbLine
 10
3860.200647410858
 20
7185.739053516538
 30
0.0
 11
3837.200647410858
 21
7185.739053516538
 31
0.0
  0
LINE
  5
162EE
330
747D
100
AcDbEntity
  8
部品1
 48
50.0
100
AcDbLine
 10
3870.200647410858
 20
7175.739053516538
 30
0.0
 11
3860.200647410858
 21
7154.739053516539
 31
0.0
  0
LINE
  5
162EF
330
747D
100
AcDbEntity
  8
部品1
 48
50.0
100
AcDbLine
 10
3860.200647410858
 20
7214.739053516538
 30
0.0
 11
3860.200647410854
 21
7149.739053516539
 31
0.0
  0
LINE
  5
162F0
330
747D
100
AcDbEntity
  8
部品1
 48
50.0
100
AcDbLine
 10
3908.200647410858
 20
7175.73905351654
 30
0.0
 11
3908.200647410858
 21
7184.73905351654
 31
0.0
  0
LINE
  5
162F1
330
747D
100
AcDbEntity
  8
部品1
 48
50.0
100
AcDbLine
 10
3908.200647410858
 20
7214.73905351654
 30
0.0
 11
3908.200647410858
 21
7205.739053516539
 31
0.0
  0
LINE
  5
162F2
330
747D
100
AcDbEntity
  8
部品1
100
AcDbLine
 10
3908.200647410858
 20
7214.73905351654
 30
0.0
 11
3860.200647410858
 21
7214.739053516538
 31
0.0
  0
LINE
  5
162F3
330
747D
100
AcDbEntity
  8
部品1
100
AcDbLine
 10
3908.200647410858
 20
7175.73905351654
 30
0.0
 11
3860.200647410858
 21
7175.739053516538
 31
0.0
  0
LINE
  5
162F4
330
747D
100
AcDbEntity
  8
部品1
100
AcDbLine
 10
3860.200647410856
 20
7185.739053516538
 30
0.0
 11
3837.200647410858
 21
7185.739053516538
 31
0.0
  0
LINE
  5
162F5
330
747D
100
AcDbEntity
  8
部品1
100
AcDbLine
 10
3860.200647410856
 20
7204.739053516464
 30
0.0
 11
3805.200647410856
 21
7204.739053516464
 31
0.0
  0
LINE
  5
162F6
330
747D
100
AcDbEntity
  8
部品1
100
AcDbLine
 10
3833.20064741084
 20
7204.739053516499
 30
0.0
 11
3805.200647410856
 21
7204.739053516499
 31
0.0
  0
LINE
  5
162F7
330
747D
100
AcDbEntity
  8
部品1
100
AcDbLine
 10
3833.200647410856
 20
7204.739053516515
 30
0.0
 11
3805.200647410856
 21
7204.739053516515
 31
0.0
  0
LINE
  5
162FB
330
747D
100
AcDbEntity
  8
部品1
100
AcDbLine
 10
3833.200647410845
 20
7624.739053516513
 30
0.0
 11
3805.200647410845
 21
7624.739053516513
 31
0.0
  0
LINE
  5
162FC
330
747D
100
AcDbEntity
  8
部品1
100
AcDbLine
 10
3833.200647410845
 20
8044.739053516513
 30
0.0
 11
3805.200647410845
 21
8044.739053516513
 31
0.0
  0
LINE
  5
162FE
330
747D
100
AcDbEntity
  8
部品1
100
AcDbLine
 10
3833.200647410837
 20
8464.739053516515
 30
0.0
 11
3805.200647410837
 21
8464.739053516515
 31
0.0
  0
LINE
  5
162FF
330
747D
100
AcDbEntity
  8
部品1
100
AcDbLine
 10
7330.200647410861
 20
10144.73905351656
 30
0.0
 11
7330.20064741084
 21
7149.739053516627
 31
0.0
  0
LINE
  5
16300
330
747D
100
AcDbEntity
  8
部品1
100
AcDbLine
 10
7305.200647410865
 20
10144.73905351656
 30
0.0
 11
7305.200647410841
 21
7214.739053516538
 31
0.0
  0
DIMENSION
  5
16301
330
747D
100
AcDbEntity
  8
寸法
 48
50.0
100
AcDbDimension
  2
*D9
 10
7282.200647410839
 20
6615.308282750375
 30
0.0
 11
7171.237749762092
 21
6715.308282750375
 31
0.0
 70
   160
 71
     5
 42
48.00000000000181
  3
INABA_S40G
100
AcDbAlignedDimension
 13
7330.20064741084
 23
7149.739053516627
 33
0.0
 14
7282.200647410839
 24
7175.73905351654
 34
0.0
100
AcDbRotatedDimension
1001
ACAD
1000
DSTYLE
1002
{
1070
   279
1070
     2
1002
}
  0
DIMENSION
  5
16302
330
747D
100
AcDbEntity
  8
寸法
 48
50.0
100
AcDbDimension
  2
*D10
 10
7330.20064741084
 20
6615.308282750376
 30
0.0
 11
7693.685928785078
 21
6615.308282750376
 31
0.0
 70
   160
 71
     5
 42
54.99999999999818
  3
INABA_S40G
100
AcDbAlignedDimension
 13
7385.200647410839
 23
7149.73905351663
 33
0.0
 14
7330.20064741084
 24
7149.739053516627
 34
0.0
100
AcDbRotatedDimension
1001
ACAD
1000
DSTYLE
1002
{
1002
}
  0
LINE
  5
16303
330
747D
100
AcDbEntity
  8
部品1
 48
50.0
100
AcDbLine
 10
7320.20064741084
 20
7175.739053516538
 30
0.0
 11
7330.20064741084
 21
7154.739053516539
 31
0.0
  0
LINE
  5
16304
330
747D
100
AcDbEntity
  8
部品1
100
AcDbLine
 10
7282.200647410839
 20
7214.73905351654
 30
0.0
 11
7330.20064741084
 21
7214.739053516538
 31
0.0
  0
LINE
  5
16305
330
747D
100
AcDbEntity
  8
部品1
100
AcDbLine
 10
7282.200647410839
 20
7175.73905351654
 30
0.0
 11
7330.20064741084
 21
7175.739053516538
 31
0.0
  0
LINE
  5
16306
330
747D
100
AcDbEntity
  8
部品1
 48
50.0
100
AcDbLine
 10
7282.200647410839
 20
7214.73905351654
 30
0.0
 11
7282.200647410839
 21
7205.739053516539
 31
0.0
  0
LINE
  5
16307
330
747D
100
AcDbEntity
  8
部品1
 48
50.0
100
AcDbLine
 10
7282.200647410839
 20
7175.73905351654
 30
0.0
 11
7282.200647410839
 21
7184.73905351654
 31
0.0
  0
LINE
  5
16308
330
747D
100
AcDbEntity
  8
部品1
100
AcDbLine
 10
7330.20064741084
 20
7185.739053516536
 30
0.0
 11
7353.20064741084
 21
7185.739053516538
 31
0.0
  0
LINE
  5
16309
330
747D
100
AcDbEntity
  8
部品1
100
AcDbLine
 10
7330.20064741084
 20
7204.739053516641
 30
0.0
 11
7385.200647410872
 21
7204.739053516641
 31
0.0
  0
LINE
  5
1630A
330
747D
100
AcDbEntity
  8
部品1
100
AcDbLine
 10
7385.200647410839
 20
7149.73905351663
 30
0.0
 11
7330.20064741084
 21
7149.739053516627
 31
0.0
  0
LINE
  5
16317
330
747D
100
AcDbEntity
  8
部品1
100
AcDbLine
 10
7357.200647410869
 20
7624.739053516641
 30
0.0
 11
7385.200647410869
 21
7624.739053516641
 31
0.0
  0
LINE
  5
16319
330
747D
100
AcDbEntity
  8
部品1
100
AcDbLine
 10
7357.200647410869
 20
8044.739053516641
 30
0.0
 11
7385.200647410869
 21
8044.739053516641
 31
0.0
  0
LINE
  5
1631A
330
747D
100
AcDbEntity
  8
部品1
100
AcDbLine
 10
7357.200647410865
 20
8464.739053516643
 30
0.0
 11
7385.200647410865
 21
8464.739053516643
 31
0.0
  0
LINE
  5
1631B
330
747D
100
AcDbEntity
  8
部品1
100
AcDbLine
 10
5650.200647410863
 20
10171.73905351666
 30
0.0
 11
6477.700647410863
 21
10171.73905351666
 31
0.0
  0
LINE
  5
1631C
330
747D
100
AcDbEntity
  8
部品1
100
AcDbLine
 10
5623.200647410863
 20
10171.73905351654
 30
0.0
 11
6280.200647410863
 21
10171.73905351654
 31
0.0
  0
DIMENSION
  5
1631F
330
747D
100
AcDbEntity
  8
寸法
100
AcDbDimension
  2
*D11
 10
7330.200647410865
 20
10415.54727314164
 30
0.0
 11
6490.200647410865
 21
10515.55908416526
 31
0.0
 70
    32
  1
4X420=<>
 71
     5
 42
1680.000000000001
  3
INABA_S40G
100
AcDbAlignedDimension
 13
5650.200647410864
 23
10199.73905351654
 33
0.0
 14
7330.200647410865
 24
10199.73905351664
 34
0.0
100
AcDbRotatedDimension
1001
ACAD
1000
DSTYLE
1002
{
1002
}
  0
DIMENSION
  5
16320
330
747D
100
AcDbEntity
  8
寸法
100
AcDbDimension
  2
*D12
 10
3860.200647410864
 20
10415.54727314152
 30
0.0
 11
3496.71536603659
 21
10415.54727314152
 31
0.0
 70
   160
 71
     5
 42
55.00000000003456
  3
INABA_S40G
100
AcDbAlignedDimension
 13
3805.20064741083
 23
10199.73905351654
 33
0.0
 14
3860.200647410864
 24
10199.73905351654
 34
0.0
100
AcDbRotatedDimension
1001
ACAD
1000
DSTYLE
1002
{
1002
}
  0
LINE
  5
16321
330
747D
100
AcDbEntity
  8
部品1
100
AcDbLine
 10
3860.20064741083
 20
10199.73905351651
 30
0.0
 11
3860.20064741083
 21
10171.73905351651
 31
0.0
  0
LINE
  5
16322
330
747D
100
AcDbEntity
  8
部品1
100
AcDbLine
 10
3860.200647410863
 20
10199.73905351654
 30
0.0
 11
3860.200647410863
 21
10171.73905351654
 31
0.0
  0
LINE
  5
16323
330
747D
100
AcDbEntity
  8
部品1
100
AcDbLine
 10
3833.20064741083
 20
10144.73905351651
 30
0.0
 11
3805.20064741083
 21
10144.73905351651
 31
0.0
  0
LINE
  5
16324
330
747D
100
AcDbEntity
  8
部品1
100
AcDbLine
 10
6070.200647410863
 20
10199.73905351666
 30
0.0
 11
6070.200647410863
 21
10171.73905351666
 31
0.0
  0
LINE
  5
16325
330
747D
100
AcDbEntity
  8
部品1
100
AcDbLine
 10
6070.200647410863
 20
10199.73905351654
 30
0.0
 11
6070.200647410863
 21
10171.73905351654
 31
0.0
  0
LINE
  5
16326
330
747D
100
AcDbEntity
  8
部品1
100
AcDbLine
 10
6070.200647410863
 20
10199.73905351654
 30
0.0
 11
6070.200647410863
 21
10171.73905351654
 31
0.0
  0
LINE
  5
16327
330
747D
100
AcDbEntity
  8
部品1
100
AcDbLine
 10
6502.700647410863
 20
10171.73905351665
 30
0.0
 11
7357.200647410865
 21
10171.73905351663
 31
0.0
  0
LINE
  5
1632C
330
747D
100
AcDbEntity
  8
部品1
100
AcDbLine
 10
6490.200647410863
 20
10199.73905351666
 30
0.0
 11
6490.200647410863
 21
10171.73905351666
 31
0.0
  0
LINE
  5
1632D
330
747D
100
AcDbEntity
  8
部品1
100
AcDbLine
 10
6477.700647410863
 20
10163.73905351664
 30
0.0
 11
6502.700647410863
 21
10163.73905351664
 31
0.0
  0
LINE
  5
1632E
330
747D
100
AcDbEntity
  8
部品1
100
AcDbLine
 10
6519.200647410864
 20
10189.73905351664
 30
0.0
 11
6525.200647410862
 21
10189.73905351664
 31
0.0
  0
LINE
  5
1632F
330
747D
100
AcDbEntity
  8
部品1
100
AcDbLine
 10
6525.200647410862
 20
10189.73905351664
 30
0.0
 11
6525.200647410862
 21
10171.73905351664
 31
0.0
  0
LINE
  5
16330
330
747D
100
AcDbEntity
  8
部品1
100
AcDbLine
 10
6455.200647410864
 20
10189.73905351664
 30
0.0
 11
6461.200647410862
 21
10189.73905351664
 31
0.0
  0
LINE
  5
16331
330
747D
100
AcDbEntity
  8
部品1
100
AcDbLine
 10
6455.200647410864
 20
10189.73905351664
 30
0.0
 11
6455.200647410864
 21
10171.73905351664
 31
0.0
  0
DIMENSION
  5
16333
330
747D
100
AcDbEntity
  8
寸法
100
AcDbDimension
  2
*D13
 10
7385.200647410865
 20
10415.54727314162
 30
0.0
 11
7693.685928785104
 21
10415.54727314162
 31
0.0
 70
   160
 71
     5
 42
55.0
  3
INABA_S40G
100
AcDbAlignedDimension
 13
7330.200647410865
 23
10199.73905351664
 33
0.0
 14
7385.200647410865
 24
10199.73905351664
 34
0.0
100
AcDbRotatedDimension
1001
ACAD
1000
DSTYLE
1002
{
1002
}
  0
LINE
  5
16334
330
747D
100
AcDbEntity
  8
部品1
100
AcDbLine
 10
6910.200647410864
 20
10199.73905351666
 30
0.0
 11
6910.200647410864
 21
10171.73905351666
 31
0.0
  0
LINE
  5
16335
330
747D
100
AcDbEntity
  8
部品1
100
AcDbLine
 10
7330.200647410865
 20
10199.73905351664
 30
0.0
 11
7330.200647410865
 21
10171.73905351663
 31
0.0
  0
LINE
  5
16336
330
747D
100
AcDbEntity
  8
部品1
100
AcDbLine
 10
7330.200647410865
 20
10199.73905351666
 30
0.0
 11
7330.200647410865
 21
10171.73905351666
 31
0.0
  0
LINE
  5
16337
330
747D
100
AcDbEntity
  8
部品1
100
AcDbLine
 10
7357.200647410865
 20
10144.73905351664
 30
0.0
 11
7385.200647410865
 21
10144.73905351664
 31
0.0
  0
LINE
  5
1655C
330
747D
100
AcDbEntity
  8
部品1
100
AcDbLine
 10
5492.200647410859
 20
3863.358099277191
 30
0.0
 11
5492.200647410856
 21
2188.35809927719
 31
0.0
  0
LINE
  5
1655D
330
747D
100
AcDbEntity
  8
部品1
100
AcDbLine
 10
5540.200647410857
 20
3863.358099277189
 30
0.0
 11
5540.200647410856
 21
2188.35809927719
 31
0.0
  0
LINE
  5
1655E
330
747D
100
AcDbEntity
  8
破線
 48
5.0
100
AcDbLine
 10
5492.200647410856
 20
2188.35809927719
 30
0.0
 11
5492.200647410858
 21
1938.358099277189
 31
0.0
  0
LINE
  5
1655F
330
747D
100
AcDbEntity
  8
破線
 48
5.0
100
AcDbLine
 10
5540.200647410859
 20
1938.358099277189
 30
0.0
 11
5492.200647410857
 21
1938.358099277189
 31
0.0
  0
LINE
  5
16560
330
747D
100
AcDbEntity
  8
破線
 48
5.0
100
AcDbLine
 10
5540.200647410856
 20
2188.35809927719
 30
0.0
 11
5540.200647410857
 21
1913.358099277189
 31
0.0
  0
LINE
  5
16561
330
747D
100
AcDbEntity
  8
破線
 48
5.0
100
AcDbLine
 10
5650.200647410855
 20
1913.358099277189
 30
0.0
 11
5540.200647410857
 21
1913.358099277189
 31
0.0
  0
LINE
  5
16562
330
747D
100
AcDbEntity
  8
部品1
100
AcDbLine
 10
5698.200647410857
 20
3863.35809927719
 30
0.0
 11
5698.200647410857
 21
2188.35809927719
 31
0.0
  0
LINE
  5
16563
330
747D
100
AcDbEntity
  8
破線
 48
5.0
100
AcDbLine
 10
5698.200647410857
 20
2188.35809927719
 30
0.0
 11
5698.200647410855
 21
1938.358099277195
 31
0.0
  0
LINE
  5
16564
330
747D
100
AcDbEntity
  8
破線
 48
5.0
100
AcDbLine
 10
5698.200647410856
 20
1938.358099277195
 30
0.0
 11
5650.200647410855
 21
1938.358099277195
 31
0.0
  0
LINE
  5
16565
330
747D
100
AcDbEntity
  8
破線
 48
5.0
100
AcDbLine
 10
5650.200647410858
 20
2188.35809927719
 30
0.0
 11
5650.200647410857
 21
1913.358099277189
 31
0.0
  0
LINE
  5
16566
330
747D
100
AcDbEntity
  8
部品1
100
AcDbLine
 10
5650.200647410859
 20
3863.358099277189
 30
0.0
 11
5650.200647410858
 21
2188.35809927719
 31
0.0
  0
LINE
  5
16567
330
747D
100
AcDbEntity
  8
部品1
100
AcDbLine
 10
5650.200647410858
 20
3863.35809927719
 30
0.0
 11
7385.200647410854
 21
3863.35809927719
 31
0.0
  0
DIMENSION
  5
1659A
330
747D
100
AcDbEntity
  8
寸法
 48
50.0
100
AcDbDimension
  2
*D15
 10
5492.20064741084
 20
6615.308282750375
 30
0.0
 11
5381.237749762092
 21
6715.308282750375
 31
0.0
 70
   160
 71
     5
 42
48.00000000000181
  3
INABA_S40G
100
AcDbAlignedDimension
 13
5540.200647410841
 23
7149.739053516627
 33
0.0
 14
5492.20064741084
 24
7175.73905351654
 34
0.0
100
AcDbRotatedDimension
1001
ACAD
1000
DSTYLE
1002
{
1070
   279
1070
     2
1002
}
  0
DIMENSION
  5
1659C
330
747D
100
AcDbEntity
  8
寸法
 48
50.0
100
AcDbDimension
  2
*D14
 10
3860.200647410854
 20
6615.308282750375
 30
0.0
 11
4021.102618410915
 21
6715.308282750375
 31
0.0
 70
   160
 71
     5
 42
48.00000000000363
  3
INABA_S40G
100
AcDbAlignedDimension
 13
3908.200647410858
 23
7175.739053516538
 33
0.0
 14
3860.200647410854
 24
7149.739053516539
 34
0.0
100
AcDbRotatedDimension
1001
ACAD
1000
DSTYLE
1002
{
1070
   279
1070
     2
1002
}
  0
DIMENSION
  5
165E9
330
747D
100
AcDbEntity
  8
寸法
 48
50.0
100
AcDbDimension
  2
*D16
 10
5540.200647410841
 20
6615.308282750376
 30
0.0
 11
5595.200647410848
 21
6463.616387714144
 31
0.0
 70
   160
 71
     5
 42
110.0000000000127
  3
INABA_S40G
100
AcDbAlignedDimension
 13
5650.200647410854
 23
7149.739053516539
 33
0.0
 14
5540.200647410841
 24
7149.739053516627
 34
0.0
100
AcDbRotatedDimension
1001
ACAD
1000
DSTYLE
1002
{
1070
   279
1070
     2
1002
}
  0
LINE
  5
16656
330
747D
100
AcDbEntity
  8
部品1
100
AcDbLine
 10
5492.20064741084
 20
7214.73905351654
 30
0.0
 11
5540.200647410841
 21
7214.739053516538
 31
0.0
  0
LINE
  5
16657
330
747D
100
AcDbEntity
  8
部品1
 48
50.0
100
AcDbLine
 10
5492.20064741084
 20
7214.73905351654
 30
0.0
 11
5492.20064741084
 21
7205.739053516539
 31
0.0
  0
LINE
  5
16658
330
747D
100
AcDbEntity
  8
部品1
100
AcDbLine
 10
5492.20064741084
 20
7175.73905351654
 30
0.0
 11
5540.20064741084
 21
7175.739053516538
 31
0.0
  0
LINE
  5
16659
330
747D
100
AcDbEntity
  8
部品1
 48
50.0
100
AcDbLine
 10
5492.20064741084
 20
7175.73905351654
 30
0.0
 11
5492.20064741084
 21
7184.73905351654
 31
0.0
  0
LINE
  5
1665A
330
747D
100
AcDbEntity
  8
部品1
 48
50.0
100
AcDbLine
 10
5530.20064741084
 20
7175.739053516538
 30
0.0
 11
5540.20064741084
 21
7154.739053516539
 31
0.0
  0
LINE
  5
1665B
330
747D
100
AcDbEntity
  8
部品1
100
AcDbLine
 10
5540.20064741084
 20
7185.739053516536
 30
0.0
 11
5563.200647410839
 21
7185.739053516538
 31
0.0
  0
LINE
  5
1665C
330
747D
100
AcDbEntity
  8
部品1
100
AcDbLine
 10
5698.200647410857
 20
7214.73905351654
 30
0.0
 11
5650.200647410858
 21
7214.739053516538
 31
0.0
  0
LINE
  5
1665D
330
747D
100
AcDbEntity
  8
部品1
 48
50.0
100
AcDbLine
 10
5698.200647410857
 20
7214.73905351654
 30
0.0
 11
5698.200647410857
 21
7205.739053516539
 31
0.0
  0
LINE
  5
1665E
330
747D
100
AcDbEntity
  8
部品1
100
AcDbLine
 10
5698.200647410857
 20
7175.73905351654
 30
0.0
 11
5650.200647410858
 21
7175.739053516538
 31
0.0
  0
LINE
  5
1665F
330
747D
100
AcDbEntity
  8
部品1
 48
50.0
100
AcDbLine
 10
5660.200647410857
 20
7175.739053516538
 30
0.0
 11
5650.200647410858
 21
7154.739053516539
 31
0.0
  0
LINE
  5
16660
330
747D
100
AcDbEntity
  8
部品1
100
AcDbLine
 10
5650.200647410855
 20
7185.739053516538
 30
0.0
 11
5627.200647410858
 21
7185.739053516538
 31
0.0
  0
LINE
  5
16661
330
747D
100
AcDbEntity
  8
部品1
 48
50.0
100
AcDbLine
 10
5650.200647410858
 20
7214.739053516538
 30
0.0
 11
5650.200647410854
 21
7149.739053516539
 31
0.0
  0
LINE
  5
16662
330
747D
100
AcDbEntity
  8
部品1
 48
50.0
100
AcDbLine
 10
5698.200647410857
 20
7175.73905351654
 30
0.0
 11
5698.200647410857
 21
7184.73905351654
 31
0.0
  0
LINE
  5
16663
330
747D
100
AcDbEntity
  8
部品1
100
AcDbLine
 10
5650.200647410851
 20
7149.739053516539
 30
0.0
 11
5540.200647410843
 21
7149.739053516533
 31
0.0
  0
LINE
  5
16664
330
747D
100
AcDbEntity
  8
部品1
 48
50.0
100
AcDbLine
 10
5540.200647410845
 20
7214.739053516627
 30
0.0
 11
5540.200647410841
 21
7149.739053516627
 31
0.0
  0
LINE
  5
16666
330
747D
100
AcDbEntity
  8
部品1
100
AcDbLine
 10
5650.200647410863
 20
10199.73905351654
 30
0.0
 11
5650.200647410863
 21
10171.73905351654
 31
0.0
  0
LINE
  5
16692
330
747D
100
AcDbEntity
  8
部品1
100
AcDbLine
 10
5540.200647410864
 20
10199.73905351664
 30
0.0
 11
5540.200647410864
 21
10171.73905351663
 31
0.0
  0
LINE
  5
16760
330
747D
100
AcDbEntity
  8
部品1
 48
50.0
100
AcDbLine
 10
5595.20064741083
 20
10171.73905351658
 30
0.0
 11
5567.200647410832
 21
10199.73905351664
 31
0.0
  0
LINE
  5
16761
330
747D
100
AcDbEntity
  8
部品1
100
AcDbLine
 10
7330.200647410859
 20
10144.73905351656
 30
0.0
 11
5650.200647410844
 21
10144.73905351656
 31
0.0
  0
LINE
  5
16762
330
747D
100
AcDbEntity
  8
部品1
 48
50.0
100
AcDbLine
 10
5567.200647410832
 20
10171.73905351669
 30
0.0
 11
5567.20064741083
 21
10199.73905351664
 31
0.0
  0
LINE
  5
16763
330
747D
100
AcDbEntity
  8
部品1
 48
50.0
100
AcDbLine
 10
5567.200647410832
 20
10171.73905351658
 30
0.0
 11
5595.20064741083
 21
10171.73905351658
 31
0.0
  0
LINE
  5
168C3
330
747D
100
AcDbEntity
  8
部品1
100
AcDbLine
 10
5619.200647410849
 20
7204.739053516535
 30
0.0
 11
5571.200647410848
 21
7204.739053516535
 31
0.0
  0
LINE
  5
168C4
330
747D
100
AcDbEntity
  8
部品1
 48
50.0
100
AcDbLine
 10
5571.200647410848
 20
7204.739053516536
 30
0.0
 11
5571.200647410852
 21
7149.739053516537
 31
0.0
  0
LINE
  5
168C5
330
747D
100
AcDbEntity
  8
部品1
 48
50.0
100
AcDbLine
 10
5619.200647410849
 20
7204.739053516536
 30
0.0
 11
5619.200647410853
 21
7149.739053516537
 31
0.0
  0
DIMENSION
  5
16913
330
747D
100
AcDbEntity
  8
寸法
 48
50.0
100
AcDbDimension
  2
*D17
 10
7385.200647410865
 20
10664.86874669793
 30
0.0
 11
6490.200647410865
 21
10764.86874669793
 31
0.0
 70
    32
 71
     5
 42
1790.0
  3
INABA_S40G
100
AcDbAlignedDimension
 13
5595.200647410865
 23
10574.53518749958
 33
0.0
 14
7385.200647410865
 24
10199.73905351664
 34
0.0
100
AcDbRotatedDimension
1001
ACAD
1000
DSTYLE
1002
{
1070
    75
1070
     1
1070
   279
1070
     2
1002
}
  0
LINE
  5
172BC
330
747D
100
AcDbEntity
  8
部品1
 48
50.0
100
AcDbLine
 10
5623.200647410833
 20
10144.73905351656
 30
0.0
 11
5623.200647410897
 21
10199.73905351659
 31
0.0
  0
LINE
  5
172BD
330
747D
100
AcDbEntity
  8
部品1
 48
50.0
100
AcDbLine
 10
5567.200647410832
 20
10144.73905351656
 30
0.0
 11
5567.200647410832
 21
10171.73905351658
 31
0.0
  0
LINE
  5
174C8
330
747D
100
AcDbEntity
  8
部品1
 48
50.0
100
AcDbLine
 10
7305.200647410865
 20
10119.73905351651
 30
0.0
 11
5675.200647410818
 21
10119.73905351649
 31
0.0
  0
LINE
  5
174C9
330
747D
100
AcDbEntity
  8
部品1
 48
50.0
100
AcDbLine
 10
7357.200647410865
 20
10171.73905351663
 30
0.0
 11
7330.200647410859
 21
10144.73905351656
 31
0.0
  0
LINE
  5
174CA
330
747D
100
AcDbEntity
  8
部品1
 48
50.0
100
AcDbLine
 10
3860.200647410835
 20
10144.73905351656
 30
0.0
 11
3833.20064741085
 21
10171.73905351666
 31
0.0
  0
LINE
  5
174CB
330
747D
100
AcDbEntity
  8
部品1
 48
50.0
100
AcDbLine
 10
6477.700647410863
 20
10163.73905351664
 30
0.0
 11
6477.700647410863
 21
10171.73905351666
 31
0.0
  0
LINE
  5
174CC
330
747D
100
AcDbEntity
  8
部品1
 48
50.0
100
AcDbLine
 10
6502.700647410863
 20
10163.73905351664
 30
0.0
 11
6502.700647410863
 21
10171.73905351665
 31
0.0
  0
LINE
  5
17B10
330
747D
100
AcDbEntity
  8
細線
100
AcDbLine
 10
5492.200647410857
 20
2198.35809927719
 30
0.0
 11
3908.200647410853
 21
2198.35809927719
 31
0.0
  0
LINE
  5
17B1E
330
747D
100
AcDbEntity
  8
細線
100
AcDbLine
 10
3908.200647410854
 20
3823.35809927719
 30
0.0
 11
5492.200647410856
 21
3823.35809927719
 31
0.0
  0
LINE
  5
17B21
330
747D
100
AcDbEntity
  8
細線
100
AcDbLine
 10
3908.200647410854
 20
3433.35809927719
 30
0.0
 11
5492.200647410856
 21
3433.35809927719
 31
0.0
  0
LINE
  5
17B22
330
747D
100
AcDbEntity
  8
細線
100
AcDbLine
 10
3908.200647410854
 20
3498.35809927719
 30
0.0
 11
5492.200647410856
 21
3498.35809927719
 31
0.0
  0
LINE
  5
17B23
330
747D
100
AcDbEntity
  8
細線
100
AcDbLine
 10
3908.200647410854
 20
3563.35809927719
 30
0.0
 11
5492.200647410856
 21
3563.35809927719
 31
0.0
  0
LINE
  5
17B24
330
747D
100
AcDbEntity
  8
細線
100
AcDbLine
 10
3908.200647410854
 20
3628.35809927719
 30
0.0
 11
5492.200647410856
 21
3628.35809927719
 31
0.0
  0
LINE
  5
17B25
330
747D
100
AcDbEntity
  8
細線
100
AcDbLine
 10
3908.200647410854
 20
3693.35809927719
 30
0.0
 11
5492.200647410856
 21
3693.35809927719
 31
0.0
  0
LINE
  5
17B26
330
747D
100
AcDbEntity
  8
細線
100
AcDbLine
 10
3908.200647410854
 20
3758.358099277189
 30
0.0
 11
5492.200647410856
 21
3758.358099277189
 31
0.0
  0
LINE
  5
17B27
330
747D
100
AcDbEntity
  8
細線
100
AcDbLine
 10
3908.200647410854
 20
2783.35809927719
 30
0.0
 11
5492.200647410856
 21
2783.35809927719
 31
0.0
  0
LINE
  5
17B28
330
747D
100
AcDbEntity
  8
細線
100
AcDbLine
 10
3908.200647410854
 20
2848.35809927719
 30
0.0
 11
5492.200647410856
 21
2848.35809927719
 31
0.0
  0
LINE
  5
17B29
330
747D
100
AcDbEntity
  8
細線
100
AcDbLine
 10
3908.200647410854
 20
2913.35809927719
 30
0.0
 11
5492.200647410856
 21
2913.35809927719
 31
0.0
  0
LINE
  5
17B2A
330
747D
100
AcDbEntity
  8
細線
100
AcDbLine
 10
3908.200647410854
 20
2978.35809927719
 30
0.0
 11
5492.200647410856
 21
2978.35809927719
 31
0.0
  0
LINE
  5
17B2B
330
747D
100
AcDbEntity
  8
細線
100
AcDbLine
 10
3908.200647410854
 20
3043.35809927719
 30
0.0
 11
5492.200647410856
 21
3043.35809927719
 31
0.0
  0
LINE
  5
17B2C
330
747D
100
AcDbEntity
  8
細線
100
AcDbLine
 10
3908.200647410854
 20
3108.35809927719
 30
0.0
 11
5492.200647410856
 21
3108.35809927719
 31
0.0
  0
LINE
  5
17B2D
330
747D
100
AcDbEntity
  8
細線
100
AcDbLine
 10
3908.200647410854
 20
3173.35809927719
 30
0.0
 11
5492.200647410856
 21
3173.35809927719
 31
0.0
  0
LINE
  5
17B2E
330
747D
100
AcDbEntity
  8
細線
100
AcDbLine
 10
3908.200647410854
 20
3238.35809927719
 30
0.0
 11
5492.200647410856
 21
3238.35809927719
 31
0.0
  0
LINE
  5
17B2F
330
747D
100
AcDbEntity
  8
細線
100
AcDbLine
 10
3908.200647410854
 20
3303.35809927719
 30
0.0
 11
5492.200647410856
 21
3303.35809927719
 31
0.0
  0
LINE
  5
17B30
330
747D
100
AcDbEntity
  8
細線
100
AcDbLine
 10
3908.200647410854
 20
3368.35809927719
 30
0.0
 11
5492.200647410856
 21
3368.35809927719
 31
0.0
  0
LINE
  5
17B33
330
747D
100
AcDbEntity
  8
細線
100
AcDbLine
 10
3908.200647410854
 20
2263.35809927719
 30
0.0
 11
5492.200647410856
 21
2263.35809927719
 31
0.0
  0
LINE
  5
17B34
330
747D
100
AcDbEntity
  8
細線
100
AcDbLine
 10
3908.200647410854
 20
2328.35809927719
 30
0.0
 11
5492.200647410856
 21
2328.35809927719
 31
0.0
  0
LINE
  5
17B35
330
747D
100
AcDbEntity
  8
細線
100
AcDbLine
 10
3908.200647410854
 20
2393.35809927719
 30
0.0
 11
5492.200647410856
 21
2393.35809927719
 31
0.0
  0
LINE
  5
17B36
330
747D
100
AcDbEntity
  8
細線
100
AcDbLine
 10
3908.200647410854
 20
2458.35809927719
 30
0.0
 11
5492.200647410856
 21
2458.35809927719
 31
0.0
  0
LINE
  5
17B37
330
747D
100
AcDbEntity
  8
細線
100
AcDbLine
 10
3908.200647410854
 20
2523.35809927719
 30
0.0
 11
5492.200647410856
 21
2523.35809927719
 31
0.0
  0
LINE
  5
17B38
330
747D
100
AcDbEntity
  8
細線
100
AcDbLine
 10
3908.200647410854
 20
2588.35809927719
 30
0.0
 11
5492.200647410856
 21
2588.35809927719
 31
0.0
  0
LINE
  5
17B39
330
747D
100
AcDbEntity
  8
細線
100
AcDbLine
 10
3908.200647410854
 20
2653.35809927719
 30
0.0
 11
5492.200647410856
 21
2653.35809927719
 31
0.0
  0
LINE
  5
17B3A
330
747D
100
AcDbEntity
  8
細線
100
AcDbLine
 10
3908.200647410854
 20
2718.35809927719
 30
0.0
 11
5492.200647410856
 21
2718.35809927719
 31
0.0
  0
LINE
  5
17B5A
330
747D
100
AcDbEntity
  8
部品1
100
AcDbLine
 10
3805.200647410858
 20
3863.35809927719
 30
0.0
 11
5650.200647410858
 21
3863.358099277189
 31
0.0
  0
DIMENSION
  5
17B86
330
747D
100
AcDbEntity
  8
寸法
 48
50.0
100
AcDbDimension
  2
*D21
 10
5595.200647410865
 20
10664.86874669793
 30
0.0
 11
4700.200647410848
 21
10764.86874669793
 31
0.0
 70
    32
 71
     5
 42
1790.000000000035
  3
INABA_S40G
100
AcDbAlignedDimension
 13
3805.20064741083
 23
10199.73905351651
 33
0.0
 14
5595.200647410865
 24
10574.53518749958
 34
0.0
100
AcDbRotatedDimension
1001
ACAD
1000
DSTYLE
1002
{
1070
   279
1070
     2
1002
}
  0
DIMENSION
  5
17B87
330
747D
100
AcDbEntity
  8
寸法
100
AcDbDimension
  2
*D19
 10
5540.200647410864
 20
10415.54727314164
 30
0.0
 11
4700.200647410864
 21
10515.55908416526
 31
0.0
 70
    32
  1
4X420=<>
 71
     5
 42
1680.000000000001
  3
INABA_S40G
100
AcDbAlignedDimension
 13
3860.200647410864
 23
10199.73905351654
 33
0.0
 14
5540.200647410864
 24
10199.73905351664
 34
0.0
100
AcDbRotatedDimension
1001
ACAD
1000
DSTYLE
1002
{
1002
}
  0
DIMENSION
  5
17B88
330
747D
100
AcDbEntity
  8
寸法
 48
50.0
100
AcDbDimension
  2
*D20
 10
5540.200647410864
 20
10415.54727314164
 30
0.0
 11
5595.200647410864
 21
10515.54727314164
 31
0.0
 70
    32
 71
     5
 42
109.9999999999991
  3
INABA_S40G
100
AcDbAlignedDimension
 13
5650.200647410864
 23
10199.73905351659
 33
0.0
 14
5540.200647410864
 24
10199.73905351659
 34
0.0
100
AcDbRotatedDimension
1001
ACAD
1000
DSTYLE
1002
{
1070
   279
1070
     2
1002
}
  0
LINE
  5
17B8B
330
747D
100
AcDbEntity
  8
部品1
 48
50.0
100
AcDbLine
 10
5515.200647410834
 20
10119.73905351646
 30
0.0
 11
3885.200647410835
 21
10119.73905351646
 31
0.0
  0
LINE
  5
17B98
330
747D
100
AcDbEntity
  8
部品1
 48
50.0
100
AcDbLine
 10
4712.700647410863
 20
10163.73905351664
 30
0.0
 11
4712.700647410863
 21
10171.73905351665
 31
0.0
  0
LINE
  5
17B99
330
747D
100
AcDbEntity
  8
部品1
 48
50.0
100
AcDbLine
 10
4687.700647410863
 20
10163.73905351664
 30
0.0
 11
4687.700647410863
 21
10171.73905351666
 31
0.0
  0
LINE
  5
17BA3
330
747D
100
AcDbEntity
  8
部品1
100
AcDbLine
 10
5120.200647410863
 20
10199.73905351666
 30
0.0
 11
5120.200647410863
 21
10171.73905351666
 31
0.0
  0
LINE
  5
17BA4
330
747D
100
AcDbEntity
  8
部品1
100
AcDbLine
 10
4280.200647410863
 20
10199.73905351654
 30
0.0
 11
4280.200647410863
 21
10171.73905351654
 31
0.0
  0
LINE
  5
17BA5
330
747D
100
AcDbEntity
  8
部品1
100
AcDbLine
 10
4280.200647410863
 20
10199.73905351654
 30
0.0
 11
4280.200647410863
 21
10171.73905351654
 31
0.0
  0
LINE
  5
17BA6
330
747D
100
AcDbEntity
  8
部品1
100
AcDbLine
 10
4280.200647410863
 20
10199.73905351666
 30
0.0
 11
4280.200647410863
 21
10171.73905351666
 31
0.0
  0
LINE
  5
17BA7
330
747D
100
AcDbEntity
  8
部品1
100
AcDbLine
 10
4280.200647410863
 20
10199.73905351654
 30
0.0
 11
4280.200647410863
 21
10171.73905351654
 31
0.0
  0
LINE
  5
17BA8
330
747D
100
AcDbEntity
  8
部品1
100
AcDbLine
 10
4280.200647410863
 20
10199.73905351654
 30
0.0
 11
4280.200647410863
 21
10171.73905351654
 31
0.0
  0
LINE
  5
17BA9
330
747D
100
AcDbEntity
  8
部品1
100
AcDbLine
 10
4280.200647410863
 20
10199.73905351666
 30
0.0
 11
4280.200647410863
 21
10171.73905351666
 31
0.0
  0
LINE
  5
17BAA
330
747D
100
AcDbEntity
  8
部品1
100
AcDbLine
 10
3833.20064741085
 20
10171.73905351666
 30
0.0
 11
4687.700647410863
 21
10171.73905351666
 31
0.0
  0
LINE
  5
17BAB
330
747D
100
AcDbEntity
  8
部品1
100
AcDbLine
 10
4712.700647410863
 20
10171.73905351665
 30
0.0
 11
5567.200647410865
 21
10171.73905351663
 31
0.0
  0
LINE
  5
17BAC
330
747D
100
AcDbEntity
  8
部品1
100
AcDbLine
 10
4665.200647410863
 20
10189.73905351664
 30
0.0
 11
4665.200647410863
 21
10171.73905351664
 31
0.0
  0
LINE
  5
17BAD
330
747D
100
AcDbEntity
  8
部品1
100
AcDbLine
 10
4665.200647410863
 20
10189.73905351664
 30
0.0
 11
4671.200647410863
 21
10189.73905351664
 31
0.0
  0
LINE
  5
17BAE
330
747D
100
AcDbEntity
  8
部品1
100
AcDbLine
 10
4735.200647410862
 20
10189.73905351664
 30
0.0
 11
4735.200647410862
 21
10171.73905351664
 31
0.0
  0
LINE
  5
17BAF
330
747D
100
AcDbEntity
  8
部品1
100
AcDbLine
 10
4729.200647410863
 20
10189.73905351664
 30
0.0
 11
4735.200647410862
 21
10189.73905351664
 31
0.0
  0
LINE
  5
17BB0
330
747D
100
AcDbEntity
  8
部品1
100
AcDbLine
 10
4687.700647410863
 20
10163.73905351664
 30
0.0
 11
4712.700647410863
 21
10163.73905351664
 31
0.0
  0
LINE
  5
17BB1
330
747D
100
AcDbEntity
  8
部品1
100
AcDbLine
 10
4700.200647410863
 20
10199.73905351666
 30
0.0
 11
4700.200647410863
 21
10171.73905351666
 31
0.0
  0
LINE
  5
17BC2
330
747D
100
AcDbEntity
  8
部品1
 48
50.0
100
AcDbLine
 10
3872.200647410856
 20
7195.239053516537
 30
0.0
 11
5528.200647410841
 21
7195.239053516537
 31
0.0
  0
DIMENSION
  5
17BC3
330
747D
100
AcDbEntity
  8
寸法
 48
50.0
100
AcDbDimension
  2
*D18
 10
3908.200647410858
 20
6615.308282750375
 30
0.0
 11
4700.200647410848
 21
6815.308282750375
 31
0.0
 70
    32
  1
有効開口部間口\P <>
 71
     5
 42
1583.999999999982
  3
INABA_S40G
100
AcDbAlignedDimension
 13
5492.20064741084
 23
7175.73905351654
 33
0.0
 14
3908.200647410858
 24
7175.739053516538
 34
0.0
100
AcDbRotatedDimension
1001
ACAD
1000
DSTYLE
1002
{
1070
    75
1070
     1
1070
   279
1070
     2
1002
}
  0
LINE
  5
17D0F
330
747D
100
AcDbEntity
  8
部品1
100
AcDbLine
 10
7357.200647410856
 20
9724.739053516634
 30
0.0
 11
7385.200647410856
 21
9724.739053516634
 31
0.0
  0
LINE
  5
17D10
330
747D
100
AcDbEntity
  8
部品1
100
AcDbLine
 10
7357.200647410859
 20
8884.739053516632
 30
0.0
 11
7385.200647410859
 21
8884.739053516632
 31
0.0
  0
LINE
  5
17D11
330
747D
100
AcDbEntity
  8
部品1
100
AcDbLine
 10
3833.20064741083
 20
9724.739053516506
 30
0.0
 11
3805.20064741083
 21
9724.739053516506
 31
0.0
  0
LINE
  5
17D12
330
747D
100
AcDbEntity
  8
部品1
100
AcDbLine
 10
3833.200647410834
 20
8884.739053516504
 30
0.0
 11
3805.200647410834
 21
8884.739053516504
 31
0.0
  0
LINE
  5
180FF
330
747D
100
AcDbEntity
  8
部品1
100
AcDbLine
 10
3805.200647410858
 20
2188.35809927719
 30
0.0
 11
7385.200647410858
 21
2188.35809927719
 31
0.0
  0
LINE
  5
18100
330
747D
100
AcDbEntity
  8
Ｇ．Ｌ
100
AcDbLine
 10
2716.934044740375
 20
2088.35809927719
 30
0.0
 11
13631.83301568371
 21
2088.358099277189
 31
0.0
  0
LINE
  5
18105
330
747D
100
AcDbEntity
  8
部品1
100
AcDbLine
 10
3805.20064741083
 20
10199.73905351651
 30
0.0
 11
7385.200647410865
 21
10199.73905351664
 31
0.0
  0
LINE
  5
18161
330
747D
100
AcDbEntity
  8
部品1
100
AcDbLine
 10
5595.20064741085
 20
10144.7390535165
 30
0.0
 11
5595.200647410823
 21
7204.739053516481
 31
0.0
  0
LINE
  5
18162
330
747D
100
AcDbEntity
  8
部品1
100
AcDbLine
 10
5623.20064741081
 20
7149.739053516487
 30
0.0
 11
5623.200647410834
 21
10199.73905351653
 31
0.0
  0
LINE
  5
18163
330
747D
100
AcDbEntity
  8
部品1
 48
10.0
100
AcDbLine
 10
5675.200647410864
 20
7214.739053516487
 30
0.0
 11
5675.200647410818
 21
10144.7390535165
 31
0.0
  0
LINE
  5
18164
330
747D
100
AcDbEntity
  8
部品1
100
AcDbLine
 10
5650.20064741087
 20
7214.739053516487
 30
0.0
 11
5650.200647410843
 21
10144.73905351648
 31
0.0
  0
LINE
  5
18165
330
747D
100
AcDbEntity
  8
部品1
100
AcDbLine
 10
5567.200647410832
 20
10171.73905351658
 30
0.0
 11
5567.200647410816
 21
7149.739053516481
 31
0.0
  0
LINE
  5
18166
330
747D
100
AcDbEntity
  8
部品1
 48
10.0
100
AcDbLine
 10
5515.20064741086
 20
7214.739053516487
 30
0.0
 11
5515.200647410834
 21
10144.73905351649
 31
0.0
  0
LINE
  5
18167
330
747D
100
AcDbEntity
  8
部品1
100
AcDbLine
 10
5540.20064741085
 20
7214.739053516487
 30
0.0
 11
5540.200647410843
 21
10144.73905351649
 31
0.0
  0
LINE
  5
18168
330
747D
100
AcDbEntity
  8
部品1
100
AcDbLine
 10
5567.200647410852
 20
8464.739053516588
 30
0.0
 11
5595.200647410852
 21
8464.739053516588
 31
0.0
  0
LINE
  5
18169
330
747D
100
AcDbEntity
  8
部品1
100
AcDbLine
 10
5567.200647410852
 20
8884.739053516588
 30
0.0
 11
5595.200647410852
 21
8884.739053516588
 31
0.0
  0
LINE
  5
1816A
330
747D
100
AcDbEntity
  8
部品1
100
AcDbLine
 10
5567.200647410852
 20
9724.739053516589
 30
0.0
 11
5595.200647410852
 21
9724.739053516589
 31
0.0
  0
LINE
  5
1816B
330
747D
100
AcDbEntity
  8
部品1
 48
50.0
100
AcDbLine
 10
5623.200647410885
 20
10171.73905351639
 30
0.0
 11
5650.200647410874
 21
10144.73905351641
 31
0.0
  0
LINE
  5
1816C
330
747D
100
AcDbEntity
  8
部品1
 48
50.0
100
AcDbLine
 10
5567.200647410899
 20
10171.73905351649
 30
0.0
 11
5540.200647410896
 21
10144.73905351648
 31
0.0
  0
LINE
  5
1816F
330
747D
100
AcDbEntity
  8
部品1
100
AcDbLine
 10
5540.200647410843
 20
10144.73905351656
 30
0.0
 11
3860.200647410835
 21
10144.73905351656
 31
0.0
  0
LINE
  5
18170
330
747D
100
AcDbEntity
  8
部品1
100
AcDbLine
 10
5623.200647410834
 20
10144.73905351656
 30
0.0
 11
5567.20064741083
 21
10144.73905351656
 31
0.0
  0
LINE
  5
18171
330
747D
100
AcDbEntity
  8
部品1
100
AcDbLine
 10
5567.200647410859
 20
8044.73905351659
 30
0.0
 11
5595.200647410859
 21
8044.73905351659
 31
0.0
  0
LINE
  5
18172
330
747D
100
AcDbEntity
  8
部品1
100
AcDbLine
 10
5567.200647410859
 20
7624.739053516589
 30
0.0
 11
5595.200647410859
 21
7624.739053516589
 31
0.0
  0
CIRCLE
  5
1834F
330
747D
100
AcDbEntity
  8
細線
 48
50.0
100
AcDbCircle
 10
6490.200647410851
 20
3075.85809927719
 30
0.0
 40
18.0
  0
ARC
  5
18350
330
747D
100
AcDbEntity
  8
細線
 48
50.0
100
AcDbCircle
 10
6790.200647410852
 20
2750.85809927719
 30
0.0
 40
15.0
100
AcDbArc
 50
270.0
 51
90.0
  0
ARC
  5
18351
330
747D
100
AcDbEntity
  8
細線
 48
50.0
100
AcDbCircle
 10
6690.200647410851
 20
2750.85809927719
 30
0.0
 40
15.0
100
AcDbArc
 50
90.0
 51
270.0
  0
LINE
  5
18352
330
747D
100
AcDbEntity
  8
細線
 48
50.0
100
AcDbLine
 10
6690.200647410851
 20
2765.85809927719
 30
0.0
 11
6790.200647410852
 21
2765.85809927719
 31
0.0
  0
LINE
  5
18353
330
747D
100
AcDbEntity
  8
細線
 48
50.0
100
AcDbLine
 10
6790.200647410852
 20
2735.858099277189
 30
0.0
 11
6690.200647410851
 21
2735.858099277189
 31
0.0
  0
LINE
  5
18354
330
747D
100
AcDbEntity
  8
細線
 48
50.0
100
AcDbLine
 10
6290.200647410852
 20
2735.858099277189
 30
0.0
 11
6190.200647410852
 21
2735.858099277189
 31
0.0
  0
LINE
  5
18355
330
747D
100
AcDbEntity
  8
細線
 48
50.0
100
AcDbLine
 10
6190.200647410852
 20
2765.85809927719
 30
0.0
 11
6290.200647410852
 21
2765.85809927719
 31
0.0
  0
ARC
  5
18356
330
747D
100
AcDbEntity
  8
細線
 48
50.0
100
AcDbCircle
 10
6290.200647410852
 20
2750.85809927719
 30
0.0
 40
15.0
100
AcDbArc
 50
270.0
 51
90.0
  0
ARC
  5
18357
330
747D
100
AcDbEntity
  8
細線
 48
50.0
100
AcDbCircle
 10
6190.200647410852
 20
2750.85809927719
 30
0.0
 40
15.0
100
AcDbArc
 50
90.0
 51
270.0
  0
ARC
  5
18792
330
747D
100
AcDbEntity
  8
細線
 48
50.0
100
AcDbCircle
 10
4400.200647410851
 20
2750.85809927719
 30
0.0
 40
15.0
100
AcDbArc
 50
90.0
 51
270.0
  0
ARC
  5
18793
330
747D
100
AcDbEntity
  8
細線
 48
50.0
100
AcDbCircle
 10
4500.200647410852
 20
2750.85809927719
 30
0.0
 40
15.0
100
AcDbArc
 50
270.0
 51
90.0
  0
LINE
  5
18794
330
747D
100
AcDbEntity
  8
細線
 48
50.0
100
AcDbLine
 10
4400.200647410851
 20
2765.85809927719
 30
0.0
 11
4500.200647410852
 21
2765.85809927719
 31
0.0
  0
LINE
  5
18795
330
747D
100
AcDbEntity
  8
細線
 48
50.0
100
AcDbLine
 10
4500.200647410852
 20
2735.858099277189
 30
0.0
 11
4400.200647410851
 21
2735.858099277189
 31
0.0
  0
LINE
  5
18796
330
747D
100
AcDbEntity
  8
細線
 48
50.0
100
AcDbLine
 10
5000.200647410852
 20
2735.858099277189
 30
0.0
 11
4900.200647410851
 21
2735.858099277189
 31
0.0
  0
LINE
  5
18797
330
747D
100
AcDbEntity
  8
細線
 48
50.0
100
AcDbLine
 10
4900.200647410851
 20
2765.85809927719
 30
0.0
 11
5000.200647410852
 21
2765.85809927719
 31
0.0
  0
ARC
  5
18798
330
747D
100
AcDbEntity
  8
細線
 48
50.0
100
AcDbCircle
 10
4900.200647410851
 20
2750.85809927719
 30
0.0
 40
15.0
100
AcDbArc
 50
90.0
 51
270.0
  0
ARC
  5
18799
330
747D
100
AcDbEntity
  8
細線
 48
50.0
100
AcDbCircle
 10
5000.200647410852
 20
2750.85809927719
 30
0.0
 40
15.0
100
AcDbArc
 50
270.0
 51
90.0
  0
CIRCLE
  5
1879A
330
747D
100
AcDbEntity
  8
細線
 48
50.0
100
AcDbCircle
 10
4700.200647410851
 20
3075.85809927719
 30
0.0
 40
18.0
  0
LINE
  5
1884E
330
747D
100
AcDbEntity
  8
部品1
100
AcDbLine
 10
5567.200647410852
 20
9304.739053516581
 30
0.0
 11
5595.200647410852
 21
9304.739053516581
 31
0.0
  0
LINE
  5
18850
330
747D
100
AcDbEntity
  8
部品1
100
AcDbLine
 10
3833.200647410834
 20
9304.739053516497
 30
0.0
 11
3805.200647410834
 21
9304.739053516497
 31
0.0
  0
LINE
  5
18851
330
747D
100
AcDbEntity
  8
部品1
100
AcDbLine
 10
7357.200647410859
 20
9304.739053516623
 30
0.0
 11
7385.200647410859
 21
9304.739053516623
 31
0.0
  0
TEXT
  5
18D3E
330
747D
100
AcDbEntity
  8
文字
 62
     7
 48
50.0
100
AcDbText
 10
15022.63965474516
 20
9910.013745883727
 30
0.0
 40
100.0
  1
F12,Y10      1.2+1.6
  7
STYLE1
100
AcDbText
  0
TEXT
  5
18D3F
330
747D
100
AcDbEntity
  8
文字
 62
     7
 48
50.0
100
AcDbText
 10
13583.11819016569
 20
9910.01374588373
 30
0.0
 40
100.0
  1
梁中
  7
STYLE1
100
AcDbText
  0
TEXT
  5
18D40
330
747D
100
AcDbEntity
  8
文字
 62
     7
 48
50.0
100
AcDbText
 10
13248.77747366448
 20
8720.013745883731
 30
0.0
 40
100.0
  1
14
  7
STYLE1
100
AcDbText
  0
LINE
  5
18D41
330
747D
100
AcDbEntity
  8
仕様書枠
 48
50.0
100
AcDbLine
 10
16307.19999999999
 20
9879.599999999999
 30
0.0
 11
13127.2
 21
9879.600000000001
 31
0.0
  0
LINE
  5
18D42
330
747D
100
AcDbEntity
  8
仕様書枠
 48
50.0
100
AcDbLine
 10
16307.19999999999
 20
11239.6
 30
0.0
 11
13127.2
 21
11239.6
 31
0.0
  0
LINE
  5
18D43
330
747D
100
AcDbEntity
  8
仕様書枠
 48
50.0
100
AcDbLine
 10
16307.2
 20
8179.600000000002
 30
0.0
 11
16307.2
 21
11239.6
 31
0.0
  0
LINE
  5
18D44
330
747D
100
AcDbEntity
  8
仕様書枠
 48
50.0
100
AcDbLine
 10
14785.2
 20
11239.59999999999
 30
0.0
 11
14785.19999999999
 21
8689.600000000003
 31
0.0
  0
LINE
  5
18D45
330
747D
100
AcDbEntity
  8
仕様書枠
 48
50.0
100
AcDbLine
 10
13490.2
 20
11239.6
 30
0.0
 11
13490.20000000001
 21
8689.600000000003
 31
0.0
  0
LINE
  5
18D46
330
747D
100
AcDbEntity
  8
仕様書枠
 48
50.0
100
AcDbLine
 10
16307.19999999999
 20
11069.6
 30
0.0
 11
13127.2
 21
11069.6
 31
0.0
  0
LINE
  5
18D47
330
747D
100
AcDbEntity
  8
仕様書枠
 48
50.0
100
AcDbLine
 10
16307.19999999999
 20
10729.6
 30
0.0
 11
13127.2
 21
10729.6
 31
0.0
  0
LINE
  5
18D48
330
747D
100
AcDbEntity
  8
仕様書枠
 48
50.0
100
AcDbLine
 10
16307.19999999999
 20
10899.6
 30
0.0
 11
13127.2
 21
10899.6
 31
0.0
  0
LINE
  5
18D49
330
747D
100
AcDbEntity
  8
仕様書枠
 48
50.0
100
AcDbLine
 10
16307.19999999999
 20
10389.6
 30
0.0
 11
13127.19999999999
 21
10389.6
 31
0.0
  0
LINE
  5
18D4A
330
747D
100
AcDbEntity
  8
仕様書枠
 48
50.0
100
AcDbLine
 10
16307.19999999999
 20
10219.6
 30
0.0
 11
13127.19999999999
 21
10219.6
 31
0.0
  0
LINE
  5
18D4B
330
747D
100
AcDbEntity
  8
仕様書枠
 48
50.0
100
AcDbLine
 10
16307.19999999999
 20
10559.6
 30
0.0
 11
13127.19999999999
 21
10559.6
 31
0.0
  0
TEXT
  5
18D4C
330
747D
100
AcDbEntity
  8
文字
 62
     7
 48
50.0
100
AcDbText
 10
13197.42518560407
 20
11100.01374588373
 30
0.0
 40
100.0
  1
品番
  7
STYLE1
100
AcDbText
  0
TEXT
  5
18D4D
330
747D
100
AcDbEntity
  8
文字
 62
     7
 48
50.0
100
AcDbText
 10
13271.19032244792
 20
10930.01374588373
 30
0.0
 40
100.0
  1
1
  7
STYLE1
100
AcDbText
  0
TEXT
  5
18D4E
330
747D
100
AcDbEntity
  8
文字
 62
     7
 48
50.0
100
AcDbText
 10
13271.19032244792
 20
10760.01374588373
 30
0.0
 40
100.0
  1
2
  7
STYLE1
100
AcDbText
  0
TEXT
  5
18D4F
330
747D
100
AcDbEntity
  8
文字
 62
     7
 48
50.0
100
AcDbText
 10
13271.19032244792
 20
10420.01374588373
 30
0.0
 40
100.0
  1
4
  7
STYLE1
100
AcDbText
  0
TEXT
  5
18D50
330
747D
100
AcDbEntity
  8
文字
 62
     7
 48
50.0
100
AcDbText
 10
13271.19032244792
 20
10590.01374588373
 30
0.0
 40
100.0
  1
3
  7
STYLE1
100
AcDbText
  0
TEXT
  5
18D51
330
747D
100
AcDbEntity
  8
文字
 62
     7
 48
50.0
100
AcDbText
 10
13732.03840939434
 20
11100.01374588373
 30
0.0
 40
100.0
  1
部　　品　　名
  7
STYLE1
100
AcDbText
  0
TEXT
  5
18D52
330
747D
100
AcDbEntity
  8
文字
 62
     7
 48
50.0
100
AcDbText
 10
14859.79774614482
 20
11100.01374588373
 30
0.0
 40
100.0
  1
材料（材質）　　単位mm
  7
STYLE1
100
AcDbText
  0
TEXT
  5
18D53
330
747D
100
AcDbEntity
  8
文字
 62
     7
 48
50.0
100
AcDbText
 10
13583.11819016569
 20
10930.01374588372
 30
0.0
 40
100.0
  1
土台枠
  7
STYLE1
100
AcDbText
  0
TEXT
  5
18D54
330
747D
100
AcDbEntity
  8
文字
 62
     7
 48
50.0
100
AcDbText
 10
13583.11819016569
 20
10760.01374588372
 30
0.0
 40
100.0
  1
柱
  7
STYLE1
100
AcDbText
  0
TEXT
  5
18D55
330
747D
100
AcDbEntity
  8
文字
 62
     7
 48
50.0
100
AcDbText
 10
13583.11819016569
 20
10590.01374588373
 30
0.0
 40
100.0
  1
桁前
  7
STYLE1
100
AcDbText
  0
TEXT
  5
18D56
330
747D
100
AcDbEntity
  8
文字
 62
     7
 48
50.0
100
AcDbText
 10
13583.11819016569
 20
10420.01374588373
 30
0.0
 40
100.0
  1
桁後
  7
STYLE1
100
AcDbText
  0
TEXT
  5
18D57
330
747D
100
AcDbEntity
  8
文字
 62
     7
 48
50.0
100
AcDbText
 10
13271.19032244792
 20
10250.01374588373
 30
0.0
 40
100.0
  1
5
  7
STYLE1
100
AcDbText
  0
TEXT
  5
18D58
330
747D
100
AcDbEntity
  8
文字
 62
     7
 48
50.0
100
AcDbText
 10
13583.11819016569
 20
10250.01374588373
 30
0.0
 40
100.0
  1
妻板左右
  7
STYLE1
100
AcDbText
  0
TEXT
  5
18D59
330
747D
100
AcDbEntity
  8
文字
 62
     7
 48
50.0
100
AcDbText
 10
13583.11819016568
 20
8890.013745883727
 30
0.0
 40
100.0
  1
シャッターレール
  7
STYLE1
100
AcDbText
  0
TEXT
  5
18D5A
330
747D
100
AcDbEntity
  8
文字
 62
     7
 48
50.0
100
AcDbText
 10
13248.77747366448
 20
9400.013745883727
 30
0.0
 40
100.0
  1
10
  7
STYLE1
100
AcDbText
  0
TEXT
  5
18D5B
330
747D
100
AcDbEntity
  8
文字
 62
     7
 48
50.0
100
AcDbText
 10
13583.11819016568
 20
9400.013745883729
 30
0.0
 40
100.0
  1
壁パネル
  7
STYLE1
100
AcDbText
  0
TEXT
  5
18D5C
330
747D
100
AcDbEntity
  8
文字
 62
     7
 48
50.0
100
AcDbText
 10
13583.11819016568
 20
9570.013745883727
 30
0.0
 40
100.0
  1
屋根パネル
  7
STYLE1
100
AcDbText
  0
TEXT
  5
18D5D
330
747D
100
AcDbEntity
  8
文字
 62
     7
 48
50.0
100
AcDbText
 10
13583.11819016568
 20
9740.013745883729
 30
0.0
 40
100.0
  1
母屋中
  7
STYLE1
100
AcDbText
  0
TEXT
  5
18D5E
330
747D
100
AcDbEntity
  8
文字
 62
     7
 48
50.0
100
AcDbText
 10
13583.11819016569
 20
10080.01374588372
 30
0.0
 40
100.0
  1
鼻隠シ前後
  7
STYLE1
100
AcDbText
  0
TEXT
  5
18D5F
330
747D
100
AcDbEntity
  8
文字
 62
     7
 48
50.0
100
AcDbText
 10
13271.19032244792
 20
9740.013745883729
 30
0.0
 40
100.0
  1
8
  7
STYLE1
100
AcDbText
  0
TEXT
  5
18D60
330
747D
100
AcDbEntity
  8
文字
 62
     7
 48
50.0
100
AcDbText
 10
13271.19032244792
 20
9570.013745883729
 30
0.0
 40
100.0
  1
9
  7
STYLE1
100
AcDbText
  0
TEXT
  5
18D61
330
747D
100
AcDbEntity
  8
文字
 62
     7
 48
50.0
100
AcDbText
 10
13271.19032244792
 20
9910.01374588373
 30
0.0
 40
100.0
  1
7
  7
STYLE1
100
AcDbText
  0
TEXT
  5
18D62
330
747D
100
AcDbEntity
  8
文字
 62
     7
 48
50.0
100
AcDbText
 10
13271.19032244792
 20
10080.01374588373
 30
0.0
 40
100.0
  1
6
  7
STYLE1
100
AcDbText
  0
LINE
  5
18D63
330
747D
100
AcDbEntity
  8
仕様書枠
 48
50.0
100
AcDbLine
 10
16307.19999999999
 20
9539.599999999998
 30
0.0
 11
13127.19999999999
 21
9539.6
 31
0.0
  0
LINE
  5
18D64
330
747D
100
AcDbEntity
  8
仕様書枠
 48
50.0
100
AcDbLine
 10
16307.19999999999
 20
9199.599999999998
 30
0.0
 11
13127.19999999999
 21
9199.600000000001
 31
0.0
  0
LINE
  5
18D65
330
747D
100
AcDbEntity
  8
仕様書枠
 48
50.0
100
AcDbLine
 10
16307.19999999999
 20
9369.599999999998
 30
0.0
 11
13127.19999999999
 21
9369.600000000001
 31
0.0
  0
LINE
  5
18D66
330
747D
100
AcDbEntity
  8
仕様書枠
 48
50.0
100
AcDbLine
 10
16307.19999999999
 20
10049.6
 30
0.0
 11
13127.2
 21
10049.6
 31
0.0
  0
LINE
  5
18D67
330
747D
100
AcDbEntity
  8
仕様書枠
 48
50.0
100
AcDbLine
 10
16307.19999999999
 20
9709.6
 30
0.0
 11
13127.2
 21
9709.600000000001
 31
0.0
  0
TEXT
  5
18D68
330
747D
100
AcDbEntity
  8
文字
 62
     7
 48
50.0
100
AcDbText
 10
13248.77747366448
 20
9230.013745883727
 30
0.0
 40
100.0
  1
11
  7
STYLE1
100
AcDbText
  0
TEXT
  5
18D69
330
747D
100
AcDbEntity
  8
文字
 62
     7
 48
50.0
100
AcDbText
 10
13583.11819016568
 20
9060.013745883727
 30
0.0
 40
100.0
  1
シャッターカバー
 41
0.9
  7
STYLE1
100
AcDbText
  0
LINE
  5
18D6A
330
747D
100
AcDbEntity
  8
仕様書枠
 48
50.0
100
AcDbLine
 10
16307.19999999999
 20
9029.6
 30
0.0
 11
13127.19999999999
 21
9029.6
 31
0.0
  0
TEXT
  5
18D6C
330
747D
100
AcDbEntity
  8
文字
 62
     7
 48
50.0
100
AcDbText
 10
13583.11819016568
 20
8720.013745883729
 30
0.0
 40
100.0
  1
棚板（別売）
  7
STYLE1
100
AcDbText
  0
LINE
  5
18D6D
330
747D
100
AcDbEntity
  8
仕様書枠
 48
50.0
100
AcDbLine
 10
16307.19999999999
 20
8859.6
 30
0.0
 11
13127.19999999999
 21
8859.600000000002
 31
0.0
  0
TEXT
  5
18D6E
330
747D
100
AcDbEntity
  8
文字
 62
     7
 48
50.0
100
AcDbText
 10
13583.11819016568
 20
9230.013745883729
 30
0.0
 40
100.0
  1
シャッター
  7
STYLE1
100
AcDbText
  0
TEXT
  5
18D6F
330
747D
100
AcDbEntity
  8
文字
 62
     7
 48
50.0
100
AcDbText
 10
13248.77747366448
 20
8890.013745883729
 30
0.0
 40
100.0
  1
13
  7
STYLE1
100
AcDbText
  0
TEXT
  5
18D70
330
747D
100
AcDbEntity
  8
文字
 62
     7
 48
50.0
100
AcDbText
 10
13248.77747366448
 20
9060.013745883729
 30
0.0
 40
100.0
  1
12
  7
STYLE1
100
AcDbText
  0
TEXT
  5
18D71
330
747D
100
AcDbEntity
  8
文字
 62
     7
 48
50.0
100
AcDbText
 10
15022.63965474517
 20
10930.01374588372
 30
0.0
 40
100.0
  1
F12            1.2
  7
STYLE1
100
AcDbText
  0
TEXT
  5
18D73
330
747D
100
AcDbEntity
  8
文字
 62
     7
 48
50.0
100
AcDbText
 10
15022.63965474516
 20
10590.01374588372
 30
0.0
 40
100.0
  1
Y10            1.0
  7
STYLE1
100
AcDbText
  0
TEXT
  5
18D74
330
747D
100
AcDbEntity
  8
文字
 62
     7
 48
50.0
100
AcDbText
 10
15022.63965474516
 20
10420.01374588372
 30
0.0
 40
100.0
  1
Y10            1.0
  7
STYLE1
100
AcDbText
  0
TEXT
  5
18D75
330
747D
100
AcDbEntity
  8
文字
 62
     7
 48
50.0
100
AcDbText
 10
15022.63965474516
 20
10250.01374588372
 30
0.0
 40
100.0
  1
Y10            0.7
  7
STYLE1
100
AcDbText
  0
TEXT
  5
18D76
330
747D
100
AcDbEntity
  8
文字
 62
     7
 48
50.0
100
AcDbText
 10
15022.63965474516
 20
10080.01374588372
 30
0.0
 40
100.0
  1
Y10            0.7
  7
STYLE1
100
AcDbText
  0
TEXT
  5
18D77
330
747D
100
AcDbEntity
  8
文字
 62
     7
 48
50.0
100
AcDbText
 10
15022.63965474516
 20
9740.013745883725
 30
0.0
 40
100.0
  1
F12            1.0
  7
STYLE1
100
AcDbText
  0
TEXT
  5
18D78
330
747D
100
AcDbEntity
  8
文字
 62
     7
 48
50.0
100
AcDbText
 10
15022.63965474516
 20
9570.013745883725
 30
0.0
 40
100.0
  1
Y10            0.5
  7
STYLE1
100
AcDbText
  0
TEXT
  5
18D79
330
747D
100
AcDbEntity
  8
文字
 62
     7
 48
50.0
100
AcDbText
 10
15022.63965474515
 20
9400.013745883725
 30
0.0
 40
100.0
  1
F12            0.6
  7
STYLE1
100
AcDbText
  0
TEXT
  5
18D7A
330
747D
100
AcDbEntity
  8
文字
 62
     7
 48
50.0
100
AcDbText
 10
14850.83183167176
 20
8890.013745883726
 30
0.0
 40
100.0
  1
アルミニウム合金押出形材
  7
STYLE1
100
AcDbText
  0
TEXT
  5
18D7C
330
747D
100
AcDbEntity
  8
文字
 62
     7
 48
50.0
100
AcDbText
 10
15022.63965474515
 20
9230.013745883725
 30
0.0
 40
100.0
  1
Z08            0.5
  7
STYLE1
100
AcDbText
  0
TEXT
  5
18D7D
330
747D
100
AcDbEntity
  8
文字
 62
     7
 48
50.0
100
AcDbText
 10
15022.63965474515
 20
8720.013745883727
 30
0.0
 40
100.0
  1
F12            0.6
  7
STYLE1
100
AcDbText
  0
LINE
  5
18D7E
330
747D
100
AcDbEntity
  8
仕様書枠
 48
50.0
100
AcDbLine
 10
16307.19999999999
 20
8519.599999999998
 30
0.0
 11
13127.19999999999
 21
8519.600000000002
 31
0.0
  0
LINE
  5
18D7F
330
747D
100
AcDbEntity
  8
仕様書枠
 48
50.0
100
AcDbLine
 10
16307.19999999999
 20
8349.599999999998
 30
0.0
 11
13127.19999999999
 21
8349.6
 31
0.0
  0
LINE
  5
18D80
330
747D
100
AcDbEntity
  8
仕様書枠
 48
50.0
100
AcDbLine
 10
16307.19999999999
 20
8179.599999999998
 30
0.0
 11
13127.19999999999
 21
8179.6
 31
0.0
  0
TEXT
  5
18D81
330
747D
100
AcDbEntity
  8
文字
 62
     7
 48
50.0
100
AcDbText
 10
13229.83081656554
 20
8550.013745883727
 30
0.0
 40
100.0
  1
F12→溶融亜鉛めっき鋼板(JIS G 3302)
  7
STYLE1
100
AcDbText
  0
TEXT
  5
18D82
330
747D
100
AcDbEntity
  8
文字
 62
     7
 48
50.0
100
AcDbText
 10
13229.83081656554
 20
8380.013745883728
 30
0.0
 40
100.0
  1
Y10→溶融亜鉛-5％アルミニウム合金めっき鋼板(JIS G 3317)
 41
0.9
  7
STYLE1
100
AcDbText
  0
TEXT
  5
18D83
330
747D
100
AcDbEntity
  8
文字
 62
     7
 48
50.0
100
AcDbText
 10
13229.83081656554
 20
8210.013745883729
 30
0.0
 40
100.0
  1
Z08→塗装溶融亜鉛めっき鋼板(JIS G 3313)
  7
STYLE1
100
AcDbText
  0
LINE
  5
18D84
330
747D
100
AcDbEntity
  8
仕様書枠
 48
50.0
100
AcDbLine
 10
13127.2
 20
11239.6
 30
0.0
 11
13127.2
 21
8179.600000000002
 31
0.0
  0
TEXT
  5
18F54
330
747D
100
AcDbEntity
  8
文字
 62
     7
 48
50.0
100
AcDbText
 10
13209.4053442172
 20
63.10977935368646
 30
0.0
 40
100.0
  1
○床面積 ： 10.92㎡(3.31坪)
  7
STYLE2
100
AcDbText
  0
LINE
  5
195A7
330
747D
100
AcDbEntity
  8
部品1
100
AcDbLine
 10
10076.03653835329
 20
2188.35809927719
 30
0.0
 11
9683.039324144445
 21
2088.358099277189
 31
0.0
  0
LINE
  5
195A8
330
747D
100
AcDbEntity
  8
破線
 48
5.0
100
AcDbLine
 10
10076.03653835329
 20
1838.358099277189
 30
0.0
 11
10131.03653835329
 21
1838.358099277189
 31
0.0
  0
LINE
  5
195A9
330
747D
100
AcDbEntity
  8
破線
 48
5.0
100
AcDbLine
 10
10131.03653835329
 20
2088.358099277189
 30
0.0
 11
10131.03653835329
 21
1838.358099277189
 31
0.0
  0
LINE
  5
195AA
330
747D
100
AcDbEntity
  8
破線
 48
5.0
100
AcDbLine
 10
10076.03653835329
 20
2088.358099277189
 30
0.0
 11
10076.03653835329
 21
1838.358099277189
 31
0.0
  0
DIMENSION
  5
195AF
330
747D
100
AcDbEntity
  8
寸法
100
AcDbDimension
  2
*D22
 10
9232.286409170027
 20
2238.358099277184
 30
0.0
 11
9132.286409170028
 21
3133.358099277187
 31
0.0
 70
    32
 71
     5
 42
1790.000000000002
  3
INABA_S40G
100
AcDbAlignedDimension
 13
10076.03653835329
 23
4028.358099277186
 33
0.0
 14
10076.03653835329
 24
2238.358099277184
 34
0.0
 50
90.0
100
AcDbRotatedDimension
1001
ACAD
1000
DSTYLE
1002
{
1070
   174
1070
     0
1070
   272
1070
     1
1070
   288
1070
     0
1070
   341
1005
0
1002
}
  0
DIMENSION
  5
195B0
330
747D
100
AcDbEntity
  8
寸法
100
AcDbDimension
  2
*D23
 10
8932.286409170028
 20
4263.35809927719
 30
0.0
 11
8832.274598146405
 21
3225.858099277188
 31
0.0
 70
    32
 71
     5
 42
2075.000000000005
  3
INABA_S40G
100
AcDbAlignedDimension
 13
10076.03653835329
 23
2188.358099277184
 33
0.0
 14
10016.03653835329
 24
4263.35809927719
 34
0.0
 50
90.0
100
AcDbRotatedDimension
1001
ACAD
1000
DSTYLE
1002
{
1070
   174
1070
     0
1070
   272
1070
     1
1070
   288
1070
     0
1070
   341
1005
0
1002
}
  0
DIMENSION
  5
195B1
330
747D
100
AcDbEntity
  8
寸法
100
AcDbDimension
  2
*D24
 10
13830.96369632541
 20
4208.358099277191
 30
0.0
 11
13730.95188530179
 21
3198.358099277193
 31
0.0
 70
    32
 71
     5
 42
2020.0
  3
INABA_S40G
100
AcDbAlignedDimension
 13
13126.03653835329
 23
2188.358099277191
 33
0.0
 14
13206.03653835329
 24
4208.358099277191
 34
0.0
 50
90.0
100
AcDbRotatedDimension
1001
ACAD
1000
DSTYLE
1002
{
1070
   174
1070
     0
1070
   272
1070
     1
1070
   288
1070
     0
1070
   341
1005
0
1002
}
  0
LINE
  5
195B2
330
747D
100
AcDbEntity
  8
細線
 48
50.0
100
AcDbLine
 10
12153.53653835329
 20
4028.358099277189
 30
0.0
 11
12153.53653835329
 21
2238.358099277192
 31
0.0
  0
LINE
  5
195B3
330
747D
100
AcDbEntity
  8
細線
 48
50.0
100
AcDbLine
 10
12168.53653835329
 20
4028.358099277189
 30
0.0
 11
12168.53653835329
 21
2238.358099277192
 31
0.0
  0
LINE
  5
195B4
330
747D
100
AcDbEntity
  8
細線
 48
50.0
100
AcDbLine
 10
12028.53653835329
 20
4028.358099277189
 30
0.0
 11
12028.53653835329
 21
2238.358099277192
 31
0.0
  0
LINE
  5
195B5
330
747D
100
AcDbEntity
  8
細線
 48
50.0
100
AcDbLine
 10
12013.53653835329
 20
4028.358099277189
 30
0.0
 11
12013.53653835329
 21
2238.358099277192
 31
0.0
  0
LINE
  5
195B6
330
747D
100
AcDbEntity
  8
細線
 48
50.0
100
AcDbLine
 10
11873.53653835329
 20
4028.358099277189
 30
0.0
 11
11873.53653835329
 21
2238.358099277192
 31
0.0
  0
LINE
  5
195B7
330
747D
100
AcDbEntity
  8
細線
 48
50.0
100
AcDbLine
 10
11888.53653835329
 20
4028.358099277189
 30
0.0
 11
11888.53653835329
 21
2238.358099277192
 31
0.0
  0
LINE
  5
195B8
330
747D
100
AcDbEntity
  8
部品1
100
AcDbLine
 10
11811.03653835329
 20
4028.358099277189
 30
0.0
 11
11811.03653835329
 21
2238.358099277192
 31
0.0
  0
LINE
  5
195B9
330
747D
100
AcDbEntity
  8
部品1
100
AcDbLine
 10
11454.5498108768
 20
4388.562487240207
 30
0.0
 11
11780.00482451984
 21
4371.044428281347
 31
0.0
  0
ARC
  5
195BA
330
747D
100
AcDbEntity
  8
部品1
100
AcDbCircle
 10
13191.66407416723
 20
4102.381856542982
 30
0.0
 40
0.7
100
AcDbArc
 50
275.0921697642102
 51
354.1866997667606
  0
ARC
  5
195BB
330
747D
100
AcDbEntity
  8
部品1
100
AcDbCircle
 10
13202.52341991655
 20
4179.425111360906
 30
0.0
 40
0.7
100
AcDbArc
 50
275.0921697642102
 51
354.1866997665532
  0
ARC
  5
195BC
330
747D
100
AcDbEntity
  8
部品1
100
AcDbCircle
 10
13202.85182515915
 20
4175.739714503816
 30
0.0
 40
3.0
100
AcDbArc
 50
95.0921697642102
 51
174.1866997665532
  0
ARC
  5
195BD
330
747D
100
AcDbEntity
  8
部品1
100
AcDbCircle
 10
13191.99247940983
 20
4098.696459685892
 30
0.0
 40
3.0
100
AcDbArc
 50
95.0921697642102
 51
174.1866997665532
  0
ARC
  5
195BE
330
747D
100
AcDbEntity
  8
部品1
 48
50.0
100
AcDbCircle
 10
13180.96434413472
 20
4089.105715082011
 30
0.0
 40
7.0
100
AcDbArc
 50
267.8377559869492
 51
354.1866997665532
  0
ARC
  5
195BF
330
747D
100
AcDbEntity
  8
部品1
 48
50.0
100
AcDbCircle
 10
13198.28644059924
 20
4200.008262224183
 30
0.0
 40
7.0
100
AcDbArc
 50
354.1866997665532
 51
87.03587545283093
  0
LINE
  5
195C0
330
747D
100
AcDbEntity
  8
部品1
 48
50.0
100
AcDbLine
 10
13189.00790773922
 20
4099.000321402797
 30
0.0
 11
13187.92834469947
 21
4088.396704409237
 31
0.0
  0
LINE
  5
195C1
330
747D
100
AcDbEntity
  8
部品1
 48
50.0
100
AcDbLine
 10
13199.86725348853
 20
4176.043576220719
 30
0.0
 11
13192.3604742237
 21
4102.310955475706
 31
0.0
  0
LINE
  5
195C2
330
747D
100
AcDbEntity
  8
部品1
 48
50.0
100
AcDbLine
 10
13205.25044116399
 20
4199.299251551408
 30
0.0
 11
13203.21981997302
 21
4179.35421029363
 31
0.0
  0
ARC
  5
195C3
330
747D
100
AcDbEntity
  8
部品1
100
AcDbCircle
 10
10022.07363022465
 20
4142.172258236093
 30
0.0
 40
0.7
100
AcDbArc
 50
181.0932240292114
 51
260.1877540314845
  0
ARC
  5
195C4
330
747D
100
AcDbEntity
  8
部品1
100
AcDbCircle
 10
10017.30095662704
 20
4235.038036436214
 30
0.0
 40
0.7
100
AcDbArc
 50
181.0932240292114
 51
260.1877540314845
  0
ARC
  5
195C5
330
747D
100
AcDbEntity
  8
部品1
100
AcDbCircle
 10
10016.67040222402
 20
4231.392161898815
 30
0.0
 40
3.0
100
AcDbArc
 50
1.093224029315636
 51
80.18775403169875
  0
ARC
  5
195C6
330
747D
100
AcDbEntity
  8
部品1
100
AcDbCircle
 10
10021.44307582163
 20
4138.526383698695
 30
0.0
 40
3.0
100
AcDbArc
 50
1.093224029315636
 51
80.18775403169875
  0
ARC
  5
195C7
330
747D
100
AcDbEntity
  8
部品1
 48
50.0
100
AcDbCircle
 10
10031.64320819683
 20
4128.134140316215
 30
0.0
 40
7.0
100
AcDbArc
 50
181.0932240293156
 51
267.8377559869492
  0
ARC
  5
195C8
330
747D
100
AcDbEntity
  8
部品1
 48
50.0
100
AcDbCircle
 10
10023.21955009473
 20
4255.085199849309
 30
0.0
 40
7.0
100
AcDbArc
 50
87.03587545283093
 51
181.0932240293156
  0
LINE
  5
195C9
330
747D
100
AcDbEntity
  8
部品1
 48
50.0
100
AcDbLine
 10
10024.44252974806
 20
4138.583621301878
 30
0.0
 11
10024.64448236849
 21
4128.000585908787
 31
0.0
  0
LINE
  5
195CA
330
747D
100
AcDbEntity
  8
細線
 48
50.0
100
AcDbLine
 10
10021.83643669139
 20
4141.513669420688
 30
0.0
 11
13191.84010112203
 21
4101.704350446194
 31
0.0
  0
LINE
  5
195CB
330
747D
100
AcDbEntity
  8
細線
 48
50.0
100
AcDbLine
 10
10017.0759614541
 20
4234.37518111855
 30
0.0
 11
13202.71194619927
 21
4178.750976477724
 31
0.0
  0
LINE
  5
195CC
330
747D
100
AcDbEntity
  8
部品1
 48
50.0
100
AcDbLine
 10
10019.66985615045
 20
4231.449399501999
 30
0.0
 11
10021.37375764182
 21
4142.158902795352
 31
0.0
  0
LINE
  5
195CD
330
747D
100
AcDbEntity
  8
部品1
 48
50.0
100
AcDbLine
 10
10016.22082426639
 20
4254.951645441883
 30
0.0
 11
10016.6010840442
 21
4235.024680995469
 31
0.0
  0
LINE
  5
195CE
330
747D
100
AcDbEntity
  8
細線
 48
50.0
100
AcDbLine
 10
13173.00582154698
 20
4207.51152175666
 30
0.0
 11
13168.28885546529
 21
4082.579305821742
 31
0.0
  0
LINE
  5
195CF
330
747D
100
AcDbEntity
  8
細線
 48
50.0
100
AcDbLine
 10
10049.03653835329
 20
4260.757775652593
 30
0.0
 11
10043.74743679778
 21
4120.67214302524
 31
0.0
  0
LINE
  5
195D0
330
747D
100
AcDbEntity
  8
部品1
100
AcDbLine
 10
10031.37910295524
 20
4121.139124346156
 30
0.0
 11
13180.70023889314
 21
4082.110699111952
 31
0.0
  0
LINE
  5
195D1
330
747D
100
AcDbEntity
  8
部品1
100
AcDbLine
 10
10023.58152471025
 20
4262.075834611456
 30
0.0
 11
13198.64841521475
 21
4206.99889698633
 31
0.0
  0
LINE
  5
195D2
330
747D
100
AcDbEntity
  8
部品1
 48
50.0
100
AcDbLine
 10
11480.00482451984
 20
4387.244428281344
 30
0.0
 11
11780.00482451984
 21
4387.244428281344
 31
0.0
  0
LINE
  5
195D3
330
747D
100
AcDbEntity
  8
部品1
 48
50.0
100
AcDbLine
 10
11780.00482451984
 20
4387.244428281344
 30
0.0
 11
11780.00482451984
 21
4371.044428281347
 31
0.0
  0
TEXT
  5
195D4
330
747D
100
AcDbEntity
  8
部品1
 48
50.0
100
AcDbText
 10
11468.27265974356
 20
4423.128450433778
 30
0.0
 40
120.0
  1
1000
  7
STYLE1
100
AcDbText
  0
TEXT
  5
195D5
330
747D
100
AcDbEntity
  8
部品1
 48
50.0
100
AcDbText
 10
11945.90568240865
 20
4285.627192215495
 30
0.0
 40
120.0
  1
32
 50
90.0
  7
STYLE1
100
AcDbText
  0
LINE
  5
195D6
330
747D
100
AcDbEntity
  8
細線
 48
50.0
100
AcDbLine
 10
11468.53653835329
 20
4028.358099277189
 30
0.0
 11
11468.53653835329
 21
2238.358099277189
 31
0.0
  0
LINE
  5
195D7
330
747D
100
AcDbEntity
  8
細線
 48
50.0
100
AcDbLine
 10
11453.53653835329
 20
4028.358099277189
 30
0.0
 11
11453.53653835329
 21
2238.358099277189
 31
0.0
  0
LINE
  5
195D8
330
747D
100
AcDbEntity
  8
細線
 48
50.0
100
AcDbLine
 10
11593.53653835329
 20
4028.358099277189
 30
0.0
 11
11593.53653835329
 21
2238.358099277189
 31
0.0
  0
LINE
  5
195D9
330
747D
100
AcDbEntity
  8
細線
 48
50.0
100
AcDbLine
 10
11608.53653835329
 20
4028.358099277189
 30
0.0
 11
11608.53653835329
 21
2238.358099277189
 31
0.0
  0
LINE
  5
195DA
330
747D
100
AcDbEntity
  8
細線
 48
50.0
100
AcDbLine
 10
11748.53653835329
 20
4028.358099277189
 30
0.0
 11
11748.53653835329
 21
2238.358099277189
 31
0.0
  0
LINE
  5
195DB
330
747D
100
AcDbEntity
  8
細線
 48
50.0
100
AcDbLine
 10
11733.53653835329
 20
4028.358099277189
 30
0.0
 11
11733.53653835329
 21
2238.358099277189
 31
0.0
  0
LINE
  5
195DC
330
747D
100
AcDbEntity
  8
部品1
100
AcDbLine
 10
13071.03653835328
 20
4028.358099277193
 30
0.0
 11
13071.03653835328
 21
2238.358099277193
 31
0.0
  0
LINE
  5
195DD
330
747D
100
AcDbEntity
  8
部品1
100
AcDbLine
 10
10076.03653835329
 20
4028.358099277189
 30
0.0
 11
13126.03653835328
 21
4028.358099277189
 31
0.0
  0
LINE
  5
195DE
330
747D
100
AcDbEntity
  8
部品1
100
AcDbLine
 10
10131.03653835329
 20
2238.358099277189
 30
0.0
 11
13126.03653835329
 21
2238.358099277192
 31
0.0
  0
LINE
  5
195DF
330
747D
100
AcDbEntity
  8
部品1
100
AcDbLine
 10
10131.03653835329
 20
4028.358099277189
 30
0.0
 11
10131.03653835329
 21
2088.358099277189
 31
0.0
  0
LINE
  5
195E0
330
747D
100
AcDbEntity
  8
部品1
100
AcDbLine
 10
10076.03653835329
 20
4120.500537206067
 30
0.0
 11
10076.03653835329
 21
2088.358099277189
 31
0.0
  0
DIMENSION
  5
195E1
330
747D
100
AcDbEntity
  8
寸法
100
AcDbDimension
  2
*D25
 10
9232.286409170027
 20
2188.35809927719
 30
0.0
 11
9232.286409170027
 21
1882.310855182699
 31
0.0
 70
   160
 71
     5
 42
50.0
  3
INABA_S40G
100
AcDbAlignedDimension
 13
10076.03653835329
 23
2238.358099277189
 33
0.0
 14
10021.03653835329
 24
2188.35809927719
 34
0.0
 50
90.0
100
AcDbRotatedDimension
1001
ACAD
1000
DSTYLE
1002
{
1070
   174
1070
     0
1070
   272
1070
     1
1070
   288
1070
     0
1070
   341
1005
0
1002
}
  0
LINE
  5
195E2
330
747D
100
AcDbEntity
  8
部品1
100
AcDbLine
 10
10551.03653835329
 20
4028.358099277189
 30
0.0
 11
10551.03653835329
 21
2238.358099277189
 31
0.0
  0
LINE
  5
195E3
330
747D
100
AcDbEntity
  8
部品1
100
AcDbLine
 10
13126.03653835329
 20
4082.788127058309
 30
0.0
 11
13126.03653835329
 21
2088.358099277192
 31
0.0
  0
LINE
  5
195E4
330
747D
100
AcDbEntity
  8
部品1
100
AcDbLine
 10
13071.03653835329
 20
4028.358099277191
 30
0.0
 11
13071.03653835329
 21
2238.358099277192
 31
0.0
  0
DIMENSION
  5
195E5
330
747D
100
AcDbEntity
  8
寸法
 48
50.0
100
AcDbDimension
  2
*D26
 10
10076.03653835329
 20
4662.015552856495
 30
0.0
 11
11601.03653835329
 21
4662.015552856495
 31
0.0
 70
   160
  1
柱外寸法<>
 71
     5
 42
3050.0
  3
INABA_S40G
100
AcDbAlignedDimension
 13
13126.03653835329
 23
4210.168778888845
 33
0.0
 14
10076.03653835329
 24
4259.359717400166
 34
0.0
100
AcDbRotatedDimension
1001
ACAD
1000
DSTYLE
1002
{
1070
   174
1070
     0
1070
   272
1070
     1
1070
   288
1070
     0
1070
   341
1005
0
1002
}
  0
DIMENSION
  5
195E6
330
747D
100
AcDbEntity
  8
寸法
 48
50.0
100
AcDbDimension
  2
*D27
 10
10016.03653835329
 20
4662.015552856494
 30
0.0
 11
9706.398743077699
 21
4662.015552856494
 31
0.0
 70
   160
 71
     5
 42
60.0
  3
INABA_S40G
100
AcDbAlignedDimension
 13
10076.03653835329
 23
4259.359717400166
 33
0.0
 14
10016.03653835329
 24
4263.358099277193
 34
0.0
100
AcDbRotatedDimension
1001
ACAD
1000
DSTYLE
1002
{
1070
   174
1070
     0
1070
   272
1070
     1
1070
   288
1070
     0
1070
   341
1005
0
1002
}
  0
DIMENSION
  5
195E7
330
747D
100
AcDbEntity
  8
寸法
 48
50.0
100
AcDbDimension
  2
*D28
 10
10016.03653835329
 20
4892.129145642772
 30
0.0
 11
11611.03653835328
 21
4892.129145642772
 31
0.0
 70
   160
 71
     5
 42
3190.0
  3
INABA_S40G
100
AcDbAlignedDimension
 13
13206.03653835329
 23
4208.358099277191
 33
0.0
 14
10016.03653835329
 24
4263.358099277193
 34
0.0
100
AcDbRotatedDimension
1001
ACAD
1000
DSTYLE
1002
{
1070
   174
1070
     0
1070
   272
1070
     1
1070
   288
1070
     0
1070
   341
1005
0
1002
}
  0
LINE
  5
195E8
330
747D
100
AcDbEntity
  8
部品1
100
AcDbLine
 10
10131.03653835329
 20
2188.35809927719
 30
0.0
 11
13126.03653835329
 21
2188.35809927719
 31
0.0
  0
LINE
  5
195E9
330
747D
100
AcDbEntity
  8
細線
 48
50.0
100
AcDbLine
 10
10628.53653835329
 20
4028.358099277189
 30
0.0
 11
10628.53653835329
 21
2238.358099277189
 31
0.0
  0
LINE
  5
195EA
330
747D
100
AcDbEntity
  8
細線
 48
50.0
100
AcDbLine
 10
10613.53653835328
 20
4028.358099277189
 30
0.0
 11
10613.53653835328
 21
2238.358099277189
 31
0.0
  0
LINE
  5
195EB
330
747D
100
AcDbEntity
  8
細線
 48
50.0
100
AcDbLine
 10
10753.53653835328
 20
4028.358099277189
 30
0.0
 11
10753.53653835328
 21
2238.358099277189
 31
0.0
  0
LINE
  5
195EC
330
747D
100
AcDbEntity
  8
細線
 48
50.0
100
AcDbLine
 10
10768.53653835329
 20
4028.358099277189
 30
0.0
 11
10768.53653835329
 21
2238.358099277189
 31
0.0
  0
LINE
  5
195ED
330
747D
100
AcDbEntity
  8
細線
 48
50.0
100
AcDbLine
 10
10908.53653835329
 20
4028.358099277189
 30
0.0
 11
10908.53653835329
 21
2238.358099277189
 31
0.0
  0
LINE
  5
195EE
330
747D
100
AcDbEntity
  8
細線
 48
50.0
100
AcDbLine
 10
10893.53653835329
 20
4028.358099277189
 30
0.0
 11
10893.53653835329
 21
2238.358099277189
 31
0.0
  0
LINE
  5
195EF
330
747D
100
AcDbEntity
  8
細線
 48
50.0
100
AcDbLine
 10
10473.53653835328
 20
4028.358099277189
 30
0.0
 11
10473.53653835328
 21
2238.358099277189
 31
0.0
  0
LINE
  5
195F0
330
747D
100
AcDbEntity
  8
細線
 48
50.0
100
AcDbLine
 10
10488.53653835329
 20
4028.358099277189
 30
0.0
 11
10488.53653835329
 21
2238.358099277189
 31
0.0
  0
LINE
  5
195F1
330
747D
100
AcDbEntity
  8
細線
 48
50.0
100
AcDbLine
 10
10348.53653835329
 20
4028.358099277189
 30
0.0
 11
10348.53653835329
 21
2238.358099277189
 31
0.0
  0
LINE
  5
195F2
330
747D
100
AcDbEntity
  8
細線
 48
50.0
100
AcDbLine
 10
10333.53653835329
 20
4028.358099277189
 30
0.0
 11
10333.53653835329
 21
2238.358099277189
 31
0.0
  0
LINE
  5
195F3
330
747D
100
AcDbEntity
  8
細線
 48
50.0
100
AcDbLine
 10
10193.53653835329
 20
4028.358099277189
 30
0.0
 11
10193.53653835329
 21
2238.358099277189
 31
0.0
  0
LINE
  5
195F4
330
747D
100
AcDbEntity
  8
細線
 48
50.0
100
AcDbLine
 10
10208.53653835329
 20
4028.358099277189
 30
0.0
 11
10208.53653835329
 21
2238.358099277189
 31
0.0
  0
DIMENSION
  5
195F5
330
747D
100
AcDbEntity
  8
寸法
 48
50.0
100
AcDbDimension
  2
*D29
 10
13206.03653835329
 20
4662.015552856495
 30
0.0
 11
13412.08378244778
 21
4662.015552856495
 31
0.0
 70
   160
 71
     5
 42
80.0
  3
INABA_S40G
100
AcDbAlignedDimension
 13
13126.03653835329
 23
4210.168778888845
 33
0.0
 14
13206.03653835329
 24
4208.358099277194
 34
0.0
100
AcDbRotatedDimension
1001
ACAD
1000
DSTYLE
1002
{
1070
   174
1070
     0
1070
   272
1070
     1
1070
   288
1070
     0
1070
   341
1005
0
1002
}
  0
LINE
  5
195F6
330
747D
100
AcDbEntity
  8
部品1
100
AcDbLine
 10
10971.03653835329
 20
4028.358099277189
 30
0.0
 11
10971.03653835329
 21
2238.358099277189
 31
0.0
  0
LINE
  5
195F7
330
747D
100
AcDbEntity
  8
細線
 48
50.0
100
AcDbLine
 10
11313.53653835329
 20
4028.358099277189
 30
0.0
 11
11313.53653835329
 21
2238.358099277189
 31
0.0
  0
LINE
  5
195F8
330
747D
100
AcDbEntity
  8
細線
 48
50.0
100
AcDbLine
 10
11328.53653835329
 20
4028.358099277189
 30
0.0
 11
11328.53653835329
 21
2238.358099277189
 31
0.0
  0
LINE
  5
195F9
330
747D
100
AcDbEntity
  8
細線
 48
50.0
100
AcDbLine
 10
11188.53653835329
 20
4028.358099277189
 30
0.0
 11
11188.53653835329
 21
2238.358099277189
 31
0.0
  0
LINE
  5
195FA
330
747D
100
AcDbEntity
  8
細線
 48
50.0
100
AcDbLine
 10
11173.53653835329
 20
4028.358099277189
 30
0.0
 11
11173.53653835329
 21
2238.358099277189
 31
0.0
  0
LINE
  5
195FB
330
747D
100
AcDbEntity
  8
細線
 48
50.0
100
AcDbLine
 10
11033.53653835329
 20
4028.358099277189
 30
0.0
 11
11033.53653835329
 21
2238.358099277189
 31
0.0
  0
LINE
  5
195FC
330
747D
100
AcDbEntity
  8
細線
 48
50.0
100
AcDbLine
 10
11048.53653835329
 20
4028.358099277189
 30
0.0
 11
11048.53653835329
 21
2238.358099277189
 31
0.0
  0
LINE
  5
195FD
330
747D
100
AcDbEntity
  8
部品1
100
AcDbLine
 10
11391.03653835329
 20
4028.358099277189
 30
0.0
 11
11391.03653835329
 21
2238.358099277189
 31
0.0
  0
LINE
  5
195FE
330
747D
100
AcDbEntity
  8
細線
 48
50.0
100
AcDbLine
 10
12728.53653835329
 20
4028.358099277191
 30
0.0
 11
12728.53653835329
 21
2238.358099277192
 31
0.0
  0
LINE
  5
195FF
330
747D
100
AcDbEntity
  8
細線
 48
50.0
100
AcDbLine
 10
12713.53653835329
 20
4028.358099277191
 30
0.0
 11
12713.53653835329
 21
2238.358099277192
 31
0.0
  0
LINE
  5
19600
330
747D
100
AcDbEntity
  8
細線
 48
50.0
100
AcDbLine
 10
12853.53653835329
 20
4028.358099277191
 30
0.0
 11
12853.53653835329
 21
2238.358099277192
 31
0.0
  0
LINE
  5
19601
330
747D
100
AcDbEntity
  8
細線
 48
50.0
100
AcDbLine
 10
12868.53653835329
 20
4028.358099277191
 30
0.0
 11
12868.53653835329
 21
2238.358099277192
 31
0.0
  0
LINE
  5
19602
330
747D
100
AcDbEntity
  8
細線
 48
50.0
100
AcDbLine
 10
13008.53653835329
 20
4028.358099277191
 30
0.0
 11
13008.53653835329
 21
2238.358099277192
 31
0.0
  0
LINE
  5
19603
330
747D
100
AcDbEntity
  8
細線
 48
50.0
100
AcDbLine
 10
12993.53653835329
 20
4028.358099277191
 30
0.0
 11
12993.53653835329
 21
2238.358099277192
 31
0.0
  0
DIMENSION
  5
19604
330
747D
100
AcDbEntity
  8
寸法
 48
50.0
100
AcDbDimension
  2
*D30
 10
9455.428131584906
 20
4137.70335815052
 30
0.0
 11
9466.093606843831
 21
4508.550021392221
 31
0.0
 70
   161
 71
     5
 42
141.0
  3
INABA_S40G
100
AcDbAlignedDimension
 13
10035.43255851186
 23
4262.080848111869
 33
0.0
 14
10031.37910295524
 24
4121.139124346156
 34
0.0
1001
ACAD
1000
DSTYLE
1002
{
1070
   174
1070
     0
1070
   272
1070
     1
1070
   288
1070
     0
1070
   341
1005
0
1002
}
  0
LINE
  5
19605
330
747D
100
AcDbEntity
  8
部品1
100
AcDbLine
 10
12231.03653835328
 20
4028.358099277189
 30
0.0
 11
12231.03653835328
 21
2238.358099277192
 31
0.0
  0
LINE
  5
19606
330
747D
100
AcDbEntity
  8
細線
 48
50.0
100
AcDbLine
 10
12308.53653835329
 20
4028.358099277189
 30
0.0
 11
12308.53653835329
 21
2238.358099277192
 31
0.0
  0
LINE
  5
19607
330
747D
100
AcDbEntity
  8
細線
 48
50.0
100
AcDbLine
 10
12293.53653835329
 20
4028.358099277189
 30
0.0
 11
12293.53653835329
 21
2238.358099277192
 31
0.0
  0
LINE
  5
19608
330
747D
100
AcDbEntity
  8
細線
 48
50.0
100
AcDbLine
 10
12433.53653835329
 20
4028.358099277189
 30
0.0
 11
12433.53653835329
 21
2238.358099277192
 31
0.0
  0
LINE
  5
19609
330
747D
100
AcDbEntity
  8
細線
 48
50.0
100
AcDbLine
 10
12448.53653835328
 20
4028.358099277189
 30
0.0
 11
12448.53653835328
 21
2238.358099277192
 31
0.0
  0
LINE
  5
1960A
330
747D
100
AcDbEntity
  8
細線
 48
50.0
100
AcDbLine
 10
12588.53653835328
 20
4028.358099277189
 30
0.0
 11
12588.53653835328
 21
2238.358099277192
 31
0.0
  0
LINE
  5
1960B
330
747D
100
AcDbEntity
  8
細線
 48
50.0
100
AcDbLine
 10
12573.53653835329
 20
4028.358099277189
 30
0.0
 11
12573.53653835329
 21
2238.358099277192
 31
0.0
  0
LINE
  5
1960C
330
747D
100
AcDbEntity
  8
部品1
100
AcDbLine
 10
12651.03653835327
 20
4028.358099277191
 30
0.0
 11
12651.03653835327
 21
2238.358099277193
 31
0.0
  0
LWPOLYLINE
  5
1960D
330
747D
100
AcDbEntity
  8
部品1
100
AcDbPolyline
 90
        4
 70
     1
 43
0.0
 10
11229.30120523907
 20
1438.358099277189
 10
11229.30120523907
 20
1198.465777731657
 10
11992.7718714675
 20
1198.465777731657
 10
11992.7718714675
 20
1438.358099277189
  0
TEXT
  5
1960E
330
747D
100
AcDbEntity
  8
部品1
100
AcDbText
 10
11318.74730666267
 20
1245.464570058666
 30
0.0
 40
135.0
  1
側面図
  7
STYLE2
100
AcDbText
  0
LINE
  5
19A05
330
747D
100
AcDbEntity
  8
補助
  6
PHANTOM
 62
   230
 48
50.0
100
AcDbLine
 10
140.0
 20
0.0
 30
0.0
 11
139.9999999999995
 21
11409.6
 31
0.0
  0
DIMENSION
  5
19ED1
330
747D
100
AcDbEntity
  8
寸法
 48
50.0
100
AcDbDimension
  2
*D34
 10
3805.200647410856
 20
4669.084371009099
 30
0.0
 11
5595.20064741086
 21
4669.084371009099
 31
0.0
 70
   160
  1
柱外寸法<>
 71
     5
 42
3580.000000000005
  3
INABA_S40G
100
AcDbAlignedDimension
 13
7385.200647410862
 23
4263.358099277197
 33
0.0
 14
3805.200647410856
 24
4263.358099277197
 34
0.0
100
AcDbRotatedDimension
  0
DIMENSION
  5
19ED2
330
747D
100
AcDbEntity
  8
寸法
 48
50.0
100
AcDbDimension
  2
*D33
 10
7435.200647410859
 20
4868.993292223189
 30
0.0
 11
5595.200647410856
 21
4868.993292223189
 31
0.0
 70
   160
 71
     5
 42
3680.000000000002
  3
INABA_S40G
100
AcDbAlignedDimension
 13
3755.200647410857
 23
4263.358099277197
 33
0.0
 14
7435.200647410859
 24
4263.358099277193
 34
0.0
100
AcDbRotatedDimension
  0
DIMENSION
  5
19ED3
330
747D
100
AcDbEntity
  8
寸法
 48
50.0
100
AcDbDimension
  2
*D31
 10
7385.200647410862
 20
4669.084371009103
 30
0.0
 11
7748.685928785099
 21
4669.084371009103
 31
0.0
 70
   160
 71
     5
 42
49.99999999999636
  3
INABA_S40G
100
AcDbAlignedDimension
 13
7435.200647410859
 23
4263.358099277193
 33
0.0
 14
7385.200647410862
 24
4263.358099277197
 34
0.0
100
AcDbRotatedDimension
  0
DIMENSION
  5
19ED4
330
747D
100
AcDbEntity
  8
寸法
 48
50.0
100
AcDbDimension
  2
*D32
 10
3755.200647410857
 20
4669.084371009099
 30
0.0
 11
3441.71536603661
 21
4669.084371009099
 31
0.0
 70
   160
 71
     5
 42
50.0
  3
INABA_S40G
100
AcDbAlignedDimension
 13
3805.200647410856
 23
4263.358099277197
 33
0.0
 14
3755.200647410857
 24
4263.358099277197
 34
0.0
100
AcDbRotatedDimension
1001
ACAD
1000
DSTYLE
1002
{
1002
}
  0
LINE
  5
19ED5
330
747D
100
AcDbEntity
  8
部品1
100
AcDbLine
 10
3755.620308426188
 20
4255.961573881956
 30
0.0
 11
3756.753705758536
 21
4235.985445899354
 31
0.0
  0
LINE
  5
19ED6
330
747D
100
AcDbEntity
  8
部品1
100
AcDbLine
 10
3768.190726080116
 20
4140.328038732295
 30
0.0
 11
3768.835631887224
 21
4128.961573881955
 31
0.0
  0
LINE
  5
19ED7
330
747D
100
AcDbEntity
  8
部品1
100
AcDbLine
 10
3759.954695555265
 20
4232.528038732296
 30
0.0
 11
3764.98973628338
 21
4143.785445899353
 31
0.0
  0
ARC
  5
19ED8
330
747D
100
AcDbEntity
  8
部品1
 48
50.0
100
AcDbCircle
 10
3756.959512659079
 20
4232.358099277196
 30
0.0
 40
3.0
100
AcDbArc
 50
3.247342790331777
 51
82.34187279263631
  0
ARC
  5
19ED9
330
747D
100
AcDbEntity
  8
部品1
 48
50.0
100
AcDbCircle
 10
3765.195543183923
 20
4140.158099277193
 30
0.0
 40
3.0
100
AcDbArc
 50
3.247342790331777
 51
82.34187279263631
  0
ARC
  5
19EDA
330
747D
100
AcDbEntity
  8
部品1
 48
50.0
100
AcDbCircle
 10
3765.688612292485
 20
4143.825098438876
 30
0.0
 40
0.7
100
AcDbArc
 50
183.2473427903317
 51
262.3418727926363
  0
ARC
  5
19EDB
330
747D
100
AcDbEntity
  8
部品1
 48
50.0
100
AcDbCircle
 10
3757.452581767648
 20
4236.02509843888
 30
0.0
 40
0.7
100
AcDbArc
 50
183.2473427903317
 51
262.3418727926363
  0
ARC
  5
19EDC
330
747D
100
AcDbEntity
  8
部品1
100
AcDbCircle
 10
3775.82439197832
 20
4129.358099277196
 30
0.0
 40
7.0
100
AcDbArc
 50
183.2473427903317
 51
270.0
  0
ARC
  5
19EDD
330
747D
100
AcDbEntity
  8
部品1
100
AcDbCircle
 10
3762.60906851729
 20
4256.358099277193
 30
0.0
 40
7.0
100
AcDbArc
 50
90.0
 51
183.2473427903317
  0
LINE
  5
19EDE
330
747D
100
AcDbEntity
  8
細線
 48
50.0
100
AcDbLine
 10
3788.200647410857
 20
4263.358099277193
 30
0.0
 11
3788.200647410857
 21
4122.358099277192
 31
0.0
  0
LINE
  5
19EDF
330
747D
100
AcDbEntity
  8
細線
 48
50.0
100
AcDbLine
 10
7424.925078664557
 20
4143.158099277187
 30
0.0
 11
3765.476216157127
 21
4143.158099277196
 31
0.0
  0
LINE
  5
19EE0
330
747D
100
AcDbEntity
  8
細線
 48
50.0
100
AcDbLine
 10
7433.161109189429
 20
4235.358099277197
 30
0.0
 11
3757.240185632298
 21
4235.358099277193
 31
0.0
  0
LINE
  5
19EE1
330
747D
100
AcDbEntity
  8
部品1
 48
50.0
100
AcDbLine
 10
7414.576902843394
 20
4122.358099277198
 30
0.0
 11
3775.82439197832
 21
4122.358099277197
 31
0.0
  0
LINE
  5
19EE2
330
747D
100
AcDbEntity
  8
部品1
 48
50.0
100
AcDbLine
 10
7427.792226304429
 20
4263.358099277192
 30
0.0
 11
3762.60906851729
 21
4263.358099277197
 31
0.0
  0
LINE
  5
19EE3
330
747D
100
AcDbEntity
  8
部品1
100
AcDbLine
 10
3805.200647410856
 20
4028.358099277189
 30
0.0
 11
7385.200647410858
 21
4028.358099277187
 31
0.0
  0
ARC
  5
19EE4
330
747D
100
AcDbEntity
  8
部品1
100
AcDbCircle
 10
7427.792226304429
 20
4256.358099277196
 30
0.0
 40
7.0
100
AcDbArc
 50
356.7526572096682
 51
90.0
  0
ARC
  5
19EE5
330
747D
100
AcDbEntity
  8
部品1
100
AcDbCircle
 10
7414.576902843394
 20
4129.358099277196
 30
0.0
 40
7.0
100
AcDbArc
 50
270.0
 51
356.7526572096682
  0
ARC
  5
19EE6
330
747D
100
AcDbEntity
  8
部品1
 48
50.0
100
AcDbCircle
 10
7432.948713054071
 20
4236.02509843888
 30
0.0
 40
0.7
100
AcDbArc
 50
277.6581272073637
 51
356.7526572096682
  0
ARC
  5
19EE7
330
747D
100
AcDbEntity
  8
部品1
 48
50.0
100
AcDbCircle
 10
7424.712682529231
 20
4143.825098438879
 30
0.0
 40
0.7
100
AcDbArc
 50
277.6581272073637
 51
356.7526572096682
  0
ARC
  5
19EE8
330
747D
100
AcDbEntity
  8
部品1
 48
50.0
100
AcDbCircle
 10
7425.205751637792
 20
4140.158099277193
 30
0.0
 40
3.0
100
AcDbArc
 50
97.6581272073637
 51
176.7526572096682
  0
ARC
  5
19EE9
330
747D
100
AcDbEntity
  8
部品1
 48
50.0
100
AcDbCircle
 10
7433.441782162636
 20
4232.358099277196
 30
0.0
 40
3.0
100
AcDbArc
 50
97.6581272073637
 51
176.7526572096682
  0
LINE
  5
19EEA
330
747D
100
AcDbEntity
  8
部品1
100
AcDbLine
 10
7430.44659926645
 20
4232.5280387323
 30
0.0
 11
7425.411558538339
 21
4143.785445899353
 31
0.0
  0
LINE
  5
19EEB
330
747D
100
AcDbEntity
  8
部品1
100
AcDbLine
 10
7422.210568741603
 20
4140.328038732295
 30
0.0
 11
7421.565662934494
 21
4128.961573881955
 31
0.0
  0
LINE
  5
19EEC
330
747D
100
AcDbEntity
  8
細線
 48
50.0
100
AcDbLine
 10
7402.200647410857
 20
4263.358099277197
 30
0.0
 11
7402.200647410857
 21
4122.358099277197
 31
0.0
  0
LINE
  5
19EED
330
747D
100
AcDbEntity
  8
部品1
100
AcDbLine
 10
7434.780986395527
 20
4255.961573881956
 30
0.0
 11
7433.647589063179
 21
4235.985445899358
 31
0.0
  0
LINE
  5
19EEE
330
747D
100
AcDbEntity
  8
部品1
 48
50.0
100
AcDbLine
 10
5585.200647410861
 20
4122.358099277192
 30
0.0
 11
5585.200647410858
 21
4263.358099277193
 31
0.0
  0
LINE
  5
19EEF
330
747D
100
AcDbEntity
  8
部品1
 48
50.0
100
AcDbLine
 10
5595.20064741086
 20
3863.358099277189
 30
0.0
 11
5595.20064741086
 21
4122.358099277192
 31
0.0
  0
ARC
  5
19EF0
330
747D
100
AcDbEntity
  8
部品1
 48
0.01
100
AcDbCircle
 10
4383.200647410858
 20
4060.858099277189
 30
0.0
 40
2.0
100
AcDbArc
 50
270.0
 51
0.0
  0
ARC
  5
19EF1
330
747D
100
AcDbEntity
  8
部品1
 48
0.01
100
AcDbCircle
 10
4383.200647410862
 20
4092.358099277189
 30
0.0
 40
2.0
100
AcDbArc
 50
0.0
 51
90.0
  0
ARC
  5
19EF2
330
747D
100
AcDbEntity
  8
部品1
 48
0.01
100
AcDbCircle
 10
4207.200647410862
 20
4060.858099277189
 30
0.0
 40
2.0
100
AcDbArc
 50
180.0
 51
270.0
  0
ARC
  5
19EF3
330
747D
100
AcDbEntity
  8
部品1
 48
0.01
100
AcDbCircle
 10
4207.200647410862
 20
4092.358099277189
 30
0.0
 40
2.0
100
AcDbArc
 50
90.0
 51
180.0
  0
LINE
  5
19EF4
330
747D
100
AcDbEntity
  8
細線
100
AcDbLine
 10
4295.200647410858
 20
4064.85809927719
 30
0.0
 11
4369.200647410862
 21
4064.85809927719
 31
0.0
  0
LINE
  5
19EF5
330
747D
100
AcDbEntity
  8
細線
100
AcDbLine
 10
4295.200647410862
 20
4087.858099277189
 30
0.0
 11
4221.200647410862
 21
4087.858099277189
 31
0.0
  0
LINE
  5
19EF6
330
747D
100
AcDbEntity
  8
細線
100
AcDbLine
 10
4221.200647410862
 20
4064.85809927719
 30
0.0
 11
4295.200647410862
 21
4064.85809927719
 31
0.0
  0
LINE
  5
19EF7
330
747D
100
AcDbEntity
  8
細線
100
AcDbLine
 10
4369.200647410862
 20
4087.858099277189
 30
0.0
 11
4295.200647410862
 21
4087.858099277189
 31
0.0
  0
LINE
  5
19EF8
330
747D
100
AcDbEntity
  8
細線
100
AcDbLine
 10
4369.200647410862
 20
4064.85809927719
 30
0.0
 11
4369.200647410862
 21
4087.858099277189
 31
0.0
  0
LINE
  5
19EF9
330
747D
100
AcDbEntity
  8
細線
100
AcDbLine
 10
4221.200647410862
 20
4087.858099277189
 30
0.0
 11
4221.200647410862
 21
4064.85809927719
 31
0.0
  0
LINE
  5
19EFA
330
747D
100
AcDbEntity
  8
部品1
 48
0.01
100
AcDbLine
 10
4385.200647410858
 20
4060.858099277189
 30
0.0
 11
4385.200647410862
 21
4092.358099277189
 31
0.0
  0
LINE
  5
19EFB
330
747D
100
AcDbEntity
  8
部品1
 48
0.01
100
AcDbLine
 10
4207.200647410862
 20
4058.858099277189
 30
0.0
 11
4383.200647410858
 21
4058.858099277189
 31
0.0
  0
LINE
  5
19EFC
330
747D
100
AcDbEntity
  8
部品1
 48
0.01
100
AcDbLine
 10
4205.200647410862
 20
4092.358099277189
 30
0.0
 11
4205.200647410862
 21
4060.858099277189
 31
0.0
  0
LINE
  5
19EFD
330
747D
100
AcDbEntity
  8
部品1
 48
0.01
100
AcDbLine
 10
4383.200647410862
 20
4094.358099277189
 30
0.0
 11
4207.200647410862
 21
4094.358099277189
 31
0.0
  0
LINE
  5
19EFE
330
747D
100
AcDbEntity
  8
細線
100
AcDbLine
 10
4221.200647410862
 20
4081.858099277189
 30
0.0
 11
4295.200647410862
 21
4081.858099277189
 31
0.0
  0
LINE
  5
19EFF
330
747D
100
AcDbEntity
  8
細線
100
AcDbLine
 10
4221.200647410862
 20
4075.85809927719
 30
0.0
 11
4295.200647410862
 21
4075.85809927719
 31
0.0
  0
LINE
  5
19F00
330
747D
100
AcDbEntity
  8
細線
100
AcDbLine
 10
4221.200647410858
 20
4069.85809927719
 30
0.0
 11
4295.200647410862
 21
4069.85809927719
 31
0.0
  0
LINE
  5
19F01
330
747D
100
AcDbEntity
  8
細線
100
AcDbLine
 10
4221.200647410862
 20
4081.858099277189
 30
0.0
 11
4290.200647410862
 21
4081.858099277189
 31
0.0
  0
LINE
  5
19F02
330
747D
100
AcDbEntity
  8
細線
100
AcDbLine
 10
4369.200647410859
 20
4081.858099277189
 30
0.0
 11
4295.200647410862
 21
4081.858099277189
 31
0.0
  0
LINE
  5
19F03
330
747D
100
AcDbEntity
  8
細線
100
AcDbLine
 10
4369.200647410859
 20
4069.85809927719
 30
0.0
 11
4295.200647410862
 21
4069.85809927719
 31
0.0
  0
LINE
  5
19F04
330
747D
100
AcDbEntity
  8
細線
100
AcDbLine
 10
4369.200647410859
 20
4075.85809927719
 30
0.0
 11
4295.200647410862
 21
4075.85809927719
 31
0.0
  0
LINE
  5
19F05
330
747D
100
AcDbEntity
  8
細線
100
AcDbLine
 10
4295.200647410862
 20
4087.858099277189
 30
0.0
 11
4295.200647410858
 21
4064.85809927719
 31
0.0
  0
LINE
  5
19F06
330
747D
100
AcDbEntity
  8
細線
100
AcDbLine
 10
5105.200647410859
 20
4087.858099277189
 30
0.0
 11
5105.200647410862
 21
4064.85809927719
 31
0.0
  0
LINE
  5
19F07
330
747D
100
AcDbEntity
  8
細線
100
AcDbLine
 10
5031.200647410862
 20
4075.85809927719
 30
0.0
 11
5105.200647410859
 21
4075.85809927719
 31
0.0
  0
LINE
  5
19F08
330
747D
100
AcDbEntity
  8
細線
100
AcDbLine
 10
5031.200647410862
 20
4069.85809927719
 30
0.0
 11
5105.200647410859
 21
4069.85809927719
 31
0.0
  0
LINE
  5
19F09
330
747D
100
AcDbEntity
  8
細線
100
AcDbLine
 10
5031.200647410862
 20
4081.858099277189
 30
0.0
 11
5105.200647410859
 21
4081.858099277189
 31
0.0
  0
LINE
  5
19F0A
330
747D
100
AcDbEntity
  8
細線
100
AcDbLine
 10
5179.200647410858
 20
4081.858099277189
 30
0.0
 11
5110.200647410858
 21
4081.858099277189
 31
0.0
  0
LINE
  5
19F0B
330
747D
100
AcDbEntity
  8
細線
100
AcDbLine
 10
5179.200647410862
 20
4069.85809927719
 30
0.0
 11
5105.200647410859
 21
4069.85809927719
 31
0.0
  0
LINE
  5
19F0C
330
747D
100
AcDbEntity
  8
細線
100
AcDbLine
 10
5179.200647410858
 20
4075.85809927719
 30
0.0
 11
5105.200647410859
 21
4075.85809927719
 31
0.0
  0
LINE
  5
19F0D
330
747D
100
AcDbEntity
  8
細線
100
AcDbLine
 10
5179.200647410858
 20
4081.858099277189
 30
0.0
 11
5105.200647410859
 21
4081.858099277189
 31
0.0
  0
LINE
  5
19F0E
330
747D
100
AcDbEntity
  8
部品1
 48
0.01
100
AcDbLine
 10
5017.200647410859
 20
4094.358099277189
 30
0.0
 11
5193.200647410858
 21
4094.358099277189
 31
0.0
  0
LINE
  5
19F0F
330
747D
100
AcDbEntity
  8
部品1
 48
0.01
100
AcDbLine
 10
5195.200647410858
 20
4092.358099277189
 30
0.0
 11
5195.200647410858
 21
4060.858099277189
 31
0.0
  0
LINE
  5
19F10
330
747D
100
AcDbEntity
  8
部品1
 48
0.01
100
AcDbLine
 10
5193.200647410858
 20
4058.858099277189
 30
0.0
 11
5017.200647410862
 21
4058.858099277189
 31
0.0
  0
LINE
  5
19F11
330
747D
100
AcDbEntity
  8
部品1
 48
0.01
100
AcDbLine
 10
5015.200647410862
 20
4060.858099277189
 30
0.0
 11
5015.200647410859
 21
4092.358099277189
 31
0.0
  0
LINE
  5
19F12
330
747D
100
AcDbEntity
  8
細線
100
AcDbLine
 10
5179.200647410858
 20
4087.858099277189
 30
0.0
 11
5179.200647410858
 21
4064.85809927719
 31
0.0
  0
LINE
  5
19F13
330
747D
100
AcDbEntity
  8
細線
100
AcDbLine
 10
5031.200647410859
 20
4064.85809927719
 30
0.0
 11
5031.200647410859
 21
4087.858099277189
 31
0.0
  0
LINE
  5
19F14
330
747D
100
AcDbEntity
  8
細線
100
AcDbLine
 10
5031.200647410859
 20
4087.858099277189
 30
0.0
 11
5105.200647410859
 21
4087.858099277189
 31
0.0
  0
LINE
  5
19F15
330
747D
100
AcDbEntity
  8
細線
100
AcDbLine
 10
5179.200647410858
 20
4064.85809927719
 30
0.0
 11
5105.200647410859
 21
4064.85809927719
 31
0.0
  0
LINE
  5
19F16
330
747D
100
AcDbEntity
  8
細線
100
AcDbLine
 10
5105.200647410859
 20
4087.858099277189
 30
0.0
 11
5179.200647410858
 21
4087.858099277189
 31
0.0
  0
LINE
  5
19F17
330
747D
100
AcDbEntity
  8
細線
100
AcDbLine
 10
5105.200647410862
 20
4064.85809927719
 30
0.0
 11
5031.200647410859
 21
4064.85809927719
 31
0.0
  0
ARC
  5
19F18
330
747D
100
AcDbEntity
  8
部品1
 48
0.01
100
AcDbCircle
 10
5193.200647410858
 20
4092.358099277189
 30
0.0
 40
2.0
100
AcDbArc
 50
0.0
 51
90.0
  0
ARC
  5
19F19
330
747D
100
AcDbEntity
  8
部品1
 48
0.01
100
AcDbCircle
 10
5193.200647410858
 20
4060.858099277189
 30
0.0
 40
2.0
100
AcDbArc
 50
270.0
 51
0.0
  0
ARC
  5
19F1A
330
747D
100
AcDbEntity
  8
部品1
 48
0.01
100
AcDbCircle
 10
5017.200647410859
 20
4092.358099277189
 30
0.0
 40
2.0
100
AcDbArc
 50
90.0
 51
180.0
  0
ARC
  5
19F1B
330
747D
100
AcDbEntity
  8
部品1
 48
0.01
100
AcDbCircle
 10
5017.200647410862
 20
4060.858099277189
 30
0.0
 40
2.0
100
AcDbArc
 50
180.0
 51
270.0
  0
ARC
  5
19F1C
330
747D
100
AcDbEntity
  8
部品1
 48
0.01
100
AcDbCircle
 10
6173.200647410858
 20
4060.858099277189
 30
0.0
 40
2.0
100
AcDbArc
 50
270.0
 51
0.0
  0
ARC
  5
19F1D
330
747D
100
AcDbEntity
  8
部品1
 48
0.01
100
AcDbCircle
 10
6173.200647410862
 20
4092.358099277189
 30
0.0
 40
2.0
100
AcDbArc
 50
0.0
 51
90.0
  0
ARC
  5
19F1E
330
747D
100
AcDbEntity
  8
部品1
 48
0.01
100
AcDbCircle
 10
5997.200647410863
 20
4060.858099277189
 30
0.0
 40
2.0
100
AcDbArc
 50
180.0
 51
270.0
  0
ARC
  5
19F1F
330
747D
100
AcDbEntity
  8
部品1
 48
0.01
100
AcDbCircle
 10
5997.200647410863
 20
4092.358099277189
 30
0.0
 40
2.0
100
AcDbArc
 50
90.0
 51
180.0
  0
LINE
  5
19F20
330
747D
100
AcDbEntity
  8
細線
100
AcDbLine
 10
6085.200647410858
 20
4064.85809927719
 30
0.0
 11
6159.200647410862
 21
4064.85809927719
 31
0.0
  0
LINE
  5
19F21
330
747D
100
AcDbEntity
  8
細線
100
AcDbLine
 10
6085.200647410862
 20
4087.858099277189
 30
0.0
 11
6011.200647410863
 21
4087.858099277189
 31
0.0
  0
LINE
  5
19F22
330
747D
100
AcDbEntity
  8
細線
100
AcDbLine
 10
6011.200647410863
 20
4064.85809927719
 30
0.0
 11
6085.200647410862
 21
4064.85809927719
 31
0.0
  0
LINE
  5
19F23
330
747D
100
AcDbEntity
  8
細線
100
AcDbLine
 10
6159.200647410862
 20
4087.858099277189
 30
0.0
 11
6085.200647410862
 21
4087.858099277189
 31
0.0
  0
LINE
  5
19F24
330
747D
100
AcDbEntity
  8
細線
100
AcDbLine
 10
6159.200647410862
 20
4064.85809927719
 30
0.0
 11
6159.200647410862
 21
4087.858099277189
 31
0.0
  0
LINE
  5
19F25
330
747D
100
AcDbEntity
  8
細線
100
AcDbLine
 10
6011.200647410863
 20
4087.858099277189
 30
0.0
 11
6011.200647410863
 21
4064.85809927719
 31
0.0
  0
LINE
  5
19F26
330
747D
100
AcDbEntity
  8
部品1
 48
0.01
100
AcDbLine
 10
6175.200647410858
 20
4060.858099277189
 30
0.0
 11
6175.200647410862
 21
4092.358099277189
 31
0.0
  0
LINE
  5
19F27
330
747D
100
AcDbEntity
  8
部品1
 48
0.01
100
AcDbLine
 10
5997.200647410863
 20
4058.858099277189
 30
0.0
 11
6173.200647410858
 21
4058.858099277189
 31
0.0
  0
LINE
  5
19F28
330
747D
100
AcDbEntity
  8
部品1
 48
0.01
100
AcDbLine
 10
5995.200647410862
 20
4092.358099277189
 30
0.0
 11
5995.200647410862
 21
4060.858099277189
 31
0.0
  0
LINE
  5
19F29
330
747D
100
AcDbEntity
  8
部品1
 48
0.01
100
AcDbLine
 10
6173.200647410862
 20
4094.358099277189
 30
0.0
 11
5997.200647410863
 21
4094.358099277189
 31
0.0
  0
LINE
  5
19F2A
330
747D
100
AcDbEntity
  8
細線
100
AcDbLine
 10
6011.200647410863
 20
4081.858099277189
 30
0.0
 11
6085.200647410862
 21
4081.858099277189
 31
0.0
  0
LINE
  5
19F2B
330
747D
100
AcDbEntity
  8
細線
100
AcDbLine
 10
6011.200647410863
 20
4075.85809927719
 30
0.0
 11
6085.200647410862
 21
4075.85809927719
 31
0.0
  0
LINE
  5
19F2C
330
747D
100
AcDbEntity
  8
細線
100
AcDbLine
 10
6011.200647410858
 20
4069.85809927719
 30
0.0
 11
6085.200647410862
 21
4069.85809927719
 31
0.0
  0
LINE
  5
19F2D
330
747D
100
AcDbEntity
  8
細線
100
AcDbLine
 10
6011.200647410863
 20
4081.858099277189
 30
0.0
 11
6080.200647410862
 21
4081.858099277189
 31
0.0
  0
LINE
  5
19F2E
330
747D
100
AcDbEntity
  8
細線
100
AcDbLine
 10
6159.200647410859
 20
4081.858099277189
 30
0.0
 11
6085.200647410862
 21
4081.858099277189
 31
0.0
  0
LINE
  5
19F2F
330
747D
100
AcDbEntity
  8
細線
100
AcDbLine
 10
6159.200647410859
 20
4069.85809927719
 30
0.0
 11
6085.200647410862
 21
4069.85809927719
 31
0.0
  0
LINE
  5
19F30
330
747D
100
AcDbEntity
  8
細線
100
AcDbLine
 10
6159.200647410859
 20
4075.85809927719
 30
0.0
 11
6085.200647410862
 21
4075.85809927719
 31
0.0
  0
LINE
  5
19F31
330
747D
100
AcDbEntity
  8
細線
100
AcDbLine
 10
6085.200647410862
 20
4087.858099277189
 30
0.0
 11
6085.200647410858
 21
4064.85809927719
 31
0.0
  0
LINE
  5
19F32
330
747D
100
AcDbEntity
  8
細線
100
AcDbLine
 10
6895.200647410859
 20
4087.858099277189
 30
0.0
 11
6895.200647410863
 21
4064.85809927719
 31
0.0
  0
LINE
  5
19F33
330
747D
100
AcDbEntity
  8
細線
100
AcDbLine
 10
6821.200647410861
 20
4075.85809927719
 30
0.0
 11
6895.200647410859
 21
4075.85809927719
 31
0.0
  0
LINE
  5
19F34
330
747D
100
AcDbEntity
  8
細線
100
AcDbLine
 10
6821.200647410861
 20
4069.85809927719
 30
0.0
 11
6895.200647410859
 21
4069.85809927719
 31
0.0
  0
LINE
  5
19F35
330
747D
100
AcDbEntity
  8
細線
100
AcDbLine
 10
6821.200647410861
 20
4081.858099277189
 30
0.0
 11
6895.200647410859
 21
4081.858099277189
 31
0.0
  0
LINE
  5
19F36
330
747D
100
AcDbEntity
  8
細線
100
AcDbLine
 10
6969.200647410858
 20
4081.858099277189
 30
0.0
 11
6900.200647410859
 21
4081.858099277189
 31
0.0
  0
LINE
  5
19F37
330
747D
100
AcDbEntity
  8
細線
100
AcDbLine
 10
6969.200647410862
 20
4069.85809927719
 30
0.0
 11
6895.200647410859
 21
4069.85809927719
 31
0.0
  0
LINE
  5
19F38
330
747D
100
AcDbEntity
  8
細線
100
AcDbLine
 10
6969.200647410858
 20
4075.85809927719
 30
0.0
 11
6895.200647410859
 21
4075.85809927719
 31
0.0
  0
LINE
  5
19F39
330
747D
100
AcDbEntity
  8
細線
100
AcDbLine
 10
6969.200647410858
 20
4081.858099277189
 30
0.0
 11
6895.200647410859
 21
4081.858099277189
 31
0.0
  0
LINE
  5
19F3A
330
747D
100
AcDbEntity
  8
部品1
 48
0.01
100
AcDbLine
 10
6807.200647410859
 20
4094.358099277189
 30
0.0
 11
6983.200647410858
 21
4094.358099277189
 31
0.0
  0
LINE
  5
19F3B
330
747D
100
AcDbEntity
  8
部品1
 48
0.01
100
AcDbLine
 10
6985.200647410859
 20
4092.358099277189
 30
0.0
 11
6985.200647410859
 21
4060.858099277189
 31
0.0
  0
LINE
  5
19F3C
330
747D
100
AcDbEntity
  8
部品1
 48
0.01
100
AcDbLine
 10
6983.200647410858
 20
4058.858099277189
 30
0.0
 11
6807.200647410862
 21
4058.858099277189
 31
0.0
  0
LINE
  5
19F3D
330
747D
100
AcDbEntity
  8
部品1
 48
0.01
100
AcDbLine
 10
6805.200647410862
 20
4060.858099277189
 30
0.0
 11
6805.200647410858
 21
4092.358099277189
 31
0.0
  0
LINE
  5
19F3E
330
747D
100
AcDbEntity
  8
細線
100
AcDbLine
 10
6969.200647410858
 20
4087.858099277189
 30
0.0
 11
6969.200647410858
 21
4064.85809927719
 31
0.0
  0
LINE
  5
19F3F
330
747D
100
AcDbEntity
  8
細線
100
AcDbLine
 10
6821.200647410859
 20
4064.85809927719
 30
0.0
 11
6821.200647410859
 21
4087.858099277189
 31
0.0
  0
LINE
  5
19F40
330
747D
100
AcDbEntity
  8
細線
100
AcDbLine
 10
6821.200647410859
 20
4087.858099277189
 30
0.0
 11
6895.200647410859
 21
4087.858099277189
 31
0.0
  0
LINE
  5
19F41
330
747D
100
AcDbEntity
  8
細線
100
AcDbLine
 10
6969.200647410858
 20
4064.85809927719
 30
0.0
 11
6895.200647410859
 21
4064.85809927719
 31
0.0
  0
LINE
  5
19F42
330
747D
100
AcDbEntity
  8
細線
100
AcDbLine
 10
6895.200647410859
 20
4087.858099277189
 30
0.0
 11
6969.200647410858
 21
4087.858099277189
 31
0.0
  0
LINE
  5
19F43
330
747D
100
AcDbEntity
  8
細線
100
AcDbLine
 10
6895.200647410863
 20
4064.85809927719
 30
0.0
 11
6821.200647410859
 21
4064.85809927719
 31
0.0
  0
ARC
  5
19F44
330
747D
100
AcDbEntity
  8
部品1
 48
0.01
100
AcDbCircle
 10
6983.200647410858
 20
4092.358099277189
 30
0.0
 40
2.0
100
AcDbArc
 50
0.0
 51
90.0
  0
ARC
  5
19F45
330
747D
100
AcDbEntity
  8
部品1
 48
0.01
100
AcDbCircle
 10
6983.200647410858
 20
4060.858099277189
 30
0.0
 40
2.0
100
AcDbArc
 50
270.0
 51
0.0
  0
ARC
  5
19F46
330
747D
100
AcDbEntity
  8
部品1
 48
0.01
100
AcDbCircle
 10
6807.200647410859
 20
4092.358099277189
 30
0.0
 40
2.0
100
AcDbArc
 50
90.0
 51
180.0
  0
ARC
  5
19F47
330
747D
100
AcDbEntity
  8
部品1
 48
0.01
100
AcDbCircle
 10
6807.200647410862
 20
4060.858099277189
 30
0.0
 40
2.0
100
AcDbArc
 50
180.0
 51
270.0
  0
DIMENSION
  5
1A104
330
747D
100
AcDbEntity
  8
寸法
 48
50.0
100
AcDbDimension
  2
*D35
 10
7672.743749732605
 20
4028.358099277189
 30
0.0
 11
7672.743749732603
 21
4266.843380651429
 31
0.0
 70
   160
 71
     5
 42
164.9999999999995
  3
INABA_S40G
100
AcDbAlignedDimension
 13
7385.200647410854
 23
3863.35809927719
 33
0.0
 14
7385.200647410858
 24
4028.358099277189
 34
0.0
 50
90.0
100
AcDbRotatedDimension
1001
ACAD
1000
DSTYLE
1002
{
1002
}
  0
DIMENSION
  5
1A105
330
747D
100
AcDbEntity
  8
寸法
 48
50.0
100
AcDbDimension
  2
*D36
 10
7672.743749732603
 20
3863.35809927719
 30
0.0
 11
7812.91357297897
 21
3864.325299116848
 31
0.0
 70
   160
 71
     5
 42
27.00000000000045
  3
INABA_S40G
100
AcDbAlignedDimension
 13
7385.200647410858
 23
3836.35809927719
 33
0.0
 14
7385.200647410854
 24
3863.35809927719
 34
0.0
 50
90.0
100
AcDbRotatedDimension
1001
ACAD
1000
DSTYLE
1002
{
1070
   279
1070
     2
1002
}
  0
DIMENSION
  5
1A106
330
747D
100
AcDbEntity
  8
寸法
 48
50.0
100
AcDbDimension
  2
*D37
 10
7672.743749732603
 20
3836.35809927719
 30
0.0
 11
7572.743749732602
 21
3012.358099277191
 31
0.0
 70
    32
  1
有効開口部高サ <>
 71
     5
 42
1648.0
  3
INABA_S40G
100
AcDbAlignedDimension
 13
7385.200647410858
 23
2188.35809927719
 33
0.0
 14
7385.200647410858
 24
3836.35809927719
 34
0.0
 50
90.0
100
AcDbRotatedDimension
  0
LINE
  5
1A22C
330
747D
100
AcDbEntity
  8
仕様書枠
 48
50.0
100
AcDbLine
 10
16307.19999999999
 20
8689.6
 30
0.0
 11
13127.19999999999
 21
8689.600000000003
 31
0.0
  0
TEXT
  5
1A234
330
747D
100
AcDbEntity
  8
文字
 62
     7
 48
50.0
100
AcDbText
 10
15022.63965474517
 20
10760.01374588372
 30
0.0
 40
100.0
  1
F12         1.0,1.2
  7
STYLE1
100
AcDbText
  0
TEXT
  5
1A237
330
747D
100
AcDbEntity
  8
文字
 62
     7
 48
50.0
100
AcDbText
 10
15022.63965474515
 20
9060.013745883727
 30
0.0
 40
100.0
  1
F12            0.7
  7
STYLE1
100
AcDbText
  0
LINE
  5
1A238
330
747D
100
AcDbEntity
  8
破線
 48
5.0
100
AcDbLine
 10
5595.200647410856
 20
1913.358099277189
 30
0.0
 11
5595.200647410856
 21
1838.358099277189
 31
0.0
  0
LINE
  5
1A239
330
747D
100
AcDbEntity
  8
破線
 48
5.0
100
AcDbLine
 10
5545.200647410856
 20
1838.358099277189
 30
0.0
 11
5645.200647410856
 21
1838.358099277189
 31
0.0
  0
ENDSEC
  0
SECTION
  2
OBJECTS
  0
DICTIONARY
  5
7471
330
0
100
AcDbDictionary
281
     1
  3
ACAD_COLOR
350
17AE2
  3
ACAD_GROUP
350
7472
  3
ACAD_LAYOUT
350
17AE3
  3
ACAD_MATERIAL
350
17AE1
  3
ACAD_MLINESTYLE
350
7473
  3
ACAD_PLOTSETTINGS
350
17AE4
  3
ACAD_PLOTSTYLENAME
350
17ADF
  3
ACDBHEADERROUNDTRIPXREC
350
1A2A8
  3
AcDbVariableDictionary
350
1A2A4
  3
CONTENTDICTIONARY
350
E71C
  3
DRAWINGVARIABLESDICT
350
F3B9
  0
DICTIONARY
  5
19406
330
7467
100
AcDbDictionary
280
     1
281
     1
  3
ACAD_LAYERSTATES
360
19407
  0
DICTIONARY
  5
17AE2
102
{ACAD_REACTORS
330
7471
102
}
330
7471
100
AcDbDictionary
281
     1
  0
DICTIONARY
  5
7472
102
{ACAD_REACTORS
330
7471
102
}
330
7471
100
AcDbDictionary
281
     1
  3
*A1
350
17FA7
  3
*A2
350
180C7
  3
*A3
350
180D2
  3
*A4
350
18B09
  0
DICTIONARY
  5
17AE3
102
{ACAD_REACTORS
330
7471
102
}
330
7471
100
AcDbDictionary
281
     1
  3
Model
350
17AE5
  3
レイアウト1
350
17AE6
  0
DICTIONARY
  5
17AE1
102
{ACAD_REACTORS
330
7471
102
}
330
7471
100
AcDbDictionary
281
     1
  0
DICTIONARY
  5
7473
102
{ACAD_REACTORS
330
7471
102
}
330
7471
100
AcDbDictionary
281
     1
  3
STANDARD
350
7480
  0
DICTIONARY
  5
17AE4
102
{ACAD_REACTORS
330
7471
102
}
330
7471
100
AcDbDictionary
281
     1
  0
ACDBDICTIONARYWDFLT
  5
17ADF
102
{ACAD_REACTORS
330
7471
102
}
330
7471
100
AcDbDictionary
281
     1
  3
Normal
350
17AE0
100
AcDbDictionaryWithDefault
340
17AE0
  0
DICTIONARY
  5
1A2A8
102
{ACAD_REACTORS
330
7471
102
}
330
7471
100
AcDbDictionary
281
     1
  3
COLORDICT
350
1A2AA
  3
MATERIALDICT
350
1A2A9
  0
DICTIONARY
  5
1A2A4
102
{ACAD_REACTORS
330
7471
102
}
330
7471
100
AcDbDictionary
281
     1
  3
DIMASSOC
350
1A2A5
  3
PROJECTNAME
350
1A2A6
  0
DICTIONARY
  5
E71C
102
{ACAD_REACTORS
330
7471
102
}
330
7471
100
AcDbDictionary
281
     1
  0
DICTIONARY
  5
F3B9
102
{ACAD_REACTORS
330
7471
102
}
330
7471
100
AcDbDictionary
281
     1
1001
DRAWINGVARIABLESXDATA
1000
POLARMODE
1000
1
  0
DICTIONARY
  5
19407
102
{ACAD_REACTORS
330
19406
102
}
330
19406
100
AcDbDictionary
281
     1
  0
GROUP
  5
17FA7
102
{ACAD_REACTORS
330
7472
102
}
330
7472
100
AcDbGroup
300

 70
     1
 71
     1
  0
GROUP
  5
180C7
102
{ACAD_REACTORS
330
7472
102
}
330
7472
100
AcDbGroup
300

 70
     1
 71
     1
  0
GROUP
  5
180D2
102
{ACAD_REACTORS
330
7472
102
}
330
7472
100
AcDbGroup
300

 70
     1
 71
     1
  0
GROUP
  5
18B09
102
{ACAD_REACTORS
330
7472
102
}
330
7472
100
AcDbGroup
300

 70
     1
 71
     1
  0
LAYOUT
  5
17AE5
102
{ACAD_XDICTIONARY
360
1A2AB
102
}
102
{ACAD_REACTORS
330
17AE3
102
}
330
17AE3
100
AcDbPlotSettings
  1

  2
Canon iR C3880/C4580 LIPSLX
  4
A3
  6

 40
5.873749732971191
 41
5.873747825622558
 42
5.873748779296875
 43
5.873748779296875
 44
296.9259948730469
 45
419.9466552734374
 46
0.0
 47
0.0
 48
0.0
 49
0.0
140
0.0
141
0.0
142
1.0
143
40.0
 70
 11952
 72
     1
 73
     1
 74
     2
  7
inaba.ctb
 75
    24
147
0.025
148
0.0
149
0.0
100
AcDbLayout
  1
Model
 70
     1
 71
     0
 10
0.0
 20
0.0
 11
12.0
 21
9.0
 12
0.0
 22
0.0
 32
0.0
 14
0.0
 24
0.0
 34
0.0
 15
0.0
 25
0.0
 35
0.0
146
0.0
 13
0.0
 23
0.0
 33
0.0
 16
1.0
 26
0.0
 36
0.0
 17
0.0
 27
1.0
 37
0.0
 76
     0
330
747D
  0
LAYOUT
  5
17AE6
102
{ACAD_XDICTIONARY
360
1A2AD
102
}
102
{ACAD_REACTORS
330
17AE3
102
}
330
17AE3
100
AcDbPlotSettings
  1

  2
EPSON LP-8300
  4

  6

 40
0.0
 41
0.0
 42
0.0
 43
0.0
 44
0.0
 45
0.0
 46
0.0
 47
0.0
 48
0.0
 49
0.0
140
0.0
141
0.0
142
1.0
143
1.0
 70
   688
 72
     0
 73
     0
 74
     5
  7
inaba.ctb
 75
    16
147
1.0
148
0.0
149
0.0
100
AcDbLayout
  1
レイアウト1
 70
     0
 71
     1
 10
0.0
 20
0.0
 11
420.0
 21
297.0
 12
0.0
 22
0.0
 32
0.0
 14
1.000000000000000E+20
 24
1.000000000000000E+20
 34
1.000000000000000E+20
 15
-1.000000000000000E+20
 25
-1.000000000000000E+20
 35
-1.000000000000000E+20
146
0.0
 13
0.0
 23
0.0
 33
0.0
 16
1.0
 26
0.0
 36
0.0
 17
0.0
 27
1.0
 37
0.0
 76
     0
330
747A
  0
MLINESTYLE
  5
7480
102
{ACAD_REACTORS
330
7473
102
}
330
7473
100
AcDbMlineStyle
  2
STANDARD
 70
     0
  3

 62
     0
 51
90.0
 52
90.0
 71
     2
 49
0.5
 62
   256
  6
BYLAYER
 49
-0.5
 62
   256
  6
BYLAYER
  0
ACDBPLACEHOLDER
  5
17AE0
102
{ACAD_REACTORS
330
17ADF
102
}
330
17ADF
  0
XRECORD
  5
1A2AA
102
{ACAD_REACTORS
330
1A2A8
102
}
330
1A2A8
100
AcDbXrecord
280
     1
340
17AE2
  0
XRECORD
  5
1A2A9
102
{ACAD_REACTORS
330
1A2A8
102
}
330
1A2A8
100
AcDbXrecord
280
     1
340
17AE1
  0
DICTIONARYVAR
  5
1A2A5
102
{ACAD_REACTORS
330
1A2A4
102
}
330
1A2A4
100
DictionaryVariables
280
     0
  1
1
  0
DICTIONARYVAR
  5
1A2A6
102
{ACAD_REACTORS
330
1A2A4
102
}
330
1A2A4
100
DictionaryVariables
280
     0
  1

  0
DICTIONARY
  5
1A2AB
330
17AE5
100
AcDbDictionary
280
     1
281
     1
  3
ACAD_XREC_ROUNDTRIP
360
1A2AC
  0
DICTIONARY
  5
1A2AD
330
17AE6
100
AcDbDictionary
280
     1
281
     1
  3
ACAD_XREC_ROUNDTRIP
360
1A2AE
  0
XRECORD
  5
1A2AC
102
{ACAD_REACTORS
330
1A2AB
102
}
330
1A2AB
100
AcDbXrecord
280
     1
102
SHADEPLOT
 70
     0
102
SHADEPLOTRESLEVEL
 70
     2
102
SHADEPLOTCUSTOMDPI
 70
   300
  0
XRECORD
  5
1A2AE
102
{ACAD_REACTORS
330
1A2AD
102
}
330
1A2AD
100
AcDbXrecord
280
     1
102
SHADEPLOT
 70
     0
102
SHADEPLOTRESLEVEL
 70
     2
102
SHADEPLOTCUSTOMDPI
 70
   300
  0
ENDSEC
  0
EOF
