  0
SECTION
  2
HEADER
  9
$ACADVER
  1
AC1015
  9
$ACADMAINTVER
 70
    20
  9
$DWGCODEPAGE
  3
ANSI_932
  9
$INSBASE
 10
0.0
 20
0.0
 30
0.0
  9
$EXTMIN
 10
139.9999999999995
 20
-0.0000000000000909
 30
0.0
  9
$EXTMAX
 10
16307.2
 20
11409.6
 30
0.0
  9
$LIMMIN
 10
0.0
 20
0.0
  9
$LIMMAX
 10
16800.0
 20
11880.0
  9
$ORTHOMODE
 70
     0
  9
$REGENMODE
 70
     1
  9
$FILLMODE
 70
     1
  9
$QTEXTMODE
 70
     0
  9
$MIRRTEXT
 70
     1
  9
$LTSCALE
 40
20.0
  9
$ATTMODE
 70
     1
  9
$TEXTSIZE
 40
3.5
  9
$TRACEWID
 40
1.0
  9
$TEXTSTYLE
  7
MSGOTHIC
  9
$CLAYER
  8
部品1
  9
$CELTYPE
  6
BYLAYER
  9
$CECOLOR
 62
   256
  9
$CELTSCALE
 40
50.0
  9
$DISPSILH
 70
     0
  9
$DIMSCALE
 40
40.0
  9
$DIMASZ
 40
2.5
  9
$DIMEXO
 40
0.5
  9
$DIMDLI
 40
7.0
  9
$DIMRND
 40
0.0
  9
$DIMDLE
 40
0.0
  9
$DIMEXE
 40
1.5
  9
$DIMTP
 40
0.0
  9
$DIMTM
 40
0.0
  9
$DIMTXT
 40
3.0
  9
$DIMCEN
 40
0.0
  9
$DIMTSZ
 40
0.0
  9
$DIMTOL
 70
     0
  9
$DIMLIM
 70
     0
  9
$DIMTIH
 70
     0
  9
$DIMTOH
 70
     0
  9
$DIMSE1
 70
     0
  9
$DIMSE2
 70
     0
  9
$DIMTAD
 70
     3
  9
$DIMZIN
 70
     8
  9
$DIMBLK
  1

  9
$DIMASO
 70
     1
  9
$DIMSHO
 70
     1
  9
$DIMPOST
  1

  9
$DIMAPOST
  1

  9
$DIMALT
 70
     0
  9
$DIMALTD
 70
     2
  9
$DIMALTF
 40
0.0394
  9
$DIMLFAC
 40
1.0
  9
$DIMTOFL
 70
     1
  9
$DIMTVP
 40
0.0
  9
$DIMTIX
 70
     1
  9
$DIMSOXD
 70
     0
  9
$DIMSAH
 70
     1
  9
$DIMBLK1
  1
DOTSMALL
  9
$DIMBLK2
  1
DOTSMALL
  9
$DIMSTYLE
  2
INABA_S40G
  9
$DIMCLRD
 70
     0
  9
$DIMCLRE
 70
     0
  9
$DIMCLRT
 70
     7
  9
$DIMTFAC
 40
1.0
  9
$DIMGAP
 40
1.0
  9
$DIMJUST
 70
     0
  9
$DIMSD1
 70
     0
  9
$DIMSD2
 70
     0
  9
$DIMTOLJ
 70
     1
  9
$DIMTZIN
 70
     0
  9
$DIMALTZ
 70
     0
  9
$DIMALTTZ
 70
     0
  9
$DIMUPT
 70
     0
  9
$DIMDEC
 70
     1
  9
$DIMTDEC
 70
     4
  9
$DIMALTU
 70
     2
  9
$DIMALTTD
 70
     2
  9
$DIMTXSTY
  7
STYLE1
  9
$DIMAUNIT
 70
     0
  9
$DIMADEC
 70
     0
  9
$DIMALTRND
 40
0.0
  9
$DIMAZIN
 70
     0
  9
$DIMDSEP
 70
    46
  9
$DIMATFIT
 70
     3
  9
$DIMFRAC
 70
     0
  9
$DIMLDRBLK
  1

  9
$DIMLUNIT
 70
     2
  9
$DIMLWD
 70
    -2
  9
$DIMLWE
 70
    -2
  9
$DIMTMOVE
 70
     0
  9
$LUNITS
 70
     2
  9
$LUPREC
 70
     1
  9
$SKETCHINC
 40
1.0
  9
$FILLETRAD
 40
3.0
  9
$AUNITS
 70
     0
  9
$AUPREC
 70
     0
  9
$MENU
  1
acad
  9
$ELEVATION
 40
0.0
  9
$PELEVATION
 40
0.0
  9
$THICKNESS
 40
0.0
  9
$LIMCHECK
 70
     0
  9
$CHAMFERA
 40
0.0
  9
$CHAMFERB
 40
0.0
  9
$CHAMFERC
 40
0.0
  9
$CHAMFERD
 40
0.0
  9
$SKPOLY
 70
     0
  9
$TDCREATE
 40
2451368.612993866
  9
$TDUCREATE
 40
2451368.237993866
  9
$TDUPDATE
 40
2455569.643804977
  9
$TDUUPDATE
 40
2455569.268804977
  9
$TDINDWG
 40
0.6609169097
  9
$TDUSRTIMER
 40
0.6609169097
  9
$USRTIMER
 70
     1
  9
$ANGBASE
 50
0.0
  9
$ANGDIR
 70
     0
  9
$PDMODE
 70
     3
  9
$PDSIZE
 40
2.0
  9
$PLINEWID
 40
0.0
  9
$SPLFRAME
 70
     0
  9
$SPLINETYPE
 70
     6
  9
$SPLINESEGS
 70
     8
  9
$HANDSEED
  5
1819F
  9
$SURFTAB1
 70
     6
  9
$SURFTAB2
 70
     6
  9
$SURFTYPE
 70
     6
  9
$SURFU
 70
     6
  9
$SURFV
 70
     6
  9
$UCSBASE
  2

  9
$UCSNAME
  2

  9
$UCSORG
 10
0.0
 20
0.0
 30
0.0
  9
$UCSXDIR
 10
1.0
 20
0.0
 30
0.0
  9
$UCSYDIR
 10
0.0
 20
1.0
 30
0.0
  9
$UCSORTHOREF
  2

  9
$UCSORTHOVIEW
 70
     0
  9
$UCSORGTOP
 10
0.0
 20
0.0
 30
0.0
  9
$UCSORGBOTTOM
 10
0.0
 20
0.0
 30
0.0
  9
$UCSORGLEFT
 10
0.0
 20
0.0
 30
0.0
  9
$UCSORGRIGHT
 10
0.0
 20
0.0
 30
0.0
  9
$UCSORGFRONT
 10
0.0
 20
0.0
 30
0.0
  9
$UCSORGBACK
 10
0.0
 20
0.0
 30
0.0
  9
$PUCSBASE
  2

  9
$PUCSNAME
  2

  9
$PUCSORG
 10
0.0
 20
0.0
 30
0.0
  9
$PUCSXDIR
 10
1.0
 20
0.0
 30
0.0
  9
$PUCSYDIR
 10
0.0
 20
1.0
 30
0.0
  9
$PUCSORTHOREF
  2

  9
$PUCSORTHOVIEW
 70
     0
  9
$PUCSORGTOP
 10
0.0
 20
0.0
 30
0.0
  9
$PUCSORGBOTTOM
 10
0.0
 20
0.0
 30
0.0
  9
$PUCSORGLEFT
 10
0.0
 20
0.0
 30
0.0
  9
$PUCSORGRIGHT
 10
0.0
 20
0.0
 30
0.0
  9
$PUCSORGFRONT
 10
0.0
 20
0.0
 30
0.0
  9
$PUCSORGBACK
 10
0.0
 20
0.0
 30
0.0
  9
$USERI1
 70
     0
  9
$USERI2
 70
     0
  9
$USERI3
 70
     0
  9
$USERI4
 70
     0
  9
$USERI5
 70
     0
  9
$USERR1
 40
0.0
  9
$USERR2
 40
0.0
  9
$USERR3
 40
0.0
  9
$USERR4
 40
0.0
  9
$USERR5
 40
0.0
  9
$WORLDVIEW
 70
     1
  9
$SHADEDGE
 70
     3
  9
$SHADEDIF
 70
    70
  9
$TILEMODE
 70
     1
  9
$MAXACTVP
 70
    16
  9
$PINSBASE
 10
0.0
 20
0.0
 30
0.0
  9
$PLIMCHECK
 70
     0
  9
$PEXTMIN
 10
1.000000000000000E+20
 20
1.000000000000000E+20
 30
1.000000000000000E+20
  9
$PEXTMAX
 10
-1.000000000000000E+20
 20
-1.000000000000000E+20
 30
-1.000000000000000E+20
  9
$PLIMMIN
 10
0.0
 20
0.0
  9
$PLIMMAX
 10
420.0
 20
297.0
  9
$UNITMODE
 70
     0
  9
$VISRETAIN
 70
     0
  9
$PLINEGEN
 70
     0
  9
$PSLTSCALE
 70
     0
  9
$TREEDEPTH
 70
  3020
  9
$CMLSTYLE
  2
STANDARD
  9
$CMLJUST
 70
     0
  9
$CMLSCALE
 40
1.0
  9
$PROXYGRAPHICS
 70
     1
  9
$MEASUREMENT
 70
     1
  9
$CELWEIGHT
370
    -1
  9
$ENDCAPS
280
     0
  9
$JOINSTYLE
280
     0
  9
$LWDISPLAY
290
     0
  9
$INSUNITS
 70
     0
  9
$HYPERLINKBASE
  1

  9
$STYLESHEET
  1
inaba.ctb
  9
$XEDIT
290
     1
  9
$CEPSNTYPE
380
     0
  9
$PSTYLEMODE
290
     1
  9
$FINGERPRINTGUID
  2
{77ABBCC8-E499-47A5-842F-55F583DC8CE7}
  9
$VERSIONGUID
  2
{FF9AE841-7163-4D64-9CF8-CEAA103A0E12}
  9
$EXTNAMES
290
     1
  9
$PSVPSCALE
 40
0.0
  9
$OLESTARTUP
290
     0
  0
ENDSEC
  0
SECTION
  2
CLASSES
  0
CLASS
  1
ACDBDICTIONARYWDFLT
  2
AcDbDictionaryWithDefault
  3
ObjectDBX Classes
 90
        0
280
     0
281
     0
  0
CLASS
  1
DICTIONARYVAR
  2
AcDbDictionaryVar
  3
ObjectDBX Classes
 90
        0
280
     0
281
     0
  0
CLASS
  1
ACDBPLACEHOLDER
  2
AcDbPlaceHolder
  3
ObjectDBX Classes
 90
        0
280
     0
281
     0
  0
CLASS
  1
LAYOUT
  2
AcDbLayout
  3
ObjectDBX Classes
 90
        0
280
     0
281
     0
  0
ENDSEC
  0
SECTION
  2
TABLES
  0
TABLE
  2
VPORT
  5
746D
330
0
100
AcDbSymbolTable
 70
     2
  0
VPORT
  5
18197
330
746D
100
AcDbSymbolTableRecord
100
AcDbViewportTableRecord
  2
*Active
 70
     0
 10
0.0
 20
0.0
 11
1.0
 21
1.0
 12
11720.09902207777
 22
5704.796475140369
 13
0.0
 23
0.0
 14
10.0
 24
10.0
 15
10.0
 25
10.0
 16
0.0
 26
0.0
 36
1.0
 17
0.0
 27
0.0
 37
0.0
 40
11513.42327568309
 41
2.234800838574423
 42
50.0
 43
0.0
 44
0.0
 50
0.0
 51
0.0
 71
     0
 72
     0
 73
     1
 74
     0
 75
     0
 76
     0
 77
     0
 78
     0
281
     0
 65
     1
110
0.0
120
0.0
130
0.0
111
1.0
121
0.0
131
0.0
112
0.0
122
1.0
132
0.0
 79
     0
146
0.0
  0
ENDTAB
  0
TABLE
  2
LTYPE
  5
746A
330
0
100
AcDbSymbolTable
 70
     3
  0
LTYPE
  5
7477
330
746A
100
AcDbSymbolTableRecord
100
AcDbLinetypeTableRecord
  2
BYBLOCK
 70
     0
  3

 72
    65
 73
     0
 40
0.0
  0
LTYPE
  5
7478
330
746A
100
AcDbSymbolTableRecord
100
AcDbLinetypeTableRecord
  2
BYLAYER
 70
     0
  3

 72
    65
 73
     0
 40
0.0
  0
LTYPE
  5
7479
330
746A
100
AcDbSymbolTableRecord
100
AcDbLinetypeTableRecord
  2
CONTINUOUS
 70
     0
  3
Solid line
 72
    65
 73
     0
 40
0.0
  0
LTYPE
  5
781A
330
746A
100
AcDbSymbolTableRecord
100
AcDbLinetypeTableRecord
  2
HIDDEN
 70
     0
  3
__ __ __ __ __ __ __ __ __ __ __ __ __ __ __ __
 72
    65
 73
     2
 40
0.375
 49
0.25
 74
     0
 49
-0.125
 74
     0
  0
LTYPE
  5
781B
330
746A
100
AcDbSymbolTableRecord
100
AcDbLinetypeTableRecord
  2
PHANTOM
 70
     0
  3
______  __  __  ______  __  __  ______  __  __ 
 72
    65
 73
     6
 40
2.5
 49
1.25
 74
     0
 49
-0.25
 74
     0
 49
0.25
 74
     0
 49
-0.25
 74
     0
 49
0.25
 74
     0
 49
-0.25
 74
     0
  0
ENDTAB
  0
TABLE
  2
LAYER
  5
7467
102
{ACAD_XDICTIONARY
360
1719A
102
}
330
0
100
AcDbSymbolTable
 70
    10
  0
LAYER
  5
7474
330
7467
100
AcDbSymbolTableRecord
100
AcDbLayerTableRecord
  2
0
 70
     0
 62
     7
  6
CONTINUOUS
370
    -3
390
166AC
  0
LAYER
  5
DEB3
330
7467
100
AcDbSymbolTableRecord
100
AcDbLayerTableRecord
  2
寸法
 70
     0
 62
     4
  6
CONTINUOUS
370
    -3
390
166AC
  0
LAYER
  5
DEB4
330
7467
100
AcDbSymbolTableRecord
100
AcDbLayerTableRecord
  2
部品1
 70
     0
 62
     7
  6
CONTINUOUS
370
    -3
390
166AC
  0
LAYER
  5
DEB5
330
7467
100
AcDbSymbolTableRecord
100
AcDbLayerTableRecord
  2
補助
 70
     0
 62
    -1
  6
CONTINUOUS
370
    -3
390
166AC
  0
LAYER
  5
DEB6
330
7467
100
AcDbSymbolTableRecord
100
AcDbLayerTableRecord
  2
文字
 70
     0
 62
     7
  6
CONTINUOUS
370
    -3
390
166AC
  0
LAYER
  5
F255
330
7467
100
AcDbSymbolTableRecord
100
AcDbLayerTableRecord
  2
DEFPOINTS
 70
     0
 62
     7
  6
CONTINUOUS
290
     0
370
    -3
390
166AC
  0
LAYER
  5
10B54
330
7467
100
AcDbSymbolTableRecord
100
AcDbLayerTableRecord
  2
仕様書枠
 70
     0
 62
   230
  6
CONTINUOUS
370
    -3
390
166AC
  0
LAYER
  5
11729
330
7467
100
AcDbSymbolTableRecord
100
AcDbLayerTableRecord
  2
Ｇ．Ｌ
 70
     0
 62
    30
  6
CONTINUOUS
370
    -3
390
166AC
  0
LAYER
  5
1173F
330
7467
100
AcDbSymbolTableRecord
100
AcDbLayerTableRecord
  2
細線
 70
     0
 62
     5
  6
CONTINUOUS
370
    -3
390
166AC
  0
LAYER
  5
142E2
330
7467
100
AcDbSymbolTableRecord
100
AcDbLayerTableRecord
  2
破線
 70
     0
 62
     2
  6
HIDDEN
370
    -3
390
166AC
  0
ENDTAB
  0
TABLE
  2
STYLE
  5
7468
330
0
100
AcDbSymbolTable
 70
     6
  0
STYLE
  5
7475
330
7468
100
AcDbSymbolTableRecord
100
AcDbTextStyleTableRecord
  2
STANDARD
 70
     0
 40
0.0
 41
1.0
 50
0.0
 71
     0
 42
4.0
  3
txt
  4
C:\AutoCAD LT\bigfont.shx
  0
STYLE
  5
763C
330
7468
100
AcDbSymbolTableRecord
100
AcDbTextStyleTableRecord
  2
MSMINCHO
 70
     0
 40
0.0
 41
1.0
 50
0.0
 71
     0
 42
1.199999999999999
  3
C:\AutoCAD LT\msminch2.TTF
  4

  0
STYLE
  5
F706
330
7468
100
AcDbSymbolTableRecord
100
AcDbTextStyleTableRecord
  2
STYLE1
 70
     0
 40
0.0
 41
1.0
 50
0.0
 71
     0
 42
4.0
  3
isocp.shx
  4
bigfont.shx
  0
STYLE
  5
103BF
330
7468
100
AcDbSymbolTableRecord
100
AcDbTextStyleTableRecord
  2
STYLE2
 70
     0
 40
0.0
 41
1.0
 50
0.0
 71
     0
 42
100.0
  3
MS PGothic.ttf
  4

1001
ACAD
1000
MS PGothic
1071
    32818
  0
STYLE
  5
10BAA
330
7468
100
AcDbSymbolTableRecord
100
AcDbTextStyleTableRecord
  2
STYLE3
 70
     0
 40
0.0
 41
1.0
 50
0.0
 71
     0
 42
100.0
  3
DFPGothic-EB.ttf
  4

1001
ACAD
1000
DFPGothic-EB
1071
    32818
  0
STYLE
  5
11A15
330
7468
100
AcDbSymbolTableRecord
100
AcDbTextStyleTableRecord
  2
MSGOTHIC
 70
     0
 40
0.0
 41
1.0
 50
0.0
 71
     0
 42
3.5
  3
MS PGothic.ttf
  4

1001
ACAD
1000
MS PGothic
1071
    32818
  0
ENDTAB
  0
TABLE
  2
VIEW
  5
746B
330
0
100
AcDbSymbolTable
 70
     0
  0
ENDTAB
  0
TABLE
  2
UCS
  5
746C
330
0
100
AcDbSymbolTable
 70
     0
  0
ENDTAB
  0
TABLE
  2
APPID
  5
746E
330
0
100
AcDbSymbolTable
 70
     6
  0
APPID
  5
7476
330
746E
100
AcDbSymbolTableRecord
100
AcDbRegAppTableRecord
  2
ACAD
 70
     0
  0
APPID
  5
DEA9
330
746E
100
AcDbSymbolTableRecord
100
AcDbRegAppTableRecord
  2
CONTENTBLOCKICON
 70
     0
  0
APPID
  5
DEAA
330
746E
100
AcDbSymbolTableRecord
100
AcDbRegAppTableRecord
  2
CONTENTBLOCKDESCRIPTION
 70
     0
  0
APPID
  5
E71D
330
746E
100
AcDbSymbolTableRecord
100
AcDbRegAppTableRecord
  2
CONTENTTABDATA
 70
     0
  0
APPID
  5
E71E
330
746E
100
AcDbSymbolTableRecord
100
AcDbRegAppTableRecord
  2
CONTENTCURRENTTAB
 70
     0
  0
APPID
  5
F3BA
330
746E
100
AcDbSymbolTableRecord
100
AcDbRegAppTableRecord
  2
DRAWINGVARIABLESXDATA
 70
     0
  0
ENDTAB
  0
TABLE
  2
DIMSTYLE
  5
746F
330
0
100
AcDbSymbolTable
 70
     1
100
AcDbDimStyleTable
 71
     1
340
F71F
  0
DIMSTYLE
105
F71F
102
{ACAD_REACTORS
330
16452
330
16459
330
1645E
330
16460
330
16461
330
16462
330
16475
330
16476
330
16477
330
1648F
330
16492
330
164BD
330
164BE
330
17377
330
17378
330
17379
330
1737A
330
17ACB
330
17ADA
330
17AE8
330
17AE9
330
17AEA
330
17AEE
330
17B1E
330
17B1F
330
17B20
330
18008
330
18009
330
1800A
102
}
330
746F
100
AcDbSymbolTableRecord
100
AcDbDimStyleTableRecord
  2
INABA_S40G
 70
     0
 40
40.0
 41
2.5
 42
0.5
 43
7.0
 44
1.5
 73
     0
 74
     0
 77
     3
 78
     8
140
3.0
141
0.0
143
0.0394
147
1.0
172
     1
173
     1
174
     1
178
     7
271
     1
340
F706
341
F770
343
F770
344
F770
  0
ENDTAB
  0
TABLE
  2
BLOCK_RECORD
  5
7466
330
0
100
AcDbSymbolTable
 70
    30
  0
BLOCK_RECORD
  5
747D
330
7466
100
AcDbSymbolTableRecord
100
AcDbBlockTableRecord
  2
*MODEL_SPACE
340
166B1
  0
BLOCK_RECORD
  5
747A
330
7466
100
AcDbSymbolTableRecord
100
AcDbBlockTableRecord
  2
*PAPER_SPACE
340
166B2
  0
BLOCK_RECORD
  5
F770
330
7466
100
AcDbSymbolTableRecord
100
AcDbBlockTableRecord
  2
_DOTSMALL
340
0
102
{BLKREFS
331
16D9C
331
16D9D
331
16DA7
331
16DA8
331
16DB2
331
16DB3
331
16DBB
331
16DBC
331
16DC6
331
16DC7
331
16DD1
331
16DD2
331
16DDD
331
16DDE
331
16DE8
331
16DE9
331
16DF2
331
16DF3
331
16DFB
331
16DFC
331
16E03
331
16E04
331
16E0C
331
16E0D
331
16E15
331
16E16
331
17DAC
331
17DAD
331
17DB5
331
17DB6
331
17DBE
331
17DBF
331
17DC9
331
17DCA
331
17DDD
331
17DDE
331
17DF0
331
17DF1
331
17DFA
331
17DFB
331
17E7A
331
17E7B
331
17E85
331
17E86
331
17E90
331
17E91
331
17E99
331
17E9A
331
180FD
331
180FE
331
18155
331
18156
331
1815E
331
1815F
331
1817E
331
1817F
331
18187
331
18188
102
}
  0
BLOCK_RECORD
  5
164C6
330
7466
100
AcDbSymbolTableRecord
100
AcDbBlockTableRecord
  2
*D1
340
0
  0
BLOCK_RECORD
  5
164D2
330
7466
100
AcDbSymbolTableRecord
100
AcDbBlockTableRecord
  2
*D2
340
0
  0
BLOCK_RECORD
  5
164F6
330
7466
100
AcDbSymbolTableRecord
100
AcDbBlockTableRecord
  2
*D3
340
0
  0
BLOCK_RECORD
  5
16501
330
7466
100
AcDbSymbolTableRecord
100
AcDbBlockTableRecord
  2
*D4
340
0
  0
BLOCK_RECORD
  5
1650D
330
7466
100
AcDbSymbolTableRecord
100
AcDbBlockTableRecord
  2
*D5
340
0
  0
BLOCK_RECORD
  5
1651B
330
7466
100
AcDbSymbolTableRecord
100
AcDbBlockTableRecord
  2
*D6
340
0
  0
BLOCK_RECORD
  5
1652A
330
7466
100
AcDbSymbolTableRecord
100
AcDbBlockTableRecord
  2
*D7
340
0
  0
BLOCK_RECORD
  5
16539
330
7466
100
AcDbSymbolTableRecord
100
AcDbBlockTableRecord
  2
*D8
340
0
  0
BLOCK_RECORD
  5
16547
330
7466
100
AcDbSymbolTableRecord
100
AcDbBlockTableRecord
  2
*D9
340
0
  0
BLOCK_RECORD
  5
16555
330
7466
100
AcDbSymbolTableRecord
100
AcDbBlockTableRecord
  2
*D10
340
0
  0
BLOCK_RECORD
  5
16561
330
7466
100
AcDbSymbolTableRecord
100
AcDbBlockTableRecord
  2
*D11
340
0
  0
BLOCK_RECORD
  5
1656F
330
7466
100
AcDbSymbolTableRecord
100
AcDbBlockTableRecord
  2
*D12
340
0
  0
BLOCK_RECORD
  5
1657D
330
7466
100
AcDbSymbolTableRecord
100
AcDbBlockTableRecord
  2
*D13
340
0
  0
BLOCK_RECORD
  5
174C4
330
7466
100
AcDbSymbolTableRecord
100
AcDbBlockTableRecord
  2
*D14
340
0
  0
BLOCK_RECORD
  5
174D0
330
7466
100
AcDbSymbolTableRecord
100
AcDbBlockTableRecord
  2
*D15
340
0
  0
BLOCK_RECORD
  5
174DE
330
7466
100
AcDbSymbolTableRecord
100
AcDbBlockTableRecord
  2
*D16
340
0
  0
BLOCK_RECORD
  5
174EC
330
7466
100
AcDbSymbolTableRecord
100
AcDbBlockTableRecord
  2
*D17
340
0
  0
BLOCK_RECORD
  5
17BC0
330
7466
100
AcDbSymbolTableRecord
100
AcDbBlockTableRecord
  2
*D18
340
0
  0
BLOCK_RECORD
  5
17BCD
330
7466
100
AcDbSymbolTableRecord
100
AcDbBlockTableRecord
  2
*D19
340
0
  0
BLOCK_RECORD
  5
17BDA
330
7466
100
AcDbSymbolTableRecord
100
AcDbBlockTableRecord
  2
*D20
340
0
  0
BLOCK_RECORD
  5
17BE6
330
7466
100
AcDbSymbolTableRecord
100
AcDbBlockTableRecord
  2
*D21
340
0
  0
BLOCK_RECORD
  5
17BF4
330
7466
100
AcDbSymbolTableRecord
100
AcDbBlockTableRecord
  2
*D22
340
0
  0
BLOCK_RECORD
  5
17C00
330
7466
100
AcDbSymbolTableRecord
100
AcDbBlockTableRecord
  2
*D23
340
0
  0
BLOCK_RECORD
  5
17C0E
330
7466
100
AcDbSymbolTableRecord
100
AcDbBlockTableRecord
  2
*D24
340
0
  0
BLOCK_RECORD
  5
17C1A
330
7466
100
AcDbSymbolTableRecord
100
AcDbBlockTableRecord
  2
*D25
340
0
  0
BLOCK_RECORD
  5
17C26
330
7466
100
AcDbSymbolTableRecord
100
AcDbBlockTableRecord
  2
*D26
340
0
  0
BLOCK_RECORD
  5
18078
330
7466
100
AcDbSymbolTableRecord
100
AcDbBlockTableRecord
  2
*D27
340
0
  0
BLOCK_RECORD
  5
18085
330
7466
100
AcDbSymbolTableRecord
100
AcDbBlockTableRecord
  2
*D28
340
0
  0
BLOCK_RECORD
  5
18093
330
7466
100
AcDbSymbolTableRecord
100
AcDbBlockTableRecord
  2
*D29
340
0
  0
ENDTAB
  0
ENDSEC
  0
SECTION
  2
BLOCKS
  0
BLOCK
  5
7489
330
747D
100
AcDbEntity
  8
0
100
AcDbBlockBegin
  2
*MODEL_SPACE
 70
     0
 10
0.0
 20
0.0
 30
0.0
  3
*MODEL_SPACE
  1

  0
ENDBLK
  5
748A
330
747D
100
AcDbEntity
  8
0
100
AcDbBlockEnd
  0
BLOCK
  5
7487
330
747A
100
AcDbEntity
 67
     1
  8
0
100
AcDbBlockBegin
  2
*PAPER_SPACE
 70
     0
 10
0.0
 20
0.0
 30
0.0
  3
*PAPER_SPACE
  1

  0
ENDBLK
  5
7488
330
747A
100
AcDbEntity
 67
     1
  8
0
100
AcDbBlockEnd
  0
BLOCK
  5
F771
330
F770
100
AcDbEntity
  8
0
 48
50.0
100
AcDbBlockBegin
  2
_DOTSMALL
 70
     0
 10
0.0
 20
0.0
 30
0.0
  3
_DOTSMALL
  1

  0
LWPOLYLINE
  5
F772
330
F770
100
AcDbEntity
  8
0
  6
ByBlock
 62
     0
 48
50.0
100
AcDbPolyline
 90
        2
 70
     1
 43
0.5
 10
-0.0625
 20
0.0
 42
1.0
 10
0.0625
 20
0.0
 42
1.0
  0
ENDBLK
  5
F776
330
F770
100
AcDbEntity
  8
0
 48
50.0
100
AcDbBlockEnd
  0
BLOCK
  5
16663
330
164C6
100
AcDbEntity
  8
0
 48
50.0
100
AcDbBlockBegin
  2
*D1
 70
     1
 10
0.0
 20
0.0
 30
0.0
  3
*D1
  1

  0
LINE
  5
16E12
330
164C6
100
AcDbEntity
  8
寸法
 62
     0
 48
50.0
370
    -2
100
AcDbLine
 10
6802.069000782738
 20
10427.28391328919
 30
0.0
 11
7854.602288256784
 21
10427.28391328919
 31
0.0
  0
LINE
  5
16E13
330
164C6
100
AcDbEntity
  8
寸法
 62
     0
 48
50.0
370
    -2
100
AcDbLine
 10
6802.069000782712
 20
7377.283913289186
 30
0.0
 11
7854.602288256784
 21
7377.283913289186
 31
0.0
  0
LINE
  5
16E14
330
164C6
100
AcDbEntity
  8
寸法
 62
     0
 48
50.0
370
    -2
100
AcDbLine
 10
7794.602288256784
 20
10427.28391328919
 30
0.0
 11
7794.602288256783
 21
7377.283913289186
 31
0.0
  0
INSERT
  5
16E15
330
164C6
100
AcDbEntity
  8
寸法
 62
     0
 48
50.0
370
    -2
100
AcDbBlockReference
  2
_DOTSMALL
 10
7794.602288256784
 20
10427.28391328919
 30
0.0
 41
100.0
 42
100.0
 43
100.0
 50
90.0
  0
INSERT
  5
16E16
330
164C6
100
AcDbEntity
  8
寸法
 62
     0
 48
50.0
370
    -2
100
AcDbBlockReference
  2
_DOTSMALL
 10
7794.602288256783
 20
7377.283913289186
 30
0.0
 41
100.0
 42
100.0
 43
100.0
 50
270.0
  0
MTEXT
  5
16E17
330
164C6
100
AcDbEntity
  8
寸法
 62
     7
 48
50.0
100
AcDbMText
 10
7694.602288256781
 20
8902.283913289192
 30
0.0
 40
120.0
 41
0.0
 71
     5
 72
     1
  1
\A1;3050
  7
STYLE1
 11
0.0000000000000001
 21
1.0
 31
0.0
 73
     1
 44
1.0
1001
ACAD
1000
MTEXTBEGIN
1070
    73
1070
     1
1070
    44
1040
1.0
1070
    74
1070
     0
1000
MTEXTEND
  0
POINT
  5
16E18
330
164C6
100
AcDbEntity
  8
DEFPOINTS
 62
     0
 48
50.0
100
AcDbPoint
 10
6782.069000782738
 20
10427.28391328919
 30
0.0
  0
POINT
  5
16E19
330
164C6
100
AcDbEntity
  8
DEFPOINTS
 62
     0
 48
50.0
100
AcDbPoint
 10
6782.069000782712
 20
7377.283913289186
 30
0.0
  0
POINT
  5
16E1A
330
164C6
100
AcDbEntity
  8
DEFPOINTS
 62
     0
 48
50.0
100
AcDbPoint
 10
7794.602288256783
 20
7377.283913289186
 30
0.0
  0
ENDBLK
  5
1666D
330
164C6
100
AcDbEntity
  8
0
 48
50.0
100
AcDbBlockEnd
  0
BLOCK
  5
1666E
330
164D2
100
AcDbEntity
  8
0
 48
50.0
100
AcDbBlockBegin
  2
*D2
 70
     1
 10
0.0
 20
0.0
 30
0.0
  3
*D2
  1

  0
LINE
  5
16E09
330
164D2
100
AcDbEntity
  8
寸法
 62
     0
 48
50.0
370
    -2
100
AcDbLine
 10
6802.069000782738
 20
10372.28391328919
 30
0.0
 11
7489.495346517148
 21
10372.28391328919
 31
0.0
  0
LINE
  5
16E0A
330
164D2
100
AcDbEntity
  8
寸法
 62
     0
 48
50.0
370
    -2
100
AcDbLine
 10
6802.069000782712
 20
7432.283913289182
 30
0.0
 11
7489.495346517147
 21
7432.283913289182
 31
0.0
  0
LINE
  5
16E0B
330
164D2
100
AcDbEntity
  8
寸法
 62
     0
 48
50.0
370
    -2
100
AcDbLine
 10
7429.495346517147
 20
10372.28391328919
 30
0.0
 11
7429.495346517147
 21
7432.283913289182
 31
0.0
  0
INSERT
  5
16E0C
330
164D2
100
AcDbEntity
  8
寸法
 62
     0
 48
50.0
370
    -2
100
AcDbBlockReference
  2
_DOTSMALL
 10
7429.495346517147
 20
10372.28391328919
 30
0.0
 41
100.0
 42
100.0
 43
100.0
 50
90.0
  0
INSERT
  5
16E0D
330
164D2
100
AcDbEntity
  8
寸法
 62
     0
 48
50.0
370
    -2
100
AcDbBlockReference
  2
_DOTSMALL
 10
7429.495346517147
 20
7432.283913289182
 30
0.0
 41
100.0
 42
100.0
 43
100.0
 50
270.0
  0
MTEXT
  5
16E0E
330
164D2
100
AcDbEntity
  8
寸法
 62
     7
 48
50.0
100
AcDbMText
 10
7329.483535493524
 20
8902.283913289192
 30
0.0
 40
120.0
 41
0.0
 71
     5
 72
     1
  1
\A1;7X420=2940
  7
STYLE1
 11
0.0000000000000001
 21
1.0
 31
0.0
 73
     1
 44
1.0
1001
ACAD
1000
MTEXTBEGIN
1070
    73
1070
     1
1070
    44
1040
1.0
1070
    74
1070
     0
1000
MTEXTEND
  0
POINT
  5
16E0F
330
164D2
100
AcDbEntity
  8
DEFPOINTS
 62
     0
 48
50.0
100
AcDbPoint
 10
6782.069000782738
 20
10372.28391328919
 30
0.0
  0
POINT
  5
16E10
330
164D2
100
AcDbEntity
  8
DEFPOINTS
 62
     0
 48
50.0
100
AcDbPoint
 10
6782.069000782712
 20
7432.283913289182
 30
0.0
  0
POINT
  5
16E11
330
164D2
100
AcDbEntity
  8
DEFPOINTS
 62
     0
 48
50.0
100
AcDbPoint
 10
7429.495346517147
 20
7432.283913289182
 30
0.0
  0
ENDBLK
  5
16678
330
164D2
100
AcDbEntity
  8
0
 48
50.0
100
AcDbBlockEnd
  0
BLOCK
  5
165C3
330
164F6
100
AcDbEntity
  8
0
 48
50.0
100
AcDbBlockBegin
  2
*D3
 70
     1
 10
0.0
 20
0.0
 30
0.0
  3
*D3
  1

  0
LINE
  5
16E01
330
164F6
100
AcDbEntity
  8
寸法
 62
     0
 48
50.0
370
    -2
100
AcDbLine
 10
5095.06900078273
 20
7383.283913289094
 30
0.0
 11
5095.06900078273
 21
6782.85314252293
 31
0.0
  0
LINE
  5
16E02
330
164F6
100
AcDbEntity
  8
寸法
 62
     0
 48
50.0
370
    -2
100
AcDbLine
 10
6679.069000782712
 20
6842.853142522931
 30
0.0
 11
5095.06900078273
 21
6842.853142522931
 31
0.0
  0
INSERT
  5
16E03
330
164F6
100
AcDbEntity
  8
寸法
 62
     0
 48
50.0
370
    -2
100
AcDbBlockReference
  2
_DOTSMALL
 10
6679.069000782712
 20
6842.853142522931
 30
0.0
 41
100.0
 42
100.0
 43
100.0
  0
INSERT
  5
16E04
330
164F6
100
AcDbEntity
  8
寸法
 62
     0
 48
50.0
370
    -2
100
AcDbBlockReference
  2
_DOTSMALL
 10
5095.06900078273
 20
6842.853142522931
 30
0.0
 41
100.0
 42
100.0
 43
100.0
 50
180.0
  0
MTEXT
  5
16E05
330
164F6
100
AcDbEntity
  8
寸法
 62
     7
 48
50.0
100
AcDbMText
 10
5887.069000782721
 20
7042.853142522931
 30
0.0
 40
120.0
 41
0.0
 71
     5
 72
     1
  1
\A1;有効開口部間口\P1584
  7
STYLE1
 73
     1
 44
1.0
1001
ACAD
1000
MTEXTBEGIN
1070
    73
1070
     1
1070
    44
1040
1.0
1070
    74
1070
     0
1000
MTEXTEND
  0
POINT
  5
16E06
330
164F6
100
AcDbEntity
  8
DEFPOINTS
 62
     0
 48
50.0
100
AcDbPoint
 10
6679.069000782712
 20
7403.283913289095
 30
0.0
  0
POINT
  5
16E07
330
164F6
100
AcDbEntity
  8
DEFPOINTS
 62
     0
 48
50.0
100
AcDbPoint
 10
5095.06900078273
 20
7403.283913289094
 30
0.0
  0
POINT
  5
16E08
330
164F6
100
AcDbEntity
  8
DEFPOINTS
 62
     0
 48
50.0
100
AcDbPoint
 10
5095.06900078273
 20
6842.853142522931
 30
0.0
  0
ENDBLK
  5
165CC
330
164F6
100
AcDbEntity
  8
0
 48
50.0
100
AcDbBlockEnd
  0
BLOCK
  5
165CD
330
16501
100
AcDbEntity
  8
0
 48
50.0
100
AcDbBlockBegin
  2
*D4
 70
     1
 10
0.0
 20
0.0
 30
0.0
  3
*D4
  1

  0
LINE
  5
16DF8
330
16501
100
AcDbEntity
  8
寸法
 62
     0
 48
50.0
370
    -2
100
AcDbLine
 10
4992.069000782731
 20
7357.283913289022
 30
0.0
 11
4992.069000782731
 21
6496.680146932056
 31
0.0
  0
LINE
  5
16DF9
330
16501
100
AcDbEntity
  8
寸法
 62
     0
 48
50.0
370
    -2
100
AcDbLine
 10
6782.069000782712
 20
7357.28391328915
 30
0.0
 11
6782.069000782712
 21
6496.680146932056
 31
0.0
  0
LINE
  5
16DFA
330
16501
100
AcDbEntity
  8
寸法
 62
     0
 48
50.0
370
    -2
100
AcDbLine
 10
4992.069000782731
 20
6556.680146932056
 30
0.0
 11
6782.069000782712
 21
6556.680146932056
 31
0.0
  0
INSERT
  5
16DFB
330
16501
100
AcDbEntity
  8
寸法
 62
     0
 48
50.0
370
    -2
100
AcDbBlockReference
  2
_DOTSMALL
 10
4992.069000782731
 20
6556.680146932056
 30
0.0
 41
100.0
 42
100.0
 43
100.0
 50
180.0
  0
INSERT
  5
16DFC
330
16501
100
AcDbEntity
  8
寸法
 62
     0
 48
50.0
370
    -2
100
AcDbBlockReference
  2
_DOTSMALL
 10
6782.069000782712
 20
6556.680146932056
 30
0.0
 41
100.0
 42
100.0
 43
100.0
  0
MTEXT
  5
16DFD
330
16501
100
AcDbEntity
  8
寸法
 62
     7
 48
50.0
100
AcDbMText
 10
5887.069000782721
 20
6656.680146932057
 30
0.0
 40
120.0
 41
0.0
 71
     5
 72
     1
  1
\A1;1790
  7
STYLE1
 73
     1
 44
1.0
1001
ACAD
1000
MTEXTBEGIN
1070
    73
1070
     1
1070
    44
1040
1.0
1070
    74
1070
     0
1000
MTEXTEND
  0
POINT
  5
16DFE
330
16501
100
AcDbEntity
  8
DEFPOINTS
 62
     0
 48
50.0
100
AcDbPoint
 10
4992.069000782731
 20
7377.283913289023
 30
0.0
  0
POINT
  5
16DFF
330
16501
100
AcDbEntity
  8
DEFPOINTS
 62
     0
 48
50.0
100
AcDbPoint
 10
6782.069000782712
 20
7377.283913289149
 30
0.0
  0
POINT
  5
16E00
330
16501
100
AcDbEntity
  8
DEFPOINTS
 62
     0
 48
50.0
100
AcDbPoint
 10
6782.069000782712
 20
6556.680146932056
 30
0.0
  0
ENDBLK
  5
165D7
330
16501
100
AcDbEntity
  8
0
 48
50.0
100
AcDbBlockEnd
  0
BLOCK
  5
165D8
330
1650D
100
AcDbEntity
  8
0
 48
50.0
100
AcDbBlockBegin
  2
*D5
 70
     1
 10
0.0
 20
0.0
 30
0.0
  3
*D5
  1

  0
LINE
  5
16DED
330
1650D
100
AcDbEntity
  8
寸法
 62
     0
 48
50.0
370
    -2
100
AcDbLine
 10
5047.069000782727
 20
7357.283913289094
 30
0.0
 11
5047.069000782727
 21
6782.85314252293
 31
0.0
  0
LINE
  5
16DEE
330
1650D
100
AcDbEntity
  8
寸法
 62
     0
 48
50.0
370
    -2
100
AcDbLine
 10
4992.069000782731
 20
7357.283913289092
 30
0.0
 11
4992.069000782731
 21
6782.85314252293
 31
0.0
  0
LINE
  5
16DEF
330
1650D
100
AcDbEntity
  8
寸法
 62
     0
 48
50.0
370
    -2
100
AcDbLine
 10
5047.069000782727
 20
6842.853142522931
 30
0.0
 11
5147.069000782727
 21
6842.853142522931
 31
0.0
  0
LINE
  5
16DF0
330
1650D
100
AcDbEntity
  8
寸法
 62
     0
 48
50.0
370
    -2
100
AcDbLine
 10
4992.069000782731
 20
6842.853142522931
 30
0.0
 11
4575.098438034253
 21
6842.853142522931
 31
0.0
  0
LINE
  5
16DF1
330
1650D
100
AcDbEntity
  8
寸法
 62
     0
 48
50.0
370
    -2
100
AcDbLine
 10
5047.069000782727
 20
6842.853142522931
 30
0.0
 11
4992.069000782731
 21
6842.853142522931
 31
0.0
  0
INSERT
  5
16DF2
330
1650D
100
AcDbEntity
  8
寸法
 62
     0
 48
50.0
370
    -2
100
AcDbBlockReference
  2
_DOTSMALL
 10
5047.069000782727
 20
6842.853142522931
 30
0.0
 41
100.0
 42
100.0
 43
100.0
 50
180.0
  0
INSERT
  5
16DF3
330
1650D
100
AcDbEntity
  8
寸法
 62
     0
 48
50.0
370
    -2
100
AcDbBlockReference
  2
_DOTSMALL
 10
4992.069000782731
 20
6842.853142522931
 30
0.0
 41
100.0
 42
100.0
 43
100.0
  0
MTEXT
  5
16DF4
330
1650D
100
AcDbEntity
  8
寸法
 62
     7
 48
50.0
100
AcDbMText
 10
4683.583719408492
 20
6942.853142522931
 30
0.0
 40
120.0
 41
0.0
 71
     5
 72
     1
  1
\A1;55
  7
STYLE1
 73
     1
 44
1.0
1001
ACAD
1000
MTEXTBEGIN
1070
    73
1070
     1
1070
    44
1040
1.0
1070
    74
1070
     0
1000
MTEXTEND
  0
POINT
  5
16DF5
330
1650D
100
AcDbEntity
  8
DEFPOINTS
 62
     0
 48
50.0
100
AcDbPoint
 10
5047.069000782727
 20
7377.283913289094
 30
0.0
  0
POINT
  5
16DF6
330
1650D
100
AcDbEntity
  8
DEFPOINTS
 62
     0
 48
50.0
100
AcDbPoint
 10
4992.069000782731
 20
7377.28391328909
 30
0.0
  0
POINT
  5
16DF7
330
1650D
100
AcDbEntity
  8
DEFPOINTS
 62
     0
 48
50.0
100
AcDbPoint
 10
4992.069000782731
 20
6842.853142522931
 30
0.0
  0
ENDBLK
  5
165E4
330
1650D
100
AcDbEntity
  8
0
 48
50.0
100
AcDbBlockEnd
  0
BLOCK
  5
165E5
330
1651B
100
AcDbEntity
  8
0
 48
50.0
100
AcDbBlockBegin
  2
*D6
 70
     1
 10
0.0
 20
0.0
 30
0.0
  3
*D6
  1

  0
LINE
  5
16DE2
330
1651B
100
AcDbEntity
  8
寸法
 62
     0
 48
50.0
370
    -2
100
AcDbLine
 10
5095.06900078273
 20
7383.283913289094
 30
0.0
 11
5095.06900078273
 21
6782.85314252293
 31
0.0
  0
LINE
  5
16DE3
330
1651B
100
AcDbEntity
  8
寸法
 62
     0
 48
50.0
370
    -2
100
AcDbLine
 10
5047.069000782727
 20
7357.283913289094
 30
0.0
 11
5047.069000782727
 21
6782.85314252293
 31
0.0
  0
LINE
  5
16DE4
330
1651B
100
AcDbEntity
  8
寸法
 62
     0
 48
50.0
370
    -2
100
AcDbLine
 10
5095.06900078273
 20
6842.853142522931
 30
0.0
 11
5195.06900078273
 21
6842.853142522931
 31
0.0
  0
LINE
  5
16DE5
330
1651B
100
AcDbEntity
  8
寸法
 62
     0
 48
50.0
370
    -2
100
AcDbLine
 10
5047.069000782727
 20
6842.853142522931
 30
0.0
 11
4947.069000782727
 21
6842.853142522931
 31
0.0
  0
MTEXT
  5
16DE6
330
1651B
100
AcDbEntity
  8
寸法
 62
     7
 48
50.0
100
AcDbMText
 10
5207.970971782788
 20
6942.853142522931
 30
0.0
 40
120.0
 41
0.0
 71
     5
 72
     1
  1
\A1;48
  7
STYLE1
 73
     1
 44
1.0
1001
ACAD
1000
MTEXTBEGIN
1070
    73
1070
     1
1070
    44
1040
1.0
1070
    74
1070
     0
1000
MTEXTEND
  0
LINE
  5
16DE7
330
1651B
100
AcDbEntity
  8
寸法
 62
     0
 48
50.0
370
    -2
100
AcDbLine
 10
5095.06900078273
 20
6842.853142522931
 30
0.0
 11
5047.069000782727
 21
6842.853142522931
 31
0.0
  0
INSERT
  5
16DE8
330
1651B
100
AcDbEntity
  8
寸法
 62
     0
 48
50.0
370
    -2
100
AcDbBlockReference
  2
_DOTSMALL
 10
5095.06900078273
 20
6842.853142522931
 30
0.0
 41
100.0
 42
100.0
 43
100.0
 50
180.0
  0
INSERT
  5
16DE9
330
1651B
100
AcDbEntity
  8
寸法
 62
     0
 48
50.0
370
    -2
100
AcDbBlockReference
  2
_DOTSMALL
 10
5047.069000782727
 20
6842.853142522931
 30
0.0
 41
100.0
 42
100.0
 43
100.0
  0
POINT
  5
16DEA
330
1651B
100
AcDbEntity
  8
DEFPOINTS
 62
     0
 48
50.0
100
AcDbPoint
 10
5095.06900078273
 20
7403.283913289094
 30
0.0
  0
POINT
  5
16DEB
330
1651B
100
AcDbEntity
  8
DEFPOINTS
 62
     0
 48
50.0
100
AcDbPoint
 10
5047.069000782727
 20
7377.283913289094
 30
0.0
  0
POINT
  5
16DEC
330
1651B
100
AcDbEntity
  8
DEFPOINTS
 62
     0
 48
50.0
100
AcDbPoint
 10
5047.069000782727
 20
6842.853142522931
 30
0.0
  0
ENDBLK
  5
165F2
330
1651B
100
AcDbEntity
  8
0
 48
50.0
100
AcDbBlockEnd
  0
BLOCK
  5
165F3
330
1652A
100
AcDbEntity
  8
0
 48
50.0
100
AcDbBlockBegin
  2
*D7
 70
     1
 10
0.0
 20
0.0
 30
0.0
  3
*D7
  1

  0
LINE
  5
16DD7
330
1652A
100
AcDbEntity
  8
寸法
 62
     0
 48
50.0
370
    -2
100
AcDbLine
 10
6727.069000782714
 20
7357.283913289183
 30
0.0
 11
6727.069000782714
 21
6782.85314252293
 31
0.0
  0
LINE
  5
16DD8
330
1652A
100
AcDbEntity
  8
寸法
 62
     0
 48
50.0
370
    -2
100
AcDbLine
 10
6679.069000782712
 20
7383.283913289095
 30
0.0
 11
6679.069000782712
 21
6782.85314252293
 31
0.0
  0
LINE
  5
16DD9
330
1652A
100
AcDbEntity
  8
寸法
 62
     0
 48
50.0
370
    -2
100
AcDbLine
 10
6727.069000782714
 20
6842.853142522931
 30
0.0
 11
6827.069000782714
 21
6842.853142522931
 31
0.0
  0
LINE
  5
16DDA
330
1652A
100
AcDbEntity
  8
寸法
 62
     0
 48
50.0
370
    -2
100
AcDbLine
 10
6679.069000782712
 20
6842.853142522931
 30
0.0
 11
6579.069000782713
 21
6842.853142522931
 31
0.0
  0
MTEXT
  5
16DDB
330
1652A
100
AcDbEntity
  8
寸法
 62
     7
 48
50.0
100
AcDbMText
 10
6568.106103133965
 20
6942.853142522931
 30
0.0
 40
120.0
 41
0.0
 71
     5
 72
     1
  1
\A1;48
  7
STYLE1
 73
     1
 44
1.0
1001
ACAD
1000
MTEXTBEGIN
1070
    73
1070
     1
1070
    44
1040
1.0
1070
    74
1070
     0
1000
MTEXTEND
  0
LINE
  5
16DDC
330
1652A
100
AcDbEntity
  8
寸法
 62
     0
 48
50.0
370
    -2
100
AcDbLine
 10
6727.069000782714
 20
6842.853142522931
 30
0.0
 11
6679.069000782712
 21
6842.853142522931
 31
0.0
  0
INSERT
  5
16DDD
330
1652A
100
AcDbEntity
  8
寸法
 62
     0
 48
50.0
370
    -2
100
AcDbBlockReference
  2
_DOTSMALL
 10
6727.069000782714
 20
6842.853142522931
 30
0.0
 41
100.0
 42
100.0
 43
100.0
 50
180.0
  0
INSERT
  5
16DDE
330
1652A
100
AcDbEntity
  8
寸法
 62
     0
 48
50.0
370
    -2
100
AcDbBlockReference
  2
_DOTSMALL
 10
6679.069000782712
 20
6842.853142522931
 30
0.0
 41
100.0
 42
100.0
 43
100.0
  0
POINT
  5
16DDF
330
1652A
100
AcDbEntity
  8
DEFPOINTS
 62
     0
 48
50.0
100
AcDbPoint
 10
6727.069000782714
 20
7377.283913289182
 30
0.0
  0
POINT
  5
16DE0
330
1652A
100
AcDbEntity
  8
DEFPOINTS
 62
     0
 48
50.0
100
AcDbPoint
 10
6679.069000782712
 20
7403.283913289095
 30
0.0
  0
POINT
  5
16DE1
330
1652A
100
AcDbEntity
  8
DEFPOINTS
 62
     0
 48
50.0
100
AcDbPoint
 10
6679.069000782712
 20
6842.853142522931
 30
0.0
  0
ENDBLK
  5
16600
330
1652A
100
AcDbEntity
  8
0
 48
50.0
100
AcDbBlockEnd
  0
BLOCK
  5
16601
330
16539
100
AcDbEntity
  8
0
 48
50.0
100
AcDbBlockBegin
  2
*D8
 70
     1
 10
0.0
 20
0.0
 30
0.0
  3
*D8
  1

  0
LINE
  5
16DCC
330
16539
100
AcDbEntity
  8
寸法
 62
     0
 48
50.0
370
    -2
100
AcDbLine
 10
6782.069000782712
 20
7357.283913289186
 30
0.0
 11
6782.069000782712
 21
6782.853142522931
 31
0.0
  0
LINE
  5
16DCD
330
16539
100
AcDbEntity
  8
寸法
 62
     0
 48
50.0
370
    -2
100
AcDbLine
 10
6727.069000782714
 20
7357.283913289183
 30
0.0
 11
6727.069000782714
 21
6782.853142522931
 31
0.0
  0
LINE
  5
16DCE
330
16539
100
AcDbEntity
  8
寸法
 62
     0
 48
50.0
370
    -2
100
AcDbLine
 10
6727.069000782714
 20
6842.853142522931
 30
0.0
 11
6627.069000782714
 21
6842.853142522931
 31
0.0
  0
LINE
  5
16DCF
330
16539
100
AcDbEntity
  8
寸法
 62
     0
 48
50.0
370
    -2
100
AcDbLine
 10
6782.069000782712
 20
6842.853142522931
 30
0.0
 11
7199.03956353119
 21
6842.853142522931
 31
0.0
  0
LINE
  5
16DD0
330
16539
100
AcDbEntity
  8
寸法
 62
     0
 48
50.0
370
    -2
100
AcDbLine
 10
6727.069000782714
 20
6842.853142522931
 30
0.0
 11
6782.069000782712
 21
6842.853142522931
 31
0.0
  0
INSERT
  5
16DD1
330
16539
100
AcDbEntity
  8
寸法
 62
     0
 48
50.0
370
    -2
100
AcDbBlockReference
  2
_DOTSMALL
 10
6727.069000782714
 20
6842.853142522931
 30
0.0
 41
100.0
 42
100.0
 43
100.0
  0
INSERT
  5
16DD2
330
16539
100
AcDbEntity
  8
寸法
 62
     0
 48
50.0
370
    -2
100
AcDbBlockReference
  2
_DOTSMALL
 10
6782.069000782712
 20
6842.853142522931
 30
0.0
 41
100.0
 42
100.0
 43
100.0
 50
180.0
  0
MTEXT
  5
16DD3
330
16539
100
AcDbEntity
  8
寸法
 62
     7
 48
50.0
100
AcDbMText
 10
7090.554282156951
 20
6942.853142522931
 30
0.0
 40
120.0
 41
0.0
 71
     5
 72
     1
  1
\A1;55
  7
STYLE1
 73
     1
 44
1.0
1001
ACAD
1000
MTEXTBEGIN
1070
    73
1070
     1
1070
    44
1040
1.0
1070
    74
1070
     0
1000
MTEXTEND
  0
POINT
  5
16DD4
330
16539
100
AcDbEntity
  8
DEFPOINTS
 62
     0
 48
50.0
100
AcDbPoint
 10
6782.069000782712
 20
7377.283913289186
 30
0.0
  0
POINT
  5
16DD5
330
16539
100
AcDbEntity
  8
DEFPOINTS
 62
     0
 48
50.0
100
AcDbPoint
 10
6727.069000782714
 20
7377.283913289182
 30
0.0
  0
POINT
  5
16DD6
330
16539
100
AcDbEntity
  8
DEFPOINTS
 62
     0
 48
50.0
100
AcDbPoint
 10
6727.069000782714
 20
6842.853142522931
 30
0.0
  0
ENDBLK
  5
1660D
330
16539
100
AcDbEntity
  8
0
 48
50.0
100
AcDbBlockEnd
  0
BLOCK
  5
1660E
330
16547
100
AcDbEntity
  8
0
 48
50.0
100
AcDbBlockBegin
  2
*D9
 70
     1
 10
0.0
 20
0.0
 30
0.0
  3
*D9
  1

  0
LINE
  5
16DC1
330
16547
100
AcDbEntity
  8
寸法
 62
     0
 48
50.0
370
    -2
100
AcDbLine
 10
6802.069000782712
 20
7432.283913289182
 30
0.0
 11
7489.495346517124
 21
7432.283913289182
 31
0.0
  0
LINE
  5
16DC2
330
16547
100
AcDbEntity
  8
寸法
 62
     0
 48
50.0
370
    -2
100
AcDbLine
 10
6802.069000782712
 20
7377.283913289186
 30
0.0
 11
7489.495346517124
 21
7377.283913289186
 31
0.0
  0
LINE
  5
16DC3
330
16547
100
AcDbEntity
  8
寸法
 62
     0
 48
50.0
370
    -2
100
AcDbLine
 10
7429.495346517125
 20
7432.283913289182
 30
0.0
 11
7429.495346517125
 21
7532.283913289183
 31
0.0
  0
LINE
  5
16DC4
330
16547
100
AcDbEntity
  8
寸法
 62
     0
 48
50.0
370
    -2
100
AcDbLine
 10
7429.495346517125
 20
7377.283913289186
 30
0.0
 11
7429.495346517125
 21
6890.937165010083
 31
0.0
  0
LINE
  5
16DC5
330
16547
100
AcDbEntity
  8
寸法
 62
     0
 48
50.0
370
    -2
100
AcDbLine
 10
7429.495346517125
 20
7432.283913289182
 30
0.0
 11
7429.495346517125
 21
7377.283913289186
 31
0.0
  0
INSERT
  5
16DC6
330
16547
100
AcDbEntity
  8
寸法
 62
     0
 48
50.0
370
    -2
100
AcDbBlockReference
  2
_DOTSMALL
 10
7429.495346517125
 20
7432.283913289182
 30
0.0
 41
100.0
 42
100.0
 43
100.0
 50
270.0
  0
INSERT
  5
16DC7
330
16547
100
AcDbEntity
  8
寸法
 62
     0
 48
50.0
370
    -2
100
AcDbBlockReference
  2
_DOTSMALL
 10
7429.495346517125
 20
7377.283913289186
 30
0.0
 41
100.0
 42
100.0
 43
100.0
 50
90.0
  0
MTEXT
  5
16DC8
330
16547
100
AcDbEntity
  8
寸法
 62
     7
 48
50.0
100
AcDbMText
 10
7329.495346517122
 20
6999.422446384325
 30
0.0
 40
120.0
 41
0.0
 71
     5
 72
     1
  1
\A1;55
  7
STYLE1
 11
0.0000000000000001
 21
1.0
 31
0.0
 73
     1
 44
1.0
1001
ACAD
1000
MTEXTBEGIN
1070
    73
1070
     1
1070
    44
1040
1.0
1070
    74
1070
     0
1000
MTEXTEND
  0
POINT
  5
16DC9
330
16547
100
AcDbEntity
  8
DEFPOINTS
 62
     0
 48
50.0
100
AcDbPoint
 10
6782.069000782712
 20
7432.283913289182
 30
0.0
  0
POINT
  5
16DCA
330
16547
100
AcDbEntity
  8
DEFPOINTS
 62
     0
 48
50.0
100
AcDbPoint
 10
6782.069000782712
 20
7377.283913289186
 30
0.0
  0
POINT
  5
16DCB
330
16547
100
AcDbEntity
  8
DEFPOINTS
 62
     0
 48
50.0
100
AcDbPoint
 10
7429.495346517125
 20
7377.283913289186
 30
0.0
  0
ENDBLK
  5
1661A
330
16547
100
AcDbEntity
  8
0
 48
50.0
100
AcDbBlockEnd
  0
BLOCK
  5
1661B
330
16555
100
AcDbEntity
  8
0
 48
50.0
100
AcDbBlockBegin
  2
*D10
 70
     1
 10
0.0
 20
0.0
 30
0.0
  3
*D10
  1

  0
LINE
  5
16DB8
330
16555
100
AcDbEntity
  8
寸法
 62
     0
 48
50.0
370
    -2
100
AcDbLine
 10
5047.069000782737
 20
10447.2839132891
 30
0.0
 11
5047.069000782737
 21
10703.0921329142
 31
0.0
  0
LINE
  5
16DB9
330
16555
100
AcDbEntity
  8
寸法
 62
     0
 48
50.0
370
    -2
100
AcDbLine
 10
6727.069000782738
 20
10447.28391328919
 30
0.0
 11
6727.069000782738
 21
10703.0921329142
 31
0.0
  0
LINE
  5
16DBA
330
16555
100
AcDbEntity
  8
寸法
 62
     0
 48
50.0
370
    -2
100
AcDbLine
 10
5047.069000782737
 20
10643.0921329142
 30
0.0
 11
6727.069000782738
 21
10643.0921329142
 31
0.0
  0
INSERT
  5
16DBB
330
16555
100
AcDbEntity
  8
寸法
 62
     0
 48
50.0
370
    -2
100
AcDbBlockReference
  2
_DOTSMALL
 10
5047.069000782737
 20
10643.0921329142
 30
0.0
 41
100.0
 42
100.0
 43
100.0
 50
180.0
  0
INSERT
  5
16DBC
330
16555
100
AcDbEntity
  8
寸法
 62
     0
 48
50.0
370
    -2
100
AcDbBlockReference
  2
_DOTSMALL
 10
6727.069000782738
 20
10643.0921329142
 30
0.0
 41
100.0
 42
100.0
 43
100.0
  0
MTEXT
  5
16DBD
330
16555
100
AcDbEntity
  8
寸法
 62
     7
 48
50.0
100
AcDbMText
 10
5887.069000782737
 20
10743.10394393782
 30
0.0
 40
120.0
 41
0.0
 71
     5
 72
     1
  1
\A1;4X420=1680
  7
STYLE1
 73
     1
 44
1.0
1001
ACAD
1000
MTEXTBEGIN
1070
    73
1070
     1
1070
    44
1040
1.0
1070
    74
1070
     0
1000
MTEXTEND
  0
POINT
  5
16DBE
330
16555
100
AcDbEntity
  8
DEFPOINTS
 62
     0
 48
50.0
100
AcDbPoint
 10
5047.069000782737
 20
10427.2839132891
 30
0.0
  0
POINT
  5
16DBF
330
16555
100
AcDbEntity
  8
DEFPOINTS
 62
     0
 48
50.0
100
AcDbPoint
 10
6727.069000782738
 20
10427.28391328919
 30
0.0
  0
POINT
  5
16DC0
330
16555
100
AcDbEntity
  8
DEFPOINTS
 62
     0
 48
50.0
100
AcDbPoint
 10
6727.069000782738
 20
10643.0921329142
 30
0.0
  0
ENDBLK
  5
16625
330
16555
100
AcDbEntity
  8
0
 48
50.0
100
AcDbBlockEnd
  0
BLOCK
  5
16626
330
16561
100
AcDbEntity
  8
0
 48
50.0
100
AcDbBlockBegin
  2
*D11
 70
     1
 10
0.0
 20
0.0
 30
0.0
  3
*D11
  1

  0
LINE
  5
16DAD
330
16561
100
AcDbEntity
  8
寸法
 62
     0
 48
50.0
370
    -2
100
AcDbLine
 10
4992.069000782702
 20
10447.2839132891
 30
0.0
 11
4992.069000782702
 21
10703.09213291408
 31
0.0
  0
LINE
  5
16DAE
330
16561
100
AcDbEntity
  8
寸法
 62
     0
 48
50.0
370
    -2
100
AcDbLine
 10
5047.069000782737
 20
10447.2839132891
 30
0.0
 11
5047.069000782737
 21
10703.09213291408
 31
0.0
  0
LINE
  5
16DAF
330
16561
100
AcDbEntity
  8
寸法
 62
     0
 48
50.0
370
    -2
100
AcDbLine
 10
5047.069000782737
 20
10643.09213291408
 30
0.0
 11
5147.069000782737
 21
10643.09213291408
 31
0.0
  0
LINE
  5
16DB0
330
16561
100
AcDbEntity
  8
寸法
 62
     0
 48
50.0
370
    -2
100
AcDbLine
 10
4992.069000782702
 20
10643.09213291408
 30
0.0
 11
4575.098438034224
 21
10643.09213291408
 31
0.0
  0
LINE
  5
16DB1
330
16561
100
AcDbEntity
  8
寸法
 62
     0
 48
50.0
370
    -2
100
AcDbLine
 10
5047.069000782737
 20
10643.09213291408
 30
0.0
 11
4992.069000782702
 21
10643.09213291408
 31
0.0
  0
INSERT
  5
16DB2
330
16561
100
AcDbEntity
  8
寸法
 62
     0
 48
50.0
370
    -2
100
AcDbBlockReference
  2
_DOTSMALL
 10
5047.069000782737
 20
10643.09213291408
 30
0.0
 41
100.0
 42
100.0
 43
100.0
 50
180.0
  0
INSERT
  5
16DB3
330
16561
100
AcDbEntity
  8
寸法
 62
     0
 48
50.0
370
    -2
100
AcDbBlockReference
  2
_DOTSMALL
 10
4992.069000782702
 20
10643.09213291408
 30
0.0
 41
100.0
 42
100.0
 43
100.0
  0
MTEXT
  5
16DB4
330
16561
100
AcDbEntity
  8
寸法
 62
     7
 48
50.0
100
AcDbMText
 10
4683.583719408463
 20
10743.09213291408
 30
0.0
 40
120.0
 41
0.0
 71
     5
 72
     1
  1
\A1;55
  7
STYLE1
 73
     1
 44
1.0
1001
ACAD
1000
MTEXTBEGIN
1070
    73
1070
     1
1070
    44
1040
1.0
1070
    74
1070
     0
1000
MTEXTEND
  0
POINT
  5
16DB5
330
16561
100
AcDbEntity
  8
DEFPOINTS
 62
     0
 48
50.0
100
AcDbPoint
 10
4992.069000782702
 20
10427.2839132891
 30
0.0
  0
POINT
  5
16DB6
330
16561
100
AcDbEntity
  8
DEFPOINTS
 62
     0
 48
50.0
100
AcDbPoint
 10
5047.069000782737
 20
10427.2839132891
 30
0.0
  0
POINT
  5
16DB7
330
16561
100
AcDbEntity
  8
DEFPOINTS
 62
     0
 48
50.0
100
AcDbPoint
 10
5047.069000782737
 20
10643.09213291408
 30
0.0
  0
ENDBLK
  5
16632
330
16561
100
AcDbEntity
  8
0
 48
50.0
100
AcDbBlockEnd
  0
BLOCK
  5
16633
330
1656F
100
AcDbEntity
  8
0
 48
50.0
100
AcDbBlockBegin
  2
*D12
 70
     1
 10
0.0
 20
0.0
 30
0.0
  3
*D12
  1

  0
LINE
  5
16DA2
330
1656F
100
AcDbEntity
  8
寸法
 62
     0
 48
50.0
370
    -2
100
AcDbLine
 10
6802.069000782738
 20
10427.28391328919
 30
0.0
 11
7489.495346517149
 21
10427.28391328919
 31
0.0
  0
LINE
  5
16DA3
330
1656F
100
AcDbEntity
  8
寸法
 62
     0
 48
50.0
370
    -2
100
AcDbLine
 10
6802.069000782738
 20
10372.28391328919
 30
0.0
 11
7489.495346517149
 21
10372.28391328919
 31
0.0
  0
LINE
  5
16DA4
330
1656F
100
AcDbEntity
  8
寸法
 62
     0
 48
50.0
370
    -2
100
AcDbLine
 10
7429.495346517149
 20
10372.28391328919
 30
0.0
 11
7429.495346517149
 21
10272.28391328919
 31
0.0
  0
LINE
  5
16DA5
330
1656F
100
AcDbEntity
  8
寸法
 62
     0
 48
50.0
370
    -2
100
AcDbLine
 10
7429.495346517149
 20
10427.28391328919
 30
0.0
 11
7429.495346517149
 21
10844.25447603767
 31
0.0
  0
LINE
  5
16DA6
330
1656F
100
AcDbEntity
  8
寸法
 62
     0
 48
50.0
370
    -2
100
AcDbLine
 10
7429.495346517149
 20
10372.28391328919
 30
0.0
 11
7429.495346517149
 21
10427.28391328919
 31
0.0
  0
INSERT
  5
16DA7
330
1656F
100
AcDbEntity
  8
寸法
 62
     0
 48
50.0
370
    -2
100
AcDbBlockReference
  2
_DOTSMALL
 10
7429.495346517149
 20
10372.28391328919
 30
0.0
 41
100.0
 42
100.0
 43
100.0
 50
90.0
  0
INSERT
  5
16DA8
330
1656F
100
AcDbEntity
  8
寸法
 62
     0
 48
50.0
370
    -2
100
AcDbBlockReference
  2
_DOTSMALL
 10
7429.495346517149
 20
10427.28391328919
 30
0.0
 41
100.0
 42
100.0
 43
100.0
 50
270.0
  0
MTEXT
  5
16DA9
330
1656F
100
AcDbEntity
  8
寸法
 62
     7
 48
50.0
100
AcDbMText
 10
7329.495346517147
 20
10735.76919466343
 30
0.0
 40
120.0
 41
0.0
 71
     5
 72
     1
  1
\A1;55
  7
STYLE1
 11
0.0000000000000001
 21
1.0
 31
0.0
 73
     1
 44
1.0
1001
ACAD
1000
MTEXTBEGIN
1070
    73
1070
     1
1070
    44
1040
1.0
1070
    74
1070
     0
1000
MTEXTEND
  0
POINT
  5
16DAA
330
1656F
100
AcDbEntity
  8
DEFPOINTS
 62
     0
 48
50.0
100
AcDbPoint
 10
6782.069000782738
 20
10427.28391328919
 30
0.0
  0
POINT
  5
16DAB
330
1656F
100
AcDbEntity
  8
DEFPOINTS
 62
     0
 48
50.0
100
AcDbPoint
 10
6782.069000782738
 20
10372.28391328919
 30
0.0
  0
POINT
  5
16DAC
330
1656F
100
AcDbEntity
  8
DEFPOINTS
 62
     0
 48
50.0
100
AcDbPoint
 10
7429.495346517149
 20
10372.28391328919
 30
0.0
  0
ENDBLK
  5
1663F
330
1656F
100
AcDbEntity
  8
0
 48
50.0
100
AcDbBlockEnd
  0
BLOCK
  5
16640
330
1657D
100
AcDbEntity
  8
0
 48
50.0
100
AcDbBlockBegin
  2
*D13
 70
     1
 10
0.0
 20
0.0
 30
0.0
  3
*D13
  1

  0
LINE
  5
16D97
330
1657D
100
AcDbEntity
  8
寸法
 62
     0
 48
50.0
370
    -2
100
AcDbLine
 10
6727.069000782738
 20
10447.28391328919
 30
0.0
 11
6727.069000782738
 21
10703.09213291418
 31
0.0
  0
LINE
  5
16D98
330
1657D
100
AcDbEntity
  8
寸法
 62
     0
 48
50.0
370
    -2
100
AcDbLine
 10
6782.069000782738
 20
10447.28391328919
 30
0.0
 11
6782.069000782738
 21
10703.09213291418
 31
0.0
  0
LINE
  5
16D99
330
1657D
100
AcDbEntity
  8
寸法
 62
     0
 48
50.0
370
    -2
100
AcDbLine
 10
6727.069000782738
 20
10643.09213291418
 30
0.0
 11
6627.069000782738
 21
10643.09213291418
 31
0.0
  0
LINE
  5
16D9A
330
1657D
100
AcDbEntity
  8
寸法
 62
     0
 48
50.0
370
    -2
100
AcDbLine
 10
6782.069000782738
 20
10643.09213291418
 30
0.0
 11
7199.039563531215
 21
10643.09213291418
 31
0.0
  0
LINE
  5
16D9B
330
1657D
100
AcDbEntity
  8
寸法
 62
     0
 48
50.0
370
    -2
100
AcDbLine
 10
6727.069000782738
 20
10643.09213291418
 30
0.0
 11
6782.069000782738
 21
10643.09213291418
 31
0.0
  0
INSERT
  5
16D9C
330
1657D
100
AcDbEntity
  8
寸法
 62
     0
 48
50.0
370
    -2
100
AcDbBlockReference
  2
_DOTSMALL
 10
6727.069000782738
 20
10643.09213291418
 30
0.0
 41
100.0
 42
100.0
 43
100.0
  0
INSERT
  5
16D9D
330
1657D
100
AcDbEntity
  8
寸法
 62
     0
 48
50.0
370
    -2
100
AcDbBlockReference
  2
_DOTSMALL
 10
6782.069000782738
 20
10643.09213291418
 30
0.0
 41
100.0
 42
100.0
 43
100.0
 50
180.0
  0
MTEXT
  5
16D9E
330
1657D
100
AcDbEntity
  8
寸法
 62
     7
 48
50.0
100
AcDbMText
 10
7090.554282156976
 20
10743.09213291418
 30
0.0
 40
120.0
 41
0.0
 71
     5
 72
     1
  1
\A1;55
  7
STYLE1
 73
     1
 44
1.0
1001
ACAD
1000
MTEXTBEGIN
1070
    73
1070
     1
1070
    44
1040
1.0
1070
    74
1070
     0
1000
MTEXTEND
  0
POINT
  5
16D9F
330
1657D
100
AcDbEntity
  8
DEFPOINTS
 62
     0
 48
50.0
100
AcDbPoint
 10
6727.069000782738
 20
10427.28391328919
 30
0.0
  0
POINT
  5
16DA0
330
1657D
100
AcDbEntity
  8
DEFPOINTS
 62
     0
 48
50.0
100
AcDbPoint
 10
6782.069000782738
 20
10427.28391328919
 30
0.0
  0
POINT
  5
16DA1
330
1657D
100
AcDbEntity
  8
DEFPOINTS
 62
     0
 48
50.0
100
AcDbPoint
 10
6782.069000782738
 20
10643.09213291418
 30
0.0
  0
ENDBLK
  5
1664C
330
1657D
100
AcDbEntity
  8
0
 48
50.0
100
AcDbBlockEnd
  0
BLOCK
  5
174CE
330
174C4
100
AcDbEntity
  8
0
 48
50.0
100
AcDbBlockBegin
  2
*D14
 70
     1
 10
0.0
 20
0.0
 30
0.0
  3
*D14
  1

  0
LINE
  5
17E96
330
174C4
100
AcDbEntity
  8
寸法
 62
     0
 48
50.0
370
    -2
100
AcDbLine
 10
4942.069000782702
 20
4632.931598713268
 30
0.0
 11
4942.069000782702
 21
5278.566791659262
 31
0.0
  0
LINE
  5
17E97
330
174C4
100
AcDbEntity
  8
寸法
 62
     0
 48
50.0
370
    -2
100
AcDbLine
 10
6832.069000782701
 20
4632.931598713265
 30
0.0
 11
6832.069000782701
 21
5278.566791659262
 31
0.0
  0
LINE
  5
17E98
330
174C4
100
AcDbEntity
  8
寸法
 62
     0
 48
50.0
370
    -2
100
AcDbLine
 10
4942.069000782702
 20
5218.566791659262
 30
0.0
 11
6832.069000782701
 21
5218.566791659262
 31
0.0
  0
INSERT
  5
17E99
330
174C4
100
AcDbEntity
  8
寸法
 62
     0
 48
50.0
370
    -2
100
AcDbBlockReference
  2
_DOTSMALL
 10
4942.069000782702
 20
5218.566791659262
 30
0.0
 41
100.0
 42
100.0
 43
100.0
 50
180.0
  0
INSERT
  5
17E9A
330
174C4
100
AcDbEntity
  8
寸法
 62
     0
 48
50.0
370
    -2
100
AcDbBlockReference
  2
_DOTSMALL
 10
6832.069000782701
 20
5218.566791659262
 30
0.0
 41
100.0
 42
100.0
 43
100.0
  0
MTEXT
  5
17E9B
330
174C4
100
AcDbEntity
  8
寸法
 62
     7
 48
50.0
100
AcDbMText
 10
5887.069000782704
 20
5318.566791659262
 30
0.0
 40
120.0
 41
0.0
 71
     5
 72
     1
  1
\A1;1890
  7
STYLE1
 73
     1
 44
1.0
1001
ACAD
1000
MTEXTBEGIN
1070
    73
1070
     1
1070
    44
1040
1.0
1070
    74
1070
     0
1000
MTEXTEND
  0
POINT
  5
17E9C
330
174C4
100
AcDbEntity
  8
DEFPOINTS
 62
     0
 48
50.0
100
AcDbPoint
 10
4942.069000782702
 20
4612.931598713267
 30
0.0
  0
POINT
  5
17E9D
330
174C4
100
AcDbEntity
  8
DEFPOINTS
 62
     0
 48
50.0
100
AcDbPoint
 10
6832.069000782701
 20
4612.931598713265
 30
0.0
  0
POINT
  5
17E9E
330
174C4
100
AcDbEntity
  8
DEFPOINTS
 62
     0
 48
50.0
100
AcDbPoint
 10
6832.069000782701
 20
5218.566791659262
 30
0.0
  0
ENDBLK
  5
174CF
330
174C4
100
AcDbEntity
  8
0
 48
50.0
100
AcDbBlockEnd
  0
BLOCK
  5
174DC
330
174D0
100
AcDbEntity
  8
0
 48
50.0
100
AcDbBlockBegin
  2
*D15
 70
     1
 10
0.0
 20
0.0
 30
0.0
  3
*D15
  1

  0
LINE
  5
17E8B
330
174D0
100
AcDbEntity
  8
寸法
 62
     0
 48
50.0
370
    -2
100
AcDbLine
 10
6832.069000782701
 20
4632.931598713265
 30
0.0
 11
6832.069000782701
 21
5078.657870445172
 31
0.0
  0
LINE
  5
17E8C
330
174D0
100
AcDbEntity
  8
寸法
 62
     0
 48
50.0
370
    -2
100
AcDbLine
 10
6782.069000782704
 20
4632.931598713268
 30
0.0
 11
6782.069000782704
 21
5078.657870445172
 31
0.0
  0
LINE
  5
17E8D
330
174D0
100
AcDbEntity
  8
寸法
 62
     0
 48
50.0
370
    -2
100
AcDbLine
 10
6782.069000782704
 20
5018.657870445172
 30
0.0
 11
6682.069000782703
 21
5018.657870445172
 31
0.0
  0
LINE
  5
17E8E
330
174D0
100
AcDbEntity
  8
寸法
 62
     0
 48
50.0
370
    -2
100
AcDbLine
 10
6832.069000782701
 20
5018.657870445172
 30
0.0
 11
7251.60152625143
 21
5018.657870445172
 31
0.0
  0
LINE
  5
17E8F
330
174D0
100
AcDbEntity
  8
寸法
 62
     0
 48
50.0
370
    -2
100
AcDbLine
 10
6782.069000782704
 20
5018.657870445172
 30
0.0
 11
6832.069000782701
 21
5018.657870445172
 31
0.0
  0
INSERT
  5
17E90
330
174D0
100
AcDbEntity
  8
寸法
 62
     0
 48
50.0
370
    -2
100
AcDbBlockReference
  2
_DOTSMALL
 10
6782.069000782704
 20
5018.657870445172
 30
0.0
 41
100.0
 42
100.0
 43
100.0
  0
INSERT
  5
17E91
330
174D0
100
AcDbEntity
  8
寸法
 62
     0
 48
50.0
370
    -2
100
AcDbBlockReference
  2
_DOTSMALL
 10
6832.069000782701
 20
5018.657870445172
 30
0.0
 41
100.0
 42
100.0
 43
100.0
 50
180.0
  0
MTEXT
  5
17E92
330
174D0
100
AcDbEntity
  8
寸法
 62
     7
 48
50.0
100
AcDbMText
 10
7145.554282156941
 20
5118.657870445172
 30
0.0
 40
120.0
 41
0.0
 71
     5
 72
     1
  1
\A1;50
  7
STYLE1
 73
     1
 44
1.0
1001
ACAD
1000
MTEXTBEGIN
1070
    73
1070
     1
1070
    44
1040
1.0
1070
    74
1070
     0
1000
MTEXTEND
  0
POINT
  5
17E93
330
174D0
100
AcDbEntity
  8
DEFPOINTS
 62
     0
 48
50.0
100
AcDbPoint
 10
6832.069000782701
 20
4612.931598713265
 30
0.0
  0
POINT
  5
17E94
330
174D0
100
AcDbEntity
  8
DEFPOINTS
 62
     0
 48
50.0
100
AcDbPoint
 10
6782.069000782704
 20
4612.931598713267
 30
0.0
  0
POINT
  5
17E95
330
174D0
100
AcDbEntity
  8
DEFPOINTS
 62
     0
 48
50.0
100
AcDbPoint
 10
6782.069000782704
 20
5018.657870445172
 30
0.0
  0
ENDBLK
  5
174DD
330
174D0
100
AcDbEntity
  8
0
 48
50.0
100
AcDbBlockEnd
  0
BLOCK
  5
174EA
330
174DE
100
AcDbEntity
  8
0
 48
50.0
100
AcDbBlockBegin
  2
*D16
 70
     1
 10
0.0
 20
0.0
 30
0.0
  3
*D16
  1

  0
LINE
  5
17E80
330
174DE
100
AcDbEntity
  8
寸法
 62
     0
 48
50.0
370
    -2
100
AcDbLine
 10
4992.069000782702
 20
4632.931598713269
 30
0.0
 11
4992.069000782702
 21
5078.657870445172
 31
0.0
  0
LINE
  5
17E81
330
174DE
100
AcDbEntity
  8
寸法
 62
     0
 48
50.0
370
    -2
100
AcDbLine
 10
4942.069000782702
 20
4632.931598713268
 30
0.0
 11
4942.069000782702
 21
5078.657870445172
 31
0.0
  0
LINE
  5
17E82
330
174DE
100
AcDbEntity
  8
寸法
 62
     0
 48
50.0
370
    -2
100
AcDbLine
 10
4992.069000782702
 20
5018.657870445172
 30
0.0
 11
5092.069000782703
 21
5018.657870445172
 31
0.0
  0
LINE
  5
17E83
330
174DE
100
AcDbEntity
  8
寸法
 62
     0
 48
50.0
370
    -2
100
AcDbLine
 10
4942.069000782702
 20
5018.657870445172
 30
0.0
 11
4522.536475313966
 21
5018.657870445172
 31
0.0
  0
LINE
  5
17E84
330
174DE
100
AcDbEntity
  8
寸法
 62
     0
 48
50.0
370
    -2
100
AcDbLine
 10
4992.069000782702
 20
5018.657870445172
 30
0.0
 11
4942.069000782702
 21
5018.657870445172
 31
0.0
  0
INSERT
  5
17E85
330
174DE
100
AcDbEntity
  8
寸法
 62
     0
 48
50.0
370
    -2
100
AcDbBlockReference
  2
_DOTSMALL
 10
4992.069000782702
 20
5018.657870445172
 30
0.0
 41
100.0
 42
100.0
 43
100.0
 50
180.0
  0
INSERT
  5
17E86
330
174DE
100
AcDbEntity
  8
寸法
 62
     0
 48
50.0
370
    -2
100
AcDbBlockReference
  2
_DOTSMALL
 10
4942.069000782702
 20
5018.657870445172
 30
0.0
 41
100.0
 42
100.0
 43
100.0
  0
MTEXT
  5
17E87
330
174DE
100
AcDbEntity
  8
寸法
 62
     7
 48
50.0
100
AcDbMText
 10
4628.583719408455
 20
5118.657870445172
 30
0.0
 40
120.0
 41
0.0
 71
     5
 72
     1
  1
\A1;50
  7
STYLE1
 73
     1
 44
1.0
1001
ACAD
1000
MTEXTBEGIN
1070
    73
1070
     1
1070
    44
1040
1.0
1070
    74
1070
     0
1000
MTEXTEND
  0
POINT
  5
17E88
330
174DE
100
AcDbEntity
  8
DEFPOINTS
 62
     0
 48
50.0
100
AcDbPoint
 10
4992.069000782702
 20
4612.931598713268
 30
0.0
  0
POINT
  5
17E89
330
174DE
100
AcDbEntity
  8
DEFPOINTS
 62
     0
 48
50.0
100
AcDbPoint
 10
4942.069000782702
 20
4612.931598713267
 30
0.0
  0
POINT
  5
17E8A
330
174DE
100
AcDbEntity
  8
DEFPOINTS
 62
     0
 48
50.0
100
AcDbPoint
 10
4942.069000782702
 20
5018.657870445172
 30
0.0
  0
ENDBLK
  5
174EB
330
174DE
100
AcDbEntity
  8
0
 48
50.0
100
AcDbBlockEnd
  0
BLOCK
  5
174F6
330
174EC
100
AcDbEntity
  8
0
 48
50.0
100
AcDbBlockBegin
  2
*D17
 70
     1
 10
0.0
 20
0.0
 30
0.0
  3
*D17
  1

  0
LINE
  5
17E77
330
174EC
100
AcDbEntity
  8
寸法
 62
     0
 48
50.0
370
    -2
100
AcDbLine
 10
6782.069000782704
 20
4632.931598713268
 30
0.0
 11
6782.069000782704
 21
5078.657870445172
 31
0.0
  0
LINE
  5
17E78
330
174EC
100
AcDbEntity
  8
寸法
 62
     0
 48
50.0
370
    -2
100
AcDbLine
 10
4992.069000782702
 20
4632.931598713269
 30
0.0
 11
4992.069000782702
 21
5078.657870445172
 31
0.0
  0
LINE
  5
17E79
330
174EC
100
AcDbEntity
  8
寸法
 62
     0
 48
50.0
370
    -2
100
AcDbLine
 10
6782.069000782704
 20
5018.657870445172
 30
0.0
 11
4992.069000782702
 21
5018.657870445172
 31
0.0
  0
INSERT
  5
17E7A
330
174EC
100
AcDbEntity
  8
寸法
 62
     0
 48
50.0
370
    -2
100
AcDbBlockReference
  2
_DOTSMALL
 10
6782.069000782704
 20
5018.657870445172
 30
0.0
 41
100.0
 42
100.0
 43
100.0
  0
INSERT
  5
17E7B
330
174EC
100
AcDbEntity
  8
寸法
 62
     0
 48
50.0
370
    -2
100
AcDbBlockReference
  2
_DOTSMALL
 10
4992.069000782702
 20
5018.657870445172
 30
0.0
 41
100.0
 42
100.0
 43
100.0
 50
180.0
  0
MTEXT
  5
17E7C
330
174EC
100
AcDbEntity
  8
寸法
 62
     7
 48
50.0
100
AcDbMText
 10
5887.069000782704
 20
5118.657870445172
 30
0.0
 40
120.0
 41
0.0
 71
     5
 72
     1
  1
\A1;柱外寸法1790
  7
STYLE1
 73
     1
 44
1.0
1001
ACAD
1000
MTEXTBEGIN
1070
    73
1070
     1
1070
    44
1040
1.0
1070
    74
1070
     0
1000
MTEXTEND
  0
POINT
  5
17E7D
330
174EC
100
AcDbEntity
  8
DEFPOINTS
 62
     0
 48
50.0
100
AcDbPoint
 10
6782.069000782704
 20
4612.931598713267
 30
0.0
  0
POINT
  5
17E7E
330
174EC
100
AcDbEntity
  8
DEFPOINTS
 62
     0
 48
50.0
100
AcDbPoint
 10
4992.069000782702
 20
4612.931598713268
 30
0.0
  0
POINT
  5
17E7F
330
174EC
100
AcDbEntity
  8
DEFPOINTS
 62
     0
 48
50.0
100
AcDbPoint
 10
4992.069000782702
 20
5018.657870445172
 30
0.0
  0
ENDBLK
  5
174F7
330
174EC
100
AcDbEntity
  8
0
 48
50.0
100
AcDbBlockEnd
  0
BLOCK
  5
17BCB
330
17BC0
100
AcDbEntity
  8
0
 48
50.0
100
AcDbBlockBegin
  2
*D18
 70
     1
 10
0.0
 20
0.0
 30
0.0
  3
*D18
  1

  0
LINE
  5
17DF6
330
17BC0
100
AcDbEntity
  8
寸法
 62
     0
 48
50.0
370
    -2
100
AcDbLine
 10
9412.309178016235
 20
4612.229305782923
 30
0.0
 11
8796.374738910943
 21
4629.943456057253
 31
0.0
  0
LINE
  5
17DF7
330
17BC0
100
AcDbEntity
  8
寸法
 62
     0
 48
50.0
370
    -2
100
AcDbLine
 10
9408.255722459605
 20
4471.28758201721
 30
0.0
 11
8792.321283354317
 21
4489.00173229154
 31
0.0
  0
LINE
  5
17DF8
330
17BC0
100
AcDbEntity
  8
寸法
 62
     0
 48
50.0
370
    -2
100
AcDbLine
 10
8852.296484956749
 20
4487.276857586593
 30
0.0
 11
8856.349940513375
 21
4628.218581352306
 31
0.0
  0
LINE
  5
17DF9
330
17BC0
100
AcDbEntity
  8
寸法
 62
     0
 48
50.0
370
    -2
100
AcDbLine
 10
8856.349940513375
 20
4628.218581352306
 30
0.0
 11
8866.69918874306
 21
4988.069790966894
 31
0.0
  0
INSERT
  5
17DFA
330
17BC0
100
AcDbEntity
  8
寸法
 62
     0
 48
50.0
370
    -2
100
AcDbBlockReference
  2
_DOTSMALL
 10
8852.296484956749
 20
4487.276857586593
 30
0.0
 41
100.0
 42
100.0
 43
100.0
 50
268.3526390256378
  0
INSERT
  5
17DFB
330
17BC0
100
AcDbEntity
  8
寸法
 62
     0
 48
50.0
370
    -2
100
AcDbBlockReference
  2
_DOTSMALL
 10
8856.349940513375
 20
4628.218581352306
 30
0.0
 41
100.0
 42
100.0
 43
100.0
 50
88.35263902563776
  0
MTEXT
  5
17DFC
330
17BC0
100
AcDbEntity
  8
寸法
 62
     7
 48
50.0
100
AcDbMText
 10
8763.003290878286
 20
4860.998312003207
 30
0.0
 40
120.0
 41
0.0
 71
     5
 72
     1
  1
\A1;141
  7
STYLE1
 11
0.0287479117491237
 21
0.9995866933738488
 31
0.0
 73
     1
 44
1.0
1001
ACAD
1000
MTEXTBEGIN
1070
    73
1070
     1
1070
    44
1040
1.0
1070
    74
1070
     0
1000
MTEXTEND
  0
POINT
  5
17DFD
330
17BC0
100
AcDbEntity
  8
DEFPOINTS
 62
     0
 48
50.0
100
AcDbPoint
 10
9432.300911883711
 20
4611.65434754794
 30
0.0
  0
POINT
  5
17DFE
330
17BC0
100
AcDbEntity
  8
DEFPOINTS
 62
     0
 48
50.0
100
AcDbPoint
 10
9428.247456327083
 20
4470.712623782228
 30
0.0
  0
POINT
  5
17DFF
330
17BC0
100
AcDbEntity
  8
DEFPOINTS
 62
     0
 48
50.0
100
AcDbPoint
 10
8852.296484956749
 20
4487.276857586593
 30
0.0
  0
ENDBLK
  5
17BCC
330
17BC0
100
AcDbEntity
  8
0
 48
50.0
100
AcDbBlockEnd
  0
BLOCK
  5
17BD8
330
17BCD
100
AcDbEntity
  8
0
 48
50.0
100
AcDbBlockBegin
  2
*D19
 70
     1
 10
0.0
 20
0.0
 30
0.0
  3
*D19
  1

  0
LINE
  5
17DEC
330
17BCD
100
AcDbEntity
  8
寸法
 62
     0
 48
50.0
370
    -2
100
AcDbLine
 10
12522.90489172513
 20
4579.742278324917
 30
0.0
 11
12522.90489172513
 21
5071.589052292567
 31
0.0
  0
LINE
  5
17DED
330
17BCD
100
AcDbEntity
  8
寸法
 62
     0
 48
50.0
370
    -2
100
AcDbLine
 10
12602.90489172513
 20
4577.931598713265
 30
0.0
 11
12602.90489172513
 21
5071.589052292567
 31
0.0
  0
LINE
  5
17DEE
330
17BCD
100
AcDbEntity
  8
寸法
 62
     0
 48
50.0
370
    -2
100
AcDbLine
 10
12522.90489172513
 20
5011.589052292567
 30
0.0
 11
12602.90489172513
 21
5011.589052292567
 31
0.0
  0
LINE
  5
17DEF
330
17BCD
100
AcDbEntity
  8
寸法
 62
     0
 48
50.0
370
    -2
100
AcDbLine
 10
12602.90489172513
 20
5011.589052292567
 30
0.0
 11
12914.99937991411
 21
5011.589052292567
 31
0.0
  0
INSERT
  5
17DF0
330
17BCD
100
AcDbEntity
  8
寸法
 62
     0
 48
50.0
370
    -2
100
AcDbBlockReference
  2
_DOTSMALL
 10
12522.90489172513
 20
5011.589052292567
 30
0.0
 41
100.0
 42
100.0
 43
100.0
 50
180.0
  0
INSERT
  5
17DF1
330
17BCD
100
AcDbEntity
  8
寸法
 62
     0
 48
50.0
370
    -2
100
AcDbBlockReference
  2
_DOTSMALL
 10
12602.90489172513
 20
5011.589052292567
 30
0.0
 41
100.0
 42
100.0
 43
100.0
  0
MTEXT
  5
17DF2
330
17BCD
100
AcDbEntity
  8
寸法
 62
     7
 48
50.0
100
AcDbMText
 10
12808.95213581962
 20
5111.589052292567
 30
0.0
 40
120.0
 41
0.0
 71
     5
 72
     1
  1
\A1;80
  7
STYLE1
 73
     1
 44
1.0
1001
ACAD
1000
MTEXTBEGIN
1070
    73
1070
     1
1070
    44
1040
1.0
1070
    74
1070
     0
1000
MTEXTEND
  0
POINT
  5
17DF3
330
17BCD
100
AcDbEntity
  8
DEFPOINTS
 62
     0
 48
50.0
100
AcDbPoint
 10
12522.90489172513
 20
4559.742278324916
 30
0.0
  0
POINT
  5
17DF4
330
17BCD
100
AcDbEntity
  8
DEFPOINTS
 62
     0
 48
50.0
100
AcDbPoint
 10
12602.90489172513
 20
4557.931598713265
 30
0.0
  0
POINT
  5
17DF5
330
17BCD
100
AcDbEntity
  8
DEFPOINTS
 62
     0
 48
50.0
100
AcDbPoint
 10
12602.90489172513
 20
5011.589052292567
 30
0.0
  0
ENDBLK
  5
17BD9
330
17BCD
100
AcDbEntity
  8
0
 48
50.0
100
AcDbBlockEnd
  0
BLOCK
  5
17BE4
330
17BDA
100
AcDbEntity
  8
0
 48
50.0
100
AcDbBlockBegin
  2
*D20
 70
     1
 10
0.0
 20
0.0
 30
0.0
  3
*D20
  1

  0
LINE
  5
18152
330
17BDA
100
AcDbEntity
  8
寸法
 62
     0
 48
50.0
370
    -2
100
AcDbLine
 10
12602.90489172513
 20
4577.931598713263
 30
0.0
 11
12602.90489172513
 21
5301.702645078844
 31
0.0
  0
LINE
  5
18153
330
17BDA
100
AcDbEntity
  8
寸法
 62
     0
 48
50.0
370
    -2
100
AcDbLine
 10
9412.904891725132
 20
4632.931598713265
 30
0.0
 11
9412.904891725132
 21
5301.702645078844
 31
0.0
  0
LINE
  5
18154
330
17BDA
100
AcDbEntity
  8
寸法
 62
     0
 48
50.0
370
    -2
100
AcDbLine
 10
12602.90489172513
 20
5241.702645078843
 30
0.0
 11
9412.904891725132
 21
5241.702645078843
 31
0.0
  0
INSERT
  5
18155
330
17BDA
100
AcDbEntity
  8
寸法
 62
     0
 48
50.0
370
    -2
100
AcDbBlockReference
  2
_DOTSMALL
 10
12602.90489172513
 20
5241.702645078843
 30
0.0
 41
100.0
 42
100.0
 43
100.0
  0
INSERT
  5
18156
330
17BDA
100
AcDbEntity
  8
寸法
 62
     0
 48
50.0
370
    -2
100
AcDbBlockReference
  2
_DOTSMALL
 10
9412.904891725132
 20
5241.702645078843
 30
0.0
 41
100.0
 42
100.0
 43
100.0
 50
180.0
  0
MTEXT
  5
18157
330
17BDA
100
AcDbEntity
  8
寸法
 62
     7
 48
50.0
100
AcDbMText
 10
11007.90489172513
 20
5341.702645078843
 30
0.0
 40
120.0
 41
0.0
 71
     5
 72
     1
  1
\A1;3190
  7
STYLE1
 73
     1
 44
1.0
1001
ACAD
1000
MTEXTBEGIN
1070
    73
1070
     1
1070
    44
1040
1.0
1070
    74
1070
     0
1000
MTEXTEND
  0
POINT
  5
18158
330
17BDA
100
AcDbEntity
  8
DEFPOINTS
 62
     0
 48
50.0
100
AcDbPoint
 10
12602.90489172513
 20
4557.931598713262
 30
0.0
  0
POINT
  5
18159
330
17BDA
100
AcDbEntity
  8
DEFPOINTS
 62
     0
 48
50.0
100
AcDbPoint
 10
9412.904891725132
 20
4612.931598713266
 30
0.0
  0
POINT
  5
1815A
330
17BDA
100
AcDbEntity
  8
DEFPOINTS
 62
     0
 48
50.0
100
AcDbPoint
 10
9412.904891725132
 20
5241.702645078843
 30
0.0
  0
ENDBLK
  5
17BE5
330
17BDA
100
AcDbEntity
  8
0
 48
50.0
100
AcDbBlockEnd
  0
BLOCK
  5
17BF2
330
17BE6
100
AcDbEntity
  8
0
 48
50.0
100
AcDbBlockBegin
  2
*D21
 70
     1
 10
0.0
 20
0.0
 30
0.0
  3
*D21
  1

  0
LINE
  5
17DD8
330
17BE6
100
AcDbEntity
  8
寸法
 62
     0
 48
50.0
370
    -2
100
AcDbLine
 10
9472.904891725132
 20
4628.933216836237
 30
0.0
 11
9472.904891725132
 21
5071.589052292566
 31
0.0
  0
LINE
  5
17DD9
330
17BE6
100
AcDbEntity
  8
寸法
 62
     0
 48
50.0
370
    -2
100
AcDbLine
 10
9412.904891725132
 20
4632.931598713265
 30
0.0
 11
9412.904891725132
 21
5071.589052292566
 31
0.0
  0
LINE
  5
17DDA
330
17BE6
100
AcDbEntity
  8
寸法
 62
     0
 48
50.0
370
    -2
100
AcDbLine
 10
9472.904891725132
 20
5011.589052292566
 30
0.0
 11
9572.904891725132
 21
5011.589052292566
 31
0.0
  0
LINE
  5
17DDB
330
17BE6
100
AcDbEntity
  8
寸法
 62
     0
 48
50.0
370
    -2
100
AcDbLine
 10
9412.904891725132
 20
5011.589052292566
 30
0.0
 11
8993.629301173951
 21
5011.589052292566
 31
0.0
  0
LINE
  5
17DDC
330
17BE6
100
AcDbEntity
  8
寸法
 62
     0
 48
50.0
370
    -2
100
AcDbLine
 10
9472.904891725132
 20
5011.589052292566
 30
0.0
 11
9412.904891725132
 21
5011.589052292566
 31
0.0
  0
INSERT
  5
17DDD
330
17BE6
100
AcDbEntity
  8
寸法
 62
     0
 48
50.0
370
    -2
100
AcDbBlockReference
  2
_DOTSMALL
 10
9472.904891725132
 20
5011.589052292566
 30
0.0
 41
100.0
 42
100.0
 43
100.0
 50
180.0
  0
INSERT
  5
17DDE
330
17BE6
100
AcDbEntity
  8
寸法
 62
     0
 48
50.0
370
    -2
100
AcDbBlockReference
  2
_DOTSMALL
 10
9412.904891725132
 20
5011.589052292566
 30
0.0
 41
100.0
 42
100.0
 43
100.0
  0
MTEXT
  5
17DDF
330
17BE6
100
AcDbEntity
  8
寸法
 62
     7
 48
50.0
100
AcDbMText
 10
9103.26709644954
 20
5111.589052292566
 30
0.0
 40
120.0
 41
0.0
 71
     5
 72
     1
  1
\A1;60
  7
STYLE1
 73
     1
 44
1.0
1001
ACAD
1000
MTEXTBEGIN
1070
    73
1070
     1
1070
    44
1040
1.0
1070
    74
1070
     0
1000
MTEXTEND
  0
POINT
  5
17DE0
330
17BE6
100
AcDbEntity
  8
DEFPOINTS
 62
     0
 48
50.0
100
AcDbPoint
 10
9472.904891725132
 20
4608.933216836238
 30
0.0
  0
POINT
  5
17DE1
330
17BE6
100
AcDbEntity
  8
DEFPOINTS
 62
     0
 48
50.0
100
AcDbPoint
 10
9412.904891725132
 20
4612.931598713266
 30
0.0
  0
POINT
  5
17DE2
330
17BE6
100
AcDbEntity
  8
DEFPOINTS
 62
     0
 48
50.0
100
AcDbPoint
 10
9412.904891725132
 20
5011.589052292566
 30
0.0
  0
ENDBLK
  5
17BF3
330
17BE6
100
AcDbEntity
  8
0
 48
50.0
100
AcDbBlockEnd
  0
BLOCK
  5
17BFE
330
17BF4
100
AcDbEntity
  8
0
 48
50.0
100
AcDbBlockBegin
  2
*D22
 70
     1
 10
0.0
 20
0.0
 30
0.0
  3
*D22
  1

  0
LINE
  5
1815B
330
17BF4
100
AcDbEntity
  8
寸法
 62
     0
 48
50.0
370
    -2
100
AcDbLine
 10
12522.90489172513
 20
4579.742278324917
 30
0.0
 11
12522.90489172513
 21
5071.589052292567
 31
0.0
  0
LINE
  5
1815C
330
17BF4
100
AcDbEntity
  8
寸法
 62
     0
 48
50.0
370
    -2
100
AcDbLine
 10
9472.904891725132
 20
4628.933216836237
 30
0.0
 11
9472.904891725132
 21
5071.589052292567
 31
0.0
  0
LINE
  5
1815D
330
17BF4
100
AcDbEntity
  8
寸法
 62
     0
 48
50.0
370
    -2
100
AcDbLine
 10
12522.90489172513
 20
5011.589052292567
 30
0.0
 11
9472.904891725132
 21
5011.589052292567
 31
0.0
  0
INSERT
  5
1815E
330
17BF4
100
AcDbEntity
  8
寸法
 62
     0
 48
50.0
370
    -2
100
AcDbBlockReference
  2
_DOTSMALL
 10
12522.90489172513
 20
5011.589052292567
 30
0.0
 41
100.0
 42
100.0
 43
100.0
  0
INSERT
  5
1815F
330
17BF4
100
AcDbEntity
  8
寸法
 62
     0
 48
50.0
370
    -2
100
AcDbBlockReference
  2
_DOTSMALL
 10
9472.904891725132
 20
5011.589052292567
 30
0.0
 41
100.0
 42
100.0
 43
100.0
 50
180.0
  0
MTEXT
  5
18160
330
17BF4
100
AcDbEntity
  8
寸法
 62
     7
 48
50.0
100
AcDbMText
 10
10997.90489172513
 20
5111.589052292567
 30
0.0
 40
120.0
 41
0.0
 71
     5
 72
     1
  1
\A1;柱外寸法3050
  7
STYLE1
 73
     1
 44
1.0
1001
ACAD
1000
MTEXTBEGIN
1070
    73
1070
     1
1070
    44
1040
1.0
1070
    74
1070
     0
1000
MTEXTEND
  0
POINT
  5
18161
330
17BF4
100
AcDbEntity
  8
DEFPOINTS
 62
     0
 48
50.0
100
AcDbPoint
 10
12522.90489172513
 20
4559.742278324916
 30
0.0
  0
POINT
  5
18162
330
17BF4
100
AcDbEntity
  8
DEFPOINTS
 62
     0
 48
50.0
100
AcDbPoint
 10
9472.904891725132
 20
4608.933216836238
 30
0.0
  0
POINT
  5
18163
330
17BF4
100
AcDbEntity
  8
DEFPOINTS
 62
     0
 48
50.0
100
AcDbPoint
 10
9472.904891725132
 20
5011.589052292567
 30
0.0
  0
ENDBLK
  5
17BFF
330
17BF4
100
AcDbEntity
  8
0
 48
50.0
100
AcDbBlockEnd
  0
BLOCK
  5
17C0C
330
17C00
100
AcDbEntity
  8
0
 48
50.0
100
AcDbBlockBegin
  2
*D23
 70
     1
 10
0.0
 20
0.0
 30
0.0
  3
*D23
  1

  0
LINE
  5
17DC4
330
17C00
100
AcDbEntity
  8
寸法
 62
     0
 48
50.0
370
    -2
100
AcDbLine
 10
9452.904891725131
 20
2587.931598713261
 30
0.0
 11
8569.154762541872
 21
2587.931598713262
 31
0.0
  0
LINE
  5
17DC5
330
17C00
100
AcDbEntity
  8
寸法
 62
     0
 48
50.0
370
    -2
100
AcDbLine
 10
9397.904891725131
 20
2537.931598713262
 30
0.0
 11
8569.154762541872
 21
2537.931598713262
 31
0.0
  0
LINE
  5
17DC6
330
17C00
100
AcDbEntity
  8
寸法
 62
     0
 48
50.0
370
    -2
100
AcDbLine
 10
8629.154762541871
 20
2587.931598713262
 30
0.0
 11
8629.154762541871
 21
2687.931598713262
 31
0.0
  0
LINE
  5
17DC7
330
17C00
100
AcDbEntity
  8
寸法
 62
     0
 48
50.0
370
    -2
100
AcDbLine
 10
8629.154762541871
 20
2537.931598713262
 30
0.0
 11
8629.154762541871
 21
2125.837110524283
 31
0.0
  0
LINE
  5
17DC8
330
17C00
100
AcDbEntity
  8
寸法
 62
     0
 48
50.0
370
    -2
100
AcDbLine
 10
8629.154762541871
 20
2587.931598713262
 30
0.0
 11
8629.154762541871
 21
2537.931598713262
 31
0.0
  0
INSERT
  5
17DC9
330
17C00
100
AcDbEntity
  8
寸法
 62
     0
 48
50.0
370
    -2
100
AcDbBlockReference
  2
_DOTSMALL
 10
8629.154762541871
 20
2587.931598713262
 30
0.0
 41
100.0
 42
100.0
 43
100.0
 50
270.0
  0
INSERT
  5
17DCA
330
17C00
100
AcDbEntity
  8
寸法
 62
     0
 48
50.0
370
    -2
100
AcDbBlockReference
  2
_DOTSMALL
 10
8629.154762541871
 20
2537.931598713262
 30
0.0
 41
100.0
 42
100.0
 43
100.0
 50
90.0
  0
MTEXT
  5
17DCB
330
17C00
100
AcDbEntity
  8
寸法
 62
     7
 48
50.0
100
AcDbMText
 10
8529.154762541871
 20
2231.884354618773
 30
0.0
 40
120.0
 41
0.0
 71
     5
 72
     1
  1
\A1;50
  7
STYLE1
 11
0.0000000000000001
 21
1.0
 31
0.0
 73
     1
 44
1.0
1001
ACAD
1000
MTEXTBEGIN
1070
    73
1070
     1
1070
    44
1040
1.0
1070
    74
1070
     0
1000
MTEXTEND
  0
POINT
  5
17DCC
330
17C00
100
AcDbEntity
  8
DEFPOINTS
 62
     0
 48
50.0
100
AcDbPoint
 10
9472.904891725132
 20
2587.931598713261
 30
0.0
  0
POINT
  5
17DCD
330
17C00
100
AcDbEntity
  8
DEFPOINTS
 62
     0
 48
50.0
100
AcDbPoint
 10
9417.904891725131
 20
2537.931598713262
 30
0.0
  0
POINT
  5
17DCE
330
17C00
100
AcDbEntity
  8
DEFPOINTS
 62
     0
 48
50.0
100
AcDbPoint
 10
8629.154762541871
 20
2537.931598713262
 30
0.0
  0
ENDBLK
  5
17C0D
330
17C00
100
AcDbEntity
  8
0
 48
50.0
100
AcDbBlockEnd
  0
BLOCK
  5
17C18
330
17C0E
100
AcDbEntity
  8
0
 48
50.0
100
AcDbBlockBegin
  2
*D24
 70
     1
 10
0.0
 20
0.0
 30
0.0
  3
*D24
  1

  0
LINE
  5
17DBB
330
17C0E
100
AcDbEntity
  8
寸法
 62
     0
 48
50.0
370
    -2
100
AcDbLine
 10
12542.90489172513
 20
2537.931598713263
 30
0.0
 11
13287.83204969725
 21
2537.931598713263
 31
0.0
  0
LINE
  5
17DBC
330
17C0E
100
AcDbEntity
  8
寸法
 62
     0
 48
50.0
370
    -2
100
AcDbLine
 10
12622.90489172513
 20
4557.931598713262
 30
0.0
 11
13287.83204969725
 21
4557.931598713262
 31
0.0
  0
LINE
  5
17DBD
330
17C0E
100
AcDbEntity
  8
寸法
 62
     0
 48
50.0
370
    -2
100
AcDbLine
 10
13227.83204969725
 20
2537.931598713263
 30
0.0
 11
13227.83204969725
 21
4557.931598713262
 31
0.0
  0
INSERT
  5
17DBE
330
17C0E
100
AcDbEntity
  8
寸法
 62
     0
 48
50.0
370
    -2
100
AcDbBlockReference
  2
_DOTSMALL
 10
13227.83204969725
 20
2537.931598713263
 30
0.0
 41
100.0
 42
100.0
 43
100.0
 50
270.0
  0
INSERT
  5
17DBF
330
17C0E
100
AcDbEntity
  8
寸法
 62
     0
 48
50.0
370
    -2
100
AcDbBlockReference
  2
_DOTSMALL
 10
13227.83204969725
 20
4557.931598713262
 30
0.0
 41
100.0
 42
100.0
 43
100.0
 50
90.0
  0
MTEXT
  5
17DC0
330
17C0E
100
AcDbEntity
  8
寸法
 62
     7
 48
50.0
100
AcDbMText
 10
13127.82023867363
 20
3547.931598713265
 30
0.0
 40
120.0
 41
0.0
 71
     5
 72
     1
  1
\A1;2020
  7
STYLE1
 11
0.0000000000000001
 21
1.0
 31
0.0
 73
     1
 44
1.0
1001
ACAD
1000
MTEXTBEGIN
1070
    73
1070
     1
1070
    44
1040
1.0
1070
    74
1070
     0
1000
MTEXTEND
  0
POINT
  5
17DC1
330
17C0E
100
AcDbEntity
  8
DEFPOINTS
 62
     0
 48
50.0
100
AcDbPoint
 10
12522.90489172513
 20
2537.931598713263
 30
0.0
  0
POINT
  5
17DC2
330
17C0E
100
AcDbEntity
  8
DEFPOINTS
 62
     0
 48
50.0
100
AcDbPoint
 10
12602.90489172513
 20
4557.931598713262
 30
0.0
  0
POINT
  5
17DC3
330
17C0E
100
AcDbEntity
  8
DEFPOINTS
 62
     0
 48
50.0
100
AcDbPoint
 10
13227.83204969725
 20
4557.931598713262
 30
0.0
  0
ENDBLK
  5
17C19
330
17C0E
100
AcDbEntity
  8
0
 48
50.0
100
AcDbBlockEnd
  0
BLOCK
  5
17C24
330
17C1A
100
AcDbEntity
  8
0
 48
50.0
100
AcDbBlockBegin
  2
*D25
 70
     1
 10
0.0
 20
0.0
 30
0.0
  3
*D25
  1

  0
LINE
  5
17DB2
330
17C1A
100
AcDbEntity
  8
寸法
 62
     0
 48
50.0
370
    -2
100
AcDbLine
 10
9452.904891725131
 20
2537.931598713256
 30
0.0
 11
8269.154762541869
 21
2537.931598713257
 31
0.0
  0
LINE
  5
17DB3
330
17C1A
100
AcDbEntity
  8
寸法
 62
     0
 48
50.0
370
    -2
100
AcDbLine
 10
9392.90489172513
 20
4612.931598713261
 30
0.0
 11
8269.154762541871
 21
4612.931598713261
 31
0.0
  0
LINE
  5
17DB4
330
17C1A
100
AcDbEntity
  8
寸法
 62
     0
 48
50.0
370
    -2
100
AcDbLine
 10
8329.15476254187
 20
2537.931598713257
 30
0.0
 11
8329.154762541872
 21
4612.931598713261
 31
0.0
  0
INSERT
  5
17DB5
330
17C1A
100
AcDbEntity
  8
寸法
 62
     0
 48
50.0
370
    -2
100
AcDbBlockReference
  2
_DOTSMALL
 10
8329.15476254187
 20
2537.931598713257
 30
0.0
 41
100.0
 42
100.0
 43
100.0
 50
270.0
  0
INSERT
  5
17DB6
330
17C1A
100
AcDbEntity
  8
寸法
 62
     0
 48
50.0
370
    -2
100
AcDbBlockReference
  2
_DOTSMALL
 10
8329.154762541872
 20
4612.931598713261
 30
0.0
 41
100.0
 42
100.0
 43
100.0
 50
90.0
  0
MTEXT
  5
17DB7
330
17C1A
100
AcDbEntity
  8
寸法
 62
     7
 48
50.0
100
AcDbMText
 10
8229.142951518248
 20
3575.43159871326
 30
0.0
 40
120.0
 41
0.0
 71
     5
 72
     1
  1
\A1;2075
  7
STYLE1
 11
0.0000000000000001
 21
1.0
 31
0.0
 73
     1
 44
1.0
1001
ACAD
1000
MTEXTBEGIN
1070
    73
1070
     1
1070
    44
1040
1.0
1070
    74
1070
     0
1000
MTEXTEND
  0
POINT
  5
17DB8
330
17C1A
100
AcDbEntity
  8
DEFPOINTS
 62
     0
 48
50.0
100
AcDbPoint
 10
9472.904891725132
 20
2537.931598713256
 30
0.0
  0
POINT
  5
17DB9
330
17C1A
100
AcDbEntity
  8
DEFPOINTS
 62
     0
 48
50.0
100
AcDbPoint
 10
9412.904891725132
 20
4612.931598713261
 30
0.0
  0
POINT
  5
17DBA
330
17C1A
100
AcDbEntity
  8
DEFPOINTS
 62
     0
 48
50.0
100
AcDbPoint
 10
8329.154762541872
 20
4612.931598713261
 30
0.0
  0
ENDBLK
  5
17C25
330
17C1A
100
AcDbEntity
  8
0
 48
50.0
100
AcDbBlockEnd
  0
BLOCK
  5
17C30
330
17C26
100
AcDbEntity
  8
0
 48
50.0
100
AcDbBlockBegin
  2
*D26
 70
     1
 10
0.0
 20
0.0
 30
0.0
  3
*D26
  1

  0
LINE
  5
17DA9
330
17C26
100
AcDbEntity
  8
寸法
 62
     0
 48
50.0
370
    -2
100
AcDbLine
 10
9452.904891725131
 20
4377.931598713257
 30
0.0
 11
8569.154762541874
 21
4377.931598713257
 31
0.0
  0
LINE
  5
17DAA
330
17C26
100
AcDbEntity
  8
寸法
 62
     0
 48
50.0
370
    -2
100
AcDbLine
 10
9452.904891725131
 20
2587.931598713256
 30
0.0
 11
8569.154762541872
 21
2587.931598713256
 31
0.0
  0
LINE
  5
17DAB
330
17C26
100
AcDbEntity
  8
寸法
 62
     0
 48
50.0
370
    -2
100
AcDbLine
 10
8629.154762541872
 20
4377.931598713257
 30
0.0
 11
8629.154762541871
 21
2587.931598713256
 31
0.0
  0
INSERT
  5
17DAC
330
17C26
100
AcDbEntity
  8
寸法
 62
     0
 48
50.0
370
    -2
100
AcDbBlockReference
  2
_DOTSMALL
 10
8629.154762541872
 20
4377.931598713257
 30
0.0
 41
100.0
 42
100.0
 43
100.0
 50
90.0
  0
INSERT
  5
17DAD
330
17C26
100
AcDbEntity
  8
寸法
 62
     0
 48
50.0
370
    -2
100
AcDbBlockReference
  2
_DOTSMALL
 10
8629.154762541871
 20
2587.931598713256
 30
0.0
 41
100.0
 42
100.0
 43
100.0
 50
270.0
  0
MTEXT
  5
17DAE
330
17C26
100
AcDbEntity
  8
寸法
 62
     7
 48
50.0
100
AcDbMText
 10
8529.154762541871
 20
3482.931598713258
 30
0.0
 40
120.0
 41
0.0
 71
     5
 72
     1
  1
\A1;1790
  7
STYLE1
 11
0.0000000000000001
 21
1.0
 31
0.0
 73
     1
 44
1.0
1001
ACAD
1000
MTEXTBEGIN
1070
    73
1070
     1
1070
    44
1040
1.0
1070
    74
1070
     0
1000
MTEXTEND
  0
POINT
  5
17DAF
330
17C26
100
AcDbEntity
  8
DEFPOINTS
 62
     0
 48
50.0
100
AcDbPoint
 10
9472.904891725132
 20
4377.931598713257
 30
0.0
  0
POINT
  5
17DB0
330
17C26
100
AcDbEntity
  8
DEFPOINTS
 62
     0
 48
50.0
100
AcDbPoint
 10
9472.904891725132
 20
2587.931598713256
 30
0.0
  0
POINT
  5
17DB1
330
17C26
100
AcDbEntity
  8
DEFPOINTS
 62
     0
 48
50.0
100
AcDbPoint
 10
8629.154762541871
 20
2587.931598713256
 30
0.0
  0
ENDBLK
  5
17C31
330
17C26
100
AcDbEntity
  8
0
 48
50.0
100
AcDbBlockEnd
  0
BLOCK
  5
18083
330
18078
100
AcDbEntity
  8
0
 48
50.0
100
AcDbBlockBegin
  2
*D27
 70
     1
 10
0.0
 20
0.0
 30
0.0
  3
*D27
  1

  0
LINE
  5
18183
330
18078
100
AcDbEntity
  8
寸法
 62
     0
 48
50.0
370
    -2
100
AcDbLine
 10
6802.069000782703
 20
4212.931598713261
 30
0.0
 11
7129.612103104448
 21
4212.931598713261
 31
0.0
  0
LINE
  5
18184
330
18078
100
AcDbEntity
  8
寸法
 62
     0
 48
50.0
370
    -2
100
AcDbLine
 10
6802.069000782701
 20
4377.931598713261
 30
0.0
 11
7129.612103104448
 21
4377.931598713261
 31
0.0
  0
LINE
  5
18185
330
18078
100
AcDbEntity
  8
寸法
 62
     0
 48
50.0
370
    -2
100
AcDbLine
 10
7069.612103104448
 20
4212.931598713261
 30
0.0
 11
7069.612103104448
 21
4377.931598713261
 31
0.0
  0
LINE
  5
18186
330
18078
100
AcDbEntity
  8
寸法
 62
     0
 48
50.0
370
    -2
100
AcDbLine
 10
7069.612103104448
 20
4377.931598713261
 30
0.0
 11
7069.612103104448
 21
4754.902161461738
 31
0.0
  0
INSERT
  5
18187
330
18078
100
AcDbEntity
  8
寸法
 62
     0
 48
50.0
370
    -2
100
AcDbBlockReference
  2
_DOTSMALL
 10
7069.612103104448
 20
4212.931598713261
 30
0.0
 41
100.0
 42
100.0
 43
100.0
 50
270.0
  0
INSERT
  5
18188
330
18078
100
AcDbEntity
  8
寸法
 62
     0
 48
50.0
370
    -2
100
AcDbBlockReference
  2
_DOTSMALL
 10
7069.612103104448
 20
4377.931598713261
 30
0.0
 41
100.0
 42
100.0
 43
100.0
 50
90.0
  0
MTEXT
  5
18189
330
18078
100
AcDbEntity
  8
寸法
 62
     7
 48
50.0
100
AcDbMText
 10
6969.612103104447
 20
4616.416880087501
 30
0.0
 40
120.0
 41
0.0
 71
     5
 72
     1
  1
\A1;165
  7
STYLE1
 11
0.0000000000000001
 21
1.0
 31
0.0
 73
     1
 44
1.0
1001
ACAD
1000
MTEXTBEGIN
1070
    73
1070
     1
1070
    44
1040
1.0
1070
    74
1070
     0
1000
MTEXTEND
  0
POINT
  5
1818A
330
18078
100
AcDbEntity
  8
DEFPOINTS
 62
     0
 48
50.0
100
AcDbPoint
 10
6782.069000782702
 20
4212.931598713261
 30
0.0
  0
POINT
  5
1818B
330
18078
100
AcDbEntity
  8
DEFPOINTS
 62
     0
 48
50.0
100
AcDbPoint
 10
6782.069000782701
 20
4377.931598713261
 30
0.0
  0
POINT
  5
1818C
330
18078
100
AcDbEntity
  8
DEFPOINTS
 62
     0
 48
50.0
100
AcDbPoint
 10
7069.612103104448
 20
4377.931598713261
 30
0.0
  0
ENDBLK
  5
18084
330
18078
100
AcDbEntity
  8
0
 48
50.0
100
AcDbBlockEnd
  0
BLOCK
  5
18091
330
18085
100
AcDbEntity
  8
0
 48
50.0
100
AcDbBlockBegin
  2
*D28
 70
     1
 10
0.0
 20
0.0
 30
0.0
  3
*D28
  1

  0
LINE
  5
18178
330
18085
100
AcDbEntity
  8
寸法
 62
     0
 48
50.0
370
    -2
100
AcDbLine
 10
6802.069000782701
 20
4185.931598713261
 30
0.0
 11
7129.612103104446
 21
4185.931598713261
 31
0.0
  0
LINE
  5
18179
330
18085
100
AcDbEntity
  8
寸法
 62
     0
 48
50.0
370
    -2
100
AcDbLine
 10
6802.069000782703
 20
4212.931598713261
 30
0.0
 11
7129.612103104446
 21
4212.931598713261
 31
0.0
  0
LINE
  5
1817A
330
18085
100
AcDbEntity
  8
寸法
 62
     0
 48
50.0
370
    -2
100
AcDbLine
 10
7069.612103104446
 20
4185.931598713261
 30
0.0
 11
7069.612103104446
 21
4085.931598713261
 31
0.0
  0
LINE
  5
1817B
330
18085
100
AcDbEntity
  8
寸法
 62
     0
 48
50.0
370
    -2
100
AcDbLine
 10
7069.612103104446
 20
4212.931598713261
 30
0.0
 11
7069.612103104446
 21
4312.931598713261
 31
0.0
  0
MTEXT
  5
1817C
330
18085
100
AcDbEntity
  8
寸法
 62
     7
 48
50.0
100
AcDbMText
 10
7209.781926350813
 20
4213.898798552921
 30
0.0
 40
120.0
 41
0.0
 71
     5
 72
     1
  1
\A1;27
  7
STYLE1
 11
0.0000000000000001
 21
1.0
 31
0.0
 73
     1
 44
1.0
1001
ACAD
1000
MTEXTBEGIN
1070
    73
1070
     1
1070
    44
1040
1.0
1070
    74
1070
     0
1000
MTEXTEND
  0
LINE
  5
1817D
330
18085
100
AcDbEntity
  8
寸法
 62
     0
 48
50.0
370
    -2
100
AcDbLine
 10
7069.612103104446
 20
4185.931598713261
 30
0.0
 11
7069.612103104446
 21
4212.931598713261
 31
0.0
  0
INSERT
  5
1817E
330
18085
100
AcDbEntity
  8
寸法
 62
     0
 48
50.0
370
    -2
100
AcDbBlockReference
  2
_DOTSMALL
 10
7069.612103104446
 20
4185.931598713261
 30
0.0
 41
100.0
 42
100.0
 43
100.0
 50
90.0
  0
INSERT
  5
1817F
330
18085
100
AcDbEntity
  8
寸法
 62
     0
 48
50.0
370
    -2
100
AcDbBlockReference
  2
_DOTSMALL
 10
7069.612103104446
 20
4212.931598713261
 30
0.0
 41
100.0
 42
100.0
 43
100.0
 50
270.0
  0
POINT
  5
18180
330
18085
100
AcDbEntity
  8
DEFPOINTS
 62
     0
 48
50.0
100
AcDbPoint
 10
6782.069000782701
 20
4185.931598713261
 30
0.0
  0
POINT
  5
18181
330
18085
100
AcDbEntity
  8
DEFPOINTS
 62
     0
 48
50.0
100
AcDbPoint
 10
6782.069000782702
 20
4212.931598713261
 30
0.0
  0
POINT
  5
18182
330
18085
100
AcDbEntity
  8
DEFPOINTS
 62
     0
 48
50.0
100
AcDbPoint
 10
7069.612103104446
 20
4212.931598713261
 30
0.0
  0
ENDBLK
  5
18092
330
18085
100
AcDbEntity
  8
0
 48
50.0
100
AcDbBlockEnd
  0
BLOCK
  5
1809D
330
18093
100
AcDbEntity
  8
0
 48
50.0
100
AcDbBlockBegin
  2
*D29
 70
     1
 10
0.0
 20
0.0
 30
0.0
  3
*D29
  1

  0
LINE
  5
180FA
330
18093
100
AcDbEntity
  8
寸法
 62
     0
 48
50.0
370
    -2
100
AcDbLine
 10
6802.069000782701
 20
2537.931598713262
 30
0.0
 11
7129.612103104446
 21
2537.931598713262
 31
0.0
  0
LINE
  5
180FB
330
18093
100
AcDbEntity
  8
寸法
 62
     0
 48
50.0
370
    -2
100
AcDbLine
 10
6802.069000782701
 20
4185.931598713261
 30
0.0
 11
7129.612103104446
 21
4185.931598713261
 31
0.0
  0
LINE
  5
180FC
330
18093
100
AcDbEntity
  8
寸法
 62
     0
 48
50.0
370
    -2
100
AcDbLine
 10
7069.612103104446
 20
2537.931598713262
 30
0.0
 11
7069.612103104446
 21
4185.931598713261
 31
0.0
  0
INSERT
  5
180FD
330
18093
100
AcDbEntity
  8
寸法
 62
     0
 48
50.0
370
    -2
100
AcDbBlockReference
  2
_DOTSMALL
 10
7069.612103104446
 20
2537.931598713262
 30
0.0
 41
100.0
 42
100.0
 43
100.0
 50
270.0
  0
INSERT
  5
180FE
330
18093
100
AcDbEntity
  8
寸法
 62
     0
 48
50.0
370
    -2
100
AcDbBlockReference
  2
_DOTSMALL
 10
7069.612103104446
 20
4185.931598713261
 30
0.0
 41
100.0
 42
100.0
 43
100.0
 50
90.0
  0
MTEXT
  5
180FF
330
18093
100
AcDbEntity
  8
寸法
 62
     7
 48
50.0
100
AcDbMText
 10
6969.612103104445
 20
3361.931598713263
 30
0.0
 40
120.0
 41
0.0
 71
     5
 72
     1
  1
\A1;有効開口部高サ 1648
  7
STYLE1
 11
0.0000000000000001
 21
1.0
 31
0.0
 73
     1
 44
1.0
1001
ACAD
1000
MTEXTBEGIN
1070
    73
1070
     1
1070
    44
1040
1.0
1070
    74
1070
     0
1000
MTEXTEND
  0
POINT
  5
18100
330
18093
100
AcDbEntity
  8
DEFPOINTS
 62
     0
 48
50.0
100
AcDbPoint
 10
6782.069000782701
 20
2537.931598713262
 30
0.0
  0
POINT
  5
18101
330
18093
100
AcDbEntity
  8
DEFPOINTS
 62
     0
 48
50.0
100
AcDbPoint
 10
6782.069000782701
 20
4185.931598713261
 30
0.0
  0
POINT
  5
18102
330
18093
100
AcDbEntity
  8
DEFPOINTS
 62
     0
 48
50.0
100
AcDbPoint
 10
7069.612103104446
 20
4185.931598713261
 30
0.0
  0
ENDBLK
  5
1809E
330
18093
100
AcDbEntity
  8
0
 48
50.0
100
AcDbBlockEnd
  0
ENDSEC
  0
SECTION
  2
ENTITIES
  0
MTEXT
  5
763F
330
747D
100
AcDbEntity
  8
0
100
AcDbMText
 10
302.846345836809
 20
280.1983726409901
 30
0.0
 40
3.5
 41
5.323721266742722
 71
     1
 72
     5
  1

  7
MSMINCHO
 73
     1
 44
1.0
1001
ACAD
1000
MTEXTBEGIN
1070
    73
1070
     1
1070
    44
1040
1.0
1070
    74
1070
     0
1000
MTEXTEND
  0
LINE
  5
10B57
330
747D
100
AcDbEntity
  8
補助
  6
PHANTOM
 62
   230
 48
50.0
100
AcDbLine
 10
139.9999999999995
 20
11409.6
 30
0.0
 11
16307.2
 21
11409.6
 31
0.0
  0
LINE
  5
10B59
330
747D
100
AcDbEntity
  8
仕様書枠
  6
Continuous
 48
50.0
100
AcDbLine
 10
13107.2
 20
1200.0
 30
0.0
 11
13107.2
 21
-0.0000000000000729
 31
0.0
  0
LINE
  5
10B5C
330
747D
100
AcDbEntity
  8
仕様書枠
 48
50.0
100
AcDbLine
 10
16307.2
 20
1200.0
 30
0.0
 11
16307.2
 21
-0.0000000000000909
 31
0.0
  0
LINE
  5
10B5D
330
747D
100
AcDbEntity
  8
仕様書枠
 48
50.0
100
AcDbLine
 10
140.0
 20
0.0
 30
0.0
 11
16307.2
 21
-0.0000000000000909
 31
0.0
  0
LINE
  5
10B5E
330
747D
100
AcDbEntity
  8
補助
  6
PHANTOM
 62
   230
 48
50.0
100
AcDbLine
 10
16307.2
 20
11409.6
 30
0.0
 11
16307.2
 21
1200.0
 31
0.0
  0
LINE
  5
10B6C
330
747D
100
AcDbEntity
  8
仕様書枠
 48
50.0
100
AcDbLine
 10
13107.2
 20
1200.0
 30
0.0
 11
16307.2
 21
1200.0
 31
0.0
  0
LINE
  5
10B6D
330
747D
100
AcDbEntity
  8
補助
  6
PHANTOM
 62
   230
 48
50.0
100
AcDbLine
 10
13107.2
 20
11409.6
 30
0.0
 11
13107.2
 21
4800.0
 31
0.0
  0
LINE
  5
10B6F
330
747D
100
AcDbEntity
  8
補助
  6
PHANTOM
 62
   230
 48
50.0
100
AcDbLine
 10
13107.2
 20
4800.0
 30
0.0
 11
16307.2
 21
4800.0
 31
0.0
  0
LINE
  5
10B72
330
747D
100
AcDbEntity
  8
文字
 62
     7
 48
50.0
100
AcDbLine
 10
13187.2
 20
400.0
 30
0.0
 11
16227.2
 21
400.0
 31
0.0
  0
TEXT
  5
10B73
330
747D
100
AcDbEntity
  8
文字
 62
     7
 48
50.0
100
AcDbText
 10
13162.9790565769
 20
895.0906074299405
 30
0.0
 40
200.0
  1
外 形 図
  7
STYLE2
100
AcDbText
  0
TEXT
  5
10B74
330
747D
100
AcDbEntity
  8
文字
 62
     7
 48
50.0
100
AcDbText
 10
13201.43669998441
 20
477.2740661031255
 30
0.0
 40
160.0
  1
機種名
  7
STYLE2
100
AcDbText
  0
TEXT
  5
10B75
330
747D
100
AcDbEntity
  8
文字
 62
     7
 48
50.0
100
AcDbText
 10
13209.4053442172
 20
228.5435242569016
 30
0.0
 40
100.0
  1
○有効開口寸法 ： 1584×1648(mm)
  7
STYLE2
100
AcDbText
  0
TEXT
  5
10B76
330
747D
100
AcDbEntity
  8
文字
 62
     7
 48
50.0
100
AcDbText
 10
13209.4053442172
 20
76.09434707649343
 30
0.0
 40
100.0
  1
○床面積 ： 5.46㎡(1.65坪) 　
  7
STYLE2
100
AcDbText
  0
TEXT
  5
10B79
330
747D
100
AcDbEntity
  8
文字
 62
     7
 48
50.0
100
AcDbText
 10
14524.131837222
 20
1031.557706291228
 30
0.0
 40
100.0
  1
NO.19      <縮尺> S=1/40
  7
STYLE2
100
AcDbText
  0
LINE
  5
10B7B
330
747D
100
AcDbEntity
  8
仕様書枠
 48
50.0
100
AcDbLine
 10
13107.2
 20
800.0
 30
0.0
 11
14251.2
 21
800.0
 31
0.0
  0
LINE
  5
10B88
330
747D
100
AcDbEntity
  8
仕様書枠
  6
Continuous
 48
50.0
100
AcDbLine
 10
14251.2
 20
1200.0
 30
0.0
 11
14251.2
 21
800.0
 31
0.0
  0
LINE
  5
12765
330
747D
100
AcDbEntity
  8
Ｇ．Ｌ
100
AcDbLine
 10
3903.802398112248
 20
2437.931598713261
 30
0.0
 11
13038.1894892059
 21
2437.931598713261
 31
0.0
  0
LINE
  5
127A8
330
747D
100
AcDbEntity
  8
部品1
100
AcDbLine
 10
3939.640291883535
 20
2567.835409280926
 30
0.0
 11
4089.640291883535
 21
2567.835409280926
 31
0.0
  0
LINE
  5
127A9
330
747D
100
AcDbEntity
  8
部品1
100
AcDbLine
 10
4014.640291883535
 20
2437.931598713261
 30
0.0
 11
3939.640291883535
 21
2567.835409280926
 31
0.0
  0
TEXT
  5
127AA
330
747D
100
AcDbEntity
  8
部品1
100
AcDbText
 10
4117.745234008308
 20
2474.038502319163
 30
0.0
 40
125.0
  1
G.L
  7
MSGOTHIC
100
AcDbText
  0
LINE
  5
127AB
330
747D
100
AcDbEntity
  8
部品1
100
AcDbLine
 10
4089.640291883535
 20
2567.835409280926
 30
0.0
 11
4014.640291883535
 21
2437.931598713261
 31
0.0
  0
TEXT
  5
14E88
330
747D
100
AcDbEntity
  8
部品1
100
AcDbText
 10
5593.262980357725
 20
6197.165347594311
 30
0.0
 40
135.0
  1
平面図
  7
MSGOTHIC
100
AcDbText
  0
LWPOLYLINE
  5
14E89
330
747D
100
AcDbEntity
  8
部品1
100
AcDbPolyline
 90
        4
 70
     1
 43
0.0
 10
5503.934485848819
 20
6390.058876812834
 10
5503.934485848819
 20
6150.166555267302
 10
6267.405152077259
 20
6150.166555267302
 10
6267.405152077259
 20
6390.058876812834
  0
TEXT
  5
15550
330
747D
100
AcDbEntity
  8
文字
 62
     7
 48
50.0
100
AcDbText
 10
14653.86780145889
 20
871.9640646083623
 30
0.0
 40
100.0
  1
～一般型・多雪地型～
  7
STYLE2
100
AcDbText
  0
DIMENSION
  5
16452
330
747D
100
AcDbEntity
  8
寸法
100
AcDbDimension
  2
*D1
 10
7794.602288256783
 20
7377.283913289186
 30
0.0
 11
7694.602288256781
 21
8902.283913289192
 31
0.0
 70
    32
 71
     5
 42
3050.000000000008
  3
INABA_S40G
100
AcDbAlignedDimension
 13
6782.069000782738
 23
10427.28391328919
 33
0.0
 14
6782.069000782712
 24
7377.283913289186
 34
0.0
 50
90.0
100
AcDbRotatedDimension
1001
ACAD
1000
DSTYLE
1002
{
1002
}
  0
LINE
  5
16453
330
747D
100
AcDbEntity
  8
部品1
100
AcDbLine
 10
6702.069000782735
 20
10372.28391328905
 30
0.0
 11
6702.069000782714
 21
7442.283913289094
 31
0.0
  0
LINE
  5
16454
330
747D
100
AcDbEntity
  8
部品1
100
AcDbLine
 10
5072.069000782711
 20
10372.28391328907
 30
0.0
 11
5072.069000782729
 21
7442.283913289093
 31
0.0
  0
LINE
  5
16455
330
747D
100
AcDbEntity
  8
部品1
100
AcDbLine
 10
5047.069000782711
 20
10372.28391328907
 30
0.0
 11
5047.069000782729
 21
7442.283913289093
 31
0.0
  0
LINE
  5
16456
330
747D
100
AcDbEntity
  8
部品1
100
AcDbLine
 10
6727.069000782728
 20
10372.28391328905
 30
0.0
 11
6727.069000782714
 21
7377.283913289182
 31
0.0
  0
LINE
  5
16457
330
747D
100
AcDbEntity
  8
部品1
100
AcDbLine
 10
6754.069000782724
 20
10399.28391328919
 30
0.0
 11
6754.069000782713
 21
7432.283913289182
 31
0.0
  0
LINE
  5
16458
330
747D
100
AcDbEntity
  8
部品1
100
AcDbLine
 10
6782.069000782738
 20
10427.28391328919
 30
0.0
 11
6782.069000782712
 21
7377.283913289186
 31
0.0
  0
DIMENSION
  5
16459
330
747D
100
AcDbEntity
  8
寸法
100
AcDbDimension
  2
*D2
 10
7429.495346517147
 20
7432.283913289182
 30
0.0
 11
7329.483535493524
 21
8902.283913289192
 31
0.0
 70
    32
  1
7X420=<>
 71
     5
 42
2940.000000000015
  3
INABA_S40G
100
AcDbAlignedDimension
 13
6782.069000782738
 23
10372.28391328919
 33
0.0
 14
6782.069000782712
 24
7432.283913289182
 34
0.0
 50
90.0
100
AcDbRotatedDimension
1001
ACAD
1000
DSTYLE
1002
{
1002
}
  0
LINE
  5
1645B
330
747D
100
AcDbEntity
  8
部品1
100
AcDbLine
 10
4992.069000782703
 20
10427.28391328906
 30
0.0
 11
4992.069000782731
 21
7377.283913289055
 31
0.0
  0
LINE
  5
1645C
330
747D
100
AcDbEntity
  8
部品1
100
AcDbLine
 10
5020.069000782712
 20
7432.283913289051
 30
0.0
 11
5020.069000782726
 21
10399.2839132891
 31
0.0
  0
DIMENSION
  5
1645E
330
747D
100
AcDbEntity
  8
寸法
 48
50.0
100
AcDbDimension
  2
*D3
 10
5095.06900078273
 20
6842.853142522931
 30
0.0
 11
5887.069000782721
 21
7042.853142522931
 31
0.0
 70
    32
  1
有効開口部間口\P<>
 71
     5
 42
1583.999999999982
  3
INABA_S40G
100
AcDbAlignedDimension
 13
6679.069000782712
 23
7403.283913289095
 33
0.0
 14
5095.06900078273
 24
7403.283913289094
 34
0.0
100
AcDbRotatedDimension
1001
ACAD
1000
DSTYLE
1002
{
1070
    75
1070
     1
1070
   279
1070
     2
1002
}
  0
LINE
  5
1645F
330
747D
100
AcDbEntity
  8
部品1
 48
50.0
100
AcDbLine
 10
5059.069000782729
 20
7422.783913289094
 30
0.0
 11
6715.069000782714
 21
7422.783913289094
 31
0.0
  0
DIMENSION
  5
16460
330
747D
100
AcDbEntity
  8
寸法
100
AcDbDimension
  2
*D4
 10
6782.069000782712
 20
6556.680146932056
 30
0.0
 11
5887.069000782721
 21
6656.680146932057
 31
0.0
 70
    32
 71
     5
 42
1789.999999999982
  3
INABA_S40G
100
AcDbAlignedDimension
 13
4992.069000782731
 23
7377.283913289023
 33
0.0
 14
6782.069000782712
 24
7377.283913289149
 34
0.0
100
AcDbRotatedDimension
1001
ACAD
1000
DSTYLE
1002
{
1002
}
  0
DIMENSION
  5
16461
330
747D
100
AcDbEntity
  8
寸法
 48
50.0
100
AcDbDimension
  2
*D5
 10
4992.069000782731
 20
6842.853142522931
 30
0.0
 11
4683.583719408492
 21
6842.853142522931
 31
0.0
 70
   160
 71
     5
 42
54.99999999999636
  3
INABA_S40G
100
AcDbAlignedDimension
 13
5047.069000782727
 23
7377.283913289094
 33
0.0
 14
4992.069000782731
 24
7377.28391328909
 34
0.0
100
AcDbRotatedDimension
1001
ACAD
1000
DSTYLE
1002
{
1002
}
  0
DIMENSION
  5
16462
330
747D
100
AcDbEntity
  8
寸法
 48
50.0
100
AcDbDimension
  2
*D6
 10
5047.069000782727
 20
6842.853142522931
 30
0.0
 11
5207.970971782788
 21
6942.853142522931
 31
0.0
 70
   160
 71
     5
 42
48.00000000000363
  3
INABA_S40G
100
AcDbAlignedDimension
 13
5095.06900078273
 23
7403.283913289094
 33
0.0
 14
5047.069000782727
 24
7377.283913289094
 34
0.0
100
AcDbRotatedDimension
1001
ACAD
1000
DSTYLE
1002
{
1070
   279
1070
     2
1002
}
  0
LINE
  5
16463
330
747D
100
AcDbEntity
  8
部品1
100
AcDbLine
 10
5047.069000782725
 20
7377.283913289094
 30
0.0
 11
4992.069000782731
 21
7377.28391328909
 31
0.0
  0
LINE
  5
16464
330
747D
100
AcDbEntity
  8
部品1
 48
50.0
100
AcDbLine
 10
5047.06900078273
 20
7413.283913289093
 30
0.0
 11
5024.069000782731
 21
7413.283913289093
 31
0.0
  0
LINE
  5
16465
330
747D
100
AcDbEntity
  8
部品1
 48
50.0
100
AcDbLine
 10
5057.069000782731
 20
7403.283913289094
 30
0.0
 11
5047.06900078273
 21
7382.283913289095
 31
0.0
  0
LINE
  5
16466
330
747D
100
AcDbEntity
  8
部品1
 48
50.0
100
AcDbLine
 10
5047.06900078273
 20
7442.283913289093
 30
0.0
 11
5047.069000782727
 21
7377.283913289094
 31
0.0
  0
LINE
  5
16467
330
747D
100
AcDbEntity
  8
部品1
 48
50.0
100
AcDbLine
 10
5095.06900078273
 20
7403.283913289095
 30
0.0
 11
5095.06900078273
 21
7412.283913289094
 31
0.0
  0
LINE
  5
16468
330
747D
100
AcDbEntity
  8
部品1
 48
50.0
100
AcDbLine
 10
5095.06900078273
 20
7442.283913289095
 30
0.0
 11
5095.06900078273
 21
7433.283913289095
 31
0.0
  0
LINE
  5
16469
330
747D
100
AcDbEntity
  8
部品1
100
AcDbLine
 10
5095.06900078273
 20
7442.283913289095
 30
0.0
 11
5047.06900078273
 21
7442.283913289094
 31
0.0
  0
LINE
  5
1646A
330
747D
100
AcDbEntity
  8
部品1
100
AcDbLine
 10
5095.06900078273
 20
7403.283913289095
 30
0.0
 11
5047.06900078273
 21
7403.283913289094
 31
0.0
  0
LINE
  5
1646B
330
747D
100
AcDbEntity
  8
部品1
100
AcDbLine
 10
5047.069000782729
 20
7413.283913289093
 30
0.0
 11
5024.069000782731
 21
7413.283913289093
 31
0.0
  0
LINE
  5
1646C
330
747D
100
AcDbEntity
  8
部品1
100
AcDbLine
 10
5047.069000782729
 20
7432.283913289018
 30
0.0
 11
4992.069000782729
 21
7432.283913289018
 31
0.0
  0
LINE
  5
1646D
330
747D
100
AcDbEntity
  8
部品1
100
AcDbLine
 10
5020.069000782712
 20
7432.283913289055
 30
0.0
 11
4992.069000782729
 21
7432.283913289055
 31
0.0
  0
LINE
  5
1646E
330
747D
100
AcDbEntity
  8
部品1
100
AcDbLine
 10
5020.069000782729
 20
7432.283913289069
 30
0.0
 11
4992.069000782729
 21
7432.283913289069
 31
0.0
  0
LINE
  5
1646F
330
747D
100
AcDbEntity
  8
部品1
100
AcDbLine
 10
4992.069000782715
 20
7852.283913289209
 30
0.0
 11
5020.069000782714
 21
7852.283913289209
 31
0.0
  0
LINE
  5
16472
330
747D
100
AcDbEntity
  8
部品1
100
AcDbLine
 10
4992.069000782715
 20
8272.283913289207
 30
0.0
 11
5020.069000782714
 21
8272.283913289207
 31
0.0
  0
LINE
  5
16473
330
747D
100
AcDbEntity
  8
部品1
100
AcDbLine
 10
4992.069000782715
 20
8692.283913289207
 30
0.0
 11
5020.069000782714
 21
8692.283913289207
 31
0.0
  0
LINE
  5
16474
330
747D
100
AcDbEntity
  8
部品1
100
AcDbLine
 10
5020.069000782718
 20
9112.283913289068
 30
0.0
 11
4992.069000782718
 21
9112.283913289068
 31
0.0
  0
DIMENSION
  5
16475
330
747D
100
AcDbEntity
  8
寸法
 48
50.0
100
AcDbDimension
  2
*D7
 10
6679.069000782712
 20
6842.853142522931
 30
0.0
 11
6568.106103133965
 21
6942.853142522931
 31
0.0
 70
   160
 71
     5
 42
48.00000000000181
  3
INABA_S40G
100
AcDbAlignedDimension
 13
6727.069000782714
 23
7377.283913289182
 33
0.0
 14
6679.069000782712
 24
7403.283913289095
 34
0.0
100
AcDbRotatedDimension
1001
ACAD
1000
DSTYLE
1002
{
1070
   279
1070
     2
1002
}
  0
DIMENSION
  5
16476
330
747D
100
AcDbEntity
  8
寸法
 48
50.0
100
AcDbDimension
  2
*D8
 10
6727.069000782714
 20
6842.853142522931
 30
0.0
 11
7090.554282156951
 21
6842.853142522931
 31
0.0
 70
   160
 71
     5
 42
54.99999999999818
  3
INABA_S40G
100
AcDbAlignedDimension
 13
6782.069000782712
 23
7377.283913289186
 33
0.0
 14
6727.069000782714
 24
7377.283913289182
 34
0.0
100
AcDbRotatedDimension
1001
ACAD
1000
DSTYLE
1002
{
1002
}
  0
DIMENSION
  5
16477
330
747D
100
AcDbEntity
  8
寸法
100
AcDbDimension
  2
*D9
 10
7429.495346517125
 20
7377.283913289186
 30
0.0
 11
7429.495346517121
 21
6999.422446384324
 31
0.0
 70
   160
 71
     5
 42
54.99999999999636
  3
INABA_S40G
100
AcDbAlignedDimension
 13
6782.069000782712
 23
7432.283913289182
 33
0.0
 14
6782.069000782712
 24
7377.283913289186
 34
0.0
 50
90.0
100
AcDbRotatedDimension
1001
ACAD
1000
DSTYLE
1002
{
1002
}
  0
LINE
  5
16478
330
747D
100
AcDbEntity
  8
部品1
 48
50.0
100
AcDbLine
 10
6717.069000782712
 20
7403.283913289094
 30
0.0
 11
6727.069000782712
 21
7382.283913289095
 31
0.0
  0
LINE
  5
16479
330
747D
100
AcDbEntity
  8
部品1
100
AcDbLine
 10
6727.069000782712
 20
7413.283913289092
 30
0.0
 11
6750.069000782713
 21
7413.283913289093
 31
0.0
  0
LINE
  5
1647A
330
747D
100
AcDbEntity
  8
部品1
 48
50.0
100
AcDbLine
 10
6679.069000782712
 20
7442.283913289095
 30
0.0
 11
6679.069000782712
 21
7433.283913289095
 31
0.0
  0
LINE
  5
1647B
330
747D
100
AcDbEntity
  8
部品1
100
AcDbLine
 10
6679.069000782712
 20
7442.283913289095
 30
0.0
 11
6727.069000782714
 21
7442.283913289094
 31
0.0
  0
LINE
  5
1647C
330
747D
100
AcDbEntity
  8
部品1
 48
50.0
100
AcDbLine
 10
6679.069000782712
 20
7403.283913289095
 30
0.0
 11
6679.069000782712
 21
7412.283913289094
 31
0.0
  0
LINE
  5
1647D
330
747D
100
AcDbEntity
  8
部品1
100
AcDbLine
 10
6679.069000782712
 20
7403.283913289095
 30
0.0
 11
6727.069000782712
 21
7403.283913289094
 31
0.0
  0
LINE
  5
1647E
330
747D
100
AcDbEntity
  8
部品1
100
AcDbLine
 10
6727.069000782712
 20
7432.283913289197
 30
0.0
 11
6782.069000782745
 21
7432.283913289197
 31
0.0
  0
LINE
  5
1647F
330
747D
100
AcDbEntity
  8
部品1
100
AcDbLine
 10
6782.069000782712
 20
7377.283913289186
 30
0.0
 11
6727.069000782714
 21
7377.283913289183
 31
0.0
  0
LINE
  5
16480
330
747D
100
AcDbEntity
  8
部品1
100
AcDbLine
 10
6754.069000782742
 20
7852.283913289197
 30
0.0
 11
6782.069000782742
 21
7852.283913289197
 31
0.0
  0
LINE
  5
16483
330
747D
100
AcDbEntity
  8
部品1
100
AcDbLine
 10
6754.069000782742
 20
8272.283913289196
 30
0.0
 11
6782.069000782742
 21
8272.283913289196
 31
0.0
  0
LINE
  5
16484
330
747D
100
AcDbEntity
  8
部品1
100
AcDbLine
 10
6754.069000782742
 20
8692.283913289196
 30
0.0
 11
6782.069000782742
 21
8692.283913289196
 31
0.0
  0
LINE
  5
16485
330
747D
100
AcDbEntity
  8
部品1
100
AcDbLine
 10
6754.069000782742
 20
9112.283913289196
 30
0.0
 11
6782.069000782742
 21
9112.283913289196
 31
0.0
  0
LINE
  5
16489
330
747D
100
AcDbEntity
  8
部品1
100
AcDbLine
 10
5047.069000782737
 20
10399.28391328921
 30
0.0
 11
5874.569000782736
 21
10399.2839132892
 31
0.0
  0
LINE
  5
1648A
330
747D
100
AcDbEntity
  8
部品1
100
AcDbLine
 10
4992.069000782736
 20
10427.2839132891
 30
0.0
 11
6782.069000782738
 21
10427.28391328919
 31
0.0
  0
DIMENSION
  5
1648F
330
747D
100
AcDbEntity
  8
寸法
100
AcDbDimension
  2
*D10
 10
6727.069000782738
 20
10643.0921329142
 30
0.0
 11
5887.069000782737
 21
10743.10394393782
 31
0.0
 70
    32
  1
4X420=<>
 71
     5
 42
1680.000000000001
  3
INABA_S40G
100
AcDbAlignedDimension
 13
5047.069000782737
 23
10427.2839132891
 33
0.0
 14
6727.069000782738
 24
10427.28391328919
 34
0.0
100
AcDbRotatedDimension
1001
ACAD
1000
DSTYLE
1002
{
1002
}
  0
LINE
  5
16491
330
747D
100
AcDbEntity
  8
部品1
100
AcDbLine
 10
5020.069000782736
 20
10399.2839132891
 30
0.0
 11
5677.069000782736
 21
10399.2839132891
 31
0.0
  0
DIMENSION
  5
16492
330
747D
100
AcDbEntity
  8
寸法
100
AcDbDimension
  2
*D11
 10
5047.069000782737
 20
10643.09213291408
 30
0.0
 11
4683.583719408463
 21
10643.09213291408
 31
0.0
 70
   160
 71
     5
 42
55.00000000003456
  3
INABA_S40G
100
AcDbAlignedDimension
 13
4992.069000782702
 23
10427.2839132891
 33
0.0
 14
5047.069000782737
 24
10427.2839132891
 34
0.0
100
AcDbRotatedDimension
1001
ACAD
1000
DSTYLE
1002
{
1002
}
  0
LINE
  5
16495
330
747D
100
AcDbEntity
  8
部品1
100
AcDbLine
 10
5020.069000782711
 20
9952.28391328907
 30
0.0
 11
4992.06900078271
 21
9952.28391328907
 31
0.0
  0
LINE
  5
16496
330
747D
100
AcDbEntity
  8
部品1
100
AcDbLine
 10
5047.069000782704
 20
10427.28391328906
 30
0.0
 11
5047.069000782704
 21
10399.28391328906
 31
0.0
  0
LINE
  5
16497
330
747D
100
AcDbEntity
  8
部品1
100
AcDbLine
 10
5047.069000782737
 20
10427.2839132891
 30
0.0
 11
5047.069000782737
 21
10399.2839132891
 31
0.0
  0
LINE
  5
16498
330
747D
100
AcDbEntity
  8
部品1
100
AcDbLine
 10
5020.069000782704
 20
10372.28391328907
 30
0.0
 11
4992.069000782703
 21
10372.28391328907
 31
0.0
  0
LINE
  5
164B8
330
747D
100
AcDbEntity
  8
部品1
100
AcDbLine
 10
5467.069000782736
 20
10427.28391328921
 30
0.0
 11
5467.069000782736
 21
10399.28391328921
 31
0.0
  0
LINE
  5
164BB
330
747D
100
AcDbEntity
  8
部品1
100
AcDbLine
 10
5887.069000782736
 20
10427.28391328921
 30
0.0
 11
5887.069000782736
 21
10399.28391328921
 31
0.0
  0
LINE
  5
164BC
330
747D
100
AcDbEntity
  8
部品1
100
AcDbLine
 10
6307.069000782737
 20
10427.28391328921
 30
0.0
 11
6307.069000782737
 21
10399.28391328921
 31
0.0
  0
DIMENSION
  5
164BD
330
747D
100
AcDbEntity
  8
寸法
100
AcDbDimension
  2
*D12
 10
7429.495346517149
 20
10372.28391328919
 30
0.0
 11
7429.495346517147
 21
10735.76919466343
 31
0.0
 70
   160
 71
     5
 42
54.99999999999636
  3
INABA_S40G
100
AcDbAlignedDimension
 13
6782.069000782738
 23
10427.28391328919
 33
0.0
 14
6782.069000782738
 24
10372.28391328919
 34
0.0
 50
90.0
100
AcDbRotatedDimension
1001
ACAD
1000
DSTYLE
1002
{
1002
}
  0
DIMENSION
  5
164BE
330
747D
100
AcDbEntity
  8
寸法
100
AcDbDimension
  2
*D13
 10
6782.069000782738
 20
10643.09213291418
 30
0.0
 11
7090.554282156976
 21
10643.09213291418
 31
0.0
 70
   160
 71
     5
 42
55.0
  3
INABA_S40G
100
AcDbAlignedDimension
 13
6727.069000782738
 23
10427.28391328919
 33
0.0
 14
6782.069000782738
 24
10427.28391328919
 34
0.0
100
AcDbRotatedDimension
1001
ACAD
1000
DSTYLE
1002
{
1002
}
  0
LINE
  5
164C2
330
747D
100
AcDbEntity
  8
部品1
100
AcDbLine
 10
6754.069000782738
 20
9952.283913289198
 30
0.0
 11
6782.069000782738
 21
9952.283913289198
 31
0.0
  0
LINE
  5
164C3
330
747D
100
AcDbEntity
  8
部品1
100
AcDbLine
 10
6727.069000782738
 20
10427.28391328919
 30
0.0
 11
6727.069000782738
 21
10399.28391328919
 31
0.0
  0
LINE
  5
164C4
330
747D
100
AcDbEntity
  8
部品1
100
AcDbLine
 10
6727.069000782738
 20
10427.28391328921
 30
0.0
 11
6727.069000782738
 21
10399.28391328921
 31
0.0
  0
LINE
  5
164C5
330
747D
100
AcDbEntity
  8
部品1
100
AcDbLine
 10
6754.069000782738
 20
10372.28391328919
 30
0.0
 11
6782.069000782738
 21
10372.28391328919
 31
0.0
  0
LINE
  5
166A1
330
747D
100
AcDbEntity
  8
部品1
 48
50.0
100
AcDbLine
 10
6702.069000782735
 20
10347.28391328901
 30
0.0
 11
5072.069000782711
 21
10347.28391328898
 31
0.0
  0
LINE
  5
166A5
330
747D
100
AcDbEntity
  8
部品1
100
AcDbLine
 10
6727.069000782728
 20
10372.28391328905
 30
0.0
 11
5047.069000782713
 21
10372.28391328907
 31
0.0
  0
LINE
  5
166A6
330
747D
100
AcDbEntity
  8
部品1
 48
50.0
100
AcDbLine
 10
5047.069000782711
 20
10372.28391328907
 30
0.0
 11
5020.069000782736
 21
10399.2839132891
 31
0.0
  0
LINE
  5
166A7
330
747D
100
AcDbEntity
  8
部品1
 48
50.0
100
AcDbLine
 10
6754.069000782724
 20
10399.28391328919
 30
0.0
 11
6727.069000782728
 21
10372.28391328905
 31
0.0
  0
LINE
  5
16728
330
747D
100
AcDbEntity
  8
部品1
 48
50.0
100
AcDbLine
 10
5899.569000782737
 20
10391.28391328914
 30
0.0
 11
5899.569000782737
 21
10399.28391328915
 31
0.0
  0
LINE
  5
16729
330
747D
100
AcDbEntity
  8
部品1
 48
50.0
100
AcDbLine
 10
5874.569000782736
 20
10391.28391328913
 30
0.0
 11
5874.569000782736
 21
10399.28391328915
 31
0.0
  0
LINE
  5
1672A
330
747D
100
AcDbEntity
  8
部品1
100
AcDbLine
 10
5852.069000782736
 20
10417.28391328914
 30
0.0
 11
5852.069000782736
 21
10399.28391328914
 31
0.0
  0
LINE
  5
1672B
330
747D
100
AcDbEntity
  8
部品1
100
AcDbLine
 10
5852.069000782736
 20
10417.28391328914
 30
0.0
 11
5858.069000782736
 21
10417.28391328914
 31
0.0
  0
LINE
  5
1672C
330
747D
100
AcDbEntity
  8
部品1
100
AcDbLine
 10
5922.069000782737
 20
10417.28391328914
 30
0.0
 11
5922.069000782737
 21
10399.28391328914
 31
0.0
  0
LINE
  5
1672D
330
747D
100
AcDbEntity
  8
部品1
100
AcDbLine
 10
5916.069000782736
 20
10417.28391328914
 30
0.0
 11
5922.069000782737
 21
10417.28391328914
 31
0.0
  0
LINE
  5
1672E
330
747D
100
AcDbEntity
  8
部品1
100
AcDbLine
 10
5874.569000782736
 20
10391.28391328913
 30
0.0
 11
5899.569000782737
 21
10391.28391328914
 31
0.0
  0
LINE
  5
1672F
330
747D
100
AcDbEntity
  8
部品1
100
AcDbLine
 10
5887.069000782736
 20
10427.28391328915
 30
0.0
 11
5887.069000782736
 21
10399.28391328915
 31
0.0
  0
LINE
  5
16730
330
747D
100
AcDbEntity
  8
部品1
100
AcDbLine
 10
5887.069000782736
 20
10427.28391328921
 30
0.0
 11
5887.069000782736
 21
10399.28391328921
 31
0.0
  0
LINE
  5
16731
330
747D
100
AcDbEntity
  8
部品1
100
AcDbLine
 10
5899.569000782737
 20
10399.2839132892
 30
0.0
 11
6754.069000782724
 21
10399.28391328919
 31
0.0
  0
LINE
  5
16C55
330
747D
100
AcDbEntity
  8
部品1
100
AcDbLine
 10
6754.069000782738
 20
9532.283913289196
 30
0.0
 11
6782.069000782738
 21
9532.283913289196
 31
0.0
  0
LINE
  5
16C56
330
747D
100
AcDbEntity
  8
部品1
100
AcDbLine
 10
5020.069000782711
 20
9532.283913289068
 30
0.0
 11
4992.06900078271
 21
9532.283913289068
 31
0.0
  0
LINE
  5
16CD0
330
747D
100
AcDbEntity
  8
仕様書枠
 48
50.0
100
AcDbLine
 10
16307.19999999999
 20
9709.600000000001
 30
0.0
 11
13127.2
 21
9709.600000000001
 31
0.0
  0
TEXT
  5
16CD1
330
747D
100
AcDbEntity
  8
文字
 62
     7
 48
50.0
100
AcDbText
 10
13229.83081656555
 20
8380.013745883731
 30
0.0
 40
100.0
  1
Z08→塗装溶融亜鉛めっき鋼板(JIS G 3313)
  7
STYLE1
100
AcDbText
  0
TEXT
  5
16CD2
330
747D
100
AcDbEntity
  8
文字
 62
     7
 48
50.0
100
AcDbText
 10
13229.83081656555
 20
8550.013745883729
 30
0.0
 40
100.0
  1
Y10→溶融亜鉛-5％アルミニウム合金めっき鋼板(JIS G 3317)
 41
0.9
  7
STYLE1
100
AcDbText
  0
TEXT
  5
16CD3
330
747D
100
AcDbEntity
  8
文字
 62
     7
 48
50.0
100
AcDbText
 10
13229.83081656555
 20
8720.013745883729
 30
0.0
 40
100.0
  1
F12→溶融亜鉛めっき鋼板(JIS G 3302)
  7
STYLE1
100
AcDbText
  0
LINE
  5
16CD4
330
747D
100
AcDbEntity
  8
仕様書枠
 48
50.0
100
AcDbLine
 10
16307.19999999999
 20
8349.6
 30
0.0
 11
13127.2
 21
8349.600000000002
 31
0.0
  0
LINE
  5
16CD5
330
747D
100
AcDbEntity
  8
仕様書枠
 48
50.0
100
AcDbLine
 10
16307.19999999999
 20
8519.600000000002
 30
0.0
 11
13127.2
 21
8519.600000000002
 31
0.0
  0
LINE
  5
16CD6
330
747D
100
AcDbEntity
  8
仕様書枠
 48
50.0
100
AcDbLine
 10
16307.19999999999
 20
8689.6
 30
0.0
 11
13127.2
 21
8689.600000000003
 31
0.0
  0
TEXT
  5
16CD7
330
747D
100
AcDbEntity
  8
文字
 62
     7
 48
50.0
100
AcDbText
 10
15022.63965474516
 20
8890.013745883729
 30
0.0
 40
100.0
  1
F12            0.6
  7
STYLE1
100
AcDbText
  0
TEXT
  5
16CD8
330
747D
100
AcDbEntity
  8
文字
 62
     7
 48
50.0
100
AcDbText
 10
15022.63965474516
 20
9400.013745883725
 30
0.0
 40
100.0
  1
Z08            0.5
  7
STYLE1
100
AcDbText
  0
TEXT
  5
16CDA
330
747D
100
AcDbEntity
  8
文字
 62
     7
 48
50.0
100
AcDbText
 10
14850.83183167177
 20
9060.013745883727
 30
0.0
 40
100.0
  1
アルミニウム合金押出形材
  7
STYLE1
100
AcDbText
  0
TEXT
  5
16CDB
330
747D
100
AcDbEntity
  8
文字
 62
     7
 48
50.0
100
AcDbText
 10
15022.63965474516
 20
9570.013745883727
 30
0.0
 40
100.0
  1
F12            0.6
  7
STYLE1
100
AcDbText
  0
TEXT
  5
16CDC
330
747D
100
AcDbEntity
  8
文字
 62
     7
 48
50.0
100
AcDbText
 10
15022.63965474517
 20
9740.013745883729
 30
0.0
 40
100.0
  1
Y10            0.5
  7
STYLE1
100
AcDbText
  0
TEXT
  5
16CDD
330
747D
100
AcDbEntity
  8
文字
 62
     7
 48
50.0
100
AcDbText
 10
15022.63965474517
 20
9910.013745883727
 30
0.0
 40
100.0
  1
F12            1.0
  7
STYLE1
100
AcDbText
  0
TEXT
  5
16CDE
330
747D
100
AcDbEntity
  8
文字
 62
     7
 48
50.0
100
AcDbText
 10
15022.63965474516
 20
10080.01374588372
 30
0.0
 40
100.0
  1
Y10            0.7
  7
STYLE1
100
AcDbText
  0
TEXT
  5
16CDF
330
747D
100
AcDbEntity
  8
文字
 62
     7
 48
50.0
100
AcDbText
 10
15022.63965474517
 20
10250.01374588373
 30
0.0
 40
100.0
  1
Y10            0.7
  7
STYLE1
100
AcDbText
  0
TEXT
  5
16CE0
330
747D
100
AcDbEntity
  8
文字
 62
     7
 48
50.0
100
AcDbText
 10
15022.63965474516
 20
10420.01374588372
 30
0.0
 40
100.0
  1
Y10            1.0
  7
STYLE1
100
AcDbText
  0
TEXT
  5
16CE1
330
747D
100
AcDbEntity
  8
文字
 62
     7
 48
50.0
100
AcDbText
 10
15022.63965474517
 20
10590.01374588373
 30
0.0
 40
100.0
  1
Y10            1.0
  7
STYLE1
100
AcDbText
  0
TEXT
  5
16CE3
330
747D
100
AcDbEntity
  8
文字
 62
     7
 48
50.0
100
AcDbText
 10
15022.63965474517
 20
10930.01374588372
 30
0.0
 40
100.0
  1
F12            1.2
  7
STYLE1
100
AcDbText
  0
TEXT
  5
16CE4
330
747D
100
AcDbEntity
  8
文字
 62
     7
 48
50.0
100
AcDbText
 10
13248.77747366448
 20
9060.013745883731
 30
0.0
 40
100.0
  1
12
  7
STYLE1
100
AcDbText
  0
TEXT
  5
16CE5
330
747D
100
AcDbEntity
  8
文字
 62
     7
 48
50.0
100
AcDbText
 10
13248.77747366448
 20
8890.013745883731
 30
0.0
 40
100.0
  1
13
  7
STYLE1
100
AcDbText
  0
TEXT
  5
16CE6
330
747D
100
AcDbEntity
  8
文字
 62
     7
 48
50.0
100
AcDbText
 10
13583.11819016569
 20
9400.013745883729
 30
0.0
 40
100.0
  1
シャッター
  7
STYLE1
100
AcDbText
  0
LINE
  5
16CE7
330
747D
100
AcDbEntity
  8
仕様書枠
 48
50.0
100
AcDbLine
 10
16307.19999999999
 20
9029.600000000002
 30
0.0
 11
13127.2
 21
9029.600000000003
 31
0.0
  0
TEXT
  5
16CE8
330
747D
100
AcDbEntity
  8
文字
 62
     7
 48
50.0
100
AcDbText
 10
13583.11819016569
 20
8890.013745883731
 30
0.0
 40
100.0
  1
棚板（別売）
  7
STYLE1
100
AcDbText
  0
LINE
  5
16CEA
330
747D
100
AcDbEntity
  8
仕様書枠
 48
50.0
100
AcDbLine
 10
16307.19999999999
 20
9199.600000000001
 30
0.0
 11
13127.2
 21
9199.600000000001
 31
0.0
  0
TEXT
  5
16CEB
330
747D
100
AcDbEntity
  8
文字
 62
     7
 48
50.0
100
AcDbText
 10
13583.11819016569
 20
9230.013745883729
 30
0.0
 40
100.0
  1
シャッターカバー
 41
0.9
  7
STYLE1
100
AcDbText
  0
TEXT
  5
16CEC
330
747D
100
AcDbEntity
  8
文字
 62
     7
 48
50.0
100
AcDbText
 10
13248.77747366448
 20
9230.013745883729
 30
0.0
 40
100.0
  1
11
  7
STYLE1
100
AcDbText
  0
LINE
  5
16CED
330
747D
100
AcDbEntity
  8
仕様書枠
 48
50.0
100
AcDbLine
 10
16307.2
 20
9879.600000000001
 30
0.0
 11
13127.2
 21
9879.600000000003
 31
0.0
  0
LINE
  5
16CEE
330
747D
100
AcDbEntity
  8
仕様書枠
 48
50.0
100
AcDbLine
 10
16307.2
 20
10049.6
 30
0.0
 11
13127.2
 21
10049.6
 31
0.0
  0
LINE
  5
16CEF
330
747D
100
AcDbEntity
  8
仕様書枠
 48
50.0
100
AcDbLine
 10
16307.19999999999
 20
9539.6
 30
0.0
 11
13127.2
 21
9539.600000000003
 31
0.0
  0
LINE
  5
16CF0
330
747D
100
AcDbEntity
  8
仕様書枠
 48
50.0
100
AcDbLine
 10
16307.19999999999
 20
9369.600000000001
 30
0.0
 11
13127.2
 21
9369.600000000003
 31
0.0
  0
TEXT
  5
16CF1
330
747D
100
AcDbEntity
  8
文字
 62
     7
 48
50.0
100
AcDbText
 10
13271.19032244792
 20
10080.01374588373
 30
0.0
 40
100.0
  1
6
  7
STYLE1
100
AcDbText
  0
TEXT
  5
16CF2
330
747D
100
AcDbEntity
  8
文字
 62
     7
 48
50.0
100
AcDbText
 10
13271.19032244792
 20
9910.01374588373
 30
0.0
 40
100.0
  1
7
  7
STYLE1
100
AcDbText
  0
TEXT
  5
16CF3
330
747D
100
AcDbEntity
  8
文字
 62
     7
 48
50.0
100
AcDbText
 10
13271.19032244792
 20
9570.013745883731
 30
0.0
 40
100.0
  1
9
  7
STYLE1
100
AcDbText
  0
TEXT
  5
16CF4
330
747D
100
AcDbEntity
  8
文字
 62
     7
 48
50.0
100
AcDbText
 10
13271.19032244792
 20
9740.013745883731
 30
0.0
 40
100.0
  1
8
  7
STYLE1
100
AcDbText
  0
TEXT
  5
16CF5
330
747D
100
AcDbEntity
  8
文字
 62
     7
 48
50.0
100
AcDbText
 10
13583.11819016569
 20
10080.01374588373
 30
0.0
 40
100.0
  1
鼻隠シ前後
  7
STYLE1
100
AcDbText
  0
TEXT
  5
16CF6
330
747D
100
AcDbEntity
  8
文字
 62
     7
 48
50.0
100
AcDbText
 10
13583.11819016569
 20
9910.01374588373
 30
0.0
 40
100.0
  1
母屋中
  7
STYLE1
100
AcDbText
  0
TEXT
  5
16CF7
330
747D
100
AcDbEntity
  8
文字
 62
     7
 48
50.0
100
AcDbText
 10
13583.11819016569
 20
9740.013745883729
 30
0.0
 40
100.0
  1
屋根パネル
  7
STYLE1
100
AcDbText
  0
TEXT
  5
16CF8
330
747D
100
AcDbEntity
  8
文字
 62
     7
 48
50.0
100
AcDbText
 10
13583.11819016569
 20
9570.013745883731
 30
0.0
 40
100.0
  1
壁パネル
  7
STYLE1
100
AcDbText
  0
TEXT
  5
16CF9
330
747D
100
AcDbEntity
  8
文字
 62
     7
 48
50.0
100
AcDbText
 10
13248.77747366448
 20
9400.013745883729
 30
0.0
 40
100.0
  1
10
  7
STYLE1
100
AcDbText
  0
TEXT
  5
16CFA
330
747D
100
AcDbEntity
  8
文字
 62
     7
 48
50.0
100
AcDbText
 10
13583.11819016569
 20
9060.013745883729
 30
0.0
 40
100.0
  1
シャッターレール
  7
STYLE1
100
AcDbText
  0
TEXT
  5
16CFB
330
747D
100
AcDbEntity
  8
文字
 62
     7
 48
50.0
100
AcDbText
 10
13583.11819016569
 20
10250.01374588373
 30
0.0
 40
100.0
  1
妻板左右
  7
STYLE1
100
AcDbText
  0
TEXT
  5
16CFC
330
747D
100
AcDbEntity
  8
文字
 62
     7
 48
50.0
100
AcDbText
 10
13271.19032244792
 20
10250.01374588373
 30
0.0
 40
100.0
  1
5
  7
STYLE1
100
AcDbText
  0
TEXT
  5
16CFD
330
747D
100
AcDbEntity
  8
文字
 62
     7
 48
50.0
100
AcDbText
 10
13583.11819016569
 20
10420.01374588373
 30
0.0
 40
100.0
  1
桁後
  7
STYLE1
100
AcDbText
  0
TEXT
  5
16CFE
330
747D
100
AcDbEntity
  8
文字
 62
     7
 48
50.0
100
AcDbText
 10
13583.11819016569
 20
10590.01374588373
 30
0.0
 40
100.0
  1
桁前
  7
STYLE1
100
AcDbText
  0
TEXT
  5
16CFF
330
747D
100
AcDbEntity
  8
文字
 62
     7
 48
50.0
100
AcDbText
 10
13583.11819016569
 20
10760.01374588373
 30
0.0
 40
100.0
  1
柱
  7
STYLE1
100
AcDbText
  0
TEXT
  5
16D00
330
747D
100
AcDbEntity
  8
文字
 62
     7
 48
50.0
100
AcDbText
 10
13583.11819016569
 20
10930.01374588373
 30
0.0
 40
100.0
  1
土台枠
  7
STYLE1
100
AcDbText
  0
TEXT
  5
16D01
330
747D
100
AcDbEntity
  8
文字
 62
     7
 48
50.0
100
AcDbText
 10
14859.79774614482
 20
11100.01374588373
 30
0.0
 40
100.0
  1
材料（材質）　　単位mm
  7
STYLE1
100
AcDbText
  0
TEXT
  5
16D02
330
747D
100
AcDbEntity
  8
文字
 62
     7
 48
50.0
100
AcDbText
 10
13732.03840939435
 20
11100.01374588373
 30
0.0
 40
100.0
  1
部　　品　　名
  7
STYLE1
100
AcDbText
  0
TEXT
  5
16D03
330
747D
100
AcDbEntity
  8
文字
 62
     7
 48
50.0
100
AcDbText
 10
13271.19032244792
 20
10590.01374588373
 30
0.0
 40
100.0
  1
3
  7
STYLE1
100
AcDbText
  0
TEXT
  5
16D04
330
747D
100
AcDbEntity
  8
文字
 62
     7
 48
50.0
100
AcDbText
 10
13271.19032244792
 20
10420.01374588373
 30
0.0
 40
100.0
  1
4
  7
STYLE1
100
AcDbText
  0
TEXT
  5
16D05
330
747D
100
AcDbEntity
  8
文字
 62
     7
 48
50.0
100
AcDbText
 10
13271.19032244792
 20
10760.01374588373
 30
0.0
 40
100.0
  1
2
  7
STYLE1
100
AcDbText
  0
TEXT
  5
16D06
330
747D
100
AcDbEntity
  8
文字
 62
     7
 48
50.0
100
AcDbText
 10
13271.19032244792
 20
10930.01374588373
 30
0.0
 40
100.0
  1
1
  7
STYLE1
100
AcDbText
  0
TEXT
  5
16D07
330
747D
100
AcDbEntity
  8
文字
 62
     7
 48
50.0
100
AcDbText
 10
13197.42518560407
 20
11100.01374588373
 30
0.0
 40
100.0
  1
品番
  7
STYLE1
100
AcDbText
  0
LINE
  5
16D08
330
747D
100
AcDbEntity
  8
仕様書枠
 48
50.0
100
AcDbLine
 10
16307.19999999999
 20
10559.6
 30
0.0
 11
13127.2
 21
10559.6
 31
0.0
  0
LINE
  5
16D09
330
747D
100
AcDbEntity
  8
仕様書枠
 48
50.0
100
AcDbLine
 10
16307.19999999999
 20
10219.6
 30
0.0
 11
13127.2
 21
10219.6
 31
0.0
  0
LINE
  5
16D0A
330
747D
100
AcDbEntity
  8
仕様書枠
 48
50.0
100
AcDbLine
 10
16307.19999999999
 20
10389.6
 30
0.0
 11
13127.2
 21
10389.6
 31
0.0
  0
LINE
  5
16D0B
330
747D
100
AcDbEntity
  8
仕様書枠
 48
50.0
100
AcDbLine
 10
16307.2
 20
10899.6
 30
0.0
 11
13127.2
 21
10899.6
 31
0.0
  0
LINE
  5
16D0C
330
747D
100
AcDbEntity
  8
仕様書枠
 48
50.0
100
AcDbLine
 10
16307.2
 20
10729.6
 30
0.0
 11
13127.2
 21
10729.6
 31
0.0
  0
LINE
  5
16D0D
330
747D
100
AcDbEntity
  8
仕様書枠
 48
50.0
100
AcDbLine
 10
16307.2
 20
11069.6
 30
0.0
 11
13127.2
 21
11069.6
 31
0.0
  0
LINE
  5
16D0E
330
747D
100
AcDbEntity
  8
仕様書枠
 48
50.0
100
AcDbLine
 10
13490.2
 20
11239.6
 30
0.0
 11
13490.20000000001
 21
8859.600000000005
 31
0.0
  0
LINE
  5
16D0F
330
747D
100
AcDbEntity
  8
仕様書枠
 48
50.0
100
AcDbLine
 10
14785.2
 20
11239.6
 30
0.0
 11
14785.2
 21
8859.600000000007
 31
0.0
  0
LINE
  5
16D10
330
747D
100
AcDbEntity
  8
仕様書枠
 48
50.0
100
AcDbLine
 10
16307.2
 20
8349.600000000002
 30
0.0
 11
16307.2
 21
11239.6
 31
0.0
  0
LINE
  5
16D11
330
747D
100
AcDbEntity
  8
仕様書枠
 48
50.0
100
AcDbLine
 10
13127.2
 20
11239.6
 30
0.0
 11
13127.2
 21
8349.600000000004
 31
0.0
  0
LINE
  5
16D12
330
747D
100
AcDbEntity
  8
仕様書枠
 48
50.0
100
AcDbLine
 10
16307.2
 20
11239.6
 30
0.0
 11
13127.2
 21
11239.6
 31
0.0
  0
LINE
  5
17332
330
747D
100
AcDbEntity
  8
部品1
100
AcDbLine
 10
4992.069000782702
 20
4377.931598713261
 30
0.0
 11
6782.069000782702
 21
4377.931598713261
 31
0.0
  0
LINE
  5
17333
330
747D
100
AcDbEntity
  8
部品1
 48
50.0
100
AcDbLine
 10
6824.660579676272
 20
4612.931598713265
 30
0.0
 11
4949.477421889135
 21
4612.931598713268
 31
0.0
  0
LINE
  5
17334
330
747D
100
AcDbEntity
  8
部品1
 48
50.0
100
AcDbLine
 10
6811.445256215238
 20
4471.931598713268
 30
0.0
 11
4962.692745350166
 21
4471.931598713268
 31
0.0
  0
LINE
  5
17335
330
747D
100
AcDbEntity
  8
細線
 48
50.0
100
AcDbLine
 10
6830.029462561267
 20
4584.931598713268
 30
0.0
 11
4944.108539004144
 21
4584.931598713264
 31
0.0
  0
LINE
  5
17336
330
747D
100
AcDbEntity
  8
細線
 48
50.0
100
AcDbLine
 10
6821.793432036415
 20
4492.731598713262
 30
0.0
 11
4952.344569528973
 21
4492.731598713268
 31
0.0
  0
LINE
  5
17337
330
747D
100
AcDbEntity
  8
部品1
100
AcDbLine
 10
6831.649339767371
 20
4605.535073318027
 30
0.0
 11
6830.51594243502
 21
4585.558945335427
 31
0.0
  0
LINE
  5
17338
330
747D
100
AcDbEntity
  8
細線
 48
50.0
100
AcDbLine
 10
6799.069000782701
 20
4612.931598713267
 30
0.0
 11
6799.069000782701
 21
4471.931598713267
 31
0.0
  0
LINE
  5
17339
330
747D
100
AcDbEntity
  8
細線
 48
50.0
100
AcDbLine
 10
4975.069000782703
 20
4612.931598713267
 30
0.0
 11
4975.069000782703
 21
4471.931598713267
 31
0.0
  0
LINE
  5
1733A
330
747D
100
AcDbEntity
  8
部品1
100
AcDbLine
 10
6819.078922113445
 20
4489.901538168367
 30
0.0
 11
6818.434016306337
 21
4478.535073318027
 31
0.0
  0
LINE
  5
1733B
330
747D
100
AcDbEntity
  8
部品1
100
AcDbLine
 10
6827.314952638293
 20
4582.10153816837
 30
0.0
 11
6822.279911910181
 21
4493.358945335425
 31
0.0
  0
ARC
  5
1733C
330
747D
100
AcDbEntity
  8
部品1
 48
50.0
100
AcDbCircle
 10
6830.310135534478
 20
4581.931598713269
 30
0.0
 40
3.0
100
AcDbArc
 50
97.6581272073637
 51
176.7526572096721
  0
ARC
  5
1733D
330
747D
100
AcDbEntity
  8
部品1
 48
50.0
100
AcDbCircle
 10
6822.074105009633
 20
4489.731598713264
 30
0.0
 40
3.0
100
AcDbArc
 50
97.6581272073637
 51
176.7526572096721
  0
ARC
  5
1733E
330
747D
100
AcDbEntity
  8
部品1
 48
50.0
100
AcDbCircle
 10
6821.581035901073
 20
4493.398597874949
 30
0.0
 40
0.7
100
AcDbArc
 50
277.6581272073637
 51
356.7526572096916
  0
ARC
  5
1733F
330
747D
100
AcDbEntity
  8
部品1
 48
50.0
100
AcDbCircle
 10
6829.817066425913
 20
4585.598597874952
 30
0.0
 40
0.7
100
AcDbArc
 50
277.6581272073637
 51
356.75265720962
  0
ARC
  5
17340
330
747D
100
AcDbEntity
  8
部品1
100
AcDbCircle
 10
6811.445256215238
 20
4478.931598713269
 30
0.0
 40
7.0
100
AcDbArc
 50
270.0
 51
356.7526572096721
  0
ARC
  5
17341
330
747D
100
AcDbEntity
  8
部品1
100
AcDbCircle
 10
6824.660579676272
 20
4605.931598713267
 30
0.0
 40
7.0
100
AcDbArc
 50
356.7526572096721
 51
90.0
  0
ARC
  5
17342
330
747D
100
AcDbEntity
  8
部品1
100
AcDbCircle
 10
4949.477421889135
 20
4605.931598713267
 30
0.0
 40
7.0
100
AcDbArc
 50
90.0
 51
183.2473427903279
  0
ARC
  5
17343
330
747D
100
AcDbEntity
  8
部品1
100
AcDbCircle
 10
4962.692745350166
 20
4478.931598713269
 30
0.0
 40
7.0
100
AcDbArc
 50
183.2473427903279
 51
270.0
  0
ARC
  5
17344
330
747D
100
AcDbEntity
  8
部品1
 48
50.0
100
AcDbCircle
 10
4944.320935139494
 20
4585.598597874952
 30
0.0
 40
0.7
100
AcDbArc
 50
183.2473427903799
 51
262.3418727926363
  0
ARC
  5
17345
330
747D
100
AcDbEntity
  8
部品1
 48
50.0
100
AcDbCircle
 10
4952.556965664331
 20
4493.398597874949
 30
0.0
 40
0.7
100
AcDbArc
 50
183.2473427903084
 51
262.3418727926363
  0
ARC
  5
17346
330
747D
100
AcDbEntity
  8
部品1
 48
50.0
100
AcDbCircle
 10
4952.063896555769
 20
4489.731598713264
 30
0.0
 40
3.0
100
AcDbArc
 50
3.247342790327926
 51
82.34187279263631
  0
ARC
  5
17347
330
747D
100
AcDbEntity
  8
部品1
 48
50.0
100
AcDbCircle
 10
4943.827866030925
 20
4581.931598713269
 30
0.0
 40
3.0
100
AcDbArc
 50
3.247342790327926
 51
82.34187279263631
  0
LINE
  5
17348
330
747D
100
AcDbEntity
  8
部品1
100
AcDbLine
 10
4946.823048927111
 20
4582.10153816837
 30
0.0
 11
4951.858089655226
 21
4493.358945335425
 31
0.0
  0
LINE
  5
17349
330
747D
100
AcDbEntity
  8
部品1
100
AcDbLine
 10
4955.059079451962
 20
4489.901538168367
 30
0.0
 11
4955.70398525907
 21
4478.535073318027
 31
0.0
  0
LINE
  5
1734A
330
747D
100
AcDbEntity
  8
部品1
100
AcDbLine
 10
4942.488661798033
 20
4605.535073318027
 30
0.0
 11
4943.622059130382
 21
4585.558945335427
 31
0.0
  0
ARC
  5
1734B
330
747D
100
AcDbEntity
  8
部品1
 48
0.01
100
AcDbCircle
 10
6204.069000782705
 20
4410.431598713262
 30
0.0
 40
2.0
100
AcDbArc
 50
180.0
 51
270.0
  0
ARC
  5
1734C
330
747D
100
AcDbEntity
  8
部品1
 48
0.01
100
AcDbCircle
 10
6204.069000782701
 20
4441.931598713261
 30
0.0
 40
2.0
100
AcDbArc
 50
90.0
 51
180.0
  0
ARC
  5
1734D
330
747D
100
AcDbEntity
  8
部品1
 48
0.01
100
AcDbCircle
 10
6380.0690007827
 20
4410.431598713262
 30
0.0
 40
2.0
100
AcDbArc
 50
270.0
 51
0.0
  0
ARC
  5
1734E
330
747D
100
AcDbEntity
  8
部品1
 48
0.01
100
AcDbCircle
 10
6380.0690007827
 20
4441.931598713261
 30
0.0
 40
2.0
100
AcDbArc
 50
0.0
 51
90.0
  0
LINE
  5
1734F
330
747D
100
AcDbEntity
  8
細線
100
AcDbLine
 10
6292.069000782704
 20
4414.431598713261
 30
0.0
 11
6218.069000782701
 21
4414.431598713261
 31
0.0
  0
LINE
  5
17350
330
747D
100
AcDbEntity
  8
細線
100
AcDbLine
 10
6292.0690007827
 20
4437.431598713261
 30
0.0
 11
6366.069000782701
 21
4437.431598713261
 31
0.0
  0
LINE
  5
17351
330
747D
100
AcDbEntity
  8
細線
100
AcDbLine
 10
6366.069000782701
 20
4414.431598713261
 30
0.0
 11
6292.0690007827
 21
4414.431598713261
 31
0.0
  0
LINE
  5
17352
330
747D
100
AcDbEntity
  8
細線
100
AcDbLine
 10
6218.069000782701
 20
4437.431598713261
 30
0.0
 11
6292.0690007827
 21
4437.431598713261
 31
0.0
  0
LINE
  5
17353
330
747D
100
AcDbEntity
  8
細線
100
AcDbLine
 10
6218.069000782701
 20
4414.431598713261
 30
0.0
 11
6218.069000782701
 21
4437.431598713261
 31
0.0
  0
LINE
  5
17354
330
747D
100
AcDbEntity
  8
細線
100
AcDbLine
 10
6366.069000782701
 20
4437.431598713261
 30
0.0
 11
6366.069000782701
 21
4414.431598713261
 31
0.0
  0
LINE
  5
17355
330
747D
100
AcDbEntity
  8
部品1
 48
0.01
100
AcDbLine
 10
6202.069000782704
 20
4410.431598713262
 30
0.0
 11
6202.0690007827
 21
4441.931598713261
 31
0.0
  0
LINE
  5
17356
330
747D
100
AcDbEntity
  8
部品1
 48
0.01
100
AcDbLine
 10
6380.0690007827
 20
4408.431598713261
 30
0.0
 11
6204.069000782705
 21
4408.431598713261
 31
0.0
  0
LINE
  5
17357
330
747D
100
AcDbEntity
  8
部品1
 48
0.01
100
AcDbLine
 10
6382.069000782701
 20
4441.931598713261
 30
0.0
 11
6382.069000782701
 21
4410.431598713262
 31
0.0
  0
LINE
  5
17358
330
747D
100
AcDbEntity
  8
部品1
 48
0.01
100
AcDbLine
 10
6204.069000782701
 20
4443.931598713262
 30
0.0
 11
6380.0690007827
 21
4443.931598713262
 31
0.0
  0
LINE
  5
17359
330
747D
100
AcDbEntity
  8
細線
100
AcDbLine
 10
6366.069000782701
 20
4431.431598713261
 30
0.0
 11
6292.0690007827
 21
4431.431598713261
 31
0.0
  0
LINE
  5
1735A
330
747D
100
AcDbEntity
  8
細線
100
AcDbLine
 10
6366.069000782701
 20
4425.431598713261
 30
0.0
 11
6292.0690007827
 21
4425.431598713261
 31
0.0
  0
LINE
  5
1735B
330
747D
100
AcDbEntity
  8
細線
100
AcDbLine
 10
6366.069000782704
 20
4419.431598713261
 30
0.0
 11
6292.0690007827
 21
4419.431598713261
 31
0.0
  0
LINE
  5
1735C
330
747D
100
AcDbEntity
  8
細線
100
AcDbLine
 10
6366.069000782701
 20
4431.431598713261
 30
0.0
 11
6297.069000782701
 21
4431.431598713261
 31
0.0
  0
LINE
  5
1735D
330
747D
100
AcDbEntity
  8
細線
100
AcDbLine
 10
6218.069000782705
 20
4431.431598713261
 30
0.0
 11
6292.0690007827
 21
4431.431598713261
 31
0.0
  0
LINE
  5
1735E
330
747D
100
AcDbEntity
  8
細線
100
AcDbLine
 10
6218.069000782705
 20
4419.431598713261
 30
0.0
 11
6292.0690007827
 21
4419.431598713261
 31
0.0
  0
LINE
  5
1735F
330
747D
100
AcDbEntity
  8
細線
100
AcDbLine
 10
6218.069000782705
 20
4425.431598713261
 30
0.0
 11
6292.0690007827
 21
4425.431598713261
 31
0.0
  0
LINE
  5
17360
330
747D
100
AcDbEntity
  8
細線
100
AcDbLine
 10
6292.0690007827
 20
4437.431598713261
 30
0.0
 11
6292.069000782704
 21
4414.431598713261
 31
0.0
  0
LINE
  5
17361
330
747D
100
AcDbEntity
  8
細線
100
AcDbLine
 10
5482.069000782704
 20
4437.431598713261
 30
0.0
 11
5482.069000782701
 21
4414.431598713261
 31
0.0
  0
LINE
  5
17362
330
747D
100
AcDbEntity
  8
細線
100
AcDbLine
 10
5556.0690007827
 20
4425.431598713261
 30
0.0
 11
5482.069000782704
 21
4425.431598713261
 31
0.0
  0
LINE
  5
17363
330
747D
100
AcDbEntity
  8
細線
100
AcDbLine
 10
5556.0690007827
 20
4419.431598713261
 30
0.0
 11
5482.069000782704
 21
4419.431598713261
 31
0.0
  0
LINE
  5
17364
330
747D
100
AcDbEntity
  8
細線
100
AcDbLine
 10
5556.0690007827
 20
4431.431598713261
 30
0.0
 11
5482.069000782704
 21
4431.431598713261
 31
0.0
  0
LINE
  5
17365
330
747D
100
AcDbEntity
  8
細線
100
AcDbLine
 10
5408.069000782704
 20
4431.431598713261
 30
0.0
 11
5477.069000782704
 21
4431.431598713261
 31
0.0
  0
LINE
  5
17366
330
747D
100
AcDbEntity
  8
細線
100
AcDbLine
 10
5408.069000782701
 20
4419.431598713261
 30
0.0
 11
5482.069000782704
 21
4419.431598713261
 31
0.0
  0
LINE
  5
17367
330
747D
100
AcDbEntity
  8
細線
100
AcDbLine
 10
5408.069000782704
 20
4425.431598713261
 30
0.0
 11
5482.069000782704
 21
4425.431598713261
 31
0.0
  0
LINE
  5
17368
330
747D
100
AcDbEntity
  8
細線
100
AcDbLine
 10
5408.069000782704
 20
4431.431598713261
 30
0.0
 11
5482.069000782704
 21
4431.431598713261
 31
0.0
  0
LINE
  5
17369
330
747D
100
AcDbEntity
  8
部品1
 48
0.01
100
AcDbLine
 10
5570.069000782704
 20
4443.931598713262
 30
0.0
 11
5394.069000782704
 21
4443.931598713262
 31
0.0
  0
LINE
  5
1736A
330
747D
100
AcDbEntity
  8
部品1
 48
0.01
100
AcDbLine
 10
5392.069000782704
 20
4441.931598713261
 30
0.0
 11
5392.069000782704
 21
4410.431598713262
 31
0.0
  0
LINE
  5
1736B
330
747D
100
AcDbEntity
  8
部品1
 48
0.01
100
AcDbLine
 10
5394.069000782704
 20
4408.431598713261
 30
0.0
 11
5570.069000782701
 21
4408.431598713261
 31
0.0
  0
LINE
  5
1736C
330
747D
100
AcDbEntity
  8
部品1
 48
0.01
100
AcDbLine
 10
5572.0690007827
 20
4410.431598713262
 30
0.0
 11
5572.069000782704
 21
4441.931598713261
 31
0.0
  0
LINE
  5
1736D
330
747D
100
AcDbEntity
  8
細線
100
AcDbLine
 10
5408.069000782704
 20
4437.431598713261
 30
0.0
 11
5408.069000782704
 21
4414.431598713261
 31
0.0
  0
LINE
  5
1736E
330
747D
100
AcDbEntity
  8
細線
100
AcDbLine
 10
5556.069000782704
 20
4414.431598713261
 30
0.0
 11
5556.069000782704
 21
4437.431598713261
 31
0.0
  0
LINE
  5
1736F
330
747D
100
AcDbEntity
  8
細線
100
AcDbLine
 10
5556.069000782704
 20
4437.431598713261
 30
0.0
 11
5482.069000782704
 21
4437.431598713261
 31
0.0
  0
LINE
  5
17370
330
747D
100
AcDbEntity
  8
細線
100
AcDbLine
 10
5408.069000782704
 20
4414.431598713261
 30
0.0
 11
5482.069000782704
 21
4414.431598713261
 31
0.0
  0
LINE
  5
17371
330
747D
100
AcDbEntity
  8
細線
100
AcDbLine
 10
5482.069000782704
 20
4437.431598713261
 30
0.0
 11
5408.069000782704
 21
4437.431598713261
 31
0.0
  0
LINE
  5
17372
330
747D
100
AcDbEntity
  8
細線
100
AcDbLine
 10
5482.069000782701
 20
4414.431598713261
 30
0.0
 11
5556.069000782704
 21
4414.431598713261
 31
0.0
  0
ARC
  5
17373
330
747D
100
AcDbEntity
  8
部品1
 48
0.01
100
AcDbCircle
 10
5394.069000782704
 20
4441.931598713261
 30
0.0
 40
2.0
100
AcDbArc
 50
90.0
 51
180.0
  0
ARC
  5
17374
330
747D
100
AcDbEntity
  8
部品1
 48
0.01
100
AcDbCircle
 10
5394.069000782704
 20
4410.431598713262
 30
0.0
 40
2.0
100
AcDbArc
 50
180.0
 51
270.0
  0
ARC
  5
17375
330
747D
100
AcDbEntity
  8
部品1
 48
0.01
100
AcDbCircle
 10
5570.069000782704
 20
4441.931598713261
 30
0.0
 40
2.0
100
AcDbArc
 50
0.0
 51
90.0
  0
ARC
  5
17376
330
747D
100
AcDbEntity
  8
部品1
 48
0.01
100
AcDbCircle
 10
5570.069000782701
 20
4410.431598713262
 30
0.0
 40
2.0
100
AcDbArc
 50
270.0
 51
0.0
  0
DIMENSION
  5
17377
330
747D
100
AcDbEntity
  8
寸法
 48
50.0
100
AcDbDimension
  2
*D14
 10
6832.069000782701
 20
5218.566791659262
 30
0.0
 11
5887.069000782704
 21
5218.566791659262
 31
0.0
 70
   160
 71
     5
 42
1889.999999999998
  3
INABA_S40G
100
AcDbAlignedDimension
 13
4942.069000782702
 23
4612.931598713267
 33
0.0
 14
6832.069000782701
 24
4612.931598713265
 34
0.0
100
AcDbRotatedDimension
  0
DIMENSION
  5
17378
330
747D
100
AcDbEntity
  8
寸法
 48
50.0
100
AcDbDimension
  2
*D15
 10
6782.069000782704
 20
5018.657870445172
 30
0.0
 11
7145.554282156941
 21
5018.657870445172
 31
0.0
 70
   160
 71
     5
 42
49.99999999999636
  3
INABA_S40G
100
AcDbAlignedDimension
 13
6832.069000782701
 23
4612.931598713265
 33
0.0
 14
6782.069000782704
 24
4612.931598713267
 34
0.0
100
AcDbRotatedDimension
  0
DIMENSION
  5
17379
330
747D
100
AcDbEntity
  8
寸法
 48
50.0
100
AcDbDimension
  2
*D16
 10
4942.069000782702
 20
5018.657870445172
 30
0.0
 11
4628.583719408455
 21
5018.657870445172
 31
0.0
 70
   160
 71
     5
 42
50.0
  3
INABA_S40G
100
AcDbAlignedDimension
 13
4992.069000782702
 23
4612.931598713268
 33
0.0
 14
4942.069000782702
 24
4612.931598713267
 34
0.0
100
AcDbRotatedDimension
1001
ACAD
1000
DSTYLE
1002
{
1002
}
  0
DIMENSION
  5
1737A
330
747D
100
AcDbEntity
  8
寸法
 48
50.0
100
AcDbDimension
  2
*D17
 10
4992.069000782702
 20
5018.657870445172
 30
0.0
 11
5887.069000782704
 21
5018.657870445172
 31
0.0
 70
   160
  1
柱外寸法<>
 71
     5
 42
1790.000000000002
  3
INABA_S40G
100
AcDbAlignedDimension
 13
6782.069000782704
 23
4612.931598713267
 33
0.0
 14
4992.069000782702
 24
4612.931598713268
 34
0.0
100
AcDbRotatedDimension
  0
TEXT
  5
1737D
330
747D
100
AcDbEntity
  8
文字
 62
     7
 48
50.0
100
AcDbText
 10
14528.81784699908
 20
483.8967129911416
 30
0.0
 40
160.0
  1
FXN-1730S
  7
MSGOTHIC
100
AcDbText
  0
CIRCLE
  5
17420
330
747D
100
AcDbEntity
  8
細線
 48
50.0
100
AcDbCircle
 10
5887.069000782698
 20
3425.431598713262
 30
0.0
 40
18.0
  0
ARC
  5
17421
330
747D
100
AcDbEntity
  8
細線
 48
50.0
100
AcDbCircle
 10
6187.069000782699
 20
3100.431598713262
 30
0.0
 40
15.0
100
AcDbArc
 50
270.0
 51
90.0
  0
ARC
  5
17422
330
747D
100
AcDbEntity
  8
細線
 48
50.0
100
AcDbCircle
 10
6087.069000782698
 20
3100.431598713262
 30
0.0
 40
15.0
100
AcDbArc
 50
90.0
 51
270.0
  0
LINE
  5
17423
330
747D
100
AcDbEntity
  8
細線
 48
50.0
100
AcDbLine
 10
6087.069000782698
 20
3115.431598713261
 30
0.0
 11
6187.069000782699
 21
3115.431598713261
 31
0.0
  0
LINE
  5
17424
330
747D
100
AcDbEntity
  8
細線
 48
50.0
100
AcDbLine
 10
6187.069000782699
 20
3085.431598713262
 30
0.0
 11
6087.069000782698
 21
3085.431598713262
 31
0.0
  0
LINE
  5
17425
330
747D
100
AcDbEntity
  8
細線
 48
50.0
100
AcDbLine
 10
5687.069000782699
 20
3085.431598713262
 30
0.0
 11
5587.069000782698
 21
3085.431598713262
 31
0.0
  0
LINE
  5
17426
330
747D
100
AcDbEntity
  8
細線
 48
50.0
100
AcDbLine
 10
5587.069000782698
 20
3115.431598713261
 30
0.0
 11
5687.069000782699
 21
3115.431598713261
 31
0.0
  0
ARC
  5
17427
330
747D
100
AcDbEntity
  8
細線
 48
50.0
100
AcDbCircle
 10
5687.069000782699
 20
3100.431598713262
 30
0.0
 40
15.0
100
AcDbArc
 50
270.0
 51
90.0
  0
ARC
  5
17428
330
747D
100
AcDbEntity
  8
細線
 48
50.0
100
AcDbCircle
 10
5587.069000782698
 20
3100.431598713262
 30
0.0
 40
15.0
100
AcDbArc
 50
90.0
 51
270.0
  0
LINE
  5
1747A
330
747D
100
AcDbEntity
  8
細線
100
AcDbLine
 10
6679.069000782701
 20
2547.931598713262
 30
0.0
 11
5095.069000782695
 21
2547.931598713262
 31
0.0
  0
LINE
  5
1747B
330
747D
100
AcDbEntity
  8
細線
100
AcDbLine
 10
5095.069000782695
 20
3067.931598713262
 30
0.0
 11
6679.0690007827
 21
3067.931598713262
 31
0.0
  0
LINE
  5
1747C
330
747D
100
AcDbEntity
  8
細線
100
AcDbLine
 10
5095.069000782695
 20
3002.931598713261
 30
0.0
 11
6679.0690007827
 21
3002.931598713261
 31
0.0
  0
LINE
  5
1747D
330
747D
100
AcDbEntity
  8
細線
100
AcDbLine
 10
5095.069000782695
 20
2937.931598713261
 30
0.0
 11
6679.0690007827
 21
2937.931598713261
 31
0.0
  0
LINE
  5
1747E
330
747D
100
AcDbEntity
  8
細線
100
AcDbLine
 10
5095.069000782695
 20
2872.931598713261
 30
0.0
 11
6679.0690007827
 21
2872.931598713261
 31
0.0
  0
LINE
  5
1747F
330
747D
100
AcDbEntity
  8
細線
100
AcDbLine
 10
5095.069000782695
 20
2807.931598713262
 30
0.0
 11
6679.0690007827
 21
2807.931598713262
 31
0.0
  0
LINE
  5
17480
330
747D
100
AcDbEntity
  8
細線
100
AcDbLine
 10
5095.069000782695
 20
2742.931598713262
 30
0.0
 11
6679.0690007827
 21
2742.931598713262
 31
0.0
  0
LINE
  5
17481
330
747D
100
AcDbEntity
  8
細線
100
AcDbLine
 10
5095.069000782695
 20
2677.931598713261
 30
0.0
 11
6679.0690007827
 21
2677.931598713261
 31
0.0
  0
LINE
  5
17482
330
747D
100
AcDbEntity
  8
細線
100
AcDbLine
 10
5095.069000782695
 20
2612.931598713262
 30
0.0
 11
6679.0690007827
 21
2612.931598713262
 31
0.0
  0
LINE
  5
17483
330
747D
100
AcDbEntity
  8
細線
100
AcDbLine
 10
5095.069000782695
 20
2547.931598713262
 30
0.0
 11
6679.0690007827
 21
2547.931598713262
 31
0.0
  0
LINE
  5
17484
330
747D
100
AcDbEntity
  8
細線
100
AcDbLine
 10
5095.069000782695
 20
3717.931598713261
 30
0.0
 11
6679.0690007827
 21
3717.931598713261
 31
0.0
  0
LINE
  5
17485
330
747D
100
AcDbEntity
  8
細線
100
AcDbLine
 10
5095.069000782695
 20
3652.931598713261
 30
0.0
 11
6679.0690007827
 21
3652.931598713261
 31
0.0
  0
LINE
  5
17486
330
747D
100
AcDbEntity
  8
細線
100
AcDbLine
 10
5095.069000782695
 20
3587.931598713261
 30
0.0
 11
6679.0690007827
 21
3587.931598713261
 31
0.0
  0
LINE
  5
17487
330
747D
100
AcDbEntity
  8
細線
100
AcDbLine
 10
5095.069000782695
 20
3522.931598713262
 30
0.0
 11
6679.0690007827
 21
3522.931598713262
 31
0.0
  0
LINE
  5
17488
330
747D
100
AcDbEntity
  8
細線
100
AcDbLine
 10
5095.069000782695
 20
3457.931598713262
 30
0.0
 11
6679.0690007827
 21
3457.931598713262
 31
0.0
  0
LINE
  5
17489
330
747D
100
AcDbEntity
  8
細線
100
AcDbLine
 10
5095.069000782695
 20
3392.931598713261
 30
0.0
 11
6679.0690007827
 21
3392.931598713261
 31
0.0
  0
LINE
  5
1748A
330
747D
100
AcDbEntity
  8
細線
100
AcDbLine
 10
5095.069000782695
 20
3327.931598713262
 30
0.0
 11
6679.0690007827
 21
3327.931598713262
 31
0.0
  0
LINE
  5
1748B
330
747D
100
AcDbEntity
  8
細線
100
AcDbLine
 10
5095.069000782695
 20
3262.931598713262
 30
0.0
 11
6679.0690007827
 21
3262.931598713262
 31
0.0
  0
LINE
  5
1748C
330
747D
100
AcDbEntity
  8
細線
100
AcDbLine
 10
5095.069000782695
 20
3197.931598713262
 30
0.0
 11
6679.0690007827
 21
3197.931598713262
 31
0.0
  0
LINE
  5
1748D
330
747D
100
AcDbEntity
  8
細線
100
AcDbLine
 10
5095.069000782695
 20
3132.931598713261
 30
0.0
 11
6679.0690007827
 21
3132.931598713261
 31
0.0
  0
LINE
  5
1748E
330
747D
100
AcDbEntity
  8
細線
100
AcDbLine
 10
5095.069000782695
 20
4107.931598713261
 30
0.0
 11
6679.0690007827
 21
4107.931598713261
 31
0.0
  0
LINE
  5
1748F
330
747D
100
AcDbEntity
  8
細線
100
AcDbLine
 10
5095.069000782695
 20
4042.931598713261
 30
0.0
 11
6679.0690007827
 21
4042.931598713261
 31
0.0
  0
LINE
  5
17490
330
747D
100
AcDbEntity
  8
細線
100
AcDbLine
 10
5095.069000782695
 20
3977.931598713261
 30
0.0
 11
6679.0690007827
 21
3977.931598713261
 31
0.0
  0
LINE
  5
17491
330
747D
100
AcDbEntity
  8
細線
100
AcDbLine
 10
5095.069000782695
 20
3912.931598713262
 30
0.0
 11
6679.0690007827
 21
3912.931598713262
 31
0.0
  0
LINE
  5
17492
330
747D
100
AcDbEntity
  8
細線
100
AcDbLine
 10
5095.069000782695
 20
3847.931598713262
 30
0.0
 11
6679.0690007827
 21
3847.931598713262
 31
0.0
  0
LINE
  5
17493
330
747D
100
AcDbEntity
  8
細線
100
AcDbLine
 10
5095.069000782695
 20
3782.931598713262
 30
0.0
 11
6679.0690007827
 21
3782.931598713262
 31
0.0
  0
LINE
  5
17494
330
747D
100
AcDbEntity
  8
細線
100
AcDbLine
 10
5095.069000782695
 20
4172.931598713261
 30
0.0
 11
6679.0690007827
 21
4172.931598713261
 31
0.0
  0
LINE
  5
17495
330
747D
100
AcDbEntity
  8
部品1
100
AcDbLine
 10
4992.069000782699
 20
4212.931598713261
 30
0.0
 11
6782.069000782704
 21
4212.931598713261
 31
0.0
  0
LINE
  5
17496
330
747D
100
AcDbEntity
  8
破線
 48
5.0
100
AcDbLine
 10
5095.069000782699
 20
2287.931598713267
 30
0.0
 11
5047.069000782698
 21
2287.931598713267
 31
0.0
  0
LINE
  5
17497
330
747D
100
AcDbEntity
  8
破線
 48
5.0
100
AcDbLine
 10
6727.069000782702
 20
2287.931598713262
 30
0.0
 11
6679.069000782701
 21
2287.931598713262
 31
0.0
  0
LINE
  5
17498
330
747D
100
AcDbEntity
  8
破線
 48
5.0
100
AcDbLine
 10
6679.0690007827
 20
2537.931598713262
 30
0.0
 11
6679.069000782701
 21
2287.931598713262
 31
0.0
  0
LINE
  5
17499
330
747D
100
AcDbEntity
  8
部品1
100
AcDbLine
 10
6679.069000782702
 20
4212.931598713261
 30
0.0
 11
6679.0690007827
 21
2537.931598713262
 31
0.0
  0
LINE
  5
1749A
330
747D
100
AcDbEntity
  8
破線
 48
5.0
100
AcDbLine
 10
5095.069000782703
 20
2537.931598713262
 30
0.0
 11
5095.069000782699
 21
2287.931598713267
 31
0.0
  0
LINE
  5
1749B
330
747D
100
AcDbEntity
  8
部品1
100
AcDbLine
 10
5095.069000782703
 20
4212.931598713261
 30
0.0
 11
5095.069000782703
 21
2537.931598713262
 31
0.0
  0
LINE
  5
1749C
330
747D
100
AcDbEntity
  8
破線
 48
5.0
100
AcDbLine
 10
5047.069000782698
 20
2187.931598713269
 30
0.0
 11
4992.069000782699
 21
2187.931598713269
 31
0.0
  0
LINE
  5
1749D
330
747D
100
AcDbEntity
  8
破線
 48
5.0
100
AcDbLine
 10
6782.069000782698
 20
2187.931598713261
 30
0.0
 11
6727.069000782702
 21
2187.931598713261
 31
0.0
  0
LINE
  5
1749E
330
747D
100
AcDbEntity
  8
破線
 48
5.0
100
AcDbLine
 10
5047.069000782702
 20
2537.931598713262
 30
0.0
 11
5047.069000782698
 21
2187.931598713261
 31
0.0
  0
LINE
  5
1749F
330
747D
100
AcDbEntity
  8
破線
 48
5.0
100
AcDbLine
 10
6727.069000782698
 20
2537.931598713262
 30
0.0
 11
6727.069000782702
 21
2187.931598713261
 31
0.0
  0
LWPOLYLINE
  5
174A3
330
747D
100
AcDbEntity
  8
部品1
100
AcDbPolyline
 90
        4
 70
     1
 43
0.0
 10
5503.934485848819
 20
1787.931598713261
 10
5503.934485848819
 20
1548.039277167729
 10
6267.405152077259
 20
1548.039277167729
 10
6267.405152077259
 20
1787.931598713261
  0
TEXT
  5
174A4
330
747D
100
AcDbEntity
  8
部品1
100
AcDbText
 10
5593.868774266645
 20
1595.038069494737
 30
0.0
 40
135.0
  1
正面図
  7
MSGOTHIC
100
AcDbText
  0
LINE
  5
174A6
330
747D
100
AcDbEntity
  8
破線
 48
5.0
100
AcDbLine
 10
4992.069000782702
 20
2437.931598713261
 30
0.0
 11
4992.069000782699
 21
2187.931598713261
 31
0.0
  0
LINE
  5
174A7
330
747D
100
AcDbEntity
  8
破線
 48
5.0
100
AcDbLine
 10
6782.069000782701
 20
2437.931598713261
 30
0.0
 11
6782.069000782701
 21
2187.931598713261
 31
0.0
  0
LINE
  5
174AE
330
747D
100
AcDbEntity
  8
部品1
100
AcDbLine
 10
6782.069000782702
 20
4471.931598713268
 30
0.0
 11
6782.069000782701
 21
2437.931598713261
 31
0.0
  0
LINE
  5
174AF
330
747D
100
AcDbEntity
  8
部品1
100
AcDbLine
 10
5047.069000782702
 20
4212.931598713261
 30
0.0
 11
5047.069000782702
 21
2537.931598713262
 31
0.0
  0
LINE
  5
174B0
330
747D
100
AcDbEntity
  8
部品1
100
AcDbLine
 10
6727.069000782702
 20
4212.931598713261
 30
0.0
 11
6727.069000782698
 21
2537.931598713262
 31
0.0
  0
LINE
  5
174B1
330
747D
100
AcDbEntity
  8
部品1
100
AcDbLine
 10
4992.069000782699
 20
4471.931598713268
 30
0.0
 11
4992.069000782702
 21
2437.931598713261
 31
0.0
  0
LINE
  5
174B2
330
747D
100
AcDbEntity
  8
部品1
100
AcDbLine
 10
4992.069000782702
 20
2537.931598713262
 30
0.0
 11
6782.069000782701
 21
2537.931598713262
 31
0.0
  0
LINE
  5
1779C
330
747D
100
AcDbEntity
  8
補助
  6
PHANTOM
 62
   230
 48
50.0
100
AcDbLine
 10
140.0
 20
0.0
 30
0.0
 11
139.9999999999995
 21
11409.6
 31
0.0
  0
TEXT
  5
17AC1
330
747D
100
AcDbEntity
  8
部品1
100
AcDbText
 10
10715.61566003452
 20
1595.038069494738
 30
0.0
 40
135.0
  1
側面図
  7
STYLE2
100
AcDbText
  0
LWPOLYLINE
  5
17AC2
330
747D
100
AcDbEntity
  8
部品1
100
AcDbPolyline
 90
        4
 70
     1
 43
0.0
 10
10626.16955861091
 20
1787.931598713261
 10
10626.16955861091
 20
1548.039277167729
 10
11389.64022483935
 20
1548.039277167729
 10
11389.64022483935
 20
1787.931598713261
  0
LINE
  5
17AC3
330
747D
100
AcDbEntity
  8
部品1
100
AcDbLine
 10
12047.90489172511
 20
4377.931598713263
 30
0.0
 11
12047.90489172511
 21
2587.931598713265
 31
0.0
  0
LINE
  5
17AC4
330
747D
100
AcDbEntity
  8
細線
 48
50.0
100
AcDbLine
 10
11970.40489172513
 20
4377.931598713261
 30
0.0
 11
11970.40489172513
 21
2587.931598713263
 31
0.0
  0
LINE
  5
17AC5
330
747D
100
AcDbEntity
  8
細線
 48
50.0
100
AcDbLine
 10
11985.40489172513
 20
4377.931598713261
 30
0.0
 11
11985.40489172513
 21
2587.931598713263
 31
0.0
  0
LINE
  5
17AC6
330
747D
100
AcDbEntity
  8
細線
 48
50.0
100
AcDbLine
 10
11845.40489172513
 20
4377.931598713261
 30
0.0
 11
11845.40489172513
 21
2587.931598713263
 31
0.0
  0
LINE
  5
17AC7
330
747D
100
AcDbEntity
  8
細線
 48
50.0
100
AcDbLine
 10
11830.40489172513
 20
4377.931598713261
 30
0.0
 11
11830.40489172513
 21
2587.931598713263
 31
0.0
  0
LINE
  5
17AC8
330
747D
100
AcDbEntity
  8
細線
 48
50.0
100
AcDbLine
 10
11690.40489172513
 20
4377.931598713261
 30
0.0
 11
11690.40489172513
 21
2587.931598713263
 31
0.0
  0
LINE
  5
17AC9
330
747D
100
AcDbEntity
  8
細線
 48
50.0
100
AcDbLine
 10
11705.40489172513
 20
4377.931598713261
 30
0.0
 11
11705.40489172513
 21
2587.931598713263
 31
0.0
  0
LINE
  5
17ACA
330
747D
100
AcDbEntity
  8
部品1
100
AcDbLine
 10
11627.90489172512
 20
4377.931598713261
 30
0.0
 11
11627.90489172512
 21
2587.931598713263
 31
0.0
  0
DIMENSION
  5
17ACB
330
747D
100
AcDbEntity
  8
寸法
 48
50.0
100
AcDbDimension
  2
*D18
 10
8852.296484956749
 20
4487.276857586593
 30
0.0
 11
8862.961960215672
 21
4858.123520828296
 31
0.0
 70
   161
 71
     5
 42
141.0
  3
INABA_S40G
100
AcDbAlignedDimension
 13
9432.300911883711
 23
4611.654347547941
 33
0.0
 14
9428.247456327083
 24
4470.712623782229
 34
0.0
1001
ACAD
1000
DSTYLE
1002
{
1070
   174
1070
     0
1070
   272
1070
     1
1070
   288
1070
     0
1070
   341
1005
0
1002
}
  0
LINE
  5
17ACC
330
747D
100
AcDbEntity
  8
細線
 48
50.0
100
AcDbLine
 10
12390.40489172513
 20
4377.931598713263
 30
0.0
 11
12390.40489172513
 21
2587.931598713263
 31
0.0
  0
LINE
  5
17ACD
330
747D
100
AcDbEntity
  8
細線
 48
50.0
100
AcDbLine
 10
12405.40489172513
 20
4377.931598713263
 30
0.0
 11
12405.40489172513
 21
2587.931598713263
 31
0.0
  0
LINE
  5
17ACE
330
747D
100
AcDbEntity
  8
細線
 48
50.0
100
AcDbLine
 10
12265.40489172513
 20
4377.931598713263
 30
0.0
 11
12265.40489172513
 21
2587.931598713263
 31
0.0
  0
LINE
  5
17ACF
330
747D
100
AcDbEntity
  8
細線
 48
50.0
100
AcDbLine
 10
12250.40489172513
 20
4377.931598713263
 30
0.0
 11
12250.40489172513
 21
2587.931598713263
 31
0.0
  0
LINE
  5
17AD0
330
747D
100
AcDbEntity
  8
細線
 48
50.0
100
AcDbLine
 10
12110.40489172513
 20
4377.931598713263
 30
0.0
 11
12110.40489172513
 21
2587.931598713263
 31
0.0
  0
LINE
  5
17AD1
330
747D
100
AcDbEntity
  8
細線
 48
50.0
100
AcDbLine
 10
12125.40489172513
 20
4377.931598713263
 30
0.0
 11
12125.40489172513
 21
2587.931598713263
 31
0.0
  0
LINE
  5
17AD2
330
747D
100
AcDbEntity
  8
部品1
100
AcDbLine
 10
10787.90489172513
 20
4377.931598713261
 30
0.0
 11
10787.90489172513
 21
2587.931598713261
 31
0.0
  0
LINE
  5
17AD3
330
747D
100
AcDbEntity
  8
細線
 48
50.0
100
AcDbLine
 10
10445.40489172513
 20
4377.931598713261
 30
0.0
 11
10445.40489172513
 21
2587.931598713261
 31
0.0
  0
LINE
  5
17AD4
330
747D
100
AcDbEntity
  8
細線
 48
50.0
100
AcDbLine
 10
10430.40489172513
 20
4377.931598713261
 30
0.0
 11
10430.40489172513
 21
2587.931598713261
 31
0.0
  0
LINE
  5
17AD5
330
747D
100
AcDbEntity
  8
細線
 48
50.0
100
AcDbLine
 10
10570.40489172513
 20
4377.931598713261
 30
0.0
 11
10570.40489172513
 21
2587.931598713261
 31
0.0
  0
LINE
  5
17AD6
330
747D
100
AcDbEntity
  8
細線
 48
50.0
100
AcDbLine
 10
10585.40489172513
 20
4377.931598713261
 30
0.0
 11
10585.40489172513
 21
2587.931598713261
 31
0.0
  0
LINE
  5
17AD7
330
747D
100
AcDbEntity
  8
細線
 48
50.0
100
AcDbLine
 10
10725.40489172513
 20
4377.931598713261
 30
0.0
 11
10725.40489172513
 21
2587.931598713261
 31
0.0
  0
LINE
  5
17AD8
330
747D
100
AcDbEntity
  8
細線
 48
50.0
100
AcDbLine
 10
10710.40489172513
 20
4377.931598713261
 30
0.0
 11
10710.40489172513
 21
2587.931598713261
 31
0.0
  0
LINE
  5
17AD9
330
747D
100
AcDbEntity
  8
部品1
100
AcDbLine
 10
10367.90489172513
 20
4377.931598713261
 30
0.0
 11
10367.90489172513
 21
2587.931598713261
 31
0.0
  0
DIMENSION
  5
17ADA
330
747D
100
AcDbEntity
  8
寸法
 48
50.0
100
AcDbDimension
  2
*D19
 10
12602.90489172513
 20
5011.589052292567
 30
0.0
 11
12808.95213581962
 21
5011.589052292567
 31
0.0
 70
   160
 71
     5
 42
80.0
  3
INABA_S40G
100
AcDbAlignedDimension
 13
12522.90489172513
 23
4559.742278324916
 33
0.0
 14
12602.90489172513
 24
4557.931598713265
 34
0.0
100
AcDbRotatedDimension
1001
ACAD
1000
DSTYLE
1002
{
1070
   174
1070
     0
1070
   272
1070
     1
1070
   288
1070
     0
1070
   341
1005
0
1002
}
  0
LINE
  5
17ADB
330
747D
100
AcDbEntity
  8
細線
 48
50.0
100
AcDbLine
 10
9605.404891725131
 20
4377.931598713261
 30
0.0
 11
9605.404891725131
 21
2587.931598713261
 31
0.0
  0
LINE
  5
17ADC
330
747D
100
AcDbEntity
  8
細線
 48
50.0
100
AcDbLine
 10
9590.404891725132
 20
4377.931598713261
 30
0.0
 11
9590.404891725132
 21
2587.931598713261
 31
0.0
  0
LINE
  5
17ADD
330
747D
100
AcDbEntity
  8
細線
 48
50.0
100
AcDbLine
 10
9730.404891725131
 20
4377.931598713261
 30
0.0
 11
9730.404891725131
 21
2587.931598713261
 31
0.0
  0
LINE
  5
17ADE
330
747D
100
AcDbEntity
  8
細線
 48
50.0
100
AcDbLine
 10
9745.404891725131
 20
4377.931598713261
 30
0.0
 11
9745.404891725131
 21
2587.931598713261
 31
0.0
  0
LINE
  5
17ADF
330
747D
100
AcDbEntity
  8
細線
 48
50.0
100
AcDbLine
 10
9885.404891725132
 20
4377.931598713261
 30
0.0
 11
9885.404891725132
 21
2587.931598713261
 31
0.0
  0
LINE
  5
17AE0
330
747D
100
AcDbEntity
  8
細線
 48
50.0
100
AcDbLine
 10
9870.404891725131
 20
4377.931598713261
 30
0.0
 11
9870.404891725131
 21
2587.931598713261
 31
0.0
  0
LINE
  5
17AE1
330
747D
100
AcDbEntity
  8
細線
 48
50.0
100
AcDbLine
 10
10290.40489172513
 20
4377.931598713261
 30
0.0
 11
10290.40489172513
 21
2587.931598713261
 31
0.0
  0
LINE
  5
17AE2
330
747D
100
AcDbEntity
  8
細線
 48
50.0
100
AcDbLine
 10
10305.40489172513
 20
4377.931598713261
 30
0.0
 11
10305.40489172513
 21
2587.931598713261
 31
0.0
  0
LINE
  5
17AE3
330
747D
100
AcDbEntity
  8
細線
 48
50.0
100
AcDbLine
 10
10165.40489172513
 20
4377.931598713261
 30
0.0
 11
10165.40489172513
 21
2587.931598713261
 31
0.0
  0
LINE
  5
17AE4
330
747D
100
AcDbEntity
  8
細線
 48
50.0
100
AcDbLine
 10
10150.40489172513
 20
4377.931598713261
 30
0.0
 11
10150.40489172513
 21
2587.931598713261
 31
0.0
  0
LINE
  5
17AE5
330
747D
100
AcDbEntity
  8
細線
 48
50.0
100
AcDbLine
 10
10010.40489172513
 20
4377.931598713261
 30
0.0
 11
10010.40489172513
 21
2587.931598713261
 31
0.0
  0
LINE
  5
17AE6
330
747D
100
AcDbEntity
  8
細線
 48
50.0
100
AcDbLine
 10
10025.40489172513
 20
4377.931598713261
 30
0.0
 11
10025.40489172513
 21
2587.931598713261
 31
0.0
  0
LINE
  5
17AE7
330
747D
100
AcDbEntity
  8
部品1
100
AcDbLine
 10
9527.904891725139
 20
2537.931598713262
 30
0.0
 11
12522.90489172513
 21
2537.931598713262
 31
0.0
  0
DIMENSION
  5
17AE8
330
747D
100
AcDbEntity
  8
寸法
 48
50.0
100
AcDbDimension
  2
*D20
 10
9412.904891725132
 20
5241.702645078843
 30
0.0
 11
11007.90489172513
 21
5241.702645078843
 31
0.0
 70
   160
 71
     5
 42
3190.0
  3
INABA_S40G
100
AcDbAlignedDimension
 13
12602.90489172513
 23
4557.931598713262
 33
0.0
 14
9412.904891725132
 24
4612.931598713266
 34
0.0
100
AcDbRotatedDimension
1001
ACAD
1000
DSTYLE
1002
{
1070
   174
1070
     0
1070
   272
1070
     1
1070
   288
1070
     0
1070
   341
1005
0
1002
}
  0
DIMENSION
  5
17AE9
330
747D
100
AcDbEntity
  8
寸法
 48
50.0
100
AcDbDimension
  2
*D21
 10
9412.904891725132
 20
5011.589052292566
 30
0.0
 11
9103.26709644954
 21
5011.589052292566
 31
0.0
 70
   160
 71
     5
 42
60.0
  3
INABA_S40G
100
AcDbAlignedDimension
 13
9472.904891725132
 23
4608.933216836238
 33
0.0
 14
9412.904891725132
 24
4612.931598713266
 34
0.0
100
AcDbRotatedDimension
1001
ACAD
1000
DSTYLE
1002
{
1070
   174
1070
     0
1070
   272
1070
     1
1070
   288
1070
     0
1070
   341
1005
0
1002
}
  0
DIMENSION
  5
17AEA
330
747D
100
AcDbEntity
  8
寸法
 48
50.0
100
AcDbDimension
  2
*D22
 10
9472.904891725132
 20
5011.589052292567
 30
0.0
 11
10997.90489172513
 21
5011.589052292567
 31
0.0
 70
   160
  1
柱外寸法<>
 71
     5
 42
3050.0
  3
INABA_S40G
100
AcDbAlignedDimension
 13
12522.90489172513
 23
4559.742278324916
 33
0.0
 14
9472.904891725132
 24
4608.933216836238
 34
0.0
100
AcDbRotatedDimension
1001
ACAD
1000
DSTYLE
1002
{
1070
   174
1070
     0
1070
   272
1070
     1
1070
   288
1070
     0
1070
   341
1005
0
1002
}
  0
LINE
  5
17AEB
330
747D
100
AcDbEntity
  8
部品1
100
AcDbLine
 10
12467.90489172513
 20
4377.931598713263
 30
0.0
 11
12467.90489172513
 21
2587.931598713263
 31
0.0
  0
LINE
  5
17AEC
330
747D
100
AcDbEntity
  8
部品1
100
AcDbLine
 10
12522.90489172513
 20
4432.361626494382
 30
0.0
 11
12522.90489172513
 21
2437.931598713263
 31
0.0
  0
LINE
  5
17AED
330
747D
100
AcDbEntity
  8
部品1
100
AcDbLine
 10
9947.904891725132
 20
4377.931598713261
 30
0.0
 11
9947.904891725132
 21
2587.931598713261
 31
0.0
  0
DIMENSION
  5
17AEE
330
747D
100
AcDbEntity
  8
寸法
100
AcDbDimension
  2
*D23
 10
8629.154762541871
 20
2537.931598713262
 30
0.0
 11
8629.154762541871
 21
2231.884354618773
 31
0.0
 70
   160
 71
     5
 42
50.0
  3
INABA_S40G
100
AcDbAlignedDimension
 13
9472.904891725132
 23
2587.931598713261
 33
0.0
 14
9417.904891725131
 24
2537.931598713262
 34
0.0
 50
90.0
100
AcDbRotatedDimension
1001
ACAD
1000
DSTYLE
1002
{
1070
   174
1070
     0
1070
   272
1070
     1
1070
   288
1070
     0
1070
   341
1005
0
1002
}
  0
LINE
  5
17AEF
330
747D
100
AcDbEntity
  8
部品1
100
AcDbLine
 10
9472.904891725132
 20
4470.07403664214
 30
0.0
 11
9472.904891725132
 21
2437.931598713261
 31
0.0
  0
LINE
  5
17AF0
330
747D
100
AcDbEntity
  8
部品1
100
AcDbLine
 10
9527.904891725132
 20
4377.931598713261
 30
0.0
 11
9527.904891725139
 21
2437.931598713261
 31
0.0
  0
LINE
  5
17AF1
330
747D
100
AcDbEntity
  8
部品1
100
AcDbLine
 10
9527.904891725139
 20
2587.931598713261
 30
0.0
 11
12522.90489172513
 21
2587.931598713263
 31
0.0
  0
LINE
  5
17AF2
330
747D
100
AcDbEntity
  8
部品1
100
AcDbLine
 10
9472.904891725132
 20
4377.931598713261
 30
0.0
 11
12522.90489172512
 21
4377.931598713261
 31
0.0
  0
LINE
  5
17AF3
330
747D
100
AcDbEntity
  8
部品1
100
AcDbLine
 10
12467.90489172512
 20
4377.931598713264
 30
0.0
 11
12467.90489172512
 21
2587.931598713265
 31
0.0
  0
LINE
  5
17AF4
330
747D
100
AcDbEntity
  8
細線
 48
50.0
100
AcDbLine
 10
11130.40489172513
 20
4377.931598713261
 30
0.0
 11
11130.40489172513
 21
2587.931598713261
 31
0.0
  0
LINE
  5
17AF5
330
747D
100
AcDbEntity
  8
細線
 48
50.0
100
AcDbLine
 10
11145.40489172513
 20
4377.931598713261
 30
0.0
 11
11145.40489172513
 21
2587.931598713261
 31
0.0
  0
LINE
  5
17AF6
330
747D
100
AcDbEntity
  8
細線
 48
50.0
100
AcDbLine
 10
11005.40489172513
 20
4377.931598713261
 30
0.0
 11
11005.40489172513
 21
2587.931598713261
 31
0.0
  0
LINE
  5
17AF7
330
747D
100
AcDbEntity
  8
細線
 48
50.0
100
AcDbLine
 10
10990.40489172513
 20
4377.931598713261
 30
0.0
 11
10990.40489172513
 21
2587.931598713261
 31
0.0
  0
LINE
  5
17AF8
330
747D
100
AcDbEntity
  8
細線
 48
50.0
100
AcDbLine
 10
10850.40489172513
 20
4377.931598713261
 30
0.0
 11
10850.40489172513
 21
2587.931598713261
 31
0.0
  0
LINE
  5
17AF9
330
747D
100
AcDbEntity
  8
細線
 48
50.0
100
AcDbLine
 10
10865.40489172513
 20
4377.931598713261
 30
0.0
 11
10865.40489172513
 21
2587.931598713261
 31
0.0
  0
TEXT
  5
17AFA
330
747D
100
AcDbEntity
  8
部品1
 48
50.0
100
AcDbText
 10
11342.7740357805
 20
4635.200691651568
 30
0.0
 40
120.0
  1
32
 50
90.0
  7
STYLE1
100
AcDbText
  0
TEXT
  5
17AFB
330
747D
100
AcDbEntity
  8
部品1
 48
50.0
100
AcDbText
 10
10865.14101311541
 20
4772.70194986985
 30
0.0
 40
120.0
  1
1000
  7
STYLE1
100
AcDbText
  0
LINE
  5
17AFC
330
747D
100
AcDbEntity
  8
部品1
 48
50.0
100
AcDbLine
 10
11176.87317789168
 20
4736.817927717417
 30
0.0
 11
11176.87317789168
 21
4720.617927717419
 31
0.0
  0
LINE
  5
17AFD
330
747D
100
AcDbEntity
  8
部品1
 48
50.0
100
AcDbLine
 10
10876.87317789168
 20
4736.817927717417
 30
0.0
 11
11176.87317789168
 21
4736.817927717417
 31
0.0
  0
LINE
  5
17AFE
330
747D
100
AcDbEntity
  8
部品1
100
AcDbLine
 10
9420.449878082093
 20
4611.649334047528
 30
0.0
 11
12595.5167685866
 21
4556.5723964224
 31
0.0
  0
LINE
  5
17AFF
330
747D
100
AcDbEntity
  8
部品1
100
AcDbLine
 10
9428.247456327083
 20
4470.712623782229
 30
0.0
 11
12577.56859226498
 21
4431.684198548023
 31
0.0
  0
LINE
  5
17B00
330
747D
100
AcDbEntity
  8
細線
 48
50.0
100
AcDbLine
 10
9445.904891725131
 20
4610.331275088666
 30
0.0
 11
9440.615790169625
 21
4470.245642461311
 31
0.0
  0
LINE
  5
17B01
330
747D
100
AcDbEntity
  8
細線
 48
50.0
100
AcDbLine
 10
12569.87417491882
 20
4557.08502119273
 30
0.0
 11
12565.15720883713
 21
4432.152805257814
 31
0.0
  0
LINE
  5
17B02
330
747D
100
AcDbEntity
  8
部品1
 48
50.0
100
AcDbLine
 10
9413.089177638239
 20
4604.525144877954
 30
0.0
 11
9413.469437416051
 21
4584.598180431543
 31
0.0
  0
LINE
  5
17B03
330
747D
100
AcDbEntity
  8
部品1
 48
50.0
100
AcDbLine
 10
9416.538209522297
 20
4581.02289893807
 30
0.0
 11
9418.242111013659
 21
4491.732402231423
 31
0.0
  0
LINE
  5
17B04
330
747D
100
AcDbEntity
  8
細線
 48
50.0
100
AcDbLine
 10
9413.944314825945
 20
4583.948680554622
 30
0.0
 11
12599.58029957112
 21
4528.324475913795
 31
0.0
  0
LINE
  5
17B05
330
747D
100
AcDbEntity
  8
細線
 48
50.0
100
AcDbLine
 10
9418.704790063232
 20
4491.087168856759
 30
0.0
 11
12588.70845449387
 21
4451.277849882266
 31
0.0
  0
LINE
  5
17B06
330
747D
100
AcDbEntity
  8
部品1
 48
50.0
100
AcDbLine
 10
9421.310883119902
 20
4488.157120737951
 30
0.0
 11
9421.512835740335
 21
4477.574085344858
 31
0.0
  0
ARC
  5
17B07
330
747D
100
AcDbEntity
  8
部品1
 48
50.0
100
AcDbCircle
 10
9420.087903466578
 20
4604.658699285382
 30
0.0
 40
7.0
100
AcDbArc
 50
87.03587545282958
 51
181.0932240293151
  0
ARC
  5
17B08
330
747D
100
AcDbEntity
  8
部品1
 48
50.0
100
AcDbCircle
 10
9428.511561568674
 20
4477.707639752287
 30
0.0
 40
7.0
100
AcDbArc
 50
181.0932240293151
 51
267.8377559869492
  0
ARC
  5
17B09
330
747D
100
AcDbEntity
  8
部品1
100
AcDbCircle
 10
9418.311429193472
 20
4488.099883134768
 30
0.0
 40
3.0
100
AcDbArc
 50
1.093224029315139
 51
80.18775403168987
  0
ARC
  5
17B0A
330
747D
100
AcDbEntity
  8
部品1
100
AcDbCircle
 10
9413.538755595865
 20
4580.965661334887
 30
0.0
 40
3.0
100
AcDbArc
 50
1.093224029315139
 51
80.18775403168987
  0
ARC
  5
17B0B
330
747D
100
AcDbEntity
  8
部品1
100
AcDbCircle
 10
9414.169309998888
 20
4584.611535872284
 30
0.0
 40
0.7
100
AcDbArc
 50
181.0932240292109
 51
260.1877540314845
  0
ARC
  5
17B0C
330
747D
100
AcDbEntity
  8
部品1
100
AcDbCircle
 10
9418.941983596498
 20
4491.745757672165
 30
0.0
 40
0.7
100
AcDbArc
 50
181.0932240292109
 51
260.1877540314845
  0
LINE
  5
17B0D
330
747D
100
AcDbEntity
  8
部品1
 48
50.0
100
AcDbLine
 10
12602.11879453583
 20
4548.87275098748
 30
0.0
 11
12600.08817334486
 21
4528.927709729701
 31
0.0
  0
LINE
  5
17B0E
330
747D
100
AcDbEntity
  8
部品1
 48
50.0
100
AcDbLine
 10
12596.73560686038
 20
4525.617075656792
 30
0.0
 11
12589.22882759554
 21
4451.884454911779
 31
0.0
  0
LINE
  5
17B0F
330
747D
100
AcDbEntity
  8
部品1
 48
50.0
100
AcDbLine
 10
12585.87626111106
 20
4448.573820838867
 30
0.0
 11
12584.79669807132
 21
4437.970203845309
 31
0.0
  0
ARC
  5
17B10
330
747D
100
AcDbEntity
  8
部品1
 48
50.0
100
AcDbCircle
 10
12595.15479397108
 20
4549.581761660255
 30
0.0
 40
7.0
100
AcDbArc
 50
354.1866997665479
 51
87.03587545282958
  0
ARC
  5
17B11
330
747D
100
AcDbEntity
  8
部品1
 48
50.0
100
AcDbCircle
 10
12577.83269750657
 20
4438.679214518082
 30
0.0
 40
7.0
100
AcDbArc
 50
267.8377559869492
 51
354.1866997665479
  0
ARC
  5
17B12
330
747D
100
AcDbEntity
  8
部品1
100
AcDbCircle
 10
12588.86083278167
 20
4448.269959121964
 30
0.0
 40
3.0
100
AcDbArc
 50
95.09216976420788
 51
174.1866997665479
  0
ARC
  5
17B13
330
747D
100
AcDbEntity
  8
部品1
100
AcDbCircle
 10
12599.720178531
 20
4525.313213939888
 30
0.0
 40
3.0
100
AcDbArc
 50
95.09216976420788
 51
174.1866997665479
  0
ARC
  5
17B14
330
747D
100
AcDbEntity
  8
部品1
100
AcDbCircle
 10
12599.39177328839
 20
4528.998610796977
 30
0.0
 40
0.7
100
AcDbArc
 50
275.0921697642079
 51
354.1866997665479
  0
ARC
  5
17B15
330
747D
100
AcDbEntity
  8
部品1
100
AcDbCircle
 10
12588.53242753907
 20
4451.955355979055
 30
0.0
 40
0.7
100
AcDbArc
 50
275.0921697642079
 51
354.1866997667579
  0
LINE
  5
17B16
330
747D
100
AcDbEntity
  8
部品1
100
AcDbLine
 10
10851.41816424864
 20
4738.135986676279
 30
0.0
 11
11176.87317789168
 21
4720.617927717419
 31
0.0
  0
LINE
  5
17B17
330
747D
100
AcDbEntity
  8
部品1
100
AcDbLine
 10
11207.90489172513
 20
4377.931598713261
 30
0.0
 11
11207.90489172513
 21
2587.931598713263
 31
0.0
  0
LINE
  5
17B18
330
747D
100
AcDbEntity
  8
細線
 48
50.0
100
AcDbLine
 10
11285.40489172513
 20
4377.931598713261
 30
0.0
 11
11285.40489172513
 21
2587.931598713263
 31
0.0
  0
LINE
  5
17B19
330
747D
100
AcDbEntity
  8
細線
 48
50.0
100
AcDbLine
 10
11270.40489172513
 20
4377.931598713261
 30
0.0
 11
11270.40489172513
 21
2587.931598713263
 31
0.0
  0
LINE
  5
17B1A
330
747D
100
AcDbEntity
  8
細線
 48
50.0
100
AcDbLine
 10
11410.40489172513
 20
4377.931598713261
 30
0.0
 11
11410.40489172513
 21
2587.931598713263
 31
0.0
  0
LINE
  5
17B1B
330
747D
100
AcDbEntity
  8
細線
 48
50.0
100
AcDbLine
 10
11425.40489172513
 20
4377.931598713261
 30
0.0
 11
11425.40489172513
 21
2587.931598713263
 31
0.0
  0
LINE
  5
17B1C
330
747D
100
AcDbEntity
  8
細線
 48
50.0
100
AcDbLine
 10
11565.40489172513
 20
4377.931598713261
 30
0.0
 11
11565.40489172513
 21
2587.931598713263
 31
0.0
  0
LINE
  5
17B1D
330
747D
100
AcDbEntity
  8
細線
 48
50.0
100
AcDbLine
 10
11550.40489172513
 20
4377.931598713261
 30
0.0
 11
11550.40489172513
 21
2587.931598713263
 31
0.0
  0
DIMENSION
  5
17B1E
330
747D
100
AcDbEntity
  8
寸法
100
AcDbDimension
  2
*D24
 10
13227.83204969725
 20
4557.931598713262
 30
0.0
 11
13127.82023867363
 21
3547.931598713265
 31
0.0
 70
    32
 71
     5
 42
2020.0
  3
INABA_S40G
100
AcDbAlignedDimension
 13
12522.90489172513
 23
2537.931598713263
 33
0.0
 14
12602.90489172513
 24
4557.931598713262
 34
0.0
 50
90.0
100
AcDbRotatedDimension
1001
ACAD
1000
DSTYLE
1002
{
1070
   174
1070
     0
1070
   272
1070
     1
1070
   288
1070
     0
1070
   341
1005
0
1002
}
  0
DIMENSION
  5
17B1F
330
747D
100
AcDbEntity
  8
寸法
100
AcDbDimension
  2
*D25
 10
8329.154762541872
 20
4612.931598713261
 30
0.0
 11
8229.142951518248
 21
3575.43159871326
 31
0.0
 70
    32
 71
     5
 42
2075.000000000005
  3
INABA_S40G
100
AcDbAlignedDimension
 13
9472.904891725132
 23
2537.931598713256
 33
0.0
 14
9412.904891725132
 24
4612.931598713261
 34
0.0
 50
90.0
100
AcDbRotatedDimension
1001
ACAD
1000
DSTYLE
1002
{
1070
   174
1070
     0
1070
   272
1070
     1
1070
   288
1070
     0
1070
   341
1005
0
1002
}
  0
DIMENSION
  5
17B20
330
747D
100
AcDbEntity
  8
寸法
100
AcDbDimension
  2
*D26
 10
8629.154762541871
 20
2587.931598713256
 30
0.0
 11
8529.154762541871
 21
3482.931598713258
 31
0.0
 70
    32
 71
     5
 42
1790.000000000001
  3
INABA_S40G
100
AcDbAlignedDimension
 13
9472.904891725132
 23
4377.931598713257
 33
0.0
 14
9472.904891725132
 24
2587.931598713256
 34
0.0
 50
90.0
100
AcDbRotatedDimension
1001
ACAD
1000
DSTYLE
1002
{
1070
   174
1070
     0
1070
   272
1070
     1
1070
   288
1070
     0
1070
   341
1005
0
1002
}
  0
LINE
  5
17B25
330
747D
100
AcDbEntity
  8
破線
 48
5.0
100
AcDbLine
 10
9472.904891725134
 20
2437.931598713261
 30
0.0
 11
9472.904891725134
 21
2187.931598713261
 31
0.0
  0
LINE
  5
17B26
330
747D
100
AcDbEntity
  8
破線
 48
5.0
100
AcDbLine
 10
9527.904891725134
 20
2437.931598713261
 30
0.0
 11
9527.904891725134
 21
2187.931598713261
 31
0.0
  0
LINE
  5
17B27
330
747D
100
AcDbEntity
  8
破線
 48
5.0
100
AcDbLine
 10
9472.904891725134
 20
2187.931598713261
 30
0.0
 11
9527.904891725132
 21
2187.931598713261
 31
0.0
  0
LINE
  5
17B28
330
747D
100
AcDbEntity
  8
部品1
100
AcDbLine
 10
9472.904891725134
 20
2537.931598713262
 30
0.0
 11
9079.907677516287
 21
2437.931598713261
 31
0.0
  0
DIMENSION
  5
18008
330
747D
100
AcDbEntity
  8
寸法
 48
50.0
100
AcDbDimension
  2
*D27
 10
7069.612103104448
 20
4377.931598713261
 30
0.0
 11
7069.612103104446
 21
4616.416880087501
 31
0.0
 70
   160
 71
     5
 42
165.0
  3
INABA_S40G
100
AcDbAlignedDimension
 13
6782.069000782702
 23
4212.931598713261
 33
0.0
 14
6782.069000782701
 24
4377.931598713261
 34
0.0
 50
90.0
100
AcDbRotatedDimension
1001
ACAD
1000
DSTYLE
1002
{
1002
}
  0
DIMENSION
  5
18009
330
747D
100
AcDbEntity
  8
寸法
 48
50.0
100
AcDbDimension
  2
*D28
 10
7069.612103104446
 20
4212.931598713261
 30
0.0
 11
7209.781926350813
 21
4213.898798552921
 31
0.0
 70
   160
 71
     5
 42
27.0
  3
INABA_S40G
100
AcDbAlignedDimension
 13
6782.069000782701
 23
4185.931598713261
 33
0.0
 14
6782.069000782702
 24
4212.931598713261
 34
0.0
 50
90.0
100
AcDbRotatedDimension
1001
ACAD
1000
DSTYLE
1002
{
1070
   279
1070
     2
1002
}
  0
DIMENSION
  5
1800A
330
747D
100
AcDbEntity
  8
寸法
 48
50.0
100
AcDbDimension
  2
*D29
 10
7069.612103104446
 20
4185.931598713261
 30
0.0
 11
6969.612103104445
 21
3361.931598713263
 31
0.0
 70
    32
  1
有効開口部高サ <>
 71
     5
 42
1648.0
  3
INABA_S40G
100
AcDbAlignedDimension
 13
6782.069000782701
 23
2537.931598713262
 33
0.0
 14
6782.069000782701
 24
4185.931598713261
 34
0.0
 50
90.0
100
AcDbRotatedDimension
  0
LINE
  5
1812C
330
747D
100
AcDbEntity
  8
仕様書枠
 48
50.0
100
AcDbLine
 10
16307.19999999999
 20
8859.600000000005
 30
0.0
 11
13127.2
 21
8859.600000000005
 31
0.0
  0
TEXT
  5
1812F
330
747D
100
AcDbEntity
  8
文字
 62
     7
 48
50.0
100
AcDbText
 10
15022.63965474517
 20
10760.01374588372
 30
0.0
 40
100.0
  1
F12         1.0,1.2
  7
STYLE1
100
AcDbText
  0
TEXT
  5
18131
330
747D
100
AcDbEntity
  8
文字
 62
     7
 48
50.0
100
AcDbText
 10
15022.63965474516
 20
9230.013745883727
 30
0.0
 40
100.0
  1
F12            0.7
  7
STYLE1
100
AcDbText
  0
ENDSEC
  0
SECTION
  2
OBJECTS
  0
DICTIONARY
  5
7471
330
0
100
AcDbDictionary
281
     1
  3
ACAD_COLOR
350
166AE
  3
ACAD_GROUP
350
7472
  3
ACAD_LAYOUT
350
166AF
  3
ACAD_MATERIAL
350
166AD
  3
ACAD_MLINESTYLE
350
7473
  3
ACAD_PLOTSETTINGS
350
166B0
  3
ACAD_PLOTSTYLENAME
350
166AB
  3
ACDBHEADERROUNDTRIPXREC
350
18198
  3
AcDbVariableDictionary
350
16C7E
  3
CONTENTDICTIONARY
350
E71C
  3
DRAWINGVARIABLESDICT
350
F3B9
  0
DICTIONARY
  5
1719A
330
7467
100
AcDbDictionary
280
     1
281
     1
  3
ACAD_LAYERSTATES
360
1719B
  0
DICTIONARY
  5
166AE
102
{ACAD_REACTORS
330
7471
102
}
330
7471
100
AcDbDictionary
281
     1
  0
DICTIONARY
  5
7472
102
{ACAD_REACTORS
330
7471
102
}
330
7471
100
AcDbDictionary
281
     1
  0
DICTIONARY
  5
166AF
102
{ACAD_REACTORS
330
7471
102
}
330
7471
100
AcDbDictionary
281
     1
  3
Model
350
166B1
  3
レイアウト1
350
166B2
  0
DICTIONARY
  5
166AD
102
{ACAD_REACTORS
330
7471
102
}
330
7471
100
AcDbDictionary
281
     1
  0
DICTIONARY
  5
7473
102
{ACAD_REACTORS
330
7471
102
}
330
7471
100
AcDbDictionary
281
     1
  3
STANDARD
350
7480
  0
DICTIONARY
  5
166B0
102
{ACAD_REACTORS
330
7471
102
}
330
7471
100
AcDbDictionary
281
     1
  0
ACDBDICTIONARYWDFLT
  5
166AB
102
{ACAD_REACTORS
330
7471
102
}
330
7471
100
AcDbDictionary
281
     1
  3
Normal
350
166AC
100
AcDbDictionaryWithDefault
340
166AC
  0
DICTIONARY
  5
18198
102
{ACAD_REACTORS
330
7471
102
}
330
7471
100
AcDbDictionary
281
     1
  3
COLORDICT
350
1819A
  3
MATERIALDICT
350
18199
  0
DICTIONARY
  5
16C7E
102
{ACAD_REACTORS
330
7471
102
}
330
7471
100
AcDbDictionary
281
     1
  3
DIMASSOC
350
16C7F
  3
PROJECTNAME
350
16C80
  0
DICTIONARY
  5
E71C
102
{ACAD_REACTORS
330
7471
102
}
330
7471
100
AcDbDictionary
281
     1
  0
DICTIONARY
  5
F3B9
102
{ACAD_REACTORS
330
7471
102
}
330
7471
100
AcDbDictionary
281
     1
1001
DRAWINGVARIABLESXDATA
1000
POLARMODE
1000
1
  0
DICTIONARY
  5
1719B
102
{ACAD_REACTORS
330
1719A
102
}
330
1719A
100
AcDbDictionary
281
     1
  0
LAYOUT
  5
166B1
102
{ACAD_XDICTIONARY
360
1819B
102
}
102
{ACAD_REACTORS
330
166AF
102
}
330
166AF
100
AcDbPlotSettings
  1

  2
Canon iR C3880/C4580 LIPSLX
  4
A3
  6

 40
5.873749732971191
 41
5.873747825622558
 42
5.873748779296875
 43
5.873748779296875
 44
296.9259948730469
 45
419.9466552734374
 46
0.0
 47
0.0
 48
0.0
 49
0.0
140
0.0
141
0.0
142
1.0
143
40.0
 70
 11952
 72
     1
 73
     1
 74
     2
  7
inaba.ctb
 75
    24
147
0.025
148
0.0
149
0.0
100
AcDbLayout
  1
Model
 70
     1
 71
     0
 10
0.0
 20
0.0
 11
12.0
 21
9.0
 12
0.0
 22
0.0
 32
0.0
 14
0.0
 24
0.0
 34
0.0
 15
0.0
 25
0.0
 35
0.0
146
0.0
 13
0.0
 23
0.0
 33
0.0
 16
1.0
 26
0.0
 36
0.0
 17
0.0
 27
1.0
 37
0.0
 76
     0
330
747D
  0
LAYOUT
  5
166B2
102
{ACAD_XDICTIONARY
360
1819D
102
}
102
{ACAD_REACTORS
330
166AF
102
}
330
166AF
100
AcDbPlotSettings
  1

  2
EPSON LP-7000C
  4

  6

 40
0.0
 41
0.0
 42
0.0
 43
0.0
 44
0.0
 45
0.0
 46
0.0
 47
0.0
 48
0.0
 49
0.0
140
0.0
141
0.0
142
1.0
143
1.0
 70
   688
 72
     0
 73
     0
 74
     5
  7
inaba.ctb
 75
    16
147
1.0
148
0.0
149
0.0
100
AcDbLayout
  1
レイアウト1
 70
     0
 71
     1
 10
0.0
 20
0.0
 11
420.0
 21
297.0
 12
0.0
 22
0.0
 32
0.0
 14
1.000000000000000E+20
 24
1.000000000000000E+20
 34
1.000000000000000E+20
 15
-1.000000000000000E+20
 25
-1.000000000000000E+20
 35
-1.000000000000000E+20
146
0.0
 13
0.0
 23
0.0
 33
0.0
 16
1.0
 26
0.0
 36
0.0
 17
0.0
 27
1.0
 37
0.0
 76
     0
330
747A
  0
MLINESTYLE
  5
7480
102
{ACAD_REACTORS
330
7473
102
}
330
7473
100
AcDbMlineStyle
  2
STANDARD
 70
     0
  3

 62
     0
 51
90.0
 52
90.0
 71
     2
 49
0.5
 62
   256
  6
BYLAYER
 49
-0.5
 62
   256
  6
BYLAYER
  0
ACDBPLACEHOLDER
  5
166AC
102
{ACAD_REACTORS
330
166AB
102
}
330
166AB
  0
XRECORD
  5
1819A
102
{ACAD_REACTORS
330
18198
102
}
330
18198
100
AcDbXrecord
280
     1
340
166AE
  0
XRECORD
  5
18199
102
{ACAD_REACTORS
330
18198
102
}
330
18198
100
AcDbXrecord
280
     1
340
166AD
  0
DICTIONARYVAR
  5
16C7F
102
{ACAD_REACTORS
330
16C7E
102
}
330
16C7E
100
DictionaryVariables
280
     0
  1
1
  0
DICTIONARYVAR
  5
16C80
102
{ACAD_REACTORS
330
16C7E
102
}
330
16C7E
100
DictionaryVariables
280
     0
  1

  0
DICTIONARY
  5
1819B
330
166B1
100
AcDbDictionary
280
     1
281
     1
  3
ACAD_XREC_ROUNDTRIP
360
1819C
  0
DICTIONARY
  5
1819D
330
166B2
100
AcDbDictionary
280
     1
281
     1
  3
ACAD_XREC_ROUNDTRIP
360
1819E
  0
XRECORD
  5
1819C
102
{ACAD_REACTORS
330
1819B
102
}
330
1819B
100
AcDbXrecord
280
     1
102
SHADEPLOT
 70
     0
102
SHADEPLOTRESLEVEL
 70
     2
102
SHADEPLOTCUSTOMDPI
 70
   300
  0
XRECORD
  5
1819E
102
{ACAD_REACTORS
330
1819D
102
}
330
1819D
100
AcDbXrecord
280
     1
102
SHADEPLOT
 70
     0
102
SHADEPLOTRESLEVEL
 70
     2
102
SHADEPLOTCUSTOMDPI
 70
   300
  0
ENDSEC
  0
EOF
