  0
SECTION
  2
HEADER
  9
$ACADVER
  1
AC1015
  9
$ACADMAINTVER
 70
    20
  9
$DWGCODEPAGE
  3
ANSI_932
  9
$INSBASE
 10
0.0
 20
0.0
 30
0.0
  9
$EXTMIN
 10
139.9999999999995
 20
-0.0000000000000909
 30
0.0
  9
$EXTMAX
 10
16307.2
 20
11409.6
 30
0.0
  9
$LIMMIN
 10
0.0
 20
0.0
  9
$LIMMAX
 10
16800.0
 20
11880.0
  9
$ORTHOMODE
 70
     0
  9
$REGENMODE
 70
     1
  9
$FILLMODE
 70
     1
  9
$QTEXTMODE
 70
     0
  9
$MIRRTEXT
 70
     1
  9
$LTSCALE
 40
20.0
  9
$ATTMODE
 70
     1
  9
$TEXTSIZE
 40
3.5
  9
$TRACEWID
 40
1.0
  9
$TEXTSTYLE
  7
MSGOTHIC
  9
$CLAYER
  8
部品1
  9
$CELTYPE
  6
BYLAYER
  9
$CECOLOR
 62
   256
  9
$CELTSCALE
 40
50.0
  9
$DISPSILH
 70
     0
  9
$DIMSCALE
 40
40.0
  9
$DIMASZ
 40
2.5
  9
$DIMEXO
 40
0.5
  9
$DIMDLI
 40
7.0
  9
$DIMRND
 40
0.0
  9
$DIMDLE
 40
0.0
  9
$DIMEXE
 40
1.5
  9
$DIMTP
 40
0.0
  9
$DIMTM
 40
0.0
  9
$DIMTXT
 40
3.0
  9
$DIMCEN
 40
0.0
  9
$DIMTSZ
 40
0.0
  9
$DIMTOL
 70
     0
  9
$DIMLIM
 70
     0
  9
$DIMTIH
 70
     0
  9
$DIMTOH
 70
     0
  9
$DIMSE1
 70
     0
  9
$DIMSE2
 70
     0
  9
$DIMTAD
 70
     3
  9
$DIMZIN
 70
     8
  9
$DIMBLK
  1

  9
$DIMASO
 70
     1
  9
$DIMSHO
 70
     1
  9
$DIMPOST
  1

  9
$DIMAPOST
  1

  9
$DIMALT
 70
     0
  9
$DIMALTD
 70
     2
  9
$DIMALTF
 40
0.0394
  9
$DIMLFAC
 40
1.0
  9
$DIMTOFL
 70
     1
  9
$DIMTVP
 40
0.0
  9
$DIMTIX
 70
     1
  9
$DIMSOXD
 70
     0
  9
$DIMSAH
 70
     1
  9
$DIMBLK1
  1
DOTSMALL
  9
$DIMBLK2
  1
DOTSMALL
  9
$DIMSTYLE
  2
INABA_S40G
  9
$DIMCLRD
 70
     0
  9
$DIMCLRE
 70
     0
  9
$DIMCLRT
 70
     7
  9
$DIMTFAC
 40
1.0
  9
$DIMGAP
 40
1.0
  9
$DIMJUST
 70
     0
  9
$DIMSD1
 70
     0
  9
$DIMSD2
 70
     0
  9
$DIMTOLJ
 70
     1
  9
$DIMTZIN
 70
     0
  9
$DIMALTZ
 70
     0
  9
$DIMALTTZ
 70
     0
  9
$DIMUPT
 70
     0
  9
$DIMDEC
 70
     1
  9
$DIMTDEC
 70
     4
  9
$DIMALTU
 70
     2
  9
$DIMALTTD
 70
     2
  9
$DIMTXSTY
  7
STYLE1
  9
$DIMAUNIT
 70
     0
  9
$DIMADEC
 70
     0
  9
$DIMALTRND
 40
0.0
  9
$DIMAZIN
 70
     0
  9
$DIMDSEP
 70
    46
  9
$DIMATFIT
 70
     3
  9
$DIMFRAC
 70
     0
  9
$DIMLDRBLK
  1

  9
$DIMLUNIT
 70
     2
  9
$DIMLWD
 70
    -2
  9
$DIMLWE
 70
    -2
  9
$DIMTMOVE
 70
     0
  9
$LUNITS
 70
     2
  9
$LUPREC
 70
     1
  9
$SKETCHINC
 40
1.0
  9
$FILLETRAD
 40
3.0
  9
$AUNITS
 70
     0
  9
$AUPREC
 70
     0
  9
$MENU
  1
acad
  9
$ELEVATION
 40
0.0
  9
$PELEVATION
 40
0.0
  9
$THICKNESS
 40
0.0
  9
$LIMCHECK
 70
     0
  9
$CHAMFERA
 40
0.0
  9
$CHAMFERB
 40
0.0
  9
$CHAMFERC
 40
0.0
  9
$CHAMFERD
 40
0.0
  9
$SKPOLY
 70
     0
  9
$TDCREATE
 40
2451368.612993866
  9
$TDUCREATE
 40
2451368.237993866
  9
$TDUPDATE
 40
2455569.643933739
  9
$TDUUPDATE
 40
2455569.268933739
  9
$TDINDWG
 40
0.6559618403
  9
$TDUSRTIMER
 40
0.6559618403
  9
$USRTIMER
 70
     1
  9
$ANGBASE
 50
0.0
  9
$ANGDIR
 70
     0
  9
$PDMODE
 70
     3
  9
$PDSIZE
 40
2.0
  9
$PLINEWID
 40
0.0
  9
$SPLFRAME
 70
     0
  9
$SPLINETYPE
 70
     6
  9
$SPLINESEGS
 70
     8
  9
$HANDSEED
  5
18549
  9
$SURFTAB1
 70
     6
  9
$SURFTAB2
 70
     6
  9
$SURFTYPE
 70
     6
  9
$SURFU
 70
     6
  9
$SURFV
 70
     6
  9
$UCSBASE
  2

  9
$UCSNAME
  2

  9
$UCSORG
 10
0.0
 20
0.0
 30
0.0
  9
$UCSXDIR
 10
1.0
 20
0.0
 30
0.0
  9
$UCSYDIR
 10
0.0
 20
1.0
 30
0.0
  9
$UCSORTHOREF
  2

  9
$UCSORTHOVIEW
 70
     0
  9
$UCSORGTOP
 10
0.0
 20
0.0
 30
0.0
  9
$UCSORGBOTTOM
 10
0.0
 20
0.0
 30
0.0
  9
$UCSORGLEFT
 10
0.0
 20
0.0
 30
0.0
  9
$UCSORGRIGHT
 10
0.0
 20
0.0
 30
0.0
  9
$UCSORGFRONT
 10
0.0
 20
0.0
 30
0.0
  9
$UCSORGBACK
 10
0.0
 20
0.0
 30
0.0
  9
$PUCSBASE
  2

  9
$PUCSNAME
  2

  9
$PUCSORG
 10
0.0
 20
0.0
 30
0.0
  9
$PUCSXDIR
 10
1.0
 20
0.0
 30
0.0
  9
$PUCSYDIR
 10
0.0
 20
1.0
 30
0.0
  9
$PUCSORTHOREF
  2

  9
$PUCSORTHOVIEW
 70
     0
  9
$PUCSORGTOP
 10
0.0
 20
0.0
 30
0.0
  9
$PUCSORGBOTTOM
 10
0.0
 20
0.0
 30
0.0
  9
$PUCSORGLEFT
 10
0.0
 20
0.0
 30
0.0
  9
$PUCSORGRIGHT
 10
0.0
 20
0.0
 30
0.0
  9
$PUCSORGFRONT
 10
0.0
 20
0.0
 30
0.0
  9
$PUCSORGBACK
 10
0.0
 20
0.0
 30
0.0
  9
$USERI1
 70
     0
  9
$USERI2
 70
     0
  9
$USERI3
 70
     0
  9
$USERI4
 70
     0
  9
$USERI5
 70
     0
  9
$USERR1
 40
0.0
  9
$USERR2
 40
0.0
  9
$USERR3
 40
0.0
  9
$USERR4
 40
0.0
  9
$USERR5
 40
0.0
  9
$WORLDVIEW
 70
     1
  9
$SHADEDGE
 70
     3
  9
$SHADEDIF
 70
    70
  9
$TILEMODE
 70
     1
  9
$MAXACTVP
 70
    16
  9
$PINSBASE
 10
0.0
 20
0.0
 30
0.0
  9
$PLIMCHECK
 70
     0
  9
$PEXTMIN
 10
1.000000000000000E+20
 20
1.000000000000000E+20
 30
1.000000000000000E+20
  9
$PEXTMAX
 10
-1.000000000000000E+20
 20
-1.000000000000000E+20
 30
-1.000000000000000E+20
  9
$PLIMMIN
 10
0.0
 20
0.0
  9
$PLIMMAX
 10
420.0
 20
297.0
  9
$UNITMODE
 70
     0
  9
$VISRETAIN
 70
     0
  9
$PLINEGEN
 70
     0
  9
$PSLTSCALE
 70
     0
  9
$TREEDEPTH
 70
  3020
  9
$CMLSTYLE
  2
STANDARD
  9
$CMLJUST
 70
     0
  9
$CMLSCALE
 40
1.0
  9
$PROXYGRAPHICS
 70
     1
  9
$MEASUREMENT
 70
     1
  9
$CELWEIGHT
370
    -1
  9
$ENDCAPS
280
     0
  9
$JOINSTYLE
280
     0
  9
$LWDISPLAY
290
     0
  9
$INSUNITS
 70
     0
  9
$HYPERLINKBASE
  1

  9
$STYLESHEET
  1
inaba.ctb
  9
$XEDIT
290
     1
  9
$CEPSNTYPE
380
     0
  9
$PSTYLEMODE
290
     1
  9
$FINGERPRINTGUID
  2
{77ABBCC8-E499-47A5-842F-55F583DC8CE7}
  9
$VERSIONGUID
  2
{DBB2070C-6DA2-4512-84C9-75658A81CA41}
  9
$EXTNAMES
290
     1
  9
$PSVPSCALE
 40
0.0
  9
$OLESTARTUP
290
     0
  0
ENDSEC
  0
SECTION
  2
CLASSES
  0
CLASS
  1
ACDBDICTIONARYWDFLT
  2
AcDbDictionaryWithDefault
  3
ObjectDBX Classes
 90
        0
280
     0
281
     0
  0
CLASS
  1
DICTIONARYVAR
  2
AcDbDictionaryVar
  3
ObjectDBX Classes
 90
        0
280
     0
281
     0
  0
CLASS
  1
ACDBPLACEHOLDER
  2
AcDbPlaceHolder
  3
ObjectDBX Classes
 90
        0
280
     0
281
     0
  0
CLASS
  1
LAYOUT
  2
AcDbLayout
  3
ObjectDBX Classes
 90
        0
280
     0
281
     0
  0
ENDSEC
  0
SECTION
  2
TABLES
  0
TABLE
  2
VPORT
  5
746D
330
0
100
AcDbSymbolTable
 70
     2
  0
VPORT
  5
18541
330
746D
100
AcDbSymbolTableRecord
100
AcDbViewportTableRecord
  2
*Active
 70
     0
 10
0.0
 20
0.0
 11
1.0
 21
1.0
 12
11720.25903428193
 22
5704.513862896347
 13
0.0
 23
0.0
 14
10.0
 24
10.0
 15
10.0
 25
10.0
 16
0.0
 26
0.0
 36
1.0
 17
0.0
 27
0.0
 37
0.0
 40
11513.95019505916
 41
2.234800838574423
 42
50.0
 43
0.0
 44
0.0
 50
0.0
 51
0.0
 71
     0
 72
     0
 73
     1
 74
     0
 75
     0
 76
     0
 77
     0
 78
     0
281
     0
 65
     1
110
0.0
120
0.0
130
0.0
111
1.0
121
0.0
131
0.0
112
0.0
122
1.0
132
0.0
 79
     0
146
0.0
  0
ENDTAB
  0
TABLE
  2
LTYPE
  5
746A
330
0
100
AcDbSymbolTable
 70
     3
  0
LTYPE
  5
7477
330
746A
100
AcDbSymbolTableRecord
100
AcDbLinetypeTableRecord
  2
BYBLOCK
 70
     0
  3

 72
    65
 73
     0
 40
0.0
  0
LTYPE
  5
7478
330
746A
100
AcDbSymbolTableRecord
100
AcDbLinetypeTableRecord
  2
BYLAYER
 70
     0
  3

 72
    65
 73
     0
 40
0.0
  0
LTYPE
  5
7479
330
746A
100
AcDbSymbolTableRecord
100
AcDbLinetypeTableRecord
  2
CONTINUOUS
 70
     0
  3
Solid line
 72
    65
 73
     0
 40
0.0
  0
LTYPE
  5
781A
330
746A
100
AcDbSymbolTableRecord
100
AcDbLinetypeTableRecord
  2
HIDDEN
 70
     0
  3
__ __ __ __ __ __ __ __ __ __ __ __ __ __ __ __
 72
    65
 73
     2
 40
0.375
 49
0.25
 74
     0
 49
-0.125
 74
     0
  0
LTYPE
  5
781B
330
746A
100
AcDbSymbolTableRecord
100
AcDbLinetypeTableRecord
  2
PHANTOM
 70
     0
  3
______  __  __  ______  __  __  ______  __  __ 
 72
    65
 73
     6
 40
2.5
 49
1.25
 74
     0
 49
-0.25
 74
     0
 49
0.25
 74
     0
 49
-0.25
 74
     0
 49
0.25
 74
     0
 49
-0.25
 74
     0
  0
ENDTAB
  0
TABLE
  2
LAYER
  5
7467
102
{ACAD_XDICTIONARY
360
170EA
102
}
330
0
100
AcDbSymbolTable
 70
    10
  0
LAYER
  5
7474
330
7467
100
AcDbSymbolTableRecord
100
AcDbLayerTableRecord
  2
0
 70
     0
 62
     7
  6
CONTINUOUS
370
    -3
390
166AC
  0
LAYER
  5
DEB3
330
7467
100
AcDbSymbolTableRecord
100
AcDbLayerTableRecord
  2
寸法
 70
     0
 62
     4
  6
CONTINUOUS
370
    -3
390
166AC
  0
LAYER
  5
DEB4
330
7467
100
AcDbSymbolTableRecord
100
AcDbLayerTableRecord
  2
部品1
 70
     0
 62
     7
  6
CONTINUOUS
370
    -3
390
166AC
  0
LAYER
  5
DEB5
330
7467
100
AcDbSymbolTableRecord
100
AcDbLayerTableRecord
  2
補助
 70
     0
 62
    -1
  6
CONTINUOUS
370
    -3
390
166AC
  0
LAYER
  5
DEB6
330
7467
100
AcDbSymbolTableRecord
100
AcDbLayerTableRecord
  2
文字
 70
     0
 62
     7
  6
CONTINUOUS
370
    -3
390
166AC
  0
LAYER
  5
F255
330
7467
100
AcDbSymbolTableRecord
100
AcDbLayerTableRecord
  2
DEFPOINTS
 70
     0
 62
     7
  6
CONTINUOUS
290
     0
370
    -3
390
166AC
  0
LAYER
  5
10B54
330
7467
100
AcDbSymbolTableRecord
100
AcDbLayerTableRecord
  2
仕様書枠
 70
     0
 62
   230
  6
CONTINUOUS
370
    -3
390
166AC
  0
LAYER
  5
11729
330
7467
100
AcDbSymbolTableRecord
100
AcDbLayerTableRecord
  2
Ｇ．Ｌ
 70
     0
 62
    30
  6
CONTINUOUS
370
    -3
390
166AC
  0
LAYER
  5
1173F
330
7467
100
AcDbSymbolTableRecord
100
AcDbLayerTableRecord
  2
細線
 70
     0
 62
     5
  6
CONTINUOUS
370
    -3
390
166AC
  0
LAYER
  5
142E2
330
7467
100
AcDbSymbolTableRecord
100
AcDbLayerTableRecord
  2
破線
 70
     0
 62
     2
  6
HIDDEN
370
    -3
390
166AC
  0
ENDTAB
  0
TABLE
  2
STYLE
  5
7468
330
0
100
AcDbSymbolTable
 70
     6
  0
STYLE
  5
7475
330
7468
100
AcDbSymbolTableRecord
100
AcDbTextStyleTableRecord
  2
STANDARD
 70
     0
 40
0.0
 41
1.0
 50
0.0
 71
     0
 42
4.0
  3
txt
  4
C:\AutoCAD LT\bigfont.shx
  0
STYLE
  5
763C
330
7468
100
AcDbSymbolTableRecord
100
AcDbTextStyleTableRecord
  2
MSMINCHO
 70
     0
 40
0.0
 41
1.0
 50
0.0
 71
     0
 42
1.199999999999999
  3
C:\AutoCAD LT\msminch2.TTF
  4

  0
STYLE
  5
F706
330
7468
100
AcDbSymbolTableRecord
100
AcDbTextStyleTableRecord
  2
STYLE1
 70
     0
 40
0.0
 41
1.0
 50
0.0
 71
     0
 42
4.0
  3
isocp.shx
  4
bigfont.shx
  0
STYLE
  5
103BF
330
7468
100
AcDbSymbolTableRecord
100
AcDbTextStyleTableRecord
  2
STYLE2
 70
     0
 40
0.0
 41
1.0
 50
0.0
 71
     0
 42
100.0
  3
MS PGothic.ttf
  4

1001
ACAD
1000
MS PGothic
1071
    32818
  0
STYLE
  5
10BAA
330
7468
100
AcDbSymbolTableRecord
100
AcDbTextStyleTableRecord
  2
STYLE3
 70
     0
 40
0.0
 41
1.0
 50
0.0
 71
     0
 42
100.0
  3
DFPGothic-EB.ttf
  4

1001
ACAD
1000
DFPGothic-EB
1071
    32818
  0
STYLE
  5
11A15
330
7468
100
AcDbSymbolTableRecord
100
AcDbTextStyleTableRecord
  2
MSGOTHIC
 70
     0
 40
0.0
 41
1.0
 50
0.0
 71
     0
 42
3.5
  3
MS PGothic.ttf
  4

1001
ACAD
1000
MS PGothic
1071
    32818
  0
ENDTAB
  0
TABLE
  2
VIEW
  5
746B
330
0
100
AcDbSymbolTable
 70
     0
  0
ENDTAB
  0
TABLE
  2
UCS
  5
746C
330
0
100
AcDbSymbolTable
 70
     0
  0
ENDTAB
  0
TABLE
  2
APPID
  5
746E
330
0
100
AcDbSymbolTable
 70
     6
  0
APPID
  5
7476
330
746E
100
AcDbSymbolTableRecord
100
AcDbRegAppTableRecord
  2
ACAD
 70
     0
  0
APPID
  5
DEA9
330
746E
100
AcDbSymbolTableRecord
100
AcDbRegAppTableRecord
  2
CONTENTBLOCKICON
 70
     0
  0
APPID
  5
DEAA
330
746E
100
AcDbSymbolTableRecord
100
AcDbRegAppTableRecord
  2
CONTENTBLOCKDESCRIPTION
 70
     0
  0
APPID
  5
E71D
330
746E
100
AcDbSymbolTableRecord
100
AcDbRegAppTableRecord
  2
CONTENTTABDATA
 70
     0
  0
APPID
  5
E71E
330
746E
100
AcDbSymbolTableRecord
100
AcDbRegAppTableRecord
  2
CONTENTCURRENTTAB
 70
     0
  0
APPID
  5
F3BA
330
746E
100
AcDbSymbolTableRecord
100
AcDbRegAppTableRecord
  2
DRAWINGVARIABLESXDATA
 70
     0
  0
ENDTAB
  0
TABLE
  2
DIMSTYLE
  5
746F
330
0
100
AcDbSymbolTable
 70
     1
100
AcDbDimStyleTable
 71
     1
340
F71F
  0
DIMSTYLE
105
F71F
102
{ACAD_REACTORS
330
16452
330
16459
330
1645E
330
16460
330
16461
330
16462
330
16475
330
16476
330
16477
330
1648F
330
16492
330
164BD
330
164BE
330
17293
330
17294
330
17295
330
172C5
330
172C9
330
172CA
330
172CB
330
172D9
330
172E8
330
181AD
330
181AC
330
181AB
330
181AA
330
183A4
330
183A5
330
183A6
102
}
330
746F
100
AcDbSymbolTableRecord
100
AcDbDimStyleTableRecord
  2
INABA_S40G
 70
     0
 40
40.0
 41
2.5
 42
0.5
 43
7.0
 44
1.5
 73
     0
 74
     0
 77
     3
 78
     8
140
3.0
141
0.0
143
0.0394
147
1.0
172
     1
173
     1
174
     1
178
     7
271
     1
340
F706
341
F770
343
F770
344
F770
  0
ENDTAB
  0
TABLE
  2
BLOCK_RECORD
  5
7466
330
0
100
AcDbSymbolTable
 70
    30
  0
BLOCK_RECORD
  5
747D
330
7466
100
AcDbSymbolTableRecord
100
AcDbBlockTableRecord
  2
*MODEL_SPACE
340
166B1
  0
BLOCK_RECORD
  5
747A
330
7466
100
AcDbSymbolTableRecord
100
AcDbBlockTableRecord
  2
*PAPER_SPACE
340
166B2
  0
BLOCK_RECORD
  5
F770
330
7466
100
AcDbSymbolTableRecord
100
AcDbBlockTableRecord
  2
_DOTSMALL
340
0
102
{BLKREFS
331
16D9C
331
16D9D
331
16DA7
331
16DA8
331
16DB2
331
16DB3
331
16DBB
331
16DBC
331
16DC6
331
16DC7
331
16DD1
331
16DD2
331
16DDD
331
16DDE
331
16DE8
331
16DE9
331
16DF2
331
16DF3
331
16DFB
331
16DFC
331
16E03
331
16E04
331
16E0C
331
16E0D
331
16E15
331
16E16
331
18012
331
18013
331
1801C
331
1801D
331
18030
331
18031
331
18044
331
18045
331
1804D
331
1804E
331
18056
331
18057
331
1805F
331
18060
331
1822C
331
1822D
331
18235
331
18236
331
18240
331
18241
331
18249
331
1824A
331
184C6
331
184C7
331
18509
331
1850A
331
18512
331
18513
331
18526
331
18527
331
18532
331
18533
102
}
  0
BLOCK_RECORD
  5
164C6
330
7466
100
AcDbSymbolTableRecord
100
AcDbBlockTableRecord
  2
*D1
340
0
  0
BLOCK_RECORD
  5
164D2
330
7466
100
AcDbSymbolTableRecord
100
AcDbBlockTableRecord
  2
*D2
340
0
  0
BLOCK_RECORD
  5
164F6
330
7466
100
AcDbSymbolTableRecord
100
AcDbBlockTableRecord
  2
*D3
340
0
  0
BLOCK_RECORD
  5
16501
330
7466
100
AcDbSymbolTableRecord
100
AcDbBlockTableRecord
  2
*D4
340
0
  0
BLOCK_RECORD
  5
1650D
330
7466
100
AcDbSymbolTableRecord
100
AcDbBlockTableRecord
  2
*D5
340
0
  0
BLOCK_RECORD
  5
1651B
330
7466
100
AcDbSymbolTableRecord
100
AcDbBlockTableRecord
  2
*D6
340
0
  0
BLOCK_RECORD
  5
1652A
330
7466
100
AcDbSymbolTableRecord
100
AcDbBlockTableRecord
  2
*D7
340
0
  0
BLOCK_RECORD
  5
16539
330
7466
100
AcDbSymbolTableRecord
100
AcDbBlockTableRecord
  2
*D8
340
0
  0
BLOCK_RECORD
  5
16547
330
7466
100
AcDbSymbolTableRecord
100
AcDbBlockTableRecord
  2
*D9
340
0
  0
BLOCK_RECORD
  5
16555
330
7466
100
AcDbSymbolTableRecord
100
AcDbBlockTableRecord
  2
*D10
340
0
  0
BLOCK_RECORD
  5
16561
330
7466
100
AcDbSymbolTableRecord
100
AcDbBlockTableRecord
  2
*D11
340
0
  0
BLOCK_RECORD
  5
1656F
330
7466
100
AcDbSymbolTableRecord
100
AcDbBlockTableRecord
  2
*D12
340
0
  0
BLOCK_RECORD
  5
1657D
330
7466
100
AcDbSymbolTableRecord
100
AcDbBlockTableRecord
  2
*D13
340
0
  0
BLOCK_RECORD
  5
174DD
330
7466
100
AcDbSymbolTableRecord
100
AcDbBlockTableRecord
  2
*D14
340
0
  0
BLOCK_RECORD
  5
174E9
330
7466
100
AcDbSymbolTableRecord
100
AcDbBlockTableRecord
  2
*D15
340
0
  0
BLOCK_RECORD
  5
174F5
330
7466
100
AcDbSymbolTableRecord
100
AcDbBlockTableRecord
  2
*D16
340
0
  0
BLOCK_RECORD
  5
17501
330
7466
100
AcDbSymbolTableRecord
100
AcDbBlockTableRecord
  2
*D17
340
0
  0
BLOCK_RECORD
  5
1750F
330
7466
100
AcDbSymbolTableRecord
100
AcDbBlockTableRecord
  2
*D18
340
0
  0
BLOCK_RECORD
  5
1751B
330
7466
100
AcDbSymbolTableRecord
100
AcDbBlockTableRecord
  2
*D19
340
0
  0
BLOCK_RECORD
  5
17529
330
7466
100
AcDbSymbolTableRecord
100
AcDbBlockTableRecord
  2
*D20
340
0
  0
BLOCK_RECORD
  5
17535
330
7466
100
AcDbSymbolTableRecord
100
AcDbBlockTableRecord
  2
*D21
340
0
  0
BLOCK_RECORD
  5
17542
330
7466
100
AcDbSymbolTableRecord
100
AcDbBlockTableRecord
  2
*D22
340
0
  0
BLOCK_RECORD
  5
181F3
330
7466
100
AcDbSymbolTableRecord
100
AcDbBlockTableRecord
  2
*D23
340
0
  0
BLOCK_RECORD
  5
18201
330
7466
100
AcDbSymbolTableRecord
100
AcDbBlockTableRecord
  2
*D24
340
0
  0
BLOCK_RECORD
  5
1820D
330
7466
100
AcDbSymbolTableRecord
100
AcDbBlockTableRecord
  2
*D25
340
0
  0
BLOCK_RECORD
  5
1821B
330
7466
100
AcDbSymbolTableRecord
100
AcDbBlockTableRecord
  2
*D26
340
0
  0
BLOCK_RECORD
  5
18404
330
7466
100
AcDbSymbolTableRecord
100
AcDbBlockTableRecord
  2
*D27
340
0
  0
BLOCK_RECORD
  5
18410
330
7466
100
AcDbSymbolTableRecord
100
AcDbBlockTableRecord
  2
*D28
340
0
  0
BLOCK_RECORD
  5
1841E
330
7466
100
AcDbSymbolTableRecord
100
AcDbBlockTableRecord
  2
*D29
340
0
  0
ENDTAB
  0
ENDSEC
  0
SECTION
  2
BLOCKS
  0
BLOCK
  5
7489
330
747D
100
AcDbEntity
  8
0
100
AcDbBlockBegin
  2
*MODEL_SPACE
 70
     0
 10
0.0
 20
0.0
 30
0.0
  3
*MODEL_SPACE
  1

  0
ENDBLK
  5
748A
330
747D
100
AcDbEntity
  8
0
100
AcDbBlockEnd
  0
BLOCK
  5
7487
330
747A
100
AcDbEntity
 67
     1
  8
0
100
AcDbBlockBegin
  2
*PAPER_SPACE
 70
     0
 10
0.0
 20
0.0
 30
0.0
  3
*PAPER_SPACE
  1

  0
ENDBLK
  5
7488
330
747A
100
AcDbEntity
 67
     1
  8
0
100
AcDbBlockEnd
  0
BLOCK
  5
F771
330
F770
100
AcDbEntity
  8
0
 48
50.0
100
AcDbBlockBegin
  2
_DOTSMALL
 70
     0
 10
0.0
 20
0.0
 30
0.0
  3
_DOTSMALL
  1

  0
LWPOLYLINE
  5
F772
330
F770
100
AcDbEntity
  8
0
  6
ByBlock
 62
     0
 48
50.0
100
AcDbPolyline
 90
        2
 70
     1
 43
0.5
 10
-0.0625
 20
0.0
 42
1.0
 10
0.0625
 20
0.0
 42
1.0
  0
ENDBLK
  5
F776
330
F770
100
AcDbEntity
  8
0
 48
50.0
100
AcDbBlockEnd
  0
BLOCK
  5
16663
330
164C6
100
AcDbEntity
  8
0
 48
50.0
100
AcDbBlockBegin
  2
*D1
 70
     1
 10
0.0
 20
0.0
 30
0.0
  3
*D1
  1

  0
LINE
  5
16E12
330
164C6
100
AcDbEntity
  8
寸法
 62
     0
 48
50.0
370
    -2
100
AcDbLine
 10
6802.069000782738
 20
10427.28391328919
 30
0.0
 11
7854.602288256784
 21
10427.28391328919
 31
0.0
  0
LINE
  5
16E13
330
164C6
100
AcDbEntity
  8
寸法
 62
     0
 48
50.0
370
    -2
100
AcDbLine
 10
6802.069000782712
 20
7377.283913289186
 30
0.0
 11
7854.602288256784
 21
7377.283913289186
 31
0.0
  0
LINE
  5
16E14
330
164C6
100
AcDbEntity
  8
寸法
 62
     0
 48
50.0
370
    -2
100
AcDbLine
 10
7794.602288256784
 20
10427.28391328919
 30
0.0
 11
7794.602288256783
 21
7377.283913289186
 31
0.0
  0
INSERT
  5
16E15
330
164C6
100
AcDbEntity
  8
寸法
 62
     0
 48
50.0
370
    -2
100
AcDbBlockReference
  2
_DOTSMALL
 10
7794.602288256784
 20
10427.28391328919
 30
0.0
 41
100.0
 42
100.0
 43
100.0
 50
90.0
  0
INSERT
  5
16E16
330
164C6
100
AcDbEntity
  8
寸法
 62
     0
 48
50.0
370
    -2
100
AcDbBlockReference
  2
_DOTSMALL
 10
7794.602288256783
 20
7377.283913289186
 30
0.0
 41
100.0
 42
100.0
 43
100.0
 50
270.0
  0
MTEXT
  5
16E17
330
164C6
100
AcDbEntity
  8
寸法
 62
     7
 48
50.0
100
AcDbMText
 10
7694.602288256781
 20
8902.283913289192
 30
0.0
 40
120.0
 41
0.0
 71
     5
 72
     1
  1
\A1;3050
  7
STYLE1
 11
0.0000000000000001
 21
1.0
 31
0.0
 73
     1
 44
1.0
1001
ACAD
1000
MTEXTBEGIN
1070
    73
1070
     1
1070
    44
1040
1.0
1070
    74
1070
     0
1000
MTEXTEND
  0
POINT
  5
16E18
330
164C6
100
AcDbEntity
  8
DEFPOINTS
 62
     0
 48
50.0
100
AcDbPoint
 10
6782.069000782738
 20
10427.28391328919
 30
0.0
  0
POINT
  5
16E19
330
164C6
100
AcDbEntity
  8
DEFPOINTS
 62
     0
 48
50.0
100
AcDbPoint
 10
6782.069000782712
 20
7377.283913289186
 30
0.0
  0
POINT
  5
16E1A
330
164C6
100
AcDbEntity
  8
DEFPOINTS
 62
     0
 48
50.0
100
AcDbPoint
 10
7794.602288256783
 20
7377.283913289186
 30
0.0
  0
ENDBLK
  5
1666D
330
164C6
100
AcDbEntity
  8
0
 48
50.0
100
AcDbBlockEnd
  0
BLOCK
  5
1666E
330
164D2
100
AcDbEntity
  8
0
 48
50.0
100
AcDbBlockBegin
  2
*D2
 70
     1
 10
0.0
 20
0.0
 30
0.0
  3
*D2
  1

  0
LINE
  5
16E09
330
164D2
100
AcDbEntity
  8
寸法
 62
     0
 48
50.0
370
    -2
100
AcDbLine
 10
6802.069000782738
 20
10372.28391328919
 30
0.0
 11
7489.495346517148
 21
10372.28391328919
 31
0.0
  0
LINE
  5
16E0A
330
164D2
100
AcDbEntity
  8
寸法
 62
     0
 48
50.0
370
    -2
100
AcDbLine
 10
6802.069000782712
 20
7432.283913289182
 30
0.0
 11
7489.495346517147
 21
7432.283913289182
 31
0.0
  0
LINE
  5
16E0B
330
164D2
100
AcDbEntity
  8
寸法
 62
     0
 48
50.0
370
    -2
100
AcDbLine
 10
7429.495346517147
 20
10372.28391328919
 30
0.0
 11
7429.495346517147
 21
7432.283913289182
 31
0.0
  0
INSERT
  5
16E0C
330
164D2
100
AcDbEntity
  8
寸法
 62
     0
 48
50.0
370
    -2
100
AcDbBlockReference
  2
_DOTSMALL
 10
7429.495346517147
 20
10372.28391328919
 30
0.0
 41
100.0
 42
100.0
 43
100.0
 50
90.0
  0
INSERT
  5
16E0D
330
164D2
100
AcDbEntity
  8
寸法
 62
     0
 48
50.0
370
    -2
100
AcDbBlockReference
  2
_DOTSMALL
 10
7429.495346517147
 20
7432.283913289182
 30
0.0
 41
100.0
 42
100.0
 43
100.0
 50
270.0
  0
MTEXT
  5
16E0E
330
164D2
100
AcDbEntity
  8
寸法
 62
     7
 48
50.0
100
AcDbMText
 10
7329.483535493524
 20
8902.283913289192
 30
0.0
 40
120.0
 41
0.0
 71
     5
 72
     1
  1
\A1;7X420=2940
  7
STYLE1
 11
0.0000000000000001
 21
1.0
 31
0.0
 73
     1
 44
1.0
1001
ACAD
1000
MTEXTBEGIN
1070
    73
1070
     1
1070
    44
1040
1.0
1070
    74
1070
     0
1000
MTEXTEND
  0
POINT
  5
16E0F
330
164D2
100
AcDbEntity
  8
DEFPOINTS
 62
     0
 48
50.0
100
AcDbPoint
 10
6782.069000782738
 20
10372.28391328919
 30
0.0
  0
POINT
  5
16E10
330
164D2
100
AcDbEntity
  8
DEFPOINTS
 62
     0
 48
50.0
100
AcDbPoint
 10
6782.069000782712
 20
7432.283913289182
 30
0.0
  0
POINT
  5
16E11
330
164D2
100
AcDbEntity
  8
DEFPOINTS
 62
     0
 48
50.0
100
AcDbPoint
 10
7429.495346517147
 20
7432.283913289182
 30
0.0
  0
ENDBLK
  5
16678
330
164D2
100
AcDbEntity
  8
0
 48
50.0
100
AcDbBlockEnd
  0
BLOCK
  5
165C3
330
164F6
100
AcDbEntity
  8
0
 48
50.0
100
AcDbBlockBegin
  2
*D3
 70
     1
 10
0.0
 20
0.0
 30
0.0
  3
*D3
  1

  0
LINE
  5
16E01
330
164F6
100
AcDbEntity
  8
寸法
 62
     0
 48
50.0
370
    -2
100
AcDbLine
 10
5095.06900078273
 20
7383.283913289094
 30
0.0
 11
5095.06900078273
 21
6782.85314252293
 31
0.0
  0
LINE
  5
16E02
330
164F6
100
AcDbEntity
  8
寸法
 62
     0
 48
50.0
370
    -2
100
AcDbLine
 10
6679.069000782712
 20
6842.853142522931
 30
0.0
 11
5095.06900078273
 21
6842.853142522931
 31
0.0
  0
INSERT
  5
16E03
330
164F6
100
AcDbEntity
  8
寸法
 62
     0
 48
50.0
370
    -2
100
AcDbBlockReference
  2
_DOTSMALL
 10
6679.069000782712
 20
6842.853142522931
 30
0.0
 41
100.0
 42
100.0
 43
100.0
  0
INSERT
  5
16E04
330
164F6
100
AcDbEntity
  8
寸法
 62
     0
 48
50.0
370
    -2
100
AcDbBlockReference
  2
_DOTSMALL
 10
5095.06900078273
 20
6842.853142522931
 30
0.0
 41
100.0
 42
100.0
 43
100.0
 50
180.0
  0
MTEXT
  5
16E05
330
164F6
100
AcDbEntity
  8
寸法
 62
     7
 48
50.0
100
AcDbMText
 10
5887.069000782721
 20
7042.853142522931
 30
0.0
 40
120.0
 41
0.0
 71
     5
 72
     1
  1
\A1;有効開口部間口\P1584
  7
STYLE1
 73
     1
 44
1.0
1001
ACAD
1000
MTEXTBEGIN
1070
    73
1070
     1
1070
    44
1040
1.0
1070
    74
1070
     0
1000
MTEXTEND
  0
POINT
  5
16E06
330
164F6
100
AcDbEntity
  8
DEFPOINTS
 62
     0
 48
50.0
100
AcDbPoint
 10
6679.069000782712
 20
7403.283913289095
 30
0.0
  0
POINT
  5
16E07
330
164F6
100
AcDbEntity
  8
DEFPOINTS
 62
     0
 48
50.0
100
AcDbPoint
 10
5095.06900078273
 20
7403.283913289094
 30
0.0
  0
POINT
  5
16E08
330
164F6
100
AcDbEntity
  8
DEFPOINTS
 62
     0
 48
50.0
100
AcDbPoint
 10
5095.06900078273
 20
6842.853142522931
 30
0.0
  0
ENDBLK
  5
165CC
330
164F6
100
AcDbEntity
  8
0
 48
50.0
100
AcDbBlockEnd
  0
BLOCK
  5
165CD
330
16501
100
AcDbEntity
  8
0
 48
50.0
100
AcDbBlockBegin
  2
*D4
 70
     1
 10
0.0
 20
0.0
 30
0.0
  3
*D4
  1

  0
LINE
  5
16DF8
330
16501
100
AcDbEntity
  8
寸法
 62
     0
 48
50.0
370
    -2
100
AcDbLine
 10
4992.069000782731
 20
7357.283913289022
 30
0.0
 11
4992.069000782731
 21
6496.680146932056
 31
0.0
  0
LINE
  5
16DF9
330
16501
100
AcDbEntity
  8
寸法
 62
     0
 48
50.0
370
    -2
100
AcDbLine
 10
6782.069000782712
 20
7357.28391328915
 30
0.0
 11
6782.069000782712
 21
6496.680146932056
 31
0.0
  0
LINE
  5
16DFA
330
16501
100
AcDbEntity
  8
寸法
 62
     0
 48
50.0
370
    -2
100
AcDbLine
 10
4992.069000782731
 20
6556.680146932056
 30
0.0
 11
6782.069000782712
 21
6556.680146932056
 31
0.0
  0
INSERT
  5
16DFB
330
16501
100
AcDbEntity
  8
寸法
 62
     0
 48
50.0
370
    -2
100
AcDbBlockReference
  2
_DOTSMALL
 10
4992.069000782731
 20
6556.680146932056
 30
0.0
 41
100.0
 42
100.0
 43
100.0
 50
180.0
  0
INSERT
  5
16DFC
330
16501
100
AcDbEntity
  8
寸法
 62
     0
 48
50.0
370
    -2
100
AcDbBlockReference
  2
_DOTSMALL
 10
6782.069000782712
 20
6556.680146932056
 30
0.0
 41
100.0
 42
100.0
 43
100.0
  0
MTEXT
  5
16DFD
330
16501
100
AcDbEntity
  8
寸法
 62
     7
 48
50.0
100
AcDbMText
 10
5887.069000782721
 20
6656.680146932057
 30
0.0
 40
120.0
 41
0.0
 71
     5
 72
     1
  1
\A1;1790
  7
STYLE1
 73
     1
 44
1.0
1001
ACAD
1000
MTEXTBEGIN
1070
    73
1070
     1
1070
    44
1040
1.0
1070
    74
1070
     0
1000
MTEXTEND
  0
POINT
  5
16DFE
330
16501
100
AcDbEntity
  8
DEFPOINTS
 62
     0
 48
50.0
100
AcDbPoint
 10
4992.069000782731
 20
7377.283913289023
 30
0.0
  0
POINT
  5
16DFF
330
16501
100
AcDbEntity
  8
DEFPOINTS
 62
     0
 48
50.0
100
AcDbPoint
 10
6782.069000782712
 20
7377.283913289149
 30
0.0
  0
POINT
  5
16E00
330
16501
100
AcDbEntity
  8
DEFPOINTS
 62
     0
 48
50.0
100
AcDbPoint
 10
6782.069000782712
 20
6556.680146932056
 30
0.0
  0
ENDBLK
  5
165D7
330
16501
100
AcDbEntity
  8
0
 48
50.0
100
AcDbBlockEnd
  0
BLOCK
  5
165D8
330
1650D
100
AcDbEntity
  8
0
 48
50.0
100
AcDbBlockBegin
  2
*D5
 70
     1
 10
0.0
 20
0.0
 30
0.0
  3
*D5
  1

  0
LINE
  5
16DED
330
1650D
100
AcDbEntity
  8
寸法
 62
     0
 48
50.0
370
    -2
100
AcDbLine
 10
5047.069000782727
 20
7357.283913289094
 30
0.0
 11
5047.069000782727
 21
6782.85314252293
 31
0.0
  0
LINE
  5
16DEE
330
1650D
100
AcDbEntity
  8
寸法
 62
     0
 48
50.0
370
    -2
100
AcDbLine
 10
4992.069000782731
 20
7357.283913289092
 30
0.0
 11
4992.069000782731
 21
6782.85314252293
 31
0.0
  0
LINE
  5
16DEF
330
1650D
100
AcDbEntity
  8
寸法
 62
     0
 48
50.0
370
    -2
100
AcDbLine
 10
5047.069000782727
 20
6842.853142522931
 30
0.0
 11
5147.069000782727
 21
6842.853142522931
 31
0.0
  0
LINE
  5
16DF0
330
1650D
100
AcDbEntity
  8
寸法
 62
     0
 48
50.0
370
    -2
100
AcDbLine
 10
4992.069000782731
 20
6842.853142522931
 30
0.0
 11
4575.098438034253
 21
6842.853142522931
 31
0.0
  0
LINE
  5
16DF1
330
1650D
100
AcDbEntity
  8
寸法
 62
     0
 48
50.0
370
    -2
100
AcDbLine
 10
5047.069000782727
 20
6842.853142522931
 30
0.0
 11
4992.069000782731
 21
6842.853142522931
 31
0.0
  0
INSERT
  5
16DF2
330
1650D
100
AcDbEntity
  8
寸法
 62
     0
 48
50.0
370
    -2
100
AcDbBlockReference
  2
_DOTSMALL
 10
5047.069000782727
 20
6842.853142522931
 30
0.0
 41
100.0
 42
100.0
 43
100.0
 50
180.0
  0
INSERT
  5
16DF3
330
1650D
100
AcDbEntity
  8
寸法
 62
     0
 48
50.0
370
    -2
100
AcDbBlockReference
  2
_DOTSMALL
 10
4992.069000782731
 20
6842.853142522931
 30
0.0
 41
100.0
 42
100.0
 43
100.0
  0
MTEXT
  5
16DF4
330
1650D
100
AcDbEntity
  8
寸法
 62
     7
 48
50.0
100
AcDbMText
 10
4683.583719408492
 20
6942.853142522931
 30
0.0
 40
120.0
 41
0.0
 71
     5
 72
     1
  1
\A1;55
  7
STYLE1
 73
     1
 44
1.0
1001
ACAD
1000
MTEXTBEGIN
1070
    73
1070
     1
1070
    44
1040
1.0
1070
    74
1070
     0
1000
MTEXTEND
  0
POINT
  5
16DF5
330
1650D
100
AcDbEntity
  8
DEFPOINTS
 62
     0
 48
50.0
100
AcDbPoint
 10
5047.069000782727
 20
7377.283913289094
 30
0.0
  0
POINT
  5
16DF6
330
1650D
100
AcDbEntity
  8
DEFPOINTS
 62
     0
 48
50.0
100
AcDbPoint
 10
4992.069000782731
 20
7377.28391328909
 30
0.0
  0
POINT
  5
16DF7
330
1650D
100
AcDbEntity
  8
DEFPOINTS
 62
     0
 48
50.0
100
AcDbPoint
 10
4992.069000782731
 20
6842.853142522931
 30
0.0
  0
ENDBLK
  5
165E4
330
1650D
100
AcDbEntity
  8
0
 48
50.0
100
AcDbBlockEnd
  0
BLOCK
  5
165E5
330
1651B
100
AcDbEntity
  8
0
 48
50.0
100
AcDbBlockBegin
  2
*D6
 70
     1
 10
0.0
 20
0.0
 30
0.0
  3
*D6
  1

  0
LINE
  5
16DE2
330
1651B
100
AcDbEntity
  8
寸法
 62
     0
 48
50.0
370
    -2
100
AcDbLine
 10
5095.06900078273
 20
7383.283913289094
 30
0.0
 11
5095.06900078273
 21
6782.85314252293
 31
0.0
  0
LINE
  5
16DE3
330
1651B
100
AcDbEntity
  8
寸法
 62
     0
 48
50.0
370
    -2
100
AcDbLine
 10
5047.069000782727
 20
7357.283913289094
 30
0.0
 11
5047.069000782727
 21
6782.85314252293
 31
0.0
  0
LINE
  5
16DE4
330
1651B
100
AcDbEntity
  8
寸法
 62
     0
 48
50.0
370
    -2
100
AcDbLine
 10
5095.06900078273
 20
6842.853142522931
 30
0.0
 11
5195.06900078273
 21
6842.853142522931
 31
0.0
  0
LINE
  5
16DE5
330
1651B
100
AcDbEntity
  8
寸法
 62
     0
 48
50.0
370
    -2
100
AcDbLine
 10
5047.069000782727
 20
6842.853142522931
 30
0.0
 11
4947.069000782727
 21
6842.853142522931
 31
0.0
  0
MTEXT
  5
16DE6
330
1651B
100
AcDbEntity
  8
寸法
 62
     7
 48
50.0
100
AcDbMText
 10
5207.970971782788
 20
6942.853142522931
 30
0.0
 40
120.0
 41
0.0
 71
     5
 72
     1
  1
\A1;48
  7
STYLE1
 73
     1
 44
1.0
1001
ACAD
1000
MTEXTBEGIN
1070
    73
1070
     1
1070
    44
1040
1.0
1070
    74
1070
     0
1000
MTEXTEND
  0
LINE
  5
16DE7
330
1651B
100
AcDbEntity
  8
寸法
 62
     0
 48
50.0
370
    -2
100
AcDbLine
 10
5095.06900078273
 20
6842.853142522931
 30
0.0
 11
5047.069000782727
 21
6842.853142522931
 31
0.0
  0
INSERT
  5
16DE8
330
1651B
100
AcDbEntity
  8
寸法
 62
     0
 48
50.0
370
    -2
100
AcDbBlockReference
  2
_DOTSMALL
 10
5095.06900078273
 20
6842.853142522931
 30
0.0
 41
100.0
 42
100.0
 43
100.0
 50
180.0
  0
INSERT
  5
16DE9
330
1651B
100
AcDbEntity
  8
寸法
 62
     0
 48
50.0
370
    -2
100
AcDbBlockReference
  2
_DOTSMALL
 10
5047.069000782727
 20
6842.853142522931
 30
0.0
 41
100.0
 42
100.0
 43
100.0
  0
POINT
  5
16DEA
330
1651B
100
AcDbEntity
  8
DEFPOINTS
 62
     0
 48
50.0
100
AcDbPoint
 10
5095.06900078273
 20
7403.283913289094
 30
0.0
  0
POINT
  5
16DEB
330
1651B
100
AcDbEntity
  8
DEFPOINTS
 62
     0
 48
50.0
100
AcDbPoint
 10
5047.069000782727
 20
7377.283913289094
 30
0.0
  0
POINT
  5
16DEC
330
1651B
100
AcDbEntity
  8
DEFPOINTS
 62
     0
 48
50.0
100
AcDbPoint
 10
5047.069000782727
 20
6842.853142522931
 30
0.0
  0
ENDBLK
  5
165F2
330
1651B
100
AcDbEntity
  8
0
 48
50.0
100
AcDbBlockEnd
  0
BLOCK
  5
165F3
330
1652A
100
AcDbEntity
  8
0
 48
50.0
100
AcDbBlockBegin
  2
*D7
 70
     1
 10
0.0
 20
0.0
 30
0.0
  3
*D7
  1

  0
LINE
  5
16DD7
330
1652A
100
AcDbEntity
  8
寸法
 62
     0
 48
50.0
370
    -2
100
AcDbLine
 10
6727.069000782714
 20
7357.283913289183
 30
0.0
 11
6727.069000782714
 21
6782.85314252293
 31
0.0
  0
LINE
  5
16DD8
330
1652A
100
AcDbEntity
  8
寸法
 62
     0
 48
50.0
370
    -2
100
AcDbLine
 10
6679.069000782712
 20
7383.283913289095
 30
0.0
 11
6679.069000782712
 21
6782.85314252293
 31
0.0
  0
LINE
  5
16DD9
330
1652A
100
AcDbEntity
  8
寸法
 62
     0
 48
50.0
370
    -2
100
AcDbLine
 10
6727.069000782714
 20
6842.853142522931
 30
0.0
 11
6827.069000782714
 21
6842.853142522931
 31
0.0
  0
LINE
  5
16DDA
330
1652A
100
AcDbEntity
  8
寸法
 62
     0
 48
50.0
370
    -2
100
AcDbLine
 10
6679.069000782712
 20
6842.853142522931
 30
0.0
 11
6579.069000782713
 21
6842.853142522931
 31
0.0
  0
MTEXT
  5
16DDB
330
1652A
100
AcDbEntity
  8
寸法
 62
     7
 48
50.0
100
AcDbMText
 10
6568.106103133965
 20
6942.853142522931
 30
0.0
 40
120.0
 41
0.0
 71
     5
 72
     1
  1
\A1;48
  7
STYLE1
 73
     1
 44
1.0
1001
ACAD
1000
MTEXTBEGIN
1070
    73
1070
     1
1070
    44
1040
1.0
1070
    74
1070
     0
1000
MTEXTEND
  0
LINE
  5
16DDC
330
1652A
100
AcDbEntity
  8
寸法
 62
     0
 48
50.0
370
    -2
100
AcDbLine
 10
6727.069000782714
 20
6842.853142522931
 30
0.0
 11
6679.069000782712
 21
6842.853142522931
 31
0.0
  0
INSERT
  5
16DDD
330
1652A
100
AcDbEntity
  8
寸法
 62
     0
 48
50.0
370
    -2
100
AcDbBlockReference
  2
_DOTSMALL
 10
6727.069000782714
 20
6842.853142522931
 30
0.0
 41
100.0
 42
100.0
 43
100.0
 50
180.0
  0
INSERT
  5
16DDE
330
1652A
100
AcDbEntity
  8
寸法
 62
     0
 48
50.0
370
    -2
100
AcDbBlockReference
  2
_DOTSMALL
 10
6679.069000782712
 20
6842.853142522931
 30
0.0
 41
100.0
 42
100.0
 43
100.0
  0
POINT
  5
16DDF
330
1652A
100
AcDbEntity
  8
DEFPOINTS
 62
     0
 48
50.0
100
AcDbPoint
 10
6727.069000782714
 20
7377.283913289182
 30
0.0
  0
POINT
  5
16DE0
330
1652A
100
AcDbEntity
  8
DEFPOINTS
 62
     0
 48
50.0
100
AcDbPoint
 10
6679.069000782712
 20
7403.283913289095
 30
0.0
  0
POINT
  5
16DE1
330
1652A
100
AcDbEntity
  8
DEFPOINTS
 62
     0
 48
50.0
100
AcDbPoint
 10
6679.069000782712
 20
6842.853142522931
 30
0.0
  0
ENDBLK
  5
16600
330
1652A
100
AcDbEntity
  8
0
 48
50.0
100
AcDbBlockEnd
  0
BLOCK
  5
16601
330
16539
100
AcDbEntity
  8
0
 48
50.0
100
AcDbBlockBegin
  2
*D8
 70
     1
 10
0.0
 20
0.0
 30
0.0
  3
*D8
  1

  0
LINE
  5
16DCC
330
16539
100
AcDbEntity
  8
寸法
 62
     0
 48
50.0
370
    -2
100
AcDbLine
 10
6782.069000782712
 20
7357.283913289186
 30
0.0
 11
6782.069000782712
 21
6782.853142522931
 31
0.0
  0
LINE
  5
16DCD
330
16539
100
AcDbEntity
  8
寸法
 62
     0
 48
50.0
370
    -2
100
AcDbLine
 10
6727.069000782714
 20
7357.283913289183
 30
0.0
 11
6727.069000782714
 21
6782.853142522931
 31
0.0
  0
LINE
  5
16DCE
330
16539
100
AcDbEntity
  8
寸法
 62
     0
 48
50.0
370
    -2
100
AcDbLine
 10
6727.069000782714
 20
6842.853142522931
 30
0.0
 11
6627.069000782714
 21
6842.853142522931
 31
0.0
  0
LINE
  5
16DCF
330
16539
100
AcDbEntity
  8
寸法
 62
     0
 48
50.0
370
    -2
100
AcDbLine
 10
6782.069000782712
 20
6842.853142522931
 30
0.0
 11
7199.03956353119
 21
6842.853142522931
 31
0.0
  0
LINE
  5
16DD0
330
16539
100
AcDbEntity
  8
寸法
 62
     0
 48
50.0
370
    -2
100
AcDbLine
 10
6727.069000782714
 20
6842.853142522931
 30
0.0
 11
6782.069000782712
 21
6842.853142522931
 31
0.0
  0
INSERT
  5
16DD1
330
16539
100
AcDbEntity
  8
寸法
 62
     0
 48
50.0
370
    -2
100
AcDbBlockReference
  2
_DOTSMALL
 10
6727.069000782714
 20
6842.853142522931
 30
0.0
 41
100.0
 42
100.0
 43
100.0
  0
INSERT
  5
16DD2
330
16539
100
AcDbEntity
  8
寸法
 62
     0
 48
50.0
370
    -2
100
AcDbBlockReference
  2
_DOTSMALL
 10
6782.069000782712
 20
6842.853142522931
 30
0.0
 41
100.0
 42
100.0
 43
100.0
 50
180.0
  0
MTEXT
  5
16DD3
330
16539
100
AcDbEntity
  8
寸法
 62
     7
 48
50.0
100
AcDbMText
 10
7090.554282156951
 20
6942.853142522931
 30
0.0
 40
120.0
 41
0.0
 71
     5
 72
     1
  1
\A1;55
  7
STYLE1
 73
     1
 44
1.0
1001
ACAD
1000
MTEXTBEGIN
1070
    73
1070
     1
1070
    44
1040
1.0
1070
    74
1070
     0
1000
MTEXTEND
  0
POINT
  5
16DD4
330
16539
100
AcDbEntity
  8
DEFPOINTS
 62
     0
 48
50.0
100
AcDbPoint
 10
6782.069000782712
 20
7377.283913289186
 30
0.0
  0
POINT
  5
16DD5
330
16539
100
AcDbEntity
  8
DEFPOINTS
 62
     0
 48
50.0
100
AcDbPoint
 10
6727.069000782714
 20
7377.283913289182
 30
0.0
  0
POINT
  5
16DD6
330
16539
100
AcDbEntity
  8
DEFPOINTS
 62
     0
 48
50.0
100
AcDbPoint
 10
6727.069000782714
 20
6842.853142522931
 30
0.0
  0
ENDBLK
  5
1660D
330
16539
100
AcDbEntity
  8
0
 48
50.0
100
AcDbBlockEnd
  0
BLOCK
  5
1660E
330
16547
100
AcDbEntity
  8
0
 48
50.0
100
AcDbBlockBegin
  2
*D9
 70
     1
 10
0.0
 20
0.0
 30
0.0
  3
*D9
  1

  0
LINE
  5
16DC1
330
16547
100
AcDbEntity
  8
寸法
 62
     0
 48
50.0
370
    -2
100
AcDbLine
 10
6802.069000782712
 20
7432.283913289182
 30
0.0
 11
7489.495346517124
 21
7432.283913289182
 31
0.0
  0
LINE
  5
16DC2
330
16547
100
AcDbEntity
  8
寸法
 62
     0
 48
50.0
370
    -2
100
AcDbLine
 10
6802.069000782712
 20
7377.283913289186
 30
0.0
 11
7489.495346517124
 21
7377.283913289186
 31
0.0
  0
LINE
  5
16DC3
330
16547
100
AcDbEntity
  8
寸法
 62
     0
 48
50.0
370
    -2
100
AcDbLine
 10
7429.495346517125
 20
7432.283913289182
 30
0.0
 11
7429.495346517125
 21
7532.283913289183
 31
0.0
  0
LINE
  5
16DC4
330
16547
100
AcDbEntity
  8
寸法
 62
     0
 48
50.0
370
    -2
100
AcDbLine
 10
7429.495346517125
 20
7377.283913289186
 30
0.0
 11
7429.495346517125
 21
6890.937165010083
 31
0.0
  0
LINE
  5
16DC5
330
16547
100
AcDbEntity
  8
寸法
 62
     0
 48
50.0
370
    -2
100
AcDbLine
 10
7429.495346517125
 20
7432.283913289182
 30
0.0
 11
7429.495346517125
 21
7377.283913289186
 31
0.0
  0
INSERT
  5
16DC6
330
16547
100
AcDbEntity
  8
寸法
 62
     0
 48
50.0
370
    -2
100
AcDbBlockReference
  2
_DOTSMALL
 10
7429.495346517125
 20
7432.283913289182
 30
0.0
 41
100.0
 42
100.0
 43
100.0
 50
270.0
  0
INSERT
  5
16DC7
330
16547
100
AcDbEntity
  8
寸法
 62
     0
 48
50.0
370
    -2
100
AcDbBlockReference
  2
_DOTSMALL
 10
7429.495346517125
 20
7377.283913289186
 30
0.0
 41
100.0
 42
100.0
 43
100.0
 50
90.0
  0
MTEXT
  5
16DC8
330
16547
100
AcDbEntity
  8
寸法
 62
     7
 48
50.0
100
AcDbMText
 10
7329.495346517122
 20
6999.422446384325
 30
0.0
 40
120.0
 41
0.0
 71
     5
 72
     1
  1
\A1;55
  7
STYLE1
 11
0.0000000000000001
 21
1.0
 31
0.0
 73
     1
 44
1.0
1001
ACAD
1000
MTEXTBEGIN
1070
    73
1070
     1
1070
    44
1040
1.0
1070
    74
1070
     0
1000
MTEXTEND
  0
POINT
  5
16DC9
330
16547
100
AcDbEntity
  8
DEFPOINTS
 62
     0
 48
50.0
100
AcDbPoint
 10
6782.069000782712
 20
7432.283913289182
 30
0.0
  0
POINT
  5
16DCA
330
16547
100
AcDbEntity
  8
DEFPOINTS
 62
     0
 48
50.0
100
AcDbPoint
 10
6782.069000782712
 20
7377.283913289186
 30
0.0
  0
POINT
  5
16DCB
330
16547
100
AcDbEntity
  8
DEFPOINTS
 62
     0
 48
50.0
100
AcDbPoint
 10
7429.495346517125
 20
7377.283913289186
 30
0.0
  0
ENDBLK
  5
1661A
330
16547
100
AcDbEntity
  8
0
 48
50.0
100
AcDbBlockEnd
  0
BLOCK
  5
1661B
330
16555
100
AcDbEntity
  8
0
 48
50.0
100
AcDbBlockBegin
  2
*D10
 70
     1
 10
0.0
 20
0.0
 30
0.0
  3
*D10
  1

  0
LINE
  5
16DB8
330
16555
100
AcDbEntity
  8
寸法
 62
     0
 48
50.0
370
    -2
100
AcDbLine
 10
5047.069000782737
 20
10447.2839132891
 30
0.0
 11
5047.069000782737
 21
10703.0921329142
 31
0.0
  0
LINE
  5
16DB9
330
16555
100
AcDbEntity
  8
寸法
 62
     0
 48
50.0
370
    -2
100
AcDbLine
 10
6727.069000782738
 20
10447.28391328919
 30
0.0
 11
6727.069000782738
 21
10703.0921329142
 31
0.0
  0
LINE
  5
16DBA
330
16555
100
AcDbEntity
  8
寸法
 62
     0
 48
50.0
370
    -2
100
AcDbLine
 10
5047.069000782737
 20
10643.0921329142
 30
0.0
 11
6727.069000782738
 21
10643.0921329142
 31
0.0
  0
INSERT
  5
16DBB
330
16555
100
AcDbEntity
  8
寸法
 62
     0
 48
50.0
370
    -2
100
AcDbBlockReference
  2
_DOTSMALL
 10
5047.069000782737
 20
10643.0921329142
 30
0.0
 41
100.0
 42
100.0
 43
100.0
 50
180.0
  0
INSERT
  5
16DBC
330
16555
100
AcDbEntity
  8
寸法
 62
     0
 48
50.0
370
    -2
100
AcDbBlockReference
  2
_DOTSMALL
 10
6727.069000782738
 20
10643.0921329142
 30
0.0
 41
100.0
 42
100.0
 43
100.0
  0
MTEXT
  5
16DBD
330
16555
100
AcDbEntity
  8
寸法
 62
     7
 48
50.0
100
AcDbMText
 10
5887.069000782737
 20
10743.10394393782
 30
0.0
 40
120.0
 41
0.0
 71
     5
 72
     1
  1
\A1;4X420=1680
  7
STYLE1
 73
     1
 44
1.0
1001
ACAD
1000
MTEXTBEGIN
1070
    73
1070
     1
1070
    44
1040
1.0
1070
    74
1070
     0
1000
MTEXTEND
  0
POINT
  5
16DBE
330
16555
100
AcDbEntity
  8
DEFPOINTS
 62
     0
 48
50.0
100
AcDbPoint
 10
5047.069000782737
 20
10427.2839132891
 30
0.0
  0
POINT
  5
16DBF
330
16555
100
AcDbEntity
  8
DEFPOINTS
 62
     0
 48
50.0
100
AcDbPoint
 10
6727.069000782738
 20
10427.28391328919
 30
0.0
  0
POINT
  5
16DC0
330
16555
100
AcDbEntity
  8
DEFPOINTS
 62
     0
 48
50.0
100
AcDbPoint
 10
6727.069000782738
 20
10643.0921329142
 30
0.0
  0
ENDBLK
  5
16625
330
16555
100
AcDbEntity
  8
0
 48
50.0
100
AcDbBlockEnd
  0
BLOCK
  5
16626
330
16561
100
AcDbEntity
  8
0
 48
50.0
100
AcDbBlockBegin
  2
*D11
 70
     1
 10
0.0
 20
0.0
 30
0.0
  3
*D11
  1

  0
LINE
  5
16DAD
330
16561
100
AcDbEntity
  8
寸法
 62
     0
 48
50.0
370
    -2
100
AcDbLine
 10
4992.069000782702
 20
10447.2839132891
 30
0.0
 11
4992.069000782702
 21
10703.09213291408
 31
0.0
  0
LINE
  5
16DAE
330
16561
100
AcDbEntity
  8
寸法
 62
     0
 48
50.0
370
    -2
100
AcDbLine
 10
5047.069000782737
 20
10447.2839132891
 30
0.0
 11
5047.069000782737
 21
10703.09213291408
 31
0.0
  0
LINE
  5
16DAF
330
16561
100
AcDbEntity
  8
寸法
 62
     0
 48
50.0
370
    -2
100
AcDbLine
 10
5047.069000782737
 20
10643.09213291408
 30
0.0
 11
5147.069000782737
 21
10643.09213291408
 31
0.0
  0
LINE
  5
16DB0
330
16561
100
AcDbEntity
  8
寸法
 62
     0
 48
50.0
370
    -2
100
AcDbLine
 10
4992.069000782702
 20
10643.09213291408
 30
0.0
 11
4575.098438034224
 21
10643.09213291408
 31
0.0
  0
LINE
  5
16DB1
330
16561
100
AcDbEntity
  8
寸法
 62
     0
 48
50.0
370
    -2
100
AcDbLine
 10
5047.069000782737
 20
10643.09213291408
 30
0.0
 11
4992.069000782702
 21
10643.09213291408
 31
0.0
  0
INSERT
  5
16DB2
330
16561
100
AcDbEntity
  8
寸法
 62
     0
 48
50.0
370
    -2
100
AcDbBlockReference
  2
_DOTSMALL
 10
5047.069000782737
 20
10643.09213291408
 30
0.0
 41
100.0
 42
100.0
 43
100.0
 50
180.0
  0
INSERT
  5
16DB3
330
16561
100
AcDbEntity
  8
寸法
 62
     0
 48
50.0
370
    -2
100
AcDbBlockReference
  2
_DOTSMALL
 10
4992.069000782702
 20
10643.09213291408
 30
0.0
 41
100.0
 42
100.0
 43
100.0
  0
MTEXT
  5
16DB4
330
16561
100
AcDbEntity
  8
寸法
 62
     7
 48
50.0
100
AcDbMText
 10
4683.583719408463
 20
10743.09213291408
 30
0.0
 40
120.0
 41
0.0
 71
     5
 72
     1
  1
\A1;55
  7
STYLE1
 73
     1
 44
1.0
1001
ACAD
1000
MTEXTBEGIN
1070
    73
1070
     1
1070
    44
1040
1.0
1070
    74
1070
     0
1000
MTEXTEND
  0
POINT
  5
16DB5
330
16561
100
AcDbEntity
  8
DEFPOINTS
 62
     0
 48
50.0
100
AcDbPoint
 10
4992.069000782702
 20
10427.2839132891
 30
0.0
  0
POINT
  5
16DB6
330
16561
100
AcDbEntity
  8
DEFPOINTS
 62
     0
 48
50.0
100
AcDbPoint
 10
5047.069000782737
 20
10427.2839132891
 30
0.0
  0
POINT
  5
16DB7
330
16561
100
AcDbEntity
  8
DEFPOINTS
 62
     0
 48
50.0
100
AcDbPoint
 10
5047.069000782737
 20
10643.09213291408
 30
0.0
  0
ENDBLK
  5
16632
330
16561
100
AcDbEntity
  8
0
 48
50.0
100
AcDbBlockEnd
  0
BLOCK
  5
16633
330
1656F
100
AcDbEntity
  8
0
 48
50.0
100
AcDbBlockBegin
  2
*D12
 70
     1
 10
0.0
 20
0.0
 30
0.0
  3
*D12
  1

  0
LINE
  5
16DA2
330
1656F
100
AcDbEntity
  8
寸法
 62
     0
 48
50.0
370
    -2
100
AcDbLine
 10
6802.069000782738
 20
10427.28391328919
 30
0.0
 11
7489.495346517149
 21
10427.28391328919
 31
0.0
  0
LINE
  5
16DA3
330
1656F
100
AcDbEntity
  8
寸法
 62
     0
 48
50.0
370
    -2
100
AcDbLine
 10
6802.069000782738
 20
10372.28391328919
 30
0.0
 11
7489.495346517149
 21
10372.28391328919
 31
0.0
  0
LINE
  5
16DA4
330
1656F
100
AcDbEntity
  8
寸法
 62
     0
 48
50.0
370
    -2
100
AcDbLine
 10
7429.495346517149
 20
10372.28391328919
 30
0.0
 11
7429.495346517149
 21
10272.28391328919
 31
0.0
  0
LINE
  5
16DA5
330
1656F
100
AcDbEntity
  8
寸法
 62
     0
 48
50.0
370
    -2
100
AcDbLine
 10
7429.495346517149
 20
10427.28391328919
 30
0.0
 11
7429.495346517149
 21
10844.25447603767
 31
0.0
  0
LINE
  5
16DA6
330
1656F
100
AcDbEntity
  8
寸法
 62
     0
 48
50.0
370
    -2
100
AcDbLine
 10
7429.495346517149
 20
10372.28391328919
 30
0.0
 11
7429.495346517149
 21
10427.28391328919
 31
0.0
  0
INSERT
  5
16DA7
330
1656F
100
AcDbEntity
  8
寸法
 62
     0
 48
50.0
370
    -2
100
AcDbBlockReference
  2
_DOTSMALL
 10
7429.495346517149
 20
10372.28391328919
 30
0.0
 41
100.0
 42
100.0
 43
100.0
 50
90.0
  0
INSERT
  5
16DA8
330
1656F
100
AcDbEntity
  8
寸法
 62
     0
 48
50.0
370
    -2
100
AcDbBlockReference
  2
_DOTSMALL
 10
7429.495346517149
 20
10427.28391328919
 30
0.0
 41
100.0
 42
100.0
 43
100.0
 50
270.0
  0
MTEXT
  5
16DA9
330
1656F
100
AcDbEntity
  8
寸法
 62
     7
 48
50.0
100
AcDbMText
 10
7329.495346517147
 20
10735.76919466343
 30
0.0
 40
120.0
 41
0.0
 71
     5
 72
     1
  1
\A1;55
  7
STYLE1
 11
0.0000000000000001
 21
1.0
 31
0.0
 73
     1
 44
1.0
1001
ACAD
1000
MTEXTBEGIN
1070
    73
1070
     1
1070
    44
1040
1.0
1070
    74
1070
     0
1000
MTEXTEND
  0
POINT
  5
16DAA
330
1656F
100
AcDbEntity
  8
DEFPOINTS
 62
     0
 48
50.0
100
AcDbPoint
 10
6782.069000782738
 20
10427.28391328919
 30
0.0
  0
POINT
  5
16DAB
330
1656F
100
AcDbEntity
  8
DEFPOINTS
 62
     0
 48
50.0
100
AcDbPoint
 10
6782.069000782738
 20
10372.28391328919
 30
0.0
  0
POINT
  5
16DAC
330
1656F
100
AcDbEntity
  8
DEFPOINTS
 62
     0
 48
50.0
100
AcDbPoint
 10
7429.495346517149
 20
10372.28391328919
 30
0.0
  0
ENDBLK
  5
1663F
330
1656F
100
AcDbEntity
  8
0
 48
50.0
100
AcDbBlockEnd
  0
BLOCK
  5
16640
330
1657D
100
AcDbEntity
  8
0
 48
50.0
100
AcDbBlockBegin
  2
*D13
 70
     1
 10
0.0
 20
0.0
 30
0.0
  3
*D13
  1

  0
LINE
  5
16D97
330
1657D
100
AcDbEntity
  8
寸法
 62
     0
 48
50.0
370
    -2
100
AcDbLine
 10
6727.069000782738
 20
10447.28391328919
 30
0.0
 11
6727.069000782738
 21
10703.09213291418
 31
0.0
  0
LINE
  5
16D98
330
1657D
100
AcDbEntity
  8
寸法
 62
     0
 48
50.0
370
    -2
100
AcDbLine
 10
6782.069000782738
 20
10447.28391328919
 30
0.0
 11
6782.069000782738
 21
10703.09213291418
 31
0.0
  0
LINE
  5
16D99
330
1657D
100
AcDbEntity
  8
寸法
 62
     0
 48
50.0
370
    -2
100
AcDbLine
 10
6727.069000782738
 20
10643.09213291418
 30
0.0
 11
6627.069000782738
 21
10643.09213291418
 31
0.0
  0
LINE
  5
16D9A
330
1657D
100
AcDbEntity
  8
寸法
 62
     0
 48
50.0
370
    -2
100
AcDbLine
 10
6782.069000782738
 20
10643.09213291418
 30
0.0
 11
7199.039563531215
 21
10643.09213291418
 31
0.0
  0
LINE
  5
16D9B
330
1657D
100
AcDbEntity
  8
寸法
 62
     0
 48
50.0
370
    -2
100
AcDbLine
 10
6727.069000782738
 20
10643.09213291418
 30
0.0
 11
6782.069000782738
 21
10643.09213291418
 31
0.0
  0
INSERT
  5
16D9C
330
1657D
100
AcDbEntity
  8
寸法
 62
     0
 48
50.0
370
    -2
100
AcDbBlockReference
  2
_DOTSMALL
 10
6727.069000782738
 20
10643.09213291418
 30
0.0
 41
100.0
 42
100.0
 43
100.0
  0
INSERT
  5
16D9D
330
1657D
100
AcDbEntity
  8
寸法
 62
     0
 48
50.0
370
    -2
100
AcDbBlockReference
  2
_DOTSMALL
 10
6782.069000782738
 20
10643.09213291418
 30
0.0
 41
100.0
 42
100.0
 43
100.0
 50
180.0
  0
MTEXT
  5
16D9E
330
1657D
100
AcDbEntity
  8
寸法
 62
     7
 48
50.0
100
AcDbMText
 10
7090.554282156976
 20
10743.09213291418
 30
0.0
 40
120.0
 41
0.0
 71
     5
 72
     1
  1
\A1;55
  7
STYLE1
 73
     1
 44
1.0
1001
ACAD
1000
MTEXTBEGIN
1070
    73
1070
     1
1070
    44
1040
1.0
1070
    74
1070
     0
1000
MTEXTEND
  0
POINT
  5
16D9F
330
1657D
100
AcDbEntity
  8
DEFPOINTS
 62
     0
 48
50.0
100
AcDbPoint
 10
6727.069000782738
 20
10427.28391328919
 30
0.0
  0
POINT
  5
16DA0
330
1657D
100
AcDbEntity
  8
DEFPOINTS
 62
     0
 48
50.0
100
AcDbPoint
 10
6782.069000782738
 20
10427.28391328919
 30
0.0
  0
POINT
  5
16DA1
330
1657D
100
AcDbEntity
  8
DEFPOINTS
 62
     0
 48
50.0
100
AcDbPoint
 10
6782.069000782738
 20
10643.09213291418
 30
0.0
  0
ENDBLK
  5
1664C
330
1657D
100
AcDbEntity
  8
0
 48
50.0
100
AcDbBlockEnd
  0
BLOCK
  5
174E7
330
174DD
100
AcDbEntity
  8
0
 48
50.0
100
AcDbBlockBegin
  2
*D14
 70
     1
 10
0.0
 20
0.0
 30
0.0
  3
*D14
  1

  0
LINE
  5
1805C
330
174DD
100
AcDbEntity
  8
寸法
 62
     0
 48
50.0
370
    -2
100
AcDbLine
 10
9452.904891725159
 20
4677.931598713257
 30
0.0
 11
8569.154762541904
 21
4677.931598713257
 31
0.0
  0
LINE
  5
1805D
330
174DD
100
AcDbEntity
  8
寸法
 62
     0
 48
50.0
370
    -2
100
AcDbLine
 10
9452.904891725159
 20
2587.931598713256
 30
0.0
 11
8569.1547625419
 21
2587.931598713256
 31
0.0
  0
LINE
  5
1805E
330
174DD
100
AcDbEntity
  8
寸法
 62
     0
 48
50.0
370
    -2
100
AcDbLine
 10
8629.154762541903
 20
4677.931598713257
 30
0.0
 11
8629.154762541901
 21
2587.931598713256
 31
0.0
  0
INSERT
  5
1805F
330
174DD
100
AcDbEntity
  8
寸法
 62
     0
 48
50.0
370
    -2
100
AcDbBlockReference
  2
_DOTSMALL
 10
8629.154762541903
 20
4677.931598713257
 30
0.0
 41
100.0
 42
100.0
 43
100.0
 50
90.0
  0
INSERT
  5
18060
330
174DD
100
AcDbEntity
  8
寸法
 62
     0
 48
50.0
370
    -2
100
AcDbBlockReference
  2
_DOTSMALL
 10
8629.154762541901
 20
2587.931598713256
 30
0.0
 41
100.0
 42
100.0
 43
100.0
 50
270.0
  0
MTEXT
  5
18061
330
174DD
100
AcDbEntity
  8
寸法
 62
     7
 48
50.0
100
AcDbMText
 10
8529.142951518279
 20
3632.931598713258
 30
0.0
 40
120.0
 41
0.0
 71
     5
 72
     1
  1
\A1;2090
  7
STYLE1
 11
0.0000000000000001
 21
1.0
 31
0.0
 73
     1
 44
1.0
1001
ACAD
1000
MTEXTBEGIN
1070
    73
1070
     1
1070
    44
1040
1.0
1070
    74
1070
     0
1000
MTEXTEND
  0
POINT
  5
18062
330
174DD
100
AcDbEntity
  8
DEFPOINTS
 62
     0
 48
50.0
100
AcDbPoint
 10
9472.904891725161
 20
4677.931598713257
 30
0.0
  0
POINT
  5
18063
330
174DD
100
AcDbEntity
  8
DEFPOINTS
 62
     0
 48
50.0
100
AcDbPoint
 10
9472.904891725161
 20
2587.931598713256
 30
0.0
  0
POINT
  5
18064
330
174DD
100
AcDbEntity
  8
DEFPOINTS
 62
     0
 48
50.0
100
AcDbPoint
 10
8629.154762541901
 20
2587.931598713256
 30
0.0
  0
ENDBLK
  5
174E8
330
174DD
100
AcDbEntity
  8
0
 48
50.0
100
AcDbBlockEnd
  0
BLOCK
  5
174F3
330
174E9
100
AcDbEntity
  8
0
 48
50.0
100
AcDbBlockBegin
  2
*D15
 70
     1
 10
0.0
 20
0.0
 30
0.0
  3
*D15
  1

  0
LINE
  5
18053
330
174E9
100
AcDbEntity
  8
寸法
 62
     0
 48
50.0
370
    -2
100
AcDbLine
 10
9452.904891725159
 20
2537.931598713256
 30
0.0
 11
8269.1547625419
 21
2537.931598713257
 31
0.0
  0
LINE
  5
18054
330
174E9
100
AcDbEntity
  8
寸法
 62
     0
 48
50.0
370
    -2
100
AcDbLine
 10
9392.90489172516
 20
4912.931598713261
 30
0.0
 11
8269.1547625419
 21
4912.931598713261
 31
0.0
  0
LINE
  5
18055
330
174E9
100
AcDbEntity
  8
寸法
 62
     0
 48
50.0
370
    -2
100
AcDbLine
 10
8329.154762541898
 20
2537.931598713257
 30
0.0
 11
8329.154762541902
 21
4912.931598713261
 31
0.0
  0
INSERT
  5
18056
330
174E9
100
AcDbEntity
  8
寸法
 62
     0
 48
50.0
370
    -2
100
AcDbBlockReference
  2
_DOTSMALL
 10
8329.154762541898
 20
2537.931598713257
 30
0.0
 41
100.0
 42
100.0
 43
100.0
 50
270.0
  0
INSERT
  5
18057
330
174E9
100
AcDbEntity
  8
寸法
 62
     0
 48
50.0
370
    -2
100
AcDbBlockReference
  2
_DOTSMALL
 10
8329.154762541902
 20
4912.931598713261
 30
0.0
 41
100.0
 42
100.0
 43
100.0
 50
90.0
  0
MTEXT
  5
18058
330
174E9
100
AcDbEntity
  8
寸法
 62
     7
 48
50.0
100
AcDbMText
 10
8229.142951518277
 20
3725.43159871326
 30
0.0
 40
120.0
 41
0.0
 71
     5
 72
     1
  1
\A1;2375
  7
STYLE1
 11
0.0000000000000001
 21
1.0
 31
0.0
 73
     1
 44
1.0
1001
ACAD
1000
MTEXTBEGIN
1070
    73
1070
     1
1070
    44
1040
1.0
1070
    74
1070
     0
1000
MTEXTEND
  0
POINT
  5
18059
330
174E9
100
AcDbEntity
  8
DEFPOINTS
 62
     0
 48
50.0
100
AcDbPoint
 10
9472.904891725161
 20
2537.931598713256
 30
0.0
  0
POINT
  5
1805A
330
174E9
100
AcDbEntity
  8
DEFPOINTS
 62
     0
 48
50.0
100
AcDbPoint
 10
9412.90489172516
 20
4912.931598713261
 30
0.0
  0
POINT
  5
1805B
330
174E9
100
AcDbEntity
  8
DEFPOINTS
 62
     0
 48
50.0
100
AcDbPoint
 10
8329.154762541902
 20
4912.931598713261
 30
0.0
  0
ENDBLK
  5
174F4
330
174E9
100
AcDbEntity
  8
0
 48
50.0
100
AcDbBlockEnd
  0
BLOCK
  5
174FF
330
174F5
100
AcDbEntity
  8
0
 48
50.0
100
AcDbBlockBegin
  2
*D16
 70
     1
 10
0.0
 20
0.0
 30
0.0
  3
*D16
  1

  0
LINE
  5
1804A
330
174F5
100
AcDbEntity
  8
寸法
 62
     0
 48
50.0
370
    -2
100
AcDbLine
 10
12542.90489172516
 20
2537.931598713263
 30
0.0
 11
13287.83204969728
 21
2537.931598713263
 31
0.0
  0
LINE
  5
1804B
330
174F5
100
AcDbEntity
  8
寸法
 62
     0
 48
50.0
370
    -2
100
AcDbLine
 10
12622.90489172516
 20
4857.931598713263
 30
0.0
 11
13287.83204969728
 21
4857.931598713263
 31
0.0
  0
LINE
  5
1804C
330
174F5
100
AcDbEntity
  8
寸法
 62
     0
 48
50.0
370
    -2
100
AcDbLine
 10
13227.83204969728
 20
2537.931598713263
 30
0.0
 11
13227.83204969728
 21
4857.931598713263
 31
0.0
  0
INSERT
  5
1804D
330
174F5
100
AcDbEntity
  8
寸法
 62
     0
 48
50.0
370
    -2
100
AcDbBlockReference
  2
_DOTSMALL
 10
13227.83204969728
 20
2537.931598713263
 30
0.0
 41
100.0
 42
100.0
 43
100.0
 50
270.0
  0
INSERT
  5
1804E
330
174F5
100
AcDbEntity
  8
寸法
 62
     0
 48
50.0
370
    -2
100
AcDbBlockReference
  2
_DOTSMALL
 10
13227.83204969728
 20
4857.931598713263
 30
0.0
 41
100.0
 42
100.0
 43
100.0
 50
90.0
  0
MTEXT
  5
1804F
330
174F5
100
AcDbEntity
  8
寸法
 62
     7
 48
50.0
100
AcDbMText
 10
13127.82023867366
 20
3697.931598713265
 30
0.0
 40
120.0
 41
0.0
 71
     5
 72
     1
  1
\A1;2320
  7
STYLE1
 11
0.0000000000000001
 21
1.0
 31
0.0
 73
     1
 44
1.0
1001
ACAD
1000
MTEXTBEGIN
1070
    73
1070
     1
1070
    44
1040
1.0
1070
    74
1070
     0
1000
MTEXTEND
  0
POINT
  5
18050
330
174F5
100
AcDbEntity
  8
DEFPOINTS
 62
     0
 48
50.0
100
AcDbPoint
 10
12522.90489172516
 20
2537.931598713263
 30
0.0
  0
POINT
  5
18051
330
174F5
100
AcDbEntity
  8
DEFPOINTS
 62
     0
 48
50.0
100
AcDbPoint
 10
12602.90489172516
 20
4857.931598713263
 30
0.0
  0
POINT
  5
18052
330
174F5
100
AcDbEntity
  8
DEFPOINTS
 62
     0
 48
50.0
100
AcDbPoint
 10
13227.83204969728
 20
4857.931598713263
 30
0.0
  0
ENDBLK
  5
17500
330
174F5
100
AcDbEntity
  8
0
 48
50.0
100
AcDbBlockEnd
  0
BLOCK
  5
1750D
330
17501
100
AcDbEntity
  8
0
 48
50.0
100
AcDbBlockBegin
  2
*D17
 70
     1
 10
0.0
 20
0.0
 30
0.0
  3
*D17
  1

  0
LINE
  5
1803F
330
17501
100
AcDbEntity
  8
寸法
 62
     0
 48
50.0
370
    -2
100
AcDbLine
 10
9452.904891725159
 20
2587.931598713261
 30
0.0
 11
8569.1547625419
 21
2587.931598713262
 31
0.0
  0
LINE
  5
18040
330
17501
100
AcDbEntity
  8
寸法
 62
     0
 48
50.0
370
    -2
100
AcDbLine
 10
9397.904891725159
 20
2537.931598713262
 30
0.0
 11
8569.1547625419
 21
2537.931598713262
 31
0.0
  0
LINE
  5
18041
330
17501
100
AcDbEntity
  8
寸法
 62
     0
 48
50.0
370
    -2
100
AcDbLine
 10
8629.154762541901
 20
2587.931598713262
 30
0.0
 11
8629.154762541901
 21
2687.931598713262
 31
0.0
  0
LINE
  5
18042
330
17501
100
AcDbEntity
  8
寸法
 62
     0
 48
50.0
370
    -2
100
AcDbLine
 10
8629.154762541901
 20
2537.931598713262
 30
0.0
 11
8629.154762541901
 21
2125.837110524282
 31
0.0
  0
LINE
  5
18043
330
17501
100
AcDbEntity
  8
寸法
 62
     0
 48
50.0
370
    -2
100
AcDbLine
 10
8629.154762541901
 20
2587.931598713262
 30
0.0
 11
8629.154762541901
 21
2537.931598713262
 31
0.0
  0
INSERT
  5
18044
330
17501
100
AcDbEntity
  8
寸法
 62
     0
 48
50.0
370
    -2
100
AcDbBlockReference
  2
_DOTSMALL
 10
8629.154762541901
 20
2587.931598713262
 30
0.0
 41
100.0
 42
100.0
 43
100.0
 50
270.0
  0
INSERT
  5
18045
330
17501
100
AcDbEntity
  8
寸法
 62
     0
 48
50.0
370
    -2
100
AcDbBlockReference
  2
_DOTSMALL
 10
8629.154762541901
 20
2537.931598713262
 30
0.0
 41
100.0
 42
100.0
 43
100.0
 50
90.0
  0
MTEXT
  5
18046
330
17501
100
AcDbEntity
  8
寸法
 62
     7
 48
50.0
100
AcDbMText
 10
8529.154762541901
 20
2231.884354618772
 30
0.0
 40
120.0
 41
0.0
 71
     5
 72
     1
  1
\A1;50
  7
STYLE1
 11
0.0000000000000001
 21
1.0
 31
0.0
 73
     1
 44
1.0
1001
ACAD
1000
MTEXTBEGIN
1070
    73
1070
     1
1070
    44
1040
1.0
1070
    74
1070
     0
1000
MTEXTEND
  0
POINT
  5
18047
330
17501
100
AcDbEntity
  8
DEFPOINTS
 62
     0
 48
50.0
100
AcDbPoint
 10
9472.904891725161
 20
2587.931598713261
 30
0.0
  0
POINT
  5
18048
330
17501
100
AcDbEntity
  8
DEFPOINTS
 62
     0
 48
50.0
100
AcDbPoint
 10
9417.904891725161
 20
2537.931598713262
 30
0.0
  0
POINT
  5
18049
330
17501
100
AcDbEntity
  8
DEFPOINTS
 62
     0
 48
50.0
100
AcDbPoint
 10
8629.154762541901
 20
2537.931598713262
 30
0.0
  0
ENDBLK
  5
1750E
330
17501
100
AcDbEntity
  8
0
 48
50.0
100
AcDbBlockEnd
  0
BLOCK
  5
17519
330
1750F
100
AcDbEntity
  8
0
 48
50.0
100
AcDbBlockBegin
  2
*D18
 70
     1
 10
0.0
 20
0.0
 30
0.0
  3
*D18
  1

  0
LINE
  5
1850F
330
1750F
100
AcDbEntity
  8
寸法
 62
     0
 48
50.0
370
    -2
100
AcDbLine
 10
12522.90489172516
 20
4879.742278324917
 30
0.0
 11
12522.90489172516
 21
5371.589052292567
 31
0.0
  0
LINE
  5
18510
330
1750F
100
AcDbEntity
  8
寸法
 62
     0
 48
50.0
370
    -2
100
AcDbLine
 10
9472.904891725161
 20
4928.933216836238
 30
0.0
 11
9472.904891725161
 21
5371.589052292567
 31
0.0
  0
LINE
  5
18511
330
1750F
100
AcDbEntity
  8
寸法
 62
     0
 48
50.0
370
    -2
100
AcDbLine
 10
12522.90489172516
 20
5311.589052292568
 30
0.0
 11
9472.904891725161
 21
5311.589052292568
 31
0.0
  0
INSERT
  5
18512
330
1750F
100
AcDbEntity
  8
寸法
 62
     0
 48
50.0
370
    -2
100
AcDbBlockReference
  2
_DOTSMALL
 10
12522.90489172516
 20
5311.589052292568
 30
0.0
 41
100.0
 42
100.0
 43
100.0
  0
INSERT
  5
18513
330
1750F
100
AcDbEntity
  8
寸法
 62
     0
 48
50.0
370
    -2
100
AcDbBlockReference
  2
_DOTSMALL
 10
9472.904891725161
 20
5311.589052292568
 30
0.0
 41
100.0
 42
100.0
 43
100.0
 50
180.0
  0
MTEXT
  5
18514
330
1750F
100
AcDbEntity
  8
寸法
 62
     7
 48
50.0
100
AcDbMText
 10
10997.90489172516
 20
5411.589052292567
 30
0.0
 40
120.0
 41
0.0
 71
     5
 72
     1
  1
\A1;柱外寸法3050
  7
STYLE1
 73
     1
 44
1.0
1001
ACAD
1000
MTEXTBEGIN
1070
    73
1070
     1
1070
    44
1040
1.0
1070
    74
1070
     0
1000
MTEXTEND
  0
POINT
  5
18515
330
1750F
100
AcDbEntity
  8
DEFPOINTS
 62
     0
 48
50.0
100
AcDbPoint
 10
12522.90489172516
 20
4859.742278324916
 30
0.0
  0
POINT
  5
18516
330
1750F
100
AcDbEntity
  8
DEFPOINTS
 62
     0
 48
50.0
100
AcDbPoint
 10
9472.904891725161
 20
4908.933216836238
 30
0.0
  0
POINT
  5
18517
330
1750F
100
AcDbEntity
  8
DEFPOINTS
 62
     0
 48
50.0
100
AcDbPoint
 10
9472.904891725161
 20
5311.589052292568
 30
0.0
  0
ENDBLK
  5
1751A
330
1750F
100
AcDbEntity
  8
0
 48
50.0
100
AcDbBlockEnd
  0
BLOCK
  5
17527
330
1751B
100
AcDbEntity
  8
0
 48
50.0
100
AcDbBlockBegin
  2
*D19
 70
     1
 10
0.0
 20
0.0
 30
0.0
  3
*D19
  1

  0
LINE
  5
1802B
330
1751B
100
AcDbEntity
  8
寸法
 62
     0
 48
50.0
370
    -2
100
AcDbLine
 10
9472.904891725161
 20
4928.933216836238
 30
0.0
 11
9472.904891725161
 21
5371.589052292566
 31
0.0
  0
LINE
  5
1802C
330
1751B
100
AcDbEntity
  8
寸法
 62
     0
 48
50.0
370
    -2
100
AcDbLine
 10
9412.90489172516
 20
4932.931598713266
 30
0.0
 11
9412.90489172516
 21
5371.589052292566
 31
0.0
  0
LINE
  5
1802D
330
1751B
100
AcDbEntity
  8
寸法
 62
     0
 48
50.0
370
    -2
100
AcDbLine
 10
9472.904891725161
 20
5311.589052292566
 30
0.0
 11
9572.90489172516
 21
5311.589052292566
 31
0.0
  0
LINE
  5
1802E
330
1751B
100
AcDbEntity
  8
寸法
 62
     0
 48
50.0
370
    -2
100
AcDbLine
 10
9412.90489172516
 20
5311.589052292566
 30
0.0
 11
8993.62930117398
 21
5311.589052292566
 31
0.0
  0
LINE
  5
1802F
330
1751B
100
AcDbEntity
  8
寸法
 62
     0
 48
50.0
370
    -2
100
AcDbLine
 10
9472.904891725161
 20
5311.589052292566
 30
0.0
 11
9412.90489172516
 21
5311.589052292566
 31
0.0
  0
INSERT
  5
18030
330
1751B
100
AcDbEntity
  8
寸法
 62
     0
 48
50.0
370
    -2
100
AcDbBlockReference
  2
_DOTSMALL
 10
9472.904891725161
 20
5311.589052292566
 30
0.0
 41
100.0
 42
100.0
 43
100.0
 50
180.0
  0
INSERT
  5
18031
330
1751B
100
AcDbEntity
  8
寸法
 62
     0
 48
50.0
370
    -2
100
AcDbBlockReference
  2
_DOTSMALL
 10
9412.90489172516
 20
5311.589052292566
 30
0.0
 41
100.0
 42
100.0
 43
100.0
  0
MTEXT
  5
18032
330
1751B
100
AcDbEntity
  8
寸法
 62
     7
 48
50.0
100
AcDbMText
 10
9103.26709644957
 20
5411.589052292566
 30
0.0
 40
120.0
 41
0.0
 71
     5
 72
     1
  1
\A1;60
  7
STYLE1
 73
     1
 44
1.0
1001
ACAD
1000
MTEXTBEGIN
1070
    73
1070
     1
1070
    44
1040
1.0
1070
    74
1070
     0
1000
MTEXTEND
  0
POINT
  5
18033
330
1751B
100
AcDbEntity
  8
DEFPOINTS
 62
     0
 48
50.0
100
AcDbPoint
 10
9472.904891725161
 20
4908.933216836238
 30
0.0
  0
POINT
  5
18034
330
1751B
100
AcDbEntity
  8
DEFPOINTS
 62
     0
 48
50.0
100
AcDbPoint
 10
9412.90489172516
 20
4912.931598713266
 30
0.0
  0
POINT
  5
18035
330
1751B
100
AcDbEntity
  8
DEFPOINTS
 62
     0
 48
50.0
100
AcDbPoint
 10
9412.90489172516
 20
5311.589052292566
 30
0.0
  0
ENDBLK
  5
17528
330
1751B
100
AcDbEntity
  8
0
 48
50.0
100
AcDbBlockEnd
  0
BLOCK
  5
17533
330
17529
100
AcDbEntity
  8
0
 48
50.0
100
AcDbBlockBegin
  2
*D20
 70
     1
 10
0.0
 20
0.0
 30
0.0
  3
*D20
  1

  0
LINE
  5
18506
330
17529
100
AcDbEntity
  8
寸法
 62
     0
 48
50.0
370
    -2
100
AcDbLine
 10
12602.90489172516
 20
4877.931598713264
 30
0.0
 11
12602.90489172516
 21
5601.702645078844
 31
0.0
  0
LINE
  5
18507
330
17529
100
AcDbEntity
  8
寸法
 62
     0
 48
50.0
370
    -2
100
AcDbLine
 10
9412.90489172516
 20
4932.931598713266
 30
0.0
 11
9412.90489172516
 21
5601.702645078844
 31
0.0
  0
LINE
  5
18508
330
17529
100
AcDbEntity
  8
寸法
 62
     0
 48
50.0
370
    -2
100
AcDbLine
 10
12602.90489172516
 20
5541.702645078843
 30
0.0
 11
9412.90489172516
 21
5541.702645078843
 31
0.0
  0
INSERT
  5
18509
330
17529
100
AcDbEntity
  8
寸法
 62
     0
 48
50.0
370
    -2
100
AcDbBlockReference
  2
_DOTSMALL
 10
12602.90489172516
 20
5541.702645078843
 30
0.0
 41
100.0
 42
100.0
 43
100.0
  0
INSERT
  5
1850A
330
17529
100
AcDbEntity
  8
寸法
 62
     0
 48
50.0
370
    -2
100
AcDbBlockReference
  2
_DOTSMALL
 10
9412.90489172516
 20
5541.702645078843
 30
0.0
 41
100.0
 42
100.0
 43
100.0
 50
180.0
  0
MTEXT
  5
1850B
330
17529
100
AcDbEntity
  8
寸法
 62
     7
 48
50.0
100
AcDbMText
 10
11007.90489172516
 20
5641.702645078844
 30
0.0
 40
120.0
 41
0.0
 71
     5
 72
     1
  1
\A1;3190
  7
STYLE1
 73
     1
 44
1.0
1001
ACAD
1000
MTEXTBEGIN
1070
    73
1070
     1
1070
    44
1040
1.0
1070
    74
1070
     0
1000
MTEXTEND
  0
POINT
  5
1850C
330
17529
100
AcDbEntity
  8
DEFPOINTS
 62
     0
 48
50.0
100
AcDbPoint
 10
12602.90489172516
 20
4857.931598713263
 30
0.0
  0
POINT
  5
1850D
330
17529
100
AcDbEntity
  8
DEFPOINTS
 62
     0
 48
50.0
100
AcDbPoint
 10
9412.90489172516
 20
4912.931598713266
 30
0.0
  0
POINT
  5
1850E
330
17529
100
AcDbEntity
  8
DEFPOINTS
 62
     0
 48
50.0
100
AcDbPoint
 10
9412.90489172516
 20
5541.702645078843
 30
0.0
  0
ENDBLK
  5
17534
330
17529
100
AcDbEntity
  8
0
 48
50.0
100
AcDbBlockEnd
  0
BLOCK
  5
17540
330
17535
100
AcDbEntity
  8
0
 48
50.0
100
AcDbBlockBegin
  2
*D21
 70
     1
 10
0.0
 20
0.0
 30
0.0
  3
*D21
  1

  0
LINE
  5
18018
330
17535
100
AcDbEntity
  8
寸法
 62
     0
 48
50.0
370
    -2
100
AcDbLine
 10
12522.90489172516
 20
4879.742278324917
 30
0.0
 11
12522.90489172516
 21
5371.589052292567
 31
0.0
  0
LINE
  5
18019
330
17535
100
AcDbEntity
  8
寸法
 62
     0
 48
50.0
370
    -2
100
AcDbLine
 10
12602.90489172516
 20
4877.931598713264
 30
0.0
 11
12602.90489172516
 21
5371.589052292567
 31
0.0
  0
LINE
  5
1801A
330
17535
100
AcDbEntity
  8
寸法
 62
     0
 48
50.0
370
    -2
100
AcDbLine
 10
12522.90489172516
 20
5311.589052292568
 30
0.0
 11
12602.90489172516
 21
5311.589052292568
 31
0.0
  0
LINE
  5
1801B
330
17535
100
AcDbEntity
  8
寸法
 62
     0
 48
50.0
370
    -2
100
AcDbLine
 10
12602.90489172516
 20
5311.589052292568
 30
0.0
 11
12914.99937991414
 21
5311.589052292568
 31
0.0
  0
INSERT
  5
1801C
330
17535
100
AcDbEntity
  8
寸法
 62
     0
 48
50.0
370
    -2
100
AcDbBlockReference
  2
_DOTSMALL
 10
12522.90489172516
 20
5311.589052292568
 30
0.0
 41
100.0
 42
100.0
 43
100.0
 50
180.0
  0
INSERT
  5
1801D
330
17535
100
AcDbEntity
  8
寸法
 62
     0
 48
50.0
370
    -2
100
AcDbBlockReference
  2
_DOTSMALL
 10
12602.90489172516
 20
5311.589052292568
 30
0.0
 41
100.0
 42
100.0
 43
100.0
  0
MTEXT
  5
1801E
330
17535
100
AcDbEntity
  8
寸法
 62
     7
 48
50.0
100
AcDbMText
 10
12808.95213581965
 20
5411.589052292567
 30
0.0
 40
120.0
 41
0.0
 71
     5
 72
     1
  1
\A1;80
  7
STYLE1
 73
     1
 44
1.0
1001
ACAD
1000
MTEXTBEGIN
1070
    73
1070
     1
1070
    44
1040
1.0
1070
    74
1070
     0
1000
MTEXTEND
  0
POINT
  5
1801F
330
17535
100
AcDbEntity
  8
DEFPOINTS
 62
     0
 48
50.0
100
AcDbPoint
 10
12522.90489172516
 20
4859.742278324916
 30
0.0
  0
POINT
  5
18020
330
17535
100
AcDbEntity
  8
DEFPOINTS
 62
     0
 48
50.0
100
AcDbPoint
 10
12602.90489172516
 20
4857.931598713265
 30
0.0
  0
POINT
  5
18021
330
17535
100
AcDbEntity
  8
DEFPOINTS
 62
     0
 48
50.0
100
AcDbPoint
 10
12602.90489172516
 20
5311.589052292568
 30
0.0
  0
ENDBLK
  5
17541
330
17535
100
AcDbEntity
  8
0
 48
50.0
100
AcDbBlockEnd
  0
BLOCK
  5
1754D
330
17542
100
AcDbEntity
  8
0
 48
50.0
100
AcDbBlockBegin
  2
*D22
 70
     1
 10
0.0
 20
0.0
 30
0.0
  3
*D22
  1

  0
LINE
  5
1800E
330
17542
100
AcDbEntity
  8
寸法
 62
     0
 48
50.0
370
    -2
100
AcDbLine
 10
9412.309178016263
 20
4912.229305782924
 30
0.0
 11
8796.374738910975
 21
4929.943456057253
 31
0.0
  0
LINE
  5
1800F
330
17542
100
AcDbEntity
  8
寸法
 62
     0
 48
50.0
370
    -2
100
AcDbLine
 10
9408.255722459637
 20
4771.287582017211
 30
0.0
 11
8792.321283354347
 21
4789.001732291541
 31
0.0
  0
LINE
  5
18010
330
17542
100
AcDbEntity
  8
寸法
 62
     0
 48
50.0
370
    -2
100
AcDbLine
 10
8852.296484956779
 20
4787.276857586593
 30
0.0
 11
8856.349940513403
 21
4928.218581352306
 31
0.0
  0
LINE
  5
18011
330
17542
100
AcDbEntity
  8
寸法
 62
     0
 48
50.0
370
    -2
100
AcDbLine
 10
8856.349940513403
 20
4928.218581352306
 30
0.0
 11
8866.699188743089
 21
5288.069790966892
 31
0.0
  0
INSERT
  5
18012
330
17542
100
AcDbEntity
  8
寸法
 62
     0
 48
50.0
370
    -2
100
AcDbBlockReference
  2
_DOTSMALL
 10
8852.296484956779
 20
4787.276857586593
 30
0.0
 41
100.0
 42
100.0
 43
100.0
 50
268.3526390256378
  0
INSERT
  5
18013
330
17542
100
AcDbEntity
  8
寸法
 62
     0
 48
50.0
370
    -2
100
AcDbBlockReference
  2
_DOTSMALL
 10
8856.349940513403
 20
4928.218581352306
 30
0.0
 41
100.0
 42
100.0
 43
100.0
 50
88.35263902563776
  0
MTEXT
  5
18014
330
17542
100
AcDbEntity
  8
寸法
 62
     7
 48
50.0
100
AcDbMText
 10
8763.003290878316
 20
5160.998312003204
 30
0.0
 40
120.0
 41
0.0
 71
     5
 72
     1
  1
\A1;141
  7
STYLE1
 11
0.0287479117491237
 21
0.9995866933738488
 31
0.0
 73
     1
 44
1.0
1001
ACAD
1000
MTEXTBEGIN
1070
    73
1070
     1
1070
    44
1040
1.0
1070
    74
1070
     0
1000
MTEXTEND
  0
POINT
  5
18015
330
17542
100
AcDbEntity
  8
DEFPOINTS
 62
     0
 48
50.0
100
AcDbPoint
 10
9432.300911883741
 20
4911.654347547941
 30
0.0
  0
POINT
  5
18016
330
17542
100
AcDbEntity
  8
DEFPOINTS
 62
     0
 48
50.0
100
AcDbPoint
 10
9428.247456327113
 20
4770.712623782229
 30
0.0
  0
POINT
  5
18017
330
17542
100
AcDbEntity
  8
DEFPOINTS
 62
     0
 48
50.0
100
AcDbPoint
 10
8852.296484956779
 20
4787.276857586593
 30
0.0
  0
ENDBLK
  5
1754E
330
17542
100
AcDbEntity
  8
0
 48
50.0
100
AcDbBlockEnd
  0
BLOCK
  5
181FF
330
181F3
100
AcDbEntity
  8
0
 48
50.0
100
AcDbBlockBegin
  2
*D23
 70
     1
 10
0.0
 20
0.0
 30
0.0
  3
*D23
  1

  0
LINE
  5
18227
330
181F3
100
AcDbEntity
  8
寸法
 62
     0
 48
50.0
370
    -2
100
AcDbLine
 10
4992.069000782736
 20
4932.931598713269
 30
0.0
 11
4992.069000782736
 21
5378.657870445171
 31
0.0
  0
LINE
  5
18228
330
181F3
100
AcDbEntity
  8
寸法
 62
     0
 48
50.0
370
    -2
100
AcDbLine
 10
4942.069000782736
 20
4932.931598713269
 30
0.0
 11
4942.069000782736
 21
5378.657870445171
 31
0.0
  0
LINE
  5
18229
330
181F3
100
AcDbEntity
  8
寸法
 62
     0
 48
50.0
370
    -2
100
AcDbLine
 10
4992.069000782736
 20
5318.657870445171
 30
0.0
 11
5092.069000782736
 21
5318.657870445171
 31
0.0
  0
LINE
  5
1822A
330
181F3
100
AcDbEntity
  8
寸法
 62
     0
 48
50.0
370
    -2
100
AcDbLine
 10
4942.069000782736
 20
5318.657870445171
 30
0.0
 11
4522.536475314001
 21
5318.657870445171
 31
0.0
  0
LINE
  5
1822B
330
181F3
100
AcDbEntity
  8
寸法
 62
     0
 48
50.0
370
    -2
100
AcDbLine
 10
4992.069000782736
 20
5318.657870445171
 30
0.0
 11
4942.069000782736
 21
5318.657870445171
 31
0.0
  0
INSERT
  5
1822C
330
181F3
100
AcDbEntity
  8
寸法
 62
     0
 48
50.0
370
    -2
100
AcDbBlockReference
  2
_DOTSMALL
 10
4992.069000782736
 20
5318.657870445171
 30
0.0
 41
100.0
 42
100.0
 43
100.0
 50
180.0
  0
INSERT
  5
1822D
330
181F3
100
AcDbEntity
  8
寸法
 62
     0
 48
50.0
370
    -2
100
AcDbBlockReference
  2
_DOTSMALL
 10
4942.069000782736
 20
5318.657870445171
 30
0.0
 41
100.0
 42
100.0
 43
100.0
  0
MTEXT
  5
1822E
330
181F3
100
AcDbEntity
  8
寸法
 62
     7
 48
50.0
100
AcDbMText
 10
4628.583719408489
 20
5418.657870445171
 30
0.0
 40
120.0
 41
0.0
 71
     5
 72
     1
  1
\A1;50
  7
STYLE1
 73
     1
 44
1.0
1001
ACAD
1000
MTEXTBEGIN
1070
    73
1070
     1
1070
    44
1040
1.0
1070
    74
1070
     0
1000
MTEXTEND
  0
POINT
  5
1822F
330
181F3
100
AcDbEntity
  8
DEFPOINTS
 62
     0
 48
50.0
100
AcDbPoint
 10
4992.069000782736
 20
4912.931598713268
 30
0.0
  0
POINT
  5
18230
330
181F3
100
AcDbEntity
  8
DEFPOINTS
 62
     0
 48
50.0
100
AcDbPoint
 10
4942.069000782736
 20
4912.931598713268
 30
0.0
  0
POINT
  5
18231
330
181F3
100
AcDbEntity
  8
DEFPOINTS
 62
     0
 48
50.0
100
AcDbPoint
 10
4942.069000782736
 20
5318.657870445171
 30
0.0
  0
ENDBLK
  5
18200
330
181F3
100
AcDbEntity
  8
0
 48
50.0
100
AcDbBlockEnd
  0
BLOCK
  5
1820B
330
18201
100
AcDbEntity
  8
0
 48
50.0
100
AcDbBlockBegin
  2
*D24
 70
     1
 10
0.0
 20
0.0
 30
0.0
  3
*D24
  1

  0
LINE
  5
18232
330
18201
100
AcDbEntity
  8
寸法
 62
     0
 48
50.0
370
    -2
100
AcDbLine
 10
4942.069000782736
 20
4932.931598713269
 30
0.0
 11
4942.069000782736
 21
5578.566791659262
 31
0.0
  0
LINE
  5
18233
330
18201
100
AcDbEntity
  8
寸法
 62
     0
 48
50.0
370
    -2
100
AcDbLine
 10
6832.06900078273
 20
4932.931598713265
 30
0.0
 11
6832.06900078273
 21
5578.566791659262
 31
0.0
  0
LINE
  5
18234
330
18201
100
AcDbEntity
  8
寸法
 62
     0
 48
50.0
370
    -2
100
AcDbLine
 10
4942.069000782736
 20
5518.566791659261
 30
0.0
 11
6832.06900078273
 21
5518.566791659261
 31
0.0
  0
INSERT
  5
18235
330
18201
100
AcDbEntity
  8
寸法
 62
     0
 48
50.0
370
    -2
100
AcDbBlockReference
  2
_DOTSMALL
 10
4942.069000782736
 20
5518.566791659261
 30
0.0
 41
100.0
 42
100.0
 43
100.0
 50
180.0
  0
INSERT
  5
18236
330
18201
100
AcDbEntity
  8
寸法
 62
     0
 48
50.0
370
    -2
100
AcDbBlockReference
  2
_DOTSMALL
 10
6832.06900078273
 20
5518.566791659261
 30
0.0
 41
100.0
 42
100.0
 43
100.0
  0
MTEXT
  5
18237
330
18201
100
AcDbEntity
  8
寸法
 62
     7
 48
50.0
100
AcDbMText
 10
5887.069000782736
 20
5618.566791659262
 30
0.0
 40
120.0
 41
0.0
 71
     5
 72
     1
  1
\A1;1890
  7
STYLE1
 73
     1
 44
1.0
1001
ACAD
1000
MTEXTBEGIN
1070
    73
1070
     1
1070
    44
1040
1.0
1070
    74
1070
     0
1000
MTEXTEND
  0
POINT
  5
18238
330
18201
100
AcDbEntity
  8
DEFPOINTS
 62
     0
 48
50.0
100
AcDbPoint
 10
4942.069000782736
 20
4912.931598713268
 30
0.0
  0
POINT
  5
18239
330
18201
100
AcDbEntity
  8
DEFPOINTS
 62
     0
 48
50.0
100
AcDbPoint
 10
6832.06900078273
 20
4912.931598713265
 30
0.0
  0
POINT
  5
1823A
330
18201
100
AcDbEntity
  8
DEFPOINTS
 62
     0
 48
50.0
100
AcDbPoint
 10
6832.06900078273
 20
5518.566791659261
 30
0.0
  0
ENDBLK
  5
1820C
330
18201
100
AcDbEntity
  8
0
 48
50.0
100
AcDbBlockEnd
  0
BLOCK
  5
18219
330
1820D
100
AcDbEntity
  8
0
 48
50.0
100
AcDbBlockBegin
  2
*D25
 70
     1
 10
0.0
 20
0.0
 30
0.0
  3
*D25
  1

  0
LINE
  5
1823B
330
1820D
100
AcDbEntity
  8
寸法
 62
     0
 48
50.0
370
    -2
100
AcDbLine
 10
6832.06900078273
 20
4932.931598713265
 30
0.0
 11
6832.06900078273
 21
5378.657870445171
 31
0.0
  0
LINE
  5
1823C
330
1820D
100
AcDbEntity
  8
寸法
 62
     0
 48
50.0
370
    -2
100
AcDbLine
 10
6782.069000782732
 20
4932.931598713269
 30
0.0
 11
6782.069000782732
 21
5378.657870445171
 31
0.0
  0
LINE
  5
1823D
330
1820D
100
AcDbEntity
  8
寸法
 62
     0
 48
50.0
370
    -2
100
AcDbLine
 10
6782.069000782732
 20
5318.657870445171
 30
0.0
 11
6682.069000782732
 21
5318.657870445171
 31
0.0
  0
LINE
  5
1823E
330
1820D
100
AcDbEntity
  8
寸法
 62
     0
 48
50.0
370
    -2
100
AcDbLine
 10
6832.06900078273
 20
5318.657870445171
 30
0.0
 11
7251.601526251457
 21
5318.657870445171
 31
0.0
  0
LINE
  5
1823F
330
1820D
100
AcDbEntity
  8
寸法
 62
     0
 48
50.0
370
    -2
100
AcDbLine
 10
6782.069000782732
 20
5318.657870445171
 30
0.0
 11
6832.06900078273
 21
5318.657870445171
 31
0.0
  0
INSERT
  5
18240
330
1820D
100
AcDbEntity
  8
寸法
 62
     0
 48
50.0
370
    -2
100
AcDbBlockReference
  2
_DOTSMALL
 10
6782.069000782732
 20
5318.657870445171
 30
0.0
 41
100.0
 42
100.0
 43
100.0
  0
INSERT
  5
18241
330
1820D
100
AcDbEntity
  8
寸法
 62
     0
 48
50.0
370
    -2
100
AcDbBlockReference
  2
_DOTSMALL
 10
6832.06900078273
 20
5318.657870445171
 30
0.0
 41
100.0
 42
100.0
 43
100.0
 50
180.0
  0
MTEXT
  5
18242
330
1820D
100
AcDbEntity
  8
寸法
 62
     7
 48
50.0
100
AcDbMText
 10
7145.554282156969
 20
5418.657870445171
 30
0.0
 40
120.0
 41
0.0
 71
     5
 72
     1
  1
\A1;50
  7
STYLE1
 73
     1
 44
1.0
1001
ACAD
1000
MTEXTBEGIN
1070
    73
1070
     1
1070
    44
1040
1.0
1070
    74
1070
     0
1000
MTEXTEND
  0
POINT
  5
18243
330
1820D
100
AcDbEntity
  8
DEFPOINTS
 62
     0
 48
50.0
100
AcDbPoint
 10
6832.06900078273
 20
4912.931598713265
 30
0.0
  0
POINT
  5
18244
330
1820D
100
AcDbEntity
  8
DEFPOINTS
 62
     0
 48
50.0
100
AcDbPoint
 10
6782.069000782732
 20
4912.931598713268
 30
0.0
  0
POINT
  5
18245
330
1820D
100
AcDbEntity
  8
DEFPOINTS
 62
     0
 48
50.0
100
AcDbPoint
 10
6782.069000782732
 20
5318.657870445171
 30
0.0
  0
ENDBLK
  5
1821A
330
1820D
100
AcDbEntity
  8
0
 48
50.0
100
AcDbBlockEnd
  0
BLOCK
  5
18225
330
1821B
100
AcDbEntity
  8
0
 48
50.0
100
AcDbBlockBegin
  2
*D26
 70
     1
 10
0.0
 20
0.0
 30
0.0
  3
*D26
  1

  0
LINE
  5
18246
330
1821B
100
AcDbEntity
  8
寸法
 62
     0
 48
50.0
370
    -2
100
AcDbLine
 10
6782.069000782732
 20
4932.931598713269
 30
0.0
 11
6782.069000782732
 21
5378.657870445171
 31
0.0
  0
LINE
  5
18247
330
1821B
100
AcDbEntity
  8
寸法
 62
     0
 48
50.0
370
    -2
100
AcDbLine
 10
4992.069000782736
 20
4932.931598713269
 30
0.0
 11
4992.069000782736
 21
5378.657870445171
 31
0.0
  0
LINE
  5
18248
330
1821B
100
AcDbEntity
  8
寸法
 62
     0
 48
50.0
370
    -2
100
AcDbLine
 10
6782.069000782732
 20
5318.657870445171
 30
0.0
 11
4992.069000782736
 21
5318.657870445171
 31
0.0
  0
INSERT
  5
18249
330
1821B
100
AcDbEntity
  8
寸法
 62
     0
 48
50.0
370
    -2
100
AcDbBlockReference
  2
_DOTSMALL
 10
6782.069000782732
 20
5318.657870445171
 30
0.0
 41
100.0
 42
100.0
 43
100.0
  0
INSERT
  5
1824A
330
1821B
100
AcDbEntity
  8
寸法
 62
     0
 48
50.0
370
    -2
100
AcDbBlockReference
  2
_DOTSMALL
 10
4992.069000782736
 20
5318.657870445171
 30
0.0
 41
100.0
 42
100.0
 43
100.0
 50
180.0
  0
MTEXT
  5
1824B
330
1821B
100
AcDbEntity
  8
寸法
 62
     7
 48
50.0
100
AcDbMText
 10
5887.069000782736
 20
5418.657870445171
 30
0.0
 40
120.0
 41
0.0
 71
     5
 72
     1
  1
\A1;柱外寸法1790
  7
STYLE1
 73
     1
 44
1.0
1001
ACAD
1000
MTEXTBEGIN
1070
    73
1070
     1
1070
    44
1040
1.0
1070
    74
1070
     0
1000
MTEXTEND
  0
POINT
  5
1824C
330
1821B
100
AcDbEntity
  8
DEFPOINTS
 62
     0
 48
50.0
100
AcDbPoint
 10
6782.069000782732
 20
4912.931598713268
 30
0.0
  0
POINT
  5
1824D
330
1821B
100
AcDbEntity
  8
DEFPOINTS
 62
     0
 48
50.0
100
AcDbPoint
 10
4992.069000782736
 20
4912.931598713268
 30
0.0
  0
POINT
  5
1824E
330
1821B
100
AcDbEntity
  8
DEFPOINTS
 62
     0
 48
50.0
100
AcDbPoint
 10
4992.069000782736
 20
5318.657870445171
 30
0.0
  0
ENDBLK
  5
18226
330
1821B
100
AcDbEntity
  8
0
 48
50.0
100
AcDbBlockEnd
  0
BLOCK
  5
1840E
330
18404
100
AcDbEntity
  8
0
 48
50.0
100
AcDbBlockBegin
  2
*D27
 70
     1
 10
0.0
 20
0.0
 30
0.0
  3
*D27
  1

  0
LINE
  5
184C3
330
18404
100
AcDbEntity
  8
寸法
 62
     0
 48
50.0
370
    -2
100
AcDbLine
 10
6802.069000782731
 20
2537.931598713262
 30
0.0
 11
7129.612103104476
 21
2537.931598713262
 31
0.0
  0
LINE
  5
184C4
330
18404
100
AcDbEntity
  8
寸法
 62
     0
 48
50.0
370
    -2
100
AcDbLine
 10
6802.069000782731
 20
4485.931598713261
 30
0.0
 11
7129.612103104476
 21
4485.931598713261
 31
0.0
  0
LINE
  5
184C5
330
18404
100
AcDbEntity
  8
寸法
 62
     0
 48
50.0
370
    -2
100
AcDbLine
 10
7069.612103104477
 20
2537.931598713262
 30
0.0
 11
7069.612103104477
 21
4485.931598713261
 31
0.0
  0
INSERT
  5
184C6
330
18404
100
AcDbEntity
  8
寸法
 62
     0
 48
50.0
370
    -2
100
AcDbBlockReference
  2
_DOTSMALL
 10
7069.612103104477
 20
2537.931598713262
 30
0.0
 41
100.0
 42
100.0
 43
100.0
 50
270.0
  0
INSERT
  5
184C7
330
18404
100
AcDbEntity
  8
寸法
 62
     0
 48
50.0
370
    -2
100
AcDbBlockReference
  2
_DOTSMALL
 10
7069.612103104477
 20
4485.931598713261
 30
0.0
 41
100.0
 42
100.0
 43
100.0
 50
90.0
  0
MTEXT
  5
184C8
330
18404
100
AcDbEntity
  8
寸法
 62
     7
 48
50.0
100
AcDbMText
 10
6969.612103104475
 20
3511.931598713263
 30
0.0
 40
120.0
 41
0.0
 71
     5
 72
     1
  1
\A1;有効開口部高サ 1948
  7
STYLE1
 11
0.0000000000000001
 21
1.0
 31
0.0
 73
     1
 44
1.0
1001
ACAD
1000
MTEXTBEGIN
1070
    73
1070
     1
1070
    44
1040
1.0
1070
    74
1070
     0
1000
MTEXTEND
  0
POINT
  5
184C9
330
18404
100
AcDbEntity
  8
DEFPOINTS
 62
     0
 48
50.0
100
AcDbPoint
 10
6782.069000782731
 20
2537.931598713262
 30
0.0
  0
POINT
  5
184CA
330
18404
100
AcDbEntity
  8
DEFPOINTS
 62
     0
 48
50.0
100
AcDbPoint
 10
6782.069000782731
 20
4485.931598713261
 30
0.0
  0
POINT
  5
184CB
330
18404
100
AcDbEntity
  8
DEFPOINTS
 62
     0
 48
50.0
100
AcDbPoint
 10
7069.612103104477
 20
4485.931598713261
 30
0.0
  0
ENDBLK
  5
1840F
330
18404
100
AcDbEntity
  8
0
 48
50.0
100
AcDbBlockEnd
  0
BLOCK
  5
1841C
330
18410
100
AcDbEntity
  8
0
 48
50.0
100
AcDbBlockBegin
  2
*D28
 70
     1
 10
0.0
 20
0.0
 30
0.0
  3
*D28
  1

  0
LINE
  5
1852C
330
18410
100
AcDbEntity
  8
寸法
 62
     0
 48
50.0
370
    -2
100
AcDbLine
 10
6802.069000782731
 20
4485.931598713261
 30
0.0
 11
7129.612103104476
 21
4485.931598713261
 31
0.0
  0
LINE
  5
1852D
330
18410
100
AcDbEntity
  8
寸法
 62
     0
 48
50.0
370
    -2
100
AcDbLine
 10
6802.069000782728
 20
4512.931598713262
 30
0.0
 11
7129.612103104476
 21
4512.931598713262
 31
0.0
  0
LINE
  5
1852E
330
18410
100
AcDbEntity
  8
寸法
 62
     0
 48
50.0
370
    -2
100
AcDbLine
 10
7069.612103104477
 20
4485.931598713261
 30
0.0
 11
7069.612103104477
 21
4385.931598713261
 31
0.0
  0
LINE
  5
1852F
330
18410
100
AcDbEntity
  8
寸法
 62
     0
 48
50.0
370
    -2
100
AcDbLine
 10
7069.612103104477
 20
4512.931598713262
 30
0.0
 11
7069.612103104477
 21
4612.931598713262
 31
0.0
  0
MTEXT
  5
18530
330
18410
100
AcDbEntity
  8
寸法
 62
     7
 48
50.0
100
AcDbMText
 10
7209.781926350842
 20
4513.89879855292
 30
0.0
 40
120.0
 41
0.0
 71
     5
 72
     1
  1
\A1;27
  7
STYLE1
 11
0.0000000000000001
 21
1.0
 31
0.0
 73
     1
 44
1.0
1001
ACAD
1000
MTEXTBEGIN
1070
    73
1070
     1
1070
    44
1040
1.0
1070
    74
1070
     0
1000
MTEXTEND
  0
LINE
  5
18531
330
18410
100
AcDbEntity
  8
寸法
 62
     0
 48
50.0
370
    -2
100
AcDbLine
 10
7069.612103104477
 20
4485.931598713261
 30
0.0
 11
7069.612103104477
 21
4512.931598713262
 31
0.0
  0
INSERT
  5
18532
330
18410
100
AcDbEntity
  8
寸法
 62
     0
 48
50.0
370
    -2
100
AcDbBlockReference
  2
_DOTSMALL
 10
7069.612103104477
 20
4485.931598713261
 30
0.0
 41
100.0
 42
100.0
 43
100.0
 50
90.0
  0
INSERT
  5
18533
330
18410
100
AcDbEntity
  8
寸法
 62
     0
 48
50.0
370
    -2
100
AcDbBlockReference
  2
_DOTSMALL
 10
7069.612103104477
 20
4512.931598713262
 30
0.0
 41
100.0
 42
100.0
 43
100.0
 50
270.0
  0
POINT
  5
18534
330
18410
100
AcDbEntity
  8
DEFPOINTS
 62
     0
 48
50.0
100
AcDbPoint
 10
6782.069000782731
 20
4485.931598713261
 30
0.0
  0
POINT
  5
18535
330
18410
100
AcDbEntity
  8
DEFPOINTS
 62
     0
 48
50.0
100
AcDbPoint
 10
6782.06900078273
 20
4512.931598713262
 30
0.0
  0
POINT
  5
18536
330
18410
100
AcDbEntity
  8
DEFPOINTS
 62
     0
 48
50.0
100
AcDbPoint
 10
7069.612103104477
 20
4512.931598713262
 30
0.0
  0
ENDBLK
  5
1841D
330
18410
100
AcDbEntity
  8
0
 48
50.0
100
AcDbBlockEnd
  0
BLOCK
  5
18429
330
1841E
100
AcDbEntity
  8
0
 48
50.0
100
AcDbBlockBegin
  2
*D29
 70
     1
 10
0.0
 20
0.0
 30
0.0
  3
*D29
  1

  0
LINE
  5
18522
330
1841E
100
AcDbEntity
  8
寸法
 62
     0
 48
50.0
370
    -2
100
AcDbLine
 10
6802.069000782728
 20
4512.931598713262
 30
0.0
 11
7129.612103104477
 21
4512.931598713262
 31
0.0
  0
LINE
  5
18523
330
1841E
100
AcDbEntity
  8
寸法
 62
     0
 48
50.0
370
    -2
100
AcDbLine
 10
6802.069000782731
 20
4677.931598713261
 30
0.0
 11
7129.612103104477
 21
4677.931598713261
 31
0.0
  0
LINE
  5
18524
330
1841E
100
AcDbEntity
  8
寸法
 62
     0
 48
50.0
370
    -2
100
AcDbLine
 10
7069.612103104478
 20
4512.931598713262
 30
0.0
 11
7069.612103104478
 21
4677.931598713261
 31
0.0
  0
LINE
  5
18525
330
1841E
100
AcDbEntity
  8
寸法
 62
     0
 48
50.0
370
    -2
100
AcDbLine
 10
7069.612103104478
 20
4677.931598713261
 30
0.0
 11
7069.612103104478
 21
5054.902161461739
 31
0.0
  0
INSERT
  5
18526
330
1841E
100
AcDbEntity
  8
寸法
 62
     0
 48
50.0
370
    -2
100
AcDbBlockReference
  2
_DOTSMALL
 10
7069.612103104478
 20
4512.931598713262
 30
0.0
 41
100.0
 42
100.0
 43
100.0
 50
270.0
  0
INSERT
  5
18527
330
1841E
100
AcDbEntity
  8
寸法
 62
     0
 48
50.0
370
    -2
100
AcDbBlockReference
  2
_DOTSMALL
 10
7069.612103104478
 20
4677.931598713261
 30
0.0
 41
100.0
 42
100.0
 43
100.0
 50
90.0
  0
MTEXT
  5
18528
330
1841E
100
AcDbEntity
  8
寸法
 62
     7
 48
50.0
100
AcDbMText
 10
6969.612103104477
 20
4916.416880087502
 30
0.0
 40
120.0
 41
0.0
 71
     5
 72
     1
  1
\A1;165
  7
STYLE1
 11
0.0000000000000001
 21
1.0
 31
0.0
 73
     1
 44
1.0
1001
ACAD
1000
MTEXTBEGIN
1070
    73
1070
     1
1070
    44
1040
1.0
1070
    74
1070
     0
1000
MTEXTEND
  0
POINT
  5
18529
330
1841E
100
AcDbEntity
  8
DEFPOINTS
 62
     0
 48
50.0
100
AcDbPoint
 10
6782.06900078273
 20
4512.931598713262
 30
0.0
  0
POINT
  5
1852A
330
1841E
100
AcDbEntity
  8
DEFPOINTS
 62
     0
 48
50.0
100
AcDbPoint
 10
6782.069000782731
 20
4677.931598713261
 30
0.0
  0
POINT
  5
1852B
330
1841E
100
AcDbEntity
  8
DEFPOINTS
 62
     0
 48
50.0
100
AcDbPoint
 10
7069.612103104478
 20
4677.931598713261
 30
0.0
  0
ENDBLK
  5
1842A
330
1841E
100
AcDbEntity
  8
0
 48
50.0
100
AcDbBlockEnd
  0
ENDSEC
  0
SECTION
  2
ENTITIES
  0
MTEXT
  5
763F
330
747D
100
AcDbEntity
  8
0
100
AcDbMText
 10
302.846345836809
 20
280.1983726409901
 30
0.0
 40
3.5
 41
5.323721266742722
 71
     1
 72
     5
  1

  7
MSMINCHO
 73
     1
 44
1.0
1001
ACAD
1000
MTEXTBEGIN
1070
    73
1070
     1
1070
    44
1040
1.0
1070
    74
1070
     0
1000
MTEXTEND
  0
LINE
  5
10B57
330
747D
100
AcDbEntity
  8
補助
  6
PHANTOM
 62
   230
 48
50.0
100
AcDbLine
 10
139.9999999999995
 20
11409.6
 30
0.0
 11
16307.2
 21
11409.6
 31
0.0
  0
LINE
  5
10B59
330
747D
100
AcDbEntity
  8
仕様書枠
  6
Continuous
 48
50.0
100
AcDbLine
 10
13107.2
 20
1200.0
 30
0.0
 11
13107.2
 21
-0.0000000000000729
 31
0.0
  0
LINE
  5
10B5C
330
747D
100
AcDbEntity
  8
仕様書枠
 48
50.0
100
AcDbLine
 10
16307.2
 20
1200.0
 30
0.0
 11
16307.2
 21
-0.0000000000000909
 31
0.0
  0
LINE
  5
10B5D
330
747D
100
AcDbEntity
  8
仕様書枠
 48
50.0
100
AcDbLine
 10
140.0
 20
0.0
 30
0.0
 11
16307.2
 21
-0.0000000000000909
 31
0.0
  0
LINE
  5
10B5E
330
747D
100
AcDbEntity
  8
補助
  6
PHANTOM
 62
   230
 48
50.0
100
AcDbLine
 10
16307.2
 20
11409.6
 30
0.0
 11
16307.2
 21
1200.0
 31
0.0
  0
LINE
  5
10B6C
330
747D
100
AcDbEntity
  8
仕様書枠
 48
50.0
100
AcDbLine
 10
13107.2
 20
1200.0
 30
0.0
 11
16307.2
 21
1200.0
 31
0.0
  0
LINE
  5
10B6D
330
747D
100
AcDbEntity
  8
補助
  6
PHANTOM
 62
   230
 48
50.0
100
AcDbLine
 10
13107.2
 20
11409.6
 30
0.0
 11
13107.2
 21
4800.0
 31
0.0
  0
LINE
  5
10B6F
330
747D
100
AcDbEntity
  8
補助
  6
PHANTOM
 62
   230
 48
50.0
100
AcDbLine
 10
13107.2
 20
4800.0
 30
0.0
 11
16307.2
 21
4800.0
 31
0.0
  0
LINE
  5
10B72
330
747D
100
AcDbEntity
  8
文字
 62
     7
 48
50.0
100
AcDbLine
 10
13187.2
 20
400.0
 30
0.0
 11
16227.2
 21
400.0
 31
0.0
  0
TEXT
  5
10B73
330
747D
100
AcDbEntity
  8
文字
 62
     7
 48
50.0
100
AcDbText
 10
13162.9790565769
 20
895.0906074299405
 30
0.0
 40
200.0
  1
外 形 図
  7
STYLE2
100
AcDbText
  0
TEXT
  5
10B74
330
747D
100
AcDbEntity
  8
文字
 62
     7
 48
50.0
100
AcDbText
 10
13201.43669998441
 20
477.2740661031255
 30
0.0
 40
160.0
  1
機種名
  7
STYLE2
100
AcDbText
  0
TEXT
  5
10B75
330
747D
100
AcDbEntity
  8
文字
 62
     7
 48
50.0
100
AcDbText
 10
13209.4053442172
 20
228.5435242569016
 30
0.0
 40
100.0
  1
○有効開口寸法 ： 1584×1948(mm)
  7
STYLE2
100
AcDbText
  0
TEXT
  5
10B76
330
747D
100
AcDbEntity
  8
文字
 62
     7
 48
50.0
100
AcDbText
 10
13209.4053442172
 20
76.09434707649343
 30
0.0
 40
100.0
  1
○床面積 ： 5.46㎡(1.65坪) 　
  7
STYLE2
100
AcDbText
  0
TEXT
  5
10B79
330
747D
100
AcDbEntity
  8
文字
 62
     7
 48
50.0
100
AcDbText
 10
14524.131837222
 20
1031.557706291228
 30
0.0
 40
100.0
  1
NO.22      <縮尺> S=1/40
  7
STYLE2
100
AcDbText
  0
LINE
  5
10B7B
330
747D
100
AcDbEntity
  8
仕様書枠
 48
50.0
100
AcDbLine
 10
13107.2
 20
800.0
 30
0.0
 11
14251.2
 21
800.0
 31
0.0
  0
LINE
  5
10B88
330
747D
100
AcDbEntity
  8
仕様書枠
  6
Continuous
 48
50.0
100
AcDbLine
 10
14251.2
 20
1200.0
 30
0.0
 11
14251.2
 21
800.0
 31
0.0
  0
LINE
  5
12765
330
747D
100
AcDbEntity
  8
Ｇ．Ｌ
100
AcDbLine
 10
3903.802398112248
 20
2437.931598713261
 30
0.0
 11
13038.1894892059
 21
2437.931598713261
 31
0.0
  0
LINE
  5
127A8
330
747D
100
AcDbEntity
  8
部品1
100
AcDbLine
 10
4003.299409436347
 20
2567.835409280926
 30
0.0
 11
4153.299409436347
 21
2567.835409280926
 31
0.0
  0
LINE
  5
127A9
330
747D
100
AcDbEntity
  8
部品1
100
AcDbLine
 10
4078.299409436347
 20
2437.931598713261
 30
0.0
 11
4003.299409436347
 21
2567.835409280926
 31
0.0
  0
TEXT
  5
127AA
330
747D
100
AcDbEntity
  8
部品1
100
AcDbText
 10
4181.404351561121
 20
2474.038502319163
 30
0.0
 40
125.0
  1
G.L
  7
MSGOTHIC
100
AcDbText
  0
LINE
  5
127AB
330
747D
100
AcDbEntity
  8
部品1
100
AcDbLine
 10
4153.299409436347
 20
2567.835409280926
 30
0.0
 11
4078.299409436347
 21
2437.931598713261
 31
0.0
  0
LINE
  5
13BE8
330
747D
100
AcDbEntity
  8
部品1
100
AcDbLine
 10
4992.069000782731
 20
2537.931598713262
 30
0.0
 11
6782.069000782731
 21
2537.931598713262
 31
0.0
  0
LINE
  5
13C1F
330
747D
100
AcDbEntity
  8
部品1
100
AcDbLine
 10
4992.069000782731
 20
4771.931598713269
 30
0.0
 11
4992.069000782731
 21
2437.931598713261
 31
0.0
  0
LINE
  5
13CFC
330
747D
100
AcDbEntity
  8
部品1
100
AcDbLine
 10
6727.069000782731
 20
4512.931598713262
 30
0.0
 11
6727.06900078273
 21
2537.931598713262
 31
0.0
  0
LINE
  5
13CFE
330
747D
100
AcDbEntity
  8
部品1
100
AcDbLine
 10
5047.06900078273
 20
4512.931598713262
 30
0.0
 11
5047.06900078273
 21
2537.931598713262
 31
0.0
  0
LINE
  5
13D18
330
747D
100
AcDbEntity
  8
部品1
100
AcDbLine
 10
6782.06900078273
 20
4771.931598713268
 30
0.0
 11
6782.069000782731
 21
2437.931598713261
 31
0.0
  0
LINE
  5
146B2
330
747D
100
AcDbEntity
  8
破線
 48
5.0
100
AcDbLine
 10
6782.069000782731
 20
2437.931598713261
 30
0.0
 11
6782.069000782731
 21
2187.931598713261
 31
0.0
  0
LINE
  5
146B3
330
747D
100
AcDbEntity
  8
破線
 48
5.0
100
AcDbLine
 10
4992.069000782731
 20
2437.931598713261
 30
0.0
 11
4992.069000782729
 21
2187.931598713261
 31
0.0
  0
TEXT
  5
149A1
330
747D
100
AcDbEntity
  8
部品1
100
AcDbText
 10
5606.777350173368
 20
1595.038069494744
 30
0.0
 40
135.0
  1
正面図
  7
MSGOTHIC
100
AcDbText
  0
LWPOLYLINE
  5
149A2
330
747D
100
AcDbEntity
  8
部品1
100
AcDbPolyline
 90
        4
 70
     1
 43
0.0
 10
5503.934485848819
 20
1787.931598713268
 10
5503.934485848819
 20
1548.039277167736
 10
6267.405152077259
 20
1548.039277167736
 10
6267.405152077259
 20
1787.931598713268
  0
TEXT
  5
14E88
330
747D
100
AcDbEntity
  8
部品1
100
AcDbText
 10
5606.171556264449
 20
6197.165347594311
 30
0.0
 40
135.0
  1
平面図
  7
MSGOTHIC
100
AcDbText
  0
LWPOLYLINE
  5
14E89
330
747D
100
AcDbEntity
  8
部品1
100
AcDbPolyline
 90
        4
 70
     1
 43
0.0
 10
5503.934485848819
 20
6390.058876812834
 10
5503.934485848819
 20
6150.166555267302
 10
6267.405152077259
 20
6150.166555267302
 10
6267.405152077259
 20
6390.058876812834
  0
TEXT
  5
15550
330
747D
100
AcDbEntity
  8
文字
 62
     7
 48
50.0
100
AcDbText
 10
14653.86780145889
 20
871.9640646083623
 30
0.0
 40
100.0
  1
～一般型・多雪地型～
  7
STYLE2
100
AcDbText
  0
LINE
  5
15CE5
330
747D
100
AcDbEntity
  8
破線
 48
5.0
100
AcDbLine
 10
6727.06900078273
 20
2537.931598713262
 30
0.0
 11
6727.069000782731
 21
2187.931598713261
 31
0.0
  0
LINE
  5
15CE6
330
747D
100
AcDbEntity
  8
破線
 48
5.0
100
AcDbLine
 10
5047.06900078273
 20
2537.931598713262
 30
0.0
 11
5047.069000782729
 21
2187.931598713261
 31
0.0
  0
LINE
  5
15CE7
330
747D
100
AcDbEntity
  8
破線
 48
5.0
100
AcDbLine
 10
6782.06900078273
 20
2187.931598713261
 30
0.0
 11
6727.069000782731
 21
2187.931598713261
 31
0.0
  0
LINE
  5
15CE8
330
747D
100
AcDbEntity
  8
破線
 48
5.0
100
AcDbLine
 10
5047.069000782729
 20
2187.931598713269
 30
0.0
 11
4992.069000782729
 21
2187.931598713269
 31
0.0
  0
LINE
  5
15CE9
330
747D
100
AcDbEntity
  8
部品1
100
AcDbLine
 10
5095.06900078273
 20
4512.931598713261
 30
0.0
 11
5095.06900078273
 21
2537.931598713262
 31
0.0
  0
LINE
  5
15CEA
330
747D
100
AcDbEntity
  8
破線
 48
5.0
100
AcDbLine
 10
5095.06900078273
 20
2537.931598713262
 30
0.0
 11
5095.069000782729
 21
2287.931598713267
 31
0.0
  0
LINE
  5
15CEB
330
747D
100
AcDbEntity
  8
部品1
100
AcDbLine
 10
6679.069000782732
 20
4512.931598713262
 30
0.0
 11
6679.069000782729
 21
2537.931598713262
 31
0.0
  0
LINE
  5
15CEC
330
747D
100
AcDbEntity
  8
破線
 48
5.0
100
AcDbLine
 10
6679.069000782729
 20
2537.931598713262
 30
0.0
 11
6679.069000782731
 21
2287.931598713262
 31
0.0
  0
LINE
  5
15CED
330
747D
100
AcDbEntity
  8
破線
 48
5.0
100
AcDbLine
 10
6727.069000782731
 20
2287.931598713262
 30
0.0
 11
6679.069000782731
 21
2287.931598713262
 31
0.0
  0
LINE
  5
15CEE
330
747D
100
AcDbEntity
  8
破線
 48
5.0
100
AcDbLine
 10
5095.069000782729
 20
2287.931598713267
 30
0.0
 11
5047.069000782729
 21
2287.931598713267
 31
0.0
  0
LINE
  5
15CF0
330
747D
100
AcDbEntity
  8
部品1
100
AcDbLine
 10
4992.069000782731
 20
4512.931598713261
 30
0.0
 11
6782.06900078273
 21
4512.931598713262
 31
0.0
  0
LINE
  5
15D20
330
747D
100
AcDbEntity
  8
細線
100
AcDbLine
 10
5095.069000782727
 20
4172.931598713261
 30
0.0
 11
6679.069000782729
 21
4172.931598713261
 31
0.0
  0
LINE
  5
15D21
330
747D
100
AcDbEntity
  8
細線
100
AcDbLine
 10
5095.069000782727
 20
4237.931598713261
 30
0.0
 11
6679.069000782729
 21
4237.931598713261
 31
0.0
  0
LINE
  5
15D22
330
747D
100
AcDbEntity
  8
細線
100
AcDbLine
 10
5095.069000782727
 20
4302.931598713261
 30
0.0
 11
6679.069000782729
 21
4302.931598713261
 31
0.0
  0
LINE
  5
15D23
330
747D
100
AcDbEntity
  8
細線
100
AcDbLine
 10
5095.069000782727
 20
3782.931598713262
 30
0.0
 11
6679.069000782729
 21
3782.931598713262
 31
0.0
  0
LINE
  5
15D24
330
747D
100
AcDbEntity
  8
細線
100
AcDbLine
 10
5095.069000782727
 20
3847.931598713262
 30
0.0
 11
6679.069000782729
 21
3847.931598713262
 31
0.0
  0
LINE
  5
15D25
330
747D
100
AcDbEntity
  8
細線
100
AcDbLine
 10
5095.069000782727
 20
3912.931598713262
 30
0.0
 11
6679.069000782729
 21
3912.931598713262
 31
0.0
  0
LINE
  5
15D26
330
747D
100
AcDbEntity
  8
細線
100
AcDbLine
 10
5095.069000782727
 20
3977.931598713261
 30
0.0
 11
6679.069000782729
 21
3977.931598713261
 31
0.0
  0
LINE
  5
15D27
330
747D
100
AcDbEntity
  8
細線
100
AcDbLine
 10
5095.069000782727
 20
4042.931598713261
 30
0.0
 11
6679.069000782729
 21
4042.931598713261
 31
0.0
  0
LINE
  5
15D28
330
747D
100
AcDbEntity
  8
細線
100
AcDbLine
 10
5095.069000782727
 20
4107.931598713261
 30
0.0
 11
6679.069000782729
 21
4107.931598713261
 31
0.0
  0
LINE
  5
15D29
330
747D
100
AcDbEntity
  8
細線
100
AcDbLine
 10
5095.069000782727
 20
3132.931598713261
 30
0.0
 11
6679.069000782729
 21
3132.931598713261
 31
0.0
  0
LINE
  5
15D2A
330
747D
100
AcDbEntity
  8
細線
100
AcDbLine
 10
5095.069000782727
 20
3197.931598713262
 30
0.0
 11
6679.069000782729
 21
3197.931598713262
 31
0.0
  0
LINE
  5
15D2B
330
747D
100
AcDbEntity
  8
細線
100
AcDbLine
 10
5095.069000782727
 20
3262.931598713262
 30
0.0
 11
6679.069000782729
 21
3262.931598713262
 31
0.0
  0
LINE
  5
15D2C
330
747D
100
AcDbEntity
  8
細線
100
AcDbLine
 10
5095.069000782727
 20
3327.931598713262
 30
0.0
 11
6679.069000782729
 21
3327.931598713262
 31
0.0
  0
LINE
  5
15D2D
330
747D
100
AcDbEntity
  8
細線
100
AcDbLine
 10
5095.069000782727
 20
3392.931598713261
 30
0.0
 11
6679.069000782729
 21
3392.931598713261
 31
0.0
  0
LINE
  5
15D2E
330
747D
100
AcDbEntity
  8
細線
100
AcDbLine
 10
5095.069000782727
 20
3457.931598713262
 30
0.0
 11
6679.069000782729
 21
3457.931598713262
 31
0.0
  0
LINE
  5
15D2F
330
747D
100
AcDbEntity
  8
細線
100
AcDbLine
 10
5095.069000782727
 20
3522.931598713262
 30
0.0
 11
6679.069000782729
 21
3522.931598713262
 31
0.0
  0
LINE
  5
15D30
330
747D
100
AcDbEntity
  8
細線
100
AcDbLine
 10
5095.069000782727
 20
3587.931598713261
 30
0.0
 11
6679.069000782729
 21
3587.931598713261
 31
0.0
  0
LINE
  5
15D31
330
747D
100
AcDbEntity
  8
細線
100
AcDbLine
 10
5095.069000782727
 20
3652.931598713261
 30
0.0
 11
6679.069000782729
 21
3652.931598713261
 31
0.0
  0
LINE
  5
15D32
330
747D
100
AcDbEntity
  8
細線
100
AcDbLine
 10
5095.069000782727
 20
3717.931598713261
 30
0.0
 11
6679.069000782729
 21
3717.931598713261
 31
0.0
  0
LINE
  5
15D33
330
747D
100
AcDbEntity
  8
細線
100
AcDbLine
 10
5095.069000782727
 20
4432.931598713262
 30
0.0
 11
6679.069000782729
 21
4432.931598713262
 31
0.0
  0
LINE
  5
15D34
330
747D
100
AcDbEntity
  8
細線
100
AcDbLine
 10
5095.069000782727
 20
4497.931598713261
 30
0.0
 11
6679.069000782729
 21
4497.931598713261
 31
0.0
  0
LINE
  5
15D35
330
747D
100
AcDbEntity
  8
細線
100
AcDbLine
 10
5095.069000782727
 20
4367.931598713261
 30
0.0
 11
6679.069000782729
 21
4367.931598713261
 31
0.0
  0
LINE
  5
15D36
330
747D
100
AcDbEntity
  8
細線
100
AcDbLine
 10
5095.069000782727
 20
2547.931598713262
 30
0.0
 11
6679.069000782729
 21
2547.931598713262
 31
0.0
  0
LINE
  5
15D37
330
747D
100
AcDbEntity
  8
細線
100
AcDbLine
 10
5095.069000782727
 20
2612.931598713262
 30
0.0
 11
6679.069000782729
 21
2612.931598713262
 31
0.0
  0
LINE
  5
15D38
330
747D
100
AcDbEntity
  8
細線
100
AcDbLine
 10
5095.069000782727
 20
2677.931598713261
 30
0.0
 11
6679.069000782729
 21
2677.931598713261
 31
0.0
  0
LINE
  5
15D39
330
747D
100
AcDbEntity
  8
細線
100
AcDbLine
 10
5095.069000782727
 20
2742.931598713262
 30
0.0
 11
6679.069000782729
 21
2742.931598713262
 31
0.0
  0
LINE
  5
15D3A
330
747D
100
AcDbEntity
  8
細線
100
AcDbLine
 10
5095.069000782727
 20
2807.931598713262
 30
0.0
 11
6679.069000782729
 21
2807.931598713262
 31
0.0
  0
LINE
  5
15D3B
330
747D
100
AcDbEntity
  8
細線
100
AcDbLine
 10
5095.069000782727
 20
2872.931598713261
 30
0.0
 11
6679.069000782729
 21
2872.931598713261
 31
0.0
  0
LINE
  5
15D3C
330
747D
100
AcDbEntity
  8
細線
100
AcDbLine
 10
5095.069000782727
 20
2937.931598713261
 30
0.0
 11
6679.069000782729
 21
2937.931598713261
 31
0.0
  0
LINE
  5
15D3D
330
747D
100
AcDbEntity
  8
細線
100
AcDbLine
 10
5095.069000782727
 20
3002.931598713261
 30
0.0
 11
6679.069000782729
 21
3002.931598713261
 31
0.0
  0
LINE
  5
15D3E
330
747D
100
AcDbEntity
  8
細線
100
AcDbLine
 10
5095.069000782727
 20
3067.931598713262
 30
0.0
 11
6679.069000782729
 21
3067.931598713262
 31
0.0
  0
LINE
  5
15D3F
330
747D
100
AcDbEntity
  8
細線
100
AcDbLine
 10
6679.069000782731
 20
2547.931598713262
 30
0.0
 11
5095.069000782725
 21
2547.931598713262
 31
0.0
  0
DIMENSION
  5
16452
330
747D
100
AcDbEntity
  8
寸法
100
AcDbDimension
  2
*D1
 10
7794.602288256783
 20
7377.283913289186
 30
0.0
 11
7694.602288256781
 21
8902.283913289192
 31
0.0
 70
    32
 71
     5
 42
3050.000000000008
  3
INABA_S40G
100
AcDbAlignedDimension
 13
6782.069000782738
 23
10427.28391328919
 33
0.0
 14
6782.069000782712
 24
7377.283913289186
 34
0.0
 50
90.0
100
AcDbRotatedDimension
1001
ACAD
1000
DSTYLE
1002
{
1002
}
  0
LINE
  5
16453
330
747D
100
AcDbEntity
  8
部品1
100
AcDbLine
 10
6702.069000782735
 20
10372.28391328905
 30
0.0
 11
6702.069000782714
 21
7442.283913289094
 31
0.0
  0
LINE
  5
16454
330
747D
100
AcDbEntity
  8
部品1
100
AcDbLine
 10
5072.069000782711
 20
10372.28391328907
 30
0.0
 11
5072.069000782729
 21
7442.283913289093
 31
0.0
  0
LINE
  5
16455
330
747D
100
AcDbEntity
  8
部品1
100
AcDbLine
 10
5047.069000782711
 20
10372.28391328907
 30
0.0
 11
5047.069000782729
 21
7442.283913289093
 31
0.0
  0
LINE
  5
16456
330
747D
100
AcDbEntity
  8
部品1
100
AcDbLine
 10
6727.069000782728
 20
10372.28391328905
 30
0.0
 11
6727.069000782714
 21
7377.283913289182
 31
0.0
  0
LINE
  5
16457
330
747D
100
AcDbEntity
  8
部品1
100
AcDbLine
 10
6754.069000782724
 20
10399.28391328919
 30
0.0
 11
6754.069000782713
 21
7432.283913289182
 31
0.0
  0
LINE
  5
16458
330
747D
100
AcDbEntity
  8
部品1
100
AcDbLine
 10
6782.069000782738
 20
10427.28391328919
 30
0.0
 11
6782.069000782712
 21
7377.283913289186
 31
0.0
  0
DIMENSION
  5
16459
330
747D
100
AcDbEntity
  8
寸法
100
AcDbDimension
  2
*D2
 10
7429.495346517147
 20
7432.283913289182
 30
0.0
 11
7329.483535493524
 21
8902.283913289192
 31
0.0
 70
    32
  1
7X420=<>
 71
     5
 42
2940.000000000015
  3
INABA_S40G
100
AcDbAlignedDimension
 13
6782.069000782738
 23
10372.28391328919
 33
0.0
 14
6782.069000782712
 24
7432.283913289182
 34
0.0
 50
90.0
100
AcDbRotatedDimension
1001
ACAD
1000
DSTYLE
1002
{
1002
}
  0
LINE
  5
1645B
330
747D
100
AcDbEntity
  8
部品1
100
AcDbLine
 10
4992.069000782703
 20
10427.28391328906
 30
0.0
 11
4992.069000782731
 21
7377.283913289055
 31
0.0
  0
LINE
  5
1645C
330
747D
100
AcDbEntity
  8
部品1
100
AcDbLine
 10
5020.069000782712
 20
7432.283913289051
 30
0.0
 11
5020.069000782726
 21
10399.2839132891
 31
0.0
  0
DIMENSION
  5
1645E
330
747D
100
AcDbEntity
  8
寸法
 48
50.0
100
AcDbDimension
  2
*D3
 10
5095.06900078273
 20
6842.853142522931
 30
0.0
 11
5887.069000782721
 21
7042.853142522931
 31
0.0
 70
    32
  1
有効開口部間口\P<>
 71
     5
 42
1583.999999999982
  3
INABA_S40G
100
AcDbAlignedDimension
 13
6679.069000782712
 23
7403.283913289095
 33
0.0
 14
5095.06900078273
 24
7403.283913289094
 34
0.0
100
AcDbRotatedDimension
1001
ACAD
1000
DSTYLE
1002
{
1070
    75
1070
     1
1070
   279
1070
     2
1002
}
  0
LINE
  5
1645F
330
747D
100
AcDbEntity
  8
部品1
 48
50.0
100
AcDbLine
 10
5059.069000782729
 20
7422.783913289094
 30
0.0
 11
6715.069000782714
 21
7422.783913289094
 31
0.0
  0
DIMENSION
  5
16460
330
747D
100
AcDbEntity
  8
寸法
100
AcDbDimension
  2
*D4
 10
6782.069000782712
 20
6556.680146932056
 30
0.0
 11
5887.069000782721
 21
6656.680146932057
 31
0.0
 70
    32
 71
     5
 42
1789.999999999982
  3
INABA_S40G
100
AcDbAlignedDimension
 13
4992.069000782731
 23
7377.283913289023
 33
0.0
 14
6782.069000782712
 24
7377.283913289149
 34
0.0
100
AcDbRotatedDimension
1001
ACAD
1000
DSTYLE
1002
{
1002
}
  0
DIMENSION
  5
16461
330
747D
100
AcDbEntity
  8
寸法
 48
50.0
100
AcDbDimension
  2
*D5
 10
4992.069000782731
 20
6842.853142522931
 30
0.0
 11
4683.583719408492
 21
6842.853142522931
 31
0.0
 70
   160
 71
     5
 42
54.99999999999636
  3
INABA_S40G
100
AcDbAlignedDimension
 13
5047.069000782727
 23
7377.283913289094
 33
0.0
 14
4992.069000782731
 24
7377.28391328909
 34
0.0
100
AcDbRotatedDimension
1001
ACAD
1000
DSTYLE
1002
{
1002
}
  0
DIMENSION
  5
16462
330
747D
100
AcDbEntity
  8
寸法
 48
50.0
100
AcDbDimension
  2
*D6
 10
5047.069000782727
 20
6842.853142522931
 30
0.0
 11
5207.970971782788
 21
6942.853142522931
 31
0.0
 70
   160
 71
     5
 42
48.00000000000363
  3
INABA_S40G
100
AcDbAlignedDimension
 13
5095.06900078273
 23
7403.283913289094
 33
0.0
 14
5047.069000782727
 24
7377.283913289094
 34
0.0
100
AcDbRotatedDimension
1001
ACAD
1000
DSTYLE
1002
{
1070
   279
1070
     2
1002
}
  0
LINE
  5
16463
330
747D
100
AcDbEntity
  8
部品1
100
AcDbLine
 10
5047.069000782725
 20
7377.283913289094
 30
0.0
 11
4992.069000782731
 21
7377.28391328909
 31
0.0
  0
LINE
  5
16464
330
747D
100
AcDbEntity
  8
部品1
 48
50.0
100
AcDbLine
 10
5047.06900078273
 20
7413.283913289093
 30
0.0
 11
5024.069000782731
 21
7413.283913289093
 31
0.0
  0
LINE
  5
16465
330
747D
100
AcDbEntity
  8
部品1
 48
50.0
100
AcDbLine
 10
5057.069000782731
 20
7403.283913289094
 30
0.0
 11
5047.06900078273
 21
7382.283913289095
 31
0.0
  0
LINE
  5
16466
330
747D
100
AcDbEntity
  8
部品1
 48
50.0
100
AcDbLine
 10
5047.06900078273
 20
7442.283913289093
 30
0.0
 11
5047.069000782727
 21
7377.283913289094
 31
0.0
  0
LINE
  5
16467
330
747D
100
AcDbEntity
  8
部品1
 48
50.0
100
AcDbLine
 10
5095.06900078273
 20
7403.283913289095
 30
0.0
 11
5095.06900078273
 21
7412.283913289094
 31
0.0
  0
LINE
  5
16468
330
747D
100
AcDbEntity
  8
部品1
 48
50.0
100
AcDbLine
 10
5095.06900078273
 20
7442.283913289095
 30
0.0
 11
5095.06900078273
 21
7433.283913289095
 31
0.0
  0
LINE
  5
16469
330
747D
100
AcDbEntity
  8
部品1
100
AcDbLine
 10
5095.06900078273
 20
7442.283913289095
 30
0.0
 11
5047.06900078273
 21
7442.283913289094
 31
0.0
  0
LINE
  5
1646A
330
747D
100
AcDbEntity
  8
部品1
100
AcDbLine
 10
5095.06900078273
 20
7403.283913289095
 30
0.0
 11
5047.06900078273
 21
7403.283913289094
 31
0.0
  0
LINE
  5
1646B
330
747D
100
AcDbEntity
  8
部品1
100
AcDbLine
 10
5047.069000782729
 20
7413.283913289093
 30
0.0
 11
5024.069000782731
 21
7413.283913289093
 31
0.0
  0
LINE
  5
1646C
330
747D
100
AcDbEntity
  8
部品1
100
AcDbLine
 10
5047.069000782729
 20
7432.283913289018
 30
0.0
 11
4992.069000782729
 21
7432.283913289018
 31
0.0
  0
LINE
  5
1646D
330
747D
100
AcDbEntity
  8
部品1
100
AcDbLine
 10
5020.069000782712
 20
7432.283913289055
 30
0.0
 11
4992.069000782729
 21
7432.283913289055
 31
0.0
  0
LINE
  5
1646E
330
747D
100
AcDbEntity
  8
部品1
100
AcDbLine
 10
5020.069000782729
 20
7432.283913289069
 30
0.0
 11
4992.069000782729
 21
7432.283913289069
 31
0.0
  0
LINE
  5
1646F
330
747D
100
AcDbEntity
  8
部品1
100
AcDbLine
 10
4992.069000782715
 20
7852.283913289209
 30
0.0
 11
5020.069000782714
 21
7852.283913289209
 31
0.0
  0
LINE
  5
16472
330
747D
100
AcDbEntity
  8
部品1
100
AcDbLine
 10
4992.069000782715
 20
8272.283913289207
 30
0.0
 11
5020.069000782714
 21
8272.283913289207
 31
0.0
  0
LINE
  5
16473
330
747D
100
AcDbEntity
  8
部品1
100
AcDbLine
 10
4992.069000782715
 20
8692.283913289207
 30
0.0
 11
5020.069000782714
 21
8692.283913289207
 31
0.0
  0
LINE
  5
16474
330
747D
100
AcDbEntity
  8
部品1
100
AcDbLine
 10
5020.069000782718
 20
9112.283913289068
 30
0.0
 11
4992.069000782718
 21
9112.283913289068
 31
0.0
  0
DIMENSION
  5
16475
330
747D
100
AcDbEntity
  8
寸法
 48
50.0
100
AcDbDimension
  2
*D7
 10
6679.069000782712
 20
6842.853142522931
 30
0.0
 11
6568.106103133965
 21
6942.853142522931
 31
0.0
 70
   160
 71
     5
 42
48.00000000000181
  3
INABA_S40G
100
AcDbAlignedDimension
 13
6727.069000782714
 23
7377.283913289182
 33
0.0
 14
6679.069000782712
 24
7403.283913289095
 34
0.0
100
AcDbRotatedDimension
1001
ACAD
1000
DSTYLE
1002
{
1070
   279
1070
     2
1002
}
  0
DIMENSION
  5
16476
330
747D
100
AcDbEntity
  8
寸法
 48
50.0
100
AcDbDimension
  2
*D8
 10
6727.069000782714
 20
6842.853142522931
 30
0.0
 11
7090.554282156951
 21
6842.853142522931
 31
0.0
 70
   160
 71
     5
 42
54.99999999999818
  3
INABA_S40G
100
AcDbAlignedDimension
 13
6782.069000782712
 23
7377.283913289186
 33
0.0
 14
6727.069000782714
 24
7377.283913289182
 34
0.0
100
AcDbRotatedDimension
1001
ACAD
1000
DSTYLE
1002
{
1002
}
  0
DIMENSION
  5
16477
330
747D
100
AcDbEntity
  8
寸法
100
AcDbDimension
  2
*D9
 10
7429.495346517125
 20
7377.283913289186
 30
0.0
 11
7429.495346517121
 21
6999.422446384324
 31
0.0
 70
   160
 71
     5
 42
54.99999999999636
  3
INABA_S40G
100
AcDbAlignedDimension
 13
6782.069000782712
 23
7432.283913289182
 33
0.0
 14
6782.069000782712
 24
7377.283913289186
 34
0.0
 50
90.0
100
AcDbRotatedDimension
1001
ACAD
1000
DSTYLE
1002
{
1002
}
  0
LINE
  5
16478
330
747D
100
AcDbEntity
  8
部品1
 48
50.0
100
AcDbLine
 10
6717.069000782712
 20
7403.283913289094
 30
0.0
 11
6727.069000782712
 21
7382.283913289095
 31
0.0
  0
LINE
  5
16479
330
747D
100
AcDbEntity
  8
部品1
100
AcDbLine
 10
6727.069000782712
 20
7413.283913289092
 30
0.0
 11
6750.069000782713
 21
7413.283913289093
 31
0.0
  0
LINE
  5
1647A
330
747D
100
AcDbEntity
  8
部品1
 48
50.0
100
AcDbLine
 10
6679.069000782712
 20
7442.283913289095
 30
0.0
 11
6679.069000782712
 21
7433.283913289095
 31
0.0
  0
LINE
  5
1647B
330
747D
100
AcDbEntity
  8
部品1
100
AcDbLine
 10
6679.069000782712
 20
7442.283913289095
 30
0.0
 11
6727.069000782714
 21
7442.283913289094
 31
0.0
  0
LINE
  5
1647C
330
747D
100
AcDbEntity
  8
部品1
 48
50.0
100
AcDbLine
 10
6679.069000782712
 20
7403.283913289095
 30
0.0
 11
6679.069000782712
 21
7412.283913289094
 31
0.0
  0
LINE
  5
1647D
330
747D
100
AcDbEntity
  8
部品1
100
AcDbLine
 10
6679.069000782712
 20
7403.283913289095
 30
0.0
 11
6727.069000782712
 21
7403.283913289094
 31
0.0
  0
LINE
  5
1647E
330
747D
100
AcDbEntity
  8
部品1
100
AcDbLine
 10
6727.069000782712
 20
7432.283913289197
 30
0.0
 11
6782.069000782745
 21
7432.283913289197
 31
0.0
  0
LINE
  5
1647F
330
747D
100
AcDbEntity
  8
部品1
100
AcDbLine
 10
6782.069000782712
 20
7377.283913289186
 30
0.0
 11
6727.069000782714
 21
7377.283913289183
 31
0.0
  0
LINE
  5
16480
330
747D
100
AcDbEntity
  8
部品1
100
AcDbLine
 10
6754.069000782742
 20
7852.283913289197
 30
0.0
 11
6782.069000782742
 21
7852.283913289197
 31
0.0
  0
LINE
  5
16483
330
747D
100
AcDbEntity
  8
部品1
100
AcDbLine
 10
6754.069000782742
 20
8272.283913289196
 30
0.0
 11
6782.069000782742
 21
8272.283913289196
 31
0.0
  0
LINE
  5
16484
330
747D
100
AcDbEntity
  8
部品1
100
AcDbLine
 10
6754.069000782742
 20
8692.283913289196
 30
0.0
 11
6782.069000782742
 21
8692.283913289196
 31
0.0
  0
LINE
  5
16485
330
747D
100
AcDbEntity
  8
部品1
100
AcDbLine
 10
6754.069000782742
 20
9112.283913289196
 30
0.0
 11
6782.069000782742
 21
9112.283913289196
 31
0.0
  0
LINE
  5
16489
330
747D
100
AcDbEntity
  8
部品1
100
AcDbLine
 10
5047.069000782737
 20
10399.28391328921
 30
0.0
 11
5874.569000782736
 21
10399.2839132892
 31
0.0
  0
LINE
  5
1648A
330
747D
100
AcDbEntity
  8
部品1
100
AcDbLine
 10
4992.069000782736
 20
10427.2839132891
 30
0.0
 11
6782.069000782738
 21
10427.28391328919
 31
0.0
  0
DIMENSION
  5
1648F
330
747D
100
AcDbEntity
  8
寸法
100
AcDbDimension
  2
*D10
 10
6727.069000782738
 20
10643.0921329142
 30
0.0
 11
5887.069000782737
 21
10743.10394393782
 31
0.0
 70
    32
  1
4X420=<>
 71
     5
 42
1680.000000000001
  3
INABA_S40G
100
AcDbAlignedDimension
 13
5047.069000782737
 23
10427.2839132891
 33
0.0
 14
6727.069000782738
 24
10427.28391328919
 34
0.0
100
AcDbRotatedDimension
1001
ACAD
1000
DSTYLE
1002
{
1002
}
  0
LINE
  5
16491
330
747D
100
AcDbEntity
  8
部品1
100
AcDbLine
 10
5020.069000782736
 20
10399.2839132891
 30
0.0
 11
5677.069000782736
 21
10399.2839132891
 31
0.0
  0
DIMENSION
  5
16492
330
747D
100
AcDbEntity
  8
寸法
100
AcDbDimension
  2
*D11
 10
5047.069000782737
 20
10643.09213291408
 30
0.0
 11
4683.583719408463
 21
10643.09213291408
 31
0.0
 70
   160
 71
     5
 42
55.00000000003456
  3
INABA_S40G
100
AcDbAlignedDimension
 13
4992.069000782702
 23
10427.2839132891
 33
0.0
 14
5047.069000782737
 24
10427.2839132891
 34
0.0
100
AcDbRotatedDimension
1001
ACAD
1000
DSTYLE
1002
{
1002
}
  0
LINE
  5
16495
330
747D
100
AcDbEntity
  8
部品1
100
AcDbLine
 10
5020.069000782711
 20
9952.28391328907
 30
0.0
 11
4992.06900078271
 21
9952.28391328907
 31
0.0
  0
LINE
  5
16496
330
747D
100
AcDbEntity
  8
部品1
100
AcDbLine
 10
5047.069000782704
 20
10427.28391328906
 30
0.0
 11
5047.069000782704
 21
10399.28391328906
 31
0.0
  0
LINE
  5
16497
330
747D
100
AcDbEntity
  8
部品1
100
AcDbLine
 10
5047.069000782737
 20
10427.2839132891
 30
0.0
 11
5047.069000782737
 21
10399.2839132891
 31
0.0
  0
LINE
  5
16498
330
747D
100
AcDbEntity
  8
部品1
100
AcDbLine
 10
5020.069000782704
 20
10372.28391328907
 30
0.0
 11
4992.069000782703
 21
10372.28391328907
 31
0.0
  0
LINE
  5
164B8
330
747D
100
AcDbEntity
  8
部品1
100
AcDbLine
 10
5467.069000782736
 20
10427.28391328921
 30
0.0
 11
5467.069000782736
 21
10399.28391328921
 31
0.0
  0
LINE
  5
164BB
330
747D
100
AcDbEntity
  8
部品1
100
AcDbLine
 10
5887.069000782736
 20
10427.28391328921
 30
0.0
 11
5887.069000782736
 21
10399.28391328921
 31
0.0
  0
LINE
  5
164BC
330
747D
100
AcDbEntity
  8
部品1
100
AcDbLine
 10
6307.069000782737
 20
10427.28391328921
 30
0.0
 11
6307.069000782737
 21
10399.28391328921
 31
0.0
  0
DIMENSION
  5
164BD
330
747D
100
AcDbEntity
  8
寸法
100
AcDbDimension
  2
*D12
 10
7429.495346517149
 20
10372.28391328919
 30
0.0
 11
7429.495346517147
 21
10735.76919466343
 31
0.0
 70
   160
 71
     5
 42
54.99999999999636
  3
INABA_S40G
100
AcDbAlignedDimension
 13
6782.069000782738
 23
10427.28391328919
 33
0.0
 14
6782.069000782738
 24
10372.28391328919
 34
0.0
 50
90.0
100
AcDbRotatedDimension
1001
ACAD
1000
DSTYLE
1002
{
1002
}
  0
DIMENSION
  5
164BE
330
747D
100
AcDbEntity
  8
寸法
100
AcDbDimension
  2
*D13
 10
6782.069000782738
 20
10643.09213291418
 30
0.0
 11
7090.554282156976
 21
10643.09213291418
 31
0.0
 70
   160
 71
     5
 42
55.0
  3
INABA_S40G
100
AcDbAlignedDimension
 13
6727.069000782738
 23
10427.28391328919
 33
0.0
 14
6782.069000782738
 24
10427.28391328919
 34
0.0
100
AcDbRotatedDimension
1001
ACAD
1000
DSTYLE
1002
{
1002
}
  0
LINE
  5
164C2
330
747D
100
AcDbEntity
  8
部品1
100
AcDbLine
 10
6754.069000782738
 20
9952.283913289198
 30
0.0
 11
6782.069000782738
 21
9952.283913289198
 31
0.0
  0
LINE
  5
164C3
330
747D
100
AcDbEntity
  8
部品1
100
AcDbLine
 10
6727.069000782738
 20
10427.28391328919
 30
0.0
 11
6727.069000782738
 21
10399.28391328919
 31
0.0
  0
LINE
  5
164C4
330
747D
100
AcDbEntity
  8
部品1
100
AcDbLine
 10
6727.069000782738
 20
10427.28391328921
 30
0.0
 11
6727.069000782738
 21
10399.28391328921
 31
0.0
  0
LINE
  5
164C5
330
747D
100
AcDbEntity
  8
部品1
100
AcDbLine
 10
6754.069000782738
 20
10372.28391328919
 30
0.0
 11
6782.069000782738
 21
10372.28391328919
 31
0.0
  0
LINE
  5
166A1
330
747D
100
AcDbEntity
  8
部品1
 48
50.0
100
AcDbLine
 10
6702.069000782735
 20
10347.28391328901
 30
0.0
 11
5072.069000782711
 21
10347.28391328898
 31
0.0
  0
LINE
  5
166A5
330
747D
100
AcDbEntity
  8
部品1
100
AcDbLine
 10
6727.069000782728
 20
10372.28391328905
 30
0.0
 11
5047.069000782713
 21
10372.28391328907
 31
0.0
  0
LINE
  5
166A6
330
747D
100
AcDbEntity
  8
部品1
 48
50.0
100
AcDbLine
 10
5047.069000782711
 20
10372.28391328907
 30
0.0
 11
5020.069000782736
 21
10399.2839132891
 31
0.0
  0
LINE
  5
166A7
330
747D
100
AcDbEntity
  8
部品1
 48
50.0
100
AcDbLine
 10
6754.069000782724
 20
10399.28391328919
 30
0.0
 11
6727.069000782728
 21
10372.28391328905
 31
0.0
  0
LINE
  5
16728
330
747D
100
AcDbEntity
  8
部品1
 48
50.0
100
AcDbLine
 10
5899.569000782737
 20
10391.28391328914
 30
0.0
 11
5899.569000782737
 21
10399.28391328915
 31
0.0
  0
LINE
  5
16729
330
747D
100
AcDbEntity
  8
部品1
 48
50.0
100
AcDbLine
 10
5874.569000782736
 20
10391.28391328913
 30
0.0
 11
5874.569000782736
 21
10399.28391328915
 31
0.0
  0
LINE
  5
1672A
330
747D
100
AcDbEntity
  8
部品1
100
AcDbLine
 10
5852.069000782736
 20
10417.28391328914
 30
0.0
 11
5852.069000782736
 21
10399.28391328914
 31
0.0
  0
LINE
  5
1672B
330
747D
100
AcDbEntity
  8
部品1
100
AcDbLine
 10
5852.069000782736
 20
10417.28391328914
 30
0.0
 11
5858.069000782736
 21
10417.28391328914
 31
0.0
  0
LINE
  5
1672C
330
747D
100
AcDbEntity
  8
部品1
100
AcDbLine
 10
5922.069000782737
 20
10417.28391328914
 30
0.0
 11
5922.069000782737
 21
10399.28391328914
 31
0.0
  0
LINE
  5
1672D
330
747D
100
AcDbEntity
  8
部品1
100
AcDbLine
 10
5916.069000782736
 20
10417.28391328914
 30
0.0
 11
5922.069000782737
 21
10417.28391328914
 31
0.0
  0
LINE
  5
1672E
330
747D
100
AcDbEntity
  8
部品1
100
AcDbLine
 10
5874.569000782736
 20
10391.28391328913
 30
0.0
 11
5899.569000782737
 21
10391.28391328914
 31
0.0
  0
LINE
  5
1672F
330
747D
100
AcDbEntity
  8
部品1
100
AcDbLine
 10
5887.069000782736
 20
10427.28391328915
 30
0.0
 11
5887.069000782736
 21
10399.28391328915
 31
0.0
  0
LINE
  5
16730
330
747D
100
AcDbEntity
  8
部品1
100
AcDbLine
 10
5887.069000782736
 20
10427.28391328921
 30
0.0
 11
5887.069000782736
 21
10399.28391328921
 31
0.0
  0
LINE
  5
16731
330
747D
100
AcDbEntity
  8
部品1
100
AcDbLine
 10
5899.569000782737
 20
10399.2839132892
 30
0.0
 11
6754.069000782724
 21
10399.28391328919
 31
0.0
  0
ARC
  5
167FE
330
747D
100
AcDbEntity
  8
細線
 48
50.0
100
AcDbCircle
 10
5587.069000782729
 20
3100.431598713262
 30
0.0
 40
15.0
100
AcDbArc
 50
90.0
 51
270.0
  0
ARC
  5
167FF
330
747D
100
AcDbEntity
  8
細線
 48
50.0
100
AcDbCircle
 10
5687.069000782729
 20
3100.431598713262
 30
0.0
 40
15.0
100
AcDbArc
 50
270.0
 51
90.0
  0
LINE
  5
16800
330
747D
100
AcDbEntity
  8
細線
 48
50.0
100
AcDbLine
 10
5587.069000782729
 20
3115.431598713261
 30
0.0
 11
5687.069000782729
 21
3115.431598713261
 31
0.0
  0
LINE
  5
16801
330
747D
100
AcDbEntity
  8
細線
 48
50.0
100
AcDbLine
 10
5687.069000782729
 20
3085.431598713262
 30
0.0
 11
5587.069000782729
 21
3085.431598713262
 31
0.0
  0
LINE
  5
16802
330
747D
100
AcDbEntity
  8
細線
 48
50.0
100
AcDbLine
 10
6187.069000782729
 20
3085.431598713262
 30
0.0
 11
6087.069000782729
 21
3085.431598713262
 31
0.0
  0
LINE
  5
16803
330
747D
100
AcDbEntity
  8
細線
 48
50.0
100
AcDbLine
 10
6087.069000782729
 20
3115.431598713261
 30
0.0
 11
6187.069000782729
 21
3115.431598713261
 31
0.0
  0
ARC
  5
16804
330
747D
100
AcDbEntity
  8
細線
 48
50.0
100
AcDbCircle
 10
6087.069000782729
 20
3100.431598713262
 30
0.0
 40
15.0
100
AcDbArc
 50
90.0
 51
270.0
  0
ARC
  5
16805
330
747D
100
AcDbEntity
  8
細線
 48
50.0
100
AcDbCircle
 10
6187.069000782729
 20
3100.431598713262
 30
0.0
 40
15.0
100
AcDbArc
 50
270.0
 51
90.0
  0
CIRCLE
  5
16806
330
747D
100
AcDbEntity
  8
細線
 48
50.0
100
AcDbCircle
 10
5887.069000782729
 20
3425.431598713262
 30
0.0
 40
18.0
  0
LINE
  5
16C55
330
747D
100
AcDbEntity
  8
部品1
100
AcDbLine
 10
6754.069000782738
 20
9532.283913289196
 30
0.0
 11
6782.069000782738
 21
9532.283913289196
 31
0.0
  0
LINE
  5
16C56
330
747D
100
AcDbEntity
  8
部品1
100
AcDbLine
 10
5020.069000782711
 20
9532.283913289068
 30
0.0
 11
4992.06900078271
 21
9532.283913289068
 31
0.0
  0
LINE
  5
16CD0
330
747D
100
AcDbEntity
  8
仕様書枠
 48
50.0
100
AcDbLine
 10
16307.19999999999
 20
9709.600000000001
 30
0.0
 11
13127.2
 21
9709.600000000001
 31
0.0
  0
TEXT
  5
16CD1
330
747D
100
AcDbEntity
  8
文字
 62
     7
 48
50.0
100
AcDbText
 10
13229.83081656556
 20
8380.013745883731
 30
0.0
 40
100.0
  1
Z08→塗装溶融亜鉛めっき鋼板(JIS G 3313)
  7
STYLE1
100
AcDbText
  0
TEXT
  5
16CD2
330
747D
100
AcDbEntity
  8
文字
 62
     7
 48
50.0
100
AcDbText
 10
13229.83081656555
 20
8550.013745883729
 30
0.0
 40
100.0
  1
Y10→溶融亜鉛-5％アルミニウム合金めっき鋼板(JIS G 3317)
 41
0.9
  7
STYLE1
100
AcDbText
  0
TEXT
  5
16CD3
330
747D
100
AcDbEntity
  8
文字
 62
     7
 48
50.0
100
AcDbText
 10
13229.83081656556
 20
8720.013745883729
 30
0.0
 40
100.0
  1
F12→溶融亜鉛めっき鋼板(JIS G 3302)
  7
STYLE1
100
AcDbText
  0
LINE
  5
16CD4
330
747D
100
AcDbEntity
  8
仕様書枠
 48
50.0
100
AcDbLine
 10
16307.2
 20
8349.6
 30
0.0
 11
13127.2
 21
8349.600000000002
 31
0.0
  0
LINE
  5
16CD5
330
747D
100
AcDbEntity
  8
仕様書枠
 48
50.0
100
AcDbLine
 10
16307.2
 20
8519.600000000002
 30
0.0
 11
13127.2
 21
8519.600000000002
 31
0.0
  0
LINE
  5
16CD6
330
747D
100
AcDbEntity
  8
仕様書枠
 48
50.0
100
AcDbLine
 10
16307.2
 20
8689.6
 30
0.0
 11
13127.2
 21
8689.600000000003
 31
0.0
  0
TEXT
  5
16CD7
330
747D
100
AcDbEntity
  8
文字
 62
     7
 48
50.0
100
AcDbText
 10
15022.63965474516
 20
8890.013745883729
 30
0.0
 40
100.0
  1
F12            0.6
  7
STYLE1
100
AcDbText
  0
TEXT
  5
16CD8
330
747D
100
AcDbEntity
  8
文字
 62
     7
 48
50.0
100
AcDbText
 10
15022.63965474516
 20
9400.013745883725
 30
0.0
 40
100.0
  1
Z08            0.5
  7
STYLE1
100
AcDbText
  0
TEXT
  5
16CDA
330
747D
100
AcDbEntity
  8
文字
 62
     7
 48
50.0
100
AcDbText
 10
14850.83183167177
 20
9060.013745883727
 30
0.0
 40
100.0
  1
アルミニウム合金押出形材
  7
STYLE1
100
AcDbText
  0
TEXT
  5
16CDB
330
747D
100
AcDbEntity
  8
文字
 62
     7
 48
50.0
100
AcDbText
 10
15022.63965474516
 20
9570.013745883727
 30
0.0
 40
100.0
  1
F12            0.7
  7
STYLE1
100
AcDbText
  0
TEXT
  5
16CDC
330
747D
100
AcDbEntity
  8
文字
 62
     7
 48
50.0
100
AcDbText
 10
15022.63965474517
 20
9740.013745883729
 30
0.0
 40
100.0
  1
Y10            0.5
  7
STYLE1
100
AcDbText
  0
TEXT
  5
16CDD
330
747D
100
AcDbEntity
  8
文字
 62
     7
 48
50.0
100
AcDbText
 10
15022.63965474517
 20
9910.013745883727
 30
0.0
 40
100.0
  1
F12            1.0
  7
STYLE1
100
AcDbText
  0
TEXT
  5
16CDE
330
747D
100
AcDbEntity
  8
文字
 62
     7
 48
50.0
100
AcDbText
 10
15022.63965474516
 20
10080.01374588372
 30
0.0
 40
100.0
  1
Y10            0.7
  7
STYLE1
100
AcDbText
  0
TEXT
  5
16CDF
330
747D
100
AcDbEntity
  8
文字
 62
     7
 48
50.0
100
AcDbText
 10
15022.63965474517
 20
10250.01374588373
 30
0.0
 40
100.0
  1
Y10            0.7
  7
STYLE1
100
AcDbText
  0
TEXT
  5
16CE0
330
747D
100
AcDbEntity
  8
文字
 62
     7
 48
50.0
100
AcDbText
 10
15022.63965474516
 20
10420.01374588372
 30
0.0
 40
100.0
  1
Y10            1.0
  7
STYLE1
100
AcDbText
  0
TEXT
  5
16CE1
330
747D
100
AcDbEntity
  8
文字
 62
     7
 48
50.0
100
AcDbText
 10
15022.63965474517
 20
10590.01374588373
 30
0.0
 40
100.0
  1
Y10            1.0
  7
STYLE1
100
AcDbText
  0
TEXT
  5
16CE3
330
747D
100
AcDbEntity
  8
文字
 62
     7
 48
50.0
100
AcDbText
 10
15022.63965474517
 20
10930.01374588372
 30
0.0
 40
100.0
  1
F12            1.2
  7
STYLE1
100
AcDbText
  0
TEXT
  5
16CE4
330
747D
100
AcDbEntity
  8
文字
 62
     7
 48
50.0
100
AcDbText
 10
13248.77747366448
 20
9060.013745883731
 30
0.0
 40
100.0
  1
12
  7
STYLE1
100
AcDbText
  0
TEXT
  5
16CE5
330
747D
100
AcDbEntity
  8
文字
 62
     7
 48
50.0
100
AcDbText
 10
13248.77747366448
 20
8890.013745883731
 30
0.0
 40
100.0
  1
13
  7
STYLE1
100
AcDbText
  0
TEXT
  5
16CE6
330
747D
100
AcDbEntity
  8
文字
 62
     7
 48
50.0
100
AcDbText
 10
13583.1181901657
 20
9400.013745883729
 30
0.0
 40
100.0
  1
シャッター
  7
STYLE1
100
AcDbText
  0
LINE
  5
16CE7
330
747D
100
AcDbEntity
  8
仕様書枠
 48
50.0
100
AcDbLine
 10
16307.19999999999
 20
9029.600000000002
 30
0.0
 11
13127.2
 21
9029.600000000003
 31
0.0
  0
TEXT
  5
16CE8
330
747D
100
AcDbEntity
  8
文字
 62
     7
 48
50.0
100
AcDbText
 10
13583.11819016569
 20
8890.013745883731
 30
0.0
 40
100.0
  1
棚板（別売）
  7
STYLE1
100
AcDbText
  0
LINE
  5
16CE9
330
747D
100
AcDbEntity
  8
仕様書枠
 48
50.0
100
AcDbLine
 10
16307.2
 20
8859.6
 30
0.0
 11
13127.2
 21
8859.600000000002
 31
0.0
  0
LINE
  5
16CEA
330
747D
100
AcDbEntity
  8
仕様書枠
 48
50.0
100
AcDbLine
 10
16307.19999999999
 20
9199.600000000001
 30
0.0
 11
13127.2
 21
9199.600000000001
 31
0.0
  0
TEXT
  5
16CEB
330
747D
100
AcDbEntity
  8
文字
 62
     7
 48
50.0
100
AcDbText
 10
13583.11819016569
 20
9230.013745883729
 30
0.0
 40
100.0
  1
シャッターカバー
 41
0.9
  7
STYLE1
100
AcDbText
  0
TEXT
  5
16CEC
330
747D
100
AcDbEntity
  8
文字
 62
     7
 48
50.0
100
AcDbText
 10
13248.77747366448
 20
9230.013745883729
 30
0.0
 40
100.0
  1
11
  7
STYLE1
100
AcDbText
  0
LINE
  5
16CED
330
747D
100
AcDbEntity
  8
仕様書枠
 48
50.0
100
AcDbLine
 10
16307.2
 20
9879.600000000001
 30
0.0
 11
13127.2
 21
9879.600000000003
 31
0.0
  0
LINE
  5
16CEE
330
747D
100
AcDbEntity
  8
仕様書枠
 48
50.0
100
AcDbLine
 10
16307.2
 20
10049.6
 30
0.0
 11
13127.2
 21
10049.6
 31
0.0
  0
LINE
  5
16CEF
330
747D
100
AcDbEntity
  8
仕様書枠
 48
50.0
100
AcDbLine
 10
16307.19999999999
 20
9539.6
 30
0.0
 11
13127.2
 21
9539.600000000003
 31
0.0
  0
LINE
  5
16CF0
330
747D
100
AcDbEntity
  8
仕様書枠
 48
50.0
100
AcDbLine
 10
16307.19999999999
 20
9369.600000000001
 30
0.0
 11
13127.2
 21
9369.600000000003
 31
0.0
  0
TEXT
  5
16CF1
330
747D
100
AcDbEntity
  8
文字
 62
     7
 48
50.0
100
AcDbText
 10
13271.19032244792
 20
10080.01374588373
 30
0.0
 40
100.0
  1
6
  7
STYLE1
100
AcDbText
  0
TEXT
  5
16CF2
330
747D
100
AcDbEntity
  8
文字
 62
     7
 48
50.0
100
AcDbText
 10
13271.19032244792
 20
9910.01374588373
 30
0.0
 40
100.0
  1
7
  7
STYLE1
100
AcDbText
  0
TEXT
  5
16CF3
330
747D
100
AcDbEntity
  8
文字
 62
     7
 48
50.0
100
AcDbText
 10
13271.19032244792
 20
9570.013745883731
 30
0.0
 40
100.0
  1
9
  7
STYLE1
100
AcDbText
  0
TEXT
  5
16CF4
330
747D
100
AcDbEntity
  8
文字
 62
     7
 48
50.0
100
AcDbText
 10
13271.19032244792
 20
9740.013745883731
 30
0.0
 40
100.0
  1
8
  7
STYLE1
100
AcDbText
  0
TEXT
  5
16CF5
330
747D
100
AcDbEntity
  8
文字
 62
     7
 48
50.0
100
AcDbText
 10
13583.11819016569
 20
10080.01374588373
 30
0.0
 40
100.0
  1
鼻隠シ前後
  7
STYLE1
100
AcDbText
  0
TEXT
  5
16CF6
330
747D
100
AcDbEntity
  8
文字
 62
     7
 48
50.0
100
AcDbText
 10
13583.11819016569
 20
9910.01374588373
 30
0.0
 40
100.0
  1
母屋中
  7
STYLE1
100
AcDbText
  0
TEXT
  5
16CF7
330
747D
100
AcDbEntity
  8
文字
 62
     7
 48
50.0
100
AcDbText
 10
13583.11819016569
 20
9740.013745883729
 30
0.0
 40
100.0
  1
屋根パネル
  7
STYLE1
100
AcDbText
  0
TEXT
  5
16CF8
330
747D
100
AcDbEntity
  8
文字
 62
     7
 48
50.0
100
AcDbText
 10
13583.11819016569
 20
9570.013745883731
 30
0.0
 40
100.0
  1
壁パネル
  7
STYLE1
100
AcDbText
  0
TEXT
  5
16CF9
330
747D
100
AcDbEntity
  8
文字
 62
     7
 48
50.0
100
AcDbText
 10
13248.77747366448
 20
9400.013745883729
 30
0.0
 40
100.0
  1
10
  7
STYLE1
100
AcDbText
  0
TEXT
  5
16CFA
330
747D
100
AcDbEntity
  8
文字
 62
     7
 48
50.0
100
AcDbText
 10
13583.11819016569
 20
9060.013745883729
 30
0.0
 40
100.0
  1
シャッターレール
  7
STYLE1
100
AcDbText
  0
TEXT
  5
16CFB
330
747D
100
AcDbEntity
  8
文字
 62
     7
 48
50.0
100
AcDbText
 10
13583.11819016569
 20
10250.01374588373
 30
0.0
 40
100.0
  1
妻板左右
  7
STYLE1
100
AcDbText
  0
TEXT
  5
16CFC
330
747D
100
AcDbEntity
  8
文字
 62
     7
 48
50.0
100
AcDbText
 10
13271.19032244792
 20
10250.01374588373
 30
0.0
 40
100.0
  1
5
  7
STYLE1
100
AcDbText
  0
TEXT
  5
16CFD
330
747D
100
AcDbEntity
  8
文字
 62
     7
 48
50.0
100
AcDbText
 10
13583.11819016569
 20
10420.01374588373
 30
0.0
 40
100.0
  1
桁後
  7
STYLE1
100
AcDbText
  0
TEXT
  5
16CFE
330
747D
100
AcDbEntity
  8
文字
 62
     7
 48
50.0
100
AcDbText
 10
13583.11819016569
 20
10590.01374588373
 30
0.0
 40
100.0
  1
桁前
  7
STYLE1
100
AcDbText
  0
TEXT
  5
16CFF
330
747D
100
AcDbEntity
  8
文字
 62
     7
 48
50.0
100
AcDbText
 10
13583.11819016569
 20
10760.01374588373
 30
0.0
 40
100.0
  1
柱
  7
STYLE1
100
AcDbText
  0
TEXT
  5
16D00
330
747D
100
AcDbEntity
  8
文字
 62
     7
 48
50.0
100
AcDbText
 10
13583.11819016569
 20
10930.01374588373
 30
0.0
 40
100.0
  1
土台枠
  7
STYLE1
100
AcDbText
  0
TEXT
  5
16D01
330
747D
100
AcDbEntity
  8
文字
 62
     7
 48
50.0
100
AcDbText
 10
14859.79774614482
 20
11100.01374588373
 30
0.0
 40
100.0
  1
材料（材質）　　単位mm
  7
STYLE1
100
AcDbText
  0
TEXT
  5
16D02
330
747D
100
AcDbEntity
  8
文字
 62
     7
 48
50.0
100
AcDbText
 10
13732.03840939435
 20
11100.01374588373
 30
0.0
 40
100.0
  1
部　　品　　名
  7
STYLE1
100
AcDbText
  0
TEXT
  5
16D03
330
747D
100
AcDbEntity
  8
文字
 62
     7
 48
50.0
100
AcDbText
 10
13271.19032244792
 20
10590.01374588373
 30
0.0
 40
100.0
  1
3
  7
STYLE1
100
AcDbText
  0
TEXT
  5
16D04
330
747D
100
AcDbEntity
  8
文字
 62
     7
 48
50.0
100
AcDbText
 10
13271.19032244792
 20
10420.01374588373
 30
0.0
 40
100.0
  1
4
  7
STYLE1
100
AcDbText
  0
TEXT
  5
16D05
330
747D
100
AcDbEntity
  8
文字
 62
     7
 48
50.0
100
AcDbText
 10
13271.19032244792
 20
10760.01374588373
 30
0.0
 40
100.0
  1
2
  7
STYLE1
100
AcDbText
  0
TEXT
  5
16D06
330
747D
100
AcDbEntity
  8
文字
 62
     7
 48
50.0
100
AcDbText
 10
13271.19032244792
 20
10930.01374588373
 30
0.0
 40
100.0
  1
1
  7
STYLE1
100
AcDbText
  0
TEXT
  5
16D07
330
747D
100
AcDbEntity
  8
文字
 62
     7
 48
50.0
100
AcDbText
 10
13197.42518560407
 20
11100.01374588373
 30
0.0
 40
100.0
  1
品番
  7
STYLE1
100
AcDbText
  0
LINE
  5
16D08
330
747D
100
AcDbEntity
  8
仕様書枠
 48
50.0
100
AcDbLine
 10
16307.19999999999
 20
10559.6
 30
0.0
 11
13127.2
 21
10559.6
 31
0.0
  0
LINE
  5
16D09
330
747D
100
AcDbEntity
  8
仕様書枠
 48
50.0
100
AcDbLine
 10
16307.19999999999
 20
10219.6
 30
0.0
 11
13127.2
 21
10219.6
 31
0.0
  0
LINE
  5
16D0A
330
747D
100
AcDbEntity
  8
仕様書枠
 48
50.0
100
AcDbLine
 10
16307.19999999999
 20
10389.6
 30
0.0
 11
13127.2
 21
10389.6
 31
0.0
  0
LINE
  5
16D0B
330
747D
100
AcDbEntity
  8
仕様書枠
 48
50.0
100
AcDbLine
 10
16307.2
 20
10899.6
 30
0.0
 11
13127.2
 21
10899.6
 31
0.0
  0
LINE
  5
16D0C
330
747D
100
AcDbEntity
  8
仕様書枠
 48
50.0
100
AcDbLine
 10
16307.2
 20
10729.6
 30
0.0
 11
13127.2
 21
10729.6
 31
0.0
  0
LINE
  5
16D0D
330
747D
100
AcDbEntity
  8
仕様書枠
 48
50.0
100
AcDbLine
 10
16307.2
 20
11069.6
 30
0.0
 11
13127.2
 21
11069.6
 31
0.0
  0
LINE
  5
16D0E
330
747D
100
AcDbEntity
  8
仕様書枠
 48
50.0
100
AcDbLine
 10
13490.2
 20
11239.6
 30
0.0
 11
13490.20000000001
 21
8859.600000000005
 31
0.0
  0
LINE
  5
16D0F
330
747D
100
AcDbEntity
  8
仕様書枠
 48
50.0
100
AcDbLine
 10
14785.2
 20
11239.6
 30
0.0
 11
14785.2
 21
8859.600000000005
 31
0.0
  0
LINE
  5
16D10
330
747D
100
AcDbEntity
  8
仕様書枠
 48
50.0
100
AcDbLine
 10
16307.2
 20
8349.600000000002
 30
0.0
 11
16307.2
 21
11239.6
 31
0.0
  0
LINE
  5
16D11
330
747D
100
AcDbEntity
  8
仕様書枠
 48
50.0
100
AcDbLine
 10
13127.2
 20
11239.6
 30
0.0
 11
13127.2
 21
8349.600000000004
 31
0.0
  0
LINE
  5
16D12
330
747D
100
AcDbEntity
  8
仕様書枠
 48
50.0
100
AcDbLine
 10
16307.2
 20
11239.6
 30
0.0
 11
13127.2
 21
11239.6
 31
0.0
  0
LINE
  5
16F59
330
747D
100
AcDbEntity
  8
補助
  6
PHANTOM
 62
   230
 48
50.0
100
AcDbLine
 10
140.0
 20
0.0
 30
0.0
 11
139.9999999999995
 21
11409.6
 31
0.0
  0
LINE
  5
1728B
330
747D
100
AcDbEntity
  8
部品1
100
AcDbLine
 10
9472.904891725164
 20
2537.931598713262
 30
0.0
 11
9079.907677516315
 21
2437.931598713261
 31
0.0
  0
LINE
  5
1728C
330
747D
100
AcDbEntity
  8
破線
 48
5.0
100
AcDbLine
 10
9472.904891725164
 20
2187.931598713261
 30
0.0
 11
9527.90489172516
 21
2187.931598713261
 31
0.0
  0
LINE
  5
1728D
330
747D
100
AcDbEntity
  8
破線
 48
5.0
100
AcDbLine
 10
9527.904891725164
 20
2437.931598713261
 30
0.0
 11
9527.904891725164
 21
2187.931598713261
 31
0.0
  0
LINE
  5
1728E
330
747D
100
AcDbEntity
  8
破線
 48
5.0
100
AcDbLine
 10
9472.904891725164
 20
2437.931598713261
 30
0.0
 11
9472.904891725164
 21
2187.931598713261
 31
0.0
  0
DIMENSION
  5
17293
330
747D
100
AcDbEntity
  8
寸法
100
AcDbDimension
  2
*D14
 10
8629.154762541901
 20
2587.931598713256
 30
0.0
 11
8529.142951518279
 21
3632.931598713258
 31
0.0
 70
    32
 71
     5
 42
2090.000000000001
  3
INABA_S40G
100
AcDbAlignedDimension
 13
9472.904891725161
 23
4677.931598713257
 33
0.0
 14
9472.904891725161
 24
2587.931598713256
 34
0.0
 50
90.0
100
AcDbRotatedDimension
1001
ACAD
1000
DSTYLE
1002
{
1070
   174
1070
     0
1070
   272
1070
     1
1070
   288
1070
     0
1070
   341
1005
0
1002
}
  0
DIMENSION
  5
17294
330
747D
100
AcDbEntity
  8
寸法
100
AcDbDimension
  2
*D15
 10
8329.154762541902
 20
4912.931598713261
 30
0.0
 11
8229.142951518277
 21
3725.43159871326
 31
0.0
 70
    32
 71
     5
 42
2375.000000000005
  3
INABA_S40G
100
AcDbAlignedDimension
 13
9472.904891725161
 23
2537.931598713256
 33
0.0
 14
9412.90489172516
 24
4912.931598713261
 34
0.0
 50
90.0
100
AcDbRotatedDimension
1001
ACAD
1000
DSTYLE
1002
{
1070
   174
1070
     0
1070
   272
1070
     1
1070
   288
1070
     0
1070
   341
1005
0
1002
}
  0
DIMENSION
  5
17295
330
747D
100
AcDbEntity
  8
寸法
100
AcDbDimension
  2
*D16
 10
13227.83204969728
 20
4857.931598713263
 30
0.0
 11
13127.82023867366
 21
3697.931598713265
 31
0.0
 70
    32
 71
     5
 42
2320.0
  3
INABA_S40G
100
AcDbAlignedDimension
 13
12522.90489172516
 23
2537.931598713263
 33
0.0
 14
12602.90489172516
 24
4857.931598713263
 34
0.0
 50
90.0
100
AcDbRotatedDimension
1001
ACAD
1000
DSTYLE
1002
{
1070
   174
1070
     0
1070
   272
1070
     1
1070
   288
1070
     0
1070
   341
1005
0
1002
}
  0
LINE
  5
17296
330
747D
100
AcDbEntity
  8
細線
 48
50.0
100
AcDbLine
 10
11550.40489172516
 20
4677.931598713261
 30
0.0
 11
11550.40489172516
 21
2587.931598713263
 31
0.0
  0
LINE
  5
17297
330
747D
100
AcDbEntity
  8
細線
 48
50.0
100
AcDbLine
 10
11565.40489172516
 20
4677.931598713261
 30
0.0
 11
11565.40489172516
 21
2587.931598713263
 31
0.0
  0
LINE
  5
17298
330
747D
100
AcDbEntity
  8
細線
 48
50.0
100
AcDbLine
 10
11425.40489172516
 20
4677.931598713261
 30
0.0
 11
11425.40489172516
 21
2587.931598713263
 31
0.0
  0
LINE
  5
17299
330
747D
100
AcDbEntity
  8
細線
 48
50.0
100
AcDbLine
 10
11410.40489172516
 20
4677.931598713261
 30
0.0
 11
11410.40489172516
 21
2587.931598713263
 31
0.0
  0
LINE
  5
1729A
330
747D
100
AcDbEntity
  8
細線
 48
50.0
100
AcDbLine
 10
11270.40489172516
 20
4677.931598713261
 30
0.0
 11
11270.40489172516
 21
2587.931598713263
 31
0.0
  0
LINE
  5
1729B
330
747D
100
AcDbEntity
  8
細線
 48
50.0
100
AcDbLine
 10
11285.40489172516
 20
4677.931598713261
 30
0.0
 11
11285.40489172516
 21
2587.931598713263
 31
0.0
  0
LINE
  5
1729C
330
747D
100
AcDbEntity
  8
部品1
100
AcDbLine
 10
11207.90489172516
 20
4677.931598713261
 30
0.0
 11
11207.90489172516
 21
2587.931598713263
 31
0.0
  0
LINE
  5
1729D
330
747D
100
AcDbEntity
  8
部品1
100
AcDbLine
 10
10851.41816424867
 20
5038.13598667628
 30
0.0
 11
11176.87317789171
 21
5020.61792771742
 31
0.0
  0
ARC
  5
1729E
330
747D
100
AcDbEntity
  8
部品1
100
AcDbCircle
 10
12588.5324275391
 20
4751.955355979054
 30
0.0
 40
0.7
100
AcDbArc
 50
275.0921697642102
 51
354.1866997667606
  0
ARC
  5
1729F
330
747D
100
AcDbEntity
  8
部品1
100
AcDbCircle
 10
12599.39177328842
 20
4828.998610796978
 30
0.0
 40
0.7
100
AcDbArc
 50
275.0921697642102
 51
354.1866997665532
  0
ARC
  5
172A0
330
747D
100
AcDbEntity
  8
部品1
100
AcDbCircle
 10
12599.72017853103
 20
4825.313213939888
 30
0.0
 40
3.0
100
AcDbArc
 50
95.0921697642102
 51
174.1866997665532
  0
ARC
  5
172A1
330
747D
100
AcDbEntity
  8
部品1
100
AcDbCircle
 10
12588.8608327817
 20
4748.269959121964
 30
0.0
 40
3.0
100
AcDbArc
 50
95.0921697642102
 51
174.1866997665532
  0
ARC
  5
172A2
330
747D
100
AcDbEntity
  8
部品1
 48
50.0
100
AcDbCircle
 10
12577.8326975066
 20
4738.679214518082
 30
0.0
 40
7.0
100
AcDbArc
 50
267.8377559869488
 51
354.1866997665532
  0
ARC
  5
172A3
330
747D
100
AcDbEntity
  8
部品1
 48
50.0
100
AcDbCircle
 10
12595.15479397111
 20
4849.581761660254
 30
0.0
 40
7.0
100
AcDbArc
 50
354.1866997665532
 51
87.03587545283093
  0
LINE
  5
172A4
330
747D
100
AcDbEntity
  8
部品1
 48
50.0
100
AcDbLine
 10
12585.87626111109
 20
4748.573820838868
 30
0.0
 11
12584.79669807135
 21
4737.970203845309
 31
0.0
  0
LINE
  5
172A5
330
747D
100
AcDbEntity
  8
部品1
 48
50.0
100
AcDbLine
 10
12596.73560686041
 20
4825.617075656792
 30
0.0
 11
12589.22882759557
 21
4751.884454911778
 31
0.0
  0
LINE
  5
172A6
330
747D
100
AcDbEntity
  8
部品1
 48
50.0
100
AcDbLine
 10
12602.11879453586
 20
4848.872750987481
 30
0.0
 11
12600.08817334489
 21
4828.927709729701
 31
0.0
  0
ARC
  5
172A7
330
747D
100
AcDbEntity
  8
部品1
100
AcDbCircle
 10
9418.941983596527
 20
4791.745757672164
 30
0.0
 40
0.7
100
AcDbArc
 50
181.0932240292114
 51
260.1877540314855
  0
ARC
  5
172A8
330
747D
100
AcDbEntity
  8
部品1
100
AcDbCircle
 10
9414.169309998916
 20
4884.611535872285
 30
0.0
 40
0.7
100
AcDbArc
 50
181.0932240292114
 51
260.1877540314855
  0
ARC
  5
172A9
330
747D
100
AcDbEntity
  8
部品1
100
AcDbCircle
 10
9413.538755595896
 20
4880.965661334887
 30
0.0
 40
3.0
100
AcDbArc
 50
1.093224029315636
 51
80.18775403169708
  0
ARC
  5
172AA
330
747D
100
AcDbEntity
  8
部品1
100
AcDbCircle
 10
9418.311429193501
 20
4788.099883134768
 30
0.0
 40
3.0
100
AcDbArc
 50
1.093224029315636
 51
80.18775403169708
  0
ARC
  5
172AB
330
747D
100
AcDbEntity
  8
部品1
 48
50.0
100
AcDbCircle
 10
9428.511561568702
 20
4777.707639752287
 30
0.0
 40
7.0
100
AcDbArc
 50
181.0932240293156
 51
267.8377559869488
  0
ARC
  5
172AC
330
747D
100
AcDbEntity
  8
部品1
 48
50.0
100
AcDbCircle
 10
9420.087903466606
 20
4904.658699285381
 30
0.0
 40
7.0
100
AcDbArc
 50
87.03587545283093
 51
181.0932240293156
  0
LINE
  5
172AD
330
747D
100
AcDbEntity
  8
部品1
 48
50.0
100
AcDbLine
 10
9421.310883119932
 20
4788.157120737952
 30
0.0
 11
9421.512835740363
 21
4777.574085344858
 31
0.0
  0
LINE
  5
172AE
330
747D
100
AcDbEntity
  8
細線
 48
50.0
100
AcDbLine
 10
9418.704790063261
 20
4791.08716885676
 30
0.0
 11
12588.7084544939
 21
4751.277849882266
 31
0.0
  0
LINE
  5
172AF
330
747D
100
AcDbEntity
  8
細線
 48
50.0
100
AcDbLine
 10
9413.944314825974
 20
4883.948680554622
 30
0.0
 11
12599.58029957114
 21
4828.324475913796
 31
0.0
  0
LINE
  5
172B0
330
747D
100
AcDbEntity
  8
部品1
 48
50.0
100
AcDbLine
 10
9416.538209522325
 20
4881.02289893807
 30
0.0
 11
9418.24211101369
 21
4791.732402231423
 31
0.0
  0
LINE
  5
172B1
330
747D
100
AcDbEntity
  8
部品1
 48
50.0
100
AcDbLine
 10
9413.089177638267
 20
4904.525144877954
 30
0.0
 11
9413.469437416079
 21
4884.598180431542
 31
0.0
  0
LINE
  5
172B2
330
747D
100
AcDbEntity
  8
細線
 48
50.0
100
AcDbLine
 10
12569.87417491885
 20
4857.085021192732
 30
0.0
 11
12565.15720883716
 21
4732.152805257814
 31
0.0
  0
LINE
  5
172B3
330
747D
100
AcDbEntity
  8
細線
 48
50.0
100
AcDbLine
 10
9445.904891725161
 20
4910.331275088665
 30
0.0
 11
9440.615790169653
 21
4770.245642461311
 31
0.0
  0
LINE
  5
172B4
330
747D
100
AcDbEntity
  8
部品1
100
AcDbLine
 10
9428.247456327113
 20
4770.712623782229
 30
0.0
 11
12577.56859226501
 21
4731.684198548024
 31
0.0
  0
LINE
  5
172B5
330
747D
100
AcDbEntity
  8
部品1
100
AcDbLine
 10
9420.449878082123
 20
4911.649334047528
 30
0.0
 11
12595.51676858663
 21
4856.572396422402
 31
0.0
  0
LINE
  5
172B6
330
747D
100
AcDbEntity
  8
部品1
 48
50.0
100
AcDbLine
 10
10876.87317789171
 20
5036.817927717417
 30
0.0
 11
11176.87317789171
 21
5036.817927717417
 31
0.0
  0
LINE
  5
172B7
330
747D
100
AcDbEntity
  8
部品1
 48
50.0
100
AcDbLine
 10
11176.87317789171
 20
5036.817927717417
 30
0.0
 11
11176.87317789171
 21
5020.61792771742
 31
0.0
  0
TEXT
  5
172B8
330
747D
100
AcDbEntity
  8
部品1
 48
50.0
100
AcDbText
 10
10865.14101311544
 20
5072.70194986985
 30
0.0
 40
120.0
  1
1000
  7
STYLE1
100
AcDbText
  0
TEXT
  5
172B9
330
747D
100
AcDbEntity
  8
部品1
 48
50.0
100
AcDbText
 10
11342.77403578052
 20
4935.200691651568
 30
0.0
 40
120.0
  1
32
 50
90.0
  7
STYLE1
100
AcDbText
  0
LINE
  5
172BA
330
747D
100
AcDbEntity
  8
細線
 48
50.0
100
AcDbLine
 10
10865.40489172516
 20
4677.931598713261
 30
0.0
 11
10865.40489172516
 21
2587.931598713261
 31
0.0
  0
LINE
  5
172BB
330
747D
100
AcDbEntity
  8
細線
 48
50.0
100
AcDbLine
 10
10850.40489172516
 20
4677.931598713261
 30
0.0
 11
10850.40489172516
 21
2587.931598713261
 31
0.0
  0
LINE
  5
172BC
330
747D
100
AcDbEntity
  8
細線
 48
50.0
100
AcDbLine
 10
10990.40489172516
 20
4677.931598713261
 30
0.0
 11
10990.40489172516
 21
2587.931598713261
 31
0.0
  0
LINE
  5
172BD
330
747D
100
AcDbEntity
  8
細線
 48
50.0
100
AcDbLine
 10
11005.40489172516
 20
4677.931598713261
 30
0.0
 11
11005.40489172516
 21
2587.931598713261
 31
0.0
  0
LINE
  5
172BE
330
747D
100
AcDbEntity
  8
細線
 48
50.0
100
AcDbLine
 10
11145.40489172516
 20
4677.931598713261
 30
0.0
 11
11145.40489172516
 21
2587.931598713261
 31
0.0
  0
LINE
  5
172BF
330
747D
100
AcDbEntity
  8
細線
 48
50.0
100
AcDbLine
 10
11130.40489172516
 20
4677.931598713261
 30
0.0
 11
11130.40489172516
 21
2587.931598713261
 31
0.0
  0
LINE
  5
172C0
330
747D
100
AcDbEntity
  8
部品1
100
AcDbLine
 10
12467.90489172515
 20
4677.931598713264
 30
0.0
 11
12467.90489172515
 21
2587.931598713265
 31
0.0
  0
LINE
  5
172C1
330
747D
100
AcDbEntity
  8
部品1
100
AcDbLine
 10
9472.904891725161
 20
4677.931598713261
 30
0.0
 11
12522.90489172515
 21
4677.931598713261
 31
0.0
  0
LINE
  5
172C2
330
747D
100
AcDbEntity
  8
部品1
100
AcDbLine
 10
9527.904891725167
 20
2587.931598713261
 30
0.0
 11
12522.90489172516
 21
2587.931598713263
 31
0.0
  0
LINE
  5
172C3
330
747D
100
AcDbEntity
  8
部品1
100
AcDbLine
 10
9527.90489172516
 20
4677.931598713261
 30
0.0
 11
9527.904891725167
 21
2437.931598713261
 31
0.0
  0
LINE
  5
172C4
330
747D
100
AcDbEntity
  8
部品1
100
AcDbLine
 10
9472.904891725161
 20
4770.07403664214
 30
0.0
 11
9472.904891725161
 21
2437.931598713261
 31
0.0
  0
DIMENSION
  5
172C5
330
747D
100
AcDbEntity
  8
寸法
100
AcDbDimension
  2
*D17
 10
8629.154762541901
 20
2537.931598713262
 30
0.0
 11
8629.154762541901
 21
2231.884354618772
 31
0.0
 70
   160
 71
     5
 42
50.0
  3
INABA_S40G
100
AcDbAlignedDimension
 13
9472.904891725161
 23
2587.931598713261
 33
0.0
 14
9417.904891725161
 24
2537.931598713262
 34
0.0
 50
90.0
100
AcDbRotatedDimension
1001
ACAD
1000
DSTYLE
1002
{
1070
   174
1070
     0
1070
   272
1070
     1
1070
   288
1070
     0
1070
   341
1005
0
1002
}
  0
LINE
  5
172C6
330
747D
100
AcDbEntity
  8
部品1
100
AcDbLine
 10
9947.90489172516
 20
4677.931598713261
 30
0.0
 11
9947.90489172516
 21
2587.931598713261
 31
0.0
  0
LINE
  5
172C7
330
747D
100
AcDbEntity
  8
部品1
100
AcDbLine
 10
12522.90489172516
 20
4732.361626494381
 30
0.0
 11
12522.90489172516
 21
2437.931598713263
 31
0.0
  0
LINE
  5
172C8
330
747D
100
AcDbEntity
  8
部品1
100
AcDbLine
 10
12467.90489172516
 20
4677.931598713263
 30
0.0
 11
12467.90489172516
 21
2587.931598713263
 31
0.0
  0
DIMENSION
  5
172C9
330
747D
100
AcDbEntity
  8
寸法
 48
50.0
100
AcDbDimension
  2
*D18
 10
9472.904891725161
 20
5311.589052292568
 30
0.0
 11
10997.90489172516
 21
5311.589052292568
 31
0.0
 70
   160
  1
柱外寸法<>
 71
     5
 42
3050.0
  3
INABA_S40G
100
AcDbAlignedDimension
 13
12522.90489172516
 23
4859.742278324916
 33
0.0
 14
9472.904891725161
 24
4908.933216836238
 34
0.0
100
AcDbRotatedDimension
1001
ACAD
1000
DSTYLE
1002
{
1070
   174
1070
     0
1070
   272
1070
     1
1070
   288
1070
     0
1070
   341
1005
0
1002
}
  0
DIMENSION
  5
172CA
330
747D
100
AcDbEntity
  8
寸法
 48
50.0
100
AcDbDimension
  2
*D19
 10
9412.90489172516
 20
5311.589052292566
 30
0.0
 11
9103.26709644957
 21
5311.589052292566
 31
0.0
 70
   160
 71
     5
 42
60.0
  3
INABA_S40G
100
AcDbAlignedDimension
 13
9472.904891725161
 23
4908.933216836238
 33
0.0
 14
9412.90489172516
 24
4912.931598713266
 34
0.0
100
AcDbRotatedDimension
1001
ACAD
1000
DSTYLE
1002
{
1070
   174
1070
     0
1070
   272
1070
     1
1070
   288
1070
     0
1070
   341
1005
0
1002
}
  0
DIMENSION
  5
172CB
330
747D
100
AcDbEntity
  8
寸法
 48
50.0
100
AcDbDimension
  2
*D20
 10
9412.90489172516
 20
5541.702645078843
 30
0.0
 11
11007.90489172516
 21
5541.702645078843
 31
0.0
 70
   160
 71
     5
 42
3190.0
  3
INABA_S40G
100
AcDbAlignedDimension
 13
12602.90489172516
 23
4857.931598713263
 33
0.0
 14
9412.90489172516
 24
4912.931598713266
 34
0.0
100
AcDbRotatedDimension
1001
ACAD
1000
DSTYLE
1002
{
1070
   174
1070
     0
1070
   272
1070
     1
1070
   288
1070
     0
1070
   341
1005
0
1002
}
  0
LINE
  5
172CC
330
747D
100
AcDbEntity
  8
部品1
100
AcDbLine
 10
9527.904891725167
 20
2537.931598713262
 30
0.0
 11
12522.90489172516
 21
2537.931598713262
 31
0.0
  0
LINE
  5
172CD
330
747D
100
AcDbEntity
  8
細線
 48
50.0
100
AcDbLine
 10
10025.40489172516
 20
4677.931598713261
 30
0.0
 11
10025.40489172516
 21
2587.931598713261
 31
0.0
  0
LINE
  5
172CE
330
747D
100
AcDbEntity
  8
細線
 48
50.0
100
AcDbLine
 10
10010.40489172516
 20
4677.931598713261
 30
0.0
 11
10010.40489172516
 21
2587.931598713261
 31
0.0
  0
LINE
  5
172CF
330
747D
100
AcDbEntity
  8
細線
 48
50.0
100
AcDbLine
 10
10150.40489172516
 20
4677.931598713261
 30
0.0
 11
10150.40489172516
 21
2587.931598713261
 31
0.0
  0
LINE
  5
172D0
330
747D
100
AcDbEntity
  8
細線
 48
50.0
100
AcDbLine
 10
10165.40489172516
 20
4677.931598713261
 30
0.0
 11
10165.40489172516
 21
2587.931598713261
 31
0.0
  0
LINE
  5
172D1
330
747D
100
AcDbEntity
  8
細線
 48
50.0
100
AcDbLine
 10
10305.40489172516
 20
4677.931598713261
 30
0.0
 11
10305.40489172516
 21
2587.931598713261
 31
0.0
  0
LINE
  5
172D2
330
747D
100
AcDbEntity
  8
細線
 48
50.0
100
AcDbLine
 10
10290.40489172516
 20
4677.931598713261
 30
0.0
 11
10290.40489172516
 21
2587.931598713261
 31
0.0
  0
LINE
  5
172D3
330
747D
100
AcDbEntity
  8
細線
 48
50.0
100
AcDbLine
 10
9870.404891725161
 20
4677.931598713261
 30
0.0
 11
9870.404891725161
 21
2587.931598713261
 31
0.0
  0
LINE
  5
172D4
330
747D
100
AcDbEntity
  8
細線
 48
50.0
100
AcDbLine
 10
9885.40489172516
 20
4677.931598713261
 30
0.0
 11
9885.40489172516
 21
2587.931598713261
 31
0.0
  0
LINE
  5
172D5
330
747D
100
AcDbEntity
  8
細線
 48
50.0
100
AcDbLine
 10
9745.404891725161
 20
4677.931598713261
 30
0.0
 11
9745.404891725161
 21
2587.931598713261
 31
0.0
  0
LINE
  5
172D6
330
747D
100
AcDbEntity
  8
細線
 48
50.0
100
AcDbLine
 10
9730.404891725161
 20
4677.931598713261
 30
0.0
 11
9730.404891725161
 21
2587.931598713261
 31
0.0
  0
LINE
  5
172D7
330
747D
100
AcDbEntity
  8
細線
 48
50.0
100
AcDbLine
 10
9590.40489172516
 20
4677.931598713261
 30
0.0
 11
9590.40489172516
 21
2587.931598713261
 31
0.0
  0
LINE
  5
172D8
330
747D
100
AcDbEntity
  8
細線
 48
50.0
100
AcDbLine
 10
9605.404891725161
 20
4677.931598713261
 30
0.0
 11
9605.404891725161
 21
2587.931598713261
 31
0.0
  0
DIMENSION
  5
172D9
330
747D
100
AcDbEntity
  8
寸法
 48
50.0
100
AcDbDimension
  2
*D21
 10
12602.90489172516
 20
5311.589052292568
 30
0.0
 11
12808.95213581965
 21
5311.589052292568
 31
0.0
 70
   160
 71
     5
 42
80.0
  3
INABA_S40G
100
AcDbAlignedDimension
 13
12522.90489172516
 23
4859.742278324916
 33
0.0
 14
12602.90489172516
 24
4857.931598713265
 34
0.0
100
AcDbRotatedDimension
1001
ACAD
1000
DSTYLE
1002
{
1070
   174
1070
     0
1070
   272
1070
     1
1070
   288
1070
     0
1070
   341
1005
0
1002
}
  0
LINE
  5
172DA
330
747D
100
AcDbEntity
  8
部品1
100
AcDbLine
 10
10367.90489172516
 20
4677.931598713261
 30
0.0
 11
10367.90489172516
 21
2587.931598713261
 31
0.0
  0
LINE
  5
172DB
330
747D
100
AcDbEntity
  8
細線
 48
50.0
100
AcDbLine
 10
10710.40489172516
 20
4677.931598713261
 30
0.0
 11
10710.40489172516
 21
2587.931598713261
 31
0.0
  0
LINE
  5
172DC
330
747D
100
AcDbEntity
  8
細線
 48
50.0
100
AcDbLine
 10
10725.40489172516
 20
4677.931598713261
 30
0.0
 11
10725.40489172516
 21
2587.931598713261
 31
0.0
  0
LINE
  5
172DD
330
747D
100
AcDbEntity
  8
細線
 48
50.0
100
AcDbLine
 10
10585.40489172516
 20
4677.931598713261
 30
0.0
 11
10585.40489172516
 21
2587.931598713261
 31
0.0
  0
LINE
  5
172DE
330
747D
100
AcDbEntity
  8
細線
 48
50.0
100
AcDbLine
 10
10570.40489172516
 20
4677.931598713261
 30
0.0
 11
10570.40489172516
 21
2587.931598713261
 31
0.0
  0
LINE
  5
172DF
330
747D
100
AcDbEntity
  8
細線
 48
50.0
100
AcDbLine
 10
10430.40489172516
 20
4677.931598713261
 30
0.0
 11
10430.40489172516
 21
2587.931598713261
 31
0.0
  0
LINE
  5
172E0
330
747D
100
AcDbEntity
  8
細線
 48
50.0
100
AcDbLine
 10
10445.40489172516
 20
4677.931598713261
 30
0.0
 11
10445.40489172516
 21
2587.931598713261
 31
0.0
  0
LINE
  5
172E1
330
747D
100
AcDbEntity
  8
部品1
100
AcDbLine
 10
10787.90489172516
 20
4677.931598713261
 30
0.0
 11
10787.90489172516
 21
2587.931598713261
 31
0.0
  0
LINE
  5
172E2
330
747D
100
AcDbEntity
  8
細線
 48
50.0
100
AcDbLine
 10
12125.40489172516
 20
4677.931598713263
 30
0.0
 11
12125.40489172516
 21
2587.931598713263
 31
0.0
  0
LINE
  5
172E3
330
747D
100
AcDbEntity
  8
細線
 48
50.0
100
AcDbLine
 10
12110.40489172516
 20
4677.931598713263
 30
0.0
 11
12110.40489172516
 21
2587.931598713263
 31
0.0
  0
LINE
  5
172E4
330
747D
100
AcDbEntity
  8
細線
 48
50.0
100
AcDbLine
 10
12250.40489172516
 20
4677.931598713263
 30
0.0
 11
12250.40489172516
 21
2587.931598713263
 31
0.0
  0
LINE
  5
172E5
330
747D
100
AcDbEntity
  8
細線
 48
50.0
100
AcDbLine
 10
12265.40489172516
 20
4677.931598713263
 30
0.0
 11
12265.40489172516
 21
2587.931598713263
 31
0.0
  0
LINE
  5
172E6
330
747D
100
AcDbEntity
  8
細線
 48
50.0
100
AcDbLine
 10
12405.40489172516
 20
4677.931598713263
 30
0.0
 11
12405.40489172516
 21
2587.931598713263
 31
0.0
  0
LINE
  5
172E7
330
747D
100
AcDbEntity
  8
細線
 48
50.0
100
AcDbLine
 10
12390.40489172516
 20
4677.931598713263
 30
0.0
 11
12390.40489172516
 21
2587.931598713263
 31
0.0
  0
DIMENSION
  5
172E8
330
747D
100
AcDbEntity
  8
寸法
 48
50.0
100
AcDbDimension
  2
*D22
 10
8852.296484956779
 20
4787.276857586593
 30
0.0
 11
8862.961960215702
 21
5158.123520828293
 31
0.0
 70
   161
 71
     5
 42
141.0
  3
INABA_S40G
100
AcDbAlignedDimension
 13
9432.300911883741
 23
4911.654347547941
 33
0.0
 14
9428.247456327113
 24
4770.712623782229
 34
0.0
1001
ACAD
1000
DSTYLE
1002
{
1070
   174
1070
     0
1070
   272
1070
     1
1070
   288
1070
     0
1070
   341
1005
0
1002
}
  0
LINE
  5
172E9
330
747D
100
AcDbEntity
  8
部品1
100
AcDbLine
 10
11627.90489172515
 20
4677.931598713261
 30
0.0
 11
11627.90489172515
 21
2587.931598713263
 31
0.0
  0
LINE
  5
172EA
330
747D
100
AcDbEntity
  8
細線
 48
50.0
100
AcDbLine
 10
11705.40489172516
 20
4677.931598713261
 30
0.0
 11
11705.40489172516
 21
2587.931598713263
 31
0.0
  0
LINE
  5
172EB
330
747D
100
AcDbEntity
  8
細線
 48
50.0
100
AcDbLine
 10
11690.40489172516
 20
4677.931598713261
 30
0.0
 11
11690.40489172516
 21
2587.931598713263
 31
0.0
  0
LINE
  5
172EC
330
747D
100
AcDbEntity
  8
細線
 48
50.0
100
AcDbLine
 10
11830.40489172516
 20
4677.931598713261
 30
0.0
 11
11830.40489172516
 21
2587.931598713263
 31
0.0
  0
LINE
  5
172ED
330
747D
100
AcDbEntity
  8
細線
 48
50.0
100
AcDbLine
 10
11845.40489172516
 20
4677.931598713261
 30
0.0
 11
11845.40489172516
 21
2587.931598713263
 31
0.0
  0
LINE
  5
172EE
330
747D
100
AcDbEntity
  8
細線
 48
50.0
100
AcDbLine
 10
11985.40489172516
 20
4677.931598713261
 30
0.0
 11
11985.40489172516
 21
2587.931598713263
 31
0.0
  0
LINE
  5
172EF
330
747D
100
AcDbEntity
  8
細線
 48
50.0
100
AcDbLine
 10
11970.40489172516
 20
4677.931598713261
 30
0.0
 11
11970.40489172516
 21
2587.931598713263
 31
0.0
  0
LINE
  5
172F0
330
747D
100
AcDbEntity
  8
部品1
100
AcDbLine
 10
12047.90489172514
 20
4677.931598713263
 30
0.0
 11
12047.90489172514
 21
2587.931598713265
 31
0.0
  0
LWPOLYLINE
  5
172F1
330
747D
100
AcDbEntity
  8
部品1
100
AcDbPolyline
 90
        4
 70
     1
 43
0.0
 10
10626.16955861094
 20
1787.931598713268
 10
10626.16955861094
 20
1548.039277167736
 10
11389.64022483938
 20
1548.039277167736
 10
11389.64022483938
 20
1787.931598713268
  0
TEXT
  5
172F2
330
747D
100
AcDbEntity
  8
部品1
100
AcDbText
 10
10715.61566003455
 20
1595.038069494745
 30
0.0
 40
135.0
  1
側面図
  7
STYLE2
100
AcDbText
  0
TEXT
  5
17335
330
747D
100
AcDbEntity
  8
文字
 62
     7
 48
50.0
100
AcDbText
 10
14528.81784699908
 20
483.8967129911416
 30
0.0
 40
160.0
  1
FXN-1730H
  7
MSGOTHIC
100
AcDbText
  0
DIMENSION
  5
181AA
330
747D
100
AcDbEntity
  8
寸法
 48
50.0
100
AcDbDimension
  2
*D26
 10
4992.069000782736
 20
5318.657870445171
 30
0.0
 11
5887.069000782736
 21
5318.657870445171
 31
0.0
 70
   160
  1
柱外寸法<>
 71
     5
 42
1789.999999999996
  3
INABA_S40G
100
AcDbAlignedDimension
 13
6782.069000782732
 23
4912.931598713268
 33
0.0
 14
4992.069000782736
 24
4912.931598713268
 34
0.0
100
AcDbRotatedDimension
  0
DIMENSION
  5
181AB
330
747D
100
AcDbEntity
  8
寸法
 48
50.0
100
AcDbDimension
  2
*D25
 10
6782.069000782732
 20
5318.657870445171
 30
0.0
 11
7145.554282156969
 21
5318.657870445171
 31
0.0
 70
   160
 71
     5
 42
49.99999999999636
  3
INABA_S40G
100
AcDbAlignedDimension
 13
6832.06900078273
 23
4912.931598713265
 33
0.0
 14
6782.069000782732
 24
4912.931598713268
 34
0.0
100
AcDbRotatedDimension
  0
DIMENSION
  5
181AC
330
747D
100
AcDbEntity
  8
寸法
 48
50.0
100
AcDbDimension
  2
*D24
 10
6832.06900078273
 20
5518.566791659261
 30
0.0
 11
5887.069000782736
 21
5518.566791659261
 31
0.0
 70
   160
 71
     5
 42
1889.999999999993
  3
INABA_S40G
100
AcDbAlignedDimension
 13
4942.069000782736
 23
4912.931598713268
 33
0.0
 14
6832.06900078273
 24
4912.931598713265
 34
0.0
100
AcDbRotatedDimension
  0
DIMENSION
  5
181AD
330
747D
100
AcDbEntity
  8
寸法
 48
50.0
100
AcDbDimension
  2
*D23
 10
4942.069000782736
 20
5318.657870445171
 30
0.0
 11
4628.583719408489
 21
5318.657870445171
 31
0.0
 70
   160
 71
     5
 42
50.0
  3
INABA_S40G
100
AcDbAlignedDimension
 13
4992.069000782736
 23
4912.931598713268
 33
0.0
 14
4942.069000782736
 24
4912.931598713268
 34
0.0
100
AcDbRotatedDimension
1001
ACAD
1000
DSTYLE
1002
{
1002
}
  0
ARC
  5
181AE
330
747D
100
AcDbEntity
  8
部品1
 48
0.01
100
AcDbCircle
 10
5570.069000782729
 20
4710.431598713261
 30
0.0
 40
2.0
100
AcDbArc
 50
270.0
 51
0.0
  0
ARC
  5
181AF
330
747D
100
AcDbEntity
  8
部品1
 48
0.01
100
AcDbCircle
 10
5570.069000782736
 20
4741.931598713261
 30
0.0
 40
2.0
100
AcDbArc
 50
0.0
 51
90.0
  0
ARC
  5
181B0
330
747D
100
AcDbEntity
  8
部品1
 48
0.01
100
AcDbCircle
 10
5394.069000782736
 20
4710.431598713261
 30
0.0
 40
2.0
100
AcDbArc
 50
180.0
 51
270.0
  0
ARC
  5
181B1
330
747D
100
AcDbEntity
  8
部品1
 48
0.01
100
AcDbCircle
 10
5394.069000782736
 20
4741.931598713261
 30
0.0
 40
2.0
100
AcDbArc
 50
90.0
 51
180.0
  0
LINE
  5
181B2
330
747D
100
AcDbEntity
  8
細線
100
AcDbLine
 10
5482.069000782729
 20
4714.431598713261
 30
0.0
 11
5556.069000782736
 21
4714.431598713261
 31
0.0
  0
LINE
  5
181B3
330
747D
100
AcDbEntity
  8
細線
100
AcDbLine
 10
5482.069000782736
 20
4737.431598713261
 30
0.0
 11
5408.069000782736
 21
4737.431598713261
 31
0.0
  0
LINE
  5
181B4
330
747D
100
AcDbEntity
  8
細線
100
AcDbLine
 10
5408.069000782736
 20
4714.431598713261
 30
0.0
 11
5482.069000782736
 21
4714.431598713261
 31
0.0
  0
LINE
  5
181B5
330
747D
100
AcDbEntity
  8
細線
100
AcDbLine
 10
5556.069000782736
 20
4737.431598713261
 30
0.0
 11
5482.069000782736
 21
4737.431598713261
 31
0.0
  0
LINE
  5
181B6
330
747D
100
AcDbEntity
  8
細線
100
AcDbLine
 10
5556.069000782736
 20
4714.431598713261
 30
0.0
 11
5556.069000782736
 21
4737.431598713261
 31
0.0
  0
LINE
  5
181B7
330
747D
100
AcDbEntity
  8
細線
100
AcDbLine
 10
5408.069000782736
 20
4737.431598713261
 30
0.0
 11
5408.069000782736
 21
4714.431598713261
 31
0.0
  0
LINE
  5
181B8
330
747D
100
AcDbEntity
  8
部品1
 48
0.01
100
AcDbLine
 10
5572.069000782729
 20
4710.431598713261
 30
0.0
 11
5572.069000782736
 21
4741.931598713261
 31
0.0
  0
LINE
  5
181B9
330
747D
100
AcDbEntity
  8
部品1
 48
0.01
100
AcDbLine
 10
5394.069000782736
 20
4708.431598713261
 30
0.0
 11
5570.069000782729
 21
4708.431598713261
 31
0.0
  0
LINE
  5
181BA
330
747D
100
AcDbEntity
  8
部品1
 48
0.01
100
AcDbLine
 10
5392.069000782736
 20
4741.931598713261
 30
0.0
 11
5392.069000782736
 21
4710.431598713261
 31
0.0
  0
LINE
  5
181BB
330
747D
100
AcDbEntity
  8
部品1
 48
0.01
100
AcDbLine
 10
5570.069000782736
 20
4743.931598713261
 30
0.0
 11
5394.069000782736
 21
4743.931598713261
 31
0.0
  0
LINE
  5
181BC
330
747D
100
AcDbEntity
  8
細線
100
AcDbLine
 10
5408.069000782736
 20
4731.431598713261
 30
0.0
 11
5482.069000782736
 21
4731.431598713261
 31
0.0
  0
LINE
  5
181BD
330
747D
100
AcDbEntity
  8
細線
100
AcDbLine
 10
5408.069000782736
 20
4725.431598713261
 30
0.0
 11
5482.069000782736
 21
4725.431598713261
 31
0.0
  0
LINE
  5
181BE
330
747D
100
AcDbEntity
  8
細線
100
AcDbLine
 10
5408.069000782728
 20
4719.431598713261
 30
0.0
 11
5482.069000782736
 21
4719.431598713261
 31
0.0
  0
LINE
  5
181BF
330
747D
100
AcDbEntity
  8
細線
100
AcDbLine
 10
5408.069000782736
 20
4731.431598713261
 30
0.0
 11
5477.069000782736
 21
4731.431598713261
 31
0.0
  0
LINE
  5
181C0
330
747D
100
AcDbEntity
  8
細線
100
AcDbLine
 10
5556.069000782729
 20
4731.431598713261
 30
0.0
 11
5482.069000782736
 21
4731.431598713261
 31
0.0
  0
LINE
  5
181C1
330
747D
100
AcDbEntity
  8
細線
100
AcDbLine
 10
5556.069000782729
 20
4719.431598713261
 30
0.0
 11
5482.069000782736
 21
4719.431598713261
 31
0.0
  0
LINE
  5
181C2
330
747D
100
AcDbEntity
  8
細線
100
AcDbLine
 10
5556.069000782729
 20
4725.431598713261
 30
0.0
 11
5482.069000782736
 21
4725.431598713261
 31
0.0
  0
LINE
  5
181C3
330
747D
100
AcDbEntity
  8
細線
100
AcDbLine
 10
5482.069000782736
 20
4737.431598713261
 30
0.0
 11
5482.069000782729
 21
4714.431598713261
 31
0.0
  0
LINE
  5
181C4
330
747D
100
AcDbEntity
  8
細線
100
AcDbLine
 10
6292.069000782729
 20
4737.431598713261
 30
0.0
 11
6292.069000782736
 21
4714.431598713261
 31
0.0
  0
LINE
  5
181C5
330
747D
100
AcDbEntity
  8
細線
100
AcDbLine
 10
6218.069000782737
 20
4725.431598713261
 30
0.0
 11
6292.069000782729
 21
4725.431598713261
 31
0.0
  0
LINE
  5
181C6
330
747D
100
AcDbEntity
  8
細線
100
AcDbLine
 10
6218.069000782737
 20
4719.431598713261
 30
0.0
 11
6292.069000782729
 21
4719.431598713261
 31
0.0
  0
LINE
  5
181C7
330
747D
100
AcDbEntity
  8
細線
100
AcDbLine
 10
6218.069000782737
 20
4731.431598713261
 30
0.0
 11
6292.069000782729
 21
4731.431598713261
 31
0.0
  0
LINE
  5
181C8
330
747D
100
AcDbEntity
  8
細線
100
AcDbLine
 10
6366.069000782729
 20
4731.431598713261
 30
0.0
 11
6297.069000782729
 21
4731.431598713261
 31
0.0
  0
LINE
  5
181C9
330
747D
100
AcDbEntity
  8
細線
100
AcDbLine
 10
6366.069000782736
 20
4719.431598713261
 30
0.0
 11
6292.069000782729
 21
4719.431598713261
 31
0.0
  0
LINE
  5
181CA
330
747D
100
AcDbEntity
  8
細線
100
AcDbLine
 10
6366.069000782729
 20
4725.431598713261
 30
0.0
 11
6292.069000782729
 21
4725.431598713261
 31
0.0
  0
LINE
  5
181CB
330
747D
100
AcDbEntity
  8
細線
100
AcDbLine
 10
6366.069000782729
 20
4731.431598713261
 30
0.0
 11
6292.069000782729
 21
4731.431598713261
 31
0.0
  0
LINE
  5
181CC
330
747D
100
AcDbEntity
  8
部品1
 48
0.01
100
AcDbLine
 10
6204.069000782729
 20
4743.931598713261
 30
0.0
 11
6380.069000782729
 21
4743.931598713261
 31
0.0
  0
LINE
  5
181CD
330
747D
100
AcDbEntity
  8
部品1
 48
0.01
100
AcDbLine
 10
6382.069000782728
 20
4741.931598713261
 30
0.0
 11
6382.069000782728
 21
4710.431598713261
 31
0.0
  0
LINE
  5
181CE
330
747D
100
AcDbEntity
  8
部品1
 48
0.01
100
AcDbLine
 10
6380.069000782729
 20
4708.431598713261
 30
0.0
 11
6204.069000782737
 21
4708.431598713261
 31
0.0
  0
LINE
  5
181CF
330
747D
100
AcDbEntity
  8
部品1
 48
0.01
100
AcDbLine
 10
6202.069000782736
 20
4710.431598713261
 30
0.0
 11
6202.069000782729
 21
4741.931598713261
 31
0.0
  0
LINE
  5
181D0
330
747D
100
AcDbEntity
  8
細線
100
AcDbLine
 10
6366.069000782729
 20
4737.431598713261
 30
0.0
 11
6366.069000782729
 21
4714.431598713261
 31
0.0
  0
LINE
  5
181D1
330
747D
100
AcDbEntity
  8
細線
100
AcDbLine
 10
6218.069000782729
 20
4714.431598713261
 30
0.0
 11
6218.069000782729
 21
4737.431598713261
 31
0.0
  0
LINE
  5
181D2
330
747D
100
AcDbEntity
  8
細線
100
AcDbLine
 10
6218.069000782729
 20
4737.431598713261
 30
0.0
 11
6292.069000782729
 21
4737.431598713261
 31
0.0
  0
LINE
  5
181D3
330
747D
100
AcDbEntity
  8
細線
100
AcDbLine
 10
6366.069000782729
 20
4714.431598713261
 30
0.0
 11
6292.069000782729
 21
4714.431598713261
 31
0.0
  0
LINE
  5
181D4
330
747D
100
AcDbEntity
  8
細線
100
AcDbLine
 10
6292.069000782729
 20
4737.431598713261
 30
0.0
 11
6366.069000782729
 21
4737.431598713261
 31
0.0
  0
LINE
  5
181D5
330
747D
100
AcDbEntity
  8
細線
100
AcDbLine
 10
6292.069000782736
 20
4714.431598713261
 30
0.0
 11
6218.069000782729
 21
4714.431598713261
 31
0.0
  0
ARC
  5
181D6
330
747D
100
AcDbEntity
  8
部品1
 48
0.01
100
AcDbCircle
 10
6380.069000782729
 20
4741.931598713261
 30
0.0
 40
2.0
100
AcDbArc
 50
0.0
 51
90.0
  0
ARC
  5
181D7
330
747D
100
AcDbEntity
  8
部品1
 48
0.01
100
AcDbCircle
 10
6380.069000782729
 20
4710.431598713261
 30
0.0
 40
2.0
100
AcDbArc
 50
270.0
 51
0.0
  0
ARC
  5
181D8
330
747D
100
AcDbEntity
  8
部品1
 48
0.01
100
AcDbCircle
 10
6204.069000782729
 20
4741.931598713261
 30
0.0
 40
2.0
100
AcDbArc
 50
90.0
 51
180.0
  0
ARC
  5
181D9
330
747D
100
AcDbEntity
  8
部品1
 48
0.01
100
AcDbCircle
 10
6204.069000782737
 20
4710.431598713261
 30
0.0
 40
2.0
100
AcDbArc
 50
180.0
 51
270.0
  0
LINE
  5
181DA
330
747D
100
AcDbEntity
  8
部品1
100
AcDbLine
 10
4942.488661798067
 20
4905.535073318027
 30
0.0
 11
4943.622059130415
 21
4885.558945335428
 31
0.0
  0
LINE
  5
181DB
330
747D
100
AcDbEntity
  8
部品1
100
AcDbLine
 10
4955.059079451988
 20
4789.901538168368
 30
0.0
 11
4955.703985259097
 21
4778.535073318027
 31
0.0
  0
LINE
  5
181DC
330
747D
100
AcDbEntity
  8
部品1
100
AcDbLine
 10
4946.823048927145
 20
4882.10153816837
 30
0.0
 11
4951.858089655252
 21
4793.358945335425
 31
0.0
  0
ARC
  5
181DD
330
747D
100
AcDbEntity
  8
部品1
 48
50.0
100
AcDbCircle
 10
4943.827866030959
 20
4881.931598713268
 30
0.0
 40
3.0
100
AcDbArc
 50
3.247342790337682
 51
82.34187279264869
  0
ARC
  5
181DE
330
747D
100
AcDbEntity
  8
部品1
 48
50.0
100
AcDbCircle
 10
4952.063896555802
 20
4789.731598713264
 30
0.0
 40
3.0
100
AcDbArc
 50
3.247342790337682
 51
82.34187279264869
  0
ARC
  5
181DF
330
747D
100
AcDbEntity
  8
部品1
 48
50.0
100
AcDbCircle
 10
4952.556965664363
 20
4793.39859787495
 30
0.0
 40
0.7
100
AcDbArc
 50
183.2473427903377
 51
262.3418727926487
  0
ARC
  5
181E0
330
747D
100
AcDbEntity
  8
部品1
 48
50.0
100
AcDbCircle
 10
4944.320935139519
 20
4885.598597874952
 30
0.0
 40
0.7
100
AcDbArc
 50
183.2473427903377
 51
262.3418727926487
  0
ARC
  5
181E1
330
747D
100
AcDbEntity
  8
部品1
100
AcDbCircle
 10
4962.692745350199
 20
4778.931598713269
 30
0.0
 40
7.0
100
AcDbArc
 50
183.2473427903377
 51
270.0
  0
ARC
  5
181E2
330
747D
100
AcDbEntity
  8
部品1
100
AcDbCircle
 10
4949.477421889162
 20
4905.931598713267
 30
0.0
 40
7.0
100
AcDbArc
 50
90.0
 51
183.2473427903377
  0
ARC
  5
181E3
330
747D
100
AcDbEntity
  8
部品1
100
AcDbCircle
 10
6824.660579676299
 20
4905.931598713267
 30
0.0
 40
7.0
100
AcDbArc
 50
356.7526572096623
 51
90.0
  0
ARC
  5
181E4
330
747D
100
AcDbEntity
  8
部品1
100
AcDbCircle
 10
6811.445256215264
 20
4778.931598713269
 30
0.0
 40
7.0
100
AcDbArc
 50
270.0
 51
356.7526572096623
  0
ARC
  5
181E5
330
747D
100
AcDbEntity
  8
部品1
 48
50.0
100
AcDbCircle
 10
6829.817066425942
 20
4885.598597874952
 30
0.0
 40
0.7
100
AcDbArc
 50
277.6581272073514
 51
356.7526572096623
  0
ARC
  5
181E6
330
747D
100
AcDbEntity
  8
部品1
 48
50.0
100
AcDbCircle
 10
6821.581035901101
 20
4793.39859787495
 30
0.0
 40
0.7
100
AcDbArc
 50
277.6581272073514
 51
356.7526572096623
  0
ARC
  5
181E7
330
747D
100
AcDbEntity
  8
部品1
 48
50.0
100
AcDbCircle
 10
6822.074105009662
 20
4789.731598713264
 30
0.0
 40
3.0
100
AcDbArc
 50
97.65812720735132
 51
176.7526572096623
  0
ARC
  5
181E8
330
747D
100
AcDbEntity
  8
部品1
 48
50.0
100
AcDbCircle
 10
6830.310135534507
 20
4881.931598713268
 30
0.0
 40
3.0
100
AcDbArc
 50
97.65812720735132
 51
176.7526572096623
  0
LINE
  5
181E9
330
747D
100
AcDbEntity
  8
部品1
100
AcDbLine
 10
6827.314952638321
 20
4882.10153816837
 30
0.0
 11
6822.279911910209
 21
4793.358945335425
 31
0.0
  0
LINE
  5
181EA
330
747D
100
AcDbEntity
  8
部品1
100
AcDbLine
 10
6819.078922113473
 20
4789.901538168368
 30
0.0
 11
6818.434016306364
 21
4778.535073318027
 31
0.0
  0
LINE
  5
181EB
330
747D
100
AcDbEntity
  8
細線
 48
50.0
100
AcDbLine
 10
4975.069000782736
 20
4912.931598713267
 30
0.0
 11
4975.069000782736
 21
4771.931598713266
 31
0.0
  0
LINE
  5
181EC
330
747D
100
AcDbEntity
  8
細線
 48
50.0
100
AcDbLine
 10
6799.069000782728
 20
4912.931598713267
 30
0.0
 11
6799.069000782728
 21
4771.931598713266
 31
0.0
  0
LINE
  5
181ED
330
747D
100
AcDbEntity
  8
部品1
100
AcDbLine
 10
6831.649339767398
 20
4905.535073318027
 30
0.0
 11
6830.515942435049
 21
4885.558945335428
 31
0.0
  0
LINE
  5
181EE
330
747D
100
AcDbEntity
  8
細線
 48
50.0
100
AcDbLine
 10
6821.793432036443
 20
4792.731598713262
 30
0.0
 11
4952.344569529007
 21
4792.731598713268
 31
0.0
  0
LINE
  5
181EF
330
747D
100
AcDbEntity
  8
細線
 48
50.0
100
AcDbLine
 10
6830.029462561295
 20
4884.931598713269
 30
0.0
 11
4944.108539004177
 21
4884.931598713265
 31
0.0
  0
LINE
  5
181F0
330
747D
100
AcDbEntity
  8
部品1
 48
50.0
100
AcDbLine
 10
6811.445256215264
 20
4771.931598713268
 30
0.0
 11
4962.692745350199
 21
4771.931598713268
 31
0.0
  0
LINE
  5
181F1
330
747D
100
AcDbEntity
  8
部品1
 48
50.0
100
AcDbLine
 10
6824.660579676299
 20
4912.931598713267
 30
0.0
 11
4949.477421889162
 21
4912.931598713268
 31
0.0
  0
LINE
  5
181F2
330
747D
100
AcDbEntity
  8
部品1
100
AcDbLine
 10
4992.069000782729
 20
4677.931598713261
 30
0.0
 11
6782.06900078273
 21
4677.931598713261
 31
0.0
  0
DIMENSION
  5
183A4
330
747D
100
AcDbEntity
  8
寸法
 48
50.0
100
AcDbDimension
  2
*D27
 10
7069.612103104477
 20
4485.931598713261
 30
0.0
 11
6969.612103104475
 21
3511.931598713263
 31
0.0
 70
    32
  1
有効開口部高サ <>
 71
     5
 42
1948.0
  3
INABA_S40G
100
AcDbAlignedDimension
 13
6782.069000782731
 23
2537.931598713262
 33
0.0
 14
6782.069000782731
 24
4485.931598713261
 34
0.0
 50
90.0
100
AcDbRotatedDimension
  0
DIMENSION
  5
183A5
330
747D
100
AcDbEntity
  8
寸法
 48
50.0
100
AcDbDimension
  2
*D28
 10
7069.612103104477
 20
4512.931598713262
 30
0.0
 11
7209.781926350842
 21
4513.89879855292
 31
0.0
 70
   160
 71
     5
 42
27.00000000000091
  3
INABA_S40G
100
AcDbAlignedDimension
 13
6782.069000782731
 23
4485.931598713261
 33
0.0
 14
6782.06900078273
 24
4512.931598713262
 34
0.0
 50
90.0
100
AcDbRotatedDimension
1001
ACAD
1000
DSTYLE
1002
{
1070
   279
1070
     2
1002
}
  0
DIMENSION
  5
183A6
330
747D
100
AcDbEntity
  8
寸法
 48
50.0
100
AcDbDimension
  2
*D29
 10
7069.612103104478
 20
4677.931598713261
 30
0.0
 11
7069.612103104477
 21
4916.416880087502
 31
0.0
 70
   160
 71
     5
 42
164.9999999999991
  3
INABA_S40G
100
AcDbAlignedDimension
 13
6782.06900078273
 23
4512.931598713262
 33
0.0
 14
6782.069000782731
 24
4677.931598713261
 34
0.0
 50
90.0
100
AcDbRotatedDimension
1001
ACAD
1000
DSTYLE
1002
{
1002
}
  0
TEXT
  5
184E2
330
747D
100
AcDbEntity
  8
文字
 62
     7
 48
50.0
100
AcDbText
 10
15022.63965474517
 20
10760.01374588372
 30
0.0
 40
100.0
  1
F12         1.0,1.2
  7
STYLE1
100
AcDbText
  0
TEXT
  5
184E6
330
747D
100
AcDbEntity
  8
文字
 62
     7
 48
50.0
100
AcDbText
 10
15022.63965474516
 20
9230.013745883729
 30
0.0
 40
100.0
  1
F12            0.7
  7
STYLE1
100
AcDbText
  0
ENDSEC
  0
SECTION
  2
OBJECTS
  0
DICTIONARY
  5
7471
330
0
100
AcDbDictionary
281
     1
  3
ACAD_COLOR
350
166AE
  3
ACAD_GROUP
350
7472
  3
ACAD_LAYOUT
350
166AF
  3
ACAD_MATERIAL
350
166AD
  3
ACAD_MLINESTYLE
350
7473
  3
ACAD_PLOTSETTINGS
350
166B0
  3
ACAD_PLOTSTYLENAME
350
166AB
  3
ACDBHEADERROUNDTRIPXREC
350
18542
  3
AcDbVariableDictionary
350
16C7E
  3
CONTENTDICTIONARY
350
E71C
  3
DRAWINGVARIABLESDICT
350
F3B9
  0
DICTIONARY
  5
170EA
330
7467
100
AcDbDictionary
280
     1
281
     1
  3
ACAD_LAYERSTATES
360
170EB
  0
DICTIONARY
  5
166AE
102
{ACAD_REACTORS
330
7471
102
}
330
7471
100
AcDbDictionary
281
     1
  0
DICTIONARY
  5
7472
102
{ACAD_REACTORS
330
7471
102
}
330
7471
100
AcDbDictionary
281
     1
  0
DICTIONARY
  5
166AF
102
{ACAD_REACTORS
330
7471
102
}
330
7471
100
AcDbDictionary
281
     1
  3
Model
350
166B1
  3
レイアウト1
350
166B2
  0
DICTIONARY
  5
166AD
102
{ACAD_REACTORS
330
7471
102
}
330
7471
100
AcDbDictionary
281
     1
  0
DICTIONARY
  5
7473
102
{ACAD_REACTORS
330
7471
102
}
330
7471
100
AcDbDictionary
281
     1
  3
STANDARD
350
7480
  0
DICTIONARY
  5
166B0
102
{ACAD_REACTORS
330
7471
102
}
330
7471
100
AcDbDictionary
281
     1
  0
ACDBDICTIONARYWDFLT
  5
166AB
102
{ACAD_REACTORS
330
7471
102
}
330
7471
100
AcDbDictionary
281
     1
  3
Normal
350
166AC
100
AcDbDictionaryWithDefault
340
166AC
  0
DICTIONARY
  5
18542
102
{ACAD_REACTORS
330
7471
102
}
330
7471
100
AcDbDictionary
281
     1
  3
COLORDICT
350
18544
  3
MATERIALDICT
350
18543
  0
DICTIONARY
  5
16C7E
102
{ACAD_REACTORS
330
7471
102
}
330
7471
100
AcDbDictionary
281
     1
  3
DIMASSOC
350
16C7F
  3
PROJECTNAME
350
16C80
  0
DICTIONARY
  5
E71C
102
{ACAD_REACTORS
330
7471
102
}
330
7471
100
AcDbDictionary
281
     1
  0
DICTIONARY
  5
F3B9
102
{ACAD_REACTORS
330
7471
102
}
330
7471
100
AcDbDictionary
281
     1
1001
DRAWINGVARIABLESXDATA
1000
POLARMODE
1000
1
  0
DICTIONARY
  5
170EB
102
{ACAD_REACTORS
330
170EA
102
}
330
170EA
100
AcDbDictionary
281
     1
  0
LAYOUT
  5
166B1
102
{ACAD_XDICTIONARY
360
18545
102
}
102
{ACAD_REACTORS
330
166AF
102
}
330
166AF
100
AcDbPlotSettings
  1

  2
Canon iR C3880/C4580 LIPSLX
  4
A3
  6

 40
5.873749732971191
 41
5.873747825622558
 42
5.873748779296875
 43
5.873748779296875
 44
296.9259948730469
 45
419.9466552734374
 46
0.0
 47
0.0
 48
0.0
 49
0.0
140
0.0
141
0.0
142
1.0
143
40.0
 70
 11952
 72
     1
 73
     1
 74
     2
  7
inaba.ctb
 75
    24
147
0.025
148
0.0
149
0.0
100
AcDbLayout
  1
Model
 70
     1
 71
     0
 10
0.0
 20
0.0
 11
12.0
 21
9.0
 12
0.0
 22
0.0
 32
0.0
 14
0.0
 24
0.0
 34
0.0
 15
0.0
 25
0.0
 35
0.0
146
0.0
 13
0.0
 23
0.0
 33
0.0
 16
1.0
 26
0.0
 36
0.0
 17
0.0
 27
1.0
 37
0.0
 76
     0
330
747D
  0
LAYOUT
  5
166B2
102
{ACAD_XDICTIONARY
360
18547
102
}
102
{ACAD_REACTORS
330
166AF
102
}
330
166AF
100
AcDbPlotSettings
  1

  2
EPSON LP-7000C
  4

  6

 40
0.0
 41
0.0
 42
0.0
 43
0.0
 44
0.0
 45
0.0
 46
0.0
 47
0.0
 48
0.0
 49
0.0
140
0.0
141
0.0
142
1.0
143
1.0
 70
   688
 72
     0
 73
     0
 74
     5
  7
inaba.ctb
 75
    16
147
1.0
148
0.0
149
0.0
100
AcDbLayout
  1
レイアウト1
 70
     0
 71
     1
 10
0.0
 20
0.0
 11
420.0
 21
297.0
 12
0.0
 22
0.0
 32
0.0
 14
1.000000000000000E+20
 24
1.000000000000000E+20
 34
1.000000000000000E+20
 15
-1.000000000000000E+20
 25
-1.000000000000000E+20
 35
-1.000000000000000E+20
146
0.0
 13
0.0
 23
0.0
 33
0.0
 16
1.0
 26
0.0
 36
0.0
 17
0.0
 27
1.0
 37
0.0
 76
     0
330
747A
  0
MLINESTYLE
  5
7480
102
{ACAD_REACTORS
330
7473
102
}
330
7473
100
AcDbMlineStyle
  2
STANDARD
 70
     0
  3

 62
     0
 51
90.0
 52
90.0
 71
     2
 49
0.5
 62
   256
  6
BYLAYER
 49
-0.5
 62
   256
  6
BYLAYER
  0
ACDBPLACEHOLDER
  5
166AC
102
{ACAD_REACTORS
330
166AB
102
}
330
166AB
  0
XRECORD
  5
18544
102
{ACAD_REACTORS
330
18542
102
}
330
18542
100
AcDbXrecord
280
     1
340
166AE
  0
XRECORD
  5
18543
102
{ACAD_REACTORS
330
18542
102
}
330
18542
100
AcDbXrecord
280
     1
340
166AD
  0
DICTIONARYVAR
  5
16C7F
102
{ACAD_REACTORS
330
16C7E
102
}
330
16C7E
100
DictionaryVariables
280
     0
  1
1
  0
DICTIONARYVAR
  5
16C80
102
{ACAD_REACTORS
330
16C7E
102
}
330
16C7E
100
DictionaryVariables
280
     0
  1

  0
DICTIONARY
  5
18545
330
166B1
100
AcDbDictionary
280
     1
281
     1
  3
ACAD_XREC_ROUNDTRIP
360
18546
  0
DICTIONARY
  5
18547
330
166B2
100
AcDbDictionary
280
     1
281
     1
  3
ACAD_XREC_ROUNDTRIP
360
18548
  0
XRECORD
  5
18546
102
{ACAD_REACTORS
330
18545
102
}
330
18545
100
AcDbXrecord
280
     1
102
SHADEPLOT
 70
     0
102
SHADEPLOTRESLEVEL
 70
     2
102
SHADEPLOTCUSTOMDPI
 70
   300
  0
XRECORD
  5
18548
102
{ACAD_REACTORS
330
18547
102
}
330
18547
100
AcDbXrecord
280
     1
102
SHADEPLOT
 70
     0
102
SHADEPLOTRESLEVEL
 70
     2
102
SHADEPLOTCUSTOMDPI
 70
   300
  0
ENDSEC
  0
EOF
