  0
SECTION
  2
HEADER
  9
$ACADVER
  1
AC1015
  9
$ACADMAINTVER
 70
    20
  9
$DWGCODEPAGE
  3
ANSI_932
  9
$INSBASE
 10
0.0
 20
0.0
 30
0.0
  9
$EXTMIN
 10
139.9999999999995
 20
-0.0000000000000909
 30
0.0
  9
$EXTMAX
 10
16307.2
 20
11409.6
 30
0.0
  9
$LIMMIN
 10
0.0
 20
0.0
  9
$LIMMAX
 10
16800.0
 20
11880.0
  9
$ORTHOMODE
 70
     0
  9
$REGENMODE
 70
     1
  9
$FILLMODE
 70
     1
  9
$QTEXTMODE
 70
     0
  9
$MIRRTEXT
 70
     1
  9
$LTSCALE
 40
20.0
  9
$ATTMODE
 70
     1
  9
$TEXTSIZE
 40
4.0
  9
$TRACEWID
 40
1.0
  9
$TEXTSTYLE
  7
MSPゴシック
  9
$CLAYER
  8
寸法
  9
$CELTYPE
  6
BYLAYER
  9
$CECOLOR
 62
   256
  9
$CELTSCALE
 40
50.0
  9
$DISPSILH
 70
     0
  9
$DIMSCALE
 40
40.0
  9
$DIMASZ
 40
2.5
  9
$DIMEXO
 40
0.5
  9
$DIMDLI
 40
7.0
  9
$DIMRND
 40
0.0
  9
$DIMDLE
 40
0.0
  9
$DIMEXE
 40
1.5
  9
$DIMTP
 40
0.0
  9
$DIMTM
 40
0.0
  9
$DIMTXT
 40
3.0
  9
$DIMCEN
 40
0.0
  9
$DIMTSZ
 40
0.0
  9
$DIMTOL
 70
     0
  9
$DIMLIM
 70
     0
  9
$DIMTIH
 70
     0
  9
$DIMTOH
 70
     0
  9
$DIMSE1
 70
     0
  9
$DIMSE2
 70
     0
  9
$DIMTAD
 70
     3
  9
$DIMZIN
 70
     8
  9
$DIMBLK
  1

  9
$DIMASO
 70
     1
  9
$DIMSHO
 70
     1
  9
$DIMPOST
  1

  9
$DIMAPOST
  1

  9
$DIMALT
 70
     0
  9
$DIMALTD
 70
     2
  9
$DIMALTF
 40
0.0394
  9
$DIMLFAC
 40
1.0
  9
$DIMTOFL
 70
     1
  9
$DIMTVP
 40
0.0
  9
$DIMTIX
 70
     1
  9
$DIMSOXD
 70
     0
  9
$DIMSAH
 70
     1
  9
$DIMBLK1
  1
DOTSMALL
  9
$DIMBLK2
  1
DOTSMALL
  9
$DIMSTYLE
  2
INABA_S40G
  9
$DIMCLRD
 70
     0
  9
$DIMCLRE
 70
     0
  9
$DIMCLRT
 70
     7
  9
$DIMTFAC
 40
1.0
  9
$DIMGAP
 40
1.0
  9
$DIMJUST
 70
     0
  9
$DIMSD1
 70
     0
  9
$DIMSD2
 70
     0
  9
$DIMTOLJ
 70
     1
  9
$DIMTZIN
 70
     0
  9
$DIMALTZ
 70
     0
  9
$DIMALTTZ
 70
     0
  9
$DIMUPT
 70
     0
  9
$DIMDEC
 70
     1
  9
$DIMTDEC
 70
     4
  9
$DIMALTU
 70
     2
  9
$DIMALTTD
 70
     2
  9
$DIMTXSTY
  7
STYLE1
  9
$DIMAUNIT
 70
     0
  9
$DIMADEC
 70
     0
  9
$DIMALTRND
 40
0.0
  9
$DIMAZIN
 70
     0
  9
$DIMDSEP
 70
    46
  9
$DIMATFIT
 70
     3
  9
$DIMFRAC
 70
     0
  9
$DIMLDRBLK
  1

  9
$DIMLUNIT
 70
     2
  9
$DIMLWD
 70
    -2
  9
$DIMLWE
 70
    -2
  9
$DIMTMOVE
 70
     2
  9
$LUNITS
 70
     2
  9
$LUPREC
 70
     1
  9
$SKETCHINC
 40
1.0
  9
$FILLETRAD
 40
3.0
  9
$AUNITS
 70
     0
  9
$AUPREC
 70
     0
  9
$MENU
  1
acad
  9
$ELEVATION
 40
0.0
  9
$PELEVATION
 40
0.0
  9
$THICKNESS
 40
0.0
  9
$LIMCHECK
 70
     0
  9
$CHAMFERA
 40
0.0
  9
$CHAMFERB
 40
0.0
  9
$CHAMFERC
 40
0.0
  9
$CHAMFERD
 40
0.0
  9
$SKPOLY
 70
     0
  9
$TDCREATE
 40
2451368.612993866
  9
$TDUCREATE
 40
2451368.237993866
  9
$TDUPDATE
 40
2455569.643632443
  9
$TDUUPDATE
 40
2455569.268632442
  9
$TDINDWG
 40
0.8696417245
  9
$TDUSRTIMER
 40
0.8696417245
  9
$USRTIMER
 70
     1
  9
$ANGBASE
 50
0.0
  9
$ANGDIR
 70
     0
  9
$PDMODE
 70
     3
  9
$PDSIZE
 40
2.0
  9
$PLINEWID
 40
0.0
  9
$SPLFRAME
 70
     0
  9
$SPLINETYPE
 70
     6
  9
$SPLINESEGS
 70
     8
  9
$HANDSEED
  5
1A263
  9
$SURFTAB1
 70
     6
  9
$SURFTAB2
 70
     6
  9
$SURFTYPE
 70
     6
  9
$SURFU
 70
     6
  9
$SURFV
 70
     6
  9
$UCSBASE
  2

  9
$UCSNAME
  2

  9
$UCSORG
 10
0.0
 20
0.0
 30
0.0
  9
$UCSXDIR
 10
1.0
 20
0.0
 30
0.0
  9
$UCSYDIR
 10
0.0
 20
1.0
 30
0.0
  9
$UCSORTHOREF
  2

  9
$UCSORTHOVIEW
 70
     0
  9
$UCSORGTOP
 10
0.0
 20
0.0
 30
0.0
  9
$UCSORGBOTTOM
 10
0.0
 20
0.0
 30
0.0
  9
$UCSORGLEFT
 10
0.0
 20
0.0
 30
0.0
  9
$UCSORGRIGHT
 10
0.0
 20
0.0
 30
0.0
  9
$UCSORGFRONT
 10
0.0
 20
0.0
 30
0.0
  9
$UCSORGBACK
 10
0.0
 20
0.0
 30
0.0
  9
$PUCSBASE
  2

  9
$PUCSNAME
  2

  9
$PUCSORG
 10
0.0
 20
0.0
 30
0.0
  9
$PUCSXDIR
 10
1.0
 20
0.0
 30
0.0
  9
$PUCSYDIR
 10
0.0
 20
1.0
 30
0.0
  9
$PUCSORTHOREF
  2

  9
$PUCSORTHOVIEW
 70
     0
  9
$PUCSORGTOP
 10
0.0
 20
0.0
 30
0.0
  9
$PUCSORGBOTTOM
 10
0.0
 20
0.0
 30
0.0
  9
$PUCSORGLEFT
 10
0.0
 20
0.0
 30
0.0
  9
$PUCSORGRIGHT
 10
0.0
 20
0.0
 30
0.0
  9
$PUCSORGFRONT
 10
0.0
 20
0.0
 30
0.0
  9
$PUCSORGBACK
 10
0.0
 20
0.0
 30
0.0
  9
$USERI1
 70
     0
  9
$USERI2
 70
     0
  9
$USERI3
 70
     0
  9
$USERI4
 70
     0
  9
$USERI5
 70
     0
  9
$USERR1
 40
0.0
  9
$USERR2
 40
0.0
  9
$USERR3
 40
0.0
  9
$USERR4
 40
0.0
  9
$USERR5
 40
0.0
  9
$WORLDVIEW
 70
     1
  9
$SHADEDGE
 70
     3
  9
$SHADEDIF
 70
    70
  9
$TILEMODE
 70
     1
  9
$MAXACTVP
 70
    16
  9
$PINSBASE
 10
0.0
 20
0.0
 30
0.0
  9
$PLIMCHECK
 70
     0
  9
$PEXTMIN
 10
1.000000000000000E+20
 20
1.000000000000000E+20
 30
1.000000000000000E+20
  9
$PEXTMAX
 10
-1.000000000000000E+20
 20
-1.000000000000000E+20
 30
-1.000000000000000E+20
  9
$PLIMMIN
 10
0.0
 20
0.0
  9
$PLIMMAX
 10
420.0
 20
297.0
  9
$UNITMODE
 70
     0
  9
$VISRETAIN
 70
     0
  9
$PLINEGEN
 70
     0
  9
$PSLTSCALE
 70
     0
  9
$TREEDEPTH
 70
  3020
  9
$CMLSTYLE
  2
STANDARD
  9
$CMLJUST
 70
     0
  9
$CMLSCALE
 40
1.0
  9
$PROXYGRAPHICS
 70
     1
  9
$MEASUREMENT
 70
     1
  9
$CELWEIGHT
370
    -1
  9
$ENDCAPS
280
     0
  9
$JOINSTYLE
280
     0
  9
$LWDISPLAY
290
     0
  9
$INSUNITS
 70
     0
  9
$HYPERLINKBASE
  1

  9
$STYLESHEET
  1
inaba.ctb
  9
$XEDIT
290
     1
  9
$CEPSNTYPE
380
     0
  9
$PSTYLEMODE
290
     1
  9
$FINGERPRINTGUID
  2
{0E4A3AB3-ADAA-44DC-861C-9525B65BB1EC}
  9
$VERSIONGUID
  2
{EB3D56B2-3911-420D-B862-1098FCAF0F75}
  9
$EXTNAMES
290
     1
  9
$PSVPSCALE
 40
0.0
  9
$OLESTARTUP
290
     0
  0
ENDSEC
  0
SECTION
  2
CLASSES
  0
CLASS
  1
ACDBDICTIONARYWDFLT
  2
AcDbDictionaryWithDefault
  3
ObjectDBX Classes
 90
        0
280
     0
281
     0
  0
CLASS
  1
DICTIONARYVAR
  2
AcDbDictionaryVar
  3
ObjectDBX Classes
 90
        0
280
     0
281
     0
  0
CLASS
  1
ACDBPLACEHOLDER
  2
AcDbPlaceHolder
  3
ObjectDBX Classes
 90
        0
280
     0
281
     0
  0
CLASS
  1
LAYOUT
  2
AcDbLayout
  3
ObjectDBX Classes
 90
        0
280
     0
281
     0
  0
ENDSEC
  0
SECTION
  2
TABLES
  0
TABLE
  2
VPORT
  5
746D
330
0
100
AcDbSymbolTable
 70
     2
  0
VPORT
  5
1A25B
330
746D
100
AcDbSymbolTableRecord
100
AcDbViewportTableRecord
  2
*Active
 70
     0
 10
0.0
 20
0.0
 11
1.0
 21
1.0
 12
11720.20566079003
 22
5704.608130720468
 13
0.0
 23
0.0
 14
10.0
 24
10.0
 15
10.0
 25
10.0
 16
0.0
 26
0.0
 36
1.0
 17
0.0
 27
0.0
 37
0.0
 40
11513.77443642125
 41
2.234800838574423
 42
50.0
 43
0.0
 44
0.0
 50
0.0
 51
0.0
 71
     0
 72
     0
 73
     1
 74
     0
 75
     0
 76
     0
 77
     0
 78
     0
281
     0
 65
     1
110
0.0
120
0.0
130
0.0
111
1.0
121
0.0
131
0.0
112
0.0
122
1.0
132
0.0
 79
     0
146
0.0
  0
ENDTAB
  0
TABLE
  2
LTYPE
  5
746A
330
0
100
AcDbSymbolTable
 70
     3
  0
LTYPE
  5
7477
330
746A
100
AcDbSymbolTableRecord
100
AcDbLinetypeTableRecord
  2
BYBLOCK
 70
     0
  3

 72
    65
 73
     0
 40
0.0
  0
LTYPE
  5
7478
330
746A
100
AcDbSymbolTableRecord
100
AcDbLinetypeTableRecord
  2
BYLAYER
 70
     0
  3

 72
    65
 73
     0
 40
0.0
  0
LTYPE
  5
7479
330
746A
100
AcDbSymbolTableRecord
100
AcDbLinetypeTableRecord
  2
CONTINUOUS
 70
     0
  3
Solid line
 72
    65
 73
     0
 40
0.0
  0
LTYPE
  5
781A
330
746A
100
AcDbSymbolTableRecord
100
AcDbLinetypeTableRecord
  2
HIDDEN
 70
     0
  3
__ __ __ __ __ __ __ __ __ __ __ __ __ __ __ __
 72
    65
 73
     2
 40
0.375
 49
0.25
 74
     0
 49
-0.125
 74
     0
  0
LTYPE
  5
781B
330
746A
100
AcDbSymbolTableRecord
100
AcDbLinetypeTableRecord
  2
PHANTOM
 70
     0
  3
______  __  __  ______  __  __  ______  __  __ 
 72
    65
 73
     6
 40
2.5
 49
1.25
 74
     0
 49
-0.25
 74
     0
 49
0.25
 74
     0
 49
-0.25
 74
     0
 49
0.25
 74
     0
 49
-0.25
 74
     0
  0
ENDTAB
  0
TABLE
  2
LAYER
  5
7467
102
{ACAD_XDICTIONARY
360
18CBA
102
}
330
0
100
AcDbSymbolTable
 70
    10
  0
LAYER
  5
7474
330
7467
100
AcDbSymbolTableRecord
100
AcDbLayerTableRecord
  2
0
 70
     0
 62
     7
  6
CONTINUOUS
370
    -3
390
17AE0
  0
LAYER
  5
DEB3
330
7467
100
AcDbSymbolTableRecord
100
AcDbLayerTableRecord
  2
寸法
 70
     0
 62
     4
  6
CONTINUOUS
370
    -3
390
17AE0
  0
LAYER
  5
DEB4
330
7467
100
AcDbSymbolTableRecord
100
AcDbLayerTableRecord
  2
部品1
 70
     0
 62
     7
  6
CONTINUOUS
370
    -3
390
17AE0
  0
LAYER
  5
DEB5
330
7467
100
AcDbSymbolTableRecord
100
AcDbLayerTableRecord
  2
補助
 70
     0
 62
    -1
  6
CONTINUOUS
370
    -3
390
17AE0
  0
LAYER
  5
DEB6
330
7467
100
AcDbSymbolTableRecord
100
AcDbLayerTableRecord
  2
文字
 70
     0
 62
     7
  6
CONTINUOUS
370
    -3
390
17AE0
  0
LAYER
  5
F255
330
7467
100
AcDbSymbolTableRecord
100
AcDbLayerTableRecord
  2
DEFPOINTS
 70
     0
 62
     7
  6
CONTINUOUS
290
     0
370
    -3
390
17AE0
  0
LAYER
  5
10B54
330
7467
100
AcDbSymbolTableRecord
100
AcDbLayerTableRecord
  2
仕様書枠
 70
     0
 62
   230
  6
CONTINUOUS
370
    -3
390
17AE0
  0
LAYER
  5
11729
330
7467
100
AcDbSymbolTableRecord
100
AcDbLayerTableRecord
  2
Ｇ．Ｌ
 70
     0
 62
    30
  6
CONTINUOUS
370
    -3
390
17AE0
  0
LAYER
  5
1173F
330
7467
100
AcDbSymbolTableRecord
100
AcDbLayerTableRecord
  2
細線
 70
     0
 62
     5
  6
CONTINUOUS
370
    -3
390
17AE0
  0
LAYER
  5
142E2
330
7467
100
AcDbSymbolTableRecord
100
AcDbLayerTableRecord
  2
破線
 70
     0
 62
     2
  6
HIDDEN
370
    -3
390
17AE0
  0
ENDTAB
  0
TABLE
  2
STYLE
  5
7468
330
0
100
AcDbSymbolTable
 70
     7
  0
STYLE
  5
7475
330
7468
100
AcDbSymbolTableRecord
100
AcDbTextStyleTableRecord
  2
STANDARD
 70
     0
 40
0.0
 41
1.0
 50
0.0
 71
     0
 42
4.0
  3
txt
  4
C:\AutoCAD LT\bigfont.shx
  0
STYLE
  5
763C
330
7468
100
AcDbSymbolTableRecord
100
AcDbTextStyleTableRecord
  2
MSMINCHO
 70
     0
 40
0.0
 41
1.0
 50
0.0
 71
     0
 42
1.199999999999999
  3
MS PMincho.ttf
  4

1001
ACAD
1000
MS PMincho
1071
    32786
  0
STYLE
  5
F706
330
7468
100
AcDbSymbolTableRecord
100
AcDbTextStyleTableRecord
  2
STYLE1
 70
     0
 40
0.0
 41
1.0
 50
0.0
 71
     0
 42
4.0
  3
isocp.shx
  4
bigfont.shx
  0
STYLE
  5
103BF
330
7468
100
AcDbSymbolTableRecord
100
AcDbTextStyleTableRecord
  2
STYLE2
 70
     0
 40
0.0
 41
1.0
 50
0.0
 71
     0
 42
100.0
  3
MS PGothic.ttf
  4

1001
ACAD
1000
MS PGothic
1071
    32818
  0
STYLE
  5
10BAA
330
7468
100
AcDbSymbolTableRecord
100
AcDbTextStyleTableRecord
  2
STYLE3
 70
     0
 40
0.0
 41
1.0
 50
0.0
 71
     0
 42
100.0
  3
DFPGothic-EB.ttf
  4

1001
ACAD
1000
DFPGothic-EB
1071
    32818
  0
STYLE
  5
11A15
330
7468
100
AcDbSymbolTableRecord
100
AcDbTextStyleTableRecord
  2
MSGOTHIC
 70
     0
 40
0.0
 41
1.0
 50
0.0
 71
     0
 42
3.5
  3
MS PGothic.ttf
  4

1001
ACAD
1000
MS PGothic
1071
    32818
  0
STYLE
  5
13E96
330
7468
100
AcDbSymbolTableRecord
100
AcDbTextStyleTableRecord
  2
MSPゴシック
 70
     0
 40
0.0
 41
1.0
 50
0.0
 71
     0
 42
4.0
  3
MS PGothic.ttf
  4

1001
ACAD
1000
MS PGothic
1071
    32818
  0
ENDTAB
  0
TABLE
  2
VIEW
  5
746B
330
0
100
AcDbSymbolTable
 70
     0
  0
ENDTAB
  0
TABLE
  2
UCS
  5
746C
330
0
100
AcDbSymbolTable
 70
     0
  0
ENDTAB
  0
TABLE
  2
APPID
  5
746E
330
0
100
AcDbSymbolTable
 70
     6
  0
APPID
  5
7476
330
746E
100
AcDbSymbolTableRecord
100
AcDbRegAppTableRecord
  2
ACAD
 70
     0
  0
APPID
  5
DEA9
330
746E
100
AcDbSymbolTableRecord
100
AcDbRegAppTableRecord
  2
CONTENTBLOCKICON
 70
     0
  0
APPID
  5
DEAA
330
746E
100
AcDbSymbolTableRecord
100
AcDbRegAppTableRecord
  2
CONTENTBLOCKDESCRIPTION
 70
     0
  0
APPID
  5
E71D
330
746E
100
AcDbSymbolTableRecord
100
AcDbRegAppTableRecord
  2
CONTENTTABDATA
 70
     0
  0
APPID
  5
E71E
330
746E
100
AcDbSymbolTableRecord
100
AcDbRegAppTableRecord
  2
CONTENTCURRENTTAB
 70
     0
  0
APPID
  5
F3BA
330
746E
100
AcDbSymbolTableRecord
100
AcDbRegAppTableRecord
  2
DRAWINGVARIABLESXDATA
 70
     0
  0
ENDTAB
  0
TABLE
  2
DIMSTYLE
  5
746F
330
0
100
AcDbSymbolTable
 70
     1
100
AcDbDimStyleTable
 71
     1
340
F71F
  0
DIMSTYLE
105
F71F
102
{ACAD_REACTORS
330
18F73
330
18F74
330
18F75
330
18FA5
330
18FA9
330
18FAA
330
18FAB
330
18FB9
330
18FC8
330
196D4
330
19753
330
19C69
330
19C6A
330
162CD
330
162CE
330
162CF
330
162D0
330
162E4
330
162E7
330
162EA
330
162EB
330
16301
330
16302
330
1631F
330
16320
330
16333
330
1659A
330
1659C
330
165E9
330
166DD
330
16913
330
17B86
330
17B87
330
17B88
330
17BC3
330
17BC4
330
17C46
330
17C47
330
19F27
330
19F28
330
19F29
102
}
330
746F
100
AcDbSymbolTableRecord
100
AcDbDimStyleTableRecord
  2
INABA_S40G
 70
     0
 40
40.0
 41
2.5
 42
0.5
 43
7.0
 44
1.5
 73
     0
 74
     0
 77
     3
 78
     8
140
3.0
141
0.0
143
0.0394
147
1.0
172
     1
173
     1
174
     1
178
     7
271
     1
340
F706
341
F770
343
F770
344
F770
  0
ENDTAB
  0
TABLE
  2
BLOCK_RECORD
  5
7466
330
0
100
AcDbSymbolTable
 70
    42
  0
BLOCK_RECORD
  5
747D
330
7466
100
AcDbSymbolTableRecord
100
AcDbBlockTableRecord
  2
*MODEL_SPACE
340
17AE5
  0
BLOCK_RECORD
  5
747A
330
7466
100
AcDbSymbolTableRecord
100
AcDbBlockTableRecord
  2
*PAPER_SPACE
340
17AE6
  0
BLOCK_RECORD
  5
F770
330
7466
100
AcDbSymbolTableRecord
100
AcDbBlockTableRecord
  2
_DOTSMALL
340
0
102
{BLKREFS
331
1966C
331
1966D
331
19676
331
19677
331
1968A
331
1968B
331
1969C
331
1969D
331
196A5
331
196A6
331
196AE
331
196AF
331
196CB
331
196CC
331
1973B
331
1973C
331
1979D
331
1979E
331
19CB3
331
19CB4
331
19CBD
331
19CBE
331
19D09
331
19D0A
331
19D14
331
19D15
331
19D1E
331
19D1F
331
19D34
331
19D35
331
19D3E
331
19D3F
331
19D52
331
19D53
331
19D5D
331
19D5E
331
19D69
331
19D6A
331
19D74
331
19D75
331
19D8F
331
19D90
331
19D98
331
19D99
331
19DA3
331
19DA4
331
19DAE
331
19DAF
331
19DB7
331
19DB8
331
1A01C
331
1A01D
331
1A0EB
331
1A0EC
331
1A0F4
331
1A0F5
331
1A0FF
331
1A100
331
1A106
331
1A107
331
1A111
331
1A112
331
1A11A
331
1A11B
331
1A123
331
1A124
331
1A12F
331
1A130
331
1A139
331
1A13A
331
1A144
331
1A145
331
1A14D
331
1A14E
331
1A213
331
1A214
331
1A21C
331
1A21D
331
1A23E
331
1A23F
331
1A247
331
1A248
102
}
  0
BLOCK_RECORD
  5
16338
330
7466
100
AcDbSymbolTableRecord
100
AcDbBlockTableRecord
  2
*D1
340
0
  0
BLOCK_RECORD
  5
16344
330
7466
100
AcDbSymbolTableRecord
100
AcDbBlockTableRecord
  2
*D2
340
0
  0
BLOCK_RECORD
  5
16352
330
7466
100
AcDbSymbolTableRecord
100
AcDbBlockTableRecord
  2
*D3
340
0
  0
BLOCK_RECORD
  5
16360
330
7466
100
AcDbSymbolTableRecord
100
AcDbBlockTableRecord
  2
*D4
340
0
  0
BLOCK_RECORD
  5
16384
330
7466
100
AcDbSymbolTableRecord
100
AcDbBlockTableRecord
  2
*D5
340
0
  0
BLOCK_RECORD
  5
1638F
330
7466
100
AcDbSymbolTableRecord
100
AcDbBlockTableRecord
  2
*D6
340
0
  0
BLOCK_RECORD
  5
1639B
330
7466
100
AcDbSymbolTableRecord
100
AcDbBlockTableRecord
  2
*D7
340
0
  0
BLOCK_RECORD
  5
163A9
330
7466
100
AcDbSymbolTableRecord
100
AcDbBlockTableRecord
  2
*D8
340
0
  0
BLOCK_RECORD
  5
163B8
330
7466
100
AcDbSymbolTableRecord
100
AcDbBlockTableRecord
  2
*D9
340
0
  0
BLOCK_RECORD
  5
163C7
330
7466
100
AcDbSymbolTableRecord
100
AcDbBlockTableRecord
  2
*D10
340
0
  0
BLOCK_RECORD
  5
163E1
330
7466
100
AcDbSymbolTableRecord
100
AcDbBlockTableRecord
  2
*D11
340
0
  0
BLOCK_RECORD
  5
163ED
330
7466
100
AcDbSymbolTableRecord
100
AcDbBlockTableRecord
  2
*D12
340
0
  0
BLOCK_RECORD
  5
163FB
330
7466
100
AcDbSymbolTableRecord
100
AcDbBlockTableRecord
  2
*D13
340
0
  0
BLOCK_RECORD
  5
165B5
330
7466
100
AcDbSymbolTableRecord
100
AcDbBlockTableRecord
  2
*D14
340
0
  0
BLOCK_RECORD
  5
165C4
330
7466
100
AcDbSymbolTableRecord
100
AcDbBlockTableRecord
  2
*D15
340
0
  0
BLOCK_RECORD
  5
165EA
330
7466
100
AcDbSymbolTableRecord
100
AcDbBlockTableRecord
  2
*D16
340
0
  0
BLOCK_RECORD
  5
166CF
330
7466
100
AcDbSymbolTableRecord
100
AcDbBlockTableRecord
  2
*D17
340
0
  0
BLOCK_RECORD
  5
16908
330
7466
100
AcDbSymbolTableRecord
100
AcDbBlockTableRecord
  2
*D18
340
0
  0
BLOCK_RECORD
  5
17BC5
330
7466
100
AcDbSymbolTableRecord
100
AcDbBlockTableRecord
  2
*D19
340
0
  0
BLOCK_RECORD
  5
17BD3
330
7466
100
AcDbSymbolTableRecord
100
AcDbBlockTableRecord
  2
*D20
340
0
  0
BLOCK_RECORD
  5
17BDE
330
7466
100
AcDbSymbolTableRecord
100
AcDbBlockTableRecord
  2
*D21
340
0
  0
BLOCK_RECORD
  5
17BEA
330
7466
100
AcDbSymbolTableRecord
100
AcDbBlockTableRecord
  2
*D22
340
0
  0
BLOCK_RECORD
  5
17BF8
330
7466
100
AcDbSymbolTableRecord
100
AcDbBlockTableRecord
  2
*D23
340
0
  0
BLOCK_RECORD
  5
17C48
330
7466
100
AcDbSymbolTableRecord
100
AcDbBlockTableRecord
  2
*D24
340
0
  0
BLOCK_RECORD
  5
17C56
330
7466
100
AcDbSymbolTableRecord
100
AcDbBlockTableRecord
  2
*D25
340
0
  0
BLOCK_RECORD
  5
1916C
330
7466
100
AcDbSymbolTableRecord
100
AcDbBlockTableRecord
  2
*D26
340
0
  0
BLOCK_RECORD
  5
19178
330
7466
100
AcDbSymbolTableRecord
100
AcDbBlockTableRecord
  2
*D27
340
0
  0
BLOCK_RECORD
  5
19184
330
7466
100
AcDbSymbolTableRecord
100
AcDbBlockTableRecord
  2
*D28
340
0
  0
BLOCK_RECORD
  5
19190
330
7466
100
AcDbSymbolTableRecord
100
AcDbBlockTableRecord
  2
*D29
340
0
  0
BLOCK_RECORD
  5
1919E
330
7466
100
AcDbSymbolTableRecord
100
AcDbBlockTableRecord
  2
*D30
340
0
  0
BLOCK_RECORD
  5
191AA
330
7466
100
AcDbSymbolTableRecord
100
AcDbBlockTableRecord
  2
*D31
340
0
  0
BLOCK_RECORD
  5
191B8
330
7466
100
AcDbSymbolTableRecord
100
AcDbBlockTableRecord
  2
*D32
340
0
  0
BLOCK_RECORD
  5
191C4
330
7466
100
AcDbSymbolTableRecord
100
AcDbBlockTableRecord
  2
*D33
340
0
  0
BLOCK_RECORD
  5
191D1
330
7466
100
AcDbSymbolTableRecord
100
AcDbBlockTableRecord
  2
*D34
340
0
  0
BLOCK_RECORD
  5
19710
330
7466
100
AcDbSymbolTableRecord
100
AcDbBlockTableRecord
  2
*D35
340
0
  0
BLOCK_RECORD
  5
1978A
330
7466
100
AcDbSymbolTableRecord
100
AcDbBlockTableRecord
  2
*D36
340
0
  0
BLOCK_RECORD
  5
19C6B
330
7466
100
AcDbSymbolTableRecord
100
AcDbBlockTableRecord
  2
*D37
340
0
  0
BLOCK_RECORD
  5
19C77
330
7466
100
AcDbSymbolTableRecord
100
AcDbBlockTableRecord
  2
*D38
340
0
  0
BLOCK_RECORD
  5
19F97
330
7466
100
AcDbSymbolTableRecord
100
AcDbBlockTableRecord
  2
*D39
340
0
  0
BLOCK_RECORD
  5
19FA4
330
7466
100
AcDbSymbolTableRecord
100
AcDbBlockTableRecord
  2
*D40
340
0
  0
BLOCK_RECORD
  5
19FB2
330
7466
100
AcDbSymbolTableRecord
100
AcDbBlockTableRecord
  2
*D41
340
0
  0
ENDTAB
  0
ENDSEC
  0
SECTION
  2
BLOCKS
  0
BLOCK
  5
7489
330
747D
100
AcDbEntity
  8
0
100
AcDbBlockBegin
  2
*MODEL_SPACE
 70
     0
 10
0.0
 20
0.0
 30
0.0
  3
*MODEL_SPACE
  1

  0
ENDBLK
  5
748A
330
747D
100
AcDbEntity
  8
0
100
AcDbBlockEnd
  0
BLOCK
  5
7487
330
747A
100
AcDbEntity
 67
     1
  8
0
100
AcDbBlockBegin
  2
*PAPER_SPACE
 70
     0
 10
0.0
 20
0.0
 30
0.0
  3
*PAPER_SPACE
  1

  0
ENDBLK
  5
7488
330
747A
100
AcDbEntity
 67
     1
  8
0
100
AcDbBlockEnd
  0
BLOCK
  5
F771
330
F770
100
AcDbEntity
  8
0
 48
50.0
100
AcDbBlockBegin
  2
_DOTSMALL
 70
     0
 10
0.0
 20
0.0
 30
0.0
  3
_DOTSMALL
  1

  0
LWPOLYLINE
  5
F772
330
F770
100
AcDbEntity
  8
0
  6
ByBlock
 62
     0
 48
50.0
100
AcDbPolyline
 90
        2
 70
     1
 43
0.5
 10
-0.0625
 20
0.0
 42
1.0
 10
0.0625
 20
0.0
 42
1.0
  0
ENDBLK
  5
F776
330
F770
100
AcDbEntity
  8
0
 48
50.0
100
AcDbBlockEnd
  0
BLOCK
  5
164EB
330
16338
100
AcDbEntity
  8
0
 48
50.0
100
AcDbBlockBegin
  2
*D1
 70
     1
 10
0.0
 20
0.0
 30
0.0
  3
*D1
  1

  0
LINE
  5
19DB4
330
16338
100
AcDbEntity
  8
寸法
 62
     0
 48
50.0
370
    -2
100
AcDbLine
 10
8289.673057123664
 20
10069.52987234387
 30
0.0
 11
8977.099402858071
 21
10069.52987234387
 31
0.0
  0
LINE
  5
19DB5
330
16338
100
AcDbEntity
  8
寸法
 62
     0
 48
50.0
370
    -2
100
AcDbLine
 10
8289.673057123639
 20
7549.529872343853
 30
0.0
 11
8977.099402858071
 21
7549.529872343853
 31
0.0
  0
LINE
  5
19DB6
330
16338
100
AcDbEntity
  8
寸法
 62
     0
 48
50.0
370
    -2
100
AcDbLine
 10
8917.099402858069
 20
10069.52987234387
 30
0.0
 11
8917.099402858069
 21
7549.529872343853
 31
0.0
  0
INSERT
  5
19DB7
330
16338
100
AcDbEntity
  8
寸法
 62
     0
 48
50.0
370
    -2
100
AcDbBlockReference
  2
_DOTSMALL
 10
8917.099402858069
 20
10069.52987234387
 30
0.0
 41
100.0
 42
100.0
 43
100.0
 50
90.0
  0
INSERT
  5
19DB8
330
16338
100
AcDbEntity
  8
寸法
 62
     0
 48
50.0
370
    -2
100
AcDbBlockReference
  2
_DOTSMALL
 10
8917.099402858069
 20
7549.529872343853
 30
0.0
 41
100.0
 42
100.0
 43
100.0
 50
270.0
  0
MTEXT
  5
19DB9
330
16338
100
AcDbEntity
  8
寸法
 62
     7
 48
50.0
100
AcDbMText
 10
8817.087591834447
 20
8809.529872343864
 30
0.0
 40
120.0
 41
0.0
 71
     5
 72
     1
  1
\A1;6X420=2520
  7
STYLE1
 11
0.0000000000000001
 21
1.0
 31
0.0
 73
     1
 44
1.0
1001
ACAD
1000
MTEXTBEGIN
1070
    73
1070
     1
1070
    44
1040
1.0
1070
    74
1070
     0
1000
MTEXTEND
  0
POINT
  5
19DBA
330
16338
100
AcDbEntity
  8
DEFPOINTS
 62
     0
 48
50.0
100
AcDbPoint
 10
8269.673057123664
 20
10069.52987234387
 30
0.0
  0
POINT
  5
19DBB
330
16338
100
AcDbEntity
  8
DEFPOINTS
 62
     0
 48
50.0
100
AcDbPoint
 10
8269.673057123638
 20
7549.529872343853
 30
0.0
  0
POINT
  5
19DBC
330
16338
100
AcDbEntity
  8
DEFPOINTS
 62
     0
 48
50.0
100
AcDbPoint
 10
8917.099402858069
 20
7549.529872343853
 30
0.0
  0
ENDBLK
  5
164F5
330
16338
100
AcDbEntity
  8
0
 48
50.0
100
AcDbBlockEnd
  0
BLOCK
  5
16414
330
16344
100
AcDbEntity
  8
0
 48
50.0
100
AcDbBlockBegin
  2
*D2
 70
     1
 10
0.0
 20
0.0
 30
0.0
  3
*D2
  1

  0
LINE
  5
19DA9
330
16344
100
AcDbEntity
  8
寸法
 62
     0
 48
50.0
370
    -2
100
AcDbLine
 10
8289.673057123639
 20
7549.529872343853
 30
0.0
 11
8977.099402858049
 21
7549.529872343853
 31
0.0
  0
LINE
  5
19DAA
330
16344
100
AcDbEntity
  8
寸法
 62
     0
 48
50.0
370
    -2
100
AcDbLine
 10
8289.673057123639
 20
7494.529872343857
 30
0.0
 11
8977.099402858049
 21
7494.529872343857
 31
0.0
  0
LINE
  5
19DAB
330
16344
100
AcDbEntity
  8
寸法
 62
     0
 48
50.0
370
    -2
100
AcDbLine
 10
8917.099402858049
 20
7549.529872343853
 30
0.0
 11
8917.099402858049
 21
7649.529872343854
 31
0.0
  0
LINE
  5
19DAC
330
16344
100
AcDbEntity
  8
寸法
 62
     0
 48
50.0
370
    -2
100
AcDbLine
 10
8917.099402858049
 20
7494.529872343857
 30
0.0
 11
8917.099402858049
 21
7008.183124064756
 31
0.0
  0
LINE
  5
19DAD
330
16344
100
AcDbEntity
  8
寸法
 62
     0
 48
50.0
370
    -2
100
AcDbLine
 10
8917.099402858049
 20
7549.529872343853
 30
0.0
 11
8917.099402858049
 21
7494.529872343857
 31
0.0
  0
INSERT
  5
19DAE
330
16344
100
AcDbEntity
  8
寸法
 62
     0
 48
50.0
370
    -2
100
AcDbBlockReference
  2
_DOTSMALL
 10
8917.099402858049
 20
7549.529872343853
 30
0.0
 41
100.0
 42
100.0
 43
100.0
 50
270.0
  0
INSERT
  5
19DAF
330
16344
100
AcDbEntity
  8
寸法
 62
     0
 48
50.0
370
    -2
100
AcDbBlockReference
  2
_DOTSMALL
 10
8917.099402858049
 20
7494.529872343857
 30
0.0
 41
100.0
 42
100.0
 43
100.0
 50
90.0
  0
MTEXT
  5
19DB0
330
16344
100
AcDbEntity
  8
寸法
 62
     7
 48
50.0
100
AcDbMText
 10
8817.099402858048
 20
7116.668405438996
 30
0.0
 40
120.0
 41
0.0
 71
     5
 72
     1
  1
\A1;55
  7
STYLE1
 11
0.0000000000000001
 21
1.0
 31
0.0
 73
     1
 44
1.0
1001
ACAD
1000
MTEXTBEGIN
1070
    73
1070
     1
1070
    44
1040
1.0
1070
    74
1070
     0
1000
MTEXTEND
  0
POINT
  5
19DB1
330
16344
100
AcDbEntity
  8
DEFPOINTS
 62
     0
 48
50.0
100
AcDbPoint
 10
8269.673057123638
 20
7549.529872343853
 30
0.0
  0
POINT
  5
19DB2
330
16344
100
AcDbEntity
  8
DEFPOINTS
 62
     0
 48
50.0
100
AcDbPoint
 10
8269.673057123638
 20
7494.529872343857
 30
0.0
  0
POINT
  5
19DB3
330
16344
100
AcDbEntity
  8
DEFPOINTS
 62
     0
 48
50.0
100
AcDbPoint
 10
8917.099402858049
 20
7494.529872343857
 30
0.0
  0
ENDBLK
  5
16420
330
16344
100
AcDbEntity
  8
0
 48
50.0
100
AcDbBlockEnd
  0
BLOCK
  5
16421
330
16352
100
AcDbEntity
  8
0
 48
50.0
100
AcDbBlockBegin
  2
*D3
 70
     1
 10
0.0
 20
0.0
 30
0.0
  3
*D3
  1

  0
LINE
  5
19D9E
330
16352
100
AcDbEntity
  8
寸法
 62
     0
 48
50.0
370
    -2
100
AcDbLine
 10
8289.673057123664
 20
10124.52987234386
 30
0.0
 11
8977.099402858076
 21
10124.52987234386
 31
0.0
  0
LINE
  5
19D9F
330
16352
100
AcDbEntity
  8
寸法
 62
     0
 48
50.0
370
    -2
100
AcDbLine
 10
8289.673057123664
 20
10069.52987234387
 30
0.0
 11
8977.099402858076
 21
10069.52987234387
 31
0.0
  0
LINE
  5
19DA0
330
16352
100
AcDbEntity
  8
寸法
 62
     0
 48
50.0
370
    -2
100
AcDbLine
 10
8917.099402858076
 20
10069.52987234387
 30
0.0
 11
8917.099402858076
 21
9969.529872343869
 31
0.0
  0
LINE
  5
19DA1
330
16352
100
AcDbEntity
  8
寸法
 62
     0
 48
50.0
370
    -2
100
AcDbLine
 10
8917.099402858076
 20
10124.52987234386
 30
0.0
 11
8917.099402858076
 21
10541.50043509234
 31
0.0
  0
LINE
  5
19DA2
330
16352
100
AcDbEntity
  8
寸法
 62
     0
 48
50.0
370
    -2
100
AcDbLine
 10
8917.099402858076
 20
10069.52987234387
 30
0.0
 11
8917.099402858076
 21
10124.52987234386
 31
0.0
  0
INSERT
  5
19DA3
330
16352
100
AcDbEntity
  8
寸法
 62
     0
 48
50.0
370
    -2
100
AcDbBlockReference
  2
_DOTSMALL
 10
8917.099402858076
 20
10069.52987234387
 30
0.0
 41
100.0
 42
100.0
 43
100.0
 50
90.0
  0
INSERT
  5
19DA4
330
16352
100
AcDbEntity
  8
寸法
 62
     0
 48
50.0
370
    -2
100
AcDbBlockReference
  2
_DOTSMALL
 10
8917.099402858076
 20
10124.52987234386
 30
0.0
 41
100.0
 42
100.0
 43
100.0
 50
270.0
  0
MTEXT
  5
19DA5
330
16352
100
AcDbEntity
  8
寸法
 62
     7
 48
50.0
100
AcDbMText
 10
8817.099402858074
 20
10433.0151537181
 30
0.0
 40
120.0
 41
0.0
 71
     5
 72
     1
  1
\A1;55
  7
STYLE1
 11
0.0000000000000001
 21
1.0
 31
0.0
 73
     1
 44
1.0
1001
ACAD
1000
MTEXTBEGIN
1070
    73
1070
     1
1070
    44
1040
1.0
1070
    74
1070
     0
1000
MTEXTEND
  0
POINT
  5
19DA6
330
16352
100
AcDbEntity
  8
DEFPOINTS
 62
     0
 48
50.0
100
AcDbPoint
 10
8269.673057123664
 20
10124.52987234386
 30
0.0
  0
POINT
  5
19DA7
330
16352
100
AcDbEntity
  8
DEFPOINTS
 62
     0
 48
50.0
100
AcDbPoint
 10
8269.673057123664
 20
10069.52987234387
 30
0.0
  0
POINT
  5
19DA8
330
16352
100
AcDbEntity
  8
DEFPOINTS
 62
     0
 48
50.0
100
AcDbPoint
 10
8917.099402858076
 20
10069.52987234387
 30
0.0
  0
ENDBLK
  5
1642D
330
16352
100
AcDbEntity
  8
0
 48
50.0
100
AcDbBlockEnd
  0
BLOCK
  5
164CA
330
16360
100
AcDbEntity
  8
0
 48
50.0
100
AcDbBlockBegin
  2
*D4
 70
     1
 10
0.0
 20
0.0
 30
0.0
  3
*D4
  1

  0
LINE
  5
19D95
330
16360
100
AcDbEntity
  8
寸法
 62
     0
 48
50.0
370
    -2
100
AcDbLine
 10
8289.673057123664
 20
10124.52987234386
 30
0.0
 11
9342.206344597709
 21
10124.52987234386
 31
0.0
  0
LINE
  5
19D96
330
16360
100
AcDbEntity
  8
寸法
 62
     0
 48
50.0
370
    -2
100
AcDbLine
 10
8289.673057123639
 20
7494.529872343857
 30
0.0
 11
9342.206344597709
 21
7494.529872343857
 31
0.0
  0
LINE
  5
19D97
330
16360
100
AcDbEntity
  8
寸法
 62
     0
 48
50.0
370
    -2
100
AcDbLine
 10
9282.206344597708
 20
10124.52987234386
 30
0.0
 11
9282.206344597708
 21
7494.529872343857
 31
0.0
  0
INSERT
  5
19D98
330
16360
100
AcDbEntity
  8
寸法
 62
     0
 48
50.0
370
    -2
100
AcDbBlockReference
  2
_DOTSMALL
 10
9282.206344597708
 20
10124.52987234386
 30
0.0
 41
100.0
 42
100.0
 43
100.0
 50
90.0
  0
INSERT
  5
19D99
330
16360
100
AcDbEntity
  8
寸法
 62
     0
 48
50.0
370
    -2
100
AcDbBlockReference
  2
_DOTSMALL
 10
9282.206344597708
 20
7494.529872343857
 30
0.0
 41
100.0
 42
100.0
 43
100.0
 50
270.0
  0
MTEXT
  5
19D9A
330
16360
100
AcDbEntity
  8
寸法
 62
     7
 48
50.0
100
AcDbMText
 10
9182.194533574087
 20
8809.529872343864
 30
0.0
 40
120.0
 41
0.0
 71
     5
 72
     1
  1
\A1;2630
  7
STYLE1
 11
0.0000000000000001
 21
1.0
 31
0.0
 73
     1
 44
1.0
1001
ACAD
1000
MTEXTBEGIN
1070
    73
1070
     1
1070
    44
1040
1.0
1070
    74
1070
     0
1000
MTEXTEND
  0
POINT
  5
19D9B
330
16360
100
AcDbEntity
  8
DEFPOINTS
 62
     0
 48
50.0
100
AcDbPoint
 10
8269.673057123664
 20
10124.52987234386
 30
0.0
  0
POINT
  5
19D9C
330
16360
100
AcDbEntity
  8
DEFPOINTS
 62
     0
 48
50.0
100
AcDbPoint
 10
8269.673057123638
 20
7494.529872343857
 30
0.0
  0
POINT
  5
19D9D
330
16360
100
AcDbEntity
  8
DEFPOINTS
 62
     0
 48
50.0
100
AcDbPoint
 10
9282.206344597708
 20
7494.529872343857
 30
0.0
  0
ENDBLK
  5
164D4
330
16360
100
AcDbEntity
  8
0
 48
50.0
100
AcDbBlockEnd
  0
BLOCK
  5
1728C
330
16384
100
AcDbEntity
  8
0
 48
50.0
100
AcDbBlockBegin
  2
*D5
 70
     1
 10
0.0
 20
0.0
 30
0.0
  3
*D5
  1

  0
LINE
  5
19D8D
330
16384
100
AcDbEntity
  8
寸法
 62
     0
 48
50.0
370
    -2
100
AcDbLine
 10
6582.673057123656
 20
7500.529872343766
 30
0.0
 11
6582.673057123656
 21
6900.099101577602
 31
0.0
  0
LINE
  5
19D8E
330
16384
100
AcDbEntity
  8
寸法
 62
     0
 48
50.0
370
    -2
100
AcDbLine
 10
8166.673057123638
 20
6960.099101577601
 30
0.0
 11
6582.673057123656
 21
6960.099101577601
 31
0.0
  0
INSERT
  5
19D8F
330
16384
100
AcDbEntity
  8
寸法
 62
     0
 48
50.0
370
    -2
100
AcDbBlockReference
  2
_DOTSMALL
 10
8166.673057123638
 20
6960.099101577601
 30
0.0
 41
100.0
 42
100.0
 43
100.0
  0
INSERT
  5
19D90
330
16384
100
AcDbEntity
  8
寸法
 62
     0
 48
50.0
370
    -2
100
AcDbBlockReference
  2
_DOTSMALL
 10
6582.673057123656
 20
6960.099101577601
 30
0.0
 41
100.0
 42
100.0
 43
100.0
 50
180.0
  0
MTEXT
  5
19D91
330
16384
100
AcDbEntity
  8
寸法
 62
     7
 48
50.0
100
AcDbMText
 10
7374.673057123648
 20
7160.099101577602
 30
0.0
 40
120.0
 41
0.0
 71
     5
 72
     1
  1
\A1;有効開口部間口\P 1584
  7
STYLE1
 73
     1
 44
1.0
1001
ACAD
1000
MTEXTBEGIN
1070
    73
1070
     1
1070
    44
1040
1.0
1070
    74
1070
     0
1000
MTEXTEND
  0
POINT
  5
19D92
330
16384
100
AcDbEntity
  8
DEFPOINTS
 62
     0
 48
50.0
100
AcDbPoint
 10
8166.673057123638
 20
7520.529872343766
 30
0.0
  0
POINT
  5
19D93
330
16384
100
AcDbEntity
  8
DEFPOINTS
 62
     0
 48
50.0
100
AcDbPoint
 10
6582.673057123656
 20
7520.529872343765
 30
0.0
  0
POINT
  5
19D94
330
16384
100
AcDbEntity
  8
DEFPOINTS
 62
     0
 48
50.0
100
AcDbPoint
 10
6582.673057123656
 20
6960.099101577601
 30
0.0
  0
ENDBLK
  5
17295
330
16384
100
AcDbEntity
  8
0
 48
50.0
100
AcDbBlockEnd
  0
BLOCK
  5
17261
330
1638F
100
AcDbEntity
  8
0
 48
50.0
100
AcDbBlockBegin
  2
*D6
 70
     1
 10
0.0
 20
0.0
 30
0.0
  3
*D6
  1

  0
LINE
  5
1A14A
330
1638F
100
AcDbEntity
  8
寸法
 62
     0
 48
50.0
370
    -2
100
AcDbLine
 10
2899.673057123657
 20
7474.529872343726
 30
0.0
 11
2899.673057123657
 21
6453.926105986727
 31
0.0
  0
LINE
  5
1A14B
330
1638F
100
AcDbEntity
  8
寸法
 62
     0
 48
50.0
370
    -2
100
AcDbLine
 10
8269.673057123627
 20
7474.529872343858
 30
0.0
 11
8269.673057123627
 21
6453.926105986727
 31
0.0
  0
LINE
  5
1A14C
330
1638F
100
AcDbEntity
  8
寸法
 62
     0
 48
50.0
370
    -2
100
AcDbLine
 10
2899.673057123657
 20
6513.926105986728
 30
0.0
 11
8269.673057123627
 21
6513.926105986728
 31
0.0
  0
INSERT
  5
1A14D
330
1638F
100
AcDbEntity
  8
寸法
 62
     0
 48
50.0
370
    -2
100
AcDbBlockReference
  2
_DOTSMALL
 10
2899.673057123657
 20
6513.926105986728
 30
0.0
 41
100.0
 42
100.0
 43
100.0
 50
180.0
  0
INSERT
  5
1A14E
330
1638F
100
AcDbEntity
  8
寸法
 62
     0
 48
50.0
370
    -2
100
AcDbBlockReference
  2
_DOTSMALL
 10
8269.673057123627
 20
6513.926105986728
 30
0.0
 41
100.0
 42
100.0
 43
100.0
  0
MTEXT
  5
1A14F
330
1638F
100
AcDbEntity
  8
寸法
 62
     7
 48
50.0
100
AcDbMText
 10
5584.673057123642
 20
6613.926105986728
 30
0.0
 40
120.0
 41
0.0
 71
     5
 72
     1
  1
\A1;N X 1790
  7
STYLE1
 73
     1
 44
1.0
1001
ACAD
1000
MTEXTBEGIN
1070
    73
1070
     1
1070
    44
1040
1.0
1070
    74
1070
     0
1000
MTEXTEND
  0
POINT
  5
1A150
330
1638F
100
AcDbEntity
  8
DEFPOINTS
 62
     0
 48
50.0
100
AcDbPoint
 10
2899.673057123657
 20
7494.529872343726
 30
0.0
  0
POINT
  5
1A151
330
1638F
100
AcDbEntity
  8
DEFPOINTS
 62
     0
 48
50.0
100
AcDbPoint
 10
8269.673057123627
 20
7494.529872343857
 30
0.0
  0
POINT
  5
1A152
330
1638F
100
AcDbEntity
  8
DEFPOINTS
 62
     0
 48
50.0
100
AcDbPoint
 10
8269.673057123627
 20
6513.926105986728
 30
0.0
  0
ENDBLK
  5
1726B
330
1638F
100
AcDbEntity
  8
0
 48
50.0
100
AcDbBlockEnd
  0
BLOCK
  5
16464
330
1639B
100
AcDbEntity
  8
0
 48
50.0
100
AcDbBlockBegin
  2
*D7
 70
     1
 10
0.0
 20
0.0
 30
0.0
  3
*D7
  1

  0
LINE
  5
1A13F
330
1639B
100
AcDbEntity
  8
寸法
 62
     0
 48
50.0
370
    -2
100
AcDbLine
 10
2954.673057123653
 20
7474.529872343765
 30
0.0
 11
2954.673057123653
 21
6900.099101577602
 31
0.0
  0
LINE
  5
1A140
330
1639B
100
AcDbEntity
  8
寸法
 62
     0
 48
50.0
370
    -2
100
AcDbLine
 10
2899.673057123657
 20
7474.529872343762
 30
0.0
 11
2899.673057123657
 21
6900.099101577602
 31
0.0
  0
LINE
  5
1A141
330
1639B
100
AcDbEntity
  8
寸法
 62
     0
 48
50.0
370
    -2
100
AcDbLine
 10
2954.673057123653
 20
6960.099101577601
 30
0.0
 11
3054.673057123653
 21
6960.099101577601
 31
0.0
  0
LINE
  5
1A142
330
1639B
100
AcDbEntity
  8
寸法
 62
     0
 48
50.0
370
    -2
100
AcDbLine
 10
2899.673057123657
 20
6960.099101577601
 30
0.0
 11
2482.70249437518
 21
6960.099101577601
 31
0.0
  0
LINE
  5
1A143
330
1639B
100
AcDbEntity
  8
寸法
 62
     0
 48
50.0
370
    -2
100
AcDbLine
 10
2954.673057123653
 20
6960.099101577601
 30
0.0
 11
2899.673057123657
 21
6960.099101577601
 31
0.0
  0
INSERT
  5
1A144
330
1639B
100
AcDbEntity
  8
寸法
 62
     0
 48
50.0
370
    -2
100
AcDbBlockReference
  2
_DOTSMALL
 10
2954.673057123653
 20
6960.099101577601
 30
0.0
 41
100.0
 42
100.0
 43
100.0
 50
180.0
  0
INSERT
  5
1A145
330
1639B
100
AcDbEntity
  8
寸法
 62
     0
 48
50.0
370
    -2
100
AcDbBlockReference
  2
_DOTSMALL
 10
2899.673057123657
 20
6960.099101577601
 30
0.0
 41
100.0
 42
100.0
 43
100.0
  0
MTEXT
  5
1A146
330
1639B
100
AcDbEntity
  8
寸法
 62
     7
 48
50.0
100
AcDbMText
 10
2591.187775749418
 20
7060.099101577602
 30
0.0
 40
120.0
 41
0.0
 71
     5
 72
     1
  1
\A1;55
  7
STYLE1
 73
     1
 44
1.0
1001
ACAD
1000
MTEXTBEGIN
1070
    73
1070
     1
1070
    44
1040
1.0
1070
    74
1070
     0
1000
MTEXTEND
  0
POINT
  5
1A147
330
1639B
100
AcDbEntity
  8
DEFPOINTS
 62
     0
 48
50.0
100
AcDbPoint
 10
2954.673057123653
 20
7494.529872343766
 30
0.0
  0
POINT
  5
1A148
330
1639B
100
AcDbEntity
  8
DEFPOINTS
 62
     0
 48
50.0
100
AcDbPoint
 10
2899.673057123657
 20
7494.529872343763
 30
0.0
  0
POINT
  5
1A149
330
1639B
100
AcDbEntity
  8
DEFPOINTS
 62
     0
 48
50.0
100
AcDbPoint
 10
2899.673057123657
 20
6960.099101577601
 30
0.0
  0
ENDBLK
  5
16470
330
1639B
100
AcDbEntity
  8
0
 48
50.0
100
AcDbBlockEnd
  0
BLOCK
  5
16471
330
163A9
100
AcDbEntity
  8
0
 48
50.0
100
AcDbBlockBegin
  2
*D8
 70
     1
 10
0.0
 20
0.0
 30
0.0
  3
*D8
  1

  0
LINE
  5
19D6E
330
163A9
100
AcDbEntity
  8
寸法
 62
     0
 48
50.0
370
    -2
100
AcDbLine
 10
6582.673057123656
 20
7500.529872343766
 30
0.0
 11
6582.673057123656
 21
6900.099101577602
 31
0.0
  0
LINE
  5
19D6F
330
163A9
100
AcDbEntity
  8
寸法
 62
     0
 48
50.0
370
    -2
100
AcDbLine
 10
6534.673057123653
 20
7474.529872343765
 30
0.0
 11
6534.673057123653
 21
6900.099101577602
 31
0.0
  0
LINE
  5
19D70
330
163A9
100
AcDbEntity
  8
寸法
 62
     0
 48
50.0
370
    -2
100
AcDbLine
 10
6582.673057123656
 20
6960.099101577601
 30
0.0
 11
6682.673057123657
 21
6960.099101577601
 31
0.0
  0
LINE
  5
19D71
330
163A9
100
AcDbEntity
  8
寸法
 62
     0
 48
50.0
370
    -2
100
AcDbLine
 10
6534.673057123653
 20
6960.099101577601
 30
0.0
 11
6434.673057123653
 21
6960.099101577601
 31
0.0
  0
MTEXT
  5
19D72
330
163A9
100
AcDbEntity
  8
寸法
 62
     7
 48
50.0
100
AcDbMText
 10
6695.575028123714
 20
7060.099101577602
 30
0.0
 40
120.0
 41
0.0
 71
     5
 72
     1
  1
\A1;48
  7
STYLE1
 73
     1
 44
1.0
1001
ACAD
1000
MTEXTBEGIN
1070
    73
1070
     1
1070
    44
1040
1.0
1070
    74
1070
     0
1000
MTEXTEND
  0
LINE
  5
19D73
330
163A9
100
AcDbEntity
  8
寸法
 62
     0
 48
50.0
370
    -2
100
AcDbLine
 10
6582.673057123656
 20
6960.099101577601
 30
0.0
 11
6534.673057123653
 21
6960.099101577601
 31
0.0
  0
INSERT
  5
19D74
330
163A9
100
AcDbEntity
  8
寸法
 62
     0
 48
50.0
370
    -2
100
AcDbBlockReference
  2
_DOTSMALL
 10
6582.673057123656
 20
6960.099101577601
 30
0.0
 41
100.0
 42
100.0
 43
100.0
 50
180.0
  0
INSERT
  5
19D75
330
163A9
100
AcDbEntity
  8
寸法
 62
     0
 48
50.0
370
    -2
100
AcDbBlockReference
  2
_DOTSMALL
 10
6534.673057123653
 20
6960.099101577601
 30
0.0
 41
100.0
 42
100.0
 43
100.0
  0
POINT
  5
19D76
330
163A9
100
AcDbEntity
  8
DEFPOINTS
 62
     0
 48
50.0
100
AcDbPoint
 10
6582.673057123656
 20
7520.529872343765
 30
0.0
  0
POINT
  5
19D77
330
163A9
100
AcDbEntity
  8
DEFPOINTS
 62
     0
 48
50.0
100
AcDbPoint
 10
6534.673057123653
 20
7494.529872343766
 30
0.0
  0
POINT
  5
19D78
330
163A9
100
AcDbEntity
  8
DEFPOINTS
 62
     0
 48
50.0
100
AcDbPoint
 10
6534.673057123653
 20
6960.099101577601
 30
0.0
  0
ENDBLK
  5
1647E
330
163A9
100
AcDbEntity
  8
0
 48
50.0
100
AcDbBlockEnd
  0
BLOCK
  5
1647F
330
163B8
100
AcDbEntity
  8
0
 48
50.0
100
AcDbBlockBegin
  2
*D9
 70
     1
 10
0.0
 20
0.0
 30
0.0
  3
*D9
  1

  0
LINE
  5
19D63
330
163B8
100
AcDbEntity
  8
寸法
 62
     0
 48
50.0
370
    -2
100
AcDbLine
 10
8214.67305712364
 20
7474.529872343854
 30
0.0
 11
8214.67305712364
 21
6900.099101577602
 31
0.0
  0
LINE
  5
19D64
330
163B8
100
AcDbEntity
  8
寸法
 62
     0
 48
50.0
370
    -2
100
AcDbLine
 10
8166.673057123638
 20
7500.529872343766
 30
0.0
 11
8166.673057123638
 21
6900.099101577602
 31
0.0
  0
LINE
  5
19D65
330
163B8
100
AcDbEntity
  8
寸法
 62
     0
 48
50.0
370
    -2
100
AcDbLine
 10
8214.67305712364
 20
6960.099101577601
 30
0.0
 11
8314.67305712364
 21
6960.099101577601
 31
0.0
  0
LINE
  5
19D66
330
163B8
100
AcDbEntity
  8
寸法
 62
     0
 48
50.0
370
    -2
100
AcDbLine
 10
8166.673057123638
 20
6960.099101577601
 30
0.0
 11
8066.673057123638
 21
6960.099101577601
 31
0.0
  0
MTEXT
  5
19D67
330
163B8
100
AcDbEntity
  8
寸法
 62
     7
 48
50.0
100
AcDbMText
 10
8055.710159474891
 20
7060.099101577602
 30
0.0
 40
120.0
 41
0.0
 71
     5
 72
     1
  1
\A1;48
  7
STYLE1
 73
     1
 44
1.0
1001
ACAD
1000
MTEXTBEGIN
1070
    73
1070
     1
1070
    44
1040
1.0
1070
    74
1070
     0
1000
MTEXTEND
  0
LINE
  5
19D68
330
163B8
100
AcDbEntity
  8
寸法
 62
     0
 48
50.0
370
    -2
100
AcDbLine
 10
8214.67305712364
 20
6960.099101577601
 30
0.0
 11
8166.673057123638
 21
6960.099101577601
 31
0.0
  0
INSERT
  5
19D69
330
163B8
100
AcDbEntity
  8
寸法
 62
     0
 48
50.0
370
    -2
100
AcDbBlockReference
  2
_DOTSMALL
 10
8214.67305712364
 20
6960.099101577601
 30
0.0
 41
100.0
 42
100.0
 43
100.0
 50
180.0
  0
INSERT
  5
19D6A
330
163B8
100
AcDbEntity
  8
寸法
 62
     0
 48
50.0
370
    -2
100
AcDbBlockReference
  2
_DOTSMALL
 10
8166.673057123638
 20
6960.099101577601
 30
0.0
 41
100.0
 42
100.0
 43
100.0
  0
POINT
  5
19D6B
330
163B8
100
AcDbEntity
  8
DEFPOINTS
 62
     0
 48
50.0
100
AcDbPoint
 10
8214.67305712364
 20
7494.529872343854
 30
0.0
  0
POINT
  5
19D6C
330
163B8
100
AcDbEntity
  8
DEFPOINTS
 62
     0
 48
50.0
100
AcDbPoint
 10
8166.673057123638
 20
7520.529872343766
 30
0.0
  0
POINT
  5
19D6D
330
163B8
100
AcDbEntity
  8
DEFPOINTS
 62
     0
 48
50.0
100
AcDbPoint
 10
8166.673057123638
 20
6960.099101577601
 30
0.0
  0
ENDBLK
  5
1648C
330
163B8
100
AcDbEntity
  8
0
 48
50.0
100
AcDbBlockEnd
  0
BLOCK
  5
1648D
330
163C7
100
AcDbEntity
  8
0
 48
50.0
100
AcDbBlockBegin
  2
*D10
 70
     1
 10
0.0
 20
0.0
 30
0.0
  3
*D10
  1

  0
LINE
  5
19D58
330
163C7
100
AcDbEntity
  8
寸法
 62
     0
 48
50.0
370
    -2
100
AcDbLine
 10
8269.673057123638
 20
7474.529872343858
 30
0.0
 11
8269.673057123638
 21
6900.099101577602
 31
0.0
  0
LINE
  5
19D59
330
163C7
100
AcDbEntity
  8
寸法
 62
     0
 48
50.0
370
    -2
100
AcDbLine
 10
8214.67305712364
 20
7474.529872343854
 30
0.0
 11
8214.67305712364
 21
6900.099101577602
 31
0.0
  0
LINE
  5
19D5A
330
163C7
100
AcDbEntity
  8
寸法
 62
     0
 48
50.0
370
    -2
100
AcDbLine
 10
8214.67305712364
 20
6960.099101577603
 30
0.0
 11
8114.67305712364
 21
6960.099101577603
 31
0.0
  0
LINE
  5
19D5B
330
163C7
100
AcDbEntity
  8
寸法
 62
     0
 48
50.0
370
    -2
100
AcDbLine
 10
8269.673057123638
 20
6960.099101577603
 30
0.0
 11
8686.643619872114
 21
6960.099101577603
 31
0.0
  0
LINE
  5
19D5C
330
163C7
100
AcDbEntity
  8
寸法
 62
     0
 48
50.0
370
    -2
100
AcDbLine
 10
8214.67305712364
 20
6960.099101577603
 30
0.0
 11
8269.673057123638
 21
6960.099101577603
 31
0.0
  0
INSERT
  5
19D5D
330
163C7
100
AcDbEntity
  8
寸法
 62
     0
 48
50.0
370
    -2
100
AcDbBlockReference
  2
_DOTSMALL
 10
8214.67305712364
 20
6960.099101577603
 30
0.0
 41
100.0
 42
100.0
 43
100.0
  0
INSERT
  5
19D5E
330
163C7
100
AcDbEntity
  8
寸法
 62
     0
 48
50.0
370
    -2
100
AcDbBlockReference
  2
_DOTSMALL
 10
8269.673057123638
 20
6960.099101577603
 30
0.0
 41
100.0
 42
100.0
 43
100.0
 50
180.0
  0
MTEXT
  5
19D5F
330
163C7
100
AcDbEntity
  8
寸法
 62
     7
 48
50.0
100
AcDbMText
 10
8578.158338497877
 20
7060.099101577603
 30
0.0
 40
120.0
 41
0.0
 71
     5
 72
     1
  1
\A1;55
  7
STYLE1
 73
     1
 44
1.0
1001
ACAD
1000
MTEXTBEGIN
1070
    73
1070
     1
1070
    44
1040
1.0
1070
    74
1070
     0
1000
MTEXTEND
  0
POINT
  5
19D60
330
163C7
100
AcDbEntity
  8
DEFPOINTS
 62
     0
 48
50.0
100
AcDbPoint
 10
8269.673057123638
 20
7494.529872343857
 30
0.0
  0
POINT
  5
19D61
330
163C7
100
AcDbEntity
  8
DEFPOINTS
 62
     0
 48
50.0
100
AcDbPoint
 10
8214.67305712364
 20
7494.529872343854
 30
0.0
  0
POINT
  5
19D62
330
163C7
100
AcDbEntity
  8
DEFPOINTS
 62
     0
 48
50.0
100
AcDbPoint
 10
8214.67305712364
 20
6960.099101577603
 30
0.0
  0
ENDBLK
  5
16499
330
163C7
100
AcDbEntity
  8
0
 48
50.0
100
AcDbBlockEnd
  0
BLOCK
  5
172A1
330
163E1
100
AcDbEntity
  8
0
 48
50.0
100
AcDbBlockBegin
  2
*D11
 70
     1
 10
0.0
 20
0.0
 30
0.0
  3
*D11
  1

  0
LINE
  5
19D4F
330
163E1
100
AcDbEntity
  8
寸法
 62
     0
 48
50.0
370
    -2
100
AcDbLine
 10
6534.673057123663
 20
10144.52987234377
 30
0.0
 11
6534.673057123663
 21
10400.33809196887
 31
0.0
  0
LINE
  5
19D50
330
163E1
100
AcDbEntity
  8
寸法
 62
     0
 48
50.0
370
    -2
100
AcDbLine
 10
8214.673057123665
 20
10144.52987234386
 30
0.0
 11
8214.673057123665
 21
10400.33809196887
 31
0.0
  0
LINE
  5
19D51
330
163E1
100
AcDbEntity
  8
寸法
 62
     0
 48
50.0
370
    -2
100
AcDbLine
 10
6534.673057123663
 20
10340.33809196887
 30
0.0
 11
8214.673057123665
 21
10340.33809196887
 31
0.0
  0
INSERT
  5
19D52
330
163E1
100
AcDbEntity
  8
寸法
 62
     0
 48
50.0
370
    -2
100
AcDbBlockReference
  2
_DOTSMALL
 10
6534.673057123663
 20
10340.33809196887
 30
0.0
 41
100.0
 42
100.0
 43
100.0
 50
180.0
  0
INSERT
  5
19D53
330
163E1
100
AcDbEntity
  8
寸法
 62
     0
 48
50.0
370
    -2
100
AcDbBlockReference
  2
_DOTSMALL
 10
8214.673057123665
 20
10340.33809196887
 30
0.0
 41
100.0
 42
100.0
 43
100.0
  0
MTEXT
  5
19D54
330
163E1
100
AcDbEntity
  8
寸法
 62
     7
 48
50.0
100
AcDbMText
 10
7374.673057123664
 20
10440.34990299249
 30
0.0
 40
120.0
 41
0.0
 71
     5
 72
     1
  1
\A1;4X420=1680
  7
STYLE1
 73
     1
 44
1.0
1001
ACAD
1000
MTEXTBEGIN
1070
    73
1070
     1
1070
    44
1040
1.0
1070
    74
1070
     0
1000
MTEXTEND
  0
POINT
  5
19D55
330
163E1
100
AcDbEntity
  8
DEFPOINTS
 62
     0
 48
50.0
100
AcDbPoint
 10
6534.673057123663
 20
10124.52987234377
 30
0.0
  0
POINT
  5
19D56
330
163E1
100
AcDbEntity
  8
DEFPOINTS
 62
     0
 48
50.0
100
AcDbPoint
 10
8214.673057123665
 20
10124.52987234386
 30
0.0
  0
POINT
  5
19D57
330
163E1
100
AcDbEntity
  8
DEFPOINTS
 62
     0
 48
50.0
100
AcDbPoint
 10
8214.673057123665
 20
10340.33809196887
 30
0.0
  0
ENDBLK
  5
172AB
330
163E1
100
AcDbEntity
  8
0
 48
50.0
100
AcDbBlockEnd
  0
BLOCK
  5
164B0
330
163ED
100
AcDbEntity
  8
0
 48
50.0
100
AcDbBlockBegin
  2
*D12
 70
     1
 10
0.0
 20
0.0
 30
0.0
  3
*D12
  1

  0
LINE
  5
1A134
330
163ED
100
AcDbEntity
  8
寸法
 62
     0
 48
50.0
370
    -2
100
AcDbLine
 10
2899.673057123628
 20
10144.52987234377
 30
0.0
 11
2899.673057123628
 21
10400.33809196875
 31
0.0
  0
LINE
  5
1A135
330
163ED
100
AcDbEntity
  8
寸法
 62
     0
 48
50.0
370
    -2
100
AcDbLine
 10
2954.673057123663
 20
10144.52987234377
 30
0.0
 11
2954.673057123663
 21
10400.33809196875
 31
0.0
  0
LINE
  5
1A136
330
163ED
100
AcDbEntity
  8
寸法
 62
     0
 48
50.0
370
    -2
100
AcDbLine
 10
2954.673057123663
 20
10340.33809196875
 30
0.0
 11
3054.673057123663
 21
10340.33809196875
 31
0.0
  0
LINE
  5
1A137
330
163ED
100
AcDbEntity
  8
寸法
 62
     0
 48
50.0
370
    -2
100
AcDbLine
 10
2899.673057123628
 20
10340.33809196875
 30
0.0
 11
2482.702494375152
 21
10340.33809196875
 31
0.0
  0
LINE
  5
1A138
330
163ED
100
AcDbEntity
  8
寸法
 62
     0
 48
50.0
370
    -2
100
AcDbLine
 10
2954.673057123663
 20
10340.33809196875
 30
0.0
 11
2899.673057123628
 21
10340.33809196875
 31
0.0
  0
INSERT
  5
1A139
330
163ED
100
AcDbEntity
  8
寸法
 62
     0
 48
50.0
370
    -2
100
AcDbBlockReference
  2
_DOTSMALL
 10
2954.673057123663
 20
10340.33809196875
 30
0.0
 41
100.0
 42
100.0
 43
100.0
 50
180.0
  0
INSERT
  5
1A13A
330
163ED
100
AcDbEntity
  8
寸法
 62
     0
 48
50.0
370
    -2
100
AcDbBlockReference
  2
_DOTSMALL
 10
2899.673057123628
 20
10340.33809196875
 30
0.0
 41
100.0
 42
100.0
 43
100.0
  0
MTEXT
  5
1A13B
330
163ED
100
AcDbEntity
  8
寸法
 62
     7
 48
50.0
100
AcDbMText
 10
2591.18777574939
 20
10440.33809196875
 30
0.0
 40
120.0
 41
0.0
 71
     5
 72
     1
  1
\A1;55
  7
STYLE1
 73
     1
 44
1.0
1001
ACAD
1000
MTEXTBEGIN
1070
    73
1070
     1
1070
    44
1040
1.0
1070
    74
1070
     0
1000
MTEXTEND
  0
POINT
  5
1A13C
330
163ED
100
AcDbEntity
  8
DEFPOINTS
 62
     0
 48
50.0
100
AcDbPoint
 10
2899.673057123628
 20
10124.52987234377
 30
0.0
  0
POINT
  5
1A13D
330
163ED
100
AcDbEntity
  8
DEFPOINTS
 62
     0
 48
50.0
100
AcDbPoint
 10
2954.673057123663
 20
10124.52987234377
 30
0.0
  0
POINT
  5
1A13E
330
163ED
100
AcDbEntity
  8
DEFPOINTS
 62
     0
 48
50.0
100
AcDbPoint
 10
2954.673057123663
 20
10340.33809196875
 30
0.0
  0
ENDBLK
  5
164BC
330
163ED
100
AcDbEntity
  8
0
 48
50.0
100
AcDbBlockEnd
  0
BLOCK
  5
164BD
330
163FB
100
AcDbEntity
  8
0
 48
50.0
100
AcDbBlockBegin
  2
*D13
 70
     1
 10
0.0
 20
0.0
 30
0.0
  3
*D13
  1

  0
LINE
  5
19D39
330
163FB
100
AcDbEntity
  8
寸法
 62
     0
 48
50.0
370
    -2
100
AcDbLine
 10
8214.673057123665
 20
10144.52987234386
 30
0.0
 11
8214.673057123665
 21
10400.33809196885
 31
0.0
  0
LINE
  5
19D3A
330
163FB
100
AcDbEntity
  8
寸法
 62
     0
 48
50.0
370
    -2
100
AcDbLine
 10
8269.673057123664
 20
10144.52987234386
 30
0.0
 11
8269.673057123664
 21
10400.33809196885
 31
0.0
  0
LINE
  5
19D3B
330
163FB
100
AcDbEntity
  8
寸法
 62
     0
 48
50.0
370
    -2
100
AcDbLine
 10
8214.673057123665
 20
10340.33809196885
 30
0.0
 11
8114.673057123665
 21
10340.33809196885
 31
0.0
  0
LINE
  5
19D3C
330
163FB
100
AcDbEntity
  8
寸法
 62
     0
 48
50.0
370
    -2
100
AcDbLine
 10
8269.673057123664
 20
10340.33809196885
 30
0.0
 11
8686.643619872141
 21
10340.33809196885
 31
0.0
  0
LINE
  5
19D3D
330
163FB
100
AcDbEntity
  8
寸法
 62
     0
 48
50.0
370
    -2
100
AcDbLine
 10
8214.673057123665
 20
10340.33809196885
 30
0.0
 11
8269.673057123664
 21
10340.33809196885
 31
0.0
  0
INSERT
  5
19D3E
330
163FB
100
AcDbEntity
  8
寸法
 62
     0
 48
50.0
370
    -2
100
AcDbBlockReference
  2
_DOTSMALL
 10
8214.673057123665
 20
10340.33809196885
 30
0.0
 41
100.0
 42
100.0
 43
100.0
  0
INSERT
  5
19D3F
330
163FB
100
AcDbEntity
  8
寸法
 62
     0
 48
50.0
370
    -2
100
AcDbBlockReference
  2
_DOTSMALL
 10
8269.673057123664
 20
10340.33809196885
 30
0.0
 41
100.0
 42
100.0
 43
100.0
 50
180.0
  0
MTEXT
  5
19D40
330
163FB
100
AcDbEntity
  8
寸法
 62
     7
 48
50.0
100
AcDbMText
 10
8578.158338497903
 20
10440.33809196885
 30
0.0
 40
120.0
 41
0.0
 71
     5
 72
     1
  1
\A1;55
  7
STYLE1
 73
     1
 44
1.0
1001
ACAD
1000
MTEXTBEGIN
1070
    73
1070
     1
1070
    44
1040
1.0
1070
    74
1070
     0
1000
MTEXTEND
  0
POINT
  5
19D41
330
163FB
100
AcDbEntity
  8
DEFPOINTS
 62
     0
 48
50.0
100
AcDbPoint
 10
8214.673057123665
 20
10124.52987234386
 30
0.0
  0
POINT
  5
19D42
330
163FB
100
AcDbEntity
  8
DEFPOINTS
 62
     0
 48
50.0
100
AcDbPoint
 10
8269.673057123664
 20
10124.52987234386
 30
0.0
  0
POINT
  5
19D43
330
163FB
100
AcDbEntity
  8
DEFPOINTS
 62
     0
 48
50.0
100
AcDbPoint
 10
8269.673057123664
 20
10340.33809196885
 30
0.0
  0
ENDBLK
  5
164C9
330
163FB
100
AcDbEntity
  8
0
 48
50.0
100
AcDbBlockEnd
  0
BLOCK
  5
165B6
330
165B5
100
AcDbEntity
  8
0
 48
50.0
100
AcDbBlockBegin
  2
*D14
 70
     1
 10
0.0
 20
0.0
 30
0.0
  3
*D14
  1

  0
LINE
  5
1A129
330
165B5
100
AcDbEntity
  8
寸法
 62
     0
 48
50.0
370
    -2
100
AcDbLine
 10
3002.673057123657
 20
7500.529872343766
 30
0.0
 11
3002.673057123657
 21
6900.099101577602
 31
0.0
  0
LINE
  5
1A12A
330
165B5
100
AcDbEntity
  8
寸法
 62
     0
 48
50.0
370
    -2
100
AcDbLine
 10
2954.673057123653
 20
7474.529872343765
 30
0.0
 11
2954.673057123653
 21
6900.099101577602
 31
0.0
  0
LINE
  5
1A12B
330
165B5
100
AcDbEntity
  8
寸法
 62
     0
 48
50.0
370
    -2
100
AcDbLine
 10
3002.673057123657
 20
6960.099101577601
 30
0.0
 11
3102.673057123657
 21
6960.099101577601
 31
0.0
  0
LINE
  5
1A12C
330
165B5
100
AcDbEntity
  8
寸法
 62
     0
 48
50.0
370
    -2
100
AcDbLine
 10
2954.673057123653
 20
6960.099101577601
 30
0.0
 11
2854.673057123653
 21
6960.099101577601
 31
0.0
  0
MTEXT
  5
1A12D
330
165B5
100
AcDbEntity
  8
寸法
 62
     7
 48
50.0
100
AcDbMText
 10
3115.575028123715
 20
7060.099101577602
 30
0.0
 40
120.0
 41
0.0
 71
     5
 72
     1
  1
\A1;48
  7
STYLE1
 73
     1
 44
1.0
1001
ACAD
1000
MTEXTBEGIN
1070
    73
1070
     1
1070
    44
1040
1.0
1070
    74
1070
     0
1000
MTEXTEND
  0
LINE
  5
1A12E
330
165B5
100
AcDbEntity
  8
寸法
 62
     0
 48
50.0
370
    -2
100
AcDbLine
 10
3002.673057123657
 20
6960.099101577601
 30
0.0
 11
2954.673057123653
 21
6960.099101577601
 31
0.0
  0
INSERT
  5
1A12F
330
165B5
100
AcDbEntity
  8
寸法
 62
     0
 48
50.0
370
    -2
100
AcDbBlockReference
  2
_DOTSMALL
 10
3002.673057123657
 20
6960.099101577601
 30
0.0
 41
100.0
 42
100.0
 43
100.0
 50
180.0
  0
INSERT
  5
1A130
330
165B5
100
AcDbEntity
  8
寸法
 62
     0
 48
50.0
370
    -2
100
AcDbBlockReference
  2
_DOTSMALL
 10
2954.673057123653
 20
6960.099101577601
 30
0.0
 41
100.0
 42
100.0
 43
100.0
  0
POINT
  5
1A131
330
165B5
100
AcDbEntity
  8
DEFPOINTS
 62
     0
 48
50.0
100
AcDbPoint
 10
3002.673057123657
 20
7520.529872343765
 30
0.0
  0
POINT
  5
1A132
330
165B5
100
AcDbEntity
  8
DEFPOINTS
 62
     0
 48
50.0
100
AcDbPoint
 10
2954.673057123653
 20
7494.529872343766
 30
0.0
  0
POINT
  5
1A133
330
165B5
100
AcDbEntity
  8
DEFPOINTS
 62
     0
 48
50.0
100
AcDbPoint
 10
2954.673057123653
 20
6960.099101577601
 30
0.0
  0
ENDBLK
  5
165C3
330
165B5
100
AcDbEntity
  8
0
 48
50.0
100
AcDbBlockEnd
  0
BLOCK
  5
165C5
330
165C4
100
AcDbEntity
  8
0
 48
50.0
100
AcDbBlockBegin
  2
*D15
 70
     1
 10
0.0
 20
0.0
 30
0.0
  3
*D15
  1

  0
LINE
  5
19D2E
330
165C4
100
AcDbEntity
  8
寸法
 62
     0
 48
50.0
370
    -2
100
AcDbLine
 10
6424.67305712364
 20
7474.529872343854
 30
0.0
 11
6424.67305712364
 21
6900.099101577602
 31
0.0
  0
LINE
  5
19D2F
330
165C4
100
AcDbEntity
  8
寸法
 62
     0
 48
50.0
370
    -2
100
AcDbLine
 10
6376.673057123639
 20
7500.529872343766
 30
0.0
 11
6376.673057123639
 21
6900.099101577602
 31
0.0
  0
LINE
  5
19D30
330
165C4
100
AcDbEntity
  8
寸法
 62
     0
 48
50.0
370
    -2
100
AcDbLine
 10
6424.67305712364
 20
6960.099101577601
 30
0.0
 11
6524.673057123639
 21
6960.099101577601
 31
0.0
  0
LINE
  5
19D31
330
165C4
100
AcDbEntity
  8
寸法
 62
     0
 48
50.0
370
    -2
100
AcDbLine
 10
6376.673057123639
 20
6960.099101577601
 30
0.0
 11
6276.673057123638
 21
6960.099101577601
 31
0.0
  0
MTEXT
  5
19D32
330
165C4
100
AcDbEntity
  8
寸法
 62
     7
 48
50.0
100
AcDbMText
 10
6265.710159474891
 20
7060.099101577602
 30
0.0
 40
120.0
 41
0.0
 71
     5
 72
     1
  1
\A1;48
  7
STYLE1
 73
     1
 44
1.0
1001
ACAD
1000
MTEXTBEGIN
1070
    73
1070
     1
1070
    44
1040
1.0
1070
    74
1070
     0
1000
MTEXTEND
  0
LINE
  5
19D33
330
165C4
100
AcDbEntity
  8
寸法
 62
     0
 48
50.0
370
    -2
100
AcDbLine
 10
6424.67305712364
 20
6960.099101577601
 30
0.0
 11
6376.673057123639
 21
6960.099101577601
 31
0.0
  0
INSERT
  5
19D34
330
165C4
100
AcDbEntity
  8
寸法
 62
     0
 48
50.0
370
    -2
100
AcDbBlockReference
  2
_DOTSMALL
 10
6424.67305712364
 20
6960.099101577601
 30
0.0
 41
100.0
 42
100.0
 43
100.0
 50
180.0
  0
INSERT
  5
19D35
330
165C4
100
AcDbEntity
  8
寸法
 62
     0
 48
50.0
370
    -2
100
AcDbBlockReference
  2
_DOTSMALL
 10
6376.673057123639
 20
6960.099101577601
 30
0.0
 41
100.0
 42
100.0
 43
100.0
  0
POINT
  5
19D36
330
165C4
100
AcDbEntity
  8
DEFPOINTS
 62
     0
 48
50.0
100
AcDbPoint
 10
6424.67305712364
 20
7494.529872343854
 30
0.0
  0
POINT
  5
19D37
330
165C4
100
AcDbEntity
  8
DEFPOINTS
 62
     0
 48
50.0
100
AcDbPoint
 10
6376.673057123639
 20
7520.529872343766
 30
0.0
  0
POINT
  5
19D38
330
165C4
100
AcDbEntity
  8
DEFPOINTS
 62
     0
 48
50.0
100
AcDbPoint
 10
6376.673057123639
 20
6960.099101577601
 30
0.0
  0
ENDBLK
  5
165D2
330
165C4
100
AcDbEntity
  8
0
 48
50.0
100
AcDbBlockEnd
  0
BLOCK
  5
1663F
330
165EA
100
AcDbEntity
  8
0
 48
50.0
100
AcDbBlockBegin
  2
*D16
 70
     1
 10
0.0
 20
0.0
 30
0.0
  3
*D16
  1

  0
LINE
  5
19D1A
330
165EA
100
AcDbEntity
  8
寸法
 62
     0
 48
50.0
370
    -2
100
AcDbLine
 10
6534.673057123653
 20
7474.529872343765
 30
0.0
 11
6534.673057123653
 21
6900.099101577602
 31
0.0
  0
LINE
  5
19D1B
330
165EA
100
AcDbEntity
  8
寸法
 62
     0
 48
50.0
370
    -2
100
AcDbLine
 10
6424.67305712364
 20
7474.529872343854
 30
0.0
 11
6424.67305712364
 21
6900.099101577602
 31
0.0
  0
LINE
  5
19D1C
330
165EA
100
AcDbEntity
  8
寸法
 62
     0
 48
50.0
370
    -2
100
AcDbLine
 10
6534.673057123653
 20
6960.099101577603
 30
0.0
 11
6424.67305712364
 21
6960.099101577603
 31
0.0
  0
MTEXT
  5
19D1D
330
165EA
100
AcDbEntity
  8
寸法
 62
     7
 48
50.0
100
AcDbMText
 10
6479.673057123647
 20
6808.407206541371
 30
0.0
 40
120.0
 41
0.0
 71
     5
 72
     1
  1
\A1;110
  7
STYLE1
 73
     1
 44
1.0
1001
ACAD
1000
MTEXTBEGIN
1070
    73
1070
     1
1070
    44
1040
1.0
1070
    74
1070
     0
1000
MTEXTEND
  0
INSERT
  5
19D1E
330
165EA
100
AcDbEntity
  8
寸法
 62
     0
 48
50.0
370
    -2
100
AcDbBlockReference
  2
_DOTSMALL
 10
6534.673057123653
 20
6960.099101577603
 30
0.0
 41
100.0
 42
100.0
 43
100.0
  0
INSERT
  5
19D1F
330
165EA
100
AcDbEntity
  8
寸法
 62
     0
 48
50.0
370
    -2
100
AcDbBlockReference
  2
_DOTSMALL
 10
6424.67305712364
 20
6960.099101577603
 30
0.0
 41
100.0
 42
100.0
 43
100.0
 50
180.0
  0
POINT
  5
19D20
330
165EA
100
AcDbEntity
  8
DEFPOINTS
 62
     0
 48
50.0
100
AcDbPoint
 10
6534.673057123653
 20
7494.529872343766
 30
0.0
  0
POINT
  5
19D21
330
165EA
100
AcDbEntity
  8
DEFPOINTS
 62
     0
 48
50.0
100
AcDbPoint
 10
6424.67305712364
 20
7494.529872343854
 30
0.0
  0
POINT
  5
19D22
330
165EA
100
AcDbEntity
  8
DEFPOINTS
 62
     0
 48
50.0
100
AcDbPoint
 10
6424.67305712364
 20
6960.099101577603
 30
0.0
  0
ENDBLK
  5
16649
330
165EA
100
AcDbEntity
  8
0
 48
50.0
100
AcDbBlockEnd
  0
BLOCK
  5
166D0
330
166CF
100
AcDbEntity
  8
0
 48
50.0
100
AcDbBlockBegin
  2
*D17
 70
     1
 10
0.0
 20
0.0
 30
0.0
  3
*D17
  1

  0
LINE
  5
19D0F
330
166CF
100
AcDbEntity
  8
寸法
 62
     0
 48
50.0
370
    -2
100
AcDbLine
 10
6534.673057123663
 20
10144.52987234382
 30
0.0
 11
6534.673057123663
 21
10400.33809196887
 31
0.0
  0
LINE
  5
19D10
330
166CF
100
AcDbEntity
  8
寸法
 62
     0
 48
50.0
370
    -2
100
AcDbLine
 10
6424.673057123664
 20
10144.52987234381
 30
0.0
 11
6424.673057123664
 21
10400.33809196887
 31
0.0
  0
LINE
  5
19D11
330
166CF
100
AcDbEntity
  8
寸法
 62
     0
 48
50.0
370
    -2
100
AcDbLine
 10
6534.673057123663
 20
10340.33809196887
 30
0.0
 11
6634.673057123663
 21
10340.33809196887
 31
0.0
  0
LINE
  5
19D12
330
166CF
100
AcDbEntity
  8
寸法
 62
     0
 48
50.0
370
    -2
100
AcDbLine
 10
6424.673057123664
 20
10340.33809196887
 30
0.0
 11
6324.673057123664
 21
10340.33809196887
 31
0.0
  0
LINE
  5
19D13
330
166CF
100
AcDbEntity
  8
寸法
 62
     0
 48
50.0
370
    -2
100
AcDbLine
 10
6534.673057123663
 20
10340.33809196887
 30
0.0
 11
6424.673057123664
 21
10340.33809196887
 31
0.0
  0
INSERT
  5
19D14
330
166CF
100
AcDbEntity
  8
寸法
 62
     0
 48
50.0
370
    -2
100
AcDbBlockReference
  2
_DOTSMALL
 10
6534.673057123663
 20
10340.33809196887
 30
0.0
 41
100.0
 42
100.0
 43
100.0
 50
180.0
  0
INSERT
  5
19D15
330
166CF
100
AcDbEntity
  8
寸法
 62
     0
 48
50.0
370
    -2
100
AcDbBlockReference
  2
_DOTSMALL
 10
6424.673057123664
 20
10340.33809196887
 30
0.0
 41
100.0
 42
100.0
 43
100.0
  0
MTEXT
  5
19D16
330
166CF
100
AcDbEntity
  8
寸法
 62
     7
 48
50.0
100
AcDbMText
 10
6479.673057123664
 20
10440.33809196887
 30
0.0
 40
120.0
 41
0.0
 71
     5
 72
     1
  1
\A1;110
  7
STYLE1
 73
     1
 44
1.0
1001
ACAD
1000
MTEXTBEGIN
1070
    73
1070
     1
1070
    44
1040
1.0
1070
    74
1070
     0
1000
MTEXTEND
  0
POINT
  5
19D17
330
166CF
100
AcDbEntity
  8
DEFPOINTS
 62
     0
 48
50.0
100
AcDbPoint
 10
6534.673057123663
 20
10124.52987234382
 30
0.0
  0
POINT
  5
19D18
330
166CF
100
AcDbEntity
  8
DEFPOINTS
 62
     0
 48
50.0
100
AcDbPoint
 10
6424.673057123664
 20
10124.52987234381
 30
0.0
  0
POINT
  5
19D19
330
166CF
100
AcDbEntity
  8
DEFPOINTS
 62
     0
 48
50.0
100
AcDbPoint
 10
6424.673057123664
 20
10340.33809196887
 30
0.0
  0
ENDBLK
  5
166DC
330
166CF
100
AcDbEntity
  8
0
 48
50.0
100
AcDbBlockEnd
  0
BLOCK
  5
1726C
330
16908
100
AcDbEntity
  8
0
 48
50.0
100
AcDbBlockBegin
  2
*D18
 70
     1
 10
0.0
 20
0.0
 30
0.0
  3
*D18
  1

  0
LINE
  5
19D07
330
16908
100
AcDbEntity
  8
寸法
 62
     0
 48
50.0
370
    -2
100
AcDbLine
 10
8269.673057123664
 20
10144.52987234386
 30
0.0
 11
8269.673057123664
 21
10649.65956552516
 31
0.0
  0
LINE
  5
19D08
330
16908
100
AcDbEntity
  8
寸法
 62
     0
 48
50.0
370
    -2
100
AcDbLine
 10
6479.673057123664
 20
10589.65956552516
 30
0.0
 11
8269.673057123664
 21
10589.65956552516
 31
0.0
  0
INSERT
  5
19D09
330
16908
100
AcDbEntity
  8
寸法
 62
     0
 48
50.0
370
    -2
100
AcDbBlockReference
  2
_DOTSMALL
 10
6479.673057123664
 20
10589.65956552516
 30
0.0
 41
100.0
 42
100.0
 43
100.0
 50
180.0
  0
INSERT
  5
19D0A
330
16908
100
AcDbEntity
  8
寸法
 62
     0
 48
50.0
370
    -2
100
AcDbBlockReference
  2
_DOTSMALL
 10
8269.673057123664
 20
10589.65956552516
 30
0.0
 41
100.0
 42
100.0
 43
100.0
  0
MTEXT
  5
19D0B
330
16908
100
AcDbEntity
  8
寸法
 62
     7
 48
50.0
100
AcDbMText
 10
7374.673057123664
 20
10689.65956552516
 30
0.0
 40
120.0
 41
0.0
 71
     5
 72
     1
  1
\A1;1790
  7
STYLE1
 73
     1
 44
1.0
1001
ACAD
1000
MTEXTBEGIN
1070
    73
1070
     1
1070
    44
1040
1.0
1070
    74
1070
     0
1000
MTEXTEND
  0
POINT
  5
19D0C
330
16908
100
AcDbEntity
  8
DEFPOINTS
 62
     0
 48
50.0
100
AcDbPoint
 10
6479.673057123664
 20
10499.32600632681
 30
0.0
  0
POINT
  5
19D0D
330
16908
100
AcDbEntity
  8
DEFPOINTS
 62
     0
 48
50.0
100
AcDbPoint
 10
8269.673057123664
 20
10124.52987234386
 30
0.0
  0
POINT
  5
19D0E
330
16908
100
AcDbEntity
  8
DEFPOINTS
 62
     0
 48
50.0
100
AcDbPoint
 10
8269.673057123664
 20
10589.65956552516
 30
0.0
  0
ENDBLK
  5
17275
330
16908
100
AcDbEntity
  8
0
 48
50.0
100
AcDbBlockEnd
  0
BLOCK
  5
17BD1
330
17BC5
100
AcDbEntity
  8
0
 48
50.0
100
AcDbBlockBegin
  2
*D19
 70
     1
 10
0.0
 20
0.0
 30
0.0
  3
*D19
  1

  0
LINE
  5
1A0F9
330
17BC5
100
AcDbEntity
  8
寸法
 62
     0
 48
50.0
370
    -2
100
AcDbLine
 10
4634.673057123641
 20
7474.529872343854
 30
0.0
 11
4634.673057123641
 21
6900.099101577602
 31
0.0
  0
LINE
  5
1A0FA
330
17BC5
100
AcDbEntity
  8
寸法
 62
     0
 48
50.0
370
    -2
100
AcDbLine
 10
4586.673057123639
 20
7500.529872343766
 30
0.0
 11
4586.673057123639
 21
6900.099101577602
 31
0.0
  0
LINE
  5
1A0FB
330
17BC5
100
AcDbEntity
  8
寸法
 62
     0
 48
50.0
370
    -2
100
AcDbLine
 10
4634.673057123641
 20
6960.099101577601
 30
0.0
 11
4734.67305712364
 21
6960.099101577601
 31
0.0
  0
LINE
  5
1A0FC
330
17BC5
100
AcDbEntity
  8
寸法
 62
     0
 48
50.0
370
    -2
100
AcDbLine
 10
4586.673057123639
 20
6960.099101577601
 30
0.0
 11
4486.673057123638
 21
6960.099101577601
 31
0.0
  0
MTEXT
  5
1A0FD
330
17BC5
100
AcDbEntity
  8
寸法
 62
     7
 48
50.0
100
AcDbMText
 10
4475.710159474891
 20
7060.099101577602
 30
0.0
 40
120.0
 41
0.0
 71
     5
 72
     1
  1
\A1;48
  7
STYLE1
 73
     1
 44
1.0
1001
ACAD
1000
MTEXTBEGIN
1070
    73
1070
     1
1070
    44
1040
1.0
1070
    74
1070
     0
1000
MTEXTEND
  0
LINE
  5
1A0FE
330
17BC5
100
AcDbEntity
  8
寸法
 62
     0
 48
50.0
370
    -2
100
AcDbLine
 10
4634.673057123641
 20
6960.099101577601
 30
0.0
 11
4586.673057123639
 21
6960.099101577601
 31
0.0
  0
INSERT
  5
1A0FF
330
17BC5
100
AcDbEntity
  8
寸法
 62
     0
 48
50.0
370
    -2
100
AcDbBlockReference
  2
_DOTSMALL
 10
4634.673057123641
 20
6960.099101577601
 30
0.0
 41
100.0
 42
100.0
 43
100.0
 50
180.0
  0
INSERT
  5
1A100
330
17BC5
100
AcDbEntity
  8
寸法
 62
     0
 48
50.0
370
    -2
100
AcDbBlockReference
  2
_DOTSMALL
 10
4586.673057123639
 20
6960.099101577601
 30
0.0
 41
100.0
 42
100.0
 43
100.0
  0
POINT
  5
1A101
330
17BC5
100
AcDbEntity
  8
DEFPOINTS
 62
     0
 48
50.0
100
AcDbPoint
 10
4634.673057123641
 20
7494.529872343854
 30
0.0
  0
POINT
  5
1A102
330
17BC5
100
AcDbEntity
  8
DEFPOINTS
 62
     0
 48
50.0
100
AcDbPoint
 10
4586.673057123639
 20
7520.529872343766
 30
0.0
  0
POINT
  5
1A103
330
17BC5
100
AcDbEntity
  8
DEFPOINTS
 62
     0
 48
50.0
100
AcDbPoint
 10
4586.673057123639
 20
6960.099101577601
 30
0.0
  0
ENDBLK
  5
17BD2
330
17BC5
100
AcDbEntity
  8
0
 48
50.0
100
AcDbBlockEnd
  0
BLOCK
  5
17BDC
330
17BD3
100
AcDbEntity
  8
0
 48
50.0
100
AcDbBlockBegin
  2
*D20
 70
     1
 10
0.0
 20
0.0
 30
0.0
  3
*D20
  1

  0
LINE
  5
1A104
330
17BD3
100
AcDbEntity
  8
寸法
 62
     0
 48
50.0
370
    -2
100
AcDbLine
 10
3002.673057123657
 20
7500.529872343766
 30
0.0
 11
3002.673057123657
 21
6900.099101577602
 31
0.0
  0
LINE
  5
1A105
330
17BD3
100
AcDbEntity
  8
寸法
 62
     0
 48
50.0
370
    -2
100
AcDbLine
 10
4586.673057123639
 20
6960.099101577601
 30
0.0
 11
3002.673057123657
 21
6960.099101577601
 31
0.0
  0
INSERT
  5
1A106
330
17BD3
100
AcDbEntity
  8
寸法
 62
     0
 48
50.0
370
    -2
100
AcDbBlockReference
  2
_DOTSMALL
 10
4586.673057123639
 20
6960.099101577601
 30
0.0
 41
100.0
 42
100.0
 43
100.0
  0
INSERT
  5
1A107
330
17BD3
100
AcDbEntity
  8
寸法
 62
     0
 48
50.0
370
    -2
100
AcDbBlockReference
  2
_DOTSMALL
 10
3002.673057123657
 20
6960.099101577601
 30
0.0
 41
100.0
 42
100.0
 43
100.0
 50
180.0
  0
MTEXT
  5
1A108
330
17BD3
100
AcDbEntity
  8
寸法
 62
     7
 48
50.0
100
AcDbMText
 10
3794.673057123648
 20
7160.099101577602
 30
0.0
 40
120.0
 41
0.0
 71
     5
 72
     1
  1
\A1;有効開口部間口\P 1584
  7
STYLE1
 73
     1
 44
1.0
1001
ACAD
1000
MTEXTBEGIN
1070
    73
1070
     1
1070
    44
1040
1.0
1070
    74
1070
     0
1000
MTEXTEND
  0
POINT
  5
1A109
330
17BD3
100
AcDbEntity
  8
DEFPOINTS
 62
     0
 48
50.0
100
AcDbPoint
 10
4586.673057123639
 20
7520.529872343766
 30
0.0
  0
POINT
  5
1A10A
330
17BD3
100
AcDbEntity
  8
DEFPOINTS
 62
     0
 48
50.0
100
AcDbPoint
 10
3002.673057123657
 20
7520.529872343765
 30
0.0
  0
POINT
  5
1A10B
330
17BD3
100
AcDbEntity
  8
DEFPOINTS
 62
     0
 48
50.0
100
AcDbPoint
 10
3002.673057123657
 20
6960.099101577601
 30
0.0
  0
ENDBLK
  5
17BDD
330
17BD3
100
AcDbEntity
  8
0
 48
50.0
100
AcDbBlockEnd
  0
BLOCK
  5
17BE8
330
17BDE
100
AcDbEntity
  8
0
 48
50.0
100
AcDbBlockBegin
  2
*D21
 70
     1
 10
0.0
 20
0.0
 30
0.0
  3
*D21
  1

  0
LINE
  5
1A117
330
17BDE
100
AcDbEntity
  8
寸法
 62
     0
 48
50.0
370
    -2
100
AcDbLine
 10
2954.673057123663
 20
10144.52987234377
 30
0.0
 11
2954.673057123663
 21
10400.33809196887
 31
0.0
  0
LINE
  5
1A118
330
17BDE
100
AcDbEntity
  8
寸法
 62
     0
 48
50.0
370
    -2
100
AcDbLine
 10
4634.673057123664
 20
10144.52987234386
 30
0.0
 11
4634.673057123664
 21
10400.33809196887
 31
0.0
  0
LINE
  5
1A119
330
17BDE
100
AcDbEntity
  8
寸法
 62
     0
 48
50.0
370
    -2
100
AcDbLine
 10
2954.673057123663
 20
10340.33809196887
 30
0.0
 11
4634.673057123664
 21
10340.33809196887
 31
0.0
  0
INSERT
  5
1A11A
330
17BDE
100
AcDbEntity
  8
寸法
 62
     0
 48
50.0
370
    -2
100
AcDbBlockReference
  2
_DOTSMALL
 10
2954.673057123663
 20
10340.33809196887
 30
0.0
 41
100.0
 42
100.0
 43
100.0
 50
180.0
  0
INSERT
  5
1A11B
330
17BDE
100
AcDbEntity
  8
寸法
 62
     0
 48
50.0
370
    -2
100
AcDbBlockReference
  2
_DOTSMALL
 10
4634.673057123664
 20
10340.33809196887
 30
0.0
 41
100.0
 42
100.0
 43
100.0
  0
MTEXT
  5
1A11C
330
17BDE
100
AcDbEntity
  8
寸法
 62
     7
 48
50.0
100
AcDbMText
 10
3794.673057123663
 20
10440.34990299249
 30
0.0
 40
120.0
 41
0.0
 71
     5
 72
     1
  1
\A1;4X420=1680
  7
STYLE1
 73
     1
 44
1.0
1001
ACAD
1000
MTEXTBEGIN
1070
    73
1070
     1
1070
    44
1040
1.0
1070
    74
1070
     0
1000
MTEXTEND
  0
POINT
  5
1A11D
330
17BDE
100
AcDbEntity
  8
DEFPOINTS
 62
     0
 48
50.0
100
AcDbPoint
 10
2954.673057123663
 20
10124.52987234377
 30
0.0
  0
POINT
  5
1A11E
330
17BDE
100
AcDbEntity
  8
DEFPOINTS
 62
     0
 48
50.0
100
AcDbPoint
 10
4634.673057123664
 20
10124.52987234386
 30
0.0
  0
POINT
  5
1A11F
330
17BDE
100
AcDbEntity
  8
DEFPOINTS
 62
     0
 48
50.0
100
AcDbPoint
 10
4634.673057123664
 20
10340.33809196887
 30
0.0
  0
ENDBLK
  5
17BE9
330
17BDE
100
AcDbEntity
  8
0
 48
50.0
100
AcDbBlockEnd
  0
BLOCK
  5
17BF6
330
17BEA
100
AcDbEntity
  8
0
 48
50.0
100
AcDbBlockBegin
  2
*D22
 70
     1
 10
0.0
 20
0.0
 30
0.0
  3
*D22
  1

  0
LINE
  5
1A10C
330
17BEA
100
AcDbEntity
  8
寸法
 62
     0
 48
50.0
370
    -2
100
AcDbLine
 10
4744.673057123662
 20
10144.52987234382
 30
0.0
 11
4744.673057123662
 21
10400.33809196887
 31
0.0
  0
LINE
  5
1A10D
330
17BEA
100
AcDbEntity
  8
寸法
 62
     0
 48
50.0
370
    -2
100
AcDbLine
 10
4634.673057123664
 20
10144.52987234381
 30
0.0
 11
4634.673057123664
 21
10400.33809196887
 31
0.0
  0
LINE
  5
1A10E
330
17BEA
100
AcDbEntity
  8
寸法
 62
     0
 48
50.0
370
    -2
100
AcDbLine
 10
4744.673057123662
 20
10340.33809196887
 30
0.0
 11
4844.673057123663
 21
10340.33809196887
 31
0.0
  0
LINE
  5
1A10F
330
17BEA
100
AcDbEntity
  8
寸法
 62
     0
 48
50.0
370
    -2
100
AcDbLine
 10
4634.673057123664
 20
10340.33809196887
 30
0.0
 11
4534.673057123664
 21
10340.33809196887
 31
0.0
  0
LINE
  5
1A110
330
17BEA
100
AcDbEntity
  8
寸法
 62
     0
 48
50.0
370
    -2
100
AcDbLine
 10
4744.673057123662
 20
10340.33809196887
 30
0.0
 11
4634.673057123664
 21
10340.33809196887
 31
0.0
  0
INSERT
  5
1A111
330
17BEA
100
AcDbEntity
  8
寸法
 62
     0
 48
50.0
370
    -2
100
AcDbBlockReference
  2
_DOTSMALL
 10
4744.673057123662
 20
10340.33809196887
 30
0.0
 41
100.0
 42
100.0
 43
100.0
 50
180.0
  0
INSERT
  5
1A112
330
17BEA
100
AcDbEntity
  8
寸法
 62
     0
 48
50.0
370
    -2
100
AcDbBlockReference
  2
_DOTSMALL
 10
4634.673057123664
 20
10340.33809196887
 30
0.0
 41
100.0
 42
100.0
 43
100.0
  0
MTEXT
  5
1A113
330
17BEA
100
AcDbEntity
  8
寸法
 62
     7
 48
50.0
100
AcDbMText
 10
4689.673057123664
 20
10440.33809196887
 30
0.0
 40
120.0
 41
0.0
 71
     5
 72
     1
  1
\A1;110
  7
STYLE1
 73
     1
 44
1.0
1001
ACAD
1000
MTEXTBEGIN
1070
    73
1070
     1
1070
    44
1040
1.0
1070
    74
1070
     0
1000
MTEXTEND
  0
POINT
  5
1A114
330
17BEA
100
AcDbEntity
  8
DEFPOINTS
 62
     0
 48
50.0
100
AcDbPoint
 10
4744.673057123662
 20
10124.52987234382
 30
0.0
  0
POINT
  5
1A115
330
17BEA
100
AcDbEntity
  8
DEFPOINTS
 62
     0
 48
50.0
100
AcDbPoint
 10
4634.673057123664
 20
10124.52987234381
 30
0.0
  0
POINT
  5
1A116
330
17BEA
100
AcDbEntity
  8
DEFPOINTS
 62
     0
 48
50.0
100
AcDbPoint
 10
4634.673057123664
 20
10340.33809196887
 30
0.0
  0
ENDBLK
  5
17BF7
330
17BEA
100
AcDbEntity
  8
0
 48
50.0
100
AcDbBlockEnd
  0
BLOCK
  5
17C02
330
17BF8
100
AcDbEntity
  8
0
 48
50.0
100
AcDbBlockBegin
  2
*D23
 70
     1
 10
0.0
 20
0.0
 30
0.0
  3
*D23
  1

  0
LINE
  5
1A120
330
17BF8
100
AcDbEntity
  8
寸法
 62
     0
 48
50.0
370
    -2
100
AcDbLine
 10
2899.673057123628
 20
10144.52987234373
 30
0.0
 11
2899.673057123628
 21
10649.65956552516
 31
0.0
  0
LINE
  5
1A121
330
17BF8
100
AcDbEntity
  8
寸法
 62
     0
 48
50.0
370
    -2
100
AcDbLine
 10
4689.673057123664
 20
10519.32600632681
 30
0.0
 11
4689.673057123664
 21
10649.65956552516
 31
0.0
  0
LINE
  5
1A122
330
17BF8
100
AcDbEntity
  8
寸法
 62
     0
 48
50.0
370
    -2
100
AcDbLine
 10
2899.673057123628
 20
10589.65956552516
 30
0.0
 11
4689.673057123664
 21
10589.65956552516
 31
0.0
  0
INSERT
  5
1A123
330
17BF8
100
AcDbEntity
  8
寸法
 62
     0
 48
50.0
370
    -2
100
AcDbBlockReference
  2
_DOTSMALL
 10
2899.673057123628
 20
10589.65956552516
 30
0.0
 41
100.0
 42
100.0
 43
100.0
 50
180.0
  0
INSERT
  5
1A124
330
17BF8
100
AcDbEntity
  8
寸法
 62
     0
 48
50.0
370
    -2
100
AcDbBlockReference
  2
_DOTSMALL
 10
4689.673057123664
 20
10589.65956552516
 30
0.0
 41
100.0
 42
100.0
 43
100.0
  0
MTEXT
  5
1A125
330
17BF8
100
AcDbEntity
  8
寸法
 62
     7
 48
50.0
100
AcDbMText
 10
3794.673057123647
 20
10689.65956552516
 30
0.0
 40
120.0
 41
0.0
 71
     5
 72
     1
  1
\A1;1790
  7
STYLE1
 73
     1
 44
1.0
1001
ACAD
1000
MTEXTBEGIN
1070
    73
1070
     1
1070
    44
1040
1.0
1070
    74
1070
     0
1000
MTEXTEND
  0
POINT
  5
1A126
330
17BF8
100
AcDbEntity
  8
DEFPOINTS
 62
     0
 48
50.0
100
AcDbPoint
 10
2899.673057123628
 20
10124.52987234373
 30
0.0
  0
POINT
  5
1A127
330
17BF8
100
AcDbEntity
  8
DEFPOINTS
 62
     0
 48
50.0
100
AcDbPoint
 10
4689.673057123664
 20
10499.32600632681
 30
0.0
  0
POINT
  5
1A128
330
17BF8
100
AcDbEntity
  8
DEFPOINTS
 62
     0
 48
50.0
100
AcDbPoint
 10
4689.673057123664
 20
10589.65956552516
 30
0.0
  0
ENDBLK
  5
17C03
330
17BF8
100
AcDbEntity
  8
0
 48
50.0
100
AcDbBlockEnd
  0
BLOCK
  5
17C54
330
17C48
100
AcDbEntity
  8
0
 48
50.0
100
AcDbBlockBegin
  2
*D24
 70
     1
 10
0.0
 20
0.0
 30
0.0
  3
*D24
  1

  0
LINE
  5
1A0E5
330
17C48
100
AcDbEntity
  8
寸法
 62
     0
 48
50.0
370
    -2
100
AcDbLine
 10
4792.673057123656
 20
7500.529872343766
 30
0.0
 11
4792.673057123656
 21
6900.099101577602
 31
0.0
  0
LINE
  5
1A0E6
330
17C48
100
AcDbEntity
  8
寸法
 62
     0
 48
50.0
370
    -2
100
AcDbLine
 10
4744.673057123653
 20
7474.529872343765
 30
0.0
 11
4744.673057123653
 21
6900.099101577602
 31
0.0
  0
LINE
  5
1A0E7
330
17C48
100
AcDbEntity
  8
寸法
 62
     0
 48
50.0
370
    -2
100
AcDbLine
 10
4792.673057123656
 20
6960.099101577601
 30
0.0
 11
4892.673057123657
 21
6960.099101577601
 31
0.0
  0
LINE
  5
1A0E8
330
17C48
100
AcDbEntity
  8
寸法
 62
     0
 48
50.0
370
    -2
100
AcDbLine
 10
4744.673057123653
 20
6960.099101577601
 30
0.0
 11
4644.673057123653
 21
6960.099101577601
 31
0.0
  0
MTEXT
  5
1A0E9
330
17C48
100
AcDbEntity
  8
寸法
 62
     7
 48
50.0
100
AcDbMText
 10
4905.575028123714
 20
7060.099101577602
 30
0.0
 40
120.0
 41
0.0
 71
     5
 72
     1
  1
\A1;48
  7
STYLE1
 73
     1
 44
1.0
1001
ACAD
1000
MTEXTBEGIN
1070
    73
1070
     1
1070
    44
1040
1.0
1070
    74
1070
     0
1000
MTEXTEND
  0
LINE
  5
1A0EA
330
17C48
100
AcDbEntity
  8
寸法
 62
     0
 48
50.0
370
    -2
100
AcDbLine
 10
4792.673057123656
 20
6960.099101577601
 30
0.0
 11
4744.673057123653
 21
6960.099101577601
 31
0.0
  0
INSERT
  5
1A0EB
330
17C48
100
AcDbEntity
  8
寸法
 62
     0
 48
50.0
370
    -2
100
AcDbBlockReference
  2
_DOTSMALL
 10
4792.673057123656
 20
6960.099101577601
 30
0.0
 41
100.0
 42
100.0
 43
100.0
 50
180.0
  0
INSERT
  5
1A0EC
330
17C48
100
AcDbEntity
  8
寸法
 62
     0
 48
50.0
370
    -2
100
AcDbBlockReference
  2
_DOTSMALL
 10
4744.673057123653
 20
6960.099101577601
 30
0.0
 41
100.0
 42
100.0
 43
100.0
  0
POINT
  5
1A0ED
330
17C48
100
AcDbEntity
  8
DEFPOINTS
 62
     0
 48
50.0
100
AcDbPoint
 10
4792.673057123656
 20
7520.529872343765
 30
0.0
  0
POINT
  5
1A0EE
330
17C48
100
AcDbEntity
  8
DEFPOINTS
 62
     0
 48
50.0
100
AcDbPoint
 10
4744.673057123653
 20
7494.529872343766
 30
0.0
  0
POINT
  5
1A0EF
330
17C48
100
AcDbEntity
  8
DEFPOINTS
 62
     0
 48
50.0
100
AcDbPoint
 10
4744.673057123653
 20
6960.099101577601
 30
0.0
  0
ENDBLK
  5
17C55
330
17C48
100
AcDbEntity
  8
0
 48
50.0
100
AcDbBlockEnd
  0
BLOCK
  5
17C60
330
17C56
100
AcDbEntity
  8
0
 48
50.0
100
AcDbBlockBegin
  2
*D25
 70
     1
 10
0.0
 20
0.0
 30
0.0
  3
*D25
  1

  0
LINE
  5
1A0F0
330
17C56
100
AcDbEntity
  8
寸法
 62
     0
 48
50.0
370
    -2
100
AcDbLine
 10
4744.673057123653
 20
7474.529872343765
 30
0.0
 11
4744.673057123653
 21
6900.099101577602
 31
0.0
  0
LINE
  5
1A0F1
330
17C56
100
AcDbEntity
  8
寸法
 62
     0
 48
50.0
370
    -2
100
AcDbLine
 10
4634.673057123641
 20
7474.529872343854
 30
0.0
 11
4634.673057123641
 21
6900.099101577602
 31
0.0
  0
LINE
  5
1A0F2
330
17C56
100
AcDbEntity
  8
寸法
 62
     0
 48
50.0
370
    -2
100
AcDbLine
 10
4744.673057123653
 20
6960.099101577603
 30
0.0
 11
4634.673057123641
 21
6960.099101577603
 31
0.0
  0
MTEXT
  5
1A0F3
330
17C56
100
AcDbEntity
  8
寸法
 62
     7
 48
50.0
100
AcDbMText
 10
4689.673057123647
 20
6808.407206541371
 30
0.0
 40
120.0
 41
0.0
 71
     5
 72
     1
  1
\A1;110
  7
STYLE1
 73
     1
 44
1.0
1001
ACAD
1000
MTEXTBEGIN
1070
    73
1070
     1
1070
    44
1040
1.0
1070
    74
1070
     0
1000
MTEXTEND
  0
INSERT
  5
1A0F4
330
17C56
100
AcDbEntity
  8
寸法
 62
     0
 48
50.0
370
    -2
100
AcDbBlockReference
  2
_DOTSMALL
 10
4744.673057123653
 20
6960.099101577603
 30
0.0
 41
100.0
 42
100.0
 43
100.0
  0
INSERT
  5
1A0F5
330
17C56
100
AcDbEntity
  8
寸法
 62
     0
 48
50.0
370
    -2
100
AcDbBlockReference
  2
_DOTSMALL
 10
4634.673057123641
 20
6960.099101577603
 30
0.0
 41
100.0
 42
100.0
 43
100.0
 50
180.0
  0
POINT
  5
1A0F6
330
17C56
100
AcDbEntity
  8
DEFPOINTS
 62
     0
 48
50.0
100
AcDbPoint
 10
4744.673057123653
 20
7494.529872343766
 30
0.0
  0
POINT
  5
1A0F7
330
17C56
100
AcDbEntity
  8
DEFPOINTS
 62
     0
 48
50.0
100
AcDbPoint
 10
4634.673057123641
 20
7494.529872343854
 30
0.0
  0
POINT
  5
1A0F8
330
17C56
100
AcDbEntity
  8
DEFPOINTS
 62
     0
 48
50.0
100
AcDbPoint
 10
4634.673057123641
 20
6960.099101577603
 30
0.0
  0
ENDBLK
  5
17C61
330
17C56
100
AcDbEntity
  8
0
 48
50.0
100
AcDbBlockEnd
  0
BLOCK
  5
19176
330
1916C
100
AcDbEntity
  8
0
 48
50.0
100
AcDbBlockBegin
  2
*D26
 70
     1
 10
0.0
 20
0.0
 30
0.0
  3
*D26
  1

  0
LINE
  5
196AB
330
1916C
100
AcDbEntity
  8
寸法
 62
     0
 48
50.0
370
    -2
100
AcDbLine
 10
10876.84983051327
 20
4377.931598713259
 30
0.0
 11
9993.09970133002
 21
4377.93159871326
 31
0.0
  0
LINE
  5
196AC
330
1916C
100
AcDbEntity
  8
寸法
 62
     0
 48
50.0
370
    -2
100
AcDbLine
 10
10876.84983051327
 20
2587.931598713257
 30
0.0
 11
9993.099701330018
 21
2587.931598713257
 31
0.0
  0
LINE
  5
196AD
330
1916C
100
AcDbEntity
  8
寸法
 62
     0
 48
50.0
370
    -2
100
AcDbLine
 10
10053.09970133002
 20
4377.93159871326
 30
0.0
 11
10053.09970133002
 21
2587.931598713257
 31
0.0
  0
INSERT
  5
196AE
330
1916C
100
AcDbEntity
  8
寸法
 62
     0
 48
50.0
370
    -2
100
AcDbBlockReference
  2
_DOTSMALL
 10
10053.09970133002
 20
4377.93159871326
 30
0.0
 41
100.0
 42
100.0
 43
100.0
 50
90.0
  0
INSERT
  5
196AF
330
1916C
100
AcDbEntity
  8
寸法
 62
     0
 48
50.0
370
    -2
100
AcDbBlockReference
  2
_DOTSMALL
 10
10053.09970133002
 20
2587.931598713257
 30
0.0
 41
100.0
 42
100.0
 43
100.0
 50
270.0
  0
MTEXT
  5
196B0
330
1916C
100
AcDbEntity
  8
寸法
 62
     7
 48
50.0
100
AcDbMText
 10
9953.099701330017
 20
3482.93159871326
 30
0.0
 40
120.0
 41
0.0
 71
     5
 72
     1
  1
\A1;1790
  7
STYLE1
 11
0.0000000000000001
 21
1.0
 31
0.0
 73
     1
 44
1.0
1001
ACAD
1000
MTEXTBEGIN
1070
    73
1070
     1
1070
    44
1040
1.0
1070
    74
1070
     0
1000
MTEXTEND
  0
POINT
  5
196B1
330
1916C
100
AcDbEntity
  8
DEFPOINTS
 62
     0
 48
50.0
100
AcDbPoint
 10
10896.84983051327
 20
4377.931598713259
 30
0.0
  0
POINT
  5
196B2
330
1916C
100
AcDbEntity
  8
DEFPOINTS
 62
     0
 48
50.0
100
AcDbPoint
 10
10896.84983051327
 20
2587.931598713257
 30
0.0
  0
POINT
  5
196B3
330
1916C
100
AcDbEntity
  8
DEFPOINTS
 62
     0
 48
50.0
100
AcDbPoint
 10
10053.09970133002
 20
2587.931598713257
 30
0.0
  0
ENDBLK
  5
19177
330
1916C
100
AcDbEntity
  8
0
 48
50.0
100
AcDbBlockEnd
  0
BLOCK
  5
19182
330
19178
100
AcDbEntity
  8
0
 48
50.0
100
AcDbBlockBegin
  2
*D27
 70
     1
 10
0.0
 20
0.0
 30
0.0
  3
*D27
  1

  0
LINE
  5
196A2
330
19178
100
AcDbEntity
  8
寸法
 62
     0
 48
50.0
370
    -2
100
AcDbLine
 10
10876.84983051327
 20
2537.931598713257
 30
0.0
 11
9693.099701330018
 21
2537.931598713257
 31
0.0
  0
LINE
  5
196A3
330
19178
100
AcDbEntity
  8
寸法
 62
     0
 48
50.0
370
    -2
100
AcDbLine
 10
10816.84983051327
 20
4612.931598713263
 30
0.0
 11
9693.099701330019
 21
4612.931598713264
 31
0.0
  0
LINE
  5
196A4
330
19178
100
AcDbEntity
  8
寸法
 62
     0
 48
50.0
370
    -2
100
AcDbLine
 10
9753.099701330016
 20
2537.931598713257
 30
0.0
 11
9753.099701330018
 21
4612.931598713264
 31
0.0
  0
INSERT
  5
196A5
330
19178
100
AcDbEntity
  8
寸法
 62
     0
 48
50.0
370
    -2
100
AcDbBlockReference
  2
_DOTSMALL
 10
9753.099701330016
 20
2537.931598713257
 30
0.0
 41
100.0
 42
100.0
 43
100.0
 50
270.0
  0
INSERT
  5
196A6
330
19178
100
AcDbEntity
  8
寸法
 62
     0
 48
50.0
370
    -2
100
AcDbBlockReference
  2
_DOTSMALL
 10
9753.099701330018
 20
4612.931598713264
 30
0.0
 41
100.0
 42
100.0
 43
100.0
 50
90.0
  0
MTEXT
  5
196A7
330
19178
100
AcDbEntity
  8
寸法
 62
     7
 48
50.0
100
AcDbMText
 10
9653.087890306395
 20
3575.431598713262
 30
0.0
 40
120.0
 41
0.0
 71
     5
 72
     1
  1
\A1;2075
  7
STYLE1
 11
0.0000000000000001
 21
1.0
 31
0.0
 73
     1
 44
1.0
1001
ACAD
1000
MTEXTBEGIN
1070
    73
1070
     1
1070
    44
1040
1.0
1070
    74
1070
     0
1000
MTEXTEND
  0
POINT
  5
196A8
330
19178
100
AcDbEntity
  8
DEFPOINTS
 62
     0
 48
50.0
100
AcDbPoint
 10
10896.84983051327
 20
2537.931598713257
 30
0.0
  0
POINT
  5
196A9
330
19178
100
AcDbEntity
  8
DEFPOINTS
 62
     0
 48
50.0
100
AcDbPoint
 10
10836.84983051327
 20
4612.931598713263
 30
0.0
  0
POINT
  5
196AA
330
19178
100
AcDbEntity
  8
DEFPOINTS
 62
     0
 48
50.0
100
AcDbPoint
 10
9753.099701330018
 20
4612.931598713264
 30
0.0
  0
ENDBLK
  5
19183
330
19178
100
AcDbEntity
  8
0
 48
50.0
100
AcDbBlockEnd
  0
BLOCK
  5
1918E
330
19184
100
AcDbEntity
  8
0
 48
50.0
100
AcDbBlockBegin
  2
*D28
 70
     1
 10
0.0
 20
0.0
 30
0.0
  3
*D28
  1

  0
LINE
  5
19699
330
19184
100
AcDbEntity
  8
寸法
 62
     0
 48
50.0
370
    -2
100
AcDbLine
 10
13546.84983051328
 20
2537.931598713265
 30
0.0
 11
14291.77698848541
 21
2537.931598713265
 31
0.0
  0
LINE
  5
1969A
330
19184
100
AcDbEntity
  8
寸法
 62
     0
 48
50.0
370
    -2
100
AcDbLine
 10
13626.84983051328
 20
4557.931598713265
 30
0.0
 11
14291.77698848541
 21
4557.931598713265
 31
0.0
  0
LINE
  5
1969B
330
19184
100
AcDbEntity
  8
寸法
 62
     0
 48
50.0
370
    -2
100
AcDbLine
 10
14231.77698848541
 20
2537.931598713265
 30
0.0
 11
14231.77698848541
 21
4557.931598713265
 31
0.0
  0
INSERT
  5
1969C
330
19184
100
AcDbEntity
  8
寸法
 62
     0
 48
50.0
370
    -2
100
AcDbBlockReference
  2
_DOTSMALL
 10
14231.77698848541
 20
2537.931598713265
 30
0.0
 41
100.0
 42
100.0
 43
100.0
 50
270.0
  0
INSERT
  5
1969D
330
19184
100
AcDbEntity
  8
寸法
 62
     0
 48
50.0
370
    -2
100
AcDbBlockReference
  2
_DOTSMALL
 10
14231.77698848541
 20
4557.931598713265
 30
0.0
 41
100.0
 42
100.0
 43
100.0
 50
90.0
  0
MTEXT
  5
1969E
330
19184
100
AcDbEntity
  8
寸法
 62
     7
 48
50.0
100
AcDbMText
 10
14131.76517746178
 20
3547.931598713268
 30
0.0
 40
120.0
 41
0.0
 71
     5
 72
     1
  1
\A1;2020
  7
STYLE1
 11
0.0000000000000001
 21
1.0
 31
0.0
 73
     1
 44
1.0
1001
ACAD
1000
MTEXTBEGIN
1070
    73
1070
     1
1070
    44
1040
1.0
1070
    74
1070
     0
1000
MTEXTEND
  0
POINT
  5
1969F
330
19184
100
AcDbEntity
  8
DEFPOINTS
 62
     0
 48
50.0
100
AcDbPoint
 10
13526.84983051328
 20
2537.931598713265
 30
0.0
  0
POINT
  5
196A0
330
19184
100
AcDbEntity
  8
DEFPOINTS
 62
     0
 48
50.0
100
AcDbPoint
 10
13606.84983051328
 20
4557.931598713265
 30
0.0
  0
POINT
  5
196A1
330
19184
100
AcDbEntity
  8
DEFPOINTS
 62
     0
 48
50.0
100
AcDbPoint
 10
14231.77698848541
 20
4557.931598713265
 30
0.0
  0
ENDBLK
  5
1918F
330
19184
100
AcDbEntity
  8
0
 48
50.0
100
AcDbBlockEnd
  0
BLOCK
  5
1919C
330
19190
100
AcDbEntity
  8
0
 48
50.0
100
AcDbBlockBegin
  2
*D29
 70
     1
 10
0.0
 20
0.0
 30
0.0
  3
*D29
  1

  0
LINE
  5
196C6
330
19190
100
AcDbEntity
  8
寸法
 62
     0
 48
50.0
370
    -2
100
AcDbLine
 10
10876.84983051327
 20
2587.931598713263
 30
0.0
 11
9993.099701330018
 21
2587.931598713263
 31
0.0
  0
LINE
  5
196C7
330
19190
100
AcDbEntity
  8
寸法
 62
     0
 48
50.0
370
    -2
100
AcDbLine
 10
10821.84983051328
 20
2537.931598713263
 30
0.0
 11
9993.099701330018
 21
2537.931598713263
 31
0.0
  0
LINE
  5
196C8
330
19190
100
AcDbEntity
  8
寸法
 62
     0
 48
50.0
370
    -2
100
AcDbLine
 10
10053.09970133002
 20
2587.931598713263
 30
0.0
 11
10053.09970133002
 21
2687.931598713263
 31
0.0
  0
LINE
  5
196C9
330
19190
100
AcDbEntity
  8
寸法
 62
     0
 48
50.0
370
    -2
100
AcDbLine
 10
10053.09970133002
 20
2537.931598713263
 30
0.0
 11
10053.09970133002
 21
2125.837110524283
 31
0.0
  0
LINE
  5
196CA
330
19190
100
AcDbEntity
  8
寸法
 62
     0
 48
50.0
370
    -2
100
AcDbLine
 10
10053.09970133002
 20
2587.931598713263
 30
0.0
 11
10053.09970133002
 21
2537.931598713263
 31
0.0
  0
INSERT
  5
196CB
330
19190
100
AcDbEntity
  8
寸法
 62
     0
 48
50.0
370
    -2
100
AcDbBlockReference
  2
_DOTSMALL
 10
10053.09970133002
 20
2587.931598713263
 30
0.0
 41
100.0
 42
100.0
 43
100.0
 50
270.0
  0
INSERT
  5
196CC
330
19190
100
AcDbEntity
  8
寸法
 62
     0
 48
50.0
370
    -2
100
AcDbBlockReference
  2
_DOTSMALL
 10
10053.09970133002
 20
2537.931598713263
 30
0.0
 41
100.0
 42
100.0
 43
100.0
 50
90.0
  0
MTEXT
  5
196CD
330
19190
100
AcDbEntity
  8
寸法
 62
     7
 48
50.0
100
AcDbMText
 10
9953.099701330017
 20
2231.884354618773
 30
0.0
 40
120.0
 41
0.0
 71
     5
 72
     1
  1
\A1;50
  7
STYLE1
 11
0.0000000000000001
 21
1.0
 31
0.0
 73
     1
 44
1.0
1001
ACAD
1000
MTEXTBEGIN
1070
    73
1070
     1
1070
    44
1040
1.0
1070
    74
1070
     0
1000
MTEXTEND
  0
POINT
  5
196CE
330
19190
100
AcDbEntity
  8
DEFPOINTS
 62
     0
 48
50.0
100
AcDbPoint
 10
10896.84983051327
 20
2587.931598713263
 30
0.0
  0
POINT
  5
196CF
330
19190
100
AcDbEntity
  8
DEFPOINTS
 62
     0
 48
50.0
100
AcDbPoint
 10
10841.84983051328
 20
2537.931598713263
 30
0.0
  0
POINT
  5
196D0
330
19190
100
AcDbEntity
  8
DEFPOINTS
 62
     0
 48
50.0
100
AcDbPoint
 10
10053.09970133002
 20
2537.931598713263
 30
0.0
  0
ENDBLK
  5
1919D
330
19190
100
AcDbEntity
  8
0
 48
50.0
100
AcDbBlockEnd
  0
BLOCK
  5
191A8
330
1919E
100
AcDbEntity
  8
0
 48
50.0
100
AcDbBlockBegin
  2
*D30
 70
     1
 10
0.0
 20
0.0
 30
0.0
  3
*D30
  1

  0
LINE
  5
1A219
330
1919E
100
AcDbEntity
  8
寸法
 62
     0
 48
50.0
370
    -2
100
AcDbLine
 10
13526.84983051328
 20
4579.742278324917
 30
0.0
 11
13526.84983051328
 21
5071.589052292569
 31
0.0
  0
LINE
  5
1A21A
330
1919E
100
AcDbEntity
  8
寸法
 62
     0
 48
50.0
370
    -2
100
AcDbLine
 10
10896.84983051327
 20
4628.93321683624
 30
0.0
 11
10896.84983051327
 21
5071.589052292569
 31
0.0
  0
LINE
  5
1A21B
330
1919E
100
AcDbEntity
  8
寸法
 62
     0
 48
50.0
370
    -2
100
AcDbLine
 10
13526.84983051328
 20
5011.58905229257
 30
0.0
 11
10896.84983051327
 21
5011.58905229257
 31
0.0
  0
INSERT
  5
1A21C
330
1919E
100
AcDbEntity
  8
寸法
 62
     0
 48
50.0
370
    -2
100
AcDbBlockReference
  2
_DOTSMALL
 10
13526.84983051328
 20
5011.58905229257
 30
0.0
 41
100.0
 42
100.0
 43
100.0
  0
INSERT
  5
1A21D
330
1919E
100
AcDbEntity
  8
寸法
 62
     0
 48
50.0
370
    -2
100
AcDbBlockReference
  2
_DOTSMALL
 10
10896.84983051327
 20
5011.58905229257
 30
0.0
 41
100.0
 42
100.0
 43
100.0
 50
180.0
  0
MTEXT
  5
1A21E
330
1919E
100
AcDbEntity
  8
寸法
 62
     7
 48
50.0
100
AcDbMText
 10
12211.84983051328
 20
5111.600863316191
 30
0.0
 40
120.0
 41
0.0
 71
     5
 72
     1
  1
\A1;柱外寸法2630
  7
STYLE1
 73
     1
 44
1.0
1001
ACAD
1000
MTEXTBEGIN
1070
    73
1070
     1
1070
    44
1040
1.0
1070
    74
1070
     0
1000
MTEXTEND
  0
POINT
  5
1A21F
330
1919E
100
AcDbEntity
  8
DEFPOINTS
 62
     0
 48
50.0
100
AcDbPoint
 10
13526.84983051328
 20
4559.742278324916
 30
0.0
  0
POINT
  5
1A220
330
1919E
100
AcDbEntity
  8
DEFPOINTS
 62
     0
 48
50.0
100
AcDbPoint
 10
10896.84983051327
 20
4608.93321683624
 30
0.0
  0
POINT
  5
1A221
330
1919E
100
AcDbEntity
  8
DEFPOINTS
 62
     0
 48
50.0
100
AcDbPoint
 10
10896.84983051327
 20
5011.58905229257
 30
0.0
  0
ENDBLK
  5
191A9
330
1919E
100
AcDbEntity
  8
0
 48
50.0
100
AcDbBlockEnd
  0
BLOCK
  5
191B6
330
191AA
100
AcDbEntity
  8
0
 48
50.0
100
AcDbBlockBegin
  2
*D31
 70
     1
 10
0.0
 20
0.0
 30
0.0
  3
*D31
  1

  0
LINE
  5
19685
330
191AA
100
AcDbEntity
  8
寸法
 62
     0
 48
50.0
370
    -2
100
AcDbLine
 10
10896.84983051327
 20
4628.93321683624
 30
0.0
 11
10896.84983051327
 21
5071.589052292567
 31
0.0
  0
LINE
  5
19686
330
191AA
100
AcDbEntity
  8
寸法
 62
     0
 48
50.0
370
    -2
100
AcDbLine
 10
10836.84983051327
 20
4632.931598713269
 30
0.0
 11
10836.84983051327
 21
5071.589052292567
 31
0.0
  0
LINE
  5
19687
330
191AA
100
AcDbEntity
  8
寸法
 62
     0
 48
50.0
370
    -2
100
AcDbLine
 10
10896.84983051327
 20
5011.589052292567
 30
0.0
 11
10996.84983051328
 21
5011.589052292567
 31
0.0
  0
LINE
  5
19688
330
191AA
100
AcDbEntity
  8
寸法
 62
     0
 48
50.0
370
    -2
100
AcDbLine
 10
10836.84983051327
 20
5011.589052292567
 30
0.0
 11
10417.57423996209
 21
5011.589052292567
 31
0.0
  0
LINE
  5
19689
330
191AA
100
AcDbEntity
  8
寸法
 62
     0
 48
50.0
370
    -2
100
AcDbLine
 10
10896.84983051327
 20
5011.589052292567
 30
0.0
 11
10836.84983051327
 21
5011.589052292567
 31
0.0
  0
INSERT
  5
1968A
330
191AA
100
AcDbEntity
  8
寸法
 62
     0
 48
50.0
370
    -2
100
AcDbBlockReference
  2
_DOTSMALL
 10
10896.84983051327
 20
5011.589052292567
 30
0.0
 41
100.0
 42
100.0
 43
100.0
 50
180.0
  0
INSERT
  5
1968B
330
191AA
100
AcDbEntity
  8
寸法
 62
     0
 48
50.0
370
    -2
100
AcDbBlockReference
  2
_DOTSMALL
 10
10836.84983051327
 20
5011.589052292567
 30
0.0
 41
100.0
 42
100.0
 43
100.0
  0
MTEXT
  5
1968C
330
191AA
100
AcDbEntity
  8
寸法
 62
     7
 48
50.0
100
AcDbMText
 10
10527.21203523768
 20
5111.589052292567
 30
0.0
 40
120.0
 41
0.0
 71
     5
 72
     1
  1
\A1;60
  7
STYLE1
 73
     1
 44
1.0
1001
ACAD
1000
MTEXTBEGIN
1070
    73
1070
     1
1070
    44
1040
1.0
1070
    74
1070
     0
1000
MTEXTEND
  0
POINT
  5
1968D
330
191AA
100
AcDbEntity
  8
DEFPOINTS
 62
     0
 48
50.0
100
AcDbPoint
 10
10896.84983051327
 20
4608.93321683624
 30
0.0
  0
POINT
  5
1968E
330
191AA
100
AcDbEntity
  8
DEFPOINTS
 62
     0
 48
50.0
100
AcDbPoint
 10
10836.84983051327
 20
4612.931598713268
 30
0.0
  0
POINT
  5
1968F
330
191AA
100
AcDbEntity
  8
DEFPOINTS
 62
     0
 48
50.0
100
AcDbPoint
 10
10836.84983051327
 20
5011.589052292567
 30
0.0
  0
ENDBLK
  5
191B7
330
191AA
100
AcDbEntity
  8
0
 48
50.0
100
AcDbBlockEnd
  0
BLOCK
  5
191C2
330
191B8
100
AcDbEntity
  8
0
 48
50.0
100
AcDbBlockBegin
  2
*D32
 70
     1
 10
0.0
 20
0.0
 30
0.0
  3
*D32
  1

  0
LINE
  5
1A210
330
191B8
100
AcDbEntity
  8
寸法
 62
     0
 48
50.0
370
    -2
100
AcDbLine
 10
13606.84983051328
 20
4577.931598713265
 30
0.0
 11
13606.84983051328
 21
5291.799739024185
 31
0.0
  0
LINE
  5
1A211
330
191B8
100
AcDbEntity
  8
寸法
 62
     0
 48
50.0
370
    -2
100
AcDbLine
 10
10836.84983051327
 20
4632.931598713269
 30
0.0
 11
10836.84983051327
 21
5291.799739024185
 31
0.0
  0
LINE
  5
1A212
330
191B8
100
AcDbEntity
  8
寸法
 62
     0
 48
50.0
370
    -2
100
AcDbLine
 10
13606.84983051328
 20
5231.799739024186
 30
0.0
 11
10836.84983051327
 21
5231.799739024186
 31
0.0
  0
INSERT
  5
1A213
330
191B8
100
AcDbEntity
  8
寸法
 62
     0
 48
50.0
370
    -2
100
AcDbBlockReference
  2
_DOTSMALL
 10
13606.84983051328
 20
5231.799739024186
 30
0.0
 41
100.0
 42
100.0
 43
100.0
  0
INSERT
  5
1A214
330
191B8
100
AcDbEntity
  8
寸法
 62
     0
 48
50.0
370
    -2
100
AcDbBlockReference
  2
_DOTSMALL
 10
10836.84983051327
 20
5231.799739024186
 30
0.0
 41
100.0
 42
100.0
 43
100.0
 50
180.0
  0
MTEXT
  5
1A215
330
191B8
100
AcDbEntity
  8
寸法
 62
     7
 48
50.0
100
AcDbMText
 10
12221.84983051328
 20
5331.811550047807
 30
0.0
 40
120.0
 41
0.0
 71
     5
 72
     1
  1
\A1;2770
  7
STYLE1
 73
     1
 44
1.0
1001
ACAD
1000
MTEXTBEGIN
1070
    73
1070
     1
1070
    44
1040
1.0
1070
    74
1070
     0
1000
MTEXTEND
  0
POINT
  5
1A216
330
191B8
100
AcDbEntity
  8
DEFPOINTS
 62
     0
 48
50.0
100
AcDbPoint
 10
13606.84983051328
 20
4557.931598713265
 30
0.0
  0
POINT
  5
1A217
330
191B8
100
AcDbEntity
  8
DEFPOINTS
 62
     0
 48
50.0
100
AcDbPoint
 10
10836.84983051327
 20
4612.931598713268
 30
0.0
  0
POINT
  5
1A218
330
191B8
100
AcDbEntity
  8
DEFPOINTS
 62
     0
 48
50.0
100
AcDbPoint
 10
10836.84983051327
 20
5231.799739024186
 30
0.0
  0
ENDBLK
  5
191C3
330
191B8
100
AcDbEntity
  8
0
 48
50.0
100
AcDbBlockEnd
  0
BLOCK
  5
191CF
330
191C4
100
AcDbEntity
  8
0
 48
50.0
100
AcDbBlockBegin
  2
*D33
 70
     1
 10
0.0
 20
0.0
 30
0.0
  3
*D33
  1

  0
LINE
  5
19672
330
191C4
100
AcDbEntity
  8
寸法
 62
     0
 48
50.0
370
    -2
100
AcDbLine
 10
13526.84983051328
 20
4579.742278324917
 30
0.0
 11
13526.84983051328
 21
5071.589052292569
 31
0.0
  0
LINE
  5
19673
330
191C4
100
AcDbEntity
  8
寸法
 62
     0
 48
50.0
370
    -2
100
AcDbLine
 10
13606.84983051328
 20
4577.931598713265
 30
0.0
 11
13606.84983051328
 21
5071.589052292569
 31
0.0
  0
LINE
  5
19674
330
191C4
100
AcDbEntity
  8
寸法
 62
     0
 48
50.0
370
    -2
100
AcDbLine
 10
13526.84983051328
 20
5011.58905229257
 30
0.0
 11
13606.84983051328
 21
5011.58905229257
 31
0.0
  0
LINE
  5
19675
330
191C4
100
AcDbEntity
  8
寸法
 62
     0
 48
50.0
370
    -2
100
AcDbLine
 10
13606.84983051328
 20
5011.58905229257
 30
0.0
 11
13918.94431870225
 21
5011.58905229257
 31
0.0
  0
INSERT
  5
19676
330
191C4
100
AcDbEntity
  8
寸法
 62
     0
 48
50.0
370
    -2
100
AcDbBlockReference
  2
_DOTSMALL
 10
13526.84983051328
 20
5011.58905229257
 30
0.0
 41
100.0
 42
100.0
 43
100.0
 50
180.0
  0
INSERT
  5
19677
330
191C4
100
AcDbEntity
  8
寸法
 62
     0
 48
50.0
370
    -2
100
AcDbBlockReference
  2
_DOTSMALL
 10
13606.84983051328
 20
5011.58905229257
 30
0.0
 41
100.0
 42
100.0
 43
100.0
  0
MTEXT
  5
19678
330
191C4
100
AcDbEntity
  8
寸法
 62
     7
 48
50.0
100
AcDbMText
 10
13812.89707460777
 20
5111.589052292569
 30
0.0
 40
120.0
 41
0.0
 71
     5
 72
     1
  1
\A1;80
  7
STYLE1
 73
     1
 44
1.0
1001
ACAD
1000
MTEXTBEGIN
1070
    73
1070
     1
1070
    44
1040
1.0
1070
    74
1070
     0
1000
MTEXTEND
  0
POINT
  5
19679
330
191C4
100
AcDbEntity
  8
DEFPOINTS
 62
     0
 48
50.0
100
AcDbPoint
 10
13526.84983051328
 20
4559.742278324916
 30
0.0
  0
POINT
  5
1967A
330
191C4
100
AcDbEntity
  8
DEFPOINTS
 62
     0
 48
50.0
100
AcDbPoint
 10
13606.84983051328
 20
4557.931598713265
 30
0.0
  0
POINT
  5
1967B
330
191C4
100
AcDbEntity
  8
DEFPOINTS
 62
     0
 48
50.0
100
AcDbPoint
 10
13606.84983051328
 20
5011.58905229257
 30
0.0
  0
ENDBLK
  5
191D0
330
191C4
100
AcDbEntity
  8
0
 48
50.0
100
AcDbBlockEnd
  0
BLOCK
  5
191DC
330
191D1
100
AcDbEntity
  8
0
 48
50.0
100
AcDbBlockBegin
  2
*D34
 70
     1
 10
0.0
 20
0.0
 30
0.0
  3
*D34
  1

  0
LINE
  5
19668
330
191D1
100
AcDbEntity
  8
寸法
 62
     0
 48
50.0
370
    -2
100
AcDbLine
 10
10836.25411680438
 20
4612.229305782924
 30
0.0
 11
10220.31967769909
 21
4629.943456057254
 31
0.0
  0
LINE
  5
19669
330
191D1
100
AcDbEntity
  8
寸法
 62
     0
 48
50.0
370
    -2
100
AcDbLine
 10
10832.20066124775
 20
4471.287582017212
 30
0.0
 11
10216.26622214247
 21
4489.001732291542
 31
0.0
  0
LINE
  5
1966A
330
191D1
100
AcDbEntity
  8
寸法
 62
     0
 48
50.0
370
    -2
100
AcDbLine
 10
10276.2414237449
 20
4487.276857586595
 30
0.0
 11
10280.29487930153
 21
4628.218581352308
 31
0.0
  0
LINE
  5
1966B
330
191D1
100
AcDbEntity
  8
寸法
 62
     0
 48
50.0
370
    -2
100
AcDbLine
 10
10280.29487930153
 20
4628.218581352308
 30
0.0
 11
10290.64412753121
 21
4988.069790966893
 31
0.0
  0
INSERT
  5
1966C
330
191D1
100
AcDbEntity
  8
寸法
 62
     0
 48
50.0
370
    -2
100
AcDbBlockReference
  2
_DOTSMALL
 10
10276.2414237449
 20
4487.276857586595
 30
0.0
 41
100.0
 42
100.0
 43
100.0
 50
268.3526390256378
  0
INSERT
  5
1966D
330
191D1
100
AcDbEntity
  8
寸法
 62
     0
 48
50.0
370
    -2
100
AcDbBlockReference
  2
_DOTSMALL
 10
10280.29487930153
 20
4628.218581352308
 30
0.0
 41
100.0
 42
100.0
 43
100.0
 50
88.35263902563776
  0
MTEXT
  5
1966E
330
191D1
100
AcDbEntity
  8
寸法
 62
     7
 48
50.0
100
AcDbMText
 10
10186.94822966644
 20
4860.998312003204
 30
0.0
 40
120.0
 41
0.0
 71
     5
 72
     1
  1
\A1;141
  7
STYLE1
 11
0.0287479117491237
 21
0.9995866933738488
 31
0.0
 73
     1
 44
1.0
1001
ACAD
1000
MTEXTBEGIN
1070
    73
1070
     1
1070
    44
1040
1.0
1070
    74
1070
     0
1000
MTEXTEND
  0
POINT
  5
1966F
330
191D1
100
AcDbEntity
  8
DEFPOINTS
 62
     0
 48
50.0
100
AcDbPoint
 10
10856.24585067185
 20
4611.654347547943
 30
0.0
  0
POINT
  5
19670
330
191D1
100
AcDbEntity
  8
DEFPOINTS
 62
     0
 48
50.0
100
AcDbPoint
 10
10852.19239511523
 20
4470.712623782229
 30
0.0
  0
POINT
  5
19671
330
191D1
100
AcDbEntity
  8
DEFPOINTS
 62
     0
 48
50.0
100
AcDbPoint
 10
10276.2414237449
 20
4487.276857586595
 30
0.0
  0
ENDBLK
  5
191DD
330
191D1
100
AcDbEntity
  8
0
 48
50.0
100
AcDbBlockEnd
  0
BLOCK
  5
1971C
330
19710
100
AcDbEntity
  8
0
 48
50.0
100
AcDbBlockBegin
  2
*D35
 70
     1
 10
0.0
 20
0.0
 30
0.0
  3
*D35
  1

  0
LINE
  5
19736
330
19710
100
AcDbEntity
  8
寸法
 62
     0
 48
50.0
370
    -2
100
AcDbLine
 10
2899.673057123655
 20
4632.931598713269
 30
0.0
 11
2899.673057123655
 21
5078.657870445171
 31
0.0
  0
LINE
  5
19737
330
19710
100
AcDbEntity
  8
寸法
 62
     0
 48
50.0
370
    -2
100
AcDbLine
 10
2849.673057123655
 20
4632.931598713269
 30
0.0
 11
2849.673057123655
 21
5078.657870445171
 31
0.0
  0
LINE
  5
19738
330
19710
100
AcDbEntity
  8
寸法
 62
     0
 48
50.0
370
    -2
100
AcDbLine
 10
2899.673057123655
 20
5018.657870445171
 30
0.0
 11
2999.673057123655
 21
5018.657870445171
 31
0.0
  0
LINE
  5
19739
330
19710
100
AcDbEntity
  8
寸法
 62
     0
 48
50.0
370
    -2
100
AcDbLine
 10
2849.673057123655
 20
5018.657870445171
 30
0.0
 11
2430.140531654919
 21
5018.657870445171
 31
0.0
  0
LINE
  5
1973A
330
19710
100
AcDbEntity
  8
寸法
 62
     0
 48
50.0
370
    -2
100
AcDbLine
 10
2899.673057123655
 20
5018.657870445171
 30
0.0
 11
2849.673057123655
 21
5018.657870445171
 31
0.0
  0
INSERT
  5
1973B
330
19710
100
AcDbEntity
  8
寸法
 62
     0
 48
50.0
370
    -2
100
AcDbBlockReference
  2
_DOTSMALL
 10
2899.673057123655
 20
5018.657870445171
 30
0.0
 41
100.0
 42
100.0
 43
100.0
 50
180.0
  0
INSERT
  5
1973C
330
19710
100
AcDbEntity
  8
寸法
 62
     0
 48
50.0
370
    -2
100
AcDbBlockReference
  2
_DOTSMALL
 10
2849.673057123655
 20
5018.657870445171
 30
0.0
 41
100.0
 42
100.0
 43
100.0
  0
MTEXT
  5
1973D
330
19710
100
AcDbEntity
  8
寸法
 62
     7
 48
50.0
100
AcDbMText
 10
2536.187775749408
 20
5118.657870445171
 30
0.0
 40
120.0
 41
0.0
 71
     5
 72
     1
  1
\A1;50
  7
STYLE1
 73
     1
 44
1.0
1001
ACAD
1000
MTEXTBEGIN
1070
    73
1070
     1
1070
    44
1040
1.0
1070
    74
1070
     0
1000
MTEXTEND
  0
POINT
  5
1973E
330
19710
100
AcDbEntity
  8
DEFPOINTS
 62
     0
 48
50.0
100
AcDbPoint
 10
2899.673057123655
 20
4612.931598713268
 30
0.0
  0
POINT
  5
1973F
330
19710
100
AcDbEntity
  8
DEFPOINTS
 62
     0
 48
50.0
100
AcDbPoint
 10
2849.673057123655
 20
4612.931598713268
 30
0.0
  0
POINT
  5
19740
330
19710
100
AcDbEntity
  8
DEFPOINTS
 62
     0
 48
50.0
100
AcDbPoint
 10
2849.673057123655
 20
5018.657870445171
 30
0.0
  0
ENDBLK
  5
1971D
330
19710
100
AcDbEntity
  8
0
 48
50.0
100
AcDbBlockEnd
  0
BLOCK
  5
19796
330
1978A
100
AcDbEntity
  8
0
 48
50.0
100
AcDbBlockBegin
  2
*D36
 70
     1
 10
0.0
 20
0.0
 30
0.0
  3
*D36
  1

  0
LINE
  5
19798
330
1978A
100
AcDbEntity
  8
寸法
 62
     0
 48
50.0
370
    -2
100
AcDbLine
 10
8319.673057123656
 20
4632.931598713265
 30
0.0
 11
8319.673057123656
 21
5078.657870445176
 31
0.0
  0
LINE
  5
19799
330
1978A
100
AcDbEntity
  8
寸法
 62
     0
 48
50.0
370
    -2
100
AcDbLine
 10
8269.673057123659
 20
4632.931598713269
 30
0.0
 11
8269.673057123659
 21
5078.657870445176
 31
0.0
  0
LINE
  5
1979A
330
1978A
100
AcDbEntity
  8
寸法
 62
     0
 48
50.0
370
    -2
100
AcDbLine
 10
8269.673057123659
 20
5018.657870445176
 30
0.0
 11
8169.673057123659
 21
5018.657870445176
 31
0.0
  0
LINE
  5
1979B
330
1978A
100
AcDbEntity
  8
寸法
 62
     0
 48
50.0
370
    -2
100
AcDbLine
 10
8319.673057123656
 20
5018.657870445176
 30
0.0
 11
8739.205582592386
 21
5018.657870445176
 31
0.0
  0
LINE
  5
1979C
330
1978A
100
AcDbEntity
  8
寸法
 62
     0
 48
50.0
370
    -2
100
AcDbLine
 10
8269.673057123659
 20
5018.657870445176
 30
0.0
 11
8319.673057123656
 21
5018.657870445176
 31
0.0
  0
INSERT
  5
1979D
330
1978A
100
AcDbEntity
  8
寸法
 62
     0
 48
50.0
370
    -2
100
AcDbBlockReference
  2
_DOTSMALL
 10
8269.673057123659
 20
5018.657870445176
 30
0.0
 41
100.0
 42
100.0
 43
100.0
  0
INSERT
  5
1979E
330
1978A
100
AcDbEntity
  8
寸法
 62
     0
 48
50.0
370
    -2
100
AcDbBlockReference
  2
_DOTSMALL
 10
8319.673057123656
 20
5018.657870445176
 30
0.0
 41
100.0
 42
100.0
 43
100.0
 50
180.0
  0
MTEXT
  5
1979F
330
1978A
100
AcDbEntity
  8
寸法
 62
     7
 48
50.0
100
AcDbMText
 10
8633.158338497898
 20
5118.657870445176
 30
0.0
 40
120.0
 41
0.0
 71
     5
 72
     1
  1
\A1;50
  7
STYLE1
 73
     1
 44
1.0
1001
ACAD
1000
MTEXTBEGIN
1070
    73
1070
     1
1070
    44
1040
1.0
1070
    74
1070
     0
1000
MTEXTEND
  0
POINT
  5
197A0
330
1978A
100
AcDbEntity
  8
DEFPOINTS
 62
     0
 48
50.0
100
AcDbPoint
 10
8319.673057123656
 20
4612.931598713266
 30
0.0
  0
POINT
  5
197A1
330
1978A
100
AcDbEntity
  8
DEFPOINTS
 62
     0
 48
50.0
100
AcDbPoint
 10
8269.673057123659
 20
4612.931598713269
 30
0.0
  0
POINT
  5
197A2
330
1978A
100
AcDbEntity
  8
DEFPOINTS
 62
     0
 48
50.0
100
AcDbPoint
 10
8269.673057123659
 20
5018.657870445176
 30
0.0
  0
ENDBLK
  5
19797
330
1978A
100
AcDbEntity
  8
0
 48
50.0
100
AcDbBlockEnd
  0
BLOCK
  5
19C75
330
19C6B
100
AcDbEntity
  8
0
 48
50.0
100
AcDbBlockBegin
  2
*D37
 70
     1
 10
0.0
 20
0.0
 30
0.0
  3
*D37
  1

  0
LINE
  5
19CB0
330
19C6B
100
AcDbEntity
  8
寸法
 62
     0
 48
50.0
370
    -2
100
AcDbLine
 10
8269.673057123659
 20
4632.931598713269
 30
0.0
 11
8269.673057123659
 21
5078.657870445171
 31
0.0
  0
LINE
  5
19CB1
330
19C6B
100
AcDbEntity
  8
寸法
 62
     0
 48
50.0
370
    -2
100
AcDbLine
 10
2899.673057123656
 20
4632.931598713268
 30
0.0
 11
2899.673057123656
 21
5078.657870445171
 31
0.0
  0
LINE
  5
19CB2
330
19C6B
100
AcDbEntity
  8
寸法
 62
     0
 48
50.0
370
    -2
100
AcDbLine
 10
8269.673057123659
 20
5018.657870445171
 30
0.0
 11
2899.673057123656
 21
5018.657870445171
 31
0.0
  0
INSERT
  5
19CB3
330
19C6B
100
AcDbEntity
  8
寸法
 62
     0
 48
50.0
370
    -2
100
AcDbBlockReference
  2
_DOTSMALL
 10
8269.673057123659
 20
5018.657870445171
 30
0.0
 41
100.0
 42
100.0
 43
100.0
  0
INSERT
  5
19CB4
330
19C6B
100
AcDbEntity
  8
寸法
 62
     0
 48
50.0
370
    -2
100
AcDbBlockReference
  2
_DOTSMALL
 10
2899.673057123656
 20
5018.657870445171
 30
0.0
 41
100.0
 42
100.0
 43
100.0
 50
180.0
  0
MTEXT
  5
19CB5
330
19C6B
100
AcDbEntity
  8
寸法
 62
     7
 48
50.0
100
AcDbMText
 10
5584.673057123659
 20
5118.657870445171
 30
0.0
 40
120.0
 41
0.0
 71
     5
 72
     1
  1
\A1;柱外寸法 N X 1790
  7
STYLE1
 73
     1
 44
1.0
1001
ACAD
1000
MTEXTBEGIN
1070
    73
1070
     1
1070
    44
1040
1.0
1070
    74
1070
     0
1000
MTEXTEND
  0
POINT
  5
19CB6
330
19C6B
100
AcDbEntity
  8
DEFPOINTS
 62
     0
 48
50.0
100
AcDbPoint
 10
8269.673057123659
 20
4612.931598713269
 30
0.0
  0
POINT
  5
19CB7
330
19C6B
100
AcDbEntity
  8
DEFPOINTS
 62
     0
 48
50.0
100
AcDbPoint
 10
2899.673057123656
 20
4612.931598713267
 30
0.0
  0
POINT
  5
19CB8
330
19C6B
100
AcDbEntity
  8
DEFPOINTS
 62
     0
 48
50.0
100
AcDbPoint
 10
2899.673057123656
 20
5018.657870445171
 30
0.0
  0
ENDBLK
  5
19C76
330
19C6B
100
AcDbEntity
  8
0
 48
50.0
100
AcDbBlockEnd
  0
BLOCK
  5
19C81
330
19C77
100
AcDbEntity
  8
0
 48
50.0
100
AcDbBlockBegin
  2
*D38
 70
     1
 10
0.0
 20
0.0
 30
0.0
  3
*D38
  1

  0
LINE
  5
19CBA
330
19C77
100
AcDbEntity
  8
寸法
 62
     0
 48
50.0
370
    -2
100
AcDbLine
 10
2849.673057123656
 20
4632.931598713266
 30
0.0
 11
2849.673057123656
 21
5278.566791659262
 31
0.0
  0
LINE
  5
19CBB
330
19C77
100
AcDbEntity
  8
寸法
 62
     0
 48
50.0
370
    -2
100
AcDbLine
 10
8319.673057123656
 20
4632.931598713265
 30
0.0
 11
8319.673057123656
 21
5278.566791659262
 31
0.0
  0
LINE
  5
19CBC
330
19C77
100
AcDbEntity
  8
寸法
 62
     0
 48
50.0
370
    -2
100
AcDbLine
 10
2849.673057123656
 20
5218.566791659261
 30
0.0
 11
8319.673057123656
 21
5218.566791659261
 31
0.0
  0
INSERT
  5
19CBD
330
19C77
100
AcDbEntity
  8
寸法
 62
     0
 48
50.0
370
    -2
100
AcDbBlockReference
  2
_DOTSMALL
 10
2849.673057123656
 20
5218.566791659261
 30
0.0
 41
100.0
 42
100.0
 43
100.0
 50
180.0
  0
INSERT
  5
19CBE
330
19C77
100
AcDbEntity
  8
寸法
 62
     0
 48
50.0
370
    -2
100
AcDbBlockReference
  2
_DOTSMALL
 10
8319.673057123656
 20
5218.566791659261
 30
0.0
 41
100.0
 42
100.0
 43
100.0
  0
MTEXT
  5
19CBF
330
19C77
100
AcDbEntity
  8
寸法
 62
     7
 48
50.0
100
AcDbMText
 10
5584.673057123657
 20
5318.566791659261
 30
0.0
 40
120.0
 41
0.0
 71
     5
 72
     1
  1
\A1;N X 1790+100
  7
STYLE1
 73
     1
 44
1.0
1001
ACAD
1000
MTEXTBEGIN
1070
    73
1070
     1
1070
    44
1040
1.0
1070
    74
1070
     0
1000
MTEXTEND
  0
POINT
  5
19CC0
330
19C77
100
AcDbEntity
  8
DEFPOINTS
 62
     0
 48
50.0
100
AcDbPoint
 10
2849.673057123656
 20
4612.931598713267
 30
0.0
  0
POINT
  5
19CC1
330
19C77
100
AcDbEntity
  8
DEFPOINTS
 62
     0
 48
50.0
100
AcDbPoint
 10
8319.673057123656
 20
4612.931598713266
 30
0.0
  0
POINT
  5
19CC2
330
19C77
100
AcDbEntity
  8
DEFPOINTS
 62
     0
 48
50.0
100
AcDbPoint
 10
8319.673057123656
 20
5218.566791659261
 30
0.0
  0
ENDBLK
  5
19C82
330
19C77
100
AcDbEntity
  8
0
 48
50.0
100
AcDbBlockEnd
  0
BLOCK
  5
19FA2
330
19F97
100
AcDbEntity
  8
0
 48
50.0
100
AcDbBlockBegin
  2
*D39
 70
     1
 10
0.0
 20
0.0
 30
0.0
  3
*D39
  1

  0
LINE
  5
1A243
330
19F97
100
AcDbEntity
  8
寸法
 62
     0
 48
50.0
370
    -2
100
AcDbLine
 10
8289.673057123657
 20
4212.931598713262
 30
0.0
 11
8617.216159445405
 21
4212.931598713262
 31
0.0
  0
LINE
  5
1A244
330
19F97
100
AcDbEntity
  8
寸法
 62
     0
 48
50.0
370
    -2
100
AcDbLine
 10
8289.673057123657
 20
4377.931598713261
 30
0.0
 11
8617.216159445405
 21
4377.931598713261
 31
0.0
  0
LINE
  5
1A245
330
19F97
100
AcDbEntity
  8
寸法
 62
     0
 48
50.0
370
    -2
100
AcDbLine
 10
8557.216159445404
 20
4212.931598713262
 30
0.0
 11
8557.216159445404
 21
4377.931598713261
 31
0.0
  0
LINE
  5
1A246
330
19F97
100
AcDbEntity
  8
寸法
 62
     0
 48
50.0
370
    -2
100
AcDbLine
 10
8557.216159445404
 20
4377.931598713261
 30
0.0
 11
8557.216159445404
 21
4754.902161461738
 31
0.0
  0
INSERT
  5
1A247
330
19F97
100
AcDbEntity
  8
寸法
 62
     0
 48
50.0
370
    -2
100
AcDbBlockReference
  2
_DOTSMALL
 10
8557.216159445404
 20
4212.931598713262
 30
0.0
 41
100.0
 42
100.0
 43
100.0
 50
270.0
  0
INSERT
  5
1A248
330
19F97
100
AcDbEntity
  8
寸法
 62
     0
 48
50.0
370
    -2
100
AcDbBlockReference
  2
_DOTSMALL
 10
8557.216159445404
 20
4377.931598713261
 30
0.0
 41
100.0
 42
100.0
 43
100.0
 50
90.0
  0
MTEXT
  5
1A249
330
19F97
100
AcDbEntity
  8
寸法
 62
     7
 48
50.0
100
AcDbMText
 10
8457.216159445403
 20
4616.4168800875
 30
0.0
 40
120.0
 41
0.0
 71
     5
 72
     1
  1
\A1;165
  7
STYLE1
 11
0.0000000000000001
 21
1.0
 31
0.0
 73
     1
 44
1.0
1001
ACAD
1000
MTEXTBEGIN
1070
    73
1070
     1
1070
    44
1040
1.0
1070
    74
1070
     0
1000
MTEXTEND
  0
POINT
  5
1A24A
330
19F97
100
AcDbEntity
  8
DEFPOINTS
 62
     0
 48
50.0
100
AcDbPoint
 10
8269.673057123657
 20
4212.931598713262
 30
0.0
  0
POINT
  5
1A24B
330
19F97
100
AcDbEntity
  8
DEFPOINTS
 62
     0
 48
50.0
100
AcDbPoint
 10
8269.673057123657
 20
4377.931598713261
 30
0.0
  0
POINT
  5
1A24C
330
19F97
100
AcDbEntity
  8
DEFPOINTS
 62
     0
 48
50.0
100
AcDbPoint
 10
8557.216159445404
 20
4377.931598713261
 30
0.0
  0
ENDBLK
  5
19FA3
330
19F97
100
AcDbEntity
  8
0
 48
50.0
100
AcDbBlockEnd
  0
BLOCK
  5
19FB0
330
19FA4
100
AcDbEntity
  8
0
 48
50.0
100
AcDbBlockBegin
  2
*D40
 70
     1
 10
0.0
 20
0.0
 30
0.0
  3
*D40
  1

  0
LINE
  5
1A238
330
19FA4
100
AcDbEntity
  8
寸法
 62
     0
 48
50.0
370
    -2
100
AcDbLine
 10
8289.673057123657
 20
4185.931598713261
 30
0.0
 11
8617.216159445403
 21
4185.931598713261
 31
0.0
  0
LINE
  5
1A239
330
19FA4
100
AcDbEntity
  8
寸法
 62
     0
 48
50.0
370
    -2
100
AcDbLine
 10
8289.673057123657
 20
4212.931598713262
 30
0.0
 11
8617.216159445403
 21
4212.931598713262
 31
0.0
  0
LINE
  5
1A23A
330
19FA4
100
AcDbEntity
  8
寸法
 62
     0
 48
50.0
370
    -2
100
AcDbLine
 10
8557.216159445403
 20
4185.931598713261
 30
0.0
 11
8557.216159445401
 21
4085.931598713261
 31
0.0
  0
LINE
  5
1A23B
330
19FA4
100
AcDbEntity
  8
寸法
 62
     0
 48
50.0
370
    -2
100
AcDbLine
 10
8557.216159445403
 20
4212.931598713262
 30
0.0
 11
8557.216159445403
 21
4312.931598713261
 31
0.0
  0
MTEXT
  5
1A23C
330
19FA4
100
AcDbEntity
  8
寸法
 62
     7
 48
50.0
100
AcDbMText
 10
8697.385982691768
 20
4213.898798552921
 30
0.0
 40
120.0
 41
0.0
 71
     5
 72
     1
  1
\A1;27
  7
STYLE1
 11
0.0000000000000001
 21
1.0
 31
0.0
 73
     1
 44
1.0
1001
ACAD
1000
MTEXTBEGIN
1070
    73
1070
     1
1070
    44
1040
1.0
1070
    74
1070
     0
1000
MTEXTEND
  0
LINE
  5
1A23D
330
19FA4
100
AcDbEntity
  8
寸法
 62
     0
 48
50.0
370
    -2
100
AcDbLine
 10
8557.216159445403
 20
4185.931598713261
 30
0.0
 11
8557.216159445403
 21
4212.931598713262
 31
0.0
  0
INSERT
  5
1A23E
330
19FA4
100
AcDbEntity
  8
寸法
 62
     0
 48
50.0
370
    -2
100
AcDbBlockReference
  2
_DOTSMALL
 10
8557.216159445403
 20
4185.931598713261
 30
0.0
 41
100.0
 42
100.0
 43
100.0
 50
90.0
  0
INSERT
  5
1A23F
330
19FA4
100
AcDbEntity
  8
寸法
 62
     0
 48
50.0
370
    -2
100
AcDbBlockReference
  2
_DOTSMALL
 10
8557.216159445403
 20
4212.931598713262
 30
0.0
 41
100.0
 42
100.0
 43
100.0
 50
270.0
  0
POINT
  5
1A240
330
19FA4
100
AcDbEntity
  8
DEFPOINTS
 62
     0
 48
50.0
100
AcDbPoint
 10
8269.673057123657
 20
4185.931598713261
 30
0.0
  0
POINT
  5
1A241
330
19FA4
100
AcDbEntity
  8
DEFPOINTS
 62
     0
 48
50.0
100
AcDbPoint
 10
8269.673057123657
 20
4212.931598713262
 30
0.0
  0
POINT
  5
1A242
330
19FA4
100
AcDbEntity
  8
DEFPOINTS
 62
     0
 48
50.0
100
AcDbPoint
 10
8557.216159445403
 20
4212.931598713262
 30
0.0
  0
ENDBLK
  5
19FB1
330
19FA4
100
AcDbEntity
  8
0
 48
50.0
100
AcDbBlockEnd
  0
BLOCK
  5
19FBC
330
19FB2
100
AcDbEntity
  8
0
 48
50.0
100
AcDbBlockBegin
  2
*D41
 70
     1
 10
0.0
 20
0.0
 30
0.0
  3
*D41
  1

  0
LINE
  5
1A019
330
19FB2
100
AcDbEntity
  8
寸法
 62
     0
 48
50.0
370
    -2
100
AcDbLine
 10
8289.673057123657
 20
2537.931598713262
 30
0.0
 11
8617.216159445401
 21
2537.931598713262
 31
0.0
  0
LINE
  5
1A01A
330
19FB2
100
AcDbEntity
  8
寸法
 62
     0
 48
50.0
370
    -2
100
AcDbLine
 10
8289.673057123657
 20
4185.931598713261
 30
0.0
 11
8617.216159445403
 21
4185.931598713261
 31
0.0
  0
LINE
  5
1A01B
330
19FB2
100
AcDbEntity
  8
寸法
 62
     0
 48
50.0
370
    -2
100
AcDbLine
 10
8557.216159445401
 20
2537.931598713262
 30
0.0
 11
8557.216159445403
 21
4185.931598713261
 31
0.0
  0
INSERT
  5
1A01C
330
19FB2
100
AcDbEntity
  8
寸法
 62
     0
 48
50.0
370
    -2
100
AcDbBlockReference
  2
_DOTSMALL
 10
8557.216159445401
 20
2537.931598713262
 30
0.0
 41
100.0
 42
100.0
 43
100.0
 50
270.0
  0
INSERT
  5
1A01D
330
19FB2
100
AcDbEntity
  8
寸法
 62
     0
 48
50.0
370
    -2
100
AcDbBlockReference
  2
_DOTSMALL
 10
8557.216159445403
 20
4185.931598713261
 30
0.0
 41
100.0
 42
100.0
 43
100.0
 50
90.0
  0
MTEXT
  5
1A01E
330
19FB2
100
AcDbEntity
  8
寸法
 62
     7
 48
50.0
100
AcDbMText
 10
8457.216159445401
 20
3361.931598713263
 30
0.0
 40
120.0
 41
0.0
 71
     5
 72
     1
  1
\A1;有効開口部高サ 1648
  7
STYLE1
 11
0.0000000000000001
 21
1.0
 31
0.0
 73
     1
 44
1.0
1001
ACAD
1000
MTEXTBEGIN
1070
    73
1070
     1
1070
    44
1040
1.0
1070
    74
1070
     0
1000
MTEXTEND
  0
POINT
  5
1A01F
330
19FB2
100
AcDbEntity
  8
DEFPOINTS
 62
     0
 48
50.0
100
AcDbPoint
 10
8269.673057123657
 20
2537.931598713262
 30
0.0
  0
POINT
  5
1A020
330
19FB2
100
AcDbEntity
  8
DEFPOINTS
 62
     0
 48
50.0
100
AcDbPoint
 10
8269.673057123657
 20
4185.931598713261
 30
0.0
  0
POINT
  5
1A021
330
19FB2
100
AcDbEntity
  8
DEFPOINTS
 62
     0
 48
50.0
100
AcDbPoint
 10
8557.216159445403
 20
4185.931598713261
 30
0.0
  0
ENDBLK
  5
19FBD
330
19FB2
100
AcDbEntity
  8
0
 48
50.0
100
AcDbBlockEnd
  0
ENDSEC
  0
SECTION
  2
ENTITIES
  0
MTEXT
  5
763F
330
747D
100
AcDbEntity
  8
0
100
AcDbMText
 10
302.846345836809
 20
280.1983726409901
 30
0.0
 40
3.5
 41
5.323721266742722
 71
     1
 72
     5
  1

  7
MSMINCHO
 73
     1
 44
1.0
1001
ACAD
1000
MTEXTBEGIN
1070
    73
1070
     1
1070
    44
1040
1.0
1070
    74
1070
     0
1000
MTEXTEND
  0
LINE
  5
10B57
330
747D
100
AcDbEntity
  8
補助
  6
PHANTOM
 62
   230
 48
50.0
100
AcDbLine
 10
139.9999999999995
 20
11409.6
 30
0.0
 11
16307.2
 21
11409.6
 31
0.0
  0
LINE
  5
10B59
330
747D
100
AcDbEntity
  8
仕様書枠
  6
Continuous
 48
50.0
100
AcDbLine
 10
13107.2
 20
1200.0
 30
0.0
 11
13107.2
 21
-0.0000000000000729
 31
0.0
  0
LINE
  5
10B5C
330
747D
100
AcDbEntity
  8
仕様書枠
 48
50.0
100
AcDbLine
 10
16307.2
 20
1200.0
 30
0.0
 11
16307.2
 21
-0.0000000000000909
 31
0.0
  0
LINE
  5
10B5D
330
747D
100
AcDbEntity
  8
仕様書枠
 48
50.0
100
AcDbLine
 10
140.0
 20
0.0
 30
0.0
 11
16307.2
 21
-0.0000000000000909
 31
0.0
  0
LINE
  5
10B5E
330
747D
100
AcDbEntity
  8
補助
  6
PHANTOM
 62
   230
 48
50.0
100
AcDbLine
 10
16307.2
 20
11409.6
 30
0.0
 11
16307.2
 21
1200.0
 31
0.0
  0
LINE
  5
10B6C
330
747D
100
AcDbEntity
  8
仕様書枠
 48
50.0
100
AcDbLine
 10
13107.2
 20
1200.0
 30
0.0
 11
16307.2
 21
1200.0
 31
0.0
  0
LINE
  5
10B6D
330
747D
100
AcDbEntity
  8
補助
  6
PHANTOM
 62
   230
 48
50.0
100
AcDbLine
 10
13107.2
 20
11409.6
 30
0.0
 11
13107.2
 21
4800.0
 31
0.0
  0
LINE
  5
10B6F
330
747D
100
AcDbEntity
  8
補助
  6
PHANTOM
 62
   230
 48
50.0
100
AcDbLine
 10
13107.2
 20
4800.0
 30
0.0
 11
16307.2
 21
4800.0
 31
0.0
  0
LINE
  5
10B72
330
747D
100
AcDbEntity
  8
文字
 62
     7
 48
50.0
100
AcDbLine
 10
13187.2
 20
400.0
 30
0.0
 11
16227.2
 21
400.0
 31
0.0
  0
TEXT
  5
10B73
330
747D
100
AcDbEntity
  8
文字
 62
     7
 48
50.0
100
AcDbText
 10
13162.9790565769
 20
895.0906074299405
 30
0.0
 40
200.0
  1
外 形 図
  7
STYLE2
100
AcDbText
  0
TEXT
  5
10B74
330
747D
100
AcDbEntity
  8
文字
 62
     7
 48
50.0
100
AcDbText
 10
13201.43669998441
 20
477.2740661031255
 30
0.0
 40
160.0
  1
機種名
  7
STYLE2
100
AcDbText
  0
TEXT
  5
10B75
330
747D
100
AcDbEntity
  8
文字
 62
     7
 48
50.0
100
AcDbText
 10
13209.4053442172
 20
228.5435242569016
 30
0.0
 40
100.0
  1
○有効開口寸法 ： 1584×1648(mm)
  7
STYLE2
100
AcDbText
  0
TEXT
  5
10B76
330
747D
100
AcDbEntity
  8
文字
 62
     7
 48
50.0
100
AcDbText
 10
13209.4053442172
 20
66.98032921074918
 30
0.0
 40
100.0
  1
○床面積 ： Ｎ［連続数］×4.70㎡(1.43坪)
  7
STYLE2
100
AcDbText
  0
TEXT
  5
10B79
330
747D
100
AcDbEntity
  8
文字
 62
     7
 48
50.0
100
AcDbText
 10
14524.131837222
 20
1031.557706291228
 30
0.0
 40
100.0
  1
NO.15      <縮尺> S=1/40
  7
STYLE2
100
AcDbText
  0
LINE
  5
10B7B
330
747D
100
AcDbEntity
  8
仕様書枠
 48
50.0
100
AcDbLine
 10
13107.2
 20
800.0
 30
0.0
 11
14251.2
 21
800.0
 31
0.0
  0
LINE
  5
10B88
330
747D
100
AcDbEntity
  8
仕様書枠
  6
Continuous
 48
50.0
100
AcDbLine
 10
14251.2
 20
1200.0
 30
0.0
 11
14251.2
 21
800.0
 31
0.0
  0
LINE
  5
127A8
330
747D
100
AcDbEntity
  8
部品1
100
AcDbLine
 10
1910.903465777273
 20
2567.835409280926
 30
0.0
 11
2060.903465777274
 21
2567.835409280926
 31
0.0
  0
LINE
  5
127A9
330
747D
100
AcDbEntity
  8
部品1
100
AcDbLine
 10
1985.903465777273
 20
2437.931598713261
 30
0.0
 11
1910.903465777273
 21
2567.835409280926
 31
0.0
  0
TEXT
  5
127AA
330
747D
100
AcDbEntity
  8
部品1
100
AcDbText
 10
2089.008407902047
 20
2474.038502319163
 30
0.0
 40
125.0
  1
G.L
  7
MSGOTHIC
100
AcDbText
  0
LINE
  5
127AB
330
747D
100
AcDbEntity
  8
部品1
100
AcDbLine
 10
2060.903465777274
 20
2567.835409280926
 30
0.0
 11
1985.903465777273
 21
2437.931598713261
 31
0.0
  0
LINE
  5
13C1F
330
747D
100
AcDbEntity
  8
部品1
100
AcDbLine
 10
2899.673057123656
 20
4471.931598713268
 30
0.0
 11
2899.673057123657
 21
2437.931598713261
 31
0.0
  0
LINE
  5
13CFC
330
747D
100
AcDbEntity
  8
部品1
100
AcDbLine
 10
8214.673057123658
 20
4212.931598713259
 30
0.0
 11
8214.673057123654
 21
2537.931598713262
 31
0.0
  0
LINE
  5
13CFE
330
747D
100
AcDbEntity
  8
部品1
100
AcDbLine
 10
2954.673057123657
 20
4212.931598713262
 30
0.0
 11
2954.673057123656
 21
2537.931598713262
 31
0.0
  0
LINE
  5
13D18
330
747D
100
AcDbEntity
  8
部品1
100
AcDbLine
 10
8269.673057123657
 20
4471.931598713269
 30
0.0
 11
8269.673057123657
 21
2437.931598713261
 31
0.0
  0
LINE
  5
146B2
330
747D
100
AcDbEntity
  8
破線
 48
5.0
100
AcDbLine
 10
8269.673057123657
 20
2437.931598713261
 30
0.0
 11
8269.673057123657
 21
2187.931598713261
 31
0.0
  0
LINE
  5
146B3
330
747D
100
AcDbEntity
  8
破線
 48
5.0
100
AcDbLine
 10
2899.673057123657
 20
2437.931598713261
 30
0.0
 11
2899.673057123656
 21
2187.931598713261
 31
0.0
  0
TEXT
  5
149A1
330
747D
100
AcDbEntity
  8
部品1
100
AcDbText
 10
5303.990718034578
 20
1595.038069494737
 30
0.0
 40
135.0
  1
正面図
  7
MSGOTHIC
100
AcDbText
  0
LWPOLYLINE
  5
149A2
330
747D
100
AcDbEntity
  8
部品1
100
AcDbPolyline
 90
        4
 70
     1
 43
0.0
 10
5213.465314296623
 20
1787.931598713262
 10
5213.465314296623
 20
1548.039277167729
 10
5976.935980525062
 20
1548.039277167729
 10
5976.935980525062
 20
1787.931598713262
  0
TEXT
  5
149A3
330
747D
100
AcDbEntity
  8
部品1
100
AcDbText
 10
11929.56059882266
 20
1595.038069494737
 30
0.0
 40
135.0
  1
側面図
  7
MSGOTHIC
100
AcDbText
  0
LWPOLYLINE
  5
149A4
330
747D
100
AcDbEntity
  8
部品1
100
AcDbPolyline
 90
        4
 70
     1
 43
0.0
 10
11840.11449739906
 20
1787.931598713262
 10
11840.11449739906
 20
1548.039277167729
 10
12603.58516362749
 20
1548.039277167729
 10
12603.58516362749
 20
1787.931598713262
  0
TEXT
  5
14E88
330
747D
100
AcDbEntity
  8
部品1
100
AcDbText
 10
5303.384924125661
 20
6154.411306648913
 30
0.0
 40
135.0
  1
平面図
  7
MSGOTHIC
100
AcDbText
  0
LWPOLYLINE
  5
14E89
330
747D
100
AcDbEntity
  8
部品1
100
AcDbPolyline
 90
        4
 70
     1
 43
0.0
 10
5213.465314296623
 20
6347.304835867436
 10
5213.465314296623
 20
6107.412514321904
 10
5976.935980525063
 20
6107.412514321904
 10
5976.935980525063
 20
6347.304835867436
  0
TEXT
  5
15550
330
747D
100
AcDbEntity
  8
文字
 62
     7
 48
50.0
100
AcDbText
 10
14659.31906557701
 20
871.9640646083623
 30
0.0
 40
100.0
  1
～一般型・多雪地型～
  7
STYLE2
100
AcDbText
  0
LINE
  5
15CE5
330
747D
100
AcDbEntity
  8
破線
 48
5.0
100
AcDbLine
 10
8214.673057123654
 20
2537.931598713262
 30
0.0
 11
8214.673057123658
 21
2187.931598713261
 31
0.0
  0
LINE
  5
15CE6
330
747D
100
AcDbEntity
  8
破線
 48
5.0
100
AcDbLine
 10
2954.673057123656
 20
2537.931598713262
 30
0.0
 11
2954.673057123656
 21
2187.931598713261
 31
0.0
  0
LINE
  5
15CE7
330
747D
100
AcDbEntity
  8
破線
 48
5.0
100
AcDbLine
 10
8269.673057123656
 20
2187.931598713261
 30
0.0
 11
8214.673057123658
 21
2187.931598713261
 31
0.0
  0
LINE
  5
15CE8
330
747D
100
AcDbEntity
  8
破線
 48
5.0
100
AcDbLine
 10
2954.673057123655
 20
2187.931598713269
 30
0.0
 11
2899.673057123656
 21
2187.931598713269
 31
0.0
  0
LINE
  5
15CE9
330
747D
100
AcDbEntity
  8
部品1
100
AcDbLine
 10
3002.673057123657
 20
4212.931598713261
 30
0.0
 11
3002.673057123657
 21
2537.931598713262
 31
0.0
  0
LINE
  5
15CEA
330
747D
100
AcDbEntity
  8
破線
 48
5.0
100
AcDbLine
 10
3002.673057123657
 20
2537.931598713262
 30
0.0
 11
3002.673057123655
 21
2287.931598713267
 31
0.0
  0
LINE
  5
15CEB
330
747D
100
AcDbEntity
  8
部品1
100
AcDbLine
 10
8166.673057123658
 20
4212.931598713262
 30
0.0
 11
8166.673057123656
 21
2537.931598713262
 31
0.0
  0
LINE
  5
15CEC
330
747D
100
AcDbEntity
  8
破線
 48
5.0
100
AcDbLine
 10
8166.673057123656
 20
2537.931598713262
 30
0.0
 11
8166.673057123658
 21
2287.931598713262
 31
0.0
  0
LINE
  5
15CED
330
747D
100
AcDbEntity
  8
破線
 48
5.0
100
AcDbLine
 10
8214.673057123659
 20
2287.931598713262
 30
0.0
 11
8166.673057123658
 21
2287.931598713262
 31
0.0
  0
LINE
  5
15CEE
330
747D
100
AcDbEntity
  8
破線
 48
5.0
100
AcDbLine
 10
3002.673057123656
 20
2287.931598713267
 30
0.0
 11
2954.673057123655
 21
2287.931598713267
 31
0.0
  0
LINE
  5
15D20
330
747D
100
AcDbEntity
  8
細線
100
AcDbLine
 10
6582.673057123654
 20
4172.931598713261
 30
0.0
 11
8166.673057123656
 21
4172.931598713261
 31
0.0
  0
LINE
  5
15D23
330
747D
100
AcDbEntity
  8
細線
100
AcDbLine
 10
6582.673057123654
 20
3782.931598713262
 30
0.0
 11
8166.673057123656
 21
3782.931598713262
 31
0.0
  0
LINE
  5
15D24
330
747D
100
AcDbEntity
  8
細線
100
AcDbLine
 10
6582.673057123654
 20
3847.931598713262
 30
0.0
 11
8166.673057123656
 21
3847.931598713262
 31
0.0
  0
LINE
  5
15D25
330
747D
100
AcDbEntity
  8
細線
100
AcDbLine
 10
6582.673057123654
 20
3912.931598713262
 30
0.0
 11
8166.673057123656
 21
3912.931598713262
 31
0.0
  0
LINE
  5
15D26
330
747D
100
AcDbEntity
  8
細線
100
AcDbLine
 10
6582.673057123654
 20
3977.931598713261
 30
0.0
 11
8166.673057123656
 21
3977.931598713261
 31
0.0
  0
LINE
  5
15D27
330
747D
100
AcDbEntity
  8
細線
100
AcDbLine
 10
6582.673057123654
 20
4042.931598713261
 30
0.0
 11
8166.673057123656
 21
4042.931598713261
 31
0.0
  0
LINE
  5
15D28
330
747D
100
AcDbEntity
  8
細線
100
AcDbLine
 10
6582.673057123654
 20
4107.931598713261
 30
0.0
 11
8166.673057123656
 21
4107.931598713261
 31
0.0
  0
LINE
  5
15D29
330
747D
100
AcDbEntity
  8
細線
100
AcDbLine
 10
6582.673057123654
 20
3132.931598713261
 30
0.0
 11
8166.673057123656
 21
3132.931598713261
 31
0.0
  0
LINE
  5
15D2A
330
747D
100
AcDbEntity
  8
細線
100
AcDbLine
 10
6582.673057123654
 20
3197.931598713262
 30
0.0
 11
8166.673057123656
 21
3197.931598713262
 31
0.0
  0
LINE
  5
15D2B
330
747D
100
AcDbEntity
  8
細線
100
AcDbLine
 10
6582.673057123654
 20
3262.931598713262
 30
0.0
 11
8166.673057123656
 21
3262.931598713262
 31
0.0
  0
LINE
  5
15D2C
330
747D
100
AcDbEntity
  8
細線
100
AcDbLine
 10
6582.673057123654
 20
3327.931598713262
 30
0.0
 11
8166.673057123656
 21
3327.931598713262
 31
0.0
  0
LINE
  5
15D2D
330
747D
100
AcDbEntity
  8
細線
100
AcDbLine
 10
6582.673057123654
 20
3392.931598713261
 30
0.0
 11
8166.673057123656
 21
3392.931598713261
 31
0.0
  0
LINE
  5
15D2E
330
747D
100
AcDbEntity
  8
細線
100
AcDbLine
 10
6582.673057123654
 20
3457.931598713262
 30
0.0
 11
8166.673057123656
 21
3457.931598713262
 31
0.0
  0
LINE
  5
15D2F
330
747D
100
AcDbEntity
  8
細線
100
AcDbLine
 10
6582.673057123654
 20
3522.931598713262
 30
0.0
 11
8166.673057123656
 21
3522.931598713262
 31
0.0
  0
LINE
  5
15D30
330
747D
100
AcDbEntity
  8
細線
100
AcDbLine
 10
6582.673057123654
 20
3587.931598713261
 30
0.0
 11
8166.673057123656
 21
3587.931598713261
 31
0.0
  0
LINE
  5
15D31
330
747D
100
AcDbEntity
  8
細線
100
AcDbLine
 10
6582.673057123654
 20
3652.931598713261
 30
0.0
 11
8166.673057123656
 21
3652.931598713261
 31
0.0
  0
LINE
  5
15D32
330
747D
100
AcDbEntity
  8
細線
100
AcDbLine
 10
6582.673057123654
 20
3717.931598713261
 30
0.0
 11
8166.673057123656
 21
3717.931598713261
 31
0.0
  0
LINE
  5
15D36
330
747D
100
AcDbEntity
  8
細線
100
AcDbLine
 10
6582.673057123654
 20
2547.931598713262
 30
0.0
 11
8166.673057123656
 21
2547.931598713262
 31
0.0
  0
LINE
  5
15D37
330
747D
100
AcDbEntity
  8
細線
100
AcDbLine
 10
6582.673057123654
 20
2612.931598713262
 30
0.0
 11
8166.673057123656
 21
2612.931598713262
 31
0.0
  0
LINE
  5
15D38
330
747D
100
AcDbEntity
  8
細線
100
AcDbLine
 10
6582.673057123654
 20
2677.931598713261
 30
0.0
 11
8166.673057123656
 21
2677.931598713261
 31
0.0
  0
LINE
  5
15D39
330
747D
100
AcDbEntity
  8
細線
100
AcDbLine
 10
6582.673057123654
 20
2742.931598713262
 30
0.0
 11
8166.673057123656
 21
2742.931598713262
 31
0.0
  0
LINE
  5
15D3A
330
747D
100
AcDbEntity
  8
細線
100
AcDbLine
 10
6582.673057123654
 20
2807.931598713262
 30
0.0
 11
8166.673057123656
 21
2807.931598713262
 31
0.0
  0
LINE
  5
15D3B
330
747D
100
AcDbEntity
  8
細線
100
AcDbLine
 10
6582.673057123654
 20
2872.931598713261
 30
0.0
 11
8166.673057123656
 21
2872.931598713261
 31
0.0
  0
LINE
  5
15D3C
330
747D
100
AcDbEntity
  8
細線
100
AcDbLine
 10
6582.673057123654
 20
2937.931598713261
 30
0.0
 11
8166.673057123656
 21
2937.931598713261
 31
0.0
  0
LINE
  5
15D3D
330
747D
100
AcDbEntity
  8
細線
100
AcDbLine
 10
6582.673057123654
 20
3002.931598713261
 30
0.0
 11
8166.673057123656
 21
3002.931598713261
 31
0.0
  0
LINE
  5
15D3E
330
747D
100
AcDbEntity
  8
細線
100
AcDbLine
 10
6582.673057123654
 20
3067.931598713262
 30
0.0
 11
8166.673057123656
 21
3067.931598713262
 31
0.0
  0
LINE
  5
15D3F
330
747D
100
AcDbEntity
  8
細線
100
AcDbLine
 10
8166.673057123658
 20
2547.931598713262
 30
0.0
 11
6582.673057123651
 21
2547.931598713262
 31
0.0
  0
DIMENSION
  5
162CD
330
747D
100
AcDbEntity
  8
寸法
100
AcDbDimension
  2
*D1
 10
8917.099402858069
 20
7549.529872343853
 30
0.0
 11
8817.087591834447
 21
8809.529872343864
 31
0.0
 70
    32
  1
6X420=<>
 71
     5
 42
2520.000000000015
  3
INABA_S40G
100
AcDbAlignedDimension
 13
8269.673057123664
 23
10069.52987234387
 33
0.0
 14
8269.673057123638
 24
7549.529872343853
 34
0.0
 50
90.0
100
AcDbRotatedDimension
1001
ACAD
1000
DSTYLE
1002
{
1002
}
  0
DIMENSION
  5
162CE
330
747D
100
AcDbEntity
  8
寸法
100
AcDbDimension
  2
*D2
 10
8917.099402858049
 20
7494.529872343857
 30
0.0
 11
8917.099402858047
 21
7116.668405438996
 31
0.0
 70
   160
 71
     5
 42
54.99999999999636
  3
INABA_S40G
100
AcDbAlignedDimension
 13
8269.673057123638
 23
7549.529872343853
 33
0.0
 14
8269.673057123638
 24
7494.529872343857
 34
0.0
 50
90.0
100
AcDbRotatedDimension
1001
ACAD
1000
DSTYLE
1002
{
1002
}
  0
DIMENSION
  5
162CF
330
747D
100
AcDbEntity
  8
寸法
100
AcDbDimension
  2
*D3
 10
8917.099402858076
 20
10069.52987234387
 30
0.0
 11
8917.099402858074
 21
10433.0151537181
 31
0.0
 70
   160
 71
     5
 42
54.99999999999636
  3
INABA_S40G
100
AcDbAlignedDimension
 13
8269.673057123664
 23
10124.52987234386
 33
0.0
 14
8269.673057123664
 24
10069.52987234387
 34
0.0
 50
90.0
100
AcDbRotatedDimension
1001
ACAD
1000
DSTYLE
1002
{
1002
}
  0
DIMENSION
  5
162D0
330
747D
100
AcDbEntity
  8
寸法
100
AcDbDimension
  2
*D4
 10
9282.206344597708
 20
7494.529872343857
 30
0.0
 11
9182.194533574087
 21
8809.529872343864
 31
0.0
 70
    32
 71
     5
 42
2630.000000000007
  3
INABA_S40G
100
AcDbAlignedDimension
 13
8269.673057123664
 23
10124.52987234386
 33
0.0
 14
8269.673057123638
 24
7494.529872343857
 34
0.0
 50
90.0
100
AcDbRotatedDimension
1001
ACAD
1000
DSTYLE
1002
{
1002
}
  0
LINE
  5
162DC
330
747D
100
AcDbEntity
  8
部品1
100
AcDbLine
 10
8241.673057123646
 20
10096.52987234386
 30
0.0
 11
8241.673057123639
 21
7549.529872343853
 31
0.0
  0
LINE
  5
162DD
330
747D
100
AcDbEntity
  8
部品1
100
AcDbLine
 10
2927.673057123639
 20
7549.529872343723
 30
0.0
 11
2927.67305712365
 21
10096.52987234377
 31
0.0
  0
LINE
  5
162DE
330
747D
100
AcDbEntity
  8
部品1
100
AcDbLine
 10
8269.673057123664
 20
10124.52987234386
 30
0.0
 11
8269.673057123638
 21
7494.529872343857
 31
0.0
  0
LINE
  5
162DF
330
747D
100
AcDbEntity
  8
部品1
100
AcDbLine
 10
2899.67305712363
 20
10124.52987234373
 30
0.0
 11
2899.673057123657
 21
7494.529872343726
 31
0.0
  0
DIMENSION
  5
162E4
330
747D
100
AcDbEntity
  8
寸法
 48
50.0
100
AcDbDimension
  2
*D5
 10
6582.673057123656
 20
6960.099101577601
 30
0.0
 11
7374.673057123648
 21
7160.099101577602
 31
0.0
 70
    32
  1
有効開口部間口\P <>
 71
     5
 42
1583.999999999982
  3
INABA_S40G
100
AcDbAlignedDimension
 13
8166.673057123638
 23
7520.529872343766
 33
0.0
 14
6582.673057123656
 24
7520.529872343765
 34
0.0
100
AcDbRotatedDimension
1001
ACAD
1000
DSTYLE
1002
{
1070
    75
1070
     1
1070
   279
1070
     2
1002
}
  0
LINE
  5
162E6
330
747D
100
AcDbEntity
  8
部品1
 48
50.0
100
AcDbLine
 10
6546.673057123655
 20
7540.029872343764
 30
0.0
 11
8202.673057123639
 21
7540.029872343764
 31
0.0
  0
DIMENSION
  5
162E7
330
747D
100
AcDbEntity
  8
寸法
100
AcDbDimension
  2
*D6
 10
8269.673057123627
 20
6513.926105986728
 30
0.0
 11
5584.673057123642
 21
6613.926105986728
 31
0.0
 70
    32
  1
N X 1790
 71
     5
 42
5369.999999999971
  3
INABA_S40G
100
AcDbAlignedDimension
 13
2899.673057123657
 23
7494.529872343726
 33
0.0
 14
8269.673057123627
 24
7494.529872343857
 34
0.0
100
AcDbRotatedDimension
1001
ACAD
1000
DSTYLE
1002
{
1002
}
  0
LINE
  5
162E8
330
747D
100
AcDbEntity
  8
部品1
100
AcDbLine
 10
2954.673057123633
 20
10069.52987234378
 30
0.0
 11
2954.673057123655
 21
7559.529872343765
 31
0.0
  0
LINE
  5
162E9
330
747D
100
AcDbEntity
  8
部品1
100
AcDbLine
 10
2979.673057123635
 20
10069.52987234378
 30
0.0
 11
2979.673057123655
 21
7559.529872343765
 31
0.0
  0
DIMENSION
  5
162EA
330
747D
100
AcDbEntity
  8
寸法
 48
50.0
100
AcDbDimension
  2
*D7
 10
2899.673057123657
 20
6960.099101577601
 30
0.0
 11
2591.187775749418
 21
6960.099101577601
 31
0.0
 70
   160
 71
     5
 42
54.99999999999636
  3
INABA_S40G
100
AcDbAlignedDimension
 13
2954.673057123653
 23
7494.529872343766
 33
0.0
 14
2899.673057123657
 24
7494.529872343763
 34
0.0
100
AcDbRotatedDimension
1001
ACAD
1000
DSTYLE
1002
{
1002
}
  0
DIMENSION
  5
162EB
330
747D
100
AcDbEntity
  8
寸法
 48
50.0
100
AcDbDimension
  2
*D8
 10
6534.673057123653
 20
6960.099101577601
 30
0.0
 11
6695.575028123714
 21
7060.099101577602
 31
0.0
 70
   160
 71
     5
 42
48.00000000000363
  3
INABA_S40G
100
AcDbAlignedDimension
 13
6582.673057123656
 23
7520.529872343765
 33
0.0
 14
6534.673057123653
 24
7494.529872343766
 34
0.0
100
AcDbRotatedDimension
1001
ACAD
1000
DSTYLE
1002
{
1070
   279
1070
     2
1002
}
  0
LINE
  5
162EC
330
747D
100
AcDbEntity
  8
部品1
100
AcDbLine
 10
2954.673057123651
 20
7494.529872343766
 30
0.0
 11
2899.673057123657
 21
7494.529872343763
 31
0.0
  0
LINE
  5
162ED
330
747D
100
AcDbEntity
  8
部品1
 48
50.0
100
AcDbLine
 10
2954.673057123656
 20
7530.529872343764
 30
0.0
 11
2931.673057123657
 21
7530.529872343764
 31
0.0
  0
LINE
  5
162EE
330
747D
100
AcDbEntity
  8
部品1
 48
50.0
100
AcDbLine
 10
2964.673057123657
 20
7520.529872343765
 30
0.0
 11
2954.673057123656
 21
7499.529872343766
 31
0.0
  0
LINE
  5
162EF
330
747D
100
AcDbEntity
  8
部品1
 48
50.0
100
AcDbLine
 10
2954.673057123656
 20
7559.529872343765
 30
0.0
 11
2954.673057123653
 21
7494.529872343766
 31
0.0
  0
LINE
  5
162F0
330
747D
100
AcDbEntity
  8
部品1
 48
50.0
100
AcDbLine
 10
3002.673057123657
 20
7520.529872343766
 30
0.0
 11
3002.673057123657
 21
7529.529872343767
 31
0.0
  0
LINE
  5
162F1
330
747D
100
AcDbEntity
  8
部品1
 48
50.0
100
AcDbLine
 10
3002.673057123657
 20
7559.529872343766
 30
0.0
 11
3002.673057123657
 21
7550.529872343766
 31
0.0
  0
LINE
  5
162F2
330
747D
100
AcDbEntity
  8
部品1
100
AcDbLine
 10
3002.673057123657
 20
7559.529872343766
 30
0.0
 11
2954.673057123656
 21
7559.529872343765
 31
0.0
  0
LINE
  5
162F3
330
747D
100
AcDbEntity
  8
部品1
100
AcDbLine
 10
3002.673057123657
 20
7520.529872343766
 30
0.0
 11
2954.673057123656
 21
7520.529872343765
 31
0.0
  0
LINE
  5
162F4
330
747D
100
AcDbEntity
  8
部品1
100
AcDbLine
 10
2954.673057123655
 20
7530.529872343764
 30
0.0
 11
2931.673057123657
 21
7530.529872343764
 31
0.0
  0
LINE
  5
162F5
330
747D
100
AcDbEntity
  8
部品1
100
AcDbLine
 10
2954.673057123655
 20
7549.52987234369
 30
0.0
 11
2899.673057123655
 21
7549.52987234369
 31
0.0
  0
LINE
  5
162F6
330
747D
100
AcDbEntity
  8
部品1
100
AcDbLine
 10
2927.673057123639
 20
7549.529872343725
 30
0.0
 11
2899.673057123655
 21
7549.529872343725
 31
0.0
  0
LINE
  5
162F7
330
747D
100
AcDbEntity
  8
部品1
100
AcDbLine
 10
2927.673057123655
 20
7549.529872343741
 30
0.0
 11
2899.673057123655
 21
7549.529872343741
 31
0.0
  0
LINE
  5
162FB
330
747D
100
AcDbEntity
  8
部品1
100
AcDbLine
 10
2927.673057123644
 20
7969.52987234374
 30
0.0
 11
2899.673057123644
 21
7969.52987234374
 31
0.0
  0
LINE
  5
162FC
330
747D
100
AcDbEntity
  8
部品1
100
AcDbLine
 10
2927.673057123644
 20
8389.529872343741
 30
0.0
 11
2899.673057123644
 21
8389.529872343741
 31
0.0
  0
LINE
  5
162FE
330
747D
100
AcDbEntity
  8
部品1
100
AcDbLine
 10
2927.673057123637
 20
8809.529872343741
 30
0.0
 11
2899.673057123637
 21
8809.529872343741
 31
0.0
  0
LINE
  5
162FF
330
747D
100
AcDbEntity
  8
部品1
100
AcDbLine
 10
8214.673057123659
 20
10069.52987234378
 30
0.0
 11
8214.67305712364
 21
7494.529872343854
 31
0.0
  0
LINE
  5
16300
330
747D
100
AcDbEntity
  8
部品1
100
AcDbLine
 10
8189.673057123664
 20
10069.52987234378
 30
0.0
 11
8189.67305712364
 21
7559.529872343765
 31
0.0
  0
DIMENSION
  5
16301
330
747D
100
AcDbEntity
  8
寸法
 48
50.0
100
AcDbDimension
  2
*D9
 10
8166.673057123638
 20
6960.099101577601
 30
0.0
 11
8055.710159474891
 21
7060.099101577602
 31
0.0
 70
   160
 71
     5
 42
48.00000000000181
  3
INABA_S40G
100
AcDbAlignedDimension
 13
8214.67305712364
 23
7494.529872343854
 33
0.0
 14
8166.673057123638
 24
7520.529872343766
 34
0.0
100
AcDbRotatedDimension
1001
ACAD
1000
DSTYLE
1002
{
1070
   279
1070
     2
1002
}
  0
DIMENSION
  5
16302
330
747D
100
AcDbEntity
  8
寸法
 48
50.0
100
AcDbDimension
  2
*D10
 10
8214.67305712364
 20
6960.099101577603
 30
0.0
 11
8578.158338497877
 21
6960.099101577603
 31
0.0
 70
   160
 71
     5
 42
54.99999999999818
  3
INABA_S40G
100
AcDbAlignedDimension
 13
8269.673057123638
 23
7494.529872343857
 33
0.0
 14
8214.67305712364
 24
7494.529872343854
 34
0.0
100
AcDbRotatedDimension
1001
ACAD
1000
DSTYLE
1002
{
1002
}
  0
LINE
  5
16303
330
747D
100
AcDbEntity
  8
部品1
 48
50.0
100
AcDbLine
 10
8204.673057123638
 20
7520.529872343765
 30
0.0
 11
8214.673057123638
 21
7499.529872343766
 31
0.0
  0
LINE
  5
16304
330
747D
100
AcDbEntity
  8
部品1
100
AcDbLine
 10
8166.673057123638
 20
7559.529872343766
 30
0.0
 11
8214.67305712364
 21
7559.529872343765
 31
0.0
  0
LINE
  5
16305
330
747D
100
AcDbEntity
  8
部品1
100
AcDbLine
 10
8166.673057123638
 20
7520.529872343766
 30
0.0
 11
8214.673057123638
 21
7520.529872343765
 31
0.0
  0
LINE
  5
16306
330
747D
100
AcDbEntity
  8
部品1
 48
50.0
100
AcDbLine
 10
8166.673057123638
 20
7559.529872343766
 30
0.0
 11
8166.673057123638
 21
7550.529872343766
 31
0.0
  0
LINE
  5
16307
330
747D
100
AcDbEntity
  8
部品1
 48
50.0
100
AcDbLine
 10
8166.673057123638
 20
7520.529872343766
 30
0.0
 11
8166.673057123638
 21
7529.529872343767
 31
0.0
  0
LINE
  5
16308
330
747D
100
AcDbEntity
  8
部品1
100
AcDbLine
 10
8214.673057123638
 20
7530.529872343764
 30
0.0
 11
8237.67305712364
 21
7530.529872343764
 31
0.0
  0
LINE
  5
16309
330
747D
100
AcDbEntity
  8
部品1
100
AcDbLine
 10
8214.673057123638
 20
7549.529872343867
 30
0.0
 11
8269.673057123672
 21
7549.529872343867
 31
0.0
  0
LINE
  5
1630A
330
747D
100
AcDbEntity
  8
部品1
100
AcDbLine
 10
8269.673057123638
 20
7494.529872343857
 30
0.0
 11
8214.67305712364
 21
7494.529872343854
 31
0.0
  0
LINE
  5
16317
330
747D
100
AcDbEntity
  8
部品1
100
AcDbLine
 10
8241.673057123668
 20
7969.529872343868
 30
0.0
 11
8269.673057123666
 21
7969.529872343868
 31
0.0
  0
LINE
  5
16319
330
747D
100
AcDbEntity
  8
部品1
100
AcDbLine
 10
8241.673057123668
 20
8389.529872343869
 30
0.0
 11
8269.673057123666
 21
8389.529872343869
 31
0.0
  0
LINE
  5
1631A
330
747D
100
AcDbEntity
  8
部品1
100
AcDbLine
 10
8241.673057123664
 20
8809.529872343869
 30
0.0
 11
8269.673057123664
 21
8809.529872343869
 31
0.0
  0
LINE
  5
1631B
330
747D
100
AcDbEntity
  8
部品1
100
AcDbLine
 10
6534.673057123663
 20
10096.52987234388
 30
0.0
 11
7362.173057123661
 21
10096.52987234388
 31
0.0
  0
LINE
  5
1631C
330
747D
100
AcDbEntity
  8
部品1
100
AcDbLine
 10
6507.673057123664
 20
10096.52987234377
 30
0.0
 11
7164.673057123663
 21
10096.52987234377
 31
0.0
  0
LINE
  5
1631D
330
747D
100
AcDbEntity
  8
部品1
100
AcDbLine
 10
2899.673057123662
 20
10124.52987234377
 30
0.0
 11
8269.673057123666
 21
10124.52987234386
 31
0.0
  0
DIMENSION
  5
1631F
330
747D
100
AcDbEntity
  8
寸法
100
AcDbDimension
  2
*D11
 10
8214.673057123665
 20
10340.33809196887
 30
0.0
 11
7374.673057123664
 21
10440.34990299249
 31
0.0
 70
    32
  1
4X420=<>
 71
     5
 42
1680.000000000001
  3
INABA_S40G
100
AcDbAlignedDimension
 13
6534.673057123663
 23
10124.52987234377
 33
0.0
 14
8214.673057123665
 24
10124.52987234386
 34
0.0
100
AcDbRotatedDimension
1001
ACAD
1000
DSTYLE
1002
{
1002
}
  0
DIMENSION
  5
16320
330
747D
100
AcDbEntity
  8
寸法
100
AcDbDimension
  2
*D12
 10
2954.673057123663
 20
10340.33809196875
 30
0.0
 11
2591.18777574939
 21
10340.33809196875
 31
0.0
 70
   160
 71
     5
 42
55.00000000003456
  3
INABA_S40G
100
AcDbAlignedDimension
 13
2899.673057123628
 23
10124.52987234377
 33
0.0
 14
2954.673057123663
 24
10124.52987234377
 34
0.0
100
AcDbRotatedDimension
1001
ACAD
1000
DSTYLE
1002
{
1002
}
  0
LINE
  5
16321
330
747D
100
AcDbEntity
  8
部品1
100
AcDbLine
 10
2954.67305712363
 20
10124.52987234373
 30
0.0
 11
2954.67305712363
 21
10096.52987234374
 31
0.0
  0
LINE
  5
16322
330
747D
100
AcDbEntity
  8
部品1
100
AcDbLine
 10
2954.673057123662
 20
10124.52987234377
 30
0.0
 11
2954.673057123662
 21
10096.52987234377
 31
0.0
  0
LINE
  5
16323
330
747D
100
AcDbEntity
  8
部品1
100
AcDbLine
 10
2927.67305712363
 20
10069.52987234374
 30
0.0
 11
2899.67305712363
 21
10069.52987234374
 31
0.0
  0
LINE
  5
16324
330
747D
100
AcDbEntity
  8
部品1
100
AcDbLine
 10
6954.673057123663
 20
10124.52987234388
 30
0.0
 11
6954.673057123663
 21
10096.52987234388
 31
0.0
  0
LINE
  5
16325
330
747D
100
AcDbEntity
  8
部品1
100
AcDbLine
 10
6954.673057123663
 20
10124.52987234377
 30
0.0
 11
6954.673057123663
 21
10096.52987234377
 31
0.0
  0
LINE
  5
16326
330
747D
100
AcDbEntity
  8
部品1
100
AcDbLine
 10
6954.673057123663
 20
10124.52987234377
 30
0.0
 11
6954.673057123663
 21
10096.52987234377
 31
0.0
  0
LINE
  5
16327
330
747D
100
AcDbEntity
  8
部品1
100
AcDbLine
 10
7387.173057123662
 20
10096.52987234388
 30
0.0
 11
8241.673057123664
 21
10096.52987234386
 31
0.0
  0
LINE
  5
1632C
330
747D
100
AcDbEntity
  8
部品1
100
AcDbLine
 10
7374.673057123662
 20
10124.52987234388
 30
0.0
 11
7374.673057123662
 21
10096.52987234388
 31
0.0
  0
LINE
  5
1632D
330
747D
100
AcDbEntity
  8
部品1
100
AcDbLine
 10
7362.173057123662
 20
10088.52987234386
 30
0.0
 11
7387.173057123662
 21
10088.52987234387
 31
0.0
  0
LINE
  5
1632E
330
747D
100
AcDbEntity
  8
部品1
100
AcDbLine
 10
7403.673057123663
 20
10114.52987234387
 30
0.0
 11
7409.673057123663
 21
10114.52987234387
 31
0.0
  0
LINE
  5
1632F
330
747D
100
AcDbEntity
  8
部品1
100
AcDbLine
 10
7409.673057123663
 20
10114.52987234387
 30
0.0
 11
7409.673057123663
 21
10096.52987234387
 31
0.0
  0
LINE
  5
16330
330
747D
100
AcDbEntity
  8
部品1
100
AcDbLine
 10
7339.673057123663
 20
10114.52987234387
 30
0.0
 11
7345.673057123663
 21
10114.52987234387
 31
0.0
  0
LINE
  5
16331
330
747D
100
AcDbEntity
  8
部品1
100
AcDbLine
 10
7339.673057123663
 20
10114.52987234387
 30
0.0
 11
7339.673057123663
 21
10096.52987234387
 31
0.0
  0
DIMENSION
  5
16333
330
747D
100
AcDbEntity
  8
寸法
100
AcDbDimension
  2
*D13
 10
8269.673057123664
 20
10340.33809196885
 30
0.0
 11
8578.158338497903
 21
10340.33809196885
 31
0.0
 70
   160
 71
     5
 42
55.0
  3
INABA_S40G
100
AcDbAlignedDimension
 13
8214.673057123665
 23
10124.52987234386
 33
0.0
 14
8269.673057123664
 24
10124.52987234386
 34
0.0
100
AcDbRotatedDimension
1001
ACAD
1000
DSTYLE
1002
{
1002
}
  0
LINE
  5
16334
330
747D
100
AcDbEntity
  8
部品1
100
AcDbLine
 10
7794.673057123663
 20
10124.52987234388
 30
0.0
 11
7794.673057123663
 21
10096.52987234388
 31
0.0
  0
LINE
  5
16335
330
747D
100
AcDbEntity
  8
部品1
100
AcDbLine
 10
8214.673057123665
 20
10124.52987234386
 30
0.0
 11
8214.673057123665
 21
10096.52987234386
 31
0.0
  0
LINE
  5
16336
330
747D
100
AcDbEntity
  8
部品1
100
AcDbLine
 10
8214.673057123665
 20
10124.52987234388
 30
0.0
 11
8214.673057123665
 21
10096.52987234388
 31
0.0
  0
LINE
  5
16337
330
747D
100
AcDbEntity
  8
部品1
100
AcDbLine
 10
8241.673057123664
 20
10069.52987234387
 30
0.0
 11
8269.673057123664
 21
10069.52987234387
 31
0.0
  0
LINE
  5
1655C
330
747D
100
AcDbEntity
  8
部品1
100
AcDbLine
 10
6376.673057123658
 20
4212.931598713262
 30
0.0
 11
6376.673057123656
 21
2537.931598713262
 31
0.0
  0
LINE
  5
1655D
330
747D
100
AcDbEntity
  8
部品1
100
AcDbLine
 10
6424.673057123657
 20
4212.93159871326
 30
0.0
 11
6424.673057123655
 21
2537.931598713262
 31
0.0
  0
LINE
  5
1655E
330
747D
100
AcDbEntity
  8
破線
 48
5.0
100
AcDbLine
 10
6376.673057123656
 20
2537.931598713262
 30
0.0
 11
6376.673057123656
 21
2287.931598713262
 31
0.0
  0
LINE
  5
1655F
330
747D
100
AcDbEntity
  8
破線
 48
5.0
100
AcDbLine
 10
6424.673057123658
 20
2287.931598713262
 30
0.0
 11
6376.673057123657
 21
2287.931598713262
 31
0.0
  0
LINE
  5
16560
330
747D
100
AcDbEntity
  8
破線
 48
5.0
100
AcDbLine
 10
6424.673057123655
 20
2537.931598713262
 30
0.0
 11
6424.673057123655
 21
2262.931598713262
 31
0.0
  0
LINE
  5
16561
330
747D
100
AcDbEntity
  8
破線
 48
5.0
100
AcDbLine
 10
6534.673057123656
 20
2262.931598713262
 30
0.0
 11
6424.673057123657
 21
2262.931598713262
 31
0.0
  0
LINE
  5
16562
330
747D
100
AcDbEntity
  8
部品1
100
AcDbLine
 10
6582.673057123656
 20
4212.931598713261
 30
0.0
 11
6582.673057123656
 21
2537.931598713262
 31
0.0
  0
LINE
  5
16563
330
747D
100
AcDbEntity
  8
破線
 48
5.0
100
AcDbLine
 10
6582.673057123656
 20
2537.931598713262
 30
0.0
 11
6582.673057123655
 21
2287.931598713267
 31
0.0
  0
LINE
  5
16564
330
747D
100
AcDbEntity
  8
破線
 48
5.0
100
AcDbLine
 10
6582.673057123655
 20
2287.931598713267
 30
0.0
 11
6534.673057123654
 21
2287.931598713267
 31
0.0
  0
LINE
  5
16565
330
747D
100
AcDbEntity
  8
破線
 48
5.0
100
AcDbLine
 10
6534.673057123656
 20
2537.931598713262
 30
0.0
 11
6534.673057123656
 21
2262.931598713262
 31
0.0
  0
LINE
  5
16566
330
747D
100
AcDbEntity
  8
部品1
100
AcDbLine
 10
6534.673057123656
 20
4212.93159871326
 30
0.0
 11
6534.673057123656
 21
2537.931598713262
 31
0.0
  0
LINE
  5
16567
330
747D
100
AcDbEntity
  8
部品1
100
AcDbLine
 10
6534.673057123656
 20
4212.931598713261
 30
0.0
 11
8269.673057123657
 21
4212.931598713262
 31
0.0
  0
DIMENSION
  5
1659A
330
747D
100
AcDbEntity
  8
寸法
 48
50.0
100
AcDbDimension
  2
*D15
 10
6376.673057123639
 20
6960.099101577601
 30
0.0
 11
6265.710159474891
 21
7060.099101577602
 31
0.0
 70
   160
 71
     5
 42
48.00000000000181
  3
INABA_S40G
100
AcDbAlignedDimension
 13
6424.67305712364
 23
7494.529872343854
 33
0.0
 14
6376.673057123639
 24
7520.529872343766
 34
0.0
100
AcDbRotatedDimension
1001
ACAD
1000
DSTYLE
1002
{
1070
   279
1070
     2
1002
}
  0
DIMENSION
  5
1659C
330
747D
100
AcDbEntity
  8
寸法
 48
50.0
100
AcDbDimension
  2
*D14
 10
2954.673057123653
 20
6960.099101577601
 30
0.0
 11
3115.575028123715
 21
7060.099101577602
 31
0.0
 70
   160
 71
     5
 42
48.00000000000363
  3
INABA_S40G
100
AcDbAlignedDimension
 13
3002.673057123657
 23
7520.529872343765
 33
0.0
 14
2954.673057123653
 24
7494.529872343766
 34
0.0
100
AcDbRotatedDimension
1001
ACAD
1000
DSTYLE
1002
{
1070
   279
1070
     2
1002
}
  0
DIMENSION
  5
165E9
330
747D
100
AcDbEntity
  8
寸法
 48
50.0
100
AcDbDimension
  2
*D16
 10
6424.67305712364
 20
6960.099101577603
 30
0.0
 11
6479.673057123647
 21
6808.407206541371
 31
0.0
 70
   160
 71
     5
 42
110.0000000000127
  3
INABA_S40G
100
AcDbAlignedDimension
 13
6534.673057123653
 23
7494.529872343766
 33
0.0
 14
6424.67305712364
 24
7494.529872343854
 34
0.0
100
AcDbRotatedDimension
1001
ACAD
1000
DSTYLE
1002
{
1070
   279
1070
     2
1002
}
  0
LINE
  5
16656
330
747D
100
AcDbEntity
  8
部品1
100
AcDbLine
 10
6376.673057123639
 20
7559.529872343766
 30
0.0
 11
6424.67305712364
 21
7559.529872343765
 31
0.0
  0
LINE
  5
16657
330
747D
100
AcDbEntity
  8
部品1
 48
50.0
100
AcDbLine
 10
6376.673057123639
 20
7559.529872343766
 30
0.0
 11
6376.673057123639
 21
7550.529872343766
 31
0.0
  0
LINE
  5
16658
330
747D
100
AcDbEntity
  8
部品1
100
AcDbLine
 10
6376.673057123639
 20
7520.529872343766
 30
0.0
 11
6424.673057123638
 21
7520.529872343765
 31
0.0
  0
LINE
  5
16659
330
747D
100
AcDbEntity
  8
部品1
 48
50.0
100
AcDbLine
 10
6376.673057123639
 20
7520.529872343766
 30
0.0
 11
6376.673057123639
 21
7529.529872343767
 31
0.0
  0
LINE
  5
1665A
330
747D
100
AcDbEntity
  8
部品1
 48
50.0
100
AcDbLine
 10
6414.673057123639
 20
7520.529872343765
 30
0.0
 11
6424.673057123638
 21
7499.529872343766
 31
0.0
  0
LINE
  5
1665B
330
747D
100
AcDbEntity
  8
部品1
100
AcDbLine
 10
6424.673057123638
 20
7530.529872343764
 30
0.0
 11
6447.673057123639
 21
7530.529872343764
 31
0.0
  0
LINE
  5
1665C
330
747D
100
AcDbEntity
  8
部品1
100
AcDbLine
 10
6582.673057123656
 20
7559.529872343766
 30
0.0
 11
6534.673057123656
 21
7559.529872343765
 31
0.0
  0
LINE
  5
1665D
330
747D
100
AcDbEntity
  8
部品1
 48
50.0
100
AcDbLine
 10
6582.673057123656
 20
7559.529872343766
 30
0.0
 11
6582.673057123656
 21
7550.529872343766
 31
0.0
  0
LINE
  5
1665E
330
747D
100
AcDbEntity
  8
部品1
100
AcDbLine
 10
6582.673057123656
 20
7520.529872343766
 30
0.0
 11
6534.673057123656
 21
7520.529872343765
 31
0.0
  0
LINE
  5
1665F
330
747D
100
AcDbEntity
  8
部品1
 48
50.0
100
AcDbLine
 10
6544.673057123657
 20
7520.529872343765
 30
0.0
 11
6534.673057123656
 21
7499.529872343766
 31
0.0
  0
LINE
  5
16660
330
747D
100
AcDbEntity
  8
部品1
100
AcDbLine
 10
6534.673057123656
 20
7530.529872343764
 30
0.0
 11
6511.673057123657
 21
7530.529872343764
 31
0.0
  0
LINE
  5
16661
330
747D
100
AcDbEntity
  8
部品1
 48
50.0
100
AcDbLine
 10
6534.673057123656
 20
7559.529872343765
 30
0.0
 11
6534.673057123653
 21
7494.529872343766
 31
0.0
  0
LINE
  5
16662
330
747D
100
AcDbEntity
  8
部品1
 48
50.0
100
AcDbLine
 10
6582.673057123656
 20
7520.529872343766
 30
0.0
 11
6582.673057123656
 21
7529.529872343767
 31
0.0
  0
LINE
  5
16663
330
747D
100
AcDbEntity
  8
部品1
100
AcDbLine
 10
6534.673057123652
 20
7494.529872343766
 30
0.0
 11
6424.673057123643
 21
7494.52987234376
 31
0.0
  0
LINE
  5
16664
330
747D
100
AcDbEntity
  8
部品1
 48
50.0
100
AcDbLine
 10
6424.673057123645
 20
7559.529872343853
 30
0.0
 11
6424.673057123641
 21
7494.529872343854
 31
0.0
  0
LINE
  5
16666
330
747D
100
AcDbEntity
  8
部品1
100
AcDbLine
 10
6534.673057123663
 20
10124.52987234377
 30
0.0
 11
6534.673057123663
 21
10096.52987234377
 31
0.0
  0
LINE
  5
16680
330
747D
100
AcDbEntity
  8
部品1
100
AcDbLine
 10
5584.673057123663
 20
10124.52987234388
 30
0.0
 11
5584.673057123663
 21
10096.52987234388
 31
0.0
  0
LINE
  5
16681
330
747D
100
AcDbEntity
  8
部品1
100
AcDbLine
 10
5572.173057123663
 20
10088.52987234386
 30
0.0
 11
5597.173057123663
 21
10088.52987234387
 31
0.0
  0
LINE
  5
16682
330
747D
100
AcDbEntity
  8
部品1
100
AcDbLine
 10
5613.673057123663
 20
10114.52987234387
 30
0.0
 11
5619.673057123662
 21
10114.52987234387
 31
0.0
  0
LINE
  5
16683
330
747D
100
AcDbEntity
  8
部品1
100
AcDbLine
 10
5619.673057123662
 20
10114.52987234387
 30
0.0
 11
5619.673057123662
 21
10096.52987234387
 31
0.0
  0
LINE
  5
16684
330
747D
100
AcDbEntity
  8
部品1
100
AcDbLine
 10
5549.986857755698
 20
10114.52987234387
 30
0.0
 11
5555.673057123663
 21
10114.52987234387
 31
0.0
  0
LINE
  5
16685
330
747D
100
AcDbEntity
  8
部品1
100
AcDbLine
 10
5549.673057123663
 20
10113.35875244743
 30
0.0
 11
5549.673057123663
 21
10096.52987234387
 31
0.0
  0
LINE
  5
16688
330
747D
100
AcDbEntity
  8
部品1
100
AcDbLine
 10
4717.67305712365
 20
10096.52987234388
 30
0.0
 11
5572.173057123662
 21
10096.52987234388
 31
0.0
  0
LINE
  5
1668A
330
747D
100
AcDbEntity
  8
部品1
100
AcDbLine
 10
5164.673057123663
 20
10124.52987234388
 30
0.0
 11
5164.673057123663
 21
10096.52987234388
 31
0.0
  0
LINE
  5
1668B
330
747D
100
AcDbEntity
  8
部品1
100
AcDbLine
 10
5164.673057123663
 20
10124.52987234377
 30
0.0
 11
5164.673057123663
 21
10096.52987234377
 31
0.0
  0
LINE
  5
1668C
330
747D
100
AcDbEntity
  8
部品1
100
AcDbLine
 10
5164.673057123663
 20
10124.52987234377
 30
0.0
 11
5164.673057123663
 21
10096.52987234377
 31
0.0
  0
LINE
  5
16691
330
747D
100
AcDbEntity
  8
部品1
100
AcDbLine
 10
6004.673057123662
 20
10124.52987234388
 30
0.0
 11
6004.673057123662
 21
10096.52987234388
 31
0.0
  0
LINE
  5
16692
330
747D
100
AcDbEntity
  8
部品1
100
AcDbLine
 10
6424.673057123664
 20
10124.52987234386
 30
0.0
 11
6424.673057123664
 21
10096.52987234386
 31
0.0
  0
DIMENSION
  5
166DD
330
747D
100
AcDbEntity
  8
寸法
 48
50.0
100
AcDbDimension
  2
*D17
 10
6424.673057123664
 20
10340.33809196887
 30
0.0
 11
6479.673057123664
 21
10440.33809196887
 31
0.0
 70
    32
 71
     5
 42
109.9999999999991
  3
INABA_S40G
100
AcDbAlignedDimension
 13
6534.673057123663
 23
10124.52987234382
 33
0.0
 14
6424.673057123664
 24
10124.52987234381
 34
0.0
100
AcDbRotatedDimension
1001
ACAD
1000
DSTYLE
1002
{
1070
   279
1070
     2
1002
}
  0
LINE
  5
16760
330
747D
100
AcDbEntity
  8
部品1
 48
50.0
100
AcDbLine
 10
6479.67305712363
 20
10096.52987234381
 30
0.0
 11
6451.673057123631
 21
10124.52987234386
 31
0.0
  0
LINE
  5
16761
330
747D
100
AcDbEntity
  8
部品1
100
AcDbLine
 10
8214.673057123659
 20
10069.52987234378
 30
0.0
 11
6534.673057123644
 21
10069.52987234378
 31
0.0
  0
LINE
  5
16762
330
747D
100
AcDbEntity
  8
部品1
 48
50.0
100
AcDbLine
 10
6451.673057123631
 20
10096.52987234392
 30
0.0
 11
6451.673057123631
 21
10124.52987234386
 31
0.0
  0
LINE
  5
16763
330
747D
100
AcDbEntity
  8
部品1
 48
50.0
100
AcDbLine
 10
6451.673057123631
 20
10096.52987234381
 30
0.0
 11
6479.67305712363
 21
10096.52987234381
 31
0.0
  0
LINE
  5
168C3
330
747D
100
AcDbEntity
  8
部品1
100
AcDbLine
 10
6503.673057123648
 20
7549.529872343761
 30
0.0
 11
6455.673057123647
 21
7549.529872343761
 31
0.0
  0
LINE
  5
168C4
330
747D
100
AcDbEntity
  8
部品1
 48
50.0
100
AcDbLine
 10
6455.673057123647
 20
7549.529872343763
 30
0.0
 11
6455.67305712365
 21
7494.529872343763
 31
0.0
  0
LINE
  5
168C5
330
747D
100
AcDbEntity
  8
部品1
 48
50.0
100
AcDbLine
 10
6503.673057123648
 20
7549.529872343763
 30
0.0
 11
6503.67305712365
 21
7494.529872343763
 31
0.0
  0
DIMENSION
  5
16913
330
747D
100
AcDbEntity
  8
寸法
 48
50.0
100
AcDbDimension
  2
*D18
 10
8269.673057123664
 20
10589.65956552516
 30
0.0
 11
7374.673057123664
 21
10689.65956552516
 31
0.0
 70
    32
 71
     5
 42
1790.0
  3
INABA_S40G
100
AcDbAlignedDimension
 13
6479.673057123664
 23
10499.32600632681
 33
0.0
 14
8269.673057123664
 24
10124.52987234386
 34
0.0
100
AcDbRotatedDimension
1001
ACAD
1000
DSTYLE
1002
{
1070
    75
1070
     1
1070
   279
1070
     2
1002
}
  0
LINE
  5
172BC
330
747D
100
AcDbEntity
  8
部品1
 48
50.0
100
AcDbLine
 10
6507.673057123631
 20
10069.52987234378
 30
0.0
 11
6507.673057123696
 21
10124.52987234381
 31
0.0
  0
LINE
  5
172BD
330
747D
100
AcDbEntity
  8
部品1
 48
50.0
100
AcDbLine
 10
6451.673057123631
 20
10069.52987234378
 30
0.0
 11
6451.673057123631
 21
10096.52987234381
 31
0.0
  0
LINE
  5
174C8
330
747D
100
AcDbEntity
  8
部品1
 48
50.0
100
AcDbLine
 10
8189.673057123664
 20
10044.52987234374
 30
0.0
 11
6559.673057123617
 21
10044.52987234371
 31
0.0
  0
LINE
  5
174C9
330
747D
100
AcDbEntity
  8
部品1
 48
50.0
100
AcDbLine
 10
8241.673057123664
 20
10096.52987234386
 30
0.0
 11
8214.673057123659
 21
10069.52987234378
 31
0.0
  0
LINE
  5
174CA
330
747D
100
AcDbEntity
  8
部品1
 48
50.0
100
AcDbLine
 10
2954.673057123633
 20
10069.52987234378
 30
0.0
 11
2927.67305712365
 21
10096.52987234388
 31
0.0
  0
LINE
  5
174CB
330
747D
100
AcDbEntity
  8
部品1
 48
50.0
100
AcDbLine
 10
7362.173057123662
 20
10088.52987234386
 30
0.0
 11
7362.173057123662
 21
10096.52987234388
 31
0.0
  0
LINE
  5
174CC
330
747D
100
AcDbEntity
  8
部品1
 48
50.0
100
AcDbLine
 10
7387.173057123662
 20
10088.52987234387
 30
0.0
 11
7387.173057123662
 21
10096.52987234388
 31
0.0
  0
LINE
  5
174CD
330
747D
100
AcDbEntity
  8
部品1
 48
50.0
100
AcDbLine
 10
5572.173057123663
 20
10088.52987234386
 30
0.0
 11
5572.173057123663
 21
10096.52987234388
 31
0.0
  0
LINE
  5
174CE
330
747D
100
AcDbEntity
  8
部品1
 48
50.0
100
AcDbLine
 10
5597.173057123663
 20
10088.52987234387
 30
0.0
 11
5597.173057123663
 21
10096.52987234388
 31
0.0
  0
LINE
  5
17B10
330
747D
100
AcDbEntity
  8
細線
100
AcDbLine
 10
4586.673057123657
 20
2547.931598713262
 30
0.0
 11
3002.673057123651
 21
2547.931598713262
 31
0.0
  0
LINE
  5
17B13
330
747D
100
AcDbEntity
  8
部品1
100
AcDbLine
 10
4744.673057123656
 20
4212.931598713261
 30
0.0
 11
4744.673057123656
 21
2537.931598713262
 31
0.0
  0
LINE
  5
17B14
330
747D
100
AcDbEntity
  8
部品1
100
AcDbLine
 10
4792.673057123656
 20
4212.931598713261
 30
0.0
 11
4792.673057123656
 21
2537.931598713262
 31
0.0
  0
LINE
  5
17B15
330
747D
100
AcDbEntity
  8
部品1
100
AcDbLine
 10
4634.673057123657
 20
4212.931598713261
 30
0.0
 11
4634.673057123655
 21
2537.931598713262
 31
0.0
  0
LINE
  5
17B16
330
747D
100
AcDbEntity
  8
部品1
100
AcDbLine
 10
4586.673057123658
 20
4212.931598713264
 30
0.0
 11
4586.673057123656
 21
2537.931598713262
 31
0.0
  0
LINE
  5
17B1E
330
747D
100
AcDbEntity
  8
細線
100
AcDbLine
 10
3002.673057123653
 20
4172.931598713261
 30
0.0
 11
4586.673057123655
 21
4172.931598713261
 31
0.0
  0
LINE
  5
17B21
330
747D
100
AcDbEntity
  8
細線
100
AcDbLine
 10
3002.673057123653
 20
3782.931598713262
 30
0.0
 11
4586.673057123655
 21
3782.931598713262
 31
0.0
  0
LINE
  5
17B22
330
747D
100
AcDbEntity
  8
細線
100
AcDbLine
 10
3002.673057123653
 20
3847.931598713262
 30
0.0
 11
4586.673057123655
 21
3847.931598713262
 31
0.0
  0
LINE
  5
17B23
330
747D
100
AcDbEntity
  8
細線
100
AcDbLine
 10
3002.673057123653
 20
3912.931598713262
 30
0.0
 11
4586.673057123655
 21
3912.931598713262
 31
0.0
  0
LINE
  5
17B24
330
747D
100
AcDbEntity
  8
細線
100
AcDbLine
 10
3002.673057123653
 20
3977.931598713262
 30
0.0
 11
4586.673057123655
 21
3977.931598713262
 31
0.0
  0
LINE
  5
17B25
330
747D
100
AcDbEntity
  8
細線
100
AcDbLine
 10
3002.673057123653
 20
4042.931598713262
 30
0.0
 11
4586.673057123655
 21
4042.931598713262
 31
0.0
  0
LINE
  5
17B26
330
747D
100
AcDbEntity
  8
細線
100
AcDbLine
 10
3002.673057123653
 20
4107.931598713261
 30
0.0
 11
4586.673057123655
 21
4107.931598713261
 31
0.0
  0
LINE
  5
17B27
330
747D
100
AcDbEntity
  8
細線
100
AcDbLine
 10
3002.673057123653
 20
3132.931598713262
 30
0.0
 11
4586.673057123655
 21
3132.931598713262
 31
0.0
  0
LINE
  5
17B28
330
747D
100
AcDbEntity
  8
細線
100
AcDbLine
 10
3002.673057123653
 20
3197.931598713262
 30
0.0
 11
4586.673057123655
 21
3197.931598713262
 31
0.0
  0
LINE
  5
17B29
330
747D
100
AcDbEntity
  8
細線
100
AcDbLine
 10
3002.673057123653
 20
3262.931598713262
 30
0.0
 11
4586.673057123655
 21
3262.931598713262
 31
0.0
  0
LINE
  5
17B2A
330
747D
100
AcDbEntity
  8
細線
100
AcDbLine
 10
3002.673057123653
 20
3327.931598713262
 30
0.0
 11
4586.673057123655
 21
3327.931598713262
 31
0.0
  0
LINE
  5
17B2B
330
747D
100
AcDbEntity
  8
細線
100
AcDbLine
 10
3002.673057123653
 20
3392.931598713262
 30
0.0
 11
4586.673057123655
 21
3392.931598713262
 31
0.0
  0
LINE
  5
17B2C
330
747D
100
AcDbEntity
  8
細線
100
AcDbLine
 10
3002.673057123653
 20
3457.931598713262
 30
0.0
 11
4586.673057123655
 21
3457.931598713262
 31
0.0
  0
LINE
  5
17B2D
330
747D
100
AcDbEntity
  8
細線
100
AcDbLine
 10
3002.673057123653
 20
3522.931598713262
 30
0.0
 11
4586.673057123655
 21
3522.931598713262
 31
0.0
  0
LINE
  5
17B2E
330
747D
100
AcDbEntity
  8
細線
100
AcDbLine
 10
3002.673057123653
 20
3587.931598713262
 30
0.0
 11
4586.673057123655
 21
3587.931598713262
 31
0.0
  0
LINE
  5
17B2F
330
747D
100
AcDbEntity
  8
細線
100
AcDbLine
 10
3002.673057123653
 20
3652.931598713262
 30
0.0
 11
4586.673057123655
 21
3652.931598713262
 31
0.0
  0
LINE
  5
17B30
330
747D
100
AcDbEntity
  8
細線
100
AcDbLine
 10
3002.673057123653
 20
3717.931598713262
 30
0.0
 11
4586.673057123655
 21
3717.931598713262
 31
0.0
  0
LINE
  5
17B33
330
747D
100
AcDbEntity
  8
細線
100
AcDbLine
 10
3002.673057123653
 20
2612.931598713262
 30
0.0
 11
4586.673057123655
 21
2612.931598713262
 31
0.0
  0
LINE
  5
17B34
330
747D
100
AcDbEntity
  8
細線
100
AcDbLine
 10
3002.673057123653
 20
2677.931598713262
 30
0.0
 11
4586.673057123655
 21
2677.931598713262
 31
0.0
  0
LINE
  5
17B35
330
747D
100
AcDbEntity
  8
細線
100
AcDbLine
 10
3002.673057123653
 20
2742.931598713262
 30
0.0
 11
4586.673057123655
 21
2742.931598713262
 31
0.0
  0
LINE
  5
17B36
330
747D
100
AcDbEntity
  8
細線
100
AcDbLine
 10
3002.673057123653
 20
2807.931598713262
 30
0.0
 11
4586.673057123655
 21
2807.931598713262
 31
0.0
  0
LINE
  5
17B37
330
747D
100
AcDbEntity
  8
細線
100
AcDbLine
 10
3002.673057123653
 20
2872.931598713262
 30
0.0
 11
4586.673057123655
 21
2872.931598713262
 31
0.0
  0
LINE
  5
17B38
330
747D
100
AcDbEntity
  8
細線
100
AcDbLine
 10
3002.673057123653
 20
2937.931598713262
 30
0.0
 11
4586.673057123655
 21
2937.931598713262
 31
0.0
  0
LINE
  5
17B39
330
747D
100
AcDbEntity
  8
細線
100
AcDbLine
 10
3002.673057123653
 20
3002.931598713262
 30
0.0
 11
4586.673057123655
 21
3002.931598713262
 31
0.0
  0
LINE
  5
17B3A
330
747D
100
AcDbEntity
  8
細線
100
AcDbLine
 10
3002.673057123653
 20
3067.931598713262
 30
0.0
 11
4586.673057123655
 21
3067.931598713262
 31
0.0
  0
LINE
  5
17B5A
330
747D
100
AcDbEntity
  8
部品1
100
AcDbLine
 10
2899.673057123656
 20
4212.931598713262
 30
0.0
 11
4744.673057123656
 21
4212.931598713261
 31
0.0
  0
LINE
  5
17B5E
330
747D
100
AcDbEntity
  8
破線
 48
5.0
100
AcDbLine
 10
4744.673057123656
 20
2537.931598713262
 30
0.0
 11
4744.673057123655
 21
2262.931598713262
 31
0.0
  0
LINE
  5
17B5F
330
747D
100
AcDbEntity
  8
破線
 48
5.0
100
AcDbLine
 10
4792.673057123656
 20
2287.931598713267
 30
0.0
 11
4744.673057123654
 21
2287.931598713267
 31
0.0
  0
LINE
  5
17B60
330
747D
100
AcDbEntity
  8
破線
 48
5.0
100
AcDbLine
 10
4792.673057123656
 20
2537.931598713262
 30
0.0
 11
4792.673057123654
 21
2287.931598713267
 31
0.0
  0
LINE
  5
17B61
330
747D
100
AcDbEntity
  8
破線
 48
5.0
100
AcDbLine
 10
4744.673057123655
 20
2262.931598713262
 30
0.0
 11
4634.673057123657
 21
2262.931598713262
 31
0.0
  0
LINE
  5
17B62
330
747D
100
AcDbEntity
  8
破線
 48
5.0
100
AcDbLine
 10
4634.673057123655
 20
2537.931598713262
 30
0.0
 11
4634.673057123655
 21
2262.931598713262
 31
0.0
  0
LINE
  5
17B63
330
747D
100
AcDbEntity
  8
破線
 48
5.0
100
AcDbLine
 10
4634.673057123658
 20
2287.931598713262
 30
0.0
 11
4586.673057123657
 21
2287.931598713262
 31
0.0
  0
LINE
  5
17B64
330
747D
100
AcDbEntity
  8
破線
 48
5.0
100
AcDbLine
 10
4586.673057123656
 20
2537.931598713262
 30
0.0
 11
4586.673057123657
 21
2287.931598713262
 31
0.0
  0
DIMENSION
  5
17B86
330
747D
100
AcDbEntity
  8
寸法
 48
50.0
100
AcDbDimension
  2
*D23
 10
4689.673057123664
 20
10589.65956552516
 30
0.0
 11
3794.673057123647
 21
10689.65956552516
 31
0.0
 70
    32
 71
     5
 42
1790.000000000035
  3
INABA_S40G
100
AcDbAlignedDimension
 13
2899.673057123628
 23
10124.52987234373
 33
0.0
 14
4689.673057123664
 24
10499.32600632681
 34
0.0
100
AcDbRotatedDimension
1001
ACAD
1000
DSTYLE
1002
{
1070
   279
1070
     2
1002
}
  0
DIMENSION
  5
17B87
330
747D
100
AcDbEntity
  8
寸法
100
AcDbDimension
  2
*D21
 10
4634.673057123664
 20
10340.33809196887
 30
0.0
 11
3794.673057123663
 21
10440.34990299249
 31
0.0
 70
    32
  1
4X420=<>
 71
     5
 42
1680.000000000001
  3
INABA_S40G
100
AcDbAlignedDimension
 13
2954.673057123663
 23
10124.52987234377
 33
0.0
 14
4634.673057123664
 24
10124.52987234386
 34
0.0
100
AcDbRotatedDimension
1001
ACAD
1000
DSTYLE
1002
{
1002
}
  0
DIMENSION
  5
17B88
330
747D
100
AcDbEntity
  8
寸法
 48
50.0
100
AcDbDimension
  2
*D22
 10
4634.673057123664
 20
10340.33809196887
 30
0.0
 11
4689.673057123664
 21
10440.33809196887
 31
0.0
 70
    32
 71
     5
 42
109.9999999999991
  3
INABA_S40G
100
AcDbAlignedDimension
 13
4744.673057123662
 23
10124.52987234382
 33
0.0
 14
4634.673057123664
 24
10124.52987234381
 34
0.0
100
AcDbRotatedDimension
1001
ACAD
1000
DSTYLE
1002
{
1070
   279
1070
     2
1002
}
  0
LINE
  5
17B89
330
747D
100
AcDbEntity
  8
部品1
100
AcDbLine
 10
4717.67305712363
 20
10069.52987234378
 30
0.0
 11
4661.673057123631
 21
10069.52987234378
 31
0.0
  0
LINE
  5
17B8B
330
747D
100
AcDbEntity
  8
部品1
 48
50.0
100
AcDbLine
 10
4609.673057123634
 20
10044.52987234369
 30
0.0
 11
2979.673057123633
 21
10044.52987234369
 31
0.0
  0
LINE
  5
17B98
330
747D
100
AcDbEntity
  8
部品1
 48
50.0
100
AcDbLine
 10
3807.173057123663
 20
10088.52987234387
 30
0.0
 11
3807.173057123663
 21
10096.52987234388
 31
0.0
  0
LINE
  5
17B99
330
747D
100
AcDbEntity
  8
部品1
 48
50.0
100
AcDbLine
 10
3782.173057123663
 20
10088.52987234386
 30
0.0
 11
3782.173057123663
 21
10096.52987234388
 31
0.0
  0
LINE
  5
17B9A
330
747D
100
AcDbEntity
  8
部品1
 48
50.0
100
AcDbLine
 10
4661.673057123631
 20
10069.52987234378
 30
0.0
 11
4661.673057123631
 21
10096.52987234381
 31
0.0
  0
LINE
  5
17B9B
330
747D
100
AcDbEntity
  8
部品1
 48
50.0
100
AcDbLine
 10
4717.673057123631
 20
10069.52987234378
 30
0.0
 11
4717.673057123696
 21
10124.52987234381
 31
0.0
  0
LINE
  5
17B9C
330
747D
100
AcDbEntity
  8
部品1
 48
50.0
100
AcDbLine
 10
4713.673057123648
 20
7549.529872343763
 30
0.0
 11
4713.67305712365
 21
7494.529872343763
 31
0.0
  0
LINE
  5
17B9D
330
747D
100
AcDbEntity
  8
部品1
 48
50.0
100
AcDbLine
 10
4665.673057123647
 20
7549.529872343763
 30
0.0
 11
4665.67305712365
 21
7494.529872343763
 31
0.0
  0
LINE
  5
17B9E
330
747D
100
AcDbEntity
  8
部品1
100
AcDbLine
 10
4713.673057123648
 20
7549.529872343761
 30
0.0
 11
4665.673057123647
 21
7549.529872343761
 31
0.0
  0
LINE
  5
17B9F
330
747D
100
AcDbEntity
  8
部品1
 48
50.0
100
AcDbLine
 10
4661.673057123631
 20
10096.52987234381
 30
0.0
 11
4689.67305712363
 21
10096.52987234381
 31
0.0
  0
LINE
  5
17BA0
330
747D
100
AcDbEntity
  8
部品1
 48
50.0
100
AcDbLine
 10
4661.673057123631
 20
10096.52987234392
 30
0.0
 11
4661.67305712363
 21
10124.52987234386
 31
0.0
  0
LINE
  5
17BA1
330
747D
100
AcDbEntity
  8
部品1
 48
50.0
100
AcDbLine
 10
4689.67305712363
 20
10096.52987234381
 30
0.0
 11
4661.673057123631
 21
10124.52987234386
 31
0.0
  0
LINE
  5
17BA2
330
747D
100
AcDbEntity
  8
部品1
100
AcDbLine
 10
4634.673057123664
 20
10124.52987234386
 30
0.0
 11
4634.673057123664
 21
10096.52987234386
 31
0.0
  0
LINE
  5
17BA3
330
747D
100
AcDbEntity
  8
部品1
100
AcDbLine
 10
4214.673057123662
 20
10124.52987234388
 30
0.0
 11
4214.673057123662
 21
10096.52987234388
 31
0.0
  0
LINE
  5
17BA4
330
747D
100
AcDbEntity
  8
部品1
100
AcDbLine
 10
3374.673057123663
 20
10124.52987234377
 30
0.0
 11
3374.673057123663
 21
10096.52987234377
 31
0.0
  0
LINE
  5
17BA5
330
747D
100
AcDbEntity
  8
部品1
100
AcDbLine
 10
3374.673057123663
 20
10124.52987234377
 30
0.0
 11
3374.673057123663
 21
10096.52987234377
 31
0.0
  0
LINE
  5
17BA6
330
747D
100
AcDbEntity
  8
部品1
100
AcDbLine
 10
3374.673057123663
 20
10124.52987234388
 30
0.0
 11
3374.673057123663
 21
10096.52987234388
 31
0.0
  0
LINE
  5
17BA7
330
747D
100
AcDbEntity
  8
部品1
100
AcDbLine
 10
3374.673057123663
 20
10124.52987234377
 30
0.0
 11
3374.673057123663
 21
10096.52987234377
 31
0.0
  0
LINE
  5
17BA8
330
747D
100
AcDbEntity
  8
部品1
100
AcDbLine
 10
3374.673057123663
 20
10124.52987234377
 30
0.0
 11
3374.673057123663
 21
10096.52987234377
 31
0.0
  0
LINE
  5
17BA9
330
747D
100
AcDbEntity
  8
部品1
100
AcDbLine
 10
3374.673057123663
 20
10124.52987234388
 30
0.0
 11
3374.673057123663
 21
10096.52987234388
 31
0.0
  0
LINE
  5
17BAA
330
747D
100
AcDbEntity
  8
部品1
100
AcDbLine
 10
2927.67305712365
 20
10096.52987234388
 30
0.0
 11
3782.173057123662
 21
10096.52987234388
 31
0.0
  0
LINE
  5
17BAB
330
747D
100
AcDbEntity
  8
部品1
100
AcDbLine
 10
3807.173057123663
 20
10096.52987234388
 30
0.0
 11
4661.673057123663
 21
10096.52987234386
 31
0.0
  0
LINE
  5
17BAC
330
747D
100
AcDbEntity
  8
部品1
100
AcDbLine
 10
3759.673057123663
 20
10114.52987234387
 30
0.0
 11
3759.673057123663
 21
10096.52987234387
 31
0.0
  0
LINE
  5
17BAD
330
747D
100
AcDbEntity
  8
部品1
100
AcDbLine
 10
3759.673057123663
 20
10114.52987234387
 30
0.0
 11
3765.673057123663
 21
10114.52987234387
 31
0.0
  0
LINE
  5
17BAE
330
747D
100
AcDbEntity
  8
部品1
100
AcDbLine
 10
3829.673057123663
 20
10114.52987234387
 30
0.0
 11
3829.673057123663
 21
10096.52987234387
 31
0.0
  0
LINE
  5
17BAF
330
747D
100
AcDbEntity
  8
部品1
100
AcDbLine
 10
3823.673057123663
 20
10114.52987234387
 30
0.0
 11
3829.673057123663
 21
10114.52987234387
 31
0.0
  0
LINE
  5
17BB0
330
747D
100
AcDbEntity
  8
部品1
100
AcDbLine
 10
3782.173057123663
 20
10088.52987234386
 30
0.0
 11
3807.173057123663
 21
10088.52987234387
 31
0.0
  0
LINE
  5
17BB1
330
747D
100
AcDbEntity
  8
部品1
100
AcDbLine
 10
3794.673057123663
 20
10124.52987234388
 30
0.0
 11
3794.673057123663
 21
10096.52987234388
 31
0.0
  0
LINE
  5
17BB2
330
747D
100
AcDbEntity
  8
部品1
100
AcDbLine
 10
4744.673057123662
 20
10124.52987234377
 30
0.0
 11
4744.673057123662
 21
10096.52987234377
 31
0.0
  0
LINE
  5
17BB3
330
747D
100
AcDbEntity
  8
部品1
 48
50.0
100
AcDbLine
 10
4634.673057123644
 20
7559.529872343853
 30
0.0
 11
4634.673057123641
 21
7494.529872343854
 31
0.0
  0
LINE
  5
17BB4
330
747D
100
AcDbEntity
  8
部品1
100
AcDbLine
 10
4744.673057123652
 20
7494.529872343766
 30
0.0
 11
4634.673057123642
 21
7494.52987234376
 31
0.0
  0
LINE
  5
17BB5
330
747D
100
AcDbEntity
  8
部品1
 48
50.0
100
AcDbLine
 10
4792.673057123656
 20
7520.529872343766
 30
0.0
 11
4792.673057123656
 21
7529.529872343767
 31
0.0
  0
LINE
  5
17BB6
330
747D
100
AcDbEntity
  8
部品1
 48
50.0
100
AcDbLine
 10
4744.673057123656
 20
7559.529872343765
 30
0.0
 11
4744.673057123653
 21
7494.529872343766
 31
0.0
  0
LINE
  5
17BB7
330
747D
100
AcDbEntity
  8
部品1
100
AcDbLine
 10
4744.673057123655
 20
7530.529872343764
 30
0.0
 11
4721.673057123656
 21
7530.529872343764
 31
0.0
  0
LINE
  5
17BB8
330
747D
100
AcDbEntity
  8
部品1
 48
50.0
100
AcDbLine
 10
4754.673057123656
 20
7520.529872343765
 30
0.0
 11
4744.673057123656
 21
7499.529872343766
 31
0.0
  0
LINE
  5
17BB9
330
747D
100
AcDbEntity
  8
部品1
100
AcDbLine
 10
4792.673057123656
 20
7520.529872343766
 30
0.0
 11
4744.673057123656
 21
7520.529872343765
 31
0.0
  0
LINE
  5
17BBA
330
747D
100
AcDbEntity
  8
部品1
 48
50.0
100
AcDbLine
 10
4792.673057123656
 20
7559.529872343766
 30
0.0
 11
4792.673057123656
 21
7550.529872343766
 31
0.0
  0
LINE
  5
17BBB
330
747D
100
AcDbEntity
  8
部品1
100
AcDbLine
 10
4792.673057123656
 20
7559.529872343766
 30
0.0
 11
4744.673057123656
 21
7559.529872343765
 31
0.0
  0
LINE
  5
17BBC
330
747D
100
AcDbEntity
  8
部品1
100
AcDbLine
 10
4634.673057123638
 20
7530.529872343764
 30
0.0
 11
4657.673057123639
 21
7530.529872343764
 31
0.0
  0
LINE
  5
17BBD
330
747D
100
AcDbEntity
  8
部品1
 48
50.0
100
AcDbLine
 10
4624.673057123638
 20
7520.529872343765
 30
0.0
 11
4634.673057123638
 21
7499.529872343766
 31
0.0
  0
LINE
  5
17BBE
330
747D
100
AcDbEntity
  8
部品1
 48
50.0
100
AcDbLine
 10
4586.673057123639
 20
7520.529872343766
 30
0.0
 11
4586.673057123639
 21
7529.529872343767
 31
0.0
  0
LINE
  5
17BBF
330
747D
100
AcDbEntity
  8
部品1
100
AcDbLine
 10
4586.673057123639
 20
7520.529872343766
 30
0.0
 11
4634.673057123638
 21
7520.529872343765
 31
0.0
  0
LINE
  5
17BC0
330
747D
100
AcDbEntity
  8
部品1
 48
50.0
100
AcDbLine
 10
4586.673057123639
 20
7559.529872343766
 30
0.0
 11
4586.673057123639
 21
7550.529872343766
 31
0.0
  0
LINE
  5
17BC1
330
747D
100
AcDbEntity
  8
部品1
100
AcDbLine
 10
4586.673057123639
 20
7559.529872343766
 30
0.0
 11
4634.673057123641
 21
7559.529872343765
 31
0.0
  0
LINE
  5
17BC2
330
747D
100
AcDbEntity
  8
部品1
 48
50.0
100
AcDbLine
 10
2966.673057123655
 20
7540.029872343764
 30
0.0
 11
4622.67305712364
 21
7540.029872343764
 31
0.0
  0
DIMENSION
  5
17BC3
330
747D
100
AcDbEntity
  8
寸法
 48
50.0
100
AcDbDimension
  2
*D20
 10
3002.673057123657
 20
6960.099101577601
 30
0.0
 11
3794.673057123648
 21
7160.099101577602
 31
0.0
 70
    32
  1
有効開口部間口\P <>
 71
     5
 42
1583.999999999982
  3
INABA_S40G
100
AcDbAlignedDimension
 13
4586.673057123639
 23
7520.529872343766
 33
0.0
 14
3002.673057123657
 24
7520.529872343765
 34
0.0
100
AcDbRotatedDimension
1001
ACAD
1000
DSTYLE
1002
{
1070
    75
1070
     1
1070
   279
1070
     2
1002
}
  0
DIMENSION
  5
17BC4
330
747D
100
AcDbEntity
  8
寸法
 48
50.0
100
AcDbDimension
  2
*D19
 10
4586.673057123639
 20
6960.099101577601
 30
0.0
 11
4475.710159474891
 21
7060.099101577602
 31
0.0
 70
   160
 71
     5
 42
48.00000000000181
  3
INABA_S40G
100
AcDbAlignedDimension
 13
4634.673057123641
 23
7494.529872343854
 33
0.0
 14
4586.673057123639
 24
7520.529872343766
 34
0.0
100
AcDbRotatedDimension
1001
ACAD
1000
DSTYLE
1002
{
1070
   279
1070
     2
1002
}
  0
DIMENSION
  5
17C46
330
747D
100
AcDbEntity
  8
寸法
 48
50.0
100
AcDbDimension
  2
*D25
 10
4634.673057123641
 20
6960.099101577603
 30
0.0
 11
4689.673057123647
 21
6808.407206541371
 31
0.0
 70
   160
 71
     5
 42
110.0000000000127
  3
INABA_S40G
100
AcDbAlignedDimension
 13
4744.673057123653
 23
7494.529872343766
 33
0.0
 14
4634.673057123641
 24
7494.529872343854
 34
0.0
100
AcDbRotatedDimension
1001
ACAD
1000
DSTYLE
1002
{
1070
   279
1070
     2
1002
}
  0
DIMENSION
  5
17C47
330
747D
100
AcDbEntity
  8
寸法
 48
50.0
100
AcDbDimension
  2
*D24
 10
4744.673057123653
 20
6960.099101577601
 30
0.0
 11
4905.575028123714
 21
7060.099101577602
 31
0.0
 70
   160
 71
     5
 42
48.00000000000363
  3
INABA_S40G
100
AcDbAlignedDimension
 13
4792.673057123656
 23
7520.529872343765
 33
0.0
 14
4744.673057123653
 24
7494.529872343766
 34
0.0
100
AcDbRotatedDimension
1001
ACAD
1000
DSTYLE
1002
{
1070
   279
1070
     2
1002
}
  0
LINE
  5
17D0F
330
747D
100
AcDbEntity
  8
部品1
100
AcDbLine
 10
8241.673057123655
 20
9649.52987234386
 30
0.0
 11
8269.673057123656
 21
9649.52987234386
 31
0.0
  0
LINE
  5
17D10
330
747D
100
AcDbEntity
  8
部品1
100
AcDbLine
 10
8241.673057123659
 20
9229.529872343858
 30
0.0
 11
8269.673057123659
 21
9229.529872343858
 31
0.0
  0
LINE
  5
17D11
330
747D
100
AcDbEntity
  8
部品1
100
AcDbLine
 10
2927.67305712363
 20
9649.529872343732
 30
0.0
 11
2899.67305712363
 21
9649.529872343732
 31
0.0
  0
LINE
  5
17D12
330
747D
100
AcDbEntity
  8
部品1
100
AcDbLine
 10
2927.673057123633
 20
9229.52987234373
 30
0.0
 11
2899.673057123633
 21
9229.52987234373
 31
0.0
  0
LINE
  5
18097
330
747D
100
AcDbEntity
  8
寸法
 48
50.0
100
AcDbLine
 10
6324.673057123664
 20
10340.33809196887
 30
0.0
 11
5699.004079146507
 21
10340.33809196887
 31
0.0
  0
LINE
  5
18098
330
747D
100
AcDbEntity
  8
寸法
 48
50.0
100
AcDbLine
 10
5474.097570791766
 20
10340.33809196887
 30
0.0
 11
4844.673057123663
 21
10340.33809196887
 31
0.0
  0
TEXT
  5
180AB
330
747D
100
AcDbEntity
  8
文字
 48
50.0
100
AcDbText
 10
5744.946326482197
 20
10371.0228574978
 30
0.0
 40
120.0
  1
1680
  7
STYLE1
100
AcDbText
  0
TEXT
  5
180AD
330
747D
100
AcDbEntity
  8
文字
 48
50.0
100
AcDbText
 10
5649.043058850574
 20
6995.568226181351
 30
0.0
 40
120.0
  1
1584
  7
STYLE1
100
AcDbText
  0
TEXT
  5
180D7
330
747D
100
AcDbEntity
  8
文字
 48
50.0
100
AcDbText
 10
5133.401826075933
 20
10371.0228574978
 30
0.0
 40
120.0
  1
1680
  7
STYLE1
100
AcDbText
  0
LINE
  5
180D8
330
747D
100
AcDbEntity
  8
寸法
 48
50.0
100
AcDbLine
 10
6276.673057123638
 20
6960.099101577601
 30
0.0
 11
5660.28692638396
 21
6960.099101577601
 31
0.0
  0
LINE
  5
180D9
330
747D
100
AcDbEntity
  8
寸法
 48
50.0
100
AcDbLine
 10
5461.318645771679
 20
6960.099101577601
 30
0.0
 11
4796.673057123637
 21
6960.099101577601
 31
0.0
  0
TEXT
  5
180DA
330
747D
100
AcDbEntity
  8
文字
 48
50.0
100
AcDbText
 10
5149.811617545235
 20
6995.568226181351
 30
0.0
 40
120.0
  1
1584
  7
STYLE1
100
AcDbText
  0
LINE
  5
180FF
330
747D
100
AcDbEntity
  8
部品1
100
AcDbLine
 10
2899.673057123657
 20
2537.931598713262
 30
0.0
 11
8269.673057123657
 21
2537.931598713262
 31
0.0
  0
LINE
  5
18100
330
747D
100
AcDbEntity
  8
Ｇ．Ｌ
100
AcDbLine
 10
1811.406454453173
 20
2437.931598713263
 30
0.0
 11
14516.30542539651
 21
2437.931598713261
 31
0.0
  0
LINE
  5
18102
330
747D
100
AcDbEntity
  8
部品1
 48
50.0
100
AcDbLine
 10
6399.673057123633
 20
10044.52987234372
 30
0.0
 11
4769.673057123633
 21
10044.52987234369
 31
0.0
  0
LINE
  5
18103
330
747D
100
AcDbEntity
  8
部品1
100
AcDbLine
 10
6424.673057123643
 20
10069.52987234379
 30
0.0
 11
4744.673057123642
 21
10069.52987234378
 31
0.0
  0
LINE
  5
18106
330
747D
100
AcDbEntity
  8
寸法
 48
50.0
100
AcDbLine
 10
6479.563357233136
 20
10516.80230330977
 30
0.0
 11
6479.563357233136
 21
10655.95343091773
 31
0.0
  0
LINE
  5
18107
330
747D
100
AcDbEntity
  8
寸法
 48
50.0
100
AcDbLine
 10
6479.673057123664
 20
10589.65956552516
 30
0.0
 11
5706.419703089108
 21
10589.65956552516
 31
0.0
  0
LINE
  5
18108
330
747D
100
AcDbEntity
  8
寸法
 48
50.0
100
AcDbLine
 10
4689.673057123664
 20
10589.65956552516
 30
0.0
 11
5470.886064659351
 21
10589.65956552516
 31
0.0
  0
TEXT
  5
18109
330
747D
100
AcDbEntity
  8
文字
 48
50.0
100
AcDbText
 10
5744.946326482197
 20
10633.51677825241
 30
0.0
 40
120.0
  1
1790
  7
STYLE1
100
AcDbText
  0
TEXT
  5
1810A
330
747D
100
AcDbEntity
  8
文字
 48
50.0
100
AcDbText
 10
5133.401826075933
 20
10633.51677825241
 30
0.0
 40
120.0
  1
1790
  7
STYLE1
100
AcDbText
  0
LINE
  5
18157
330
747D
100
AcDbEntity
  8
部品1
100
AcDbLine
 10
4661.673057123651
 20
9649.529872343816
 30
0.0
 11
4689.673057123651
 21
9649.529872343816
 31
0.0
  0
LINE
  5
18158
330
747D
100
AcDbEntity
  8
部品1
100
AcDbLine
 10
4661.673057123651
 20
9229.529872343816
 30
0.0
 11
4689.673057123651
 21
9229.529872343816
 31
0.0
  0
LINE
  5
18159
330
747D
100
AcDbEntity
  8
部品1
100
AcDbLine
 10
4661.673057123651
 20
8809.529872343816
 30
0.0
 11
4689.673057123651
 21
8809.529872343816
 31
0.0
  0
LINE
  5
1815A
330
747D
100
AcDbEntity
  8
部品1
100
AcDbLine
 10
4634.673057123649
 20
7559.529872343714
 30
0.0
 11
4634.673057123642
 21
10069.52987234371
 31
0.0
  0
LINE
  5
1815B
330
747D
100
AcDbEntity
  8
部品1
 48
10.0
100
AcDbLine
 10
4609.673057123658
 20
7559.529872343714
 30
0.0
 11
4609.673057123632
 21
10069.52987234371
 31
0.0
  0
LINE
  5
1815C
330
747D
100
AcDbEntity
  8
部品1
100
AcDbLine
 10
4661.673057123631
 20
10096.52987234381
 30
0.0
 11
4661.673057123614
 21
7494.529872343708
 31
0.0
  0
LINE
  5
1815D
330
747D
100
AcDbEntity
  8
部品1
100
AcDbLine
 10
4744.673057123669
 20
7559.529872343714
 30
0.0
 11
4744.673057123642
 21
10069.52987234371
 31
0.0
  0
LINE
  5
1815E
330
747D
100
AcDbEntity
  8
部品1
 48
10.0
100
AcDbLine
 10
4769.673057123664
 20
7559.529872343714
 30
0.0
 11
4769.673057123616
 21
10069.52987234373
 31
0.0
  0
LINE
  5
1815F
330
747D
100
AcDbEntity
  8
部品1
100
AcDbLine
 10
4717.673057123609
 20
7494.529872343713
 30
0.0
 11
4717.673057123633
 21
10124.52987234376
 31
0.0
  0
LINE
  5
18160
330
747D
100
AcDbEntity
  8
部品1
100
AcDbLine
 10
4689.673057123649
 20
10069.52987234373
 30
0.0
 11
4689.673057123622
 21
7549.529872343708
 31
0.0
  0
LINE
  5
18161
330
747D
100
AcDbEntity
  8
部品1
100
AcDbLine
 10
6479.673057123649
 20
10069.52987234373
 30
0.0
 11
6479.673057123623
 21
7549.529872343708
 31
0.0
  0
LINE
  5
18162
330
747D
100
AcDbEntity
  8
部品1
100
AcDbLine
 10
6507.67305712361
 20
7494.529872343713
 30
0.0
 11
6507.673057123632
 21
10124.52987234376
 31
0.0
  0
LINE
  5
18163
330
747D
100
AcDbEntity
  8
部品1
 48
10.0
100
AcDbLine
 10
6559.673057123664
 20
7559.529872343714
 30
0.0
 11
6559.673057123617
 21
10069.52987234373
 31
0.0
  0
LINE
  5
18164
330
747D
100
AcDbEntity
  8
部品1
100
AcDbLine
 10
6534.673057123669
 20
7559.529872343714
 30
0.0
 11
6534.673057123642
 21
10069.52987234371
 31
0.0
  0
LINE
  5
18165
330
747D
100
AcDbEntity
  8
部品1
100
AcDbLine
 10
6451.673057123631
 20
10096.52987234381
 30
0.0
 11
6451.673057123615
 21
7494.529872343708
 31
0.0
  0
LINE
  5
18166
330
747D
100
AcDbEntity
  8
部品1
 48
10.0
100
AcDbLine
 10
6399.673057123659
 20
7559.529872343714
 30
0.0
 11
6399.673057123633
 21
10069.52987234371
 31
0.0
  0
LINE
  5
18167
330
747D
100
AcDbEntity
  8
部品1
100
AcDbLine
 10
6424.67305712365
 20
7559.529872343714
 30
0.0
 11
6424.673057123643
 21
10069.52987234371
 31
0.0
  0
LINE
  5
18168
330
747D
100
AcDbEntity
  8
部品1
100
AcDbLine
 10
6451.673057123651
 20
8809.529872343816
 30
0.0
 11
6479.673057123651
 21
8809.529872343816
 31
0.0
  0
LINE
  5
18169
330
747D
100
AcDbEntity
  8
部品1
100
AcDbLine
 10
6451.673057123651
 20
9229.529872343816
 30
0.0
 11
6479.673057123651
 21
9229.529872343816
 31
0.0
  0
LINE
  5
1816A
330
747D
100
AcDbEntity
  8
部品1
100
AcDbLine
 10
6451.673057123651
 20
9649.529872343816
 30
0.0
 11
6479.673057123651
 21
9649.529872343816
 31
0.0
  0
LINE
  5
1816B
330
747D
100
AcDbEntity
  8
部品1
 48
50.0
100
AcDbLine
 10
6507.673057123684
 20
10096.52987234362
 30
0.0
 11
6534.673057123673
 21
10069.52987234363
 31
0.0
  0
LINE
  5
1816C
330
747D
100
AcDbEntity
  8
部品1
 48
50.0
100
AcDbLine
 10
6451.673057123699
 20
10096.52987234372
 30
0.0
 11
6424.673057123695
 21
10069.52987234371
 31
0.0
  0
LINE
  5
1816D
330
747D
100
AcDbEntity
  8
部品1
 48
50.0
100
AcDbLine
 10
4717.673057123684
 20
10096.52987234362
 30
0.0
 11
4744.673057123673
 21
10069.52987234363
 31
0.0
  0
LINE
  5
1816E
330
747D
100
AcDbEntity
  8
部品1
 48
50.0
100
AcDbLine
 10
4661.673057123699
 20
10096.52987234372
 30
0.0
 11
4634.673057123694
 21
10069.52987234371
 31
0.0
  0
LINE
  5
1816F
330
747D
100
AcDbEntity
  8
部品1
100
AcDbLine
 10
4634.673057123642
 20
10069.52987234378
 30
0.0
 11
2954.673057123633
 21
10069.52987234378
 31
0.0
  0
LINE
  5
18170
330
747D
100
AcDbEntity
  8
部品1
100
AcDbLine
 10
6507.673057123632
 20
10069.52987234378
 30
0.0
 11
6451.673057123631
 21
10069.52987234378
 31
0.0
  0
LINE
  5
18171
330
747D
100
AcDbEntity
  8
部品1
100
AcDbLine
 10
6451.673057123658
 20
8389.529872343816
 30
0.0
 11
6479.673057123658
 21
8389.529872343816
 31
0.0
  0
LINE
  5
18172
330
747D
100
AcDbEntity
  8
部品1
100
AcDbLine
 10
6451.673057123658
 20
7969.529872343816
 30
0.0
 11
6479.673057123658
 21
7969.529872343816
 31
0.0
  0
LINE
  5
18173
330
747D
100
AcDbEntity
  8
部品1
100
AcDbLine
 10
4661.673057123658
 20
7969.529872343816
 30
0.0
 11
4689.673057123657
 21
7969.529872343816
 31
0.0
  0
LINE
  5
18174
330
747D
100
AcDbEntity
  8
部品1
100
AcDbLine
 10
4661.673057123658
 20
8389.529872343816
 30
0.0
 11
4689.673057123657
 21
8389.529872343816
 31
0.0
  0
CIRCLE
  5
1834F
330
747D
100
AcDbEntity
  8
細線
 48
50.0
100
AcDbCircle
 10
7374.673057123651
 20
3425.431598713262
 30
0.0
 40
18.0
  0
ARC
  5
18350
330
747D
100
AcDbEntity
  8
細線
 48
50.0
100
AcDbCircle
 10
7674.673057123651
 20
3100.431598713262
 30
0.0
 40
15.0
100
AcDbArc
 50
270.0
 51
90.0
  0
ARC
  5
18351
330
747D
100
AcDbEntity
  8
細線
 48
50.0
100
AcDbCircle
 10
7574.673057123651
 20
3100.431598713262
 30
0.0
 40
15.0
100
AcDbArc
 50
90.0
 51
270.0
  0
LINE
  5
18352
330
747D
100
AcDbEntity
  8
細線
 48
50.0
100
AcDbLine
 10
7574.673057123651
 20
3115.431598713261
 30
0.0
 11
7674.673057123651
 21
3115.431598713261
 31
0.0
  0
LINE
  5
18353
330
747D
100
AcDbEntity
  8
細線
 48
50.0
100
AcDbLine
 10
7674.673057123651
 20
3085.431598713262
 30
0.0
 11
7574.673057123651
 21
3085.431598713262
 31
0.0
  0
LINE
  5
18354
330
747D
100
AcDbEntity
  8
細線
 48
50.0
100
AcDbLine
 10
7174.673057123651
 20
3085.431598713262
 30
0.0
 11
7074.673057123651
 21
3085.431598713262
 31
0.0
  0
LINE
  5
18355
330
747D
100
AcDbEntity
  8
細線
 48
50.0
100
AcDbLine
 10
7074.673057123651
 20
3115.431598713261
 30
0.0
 11
7174.673057123651
 21
3115.431598713261
 31
0.0
  0
ARC
  5
18356
330
747D
100
AcDbEntity
  8
細線
 48
50.0
100
AcDbCircle
 10
7174.673057123651
 20
3100.431598713262
 30
0.0
 40
15.0
100
AcDbArc
 50
270.0
 51
90.0
  0
ARC
  5
18357
330
747D
100
AcDbEntity
  8
細線
 48
50.0
100
AcDbCircle
 10
7074.673057123651
 20
3100.431598713262
 30
0.0
 40
15.0
100
AcDbArc
 50
90.0
 51
270.0
  0
ARC
  5
18792
330
747D
100
AcDbEntity
  8
細線
 48
50.0
100
AcDbCircle
 10
3494.673057123652
 20
3100.431598713262
 30
0.0
 40
15.0
100
AcDbArc
 50
90.0
 51
270.0
  0
ARC
  5
18793
330
747D
100
AcDbEntity
  8
細線
 48
50.0
100
AcDbCircle
 10
3594.673057123652
 20
3100.431598713262
 30
0.0
 40
15.0
100
AcDbArc
 50
270.0
 51
90.0
  0
LINE
  5
18794
330
747D
100
AcDbEntity
  8
細線
 48
50.0
100
AcDbLine
 10
3494.673057123652
 20
3115.431598713261
 30
0.0
 11
3594.673057123652
 21
3115.431598713261
 31
0.0
  0
LINE
  5
18795
330
747D
100
AcDbEntity
  8
細線
 48
50.0
100
AcDbLine
 10
3594.673057123652
 20
3085.431598713262
 30
0.0
 11
3494.673057123652
 21
3085.431598713262
 31
0.0
  0
LINE
  5
18796
330
747D
100
AcDbEntity
  8
細線
 48
50.0
100
AcDbLine
 10
4094.673057123651
 20
3085.431598713262
 30
0.0
 11
3994.673057123652
 21
3085.431598713262
 31
0.0
  0
LINE
  5
18797
330
747D
100
AcDbEntity
  8
細線
 48
50.0
100
AcDbLine
 10
3994.673057123652
 20
3115.431598713261
 30
0.0
 11
4094.673057123651
 21
3115.431598713261
 31
0.0
  0
ARC
  5
18798
330
747D
100
AcDbEntity
  8
細線
 48
50.0
100
AcDbCircle
 10
3994.673057123652
 20
3100.431598713262
 30
0.0
 40
15.0
100
AcDbArc
 50
90.0
 51
270.0
  0
ARC
  5
18799
330
747D
100
AcDbEntity
  8
細線
 48
50.0
100
AcDbCircle
 10
4094.673057123651
 20
3100.431598713262
 30
0.0
 40
15.0
100
AcDbArc
 50
270.0
 51
90.0
  0
CIRCLE
  5
1879A
330
747D
100
AcDbEntity
  8
細線
 48
50.0
100
AcDbCircle
 10
3794.673057123651
 20
3425.431598713262
 30
0.0
 40
18.0
  0
TEXT
  5
18837
330
747D
100
AcDbEntity
  8
文字
 62
     7
 48
50.0
100
AcDbText
 10
15022.63965474516
 20
9910.013745883727
 30
0.0
 40
100.0
  1
F12,Y10        1.0
  7
STYLE1
100
AcDbText
  0
TEXT
  5
18838
330
747D
100
AcDbEntity
  8
文字
 62
     7
 48
50.0
100
AcDbText
 10
13583.11819016569
 20
9910.01374588373
 30
0.0
 40
100.0
  1
梁中
  7
STYLE1
100
AcDbText
  0
TEXT
  5
18839
330
747D
100
AcDbEntity
  8
文字
 62
     7
 48
50.0
100
AcDbText
 10
13248.77747366448
 20
8720.013745883731
 30
0.0
 40
100.0
  1
14
  7
STYLE1
100
AcDbText
  0
LINE
  5
1883A
330
747D
100
AcDbEntity
  8
仕様書枠
 48
50.0
100
AcDbLine
 10
16307.19999999999
 20
9879.599999999999
 30
0.0
 11
13127.2
 21
9879.600000000001
 31
0.0
  0
LINE
  5
1883B
330
747D
100
AcDbEntity
  8
仕様書枠
 48
50.0
100
AcDbLine
 10
16307.19999999999
 20
11239.6
 30
0.0
 11
13127.2
 21
11239.6
 31
0.0
  0
LINE
  5
1883C
330
747D
100
AcDbEntity
  8
仕様書枠
 48
50.0
100
AcDbLine
 10
16307.2
 20
8179.600000000002
 30
0.0
 11
16307.2
 21
11239.6
 31
0.0
  0
LINE
  5
1883D
330
747D
100
AcDbEntity
  8
仕様書枠
 48
50.0
100
AcDbLine
 10
14785.2
 20
11239.59999999999
 30
0.0
 11
14785.2
 21
8689.600000000003
 31
0.0
  0
LINE
  5
1883E
330
747D
100
AcDbEntity
  8
仕様書枠
 48
50.0
100
AcDbLine
 10
13490.2
 20
11239.6
 30
0.0
 11
13490.20000000001
 21
8689.600000000003
 31
0.0
  0
LINE
  5
1883F
330
747D
100
AcDbEntity
  8
仕様書枠
 48
50.0
100
AcDbLine
 10
16307.19999999999
 20
11069.6
 30
0.0
 11
13127.2
 21
11069.6
 31
0.0
  0
LINE
  5
18840
330
747D
100
AcDbEntity
  8
仕様書枠
 48
50.0
100
AcDbLine
 10
16307.19999999999
 20
10729.6
 30
0.0
 11
13127.2
 21
10729.6
 31
0.0
  0
LINE
  5
18841
330
747D
100
AcDbEntity
  8
仕様書枠
 48
50.0
100
AcDbLine
 10
16307.19999999999
 20
10899.6
 30
0.0
 11
13127.2
 21
10899.6
 31
0.0
  0
LINE
  5
18842
330
747D
100
AcDbEntity
  8
仕様書枠
 48
50.0
100
AcDbLine
 10
16307.19999999999
 20
10389.6
 30
0.0
 11
13127.19999999999
 21
10389.6
 31
0.0
  0
LINE
  5
18843
330
747D
100
AcDbEntity
  8
仕様書枠
 48
50.0
100
AcDbLine
 10
16307.19999999999
 20
10219.6
 30
0.0
 11
13127.19999999999
 21
10219.6
 31
0.0
  0
LINE
  5
18844
330
747D
100
AcDbEntity
  8
仕様書枠
 48
50.0
100
AcDbLine
 10
16307.19999999999
 20
10559.6
 30
0.0
 11
13127.19999999999
 21
10559.6
 31
0.0
  0
TEXT
  5
18845
330
747D
100
AcDbEntity
  8
文字
 62
     7
 48
50.0
100
AcDbText
 10
13197.42518560407
 20
11100.01374588373
 30
0.0
 40
100.0
  1
品番
  7
STYLE1
100
AcDbText
  0
TEXT
  5
18846
330
747D
100
AcDbEntity
  8
文字
 62
     7
 48
50.0
100
AcDbText
 10
13271.19032244792
 20
10930.01374588373
 30
0.0
 40
100.0
  1
1
  7
STYLE1
100
AcDbText
  0
TEXT
  5
18847
330
747D
100
AcDbEntity
  8
文字
 62
     7
 48
50.0
100
AcDbText
 10
13271.19032244792
 20
10760.01374588373
 30
0.0
 40
100.0
  1
2
  7
STYLE1
100
AcDbText
  0
TEXT
  5
18848
330
747D
100
AcDbEntity
  8
文字
 62
     7
 48
50.0
100
AcDbText
 10
13271.19032244792
 20
10420.01374588373
 30
0.0
 40
100.0
  1
4
  7
STYLE1
100
AcDbText
  0
TEXT
  5
18849
330
747D
100
AcDbEntity
  8
文字
 62
     7
 48
50.0
100
AcDbText
 10
13271.19032244792
 20
10590.01374588373
 30
0.0
 40
100.0
  1
3
  7
STYLE1
100
AcDbText
  0
TEXT
  5
1884A
330
747D
100
AcDbEntity
  8
文字
 62
     7
 48
50.0
100
AcDbText
 10
13732.03840939434
 20
11100.01374588373
 30
0.0
 40
100.0
  1
部　　品　　名
  7
STYLE1
100
AcDbText
  0
TEXT
  5
1884B
330
747D
100
AcDbEntity
  8
文字
 62
     7
 48
50.0
100
AcDbText
 10
14859.79774614482
 20
11100.01374588373
 30
0.0
 40
100.0
  1
材料（材質）　　単位mm
  7
STYLE1
100
AcDbText
  0
TEXT
  5
1884C
330
747D
100
AcDbEntity
  8
文字
 62
     7
 48
50.0
100
AcDbText
 10
13583.11819016569
 20
10930.01374588372
 30
0.0
 40
100.0
  1
土台枠
  7
STYLE1
100
AcDbText
  0
TEXT
  5
1884D
330
747D
100
AcDbEntity
  8
文字
 62
     7
 48
50.0
100
AcDbText
 10
13583.11819016569
 20
10760.01374588372
 30
0.0
 40
100.0
  1
柱
  7
STYLE1
100
AcDbText
  0
TEXT
  5
1884E
330
747D
100
AcDbEntity
  8
文字
 62
     7
 48
50.0
100
AcDbText
 10
13583.11819016569
 20
10590.01374588373
 30
0.0
 40
100.0
  1
桁前
  7
STYLE1
100
AcDbText
  0
TEXT
  5
1884F
330
747D
100
AcDbEntity
  8
文字
 62
     7
 48
50.0
100
AcDbText
 10
13583.11819016569
 20
10420.01374588373
 30
0.0
 40
100.0
  1
桁後
  7
STYLE1
100
AcDbText
  0
TEXT
  5
18850
330
747D
100
AcDbEntity
  8
文字
 62
     7
 48
50.0
100
AcDbText
 10
13271.19032244792
 20
10250.01374588373
 30
0.0
 40
100.0
  1
5
  7
STYLE1
100
AcDbText
  0
TEXT
  5
18851
330
747D
100
AcDbEntity
  8
文字
 62
     7
 48
50.0
100
AcDbText
 10
13583.11819016569
 20
10250.01374588373
 30
0.0
 40
100.0
  1
妻板左右
  7
STYLE1
100
AcDbText
  0
TEXT
  5
18852
330
747D
100
AcDbEntity
  8
文字
 62
     7
 48
50.0
100
AcDbText
 10
13583.11819016568
 20
8890.013745883727
 30
0.0
 40
100.0
  1
シャッターレール
  7
STYLE1
100
AcDbText
  0
TEXT
  5
18853
330
747D
100
AcDbEntity
  8
文字
 62
     7
 48
50.0
100
AcDbText
 10
13248.77747366448
 20
9400.013745883727
 30
0.0
 40
100.0
  1
10
  7
STYLE1
100
AcDbText
  0
TEXT
  5
18854
330
747D
100
AcDbEntity
  8
文字
 62
     7
 48
50.0
100
AcDbText
 10
13583.11819016569
 20
9400.013745883729
 30
0.0
 40
100.0
  1
壁パネル
  7
STYLE1
100
AcDbText
  0
TEXT
  5
18855
330
747D
100
AcDbEntity
  8
文字
 62
     7
 48
50.0
100
AcDbText
 10
13583.11819016569
 20
9570.013745883727
 30
0.0
 40
100.0
  1
屋根パネル
  7
STYLE1
100
AcDbText
  0
TEXT
  5
18856
330
747D
100
AcDbEntity
  8
文字
 62
     7
 48
50.0
100
AcDbText
 10
13583.11819016569
 20
9740.013745883729
 30
0.0
 40
100.0
  1
母屋中
  7
STYLE1
100
AcDbText
  0
TEXT
  5
18857
330
747D
100
AcDbEntity
  8
文字
 62
     7
 48
50.0
100
AcDbText
 10
13583.11819016569
 20
10080.01374588372
 30
0.0
 40
100.0
  1
鼻隠シ前後
  7
STYLE1
100
AcDbText
  0
TEXT
  5
18858
330
747D
100
AcDbEntity
  8
文字
 62
     7
 48
50.0
100
AcDbText
 10
13271.19032244792
 20
9740.013745883729
 30
0.0
 40
100.0
  1
8
  7
STYLE1
100
AcDbText
  0
TEXT
  5
18859
330
747D
100
AcDbEntity
  8
文字
 62
     7
 48
50.0
100
AcDbText
 10
13271.19032244792
 20
9570.013745883729
 30
0.0
 40
100.0
  1
9
  7
STYLE1
100
AcDbText
  0
TEXT
  5
1885A
330
747D
100
AcDbEntity
  8
文字
 62
     7
 48
50.0
100
AcDbText
 10
13271.19032244792
 20
9910.01374588373
 30
0.0
 40
100.0
  1
7
  7
STYLE1
100
AcDbText
  0
TEXT
  5
1885B
330
747D
100
AcDbEntity
  8
文字
 62
     7
 48
50.0
100
AcDbText
 10
13271.19032244792
 20
10080.01374588373
 30
0.0
 40
100.0
  1
6
  7
STYLE1
100
AcDbText
  0
LINE
  5
1885C
330
747D
100
AcDbEntity
  8
仕様書枠
 48
50.0
100
AcDbLine
 10
16307.19999999999
 20
9539.599999999998
 30
0.0
 11
13127.19999999999
 21
9539.6
 31
0.0
  0
LINE
  5
1885D
330
747D
100
AcDbEntity
  8
仕様書枠
 48
50.0
100
AcDbLine
 10
16307.19999999999
 20
9199.599999999998
 30
0.0
 11
13127.19999999999
 21
9199.600000000001
 31
0.0
  0
LINE
  5
1885E
330
747D
100
AcDbEntity
  8
仕様書枠
 48
50.0
100
AcDbLine
 10
16307.19999999999
 20
9369.599999999998
 30
0.0
 11
13127.19999999999
 21
9369.600000000001
 31
0.0
  0
LINE
  5
1885F
330
747D
100
AcDbEntity
  8
仕様書枠
 48
50.0
100
AcDbLine
 10
16307.19999999999
 20
10049.6
 30
0.0
 11
13127.2
 21
10049.6
 31
0.0
  0
LINE
  5
18860
330
747D
100
AcDbEntity
  8
仕様書枠
 48
50.0
100
AcDbLine
 10
16307.19999999999
 20
9709.6
 30
0.0
 11
13127.2
 21
9709.600000000001
 31
0.0
  0
TEXT
  5
18861
330
747D
100
AcDbEntity
  8
文字
 62
     7
 48
50.0
100
AcDbText
 10
13248.77747366448
 20
9230.013745883727
 30
0.0
 40
100.0
  1
11
  7
STYLE1
100
AcDbText
  0
TEXT
  5
18862
330
747D
100
AcDbEntity
  8
文字
 62
     7
 48
50.0
100
AcDbText
 10
13583.11819016569
 20
9060.013745883727
 30
0.0
 40
100.0
  1
シャッターカバー
 41
0.9
  7
STYLE1
100
AcDbText
  0
LINE
  5
18863
330
747D
100
AcDbEntity
  8
仕様書枠
 48
50.0
100
AcDbLine
 10
16307.19999999999
 20
9029.6
 30
0.0
 11
13127.19999999999
 21
9029.6
 31
0.0
  0
LINE
  5
18864
330
747D
100
AcDbEntity
  8
仕様書枠
 48
50.0
100
AcDbLine
 10
16307.19999999999
 20
8689.6
 30
0.0
 11
13127.19999999999
 21
8689.600000000003
 31
0.0
  0
TEXT
  5
18865
330
747D
100
AcDbEntity
  8
文字
 62
     7
 48
50.0
100
AcDbText
 10
13583.11819016569
 20
8720.013745883729
 30
0.0
 40
100.0
  1
棚板（別売）
  7
STYLE1
100
AcDbText
  0
LINE
  5
18866
330
747D
100
AcDbEntity
  8
仕様書枠
 48
50.0
100
AcDbLine
 10
16307.19999999999
 20
8859.6
 30
0.0
 11
13127.19999999999
 21
8859.600000000002
 31
0.0
  0
TEXT
  5
18867
330
747D
100
AcDbEntity
  8
文字
 62
     7
 48
50.0
100
AcDbText
 10
13583.11819016569
 20
9230.013745883729
 30
0.0
 40
100.0
  1
シャッター
  7
STYLE1
100
AcDbText
  0
TEXT
  5
18868
330
747D
100
AcDbEntity
  8
文字
 62
     7
 48
50.0
100
AcDbText
 10
13248.77747366448
 20
8890.013745883729
 30
0.0
 40
100.0
  1
13
  7
STYLE1
100
AcDbText
  0
TEXT
  5
18869
330
747D
100
AcDbEntity
  8
文字
 62
     7
 48
50.0
100
AcDbText
 10
13248.77747366448
 20
9060.013745883729
 30
0.0
 40
100.0
  1
12
  7
STYLE1
100
AcDbText
  0
TEXT
  5
1886A
330
747D
100
AcDbEntity
  8
文字
 62
     7
 48
50.0
100
AcDbText
 10
15022.63965474517
 20
10930.01374588372
 30
0.0
 40
100.0
  1
F12            1.2
  7
STYLE1
100
AcDbText
  0
TEXT
  5
1886C
330
747D
100
AcDbEntity
  8
文字
 62
     7
 48
50.0
100
AcDbText
 10
15022.63965474516
 20
10590.01374588372
 30
0.0
 40
100.0
  1
Y10            1.0
  7
STYLE1
100
AcDbText
  0
TEXT
  5
1886D
330
747D
100
AcDbEntity
  8
文字
 62
     7
 48
50.0
100
AcDbText
 10
15022.63965474516
 20
10420.01374588372
 30
0.0
 40
100.0
  1
Y10            1.0
  7
STYLE1
100
AcDbText
  0
TEXT
  5
1886E
330
747D
100
AcDbEntity
  8
文字
 62
     7
 48
50.0
100
AcDbText
 10
15022.63965474516
 20
10250.01374588372
 30
0.0
 40
100.0
  1
Y10            0.7
  7
STYLE1
100
AcDbText
  0
TEXT
  5
1886F
330
747D
100
AcDbEntity
  8
文字
 62
     7
 48
50.0
100
AcDbText
 10
15022.63965474516
 20
10080.01374588372
 30
0.0
 40
100.0
  1
Y10            0.7
  7
STYLE1
100
AcDbText
  0
TEXT
  5
18870
330
747D
100
AcDbEntity
  8
文字
 62
     7
 48
50.0
100
AcDbText
 10
15022.63965474517
 20
9740.013745883725
 30
0.0
 40
100.0
  1
F12            1.0
  7
STYLE1
100
AcDbText
  0
TEXT
  5
18871
330
747D
100
AcDbEntity
  8
文字
 62
     7
 48
50.0
100
AcDbText
 10
15022.63965474517
 20
9570.013745883725
 30
0.0
 40
100.0
  1
Y10            0.5
  7
STYLE1
100
AcDbText
  0
TEXT
  5
18872
330
747D
100
AcDbEntity
  8
文字
 62
     7
 48
50.0
100
AcDbText
 10
15022.63965474516
 20
9400.013745883725
 30
0.0
 40
100.0
  1
F12            0.6
  7
STYLE1
100
AcDbText
  0
TEXT
  5
18873
330
747D
100
AcDbEntity
  8
文字
 62
     7
 48
50.0
100
AcDbText
 10
14850.83183167175
 20
8890.013745883726
 30
0.0
 40
100.0
  1
アルミニウム合金押出形材
  7
STYLE1
100
AcDbText
  0
TEXT
  5
18875
330
747D
100
AcDbEntity
  8
文字
 62
     7
 48
50.0
100
AcDbText
 10
15022.63965474515
 20
9230.013745883725
 30
0.0
 40
100.0
  1
Z08            0.5
  7
STYLE1
100
AcDbText
  0
TEXT
  5
18876
330
747D
100
AcDbEntity
  8
文字
 62
     7
 48
50.0
100
AcDbText
 10
15022.63965474515
 20
8720.013745883727
 30
0.0
 40
100.0
  1
F12            0.6
  7
STYLE1
100
AcDbText
  0
LINE
  5
18877
330
747D
100
AcDbEntity
  8
仕様書枠
 48
50.0
100
AcDbLine
 10
16307.2
 20
8519.599999999998
 30
0.0
 11
13127.2
 21
8519.600000000002
 31
0.0
  0
LINE
  5
18878
330
747D
100
AcDbEntity
  8
仕様書枠
 48
50.0
100
AcDbLine
 10
16307.2
 20
8349.599999999998
 30
0.0
 11
13127.2
 21
8349.6
 31
0.0
  0
LINE
  5
18879
330
747D
100
AcDbEntity
  8
仕様書枠
 48
50.0
100
AcDbLine
 10
16307.2
 20
8179.599999999998
 30
0.0
 11
13127.2
 21
8179.6
 31
0.0
  0
TEXT
  5
1887A
330
747D
100
AcDbEntity
  8
文字
 62
     7
 48
50.0
100
AcDbText
 10
13229.83081656556
 20
8550.013745883727
 30
0.0
 40
100.0
  1
F12→溶融亜鉛めっき鋼板(JIS G 3302)
  7
STYLE1
100
AcDbText
  0
TEXT
  5
1887B
330
747D
100
AcDbEntity
  8
文字
 62
     7
 48
50.0
100
AcDbText
 10
13229.83081656555
 20
8380.013745883728
 30
0.0
 40
100.0
  1
Y10→溶融亜鉛-5％アルミニウム合金めっき鋼板(JIS G 3317)
 41
0.9
  7
STYLE1
100
AcDbText
  0
TEXT
  5
1887C
330
747D
100
AcDbEntity
  8
文字
 62
     7
 48
50.0
100
AcDbText
 10
13229.83081656556
 20
8210.013745883729
 30
0.0
 40
100.0
  1
Z08→塗装溶融亜鉛めっき鋼板(JIS G 3313)
  7
STYLE1
100
AcDbText
  0
LINE
  5
1887D
330
747D
100
AcDbEntity
  8
仕様書枠
 48
50.0
100
AcDbLine
 10
13127.2
 20
11239.6
 30
0.0
 11
13127.2
 21
8179.600000000004
 31
0.0
  0
DIMENSION
  5
18F73
330
747D
100
AcDbEntity
  8
寸法
100
AcDbDimension
  2
*D26
 10
10053.09970133002
 20
2587.931598713257
 30
0.0
 11
9953.099701330017
 21
3482.93159871326
 31
0.0
 70
    32
 71
     5
 42
1790.000000000002
  3
INABA_S40G
100
AcDbAlignedDimension
 13
10896.84983051327
 23
4377.931598713259
 33
0.0
 14
10896.84983051327
 24
2587.931598713257
 34
0.0
 50
90.0
100
AcDbRotatedDimension
1001
ACAD
1000
DSTYLE
1002
{
1070
   174
1070
     0
1070
   272
1070
     1
1070
   288
1070
     0
1070
   341
1005
0
1002
}
  0
DIMENSION
  5
18F74
330
747D
100
AcDbEntity
  8
寸法
100
AcDbDimension
  2
*D27
 10
9753.099701330018
 20
4612.931598713264
 30
0.0
 11
9653.087890306395
 21
3575.431598713262
 31
0.0
 70
    32
 71
     5
 42
2075.000000000006
  3
INABA_S40G
100
AcDbAlignedDimension
 13
10896.84983051327
 23
2537.931598713257
 33
0.0
 14
10836.84983051327
 24
4612.931598713263
 34
0.0
 50
90.0
100
AcDbRotatedDimension
1001
ACAD
1000
DSTYLE
1002
{
1070
   174
1070
     0
1070
   272
1070
     1
1070
   288
1070
     0
1070
   341
1005
0
1002
}
  0
DIMENSION
  5
18F75
330
747D
100
AcDbEntity
  8
寸法
100
AcDbDimension
  2
*D28
 10
14231.77698848541
 20
4557.931598713265
 30
0.0
 11
14131.76517746178
 21
3547.931598713268
 31
0.0
 70
    32
 71
     5
 42
2020.0
  3
INABA_S40G
100
AcDbAlignedDimension
 13
13526.84983051328
 23
2537.931598713265
 33
0.0
 14
13606.84983051328
 24
4557.931598713265
 34
0.0
 50
90.0
100
AcDbRotatedDimension
1001
ACAD
1000
DSTYLE
1002
{
1070
   174
1070
     0
1070
   272
1070
     1
1070
   288
1070
     0
1070
   341
1005
0
1002
}
  0
LINE
  5
18F76
330
747D
100
AcDbEntity
  8
細線
 48
50.0
100
AcDbLine
 10
12974.34983051328
 20
4377.931598713261
 30
0.0
 11
12974.34983051328
 21
2587.931598713266
 31
0.0
  0
LINE
  5
18F77
330
747D
100
AcDbEntity
  8
細線
 48
50.0
100
AcDbLine
 10
12989.34983051328
 20
4377.931598713261
 30
0.0
 11
12989.34983051328
 21
2587.931598713266
 31
0.0
  0
LINE
  5
18F78
330
747D
100
AcDbEntity
  8
細線
 48
50.0
100
AcDbLine
 10
12849.34983051328
 20
4377.931598713261
 30
0.0
 11
12849.34983051328
 21
2587.931598713266
 31
0.0
  0
LINE
  5
18F79
330
747D
100
AcDbEntity
  8
細線
 48
50.0
100
AcDbLine
 10
12834.34983051328
 20
4377.931598713261
 30
0.0
 11
12834.34983051328
 21
2587.931598713266
 31
0.0
  0
LINE
  5
18F7A
330
747D
100
AcDbEntity
  8
細線
 48
50.0
100
AcDbLine
 10
12694.34983051328
 20
4377.931598713261
 30
0.0
 11
12694.34983051328
 21
2587.931598713266
 31
0.0
  0
LINE
  5
18F7B
330
747D
100
AcDbEntity
  8
細線
 48
50.0
100
AcDbLine
 10
12709.34983051328
 20
4377.931598713261
 30
0.0
 11
12709.34983051328
 21
2587.931598713266
 31
0.0
  0
LINE
  5
18F7C
330
747D
100
AcDbEntity
  8
部品1
100
AcDbLine
 10
12631.84983051327
 20
4377.931598713261
 30
0.0
 11
12631.84983051327
 21
2587.931598713266
 31
0.0
  0
LINE
  5
18F7D
330
747D
100
AcDbEntity
  8
部品1
100
AcDbLine
 10
12072.07496094252
 20
4738.135986676279
 30
0.0
 11
12397.52997458555
 21
4720.61792771742
 31
0.0
  0
ARC
  5
18F7E
330
747D
100
AcDbEntity
  8
部品1
100
AcDbCircle
 10
13592.47736632722
 20
4451.955355979055
 30
0.0
 40
0.7
100
AcDbArc
 50
275.0921697642102
 51
354.186699766767
  0
ARC
  5
18F7F
330
747D
100
AcDbEntity
  8
部品1
100
AcDbCircle
 10
13603.33671207653
 20
4528.998610796977
 30
0.0
 40
0.7
100
AcDbArc
 50
275.0921697642102
 51
354.1866997665596
  0
ARC
  5
18F80
330
747D
100
AcDbEntity
  8
部品1
100
AcDbCircle
 10
13603.66511731914
 20
4525.313213939891
 30
0.0
 40
3.0
100
AcDbArc
 50
95.0921697642102
 51
174.1866997665596
  0
ARC
  5
18F81
330
747D
100
AcDbEntity
  8
部品1
100
AcDbCircle
 10
13592.80577156981
 20
4448.269959121964
 30
0.0
 40
3.0
100
AcDbArc
 50
95.0921697642102
 51
174.1866997665596
  0
ARC
  5
18F82
330
747D
100
AcDbEntity
  8
部品1
 48
50.0
100
AcDbCircle
 10
13581.77763629471
 20
4438.679214518084
 30
0.0
 40
7.0
100
AcDbArc
 50
267.8377559869489
 51
354.1866997665596
  0
ARC
  5
18F83
330
747D
100
AcDbEntity
  8
部品1
 48
50.0
100
AcDbCircle
 10
13599.09973275922
 20
4549.581761660258
 30
0.0
 40
7.0
100
AcDbArc
 50
354.1866997665596
 51
87.03587545283093
  0
LINE
  5
18F84
330
747D
100
AcDbEntity
  8
部品1
 48
50.0
100
AcDbLine
 10
13589.82119989921
 20
4448.573820838868
 30
0.0
 11
13588.74163685947
 21
4437.97020384531
 31
0.0
  0
LINE
  5
18F85
330
747D
100
AcDbEntity
  8
部品1
 48
50.0
100
AcDbLine
 10
13600.68054564852
 20
4525.617075656792
 30
0.0
 11
13593.17376638369
 21
4451.884454911782
 31
0.0
  0
LINE
  5
18F86
330
747D
100
AcDbEntity
  8
部品1
 48
50.0
100
AcDbLine
 10
13606.06373332398
 20
4548.87275098748
 30
0.0
 11
13604.03311213301
 21
4528.927709729702
 31
0.0
  0
ARC
  5
18F87
330
747D
100
AcDbEntity
  8
部品1
100
AcDbCircle
 10
10842.88692238464
 20
4491.745757672168
 30
0.0
 40
0.7
100
AcDbArc
 50
181.0932240293156
 51
260.1877540314855
  0
ARC
  5
18F88
330
747D
100
AcDbEntity
  8
部品1
100
AcDbCircle
 10
10838.11424878703
 20
4584.611535872285
 30
0.0
 40
0.7
100
AcDbArc
 50
181.0932240292114
 51
260.1877540314855
  0
ARC
  5
18F89
330
747D
100
AcDbEntity
  8
部品1
100
AcDbCircle
 10
10837.48369438401
 20
4580.965661334889
 30
0.0
 40
3.0
100
AcDbArc
 50
1.093224029315636
 51
80.18775403169765
  0
ARC
  5
18F8A
330
747D
100
AcDbEntity
  8
部品1
100
AcDbCircle
 10
10842.25636798162
 20
4488.099883134768
 30
0.0
 40
3.0
100
AcDbArc
 50
1.093224029315636
 51
80.18775403169765
  0
ARC
  5
18F8B
330
747D
100
AcDbEntity
  8
部品1
 48
50.0
100
AcDbCircle
 10
10852.45650035682
 20
4477.707639752287
 30
0.0
 40
7.0
100
AcDbArc
 50
181.0932240293156
 51
267.8377559869489
  0
ARC
  5
18F8C
330
747D
100
AcDbEntity
  8
部品1
 48
50.0
100
AcDbCircle
 10
10844.03284225472
 20
4604.658699285384
 30
0.0
 40
7.0
100
AcDbArc
 50
87.03587545283093
 51
181.0932240293156
  0
LINE
  5
18F8D
330
747D
100
AcDbEntity
  8
部品1
 48
50.0
100
AcDbLine
 10
10845.25582190805
 20
4488.157120737953
 30
0.0
 11
10845.45777452848
 21
4477.574085344858
 31
0.0
  0
LINE
  5
18F8E
330
747D
100
AcDbEntity
  8
細線
 48
50.0
100
AcDbLine
 10
10842.64972885138
 20
4491.08716885676
 30
0.0
 11
13592.65339328202
 21
4451.277849882266
 31
0.0
  0
LINE
  5
18F8F
330
747D
100
AcDbEntity
  8
細線
 48
50.0
100
AcDbLine
 10
10837.88925361409
 20
4583.948680554626
 30
0.0
 11
13603.52523835926
 21
4528.324475913796
 31
0.0
  0
LINE
  5
18F90
330
747D
100
AcDbEntity
  8
部品1
 48
50.0
100
AcDbLine
 10
10840.48314831044
 20
4581.02289893807
 30
0.0
 11
10842.18704980181
 21
4491.732402231424
 31
0.0
  0
LINE
  5
18F91
330
747D
100
AcDbEntity
  8
部品1
 48
50.0
100
AcDbLine
 10
10837.03411642638
 20
4604.525144877956
 30
0.0
 11
10837.41437620419
 21
4584.598180431544
 31
0.0
  0
LINE
  5
18F92
330
747D
100
AcDbEntity
  8
細線
 48
50.0
100
AcDbLine
 10
13573.81911370697
 20
4557.085021192732
 30
0.0
 11
13569.10214762528
 21
4432.152805257814
 31
0.0
  0
LINE
  5
18F93
330
747D
100
AcDbEntity
  8
細線
 48
50.0
100
AcDbLine
 10
10869.84983051328
 20
4610.331275088668
 30
0.0
 11
10864.56072895777
 21
4470.245642461311
 31
0.0
  0
LINE
  5
18F94
330
747D
100
AcDbEntity
  8
部品1
100
AcDbLine
 10
10852.19239511523
 20
4470.71262378223
 30
0.0
 11
13581.51353105313
 21
4431.684198548024
 31
0.0
  0
LINE
  5
18F95
330
747D
100
AcDbEntity
  8
部品1
100
AcDbLine
 10
10844.39481687024
 20
4611.649334047528
 30
0.0
 11
13599.46170737474
 21
4556.572396422402
 31
0.0
  0
LINE
  5
18F96
330
747D
100
AcDbEntity
  8
部品1
 48
50.0
100
AcDbLine
 10
12097.52997458555
 20
4736.81792771742
 30
0.0
 11
12397.52997458555
 21
4736.81792771742
 31
0.0
  0
LINE
  5
18F97
330
747D
100
AcDbEntity
  8
部品1
 48
50.0
100
AcDbLine
 10
12397.52997458555
 20
4736.81792771742
 30
0.0
 11
12397.52997458555
 21
4720.61792771742
 31
0.0
  0
TEXT
  5
18F98
330
747D
100
AcDbEntity
  8
部品1
 48
50.0
100
AcDbText
 10
12085.79780980928
 20
4772.701949869854
 30
0.0
 40
120.0
  1
1000
  7
STYLE1
100
AcDbText
  0
TEXT
  5
18F99
330
747D
100
AcDbEntity
  8
部品1
 48
50.0
100
AcDbText
 10
12563.43083247437
 20
4635.200691651571
 30
0.0
 40
120.0
  1
37
 50
90.0
  7
STYLE1
100
AcDbText
  0
LINE
  5
18F9A
330
747D
100
AcDbEntity
  8
細線
 48
50.0
100
AcDbLine
 10
12289.34983051328
 20
4377.931598713261
 30
0.0
 11
12289.34983051328
 21
2587.931598713262
 31
0.0
  0
LINE
  5
18F9B
330
747D
100
AcDbEntity
  8
細線
 48
50.0
100
AcDbLine
 10
12274.34983051328
 20
4377.931598713261
 30
0.0
 11
12274.34983051328
 21
2587.931598713262
 31
0.0
  0
LINE
  5
18F9C
330
747D
100
AcDbEntity
  8
細線
 48
50.0
100
AcDbLine
 10
12414.34983051328
 20
4377.931598713261
 30
0.0
 11
12414.34983051328
 21
2587.931598713262
 31
0.0
  0
LINE
  5
18F9D
330
747D
100
AcDbEntity
  8
細線
 48
50.0
100
AcDbLine
 10
12429.34983051328
 20
4377.931598713261
 30
0.0
 11
12429.34983051328
 21
2587.931598713262
 31
0.0
  0
LINE
  5
18F9E
330
747D
100
AcDbEntity
  8
細線
 48
50.0
100
AcDbLine
 10
12569.34983051328
 20
4377.931598713261
 30
0.0
 11
12569.34983051328
 21
2587.931598713262
 31
0.0
  0
LINE
  5
18F9F
330
747D
100
AcDbEntity
  8
細線
 48
50.0
100
AcDbLine
 10
12554.34983051328
 20
4377.931598713261
 30
0.0
 11
12554.34983051328
 21
2587.931598713262
 31
0.0
  0
LINE
  5
18FA0
330
747D
100
AcDbEntity
  8
部品1
100
AcDbLine
 10
13051.84983051328
 20
4377.931598713261
 30
0.0
 11
13051.84983051328
 21
2587.931598713266
 31
0.0
  0
LINE
  5
18FA1
330
747D
100
AcDbEntity
  8
部品1
100
AcDbLine
 10
10896.84983051327
 20
4377.931598713261
 30
0.0
 11
13526.84983051328
 21
4377.931598713261
 31
0.0
  0
LINE
  5
18FA2
330
747D
100
AcDbEntity
  8
部品1
100
AcDbLine
 10
10951.84983051327
 20
2587.931598713262
 30
0.0
 11
13526.84983051328
 21
2587.931598713266
 31
0.0
  0
LINE
  5
18FA3
330
747D
100
AcDbEntity
  8
部品1
100
AcDbLine
 10
10951.84983051328
 20
4377.931598713261
 30
0.0
 11
10951.84983051328
 21
2437.931598713266
 31
0.0
  0
LINE
  5
18FA4
330
747D
100
AcDbEntity
  8
部品1
100
AcDbLine
 10
10896.84983051327
 20
4470.074036642141
 30
0.0
 11
10896.84983051327
 21
2437.931598713262
 31
0.0
  0
DIMENSION
  5
18FA5
330
747D
100
AcDbEntity
  8
寸法
100
AcDbDimension
  2
*D29
 10
10053.09970133002
 20
2537.931598713263
 30
0.0
 11
10053.09970133002
 21
2231.884354618773
 31
0.0
 70
   160
 71
     5
 42
50.0
  3
INABA_S40G
100
AcDbAlignedDimension
 13
10896.84983051327
 23
2587.931598713263
 33
0.0
 14
10841.84983051328
 24
2537.931598713263
 34
0.0
 50
90.0
100
AcDbRotatedDimension
1001
ACAD
1000
DSTYLE
1002
{
1070
   174
1070
     0
1070
   272
1070
     1
1070
   288
1070
     0
1070
   341
1005
0
1002
}
  0
LINE
  5
18FA6
330
747D
100
AcDbEntity
  8
部品1
100
AcDbLine
 10
11371.84983051328
 20
4377.931598713261
 30
0.0
 11
11371.84983051328
 21
2587.931598713262
 31
0.0
  0
LINE
  5
18FA7
330
747D
100
AcDbEntity
  8
部品1
100
AcDbLine
 10
13526.84983051328
 20
4432.465872101001
 30
0.0
 11
13526.84983051328
 21
2437.931598713266
 31
0.0
  0
LINE
  5
18FA8
330
747D
100
AcDbEntity
  8
部品1
100
AcDbLine
 10
13471.84983051328
 20
4377.931598713261
 30
0.0
 11
13471.84983051328
 21
2587.931598713266
 31
0.0
  0
DIMENSION
  5
18FA9
330
747D
100
AcDbEntity
  8
寸法
 48
50.0
100
AcDbDimension
  2
*D30
 10
10896.84983051327
 20
5011.58905229257
 30
0.0
 11
12211.84983051328
 21
5011.58905229257
 31
0.0
 70
   160
  1
柱外寸法<>
 71
     5
 42
2630.0
  3
INABA_S40G
100
AcDbAlignedDimension
 13
13526.84983051328
 23
4559.742278324916
 33
0.0
 14
10896.84983051327
 24
4608.93321683624
 34
0.0
100
AcDbRotatedDimension
1001
ACAD
1000
DSTYLE
1002
{
1070
   174
1070
     0
1070
   272
1070
     1
1070
   288
1070
     0
1070
   341
1005
0
1002
}
  0
DIMENSION
  5
18FAA
330
747D
100
AcDbEntity
  8
寸法
 48
50.0
100
AcDbDimension
  2
*D31
 10
10836.84983051327
 20
5011.589052292567
 30
0.0
 11
10527.21203523768
 21
5011.589052292567
 31
0.0
 70
   160
 71
     5
 42
60.0
  3
INABA_S40G
100
AcDbAlignedDimension
 13
10896.84983051327
 23
4608.93321683624
 33
0.0
 14
10836.84983051327
 24
4612.931598713268
 34
0.0
100
AcDbRotatedDimension
1001
ACAD
1000
DSTYLE
1002
{
1070
   174
1070
     0
1070
   272
1070
     1
1070
   288
1070
     0
1070
   341
1005
0
1002
}
  0
DIMENSION
  5
18FAB
330
747D
100
AcDbEntity
  8
寸法
 48
50.0
100
AcDbDimension
  2
*D32
 10
10836.84983051327
 20
5231.799739024186
 30
0.0
 11
12221.84983051328
 21
5231.799739024186
 31
0.0
 70
   160
 71
     5
 42
2770.0
  3
INABA_S40G
100
AcDbAlignedDimension
 13
13606.84983051328
 23
4557.931598713265
 33
0.0
 14
10836.84983051327
 24
4612.931598713268
 34
0.0
100
AcDbRotatedDimension
1001
ACAD
1000
DSTYLE
1002
{
1070
   174
1070
     0
1070
   272
1070
     1
1070
   288
1070
     0
1070
   341
1005
0
1002
}
  0
LINE
  5
18FAC
330
747D
100
AcDbEntity
  8
部品1
100
AcDbLine
 10
10951.84983051328
 20
2537.931598713262
 30
0.0
 11
13526.84983051328
 21
2537.931598713262
 31
0.0
  0
LINE
  5
18FAD
330
747D
100
AcDbEntity
  8
細線
 48
50.0
100
AcDbLine
 10
11449.34983051328
 20
4377.931598713261
 30
0.0
 11
11449.34983051328
 21
2587.931598713262
 31
0.0
  0
LINE
  5
18FAE
330
747D
100
AcDbEntity
  8
細線
 48
50.0
100
AcDbLine
 10
11434.34983051328
 20
4377.931598713261
 30
0.0
 11
11434.34983051328
 21
2587.931598713262
 31
0.0
  0
LINE
  5
18FAF
330
747D
100
AcDbEntity
  8
細線
 48
50.0
100
AcDbLine
 10
11574.34983051327
 20
4377.931598713261
 30
0.0
 11
11574.34983051327
 21
2587.931598713262
 31
0.0
  0
LINE
  5
18FB0
330
747D
100
AcDbEntity
  8
細線
 48
50.0
100
AcDbLine
 10
11589.34983051328
 20
4377.931598713261
 30
0.0
 11
11589.34983051328
 21
2587.931598713262
 31
0.0
  0
LINE
  5
18FB1
330
747D
100
AcDbEntity
  8
細線
 48
50.0
100
AcDbLine
 10
11729.34983051328
 20
4377.931598713261
 30
0.0
 11
11729.34983051328
 21
2587.931598713262
 31
0.0
  0
LINE
  5
18FB2
330
747D
100
AcDbEntity
  8
細線
 48
50.0
100
AcDbLine
 10
11714.34983051327
 20
4377.931598713261
 30
0.0
 11
11714.34983051327
 21
2587.931598713262
 31
0.0
  0
LINE
  5
18FB3
330
747D
100
AcDbEntity
  8
細線
 48
50.0
100
AcDbLine
 10
11294.34983051328
 20
4377.931598713261
 30
0.0
 11
11294.34983051328
 21
2587.931598713262
 31
0.0
  0
LINE
  5
18FB4
330
747D
100
AcDbEntity
  8
細線
 48
50.0
100
AcDbLine
 10
11309.34983051328
 20
4377.931598713261
 30
0.0
 11
11309.34983051328
 21
2587.931598713262
 31
0.0
  0
LINE
  5
18FB5
330
747D
100
AcDbEntity
  8
細線
 48
50.0
100
AcDbLine
 10
11169.34983051327
 20
4377.931598713261
 30
0.0
 11
11169.34983051327
 21
2587.931598713262
 31
0.0
  0
LINE
  5
18FB6
330
747D
100
AcDbEntity
  8
細線
 48
50.0
100
AcDbLine
 10
11154.34983051328
 20
4377.931598713261
 30
0.0
 11
11154.34983051328
 21
2587.931598713262
 31
0.0
  0
LINE
  5
18FB7
330
747D
100
AcDbEntity
  8
細線
 48
50.0
100
AcDbLine
 10
11014.34983051328
 20
4377.931598713261
 30
0.0
 11
11014.34983051328
 21
2587.931598713262
 31
0.0
  0
LINE
  5
18FB8
330
747D
100
AcDbEntity
  8
細線
 48
50.0
100
AcDbLine
 10
11029.34983051327
 20
4377.931598713261
 30
0.0
 11
11029.34983051327
 21
2587.931598713262
 31
0.0
  0
DIMENSION
  5
18FB9
330
747D
100
AcDbEntity
  8
寸法
 48
50.0
100
AcDbDimension
  2
*D33
 10
13606.84983051328
 20
5011.58905229257
 30
0.0
 11
13812.89707460777
 21
5011.58905229257
 31
0.0
 70
   160
 71
     5
 42
80.0
  3
INABA_S40G
100
AcDbAlignedDimension
 13
13526.84983051328
 23
4559.742278324916
 33
0.0
 14
13606.84983051328
 24
4557.931598713265
 34
0.0
100
AcDbRotatedDimension
1001
ACAD
1000
DSTYLE
1002
{
1070
   174
1070
     0
1070
   272
1070
     1
1070
   288
1070
     0
1070
   341
1005
0
1002
}
  0
LINE
  5
18FBA
330
747D
100
AcDbEntity
  8
部品1
100
AcDbLine
 10
11791.84983051328
 20
4377.931598713261
 30
0.0
 11
11791.84983051328
 21
2587.931598713262
 31
0.0
  0
LINE
  5
18FBB
330
747D
100
AcDbEntity
  8
細線
 48
50.0
100
AcDbLine
 10
12134.34983051328
 20
4377.931598713261
 30
0.0
 11
12134.34983051328
 21
2587.931598713262
 31
0.0
  0
LINE
  5
18FBC
330
747D
100
AcDbEntity
  8
細線
 48
50.0
100
AcDbLine
 10
12149.34983051328
 20
4377.931598713261
 30
0.0
 11
12149.34983051328
 21
2587.931598713262
 31
0.0
  0
LINE
  5
18FBD
330
747D
100
AcDbEntity
  8
細線
 48
50.0
100
AcDbLine
 10
12009.34983051328
 20
4377.931598713261
 30
0.0
 11
12009.34983051328
 21
2587.931598713262
 31
0.0
  0
LINE
  5
18FBE
330
747D
100
AcDbEntity
  8
細線
 48
50.0
100
AcDbLine
 10
11994.34983051328
 20
4377.931598713261
 30
0.0
 11
11994.34983051328
 21
2587.931598713262
 31
0.0
  0
LINE
  5
18FBF
330
747D
100
AcDbEntity
  8
細線
 48
50.0
100
AcDbLine
 10
11854.34983051328
 20
4377.931598713261
 30
0.0
 11
11854.34983051328
 21
2587.931598713262
 31
0.0
  0
LINE
  5
18FC0
330
747D
100
AcDbEntity
  8
細線
 48
50.0
100
AcDbLine
 10
11869.34983051328
 20
4377.931598713261
 30
0.0
 11
11869.34983051328
 21
2587.931598713262
 31
0.0
  0
LINE
  5
18FC1
330
747D
100
AcDbEntity
  8
部品1
100
AcDbLine
 10
12211.84983051328
 20
4377.931598713261
 30
0.0
 11
12211.84983051328
 21
2587.931598713262
 31
0.0
  0
LINE
  5
18FC2
330
747D
100
AcDbEntity
  8
細線
 48
50.0
100
AcDbLine
 10
13129.34983051328
 20
4377.931598713261
 30
0.0
 11
13129.34983051328
 21
2587.931598713266
 31
0.0
  0
LINE
  5
18FC3
330
747D
100
AcDbEntity
  8
細線
 48
50.0
100
AcDbLine
 10
13114.34983051328
 20
4377.931598713261
 30
0.0
 11
13114.34983051328
 21
2587.931598713266
 31
0.0
  0
LINE
  5
18FC4
330
747D
100
AcDbEntity
  8
細線
 48
50.0
100
AcDbLine
 10
13254.34983051328
 20
4377.931598713261
 30
0.0
 11
13254.34983051328
 21
2587.931598713266
 31
0.0
  0
LINE
  5
18FC5
330
747D
100
AcDbEntity
  8
細線
 48
50.0
100
AcDbLine
 10
13269.34983051328
 20
4377.931598713261
 30
0.0
 11
13269.34983051328
 21
2587.931598713266
 31
0.0
  0
LINE
  5
18FC6
330
747D
100
AcDbEntity
  8
細線
 48
50.0
100
AcDbLine
 10
13409.34983051328
 20
4377.931598713261
 30
0.0
 11
13409.34983051328
 21
2587.931598713266
 31
0.0
  0
LINE
  5
18FC7
330
747D
100
AcDbEntity
  8
細線
 48
50.0
100
AcDbLine
 10
13394.34983051328
 20
4377.931598713261
 30
0.0
 11
13394.34983051328
 21
2587.931598713266
 31
0.0
  0
DIMENSION
  5
18FC8
330
747D
100
AcDbEntity
  8
寸法
 48
50.0
100
AcDbDimension
  2
*D34
 10
10276.2414237449
 20
4487.276857586595
 30
0.0
 11
10286.90689900382
 21
4858.123520828293
 31
0.0
 70
   161
 71
     5
 42
141.0
  3
INABA_S40G
100
AcDbAlignedDimension
 13
10856.24585067185
 23
4611.654347547943
 33
0.0
 14
10852.19239511523
 24
4470.71262378223
 34
0.0
1001
ACAD
1000
DSTYLE
1002
{
1070
   174
1070
     0
1070
   272
1070
     1
1070
   288
1070
     0
1070
   341
1005
0
1002
}
  0
LINE
  5
18FCE
330
747D
100
AcDbEntity
  8
破線
 48
5.0
100
AcDbLine
 10
10896.84983051327
 20
2437.931598713262
 30
0.0
 11
10896.84983051327
 21
2187.931598713262
 31
0.0
  0
LINE
  5
18FCF
330
747D
100
AcDbEntity
  8
破線
 48
5.0
100
AcDbLine
 10
10951.84983051328
 20
2437.931598713262
 30
0.0
 11
10951.84983051328
 21
2187.931598713262
 31
0.0
  0
LINE
  5
18FD0
330
747D
100
AcDbEntity
  8
破線
 48
5.0
100
AcDbLine
 10
10896.84983051327
 20
2187.931598713262
 30
0.0
 11
10951.84983051328
 21
2187.931598713262
 31
0.0
  0
LINE
  5
18FD1
330
747D
100
AcDbEntity
  8
部品1
100
AcDbLine
 10
10896.84983051327
 20
2537.931598713262
 30
0.0
 11
10503.85261630443
 21
2437.931598713262
 31
0.0
  0
TEXT
  5
18FD2
330
747D
100
AcDbEntity
  8
文字
 62
     7
 48
50.0
100
AcDbText
 10
14256.80651792544
 20
483.8967129911416
 30
0.0
 40
160.0
  1
FXN-1726SL-N
  7
MSPゴシック
100
AcDbText
  0
LINE
  5
194D5
330
747D
100
AcDbEntity
  8
補助
  6
PHANTOM
 62
   230
 48
50.0
100
AcDbLine
 10
140.0
 20
0.0
 30
0.0
 11
139.9999999999995
 21
11409.6
 31
0.0
  0
DIMENSION
  5
196D4
330
747D
100
AcDbEntity
  8
寸法
 48
50.0
100
AcDbDimension
  2
*D35
 10
2849.673057123655
 20
5018.657870445171
 30
0.0
 11
2536.187775749408
 21
5018.657870445171
 31
0.0
 70
   160
 71
     5
 42
50.0
  3
INABA_S40G
100
AcDbAlignedDimension
 13
2899.673057123655
 23
4612.931598713268
 33
0.0
 14
2849.673057123655
 24
4612.931598713268
 34
0.0
100
AcDbRotatedDimension
1001
ACAD
1000
DSTYLE
1002
{
1002
}
  0
LINE
  5
196D5
330
747D
100
AcDbEntity
  8
部品1
100
AcDbLine
 10
2850.092718138985
 20
4605.535073318027
 30
0.0
 11
2851.226115471334
 21
4585.558945335426
 31
0.0
  0
LINE
  5
196D6
330
747D
100
AcDbEntity
  8
部品1
100
AcDbLine
 10
2862.663135792915
 20
4489.901538168367
 30
0.0
 11
2863.308041600023
 21
4478.535073318027
 31
0.0
  0
LINE
  5
196D7
330
747D
100
AcDbEntity
  8
部品1
100
AcDbLine
 10
2854.427105268064
 20
4582.101538168369
 30
0.0
 11
2859.462145996178
 21
4493.358945335425
 31
0.0
  0
ARC
  5
196D8
330
747D
100
AcDbEntity
  8
部品1
 48
50.0
100
AcDbCircle
 10
2851.431922371878
 20
4581.931598713269
 30
0.0
 40
3.0
100
AcDbArc
 50
3.247342790337682
 51
82.34187279263654
  0
ARC
  5
196D9
330
747D
100
AcDbEntity
  8
部品1
 48
50.0
100
AcDbCircle
 10
2859.667952896721
 20
4489.731598713264
 30
0.0
 40
3.0
100
AcDbArc
 50
3.247342790337682
 51
82.34187279263654
  0
ARC
  5
196DA
330
747D
100
AcDbEntity
  8
部品1
 48
50.0
100
AcDbCircle
 10
2860.161022005283
 20
4493.398597874948
 30
0.0
 40
0.7
100
AcDbArc
 50
183.2473427903377
 51
262.3418727926365
  0
ARC
  5
196DB
330
747D
100
AcDbEntity
  8
部品1
 48
50.0
100
AcDbCircle
 10
2851.924991480446
 20
4585.598597874952
 30
0.0
 40
0.7
100
AcDbArc
 50
183.2473427903377
 51
262.3418727926365
  0
ARC
  5
196DC
330
747D
100
AcDbEntity
  8
部品1
100
AcDbCircle
 10
2870.296801691118
 20
4478.931598713269
 30
0.0
 40
7.0
100
AcDbArc
 50
183.2473427903377
 51
270.0
  0
ARC
  5
196DD
330
747D
100
AcDbEntity
  8
部品1
100
AcDbCircle
 10
2857.081478230088
 20
4605.931598713264
 30
0.0
 40
7.0
100
AcDbArc
 50
90.0
 51
183.2473427903377
  0
LINE
  5
196DE
330
747D
100
AcDbEntity
  8
細線
 48
50.0
100
AcDbLine
 10
2882.673057123655
 20
4612.931598713265
 30
0.0
 11
2882.673057123655
 21
4471.931598713265
 31
0.0
  0
ARC
  5
196DF
330
747D
100
AcDbEntity
  8
部品1
 48
0.01
100
AcDbCircle
 10
3477.673057123657
 20
4410.431598713262
 30
0.0
 40
2.0
100
AcDbArc
 50
270.0
 51
0.0
  0
ARC
  5
196E0
330
747D
100
AcDbEntity
  8
部品1
 48
0.01
100
AcDbCircle
 10
3477.673057123661
 20
4441.931598713261
 30
0.0
 40
2.0
100
AcDbArc
 50
0.0
 51
90.0
  0
ARC
  5
196E1
330
747D
100
AcDbEntity
  8
部品1
 48
0.01
100
AcDbCircle
 10
3301.673057123661
 20
4410.431598713262
 30
0.0
 40
2.0
100
AcDbArc
 50
180.0
 51
270.0
  0
ARC
  5
196E2
330
747D
100
AcDbEntity
  8
部品1
 48
0.01
100
AcDbCircle
 10
3301.673057123661
 20
4441.931598713261
 30
0.0
 40
2.0
100
AcDbArc
 50
90.0
 51
180.0
  0
LINE
  5
196E3
330
747D
100
AcDbEntity
  8
細線
100
AcDbLine
 10
3389.673057123657
 20
4414.431598713261
 30
0.0
 11
3463.67305712366
 21
4414.431598713261
 31
0.0
  0
LINE
  5
196E4
330
747D
100
AcDbEntity
  8
細線
100
AcDbLine
 10
3389.673057123661
 20
4437.431598713261
 30
0.0
 11
3315.67305712366
 21
4437.431598713261
 31
0.0
  0
LINE
  5
196E5
330
747D
100
AcDbEntity
  8
細線
100
AcDbLine
 10
3315.67305712366
 20
4414.431598713261
 30
0.0
 11
3389.673057123661
 21
4414.431598713261
 31
0.0
  0
LINE
  5
196E6
330
747D
100
AcDbEntity
  8
細線
100
AcDbLine
 10
3463.67305712366
 20
4437.431598713261
 30
0.0
 11
3389.673057123661
 21
4437.431598713261
 31
0.0
  0
LINE
  5
196E7
330
747D
100
AcDbEntity
  8
細線
100
AcDbLine
 10
3463.67305712366
 20
4414.431598713261
 30
0.0
 11
3463.67305712366
 21
4437.431598713261
 31
0.0
  0
LINE
  5
196E8
330
747D
100
AcDbEntity
  8
細線
100
AcDbLine
 10
3315.67305712366
 20
4437.431598713261
 30
0.0
 11
3315.67305712366
 21
4414.431598713261
 31
0.0
  0
LINE
  5
196E9
330
747D
100
AcDbEntity
  8
部品1
 48
0.01
100
AcDbLine
 10
3479.673057123657
 20
4410.431598713262
 30
0.0
 11
3479.67305712366
 21
4441.931598713261
 31
0.0
  0
LINE
  5
196EA
330
747D
100
AcDbEntity
  8
部品1
 48
0.01
100
AcDbLine
 10
3301.673057123661
 20
4408.431598713261
 30
0.0
 11
3477.673057123657
 21
4408.431598713261
 31
0.0
  0
LINE
  5
196EB
330
747D
100
AcDbEntity
  8
部品1
 48
0.01
100
AcDbLine
 10
3299.673057123661
 20
4441.931598713261
 30
0.0
 11
3299.673057123661
 21
4410.431598713262
 31
0.0
  0
LINE
  5
196EC
330
747D
100
AcDbEntity
  8
部品1
 48
0.01
100
AcDbLine
 10
3477.673057123661
 20
4443.931598713262
 30
0.0
 11
3301.673057123661
 21
4443.931598713262
 31
0.0
  0
LINE
  5
196ED
330
747D
100
AcDbEntity
  8
細線
100
AcDbLine
 10
3315.67305712366
 20
4431.431598713261
 30
0.0
 11
3389.673057123661
 21
4431.431598713261
 31
0.0
  0
LINE
  5
196EE
330
747D
100
AcDbEntity
  8
細線
100
AcDbLine
 10
3315.67305712366
 20
4425.431598713261
 30
0.0
 11
3389.673057123661
 21
4425.431598713261
 31
0.0
  0
LINE
  5
196EF
330
747D
100
AcDbEntity
  8
細線
100
AcDbLine
 10
3315.673057123657
 20
4419.431598713261
 30
0.0
 11
3389.673057123661
 21
4419.431598713261
 31
0.0
  0
LINE
  5
196F0
330
747D
100
AcDbEntity
  8
細線
100
AcDbLine
 10
3315.67305712366
 20
4431.431598713261
 30
0.0
 11
3384.673057123661
 21
4431.431598713261
 31
0.0
  0
LINE
  5
196F1
330
747D
100
AcDbEntity
  8
細線
100
AcDbLine
 10
3463.673057123657
 20
4431.431598713261
 30
0.0
 11
3389.673057123661
 21
4431.431598713261
 31
0.0
  0
LINE
  5
196F2
330
747D
100
AcDbEntity
  8
細線
100
AcDbLine
 10
3463.673057123657
 20
4419.431598713261
 30
0.0
 11
3389.673057123661
 21
4419.431598713261
 31
0.0
  0
LINE
  5
196F3
330
747D
100
AcDbEntity
  8
細線
100
AcDbLine
 10
3463.673057123657
 20
4425.431598713261
 30
0.0
 11
3389.673057123661
 21
4425.431598713261
 31
0.0
  0
LINE
  5
196F4
330
747D
100
AcDbEntity
  8
細線
100
AcDbLine
 10
3389.673057123661
 20
4437.431598713261
 30
0.0
 11
3389.673057123657
 21
4414.431598713261
 31
0.0
  0
LINE
  5
196F5
330
747D
100
AcDbEntity
  8
細線
100
AcDbLine
 10
4199.673057123656
 20
4437.431598713261
 30
0.0
 11
4199.67305712366
 21
4414.431598713261
 31
0.0
  0
LINE
  5
196F6
330
747D
100
AcDbEntity
  8
細線
100
AcDbLine
 10
4125.67305712366
 20
4425.431598713261
 30
0.0
 11
4199.673057123656
 21
4425.431598713261
 31
0.0
  0
LINE
  5
196F7
330
747D
100
AcDbEntity
  8
細線
100
AcDbLine
 10
4125.67305712366
 20
4419.431598713261
 30
0.0
 11
4199.673057123656
 21
4419.431598713261
 31
0.0
  0
LINE
  5
196F8
330
747D
100
AcDbEntity
  8
細線
100
AcDbLine
 10
4125.67305712366
 20
4431.431598713261
 30
0.0
 11
4199.673057123656
 21
4431.431598713261
 31
0.0
  0
LINE
  5
196F9
330
747D
100
AcDbEntity
  8
細線
100
AcDbLine
 10
4273.673057123657
 20
4431.431598713261
 30
0.0
 11
4204.673057123656
 21
4431.431598713261
 31
0.0
  0
LINE
  5
196FA
330
747D
100
AcDbEntity
  8
細線
100
AcDbLine
 10
4273.67305712366
 20
4419.431598713261
 30
0.0
 11
4199.673057123656
 21
4419.431598713261
 31
0.0
  0
LINE
  5
196FB
330
747D
100
AcDbEntity
  8
細線
100
AcDbLine
 10
4273.673057123657
 20
4425.431598713261
 30
0.0
 11
4199.673057123656
 21
4425.431598713261
 31
0.0
  0
LINE
  5
196FC
330
747D
100
AcDbEntity
  8
細線
100
AcDbLine
 10
4273.673057123657
 20
4431.431598713261
 30
0.0
 11
4199.673057123656
 21
4431.431598713261
 31
0.0
  0
LINE
  5
196FD
330
747D
100
AcDbEntity
  8
部品1
 48
0.01
100
AcDbLine
 10
4111.673057123656
 20
4443.931598713262
 30
0.0
 11
4287.673057123657
 21
4443.931598713262
 31
0.0
  0
LINE
  5
196FE
330
747D
100
AcDbEntity
  8
部品1
 48
0.01
100
AcDbLine
 10
4289.673057123656
 20
4441.931598713261
 30
0.0
 11
4289.673057123656
 21
4410.431598713262
 31
0.0
  0
LINE
  5
196FF
330
747D
100
AcDbEntity
  8
部品1
 48
0.01
100
AcDbLine
 10
4287.673057123657
 20
4408.431598713261
 30
0.0
 11
4111.67305712366
 21
4408.431598713261
 31
0.0
  0
LINE
  5
19700
330
747D
100
AcDbEntity
  8
部品1
 48
0.01
100
AcDbLine
 10
4109.67305712366
 20
4410.431598713262
 30
0.0
 11
4109.673057123656
 21
4441.931598713261
 31
0.0
  0
LINE
  5
19701
330
747D
100
AcDbEntity
  8
細線
100
AcDbLine
 10
4273.673057123657
 20
4437.431598713261
 30
0.0
 11
4273.673057123657
 21
4414.431598713261
 31
0.0
  0
LINE
  5
19702
330
747D
100
AcDbEntity
  8
細線
100
AcDbLine
 10
4125.673057123656
 20
4414.431598713261
 30
0.0
 11
4125.673057123656
 21
4437.431598713261
 31
0.0
  0
LINE
  5
19703
330
747D
100
AcDbEntity
  8
細線
100
AcDbLine
 10
4125.673057123656
 20
4437.431598713261
 30
0.0
 11
4199.673057123656
 21
4437.431598713261
 31
0.0
  0
LINE
  5
19704
330
747D
100
AcDbEntity
  8
細線
100
AcDbLine
 10
4273.673057123657
 20
4414.431598713261
 30
0.0
 11
4199.673057123656
 21
4414.431598713261
 31
0.0
  0
LINE
  5
19705
330
747D
100
AcDbEntity
  8
細線
100
AcDbLine
 10
4199.673057123656
 20
4437.431598713261
 30
0.0
 11
4273.673057123657
 21
4437.431598713261
 31
0.0
  0
LINE
  5
19706
330
747D
100
AcDbEntity
  8
細線
100
AcDbLine
 10
4199.67305712366
 20
4414.431598713261
 30
0.0
 11
4125.673057123656
 21
4414.431598713261
 31
0.0
  0
ARC
  5
19707
330
747D
100
AcDbEntity
  8
部品1
 48
0.01
100
AcDbCircle
 10
4287.673057123657
 20
4441.931598713261
 30
0.0
 40
2.0
100
AcDbArc
 50
0.0
 51
90.0
  0
ARC
  5
19708
330
747D
100
AcDbEntity
  8
部品1
 48
0.01
100
AcDbCircle
 10
4287.673057123657
 20
4410.431598713262
 30
0.0
 40
2.0
100
AcDbArc
 50
270.0
 51
0.0
  0
ARC
  5
19709
330
747D
100
AcDbEntity
  8
部品1
 48
0.01
100
AcDbCircle
 10
4111.673057123656
 20
4441.931598713261
 30
0.0
 40
2.0
100
AcDbArc
 50
90.0
 51
180.0
  0
ARC
  5
1970A
330
747D
100
AcDbEntity
  8
部品1
 48
0.01
100
AcDbCircle
 10
4111.67305712366
 20
4410.431598713262
 30
0.0
 40
2.0
100
AcDbArc
 50
180.0
 51
270.0
  0
LINE
  5
1970F
330
747D
100
AcDbEntity
  8
部品1
100
AcDbLine
 10
2899.673057123655
 20
4377.931598713261
 30
0.0
 11
8269.673057123657
 21
4377.931598713257
 31
0.0
  0
DIMENSION
  5
19753
330
747D
100
AcDbEntity
  8
寸法
 48
50.0
100
AcDbDimension
  2
*D36
 10
8269.673057123659
 20
5018.657870445176
 30
0.0
 11
8633.158338497898
 21
5018.657870445176
 31
0.0
 70
   160
 71
     5
 42
49.99999999999636
  3
INABA_S40G
100
AcDbAlignedDimension
 13
8319.673057123656
 23
4612.931598713266
 33
0.0
 14
8269.673057123659
 24
4612.931598713269
 34
0.0
100
AcDbRotatedDimension
  0
ARC
  5
19754
330
747D
100
AcDbEntity
  8
部品1
100
AcDbCircle
 10
8312.264636017228
 20
4605.93159871327
 30
0.0
 40
7.0
100
AcDbArc
 50
356.7526572096623
 51
90.0
  0
ARC
  5
19755
330
747D
100
AcDbEntity
  8
部品1
100
AcDbCircle
 10
8299.049312556194
 20
4478.931598713269
 30
0.0
 40
7.0
100
AcDbArc
 50
270.0
 51
356.7526572096623
  0
ARC
  5
19756
330
747D
100
AcDbEntity
  8
部品1
 48
50.0
100
AcDbCircle
 10
8317.421122766869
 20
4585.598597874953
 30
0.0
 40
0.7
100
AcDbArc
 50
277.6581272073635
 51
356.7526572096623
  0
ARC
  5
19757
330
747D
100
AcDbEntity
  8
部品1
 48
50.0
100
AcDbCircle
 10
8309.18509224203
 20
4493.398597874953
 30
0.0
 40
0.7
100
AcDbArc
 50
277.6581272073635
 51
356.7526572096623
  0
ARC
  5
19758
330
747D
100
AcDbEntity
  8
部品1
 48
50.0
100
AcDbCircle
 10
8309.678161350589
 20
4489.731598713265
 30
0.0
 40
3.0
100
AcDbArc
 50
97.65812720736347
 51
176.7526572096623
  0
ARC
  5
19759
330
747D
100
AcDbEntity
  8
部品1
 48
50.0
100
AcDbCircle
 10
8317.914191875434
 20
4581.93159871327
 30
0.0
 40
3.0
100
AcDbArc
 50
97.65812720736347
 51
176.7526572096623
  0
LINE
  5
1975A
330
747D
100
AcDbEntity
  8
部品1
100
AcDbLine
 10
8314.919008979249
 20
4582.101538168372
 30
0.0
 11
8309.883968251137
 21
4493.358945335426
 31
0.0
  0
LINE
  5
1975B
330
747D
100
AcDbEntity
  8
部品1
100
AcDbLine
 10
8306.682978454402
 20
4489.901538168368
 30
0.0
 11
8306.038072647293
 21
4478.535073318028
 31
0.0
  0
LINE
  5
1975C
330
747D
100
AcDbEntity
  8
細線
 48
50.0
100
AcDbLine
 10
8286.673057123657
 20
4612.931598713269
 30
0.0
 11
8286.673057123657
 21
4471.931598713269
 31
0.0
  0
LINE
  5
1975D
330
747D
100
AcDbEntity
  8
部品1
100
AcDbLine
 10
8319.253396108328
 20
4605.535073318028
 30
0.0
 11
8318.119998775976
 21
4585.558945335431
 31
0.0
  0
ARC
  5
1975E
330
747D
100
AcDbEntity
  8
部品1
 48
0.01
100
AcDbCircle
 10
7057.673057123657
 20
4410.431598713262
 30
0.0
 40
2.0
100
AcDbArc
 50
270.0
 51
0.0
  0
ARC
  5
1975F
330
747D
100
AcDbEntity
  8
部品1
 48
0.01
100
AcDbCircle
 10
7057.673057123661
 20
4441.931598713262
 30
0.0
 40
2.0
100
AcDbArc
 50
0.0
 51
90.0
  0
ARC
  5
19760
330
747D
100
AcDbEntity
  8
部品1
 48
0.01
100
AcDbCircle
 10
6881.67305712366
 20
4410.431598713262
 30
0.0
 40
2.0
100
AcDbArc
 50
180.0
 51
270.0
  0
ARC
  5
19761
330
747D
100
AcDbEntity
  8
部品1
 48
0.01
100
AcDbCircle
 10
6881.67305712366
 20
4441.931598713262
 30
0.0
 40
2.0
100
AcDbArc
 50
90.0
 51
180.0
  0
LINE
  5
19762
330
747D
100
AcDbEntity
  8
細線
100
AcDbLine
 10
6969.673057123657
 20
4414.431598713262
 30
0.0
 11
7043.673057123661
 21
4414.431598713262
 31
0.0
  0
LINE
  5
19763
330
747D
100
AcDbEntity
  8
細線
100
AcDbLine
 10
6969.67305712366
 20
4437.431598713263
 30
0.0
 11
6895.67305712366
 21
4437.431598713263
 31
0.0
  0
LINE
  5
19764
330
747D
100
AcDbEntity
  8
細線
100
AcDbLine
 10
6895.67305712366
 20
4414.431598713262
 30
0.0
 11
6969.67305712366
 21
4414.431598713262
 31
0.0
  0
LINE
  5
19765
330
747D
100
AcDbEntity
  8
細線
100
AcDbLine
 10
7043.673057123661
 20
4437.431598713263
 30
0.0
 11
6969.67305712366
 21
4437.431598713263
 31
0.0
  0
LINE
  5
19766
330
747D
100
AcDbEntity
  8
細線
100
AcDbLine
 10
7043.673057123661
 20
4414.431598713262
 30
0.0
 11
7043.673057123661
 21
4437.431598713263
 31
0.0
  0
LINE
  5
19767
330
747D
100
AcDbEntity
  8
細線
100
AcDbLine
 10
6895.67305712366
 20
4437.431598713263
 30
0.0
 11
6895.67305712366
 21
4414.431598713262
 31
0.0
  0
LINE
  5
19768
330
747D
100
AcDbEntity
  8
部品1
 48
0.01
100
AcDbLine
 10
7059.673057123657
 20
4410.431598713262
 30
0.0
 11
7059.67305712366
 21
4441.931598713262
 31
0.0
  0
LINE
  5
19769
330
747D
100
AcDbEntity
  8
部品1
 48
0.01
100
AcDbLine
 10
6881.67305712366
 20
4408.431598713263
 30
0.0
 11
7057.673057123657
 21
4408.431598713263
 31
0.0
  0
LINE
  5
1976A
330
747D
100
AcDbEntity
  8
部品1
 48
0.01
100
AcDbLine
 10
6879.67305712366
 20
4441.931598713262
 30
0.0
 11
6879.67305712366
 21
4410.431598713262
 31
0.0
  0
LINE
  5
1976B
330
747D
100
AcDbEntity
  8
部品1
 48
0.01
100
AcDbLine
 10
7057.673057123661
 20
4443.931598713262
 30
0.0
 11
6881.67305712366
 21
4443.931598713262
 31
0.0
  0
LINE
  5
1976C
330
747D
100
AcDbEntity
  8
細線
100
AcDbLine
 10
6895.67305712366
 20
4431.431598713262
 30
0.0
 11
6969.67305712366
 21
4431.431598713262
 31
0.0
  0
LINE
  5
1976D
330
747D
100
AcDbEntity
  8
細線
100
AcDbLine
 10
6895.67305712366
 20
4425.431598713262
 30
0.0
 11
6969.67305712366
 21
4425.431598713262
 31
0.0
  0
LINE
  5
1976E
330
747D
100
AcDbEntity
  8
細線
100
AcDbLine
 10
6895.673057123656
 20
4419.431598713262
 30
0.0
 11
6969.67305712366
 21
4419.431598713262
 31
0.0
  0
LINE
  5
1976F
330
747D
100
AcDbEntity
  8
細線
100
AcDbLine
 10
6895.67305712366
 20
4431.431598713262
 30
0.0
 11
6964.67305712366
 21
4431.431598713262
 31
0.0
  0
LINE
  5
19770
330
747D
100
AcDbEntity
  8
細線
100
AcDbLine
 10
7043.673057123656
 20
4431.431598713262
 30
0.0
 11
6969.67305712366
 21
4431.431598713262
 31
0.0
  0
LINE
  5
19771
330
747D
100
AcDbEntity
  8
細線
100
AcDbLine
 10
7043.673057123656
 20
4419.431598713262
 30
0.0
 11
6969.67305712366
 21
4419.431598713262
 31
0.0
  0
LINE
  5
19772
330
747D
100
AcDbEntity
  8
細線
100
AcDbLine
 10
7043.673057123656
 20
4425.431598713262
 30
0.0
 11
6969.67305712366
 21
4425.431598713262
 31
0.0
  0
LINE
  5
19773
330
747D
100
AcDbEntity
  8
細線
100
AcDbLine
 10
6969.67305712366
 20
4437.431598713263
 30
0.0
 11
6969.673057123657
 21
4414.431598713262
 31
0.0
  0
LINE
  5
19774
330
747D
100
AcDbEntity
  8
細線
100
AcDbLine
 10
7779.673057123656
 20
4437.431598713263
 30
0.0
 11
7779.673057123661
 21
4414.431598713262
 31
0.0
  0
LINE
  5
19775
330
747D
100
AcDbEntity
  8
細線
100
AcDbLine
 10
7705.67305712366
 20
4425.431598713262
 30
0.0
 11
7779.673057123656
 21
4425.431598713262
 31
0.0
  0
LINE
  5
19776
330
747D
100
AcDbEntity
  8
細線
100
AcDbLine
 10
7705.67305712366
 20
4419.431598713262
 30
0.0
 11
7779.673057123656
 21
4419.431598713262
 31
0.0
  0
LINE
  5
19777
330
747D
100
AcDbEntity
  8
細線
100
AcDbLine
 10
7705.67305712366
 20
4431.431598713262
 30
0.0
 11
7779.673057123656
 21
4431.431598713262
 31
0.0
  0
LINE
  5
19778
330
747D
100
AcDbEntity
  8
細線
100
AcDbLine
 10
7853.673057123657
 20
4431.431598713262
 30
0.0
 11
7784.673057123656
 21
4431.431598713262
 31
0.0
  0
LINE
  5
19779
330
747D
100
AcDbEntity
  8
細線
100
AcDbLine
 10
7853.673057123661
 20
4419.431598713262
 30
0.0
 11
7779.673057123656
 21
4419.431598713262
 31
0.0
  0
LINE
  5
1977A
330
747D
100
AcDbEntity
  8
細線
100
AcDbLine
 10
7853.673057123657
 20
4425.431598713262
 30
0.0
 11
7779.673057123656
 21
4425.431598713262
 31
0.0
  0
LINE
  5
1977B
330
747D
100
AcDbEntity
  8
細線
100
AcDbLine
 10
7853.673057123657
 20
4431.431598713262
 30
0.0
 11
7779.673057123656
 21
4431.431598713262
 31
0.0
  0
LINE
  5
1977C
330
747D
100
AcDbEntity
  8
部品1
 48
0.01
100
AcDbLine
 10
7691.673057123657
 20
4443.931598713262
 30
0.0
 11
7867.673057123657
 21
4443.931598713262
 31
0.0
  0
LINE
  5
1977D
330
747D
100
AcDbEntity
  8
部品1
 48
0.01
100
AcDbLine
 10
7869.673057123657
 20
4441.931598713262
 30
0.0
 11
7869.673057123657
 21
4410.431598713262
 31
0.0
  0
LINE
  5
1977E
330
747D
100
AcDbEntity
  8
部品1
 48
0.01
100
AcDbLine
 10
7867.673057123657
 20
4408.431598713263
 30
0.0
 11
7691.67305712366
 21
4408.431598713263
 31
0.0
  0
LINE
  5
1977F
330
747D
100
AcDbEntity
  8
部品1
 48
0.01
100
AcDbLine
 10
7689.67305712366
 20
4410.431598713262
 30
0.0
 11
7689.673057123657
 21
4441.931598713262
 31
0.0
  0
LINE
  5
19780
330
747D
100
AcDbEntity
  8
細線
100
AcDbLine
 10
7853.673057123657
 20
4437.431598713263
 30
0.0
 11
7853.673057123657
 21
4414.431598713262
 31
0.0
  0
LINE
  5
19781
330
747D
100
AcDbEntity
  8
細線
100
AcDbLine
 10
7705.673057123657
 20
4414.431598713262
 30
0.0
 11
7705.673057123657
 21
4437.431598713263
 31
0.0
  0
LINE
  5
19782
330
747D
100
AcDbEntity
  8
細線
100
AcDbLine
 10
7705.673057123657
 20
4437.431598713263
 30
0.0
 11
7779.673057123656
 21
4437.431598713263
 31
0.0
  0
LINE
  5
19783
330
747D
100
AcDbEntity
  8
細線
100
AcDbLine
 10
7853.673057123657
 20
4414.431598713262
 30
0.0
 11
7779.673057123656
 21
4414.431598713262
 31
0.0
  0
LINE
  5
19784
330
747D
100
AcDbEntity
  8
細線
100
AcDbLine
 10
7779.673057123656
 20
4437.431598713263
 30
0.0
 11
7853.673057123657
 21
4437.431598713263
 31
0.0
  0
LINE
  5
19785
330
747D
100
AcDbEntity
  8
細線
100
AcDbLine
 10
7779.673057123661
 20
4414.431598713262
 30
0.0
 11
7705.673057123657
 21
4414.431598713262
 31
0.0
  0
ARC
  5
19786
330
747D
100
AcDbEntity
  8
部品1
 48
0.01
100
AcDbCircle
 10
7867.673057123657
 20
4441.931598713262
 30
0.0
 40
2.0
100
AcDbArc
 50
0.0
 51
90.0
  0
ARC
  5
19787
330
747D
100
AcDbEntity
  8
部品1
 48
0.01
100
AcDbCircle
 10
7867.673057123657
 20
4410.431598713262
 30
0.0
 40
2.0
100
AcDbArc
 50
270.0
 51
0.0
  0
ARC
  5
19788
330
747D
100
AcDbEntity
  8
部品1
 48
0.01
100
AcDbCircle
 10
7691.673057123657
 20
4441.931598713262
 30
0.0
 40
2.0
100
AcDbArc
 50
90.0
 51
180.0
  0
ARC
  5
19789
330
747D
100
AcDbEntity
  8
部品1
 48
0.01
100
AcDbCircle
 10
7691.67305712366
 20
4410.431598713262
 30
0.0
 40
2.0
100
AcDbArc
 50
180.0
 51
270.0
  0
LINE
  5
197B5
330
747D
100
AcDbEntity
  8
部品1
 48
50.0
100
AcDbLine
 10
4679.673057123658
 20
4471.931598713265
 30
0.0
 11
4679.673057123657
 21
4612.931598713265
 31
0.0
  0
LINE
  5
197B6
330
747D
100
AcDbEntity
  8
部品1
 48
50.0
100
AcDbLine
 10
4689.673057123658
 20
4212.931598713261
 30
0.0
 11
4689.673057123658
 21
4471.931598713265
 31
0.0
  0
LINE
  5
197E3
330
747D
100
AcDbEntity
  8
部品1
 48
50.0
100
AcDbLine
 10
6479.673057123659
 20
4212.931598713261
 30
0.0
 11
6479.673057123658
 21
4471.931598713266
 31
0.0
  0
LINE
  5
197E4
330
747D
100
AcDbEntity
  8
部品1
 48
50.0
100
AcDbLine
 10
6469.673057123658
 20
4471.931598713266
 30
0.0
 11
6469.673057123657
 21
4612.931598713266
 31
0.0
  0
LINE
  5
197F8
330
747D
100
AcDbEntity
  8
部品1
 48
50.0
100
AcDbLine
 10
8312.264636017228
 20
4612.931598713263
 30
0.0
 11
2857.081478230088
 21
4612.931598713268
 31
0.0
  0
LINE
  5
197F9
330
747D
100
AcDbEntity
  8
細線
 48
50.0
100
AcDbLine
 10
8317.633518902223
 20
4584.93159871327
 30
0.0
 11
2851.712595345096
 21
4584.931598713264
 31
0.0
  0
LINE
  5
197FA
330
747D
100
AcDbEntity
  8
細線
 48
50.0
100
AcDbLine
 10
8309.397488377339
 20
4492.731598713255
 30
0.0
 11
2859.948625869926
 21
4492.731598713268
 31
0.0
  0
LINE
  5
197FB
330
747D
100
AcDbEntity
  8
部品1
 48
50.0
100
AcDbLine
 10
8299.049312556194
 20
4471.931598713269
 30
0.0
 11
2870.296801691118
 21
4471.931598713268
 31
0.0
  0
DIMENSION
  5
19C69
330
747D
100
AcDbEntity
  8
寸法
 48
50.0
100
AcDbDimension
  2
*D37
 10
2899.673057123656
 20
5018.657870445171
 30
0.0
 11
5584.673057123659
 21
5118.657870445171
 31
0.0
 70
    32
  1
柱外寸法 N X 1790
 71
     5
 42
5370.000000000004
  3
INABA_S40G
100
AcDbAlignedDimension
 13
8269.673057123659
 23
4612.931598713269
 33
0.0
 14
2899.673057123656
 24
4612.931598713267
 34
0.0
100
AcDbRotatedDimension
  0
DIMENSION
  5
19C6A
330
747D
100
AcDbEntity
  8
寸法
 48
50.0
100
AcDbDimension
  2
*D38
 10
8319.673057123656
 20
5218.566791659261
 30
0.0
 11
5584.673057123657
 21
5218.566791659261
 31
0.0
 70
   160
  1
N X 1790+100
 71
     5
 42
5470.000000000001
  3
INABA_S40G
100
AcDbAlignedDimension
 13
2849.673057123656
 23
4612.931598713267
 33
0.0
 14
8319.673057123656
 24
4612.931598713266
 34
0.0
100
AcDbRotatedDimension
  0
DIMENSION
  5
19F27
330
747D
100
AcDbEntity
  8
寸法
 48
50.0
100
AcDbDimension
  2
*D39
 10
8557.216159445404
 20
4377.931598713261
 30
0.0
 11
8557.216159445403
 21
4616.4168800875
 31
0.0
 70
   160
 71
     5
 42
164.9999999999991
  3
INABA_S40G
100
AcDbAlignedDimension
 13
8269.673057123657
 23
4212.931598713262
 33
0.0
 14
8269.673057123657
 24
4377.931598713261
 34
0.0
 50
90.0
100
AcDbRotatedDimension
1001
ACAD
1000
DSTYLE
1002
{
1002
}
  0
DIMENSION
  5
19F28
330
747D
100
AcDbEntity
  8
寸法
 48
50.0
100
AcDbDimension
  2
*D40
 10
8557.216159445403
 20
4212.931598713262
 30
0.0
 11
8697.385982691768
 21
4213.898798552921
 31
0.0
 70
   160
 71
     5
 42
27.00000000000091
  3
INABA_S40G
100
AcDbAlignedDimension
 13
8269.673057123657
 23
4185.931598713261
 33
0.0
 14
8269.673057123657
 24
4212.931598713262
 34
0.0
 50
90.0
100
AcDbRotatedDimension
1001
ACAD
1000
DSTYLE
1002
{
1070
   279
1070
     2
1002
}
  0
DIMENSION
  5
19F29
330
747D
100
AcDbEntity
  8
寸法
 48
50.0
100
AcDbDimension
  2
*D41
 10
8557.216159445403
 20
4185.931598713261
 30
0.0
 11
8457.216159445401
 21
3361.931598713263
 31
0.0
 70
    32
  1
有効開口部高サ <>
 71
     5
 42
1648.0
  3
INABA_S40G
100
AcDbAlignedDimension
 13
8269.673057123657
 23
2537.931598713262
 33
0.0
 14
8269.673057123657
 24
4185.931598713261
 34
0.0
 50
90.0
100
AcDbRotatedDimension
  0
TEXT
  5
1A166
330
747D
100
AcDbEntity
  8
文字
 62
     7
 48
50.0
100
AcDbText
 10
15022.63965474516
 20
9060.013745883727
 30
0.0
 40
100.0
  1
F12            0.7
  7
STYLE1
100
AcDbText
  0
TEXT
  5
1A16C
330
747D
100
AcDbEntity
  8
文字
 62
     7
 48
50.0
100
AcDbText
 10
15022.63965474517
 20
10760.01374588372
 30
0.0
 40
100.0
  1
F12         1.0,1.2
  7
STYLE1
100
AcDbText
  0
LINE
  5
1A170
330
747D
100
AcDbEntity
  8
破線
 48
5.0
100
AcDbLine
 10
4689.673057123656
 20
2262.931598713262
 30
0.0
 11
4689.673057123656
 21
2187.931598713262
 31
0.0
  0
LINE
  5
1A171
330
747D
100
AcDbEntity
  8
破線
 48
5.0
100
AcDbLine
 10
4639.673057123657
 20
2187.931598713262
 30
0.0
 11
4739.673057123656
 21
2187.931598713262
 31
0.0
  0
LINE
  5
1A172
330
747D
100
AcDbEntity
  8
破線
 48
5.0
100
AcDbLine
 10
6429.673057123657
 20
2187.931598713261
 30
0.0
 11
6529.673057123656
 21
2187.931598713261
 31
0.0
  0
LINE
  5
1A173
330
747D
100
AcDbEntity
  8
破線
 48
5.0
100
AcDbLine
 10
6479.673057123656
 20
2262.931598713262
 30
0.0
 11
6479.673057123656
 21
2187.931598713261
 31
0.0
  0
LINE
  5
1A18E
330
747D
100
AcDbEntity
  8
部品1
100
AcDbLine
 10
5597.173057123664
 20
10096.52987234389
 30
0.0
 11
6451.673057123631
 21
10096.52987234395
 31
0.0
  0
LINE
  5
1A190
330
747D
100
AcDbEntity
  8
部品1
 48
50.0
100
AcDbLine
 10
4756.673057123655
 20
7540.029872343764
 30
0.0
 11
6412.67305712364
 21
7540.029872343764
 31
0.0
  0
ARC
  5
1A191
330
747D
100
AcDbEntity
  8
部品1
 48
0.01
100
AcDbCircle
 10
5901.673057123661
 20
4410.431598713262
 30
0.0
 40
2.0
100
AcDbArc
 50
180.0
 51
270.0
  0
ARC
  5
1A192
330
747D
100
AcDbEntity
  8
部品1
 48
0.01
100
AcDbCircle
 10
5901.673057123656
 20
4441.931598713261
 30
0.0
 40
2.0
100
AcDbArc
 50
90.0
 51
180.0
  0
ARC
  5
1A193
330
747D
100
AcDbEntity
  8
部品1
 48
0.01
100
AcDbCircle
 10
6077.673057123657
 20
4410.431598713262
 30
0.0
 40
2.0
100
AcDbArc
 50
270.0
 51
0.0
  0
ARC
  5
1A194
330
747D
100
AcDbEntity
  8
部品1
 48
0.01
100
AcDbCircle
 10
6077.673057123657
 20
4441.931598713261
 30
0.0
 40
2.0
100
AcDbArc
 50
0.0
 51
90.0
  0
LINE
  5
1A195
330
747D
100
AcDbEntity
  8
細線
100
AcDbLine
 10
5989.67305712366
 20
4414.431598713261
 30
0.0
 11
5915.673057123656
 21
4414.431598713261
 31
0.0
  0
LINE
  5
1A196
330
747D
100
AcDbEntity
  8
細線
100
AcDbLine
 10
5989.673057123656
 20
4437.431598713261
 30
0.0
 11
6063.673057123657
 21
4437.431598713261
 31
0.0
  0
LINE
  5
1A197
330
747D
100
AcDbEntity
  8
細線
100
AcDbLine
 10
6063.673057123657
 20
4414.431598713261
 30
0.0
 11
5989.673057123656
 21
4414.431598713261
 31
0.0
  0
LINE
  5
1A198
330
747D
100
AcDbEntity
  8
細線
100
AcDbLine
 10
5915.673057123656
 20
4437.431598713261
 30
0.0
 11
5989.673057123656
 21
4437.431598713261
 31
0.0
  0
LINE
  5
1A199
330
747D
100
AcDbEntity
  8
細線
100
AcDbLine
 10
5915.673057123656
 20
4414.431598713261
 30
0.0
 11
5915.673057123656
 21
4437.431598713261
 31
0.0
  0
LINE
  5
1A19A
330
747D
100
AcDbEntity
  8
細線
100
AcDbLine
 10
6063.673057123657
 20
4437.431598713261
 30
0.0
 11
6063.673057123657
 21
4414.431598713261
 31
0.0
  0
LINE
  5
1A19B
330
747D
100
AcDbEntity
  8
部品1
 48
0.01
100
AcDbLine
 10
5899.67305712366
 20
4410.431598713262
 30
0.0
 11
5899.673057123656
 21
4441.931598713261
 31
0.0
  0
LINE
  5
1A19C
330
747D
100
AcDbEntity
  8
部品1
 48
0.01
100
AcDbLine
 10
6077.673057123657
 20
4408.431598713261
 30
0.0
 11
5901.673057123661
 21
4408.431598713261
 31
0.0
  0
LINE
  5
1A19D
330
747D
100
AcDbEntity
  8
部品1
 48
0.01
100
AcDbLine
 10
6079.673057123656
 20
4441.931598713261
 30
0.0
 11
6079.673057123656
 21
4410.431598713262
 31
0.0
  0
LINE
  5
1A19E
330
747D
100
AcDbEntity
  8
部品1
 48
0.01
100
AcDbLine
 10
5901.673057123656
 20
4443.931598713262
 30
0.0
 11
6077.673057123657
 21
4443.931598713262
 31
0.0
  0
LINE
  5
1A19F
330
747D
100
AcDbEntity
  8
細線
100
AcDbLine
 10
6063.673057123657
 20
4431.431598713261
 30
0.0
 11
5989.673057123656
 21
4431.431598713261
 31
0.0
  0
LINE
  5
1A1A0
330
747D
100
AcDbEntity
  8
細線
100
AcDbLine
 10
6063.673057123657
 20
4425.431598713261
 30
0.0
 11
5989.673057123656
 21
4425.431598713261
 31
0.0
  0
LINE
  5
1A1A1
330
747D
100
AcDbEntity
  8
細線
100
AcDbLine
 10
6063.673057123661
 20
4419.431598713261
 30
0.0
 11
5989.673057123656
 21
4419.431598713261
 31
0.0
  0
LINE
  5
1A1A2
330
747D
100
AcDbEntity
  8
細線
100
AcDbLine
 10
6063.673057123657
 20
4431.431598713261
 30
0.0
 11
5994.673057123657
 21
4431.431598713261
 31
0.0
  0
LINE
  5
1A1A3
330
747D
100
AcDbEntity
  8
細線
100
AcDbLine
 10
5915.673057123661
 20
4431.431598713261
 30
0.0
 11
5989.673057123656
 21
4431.431598713261
 31
0.0
  0
LINE
  5
1A1A4
330
747D
100
AcDbEntity
  8
細線
100
AcDbLine
 10
5915.673057123661
 20
4419.431598713261
 30
0.0
 11
5989.673057123656
 21
4419.431598713261
 31
0.0
  0
LINE
  5
1A1A5
330
747D
100
AcDbEntity
  8
細線
100
AcDbLine
 10
5915.673057123661
 20
4425.431598713261
 30
0.0
 11
5989.673057123656
 21
4425.431598713261
 31
0.0
  0
LINE
  5
1A1A6
330
747D
100
AcDbEntity
  8
細線
100
AcDbLine
 10
5989.673057123656
 20
4437.431598713261
 30
0.0
 11
5989.67305712366
 21
4414.431598713261
 31
0.0
  0
LINE
  5
1A1A7
330
747D
100
AcDbEntity
  8
細線
100
AcDbLine
 10
5179.67305712366
 20
4437.431598713261
 30
0.0
 11
5179.673057123657
 21
4414.431598713261
 31
0.0
  0
LINE
  5
1A1A8
330
747D
100
AcDbEntity
  8
細線
100
AcDbLine
 10
5253.673057123656
 20
4425.431598713261
 30
0.0
 11
5179.67305712366
 21
4425.431598713261
 31
0.0
  0
LINE
  5
1A1A9
330
747D
100
AcDbEntity
  8
細線
100
AcDbLine
 10
5253.673057123656
 20
4419.431598713261
 30
0.0
 11
5179.67305712366
 21
4419.431598713261
 31
0.0
  0
LINE
  5
1A1AA
330
747D
100
AcDbEntity
  8
細線
100
AcDbLine
 10
5253.673057123656
 20
4431.431598713261
 30
0.0
 11
5179.67305712366
 21
4431.431598713261
 31
0.0
  0
LINE
  5
1A1AB
330
747D
100
AcDbEntity
  8
細線
100
AcDbLine
 10
5105.67305712366
 20
4431.431598713261
 30
0.0
 11
5174.67305712366
 21
4431.431598713261
 31
0.0
  0
LINE
  5
1A1AC
330
747D
100
AcDbEntity
  8
細線
100
AcDbLine
 10
5105.673057123657
 20
4419.431598713261
 30
0.0
 11
5179.67305712366
 21
4419.431598713261
 31
0.0
  0
LINE
  5
1A1AD
330
747D
100
AcDbEntity
  8
細線
100
AcDbLine
 10
5105.67305712366
 20
4425.431598713261
 30
0.0
 11
5179.67305712366
 21
4425.431598713261
 31
0.0
  0
LINE
  5
1A1AE
330
747D
100
AcDbEntity
  8
細線
100
AcDbLine
 10
5105.67305712366
 20
4431.431598713261
 30
0.0
 11
5179.67305712366
 21
4431.431598713261
 31
0.0
  0
LINE
  5
1A1AF
330
747D
100
AcDbEntity
  8
部品1
 48
0.01
100
AcDbLine
 10
5267.67305712366
 20
4443.931598713262
 30
0.0
 11
5091.67305712366
 21
4443.931598713262
 31
0.0
  0
LINE
  5
1A1B0
330
747D
100
AcDbEntity
  8
部品1
 48
0.01
100
AcDbLine
 10
5089.67305712366
 20
4441.931598713261
 30
0.0
 11
5089.67305712366
 21
4410.431598713262
 31
0.0
  0
LINE
  5
1A1B1
330
747D
100
AcDbEntity
  8
部品1
 48
0.01
100
AcDbLine
 10
5091.67305712366
 20
4408.431598713261
 30
0.0
 11
5267.673057123657
 21
4408.431598713261
 31
0.0
  0
LINE
  5
1A1B2
330
747D
100
AcDbEntity
  8
部品1
 48
0.01
100
AcDbLine
 10
5269.673057123657
 20
4410.431598713262
 30
0.0
 11
5269.673057123661
 21
4441.931598713261
 31
0.0
  0
LINE
  5
1A1B3
330
747D
100
AcDbEntity
  8
細線
100
AcDbLine
 10
5105.67305712366
 20
4437.431598713261
 30
0.0
 11
5105.67305712366
 21
4414.431598713261
 31
0.0
  0
LINE
  5
1A1B4
330
747D
100
AcDbEntity
  8
細線
100
AcDbLine
 10
5253.67305712366
 20
4414.431598713261
 30
0.0
 11
5253.67305712366
 21
4437.431598713261
 31
0.0
  0
LINE
  5
1A1B5
330
747D
100
AcDbEntity
  8
細線
100
AcDbLine
 10
5253.67305712366
 20
4437.431598713261
 30
0.0
 11
5179.67305712366
 21
4437.431598713261
 31
0.0
  0
LINE
  5
1A1B6
330
747D
100
AcDbEntity
  8
細線
100
AcDbLine
 10
5105.67305712366
 20
4414.431598713261
 30
0.0
 11
5179.67305712366
 21
4414.431598713261
 31
0.0
  0
LINE
  5
1A1B7
330
747D
100
AcDbEntity
  8
細線
100
AcDbLine
 10
5179.67305712366
 20
4437.431598713261
 30
0.0
 11
5105.67305712366
 21
4437.431598713261
 31
0.0
  0
LINE
  5
1A1B8
330
747D
100
AcDbEntity
  8
細線
100
AcDbLine
 10
5179.673057123657
 20
4414.431598713261
 30
0.0
 11
5253.67305712366
 21
4414.431598713261
 31
0.0
  0
ARC
  5
1A1B9
330
747D
100
AcDbEntity
  8
部品1
 48
0.01
100
AcDbCircle
 10
5091.67305712366
 20
4441.931598713261
 30
0.0
 40
2.0
100
AcDbArc
 50
90.0
 51
180.0
  0
ARC
  5
1A1BA
330
747D
100
AcDbEntity
  8
部品1
 48
0.01
100
AcDbCircle
 10
5091.67305712366
 20
4410.431598713262
 30
0.0
 40
2.0
100
AcDbArc
 50
180.0
 51
270.0
  0
ARC
  5
1A1BB
330
747D
100
AcDbEntity
  8
部品1
 48
0.01
100
AcDbCircle
 10
5267.67305712366
 20
4441.931598713261
 30
0.0
 40
2.0
100
AcDbArc
 50
0.0
 51
90.0
  0
ARC
  5
1A1BC
330
747D
100
AcDbEntity
  8
部品1
 48
0.01
100
AcDbCircle
 10
5267.673057123657
 20
4410.431598713262
 30
0.0
 40
2.0
100
AcDbArc
 50
270.0
 51
0.0
  0
CIRCLE
  5
1A1BD
330
747D
100
AcDbEntity
  8
細線
 48
50.0
100
AcDbCircle
 10
5584.673057123652
 20
3425.431598713262
 30
0.0
 40
18.0
  0
ARC
  5
1A1BE
330
747D
100
AcDbEntity
  8
細線
 48
50.0
100
AcDbCircle
 10
5884.673057123651
 20
3100.431598713262
 30
0.0
 40
15.0
100
AcDbArc
 50
270.0
 51
90.0
  0
ARC
  5
1A1BF
330
747D
100
AcDbEntity
  8
細線
 48
50.0
100
AcDbCircle
 10
5784.673057123651
 20
3100.431598713262
 30
0.0
 40
15.0
100
AcDbArc
 50
90.0
 51
270.0
  0
LINE
  5
1A1C0
330
747D
100
AcDbEntity
  8
細線
 48
50.0
100
AcDbLine
 10
5784.673057123651
 20
3115.431598713261
 30
0.0
 11
5884.673057123651
 21
3115.431598713261
 31
0.0
  0
LINE
  5
1A1C1
330
747D
100
AcDbEntity
  8
細線
 48
50.0
100
AcDbLine
 10
5884.673057123651
 20
3085.431598713262
 30
0.0
 11
5784.673057123651
 21
3085.431598713262
 31
0.0
  0
LINE
  5
1A1C2
330
747D
100
AcDbEntity
  8
細線
 48
50.0
100
AcDbLine
 10
5384.673057123651
 20
3085.431598713262
 30
0.0
 11
5284.673057123651
 21
3085.431598713262
 31
0.0
  0
LINE
  5
1A1C3
330
747D
100
AcDbEntity
  8
細線
 48
50.0
100
AcDbLine
 10
5284.673057123651
 20
3115.431598713261
 30
0.0
 11
5384.673057123651
 21
3115.431598713261
 31
0.0
  0
ARC
  5
1A1C4
330
747D
100
AcDbEntity
  8
細線
 48
50.0
100
AcDbCircle
 10
5384.673057123651
 20
3100.431598713262
 30
0.0
 40
15.0
100
AcDbArc
 50
270.0
 51
90.0
  0
ARC
  5
1A1C5
330
747D
100
AcDbEntity
  8
細線
 48
50.0
100
AcDbCircle
 10
5284.673057123651
 20
3100.431598713262
 30
0.0
 40
15.0
100
AcDbArc
 50
90.0
 51
270.0
  0
LINE
  5
1A1C6
330
747D
100
AcDbEntity
  8
部品1
100
AcDbLine
 10
4744.673057123656
 20
4212.931598713261
 30
0.0
 11
6534.673057123656
 21
4212.93159871326
 31
0.0
  0
LINE
  5
1A1C7
330
747D
100
AcDbEntity
  8
細線
100
AcDbLine
 10
4792.673057123653
 20
3067.931598713262
 30
0.0
 11
6376.673057123655
 21
3067.931598713262
 31
0.0
  0
LINE
  5
1A1C8
330
747D
100
AcDbEntity
  8
細線
100
AcDbLine
 10
4792.673057123653
 20
3002.931598713262
 30
0.0
 11
6376.673057123655
 21
3002.931598713262
 31
0.0
  0
LINE
  5
1A1C9
330
747D
100
AcDbEntity
  8
細線
100
AcDbLine
 10
4792.673057123653
 20
2937.931598713262
 30
0.0
 11
6376.673057123655
 21
2937.931598713262
 31
0.0
  0
LINE
  5
1A1CA
330
747D
100
AcDbEntity
  8
細線
100
AcDbLine
 10
4792.673057123653
 20
2872.931598713262
 30
0.0
 11
6376.673057123655
 21
2872.931598713262
 31
0.0
  0
LINE
  5
1A1CB
330
747D
100
AcDbEntity
  8
細線
100
AcDbLine
 10
4792.673057123653
 20
2807.931598713262
 30
0.0
 11
6376.673057123655
 21
2807.931598713262
 31
0.0
  0
LINE
  5
1A1CC
330
747D
100
AcDbEntity
  8
細線
100
AcDbLine
 10
4792.673057123653
 20
2742.931598713262
 30
0.0
 11
6376.673057123655
 21
2742.931598713262
 31
0.0
  0
LINE
  5
1A1CD
330
747D
100
AcDbEntity
  8
細線
100
AcDbLine
 10
4792.673057123653
 20
2677.931598713262
 30
0.0
 11
6376.673057123655
 21
2677.931598713262
 31
0.0
  0
LINE
  5
1A1CE
330
747D
100
AcDbEntity
  8
細線
100
AcDbLine
 10
4792.673057123653
 20
2612.931598713262
 30
0.0
 11
6376.673057123655
 21
2612.931598713262
 31
0.0
  0
LINE
  5
1A1CF
330
747D
100
AcDbEntity
  8
細線
100
AcDbLine
 10
4792.673057123653
 20
3717.931598713262
 30
0.0
 11
6376.673057123655
 21
3717.931598713262
 31
0.0
  0
LINE
  5
1A1D0
330
747D
100
AcDbEntity
  8
細線
100
AcDbLine
 10
4792.673057123653
 20
3652.931598713262
 30
0.0
 11
6376.673057123655
 21
3652.931598713262
 31
0.0
  0
LINE
  5
1A1D1
330
747D
100
AcDbEntity
  8
細線
100
AcDbLine
 10
4792.673057123653
 20
3587.931598713262
 30
0.0
 11
6376.673057123655
 21
3587.931598713262
 31
0.0
  0
LINE
  5
1A1D2
330
747D
100
AcDbEntity
  8
細線
100
AcDbLine
 10
4792.673057123653
 20
3522.931598713262
 30
0.0
 11
6376.673057123655
 21
3522.931598713262
 31
0.0
  0
LINE
  5
1A1D3
330
747D
100
AcDbEntity
  8
細線
100
AcDbLine
 10
4792.673057123653
 20
3457.931598713262
 30
0.0
 11
6376.673057123655
 21
3457.931598713262
 31
0.0
  0
LINE
  5
1A1D4
330
747D
100
AcDbEntity
  8
細線
100
AcDbLine
 10
4792.673057123653
 20
3392.931598713262
 30
0.0
 11
6376.673057123655
 21
3392.931598713262
 31
0.0
  0
LINE
  5
1A1D5
330
747D
100
AcDbEntity
  8
細線
100
AcDbLine
 10
4792.673057123653
 20
3327.931598713262
 30
0.0
 11
6376.673057123655
 21
3327.931598713262
 31
0.0
  0
LINE
  5
1A1D6
330
747D
100
AcDbEntity
  8
細線
100
AcDbLine
 10
4792.673057123653
 20
3262.931598713262
 30
0.0
 11
6376.673057123655
 21
3262.931598713262
 31
0.0
  0
LINE
  5
1A1D7
330
747D
100
AcDbEntity
  8
細線
100
AcDbLine
 10
4792.673057123653
 20
3197.931598713262
 30
0.0
 11
6376.673057123655
 21
3197.931598713262
 31
0.0
  0
LINE
  5
1A1D8
330
747D
100
AcDbEntity
  8
細線
100
AcDbLine
 10
4792.673057123653
 20
3132.931598713262
 30
0.0
 11
6376.673057123655
 21
3132.931598713262
 31
0.0
  0
LINE
  5
1A1D9
330
747D
100
AcDbEntity
  8
細線
100
AcDbLine
 10
4792.673057123653
 20
4107.931598713261
 30
0.0
 11
6376.673057123655
 21
4107.931598713261
 31
0.0
  0
LINE
  5
1A1DA
330
747D
100
AcDbEntity
  8
細線
100
AcDbLine
 10
4792.673057123653
 20
4042.931598713262
 30
0.0
 11
6376.673057123655
 21
4042.931598713262
 31
0.0
  0
LINE
  5
1A1DB
330
747D
100
AcDbEntity
  8
細線
100
AcDbLine
 10
4792.673057123653
 20
3977.931598713262
 30
0.0
 11
6376.673057123655
 21
3977.931598713262
 31
0.0
  0
LINE
  5
1A1DC
330
747D
100
AcDbEntity
  8
細線
100
AcDbLine
 10
4792.673057123653
 20
3912.931598713262
 30
0.0
 11
6376.673057123655
 21
3912.931598713262
 31
0.0
  0
LINE
  5
1A1DD
330
747D
100
AcDbEntity
  8
細線
100
AcDbLine
 10
4792.673057123653
 20
3847.931598713262
 30
0.0
 11
6376.673057123655
 21
3847.931598713262
 31
0.0
  0
LINE
  5
1A1DE
330
747D
100
AcDbEntity
  8
細線
100
AcDbLine
 10
4792.673057123653
 20
3782.931598713262
 30
0.0
 11
6376.673057123655
 21
3782.931598713262
 31
0.0
  0
LINE
  5
1A1DF
330
747D
100
AcDbEntity
  8
細線
100
AcDbLine
 10
4792.673057123653
 20
4172.931598713261
 30
0.0
 11
6376.673057123655
 21
4172.931598713261
 31
0.0
  0
LINE
  5
1A1E0
330
747D
100
AcDbEntity
  8
細線
100
AcDbLine
 10
6376.673057123657
 20
2547.931598713262
 30
0.0
 11
4792.673057123651
 21
2547.931598713262
 31
0.0
  0
LINE
  5
1A1E7
330
747D
100
AcDbEntity
  8
部品1
 48
50.0
100
AcDbLine
 10
5631.205796679214
 20
10256.69242058057
 30
0.0
 11
5538.140317568113
 21
9909.367324107206
 31
0.0
  0
SPLINE
  5
1A1E8
330
747D
100
AcDbEntity
  8
部品1
 48
50.0
100
AcDbSpline
210
0.0
220
0.0
230
1.0
 70
     8
 71
     3
 72
    10
 73
     6
 74
     4
 42
0.0000000001
 43
0.0000000001
 44
0.0000000001
 40
0.0
 40
0.0
 40
0.0
 40
0.0
 40
147.8767566010009
 40
301.8091093202477
 40
466.5049223087716
 40
466.5049223087716
 40
466.5049223087716
 40
466.5049223087716
 10
5652.243384856713
 20
10164.27102486968
 30
0.0
 10
5575.361702361878
 20
10155.36659121184
 30
0.0
 10
5418.450010151751
 20
10137.19308475251
 30
0.0
 10
5741.263420096095
 20
10034.67250011317
 30
0.0
 10
5571.420800426721
 20
10016.03741140096
 30
0.0
 10
5483.630795219829
 20
10006.40511452365
 30
0.0
 11
5652.243384856713
 21
10164.27102486968
 31
0.0
 11
5509.405406547944
 21
10125.99770393335
 31
0.0
 11
5642.714734467118
 21
10049.03152757373
 31
0.0
 11
5483.630795219829
 21
10006.40511452365
 31
0.0
  0
LINE
  5
1A1EF
330
747D
100
AcDbEntity
  8
部品1
 48
50.0
100
AcDbLine
 10
5631.205796679198
 20
7713.692420580447
 30
0.0
 11
5538.140317568097
 21
7366.367324107082
 31
0.0
  0
SPLINE
  5
1A1F0
330
747D
100
AcDbEntity
  8
部品1
 48
50.0
100
AcDbSpline
210
0.0
220
0.0
230
1.0
 70
     8
 71
     3
 72
    10
 73
     6
 74
     4
 42
0.0000000001
 43
0.0000000001
 44
0.0000000001
 40
0.0
 40
0.0
 40
0.0
 40
0.0
 40
147.8767566010009
 40
301.8091093202477
 40
466.5049223087716
 40
466.5049223087716
 40
466.5049223087716
 40
466.5049223087716
 10
5652.243384856698
 20
7621.271024869558
 30
0.0
 10
5575.361702361863
 20
7612.366591211719
 30
0.0
 10
5418.450010151735
 20
7594.193084752387
 30
0.0
 10
5741.263420096079
 20
7491.672500113047
 30
0.0
 10
5571.420800426705
 20
7473.037411400842
 30
0.0
 10
5483.630795219813
 20
7463.405114523533
 30
0.0
 11
5652.243384856698
 21
7621.271024869558
 31
0.0
 11
5509.405406547928
 21
7582.99770393323
 31
0.0
 11
5642.714734467102
 21
7506.031527573608
 31
0.0
 11
5483.630795219813
 21
7463.405114523533
 31
0.0
  0
SPLINE
  5
1A1F7
330
747D
100
AcDbEntity
  8
部品1
 48
50.0
100
AcDbSpline
210
0.0
220
0.0
230
1.0
 70
     8
 71
     3
 72
    10
 73
     6
 74
     4
 42
0.0000000001
 43
0.0000000001
 44
0.0000000001
 40
0.0
 40
0.0
 40
0.0
 40
0.0
 40
147.8767566010009
 40
301.8091093202477
 40
466.5049223087734
 40
466.5049223087734
 40
466.5049223087734
 40
466.5049223087734
 10
5652.243384856703
 20
3506.672751239054
 30
0.0
 10
5575.361702361869
 20
3497.768317581216
 30
0.0
 10
5418.450010151741
 20
3479.594811121885
 30
0.0
 10
5741.263420096084
 20
3377.074226482542
 30
0.0
 10
5571.420800426711
 20
3358.439137770338
 30
0.0
 10
5483.630795219816
 20
3348.80684089303
 30
0.0
 11
5652.243384856703
 21
3506.672751239054
 31
0.0
 11
5509.405406547934
 21
3468.399430302726
 31
0.0
 11
5642.714734467109
 21
3391.433253943102
 31
0.0
 11
5483.630795219816
 21
3348.80684089303
 31
0.0
  0
LINE
  5
1A1F8
330
747D
100
AcDbEntity
  8
部品1
 48
50.0
100
AcDbLine
 10
5939.962621336507
 20
4751.390303754639
 30
0.0
 11
5229.383492910797
 21
2099.472893671883
 31
0.0
  0
ENDSEC
  0
SECTION
  2
OBJECTS
  0
DICTIONARY
  5
7471
330
0
100
AcDbDictionary
281
     1
  3
ACAD_COLOR
350
17AE2
  3
ACAD_GROUP
350
7472
  3
ACAD_LAYOUT
350
17AE3
  3
ACAD_MATERIAL
350
17AE1
  3
ACAD_MLINESTYLE
350
7473
  3
ACAD_PLOTSETTINGS
350
17AE4
  3
ACAD_PLOTSTYLENAME
350
17ADF
  3
ACDBHEADERROUNDTRIPXREC
350
1A25C
  3
AcDbVariableDictionary
350
1A258
  3
CONTENTDICTIONARY
350
E71C
  3
DRAWINGVARIABLESDICT
350
F3B9
  0
DICTIONARY
  5
18CBA
330
7467
100
AcDbDictionary
280
     1
281
     1
  3
ACAD_LAYERSTATES
360
18CBB
  0
DICTIONARY
  5
17AE2
102
{ACAD_REACTORS
330
7471
102
}
330
7471
100
AcDbDictionary
281
     1
  0
DICTIONARY
  5
7472
102
{ACAD_REACTORS
330
7471
102
}
330
7471
100
AcDbDictionary
281
     1
  3
*A1
350
17FA7
  3
*A2
350
180C7
  3
*A3
350
180D2
  0
DICTIONARY
  5
17AE3
102
{ACAD_REACTORS
330
7471
102
}
330
7471
100
AcDbDictionary
281
     1
  3
Model
350
17AE5
  3
レイアウト1
350
17AE6
  0
DICTIONARY
  5
17AE1
102
{ACAD_REACTORS
330
7471
102
}
330
7471
100
AcDbDictionary
281
     1
  0
DICTIONARY
  5
7473
102
{ACAD_REACTORS
330
7471
102
}
330
7471
100
AcDbDictionary
281
     1
  3
STANDARD
350
7480
  0
DICTIONARY
  5
17AE4
102
{ACAD_REACTORS
330
7471
102
}
330
7471
100
AcDbDictionary
281
     1
  0
ACDBDICTIONARYWDFLT
  5
17ADF
102
{ACAD_REACTORS
330
7471
102
}
330
7471
100
AcDbDictionary
281
     1
  3
Normal
350
17AE0
100
AcDbDictionaryWithDefault
340
17AE0
  0
DICTIONARY
  5
1A25C
102
{ACAD_REACTORS
330
7471
102
}
330
7471
100
AcDbDictionary
281
     1
  3
COLORDICT
350
1A25E
  3
MATERIALDICT
350
1A25D
  0
DICTIONARY
  5
1A258
102
{ACAD_REACTORS
330
7471
102
}
330
7471
100
AcDbDictionary
281
     1
  3
DIMASSOC
350
1A259
  3
PROJECTNAME
350
1A25A
  0
DICTIONARY
  5
E71C
102
{ACAD_REACTORS
330
7471
102
}
330
7471
100
AcDbDictionary
281
     1
  0
DICTIONARY
  5
F3B9
102
{ACAD_REACTORS
330
7471
102
}
330
7471
100
AcDbDictionary
281
     1
1001
DRAWINGVARIABLESXDATA
1000
POLARMODE
1000
1
  0
DICTIONARY
  5
18CBB
102
{ACAD_REACTORS
330
18CBA
102
}
330
18CBA
100
AcDbDictionary
281
     1
  0
GROUP
  5
17FA7
102
{ACAD_REACTORS
330
7472
102
}
330
7472
100
AcDbGroup
300

 70
     1
 71
     1
  0
GROUP
  5
180C7
102
{ACAD_REACTORS
330
7472
102
}
330
7472
100
AcDbGroup
300

 70
     1
 71
     1
  0
GROUP
  5
180D2
102
{ACAD_REACTORS
330
7472
102
}
330
7472
100
AcDbGroup
300

 70
     1
 71
     1
  0
LAYOUT
  5
17AE5
102
{ACAD_XDICTIONARY
360
1A25F
102
}
102
{ACAD_REACTORS
330
17AE3
102
}
330
17AE3
100
AcDbPlotSettings
  1

  2
Canon iR C3880/C4580 LIPSLX
  4
A3
  6

 40
5.873749732971191
 41
5.873747825622558
 42
5.873748779296875
 43
5.873748779296875
 44
296.9259948730469
 45
419.9466552734374
 46
0.0
 47
0.0
 48
0.0
 49
0.0
140
0.0
141
0.0
142
1.0
143
40.0
 70
 11952
 72
     1
 73
     1
 74
     2
  7
inaba.ctb
 75
    24
147
0.025
148
0.0
149
0.0
100
AcDbLayout
  1
Model
 70
     1
 71
     0
 10
0.0
 20
0.0
 11
12.0
 21
9.0
 12
0.0
 22
0.0
 32
0.0
 14
0.0
 24
0.0
 34
0.0
 15
0.0
 25
0.0
 35
0.0
146
0.0
 13
0.0
 23
0.0
 33
0.0
 16
1.0
 26
0.0
 36
0.0
 17
0.0
 27
1.0
 37
0.0
 76
     0
330
747D
  0
LAYOUT
  5
17AE6
102
{ACAD_XDICTIONARY
360
1A261
102
}
102
{ACAD_REACTORS
330
17AE3
102
}
330
17AE3
100
AcDbPlotSettings
  1

  2
EPSON LP-8300
  4

  6

 40
0.0
 41
0.0
 42
0.0
 43
0.0
 44
0.0
 45
0.0
 46
0.0
 47
0.0
 48
0.0
 49
0.0
140
0.0
141
0.0
142
1.0
143
1.0
 70
   688
 72
     0
 73
     0
 74
     5
  7
inaba.ctb
 75
    16
147
1.0
148
0.0
149
0.0
100
AcDbLayout
  1
レイアウト1
 70
     0
 71
     1
 10
0.0
 20
0.0
 11
420.0
 21
297.0
 12
0.0
 22
0.0
 32
0.0
 14
1.000000000000000E+20
 24
1.000000000000000E+20
 34
1.000000000000000E+20
 15
-1.000000000000000E+20
 25
-1.000000000000000E+20
 35
-1.000000000000000E+20
146
0.0
 13
0.0
 23
0.0
 33
0.0
 16
1.0
 26
0.0
 36
0.0
 17
0.0
 27
1.0
 37
0.0
 76
     0
330
747A
  0
MLINESTYLE
  5
7480
102
{ACAD_REACTORS
330
7473
102
}
330
7473
100
AcDbMlineStyle
  2
STANDARD
 70
     0
  3

 62
     0
 51
90.0
 52
90.0
 71
     2
 49
0.5
 62
   256
  6
BYLAYER
 49
-0.5
 62
   256
  6
BYLAYER
  0
ACDBPLACEHOLDER
  5
17AE0
102
{ACAD_REACTORS
330
17ADF
102
}
330
17ADF
  0
XRECORD
  5
1A25E
102
{ACAD_REACTORS
330
1A25C
102
}
330
1A25C
100
AcDbXrecord
280
     1
340
17AE2
  0
XRECORD
  5
1A25D
102
{ACAD_REACTORS
330
1A25C
102
}
330
1A25C
100
AcDbXrecord
280
     1
340
17AE1
  0
DICTIONARYVAR
  5
1A259
102
{ACAD_REACTORS
330
1A258
102
}
330
1A258
100
DictionaryVariables
280
     0
  1
1
  0
DICTIONARYVAR
  5
1A25A
102
{ACAD_REACTORS
330
1A258
102
}
330
1A258
100
DictionaryVariables
280
     0
  1

  0
DICTIONARY
  5
1A25F
330
17AE5
100
AcDbDictionary
280
     1
281
     1
  3
ACAD_XREC_ROUNDTRIP
360
1A260
  0
DICTIONARY
  5
1A261
330
17AE6
100
AcDbDictionary
280
     1
281
     1
  3
ACAD_XREC_ROUNDTRIP
360
1A262
  0
XRECORD
  5
1A260
102
{ACAD_REACTORS
330
1A25F
102
}
330
1A25F
100
AcDbXrecord
280
     1
102
SHADEPLOT
 70
     0
102
SHADEPLOTRESLEVEL
 70
     2
102
SHADEPLOTCUSTOMDPI
 70
   300
  0
XRECORD
  5
1A262
102
{ACAD_REACTORS
330
1A261
102
}
330
1A261
100
AcDbXrecord
280
     1
102
SHADEPLOT
 70
     0
102
SHADEPLOTRESLEVEL
 70
     2
102
SHADEPLOTCUSTOMDPI
 70
   300
  0
ENDSEC
  0
EOF
