  0
SECTION
  2
HEADER
  9
$ACADVER
  1
AC1015
  9
$ACADMAINTVER
 70
    20
  9
$DWGCODEPAGE
  3
ANSI_932
  9
$INSBASE
 10
0.0
 20
0.0
 30
0.0
  9
$EXTMIN
 10
139.9999999999995
 20
-0.0000000000000909
 30
0.0
  9
$EXTMAX
 10
16307.2
 20
11409.6
 30
0.0
  9
$LIMMIN
 10
0.0
 20
0.0
  9
$LIMMAX
 10
16800.0
 20
11880.0
  9
$ORTHOMODE
 70
     0
  9
$REGENMODE
 70
     1
  9
$FILLMODE
 70
     1
  9
$QTEXTMODE
 70
     0
  9
$MIRRTEXT
 70
     1
  9
$LTSCALE
 40
20.0
  9
$ATTMODE
 70
     1
  9
$TEXTSIZE
 40
4.0
  9
$TRACEWID
 40
1.0
  9
$TEXTSTYLE
  7
MSPゴシック
  9
$CLAYER
  8
寸法
  9
$CELTYPE
  6
BYLAYER
  9
$CECOLOR
 62
   256
  9
$CELTSCALE
 40
50.0
  9
$DISPSILH
 70
     0
  9
$DIMSCALE
 40
40.0
  9
$DIMASZ
 40
2.5
  9
$DIMEXO
 40
0.5
  9
$DIMDLI
 40
7.0
  9
$DIMRND
 40
0.0
  9
$DIMDLE
 40
0.0
  9
$DIMEXE
 40
1.5
  9
$DIMTP
 40
0.0
  9
$DIMTM
 40
0.0
  9
$DIMTXT
 40
3.0
  9
$DIMCEN
 40
0.0
  9
$DIMTSZ
 40
0.0
  9
$DIMTOL
 70
     0
  9
$DIMLIM
 70
     0
  9
$DIMTIH
 70
     0
  9
$DIMTOH
 70
     0
  9
$DIMSE1
 70
     0
  9
$DIMSE2
 70
     0
  9
$DIMTAD
 70
     3
  9
$DIMZIN
 70
     8
  9
$DIMBLK
  1

  9
$DIMASO
 70
     1
  9
$DIMSHO
 70
     1
  9
$DIMPOST
  1

  9
$DIMAPOST
  1

  9
$DIMALT
 70
     0
  9
$DIMALTD
 70
     2
  9
$DIMALTF
 40
0.0394
  9
$DIMLFAC
 40
1.0
  9
$DIMTOFL
 70
     1
  9
$DIMTVP
 40
0.0
  9
$DIMTIX
 70
     1
  9
$DIMSOXD
 70
     0
  9
$DIMSAH
 70
     1
  9
$DIMBLK1
  1
DOTSMALL
  9
$DIMBLK2
  1
DOTSMALL
  9
$DIMSTYLE
  2
INABA_S40G
  9
$DIMCLRD
 70
     0
  9
$DIMCLRE
 70
     0
  9
$DIMCLRT
 70
     7
  9
$DIMTFAC
 40
1.0
  9
$DIMGAP
 40
1.0
  9
$DIMJUST
 70
     0
  9
$DIMSD1
 70
     0
  9
$DIMSD2
 70
     0
  9
$DIMTOLJ
 70
     1
  9
$DIMTZIN
 70
     0
  9
$DIMALTZ
 70
     0
  9
$DIMALTTZ
 70
     0
  9
$DIMUPT
 70
     0
  9
$DIMDEC
 70
     1
  9
$DIMTDEC
 70
     4
  9
$DIMALTU
 70
     2
  9
$DIMALTTD
 70
     2
  9
$DIMTXSTY
  7
STYLE1
  9
$DIMAUNIT
 70
     0
  9
$DIMADEC
 70
     0
  9
$DIMALTRND
 40
0.0
  9
$DIMAZIN
 70
     0
  9
$DIMDSEP
 70
    46
  9
$DIMATFIT
 70
     3
  9
$DIMFRAC
 70
     0
  9
$DIMLDRBLK
  1

  9
$DIMLUNIT
 70
     2
  9
$DIMLWD
 70
    -2
  9
$DIMLWE
 70
    -2
  9
$DIMTMOVE
 70
     2
  9
$LUNITS
 70
     2
  9
$LUPREC
 70
     1
  9
$SKETCHINC
 40
1.0
  9
$FILLETRAD
 40
3.0
  9
$AUNITS
 70
     0
  9
$AUPREC
 70
     0
  9
$MENU
  1
acad
  9
$ELEVATION
 40
0.0
  9
$PELEVATION
 40
0.0
  9
$THICKNESS
 40
0.0
  9
$LIMCHECK
 70
     0
  9
$CHAMFERA
 40
0.0
  9
$CHAMFERB
 40
0.0
  9
$CHAMFERC
 40
0.0
  9
$CHAMFERD
 40
0.0
  9
$SKPOLY
 70
     0
  9
$TDCREATE
 40
2451368.612993866
  9
$TDUCREATE
 40
2451368.237993866
  9
$TDUPDATE
 40
2455569.643589039
  9
$TDUUPDATE
 40
2455569.268589040
  9
$TDINDWG
 40
0.8632562037
  9
$TDUSRTIMER
 40
0.8632562037
  9
$USRTIMER
 70
     1
  9
$ANGBASE
 50
0.0
  9
$ANGDIR
 70
     0
  9
$PDMODE
 70
     3
  9
$PDSIZE
 40
2.0
  9
$PLINEWID
 40
0.0
  9
$SPLFRAME
 70
     0
  9
$SPLINETYPE
 70
     6
  9
$SPLINESEGS
 70
     8
  9
$HANDSEED
  5
1A7B5
  9
$SURFTAB1
 70
     6
  9
$SURFTAB2
 70
     6
  9
$SURFTYPE
 70
     6
  9
$SURFU
 70
     6
  9
$SURFV
 70
     6
  9
$UCSBASE
  2

  9
$UCSNAME
  2

  9
$UCSORG
 10
0.0
 20
0.0
 30
0.0
  9
$UCSXDIR
 10
1.0
 20
0.0
 30
0.0
  9
$UCSYDIR
 10
0.0
 20
1.0
 30
0.0
  9
$UCSORTHOREF
  2

  9
$UCSORTHOVIEW
 70
     0
  9
$UCSORGTOP
 10
0.0
 20
0.0
 30
0.0
  9
$UCSORGBOTTOM
 10
0.0
 20
0.0
 30
0.0
  9
$UCSORGLEFT
 10
0.0
 20
0.0
 30
0.0
  9
$UCSORGRIGHT
 10
0.0
 20
0.0
 30
0.0
  9
$UCSORGFRONT
 10
0.0
 20
0.0
 30
0.0
  9
$UCSORGBACK
 10
0.0
 20
0.0
 30
0.0
  9
$PUCSBASE
  2

  9
$PUCSNAME
  2

  9
$PUCSORG
 10
0.0
 20
0.0
 30
0.0
  9
$PUCSXDIR
 10
1.0
 20
0.0
 30
0.0
  9
$PUCSYDIR
 10
0.0
 20
1.0
 30
0.0
  9
$PUCSORTHOREF
  2

  9
$PUCSORTHOVIEW
 70
     0
  9
$PUCSORGTOP
 10
0.0
 20
0.0
 30
0.0
  9
$PUCSORGBOTTOM
 10
0.0
 20
0.0
 30
0.0
  9
$PUCSORGLEFT
 10
0.0
 20
0.0
 30
0.0
  9
$PUCSORGRIGHT
 10
0.0
 20
0.0
 30
0.0
  9
$PUCSORGFRONT
 10
0.0
 20
0.0
 30
0.0
  9
$PUCSORGBACK
 10
0.0
 20
0.0
 30
0.0
  9
$USERI1
 70
     0
  9
$USERI2
 70
     0
  9
$USERI3
 70
     0
  9
$USERI4
 70
     0
  9
$USERI5
 70
     0
  9
$USERR1
 40
0.0
  9
$USERR2
 40
0.0
  9
$USERR3
 40
0.0
  9
$USERR4
 40
0.0
  9
$USERR5
 40
0.0
  9
$WORLDVIEW
 70
     1
  9
$SHADEDGE
 70
     3
  9
$SHADEDIF
 70
    70
  9
$TILEMODE
 70
     1
  9
$MAXACTVP
 70
    16
  9
$PINSBASE
 10
0.0
 20
0.0
 30
0.0
  9
$PLIMCHECK
 70
     0
  9
$PEXTMIN
 10
1.000000000000000E+20
 20
1.000000000000000E+20
 30
1.000000000000000E+20
  9
$PEXTMAX
 10
-1.000000000000000E+20
 20
-1.000000000000000E+20
 30
-1.000000000000000E+20
  9
$PLIMMIN
 10
0.0
 20
0.0
  9
$PLIMMAX
 10
420.0
 20
297.0
  9
$UNITMODE
 70
     0
  9
$VISRETAIN
 70
     0
  9
$PLINEGEN
 70
     0
  9
$PSLTSCALE
 70
     0
  9
$TREEDEPTH
 70
  3020
  9
$CMLSTYLE
  2
STANDARD
  9
$CMLJUST
 70
     0
  9
$CMLSCALE
 40
1.0
  9
$PROXYGRAPHICS
 70
     1
  9
$MEASUREMENT
 70
     1
  9
$CELWEIGHT
370
    -1
  9
$ENDCAPS
280
     0
  9
$JOINSTYLE
280
     0
  9
$LWDISPLAY
290
     0
  9
$INSUNITS
 70
     0
  9
$HYPERLINKBASE
  1

  9
$STYLESHEET
  1
inaba.ctb
  9
$XEDIT
290
     1
  9
$CEPSNTYPE
380
     0
  9
$PSTYLEMODE
290
     1
  9
$FINGERPRINTGUID
  2
{0E4A3AB3-ADAA-44DC-861C-9525B65BB1EC}
  9
$VERSIONGUID
  2
{73597838-CCFF-4FB3-8A6F-309B187A31B3}
  9
$EXTNAMES
290
     1
  9
$PSVPSCALE
 40
0.0
  9
$OLESTARTUP
290
     0
  0
ENDSEC
  0
SECTION
  2
CLASSES
  0
CLASS
  1
ACDBDICTIONARYWDFLT
  2
AcDbDictionaryWithDefault
  3
ObjectDBX Classes
 90
        0
280
     0
281
     0
  0
CLASS
  1
DICTIONARYVAR
  2
AcDbDictionaryVar
  3
ObjectDBX Classes
 90
        0
280
     0
281
     0
  0
CLASS
  1
ACDBPLACEHOLDER
  2
AcDbPlaceHolder
  3
ObjectDBX Classes
 90
        0
280
     0
281
     0
  0
CLASS
  1
LAYOUT
  2
AcDbLayout
  3
ObjectDBX Classes
 90
        0
280
     0
281
     0
  0
ENDSEC
  0
SECTION
  2
TABLES
  0
TABLE
  2
VPORT
  5
746D
330
0
100
AcDbSymbolTable
 70
     2
  0
VPORT
  5
1A7AD
330
746D
100
AcDbSymbolTableRecord
100
AcDbViewportTableRecord
  2
*Active
 70
     0
 10
0.0
 20
0.0
 11
1.0
 21
1.0
 12
11720.20566079003
 22
5704.608130720468
 13
0.0
 23
0.0
 14
10.0
 24
10.0
 15
10.0
 25
10.0
 16
0.0
 26
0.0
 36
1.0
 17
0.0
 27
0.0
 37
0.0
 40
11513.77443642125
 41
2.234800838574423
 42
50.0
 43
0.0
 44
0.0
 50
0.0
 51
0.0
 71
     0
 72
     0
 73
     1
 74
     0
 75
     0
 76
     0
 77
     0
 78
     0
281
     0
 65
     1
110
0.0
120
0.0
130
0.0
111
1.0
121
0.0
131
0.0
112
0.0
122
1.0
132
0.0
 79
     0
146
0.0
  0
ENDTAB
  0
TABLE
  2
LTYPE
  5
746A
330
0
100
AcDbSymbolTable
 70
     3
  0
LTYPE
  5
7477
330
746A
100
AcDbSymbolTableRecord
100
AcDbLinetypeTableRecord
  2
BYBLOCK
 70
     0
  3

 72
    65
 73
     0
 40
0.0
  0
LTYPE
  5
7478
330
746A
100
AcDbSymbolTableRecord
100
AcDbLinetypeTableRecord
  2
BYLAYER
 70
     0
  3

 72
    65
 73
     0
 40
0.0
  0
LTYPE
  5
7479
330
746A
100
AcDbSymbolTableRecord
100
AcDbLinetypeTableRecord
  2
CONTINUOUS
 70
     0
  3
Solid line
 72
    65
 73
     0
 40
0.0
  0
LTYPE
  5
781A
330
746A
100
AcDbSymbolTableRecord
100
AcDbLinetypeTableRecord
  2
HIDDEN
 70
     0
  3
__ __ __ __ __ __ __ __ __ __ __ __ __ __ __ __
 72
    65
 73
     2
 40
0.375
 49
0.25
 74
     0
 49
-0.125
 74
     0
  0
LTYPE
  5
781B
330
746A
100
AcDbSymbolTableRecord
100
AcDbLinetypeTableRecord
  2
PHANTOM
 70
     0
  3
______  __  __  ______  __  __  ______  __  __ 
 72
    65
 73
     6
 40
2.5
 49
1.25
 74
     0
 49
-0.25
 74
     0
 49
0.25
 74
     0
 49
-0.25
 74
     0
 49
0.25
 74
     0
 49
-0.25
 74
     0
  0
ENDTAB
  0
TABLE
  2
LAYER
  5
7467
102
{ACAD_XDICTIONARY
360
18E17
102
}
330
0
100
AcDbSymbolTable
 70
    10
  0
LAYER
  5
7474
330
7467
100
AcDbSymbolTableRecord
100
AcDbLayerTableRecord
  2
0
 70
     0
 62
     7
  6
CONTINUOUS
370
    -3
390
17AE0
  0
LAYER
  5
DEB3
330
7467
100
AcDbSymbolTableRecord
100
AcDbLayerTableRecord
  2
寸法
 70
     0
 62
     4
  6
CONTINUOUS
370
    -3
390
17AE0
  0
LAYER
  5
DEB4
330
7467
100
AcDbSymbolTableRecord
100
AcDbLayerTableRecord
  2
部品1
 70
     0
 62
     7
  6
CONTINUOUS
370
    -3
390
17AE0
  0
LAYER
  5
DEB5
330
7467
100
AcDbSymbolTableRecord
100
AcDbLayerTableRecord
  2
補助
 70
     0
 62
    -1
  6
CONTINUOUS
370
    -3
390
17AE0
  0
LAYER
  5
DEB6
330
7467
100
AcDbSymbolTableRecord
100
AcDbLayerTableRecord
  2
文字
 70
     0
 62
     7
  6
CONTINUOUS
370
    -3
390
17AE0
  0
LAYER
  5
F255
330
7467
100
AcDbSymbolTableRecord
100
AcDbLayerTableRecord
  2
DEFPOINTS
 70
     0
 62
     7
  6
CONTINUOUS
290
     0
370
    -3
390
17AE0
  0
LAYER
  5
10B54
330
7467
100
AcDbSymbolTableRecord
100
AcDbLayerTableRecord
  2
仕様書枠
 70
     0
 62
   230
  6
CONTINUOUS
370
    -3
390
17AE0
  0
LAYER
  5
11729
330
7467
100
AcDbSymbolTableRecord
100
AcDbLayerTableRecord
  2
Ｇ．Ｌ
 70
     0
 62
    30
  6
CONTINUOUS
370
    -3
390
17AE0
  0
LAYER
  5
1173F
330
7467
100
AcDbSymbolTableRecord
100
AcDbLayerTableRecord
  2
細線
 70
     0
 62
     5
  6
CONTINUOUS
370
    -3
390
17AE0
  0
LAYER
  5
142E2
330
7467
100
AcDbSymbolTableRecord
100
AcDbLayerTableRecord
  2
破線
 70
     0
 62
     2
  6
HIDDEN
370
    -3
390
17AE0
  0
ENDTAB
  0
TABLE
  2
STYLE
  5
7468
330
0
100
AcDbSymbolTable
 70
     7
  0
STYLE
  5
7475
330
7468
100
AcDbSymbolTableRecord
100
AcDbTextStyleTableRecord
  2
STANDARD
 70
     0
 40
0.0
 41
1.0
 50
0.0
 71
     0
 42
4.0
  3
txt
  4
C:\AutoCAD LT\bigfont.shx
  0
STYLE
  5
763C
330
7468
100
AcDbSymbolTableRecord
100
AcDbTextStyleTableRecord
  2
MSMINCHO
 70
     0
 40
0.0
 41
1.0
 50
0.0
 71
     0
 42
1.199999999999999
  3
MS PMincho.ttf
  4

1001
ACAD
1000
MS PMincho
1071
    32786
  0
STYLE
  5
F706
330
7468
100
AcDbSymbolTableRecord
100
AcDbTextStyleTableRecord
  2
STYLE1
 70
     0
 40
0.0
 41
1.0
 50
0.0
 71
     0
 42
4.0
  3
isocp.shx
  4
bigfont.shx
  0
STYLE
  5
103BF
330
7468
100
AcDbSymbolTableRecord
100
AcDbTextStyleTableRecord
  2
STYLE2
 70
     0
 40
0.0
 41
1.0
 50
0.0
 71
     0
 42
100.0
  3
MS PGothic.ttf
  4

1001
ACAD
1000
MS PGothic
1071
    32818
  0
STYLE
  5
10BAA
330
7468
100
AcDbSymbolTableRecord
100
AcDbTextStyleTableRecord
  2
STYLE3
 70
     0
 40
0.0
 41
1.0
 50
0.0
 71
     0
 42
100.0
  3
DFPGothic-EB.ttf
  4

1001
ACAD
1000
DFPGothic-EB
1071
    32818
  0
STYLE
  5
11A15
330
7468
100
AcDbSymbolTableRecord
100
AcDbTextStyleTableRecord
  2
MSGOTHIC
 70
     0
 40
0.0
 41
1.0
 50
0.0
 71
     0
 42
3.5
  3
MS PGothic.ttf
  4

1001
ACAD
1000
MS PGothic
1071
    32818
  0
STYLE
  5
13E96
330
7468
100
AcDbSymbolTableRecord
100
AcDbTextStyleTableRecord
  2
MSPゴシック
 70
     0
 40
0.0
 41
1.0
 50
0.0
 71
     0
 42
4.0
  3
MS PGothic.ttf
  4

1001
ACAD
1000
MS PGothic
1071
    32818
  0
ENDTAB
  0
TABLE
  2
VIEW
  5
746B
330
0
100
AcDbSymbolTable
 70
     0
  0
ENDTAB
  0
TABLE
  2
UCS
  5
746C
330
0
100
AcDbSymbolTable
 70
     0
  0
ENDTAB
  0
TABLE
  2
APPID
  5
746E
330
0
100
AcDbSymbolTable
 70
     6
  0
APPID
  5
7476
330
746E
100
AcDbSymbolTableRecord
100
AcDbRegAppTableRecord
  2
ACAD
 70
     0
  0
APPID
  5
DEA9
330
746E
100
AcDbSymbolTableRecord
100
AcDbRegAppTableRecord
  2
CONTENTBLOCKICON
 70
     0
  0
APPID
  5
DEAA
330
746E
100
AcDbSymbolTableRecord
100
AcDbRegAppTableRecord
  2
CONTENTBLOCKDESCRIPTION
 70
     0
  0
APPID
  5
E71D
330
746E
100
AcDbSymbolTableRecord
100
AcDbRegAppTableRecord
  2
CONTENTTABDATA
 70
     0
  0
APPID
  5
E71E
330
746E
100
AcDbSymbolTableRecord
100
AcDbRegAppTableRecord
  2
CONTENTCURRENTTAB
 70
     0
  0
APPID
  5
F3BA
330
746E
100
AcDbSymbolTableRecord
100
AcDbRegAppTableRecord
  2
DRAWINGVARIABLESXDATA
 70
     0
  0
ENDTAB
  0
TABLE
  2
DIMSTYLE
  5
746F
330
0
100
AcDbSymbolTable
 70
     1
100
AcDbDimStyleTable
 71
     1
340
F71F
  0
DIMSTYLE
105
F71F
102
{ACAD_REACTORS
330
162CD
330
162CE
330
162CF
330
162D0
330
162E4
330
162E7
330
162EA
330
162EB
330
16301
330
16302
330
1631F
330
16320
330
16333
330
1659C
330
1659A
330
165E9
330
166DD
330
16913
330
17BC3
330
17B87
330
17B86
330
19021
330
19022
330
19023
330
19027
330
19057
330
19058
330
19059
330
19004
330
19013
330
1A257
330
1A258
330
1A256
330
1A31D
330
1A5FE
330
1A5FF
330
1A600
102
}
330
746F
100
AcDbSymbolTableRecord
100
AcDbDimStyleTableRecord
  2
INABA_S40G
 70
     0
 40
40.0
 41
2.5
 42
0.5
 43
7.0
 44
1.5
 73
     0
 74
     0
 77
     3
 78
     8
140
3.0
141
0.0
143
0.0394
147
1.0
172
     1
173
     1
174
     1
178
     7
271
     1
340
F706
341
F770
343
F770
344
F770
  0
ENDTAB
  0
TABLE
  2
BLOCK_RECORD
  5
7466
330
0
100
AcDbSymbolTable
 70
    38
  0
BLOCK_RECORD
  5
747D
330
7466
100
AcDbSymbolTableRecord
100
AcDbBlockTableRecord
  2
*MODEL_SPACE
340
17AE5
  0
BLOCK_RECORD
  5
747A
330
7466
100
AcDbSymbolTableRecord
100
AcDbBlockTableRecord
  2
*PAPER_SPACE
340
17AE6
  0
BLOCK_RECORD
  5
F770
330
7466
100
AcDbSymbolTableRecord
100
AcDbBlockTableRecord
  2
_DOTSMALL
340
0
102
{BLKREFS
331
19E1C
331
19E1D
331
19E25
331
19E26
331
19E2E
331
19E2F
331
19E39
331
19E3A
331
19E4D
331
19E4E
331
19E60
331
19E61
331
19E6A
331
19E6B
331
1A30C
331
1A30D
331
1A33B
331
1A33C
331
1A359
331
1A35A
331
1A362
331
1A363
331
1A3C3
331
1A3C4
331
1A3CC
331
1A3CD
331
1A3D5
331
1A3D6
331
1A3DD
331
1A3DE
331
1A3E8
331
1A3E9
331
1A3F2
331
1A3F3
331
1A3FD
331
1A3FE
331
1A408
331
1A409
331
1A412
331
1A413
331
1A41D
331
1A41E
331
1A426
331
1A427
331
1A431
331
1A432
331
1A43D
331
1A43E
331
1A448
331
1A449
331
1A452
331
1A453
331
1A45B
331
1A45C
331
1A463
331
1A464
331
1A46C
331
1A46D
331
1A477
331
1A478
331
1A482
331
1A483
331
1A48B
331
1A48C
331
1A6F3
331
1A6F4
331
1A75A
331
1A75B
331
1A763
331
1A764
331
1A790
331
1A791
331
1A799
331
1A79A
102
}
  0
BLOCK_RECORD
  5
16338
330
7466
100
AcDbSymbolTableRecord
100
AcDbBlockTableRecord
  2
*D1
340
0
  0
BLOCK_RECORD
  5
16344
330
7466
100
AcDbSymbolTableRecord
100
AcDbBlockTableRecord
  2
*D2
340
0
  0
BLOCK_RECORD
  5
16352
330
7466
100
AcDbSymbolTableRecord
100
AcDbBlockTableRecord
  2
*D3
340
0
  0
BLOCK_RECORD
  5
16360
330
7466
100
AcDbSymbolTableRecord
100
AcDbBlockTableRecord
  2
*D4
340
0
  0
BLOCK_RECORD
  5
16384
330
7466
100
AcDbSymbolTableRecord
100
AcDbBlockTableRecord
  2
*D5
340
0
  0
BLOCK_RECORD
  5
1638F
330
7466
100
AcDbSymbolTableRecord
100
AcDbBlockTableRecord
  2
*D6
340
0
  0
BLOCK_RECORD
  5
1639B
330
7466
100
AcDbSymbolTableRecord
100
AcDbBlockTableRecord
  2
*D7
340
0
  0
BLOCK_RECORD
  5
163A9
330
7466
100
AcDbSymbolTableRecord
100
AcDbBlockTableRecord
  2
*D8
340
0
  0
BLOCK_RECORD
  5
163B8
330
7466
100
AcDbSymbolTableRecord
100
AcDbBlockTableRecord
  2
*D9
340
0
  0
BLOCK_RECORD
  5
163C7
330
7466
100
AcDbSymbolTableRecord
100
AcDbBlockTableRecord
  2
*D10
340
0
  0
BLOCK_RECORD
  5
163E1
330
7466
100
AcDbSymbolTableRecord
100
AcDbBlockTableRecord
  2
*D11
340
0
  0
BLOCK_RECORD
  5
163ED
330
7466
100
AcDbSymbolTableRecord
100
AcDbBlockTableRecord
  2
*D12
340
0
  0
BLOCK_RECORD
  5
163FB
330
7466
100
AcDbSymbolTableRecord
100
AcDbBlockTableRecord
  2
*D13
340
0
  0
BLOCK_RECORD
  5
165B5
330
7466
100
AcDbSymbolTableRecord
100
AcDbBlockTableRecord
  2
*D14
340
0
  0
BLOCK_RECORD
  5
165C4
330
7466
100
AcDbSymbolTableRecord
100
AcDbBlockTableRecord
  2
*D15
340
0
  0
BLOCK_RECORD
  5
165EA
330
7466
100
AcDbSymbolTableRecord
100
AcDbBlockTableRecord
  2
*D16
340
0
  0
BLOCK_RECORD
  5
166CF
330
7466
100
AcDbSymbolTableRecord
100
AcDbBlockTableRecord
  2
*D17
340
0
  0
BLOCK_RECORD
  5
16908
330
7466
100
AcDbSymbolTableRecord
100
AcDbBlockTableRecord
  2
*D18
340
0
  0
BLOCK_RECORD
  5
17BD3
330
7466
100
AcDbSymbolTableRecord
100
AcDbBlockTableRecord
  2
*D19
340
0
  0
BLOCK_RECORD
  5
17BDE
330
7466
100
AcDbSymbolTableRecord
100
AcDbBlockTableRecord
  2
*D20
340
0
  0
BLOCK_RECORD
  5
17BF8
330
7466
100
AcDbSymbolTableRecord
100
AcDbBlockTableRecord
  2
*D21
340
0
  0
BLOCK_RECORD
  5
19141
330
7466
100
AcDbSymbolTableRecord
100
AcDbBlockTableRecord
  2
*D22
340
0
  0
BLOCK_RECORD
  5
1914D
330
7466
100
AcDbSymbolTableRecord
100
AcDbBlockTableRecord
  2
*D23
340
0
  0
BLOCK_RECORD
  5
1915B
330
7466
100
AcDbSymbolTableRecord
100
AcDbBlockTableRecord
  2
*D24
340
0
  0
BLOCK_RECORD
  5
19167
330
7466
100
AcDbSymbolTableRecord
100
AcDbBlockTableRecord
  2
*D25
340
0
  0
BLOCK_RECORD
  5
19175
330
7466
100
AcDbSymbolTableRecord
100
AcDbBlockTableRecord
  2
*D26
340
0
  0
BLOCK_RECORD
  5
19181
330
7466
100
AcDbSymbolTableRecord
100
AcDbBlockTableRecord
  2
*D27
340
0
  0
BLOCK_RECORD
  5
1918D
330
7466
100
AcDbSymbolTableRecord
100
AcDbBlockTableRecord
  2
*D28
340
0
  0
BLOCK_RECORD
  5
192C3
330
7466
100
AcDbSymbolTableRecord
100
AcDbBlockTableRecord
  2
*D29
340
0
  0
BLOCK_RECORD
  5
192D0
330
7466
100
AcDbSymbolTableRecord
100
AcDbBlockTableRecord
  2
*D30
340
0
  0
BLOCK_RECORD
  5
1A2BF
330
7466
100
AcDbSymbolTableRecord
100
AcDbBlockTableRecord
  2
*D31
340
0
  0
BLOCK_RECORD
  5
1A2D9
330
7466
100
AcDbSymbolTableRecord
100
AcDbBlockTableRecord
  2
*D32
340
0
  0
BLOCK_RECORD
  5
1A2E7
330
7466
100
AcDbSymbolTableRecord
100
AcDbBlockTableRecord
  2
*D33
340
0
  0
BLOCK_RECORD
  5
1A328
330
7466
100
AcDbSymbolTableRecord
100
AcDbBlockTableRecord
  2
*D34
340
0
  0
BLOCK_RECORD
  5
1A66E
330
7466
100
AcDbSymbolTableRecord
100
AcDbBlockTableRecord
  2
*D35
340
0
  0
BLOCK_RECORD
  5
1A67B
330
7466
100
AcDbSymbolTableRecord
100
AcDbBlockTableRecord
  2
*D36
340
0
  0
BLOCK_RECORD
  5
1A689
330
7466
100
AcDbSymbolTableRecord
100
AcDbBlockTableRecord
  2
*D37
340
0
  0
ENDTAB
  0
ENDSEC
  0
SECTION
  2
BLOCKS
  0
BLOCK
  5
7489
330
747D
100
AcDbEntity
  8
0
100
AcDbBlockBegin
  2
*MODEL_SPACE
 70
     0
 10
0.0
 20
0.0
 30
0.0
  3
*MODEL_SPACE
  1

  0
ENDBLK
  5
748A
330
747D
100
AcDbEntity
  8
0
100
AcDbBlockEnd
  0
BLOCK
  5
7487
330
747A
100
AcDbEntity
 67
     1
  8
0
100
AcDbBlockBegin
  2
*PAPER_SPACE
 70
     0
 10
0.0
 20
0.0
 30
0.0
  3
*PAPER_SPACE
  1

  0
ENDBLK
  5
7488
330
747A
100
AcDbEntity
 67
     1
  8
0
100
AcDbBlockEnd
  0
BLOCK
  5
F771
330
F770
100
AcDbEntity
  8
0
 48
50.0
100
AcDbBlockBegin
  2
_DOTSMALL
 70
     0
 10
0.0
 20
0.0
 30
0.0
  3
_DOTSMALL
  1

  0
LWPOLYLINE
  5
F772
330
F770
100
AcDbEntity
  8
0
  6
ByBlock
 62
     0
 48
50.0
100
AcDbPolyline
 90
        2
 70
     1
 43
0.5
 10
-0.0625
 20
0.0
 42
1.0
 10
0.0625
 20
0.0
 42
1.0
  0
ENDBLK
  5
F776
330
F770
100
AcDbEntity
  8
0
 48
50.0
100
AcDbBlockEnd
  0
BLOCK
  5
164EB
330
16338
100
AcDbEntity
  8
0
 48
50.0
100
AcDbBlockBegin
  2
*D1
 70
     1
 10
0.0
 20
0.0
 30
0.0
  3
*D1
  1

  0
LINE
  5
1A488
330
16338
100
AcDbEntity
  8
寸法
 62
     0
 48
50.0
370
    -2
100
AcDbLine
 10
7420.497127903591
 20
9975.613520934109
 30
0.0
 11
8107.923473637997
 21
9975.613520934109
 31
0.0
  0
LINE
  5
1A489
330
16338
100
AcDbEntity
  8
寸法
 62
     0
 48
50.0
370
    -2
100
AcDbLine
 10
7420.497127903566
 20
7455.613520934093
 30
0.0
 11
8107.923473637997
 21
7455.613520934093
 31
0.0
  0
LINE
  5
1A48A
330
16338
100
AcDbEntity
  8
寸法
 62
     0
 48
50.0
370
    -2
100
AcDbLine
 10
8047.923473637997
 20
9975.613520934109
 30
0.0
 11
8047.923473637997
 21
7455.613520934093
 31
0.0
  0
INSERT
  5
1A48B
330
16338
100
AcDbEntity
  8
寸法
 62
     0
 48
50.0
370
    -2
100
AcDbBlockReference
  2
_DOTSMALL
 10
8047.923473637997
 20
9975.613520934109
 30
0.0
 41
100.0
 42
100.0
 43
100.0
 50
90.0
  0
INSERT
  5
1A48C
330
16338
100
AcDbEntity
  8
寸法
 62
     0
 48
50.0
370
    -2
100
AcDbBlockReference
  2
_DOTSMALL
 10
8047.923473637997
 20
7455.613520934093
 30
0.0
 41
100.0
 42
100.0
 43
100.0
 50
270.0
  0
MTEXT
  5
1A48D
330
16338
100
AcDbEntity
  8
寸法
 62
     7
 48
50.0
100
AcDbMText
 10
7947.911662614375
 20
8715.613520934104
 30
0.0
 40
120.0
 41
0.0
 71
     5
 72
     1
  1
\A1;6X420=2520
  7
STYLE1
 11
0.0000000000000001
 21
1.0
 31
0.0
 73
     1
 44
1.0
1001
ACAD
1000
MTEXTBEGIN
1070
    73
1070
     1
1070
    44
1040
1.0
1070
    74
1070
     0
1000
MTEXTEND
  0
POINT
  5
1A48E
330
16338
100
AcDbEntity
  8
DEFPOINTS
 62
     0
 48
50.0
100
AcDbPoint
 10
7400.497127903591
 20
9975.613520934109
 30
0.0
  0
POINT
  5
1A48F
330
16338
100
AcDbEntity
  8
DEFPOINTS
 62
     0
 48
50.0
100
AcDbPoint
 10
7400.497127903566
 20
7455.613520934093
 30
0.0
  0
POINT
  5
1A490
330
16338
100
AcDbEntity
  8
DEFPOINTS
 62
     0
 48
50.0
100
AcDbPoint
 10
8047.923473637997
 20
7455.613520934093
 30
0.0
  0
ENDBLK
  5
164F5
330
16338
100
AcDbEntity
  8
0
 48
50.0
100
AcDbBlockEnd
  0
BLOCK
  5
16414
330
16344
100
AcDbEntity
  8
0
 48
50.0
100
AcDbBlockBegin
  2
*D2
 70
     1
 10
0.0
 20
0.0
 30
0.0
  3
*D2
  1

  0
LINE
  5
1A47D
330
16344
100
AcDbEntity
  8
寸法
 62
     0
 48
50.0
370
    -2
100
AcDbLine
 10
7420.497127903566
 20
7455.613520934093
 30
0.0
 11
8107.923473637978
 21
7455.613520934093
 31
0.0
  0
LINE
  5
1A47E
330
16344
100
AcDbEntity
  8
寸法
 62
     0
 48
50.0
370
    -2
100
AcDbLine
 10
7420.497127903566
 20
7400.613520934097
 30
0.0
 11
8107.923473637978
 21
7400.613520934097
 31
0.0
  0
LINE
  5
1A47F
330
16344
100
AcDbEntity
  8
寸法
 62
     0
 48
50.0
370
    -2
100
AcDbLine
 10
8047.923473637977
 20
7455.613520934093
 30
0.0
 11
8047.923473637977
 21
7555.613520934094
 31
0.0
  0
LINE
  5
1A480
330
16344
100
AcDbEntity
  8
寸法
 62
     0
 48
50.0
370
    -2
100
AcDbLine
 10
8047.923473637977
 20
7400.613520934097
 30
0.0
 11
8047.923473637977
 21
6914.266772654996
 31
0.0
  0
LINE
  5
1A481
330
16344
100
AcDbEntity
  8
寸法
 62
     0
 48
50.0
370
    -2
100
AcDbLine
 10
8047.923473637977
 20
7455.613520934093
 30
0.0
 11
8047.923473637977
 21
7400.613520934097
 31
0.0
  0
INSERT
  5
1A482
330
16344
100
AcDbEntity
  8
寸法
 62
     0
 48
50.0
370
    -2
100
AcDbBlockReference
  2
_DOTSMALL
 10
8047.923473637977
 20
7455.613520934093
 30
0.0
 41
100.0
 42
100.0
 43
100.0
 50
270.0
  0
INSERT
  5
1A483
330
16344
100
AcDbEntity
  8
寸法
 62
     0
 48
50.0
370
    -2
100
AcDbBlockReference
  2
_DOTSMALL
 10
8047.923473637977
 20
7400.613520934097
 30
0.0
 41
100.0
 42
100.0
 43
100.0
 50
90.0
  0
MTEXT
  5
1A484
330
16344
100
AcDbEntity
  8
寸法
 62
     7
 48
50.0
100
AcDbMText
 10
7947.923473637975
 20
7022.752054029236
 30
0.0
 40
120.0
 41
0.0
 71
     5
 72
     1
  1
\A1;55
  7
STYLE1
 11
0.0000000000000001
 21
1.0
 31
0.0
 73
     1
 44
1.0
1001
ACAD
1000
MTEXTBEGIN
1070
    73
1070
     1
1070
    44
1040
1.0
1070
    74
1070
     0
1000
MTEXTEND
  0
POINT
  5
1A485
330
16344
100
AcDbEntity
  8
DEFPOINTS
 62
     0
 48
50.0
100
AcDbPoint
 10
7400.497127903566
 20
7455.613520934093
 30
0.0
  0
POINT
  5
1A486
330
16344
100
AcDbEntity
  8
DEFPOINTS
 62
     0
 48
50.0
100
AcDbPoint
 10
7400.497127903566
 20
7400.613520934097
 30
0.0
  0
POINT
  5
1A487
330
16344
100
AcDbEntity
  8
DEFPOINTS
 62
     0
 48
50.0
100
AcDbPoint
 10
8047.923473637977
 20
7400.613520934097
 30
0.0
  0
ENDBLK
  5
16420
330
16344
100
AcDbEntity
  8
0
 48
50.0
100
AcDbBlockEnd
  0
BLOCK
  5
16421
330
16352
100
AcDbEntity
  8
0
 48
50.0
100
AcDbBlockBegin
  2
*D3
 70
     1
 10
0.0
 20
0.0
 30
0.0
  3
*D3
  1

  0
LINE
  5
1A472
330
16352
100
AcDbEntity
  8
寸法
 62
     0
 48
50.0
370
    -2
100
AcDbLine
 10
7420.497127903591
 20
10030.6135209341
 30
0.0
 11
8107.923473638001
 21
10030.6135209341
 31
0.0
  0
LINE
  5
1A473
330
16352
100
AcDbEntity
  8
寸法
 62
     0
 48
50.0
370
    -2
100
AcDbLine
 10
7420.497127903591
 20
9975.613520934109
 30
0.0
 11
8107.923473638001
 21
9975.613520934109
 31
0.0
  0
LINE
  5
1A474
330
16352
100
AcDbEntity
  8
寸法
 62
     0
 48
50.0
370
    -2
100
AcDbLine
 10
8047.923473638
 20
9975.613520934109
 30
0.0
 11
8047.923473638
 21
9875.613520934109
 31
0.0
  0
LINE
  5
1A475
330
16352
100
AcDbEntity
  8
寸法
 62
     0
 48
50.0
370
    -2
100
AcDbLine
 10
8047.923473638
 20
10030.6135209341
 30
0.0
 11
8047.923473638002
 21
10447.58408368258
 31
0.0
  0
LINE
  5
1A476
330
16352
100
AcDbEntity
  8
寸法
 62
     0
 48
50.0
370
    -2
100
AcDbLine
 10
8047.923473638
 20
9975.613520934109
 30
0.0
 11
8047.923473638
 21
10030.6135209341
 31
0.0
  0
INSERT
  5
1A477
330
16352
100
AcDbEntity
  8
寸法
 62
     0
 48
50.0
370
    -2
100
AcDbBlockReference
  2
_DOTSMALL
 10
8047.923473638
 20
9975.613520934109
 30
0.0
 41
100.0
 42
100.0
 43
100.0
 50
90.0
  0
INSERT
  5
1A478
330
16352
100
AcDbEntity
  8
寸法
 62
     0
 48
50.0
370
    -2
100
AcDbBlockReference
  2
_DOTSMALL
 10
8047.923473638
 20
10030.6135209341
 30
0.0
 41
100.0
 42
100.0
 43
100.0
 50
270.0
  0
MTEXT
  5
1A479
330
16352
100
AcDbEntity
  8
寸法
 62
     7
 48
50.0
100
AcDbMText
 10
7947.923473638001
 20
10339.09880230834
 30
0.0
 40
120.0
 41
0.0
 71
     5
 72
     1
  1
\A1;55
  7
STYLE1
 11
0.0000000000000001
 21
1.0
 31
0.0
 73
     1
 44
1.0
1001
ACAD
1000
MTEXTBEGIN
1070
    73
1070
     1
1070
    44
1040
1.0
1070
    74
1070
     0
1000
MTEXTEND
  0
POINT
  5
1A47A
330
16352
100
AcDbEntity
  8
DEFPOINTS
 62
     0
 48
50.0
100
AcDbPoint
 10
7400.497127903591
 20
10030.6135209341
 30
0.0
  0
POINT
  5
1A47B
330
16352
100
AcDbEntity
  8
DEFPOINTS
 62
     0
 48
50.0
100
AcDbPoint
 10
7400.497127903591
 20
9975.613520934109
 30
0.0
  0
POINT
  5
1A47C
330
16352
100
AcDbEntity
  8
DEFPOINTS
 62
     0
 48
50.0
100
AcDbPoint
 10
8047.923473638
 20
9975.613520934109
 30
0.0
  0
ENDBLK
  5
1642D
330
16352
100
AcDbEntity
  8
0
 48
50.0
100
AcDbBlockEnd
  0
BLOCK
  5
164CA
330
16360
100
AcDbEntity
  8
0
 48
50.0
100
AcDbBlockBegin
  2
*D4
 70
     1
 10
0.0
 20
0.0
 30
0.0
  3
*D4
  1

  0
LINE
  5
1A469
330
16360
100
AcDbEntity
  8
寸法
 62
     0
 48
50.0
370
    -2
100
AcDbLine
 10
7420.497127903591
 20
10030.6135209341
 30
0.0
 11
8473.030415377635
 21
10030.6135209341
 31
0.0
  0
LINE
  5
1A46A
330
16360
100
AcDbEntity
  8
寸法
 62
     0
 48
50.0
370
    -2
100
AcDbLine
 10
7420.497127903566
 20
7400.613520934097
 30
0.0
 11
8473.030415377635
 21
7400.613520934097
 31
0.0
  0
LINE
  5
1A46B
330
16360
100
AcDbEntity
  8
寸法
 62
     0
 48
50.0
370
    -2
100
AcDbLine
 10
8413.030415377637
 20
10030.6135209341
 30
0.0
 11
8413.030415377637
 21
7400.613520934097
 31
0.0
  0
INSERT
  5
1A46C
330
16360
100
AcDbEntity
  8
寸法
 62
     0
 48
50.0
370
    -2
100
AcDbBlockReference
  2
_DOTSMALL
 10
8413.030415377637
 20
10030.6135209341
 30
0.0
 41
100.0
 42
100.0
 43
100.0
 50
90.0
  0
INSERT
  5
1A46D
330
16360
100
AcDbEntity
  8
寸法
 62
     0
 48
50.0
370
    -2
100
AcDbBlockReference
  2
_DOTSMALL
 10
8413.030415377637
 20
7400.613520934097
 30
0.0
 41
100.0
 42
100.0
 43
100.0
 50
270.0
  0
MTEXT
  5
1A46E
330
16360
100
AcDbEntity
  8
寸法
 62
     7
 48
50.0
100
AcDbMText
 10
8313.018604354011
 20
8715.613520934104
 30
0.0
 40
120.0
 41
0.0
 71
     5
 72
     1
  1
\A1;2630
  7
STYLE1
 11
0.0000000000000001
 21
1.0
 31
0.0
 73
     1
 44
1.0
1001
ACAD
1000
MTEXTBEGIN
1070
    73
1070
     1
1070
    44
1040
1.0
1070
    74
1070
     0
1000
MTEXTEND
  0
POINT
  5
1A46F
330
16360
100
AcDbEntity
  8
DEFPOINTS
 62
     0
 48
50.0
100
AcDbPoint
 10
7400.497127903591
 20
10030.6135209341
 30
0.0
  0
POINT
  5
1A470
330
16360
100
AcDbEntity
  8
DEFPOINTS
 62
     0
 48
50.0
100
AcDbPoint
 10
7400.497127903566
 20
7400.613520934097
 30
0.0
  0
POINT
  5
1A471
330
16360
100
AcDbEntity
  8
DEFPOINTS
 62
     0
 48
50.0
100
AcDbPoint
 10
8413.030415377637
 20
7400.613520934097
 30
0.0
  0
ENDBLK
  5
164D4
330
16360
100
AcDbEntity
  8
0
 48
50.0
100
AcDbBlockEnd
  0
BLOCK
  5
1728C
330
16384
100
AcDbEntity
  8
0
 48
50.0
100
AcDbBlockBegin
  2
*D5
 70
     1
 10
0.0
 20
0.0
 30
0.0
  3
*D5
  1

  0
LINE
  5
1A461
330
16384
100
AcDbEntity
  8
寸法
 62
     0
 48
50.0
370
    -2
100
AcDbLine
 10
5713.497127903583
 20
7406.613520934006
 30
0.0
 11
5713.497127903583
 21
6806.182750167842
 31
0.0
  0
LINE
  5
1A462
330
16384
100
AcDbEntity
  8
寸法
 62
     0
 48
50.0
370
    -2
100
AcDbLine
 10
7297.497127903565
 20
6866.182750167841
 30
0.0
 11
5713.497127903583
 21
6866.182750167841
 31
0.0
  0
INSERT
  5
1A463
330
16384
100
AcDbEntity
  8
寸法
 62
     0
 48
50.0
370
    -2
100
AcDbBlockReference
  2
_DOTSMALL
 10
7297.497127903565
 20
6866.182750167841
 30
0.0
 41
100.0
 42
100.0
 43
100.0
  0
INSERT
  5
1A464
330
16384
100
AcDbEntity
  8
寸法
 62
     0
 48
50.0
370
    -2
100
AcDbBlockReference
  2
_DOTSMALL
 10
5713.497127903583
 20
6866.182750167841
 30
0.0
 41
100.0
 42
100.0
 43
100.0
 50
180.0
  0
MTEXT
  5
1A465
330
16384
100
AcDbEntity
  8
寸法
 62
     7
 48
50.0
100
AcDbMText
 10
6505.497127903574
 20
7066.182750167842
 30
0.0
 40
120.0
 41
0.0
 71
     5
 72
     1
  1
\A1;有効開口部間口\P 1584
  7
STYLE1
 73
     1
 44
1.0
1001
ACAD
1000
MTEXTBEGIN
1070
    73
1070
     1
1070
    44
1040
1.0
1070
    74
1070
     0
1000
MTEXTEND
  0
POINT
  5
1A466
330
16384
100
AcDbEntity
  8
DEFPOINTS
 62
     0
 48
50.0
100
AcDbPoint
 10
7297.497127903565
 20
7426.613520934006
 30
0.0
  0
POINT
  5
1A467
330
16384
100
AcDbEntity
  8
DEFPOINTS
 62
     0
 48
50.0
100
AcDbPoint
 10
5713.497127903583
 20
7426.613520934004
 30
0.0
  0
POINT
  5
1A468
330
16384
100
AcDbEntity
  8
DEFPOINTS
 62
     0
 48
50.0
100
AcDbPoint
 10
5713.497127903583
 20
6866.182750167841
 30
0.0
  0
ENDBLK
  5
17295
330
16384
100
AcDbEntity
  8
0
 48
50.0
100
AcDbBlockEnd
  0
BLOCK
  5
17261
330
1638F
100
AcDbEntity
  8
0
 48
50.0
100
AcDbBlockBegin
  2
*D6
 70
     1
 10
0.0
 20
0.0
 30
0.0
  3
*D6
  1

  0
LINE
  5
1A458
330
1638F
100
AcDbEntity
  8
寸法
 62
     0
 48
50.0
370
    -2
100
AcDbLine
 10
3820.497127903584
 20
7380.613520934002
 30
0.0
 11
3820.497127903584
 21
6360.009754576967
 31
0.0
  0
LINE
  5
1A459
330
1638F
100
AcDbEntity
  8
寸法
 62
     0
 48
50.0
370
    -2
100
AcDbLine
 10
7400.497127903554
 20
7380.613520934097
 30
0.0
 11
7400.497127903554
 21
6360.009754576967
 31
0.0
  0
LINE
  5
1A45A
330
1638F
100
AcDbEntity
  8
寸法
 62
     0
 48
50.0
370
    -2
100
AcDbLine
 10
3820.497127903584
 20
6420.009754576968
 30
0.0
 11
7400.497127903554
 21
6420.009754576968
 31
0.0
  0
INSERT
  5
1A45B
330
1638F
100
AcDbEntity
  8
寸法
 62
     0
 48
50.0
370
    -2
100
AcDbBlockReference
  2
_DOTSMALL
 10
3820.497127903584
 20
6420.009754576968
 30
0.0
 41
100.0
 42
100.0
 43
100.0
 50
180.0
  0
INSERT
  5
1A45C
330
1638F
100
AcDbEntity
  8
寸法
 62
     0
 48
50.0
370
    -2
100
AcDbBlockReference
  2
_DOTSMALL
 10
7400.497127903554
 20
6420.009754576968
 30
0.0
 41
100.0
 42
100.0
 43
100.0
  0
MTEXT
  5
1A45D
330
1638F
100
AcDbEntity
  8
寸法
 62
     7
 48
50.0
100
AcDbMText
 10
5610.497127903569
 20
6520.009754576967
 30
0.0
 40
120.0
 41
0.0
 71
     5
 72
     1
  1
\A1;3580
  7
STYLE1
 73
     1
 44
1.0
1001
ACAD
1000
MTEXTBEGIN
1070
    73
1070
     1
1070
    44
1040
1.0
1070
    74
1070
     0
1000
MTEXTEND
  0
POINT
  5
1A45E
330
1638F
100
AcDbEntity
  8
DEFPOINTS
 62
     0
 48
50.0
100
AcDbPoint
 10
3820.497127903584
 20
7400.613520934003
 30
0.0
  0
POINT
  5
1A45F
330
1638F
100
AcDbEntity
  8
DEFPOINTS
 62
     0
 48
50.0
100
AcDbPoint
 10
7400.497127903554
 20
7400.613520934097
 30
0.0
  0
POINT
  5
1A460
330
1638F
100
AcDbEntity
  8
DEFPOINTS
 62
     0
 48
50.0
100
AcDbPoint
 10
7400.497127903554
 20
6420.009754576968
 30
0.0
  0
ENDBLK
  5
1726B
330
1638F
100
AcDbEntity
  8
0
 48
50.0
100
AcDbBlockEnd
  0
BLOCK
  5
16464
330
1639B
100
AcDbEntity
  8
0
 48
50.0
100
AcDbBlockBegin
  2
*D7
 70
     1
 10
0.0
 20
0.0
 30
0.0
  3
*D7
  1

  0
LINE
  5
1A44D
330
1639B
100
AcDbEntity
  8
寸法
 62
     0
 48
50.0
370
    -2
100
AcDbLine
 10
3875.49712790358
 20
7380.613520934005
 30
0.0
 11
3875.49712790358
 21
6806.182750167842
 31
0.0
  0
LINE
  5
1A44E
330
1639B
100
AcDbEntity
  8
寸法
 62
     0
 48
50.0
370
    -2
100
AcDbLine
 10
3820.497127903584
 20
7380.613520934002
 30
0.0
 11
3820.497127903584
 21
6806.182750167842
 31
0.0
  0
LINE
  5
1A44F
330
1639B
100
AcDbEntity
  8
寸法
 62
     0
 48
50.0
370
    -2
100
AcDbLine
 10
3875.49712790358
 20
6866.182750167841
 30
0.0
 11
3975.49712790358
 21
6866.182750167841
 31
0.0
  0
LINE
  5
1A450
330
1639B
100
AcDbEntity
  8
寸法
 62
     0
 48
50.0
370
    -2
100
AcDbLine
 10
3820.497127903584
 20
6866.182750167841
 30
0.0
 11
3403.526565155106
 21
6866.182750167841
 31
0.0
  0
LINE
  5
1A451
330
1639B
100
AcDbEntity
  8
寸法
 62
     0
 48
50.0
370
    -2
100
AcDbLine
 10
3875.49712790358
 20
6866.182750167841
 30
0.0
 11
3820.497127903584
 21
6866.182750167841
 31
0.0
  0
INSERT
  5
1A452
330
1639B
100
AcDbEntity
  8
寸法
 62
     0
 48
50.0
370
    -2
100
AcDbBlockReference
  2
_DOTSMALL
 10
3875.49712790358
 20
6866.182750167841
 30
0.0
 41
100.0
 42
100.0
 43
100.0
 50
180.0
  0
INSERT
  5
1A453
330
1639B
100
AcDbEntity
  8
寸法
 62
     0
 48
50.0
370
    -2
100
AcDbBlockReference
  2
_DOTSMALL
 10
3820.497127903584
 20
6866.182750167841
 30
0.0
 41
100.0
 42
100.0
 43
100.0
  0
MTEXT
  5
1A454
330
1639B
100
AcDbEntity
  8
寸法
 62
     7
 48
50.0
100
AcDbMText
 10
3512.011846529345
 20
6966.182750167842
 30
0.0
 40
120.0
 41
0.0
 71
     5
 72
     1
  1
\A1;55
  7
STYLE1
 73
     1
 44
1.0
1001
ACAD
1000
MTEXTBEGIN
1070
    73
1070
     1
1070
    44
1040
1.0
1070
    74
1070
     0
1000
MTEXTEND
  0
POINT
  5
1A455
330
1639B
100
AcDbEntity
  8
DEFPOINTS
 62
     0
 48
50.0
100
AcDbPoint
 10
3875.49712790358
 20
7400.613520934006
 30
0.0
  0
POINT
  5
1A456
330
1639B
100
AcDbEntity
  8
DEFPOINTS
 62
     0
 48
50.0
100
AcDbPoint
 10
3820.497127903584
 20
7400.613520934003
 30
0.0
  0
POINT
  5
1A457
330
1639B
100
AcDbEntity
  8
DEFPOINTS
 62
     0
 48
50.0
100
AcDbPoint
 10
3820.497127903584
 20
6866.182750167841
 30
0.0
  0
ENDBLK
  5
16470
330
1639B
100
AcDbEntity
  8
0
 48
50.0
100
AcDbBlockEnd
  0
BLOCK
  5
16471
330
163A9
100
AcDbEntity
  8
0
 48
50.0
100
AcDbBlockBegin
  2
*D8
 70
     1
 10
0.0
 20
0.0
 30
0.0
  3
*D8
  1

  0
LINE
  5
1A442
330
163A9
100
AcDbEntity
  8
寸法
 62
     0
 48
50.0
370
    -2
100
AcDbLine
 10
5713.497127903583
 20
7406.613520934006
 30
0.0
 11
5713.497127903583
 21
6806.182750167842
 31
0.0
  0
LINE
  5
1A443
330
163A9
100
AcDbEntity
  8
寸法
 62
     0
 48
50.0
370
    -2
100
AcDbLine
 10
5665.49712790358
 20
7380.613520934005
 30
0.0
 11
5665.49712790358
 21
6806.182750167842
 31
0.0
  0
LINE
  5
1A444
330
163A9
100
AcDbEntity
  8
寸法
 62
     0
 48
50.0
370
    -2
100
AcDbLine
 10
5713.497127903583
 20
6866.182750167841
 30
0.0
 11
5813.497127903584
 21
6866.182750167841
 31
0.0
  0
LINE
  5
1A445
330
163A9
100
AcDbEntity
  8
寸法
 62
     0
 48
50.0
370
    -2
100
AcDbLine
 10
5665.49712790358
 20
6866.182750167841
 30
0.0
 11
5565.497127903579
 21
6866.182750167841
 31
0.0
  0
MTEXT
  5
1A446
330
163A9
100
AcDbEntity
  8
寸法
 62
     7
 48
50.0
100
AcDbMText
 10
5826.399098903642
 20
6966.182750167842
 30
0.0
 40
120.0
 41
0.0
 71
     5
 72
     1
  1
\A1;48
  7
STYLE1
 73
     1
 44
1.0
1001
ACAD
1000
MTEXTBEGIN
1070
    73
1070
     1
1070
    44
1040
1.0
1070
    74
1070
     0
1000
MTEXTEND
  0
LINE
  5
1A447
330
163A9
100
AcDbEntity
  8
寸法
 62
     0
 48
50.0
370
    -2
100
AcDbLine
 10
5713.497127903583
 20
6866.182750167841
 30
0.0
 11
5665.49712790358
 21
6866.182750167841
 31
0.0
  0
INSERT
  5
1A448
330
163A9
100
AcDbEntity
  8
寸法
 62
     0
 48
50.0
370
    -2
100
AcDbBlockReference
  2
_DOTSMALL
 10
5713.497127903583
 20
6866.182750167841
 30
0.0
 41
100.0
 42
100.0
 43
100.0
 50
180.0
  0
INSERT
  5
1A449
330
163A9
100
AcDbEntity
  8
寸法
 62
     0
 48
50.0
370
    -2
100
AcDbBlockReference
  2
_DOTSMALL
 10
5665.49712790358
 20
6866.182750167841
 30
0.0
 41
100.0
 42
100.0
 43
100.0
  0
POINT
  5
1A44A
330
163A9
100
AcDbEntity
  8
DEFPOINTS
 62
     0
 48
50.0
100
AcDbPoint
 10
5713.497127903583
 20
7426.613520934004
 30
0.0
  0
POINT
  5
1A44B
330
163A9
100
AcDbEntity
  8
DEFPOINTS
 62
     0
 48
50.0
100
AcDbPoint
 10
5665.49712790358
 20
7400.613520934006
 30
0.0
  0
POINT
  5
1A44C
330
163A9
100
AcDbEntity
  8
DEFPOINTS
 62
     0
 48
50.0
100
AcDbPoint
 10
5665.49712790358
 20
6866.182750167841
 30
0.0
  0
ENDBLK
  5
1647E
330
163A9
100
AcDbEntity
  8
0
 48
50.0
100
AcDbBlockEnd
  0
BLOCK
  5
1647F
330
163B8
100
AcDbEntity
  8
0
 48
50.0
100
AcDbBlockBegin
  2
*D9
 70
     1
 10
0.0
 20
0.0
 30
0.0
  3
*D9
  1

  0
LINE
  5
1A437
330
163B8
100
AcDbEntity
  8
寸法
 62
     0
 48
50.0
370
    -2
100
AcDbLine
 10
7345.497127903567
 20
7380.613520934094
 30
0.0
 11
7345.497127903567
 21
6806.182750167842
 31
0.0
  0
LINE
  5
1A438
330
163B8
100
AcDbEntity
  8
寸法
 62
     0
 48
50.0
370
    -2
100
AcDbLine
 10
7297.497127903565
 20
7406.613520934006
 30
0.0
 11
7297.497127903565
 21
6806.182750167842
 31
0.0
  0
LINE
  5
1A439
330
163B8
100
AcDbEntity
  8
寸法
 62
     0
 48
50.0
370
    -2
100
AcDbLine
 10
7345.497127903567
 20
6866.182750167841
 30
0.0
 11
7445.497127903568
 21
6866.182750167841
 31
0.0
  0
LINE
  5
1A43A
330
163B8
100
AcDbEntity
  8
寸法
 62
     0
 48
50.0
370
    -2
100
AcDbLine
 10
7297.497127903565
 20
6866.182750167841
 30
0.0
 11
7197.497127903566
 21
6866.182750167841
 31
0.0
  0
MTEXT
  5
1A43B
330
163B8
100
AcDbEntity
  8
寸法
 62
     7
 48
50.0
100
AcDbMText
 10
7186.534230254818
 20
6966.182750167842
 30
0.0
 40
120.0
 41
0.0
 71
     5
 72
     1
  1
\A1;48
  7
STYLE1
 73
     1
 44
1.0
1001
ACAD
1000
MTEXTBEGIN
1070
    73
1070
     1
1070
    44
1040
1.0
1070
    74
1070
     0
1000
MTEXTEND
  0
LINE
  5
1A43C
330
163B8
100
AcDbEntity
  8
寸法
 62
     0
 48
50.0
370
    -2
100
AcDbLine
 10
7345.497127903567
 20
6866.182750167841
 30
0.0
 11
7297.497127903565
 21
6866.182750167841
 31
0.0
  0
INSERT
  5
1A43D
330
163B8
100
AcDbEntity
  8
寸法
 62
     0
 48
50.0
370
    -2
100
AcDbBlockReference
  2
_DOTSMALL
 10
7345.497127903567
 20
6866.182750167841
 30
0.0
 41
100.0
 42
100.0
 43
100.0
 50
180.0
  0
INSERT
  5
1A43E
330
163B8
100
AcDbEntity
  8
寸法
 62
     0
 48
50.0
370
    -2
100
AcDbBlockReference
  2
_DOTSMALL
 10
7297.497127903565
 20
6866.182750167841
 30
0.0
 41
100.0
 42
100.0
 43
100.0
  0
POINT
  5
1A43F
330
163B8
100
AcDbEntity
  8
DEFPOINTS
 62
     0
 48
50.0
100
AcDbPoint
 10
7345.497127903567
 20
7400.613520934093
 30
0.0
  0
POINT
  5
1A440
330
163B8
100
AcDbEntity
  8
DEFPOINTS
 62
     0
 48
50.0
100
AcDbPoint
 10
7297.497127903565
 20
7426.613520934006
 30
0.0
  0
POINT
  5
1A441
330
163B8
100
AcDbEntity
  8
DEFPOINTS
 62
     0
 48
50.0
100
AcDbPoint
 10
7297.497127903565
 20
6866.182750167841
 30
0.0
  0
ENDBLK
  5
1648C
330
163B8
100
AcDbEntity
  8
0
 48
50.0
100
AcDbBlockEnd
  0
BLOCK
  5
1648D
330
163C7
100
AcDbEntity
  8
0
 48
50.0
100
AcDbBlockBegin
  2
*D10
 70
     1
 10
0.0
 20
0.0
 30
0.0
  3
*D10
  1

  0
LINE
  5
1A42C
330
163C7
100
AcDbEntity
  8
寸法
 62
     0
 48
50.0
370
    -2
100
AcDbLine
 10
7400.497127903566
 20
7380.613520934097
 30
0.0
 11
7400.497127903566
 21
6806.182750167842
 31
0.0
  0
LINE
  5
1A42D
330
163C7
100
AcDbEntity
  8
寸法
 62
     0
 48
50.0
370
    -2
100
AcDbLine
 10
7345.497127903567
 20
7380.613520934094
 30
0.0
 11
7345.497127903567
 21
6806.182750167842
 31
0.0
  0
LINE
  5
1A42E
330
163C7
100
AcDbEntity
  8
寸法
 62
     0
 48
50.0
370
    -2
100
AcDbLine
 10
7345.497127903567
 20
6866.182750167843
 30
0.0
 11
7245.497127903568
 21
6866.182750167843
 31
0.0
  0
LINE
  5
1A42F
330
163C7
100
AcDbEntity
  8
寸法
 62
     0
 48
50.0
370
    -2
100
AcDbLine
 10
7400.497127903566
 20
6866.182750167843
 30
0.0
 11
7817.467690652043
 21
6866.182750167843
 31
0.0
  0
LINE
  5
1A430
330
163C7
100
AcDbEntity
  8
寸法
 62
     0
 48
50.0
370
    -2
100
AcDbLine
 10
7345.497127903567
 20
6866.182750167843
 30
0.0
 11
7400.497127903566
 21
6866.182750167843
 31
0.0
  0
INSERT
  5
1A431
330
163C7
100
AcDbEntity
  8
寸法
 62
     0
 48
50.0
370
    -2
100
AcDbBlockReference
  2
_DOTSMALL
 10
7345.497127903567
 20
6866.182750167843
 30
0.0
 41
100.0
 42
100.0
 43
100.0
  0
INSERT
  5
1A432
330
163C7
100
AcDbEntity
  8
寸法
 62
     0
 48
50.0
370
    -2
100
AcDbBlockReference
  2
_DOTSMALL
 10
7400.497127903566
 20
6866.182750167843
 30
0.0
 41
100.0
 42
100.0
 43
100.0
 50
180.0
  0
MTEXT
  5
1A433
330
163C7
100
AcDbEntity
  8
寸法
 62
     7
 48
50.0
100
AcDbMText
 10
7708.982409277803
 20
6966.182750167843
 30
0.0
 40
120.0
 41
0.0
 71
     5
 72
     1
  1
\A1;55
  7
STYLE1
 73
     1
 44
1.0
1001
ACAD
1000
MTEXTBEGIN
1070
    73
1070
     1
1070
    44
1040
1.0
1070
    74
1070
     0
1000
MTEXTEND
  0
POINT
  5
1A434
330
163C7
100
AcDbEntity
  8
DEFPOINTS
 62
     0
 48
50.0
100
AcDbPoint
 10
7400.497127903566
 20
7400.613520934097
 30
0.0
  0
POINT
  5
1A435
330
163C7
100
AcDbEntity
  8
DEFPOINTS
 62
     0
 48
50.0
100
AcDbPoint
 10
7345.497127903567
 20
7400.613520934093
 30
0.0
  0
POINT
  5
1A436
330
163C7
100
AcDbEntity
  8
DEFPOINTS
 62
     0
 48
50.0
100
AcDbPoint
 10
7345.497127903567
 20
6866.182750167843
 30
0.0
  0
ENDBLK
  5
16499
330
163C7
100
AcDbEntity
  8
0
 48
50.0
100
AcDbBlockEnd
  0
BLOCK
  5
172A1
330
163E1
100
AcDbEntity
  8
0
 48
50.0
100
AcDbBlockBegin
  2
*D11
 70
     1
 10
0.0
 20
0.0
 30
0.0
  3
*D11
  1

  0
LINE
  5
1A423
330
163E1
100
AcDbEntity
  8
寸法
 62
     0
 48
50.0
370
    -2
100
AcDbLine
 10
5665.49712790359
 20
10050.61352093401
 30
0.0
 11
5665.49712790359
 21
10306.42174055911
 31
0.0
  0
LINE
  5
1A424
330
163E1
100
AcDbEntity
  8
寸法
 62
     0
 48
50.0
370
    -2
100
AcDbLine
 10
7345.497127903591
 20
10050.6135209341
 30
0.0
 11
7345.497127903591
 21
10306.42174055911
 31
0.0
  0
LINE
  5
1A425
330
163E1
100
AcDbEntity
  8
寸法
 62
     0
 48
50.0
370
    -2
100
AcDbLine
 10
5665.49712790359
 20
10246.42174055911
 30
0.0
 11
7345.497127903591
 21
10246.42174055911
 31
0.0
  0
INSERT
  5
1A426
330
163E1
100
AcDbEntity
  8
寸法
 62
     0
 48
50.0
370
    -2
100
AcDbBlockReference
  2
_DOTSMALL
 10
5665.49712790359
 20
10246.42174055911
 30
0.0
 41
100.0
 42
100.0
 43
100.0
 50
180.0
  0
INSERT
  5
1A427
330
163E1
100
AcDbEntity
  8
寸法
 62
     0
 48
50.0
370
    -2
100
AcDbBlockReference
  2
_DOTSMALL
 10
7345.497127903591
 20
10246.42174055911
 30
0.0
 41
100.0
 42
100.0
 43
100.0
  0
MTEXT
  5
1A428
330
163E1
100
AcDbEntity
  8
寸法
 62
     7
 48
50.0
100
AcDbMText
 10
6505.497127903591
 20
10346.43355158273
 30
0.0
 40
120.0
 41
0.0
 71
     5
 72
     1
  1
\A1;4X420=1680
  7
STYLE1
 73
     1
 44
1.0
1001
ACAD
1000
MTEXTBEGIN
1070
    73
1070
     1
1070
    44
1040
1.0
1070
    74
1070
     0
1000
MTEXTEND
  0
POINT
  5
1A429
330
163E1
100
AcDbEntity
  8
DEFPOINTS
 62
     0
 48
50.0
100
AcDbPoint
 10
5665.49712790359
 20
10030.61352093401
 30
0.0
  0
POINT
  5
1A42A
330
163E1
100
AcDbEntity
  8
DEFPOINTS
 62
     0
 48
50.0
100
AcDbPoint
 10
7345.497127903591
 20
10030.6135209341
 30
0.0
  0
POINT
  5
1A42B
330
163E1
100
AcDbEntity
  8
DEFPOINTS
 62
     0
 48
50.0
100
AcDbPoint
 10
7345.497127903591
 20
10246.42174055911
 30
0.0
  0
ENDBLK
  5
172AB
330
163E1
100
AcDbEntity
  8
0
 48
50.0
100
AcDbBlockEnd
  0
BLOCK
  5
164B0
330
163ED
100
AcDbEntity
  8
0
 48
50.0
100
AcDbBlockBegin
  2
*D12
 70
     1
 10
0.0
 20
0.0
 30
0.0
  3
*D12
  1

  0
LINE
  5
1A418
330
163ED
100
AcDbEntity
  8
寸法
 62
     0
 48
50.0
370
    -2
100
AcDbLine
 10
3820.497127903556
 20
10050.61352093401
 30
0.0
 11
3820.497127903556
 21
10306.42174055899
 31
0.0
  0
LINE
  5
1A419
330
163ED
100
AcDbEntity
  8
寸法
 62
     0
 48
50.0
370
    -2
100
AcDbLine
 10
3875.49712790359
 20
10050.61352093401
 30
0.0
 11
3875.49712790359
 21
10306.42174055899
 31
0.0
  0
LINE
  5
1A41A
330
163ED
100
AcDbEntity
  8
寸法
 62
     0
 48
50.0
370
    -2
100
AcDbLine
 10
3875.49712790359
 20
10246.42174055899
 30
0.0
 11
3975.49712790359
 21
10246.42174055899
 31
0.0
  0
LINE
  5
1A41B
330
163ED
100
AcDbEntity
  8
寸法
 62
     0
 48
50.0
370
    -2
100
AcDbLine
 10
3820.497127903556
 20
10246.42174055899
 30
0.0
 11
3403.526565155078
 21
10246.42174055899
 31
0.0
  0
LINE
  5
1A41C
330
163ED
100
AcDbEntity
  8
寸法
 62
     0
 48
50.0
370
    -2
100
AcDbLine
 10
3875.49712790359
 20
10246.42174055899
 30
0.0
 11
3820.497127903556
 21
10246.42174055899
 31
0.0
  0
INSERT
  5
1A41D
330
163ED
100
AcDbEntity
  8
寸法
 62
     0
 48
50.0
370
    -2
100
AcDbBlockReference
  2
_DOTSMALL
 10
3875.49712790359
 20
10246.42174055899
 30
0.0
 41
100.0
 42
100.0
 43
100.0
 50
180.0
  0
INSERT
  5
1A41E
330
163ED
100
AcDbEntity
  8
寸法
 62
     0
 48
50.0
370
    -2
100
AcDbBlockReference
  2
_DOTSMALL
 10
3820.497127903556
 20
10246.42174055899
 30
0.0
 41
100.0
 42
100.0
 43
100.0
  0
MTEXT
  5
1A41F
330
163ED
100
AcDbEntity
  8
寸法
 62
     7
 48
50.0
100
AcDbMText
 10
3512.011846529316
 20
10346.42174055899
 30
0.0
 40
120.0
 41
0.0
 71
     5
 72
     1
  1
\A1;55
  7
STYLE1
 73
     1
 44
1.0
1001
ACAD
1000
MTEXTBEGIN
1070
    73
1070
     1
1070
    44
1040
1.0
1070
    74
1070
     0
1000
MTEXTEND
  0
POINT
  5
1A420
330
163ED
100
AcDbEntity
  8
DEFPOINTS
 62
     0
 48
50.0
100
AcDbPoint
 10
3820.497127903556
 20
10030.61352093401
 30
0.0
  0
POINT
  5
1A421
330
163ED
100
AcDbEntity
  8
DEFPOINTS
 62
     0
 48
50.0
100
AcDbPoint
 10
3875.49712790359
 20
10030.61352093401
 30
0.0
  0
POINT
  5
1A422
330
163ED
100
AcDbEntity
  8
DEFPOINTS
 62
     0
 48
50.0
100
AcDbPoint
 10
3875.49712790359
 20
10246.42174055899
 30
0.0
  0
ENDBLK
  5
164BC
330
163ED
100
AcDbEntity
  8
0
 48
50.0
100
AcDbBlockEnd
  0
BLOCK
  5
164BD
330
163FB
100
AcDbEntity
  8
0
 48
50.0
100
AcDbBlockBegin
  2
*D13
 70
     1
 10
0.0
 20
0.0
 30
0.0
  3
*D13
  1

  0
LINE
  5
1A40D
330
163FB
100
AcDbEntity
  8
寸法
 62
     0
 48
50.0
370
    -2
100
AcDbLine
 10
7345.497127903591
 20
10050.6135209341
 30
0.0
 11
7345.497127903591
 21
10306.42174055909
 31
0.0
  0
LINE
  5
1A40E
330
163FB
100
AcDbEntity
  8
寸法
 62
     0
 48
50.0
370
    -2
100
AcDbLine
 10
7400.497127903591
 20
10050.6135209341
 30
0.0
 11
7400.497127903591
 21
10306.42174055909
 31
0.0
  0
LINE
  5
1A40F
330
163FB
100
AcDbEntity
  8
寸法
 62
     0
 48
50.0
370
    -2
100
AcDbLine
 10
7345.497127903591
 20
10246.42174055909
 30
0.0
 11
7245.497127903592
 21
10246.42174055909
 31
0.0
  0
LINE
  5
1A410
330
163FB
100
AcDbEntity
  8
寸法
 62
     0
 48
50.0
370
    -2
100
AcDbLine
 10
7400.497127903591
 20
10246.42174055909
 30
0.0
 11
7817.467690652069
 21
10246.42174055909
 31
0.0
  0
LINE
  5
1A411
330
163FB
100
AcDbEntity
  8
寸法
 62
     0
 48
50.0
370
    -2
100
AcDbLine
 10
7345.497127903591
 20
10246.42174055909
 30
0.0
 11
7400.497127903591
 21
10246.42174055909
 31
0.0
  0
INSERT
  5
1A412
330
163FB
100
AcDbEntity
  8
寸法
 62
     0
 48
50.0
370
    -2
100
AcDbBlockReference
  2
_DOTSMALL
 10
7345.497127903591
 20
10246.42174055909
 30
0.0
 41
100.0
 42
100.0
 43
100.0
  0
INSERT
  5
1A413
330
163FB
100
AcDbEntity
  8
寸法
 62
     0
 48
50.0
370
    -2
100
AcDbBlockReference
  2
_DOTSMALL
 10
7400.497127903591
 20
10246.42174055909
 30
0.0
 41
100.0
 42
100.0
 43
100.0
 50
180.0
  0
MTEXT
  5
1A414
330
163FB
100
AcDbEntity
  8
寸法
 62
     7
 48
50.0
100
AcDbMText
 10
7708.982409277829
 20
10346.42174055909
 30
0.0
 40
120.0
 41
0.0
 71
     5
 72
     1
  1
\A1;55
  7
STYLE1
 73
     1
 44
1.0
1001
ACAD
1000
MTEXTBEGIN
1070
    73
1070
     1
1070
    44
1040
1.0
1070
    74
1070
     0
1000
MTEXTEND
  0
POINT
  5
1A415
330
163FB
100
AcDbEntity
  8
DEFPOINTS
 62
     0
 48
50.0
100
AcDbPoint
 10
7345.497127903591
 20
10030.6135209341
 30
0.0
  0
POINT
  5
1A416
330
163FB
100
AcDbEntity
  8
DEFPOINTS
 62
     0
 48
50.0
100
AcDbPoint
 10
7400.497127903591
 20
10030.6135209341
 30
0.0
  0
POINT
  5
1A417
330
163FB
100
AcDbEntity
  8
DEFPOINTS
 62
     0
 48
50.0
100
AcDbPoint
 10
7400.497127903591
 20
10246.42174055909
 30
0.0
  0
ENDBLK
  5
164C9
330
163FB
100
AcDbEntity
  8
0
 48
50.0
100
AcDbBlockEnd
  0
BLOCK
  5
165B6
330
165B5
100
AcDbEntity
  8
0
 48
50.0
100
AcDbBlockBegin
  2
*D14
 70
     1
 10
0.0
 20
0.0
 30
0.0
  3
*D14
  1

  0
LINE
  5
1A3F7
330
165B5
100
AcDbEntity
  8
寸法
 62
     0
 48
50.0
370
    -2
100
AcDbLine
 10
3923.497127903584
 20
7406.613520934006
 30
0.0
 11
3923.497127903584
 21
6806.182750167842
 31
0.0
  0
LINE
  5
1A3F8
330
165B5
100
AcDbEntity
  8
寸法
 62
     0
 48
50.0
370
    -2
100
AcDbLine
 10
3875.49712790358
 20
7380.613520934005
 30
0.0
 11
3875.49712790358
 21
6806.182750167842
 31
0.0
  0
LINE
  5
1A3F9
330
165B5
100
AcDbEntity
  8
寸法
 62
     0
 48
50.0
370
    -2
100
AcDbLine
 10
3923.497127903584
 20
6866.182750167841
 30
0.0
 11
4023.497127903584
 21
6866.182750167841
 31
0.0
  0
LINE
  5
1A3FA
330
165B5
100
AcDbEntity
  8
寸法
 62
     0
 48
50.0
370
    -2
100
AcDbLine
 10
3875.49712790358
 20
6866.182750167841
 30
0.0
 11
3775.49712790358
 21
6866.182750167841
 31
0.0
  0
MTEXT
  5
1A3FB
330
165B5
100
AcDbEntity
  8
寸法
 62
     7
 48
50.0
100
AcDbMText
 10
4036.399098903641
 20
6966.182750167842
 30
0.0
 40
120.0
 41
0.0
 71
     5
 72
     1
  1
\A1;48
  7
STYLE1
 73
     1
 44
1.0
1001
ACAD
1000
MTEXTBEGIN
1070
    73
1070
     1
1070
    44
1040
1.0
1070
    74
1070
     0
1000
MTEXTEND
  0
LINE
  5
1A3FC
330
165B5
100
AcDbEntity
  8
寸法
 62
     0
 48
50.0
370
    -2
100
AcDbLine
 10
3923.497127903584
 20
6866.182750167841
 30
0.0
 11
3875.49712790358
 21
6866.182750167841
 31
0.0
  0
INSERT
  5
1A3FD
330
165B5
100
AcDbEntity
  8
寸法
 62
     0
 48
50.0
370
    -2
100
AcDbBlockReference
  2
_DOTSMALL
 10
3923.497127903584
 20
6866.182750167841
 30
0.0
 41
100.0
 42
100.0
 43
100.0
 50
180.0
  0
INSERT
  5
1A3FE
330
165B5
100
AcDbEntity
  8
寸法
 62
     0
 48
50.0
370
    -2
100
AcDbBlockReference
  2
_DOTSMALL
 10
3875.49712790358
 20
6866.182750167841
 30
0.0
 41
100.0
 42
100.0
 43
100.0
  0
POINT
  5
1A3FF
330
165B5
100
AcDbEntity
  8
DEFPOINTS
 62
     0
 48
50.0
100
AcDbPoint
 10
3923.497127903584
 20
7426.613520934004
 30
0.0
  0
POINT
  5
1A400
330
165B5
100
AcDbEntity
  8
DEFPOINTS
 62
     0
 48
50.0
100
AcDbPoint
 10
3875.49712790358
 20
7400.613520934006
 30
0.0
  0
POINT
  5
1A401
330
165B5
100
AcDbEntity
  8
DEFPOINTS
 62
     0
 48
50.0
100
AcDbPoint
 10
3875.49712790358
 20
6866.182750167841
 30
0.0
  0
ENDBLK
  5
165C3
330
165B5
100
AcDbEntity
  8
0
 48
50.0
100
AcDbBlockEnd
  0
BLOCK
  5
165C5
330
165C4
100
AcDbEntity
  8
0
 48
50.0
100
AcDbBlockBegin
  2
*D15
 70
     1
 10
0.0
 20
0.0
 30
0.0
  3
*D15
  1

  0
LINE
  5
1A402
330
165C4
100
AcDbEntity
  8
寸法
 62
     0
 48
50.0
370
    -2
100
AcDbLine
 10
5555.497127903567
 20
7380.613520934094
 30
0.0
 11
5555.497127903567
 21
6806.182750167842
 31
0.0
  0
LINE
  5
1A403
330
165C4
100
AcDbEntity
  8
寸法
 62
     0
 48
50.0
370
    -2
100
AcDbLine
 10
5507.497127903565
 20
7406.613520934006
 30
0.0
 11
5507.497127903565
 21
6806.182750167842
 31
0.0
  0
LINE
  5
1A404
330
165C4
100
AcDbEntity
  8
寸法
 62
     0
 48
50.0
370
    -2
100
AcDbLine
 10
5555.497127903567
 20
6866.182750167841
 30
0.0
 11
5655.497127903567
 21
6866.182750167841
 31
0.0
  0
LINE
  5
1A405
330
165C4
100
AcDbEntity
  8
寸法
 62
     0
 48
50.0
370
    -2
100
AcDbLine
 10
5507.497127903565
 20
6866.182750167841
 30
0.0
 11
5407.497127903565
 21
6866.182750167841
 31
0.0
  0
MTEXT
  5
1A406
330
165C4
100
AcDbEntity
  8
寸法
 62
     7
 48
50.0
100
AcDbMText
 10
5396.534230254818
 20
6966.182750167842
 30
0.0
 40
120.0
 41
0.0
 71
     5
 72
     1
  1
\A1;48
  7
STYLE1
 73
     1
 44
1.0
1001
ACAD
1000
MTEXTBEGIN
1070
    73
1070
     1
1070
    44
1040
1.0
1070
    74
1070
     0
1000
MTEXTEND
  0
LINE
  5
1A407
330
165C4
100
AcDbEntity
  8
寸法
 62
     0
 48
50.0
370
    -2
100
AcDbLine
 10
5555.497127903567
 20
6866.182750167841
 30
0.0
 11
5507.497127903565
 21
6866.182750167841
 31
0.0
  0
INSERT
  5
1A408
330
165C4
100
AcDbEntity
  8
寸法
 62
     0
 48
50.0
370
    -2
100
AcDbBlockReference
  2
_DOTSMALL
 10
5555.497127903567
 20
6866.182750167841
 30
0.0
 41
100.0
 42
100.0
 43
100.0
 50
180.0
  0
INSERT
  5
1A409
330
165C4
100
AcDbEntity
  8
寸法
 62
     0
 48
50.0
370
    -2
100
AcDbBlockReference
  2
_DOTSMALL
 10
5507.497127903565
 20
6866.182750167841
 30
0.0
 41
100.0
 42
100.0
 43
100.0
  0
POINT
  5
1A40A
330
165C4
100
AcDbEntity
  8
DEFPOINTS
 62
     0
 48
50.0
100
AcDbPoint
 10
5555.497127903567
 20
7400.613520934093
 30
0.0
  0
POINT
  5
1A40B
330
165C4
100
AcDbEntity
  8
DEFPOINTS
 62
     0
 48
50.0
100
AcDbPoint
 10
5507.497127903565
 20
7426.613520934006
 30
0.0
  0
POINT
  5
1A40C
330
165C4
100
AcDbEntity
  8
DEFPOINTS
 62
     0
 48
50.0
100
AcDbPoint
 10
5507.497127903565
 20
6866.182750167841
 30
0.0
  0
ENDBLK
  5
165D2
330
165C4
100
AcDbEntity
  8
0
 48
50.0
100
AcDbBlockEnd
  0
BLOCK
  5
1663F
330
165EA
100
AcDbEntity
  8
0
 48
50.0
100
AcDbBlockBegin
  2
*D16
 70
     1
 10
0.0
 20
0.0
 30
0.0
  3
*D16
  1

  0
LINE
  5
1A3EE
330
165EA
100
AcDbEntity
  8
寸法
 62
     0
 48
50.0
370
    -2
100
AcDbLine
 10
5665.49712790358
 20
7380.613520934005
 30
0.0
 11
5665.49712790358
 21
6806.182750167842
 31
0.0
  0
LINE
  5
1A3EF
330
165EA
100
AcDbEntity
  8
寸法
 62
     0
 48
50.0
370
    -2
100
AcDbLine
 10
5555.497127903567
 20
7380.613520934094
 30
0.0
 11
5555.497127903567
 21
6806.182750167842
 31
0.0
  0
LINE
  5
1A3F0
330
165EA
100
AcDbEntity
  8
寸法
 62
     0
 48
50.0
370
    -2
100
AcDbLine
 10
5665.49712790358
 20
6866.182750167843
 30
0.0
 11
5555.497127903567
 21
6866.182750167843
 31
0.0
  0
MTEXT
  5
1A3F1
330
165EA
100
AcDbEntity
  8
寸法
 62
     7
 48
50.0
100
AcDbMText
 10
5610.497127903574
 20
6714.490855131611
 30
0.0
 40
120.0
 41
0.0
 71
     5
 72
     1
  1
\A1;110
  7
STYLE1
 73
     1
 44
1.0
1001
ACAD
1000
MTEXTBEGIN
1070
    73
1070
     1
1070
    44
1040
1.0
1070
    74
1070
     0
1000
MTEXTEND
  0
INSERT
  5
1A3F2
330
165EA
100
AcDbEntity
  8
寸法
 62
     0
 48
50.0
370
    -2
100
AcDbBlockReference
  2
_DOTSMALL
 10
5665.49712790358
 20
6866.182750167843
 30
0.0
 41
100.0
 42
100.0
 43
100.0
  0
INSERT
  5
1A3F3
330
165EA
100
AcDbEntity
  8
寸法
 62
     0
 48
50.0
370
    -2
100
AcDbBlockReference
  2
_DOTSMALL
 10
5555.497127903567
 20
6866.182750167843
 30
0.0
 41
100.0
 42
100.0
 43
100.0
 50
180.0
  0
POINT
  5
1A3F4
330
165EA
100
AcDbEntity
  8
DEFPOINTS
 62
     0
 48
50.0
100
AcDbPoint
 10
5665.49712790358
 20
7400.613520934006
 30
0.0
  0
POINT
  5
1A3F5
330
165EA
100
AcDbEntity
  8
DEFPOINTS
 62
     0
 48
50.0
100
AcDbPoint
 10
5555.497127903567
 20
7400.613520934093
 30
0.0
  0
POINT
  5
1A3F6
330
165EA
100
AcDbEntity
  8
DEFPOINTS
 62
     0
 48
50.0
100
AcDbPoint
 10
5555.497127903567
 20
6866.182750167843
 30
0.0
  0
ENDBLK
  5
16649
330
165EA
100
AcDbEntity
  8
0
 48
50.0
100
AcDbBlockEnd
  0
BLOCK
  5
166D0
330
166CF
100
AcDbEntity
  8
0
 48
50.0
100
AcDbBlockBegin
  2
*D17
 70
     1
 10
0.0
 20
0.0
 30
0.0
  3
*D17
  1

  0
LINE
  5
1A3E3
330
166CF
100
AcDbEntity
  8
寸法
 62
     0
 48
50.0
370
    -2
100
AcDbLine
 10
5665.49712790359
 20
10050.61352093406
 30
0.0
 11
5665.49712790359
 21
10306.42174055911
 31
0.0
  0
LINE
  5
1A3E4
330
166CF
100
AcDbEntity
  8
寸法
 62
     0
 48
50.0
370
    -2
100
AcDbLine
 10
5555.497127903591
 20
10050.61352093405
 30
0.0
 11
5555.497127903591
 21
10306.42174055911
 31
0.0
  0
LINE
  5
1A3E5
330
166CF
100
AcDbEntity
  8
寸法
 62
     0
 48
50.0
370
    -2
100
AcDbLine
 10
5665.49712790359
 20
10246.42174055911
 30
0.0
 11
5765.497127903589
 21
10246.42174055911
 31
0.0
  0
LINE
  5
1A3E6
330
166CF
100
AcDbEntity
  8
寸法
 62
     0
 48
50.0
370
    -2
100
AcDbLine
 10
5555.497127903591
 20
10246.42174055911
 30
0.0
 11
5455.497127903591
 21
10246.42174055911
 31
0.0
  0
LINE
  5
1A3E7
330
166CF
100
AcDbEntity
  8
寸法
 62
     0
 48
50.0
370
    -2
100
AcDbLine
 10
5665.49712790359
 20
10246.42174055911
 30
0.0
 11
5555.497127903591
 21
10246.42174055911
 31
0.0
  0
INSERT
  5
1A3E8
330
166CF
100
AcDbEntity
  8
寸法
 62
     0
 48
50.0
370
    -2
100
AcDbBlockReference
  2
_DOTSMALL
 10
5665.49712790359
 20
10246.42174055911
 30
0.0
 41
100.0
 42
100.0
 43
100.0
 50
180.0
  0
INSERT
  5
1A3E9
330
166CF
100
AcDbEntity
  8
寸法
 62
     0
 48
50.0
370
    -2
100
AcDbBlockReference
  2
_DOTSMALL
 10
5555.497127903591
 20
10246.42174055911
 30
0.0
 41
100.0
 42
100.0
 43
100.0
  0
MTEXT
  5
1A3EA
330
166CF
100
AcDbEntity
  8
寸法
 62
     7
 48
50.0
100
AcDbMText
 10
5610.497127903591
 20
10346.42174055911
 30
0.0
 40
120.0
 41
0.0
 71
     5
 72
     1
  1
\A1;110
  7
STYLE1
 73
     1
 44
1.0
1001
ACAD
1000
MTEXTBEGIN
1070
    73
1070
     1
1070
    44
1040
1.0
1070
    74
1070
     0
1000
MTEXTEND
  0
POINT
  5
1A3EB
330
166CF
100
AcDbEntity
  8
DEFPOINTS
 62
     0
 48
50.0
100
AcDbPoint
 10
5665.49712790359
 20
10030.61352093406
 30
0.0
  0
POINT
  5
1A3EC
330
166CF
100
AcDbEntity
  8
DEFPOINTS
 62
     0
 48
50.0
100
AcDbPoint
 10
5555.497127903591
 20
10030.61352093405
 30
0.0
  0
POINT
  5
1A3ED
330
166CF
100
AcDbEntity
  8
DEFPOINTS
 62
     0
 48
50.0
100
AcDbPoint
 10
5555.497127903591
 20
10246.42174055911
 30
0.0
  0
ENDBLK
  5
166DC
330
166CF
100
AcDbEntity
  8
0
 48
50.0
100
AcDbBlockEnd
  0
BLOCK
  5
1726C
330
16908
100
AcDbEntity
  8
0
 48
50.0
100
AcDbBlockBegin
  2
*D18
 70
     1
 10
0.0
 20
0.0
 30
0.0
  3
*D18
  1

  0
LINE
  5
1A3DB
330
16908
100
AcDbEntity
  8
寸法
 62
     0
 48
50.0
370
    -2
100
AcDbLine
 10
7400.497127903591
 20
10050.6135209341
 30
0.0
 11
7400.497127903591
 21
10555.7432141154
 31
0.0
  0
LINE
  5
1A3DC
330
16908
100
AcDbEntity
  8
寸法
 62
     0
 48
50.0
370
    -2
100
AcDbLine
 10
5610.497127903591
 20
10495.7432141154
 30
0.0
 11
7400.497127903591
 21
10495.7432141154
 31
0.0
  0
INSERT
  5
1A3DD
330
16908
100
AcDbEntity
  8
寸法
 62
     0
 48
50.0
370
    -2
100
AcDbBlockReference
  2
_DOTSMALL
 10
5610.497127903591
 20
10495.7432141154
 30
0.0
 41
100.0
 42
100.0
 43
100.0
 50
180.0
  0
INSERT
  5
1A3DE
330
16908
100
AcDbEntity
  8
寸法
 62
     0
 48
50.0
370
    -2
100
AcDbBlockReference
  2
_DOTSMALL
 10
7400.497127903591
 20
10495.7432141154
 30
0.0
 41
100.0
 42
100.0
 43
100.0
  0
MTEXT
  5
1A3DF
330
16908
100
AcDbEntity
  8
寸法
 62
     7
 48
50.0
100
AcDbMText
 10
6505.497127903591
 20
10595.7432141154
 30
0.0
 40
120.0
 41
0.0
 71
     5
 72
     1
  1
\A1;1790
  7
STYLE1
 73
     1
 44
1.0
1001
ACAD
1000
MTEXTBEGIN
1070
    73
1070
     1
1070
    44
1040
1.0
1070
    74
1070
     0
1000
MTEXTEND
  0
POINT
  5
1A3E0
330
16908
100
AcDbEntity
  8
DEFPOINTS
 62
     0
 48
50.0
100
AcDbPoint
 10
5610.497127903591
 20
10405.40965491705
 30
0.0
  0
POINT
  5
1A3E1
330
16908
100
AcDbEntity
  8
DEFPOINTS
 62
     0
 48
50.0
100
AcDbPoint
 10
7400.497127903591
 20
10030.6135209341
 30
0.0
  0
POINT
  5
1A3E2
330
16908
100
AcDbEntity
  8
DEFPOINTS
 62
     0
 48
50.0
100
AcDbPoint
 10
7400.497127903591
 20
10495.7432141154
 30
0.0
  0
ENDBLK
  5
17275
330
16908
100
AcDbEntity
  8
0
 48
50.0
100
AcDbBlockEnd
  0
BLOCK
  5
17BDC
330
17BD3
100
AcDbEntity
  8
0
 48
50.0
100
AcDbBlockBegin
  2
*D19
 70
     1
 10
0.0
 20
0.0
 30
0.0
  3
*D19
  1

  0
LINE
  5
1A3C1
330
17BD3
100
AcDbEntity
  8
寸法
 62
     0
 48
50.0
370
    -2
100
AcDbLine
 10
3923.497127903584
 20
7406.613520934006
 30
0.0
 11
3923.497127903584
 21
6806.182750167842
 31
0.0
  0
LINE
  5
1A3C2
330
17BD3
100
AcDbEntity
  8
寸法
 62
     0
 48
50.0
370
    -2
100
AcDbLine
 10
5507.497127903565
 20
6866.182750167841
 30
0.0
 11
3923.497127903584
 21
6866.182750167841
 31
0.0
  0
INSERT
  5
1A3C3
330
17BD3
100
AcDbEntity
  8
寸法
 62
     0
 48
50.0
370
    -2
100
AcDbBlockReference
  2
_DOTSMALL
 10
5507.497127903565
 20
6866.182750167841
 30
0.0
 41
100.0
 42
100.0
 43
100.0
  0
INSERT
  5
1A3C4
330
17BD3
100
AcDbEntity
  8
寸法
 62
     0
 48
50.0
370
    -2
100
AcDbBlockReference
  2
_DOTSMALL
 10
3923.497127903584
 20
6866.182750167841
 30
0.0
 41
100.0
 42
100.0
 43
100.0
 50
180.0
  0
MTEXT
  5
1A3C5
330
17BD3
100
AcDbEntity
  8
寸法
 62
     7
 48
50.0
100
AcDbMText
 10
4715.497127903574
 20
7066.182750167842
 30
0.0
 40
120.0
 41
0.0
 71
     5
 72
     1
  1
\A1;有効開口部間口\P 1584
  7
STYLE1
 73
     1
 44
1.0
1001
ACAD
1000
MTEXTBEGIN
1070
    73
1070
     1
1070
    44
1040
1.0
1070
    74
1070
     0
1000
MTEXTEND
  0
POINT
  5
1A3C6
330
17BD3
100
AcDbEntity
  8
DEFPOINTS
 62
     0
 48
50.0
100
AcDbPoint
 10
5507.497127903565
 20
7426.613520934006
 30
0.0
  0
POINT
  5
1A3C7
330
17BD3
100
AcDbEntity
  8
DEFPOINTS
 62
     0
 48
50.0
100
AcDbPoint
 10
3923.497127903584
 20
7426.613520934004
 30
0.0
  0
POINT
  5
1A3C8
330
17BD3
100
AcDbEntity
  8
DEFPOINTS
 62
     0
 48
50.0
100
AcDbPoint
 10
3923.497127903584
 20
6866.182750167841
 30
0.0
  0
ENDBLK
  5
17BDD
330
17BD3
100
AcDbEntity
  8
0
 48
50.0
100
AcDbBlockEnd
  0
BLOCK
  5
17BE8
330
17BDE
100
AcDbEntity
  8
0
 48
50.0
100
AcDbBlockBegin
  2
*D20
 70
     1
 10
0.0
 20
0.0
 30
0.0
  3
*D20
  1

  0
LINE
  5
1A3C9
330
17BDE
100
AcDbEntity
  8
寸法
 62
     0
 48
50.0
370
    -2
100
AcDbLine
 10
3875.49712790359
 20
10050.61352093401
 30
0.0
 11
3875.49712790359
 21
10306.42174055911
 31
0.0
  0
LINE
  5
1A3CA
330
17BDE
100
AcDbEntity
  8
寸法
 62
     0
 48
50.0
370
    -2
100
AcDbLine
 10
5555.497127903591
 20
10050.6135209341
 30
0.0
 11
5555.497127903591
 21
10306.42174055911
 31
0.0
  0
LINE
  5
1A3CB
330
17BDE
100
AcDbEntity
  8
寸法
 62
     0
 48
50.0
370
    -2
100
AcDbLine
 10
3875.49712790359
 20
10246.42174055911
 30
0.0
 11
5555.497127903591
 21
10246.42174055911
 31
0.0
  0
INSERT
  5
1A3CC
330
17BDE
100
AcDbEntity
  8
寸法
 62
     0
 48
50.0
370
    -2
100
AcDbBlockReference
  2
_DOTSMALL
 10
3875.49712790359
 20
10246.42174055911
 30
0.0
 41
100.0
 42
100.0
 43
100.0
 50
180.0
  0
INSERT
  5
1A3CD
330
17BDE
100
AcDbEntity
  8
寸法
 62
     0
 48
50.0
370
    -2
100
AcDbBlockReference
  2
_DOTSMALL
 10
5555.497127903591
 20
10246.42174055911
 30
0.0
 41
100.0
 42
100.0
 43
100.0
  0
MTEXT
  5
1A3CE
330
17BDE
100
AcDbEntity
  8
寸法
 62
     7
 48
50.0
100
AcDbMText
 10
4715.497127903591
 20
10346.43355158273
 30
0.0
 40
120.0
 41
0.0
 71
     5
 72
     1
  1
\A1;4X420=1680
  7
STYLE1
 73
     1
 44
1.0
1001
ACAD
1000
MTEXTBEGIN
1070
    73
1070
     1
1070
    44
1040
1.0
1070
    74
1070
     0
1000
MTEXTEND
  0
POINT
  5
1A3CF
330
17BDE
100
AcDbEntity
  8
DEFPOINTS
 62
     0
 48
50.0
100
AcDbPoint
 10
3875.49712790359
 20
10030.61352093401
 30
0.0
  0
POINT
  5
1A3D0
330
17BDE
100
AcDbEntity
  8
DEFPOINTS
 62
     0
 48
50.0
100
AcDbPoint
 10
5555.497127903591
 20
10030.6135209341
 30
0.0
  0
POINT
  5
1A3D1
330
17BDE
100
AcDbEntity
  8
DEFPOINTS
 62
     0
 48
50.0
100
AcDbPoint
 10
5555.497127903591
 20
10246.42174055911
 30
0.0
  0
ENDBLK
  5
17BE9
330
17BDE
100
AcDbEntity
  8
0
 48
50.0
100
AcDbBlockEnd
  0
BLOCK
  5
17C02
330
17BF8
100
AcDbEntity
  8
0
 48
50.0
100
AcDbBlockBegin
  2
*D21
 70
     1
 10
0.0
 20
0.0
 30
0.0
  3
*D21
  1

  0
LINE
  5
1A3D2
330
17BF8
100
AcDbEntity
  8
寸法
 62
     0
 48
50.0
370
    -2
100
AcDbLine
 10
3820.497127903556
 20
10050.61352093397
 30
0.0
 11
3820.497127903556
 21
10555.7432141154
 31
0.0
  0
LINE
  5
1A3D3
330
17BF8
100
AcDbEntity
  8
寸法
 62
     0
 48
50.0
370
    -2
100
AcDbLine
 10
5610.497127903591
 20
10425.40965491705
 30
0.0
 11
5610.497127903591
 21
10555.7432141154
 31
0.0
  0
LINE
  5
1A3D4
330
17BF8
100
AcDbEntity
  8
寸法
 62
     0
 48
50.0
370
    -2
100
AcDbLine
 10
3820.497127903556
 20
10495.7432141154
 30
0.0
 11
5610.497127903591
 21
10495.7432141154
 31
0.0
  0
INSERT
  5
1A3D5
330
17BF8
100
AcDbEntity
  8
寸法
 62
     0
 48
50.0
370
    -2
100
AcDbBlockReference
  2
_DOTSMALL
 10
3820.497127903556
 20
10495.7432141154
 30
0.0
 41
100.0
 42
100.0
 43
100.0
 50
180.0
  0
INSERT
  5
1A3D6
330
17BF8
100
AcDbEntity
  8
寸法
 62
     0
 48
50.0
370
    -2
100
AcDbBlockReference
  2
_DOTSMALL
 10
5610.497127903591
 20
10495.7432141154
 30
0.0
 41
100.0
 42
100.0
 43
100.0
  0
MTEXT
  5
1A3D7
330
17BF8
100
AcDbEntity
  8
寸法
 62
     7
 48
50.0
100
AcDbMText
 10
4715.497127903573
 20
10595.7432141154
 30
0.0
 40
120.0
 41
0.0
 71
     5
 72
     1
  1
\A1;1790
  7
STYLE1
 73
     1
 44
1.0
1001
ACAD
1000
MTEXTBEGIN
1070
    73
1070
     1
1070
    44
1040
1.0
1070
    74
1070
     0
1000
MTEXTEND
  0
POINT
  5
1A3D8
330
17BF8
100
AcDbEntity
  8
DEFPOINTS
 62
     0
 48
50.0
100
AcDbPoint
 10
3820.497127903556
 20
10030.61352093397
 30
0.0
  0
POINT
  5
1A3D9
330
17BF8
100
AcDbEntity
  8
DEFPOINTS
 62
     0
 48
50.0
100
AcDbPoint
 10
5610.497127903591
 20
10405.40965491705
 30
0.0
  0
POINT
  5
1A3DA
330
17BF8
100
AcDbEntity
  8
DEFPOINTS
 62
     0
 48
50.0
100
AcDbPoint
 10
5610.497127903591
 20
10495.7432141154
 30
0.0
  0
ENDBLK
  5
17C03
330
17BF8
100
AcDbEntity
  8
0
 48
50.0
100
AcDbBlockEnd
  0
BLOCK
  5
1914B
330
19141
100
AcDbEntity
  8
0
 48
50.0
100
AcDbBlockBegin
  2
*D22
 70
     1
 10
0.0
 20
0.0
 30
0.0
  3
*D22
  1

  0
LINE
  5
1A757
330
19141
100
AcDbEntity
  8
寸法
 62
     0
 48
50.0
370
    -2
100
AcDbLine
 10
12737.6739012932
 20
4577.931598713264
 30
0.0
 11
12737.6739012932
 21
5291.799739024185
 31
0.0
  0
LINE
  5
1A758
330
19141
100
AcDbEntity
  8
寸法
 62
     0
 48
50.0
370
    -2
100
AcDbLine
 10
9967.673901293204
 20
4632.931598713268
 30
0.0
 11
9967.673901293204
 21
5291.799739024185
 31
0.0
  0
LINE
  5
1A759
330
19141
100
AcDbEntity
  8
寸法
 62
     0
 48
50.0
370
    -2
100
AcDbLine
 10
12737.6739012932
 20
5231.799739024184
 30
0.0
 11
9967.673901293204
 21
5231.799739024184
 31
0.0
  0
INSERT
  5
1A75A
330
19141
100
AcDbEntity
  8
寸法
 62
     0
 48
50.0
370
    -2
100
AcDbBlockReference
  2
_DOTSMALL
 10
12737.6739012932
 20
5231.799739024184
 30
0.0
 41
100.0
 42
100.0
 43
100.0
  0
INSERT
  5
1A75B
330
19141
100
AcDbEntity
  8
寸法
 62
     0
 48
50.0
370
    -2
100
AcDbBlockReference
  2
_DOTSMALL
 10
9967.673901293204
 20
5231.799739024184
 30
0.0
 41
100.0
 42
100.0
 43
100.0
 50
180.0
  0
MTEXT
  5
1A75C
330
19141
100
AcDbEntity
  8
寸法
 62
     7
 48
50.0
100
AcDbMText
 10
11352.6739012932
 20
5331.811550047806
 30
0.0
 40
120.0
 41
0.0
 71
     5
 72
     1
  1
\A1;2770
  7
STYLE1
 73
     1
 44
1.0
1001
ACAD
1000
MTEXTBEGIN
1070
    73
1070
     1
1070
    44
1040
1.0
1070
    74
1070
     0
1000
MTEXTEND
  0
POINT
  5
1A75D
330
19141
100
AcDbEntity
  8
DEFPOINTS
 62
     0
 48
50.0
100
AcDbPoint
 10
12737.6739012932
 20
4557.931598713263
 30
0.0
  0
POINT
  5
1A75E
330
19141
100
AcDbEntity
  8
DEFPOINTS
 62
     0
 48
50.0
100
AcDbPoint
 10
9967.673901293204
 20
4612.931598713267
 30
0.0
  0
POINT
  5
1A75F
330
19141
100
AcDbEntity
  8
DEFPOINTS
 62
     0
 48
50.0
100
AcDbPoint
 10
9967.673901293204
 20
5231.799739024184
 30
0.0
  0
ENDBLK
  5
1914C
330
19141
100
AcDbEntity
  8
0
 48
50.0
100
AcDbBlockEnd
  0
BLOCK
  5
19159
330
1914D
100
AcDbEntity
  8
0
 48
50.0
100
AcDbBlockBegin
  2
*D23
 70
     1
 10
0.0
 20
0.0
 30
0.0
  3
*D23
  1

  0
LINE
  5
19E48
330
1914D
100
AcDbEntity
  8
寸法
 62
     0
 48
50.0
370
    -2
100
AcDbLine
 10
10027.6739012932
 20
4628.933216836239
 30
0.0
 11
10027.6739012932
 21
5071.589052292567
 31
0.0
  0
LINE
  5
19E49
330
1914D
100
AcDbEntity
  8
寸法
 62
     0
 48
50.0
370
    -2
100
AcDbLine
 10
9967.673901293204
 20
4632.931598713268
 30
0.0
 11
9967.673901293204
 21
5071.589052292567
 31
0.0
  0
LINE
  5
19E4A
330
1914D
100
AcDbEntity
  8
寸法
 62
     0
 48
50.0
370
    -2
100
AcDbLine
 10
10027.6739012932
 20
5011.589052292567
 30
0.0
 11
10127.6739012932
 21
5011.589052292567
 31
0.0
  0
LINE
  5
19E4B
330
1914D
100
AcDbEntity
  8
寸法
 62
     0
 48
50.0
370
    -2
100
AcDbLine
 10
9967.673901293204
 20
5011.589052292567
 30
0.0
 11
9548.398310742024
 21
5011.589052292567
 31
0.0
  0
LINE
  5
19E4C
330
1914D
100
AcDbEntity
  8
寸法
 62
     0
 48
50.0
370
    -2
100
AcDbLine
 10
10027.6739012932
 20
5011.589052292567
 30
0.0
 11
9967.673901293204
 21
5011.589052292567
 31
0.0
  0
INSERT
  5
19E4D
330
1914D
100
AcDbEntity
  8
寸法
 62
     0
 48
50.0
370
    -2
100
AcDbBlockReference
  2
_DOTSMALL
 10
10027.6739012932
 20
5011.589052292567
 30
0.0
 41
100.0
 42
100.0
 43
100.0
 50
180.0
  0
INSERT
  5
19E4E
330
1914D
100
AcDbEntity
  8
寸法
 62
     0
 48
50.0
370
    -2
100
AcDbBlockReference
  2
_DOTSMALL
 10
9967.673901293204
 20
5011.589052292567
 30
0.0
 41
100.0
 42
100.0
 43
100.0
  0
MTEXT
  5
19E4F
330
1914D
100
AcDbEntity
  8
寸法
 62
     7
 48
50.0
100
AcDbMText
 10
9658.036106017615
 20
5111.589052292567
 30
0.0
 40
120.0
 41
0.0
 71
     5
 72
     1
  1
\A1;60
  7
STYLE1
 73
     1
 44
1.0
1001
ACAD
1000
MTEXTBEGIN
1070
    73
1070
     1
1070
    44
1040
1.0
1070
    74
1070
     0
1000
MTEXTEND
  0
POINT
  5
19E50
330
1914D
100
AcDbEntity
  8
DEFPOINTS
 62
     0
 48
50.0
100
AcDbPoint
 10
10027.6739012932
 20
4608.933216836239
 30
0.0
  0
POINT
  5
19E51
330
1914D
100
AcDbEntity
  8
DEFPOINTS
 62
     0
 48
50.0
100
AcDbPoint
 10
9967.673901293204
 20
4612.931598713267
 30
0.0
  0
POINT
  5
19E52
330
1914D
100
AcDbEntity
  8
DEFPOINTS
 62
     0
 48
50.0
100
AcDbPoint
 10
9967.673901293204
 20
5011.589052292567
 30
0.0
  0
ENDBLK
  5
1915A
330
1914D
100
AcDbEntity
  8
0
 48
50.0
100
AcDbBlockEnd
  0
BLOCK
  5
19165
330
1915B
100
AcDbEntity
  8
0
 48
50.0
100
AcDbBlockBegin
  2
*D24
 70
     1
 10
0.0
 20
0.0
 30
0.0
  3
*D24
  1

  0
LINE
  5
1A760
330
1915B
100
AcDbEntity
  8
寸法
 62
     0
 48
50.0
370
    -2
100
AcDbLine
 10
12657.6739012932
 20
4579.742278324916
 30
0.0
 11
12657.6739012932
 21
5071.589052292568
 31
0.0
  0
LINE
  5
1A761
330
1915B
100
AcDbEntity
  8
寸法
 62
     0
 48
50.0
370
    -2
100
AcDbLine
 10
10027.6739012932
 20
4628.933216836239
 30
0.0
 11
10027.6739012932
 21
5071.589052292568
 31
0.0
  0
LINE
  5
1A762
330
1915B
100
AcDbEntity
  8
寸法
 62
     0
 48
50.0
370
    -2
100
AcDbLine
 10
12657.6739012932
 20
5011.589052292568
 30
0.0
 11
10027.6739012932
 21
5011.589052292568
 31
0.0
  0
INSERT
  5
1A763
330
1915B
100
AcDbEntity
  8
寸法
 62
     0
 48
50.0
370
    -2
100
AcDbBlockReference
  2
_DOTSMALL
 10
12657.6739012932
 20
5011.589052292568
 30
0.0
 41
100.0
 42
100.0
 43
100.0
  0
INSERT
  5
1A764
330
1915B
100
AcDbEntity
  8
寸法
 62
     0
 48
50.0
370
    -2
100
AcDbBlockReference
  2
_DOTSMALL
 10
10027.6739012932
 20
5011.589052292568
 30
0.0
 41
100.0
 42
100.0
 43
100.0
 50
180.0
  0
MTEXT
  5
1A765
330
1915B
100
AcDbEntity
  8
寸法
 62
     7
 48
50.0
100
AcDbMText
 10
11342.6739012932
 20
5111.600863316191
 30
0.0
 40
120.0
 41
0.0
 71
     5
 72
     1
  1
\A1;柱外寸法2630
  7
STYLE1
 73
     1
 44
1.0
1001
ACAD
1000
MTEXTBEGIN
1070
    73
1070
     1
1070
    44
1040
1.0
1070
    74
1070
     0
1000
MTEXTEND
  0
POINT
  5
1A766
330
1915B
100
AcDbEntity
  8
DEFPOINTS
 62
     0
 48
50.0
100
AcDbPoint
 10
12657.6739012932
 20
4559.742278324915
 30
0.0
  0
POINT
  5
1A767
330
1915B
100
AcDbEntity
  8
DEFPOINTS
 62
     0
 48
50.0
100
AcDbPoint
 10
10027.6739012932
 20
4608.933216836239
 30
0.0
  0
POINT
  5
1A768
330
1915B
100
AcDbEntity
  8
DEFPOINTS
 62
     0
 48
50.0
100
AcDbPoint
 10
10027.6739012932
 20
5011.589052292568
 30
0.0
  0
ENDBLK
  5
19166
330
1915B
100
AcDbEntity
  8
0
 48
50.0
100
AcDbBlockEnd
  0
BLOCK
  5
19173
330
19167
100
AcDbEntity
  8
0
 48
50.0
100
AcDbBlockBegin
  2
*D25
 70
     1
 10
0.0
 20
0.0
 30
0.0
  3
*D25
  1

  0
LINE
  5
19E34
330
19167
100
AcDbEntity
  8
寸法
 62
     0
 48
50.0
370
    -2
100
AcDbLine
 10
10007.6739012932
 20
2587.931598713263
 30
0.0
 11
9123.923772109945
 21
2587.931598713263
 31
0.0
  0
LINE
  5
19E35
330
19167
100
AcDbEntity
  8
寸法
 62
     0
 48
50.0
370
    -2
100
AcDbLine
 10
9952.673901293206
 20
2537.931598713262
 30
0.0
 11
9123.923772109945
 21
2537.931598713263
 31
0.0
  0
LINE
  5
19E36
330
19167
100
AcDbEntity
  8
寸法
 62
     0
 48
50.0
370
    -2
100
AcDbLine
 10
9183.923772109945
 20
2587.931598713263
 30
0.0
 11
9183.923772109945
 21
2687.931598713263
 31
0.0
  0
LINE
  5
19E37
330
19167
100
AcDbEntity
  8
寸法
 62
     0
 48
50.0
370
    -2
100
AcDbLine
 10
9183.923772109945
 20
2537.931598713263
 30
0.0
 11
9183.923772109945
 21
2125.837110524283
 31
0.0
  0
LINE
  5
19E38
330
19167
100
AcDbEntity
  8
寸法
 62
     0
 48
50.0
370
    -2
100
AcDbLine
 10
9183.923772109945
 20
2587.931598713263
 30
0.0
 11
9183.923772109945
 21
2537.931598713263
 31
0.0
  0
INSERT
  5
19E39
330
19167
100
AcDbEntity
  8
寸法
 62
     0
 48
50.0
370
    -2
100
AcDbBlockReference
  2
_DOTSMALL
 10
9183.923772109945
 20
2587.931598713263
 30
0.0
 41
100.0
 42
100.0
 43
100.0
 50
270.0
  0
INSERT
  5
19E3A
330
19167
100
AcDbEntity
  8
寸法
 62
     0
 48
50.0
370
    -2
100
AcDbBlockReference
  2
_DOTSMALL
 10
9183.923772109945
 20
2537.931598713263
 30
0.0
 41
100.0
 42
100.0
 43
100.0
 50
90.0
  0
MTEXT
  5
19E3B
330
19167
100
AcDbEntity
  8
寸法
 62
     7
 48
50.0
100
AcDbMText
 10
9083.923772109946
 20
2231.884354618772
 30
0.0
 40
120.0
 41
0.0
 71
     5
 72
     1
  1
\A1;50
  7
STYLE1
 11
0.0000000000000001
 21
1.0
 31
0.0
 73
     1
 44
1.0
1001
ACAD
1000
MTEXTBEGIN
1070
    73
1070
     1
1070
    44
1040
1.0
1070
    74
1070
     0
1000
MTEXTEND
  0
POINT
  5
19E3C
330
19167
100
AcDbEntity
  8
DEFPOINTS
 62
     0
 48
50.0
100
AcDbPoint
 10
10027.6739012932
 20
2587.931598713263
 30
0.0
  0
POINT
  5
19E3D
330
19167
100
AcDbEntity
  8
DEFPOINTS
 62
     0
 48
50.0
100
AcDbPoint
 10
9972.673901293205
 20
2537.931598713262
 30
0.0
  0
POINT
  5
19E3E
330
19167
100
AcDbEntity
  8
DEFPOINTS
 62
     0
 48
50.0
100
AcDbPoint
 10
9183.923772109945
 20
2537.931598713263
 30
0.0
  0
ENDBLK
  5
19174
330
19167
100
AcDbEntity
  8
0
 48
50.0
100
AcDbBlockEnd
  0
BLOCK
  5
1917F
330
19175
100
AcDbEntity
  8
0
 48
50.0
100
AcDbBlockBegin
  2
*D26
 70
     1
 10
0.0
 20
0.0
 30
0.0
  3
*D26
  1

  0
LINE
  5
19E2B
330
19175
100
AcDbEntity
  8
寸法
 62
     0
 48
50.0
370
    -2
100
AcDbLine
 10
12677.6739012932
 20
2537.931598713264
 30
0.0
 11
13422.60105926533
 21
2537.931598713264
 31
0.0
  0
LINE
  5
19E2C
330
19175
100
AcDbEntity
  8
寸法
 62
     0
 48
50.0
370
    -2
100
AcDbLine
 10
12757.6739012932
 20
4557.931598713263
 30
0.0
 11
13422.60105926533
 21
4557.931598713263
 31
0.0
  0
LINE
  5
19E2D
330
19175
100
AcDbEntity
  8
寸法
 62
     0
 48
50.0
370
    -2
100
AcDbLine
 10
13362.60105926533
 20
2537.931598713264
 30
0.0
 11
13362.60105926533
 21
4557.931598713263
 31
0.0
  0
INSERT
  5
19E2E
330
19175
100
AcDbEntity
  8
寸法
 62
     0
 48
50.0
370
    -2
100
AcDbBlockReference
  2
_DOTSMALL
 10
13362.60105926533
 20
2537.931598713264
 30
0.0
 41
100.0
 42
100.0
 43
100.0
 50
270.0
  0
INSERT
  5
19E2F
330
19175
100
AcDbEntity
  8
寸法
 62
     0
 48
50.0
370
    -2
100
AcDbBlockReference
  2
_DOTSMALL
 10
13362.60105926533
 20
4557.931598713263
 30
0.0
 41
100.0
 42
100.0
 43
100.0
 50
90.0
  0
MTEXT
  5
19E30
330
19175
100
AcDbEntity
  8
寸法
 62
     7
 48
50.0
100
AcDbMText
 10
13262.58924824171
 20
3547.931598713266
 30
0.0
 40
120.0
 41
0.0
 71
     5
 72
     1
  1
\A1;2020
  7
STYLE1
 11
0.0000000000000001
 21
1.0
 31
0.0
 73
     1
 44
1.0
1001
ACAD
1000
MTEXTBEGIN
1070
    73
1070
     1
1070
    44
1040
1.0
1070
    74
1070
     0
1000
MTEXTEND
  0
POINT
  5
19E31
330
19175
100
AcDbEntity
  8
DEFPOINTS
 62
     0
 48
50.0
100
AcDbPoint
 10
12657.6739012932
 20
2537.931598713264
 30
0.0
  0
POINT
  5
19E32
330
19175
100
AcDbEntity
  8
DEFPOINTS
 62
     0
 48
50.0
100
AcDbPoint
 10
12737.6739012932
 20
4557.931598713263
 30
0.0
  0
POINT
  5
19E33
330
19175
100
AcDbEntity
  8
DEFPOINTS
 62
     0
 48
50.0
100
AcDbPoint
 10
13362.60105926533
 20
4557.931598713263
 30
0.0
  0
ENDBLK
  5
19180
330
19175
100
AcDbEntity
  8
0
 48
50.0
100
AcDbBlockEnd
  0
BLOCK
  5
1918B
330
19181
100
AcDbEntity
  8
0
 48
50.0
100
AcDbBlockBegin
  2
*D27
 70
     1
 10
0.0
 20
0.0
 30
0.0
  3
*D27
  1

  0
LINE
  5
19E22
330
19181
100
AcDbEntity
  8
寸法
 62
     0
 48
50.0
370
    -2
100
AcDbLine
 10
10007.6739012932
 20
2537.931598713257
 30
0.0
 11
8823.923772109944
 21
2537.931598713257
 31
0.0
  0
LINE
  5
19E23
330
19181
100
AcDbEntity
  8
寸法
 62
     0
 48
50.0
370
    -2
100
AcDbLine
 10
9947.673901293207
 20
4612.931598713262
 30
0.0
 11
8823.923772109946
 21
4612.931598713262
 31
0.0
  0
LINE
  5
19E24
330
19181
100
AcDbEntity
  8
寸法
 62
     0
 48
50.0
370
    -2
100
AcDbLine
 10
8883.923772109943
 20
2537.931598713257
 30
0.0
 11
8883.923772109945
 21
4612.931598713262
 31
0.0
  0
INSERT
  5
19E25
330
19181
100
AcDbEntity
  8
寸法
 62
     0
 48
50.0
370
    -2
100
AcDbBlockReference
  2
_DOTSMALL
 10
8883.923772109943
 20
2537.931598713257
 30
0.0
 41
100.0
 42
100.0
 43
100.0
 50
270.0
  0
INSERT
  5
19E26
330
19181
100
AcDbEntity
  8
寸法
 62
     0
 48
50.0
370
    -2
100
AcDbBlockReference
  2
_DOTSMALL
 10
8883.923772109945
 20
4612.931598713262
 30
0.0
 41
100.0
 42
100.0
 43
100.0
 50
90.0
  0
MTEXT
  5
19E27
330
19181
100
AcDbEntity
  8
寸法
 62
     7
 48
50.0
100
AcDbMText
 10
8783.911961086323
 20
3575.431598713261
 30
0.0
 40
120.0
 41
0.0
 71
     5
 72
     1
  1
\A1;2075
  7
STYLE1
 11
0.0000000000000001
 21
1.0
 31
0.0
 73
     1
 44
1.0
1001
ACAD
1000
MTEXTBEGIN
1070
    73
1070
     1
1070
    44
1040
1.0
1070
    74
1070
     0
1000
MTEXTEND
  0
POINT
  5
19E28
330
19181
100
AcDbEntity
  8
DEFPOINTS
 62
     0
 48
50.0
100
AcDbPoint
 10
10027.6739012932
 20
2537.931598713257
 30
0.0
  0
POINT
  5
19E29
330
19181
100
AcDbEntity
  8
DEFPOINTS
 62
     0
 48
50.0
100
AcDbPoint
 10
9967.673901293204
 20
4612.931598713262
 30
0.0
  0
POINT
  5
19E2A
330
19181
100
AcDbEntity
  8
DEFPOINTS
 62
     0
 48
50.0
100
AcDbPoint
 10
8883.923772109945
 20
4612.931598713262
 30
0.0
  0
ENDBLK
  5
1918C
330
19181
100
AcDbEntity
  8
0
 48
50.0
100
AcDbBlockEnd
  0
BLOCK
  5
19197
330
1918D
100
AcDbEntity
  8
0
 48
50.0
100
AcDbBlockBegin
  2
*D28
 70
     1
 10
0.0
 20
0.0
 30
0.0
  3
*D28
  1

  0
LINE
  5
19E19
330
1918D
100
AcDbEntity
  8
寸法
 62
     0
 48
50.0
370
    -2
100
AcDbLine
 10
10007.6739012932
 20
4377.931598713258
 30
0.0
 11
9123.923772109947
 21
4377.931598713258
 31
0.0
  0
LINE
  5
19E1A
330
1918D
100
AcDbEntity
  8
寸法
 62
     0
 48
50.0
370
    -2
100
AcDbLine
 10
10007.6739012932
 20
2587.931598713257
 30
0.0
 11
9123.923772109945
 21
2587.931598713257
 31
0.0
  0
LINE
  5
19E1B
330
1918D
100
AcDbEntity
  8
寸法
 62
     0
 48
50.0
370
    -2
100
AcDbLine
 10
9183.923772109947
 20
4377.931598713258
 30
0.0
 11
9183.923772109945
 21
2587.931598713257
 31
0.0
  0
INSERT
  5
19E1C
330
1918D
100
AcDbEntity
  8
寸法
 62
     0
 48
50.0
370
    -2
100
AcDbBlockReference
  2
_DOTSMALL
 10
9183.923772109947
 20
4377.931598713258
 30
0.0
 41
100.0
 42
100.0
 43
100.0
 50
90.0
  0
INSERT
  5
19E1D
330
1918D
100
AcDbEntity
  8
寸法
 62
     0
 48
50.0
370
    -2
100
AcDbBlockReference
  2
_DOTSMALL
 10
9183.923772109945
 20
2587.931598713257
 30
0.0
 41
100.0
 42
100.0
 43
100.0
 50
270.0
  0
MTEXT
  5
19E1E
330
1918D
100
AcDbEntity
  8
寸法
 62
     7
 48
50.0
100
AcDbMText
 10
9083.923772109946
 20
3482.931598713259
 30
0.0
 40
120.0
 41
0.0
 71
     5
 72
     1
  1
\A1;1790
  7
STYLE1
 11
0.0000000000000001
 21
1.0
 31
0.0
 73
     1
 44
1.0
1001
ACAD
1000
MTEXTBEGIN
1070
    73
1070
     1
1070
    44
1040
1.0
1070
    74
1070
     0
1000
MTEXTEND
  0
POINT
  5
19E1F
330
1918D
100
AcDbEntity
  8
DEFPOINTS
 62
     0
 48
50.0
100
AcDbPoint
 10
10027.6739012932
 20
4377.931598713258
 30
0.0
  0
POINT
  5
19E20
330
1918D
100
AcDbEntity
  8
DEFPOINTS
 62
     0
 48
50.0
100
AcDbPoint
 10
10027.6739012932
 20
2587.931598713257
 30
0.0
  0
POINT
  5
19E21
330
1918D
100
AcDbEntity
  8
DEFPOINTS
 62
     0
 48
50.0
100
AcDbPoint
 10
9183.923772109945
 20
2587.931598713257
 30
0.0
  0
ENDBLK
  5
19198
330
1918D
100
AcDbEntity
  8
0
 48
50.0
100
AcDbBlockEnd
  0
BLOCK
  5
192CE
330
192C3
100
AcDbEntity
  8
0
 48
50.0
100
AcDbBlockBegin
  2
*D29
 70
     1
 10
0.0
 20
0.0
 30
0.0
  3
*D29
  1

  0
LINE
  5
19E66
330
192C3
100
AcDbEntity
  8
寸法
 62
     0
 48
50.0
370
    -2
100
AcDbLine
 10
9967.078187584306
 20
4612.229305782924
 30
0.0
 11
9351.143748479021
 21
4629.943456057254
 31
0.0
  0
LINE
  5
19E67
330
192C3
100
AcDbEntity
  8
寸法
 62
     0
 48
50.0
370
    -2
100
AcDbLine
 10
9963.024732027678
 20
4471.287582017212
 30
0.0
 11
9347.090292922393
 21
4489.001732291542
 31
0.0
  0
LINE
  5
19E68
330
192C3
100
AcDbEntity
  8
寸法
 62
     0
 48
50.0
370
    -2
100
AcDbLine
 10
9407.065494524827
 20
4487.276857586594
 30
0.0
 11
9411.118950081453
 21
4628.218581352306
 31
0.0
  0
LINE
  5
19E69
330
192C3
100
AcDbEntity
  8
寸法
 62
     0
 48
50.0
370
    -2
100
AcDbLine
 10
9411.118950081453
 20
4628.218581352306
 30
0.0
 11
9421.468198311139
 21
4988.069790966892
 31
0.0
  0
INSERT
  5
19E6A
330
192C3
100
AcDbEntity
  8
寸法
 62
     0
 48
50.0
370
    -2
100
AcDbBlockReference
  2
_DOTSMALL
 10
9407.065494524827
 20
4487.276857586594
 30
0.0
 41
100.0
 42
100.0
 43
100.0
 50
268.3526390256378
  0
INSERT
  5
19E6B
330
192C3
100
AcDbEntity
  8
寸法
 62
     0
 48
50.0
370
    -2
100
AcDbBlockReference
  2
_DOTSMALL
 10
9411.118950081453
 20
4628.218581352306
 30
0.0
 41
100.0
 42
100.0
 43
100.0
 50
88.35263902563776
  0
MTEXT
  5
19E6C
330
192C3
100
AcDbEntity
  8
寸法
 62
     7
 48
50.0
100
AcDbMText
 10
9317.772300446366
 20
4860.998312003204
 30
0.0
 40
120.0
 41
0.0
 71
     5
 72
     1
  1
\A1;141
  7
STYLE1
 11
0.0287479117491237
 21
0.9995866933738488
 31
0.0
 73
     1
 44
1.0
1001
ACAD
1000
MTEXTBEGIN
1070
    73
1070
     1
1070
    44
1040
1.0
1070
    74
1070
     0
1000
MTEXTEND
  0
POINT
  5
19E6D
330
192C3
100
AcDbEntity
  8
DEFPOINTS
 62
     0
 48
50.0
100
AcDbPoint
 10
9987.069921451784
 20
4611.654347547943
 30
0.0
  0
POINT
  5
19E6E
330
192C3
100
AcDbEntity
  8
DEFPOINTS
 62
     0
 48
50.0
100
AcDbPoint
 10
9983.016465895154
 20
4470.712623782229
 30
0.0
  0
POINT
  5
19E6F
330
192C3
100
AcDbEntity
  8
DEFPOINTS
 62
     0
 48
50.0
100
AcDbPoint
 10
9407.065494524827
 20
4487.276857586594
 30
0.0
  0
ENDBLK
  5
192CF
330
192C3
100
AcDbEntity
  8
0
 48
50.0
100
AcDbBlockEnd
  0
BLOCK
  5
192DB
330
192D0
100
AcDbEntity
  8
0
 48
50.0
100
AcDbBlockBegin
  2
*D30
 70
     1
 10
0.0
 20
0.0
 30
0.0
  3
*D30
  1

  0
LINE
  5
19E5C
330
192D0
100
AcDbEntity
  8
寸法
 62
     0
 48
50.0
370
    -2
100
AcDbLine
 10
12657.6739012932
 20
4579.742278324916
 30
0.0
 11
12657.6739012932
 21
5071.589052292568
 31
0.0
  0
LINE
  5
19E5D
330
192D0
100
AcDbEntity
  8
寸法
 62
     0
 48
50.0
370
    -2
100
AcDbLine
 10
12737.6739012932
 20
4577.931598713264
 30
0.0
 11
12737.6739012932
 21
5071.589052292568
 31
0.0
  0
LINE
  5
19E5E
330
192D0
100
AcDbEntity
  8
寸法
 62
     0
 48
50.0
370
    -2
100
AcDbLine
 10
12657.6739012932
 20
5011.589052292568
 30
0.0
 11
12737.6739012932
 21
5011.589052292568
 31
0.0
  0
LINE
  5
19E5F
330
192D0
100
AcDbEntity
  8
寸法
 62
     0
 48
50.0
370
    -2
100
AcDbLine
 10
12737.6739012932
 20
5011.589052292568
 30
0.0
 11
13049.76838948218
 21
5011.589052292568
 31
0.0
  0
INSERT
  5
19E60
330
192D0
100
AcDbEntity
  8
寸法
 62
     0
 48
50.0
370
    -2
100
AcDbBlockReference
  2
_DOTSMALL
 10
12657.6739012932
 20
5011.589052292568
 30
0.0
 41
100.0
 42
100.0
 43
100.0
 50
180.0
  0
INSERT
  5
19E61
330
192D0
100
AcDbEntity
  8
寸法
 62
     0
 48
50.0
370
    -2
100
AcDbBlockReference
  2
_DOTSMALL
 10
12737.6739012932
 20
5011.589052292568
 30
0.0
 41
100.0
 42
100.0
 43
100.0
  0
MTEXT
  5
19E62
330
192D0
100
AcDbEntity
  8
寸法
 62
     7
 48
50.0
100
AcDbMText
 10
12943.72114538769
 20
5111.589052292568
 30
0.0
 40
120.0
 41
0.0
 71
     5
 72
     1
  1
\A1;80
  7
STYLE1
 73
     1
 44
1.0
1001
ACAD
1000
MTEXTBEGIN
1070
    73
1070
     1
1070
    44
1040
1.0
1070
    74
1070
     0
1000
MTEXTEND
  0
POINT
  5
19E63
330
192D0
100
AcDbEntity
  8
DEFPOINTS
 62
     0
 48
50.0
100
AcDbPoint
 10
12657.6739012932
 20
4559.742278324915
 30
0.0
  0
POINT
  5
19E64
330
192D0
100
AcDbEntity
  8
DEFPOINTS
 62
     0
 48
50.0
100
AcDbPoint
 10
12737.6739012932
 20
4557.931598713263
 30
0.0
  0
POINT
  5
19E65
330
192D0
100
AcDbEntity
  8
DEFPOINTS
 62
     0
 48
50.0
100
AcDbPoint
 10
12737.6739012932
 20
5011.589052292568
 30
0.0
  0
ENDBLK
  5
192DC
330
192D0
100
AcDbEntity
  8
0
 48
50.0
100
AcDbBlockEnd
  0
BLOCK
  5
1A2C9
330
1A2BF
100
AcDbEntity
  8
0
 48
50.0
100
AcDbBlockBegin
  2
*D31
 70
     1
 10
0.0
 20
0.0
 30
0.0
  3
*D31
  1

  0
LINE
  5
1A356
330
1A2BF
100
AcDbEntity
  8
寸法
 62
     0
 48
50.0
370
    -2
100
AcDbLine
 10
3770.497127903582
 20
4632.931598713269
 30
0.0
 11
3770.497127903582
 21
5278.566791659262
 31
0.0
  0
LINE
  5
1A357
330
1A2BF
100
AcDbEntity
  8
寸法
 62
     0
 48
50.0
370
    -2
100
AcDbLine
 10
7450.497127903584
 20
4632.931598713265
 30
0.0
 11
7450.497127903584
 21
5278.566791659262
 31
0.0
  0
LINE
  5
1A358
330
1A2BF
100
AcDbEntity
  8
寸法
 62
     0
 48
50.0
370
    -2
100
AcDbLine
 10
3770.497127903582
 20
5218.566791659261
 30
0.0
 11
7450.497127903584
 21
5218.566791659261
 31
0.0
  0
INSERT
  5
1A359
330
1A2BF
100
AcDbEntity
  8
寸法
 62
     0
 48
50.0
370
    -2
100
AcDbBlockReference
  2
_DOTSMALL
 10
3770.497127903582
 20
5218.566791659261
 30
0.0
 41
100.0
 42
100.0
 43
100.0
 50
180.0
  0
INSERT
  5
1A35A
330
1A2BF
100
AcDbEntity
  8
寸法
 62
     0
 48
50.0
370
    -2
100
AcDbBlockReference
  2
_DOTSMALL
 10
7450.497127903584
 20
5218.566791659261
 30
0.0
 41
100.0
 42
100.0
 43
100.0
  0
MTEXT
  5
1A35B
330
1A2BF
100
AcDbEntity
  8
寸法
 62
     7
 48
50.0
100
AcDbMText
 10
5610.497127903583
 20
5318.566791659261
 30
0.0
 40
120.0
 41
0.0
 71
     5
 72
     1
  1
\A1;3680
  7
STYLE1
 73
     1
 44
1.0
1001
ACAD
1000
MTEXTBEGIN
1070
    73
1070
     1
1070
    44
1040
1.0
1070
    74
1070
     0
1000
MTEXTEND
  0
POINT
  5
1A35C
330
1A2BF
100
AcDbEntity
  8
DEFPOINTS
 62
     0
 48
50.0
100
AcDbPoint
 10
3770.497127903582
 20
4612.931598713268
 30
0.0
  0
POINT
  5
1A35D
330
1A2BF
100
AcDbEntity
  8
DEFPOINTS
 62
     0
 48
50.0
100
AcDbPoint
 10
7450.497127903584
 20
4612.931598713265
 30
0.0
  0
POINT
  5
1A35E
330
1A2BF
100
AcDbEntity
  8
DEFPOINTS
 62
     0
 48
50.0
100
AcDbPoint
 10
7450.497127903584
 20
5218.566791659261
 30
0.0
  0
ENDBLK
  5
1A2CA
330
1A2BF
100
AcDbEntity
  8
0
 48
50.0
100
AcDbBlockEnd
  0
BLOCK
  5
1A2E5
330
1A2D9
100
AcDbEntity
  8
0
 48
50.0
100
AcDbBlockBegin
  2
*D32
 70
     1
 10
0.0
 20
0.0
 30
0.0
  3
*D32
  1

  0
LINE
  5
1A307
330
1A2D9
100
AcDbEntity
  8
寸法
 62
     0
 48
50.0
370
    -2
100
AcDbLine
 10
3820.497127903582
 20
4632.931598713269
 30
0.0
 11
3820.497127903582
 21
5078.657870445171
 31
0.0
  0
LINE
  5
1A308
330
1A2D9
100
AcDbEntity
  8
寸法
 62
     0
 48
50.0
370
    -2
100
AcDbLine
 10
3770.497127903582
 20
4632.931598713269
 30
0.0
 11
3770.497127903582
 21
5078.657870445171
 31
0.0
  0
LINE
  5
1A309
330
1A2D9
100
AcDbEntity
  8
寸法
 62
     0
 48
50.0
370
    -2
100
AcDbLine
 10
3820.497127903582
 20
5018.657870445171
 30
0.0
 11
3920.497127903582
 21
5018.657870445171
 31
0.0
  0
LINE
  5
1A30A
330
1A2D9
100
AcDbEntity
  8
寸法
 62
     0
 48
50.0
370
    -2
100
AcDbLine
 10
3770.497127903582
 20
5018.657870445171
 30
0.0
 11
3350.964602434846
 21
5018.657870445171
 31
0.0
  0
LINE
  5
1A30B
330
1A2D9
100
AcDbEntity
  8
寸法
 62
     0
 48
50.0
370
    -2
100
AcDbLine
 10
3820.497127903582
 20
5018.657870445171
 30
0.0
 11
3770.497127903582
 21
5018.657870445171
 31
0.0
  0
INSERT
  5
1A30C
330
1A2D9
100
AcDbEntity
  8
寸法
 62
     0
 48
50.0
370
    -2
100
AcDbBlockReference
  2
_DOTSMALL
 10
3820.497127903582
 20
5018.657870445171
 30
0.0
 41
100.0
 42
100.0
 43
100.0
 50
180.0
  0
INSERT
  5
1A30D
330
1A2D9
100
AcDbEntity
  8
寸法
 62
     0
 48
50.0
370
    -2
100
AcDbBlockReference
  2
_DOTSMALL
 10
3770.497127903582
 20
5018.657870445171
 30
0.0
 41
100.0
 42
100.0
 43
100.0
  0
MTEXT
  5
1A30E
330
1A2D9
100
AcDbEntity
  8
寸法
 62
     7
 48
50.0
100
AcDbMText
 10
3457.011846529335
 20
5118.657870445171
 30
0.0
 40
120.0
 41
0.0
 71
     5
 72
     1
  1
\A1;50
  7
STYLE1
 73
     1
 44
1.0
1001
ACAD
1000
MTEXTBEGIN
1070
    73
1070
     1
1070
    44
1040
1.0
1070
    74
1070
     0
1000
MTEXTEND
  0
POINT
  5
1A30F
330
1A2D9
100
AcDbEntity
  8
DEFPOINTS
 62
     0
 48
50.0
100
AcDbPoint
 10
3820.497127903582
 20
4612.931598713268
 30
0.0
  0
POINT
  5
1A310
330
1A2D9
100
AcDbEntity
  8
DEFPOINTS
 62
     0
 48
50.0
100
AcDbPoint
 10
3770.497127903582
 20
4612.931598713268
 30
0.0
  0
POINT
  5
1A311
330
1A2D9
100
AcDbEntity
  8
DEFPOINTS
 62
     0
 48
50.0
100
AcDbPoint
 10
3770.497127903582
 20
5018.657870445171
 30
0.0
  0
ENDBLK
  5
1A2E6
330
1A2D9
100
AcDbEntity
  8
0
 48
50.0
100
AcDbBlockEnd
  0
BLOCK
  5
1A2F1
330
1A2E7
100
AcDbEntity
  8
0
 48
50.0
100
AcDbBlockBegin
  2
*D33
 70
     1
 10
0.0
 20
0.0
 30
0.0
  3
*D33
  1

  0
LINE
  5
1A35F
330
1A2E7
100
AcDbEntity
  8
寸法
 62
     0
 48
50.0
370
    -2
100
AcDbLine
 10
7400.497127903587
 20
4632.931598713269
 30
0.0
 11
7400.497127903587
 21
5078.657870445171
 31
0.0
  0
LINE
  5
1A360
330
1A2E7
100
AcDbEntity
  8
寸法
 62
     0
 48
50.0
370
    -2
100
AcDbLine
 10
3820.497127903582
 20
4632.931598713269
 30
0.0
 11
3820.497127903582
 21
5078.657870445171
 31
0.0
  0
LINE
  5
1A361
330
1A2E7
100
AcDbEntity
  8
寸法
 62
     0
 48
50.0
370
    -2
100
AcDbLine
 10
7400.497127903587
 20
5018.657870445171
 30
0.0
 11
3820.497127903582
 21
5018.657870445171
 31
0.0
  0
INSERT
  5
1A362
330
1A2E7
100
AcDbEntity
  8
寸法
 62
     0
 48
50.0
370
    -2
100
AcDbBlockReference
  2
_DOTSMALL
 10
7400.497127903587
 20
5018.657870445171
 30
0.0
 41
100.0
 42
100.0
 43
100.0
  0
INSERT
  5
1A363
330
1A2E7
100
AcDbEntity
  8
寸法
 62
     0
 48
50.0
370
    -2
100
AcDbBlockReference
  2
_DOTSMALL
 10
3820.497127903582
 20
5018.657870445171
 30
0.0
 41
100.0
 42
100.0
 43
100.0
 50
180.0
  0
MTEXT
  5
1A364
330
1A2E7
100
AcDbEntity
  8
寸法
 62
     7
 48
50.0
100
AcDbMText
 10
5610.497127903585
 20
5118.657870445171
 30
0.0
 40
120.0
 41
0.0
 71
     5
 72
     1
  1
\A1;柱外寸法3580
  7
STYLE1
 73
     1
 44
1.0
1001
ACAD
1000
MTEXTBEGIN
1070
    73
1070
     1
1070
    44
1040
1.0
1070
    74
1070
     0
1000
MTEXTEND
  0
POINT
  5
1A365
330
1A2E7
100
AcDbEntity
  8
DEFPOINTS
 62
     0
 48
50.0
100
AcDbPoint
 10
7400.497127903587
 20
4612.931598713268
 30
0.0
  0
POINT
  5
1A366
330
1A2E7
100
AcDbEntity
  8
DEFPOINTS
 62
     0
 48
50.0
100
AcDbPoint
 10
3820.497127903582
 20
4612.931598713268
 30
0.0
  0
POINT
  5
1A367
330
1A2E7
100
AcDbEntity
  8
DEFPOINTS
 62
     0
 48
50.0
100
AcDbPoint
 10
3820.497127903582
 20
5018.657870445171
 30
0.0
  0
ENDBLK
  5
1A2F2
330
1A2E7
100
AcDbEntity
  8
0
 48
50.0
100
AcDbBlockEnd
  0
BLOCK
  5
1A334
330
1A328
100
AcDbEntity
  8
0
 48
50.0
100
AcDbBlockBegin
  2
*D34
 70
     1
 10
0.0
 20
0.0
 30
0.0
  3
*D34
  1

  0
LINE
  5
1A336
330
1A328
100
AcDbEntity
  8
寸法
 62
     0
 48
50.0
370
    -2
100
AcDbLine
 10
7450.497127903584
 20
4632.931598713265
 30
0.0
 11
7450.497127903584
 21
5078.657870445175
 31
0.0
  0
LINE
  5
1A337
330
1A328
100
AcDbEntity
  8
寸法
 62
     0
 48
50.0
370
    -2
100
AcDbLine
 10
7400.497127903587
 20
4632.931598713269
 30
0.0
 11
7400.497127903587
 21
5078.657870445175
 31
0.0
  0
LINE
  5
1A338
330
1A328
100
AcDbEntity
  8
寸法
 62
     0
 48
50.0
370
    -2
100
AcDbLine
 10
7400.497127903587
 20
5018.657870445174
 30
0.0
 11
7300.497127903587
 21
5018.657870445174
 31
0.0
  0
LINE
  5
1A339
330
1A328
100
AcDbEntity
  8
寸法
 62
     0
 48
50.0
370
    -2
100
AcDbLine
 10
7450.497127903584
 20
5018.657870445174
 30
0.0
 11
7870.029653372312
 21
5018.657870445174
 31
0.0
  0
LINE
  5
1A33A
330
1A328
100
AcDbEntity
  8
寸法
 62
     0
 48
50.0
370
    -2
100
AcDbLine
 10
7400.497127903587
 20
5018.657870445174
 30
0.0
 11
7450.497127903584
 21
5018.657870445174
 31
0.0
  0
INSERT
  5
1A33B
330
1A328
100
AcDbEntity
  8
寸法
 62
     0
 48
50.0
370
    -2
100
AcDbBlockReference
  2
_DOTSMALL
 10
7400.497127903587
 20
5018.657870445174
 30
0.0
 41
100.0
 42
100.0
 43
100.0
  0
INSERT
  5
1A33C
330
1A328
100
AcDbEntity
  8
寸法
 62
     0
 48
50.0
370
    -2
100
AcDbBlockReference
  2
_DOTSMALL
 10
7450.497127903584
 20
5018.657870445174
 30
0.0
 41
100.0
 42
100.0
 43
100.0
 50
180.0
  0
MTEXT
  5
1A33D
330
1A328
100
AcDbEntity
  8
寸法
 62
     7
 48
50.0
100
AcDbMText
 10
7763.982409277824
 20
5118.657870445175
 30
0.0
 40
120.0
 41
0.0
 71
     5
 72
     1
  1
\A1;50
  7
STYLE1
 73
     1
 44
1.0
1001
ACAD
1000
MTEXTBEGIN
1070
    73
1070
     1
1070
    44
1040
1.0
1070
    74
1070
     0
1000
MTEXTEND
  0
POINT
  5
1A33E
330
1A328
100
AcDbEntity
  8
DEFPOINTS
 62
     0
 48
50.0
100
AcDbPoint
 10
7450.497127903584
 20
4612.931598713265
 30
0.0
  0
POINT
  5
1A33F
330
1A328
100
AcDbEntity
  8
DEFPOINTS
 62
     0
 48
50.0
100
AcDbPoint
 10
7400.497127903587
 20
4612.931598713268
 30
0.0
  0
POINT
  5
1A340
330
1A328
100
AcDbEntity
  8
DEFPOINTS
 62
     0
 48
50.0
100
AcDbPoint
 10
7400.497127903587
 20
5018.657870445174
 30
0.0
  0
ENDBLK
  5
1A335
330
1A328
100
AcDbEntity
  8
0
 48
50.0
100
AcDbBlockEnd
  0
BLOCK
  5
1A679
330
1A66E
100
AcDbEntity
  8
0
 48
50.0
100
AcDbBlockBegin
  2
*D35
 70
     1
 10
0.0
 20
0.0
 30
0.0
  3
*D35
  1

  0
LINE
  5
1A795
330
1A66E
100
AcDbEntity
  8
寸法
 62
     0
 48
50.0
370
    -2
100
AcDbLine
 10
7420.497127903582
 20
4212.931598713261
 30
0.0
 11
7748.040230225331
 21
4212.931598713261
 31
0.0
  0
LINE
  5
1A796
330
1A66E
100
AcDbEntity
  8
寸法
 62
     0
 48
50.0
370
    -2
100
AcDbLine
 10
7420.497127903583
 20
4377.931598713261
 30
0.0
 11
7748.040230225331
 21
4377.931598713261
 31
0.0
  0
LINE
  5
1A797
330
1A66E
100
AcDbEntity
  8
寸法
 62
     0
 48
50.0
370
    -2
100
AcDbLine
 10
7688.04023022533
 20
4212.931598713261
 30
0.0
 11
7688.04023022533
 21
4377.931598713261
 31
0.0
  0
LINE
  5
1A798
330
1A66E
100
AcDbEntity
  8
寸法
 62
     0
 48
50.0
370
    -2
100
AcDbLine
 10
7688.04023022533
 20
4377.931598713261
 30
0.0
 11
7688.04023022533
 21
4754.902161461738
 31
0.0
  0
INSERT
  5
1A799
330
1A66E
100
AcDbEntity
  8
寸法
 62
     0
 48
50.0
370
    -2
100
AcDbBlockReference
  2
_DOTSMALL
 10
7688.04023022533
 20
4212.931598713261
 30
0.0
 41
100.0
 42
100.0
 43
100.0
 50
270.0
  0
INSERT
  5
1A79A
330
1A66E
100
AcDbEntity
  8
寸法
 62
     0
 48
50.0
370
    -2
100
AcDbBlockReference
  2
_DOTSMALL
 10
7688.04023022533
 20
4377.931598713261
 30
0.0
 41
100.0
 42
100.0
 43
100.0
 50
90.0
  0
MTEXT
  5
1A79B
330
1A66E
100
AcDbEntity
  8
寸法
 62
     7
 48
50.0
100
AcDbMText
 10
7588.04023022533
 20
4616.4168800875
 30
0.0
 40
120.0
 41
0.0
 71
     5
 72
     1
  1
\A1;165
  7
STYLE1
 11
0.0000000000000001
 21
1.0
 31
0.0
 73
     1
 44
1.0
1001
ACAD
1000
MTEXTBEGIN
1070
    73
1070
     1
1070
    44
1040
1.0
1070
    74
1070
     0
1000
MTEXTEND
  0
POINT
  5
1A79C
330
1A66E
100
AcDbEntity
  8
DEFPOINTS
 62
     0
 48
50.0
100
AcDbPoint
 10
7400.497127903581
 20
4212.931598713261
 30
0.0
  0
POINT
  5
1A79D
330
1A66E
100
AcDbEntity
  8
DEFPOINTS
 62
     0
 48
50.0
100
AcDbPoint
 10
7400.497127903584
 20
4377.931598713261
 30
0.0
  0
POINT
  5
1A79E
330
1A66E
100
AcDbEntity
  8
DEFPOINTS
 62
     0
 48
50.0
100
AcDbPoint
 10
7688.04023022533
 20
4377.931598713261
 30
0.0
  0
ENDBLK
  5
1A67A
330
1A66E
100
AcDbEntity
  8
0
 48
50.0
100
AcDbBlockEnd
  0
BLOCK
  5
1A687
330
1A67B
100
AcDbEntity
  8
0
 48
50.0
100
AcDbBlockBegin
  2
*D36
 70
     1
 10
0.0
 20
0.0
 30
0.0
  3
*D36
  1

  0
LINE
  5
1A78A
330
1A67B
100
AcDbEntity
  8
寸法
 62
     0
 48
50.0
370
    -2
100
AcDbLine
 10
7420.497127903583
 20
4185.931598713261
 30
0.0
 11
7748.040230225329
 21
4185.931598713261
 31
0.0
  0
LINE
  5
1A78B
330
1A67B
100
AcDbEntity
  8
寸法
 62
     0
 48
50.0
370
    -2
100
AcDbLine
 10
7420.497127903582
 20
4212.931598713261
 30
0.0
 11
7748.040230225329
 21
4212.931598713261
 31
0.0
  0
LINE
  5
1A78C
330
1A67B
100
AcDbEntity
  8
寸法
 62
     0
 48
50.0
370
    -2
100
AcDbLine
 10
7688.04023022533
 20
4185.931598713261
 30
0.0
 11
7688.04023022533
 21
4085.931598713261
 31
0.0
  0
LINE
  5
1A78D
330
1A67B
100
AcDbEntity
  8
寸法
 62
     0
 48
50.0
370
    -2
100
AcDbLine
 10
7688.04023022533
 20
4212.931598713261
 30
0.0
 11
7688.04023022533
 21
4312.931598713261
 31
0.0
  0
MTEXT
  5
1A78E
330
1A67B
100
AcDbEntity
  8
寸法
 62
     7
 48
50.0
100
AcDbMText
 10
7828.210053471696
 20
4213.898798552921
 30
0.0
 40
120.0
 41
0.0
 71
     5
 72
     1
  1
\A1;27
  7
STYLE1
 11
0.0000000000000001
 21
1.0
 31
0.0
 73
     1
 44
1.0
1001
ACAD
1000
MTEXTBEGIN
1070
    73
1070
     1
1070
    44
1040
1.0
1070
    74
1070
     0
1000
MTEXTEND
  0
LINE
  5
1A78F
330
1A67B
100
AcDbEntity
  8
寸法
 62
     0
 48
50.0
370
    -2
100
AcDbLine
 10
7688.04023022533
 20
4185.931598713261
 30
0.0
 11
7688.04023022533
 21
4212.931598713261
 31
0.0
  0
INSERT
  5
1A790
330
1A67B
100
AcDbEntity
  8
寸法
 62
     0
 48
50.0
370
    -2
100
AcDbBlockReference
  2
_DOTSMALL
 10
7688.04023022533
 20
4185.931598713261
 30
0.0
 41
100.0
 42
100.0
 43
100.0
 50
90.0
  0
INSERT
  5
1A791
330
1A67B
100
AcDbEntity
  8
寸法
 62
     0
 48
50.0
370
    -2
100
AcDbBlockReference
  2
_DOTSMALL
 10
7688.04023022533
 20
4212.931598713261
 30
0.0
 41
100.0
 42
100.0
 43
100.0
 50
270.0
  0
POINT
  5
1A792
330
1A67B
100
AcDbEntity
  8
DEFPOINTS
 62
     0
 48
50.0
100
AcDbPoint
 10
7400.497127903584
 20
4185.931598713261
 30
0.0
  0
POINT
  5
1A793
330
1A67B
100
AcDbEntity
  8
DEFPOINTS
 62
     0
 48
50.0
100
AcDbPoint
 10
7400.497127903581
 20
4212.931598713261
 30
0.0
  0
POINT
  5
1A794
330
1A67B
100
AcDbEntity
  8
DEFPOINTS
 62
     0
 48
50.0
100
AcDbPoint
 10
7688.04023022533
 20
4212.931598713261
 30
0.0
  0
ENDBLK
  5
1A688
330
1A67B
100
AcDbEntity
  8
0
 48
50.0
100
AcDbBlockEnd
  0
BLOCK
  5
1A693
330
1A689
100
AcDbEntity
  8
0
 48
50.0
100
AcDbBlockBegin
  2
*D37
 70
     1
 10
0.0
 20
0.0
 30
0.0
  3
*D37
  1

  0
LINE
  5
1A6F0
330
1A689
100
AcDbEntity
  8
寸法
 62
     0
 48
50.0
370
    -2
100
AcDbLine
 10
7420.497127903583
 20
2537.931598713262
 30
0.0
 11
7748.040230225329
 21
2537.931598713262
 31
0.0
  0
LINE
  5
1A6F1
330
1A689
100
AcDbEntity
  8
寸法
 62
     0
 48
50.0
370
    -2
100
AcDbLine
 10
7420.497127903583
 20
4185.931598713261
 30
0.0
 11
7748.040230225329
 21
4185.931598713261
 31
0.0
  0
LINE
  5
1A6F2
330
1A689
100
AcDbEntity
  8
寸法
 62
     0
 48
50.0
370
    -2
100
AcDbLine
 10
7688.04023022533
 20
2537.931598713262
 30
0.0
 11
7688.04023022533
 21
4185.931598713261
 31
0.0
  0
INSERT
  5
1A6F3
330
1A689
100
AcDbEntity
  8
寸法
 62
     0
 48
50.0
370
    -2
100
AcDbBlockReference
  2
_DOTSMALL
 10
7688.04023022533
 20
2537.931598713262
 30
0.0
 41
100.0
 42
100.0
 43
100.0
 50
270.0
  0
INSERT
  5
1A6F4
330
1A689
100
AcDbEntity
  8
寸法
 62
     0
 48
50.0
370
    -2
100
AcDbBlockReference
  2
_DOTSMALL
 10
7688.04023022533
 20
4185.931598713261
 30
0.0
 41
100.0
 42
100.0
 43
100.0
 50
90.0
  0
MTEXT
  5
1A6F5
330
1A689
100
AcDbEntity
  8
寸法
 62
     7
 48
50.0
100
AcDbMText
 10
7588.040230225328
 20
3361.931598713263
 30
0.0
 40
120.0
 41
0.0
 71
     5
 72
     1
  1
\A1;有効開口部高サ 1648
  7
STYLE1
 11
0.0000000000000001
 21
1.0
 31
0.0
 73
     1
 44
1.0
1001
ACAD
1000
MTEXTBEGIN
1070
    73
1070
     1
1070
    44
1040
1.0
1070
    74
1070
     0
1000
MTEXTEND
  0
POINT
  5
1A6F6
330
1A689
100
AcDbEntity
  8
DEFPOINTS
 62
     0
 48
50.0
100
AcDbPoint
 10
7400.497127903584
 20
2537.931598713262
 30
0.0
  0
POINT
  5
1A6F7
330
1A689
100
AcDbEntity
  8
DEFPOINTS
 62
     0
 48
50.0
100
AcDbPoint
 10
7400.497127903584
 20
4185.931598713261
 30
0.0
  0
POINT
  5
1A6F8
330
1A689
100
AcDbEntity
  8
DEFPOINTS
 62
     0
 48
50.0
100
AcDbPoint
 10
7688.04023022533
 20
4185.931598713261
 30
0.0
  0
ENDBLK
  5
1A694
330
1A689
100
AcDbEntity
  8
0
 48
50.0
100
AcDbBlockEnd
  0
ENDSEC
  0
SECTION
  2
ENTITIES
  0
MTEXT
  5
763F
330
747D
100
AcDbEntity
  8
0
100
AcDbMText
 10
302.846345836809
 20
280.1983726409901
 30
0.0
 40
3.5
 41
5.323721266742722
 71
     1
 72
     5
  1

  7
MSMINCHO
 73
     1
 44
1.0
1001
ACAD
1000
MTEXTBEGIN
1070
    73
1070
     1
1070
    44
1040
1.0
1070
    74
1070
     0
1000
MTEXTEND
  0
LINE
  5
10B57
330
747D
100
AcDbEntity
  8
補助
  6
PHANTOM
 62
   230
 48
50.0
100
AcDbLine
 10
139.9999999999995
 20
11409.6
 30
0.0
 11
16307.2
 21
11409.6
 31
0.0
  0
LINE
  5
10B59
330
747D
100
AcDbEntity
  8
仕様書枠
  6
Continuous
 48
50.0
100
AcDbLine
 10
13107.2
 20
1200.0
 30
0.0
 11
13107.2
 21
-0.0000000000000729
 31
0.0
  0
LINE
  5
10B5C
330
747D
100
AcDbEntity
  8
仕様書枠
 48
50.0
100
AcDbLine
 10
16307.2
 20
1200.0
 30
0.0
 11
16307.2
 21
-0.0000000000000909
 31
0.0
  0
LINE
  5
10B5D
330
747D
100
AcDbEntity
  8
仕様書枠
 48
50.0
100
AcDbLine
 10
140.0
 20
0.0
 30
0.0
 11
16307.2
 21
-0.0000000000000909
 31
0.0
  0
LINE
  5
10B5E
330
747D
100
AcDbEntity
  8
補助
  6
PHANTOM
 62
   230
 48
50.0
100
AcDbLine
 10
16307.2
 20
11409.6
 30
0.0
 11
16307.2
 21
1200.0
 31
0.0
  0
LINE
  5
10B6C
330
747D
100
AcDbEntity
  8
仕様書枠
 48
50.0
100
AcDbLine
 10
13107.2
 20
1200.0
 30
0.0
 11
16307.2
 21
1200.0
 31
0.0
  0
LINE
  5
10B6D
330
747D
100
AcDbEntity
  8
補助
  6
PHANTOM
 62
   230
 48
50.0
100
AcDbLine
 10
13107.2
 20
11409.6
 30
0.0
 11
13107.2
 21
4800.0
 31
0.0
  0
LINE
  5
10B6F
330
747D
100
AcDbEntity
  8
補助
  6
PHANTOM
 62
   230
 48
50.0
100
AcDbLine
 10
13107.2
 20
4800.0
 30
0.0
 11
16307.2
 21
4800.0
 31
0.0
  0
LINE
  5
10B72
330
747D
100
AcDbEntity
  8
文字
 62
     7
 48
50.0
100
AcDbLine
 10
13187.2
 20
400.0
 30
0.0
 11
16227.2
 21
400.0
 31
0.0
  0
TEXT
  5
10B73
330
747D
100
AcDbEntity
  8
文字
 62
     7
 48
50.0
100
AcDbText
 10
13162.9790565769
 20
895.0906074299405
 30
0.0
 40
200.0
  1
外 形 図
  7
STYLE2
100
AcDbText
  0
TEXT
  5
10B74
330
747D
100
AcDbEntity
  8
文字
 62
     7
 48
50.0
100
AcDbText
 10
13201.43669998441
 20
477.2740661031255
 30
0.0
 40
160.0
  1
機種名
  7
STYLE2
100
AcDbText
  0
TEXT
  5
10B75
330
747D
100
AcDbEntity
  8
文字
 62
     7
 48
50.0
100
AcDbText
 10
13209.4053442172
 20
228.5435242569016
 30
0.0
 40
100.0
  1
○有効開口寸法 ： 1584×1648(mm)
  7
STYLE2
100
AcDbText
  0
TEXT
  5
10B76
330
747D
100
AcDbEntity
  8
文字
 62
     7
 48
50.0
100
AcDbText
 10
13209.4053442172
 20
66.98032921074918
 30
0.0
 40
100.0
  1
○床面積 ： 9.42㎡(2.85坪)
  7
STYLE2
100
AcDbText
  0
TEXT
  5
10B79
330
747D
100
AcDbEntity
  8
文字
 62
     7
 48
50.0
100
AcDbText
 10
14524.131837222
 20
1031.557706291228
 30
0.0
 40
100.0
  1
NO.14      <縮尺> S=1/40
  7
STYLE2
100
AcDbText
  0
LINE
  5
10B7B
330
747D
100
AcDbEntity
  8
仕様書枠
 48
50.0
100
AcDbLine
 10
13107.2
 20
800.0
 30
0.0
 11
14251.2
 21
800.0
 31
0.0
  0
LINE
  5
10B88
330
747D
100
AcDbEntity
  8
仕様書枠
  6
Continuous
 48
50.0
100
AcDbLine
 10
14251.2
 20
1200.0
 30
0.0
 11
14251.2
 21
800.0
 31
0.0
  0
LINE
  5
127A8
330
747D
100
AcDbEntity
  8
部品1
100
AcDbLine
 10
2831.727536557201
 20
2567.835409280926
 30
0.0
 11
2981.727536557201
 21
2567.835409280926
 31
0.0
  0
LINE
  5
127A9
330
747D
100
AcDbEntity
  8
部品1
100
AcDbLine
 10
2906.7275365572
 20
2437.931598713261
 30
0.0
 11
2831.727536557201
 21
2567.835409280926
 31
0.0
  0
TEXT
  5
127AA
330
747D
100
AcDbEntity
  8
部品1
100
AcDbText
 10
3009.832478681974
 20
2474.038502319163
 30
0.0
 40
125.0
  1
G.L
  7
MSGOTHIC
100
AcDbText
  0
LINE
  5
127AB
330
747D
100
AcDbEntity
  8
部品1
100
AcDbLine
 10
2981.727536557201
 20
2567.835409280926
 30
0.0
 11
2906.7275365572
 21
2437.931598713261
 31
0.0
  0
LINE
  5
13C1F
330
747D
100
AcDbEntity
  8
部品1
100
AcDbLine
 10
3820.497127903585
 20
4471.931598713269
 30
0.0
 11
3820.497127903584
 21
2437.931598713261
 31
0.0
  0
LINE
  5
13CFC
330
747D
100
AcDbEntity
  8
部品1
100
AcDbLine
 10
7345.497127903583
 20
4212.931598713257
 30
0.0
 11
7345.497127903581
 21
2537.931598713262
 31
0.0
  0
LINE
  5
13CFE
330
747D
100
AcDbEntity
  8
部品1
100
AcDbLine
 10
3875.497127903583
 20
4212.931598713261
 30
0.0
 11
3875.497127903584
 21
2537.931598713262
 31
0.0
  0
LINE
  5
13D18
330
747D
100
AcDbEntity
  8
部品1
100
AcDbLine
 10
7400.497127903583
 20
4471.931598713269
 30
0.0
 11
7400.497127903584
 21
2437.931598713261
 31
0.0
  0
LINE
  5
146B2
330
747D
100
AcDbEntity
  8
破線
 48
5.0
100
AcDbLine
 10
7400.497127903584
 20
2437.931598713261
 30
0.0
 11
7400.497127903584
 21
2187.931598713261
 31
0.0
  0
LINE
  5
146B3
330
747D
100
AcDbEntity
  8
破線
 48
5.0
100
AcDbLine
 10
3820.497127903584
 20
2437.931598713261
 30
0.0
 11
3820.497127903582
 21
2187.931598713261
 31
0.0
  0
TEXT
  5
149A1
330
747D
100
AcDbEntity
  8
部品1
100
AcDbText
 10
5319.287198527305
 20
1595.038069494737
 30
0.0
 40
135.0
  1
正面図
  7
MSGOTHIC
100
AcDbText
  0
LWPOLYLINE
  5
149A2
330
747D
100
AcDbEntity
  8
部品1
100
AcDbPolyline
 90
        4
 70
     1
 43
0.0
 10
5228.761794789349
 20
1787.931598713261
 10
5228.761794789349
 20
1548.039277167729
 10
5992.232461017787
 20
1548.039277167729
 10
5992.232461017787
 20
1787.931598713261
  0
TEXT
  5
149A3
330
747D
100
AcDbEntity
  8
部品1
100
AcDbText
 10
11060.38466960259
 20
1595.038069494737
 30
0.0
 40
135.0
  1
側面図
  7
MSGOTHIC
100
AcDbText
  0
LWPOLYLINE
  5
149A4
330
747D
100
AcDbEntity
  8
部品1
100
AcDbPolyline
 90
        4
 70
     1
 43
0.0
 10
10970.93856817898
 20
1787.931598713261
 10
10970.93856817898
 20
1548.039277167729
 10
11734.40923440742
 20
1548.039277167729
 10
11734.40923440742
 20
1787.931598713261
  0
TEXT
  5
14E88
330
747D
100
AcDbEntity
  8
部品1
100
AcDbText
 10
5318.681404618386
 20
6060.494955239154
 30
0.0
 40
135.0
  1
平面図
  7
MSGOTHIC
100
AcDbText
  0
LWPOLYLINE
  5
14E89
330
747D
100
AcDbEntity
  8
部品1
100
AcDbPolyline
 90
        4
 70
     1
 43
0.0
 10
5228.761794789349
 20
6253.388484457678
 10
5228.761794789349
 20
6013.496162912145
 10
5992.232461017788
 20
6013.496162912145
 10
5992.232461017788
 20
6253.388484457678
  0
TEXT
  5
15550
330
747D
100
AcDbEntity
  8
文字
 62
     7
 48
50.0
100
AcDbText
 10
14659.31906557701
 20
871.9640646083623
 30
0.0
 40
100.0
  1
～一般型・多雪地型～
  7
STYLE2
100
AcDbText
  0
LINE
  5
15CE5
330
747D
100
AcDbEntity
  8
破線
 48
5.0
100
AcDbLine
 10
7345.497127903581
 20
2537.931598713262
 30
0.0
 11
7345.497127903583
 21
2187.931598713261
 31
0.0
  0
LINE
  5
15CE6
330
747D
100
AcDbEntity
  8
破線
 48
5.0
100
AcDbLine
 10
3875.497127903584
 20
2537.931598713262
 30
0.0
 11
3875.497127903582
 21
2187.931598713261
 31
0.0
  0
LINE
  5
15CE7
330
747D
100
AcDbEntity
  8
破線
 48
5.0
100
AcDbLine
 10
7400.497127903581
 20
2187.931598713261
 30
0.0
 11
7345.497127903583
 21
2187.931598713261
 31
0.0
  0
LINE
  5
15CE8
330
747D
100
AcDbEntity
  8
破線
 48
5.0
100
AcDbLine
 10
3875.497127903582
 20
2187.931598713269
 30
0.0
 11
3820.497127903582
 21
2187.931598713269
 31
0.0
  0
LINE
  5
15CE9
330
747D
100
AcDbEntity
  8
部品1
100
AcDbLine
 10
3923.497127903584
 20
4212.931598713261
 30
0.0
 11
3923.497127903584
 21
2537.931598713262
 31
0.0
  0
LINE
  5
15CEA
330
747D
100
AcDbEntity
  8
破線
 48
5.0
100
AcDbLine
 10
3923.497127903584
 20
2537.931598713262
 30
0.0
 11
3923.497127903582
 21
2287.931598713267
 31
0.0
  0
LINE
  5
15CEB
330
747D
100
AcDbEntity
  8
部品1
100
AcDbLine
 10
7297.497127903586
 20
4212.931598713262
 30
0.0
 11
7297.497127903581
 21
2537.931598713262
 31
0.0
  0
LINE
  5
15CEC
330
747D
100
AcDbEntity
  8
破線
 48
5.0
100
AcDbLine
 10
7297.497127903581
 20
2537.931598713262
 30
0.0
 11
7297.497127903584
 21
2287.931598713262
 31
0.0
  0
LINE
  5
15CED
330
747D
100
AcDbEntity
  8
破線
 48
5.0
100
AcDbLine
 10
7345.497127903586
 20
2287.931598713262
 30
0.0
 11
7297.497127903584
 21
2287.931598713262
 31
0.0
  0
LINE
  5
15CEE
330
747D
100
AcDbEntity
  8
破線
 48
5.0
100
AcDbLine
 10
3923.497127903582
 20
2287.931598713267
 30
0.0
 11
3875.497127903582
 21
2287.931598713267
 31
0.0
  0
LINE
  5
15D20
330
747D
100
AcDbEntity
  8
細線
100
AcDbLine
 10
5713.49712790358
 20
4172.931598713261
 30
0.0
 11
7297.497127903581
 21
4172.931598713261
 31
0.0
  0
LINE
  5
15D23
330
747D
100
AcDbEntity
  8
細線
100
AcDbLine
 10
5713.49712790358
 20
3782.931598713262
 30
0.0
 11
7297.497127903581
 21
3782.931598713262
 31
0.0
  0
LINE
  5
15D24
330
747D
100
AcDbEntity
  8
細線
100
AcDbLine
 10
5713.49712790358
 20
3847.931598713262
 30
0.0
 11
7297.497127903581
 21
3847.931598713262
 31
0.0
  0
LINE
  5
15D25
330
747D
100
AcDbEntity
  8
細線
100
AcDbLine
 10
5713.49712790358
 20
3912.931598713262
 30
0.0
 11
7297.497127903581
 21
3912.931598713262
 31
0.0
  0
LINE
  5
15D26
330
747D
100
AcDbEntity
  8
細線
100
AcDbLine
 10
5713.49712790358
 20
3977.931598713261
 30
0.0
 11
7297.497127903581
 21
3977.931598713261
 31
0.0
  0
LINE
  5
15D27
330
747D
100
AcDbEntity
  8
細線
100
AcDbLine
 10
5713.49712790358
 20
4042.931598713261
 30
0.0
 11
7297.497127903581
 21
4042.931598713261
 31
0.0
  0
LINE
  5
15D28
330
747D
100
AcDbEntity
  8
細線
100
AcDbLine
 10
5713.49712790358
 20
4107.931598713261
 30
0.0
 11
7297.497127903581
 21
4107.931598713261
 31
0.0
  0
LINE
  5
15D29
330
747D
100
AcDbEntity
  8
細線
100
AcDbLine
 10
5713.49712790358
 20
3132.931598713261
 30
0.0
 11
7297.497127903581
 21
3132.931598713261
 31
0.0
  0
LINE
  5
15D2A
330
747D
100
AcDbEntity
  8
細線
100
AcDbLine
 10
5713.49712790358
 20
3197.931598713262
 30
0.0
 11
7297.497127903581
 21
3197.931598713262
 31
0.0
  0
LINE
  5
15D2B
330
747D
100
AcDbEntity
  8
細線
100
AcDbLine
 10
5713.49712790358
 20
3262.931598713262
 30
0.0
 11
7297.497127903581
 21
3262.931598713262
 31
0.0
  0
LINE
  5
15D2C
330
747D
100
AcDbEntity
  8
細線
100
AcDbLine
 10
5713.49712790358
 20
3327.931598713262
 30
0.0
 11
7297.497127903581
 21
3327.931598713262
 31
0.0
  0
LINE
  5
15D2D
330
747D
100
AcDbEntity
  8
細線
100
AcDbLine
 10
5713.49712790358
 20
3392.931598713261
 30
0.0
 11
7297.497127903581
 21
3392.931598713261
 31
0.0
  0
LINE
  5
15D2E
330
747D
100
AcDbEntity
  8
細線
100
AcDbLine
 10
5713.49712790358
 20
3457.931598713262
 30
0.0
 11
7297.497127903581
 21
3457.931598713262
 31
0.0
  0
LINE
  5
15D2F
330
747D
100
AcDbEntity
  8
細線
100
AcDbLine
 10
5713.49712790358
 20
3522.931598713262
 30
0.0
 11
7297.497127903581
 21
3522.931598713262
 31
0.0
  0
LINE
  5
15D30
330
747D
100
AcDbEntity
  8
細線
100
AcDbLine
 10
5713.49712790358
 20
3587.931598713261
 30
0.0
 11
7297.497127903581
 21
3587.931598713261
 31
0.0
  0
LINE
  5
15D31
330
747D
100
AcDbEntity
  8
細線
100
AcDbLine
 10
5713.49712790358
 20
3652.931598713261
 30
0.0
 11
7297.497127903581
 21
3652.931598713261
 31
0.0
  0
LINE
  5
15D32
330
747D
100
AcDbEntity
  8
細線
100
AcDbLine
 10
5713.49712790358
 20
3717.931598713261
 30
0.0
 11
7297.497127903581
 21
3717.931598713261
 31
0.0
  0
LINE
  5
15D36
330
747D
100
AcDbEntity
  8
細線
100
AcDbLine
 10
5713.49712790358
 20
2547.931598713262
 30
0.0
 11
7297.497127903581
 21
2547.931598713262
 31
0.0
  0
LINE
  5
15D37
330
747D
100
AcDbEntity
  8
細線
100
AcDbLine
 10
5713.49712790358
 20
2612.931598713262
 30
0.0
 11
7297.497127903581
 21
2612.931598713262
 31
0.0
  0
LINE
  5
15D38
330
747D
100
AcDbEntity
  8
細線
100
AcDbLine
 10
5713.49712790358
 20
2677.931598713261
 30
0.0
 11
7297.497127903581
 21
2677.931598713261
 31
0.0
  0
LINE
  5
15D39
330
747D
100
AcDbEntity
  8
細線
100
AcDbLine
 10
5713.49712790358
 20
2742.931598713262
 30
0.0
 11
7297.497127903581
 21
2742.931598713262
 31
0.0
  0
LINE
  5
15D3A
330
747D
100
AcDbEntity
  8
細線
100
AcDbLine
 10
5713.49712790358
 20
2807.931598713262
 30
0.0
 11
7297.497127903581
 21
2807.931598713262
 31
0.0
  0
LINE
  5
15D3B
330
747D
100
AcDbEntity
  8
細線
100
AcDbLine
 10
5713.49712790358
 20
2872.931598713261
 30
0.0
 11
7297.497127903581
 21
2872.931598713261
 31
0.0
  0
LINE
  5
15D3C
330
747D
100
AcDbEntity
  8
細線
100
AcDbLine
 10
5713.49712790358
 20
2937.931598713261
 30
0.0
 11
7297.497127903581
 21
2937.931598713261
 31
0.0
  0
LINE
  5
15D3D
330
747D
100
AcDbEntity
  8
細線
100
AcDbLine
 10
5713.49712790358
 20
3002.931598713261
 30
0.0
 11
7297.497127903581
 21
3002.931598713261
 31
0.0
  0
LINE
  5
15D3E
330
747D
100
AcDbEntity
  8
細線
100
AcDbLine
 10
5713.49712790358
 20
3067.931598713262
 30
0.0
 11
7297.497127903581
 21
3067.931598713262
 31
0.0
  0
LINE
  5
15D3F
330
747D
100
AcDbEntity
  8
細線
100
AcDbLine
 10
7297.497127903584
 20
2547.931598713262
 30
0.0
 11
5713.497127903578
 21
2547.931598713262
 31
0.0
  0
DIMENSION
  5
162CD
330
747D
100
AcDbEntity
  8
寸法
100
AcDbDimension
  2
*D1
 10
8047.923473637997
 20
7455.613520934093
 30
0.0
 11
7947.911662614375
 21
8715.613520934104
 31
0.0
 70
    32
  1
6X420=<>
 71
     5
 42
2520.000000000015
  3
INABA_S40G
100
AcDbAlignedDimension
 13
7400.497127903591
 23
9975.613520934109
 33
0.0
 14
7400.497127903566
 24
7455.613520934093
 34
0.0
 50
90.0
100
AcDbRotatedDimension
1001
ACAD
1000
DSTYLE
1002
{
1002
}
  0
DIMENSION
  5
162CE
330
747D
100
AcDbEntity
  8
寸法
100
AcDbDimension
  2
*D2
 10
8047.923473637977
 20
7400.613520934097
 30
0.0
 11
8047.923473637975
 21
7022.752054029236
 31
0.0
 70
   160
 71
     5
 42
54.99999999999636
  3
INABA_S40G
100
AcDbAlignedDimension
 13
7400.497127903566
 23
7455.613520934093
 33
0.0
 14
7400.497127903566
 24
7400.613520934097
 34
0.0
 50
90.0
100
AcDbRotatedDimension
1001
ACAD
1000
DSTYLE
1002
{
1002
}
  0
DIMENSION
  5
162CF
330
747D
100
AcDbEntity
  8
寸法
100
AcDbDimension
  2
*D3
 10
8047.923473638
 20
9975.613520934109
 30
0.0
 11
8047.923473638
 21
10339.09880230834
 31
0.0
 70
   160
 71
     5
 42
54.99999999999636
  3
INABA_S40G
100
AcDbAlignedDimension
 13
7400.497127903591
 23
10030.6135209341
 33
0.0
 14
7400.497127903591
 24
9975.613520934109
 34
0.0
 50
90.0
100
AcDbRotatedDimension
1001
ACAD
1000
DSTYLE
1002
{
1002
}
  0
DIMENSION
  5
162D0
330
747D
100
AcDbEntity
  8
寸法
100
AcDbDimension
  2
*D4
 10
8413.030415377637
 20
7400.613520934097
 30
0.0
 11
8313.018604354011
 21
8715.613520934104
 31
0.0
 70
    32
 71
     5
 42
2630.000000000007
  3
INABA_S40G
100
AcDbAlignedDimension
 13
7400.497127903591
 23
10030.6135209341
 33
0.0
 14
7400.497127903566
 24
7400.613520934097
 34
0.0
 50
90.0
100
AcDbRotatedDimension
1001
ACAD
1000
DSTYLE
1002
{
1002
}
  0
LINE
  5
162DC
330
747D
100
AcDbEntity
  8
部品1
100
AcDbLine
 10
7372.497127903574
 20
10002.6135209341
 30
0.0
 11
7372.497127903567
 21
7455.613520934093
 31
0.0
  0
LINE
  5
162DD
330
747D
100
AcDbEntity
  8
部品1
100
AcDbLine
 10
3848.497127903566
 20
7455.613520933963
 30
0.0
 11
3848.497127903576
 21
10002.61352093401
 31
0.0
  0
LINE
  5
162DE
330
747D
100
AcDbEntity
  8
部品1
100
AcDbLine
 10
7400.497127903591
 20
10030.6135209341
 30
0.0
 11
7400.497127903566
 21
7400.613520934097
 31
0.0
  0
LINE
  5
162DF
330
747D
100
AcDbEntity
  8
部品1
100
AcDbLine
 10
3820.497127903556
 20
10030.61352093397
 30
0.0
 11
3820.497127903584
 21
7400.613520933966
 31
0.0
  0
DIMENSION
  5
162E4
330
747D
100
AcDbEntity
  8
寸法
 48
50.0
100
AcDbDimension
  2
*D5
 10
5713.497127903583
 20
6866.182750167841
 30
0.0
 11
6505.497127903574
 21
7066.182750167842
 31
0.0
 70
    32
  1
有効開口部間口\P <>
 71
     5
 42
1583.999999999982
  3
INABA_S40G
100
AcDbAlignedDimension
 13
7297.497127903565
 23
7426.613520934006
 33
0.0
 14
5713.497127903583
 24
7426.613520934004
 34
0.0
100
AcDbRotatedDimension
1001
ACAD
1000
DSTYLE
1002
{
1070
    75
1070
     1
1070
   279
1070
     2
1002
}
  0
LINE
  5
162E6
330
747D
100
AcDbEntity
  8
部品1
 48
50.0
100
AcDbLine
 10
5677.497127903582
 20
7446.113520934004
 30
0.0
 11
7333.497127903567
 21
7446.113520934004
 31
0.0
  0
DIMENSION
  5
162E7
330
747D
100
AcDbEntity
  8
寸法
100
AcDbDimension
  2
*D6
 10
7400.497127903554
 20
6420.009754576968
 30
0.0
 11
5610.497127903569
 21
6520.009754576967
 31
0.0
 70
    32
 71
     5
 42
3579.999999999972
  3
INABA_S40G
100
AcDbAlignedDimension
 13
3820.497127903584
 23
7400.613520934003
 33
0.0
 14
7400.497127903554
 24
7400.613520934097
 34
0.0
100
AcDbRotatedDimension
1001
ACAD
1000
DSTYLE
1002
{
1002
}
  0
LINE
  5
162E8
330
747D
100
AcDbEntity
  8
部品1
100
AcDbLine
 10
3875.49712790356
 20
9975.613520934029
 30
0.0
 11
3875.497127903582
 21
7465.613520934005
 31
0.0
  0
LINE
  5
162E9
330
747D
100
AcDbEntity
  8
部品1
100
AcDbLine
 10
3900.497127903562
 20
9975.613520934027
 30
0.0
 11
3900.497127903582
 21
7465.613520934005
 31
0.0
  0
DIMENSION
  5
162EA
330
747D
100
AcDbEntity
  8
寸法
 48
50.0
100
AcDbDimension
  2
*D7
 10
3820.497127903584
 20
6866.182750167841
 30
0.0
 11
3512.011846529345
 21
6866.182750167841
 31
0.0
 70
   160
 71
     5
 42
54.99999999999636
  3
INABA_S40G
100
AcDbAlignedDimension
 13
3875.49712790358
 23
7400.613520934006
 33
0.0
 14
3820.497127903584
 24
7400.613520934003
 34
0.0
100
AcDbRotatedDimension
1001
ACAD
1000
DSTYLE
1002
{
1002
}
  0
DIMENSION
  5
162EB
330
747D
100
AcDbEntity
  8
寸法
 48
50.0
100
AcDbDimension
  2
*D8
 10
5665.49712790358
 20
6866.182750167841
 30
0.0
 11
5826.399098903642
 21
6966.182750167842
 31
0.0
 70
   160
 71
     5
 42
48.00000000000363
  3
INABA_S40G
100
AcDbAlignedDimension
 13
5713.497127903583
 23
7426.613520934004
 33
0.0
 14
5665.49712790358
 24
7400.613520934006
 34
0.0
100
AcDbRotatedDimension
1001
ACAD
1000
DSTYLE
1002
{
1070
   279
1070
     2
1002
}
  0
LINE
  5
162EC
330
747D
100
AcDbEntity
  8
部品1
100
AcDbLine
 10
3875.497127903578
 20
7400.613520934006
 30
0.0
 11
3820.497127903584
 21
7400.613520934003
 31
0.0
  0
LINE
  5
162ED
330
747D
100
AcDbEntity
  8
部品1
 48
50.0
100
AcDbLine
 10
3875.497127903584
 20
7436.613520934004
 30
0.0
 11
3852.497127903584
 21
7436.613520934004
 31
0.0
  0
LINE
  5
162EE
330
747D
100
AcDbEntity
  8
部品1
 48
50.0
100
AcDbLine
 10
3885.497127903584
 20
7426.613520934004
 30
0.0
 11
3875.497127903584
 21
7405.613520934005
 31
0.0
  0
LINE
  5
162EF
330
747D
100
AcDbEntity
  8
部品1
 48
50.0
100
AcDbLine
 10
3875.497127903584
 20
7465.613520934005
 30
0.0
 11
3875.49712790358
 21
7400.613520934006
 31
0.0
  0
LINE
  5
162F0
330
747D
100
AcDbEntity
  8
部品1
 48
50.0
100
AcDbLine
 10
3923.497127903584
 20
7426.613520934006
 30
0.0
 11
3923.497127903584
 21
7435.613520934007
 31
0.0
  0
LINE
  5
162F1
330
747D
100
AcDbEntity
  8
部品1
 48
50.0
100
AcDbLine
 10
3923.497127903584
 20
7465.613520934006
 30
0.0
 11
3923.497127903584
 21
7456.613520934006
 31
0.0
  0
LINE
  5
162F2
330
747D
100
AcDbEntity
  8
部品1
100
AcDbLine
 10
3923.497127903584
 20
7465.613520934006
 30
0.0
 11
3875.497127903584
 21
7465.613520934005
 31
0.0
  0
LINE
  5
162F3
330
747D
100
AcDbEntity
  8
部品1
100
AcDbLine
 10
3923.497127903584
 20
7426.613520934006
 30
0.0
 11
3875.497127903584
 21
7426.613520934004
 31
0.0
  0
LINE
  5
162F4
330
747D
100
AcDbEntity
  8
部品1
100
AcDbLine
 10
3875.497127903582
 20
7436.613520934004
 30
0.0
 11
3852.497127903584
 21
7436.613520934004
 31
0.0
  0
LINE
  5
162F5
330
747D
100
AcDbEntity
  8
部品1
100
AcDbLine
 10
3875.497127903582
 20
7455.61352093393
 30
0.0
 11
3820.497127903582
 21
7455.61352093393
 31
0.0
  0
LINE
  5
162F6
330
747D
100
AcDbEntity
  8
部品1
100
AcDbLine
 10
3848.497127903566
 20
7455.613520933967
 30
0.0
 11
3820.497127903582
 21
7455.613520933967
 31
0.0
  0
LINE
  5
162F7
330
747D
100
AcDbEntity
  8
部品1
100
AcDbLine
 10
3848.497127903582
 20
7455.613520933981
 30
0.0
 11
3820.497127903582
 21
7455.613520933981
 31
0.0
  0
LINE
  5
162FB
330
747D
100
AcDbEntity
  8
部品1
100
AcDbLine
 10
3848.497127903571
 20
7875.613520933981
 30
0.0
 11
3820.497127903571
 21
7875.613520933981
 31
0.0
  0
LINE
  5
162FC
330
747D
100
AcDbEntity
  8
部品1
100
AcDbLine
 10
3848.497127903571
 20
8295.613520933981
 30
0.0
 11
3820.497127903571
 21
8295.613520933981
 31
0.0
  0
LINE
  5
162FE
330
747D
100
AcDbEntity
  8
部品1
100
AcDbLine
 10
3848.497127903563
 20
8715.613520933981
 30
0.0
 11
3820.497127903564
 21
8715.613520933981
 31
0.0
  0
LINE
  5
162FF
330
747D
100
AcDbEntity
  8
部品1
100
AcDbLine
 10
7345.497127903588
 20
9975.613520934027
 30
0.0
 11
7345.497127903567
 21
7400.613520934093
 31
0.0
  0
LINE
  5
16300
330
747D
100
AcDbEntity
  8
部品1
100
AcDbLine
 10
7320.497127903592
 20
9975.613520934025
 30
0.0
 11
7320.497127903568
 21
7465.613520934005
 31
0.0
  0
DIMENSION
  5
16301
330
747D
100
AcDbEntity
  8
寸法
 48
50.0
100
AcDbDimension
  2
*D9
 10
7297.497127903565
 20
6866.182750167841
 30
0.0
 11
7186.534230254818
 21
6966.182750167842
 31
0.0
 70
   160
 71
     5
 42
48.00000000000181
  3
INABA_S40G
100
AcDbAlignedDimension
 13
7345.497127903567
 23
7400.613520934093
 33
0.0
 14
7297.497127903565
 24
7426.613520934006
 34
0.0
100
AcDbRotatedDimension
1001
ACAD
1000
DSTYLE
1002
{
1070
   279
1070
     2
1002
}
  0
DIMENSION
  5
16302
330
747D
100
AcDbEntity
  8
寸法
 48
50.0
100
AcDbDimension
  2
*D10
 10
7345.497127903567
 20
6866.182750167843
 30
0.0
 11
7708.982409277803
 21
6866.182750167843
 31
0.0
 70
   160
 71
     5
 42
54.99999999999818
  3
INABA_S40G
100
AcDbAlignedDimension
 13
7400.497127903566
 23
7400.613520934097
 33
0.0
 14
7345.497127903567
 24
7400.613520934093
 34
0.0
100
AcDbRotatedDimension
1001
ACAD
1000
DSTYLE
1002
{
1002
}
  0
LINE
  5
16303
330
747D
100
AcDbEntity
  8
部品1
 48
50.0
100
AcDbLine
 10
7335.497127903565
 20
7426.613520934004
 30
0.0
 11
7345.497127903566
 21
7405.613520934005
 31
0.0
  0
LINE
  5
16304
330
747D
100
AcDbEntity
  8
部品1
100
AcDbLine
 10
7297.497127903565
 20
7465.613520934006
 30
0.0
 11
7345.497127903567
 21
7465.613520934005
 31
0.0
  0
LINE
  5
16305
330
747D
100
AcDbEntity
  8
部品1
100
AcDbLine
 10
7297.497127903565
 20
7426.613520934006
 30
0.0
 11
7345.497127903566
 21
7426.613520934004
 31
0.0
  0
LINE
  5
16306
330
747D
100
AcDbEntity
  8
部品1
 48
50.0
100
AcDbLine
 10
7297.497127903565
 20
7465.613520934006
 30
0.0
 11
7297.497127903565
 21
7456.613520934006
 31
0.0
  0
LINE
  5
16307
330
747D
100
AcDbEntity
  8
部品1
 48
50.0
100
AcDbLine
 10
7297.497127903565
 20
7426.613520934006
 30
0.0
 11
7297.497127903565
 21
7435.613520934007
 31
0.0
  0
LINE
  5
16308
330
747D
100
AcDbEntity
  8
部品1
100
AcDbLine
 10
7345.497127903566
 20
7436.613520934004
 30
0.0
 11
7368.497127903565
 21
7436.613520934004
 31
0.0
  0
LINE
  5
16309
330
747D
100
AcDbEntity
  8
部品1
100
AcDbLine
 10
7345.497127903566
 20
7455.613520934107
 30
0.0
 11
7400.497127903598
 21
7455.613520934107
 31
0.0
  0
LINE
  5
1630A
330
747D
100
AcDbEntity
  8
部品1
100
AcDbLine
 10
7400.497127903566
 20
7400.613520934097
 30
0.0
 11
7345.497127903567
 21
7400.613520934095
 31
0.0
  0
LINE
  5
16317
330
747D
100
AcDbEntity
  8
部品1
100
AcDbLine
 10
7372.497127903594
 20
7875.613520934108
 30
0.0
 11
7400.497127903594
 21
7875.613520934108
 31
0.0
  0
LINE
  5
16319
330
747D
100
AcDbEntity
  8
部品1
100
AcDbLine
 10
7372.497127903594
 20
8295.613520934109
 30
0.0
 11
7400.497127903594
 21
8295.613520934109
 31
0.0
  0
LINE
  5
1631A
330
747D
100
AcDbEntity
  8
部品1
100
AcDbLine
 10
7372.497127903591
 20
8715.613520934109
 30
0.0
 11
7400.497127903591
 21
8715.613520934109
 31
0.0
  0
LINE
  5
1631B
330
747D
100
AcDbEntity
  8
部品1
100
AcDbLine
 10
5665.49712790359
 20
10002.61352093412
 30
0.0
 11
6492.997127903588
 21
10002.61352093412
 31
0.0
  0
LINE
  5
1631C
330
747D
100
AcDbEntity
  8
部品1
100
AcDbLine
 10
5638.49712790359
 20
10002.61352093401
 30
0.0
 11
6295.49712790359
 21
10002.61352093401
 31
0.0
  0
DIMENSION
  5
1631F
330
747D
100
AcDbEntity
  8
寸法
100
AcDbDimension
  2
*D11
 10
7345.497127903591
 20
10246.42174055911
 30
0.0
 11
6505.497127903591
 21
10346.43355158273
 31
0.0
 70
    32
  1
4X420=<>
 71
     5
 42
1680.000000000001
  3
INABA_S40G
100
AcDbAlignedDimension
 13
5665.49712790359
 23
10030.61352093401
 33
0.0
 14
7345.497127903591
 24
10030.6135209341
 34
0.0
100
AcDbRotatedDimension
1001
ACAD
1000
DSTYLE
1002
{
1002
}
  0
DIMENSION
  5
16320
330
747D
100
AcDbEntity
  8
寸法
100
AcDbDimension
  2
*D12
 10
3875.49712790359
 20
10246.42174055899
 30
0.0
 11
3512.011846529316
 21
10246.42174055899
 31
0.0
 70
   160
 71
     5
 42
55.00000000003456
  3
INABA_S40G
100
AcDbAlignedDimension
 13
3820.497127903556
 23
10030.61352093401
 33
0.0
 14
3875.49712790359
 24
10030.61352093401
 34
0.0
100
AcDbRotatedDimension
1001
ACAD
1000
DSTYLE
1002
{
1002
}
  0
LINE
  5
16321
330
747D
100
AcDbEntity
  8
部品1
100
AcDbLine
 10
3875.497127903557
 20
10030.61352093397
 30
0.0
 11
3875.497127903557
 21
10002.61352093398
 31
0.0
  0
LINE
  5
16322
330
747D
100
AcDbEntity
  8
部品1
100
AcDbLine
 10
3875.497127903589
 20
10030.61352093401
 30
0.0
 11
3875.497127903589
 21
10002.61352093401
 31
0.0
  0
LINE
  5
16323
330
747D
100
AcDbEntity
  8
部品1
100
AcDbLine
 10
3848.497127903556
 20
9975.613520933983
 30
0.0
 11
3820.497127903556
 21
9975.613520933983
 31
0.0
  0
LINE
  5
16324
330
747D
100
AcDbEntity
  8
部品1
100
AcDbLine
 10
6085.49712790359
 20
10030.61352093412
 30
0.0
 11
6085.49712790359
 21
10002.61352093412
 31
0.0
  0
LINE
  5
16325
330
747D
100
AcDbEntity
  8
部品1
100
AcDbLine
 10
6085.49712790359
 20
10030.61352093401
 30
0.0
 11
6085.49712790359
 21
10002.61352093401
 31
0.0
  0
LINE
  5
16326
330
747D
100
AcDbEntity
  8
部品1
100
AcDbLine
 10
6085.49712790359
 20
10030.61352093401
 30
0.0
 11
6085.49712790359
 21
10002.61352093401
 31
0.0
  0
LINE
  5
16327
330
747D
100
AcDbEntity
  8
部品1
100
AcDbLine
 10
6517.99712790359
 20
10002.61352093412
 30
0.0
 11
7372.497127903591
 21
10002.6135209341
 31
0.0
  0
LINE
  5
1632C
330
747D
100
AcDbEntity
  8
部品1
100
AcDbLine
 10
6505.49712790359
 20
10030.61352093412
 30
0.0
 11
6505.49712790359
 21
10002.61352093412
 31
0.0
  0
LINE
  5
1632D
330
747D
100
AcDbEntity
  8
部品1
100
AcDbLine
 10
6492.997127903589
 20
9994.613520934109
 30
0.0
 11
6517.99712790359
 21
9994.613520934112
 31
0.0
  0
LINE
  5
1632E
330
747D
100
AcDbEntity
  8
部品1
100
AcDbLine
 10
6534.49712790359
 20
10020.61352093411
 30
0.0
 11
6540.497127903591
 21
10020.61352093411
 31
0.0
  0
LINE
  5
1632F
330
747D
100
AcDbEntity
  8
部品1
100
AcDbLine
 10
6540.497127903591
 20
10020.61352093411
 30
0.0
 11
6540.497127903591
 21
10002.61352093411
 31
0.0
  0
LINE
  5
16330
330
747D
100
AcDbEntity
  8
部品1
100
AcDbLine
 10
6470.49712790359
 20
10020.61352093411
 30
0.0
 11
6476.497127903591
 21
10020.61352093411
 31
0.0
  0
LINE
  5
16331
330
747D
100
AcDbEntity
  8
部品1
100
AcDbLine
 10
6470.49712790359
 20
10020.61352093411
 30
0.0
 11
6470.49712790359
 21
10002.61352093411
 31
0.0
  0
DIMENSION
  5
16333
330
747D
100
AcDbEntity
  8
寸法
100
AcDbDimension
  2
*D13
 10
7400.497127903591
 20
10246.42174055909
 30
0.0
 11
7708.982409277829
 21
10246.42174055909
 31
0.0
 70
   160
 71
     5
 42
55.0
  3
INABA_S40G
100
AcDbAlignedDimension
 13
7345.497127903591
 23
10030.6135209341
 33
0.0
 14
7400.497127903591
 24
10030.6135209341
 34
0.0
100
AcDbRotatedDimension
1001
ACAD
1000
DSTYLE
1002
{
1002
}
  0
LINE
  5
16334
330
747D
100
AcDbEntity
  8
部品1
100
AcDbLine
 10
6925.497127903589
 20
10030.61352093412
 30
0.0
 11
6925.497127903589
 21
10002.61352093412
 31
0.0
  0
LINE
  5
16335
330
747D
100
AcDbEntity
  8
部品1
100
AcDbLine
 10
7345.497127903591
 20
10030.6135209341
 30
0.0
 11
7345.497127903591
 21
10002.6135209341
 31
0.0
  0
LINE
  5
16336
330
747D
100
AcDbEntity
  8
部品1
100
AcDbLine
 10
7345.497127903591
 20
10030.61352093412
 30
0.0
 11
7345.497127903591
 21
10002.61352093412
 31
0.0
  0
LINE
  5
16337
330
747D
100
AcDbEntity
  8
部品1
100
AcDbLine
 10
7372.497127903591
 20
9975.613520934109
 30
0.0
 11
7400.497127903591
 21
9975.613520934109
 31
0.0
  0
LINE
  5
1655C
330
747D
100
AcDbEntity
  8
部品1
100
AcDbLine
 10
5507.497127903584
 20
4212.931598713262
 30
0.0
 11
5507.497127903583
 21
2537.931598713262
 31
0.0
  0
LINE
  5
1655D
330
747D
100
AcDbEntity
  8
部品1
100
AcDbLine
 10
5555.497127903584
 20
4212.931598713259
 30
0.0
 11
5555.497127903582
 21
2537.931598713262
 31
0.0
  0
LINE
  5
1655E
330
747D
100
AcDbEntity
  8
破線
 48
5.0
100
AcDbLine
 10
5507.497127903583
 20
2537.931598713262
 30
0.0
 11
5507.497127903583
 21
2287.931598713262
 31
0.0
  0
LINE
  5
1655F
330
747D
100
AcDbEntity
  8
破線
 48
5.0
100
AcDbLine
 10
5555.497127903585
 20
2287.931598713262
 30
0.0
 11
5507.497127903583
 21
2287.931598713262
 31
0.0
  0
LINE
  5
16560
330
747D
100
AcDbEntity
  8
破線
 48
5.0
100
AcDbLine
 10
5555.497127903582
 20
2537.931598713262
 30
0.0
 11
5555.497127903584
 21
2262.931598713262
 31
0.0
  0
LINE
  5
16561
330
747D
100
AcDbEntity
  8
破線
 48
5.0
100
AcDbLine
 10
5665.497127903583
 20
2262.931598713262
 30
0.0
 11
5555.497127903584
 21
2262.931598713262
 31
0.0
  0
LINE
  5
16562
330
747D
100
AcDbEntity
  8
部品1
100
AcDbLine
 10
5713.497127903583
 20
4212.931598713261
 30
0.0
 11
5713.497127903583
 21
2537.931598713262
 31
0.0
  0
LINE
  5
16563
330
747D
100
AcDbEntity
  8
破線
 48
5.0
100
AcDbLine
 10
5713.497127903583
 20
2537.931598713262
 30
0.0
 11
5713.497127903582
 21
2287.931598713267
 31
0.0
  0
LINE
  5
16564
330
747D
100
AcDbEntity
  8
破線
 48
5.0
100
AcDbLine
 10
5713.497127903583
 20
2287.931598713267
 30
0.0
 11
5665.497127903582
 21
2287.931598713267
 31
0.0
  0
LINE
  5
16565
330
747D
100
AcDbEntity
  8
破線
 48
5.0
100
AcDbLine
 10
5665.497127903583
 20
2537.931598713262
 30
0.0
 11
5665.497127903583
 21
2262.931598713262
 31
0.0
  0
LINE
  5
16566
330
747D
100
AcDbEntity
  8
部品1
100
AcDbLine
 10
5665.497127903583
 20
4212.931598713259
 30
0.0
 11
5665.497127903583
 21
2537.931598713262
 31
0.0
  0
LINE
  5
16567
330
747D
100
AcDbEntity
  8
部品1
100
AcDbLine
 10
5665.497127903583
 20
4212.931598713261
 30
0.0
 11
7400.497127903581
 21
4212.931598713261
 31
0.0
  0
DIMENSION
  5
1659A
330
747D
100
AcDbEntity
  8
寸法
 48
50.0
100
AcDbDimension
  2
*D15
 10
5507.497127903565
 20
6866.182750167841
 30
0.0
 11
5396.534230254818
 21
6966.182750167842
 31
0.0
 70
   160
 71
     5
 42
48.00000000000181
  3
INABA_S40G
100
AcDbAlignedDimension
 13
5555.497127903567
 23
7400.613520934093
 33
0.0
 14
5507.497127903565
 24
7426.613520934006
 34
0.0
100
AcDbRotatedDimension
1001
ACAD
1000
DSTYLE
1002
{
1070
   279
1070
     2
1002
}
  0
DIMENSION
  5
1659C
330
747D
100
AcDbEntity
  8
寸法
 48
50.0
100
AcDbDimension
  2
*D14
 10
3875.49712790358
 20
6866.182750167841
 30
0.0
 11
4036.399098903641
 21
6966.182750167842
 31
0.0
 70
   160
 71
     5
 42
48.00000000000363
  3
INABA_S40G
100
AcDbAlignedDimension
 13
3923.497127903584
 23
7426.613520934004
 33
0.0
 14
3875.49712790358
 24
7400.613520934006
 34
0.0
100
AcDbRotatedDimension
1001
ACAD
1000
DSTYLE
1002
{
1070
   279
1070
     2
1002
}
  0
DIMENSION
  5
165E9
330
747D
100
AcDbEntity
  8
寸法
 48
50.0
100
AcDbDimension
  2
*D16
 10
5555.497127903567
 20
6866.182750167843
 30
0.0
 11
5610.497127903574
 21
6714.490855131611
 31
0.0
 70
   160
 71
     5
 42
110.0000000000127
  3
INABA_S40G
100
AcDbAlignedDimension
 13
5665.49712790358
 23
7400.613520934006
 33
0.0
 14
5555.497127903567
 24
7400.613520934093
 34
0.0
100
AcDbRotatedDimension
1001
ACAD
1000
DSTYLE
1002
{
1070
   279
1070
     2
1002
}
  0
LINE
  5
16656
330
747D
100
AcDbEntity
  8
部品1
100
AcDbLine
 10
5507.497127903565
 20
7465.613520934006
 30
0.0
 11
5555.497127903567
 21
7465.613520934005
 31
0.0
  0
LINE
  5
16657
330
747D
100
AcDbEntity
  8
部品1
 48
50.0
100
AcDbLine
 10
5507.497127903565
 20
7465.613520934006
 30
0.0
 11
5507.497127903565
 21
7456.613520934006
 31
0.0
  0
LINE
  5
16658
330
747D
100
AcDbEntity
  8
部品1
100
AcDbLine
 10
5507.497127903565
 20
7426.613520934006
 30
0.0
 11
5555.497127903565
 21
7426.613520934004
 31
0.0
  0
LINE
  5
16659
330
747D
100
AcDbEntity
  8
部品1
 48
50.0
100
AcDbLine
 10
5507.497127903565
 20
7426.613520934006
 30
0.0
 11
5507.497127903565
 21
7435.613520934007
 31
0.0
  0
LINE
  5
1665A
330
747D
100
AcDbEntity
  8
部品1
 48
50.0
100
AcDbLine
 10
5545.497127903566
 20
7426.613520934004
 30
0.0
 11
5555.497127903565
 21
7405.613520934005
 31
0.0
  0
LINE
  5
1665B
330
747D
100
AcDbEntity
  8
部品1
100
AcDbLine
 10
5555.497127903565
 20
7436.613520934004
 30
0.0
 11
5578.497127903565
 21
7436.613520934004
 31
0.0
  0
LINE
  5
1665C
330
747D
100
AcDbEntity
  8
部品1
100
AcDbLine
 10
5713.497127903583
 20
7465.613520934006
 30
0.0
 11
5665.497127903583
 21
7465.613520934005
 31
0.0
  0
LINE
  5
1665D
330
747D
100
AcDbEntity
  8
部品1
 48
50.0
100
AcDbLine
 10
5713.497127903583
 20
7465.613520934006
 30
0.0
 11
5713.497127903583
 21
7456.613520934006
 31
0.0
  0
LINE
  5
1665E
330
747D
100
AcDbEntity
  8
部品1
100
AcDbLine
 10
5713.497127903583
 20
7426.613520934006
 30
0.0
 11
5665.497127903583
 21
7426.613520934004
 31
0.0
  0
LINE
  5
1665F
330
747D
100
AcDbEntity
  8
部品1
 48
50.0
100
AcDbLine
 10
5675.497127903583
 20
7426.613520934004
 30
0.0
 11
5665.497127903583
 21
7405.613520934005
 31
0.0
  0
LINE
  5
16660
330
747D
100
AcDbEntity
  8
部品1
100
AcDbLine
 10
5665.497127903583
 20
7436.613520934004
 30
0.0
 11
5642.497127903584
 21
7436.613520934004
 31
0.0
  0
LINE
  5
16661
330
747D
100
AcDbEntity
  8
部品1
 48
50.0
100
AcDbLine
 10
5665.497127903583
 20
7465.613520934005
 30
0.0
 11
5665.49712790358
 21
7400.613520934006
 31
0.0
  0
LINE
  5
16662
330
747D
100
AcDbEntity
  8
部品1
 48
50.0
100
AcDbLine
 10
5713.497127903583
 20
7426.613520934006
 30
0.0
 11
5713.497127903583
 21
7435.613520934007
 31
0.0
  0
LINE
  5
16663
330
747D
100
AcDbEntity
  8
部品1
100
AcDbLine
 10
5665.497127903579
 20
7400.613520934006
 30
0.0
 11
5555.497127903569
 21
7400.613520934
 31
0.0
  0
LINE
  5
16664
330
747D
100
AcDbEntity
  8
部品1
 48
50.0
100
AcDbLine
 10
5555.497127903572
 20
7465.613520934093
 30
0.0
 11
5555.497127903568
 21
7400.613520934093
 31
0.0
  0
LINE
  5
16666
330
747D
100
AcDbEntity
  8
部品1
100
AcDbLine
 10
5665.49712790359
 20
10030.61352093401
 30
0.0
 11
5665.49712790359
 21
10002.61352093401
 31
0.0
  0
LINE
  5
16692
330
747D
100
AcDbEntity
  8
部品1
100
AcDbLine
 10
5555.497127903591
 20
10030.6135209341
 30
0.0
 11
5555.497127903591
 21
10002.6135209341
 31
0.0
  0
DIMENSION
  5
166DD
330
747D
100
AcDbEntity
  8
寸法
 48
50.0
100
AcDbDimension
  2
*D17
 10
5555.497127903591
 20
10246.42174055911
 30
0.0
 11
5610.497127903591
 21
10346.42174055911
 31
0.0
 70
    32
 71
     5
 42
109.9999999999991
  3
INABA_S40G
100
AcDbAlignedDimension
 13
5665.49712790359
 23
10030.61352093406
 33
0.0
 14
5555.497127903591
 24
10030.61352093405
 34
0.0
100
AcDbRotatedDimension
1001
ACAD
1000
DSTYLE
1002
{
1070
   279
1070
     2
1002
}
  0
LINE
  5
16760
330
747D
100
AcDbEntity
  8
部品1
 48
50.0
100
AcDbLine
 10
5610.497127903556
 20
10002.61352093405
 30
0.0
 11
5582.497127903558
 21
10030.6135209341
 31
0.0
  0
LINE
  5
16761
330
747D
100
AcDbEntity
  8
部品1
100
AcDbLine
 10
7345.497127903586
 20
9975.613520934025
 30
0.0
 11
5665.49712790357
 21
9975.613520934027
 31
0.0
  0
LINE
  5
16762
330
747D
100
AcDbEntity
  8
部品1
 48
50.0
100
AcDbLine
 10
5582.497127903558
 20
10002.61352093416
 30
0.0
 11
5582.497127903558
 21
10030.6135209341
 31
0.0
  0
LINE
  5
16763
330
747D
100
AcDbEntity
  8
部品1
 48
50.0
100
AcDbLine
 10
5582.497127903558
 20
10002.61352093405
 30
0.0
 11
5610.497127903556
 21
10002.61352093405
 31
0.0
  0
LINE
  5
168C3
330
747D
100
AcDbEntity
  8
部品1
100
AcDbLine
 10
5634.497127903575
 20
7455.613520934001
 30
0.0
 11
5586.497127903573
 21
7455.613520934001
 31
0.0
  0
LINE
  5
168C4
330
747D
100
AcDbEntity
  8
部品1
 48
50.0
100
AcDbLine
 10
5586.497127903574
 20
7455.613520934003
 30
0.0
 11
5586.497127903577
 21
7400.613520934003
 31
0.0
  0
LINE
  5
168C5
330
747D
100
AcDbEntity
  8
部品1
 48
50.0
100
AcDbLine
 10
5634.497127903575
 20
7455.613520934003
 30
0.0
 11
5634.497127903578
 21
7400.613520934003
 31
0.0
  0
DIMENSION
  5
16913
330
747D
100
AcDbEntity
  8
寸法
 48
50.0
100
AcDbDimension
  2
*D18
 10
7400.497127903591
 20
10495.7432141154
 30
0.0
 11
6505.497127903591
 21
10595.7432141154
 31
0.0
 70
    32
 71
     5
 42
1790.0
  3
INABA_S40G
100
AcDbAlignedDimension
 13
5610.497127903591
 23
10405.40965491705
 33
0.0
 14
7400.497127903591
 24
10030.6135209341
 34
0.0
100
AcDbRotatedDimension
1001
ACAD
1000
DSTYLE
1002
{
1070
    75
1070
     1
1070
   279
1070
     2
1002
}
  0
LINE
  5
172BC
330
747D
100
AcDbEntity
  8
部品1
 48
50.0
100
AcDbLine
 10
5638.497127903558
 20
9975.613520934027
 30
0.0
 11
5638.497127903623
 21
10030.61352093405
 31
0.0
  0
LINE
  5
172BD
330
747D
100
AcDbEntity
  8
部品1
 48
50.0
100
AcDbLine
 10
5582.497127903558
 20
9975.613520934027
 30
0.0
 11
5582.497127903558
 21
10002.61352093405
 31
0.0
  0
LINE
  5
174C8
330
747D
100
AcDbEntity
  8
部品1
 48
50.0
100
AcDbLine
 10
7320.497127903592
 20
9950.613520933984
 30
0.0
 11
5690.497127903544
 21
9950.613520933957
 31
0.0
  0
LINE
  5
174C9
330
747D
100
AcDbEntity
  8
部品1
 48
50.0
100
AcDbLine
 10
7372.497127903591
 20
10002.6135209341
 30
0.0
 11
7345.497127903586
 21
9975.613520934025
 31
0.0
  0
LINE
  5
174CA
330
747D
100
AcDbEntity
  8
部品1
 48
50.0
100
AcDbLine
 10
3875.49712790356
 20
9975.613520934029
 30
0.0
 11
3848.497127903576
 21
10002.61352093412
 31
0.0
  0
LINE
  5
174CB
330
747D
100
AcDbEntity
  8
部品1
 48
50.0
100
AcDbLine
 10
6492.997127903589
 20
9994.613520934109
 30
0.0
 11
6492.997127903589
 21
10002.61352093412
 31
0.0
  0
LINE
  5
174CC
330
747D
100
AcDbEntity
  8
部品1
 48
50.0
100
AcDbLine
 10
6517.99712790359
 20
9994.613520934112
 30
0.0
 11
6517.99712790359
 21
10002.61352093412
 31
0.0
  0
LINE
  5
17B10
330
747D
100
AcDbEntity
  8
細線
100
AcDbLine
 10
5507.497127903583
 20
2547.931598713262
 30
0.0
 11
3923.497127903578
 21
2547.931598713262
 31
0.0
  0
LINE
  5
17B1E
330
747D
100
AcDbEntity
  8
細線
100
AcDbLine
 10
3923.49712790358
 20
4172.931598713261
 30
0.0
 11
5507.497127903582
 21
4172.931598713261
 31
0.0
  0
LINE
  5
17B21
330
747D
100
AcDbEntity
  8
細線
100
AcDbLine
 10
3923.49712790358
 20
3782.931598713262
 30
0.0
 11
5507.497127903582
 21
3782.931598713262
 31
0.0
  0
LINE
  5
17B22
330
747D
100
AcDbEntity
  8
細線
100
AcDbLine
 10
3923.49712790358
 20
3847.931598713262
 30
0.0
 11
5507.497127903582
 21
3847.931598713262
 31
0.0
  0
LINE
  5
17B23
330
747D
100
AcDbEntity
  8
細線
100
AcDbLine
 10
3923.49712790358
 20
3912.931598713262
 30
0.0
 11
5507.497127903582
 21
3912.931598713262
 31
0.0
  0
LINE
  5
17B24
330
747D
100
AcDbEntity
  8
細線
100
AcDbLine
 10
3923.49712790358
 20
3977.931598713262
 30
0.0
 11
5507.497127903582
 21
3977.931598713262
 31
0.0
  0
LINE
  5
17B25
330
747D
100
AcDbEntity
  8
細線
100
AcDbLine
 10
3923.49712790358
 20
4042.931598713262
 30
0.0
 11
5507.497127903582
 21
4042.931598713262
 31
0.0
  0
LINE
  5
17B26
330
747D
100
AcDbEntity
  8
細線
100
AcDbLine
 10
3923.49712790358
 20
4107.931598713261
 30
0.0
 11
5507.497127903582
 21
4107.931598713261
 31
0.0
  0
LINE
  5
17B27
330
747D
100
AcDbEntity
  8
細線
100
AcDbLine
 10
3923.49712790358
 20
3132.931598713262
 30
0.0
 11
5507.497127903582
 21
3132.931598713262
 31
0.0
  0
LINE
  5
17B28
330
747D
100
AcDbEntity
  8
細線
100
AcDbLine
 10
3923.49712790358
 20
3197.931598713262
 30
0.0
 11
5507.497127903582
 21
3197.931598713262
 31
0.0
  0
LINE
  5
17B29
330
747D
100
AcDbEntity
  8
細線
100
AcDbLine
 10
3923.49712790358
 20
3262.931598713262
 30
0.0
 11
5507.497127903582
 21
3262.931598713262
 31
0.0
  0
LINE
  5
17B2A
330
747D
100
AcDbEntity
  8
細線
100
AcDbLine
 10
3923.49712790358
 20
3327.931598713262
 30
0.0
 11
5507.497127903582
 21
3327.931598713262
 31
0.0
  0
LINE
  5
17B2B
330
747D
100
AcDbEntity
  8
細線
100
AcDbLine
 10
3923.49712790358
 20
3392.931598713262
 30
0.0
 11
5507.497127903582
 21
3392.931598713262
 31
0.0
  0
LINE
  5
17B2C
330
747D
100
AcDbEntity
  8
細線
100
AcDbLine
 10
3923.49712790358
 20
3457.931598713262
 30
0.0
 11
5507.497127903582
 21
3457.931598713262
 31
0.0
  0
LINE
  5
17B2D
330
747D
100
AcDbEntity
  8
細線
100
AcDbLine
 10
3923.49712790358
 20
3522.931598713262
 30
0.0
 11
5507.497127903582
 21
3522.931598713262
 31
0.0
  0
LINE
  5
17B2E
330
747D
100
AcDbEntity
  8
細線
100
AcDbLine
 10
3923.49712790358
 20
3587.931598713262
 30
0.0
 11
5507.497127903582
 21
3587.931598713262
 31
0.0
  0
LINE
  5
17B2F
330
747D
100
AcDbEntity
  8
細線
100
AcDbLine
 10
3923.49712790358
 20
3652.931598713262
 30
0.0
 11
5507.497127903582
 21
3652.931598713262
 31
0.0
  0
LINE
  5
17B30
330
747D
100
AcDbEntity
  8
細線
100
AcDbLine
 10
3923.49712790358
 20
3717.931598713262
 30
0.0
 11
5507.497127903582
 21
3717.931598713262
 31
0.0
  0
LINE
  5
17B33
330
747D
100
AcDbEntity
  8
細線
100
AcDbLine
 10
3923.49712790358
 20
2612.931598713262
 30
0.0
 11
5507.497127903582
 21
2612.931598713262
 31
0.0
  0
LINE
  5
17B34
330
747D
100
AcDbEntity
  8
細線
100
AcDbLine
 10
3923.49712790358
 20
2677.931598713262
 30
0.0
 11
5507.497127903582
 21
2677.931598713262
 31
0.0
  0
LINE
  5
17B35
330
747D
100
AcDbEntity
  8
細線
100
AcDbLine
 10
3923.49712790358
 20
2742.931598713262
 30
0.0
 11
5507.497127903582
 21
2742.931598713262
 31
0.0
  0
LINE
  5
17B36
330
747D
100
AcDbEntity
  8
細線
100
AcDbLine
 10
3923.49712790358
 20
2807.931598713262
 30
0.0
 11
5507.497127903582
 21
2807.931598713262
 31
0.0
  0
LINE
  5
17B37
330
747D
100
AcDbEntity
  8
細線
100
AcDbLine
 10
3923.49712790358
 20
2872.931598713262
 30
0.0
 11
5507.497127903582
 21
2872.931598713262
 31
0.0
  0
LINE
  5
17B38
330
747D
100
AcDbEntity
  8
細線
100
AcDbLine
 10
3923.49712790358
 20
2937.931598713262
 30
0.0
 11
5507.497127903582
 21
2937.931598713262
 31
0.0
  0
LINE
  5
17B39
330
747D
100
AcDbEntity
  8
細線
100
AcDbLine
 10
3923.49712790358
 20
3002.931598713262
 30
0.0
 11
5507.497127903582
 21
3002.931598713262
 31
0.0
  0
LINE
  5
17B3A
330
747D
100
AcDbEntity
  8
細線
100
AcDbLine
 10
3923.49712790358
 20
3067.931598713262
 30
0.0
 11
5507.497127903582
 21
3067.931598713262
 31
0.0
  0
LINE
  5
17B5A
330
747D
100
AcDbEntity
  8
部品1
100
AcDbLine
 10
3820.497127903585
 20
4212.931598713262
 30
0.0
 11
5665.497127903583
 21
4212.93159871326
 31
0.0
  0
DIMENSION
  5
17B86
330
747D
100
AcDbEntity
  8
寸法
 48
50.0
100
AcDbDimension
  2
*D21
 10
5610.497127903591
 20
10495.7432141154
 30
0.0
 11
4715.497127903573
 21
10595.7432141154
 31
0.0
 70
    32
 71
     5
 42
1790.000000000035
  3
INABA_S40G
100
AcDbAlignedDimension
 13
3820.497127903556
 23
10030.61352093397
 33
0.0
 14
5610.497127903591
 24
10405.40965491705
 34
0.0
100
AcDbRotatedDimension
1001
ACAD
1000
DSTYLE
1002
{
1070
   279
1070
     2
1002
}
  0
DIMENSION
  5
17B87
330
747D
100
AcDbEntity
  8
寸法
100
AcDbDimension
  2
*D20
 10
5555.497127903591
 20
10246.42174055911
 30
0.0
 11
4715.497127903591
 21
10346.43355158273
 31
0.0
 70
    32
  1
4X420=<>
 71
     5
 42
1680.000000000001
  3
INABA_S40G
100
AcDbAlignedDimension
 13
3875.49712790359
 23
10030.61352093401
 33
0.0
 14
5555.497127903591
 24
10030.6135209341
 34
0.0
100
AcDbRotatedDimension
1001
ACAD
1000
DSTYLE
1002
{
1002
}
  0
LINE
  5
17B8B
330
747D
100
AcDbEntity
  8
部品1
 48
50.0
100
AcDbLine
 10
5530.497127903561
 20
9950.613520933933
 30
0.0
 11
3900.49712790356
 21
9950.613520933931
 31
0.0
  0
LINE
  5
17B98
330
747D
100
AcDbEntity
  8
部品1
 48
50.0
100
AcDbLine
 10
4727.997127903589
 20
9994.613520934112
 30
0.0
 11
4727.997127903589
 21
10002.61352093412
 31
0.0
  0
LINE
  5
17B99
330
747D
100
AcDbEntity
  8
部品1
 48
50.0
100
AcDbLine
 10
4702.997127903588
 20
9994.613520934109
 30
0.0
 11
4702.997127903588
 21
10002.61352093412
 31
0.0
  0
LINE
  5
17BA3
330
747D
100
AcDbEntity
  8
部品1
100
AcDbLine
 10
5135.497127903589
 20
10030.61352093412
 30
0.0
 11
5135.497127903589
 21
10002.61352093412
 31
0.0
  0
LINE
  5
17BA4
330
747D
100
AcDbEntity
  8
部品1
100
AcDbLine
 10
4295.497127903589
 20
10030.61352093401
 30
0.0
 11
4295.497127903589
 21
10002.61352093401
 31
0.0
  0
LINE
  5
17BA5
330
747D
100
AcDbEntity
  8
部品1
100
AcDbLine
 10
4295.497127903589
 20
10030.61352093401
 30
0.0
 11
4295.497127903589
 21
10002.61352093401
 31
0.0
  0
LINE
  5
17BA6
330
747D
100
AcDbEntity
  8
部品1
100
AcDbLine
 10
4295.497127903589
 20
10030.61352093412
 30
0.0
 11
4295.497127903589
 21
10002.61352093412
 31
0.0
  0
LINE
  5
17BA7
330
747D
100
AcDbEntity
  8
部品1
100
AcDbLine
 10
4295.497127903589
 20
10030.61352093401
 30
0.0
 11
4295.497127903589
 21
10002.61352093401
 31
0.0
  0
LINE
  5
17BA8
330
747D
100
AcDbEntity
  8
部品1
100
AcDbLine
 10
4295.497127903589
 20
10030.61352093401
 30
0.0
 11
4295.497127903589
 21
10002.61352093401
 31
0.0
  0
LINE
  5
17BA9
330
747D
100
AcDbEntity
  8
部品1
100
AcDbLine
 10
4295.497127903589
 20
10030.61352093412
 30
0.0
 11
4295.497127903589
 21
10002.61352093412
 31
0.0
  0
LINE
  5
17BAA
330
747D
100
AcDbEntity
  8
部品1
100
AcDbLine
 10
3848.497127903576
 20
10002.61352093412
 30
0.0
 11
4702.997127903588
 21
10002.61352093412
 31
0.0
  0
LINE
  5
17BAB
330
747D
100
AcDbEntity
  8
部品1
100
AcDbLine
 10
4727.997127903589
 20
10002.61352093412
 30
0.0
 11
5582.49712790359
 21
10002.6135209341
 31
0.0
  0
LINE
  5
17BAC
330
747D
100
AcDbEntity
  8
部品1
100
AcDbLine
 10
4680.497127903588
 20
10020.61352093411
 30
0.0
 11
4680.497127903588
 21
10002.61352093411
 31
0.0
  0
LINE
  5
17BAD
330
747D
100
AcDbEntity
  8
部品1
100
AcDbLine
 10
4680.497127903588
 20
10020.61352093411
 30
0.0
 11
4686.497127903589
 21
10020.61352093411
 31
0.0
  0
LINE
  5
17BAE
330
747D
100
AcDbEntity
  8
部品1
100
AcDbLine
 10
4750.497127903589
 20
10020.61352093411
 30
0.0
 11
4750.497127903589
 21
10002.61352093411
 31
0.0
  0
LINE
  5
17BAF
330
747D
100
AcDbEntity
  8
部品1
100
AcDbLine
 10
4744.497127903589
 20
10020.61352093411
 30
0.0
 11
4750.497127903589
 21
10020.61352093411
 31
0.0
  0
LINE
  5
17BB0
330
747D
100
AcDbEntity
  8
部品1
100
AcDbLine
 10
4702.997127903588
 20
9994.613520934109
 30
0.0
 11
4727.997127903589
 21
9994.613520934112
 31
0.0
  0
LINE
  5
17BB1
330
747D
100
AcDbEntity
  8
部品1
100
AcDbLine
 10
4715.497127903589
 20
10030.61352093412
 30
0.0
 11
4715.497127903589
 21
10002.61352093412
 31
0.0
  0
LINE
  5
17BC2
330
747D
100
AcDbEntity
  8
部品1
 48
50.0
100
AcDbLine
 10
3887.497127903582
 20
7446.113520934004
 30
0.0
 11
5543.497127903567
 21
7446.113520934004
 31
0.0
  0
DIMENSION
  5
17BC3
330
747D
100
AcDbEntity
  8
寸法
 48
50.0
100
AcDbDimension
  2
*D19
 10
3923.497127903584
 20
6866.182750167841
 30
0.0
 11
4715.497127903574
 21
7066.182750167842
 31
0.0
 70
    32
  1
有効開口部間口\P <>
 71
     5
 42
1583.999999999982
  3
INABA_S40G
100
AcDbAlignedDimension
 13
5507.497127903565
 23
7426.613520934006
 33
0.0
 14
3923.497127903584
 24
7426.613520934004
 34
0.0
100
AcDbRotatedDimension
1001
ACAD
1000
DSTYLE
1002
{
1070
    75
1070
     1
1070
   279
1070
     2
1002
}
  0
LINE
  5
17D0F
330
747D
100
AcDbEntity
  8
部品1
100
AcDbLine
 10
7372.497127903582
 20
9555.6135209341
 30
0.0
 11
7400.497127903581
 21
9555.6135209341
 31
0.0
  0
LINE
  5
17D10
330
747D
100
AcDbEntity
  8
部品1
100
AcDbLine
 10
7372.497127903585
 20
9135.613520934098
 30
0.0
 11
7400.497127903586
 21
9135.613520934098
 31
0.0
  0
LINE
  5
17D11
330
747D
100
AcDbEntity
  8
部品1
100
AcDbLine
 10
3848.497127903556
 20
9555.613520933972
 30
0.0
 11
3820.497127903556
 21
9555.613520933972
 31
0.0
  0
LINE
  5
17D12
330
747D
100
AcDbEntity
  8
部品1
100
AcDbLine
 10
3848.49712790356
 20
9135.613520933972
 30
0.0
 11
3820.49712790356
 21
9135.613520933972
 31
0.0
  0
LINE
  5
180FF
330
747D
100
AcDbEntity
  8
部品1
100
AcDbLine
 10
3820.497127903584
 20
2537.931598713262
 30
0.0
 11
7400.497127903584
 21
2537.931598713262
 31
0.0
  0
LINE
  5
18100
330
747D
100
AcDbEntity
  8
Ｇ．Ｌ
100
AcDbLine
 10
2732.230525233101
 20
2437.931598713261
 30
0.0
 11
13647.12949617643
 21
2437.931598713261
 31
0.0
  0
LINE
  5
18105
330
747D
100
AcDbEntity
  8
部品1
100
AcDbLine
 10
3820.497127903556
 20
10030.61352093397
 30
0.0
 11
7400.497127903591
 21
10030.6135209341
 31
0.0
  0
LINE
  5
18106
330
747D
100
AcDbEntity
  8
寸法
 48
50.0
100
AcDbLine
 10
5610.387428013062
 20
10422.88595190001
 30
0.0
 11
5610.387428013062
 21
10562.03707950797
 31
0.0
  0
LINE
  5
18161
330
747D
100
AcDbEntity
  8
部品1
100
AcDbLine
 10
5610.497127903577
 20
9975.613520933974
 30
0.0
 11
5610.497127903549
 21
7455.613520933948
 31
0.0
  0
LINE
  5
18162
330
747D
100
AcDbEntity
  8
部品1
100
AcDbLine
 10
5638.497127903536
 20
7400.613520933953
 30
0.0
 11
5638.497127903559
 21
10030.613520934
 31
0.0
  0
LINE
  5
18163
330
747D
100
AcDbEntity
  8
部品1
 48
10.0
100
AcDbLine
 10
5690.497127903591
 20
7465.613520933954
 30
0.0
 11
5690.497127903544
 21
9975.613520933974
 31
0.0
  0
LINE
  5
18164
330
747D
100
AcDbEntity
  8
部品1
100
AcDbLine
 10
5665.497127903596
 20
7465.613520933954
 30
0.0
 11
5665.497127903569
 21
9975.613520933951
 31
0.0
  0
LINE
  5
18165
330
747D
100
AcDbEntity
  8
部品1
100
AcDbLine
 10
5582.497127903558
 20
10002.61352093405
 30
0.0
 11
5582.497127903542
 21
7400.613520933949
 31
0.0
  0
LINE
  5
18166
330
747D
100
AcDbEntity
  8
部品1
 48
10.0
100
AcDbLine
 10
5530.497127903585
 20
7465.613520933954
 30
0.0
 11
5530.49712790356
 21
9975.613520933956
 31
0.0
  0
LINE
  5
18167
330
747D
100
AcDbEntity
  8
部品1
100
AcDbLine
 10
5555.497127903576
 20
7465.613520933954
 30
0.0
 11
5555.497127903569
 21
9975.613520933956
 31
0.0
  0
LINE
  5
18168
330
747D
100
AcDbEntity
  8
部品1
100
AcDbLine
 10
5582.497127903578
 20
8715.613520934056
 30
0.0
 11
5610.497127903578
 21
8715.613520934056
 31
0.0
  0
LINE
  5
18169
330
747D
100
AcDbEntity
  8
部品1
100
AcDbLine
 10
5582.497127903578
 20
9135.613520934056
 30
0.0
 11
5610.497127903578
 21
9135.613520934056
 31
0.0
  0
LINE
  5
1816A
330
747D
100
AcDbEntity
  8
部品1
100
AcDbLine
 10
5582.497127903578
 20
9555.613520934056
 30
0.0
 11
5610.497127903578
 21
9555.613520934056
 31
0.0
  0
LINE
  5
1816B
330
747D
100
AcDbEntity
  8
部品1
 48
50.0
100
AcDbLine
 10
5638.497127903611
 20
10002.61352093386
 30
0.0
 11
5665.497127903599
 21
9975.613520933878
 31
0.0
  0
LINE
  5
1816C
330
747D
100
AcDbEntity
  8
部品1
 48
50.0
100
AcDbLine
 10
5582.497127903625
 20
10002.61352093396
 30
0.0
 11
5555.497127903621
 21
9975.613520933954
 31
0.0
  0
LINE
  5
1816F
330
747D
100
AcDbEntity
  8
部品1
100
AcDbLine
 10
5555.497127903569
 20
9975.613520934025
 30
0.0
 11
3875.49712790356
 21
9975.613520934029
 31
0.0
  0
LINE
  5
18170
330
747D
100
AcDbEntity
  8
部品1
100
AcDbLine
 10
5638.497127903558
 20
9975.613520934027
 30
0.0
 11
5582.497127903558
 21
9975.613520934025
 31
0.0
  0
LINE
  5
18171
330
747D
100
AcDbEntity
  8
部品1
100
AcDbLine
 10
5582.497127903584
 20
8295.613520934056
 30
0.0
 11
5610.497127903585
 21
8295.613520934056
 31
0.0
  0
LINE
  5
18172
330
747D
100
AcDbEntity
  8
部品1
100
AcDbLine
 10
5582.497127903584
 20
7875.613520934056
 30
0.0
 11
5610.497127903585
 21
7875.613520934056
 31
0.0
  0
CIRCLE
  5
1834F
330
747D
100
AcDbEntity
  8
細線
 48
50.0
100
AcDbCircle
 10
6505.497127903577
 20
3425.431598713262
 30
0.0
 40
18.0
  0
ARC
  5
18350
330
747D
100
AcDbEntity
  8
細線
 48
50.0
100
AcDbCircle
 10
6805.497127903577
 20
3100.431598713262
 30
0.0
 40
15.0
100
AcDbArc
 50
270.0
 51
90.0
  0
ARC
  5
18351
330
747D
100
AcDbEntity
  8
細線
 48
50.0
100
AcDbCircle
 10
6705.497127903576
 20
3100.431598713262
 30
0.0
 40
15.0
100
AcDbArc
 50
90.0
 51
270.0
  0
LINE
  5
18352
330
747D
100
AcDbEntity
  8
細線
 48
50.0
100
AcDbLine
 10
6705.497127903576
 20
3115.431598713261
 30
0.0
 11
6805.497127903577
 21
3115.431598713261
 31
0.0
  0
LINE
  5
18353
330
747D
100
AcDbEntity
  8
細線
 48
50.0
100
AcDbLine
 10
6805.497127903577
 20
3085.431598713262
 30
0.0
 11
6705.497127903576
 21
3085.431598713262
 31
0.0
  0
LINE
  5
18354
330
747D
100
AcDbEntity
  8
細線
 48
50.0
100
AcDbLine
 10
6305.497127903578
 20
3085.431598713262
 30
0.0
 11
6205.497127903577
 21
3085.431598713262
 31
0.0
  0
LINE
  5
18355
330
747D
100
AcDbEntity
  8
細線
 48
50.0
100
AcDbLine
 10
6205.497127903577
 20
3115.431598713261
 30
0.0
 11
6305.497127903578
 21
3115.431598713261
 31
0.0
  0
ARC
  5
18356
330
747D
100
AcDbEntity
  8
細線
 48
50.0
100
AcDbCircle
 10
6305.497127903578
 20
3100.431598713262
 30
0.0
 40
15.0
100
AcDbArc
 50
270.0
 51
90.0
  0
ARC
  5
18357
330
747D
100
AcDbEntity
  8
細線
 48
50.0
100
AcDbCircle
 10
6205.497127903577
 20
3100.431598713262
 30
0.0
 40
15.0
100
AcDbArc
 50
90.0
 51
270.0
  0
ARC
  5
18792
330
747D
100
AcDbEntity
  8
細線
 48
50.0
100
AcDbCircle
 10
4415.497127903578
 20
3100.431598713262
 30
0.0
 40
15.0
100
AcDbArc
 50
90.0
 51
270.0
  0
ARC
  5
18793
330
747D
100
AcDbEntity
  8
細線
 48
50.0
100
AcDbCircle
 10
4515.497127903578
 20
3100.431598713262
 30
0.0
 40
15.0
100
AcDbArc
 50
270.0
 51
90.0
  0
LINE
  5
18794
330
747D
100
AcDbEntity
  8
細線
 48
50.0
100
AcDbLine
 10
4415.497127903578
 20
3115.431598713261
 30
0.0
 11
4515.497127903578
 21
3115.431598713261
 31
0.0
  0
LINE
  5
18795
330
747D
100
AcDbEntity
  8
細線
 48
50.0
100
AcDbLine
 10
4515.497127903578
 20
3085.431598713262
 30
0.0
 11
4415.497127903578
 21
3085.431598713262
 31
0.0
  0
LINE
  5
18796
330
747D
100
AcDbEntity
  8
細線
 48
50.0
100
AcDbLine
 10
5015.497127903579
 20
3085.431598713262
 30
0.0
 11
4915.497127903578
 21
3085.431598713262
 31
0.0
  0
LINE
  5
18797
330
747D
100
AcDbEntity
  8
細線
 48
50.0
100
AcDbLine
 10
4915.497127903578
 20
3115.431598713261
 30
0.0
 11
5015.497127903579
 21
3115.431598713261
 31
0.0
  0
ARC
  5
18798
330
747D
100
AcDbEntity
  8
細線
 48
50.0
100
AcDbCircle
 10
4915.497127903578
 20
3100.431598713262
 30
0.0
 40
15.0
100
AcDbArc
 50
90.0
 51
270.0
  0
ARC
  5
18799
330
747D
100
AcDbEntity
  8
細線
 48
50.0
100
AcDbCircle
 10
5015.497127903579
 20
3100.431598713262
 30
0.0
 40
15.0
100
AcDbArc
 50
270.0
 51
90.0
  0
CIRCLE
  5
1879A
330
747D
100
AcDbEntity
  8
細線
 48
50.0
100
AcDbCircle
 10
4715.497127903578
 20
3425.431598713262
 30
0.0
 40
18.0
  0
TEXT
  5
18837
330
747D
100
AcDbEntity
  8
文字
 62
     7
 48
50.0
100
AcDbText
 10
15022.63965474516
 20
9910.013745883727
 30
0.0
 40
100.0
  1
F12,Y10        1.0
  7
STYLE1
100
AcDbText
  0
TEXT
  5
18838
330
747D
100
AcDbEntity
  8
文字
 62
     7
 48
50.0
100
AcDbText
 10
13583.11819016569
 20
9910.01374588373
 30
0.0
 40
100.0
  1
梁中
  7
STYLE1
100
AcDbText
  0
TEXT
  5
18839
330
747D
100
AcDbEntity
  8
文字
 62
     7
 48
50.0
100
AcDbText
 10
13248.77747366448
 20
8720.013745883731
 30
0.0
 40
100.0
  1
14
  7
STYLE1
100
AcDbText
  0
LINE
  5
1883A
330
747D
100
AcDbEntity
  8
仕様書枠
 48
50.0
100
AcDbLine
 10
16307.19999999999
 20
9879.599999999999
 30
0.0
 11
13127.2
 21
9879.600000000001
 31
0.0
  0
LINE
  5
1883B
330
747D
100
AcDbEntity
  8
仕様書枠
 48
50.0
100
AcDbLine
 10
16307.19999999999
 20
11239.6
 30
0.0
 11
13127.2
 21
11239.6
 31
0.0
  0
LINE
  5
1883C
330
747D
100
AcDbEntity
  8
仕様書枠
 48
50.0
100
AcDbLine
 10
16307.2
 20
8179.6
 30
0.0
 11
16307.2
 21
11239.6
 31
0.0
  0
LINE
  5
1883D
330
747D
100
AcDbEntity
  8
仕様書枠
 48
50.0
100
AcDbLine
 10
14785.2
 20
11239.59999999999
 30
0.0
 11
14785.2
 21
8689.6
 31
0.0
  0
LINE
  5
1883E
330
747D
100
AcDbEntity
  8
仕様書枠
 48
50.0
100
AcDbLine
 10
13490.2
 20
11239.6
 30
0.0
 11
13490.2
 21
8689.6
 31
0.0
  0
LINE
  5
1883F
330
747D
100
AcDbEntity
  8
仕様書枠
 48
50.0
100
AcDbLine
 10
16307.19999999999
 20
11069.6
 30
0.0
 11
13127.2
 21
11069.6
 31
0.0
  0
LINE
  5
18840
330
747D
100
AcDbEntity
  8
仕様書枠
 48
50.0
100
AcDbLine
 10
16307.19999999999
 20
10729.6
 30
0.0
 11
13127.2
 21
10729.6
 31
0.0
  0
LINE
  5
18841
330
747D
100
AcDbEntity
  8
仕様書枠
 48
50.0
100
AcDbLine
 10
16307.19999999999
 20
10899.6
 30
0.0
 11
13127.2
 21
10899.6
 31
0.0
  0
LINE
  5
18842
330
747D
100
AcDbEntity
  8
仕様書枠
 48
50.0
100
AcDbLine
 10
16307.19999999999
 20
10389.6
 30
0.0
 11
13127.19999999999
 21
10389.6
 31
0.0
  0
LINE
  5
18843
330
747D
100
AcDbEntity
  8
仕様書枠
 48
50.0
100
AcDbLine
 10
16307.19999999999
 20
10219.6
 30
0.0
 11
13127.19999999999
 21
10219.6
 31
0.0
  0
LINE
  5
18844
330
747D
100
AcDbEntity
  8
仕様書枠
 48
50.0
100
AcDbLine
 10
16307.19999999999
 20
10559.6
 30
0.0
 11
13127.19999999999
 21
10559.6
 31
0.0
  0
TEXT
  5
18845
330
747D
100
AcDbEntity
  8
文字
 62
     7
 48
50.0
100
AcDbText
 10
13197.42518560407
 20
11100.01374588373
 30
0.0
 40
100.0
  1
品番
  7
STYLE1
100
AcDbText
  0
TEXT
  5
18846
330
747D
100
AcDbEntity
  8
文字
 62
     7
 48
50.0
100
AcDbText
 10
13271.19032244792
 20
10930.01374588373
 30
0.0
 40
100.0
  1
1
  7
STYLE1
100
AcDbText
  0
TEXT
  5
18847
330
747D
100
AcDbEntity
  8
文字
 62
     7
 48
50.0
100
AcDbText
 10
13271.19032244792
 20
10760.01374588373
 30
0.0
 40
100.0
  1
2
  7
STYLE1
100
AcDbText
  0
TEXT
  5
18848
330
747D
100
AcDbEntity
  8
文字
 62
     7
 48
50.0
100
AcDbText
 10
13271.19032244792
 20
10420.01374588373
 30
0.0
 40
100.0
  1
4
  7
STYLE1
100
AcDbText
  0
TEXT
  5
18849
330
747D
100
AcDbEntity
  8
文字
 62
     7
 48
50.0
100
AcDbText
 10
13271.19032244792
 20
10590.01374588373
 30
0.0
 40
100.0
  1
3
  7
STYLE1
100
AcDbText
  0
TEXT
  5
1884A
330
747D
100
AcDbEntity
  8
文字
 62
     7
 48
50.0
100
AcDbText
 10
13732.03840939434
 20
11100.01374588373
 30
0.0
 40
100.0
  1
部　　品　　名
  7
STYLE1
100
AcDbText
  0
TEXT
  5
1884B
330
747D
100
AcDbEntity
  8
文字
 62
     7
 48
50.0
100
AcDbText
 10
14859.79774614482
 20
11100.01374588373
 30
0.0
 40
100.0
  1
材料（材質）　　単位mm
  7
STYLE1
100
AcDbText
  0
TEXT
  5
1884C
330
747D
100
AcDbEntity
  8
文字
 62
     7
 48
50.0
100
AcDbText
 10
13583.11819016569
 20
10930.01374588372
 30
0.0
 40
100.0
  1
土台枠
  7
STYLE1
100
AcDbText
  0
TEXT
  5
1884D
330
747D
100
AcDbEntity
  8
文字
 62
     7
 48
50.0
100
AcDbText
 10
13583.11819016569
 20
10760.01374588372
 30
0.0
 40
100.0
  1
柱
  7
STYLE1
100
AcDbText
  0
TEXT
  5
1884E
330
747D
100
AcDbEntity
  8
文字
 62
     7
 48
50.0
100
AcDbText
 10
13583.11819016569
 20
10590.01374588373
 30
0.0
 40
100.0
  1
桁前
  7
STYLE1
100
AcDbText
  0
TEXT
  5
1884F
330
747D
100
AcDbEntity
  8
文字
 62
     7
 48
50.0
100
AcDbText
 10
13583.11819016569
 20
10420.01374588373
 30
0.0
 40
100.0
  1
桁後
  7
STYLE1
100
AcDbText
  0
TEXT
  5
18850
330
747D
100
AcDbEntity
  8
文字
 62
     7
 48
50.0
100
AcDbText
 10
13271.19032244792
 20
10250.01374588373
 30
0.0
 40
100.0
  1
5
  7
STYLE1
100
AcDbText
  0
TEXT
  5
18851
330
747D
100
AcDbEntity
  8
文字
 62
     7
 48
50.0
100
AcDbText
 10
13583.11819016569
 20
10250.01374588373
 30
0.0
 40
100.0
  1
妻板左右
  7
STYLE1
100
AcDbText
  0
TEXT
  5
18852
330
747D
100
AcDbEntity
  8
文字
 62
     7
 48
50.0
100
AcDbText
 10
13583.11819016569
 20
8890.013745883727
 30
0.0
 40
100.0
  1
シャッターレール
  7
STYLE1
100
AcDbText
  0
TEXT
  5
18853
330
747D
100
AcDbEntity
  8
文字
 62
     7
 48
50.0
100
AcDbText
 10
13248.77747366448
 20
9400.013745883727
 30
0.0
 40
100.0
  1
10
  7
STYLE1
100
AcDbText
  0
TEXT
  5
18854
330
747D
100
AcDbEntity
  8
文字
 62
     7
 48
50.0
100
AcDbText
 10
13583.11819016569
 20
9400.013745883729
 30
0.0
 40
100.0
  1
壁パネル
  7
STYLE1
100
AcDbText
  0
TEXT
  5
18855
330
747D
100
AcDbEntity
  8
文字
 62
     7
 48
50.0
100
AcDbText
 10
13583.11819016569
 20
9570.013745883727
 30
0.0
 40
100.0
  1
屋根パネル
  7
STYLE1
100
AcDbText
  0
TEXT
  5
18856
330
747D
100
AcDbEntity
  8
文字
 62
     7
 48
50.0
100
AcDbText
 10
13583.11819016569
 20
9740.013745883729
 30
0.0
 40
100.0
  1
母屋中
  7
STYLE1
100
AcDbText
  0
TEXT
  5
18857
330
747D
100
AcDbEntity
  8
文字
 62
     7
 48
50.0
100
AcDbText
 10
13583.11819016569
 20
10080.01374588372
 30
0.0
 40
100.0
  1
鼻隠シ前後
  7
STYLE1
100
AcDbText
  0
TEXT
  5
18858
330
747D
100
AcDbEntity
  8
文字
 62
     7
 48
50.0
100
AcDbText
 10
13271.19032244792
 20
9740.013745883729
 30
0.0
 40
100.0
  1
8
  7
STYLE1
100
AcDbText
  0
TEXT
  5
18859
330
747D
100
AcDbEntity
  8
文字
 62
     7
 48
50.0
100
AcDbText
 10
13271.19032244792
 20
9570.013745883729
 30
0.0
 40
100.0
  1
9
  7
STYLE1
100
AcDbText
  0
TEXT
  5
1885A
330
747D
100
AcDbEntity
  8
文字
 62
     7
 48
50.0
100
AcDbText
 10
13271.19032244792
 20
9910.01374588373
 30
0.0
 40
100.0
  1
7
  7
STYLE1
100
AcDbText
  0
TEXT
  5
1885B
330
747D
100
AcDbEntity
  8
文字
 62
     7
 48
50.0
100
AcDbText
 10
13271.19032244792
 20
10080.01374588373
 30
0.0
 40
100.0
  1
6
  7
STYLE1
100
AcDbText
  0
LINE
  5
1885C
330
747D
100
AcDbEntity
  8
仕様書枠
 48
50.0
100
AcDbLine
 10
16307.19999999999
 20
9539.599999999998
 30
0.0
 11
13127.19999999999
 21
9539.6
 31
0.0
  0
LINE
  5
1885D
330
747D
100
AcDbEntity
  8
仕様書枠
 48
50.0
100
AcDbLine
 10
16307.19999999999
 20
9199.599999999998
 30
0.0
 11
13127.19999999999
 21
9199.600000000001
 31
0.0
  0
LINE
  5
1885E
330
747D
100
AcDbEntity
  8
仕様書枠
 48
50.0
100
AcDbLine
 10
16307.19999999999
 20
9369.599999999998
 30
0.0
 11
13127.19999999999
 21
9369.600000000001
 31
0.0
  0
LINE
  5
1885F
330
747D
100
AcDbEntity
  8
仕様書枠
 48
50.0
100
AcDbLine
 10
16307.19999999999
 20
10049.6
 30
0.0
 11
13127.2
 21
10049.6
 31
0.0
  0
LINE
  5
18860
330
747D
100
AcDbEntity
  8
仕様書枠
 48
50.0
100
AcDbLine
 10
16307.19999999999
 20
9709.6
 30
0.0
 11
13127.2
 21
9709.600000000001
 31
0.0
  0
TEXT
  5
18861
330
747D
100
AcDbEntity
  8
文字
 62
     7
 48
50.0
100
AcDbText
 10
13248.77747366448
 20
9230.013745883727
 30
0.0
 40
100.0
  1
11
  7
STYLE1
100
AcDbText
  0
TEXT
  5
18862
330
747D
100
AcDbEntity
  8
文字
 62
     7
 48
50.0
100
AcDbText
 10
13583.11819016569
 20
9060.013745883727
 30
0.0
 40
100.0
  1
シャッターカバー
 41
0.9
  7
STYLE1
100
AcDbText
  0
LINE
  5
18863
330
747D
100
AcDbEntity
  8
仕様書枠
 48
50.0
100
AcDbLine
 10
16307.19999999999
 20
9029.6
 30
0.0
 11
13127.19999999999
 21
9029.6
 31
0.0
  0
TEXT
  5
18865
330
747D
100
AcDbEntity
  8
文字
 62
     7
 48
50.0
100
AcDbText
 10
13583.11819016569
 20
8720.013745883729
 30
0.0
 40
100.0
  1
棚板（別売）
  7
STYLE1
100
AcDbText
  0
LINE
  5
18866
330
747D
100
AcDbEntity
  8
仕様書枠
 48
50.0
100
AcDbLine
 10
16307.19999999999
 20
8859.6
 30
0.0
 11
13127.19999999999
 21
8859.600000000002
 31
0.0
  0
TEXT
  5
18867
330
747D
100
AcDbEntity
  8
文字
 62
     7
 48
50.0
100
AcDbText
 10
13583.11819016569
 20
9230.013745883731
 30
0.0
 40
100.0
  1
シャッター
  7
STYLE1
100
AcDbText
  0
TEXT
  5
18868
330
747D
100
AcDbEntity
  8
文字
 62
     7
 48
50.0
100
AcDbText
 10
13248.77747366448
 20
8890.013745883729
 30
0.0
 40
100.0
  1
13
  7
STYLE1
100
AcDbText
  0
TEXT
  5
18869
330
747D
100
AcDbEntity
  8
文字
 62
     7
 48
50.0
100
AcDbText
 10
13248.77747366448
 20
9060.013745883729
 30
0.0
 40
100.0
  1
12
  7
STYLE1
100
AcDbText
  0
TEXT
  5
1886A
330
747D
100
AcDbEntity
  8
文字
 62
     7
 48
50.0
100
AcDbText
 10
15022.63965474517
 20
10930.01374588372
 30
0.0
 40
100.0
  1
F12            1.2
  7
STYLE1
100
AcDbText
  0
TEXT
  5
1886C
330
747D
100
AcDbEntity
  8
文字
 62
     7
 48
50.0
100
AcDbText
 10
15022.63965474517
 20
10590.01374588372
 30
0.0
 40
100.0
  1
Y10            1.0
  7
STYLE1
100
AcDbText
  0
TEXT
  5
1886D
330
747D
100
AcDbEntity
  8
文字
 62
     7
 48
50.0
100
AcDbText
 10
15022.63965474516
 20
10420.01374588372
 30
0.0
 40
100.0
  1
Y10            1.0
  7
STYLE1
100
AcDbText
  0
TEXT
  5
1886E
330
747D
100
AcDbEntity
  8
文字
 62
     7
 48
50.0
100
AcDbText
 10
15022.63965474517
 20
10250.01374588372
 30
0.0
 40
100.0
  1
Y10            0.7
  7
STYLE1
100
AcDbText
  0
TEXT
  5
1886F
330
747D
100
AcDbEntity
  8
文字
 62
     7
 48
50.0
100
AcDbText
 10
15022.63965474516
 20
10080.01374588372
 30
0.0
 40
100.0
  1
Y10            0.7
  7
STYLE1
100
AcDbText
  0
TEXT
  5
18870
330
747D
100
AcDbEntity
  8
文字
 62
     7
 48
50.0
100
AcDbText
 10
15022.63965474517
 20
9740.013745883725
 30
0.0
 40
100.0
  1
F12            1.0
  7
STYLE1
100
AcDbText
  0
TEXT
  5
18871
330
747D
100
AcDbEntity
  8
文字
 62
     7
 48
50.0
100
AcDbText
 10
15022.63965474517
 20
9570.013745883725
 30
0.0
 40
100.0
  1
Y10            0.5
  7
STYLE1
100
AcDbText
  0
TEXT
  5
18872
330
747D
100
AcDbEntity
  8
文字
 62
     7
 48
50.0
100
AcDbText
 10
15022.63965474516
 20
9400.013745883725
 30
0.0
 40
100.0
  1
F12            0.6
  7
STYLE1
100
AcDbText
  0
TEXT
  5
18873
330
747D
100
AcDbEntity
  8
文字
 62
     7
 48
50.0
100
AcDbText
 10
14850.83183167176
 20
8890.013745883726
 30
0.0
 40
100.0
  1
アルミニウム合金押出形材
  7
STYLE1
100
AcDbText
  0
TEXT
  5
18875
330
747D
100
AcDbEntity
  8
文字
 62
     7
 48
50.0
100
AcDbText
 10
15022.63965474515
 20
9230.013745883727
 30
0.0
 40
100.0
  1
Z08            0.5
  7
STYLE1
100
AcDbText
  0
TEXT
  5
18876
330
747D
100
AcDbEntity
  8
文字
 62
     7
 48
50.0
100
AcDbText
 10
15022.63965474515
 20
8720.013745883727
 30
0.0
 40
100.0
  1
F12            0.6
  7
STYLE1
100
AcDbText
  0
LINE
  5
18877
330
747D
100
AcDbEntity
  8
仕様書枠
 48
50.0
100
AcDbLine
 10
16307.19999999999
 20
8519.600000000002
 30
0.0
 11
13127.19999999999
 21
8519.600000000002
 31
0.0
  0
LINE
  5
18878
330
747D
100
AcDbEntity
  8
仕様書枠
 48
50.0
100
AcDbLine
 10
16307.19999999999
 20
8349.6
 30
0.0
 11
13127.19999999999
 21
8349.600000000002
 31
0.0
  0
LINE
  5
18879
330
747D
100
AcDbEntity
  8
仕様書枠
 48
50.0
100
AcDbLine
 10
16307.19999999999
 20
8179.6
 30
0.0
 11
13127.19999999999
 21
8179.600000000002
 31
0.0
  0
TEXT
  5
1887A
330
747D
100
AcDbEntity
  8
文字
 62
     7
 48
50.0
100
AcDbText
 10
13229.83081656555
 20
8550.013745883729
 30
0.0
 40
100.0
  1
F12→溶融亜鉛めっき鋼板(JIS G 3302)
  7
STYLE1
100
AcDbText
  0
TEXT
  5
1887B
330
747D
100
AcDbEntity
  8
文字
 62
     7
 48
50.0
100
AcDbText
 10
13229.83081656554
 20
8380.013745883728
 30
0.0
 40
100.0
  1
Y10→溶融亜鉛-5％アルミニウム合金めっき鋼板(JIS G 3317)
 41
0.9
  7
STYLE1
100
AcDbText
  0
TEXT
  5
1887C
330
747D
100
AcDbEntity
  8
文字
 62
     7
 48
50.0
100
AcDbText
 10
13229.83081656555
 20
8210.013745883731
 30
0.0
 40
100.0
  1
Z08→塗装溶融亜鉛めっき鋼板(JIS G 3313)
  7
STYLE1
100
AcDbText
  0
LINE
  5
1887D
330
747D
100
AcDbEntity
  8
仕様書枠
 48
50.0
100
AcDbLine
 10
13127.2
 20
11239.6
 30
0.0
 11
13127.2
 21
8179.600000000002
 31
0.0
  0
TEXT
  5
18FFA
330
747D
100
AcDbEntity
  8
文字
 62
     7
 48
50.0
100
AcDbText
 10
14256.80651792544
 20
483.8967129911414
 30
0.0
 40
160.0
  1
FXN-1726SL-2
  7
MSPゴシック
100
AcDbText
  0
LINE
  5
18FFB
330
747D
100
AcDbEntity
  8
部品1
100
AcDbLine
 10
10027.6739012932
 20
2537.931598713262
 30
0.0
 11
9634.676687084358
 21
2437.931598713261
 31
0.0
  0
LINE
  5
18FFC
330
747D
100
AcDbEntity
  8
破線
 48
5.0
100
AcDbLine
 10
10027.6739012932
 20
2187.931598713261
 30
0.0
 11
10082.6739012932
 21
2187.931598713261
 31
0.0
  0
LINE
  5
18FFD
330
747D
100
AcDbEntity
  8
破線
 48
5.0
100
AcDbLine
 10
10082.6739012932
 20
2437.931598713261
 30
0.0
 11
10082.6739012932
 21
2187.931598713261
 31
0.0
  0
LINE
  5
18FFE
330
747D
100
AcDbEntity
  8
破線
 48
5.0
100
AcDbLine
 10
10027.6739012932
 20
2437.931598713261
 30
0.0
 11
10027.6739012932
 21
2187.931598713261
 31
0.0
  0
DIMENSION
  5
19004
330
747D
100
AcDbEntity
  8
寸法
 48
50.0
100
AcDbDimension
  2
*D29
 10
9407.065494524827
 20
4487.276857586594
 30
0.0
 11
9417.730969783752
 21
4858.123520828293
 31
0.0
 70
   161
 71
     5
 42
141.0
  3
INABA_S40G
100
AcDbAlignedDimension
 13
9987.069921451784
 23
4611.654347547943
 33
0.0
 14
9983.016465895159
 24
4470.712623782229
 34
0.0
1001
ACAD
1000
DSTYLE
1002
{
1070
   174
1070
     0
1070
   272
1070
     1
1070
   288
1070
     0
1070
   341
1005
0
1002
}
  0
LINE
  5
19005
330
747D
100
AcDbEntity
  8
細線
 48
50.0
100
AcDbLine
 10
12525.17390129321
 20
4377.931598713261
 30
0.0
 11
12525.17390129321
 21
2587.931598713265
 31
0.0
  0
LINE
  5
19006
330
747D
100
AcDbEntity
  8
細線
 48
50.0
100
AcDbLine
 10
12540.17390129321
 20
4377.931598713261
 30
0.0
 11
12540.17390129321
 21
2587.931598713265
 31
0.0
  0
LINE
  5
19007
330
747D
100
AcDbEntity
  8
細線
 48
50.0
100
AcDbLine
 10
12400.17390129321
 20
4377.931598713261
 30
0.0
 11
12400.17390129321
 21
2587.931598713265
 31
0.0
  0
LINE
  5
19008
330
747D
100
AcDbEntity
  8
細線
 48
50.0
100
AcDbLine
 10
12385.17390129321
 20
4377.931598713261
 30
0.0
 11
12385.17390129321
 21
2587.931598713265
 31
0.0
  0
LINE
  5
19009
330
747D
100
AcDbEntity
  8
細線
 48
50.0
100
AcDbLine
 10
12245.17390129321
 20
4377.931598713261
 30
0.0
 11
12245.17390129321
 21
2587.931598713265
 31
0.0
  0
LINE
  5
1900A
330
747D
100
AcDbEntity
  8
細線
 48
50.0
100
AcDbLine
 10
12260.17390129321
 20
4377.931598713261
 30
0.0
 11
12260.17390129321
 21
2587.931598713265
 31
0.0
  0
LINE
  5
1900B
330
747D
100
AcDbEntity
  8
部品1
100
AcDbLine
 10
11342.6739012932
 20
4377.931598713261
 30
0.0
 11
11342.6739012932
 21
2587.931598713261
 31
0.0
  0
LINE
  5
1900C
330
747D
100
AcDbEntity
  8
細線
 48
50.0
100
AcDbLine
 10
11000.1739012932
 20
4377.931598713261
 30
0.0
 11
11000.17390129321
 21
2587.931598713261
 31
0.0
  0
LINE
  5
1900D
330
747D
100
AcDbEntity
  8
細線
 48
50.0
100
AcDbLine
 10
10985.1739012932
 20
4377.931598713261
 30
0.0
 11
10985.17390129321
 21
2587.931598713261
 31
0.0
  0
LINE
  5
1900E
330
747D
100
AcDbEntity
  8
細線
 48
50.0
100
AcDbLine
 10
11125.1739012932
 20
4377.931598713261
 30
0.0
 11
11125.17390129321
 21
2587.931598713261
 31
0.0
  0
LINE
  5
1900F
330
747D
100
AcDbEntity
  8
細線
 48
50.0
100
AcDbLine
 10
11140.1739012932
 20
4377.931598713261
 30
0.0
 11
11140.17390129321
 21
2587.931598713261
 31
0.0
  0
LINE
  5
19010
330
747D
100
AcDbEntity
  8
細線
 48
50.0
100
AcDbLine
 10
11280.1739012932
 20
4377.931598713261
 30
0.0
 11
11280.1739012932
 21
2587.931598713261
 31
0.0
  0
LINE
  5
19011
330
747D
100
AcDbEntity
  8
細線
 48
50.0
100
AcDbLine
 10
11265.1739012932
 20
4377.931598713261
 30
0.0
 11
11265.1739012932
 21
2587.931598713261
 31
0.0
  0
LINE
  5
19012
330
747D
100
AcDbEntity
  8
部品1
100
AcDbLine
 10
10922.6739012932
 20
4377.931598713261
 30
0.0
 11
10922.6739012932
 21
2587.931598713261
 31
0.0
  0
DIMENSION
  5
19013
330
747D
100
AcDbEntity
  8
寸法
 48
50.0
100
AcDbDimension
  2
*D30
 10
12737.6739012932
 20
5011.589052292568
 30
0.0
 11
12943.72114538769
 21
5011.589052292568
 31
0.0
 70
   160
 71
     5
 42
80.0
  3
INABA_S40G
100
AcDbAlignedDimension
 13
12657.6739012932
 23
4559.742278324915
 33
0.0
 14
12737.6739012932
 24
4557.931598713263
 34
0.0
100
AcDbRotatedDimension
1001
ACAD
1000
DSTYLE
1002
{
1070
   174
1070
     0
1070
   272
1070
     1
1070
   288
1070
     0
1070
   341
1005
0
1002
}
  0
LINE
  5
19014
330
747D
100
AcDbEntity
  8
細線
 48
50.0
100
AcDbLine
 10
10160.1739012932
 20
4377.931598713261
 30
0.0
 11
10160.1739012932
 21
2587.931598713261
 31
0.0
  0
LINE
  5
19015
330
747D
100
AcDbEntity
  8
細線
 48
50.0
100
AcDbLine
 10
10145.1739012932
 20
4377.931598713261
 30
0.0
 11
10145.1739012932
 21
2587.931598713261
 31
0.0
  0
LINE
  5
19016
330
747D
100
AcDbEntity
  8
細線
 48
50.0
100
AcDbLine
 10
10285.1739012932
 20
4377.931598713261
 30
0.0
 11
10285.1739012932
 21
2587.931598713261
 31
0.0
  0
LINE
  5
19017
330
747D
100
AcDbEntity
  8
細線
 48
50.0
100
AcDbLine
 10
10300.1739012932
 20
4377.931598713261
 30
0.0
 11
10300.1739012932
 21
2587.931598713261
 31
0.0
  0
LINE
  5
19018
330
747D
100
AcDbEntity
  8
細線
 48
50.0
100
AcDbLine
 10
10440.1739012932
 20
4377.931598713261
 30
0.0
 11
10440.1739012932
 21
2587.931598713261
 31
0.0
  0
LINE
  5
19019
330
747D
100
AcDbEntity
  8
細線
 48
50.0
100
AcDbLine
 10
10425.1739012932
 20
4377.931598713261
 30
0.0
 11
10425.1739012932
 21
2587.931598713261
 31
0.0
  0
LINE
  5
1901A
330
747D
100
AcDbEntity
  8
細線
 48
50.0
100
AcDbLine
 10
10845.1739012932
 20
4377.931598713261
 30
0.0
 11
10845.1739012932
 21
2587.931598713261
 31
0.0
  0
LINE
  5
1901B
330
747D
100
AcDbEntity
  8
細線
 48
50.0
100
AcDbLine
 10
10860.1739012932
 20
4377.931598713261
 30
0.0
 11
10860.1739012932
 21
2587.931598713261
 31
0.0
  0
LINE
  5
1901C
330
747D
100
AcDbEntity
  8
細線
 48
50.0
100
AcDbLine
 10
10720.1739012932
 20
4377.931598713261
 30
0.0
 11
10720.1739012932
 21
2587.931598713261
 31
0.0
  0
LINE
  5
1901D
330
747D
100
AcDbEntity
  8
細線
 48
50.0
100
AcDbLine
 10
10705.1739012932
 20
4377.931598713261
 30
0.0
 11
10705.1739012932
 21
2587.931598713261
 31
0.0
  0
LINE
  5
1901E
330
747D
100
AcDbEntity
  8
細線
 48
50.0
100
AcDbLine
 10
10565.1739012932
 20
4377.931598713261
 30
0.0
 11
10565.1739012932
 21
2587.931598713261
 31
0.0
  0
LINE
  5
1901F
330
747D
100
AcDbEntity
  8
細線
 48
50.0
100
AcDbLine
 10
10580.1739012932
 20
4377.931598713261
 30
0.0
 11
10580.1739012932
 21
2587.931598713261
 31
0.0
  0
LINE
  5
19020
330
747D
100
AcDbEntity
  8
部品1
100
AcDbLine
 10
10082.6739012932
 20
2537.931598713262
 30
0.0
 11
12657.6739012932
 21
2537.931598713262
 31
0.0
  0
DIMENSION
  5
19021
330
747D
100
AcDbEntity
  8
寸法
 48
50.0
100
AcDbDimension
  2
*D22
 10
9967.673901293204
 20
5231.799739024184
 30
0.0
 11
11352.6739012932
 21
5231.799739024184
 31
0.0
 70
   160
 71
     5
 42
2770.0
  3
INABA_S40G
100
AcDbAlignedDimension
 13
12737.6739012932
 23
4557.931598713263
 33
0.0
 14
9967.673901293204
 24
4612.931598713267
 34
0.0
100
AcDbRotatedDimension
1001
ACAD
1000
DSTYLE
1002
{
1070
   174
1070
     0
1070
   272
1070
     1
1070
   288
1070
     0
1070
   341
1005
0
1002
}
  0
DIMENSION
  5
19022
330
747D
100
AcDbEntity
  8
寸法
 48
50.0
100
AcDbDimension
  2
*D23
 10
9967.673901293204
 20
5011.589052292567
 30
0.0
 11
9658.036106017615
 21
5011.589052292567
 31
0.0
 70
   160
 71
     5
 42
60.0
  3
INABA_S40G
100
AcDbAlignedDimension
 13
10027.6739012932
 23
4608.933216836239
 33
0.0
 14
9967.673901293204
 24
4612.931598713267
 34
0.0
100
AcDbRotatedDimension
1001
ACAD
1000
DSTYLE
1002
{
1070
   174
1070
     0
1070
   272
1070
     1
1070
   288
1070
     0
1070
   341
1005
0
1002
}
  0
DIMENSION
  5
19023
330
747D
100
AcDbEntity
  8
寸法
 48
50.0
100
AcDbDimension
  2
*D24
 10
10027.6739012932
 20
5011.589052292568
 30
0.0
 11
11342.6739012932
 21
5011.589052292568
 31
0.0
 70
   160
  1
柱外寸法<>
 71
     5
 42
2630.0
  3
INABA_S40G
100
AcDbAlignedDimension
 13
12657.6739012932
 23
4559.742278324915
 33
0.0
 14
10027.6739012932
 24
4608.933216836239
 34
0.0
100
AcDbRotatedDimension
1001
ACAD
1000
DSTYLE
1002
{
1070
   174
1070
     0
1070
   272
1070
     1
1070
   288
1070
     0
1070
   341
1005
0
1002
}
  0
LINE
  5
19024
330
747D
100
AcDbEntity
  8
部品1
100
AcDbLine
 10
12602.6739012932
 20
4377.931598713261
 30
0.0
 11
12602.6739012932
 21
2587.931598713265
 31
0.0
  0
LINE
  5
19025
330
747D
100
AcDbEntity
  8
部品1
100
AcDbLine
 10
12657.6739012932
 20
4432.465872101001
 30
0.0
 11
12657.6739012932
 21
2437.931598713265
 31
0.0
  0
LINE
  5
19026
330
747D
100
AcDbEntity
  8
部品1
100
AcDbLine
 10
10502.6739012932
 20
4377.931598713261
 30
0.0
 11
10502.6739012932
 21
2587.931598713261
 31
0.0
  0
DIMENSION
  5
19027
330
747D
100
AcDbEntity
  8
寸法
100
AcDbDimension
  2
*D25
 10
9183.923772109945
 20
2537.931598713263
 30
0.0
 11
9183.923772109945
 21
2231.884354618772
 31
0.0
 70
   160
 71
     5
 42
50.0
  3
INABA_S40G
100
AcDbAlignedDimension
 13
10027.6739012932
 23
2587.931598713263
 33
0.0
 14
9972.673901293205
 24
2537.931598713262
 34
0.0
 50
90.0
100
AcDbRotatedDimension
1001
ACAD
1000
DSTYLE
1002
{
1070
   174
1070
     0
1070
   272
1070
     1
1070
   288
1070
     0
1070
   341
1005
0
1002
}
  0
LINE
  5
19028
330
747D
100
AcDbEntity
  8
部品1
100
AcDbLine
 10
10027.6739012932
 20
4470.074036642141
 30
0.0
 11
10027.6739012932
 21
2437.931598713261
 31
0.0
  0
LINE
  5
19029
330
747D
100
AcDbEntity
  8
部品1
100
AcDbLine
 10
10082.6739012932
 20
4377.931598713261
 30
0.0
 11
10082.6739012932
 21
2437.931598713265
 31
0.0
  0
LINE
  5
1902A
330
747D
100
AcDbEntity
  8
部品1
100
AcDbLine
 10
10082.6739012932
 20
2587.931598713261
 30
0.0
 11
12657.6739012932
 21
2587.931598713265
 31
0.0
  0
LINE
  5
1902B
330
747D
100
AcDbEntity
  8
部品1
100
AcDbLine
 10
10027.6739012932
 20
4377.931598713261
 30
0.0
 11
12657.6739012932
 21
4377.931598713261
 31
0.0
  0
LINE
  5
1902C
330
747D
100
AcDbEntity
  8
部品1
100
AcDbLine
 10
12182.6739012932
 20
4377.931598713261
 30
0.0
 11
12182.6739012932
 21
2587.931598713265
 31
0.0
  0
LINE
  5
1902D
330
747D
100
AcDbEntity
  8
細線
 48
50.0
100
AcDbLine
 10
11685.1739012932
 20
4377.931598713261
 30
0.0
 11
11685.1739012932
 21
2587.931598713261
 31
0.0
  0
LINE
  5
1902E
330
747D
100
AcDbEntity
  8
細線
 48
50.0
100
AcDbLine
 10
11700.1739012932
 20
4377.931598713261
 30
0.0
 11
11700.1739012932
 21
2587.931598713261
 31
0.0
  0
LINE
  5
1902F
330
747D
100
AcDbEntity
  8
細線
 48
50.0
100
AcDbLine
 10
11560.1739012932
 20
4377.931598713261
 30
0.0
 11
11560.1739012932
 21
2587.931598713261
 31
0.0
  0
LINE
  5
19030
330
747D
100
AcDbEntity
  8
細線
 48
50.0
100
AcDbLine
 10
11545.1739012932
 20
4377.931598713261
 30
0.0
 11
11545.1739012932
 21
2587.931598713261
 31
0.0
  0
LINE
  5
19031
330
747D
100
AcDbEntity
  8
細線
 48
50.0
100
AcDbLine
 10
11405.1739012932
 20
4377.931598713261
 30
0.0
 11
11405.1739012932
 21
2587.931598713261
 31
0.0
  0
LINE
  5
19032
330
747D
100
AcDbEntity
  8
細線
 48
50.0
100
AcDbLine
 10
11420.1739012932
 20
4377.931598713261
 30
0.0
 11
11420.1739012932
 21
2587.931598713261
 31
0.0
  0
TEXT
  5
19033
330
747D
100
AcDbEntity
  8
部品1
 48
50.0
100
AcDbText
 10
11694.2549032543
 20
4635.200691651571
 30
0.0
 40
120.0
  1
37
 50
90.0
  7
STYLE1
100
AcDbText
  0
TEXT
  5
19034
330
747D
100
AcDbEntity
  8
部品1
 48
50.0
100
AcDbText
 10
11216.62188058921
 20
4772.701949869854
 30
0.0
 40
120.0
  1
1000
  7
STYLE1
100
AcDbText
  0
LINE
  5
19035
330
747D
100
AcDbEntity
  8
部品1
 48
50.0
100
AcDbLine
 10
11528.35404536548
 20
4736.81792771742
 30
0.0
 11
11528.35404536548
 21
4720.61792771742
 31
0.0
  0
LINE
  5
19036
330
747D
100
AcDbEntity
  8
部品1
 48
50.0
100
AcDbLine
 10
11228.35404536548
 20
4736.81792771742
 30
0.0
 11
11528.35404536548
 21
4736.81792771742
 31
0.0
  0
LINE
  5
19037
330
747D
100
AcDbEntity
  8
部品1
100
AcDbLine
 10
9975.218887650168
 20
4611.649334047528
 30
0.0
 11
12730.28577815467
 21
4556.572396422402
 31
0.0
  0
LINE
  5
19038
330
747D
100
AcDbEntity
  8
部品1
100
AcDbLine
 10
9983.016465895159
 20
4470.71262378223
 30
0.0
 11
12712.33760183305
 21
4431.684198548024
 31
0.0
  0
LINE
  5
19039
330
747D
100
AcDbEntity
  8
細線
 48
50.0
100
AcDbLine
 10
10000.6739012932
 20
4610.331275088668
 30
0.0
 11
9995.384799737699
 21
4470.245642461311
 31
0.0
  0
LINE
  5
1903A
330
747D
100
AcDbEntity
  8
細線
 48
50.0
100
AcDbLine
 10
12704.64318448689
 20
4557.085021192732
 30
0.0
 11
12699.92621840521
 21
4432.152805257814
 31
0.0
  0
LINE
  5
1903B
330
747D
100
AcDbEntity
  8
部品1
 48
50.0
100
AcDbLine
 10
9967.858187206312
 20
4604.525144877956
 30
0.0
 11
9968.238446984123
 21
4584.598180431544
 31
0.0
  0
LINE
  5
1903C
330
747D
100
AcDbEntity
  8
部品1
 48
50.0
100
AcDbLine
 10
9971.30721909037
 20
4581.02289893807
 30
0.0
 11
9973.011120581734
 21
4491.732402231424
 31
0.0
  0
LINE
  5
1903D
330
747D
100
AcDbEntity
  8
細線
 48
50.0
100
AcDbLine
 10
9968.71332439402
 20
4583.948680554626
 30
0.0
 11
12734.34930913919
 21
4528.324475913796
 31
0.0
  0
LINE
  5
1903E
330
747D
100
AcDbEntity
  8
細線
 48
50.0
100
AcDbLine
 10
9973.473799631307
 20
4491.08716885676
 30
0.0
 11
12723.47746406194
 21
4451.277849882266
 31
0.0
  0
LINE
  5
1903F
330
747D
100
AcDbEntity
  8
部品1
 48
50.0
100
AcDbLine
 10
9976.079892687977
 20
4488.157120737953
 30
0.0
 11
9976.281845308408
 21
4477.574085344858
 31
0.0
  0
ARC
  5
19040
330
747D
100
AcDbEntity
  8
部品1
 48
50.0
100
AcDbCircle
 10
9974.856913034651
 20
4604.658699285384
 30
0.0
 40
7.0
100
AcDbArc
 50
87.03587545283093
 51
181.0932240293156
  0
ARC
  5
19041
330
747D
100
AcDbEntity
  8
部品1
 48
50.0
100
AcDbCircle
 10
9983.280571136747
 20
4477.707639752287
 30
0.0
 40
7.0
100
AcDbArc
 50
181.0932240293156
 51
267.8377559869488
  0
ARC
  5
19042
330
747D
100
AcDbEntity
  8
部品1
100
AcDbCircle
 10
9973.080438761547
 20
4488.099883134768
 30
0.0
 40
3.0
100
AcDbArc
 50
1.093224029315636
 51
80.18775403169708
  0
ARC
  5
19043
330
747D
100
AcDbEntity
  8
部品1
100
AcDbCircle
 10
9968.30776516394
 20
4580.965661334889
 30
0.0
 40
3.0
100
AcDbArc
 50
1.093224029315636
 51
80.18775403169708
  0
ARC
  5
19044
330
747D
100
AcDbEntity
  8
部品1
100
AcDbCircle
 10
9968.938319566962
 20
4584.611535872285
 30
0.0
 40
0.7
100
AcDbArc
 50
181.0932240292114
 51
260.1877540314855
  0
ARC
  5
19045
330
747D
100
AcDbEntity
  8
部品1
100
AcDbCircle
 10
9973.710993164573
 20
4491.745757672168
 30
0.0
 40
0.7
100
AcDbArc
 50
181.0932240293156
 51
260.1877540314855
  0
LINE
  5
19046
330
747D
100
AcDbEntity
  8
部品1
 48
50.0
100
AcDbLine
 10
12736.88780410391
 20
4548.87275098748
 30
0.0
 11
12734.85718291294
 21
4528.927709729702
 31
0.0
  0
LINE
  5
19047
330
747D
100
AcDbEntity
  8
部品1
 48
50.0
100
AcDbLine
 10
12731.50461642845
 20
4525.617075656792
 30
0.0
 11
12723.99783716362
 21
4451.884454911782
 31
0.0
  0
LINE
  5
19048
330
747D
100
AcDbEntity
  8
部品1
 48
50.0
100
AcDbLine
 10
12720.64527067913
 20
4448.573820838868
 30
0.0
 11
12719.56570763939
 21
4437.97020384531
 31
0.0
  0
ARC
  5
19049
330
747D
100
AcDbEntity
  8
部品1
 48
50.0
100
AcDbCircle
 10
12729.92380353915
 20
4549.581761660258
 30
0.0
 40
7.0
100
AcDbArc
 50
354.1866997665565
 51
87.03587545283093
  0
ARC
  5
1904A
330
747D
100
AcDbEntity
  8
部品1
 48
50.0
100
AcDbCircle
 10
12712.60170707463
 20
4438.679214518084
 30
0.0
 40
7.0
100
AcDbArc
 50
267.8377559869488
 51
354.1866997665565
  0
ARC
  5
1904B
330
747D
100
AcDbEntity
  8
部品1
100
AcDbCircle
 10
12723.62984234974
 20
4448.269959121964
 30
0.0
 40
3.0
100
AcDbArc
 50
95.0921697642102
 51
174.1866997665564
  0
ARC
  5
1904C
330
747D
100
AcDbEntity
  8
部品1
100
AcDbCircle
 10
12734.48918809906
 20
4525.313213939891
 30
0.0
 40
3.0
100
AcDbArc
 50
95.0921697642102
 51
174.1866997665564
  0
ARC
  5
1904D
330
747D
100
AcDbEntity
  8
部品1
100
AcDbCircle
 10
12734.16078285646
 20
4528.998610796977
 30
0.0
 40
0.7
100
AcDbArc
 50
275.0921697642102
 51
354.1866997665565
  0
ARC
  5
1904E
330
747D
100
AcDbEntity
  8
部品1
100
AcDbCircle
 10
12723.30143710714
 20
4451.955355979055
 30
0.0
 40
0.7
100
AcDbArc
 50
275.0921697642102
 51
354.1866997667638
  0
LINE
  5
1904F
330
747D
100
AcDbEntity
  8
部品1
100
AcDbLine
 10
11202.89903172244
 20
4738.135986676279
 30
0.0
 11
11528.35404536548
 21
4720.61792771742
 31
0.0
  0
LINE
  5
19050
330
747D
100
AcDbEntity
  8
部品1
100
AcDbLine
 10
11762.6739012932
 20
4377.931598713261
 30
0.0
 11
11762.6739012932
 21
2587.931598713265
 31
0.0
  0
LINE
  5
19051
330
747D
100
AcDbEntity
  8
細線
 48
50.0
100
AcDbLine
 10
11840.1739012932
 20
4377.931598713261
 30
0.0
 11
11840.1739012932
 21
2587.931598713265
 31
0.0
  0
LINE
  5
19052
330
747D
100
AcDbEntity
  8
細線
 48
50.0
100
AcDbLine
 10
11825.1739012932
 20
4377.931598713261
 30
0.0
 11
11825.1739012932
 21
2587.931598713265
 31
0.0
  0
LINE
  5
19053
330
747D
100
AcDbEntity
  8
細線
 48
50.0
100
AcDbLine
 10
11965.1739012932
 20
4377.931598713261
 30
0.0
 11
11965.1739012932
 21
2587.931598713265
 31
0.0
  0
LINE
  5
19054
330
747D
100
AcDbEntity
  8
細線
 48
50.0
100
AcDbLine
 10
11980.1739012932
 20
4377.931598713261
 30
0.0
 11
11980.1739012932
 21
2587.931598713265
 31
0.0
  0
LINE
  5
19055
330
747D
100
AcDbEntity
  8
細線
 48
50.0
100
AcDbLine
 10
12120.1739012932
 20
4377.931598713261
 30
0.0
 11
12120.1739012932
 21
2587.931598713265
 31
0.0
  0
LINE
  5
19056
330
747D
100
AcDbEntity
  8
細線
 48
50.0
100
AcDbLine
 10
12105.1739012932
 20
4377.931598713261
 30
0.0
 11
12105.1739012932
 21
2587.931598713265
 31
0.0
  0
DIMENSION
  5
19057
330
747D
100
AcDbEntity
  8
寸法
100
AcDbDimension
  2
*D26
 10
13362.60105926533
 20
4557.931598713263
 30
0.0
 11
13262.58924824171
 21
3547.931598713266
 31
0.0
 70
    32
 71
     5
 42
2020.0
  3
INABA_S40G
100
AcDbAlignedDimension
 13
12657.6739012932
 23
2537.931598713264
 33
0.0
 14
12737.6739012932
 24
4557.931598713263
 34
0.0
 50
90.0
100
AcDbRotatedDimension
1001
ACAD
1000
DSTYLE
1002
{
1070
   174
1070
     0
1070
   272
1070
     1
1070
   288
1070
     0
1070
   341
1005
0
1002
}
  0
DIMENSION
  5
19058
330
747D
100
AcDbEntity
  8
寸法
100
AcDbDimension
  2
*D27
 10
8883.923772109945
 20
4612.931598713262
 30
0.0
 11
8783.911961086323
 21
3575.431598713261
 31
0.0
 70
    32
 71
     5
 42
2075.000000000005
  3
INABA_S40G
100
AcDbAlignedDimension
 13
10027.6739012932
 23
2537.931598713257
 33
0.0
 14
9967.673901293204
 24
4612.931598713262
 34
0.0
 50
90.0
100
AcDbRotatedDimension
1001
ACAD
1000
DSTYLE
1002
{
1070
   174
1070
     0
1070
   272
1070
     1
1070
   288
1070
     0
1070
   341
1005
0
1002
}
  0
DIMENSION
  5
19059
330
747D
100
AcDbEntity
  8
寸法
100
AcDbDimension
  2
*D28
 10
9183.923772109945
 20
2587.931598713257
 30
0.0
 11
9083.923772109946
 21
3482.931598713259
 31
0.0
 70
    32
 71
     5
 42
1790.000000000001
  3
INABA_S40G
100
AcDbAlignedDimension
 13
10027.6739012932
 23
4377.931598713258
 33
0.0
 14
10027.6739012932
 24
2587.931598713257
 34
0.0
 50
90.0
100
AcDbRotatedDimension
1001
ACAD
1000
DSTYLE
1002
{
1070
   174
1070
     0
1070
   272
1070
     1
1070
   288
1070
     0
1070
   341
1005
0
1002
}
  0
LINE
  5
19E18
330
747D
100
AcDbEntity
  8
補助
  6
PHANTOM
 62
   230
 48
50.0
100
AcDbLine
 10
140.0
 20
0.0
 30
0.0
 11
139.9999999999995
 21
11409.6
 31
0.0
  0
DIMENSION
  5
1A256
330
747D
100
AcDbEntity
  8
寸法
 48
50.0
100
AcDbDimension
  2
*D33
 10
3820.497127903582
 20
5018.657870445171
 30
0.0
 11
5610.497127903585
 21
5018.657870445171
 31
0.0
 70
   160
  1
柱外寸法<>
 71
     5
 42
3580.000000000005
  3
INABA_S40G
100
AcDbAlignedDimension
 13
7400.497127903587
 23
4612.931598713268
 33
0.0
 14
3820.497127903582
 24
4612.931598713268
 34
0.0
100
AcDbRotatedDimension
  0
DIMENSION
  5
1A257
330
747D
100
AcDbEntity
  8
寸法
 48
50.0
100
AcDbDimension
  2
*D31
 10
7450.497127903584
 20
5218.566791659261
 30
0.0
 11
5610.497127903583
 21
5218.566791659261
 31
0.0
 70
   160
 71
     5
 42
3680.000000000002
  3
INABA_S40G
100
AcDbAlignedDimension
 13
3770.497127903582
 23
4612.931598713268
 33
0.0
 14
7450.497127903584
 24
4612.931598713265
 34
0.0
100
AcDbRotatedDimension
  0
DIMENSION
  5
1A258
330
747D
100
AcDbEntity
  8
寸法
 48
50.0
100
AcDbDimension
  2
*D32
 10
3770.497127903582
 20
5018.657870445171
 30
0.0
 11
3457.011846529335
 21
5018.657870445171
 31
0.0
 70
   160
 71
     5
 42
50.0
  3
INABA_S40G
100
AcDbAlignedDimension
 13
3820.497127903582
 23
4612.931598713268
 33
0.0
 14
3770.497127903582
 24
4612.931598713268
 34
0.0
100
AcDbRotatedDimension
1001
ACAD
1000
DSTYLE
1002
{
1002
}
  0
LINE
  5
1A259
330
747D
100
AcDbEntity
  8
部品1
100
AcDbLine
 10
3770.916788918913
 20
4605.535073318027
 30
0.0
 11
3772.050186251262
 21
4585.558945335426
 31
0.0
  0
LINE
  5
1A25A
330
747D
100
AcDbEntity
  8
部品1
100
AcDbLine
 10
3783.487206572841
 20
4489.901538168367
 30
0.0
 11
3784.13211237995
 21
4478.535073318027
 31
0.0
  0
LINE
  5
1A25B
330
747D
100
AcDbEntity
  8
部品1
100
AcDbLine
 10
3775.251176047991
 20
4582.101538168369
 30
0.0
 11
3780.286216776105
 21
4493.358945335425
 31
0.0
  0
ARC
  5
1A25C
330
747D
100
AcDbEntity
  8
部品1
 48
50.0
100
AcDbCircle
 10
3772.255993151804
 20
4581.931598713269
 30
0.0
 40
3.0
100
AcDbArc
 50
3.247342790337682
 51
82.3418727926348
  0
ARC
  5
1A25D
330
747D
100
AcDbEntity
  8
部品1
 48
50.0
100
AcDbCircle
 10
3780.492023676649
 20
4489.731598713264
 30
0.0
 40
3.0
100
AcDbArc
 50
3.247342790337682
 51
82.3418727926348
  0
ARC
  5
1A25E
330
747D
100
AcDbEntity
  8
部品1
 48
50.0
100
AcDbCircle
 10
3780.98509278521
 20
4493.398597874948
 30
0.0
 40
0.7
100
AcDbArc
 50
183.2473427903377
 51
262.3418727926349
  0
ARC
  5
1A25F
330
747D
100
AcDbEntity
  8
部品1
 48
50.0
100
AcDbCircle
 10
3772.749062260373
 20
4585.598597874952
 30
0.0
 40
0.7
100
AcDbArc
 50
183.2473427903377
 51
262.3418727926349
  0
ARC
  5
1A260
330
747D
100
AcDbEntity
  8
部品1
100
AcDbCircle
 10
3791.120872471045
 20
4478.931598713269
 30
0.0
 40
7.0
100
AcDbArc
 50
183.2473427903377
 51
270.0
  0
ARC
  5
1A261
330
747D
100
AcDbEntity
  8
部品1
100
AcDbCircle
 10
3777.905549010015
 20
4605.931598713264
 30
0.0
 40
7.0
100
AcDbArc
 50
90.0
 51
183.2473427903377
  0
LINE
  5
1A262
330
747D
100
AcDbEntity
  8
細線
 48
50.0
100
AcDbLine
 10
3803.497127903582
 20
4612.931598713265
 30
0.0
 11
3803.497127903582
 21
4471.931598713265
 31
0.0
  0
LINE
  5
1A263
330
747D
100
AcDbEntity
  8
細線
 48
50.0
100
AcDbLine
 10
7440.221559157283
 20
4492.731598713258
 30
0.0
 11
3780.772696649852
 21
4492.731598713268
 31
0.0
  0
LINE
  5
1A264
330
747D
100
AcDbEntity
  8
細線
 48
50.0
100
AcDbLine
 10
7448.457589682154
 20
4584.93159871327
 30
0.0
 11
3772.536666125023
 21
4584.931598713264
 31
0.0
  0
LINE
  5
1A265
330
747D
100
AcDbEntity
  8
部品1
 48
50.0
100
AcDbLine
 10
7429.873383336119
 20
4471.931598713269
 30
0.0
 11
3791.120872471045
 21
4471.931598713268
 31
0.0
  0
LINE
  5
1A266
330
747D
100
AcDbEntity
  8
部品1
 48
50.0
100
AcDbLine
 10
7443.088706797154
 20
4612.931598713264
 30
0.0
 11
3777.905549010015
 21
4612.931598713268
 31
0.0
  0
LINE
  5
1A31C
330
747D
100
AcDbEntity
  8
部品1
100
AcDbLine
 10
3820.497127903582
 20
4377.931598713261
 30
0.0
 11
7400.497127903583
 21
4377.931598713259
 31
0.0
  0
DIMENSION
  5
1A31D
330
747D
100
AcDbEntity
  8
寸法
 48
50.0
100
AcDbDimension
  2
*D34
 10
7400.497127903587
 20
5018.657870445174
 30
0.0
 11
7763.982409277824
 21
5018.657870445174
 31
0.0
 70
   160
 71
     5
 42
49.99999999999636
  3
INABA_S40G
100
AcDbAlignedDimension
 13
7450.497127903584
 23
4612.931598713265
 33
0.0
 14
7400.497127903587
 24
4612.931598713268
 34
0.0
100
AcDbRotatedDimension
  0
ARC
  5
1A31E
330
747D
100
AcDbEntity
  8
部品1
100
AcDbCircle
 10
7443.088706797154
 20
4605.931598713268
 30
0.0
 40
7.0
100
AcDbArc
 50
356.7526572096623
 51
90.0
  0
ARC
  5
1A31F
330
747D
100
AcDbEntity
  8
部品1
100
AcDbCircle
 10
7429.873383336119
 20
4478.931598713269
 30
0.0
 40
7.0
100
AcDbArc
 50
270.0
 51
356.7526572096623
  0
ARC
  5
1A320
330
747D
100
AcDbEntity
  8
部品1
 48
50.0
100
AcDbCircle
 10
7448.245193546796
 20
4585.598597874952
 30
0.0
 40
0.7
100
AcDbArc
 50
277.6581272073652
 51
356.7526572096623
  0
ARC
  5
1A321
330
747D
100
AcDbEntity
  8
部品1
 48
50.0
100
AcDbCircle
 10
7440.009163021956
 20
4493.398597874952
 30
0.0
 40
0.7
100
AcDbArc
 50
277.6581272073652
 51
356.7526572096623
  0
ARC
  5
1A322
330
747D
100
AcDbEntity
  8
部品1
 48
50.0
100
AcDbCircle
 10
7440.502232130516
 20
4489.731598713264
 30
0.0
 40
3.0
100
AcDbArc
 50
97.65812720736519
 51
176.7526572096623
  0
ARC
  5
1A323
330
747D
100
AcDbEntity
  8
部品1
 48
50.0
100
AcDbCircle
 10
7448.738262655361
 20
4581.931598713269
 30
0.0
 40
3.0
100
AcDbArc
 50
97.65812720736519
 51
176.7526572096623
  0
LINE
  5
1A324
330
747D
100
AcDbEntity
  8
部品1
100
AcDbLine
 10
7445.743079759175
 20
4582.101538168372
 30
0.0
 11
7440.708039031064
 21
4493.358945335425
 31
0.0
  0
LINE
  5
1A325
330
747D
100
AcDbEntity
  8
部品1
100
AcDbLine
 10
7437.507049234328
 20
4489.901538168367
 30
0.0
 11
7436.862143427219
 21
4478.535073318027
 31
0.0
  0
LINE
  5
1A326
330
747D
100
AcDbEntity
  8
細線
 48
50.0
100
AcDbLine
 10
7417.497127903583
 20
4612.931598713268
 30
0.0
 11
7417.497127903583
 21
4471.931598713268
 31
0.0
  0
LINE
  5
1A327
330
747D
100
AcDbEntity
  8
部品1
100
AcDbLine
 10
7450.077466888252
 20
4605.535073318027
 30
0.0
 11
7448.944069555904
 21
4585.55894533543
 31
0.0
  0
LINE
  5
1A353
330
747D
100
AcDbEntity
  8
部品1
 48
50.0
100
AcDbLine
 10
5600.497127903586
 20
4471.931598713265
 30
0.0
 11
5600.497127903583
 21
4612.931598713265
 31
0.0
  0
LINE
  5
1A354
330
747D
100
AcDbEntity
  8
部品1
 48
50.0
100
AcDbLine
 10
5610.497127903585
 20
4212.93159871326
 30
0.0
 11
5610.497127903585
 21
4471.931598713265
 31
0.0
  0
ARC
  5
1A368
330
747D
100
AcDbEntity
  8
部品1
 48
0.01
100
AcDbCircle
 10
4398.497127903584
 20
4410.431598713262
 30
0.0
 40
2.0
100
AcDbArc
 50
270.0
 51
0.0
  0
ARC
  5
1A369
330
747D
100
AcDbEntity
  8
部品1
 48
0.01
100
AcDbCircle
 10
4398.497127903588
 20
4441.931598713261
 30
0.0
 40
2.0
100
AcDbArc
 50
0.0
 51
90.0
  0
ARC
  5
1A36A
330
747D
100
AcDbEntity
  8
部品1
 48
0.01
100
AcDbCircle
 10
4222.497127903586
 20
4410.431598713262
 30
0.0
 40
2.0
100
AcDbArc
 50
180.0
 51
270.0
  0
ARC
  5
1A36B
330
747D
100
AcDbEntity
  8
部品1
 48
0.01
100
AcDbCircle
 10
4222.497127903586
 20
4441.931598713261
 30
0.0
 40
2.0
100
AcDbArc
 50
90.0
 51
180.0
  0
LINE
  5
1A36C
330
747D
100
AcDbEntity
  8
細線
100
AcDbLine
 10
4310.497127903583
 20
4414.431598713261
 30
0.0
 11
4384.497127903587
 21
4414.431598713261
 31
0.0
  0
LINE
  5
1A36D
330
747D
100
AcDbEntity
  8
細線
100
AcDbLine
 10
4310.497127903587
 20
4437.431598713261
 30
0.0
 11
4236.497127903587
 21
4437.431598713261
 31
0.0
  0
LINE
  5
1A36E
330
747D
100
AcDbEntity
  8
細線
100
AcDbLine
 10
4236.497127903587
 20
4414.431598713261
 30
0.0
 11
4310.497127903587
 21
4414.431598713261
 31
0.0
  0
LINE
  5
1A36F
330
747D
100
AcDbEntity
  8
細線
100
AcDbLine
 10
4384.497127903587
 20
4437.431598713261
 30
0.0
 11
4310.497127903587
 21
4437.431598713261
 31
0.0
  0
LINE
  5
1A370
330
747D
100
AcDbEntity
  8
細線
100
AcDbLine
 10
4384.497127903587
 20
4414.431598713261
 30
0.0
 11
4384.497127903587
 21
4437.431598713261
 31
0.0
  0
LINE
  5
1A371
330
747D
100
AcDbEntity
  8
細線
100
AcDbLine
 10
4236.497127903587
 20
4437.431598713261
 30
0.0
 11
4236.497127903587
 21
4414.431598713261
 31
0.0
  0
LINE
  5
1A372
330
747D
100
AcDbEntity
  8
部品1
 48
0.01
100
AcDbLine
 10
4400.497127903583
 20
4410.431598713262
 30
0.0
 11
4400.497127903586
 21
4441.931598713261
 31
0.0
  0
LINE
  5
1A373
330
747D
100
AcDbEntity
  8
部品1
 48
0.01
100
AcDbLine
 10
4222.497127903586
 20
4408.431598713261
 30
0.0
 11
4398.497127903584
 21
4408.431598713261
 31
0.0
  0
LINE
  5
1A374
330
747D
100
AcDbEntity
  8
部品1
 48
0.01
100
AcDbLine
 10
4220.497127903587
 20
4441.931598713261
 30
0.0
 11
4220.497127903587
 21
4410.431598713262
 31
0.0
  0
LINE
  5
1A375
330
747D
100
AcDbEntity
  8
部品1
 48
0.01
100
AcDbLine
 10
4398.497127903588
 20
4443.931598713262
 30
0.0
 11
4222.497127903586
 21
4443.931598713262
 31
0.0
  0
LINE
  5
1A376
330
747D
100
AcDbEntity
  8
細線
100
AcDbLine
 10
4236.497127903587
 20
4431.431598713261
 30
0.0
 11
4310.497127903587
 21
4431.431598713261
 31
0.0
  0
LINE
  5
1A377
330
747D
100
AcDbEntity
  8
細線
100
AcDbLine
 10
4236.497127903587
 20
4425.431598713261
 30
0.0
 11
4310.497127903587
 21
4425.431598713261
 31
0.0
  0
LINE
  5
1A378
330
747D
100
AcDbEntity
  8
細線
100
AcDbLine
 10
4236.497127903583
 20
4419.431598713261
 30
0.0
 11
4310.497127903587
 21
4419.431598713261
 31
0.0
  0
LINE
  5
1A379
330
747D
100
AcDbEntity
  8
細線
100
AcDbLine
 10
4236.497127903587
 20
4431.431598713261
 30
0.0
 11
4305.497127903588
 21
4431.431598713261
 31
0.0
  0
LINE
  5
1A37A
330
747D
100
AcDbEntity
  8
細線
100
AcDbLine
 10
4384.497127903584
 20
4431.431598713261
 30
0.0
 11
4310.497127903587
 21
4431.431598713261
 31
0.0
  0
LINE
  5
1A37B
330
747D
100
AcDbEntity
  8
細線
100
AcDbLine
 10
4384.497127903584
 20
4419.431598713261
 30
0.0
 11
4310.497127903587
 21
4419.431598713261
 31
0.0
  0
LINE
  5
1A37C
330
747D
100
AcDbEntity
  8
細線
100
AcDbLine
 10
4384.497127903584
 20
4425.431598713261
 30
0.0
 11
4310.497127903587
 21
4425.431598713261
 31
0.0
  0
LINE
  5
1A37D
330
747D
100
AcDbEntity
  8
細線
100
AcDbLine
 10
4310.497127903587
 20
4437.431598713261
 30
0.0
 11
4310.497127903583
 21
4414.431598713261
 31
0.0
  0
LINE
  5
1A37E
330
747D
100
AcDbEntity
  8
細線
100
AcDbLine
 10
5120.497127903584
 20
4437.431598713261
 30
0.0
 11
5120.497127903587
 21
4414.431598713261
 31
0.0
  0
LINE
  5
1A37F
330
747D
100
AcDbEntity
  8
細線
100
AcDbLine
 10
5046.497127903587
 20
4425.431598713261
 30
0.0
 11
5120.497127903584
 21
4425.431598713261
 31
0.0
  0
LINE
  5
1A380
330
747D
100
AcDbEntity
  8
細線
100
AcDbLine
 10
5046.497127903587
 20
4419.431598713261
 30
0.0
 11
5120.497127903584
 21
4419.431598713261
 31
0.0
  0
LINE
  5
1A381
330
747D
100
AcDbEntity
  8
細線
100
AcDbLine
 10
5046.497127903587
 20
4431.431598713261
 30
0.0
 11
5120.497127903584
 21
4431.431598713261
 31
0.0
  0
LINE
  5
1A382
330
747D
100
AcDbEntity
  8
細線
100
AcDbLine
 10
5194.497127903583
 20
4431.431598713261
 30
0.0
 11
5125.497127903583
 21
4431.431598713261
 31
0.0
  0
LINE
  5
1A383
330
747D
100
AcDbEntity
  8
細線
100
AcDbLine
 10
5194.497127903588
 20
4419.431598713261
 30
0.0
 11
5120.497127903584
 21
4419.431598713261
 31
0.0
  0
LINE
  5
1A384
330
747D
100
AcDbEntity
  8
細線
100
AcDbLine
 10
5194.497127903583
 20
4425.431598713261
 30
0.0
 11
5120.497127903584
 21
4425.431598713261
 31
0.0
  0
LINE
  5
1A385
330
747D
100
AcDbEntity
  8
細線
100
AcDbLine
 10
5194.497127903583
 20
4431.431598713261
 30
0.0
 11
5120.497127903584
 21
4431.431598713261
 31
0.0
  0
LINE
  5
1A386
330
747D
100
AcDbEntity
  8
部品1
 48
0.01
100
AcDbLine
 10
5032.497127903583
 20
4443.931598713262
 30
0.0
 11
5208.497127903584
 21
4443.931598713262
 31
0.0
  0
LINE
  5
1A387
330
747D
100
AcDbEntity
  8
部品1
 48
0.01
100
AcDbLine
 10
5210.497127903583
 20
4441.931598713261
 30
0.0
 11
5210.497127903583
 21
4410.431598713262
 31
0.0
  0
LINE
  5
1A388
330
747D
100
AcDbEntity
  8
部品1
 48
0.01
100
AcDbLine
 10
5208.497127903584
 20
4408.431598713261
 30
0.0
 11
5032.497127903587
 21
4408.431598713261
 31
0.0
  0
LINE
  5
1A389
330
747D
100
AcDbEntity
  8
部品1
 48
0.01
100
AcDbLine
 10
5030.497127903587
 20
4410.431598713262
 30
0.0
 11
5030.497127903584
 21
4441.931598713261
 31
0.0
  0
LINE
  5
1A38A
330
747D
100
AcDbEntity
  8
細線
100
AcDbLine
 10
5194.497127903583
 20
4437.431598713261
 30
0.0
 11
5194.497127903583
 21
4414.431598713261
 31
0.0
  0
LINE
  5
1A38B
330
747D
100
AcDbEntity
  8
細線
100
AcDbLine
 10
5046.497127903584
 20
4414.431598713261
 30
0.0
 11
5046.497127903584
 21
4437.431598713261
 31
0.0
  0
LINE
  5
1A38C
330
747D
100
AcDbEntity
  8
細線
100
AcDbLine
 10
5046.497127903584
 20
4437.431598713261
 30
0.0
 11
5120.497127903584
 21
4437.431598713261
 31
0.0
  0
LINE
  5
1A38D
330
747D
100
AcDbEntity
  8
細線
100
AcDbLine
 10
5194.497127903583
 20
4414.431598713261
 30
0.0
 11
5120.497127903584
 21
4414.431598713261
 31
0.0
  0
LINE
  5
1A38E
330
747D
100
AcDbEntity
  8
細線
100
AcDbLine
 10
5120.497127903584
 20
4437.431598713261
 30
0.0
 11
5194.497127903583
 21
4437.431598713261
 31
0.0
  0
LINE
  5
1A38F
330
747D
100
AcDbEntity
  8
細線
100
AcDbLine
 10
5120.497127903587
 20
4414.431598713261
 30
0.0
 11
5046.497127903584
 21
4414.431598713261
 31
0.0
  0
ARC
  5
1A390
330
747D
100
AcDbEntity
  8
部品1
 48
0.01
100
AcDbCircle
 10
5208.497127903584
 20
4441.931598713261
 30
0.0
 40
2.0
100
AcDbArc
 50
0.0
 51
90.0
  0
ARC
  5
1A391
330
747D
100
AcDbEntity
  8
部品1
 48
0.01
100
AcDbCircle
 10
5208.497127903584
 20
4410.431598713262
 30
0.0
 40
2.0
100
AcDbArc
 50
270.0
 51
0.0
  0
ARC
  5
1A392
330
747D
100
AcDbEntity
  8
部品1
 48
0.01
100
AcDbCircle
 10
5032.497127903583
 20
4441.931598713261
 30
0.0
 40
2.0
100
AcDbArc
 50
90.0
 51
180.0
  0
ARC
  5
1A393
330
747D
100
AcDbEntity
  8
部品1
 48
0.01
100
AcDbCircle
 10
5032.497127903587
 20
4410.431598713262
 30
0.0
 40
2.0
100
AcDbArc
 50
180.0
 51
270.0
  0
ARC
  5
1A394
330
747D
100
AcDbEntity
  8
部品1
 48
0.01
100
AcDbCircle
 10
6188.497127903584
 20
4410.431598713262
 30
0.0
 40
2.0
100
AcDbArc
 50
270.0
 51
0.0
  0
ARC
  5
1A395
330
747D
100
AcDbEntity
  8
部品1
 48
0.01
100
AcDbCircle
 10
6188.497127903588
 20
4441.931598713261
 30
0.0
 40
2.0
100
AcDbArc
 50
0.0
 51
90.0
  0
ARC
  5
1A396
330
747D
100
AcDbEntity
  8
部品1
 48
0.01
100
AcDbCircle
 10
6012.497127903587
 20
4410.431598713262
 30
0.0
 40
2.0
100
AcDbArc
 50
180.0
 51
270.0
  0
ARC
  5
1A397
330
747D
100
AcDbEntity
  8
部品1
 48
0.01
100
AcDbCircle
 10
6012.497127903587
 20
4441.931598713261
 30
0.0
 40
2.0
100
AcDbArc
 50
90.0
 51
180.0
  0
LINE
  5
1A398
330
747D
100
AcDbEntity
  8
細線
100
AcDbLine
 10
6100.497127903583
 20
4414.431598713261
 30
0.0
 11
6174.497127903587
 21
4414.431598713261
 31
0.0
  0
LINE
  5
1A399
330
747D
100
AcDbEntity
  8
細線
100
AcDbLine
 10
6100.497127903587
 20
4437.431598713261
 30
0.0
 11
6026.497127903588
 21
4437.431598713261
 31
0.0
  0
LINE
  5
1A39A
330
747D
100
AcDbEntity
  8
細線
100
AcDbLine
 10
6026.497127903588
 20
4414.431598713261
 30
0.0
 11
6100.497127903587
 21
4414.431598713261
 31
0.0
  0
LINE
  5
1A39B
330
747D
100
AcDbEntity
  8
細線
100
AcDbLine
 10
6174.497127903587
 20
4437.431598713261
 30
0.0
 11
6100.497127903587
 21
4437.431598713261
 31
0.0
  0
LINE
  5
1A39C
330
747D
100
AcDbEntity
  8
細線
100
AcDbLine
 10
6174.497127903587
 20
4414.431598713261
 30
0.0
 11
6174.497127903587
 21
4437.431598713261
 31
0.0
  0
LINE
  5
1A39D
330
747D
100
AcDbEntity
  8
細線
100
AcDbLine
 10
6026.497127903588
 20
4437.431598713261
 30
0.0
 11
6026.497127903588
 21
4414.431598713261
 31
0.0
  0
LINE
  5
1A39E
330
747D
100
AcDbEntity
  8
部品1
 48
0.01
100
AcDbLine
 10
6190.497127903583
 20
4410.431598713262
 30
0.0
 11
6190.497127903586
 21
4441.931598713261
 31
0.0
  0
LINE
  5
1A39F
330
747D
100
AcDbEntity
  8
部品1
 48
0.01
100
AcDbLine
 10
6012.497127903587
 20
4408.431598713261
 30
0.0
 11
6188.497127903584
 21
4408.431598713261
 31
0.0
  0
LINE
  5
1A3A0
330
747D
100
AcDbEntity
  8
部品1
 48
0.01
100
AcDbLine
 10
6010.497127903587
 20
4441.931598713261
 30
0.0
 11
6010.497127903587
 21
4410.431598713262
 31
0.0
  0
LINE
  5
1A3A1
330
747D
100
AcDbEntity
  8
部品1
 48
0.01
100
AcDbLine
 10
6188.497127903588
 20
4443.931598713262
 30
0.0
 11
6012.497127903587
 21
4443.931598713262
 31
0.0
  0
LINE
  5
1A3A2
330
747D
100
AcDbEntity
  8
細線
100
AcDbLine
 10
6026.497127903588
 20
4431.431598713261
 30
0.0
 11
6100.497127903587
 21
4431.431598713261
 31
0.0
  0
LINE
  5
1A3A3
330
747D
100
AcDbEntity
  8
細線
100
AcDbLine
 10
6026.497127903588
 20
4425.431598713261
 30
0.0
 11
6100.497127903587
 21
4425.431598713261
 31
0.0
  0
LINE
  5
1A3A4
330
747D
100
AcDbEntity
  8
細線
100
AcDbLine
 10
6026.497127903583
 20
4419.431598713261
 30
0.0
 11
6100.497127903587
 21
4419.431598713261
 31
0.0
  0
LINE
  5
1A3A5
330
747D
100
AcDbEntity
  8
細線
100
AcDbLine
 10
6026.497127903588
 20
4431.431598713261
 30
0.0
 11
6095.497127903588
 21
4431.431598713261
 31
0.0
  0
LINE
  5
1A3A6
330
747D
100
AcDbEntity
  8
細線
100
AcDbLine
 10
6174.497127903584
 20
4431.431598713261
 30
0.0
 11
6100.497127903587
 21
4431.431598713261
 31
0.0
  0
LINE
  5
1A3A7
330
747D
100
AcDbEntity
  8
細線
100
AcDbLine
 10
6174.497127903584
 20
4419.431598713261
 30
0.0
 11
6100.497127903587
 21
4419.431598713261
 31
0.0
  0
LINE
  5
1A3A8
330
747D
100
AcDbEntity
  8
細線
100
AcDbLine
 10
6174.497127903584
 20
4425.431598713261
 30
0.0
 11
6100.497127903587
 21
4425.431598713261
 31
0.0
  0
LINE
  5
1A3A9
330
747D
100
AcDbEntity
  8
細線
100
AcDbLine
 10
6100.497127903587
 20
4437.431598713261
 30
0.0
 11
6100.497127903583
 21
4414.431598713261
 31
0.0
  0
LINE
  5
1A3AA
330
747D
100
AcDbEntity
  8
細線
100
AcDbLine
 10
6910.497127903584
 20
4437.431598713261
 30
0.0
 11
6910.497127903588
 21
4414.431598713261
 31
0.0
  0
LINE
  5
1A3AB
330
747D
100
AcDbEntity
  8
細線
100
AcDbLine
 10
6836.497127903587
 20
4425.431598713261
 30
0.0
 11
6910.497127903584
 21
4425.431598713261
 31
0.0
  0
LINE
  5
1A3AC
330
747D
100
AcDbEntity
  8
細線
100
AcDbLine
 10
6836.497127903587
 20
4419.431598713261
 30
0.0
 11
6910.497127903584
 21
4419.431598713261
 31
0.0
  0
LINE
  5
1A3AD
330
747D
100
AcDbEntity
  8
細線
100
AcDbLine
 10
6836.497127903587
 20
4431.431598713261
 30
0.0
 11
6910.497127903584
 21
4431.431598713261
 31
0.0
  0
LINE
  5
1A3AE
330
747D
100
AcDbEntity
  8
細線
100
AcDbLine
 10
6984.497127903583
 20
4431.431598713261
 30
0.0
 11
6915.497127903583
 21
4431.431598713261
 31
0.0
  0
LINE
  5
1A3AF
330
747D
100
AcDbEntity
  8
細線
100
AcDbLine
 10
6984.497127903587
 20
4419.431598713261
 30
0.0
 11
6910.497127903584
 21
4419.431598713261
 31
0.0
  0
LINE
  5
1A3B0
330
747D
100
AcDbEntity
  8
細線
100
AcDbLine
 10
6984.497127903583
 20
4425.431598713261
 30
0.0
 11
6910.497127903584
 21
4425.431598713261
 31
0.0
  0
LINE
  5
1A3B1
330
747D
100
AcDbEntity
  8
細線
100
AcDbLine
 10
6984.497127903583
 20
4431.431598713261
 30
0.0
 11
6910.497127903584
 21
4431.431598713261
 31
0.0
  0
LINE
  5
1A3B2
330
747D
100
AcDbEntity
  8
部品1
 48
0.01
100
AcDbLine
 10
6822.497127903584
 20
4443.931598713262
 30
0.0
 11
6998.497127903583
 21
4443.931598713262
 31
0.0
  0
LINE
  5
1A3B3
330
747D
100
AcDbEntity
  8
部品1
 48
0.01
100
AcDbLine
 10
7000.497127903584
 20
4441.931598713261
 30
0.0
 11
7000.497127903584
 21
4410.431598713262
 31
0.0
  0
LINE
  5
1A3B4
330
747D
100
AcDbEntity
  8
部品1
 48
0.01
100
AcDbLine
 10
6998.497127903583
 20
4408.431598713261
 30
0.0
 11
6822.497127903587
 21
4408.431598713261
 31
0.0
  0
LINE
  5
1A3B5
330
747D
100
AcDbEntity
  8
部品1
 48
0.01
100
AcDbLine
 10
6820.497127903587
 20
4410.431598713262
 30
0.0
 11
6820.497127903583
 21
4441.931598713261
 31
0.0
  0
LINE
  5
1A3B6
330
747D
100
AcDbEntity
  8
細線
100
AcDbLine
 10
6984.497127903583
 20
4437.431598713261
 30
0.0
 11
6984.497127903583
 21
4414.431598713261
 31
0.0
  0
LINE
  5
1A3B7
330
747D
100
AcDbEntity
  8
細線
100
AcDbLine
 10
6836.497127903584
 20
4414.431598713261
 30
0.0
 11
6836.497127903584
 21
4437.431598713261
 31
0.0
  0
LINE
  5
1A3B8
330
747D
100
AcDbEntity
  8
細線
100
AcDbLine
 10
6836.497127903584
 20
4437.431598713261
 30
0.0
 11
6910.497127903584
 21
4437.431598713261
 31
0.0
  0
LINE
  5
1A3B9
330
747D
100
AcDbEntity
  8
細線
100
AcDbLine
 10
6984.497127903583
 20
4414.431598713261
 30
0.0
 11
6910.497127903584
 21
4414.431598713261
 31
0.0
  0
LINE
  5
1A3BA
330
747D
100
AcDbEntity
  8
細線
100
AcDbLine
 10
6910.497127903584
 20
4437.431598713261
 30
0.0
 11
6984.497127903583
 21
4437.431598713261
 31
0.0
  0
LINE
  5
1A3BB
330
747D
100
AcDbEntity
  8
細線
100
AcDbLine
 10
6910.497127903588
 20
4414.431598713261
 30
0.0
 11
6836.497127903584
 21
4414.431598713261
 31
0.0
  0
ARC
  5
1A3BC
330
747D
100
AcDbEntity
  8
部品1
 48
0.01
100
AcDbCircle
 10
6998.497127903583
 20
4441.931598713261
 30
0.0
 40
2.0
100
AcDbArc
 50
0.0
 51
90.0
  0
ARC
  5
1A3BD
330
747D
100
AcDbEntity
  8
部品1
 48
0.01
100
AcDbCircle
 10
6998.497127903583
 20
4410.431598713262
 30
0.0
 40
2.0
100
AcDbArc
 50
270.0
 51
0.0
  0
ARC
  5
1A3BE
330
747D
100
AcDbEntity
  8
部品1
 48
0.01
100
AcDbCircle
 10
6822.497127903584
 20
4441.931598713261
 30
0.0
 40
2.0
100
AcDbArc
 50
90.0
 51
180.0
  0
ARC
  5
1A3BF
330
747D
100
AcDbEntity
  8
部品1
 48
0.01
100
AcDbCircle
 10
6822.497127903587
 20
4410.431598713262
 30
0.0
 40
2.0
100
AcDbArc
 50
180.0
 51
270.0
  0
DIMENSION
  5
1A5FE
330
747D
100
AcDbEntity
  8
寸法
 48
50.0
100
AcDbDimension
  2
*D35
 10
7688.04023022533
 20
4377.931598713261
 30
0.0
 11
7688.04023022533
 21
4616.4168800875
 31
0.0
 70
   160
 71
     5
 42
165.0
  3
INABA_S40G
100
AcDbAlignedDimension
 13
7400.497127903581
 23
4212.931598713261
 33
0.0
 14
7400.497127903584
 24
4377.931598713261
 34
0.0
 50
90.0
100
AcDbRotatedDimension
1001
ACAD
1000
DSTYLE
1002
{
1002
}
  0
DIMENSION
  5
1A5FF
330
747D
100
AcDbEntity
  8
寸法
 48
50.0
100
AcDbDimension
  2
*D36
 10
7688.04023022533
 20
4212.931598713261
 30
0.0
 11
7828.210053471696
 21
4213.898798552921
 31
0.0
 70
   160
 71
     5
 42
27.0
  3
INABA_S40G
100
AcDbAlignedDimension
 13
7400.497127903584
 23
4185.931598713261
 33
0.0
 14
7400.497127903581
 24
4212.931598713261
 34
0.0
 50
90.0
100
AcDbRotatedDimension
1001
ACAD
1000
DSTYLE
1002
{
1070
   279
1070
     2
1002
}
  0
DIMENSION
  5
1A600
330
747D
100
AcDbEntity
  8
寸法
 48
50.0
100
AcDbDimension
  2
*D37
 10
7688.04023022533
 20
4185.931598713261
 30
0.0
 11
7588.040230225328
 21
3361.931598713263
 31
0.0
 70
    32
  1
有効開口部高サ <>
 71
     5
 42
1648.0
  3
INABA_S40G
100
AcDbAlignedDimension
 13
7400.497127903584
 23
2537.931598713262
 33
0.0
 14
7400.497127903584
 24
4185.931598713261
 34
0.0
 50
90.0
100
AcDbRotatedDimension
  0
LINE
  5
1A725
330
747D
100
AcDbEntity
  8
破線
 48
5.0
100
AcDbLine
 10
5610.497127903584
 20
2262.931598713262
 30
0.0
 11
5610.497127903584
 21
2187.931598713261
 31
0.0
  0
LINE
  5
1A726
330
747D
100
AcDbEntity
  8
破線
 48
5.0
100
AcDbLine
 10
5560.497127903584
 20
2187.931598713261
 30
0.0
 11
5660.497127903584
 21
2187.931598713261
 31
0.0
  0
LINE
  5
1A72A
330
747D
100
AcDbEntity
  8
仕様書枠
 48
50.0
100
AcDbLine
 10
16307.19999999998
 20
8689.599999999998
 30
0.0
 11
13127.19999999999
 21
8689.6
 31
0.0
  0
TEXT
  5
1A732
330
747D
100
AcDbEntity
  8
文字
 62
     7
 48
50.0
100
AcDbText
 10
15022.63965474517
 20
10760.01374588372
 30
0.0
 40
100.0
  1
F12         1.0,1.2
  7
STYLE1
100
AcDbText
  0
TEXT
  5
1A735
330
747D
100
AcDbEntity
  8
文字
 62
     7
 48
50.0
100
AcDbText
 10
15022.63965474516
 20
9060.013745883725
 30
0.0
 40
100.0
  1
F12            0.7
  7
STYLE1
100
AcDbText
  0
ENDSEC
  0
SECTION
  2
OBJECTS
  0
DICTIONARY
  5
7471
330
0
100
AcDbDictionary
281
     1
  3
ACAD_COLOR
350
17AE2
  3
ACAD_GROUP
350
7472
  3
ACAD_LAYOUT
350
17AE3
  3
ACAD_MATERIAL
350
17AE1
  3
ACAD_MLINESTYLE
350
7473
  3
ACAD_PLOTSETTINGS
350
17AE4
  3
ACAD_PLOTSTYLENAME
350
17ADF
  3
ACDBHEADERROUNDTRIPXREC
350
1A7AE
  3
AcDbVariableDictionary
350
1A7AA
  3
CONTENTDICTIONARY
350
E71C
  3
DRAWINGVARIABLESDICT
350
F3B9
  0
DICTIONARY
  5
18E17
330
7467
100
AcDbDictionary
280
     1
281
     1
  3
ACAD_LAYERSTATES
360
18E18
  0
DICTIONARY
  5
17AE2
102
{ACAD_REACTORS
330
7471
102
}
330
7471
100
AcDbDictionary
281
     1
  0
DICTIONARY
  5
7472
102
{ACAD_REACTORS
330
7471
102
}
330
7471
100
AcDbDictionary
281
     1
  3
*A1
350
17FA7
  3
*A2
350
180C7
  3
*A3
350
180D2
  0
DICTIONARY
  5
17AE3
102
{ACAD_REACTORS
330
7471
102
}
330
7471
100
AcDbDictionary
281
     1
  3
Model
350
17AE5
  3
レイアウト1
350
17AE6
  0
DICTIONARY
  5
17AE1
102
{ACAD_REACTORS
330
7471
102
}
330
7471
100
AcDbDictionary
281
     1
  0
DICTIONARY
  5
7473
102
{ACAD_REACTORS
330
7471
102
}
330
7471
100
AcDbDictionary
281
     1
  3
STANDARD
350
7480
  0
DICTIONARY
  5
17AE4
102
{ACAD_REACTORS
330
7471
102
}
330
7471
100
AcDbDictionary
281
     1
  0
ACDBDICTIONARYWDFLT
  5
17ADF
102
{ACAD_REACTORS
330
7471
102
}
330
7471
100
AcDbDictionary
281
     1
  3
Normal
350
17AE0
100
AcDbDictionaryWithDefault
340
17AE0
  0
DICTIONARY
  5
1A7AE
102
{ACAD_REACTORS
330
7471
102
}
330
7471
100
AcDbDictionary
281
     1
  3
COLORDICT
350
1A7B0
  3
MATERIALDICT
350
1A7AF
  0
DICTIONARY
  5
1A7AA
102
{ACAD_REACTORS
330
7471
102
}
330
7471
100
AcDbDictionary
281
     1
  3
DIMASSOC
350
1A7AB
  3
PROJECTNAME
350
1A7AC
  0
DICTIONARY
  5
E71C
102
{ACAD_REACTORS
330
7471
102
}
330
7471
100
AcDbDictionary
281
     1
  0
DICTIONARY
  5
F3B9
102
{ACAD_REACTORS
330
7471
102
}
330
7471
100
AcDbDictionary
281
     1
1001
DRAWINGVARIABLESXDATA
1000
POLARMODE
1000
1
  0
DICTIONARY
  5
18E18
102
{ACAD_REACTORS
330
18E17
102
}
330
18E17
100
AcDbDictionary
281
     1
  0
GROUP
  5
17FA7
102
{ACAD_REACTORS
330
7472
102
}
330
7472
100
AcDbGroup
300

 70
     1
 71
     1
  0
GROUP
  5
180C7
102
{ACAD_REACTORS
330
7472
102
}
330
7472
100
AcDbGroup
300

 70
     1
 71
     1
  0
GROUP
  5
180D2
102
{ACAD_REACTORS
330
7472
102
}
330
7472
100
AcDbGroup
300

 70
     1
 71
     1
  0
LAYOUT
  5
17AE5
102
{ACAD_XDICTIONARY
360
1A7B1
102
}
102
{ACAD_REACTORS
330
17AE3
102
}
330
17AE3
100
AcDbPlotSettings
  1

  2
Canon iR C3880/C4580 LIPSLX
  4
A3
  6

 40
5.873749732971191
 41
5.873747825622558
 42
5.873748779296875
 43
5.873748779296875
 44
296.9259948730469
 45
419.9466552734374
 46
0.0
 47
0.0
 48
0.0
 49
0.0
140
0.0
141
0.0
142
1.0
143
40.0
 70
 11952
 72
     1
 73
     1
 74
     1
  7
inaba.ctb
 75
    24
147
0.025
148
-139.196816621341
149
0.1811693038616795
100
AcDbLayout
  1
Model
 70
     1
 71
     0
 10
0.0
 20
0.0
 11
12.0
 21
9.0
 12
0.0
 22
0.0
 32
0.0
 14
0.0
 24
0.0
 34
0.0
 15
0.0
 25
0.0
 35
0.0
146
0.0
 13
0.0
 23
0.0
 33
0.0
 16
1.0
 26
0.0
 36
0.0
 17
0.0
 27
1.0
 37
0.0
 76
     0
330
747D
  0
LAYOUT
  5
17AE6
102
{ACAD_XDICTIONARY
360
1A7B3
102
}
102
{ACAD_REACTORS
330
17AE3
102
}
330
17AE3
100
AcDbPlotSettings
  1

  2
EPSON LP-8300
  4

  6

 40
0.0
 41
0.0
 42
0.0
 43
0.0
 44
0.0
 45
0.0
 46
0.0
 47
0.0
 48
0.0
 49
0.0
140
0.0
141
0.0
142
1.0
143
1.0
 70
   688
 72
     0
 73
     0
 74
     5
  7
inaba.ctb
 75
    16
147
1.0
148
0.0
149
0.0
100
AcDbLayout
  1
レイアウト1
 70
     0
 71
     1
 10
0.0
 20
0.0
 11
420.0
 21
297.0
 12
0.0
 22
0.0
 32
0.0
 14
1.000000000000000E+20
 24
1.000000000000000E+20
 34
1.000000000000000E+20
 15
-1.000000000000000E+20
 25
-1.000000000000000E+20
 35
-1.000000000000000E+20
146
0.0
 13
0.0
 23
0.0
 33
0.0
 16
1.0
 26
0.0
 36
0.0
 17
0.0
 27
1.0
 37
0.0
 76
     0
330
747A
  0
MLINESTYLE
  5
7480
102
{ACAD_REACTORS
330
7473
102
}
330
7473
100
AcDbMlineStyle
  2
STANDARD
 70
     0
  3

 62
     0
 51
90.0
 52
90.0
 71
     2
 49
0.5
 62
   256
  6
BYLAYER
 49
-0.5
 62
   256
  6
BYLAYER
  0
ACDBPLACEHOLDER
  5
17AE0
102
{ACAD_REACTORS
330
17ADF
102
}
330
17ADF
  0
XRECORD
  5
1A7B0
102
{ACAD_REACTORS
330
1A7AE
102
}
330
1A7AE
100
AcDbXrecord
280
     1
340
17AE2
  0
XRECORD
  5
1A7AF
102
{ACAD_REACTORS
330
1A7AE
102
}
330
1A7AE
100
AcDbXrecord
280
     1
340
17AE1
  0
DICTIONARYVAR
  5
1A7AB
102
{ACAD_REACTORS
330
1A7AA
102
}
330
1A7AA
100
DictionaryVariables
280
     0
  1
1
  0
DICTIONARYVAR
  5
1A7AC
102
{ACAD_REACTORS
330
1A7AA
102
}
330
1A7AA
100
DictionaryVariables
280
     0
  1

  0
DICTIONARY
  5
1A7B1
330
17AE5
100
AcDbDictionary
280
     1
281
     1
  3
ACAD_XREC_ROUNDTRIP
360
1A7B2
  0
DICTIONARY
  5
1A7B3
330
17AE6
100
AcDbDictionary
280
     1
281
     1
  3
ACAD_XREC_ROUNDTRIP
360
1A7B4
  0
XRECORD
  5
1A7B2
102
{ACAD_REACTORS
330
1A7B1
102
}
330
1A7B1
100
AcDbXrecord
280
     1
102
SHADEPLOT
 70
     0
102
SHADEPLOTRESLEVEL
 70
     2
102
SHADEPLOTCUSTOMDPI
 70
   300
  0
XRECORD
  5
1A7B4
102
{ACAD_REACTORS
330
1A7B3
102
}
330
1A7B3
100
AcDbXrecord
280
     1
102
SHADEPLOT
 70
     0
102
SHADEPLOTRESLEVEL
 70
     2
102
SHADEPLOTCUSTOMDPI
 70
   300
  0
ENDSEC
  0
EOF
