  0
SECTION
  2
HEADER
  9
$ACADVER
  1
AC1015
  9
$ACADMAINTVER
 70
    20
  9
$DWGCODEPAGE
  3
ANSI_932
  9
$INSBASE
 10
0.0
 20
0.0
 30
0.0
  9
$EXTMIN
 10
139.9999999999995
 20
-0.0000000000000909
 30
0.0
  9
$EXTMAX
 10
16307.2
 20
11409.6
 30
0.0
  9
$LIMMIN
 10
0.0
 20
0.0
  9
$LIMMAX
 10
16800.0
 20
11880.0
  9
$ORTHOMODE
 70
     0
  9
$REGENMODE
 70
     1
  9
$FILLMODE
 70
     1
  9
$QTEXTMODE
 70
     0
  9
$MIRRTEXT
 70
     1
  9
$LTSCALE
 40
20.0
  9
$ATTMODE
 70
     1
  9
$TEXTSIZE
 40
4.0
  9
$TRACEWID
 40
1.0
  9
$TEXTSTYLE
  7
MSPゴシック
  9
$CLAYER
  8
寸法
  9
$CELTYPE
  6
BYLAYER
  9
$CECOLOR
 62
   256
  9
$CELTSCALE
 40
50.0
  9
$DISPSILH
 70
     0
  9
$DIMSCALE
 40
40.0
  9
$DIMASZ
 40
2.5
  9
$DIMEXO
 40
0.5
  9
$DIMDLI
 40
7.0
  9
$DIMRND
 40
0.0
  9
$DIMDLE
 40
0.0
  9
$DIMEXE
 40
1.5
  9
$DIMTP
 40
0.0
  9
$DIMTM
 40
0.0
  9
$DIMTXT
 40
3.0
  9
$DIMCEN
 40
0.0
  9
$DIMTSZ
 40
0.0
  9
$DIMTOL
 70
     0
  9
$DIMLIM
 70
     0
  9
$DIMTIH
 70
     0
  9
$DIMTOH
 70
     0
  9
$DIMSE1
 70
     0
  9
$DIMSE2
 70
     0
  9
$DIMTAD
 70
     3
  9
$DIMZIN
 70
     8
  9
$DIMBLK
  1

  9
$DIMASO
 70
     1
  9
$DIMSHO
 70
     1
  9
$DIMPOST
  1

  9
$DIMAPOST
  1

  9
$DIMALT
 70
     0
  9
$DIMALTD
 70
     2
  9
$DIMALTF
 40
0.0394
  9
$DIMLFAC
 40
1.0
  9
$DIMTOFL
 70
     1
  9
$DIMTVP
 40
0.0
  9
$DIMTIX
 70
     1
  9
$DIMSOXD
 70
     0
  9
$DIMSAH
 70
     1
  9
$DIMBLK1
  1
DOTSMALL
  9
$DIMBLK2
  1
DOTSMALL
  9
$DIMSTYLE
  2
INABA_S40G
  9
$DIMCLRD
 70
     0
  9
$DIMCLRE
 70
     0
  9
$DIMCLRT
 70
     7
  9
$DIMTFAC
 40
1.0
  9
$DIMGAP
 40
1.0
  9
$DIMJUST
 70
     0
  9
$DIMSD1
 70
     0
  9
$DIMSD2
 70
     0
  9
$DIMTOLJ
 70
     1
  9
$DIMTZIN
 70
     0
  9
$DIMALTZ
 70
     0
  9
$DIMALTTZ
 70
     0
  9
$DIMUPT
 70
     0
  9
$DIMDEC
 70
     1
  9
$DIMTDEC
 70
     4
  9
$DIMALTU
 70
     2
  9
$DIMALTTD
 70
     2
  9
$DIMTXSTY
  7
STYLE1
  9
$DIMAUNIT
 70
     0
  9
$DIMADEC
 70
     0
  9
$DIMALTRND
 40
0.0
  9
$DIMAZIN
 70
     0
  9
$DIMDSEP
 70
    46
  9
$DIMATFIT
 70
     3
  9
$DIMFRAC
 70
     0
  9
$DIMLDRBLK
  1

  9
$DIMLUNIT
 70
     2
  9
$DIMLWD
 70
    -2
  9
$DIMLWE
 70
    -2
  9
$DIMTMOVE
 70
     2
  9
$LUNITS
 70
     2
  9
$LUPREC
 70
     1
  9
$SKETCHINC
 40
1.0
  9
$FILLETRAD
 40
3.0
  9
$AUNITS
 70
     0
  9
$AUPREC
 70
     0
  9
$MENU
  1
acad
  9
$ELEVATION
 40
0.0
  9
$PELEVATION
 40
0.0
  9
$THICKNESS
 40
0.0
  9
$LIMCHECK
 70
     0
  9
$CHAMFERA
 40
0.0
  9
$CHAMFERB
 40
0.0
  9
$CHAMFERC
 40
0.0
  9
$CHAMFERD
 40
0.0
  9
$SKPOLY
 70
     0
  9
$TDCREATE
 40
2451368.612993866
  9
$TDUCREATE
 40
2451368.237993866
  9
$TDUPDATE
 40
2455569.643761204
  9
$TDUUPDATE
 40
2455569.268761204
  9
$TDINDWG
 40
0.8394669329
  9
$TDUSRTIMER
 40
0.8394669329
  9
$USRTIMER
 70
     1
  9
$ANGBASE
 50
0.0
  9
$ANGDIR
 70
     0
  9
$PDMODE
 70
     3
  9
$PDSIZE
 40
2.0
  9
$PLINEWID
 40
0.0
  9
$SPLFRAME
 70
     0
  9
$SPLINETYPE
 70
     6
  9
$SPLINESEGS
 70
     8
  9
$HANDSEED
  5
19E88
  9
$SURFTAB1
 70
     6
  9
$SURFTAB2
 70
     6
  9
$SURFTYPE
 70
     6
  9
$SURFU
 70
     6
  9
$SURFV
 70
     6
  9
$UCSBASE
  2

  9
$UCSNAME
  2

  9
$UCSORG
 10
0.0
 20
0.0
 30
0.0
  9
$UCSXDIR
 10
1.0
 20
0.0
 30
0.0
  9
$UCSYDIR
 10
0.0
 20
1.0
 30
0.0
  9
$UCSORTHOREF
  2

  9
$UCSORTHOVIEW
 70
     0
  9
$UCSORGTOP
 10
0.0
 20
0.0
 30
0.0
  9
$UCSORGBOTTOM
 10
0.0
 20
0.0
 30
0.0
  9
$UCSORGLEFT
 10
0.0
 20
0.0
 30
0.0
  9
$UCSORGRIGHT
 10
0.0
 20
0.0
 30
0.0
  9
$UCSORGFRONT
 10
0.0
 20
0.0
 30
0.0
  9
$UCSORGBACK
 10
0.0
 20
0.0
 30
0.0
  9
$PUCSBASE
  2

  9
$PUCSNAME
  2

  9
$PUCSORG
 10
0.0
 20
0.0
 30
0.0
  9
$PUCSXDIR
 10
1.0
 20
0.0
 30
0.0
  9
$PUCSYDIR
 10
0.0
 20
1.0
 30
0.0
  9
$PUCSORTHOREF
  2

  9
$PUCSORTHOVIEW
 70
     0
  9
$PUCSORGTOP
 10
0.0
 20
0.0
 30
0.0
  9
$PUCSORGBOTTOM
 10
0.0
 20
0.0
 30
0.0
  9
$PUCSORGLEFT
 10
0.0
 20
0.0
 30
0.0
  9
$PUCSORGRIGHT
 10
0.0
 20
0.0
 30
0.0
  9
$PUCSORGFRONT
 10
0.0
 20
0.0
 30
0.0
  9
$PUCSORGBACK
 10
0.0
 20
0.0
 30
0.0
  9
$USERI1
 70
     0
  9
$USERI2
 70
     0
  9
$USERI3
 70
     0
  9
$USERI4
 70
     0
  9
$USERI5
 70
     0
  9
$USERR1
 40
0.0
  9
$USERR2
 40
0.0
  9
$USERR3
 40
0.0
  9
$USERR4
 40
0.0
  9
$USERR5
 40
0.0
  9
$WORLDVIEW
 70
     1
  9
$SHADEDGE
 70
     3
  9
$SHADEDIF
 70
    70
  9
$TILEMODE
 70
     1
  9
$MAXACTVP
 70
    16
  9
$PINSBASE
 10
0.0
 20
0.0
 30
0.0
  9
$PLIMCHECK
 70
     0
  9
$PEXTMIN
 10
1.000000000000000E+20
 20
1.000000000000000E+20
 30
1.000000000000000E+20
  9
$PEXTMAX
 10
-1.000000000000000E+20
 20
-1.000000000000000E+20
 30
-1.000000000000000E+20
  9
$PLIMMIN
 10
0.0
 20
0.0
  9
$PLIMMAX
 10
420.0
 20
297.0
  9
$UNITMODE
 70
     0
  9
$VISRETAIN
 70
     0
  9
$PLINEGEN
 70
     0
  9
$PSLTSCALE
 70
     0
  9
$TREEDEPTH
 70
  3020
  9
$CMLSTYLE
  2
STANDARD
  9
$CMLJUST
 70
     0
  9
$CMLSCALE
 40
1.0
  9
$PROXYGRAPHICS
 70
     1
  9
$MEASUREMENT
 70
     1
  9
$CELWEIGHT
370
    -1
  9
$ENDCAPS
280
     0
  9
$JOINSTYLE
280
     0
  9
$LWDISPLAY
290
     0
  9
$INSUNITS
 70
     0
  9
$HYPERLINKBASE
  1

  9
$STYLESHEET
  1
inaba.ctb
  9
$XEDIT
290
     1
  9
$CEPSNTYPE
380
     0
  9
$PSTYLEMODE
290
     1
  9
$FINGERPRINTGUID
  2
{0E4A3AB3-ADAA-44DC-861C-9525B65BB1EC}
  9
$VERSIONGUID
  2
{364E99D0-2E0B-4C7A-93EC-FBCC79053CA5}
  9
$EXTNAMES
290
     1
  9
$PSVPSCALE
 40
0.0
  9
$OLESTARTUP
290
     0
  0
ENDSEC
  0
SECTION
  2
CLASSES
  0
CLASS
  1
ACDBDICTIONARYWDFLT
  2
AcDbDictionaryWithDefault
  3
ObjectDBX Classes
 90
        0
280
     0
281
     0
  0
CLASS
  1
DICTIONARYVAR
  2
AcDbDictionaryVar
  3
ObjectDBX Classes
 90
        0
280
     0
281
     0
  0
CLASS
  1
ACDBPLACEHOLDER
  2
AcDbPlaceHolder
  3
ObjectDBX Classes
 90
        0
280
     0
281
     0
  0
CLASS
  1
LAYOUT
  2
AcDbLayout
  3
ObjectDBX Classes
 90
        0
280
     0
281
     0
  0
ENDSEC
  0
SECTION
  2
TABLES
  0
TABLE
  2
VPORT
  5
746D
330
0
100
AcDbSymbolTable
 70
     2
  0
VPORT
  5
19E80
330
746D
100
AcDbSymbolTableRecord
100
AcDbViewportTableRecord
  2
*Active
 70
     0
 10
0.0
 20
0.0
 11
1.0
 21
1.0
 12
11720.03460912035
 22
5704.872900782047
 13
0.0
 23
0.0
 14
10.0
 24
10.0
 15
10.0
 25
10.0
 16
0.0
 26
0.0
 36
1.0
 17
0.0
 27
0.0
 37
0.0
 40
11513.2111641413
 41
2.234800838574423
 42
50.0
 43
0.0
 44
0.0
 50
0.0
 51
0.0
 71
     0
 72
     0
 73
     1
 74
     0
 75
     0
 76
     0
 77
     0
 78
     0
281
     0
 65
     1
110
0.0
120
0.0
130
0.0
111
1.0
121
0.0
131
0.0
112
0.0
122
1.0
132
0.0
 79
     0
146
0.0
  0
ENDTAB
  0
TABLE
  2
LTYPE
  5
746A
330
0
100
AcDbSymbolTable
 70
     3
  0
LTYPE
  5
7477
330
746A
100
AcDbSymbolTableRecord
100
AcDbLinetypeTableRecord
  2
BYBLOCK
 70
     0
  3

 72
    65
 73
     0
 40
0.0
  0
LTYPE
  5
7478
330
746A
100
AcDbSymbolTableRecord
100
AcDbLinetypeTableRecord
  2
BYLAYER
 70
     0
  3

 72
    65
 73
     0
 40
0.0
  0
LTYPE
  5
7479
330
746A
100
AcDbSymbolTableRecord
100
AcDbLinetypeTableRecord
  2
CONTINUOUS
 70
     0
  3
Solid line
 72
    65
 73
     0
 40
0.0
  0
LTYPE
  5
781A
330
746A
100
AcDbSymbolTableRecord
100
AcDbLinetypeTableRecord
  2
HIDDEN
 70
     0
  3
__ __ __ __ __ __ __ __ __ __ __ __ __ __ __ __
 72
    65
 73
     2
 40
0.375
 49
0.25
 74
     0
 49
-0.125
 74
     0
  0
LTYPE
  5
781B
330
746A
100
AcDbSymbolTableRecord
100
AcDbLinetypeTableRecord
  2
PHANTOM
 70
     0
  3
______  __  __  ______  __  __  ______  __  __ 
 72
    65
 73
     6
 40
2.5
 49
1.25
 74
     0
 49
-0.25
 74
     0
 49
0.25
 74
     0
 49
-0.25
 74
     0
 49
0.25
 74
     0
 49
-0.25
 74
     0
  0
ENDTAB
  0
TABLE
  2
LAYER
  5
7467
102
{ACAD_XDICTIONARY
360
18BD4
102
}
330
0
100
AcDbSymbolTable
 70
    10
  0
LAYER
  5
7474
330
7467
100
AcDbSymbolTableRecord
100
AcDbLayerTableRecord
  2
0
 70
     0
 62
     7
  6
CONTINUOUS
370
    -3
390
17AE0
  0
LAYER
  5
DEB3
330
7467
100
AcDbSymbolTableRecord
100
AcDbLayerTableRecord
  2
寸法
 70
     0
 62
     4
  6
CONTINUOUS
370
    -3
390
17AE0
  0
LAYER
  5
DEB4
330
7467
100
AcDbSymbolTableRecord
100
AcDbLayerTableRecord
  2
部品1
 70
     0
 62
     7
  6
CONTINUOUS
370
    -3
390
17AE0
  0
LAYER
  5
DEB5
330
7467
100
AcDbSymbolTableRecord
100
AcDbLayerTableRecord
  2
補助
 70
     0
 62
    -1
  6
CONTINUOUS
370
    -3
390
17AE0
  0
LAYER
  5
DEB6
330
7467
100
AcDbSymbolTableRecord
100
AcDbLayerTableRecord
  2
文字
 70
     0
 62
     7
  6
CONTINUOUS
370
    -3
390
17AE0
  0
LAYER
  5
F255
330
7467
100
AcDbSymbolTableRecord
100
AcDbLayerTableRecord
  2
DEFPOINTS
 70
     0
 62
     7
  6
CONTINUOUS
290
     0
370
    -3
390
17AE0
  0
LAYER
  5
10B54
330
7467
100
AcDbSymbolTableRecord
100
AcDbLayerTableRecord
  2
仕様書枠
 70
     0
 62
   230
  6
CONTINUOUS
370
    -3
390
17AE0
  0
LAYER
  5
11729
330
7467
100
AcDbSymbolTableRecord
100
AcDbLayerTableRecord
  2
Ｇ．Ｌ
 70
     0
 62
    30
  6
CONTINUOUS
370
    -3
390
17AE0
  0
LAYER
  5
1173F
330
7467
100
AcDbSymbolTableRecord
100
AcDbLayerTableRecord
  2
細線
 70
     0
 62
     5
  6
CONTINUOUS
370
    -3
390
17AE0
  0
LAYER
  5
142E2
330
7467
100
AcDbSymbolTableRecord
100
AcDbLayerTableRecord
  2
破線
 70
     0
 62
     2
  6
HIDDEN
370
    -3
390
17AE0
  0
ENDTAB
  0
TABLE
  2
STYLE
  5
7468
330
0
100
AcDbSymbolTable
 70
     7
  0
STYLE
  5
7475
330
7468
100
AcDbSymbolTableRecord
100
AcDbTextStyleTableRecord
  2
STANDARD
 70
     0
 40
0.0
 41
1.0
 50
0.0
 71
     0
 42
4.0
  3
txt
  4
C:\AutoCAD LT\bigfont.shx
  0
STYLE
  5
763C
330
7468
100
AcDbSymbolTableRecord
100
AcDbTextStyleTableRecord
  2
MSMINCHO
 70
     0
 40
0.0
 41
1.0
 50
0.0
 71
     0
 42
1.199999999999999
  3
MS PMincho.ttf
  4

1001
ACAD
1000
MS PMincho
1071
    32786
  0
STYLE
  5
F706
330
7468
100
AcDbSymbolTableRecord
100
AcDbTextStyleTableRecord
  2
STYLE1
 70
     0
 40
0.0
 41
1.0
 50
0.0
 71
     0
 42
4.0
  3
isocp.shx
  4
bigfont.shx
  0
STYLE
  5
103BF
330
7468
100
AcDbSymbolTableRecord
100
AcDbTextStyleTableRecord
  2
STYLE2
 70
     0
 40
0.0
 41
1.0
 50
0.0
 71
     0
 42
100.0
  3
MS PGothic.ttf
  4

1001
ACAD
1000
MS PGothic
1071
    32818
  0
STYLE
  5
10BAA
330
7468
100
AcDbSymbolTableRecord
100
AcDbTextStyleTableRecord
  2
STYLE3
 70
     0
 40
0.0
 41
1.0
 50
0.0
 71
     0
 42
100.0
  3
DFPGothic-EB.ttf
  4

1001
ACAD
1000
DFPGothic-EB
1071
    32818
  0
STYLE
  5
11A15
330
7468
100
AcDbSymbolTableRecord
100
AcDbTextStyleTableRecord
  2
MSGOTHIC
 70
     0
 40
0.0
 41
1.0
 50
0.0
 71
     0
 42
3.5
  3
MS PGothic.ttf
  4

1001
ACAD
1000
MS PGothic
1071
    32818
  0
STYLE
  5
13E96
330
7468
100
AcDbSymbolTableRecord
100
AcDbTextStyleTableRecord
  2
MSPゴシック
 70
     0
 40
0.0
 41
1.0
 50
0.0
 71
     0
 42
4.0
  3
MS PGothic.ttf
  4

1001
ACAD
1000
MS PGothic
1071
    32818
  0
ENDTAB
  0
TABLE
  2
VIEW
  5
746B
330
0
100
AcDbSymbolTable
 70
     0
  0
ENDTAB
  0
TABLE
  2
UCS
  5
746C
330
0
100
AcDbSymbolTable
 70
     0
  0
ENDTAB
  0
TABLE
  2
APPID
  5
746E
330
0
100
AcDbSymbolTable
 70
     6
  0
APPID
  5
7476
330
746E
100
AcDbSymbolTableRecord
100
AcDbRegAppTableRecord
  2
ACAD
 70
     0
  0
APPID
  5
DEA9
330
746E
100
AcDbSymbolTableRecord
100
AcDbRegAppTableRecord
  2
CONTENTBLOCKICON
 70
     0
  0
APPID
  5
DEAA
330
746E
100
AcDbSymbolTableRecord
100
AcDbRegAppTableRecord
  2
CONTENTBLOCKDESCRIPTION
 70
     0
  0
APPID
  5
E71D
330
746E
100
AcDbSymbolTableRecord
100
AcDbRegAppTableRecord
  2
CONTENTTABDATA
 70
     0
  0
APPID
  5
E71E
330
746E
100
AcDbSymbolTableRecord
100
AcDbRegAppTableRecord
  2
CONTENTCURRENTTAB
 70
     0
  0
APPID
  5
F3BA
330
746E
100
AcDbSymbolTableRecord
100
AcDbRegAppTableRecord
  2
DRAWINGVARIABLESXDATA
 70
     0
  0
ENDTAB
  0
TABLE
  2
DIMSTYLE
  5
746F
330
0
100
AcDbSymbolTable
 70
     1
100
AcDbDimStyleTable
 71
     1
340
F71F
  0
DIMSTYLE
105
F71F
102
{ACAD_REACTORS
330
162CD
330
162CE
330
162CF
330
162D0
330
162E4
330
162E7
330
162EA
330
162EB
330
16301
330
16302
330
1631F
330
16320
330
16333
330
1659C
330
1659A
330
165E9
330
166DD
330
16913
330
17BC4
330
17BC3
330
17B87
330
17B88
330
17B86
330
17C47
330
17C46
330
18EF6
330
18EF7
330
18EF8
330
18EA3
330
18EB2
330
18EC0
330
18EC1
330
18EC2
330
18EC6
330
198AB
330
198AA
330
198A9
330
198AC
330
19B1B
330
19B1C
330
19B1D
102
}
330
746F
100
AcDbSymbolTableRecord
100
AcDbDimStyleTableRecord
  2
INABA_S40G
 70
     0
 40
40.0
 41
2.5
 42
0.5
 43
7.0
 44
1.5
 73
     0
 74
     0
 77
     3
 78
     8
140
3.0
141
0.0
143
0.0394
147
1.0
172
     1
173
     1
174
     1
178
     7
271
     1
340
F706
341
F770
343
F770
344
F770
  0
ENDTAB
  0
TABLE
  2
BLOCK_RECORD
  5
7466
330
0
100
AcDbSymbolTable
 70
    43
  0
BLOCK_RECORD
  5
747D
330
7466
100
AcDbSymbolTableRecord
100
AcDbBlockTableRecord
  2
*MODEL_SPACE
340
17AE5
  0
BLOCK_RECORD
  5
747A
330
7466
100
AcDbSymbolTableRecord
100
AcDbBlockTableRecord
  2
*PAPER_SPACE
340
17AE6
  0
BLOCK_RECORD
  5
F770
330
7466
100
AcDbSymbolTableRecord
100
AcDbBlockTableRecord
  2
_DOTSMALL
340
0
102
{BLKREFS
331
188C4
331
188C5
331
188CF
331
188D0
331
188D9
331
188DA
331
188EF
331
188F0
331
188F9
331
188FA
331
1890D
331
1890E
331
18918
331
18919
331
18924
331
18925
331
1892F
331
18930
331
1894A
331
1894B
331
18953
331
18954
331
1895E
331
1895F
331
18969
331
1896A
331
18972
331
18973
331
19843
331
19844
331
1984C
331
1984D
331
19857
331
19858
331
1986B
331
1986C
331
1987E
331
1987F
331
19888
331
19889
331
198A3
331
198A4
331
1998A
331
1998B
331
19993
331
19994
331
1999E
331
1999F
331
199A9
331
199AA
331
19C3D
331
19C3E
331
19CEE
331
19CEF
331
19CF7
331
19CF8
331
19D02
331
19D03
331
19D09
331
19D0A
331
19D14
331
19D15
331
19D1D
331
19D1E
331
19D26
331
19D27
331
19D32
331
19D33
331
19D3C
331
19D3D
331
19D47
331
19D48
331
19D50
331
19D51
331
19E38
331
19E39
331
19E41
331
19E42
331
19E61
331
19E62
331
19E6D
331
19E6E
102
}
  0
BLOCK_RECORD
  5
16338
330
7466
100
AcDbSymbolTableRecord
100
AcDbBlockTableRecord
  2
*D1
340
0
  0
BLOCK_RECORD
  5
16344
330
7466
100
AcDbSymbolTableRecord
100
AcDbBlockTableRecord
  2
*D2
340
0
  0
BLOCK_RECORD
  5
16352
330
7466
100
AcDbSymbolTableRecord
100
AcDbBlockTableRecord
  2
*D3
340
0
  0
BLOCK_RECORD
  5
16360
330
7466
100
AcDbSymbolTableRecord
100
AcDbBlockTableRecord
  2
*D4
340
0
  0
BLOCK_RECORD
  5
16384
330
7466
100
AcDbSymbolTableRecord
100
AcDbBlockTableRecord
  2
*D5
340
0
  0
BLOCK_RECORD
  5
1638F
330
7466
100
AcDbSymbolTableRecord
100
AcDbBlockTableRecord
  2
*D6
340
0
  0
BLOCK_RECORD
  5
1639B
330
7466
100
AcDbSymbolTableRecord
100
AcDbBlockTableRecord
  2
*D7
340
0
  0
BLOCK_RECORD
  5
163A9
330
7466
100
AcDbSymbolTableRecord
100
AcDbBlockTableRecord
  2
*D8
340
0
  0
BLOCK_RECORD
  5
163B8
330
7466
100
AcDbSymbolTableRecord
100
AcDbBlockTableRecord
  2
*D9
340
0
  0
BLOCK_RECORD
  5
163C7
330
7466
100
AcDbSymbolTableRecord
100
AcDbBlockTableRecord
  2
*D10
340
0
  0
BLOCK_RECORD
  5
163E1
330
7466
100
AcDbSymbolTableRecord
100
AcDbBlockTableRecord
  2
*D11
340
0
  0
BLOCK_RECORD
  5
163ED
330
7466
100
AcDbSymbolTableRecord
100
AcDbBlockTableRecord
  2
*D12
340
0
  0
BLOCK_RECORD
  5
163FB
330
7466
100
AcDbSymbolTableRecord
100
AcDbBlockTableRecord
  2
*D13
340
0
  0
BLOCK_RECORD
  5
165B5
330
7466
100
AcDbSymbolTableRecord
100
AcDbBlockTableRecord
  2
*D14
340
0
  0
BLOCK_RECORD
  5
165C4
330
7466
100
AcDbSymbolTableRecord
100
AcDbBlockTableRecord
  2
*D15
340
0
  0
BLOCK_RECORD
  5
165EA
330
7466
100
AcDbSymbolTableRecord
100
AcDbBlockTableRecord
  2
*D16
340
0
  0
BLOCK_RECORD
  5
166CF
330
7466
100
AcDbSymbolTableRecord
100
AcDbBlockTableRecord
  2
*D17
340
0
  0
BLOCK_RECORD
  5
16908
330
7466
100
AcDbSymbolTableRecord
100
AcDbBlockTableRecord
  2
*D18
340
0
  0
BLOCK_RECORD
  5
17BC5
330
7466
100
AcDbSymbolTableRecord
100
AcDbBlockTableRecord
  2
*D19
340
0
  0
BLOCK_RECORD
  5
17BD3
330
7466
100
AcDbSymbolTableRecord
100
AcDbBlockTableRecord
  2
*D20
340
0
  0
BLOCK_RECORD
  5
17BDE
330
7466
100
AcDbSymbolTableRecord
100
AcDbBlockTableRecord
  2
*D21
340
0
  0
BLOCK_RECORD
  5
17BEA
330
7466
100
AcDbSymbolTableRecord
100
AcDbBlockTableRecord
  2
*D22
340
0
  0
BLOCK_RECORD
  5
17BF8
330
7466
100
AcDbSymbolTableRecord
100
AcDbBlockTableRecord
  2
*D23
340
0
  0
BLOCK_RECORD
  5
17C48
330
7466
100
AcDbSymbolTableRecord
100
AcDbBlockTableRecord
  2
*D24
340
0
  0
BLOCK_RECORD
  5
17C56
330
7466
100
AcDbSymbolTableRecord
100
AcDbBlockTableRecord
  2
*D25
340
0
  0
BLOCK_RECORD
  5
19066
330
7466
100
AcDbSymbolTableRecord
100
AcDbBlockTableRecord
  2
*D26
340
0
  0
BLOCK_RECORD
  5
19072
330
7466
100
AcDbSymbolTableRecord
100
AcDbBlockTableRecord
  2
*D27
340
0
  0
BLOCK_RECORD
  5
1907E
330
7466
100
AcDbSymbolTableRecord
100
AcDbBlockTableRecord
  2
*D28
340
0
  0
BLOCK_RECORD
  5
19224
330
7466
100
AcDbSymbolTableRecord
100
AcDbBlockTableRecord
  2
*D29
340
0
  0
BLOCK_RECORD
  5
19231
330
7466
100
AcDbSymbolTableRecord
100
AcDbBlockTableRecord
  2
*D30
340
0
  0
BLOCK_RECORD
  5
1923E
330
7466
100
AcDbSymbolTableRecord
100
AcDbBlockTableRecord
  2
*D31
340
0
  0
BLOCK_RECORD
  5
1924A
330
7466
100
AcDbSymbolTableRecord
100
AcDbBlockTableRecord
  2
*D32
340
0
  0
BLOCK_RECORD
  5
19258
330
7466
100
AcDbSymbolTableRecord
100
AcDbBlockTableRecord
  2
*D33
340
0
  0
BLOCK_RECORD
  5
19264
330
7466
100
AcDbSymbolTableRecord
100
AcDbBlockTableRecord
  2
*D34
340
0
  0
BLOCK_RECORD
  5
19953
330
7466
100
AcDbSymbolTableRecord
100
AcDbBlockTableRecord
  2
*D35
340
0
  0
BLOCK_RECORD
  5
1995F
330
7466
100
AcDbSymbolTableRecord
100
AcDbBlockTableRecord
  2
*D36
340
0
  0
BLOCK_RECORD
  5
1996B
330
7466
100
AcDbSymbolTableRecord
100
AcDbBlockTableRecord
  2
*D37
340
0
  0
BLOCK_RECORD
  5
19979
330
7466
100
AcDbSymbolTableRecord
100
AcDbBlockTableRecord
  2
*D38
340
0
  0
BLOCK_RECORD
  5
19B7B
330
7466
100
AcDbSymbolTableRecord
100
AcDbBlockTableRecord
  2
*D39
340
0
  0
BLOCK_RECORD
  5
19B87
330
7466
100
AcDbSymbolTableRecord
100
AcDbBlockTableRecord
  2
*D40
340
0
  0
BLOCK_RECORD
  5
19B95
330
7466
100
AcDbSymbolTableRecord
100
AcDbBlockTableRecord
  2
*D41
340
0
  0
BLOCK_RECORD
  5
19E12
330
7466
100
AcDbSymbolTableRecord
100
AcDbBlockTableRecord
  2
A$C1FE719AA
340
0
  0
ENDTAB
  0
ENDSEC
  0
SECTION
  2
BLOCKS
  0
BLOCK
  5
7489
330
747D
100
AcDbEntity
  8
0
100
AcDbBlockBegin
  2
*MODEL_SPACE
 70
     0
 10
0.0
 20
0.0
 30
0.0
  3
*MODEL_SPACE
  1

  0
ENDBLK
  5
748A
330
747D
100
AcDbEntity
  8
0
100
AcDbBlockEnd
  0
BLOCK
  5
7487
330
747A
100
AcDbEntity
 67
     1
  8
0
100
AcDbBlockBegin
  2
*PAPER_SPACE
 70
     0
 10
0.0
 20
0.0
 30
0.0
  3
*PAPER_SPACE
  1

  0
ENDBLK
  5
7488
330
747A
100
AcDbEntity
 67
     1
  8
0
100
AcDbBlockEnd
  0
BLOCK
  5
F771
330
F770
100
AcDbEntity
  8
0
 48
50.0
100
AcDbBlockBegin
  2
_DOTSMALL
 70
     0
 10
0.0
 20
0.0
 30
0.0
  3
_DOTSMALL
  1

  0
LWPOLYLINE
  5
F772
330
F770
100
AcDbEntity
  8
0
  6
ByBlock
 62
     0
 48
50.0
100
AcDbPolyline
 90
        2
 70
     1
 43
0.5
 10
-0.0625
 20
0.0
 42
1.0
 10
0.0625
 20
0.0
 42
1.0
  0
ENDBLK
  5
F776
330
F770
100
AcDbEntity
  8
0
 48
50.0
100
AcDbBlockEnd
  0
BLOCK
  5
164EB
330
16338
100
AcDbEntity
  8
0
 48
50.0
100
AcDbBlockBegin
  2
*D1
 70
     1
 10
0.0
 20
0.0
 30
0.0
  3
*D1
  1

  0
LINE
  5
1896F
330
16338
100
AcDbEntity
  8
寸法
 62
     0
 48
50.0
370
    -2
100
AcDbLine
 10
8289.673057123664
 20
10210.96212587689
 30
0.0
 11
8977.099402858071
 21
10210.96212587689
 31
0.0
  0
LINE
  5
18970
330
16338
100
AcDbEntity
  8
寸法
 62
     0
 48
50.0
370
    -2
100
AcDbLine
 10
8289.673057123639
 20
7690.962125876882
 30
0.0
 11
8977.099402858071
 21
7690.962125876882
 31
0.0
  0
LINE
  5
18971
330
16338
100
AcDbEntity
  8
寸法
 62
     0
 48
50.0
370
    -2
100
AcDbLine
 10
8917.099402858069
 20
10210.96212587689
 30
0.0
 11
8917.099402858069
 21
7690.962125876882
 31
0.0
  0
INSERT
  5
18972
330
16338
100
AcDbEntity
  8
寸法
 62
     0
 48
50.0
370
    -2
100
AcDbBlockReference
  2
_DOTSMALL
 10
8917.099402858069
 20
10210.96212587689
 30
0.0
 41
100.0
 42
100.0
 43
100.0
 50
90.0
  0
INSERT
  5
18973
330
16338
100
AcDbEntity
  8
寸法
 62
     0
 48
50.0
370
    -2
100
AcDbBlockReference
  2
_DOTSMALL
 10
8917.099402858069
 20
7690.962125876882
 30
0.0
 41
100.0
 42
100.0
 43
100.0
 50
270.0
  0
MTEXT
  5
18974
330
16338
100
AcDbEntity
  8
寸法
 62
     7
 48
50.0
100
AcDbMText
 10
8817.087591834447
 20
8950.962125876891
 30
0.0
 40
120.0
 41
0.0
 71
     5
 72
     1
  1
\A1;6X420=2520
  7
STYLE1
 11
0.0000000000000001
 21
1.0
 31
0.0
 73
     1
 44
1.0
1001
ACAD
1000
MTEXTBEGIN
1070
    73
1070
     1
1070
    44
1040
1.0
1070
    74
1070
     0
1000
MTEXTEND
  0
POINT
  5
18975
330
16338
100
AcDbEntity
  8
DEFPOINTS
 62
     0
 48
50.0
100
AcDbPoint
 10
8269.673057123664
 20
10210.96212587689
 30
0.0
  0
POINT
  5
18976
330
16338
100
AcDbEntity
  8
DEFPOINTS
 62
     0
 48
50.0
100
AcDbPoint
 10
8269.673057123638
 20
7690.962125876882
 30
0.0
  0
POINT
  5
18977
330
16338
100
AcDbEntity
  8
DEFPOINTS
 62
     0
 48
50.0
100
AcDbPoint
 10
8917.099402858069
 20
7690.962125876882
 30
0.0
  0
ENDBLK
  5
164F5
330
16338
100
AcDbEntity
  8
0
 48
50.0
100
AcDbBlockEnd
  0
BLOCK
  5
16414
330
16344
100
AcDbEntity
  8
0
 48
50.0
100
AcDbBlockBegin
  2
*D2
 70
     1
 10
0.0
 20
0.0
 30
0.0
  3
*D2
  1

  0
LINE
  5
18964
330
16344
100
AcDbEntity
  8
寸法
 62
     0
 48
50.0
370
    -2
100
AcDbLine
 10
8289.673057123639
 20
7690.962125876882
 30
0.0
 11
8977.099402858049
 21
7690.962125876882
 31
0.0
  0
LINE
  5
18965
330
16344
100
AcDbEntity
  8
寸法
 62
     0
 48
50.0
370
    -2
100
AcDbLine
 10
8289.673057123639
 20
7635.962125876885
 30
0.0
 11
8977.099402858049
 21
7635.962125876885
 31
0.0
  0
LINE
  5
18966
330
16344
100
AcDbEntity
  8
寸法
 62
     0
 48
50.0
370
    -2
100
AcDbLine
 10
8917.099402858049
 20
7690.962125876882
 30
0.0
 11
8917.099402858049
 21
7790.962125876882
 31
0.0
  0
LINE
  5
18967
330
16344
100
AcDbEntity
  8
寸法
 62
     0
 48
50.0
370
    -2
100
AcDbLine
 10
8917.099402858049
 20
7635.962125876885
 30
0.0
 11
8917.099402858049
 21
7149.615377597784
 31
0.0
  0
LINE
  5
18968
330
16344
100
AcDbEntity
  8
寸法
 62
     0
 48
50.0
370
    -2
100
AcDbLine
 10
8917.099402858049
 20
7690.962125876882
 30
0.0
 11
8917.099402858049
 21
7635.962125876885
 31
0.0
  0
INSERT
  5
18969
330
16344
100
AcDbEntity
  8
寸法
 62
     0
 48
50.0
370
    -2
100
AcDbBlockReference
  2
_DOTSMALL
 10
8917.099402858049
 20
7690.962125876882
 30
0.0
 41
100.0
 42
100.0
 43
100.0
 50
270.0
  0
INSERT
  5
1896A
330
16344
100
AcDbEntity
  8
寸法
 62
     0
 48
50.0
370
    -2
100
AcDbBlockReference
  2
_DOTSMALL
 10
8917.099402858049
 20
7635.962125876885
 30
0.0
 41
100.0
 42
100.0
 43
100.0
 50
90.0
  0
MTEXT
  5
1896B
330
16344
100
AcDbEntity
  8
寸法
 62
     7
 48
50.0
100
AcDbMText
 10
8817.099402858048
 20
7258.100658972023
 30
0.0
 40
120.0
 41
0.0
 71
     5
 72
     1
  1
\A1;55
  7
STYLE1
 11
0.0000000000000001
 21
1.0
 31
0.0
 73
     1
 44
1.0
1001
ACAD
1000
MTEXTBEGIN
1070
    73
1070
     1
1070
    44
1040
1.0
1070
    74
1070
     0
1000
MTEXTEND
  0
POINT
  5
1896C
330
16344
100
AcDbEntity
  8
DEFPOINTS
 62
     0
 48
50.0
100
AcDbPoint
 10
8269.673057123638
 20
7690.962125876882
 30
0.0
  0
POINT
  5
1896D
330
16344
100
AcDbEntity
  8
DEFPOINTS
 62
     0
 48
50.0
100
AcDbPoint
 10
8269.673057123638
 20
7635.962125876885
 30
0.0
  0
POINT
  5
1896E
330
16344
100
AcDbEntity
  8
DEFPOINTS
 62
     0
 48
50.0
100
AcDbPoint
 10
8917.099402858049
 20
7635.962125876885
 30
0.0
  0
ENDBLK
  5
16420
330
16344
100
AcDbEntity
  8
0
 48
50.0
100
AcDbBlockEnd
  0
BLOCK
  5
16421
330
16352
100
AcDbEntity
  8
0
 48
50.0
100
AcDbBlockBegin
  2
*D3
 70
     1
 10
0.0
 20
0.0
 30
0.0
  3
*D3
  1

  0
LINE
  5
18959
330
16352
100
AcDbEntity
  8
寸法
 62
     0
 48
50.0
370
    -2
100
AcDbLine
 10
8289.673057123664
 20
10265.96212587689
 30
0.0
 11
8977.099402858076
 21
10265.96212587689
 31
0.0
  0
LINE
  5
1895A
330
16352
100
AcDbEntity
  8
寸法
 62
     0
 48
50.0
370
    -2
100
AcDbLine
 10
8289.673057123664
 20
10210.96212587689
 30
0.0
 11
8977.099402858076
 21
10210.96212587689
 31
0.0
  0
LINE
  5
1895B
330
16352
100
AcDbEntity
  8
寸法
 62
     0
 48
50.0
370
    -2
100
AcDbLine
 10
8917.099402858076
 20
10210.96212587689
 30
0.0
 11
8917.099402858076
 21
10110.96212587689
 31
0.0
  0
LINE
  5
1895C
330
16352
100
AcDbEntity
  8
寸法
 62
     0
 48
50.0
370
    -2
100
AcDbLine
 10
8917.099402858076
 20
10265.96212587689
 30
0.0
 11
8917.099402858076
 21
10682.93268862537
 31
0.0
  0
LINE
  5
1895D
330
16352
100
AcDbEntity
  8
寸法
 62
     0
 48
50.0
370
    -2
100
AcDbLine
 10
8917.099402858076
 20
10210.96212587689
 30
0.0
 11
8917.099402858076
 21
10265.96212587689
 31
0.0
  0
INSERT
  5
1895E
330
16352
100
AcDbEntity
  8
寸法
 62
     0
 48
50.0
370
    -2
100
AcDbBlockReference
  2
_DOTSMALL
 10
8917.099402858076
 20
10210.96212587689
 30
0.0
 41
100.0
 42
100.0
 43
100.0
 50
90.0
  0
INSERT
  5
1895F
330
16352
100
AcDbEntity
  8
寸法
 62
     0
 48
50.0
370
    -2
100
AcDbBlockReference
  2
_DOTSMALL
 10
8917.099402858076
 20
10265.96212587689
 30
0.0
 41
100.0
 42
100.0
 43
100.0
 50
270.0
  0
MTEXT
  5
18960
330
16352
100
AcDbEntity
  8
寸法
 62
     7
 48
50.0
100
AcDbMText
 10
8817.099402858074
 20
10574.44740725113
 30
0.0
 40
120.0
 41
0.0
 71
     5
 72
     1
  1
\A1;55
  7
STYLE1
 11
0.0000000000000001
 21
1.0
 31
0.0
 73
     1
 44
1.0
1001
ACAD
1000
MTEXTBEGIN
1070
    73
1070
     1
1070
    44
1040
1.0
1070
    74
1070
     0
1000
MTEXTEND
  0
POINT
  5
18961
330
16352
100
AcDbEntity
  8
DEFPOINTS
 62
     0
 48
50.0
100
AcDbPoint
 10
8269.673057123664
 20
10265.96212587689
 30
0.0
  0
POINT
  5
18962
330
16352
100
AcDbEntity
  8
DEFPOINTS
 62
     0
 48
50.0
100
AcDbPoint
 10
8269.673057123664
 20
10210.96212587689
 30
0.0
  0
POINT
  5
18963
330
16352
100
AcDbEntity
  8
DEFPOINTS
 62
     0
 48
50.0
100
AcDbPoint
 10
8917.099402858076
 20
10210.96212587689
 30
0.0
  0
ENDBLK
  5
1642D
330
16352
100
AcDbEntity
  8
0
 48
50.0
100
AcDbBlockEnd
  0
BLOCK
  5
164CA
330
16360
100
AcDbEntity
  8
0
 48
50.0
100
AcDbBlockBegin
  2
*D4
 70
     1
 10
0.0
 20
0.0
 30
0.0
  3
*D4
  1

  0
LINE
  5
18950
330
16360
100
AcDbEntity
  8
寸法
 62
     0
 48
50.0
370
    -2
100
AcDbLine
 10
8289.673057123664
 20
10265.96212587689
 30
0.0
 11
9342.206344597709
 21
10265.96212587689
 31
0.0
  0
LINE
  5
18951
330
16360
100
AcDbEntity
  8
寸法
 62
     0
 48
50.0
370
    -2
100
AcDbLine
 10
8289.673057123639
 20
7635.962125876885
 30
0.0
 11
9342.206344597709
 21
7635.962125876885
 31
0.0
  0
LINE
  5
18952
330
16360
100
AcDbEntity
  8
寸法
 62
     0
 48
50.0
370
    -2
100
AcDbLine
 10
9282.206344597708
 20
10265.96212587689
 30
0.0
 11
9282.206344597708
 21
7635.962125876885
 31
0.0
  0
INSERT
  5
18953
330
16360
100
AcDbEntity
  8
寸法
 62
     0
 48
50.0
370
    -2
100
AcDbBlockReference
  2
_DOTSMALL
 10
9282.206344597708
 20
10265.96212587689
 30
0.0
 41
100.0
 42
100.0
 43
100.0
 50
90.0
  0
INSERT
  5
18954
330
16360
100
AcDbEntity
  8
寸法
 62
     0
 48
50.0
370
    -2
100
AcDbBlockReference
  2
_DOTSMALL
 10
9282.206344597708
 20
7635.962125876885
 30
0.0
 41
100.0
 42
100.0
 43
100.0
 50
270.0
  0
MTEXT
  5
18955
330
16360
100
AcDbEntity
  8
寸法
 62
     7
 48
50.0
100
AcDbMText
 10
9182.194533574087
 20
8950.962125876891
 30
0.0
 40
120.0
 41
0.0
 71
     5
 72
     1
  1
\A1;2630
  7
STYLE1
 11
0.0000000000000001
 21
1.0
 31
0.0
 73
     1
 44
1.0
1001
ACAD
1000
MTEXTBEGIN
1070
    73
1070
     1
1070
    44
1040
1.0
1070
    74
1070
     0
1000
MTEXTEND
  0
POINT
  5
18956
330
16360
100
AcDbEntity
  8
DEFPOINTS
 62
     0
 48
50.0
100
AcDbPoint
 10
8269.673057123664
 20
10265.96212587689
 30
0.0
  0
POINT
  5
18957
330
16360
100
AcDbEntity
  8
DEFPOINTS
 62
     0
 48
50.0
100
AcDbPoint
 10
8269.673057123638
 20
7635.962125876885
 30
0.0
  0
POINT
  5
18958
330
16360
100
AcDbEntity
  8
DEFPOINTS
 62
     0
 48
50.0
100
AcDbPoint
 10
9282.206344597708
 20
7635.962125876885
 30
0.0
  0
ENDBLK
  5
164D4
330
16360
100
AcDbEntity
  8
0
 48
50.0
100
AcDbBlockEnd
  0
BLOCK
  5
1728C
330
16384
100
AcDbEntity
  8
0
 48
50.0
100
AcDbBlockBegin
  2
*D5
 70
     1
 10
0.0
 20
0.0
 30
0.0
  3
*D5
  1

  0
LINE
  5
18948
330
16384
100
AcDbEntity
  8
寸法
 62
     0
 48
50.0
370
    -2
100
AcDbLine
 10
6582.673057123656
 20
7641.962125876794
 30
0.0
 11
6582.673057123656
 21
7041.531355110631
 31
0.0
  0
LINE
  5
18949
330
16384
100
AcDbEntity
  8
寸法
 62
     0
 48
50.0
370
    -2
100
AcDbLine
 10
8166.673057123638
 20
7101.53135511063
 30
0.0
 11
6582.673057123656
 21
7101.53135511063
 31
0.0
  0
INSERT
  5
1894A
330
16384
100
AcDbEntity
  8
寸法
 62
     0
 48
50.0
370
    -2
100
AcDbBlockReference
  2
_DOTSMALL
 10
8166.673057123638
 20
7101.53135511063
 30
0.0
 41
100.0
 42
100.0
 43
100.0
  0
INSERT
  5
1894B
330
16384
100
AcDbEntity
  8
寸法
 62
     0
 48
50.0
370
    -2
100
AcDbBlockReference
  2
_DOTSMALL
 10
6582.673057123656
 20
7101.53135511063
 30
0.0
 41
100.0
 42
100.0
 43
100.0
 50
180.0
  0
MTEXT
  5
1894C
330
16384
100
AcDbEntity
  8
寸法
 62
     7
 48
50.0
100
AcDbMText
 10
7374.673057123648
 20
7301.53135511063
 30
0.0
 40
120.0
 41
0.0
 71
     5
 72
     1
  1
\A1;有効開口部間口\P 1584
  7
STYLE1
 73
     1
 44
1.0
1001
ACAD
1000
MTEXTBEGIN
1070
    73
1070
     1
1070
    44
1040
1.0
1070
    74
1070
     0
1000
MTEXTEND
  0
POINT
  5
1894D
330
16384
100
AcDbEntity
  8
DEFPOINTS
 62
     0
 48
50.0
100
AcDbPoint
 10
8166.673057123638
 20
7661.962125876795
 30
0.0
  0
POINT
  5
1894E
330
16384
100
AcDbEntity
  8
DEFPOINTS
 62
     0
 48
50.0
100
AcDbPoint
 10
6582.673057123656
 20
7661.962125876794
 30
0.0
  0
POINT
  5
1894F
330
16384
100
AcDbEntity
  8
DEFPOINTS
 62
     0
 48
50.0
100
AcDbPoint
 10
6582.673057123656
 20
7101.53135511063
 30
0.0
  0
ENDBLK
  5
17295
330
16384
100
AcDbEntity
  8
0
 48
50.0
100
AcDbBlockEnd
  0
BLOCK
  5
17261
330
1638F
100
AcDbEntity
  8
0
 48
50.0
100
AcDbBlockBegin
  2
*D6
 70
     1
 10
0.0
 20
0.0
 30
0.0
  3
*D6
  1

  0
LINE
  5
19D4D
330
1638F
100
AcDbEntity
  8
寸法
 62
     0
 48
50.0
370
    -2
100
AcDbLine
 10
2899.673057123657
 20
7615.962125876754
 30
0.0
 11
2899.673057123657
 21
6595.358359519756
 31
0.0
  0
LINE
  5
19D4E
330
1638F
100
AcDbEntity
  8
寸法
 62
     0
 48
50.0
370
    -2
100
AcDbLine
 10
8269.673057123627
 20
7615.962125876887
 30
0.0
 11
8269.673057123627
 21
6595.358359519756
 31
0.0
  0
LINE
  5
19D4F
330
1638F
100
AcDbEntity
  8
寸法
 62
     0
 48
50.0
370
    -2
100
AcDbLine
 10
2899.673057123657
 20
6655.358359519756
 30
0.0
 11
8269.673057123627
 21
6655.358359519756
 31
0.0
  0
INSERT
  5
19D50
330
1638F
100
AcDbEntity
  8
寸法
 62
     0
 48
50.0
370
    -2
100
AcDbBlockReference
  2
_DOTSMALL
 10
2899.673057123657
 20
6655.358359519756
 30
0.0
 41
100.0
 42
100.0
 43
100.0
 50
180.0
  0
INSERT
  5
19D51
330
1638F
100
AcDbEntity
  8
寸法
 62
     0
 48
50.0
370
    -2
100
AcDbBlockReference
  2
_DOTSMALL
 10
8269.673057123627
 20
6655.358359519756
 30
0.0
 41
100.0
 42
100.0
 43
100.0
  0
MTEXT
  5
19D52
330
1638F
100
AcDbEntity
  8
寸法
 62
     7
 48
50.0
100
AcDbMText
 10
5584.673057123642
 20
6755.358359519757
 30
0.0
 40
120.0
 41
0.0
 71
     5
 72
     1
  1
\A1;N X 1790
  7
STYLE1
 73
     1
 44
1.0
1001
ACAD
1000
MTEXTBEGIN
1070
    73
1070
     1
1070
    44
1040
1.0
1070
    74
1070
     0
1000
MTEXTEND
  0
POINT
  5
19D53
330
1638F
100
AcDbEntity
  8
DEFPOINTS
 62
     0
 48
50.0
100
AcDbPoint
 10
2899.673057123657
 20
7635.962125876755
 30
0.0
  0
POINT
  5
19D54
330
1638F
100
AcDbEntity
  8
DEFPOINTS
 62
     0
 48
50.0
100
AcDbPoint
 10
8269.673057123627
 20
7635.962125876885
 30
0.0
  0
POINT
  5
19D55
330
1638F
100
AcDbEntity
  8
DEFPOINTS
 62
     0
 48
50.0
100
AcDbPoint
 10
8269.673057123627
 20
6655.358359519756
 30
0.0
  0
ENDBLK
  5
1726B
330
1638F
100
AcDbEntity
  8
0
 48
50.0
100
AcDbBlockEnd
  0
BLOCK
  5
16464
330
1639B
100
AcDbEntity
  8
0
 48
50.0
100
AcDbBlockBegin
  2
*D7
 70
     1
 10
0.0
 20
0.0
 30
0.0
  3
*D7
  1

  0
LINE
  5
19D42
330
1639B
100
AcDbEntity
  8
寸法
 62
     0
 48
50.0
370
    -2
100
AcDbLine
 10
2954.673057123654
 20
7615.962125876794
 30
0.0
 11
2954.673057123654
 21
7041.531355110631
 31
0.0
  0
LINE
  5
19D43
330
1639B
100
AcDbEntity
  8
寸法
 62
     0
 48
50.0
370
    -2
100
AcDbLine
 10
2899.673057123657
 20
7615.962125876791
 30
0.0
 11
2899.673057123657
 21
7041.531355110631
 31
0.0
  0
LINE
  5
19D44
330
1639B
100
AcDbEntity
  8
寸法
 62
     0
 48
50.0
370
    -2
100
AcDbLine
 10
2954.673057123654
 20
7101.53135511063
 30
0.0
 11
3054.673057123654
 21
7101.53135511063
 31
0.0
  0
LINE
  5
19D45
330
1639B
100
AcDbEntity
  8
寸法
 62
     0
 48
50.0
370
    -2
100
AcDbLine
 10
2899.673057123657
 20
7101.53135511063
 30
0.0
 11
2482.70249437518
 21
7101.53135511063
 31
0.0
  0
LINE
  5
19D46
330
1639B
100
AcDbEntity
  8
寸法
 62
     0
 48
50.0
370
    -2
100
AcDbLine
 10
2954.673057123654
 20
7101.53135511063
 30
0.0
 11
2899.673057123657
 21
7101.53135511063
 31
0.0
  0
INSERT
  5
19D47
330
1639B
100
AcDbEntity
  8
寸法
 62
     0
 48
50.0
370
    -2
100
AcDbBlockReference
  2
_DOTSMALL
 10
2954.673057123654
 20
7101.53135511063
 30
0.0
 41
100.0
 42
100.0
 43
100.0
 50
180.0
  0
INSERT
  5
19D48
330
1639B
100
AcDbEntity
  8
寸法
 62
     0
 48
50.0
370
    -2
100
AcDbBlockReference
  2
_DOTSMALL
 10
2899.673057123657
 20
7101.53135511063
 30
0.0
 41
100.0
 42
100.0
 43
100.0
  0
MTEXT
  5
19D49
330
1639B
100
AcDbEntity
  8
寸法
 62
     7
 48
50.0
100
AcDbMText
 10
2591.187775749419
 20
7201.53135511063
 30
0.0
 40
120.0
 41
0.0
 71
     5
 72
     1
  1
\A1;55
  7
STYLE1
 73
     1
 44
1.0
1001
ACAD
1000
MTEXTBEGIN
1070
    73
1070
     1
1070
    44
1040
1.0
1070
    74
1070
     0
1000
MTEXTEND
  0
POINT
  5
19D4A
330
1639B
100
AcDbEntity
  8
DEFPOINTS
 62
     0
 48
50.0
100
AcDbPoint
 10
2954.673057123654
 20
7635.962125876794
 30
0.0
  0
POINT
  5
19D4B
330
1639B
100
AcDbEntity
  8
DEFPOINTS
 62
     0
 48
50.0
100
AcDbPoint
 10
2899.673057123657
 20
7635.962125876791
 30
0.0
  0
POINT
  5
19D4C
330
1639B
100
AcDbEntity
  8
DEFPOINTS
 62
     0
 48
50.0
100
AcDbPoint
 10
2899.673057123657
 20
7101.53135511063
 30
0.0
  0
ENDBLK
  5
16470
330
1639B
100
AcDbEntity
  8
0
 48
50.0
100
AcDbBlockEnd
  0
BLOCK
  5
16471
330
163A9
100
AcDbEntity
  8
0
 48
50.0
100
AcDbBlockBegin
  2
*D8
 70
     1
 10
0.0
 20
0.0
 30
0.0
  3
*D8
  1

  0
LINE
  5
18929
330
163A9
100
AcDbEntity
  8
寸法
 62
     0
 48
50.0
370
    -2
100
AcDbLine
 10
6582.673057123656
 20
7641.962125876794
 30
0.0
 11
6582.673057123656
 21
7041.531355110631
 31
0.0
  0
LINE
  5
1892A
330
163A9
100
AcDbEntity
  8
寸法
 62
     0
 48
50.0
370
    -2
100
AcDbLine
 10
6534.673057123653
 20
7615.962125876794
 30
0.0
 11
6534.673057123653
 21
7041.531355110631
 31
0.0
  0
LINE
  5
1892B
330
163A9
100
AcDbEntity
  8
寸法
 62
     0
 48
50.0
370
    -2
100
AcDbLine
 10
6582.673057123656
 20
7101.53135511063
 30
0.0
 11
6682.673057123657
 21
7101.53135511063
 31
0.0
  0
LINE
  5
1892C
330
163A9
100
AcDbEntity
  8
寸法
 62
     0
 48
50.0
370
    -2
100
AcDbLine
 10
6534.673057123653
 20
7101.53135511063
 30
0.0
 11
6434.673057123653
 21
7101.53135511063
 31
0.0
  0
MTEXT
  5
1892D
330
163A9
100
AcDbEntity
  8
寸法
 62
     7
 48
50.0
100
AcDbMText
 10
6695.575028123714
 20
7201.53135511063
 30
0.0
 40
120.0
 41
0.0
 71
     5
 72
     1
  1
\A1;48
  7
STYLE1
 73
     1
 44
1.0
1001
ACAD
1000
MTEXTBEGIN
1070
    73
1070
     1
1070
    44
1040
1.0
1070
    74
1070
     0
1000
MTEXTEND
  0
LINE
  5
1892E
330
163A9
100
AcDbEntity
  8
寸法
 62
     0
 48
50.0
370
    -2
100
AcDbLine
 10
6582.673057123656
 20
7101.53135511063
 30
0.0
 11
6534.673057123653
 21
7101.53135511063
 31
0.0
  0
INSERT
  5
1892F
330
163A9
100
AcDbEntity
  8
寸法
 62
     0
 48
50.0
370
    -2
100
AcDbBlockReference
  2
_DOTSMALL
 10
6582.673057123656
 20
7101.53135511063
 30
0.0
 41
100.0
 42
100.0
 43
100.0
 50
180.0
  0
INSERT
  5
18930
330
163A9
100
AcDbEntity
  8
寸法
 62
     0
 48
50.0
370
    -2
100
AcDbBlockReference
  2
_DOTSMALL
 10
6534.673057123653
 20
7101.53135511063
 30
0.0
 41
100.0
 42
100.0
 43
100.0
  0
POINT
  5
18931
330
163A9
100
AcDbEntity
  8
DEFPOINTS
 62
     0
 48
50.0
100
AcDbPoint
 10
6582.673057123656
 20
7661.962125876794
 30
0.0
  0
POINT
  5
18932
330
163A9
100
AcDbEntity
  8
DEFPOINTS
 62
     0
 48
50.0
100
AcDbPoint
 10
6534.673057123653
 20
7635.962125876794
 30
0.0
  0
POINT
  5
18933
330
163A9
100
AcDbEntity
  8
DEFPOINTS
 62
     0
 48
50.0
100
AcDbPoint
 10
6534.673057123653
 20
7101.53135511063
 30
0.0
  0
ENDBLK
  5
1647E
330
163A9
100
AcDbEntity
  8
0
 48
50.0
100
AcDbBlockEnd
  0
BLOCK
  5
1647F
330
163B8
100
AcDbEntity
  8
0
 48
50.0
100
AcDbBlockBegin
  2
*D9
 70
     1
 10
0.0
 20
0.0
 30
0.0
  3
*D9
  1

  0
LINE
  5
1891E
330
163B8
100
AcDbEntity
  8
寸法
 62
     0
 48
50.0
370
    -2
100
AcDbLine
 10
8214.67305712364
 20
7615.962125876882
 30
0.0
 11
8214.67305712364
 21
7041.531355110631
 31
0.0
  0
LINE
  5
1891F
330
163B8
100
AcDbEntity
  8
寸法
 62
     0
 48
50.0
370
    -2
100
AcDbLine
 10
8166.673057123638
 20
7641.962125876794
 30
0.0
 11
8166.673057123638
 21
7041.531355110631
 31
0.0
  0
LINE
  5
18920
330
163B8
100
AcDbEntity
  8
寸法
 62
     0
 48
50.0
370
    -2
100
AcDbLine
 10
8214.67305712364
 20
7101.53135511063
 30
0.0
 11
8314.67305712364
 21
7101.53135511063
 31
0.0
  0
LINE
  5
18921
330
163B8
100
AcDbEntity
  8
寸法
 62
     0
 48
50.0
370
    -2
100
AcDbLine
 10
8166.673057123638
 20
7101.53135511063
 30
0.0
 11
8066.673057123638
 21
7101.53135511063
 31
0.0
  0
MTEXT
  5
18922
330
163B8
100
AcDbEntity
  8
寸法
 62
     7
 48
50.0
100
AcDbMText
 10
8055.710159474891
 20
7201.53135511063
 30
0.0
 40
120.0
 41
0.0
 71
     5
 72
     1
  1
\A1;48
  7
STYLE1
 73
     1
 44
1.0
1001
ACAD
1000
MTEXTBEGIN
1070
    73
1070
     1
1070
    44
1040
1.0
1070
    74
1070
     0
1000
MTEXTEND
  0
LINE
  5
18923
330
163B8
100
AcDbEntity
  8
寸法
 62
     0
 48
50.0
370
    -2
100
AcDbLine
 10
8214.67305712364
 20
7101.53135511063
 30
0.0
 11
8166.673057123638
 21
7101.53135511063
 31
0.0
  0
INSERT
  5
18924
330
163B8
100
AcDbEntity
  8
寸法
 62
     0
 48
50.0
370
    -2
100
AcDbBlockReference
  2
_DOTSMALL
 10
8214.67305712364
 20
7101.53135511063
 30
0.0
 41
100.0
 42
100.0
 43
100.0
 50
180.0
  0
INSERT
  5
18925
330
163B8
100
AcDbEntity
  8
寸法
 62
     0
 48
50.0
370
    -2
100
AcDbBlockReference
  2
_DOTSMALL
 10
8166.673057123638
 20
7101.53135511063
 30
0.0
 41
100.0
 42
100.0
 43
100.0
  0
POINT
  5
18926
330
163B8
100
AcDbEntity
  8
DEFPOINTS
 62
     0
 48
50.0
100
AcDbPoint
 10
8214.67305712364
 20
7635.962125876883
 30
0.0
  0
POINT
  5
18927
330
163B8
100
AcDbEntity
  8
DEFPOINTS
 62
     0
 48
50.0
100
AcDbPoint
 10
8166.673057123638
 20
7661.962125876795
 30
0.0
  0
POINT
  5
18928
330
163B8
100
AcDbEntity
  8
DEFPOINTS
 62
     0
 48
50.0
100
AcDbPoint
 10
8166.673057123638
 20
7101.53135511063
 30
0.0
  0
ENDBLK
  5
1648C
330
163B8
100
AcDbEntity
  8
0
 48
50.0
100
AcDbBlockEnd
  0
BLOCK
  5
1648D
330
163C7
100
AcDbEntity
  8
0
 48
50.0
100
AcDbBlockBegin
  2
*D10
 70
     1
 10
0.0
 20
0.0
 30
0.0
  3
*D10
  1

  0
LINE
  5
18913
330
163C7
100
AcDbEntity
  8
寸法
 62
     0
 48
50.0
370
    -2
100
AcDbLine
 10
8269.673057123638
 20
7615.962125876887
 30
0.0
 11
8269.673057123638
 21
7041.531355110631
 31
0.0
  0
LINE
  5
18914
330
163C7
100
AcDbEntity
  8
寸法
 62
     0
 48
50.0
370
    -2
100
AcDbLine
 10
8214.67305712364
 20
7615.962125876882
 30
0.0
 11
8214.67305712364
 21
7041.531355110631
 31
0.0
  0
LINE
  5
18915
330
163C7
100
AcDbEntity
  8
寸法
 62
     0
 48
50.0
370
    -2
100
AcDbLine
 10
8214.67305712364
 20
7101.531355110632
 30
0.0
 11
8114.67305712364
 21
7101.531355110632
 31
0.0
  0
LINE
  5
18916
330
163C7
100
AcDbEntity
  8
寸法
 62
     0
 48
50.0
370
    -2
100
AcDbLine
 10
8269.673057123638
 20
7101.531355110632
 30
0.0
 11
8686.643619872114
 21
7101.531355110632
 31
0.0
  0
LINE
  5
18917
330
163C7
100
AcDbEntity
  8
寸法
 62
     0
 48
50.0
370
    -2
100
AcDbLine
 10
8214.67305712364
 20
7101.531355110632
 30
0.0
 11
8269.673057123638
 21
7101.531355110632
 31
0.0
  0
INSERT
  5
18918
330
163C7
100
AcDbEntity
  8
寸法
 62
     0
 48
50.0
370
    -2
100
AcDbBlockReference
  2
_DOTSMALL
 10
8214.67305712364
 20
7101.531355110632
 30
0.0
 41
100.0
 42
100.0
 43
100.0
  0
INSERT
  5
18919
330
163C7
100
AcDbEntity
  8
寸法
 62
     0
 48
50.0
370
    -2
100
AcDbBlockReference
  2
_DOTSMALL
 10
8269.673057123638
 20
7101.531355110632
 30
0.0
 41
100.0
 42
100.0
 43
100.0
 50
180.0
  0
MTEXT
  5
1891A
330
163C7
100
AcDbEntity
  8
寸法
 62
     7
 48
50.0
100
AcDbMText
 10
8578.158338497877
 20
7201.531355110631
 30
0.0
 40
120.0
 41
0.0
 71
     5
 72
     1
  1
\A1;55
  7
STYLE1
 73
     1
 44
1.0
1001
ACAD
1000
MTEXTBEGIN
1070
    73
1070
     1
1070
    44
1040
1.0
1070
    74
1070
     0
1000
MTEXTEND
  0
POINT
  5
1891B
330
163C7
100
AcDbEntity
  8
DEFPOINTS
 62
     0
 48
50.0
100
AcDbPoint
 10
8269.673057123638
 20
7635.962125876885
 30
0.0
  0
POINT
  5
1891C
330
163C7
100
AcDbEntity
  8
DEFPOINTS
 62
     0
 48
50.0
100
AcDbPoint
 10
8214.67305712364
 20
7635.962125876883
 30
0.0
  0
POINT
  5
1891D
330
163C7
100
AcDbEntity
  8
DEFPOINTS
 62
     0
 48
50.0
100
AcDbPoint
 10
8214.67305712364
 20
7101.531355110632
 30
0.0
  0
ENDBLK
  5
16499
330
163C7
100
AcDbEntity
  8
0
 48
50.0
100
AcDbBlockEnd
  0
BLOCK
  5
172A1
330
163E1
100
AcDbEntity
  8
0
 48
50.0
100
AcDbBlockBegin
  2
*D11
 70
     1
 10
0.0
 20
0.0
 30
0.0
  3
*D11
  1

  0
LINE
  5
1890A
330
163E1
100
AcDbEntity
  8
寸法
 62
     0
 48
50.0
370
    -2
100
AcDbLine
 10
6534.673057123663
 20
10285.9621258768
 30
0.0
 11
6534.673057123663
 21
10541.77034550189
 31
0.0
  0
LINE
  5
1890B
330
163E1
100
AcDbEntity
  8
寸法
 62
     0
 48
50.0
370
    -2
100
AcDbLine
 10
8214.673057123665
 20
10285.96212587689
 30
0.0
 11
8214.673057123665
 21
10541.77034550189
 31
0.0
  0
LINE
  5
1890C
330
163E1
100
AcDbEntity
  8
寸法
 62
     0
 48
50.0
370
    -2
100
AcDbLine
 10
6534.673057123663
 20
10481.77034550189
 30
0.0
 11
8214.673057123665
 21
10481.77034550189
 31
0.0
  0
INSERT
  5
1890D
330
163E1
100
AcDbEntity
  8
寸法
 62
     0
 48
50.0
370
    -2
100
AcDbBlockReference
  2
_DOTSMALL
 10
6534.673057123663
 20
10481.77034550189
 30
0.0
 41
100.0
 42
100.0
 43
100.0
 50
180.0
  0
INSERT
  5
1890E
330
163E1
100
AcDbEntity
  8
寸法
 62
     0
 48
50.0
370
    -2
100
AcDbBlockReference
  2
_DOTSMALL
 10
8214.673057123665
 20
10481.77034550189
 30
0.0
 41
100.0
 42
100.0
 43
100.0
  0
MTEXT
  5
1890F
330
163E1
100
AcDbEntity
  8
寸法
 62
     7
 48
50.0
100
AcDbMText
 10
7374.673057123664
 20
10581.78215652552
 30
0.0
 40
120.0
 41
0.0
 71
     5
 72
     1
  1
\A1;4X420=1680
  7
STYLE1
 73
     1
 44
1.0
1001
ACAD
1000
MTEXTBEGIN
1070
    73
1070
     1
1070
    44
1040
1.0
1070
    74
1070
     0
1000
MTEXTEND
  0
POINT
  5
18910
330
163E1
100
AcDbEntity
  8
DEFPOINTS
 62
     0
 48
50.0
100
AcDbPoint
 10
6534.673057123663
 20
10265.9621258768
 30
0.0
  0
POINT
  5
18911
330
163E1
100
AcDbEntity
  8
DEFPOINTS
 62
     0
 48
50.0
100
AcDbPoint
 10
8214.673057123665
 20
10265.96212587689
 30
0.0
  0
POINT
  5
18912
330
163E1
100
AcDbEntity
  8
DEFPOINTS
 62
     0
 48
50.0
100
AcDbPoint
 10
8214.673057123665
 20
10481.77034550189
 30
0.0
  0
ENDBLK
  5
172AB
330
163E1
100
AcDbEntity
  8
0
 48
50.0
100
AcDbBlockEnd
  0
BLOCK
  5
164B0
330
163ED
100
AcDbEntity
  8
0
 48
50.0
100
AcDbBlockBegin
  2
*D12
 70
     1
 10
0.0
 20
0.0
 30
0.0
  3
*D12
  1

  0
LINE
  5
19D37
330
163ED
100
AcDbEntity
  8
寸法
 62
     0
 48
50.0
370
    -2
100
AcDbLine
 10
2899.673057123629
 20
10285.9621258768
 30
0.0
 11
2899.673057123629
 21
10541.77034550178
 31
0.0
  0
LINE
  5
19D38
330
163ED
100
AcDbEntity
  8
寸法
 62
     0
 48
50.0
370
    -2
100
AcDbLine
 10
2954.673057123664
 20
10285.9621258768
 30
0.0
 11
2954.673057123664
 21
10541.77034550178
 31
0.0
  0
LINE
  5
19D39
330
163ED
100
AcDbEntity
  8
寸法
 62
     0
 48
50.0
370
    -2
100
AcDbLine
 10
2954.673057123664
 20
10481.77034550178
 30
0.0
 11
3054.673057123664
 21
10481.77034550178
 31
0.0
  0
LINE
  5
19D3A
330
163ED
100
AcDbEntity
  8
寸法
 62
     0
 48
50.0
370
    -2
100
AcDbLine
 10
2899.673057123629
 20
10481.77034550178
 30
0.0
 11
2482.702494375152
 21
10481.77034550178
 31
0.0
  0
LINE
  5
19D3B
330
163ED
100
AcDbEntity
  8
寸法
 62
     0
 48
50.0
370
    -2
100
AcDbLine
 10
2954.673057123664
 20
10481.77034550178
 30
0.0
 11
2899.673057123629
 21
10481.77034550178
 31
0.0
  0
INSERT
  5
19D3C
330
163ED
100
AcDbEntity
  8
寸法
 62
     0
 48
50.0
370
    -2
100
AcDbBlockReference
  2
_DOTSMALL
 10
2954.673057123664
 20
10481.77034550178
 30
0.0
 41
100.0
 42
100.0
 43
100.0
 50
180.0
  0
INSERT
  5
19D3D
330
163ED
100
AcDbEntity
  8
寸法
 62
     0
 48
50.0
370
    -2
100
AcDbBlockReference
  2
_DOTSMALL
 10
2899.673057123629
 20
10481.77034550178
 30
0.0
 41
100.0
 42
100.0
 43
100.0
  0
MTEXT
  5
19D3E
330
163ED
100
AcDbEntity
  8
寸法
 62
     7
 48
50.0
100
AcDbMText
 10
2591.187775749391
 20
10581.77034550178
 30
0.0
 40
120.0
 41
0.0
 71
     5
 72
     1
  1
\A1;55
  7
STYLE1
 73
     1
 44
1.0
1001
ACAD
1000
MTEXTBEGIN
1070
    73
1070
     1
1070
    44
1040
1.0
1070
    74
1070
     0
1000
MTEXTEND
  0
POINT
  5
19D3F
330
163ED
100
AcDbEntity
  8
DEFPOINTS
 62
     0
 48
50.0
100
AcDbPoint
 10
2899.673057123629
 20
10265.9621258768
 30
0.0
  0
POINT
  5
19D40
330
163ED
100
AcDbEntity
  8
DEFPOINTS
 62
     0
 48
50.0
100
AcDbPoint
 10
2954.673057123664
 20
10265.9621258768
 30
0.0
  0
POINT
  5
19D41
330
163ED
100
AcDbEntity
  8
DEFPOINTS
 62
     0
 48
50.0
100
AcDbPoint
 10
2954.673057123664
 20
10481.77034550178
 30
0.0
  0
ENDBLK
  5
164BC
330
163ED
100
AcDbEntity
  8
0
 48
50.0
100
AcDbBlockEnd
  0
BLOCK
  5
164BD
330
163FB
100
AcDbEntity
  8
0
 48
50.0
100
AcDbBlockBegin
  2
*D13
 70
     1
 10
0.0
 20
0.0
 30
0.0
  3
*D13
  1

  0
LINE
  5
188F4
330
163FB
100
AcDbEntity
  8
寸法
 62
     0
 48
50.0
370
    -2
100
AcDbLine
 10
8214.673057123665
 20
10285.96212587689
 30
0.0
 11
8214.673057123665
 21
10541.77034550188
 31
0.0
  0
LINE
  5
188F5
330
163FB
100
AcDbEntity
  8
寸法
 62
     0
 48
50.0
370
    -2
100
AcDbLine
 10
8269.673057123664
 20
10285.96212587689
 30
0.0
 11
8269.673057123664
 21
10541.77034550188
 31
0.0
  0
LINE
  5
188F6
330
163FB
100
AcDbEntity
  8
寸法
 62
     0
 48
50.0
370
    -2
100
AcDbLine
 10
8214.673057123665
 20
10481.77034550188
 30
0.0
 11
8114.673057123665
 21
10481.77034550188
 31
0.0
  0
LINE
  5
188F7
330
163FB
100
AcDbEntity
  8
寸法
 62
     0
 48
50.0
370
    -2
100
AcDbLine
 10
8269.673057123664
 20
10481.77034550188
 30
0.0
 11
8686.643619872141
 21
10481.77034550188
 31
0.0
  0
LINE
  5
188F8
330
163FB
100
AcDbEntity
  8
寸法
 62
     0
 48
50.0
370
    -2
100
AcDbLine
 10
8214.673057123665
 20
10481.77034550188
 30
0.0
 11
8269.673057123664
 21
10481.77034550188
 31
0.0
  0
INSERT
  5
188F9
330
163FB
100
AcDbEntity
  8
寸法
 62
     0
 48
50.0
370
    -2
100
AcDbBlockReference
  2
_DOTSMALL
 10
8214.673057123665
 20
10481.77034550188
 30
0.0
 41
100.0
 42
100.0
 43
100.0
  0
INSERT
  5
188FA
330
163FB
100
AcDbEntity
  8
寸法
 62
     0
 48
50.0
370
    -2
100
AcDbBlockReference
  2
_DOTSMALL
 10
8269.673057123664
 20
10481.77034550188
 30
0.0
 41
100.0
 42
100.0
 43
100.0
 50
180.0
  0
MTEXT
  5
188FB
330
163FB
100
AcDbEntity
  8
寸法
 62
     7
 48
50.0
100
AcDbMText
 10
8578.158338497903
 20
10581.77034550188
 30
0.0
 40
120.0
 41
0.0
 71
     5
 72
     1
  1
\A1;55
  7
STYLE1
 73
     1
 44
1.0
1001
ACAD
1000
MTEXTBEGIN
1070
    73
1070
     1
1070
    44
1040
1.0
1070
    74
1070
     0
1000
MTEXTEND
  0
POINT
  5
188FC
330
163FB
100
AcDbEntity
  8
DEFPOINTS
 62
     0
 48
50.0
100
AcDbPoint
 10
8214.673057123665
 20
10265.96212587689
 30
0.0
  0
POINT
  5
188FD
330
163FB
100
AcDbEntity
  8
DEFPOINTS
 62
     0
 48
50.0
100
AcDbPoint
 10
8269.673057123664
 20
10265.96212587689
 30
0.0
  0
POINT
  5
188FE
330
163FB
100
AcDbEntity
  8
DEFPOINTS
 62
     0
 48
50.0
100
AcDbPoint
 10
8269.673057123664
 20
10481.77034550188
 30
0.0
  0
ENDBLK
  5
164C9
330
163FB
100
AcDbEntity
  8
0
 48
50.0
100
AcDbBlockEnd
  0
BLOCK
  5
165B6
330
165B5
100
AcDbEntity
  8
0
 48
50.0
100
AcDbBlockBegin
  2
*D14
 70
     1
 10
0.0
 20
0.0
 30
0.0
  3
*D14
  1

  0
LINE
  5
19D2C
330
165B5
100
AcDbEntity
  8
寸法
 62
     0
 48
50.0
370
    -2
100
AcDbLine
 10
3002.673057123657
 20
7641.962125876794
 30
0.0
 11
3002.673057123657
 21
7041.531355110631
 31
0.0
  0
LINE
  5
19D2D
330
165B5
100
AcDbEntity
  8
寸法
 62
     0
 48
50.0
370
    -2
100
AcDbLine
 10
2954.673057123654
 20
7615.962125876794
 30
0.0
 11
2954.673057123654
 21
7041.531355110631
 31
0.0
  0
LINE
  5
19D2E
330
165B5
100
AcDbEntity
  8
寸法
 62
     0
 48
50.0
370
    -2
100
AcDbLine
 10
3002.673057123657
 20
7101.53135511063
 30
0.0
 11
3102.673057123658
 21
7101.53135511063
 31
0.0
  0
LINE
  5
19D2F
330
165B5
100
AcDbEntity
  8
寸法
 62
     0
 48
50.0
370
    -2
100
AcDbLine
 10
2954.673057123654
 20
7101.53135511063
 30
0.0
 11
2854.673057123654
 21
7101.53135511063
 31
0.0
  0
MTEXT
  5
19D30
330
165B5
100
AcDbEntity
  8
寸法
 62
     7
 48
50.0
100
AcDbMText
 10
3115.575028123715
 20
7201.53135511063
 30
0.0
 40
120.0
 41
0.0
 71
     5
 72
     1
  1
\A1;48
  7
STYLE1
 73
     1
 44
1.0
1001
ACAD
1000
MTEXTBEGIN
1070
    73
1070
     1
1070
    44
1040
1.0
1070
    74
1070
     0
1000
MTEXTEND
  0
LINE
  5
19D31
330
165B5
100
AcDbEntity
  8
寸法
 62
     0
 48
50.0
370
    -2
100
AcDbLine
 10
3002.673057123657
 20
7101.53135511063
 30
0.0
 11
2954.673057123654
 21
7101.53135511063
 31
0.0
  0
INSERT
  5
19D32
330
165B5
100
AcDbEntity
  8
寸法
 62
     0
 48
50.0
370
    -2
100
AcDbBlockReference
  2
_DOTSMALL
 10
3002.673057123657
 20
7101.53135511063
 30
0.0
 41
100.0
 42
100.0
 43
100.0
 50
180.0
  0
INSERT
  5
19D33
330
165B5
100
AcDbEntity
  8
寸法
 62
     0
 48
50.0
370
    -2
100
AcDbBlockReference
  2
_DOTSMALL
 10
2954.673057123654
 20
7101.53135511063
 30
0.0
 41
100.0
 42
100.0
 43
100.0
  0
POINT
  5
19D34
330
165B5
100
AcDbEntity
  8
DEFPOINTS
 62
     0
 48
50.0
100
AcDbPoint
 10
3002.673057123657
 20
7661.962125876794
 30
0.0
  0
POINT
  5
19D35
330
165B5
100
AcDbEntity
  8
DEFPOINTS
 62
     0
 48
50.0
100
AcDbPoint
 10
2954.673057123654
 20
7635.962125876794
 30
0.0
  0
POINT
  5
19D36
330
165B5
100
AcDbEntity
  8
DEFPOINTS
 62
     0
 48
50.0
100
AcDbPoint
 10
2954.673057123654
 20
7101.53135511063
 30
0.0
  0
ENDBLK
  5
165C3
330
165B5
100
AcDbEntity
  8
0
 48
50.0
100
AcDbBlockEnd
  0
BLOCK
  5
165C5
330
165C4
100
AcDbEntity
  8
0
 48
50.0
100
AcDbBlockBegin
  2
*D15
 70
     1
 10
0.0
 20
0.0
 30
0.0
  3
*D15
  1

  0
LINE
  5
188E9
330
165C4
100
AcDbEntity
  8
寸法
 62
     0
 48
50.0
370
    -2
100
AcDbLine
 10
6424.67305712364
 20
7615.962125876882
 30
0.0
 11
6424.67305712364
 21
7041.531355110631
 31
0.0
  0
LINE
  5
188EA
330
165C4
100
AcDbEntity
  8
寸法
 62
     0
 48
50.0
370
    -2
100
AcDbLine
 10
6376.673057123639
 20
7641.962125876794
 30
0.0
 11
6376.673057123639
 21
7041.531355110631
 31
0.0
  0
LINE
  5
188EB
330
165C4
100
AcDbEntity
  8
寸法
 62
     0
 48
50.0
370
    -2
100
AcDbLine
 10
6424.67305712364
 20
7101.53135511063
 30
0.0
 11
6524.673057123639
 21
7101.53135511063
 31
0.0
  0
LINE
  5
188EC
330
165C4
100
AcDbEntity
  8
寸法
 62
     0
 48
50.0
370
    -2
100
AcDbLine
 10
6376.673057123639
 20
7101.53135511063
 30
0.0
 11
6276.673057123638
 21
7101.53135511063
 31
0.0
  0
MTEXT
  5
188ED
330
165C4
100
AcDbEntity
  8
寸法
 62
     7
 48
50.0
100
AcDbMText
 10
6265.710159474891
 20
7201.53135511063
 30
0.0
 40
120.0
 41
0.0
 71
     5
 72
     1
  1
\A1;48
  7
STYLE1
 73
     1
 44
1.0
1001
ACAD
1000
MTEXTBEGIN
1070
    73
1070
     1
1070
    44
1040
1.0
1070
    74
1070
     0
1000
MTEXTEND
  0
LINE
  5
188EE
330
165C4
100
AcDbEntity
  8
寸法
 62
     0
 48
50.0
370
    -2
100
AcDbLine
 10
6424.67305712364
 20
7101.53135511063
 30
0.0
 11
6376.673057123639
 21
7101.53135511063
 31
0.0
  0
INSERT
  5
188EF
330
165C4
100
AcDbEntity
  8
寸法
 62
     0
 48
50.0
370
    -2
100
AcDbBlockReference
  2
_DOTSMALL
 10
6424.67305712364
 20
7101.53135511063
 30
0.0
 41
100.0
 42
100.0
 43
100.0
 50
180.0
  0
INSERT
  5
188F0
330
165C4
100
AcDbEntity
  8
寸法
 62
     0
 48
50.0
370
    -2
100
AcDbBlockReference
  2
_DOTSMALL
 10
6376.673057123639
 20
7101.53135511063
 30
0.0
 41
100.0
 42
100.0
 43
100.0
  0
POINT
  5
188F1
330
165C4
100
AcDbEntity
  8
DEFPOINTS
 62
     0
 48
50.0
100
AcDbPoint
 10
6424.67305712364
 20
7635.962125876883
 30
0.0
  0
POINT
  5
188F2
330
165C4
100
AcDbEntity
  8
DEFPOINTS
 62
     0
 48
50.0
100
AcDbPoint
 10
6376.673057123639
 20
7661.962125876795
 30
0.0
  0
POINT
  5
188F3
330
165C4
100
AcDbEntity
  8
DEFPOINTS
 62
     0
 48
50.0
100
AcDbPoint
 10
6376.673057123639
 20
7101.53135511063
 30
0.0
  0
ENDBLK
  5
165D2
330
165C4
100
AcDbEntity
  8
0
 48
50.0
100
AcDbBlockEnd
  0
BLOCK
  5
1663F
330
165EA
100
AcDbEntity
  8
0
 48
50.0
100
AcDbBlockBegin
  2
*D16
 70
     1
 10
0.0
 20
0.0
 30
0.0
  3
*D16
  1

  0
LINE
  5
188D5
330
165EA
100
AcDbEntity
  8
寸法
 62
     0
 48
50.0
370
    -2
100
AcDbLine
 10
6534.673057123653
 20
7615.962125876794
 30
0.0
 11
6534.673057123653
 21
7041.531355110631
 31
0.0
  0
LINE
  5
188D6
330
165EA
100
AcDbEntity
  8
寸法
 62
     0
 48
50.0
370
    -2
100
AcDbLine
 10
6424.67305712364
 20
7615.962125876882
 30
0.0
 11
6424.67305712364
 21
7041.531355110631
 31
0.0
  0
LINE
  5
188D7
330
165EA
100
AcDbEntity
  8
寸法
 62
     0
 48
50.0
370
    -2
100
AcDbLine
 10
6534.673057123653
 20
7101.531355110632
 30
0.0
 11
6424.67305712364
 21
7101.531355110632
 31
0.0
  0
MTEXT
  5
188D8
330
165EA
100
AcDbEntity
  8
寸法
 62
     7
 48
50.0
100
AcDbMText
 10
6479.673057123647
 20
6949.839460074399
 30
0.0
 40
120.0
 41
0.0
 71
     5
 72
     1
  1
\A1;110
  7
STYLE1
 73
     1
 44
1.0
1001
ACAD
1000
MTEXTBEGIN
1070
    73
1070
     1
1070
    44
1040
1.0
1070
    74
1070
     0
1000
MTEXTEND
  0
INSERT
  5
188D9
330
165EA
100
AcDbEntity
  8
寸法
 62
     0
 48
50.0
370
    -2
100
AcDbBlockReference
  2
_DOTSMALL
 10
6534.673057123653
 20
7101.531355110632
 30
0.0
 41
100.0
 42
100.0
 43
100.0
  0
INSERT
  5
188DA
330
165EA
100
AcDbEntity
  8
寸法
 62
     0
 48
50.0
370
    -2
100
AcDbBlockReference
  2
_DOTSMALL
 10
6424.67305712364
 20
7101.531355110632
 30
0.0
 41
100.0
 42
100.0
 43
100.0
 50
180.0
  0
POINT
  5
188DB
330
165EA
100
AcDbEntity
  8
DEFPOINTS
 62
     0
 48
50.0
100
AcDbPoint
 10
6534.673057123653
 20
7635.962125876794
 30
0.0
  0
POINT
  5
188DC
330
165EA
100
AcDbEntity
  8
DEFPOINTS
 62
     0
 48
50.0
100
AcDbPoint
 10
6424.67305712364
 20
7635.962125876883
 30
0.0
  0
POINT
  5
188DD
330
165EA
100
AcDbEntity
  8
DEFPOINTS
 62
     0
 48
50.0
100
AcDbPoint
 10
6424.67305712364
 20
7101.531355110632
 30
0.0
  0
ENDBLK
  5
16649
330
165EA
100
AcDbEntity
  8
0
 48
50.0
100
AcDbBlockEnd
  0
BLOCK
  5
166D0
330
166CF
100
AcDbEntity
  8
0
 48
50.0
100
AcDbBlockBegin
  2
*D17
 70
     1
 10
0.0
 20
0.0
 30
0.0
  3
*D17
  1

  0
LINE
  5
188CA
330
166CF
100
AcDbEntity
  8
寸法
 62
     0
 48
50.0
370
    -2
100
AcDbLine
 10
6534.673057123663
 20
10285.96212587685
 30
0.0
 11
6534.673057123663
 21
10541.77034550189
 31
0.0
  0
LINE
  5
188CB
330
166CF
100
AcDbEntity
  8
寸法
 62
     0
 48
50.0
370
    -2
100
AcDbLine
 10
6424.673057123664
 20
10285.96212587684
 30
0.0
 11
6424.673057123664
 21
10541.77034550189
 31
0.0
  0
LINE
  5
188CC
330
166CF
100
AcDbEntity
  8
寸法
 62
     0
 48
50.0
370
    -2
100
AcDbLine
 10
6534.673057123663
 20
10481.77034550189
 30
0.0
 11
6634.673057123663
 21
10481.77034550189
 31
0.0
  0
LINE
  5
188CD
330
166CF
100
AcDbEntity
  8
寸法
 62
     0
 48
50.0
370
    -2
100
AcDbLine
 10
6424.673057123664
 20
10481.77034550189
 30
0.0
 11
6324.673057123664
 21
10481.77034550189
 31
0.0
  0
LINE
  5
188CE
330
166CF
100
AcDbEntity
  8
寸法
 62
     0
 48
50.0
370
    -2
100
AcDbLine
 10
6534.673057123663
 20
10481.77034550189
 30
0.0
 11
6424.673057123664
 21
10481.77034550189
 31
0.0
  0
INSERT
  5
188CF
330
166CF
100
AcDbEntity
  8
寸法
 62
     0
 48
50.0
370
    -2
100
AcDbBlockReference
  2
_DOTSMALL
 10
6534.673057123663
 20
10481.77034550189
 30
0.0
 41
100.0
 42
100.0
 43
100.0
 50
180.0
  0
INSERT
  5
188D0
330
166CF
100
AcDbEntity
  8
寸法
 62
     0
 48
50.0
370
    -2
100
AcDbBlockReference
  2
_DOTSMALL
 10
6424.673057123664
 20
10481.77034550189
 30
0.0
 41
100.0
 42
100.0
 43
100.0
  0
MTEXT
  5
188D1
330
166CF
100
AcDbEntity
  8
寸法
 62
     7
 48
50.0
100
AcDbMText
 10
6479.673057123664
 20
10581.77034550189
 30
0.0
 40
120.0
 41
0.0
 71
     5
 72
     1
  1
\A1;110
  7
STYLE1
 73
     1
 44
1.0
1001
ACAD
1000
MTEXTBEGIN
1070
    73
1070
     1
1070
    44
1040
1.0
1070
    74
1070
     0
1000
MTEXTEND
  0
POINT
  5
188D2
330
166CF
100
AcDbEntity
  8
DEFPOINTS
 62
     0
 48
50.0
100
AcDbPoint
 10
6534.673057123663
 20
10265.96212587685
 30
0.0
  0
POINT
  5
188D3
330
166CF
100
AcDbEntity
  8
DEFPOINTS
 62
     0
 48
50.0
100
AcDbPoint
 10
6424.673057123664
 20
10265.96212587684
 30
0.0
  0
POINT
  5
188D4
330
166CF
100
AcDbEntity
  8
DEFPOINTS
 62
     0
 48
50.0
100
AcDbPoint
 10
6424.673057123664
 20
10481.77034550189
 30
0.0
  0
ENDBLK
  5
166DC
330
166CF
100
AcDbEntity
  8
0
 48
50.0
100
AcDbBlockEnd
  0
BLOCK
  5
1726C
330
16908
100
AcDbEntity
  8
0
 48
50.0
100
AcDbBlockBegin
  2
*D18
 70
     1
 10
0.0
 20
0.0
 30
0.0
  3
*D18
  1

  0
LINE
  5
188C2
330
16908
100
AcDbEntity
  8
寸法
 62
     0
 48
50.0
370
    -2
100
AcDbLine
 10
8269.673057123664
 20
10285.96212587689
 30
0.0
 11
8269.673057123664
 21
10791.09181905819
 31
0.0
  0
LINE
  5
188C3
330
16908
100
AcDbEntity
  8
寸法
 62
     0
 48
50.0
370
    -2
100
AcDbLine
 10
6479.673057123664
 20
10731.09181905819
 30
0.0
 11
8269.673057123664
 21
10731.09181905819
 31
0.0
  0
INSERT
  5
188C4
330
16908
100
AcDbEntity
  8
寸法
 62
     0
 48
50.0
370
    -2
100
AcDbBlockReference
  2
_DOTSMALL
 10
6479.673057123664
 20
10731.09181905819
 30
0.0
 41
100.0
 42
100.0
 43
100.0
 50
180.0
  0
INSERT
  5
188C5
330
16908
100
AcDbEntity
  8
寸法
 62
     0
 48
50.0
370
    -2
100
AcDbBlockReference
  2
_DOTSMALL
 10
8269.673057123664
 20
10731.09181905819
 30
0.0
 41
100.0
 42
100.0
 43
100.0
  0
MTEXT
  5
188C6
330
16908
100
AcDbEntity
  8
寸法
 62
     7
 48
50.0
100
AcDbMText
 10
7374.673057123664
 20
10831.09181905819
 30
0.0
 40
120.0
 41
0.0
 71
     5
 72
     1
  1
\A1;1790
  7
STYLE1
 73
     1
 44
1.0
1001
ACAD
1000
MTEXTBEGIN
1070
    73
1070
     1
1070
    44
1040
1.0
1070
    74
1070
     0
1000
MTEXTEND
  0
POINT
  5
188C7
330
16908
100
AcDbEntity
  8
DEFPOINTS
 62
     0
 48
50.0
100
AcDbPoint
 10
6479.673057123664
 20
10640.75825985984
 30
0.0
  0
POINT
  5
188C8
330
16908
100
AcDbEntity
  8
DEFPOINTS
 62
     0
 48
50.0
100
AcDbPoint
 10
8269.673057123664
 20
10265.96212587689
 30
0.0
  0
POINT
  5
188C9
330
16908
100
AcDbEntity
  8
DEFPOINTS
 62
     0
 48
50.0
100
AcDbPoint
 10
8269.673057123664
 20
10731.09181905819
 30
0.0
  0
ENDBLK
  5
17275
330
16908
100
AcDbEntity
  8
0
 48
50.0
100
AcDbBlockEnd
  0
BLOCK
  5
17BD1
330
17BC5
100
AcDbEntity
  8
0
 48
50.0
100
AcDbBlockBegin
  2
*D19
 70
     1
 10
0.0
 20
0.0
 30
0.0
  3
*D19
  1

  0
LINE
  5
19CFC
330
17BC5
100
AcDbEntity
  8
寸法
 62
     0
 48
50.0
370
    -2
100
AcDbLine
 10
4634.673057123641
 20
7615.962125876882
 30
0.0
 11
4634.673057123641
 21
7041.531355110631
 31
0.0
  0
LINE
  5
19CFD
330
17BC5
100
AcDbEntity
  8
寸法
 62
     0
 48
50.0
370
    -2
100
AcDbLine
 10
4586.673057123639
 20
7641.962125876794
 30
0.0
 11
4586.673057123639
 21
7041.531355110631
 31
0.0
  0
LINE
  5
19CFE
330
17BC5
100
AcDbEntity
  8
寸法
 62
     0
 48
50.0
370
    -2
100
AcDbLine
 10
4634.673057123641
 20
7101.53135511063
 30
0.0
 11
4734.67305712364
 21
7101.53135511063
 31
0.0
  0
LINE
  5
19CFF
330
17BC5
100
AcDbEntity
  8
寸法
 62
     0
 48
50.0
370
    -2
100
AcDbLine
 10
4586.673057123639
 20
7101.53135511063
 30
0.0
 11
4486.673057123638
 21
7101.53135511063
 31
0.0
  0
MTEXT
  5
19D00
330
17BC5
100
AcDbEntity
  8
寸法
 62
     7
 48
50.0
100
AcDbMText
 10
4475.710159474891
 20
7201.53135511063
 30
0.0
 40
120.0
 41
0.0
 71
     5
 72
     1
  1
\A1;48
  7
STYLE1
 73
     1
 44
1.0
1001
ACAD
1000
MTEXTBEGIN
1070
    73
1070
     1
1070
    44
1040
1.0
1070
    74
1070
     0
1000
MTEXTEND
  0
LINE
  5
19D01
330
17BC5
100
AcDbEntity
  8
寸法
 62
     0
 48
50.0
370
    -2
100
AcDbLine
 10
4634.673057123641
 20
7101.53135511063
 30
0.0
 11
4586.673057123639
 21
7101.53135511063
 31
0.0
  0
INSERT
  5
19D02
330
17BC5
100
AcDbEntity
  8
寸法
 62
     0
 48
50.0
370
    -2
100
AcDbBlockReference
  2
_DOTSMALL
 10
4634.673057123641
 20
7101.53135511063
 30
0.0
 41
100.0
 42
100.0
 43
100.0
 50
180.0
  0
INSERT
  5
19D03
330
17BC5
100
AcDbEntity
  8
寸法
 62
     0
 48
50.0
370
    -2
100
AcDbBlockReference
  2
_DOTSMALL
 10
4586.673057123639
 20
7101.53135511063
 30
0.0
 41
100.0
 42
100.0
 43
100.0
  0
POINT
  5
19D04
330
17BC5
100
AcDbEntity
  8
DEFPOINTS
 62
     0
 48
50.0
100
AcDbPoint
 10
4634.673057123641
 20
7635.962125876883
 30
0.0
  0
POINT
  5
19D05
330
17BC5
100
AcDbEntity
  8
DEFPOINTS
 62
     0
 48
50.0
100
AcDbPoint
 10
4586.673057123639
 20
7661.962125876795
 30
0.0
  0
POINT
  5
19D06
330
17BC5
100
AcDbEntity
  8
DEFPOINTS
 62
     0
 48
50.0
100
AcDbPoint
 10
4586.673057123639
 20
7101.53135511063
 30
0.0
  0
ENDBLK
  5
17BD2
330
17BC5
100
AcDbEntity
  8
0
 48
50.0
100
AcDbBlockEnd
  0
BLOCK
  5
17BDC
330
17BD3
100
AcDbEntity
  8
0
 48
50.0
100
AcDbBlockBegin
  2
*D20
 70
     1
 10
0.0
 20
0.0
 30
0.0
  3
*D20
  1

  0
LINE
  5
19D07
330
17BD3
100
AcDbEntity
  8
寸法
 62
     0
 48
50.0
370
    -2
100
AcDbLine
 10
3002.673057123657
 20
7641.962125876794
 30
0.0
 11
3002.673057123657
 21
7041.531355110631
 31
0.0
  0
LINE
  5
19D08
330
17BD3
100
AcDbEntity
  8
寸法
 62
     0
 48
50.0
370
    -2
100
AcDbLine
 10
4586.673057123639
 20
7101.53135511063
 30
0.0
 11
3002.673057123657
 21
7101.53135511063
 31
0.0
  0
INSERT
  5
19D09
330
17BD3
100
AcDbEntity
  8
寸法
 62
     0
 48
50.0
370
    -2
100
AcDbBlockReference
  2
_DOTSMALL
 10
4586.673057123639
 20
7101.53135511063
 30
0.0
 41
100.0
 42
100.0
 43
100.0
  0
INSERT
  5
19D0A
330
17BD3
100
AcDbEntity
  8
寸法
 62
     0
 48
50.0
370
    -2
100
AcDbBlockReference
  2
_DOTSMALL
 10
3002.673057123657
 20
7101.53135511063
 30
0.0
 41
100.0
 42
100.0
 43
100.0
 50
180.0
  0
MTEXT
  5
19D0B
330
17BD3
100
AcDbEntity
  8
寸法
 62
     7
 48
50.0
100
AcDbMText
 10
3794.673057123648
 20
7301.53135511063
 30
0.0
 40
120.0
 41
0.0
 71
     5
 72
     1
  1
\A1;有効開口部間口\P 1584
  7
STYLE1
 73
     1
 44
1.0
1001
ACAD
1000
MTEXTBEGIN
1070
    73
1070
     1
1070
    44
1040
1.0
1070
    74
1070
     0
1000
MTEXTEND
  0
POINT
  5
19D0C
330
17BD3
100
AcDbEntity
  8
DEFPOINTS
 62
     0
 48
50.0
100
AcDbPoint
 10
4586.673057123639
 20
7661.962125876795
 30
0.0
  0
POINT
  5
19D0D
330
17BD3
100
AcDbEntity
  8
DEFPOINTS
 62
     0
 48
50.0
100
AcDbPoint
 10
3002.673057123657
 20
7661.962125876794
 30
0.0
  0
POINT
  5
19D0E
330
17BD3
100
AcDbEntity
  8
DEFPOINTS
 62
     0
 48
50.0
100
AcDbPoint
 10
3002.673057123657
 20
7101.53135511063
 30
0.0
  0
ENDBLK
  5
17BDD
330
17BD3
100
AcDbEntity
  8
0
 48
50.0
100
AcDbBlockEnd
  0
BLOCK
  5
17BE8
330
17BDE
100
AcDbEntity
  8
0
 48
50.0
100
AcDbBlockBegin
  2
*D21
 70
     1
 10
0.0
 20
0.0
 30
0.0
  3
*D21
  1

  0
LINE
  5
19D1A
330
17BDE
100
AcDbEntity
  8
寸法
 62
     0
 48
50.0
370
    -2
100
AcDbLine
 10
2954.673057123664
 20
10285.9621258768
 30
0.0
 11
2954.673057123664
 21
10541.77034550189
 31
0.0
  0
LINE
  5
19D1B
330
17BDE
100
AcDbEntity
  8
寸法
 62
     0
 48
50.0
370
    -2
100
AcDbLine
 10
4634.673057123664
 20
10285.96212587689
 30
0.0
 11
4634.673057123664
 21
10541.77034550189
 31
0.0
  0
LINE
  5
19D1C
330
17BDE
100
AcDbEntity
  8
寸法
 62
     0
 48
50.0
370
    -2
100
AcDbLine
 10
2954.673057123664
 20
10481.77034550189
 30
0.0
 11
4634.673057123664
 21
10481.77034550189
 31
0.0
  0
INSERT
  5
19D1D
330
17BDE
100
AcDbEntity
  8
寸法
 62
     0
 48
50.0
370
    -2
100
AcDbBlockReference
  2
_DOTSMALL
 10
2954.673057123664
 20
10481.77034550189
 30
0.0
 41
100.0
 42
100.0
 43
100.0
 50
180.0
  0
INSERT
  5
19D1E
330
17BDE
100
AcDbEntity
  8
寸法
 62
     0
 48
50.0
370
    -2
100
AcDbBlockReference
  2
_DOTSMALL
 10
4634.673057123664
 20
10481.77034550189
 30
0.0
 41
100.0
 42
100.0
 43
100.0
  0
MTEXT
  5
19D1F
330
17BDE
100
AcDbEntity
  8
寸法
 62
     7
 48
50.0
100
AcDbMText
 10
3794.673057123664
 20
10581.78215652552
 30
0.0
 40
120.0
 41
0.0
 71
     5
 72
     1
  1
\A1;4X420=1680
  7
STYLE1
 73
     1
 44
1.0
1001
ACAD
1000
MTEXTBEGIN
1070
    73
1070
     1
1070
    44
1040
1.0
1070
    74
1070
     0
1000
MTEXTEND
  0
POINT
  5
19D20
330
17BDE
100
AcDbEntity
  8
DEFPOINTS
 62
     0
 48
50.0
100
AcDbPoint
 10
2954.673057123664
 20
10265.9621258768
 30
0.0
  0
POINT
  5
19D21
330
17BDE
100
AcDbEntity
  8
DEFPOINTS
 62
     0
 48
50.0
100
AcDbPoint
 10
4634.673057123664
 20
10265.96212587689
 30
0.0
  0
POINT
  5
19D22
330
17BDE
100
AcDbEntity
  8
DEFPOINTS
 62
     0
 48
50.0
100
AcDbPoint
 10
4634.673057123664
 20
10481.77034550189
 30
0.0
  0
ENDBLK
  5
17BE9
330
17BDE
100
AcDbEntity
  8
0
 48
50.0
100
AcDbBlockEnd
  0
BLOCK
  5
17BF6
330
17BEA
100
AcDbEntity
  8
0
 48
50.0
100
AcDbBlockBegin
  2
*D22
 70
     1
 10
0.0
 20
0.0
 30
0.0
  3
*D22
  1

  0
LINE
  5
19D0F
330
17BEA
100
AcDbEntity
  8
寸法
 62
     0
 48
50.0
370
    -2
100
AcDbLine
 10
4744.673057123664
 20
10285.96212587685
 30
0.0
 11
4744.673057123664
 21
10541.77034550189
 31
0.0
  0
LINE
  5
19D10
330
17BEA
100
AcDbEntity
  8
寸法
 62
     0
 48
50.0
370
    -2
100
AcDbLine
 10
4634.673057123664
 20
10285.96212587684
 30
0.0
 11
4634.673057123664
 21
10541.77034550189
 31
0.0
  0
LINE
  5
19D11
330
17BEA
100
AcDbEntity
  8
寸法
 62
     0
 48
50.0
370
    -2
100
AcDbLine
 10
4744.673057123664
 20
10481.77034550189
 30
0.0
 11
4844.673057123664
 21
10481.77034550189
 31
0.0
  0
LINE
  5
19D12
330
17BEA
100
AcDbEntity
  8
寸法
 62
     0
 48
50.0
370
    -2
100
AcDbLine
 10
4634.673057123664
 20
10481.77034550189
 30
0.0
 11
4534.673057123664
 21
10481.77034550189
 31
0.0
  0
LINE
  5
19D13
330
17BEA
100
AcDbEntity
  8
寸法
 62
     0
 48
50.0
370
    -2
100
AcDbLine
 10
4744.673057123664
 20
10481.77034550189
 30
0.0
 11
4634.673057123664
 21
10481.77034550189
 31
0.0
  0
INSERT
  5
19D14
330
17BEA
100
AcDbEntity
  8
寸法
 62
     0
 48
50.0
370
    -2
100
AcDbBlockReference
  2
_DOTSMALL
 10
4744.673057123664
 20
10481.77034550189
 30
0.0
 41
100.0
 42
100.0
 43
100.0
 50
180.0
  0
INSERT
  5
19D15
330
17BEA
100
AcDbEntity
  8
寸法
 62
     0
 48
50.0
370
    -2
100
AcDbBlockReference
  2
_DOTSMALL
 10
4634.673057123664
 20
10481.77034550189
 30
0.0
 41
100.0
 42
100.0
 43
100.0
  0
MTEXT
  5
19D16
330
17BEA
100
AcDbEntity
  8
寸法
 62
     7
 48
50.0
100
AcDbMText
 10
4689.673057123664
 20
10581.77034550189
 30
0.0
 40
120.0
 41
0.0
 71
     5
 72
     1
  1
\A1;110
  7
STYLE1
 73
     1
 44
1.0
1001
ACAD
1000
MTEXTBEGIN
1070
    73
1070
     1
1070
    44
1040
1.0
1070
    74
1070
     0
1000
MTEXTEND
  0
POINT
  5
19D17
330
17BEA
100
AcDbEntity
  8
DEFPOINTS
 62
     0
 48
50.0
100
AcDbPoint
 10
4744.673057123664
 20
10265.96212587685
 30
0.0
  0
POINT
  5
19D18
330
17BEA
100
AcDbEntity
  8
DEFPOINTS
 62
     0
 48
50.0
100
AcDbPoint
 10
4634.673057123664
 20
10265.96212587684
 30
0.0
  0
POINT
  5
19D19
330
17BEA
100
AcDbEntity
  8
DEFPOINTS
 62
     0
 48
50.0
100
AcDbPoint
 10
4634.673057123664
 20
10481.77034550189
 30
0.0
  0
ENDBLK
  5
17BF7
330
17BEA
100
AcDbEntity
  8
0
 48
50.0
100
AcDbBlockEnd
  0
BLOCK
  5
17C02
330
17BF8
100
AcDbEntity
  8
0
 48
50.0
100
AcDbBlockBegin
  2
*D23
 70
     1
 10
0.0
 20
0.0
 30
0.0
  3
*D23
  1

  0
LINE
  5
19D23
330
17BF8
100
AcDbEntity
  8
寸法
 62
     0
 48
50.0
370
    -2
100
AcDbLine
 10
2899.673057123629
 20
10285.96212587676
 30
0.0
 11
2899.673057123629
 21
10791.09181905819
 31
0.0
  0
LINE
  5
19D24
330
17BF8
100
AcDbEntity
  8
寸法
 62
     0
 48
50.0
370
    -2
100
AcDbLine
 10
4689.673057123664
 20
10660.75825985984
 30
0.0
 11
4689.673057123664
 21
10791.09181905819
 31
0.0
  0
LINE
  5
19D25
330
17BF8
100
AcDbEntity
  8
寸法
 62
     0
 48
50.0
370
    -2
100
AcDbLine
 10
2899.673057123629
 20
10731.09181905819
 30
0.0
 11
4689.673057123664
 21
10731.09181905819
 31
0.0
  0
INSERT
  5
19D26
330
17BF8
100
AcDbEntity
  8
寸法
 62
     0
 48
50.0
370
    -2
100
AcDbBlockReference
  2
_DOTSMALL
 10
2899.673057123629
 20
10731.09181905819
 30
0.0
 41
100.0
 42
100.0
 43
100.0
 50
180.0
  0
INSERT
  5
19D27
330
17BF8
100
AcDbEntity
  8
寸法
 62
     0
 48
50.0
370
    -2
100
AcDbBlockReference
  2
_DOTSMALL
 10
4689.673057123664
 20
10731.09181905819
 30
0.0
 41
100.0
 42
100.0
 43
100.0
  0
MTEXT
  5
19D28
330
17BF8
100
AcDbEntity
  8
寸法
 62
     7
 48
50.0
100
AcDbMText
 10
3794.673057123647
 20
10831.09181905819
 30
0.0
 40
120.0
 41
0.0
 71
     5
 72
     1
  1
\A1;1790
  7
STYLE1
 73
     1
 44
1.0
1001
ACAD
1000
MTEXTBEGIN
1070
    73
1070
     1
1070
    44
1040
1.0
1070
    74
1070
     0
1000
MTEXTEND
  0
POINT
  5
19D29
330
17BF8
100
AcDbEntity
  8
DEFPOINTS
 62
     0
 48
50.0
100
AcDbPoint
 10
2899.673057123629
 20
10265.96212587676
 30
0.0
  0
POINT
  5
19D2A
330
17BF8
100
AcDbEntity
  8
DEFPOINTS
 62
     0
 48
50.0
100
AcDbPoint
 10
4689.673057123664
 20
10640.75825985984
 30
0.0
  0
POINT
  5
19D2B
330
17BF8
100
AcDbEntity
  8
DEFPOINTS
 62
     0
 48
50.0
100
AcDbPoint
 10
4689.673057123664
 20
10731.09181905819
 30
0.0
  0
ENDBLK
  5
17C03
330
17BF8
100
AcDbEntity
  8
0
 48
50.0
100
AcDbBlockEnd
  0
BLOCK
  5
17C54
330
17C48
100
AcDbEntity
  8
0
 48
50.0
100
AcDbBlockBegin
  2
*D24
 70
     1
 10
0.0
 20
0.0
 30
0.0
  3
*D24
  1

  0
LINE
  5
19CE8
330
17C48
100
AcDbEntity
  8
寸法
 62
     0
 48
50.0
370
    -2
100
AcDbLine
 10
4792.673057123656
 20
7641.962125876794
 30
0.0
 11
4792.673057123656
 21
7041.531355110631
 31
0.0
  0
LINE
  5
19CE9
330
17C48
100
AcDbEntity
  8
寸法
 62
     0
 48
50.0
370
    -2
100
AcDbLine
 10
4744.673057123653
 20
7615.962125876794
 30
0.0
 11
4744.673057123653
 21
7041.531355110631
 31
0.0
  0
LINE
  5
19CEA
330
17C48
100
AcDbEntity
  8
寸法
 62
     0
 48
50.0
370
    -2
100
AcDbLine
 10
4792.673057123656
 20
7101.53135511063
 30
0.0
 11
4892.673057123657
 21
7101.53135511063
 31
0.0
  0
LINE
  5
19CEB
330
17C48
100
AcDbEntity
  8
寸法
 62
     0
 48
50.0
370
    -2
100
AcDbLine
 10
4744.673057123653
 20
7101.53135511063
 30
0.0
 11
4644.673057123653
 21
7101.53135511063
 31
0.0
  0
MTEXT
  5
19CEC
330
17C48
100
AcDbEntity
  8
寸法
 62
     7
 48
50.0
100
AcDbMText
 10
4905.575028123714
 20
7201.53135511063
 30
0.0
 40
120.0
 41
0.0
 71
     5
 72
     1
  1
\A1;48
  7
STYLE1
 73
     1
 44
1.0
1001
ACAD
1000
MTEXTBEGIN
1070
    73
1070
     1
1070
    44
1040
1.0
1070
    74
1070
     0
1000
MTEXTEND
  0
LINE
  5
19CED
330
17C48
100
AcDbEntity
  8
寸法
 62
     0
 48
50.0
370
    -2
100
AcDbLine
 10
4792.673057123656
 20
7101.53135511063
 30
0.0
 11
4744.673057123653
 21
7101.53135511063
 31
0.0
  0
INSERT
  5
19CEE
330
17C48
100
AcDbEntity
  8
寸法
 62
     0
 48
50.0
370
    -2
100
AcDbBlockReference
  2
_DOTSMALL
 10
4792.673057123656
 20
7101.53135511063
 30
0.0
 41
100.0
 42
100.0
 43
100.0
 50
180.0
  0
INSERT
  5
19CEF
330
17C48
100
AcDbEntity
  8
寸法
 62
     0
 48
50.0
370
    -2
100
AcDbBlockReference
  2
_DOTSMALL
 10
4744.673057123653
 20
7101.53135511063
 30
0.0
 41
100.0
 42
100.0
 43
100.0
  0
POINT
  5
19CF0
330
17C48
100
AcDbEntity
  8
DEFPOINTS
 62
     0
 48
50.0
100
AcDbPoint
 10
4792.673057123656
 20
7661.962125876794
 30
0.0
  0
POINT
  5
19CF1
330
17C48
100
AcDbEntity
  8
DEFPOINTS
 62
     0
 48
50.0
100
AcDbPoint
 10
4744.673057123653
 20
7635.962125876794
 30
0.0
  0
POINT
  5
19CF2
330
17C48
100
AcDbEntity
  8
DEFPOINTS
 62
     0
 48
50.0
100
AcDbPoint
 10
4744.673057123653
 20
7101.53135511063
 30
0.0
  0
ENDBLK
  5
17C55
330
17C48
100
AcDbEntity
  8
0
 48
50.0
100
AcDbBlockEnd
  0
BLOCK
  5
17C60
330
17C56
100
AcDbEntity
  8
0
 48
50.0
100
AcDbBlockBegin
  2
*D25
 70
     1
 10
0.0
 20
0.0
 30
0.0
  3
*D25
  1

  0
LINE
  5
19CF3
330
17C56
100
AcDbEntity
  8
寸法
 62
     0
 48
50.0
370
    -2
100
AcDbLine
 10
4744.673057123653
 20
7615.962125876794
 30
0.0
 11
4744.673057123653
 21
7041.531355110631
 31
0.0
  0
LINE
  5
19CF4
330
17C56
100
AcDbEntity
  8
寸法
 62
     0
 48
50.0
370
    -2
100
AcDbLine
 10
4634.673057123641
 20
7615.962125876882
 30
0.0
 11
4634.673057123641
 21
7041.531355110631
 31
0.0
  0
LINE
  5
19CF5
330
17C56
100
AcDbEntity
  8
寸法
 62
     0
 48
50.0
370
    -2
100
AcDbLine
 10
4744.673057123653
 20
7101.531355110632
 30
0.0
 11
4634.673057123641
 21
7101.531355110632
 31
0.0
  0
MTEXT
  5
19CF6
330
17C56
100
AcDbEntity
  8
寸法
 62
     7
 48
50.0
100
AcDbMText
 10
4689.673057123648
 20
6949.839460074399
 30
0.0
 40
120.0
 41
0.0
 71
     5
 72
     1
  1
\A1;110
  7
STYLE1
 73
     1
 44
1.0
1001
ACAD
1000
MTEXTBEGIN
1070
    73
1070
     1
1070
    44
1040
1.0
1070
    74
1070
     0
1000
MTEXTEND
  0
INSERT
  5
19CF7
330
17C56
100
AcDbEntity
  8
寸法
 62
     0
 48
50.0
370
    -2
100
AcDbBlockReference
  2
_DOTSMALL
 10
4744.673057123653
 20
7101.531355110632
 30
0.0
 41
100.0
 42
100.0
 43
100.0
  0
INSERT
  5
19CF8
330
17C56
100
AcDbEntity
  8
寸法
 62
     0
 48
50.0
370
    -2
100
AcDbBlockReference
  2
_DOTSMALL
 10
4634.673057123641
 20
7101.531355110632
 30
0.0
 41
100.0
 42
100.0
 43
100.0
 50
180.0
  0
POINT
  5
19CF9
330
17C56
100
AcDbEntity
  8
DEFPOINTS
 62
     0
 48
50.0
100
AcDbPoint
 10
4744.673057123653
 20
7635.962125876794
 30
0.0
  0
POINT
  5
19CFA
330
17C56
100
AcDbEntity
  8
DEFPOINTS
 62
     0
 48
50.0
100
AcDbPoint
 10
4634.673057123641
 20
7635.962125876883
 30
0.0
  0
POINT
  5
19CFB
330
17C56
100
AcDbEntity
  8
DEFPOINTS
 62
     0
 48
50.0
100
AcDbPoint
 10
4634.673057123641
 20
7101.531355110632
 30
0.0
  0
ENDBLK
  5
17C61
330
17C56
100
AcDbEntity
  8
0
 48
50.0
100
AcDbBlockEnd
  0
BLOCK
  5
19070
330
19066
100
AcDbEntity
  8
0
 48
50.0
100
AcDbBlockBegin
  2
*D26
 70
     1
 10
0.0
 20
0.0
 30
0.0
  3
*D26
  1

  0
LINE
  5
19849
330
19066
100
AcDbEntity
  8
寸法
 62
     0
 48
50.0
370
    -2
100
AcDbLine
 10
13546.84983051328
 20
2537.931598713264
 30
0.0
 11
14291.77698848541
 21
2537.931598713264
 31
0.0
  0
LINE
  5
1984A
330
19066
100
AcDbEntity
  8
寸法
 62
     0
 48
50.0
370
    -2
100
AcDbLine
 10
13626.84983051328
 20
4857.931598713264
 30
0.0
 11
14291.77698848541
 21
4857.931598713264
 31
0.0
  0
LINE
  5
1984B
330
19066
100
AcDbEntity
  8
寸法
 62
     0
 48
50.0
370
    -2
100
AcDbLine
 10
14231.77698848541
 20
2537.931598713264
 30
0.0
 11
14231.77698848541
 21
4857.931598713264
 31
0.0
  0
INSERT
  5
1984C
330
19066
100
AcDbEntity
  8
寸法
 62
     0
 48
50.0
370
    -2
100
AcDbBlockReference
  2
_DOTSMALL
 10
14231.77698848541
 20
2537.931598713264
 30
0.0
 41
100.0
 42
100.0
 43
100.0
 50
270.0
  0
INSERT
  5
1984D
330
19066
100
AcDbEntity
  8
寸法
 62
     0
 48
50.0
370
    -2
100
AcDbBlockReference
  2
_DOTSMALL
 10
14231.77698848541
 20
4857.931598713264
 30
0.0
 41
100.0
 42
100.0
 43
100.0
 50
90.0
  0
MTEXT
  5
1984E
330
19066
100
AcDbEntity
  8
寸法
 62
     7
 48
50.0
100
AcDbMText
 10
14131.76517746178
 20
3697.931598713266
 30
0.0
 40
120.0
 41
0.0
 71
     5
 72
     1
  1
\A1;2320
  7
STYLE1
 11
0.0000000000000001
 21
1.0
 31
0.0
 73
     1
 44
1.0
1001
ACAD
1000
MTEXTBEGIN
1070
    73
1070
     1
1070
    44
1040
1.0
1070
    74
1070
     0
1000
MTEXTEND
  0
POINT
  5
1984F
330
19066
100
AcDbEntity
  8
DEFPOINTS
 62
     0
 48
50.0
100
AcDbPoint
 10
13526.84983051328
 20
2537.931598713264
 30
0.0
  0
POINT
  5
19850
330
19066
100
AcDbEntity
  8
DEFPOINTS
 62
     0
 48
50.0
100
AcDbPoint
 10
13606.84983051328
 20
4857.931598713264
 30
0.0
  0
POINT
  5
19851
330
19066
100
AcDbEntity
  8
DEFPOINTS
 62
     0
 48
50.0
100
AcDbPoint
 10
14231.77698848541
 20
4857.931598713264
 30
0.0
  0
ENDBLK
  5
19071
330
19066
100
AcDbEntity
  8
0
 48
50.0
100
AcDbBlockEnd
  0
BLOCK
  5
1907C
330
19072
100
AcDbEntity
  8
0
 48
50.0
100
AcDbBlockBegin
  2
*D27
 70
     1
 10
0.0
 20
0.0
 30
0.0
  3
*D27
  1

  0
LINE
  5
198A0
330
19072
100
AcDbEntity
  8
寸法
 62
     0
 48
50.0
370
    -2
100
AcDbLine
 10
10876.84983051327
 20
2537.931598713257
 30
0.0
 11
9693.099701330018
 21
2537.931598713257
 31
0.0
  0
LINE
  5
198A1
330
19072
100
AcDbEntity
  8
寸法
 62
     0
 48
50.0
370
    -2
100
AcDbLine
 10
10816.84983051327
 20
4912.931598713262
 30
0.0
 11
9693.099701330019
 21
4912.931598713264
 31
0.0
  0
LINE
  5
198A2
330
19072
100
AcDbEntity
  8
寸法
 62
     0
 48
50.0
370
    -2
100
AcDbLine
 10
9753.099701330016
 20
2537.931598713257
 30
0.0
 11
9753.099701330018
 21
4912.931598713264
 31
0.0
  0
INSERT
  5
198A3
330
19072
100
AcDbEntity
  8
寸法
 62
     0
 48
50.0
370
    -2
100
AcDbBlockReference
  2
_DOTSMALL
 10
9753.099701330016
 20
2537.931598713257
 30
0.0
 41
100.0
 42
100.0
 43
100.0
 50
270.0
  0
INSERT
  5
198A4
330
19072
100
AcDbEntity
  8
寸法
 62
     0
 48
50.0
370
    -2
100
AcDbBlockReference
  2
_DOTSMALL
 10
9753.099701330018
 20
4912.931598713264
 30
0.0
 41
100.0
 42
100.0
 43
100.0
 50
90.0
  0
MTEXT
  5
198A5
330
19072
100
AcDbEntity
  8
寸法
 62
     7
 48
50.0
100
AcDbMText
 10
9653.087890306395
 20
3725.431598713262
 30
0.0
 40
120.0
 41
0.0
 71
     5
 72
     1
  1
\A1;2375
  7
STYLE1
 11
0.0000000000000001
 21
1.0
 31
0.0
 73
     1
 44
1.0
1001
ACAD
1000
MTEXTBEGIN
1070
    73
1070
     1
1070
    44
1040
1.0
1070
    74
1070
     0
1000
MTEXTEND
  0
POINT
  5
198A6
330
19072
100
AcDbEntity
  8
DEFPOINTS
 62
     0
 48
50.0
100
AcDbPoint
 10
10896.84983051327
 20
2537.931598713257
 30
0.0
  0
POINT
  5
198A7
330
19072
100
AcDbEntity
  8
DEFPOINTS
 62
     0
 48
50.0
100
AcDbPoint
 10
10836.84983051327
 20
4912.931598713262
 30
0.0
  0
POINT
  5
198A8
330
19072
100
AcDbEntity
  8
DEFPOINTS
 62
     0
 48
50.0
100
AcDbPoint
 10
9753.099701330018
 20
4912.931598713264
 30
0.0
  0
ENDBLK
  5
1907D
330
19072
100
AcDbEntity
  8
0
 48
50.0
100
AcDbBlockEnd
  0
BLOCK
  5
19088
330
1907E
100
AcDbEntity
  8
0
 48
50.0
100
AcDbBlockBegin
  2
*D28
 70
     1
 10
0.0
 20
0.0
 30
0.0
  3
*D28
  1

  0
LINE
  5
19840
330
1907E
100
AcDbEntity
  8
寸法
 62
     0
 48
50.0
370
    -2
100
AcDbLine
 10
10876.84983051327
 20
4677.931598713258
 30
0.0
 11
9993.09970133002
 21
4677.93159871326
 31
0.0
  0
LINE
  5
19841
330
1907E
100
AcDbEntity
  8
寸法
 62
     0
 48
50.0
370
    -2
100
AcDbLine
 10
10876.84983051327
 20
2587.931598713257
 30
0.0
 11
9993.099701330018
 21
2587.931598713257
 31
0.0
  0
LINE
  5
19842
330
1907E
100
AcDbEntity
  8
寸法
 62
     0
 48
50.0
370
    -2
100
AcDbLine
 10
10053.09970133002
 20
4677.93159871326
 30
0.0
 11
10053.09970133002
 21
2587.931598713257
 31
0.0
  0
INSERT
  5
19843
330
1907E
100
AcDbEntity
  8
寸法
 62
     0
 48
50.0
370
    -2
100
AcDbBlockReference
  2
_DOTSMALL
 10
10053.09970133002
 20
4677.93159871326
 30
0.0
 41
100.0
 42
100.0
 43
100.0
 50
90.0
  0
INSERT
  5
19844
330
1907E
100
AcDbEntity
  8
寸法
 62
     0
 48
50.0
370
    -2
100
AcDbBlockReference
  2
_DOTSMALL
 10
10053.09970133002
 20
2587.931598713257
 30
0.0
 41
100.0
 42
100.0
 43
100.0
 50
270.0
  0
MTEXT
  5
19845
330
1907E
100
AcDbEntity
  8
寸法
 62
     7
 48
50.0
100
AcDbMText
 10
9953.087890306397
 20
3632.93159871326
 30
0.0
 40
120.0
 41
0.0
 71
     5
 72
     1
  1
\A1;2090
  7
STYLE1
 11
0.0000000000000001
 21
1.0
 31
0.0
 73
     1
 44
1.0
1001
ACAD
1000
MTEXTBEGIN
1070
    73
1070
     1
1070
    44
1040
1.0
1070
    74
1070
     0
1000
MTEXTEND
  0
POINT
  5
19846
330
1907E
100
AcDbEntity
  8
DEFPOINTS
 62
     0
 48
50.0
100
AcDbPoint
 10
10896.84983051327
 20
4677.931598713258
 30
0.0
  0
POINT
  5
19847
330
1907E
100
AcDbEntity
  8
DEFPOINTS
 62
     0
 48
50.0
100
AcDbPoint
 10
10896.84983051327
 20
2587.931598713257
 30
0.0
  0
POINT
  5
19848
330
1907E
100
AcDbEntity
  8
DEFPOINTS
 62
     0
 48
50.0
100
AcDbPoint
 10
10053.09970133002
 20
2587.931598713257
 30
0.0
  0
ENDBLK
  5
19089
330
1907E
100
AcDbEntity
  8
0
 48
50.0
100
AcDbBlockEnd
  0
BLOCK
  5
1922F
330
19224
100
AcDbEntity
  8
0
 48
50.0
100
AcDbBlockBegin
  2
*D29
 70
     1
 10
0.0
 20
0.0
 30
0.0
  3
*D29
  1

  0
LINE
  5
19884
330
19224
100
AcDbEntity
  8
寸法
 62
     0
 48
50.0
370
    -2
100
AcDbLine
 10
10836.25411680438
 20
4912.229305782925
 30
0.0
 11
10220.31967769909
 21
4929.943456057254
 31
0.0
  0
LINE
  5
19885
330
19224
100
AcDbEntity
  8
寸法
 62
     0
 48
50.0
370
    -2
100
AcDbLine
 10
10832.20066124775
 20
4771.287582017212
 30
0.0
 11
10216.26622214246
 21
4789.001732291541
 31
0.0
  0
LINE
  5
19886
330
19224
100
AcDbEntity
  8
寸法
 62
     0
 48
50.0
370
    -2
100
AcDbLine
 10
10276.2414237449
 20
4787.276857586594
 30
0.0
 11
10280.29487930152
 21
4928.218581352306
 31
0.0
  0
LINE
  5
19887
330
19224
100
AcDbEntity
  8
寸法
 62
     0
 48
50.0
370
    -2
100
AcDbLine
 10
10280.29487930152
 20
4928.218581352306
 30
0.0
 11
10290.6441275312
 21
5288.069790966892
 31
0.0
  0
INSERT
  5
19888
330
19224
100
AcDbEntity
  8
寸法
 62
     0
 48
50.0
370
    -2
100
AcDbBlockReference
  2
_DOTSMALL
 10
10276.2414237449
 20
4787.276857586594
 30
0.0
 41
100.0
 42
100.0
 43
100.0
 50
268.3526390256378
  0
INSERT
  5
19889
330
19224
100
AcDbEntity
  8
寸法
 62
     0
 48
50.0
370
    -2
100
AcDbBlockReference
  2
_DOTSMALL
 10
10280.29487930152
 20
4928.218581352306
 30
0.0
 41
100.0
 42
100.0
 43
100.0
 50
88.35263902563776
  0
MTEXT
  5
1988A
330
19224
100
AcDbEntity
  8
寸法
 62
     7
 48
50.0
100
AcDbMText
 10
10186.94822966643
 20
5160.998312003204
 30
0.0
 40
120.0
 41
0.0
 71
     5
 72
     1
  1
\A1;141
  7
STYLE1
 11
0.0287479117491237
 21
0.9995866933738488
 31
0.0
 73
     1
 44
1.0
1001
ACAD
1000
MTEXTBEGIN
1070
    73
1070
     1
1070
    44
1040
1.0
1070
    74
1070
     0
1000
MTEXTEND
  0
POINT
  5
1988B
330
19224
100
AcDbEntity
  8
DEFPOINTS
 62
     0
 48
50.0
100
AcDbPoint
 10
10856.24585067185
 20
4911.654347547942
 30
0.0
  0
POINT
  5
1988C
330
19224
100
AcDbEntity
  8
DEFPOINTS
 62
     0
 48
50.0
100
AcDbPoint
 10
10852.19239511523
 20
4770.712623782229
 30
0.0
  0
POINT
  5
1988D
330
19224
100
AcDbEntity
  8
DEFPOINTS
 62
     0
 48
50.0
100
AcDbPoint
 10
10276.2414237449
 20
4787.276857586594
 30
0.0
  0
ENDBLK
  5
19230
330
19224
100
AcDbEntity
  8
0
 48
50.0
100
AcDbBlockEnd
  0
BLOCK
  5
1923C
330
19231
100
AcDbEntity
  8
0
 48
50.0
100
AcDbBlockBegin
  2
*D30
 70
     1
 10
0.0
 20
0.0
 30
0.0
  3
*D30
  1

  0
LINE
  5
1987A
330
19231
100
AcDbEntity
  8
寸法
 62
     0
 48
50.0
370
    -2
100
AcDbLine
 10
13526.84983051328
 20
4879.742278324916
 30
0.0
 11
13526.84983051328
 21
5371.589052292569
 31
0.0
  0
LINE
  5
1987B
330
19231
100
AcDbEntity
  8
寸法
 62
     0
 48
50.0
370
    -2
100
AcDbLine
 10
13606.84983051328
 20
4877.931598713264
 30
0.0
 11
13606.84983051328
 21
5371.589052292569
 31
0.0
  0
LINE
  5
1987C
330
19231
100
AcDbEntity
  8
寸法
 62
     0
 48
50.0
370
    -2
100
AcDbLine
 10
13526.84983051328
 20
5311.589052292569
 30
0.0
 11
13606.84983051328
 21
5311.589052292569
 31
0.0
  0
LINE
  5
1987D
330
19231
100
AcDbEntity
  8
寸法
 62
     0
 48
50.0
370
    -2
100
AcDbLine
 10
13606.84983051328
 20
5311.589052292569
 30
0.0
 11
13918.94431870225
 21
5311.589052292569
 31
0.0
  0
INSERT
  5
1987E
330
19231
100
AcDbEntity
  8
寸法
 62
     0
 48
50.0
370
    -2
100
AcDbBlockReference
  2
_DOTSMALL
 10
13526.84983051328
 20
5311.589052292569
 30
0.0
 41
100.0
 42
100.0
 43
100.0
 50
180.0
  0
INSERT
  5
1987F
330
19231
100
AcDbEntity
  8
寸法
 62
     0
 48
50.0
370
    -2
100
AcDbBlockReference
  2
_DOTSMALL
 10
13606.84983051328
 20
5311.589052292569
 30
0.0
 41
100.0
 42
100.0
 43
100.0
  0
MTEXT
  5
19880
330
19231
100
AcDbEntity
  8
寸法
 62
     7
 48
50.0
100
AcDbMText
 10
13812.89707460777
 20
5411.589052292569
 30
0.0
 40
120.0
 41
0.0
 71
     5
 72
     1
  1
\A1;80
  7
STYLE1
 73
     1
 44
1.0
1001
ACAD
1000
MTEXTBEGIN
1070
    73
1070
     1
1070
    44
1040
1.0
1070
    74
1070
     0
1000
MTEXTEND
  0
POINT
  5
19881
330
19231
100
AcDbEntity
  8
DEFPOINTS
 62
     0
 48
50.0
100
AcDbPoint
 10
13526.84983051328
 20
4859.742278324915
 30
0.0
  0
POINT
  5
19882
330
19231
100
AcDbEntity
  8
DEFPOINTS
 62
     0
 48
50.0
100
AcDbPoint
 10
13606.84983051328
 20
4857.931598713264
 30
0.0
  0
POINT
  5
19883
330
19231
100
AcDbEntity
  8
DEFPOINTS
 62
     0
 48
50.0
100
AcDbPoint
 10
13606.84983051328
 20
5311.589052292569
 30
0.0
  0
ENDBLK
  5
1923D
330
19231
100
AcDbEntity
  8
0
 48
50.0
100
AcDbBlockEnd
  0
BLOCK
  5
19248
330
1923E
100
AcDbEntity
  8
0
 48
50.0
100
AcDbBlockBegin
  2
*D31
 70
     1
 10
0.0
 20
0.0
 30
0.0
  3
*D31
  1

  0
LINE
  5
19E35
330
1923E
100
AcDbEntity
  8
寸法
 62
     0
 48
50.0
370
    -2
100
AcDbLine
 10
13606.84983051328
 20
4877.931598713264
 30
0.0
 11
13606.84983051328
 21
5591.799739024184
 31
0.0
  0
LINE
  5
19E36
330
1923E
100
AcDbEntity
  8
寸法
 62
     0
 48
50.0
370
    -2
100
AcDbLine
 10
10836.84983051327
 20
4932.931598713268
 30
0.0
 11
10836.84983051327
 21
5591.799739024184
 31
0.0
  0
LINE
  5
19E37
330
1923E
100
AcDbEntity
  8
寸法
 62
     0
 48
50.0
370
    -2
100
AcDbLine
 10
13606.84983051328
 20
5531.799739024183
 30
0.0
 11
10836.84983051327
 21
5531.799739024183
 31
0.0
  0
INSERT
  5
19E38
330
1923E
100
AcDbEntity
  8
寸法
 62
     0
 48
50.0
370
    -2
100
AcDbBlockReference
  2
_DOTSMALL
 10
13606.84983051328
 20
5531.799739024183
 30
0.0
 41
100.0
 42
100.0
 43
100.0
  0
INSERT
  5
19E39
330
1923E
100
AcDbEntity
  8
寸法
 62
     0
 48
50.0
370
    -2
100
AcDbBlockReference
  2
_DOTSMALL
 10
10836.84983051327
 20
5531.799739024183
 30
0.0
 41
100.0
 42
100.0
 43
100.0
 50
180.0
  0
MTEXT
  5
19E3A
330
1923E
100
AcDbEntity
  8
寸法
 62
     7
 48
50.0
100
AcDbMText
 10
12221.84983051328
 20
5631.811550047805
 30
0.0
 40
120.0
 41
0.0
 71
     5
 72
     1
  1
\A1;2770
  7
STYLE1
 73
     1
 44
1.0
1001
ACAD
1000
MTEXTBEGIN
1070
    73
1070
     1
1070
    44
1040
1.0
1070
    74
1070
     0
1000
MTEXTEND
  0
POINT
  5
19E3B
330
1923E
100
AcDbEntity
  8
DEFPOINTS
 62
     0
 48
50.0
100
AcDbPoint
 10
13606.84983051328
 20
4857.931598713264
 30
0.0
  0
POINT
  5
19E3C
330
1923E
100
AcDbEntity
  8
DEFPOINTS
 62
     0
 48
50.0
100
AcDbPoint
 10
10836.84983051327
 20
4912.931598713267
 30
0.0
  0
POINT
  5
19E3D
330
1923E
100
AcDbEntity
  8
DEFPOINTS
 62
     0
 48
50.0
100
AcDbPoint
 10
10836.84983051327
 20
5531.799739024183
 30
0.0
  0
ENDBLK
  5
19249
330
1923E
100
AcDbEntity
  8
0
 48
50.0
100
AcDbBlockEnd
  0
BLOCK
  5
19256
330
1924A
100
AcDbEntity
  8
0
 48
50.0
100
AcDbBlockBegin
  2
*D32
 70
     1
 10
0.0
 20
0.0
 30
0.0
  3
*D32
  1

  0
LINE
  5
19866
330
1924A
100
AcDbEntity
  8
寸法
 62
     0
 48
50.0
370
    -2
100
AcDbLine
 10
10896.84983051327
 20
4928.933216836239
 30
0.0
 11
10896.84983051327
 21
5371.589052292566
 31
0.0
  0
LINE
  5
19867
330
1924A
100
AcDbEntity
  8
寸法
 62
     0
 48
50.0
370
    -2
100
AcDbLine
 10
10836.84983051327
 20
4932.931598713268
 30
0.0
 11
10836.84983051327
 21
5371.589052292566
 31
0.0
  0
LINE
  5
19868
330
1924A
100
AcDbEntity
  8
寸法
 62
     0
 48
50.0
370
    -2
100
AcDbLine
 10
10896.84983051327
 20
5311.589052292566
 30
0.0
 11
10996.84983051328
 21
5311.589052292566
 31
0.0
  0
LINE
  5
19869
330
1924A
100
AcDbEntity
  8
寸法
 62
     0
 48
50.0
370
    -2
100
AcDbLine
 10
10836.84983051327
 20
5311.589052292566
 30
0.0
 11
10417.57423996209
 21
5311.589052292566
 31
0.0
  0
LINE
  5
1986A
330
1924A
100
AcDbEntity
  8
寸法
 62
     0
 48
50.0
370
    -2
100
AcDbLine
 10
10896.84983051327
 20
5311.589052292566
 30
0.0
 11
10836.84983051327
 21
5311.589052292566
 31
0.0
  0
INSERT
  5
1986B
330
1924A
100
AcDbEntity
  8
寸法
 62
     0
 48
50.0
370
    -2
100
AcDbBlockReference
  2
_DOTSMALL
 10
10896.84983051327
 20
5311.589052292566
 30
0.0
 41
100.0
 42
100.0
 43
100.0
 50
180.0
  0
INSERT
  5
1986C
330
1924A
100
AcDbEntity
  8
寸法
 62
     0
 48
50.0
370
    -2
100
AcDbBlockReference
  2
_DOTSMALL
 10
10836.84983051327
 20
5311.589052292566
 30
0.0
 41
100.0
 42
100.0
 43
100.0
  0
MTEXT
  5
1986D
330
1924A
100
AcDbEntity
  8
寸法
 62
     7
 48
50.0
100
AcDbMText
 10
10527.21203523768
 20
5411.589052292566
 30
0.0
 40
120.0
 41
0.0
 71
     5
 72
     1
  1
\A1;60
  7
STYLE1
 73
     1
 44
1.0
1001
ACAD
1000
MTEXTBEGIN
1070
    73
1070
     1
1070
    44
1040
1.0
1070
    74
1070
     0
1000
MTEXTEND
  0
POINT
  5
1986E
330
1924A
100
AcDbEntity
  8
DEFPOINTS
 62
     0
 48
50.0
100
AcDbPoint
 10
10896.84983051327
 20
4908.933216836238
 30
0.0
  0
POINT
  5
1986F
330
1924A
100
AcDbEntity
  8
DEFPOINTS
 62
     0
 48
50.0
100
AcDbPoint
 10
10836.84983051327
 20
4912.931598713267
 30
0.0
  0
POINT
  5
19870
330
1924A
100
AcDbEntity
  8
DEFPOINTS
 62
     0
 48
50.0
100
AcDbPoint
 10
10836.84983051327
 20
5311.589052292566
 30
0.0
  0
ENDBLK
  5
19257
330
1924A
100
AcDbEntity
  8
0
 48
50.0
100
AcDbBlockEnd
  0
BLOCK
  5
19262
330
19258
100
AcDbEntity
  8
0
 48
50.0
100
AcDbBlockBegin
  2
*D33
 70
     1
 10
0.0
 20
0.0
 30
0.0
  3
*D33
  1

  0
LINE
  5
19E3E
330
19258
100
AcDbEntity
  8
寸法
 62
     0
 48
50.0
370
    -2
100
AcDbLine
 10
13526.84983051328
 20
4879.742278324916
 30
0.0
 11
13526.84983051328
 21
5371.589052292569
 31
0.0
  0
LINE
  5
19E3F
330
19258
100
AcDbEntity
  8
寸法
 62
     0
 48
50.0
370
    -2
100
AcDbLine
 10
10896.84983051327
 20
4928.933216836239
 30
0.0
 11
10896.84983051327
 21
5371.589052292569
 31
0.0
  0
LINE
  5
19E40
330
19258
100
AcDbEntity
  8
寸法
 62
     0
 48
50.0
370
    -2
100
AcDbLine
 10
13526.84983051328
 20
5311.589052292569
 30
0.0
 11
10896.84983051327
 21
5311.589052292569
 31
0.0
  0
INSERT
  5
19E41
330
19258
100
AcDbEntity
  8
寸法
 62
     0
 48
50.0
370
    -2
100
AcDbBlockReference
  2
_DOTSMALL
 10
13526.84983051328
 20
5311.589052292569
 30
0.0
 41
100.0
 42
100.0
 43
100.0
  0
INSERT
  5
19E42
330
19258
100
AcDbEntity
  8
寸法
 62
     0
 48
50.0
370
    -2
100
AcDbBlockReference
  2
_DOTSMALL
 10
10896.84983051327
 20
5311.589052292569
 30
0.0
 41
100.0
 42
100.0
 43
100.0
 50
180.0
  0
MTEXT
  5
19E43
330
19258
100
AcDbEntity
  8
寸法
 62
     7
 48
50.0
100
AcDbMText
 10
12211.84983051328
 20
5411.600863316191
 30
0.0
 40
120.0
 41
0.0
 71
     5
 72
     1
  1
\A1;柱外寸法2630
  7
STYLE1
 73
     1
 44
1.0
1001
ACAD
1000
MTEXTBEGIN
1070
    73
1070
     1
1070
    44
1040
1.0
1070
    74
1070
     0
1000
MTEXTEND
  0
POINT
  5
19E44
330
19258
100
AcDbEntity
  8
DEFPOINTS
 62
     0
 48
50.0
100
AcDbPoint
 10
13526.84983051328
 20
4859.742278324915
 30
0.0
  0
POINT
  5
19E45
330
19258
100
AcDbEntity
  8
DEFPOINTS
 62
     0
 48
50.0
100
AcDbPoint
 10
10896.84983051327
 20
4908.933216836238
 30
0.0
  0
POINT
  5
19E46
330
19258
100
AcDbEntity
  8
DEFPOINTS
 62
     0
 48
50.0
100
AcDbPoint
 10
10896.84983051327
 20
5311.589052292569
 30
0.0
  0
ENDBLK
  5
19263
330
19258
100
AcDbEntity
  8
0
 48
50.0
100
AcDbBlockEnd
  0
BLOCK
  5
19270
330
19264
100
AcDbEntity
  8
0
 48
50.0
100
AcDbBlockBegin
  2
*D34
 70
     1
 10
0.0
 20
0.0
 30
0.0
  3
*D34
  1

  0
LINE
  5
19852
330
19264
100
AcDbEntity
  8
寸法
 62
     0
 48
50.0
370
    -2
100
AcDbLine
 10
10876.84983051327
 20
2587.931598713263
 30
0.0
 11
9993.099701330018
 21
2587.931598713263
 31
0.0
  0
LINE
  5
19853
330
19264
100
AcDbEntity
  8
寸法
 62
     0
 48
50.0
370
    -2
100
AcDbLine
 10
10821.84983051328
 20
2537.931598713262
 30
0.0
 11
9993.099701330018
 21
2537.931598713262
 31
0.0
  0
LINE
  5
19854
330
19264
100
AcDbEntity
  8
寸法
 62
     0
 48
50.0
370
    -2
100
AcDbLine
 10
10053.09970133002
 20
2587.931598713263
 30
0.0
 11
10053.09970133002
 21
2687.931598713263
 31
0.0
  0
LINE
  5
19855
330
19264
100
AcDbEntity
  8
寸法
 62
     0
 48
50.0
370
    -2
100
AcDbLine
 10
10053.09970133002
 20
2537.931598713262
 30
0.0
 11
10053.09970133002
 21
2125.837110524282
 31
0.0
  0
LINE
  5
19856
330
19264
100
AcDbEntity
  8
寸法
 62
     0
 48
50.0
370
    -2
100
AcDbLine
 10
10053.09970133002
 20
2587.931598713263
 30
0.0
 11
10053.09970133002
 21
2537.931598713262
 31
0.0
  0
INSERT
  5
19857
330
19264
100
AcDbEntity
  8
寸法
 62
     0
 48
50.0
370
    -2
100
AcDbBlockReference
  2
_DOTSMALL
 10
10053.09970133002
 20
2587.931598713263
 30
0.0
 41
100.0
 42
100.0
 43
100.0
 50
270.0
  0
INSERT
  5
19858
330
19264
100
AcDbEntity
  8
寸法
 62
     0
 48
50.0
370
    -2
100
AcDbBlockReference
  2
_DOTSMALL
 10
10053.09970133002
 20
2537.931598713262
 30
0.0
 41
100.0
 42
100.0
 43
100.0
 50
90.0
  0
MTEXT
  5
19859
330
19264
100
AcDbEntity
  8
寸法
 62
     7
 48
50.0
100
AcDbMText
 10
9953.099701330017
 20
2231.884354618772
 30
0.0
 40
120.0
 41
0.0
 71
     5
 72
     1
  1
\A1;50
  7
STYLE1
 11
0.0000000000000001
 21
1.0
 31
0.0
 73
     1
 44
1.0
1001
ACAD
1000
MTEXTBEGIN
1070
    73
1070
     1
1070
    44
1040
1.0
1070
    74
1070
     0
1000
MTEXTEND
  0
POINT
  5
1985A
330
19264
100
AcDbEntity
  8
DEFPOINTS
 62
     0
 48
50.0
100
AcDbPoint
 10
10896.84983051327
 20
2587.931598713263
 30
0.0
  0
POINT
  5
1985B
330
19264
100
AcDbEntity
  8
DEFPOINTS
 62
     0
 48
50.0
100
AcDbPoint
 10
10841.84983051328
 20
2537.931598713262
 30
0.0
  0
POINT
  5
1985C
330
19264
100
AcDbEntity
  8
DEFPOINTS
 62
     0
 48
50.0
100
AcDbPoint
 10
10053.09970133002
 20
2537.931598713262
 30
0.0
  0
ENDBLK
  5
19271
330
19264
100
AcDbEntity
  8
0
 48
50.0
100
AcDbBlockEnd
  0
BLOCK
  5
1995D
330
19953
100
AcDbEntity
  8
0
 48
50.0
100
AcDbBlockBegin
  2
*D35
 70
     1
 10
0.0
 20
0.0
 30
0.0
  3
*D35
  1

  0
LINE
  5
19987
330
19953
100
AcDbEntity
  8
寸法
 62
     0
 48
50.0
370
    -2
100
AcDbLine
 10
2849.673057123655
 20
4932.931598713267
 30
0.0
 11
2849.673057123655
 21
5578.566791659262
 31
0.0
  0
LINE
  5
19988
330
19953
100
AcDbEntity
  8
寸法
 62
     0
 48
50.0
370
    -2
100
AcDbLine
 10
8319.673057123656
 20
4932.931598713266
 30
0.0
 11
8319.673057123656
 21
5578.566791659262
 31
0.0
  0
LINE
  5
19989
330
19953
100
AcDbEntity
  8
寸法
 62
     0
 48
50.0
370
    -2
100
AcDbLine
 10
2849.673057123655
 20
5518.566791659261
 30
0.0
 11
8319.673057123656
 21
5518.566791659261
 31
0.0
  0
INSERT
  5
1998A
330
19953
100
AcDbEntity
  8
寸法
 62
     0
 48
50.0
370
    -2
100
AcDbBlockReference
  2
_DOTSMALL
 10
2849.673057123655
 20
5518.566791659261
 30
0.0
 41
100.0
 42
100.0
 43
100.0
 50
180.0
  0
INSERT
  5
1998B
330
19953
100
AcDbEntity
  8
寸法
 62
     0
 48
50.0
370
    -2
100
AcDbBlockReference
  2
_DOTSMALL
 10
8319.673057123656
 20
5518.566791659261
 30
0.0
 41
100.0
 42
100.0
 43
100.0
  0
MTEXT
  5
1998C
330
19953
100
AcDbEntity
  8
寸法
 62
     7
 48
50.0
100
AcDbMText
 10
5584.673057123657
 20
5618.566791659262
 30
0.0
 40
120.0
 41
0.0
 71
     5
 72
     1
  1
\A1;N X 1790+100
  7
STYLE1
 73
     1
 44
1.0
1001
ACAD
1000
MTEXTBEGIN
1070
    73
1070
     1
1070
    44
1040
1.0
1070
    74
1070
     0
1000
MTEXTEND
  0
POINT
  5
1998D
330
19953
100
AcDbEntity
  8
DEFPOINTS
 62
     0
 48
50.0
100
AcDbPoint
 10
2849.673057123655
 20
4912.931598713267
 30
0.0
  0
POINT
  5
1998E
330
19953
100
AcDbEntity
  8
DEFPOINTS
 62
     0
 48
50.0
100
AcDbPoint
 10
8319.673057123656
 20
4912.931598713266
 30
0.0
  0
POINT
  5
1998F
330
19953
100
AcDbEntity
  8
DEFPOINTS
 62
     0
 48
50.0
100
AcDbPoint
 10
8319.673057123656
 20
5518.566791659261
 30
0.0
  0
ENDBLK
  5
1995E
330
19953
100
AcDbEntity
  8
0
 48
50.0
100
AcDbBlockEnd
  0
BLOCK
  5
19969
330
1995F
100
AcDbEntity
  8
0
 48
50.0
100
AcDbBlockBegin
  2
*D36
 70
     1
 10
0.0
 20
0.0
 30
0.0
  3
*D36
  1

  0
LINE
  5
19990
330
1995F
100
AcDbEntity
  8
寸法
 62
     0
 48
50.0
370
    -2
100
AcDbLine
 10
8269.673057123659
 20
4932.93159871327
 30
0.0
 11
8269.673057123659
 21
5378.657870445171
 31
0.0
  0
LINE
  5
19991
330
1995F
100
AcDbEntity
  8
寸法
 62
     0
 48
50.0
370
    -2
100
AcDbLine
 10
2899.673057123655
 20
4932.931598713268
 30
0.0
 11
2899.673057123655
 21
5378.657870445171
 31
0.0
  0
LINE
  5
19992
330
1995F
100
AcDbEntity
  8
寸法
 62
     0
 48
50.0
370
    -2
100
AcDbLine
 10
8269.673057123659
 20
5318.657870445171
 30
0.0
 11
2899.673057123655
 21
5318.657870445171
 31
0.0
  0
INSERT
  5
19993
330
1995F
100
AcDbEntity
  8
寸法
 62
     0
 48
50.0
370
    -2
100
AcDbBlockReference
  2
_DOTSMALL
 10
8269.673057123659
 20
5318.657870445171
 30
0.0
 41
100.0
 42
100.0
 43
100.0
  0
INSERT
  5
19994
330
1995F
100
AcDbEntity
  8
寸法
 62
     0
 48
50.0
370
    -2
100
AcDbBlockReference
  2
_DOTSMALL
 10
2899.673057123655
 20
5318.657870445171
 30
0.0
 41
100.0
 42
100.0
 43
100.0
 50
180.0
  0
MTEXT
  5
19995
330
1995F
100
AcDbEntity
  8
寸法
 62
     7
 48
50.0
100
AcDbMText
 10
5584.673057123658
 20
5418.657870445171
 30
0.0
 40
120.0
 41
0.0
 71
     5
 72
     1
  1
\A1;柱外寸法 N X 1790
  7
STYLE1
 73
     1
 44
1.0
1001
ACAD
1000
MTEXTBEGIN
1070
    73
1070
     1
1070
    44
1040
1.0
1070
    74
1070
     0
1000
MTEXTEND
  0
POINT
  5
19996
330
1995F
100
AcDbEntity
  8
DEFPOINTS
 62
     0
 48
50.0
100
AcDbPoint
 10
8269.673057123659
 20
4912.93159871327
 30
0.0
  0
POINT
  5
19997
330
1995F
100
AcDbEntity
  8
DEFPOINTS
 62
     0
 48
50.0
100
AcDbPoint
 10
2899.673057123655
 20
4912.931598713267
 30
0.0
  0
POINT
  5
19998
330
1995F
100
AcDbEntity
  8
DEFPOINTS
 62
     0
 48
50.0
100
AcDbPoint
 10
2899.673057123655
 20
5318.657870445171
 30
0.0
  0
ENDBLK
  5
1996A
330
1995F
100
AcDbEntity
  8
0
 48
50.0
100
AcDbBlockEnd
  0
BLOCK
  5
19977
330
1996B
100
AcDbEntity
  8
0
 48
50.0
100
AcDbBlockBegin
  2
*D37
 70
     1
 10
0.0
 20
0.0
 30
0.0
  3
*D37
  1

  0
LINE
  5
19999
330
1996B
100
AcDbEntity
  8
寸法
 62
     0
 48
50.0
370
    -2
100
AcDbLine
 10
8319.673057123656
 20
4932.931598713266
 30
0.0
 11
8319.673057123656
 21
5378.657870445175
 31
0.0
  0
LINE
  5
1999A
330
1996B
100
AcDbEntity
  8
寸法
 62
     0
 48
50.0
370
    -2
100
AcDbLine
 10
8269.673057123659
 20
4932.93159871327
 30
0.0
 11
8269.673057123659
 21
5378.657870445175
 31
0.0
  0
LINE
  5
1999B
330
1996B
100
AcDbEntity
  8
寸法
 62
     0
 48
50.0
370
    -2
100
AcDbLine
 10
8269.673057123659
 20
5318.657870445176
 30
0.0
 11
8169.673057123659
 21
5318.657870445176
 31
0.0
  0
LINE
  5
1999C
330
1996B
100
AcDbEntity
  8
寸法
 62
     0
 48
50.0
370
    -2
100
AcDbLine
 10
8319.673057123656
 20
5318.657870445176
 30
0.0
 11
8739.205582592386
 21
5318.657870445176
 31
0.0
  0
LINE
  5
1999D
330
1996B
100
AcDbEntity
  8
寸法
 62
     0
 48
50.0
370
    -2
100
AcDbLine
 10
8269.673057123659
 20
5318.657870445176
 30
0.0
 11
8319.673057123656
 21
5318.657870445176
 31
0.0
  0
INSERT
  5
1999E
330
1996B
100
AcDbEntity
  8
寸法
 62
     0
 48
50.0
370
    -2
100
AcDbBlockReference
  2
_DOTSMALL
 10
8269.673057123659
 20
5318.657870445176
 30
0.0
 41
100.0
 42
100.0
 43
100.0
  0
INSERT
  5
1999F
330
1996B
100
AcDbEntity
  8
寸法
 62
     0
 48
50.0
370
    -2
100
AcDbBlockReference
  2
_DOTSMALL
 10
8319.673057123656
 20
5318.657870445176
 30
0.0
 41
100.0
 42
100.0
 43
100.0
 50
180.0
  0
MTEXT
  5
199A0
330
1996B
100
AcDbEntity
  8
寸法
 62
     7
 48
50.0
100
AcDbMText
 10
8633.158338497898
 20
5418.657870445176
 30
0.0
 40
120.0
 41
0.0
 71
     5
 72
     1
  1
\A1;50
  7
STYLE1
 73
     1
 44
1.0
1001
ACAD
1000
MTEXTBEGIN
1070
    73
1070
     1
1070
    44
1040
1.0
1070
    74
1070
     0
1000
MTEXTEND
  0
POINT
  5
199A1
330
1996B
100
AcDbEntity
  8
DEFPOINTS
 62
     0
 48
50.0
100
AcDbPoint
 10
8319.673057123656
 20
4912.931598713266
 30
0.0
  0
POINT
  5
199A2
330
1996B
100
AcDbEntity
  8
DEFPOINTS
 62
     0
 48
50.0
100
AcDbPoint
 10
8269.673057123659
 20
4912.93159871327
 30
0.0
  0
POINT
  5
199A3
330
1996B
100
AcDbEntity
  8
DEFPOINTS
 62
     0
 48
50.0
100
AcDbPoint
 10
8269.673057123659
 20
5318.657870445176
 30
0.0
  0
ENDBLK
  5
19978
330
1996B
100
AcDbEntity
  8
0
 48
50.0
100
AcDbBlockEnd
  0
BLOCK
  5
19985
330
19979
100
AcDbEntity
  8
0
 48
50.0
100
AcDbBlockBegin
  2
*D38
 70
     1
 10
0.0
 20
0.0
 30
0.0
  3
*D38
  1

  0
LINE
  5
199A4
330
19979
100
AcDbEntity
  8
寸法
 62
     0
 48
50.0
370
    -2
100
AcDbLine
 10
2899.673057123655
 20
4932.931598713269
 30
0.0
 11
2899.673057123655
 21
5378.657870445171
 31
0.0
  0
LINE
  5
199A5
330
19979
100
AcDbEntity
  8
寸法
 62
     0
 48
50.0
370
    -2
100
AcDbLine
 10
2849.673057123655
 20
4932.931598713269
 30
0.0
 11
2849.673057123655
 21
5378.657870445171
 31
0.0
  0
LINE
  5
199A6
330
19979
100
AcDbEntity
  8
寸法
 62
     0
 48
50.0
370
    -2
100
AcDbLine
 10
2899.673057123655
 20
5318.657870445171
 30
0.0
 11
2999.673057123655
 21
5318.657870445171
 31
0.0
  0
LINE
  5
199A7
330
19979
100
AcDbEntity
  8
寸法
 62
     0
 48
50.0
370
    -2
100
AcDbLine
 10
2849.673057123655
 20
5318.657870445171
 30
0.0
 11
2430.140531654919
 21
5318.657870445171
 31
0.0
  0
LINE
  5
199A8
330
19979
100
AcDbEntity
  8
寸法
 62
     0
 48
50.0
370
    -2
100
AcDbLine
 10
2899.673057123655
 20
5318.657870445171
 30
0.0
 11
2849.673057123655
 21
5318.657870445171
 31
0.0
  0
INSERT
  5
199A9
330
19979
100
AcDbEntity
  8
寸法
 62
     0
 48
50.0
370
    -2
100
AcDbBlockReference
  2
_DOTSMALL
 10
2899.673057123655
 20
5318.657870445171
 30
0.0
 41
100.0
 42
100.0
 43
100.0
 50
180.0
  0
INSERT
  5
199AA
330
19979
100
AcDbEntity
  8
寸法
 62
     0
 48
50.0
370
    -2
100
AcDbBlockReference
  2
_DOTSMALL
 10
2849.673057123655
 20
5318.657870445171
 30
0.0
 41
100.0
 42
100.0
 43
100.0
  0
MTEXT
  5
199AB
330
19979
100
AcDbEntity
  8
寸法
 62
     7
 48
50.0
100
AcDbMText
 10
2536.187775749408
 20
5418.657870445171
 30
0.0
 40
120.0
 41
0.0
 71
     5
 72
     1
  1
\A1;50
  7
STYLE1
 73
     1
 44
1.0
1001
ACAD
1000
MTEXTBEGIN
1070
    73
1070
     1
1070
    44
1040
1.0
1070
    74
1070
     0
1000
MTEXTEND
  0
POINT
  5
199AC
330
19979
100
AcDbEntity
  8
DEFPOINTS
 62
     0
 48
50.0
100
AcDbPoint
 10
2899.673057123655
 20
4912.931598713268
 30
0.0
  0
POINT
  5
199AD
330
19979
100
AcDbEntity
  8
DEFPOINTS
 62
     0
 48
50.0
100
AcDbPoint
 10
2849.673057123655
 20
4912.931598713268
 30
0.0
  0
POINT
  5
199AE
330
19979
100
AcDbEntity
  8
DEFPOINTS
 62
     0
 48
50.0
100
AcDbPoint
 10
2849.673057123655
 20
5318.657870445171
 30
0.0
  0
ENDBLK
  5
19986
330
19979
100
AcDbEntity
  8
0
 48
50.0
100
AcDbBlockEnd
  0
BLOCK
  5
19B85
330
19B7B
100
AcDbEntity
  8
0
 48
50.0
100
AcDbBlockBegin
  2
*D39
 70
     1
 10
0.0
 20
0.0
 30
0.0
  3
*D39
  1

  0
LINE
  5
19C3A
330
19B7B
100
AcDbEntity
  8
寸法
 62
     0
 48
50.0
370
    -2
100
AcDbLine
 10
8289.673057123657
 20
2537.931598713262
 30
0.0
 11
8617.216159445401
 21
2537.931598713262
 31
0.0
  0
LINE
  5
19C3B
330
19B7B
100
AcDbEntity
  8
寸法
 62
     0
 48
50.0
370
    -2
100
AcDbLine
 10
8289.673057123657
 20
4485.931598713261
 30
0.0
 11
8617.216159445403
 21
4485.931598713261
 31
0.0
  0
LINE
  5
19C3C
330
19B7B
100
AcDbEntity
  8
寸法
 62
     0
 48
50.0
370
    -2
100
AcDbLine
 10
8557.216159445401
 20
2537.931598713262
 30
0.0
 11
8557.216159445403
 21
4485.931598713261
 31
0.0
  0
INSERT
  5
19C3D
330
19B7B
100
AcDbEntity
  8
寸法
 62
     0
 48
50.0
370
    -2
100
AcDbBlockReference
  2
_DOTSMALL
 10
8557.216159445401
 20
2537.931598713262
 30
0.0
 41
100.0
 42
100.0
 43
100.0
 50
270.0
  0
INSERT
  5
19C3E
330
19B7B
100
AcDbEntity
  8
寸法
 62
     0
 48
50.0
370
    -2
100
AcDbBlockReference
  2
_DOTSMALL
 10
8557.216159445403
 20
4485.931598713261
 30
0.0
 41
100.0
 42
100.0
 43
100.0
 50
90.0
  0
MTEXT
  5
19C3F
330
19B7B
100
AcDbEntity
  8
寸法
 62
     7
 48
50.0
100
AcDbMText
 10
8457.216159445401
 20
3511.931598713263
 30
0.0
 40
120.0
 41
0.0
 71
     5
 72
     1
  1
\A1;有効開口部高サ 1948
  7
STYLE1
 11
0.0000000000000001
 21
1.0
 31
0.0
 73
     1
 44
1.0
1001
ACAD
1000
MTEXTBEGIN
1070
    73
1070
     1
1070
    44
1040
1.0
1070
    74
1070
     0
1000
MTEXTEND
  0
POINT
  5
19C40
330
19B7B
100
AcDbEntity
  8
DEFPOINTS
 62
     0
 48
50.0
100
AcDbPoint
 10
8269.673057123657
 20
2537.931598713262
 30
0.0
  0
POINT
  5
19C41
330
19B7B
100
AcDbEntity
  8
DEFPOINTS
 62
     0
 48
50.0
100
AcDbPoint
 10
8269.673057123657
 20
4485.931598713261
 30
0.0
  0
POINT
  5
19C42
330
19B7B
100
AcDbEntity
  8
DEFPOINTS
 62
     0
 48
50.0
100
AcDbPoint
 10
8557.216159445403
 20
4485.931598713261
 30
0.0
  0
ENDBLK
  5
19B86
330
19B7B
100
AcDbEntity
  8
0
 48
50.0
100
AcDbBlockEnd
  0
BLOCK
  5
19B93
330
19B87
100
AcDbEntity
  8
0
 48
50.0
100
AcDbBlockBegin
  2
*D40
 70
     1
 10
0.0
 20
0.0
 30
0.0
  3
*D40
  1

  0
LINE
  5
19E67
330
19B87
100
AcDbEntity
  8
寸法
 62
     0
 48
50.0
370
    -2
100
AcDbLine
 10
8289.673057123657
 20
4485.931598713261
 30
0.0
 11
8617.216159445403
 21
4485.931598713261
 31
0.0
  0
LINE
  5
19E68
330
19B87
100
AcDbEntity
  8
寸法
 62
     0
 48
50.0
370
    -2
100
AcDbLine
 10
8289.673057123657
 20
4512.931598713262
 30
0.0
 11
8617.216159445403
 21
4512.931598713262
 31
0.0
  0
LINE
  5
19E69
330
19B87
100
AcDbEntity
  8
寸法
 62
     0
 48
50.0
370
    -2
100
AcDbLine
 10
8557.216159445403
 20
4485.931598713261
 30
0.0
 11
8557.216159445403
 21
4385.931598713261
 31
0.0
  0
LINE
  5
19E6A
330
19B87
100
AcDbEntity
  8
寸法
 62
     0
 48
50.0
370
    -2
100
AcDbLine
 10
8557.216159445403
 20
4512.931598713262
 30
0.0
 11
8557.216159445403
 21
4612.931598713262
 31
0.0
  0
MTEXT
  5
19E6B
330
19B87
100
AcDbEntity
  8
寸法
 62
     7
 48
50.0
100
AcDbMText
 10
8697.385982691768
 20
4513.89879855292
 30
0.0
 40
120.0
 41
0.0
 71
     5
 72
     1
  1
\A1;27
  7
STYLE1
 11
0.0000000000000001
 21
1.0
 31
0.0
 73
     1
 44
1.0
1001
ACAD
1000
MTEXTBEGIN
1070
    73
1070
     1
1070
    44
1040
1.0
1070
    74
1070
     0
1000
MTEXTEND
  0
LINE
  5
19E6C
330
19B87
100
AcDbEntity
  8
寸法
 62
     0
 48
50.0
370
    -2
100
AcDbLine
 10
8557.216159445403
 20
4485.931598713261
 30
0.0
 11
8557.216159445403
 21
4512.931598713262
 31
0.0
  0
INSERT
  5
19E6D
330
19B87
100
AcDbEntity
  8
寸法
 62
     0
 48
50.0
370
    -2
100
AcDbBlockReference
  2
_DOTSMALL
 10
8557.216159445403
 20
4485.931598713261
 30
0.0
 41
100.0
 42
100.0
 43
100.0
 50
90.0
  0
INSERT
  5
19E6E
330
19B87
100
AcDbEntity
  8
寸法
 62
     0
 48
50.0
370
    -2
100
AcDbBlockReference
  2
_DOTSMALL
 10
8557.216159445403
 20
4512.931598713262
 30
0.0
 41
100.0
 42
100.0
 43
100.0
 50
270.0
  0
POINT
  5
19E6F
330
19B87
100
AcDbEntity
  8
DEFPOINTS
 62
     0
 48
50.0
100
AcDbPoint
 10
8269.673057123657
 20
4485.931598713261
 30
0.0
  0
POINT
  5
19E70
330
19B87
100
AcDbEntity
  8
DEFPOINTS
 62
     0
 48
50.0
100
AcDbPoint
 10
8269.673057123657
 20
4512.931598713262
 30
0.0
  0
POINT
  5
19E71
330
19B87
100
AcDbEntity
  8
DEFPOINTS
 62
     0
 48
50.0
100
AcDbPoint
 10
8557.216159445403
 20
4512.931598713262
 30
0.0
  0
ENDBLK
  5
19B94
330
19B87
100
AcDbEntity
  8
0
 48
50.0
100
AcDbBlockEnd
  0
BLOCK
  5
19BA0
330
19B95
100
AcDbEntity
  8
0
 48
50.0
100
AcDbBlockBegin
  2
*D41
 70
     1
 10
0.0
 20
0.0
 30
0.0
  3
*D41
  1

  0
LINE
  5
19E5D
330
19B95
100
AcDbEntity
  8
寸法
 62
     0
 48
50.0
370
    -2
100
AcDbLine
 10
8289.673057123657
 20
4512.931598713262
 30
0.0
 11
8617.216159445405
 21
4512.931598713262
 31
0.0
  0
LINE
  5
19E5E
330
19B95
100
AcDbEntity
  8
寸法
 62
     0
 48
50.0
370
    -2
100
AcDbLine
 10
8289.673057123657
 20
4677.931598713261
 30
0.0
 11
8617.216159445405
 21
4677.931598713261
 31
0.0
  0
LINE
  5
19E5F
330
19B95
100
AcDbEntity
  8
寸法
 62
     0
 48
50.0
370
    -2
100
AcDbLine
 10
8557.216159445404
 20
4512.931598713262
 30
0.0
 11
8557.216159445404
 21
4677.931598713261
 31
0.0
  0
LINE
  5
19E60
330
19B95
100
AcDbEntity
  8
寸法
 62
     0
 48
50.0
370
    -2
100
AcDbLine
 10
8557.216159445404
 20
4677.931598713261
 30
0.0
 11
8557.216159445404
 21
5054.902161461739
 31
0.0
  0
INSERT
  5
19E61
330
19B95
100
AcDbEntity
  8
寸法
 62
     0
 48
50.0
370
    -2
100
AcDbBlockReference
  2
_DOTSMALL
 10
8557.216159445404
 20
4512.931598713262
 30
0.0
 41
100.0
 42
100.0
 43
100.0
 50
270.0
  0
INSERT
  5
19E62
330
19B95
100
AcDbEntity
  8
寸法
 62
     0
 48
50.0
370
    -2
100
AcDbBlockReference
  2
_DOTSMALL
 10
8557.216159445404
 20
4677.931598713261
 30
0.0
 41
100.0
 42
100.0
 43
100.0
 50
90.0
  0
MTEXT
  5
19E63
330
19B95
100
AcDbEntity
  8
寸法
 62
     7
 48
50.0
100
AcDbMText
 10
8457.216159445403
 20
4916.4168800875
 30
0.0
 40
120.0
 41
0.0
 71
     5
 72
     1
  1
\A1;165
  7
STYLE1
 11
0.0000000000000001
 21
1.0
 31
0.0
 73
     1
 44
1.0
1001
ACAD
1000
MTEXTBEGIN
1070
    73
1070
     1
1070
    44
1040
1.0
1070
    74
1070
     0
1000
MTEXTEND
  0
POINT
  5
19E64
330
19B95
100
AcDbEntity
  8
DEFPOINTS
 62
     0
 48
50.0
100
AcDbPoint
 10
8269.673057123657
 20
4512.931598713262
 30
0.0
  0
POINT
  5
19E65
330
19B95
100
AcDbEntity
  8
DEFPOINTS
 62
     0
 48
50.0
100
AcDbPoint
 10
8269.673057123657
 20
4677.931598713261
 30
0.0
  0
POINT
  5
19E66
330
19B95
100
AcDbEntity
  8
DEFPOINTS
 62
     0
 48
50.0
100
AcDbPoint
 10
8557.216159445404
 20
4677.931598713261
 30
0.0
  0
ENDBLK
  5
19BA1
330
19B95
100
AcDbEntity
  8
0
 48
50.0
100
AcDbBlockEnd
  0
BLOCK
  5
19E15
330
19E12
100
AcDbEntity
  8
0
 48
50.0
100
AcDbBlockBegin
  2
A$C1FE719AA
 70
     0
 10
0.0
 20
0.0
 30
0.0
  3
A$C1FE719AA
  1

  0
SPLINE
  5
19E13
330
19E12
100
AcDbEntity
  8
部品1
 48
50.0
100
AcDbSpline
210
0.0
220
0.0
230
1.0
 70
     8
 71
     3
 72
    10
 73
     6
 74
     4
 42
0.0000000001
 43
0.0000000001
 44
0.0000000001
 40
0.0
 40
0.0
 40
0.0
 40
0.0
 40
147.8767566010009
 40
301.8091093202477
 40
466.5049223087716
 40
466.5049223087716
 40
466.5049223087716
 40
466.5049223087716
 10
67.57032773305036
 20
81.24115252579395
 30
0.0
 10
-9.311354761784436
 20
72.33671886795598
 30
0.0
 10
-166.2230469719117
 20
54.16321240862427
 30
0.0
 10
156.5903629724302
 20
-48.3573722307187
 30
0.0
 10
-13.25225669694174
 20
-66.99246094292213
 30
0.0
 10
-101.0422619038345
 20
-76.62475782023102
 30
0.0
 11
67.57032773305036
 21
81.24115252579395
 31
0.0
 11
-75.26765057571902
 21
42.96783158946527
 31
0.0
 11
58.04167734345537
 21
-33.99834477015793
 31
0.0
 11
-101.0422619038345
 21
-76.62475782023102
 31
0.0
  0
LINE
  5
19E14
330
19E12
100
AcDbEntity
  8
部品1
 48
50.0
100
AcDbLine
 10
46.5327395555505
 20
173.6625482366835
 30
0.0
 11
-46.5327395555505
 21
-173.6625482366816
 31
0.0
  0
ENDBLK
  5
19E16
330
19E12
100
AcDbEntity
  8
0
 48
50.0
100
AcDbBlockEnd
  0
ENDSEC
  0
SECTION
  2
ENTITIES
  0
MTEXT
  5
763F
330
747D
100
AcDbEntity
  8
0
100
AcDbMText
 10
302.846345836809
 20
280.1983726409901
 30
0.0
 40
3.5
 41
5.323721266742722
 71
     1
 72
     5
  1

  7
MSMINCHO
 73
     1
 44
1.0
1001
ACAD
1000
MTEXTBEGIN
1070
    73
1070
     1
1070
    44
1040
1.0
1070
    74
1070
     0
1000
MTEXTEND
  0
LINE
  5
10B57
330
747D
100
AcDbEntity
  8
補助
  6
PHANTOM
 62
   230
 48
50.0
100
AcDbLine
 10
139.9999999999995
 20
11409.6
 30
0.0
 11
16307.2
 21
11409.6
 31
0.0
  0
LINE
  5
10B59
330
747D
100
AcDbEntity
  8
仕様書枠
  6
Continuous
 48
50.0
100
AcDbLine
 10
13107.2
 20
1200.0
 30
0.0
 11
13107.2
 21
-0.0000000000000729
 31
0.0
  0
LINE
  5
10B5C
330
747D
100
AcDbEntity
  8
仕様書枠
 48
50.0
100
AcDbLine
 10
16307.2
 20
1200.0
 30
0.0
 11
16307.2
 21
-0.0000000000000909
 31
0.0
  0
LINE
  5
10B5D
330
747D
100
AcDbEntity
  8
仕様書枠
 48
50.0
100
AcDbLine
 10
140.0
 20
0.0
 30
0.0
 11
16307.2
 21
-0.0000000000000909
 31
0.0
  0
LINE
  5
10B5E
330
747D
100
AcDbEntity
  8
補助
  6
PHANTOM
 62
   230
 48
50.0
100
AcDbLine
 10
16307.2
 20
11409.6
 30
0.0
 11
16307.2
 21
1200.0
 31
0.0
  0
LINE
  5
10B6C
330
747D
100
AcDbEntity
  8
仕様書枠
 48
50.0
100
AcDbLine
 10
13107.2
 20
1200.0
 30
0.0
 11
16307.2
 21
1200.0
 31
0.0
  0
LINE
  5
10B6D
330
747D
100
AcDbEntity
  8
補助
  6
PHANTOM
 62
   230
 48
50.0
100
AcDbLine
 10
13107.2
 20
11409.6
 30
0.0
 11
13107.2
 21
4800.0
 31
0.0
  0
LINE
  5
10B6F
330
747D
100
AcDbEntity
  8
補助
  6
PHANTOM
 62
   230
 48
50.0
100
AcDbLine
 10
13107.2
 20
4800.0
 30
0.0
 11
16307.2
 21
4800.0
 31
0.0
  0
LINE
  5
10B72
330
747D
100
AcDbEntity
  8
文字
 62
     7
 48
50.0
100
AcDbLine
 10
13187.2
 20
400.0
 30
0.0
 11
16227.2
 21
400.0
 31
0.0
  0
TEXT
  5
10B73
330
747D
100
AcDbEntity
  8
文字
 62
     7
 48
50.0
100
AcDbText
 10
13162.9790565769
 20
895.0906074299405
 30
0.0
 40
200.0
  1
外 形 図
  7
STYLE2
100
AcDbText
  0
TEXT
  5
10B74
330
747D
100
AcDbEntity
  8
文字
 62
     7
 48
50.0
100
AcDbText
 10
13201.43669998441
 20
477.2740661031255
 30
0.0
 40
160.0
  1
機種名
  7
STYLE2
100
AcDbText
  0
TEXT
  5
10B75
330
747D
100
AcDbEntity
  8
文字
 62
     7
 48
50.0
100
AcDbText
 10
13209.4053442172
 20
228.5435242569016
 30
0.0
 40
100.0
  1
○有効開口寸法 ： 1584×1948(mm)
  7
STYLE2
100
AcDbText
  0
TEXT
  5
10B76
330
747D
100
AcDbEntity
  8
文字
 62
     7
 48
50.0
100
AcDbText
 10
13209.4053442172
 20
66.98032921074918
 30
0.0
 40
100.0
  1
○床面積 ： Ｎ［連続数］×4.70㎡(1.43坪)
  7
STYLE2
100
AcDbText
  0
TEXT
  5
10B79
330
747D
100
AcDbEntity
  8
文字
 62
     7
 48
50.0
100
AcDbText
 10
14524.131837222
 20
1031.557706291228
 30
0.0
 40
100.0
  1
NO.18      <縮尺> S=1/40
  7
STYLE2
100
AcDbText
  0
LINE
  5
10B7B
330
747D
100
AcDbEntity
  8
仕様書枠
 48
50.0
100
AcDbLine
 10
13107.2
 20
800.0
 30
0.0
 11
14251.2
 21
800.0
 31
0.0
  0
LINE
  5
10B88
330
747D
100
AcDbEntity
  8
仕様書枠
  6
Continuous
 48
50.0
100
AcDbLine
 10
14251.2
 20
1200.0
 30
0.0
 11
14251.2
 21
800.0
 31
0.0
  0
TEXT
  5
10BB0
330
747D
100
AcDbEntity
  8
文字
 62
     7
 48
50.0
100
AcDbText
 10
14280.42206500391
 20
483.8967129911414
 30
0.0
 40
160.0
  1
FXN-1726HL-N
  7
MSPゴシック
100
AcDbText
  0
LINE
  5
127A8
330
747D
100
AcDbEntity
  8
部品1
100
AcDbLine
 10
1910.903465777273
 20
2567.835409280926
 30
0.0
 11
2060.903465777274
 21
2567.835409280926
 31
0.0
  0
LINE
  5
127A9
330
747D
100
AcDbEntity
  8
部品1
100
AcDbLine
 10
1985.903465777273
 20
2437.931598713261
 30
0.0
 11
1910.903465777273
 21
2567.835409280926
 31
0.0
  0
TEXT
  5
127AA
330
747D
100
AcDbEntity
  8
部品1
100
AcDbText
 10
2089.008407902047
 20
2474.038502319163
 30
0.0
 40
125.0
  1
G.L
  7
MSGOTHIC
100
AcDbText
  0
LINE
  5
127AB
330
747D
100
AcDbEntity
  8
部品1
100
AcDbLine
 10
2060.903465777274
 20
2567.835409280926
 30
0.0
 11
1985.903465777273
 21
2437.931598713261
 31
0.0
  0
LINE
  5
13C1F
330
747D
100
AcDbEntity
  8
部品1
100
AcDbLine
 10
2899.673057123657
 20
4771.931598713268
 30
0.0
 11
2899.673057123657
 21
2437.931598713261
 31
0.0
  0
LINE
  5
13CFC
330
747D
100
AcDbEntity
  8
部品1
100
AcDbLine
 10
8214.673057123658
 20
4512.931598713261
 30
0.0
 11
8214.673057123654
 21
2537.931598713262
 31
0.0
  0
LINE
  5
13CFE
330
747D
100
AcDbEntity
  8
部品1
100
AcDbLine
 10
2954.673057123656
 20
4512.931598713261
 30
0.0
 11
2954.673057123656
 21
2537.931598713262
 31
0.0
  0
LINE
  5
13D18
330
747D
100
AcDbEntity
  8
部品1
100
AcDbLine
 10
8269.673057123657
 20
4771.931598713269
 30
0.0
 11
8269.673057123657
 21
2437.931598713261
 31
0.0
  0
LINE
  5
146B2
330
747D
100
AcDbEntity
  8
破線
 48
5.0
100
AcDbLine
 10
8269.673057123657
 20
2437.931598713261
 30
0.0
 11
8269.673057123657
 21
2187.931598713261
 31
0.0
  0
LINE
  5
146B3
330
747D
100
AcDbEntity
  8
破線
 48
5.0
100
AcDbLine
 10
2899.673057123657
 20
2437.931598713261
 30
0.0
 11
2899.673057123656
 21
2187.931598713261
 31
0.0
  0
TEXT
  5
149A1
330
747D
100
AcDbEntity
  8
部品1
100
AcDbText
 10
5303.990718034578
 20
1595.038069494737
 30
0.0
 40
135.0
  1
正面図
  7
MSGOTHIC
100
AcDbText
  0
LWPOLYLINE
  5
149A2
330
747D
100
AcDbEntity
  8
部品1
100
AcDbPolyline
 90
        4
 70
     1
 43
0.0
 10
5213.465314296623
 20
1787.931598713262
 10
5213.465314296623
 20
1548.039277167729
 10
5976.935980525062
 20
1548.039277167729
 10
5976.935980525062
 20
1787.931598713262
  0
TEXT
  5
14E88
330
747D
100
AcDbEntity
  8
部品1
100
AcDbText
 10
5303.384924125661
 20
6295.843560181943
 30
0.0
 40
135.0
  1
平面図
  7
MSGOTHIC
100
AcDbText
  0
LWPOLYLINE
  5
14E89
330
747D
100
AcDbEntity
  8
部品1
100
AcDbPolyline
 90
        4
 70
     1
 43
0.0
 10
5213.465314296623
 20
6488.737089400465
 10
5213.465314296623
 20
6248.844767854933
 10
5976.935980525063
 20
6248.844767854933
 10
5976.935980525063
 20
6488.737089400465
  0
TEXT
  5
15550
330
747D
100
AcDbEntity
  8
文字
 62
     7
 48
50.0
100
AcDbText
 10
14659.31906557701
 20
871.9640646083623
 30
0.0
 40
100.0
  1
～一般型・多雪地型～
  7
STYLE2
100
AcDbText
  0
LINE
  5
15CE5
330
747D
100
AcDbEntity
  8
破線
 48
5.0
100
AcDbLine
 10
8214.673057123654
 20
2537.931598713262
 30
0.0
 11
8214.673057123658
 21
2187.931598713261
 31
0.0
  0
LINE
  5
15CE6
330
747D
100
AcDbEntity
  8
破線
 48
5.0
100
AcDbLine
 10
2954.673057123656
 20
2537.931598713262
 30
0.0
 11
2954.673057123656
 21
2187.931598713261
 31
0.0
  0
LINE
  5
15CE7
330
747D
100
AcDbEntity
  8
破線
 48
5.0
100
AcDbLine
 10
8269.673057123656
 20
2187.931598713261
 30
0.0
 11
8214.673057123658
 21
2187.931598713261
 31
0.0
  0
LINE
  5
15CE8
330
747D
100
AcDbEntity
  8
破線
 48
5.0
100
AcDbLine
 10
2954.673057123655
 20
2187.931598713269
 30
0.0
 11
2899.673057123656
 21
2187.931598713269
 31
0.0
  0
LINE
  5
15CE9
330
747D
100
AcDbEntity
  8
部品1
100
AcDbLine
 10
3002.673057123657
 20
4512.931598713261
 30
0.0
 11
3002.673057123657
 21
2537.931598713262
 31
0.0
  0
LINE
  5
15CEA
330
747D
100
AcDbEntity
  8
破線
 48
5.0
100
AcDbLine
 10
3002.673057123657
 20
2537.931598713262
 30
0.0
 11
3002.673057123655
 21
2287.931598713267
 31
0.0
  0
LINE
  5
15CEB
330
747D
100
AcDbEntity
  8
部品1
100
AcDbLine
 10
8166.673057123658
 20
4512.931598713262
 30
0.0
 11
8166.673057123656
 21
2537.931598713262
 31
0.0
  0
LINE
  5
15CEC
330
747D
100
AcDbEntity
  8
破線
 48
5.0
100
AcDbLine
 10
8166.673057123656
 20
2537.931598713262
 30
0.0
 11
8166.673057123658
 21
2287.931598713262
 31
0.0
  0
LINE
  5
15CED
330
747D
100
AcDbEntity
  8
破線
 48
5.0
100
AcDbLine
 10
8214.673057123659
 20
2287.931598713262
 30
0.0
 11
8166.673057123658
 21
2287.931598713262
 31
0.0
  0
LINE
  5
15CEE
330
747D
100
AcDbEntity
  8
破線
 48
5.0
100
AcDbLine
 10
3002.673057123656
 20
2287.931598713267
 30
0.0
 11
2954.673057123655
 21
2287.931598713267
 31
0.0
  0
LINE
  5
15D20
330
747D
100
AcDbEntity
  8
細線
100
AcDbLine
 10
6582.673057123654
 20
4172.931598713261
 30
0.0
 11
8166.673057123656
 21
4172.931598713261
 31
0.0
  0
LINE
  5
15D21
330
747D
100
AcDbEntity
  8
細線
100
AcDbLine
 10
6582.673057123654
 20
4237.931598713261
 30
0.0
 11
8166.673057123656
 21
4237.931598713261
 31
0.0
  0
LINE
  5
15D22
330
747D
100
AcDbEntity
  8
細線
100
AcDbLine
 10
6582.673057123654
 20
4302.931598713261
 30
0.0
 11
8166.673057123656
 21
4302.931598713261
 31
0.0
  0
LINE
  5
15D23
330
747D
100
AcDbEntity
  8
細線
100
AcDbLine
 10
6582.673057123654
 20
3782.931598713262
 30
0.0
 11
8166.673057123656
 21
3782.931598713262
 31
0.0
  0
LINE
  5
15D24
330
747D
100
AcDbEntity
  8
細線
100
AcDbLine
 10
6582.673057123654
 20
3847.931598713262
 30
0.0
 11
8166.673057123656
 21
3847.931598713262
 31
0.0
  0
LINE
  5
15D25
330
747D
100
AcDbEntity
  8
細線
100
AcDbLine
 10
6582.673057123654
 20
3912.931598713262
 30
0.0
 11
8166.673057123656
 21
3912.931598713262
 31
0.0
  0
LINE
  5
15D26
330
747D
100
AcDbEntity
  8
細線
100
AcDbLine
 10
6582.673057123654
 20
3977.931598713261
 30
0.0
 11
8166.673057123656
 21
3977.931598713261
 31
0.0
  0
LINE
  5
15D27
330
747D
100
AcDbEntity
  8
細線
100
AcDbLine
 10
6582.673057123654
 20
4042.931598713261
 30
0.0
 11
8166.673057123656
 21
4042.931598713261
 31
0.0
  0
LINE
  5
15D28
330
747D
100
AcDbEntity
  8
細線
100
AcDbLine
 10
6582.673057123654
 20
4107.931598713261
 30
0.0
 11
8166.673057123656
 21
4107.931598713261
 31
0.0
  0
LINE
  5
15D29
330
747D
100
AcDbEntity
  8
細線
100
AcDbLine
 10
6582.673057123654
 20
3132.931598713261
 30
0.0
 11
8166.673057123656
 21
3132.931598713261
 31
0.0
  0
LINE
  5
15D2A
330
747D
100
AcDbEntity
  8
細線
100
AcDbLine
 10
6582.673057123654
 20
3197.931598713262
 30
0.0
 11
8166.673057123656
 21
3197.931598713262
 31
0.0
  0
LINE
  5
15D2B
330
747D
100
AcDbEntity
  8
細線
100
AcDbLine
 10
6582.673057123654
 20
3262.931598713262
 30
0.0
 11
8166.673057123656
 21
3262.931598713262
 31
0.0
  0
LINE
  5
15D2C
330
747D
100
AcDbEntity
  8
細線
100
AcDbLine
 10
6582.673057123654
 20
3327.931598713262
 30
0.0
 11
8166.673057123656
 21
3327.931598713262
 31
0.0
  0
LINE
  5
15D2D
330
747D
100
AcDbEntity
  8
細線
100
AcDbLine
 10
6582.673057123654
 20
3392.931598713261
 30
0.0
 11
8166.673057123656
 21
3392.931598713261
 31
0.0
  0
LINE
  5
15D2E
330
747D
100
AcDbEntity
  8
細線
100
AcDbLine
 10
6582.673057123654
 20
3457.931598713262
 30
0.0
 11
8166.673057123656
 21
3457.931598713262
 31
0.0
  0
LINE
  5
15D2F
330
747D
100
AcDbEntity
  8
細線
100
AcDbLine
 10
6582.673057123654
 20
3522.931598713262
 30
0.0
 11
8166.673057123656
 21
3522.931598713262
 31
0.0
  0
LINE
  5
15D30
330
747D
100
AcDbEntity
  8
細線
100
AcDbLine
 10
6582.673057123654
 20
3587.931598713261
 30
0.0
 11
8166.673057123656
 21
3587.931598713261
 31
0.0
  0
LINE
  5
15D31
330
747D
100
AcDbEntity
  8
細線
100
AcDbLine
 10
6582.673057123654
 20
3652.931598713261
 30
0.0
 11
8166.673057123656
 21
3652.931598713261
 31
0.0
  0
LINE
  5
15D32
330
747D
100
AcDbEntity
  8
細線
100
AcDbLine
 10
6582.673057123654
 20
3717.931598713261
 30
0.0
 11
8166.673057123656
 21
3717.931598713261
 31
0.0
  0
LINE
  5
15D33
330
747D
100
AcDbEntity
  8
細線
100
AcDbLine
 10
6582.673057123654
 20
4432.931598713262
 30
0.0
 11
8166.673057123656
 21
4432.931598713262
 31
0.0
  0
LINE
  5
15D34
330
747D
100
AcDbEntity
  8
細線
100
AcDbLine
 10
6582.673057123654
 20
4497.931598713261
 30
0.0
 11
8166.673057123656
 21
4497.931598713261
 31
0.0
  0
LINE
  5
15D35
330
747D
100
AcDbEntity
  8
細線
100
AcDbLine
 10
6582.673057123654
 20
4367.931598713261
 30
0.0
 11
8166.673057123656
 21
4367.931598713261
 31
0.0
  0
LINE
  5
15D36
330
747D
100
AcDbEntity
  8
細線
100
AcDbLine
 10
6582.673057123654
 20
2547.931598713262
 30
0.0
 11
8166.673057123656
 21
2547.931598713262
 31
0.0
  0
LINE
  5
15D37
330
747D
100
AcDbEntity
  8
細線
100
AcDbLine
 10
6582.673057123654
 20
2612.931598713262
 30
0.0
 11
8166.673057123656
 21
2612.931598713262
 31
0.0
  0
LINE
  5
15D38
330
747D
100
AcDbEntity
  8
細線
100
AcDbLine
 10
6582.673057123654
 20
2677.931598713261
 30
0.0
 11
8166.673057123656
 21
2677.931598713261
 31
0.0
  0
LINE
  5
15D39
330
747D
100
AcDbEntity
  8
細線
100
AcDbLine
 10
6582.673057123654
 20
2742.931598713262
 30
0.0
 11
8166.673057123656
 21
2742.931598713262
 31
0.0
  0
LINE
  5
15D3A
330
747D
100
AcDbEntity
  8
細線
100
AcDbLine
 10
6582.673057123654
 20
2807.931598713262
 30
0.0
 11
8166.673057123656
 21
2807.931598713262
 31
0.0
  0
LINE
  5
15D3B
330
747D
100
AcDbEntity
  8
細線
100
AcDbLine
 10
6582.673057123654
 20
2872.931598713261
 30
0.0
 11
8166.673057123656
 21
2872.931598713261
 31
0.0
  0
LINE
  5
15D3C
330
747D
100
AcDbEntity
  8
細線
100
AcDbLine
 10
6582.673057123654
 20
2937.931598713261
 30
0.0
 11
8166.673057123656
 21
2937.931598713261
 31
0.0
  0
LINE
  5
15D3D
330
747D
100
AcDbEntity
  8
細線
100
AcDbLine
 10
6582.673057123654
 20
3002.931598713261
 30
0.0
 11
8166.673057123656
 21
3002.931598713261
 31
0.0
  0
LINE
  5
15D3E
330
747D
100
AcDbEntity
  8
細線
100
AcDbLine
 10
6582.673057123654
 20
3067.931598713262
 30
0.0
 11
8166.673057123656
 21
3067.931598713262
 31
0.0
  0
LINE
  5
15D3F
330
747D
100
AcDbEntity
  8
細線
100
AcDbLine
 10
8166.673057123658
 20
2547.931598713262
 30
0.0
 11
6582.673057123651
 21
2547.931598713262
 31
0.0
  0
DIMENSION
  5
162CD
330
747D
100
AcDbEntity
  8
寸法
100
AcDbDimension
  2
*D1
 10
8917.099402858069
 20
7690.962125876882
 30
0.0
 11
8817.087591834447
 21
8950.962125876891
 31
0.0
 70
    32
  1
6X420=<>
 71
     5
 42
2520.000000000015
  3
INABA_S40G
100
AcDbAlignedDimension
 13
8269.673057123664
 23
10210.96212587689
 33
0.0
 14
8269.673057123638
 24
7690.962125876882
 34
0.0
 50
90.0
100
AcDbRotatedDimension
1001
ACAD
1000
DSTYLE
1002
{
1002
}
  0
DIMENSION
  5
162CE
330
747D
100
AcDbEntity
  8
寸法
100
AcDbDimension
  2
*D2
 10
8917.099402858049
 20
7635.962125876885
 30
0.0
 11
8917.099402858047
 21
7258.100658972023
 31
0.0
 70
   160
 71
     5
 42
54.99999999999636
  3
INABA_S40G
100
AcDbAlignedDimension
 13
8269.673057123638
 23
7690.962125876882
 33
0.0
 14
8269.673057123638
 24
7635.962125876885
 34
0.0
 50
90.0
100
AcDbRotatedDimension
1001
ACAD
1000
DSTYLE
1002
{
1002
}
  0
DIMENSION
  5
162CF
330
747D
100
AcDbEntity
  8
寸法
100
AcDbDimension
  2
*D3
 10
8917.099402858076
 20
10210.96212587689
 30
0.0
 11
8917.099402858074
 21
10574.44740725113
 31
0.0
 70
   160
 71
     5
 42
54.99999999999636
  3
INABA_S40G
100
AcDbAlignedDimension
 13
8269.673057123664
 23
10265.96212587689
 33
0.0
 14
8269.673057123664
 24
10210.96212587689
 34
0.0
 50
90.0
100
AcDbRotatedDimension
1001
ACAD
1000
DSTYLE
1002
{
1002
}
  0
DIMENSION
  5
162D0
330
747D
100
AcDbEntity
  8
寸法
100
AcDbDimension
  2
*D4
 10
9282.206344597708
 20
7635.962125876885
 30
0.0
 11
9182.194533574087
 21
8950.962125876891
 31
0.0
 70
    32
 71
     5
 42
2630.000000000007
  3
INABA_S40G
100
AcDbAlignedDimension
 13
8269.673057123664
 23
10265.96212587689
 33
0.0
 14
8269.673057123638
 24
7635.962125876885
 34
0.0
 50
90.0
100
AcDbRotatedDimension
1001
ACAD
1000
DSTYLE
1002
{
1002
}
  0
LINE
  5
162DC
330
747D
100
AcDbEntity
  8
部品1
100
AcDbLine
 10
8241.673057123646
 20
10237.96212587689
 30
0.0
 11
8241.673057123639
 21
7690.962125876882
 31
0.0
  0
LINE
  5
162DD
330
747D
100
AcDbEntity
  8
部品1
100
AcDbLine
 10
2927.673057123639
 20
7690.962125876751
 30
0.0
 11
2927.67305712365
 21
10237.9621258768
 31
0.0
  0
LINE
  5
162DE
330
747D
100
AcDbEntity
  8
部品1
100
AcDbLine
 10
8269.673057123664
 20
10265.96212587689
 30
0.0
 11
8269.673057123638
 21
7635.962125876885
 31
0.0
  0
LINE
  5
162DF
330
747D
100
AcDbEntity
  8
部品1
100
AcDbLine
 10
2899.67305712363
 20
10265.96212587676
 30
0.0
 11
2899.673057123657
 21
7635.962125876755
 31
0.0
  0
DIMENSION
  5
162E4
330
747D
100
AcDbEntity
  8
寸法
 48
50.0
100
AcDbDimension
  2
*D5
 10
6582.673057123656
 20
7101.53135511063
 30
0.0
 11
7374.673057123648
 21
7301.53135511063
 31
0.0
 70
    32
  1
有効開口部間口\P <>
 71
     5
 42
1583.999999999982
  3
INABA_S40G
100
AcDbAlignedDimension
 13
8166.673057123638
 23
7661.962125876795
 33
0.0
 14
6582.673057123656
 24
7661.962125876794
 34
0.0
100
AcDbRotatedDimension
1001
ACAD
1000
DSTYLE
1002
{
1070
    75
1070
     1
1070
   279
1070
     2
1002
}
  0
LINE
  5
162E6
330
747D
100
AcDbEntity
  8
部品1
 48
50.0
100
AcDbLine
 10
6546.673057123655
 20
7681.462125876793
 30
0.0
 11
8202.673057123639
 21
7681.462125876793
 31
0.0
  0
DIMENSION
  5
162E7
330
747D
100
AcDbEntity
  8
寸法
100
AcDbDimension
  2
*D6
 10
8269.673057123627
 20
6655.358359519756
 30
0.0
 11
5584.673057123642
 21
6755.358359519757
 31
0.0
 70
    32
  1
N X 1790
 71
     5
 42
5369.999999999971
  3
INABA_S40G
100
AcDbAlignedDimension
 13
2899.673057123657
 23
7635.962125876755
 33
0.0
 14
8269.673057123627
 24
7635.962125876885
 34
0.0
100
AcDbRotatedDimension
1001
ACAD
1000
DSTYLE
1002
{
1002
}
  0
LINE
  5
162E8
330
747D
100
AcDbEntity
  8
部品1
100
AcDbLine
 10
2954.673057123633
 20
10210.96212587681
 30
0.0
 11
2954.673057123656
 21
7700.962125876793
 31
0.0
  0
LINE
  5
162E9
330
747D
100
AcDbEntity
  8
部品1
100
AcDbLine
 10
2979.673057123635
 20
10210.96212587681
 30
0.0
 11
2979.673057123656
 21
7700.962125876793
 31
0.0
  0
DIMENSION
  5
162EA
330
747D
100
AcDbEntity
  8
寸法
 48
50.0
100
AcDbDimension
  2
*D7
 10
2899.673057123657
 20
7101.53135511063
 30
0.0
 11
2591.187775749419
 21
7101.53135511063
 31
0.0
 70
   160
 71
     5
 42
54.99999999999636
  3
INABA_S40G
100
AcDbAlignedDimension
 13
2954.673057123654
 23
7635.962125876794
 33
0.0
 14
2899.673057123657
 24
7635.962125876791
 34
0.0
100
AcDbRotatedDimension
1001
ACAD
1000
DSTYLE
1002
{
1002
}
  0
DIMENSION
  5
162EB
330
747D
100
AcDbEntity
  8
寸法
 48
50.0
100
AcDbDimension
  2
*D8
 10
6534.673057123653
 20
7101.53135511063
 30
0.0
 11
6695.575028123714
 21
7201.53135511063
 31
0.0
 70
   160
 71
     5
 42
48.00000000000363
  3
INABA_S40G
100
AcDbAlignedDimension
 13
6582.673057123656
 23
7661.962125876794
 33
0.0
 14
6534.673057123653
 24
7635.962125876794
 34
0.0
100
AcDbRotatedDimension
1001
ACAD
1000
DSTYLE
1002
{
1070
   279
1070
     2
1002
}
  0
LINE
  5
162EC
330
747D
100
AcDbEntity
  8
部品1
100
AcDbLine
 10
2954.673057123652
 20
7635.962125876794
 30
0.0
 11
2899.673057123657
 21
7635.962125876791
 31
0.0
  0
LINE
  5
162ED
330
747D
100
AcDbEntity
  8
部品1
 48
50.0
100
AcDbLine
 10
2954.673057123657
 20
7671.962125876793
 30
0.0
 11
2931.673057123657
 21
7671.962125876793
 31
0.0
  0
LINE
  5
162EE
330
747D
100
AcDbEntity
  8
部品1
 48
50.0
100
AcDbLine
 10
2964.673057123657
 20
7661.962125876794
 30
0.0
 11
2954.673057123657
 21
7640.962125876794
 31
0.0
  0
LINE
  5
162EF
330
747D
100
AcDbEntity
  8
部品1
 48
50.0
100
AcDbLine
 10
2954.673057123657
 20
7700.962125876793
 30
0.0
 11
2954.673057123654
 21
7635.962125876794
 31
0.0
  0
LINE
  5
162F0
330
747D
100
AcDbEntity
  8
部品1
 48
50.0
100
AcDbLine
 10
3002.673057123657
 20
7661.962125876795
 30
0.0
 11
3002.673057123657
 21
7670.962125876795
 31
0.0
  0
LINE
  5
162F1
330
747D
100
AcDbEntity
  8
部品1
 48
50.0
100
AcDbLine
 10
3002.673057123657
 20
7700.962125876795
 30
0.0
 11
3002.673057123657
 21
7691.962125876795
 31
0.0
  0
LINE
  5
162F2
330
747D
100
AcDbEntity
  8
部品1
100
AcDbLine
 10
3002.673057123657
 20
7700.962125876795
 30
0.0
 11
2954.673057123657
 21
7700.962125876793
 31
0.0
  0
LINE
  5
162F3
330
747D
100
AcDbEntity
  8
部品1
100
AcDbLine
 10
3002.673057123657
 20
7661.962125876795
 30
0.0
 11
2954.673057123657
 21
7661.962125876794
 31
0.0
  0
LINE
  5
162F4
330
747D
100
AcDbEntity
  8
部品1
100
AcDbLine
 10
2954.673057123656
 20
7671.962125876793
 30
0.0
 11
2931.673057123657
 21
7671.962125876793
 31
0.0
  0
LINE
  5
162F5
330
747D
100
AcDbEntity
  8
部品1
100
AcDbLine
 10
2954.673057123656
 20
7690.962125876719
 30
0.0
 11
2899.673057123655
 21
7690.962125876719
 31
0.0
  0
LINE
  5
162F6
330
747D
100
AcDbEntity
  8
部品1
100
AcDbLine
 10
2927.673057123639
 20
7690.962125876755
 30
0.0
 11
2899.673057123655
 21
7690.962125876755
 31
0.0
  0
LINE
  5
162F7
330
747D
100
AcDbEntity
  8
部品1
100
AcDbLine
 10
2927.673057123655
 20
7690.96212587677
 30
0.0
 11
2899.673057123655
 21
7690.96212587677
 31
0.0
  0
LINE
  5
162FB
330
747D
100
AcDbEntity
  8
部品1
100
AcDbLine
 10
2927.673057123645
 20
8110.962125876769
 30
0.0
 11
2899.673057123644
 21
8110.962125876769
 31
0.0
  0
LINE
  5
162FC
330
747D
100
AcDbEntity
  8
部品1
100
AcDbLine
 10
2927.673057123645
 20
8530.962125876769
 30
0.0
 11
2899.673057123644
 21
8530.962125876769
 31
0.0
  0
LINE
  5
162FE
330
747D
100
AcDbEntity
  8
部品1
100
AcDbLine
 10
2927.673057123637
 20
8950.962125876769
 30
0.0
 11
2899.673057123637
 21
8950.962125876769
 31
0.0
  0
LINE
  5
162FF
330
747D
100
AcDbEntity
  8
部品1
100
AcDbLine
 10
8214.673057123659
 20
10210.96212587681
 30
0.0
 11
8214.67305712364
 21
7635.962125876883
 31
0.0
  0
LINE
  5
16300
330
747D
100
AcDbEntity
  8
部品1
100
AcDbLine
 10
8189.673057123664
 20
10210.96212587681
 30
0.0
 11
8189.67305712364
 21
7700.962125876793
 31
0.0
  0
DIMENSION
  5
16301
330
747D
100
AcDbEntity
  8
寸法
 48
50.0
100
AcDbDimension
  2
*D9
 10
8166.673057123638
 20
7101.53135511063
 30
0.0
 11
8055.710159474891
 21
7201.53135511063
 31
0.0
 70
   160
 71
     5
 42
48.00000000000181
  3
INABA_S40G
100
AcDbAlignedDimension
 13
8214.67305712364
 23
7635.962125876883
 33
0.0
 14
8166.673057123638
 24
7661.962125876795
 34
0.0
100
AcDbRotatedDimension
1001
ACAD
1000
DSTYLE
1002
{
1070
   279
1070
     2
1002
}
  0
DIMENSION
  5
16302
330
747D
100
AcDbEntity
  8
寸法
 48
50.0
100
AcDbDimension
  2
*D10
 10
8214.67305712364
 20
7101.531355110632
 30
0.0
 11
8578.158338497877
 21
7101.531355110632
 31
0.0
 70
   160
 71
     5
 42
54.99999999999818
  3
INABA_S40G
100
AcDbAlignedDimension
 13
8269.673057123638
 23
7635.962125876885
 33
0.0
 14
8214.67305712364
 24
7635.962125876883
 34
0.0
100
AcDbRotatedDimension
1001
ACAD
1000
DSTYLE
1002
{
1002
}
  0
LINE
  5
16303
330
747D
100
AcDbEntity
  8
部品1
 48
50.0
100
AcDbLine
 10
8204.673057123638
 20
7661.962125876794
 30
0.0
 11
8214.673057123638
 21
7640.962125876794
 31
0.0
  0
LINE
  5
16304
330
747D
100
AcDbEntity
  8
部品1
100
AcDbLine
 10
8166.673057123638
 20
7700.962125876795
 30
0.0
 11
8214.67305712364
 21
7700.962125876793
 31
0.0
  0
LINE
  5
16305
330
747D
100
AcDbEntity
  8
部品1
100
AcDbLine
 10
8166.673057123638
 20
7661.962125876795
 30
0.0
 11
8214.673057123638
 21
7661.962125876794
 31
0.0
  0
LINE
  5
16306
330
747D
100
AcDbEntity
  8
部品1
 48
50.0
100
AcDbLine
 10
8166.673057123638
 20
7700.962125876795
 30
0.0
 11
8166.673057123638
 21
7691.962125876795
 31
0.0
  0
LINE
  5
16307
330
747D
100
AcDbEntity
  8
部品1
 48
50.0
100
AcDbLine
 10
8166.673057123638
 20
7661.962125876795
 30
0.0
 11
8166.673057123638
 21
7670.962125876795
 31
0.0
  0
LINE
  5
16308
330
747D
100
AcDbEntity
  8
部品1
100
AcDbLine
 10
8214.673057123638
 20
7671.962125876792
 30
0.0
 11
8237.67305712364
 21
7671.962125876793
 31
0.0
  0
LINE
  5
16309
330
747D
100
AcDbEntity
  8
部品1
100
AcDbLine
 10
8214.673057123638
 20
7690.962125876897
 30
0.0
 11
8269.673057123672
 21
7690.962125876897
 31
0.0
  0
LINE
  5
1630A
330
747D
100
AcDbEntity
  8
部品1
100
AcDbLine
 10
8269.673057123638
 20
7635.962125876885
 30
0.0
 11
8214.67305712364
 21
7635.962125876883
 31
0.0
  0
LINE
  5
16317
330
747D
100
AcDbEntity
  8
部品1
100
AcDbLine
 10
8241.673057123668
 20
8110.962125876897
 30
0.0
 11
8269.673057123666
 21
8110.962125876897
 31
0.0
  0
LINE
  5
16319
330
747D
100
AcDbEntity
  8
部品1
100
AcDbLine
 10
8241.673057123668
 20
8530.962125876897
 30
0.0
 11
8269.673057123666
 21
8530.962125876897
 31
0.0
  0
LINE
  5
1631A
330
747D
100
AcDbEntity
  8
部品1
100
AcDbLine
 10
8241.673057123664
 20
8950.962125876896
 30
0.0
 11
8269.673057123664
 21
8950.962125876896
 31
0.0
  0
LINE
  5
1631B
330
747D
100
AcDbEntity
  8
部品1
100
AcDbLine
 10
6534.673057123663
 20
10237.96212587691
 30
0.0
 11
7362.173057123661
 21
10237.96212587691
 31
0.0
  0
LINE
  5
1631C
330
747D
100
AcDbEntity
  8
部品1
100
AcDbLine
 10
6507.673057123664
 20
10237.9621258768
 30
0.0
 11
7164.673057123663
 21
10237.9621258768
 31
0.0
  0
LINE
  5
1631D
330
747D
100
AcDbEntity
  8
部品1
100
AcDbLine
 10
2899.673057123663
 20
10265.9621258768
 30
0.0
 11
8269.673057123666
 21
10265.96212587689
 31
0.0
  0
DIMENSION
  5
1631F
330
747D
100
AcDbEntity
  8
寸法
100
AcDbDimension
  2
*D11
 10
8214.673057123665
 20
10481.77034550189
 30
0.0
 11
7374.673057123664
 21
10581.78215652552
 31
0.0
 70
    32
  1
4X420=<>
 71
     5
 42
1680.000000000001
  3
INABA_S40G
100
AcDbAlignedDimension
 13
6534.673057123663
 23
10265.9621258768
 33
0.0
 14
8214.673057123665
 24
10265.96212587689
 34
0.0
100
AcDbRotatedDimension
1001
ACAD
1000
DSTYLE
1002
{
1002
}
  0
DIMENSION
  5
16320
330
747D
100
AcDbEntity
  8
寸法
100
AcDbDimension
  2
*D12
 10
2954.673057123664
 20
10481.77034550178
 30
0.0
 11
2591.187775749391
 21
10481.77034550178
 31
0.0
 70
   160
 71
     5
 42
55.00000000003456
  3
INABA_S40G
100
AcDbAlignedDimension
 13
2899.673057123629
 23
10265.9621258768
 33
0.0
 14
2954.673057123664
 24
10265.9621258768
 34
0.0
100
AcDbRotatedDimension
1001
ACAD
1000
DSTYLE
1002
{
1002
}
  0
LINE
  5
16321
330
747D
100
AcDbEntity
  8
部品1
100
AcDbLine
 10
2954.67305712363
 20
10265.96212587676
 30
0.0
 11
2954.67305712363
 21
10237.96212587676
 31
0.0
  0
LINE
  5
16322
330
747D
100
AcDbEntity
  8
部品1
100
AcDbLine
 10
2954.673057123663
 20
10265.9621258768
 30
0.0
 11
2954.673057123663
 21
10237.9621258768
 31
0.0
  0
LINE
  5
16323
330
747D
100
AcDbEntity
  8
部品1
100
AcDbLine
 10
2927.67305712363
 20
10210.96212587677
 30
0.0
 11
2899.67305712363
 21
10210.96212587677
 31
0.0
  0
LINE
  5
16324
330
747D
100
AcDbEntity
  8
部品1
100
AcDbLine
 10
6954.673057123663
 20
10265.96212587691
 30
0.0
 11
6954.673057123663
 21
10237.96212587691
 31
0.0
  0
LINE
  5
16325
330
747D
100
AcDbEntity
  8
部品1
100
AcDbLine
 10
6954.673057123663
 20
10265.9621258768
 30
0.0
 11
6954.673057123663
 21
10237.9621258768
 31
0.0
  0
LINE
  5
16326
330
747D
100
AcDbEntity
  8
部品1
100
AcDbLine
 10
6954.673057123663
 20
10265.9621258768
 30
0.0
 11
6954.673057123663
 21
10237.9621258768
 31
0.0
  0
LINE
  5
16327
330
747D
100
AcDbEntity
  8
部品1
100
AcDbLine
 10
7387.173057123662
 20
10237.96212587691
 30
0.0
 11
8241.673057123664
 21
10237.96212587689
 31
0.0
  0
LINE
  5
1632C
330
747D
100
AcDbEntity
  8
部品1
100
AcDbLine
 10
7374.673057123662
 20
10265.96212587691
 30
0.0
 11
7374.673057123662
 21
10237.96212587691
 31
0.0
  0
LINE
  5
1632D
330
747D
100
AcDbEntity
  8
部品1
100
AcDbLine
 10
7362.173057123662
 20
10229.96212587689
 30
0.0
 11
7387.173057123662
 21
10229.9621258769
 31
0.0
  0
LINE
  5
1632E
330
747D
100
AcDbEntity
  8
部品1
100
AcDbLine
 10
7403.673057123663
 20
10255.9621258769
 30
0.0
 11
7409.673057123663
 21
10255.9621258769
 31
0.0
  0
LINE
  5
1632F
330
747D
100
AcDbEntity
  8
部品1
100
AcDbLine
 10
7409.673057123663
 20
10255.9621258769
 30
0.0
 11
7409.673057123663
 21
10237.9621258769
 31
0.0
  0
LINE
  5
16330
330
747D
100
AcDbEntity
  8
部品1
100
AcDbLine
 10
7339.673057123663
 20
10255.9621258769
 30
0.0
 11
7345.673057123663
 21
10255.9621258769
 31
0.0
  0
LINE
  5
16331
330
747D
100
AcDbEntity
  8
部品1
100
AcDbLine
 10
7339.673057123663
 20
10255.9621258769
 30
0.0
 11
7339.673057123663
 21
10237.9621258769
 31
0.0
  0
DIMENSION
  5
16333
330
747D
100
AcDbEntity
  8
寸法
100
AcDbDimension
  2
*D13
 10
8269.673057123664
 20
10481.77034550188
 30
0.0
 11
8578.158338497903
 21
10481.77034550188
 31
0.0
 70
   160
 71
     5
 42
55.0
  3
INABA_S40G
100
AcDbAlignedDimension
 13
8214.673057123665
 23
10265.96212587689
 33
0.0
 14
8269.673057123664
 24
10265.96212587689
 34
0.0
100
AcDbRotatedDimension
1001
ACAD
1000
DSTYLE
1002
{
1002
}
  0
LINE
  5
16334
330
747D
100
AcDbEntity
  8
部品1
100
AcDbLine
 10
7794.673057123663
 20
10265.96212587691
 30
0.0
 11
7794.673057123663
 21
10237.96212587691
 31
0.0
  0
LINE
  5
16335
330
747D
100
AcDbEntity
  8
部品1
100
AcDbLine
 10
8214.673057123665
 20
10265.96212587689
 30
0.0
 11
8214.673057123665
 21
10237.96212587689
 31
0.0
  0
LINE
  5
16336
330
747D
100
AcDbEntity
  8
部品1
100
AcDbLine
 10
8214.673057123665
 20
10265.96212587691
 30
0.0
 11
8214.673057123665
 21
10237.96212587691
 31
0.0
  0
LINE
  5
16337
330
747D
100
AcDbEntity
  8
部品1
100
AcDbLine
 10
8241.673057123664
 20
10210.96212587689
 30
0.0
 11
8269.673057123664
 21
10210.96212587689
 31
0.0
  0
LINE
  5
1655C
330
747D
100
AcDbEntity
  8
部品1
100
AcDbLine
 10
6376.673057123658
 20
4512.931598713262
 30
0.0
 11
6376.673057123656
 21
2537.931598713262
 31
0.0
  0
LINE
  5
1655D
330
747D
100
AcDbEntity
  8
部品1
100
AcDbLine
 10
6424.673057123657
 20
4512.931598713261
 30
0.0
 11
6424.673057123655
 21
2537.931598713262
 31
0.0
  0
LINE
  5
1655E
330
747D
100
AcDbEntity
  8
破線
 48
5.0
100
AcDbLine
 10
6376.673057123656
 20
2537.931598713262
 30
0.0
 11
6376.673057123656
 21
2287.931598713262
 31
0.0
  0
LINE
  5
1655F
330
747D
100
AcDbEntity
  8
破線
 48
5.0
100
AcDbLine
 10
6424.673057123658
 20
2287.931598713262
 30
0.0
 11
6376.673057123657
 21
2287.931598713262
 31
0.0
  0
LINE
  5
16560
330
747D
100
AcDbEntity
  8
破線
 48
5.0
100
AcDbLine
 10
6424.673057123655
 20
2537.931598713262
 30
0.0
 11
6424.673057123655
 21
2262.931598713262
 31
0.0
  0
LINE
  5
16561
330
747D
100
AcDbEntity
  8
破線
 48
5.0
100
AcDbLine
 10
6534.673057123656
 20
2262.931598713262
 30
0.0
 11
6424.673057123657
 21
2262.931598713262
 31
0.0
  0
LINE
  5
16562
330
747D
100
AcDbEntity
  8
部品1
100
AcDbLine
 10
6582.673057123656
 20
4512.931598713261
 30
0.0
 11
6582.673057123656
 21
2537.931598713262
 31
0.0
  0
LINE
  5
16563
330
747D
100
AcDbEntity
  8
破線
 48
5.0
100
AcDbLine
 10
6582.673057123656
 20
2537.931598713262
 30
0.0
 11
6582.673057123655
 21
2287.931598713267
 31
0.0
  0
LINE
  5
16564
330
747D
100
AcDbEntity
  8
破線
 48
5.0
100
AcDbLine
 10
6582.673057123655
 20
2287.931598713267
 30
0.0
 11
6534.673057123654
 21
2287.931598713267
 31
0.0
  0
LINE
  5
16565
330
747D
100
AcDbEntity
  8
破線
 48
5.0
100
AcDbLine
 10
6534.673057123656
 20
2537.931598713262
 30
0.0
 11
6534.673057123656
 21
2262.931598713262
 31
0.0
  0
LINE
  5
16566
330
747D
100
AcDbEntity
  8
部品1
100
AcDbLine
 10
6534.673057123656
 20
4512.931598713261
 30
0.0
 11
6534.673057123656
 21
2537.931598713262
 31
0.0
  0
LINE
  5
16567
330
747D
100
AcDbEntity
  8
部品1
100
AcDbLine
 10
6534.673057123656
 20
4512.931598713261
 30
0.0
 11
8269.673057123657
 21
4512.931598713262
 31
0.0
  0
DIMENSION
  5
1659A
330
747D
100
AcDbEntity
  8
寸法
 48
50.0
100
AcDbDimension
  2
*D15
 10
6376.673057123639
 20
7101.53135511063
 30
0.0
 11
6265.710159474891
 21
7201.53135511063
 31
0.0
 70
   160
 71
     5
 42
48.00000000000181
  3
INABA_S40G
100
AcDbAlignedDimension
 13
6424.67305712364
 23
7635.962125876883
 33
0.0
 14
6376.673057123639
 24
7661.962125876795
 34
0.0
100
AcDbRotatedDimension
1001
ACAD
1000
DSTYLE
1002
{
1070
   279
1070
     2
1002
}
  0
DIMENSION
  5
1659C
330
747D
100
AcDbEntity
  8
寸法
 48
50.0
100
AcDbDimension
  2
*D14
 10
2954.673057123654
 20
7101.53135511063
 30
0.0
 11
3115.575028123715
 21
7201.53135511063
 31
0.0
 70
   160
 71
     5
 42
48.00000000000363
  3
INABA_S40G
100
AcDbAlignedDimension
 13
3002.673057123657
 23
7661.962125876794
 33
0.0
 14
2954.673057123654
 24
7635.962125876794
 34
0.0
100
AcDbRotatedDimension
1001
ACAD
1000
DSTYLE
1002
{
1070
   279
1070
     2
1002
}
  0
DIMENSION
  5
165E9
330
747D
100
AcDbEntity
  8
寸法
 48
50.0
100
AcDbDimension
  2
*D16
 10
6424.67305712364
 20
7101.531355110632
 30
0.0
 11
6479.673057123647
 21
6949.839460074399
 31
0.0
 70
   160
 71
     5
 42
110.0000000000127
  3
INABA_S40G
100
AcDbAlignedDimension
 13
6534.673057123653
 23
7635.962125876794
 33
0.0
 14
6424.67305712364
 24
7635.962125876883
 34
0.0
100
AcDbRotatedDimension
1001
ACAD
1000
DSTYLE
1002
{
1070
   279
1070
     2
1002
}
  0
LINE
  5
16656
330
747D
100
AcDbEntity
  8
部品1
100
AcDbLine
 10
6376.673057123639
 20
7700.962125876795
 30
0.0
 11
6424.67305712364
 21
7700.962125876793
 31
0.0
  0
LINE
  5
16657
330
747D
100
AcDbEntity
  8
部品1
 48
50.0
100
AcDbLine
 10
6376.673057123639
 20
7700.962125876795
 30
0.0
 11
6376.673057123639
 21
7691.962125876795
 31
0.0
  0
LINE
  5
16658
330
747D
100
AcDbEntity
  8
部品1
100
AcDbLine
 10
6376.673057123639
 20
7661.962125876795
 30
0.0
 11
6424.673057123638
 21
7661.962125876794
 31
0.0
  0
LINE
  5
16659
330
747D
100
AcDbEntity
  8
部品1
 48
50.0
100
AcDbLine
 10
6376.673057123639
 20
7661.962125876795
 30
0.0
 11
6376.673057123639
 21
7670.962125876795
 31
0.0
  0
LINE
  5
1665A
330
747D
100
AcDbEntity
  8
部品1
 48
50.0
100
AcDbLine
 10
6414.673057123639
 20
7661.962125876794
 30
0.0
 11
6424.673057123638
 21
7640.962125876794
 31
0.0
  0
LINE
  5
1665B
330
747D
100
AcDbEntity
  8
部品1
100
AcDbLine
 10
6424.673057123638
 20
7671.962125876792
 30
0.0
 11
6447.673057123639
 21
7671.962125876793
 31
0.0
  0
LINE
  5
1665C
330
747D
100
AcDbEntity
  8
部品1
100
AcDbLine
 10
6582.673057123656
 20
7700.962125876795
 30
0.0
 11
6534.673057123656
 21
7700.962125876793
 31
0.0
  0
LINE
  5
1665D
330
747D
100
AcDbEntity
  8
部品1
 48
50.0
100
AcDbLine
 10
6582.673057123656
 20
7700.962125876795
 30
0.0
 11
6582.673057123656
 21
7691.962125876795
 31
0.0
  0
LINE
  5
1665E
330
747D
100
AcDbEntity
  8
部品1
100
AcDbLine
 10
6582.673057123656
 20
7661.962125876795
 30
0.0
 11
6534.673057123656
 21
7661.962125876794
 31
0.0
  0
LINE
  5
1665F
330
747D
100
AcDbEntity
  8
部品1
 48
50.0
100
AcDbLine
 10
6544.673057123657
 20
7661.962125876794
 30
0.0
 11
6534.673057123656
 21
7640.962125876794
 31
0.0
  0
LINE
  5
16660
330
747D
100
AcDbEntity
  8
部品1
100
AcDbLine
 10
6534.673057123656
 20
7671.962125876793
 30
0.0
 11
6511.673057123657
 21
7671.962125876793
 31
0.0
  0
LINE
  5
16661
330
747D
100
AcDbEntity
  8
部品1
 48
50.0
100
AcDbLine
 10
6534.673057123656
 20
7700.962125876793
 30
0.0
 11
6534.673057123653
 21
7635.962125876794
 31
0.0
  0
LINE
  5
16662
330
747D
100
AcDbEntity
  8
部品1
 48
50.0
100
AcDbLine
 10
6582.673057123656
 20
7661.962125876795
 30
0.0
 11
6582.673057123656
 21
7670.962125876795
 31
0.0
  0
LINE
  5
16663
330
747D
100
AcDbEntity
  8
部品1
100
AcDbLine
 10
6534.673057123652
 20
7635.962125876794
 30
0.0
 11
6424.673057123643
 21
7635.962125876789
 31
0.0
  0
LINE
  5
16664
330
747D
100
AcDbEntity
  8
部品1
 48
50.0
100
AcDbLine
 10
6424.673057123645
 20
7700.962125876881
 30
0.0
 11
6424.673057123641
 21
7635.962125876883
 31
0.0
  0
LINE
  5
16666
330
747D
100
AcDbEntity
  8
部品1
100
AcDbLine
 10
6534.673057123663
 20
10265.9621258768
 30
0.0
 11
6534.673057123663
 21
10237.9621258768
 31
0.0
  0
LINE
  5
16688
330
747D
100
AcDbEntity
  8
部品1
100
AcDbLine
 10
4717.67305712365
 20
10237.96212587691
 30
0.0
 11
5572.173057123664
 21
10237.96212587691
 31
0.0
  0
LINE
  5
1668A
330
747D
100
AcDbEntity
  8
部品1
100
AcDbLine
 10
5164.673057123664
 20
10265.96212587691
 30
0.0
 11
5164.673057123664
 21
10237.96212587691
 31
0.0
  0
LINE
  5
1668B
330
747D
100
AcDbEntity
  8
部品1
100
AcDbLine
 10
5164.673057123664
 20
10265.9621258768
 30
0.0
 11
5164.673057123664
 21
10237.9621258768
 31
0.0
  0
LINE
  5
1668C
330
747D
100
AcDbEntity
  8
部品1
100
AcDbLine
 10
5164.673057123664
 20
10265.9621258768
 30
0.0
 11
5164.673057123664
 21
10237.9621258768
 31
0.0
  0
LINE
  5
16691
330
747D
100
AcDbEntity
  8
部品1
100
AcDbLine
 10
6004.673057123662
 20
10265.96212587691
 30
0.0
 11
6004.673057123662
 21
10237.96212587691
 31
0.0
  0
LINE
  5
16692
330
747D
100
AcDbEntity
  8
部品1
100
AcDbLine
 10
6424.673057123664
 20
10265.96212587689
 30
0.0
 11
6424.673057123664
 21
10237.96212587689
 31
0.0
  0
DIMENSION
  5
166DD
330
747D
100
AcDbEntity
  8
寸法
 48
50.0
100
AcDbDimension
  2
*D17
 10
6424.673057123664
 20
10481.77034550189
 30
0.0
 11
6479.673057123664
 21
10581.77034550189
 31
0.0
 70
    32
 71
     5
 42
109.9999999999991
  3
INABA_S40G
100
AcDbAlignedDimension
 13
6534.673057123663
 23
10265.96212587685
 33
0.0
 14
6424.673057123664
 24
10265.96212587684
 34
0.0
100
AcDbRotatedDimension
1001
ACAD
1000
DSTYLE
1002
{
1070
   279
1070
     2
1002
}
  0
LINE
  5
16760
330
747D
100
AcDbEntity
  8
部品1
 48
50.0
100
AcDbLine
 10
6479.67305712363
 20
10237.96212587684
 30
0.0
 11
6451.673057123631
 21
10265.96212587689
 31
0.0
  0
LINE
  5
16761
330
747D
100
AcDbEntity
  8
部品1
100
AcDbLine
 10
8214.673057123659
 20
10210.96212587681
 30
0.0
 11
6534.673057123644
 21
10210.96212587681
 31
0.0
  0
LINE
  5
16762
330
747D
100
AcDbEntity
  8
部品1
 48
50.0
100
AcDbLine
 10
6451.673057123631
 20
10237.96212587694
 30
0.0
 11
6451.673057123631
 21
10265.96212587689
 31
0.0
  0
LINE
  5
16763
330
747D
100
AcDbEntity
  8
部品1
 48
50.0
100
AcDbLine
 10
6451.673057123631
 20
10237.96212587684
 30
0.0
 11
6479.67305712363
 21
10237.96212587684
 31
0.0
  0
LINE
  5
168C3
330
747D
100
AcDbEntity
  8
部品1
100
AcDbLine
 10
6503.673057123648
 20
7690.96212587679
 30
0.0
 11
6455.673057123647
 21
7690.96212587679
 31
0.0
  0
LINE
  5
168C4
330
747D
100
AcDbEntity
  8
部品1
 48
50.0
100
AcDbLine
 10
6455.673057123647
 20
7690.962125876791
 30
0.0
 11
6455.67305712365
 21
7635.962125876791
 31
0.0
  0
LINE
  5
168C5
330
747D
100
AcDbEntity
  8
部品1
 48
50.0
100
AcDbLine
 10
6503.673057123648
 20
7690.962125876791
 30
0.0
 11
6503.67305712365
 21
7635.962125876791
 31
0.0
  0
DIMENSION
  5
16913
330
747D
100
AcDbEntity
  8
寸法
 48
50.0
100
AcDbDimension
  2
*D18
 10
8269.673057123664
 20
10731.09181905819
 30
0.0
 11
7374.673057123664
 21
10831.09181905819
 31
0.0
 70
    32
 71
     5
 42
1790.0
  3
INABA_S40G
100
AcDbAlignedDimension
 13
6479.673057123664
 23
10640.75825985984
 33
0.0
 14
8269.673057123664
 24
10265.96212587689
 34
0.0
100
AcDbRotatedDimension
1001
ACAD
1000
DSTYLE
1002
{
1070
    75
1070
     1
1070
   279
1070
     2
1002
}
  0
LINE
  5
172BC
330
747D
100
AcDbEntity
  8
部品1
 48
50.0
100
AcDbLine
 10
6507.673057123631
 20
10210.96212587681
 30
0.0
 11
6507.673057123696
 21
10265.96212587684
 31
0.0
  0
LINE
  5
172BD
330
747D
100
AcDbEntity
  8
部品1
 48
50.0
100
AcDbLine
 10
6451.673057123631
 20
10210.96212587681
 30
0.0
 11
6451.673057123631
 21
10237.96212587684
 31
0.0
  0
LINE
  5
174C8
330
747D
100
AcDbEntity
  8
部品1
 48
50.0
100
AcDbLine
 10
8189.673057123664
 20
10185.96212587677
 30
0.0
 11
6559.673057123617
 21
10185.96212587674
 31
0.0
  0
LINE
  5
174C9
330
747D
100
AcDbEntity
  8
部品1
 48
50.0
100
AcDbLine
 10
8241.673057123664
 20
10237.96212587689
 30
0.0
 11
8214.673057123659
 21
10210.96212587681
 31
0.0
  0
LINE
  5
174CA
330
747D
100
AcDbEntity
  8
部品1
 48
50.0
100
AcDbLine
 10
2954.673057123633
 20
10210.96212587681
 30
0.0
 11
2927.67305712365
 21
10237.96212587691
 31
0.0
  0
LINE
  5
174CB
330
747D
100
AcDbEntity
  8
部品1
 48
50.0
100
AcDbLine
 10
7362.173057123662
 20
10229.96212587689
 30
0.0
 11
7362.173057123662
 21
10237.96212587691
 31
0.0
  0
LINE
  5
174CC
330
747D
100
AcDbEntity
  8
部品1
 48
50.0
100
AcDbLine
 10
7387.173057123662
 20
10229.9621258769
 30
0.0
 11
7387.173057123662
 21
10237.96212587691
 31
0.0
  0
LINE
  5
17B10
330
747D
100
AcDbEntity
  8
細線
100
AcDbLine
 10
4586.673057123657
 20
2547.931598713262
 30
0.0
 11
3002.673057123651
 21
2547.931598713262
 31
0.0
  0
LINE
  5
17B13
330
747D
100
AcDbEntity
  8
部品1
100
AcDbLine
 10
4744.673057123656
 20
4512.931598713261
 30
0.0
 11
4744.673057123656
 21
2537.931598713262
 31
0.0
  0
LINE
  5
17B14
330
747D
100
AcDbEntity
  8
部品1
100
AcDbLine
 10
4792.673057123656
 20
4512.931598713261
 30
0.0
 11
4792.673057123656
 21
2537.931598713262
 31
0.0
  0
LINE
  5
17B15
330
747D
100
AcDbEntity
  8
部品1
100
AcDbLine
 10
4634.673057123657
 20
4512.931598713261
 30
0.0
 11
4634.673057123655
 21
2537.931598713262
 31
0.0
  0
LINE
  5
17B16
330
747D
100
AcDbEntity
  8
部品1
100
AcDbLine
 10
4586.673057123658
 20
4512.931598713263
 30
0.0
 11
4586.673057123656
 21
2537.931598713262
 31
0.0
  0
LINE
  5
17B1E
330
747D
100
AcDbEntity
  8
細線
100
AcDbLine
 10
3002.673057123653
 20
4172.931598713261
 30
0.0
 11
4586.673057123655
 21
4172.931598713261
 31
0.0
  0
LINE
  5
17B1F
330
747D
100
AcDbEntity
  8
細線
100
AcDbLine
 10
3002.673057123653
 20
4237.931598713261
 30
0.0
 11
4586.673057123655
 21
4237.931598713261
 31
0.0
  0
LINE
  5
17B20
330
747D
100
AcDbEntity
  8
細線
100
AcDbLine
 10
3002.673057123653
 20
4302.931598713261
 30
0.0
 11
4586.673057123655
 21
4302.931598713261
 31
0.0
  0
LINE
  5
17B21
330
747D
100
AcDbEntity
  8
細線
100
AcDbLine
 10
3002.673057123653
 20
3782.931598713262
 30
0.0
 11
4586.673057123655
 21
3782.931598713262
 31
0.0
  0
LINE
  5
17B22
330
747D
100
AcDbEntity
  8
細線
100
AcDbLine
 10
3002.673057123653
 20
3847.931598713262
 30
0.0
 11
4586.673057123655
 21
3847.931598713262
 31
0.0
  0
LINE
  5
17B23
330
747D
100
AcDbEntity
  8
細線
100
AcDbLine
 10
3002.673057123653
 20
3912.931598713262
 30
0.0
 11
4586.673057123655
 21
3912.931598713262
 31
0.0
  0
LINE
  5
17B24
330
747D
100
AcDbEntity
  8
細線
100
AcDbLine
 10
3002.673057123653
 20
3977.931598713262
 30
0.0
 11
4586.673057123655
 21
3977.931598713262
 31
0.0
  0
LINE
  5
17B25
330
747D
100
AcDbEntity
  8
細線
100
AcDbLine
 10
3002.673057123653
 20
4042.931598713262
 30
0.0
 11
4586.673057123655
 21
4042.931598713262
 31
0.0
  0
LINE
  5
17B26
330
747D
100
AcDbEntity
  8
細線
100
AcDbLine
 10
3002.673057123653
 20
4107.931598713261
 30
0.0
 11
4586.673057123655
 21
4107.931598713261
 31
0.0
  0
LINE
  5
17B27
330
747D
100
AcDbEntity
  8
細線
100
AcDbLine
 10
3002.673057123653
 20
3132.931598713262
 30
0.0
 11
4586.673057123655
 21
3132.931598713262
 31
0.0
  0
LINE
  5
17B28
330
747D
100
AcDbEntity
  8
細線
100
AcDbLine
 10
3002.673057123653
 20
3197.931598713262
 30
0.0
 11
4586.673057123655
 21
3197.931598713262
 31
0.0
  0
LINE
  5
17B29
330
747D
100
AcDbEntity
  8
細線
100
AcDbLine
 10
3002.673057123653
 20
3262.931598713262
 30
0.0
 11
4586.673057123655
 21
3262.931598713262
 31
0.0
  0
LINE
  5
17B2A
330
747D
100
AcDbEntity
  8
細線
100
AcDbLine
 10
3002.673057123653
 20
3327.931598713262
 30
0.0
 11
4586.673057123655
 21
3327.931598713262
 31
0.0
  0
LINE
  5
17B2B
330
747D
100
AcDbEntity
  8
細線
100
AcDbLine
 10
3002.673057123653
 20
3392.931598713262
 30
0.0
 11
4586.673057123655
 21
3392.931598713262
 31
0.0
  0
LINE
  5
17B2C
330
747D
100
AcDbEntity
  8
細線
100
AcDbLine
 10
3002.673057123653
 20
3457.931598713262
 30
0.0
 11
4586.673057123655
 21
3457.931598713262
 31
0.0
  0
LINE
  5
17B2D
330
747D
100
AcDbEntity
  8
細線
100
AcDbLine
 10
3002.673057123653
 20
3522.931598713262
 30
0.0
 11
4586.673057123655
 21
3522.931598713262
 31
0.0
  0
LINE
  5
17B2E
330
747D
100
AcDbEntity
  8
細線
100
AcDbLine
 10
3002.673057123653
 20
3587.931598713262
 30
0.0
 11
4586.673057123655
 21
3587.931598713262
 31
0.0
  0
LINE
  5
17B2F
330
747D
100
AcDbEntity
  8
細線
100
AcDbLine
 10
3002.673057123653
 20
3652.931598713262
 30
0.0
 11
4586.673057123655
 21
3652.931598713262
 31
0.0
  0
LINE
  5
17B30
330
747D
100
AcDbEntity
  8
細線
100
AcDbLine
 10
3002.673057123653
 20
3717.931598713262
 30
0.0
 11
4586.673057123655
 21
3717.931598713262
 31
0.0
  0
LINE
  5
17B31
330
747D
100
AcDbEntity
  8
細線
100
AcDbLine
 10
3002.673057123653
 20
4432.931598713262
 30
0.0
 11
4586.673057123655
 21
4432.931598713262
 31
0.0
  0
LINE
  5
17B32
330
747D
100
AcDbEntity
  8
細線
100
AcDbLine
 10
3002.673057123653
 20
4367.931598713261
 30
0.0
 11
4586.673057123655
 21
4367.931598713261
 31
0.0
  0
LINE
  5
17B33
330
747D
100
AcDbEntity
  8
細線
100
AcDbLine
 10
3002.673057123653
 20
2612.931598713262
 30
0.0
 11
4586.673057123655
 21
2612.931598713262
 31
0.0
  0
LINE
  5
17B34
330
747D
100
AcDbEntity
  8
細線
100
AcDbLine
 10
3002.673057123653
 20
2677.931598713262
 30
0.0
 11
4586.673057123655
 21
2677.931598713262
 31
0.0
  0
LINE
  5
17B35
330
747D
100
AcDbEntity
  8
細線
100
AcDbLine
 10
3002.673057123653
 20
2742.931598713262
 30
0.0
 11
4586.673057123655
 21
2742.931598713262
 31
0.0
  0
LINE
  5
17B36
330
747D
100
AcDbEntity
  8
細線
100
AcDbLine
 10
3002.673057123653
 20
2807.931598713262
 30
0.0
 11
4586.673057123655
 21
2807.931598713262
 31
0.0
  0
LINE
  5
17B37
330
747D
100
AcDbEntity
  8
細線
100
AcDbLine
 10
3002.673057123653
 20
2872.931598713262
 30
0.0
 11
4586.673057123655
 21
2872.931598713262
 31
0.0
  0
LINE
  5
17B38
330
747D
100
AcDbEntity
  8
細線
100
AcDbLine
 10
3002.673057123653
 20
2937.931598713262
 30
0.0
 11
4586.673057123655
 21
2937.931598713262
 31
0.0
  0
LINE
  5
17B39
330
747D
100
AcDbEntity
  8
細線
100
AcDbLine
 10
3002.673057123653
 20
3002.931598713262
 30
0.0
 11
4586.673057123655
 21
3002.931598713262
 31
0.0
  0
LINE
  5
17B3A
330
747D
100
AcDbEntity
  8
細線
100
AcDbLine
 10
3002.673057123653
 20
3067.931598713262
 30
0.0
 11
4586.673057123655
 21
3067.931598713262
 31
0.0
  0
LINE
  5
17B3D
330
747D
100
AcDbEntity
  8
細線
100
AcDbLine
 10
3002.673057123653
 20
4497.931598713261
 30
0.0
 11
4586.673057123655
 21
4497.931598713261
 31
0.0
  0
LINE
  5
17B5A
330
747D
100
AcDbEntity
  8
部品1
100
AcDbLine
 10
2899.673057123658
 20
4512.931598713261
 30
0.0
 11
4744.673057123656
 21
4512.931598713261
 31
0.0
  0
LINE
  5
17B5E
330
747D
100
AcDbEntity
  8
破線
 48
5.0
100
AcDbLine
 10
4744.673057123656
 20
2537.931598713262
 30
0.0
 11
4744.673057123655
 21
2262.931598713262
 31
0.0
  0
LINE
  5
17B5F
330
747D
100
AcDbEntity
  8
破線
 48
5.0
100
AcDbLine
 10
4792.673057123656
 20
2287.931598713267
 30
0.0
 11
4744.673057123654
 21
2287.931598713267
 31
0.0
  0
LINE
  5
17B60
330
747D
100
AcDbEntity
  8
破線
 48
5.0
100
AcDbLine
 10
4792.673057123656
 20
2537.931598713262
 30
0.0
 11
4792.673057123654
 21
2287.931598713267
 31
0.0
  0
LINE
  5
17B61
330
747D
100
AcDbEntity
  8
破線
 48
5.0
100
AcDbLine
 10
4744.673057123655
 20
2262.931598713262
 30
0.0
 11
4634.673057123657
 21
2262.931598713262
 31
0.0
  0
LINE
  5
17B62
330
747D
100
AcDbEntity
  8
破線
 48
5.0
100
AcDbLine
 10
4634.673057123655
 20
2537.931598713262
 30
0.0
 11
4634.673057123655
 21
2262.931598713262
 31
0.0
  0
LINE
  5
17B63
330
747D
100
AcDbEntity
  8
破線
 48
5.0
100
AcDbLine
 10
4634.673057123658
 20
2287.931598713262
 30
0.0
 11
4586.673057123657
 21
2287.931598713262
 31
0.0
  0
LINE
  5
17B64
330
747D
100
AcDbEntity
  8
破線
 48
5.0
100
AcDbLine
 10
4586.673057123656
 20
2537.931598713262
 30
0.0
 11
4586.673057123657
 21
2287.931598713262
 31
0.0
  0
DIMENSION
  5
17B86
330
747D
100
AcDbEntity
  8
寸法
 48
50.0
100
AcDbDimension
  2
*D23
 10
4689.673057123664
 20
10731.09181905819
 30
0.0
 11
3794.673057123647
 21
10831.09181905819
 31
0.0
 70
    32
 71
     5
 42
1790.000000000035
  3
INABA_S40G
100
AcDbAlignedDimension
 13
2899.673057123629
 23
10265.96212587676
 33
0.0
 14
4689.673057123664
 24
10640.75825985984
 34
0.0
100
AcDbRotatedDimension
1001
ACAD
1000
DSTYLE
1002
{
1070
   279
1070
     2
1002
}
  0
DIMENSION
  5
17B87
330
747D
100
AcDbEntity
  8
寸法
100
AcDbDimension
  2
*D21
 10
4634.673057123664
 20
10481.77034550189
 30
0.0
 11
3794.673057123664
 21
10581.78215652552
 31
0.0
 70
    32
  1
4X420=<>
 71
     5
 42
1680.0
  3
INABA_S40G
100
AcDbAlignedDimension
 13
2954.673057123664
 23
10265.9621258768
 33
0.0
 14
4634.673057123664
 24
10265.96212587689
 34
0.0
100
AcDbRotatedDimension
1001
ACAD
1000
DSTYLE
1002
{
1002
}
  0
DIMENSION
  5
17B88
330
747D
100
AcDbEntity
  8
寸法
 48
50.0
100
AcDbDimension
  2
*D22
 10
4634.673057123664
 20
10481.77034550189
 30
0.0
 11
4689.673057123664
 21
10581.77034550189
 31
0.0
 70
    32
 71
     5
 42
110.0
  3
INABA_S40G
100
AcDbAlignedDimension
 13
4744.673057123664
 23
10265.96212587685
 33
0.0
 14
4634.673057123664
 24
10265.96212587684
 34
0.0
100
AcDbRotatedDimension
1001
ACAD
1000
DSTYLE
1002
{
1070
   279
1070
     2
1002
}
  0
LINE
  5
17B89
330
747D
100
AcDbEntity
  8
部品1
100
AcDbLine
 10
4717.673057123631
 20
10210.96212587681
 30
0.0
 11
4661.673057123631
 21
10210.96212587681
 31
0.0
  0
LINE
  5
17B8B
330
747D
100
AcDbEntity
  8
部品1
 48
50.0
100
AcDbLine
 10
4609.673057123635
 20
10185.96212587672
 30
0.0
 11
2979.673057123634
 21
10185.96212587672
 31
0.0
  0
LINE
  5
17B98
330
747D
100
AcDbEntity
  8
部品1
 48
50.0
100
AcDbLine
 10
3807.173057123664
 20
10229.9621258769
 30
0.0
 11
3807.173057123664
 21
10237.96212587691
 31
0.0
  0
LINE
  5
17B99
330
747D
100
AcDbEntity
  8
部品1
 48
50.0
100
AcDbLine
 10
3782.173057123664
 20
10229.96212587689
 30
0.0
 11
3782.173057123664
 21
10237.96212587691
 31
0.0
  0
LINE
  5
17B9A
330
747D
100
AcDbEntity
  8
部品1
 48
50.0
100
AcDbLine
 10
4661.673057123631
 20
10210.96212587681
 30
0.0
 11
4661.673057123631
 21
10237.96212587684
 31
0.0
  0
LINE
  5
17B9B
330
747D
100
AcDbEntity
  8
部品1
 48
50.0
100
AcDbLine
 10
4717.673057123631
 20
10210.96212587681
 30
0.0
 11
4717.673057123696
 21
10265.96212587684
 31
0.0
  0
LINE
  5
17B9C
330
747D
100
AcDbEntity
  8
部品1
 48
50.0
100
AcDbLine
 10
4713.673057123648
 20
7690.962125876791
 30
0.0
 11
4713.673057123651
 21
7635.962125876791
 31
0.0
  0
LINE
  5
17B9D
330
747D
100
AcDbEntity
  8
部品1
 48
50.0
100
AcDbLine
 10
4665.673057123647
 20
7690.962125876791
 30
0.0
 11
4665.673057123651
 21
7635.962125876791
 31
0.0
  0
LINE
  5
17B9E
330
747D
100
AcDbEntity
  8
部品1
100
AcDbLine
 10
4713.673057123648
 20
7690.96212587679
 30
0.0
 11
4665.673057123647
 21
7690.96212587679
 31
0.0
  0
LINE
  5
17B9F
330
747D
100
AcDbEntity
  8
部品1
 48
50.0
100
AcDbLine
 10
4661.673057123631
 20
10237.96212587684
 30
0.0
 11
4689.67305712363
 21
10237.96212587684
 31
0.0
  0
LINE
  5
17BA0
330
747D
100
AcDbEntity
  8
部品1
 48
50.0
100
AcDbLine
 10
4661.673057123631
 20
10237.96212587694
 30
0.0
 11
4661.673057123631
 21
10265.96212587689
 31
0.0
  0
LINE
  5
17BA1
330
747D
100
AcDbEntity
  8
部品1
 48
50.0
100
AcDbLine
 10
4689.67305712363
 20
10237.96212587684
 30
0.0
 11
4661.673057123631
 21
10265.96212587689
 31
0.0
  0
LINE
  5
17BA2
330
747D
100
AcDbEntity
  8
部品1
100
AcDbLine
 10
4634.673057123664
 20
10265.96212587689
 30
0.0
 11
4634.673057123664
 21
10237.96212587689
 31
0.0
  0
LINE
  5
17BA3
330
747D
100
AcDbEntity
  8
部品1
100
AcDbLine
 10
4214.673057123662
 20
10265.96212587691
 30
0.0
 11
4214.673057123662
 21
10237.96212587691
 31
0.0
  0
LINE
  5
17BA4
330
747D
100
AcDbEntity
  8
部品1
100
AcDbLine
 10
3374.673057123663
 20
10265.9621258768
 30
0.0
 11
3374.673057123663
 21
10237.9621258768
 31
0.0
  0
LINE
  5
17BA5
330
747D
100
AcDbEntity
  8
部品1
100
AcDbLine
 10
3374.673057123663
 20
10265.9621258768
 30
0.0
 11
3374.673057123663
 21
10237.9621258768
 31
0.0
  0
LINE
  5
17BA6
330
747D
100
AcDbEntity
  8
部品1
100
AcDbLine
 10
3374.673057123663
 20
10265.96212587691
 30
0.0
 11
3374.673057123663
 21
10237.96212587691
 31
0.0
  0
LINE
  5
17BA7
330
747D
100
AcDbEntity
  8
部品1
100
AcDbLine
 10
3374.673057123663
 20
10265.9621258768
 30
0.0
 11
3374.673057123663
 21
10237.9621258768
 31
0.0
  0
LINE
  5
17BA8
330
747D
100
AcDbEntity
  8
部品1
100
AcDbLine
 10
3374.673057123663
 20
10265.9621258768
 30
0.0
 11
3374.673057123663
 21
10237.9621258768
 31
0.0
  0
LINE
  5
17BA9
330
747D
100
AcDbEntity
  8
部品1
100
AcDbLine
 10
3374.673057123663
 20
10265.96212587691
 30
0.0
 11
3374.673057123663
 21
10237.96212587691
 31
0.0
  0
LINE
  5
17BAA
330
747D
100
AcDbEntity
  8
部品1
100
AcDbLine
 10
2927.67305712365
 20
10237.96212587691
 30
0.0
 11
3782.173057123662
 21
10237.96212587691
 31
0.0
  0
LINE
  5
17BAB
330
747D
100
AcDbEntity
  8
部品1
100
AcDbLine
 10
3807.173057123664
 20
10237.96212587691
 30
0.0
 11
4661.673057123663
 21
10237.96212587689
 31
0.0
  0
LINE
  5
17BAC
330
747D
100
AcDbEntity
  8
部品1
100
AcDbLine
 10
3759.673057123663
 20
10255.9621258769
 30
0.0
 11
3759.673057123663
 21
10237.9621258769
 31
0.0
  0
LINE
  5
17BAD
330
747D
100
AcDbEntity
  8
部品1
100
AcDbLine
 10
3759.673057123663
 20
10255.9621258769
 30
0.0
 11
3765.673057123664
 21
10255.9621258769
 31
0.0
  0
LINE
  5
17BAE
330
747D
100
AcDbEntity
  8
部品1
100
AcDbLine
 10
3829.673057123664
 20
10255.9621258769
 30
0.0
 11
3829.673057123664
 21
10237.9621258769
 31
0.0
  0
LINE
  5
17BAF
330
747D
100
AcDbEntity
  8
部品1
100
AcDbLine
 10
3823.673057123663
 20
10255.9621258769
 30
0.0
 11
3829.673057123664
 21
10255.9621258769
 31
0.0
  0
LINE
  5
17BB0
330
747D
100
AcDbEntity
  8
部品1
100
AcDbLine
 10
3782.173057123664
 20
10229.96212587689
 30
0.0
 11
3807.173057123664
 21
10229.9621258769
 31
0.0
  0
LINE
  5
17BB1
330
747D
100
AcDbEntity
  8
部品1
100
AcDbLine
 10
3794.673057123663
 20
10265.96212587691
 30
0.0
 11
3794.673057123663
 21
10237.96212587691
 31
0.0
  0
LINE
  5
17BB2
330
747D
100
AcDbEntity
  8
部品1
100
AcDbLine
 10
4744.673057123664
 20
10265.9621258768
 30
0.0
 11
4744.673057123664
 21
10237.9621258768
 31
0.0
  0
LINE
  5
17BB3
330
747D
100
AcDbEntity
  8
部品1
 48
50.0
100
AcDbLine
 10
4634.673057123645
 20
7700.962125876881
 30
0.0
 11
4634.673057123642
 21
7635.962125876883
 31
0.0
  0
LINE
  5
17BB4
330
747D
100
AcDbEntity
  8
部品1
100
AcDbLine
 10
4744.673057123653
 20
7635.962125876794
 30
0.0
 11
4634.673057123642
 21
7635.962125876789
 31
0.0
  0
LINE
  5
17BB5
330
747D
100
AcDbEntity
  8
部品1
 48
50.0
100
AcDbLine
 10
4792.673057123656
 20
7661.962125876795
 30
0.0
 11
4792.673057123656
 21
7670.962125876795
 31
0.0
  0
LINE
  5
17BB6
330
747D
100
AcDbEntity
  8
部品1
 48
50.0
100
AcDbLine
 10
4744.673057123656
 20
7700.962125876793
 30
0.0
 11
4744.673057123653
 21
7635.962125876794
 31
0.0
  0
LINE
  5
17BB7
330
747D
100
AcDbEntity
  8
部品1
100
AcDbLine
 10
4744.673057123656
 20
7671.962125876793
 30
0.0
 11
4721.673057123656
 21
7671.962125876793
 31
0.0
  0
LINE
  5
17BB8
330
747D
100
AcDbEntity
  8
部品1
 48
50.0
100
AcDbLine
 10
4754.673057123656
 20
7661.962125876794
 30
0.0
 11
4744.673057123656
 21
7640.962125876794
 31
0.0
  0
LINE
  5
17BB9
330
747D
100
AcDbEntity
  8
部品1
100
AcDbLine
 10
4792.673057123656
 20
7661.962125876795
 30
0.0
 11
4744.673057123656
 21
7661.962125876794
 31
0.0
  0
LINE
  5
17BBA
330
747D
100
AcDbEntity
  8
部品1
 48
50.0
100
AcDbLine
 10
4792.673057123656
 20
7700.962125876795
 30
0.0
 11
4792.673057123656
 21
7691.962125876795
 31
0.0
  0
LINE
  5
17BBB
330
747D
100
AcDbEntity
  8
部品1
100
AcDbLine
 10
4792.673057123656
 20
7700.962125876795
 30
0.0
 11
4744.673057123656
 21
7700.962125876793
 31
0.0
  0
LINE
  5
17BBC
330
747D
100
AcDbEntity
  8
部品1
100
AcDbLine
 10
4634.673057123638
 20
7671.962125876792
 30
0.0
 11
4657.673057123639
 21
7671.962125876793
 31
0.0
  0
LINE
  5
17BBD
330
747D
100
AcDbEntity
  8
部品1
 48
50.0
100
AcDbLine
 10
4624.673057123638
 20
7661.962125876794
 30
0.0
 11
4634.673057123638
 21
7640.962125876794
 31
0.0
  0
LINE
  5
17BBE
330
747D
100
AcDbEntity
  8
部品1
 48
50.0
100
AcDbLine
 10
4586.673057123639
 20
7661.962125876795
 30
0.0
 11
4586.673057123639
 21
7670.962125876795
 31
0.0
  0
LINE
  5
17BBF
330
747D
100
AcDbEntity
  8
部品1
100
AcDbLine
 10
4586.673057123639
 20
7661.962125876795
 30
0.0
 11
4634.673057123638
 21
7661.962125876794
 31
0.0
  0
LINE
  5
17BC0
330
747D
100
AcDbEntity
  8
部品1
 48
50.0
100
AcDbLine
 10
4586.673057123639
 20
7700.962125876795
 30
0.0
 11
4586.673057123639
 21
7691.962125876795
 31
0.0
  0
LINE
  5
17BC1
330
747D
100
AcDbEntity
  8
部品1
100
AcDbLine
 10
4586.673057123639
 20
7700.962125876795
 30
0.0
 11
4634.673057123641
 21
7700.962125876793
 31
0.0
  0
LINE
  5
17BC2
330
747D
100
AcDbEntity
  8
部品1
 48
50.0
100
AcDbLine
 10
2966.673057123655
 20
7681.462125876793
 30
0.0
 11
4622.67305712364
 21
7681.462125876793
 31
0.0
  0
DIMENSION
  5
17BC3
330
747D
100
AcDbEntity
  8
寸法
 48
50.0
100
AcDbDimension
  2
*D20
 10
3002.673057123657
 20
7101.53135511063
 30
0.0
 11
3794.673057123648
 21
7301.53135511063
 31
0.0
 70
    32
  1
有効開口部間口\P <>
 71
     5
 42
1583.999999999981
  3
INABA_S40G
100
AcDbAlignedDimension
 13
4586.673057123639
 23
7661.962125876795
 33
0.0
 14
3002.673057123657
 24
7661.962125876794
 34
0.0
100
AcDbRotatedDimension
1001
ACAD
1000
DSTYLE
1002
{
1070
    75
1070
     1
1070
   279
1070
     2
1002
}
  0
DIMENSION
  5
17BC4
330
747D
100
AcDbEntity
  8
寸法
 48
50.0
100
AcDbDimension
  2
*D19
 10
4586.673057123639
 20
7101.53135511063
 30
0.0
 11
4475.710159474891
 21
7201.53135511063
 31
0.0
 70
   160
 71
     5
 42
48.00000000000181
  3
INABA_S40G
100
AcDbAlignedDimension
 13
4634.673057123641
 23
7635.962125876883
 33
0.0
 14
4586.673057123639
 24
7661.962125876795
 34
0.0
100
AcDbRotatedDimension
1001
ACAD
1000
DSTYLE
1002
{
1070
   279
1070
     2
1002
}
  0
DIMENSION
  5
17C46
330
747D
100
AcDbEntity
  8
寸法
 48
50.0
100
AcDbDimension
  2
*D25
 10
4634.673057123641
 20
7101.531355110632
 30
0.0
 11
4689.673057123648
 21
6949.839460074399
 31
0.0
 70
   160
 71
     5
 42
110.0000000000127
  3
INABA_S40G
100
AcDbAlignedDimension
 13
4744.673057123653
 23
7635.962125876794
 33
0.0
 14
4634.673057123641
 24
7635.962125876883
 34
0.0
100
AcDbRotatedDimension
1001
ACAD
1000
DSTYLE
1002
{
1070
   279
1070
     2
1002
}
  0
DIMENSION
  5
17C47
330
747D
100
AcDbEntity
  8
寸法
 48
50.0
100
AcDbDimension
  2
*D24
 10
4744.673057123653
 20
7101.53135511063
 30
0.0
 11
4905.575028123714
 21
7201.53135511063
 31
0.0
 70
   160
 71
     5
 42
48.00000000000363
  3
INABA_S40G
100
AcDbAlignedDimension
 13
4792.673057123656
 23
7661.962125876794
 33
0.0
 14
4744.673057123653
 24
7635.962125876794
 34
0.0
100
AcDbRotatedDimension
1001
ACAD
1000
DSTYLE
1002
{
1070
   279
1070
     2
1002
}
  0
LINE
  5
17D0F
330
747D
100
AcDbEntity
  8
部品1
100
AcDbLine
 10
8241.673057123655
 20
9790.962125876887
 30
0.0
 11
8269.673057123656
 21
9790.962125876887
 31
0.0
  0
LINE
  5
17D10
330
747D
100
AcDbEntity
  8
部品1
100
AcDbLine
 10
8241.673057123659
 20
9370.962125876888
 30
0.0
 11
8269.673057123659
 21
9370.962125876888
 31
0.0
  0
LINE
  5
17D11
330
747D
100
AcDbEntity
  8
部品1
100
AcDbLine
 10
2927.67305712363
 20
9790.96212587676
 30
0.0
 11
2899.67305712363
 21
9790.96212587676
 31
0.0
  0
LINE
  5
17D12
330
747D
100
AcDbEntity
  8
部品1
100
AcDbLine
 10
2927.673057123634
 20
9370.96212587676
 30
0.0
 11
2899.673057123634
 21
9370.96212587676
 31
0.0
  0
LINE
  5
18097
330
747D
100
AcDbEntity
  8
寸法
 48
50.0
100
AcDbLine
 10
6324.673057123664
 20
10481.77034550189
 30
0.0
 11
5699.004079146507
 21
10481.77034550189
 31
0.0
  0
LINE
  5
18098
330
747D
100
AcDbEntity
  8
寸法
 48
50.0
100
AcDbLine
 10
5474.097570791766
 20
10481.77034550189
 30
0.0
 11
4844.673057123664
 21
10481.77034550189
 31
0.0
  0
TEXT
  5
180AB
330
747D
100
AcDbEntity
  8
文字
 48
50.0
100
AcDbText
 10
5744.946326482197
 20
10512.45511103083
 30
0.0
 40
120.0
  1
1680
  7
STYLE1
100
AcDbText
  0
TEXT
  5
180AD
330
747D
100
AcDbEntity
  8
文字
 48
50.0
100
AcDbText
 10
5649.043058850574
 20
7137.000479714378
 30
0.0
 40
120.0
  1
1584
  7
STYLE1
100
AcDbText
  0
TEXT
  5
180D7
330
747D
100
AcDbEntity
  8
文字
 48
50.0
100
AcDbText
 10
5133.401826075933
 20
10512.45511103083
 30
0.0
 40
120.0
  1
1680
  7
STYLE1
100
AcDbText
  0
LINE
  5
180D8
330
747D
100
AcDbEntity
  8
寸法
 48
50.0
100
AcDbLine
 10
6276.673057123638
 20
7101.53135511063
 30
0.0
 11
5660.28692638396
 21
7101.53135511063
 31
0.0
  0
LINE
  5
180D9
330
747D
100
AcDbEntity
  8
寸法
 48
50.0
100
AcDbLine
 10
5461.318645771679
 20
7101.53135511063
 30
0.0
 11
4796.673057123638
 21
7101.53135511063
 31
0.0
  0
TEXT
  5
180DA
330
747D
100
AcDbEntity
  8
文字
 48
50.0
100
AcDbText
 10
5149.811617545235
 20
7137.000479714378
 30
0.0
 40
120.0
  1
1584
  7
STYLE1
100
AcDbText
  0
LINE
  5
180FF
330
747D
100
AcDbEntity
  8
部品1
100
AcDbLine
 10
2899.673057123657
 20
2537.931598713262
 30
0.0
 11
8269.673057123657
 21
2537.931598713262
 31
0.0
  0
LINE
  5
18100
330
747D
100
AcDbEntity
  8
Ｇ．Ｌ
100
AcDbLine
 10
1811.406454453173
 20
2437.931598713263
 30
0.0
 11
14516.30542539651
 21
2437.931598713261
 31
0.0
  0
LINE
  5
18102
330
747D
100
AcDbEntity
  8
部品1
 48
50.0
100
AcDbLine
 10
6399.673057123633
 20
10185.96212587675
 30
0.0
 11
4769.673057123635
 21
10185.96212587672
 31
0.0
  0
LINE
  5
18103
330
747D
100
AcDbEntity
  8
部品1
100
AcDbLine
 10
6424.673057123643
 20
10210.96212587682
 30
0.0
 11
4744.673057123642
 21
10210.96212587681
 31
0.0
  0
LINE
  5
18106
330
747D
100
AcDbEntity
  8
寸法
 48
50.0
100
AcDbLine
 10
6479.563357233136
 20
10658.2345568428
 30
0.0
 11
6479.563357233136
 21
10797.38568445075
 31
0.0
  0
LINE
  5
18107
330
747D
100
AcDbEntity
  8
寸法
 48
50.0
100
AcDbLine
 10
6479.673057123664
 20
10731.09181905819
 30
0.0
 11
5706.419703089108
 21
10731.09181905819
 31
0.0
  0
LINE
  5
18108
330
747D
100
AcDbEntity
  8
寸法
 48
50.0
100
AcDbLine
 10
4689.673057123664
 20
10731.09181905819
 30
0.0
 11
5470.886064659351
 21
10731.09181905819
 31
0.0
  0
TEXT
  5
18109
330
747D
100
AcDbEntity
  8
文字
 48
50.0
100
AcDbText
 10
5744.946326482197
 20
10774.94903178544
 30
0.0
 40
120.0
  1
1790
  7
STYLE1
100
AcDbText
  0
TEXT
  5
1810A
330
747D
100
AcDbEntity
  8
文字
 48
50.0
100
AcDbText
 10
5133.401826075933
 20
10774.94903178544
 30
0.0
 40
120.0
  1
1790
  7
STYLE1
100
AcDbText
  0
LINE
  5
18157
330
747D
100
AcDbEntity
  8
部品1
100
AcDbLine
 10
4661.673057123651
 20
9790.962125876845
 30
0.0
 11
4689.673057123651
 21
9790.962125876845
 31
0.0
  0
LINE
  5
18158
330
747D
100
AcDbEntity
  8
部品1
100
AcDbLine
 10
4661.673057123651
 20
9370.962125876843
 30
0.0
 11
4689.673057123651
 21
9370.962125876843
 31
0.0
  0
LINE
  5
18159
330
747D
100
AcDbEntity
  8
部品1
100
AcDbLine
 10
4661.673057123651
 20
8950.962125876843
 30
0.0
 11
4689.673057123651
 21
8950.962125876843
 31
0.0
  0
LINE
  5
1815A
330
747D
100
AcDbEntity
  8
部品1
100
AcDbLine
 10
4634.673057123649
 20
7700.962125876742
 30
0.0
 11
4634.673057123642
 21
10210.96212587674
 31
0.0
  0
LINE
  5
1815B
330
747D
100
AcDbEntity
  8
部品1
 48
10.0
100
AcDbLine
 10
4609.673057123658
 20
7700.962125876742
 30
0.0
 11
4609.673057123632
 21
10210.96212587674
 31
0.0
  0
LINE
  5
1815C
330
747D
100
AcDbEntity
  8
部品1
100
AcDbLine
 10
4661.673057123631
 20
10237.96212587684
 30
0.0
 11
4661.673057123614
 21
7635.962125876736
 31
0.0
  0
LINE
  5
1815D
330
747D
100
AcDbEntity
  8
部品1
100
AcDbLine
 10
4744.673057123669
 20
7700.962125876742
 30
0.0
 11
4744.673057123642
 21
10210.96212587674
 31
0.0
  0
LINE
  5
1815E
330
747D
100
AcDbEntity
  8
部品1
 48
10.0
100
AcDbLine
 10
4769.673057123664
 20
7700.962125876742
 30
0.0
 11
4769.673057123616
 21
10210.96212587676
 31
0.0
  0
LINE
  5
1815F
330
747D
100
AcDbEntity
  8
部品1
100
AcDbLine
 10
4717.673057123609
 20
7635.962125876742
 30
0.0
 11
4717.673057123633
 21
10265.96212587679
 31
0.0
  0
LINE
  5
18160
330
747D
100
AcDbEntity
  8
部品1
100
AcDbLine
 10
4689.673057123649
 20
10210.96212587676
 30
0.0
 11
4689.673057123622
 21
7690.962125876737
 31
0.0
  0
LINE
  5
18161
330
747D
100
AcDbEntity
  8
部品1
100
AcDbLine
 10
6479.673057123649
 20
10210.96212587676
 30
0.0
 11
6479.673057123623
 21
7690.962125876737
 31
0.0
  0
LINE
  5
18162
330
747D
100
AcDbEntity
  8
部品1
100
AcDbLine
 10
6507.67305712361
 20
7635.962125876742
 30
0.0
 11
6507.673057123632
 21
10265.96212587679
 31
0.0
  0
LINE
  5
18163
330
747D
100
AcDbEntity
  8
部品1
 48
10.0
100
AcDbLine
 10
6559.673057123664
 20
7700.962125876742
 30
0.0
 11
6559.673057123617
 21
10210.96212587676
 31
0.0
  0
LINE
  5
18164
330
747D
100
AcDbEntity
  8
部品1
100
AcDbLine
 10
6534.673057123669
 20
7700.962125876742
 30
0.0
 11
6534.673057123642
 21
10210.96212587674
 31
0.0
  0
LINE
  5
18165
330
747D
100
AcDbEntity
  8
部品1
100
AcDbLine
 10
6451.673057123631
 20
10237.96212587684
 30
0.0
 11
6451.673057123615
 21
7635.962125876736
 31
0.0
  0
LINE
  5
18166
330
747D
100
AcDbEntity
  8
部品1
 48
10.0
100
AcDbLine
 10
6399.673057123659
 20
7700.962125876742
 30
0.0
 11
6399.673057123633
 21
10210.96212587674
 31
0.0
  0
LINE
  5
18167
330
747D
100
AcDbEntity
  8
部品1
100
AcDbLine
 10
6424.67305712365
 20
7700.962125876742
 30
0.0
 11
6424.673057123643
 21
10210.96212587674
 31
0.0
  0
LINE
  5
18168
330
747D
100
AcDbEntity
  8
部品1
100
AcDbLine
 10
6451.673057123651
 20
8950.962125876843
 30
0.0
 11
6479.673057123651
 21
8950.962125876843
 31
0.0
  0
LINE
  5
18169
330
747D
100
AcDbEntity
  8
部品1
100
AcDbLine
 10
6451.673057123651
 20
9370.962125876843
 30
0.0
 11
6479.673057123651
 21
9370.962125876843
 31
0.0
  0
LINE
  5
1816A
330
747D
100
AcDbEntity
  8
部品1
100
AcDbLine
 10
6451.673057123651
 20
9790.962125876845
 30
0.0
 11
6479.673057123651
 21
9790.962125876845
 31
0.0
  0
LINE
  5
1816B
330
747D
100
AcDbEntity
  8
部品1
 48
50.0
100
AcDbLine
 10
6507.673057123684
 20
10237.96212587665
 30
0.0
 11
6534.673057123673
 21
10210.96212587666
 31
0.0
  0
LINE
  5
1816C
330
747D
100
AcDbEntity
  8
部品1
 48
50.0
100
AcDbLine
 10
6451.673057123699
 20
10237.96212587674
 30
0.0
 11
6424.673057123695
 21
10210.96212587674
 31
0.0
  0
LINE
  5
1816D
330
747D
100
AcDbEntity
  8
部品1
 48
50.0
100
AcDbLine
 10
4717.673057123684
 20
10237.96212587665
 30
0.0
 11
4744.673057123673
 21
10210.96212587666
 31
0.0
  0
LINE
  5
1816E
330
747D
100
AcDbEntity
  8
部品1
 48
50.0
100
AcDbLine
 10
4661.673057123699
 20
10237.96212587674
 30
0.0
 11
4634.673057123694
 21
10210.96212587674
 31
0.0
  0
LINE
  5
1816F
330
747D
100
AcDbEntity
  8
部品1
100
AcDbLine
 10
4634.673057123642
 20
10210.96212587681
 30
0.0
 11
2954.673057123633
 21
10210.96212587681
 31
0.0
  0
LINE
  5
18170
330
747D
100
AcDbEntity
  8
部品1
100
AcDbLine
 10
6507.673057123632
 20
10210.96212587681
 30
0.0
 11
6451.673057123631
 21
10210.96212587681
 31
0.0
  0
LINE
  5
18171
330
747D
100
AcDbEntity
  8
部品1
100
AcDbLine
 10
6451.673057123658
 20
8530.962125876845
 30
0.0
 11
6479.673057123658
 21
8530.962125876845
 31
0.0
  0
LINE
  5
18172
330
747D
100
AcDbEntity
  8
部品1
100
AcDbLine
 10
6451.673057123658
 20
8110.962125876843
 30
0.0
 11
6479.673057123658
 21
8110.962125876843
 31
0.0
  0
LINE
  5
18173
330
747D
100
AcDbEntity
  8
部品1
100
AcDbLine
 10
4661.673057123659
 20
8110.962125876843
 30
0.0
 11
4689.673057123658
 21
8110.962125876843
 31
0.0
  0
LINE
  5
18174
330
747D
100
AcDbEntity
  8
部品1
100
AcDbLine
 10
4661.673057123659
 20
8530.962125876845
 30
0.0
 11
4689.673057123658
 21
8530.962125876845
 31
0.0
  0
CIRCLE
  5
1834F
330
747D
100
AcDbEntity
  8
細線
 48
50.0
100
AcDbCircle
 10
7374.673057123651
 20
3425.431598713262
 30
0.0
 40
18.0
  0
ARC
  5
18350
330
747D
100
AcDbEntity
  8
細線
 48
50.0
100
AcDbCircle
 10
7674.673057123651
 20
3100.431598713262
 30
0.0
 40
15.0
100
AcDbArc
 50
270.0
 51
90.0
  0
ARC
  5
18351
330
747D
100
AcDbEntity
  8
細線
 48
50.0
100
AcDbCircle
 10
7574.673057123651
 20
3100.431598713262
 30
0.0
 40
15.0
100
AcDbArc
 50
90.0
 51
270.0
  0
LINE
  5
18352
330
747D
100
AcDbEntity
  8
細線
 48
50.0
100
AcDbLine
 10
7574.673057123651
 20
3115.431598713261
 30
0.0
 11
7674.673057123651
 21
3115.431598713261
 31
0.0
  0
LINE
  5
18353
330
747D
100
AcDbEntity
  8
細線
 48
50.0
100
AcDbLine
 10
7674.673057123651
 20
3085.431598713262
 30
0.0
 11
7574.673057123651
 21
3085.431598713262
 31
0.0
  0
LINE
  5
18354
330
747D
100
AcDbEntity
  8
細線
 48
50.0
100
AcDbLine
 10
7174.673057123651
 20
3085.431598713262
 30
0.0
 11
7074.673057123651
 21
3085.431598713262
 31
0.0
  0
LINE
  5
18355
330
747D
100
AcDbEntity
  8
細線
 48
50.0
100
AcDbLine
 10
7074.673057123651
 20
3115.431598713261
 30
0.0
 11
7174.673057123651
 21
3115.431598713261
 31
0.0
  0
ARC
  5
18356
330
747D
100
AcDbEntity
  8
細線
 48
50.0
100
AcDbCircle
 10
7174.673057123651
 20
3100.431598713262
 30
0.0
 40
15.0
100
AcDbArc
 50
270.0
 51
90.0
  0
ARC
  5
18357
330
747D
100
AcDbEntity
  8
細線
 48
50.0
100
AcDbCircle
 10
7074.673057123651
 20
3100.431598713262
 30
0.0
 40
15.0
100
AcDbArc
 50
90.0
 51
270.0
  0
ARC
  5
18792
330
747D
100
AcDbEntity
  8
細線
 48
50.0
100
AcDbCircle
 10
3494.673057123652
 20
3100.431598713262
 30
0.0
 40
15.0
100
AcDbArc
 50
90.0
 51
270.0
  0
ARC
  5
18793
330
747D
100
AcDbEntity
  8
細線
 48
50.0
100
AcDbCircle
 10
3594.673057123652
 20
3100.431598713262
 30
0.0
 40
15.0
100
AcDbArc
 50
270.0
 51
90.0
  0
LINE
  5
18794
330
747D
100
AcDbEntity
  8
細線
 48
50.0
100
AcDbLine
 10
3494.673057123652
 20
3115.431598713261
 30
0.0
 11
3594.673057123652
 21
3115.431598713261
 31
0.0
  0
LINE
  5
18795
330
747D
100
AcDbEntity
  8
細線
 48
50.0
100
AcDbLine
 10
3594.673057123652
 20
3085.431598713262
 30
0.0
 11
3494.673057123652
 21
3085.431598713262
 31
0.0
  0
LINE
  5
18796
330
747D
100
AcDbEntity
  8
細線
 48
50.0
100
AcDbLine
 10
4094.673057123651
 20
3085.431598713262
 30
0.0
 11
3994.673057123652
 21
3085.431598713262
 31
0.0
  0
LINE
  5
18797
330
747D
100
AcDbEntity
  8
細線
 48
50.0
100
AcDbLine
 10
3994.673057123652
 20
3115.431598713261
 30
0.0
 11
4094.673057123651
 21
3115.431598713261
 31
0.0
  0
ARC
  5
18798
330
747D
100
AcDbEntity
  8
細線
 48
50.0
100
AcDbCircle
 10
3994.673057123652
 20
3100.431598713262
 30
0.0
 40
15.0
100
AcDbArc
 50
90.0
 51
270.0
  0
ARC
  5
18799
330
747D
100
AcDbEntity
  8
細線
 48
50.0
100
AcDbCircle
 10
4094.673057123651
 20
3100.431598713262
 30
0.0
 40
15.0
100
AcDbArc
 50
270.0
 51
90.0
  0
CIRCLE
  5
1879A
330
747D
100
AcDbEntity
  8
細線
 48
50.0
100
AcDbCircle
 10
3794.673057123651
 20
3425.431598713262
 30
0.0
 40
18.0
  0
TEXT
  5
18837
330
747D
100
AcDbEntity
  8
文字
 62
     7
 48
50.0
100
AcDbText
 10
15022.63965474516
 20
9910.013745883727
 30
0.0
 40
100.0
  1
F12,Y10        1.0
  7
STYLE1
100
AcDbText
  0
TEXT
  5
18838
330
747D
100
AcDbEntity
  8
文字
 62
     7
 48
50.0
100
AcDbText
 10
13583.11819016569
 20
9910.01374588373
 30
0.0
 40
100.0
  1
梁中
  7
STYLE1
100
AcDbText
  0
TEXT
  5
18839
330
747D
100
AcDbEntity
  8
文字
 62
     7
 48
50.0
100
AcDbText
 10
13248.77747366448
 20
8720.013745883731
 30
0.0
 40
100.0
  1
14
  7
STYLE1
100
AcDbText
  0
LINE
  5
1883A
330
747D
100
AcDbEntity
  8
仕様書枠
 48
50.0
100
AcDbLine
 10
16307.19999999999
 20
9879.599999999999
 30
0.0
 11
13127.2
 21
9879.600000000001
 31
0.0
  0
LINE
  5
1883B
330
747D
100
AcDbEntity
  8
仕様書枠
 48
50.0
100
AcDbLine
 10
16307.19999999999
 20
11239.6
 30
0.0
 11
13127.2
 21
11239.6
 31
0.0
  0
LINE
  5
1883C
330
747D
100
AcDbEntity
  8
仕様書枠
 48
50.0
100
AcDbLine
 10
16307.2
 20
8179.6
 30
0.0
 11
16307.2
 21
11239.6
 31
0.0
  0
LINE
  5
1883D
330
747D
100
AcDbEntity
  8
仕様書枠
 48
50.0
100
AcDbLine
 10
14785.2
 20
11239.59999999999
 30
0.0
 11
14785.19999999999
 21
8689.600000000003
 31
0.0
  0
LINE
  5
1883E
330
747D
100
AcDbEntity
  8
仕様書枠
 48
50.0
100
AcDbLine
 10
13490.2
 20
11239.6
 30
0.0
 11
13490.20000000001
 21
8689.600000000003
 31
0.0
  0
LINE
  5
1883F
330
747D
100
AcDbEntity
  8
仕様書枠
 48
50.0
100
AcDbLine
 10
16307.19999999999
 20
11069.6
 30
0.0
 11
13127.2
 21
11069.6
 31
0.0
  0
LINE
  5
18840
330
747D
100
AcDbEntity
  8
仕様書枠
 48
50.0
100
AcDbLine
 10
16307.19999999999
 20
10729.6
 30
0.0
 11
13127.2
 21
10729.6
 31
0.0
  0
LINE
  5
18841
330
747D
100
AcDbEntity
  8
仕様書枠
 48
50.0
100
AcDbLine
 10
16307.19999999999
 20
10899.6
 30
0.0
 11
13127.2
 21
10899.6
 31
0.0
  0
LINE
  5
18842
330
747D
100
AcDbEntity
  8
仕様書枠
 48
50.0
100
AcDbLine
 10
16307.19999999999
 20
10389.6
 30
0.0
 11
13127.19999999999
 21
10389.6
 31
0.0
  0
LINE
  5
18843
330
747D
100
AcDbEntity
  8
仕様書枠
 48
50.0
100
AcDbLine
 10
16307.19999999999
 20
10219.6
 30
0.0
 11
13127.19999999999
 21
10219.6
 31
0.0
  0
LINE
  5
18844
330
747D
100
AcDbEntity
  8
仕様書枠
 48
50.0
100
AcDbLine
 10
16307.19999999999
 20
10559.6
 30
0.0
 11
13127.19999999999
 21
10559.6
 31
0.0
  0
TEXT
  5
18845
330
747D
100
AcDbEntity
  8
文字
 62
     7
 48
50.0
100
AcDbText
 10
13197.42518560407
 20
11100.01374588373
 30
0.0
 40
100.0
  1
品番
  7
STYLE1
100
AcDbText
  0
TEXT
  5
18846
330
747D
100
AcDbEntity
  8
文字
 62
     7
 48
50.0
100
AcDbText
 10
13271.19032244792
 20
10930.01374588373
 30
0.0
 40
100.0
  1
1
  7
STYLE1
100
AcDbText
  0
TEXT
  5
18847
330
747D
100
AcDbEntity
  8
文字
 62
     7
 48
50.0
100
AcDbText
 10
13271.19032244792
 20
10760.01374588373
 30
0.0
 40
100.0
  1
2
  7
STYLE1
100
AcDbText
  0
TEXT
  5
18848
330
747D
100
AcDbEntity
  8
文字
 62
     7
 48
50.0
100
AcDbText
 10
13271.19032244792
 20
10420.01374588373
 30
0.0
 40
100.0
  1
4
  7
STYLE1
100
AcDbText
  0
TEXT
  5
18849
330
747D
100
AcDbEntity
  8
文字
 62
     7
 48
50.0
100
AcDbText
 10
13271.19032244792
 20
10590.01374588373
 30
0.0
 40
100.0
  1
3
  7
STYLE1
100
AcDbText
  0
TEXT
  5
1884A
330
747D
100
AcDbEntity
  8
文字
 62
     7
 48
50.0
100
AcDbText
 10
13732.03840939434
 20
11100.01374588373
 30
0.0
 40
100.0
  1
部　　品　　名
  7
STYLE1
100
AcDbText
  0
TEXT
  5
1884B
330
747D
100
AcDbEntity
  8
文字
 62
     7
 48
50.0
100
AcDbText
 10
14859.79774614482
 20
11100.01374588373
 30
0.0
 40
100.0
  1
材料（材質）　　単位mm
  7
STYLE1
100
AcDbText
  0
TEXT
  5
1884C
330
747D
100
AcDbEntity
  8
文字
 62
     7
 48
50.0
100
AcDbText
 10
13583.11819016569
 20
10930.01374588372
 30
0.0
 40
100.0
  1
土台枠
  7
STYLE1
100
AcDbText
  0
TEXT
  5
1884D
330
747D
100
AcDbEntity
  8
文字
 62
     7
 48
50.0
100
AcDbText
 10
13583.11819016569
 20
10760.01374588372
 30
0.0
 40
100.0
  1
柱
  7
STYLE1
100
AcDbText
  0
TEXT
  5
1884E
330
747D
100
AcDbEntity
  8
文字
 62
     7
 48
50.0
100
AcDbText
 10
13583.11819016569
 20
10590.01374588373
 30
0.0
 40
100.0
  1
桁前
  7
STYLE1
100
AcDbText
  0
TEXT
  5
1884F
330
747D
100
AcDbEntity
  8
文字
 62
     7
 48
50.0
100
AcDbText
 10
13583.11819016569
 20
10420.01374588373
 30
0.0
 40
100.0
  1
桁後
  7
STYLE1
100
AcDbText
  0
TEXT
  5
18850
330
747D
100
AcDbEntity
  8
文字
 62
     7
 48
50.0
100
AcDbText
 10
13271.19032244792
 20
10250.01374588373
 30
0.0
 40
100.0
  1
5
  7
STYLE1
100
AcDbText
  0
TEXT
  5
18851
330
747D
100
AcDbEntity
  8
文字
 62
     7
 48
50.0
100
AcDbText
 10
13583.11819016569
 20
10250.01374588373
 30
0.0
 40
100.0
  1
妻板左右
  7
STYLE1
100
AcDbText
  0
TEXT
  5
18853
330
747D
100
AcDbEntity
  8
文字
 62
     7
 48
50.0
100
AcDbText
 10
13248.77747366448
 20
9400.013745883727
 30
0.0
 40
100.0
  1
10
  7
STYLE1
100
AcDbText
  0
TEXT
  5
18854
330
747D
100
AcDbEntity
  8
文字
 62
     7
 48
50.0
100
AcDbText
 10
13583.11819016569
 20
9400.013745883729
 30
0.0
 40
100.0
  1
壁パネル
  7
STYLE1
100
AcDbText
  0
TEXT
  5
18855
330
747D
100
AcDbEntity
  8
文字
 62
     7
 48
50.0
100
AcDbText
 10
13583.11819016569
 20
9570.013745883727
 30
0.0
 40
100.0
  1
屋根パネル
  7
STYLE1
100
AcDbText
  0
TEXT
  5
18856
330
747D
100
AcDbEntity
  8
文字
 62
     7
 48
50.0
100
AcDbText
 10
13583.11819016569
 20
9740.013745883729
 30
0.0
 40
100.0
  1
母屋中
  7
STYLE1
100
AcDbText
  0
TEXT
  5
18857
330
747D
100
AcDbEntity
  8
文字
 62
     7
 48
50.0
100
AcDbText
 10
13583.11819016569
 20
10080.01374588372
 30
0.0
 40
100.0
  1
鼻隠シ前後
  7
STYLE1
100
AcDbText
  0
TEXT
  5
18858
330
747D
100
AcDbEntity
  8
文字
 62
     7
 48
50.0
100
AcDbText
 10
13271.19032244792
 20
9740.013745883729
 30
0.0
 40
100.0
  1
8
  7
STYLE1
100
AcDbText
  0
TEXT
  5
18859
330
747D
100
AcDbEntity
  8
文字
 62
     7
 48
50.0
100
AcDbText
 10
13271.19032244792
 20
9570.013745883729
 30
0.0
 40
100.0
  1
9
  7
STYLE1
100
AcDbText
  0
TEXT
  5
1885A
330
747D
100
AcDbEntity
  8
文字
 62
     7
 48
50.0
100
AcDbText
 10
13271.19032244792
 20
9910.01374588373
 30
0.0
 40
100.0
  1
7
  7
STYLE1
100
AcDbText
  0
TEXT
  5
1885B
330
747D
100
AcDbEntity
  8
文字
 62
     7
 48
50.0
100
AcDbText
 10
13271.19032244792
 20
10080.01374588373
 30
0.0
 40
100.0
  1
6
  7
STYLE1
100
AcDbText
  0
LINE
  5
1885C
330
747D
100
AcDbEntity
  8
仕様書枠
 48
50.0
100
AcDbLine
 10
16307.19999999999
 20
9539.599999999998
 30
0.0
 11
13127.19999999999
 21
9539.6
 31
0.0
  0
LINE
  5
1885D
330
747D
100
AcDbEntity
  8
仕様書枠
 48
50.0
100
AcDbLine
 10
16307.19999999999
 20
9199.599999999998
 30
0.0
 11
13127.19999999999
 21
9199.600000000001
 31
0.0
  0
LINE
  5
1885E
330
747D
100
AcDbEntity
  8
仕様書枠
 48
50.0
100
AcDbLine
 10
16307.19999999999
 20
9369.599999999998
 30
0.0
 11
13127.19999999999
 21
9369.600000000001
 31
0.0
  0
LINE
  5
1885F
330
747D
100
AcDbEntity
  8
仕様書枠
 48
50.0
100
AcDbLine
 10
16307.19999999999
 20
10049.6
 30
0.0
 11
13127.2
 21
10049.6
 31
0.0
  0
LINE
  5
18860
330
747D
100
AcDbEntity
  8
仕様書枠
 48
50.0
100
AcDbLine
 10
16307.19999999999
 20
9709.6
 30
0.0
 11
13127.2
 21
9709.600000000001
 31
0.0
  0
TEXT
  5
18861
330
747D
100
AcDbEntity
  8
文字
 62
     7
 48
50.0
100
AcDbText
 10
13248.77747366448
 20
9230.013745883727
 30
0.0
 40
100.0
  1
11
  7
STYLE1
100
AcDbText
  0
TEXT
  5
18862
330
747D
100
AcDbEntity
  8
文字
 62
     7
 48
50.0
100
AcDbText
 10
13583.11819016569
 20
9060.013745883727
 30
0.0
 40
100.0
  1
シャッターカバー
 41
0.9
  7
STYLE1
100
AcDbText
  0
LINE
  5
18863
330
747D
100
AcDbEntity
  8
仕様書枠
 48
50.0
100
AcDbLine
 10
16307.19999999999
 20
9029.6
 30
0.0
 11
13127.19999999999
 21
9029.6
 31
0.0
  0
TEXT
  5
18865
330
747D
100
AcDbEntity
  8
文字
 62
     7
 48
50.0
100
AcDbText
 10
13583.11819016569
 20
8720.013745883729
 30
0.0
 40
100.0
  1
棚板（別売）
  7
STYLE1
100
AcDbText
  0
LINE
  5
18866
330
747D
100
AcDbEntity
  8
仕様書枠
 48
50.0
100
AcDbLine
 10
16307.19999999999
 20
8859.6
 30
0.0
 11
13127.19999999999
 21
8859.600000000002
 31
0.0
  0
TEXT
  5
18868
330
747D
100
AcDbEntity
  8
文字
 62
     7
 48
50.0
100
AcDbText
 10
13248.77747366448
 20
8890.013745883729
 30
0.0
 40
100.0
  1
13
  7
STYLE1
100
AcDbText
  0
TEXT
  5
18869
330
747D
100
AcDbEntity
  8
文字
 62
     7
 48
50.0
100
AcDbText
 10
13248.77747366448
 20
9060.013745883729
 30
0.0
 40
100.0
  1
12
  7
STYLE1
100
AcDbText
  0
TEXT
  5
1886A
330
747D
100
AcDbEntity
  8
文字
 62
     7
 48
50.0
100
AcDbText
 10
15022.63965474517
 20
10930.01374588372
 30
0.0
 40
100.0
  1
F12            1.2
  7
STYLE1
100
AcDbText
  0
TEXT
  5
1886C
330
747D
100
AcDbEntity
  8
文字
 62
     7
 48
50.0
100
AcDbText
 10
15022.63965474517
 20
10590.01374588372
 30
0.0
 40
100.0
  1
Y10            1.0
  7
STYLE1
100
AcDbText
  0
TEXT
  5
1886D
330
747D
100
AcDbEntity
  8
文字
 62
     7
 48
50.0
100
AcDbText
 10
15022.63965474516
 20
10420.01374588372
 30
0.0
 40
100.0
  1
Y10            1.0
  7
STYLE1
100
AcDbText
  0
TEXT
  5
1886E
330
747D
100
AcDbEntity
  8
文字
 62
     7
 48
50.0
100
AcDbText
 10
15022.63965474517
 20
10250.01374588372
 30
0.0
 40
100.0
  1
Y10            0.7
  7
STYLE1
100
AcDbText
  0
TEXT
  5
1886F
330
747D
100
AcDbEntity
  8
文字
 62
     7
 48
50.0
100
AcDbText
 10
15022.63965474516
 20
10080.01374588372
 30
0.0
 40
100.0
  1
Y10            0.7
  7
STYLE1
100
AcDbText
  0
TEXT
  5
18870
330
747D
100
AcDbEntity
  8
文字
 62
     7
 48
50.0
100
AcDbText
 10
15022.63965474517
 20
9740.013745883725
 30
0.0
 40
100.0
  1
F12            1.0
  7
STYLE1
100
AcDbText
  0
TEXT
  5
18871
330
747D
100
AcDbEntity
  8
文字
 62
     7
 48
50.0
100
AcDbText
 10
15022.63965474517
 20
9570.013745883725
 30
0.0
 40
100.0
  1
Y10            0.5
  7
STYLE1
100
AcDbText
  0
TEXT
  5
18872
330
747D
100
AcDbEntity
  8
文字
 62
     7
 48
50.0
100
AcDbText
 10
15022.63965474516
 20
9400.013745883725
 30
0.0
 40
100.0
  1
F12            0.7
  7
STYLE1
100
AcDbText
  0
TEXT
  5
18876
330
747D
100
AcDbEntity
  8
文字
 62
     7
 48
50.0
100
AcDbText
 10
15022.63965474516
 20
8720.013745883727
 30
0.0
 40
100.0
  1
F12            0.6
  7
STYLE1
100
AcDbText
  0
LINE
  5
18877
330
747D
100
AcDbEntity
  8
仕様書枠
 48
50.0
100
AcDbLine
 10
16307.19999999999
 20
8519.599999999998
 30
0.0
 11
13127.19999999999
 21
8519.600000000002
 31
0.0
  0
LINE
  5
18878
330
747D
100
AcDbEntity
  8
仕様書枠
 48
50.0
100
AcDbLine
 10
16307.19999999999
 20
8349.599999999998
 30
0.0
 11
13127.19999999999
 21
8349.6
 31
0.0
  0
LINE
  5
18879
330
747D
100
AcDbEntity
  8
仕様書枠
 48
50.0
100
AcDbLine
 10
16307.19999999999
 20
8179.599999999998
 30
0.0
 11
13127.19999999999
 21
8179.6
 31
0.0
  0
TEXT
  5
1887A
330
747D
100
AcDbEntity
  8
文字
 62
     7
 48
50.0
100
AcDbText
 10
13229.83081656554
 20
8550.013745883727
 30
0.0
 40
100.0
  1
F12→溶融亜鉛めっき鋼板(JIS G 3302)
  7
STYLE1
100
AcDbText
  0
TEXT
  5
1887B
330
747D
100
AcDbEntity
  8
文字
 62
     7
 48
50.0
100
AcDbText
 10
13229.83081656554
 20
8380.013745883728
 30
0.0
 40
100.0
  1
Y10→溶融亜鉛-5％アルミニウム合金めっき鋼板(JIS G 3317)
 41
0.9
  7
STYLE1
100
AcDbText
  0
TEXT
  5
1887C
330
747D
100
AcDbEntity
  8
文字
 62
     7
 48
50.0
100
AcDbText
 10
13229.83081656554
 20
8210.013745883729
 30
0.0
 40
100.0
  1
Z08→塗装溶融亜鉛めっき鋼板(JIS G 3313)
  7
STYLE1
100
AcDbText
  0
LINE
  5
1887D
330
747D
100
AcDbEntity
  8
仕様書枠
 48
50.0
100
AcDbLine
 10
13127.2
 20
11239.6
 30
0.0
 11
13127.2
 21
8179.600000000002
 31
0.0
  0
TEXT
  5
18E97
330
747D
100
AcDbEntity
  8
部品1
100
AcDbText
 10
11945.49664844793
 20
1595.038069494737
 30
0.0
 40
135.0
  1
側面図
  7
MSGOTHIC
100
AcDbText
  0
LWPOLYLINE
  5
18E98
330
747D
100
AcDbEntity
  8
部品1
100
AcDbPolyline
 90
        4
 70
     1
 43
0.0
 10
11840.11449739906
 20
1787.931598713262
 10
11840.11449739906
 20
1548.039277167729
 10
12603.5851636275
 20
1548.039277167729
 10
12603.5851636275
 20
1787.931598713262
  0
LINE
  5
18E9A
330
747D
100
AcDbEntity
  8
部品1
100
AcDbLine
 10
10896.84983051327
 20
2537.931598713262
 30
0.0
 11
10503.85261630443
 21
2437.931598713261
 31
0.0
  0
LINE
  5
18E9B
330
747D
100
AcDbEntity
  8
破線
 48
5.0
100
AcDbLine
 10
10896.84983051327
 20
2187.931598713261
 30
0.0
 11
10951.84983051328
 21
2187.931598713261
 31
0.0
  0
LINE
  5
18E9C
330
747D
100
AcDbEntity
  8
破線
 48
5.0
100
AcDbLine
 10
10951.84983051328
 20
2437.931598713261
 30
0.0
 11
10951.84983051328
 21
2187.931598713261
 31
0.0
  0
LINE
  5
18E9D
330
747D
100
AcDbEntity
  8
破線
 48
5.0
100
AcDbLine
 10
10896.84983051327
 20
2437.931598713261
 30
0.0
 11
10896.84983051327
 21
2187.931598713261
 31
0.0
  0
DIMENSION
  5
18EA3
330
747D
100
AcDbEntity
  8
寸法
 48
50.0
100
AcDbDimension
  2
*D29
 10
10276.2414237449
 20
4787.276857586594
 30
0.0
 11
10286.90689900382
 21
5158.123520828293
 31
0.0
 70
   161
 71
     5
 42
141.0
  3
INABA_S40G
100
AcDbAlignedDimension
 13
10856.24585067185
 23
4911.654347547942
 33
0.0
 14
10852.19239511523
 24
4770.712623782229
 34
0.0
1001
ACAD
1000
DSTYLE
1002
{
1070
   174
1070
     0
1070
   272
1070
     1
1070
   288
1070
     0
1070
   341
1005
0
1002
}
  0
LINE
  5
18EA4
330
747D
100
AcDbEntity
  8
細線
 48
50.0
100
AcDbLine
 10
13394.34983051328
 20
4677.931598713261
 30
0.0
 11
13394.34983051328
 21
2587.931598713265
 31
0.0
  0
LINE
  5
18EA5
330
747D
100
AcDbEntity
  8
細線
 48
50.0
100
AcDbLine
 10
13409.34983051328
 20
4677.931598713261
 30
0.0
 11
13409.34983051328
 21
2587.931598713265
 31
0.0
  0
LINE
  5
18EA6
330
747D
100
AcDbEntity
  8
細線
 48
50.0
100
AcDbLine
 10
13269.34983051328
 20
4677.931598713261
 30
0.0
 11
13269.34983051328
 21
2587.931598713265
 31
0.0
  0
LINE
  5
18EA7
330
747D
100
AcDbEntity
  8
細線
 48
50.0
100
AcDbLine
 10
13254.34983051328
 20
4677.931598713261
 30
0.0
 11
13254.34983051328
 21
2587.931598713265
 31
0.0
  0
LINE
  5
18EA8
330
747D
100
AcDbEntity
  8
細線
 48
50.0
100
AcDbLine
 10
13114.34983051328
 20
4677.931598713261
 30
0.0
 11
13114.34983051328
 21
2587.931598713265
 31
0.0
  0
LINE
  5
18EA9
330
747D
100
AcDbEntity
  8
細線
 48
50.0
100
AcDbLine
 10
13129.34983051328
 20
4677.931598713261
 30
0.0
 11
13129.34983051328
 21
2587.931598713265
 31
0.0
  0
LINE
  5
18EAA
330
747D
100
AcDbEntity
  8
部品1
100
AcDbLine
 10
12211.84983051328
 20
4677.931598713261
 30
0.0
 11
12211.84983051328
 21
2587.931598713261
 31
0.0
  0
LINE
  5
18EAB
330
747D
100
AcDbEntity
  8
細線
 48
50.0
100
AcDbLine
 10
11869.34983051328
 20
4677.931598713261
 30
0.0
 11
11869.34983051328
 21
2587.931598713261
 31
0.0
  0
LINE
  5
18EAC
330
747D
100
AcDbEntity
  8
細線
 48
50.0
100
AcDbLine
 10
11854.34983051328
 20
4677.931598713261
 30
0.0
 11
11854.34983051328
 21
2587.931598713261
 31
0.0
  0
LINE
  5
18EAD
330
747D
100
AcDbEntity
  8
細線
 48
50.0
100
AcDbLine
 10
11994.34983051328
 20
4677.931598713261
 30
0.0
 11
11994.34983051328
 21
2587.931598713261
 31
0.0
  0
LINE
  5
18EAE
330
747D
100
AcDbEntity
  8
細線
 48
50.0
100
AcDbLine
 10
12009.34983051328
 20
4677.931598713261
 30
0.0
 11
12009.34983051328
 21
2587.931598713261
 31
0.0
  0
LINE
  5
18EAF
330
747D
100
AcDbEntity
  8
細線
 48
50.0
100
AcDbLine
 10
12149.34983051328
 20
4677.931598713261
 30
0.0
 11
12149.34983051328
 21
2587.931598713261
 31
0.0
  0
LINE
  5
18EB0
330
747D
100
AcDbEntity
  8
細線
 48
50.0
100
AcDbLine
 10
12134.34983051328
 20
4677.931598713261
 30
0.0
 11
12134.34983051328
 21
2587.931598713261
 31
0.0
  0
LINE
  5
18EB1
330
747D
100
AcDbEntity
  8
部品1
100
AcDbLine
 10
11791.84983051328
 20
4677.931598713261
 30
0.0
 11
11791.84983051328
 21
2587.931598713261
 31
0.0
  0
DIMENSION
  5
18EB2
330
747D
100
AcDbEntity
  8
寸法
 48
50.0
100
AcDbDimension
  2
*D30
 10
13606.84983051328
 20
5311.589052292569
 30
0.0
 11
13812.89707460777
 21
5311.589052292569
 31
0.0
 70
   160
 71
     5
 42
80.0
  3
INABA_S40G
100
AcDbAlignedDimension
 13
13526.84983051328
 23
4859.742278324915
 33
0.0
 14
13606.84983051328
 24
4857.931598713264
 34
0.0
100
AcDbRotatedDimension
1001
ACAD
1000
DSTYLE
1002
{
1070
   174
1070
     0
1070
   272
1070
     1
1070
   288
1070
     0
1070
   341
1005
0
1002
}
  0
LINE
  5
18EB3
330
747D
100
AcDbEntity
  8
細線
 48
50.0
100
AcDbLine
 10
11029.34983051327
 20
4677.931598713261
 30
0.0
 11
11029.34983051327
 21
2587.931598713261
 31
0.0
  0
LINE
  5
18EB4
330
747D
100
AcDbEntity
  8
細線
 48
50.0
100
AcDbLine
 10
11014.34983051328
 20
4677.931598713261
 30
0.0
 11
11014.34983051328
 21
2587.931598713261
 31
0.0
  0
LINE
  5
18EB5
330
747D
100
AcDbEntity
  8
細線
 48
50.0
100
AcDbLine
 10
11154.34983051328
 20
4677.931598713261
 30
0.0
 11
11154.34983051328
 21
2587.931598713261
 31
0.0
  0
LINE
  5
18EB6
330
747D
100
AcDbEntity
  8
細線
 48
50.0
100
AcDbLine
 10
11169.34983051327
 20
4677.931598713261
 30
0.0
 11
11169.34983051327
 21
2587.931598713261
 31
0.0
  0
LINE
  5
18EB7
330
747D
100
AcDbEntity
  8
細線
 48
50.0
100
AcDbLine
 10
11309.34983051328
 20
4677.931598713261
 30
0.0
 11
11309.34983051328
 21
2587.931598713261
 31
0.0
  0
LINE
  5
18EB8
330
747D
100
AcDbEntity
  8
細線
 48
50.0
100
AcDbLine
 10
11294.34983051328
 20
4677.931598713261
 30
0.0
 11
11294.34983051328
 21
2587.931598713261
 31
0.0
  0
LINE
  5
18EB9
330
747D
100
AcDbEntity
  8
細線
 48
50.0
100
AcDbLine
 10
11714.34983051327
 20
4677.931598713261
 30
0.0
 11
11714.34983051327
 21
2587.931598713261
 31
0.0
  0
LINE
  5
18EBA
330
747D
100
AcDbEntity
  8
細線
 48
50.0
100
AcDbLine
 10
11729.34983051328
 20
4677.931598713261
 30
0.0
 11
11729.34983051328
 21
2587.931598713261
 31
0.0
  0
LINE
  5
18EBB
330
747D
100
AcDbEntity
  8
細線
 48
50.0
100
AcDbLine
 10
11589.34983051328
 20
4677.931598713261
 30
0.0
 11
11589.34983051328
 21
2587.931598713261
 31
0.0
  0
LINE
  5
18EBC
330
747D
100
AcDbEntity
  8
細線
 48
50.0
100
AcDbLine
 10
11574.34983051327
 20
4677.931598713261
 30
0.0
 11
11574.34983051327
 21
2587.931598713261
 31
0.0
  0
LINE
  5
18EBD
330
747D
100
AcDbEntity
  8
細線
 48
50.0
100
AcDbLine
 10
11434.34983051328
 20
4677.931598713261
 30
0.0
 11
11434.34983051328
 21
2587.931598713261
 31
0.0
  0
LINE
  5
18EBE
330
747D
100
AcDbEntity
  8
細線
 48
50.0
100
AcDbLine
 10
11449.34983051328
 20
4677.931598713261
 30
0.0
 11
11449.34983051328
 21
2587.931598713261
 31
0.0
  0
LINE
  5
18EBF
330
747D
100
AcDbEntity
  8
部品1
100
AcDbLine
 10
10951.84983051328
 20
2537.931598713262
 30
0.0
 11
13526.84983051328
 21
2537.931598713262
 31
0.0
  0
DIMENSION
  5
18EC0
330
747D
100
AcDbEntity
  8
寸法
 48
50.0
100
AcDbDimension
  2
*D31
 10
10836.84983051327
 20
5531.799739024183
 30
0.0
 11
12221.84983051328
 21
5531.799739024183
 31
0.0
 70
   160
 71
     5
 42
2770.0
  3
INABA_S40G
100
AcDbAlignedDimension
 13
13606.84983051328
 23
4857.931598713264
 33
0.0
 14
10836.84983051327
 24
4912.931598713267
 34
0.0
100
AcDbRotatedDimension
1001
ACAD
1000
DSTYLE
1002
{
1070
   174
1070
     0
1070
   272
1070
     1
1070
   288
1070
     0
1070
   341
1005
0
1002
}
  0
DIMENSION
  5
18EC1
330
747D
100
AcDbEntity
  8
寸法
 48
50.0
100
AcDbDimension
  2
*D32
 10
10836.84983051327
 20
5311.589052292566
 30
0.0
 11
10527.21203523768
 21
5311.589052292566
 31
0.0
 70
   160
 71
     5
 42
60.0
  3
INABA_S40G
100
AcDbAlignedDimension
 13
10896.84983051327
 23
4908.933216836238
 33
0.0
 14
10836.84983051327
 24
4912.931598713267
 34
0.0
100
AcDbRotatedDimension
1001
ACAD
1000
DSTYLE
1002
{
1070
   174
1070
     0
1070
   272
1070
     1
1070
   288
1070
     0
1070
   341
1005
0
1002
}
  0
DIMENSION
  5
18EC2
330
747D
100
AcDbEntity
  8
寸法
 48
50.0
100
AcDbDimension
  2
*D33
 10
10896.84983051327
 20
5311.589052292569
 30
0.0
 11
12211.84983051328
 21
5311.589052292569
 31
0.0
 70
   160
  1
柱外寸法<>
 71
     5
 42
2630.0
  3
INABA_S40G
100
AcDbAlignedDimension
 13
13526.84983051328
 23
4859.742278324915
 33
0.0
 14
10896.84983051327
 24
4908.933216836238
 34
0.0
100
AcDbRotatedDimension
1001
ACAD
1000
DSTYLE
1002
{
1070
   174
1070
     0
1070
   272
1070
     1
1070
   288
1070
     0
1070
   341
1005
0
1002
}
  0
LINE
  5
18EC3
330
747D
100
AcDbEntity
  8
部品1
100
AcDbLine
 10
13471.84983051328
 20
4677.931598713261
 30
0.0
 11
13471.84983051328
 21
2587.931598713265
 31
0.0
  0
LINE
  5
18EC4
330
747D
100
AcDbEntity
  8
部品1
100
AcDbLine
 10
13526.84983051328
 20
4732.465872101001
 30
0.0
 11
13526.84983051328
 21
2437.931598713265
 31
0.0
  0
LINE
  5
18EC5
330
747D
100
AcDbEntity
  8
部品1
100
AcDbLine
 10
11371.84983051328
 20
4677.931598713261
 30
0.0
 11
11371.84983051328
 21
2587.931598713261
 31
0.0
  0
DIMENSION
  5
18EC6
330
747D
100
AcDbEntity
  8
寸法
100
AcDbDimension
  2
*D34
 10
10053.09970133002
 20
2537.931598713262
 30
0.0
 11
10053.09970133002
 21
2231.884354618772
 31
0.0
 70
   160
 71
     5
 42
50.0
  3
INABA_S40G
100
AcDbAlignedDimension
 13
10896.84983051327
 23
2587.931598713263
 33
0.0
 14
10841.84983051328
 24
2537.931598713262
 34
0.0
 50
90.0
100
AcDbRotatedDimension
1001
ACAD
1000
DSTYLE
1002
{
1070
   174
1070
     0
1070
   272
1070
     1
1070
   288
1070
     0
1070
   341
1005
0
1002
}
  0
LINE
  5
18EC7
330
747D
100
AcDbEntity
  8
部品1
100
AcDbLine
 10
10896.84983051327
 20
4770.074036642141
 30
0.0
 11
10896.84983051327
 21
2437.931598713261
 31
0.0
  0
LINE
  5
18EC8
330
747D
100
AcDbEntity
  8
部品1
100
AcDbLine
 10
10951.84983051328
 20
4677.931598713261
 30
0.0
 11
10951.84983051328
 21
2437.931598713265
 31
0.0
  0
LINE
  5
18EC9
330
747D
100
AcDbEntity
  8
部品1
100
AcDbLine
 10
10951.84983051327
 20
2587.931598713261
 30
0.0
 11
13526.84983051328
 21
2587.931598713265
 31
0.0
  0
LINE
  5
18ECA
330
747D
100
AcDbEntity
  8
部品1
100
AcDbLine
 10
10896.84983051327
 20
4677.931598713261
 30
0.0
 11
13526.84983051328
 21
4677.931598713261
 31
0.0
  0
LINE
  5
18ECB
330
747D
100
AcDbEntity
  8
部品1
100
AcDbLine
 10
13051.84983051328
 20
4677.931598713261
 30
0.0
 11
13051.84983051328
 21
2587.931598713265
 31
0.0
  0
LINE
  5
18ECC
330
747D
100
AcDbEntity
  8
細線
 48
50.0
100
AcDbLine
 10
12554.34983051328
 20
4677.931598713261
 30
0.0
 11
12554.34983051328
 21
2587.931598713261
 31
0.0
  0
LINE
  5
18ECD
330
747D
100
AcDbEntity
  8
細線
 48
50.0
100
AcDbLine
 10
12569.34983051328
 20
4677.931598713261
 30
0.0
 11
12569.34983051328
 21
2587.931598713261
 31
0.0
  0
LINE
  5
18ECE
330
747D
100
AcDbEntity
  8
細線
 48
50.0
100
AcDbLine
 10
12429.34983051328
 20
4677.931598713261
 30
0.0
 11
12429.34983051328
 21
2587.931598713261
 31
0.0
  0
LINE
  5
18ECF
330
747D
100
AcDbEntity
  8
細線
 48
50.0
100
AcDbLine
 10
12414.34983051328
 20
4677.931598713261
 30
0.0
 11
12414.34983051328
 21
2587.931598713261
 31
0.0
  0
LINE
  5
18ED0
330
747D
100
AcDbEntity
  8
細線
 48
50.0
100
AcDbLine
 10
12274.34983051328
 20
4677.931598713261
 30
0.0
 11
12274.34983051328
 21
2587.931598713261
 31
0.0
  0
LINE
  5
18ED1
330
747D
100
AcDbEntity
  8
細線
 48
50.0
100
AcDbLine
 10
12289.34983051328
 20
4677.931598713261
 30
0.0
 11
12289.34983051328
 21
2587.931598713261
 31
0.0
  0
TEXT
  5
18ED2
330
747D
100
AcDbEntity
  8
部品1
 48
50.0
100
AcDbText
 10
12563.43083247437
 20
4935.200691651571
 30
0.0
 40
120.0
  1
37
 50
90.0
  7
STYLE1
100
AcDbText
  0
TEXT
  5
18ED3
330
747D
100
AcDbEntity
  8
部品1
 48
50.0
100
AcDbText
 10
12085.79780980928
 20
5072.701949869854
 30
0.0
 40
120.0
  1
1000
  7
STYLE1
100
AcDbText
  0
LINE
  5
18ED4
330
747D
100
AcDbEntity
  8
部品1
 48
50.0
100
AcDbLine
 10
12397.52997458555
 20
5036.817927717421
 30
0.0
 11
12397.52997458555
 21
5020.61792771742
 31
0.0
  0
LINE
  5
18ED5
330
747D
100
AcDbEntity
  8
部品1
 48
50.0
100
AcDbLine
 10
12097.52997458555
 20
5036.817927717421
 30
0.0
 11
12397.52997458555
 21
5036.817927717421
 31
0.0
  0
LINE
  5
18ED6
330
747D
100
AcDbEntity
  8
部品1
100
AcDbLine
 10
10844.39481687024
 20
4911.649334047528
 30
0.0
 11
13599.46170737474
 21
4856.572396422402
 31
0.0
  0
LINE
  5
18ED7
330
747D
100
AcDbEntity
  8
部品1
100
AcDbLine
 10
10852.19239511523
 20
4770.712623782229
 30
0.0
 11
13581.51353105313
 21
4731.684198548024
 31
0.0
  0
LINE
  5
18ED8
330
747D
100
AcDbEntity
  8
細線
 48
50.0
100
AcDbLine
 10
10869.84983051328
 20
4910.331275088669
 30
0.0
 11
10864.56072895777
 21
4770.245642461311
 31
0.0
  0
LINE
  5
18ED9
330
747D
100
AcDbEntity
  8
細線
 48
50.0
100
AcDbLine
 10
13573.81911370697
 20
4857.085021192732
 30
0.0
 11
13569.10214762528
 21
4732.152805257814
 31
0.0
  0
LINE
  5
18EDA
330
747D
100
AcDbEntity
  8
部品1
 48
50.0
100
AcDbLine
 10
10837.03411642638
 20
4904.525144877957
 30
0.0
 11
10837.41437620419
 21
4884.598180431545
 31
0.0
  0
LINE
  5
18EDB
330
747D
100
AcDbEntity
  8
部品1
 48
50.0
100
AcDbLine
 10
10840.48314831044
 20
4881.02289893807
 30
0.0
 11
10842.18704980181
 21
4791.732402231423
 31
0.0
  0
LINE
  5
18EDC
330
747D
100
AcDbEntity
  8
細線
 48
50.0
100
AcDbLine
 10
10837.88925361409
 20
4883.948680554626
 30
0.0
 11
13603.52523835926
 21
4828.324475913796
 31
0.0
  0
LINE
  5
18EDD
330
747D
100
AcDbEntity
  8
細線
 48
50.0
100
AcDbLine
 10
10842.64972885138
 20
4791.08716885676
 30
0.0
 11
13592.65339328202
 21
4751.277849882266
 31
0.0
  0
LINE
  5
18EDE
330
747D
100
AcDbEntity
  8
部品1
 48
50.0
100
AcDbLine
 10
10845.25582190805
 20
4788.157120737952
 30
0.0
 11
10845.45777452848
 21
4777.574085344858
 31
0.0
  0
ARC
  5
18EDF
330
747D
100
AcDbEntity
  8
部品1
 48
50.0
100
AcDbCircle
 10
10844.03284225472
 20
4904.658699285384
 30
0.0
 40
7.0
100
AcDbArc
 50
87.03587545283093
 51
181.0932240293156
  0
ARC
  5
18EE0
330
747D
100
AcDbEntity
  8
部品1
 48
50.0
100
AcDbCircle
 10
10852.45650035682
 20
4777.707639752287
 30
0.0
 40
7.0
100
AcDbArc
 50
181.0932240293156
 51
267.8377559869492
  0
ARC
  5
18EE1
330
747D
100
AcDbEntity
  8
部品1
100
AcDbCircle
 10
10842.25636798162
 20
4788.099883134768
 30
0.0
 40
3.0
100
AcDbArc
 50
1.093224029315636
 51
80.18775403169875
  0
ARC
  5
18EE2
330
747D
100
AcDbEntity
  8
部品1
100
AcDbCircle
 10
10837.48369438401
 20
4880.965661334889
 30
0.0
 40
3.0
100
AcDbArc
 50
1.093224029315636
 51
80.18775403169875
  0
ARC
  5
18EE3
330
747D
100
AcDbEntity
  8
部品1
100
AcDbCircle
 10
10838.11424878703
 20
4884.611535872285
 30
0.0
 40
0.7
100
AcDbArc
 50
181.0932240292114
 51
260.1877540314845
  0
ARC
  5
18EE4
330
747D
100
AcDbEntity
  8
部品1
100
AcDbCircle
 10
10842.88692238464
 20
4791.745757672168
 30
0.0
 40
0.7
100
AcDbArc
 50
181.0932240293156
 51
260.1877540314845
  0
LINE
  5
18EE5
330
747D
100
AcDbEntity
  8
部品1
 48
50.0
100
AcDbLine
 10
13606.06373332398
 20
4848.872750987481
 30
0.0
 11
13604.03311213301
 21
4828.927709729701
 31
0.0
  0
LINE
  5
18EE6
330
747D
100
AcDbEntity
  8
部品1
 48
50.0
100
AcDbLine
 10
13600.68054564852
 20
4825.617075656792
 30
0.0
 11
13593.17376638369
 21
4751.884454911782
 31
0.0
  0
LINE
  5
18EE7
330
747D
100
AcDbEntity
  8
部品1
 48
50.0
100
AcDbLine
 10
13589.82119989921
 20
4748.573820838868
 30
0.0
 11
13588.74163685947
 21
4737.97020384531
 31
0.0
  0
ARC
  5
18EE8
330
747D
100
AcDbEntity
  8
部品1
 48
50.0
100
AcDbCircle
 10
13599.09973275922
 20
4849.581761660258
 30
0.0
 40
7.0
100
AcDbArc
 50
354.1866997665532
 51
87.03587545283093
  0
ARC
  5
18EE9
330
747D
100
AcDbEntity
  8
部品1
 48
50.0
100
AcDbCircle
 10
13581.77763629471
 20
4738.679214518084
 30
0.0
 40
7.0
100
AcDbArc
 50
267.8377559869492
 51
354.1866997665532
  0
ARC
  5
18EEA
330
747D
100
AcDbEntity
  8
部品1
100
AcDbCircle
 10
13592.80577156981
 20
4748.269959121964
 30
0.0
 40
3.0
100
AcDbArc
 50
95.0921697642102
 51
174.1866997665532
  0
ARC
  5
18EEB
330
747D
100
AcDbEntity
  8
部品1
100
AcDbCircle
 10
13603.66511731914
 20
4825.313213939891
 30
0.0
 40
3.0
100
AcDbArc
 50
95.0921697642102
 51
174.1866997665532
  0
ARC
  5
18EEC
330
747D
100
AcDbEntity
  8
部品1
100
AcDbCircle
 10
13603.33671207653
 20
4828.998610796978
 30
0.0
 40
0.7
100
AcDbArc
 50
275.0921697642102
 51
354.1866997665532
  0
ARC
  5
18EED
330
747D
100
AcDbEntity
  8
部品1
100
AcDbCircle
 10
13592.47736632722
 20
4751.955355979054
 30
0.0
 40
0.7
100
AcDbArc
 50
275.0921697642102
 51
354.1866997667606
  0
LINE
  5
18EEE
330
747D
100
AcDbEntity
  8
部品1
100
AcDbLine
 10
12072.07496094252
 20
5038.13598667628
 30
0.0
 11
12397.52997458555
 21
5020.61792771742
 31
0.0
  0
LINE
  5
18EEF
330
747D
100
AcDbEntity
  8
部品1
100
AcDbLine
 10
12631.84983051327
 20
4677.931598713261
 30
0.0
 11
12631.84983051327
 21
2587.931598713265
 31
0.0
  0
LINE
  5
18EF0
330
747D
100
AcDbEntity
  8
細線
 48
50.0
100
AcDbLine
 10
12709.34983051328
 20
4677.931598713261
 30
0.0
 11
12709.34983051328
 21
2587.931598713265
 31
0.0
  0
LINE
  5
18EF1
330
747D
100
AcDbEntity
  8
細線
 48
50.0
100
AcDbLine
 10
12694.34983051328
 20
4677.931598713261
 30
0.0
 11
12694.34983051328
 21
2587.931598713265
 31
0.0
  0
LINE
  5
18EF2
330
747D
100
AcDbEntity
  8
細線
 48
50.0
100
AcDbLine
 10
12834.34983051328
 20
4677.931598713261
 30
0.0
 11
12834.34983051328
 21
2587.931598713265
 31
0.0
  0
LINE
  5
18EF3
330
747D
100
AcDbEntity
  8
細線
 48
50.0
100
AcDbLine
 10
12849.34983051328
 20
4677.931598713261
 30
0.0
 11
12849.34983051328
 21
2587.931598713265
 31
0.0
  0
LINE
  5
18EF4
330
747D
100
AcDbEntity
  8
細線
 48
50.0
100
AcDbLine
 10
12989.34983051328
 20
4677.931598713261
 30
0.0
 11
12989.34983051328
 21
2587.931598713265
 31
0.0
  0
LINE
  5
18EF5
330
747D
100
AcDbEntity
  8
細線
 48
50.0
100
AcDbLine
 10
12974.34983051328
 20
4677.931598713261
 30
0.0
 11
12974.34983051328
 21
2587.931598713265
 31
0.0
  0
DIMENSION
  5
18EF6
330
747D
100
AcDbEntity
  8
寸法
100
AcDbDimension
  2
*D26
 10
14231.77698848541
 20
4857.931598713264
 30
0.0
 11
14131.76517746178
 21
3697.931598713266
 31
0.0
 70
    32
 71
     5
 42
2320.0
  3
INABA_S40G
100
AcDbAlignedDimension
 13
13526.84983051328
 23
2537.931598713264
 33
0.0
 14
13606.84983051328
 24
4857.931598713264
 34
0.0
 50
90.0
100
AcDbRotatedDimension
1001
ACAD
1000
DSTYLE
1002
{
1070
   174
1070
     0
1070
   272
1070
     1
1070
   288
1070
     0
1070
   341
1005
0
1002
}
  0
DIMENSION
  5
18EF7
330
747D
100
AcDbEntity
  8
寸法
100
AcDbDimension
  2
*D27
 10
9753.099701330018
 20
4912.931598713264
 30
0.0
 11
9653.087890306395
 21
3725.431598713262
 31
0.0
 70
    32
 71
     5
 42
2375.000000000006
  3
INABA_S40G
100
AcDbAlignedDimension
 13
10896.84983051327
 23
2537.931598713257
 33
0.0
 14
10836.84983051327
 24
4912.931598713262
 34
0.0
 50
90.0
100
AcDbRotatedDimension
1001
ACAD
1000
DSTYLE
1002
{
1070
   174
1070
     0
1070
   272
1070
     1
1070
   288
1070
     0
1070
   341
1005
0
1002
}
  0
DIMENSION
  5
18EF8
330
747D
100
AcDbEntity
  8
寸法
100
AcDbDimension
  2
*D28
 10
10053.09970133002
 20
2587.931598713257
 30
0.0
 11
9953.087890306397
 21
3632.93159871326
 31
0.0
 70
    32
 71
     5
 42
2090.000000000002
  3
INABA_S40G
100
AcDbAlignedDimension
 13
10896.84983051327
 23
4677.931598713258
 33
0.0
 14
10896.84983051327
 24
2587.931598713257
 34
0.0
 50
90.0
100
AcDbRotatedDimension
1001
ACAD
1000
DSTYLE
1002
{
1070
   174
1070
     0
1070
   272
1070
     1
1070
   288
1070
     0
1070
   341
1005
0
1002
}
  0
LINE
  5
1983F
330
747D
100
AcDbEntity
  8
補助
  6
PHANTOM
 62
   230
 48
50.0
100
AcDbLine
 10
140.0
 20
0.0
 30
0.0
 11
139.9999999999995
 21
11409.6
 31
0.0
  0
DIMENSION
  5
198A9
330
747D
100
AcDbEntity
  8
寸法
 48
50.0
100
AcDbDimension
  2
*D37
 10
8269.673057123659
 20
5318.657870445176
 30
0.0
 11
8633.158338497898
 21
5318.657870445176
 31
0.0
 70
   160
 71
     5
 42
49.99999999999636
  3
INABA_S40G
100
AcDbAlignedDimension
 13
8319.673057123656
 23
4912.931598713266
 33
0.0
 14
8269.673057123659
 24
4912.93159871327
 34
0.0
100
AcDbRotatedDimension
  0
DIMENSION
  5
198AA
330
747D
100
AcDbEntity
  8
寸法
 48
50.0
100
AcDbDimension
  2
*D36
 10
2899.673057123655
 20
5318.657870445171
 30
0.0
 11
5584.673057123658
 21
5418.657870445171
 31
0.0
 70
    32
  1
柱外寸法 N X 1790
 71
     5
 42
5370.000000000005
  3
INABA_S40G
100
AcDbAlignedDimension
 13
8269.673057123659
 23
4912.93159871327
 33
0.0
 14
2899.673057123655
 24
4912.931598713267
 34
0.0
100
AcDbRotatedDimension
  0
DIMENSION
  5
198AB
330
747D
100
AcDbEntity
  8
寸法
 48
50.0
100
AcDbDimension
  2
*D35
 10
8319.673057123656
 20
5518.566791659261
 30
0.0
 11
5584.673057123657
 21
5518.566791659261
 31
0.0
 70
   160
  1
N X 1790+100
 71
     5
 42
5470.000000000002
  3
INABA_S40G
100
AcDbAlignedDimension
 13
2849.673057123655
 23
4912.931598713267
 33
0.0
 14
8319.673057123656
 24
4912.931598713266
 34
0.0
100
AcDbRotatedDimension
  0
DIMENSION
  5
198AC
330
747D
100
AcDbEntity
  8
寸法
 48
50.0
100
AcDbDimension
  2
*D38
 10
2849.673057123655
 20
5318.657870445171
 30
0.0
 11
2536.187775749408
 21
5318.657870445171
 31
0.0
 70
   160
 71
     5
 42
50.0
  3
INABA_S40G
100
AcDbAlignedDimension
 13
2899.673057123655
 23
4912.931598713268
 33
0.0
 14
2849.673057123655
 24
4912.931598713268
 34
0.0
100
AcDbRotatedDimension
1001
ACAD
1000
DSTYLE
1002
{
1002
}
  0
LINE
  5
198AD
330
747D
100
AcDbEntity
  8
部品1
100
AcDbLine
 10
2850.092718138985
 20
4905.535073318027
 30
0.0
 11
2851.226115471334
 21
4885.558945335426
 31
0.0
  0
LINE
  5
198AE
330
747D
100
AcDbEntity
  8
部品1
100
AcDbLine
 10
2862.663135792915
 20
4789.901538168368
 30
0.0
 11
2863.308041600023
 21
4778.535073318027
 31
0.0
  0
LINE
  5
198AF
330
747D
100
AcDbEntity
  8
部品1
100
AcDbLine
 10
2854.427105268064
 20
4882.101538168369
 30
0.0
 11
2859.462145996178
 21
4793.358945335425
 31
0.0
  0
ARC
  5
198B0
330
747D
100
AcDbEntity
  8
部品1
 48
50.0
100
AcDbCircle
 10
2851.431922371878
 20
4881.931598713268
 30
0.0
 40
3.0
100
AcDbArc
 50
3.247342790337682
 51
82.3418727926348
  0
ARC
  5
198B1
330
747D
100
AcDbEntity
  8
部品1
 48
50.0
100
AcDbCircle
 10
2859.667952896721
 20
4789.731598713264
 30
0.0
 40
3.0
100
AcDbArc
 50
3.247342790337682
 51
82.3418727926348
  0
ARC
  5
198B2
330
747D
100
AcDbEntity
  8
部品1
 48
50.0
100
AcDbCircle
 10
2860.161022005283
 20
4793.398597874948
 30
0.0
 40
0.7
100
AcDbArc
 50
183.2473427903377
 51
262.3418727926349
  0
ARC
  5
198B3
330
747D
100
AcDbEntity
  8
部品1
 48
50.0
100
AcDbCircle
 10
2851.924991480446
 20
4885.598597874952
 30
0.0
 40
0.7
100
AcDbArc
 50
183.2473427903377
 51
262.3418727926349
  0
ARC
  5
198B4
330
747D
100
AcDbEntity
  8
部品1
100
AcDbCircle
 10
2870.296801691118
 20
4778.931598713269
 30
0.0
 40
7.0
100
AcDbArc
 50
183.2473427903377
 51
270.0
  0
ARC
  5
198B5
330
747D
100
AcDbEntity
  8
部品1
100
AcDbCircle
 10
2857.081478230088
 20
4905.931598713265
 30
0.0
 40
7.0
100
AcDbArc
 50
90.0
 51
183.2473427903377
  0
LINE
  5
198B6
330
747D
100
AcDbEntity
  8
細線
 48
50.0
100
AcDbLine
 10
2882.673057123655
 20
4912.931598713265
 30
0.0
 11
2882.673057123655
 21
4771.931598713265
 31
0.0
  0
ARC
  5
198B7
330
747D
100
AcDbEntity
  8
部品1
 48
0.01
100
AcDbCircle
 10
3477.673057123657
 20
4710.431598713261
 30
0.0
 40
2.0
100
AcDbArc
 50
270.0
 51
0.0
  0
ARC
  5
198B8
330
747D
100
AcDbEntity
  8
部品1
 48
0.01
100
AcDbCircle
 10
3477.673057123661
 20
4741.931598713261
 30
0.0
 40
2.0
100
AcDbArc
 50
0.0
 51
90.0
  0
ARC
  5
198B9
330
747D
100
AcDbEntity
  8
部品1
 48
0.01
100
AcDbCircle
 10
3301.673057123661
 20
4710.431598713261
 30
0.0
 40
2.0
100
AcDbArc
 50
180.0
 51
270.0
  0
ARC
  5
198BA
330
747D
100
AcDbEntity
  8
部品1
 48
0.01
100
AcDbCircle
 10
3301.673057123661
 20
4741.931598713261
 30
0.0
 40
2.0
100
AcDbArc
 50
90.0
 51
180.0
  0
LINE
  5
198BB
330
747D
100
AcDbEntity
  8
細線
100
AcDbLine
 10
3389.673057123657
 20
4714.431598713261
 30
0.0
 11
3463.67305712366
 21
4714.431598713261
 31
0.0
  0
LINE
  5
198BC
330
747D
100
AcDbEntity
  8
細線
100
AcDbLine
 10
3389.673057123661
 20
4737.431598713261
 30
0.0
 11
3315.67305712366
 21
4737.431598713261
 31
0.0
  0
LINE
  5
198BD
330
747D
100
AcDbEntity
  8
細線
100
AcDbLine
 10
3315.67305712366
 20
4714.431598713261
 30
0.0
 11
3389.673057123661
 21
4714.431598713261
 31
0.0
  0
LINE
  5
198BE
330
747D
100
AcDbEntity
  8
細線
100
AcDbLine
 10
3463.67305712366
 20
4737.431598713261
 30
0.0
 11
3389.673057123661
 21
4737.431598713261
 31
0.0
  0
LINE
  5
198BF
330
747D
100
AcDbEntity
  8
細線
100
AcDbLine
 10
3463.67305712366
 20
4714.431598713261
 30
0.0
 11
3463.67305712366
 21
4737.431598713261
 31
0.0
  0
LINE
  5
198C0
330
747D
100
AcDbEntity
  8
細線
100
AcDbLine
 10
3315.67305712366
 20
4737.431598713261
 30
0.0
 11
3315.67305712366
 21
4714.431598713261
 31
0.0
  0
LINE
  5
198C1
330
747D
100
AcDbEntity
  8
部品1
 48
0.01
100
AcDbLine
 10
3479.673057123657
 20
4710.431598713261
 30
0.0
 11
3479.67305712366
 21
4741.931598713261
 31
0.0
  0
LINE
  5
198C2
330
747D
100
AcDbEntity
  8
部品1
 48
0.01
100
AcDbLine
 10
3301.673057123661
 20
4708.431598713261
 30
0.0
 11
3477.673057123657
 21
4708.431598713261
 31
0.0
  0
LINE
  5
198C3
330
747D
100
AcDbEntity
  8
部品1
 48
0.01
100
AcDbLine
 10
3299.673057123661
 20
4741.931598713261
 30
0.0
 11
3299.673057123661
 21
4710.431598713261
 31
0.0
  0
LINE
  5
198C4
330
747D
100
AcDbEntity
  8
部品1
 48
0.01
100
AcDbLine
 10
3477.673057123661
 20
4743.931598713261
 30
0.0
 11
3301.673057123661
 21
4743.931598713261
 31
0.0
  0
LINE
  5
198C5
330
747D
100
AcDbEntity
  8
細線
100
AcDbLine
 10
3315.67305712366
 20
4731.431598713261
 30
0.0
 11
3389.673057123661
 21
4731.431598713261
 31
0.0
  0
LINE
  5
198C6
330
747D
100
AcDbEntity
  8
細線
100
AcDbLine
 10
3315.67305712366
 20
4725.431598713261
 30
0.0
 11
3389.673057123661
 21
4725.431598713261
 31
0.0
  0
LINE
  5
198C7
330
747D
100
AcDbEntity
  8
細線
100
AcDbLine
 10
3315.673057123657
 20
4719.431598713261
 30
0.0
 11
3389.673057123661
 21
4719.431598713261
 31
0.0
  0
LINE
  5
198C8
330
747D
100
AcDbEntity
  8
細線
100
AcDbLine
 10
3315.67305712366
 20
4731.431598713261
 30
0.0
 11
3384.673057123661
 21
4731.431598713261
 31
0.0
  0
LINE
  5
198C9
330
747D
100
AcDbEntity
  8
細線
100
AcDbLine
 10
3463.673057123657
 20
4731.431598713261
 30
0.0
 11
3389.673057123661
 21
4731.431598713261
 31
0.0
  0
LINE
  5
198CA
330
747D
100
AcDbEntity
  8
細線
100
AcDbLine
 10
3463.673057123657
 20
4719.431598713261
 30
0.0
 11
3389.673057123661
 21
4719.431598713261
 31
0.0
  0
LINE
  5
198CB
330
747D
100
AcDbEntity
  8
細線
100
AcDbLine
 10
3463.673057123657
 20
4725.431598713261
 30
0.0
 11
3389.673057123661
 21
4725.431598713261
 31
0.0
  0
LINE
  5
198CC
330
747D
100
AcDbEntity
  8
細線
100
AcDbLine
 10
3389.673057123661
 20
4737.431598713261
 30
0.0
 11
3389.673057123657
 21
4714.431598713261
 31
0.0
  0
LINE
  5
198CD
330
747D
100
AcDbEntity
  8
細線
100
AcDbLine
 10
4199.673057123656
 20
4737.431598713261
 30
0.0
 11
4199.67305712366
 21
4714.431598713261
 31
0.0
  0
LINE
  5
198CE
330
747D
100
AcDbEntity
  8
細線
100
AcDbLine
 10
4125.67305712366
 20
4725.431598713261
 30
0.0
 11
4199.673057123656
 21
4725.431598713261
 31
0.0
  0
LINE
  5
198CF
330
747D
100
AcDbEntity
  8
細線
100
AcDbLine
 10
4125.67305712366
 20
4719.431598713261
 30
0.0
 11
4199.673057123656
 21
4719.431598713261
 31
0.0
  0
LINE
  5
198D0
330
747D
100
AcDbEntity
  8
細線
100
AcDbLine
 10
4125.67305712366
 20
4731.431598713261
 30
0.0
 11
4199.673057123656
 21
4731.431598713261
 31
0.0
  0
LINE
  5
198D1
330
747D
100
AcDbEntity
  8
細線
100
AcDbLine
 10
4273.673057123657
 20
4731.431598713261
 30
0.0
 11
4204.673057123656
 21
4731.431598713261
 31
0.0
  0
LINE
  5
198D2
330
747D
100
AcDbEntity
  8
細線
100
AcDbLine
 10
4273.67305712366
 20
4719.431598713261
 30
0.0
 11
4199.673057123656
 21
4719.431598713261
 31
0.0
  0
LINE
  5
198D3
330
747D
100
AcDbEntity
  8
細線
100
AcDbLine
 10
4273.673057123657
 20
4725.431598713261
 30
0.0
 11
4199.673057123656
 21
4725.431598713261
 31
0.0
  0
LINE
  5
198D4
330
747D
100
AcDbEntity
  8
細線
100
AcDbLine
 10
4273.673057123657
 20
4731.431598713261
 30
0.0
 11
4199.673057123656
 21
4731.431598713261
 31
0.0
  0
LINE
  5
198D5
330
747D
100
AcDbEntity
  8
部品1
 48
0.01
100
AcDbLine
 10
4111.673057123656
 20
4743.931598713261
 30
0.0
 11
4287.673057123657
 21
4743.931598713261
 31
0.0
  0
LINE
  5
198D6
330
747D
100
AcDbEntity
  8
部品1
 48
0.01
100
AcDbLine
 10
4289.673057123656
 20
4741.931598713261
 30
0.0
 11
4289.673057123656
 21
4710.431598713261
 31
0.0
  0
LINE
  5
198D7
330
747D
100
AcDbEntity
  8
部品1
 48
0.01
100
AcDbLine
 10
4287.673057123657
 20
4708.431598713261
 30
0.0
 11
4111.67305712366
 21
4708.431598713261
 31
0.0
  0
LINE
  5
198D8
330
747D
100
AcDbEntity
  8
部品1
 48
0.01
100
AcDbLine
 10
4109.67305712366
 20
4710.431598713261
 30
0.0
 11
4109.673057123656
 21
4741.931598713261
 31
0.0
  0
LINE
  5
198D9
330
747D
100
AcDbEntity
  8
細線
100
AcDbLine
 10
4273.673057123657
 20
4737.431598713261
 30
0.0
 11
4273.673057123657
 21
4714.431598713261
 31
0.0
  0
LINE
  5
198DA
330
747D
100
AcDbEntity
  8
細線
100
AcDbLine
 10
4125.673057123656
 20
4714.431598713261
 30
0.0
 11
4125.673057123656
 21
4737.431598713261
 31
0.0
  0
LINE
  5
198DB
330
747D
100
AcDbEntity
  8
細線
100
AcDbLine
 10
4125.673057123656
 20
4737.431598713261
 30
0.0
 11
4199.673057123656
 21
4737.431598713261
 31
0.0
  0
LINE
  5
198DC
330
747D
100
AcDbEntity
  8
細線
100
AcDbLine
 10
4273.673057123657
 20
4714.431598713261
 30
0.0
 11
4199.673057123656
 21
4714.431598713261
 31
0.0
  0
LINE
  5
198DD
330
747D
100
AcDbEntity
  8
細線
100
AcDbLine
 10
4199.673057123656
 20
4737.431598713261
 30
0.0
 11
4273.673057123657
 21
4737.431598713261
 31
0.0
  0
LINE
  5
198DE
330
747D
100
AcDbEntity
  8
細線
100
AcDbLine
 10
4199.67305712366
 20
4714.431598713261
 30
0.0
 11
4125.673057123656
 21
4714.431598713261
 31
0.0
  0
ARC
  5
198DF
330
747D
100
AcDbEntity
  8
部品1
 48
0.01
100
AcDbCircle
 10
4287.673057123657
 20
4741.931598713261
 30
0.0
 40
2.0
100
AcDbArc
 50
0.0
 51
90.0
  0
ARC
  5
198E0
330
747D
100
AcDbEntity
  8
部品1
 48
0.01
100
AcDbCircle
 10
4287.673057123657
 20
4710.431598713261
 30
0.0
 40
2.0
100
AcDbArc
 50
270.0
 51
0.0
  0
ARC
  5
198E1
330
747D
100
AcDbEntity
  8
部品1
 48
0.01
100
AcDbCircle
 10
4111.673057123656
 20
4741.931598713261
 30
0.0
 40
2.0
100
AcDbArc
 50
90.0
 51
180.0
  0
ARC
  5
198E2
330
747D
100
AcDbEntity
  8
部品1
 48
0.01
100
AcDbCircle
 10
4111.67305712366
 20
4710.431598713261
 30
0.0
 40
2.0
100
AcDbArc
 50
180.0
 51
270.0
  0
LINE
  5
198E7
330
747D
100
AcDbEntity
  8
部品1
100
AcDbLine
 10
2899.673057123655
 20
4677.931598713261
 30
0.0
 11
8269.673057123656
 21
4677.931598713263
 31
0.0
  0
ARC
  5
198E8
330
747D
100
AcDbEntity
  8
部品1
100
AcDbCircle
 10
8312.264636017228
 20
4905.931598713269
 30
0.0
 40
7.0
100
AcDbArc
 50
356.7526572096623
 51
90.0
  0
ARC
  5
198E9
330
747D
100
AcDbEntity
  8
部品1
100
AcDbCircle
 10
8299.049312556194
 20
4778.93159871327
 30
0.0
 40
7.0
100
AcDbArc
 50
270.0
 51
356.7526572096623
  0
ARC
  5
198EA
330
747D
100
AcDbEntity
  8
部品1
 48
50.0
100
AcDbCircle
 10
8317.421122766869
 20
4885.598597874952
 30
0.0
 40
0.7
100
AcDbArc
 50
277.6581272073652
 51
356.7526572096623
  0
ARC
  5
198EB
330
747D
100
AcDbEntity
  8
部品1
 48
50.0
100
AcDbCircle
 10
8309.18509224203
 20
4793.398597874952
 30
0.0
 40
0.7
100
AcDbArc
 50
277.6581272073652
 51
356.7526572096623
  0
ARC
  5
198EC
330
747D
100
AcDbEntity
  8
部品1
 48
50.0
100
AcDbCircle
 10
8309.678161350589
 20
4789.731598713265
 30
0.0
 40
3.0
100
AcDbArc
 50
97.65812720736519
 51
176.7526572096623
  0
ARC
  5
198ED
330
747D
100
AcDbEntity
  8
部品1
 48
50.0
100
AcDbCircle
 10
8317.914191875434
 20
4881.931598713269
 30
0.0
 40
3.0
100
AcDbArc
 50
97.65812720736519
 51
176.7526572096623
  0
LINE
  5
198EE
330
747D
100
AcDbEntity
  8
部品1
100
AcDbLine
 10
8314.919008979249
 20
4882.101538168373
 30
0.0
 11
8309.883968251137
 21
4793.358945335426
 31
0.0
  0
LINE
  5
198EF
330
747D
100
AcDbEntity
  8
部品1
100
AcDbLine
 10
8306.682978454402
 20
4789.901538168368
 30
0.0
 11
8306.038072647293
 21
4778.535073318028
 31
0.0
  0
LINE
  5
198F0
330
747D
100
AcDbEntity
  8
細線
 48
50.0
100
AcDbLine
 10
8286.673057123657
 20
4912.93159871327
 30
0.0
 11
8286.673057123657
 21
4771.931598713269
 31
0.0
  0
LINE
  5
198F1
330
747D
100
AcDbEntity
  8
部品1
100
AcDbLine
 10
8319.253396108328
 20
4905.535073318028
 30
0.0
 11
8318.119998775976
 21
4885.55894533543
 31
0.0
  0
ARC
  5
198F2
330
747D
100
AcDbEntity
  8
部品1
 48
0.01
100
AcDbCircle
 10
7057.673057123657
 20
4710.431598713262
 30
0.0
 40
2.0
100
AcDbArc
 50
270.0
 51
0.0
  0
ARC
  5
198F3
330
747D
100
AcDbEntity
  8
部品1
 48
0.01
100
AcDbCircle
 10
7057.673057123661
 20
4741.931598713262
 30
0.0
 40
2.0
100
AcDbArc
 50
0.0
 51
90.0
  0
ARC
  5
198F4
330
747D
100
AcDbEntity
  8
部品1
 48
0.01
100
AcDbCircle
 10
6881.67305712366
 20
4710.431598713262
 30
0.0
 40
2.0
100
AcDbArc
 50
180.0
 51
270.0
  0
ARC
  5
198F5
330
747D
100
AcDbEntity
  8
部品1
 48
0.01
100
AcDbCircle
 10
6881.67305712366
 20
4741.931598713262
 30
0.0
 40
2.0
100
AcDbArc
 50
90.0
 51
180.0
  0
LINE
  5
198F6
330
747D
100
AcDbEntity
  8
細線
100
AcDbLine
 10
6969.673057123657
 20
4714.431598713262
 30
0.0
 11
7043.673057123661
 21
4714.431598713262
 31
0.0
  0
LINE
  5
198F7
330
747D
100
AcDbEntity
  8
細線
100
AcDbLine
 10
6969.67305712366
 20
4737.431598713262
 30
0.0
 11
6895.67305712366
 21
4737.431598713262
 31
0.0
  0
LINE
  5
198F8
330
747D
100
AcDbEntity
  8
細線
100
AcDbLine
 10
6895.67305712366
 20
4714.431598713262
 30
0.0
 11
6969.67305712366
 21
4714.431598713262
 31
0.0
  0
LINE
  5
198F9
330
747D
100
AcDbEntity
  8
細線
100
AcDbLine
 10
7043.673057123661
 20
4737.431598713262
 30
0.0
 11
6969.67305712366
 21
4737.431598713262
 31
0.0
  0
LINE
  5
198FA
330
747D
100
AcDbEntity
  8
細線
100
AcDbLine
 10
7043.673057123661
 20
4714.431598713262
 30
0.0
 11
7043.673057123661
 21
4737.431598713262
 31
0.0
  0
LINE
  5
198FB
330
747D
100
AcDbEntity
  8
細線
100
AcDbLine
 10
6895.67305712366
 20
4737.431598713262
 30
0.0
 11
6895.67305712366
 21
4714.431598713262
 31
0.0
  0
LINE
  5
198FC
330
747D
100
AcDbEntity
  8
部品1
 48
0.01
100
AcDbLine
 10
7059.673057123657
 20
4710.431598713262
 30
0.0
 11
7059.67305712366
 21
4741.931598713262
 31
0.0
  0
LINE
  5
198FD
330
747D
100
AcDbEntity
  8
部品1
 48
0.01
100
AcDbLine
 10
6881.67305712366
 20
4708.431598713262
 30
0.0
 11
7057.673057123657
 21
4708.431598713262
 31
0.0
  0
LINE
  5
198FE
330
747D
100
AcDbEntity
  8
部品1
 48
0.01
100
AcDbLine
 10
6879.67305712366
 20
4741.931598713262
 30
0.0
 11
6879.67305712366
 21
4710.431598713262
 31
0.0
  0
LINE
  5
198FF
330
747D
100
AcDbEntity
  8
部品1
 48
0.01
100
AcDbLine
 10
7057.673057123661
 20
4743.931598713262
 30
0.0
 11
6881.67305712366
 21
4743.931598713262
 31
0.0
  0
LINE
  5
19900
330
747D
100
AcDbEntity
  8
細線
100
AcDbLine
 10
6895.67305712366
 20
4731.431598713262
 30
0.0
 11
6969.67305712366
 21
4731.431598713262
 31
0.0
  0
LINE
  5
19901
330
747D
100
AcDbEntity
  8
細線
100
AcDbLine
 10
6895.67305712366
 20
4725.431598713262
 30
0.0
 11
6969.67305712366
 21
4725.431598713262
 31
0.0
  0
LINE
  5
19902
330
747D
100
AcDbEntity
  8
細線
100
AcDbLine
 10
6895.673057123656
 20
4719.431598713263
 30
0.0
 11
6969.67305712366
 21
4719.431598713263
 31
0.0
  0
LINE
  5
19903
330
747D
100
AcDbEntity
  8
細線
100
AcDbLine
 10
6895.67305712366
 20
4731.431598713262
 30
0.0
 11
6964.67305712366
 21
4731.431598713262
 31
0.0
  0
LINE
  5
19904
330
747D
100
AcDbEntity
  8
細線
100
AcDbLine
 10
7043.673057123656
 20
4731.431598713262
 30
0.0
 11
6969.67305712366
 21
4731.431598713262
 31
0.0
  0
LINE
  5
19905
330
747D
100
AcDbEntity
  8
細線
100
AcDbLine
 10
7043.673057123656
 20
4719.431598713263
 30
0.0
 11
6969.67305712366
 21
4719.431598713263
 31
0.0
  0
LINE
  5
19906
330
747D
100
AcDbEntity
  8
細線
100
AcDbLine
 10
7043.673057123656
 20
4725.431598713262
 30
0.0
 11
6969.67305712366
 21
4725.431598713262
 31
0.0
  0
LINE
  5
19907
330
747D
100
AcDbEntity
  8
細線
100
AcDbLine
 10
6969.67305712366
 20
4737.431598713262
 30
0.0
 11
6969.673057123657
 21
4714.431598713262
 31
0.0
  0
LINE
  5
19908
330
747D
100
AcDbEntity
  8
細線
100
AcDbLine
 10
7779.673057123656
 20
4737.431598713262
 30
0.0
 11
7779.673057123661
 21
4714.431598713262
 31
0.0
  0
LINE
  5
19909
330
747D
100
AcDbEntity
  8
細線
100
AcDbLine
 10
7705.67305712366
 20
4725.431598713262
 30
0.0
 11
7779.673057123656
 21
4725.431598713262
 31
0.0
  0
LINE
  5
1990A
330
747D
100
AcDbEntity
  8
細線
100
AcDbLine
 10
7705.67305712366
 20
4719.431598713263
 30
0.0
 11
7779.673057123656
 21
4719.431598713263
 31
0.0
  0
LINE
  5
1990B
330
747D
100
AcDbEntity
  8
細線
100
AcDbLine
 10
7705.67305712366
 20
4731.431598713262
 30
0.0
 11
7779.673057123656
 21
4731.431598713262
 31
0.0
  0
LINE
  5
1990C
330
747D
100
AcDbEntity
  8
細線
100
AcDbLine
 10
7853.673057123657
 20
4731.431598713262
 30
0.0
 11
7784.673057123656
 21
4731.431598713262
 31
0.0
  0
LINE
  5
1990D
330
747D
100
AcDbEntity
  8
細線
100
AcDbLine
 10
7853.673057123661
 20
4719.431598713263
 30
0.0
 11
7779.673057123656
 21
4719.431598713263
 31
0.0
  0
LINE
  5
1990E
330
747D
100
AcDbEntity
  8
細線
100
AcDbLine
 10
7853.673057123657
 20
4725.431598713262
 30
0.0
 11
7779.673057123656
 21
4725.431598713262
 31
0.0
  0
LINE
  5
1990F
330
747D
100
AcDbEntity
  8
細線
100
AcDbLine
 10
7853.673057123657
 20
4731.431598713262
 30
0.0
 11
7779.673057123656
 21
4731.431598713262
 31
0.0
  0
LINE
  5
19910
330
747D
100
AcDbEntity
  8
部品1
 48
0.01
100
AcDbLine
 10
7691.673057123657
 20
4743.931598713262
 30
0.0
 11
7867.673057123657
 21
4743.931598713262
 31
0.0
  0
LINE
  5
19911
330
747D
100
AcDbEntity
  8
部品1
 48
0.01
100
AcDbLine
 10
7869.673057123657
 20
4741.931598713262
 30
0.0
 11
7869.673057123657
 21
4710.431598713262
 31
0.0
  0
LINE
  5
19912
330
747D
100
AcDbEntity
  8
部品1
 48
0.01
100
AcDbLine
 10
7867.673057123657
 20
4708.431598713262
 30
0.0
 11
7691.67305712366
 21
4708.431598713262
 31
0.0
  0
LINE
  5
19913
330
747D
100
AcDbEntity
  8
部品1
 48
0.01
100
AcDbLine
 10
7689.67305712366
 20
4710.431598713262
 30
0.0
 11
7689.673057123657
 21
4741.931598713262
 31
0.0
  0
LINE
  5
19914
330
747D
100
AcDbEntity
  8
細線
100
AcDbLine
 10
7853.673057123657
 20
4737.431598713262
 30
0.0
 11
7853.673057123657
 21
4714.431598713262
 31
0.0
  0
LINE
  5
19915
330
747D
100
AcDbEntity
  8
細線
100
AcDbLine
 10
7705.673057123657
 20
4714.431598713262
 30
0.0
 11
7705.673057123657
 21
4737.431598713262
 31
0.0
  0
LINE
  5
19916
330
747D
100
AcDbEntity
  8
細線
100
AcDbLine
 10
7705.673057123657
 20
4737.431598713262
 30
0.0
 11
7779.673057123656
 21
4737.431598713262
 31
0.0
  0
LINE
  5
19917
330
747D
100
AcDbEntity
  8
細線
100
AcDbLine
 10
7853.673057123657
 20
4714.431598713262
 30
0.0
 11
7779.673057123656
 21
4714.431598713262
 31
0.0
  0
LINE
  5
19918
330
747D
100
AcDbEntity
  8
細線
100
AcDbLine
 10
7779.673057123656
 20
4737.431598713262
 30
0.0
 11
7853.673057123657
 21
4737.431598713262
 31
0.0
  0
LINE
  5
19919
330
747D
100
AcDbEntity
  8
細線
100
AcDbLine
 10
7779.673057123661
 20
4714.431598713262
 30
0.0
 11
7705.673057123657
 21
4714.431598713262
 31
0.0
  0
ARC
  5
1991A
330
747D
100
AcDbEntity
  8
部品1
 48
0.01
100
AcDbCircle
 10
7867.673057123657
 20
4741.931598713262
 30
0.0
 40
2.0
100
AcDbArc
 50
0.0
 51
90.0
  0
ARC
  5
1991B
330
747D
100
AcDbEntity
  8
部品1
 48
0.01
100
AcDbCircle
 10
7867.673057123657
 20
4710.431598713262
 30
0.0
 40
2.0
100
AcDbArc
 50
270.0
 51
0.0
  0
ARC
  5
1991C
330
747D
100
AcDbEntity
  8
部品1
 48
0.01
100
AcDbCircle
 10
7691.673057123657
 20
4741.931598713262
 30
0.0
 40
2.0
100
AcDbArc
 50
90.0
 51
180.0
  0
ARC
  5
1991D
330
747D
100
AcDbEntity
  8
部品1
 48
0.01
100
AcDbCircle
 10
7691.67305712366
 20
4710.431598713262
 30
0.0
 40
2.0
100
AcDbArc
 50
180.0
 51
270.0
  0
LINE
  5
1991E
330
747D
100
AcDbEntity
  8
部品1
 48
50.0
100
AcDbLine
 10
4679.673057123658
 20
4771.931598713265
 30
0.0
 11
4679.673057123657
 21
4912.931598713265
 31
0.0
  0
LINE
  5
1991F
330
747D
100
AcDbEntity
  8
部品1
 48
50.0
100
AcDbLine
 10
4689.673057123658
 20
4512.931598713261
 30
0.0
 11
4689.673057123658
 21
4771.931598713265
 31
0.0
  0
LINE
  5
1994C
330
747D
100
AcDbEntity
  8
部品1
 48
50.0
100
AcDbLine
 10
6479.673057123659
 20
4512.931598713261
 30
0.0
 11
6479.673057123658
 21
4771.931598713265
 31
0.0
  0
LINE
  5
1994D
330
747D
100
AcDbEntity
  8
部品1
 48
50.0
100
AcDbLine
 10
6469.673057123658
 20
4771.931598713265
 30
0.0
 11
6469.673057123657
 21
4912.931598713266
 31
0.0
  0
LINE
  5
1994E
330
747D
100
AcDbEntity
  8
部品1
 48
50.0
100
AcDbLine
 10
8312.264636017228
 20
4912.931598713261
 30
0.0
 11
2857.081478230088
 21
4912.931598713268
 31
0.0
  0
LINE
  5
1994F
330
747D
100
AcDbEntity
  8
細線
 48
50.0
100
AcDbLine
 10
8317.633518902214
 20
4884.931598713267
 30
0.0
 11
2851.712595345096
 21
4884.931598713265
 31
0.0
  0
LINE
  5
19950
330
747D
100
AcDbEntity
  8
細線
 48
50.0
100
AcDbLine
 10
8309.397488377339
 20
4792.731598713255
 30
0.0
 11
2859.948625869926
 21
4792.731598713268
 31
0.0
  0
LINE
  5
19951
330
747D
100
AcDbEntity
  8
部品1
 48
50.0
100
AcDbLine
 10
8299.049312556194
 20
4771.931598713266
 30
0.0
 11
2870.296801691118
 21
4771.931598713268
 31
0.0
  0
DIMENSION
  5
19B1B
330
747D
100
AcDbEntity
  8
寸法
 48
50.0
100
AcDbDimension
  2
*D39
 10
8557.216159445403
 20
4485.931598713261
 30
0.0
 11
8457.216159445401
 21
3511.931598713263
 31
0.0
 70
    32
  1
有効開口部高サ <>
 71
     5
 42
1948.0
  3
INABA_S40G
100
AcDbAlignedDimension
 13
8269.673057123657
 23
2537.931598713262
 33
0.0
 14
8269.673057123657
 24
4485.931598713261
 34
0.0
 50
90.0
100
AcDbRotatedDimension
  0
DIMENSION
  5
19B1C
330
747D
100
AcDbEntity
  8
寸法
 48
50.0
100
AcDbDimension
  2
*D40
 10
8557.216159445403
 20
4512.931598713262
 30
0.0
 11
8697.385982691768
 21
4513.89879855292
 31
0.0
 70
   160
 71
     5
 42
27.00000000000091
  3
INABA_S40G
100
AcDbAlignedDimension
 13
8269.673057123657
 23
4485.931598713261
 33
0.0
 14
8269.673057123657
 24
4512.931598713262
 34
0.0
 50
90.0
100
AcDbRotatedDimension
1001
ACAD
1000
DSTYLE
1002
{
1070
   279
1070
     2
1002
}
  0
DIMENSION
  5
19B1D
330
747D
100
AcDbEntity
  8
寸法
 48
50.0
100
AcDbDimension
  2
*D41
 10
8557.216159445404
 20
4677.931598713261
 30
0.0
 11
8557.216159445403
 21
4916.4168800875
 31
0.0
 70
   160
 71
     5
 42
164.9999999999991
  3
INABA_S40G
100
AcDbAlignedDimension
 13
8269.673057123657
 23
4512.931598713262
 33
0.0
 14
8269.673057123657
 24
4677.931598713261
 34
0.0
 50
90.0
100
AcDbRotatedDimension
1001
ACAD
1000
DSTYLE
1002
{
1002
}
  0
LINE
  5
19D64
330
747D
100
AcDbEntity
  8
仕様書枠
 48
50.0
100
AcDbLine
 10
16307.19999999998
 20
8689.6
 30
0.0
 11
13127.19999999999
 21
8689.600000000003
 31
0.0
  0
TEXT
  5
19D68
330
747D
100
AcDbEntity
  8
文字
 62
     7
 48
50.0
100
AcDbText
 10
13583.11819016569
 20
9230.013745883731
 30
0.0
 40
100.0
  1
シャッター
  7
STYLE1
100
AcDbText
  0
TEXT
  5
19D69
330
747D
100
AcDbEntity
  8
文字
 62
     7
 48
50.0
100
AcDbText
 10
15022.63965474515
 20
9230.013745883727
 30
0.0
 40
100.0
  1
Z08            0.5
  7
STYLE1
100
AcDbText
  0
TEXT
  5
19D6C
330
747D
100
AcDbEntity
  8
文字
 62
     7
 48
50.0
100
AcDbText
 10
13583.11819016569
 20
8890.013745883727
 30
0.0
 40
100.0
  1
シャッターレール
  7
STYLE1
100
AcDbText
  0
TEXT
  5
19D6D
330
747D
100
AcDbEntity
  8
文字
 62
     7
 48
50.0
100
AcDbText
 10
14850.83183167177
 20
8890.013745883726
 30
0.0
 40
100.0
  1
アルミニウム合金押出形材
  7
STYLE1
100
AcDbText
  0
TEXT
  5
19D71
330
747D
100
AcDbEntity
  8
文字
 62
     7
 48
50.0
100
AcDbText
 10
15022.63965474517
 20
10760.01374588372
 30
0.0
 40
100.0
  1
F12         1.0,1.2
  7
STYLE1
100
AcDbText
  0
TEXT
  5
19D74
330
747D
100
AcDbEntity
  8
文字
 62
     7
 48
50.0
100
AcDbText
 10
15022.63965474516
 20
9060.013745883727
 30
0.0
 40
100.0
  1
F12            0.7
  7
STYLE1
100
AcDbText
  0
LINE
  5
19D75
330
747D
100
AcDbEntity
  8
破線
 48
5.0
100
AcDbLine
 10
4689.673057123656
 20
2262.931598713262
 30
0.0
 11
4689.673057123656
 21
2187.931598713262
 31
0.0
  0
LINE
  5
19D76
330
747D
100
AcDbEntity
  8
破線
 48
5.0
100
AcDbLine
 10
4639.673057123657
 20
2187.931598713262
 30
0.0
 11
4739.673057123656
 21
2187.931598713262
 31
0.0
  0
LINE
  5
19D77
330
747D
100
AcDbEntity
  8
破線
 48
5.0
100
AcDbLine
 10
6429.673057123657
 20
2187.931598713261
 30
0.0
 11
6529.673057123656
 21
2187.931598713261
 31
0.0
  0
LINE
  5
19D78
330
747D
100
AcDbEntity
  8
破線
 48
5.0
100
AcDbLine
 10
6479.673057123656
 20
2262.931598713262
 30
0.0
 11
6479.673057123656
 21
2187.931598713261
 31
0.0
  0
LINE
  5
19D9B
330
747D
100
AcDbEntity
  8
部品1
100
AcDbLine
 10
5584.673057123664
 20
10265.96212587691
 30
0.0
 11
5584.673057123664
 21
10237.96212587691
 31
0.0
  0
LINE
  5
19D9C
330
747D
100
AcDbEntity
  8
部品1
100
AcDbLine
 10
5572.173057123664
 20
10229.96212587689
 30
0.0
 11
5597.173057123664
 21
10229.9621258769
 31
0.0
  0
LINE
  5
19D9D
330
747D
100
AcDbEntity
  8
部品1
100
AcDbLine
 10
5613.673057123664
 20
10255.9621258769
 30
0.0
 11
5619.673057123664
 21
10255.9621258769
 31
0.0
  0
LINE
  5
19D9E
330
747D
100
AcDbEntity
  8
部品1
100
AcDbLine
 10
5619.673057123664
 20
10255.9621258769
 30
0.0
 11
5619.673057123664
 21
10237.9621258769
 31
0.0
  0
LINE
  5
19D9F
330
747D
100
AcDbEntity
  8
部品1
100
AcDbLine
 10
5549.673057123664
 20
10255.9621258769
 30
0.0
 11
5555.673057123664
 21
10255.9621258769
 31
0.0
  0
LINE
  5
19DA0
330
747D
100
AcDbEntity
  8
部品1
100
AcDbLine
 10
5549.673057123664
 20
10255.9621258769
 30
0.0
 11
5549.673057123664
 21
10237.9621258769
 31
0.0
  0
LINE
  5
19DA1
330
747D
100
AcDbEntity
  8
部品1
 48
50.0
100
AcDbLine
 10
5572.173057123664
 20
10229.96212587689
 30
0.0
 11
5572.173057123664
 21
10237.96212587691
 31
0.0
  0
LINE
  5
19DA2
330
747D
100
AcDbEntity
  8
部品1
 48
50.0
100
AcDbLine
 10
5597.173057123664
 20
10229.9621258769
 30
0.0
 11
5597.173057123664
 21
10237.96212587691
 31
0.0
  0
LINE
  5
19DA3
330
747D
100
AcDbEntity
  8
部品1
100
AcDbLine
 10
5597.173057123664
 20
10237.96212587691
 30
0.0
 11
6451.673057123631
 21
10237.96212587691
 31
0.0
  0
LINE
  5
19DA4
330
747D
100
AcDbEntity
  8
部品1
 48
50.0
100
AcDbLine
 10
4756.673057123655
 20
7681.462125876793
 30
0.0
 11
6412.67305712364
 21
7681.462125876793
 31
0.0
  0
ARC
  5
19DA5
330
747D
100
AcDbEntity
  8
部品1
 48
0.01
100
AcDbCircle
 10
5901.673057123661
 20
4710.431598713261
 30
0.0
 40
2.0
100
AcDbArc
 50
180.0
 51
270.0
  0
ARC
  5
19DA6
330
747D
100
AcDbEntity
  8
部品1
 48
0.01
100
AcDbCircle
 10
5901.673057123656
 20
4741.931598713261
 30
0.0
 40
2.0
100
AcDbArc
 50
90.0
 51
180.0
  0
ARC
  5
19DA7
330
747D
100
AcDbEntity
  8
部品1
 48
0.01
100
AcDbCircle
 10
6077.673057123657
 20
4710.431598713261
 30
0.0
 40
2.0
100
AcDbArc
 50
270.0
 51
0.0
  0
ARC
  5
19DA8
330
747D
100
AcDbEntity
  8
部品1
 48
0.01
100
AcDbCircle
 10
6077.673057123657
 20
4741.931598713261
 30
0.0
 40
2.0
100
AcDbArc
 50
0.0
 51
90.0
  0
LINE
  5
19DA9
330
747D
100
AcDbEntity
  8
細線
100
AcDbLine
 10
5989.67305712366
 20
4714.431598713261
 30
0.0
 11
5915.673057123656
 21
4714.431598713261
 31
0.0
  0
LINE
  5
19DAA
330
747D
100
AcDbEntity
  8
細線
100
AcDbLine
 10
5989.673057123656
 20
4737.431598713261
 30
0.0
 11
6063.673057123657
 21
4737.431598713261
 31
0.0
  0
LINE
  5
19DAB
330
747D
100
AcDbEntity
  8
細線
100
AcDbLine
 10
6063.673057123657
 20
4714.431598713261
 30
0.0
 11
5989.673057123656
 21
4714.431598713261
 31
0.0
  0
LINE
  5
19DAC
330
747D
100
AcDbEntity
  8
細線
100
AcDbLine
 10
5915.673057123656
 20
4737.431598713261
 30
0.0
 11
5989.673057123656
 21
4737.431598713261
 31
0.0
  0
LINE
  5
19DAD
330
747D
100
AcDbEntity
  8
細線
100
AcDbLine
 10
5915.673057123656
 20
4714.431598713261
 30
0.0
 11
5915.673057123656
 21
4737.431598713261
 31
0.0
  0
LINE
  5
19DAE
330
747D
100
AcDbEntity
  8
細線
100
AcDbLine
 10
6063.673057123657
 20
4737.431598713261
 30
0.0
 11
6063.673057123657
 21
4714.431598713261
 31
0.0
  0
LINE
  5
19DAF
330
747D
100
AcDbEntity
  8
部品1
 48
0.01
100
AcDbLine
 10
5899.67305712366
 20
4710.431598713261
 30
0.0
 11
5899.673057123656
 21
4741.931598713261
 31
0.0
  0
LINE
  5
19DB0
330
747D
100
AcDbEntity
  8
部品1
 48
0.01
100
AcDbLine
 10
6077.673057123657
 20
4708.431598713261
 30
0.0
 11
5901.673057123661
 21
4708.431598713261
 31
0.0
  0
LINE
  5
19DB1
330
747D
100
AcDbEntity
  8
部品1
 48
0.01
100
AcDbLine
 10
6079.673057123656
 20
4741.931598713261
 30
0.0
 11
6079.673057123656
 21
4710.431598713261
 31
0.0
  0
LINE
  5
19DB2
330
747D
100
AcDbEntity
  8
部品1
 48
0.01
100
AcDbLine
 10
5901.673057123656
 20
4743.931598713261
 30
0.0
 11
6077.673057123657
 21
4743.931598713261
 31
0.0
  0
LINE
  5
19DB3
330
747D
100
AcDbEntity
  8
細線
100
AcDbLine
 10
6063.673057123657
 20
4731.431598713261
 30
0.0
 11
5989.673057123656
 21
4731.431598713261
 31
0.0
  0
LINE
  5
19DB4
330
747D
100
AcDbEntity
  8
細線
100
AcDbLine
 10
6063.673057123657
 20
4725.431598713261
 30
0.0
 11
5989.673057123656
 21
4725.431598713261
 31
0.0
  0
LINE
  5
19DB5
330
747D
100
AcDbEntity
  8
細線
100
AcDbLine
 10
6063.673057123661
 20
4719.431598713261
 30
0.0
 11
5989.673057123656
 21
4719.431598713261
 31
0.0
  0
LINE
  5
19DB6
330
747D
100
AcDbEntity
  8
細線
100
AcDbLine
 10
6063.673057123657
 20
4731.431598713261
 30
0.0
 11
5994.673057123657
 21
4731.431598713261
 31
0.0
  0
LINE
  5
19DB7
330
747D
100
AcDbEntity
  8
細線
100
AcDbLine
 10
5915.673057123661
 20
4731.431598713261
 30
0.0
 11
5989.673057123656
 21
4731.431598713261
 31
0.0
  0
LINE
  5
19DB8
330
747D
100
AcDbEntity
  8
細線
100
AcDbLine
 10
5915.673057123661
 20
4719.431598713261
 30
0.0
 11
5989.673057123656
 21
4719.431598713261
 31
0.0
  0
LINE
  5
19DB9
330
747D
100
AcDbEntity
  8
細線
100
AcDbLine
 10
5915.673057123661
 20
4725.431598713261
 30
0.0
 11
5989.673057123656
 21
4725.431598713261
 31
0.0
  0
LINE
  5
19DBA
330
747D
100
AcDbEntity
  8
細線
100
AcDbLine
 10
5989.673057123656
 20
4737.431598713261
 30
0.0
 11
5989.67305712366
 21
4714.431598713261
 31
0.0
  0
LINE
  5
19DBB
330
747D
100
AcDbEntity
  8
細線
100
AcDbLine
 10
5179.67305712366
 20
4737.431598713261
 30
0.0
 11
5179.673057123657
 21
4714.431598713261
 31
0.0
  0
LINE
  5
19DBC
330
747D
100
AcDbEntity
  8
細線
100
AcDbLine
 10
5253.673057123656
 20
4725.431598713261
 30
0.0
 11
5179.67305712366
 21
4725.431598713261
 31
0.0
  0
LINE
  5
19DBD
330
747D
100
AcDbEntity
  8
細線
100
AcDbLine
 10
5253.673057123656
 20
4719.431598713261
 30
0.0
 11
5179.67305712366
 21
4719.431598713261
 31
0.0
  0
LINE
  5
19DBE
330
747D
100
AcDbEntity
  8
細線
100
AcDbLine
 10
5253.673057123656
 20
4731.431598713261
 30
0.0
 11
5179.67305712366
 21
4731.431598713261
 31
0.0
  0
LINE
  5
19DBF
330
747D
100
AcDbEntity
  8
細線
100
AcDbLine
 10
5105.67305712366
 20
4731.431598713261
 30
0.0
 11
5174.67305712366
 21
4731.431598713261
 31
0.0
  0
LINE
  5
19DC0
330
747D
100
AcDbEntity
  8
細線
100
AcDbLine
 10
5105.673057123657
 20
4719.431598713261
 30
0.0
 11
5179.67305712366
 21
4719.431598713261
 31
0.0
  0
LINE
  5
19DC1
330
747D
100
AcDbEntity
  8
細線
100
AcDbLine
 10
5105.67305712366
 20
4725.431598713261
 30
0.0
 11
5179.67305712366
 21
4725.431598713261
 31
0.0
  0
LINE
  5
19DC2
330
747D
100
AcDbEntity
  8
細線
100
AcDbLine
 10
5105.67305712366
 20
4731.431598713261
 30
0.0
 11
5179.67305712366
 21
4731.431598713261
 31
0.0
  0
LINE
  5
19DC3
330
747D
100
AcDbEntity
  8
部品1
 48
0.01
100
AcDbLine
 10
5267.67305712366
 20
4743.931598713261
 30
0.0
 11
5091.67305712366
 21
4743.931598713261
 31
0.0
  0
LINE
  5
19DC4
330
747D
100
AcDbEntity
  8
部品1
 48
0.01
100
AcDbLine
 10
5089.67305712366
 20
4741.931598713261
 30
0.0
 11
5089.67305712366
 21
4710.431598713261
 31
0.0
  0
LINE
  5
19DC5
330
747D
100
AcDbEntity
  8
部品1
 48
0.01
100
AcDbLine
 10
5091.67305712366
 20
4708.431598713261
 30
0.0
 11
5267.673057123657
 21
4708.431598713261
 31
0.0
  0
LINE
  5
19DC6
330
747D
100
AcDbEntity
  8
部品1
 48
0.01
100
AcDbLine
 10
5269.673057123657
 20
4710.431598713261
 30
0.0
 11
5269.673057123661
 21
4741.931598713261
 31
0.0
  0
LINE
  5
19DC7
330
747D
100
AcDbEntity
  8
細線
100
AcDbLine
 10
5105.67305712366
 20
4737.431598713261
 30
0.0
 11
5105.67305712366
 21
4714.431598713261
 31
0.0
  0
LINE
  5
19DC8
330
747D
100
AcDbEntity
  8
細線
100
AcDbLine
 10
5253.67305712366
 20
4714.431598713261
 30
0.0
 11
5253.67305712366
 21
4737.431598713261
 31
0.0
  0
LINE
  5
19DC9
330
747D
100
AcDbEntity
  8
細線
100
AcDbLine
 10
5253.67305712366
 20
4737.431598713261
 30
0.0
 11
5179.67305712366
 21
4737.431598713261
 31
0.0
  0
LINE
  5
19DCA
330
747D
100
AcDbEntity
  8
細線
100
AcDbLine
 10
5105.67305712366
 20
4714.431598713261
 30
0.0
 11
5179.67305712366
 21
4714.431598713261
 31
0.0
  0
LINE
  5
19DCB
330
747D
100
AcDbEntity
  8
細線
100
AcDbLine
 10
5179.67305712366
 20
4737.431598713261
 30
0.0
 11
5105.67305712366
 21
4737.431598713261
 31
0.0
  0
LINE
  5
19DCC
330
747D
100
AcDbEntity
  8
細線
100
AcDbLine
 10
5179.673057123657
 20
4714.431598713261
 30
0.0
 11
5253.67305712366
 21
4714.431598713261
 31
0.0
  0
ARC
  5
19DCD
330
747D
100
AcDbEntity
  8
部品1
 48
0.01
100
AcDbCircle
 10
5091.67305712366
 20
4741.931598713261
 30
0.0
 40
2.0
100
AcDbArc
 50
90.0
 51
180.0
  0
ARC
  5
19DCE
330
747D
100
AcDbEntity
  8
部品1
 48
0.01
100
AcDbCircle
 10
5091.67305712366
 20
4710.431598713261
 30
0.0
 40
2.0
100
AcDbArc
 50
180.0
 51
270.0
  0
ARC
  5
19DCF
330
747D
100
AcDbEntity
  8
部品1
 48
0.01
100
AcDbCircle
 10
5267.67305712366
 20
4741.931598713261
 30
0.0
 40
2.0
100
AcDbArc
 50
0.0
 51
90.0
  0
ARC
  5
19DD0
330
747D
100
AcDbEntity
  8
部品1
 48
0.01
100
AcDbCircle
 10
5267.673057123657
 20
4710.431598713261
 30
0.0
 40
2.0
100
AcDbArc
 50
270.0
 51
0.0
  0
LINE
  5
19DD1
330
747D
100
AcDbEntity
  8
細線
100
AcDbLine
 10
4792.673057123653
 20
4497.931598713261
 30
0.0
 11
6376.673057123655
 21
4497.931598713261
 31
0.0
  0
CIRCLE
  5
19DD2
330
747D
100
AcDbEntity
  8
細線
 48
50.0
100
AcDbCircle
 10
5584.673057123652
 20
3425.431598713262
 30
0.0
 40
18.0
  0
ARC
  5
19DD3
330
747D
100
AcDbEntity
  8
細線
 48
50.0
100
AcDbCircle
 10
5884.673057123651
 20
3100.431598713262
 30
0.0
 40
15.0
100
AcDbArc
 50
270.0
 51
90.0
  0
ARC
  5
19DD4
330
747D
100
AcDbEntity
  8
細線
 48
50.0
100
AcDbCircle
 10
5784.673057123651
 20
3100.431598713262
 30
0.0
 40
15.0
100
AcDbArc
 50
90.0
 51
270.0
  0
LINE
  5
19DD5
330
747D
100
AcDbEntity
  8
細線
 48
50.0
100
AcDbLine
 10
5784.673057123651
 20
3115.431598713261
 30
0.0
 11
5884.673057123651
 21
3115.431598713261
 31
0.0
  0
LINE
  5
19DD6
330
747D
100
AcDbEntity
  8
細線
 48
50.0
100
AcDbLine
 10
5884.673057123651
 20
3085.431598713262
 30
0.0
 11
5784.673057123651
 21
3085.431598713262
 31
0.0
  0
LINE
  5
19DD7
330
747D
100
AcDbEntity
  8
細線
 48
50.0
100
AcDbLine
 10
5384.673057123651
 20
3085.431598713262
 30
0.0
 11
5284.673057123651
 21
3085.431598713262
 31
0.0
  0
LINE
  5
19DD8
330
747D
100
AcDbEntity
  8
細線
 48
50.0
100
AcDbLine
 10
5284.673057123651
 20
3115.431598713261
 30
0.0
 11
5384.673057123651
 21
3115.431598713261
 31
0.0
  0
ARC
  5
19DD9
330
747D
100
AcDbEntity
  8
細線
 48
50.0
100
AcDbCircle
 10
5384.673057123651
 20
3100.431598713262
 30
0.0
 40
15.0
100
AcDbArc
 50
270.0
 51
90.0
  0
ARC
  5
19DDA
330
747D
100
AcDbEntity
  8
細線
 48
50.0
100
AcDbCircle
 10
5284.673057123651
 20
3100.431598713262
 30
0.0
 40
15.0
100
AcDbArc
 50
90.0
 51
270.0
  0
LINE
  5
19DDB
330
747D
100
AcDbEntity
  8
細線
100
AcDbLine
 10
4792.673057123653
 20
3067.931598713262
 30
0.0
 11
6376.673057123655
 21
3067.931598713262
 31
0.0
  0
LINE
  5
19DDC
330
747D
100
AcDbEntity
  8
細線
100
AcDbLine
 10
4792.673057123653
 20
3002.931598713262
 30
0.0
 11
6376.673057123655
 21
3002.931598713262
 31
0.0
  0
LINE
  5
19DDD
330
747D
100
AcDbEntity
  8
細線
100
AcDbLine
 10
4792.673057123653
 20
2937.931598713262
 30
0.0
 11
6376.673057123655
 21
2937.931598713262
 31
0.0
  0
LINE
  5
19DDE
330
747D
100
AcDbEntity
  8
細線
100
AcDbLine
 10
4792.673057123653
 20
2872.931598713262
 30
0.0
 11
6376.673057123655
 21
2872.931598713262
 31
0.0
  0
LINE
  5
19DDF
330
747D
100
AcDbEntity
  8
細線
100
AcDbLine
 10
4792.673057123653
 20
2807.931598713262
 30
0.0
 11
6376.673057123655
 21
2807.931598713262
 31
0.0
  0
LINE
  5
19DE0
330
747D
100
AcDbEntity
  8
細線
100
AcDbLine
 10
4792.673057123653
 20
2742.931598713262
 30
0.0
 11
6376.673057123655
 21
2742.931598713262
 31
0.0
  0
LINE
  5
19DE1
330
747D
100
AcDbEntity
  8
細線
100
AcDbLine
 10
4792.673057123653
 20
2677.931598713262
 30
0.0
 11
6376.673057123655
 21
2677.931598713262
 31
0.0
  0
LINE
  5
19DE2
330
747D
100
AcDbEntity
  8
細線
100
AcDbLine
 10
4792.673057123653
 20
2612.931598713262
 30
0.0
 11
6376.673057123655
 21
2612.931598713262
 31
0.0
  0
LINE
  5
19DE3
330
747D
100
AcDbEntity
  8
細線
100
AcDbLine
 10
4792.673057123653
 20
4367.931598713261
 30
0.0
 11
6376.673057123655
 21
4367.931598713261
 31
0.0
  0
LINE
  5
19DE4
330
747D
100
AcDbEntity
  8
細線
100
AcDbLine
 10
4792.673057123653
 20
4432.931598713262
 30
0.0
 11
6376.673057123655
 21
4432.931598713262
 31
0.0
  0
LINE
  5
19DE5
330
747D
100
AcDbEntity
  8
細線
100
AcDbLine
 10
4792.673057123653
 20
3717.931598713262
 30
0.0
 11
6376.673057123655
 21
3717.931598713262
 31
0.0
  0
LINE
  5
19DE6
330
747D
100
AcDbEntity
  8
細線
100
AcDbLine
 10
4792.673057123653
 20
3652.931598713262
 30
0.0
 11
6376.673057123655
 21
3652.931598713262
 31
0.0
  0
LINE
  5
19DE7
330
747D
100
AcDbEntity
  8
細線
100
AcDbLine
 10
4792.673057123653
 20
3587.931598713262
 30
0.0
 11
6376.673057123655
 21
3587.931598713262
 31
0.0
  0
LINE
  5
19DE8
330
747D
100
AcDbEntity
  8
細線
100
AcDbLine
 10
4792.673057123653
 20
3522.931598713262
 30
0.0
 11
6376.673057123655
 21
3522.931598713262
 31
0.0
  0
LINE
  5
19DE9
330
747D
100
AcDbEntity
  8
細線
100
AcDbLine
 10
4792.673057123653
 20
3457.931598713262
 30
0.0
 11
6376.673057123655
 21
3457.931598713262
 31
0.0
  0
LINE
  5
19DEA
330
747D
100
AcDbEntity
  8
細線
100
AcDbLine
 10
4792.673057123653
 20
3392.931598713262
 30
0.0
 11
6376.673057123655
 21
3392.931598713262
 31
0.0
  0
LINE
  5
19DEB
330
747D
100
AcDbEntity
  8
細線
100
AcDbLine
 10
4792.673057123653
 20
3327.931598713262
 30
0.0
 11
6376.673057123655
 21
3327.931598713262
 31
0.0
  0
LINE
  5
19DEC
330
747D
100
AcDbEntity
  8
細線
100
AcDbLine
 10
4792.673057123653
 20
3262.931598713262
 30
0.0
 11
6376.673057123655
 21
3262.931598713262
 31
0.0
  0
LINE
  5
19DED
330
747D
100
AcDbEntity
  8
細線
100
AcDbLine
 10
4792.673057123653
 20
3197.931598713262
 30
0.0
 11
6376.673057123655
 21
3197.931598713262
 31
0.0
  0
LINE
  5
19DEE
330
747D
100
AcDbEntity
  8
細線
100
AcDbLine
 10
4792.673057123653
 20
3132.931598713262
 30
0.0
 11
6376.673057123655
 21
3132.931598713262
 31
0.0
  0
LINE
  5
19DEF
330
747D
100
AcDbEntity
  8
細線
100
AcDbLine
 10
4792.673057123653
 20
4107.931598713261
 30
0.0
 11
6376.673057123655
 21
4107.931598713261
 31
0.0
  0
LINE
  5
19DF0
330
747D
100
AcDbEntity
  8
細線
100
AcDbLine
 10
4792.673057123653
 20
4042.931598713262
 30
0.0
 11
6376.673057123655
 21
4042.931598713262
 31
0.0
  0
LINE
  5
19DF1
330
747D
100
AcDbEntity
  8
細線
100
AcDbLine
 10
4792.673057123653
 20
3977.931598713262
 30
0.0
 11
6376.673057123655
 21
3977.931598713262
 31
0.0
  0
LINE
  5
19DF2
330
747D
100
AcDbEntity
  8
細線
100
AcDbLine
 10
4792.673057123653
 20
3912.931598713262
 30
0.0
 11
6376.673057123655
 21
3912.931598713262
 31
0.0
  0
LINE
  5
19DF3
330
747D
100
AcDbEntity
  8
細線
100
AcDbLine
 10
4792.673057123653
 20
3847.931598713262
 30
0.0
 11
6376.673057123655
 21
3847.931598713262
 31
0.0
  0
LINE
  5
19DF4
330
747D
100
AcDbEntity
  8
細線
100
AcDbLine
 10
4792.673057123653
 20
3782.931598713262
 30
0.0
 11
6376.673057123655
 21
3782.931598713262
 31
0.0
  0
LINE
  5
19DF5
330
747D
100
AcDbEntity
  8
細線
100
AcDbLine
 10
4792.673057123653
 20
4302.931598713261
 30
0.0
 11
6376.673057123655
 21
4302.931598713261
 31
0.0
  0
LINE
  5
19DF6
330
747D
100
AcDbEntity
  8
細線
100
AcDbLine
 10
4792.673057123653
 20
4237.931598713261
 30
0.0
 11
6376.673057123655
 21
4237.931598713261
 31
0.0
  0
LINE
  5
19DF7
330
747D
100
AcDbEntity
  8
細線
100
AcDbLine
 10
4792.673057123653
 20
4172.931598713261
 30
0.0
 11
6376.673057123655
 21
4172.931598713261
 31
0.0
  0
LINE
  5
19DF8
330
747D
100
AcDbEntity
  8
細線
100
AcDbLine
 10
6376.673057123657
 20
2547.931598713262
 30
0.0
 11
4792.673057123651
 21
2547.931598713262
 31
0.0
  0
LINE
  5
19DF9
330
747D
100
AcDbEntity
  8
部品1
100
AcDbLine
 10
4744.673057123656
 20
4512.931598713261
 30
0.0
 11
6534.673057123656
 21
4512.931598713261
 31
0.0
  0
SPLINE
  5
19E08
330
747D
100
AcDbEntity
  8
部品1
 48
50.0
100
AcDbSpline
210
0.0
220
0.0
230
1.0
 70
     8
 71
     3
 72
    10
 73
     6
 74
     4
 42
0.0000000001
 43
0.0000000001
 44
0.0000000001
 40
0.0
 40
0.0
 40
0.0
 40
0.0
 40
147.8767566010009
 40
301.8091093202477
 40
466.5049223087716
 40
466.5049223087716
 40
466.5049223087716
 40
466.5049223087716
 10
5652.243384856714
 20
10305.70327840271
 30
0.0
 10
5575.361702361879
 20
10296.79884474487
 30
0.0
 10
5418.450010151751
 20
10278.62533828553
 30
0.0
 10
5741.263420096095
 20
10176.1047536462
 30
0.0
 10
5571.420800426722
 20
10157.46966493399
 30
0.0
 10
5483.63079521983
 20
10147.83736805668
 30
0.0
 11
5652.243384856714
 21
10305.70327840271
 31
0.0
 11
5509.405406547944
 21
10267.42995746638
 31
0.0
 11
5642.714734467119
 21
10190.46378110675
 31
0.0
 11
5483.63079521983
 21
10147.83736805668
 31
0.0
  0
LINE
  5
19E09
330
747D
100
AcDbEntity
  8
部品1
 48
50.0
100
AcDbLine
 10
5631.205796679214
 20
10398.1246741136
 30
0.0
 11
5538.140317568114
 21
10050.79957764023
 31
0.0
  0
SPLINE
  5
19E10
330
747D
100
AcDbEntity
  8
部品1
 48
50.0
100
AcDbSpline
210
0.0
220
0.0
230
1.0
 70
     8
 71
     3
 72
    10
 73
     6
 74
     4
 42
0.0000000001
 43
0.0000000001
 44
0.0000000001
 40
0.0
 40
0.0
 40
0.0
 40
0.0
 40
147.8767566010009
 40
301.8091093202477
 40
466.5049223087716
 40
466.5049223087716
 40
466.5049223087716
 40
466.5049223087716
 10
5652.243384856698
 20
7762.703278402587
 30
0.0
 10
5575.361702361863
 20
7753.798844744747
 30
0.0
 10
5418.450010151735
 20
7735.625338285415
 30
0.0
 10
5741.263420096079
 20
7633.104753646076
 30
0.0
 10
5571.420800426705
 20
7614.46966493387
 30
0.0
 10
5483.630795219813
 20
7604.837368056561
 30
0.0
 11
5652.243384856698
 21
7762.703278402587
 31
0.0
 11
5509.405406547928
 21
7724.429957466258
 31
0.0
 11
5642.714734467102
 21
7647.463781106636
 31
0.0
 11
5483.630795219813
 21
7604.837368056561
 31
0.0
  0
LINE
  5
19E11
330
747D
100
AcDbEntity
  8
部品1
 48
50.0
100
AcDbLine
 10
5631.205796679198
 20
7855.124674113476
 30
0.0
 11
5538.140317568097
 21
7507.799577640111
 31
0.0
  0
LINE
  5
19E1D
330
747D
100
AcDbEntity
  8
部品1
 48
50.0
100
AcDbLine
 10
6017.608334867325
 20
5041.168051641343
 30
0.0
 11
5229.383492910796
 21
2099.472893671883
 31
0.0
  0
SPLINE
  5
19E1E
330
747D
100
AcDbEntity
  8
部品1
 48
50.0
100
AcDbSpline
210
0.0
220
0.0
230
1.0
 70
     8
 71
     3
 72
    10
 73
     6
 74
     4
 42
0.0000000001
 43
0.0000000001
 44
0.0000000001
 40
0.0
 40
0.0
 40
0.0
 40
0.0
 40
147.8767566010009
 40
301.8091093202477
 40
466.5049223087734
 40
466.5049223087734
 40
466.5049223087734
 40
466.5049223087734
 10
5652.243384856703
 20
3506.672751239054
 30
0.0
 10
5575.361702361867
 20
3497.768317581216
 30
0.0
 10
5418.45001015174
 20
3479.594811121885
 30
0.0
 10
5741.263420096084
 20
3377.074226482542
 30
0.0
 10
5571.420800426711
 20
3358.439137770338
 30
0.0
 10
5483.630795219816
 20
3348.80684089303
 30
0.0
 11
5652.243384856703
 21
3506.672751239054
 31
0.0
 11
5509.405406547934
 21
3468.399430302726
 31
0.0
 11
5642.714734467108
 21
3391.433253943102
 31
0.0
 11
5483.630795219816
 21
3348.80684089303
 31
0.0
  0
ENDSEC
  0
SECTION
  2
OBJECTS
  0
DICTIONARY
  5
7471
330
0
100
AcDbDictionary
281
     1
  3
ACAD_COLOR
350
17AE2
  3
ACAD_GROUP
350
7472
  3
ACAD_LAYOUT
350
17AE3
  3
ACAD_MATERIAL
350
17AE1
  3
ACAD_MLINESTYLE
350
7473
  3
ACAD_PLOTSETTINGS
350
17AE4
  3
ACAD_PLOTSTYLENAME
350
17ADF
  3
ACDBHEADERROUNDTRIPXREC
350
19E81
  3
AcDbVariableDictionary
350
19E7D
  3
CONTENTDICTIONARY
350
E71C
  3
DRAWINGVARIABLESDICT
350
F3B9
  0
DICTIONARY
  5
18BD4
330
7467
100
AcDbDictionary
280
     1
281
     1
  3
ACAD_LAYERSTATES
360
18BD5
  0
DICTIONARY
  5
17AE2
102
{ACAD_REACTORS
330
7471
102
}
330
7471
100
AcDbDictionary
281
     1
  0
DICTIONARY
  5
7472
102
{ACAD_REACTORS
330
7471
102
}
330
7471
100
AcDbDictionary
281
     1
  3
*A1
350
17FA7
  3
*A2
350
180C7
  3
*A3
350
180D2
  0
DICTIONARY
  5
17AE3
102
{ACAD_REACTORS
330
7471
102
}
330
7471
100
AcDbDictionary
281
     1
  3
Model
350
17AE5
  3
レイアウト1
350
17AE6
  0
DICTIONARY
  5
17AE1
102
{ACAD_REACTORS
330
7471
102
}
330
7471
100
AcDbDictionary
281
     1
  0
DICTIONARY
  5
7473
102
{ACAD_REACTORS
330
7471
102
}
330
7471
100
AcDbDictionary
281
     1
  3
STANDARD
350
7480
  0
DICTIONARY
  5
17AE4
102
{ACAD_REACTORS
330
7471
102
}
330
7471
100
AcDbDictionary
281
     1
  0
ACDBDICTIONARYWDFLT
  5
17ADF
102
{ACAD_REACTORS
330
7471
102
}
330
7471
100
AcDbDictionary
281
     1
  3
Normal
350
17AE0
100
AcDbDictionaryWithDefault
340
17AE0
  0
DICTIONARY
  5
19E81
102
{ACAD_REACTORS
330
7471
102
}
330
7471
100
AcDbDictionary
281
     1
  3
COLORDICT
350
19E83
  3
MATERIALDICT
350
19E82
  0
DICTIONARY
  5
19E7D
102
{ACAD_REACTORS
330
7471
102
}
330
7471
100
AcDbDictionary
281
     1
  3
DIMASSOC
350
19E7E
  3
PROJECTNAME
350
19E7F
  0
DICTIONARY
  5
E71C
102
{ACAD_REACTORS
330
7471
102
}
330
7471
100
AcDbDictionary
281
     1
  0
DICTIONARY
  5
F3B9
102
{ACAD_REACTORS
330
7471
102
}
330
7471
100
AcDbDictionary
281
     1
1001
DRAWINGVARIABLESXDATA
1000
POLARMODE
1000
1
  0
DICTIONARY
  5
18BD5
102
{ACAD_REACTORS
330
18BD4
102
}
330
18BD4
100
AcDbDictionary
281
     1
  0
GROUP
  5
17FA7
102
{ACAD_REACTORS
330
7472
102
}
330
7472
100
AcDbGroup
300

 70
     1
 71
     1
  0
GROUP
  5
180C7
102
{ACAD_REACTORS
330
7472
102
}
330
7472
100
AcDbGroup
300

 70
     1
 71
     1
  0
GROUP
  5
180D2
102
{ACAD_REACTORS
330
7472
102
}
330
7472
100
AcDbGroup
300

 70
     1
 71
     1
  0
LAYOUT
  5
17AE5
102
{ACAD_XDICTIONARY
360
19E84
102
}
102
{ACAD_REACTORS
330
17AE3
102
}
330
17AE3
100
AcDbPlotSettings
  1

  2
Canon iR C3880/C4580 LIPSLX
  4
A3
  6

 40
5.873749732971191
 41
5.873747825622558
 42
5.873748779296875
 43
5.873748779296875
 44
296.9259948730469
 45
419.9466552734374
 46
0.0
 47
0.0
 48
0.0
 49
0.0
140
0.0
141
0.0
142
1.0
143
40.0
 70
 11952
 72
     1
 73
     1
 74
     2
  7
inaba.ctb
 75
    24
147
0.025
148
0.0
149
0.0
100
AcDbLayout
  1
Model
 70
     1
 71
     0
 10
0.0
 20
0.0
 11
12.0
 21
9.0
 12
0.0
 22
0.0
 32
0.0
 14
0.0
 24
0.0
 34
0.0
 15
0.0
 25
0.0
 35
0.0
146
0.0
 13
0.0
 23
0.0
 33
0.0
 16
1.0
 26
0.0
 36
0.0
 17
0.0
 27
1.0
 37
0.0
 76
     0
330
747D
  0
LAYOUT
  5
17AE6
102
{ACAD_XDICTIONARY
360
19E86
102
}
102
{ACAD_REACTORS
330
17AE3
102
}
330
17AE3
100
AcDbPlotSettings
  1

  2
EPSON LP-8300
  4

  6

 40
0.0
 41
0.0
 42
0.0
 43
0.0
 44
0.0
 45
0.0
 46
0.0
 47
0.0
 48
0.0
 49
0.0
140
0.0
141
0.0
142
1.0
143
1.0
 70
   688
 72
     0
 73
     0
 74
     5
  7
inaba.ctb
 75
    16
147
1.0
148
0.0
149
0.0
100
AcDbLayout
  1
レイアウト1
 70
     0
 71
     1
 10
0.0
 20
0.0
 11
420.0
 21
297.0
 12
0.0
 22
0.0
 32
0.0
 14
1.000000000000000E+20
 24
1.000000000000000E+20
 34
1.000000000000000E+20
 15
-1.000000000000000E+20
 25
-1.000000000000000E+20
 35
-1.000000000000000E+20
146
0.0
 13
0.0
 23
0.0
 33
0.0
 16
1.0
 26
0.0
 36
0.0
 17
0.0
 27
1.0
 37
0.0
 76
     0
330
747A
  0
MLINESTYLE
  5
7480
102
{ACAD_REACTORS
330
7473
102
}
330
7473
100
AcDbMlineStyle
  2
STANDARD
 70
     0
  3

 62
     0
 51
90.0
 52
90.0
 71
     2
 49
0.5
 62
   256
  6
BYLAYER
 49
-0.5
 62
   256
  6
BYLAYER
  0
ACDBPLACEHOLDER
  5
17AE0
102
{ACAD_REACTORS
330
17ADF
102
}
330
17ADF
  0
XRECORD
  5
19E83
102
{ACAD_REACTORS
330
19E81
102
}
330
19E81
100
AcDbXrecord
280
     1
340
17AE2
  0
XRECORD
  5
19E82
102
{ACAD_REACTORS
330
19E81
102
}
330
19E81
100
AcDbXrecord
280
     1
340
17AE1
  0
DICTIONARYVAR
  5
19E7E
102
{ACAD_REACTORS
330
19E7D
102
}
330
19E7D
100
DictionaryVariables
280
     0
  1
1
  0
DICTIONARYVAR
  5
19E7F
102
{ACAD_REACTORS
330
19E7D
102
}
330
19E7D
100
DictionaryVariables
280
     0
  1

  0
DICTIONARY
  5
19E84
330
17AE5
100
AcDbDictionary
280
     1
281
     1
  3
ACAD_XREC_ROUNDTRIP
360
19E85
  0
DICTIONARY
  5
19E86
330
17AE6
100
AcDbDictionary
280
     1
281
     1
  3
ACAD_XREC_ROUNDTRIP
360
19E87
  0
XRECORD
  5
19E85
102
{ACAD_REACTORS
330
19E84
102
}
330
19E84
100
AcDbXrecord
280
     1
102
SHADEPLOT
 70
     0
102
SHADEPLOTRESLEVEL
 70
     2
102
SHADEPLOTCUSTOMDPI
 70
   300
  0
XRECORD
  5
19E87
102
{ACAD_REACTORS
330
19E86
102
}
330
19E86
100
AcDbXrecord
280
     1
102
SHADEPLOT
 70
     0
102
SHADEPLOTRESLEVEL
 70
     2
102
SHADEPLOTCUSTOMDPI
 70
   300
  0
ENDSEC
  0
EOF
