  0
SECTION
  2
HEADER
  9
$ACADVER
  1
AC1015
  9
$ACADMAINTVER
 70
    20
  9
$DWGCODEPAGE
  3
ANSI_932
  9
$INSBASE
 10
0.0
 20
0.0
 30
0.0
  9
$EXTMIN
 10
139.9999999999995
 20
-0.0000000000000909
 30
0.0
  9
$EXTMAX
 10
16307.2
 20
11409.6
 30
0.0
  9
$LIMMIN
 10
0.0
 20
0.0
  9
$LIMMAX
 10
16800.0
 20
11880.0
  9
$ORTHOMODE
 70
     0
  9
$REGENMODE
 70
     1
  9
$FILLMODE
 70
     1
  9
$QTEXTMODE
 70
     0
  9
$MIRRTEXT
 70
     1
  9
$LTSCALE
 40
20.0
  9
$ATTMODE
 70
     1
  9
$TEXTSIZE
 40
4.0
  9
$TRACEWID
 40
1.0
  9
$TEXTSTYLE
  7
MSPゴシック
  9
$CLAYER
  8
寸法
  9
$CELTYPE
  6
BYLAYER
  9
$CECOLOR
 62
   256
  9
$CELTSCALE
 40
50.0
  9
$DISPSILH
 70
     0
  9
$DIMSCALE
 40
40.0
  9
$DIMASZ
 40
2.5
  9
$DIMEXO
 40
0.5
  9
$DIMDLI
 40
7.0
  9
$DIMRND
 40
0.0
  9
$DIMDLE
 40
0.0
  9
$DIMEXE
 40
1.5
  9
$DIMTP
 40
0.0
  9
$DIMTM
 40
0.0
  9
$DIMTXT
 40
3.0
  9
$DIMCEN
 40
0.0
  9
$DIMTSZ
 40
0.0
  9
$DIMTOL
 70
     0
  9
$DIMLIM
 70
     0
  9
$DIMTIH
 70
     0
  9
$DIMTOH
 70
     0
  9
$DIMSE1
 70
     0
  9
$DIMSE2
 70
     0
  9
$DIMTAD
 70
     3
  9
$DIMZIN
 70
     8
  9
$DIMBLK
  1

  9
$DIMASO
 70
     1
  9
$DIMSHO
 70
     1
  9
$DIMPOST
  1

  9
$DIMAPOST
  1

  9
$DIMALT
 70
     0
  9
$DIMALTD
 70
     2
  9
$DIMALTF
 40
0.0394
  9
$DIMLFAC
 40
1.0
  9
$DIMTOFL
 70
     1
  9
$DIMTVP
 40
0.0
  9
$DIMTIX
 70
     1
  9
$DIMSOXD
 70
     0
  9
$DIMSAH
 70
     1
  9
$DIMBLK1
  1
DOTSMALL
  9
$DIMBLK2
  1
DOTSMALL
  9
$DIMSTYLE
  2
INABA_S40G
  9
$DIMCLRD
 70
     0
  9
$DIMCLRE
 70
     0
  9
$DIMCLRT
 70
     7
  9
$DIMTFAC
 40
1.0
  9
$DIMGAP
 40
1.0
  9
$DIMJUST
 70
     0
  9
$DIMSD1
 70
     0
  9
$DIMSD2
 70
     0
  9
$DIMTOLJ
 70
     1
  9
$DIMTZIN
 70
     0
  9
$DIMALTZ
 70
     0
  9
$DIMALTTZ
 70
     0
  9
$DIMUPT
 70
     0
  9
$DIMDEC
 70
     1
  9
$DIMTDEC
 70
     4
  9
$DIMALTU
 70
     2
  9
$DIMALTTD
 70
     2
  9
$DIMTXSTY
  7
STYLE1
  9
$DIMAUNIT
 70
     0
  9
$DIMADEC
 70
     0
  9
$DIMALTRND
 40
0.0
  9
$DIMAZIN
 70
     0
  9
$DIMDSEP
 70
    46
  9
$DIMATFIT
 70
     3
  9
$DIMFRAC
 70
     0
  9
$DIMLDRBLK
  1

  9
$DIMLUNIT
 70
     2
  9
$DIMLWD
 70
    -2
  9
$DIMLWE
 70
    -2
  9
$DIMTMOVE
 70
     2
  9
$LUNITS
 70
     2
  9
$LUPREC
 70
     1
  9
$SKETCHINC
 40
1.0
  9
$FILLETRAD
 40
3.0
  9
$AUNITS
 70
     0
  9
$AUPREC
 70
     0
  9
$MENU
  1
acad
  9
$ELEVATION
 40
0.0
  9
$PELEVATION
 40
0.0
  9
$THICKNESS
 40
0.0
  9
$LIMCHECK
 70
     0
  9
$CHAMFERA
 40
0.0
  9
$CHAMFERB
 40
0.0
  9
$CHAMFERC
 40
0.0
  9
$CHAMFERD
 40
0.0
  9
$SKPOLY
 70
     0
  9
$TDCREATE
 40
2451368.612993866
  9
$TDUCREATE
 40
2451368.237993866
  9
$TDUPDATE
 40
2455569.643717257
  9
$TDUUPDATE
 40
2455569.268717257
  9
$TDINDWG
 40
0.8426362153
  9
$TDUSRTIMER
 40
0.8426362153
  9
$USRTIMER
 70
     1
  9
$ANGBASE
 50
0.0
  9
$ANGDIR
 70
     0
  9
$PDMODE
 70
     3
  9
$PDSIZE
 40
2.0
  9
$PLINEWID
 40
0.0
  9
$SPLFRAME
 70
     0
  9
$SPLINETYPE
 70
     6
  9
$SPLINESEGS
 70
     8
  9
$HANDSEED
  5
19C2E
  9
$SURFTAB1
 70
     6
  9
$SURFTAB2
 70
     6
  9
$SURFTYPE
 70
     6
  9
$SURFU
 70
     6
  9
$SURFV
 70
     6
  9
$UCSBASE
  2

  9
$UCSNAME
  2

  9
$UCSORG
 10
0.0
 20
0.0
 30
0.0
  9
$UCSXDIR
 10
1.0
 20
0.0
 30
0.0
  9
$UCSYDIR
 10
0.0
 20
1.0
 30
0.0
  9
$UCSORTHOREF
  2

  9
$UCSORTHOVIEW
 70
     0
  9
$UCSORGTOP
 10
0.0
 20
0.0
 30
0.0
  9
$UCSORGBOTTOM
 10
0.0
 20
0.0
 30
0.0
  9
$UCSORGLEFT
 10
0.0
 20
0.0
 30
0.0
  9
$UCSORGRIGHT
 10
0.0
 20
0.0
 30
0.0
  9
$UCSORGFRONT
 10
0.0
 20
0.0
 30
0.0
  9
$UCSORGBACK
 10
0.0
 20
0.0
 30
0.0
  9
$PUCSBASE
  2

  9
$PUCSNAME
  2

  9
$PUCSORG
 10
0.0
 20
0.0
 30
0.0
  9
$PUCSXDIR
 10
1.0
 20
0.0
 30
0.0
  9
$PUCSYDIR
 10
0.0
 20
1.0
 30
0.0
  9
$PUCSORTHOREF
  2

  9
$PUCSORTHOVIEW
 70
     0
  9
$PUCSORGTOP
 10
0.0
 20
0.0
 30
0.0
  9
$PUCSORGBOTTOM
 10
0.0
 20
0.0
 30
0.0
  9
$PUCSORGLEFT
 10
0.0
 20
0.0
 30
0.0
  9
$PUCSORGRIGHT
 10
0.0
 20
0.0
 30
0.0
  9
$PUCSORGFRONT
 10
0.0
 20
0.0
 30
0.0
  9
$PUCSORGBACK
 10
0.0
 20
0.0
 30
0.0
  9
$USERI1
 70
     0
  9
$USERI2
 70
     0
  9
$USERI3
 70
     0
  9
$USERI4
 70
     0
  9
$USERI5
 70
     0
  9
$USERR1
 40
0.0
  9
$USERR2
 40
0.0
  9
$USERR3
 40
0.0
  9
$USERR4
 40
0.0
  9
$USERR5
 40
0.0
  9
$WORLDVIEW
 70
     1
  9
$SHADEDGE
 70
     3
  9
$SHADEDIF
 70
    70
  9
$TILEMODE
 70
     1
  9
$MAXACTVP
 70
    16
  9
$PINSBASE
 10
0.0
 20
0.0
 30
0.0
  9
$PLIMCHECK
 70
     0
  9
$PEXTMIN
 10
1.000000000000000E+20
 20
1.000000000000000E+20
 30
1.000000000000000E+20
  9
$PEXTMAX
 10
-1.000000000000000E+20
 20
-1.000000000000000E+20
 30
-1.000000000000000E+20
  9
$PLIMMIN
 10
0.0
 20
0.0
  9
$PLIMMAX
 10
420.0
 20
297.0
  9
$UNITMODE
 70
     0
  9
$VISRETAIN
 70
     0
  9
$PLINEGEN
 70
     0
  9
$PSLTSCALE
 70
     0
  9
$TREEDEPTH
 70
  3020
  9
$CMLSTYLE
  2
STANDARD
  9
$CMLJUST
 70
     0
  9
$CMLSCALE
 40
1.0
  9
$PROXYGRAPHICS
 70
     1
  9
$MEASUREMENT
 70
     1
  9
$CELWEIGHT
370
    -1
  9
$ENDCAPS
280
     0
  9
$JOINSTYLE
280
     0
  9
$LWDISPLAY
290
     0
  9
$INSUNITS
 70
     0
  9
$HYPERLINKBASE
  1

  9
$STYLESHEET
  1
inaba.ctb
  9
$XEDIT
290
     1
  9
$CEPSNTYPE
380
     0
  9
$PSTYLEMODE
290
     1
  9
$FINGERPRINTGUID
  2
{0E4A3AB3-ADAA-44DC-861C-9525B65BB1EC}
  9
$VERSIONGUID
  2
{4558EAD2-AF04-4FBB-9EE4-A910893FF436}
  9
$EXTNAMES
290
     1
  9
$PSVPSCALE
 40
0.0
  9
$OLESTARTUP
290
     0
  0
ENDSEC
  0
SECTION
  2
CLASSES
  0
CLASS
  1
ACDBDICTIONARYWDFLT
  2
AcDbDictionaryWithDefault
  3
ObjectDBX Classes
 90
        0
280
     0
281
     0
  0
CLASS
  1
DICTIONARYVAR
  2
AcDbDictionaryVar
  3
ObjectDBX Classes
 90
        0
280
     0
281
     0
  0
CLASS
  1
ACDBPLACEHOLDER
  2
AcDbPlaceHolder
  3
ObjectDBX Classes
 90
        0
280
     0
281
     0
  0
CLASS
  1
LAYOUT
  2
AcDbLayout
  3
ObjectDBX Classes
 90
        0
280
     0
281
     0
  0
ENDSEC
  0
SECTION
  2
TABLES
  0
TABLE
  2
VPORT
  5
746D
330
0
100
AcDbSymbolTable
 70
     2
  0
VPORT
  5
19C26
330
746D
100
AcDbSymbolTableRecord
100
AcDbViewportTableRecord
  2
*Active
 70
     0
 10
0.0
 20
0.0
 11
1.0
 21
1.0
 12
11720.25903428193
 22
5704.513862896347
 13
0.0
 23
0.0
 14
10.0
 24
10.0
 15
10.0
 25
10.0
 16
0.0
 26
0.0
 36
1.0
 17
0.0
 27
0.0
 37
0.0
 40
11513.95019505916
 41
2.234800838574423
 42
50.0
 43
0.0
 44
0.0
 50
0.0
 51
0.0
 71
     0
 72
     0
 73
     1
 74
     0
 75
     0
 76
     0
 77
     0
 78
     0
281
     0
 65
     1
110
0.0
120
0.0
130
0.0
111
1.0
121
0.0
131
0.0
112
0.0
122
1.0
132
0.0
 79
     0
146
0.0
  0
ENDTAB
  0
TABLE
  2
LTYPE
  5
746A
330
0
100
AcDbSymbolTable
 70
     3
  0
LTYPE
  5
7477
330
746A
100
AcDbSymbolTableRecord
100
AcDbLinetypeTableRecord
  2
BYBLOCK
 70
     0
  3

 72
    65
 73
     0
 40
0.0
  0
LTYPE
  5
7478
330
746A
100
AcDbSymbolTableRecord
100
AcDbLinetypeTableRecord
  2
BYLAYER
 70
     0
  3

 72
    65
 73
     0
 40
0.0
  0
LTYPE
  5
7479
330
746A
100
AcDbSymbolTableRecord
100
AcDbLinetypeTableRecord
  2
CONTINUOUS
 70
     0
  3
Solid line
 72
    65
 73
     0
 40
0.0
  0
LTYPE
  5
781A
330
746A
100
AcDbSymbolTableRecord
100
AcDbLinetypeTableRecord
  2
HIDDEN
 70
     0
  3
__ __ __ __ __ __ __ __ __ __ __ __ __ __ __ __
 72
    65
 73
     2
 40
0.375
 49
0.25
 74
     0
 49
-0.125
 74
     0
  0
LTYPE
  5
781B
330
746A
100
AcDbSymbolTableRecord
100
AcDbLinetypeTableRecord
  2
PHANTOM
 70
     0
  3
______  __  __  ______  __  __  ______  __  __ 
 72
    65
 73
     6
 40
2.5
 49
1.25
 74
     0
 49
-0.25
 74
     0
 49
0.25
 74
     0
 49
-0.25
 74
     0
 49
0.25
 74
     0
 49
-0.25
 74
     0
  0
ENDTAB
  0
TABLE
  2
LAYER
  5
7467
102
{ACAD_XDICTIONARY
360
18D71
102
}
330
0
100
AcDbSymbolTable
 70
    10
  0
LAYER
  5
7474
330
7467
100
AcDbSymbolTableRecord
100
AcDbLayerTableRecord
  2
0
 70
     0
 62
     7
  6
CONTINUOUS
370
    -3
390
17AE0
  0
LAYER
  5
DEB3
330
7467
100
AcDbSymbolTableRecord
100
AcDbLayerTableRecord
  2
寸法
 70
     0
 62
     4
  6
CONTINUOUS
370
    -3
390
17AE0
  0
LAYER
  5
DEB4
330
7467
100
AcDbSymbolTableRecord
100
AcDbLayerTableRecord
  2
部品1
 70
     0
 62
     7
  6
CONTINUOUS
370
    -3
390
17AE0
  0
LAYER
  5
DEB5
330
7467
100
AcDbSymbolTableRecord
100
AcDbLayerTableRecord
  2
補助
 70
     0
 62
    -1
  6
CONTINUOUS
370
    -3
390
17AE0
  0
LAYER
  5
DEB6
330
7467
100
AcDbSymbolTableRecord
100
AcDbLayerTableRecord
  2
文字
 70
     0
 62
     7
  6
CONTINUOUS
370
    -3
390
17AE0
  0
LAYER
  5
F255
330
7467
100
AcDbSymbolTableRecord
100
AcDbLayerTableRecord
  2
DEFPOINTS
 70
     0
 62
     7
  6
CONTINUOUS
290
     0
370
    -3
390
17AE0
  0
LAYER
  5
10B54
330
7467
100
AcDbSymbolTableRecord
100
AcDbLayerTableRecord
  2
仕様書枠
 70
     0
 62
   230
  6
CONTINUOUS
370
    -3
390
17AE0
  0
LAYER
  5
11729
330
7467
100
AcDbSymbolTableRecord
100
AcDbLayerTableRecord
  2
Ｇ．Ｌ
 70
     0
 62
    30
  6
CONTINUOUS
370
    -3
390
17AE0
  0
LAYER
  5
1173F
330
7467
100
AcDbSymbolTableRecord
100
AcDbLayerTableRecord
  2
細線
 70
     0
 62
     5
  6
CONTINUOUS
370
    -3
390
17AE0
  0
LAYER
  5
142E2
330
7467
100
AcDbSymbolTableRecord
100
AcDbLayerTableRecord
  2
破線
 70
     0
 62
     2
  6
HIDDEN
370
    -3
390
17AE0
  0
ENDTAB
  0
TABLE
  2
STYLE
  5
7468
330
0
100
AcDbSymbolTable
 70
     7
  0
STYLE
  5
7475
330
7468
100
AcDbSymbolTableRecord
100
AcDbTextStyleTableRecord
  2
STANDARD
 70
     0
 40
0.0
 41
1.0
 50
0.0
 71
     0
 42
4.0
  3
txt
  4
C:\AutoCAD LT\bigfont.shx
  0
STYLE
  5
763C
330
7468
100
AcDbSymbolTableRecord
100
AcDbTextStyleTableRecord
  2
MSMINCHO
 70
     0
 40
0.0
 41
1.0
 50
0.0
 71
     0
 42
1.199999999999999
  3
MS PMincho.ttf
  4

1001
ACAD
1000
MS PMincho
1071
    32786
  0
STYLE
  5
F706
330
7468
100
AcDbSymbolTableRecord
100
AcDbTextStyleTableRecord
  2
STYLE1
 70
     0
 40
0.0
 41
1.0
 50
0.0
 71
     0
 42
4.0
  3
isocp.shx
  4
bigfont.shx
  0
STYLE
  5
103BF
330
7468
100
AcDbSymbolTableRecord
100
AcDbTextStyleTableRecord
  2
STYLE2
 70
     0
 40
0.0
 41
1.0
 50
0.0
 71
     0
 42
100.0
  3
MS PGothic.ttf
  4

1001
ACAD
1000
MS PGothic
1071
    32818
  0
STYLE
  5
10BAA
330
7468
100
AcDbSymbolTableRecord
100
AcDbTextStyleTableRecord
  2
STYLE3
 70
     0
 40
0.0
 41
1.0
 50
0.0
 71
     0
 42
100.0
  3
DFPGothic-EB.ttf
  4

1001
ACAD
1000
DFPGothic-EB
1071
    32818
  0
STYLE
  5
11A15
330
7468
100
AcDbSymbolTableRecord
100
AcDbTextStyleTableRecord
  2
MSGOTHIC
 70
     0
 40
0.0
 41
1.0
 50
0.0
 71
     0
 42
3.5
  3
MS PGothic.ttf
  4

1001
ACAD
1000
MS PGothic
1071
    32818
  0
STYLE
  5
13E96
330
7468
100
AcDbSymbolTableRecord
100
AcDbTextStyleTableRecord
  2
MSPゴシック
 70
     0
 40
0.0
 41
1.0
 50
0.0
 71
     0
 42
4.0
  3
MS PGothic.ttf
  4

1001
ACAD
1000
MS PGothic
1071
    32818
  0
ENDTAB
  0
TABLE
  2
VIEW
  5
746B
330
0
100
AcDbSymbolTable
 70
     0
  0
ENDTAB
  0
TABLE
  2
UCS
  5
746C
330
0
100
AcDbSymbolTable
 70
     0
  0
ENDTAB
  0
TABLE
  2
APPID
  5
746E
330
0
100
AcDbSymbolTable
 70
     6
  0
APPID
  5
7476
330
746E
100
AcDbSymbolTableRecord
100
AcDbRegAppTableRecord
  2
ACAD
 70
     0
  0
APPID
  5
DEA9
330
746E
100
AcDbSymbolTableRecord
100
AcDbRegAppTableRecord
  2
CONTENTBLOCKICON
 70
     0
  0
APPID
  5
DEAA
330
746E
100
AcDbSymbolTableRecord
100
AcDbRegAppTableRecord
  2
CONTENTBLOCKDESCRIPTION
 70
     0
  0
APPID
  5
E71D
330
746E
100
AcDbSymbolTableRecord
100
AcDbRegAppTableRecord
  2
CONTENTTABDATA
 70
     0
  0
APPID
  5
E71E
330
746E
100
AcDbSymbolTableRecord
100
AcDbRegAppTableRecord
  2
CONTENTCURRENTTAB
 70
     0
  0
APPID
  5
F3BA
330
746E
100
AcDbSymbolTableRecord
100
AcDbRegAppTableRecord
  2
DRAWINGVARIABLESXDATA
 70
     0
  0
ENDTAB
  0
TABLE
  2
DIMSTYLE
  5
746F
330
0
100
AcDbSymbolTable
 70
     1
100
AcDbDimStyleTable
 71
     1
340
F71F
  0
DIMSTYLE
105
F71F
102
{ACAD_REACTORS
330
162CD
330
162CE
330
162CF
330
162D0
330
162E4
330
162E7
330
162EA
330
162EB
330
16301
330
16302
330
1631F
330
16320
330
16333
330
1659C
330
1659A
330
165E9
330
166DD
330
16913
330
17BC3
330
17B87
330
17B86
330
18F57
330
18F58
330
18F59
330
18F89
330
18F8D
330
18F8E
330
18F8F
330
18F9D
330
18FAC
330
19848
330
19847
330
19846
330
19845
330
19A65
330
19A66
330
19A67
102
}
330
746F
100
AcDbSymbolTableRecord
100
AcDbDimStyleTableRecord
  2
INABA_S40G
 70
     0
 40
40.0
 41
2.5
 42
0.5
 43
7.0
 44
1.5
 73
     0
 74
     0
 77
     3
 78
     8
140
3.0
141
0.0
143
0.0394
147
1.0
172
     1
173
     1
174
     1
178
     7
271
     1
340
F706
341
F770
343
F770
344
F770
  0
ENDTAB
  0
TABLE
  2
BLOCK_RECORD
  5
7466
330
0
100
AcDbSymbolTable
 70
    39
  0
BLOCK_RECORD
  5
747D
330
7466
100
AcDbSymbolTableRecord
100
AcDbBlockTableRecord
  2
*MODEL_SPACE
340
17AE5
  0
BLOCK_RECORD
  5
747A
330
7466
100
AcDbSymbolTableRecord
100
AcDbBlockTableRecord
  2
*PAPER_SPACE
340
17AE6
  0
BLOCK_RECORD
  5
F770
330
7466
100
AcDbSymbolTableRecord
100
AcDbBlockTableRecord
  2
_DOTSMALL
340
0
102
{BLKREFS
331
18A32
331
18A33
331
18A3B
331
18A3C
331
18A44
331
18A45
331
18A4C
331
18A4D
331
18A57
331
18A58
331
18A61
331
18A62
331
18A6C
331
18A6D
331
18A77
331
18A78
331
18A81
331
18A82
331
18A8C
331
18A8D
331
18A95
331
18A96
331
18AA0
331
18AA1
331
18AAC
331
18AAD
331
18AB7
331
18AB8
331
18AC1
331
18AC2
331
18ACA
331
18ACB
331
18AD2
331
18AD3
331
18ADB
331
18ADC
331
18AE6
331
18AE7
331
18AF1
331
18AF2
331
18AFA
331
18AFB
331
197F2
331
197F3
331
197FC
331
197FD
331
19810
331
19811
331
19824
331
19825
331
1982D
331
1982E
331
19836
331
19837
331
1983F
331
19840
331
198F5
331
198F6
331
19900
331
19901
331
19909
331
1990A
331
19912
331
19913
331
19B87
331
19B88
331
19BE9
331
19BEA
331
19BF2
331
19BF3
331
19C07
331
19C08
331
19C13
331
19C14
102
}
  0
BLOCK_RECORD
  5
16338
330
7466
100
AcDbSymbolTableRecord
100
AcDbBlockTableRecord
  2
*D1
340
0
  0
BLOCK_RECORD
  5
16344
330
7466
100
AcDbSymbolTableRecord
100
AcDbBlockTableRecord
  2
*D2
340
0
  0
BLOCK_RECORD
  5
16352
330
7466
100
AcDbSymbolTableRecord
100
AcDbBlockTableRecord
  2
*D3
340
0
  0
BLOCK_RECORD
  5
16360
330
7466
100
AcDbSymbolTableRecord
100
AcDbBlockTableRecord
  2
*D4
340
0
  0
BLOCK_RECORD
  5
16384
330
7466
100
AcDbSymbolTableRecord
100
AcDbBlockTableRecord
  2
*D5
340
0
  0
BLOCK_RECORD
  5
1638F
330
7466
100
AcDbSymbolTableRecord
100
AcDbBlockTableRecord
  2
*D6
340
0
  0
BLOCK_RECORD
  5
1639B
330
7466
100
AcDbSymbolTableRecord
100
AcDbBlockTableRecord
  2
*D7
340
0
  0
BLOCK_RECORD
  5
163A9
330
7466
100
AcDbSymbolTableRecord
100
AcDbBlockTableRecord
  2
*D8
340
0
  0
BLOCK_RECORD
  5
163B8
330
7466
100
AcDbSymbolTableRecord
100
AcDbBlockTableRecord
  2
*D9
340
0
  0
BLOCK_RECORD
  5
163C7
330
7466
100
AcDbSymbolTableRecord
100
AcDbBlockTableRecord
  2
*D10
340
0
  0
BLOCK_RECORD
  5
163E1
330
7466
100
AcDbSymbolTableRecord
100
AcDbBlockTableRecord
  2
*D11
340
0
  0
BLOCK_RECORD
  5
163ED
330
7466
100
AcDbSymbolTableRecord
100
AcDbBlockTableRecord
  2
*D12
340
0
  0
BLOCK_RECORD
  5
163FB
330
7466
100
AcDbSymbolTableRecord
100
AcDbBlockTableRecord
  2
*D13
340
0
  0
BLOCK_RECORD
  5
165B5
330
7466
100
AcDbSymbolTableRecord
100
AcDbBlockTableRecord
  2
*D14
340
0
  0
BLOCK_RECORD
  5
165C4
330
7466
100
AcDbSymbolTableRecord
100
AcDbBlockTableRecord
  2
*D15
340
0
  0
BLOCK_RECORD
  5
165EA
330
7466
100
AcDbSymbolTableRecord
100
AcDbBlockTableRecord
  2
*D16
340
0
  0
BLOCK_RECORD
  5
166CF
330
7466
100
AcDbSymbolTableRecord
100
AcDbBlockTableRecord
  2
*D17
340
0
  0
BLOCK_RECORD
  5
16908
330
7466
100
AcDbSymbolTableRecord
100
AcDbBlockTableRecord
  2
*D18
340
0
  0
BLOCK_RECORD
  5
17BD3
330
7466
100
AcDbSymbolTableRecord
100
AcDbBlockTableRecord
  2
*D19
340
0
  0
BLOCK_RECORD
  5
17BDE
330
7466
100
AcDbSymbolTableRecord
100
AcDbBlockTableRecord
  2
*D20
340
0
  0
BLOCK_RECORD
  5
17BF8
330
7466
100
AcDbSymbolTableRecord
100
AcDbBlockTableRecord
  2
*D21
340
0
  0
BLOCK_RECORD
  5
190D9
330
7466
100
AcDbSymbolTableRecord
100
AcDbBlockTableRecord
  2
*D22
340
0
  0
BLOCK_RECORD
  5
190E5
330
7466
100
AcDbSymbolTableRecord
100
AcDbBlockTableRecord
  2
*D23
340
0
  0
BLOCK_RECORD
  5
190F1
330
7466
100
AcDbSymbolTableRecord
100
AcDbBlockTableRecord
  2
*D24
340
0
  0
BLOCK_RECORD
  5
190FD
330
7466
100
AcDbSymbolTableRecord
100
AcDbBlockTableRecord
  2
*D25
340
0
  0
BLOCK_RECORD
  5
1910B
330
7466
100
AcDbSymbolTableRecord
100
AcDbBlockTableRecord
  2
*D26
340
0
  0
BLOCK_RECORD
  5
19117
330
7466
100
AcDbSymbolTableRecord
100
AcDbBlockTableRecord
  2
*D27
340
0
  0
BLOCK_RECORD
  5
19125
330
7466
100
AcDbSymbolTableRecord
100
AcDbBlockTableRecord
  2
*D28
340
0
  0
BLOCK_RECORD
  5
19131
330
7466
100
AcDbSymbolTableRecord
100
AcDbBlockTableRecord
  2
*D29
340
0
  0
BLOCK_RECORD
  5
1913E
330
7466
100
AcDbSymbolTableRecord
100
AcDbBlockTableRecord
  2
*D30
340
0
  0
BLOCK_RECORD
  5
198BC
330
7466
100
AcDbSymbolTableRecord
100
AcDbBlockTableRecord
  2
*D31
340
0
  0
BLOCK_RECORD
  5
198CA
330
7466
100
AcDbSymbolTableRecord
100
AcDbBlockTableRecord
  2
*D32
340
0
  0
BLOCK_RECORD
  5
198D8
330
7466
100
AcDbSymbolTableRecord
100
AcDbBlockTableRecord
  2
*D33
340
0
  0
BLOCK_RECORD
  5
198E4
330
7466
100
AcDbSymbolTableRecord
100
AcDbBlockTableRecord
  2
*D34
340
0
  0
BLOCK_RECORD
  5
19AC5
330
7466
100
AcDbSymbolTableRecord
100
AcDbBlockTableRecord
  2
*D35
340
0
  0
BLOCK_RECORD
  5
19AD1
330
7466
100
AcDbSymbolTableRecord
100
AcDbBlockTableRecord
  2
*D36
340
0
  0
BLOCK_RECORD
  5
19ADF
330
7466
100
AcDbSymbolTableRecord
100
AcDbBlockTableRecord
  2
*D37
340
0
  0
BLOCK_RECORD
  5
19BBF
330
7466
100
AcDbSymbolTableRecord
100
AcDbBlockTableRecord
  2
A$C17B70E04
340
0
  0
ENDTAB
  0
ENDSEC
  0
SECTION
  2
BLOCKS
  0
BLOCK
  5
7489
330
747D
100
AcDbEntity
  8
0
100
AcDbBlockBegin
  2
*MODEL_SPACE
 70
     0
 10
0.0
 20
0.0
 30
0.0
  3
*MODEL_SPACE
  1

  0
ENDBLK
  5
748A
330
747D
100
AcDbEntity
  8
0
100
AcDbBlockEnd
  0
BLOCK
  5
7487
330
747A
100
AcDbEntity
 67
     1
  8
0
100
AcDbBlockBegin
  2
*PAPER_SPACE
 70
     0
 10
0.0
 20
0.0
 30
0.0
  3
*PAPER_SPACE
  1

  0
ENDBLK
  5
7488
330
747A
100
AcDbEntity
 67
     1
  8
0
100
AcDbBlockEnd
  0
BLOCK
  5
F771
330
F770
100
AcDbEntity
  8
0
 48
50.0
100
AcDbBlockBegin
  2
_DOTSMALL
 70
     0
 10
0.0
 20
0.0
 30
0.0
  3
_DOTSMALL
  1

  0
LWPOLYLINE
  5
F772
330
F770
100
AcDbEntity
  8
0
  6
ByBlock
 62
     0
 48
50.0
100
AcDbPolyline
 90
        2
 70
     1
 43
0.5
 10
-0.0625
 20
0.0
 42
1.0
 10
0.0625
 20
0.0
 42
1.0
  0
ENDBLK
  5
F776
330
F770
100
AcDbEntity
  8
0
 48
50.0
100
AcDbBlockEnd
  0
BLOCK
  5
164EB
330
16338
100
AcDbEntity
  8
0
 48
50.0
100
AcDbBlockBegin
  2
*D1
 70
     1
 10
0.0
 20
0.0
 30
0.0
  3
*D1
  1

  0
LINE
  5
18AF7
330
16338
100
AcDbEntity
  8
寸法
 62
     0
 48
50.0
370
    -2
100
AcDbLine
 10
7420.497127903591
 20
10210.96212587689
 30
0.0
 11
8107.923473637997
 21
10210.96212587689
 31
0.0
  0
LINE
  5
18AF8
330
16338
100
AcDbEntity
  8
寸法
 62
     0
 48
50.0
370
    -2
100
AcDbLine
 10
7420.497127903566
 20
7690.962125876882
 30
0.0
 11
8107.923473637997
 21
7690.962125876882
 31
0.0
  0
LINE
  5
18AF9
330
16338
100
AcDbEntity
  8
寸法
 62
     0
 48
50.0
370
    -2
100
AcDbLine
 10
8047.923473637997
 20
10210.96212587689
 30
0.0
 11
8047.923473637997
 21
7690.962125876882
 31
0.0
  0
INSERT
  5
18AFA
330
16338
100
AcDbEntity
  8
寸法
 62
     0
 48
50.0
370
    -2
100
AcDbBlockReference
  2
_DOTSMALL
 10
8047.923473637997
 20
10210.96212587689
 30
0.0
 41
100.0
 42
100.0
 43
100.0
 50
90.0
  0
INSERT
  5
18AFB
330
16338
100
AcDbEntity
  8
寸法
 62
     0
 48
50.0
370
    -2
100
AcDbBlockReference
  2
_DOTSMALL
 10
8047.923473637997
 20
7690.962125876882
 30
0.0
 41
100.0
 42
100.0
 43
100.0
 50
270.0
  0
MTEXT
  5
18AFC
330
16338
100
AcDbEntity
  8
寸法
 62
     7
 48
50.0
100
AcDbMText
 10
7947.911662614375
 20
8950.962125876891
 30
0.0
 40
120.0
 41
0.0
 71
     5
 72
     1
  1
\A1;6X420=2520
  7
STYLE1
 11
0.0000000000000001
 21
1.0
 31
0.0
 73
     1
 44
1.0
1001
ACAD
1000
MTEXTBEGIN
1070
    73
1070
     1
1070
    44
1040
1.0
1070
    74
1070
     0
1000
MTEXTEND
  0
POINT
  5
18AFD
330
16338
100
AcDbEntity
  8
DEFPOINTS
 62
     0
 48
50.0
100
AcDbPoint
 10
7400.497127903591
 20
10210.96212587689
 30
0.0
  0
POINT
  5
18AFE
330
16338
100
AcDbEntity
  8
DEFPOINTS
 62
     0
 48
50.0
100
AcDbPoint
 10
7400.497127903566
 20
7690.962125876882
 30
0.0
  0
POINT
  5
18AFF
330
16338
100
AcDbEntity
  8
DEFPOINTS
 62
     0
 48
50.0
100
AcDbPoint
 10
8047.923473637997
 20
7690.962125876882
 30
0.0
  0
ENDBLK
  5
164F5
330
16338
100
AcDbEntity
  8
0
 48
50.0
100
AcDbBlockEnd
  0
BLOCK
  5
16414
330
16344
100
AcDbEntity
  8
0
 48
50.0
100
AcDbBlockBegin
  2
*D2
 70
     1
 10
0.0
 20
0.0
 30
0.0
  3
*D2
  1

  0
LINE
  5
18AEC
330
16344
100
AcDbEntity
  8
寸法
 62
     0
 48
50.0
370
    -2
100
AcDbLine
 10
7420.497127903566
 20
7690.962125876882
 30
0.0
 11
8107.923473637978
 21
7690.962125876882
 31
0.0
  0
LINE
  5
18AED
330
16344
100
AcDbEntity
  8
寸法
 62
     0
 48
50.0
370
    -2
100
AcDbLine
 10
7420.497127903566
 20
7635.962125876885
 30
0.0
 11
8107.923473637978
 21
7635.962125876885
 31
0.0
  0
LINE
  5
18AEE
330
16344
100
AcDbEntity
  8
寸法
 62
     0
 48
50.0
370
    -2
100
AcDbLine
 10
8047.923473637977
 20
7690.962125876882
 30
0.0
 11
8047.923473637977
 21
7790.962125876882
 31
0.0
  0
LINE
  5
18AEF
330
16344
100
AcDbEntity
  8
寸法
 62
     0
 48
50.0
370
    -2
100
AcDbLine
 10
8047.923473637977
 20
7635.962125876885
 30
0.0
 11
8047.923473637977
 21
7149.615377597784
 31
0.0
  0
LINE
  5
18AF0
330
16344
100
AcDbEntity
  8
寸法
 62
     0
 48
50.0
370
    -2
100
AcDbLine
 10
8047.923473637977
 20
7690.962125876882
 30
0.0
 11
8047.923473637977
 21
7635.962125876885
 31
0.0
  0
INSERT
  5
18AF1
330
16344
100
AcDbEntity
  8
寸法
 62
     0
 48
50.0
370
    -2
100
AcDbBlockReference
  2
_DOTSMALL
 10
8047.923473637977
 20
7690.962125876882
 30
0.0
 41
100.0
 42
100.0
 43
100.0
 50
270.0
  0
INSERT
  5
18AF2
330
16344
100
AcDbEntity
  8
寸法
 62
     0
 48
50.0
370
    -2
100
AcDbBlockReference
  2
_DOTSMALL
 10
8047.923473637977
 20
7635.962125876885
 30
0.0
 41
100.0
 42
100.0
 43
100.0
 50
90.0
  0
MTEXT
  5
18AF3
330
16344
100
AcDbEntity
  8
寸法
 62
     7
 48
50.0
100
AcDbMText
 10
7947.923473637975
 20
7258.100658972023
 30
0.0
 40
120.0
 41
0.0
 71
     5
 72
     1
  1
\A1;55
  7
STYLE1
 11
0.0000000000000001
 21
1.0
 31
0.0
 73
     1
 44
1.0
1001
ACAD
1000
MTEXTBEGIN
1070
    73
1070
     1
1070
    44
1040
1.0
1070
    74
1070
     0
1000
MTEXTEND
  0
POINT
  5
18AF4
330
16344
100
AcDbEntity
  8
DEFPOINTS
 62
     0
 48
50.0
100
AcDbPoint
 10
7400.497127903566
 20
7690.962125876882
 30
0.0
  0
POINT
  5
18AF5
330
16344
100
AcDbEntity
  8
DEFPOINTS
 62
     0
 48
50.0
100
AcDbPoint
 10
7400.497127903566
 20
7635.962125876885
 30
0.0
  0
POINT
  5
18AF6
330
16344
100
AcDbEntity
  8
DEFPOINTS
 62
     0
 48
50.0
100
AcDbPoint
 10
8047.923473637977
 20
7635.962125876885
 30
0.0
  0
ENDBLK
  5
16420
330
16344
100
AcDbEntity
  8
0
 48
50.0
100
AcDbBlockEnd
  0
BLOCK
  5
16421
330
16352
100
AcDbEntity
  8
0
 48
50.0
100
AcDbBlockBegin
  2
*D3
 70
     1
 10
0.0
 20
0.0
 30
0.0
  3
*D3
  1

  0
LINE
  5
18AE1
330
16352
100
AcDbEntity
  8
寸法
 62
     0
 48
50.0
370
    -2
100
AcDbLine
 10
7420.497127903591
 20
10265.96212587689
 30
0.0
 11
8107.923473638003
 21
10265.96212587689
 31
0.0
  0
LINE
  5
18AE2
330
16352
100
AcDbEntity
  8
寸法
 62
     0
 48
50.0
370
    -2
100
AcDbLine
 10
7420.497127903591
 20
10210.96212587689
 30
0.0
 11
8107.923473638001
 21
10210.96212587689
 31
0.0
  0
LINE
  5
18AE3
330
16352
100
AcDbEntity
  8
寸法
 62
     0
 48
50.0
370
    -2
100
AcDbLine
 10
8047.923473638
 20
10210.96212587689
 30
0.0
 11
8047.923473638
 21
10110.96212587689
 31
0.0
  0
LINE
  5
18AE4
330
16352
100
AcDbEntity
  8
寸法
 62
     0
 48
50.0
370
    -2
100
AcDbLine
 10
8047.923473638002
 20
10265.96212587689
 30
0.0
 11
8047.923473638002
 21
10682.93268862537
 31
0.0
  0
LINE
  5
18AE5
330
16352
100
AcDbEntity
  8
寸法
 62
     0
 48
50.0
370
    -2
100
AcDbLine
 10
8047.923473638
 20
10210.96212587689
 30
0.0
 11
8047.923473638002
 21
10265.96212587689
 31
0.0
  0
INSERT
  5
18AE6
330
16352
100
AcDbEntity
  8
寸法
 62
     0
 48
50.0
370
    -2
100
AcDbBlockReference
  2
_DOTSMALL
 10
8047.923473638
 20
10210.96212587689
 30
0.0
 41
100.0
 42
100.0
 43
100.0
 50
90.0
  0
INSERT
  5
18AE7
330
16352
100
AcDbEntity
  8
寸法
 62
     0
 48
50.0
370
    -2
100
AcDbBlockReference
  2
_DOTSMALL
 10
8047.923473638002
 20
10265.96212587689
 30
0.0
 41
100.0
 42
100.0
 43
100.0
 50
270.0
  0
MTEXT
  5
18AE8
330
16352
100
AcDbEntity
  8
寸法
 62
     7
 48
50.0
100
AcDbMText
 10
7947.923473638001
 20
10574.44740725113
 30
0.0
 40
120.0
 41
0.0
 71
     5
 72
     1
  1
\A1;55
  7
STYLE1
 11
0.0000000000000001
 21
1.0
 31
0.0
 73
     1
 44
1.0
1001
ACAD
1000
MTEXTBEGIN
1070
    73
1070
     1
1070
    44
1040
1.0
1070
    74
1070
     0
1000
MTEXTEND
  0
POINT
  5
18AE9
330
16352
100
AcDbEntity
  8
DEFPOINTS
 62
     0
 48
50.0
100
AcDbPoint
 10
7400.497127903591
 20
10265.96212587689
 30
0.0
  0
POINT
  5
18AEA
330
16352
100
AcDbEntity
  8
DEFPOINTS
 62
     0
 48
50.0
100
AcDbPoint
 10
7400.497127903591
 20
10210.96212587689
 30
0.0
  0
POINT
  5
18AEB
330
16352
100
AcDbEntity
  8
DEFPOINTS
 62
     0
 48
50.0
100
AcDbPoint
 10
8047.923473638
 20
10210.96212587689
 30
0.0
  0
ENDBLK
  5
1642D
330
16352
100
AcDbEntity
  8
0
 48
50.0
100
AcDbBlockEnd
  0
BLOCK
  5
164CA
330
16360
100
AcDbEntity
  8
0
 48
50.0
100
AcDbBlockBegin
  2
*D4
 70
     1
 10
0.0
 20
0.0
 30
0.0
  3
*D4
  1

  0
LINE
  5
18AD8
330
16360
100
AcDbEntity
  8
寸法
 62
     0
 48
50.0
370
    -2
100
AcDbLine
 10
7420.497127903591
 20
10265.96212587689
 30
0.0
 11
8473.030415377635
 21
10265.96212587689
 31
0.0
  0
LINE
  5
18AD9
330
16360
100
AcDbEntity
  8
寸法
 62
     0
 48
50.0
370
    -2
100
AcDbLine
 10
7420.497127903566
 20
7635.962125876885
 30
0.0
 11
8473.030415377635
 21
7635.962125876885
 31
0.0
  0
LINE
  5
18ADA
330
16360
100
AcDbEntity
  8
寸法
 62
     0
 48
50.0
370
    -2
100
AcDbLine
 10
8413.030415377637
 20
10265.96212587689
 30
0.0
 11
8413.030415377637
 21
7635.962125876885
 31
0.0
  0
INSERT
  5
18ADB
330
16360
100
AcDbEntity
  8
寸法
 62
     0
 48
50.0
370
    -2
100
AcDbBlockReference
  2
_DOTSMALL
 10
8413.030415377637
 20
10265.96212587689
 30
0.0
 41
100.0
 42
100.0
 43
100.0
 50
90.0
  0
INSERT
  5
18ADC
330
16360
100
AcDbEntity
  8
寸法
 62
     0
 48
50.0
370
    -2
100
AcDbBlockReference
  2
_DOTSMALL
 10
8413.030415377637
 20
7635.962125876885
 30
0.0
 41
100.0
 42
100.0
 43
100.0
 50
270.0
  0
MTEXT
  5
18ADD
330
16360
100
AcDbEntity
  8
寸法
 62
     7
 48
50.0
100
AcDbMText
 10
8313.018604354011
 20
8950.962125876891
 30
0.0
 40
120.0
 41
0.0
 71
     5
 72
     1
  1
\A1;2630
  7
STYLE1
 11
0.0000000000000001
 21
1.0
 31
0.0
 73
     1
 44
1.0
1001
ACAD
1000
MTEXTBEGIN
1070
    73
1070
     1
1070
    44
1040
1.0
1070
    74
1070
     0
1000
MTEXTEND
  0
POINT
  5
18ADE
330
16360
100
AcDbEntity
  8
DEFPOINTS
 62
     0
 48
50.0
100
AcDbPoint
 10
7400.497127903591
 20
10265.96212587689
 30
0.0
  0
POINT
  5
18ADF
330
16360
100
AcDbEntity
  8
DEFPOINTS
 62
     0
 48
50.0
100
AcDbPoint
 10
7400.497127903566
 20
7635.962125876885
 30
0.0
  0
POINT
  5
18AE0
330
16360
100
AcDbEntity
  8
DEFPOINTS
 62
     0
 48
50.0
100
AcDbPoint
 10
8413.030415377637
 20
7635.962125876885
 30
0.0
  0
ENDBLK
  5
164D4
330
16360
100
AcDbEntity
  8
0
 48
50.0
100
AcDbBlockEnd
  0
BLOCK
  5
1728C
330
16384
100
AcDbEntity
  8
0
 48
50.0
100
AcDbBlockBegin
  2
*D5
 70
     1
 10
0.0
 20
0.0
 30
0.0
  3
*D5
  1

  0
LINE
  5
18AD0
330
16384
100
AcDbEntity
  8
寸法
 62
     0
 48
50.0
370
    -2
100
AcDbLine
 10
5713.497127903583
 20
7641.962125876794
 30
0.0
 11
5713.497127903583
 21
7041.531355110631
 31
0.0
  0
LINE
  5
18AD1
330
16384
100
AcDbEntity
  8
寸法
 62
     0
 48
50.0
370
    -2
100
AcDbLine
 10
7297.497127903565
 20
7101.53135511063
 30
0.0
 11
5713.497127903583
 21
7101.53135511063
 31
0.0
  0
INSERT
  5
18AD2
330
16384
100
AcDbEntity
  8
寸法
 62
     0
 48
50.0
370
    -2
100
AcDbBlockReference
  2
_DOTSMALL
 10
7297.497127903565
 20
7101.53135511063
 30
0.0
 41
100.0
 42
100.0
 43
100.0
  0
INSERT
  5
18AD3
330
16384
100
AcDbEntity
  8
寸法
 62
     0
 48
50.0
370
    -2
100
AcDbBlockReference
  2
_DOTSMALL
 10
5713.497127903583
 20
7101.53135511063
 30
0.0
 41
100.0
 42
100.0
 43
100.0
 50
180.0
  0
MTEXT
  5
18AD4
330
16384
100
AcDbEntity
  8
寸法
 62
     7
 48
50.0
100
AcDbMText
 10
6505.497127903574
 20
7301.53135511063
 30
0.0
 40
120.0
 41
0.0
 71
     5
 72
     1
  1
\A1;有効開口部間口\P 1584
  7
STYLE1
 73
     1
 44
1.0
1001
ACAD
1000
MTEXTBEGIN
1070
    73
1070
     1
1070
    44
1040
1.0
1070
    74
1070
     0
1000
MTEXTEND
  0
POINT
  5
18AD5
330
16384
100
AcDbEntity
  8
DEFPOINTS
 62
     0
 48
50.0
100
AcDbPoint
 10
7297.497127903565
 20
7661.962125876795
 30
0.0
  0
POINT
  5
18AD6
330
16384
100
AcDbEntity
  8
DEFPOINTS
 62
     0
 48
50.0
100
AcDbPoint
 10
5713.497127903583
 20
7661.962125876794
 30
0.0
  0
POINT
  5
18AD7
330
16384
100
AcDbEntity
  8
DEFPOINTS
 62
     0
 48
50.0
100
AcDbPoint
 10
5713.497127903583
 20
7101.53135511063
 30
0.0
  0
ENDBLK
  5
17295
330
16384
100
AcDbEntity
  8
0
 48
50.0
100
AcDbBlockEnd
  0
BLOCK
  5
17261
330
1638F
100
AcDbEntity
  8
0
 48
50.0
100
AcDbBlockBegin
  2
*D6
 70
     1
 10
0.0
 20
0.0
 30
0.0
  3
*D6
  1

  0
LINE
  5
18AC7
330
1638F
100
AcDbEntity
  8
寸法
 62
     0
 48
50.0
370
    -2
100
AcDbLine
 10
3820.497127903584
 20
7615.962125876791
 30
0.0
 11
3820.497127903584
 21
6595.358359519756
 31
0.0
  0
LINE
  5
18AC8
330
1638F
100
AcDbEntity
  8
寸法
 62
     0
 48
50.0
370
    -2
100
AcDbLine
 10
7400.497127903554
 20
7615.962125876887
 30
0.0
 11
7400.497127903554
 21
6595.358359519756
 31
0.0
  0
LINE
  5
18AC9
330
1638F
100
AcDbEntity
  8
寸法
 62
     0
 48
50.0
370
    -2
100
AcDbLine
 10
3820.497127903584
 20
6655.358359519756
 30
0.0
 11
7400.497127903554
 21
6655.358359519756
 31
0.0
  0
INSERT
  5
18ACA
330
1638F
100
AcDbEntity
  8
寸法
 62
     0
 48
50.0
370
    -2
100
AcDbBlockReference
  2
_DOTSMALL
 10
3820.497127903584
 20
6655.358359519756
 30
0.0
 41
100.0
 42
100.0
 43
100.0
 50
180.0
  0
INSERT
  5
18ACB
330
1638F
100
AcDbEntity
  8
寸法
 62
     0
 48
50.0
370
    -2
100
AcDbBlockReference
  2
_DOTSMALL
 10
7400.497127903554
 20
6655.358359519756
 30
0.0
 41
100.0
 42
100.0
 43
100.0
  0
MTEXT
  5
18ACC
330
1638F
100
AcDbEntity
  8
寸法
 62
     7
 48
50.0
100
AcDbMText
 10
5610.497127903569
 20
6755.358359519757
 30
0.0
 40
120.0
 41
0.0
 71
     5
 72
     1
  1
\A1;3580
  7
STYLE1
 73
     1
 44
1.0
1001
ACAD
1000
MTEXTBEGIN
1070
    73
1070
     1
1070
    44
1040
1.0
1070
    74
1070
     0
1000
MTEXTEND
  0
POINT
  5
18ACD
330
1638F
100
AcDbEntity
  8
DEFPOINTS
 62
     0
 48
50.0
100
AcDbPoint
 10
3820.497127903584
 20
7635.962125876791
 30
0.0
  0
POINT
  5
18ACE
330
1638F
100
AcDbEntity
  8
DEFPOINTS
 62
     0
 48
50.0
100
AcDbPoint
 10
7400.497127903554
 20
7635.962125876885
 30
0.0
  0
POINT
  5
18ACF
330
1638F
100
AcDbEntity
  8
DEFPOINTS
 62
     0
 48
50.0
100
AcDbPoint
 10
7400.497127903554
 20
6655.358359519756
 30
0.0
  0
ENDBLK
  5
1726B
330
1638F
100
AcDbEntity
  8
0
 48
50.0
100
AcDbBlockEnd
  0
BLOCK
  5
16464
330
1639B
100
AcDbEntity
  8
0
 48
50.0
100
AcDbBlockBegin
  2
*D7
 70
     1
 10
0.0
 20
0.0
 30
0.0
  3
*D7
  1

  0
LINE
  5
18ABC
330
1639B
100
AcDbEntity
  8
寸法
 62
     0
 48
50.0
370
    -2
100
AcDbLine
 10
3875.49712790358
 20
7615.962125876794
 30
0.0
 11
3875.49712790358
 21
7041.531355110631
 31
0.0
  0
LINE
  5
18ABD
330
1639B
100
AcDbEntity
  8
寸法
 62
     0
 48
50.0
370
    -2
100
AcDbLine
 10
3820.497127903584
 20
7615.962125876791
 30
0.0
 11
3820.497127903584
 21
7041.531355110631
 31
0.0
  0
LINE
  5
18ABE
330
1639B
100
AcDbEntity
  8
寸法
 62
     0
 48
50.0
370
    -2
100
AcDbLine
 10
3875.49712790358
 20
7101.53135511063
 30
0.0
 11
3975.49712790358
 21
7101.53135511063
 31
0.0
  0
LINE
  5
18ABF
330
1639B
100
AcDbEntity
  8
寸法
 62
     0
 48
50.0
370
    -2
100
AcDbLine
 10
3820.497127903584
 20
7101.53135511063
 30
0.0
 11
3403.526565155106
 21
7101.53135511063
 31
0.0
  0
LINE
  5
18AC0
330
1639B
100
AcDbEntity
  8
寸法
 62
     0
 48
50.0
370
    -2
100
AcDbLine
 10
3875.49712790358
 20
7101.53135511063
 30
0.0
 11
3820.497127903584
 21
7101.53135511063
 31
0.0
  0
INSERT
  5
18AC1
330
1639B
100
AcDbEntity
  8
寸法
 62
     0
 48
50.0
370
    -2
100
AcDbBlockReference
  2
_DOTSMALL
 10
3875.49712790358
 20
7101.53135511063
 30
0.0
 41
100.0
 42
100.0
 43
100.0
 50
180.0
  0
INSERT
  5
18AC2
330
1639B
100
AcDbEntity
  8
寸法
 62
     0
 48
50.0
370
    -2
100
AcDbBlockReference
  2
_DOTSMALL
 10
3820.497127903584
 20
7101.53135511063
 30
0.0
 41
100.0
 42
100.0
 43
100.0
  0
MTEXT
  5
18AC3
330
1639B
100
AcDbEntity
  8
寸法
 62
     7
 48
50.0
100
AcDbMText
 10
3512.011846529345
 20
7201.53135511063
 30
0.0
 40
120.0
 41
0.0
 71
     5
 72
     1
  1
\A1;55
  7
STYLE1
 73
     1
 44
1.0
1001
ACAD
1000
MTEXTBEGIN
1070
    73
1070
     1
1070
    44
1040
1.0
1070
    74
1070
     0
1000
MTEXTEND
  0
POINT
  5
18AC4
330
1639B
100
AcDbEntity
  8
DEFPOINTS
 62
     0
 48
50.0
100
AcDbPoint
 10
3875.49712790358
 20
7635.962125876794
 30
0.0
  0
POINT
  5
18AC5
330
1639B
100
AcDbEntity
  8
DEFPOINTS
 62
     0
 48
50.0
100
AcDbPoint
 10
3820.497127903584
 20
7635.962125876791
 30
0.0
  0
POINT
  5
18AC6
330
1639B
100
AcDbEntity
  8
DEFPOINTS
 62
     0
 48
50.0
100
AcDbPoint
 10
3820.497127903584
 20
7101.53135511063
 30
0.0
  0
ENDBLK
  5
16470
330
1639B
100
AcDbEntity
  8
0
 48
50.0
100
AcDbBlockEnd
  0
BLOCK
  5
16471
330
163A9
100
AcDbEntity
  8
0
 48
50.0
100
AcDbBlockBegin
  2
*D8
 70
     1
 10
0.0
 20
0.0
 30
0.0
  3
*D8
  1

  0
LINE
  5
18AB1
330
163A9
100
AcDbEntity
  8
寸法
 62
     0
 48
50.0
370
    -2
100
AcDbLine
 10
5713.497127903583
 20
7641.962125876794
 30
0.0
 11
5713.497127903583
 21
7041.531355110631
 31
0.0
  0
LINE
  5
18AB2
330
163A9
100
AcDbEntity
  8
寸法
 62
     0
 48
50.0
370
    -2
100
AcDbLine
 10
5665.49712790358
 20
7615.962125876794
 30
0.0
 11
5665.49712790358
 21
7041.531355110631
 31
0.0
  0
LINE
  5
18AB3
330
163A9
100
AcDbEntity
  8
寸法
 62
     0
 48
50.0
370
    -2
100
AcDbLine
 10
5713.497127903583
 20
7101.53135511063
 30
0.0
 11
5813.497127903584
 21
7101.53135511063
 31
0.0
  0
LINE
  5
18AB4
330
163A9
100
AcDbEntity
  8
寸法
 62
     0
 48
50.0
370
    -2
100
AcDbLine
 10
5665.49712790358
 20
7101.53135511063
 30
0.0
 11
5565.497127903579
 21
7101.53135511063
 31
0.0
  0
MTEXT
  5
18AB5
330
163A9
100
AcDbEntity
  8
寸法
 62
     7
 48
50.0
100
AcDbMText
 10
5826.399098903642
 20
7201.53135511063
 30
0.0
 40
120.0
 41
0.0
 71
     5
 72
     1
  1
\A1;48
  7
STYLE1
 73
     1
 44
1.0
1001
ACAD
1000
MTEXTBEGIN
1070
    73
1070
     1
1070
    44
1040
1.0
1070
    74
1070
     0
1000
MTEXTEND
  0
LINE
  5
18AB6
330
163A9
100
AcDbEntity
  8
寸法
 62
     0
 48
50.0
370
    -2
100
AcDbLine
 10
5713.497127903583
 20
7101.53135511063
 30
0.0
 11
5665.49712790358
 21
7101.53135511063
 31
0.0
  0
INSERT
  5
18AB7
330
163A9
100
AcDbEntity
  8
寸法
 62
     0
 48
50.0
370
    -2
100
AcDbBlockReference
  2
_DOTSMALL
 10
5713.497127903583
 20
7101.53135511063
 30
0.0
 41
100.0
 42
100.0
 43
100.0
 50
180.0
  0
INSERT
  5
18AB8
330
163A9
100
AcDbEntity
  8
寸法
 62
     0
 48
50.0
370
    -2
100
AcDbBlockReference
  2
_DOTSMALL
 10
5665.49712790358
 20
7101.53135511063
 30
0.0
 41
100.0
 42
100.0
 43
100.0
  0
POINT
  5
18AB9
330
163A9
100
AcDbEntity
  8
DEFPOINTS
 62
     0
 48
50.0
100
AcDbPoint
 10
5713.497127903583
 20
7661.962125876794
 30
0.0
  0
POINT
  5
18ABA
330
163A9
100
AcDbEntity
  8
DEFPOINTS
 62
     0
 48
50.0
100
AcDbPoint
 10
5665.49712790358
 20
7635.962125876794
 30
0.0
  0
POINT
  5
18ABB
330
163A9
100
AcDbEntity
  8
DEFPOINTS
 62
     0
 48
50.0
100
AcDbPoint
 10
5665.49712790358
 20
7101.53135511063
 30
0.0
  0
ENDBLK
  5
1647E
330
163A9
100
AcDbEntity
  8
0
 48
50.0
100
AcDbBlockEnd
  0
BLOCK
  5
1647F
330
163B8
100
AcDbEntity
  8
0
 48
50.0
100
AcDbBlockBegin
  2
*D9
 70
     1
 10
0.0
 20
0.0
 30
0.0
  3
*D9
  1

  0
LINE
  5
18AA6
330
163B8
100
AcDbEntity
  8
寸法
 62
     0
 48
50.0
370
    -2
100
AcDbLine
 10
7345.497127903567
 20
7615.962125876882
 30
0.0
 11
7345.497127903567
 21
7041.531355110631
 31
0.0
  0
LINE
  5
18AA7
330
163B8
100
AcDbEntity
  8
寸法
 62
     0
 48
50.0
370
    -2
100
AcDbLine
 10
7297.497127903565
 20
7641.962125876794
 30
0.0
 11
7297.497127903565
 21
7041.531355110631
 31
0.0
  0
LINE
  5
18AA8
330
163B8
100
AcDbEntity
  8
寸法
 62
     0
 48
50.0
370
    -2
100
AcDbLine
 10
7345.497127903567
 20
7101.53135511063
 30
0.0
 11
7445.497127903568
 21
7101.53135511063
 31
0.0
  0
LINE
  5
18AA9
330
163B8
100
AcDbEntity
  8
寸法
 62
     0
 48
50.0
370
    -2
100
AcDbLine
 10
7297.497127903565
 20
7101.53135511063
 30
0.0
 11
7197.497127903566
 21
7101.53135511063
 31
0.0
  0
MTEXT
  5
18AAA
330
163B8
100
AcDbEntity
  8
寸法
 62
     7
 48
50.0
100
AcDbMText
 10
7186.534230254818
 20
7201.53135511063
 30
0.0
 40
120.0
 41
0.0
 71
     5
 72
     1
  1
\A1;48
  7
STYLE1
 73
     1
 44
1.0
1001
ACAD
1000
MTEXTBEGIN
1070
    73
1070
     1
1070
    44
1040
1.0
1070
    74
1070
     0
1000
MTEXTEND
  0
LINE
  5
18AAB
330
163B8
100
AcDbEntity
  8
寸法
 62
     0
 48
50.0
370
    -2
100
AcDbLine
 10
7345.497127903567
 20
7101.53135511063
 30
0.0
 11
7297.497127903565
 21
7101.53135511063
 31
0.0
  0
INSERT
  5
18AAC
330
163B8
100
AcDbEntity
  8
寸法
 62
     0
 48
50.0
370
    -2
100
AcDbBlockReference
  2
_DOTSMALL
 10
7345.497127903567
 20
7101.53135511063
 30
0.0
 41
100.0
 42
100.0
 43
100.0
 50
180.0
  0
INSERT
  5
18AAD
330
163B8
100
AcDbEntity
  8
寸法
 62
     0
 48
50.0
370
    -2
100
AcDbBlockReference
  2
_DOTSMALL
 10
7297.497127903565
 20
7101.53135511063
 30
0.0
 41
100.0
 42
100.0
 43
100.0
  0
POINT
  5
18AAE
330
163B8
100
AcDbEntity
  8
DEFPOINTS
 62
     0
 48
50.0
100
AcDbPoint
 10
7345.497127903567
 20
7635.962125876883
 30
0.0
  0
POINT
  5
18AAF
330
163B8
100
AcDbEntity
  8
DEFPOINTS
 62
     0
 48
50.0
100
AcDbPoint
 10
7297.497127903565
 20
7661.962125876795
 30
0.0
  0
POINT
  5
18AB0
330
163B8
100
AcDbEntity
  8
DEFPOINTS
 62
     0
 48
50.0
100
AcDbPoint
 10
7297.497127903565
 20
7101.53135511063
 30
0.0
  0
ENDBLK
  5
1648C
330
163B8
100
AcDbEntity
  8
0
 48
50.0
100
AcDbBlockEnd
  0
BLOCK
  5
1648D
330
163C7
100
AcDbEntity
  8
0
 48
50.0
100
AcDbBlockBegin
  2
*D10
 70
     1
 10
0.0
 20
0.0
 30
0.0
  3
*D10
  1

  0
LINE
  5
18A9B
330
163C7
100
AcDbEntity
  8
寸法
 62
     0
 48
50.0
370
    -2
100
AcDbLine
 10
7400.497127903566
 20
7615.962125876887
 30
0.0
 11
7400.497127903566
 21
7041.531355110631
 31
0.0
  0
LINE
  5
18A9C
330
163C7
100
AcDbEntity
  8
寸法
 62
     0
 48
50.0
370
    -2
100
AcDbLine
 10
7345.497127903567
 20
7615.962125876882
 30
0.0
 11
7345.497127903567
 21
7041.531355110631
 31
0.0
  0
LINE
  5
18A9D
330
163C7
100
AcDbEntity
  8
寸法
 62
     0
 48
50.0
370
    -2
100
AcDbLine
 10
7345.497127903567
 20
7101.531355110632
 30
0.0
 11
7245.497127903568
 21
7101.531355110632
 31
0.0
  0
LINE
  5
18A9E
330
163C7
100
AcDbEntity
  8
寸法
 62
     0
 48
50.0
370
    -2
100
AcDbLine
 10
7400.497127903566
 20
7101.531355110632
 30
0.0
 11
7817.467690652043
 21
7101.531355110632
 31
0.0
  0
LINE
  5
18A9F
330
163C7
100
AcDbEntity
  8
寸法
 62
     0
 48
50.0
370
    -2
100
AcDbLine
 10
7345.497127903567
 20
7101.531355110632
 30
0.0
 11
7400.497127903566
 21
7101.531355110632
 31
0.0
  0
INSERT
  5
18AA0
330
163C7
100
AcDbEntity
  8
寸法
 62
     0
 48
50.0
370
    -2
100
AcDbBlockReference
  2
_DOTSMALL
 10
7345.497127903567
 20
7101.531355110632
 30
0.0
 41
100.0
 42
100.0
 43
100.0
  0
INSERT
  5
18AA1
330
163C7
100
AcDbEntity
  8
寸法
 62
     0
 48
50.0
370
    -2
100
AcDbBlockReference
  2
_DOTSMALL
 10
7400.497127903566
 20
7101.531355110632
 30
0.0
 41
100.0
 42
100.0
 43
100.0
 50
180.0
  0
MTEXT
  5
18AA2
330
163C7
100
AcDbEntity
  8
寸法
 62
     7
 48
50.0
100
AcDbMText
 10
7708.982409277803
 20
7201.531355110631
 30
0.0
 40
120.0
 41
0.0
 71
     5
 72
     1
  1
\A1;55
  7
STYLE1
 73
     1
 44
1.0
1001
ACAD
1000
MTEXTBEGIN
1070
    73
1070
     1
1070
    44
1040
1.0
1070
    74
1070
     0
1000
MTEXTEND
  0
POINT
  5
18AA3
330
163C7
100
AcDbEntity
  8
DEFPOINTS
 62
     0
 48
50.0
100
AcDbPoint
 10
7400.497127903566
 20
7635.962125876885
 30
0.0
  0
POINT
  5
18AA4
330
163C7
100
AcDbEntity
  8
DEFPOINTS
 62
     0
 48
50.0
100
AcDbPoint
 10
7345.497127903567
 20
7635.962125876883
 30
0.0
  0
POINT
  5
18AA5
330
163C7
100
AcDbEntity
  8
DEFPOINTS
 62
     0
 48
50.0
100
AcDbPoint
 10
7345.497127903567
 20
7101.531355110632
 30
0.0
  0
ENDBLK
  5
16499
330
163C7
100
AcDbEntity
  8
0
 48
50.0
100
AcDbBlockEnd
  0
BLOCK
  5
172A1
330
163E1
100
AcDbEntity
  8
0
 48
50.0
100
AcDbBlockBegin
  2
*D11
 70
     1
 10
0.0
 20
0.0
 30
0.0
  3
*D11
  1

  0
LINE
  5
18A92
330
163E1
100
AcDbEntity
  8
寸法
 62
     0
 48
50.0
370
    -2
100
AcDbLine
 10
5665.49712790359
 20
10285.9621258768
 30
0.0
 11
5665.49712790359
 21
10541.77034550189
 31
0.0
  0
LINE
  5
18A93
330
163E1
100
AcDbEntity
  8
寸法
 62
     0
 48
50.0
370
    -2
100
AcDbLine
 10
7345.497127903591
 20
10285.96212587689
 30
0.0
 11
7345.497127903591
 21
10541.77034550189
 31
0.0
  0
LINE
  5
18A94
330
163E1
100
AcDbEntity
  8
寸法
 62
     0
 48
50.0
370
    -2
100
AcDbLine
 10
5665.49712790359
 20
10481.77034550189
 30
0.0
 11
7345.497127903591
 21
10481.77034550189
 31
0.0
  0
INSERT
  5
18A95
330
163E1
100
AcDbEntity
  8
寸法
 62
     0
 48
50.0
370
    -2
100
AcDbBlockReference
  2
_DOTSMALL
 10
5665.49712790359
 20
10481.77034550189
 30
0.0
 41
100.0
 42
100.0
 43
100.0
 50
180.0
  0
INSERT
  5
18A96
330
163E1
100
AcDbEntity
  8
寸法
 62
     0
 48
50.0
370
    -2
100
AcDbBlockReference
  2
_DOTSMALL
 10
7345.497127903591
 20
10481.77034550189
 30
0.0
 41
100.0
 42
100.0
 43
100.0
  0
MTEXT
  5
18A97
330
163E1
100
AcDbEntity
  8
寸法
 62
     7
 48
50.0
100
AcDbMText
 10
6505.497127903591
 20
10581.78215652552
 30
0.0
 40
120.0
 41
0.0
 71
     5
 72
     1
  1
\A1;4X420=1680
  7
STYLE1
 73
     1
 44
1.0
1001
ACAD
1000
MTEXTBEGIN
1070
    73
1070
     1
1070
    44
1040
1.0
1070
    74
1070
     0
1000
MTEXTEND
  0
POINT
  5
18A98
330
163E1
100
AcDbEntity
  8
DEFPOINTS
 62
     0
 48
50.0
100
AcDbPoint
 10
5665.49712790359
 20
10265.9621258768
 30
0.0
  0
POINT
  5
18A99
330
163E1
100
AcDbEntity
  8
DEFPOINTS
 62
     0
 48
50.0
100
AcDbPoint
 10
7345.497127903591
 20
10265.96212587689
 30
0.0
  0
POINT
  5
18A9A
330
163E1
100
AcDbEntity
  8
DEFPOINTS
 62
     0
 48
50.0
100
AcDbPoint
 10
7345.497127903591
 20
10481.77034550189
 30
0.0
  0
ENDBLK
  5
172AB
330
163E1
100
AcDbEntity
  8
0
 48
50.0
100
AcDbBlockEnd
  0
BLOCK
  5
164B0
330
163ED
100
AcDbEntity
  8
0
 48
50.0
100
AcDbBlockBegin
  2
*D12
 70
     1
 10
0.0
 20
0.0
 30
0.0
  3
*D12
  1

  0
LINE
  5
18A87
330
163ED
100
AcDbEntity
  8
寸法
 62
     0
 48
50.0
370
    -2
100
AcDbLine
 10
3820.497127903556
 20
10285.9621258768
 30
0.0
 11
3820.497127903556
 21
10541.77034550178
 31
0.0
  0
LINE
  5
18A88
330
163ED
100
AcDbEntity
  8
寸法
 62
     0
 48
50.0
370
    -2
100
AcDbLine
 10
3875.49712790359
 20
10285.9621258768
 30
0.0
 11
3875.49712790359
 21
10541.77034550178
 31
0.0
  0
LINE
  5
18A89
330
163ED
100
AcDbEntity
  8
寸法
 62
     0
 48
50.0
370
    -2
100
AcDbLine
 10
3875.49712790359
 20
10481.77034550178
 30
0.0
 11
3975.49712790359
 21
10481.77034550178
 31
0.0
  0
LINE
  5
18A8A
330
163ED
100
AcDbEntity
  8
寸法
 62
     0
 48
50.0
370
    -2
100
AcDbLine
 10
3820.497127903556
 20
10481.77034550178
 30
0.0
 11
3403.526565155078
 21
10481.77034550178
 31
0.0
  0
LINE
  5
18A8B
330
163ED
100
AcDbEntity
  8
寸法
 62
     0
 48
50.0
370
    -2
100
AcDbLine
 10
3875.49712790359
 20
10481.77034550178
 30
0.0
 11
3820.497127903556
 21
10481.77034550178
 31
0.0
  0
INSERT
  5
18A8C
330
163ED
100
AcDbEntity
  8
寸法
 62
     0
 48
50.0
370
    -2
100
AcDbBlockReference
  2
_DOTSMALL
 10
3875.49712790359
 20
10481.77034550178
 30
0.0
 41
100.0
 42
100.0
 43
100.0
 50
180.0
  0
INSERT
  5
18A8D
330
163ED
100
AcDbEntity
  8
寸法
 62
     0
 48
50.0
370
    -2
100
AcDbBlockReference
  2
_DOTSMALL
 10
3820.497127903556
 20
10481.77034550178
 30
0.0
 41
100.0
 42
100.0
 43
100.0
  0
MTEXT
  5
18A8E
330
163ED
100
AcDbEntity
  8
寸法
 62
     7
 48
50.0
100
AcDbMText
 10
3512.011846529316
 20
10581.77034550178
 30
0.0
 40
120.0
 41
0.0
 71
     5
 72
     1
  1
\A1;55
  7
STYLE1
 73
     1
 44
1.0
1001
ACAD
1000
MTEXTBEGIN
1070
    73
1070
     1
1070
    44
1040
1.0
1070
    74
1070
     0
1000
MTEXTEND
  0
POINT
  5
18A8F
330
163ED
100
AcDbEntity
  8
DEFPOINTS
 62
     0
 48
50.0
100
AcDbPoint
 10
3820.497127903556
 20
10265.9621258768
 30
0.0
  0
POINT
  5
18A90
330
163ED
100
AcDbEntity
  8
DEFPOINTS
 62
     0
 48
50.0
100
AcDbPoint
 10
3875.49712790359
 20
10265.9621258768
 30
0.0
  0
POINT
  5
18A91
330
163ED
100
AcDbEntity
  8
DEFPOINTS
 62
     0
 48
50.0
100
AcDbPoint
 10
3875.49712790359
 20
10481.77034550178
 30
0.0
  0
ENDBLK
  5
164BC
330
163ED
100
AcDbEntity
  8
0
 48
50.0
100
AcDbBlockEnd
  0
BLOCK
  5
164BD
330
163FB
100
AcDbEntity
  8
0
 48
50.0
100
AcDbBlockBegin
  2
*D13
 70
     1
 10
0.0
 20
0.0
 30
0.0
  3
*D13
  1

  0
LINE
  5
18A7C
330
163FB
100
AcDbEntity
  8
寸法
 62
     0
 48
50.0
370
    -2
100
AcDbLine
 10
7345.497127903591
 20
10285.96212587689
 30
0.0
 11
7345.497127903591
 21
10541.77034550188
 31
0.0
  0
LINE
  5
18A7D
330
163FB
100
AcDbEntity
  8
寸法
 62
     0
 48
50.0
370
    -2
100
AcDbLine
 10
7400.497127903591
 20
10285.96212587689
 30
0.0
 11
7400.497127903591
 21
10541.77034550188
 31
0.0
  0
LINE
  5
18A7E
330
163FB
100
AcDbEntity
  8
寸法
 62
     0
 48
50.0
370
    -2
100
AcDbLine
 10
7345.497127903591
 20
10481.77034550188
 30
0.0
 11
7245.497127903592
 21
10481.77034550188
 31
0.0
  0
LINE
  5
18A7F
330
163FB
100
AcDbEntity
  8
寸法
 62
     0
 48
50.0
370
    -2
100
AcDbLine
 10
7400.497127903591
 20
10481.77034550188
 30
0.0
 11
7817.467690652069
 21
10481.77034550188
 31
0.0
  0
LINE
  5
18A80
330
163FB
100
AcDbEntity
  8
寸法
 62
     0
 48
50.0
370
    -2
100
AcDbLine
 10
7345.497127903591
 20
10481.77034550188
 30
0.0
 11
7400.497127903591
 21
10481.77034550188
 31
0.0
  0
INSERT
  5
18A81
330
163FB
100
AcDbEntity
  8
寸法
 62
     0
 48
50.0
370
    -2
100
AcDbBlockReference
  2
_DOTSMALL
 10
7345.497127903591
 20
10481.77034550188
 30
0.0
 41
100.0
 42
100.0
 43
100.0
  0
INSERT
  5
18A82
330
163FB
100
AcDbEntity
  8
寸法
 62
     0
 48
50.0
370
    -2
100
AcDbBlockReference
  2
_DOTSMALL
 10
7400.497127903591
 20
10481.77034550188
 30
0.0
 41
100.0
 42
100.0
 43
100.0
 50
180.0
  0
MTEXT
  5
18A83
330
163FB
100
AcDbEntity
  8
寸法
 62
     7
 48
50.0
100
AcDbMText
 10
7708.982409277829
 20
10581.77034550188
 30
0.0
 40
120.0
 41
0.0
 71
     5
 72
     1
  1
\A1;55
  7
STYLE1
 73
     1
 44
1.0
1001
ACAD
1000
MTEXTBEGIN
1070
    73
1070
     1
1070
    44
1040
1.0
1070
    74
1070
     0
1000
MTEXTEND
  0
POINT
  5
18A84
330
163FB
100
AcDbEntity
  8
DEFPOINTS
 62
     0
 48
50.0
100
AcDbPoint
 10
7345.497127903591
 20
10265.96212587689
 30
0.0
  0
POINT
  5
18A85
330
163FB
100
AcDbEntity
  8
DEFPOINTS
 62
     0
 48
50.0
100
AcDbPoint
 10
7400.497127903591
 20
10265.96212587689
 30
0.0
  0
POINT
  5
18A86
330
163FB
100
AcDbEntity
  8
DEFPOINTS
 62
     0
 48
50.0
100
AcDbPoint
 10
7400.497127903591
 20
10481.77034550188
 30
0.0
  0
ENDBLK
  5
164C9
330
163FB
100
AcDbEntity
  8
0
 48
50.0
100
AcDbBlockEnd
  0
BLOCK
  5
165B6
330
165B5
100
AcDbEntity
  8
0
 48
50.0
100
AcDbBlockBegin
  2
*D14
 70
     1
 10
0.0
 20
0.0
 30
0.0
  3
*D14
  1

  0
LINE
  5
18A66
330
165B5
100
AcDbEntity
  8
寸法
 62
     0
 48
50.0
370
    -2
100
AcDbLine
 10
3923.497127903584
 20
7641.962125876794
 30
0.0
 11
3923.497127903584
 21
7041.531355110631
 31
0.0
  0
LINE
  5
18A67
330
165B5
100
AcDbEntity
  8
寸法
 62
     0
 48
50.0
370
    -2
100
AcDbLine
 10
3875.49712790358
 20
7615.962125876794
 30
0.0
 11
3875.49712790358
 21
7041.531355110631
 31
0.0
  0
LINE
  5
18A68
330
165B5
100
AcDbEntity
  8
寸法
 62
     0
 48
50.0
370
    -2
100
AcDbLine
 10
3923.497127903584
 20
7101.53135511063
 30
0.0
 11
4023.497127903584
 21
7101.53135511063
 31
0.0
  0
LINE
  5
18A69
330
165B5
100
AcDbEntity
  8
寸法
 62
     0
 48
50.0
370
    -2
100
AcDbLine
 10
3875.49712790358
 20
7101.53135511063
 30
0.0
 11
3775.49712790358
 21
7101.53135511063
 31
0.0
  0
MTEXT
  5
18A6A
330
165B5
100
AcDbEntity
  8
寸法
 62
     7
 48
50.0
100
AcDbMText
 10
4036.399098903641
 20
7201.53135511063
 30
0.0
 40
120.0
 41
0.0
 71
     5
 72
     1
  1
\A1;48
  7
STYLE1
 73
     1
 44
1.0
1001
ACAD
1000
MTEXTBEGIN
1070
    73
1070
     1
1070
    44
1040
1.0
1070
    74
1070
     0
1000
MTEXTEND
  0
LINE
  5
18A6B
330
165B5
100
AcDbEntity
  8
寸法
 62
     0
 48
50.0
370
    -2
100
AcDbLine
 10
3923.497127903584
 20
7101.53135511063
 30
0.0
 11
3875.49712790358
 21
7101.53135511063
 31
0.0
  0
INSERT
  5
18A6C
330
165B5
100
AcDbEntity
  8
寸法
 62
     0
 48
50.0
370
    -2
100
AcDbBlockReference
  2
_DOTSMALL
 10
3923.497127903584
 20
7101.53135511063
 30
0.0
 41
100.0
 42
100.0
 43
100.0
 50
180.0
  0
INSERT
  5
18A6D
330
165B5
100
AcDbEntity
  8
寸法
 62
     0
 48
50.0
370
    -2
100
AcDbBlockReference
  2
_DOTSMALL
 10
3875.49712790358
 20
7101.53135511063
 30
0.0
 41
100.0
 42
100.0
 43
100.0
  0
POINT
  5
18A6E
330
165B5
100
AcDbEntity
  8
DEFPOINTS
 62
     0
 48
50.0
100
AcDbPoint
 10
3923.497127903584
 20
7661.962125876794
 30
0.0
  0
POINT
  5
18A6F
330
165B5
100
AcDbEntity
  8
DEFPOINTS
 62
     0
 48
50.0
100
AcDbPoint
 10
3875.49712790358
 20
7635.962125876794
 30
0.0
  0
POINT
  5
18A70
330
165B5
100
AcDbEntity
  8
DEFPOINTS
 62
     0
 48
50.0
100
AcDbPoint
 10
3875.49712790358
 20
7101.53135511063
 30
0.0
  0
ENDBLK
  5
165C3
330
165B5
100
AcDbEntity
  8
0
 48
50.0
100
AcDbBlockEnd
  0
BLOCK
  5
165C5
330
165C4
100
AcDbEntity
  8
0
 48
50.0
100
AcDbBlockBegin
  2
*D15
 70
     1
 10
0.0
 20
0.0
 30
0.0
  3
*D15
  1

  0
LINE
  5
18A71
330
165C4
100
AcDbEntity
  8
寸法
 62
     0
 48
50.0
370
    -2
100
AcDbLine
 10
5555.497127903567
 20
7615.962125876882
 30
0.0
 11
5555.497127903567
 21
7041.531355110631
 31
0.0
  0
LINE
  5
18A72
330
165C4
100
AcDbEntity
  8
寸法
 62
     0
 48
50.0
370
    -2
100
AcDbLine
 10
5507.497127903565
 20
7641.962125876794
 30
0.0
 11
5507.497127903565
 21
7041.531355110631
 31
0.0
  0
LINE
  5
18A73
330
165C4
100
AcDbEntity
  8
寸法
 62
     0
 48
50.0
370
    -2
100
AcDbLine
 10
5555.497127903567
 20
7101.53135511063
 30
0.0
 11
5655.497127903567
 21
7101.53135511063
 31
0.0
  0
LINE
  5
18A74
330
165C4
100
AcDbEntity
  8
寸法
 62
     0
 48
50.0
370
    -2
100
AcDbLine
 10
5507.497127903565
 20
7101.53135511063
 30
0.0
 11
5407.497127903565
 21
7101.53135511063
 31
0.0
  0
MTEXT
  5
18A75
330
165C4
100
AcDbEntity
  8
寸法
 62
     7
 48
50.0
100
AcDbMText
 10
5396.534230254818
 20
7201.53135511063
 30
0.0
 40
120.0
 41
0.0
 71
     5
 72
     1
  1
\A1;48
  7
STYLE1
 73
     1
 44
1.0
1001
ACAD
1000
MTEXTBEGIN
1070
    73
1070
     1
1070
    44
1040
1.0
1070
    74
1070
     0
1000
MTEXTEND
  0
LINE
  5
18A76
330
165C4
100
AcDbEntity
  8
寸法
 62
     0
 48
50.0
370
    -2
100
AcDbLine
 10
5555.497127903567
 20
7101.53135511063
 30
0.0
 11
5507.497127903565
 21
7101.53135511063
 31
0.0
  0
INSERT
  5
18A77
330
165C4
100
AcDbEntity
  8
寸法
 62
     0
 48
50.0
370
    -2
100
AcDbBlockReference
  2
_DOTSMALL
 10
5555.497127903567
 20
7101.53135511063
 30
0.0
 41
100.0
 42
100.0
 43
100.0
 50
180.0
  0
INSERT
  5
18A78
330
165C4
100
AcDbEntity
  8
寸法
 62
     0
 48
50.0
370
    -2
100
AcDbBlockReference
  2
_DOTSMALL
 10
5507.497127903565
 20
7101.53135511063
 30
0.0
 41
100.0
 42
100.0
 43
100.0
  0
POINT
  5
18A79
330
165C4
100
AcDbEntity
  8
DEFPOINTS
 62
     0
 48
50.0
100
AcDbPoint
 10
5555.497127903567
 20
7635.962125876883
 30
0.0
  0
POINT
  5
18A7A
330
165C4
100
AcDbEntity
  8
DEFPOINTS
 62
     0
 48
50.0
100
AcDbPoint
 10
5507.497127903565
 20
7661.962125876795
 30
0.0
  0
POINT
  5
18A7B
330
165C4
100
AcDbEntity
  8
DEFPOINTS
 62
     0
 48
50.0
100
AcDbPoint
 10
5507.497127903565
 20
7101.53135511063
 30
0.0
  0
ENDBLK
  5
165D2
330
165C4
100
AcDbEntity
  8
0
 48
50.0
100
AcDbBlockEnd
  0
BLOCK
  5
1663F
330
165EA
100
AcDbEntity
  8
0
 48
50.0
100
AcDbBlockBegin
  2
*D16
 70
     1
 10
0.0
 20
0.0
 30
0.0
  3
*D16
  1

  0
LINE
  5
18A5D
330
165EA
100
AcDbEntity
  8
寸法
 62
     0
 48
50.0
370
    -2
100
AcDbLine
 10
5665.49712790358
 20
7615.962125876794
 30
0.0
 11
5665.49712790358
 21
7041.531355110631
 31
0.0
  0
LINE
  5
18A5E
330
165EA
100
AcDbEntity
  8
寸法
 62
     0
 48
50.0
370
    -2
100
AcDbLine
 10
5555.497127903567
 20
7615.962125876882
 30
0.0
 11
5555.497127903567
 21
7041.531355110631
 31
0.0
  0
LINE
  5
18A5F
330
165EA
100
AcDbEntity
  8
寸法
 62
     0
 48
50.0
370
    -2
100
AcDbLine
 10
5665.49712790358
 20
7101.531355110632
 30
0.0
 11
5555.497127903567
 21
7101.531355110632
 31
0.0
  0
MTEXT
  5
18A60
330
165EA
100
AcDbEntity
  8
寸法
 62
     7
 48
50.0
100
AcDbMText
 10
5610.497127903574
 20
6949.839460074399
 30
0.0
 40
120.0
 41
0.0
 71
     5
 72
     1
  1
\A1;110
  7
STYLE1
 73
     1
 44
1.0
1001
ACAD
1000
MTEXTBEGIN
1070
    73
1070
     1
1070
    44
1040
1.0
1070
    74
1070
     0
1000
MTEXTEND
  0
INSERT
  5
18A61
330
165EA
100
AcDbEntity
  8
寸法
 62
     0
 48
50.0
370
    -2
100
AcDbBlockReference
  2
_DOTSMALL
 10
5665.49712790358
 20
7101.531355110632
 30
0.0
 41
100.0
 42
100.0
 43
100.0
  0
INSERT
  5
18A62
330
165EA
100
AcDbEntity
  8
寸法
 62
     0
 48
50.0
370
    -2
100
AcDbBlockReference
  2
_DOTSMALL
 10
5555.497127903567
 20
7101.531355110632
 30
0.0
 41
100.0
 42
100.0
 43
100.0
 50
180.0
  0
POINT
  5
18A63
330
165EA
100
AcDbEntity
  8
DEFPOINTS
 62
     0
 48
50.0
100
AcDbPoint
 10
5665.49712790358
 20
7635.962125876794
 30
0.0
  0
POINT
  5
18A64
330
165EA
100
AcDbEntity
  8
DEFPOINTS
 62
     0
 48
50.0
100
AcDbPoint
 10
5555.497127903567
 20
7635.962125876883
 30
0.0
  0
POINT
  5
18A65
330
165EA
100
AcDbEntity
  8
DEFPOINTS
 62
     0
 48
50.0
100
AcDbPoint
 10
5555.497127903567
 20
7101.531355110632
 30
0.0
  0
ENDBLK
  5
16649
330
165EA
100
AcDbEntity
  8
0
 48
50.0
100
AcDbBlockEnd
  0
BLOCK
  5
166D0
330
166CF
100
AcDbEntity
  8
0
 48
50.0
100
AcDbBlockBegin
  2
*D17
 70
     1
 10
0.0
 20
0.0
 30
0.0
  3
*D17
  1

  0
LINE
  5
18A52
330
166CF
100
AcDbEntity
  8
寸法
 62
     0
 48
50.0
370
    -2
100
AcDbLine
 10
5665.49712790359
 20
10285.96212587685
 30
0.0
 11
5665.49712790359
 21
10541.77034550189
 31
0.0
  0
LINE
  5
18A53
330
166CF
100
AcDbEntity
  8
寸法
 62
     0
 48
50.0
370
    -2
100
AcDbLine
 10
5555.497127903591
 20
10285.96212587684
 30
0.0
 11
5555.497127903591
 21
10541.77034550189
 31
0.0
  0
LINE
  5
18A54
330
166CF
100
AcDbEntity
  8
寸法
 62
     0
 48
50.0
370
    -2
100
AcDbLine
 10
5665.49712790359
 20
10481.77034550189
 30
0.0
 11
5765.497127903589
 21
10481.77034550189
 31
0.0
  0
LINE
  5
18A55
330
166CF
100
AcDbEntity
  8
寸法
 62
     0
 48
50.0
370
    -2
100
AcDbLine
 10
5555.497127903591
 20
10481.77034550189
 30
0.0
 11
5455.497127903591
 21
10481.77034550189
 31
0.0
  0
LINE
  5
18A56
330
166CF
100
AcDbEntity
  8
寸法
 62
     0
 48
50.0
370
    -2
100
AcDbLine
 10
5665.49712790359
 20
10481.77034550189
 30
0.0
 11
5555.497127903591
 21
10481.77034550189
 31
0.0
  0
INSERT
  5
18A57
330
166CF
100
AcDbEntity
  8
寸法
 62
     0
 48
50.0
370
    -2
100
AcDbBlockReference
  2
_DOTSMALL
 10
5665.49712790359
 20
10481.77034550189
 30
0.0
 41
100.0
 42
100.0
 43
100.0
 50
180.0
  0
INSERT
  5
18A58
330
166CF
100
AcDbEntity
  8
寸法
 62
     0
 48
50.0
370
    -2
100
AcDbBlockReference
  2
_DOTSMALL
 10
5555.497127903591
 20
10481.77034550189
 30
0.0
 41
100.0
 42
100.0
 43
100.0
  0
MTEXT
  5
18A59
330
166CF
100
AcDbEntity
  8
寸法
 62
     7
 48
50.0
100
AcDbMText
 10
5610.497127903591
 20
10581.77034550189
 30
0.0
 40
120.0
 41
0.0
 71
     5
 72
     1
  1
\A1;110
  7
STYLE1
 73
     1
 44
1.0
1001
ACAD
1000
MTEXTBEGIN
1070
    73
1070
     1
1070
    44
1040
1.0
1070
    74
1070
     0
1000
MTEXTEND
  0
POINT
  5
18A5A
330
166CF
100
AcDbEntity
  8
DEFPOINTS
 62
     0
 48
50.0
100
AcDbPoint
 10
5665.49712790359
 20
10265.96212587685
 30
0.0
  0
POINT
  5
18A5B
330
166CF
100
AcDbEntity
  8
DEFPOINTS
 62
     0
 48
50.0
100
AcDbPoint
 10
5555.497127903591
 20
10265.96212587684
 30
0.0
  0
POINT
  5
18A5C
330
166CF
100
AcDbEntity
  8
DEFPOINTS
 62
     0
 48
50.0
100
AcDbPoint
 10
5555.497127903591
 20
10481.77034550189
 30
0.0
  0
ENDBLK
  5
166DC
330
166CF
100
AcDbEntity
  8
0
 48
50.0
100
AcDbBlockEnd
  0
BLOCK
  5
1726C
330
16908
100
AcDbEntity
  8
0
 48
50.0
100
AcDbBlockBegin
  2
*D18
 70
     1
 10
0.0
 20
0.0
 30
0.0
  3
*D18
  1

  0
LINE
  5
18A4A
330
16908
100
AcDbEntity
  8
寸法
 62
     0
 48
50.0
370
    -2
100
AcDbLine
 10
7400.497127903591
 20
10285.96212587689
 30
0.0
 11
7400.497127903591
 21
10791.09181905819
 31
0.0
  0
LINE
  5
18A4B
330
16908
100
AcDbEntity
  8
寸法
 62
     0
 48
50.0
370
    -2
100
AcDbLine
 10
5610.497127903591
 20
10731.09181905819
 30
0.0
 11
7400.497127903591
 21
10731.09181905819
 31
0.0
  0
INSERT
  5
18A4C
330
16908
100
AcDbEntity
  8
寸法
 62
     0
 48
50.0
370
    -2
100
AcDbBlockReference
  2
_DOTSMALL
 10
5610.497127903591
 20
10731.09181905819
 30
0.0
 41
100.0
 42
100.0
 43
100.0
 50
180.0
  0
INSERT
  5
18A4D
330
16908
100
AcDbEntity
  8
寸法
 62
     0
 48
50.0
370
    -2
100
AcDbBlockReference
  2
_DOTSMALL
 10
7400.497127903591
 20
10731.09181905819
 30
0.0
 41
100.0
 42
100.0
 43
100.0
  0
MTEXT
  5
18A4E
330
16908
100
AcDbEntity
  8
寸法
 62
     7
 48
50.0
100
AcDbMText
 10
6505.497127903591
 20
10831.09181905819
 30
0.0
 40
120.0
 41
0.0
 71
     5
 72
     1
  1
\A1;1790
  7
STYLE1
 73
     1
 44
1.0
1001
ACAD
1000
MTEXTBEGIN
1070
    73
1070
     1
1070
    44
1040
1.0
1070
    74
1070
     0
1000
MTEXTEND
  0
POINT
  5
18A4F
330
16908
100
AcDbEntity
  8
DEFPOINTS
 62
     0
 48
50.0
100
AcDbPoint
 10
5610.497127903591
 20
10640.75825985984
 30
0.0
  0
POINT
  5
18A50
330
16908
100
AcDbEntity
  8
DEFPOINTS
 62
     0
 48
50.0
100
AcDbPoint
 10
7400.497127903591
 20
10265.96212587689
 30
0.0
  0
POINT
  5
18A51
330
16908
100
AcDbEntity
  8
DEFPOINTS
 62
     0
 48
50.0
100
AcDbPoint
 10
7400.497127903591
 20
10731.09181905819
 30
0.0
  0
ENDBLK
  5
17275
330
16908
100
AcDbEntity
  8
0
 48
50.0
100
AcDbBlockEnd
  0
BLOCK
  5
17BDC
330
17BD3
100
AcDbEntity
  8
0
 48
50.0
100
AcDbBlockBegin
  2
*D19
 70
     1
 10
0.0
 20
0.0
 30
0.0
  3
*D19
  1

  0
LINE
  5
18A30
330
17BD3
100
AcDbEntity
  8
寸法
 62
     0
 48
50.0
370
    -2
100
AcDbLine
 10
3923.497127903584
 20
7641.962125876794
 30
0.0
 11
3923.497127903584
 21
7041.531355110631
 31
0.0
  0
LINE
  5
18A31
330
17BD3
100
AcDbEntity
  8
寸法
 62
     0
 48
50.0
370
    -2
100
AcDbLine
 10
5507.497127903565
 20
7101.53135511063
 30
0.0
 11
3923.497127903584
 21
7101.53135511063
 31
0.0
  0
INSERT
  5
18A32
330
17BD3
100
AcDbEntity
  8
寸法
 62
     0
 48
50.0
370
    -2
100
AcDbBlockReference
  2
_DOTSMALL
 10
5507.497127903565
 20
7101.53135511063
 30
0.0
 41
100.0
 42
100.0
 43
100.0
  0
INSERT
  5
18A33
330
17BD3
100
AcDbEntity
  8
寸法
 62
     0
 48
50.0
370
    -2
100
AcDbBlockReference
  2
_DOTSMALL
 10
3923.497127903584
 20
7101.53135511063
 30
0.0
 41
100.0
 42
100.0
 43
100.0
 50
180.0
  0
MTEXT
  5
18A34
330
17BD3
100
AcDbEntity
  8
寸法
 62
     7
 48
50.0
100
AcDbMText
 10
4715.497127903574
 20
7301.53135511063
 30
0.0
 40
120.0
 41
0.0
 71
     5
 72
     1
  1
\A1;有効開口部間口\P 1584
  7
STYLE1
 73
     1
 44
1.0
1001
ACAD
1000
MTEXTBEGIN
1070
    73
1070
     1
1070
    44
1040
1.0
1070
    74
1070
     0
1000
MTEXTEND
  0
POINT
  5
18A35
330
17BD3
100
AcDbEntity
  8
DEFPOINTS
 62
     0
 48
50.0
100
AcDbPoint
 10
5507.497127903565
 20
7661.962125876795
 30
0.0
  0
POINT
  5
18A36
330
17BD3
100
AcDbEntity
  8
DEFPOINTS
 62
     0
 48
50.0
100
AcDbPoint
 10
3923.497127903584
 20
7661.962125876794
 30
0.0
  0
POINT
  5
18A37
330
17BD3
100
AcDbEntity
  8
DEFPOINTS
 62
     0
 48
50.0
100
AcDbPoint
 10
3923.497127903584
 20
7101.53135511063
 30
0.0
  0
ENDBLK
  5
17BDD
330
17BD3
100
AcDbEntity
  8
0
 48
50.0
100
AcDbBlockEnd
  0
BLOCK
  5
17BE8
330
17BDE
100
AcDbEntity
  8
0
 48
50.0
100
AcDbBlockBegin
  2
*D20
 70
     1
 10
0.0
 20
0.0
 30
0.0
  3
*D20
  1

  0
LINE
  5
18A38
330
17BDE
100
AcDbEntity
  8
寸法
 62
     0
 48
50.0
370
    -2
100
AcDbLine
 10
3875.49712790359
 20
10285.9621258768
 30
0.0
 11
3875.49712790359
 21
10541.77034550189
 31
0.0
  0
LINE
  5
18A39
330
17BDE
100
AcDbEntity
  8
寸法
 62
     0
 48
50.0
370
    -2
100
AcDbLine
 10
5555.497127903591
 20
10285.96212587689
 30
0.0
 11
5555.497127903591
 21
10541.77034550189
 31
0.0
  0
LINE
  5
18A3A
330
17BDE
100
AcDbEntity
  8
寸法
 62
     0
 48
50.0
370
    -2
100
AcDbLine
 10
3875.49712790359
 20
10481.77034550189
 30
0.0
 11
5555.497127903591
 21
10481.77034550189
 31
0.0
  0
INSERT
  5
18A3B
330
17BDE
100
AcDbEntity
  8
寸法
 62
     0
 48
50.0
370
    -2
100
AcDbBlockReference
  2
_DOTSMALL
 10
3875.49712790359
 20
10481.77034550189
 30
0.0
 41
100.0
 42
100.0
 43
100.0
 50
180.0
  0
INSERT
  5
18A3C
330
17BDE
100
AcDbEntity
  8
寸法
 62
     0
 48
50.0
370
    -2
100
AcDbBlockReference
  2
_DOTSMALL
 10
5555.497127903591
 20
10481.77034550189
 30
0.0
 41
100.0
 42
100.0
 43
100.0
  0
MTEXT
  5
18A3D
330
17BDE
100
AcDbEntity
  8
寸法
 62
     7
 48
50.0
100
AcDbMText
 10
4715.497127903591
 20
10581.78215652552
 30
0.0
 40
120.0
 41
0.0
 71
     5
 72
     1
  1
\A1;4X420=1680
  7
STYLE1
 73
     1
 44
1.0
1001
ACAD
1000
MTEXTBEGIN
1070
    73
1070
     1
1070
    44
1040
1.0
1070
    74
1070
     0
1000
MTEXTEND
  0
POINT
  5
18A3E
330
17BDE
100
AcDbEntity
  8
DEFPOINTS
 62
     0
 48
50.0
100
AcDbPoint
 10
3875.49712790359
 20
10265.9621258768
 30
0.0
  0
POINT
  5
18A3F
330
17BDE
100
AcDbEntity
  8
DEFPOINTS
 62
     0
 48
50.0
100
AcDbPoint
 10
5555.497127903591
 20
10265.96212587689
 30
0.0
  0
POINT
  5
18A40
330
17BDE
100
AcDbEntity
  8
DEFPOINTS
 62
     0
 48
50.0
100
AcDbPoint
 10
5555.497127903591
 20
10481.77034550189
 30
0.0
  0
ENDBLK
  5
17BE9
330
17BDE
100
AcDbEntity
  8
0
 48
50.0
100
AcDbBlockEnd
  0
BLOCK
  5
17C02
330
17BF8
100
AcDbEntity
  8
0
 48
50.0
100
AcDbBlockBegin
  2
*D21
 70
     1
 10
0.0
 20
0.0
 30
0.0
  3
*D21
  1

  0
LINE
  5
18A41
330
17BF8
100
AcDbEntity
  8
寸法
 62
     0
 48
50.0
370
    -2
100
AcDbLine
 10
3820.497127903556
 20
10285.96212587676
 30
0.0
 11
3820.497127903556
 21
10791.09181905819
 31
0.0
  0
LINE
  5
18A42
330
17BF8
100
AcDbEntity
  8
寸法
 62
     0
 48
50.0
370
    -2
100
AcDbLine
 10
5610.497127903591
 20
10660.75825985984
 30
0.0
 11
5610.497127903591
 21
10791.09181905819
 31
0.0
  0
LINE
  5
18A43
330
17BF8
100
AcDbEntity
  8
寸法
 62
     0
 48
50.0
370
    -2
100
AcDbLine
 10
3820.497127903556
 20
10731.09181905819
 30
0.0
 11
5610.497127903591
 21
10731.09181905819
 31
0.0
  0
INSERT
  5
18A44
330
17BF8
100
AcDbEntity
  8
寸法
 62
     0
 48
50.0
370
    -2
100
AcDbBlockReference
  2
_DOTSMALL
 10
3820.497127903556
 20
10731.09181905819
 30
0.0
 41
100.0
 42
100.0
 43
100.0
 50
180.0
  0
INSERT
  5
18A45
330
17BF8
100
AcDbEntity
  8
寸法
 62
     0
 48
50.0
370
    -2
100
AcDbBlockReference
  2
_DOTSMALL
 10
5610.497127903591
 20
10731.09181905819
 30
0.0
 41
100.0
 42
100.0
 43
100.0
  0
MTEXT
  5
18A46
330
17BF8
100
AcDbEntity
  8
寸法
 62
     7
 48
50.0
100
AcDbMText
 10
4715.497127903573
 20
10831.09181905819
 30
0.0
 40
120.0
 41
0.0
 71
     5
 72
     1
  1
\A1;1790
  7
STYLE1
 73
     1
 44
1.0
1001
ACAD
1000
MTEXTBEGIN
1070
    73
1070
     1
1070
    44
1040
1.0
1070
    74
1070
     0
1000
MTEXTEND
  0
POINT
  5
18A47
330
17BF8
100
AcDbEntity
  8
DEFPOINTS
 62
     0
 48
50.0
100
AcDbPoint
 10
3820.497127903556
 20
10265.96212587676
 30
0.0
  0
POINT
  5
18A48
330
17BF8
100
AcDbEntity
  8
DEFPOINTS
 62
     0
 48
50.0
100
AcDbPoint
 10
5610.497127903591
 20
10640.75825985984
 30
0.0
  0
POINT
  5
18A49
330
17BF8
100
AcDbEntity
  8
DEFPOINTS
 62
     0
 48
50.0
100
AcDbPoint
 10
5610.497127903591
 20
10731.09181905819
 30
0.0
  0
ENDBLK
  5
17C03
330
17BF8
100
AcDbEntity
  8
0
 48
50.0
100
AcDbBlockEnd
  0
BLOCK
  5
190E3
330
190D9
100
AcDbEntity
  8
0
 48
50.0
100
AcDbBlockBegin
  2
*D22
 70
     1
 10
0.0
 20
0.0
 30
0.0
  3
*D22
  1

  0
LINE
  5
1983C
330
190D9
100
AcDbEntity
  8
寸法
 62
     0
 48
50.0
370
    -2
100
AcDbLine
 10
10007.6739012932
 20
4677.931598713258
 30
0.0
 11
9123.923772109947
 21
4677.931598713258
 31
0.0
  0
LINE
  5
1983D
330
190D9
100
AcDbEntity
  8
寸法
 62
     0
 48
50.0
370
    -2
100
AcDbLine
 10
10007.6739012932
 20
2587.931598713257
 30
0.0
 11
9123.923772109945
 21
2587.931598713257
 31
0.0
  0
LINE
  5
1983E
330
190D9
100
AcDbEntity
  8
寸法
 62
     0
 48
50.0
370
    -2
100
AcDbLine
 10
9183.923772109947
 20
4677.931598713258
 30
0.0
 11
9183.923772109945
 21
2587.931598713257
 31
0.0
  0
INSERT
  5
1983F
330
190D9
100
AcDbEntity
  8
寸法
 62
     0
 48
50.0
370
    -2
100
AcDbBlockReference
  2
_DOTSMALL
 10
9183.923772109947
 20
4677.931598713258
 30
0.0
 41
100.0
 42
100.0
 43
100.0
 50
90.0
  0
INSERT
  5
19840
330
190D9
100
AcDbEntity
  8
寸法
 62
     0
 48
50.0
370
    -2
100
AcDbBlockReference
  2
_DOTSMALL
 10
9183.923772109945
 20
2587.931598713257
 30
0.0
 41
100.0
 42
100.0
 43
100.0
 50
270.0
  0
MTEXT
  5
19841
330
190D9
100
AcDbEntity
  8
寸法
 62
     7
 48
50.0
100
AcDbMText
 10
9083.911961086323
 20
3632.931598713259
 30
0.0
 40
120.0
 41
0.0
 71
     5
 72
     1
  1
\A1;2090
  7
STYLE1
 11
0.0000000000000001
 21
1.0
 31
0.0
 73
     1
 44
1.0
1001
ACAD
1000
MTEXTBEGIN
1070
    73
1070
     1
1070
    44
1040
1.0
1070
    74
1070
     0
1000
MTEXTEND
  0
POINT
  5
19842
330
190D9
100
AcDbEntity
  8
DEFPOINTS
 62
     0
 48
50.0
100
AcDbPoint
 10
10027.6739012932
 20
4677.931598713258
 30
0.0
  0
POINT
  5
19843
330
190D9
100
AcDbEntity
  8
DEFPOINTS
 62
     0
 48
50.0
100
AcDbPoint
 10
10027.6739012932
 20
2587.931598713257
 30
0.0
  0
POINT
  5
19844
330
190D9
100
AcDbEntity
  8
DEFPOINTS
 62
     0
 48
50.0
100
AcDbPoint
 10
9183.923772109945
 20
2587.931598713257
 30
0.0
  0
ENDBLK
  5
190E4
330
190D9
100
AcDbEntity
  8
0
 48
50.0
100
AcDbBlockEnd
  0
BLOCK
  5
190EF
330
190E5
100
AcDbEntity
  8
0
 48
50.0
100
AcDbBlockBegin
  2
*D23
 70
     1
 10
0.0
 20
0.0
 30
0.0
  3
*D23
  1

  0
LINE
  5
19833
330
190E5
100
AcDbEntity
  8
寸法
 62
     0
 48
50.0
370
    -2
100
AcDbLine
 10
10007.6739012932
 20
2537.931598713257
 30
0.0
 11
8823.923772109944
 21
2537.931598713257
 31
0.0
  0
LINE
  5
19834
330
190E5
100
AcDbEntity
  8
寸法
 62
     0
 48
50.0
370
    -2
100
AcDbLine
 10
9947.673901293207
 20
4912.931598713262
 30
0.0
 11
8823.923772109946
 21
4912.931598713262
 31
0.0
  0
LINE
  5
19835
330
190E5
100
AcDbEntity
  8
寸法
 62
     0
 48
50.0
370
    -2
100
AcDbLine
 10
8883.923772109943
 20
2537.931598713257
 30
0.0
 11
8883.923772109945
 21
4912.931598713262
 31
0.0
  0
INSERT
  5
19836
330
190E5
100
AcDbEntity
  8
寸法
 62
     0
 48
50.0
370
    -2
100
AcDbBlockReference
  2
_DOTSMALL
 10
8883.923772109943
 20
2537.931598713257
 30
0.0
 41
100.0
 42
100.0
 43
100.0
 50
270.0
  0
INSERT
  5
19837
330
190E5
100
AcDbEntity
  8
寸法
 62
     0
 48
50.0
370
    -2
100
AcDbBlockReference
  2
_DOTSMALL
 10
8883.923772109945
 20
4912.931598713262
 30
0.0
 41
100.0
 42
100.0
 43
100.0
 50
90.0
  0
MTEXT
  5
19838
330
190E5
100
AcDbEntity
  8
寸法
 62
     7
 48
50.0
100
AcDbMText
 10
8783.911961086323
 20
3725.431598713261
 30
0.0
 40
120.0
 41
0.0
 71
     5
 72
     1
  1
\A1;2375
  7
STYLE1
 11
0.0000000000000001
 21
1.0
 31
0.0
 73
     1
 44
1.0
1001
ACAD
1000
MTEXTBEGIN
1070
    73
1070
     1
1070
    44
1040
1.0
1070
    74
1070
     0
1000
MTEXTEND
  0
POINT
  5
19839
330
190E5
100
AcDbEntity
  8
DEFPOINTS
 62
     0
 48
50.0
100
AcDbPoint
 10
10027.6739012932
 20
2537.931598713257
 30
0.0
  0
POINT
  5
1983A
330
190E5
100
AcDbEntity
  8
DEFPOINTS
 62
     0
 48
50.0
100
AcDbPoint
 10
9967.673901293204
 20
4912.931598713262
 30
0.0
  0
POINT
  5
1983B
330
190E5
100
AcDbEntity
  8
DEFPOINTS
 62
     0
 48
50.0
100
AcDbPoint
 10
8883.923772109945
 20
4912.931598713262
 30
0.0
  0
ENDBLK
  5
190F0
330
190E5
100
AcDbEntity
  8
0
 48
50.0
100
AcDbBlockEnd
  0
BLOCK
  5
190FB
330
190F1
100
AcDbEntity
  8
0
 48
50.0
100
AcDbBlockBegin
  2
*D24
 70
     1
 10
0.0
 20
0.0
 30
0.0
  3
*D24
  1

  0
LINE
  5
1982A
330
190F1
100
AcDbEntity
  8
寸法
 62
     0
 48
50.0
370
    -2
100
AcDbLine
 10
12677.6739012932
 20
2537.931598713264
 30
0.0
 11
13422.60105926533
 21
2537.931598713264
 31
0.0
  0
LINE
  5
1982B
330
190F1
100
AcDbEntity
  8
寸法
 62
     0
 48
50.0
370
    -2
100
AcDbLine
 10
12757.6739012932
 20
4857.931598713264
 30
0.0
 11
13422.60105926533
 21
4857.931598713264
 31
0.0
  0
LINE
  5
1982C
330
190F1
100
AcDbEntity
  8
寸法
 62
     0
 48
50.0
370
    -2
100
AcDbLine
 10
13362.60105926533
 20
2537.931598713264
 30
0.0
 11
13362.60105926533
 21
4857.931598713264
 31
0.0
  0
INSERT
  5
1982D
330
190F1
100
AcDbEntity
  8
寸法
 62
     0
 48
50.0
370
    -2
100
AcDbBlockReference
  2
_DOTSMALL
 10
13362.60105926533
 20
2537.931598713264
 30
0.0
 41
100.0
 42
100.0
 43
100.0
 50
270.0
  0
INSERT
  5
1982E
330
190F1
100
AcDbEntity
  8
寸法
 62
     0
 48
50.0
370
    -2
100
AcDbBlockReference
  2
_DOTSMALL
 10
13362.60105926533
 20
4857.931598713264
 30
0.0
 41
100.0
 42
100.0
 43
100.0
 50
90.0
  0
MTEXT
  5
1982F
330
190F1
100
AcDbEntity
  8
寸法
 62
     7
 48
50.0
100
AcDbMText
 10
13262.58924824171
 20
3697.931598713266
 30
0.0
 40
120.0
 41
0.0
 71
     5
 72
     1
  1
\A1;2320
  7
STYLE1
 11
0.0000000000000001
 21
1.0
 31
0.0
 73
     1
 44
1.0
1001
ACAD
1000
MTEXTBEGIN
1070
    73
1070
     1
1070
    44
1040
1.0
1070
    74
1070
     0
1000
MTEXTEND
  0
POINT
  5
19830
330
190F1
100
AcDbEntity
  8
DEFPOINTS
 62
     0
 48
50.0
100
AcDbPoint
 10
12657.6739012932
 20
2537.931598713264
 30
0.0
  0
POINT
  5
19831
330
190F1
100
AcDbEntity
  8
DEFPOINTS
 62
     0
 48
50.0
100
AcDbPoint
 10
12737.6739012932
 20
4857.931598713264
 30
0.0
  0
POINT
  5
19832
330
190F1
100
AcDbEntity
  8
DEFPOINTS
 62
     0
 48
50.0
100
AcDbPoint
 10
13362.60105926533
 20
4857.931598713264
 30
0.0
  0
ENDBLK
  5
190FC
330
190F1
100
AcDbEntity
  8
0
 48
50.0
100
AcDbBlockEnd
  0
BLOCK
  5
19109
330
190FD
100
AcDbEntity
  8
0
 48
50.0
100
AcDbBlockBegin
  2
*D25
 70
     1
 10
0.0
 20
0.0
 30
0.0
  3
*D25
  1

  0
LINE
  5
1981F
330
190FD
100
AcDbEntity
  8
寸法
 62
     0
 48
50.0
370
    -2
100
AcDbLine
 10
10007.6739012932
 20
2587.931598713263
 30
0.0
 11
9123.923772109945
 21
2587.931598713263
 31
0.0
  0
LINE
  5
19820
330
190FD
100
AcDbEntity
  8
寸法
 62
     0
 48
50.0
370
    -2
100
AcDbLine
 10
9952.673901293206
 20
2537.931598713262
 30
0.0
 11
9123.923772109945
 21
2537.931598713263
 31
0.0
  0
LINE
  5
19821
330
190FD
100
AcDbEntity
  8
寸法
 62
     0
 48
50.0
370
    -2
100
AcDbLine
 10
9183.923772109945
 20
2587.931598713263
 30
0.0
 11
9183.923772109945
 21
2687.931598713263
 31
0.0
  0
LINE
  5
19822
330
190FD
100
AcDbEntity
  8
寸法
 62
     0
 48
50.0
370
    -2
100
AcDbLine
 10
9183.923772109945
 20
2537.931598713263
 30
0.0
 11
9183.923772109945
 21
2125.837110524282
 31
0.0
  0
LINE
  5
19823
330
190FD
100
AcDbEntity
  8
寸法
 62
     0
 48
50.0
370
    -2
100
AcDbLine
 10
9183.923772109945
 20
2587.931598713263
 30
0.0
 11
9183.923772109945
 21
2537.931598713263
 31
0.0
  0
INSERT
  5
19824
330
190FD
100
AcDbEntity
  8
寸法
 62
     0
 48
50.0
370
    -2
100
AcDbBlockReference
  2
_DOTSMALL
 10
9183.923772109945
 20
2587.931598713263
 30
0.0
 41
100.0
 42
100.0
 43
100.0
 50
270.0
  0
INSERT
  5
19825
330
190FD
100
AcDbEntity
  8
寸法
 62
     0
 48
50.0
370
    -2
100
AcDbBlockReference
  2
_DOTSMALL
 10
9183.923772109945
 20
2537.931598713263
 30
0.0
 41
100.0
 42
100.0
 43
100.0
 50
90.0
  0
MTEXT
  5
19826
330
190FD
100
AcDbEntity
  8
寸法
 62
     7
 48
50.0
100
AcDbMText
 10
9083.923772109946
 20
2231.884354618772
 30
0.0
 40
120.0
 41
0.0
 71
     5
 72
     1
  1
\A1;50
  7
STYLE1
 11
0.0000000000000001
 21
1.0
 31
0.0
 73
     1
 44
1.0
1001
ACAD
1000
MTEXTBEGIN
1070
    73
1070
     1
1070
    44
1040
1.0
1070
    74
1070
     0
1000
MTEXTEND
  0
POINT
  5
19827
330
190FD
100
AcDbEntity
  8
DEFPOINTS
 62
     0
 48
50.0
100
AcDbPoint
 10
10027.6739012932
 20
2587.931598713263
 30
0.0
  0
POINT
  5
19828
330
190FD
100
AcDbEntity
  8
DEFPOINTS
 62
     0
 48
50.0
100
AcDbPoint
 10
9972.673901293205
 20
2537.931598713262
 30
0.0
  0
POINT
  5
19829
330
190FD
100
AcDbEntity
  8
DEFPOINTS
 62
     0
 48
50.0
100
AcDbPoint
 10
9183.923772109945
 20
2537.931598713263
 30
0.0
  0
ENDBLK
  5
1910A
330
190FD
100
AcDbEntity
  8
0
 48
50.0
100
AcDbBlockEnd
  0
BLOCK
  5
19115
330
1910B
100
AcDbEntity
  8
0
 48
50.0
100
AcDbBlockBegin
  2
*D26
 70
     1
 10
0.0
 20
0.0
 30
0.0
  3
*D26
  1

  0
LINE
  5
19BEF
330
1910B
100
AcDbEntity
  8
寸法
 62
     0
 48
50.0
370
    -2
100
AcDbLine
 10
12657.6739012932
 20
4879.742278324916
 30
0.0
 11
12657.6739012932
 21
5371.589052292568
 31
0.0
  0
LINE
  5
19BF0
330
1910B
100
AcDbEntity
  8
寸法
 62
     0
 48
50.0
370
    -2
100
AcDbLine
 10
10027.6739012932
 20
4928.933216836239
 30
0.0
 11
10027.6739012932
 21
5371.589052292568
 31
0.0
  0
LINE
  5
19BF1
330
1910B
100
AcDbEntity
  8
寸法
 62
     0
 48
50.0
370
    -2
100
AcDbLine
 10
12657.6739012932
 20
5311.589052292568
 30
0.0
 11
10027.6739012932
 21
5311.589052292568
 31
0.0
  0
INSERT
  5
19BF2
330
1910B
100
AcDbEntity
  8
寸法
 62
     0
 48
50.0
370
    -2
100
AcDbBlockReference
  2
_DOTSMALL
 10
12657.6739012932
 20
5311.589052292568
 30
0.0
 41
100.0
 42
100.0
 43
100.0
  0
INSERT
  5
19BF3
330
1910B
100
AcDbEntity
  8
寸法
 62
     0
 48
50.0
370
    -2
100
AcDbBlockReference
  2
_DOTSMALL
 10
10027.6739012932
 20
5311.589052292568
 30
0.0
 41
100.0
 42
100.0
 43
100.0
 50
180.0
  0
MTEXT
  5
19BF4
330
1910B
100
AcDbEntity
  8
寸法
 62
     7
 48
50.0
100
AcDbMText
 10
11342.6739012932
 20
5411.60086331619
 30
0.0
 40
120.0
 41
0.0
 71
     5
 72
     1
  1
\A1;柱外寸法2630
  7
STYLE1
 73
     1
 44
1.0
1001
ACAD
1000
MTEXTBEGIN
1070
    73
1070
     1
1070
    44
1040
1.0
1070
    74
1070
     0
1000
MTEXTEND
  0
POINT
  5
19BF5
330
1910B
100
AcDbEntity
  8
DEFPOINTS
 62
     0
 48
50.0
100
AcDbPoint
 10
12657.6739012932
 20
4859.742278324915
 30
0.0
  0
POINT
  5
19BF6
330
1910B
100
AcDbEntity
  8
DEFPOINTS
 62
     0
 48
50.0
100
AcDbPoint
 10
10027.6739012932
 20
4908.933216836238
 30
0.0
  0
POINT
  5
19BF7
330
1910B
100
AcDbEntity
  8
DEFPOINTS
 62
     0
 48
50.0
100
AcDbPoint
 10
10027.6739012932
 20
5311.589052292568
 30
0.0
  0
ENDBLK
  5
19116
330
1910B
100
AcDbEntity
  8
0
 48
50.0
100
AcDbBlockEnd
  0
BLOCK
  5
19123
330
19117
100
AcDbEntity
  8
0
 48
50.0
100
AcDbBlockBegin
  2
*D27
 70
     1
 10
0.0
 20
0.0
 30
0.0
  3
*D27
  1

  0
LINE
  5
1980B
330
19117
100
AcDbEntity
  8
寸法
 62
     0
 48
50.0
370
    -2
100
AcDbLine
 10
10027.6739012932
 20
4928.933216836239
 30
0.0
 11
10027.6739012932
 21
5371.589052292566
 31
0.0
  0
LINE
  5
1980C
330
19117
100
AcDbEntity
  8
寸法
 62
     0
 48
50.0
370
    -2
100
AcDbLine
 10
9967.673901293204
 20
4932.931598713268
 30
0.0
 11
9967.673901293204
 21
5371.589052292566
 31
0.0
  0
LINE
  5
1980D
330
19117
100
AcDbEntity
  8
寸法
 62
     0
 48
50.0
370
    -2
100
AcDbLine
 10
10027.6739012932
 20
5311.589052292567
 30
0.0
 11
10127.6739012932
 21
5311.589052292567
 31
0.0
  0
LINE
  5
1980E
330
19117
100
AcDbEntity
  8
寸法
 62
     0
 48
50.0
370
    -2
100
AcDbLine
 10
9967.673901293204
 20
5311.589052292567
 30
0.0
 11
9548.398310742024
 21
5311.589052292567
 31
0.0
  0
LINE
  5
1980F
330
19117
100
AcDbEntity
  8
寸法
 62
     0
 48
50.0
370
    -2
100
AcDbLine
 10
10027.6739012932
 20
5311.589052292567
 30
0.0
 11
9967.673901293204
 21
5311.589052292567
 31
0.0
  0
INSERT
  5
19810
330
19117
100
AcDbEntity
  8
寸法
 62
     0
 48
50.0
370
    -2
100
AcDbBlockReference
  2
_DOTSMALL
 10
10027.6739012932
 20
5311.589052292567
 30
0.0
 41
100.0
 42
100.0
 43
100.0
 50
180.0
  0
INSERT
  5
19811
330
19117
100
AcDbEntity
  8
寸法
 62
     0
 48
50.0
370
    -2
100
AcDbBlockReference
  2
_DOTSMALL
 10
9967.673901293204
 20
5311.589052292567
 30
0.0
 41
100.0
 42
100.0
 43
100.0
  0
MTEXT
  5
19812
330
19117
100
AcDbEntity
  8
寸法
 62
     7
 48
50.0
100
AcDbMText
 10
9658.036106017615
 20
5411.589052292566
 30
0.0
 40
120.0
 41
0.0
 71
     5
 72
     1
  1
\A1;60
  7
STYLE1
 73
     1
 44
1.0
1001
ACAD
1000
MTEXTBEGIN
1070
    73
1070
     1
1070
    44
1040
1.0
1070
    74
1070
     0
1000
MTEXTEND
  0
POINT
  5
19813
330
19117
100
AcDbEntity
  8
DEFPOINTS
 62
     0
 48
50.0
100
AcDbPoint
 10
10027.6739012932
 20
4908.933216836238
 30
0.0
  0
POINT
  5
19814
330
19117
100
AcDbEntity
  8
DEFPOINTS
 62
     0
 48
50.0
100
AcDbPoint
 10
9967.673901293204
 20
4912.931598713267
 30
0.0
  0
POINT
  5
19815
330
19117
100
AcDbEntity
  8
DEFPOINTS
 62
     0
 48
50.0
100
AcDbPoint
 10
9967.673901293204
 20
5311.589052292567
 30
0.0
  0
ENDBLK
  5
19124
330
19117
100
AcDbEntity
  8
0
 48
50.0
100
AcDbBlockEnd
  0
BLOCK
  5
1912F
330
19125
100
AcDbEntity
  8
0
 48
50.0
100
AcDbBlockBegin
  2
*D28
 70
     1
 10
0.0
 20
0.0
 30
0.0
  3
*D28
  1

  0
LINE
  5
19BE6
330
19125
100
AcDbEntity
  8
寸法
 62
     0
 48
50.0
370
    -2
100
AcDbLine
 10
12737.6739012932
 20
4877.931598713264
 30
0.0
 11
12737.6739012932
 21
5591.799739024184
 31
0.0
  0
LINE
  5
19BE7
330
19125
100
AcDbEntity
  8
寸法
 62
     0
 48
50.0
370
    -2
100
AcDbLine
 10
9967.673901293204
 20
4932.931598713268
 30
0.0
 11
9967.673901293204
 21
5591.799739024184
 31
0.0
  0
LINE
  5
19BE8
330
19125
100
AcDbEntity
  8
寸法
 62
     0
 48
50.0
370
    -2
100
AcDbLine
 10
12737.6739012932
 20
5531.799739024184
 30
0.0
 11
9967.673901293204
 21
5531.799739024184
 31
0.0
  0
INSERT
  5
19BE9
330
19125
100
AcDbEntity
  8
寸法
 62
     0
 48
50.0
370
    -2
100
AcDbBlockReference
  2
_DOTSMALL
 10
12737.6739012932
 20
5531.799739024184
 30
0.0
 41
100.0
 42
100.0
 43
100.0
  0
INSERT
  5
19BEA
330
19125
100
AcDbEntity
  8
寸法
 62
     0
 48
50.0
370
    -2
100
AcDbBlockReference
  2
_DOTSMALL
 10
9967.673901293204
 20
5531.799739024184
 30
0.0
 41
100.0
 42
100.0
 43
100.0
 50
180.0
  0
MTEXT
  5
19BEB
330
19125
100
AcDbEntity
  8
寸法
 62
     7
 48
50.0
100
AcDbMText
 10
11352.6739012932
 20
5631.811550047807
 30
0.0
 40
120.0
 41
0.0
 71
     5
 72
     1
  1
\A1;2770
  7
STYLE1
 73
     1
 44
1.0
1001
ACAD
1000
MTEXTBEGIN
1070
    73
1070
     1
1070
    44
1040
1.0
1070
    74
1070
     0
1000
MTEXTEND
  0
POINT
  5
19BEC
330
19125
100
AcDbEntity
  8
DEFPOINTS
 62
     0
 48
50.0
100
AcDbPoint
 10
12737.6739012932
 20
4857.931598713264
 30
0.0
  0
POINT
  5
19BED
330
19125
100
AcDbEntity
  8
DEFPOINTS
 62
     0
 48
50.0
100
AcDbPoint
 10
9967.673901293204
 20
4912.931598713267
 30
0.0
  0
POINT
  5
19BEE
330
19125
100
AcDbEntity
  8
DEFPOINTS
 62
     0
 48
50.0
100
AcDbPoint
 10
9967.673901293204
 20
5531.799739024184
 30
0.0
  0
ENDBLK
  5
19130
330
19125
100
AcDbEntity
  8
0
 48
50.0
100
AcDbBlockEnd
  0
BLOCK
  5
1913C
330
19131
100
AcDbEntity
  8
0
 48
50.0
100
AcDbBlockBegin
  2
*D29
 70
     1
 10
0.0
 20
0.0
 30
0.0
  3
*D29
  1

  0
LINE
  5
197F8
330
19131
100
AcDbEntity
  8
寸法
 62
     0
 48
50.0
370
    -2
100
AcDbLine
 10
12657.6739012932
 20
4879.742278324916
 30
0.0
 11
12657.6739012932
 21
5371.589052292568
 31
0.0
  0
LINE
  5
197F9
330
19131
100
AcDbEntity
  8
寸法
 62
     0
 48
50.0
370
    -2
100
AcDbLine
 10
12737.6739012932
 20
4877.931598713264
 30
0.0
 11
12737.6739012932
 21
5371.589052292568
 31
0.0
  0
LINE
  5
197FA
330
19131
100
AcDbEntity
  8
寸法
 62
     0
 48
50.0
370
    -2
100
AcDbLine
 10
12657.6739012932
 20
5311.589052292568
 30
0.0
 11
12737.6739012932
 21
5311.589052292568
 31
0.0
  0
LINE
  5
197FB
330
19131
100
AcDbEntity
  8
寸法
 62
     0
 48
50.0
370
    -2
100
AcDbLine
 10
12737.6739012932
 20
5311.589052292568
 30
0.0
 11
13049.76838948218
 21
5311.589052292568
 31
0.0
  0
INSERT
  5
197FC
330
19131
100
AcDbEntity
  8
寸法
 62
     0
 48
50.0
370
    -2
100
AcDbBlockReference
  2
_DOTSMALL
 10
12657.6739012932
 20
5311.589052292568
 30
0.0
 41
100.0
 42
100.0
 43
100.0
 50
180.0
  0
INSERT
  5
197FD
330
19131
100
AcDbEntity
  8
寸法
 62
     0
 48
50.0
370
    -2
100
AcDbBlockReference
  2
_DOTSMALL
 10
12737.6739012932
 20
5311.589052292568
 30
0.0
 41
100.0
 42
100.0
 43
100.0
  0
MTEXT
  5
197FE
330
19131
100
AcDbEntity
  8
寸法
 62
     7
 48
50.0
100
AcDbMText
 10
12943.72114538769
 20
5411.589052292568
 30
0.0
 40
120.0
 41
0.0
 71
     5
 72
     1
  1
\A1;80
  7
STYLE1
 73
     1
 44
1.0
1001
ACAD
1000
MTEXTBEGIN
1070
    73
1070
     1
1070
    44
1040
1.0
1070
    74
1070
     0
1000
MTEXTEND
  0
POINT
  5
197FF
330
19131
100
AcDbEntity
  8
DEFPOINTS
 62
     0
 48
50.0
100
AcDbPoint
 10
12657.6739012932
 20
4859.742278324915
 30
0.0
  0
POINT
  5
19800
330
19131
100
AcDbEntity
  8
DEFPOINTS
 62
     0
 48
50.0
100
AcDbPoint
 10
12737.6739012932
 20
4857.931598713264
 30
0.0
  0
POINT
  5
19801
330
19131
100
AcDbEntity
  8
DEFPOINTS
 62
     0
 48
50.0
100
AcDbPoint
 10
12737.6739012932
 20
5311.589052292568
 30
0.0
  0
ENDBLK
  5
1913D
330
19131
100
AcDbEntity
  8
0
 48
50.0
100
AcDbBlockEnd
  0
BLOCK
  5
19149
330
1913E
100
AcDbEntity
  8
0
 48
50.0
100
AcDbBlockBegin
  2
*D30
 70
     1
 10
0.0
 20
0.0
 30
0.0
  3
*D30
  1

  0
LINE
  5
197EE
330
1913E
100
AcDbEntity
  8
寸法
 62
     0
 48
50.0
370
    -2
100
AcDbLine
 10
9967.078187584306
 20
4912.229305782924
 30
0.0
 11
9351.143748479023
 21
4929.943456057253
 31
0.0
  0
LINE
  5
197EF
330
1913E
100
AcDbEntity
  8
寸法
 62
     0
 48
50.0
370
    -2
100
AcDbLine
 10
9963.02473202768
 20
4771.287582017211
 30
0.0
 11
9347.090292922395
 21
4789.001732291541
 31
0.0
  0
LINE
  5
197F0
330
1913E
100
AcDbEntity
  8
寸法
 62
     0
 48
50.0
370
    -2
100
AcDbLine
 10
9407.065494524827
 20
4787.276857586594
 30
0.0
 11
9411.118950081453
 21
4928.218581352306
 31
0.0
  0
LINE
  5
197F1
330
1913E
100
AcDbEntity
  8
寸法
 62
     0
 48
50.0
370
    -2
100
AcDbLine
 10
9411.118950081453
 20
4928.218581352306
 30
0.0
 11
9421.468198311137
 21
5288.069790966893
 31
0.0
  0
INSERT
  5
197F2
330
1913E
100
AcDbEntity
  8
寸法
 62
     0
 48
50.0
370
    -2
100
AcDbBlockReference
  2
_DOTSMALL
 10
9407.065494524827
 20
4787.276857586594
 30
0.0
 41
100.0
 42
100.0
 43
100.0
 50
268.3526390256378
  0
INSERT
  5
197F3
330
1913E
100
AcDbEntity
  8
寸法
 62
     0
 48
50.0
370
    -2
100
AcDbBlockReference
  2
_DOTSMALL
 10
9411.118950081453
 20
4928.218581352306
 30
0.0
 41
100.0
 42
100.0
 43
100.0
 50
88.35263902563776
  0
MTEXT
  5
197F4
330
1913E
100
AcDbEntity
  8
寸法
 62
     7
 48
50.0
100
AcDbMText
 10
9317.772300446366
 20
5160.998312003204
 30
0.0
 40
120.0
 41
0.0
 71
     5
 72
     1
  1
\A1;141
  7
STYLE1
 11
0.0287479117491237
 21
0.9995866933738488
 31
0.0
 73
     1
 44
1.0
1001
ACAD
1000
MTEXTBEGIN
1070
    73
1070
     1
1070
    44
1040
1.0
1070
    74
1070
     0
1000
MTEXTEND
  0
POINT
  5
197F5
330
1913E
100
AcDbEntity
  8
DEFPOINTS
 62
     0
 48
50.0
100
AcDbPoint
 10
9987.069921451784
 20
4911.654347547941
 30
0.0
  0
POINT
  5
197F6
330
1913E
100
AcDbEntity
  8
DEFPOINTS
 62
     0
 48
50.0
100
AcDbPoint
 10
9983.016465895156
 20
4770.712623782229
 30
0.0
  0
POINT
  5
197F7
330
1913E
100
AcDbEntity
  8
DEFPOINTS
 62
     0
 48
50.0
100
AcDbPoint
 10
9407.065494524827
 20
4787.276857586594
 30
0.0
  0
ENDBLK
  5
1914A
330
1913E
100
AcDbEntity
  8
0
 48
50.0
100
AcDbBlockEnd
  0
BLOCK
  5
198C8
330
198BC
100
AcDbEntity
  8
0
 48
50.0
100
AcDbBlockBegin
  2
*D31
 70
     1
 10
0.0
 20
0.0
 30
0.0
  3
*D31
  1

  0
LINE
  5
198F0
330
198BC
100
AcDbEntity
  8
寸法
 62
     0
 48
50.0
370
    -2
100
AcDbLine
 10
7450.497127903584
 20
4932.931598713265
 30
0.0
 11
7450.497127903584
 21
5378.657870445175
 31
0.0
  0
LINE
  5
198F1
330
198BC
100
AcDbEntity
  8
寸法
 62
     0
 48
50.0
370
    -2
100
AcDbLine
 10
7400.497127903587
 20
4932.931598713269
 30
0.0
 11
7400.497127903587
 21
5378.657870445175
 31
0.0
  0
LINE
  5
198F2
330
198BC
100
AcDbEntity
  8
寸法
 62
     0
 48
50.0
370
    -2
100
AcDbLine
 10
7400.497127903587
 20
5318.657870445175
 30
0.0
 11
7300.497127903587
 21
5318.657870445175
 31
0.0
  0
LINE
  5
198F3
330
198BC
100
AcDbEntity
  8
寸法
 62
     0
 48
50.0
370
    -2
100
AcDbLine
 10
7450.497127903584
 20
5318.657870445175
 30
0.0
 11
7870.029653372312
 21
5318.657870445175
 31
0.0
  0
LINE
  5
198F4
330
198BC
100
AcDbEntity
  8
寸法
 62
     0
 48
50.0
370
    -2
100
AcDbLine
 10
7400.497127903587
 20
5318.657870445175
 30
0.0
 11
7450.497127903584
 21
5318.657870445175
 31
0.0
  0
INSERT
  5
198F5
330
198BC
100
AcDbEntity
  8
寸法
 62
     0
 48
50.0
370
    -2
100
AcDbBlockReference
  2
_DOTSMALL
 10
7400.497127903587
 20
5318.657870445175
 30
0.0
 41
100.0
 42
100.0
 43
100.0
  0
INSERT
  5
198F6
330
198BC
100
AcDbEntity
  8
寸法
 62
     0
 48
50.0
370
    -2
100
AcDbBlockReference
  2
_DOTSMALL
 10
7450.497127903584
 20
5318.657870445175
 30
0.0
 41
100.0
 42
100.0
 43
100.0
 50
180.0
  0
MTEXT
  5
198F7
330
198BC
100
AcDbEntity
  8
寸法
 62
     7
 48
50.0
100
AcDbMText
 10
7763.982409277824
 20
5418.657870445175
 30
0.0
 40
120.0
 41
0.0
 71
     5
 72
     1
  1
\A1;50
  7
STYLE1
 73
     1
 44
1.0
1001
ACAD
1000
MTEXTBEGIN
1070
    73
1070
     1
1070
    44
1040
1.0
1070
    74
1070
     0
1000
MTEXTEND
  0
POINT
  5
198F8
330
198BC
100
AcDbEntity
  8
DEFPOINTS
 62
     0
 48
50.0
100
AcDbPoint
 10
7450.497127903584
 20
4912.931598713265
 30
0.0
  0
POINT
  5
198F9
330
198BC
100
AcDbEntity
  8
DEFPOINTS
 62
     0
 48
50.0
100
AcDbPoint
 10
7400.497127903587
 20
4912.931598713268
 30
0.0
  0
POINT
  5
198FA
330
198BC
100
AcDbEntity
  8
DEFPOINTS
 62
     0
 48
50.0
100
AcDbPoint
 10
7400.497127903587
 20
5318.657870445175
 30
0.0
  0
ENDBLK
  5
198C9
330
198BC
100
AcDbEntity
  8
0
 48
50.0
100
AcDbBlockEnd
  0
BLOCK
  5
198D6
330
198CA
100
AcDbEntity
  8
0
 48
50.0
100
AcDbBlockBegin
  2
*D32
 70
     1
 10
0.0
 20
0.0
 30
0.0
  3
*D32
  1

  0
LINE
  5
198FB
330
198CA
100
AcDbEntity
  8
寸法
 62
     0
 48
50.0
370
    -2
100
AcDbLine
 10
3820.497127903582
 20
4932.931598713269
 30
0.0
 11
3820.497127903582
 21
5378.657870445171
 31
0.0
  0
LINE
  5
198FC
330
198CA
100
AcDbEntity
  8
寸法
 62
     0
 48
50.0
370
    -2
100
AcDbLine
 10
3770.497127903582
 20
4932.931598713269
 30
0.0
 11
3770.497127903582
 21
5378.657870445171
 31
0.0
  0
LINE
  5
198FD
330
198CA
100
AcDbEntity
  8
寸法
 62
     0
 48
50.0
370
    -2
100
AcDbLine
 10
3820.497127903582
 20
5318.657870445171
 30
0.0
 11
3920.497127903582
 21
5318.657870445171
 31
0.0
  0
LINE
  5
198FE
330
198CA
100
AcDbEntity
  8
寸法
 62
     0
 48
50.0
370
    -2
100
AcDbLine
 10
3770.497127903582
 20
5318.657870445171
 30
0.0
 11
3350.964602434846
 21
5318.657870445171
 31
0.0
  0
LINE
  5
198FF
330
198CA
100
AcDbEntity
  8
寸法
 62
     0
 48
50.0
370
    -2
100
AcDbLine
 10
3820.497127903582
 20
5318.657870445171
 30
0.0
 11
3770.497127903582
 21
5318.657870445171
 31
0.0
  0
INSERT
  5
19900
330
198CA
100
AcDbEntity
  8
寸法
 62
     0
 48
50.0
370
    -2
100
AcDbBlockReference
  2
_DOTSMALL
 10
3820.497127903582
 20
5318.657870445171
 30
0.0
 41
100.0
 42
100.0
 43
100.0
 50
180.0
  0
INSERT
  5
19901
330
198CA
100
AcDbEntity
  8
寸法
 62
     0
 48
50.0
370
    -2
100
AcDbBlockReference
  2
_DOTSMALL
 10
3770.497127903582
 20
5318.657870445171
 30
0.0
 41
100.0
 42
100.0
 43
100.0
  0
MTEXT
  5
19902
330
198CA
100
AcDbEntity
  8
寸法
 62
     7
 48
50.0
100
AcDbMText
 10
3457.011846529335
 20
5418.657870445171
 30
0.0
 40
120.0
 41
0.0
 71
     5
 72
     1
  1
\A1;50
  7
STYLE1
 73
     1
 44
1.0
1001
ACAD
1000
MTEXTBEGIN
1070
    73
1070
     1
1070
    44
1040
1.0
1070
    74
1070
     0
1000
MTEXTEND
  0
POINT
  5
19903
330
198CA
100
AcDbEntity
  8
DEFPOINTS
 62
     0
 48
50.0
100
AcDbPoint
 10
3820.497127903582
 20
4912.931598713268
 30
0.0
  0
POINT
  5
19904
330
198CA
100
AcDbEntity
  8
DEFPOINTS
 62
     0
 48
50.0
100
AcDbPoint
 10
3770.497127903582
 20
4912.931598713268
 30
0.0
  0
POINT
  5
19905
330
198CA
100
AcDbEntity
  8
DEFPOINTS
 62
     0
 48
50.0
100
AcDbPoint
 10
3770.497127903582
 20
5318.657870445171
 30
0.0
  0
ENDBLK
  5
198D7
330
198CA
100
AcDbEntity
  8
0
 48
50.0
100
AcDbBlockEnd
  0
BLOCK
  5
198E2
330
198D8
100
AcDbEntity
  8
0
 48
50.0
100
AcDbBlockBegin
  2
*D33
 70
     1
 10
0.0
 20
0.0
 30
0.0
  3
*D33
  1

  0
LINE
  5
19906
330
198D8
100
AcDbEntity
  8
寸法
 62
     0
 48
50.0
370
    -2
100
AcDbLine
 10
3770.497127903582
 20
4932.931598713269
 30
0.0
 11
3770.497127903582
 21
5578.566791659262
 31
0.0
  0
LINE
  5
19907
330
198D8
100
AcDbEntity
  8
寸法
 62
     0
 48
50.0
370
    -2
100
AcDbLine
 10
7450.497127903584
 20
4932.931598713265
 30
0.0
 11
7450.497127903584
 21
5578.566791659262
 31
0.0
  0
LINE
  5
19908
330
198D8
100
AcDbEntity
  8
寸法
 62
     0
 48
50.0
370
    -2
100
AcDbLine
 10
3770.497127903582
 20
5518.566791659261
 30
0.0
 11
7450.497127903584
 21
5518.566791659261
 31
0.0
  0
INSERT
  5
19909
330
198D8
100
AcDbEntity
  8
寸法
 62
     0
 48
50.0
370
    -2
100
AcDbBlockReference
  2
_DOTSMALL
 10
3770.497127903582
 20
5518.566791659261
 30
0.0
 41
100.0
 42
100.0
 43
100.0
 50
180.0
  0
INSERT
  5
1990A
330
198D8
100
AcDbEntity
  8
寸法
 62
     0
 48
50.0
370
    -2
100
AcDbBlockReference
  2
_DOTSMALL
 10
7450.497127903584
 20
5518.566791659261
 30
0.0
 41
100.0
 42
100.0
 43
100.0
  0
MTEXT
  5
1990B
330
198D8
100
AcDbEntity
  8
寸法
 62
     7
 48
50.0
100
AcDbMText
 10
5610.497127903583
 20
5618.566791659262
 30
0.0
 40
120.0
 41
0.0
 71
     5
 72
     1
  1
\A1;3680
  7
STYLE1
 73
     1
 44
1.0
1001
ACAD
1000
MTEXTBEGIN
1070
    73
1070
     1
1070
    44
1040
1.0
1070
    74
1070
     0
1000
MTEXTEND
  0
POINT
  5
1990C
330
198D8
100
AcDbEntity
  8
DEFPOINTS
 62
     0
 48
50.0
100
AcDbPoint
 10
3770.497127903582
 20
4912.931598713268
 30
0.0
  0
POINT
  5
1990D
330
198D8
100
AcDbEntity
  8
DEFPOINTS
 62
     0
 48
50.0
100
AcDbPoint
 10
7450.497127903584
 20
4912.931598713265
 30
0.0
  0
POINT
  5
1990E
330
198D8
100
AcDbEntity
  8
DEFPOINTS
 62
     0
 48
50.0
100
AcDbPoint
 10
7450.497127903584
 20
5518.566791659261
 30
0.0
  0
ENDBLK
  5
198E3
330
198D8
100
AcDbEntity
  8
0
 48
50.0
100
AcDbBlockEnd
  0
BLOCK
  5
198EE
330
198E4
100
AcDbEntity
  8
0
 48
50.0
100
AcDbBlockBegin
  2
*D34
 70
     1
 10
0.0
 20
0.0
 30
0.0
  3
*D34
  1

  0
LINE
  5
1990F
330
198E4
100
AcDbEntity
  8
寸法
 62
     0
 48
50.0
370
    -2
100
AcDbLine
 10
7400.497127903587
 20
4932.931598713269
 30
0.0
 11
7400.497127903587
 21
5378.657870445171
 31
0.0
  0
LINE
  5
19910
330
198E4
100
AcDbEntity
  8
寸法
 62
     0
 48
50.0
370
    -2
100
AcDbLine
 10
3820.497127903582
 20
4932.931598713269
 30
0.0
 11
3820.497127903582
 21
5378.657870445171
 31
0.0
  0
LINE
  5
19911
330
198E4
100
AcDbEntity
  8
寸法
 62
     0
 48
50.0
370
    -2
100
AcDbLine
 10
7400.497127903587
 20
5318.657870445171
 30
0.0
 11
3820.497127903582
 21
5318.657870445171
 31
0.0
  0
INSERT
  5
19912
330
198E4
100
AcDbEntity
  8
寸法
 62
     0
 48
50.0
370
    -2
100
AcDbBlockReference
  2
_DOTSMALL
 10
7400.497127903587
 20
5318.657870445171
 30
0.0
 41
100.0
 42
100.0
 43
100.0
  0
INSERT
  5
19913
330
198E4
100
AcDbEntity
  8
寸法
 62
     0
 48
50.0
370
    -2
100
AcDbBlockReference
  2
_DOTSMALL
 10
3820.497127903582
 20
5318.657870445171
 30
0.0
 41
100.0
 42
100.0
 43
100.0
 50
180.0
  0
MTEXT
  5
19914
330
198E4
100
AcDbEntity
  8
寸法
 62
     7
 48
50.0
100
AcDbMText
 10
5610.497127903585
 20
5418.657870445171
 30
0.0
 40
120.0
 41
0.0
 71
     5
 72
     1
  1
\A1;柱外寸法3580
  7
STYLE1
 73
     1
 44
1.0
1001
ACAD
1000
MTEXTBEGIN
1070
    73
1070
     1
1070
    44
1040
1.0
1070
    74
1070
     0
1000
MTEXTEND
  0
POINT
  5
19915
330
198E4
100
AcDbEntity
  8
DEFPOINTS
 62
     0
 48
50.0
100
AcDbPoint
 10
7400.497127903587
 20
4912.931598713268
 30
0.0
  0
POINT
  5
19916
330
198E4
100
AcDbEntity
  8
DEFPOINTS
 62
     0
 48
50.0
100
AcDbPoint
 10
3820.497127903582
 20
4912.931598713268
 30
0.0
  0
POINT
  5
19917
330
198E4
100
AcDbEntity
  8
DEFPOINTS
 62
     0
 48
50.0
100
AcDbPoint
 10
3820.497127903582
 20
5318.657870445171
 30
0.0
  0
ENDBLK
  5
198EF
330
198E4
100
AcDbEntity
  8
0
 48
50.0
100
AcDbBlockEnd
  0
BLOCK
  5
19ACF
330
19AC5
100
AcDbEntity
  8
0
 48
50.0
100
AcDbBlockBegin
  2
*D35
 70
     1
 10
0.0
 20
0.0
 30
0.0
  3
*D35
  1

  0
LINE
  5
19B84
330
19AC5
100
AcDbEntity
  8
寸法
 62
     0
 48
50.0
370
    -2
100
AcDbLine
 10
7420.497127903583
 20
2537.931598713262
 30
0.0
 11
7748.040230225329
 21
2537.931598713262
 31
0.0
  0
LINE
  5
19B85
330
19AC5
100
AcDbEntity
  8
寸法
 62
     0
 48
50.0
370
    -2
100
AcDbLine
 10
7420.497127903583
 20
4485.931598713261
 30
0.0
 11
7748.040230225329
 21
4485.931598713261
 31
0.0
  0
LINE
  5
19B86
330
19AC5
100
AcDbEntity
  8
寸法
 62
     0
 48
50.0
370
    -2
100
AcDbLine
 10
7688.04023022533
 20
2537.931598713262
 30
0.0
 11
7688.04023022533
 21
4485.931598713261
 31
0.0
  0
INSERT
  5
19B87
330
19AC5
100
AcDbEntity
  8
寸法
 62
     0
 48
50.0
370
    -2
100
AcDbBlockReference
  2
_DOTSMALL
 10
7688.04023022533
 20
2537.931598713262
 30
0.0
 41
100.0
 42
100.0
 43
100.0
 50
270.0
  0
INSERT
  5
19B88
330
19AC5
100
AcDbEntity
  8
寸法
 62
     0
 48
50.0
370
    -2
100
AcDbBlockReference
  2
_DOTSMALL
 10
7688.04023022533
 20
4485.931598713261
 30
0.0
 41
100.0
 42
100.0
 43
100.0
 50
90.0
  0
MTEXT
  5
19B89
330
19AC5
100
AcDbEntity
  8
寸法
 62
     7
 48
50.0
100
AcDbMText
 10
7588.040230225328
 20
3511.931598713263
 30
0.0
 40
120.0
 41
0.0
 71
     5
 72
     1
  1
\A1;有効開口部高サ 1948
  7
STYLE1
 11
0.0000000000000001
 21
1.0
 31
0.0
 73
     1
 44
1.0
1001
ACAD
1000
MTEXTBEGIN
1070
    73
1070
     1
1070
    44
1040
1.0
1070
    74
1070
     0
1000
MTEXTEND
  0
POINT
  5
19B8A
330
19AC5
100
AcDbEntity
  8
DEFPOINTS
 62
     0
 48
50.0
100
AcDbPoint
 10
7400.497127903584
 20
2537.931598713262
 30
0.0
  0
POINT
  5
19B8B
330
19AC5
100
AcDbEntity
  8
DEFPOINTS
 62
     0
 48
50.0
100
AcDbPoint
 10
7400.497127903584
 20
4485.931598713261
 30
0.0
  0
POINT
  5
19B8C
330
19AC5
100
AcDbEntity
  8
DEFPOINTS
 62
     0
 48
50.0
100
AcDbPoint
 10
7688.04023022533
 20
4485.931598713261
 30
0.0
  0
ENDBLK
  5
19AD0
330
19AC5
100
AcDbEntity
  8
0
 48
50.0
100
AcDbBlockEnd
  0
BLOCK
  5
19ADD
330
19AD1
100
AcDbEntity
  8
0
 48
50.0
100
AcDbBlockBegin
  2
*D36
 70
     1
 10
0.0
 20
0.0
 30
0.0
  3
*D36
  1

  0
LINE
  5
19C0D
330
19AD1
100
AcDbEntity
  8
寸法
 62
     0
 48
50.0
370
    -2
100
AcDbLine
 10
7420.497127903583
 20
4485.931598713261
 30
0.0
 11
7748.040230225329
 21
4485.931598713261
 31
0.0
  0
LINE
  5
19C0E
330
19AD1
100
AcDbEntity
  8
寸法
 62
     0
 48
50.0
370
    -2
100
AcDbLine
 10
7420.497127903583
 20
4512.931598713262
 30
0.0
 11
7748.040230225329
 21
4512.931598713262
 31
0.0
  0
LINE
  5
19C0F
330
19AD1
100
AcDbEntity
  8
寸法
 62
     0
 48
50.0
370
    -2
100
AcDbLine
 10
7688.04023022533
 20
4485.931598713261
 30
0.0
 11
7688.04023022533
 21
4385.931598713261
 31
0.0
  0
LINE
  5
19C10
330
19AD1
100
AcDbEntity
  8
寸法
 62
     0
 48
50.0
370
    -2
100
AcDbLine
 10
7688.04023022533
 20
4512.931598713262
 30
0.0
 11
7688.04023022533
 21
4612.931598713262
 31
0.0
  0
MTEXT
  5
19C11
330
19AD1
100
AcDbEntity
  8
寸法
 62
     7
 48
50.0
100
AcDbMText
 10
7828.210053471696
 20
4513.89879855292
 30
0.0
 40
120.0
 41
0.0
 71
     5
 72
     1
  1
\A1;27
  7
STYLE1
 11
0.0000000000000001
 21
1.0
 31
0.0
 73
     1
 44
1.0
1001
ACAD
1000
MTEXTBEGIN
1070
    73
1070
     1
1070
    44
1040
1.0
1070
    74
1070
     0
1000
MTEXTEND
  0
LINE
  5
19C12
330
19AD1
100
AcDbEntity
  8
寸法
 62
     0
 48
50.0
370
    -2
100
AcDbLine
 10
7688.04023022533
 20
4485.931598713261
 30
0.0
 11
7688.04023022533
 21
4512.931598713262
 31
0.0
  0
INSERT
  5
19C13
330
19AD1
100
AcDbEntity
  8
寸法
 62
     0
 48
50.0
370
    -2
100
AcDbBlockReference
  2
_DOTSMALL
 10
7688.04023022533
 20
4485.931598713261
 30
0.0
 41
100.0
 42
100.0
 43
100.0
 50
90.0
  0
INSERT
  5
19C14
330
19AD1
100
AcDbEntity
  8
寸法
 62
     0
 48
50.0
370
    -2
100
AcDbBlockReference
  2
_DOTSMALL
 10
7688.04023022533
 20
4512.931598713262
 30
0.0
 41
100.0
 42
100.0
 43
100.0
 50
270.0
  0
POINT
  5
19C15
330
19AD1
100
AcDbEntity
  8
DEFPOINTS
 62
     0
 48
50.0
100
AcDbPoint
 10
7400.497127903584
 20
4485.931598713261
 30
0.0
  0
POINT
  5
19C16
330
19AD1
100
AcDbEntity
  8
DEFPOINTS
 62
     0
 48
50.0
100
AcDbPoint
 10
7400.497127903584
 20
4512.931598713262
 30
0.0
  0
POINT
  5
19C17
330
19AD1
100
AcDbEntity
  8
DEFPOINTS
 62
     0
 48
50.0
100
AcDbPoint
 10
7688.04023022533
 20
4512.931598713262
 30
0.0
  0
ENDBLK
  5
19ADE
330
19AD1
100
AcDbEntity
  8
0
 48
50.0
100
AcDbBlockEnd
  0
BLOCK
  5
19AEA
330
19ADF
100
AcDbEntity
  8
0
 48
50.0
100
AcDbBlockBegin
  2
*D37
 70
     1
 10
0.0
 20
0.0
 30
0.0
  3
*D37
  1

  0
LINE
  5
19C03
330
19ADF
100
AcDbEntity
  8
寸法
 62
     0
 48
50.0
370
    -2
100
AcDbLine
 10
7420.497127903583
 20
4512.931598713262
 30
0.0
 11
7748.040230225331
 21
4512.931598713262
 31
0.0
  0
LINE
  5
19C04
330
19ADF
100
AcDbEntity
  8
寸法
 62
     0
 48
50.0
370
    -2
100
AcDbLine
 10
7420.497127903583
 20
4677.931598713261
 30
0.0
 11
7748.040230225331
 21
4677.931598713261
 31
0.0
  0
LINE
  5
19C05
330
19ADF
100
AcDbEntity
  8
寸法
 62
     0
 48
50.0
370
    -2
100
AcDbLine
 10
7688.04023022533
 20
4512.931598713262
 30
0.0
 11
7688.04023022533
 21
4677.931598713261
 31
0.0
  0
LINE
  5
19C06
330
19ADF
100
AcDbEntity
  8
寸法
 62
     0
 48
50.0
370
    -2
100
AcDbLine
 10
7688.04023022533
 20
4677.931598713261
 30
0.0
 11
7688.04023022533
 21
5054.902161461739
 31
0.0
  0
INSERT
  5
19C07
330
19ADF
100
AcDbEntity
  8
寸法
 62
     0
 48
50.0
370
    -2
100
AcDbBlockReference
  2
_DOTSMALL
 10
7688.04023022533
 20
4512.931598713262
 30
0.0
 41
100.0
 42
100.0
 43
100.0
 50
270.0
  0
INSERT
  5
19C08
330
19ADF
100
AcDbEntity
  8
寸法
 62
     0
 48
50.0
370
    -2
100
AcDbBlockReference
  2
_DOTSMALL
 10
7688.04023022533
 20
4677.931598713261
 30
0.0
 41
100.0
 42
100.0
 43
100.0
 50
90.0
  0
MTEXT
  5
19C09
330
19ADF
100
AcDbEntity
  8
寸法
 62
     7
 48
50.0
100
AcDbMText
 10
7588.04023022533
 20
4916.4168800875
 30
0.0
 40
120.0
 41
0.0
 71
     5
 72
     1
  1
\A1;165
  7
STYLE1
 11
0.0000000000000001
 21
1.0
 31
0.0
 73
     1
 44
1.0
1001
ACAD
1000
MTEXTBEGIN
1070
    73
1070
     1
1070
    44
1040
1.0
1070
    74
1070
     0
1000
MTEXTEND
  0
POINT
  5
19C0A
330
19ADF
100
AcDbEntity
  8
DEFPOINTS
 62
     0
 48
50.0
100
AcDbPoint
 10
7400.497127903584
 20
4512.931598713262
 30
0.0
  0
POINT
  5
19C0B
330
19ADF
100
AcDbEntity
  8
DEFPOINTS
 62
     0
 48
50.0
100
AcDbPoint
 10
7400.497127903584
 20
4677.931598713261
 30
0.0
  0
POINT
  5
19C0C
330
19ADF
100
AcDbEntity
  8
DEFPOINTS
 62
     0
 48
50.0
100
AcDbPoint
 10
7688.04023022533
 20
4677.931598713261
 30
0.0
  0
ENDBLK
  5
19AEB
330
19ADF
100
AcDbEntity
  8
0
 48
50.0
100
AcDbBlockEnd
  0
BLOCK
  5
19BC2
330
19BBF
100
AcDbEntity
  8
0
 48
50.0
100
AcDbBlockBegin
  2
A$C17B70E04
 70
     0
 10
0.0
 20
0.0
 30
0.0
  3
A$C17B70E04
  1

  0
LINE
  5
19BC0
330
19BBF
100
AcDbEntity
  8
破線
 48
5.0
100
AcDbLine
 10
-50.0
 20
-75.0
 30
0.0
 11
50.0
 21
-75.0
 31
0.0
  0
LINE
  5
19BC1
330
19BBF
100
AcDbEntity
  8
破線
 48
5.0
100
AcDbLine
 10
0.0
 20
0.0
 30
0.0
 11
0.0
 21
-75.0
 31
0.0
  0
ENDBLK
  5
19BC3
330
19BBF
100
AcDbEntity
  8
0
 48
50.0
100
AcDbBlockEnd
  0
ENDSEC
  0
SECTION
  2
ENTITIES
  0
MTEXT
  5
763F
330
747D
100
AcDbEntity
  8
0
100
AcDbMText
 10
302.846345836809
 20
280.1983726409901
 30
0.0
 40
3.5
 41
5.323721266742722
 71
     1
 72
     5
  1

  7
MSMINCHO
 73
     1
 44
1.0
1001
ACAD
1000
MTEXTBEGIN
1070
    73
1070
     1
1070
    44
1040
1.0
1070
    74
1070
     0
1000
MTEXTEND
  0
LINE
  5
10B57
330
747D
100
AcDbEntity
  8
補助
  6
PHANTOM
 62
   230
 48
50.0
100
AcDbLine
 10
139.9999999999995
 20
11409.6
 30
0.0
 11
16307.2
 21
11409.6
 31
0.0
  0
LINE
  5
10B59
330
747D
100
AcDbEntity
  8
仕様書枠
  6
Continuous
 48
50.0
100
AcDbLine
 10
13107.2
 20
1200.0
 30
0.0
 11
13107.2
 21
-0.0000000000000729
 31
0.0
  0
LINE
  5
10B5C
330
747D
100
AcDbEntity
  8
仕様書枠
 48
50.0
100
AcDbLine
 10
16307.2
 20
1200.0
 30
0.0
 11
16307.2
 21
-0.0000000000000909
 31
0.0
  0
LINE
  5
10B5D
330
747D
100
AcDbEntity
  8
仕様書枠
 48
50.0
100
AcDbLine
 10
140.0
 20
0.0
 30
0.0
 11
16307.2
 21
-0.0000000000000909
 31
0.0
  0
LINE
  5
10B5E
330
747D
100
AcDbEntity
  8
補助
  6
PHANTOM
 62
   230
 48
50.0
100
AcDbLine
 10
16307.2
 20
11409.6
 30
0.0
 11
16307.2
 21
1200.0
 31
0.0
  0
LINE
  5
10B6C
330
747D
100
AcDbEntity
  8
仕様書枠
 48
50.0
100
AcDbLine
 10
13107.2
 20
1200.0
 30
0.0
 11
16307.2
 21
1200.0
 31
0.0
  0
LINE
  5
10B6D
330
747D
100
AcDbEntity
  8
補助
  6
PHANTOM
 62
   230
 48
50.0
100
AcDbLine
 10
13107.2
 20
11409.6
 30
0.0
 11
13107.2
 21
4800.0
 31
0.0
  0
LINE
  5
10B6F
330
747D
100
AcDbEntity
  8
補助
  6
PHANTOM
 62
   230
 48
50.0
100
AcDbLine
 10
13107.2
 20
4800.0
 30
0.0
 11
16307.2
 21
4800.0
 31
0.0
  0
LINE
  5
10B72
330
747D
100
AcDbEntity
  8
文字
 62
     7
 48
50.0
100
AcDbLine
 10
13187.2
 20
400.0
 30
0.0
 11
16227.2
 21
400.0
 31
0.0
  0
TEXT
  5
10B73
330
747D
100
AcDbEntity
  8
文字
 62
     7
 48
50.0
100
AcDbText
 10
13162.9790565769
 20
895.0906074299405
 30
0.0
 40
200.0
  1
外 形 図
  7
STYLE2
100
AcDbText
  0
TEXT
  5
10B74
330
747D
100
AcDbEntity
  8
文字
 62
     7
 48
50.0
100
AcDbText
 10
13201.43669998441
 20
477.2740661031255
 30
0.0
 40
160.0
  1
機種名
  7
STYLE2
100
AcDbText
  0
TEXT
  5
10B75
330
747D
100
AcDbEntity
  8
文字
 62
     7
 48
50.0
100
AcDbText
 10
13209.4053442172
 20
228.5435242569016
 30
0.0
 40
100.0
  1
○有効開口寸法 ： 1584×1948(mm)
  7
STYLE2
100
AcDbText
  0
TEXT
  5
10B76
330
747D
100
AcDbEntity
  8
文字
 62
     7
 48
50.0
100
AcDbText
 10
13209.4053442172
 20
66.98032921074918
 30
0.0
 40
100.0
  1
○床面積 ： 9.42㎡(2.85坪)
  7
STYLE2
100
AcDbText
  0
TEXT
  5
10B79
330
747D
100
AcDbEntity
  8
文字
 62
     7
 48
50.0
100
AcDbText
 10
14524.131837222
 20
1031.557706291228
 30
0.0
 40
100.0
  1
NO.17      <縮尺> S=1/40
  7
STYLE2
100
AcDbText
  0
LINE
  5
10B7B
330
747D
100
AcDbEntity
  8
仕様書枠
 48
50.0
100
AcDbLine
 10
13107.2
 20
800.0
 30
0.0
 11
14251.2
 21
800.0
 31
0.0
  0
LINE
  5
10B88
330
747D
100
AcDbEntity
  8
仕様書枠
  6
Continuous
 48
50.0
100
AcDbLine
 10
14251.2
 20
1200.0
 30
0.0
 11
14251.2
 21
800.0
 31
0.0
  0
LINE
  5
127A8
330
747D
100
AcDbEntity
  8
部品1
100
AcDbLine
 10
2831.727536557201
 20
2567.835409280926
 30
0.0
 11
2981.727536557201
 21
2567.835409280926
 31
0.0
  0
LINE
  5
127A9
330
747D
100
AcDbEntity
  8
部品1
100
AcDbLine
 10
2906.7275365572
 20
2437.931598713261
 30
0.0
 11
2831.727536557201
 21
2567.835409280926
 31
0.0
  0
TEXT
  5
127AA
330
747D
100
AcDbEntity
  8
部品1
100
AcDbText
 10
3009.832478681974
 20
2474.038502319163
 30
0.0
 40
125.0
  1
G.L
  7
MSGOTHIC
100
AcDbText
  0
LINE
  5
127AB
330
747D
100
AcDbEntity
  8
部品1
100
AcDbLine
 10
2981.727536557201
 20
2567.835409280926
 30
0.0
 11
2906.7275365572
 21
2437.931598713261
 31
0.0
  0
LINE
  5
13C1F
330
747D
100
AcDbEntity
  8
部品1
100
AcDbLine
 10
3820.497127903584
 20
4771.931598713268
 30
0.0
 11
3820.497127903584
 21
2437.931598713261
 31
0.0
  0
LINE
  5
13CFC
330
747D
100
AcDbEntity
  8
部品1
100
AcDbLine
 10
7345.497127903583
 20
4512.931598713261
 30
0.0
 11
7345.497127903581
 21
2537.931598713262
 31
0.0
  0
LINE
  5
13CFE
330
747D
100
AcDbEntity
  8
部品1
100
AcDbLine
 10
3875.497127903584
 20
4512.931598713261
 30
0.0
 11
3875.497127903584
 21
2537.931598713262
 31
0.0
  0
LINE
  5
13D18
330
747D
100
AcDbEntity
  8
部品1
100
AcDbLine
 10
7400.497127903584
 20
4771.931598713268
 30
0.0
 11
7400.497127903584
 21
2437.931598713261
 31
0.0
  0
LINE
  5
146B2
330
747D
100
AcDbEntity
  8
破線
 48
5.0
100
AcDbLine
 10
7400.497127903584
 20
2437.931598713261
 30
0.0
 11
7400.497127903584
 21
2187.931598713261
 31
0.0
  0
LINE
  5
146B3
330
747D
100
AcDbEntity
  8
破線
 48
5.0
100
AcDbLine
 10
3820.497127903584
 20
2437.931598713261
 30
0.0
 11
3820.497127903582
 21
2187.931598713261
 31
0.0
  0
TEXT
  5
149A1
330
747D
100
AcDbEntity
  8
部品1
100
AcDbText
 10
5319.287198527305
 20
1595.038069494737
 30
0.0
 40
135.0
  1
正面図
  7
MSGOTHIC
100
AcDbText
  0
LWPOLYLINE
  5
149A2
330
747D
100
AcDbEntity
  8
部品1
100
AcDbPolyline
 90
        4
 70
     1
 43
0.0
 10
5228.761794789349
 20
1787.931598713262
 10
5228.761794789349
 20
1548.039277167729
 10
5992.232461017787
 20
1548.039277167729
 10
5992.232461017787
 20
1787.931598713262
  0
TEXT
  5
14E88
330
747D
100
AcDbEntity
  8
部品1
100
AcDbText
 10
5318.681404618386
 20
6295.843560181943
 30
0.0
 40
135.0
  1
平面図
  7
MSGOTHIC
100
AcDbText
  0
LWPOLYLINE
  5
14E89
330
747D
100
AcDbEntity
  8
部品1
100
AcDbPolyline
 90
        4
 70
     1
 43
0.0
 10
5228.761794789349
 20
6488.737089400466
 10
5228.761794789349
 20
6248.844767854934
 10
5992.232461017788
 20
6248.844767854934
 10
5992.232461017788
 20
6488.737089400466
  0
TEXT
  5
15550
330
747D
100
AcDbEntity
  8
文字
 62
     7
 48
50.0
100
AcDbText
 10
14659.31906557701
 20
871.9640646083623
 30
0.0
 40
100.0
  1
～一般型・多雪地型～
  7
STYLE2
100
AcDbText
  0
LINE
  5
15CE5
330
747D
100
AcDbEntity
  8
破線
 48
5.0
100
AcDbLine
 10
7345.497127903581
 20
2537.931598713262
 30
0.0
 11
7345.497127903583
 21
2187.931598713261
 31
0.0
  0
LINE
  5
15CE6
330
747D
100
AcDbEntity
  8
破線
 48
5.0
100
AcDbLine
 10
3875.497127903584
 20
2537.931598713262
 30
0.0
 11
3875.497127903582
 21
2187.931598713261
 31
0.0
  0
LINE
  5
15CE7
330
747D
100
AcDbEntity
  8
破線
 48
5.0
100
AcDbLine
 10
7400.497127903581
 20
2187.931598713261
 30
0.0
 11
7345.497127903583
 21
2187.931598713261
 31
0.0
  0
LINE
  5
15CE8
330
747D
100
AcDbEntity
  8
破線
 48
5.0
100
AcDbLine
 10
3875.497127903582
 20
2187.931598713269
 30
0.0
 11
3820.497127903582
 21
2187.931598713269
 31
0.0
  0
LINE
  5
15CE9
330
747D
100
AcDbEntity
  8
部品1
100
AcDbLine
 10
3923.497127903584
 20
4512.931598713261
 30
0.0
 11
3923.497127903584
 21
2537.931598713262
 31
0.0
  0
LINE
  5
15CEA
330
747D
100
AcDbEntity
  8
破線
 48
5.0
100
AcDbLine
 10
3923.497127903584
 20
2537.931598713262
 30
0.0
 11
3923.497127903582
 21
2287.931598713267
 31
0.0
  0
LINE
  5
15CEB
330
747D
100
AcDbEntity
  8
部品1
100
AcDbLine
 10
7297.497127903586
 20
4512.931598713262
 30
0.0
 11
7297.497127903581
 21
2537.931598713262
 31
0.0
  0
LINE
  5
15CEC
330
747D
100
AcDbEntity
  8
破線
 48
5.0
100
AcDbLine
 10
7297.497127903581
 20
2537.931598713262
 30
0.0
 11
7297.497127903584
 21
2287.931598713262
 31
0.0
  0
LINE
  5
15CED
330
747D
100
AcDbEntity
  8
破線
 48
5.0
100
AcDbLine
 10
7345.497127903586
 20
2287.931598713262
 30
0.0
 11
7297.497127903584
 21
2287.931598713262
 31
0.0
  0
LINE
  5
15CEE
330
747D
100
AcDbEntity
  8
破線
 48
5.0
100
AcDbLine
 10
3923.497127903582
 20
2287.931598713267
 30
0.0
 11
3875.497127903582
 21
2287.931598713267
 31
0.0
  0
LINE
  5
15D20
330
747D
100
AcDbEntity
  8
細線
100
AcDbLine
 10
5713.49712790358
 20
4172.931598713261
 30
0.0
 11
7297.497127903581
 21
4172.931598713261
 31
0.0
  0
LINE
  5
15D21
330
747D
100
AcDbEntity
  8
細線
100
AcDbLine
 10
5713.49712790358
 20
4237.931598713261
 30
0.0
 11
7297.497127903581
 21
4237.931598713261
 31
0.0
  0
LINE
  5
15D22
330
747D
100
AcDbEntity
  8
細線
100
AcDbLine
 10
5713.49712790358
 20
4302.931598713261
 30
0.0
 11
7297.497127903581
 21
4302.931598713261
 31
0.0
  0
LINE
  5
15D23
330
747D
100
AcDbEntity
  8
細線
100
AcDbLine
 10
5713.49712790358
 20
3782.931598713262
 30
0.0
 11
7297.497127903581
 21
3782.931598713262
 31
0.0
  0
LINE
  5
15D24
330
747D
100
AcDbEntity
  8
細線
100
AcDbLine
 10
5713.49712790358
 20
3847.931598713262
 30
0.0
 11
7297.497127903581
 21
3847.931598713262
 31
0.0
  0
LINE
  5
15D25
330
747D
100
AcDbEntity
  8
細線
100
AcDbLine
 10
5713.49712790358
 20
3912.931598713262
 30
0.0
 11
7297.497127903581
 21
3912.931598713262
 31
0.0
  0
LINE
  5
15D26
330
747D
100
AcDbEntity
  8
細線
100
AcDbLine
 10
5713.49712790358
 20
3977.931598713261
 30
0.0
 11
7297.497127903581
 21
3977.931598713261
 31
0.0
  0
LINE
  5
15D27
330
747D
100
AcDbEntity
  8
細線
100
AcDbLine
 10
5713.49712790358
 20
4042.931598713261
 30
0.0
 11
7297.497127903581
 21
4042.931598713261
 31
0.0
  0
LINE
  5
15D28
330
747D
100
AcDbEntity
  8
細線
100
AcDbLine
 10
5713.49712790358
 20
4107.931598713261
 30
0.0
 11
7297.497127903581
 21
4107.931598713261
 31
0.0
  0
LINE
  5
15D29
330
747D
100
AcDbEntity
  8
細線
100
AcDbLine
 10
5713.49712790358
 20
3132.931598713261
 30
0.0
 11
7297.497127903581
 21
3132.931598713261
 31
0.0
  0
LINE
  5
15D2A
330
747D
100
AcDbEntity
  8
細線
100
AcDbLine
 10
5713.49712790358
 20
3197.931598713262
 30
0.0
 11
7297.497127903581
 21
3197.931598713262
 31
0.0
  0
LINE
  5
15D2B
330
747D
100
AcDbEntity
  8
細線
100
AcDbLine
 10
5713.49712790358
 20
3262.931598713262
 30
0.0
 11
7297.497127903581
 21
3262.931598713262
 31
0.0
  0
LINE
  5
15D2C
330
747D
100
AcDbEntity
  8
細線
100
AcDbLine
 10
5713.49712790358
 20
3327.931598713262
 30
0.0
 11
7297.497127903581
 21
3327.931598713262
 31
0.0
  0
LINE
  5
15D2D
330
747D
100
AcDbEntity
  8
細線
100
AcDbLine
 10
5713.49712790358
 20
3392.931598713261
 30
0.0
 11
7297.497127903581
 21
3392.931598713261
 31
0.0
  0
LINE
  5
15D2E
330
747D
100
AcDbEntity
  8
細線
100
AcDbLine
 10
5713.49712790358
 20
3457.931598713262
 30
0.0
 11
7297.497127903581
 21
3457.931598713262
 31
0.0
  0
LINE
  5
15D2F
330
747D
100
AcDbEntity
  8
細線
100
AcDbLine
 10
5713.49712790358
 20
3522.931598713262
 30
0.0
 11
7297.497127903581
 21
3522.931598713262
 31
0.0
  0
LINE
  5
15D30
330
747D
100
AcDbEntity
  8
細線
100
AcDbLine
 10
5713.49712790358
 20
3587.931598713261
 30
0.0
 11
7297.497127903581
 21
3587.931598713261
 31
0.0
  0
LINE
  5
15D31
330
747D
100
AcDbEntity
  8
細線
100
AcDbLine
 10
5713.49712790358
 20
3652.931598713261
 30
0.0
 11
7297.497127903581
 21
3652.931598713261
 31
0.0
  0
LINE
  5
15D32
330
747D
100
AcDbEntity
  8
細線
100
AcDbLine
 10
5713.49712790358
 20
3717.931598713261
 30
0.0
 11
7297.497127903581
 21
3717.931598713261
 31
0.0
  0
LINE
  5
15D33
330
747D
100
AcDbEntity
  8
細線
100
AcDbLine
 10
5713.49712790358
 20
4432.931598713262
 30
0.0
 11
7297.497127903581
 21
4432.931598713262
 31
0.0
  0
LINE
  5
15D34
330
747D
100
AcDbEntity
  8
細線
100
AcDbLine
 10
5713.49712790358
 20
4497.931598713261
 30
0.0
 11
7297.497127903581
 21
4497.931598713261
 31
0.0
  0
LINE
  5
15D35
330
747D
100
AcDbEntity
  8
細線
100
AcDbLine
 10
5713.49712790358
 20
4367.931598713261
 30
0.0
 11
7297.497127903581
 21
4367.931598713261
 31
0.0
  0
LINE
  5
15D36
330
747D
100
AcDbEntity
  8
細線
100
AcDbLine
 10
5713.49712790358
 20
2547.931598713262
 30
0.0
 11
7297.497127903581
 21
2547.931598713262
 31
0.0
  0
LINE
  5
15D37
330
747D
100
AcDbEntity
  8
細線
100
AcDbLine
 10
5713.49712790358
 20
2612.931598713262
 30
0.0
 11
7297.497127903581
 21
2612.931598713262
 31
0.0
  0
LINE
  5
15D38
330
747D
100
AcDbEntity
  8
細線
100
AcDbLine
 10
5713.49712790358
 20
2677.931598713261
 30
0.0
 11
7297.497127903581
 21
2677.931598713261
 31
0.0
  0
LINE
  5
15D39
330
747D
100
AcDbEntity
  8
細線
100
AcDbLine
 10
5713.49712790358
 20
2742.931598713262
 30
0.0
 11
7297.497127903581
 21
2742.931598713262
 31
0.0
  0
LINE
  5
15D3A
330
747D
100
AcDbEntity
  8
細線
100
AcDbLine
 10
5713.49712790358
 20
2807.931598713262
 30
0.0
 11
7297.497127903581
 21
2807.931598713262
 31
0.0
  0
LINE
  5
15D3B
330
747D
100
AcDbEntity
  8
細線
100
AcDbLine
 10
5713.49712790358
 20
2872.931598713261
 30
0.0
 11
7297.497127903581
 21
2872.931598713261
 31
0.0
  0
LINE
  5
15D3C
330
747D
100
AcDbEntity
  8
細線
100
AcDbLine
 10
5713.49712790358
 20
2937.931598713261
 30
0.0
 11
7297.497127903581
 21
2937.931598713261
 31
0.0
  0
LINE
  5
15D3D
330
747D
100
AcDbEntity
  8
細線
100
AcDbLine
 10
5713.49712790358
 20
3002.931598713261
 30
0.0
 11
7297.497127903581
 21
3002.931598713261
 31
0.0
  0
LINE
  5
15D3E
330
747D
100
AcDbEntity
  8
細線
100
AcDbLine
 10
5713.49712790358
 20
3067.931598713262
 30
0.0
 11
7297.497127903581
 21
3067.931598713262
 31
0.0
  0
LINE
  5
15D3F
330
747D
100
AcDbEntity
  8
細線
100
AcDbLine
 10
7297.497127903584
 20
2547.931598713262
 30
0.0
 11
5713.497127903578
 21
2547.931598713262
 31
0.0
  0
DIMENSION
  5
162CD
330
747D
100
AcDbEntity
  8
寸法
100
AcDbDimension
  2
*D1
 10
8047.923473637997
 20
7690.962125876882
 30
0.0
 11
7947.911662614375
 21
8950.962125876891
 31
0.0
 70
    32
  1
6X420=<>
 71
     5
 42
2520.000000000015
  3
INABA_S40G
100
AcDbAlignedDimension
 13
7400.497127903591
 23
10210.96212587689
 33
0.0
 14
7400.497127903566
 24
7690.962125876882
 34
0.0
 50
90.0
100
AcDbRotatedDimension
1001
ACAD
1000
DSTYLE
1002
{
1002
}
  0
DIMENSION
  5
162CE
330
747D
100
AcDbEntity
  8
寸法
100
AcDbDimension
  2
*D2
 10
8047.923473637977
 20
7635.962125876885
 30
0.0
 11
8047.923473637975
 21
7258.100658972023
 31
0.0
 70
   160
 71
     5
 42
54.99999999999636
  3
INABA_S40G
100
AcDbAlignedDimension
 13
7400.497127903566
 23
7690.962125876882
 33
0.0
 14
7400.497127903566
 24
7635.962125876885
 34
0.0
 50
90.0
100
AcDbRotatedDimension
1001
ACAD
1000
DSTYLE
1002
{
1002
}
  0
DIMENSION
  5
162CF
330
747D
100
AcDbEntity
  8
寸法
100
AcDbDimension
  2
*D3
 10
8047.923473638
 20
10210.96212587689
 30
0.0
 11
8047.923473638
 21
10574.44740725113
 31
0.0
 70
   160
 71
     5
 42
54.99999999999636
  3
INABA_S40G
100
AcDbAlignedDimension
 13
7400.497127903591
 23
10265.96212587689
 33
0.0
 14
7400.497127903591
 24
10210.96212587689
 34
0.0
 50
90.0
100
AcDbRotatedDimension
1001
ACAD
1000
DSTYLE
1002
{
1002
}
  0
DIMENSION
  5
162D0
330
747D
100
AcDbEntity
  8
寸法
100
AcDbDimension
  2
*D4
 10
8413.030415377637
 20
7635.962125876885
 30
0.0
 11
8313.018604354011
 21
8950.962125876891
 31
0.0
 70
    32
 71
     5
 42
2630.000000000007
  3
INABA_S40G
100
AcDbAlignedDimension
 13
7400.497127903591
 23
10265.96212587689
 33
0.0
 14
7400.497127903566
 24
7635.962125876885
 34
0.0
 50
90.0
100
AcDbRotatedDimension
1001
ACAD
1000
DSTYLE
1002
{
1002
}
  0
LINE
  5
162DC
330
747D
100
AcDbEntity
  8
部品1
100
AcDbLine
 10
7372.497127903574
 20
10237.96212587689
 30
0.0
 11
7372.497127903567
 21
7690.962125876882
 31
0.0
  0
LINE
  5
162DD
330
747D
100
AcDbEntity
  8
部品1
100
AcDbLine
 10
3848.497127903566
 20
7690.962125876751
 30
0.0
 11
3848.497127903576
 21
10237.9621258768
 31
0.0
  0
LINE
  5
162DE
330
747D
100
AcDbEntity
  8
部品1
100
AcDbLine
 10
7400.497127903591
 20
10265.96212587689
 30
0.0
 11
7400.497127903566
 21
7635.962125876885
 31
0.0
  0
LINE
  5
162DF
330
747D
100
AcDbEntity
  8
部品1
100
AcDbLine
 10
3820.497127903556
 20
10265.96212587676
 30
0.0
 11
3820.497127903584
 21
7635.962125876755
 31
0.0
  0
DIMENSION
  5
162E4
330
747D
100
AcDbEntity
  8
寸法
 48
50.0
100
AcDbDimension
  2
*D5
 10
5713.497127903583
 20
7101.53135511063
 30
0.0
 11
6505.497127903574
 21
7301.53135511063
 31
0.0
 70
    32
  1
有効開口部間口\P <>
 71
     5
 42
1583.999999999982
  3
INABA_S40G
100
AcDbAlignedDimension
 13
7297.497127903565
 23
7661.962125876795
 33
0.0
 14
5713.497127903583
 24
7661.962125876794
 34
0.0
100
AcDbRotatedDimension
1001
ACAD
1000
DSTYLE
1002
{
1070
    75
1070
     1
1070
   279
1070
     2
1002
}
  0
LINE
  5
162E6
330
747D
100
AcDbEntity
  8
部品1
 48
50.0
100
AcDbLine
 10
5677.497127903582
 20
7681.462125876793
 30
0.0
 11
7333.497127903567
 21
7681.462125876793
 31
0.0
  0
DIMENSION
  5
162E7
330
747D
100
AcDbEntity
  8
寸法
100
AcDbDimension
  2
*D6
 10
7400.497127903554
 20
6655.358359519756
 30
0.0
 11
5610.497127903569
 21
6755.358359519757
 31
0.0
 70
    32
 71
     5
 42
3579.999999999972
  3
INABA_S40G
100
AcDbAlignedDimension
 13
3820.497127903584
 23
7635.962125876791
 33
0.0
 14
7400.497127903554
 24
7635.962125876885
 34
0.0
100
AcDbRotatedDimension
1001
ACAD
1000
DSTYLE
1002
{
1002
}
  0
LINE
  5
162E8
330
747D
100
AcDbEntity
  8
部品1
100
AcDbLine
 10
3875.49712790356
 20
10210.96212587681
 30
0.0
 11
3875.497127903582
 21
7700.962125876793
 31
0.0
  0
LINE
  5
162E9
330
747D
100
AcDbEntity
  8
部品1
100
AcDbLine
 10
3900.497127903562
 20
10210.96212587681
 30
0.0
 11
3900.497127903582
 21
7700.962125876793
 31
0.0
  0
DIMENSION
  5
162EA
330
747D
100
AcDbEntity
  8
寸法
 48
50.0
100
AcDbDimension
  2
*D7
 10
3820.497127903584
 20
7101.53135511063
 30
0.0
 11
3512.011846529345
 21
7101.53135511063
 31
0.0
 70
   160
 71
     5
 42
54.99999999999636
  3
INABA_S40G
100
AcDbAlignedDimension
 13
3875.49712790358
 23
7635.962125876794
 33
0.0
 14
3820.497127903584
 24
7635.962125876791
 34
0.0
100
AcDbRotatedDimension
1001
ACAD
1000
DSTYLE
1002
{
1002
}
  0
DIMENSION
  5
162EB
330
747D
100
AcDbEntity
  8
寸法
 48
50.0
100
AcDbDimension
  2
*D8
 10
5665.49712790358
 20
7101.53135511063
 30
0.0
 11
5826.399098903642
 21
7201.53135511063
 31
0.0
 70
   160
 71
     5
 42
48.00000000000363
  3
INABA_S40G
100
AcDbAlignedDimension
 13
5713.497127903583
 23
7661.962125876794
 33
0.0
 14
5665.49712790358
 24
7635.962125876794
 34
0.0
100
AcDbRotatedDimension
1001
ACAD
1000
DSTYLE
1002
{
1070
   279
1070
     2
1002
}
  0
LINE
  5
162EC
330
747D
100
AcDbEntity
  8
部品1
100
AcDbLine
 10
3875.497127903578
 20
7635.962125876794
 30
0.0
 11
3820.497127903584
 21
7635.962125876791
 31
0.0
  0
LINE
  5
162ED
330
747D
100
AcDbEntity
  8
部品1
 48
50.0
100
AcDbLine
 10
3875.497127903584
 20
7671.962125876793
 30
0.0
 11
3852.497127903584
 21
7671.962125876793
 31
0.0
  0
LINE
  5
162EE
330
747D
100
AcDbEntity
  8
部品1
 48
50.0
100
AcDbLine
 10
3885.497127903584
 20
7661.962125876794
 30
0.0
 11
3875.497127903584
 21
7640.962125876794
 31
0.0
  0
LINE
  5
162EF
330
747D
100
AcDbEntity
  8
部品1
 48
50.0
100
AcDbLine
 10
3875.497127903584
 20
7700.962125876793
 30
0.0
 11
3875.49712790358
 21
7635.962125876794
 31
0.0
  0
LINE
  5
162F0
330
747D
100
AcDbEntity
  8
部品1
 48
50.0
100
AcDbLine
 10
3923.497127903584
 20
7661.962125876795
 30
0.0
 11
3923.497127903584
 21
7670.962125876795
 31
0.0
  0
LINE
  5
162F1
330
747D
100
AcDbEntity
  8
部品1
 48
50.0
100
AcDbLine
 10
3923.497127903584
 20
7700.962125876795
 30
0.0
 11
3923.497127903584
 21
7691.962125876795
 31
0.0
  0
LINE
  5
162F2
330
747D
100
AcDbEntity
  8
部品1
100
AcDbLine
 10
3923.497127903584
 20
7700.962125876795
 30
0.0
 11
3875.497127903584
 21
7700.962125876793
 31
0.0
  0
LINE
  5
162F3
330
747D
100
AcDbEntity
  8
部品1
100
AcDbLine
 10
3923.497127903584
 20
7661.962125876795
 30
0.0
 11
3875.497127903584
 21
7661.962125876794
 31
0.0
  0
LINE
  5
162F4
330
747D
100
AcDbEntity
  8
部品1
100
AcDbLine
 10
3875.497127903582
 20
7671.962125876793
 30
0.0
 11
3852.497127903584
 21
7671.962125876793
 31
0.0
  0
LINE
  5
162F5
330
747D
100
AcDbEntity
  8
部品1
100
AcDbLine
 10
3875.497127903582
 20
7690.962125876719
 30
0.0
 11
3820.497127903582
 21
7690.962125876719
 31
0.0
  0
LINE
  5
162F6
330
747D
100
AcDbEntity
  8
部品1
100
AcDbLine
 10
3848.497127903566
 20
7690.962125876755
 30
0.0
 11
3820.497127903582
 21
7690.962125876755
 31
0.0
  0
LINE
  5
162F7
330
747D
100
AcDbEntity
  8
部品1
100
AcDbLine
 10
3848.497127903582
 20
7690.96212587677
 30
0.0
 11
3820.497127903582
 21
7690.96212587677
 31
0.0
  0
LINE
  5
162FB
330
747D
100
AcDbEntity
  8
部品1
100
AcDbLine
 10
3848.497127903571
 20
8110.962125876769
 30
0.0
 11
3820.497127903571
 21
8110.962125876769
 31
0.0
  0
LINE
  5
162FC
330
747D
100
AcDbEntity
  8
部品1
100
AcDbLine
 10
3848.497127903571
 20
8530.962125876769
 30
0.0
 11
3820.497127903571
 21
8530.962125876769
 31
0.0
  0
LINE
  5
162FE
330
747D
100
AcDbEntity
  8
部品1
100
AcDbLine
 10
3848.497127903563
 20
8950.962125876769
 30
0.0
 11
3820.497127903564
 21
8950.962125876769
 31
0.0
  0
LINE
  5
162FF
330
747D
100
AcDbEntity
  8
部品1
100
AcDbLine
 10
7345.497127903588
 20
10210.96212587681
 30
0.0
 11
7345.497127903567
 21
7635.962125876883
 31
0.0
  0
LINE
  5
16300
330
747D
100
AcDbEntity
  8
部品1
100
AcDbLine
 10
7320.497127903592
 20
10210.96212587681
 30
0.0
 11
7320.497127903568
 21
7700.962125876793
 31
0.0
  0
DIMENSION
  5
16301
330
747D
100
AcDbEntity
  8
寸法
 48
50.0
100
AcDbDimension
  2
*D9
 10
7297.497127903565
 20
7101.53135511063
 30
0.0
 11
7186.534230254818
 21
7201.53135511063
 31
0.0
 70
   160
 71
     5
 42
48.00000000000181
  3
INABA_S40G
100
AcDbAlignedDimension
 13
7345.497127903567
 23
7635.962125876883
 33
0.0
 14
7297.497127903565
 24
7661.962125876795
 34
0.0
100
AcDbRotatedDimension
1001
ACAD
1000
DSTYLE
1002
{
1070
   279
1070
     2
1002
}
  0
DIMENSION
  5
16302
330
747D
100
AcDbEntity
  8
寸法
 48
50.0
100
AcDbDimension
  2
*D10
 10
7345.497127903567
 20
7101.531355110632
 30
0.0
 11
7708.982409277803
 21
7101.531355110632
 31
0.0
 70
   160
 71
     5
 42
54.99999999999818
  3
INABA_S40G
100
AcDbAlignedDimension
 13
7400.497127903566
 23
7635.962125876885
 33
0.0
 14
7345.497127903567
 24
7635.962125876883
 34
0.0
100
AcDbRotatedDimension
1001
ACAD
1000
DSTYLE
1002
{
1002
}
  0
LINE
  5
16303
330
747D
100
AcDbEntity
  8
部品1
 48
50.0
100
AcDbLine
 10
7335.497127903565
 20
7661.962125876794
 30
0.0
 11
7345.497127903566
 21
7640.962125876794
 31
0.0
  0
LINE
  5
16304
330
747D
100
AcDbEntity
  8
部品1
100
AcDbLine
 10
7297.497127903565
 20
7700.962125876795
 30
0.0
 11
7345.497127903567
 21
7700.962125876793
 31
0.0
  0
LINE
  5
16305
330
747D
100
AcDbEntity
  8
部品1
100
AcDbLine
 10
7297.497127903565
 20
7661.962125876795
 30
0.0
 11
7345.497127903566
 21
7661.962125876794
 31
0.0
  0
LINE
  5
16306
330
747D
100
AcDbEntity
  8
部品1
 48
50.0
100
AcDbLine
 10
7297.497127903565
 20
7700.962125876795
 30
0.0
 11
7297.497127903565
 21
7691.962125876795
 31
0.0
  0
LINE
  5
16307
330
747D
100
AcDbEntity
  8
部品1
 48
50.0
100
AcDbLine
 10
7297.497127903565
 20
7661.962125876795
 30
0.0
 11
7297.497127903565
 21
7670.962125876795
 31
0.0
  0
LINE
  5
16308
330
747D
100
AcDbEntity
  8
部品1
100
AcDbLine
 10
7345.497127903566
 20
7671.962125876792
 30
0.0
 11
7368.497127903565
 21
7671.962125876793
 31
0.0
  0
LINE
  5
16309
330
747D
100
AcDbEntity
  8
部品1
100
AcDbLine
 10
7345.497127903566
 20
7690.962125876897
 30
0.0
 11
7400.497127903598
 21
7690.962125876897
 31
0.0
  0
LINE
  5
1630A
330
747D
100
AcDbEntity
  8
部品1
100
AcDbLine
 10
7400.497127903566
 20
7635.962125876885
 30
0.0
 11
7345.497127903567
 21
7635.962125876883
 31
0.0
  0
LINE
  5
16317
330
747D
100
AcDbEntity
  8
部品1
100
AcDbLine
 10
7372.497127903594
 20
8110.962125876897
 30
0.0
 11
7400.497127903594
 21
8110.962125876897
 31
0.0
  0
LINE
  5
16319
330
747D
100
AcDbEntity
  8
部品1
100
AcDbLine
 10
7372.497127903594
 20
8530.962125876897
 30
0.0
 11
7400.497127903594
 21
8530.962125876897
 31
0.0
  0
LINE
  5
1631A
330
747D
100
AcDbEntity
  8
部品1
100
AcDbLine
 10
7372.497127903591
 20
8950.962125876896
 30
0.0
 11
7400.497127903591
 21
8950.962125876896
 31
0.0
  0
LINE
  5
1631B
330
747D
100
AcDbEntity
  8
部品1
100
AcDbLine
 10
5665.49712790359
 20
10237.96212587691
 30
0.0
 11
6492.997127903588
 21
10237.96212587691
 31
0.0
  0
LINE
  5
1631C
330
747D
100
AcDbEntity
  8
部品1
100
AcDbLine
 10
5638.49712790359
 20
10237.9621258768
 30
0.0
 11
6295.49712790359
 21
10237.9621258768
 31
0.0
  0
DIMENSION
  5
1631F
330
747D
100
AcDbEntity
  8
寸法
100
AcDbDimension
  2
*D11
 10
7345.497127903591
 20
10481.77034550189
 30
0.0
 11
6505.497127903591
 21
10581.78215652552
 31
0.0
 70
    32
  1
4X420=<>
 71
     5
 42
1680.000000000001
  3
INABA_S40G
100
AcDbAlignedDimension
 13
5665.49712790359
 23
10265.9621258768
 33
0.0
 14
7345.497127903591
 24
10265.96212587689
 34
0.0
100
AcDbRotatedDimension
1001
ACAD
1000
DSTYLE
1002
{
1002
}
  0
DIMENSION
  5
16320
330
747D
100
AcDbEntity
  8
寸法
100
AcDbDimension
  2
*D12
 10
3875.49712790359
 20
10481.77034550178
 30
0.0
 11
3512.011846529316
 21
10481.77034550178
 31
0.0
 70
   160
 71
     5
 42
55.00000000003456
  3
INABA_S40G
100
AcDbAlignedDimension
 13
3820.497127903556
 23
10265.9621258768
 33
0.0
 14
3875.49712790359
 24
10265.9621258768
 34
0.0
100
AcDbRotatedDimension
1001
ACAD
1000
DSTYLE
1002
{
1002
}
  0
LINE
  5
16321
330
747D
100
AcDbEntity
  8
部品1
100
AcDbLine
 10
3875.497127903557
 20
10265.96212587676
 30
0.0
 11
3875.497127903557
 21
10237.96212587676
 31
0.0
  0
LINE
  5
16322
330
747D
100
AcDbEntity
  8
部品1
100
AcDbLine
 10
3875.497127903589
 20
10265.9621258768
 30
0.0
 11
3875.497127903589
 21
10237.9621258768
 31
0.0
  0
LINE
  5
16323
330
747D
100
AcDbEntity
  8
部品1
100
AcDbLine
 10
3848.497127903556
 20
10210.96212587677
 30
0.0
 11
3820.497127903556
 21
10210.96212587677
 31
0.0
  0
LINE
  5
16324
330
747D
100
AcDbEntity
  8
部品1
100
AcDbLine
 10
6085.49712790359
 20
10265.96212587691
 30
0.0
 11
6085.49712790359
 21
10237.96212587691
 31
0.0
  0
LINE
  5
16325
330
747D
100
AcDbEntity
  8
部品1
100
AcDbLine
 10
6085.49712790359
 20
10265.9621258768
 30
0.0
 11
6085.49712790359
 21
10237.9621258768
 31
0.0
  0
LINE
  5
16326
330
747D
100
AcDbEntity
  8
部品1
100
AcDbLine
 10
6085.49712790359
 20
10265.9621258768
 30
0.0
 11
6085.49712790359
 21
10237.9621258768
 31
0.0
  0
LINE
  5
16327
330
747D
100
AcDbEntity
  8
部品1
100
AcDbLine
 10
6517.99712790359
 20
10237.96212587691
 30
0.0
 11
7372.497127903591
 21
10237.96212587689
 31
0.0
  0
LINE
  5
1632C
330
747D
100
AcDbEntity
  8
部品1
100
AcDbLine
 10
6505.49712790359
 20
10265.96212587691
 30
0.0
 11
6505.49712790359
 21
10237.96212587691
 31
0.0
  0
LINE
  5
1632D
330
747D
100
AcDbEntity
  8
部品1
100
AcDbLine
 10
6492.997127903589
 20
10229.96212587689
 30
0.0
 11
6517.99712790359
 21
10229.9621258769
 31
0.0
  0
LINE
  5
1632E
330
747D
100
AcDbEntity
  8
部品1
100
AcDbLine
 10
6534.49712790359
 20
10255.9621258769
 30
0.0
 11
6540.497127903591
 21
10255.9621258769
 31
0.0
  0
LINE
  5
1632F
330
747D
100
AcDbEntity
  8
部品1
100
AcDbLine
 10
6540.497127903591
 20
10255.9621258769
 30
0.0
 11
6540.497127903591
 21
10237.9621258769
 31
0.0
  0
LINE
  5
16330
330
747D
100
AcDbEntity
  8
部品1
100
AcDbLine
 10
6470.49712790359
 20
10255.9621258769
 30
0.0
 11
6476.497127903591
 21
10255.9621258769
 31
0.0
  0
LINE
  5
16331
330
747D
100
AcDbEntity
  8
部品1
100
AcDbLine
 10
6470.49712790359
 20
10255.9621258769
 30
0.0
 11
6470.49712790359
 21
10237.9621258769
 31
0.0
  0
DIMENSION
  5
16333
330
747D
100
AcDbEntity
  8
寸法
100
AcDbDimension
  2
*D13
 10
7400.497127903591
 20
10481.77034550188
 30
0.0
 11
7708.982409277829
 21
10481.77034550188
 31
0.0
 70
   160
 71
     5
 42
55.0
  3
INABA_S40G
100
AcDbAlignedDimension
 13
7345.497127903591
 23
10265.96212587689
 33
0.0
 14
7400.497127903591
 24
10265.96212587689
 34
0.0
100
AcDbRotatedDimension
1001
ACAD
1000
DSTYLE
1002
{
1002
}
  0
LINE
  5
16334
330
747D
100
AcDbEntity
  8
部品1
100
AcDbLine
 10
6925.497127903589
 20
10265.96212587691
 30
0.0
 11
6925.497127903589
 21
10237.96212587691
 31
0.0
  0
LINE
  5
16335
330
747D
100
AcDbEntity
  8
部品1
100
AcDbLine
 10
7345.497127903591
 20
10265.96212587689
 30
0.0
 11
7345.497127903591
 21
10237.96212587689
 31
0.0
  0
LINE
  5
16336
330
747D
100
AcDbEntity
  8
部品1
100
AcDbLine
 10
7345.497127903591
 20
10265.96212587691
 30
0.0
 11
7345.497127903591
 21
10237.96212587691
 31
0.0
  0
LINE
  5
16337
330
747D
100
AcDbEntity
  8
部品1
100
AcDbLine
 10
7372.497127903591
 20
10210.96212587689
 30
0.0
 11
7400.497127903591
 21
10210.96212587689
 31
0.0
  0
LINE
  5
1655C
330
747D
100
AcDbEntity
  8
部品1
100
AcDbLine
 10
5507.497127903584
 20
4512.931598713262
 30
0.0
 11
5507.497127903583
 21
2537.931598713262
 31
0.0
  0
LINE
  5
1655D
330
747D
100
AcDbEntity
  8
部品1
100
AcDbLine
 10
5555.497127903584
 20
4512.931598713261
 30
0.0
 11
5555.497127903582
 21
2537.931598713262
 31
0.0
  0
LINE
  5
1655E
330
747D
100
AcDbEntity
  8
破線
 48
5.0
100
AcDbLine
 10
5507.497127903583
 20
2537.931598713262
 30
0.0
 11
5507.497127903583
 21
2287.931598713262
 31
0.0
  0
LINE
  5
1655F
330
747D
100
AcDbEntity
  8
破線
 48
5.0
100
AcDbLine
 10
5555.497127903585
 20
2287.931598713262
 30
0.0
 11
5507.497127903583
 21
2287.931598713262
 31
0.0
  0
LINE
  5
16560
330
747D
100
AcDbEntity
  8
破線
 48
5.0
100
AcDbLine
 10
5555.497127903582
 20
2537.931598713262
 30
0.0
 11
5555.497127903584
 21
2262.931598713262
 31
0.0
  0
LINE
  5
16561
330
747D
100
AcDbEntity
  8
破線
 48
5.0
100
AcDbLine
 10
5665.497127903583
 20
2262.931598713262
 30
0.0
 11
5555.497127903584
 21
2262.931598713262
 31
0.0
  0
LINE
  5
16562
330
747D
100
AcDbEntity
  8
部品1
100
AcDbLine
 10
5713.497127903583
 20
4512.931598713261
 30
0.0
 11
5713.497127903583
 21
2537.931598713262
 31
0.0
  0
LINE
  5
16563
330
747D
100
AcDbEntity
  8
破線
 48
5.0
100
AcDbLine
 10
5713.497127903583
 20
2537.931598713262
 30
0.0
 11
5713.497127903582
 21
2287.931598713267
 31
0.0
  0
LINE
  5
16564
330
747D
100
AcDbEntity
  8
破線
 48
5.0
100
AcDbLine
 10
5713.497127903583
 20
2287.931598713267
 30
0.0
 11
5665.497127903582
 21
2287.931598713267
 31
0.0
  0
LINE
  5
16565
330
747D
100
AcDbEntity
  8
破線
 48
5.0
100
AcDbLine
 10
5665.497127903583
 20
2537.931598713262
 30
0.0
 11
5665.497127903583
 21
2262.931598713262
 31
0.0
  0
LINE
  5
16566
330
747D
100
AcDbEntity
  8
部品1
100
AcDbLine
 10
5665.497127903583
 20
4512.931598713261
 30
0.0
 11
5665.497127903583
 21
2537.931598713262
 31
0.0
  0
LINE
  5
16567
330
747D
100
AcDbEntity
  8
部品1
100
AcDbLine
 10
5665.497127903583
 20
4512.931598713261
 30
0.0
 11
7400.497127903586
 21
4512.931598713261
 31
0.0
  0
DIMENSION
  5
1659A
330
747D
100
AcDbEntity
  8
寸法
 48
50.0
100
AcDbDimension
  2
*D15
 10
5507.497127903565
 20
7101.53135511063
 30
0.0
 11
5396.534230254818
 21
7201.53135511063
 31
0.0
 70
   160
 71
     5
 42
48.00000000000181
  3
INABA_S40G
100
AcDbAlignedDimension
 13
5555.497127903567
 23
7635.962125876883
 33
0.0
 14
5507.497127903565
 24
7661.962125876795
 34
0.0
100
AcDbRotatedDimension
1001
ACAD
1000
DSTYLE
1002
{
1070
   279
1070
     2
1002
}
  0
DIMENSION
  5
1659C
330
747D
100
AcDbEntity
  8
寸法
 48
50.0
100
AcDbDimension
  2
*D14
 10
3875.49712790358
 20
7101.53135511063
 30
0.0
 11
4036.399098903641
 21
7201.53135511063
 31
0.0
 70
   160
 71
     5
 42
48.00000000000363
  3
INABA_S40G
100
AcDbAlignedDimension
 13
3923.497127903584
 23
7661.962125876794
 33
0.0
 14
3875.49712790358
 24
7635.962125876794
 34
0.0
100
AcDbRotatedDimension
1001
ACAD
1000
DSTYLE
1002
{
1070
   279
1070
     2
1002
}
  0
DIMENSION
  5
165E9
330
747D
100
AcDbEntity
  8
寸法
 48
50.0
100
AcDbDimension
  2
*D16
 10
5555.497127903567
 20
7101.531355110632
 30
0.0
 11
5610.497127903574
 21
6949.839460074399
 31
0.0
 70
   160
 71
     5
 42
110.0000000000127
  3
INABA_S40G
100
AcDbAlignedDimension
 13
5665.49712790358
 23
7635.962125876794
 33
0.0
 14
5555.497127903567
 24
7635.962125876883
 34
0.0
100
AcDbRotatedDimension
1001
ACAD
1000
DSTYLE
1002
{
1070
   279
1070
     2
1002
}
  0
LINE
  5
16656
330
747D
100
AcDbEntity
  8
部品1
100
AcDbLine
 10
5507.497127903565
 20
7700.962125876795
 30
0.0
 11
5555.497127903567
 21
7700.962125876793
 31
0.0
  0
LINE
  5
16657
330
747D
100
AcDbEntity
  8
部品1
 48
50.0
100
AcDbLine
 10
5507.497127903565
 20
7700.962125876795
 30
0.0
 11
5507.497127903565
 21
7691.962125876795
 31
0.0
  0
LINE
  5
16658
330
747D
100
AcDbEntity
  8
部品1
100
AcDbLine
 10
5507.497127903565
 20
7661.962125876795
 30
0.0
 11
5555.497127903565
 21
7661.962125876794
 31
0.0
  0
LINE
  5
16659
330
747D
100
AcDbEntity
  8
部品1
 48
50.0
100
AcDbLine
 10
5507.497127903565
 20
7661.962125876795
 30
0.0
 11
5507.497127903565
 21
7670.962125876795
 31
0.0
  0
LINE
  5
1665A
330
747D
100
AcDbEntity
  8
部品1
 48
50.0
100
AcDbLine
 10
5545.497127903566
 20
7661.962125876794
 30
0.0
 11
5555.497127903565
 21
7640.962125876794
 31
0.0
  0
LINE
  5
1665B
330
747D
100
AcDbEntity
  8
部品1
100
AcDbLine
 10
5555.497127903565
 20
7671.962125876792
 30
0.0
 11
5578.497127903565
 21
7671.962125876793
 31
0.0
  0
LINE
  5
1665C
330
747D
100
AcDbEntity
  8
部品1
100
AcDbLine
 10
5713.497127903583
 20
7700.962125876795
 30
0.0
 11
5665.497127903583
 21
7700.962125876793
 31
0.0
  0
LINE
  5
1665D
330
747D
100
AcDbEntity
  8
部品1
 48
50.0
100
AcDbLine
 10
5713.497127903583
 20
7700.962125876795
 30
0.0
 11
5713.497127903583
 21
7691.962125876795
 31
0.0
  0
LINE
  5
1665E
330
747D
100
AcDbEntity
  8
部品1
100
AcDbLine
 10
5713.497127903583
 20
7661.962125876795
 30
0.0
 11
5665.497127903583
 21
7661.962125876794
 31
0.0
  0
LINE
  5
1665F
330
747D
100
AcDbEntity
  8
部品1
 48
50.0
100
AcDbLine
 10
5675.497127903583
 20
7661.962125876794
 30
0.0
 11
5665.497127903583
 21
7640.962125876794
 31
0.0
  0
LINE
  5
16660
330
747D
100
AcDbEntity
  8
部品1
100
AcDbLine
 10
5665.497127903583
 20
7671.962125876793
 30
0.0
 11
5642.497127903584
 21
7671.962125876793
 31
0.0
  0
LINE
  5
16661
330
747D
100
AcDbEntity
  8
部品1
 48
50.0
100
AcDbLine
 10
5665.497127903583
 20
7700.962125876793
 30
0.0
 11
5665.49712790358
 21
7635.962125876794
 31
0.0
  0
LINE
  5
16662
330
747D
100
AcDbEntity
  8
部品1
 48
50.0
100
AcDbLine
 10
5713.497127903583
 20
7661.962125876795
 30
0.0
 11
5713.497127903583
 21
7670.962125876795
 31
0.0
  0
LINE
  5
16663
330
747D
100
AcDbEntity
  8
部品1
100
AcDbLine
 10
5665.497127903579
 20
7635.962125876794
 30
0.0
 11
5555.497127903569
 21
7635.962125876789
 31
0.0
  0
LINE
  5
16664
330
747D
100
AcDbEntity
  8
部品1
 48
50.0
100
AcDbLine
 10
5555.497127903572
 20
7700.962125876881
 30
0.0
 11
5555.497127903568
 21
7635.962125876883
 31
0.0
  0
LINE
  5
16666
330
747D
100
AcDbEntity
  8
部品1
100
AcDbLine
 10
5665.49712790359
 20
10265.9621258768
 30
0.0
 11
5665.49712790359
 21
10237.9621258768
 31
0.0
  0
LINE
  5
16692
330
747D
100
AcDbEntity
  8
部品1
100
AcDbLine
 10
5555.497127903591
 20
10265.96212587689
 30
0.0
 11
5555.497127903591
 21
10237.96212587689
 31
0.0
  0
DIMENSION
  5
166DD
330
747D
100
AcDbEntity
  8
寸法
 48
50.0
100
AcDbDimension
  2
*D17
 10
5555.497127903591
 20
10481.77034550189
 30
0.0
 11
5610.497127903591
 21
10581.77034550189
 31
0.0
 70
    32
 71
     5
 42
109.9999999999991
  3
INABA_S40G
100
AcDbAlignedDimension
 13
5665.49712790359
 23
10265.96212587685
 33
0.0
 14
5555.497127903591
 24
10265.96212587684
 34
0.0
100
AcDbRotatedDimension
1001
ACAD
1000
DSTYLE
1002
{
1070
   279
1070
     2
1002
}
  0
LINE
  5
16760
330
747D
100
AcDbEntity
  8
部品1
 48
50.0
100
AcDbLine
 10
5610.497127903556
 20
10237.96212587684
 30
0.0
 11
5582.497127903558
 21
10265.96212587689
 31
0.0
  0
LINE
  5
16761
330
747D
100
AcDbEntity
  8
部品1
100
AcDbLine
 10
7345.497127903586
 20
10210.96212587681
 30
0.0
 11
5665.49712790357
 21
10210.96212587681
 31
0.0
  0
LINE
  5
16762
330
747D
100
AcDbEntity
  8
部品1
 48
50.0
100
AcDbLine
 10
5582.497127903558
 20
10237.96212587694
 30
0.0
 11
5582.497127903558
 21
10265.96212587689
 31
0.0
  0
LINE
  5
16763
330
747D
100
AcDbEntity
  8
部品1
 48
50.0
100
AcDbLine
 10
5582.497127903558
 20
10237.96212587684
 30
0.0
 11
5610.497127903556
 21
10237.96212587684
 31
0.0
  0
LINE
  5
168C3
330
747D
100
AcDbEntity
  8
部品1
100
AcDbLine
 10
5634.497127903575
 20
7690.96212587679
 30
0.0
 11
5586.497127903573
 21
7690.96212587679
 31
0.0
  0
LINE
  5
168C4
330
747D
100
AcDbEntity
  8
部品1
 48
50.0
100
AcDbLine
 10
5586.497127903574
 20
7690.962125876791
 30
0.0
 11
5586.497127903577
 21
7635.962125876791
 31
0.0
  0
LINE
  5
168C5
330
747D
100
AcDbEntity
  8
部品1
 48
50.0
100
AcDbLine
 10
5634.497127903575
 20
7690.962125876791
 30
0.0
 11
5634.497127903578
 21
7635.962125876791
 31
0.0
  0
DIMENSION
  5
16913
330
747D
100
AcDbEntity
  8
寸法
 48
50.0
100
AcDbDimension
  2
*D18
 10
7400.497127903591
 20
10731.09181905819
 30
0.0
 11
6505.497127903591
 21
10831.09181905819
 31
0.0
 70
    32
 71
     5
 42
1790.0
  3
INABA_S40G
100
AcDbAlignedDimension
 13
5610.497127903591
 23
10640.75825985984
 33
0.0
 14
7400.497127903591
 24
10265.96212587689
 34
0.0
100
AcDbRotatedDimension
1001
ACAD
1000
DSTYLE
1002
{
1070
    75
1070
     1
1070
   279
1070
     2
1002
}
  0
LINE
  5
172BC
330
747D
100
AcDbEntity
  8
部品1
 48
50.0
100
AcDbLine
 10
5638.497127903558
 20
10210.96212587681
 30
0.0
 11
5638.497127903623
 21
10265.96212587684
 31
0.0
  0
LINE
  5
172BD
330
747D
100
AcDbEntity
  8
部品1
 48
50.0
100
AcDbLine
 10
5582.497127903558
 20
10210.96212587681
 30
0.0
 11
5582.497127903558
 21
10237.96212587684
 31
0.0
  0
LINE
  5
174C8
330
747D
100
AcDbEntity
  8
部品1
 48
50.0
100
AcDbLine
 10
7320.497127903592
 20
10185.96212587677
 30
0.0
 11
5690.497127903544
 21
10185.96212587674
 31
0.0
  0
LINE
  5
174C9
330
747D
100
AcDbEntity
  8
部品1
 48
50.0
100
AcDbLine
 10
7372.497127903591
 20
10237.96212587689
 30
0.0
 11
7345.497127903586
 21
10210.96212587681
 31
0.0
  0
LINE
  5
174CA
330
747D
100
AcDbEntity
  8
部品1
 48
50.0
100
AcDbLine
 10
3875.49712790356
 20
10210.96212587681
 30
0.0
 11
3848.497127903576
 21
10237.96212587691
 31
0.0
  0
LINE
  5
174CB
330
747D
100
AcDbEntity
  8
部品1
 48
50.0
100
AcDbLine
 10
6492.997127903589
 20
10229.96212587689
 30
0.0
 11
6492.997127903589
 21
10237.96212587691
 31
0.0
  0
LINE
  5
174CC
330
747D
100
AcDbEntity
  8
部品1
 48
50.0
100
AcDbLine
 10
6517.99712790359
 20
10229.9621258769
 30
0.0
 11
6517.99712790359
 21
10237.96212587691
 31
0.0
  0
LINE
  5
17B10
330
747D
100
AcDbEntity
  8
細線
100
AcDbLine
 10
5507.497127903583
 20
2547.931598713262
 30
0.0
 11
3923.497127903578
 21
2547.931598713262
 31
0.0
  0
LINE
  5
17B1E
330
747D
100
AcDbEntity
  8
細線
100
AcDbLine
 10
3923.49712790358
 20
4172.931598713261
 30
0.0
 11
5507.497127903582
 21
4172.931598713261
 31
0.0
  0
LINE
  5
17B1F
330
747D
100
AcDbEntity
  8
細線
100
AcDbLine
 10
3923.49712790358
 20
4237.931598713261
 30
0.0
 11
5507.497127903582
 21
4237.931598713261
 31
0.0
  0
LINE
  5
17B20
330
747D
100
AcDbEntity
  8
細線
100
AcDbLine
 10
3923.49712790358
 20
4302.931598713261
 30
0.0
 11
5507.497127903582
 21
4302.931598713261
 31
0.0
  0
LINE
  5
17B21
330
747D
100
AcDbEntity
  8
細線
100
AcDbLine
 10
3923.49712790358
 20
3782.931598713262
 30
0.0
 11
5507.497127903582
 21
3782.931598713262
 31
0.0
  0
LINE
  5
17B22
330
747D
100
AcDbEntity
  8
細線
100
AcDbLine
 10
3923.49712790358
 20
3847.931598713262
 30
0.0
 11
5507.497127903582
 21
3847.931598713262
 31
0.0
  0
LINE
  5
17B23
330
747D
100
AcDbEntity
  8
細線
100
AcDbLine
 10
3923.49712790358
 20
3912.931598713262
 30
0.0
 11
5507.497127903582
 21
3912.931598713262
 31
0.0
  0
LINE
  5
17B24
330
747D
100
AcDbEntity
  8
細線
100
AcDbLine
 10
3923.49712790358
 20
3977.931598713262
 30
0.0
 11
5507.497127903582
 21
3977.931598713262
 31
0.0
  0
LINE
  5
17B25
330
747D
100
AcDbEntity
  8
細線
100
AcDbLine
 10
3923.49712790358
 20
4042.931598713262
 30
0.0
 11
5507.497127903582
 21
4042.931598713262
 31
0.0
  0
LINE
  5
17B26
330
747D
100
AcDbEntity
  8
細線
100
AcDbLine
 10
3923.49712790358
 20
4107.931598713261
 30
0.0
 11
5507.497127903582
 21
4107.931598713261
 31
0.0
  0
LINE
  5
17B27
330
747D
100
AcDbEntity
  8
細線
100
AcDbLine
 10
3923.49712790358
 20
3132.931598713262
 30
0.0
 11
5507.497127903582
 21
3132.931598713262
 31
0.0
  0
LINE
  5
17B28
330
747D
100
AcDbEntity
  8
細線
100
AcDbLine
 10
3923.49712790358
 20
3197.931598713262
 30
0.0
 11
5507.497127903582
 21
3197.931598713262
 31
0.0
  0
LINE
  5
17B29
330
747D
100
AcDbEntity
  8
細線
100
AcDbLine
 10
3923.49712790358
 20
3262.931598713262
 30
0.0
 11
5507.497127903582
 21
3262.931598713262
 31
0.0
  0
LINE
  5
17B2A
330
747D
100
AcDbEntity
  8
細線
100
AcDbLine
 10
3923.49712790358
 20
3327.931598713262
 30
0.0
 11
5507.497127903582
 21
3327.931598713262
 31
0.0
  0
LINE
  5
17B2B
330
747D
100
AcDbEntity
  8
細線
100
AcDbLine
 10
3923.49712790358
 20
3392.931598713262
 30
0.0
 11
5507.497127903582
 21
3392.931598713262
 31
0.0
  0
LINE
  5
17B2C
330
747D
100
AcDbEntity
  8
細線
100
AcDbLine
 10
3923.49712790358
 20
3457.931598713262
 30
0.0
 11
5507.497127903582
 21
3457.931598713262
 31
0.0
  0
LINE
  5
17B2D
330
747D
100
AcDbEntity
  8
細線
100
AcDbLine
 10
3923.49712790358
 20
3522.931598713262
 30
0.0
 11
5507.497127903582
 21
3522.931598713262
 31
0.0
  0
LINE
  5
17B2E
330
747D
100
AcDbEntity
  8
細線
100
AcDbLine
 10
3923.49712790358
 20
3587.931598713262
 30
0.0
 11
5507.497127903582
 21
3587.931598713262
 31
0.0
  0
LINE
  5
17B2F
330
747D
100
AcDbEntity
  8
細線
100
AcDbLine
 10
3923.49712790358
 20
3652.931598713262
 30
0.0
 11
5507.497127903582
 21
3652.931598713262
 31
0.0
  0
LINE
  5
17B30
330
747D
100
AcDbEntity
  8
細線
100
AcDbLine
 10
3923.49712790358
 20
3717.931598713262
 30
0.0
 11
5507.497127903582
 21
3717.931598713262
 31
0.0
  0
LINE
  5
17B31
330
747D
100
AcDbEntity
  8
細線
100
AcDbLine
 10
3923.49712790358
 20
4432.931598713262
 30
0.0
 11
5507.497127903582
 21
4432.931598713262
 31
0.0
  0
LINE
  5
17B32
330
747D
100
AcDbEntity
  8
細線
100
AcDbLine
 10
3923.49712790358
 20
4367.931598713261
 30
0.0
 11
5507.497127903582
 21
4367.931598713261
 31
0.0
  0
LINE
  5
17B33
330
747D
100
AcDbEntity
  8
細線
100
AcDbLine
 10
3923.49712790358
 20
2612.931598713262
 30
0.0
 11
5507.497127903582
 21
2612.931598713262
 31
0.0
  0
LINE
  5
17B34
330
747D
100
AcDbEntity
  8
細線
100
AcDbLine
 10
3923.49712790358
 20
2677.931598713262
 30
0.0
 11
5507.497127903582
 21
2677.931598713262
 31
0.0
  0
LINE
  5
17B35
330
747D
100
AcDbEntity
  8
細線
100
AcDbLine
 10
3923.49712790358
 20
2742.931598713262
 30
0.0
 11
5507.497127903582
 21
2742.931598713262
 31
0.0
  0
LINE
  5
17B36
330
747D
100
AcDbEntity
  8
細線
100
AcDbLine
 10
3923.49712790358
 20
2807.931598713262
 30
0.0
 11
5507.497127903582
 21
2807.931598713262
 31
0.0
  0
LINE
  5
17B37
330
747D
100
AcDbEntity
  8
細線
100
AcDbLine
 10
3923.49712790358
 20
2872.931598713262
 30
0.0
 11
5507.497127903582
 21
2872.931598713262
 31
0.0
  0
LINE
  5
17B38
330
747D
100
AcDbEntity
  8
細線
100
AcDbLine
 10
3923.49712790358
 20
2937.931598713262
 30
0.0
 11
5507.497127903582
 21
2937.931598713262
 31
0.0
  0
LINE
  5
17B39
330
747D
100
AcDbEntity
  8
細線
100
AcDbLine
 10
3923.49712790358
 20
3002.931598713262
 30
0.0
 11
5507.497127903582
 21
3002.931598713262
 31
0.0
  0
LINE
  5
17B3A
330
747D
100
AcDbEntity
  8
細線
100
AcDbLine
 10
3923.49712790358
 20
3067.931598713262
 30
0.0
 11
5507.497127903582
 21
3067.931598713262
 31
0.0
  0
LINE
  5
17B3D
330
747D
100
AcDbEntity
  8
細線
100
AcDbLine
 10
3923.49712790358
 20
4497.931598713261
 30
0.0
 11
5507.497127903582
 21
4497.931598713261
 31
0.0
  0
LINE
  5
17B5A
330
747D
100
AcDbEntity
  8
部品1
100
AcDbLine
 10
3820.497127903584
 20
4512.931598713261
 30
0.0
 11
5665.497127903584
 21
4512.931598713261
 31
0.0
  0
DIMENSION
  5
17B86
330
747D
100
AcDbEntity
  8
寸法
 48
50.0
100
AcDbDimension
  2
*D21
 10
5610.497127903591
 20
10731.09181905819
 30
0.0
 11
4715.497127903573
 21
10831.09181905819
 31
0.0
 70
    32
 71
     5
 42
1790.000000000035
  3
INABA_S40G
100
AcDbAlignedDimension
 13
3820.497127903556
 23
10265.96212587676
 33
0.0
 14
5610.497127903591
 24
10640.75825985984
 34
0.0
100
AcDbRotatedDimension
1001
ACAD
1000
DSTYLE
1002
{
1070
   279
1070
     2
1002
}
  0
DIMENSION
  5
17B87
330
747D
100
AcDbEntity
  8
寸法
100
AcDbDimension
  2
*D20
 10
5555.497127903591
 20
10481.77034550189
 30
0.0
 11
4715.497127903591
 21
10581.78215652552
 31
0.0
 70
    32
  1
4X420=<>
 71
     5
 42
1680.000000000001
  3
INABA_S40G
100
AcDbAlignedDimension
 13
3875.49712790359
 23
10265.9621258768
 33
0.0
 14
5555.497127903591
 24
10265.96212587689
 34
0.0
100
AcDbRotatedDimension
1001
ACAD
1000
DSTYLE
1002
{
1002
}
  0
LINE
  5
17B8B
330
747D
100
AcDbEntity
  8
部品1
 48
50.0
100
AcDbLine
 10
5530.497127903561
 20
10185.96212587672
 30
0.0
 11
3900.49712790356
 21
10185.96212587672
 31
0.0
  0
LINE
  5
17B98
330
747D
100
AcDbEntity
  8
部品1
 48
50.0
100
AcDbLine
 10
4727.997127903589
 20
10229.9621258769
 30
0.0
 11
4727.997127903589
 21
10237.96212587691
 31
0.0
  0
LINE
  5
17B99
330
747D
100
AcDbEntity
  8
部品1
 48
50.0
100
AcDbLine
 10
4702.997127903588
 20
10229.96212587689
 30
0.0
 11
4702.997127903588
 21
10237.96212587691
 31
0.0
  0
LINE
  5
17BA3
330
747D
100
AcDbEntity
  8
部品1
100
AcDbLine
 10
5135.497127903589
 20
10265.96212587691
 30
0.0
 11
5135.497127903589
 21
10237.96212587691
 31
0.0
  0
LINE
  5
17BA4
330
747D
100
AcDbEntity
  8
部品1
100
AcDbLine
 10
4295.497127903589
 20
10265.9621258768
 30
0.0
 11
4295.497127903589
 21
10237.9621258768
 31
0.0
  0
LINE
  5
17BA5
330
747D
100
AcDbEntity
  8
部品1
100
AcDbLine
 10
4295.497127903589
 20
10265.9621258768
 30
0.0
 11
4295.497127903589
 21
10237.9621258768
 31
0.0
  0
LINE
  5
17BA6
330
747D
100
AcDbEntity
  8
部品1
100
AcDbLine
 10
4295.497127903589
 20
10265.96212587691
 30
0.0
 11
4295.497127903589
 21
10237.96212587691
 31
0.0
  0
LINE
  5
17BA7
330
747D
100
AcDbEntity
  8
部品1
100
AcDbLine
 10
4295.497127903589
 20
10265.9621258768
 30
0.0
 11
4295.497127903589
 21
10237.9621258768
 31
0.0
  0
LINE
  5
17BA8
330
747D
100
AcDbEntity
  8
部品1
100
AcDbLine
 10
4295.497127903589
 20
10265.9621258768
 30
0.0
 11
4295.497127903589
 21
10237.9621258768
 31
0.0
  0
LINE
  5
17BA9
330
747D
100
AcDbEntity
  8
部品1
100
AcDbLine
 10
4295.497127903589
 20
10265.96212587691
 30
0.0
 11
4295.497127903589
 21
10237.96212587691
 31
0.0
  0
LINE
  5
17BAA
330
747D
100
AcDbEntity
  8
部品1
100
AcDbLine
 10
3848.497127903576
 20
10237.96212587691
 30
0.0
 11
4702.997127903588
 21
10237.96212587691
 31
0.0
  0
LINE
  5
17BAB
330
747D
100
AcDbEntity
  8
部品1
100
AcDbLine
 10
4727.997127903589
 20
10237.96212587691
 30
0.0
 11
5582.49712790359
 21
10237.96212587689
 31
0.0
  0
LINE
  5
17BAC
330
747D
100
AcDbEntity
  8
部品1
100
AcDbLine
 10
4680.497127903588
 20
10255.9621258769
 30
0.0
 11
4680.497127903588
 21
10237.9621258769
 31
0.0
  0
LINE
  5
17BAD
330
747D
100
AcDbEntity
  8
部品1
100
AcDbLine
 10
4680.497127903588
 20
10255.9621258769
 30
0.0
 11
4686.497127903589
 21
10255.9621258769
 31
0.0
  0
LINE
  5
17BAE
330
747D
100
AcDbEntity
  8
部品1
100
AcDbLine
 10
4750.497127903589
 20
10255.9621258769
 30
0.0
 11
4750.497127903589
 21
10237.9621258769
 31
0.0
  0
LINE
  5
17BAF
330
747D
100
AcDbEntity
  8
部品1
100
AcDbLine
 10
4744.497127903589
 20
10255.9621258769
 30
0.0
 11
4750.497127903589
 21
10255.9621258769
 31
0.0
  0
LINE
  5
17BB0
330
747D
100
AcDbEntity
  8
部品1
100
AcDbLine
 10
4702.997127903588
 20
10229.96212587689
 30
0.0
 11
4727.997127903589
 21
10229.9621258769
 31
0.0
  0
LINE
  5
17BB1
330
747D
100
AcDbEntity
  8
部品1
100
AcDbLine
 10
4715.497127903589
 20
10265.96212587691
 30
0.0
 11
4715.497127903589
 21
10237.96212587691
 31
0.0
  0
LINE
  5
17BC2
330
747D
100
AcDbEntity
  8
部品1
 48
50.0
100
AcDbLine
 10
3887.497127903582
 20
7681.462125876793
 30
0.0
 11
5543.497127903567
 21
7681.462125876793
 31
0.0
  0
DIMENSION
  5
17BC3
330
747D
100
AcDbEntity
  8
寸法
 48
50.0
100
AcDbDimension
  2
*D19
 10
3923.497127903584
 20
7101.53135511063
 30
0.0
 11
4715.497127903574
 21
7301.53135511063
 31
0.0
 70
    32
  1
有効開口部間口\P <>
 71
     5
 42
1583.999999999982
  3
INABA_S40G
100
AcDbAlignedDimension
 13
5507.497127903565
 23
7661.962125876795
 33
0.0
 14
3923.497127903584
 24
7661.962125876794
 34
0.0
100
AcDbRotatedDimension
1001
ACAD
1000
DSTYLE
1002
{
1070
    75
1070
     1
1070
   279
1070
     2
1002
}
  0
LINE
  5
17D0F
330
747D
100
AcDbEntity
  8
部品1
100
AcDbLine
 10
7372.497127903582
 20
9790.962125876887
 30
0.0
 11
7400.497127903581
 21
9790.962125876887
 31
0.0
  0
LINE
  5
17D10
330
747D
100
AcDbEntity
  8
部品1
100
AcDbLine
 10
7372.497127903585
 20
9370.962125876888
 30
0.0
 11
7400.497127903586
 21
9370.962125876888
 31
0.0
  0
LINE
  5
17D11
330
747D
100
AcDbEntity
  8
部品1
100
AcDbLine
 10
3848.497127903556
 20
9790.96212587676
 30
0.0
 11
3820.497127903556
 21
9790.96212587676
 31
0.0
  0
LINE
  5
17D12
330
747D
100
AcDbEntity
  8
部品1
100
AcDbLine
 10
3848.49712790356
 20
9370.96212587676
 30
0.0
 11
3820.49712790356
 21
9370.96212587676
 31
0.0
  0
LINE
  5
180FF
330
747D
100
AcDbEntity
  8
部品1
100
AcDbLine
 10
3820.497127903584
 20
2537.931598713262
 30
0.0
 11
7400.497127903584
 21
2537.931598713262
 31
0.0
  0
LINE
  5
18100
330
747D
100
AcDbEntity
  8
Ｇ．Ｌ
100
AcDbLine
 10
2732.230525233101
 20
2437.931598713261
 30
0.0
 11
13647.12949617643
 21
2437.931598713261
 31
0.0
  0
LINE
  5
18105
330
747D
100
AcDbEntity
  8
部品1
100
AcDbLine
 10
3820.497127903556
 20
10265.96212587676
 30
0.0
 11
7400.497127903591
 21
10265.96212587689
 31
0.0
  0
LINE
  5
18106
330
747D
100
AcDbEntity
  8
寸法
 48
50.0
100
AcDbLine
 10
5610.387428013062
 20
10658.2345568428
 30
0.0
 11
5610.387428013062
 21
10797.38568445075
 31
0.0
  0
LINE
  5
18161
330
747D
100
AcDbEntity
  8
部品1
100
AcDbLine
 10
5610.497127903577
 20
10210.96212587676
 30
0.0
 11
5610.497127903549
 21
7690.962125876737
 31
0.0
  0
LINE
  5
18162
330
747D
100
AcDbEntity
  8
部品1
100
AcDbLine
 10
5638.497127903536
 20
7635.962125876742
 30
0.0
 11
5638.497127903559
 21
10265.96212587679
 31
0.0
  0
LINE
  5
18163
330
747D
100
AcDbEntity
  8
部品1
 48
10.0
100
AcDbLine
 10
5690.497127903591
 20
7700.962125876742
 30
0.0
 11
5690.497127903544
 21
10210.96212587676
 31
0.0
  0
LINE
  5
18164
330
747D
100
AcDbEntity
  8
部品1
100
AcDbLine
 10
5665.497127903596
 20
7700.962125876742
 30
0.0
 11
5665.497127903569
 21
10210.96212587674
 31
0.0
  0
LINE
  5
18165
330
747D
100
AcDbEntity
  8
部品1
100
AcDbLine
 10
5582.497127903558
 20
10237.96212587684
 30
0.0
 11
5582.497127903542
 21
7635.962125876736
 31
0.0
  0
LINE
  5
18166
330
747D
100
AcDbEntity
  8
部品1
 48
10.0
100
AcDbLine
 10
5530.497127903585
 20
7700.962125876742
 30
0.0
 11
5530.49712790356
 21
10210.96212587674
 31
0.0
  0
LINE
  5
18167
330
747D
100
AcDbEntity
  8
部品1
100
AcDbLine
 10
5555.497127903576
 20
7700.962125876742
 30
0.0
 11
5555.497127903569
 21
10210.96212587674
 31
0.0
  0
LINE
  5
18168
330
747D
100
AcDbEntity
  8
部品1
100
AcDbLine
 10
5582.497127903578
 20
8950.962125876843
 30
0.0
 11
5610.497127903578
 21
8950.962125876843
 31
0.0
  0
LINE
  5
18169
330
747D
100
AcDbEntity
  8
部品1
100
AcDbLine
 10
5582.497127903578
 20
9370.962125876843
 30
0.0
 11
5610.497127903578
 21
9370.962125876843
 31
0.0
  0
LINE
  5
1816A
330
747D
100
AcDbEntity
  8
部品1
100
AcDbLine
 10
5582.497127903578
 20
9790.962125876845
 30
0.0
 11
5610.497127903578
 21
9790.962125876845
 31
0.0
  0
LINE
  5
1816B
330
747D
100
AcDbEntity
  8
部品1
 48
50.0
100
AcDbLine
 10
5638.497127903611
 20
10237.96212587665
 30
0.0
 11
5665.497127903599
 21
10210.96212587666
 31
0.0
  0
LINE
  5
1816C
330
747D
100
AcDbEntity
  8
部品1
 48
50.0
100
AcDbLine
 10
5582.497127903625
 20
10237.96212587674
 30
0.0
 11
5555.497127903621
 21
10210.96212587674
 31
0.0
  0
LINE
  5
1816F
330
747D
100
AcDbEntity
  8
部品1
100
AcDbLine
 10
5555.497127903569
 20
10210.96212587681
 30
0.0
 11
3875.49712790356
 21
10210.96212587681
 31
0.0
  0
LINE
  5
18170
330
747D
100
AcDbEntity
  8
部品1
100
AcDbLine
 10
5638.497127903558
 20
10210.96212587681
 30
0.0
 11
5582.497127903558
 21
10210.96212587681
 31
0.0
  0
LINE
  5
18171
330
747D
100
AcDbEntity
  8
部品1
100
AcDbLine
 10
5582.497127903584
 20
8530.962125876845
 30
0.0
 11
5610.497127903585
 21
8530.962125876845
 31
0.0
  0
LINE
  5
18172
330
747D
100
AcDbEntity
  8
部品1
100
AcDbLine
 10
5582.497127903584
 20
8110.962125876843
 30
0.0
 11
5610.497127903585
 21
8110.962125876843
 31
0.0
  0
CIRCLE
  5
1834F
330
747D
100
AcDbEntity
  8
細線
 48
50.0
100
AcDbCircle
 10
6505.497127903577
 20
3425.431598713262
 30
0.0
 40
18.0
  0
ARC
  5
18350
330
747D
100
AcDbEntity
  8
細線
 48
50.0
100
AcDbCircle
 10
6805.497127903577
 20
3100.431598713262
 30
0.0
 40
15.0
100
AcDbArc
 50
270.0
 51
90.0
  0
ARC
  5
18351
330
747D
100
AcDbEntity
  8
細線
 48
50.0
100
AcDbCircle
 10
6705.497127903576
 20
3100.431598713262
 30
0.0
 40
15.0
100
AcDbArc
 50
90.0
 51
270.0
  0
LINE
  5
18352
330
747D
100
AcDbEntity
  8
細線
 48
50.0
100
AcDbLine
 10
6705.497127903576
 20
3115.431598713261
 30
0.0
 11
6805.497127903577
 21
3115.431598713261
 31
0.0
  0
LINE
  5
18353
330
747D
100
AcDbEntity
  8
細線
 48
50.0
100
AcDbLine
 10
6805.497127903577
 20
3085.431598713262
 30
0.0
 11
6705.497127903576
 21
3085.431598713262
 31
0.0
  0
LINE
  5
18354
330
747D
100
AcDbEntity
  8
細線
 48
50.0
100
AcDbLine
 10
6305.497127903578
 20
3085.431598713262
 30
0.0
 11
6205.497127903577
 21
3085.431598713262
 31
0.0
  0
LINE
  5
18355
330
747D
100
AcDbEntity
  8
細線
 48
50.0
100
AcDbLine
 10
6205.497127903577
 20
3115.431598713261
 30
0.0
 11
6305.497127903578
 21
3115.431598713261
 31
0.0
  0
ARC
  5
18356
330
747D
100
AcDbEntity
  8
細線
 48
50.0
100
AcDbCircle
 10
6305.497127903578
 20
3100.431598713262
 30
0.0
 40
15.0
100
AcDbArc
 50
270.0
 51
90.0
  0
ARC
  5
18357
330
747D
100
AcDbEntity
  8
細線
 48
50.0
100
AcDbCircle
 10
6205.497127903577
 20
3100.431598713262
 30
0.0
 40
15.0
100
AcDbArc
 50
90.0
 51
270.0
  0
ARC
  5
18792
330
747D
100
AcDbEntity
  8
細線
 48
50.0
100
AcDbCircle
 10
4415.497127903578
 20
3100.431598713262
 30
0.0
 40
15.0
100
AcDbArc
 50
90.0
 51
270.0
  0
ARC
  5
18793
330
747D
100
AcDbEntity
  8
細線
 48
50.0
100
AcDbCircle
 10
4515.497127903578
 20
3100.431598713262
 30
0.0
 40
15.0
100
AcDbArc
 50
270.0
 51
90.0
  0
LINE
  5
18794
330
747D
100
AcDbEntity
  8
細線
 48
50.0
100
AcDbLine
 10
4415.497127903578
 20
3115.431598713261
 30
0.0
 11
4515.497127903578
 21
3115.431598713261
 31
0.0
  0
LINE
  5
18795
330
747D
100
AcDbEntity
  8
細線
 48
50.0
100
AcDbLine
 10
4515.497127903578
 20
3085.431598713262
 30
0.0
 11
4415.497127903578
 21
3085.431598713262
 31
0.0
  0
LINE
  5
18796
330
747D
100
AcDbEntity
  8
細線
 48
50.0
100
AcDbLine
 10
5015.497127903579
 20
3085.431598713262
 30
0.0
 11
4915.497127903578
 21
3085.431598713262
 31
0.0
  0
LINE
  5
18797
330
747D
100
AcDbEntity
  8
細線
 48
50.0
100
AcDbLine
 10
4915.497127903578
 20
3115.431598713261
 30
0.0
 11
5015.497127903579
 21
3115.431598713261
 31
0.0
  0
ARC
  5
18798
330
747D
100
AcDbEntity
  8
細線
 48
50.0
100
AcDbCircle
 10
4915.497127903578
 20
3100.431598713262
 30
0.0
 40
15.0
100
AcDbArc
 50
90.0
 51
270.0
  0
ARC
  5
18799
330
747D
100
AcDbEntity
  8
細線
 48
50.0
100
AcDbCircle
 10
5015.497127903579
 20
3100.431598713262
 30
0.0
 40
15.0
100
AcDbArc
 50
270.0
 51
90.0
  0
CIRCLE
  5
1879A
330
747D
100
AcDbEntity
  8
細線
 48
50.0
100
AcDbCircle
 10
4715.497127903578
 20
3425.431598713262
 30
0.0
 40
18.0
  0
TEXT
  5
18837
330
747D
100
AcDbEntity
  8
文字
 62
     7
 48
50.0
100
AcDbText
 10
15022.63965474516
 20
9910.013745883727
 30
0.0
 40
100.0
  1
F12,Y10        1.0
  7
STYLE1
100
AcDbText
  0
TEXT
  5
18838
330
747D
100
AcDbEntity
  8
文字
 62
     7
 48
50.0
100
AcDbText
 10
13583.11819016569
 20
9910.01374588373
 30
0.0
 40
100.0
  1
梁中
  7
STYLE1
100
AcDbText
  0
TEXT
  5
18839
330
747D
100
AcDbEntity
  8
文字
 62
     7
 48
50.0
100
AcDbText
 10
13248.77747366448
 20
8720.013745883731
 30
0.0
 40
100.0
  1
14
  7
STYLE1
100
AcDbText
  0
LINE
  5
1883A
330
747D
100
AcDbEntity
  8
仕様書枠
 48
50.0
100
AcDbLine
 10
16307.19999999999
 20
9879.599999999999
 30
0.0
 11
13127.2
 21
9879.600000000001
 31
0.0
  0
LINE
  5
1883B
330
747D
100
AcDbEntity
  8
仕様書枠
 48
50.0
100
AcDbLine
 10
16307.19999999999
 20
11239.6
 30
0.0
 11
13127.2
 21
11239.6
 31
0.0
  0
LINE
  5
1883C
330
747D
100
AcDbEntity
  8
仕様書枠
 48
50.0
100
AcDbLine
 10
16307.2
 20
8179.6
 30
0.0
 11
16307.2
 21
11239.6
 31
0.0
  0
LINE
  5
1883D
330
747D
100
AcDbEntity
  8
仕様書枠
 48
50.0
100
AcDbLine
 10
14785.2
 20
11239.59999999999
 30
0.0
 11
14785.19999999999
 21
8689.600000000003
 31
0.0
  0
LINE
  5
1883E
330
747D
100
AcDbEntity
  8
仕様書枠
 48
50.0
100
AcDbLine
 10
13490.2
 20
11239.6
 30
0.0
 11
13490.20000000001
 21
8689.600000000003
 31
0.0
  0
LINE
  5
1883F
330
747D
100
AcDbEntity
  8
仕様書枠
 48
50.0
100
AcDbLine
 10
16307.19999999999
 20
11069.6
 30
0.0
 11
13127.2
 21
11069.6
 31
0.0
  0
LINE
  5
18840
330
747D
100
AcDbEntity
  8
仕様書枠
 48
50.0
100
AcDbLine
 10
16307.19999999999
 20
10729.6
 30
0.0
 11
13127.2
 21
10729.6
 31
0.0
  0
LINE
  5
18841
330
747D
100
AcDbEntity
  8
仕様書枠
 48
50.0
100
AcDbLine
 10
16307.19999999999
 20
10899.6
 30
0.0
 11
13127.2
 21
10899.6
 31
0.0
  0
LINE
  5
18842
330
747D
100
AcDbEntity
  8
仕様書枠
 48
50.0
100
AcDbLine
 10
16307.19999999999
 20
10389.6
 30
0.0
 11
13127.19999999999
 21
10389.6
 31
0.0
  0
LINE
  5
18843
330
747D
100
AcDbEntity
  8
仕様書枠
 48
50.0
100
AcDbLine
 10
16307.19999999999
 20
10219.6
 30
0.0
 11
13127.19999999999
 21
10219.6
 31
0.0
  0
LINE
  5
18844
330
747D
100
AcDbEntity
  8
仕様書枠
 48
50.0
100
AcDbLine
 10
16307.19999999999
 20
10559.6
 30
0.0
 11
13127.19999999999
 21
10559.6
 31
0.0
  0
TEXT
  5
18845
330
747D
100
AcDbEntity
  8
文字
 62
     7
 48
50.0
100
AcDbText
 10
13197.42518560407
 20
11100.01374588373
 30
0.0
 40
100.0
  1
品番
  7
STYLE1
100
AcDbText
  0
TEXT
  5
18846
330
747D
100
AcDbEntity
  8
文字
 62
     7
 48
50.0
100
AcDbText
 10
13271.19032244792
 20
10930.01374588373
 30
0.0
 40
100.0
  1
1
  7
STYLE1
100
AcDbText
  0
TEXT
  5
18847
330
747D
100
AcDbEntity
  8
文字
 62
     7
 48
50.0
100
AcDbText
 10
13271.19032244792
 20
10760.01374588373
 30
0.0
 40
100.0
  1
2
  7
STYLE1
100
AcDbText
  0
TEXT
  5
18848
330
747D
100
AcDbEntity
  8
文字
 62
     7
 48
50.0
100
AcDbText
 10
13271.19032244792
 20
10420.01374588373
 30
0.0
 40
100.0
  1
4
  7
STYLE1
100
AcDbText
  0
TEXT
  5
18849
330
747D
100
AcDbEntity
  8
文字
 62
     7
 48
50.0
100
AcDbText
 10
13271.19032244792
 20
10590.01374588373
 30
0.0
 40
100.0
  1
3
  7
STYLE1
100
AcDbText
  0
TEXT
  5
1884A
330
747D
100
AcDbEntity
  8
文字
 62
     7
 48
50.0
100
AcDbText
 10
13732.03840939434
 20
11100.01374588373
 30
0.0
 40
100.0
  1
部　　品　　名
  7
STYLE1
100
AcDbText
  0
TEXT
  5
1884B
330
747D
100
AcDbEntity
  8
文字
 62
     7
 48
50.0
100
AcDbText
 10
14859.79774614482
 20
11100.01374588373
 30
0.0
 40
100.0
  1
材料（材質）　　単位mm
  7
STYLE1
100
AcDbText
  0
TEXT
  5
1884C
330
747D
100
AcDbEntity
  8
文字
 62
     7
 48
50.0
100
AcDbText
 10
13583.11819016569
 20
10930.01374588372
 30
0.0
 40
100.0
  1
土台枠
  7
STYLE1
100
AcDbText
  0
TEXT
  5
1884D
330
747D
100
AcDbEntity
  8
文字
 62
     7
 48
50.0
100
AcDbText
 10
13583.11819016569
 20
10760.01374588372
 30
0.0
 40
100.0
  1
柱
  7
STYLE1
100
AcDbText
  0
TEXT
  5
1884E
330
747D
100
AcDbEntity
  8
文字
 62
     7
 48
50.0
100
AcDbText
 10
13583.11819016569
 20
10590.01374588373
 30
0.0
 40
100.0
  1
桁前
  7
STYLE1
100
AcDbText
  0
TEXT
  5
1884F
330
747D
100
AcDbEntity
  8
文字
 62
     7
 48
50.0
100
AcDbText
 10
13583.11819016569
 20
10420.01374588373
 30
0.0
 40
100.0
  1
桁後
  7
STYLE1
100
AcDbText
  0
TEXT
  5
18850
330
747D
100
AcDbEntity
  8
文字
 62
     7
 48
50.0
100
AcDbText
 10
13271.19032244792
 20
10250.01374588373
 30
0.0
 40
100.0
  1
5
  7
STYLE1
100
AcDbText
  0
TEXT
  5
18851
330
747D
100
AcDbEntity
  8
文字
 62
     7
 48
50.0
100
AcDbText
 10
13583.11819016569
 20
10250.01374588373
 30
0.0
 40
100.0
  1
妻板左右
  7
STYLE1
100
AcDbText
  0
TEXT
  5
18852
330
747D
100
AcDbEntity
  8
文字
 62
     7
 48
50.0
100
AcDbText
 10
13583.11819016569
 20
8890.013745883727
 30
0.0
 40
100.0
  1
シャッターレール
  7
STYLE1
100
AcDbText
  0
TEXT
  5
18853
330
747D
100
AcDbEntity
  8
文字
 62
     7
 48
50.0
100
AcDbText
 10
13248.77747366448
 20
9400.013745883727
 30
0.0
 40
100.0
  1
10
  7
STYLE1
100
AcDbText
  0
TEXT
  5
18854
330
747D
100
AcDbEntity
  8
文字
 62
     7
 48
50.0
100
AcDbText
 10
13583.11819016569
 20
9400.013745883729
 30
0.0
 40
100.0
  1
壁パネル
  7
STYLE1
100
AcDbText
  0
TEXT
  5
18855
330
747D
100
AcDbEntity
  8
文字
 62
     7
 48
50.0
100
AcDbText
 10
13583.11819016569
 20
9570.013745883727
 30
0.0
 40
100.0
  1
屋根パネル
  7
STYLE1
100
AcDbText
  0
TEXT
  5
18856
330
747D
100
AcDbEntity
  8
文字
 62
     7
 48
50.0
100
AcDbText
 10
13583.11819016569
 20
9740.013745883729
 30
0.0
 40
100.0
  1
母屋中
  7
STYLE1
100
AcDbText
  0
TEXT
  5
18857
330
747D
100
AcDbEntity
  8
文字
 62
     7
 48
50.0
100
AcDbText
 10
13583.11819016569
 20
10080.01374588372
 30
0.0
 40
100.0
  1
鼻隠シ前後
  7
STYLE1
100
AcDbText
  0
TEXT
  5
18858
330
747D
100
AcDbEntity
  8
文字
 62
     7
 48
50.0
100
AcDbText
 10
13271.19032244792
 20
9740.013745883729
 30
0.0
 40
100.0
  1
8
  7
STYLE1
100
AcDbText
  0
TEXT
  5
18859
330
747D
100
AcDbEntity
  8
文字
 62
     7
 48
50.0
100
AcDbText
 10
13271.19032244792
 20
9570.013745883729
 30
0.0
 40
100.0
  1
9
  7
STYLE1
100
AcDbText
  0
TEXT
  5
1885A
330
747D
100
AcDbEntity
  8
文字
 62
     7
 48
50.0
100
AcDbText
 10
13271.19032244792
 20
9910.01374588373
 30
0.0
 40
100.0
  1
7
  7
STYLE1
100
AcDbText
  0
TEXT
  5
1885B
330
747D
100
AcDbEntity
  8
文字
 62
     7
 48
50.0
100
AcDbText
 10
13271.19032244792
 20
10080.01374588373
 30
0.0
 40
100.0
  1
6
  7
STYLE1
100
AcDbText
  0
LINE
  5
1885C
330
747D
100
AcDbEntity
  8
仕様書枠
 48
50.0
100
AcDbLine
 10
16307.19999999999
 20
9539.599999999998
 30
0.0
 11
13127.19999999999
 21
9539.6
 31
0.0
  0
LINE
  5
1885D
330
747D
100
AcDbEntity
  8
仕様書枠
 48
50.0
100
AcDbLine
 10
16307.19999999999
 20
9199.599999999998
 30
0.0
 11
13127.19999999999
 21
9199.600000000001
 31
0.0
  0
LINE
  5
1885E
330
747D
100
AcDbEntity
  8
仕様書枠
 48
50.0
100
AcDbLine
 10
16307.19999999999
 20
9369.599999999998
 30
0.0
 11
13127.19999999999
 21
9369.600000000001
 31
0.0
  0
LINE
  5
1885F
330
747D
100
AcDbEntity
  8
仕様書枠
 48
50.0
100
AcDbLine
 10
16307.19999999999
 20
10049.6
 30
0.0
 11
13127.2
 21
10049.6
 31
0.0
  0
LINE
  5
18860
330
747D
100
AcDbEntity
  8
仕様書枠
 48
50.0
100
AcDbLine
 10
16307.19999999999
 20
9709.6
 30
0.0
 11
13127.2
 21
9709.600000000001
 31
0.0
  0
TEXT
  5
18861
330
747D
100
AcDbEntity
  8
文字
 62
     7
 48
50.0
100
AcDbText
 10
13248.77747366448
 20
9230.013745883727
 30
0.0
 40
100.0
  1
11
  7
STYLE1
100
AcDbText
  0
TEXT
  5
18862
330
747D
100
AcDbEntity
  8
文字
 62
     7
 48
50.0
100
AcDbText
 10
13583.11819016569
 20
9060.013745883727
 30
0.0
 40
100.0
  1
シャッターカバー
 41
0.9
  7
STYLE1
100
AcDbText
  0
LINE
  5
18863
330
747D
100
AcDbEntity
  8
仕様書枠
 48
50.0
100
AcDbLine
 10
16307.19999999999
 20
9029.6
 30
0.0
 11
13127.19999999999
 21
9029.6
 31
0.0
  0
TEXT
  5
18865
330
747D
100
AcDbEntity
  8
文字
 62
     7
 48
50.0
100
AcDbText
 10
13583.11819016569
 20
8720.013745883729
 30
0.0
 40
100.0
  1
棚板（別売）
  7
STYLE1
100
AcDbText
  0
LINE
  5
18866
330
747D
100
AcDbEntity
  8
仕様書枠
 48
50.0
100
AcDbLine
 10
16307.19999999999
 20
8859.6
 30
0.0
 11
13127.19999999999
 21
8859.600000000002
 31
0.0
  0
TEXT
  5
18867
330
747D
100
AcDbEntity
  8
文字
 62
     7
 48
50.0
100
AcDbText
 10
13583.11819016569
 20
9230.013745883731
 30
0.0
 40
100.0
  1
シャッター
  7
STYLE1
100
AcDbText
  0
TEXT
  5
18868
330
747D
100
AcDbEntity
  8
文字
 62
     7
 48
50.0
100
AcDbText
 10
13248.77747366448
 20
8890.013745883729
 30
0.0
 40
100.0
  1
13
  7
STYLE1
100
AcDbText
  0
TEXT
  5
18869
330
747D
100
AcDbEntity
  8
文字
 62
     7
 48
50.0
100
AcDbText
 10
13248.77747366448
 20
9060.013745883729
 30
0.0
 40
100.0
  1
12
  7
STYLE1
100
AcDbText
  0
TEXT
  5
1886A
330
747D
100
AcDbEntity
  8
文字
 62
     7
 48
50.0
100
AcDbText
 10
15022.63965474517
 20
10930.01374588372
 30
0.0
 40
100.0
  1
F12            1.2
  7
STYLE1
100
AcDbText
  0
TEXT
  5
1886C
330
747D
100
AcDbEntity
  8
文字
 62
     7
 48
50.0
100
AcDbText
 10
15022.63965474517
 20
10590.01374588372
 30
0.0
 40
100.0
  1
Y10            1.0
  7
STYLE1
100
AcDbText
  0
TEXT
  5
1886D
330
747D
100
AcDbEntity
  8
文字
 62
     7
 48
50.0
100
AcDbText
 10
15022.63965474516
 20
10420.01374588372
 30
0.0
 40
100.0
  1
Y10            1.0
  7
STYLE1
100
AcDbText
  0
TEXT
  5
1886E
330
747D
100
AcDbEntity
  8
文字
 62
     7
 48
50.0
100
AcDbText
 10
15022.63965474517
 20
10250.01374588372
 30
0.0
 40
100.0
  1
Y10            0.7
  7
STYLE1
100
AcDbText
  0
TEXT
  5
1886F
330
747D
100
AcDbEntity
  8
文字
 62
     7
 48
50.0
100
AcDbText
 10
15022.63965474516
 20
10080.01374588372
 30
0.0
 40
100.0
  1
Y10            0.7
  7
STYLE1
100
AcDbText
  0
TEXT
  5
18870
330
747D
100
AcDbEntity
  8
文字
 62
     7
 48
50.0
100
AcDbText
 10
15022.63965474517
 20
9740.013745883725
 30
0.0
 40
100.0
  1
F12            1.0
  7
STYLE1
100
AcDbText
  0
TEXT
  5
18871
330
747D
100
AcDbEntity
  8
文字
 62
     7
 48
50.0
100
AcDbText
 10
15022.63965474517
 20
9570.013745883725
 30
0.0
 40
100.0
  1
Y10            0.5
  7
STYLE1
100
AcDbText
  0
TEXT
  5
18872
330
747D
100
AcDbEntity
  8
文字
 62
     7
 48
50.0
100
AcDbText
 10
15022.63965474516
 20
9400.013745883725
 30
0.0
 40
100.0
  1
F12            0.7
  7
STYLE1
100
AcDbText
  0
TEXT
  5
18873
330
747D
100
AcDbEntity
  8
文字
 62
     7
 48
50.0
100
AcDbText
 10
14850.83183167176
 20
8890.013745883726
 30
0.0
 40
100.0
  1
アルミニウム合金押出形材
  7
STYLE1
100
AcDbText
  0
TEXT
  5
18875
330
747D
100
AcDbEntity
  8
文字
 62
     7
 48
50.0
100
AcDbText
 10
15022.63965474515
 20
9230.013745883727
 30
0.0
 40
100.0
  1
Z08            0.5
  7
STYLE1
100
AcDbText
  0
TEXT
  5
18876
330
747D
100
AcDbEntity
  8
文字
 62
     7
 48
50.0
100
AcDbText
 10
15022.63965474515
 20
8720.013745883727
 30
0.0
 40
100.0
  1
F12            0.6
  7
STYLE1
100
AcDbText
  0
LINE
  5
18877
330
747D
100
AcDbEntity
  8
仕様書枠
 48
50.0
100
AcDbLine
 10
16307.19999999999
 20
8519.599999999998
 30
0.0
 11
13127.19999999999
 21
8519.600000000002
 31
0.0
  0
LINE
  5
18878
330
747D
100
AcDbEntity
  8
仕様書枠
 48
50.0
100
AcDbLine
 10
16307.19999999999
 20
8349.599999999998
 30
0.0
 11
13127.19999999999
 21
8349.6
 31
0.0
  0
LINE
  5
18879
330
747D
100
AcDbEntity
  8
仕様書枠
 48
50.0
100
AcDbLine
 10
16307.19999999999
 20
8179.599999999998
 30
0.0
 11
13127.19999999999
 21
8179.6
 31
0.0
  0
TEXT
  5
1887A
330
747D
100
AcDbEntity
  8
文字
 62
     7
 48
50.0
100
AcDbText
 10
13229.83081656554
 20
8550.013745883727
 30
0.0
 40
100.0
  1
F12→溶融亜鉛めっき鋼板(JIS G 3302)
  7
STYLE1
100
AcDbText
  0
TEXT
  5
1887B
330
747D
100
AcDbEntity
  8
文字
 62
     7
 48
50.0
100
AcDbText
 10
13229.83081656554
 20
8380.013745883728
 30
0.0
 40
100.0
  1
Y10→溶融亜鉛-5％アルミニウム合金めっき鋼板(JIS G 3317)
 41
0.9
  7
STYLE1
100
AcDbText
  0
TEXT
  5
1887C
330
747D
100
AcDbEntity
  8
文字
 62
     7
 48
50.0
100
AcDbText
 10
13229.83081656554
 20
8210.013745883729
 30
0.0
 40
100.0
  1
Z08→塗装溶融亜鉛めっき鋼板(JIS G 3313)
  7
STYLE1
100
AcDbText
  0
LINE
  5
1887D
330
747D
100
AcDbEntity
  8
仕様書枠
 48
50.0
100
AcDbLine
 10
13127.2
 20
11239.6
 30
0.0
 11
13127.2
 21
8179.600000000002
 31
0.0
  0
DIMENSION
  5
18F57
330
747D
100
AcDbEntity
  8
寸法
100
AcDbDimension
  2
*D22
 10
9183.923772109945
 20
2587.931598713257
 30
0.0
 11
9083.911961086323
 21
3632.931598713259
 31
0.0
 70
    32
 71
     5
 42
2090.000000000001
  3
INABA_S40G
100
AcDbAlignedDimension
 13
10027.6739012932
 23
4677.931598713258
 33
0.0
 14
10027.6739012932
 24
2587.931598713257
 34
0.0
 50
90.0
100
AcDbRotatedDimension
1001
ACAD
1000
DSTYLE
1002
{
1070
   174
1070
     0
1070
   272
1070
     1
1070
   288
1070
     0
1070
   341
1005
0
1002
}
  0
DIMENSION
  5
18F58
330
747D
100
AcDbEntity
  8
寸法
100
AcDbDimension
  2
*D23
 10
8883.923772109945
 20
4912.931598713262
 30
0.0
 11
8783.911961086323
 21
3725.431598713261
 31
0.0
 70
    32
 71
     5
 42
2375.000000000005
  3
INABA_S40G
100
AcDbAlignedDimension
 13
10027.6739012932
 23
2537.931598713257
 33
0.0
 14
9967.673901293204
 24
4912.931598713262
 34
0.0
 50
90.0
100
AcDbRotatedDimension
1001
ACAD
1000
DSTYLE
1002
{
1070
   174
1070
     0
1070
   272
1070
     1
1070
   288
1070
     0
1070
   341
1005
0
1002
}
  0
DIMENSION
  5
18F59
330
747D
100
AcDbEntity
  8
寸法
100
AcDbDimension
  2
*D24
 10
13362.60105926533
 20
4857.931598713264
 30
0.0
 11
13262.58924824171
 21
3697.931598713266
 31
0.0
 70
    32
 71
     5
 42
2320.0
  3
INABA_S40G
100
AcDbAlignedDimension
 13
12657.6739012932
 23
2537.931598713264
 33
0.0
 14
12737.6739012932
 24
4857.931598713264
 34
0.0
 50
90.0
100
AcDbRotatedDimension
1001
ACAD
1000
DSTYLE
1002
{
1070
   174
1070
     0
1070
   272
1070
     1
1070
   288
1070
     0
1070
   341
1005
0
1002
}
  0
LINE
  5
18F5A
330
747D
100
AcDbEntity
  8
細線
 48
50.0
100
AcDbLine
 10
12105.1739012932
 20
4677.931598713261
 30
0.0
 11
12105.1739012932
 21
2587.931598713265
 31
0.0
  0
LINE
  5
18F5B
330
747D
100
AcDbEntity
  8
細線
 48
50.0
100
AcDbLine
 10
12120.1739012932
 20
4677.931598713261
 30
0.0
 11
12120.1739012932
 21
2587.931598713265
 31
0.0
  0
LINE
  5
18F5C
330
747D
100
AcDbEntity
  8
細線
 48
50.0
100
AcDbLine
 10
11980.1739012932
 20
4677.931598713261
 30
0.0
 11
11980.1739012932
 21
2587.931598713265
 31
0.0
  0
LINE
  5
18F5D
330
747D
100
AcDbEntity
  8
細線
 48
50.0
100
AcDbLine
 10
11965.1739012932
 20
4677.931598713261
 30
0.0
 11
11965.1739012932
 21
2587.931598713265
 31
0.0
  0
LINE
  5
18F5E
330
747D
100
AcDbEntity
  8
細線
 48
50.0
100
AcDbLine
 10
11825.1739012932
 20
4677.931598713261
 30
0.0
 11
11825.1739012932
 21
2587.931598713265
 31
0.0
  0
LINE
  5
18F5F
330
747D
100
AcDbEntity
  8
細線
 48
50.0
100
AcDbLine
 10
11840.1739012932
 20
4677.931598713261
 30
0.0
 11
11840.1739012932
 21
2587.931598713265
 31
0.0
  0
LINE
  5
18F60
330
747D
100
AcDbEntity
  8
部品1
100
AcDbLine
 10
11762.6739012932
 20
4677.931598713261
 30
0.0
 11
11762.6739012932
 21
2587.931598713265
 31
0.0
  0
LINE
  5
18F61
330
747D
100
AcDbEntity
  8
部品1
100
AcDbLine
 10
11202.89903172244
 20
5038.13598667628
 30
0.0
 11
11528.35404536548
 21
5020.61792771742
 31
0.0
  0
ARC
  5
18F62
330
747D
100
AcDbEntity
  8
部品1
100
AcDbCircle
 10
12723.30143710714
 20
4751.955355979054
 30
0.0
 40
0.7
100
AcDbArc
 50
275.0921697642102
 51
354.1866997667606
  0
ARC
  5
18F63
330
747D
100
AcDbEntity
  8
部品1
100
AcDbCircle
 10
12734.16078285646
 20
4828.998610796978
 30
0.0
 40
0.7
100
AcDbArc
 50
275.0921697642102
 51
354.1866997665596
  0
ARC
  5
18F64
330
747D
100
AcDbEntity
  8
部品1
100
AcDbCircle
 10
12734.48918809906
 20
4825.313213939891
 30
0.0
 40
3.0
100
AcDbArc
 50
95.0921697642102
 51
174.1866997665596
  0
ARC
  5
18F65
330
747D
100
AcDbEntity
  8
部品1
100
AcDbCircle
 10
12723.62984234974
 20
4748.269959121964
 30
0.0
 40
3.0
100
AcDbArc
 50
95.0921697642102
 51
174.1866997665596
  0
ARC
  5
18F66
330
747D
100
AcDbEntity
  8
部品1
 48
50.0
100
AcDbCircle
 10
12712.60170707463
 20
4738.679214518084
 30
0.0
 40
7.0
100
AcDbArc
 50
267.8377559869489
 51
354.1866997665596
  0
ARC
  5
18F67
330
747D
100
AcDbEntity
  8
部品1
 48
50.0
100
AcDbCircle
 10
12729.92380353915
 20
4849.581761660258
 30
0.0
 40
7.0
100
AcDbArc
 50
354.1866997665596
 51
87.03587545283093
  0
LINE
  5
18F68
330
747D
100
AcDbEntity
  8
部品1
 48
50.0
100
AcDbLine
 10
12720.64527067913
 20
4748.573820838868
 30
0.0
 11
12719.56570763939
 21
4737.97020384531
 31
0.0
  0
LINE
  5
18F69
330
747D
100
AcDbEntity
  8
部品1
 48
50.0
100
AcDbLine
 10
12731.50461642845
 20
4825.617075656792
 30
0.0
 11
12723.99783716362
 21
4751.884454911782
 31
0.0
  0
LINE
  5
18F6A
330
747D
100
AcDbEntity
  8
部品1
 48
50.0
100
AcDbLine
 10
12736.88780410391
 20
4848.872750987481
 30
0.0
 11
12734.85718291294
 21
4828.927709729701
 31
0.0
  0
ARC
  5
18F6B
330
747D
100
AcDbEntity
  8
部品1
100
AcDbCircle
 10
9973.710993164573
 20
4791.745757672168
 30
0.0
 40
0.7
100
AcDbArc
 50
181.0932240293156
 51
260.1877540314855
  0
ARC
  5
18F6C
330
747D
100
AcDbEntity
  8
部品1
100
AcDbCircle
 10
9968.938319566962
 20
4884.611535872285
 30
0.0
 40
0.7
100
AcDbArc
 50
181.0932240292114
 51
260.1877540314855
  0
ARC
  5
18F6D
330
747D
100
AcDbEntity
  8
部品1
100
AcDbCircle
 10
9968.30776516394
 20
4880.965661334889
 30
0.0
 40
3.0
100
AcDbArc
 50
1.093224029315636
 51
80.18775403169765
  0
ARC
  5
18F6E
330
747D
100
AcDbEntity
  8
部品1
100
AcDbCircle
 10
9973.080438761547
 20
4788.099883134768
 30
0.0
 40
3.0
100
AcDbArc
 50
1.093224029315636
 51
80.18775403169765
  0
ARC
  5
18F6F
330
747D
100
AcDbEntity
  8
部品1
 48
50.0
100
AcDbCircle
 10
9983.280571136747
 20
4777.707639752287
 30
0.0
 40
7.0
100
AcDbArc
 50
181.0932240293156
 51
267.8377559869489
  0
ARC
  5
18F70
330
747D
100
AcDbEntity
  8
部品1
 48
50.0
100
AcDbCircle
 10
9974.856913034651
 20
4904.658699285384
 30
0.0
 40
7.0
100
AcDbArc
 50
87.03587545283093
 51
181.0932240293156
  0
LINE
  5
18F71
330
747D
100
AcDbEntity
  8
部品1
 48
50.0
100
AcDbLine
 10
9976.079892687977
 20
4788.157120737952
 30
0.0
 11
9976.281845308408
 21
4777.574085344858
 31
0.0
  0
LINE
  5
18F72
330
747D
100
AcDbEntity
  8
細線
 48
50.0
100
AcDbLine
 10
9973.473799631307
 20
4791.08716885676
 30
0.0
 11
12723.47746406194
 21
4751.277849882266
 31
0.0
  0
LINE
  5
18F73
330
747D
100
AcDbEntity
  8
細線
 48
50.0
100
AcDbLine
 10
9968.71332439402
 20
4883.948680554626
 30
0.0
 11
12734.34930913919
 21
4828.324475913796
 31
0.0
  0
LINE
  5
18F74
330
747D
100
AcDbEntity
  8
部品1
 48
50.0
100
AcDbLine
 10
9971.30721909037
 20
4881.02289893807
 30
0.0
 11
9973.011120581734
 21
4791.732402231423
 31
0.0
  0
LINE
  5
18F75
330
747D
100
AcDbEntity
  8
部品1
 48
50.0
100
AcDbLine
 10
9967.858187206312
 20
4904.525144877957
 30
0.0
 11
9968.238446984123
 21
4884.598180431545
 31
0.0
  0
LINE
  5
18F76
330
747D
100
AcDbEntity
  8
細線
 48
50.0
100
AcDbLine
 10
12704.64318448689
 20
4857.085021192732
 30
0.0
 11
12699.92621840521
 21
4732.152805257814
 31
0.0
  0
LINE
  5
18F77
330
747D
100
AcDbEntity
  8
細線
 48
50.0
100
AcDbLine
 10
10000.6739012932
 20
4910.331275088669
 30
0.0
 11
9995.384799737699
 21
4770.245642461311
 31
0.0
  0
LINE
  5
18F78
330
747D
100
AcDbEntity
  8
部品1
100
AcDbLine
 10
9983.016465895159
 20
4770.712623782229
 30
0.0
 11
12712.33760183305
 21
4731.684198548024
 31
0.0
  0
LINE
  5
18F79
330
747D
100
AcDbEntity
  8
部品1
100
AcDbLine
 10
9975.218887650168
 20
4911.649334047528
 30
0.0
 11
12730.28577815467
 21
4856.572396422402
 31
0.0
  0
LINE
  5
18F7A
330
747D
100
AcDbEntity
  8
部品1
 48
50.0
100
AcDbLine
 10
11228.35404536548
 20
5036.817927717421
 30
0.0
 11
11528.35404536548
 21
5036.817927717421
 31
0.0
  0
LINE
  5
18F7B
330
747D
100
AcDbEntity
  8
部品1
 48
50.0
100
AcDbLine
 10
11528.35404536548
 20
5036.817927717421
 30
0.0
 11
11528.35404536548
 21
5020.61792771742
 31
0.0
  0
TEXT
  5
18F7C
330
747D
100
AcDbEntity
  8
部品1
 48
50.0
100
AcDbText
 10
11216.62188058921
 20
5072.701949869854
 30
0.0
 40
120.0
  1
1000
  7
STYLE1
100
AcDbText
  0
TEXT
  5
18F7D
330
747D
100
AcDbEntity
  8
部品1
 48
50.0
100
AcDbText
 10
11694.2549032543
 20
4935.200691651571
 30
0.0
 40
120.0
  1
37
 50
90.0
  7
STYLE1
100
AcDbText
  0
LINE
  5
18F7E
330
747D
100
AcDbEntity
  8
細線
 48
50.0
100
AcDbLine
 10
11420.1739012932
 20
4677.931598713261
 30
0.0
 11
11420.1739012932
 21
2587.931598713261
 31
0.0
  0
LINE
  5
18F7F
330
747D
100
AcDbEntity
  8
細線
 48
50.0
100
AcDbLine
 10
11405.1739012932
 20
4677.931598713261
 30
0.0
 11
11405.1739012932
 21
2587.931598713261
 31
0.0
  0
LINE
  5
18F80
330
747D
100
AcDbEntity
  8
細線
 48
50.0
100
AcDbLine
 10
11545.1739012932
 20
4677.931598713261
 30
0.0
 11
11545.1739012932
 21
2587.931598713261
 31
0.0
  0
LINE
  5
18F81
330
747D
100
AcDbEntity
  8
細線
 48
50.0
100
AcDbLine
 10
11560.1739012932
 20
4677.931598713261
 30
0.0
 11
11560.1739012932
 21
2587.931598713261
 31
0.0
  0
LINE
  5
18F82
330
747D
100
AcDbEntity
  8
細線
 48
50.0
100
AcDbLine
 10
11700.1739012932
 20
4677.931598713261
 30
0.0
 11
11700.1739012932
 21
2587.931598713261
 31
0.0
  0
LINE
  5
18F83
330
747D
100
AcDbEntity
  8
細線
 48
50.0
100
AcDbLine
 10
11685.1739012932
 20
4677.931598713261
 30
0.0
 11
11685.1739012932
 21
2587.931598713261
 31
0.0
  0
LINE
  5
18F84
330
747D
100
AcDbEntity
  8
部品1
100
AcDbLine
 10
12182.6739012932
 20
4677.931598713261
 30
0.0
 11
12182.6739012932
 21
2587.931598713265
 31
0.0
  0
LINE
  5
18F85
330
747D
100
AcDbEntity
  8
部品1
100
AcDbLine
 10
10027.6739012932
 20
4677.931598713261
 30
0.0
 11
12657.6739012932
 21
4677.931598713261
 31
0.0
  0
LINE
  5
18F86
330
747D
100
AcDbEntity
  8
部品1
100
AcDbLine
 10
10082.6739012932
 20
2587.931598713261
 30
0.0
 11
12657.6739012932
 21
2587.931598713265
 31
0.0
  0
LINE
  5
18F87
330
747D
100
AcDbEntity
  8
部品1
100
AcDbLine
 10
10082.6739012932
 20
4677.931598713261
 30
0.0
 11
10082.6739012932
 21
2437.931598713265
 31
0.0
  0
LINE
  5
18F88
330
747D
100
AcDbEntity
  8
部品1
100
AcDbLine
 10
10027.6739012932
 20
4770.074036642141
 30
0.0
 11
10027.6739012932
 21
2437.931598713261
 31
0.0
  0
DIMENSION
  5
18F89
330
747D
100
AcDbEntity
  8
寸法
100
AcDbDimension
  2
*D25
 10
9183.923772109945
 20
2537.931598713263
 30
0.0
 11
9183.923772109945
 21
2231.884354618772
 31
0.0
 70
   160
 71
     5
 42
50.0
  3
INABA_S40G
100
AcDbAlignedDimension
 13
10027.6739012932
 23
2587.931598713263
 33
0.0
 14
9972.673901293205
 24
2537.931598713262
 34
0.0
 50
90.0
100
AcDbRotatedDimension
1001
ACAD
1000
DSTYLE
1002
{
1070
   174
1070
     0
1070
   272
1070
     1
1070
   288
1070
     0
1070
   341
1005
0
1002
}
  0
LINE
  5
18F8A
330
747D
100
AcDbEntity
  8
部品1
100
AcDbLine
 10
10502.6739012932
 20
4677.931598713261
 30
0.0
 11
10502.6739012932
 21
2587.931598713261
 31
0.0
  0
LINE
  5
18F8B
330
747D
100
AcDbEntity
  8
部品1
100
AcDbLine
 10
12657.6739012932
 20
4732.465872101001
 30
0.0
 11
12657.6739012932
 21
2437.931598713265
 31
0.0
  0
LINE
  5
18F8C
330
747D
100
AcDbEntity
  8
部品1
100
AcDbLine
 10
12602.6739012932
 20
4677.931598713261
 30
0.0
 11
12602.6739012932
 21
2587.931598713265
 31
0.0
  0
DIMENSION
  5
18F8D
330
747D
100
AcDbEntity
  8
寸法
 48
50.0
100
AcDbDimension
  2
*D26
 10
10027.6739012932
 20
5311.589052292568
 30
0.0
 11
11342.6739012932
 21
5311.589052292568
 31
0.0
 70
   160
  1
柱外寸法<>
 71
     5
 42
2630.0
  3
INABA_S40G
100
AcDbAlignedDimension
 13
12657.6739012932
 23
4859.742278324915
 33
0.0
 14
10027.6739012932
 24
4908.933216836238
 34
0.0
100
AcDbRotatedDimension
1001
ACAD
1000
DSTYLE
1002
{
1070
   174
1070
     0
1070
   272
1070
     1
1070
   288
1070
     0
1070
   341
1005
0
1002
}
  0
DIMENSION
  5
18F8E
330
747D
100
AcDbEntity
  8
寸法
 48
50.0
100
AcDbDimension
  2
*D27
 10
9967.673901293204
 20
5311.589052292567
 30
0.0
 11
9658.036106017615
 21
5311.589052292567
 31
0.0
 70
   160
 71
     5
 42
60.0
  3
INABA_S40G
100
AcDbAlignedDimension
 13
10027.6739012932
 23
4908.933216836238
 33
0.0
 14
9967.673901293204
 24
4912.931598713267
 34
0.0
100
AcDbRotatedDimension
1001
ACAD
1000
DSTYLE
1002
{
1070
   174
1070
     0
1070
   272
1070
     1
1070
   288
1070
     0
1070
   341
1005
0
1002
}
  0
DIMENSION
  5
18F8F
330
747D
100
AcDbEntity
  8
寸法
 48
50.0
100
AcDbDimension
  2
*D28
 10
9967.673901293204
 20
5531.799739024184
 30
0.0
 11
11352.6739012932
 21
5531.799739024184
 31
0.0
 70
   160
 71
     5
 42
2770.0
  3
INABA_S40G
100
AcDbAlignedDimension
 13
12737.6739012932
 23
4857.931598713264
 33
0.0
 14
9967.673901293204
 24
4912.931598713267
 34
0.0
100
AcDbRotatedDimension
1001
ACAD
1000
DSTYLE
1002
{
1070
   174
1070
     0
1070
   272
1070
     1
1070
   288
1070
     0
1070
   341
1005
0
1002
}
  0
LINE
  5
18F90
330
747D
100
AcDbEntity
  8
部品1
100
AcDbLine
 10
10082.6739012932
 20
2537.931598713262
 30
0.0
 11
12657.6739012932
 21
2537.931598713262
 31
0.0
  0
LINE
  5
18F91
330
747D
100
AcDbEntity
  8
細線
 48
50.0
100
AcDbLine
 10
10580.1739012932
 20
4677.931598713261
 30
0.0
 11
10580.1739012932
 21
2587.931598713261
 31
0.0
  0
LINE
  5
18F92
330
747D
100
AcDbEntity
  8
細線
 48
50.0
100
AcDbLine
 10
10565.1739012932
 20
4677.931598713261
 30
0.0
 11
10565.1739012932
 21
2587.931598713261
 31
0.0
  0
LINE
  5
18F93
330
747D
100
AcDbEntity
  8
細線
 48
50.0
100
AcDbLine
 10
10705.1739012932
 20
4677.931598713261
 30
0.0
 11
10705.1739012932
 21
2587.931598713261
 31
0.0
  0
LINE
  5
18F94
330
747D
100
AcDbEntity
  8
細線
 48
50.0
100
AcDbLine
 10
10720.1739012932
 20
4677.931598713261
 30
0.0
 11
10720.1739012932
 21
2587.931598713261
 31
0.0
  0
LINE
  5
18F95
330
747D
100
AcDbEntity
  8
細線
 48
50.0
100
AcDbLine
 10
10860.1739012932
 20
4677.931598713261
 30
0.0
 11
10860.1739012932
 21
2587.931598713261
 31
0.0
  0
LINE
  5
18F96
330
747D
100
AcDbEntity
  8
細線
 48
50.0
100
AcDbLine
 10
10845.1739012932
 20
4677.931598713261
 30
0.0
 11
10845.1739012932
 21
2587.931598713261
 31
0.0
  0
LINE
  5
18F97
330
747D
100
AcDbEntity
  8
細線
 48
50.0
100
AcDbLine
 10
10425.1739012932
 20
4677.931598713261
 30
0.0
 11
10425.1739012932
 21
2587.931598713261
 31
0.0
  0
LINE
  5
18F98
330
747D
100
AcDbEntity
  8
細線
 48
50.0
100
AcDbLine
 10
10440.1739012932
 20
4677.931598713261
 30
0.0
 11
10440.1739012932
 21
2587.931598713261
 31
0.0
  0
LINE
  5
18F99
330
747D
100
AcDbEntity
  8
細線
 48
50.0
100
AcDbLine
 10
10300.1739012932
 20
4677.931598713261
 30
0.0
 11
10300.1739012932
 21
2587.931598713261
 31
0.0
  0
LINE
  5
18F9A
330
747D
100
AcDbEntity
  8
細線
 48
50.0
100
AcDbLine
 10
10285.1739012932
 20
4677.931598713261
 30
0.0
 11
10285.1739012932
 21
2587.931598713261
 31
0.0
  0
LINE
  5
18F9B
330
747D
100
AcDbEntity
  8
細線
 48
50.0
100
AcDbLine
 10
10145.1739012932
 20
4677.931598713261
 30
0.0
 11
10145.1739012932
 21
2587.931598713261
 31
0.0
  0
LINE
  5
18F9C
330
747D
100
AcDbEntity
  8
細線
 48
50.0
100
AcDbLine
 10
10160.1739012932
 20
4677.931598713261
 30
0.0
 11
10160.1739012932
 21
2587.931598713261
 31
0.0
  0
DIMENSION
  5
18F9D
330
747D
100
AcDbEntity
  8
寸法
 48
50.0
100
AcDbDimension
  2
*D29
 10
12737.6739012932
 20
5311.589052292568
 30
0.0
 11
12943.72114538769
 21
5311.589052292568
 31
0.0
 70
   160
 71
     5
 42
80.0
  3
INABA_S40G
100
AcDbAlignedDimension
 13
12657.6739012932
 23
4859.742278324915
 33
0.0
 14
12737.6739012932
 24
4857.931598713264
 34
0.0
100
AcDbRotatedDimension
1001
ACAD
1000
DSTYLE
1002
{
1070
   174
1070
     0
1070
   272
1070
     1
1070
   288
1070
     0
1070
   341
1005
0
1002
}
  0
LINE
  5
18F9E
330
747D
100
AcDbEntity
  8
部品1
100
AcDbLine
 10
10922.6739012932
 20
4677.931598713261
 30
0.0
 11
10922.6739012932
 21
2587.931598713261
 31
0.0
  0
LINE
  5
18F9F
330
747D
100
AcDbEntity
  8
細線
 48
50.0
100
AcDbLine
 10
11265.1739012932
 20
4677.931598713261
 30
0.0
 11
11265.1739012932
 21
2587.931598713261
 31
0.0
  0
LINE
  5
18FA0
330
747D
100
AcDbEntity
  8
細線
 48
50.0
100
AcDbLine
 10
11280.1739012932
 20
4677.931598713261
 30
0.0
 11
11280.1739012932
 21
2587.931598713261
 31
0.0
  0
LINE
  5
18FA1
330
747D
100
AcDbEntity
  8
細線
 48
50.0
100
AcDbLine
 10
11140.1739012932
 20
4677.931598713261
 30
0.0
 11
11140.17390129321
 21
2587.931598713261
 31
0.0
  0
LINE
  5
18FA2
330
747D
100
AcDbEntity
  8
細線
 48
50.0
100
AcDbLine
 10
11125.1739012932
 20
4677.931598713261
 30
0.0
 11
11125.17390129321
 21
2587.931598713261
 31
0.0
  0
LINE
  5
18FA3
330
747D
100
AcDbEntity
  8
細線
 48
50.0
100
AcDbLine
 10
10985.1739012932
 20
4677.931598713261
 30
0.0
 11
10985.17390129321
 21
2587.931598713261
 31
0.0
  0
LINE
  5
18FA4
330
747D
100
AcDbEntity
  8
細線
 48
50.0
100
AcDbLine
 10
11000.1739012932
 20
4677.931598713261
 30
0.0
 11
11000.17390129321
 21
2587.931598713261
 31
0.0
  0
LINE
  5
18FA5
330
747D
100
AcDbEntity
  8
部品1
100
AcDbLine
 10
11342.6739012932
 20
4677.931598713261
 30
0.0
 11
11342.6739012932
 21
2587.931598713261
 31
0.0
  0
LINE
  5
18FA6
330
747D
100
AcDbEntity
  8
細線
 48
50.0
100
AcDbLine
 10
12260.17390129321
 20
4677.931598713261
 30
0.0
 11
12260.17390129321
 21
2587.931598713265
 31
0.0
  0
LINE
  5
18FA7
330
747D
100
AcDbEntity
  8
細線
 48
50.0
100
AcDbLine
 10
12245.17390129321
 20
4677.931598713261
 30
0.0
 11
12245.17390129321
 21
2587.931598713265
 31
0.0
  0
LINE
  5
18FA8
330
747D
100
AcDbEntity
  8
細線
 48
50.0
100
AcDbLine
 10
12385.17390129321
 20
4677.931598713261
 30
0.0
 11
12385.17390129321
 21
2587.931598713265
 31
0.0
  0
LINE
  5
18FA9
330
747D
100
AcDbEntity
  8
細線
 48
50.0
100
AcDbLine
 10
12400.17390129321
 20
4677.931598713261
 30
0.0
 11
12400.17390129321
 21
2587.931598713265
 31
0.0
  0
LINE
  5
18FAA
330
747D
100
AcDbEntity
  8
細線
 48
50.0
100
AcDbLine
 10
12540.17390129321
 20
4677.931598713261
 30
0.0
 11
12540.17390129321
 21
2587.931598713265
 31
0.0
  0
LINE
  5
18FAB
330
747D
100
AcDbEntity
  8
細線
 48
50.0
100
AcDbLine
 10
12525.17390129321
 20
4677.931598713261
 30
0.0
 11
12525.17390129321
 21
2587.931598713265
 31
0.0
  0
DIMENSION
  5
18FAC
330
747D
100
AcDbEntity
  8
寸法
 48
50.0
100
AcDbDimension
  2
*D30
 10
9407.065494524827
 20
4787.276857586594
 30
0.0
 11
9417.730969783752
 21
5158.123520828292
 31
0.0
 70
   161
 71
     5
 42
141.0
  3
INABA_S40G
100
AcDbAlignedDimension
 13
9987.069921451784
 23
4911.654347547942
 33
0.0
 14
9983.016465895159
 24
4770.712623782229
 34
0.0
1001
ACAD
1000
DSTYLE
1002
{
1070
   174
1070
     0
1070
   272
1070
     1
1070
   288
1070
     0
1070
   341
1005
0
1002
}
  0
LINE
  5
18FB2
330
747D
100
AcDbEntity
  8
破線
 48
5.0
100
AcDbLine
 10
10027.6739012932
 20
2437.931598713261
 30
0.0
 11
10027.6739012932
 21
2187.931598713261
 31
0.0
  0
LINE
  5
18FB3
330
747D
100
AcDbEntity
  8
破線
 48
5.0
100
AcDbLine
 10
10082.6739012932
 20
2437.931598713261
 30
0.0
 11
10082.6739012932
 21
2187.931598713261
 31
0.0
  0
LINE
  5
18FB4
330
747D
100
AcDbEntity
  8
破線
 48
5.0
100
AcDbLine
 10
10027.6739012932
 20
2187.931598713261
 30
0.0
 11
10082.6739012932
 21
2187.931598713261
 31
0.0
  0
LINE
  5
18FB5
330
747D
100
AcDbEntity
  8
部品1
100
AcDbLine
 10
10027.6739012932
 20
2537.931598713262
 30
0.0
 11
9634.676687084358
 21
2437.931598713261
 31
0.0
  0
TEXT
  5
18FB6
330
747D
100
AcDbEntity
  8
文字
 62
     7
 48
50.0
100
AcDbText
 10
14230.48061867249
 20
483.8967129911416
 30
0.0
 40
160.0
  1
FXN-1726HL-2
  7
MSPゴシック
100
AcDbText
  0
LWPOLYLINE
  5
18FB7
330
747D
100
AcDbEntity
  8
部品1
100
AcDbPolyline
 90
        4
 70
     1
 43
0.0
 10
10970.93856817898
 20
1787.931598713261
 10
10970.93856817898
 20
1548.039277167729
 10
11734.40923440742
 20
1548.039277167729
 10
11734.40923440742
 20
1787.931598713261
  0
TEXT
  5
18FB8
330
747D
100
AcDbEntity
  8
部品1
100
AcDbText
 10
11076.32071922786
 20
1595.038069494737
 30
0.0
 40
135.0
  1
側面図
  7
MSGOTHIC
100
AcDbText
  0
LINE
  5
1937D
330
747D
100
AcDbEntity
  8
補助
  6
PHANTOM
 62
   230
 48
50.0
100
AcDbLine
 10
140.0
 20
0.0
 30
0.0
 11
140.0
 21
11409.6
 31
0.0
  0
DIMENSION
  5
19845
330
747D
100
AcDbEntity
  8
寸法
 48
50.0
100
AcDbDimension
  2
*D34
 10
3820.497127903582
 20
5318.657870445171
 30
0.0
 11
5610.497127903585
 21
5318.657870445171
 31
0.0
 70
   160
  1
柱外寸法<>
 71
     5
 42
3580.000000000005
  3
INABA_S40G
100
AcDbAlignedDimension
 13
7400.497127903587
 23
4912.931598713268
 33
0.0
 14
3820.497127903582
 24
4912.931598713268
 34
0.0
100
AcDbRotatedDimension
  0
DIMENSION
  5
19846
330
747D
100
AcDbEntity
  8
寸法
 48
50.0
100
AcDbDimension
  2
*D33
 10
7450.497127903584
 20
5518.566791659261
 30
0.0
 11
5610.497127903583
 21
5518.566791659261
 31
0.0
 70
   160
 71
     5
 42
3680.000000000002
  3
INABA_S40G
100
AcDbAlignedDimension
 13
3770.497127903582
 23
4912.931598713268
 33
0.0
 14
7450.497127903584
 24
4912.931598713265
 34
0.0
100
AcDbRotatedDimension
  0
DIMENSION
  5
19847
330
747D
100
AcDbEntity
  8
寸法
 48
50.0
100
AcDbDimension
  2
*D32
 10
3770.497127903582
 20
5318.657870445171
 30
0.0
 11
3457.011846529335
 21
5318.657870445171
 31
0.0
 70
   160
 71
     5
 42
50.0
  3
INABA_S40G
100
AcDbAlignedDimension
 13
3820.497127903582
 23
4912.931598713268
 33
0.0
 14
3770.497127903582
 24
4912.931598713268
 34
0.0
100
AcDbRotatedDimension
1001
ACAD
1000
DSTYLE
1002
{
1002
}
  0
DIMENSION
  5
19848
330
747D
100
AcDbEntity
  8
寸法
 48
50.0
100
AcDbDimension
  2
*D31
 10
7400.497127903587
 20
5318.657870445175
 30
0.0
 11
7763.982409277824
 21
5318.657870445175
 31
0.0
 70
   160
 71
     5
 42
49.99999999999636
  3
INABA_S40G
100
AcDbAlignedDimension
 13
7450.497127903584
 23
4912.931598713265
 33
0.0
 14
7400.497127903587
 24
4912.931598713268
 34
0.0
100
AcDbRotatedDimension
  0
LINE
  5
19849
330
747D
100
AcDbEntity
  8
部品1
100
AcDbLine
 10
3770.916788918913
 20
4905.535073318027
 30
0.0
 11
3772.050186251262
 21
4885.558945335426
 31
0.0
  0
LINE
  5
1984A
330
747D
100
AcDbEntity
  8
部品1
100
AcDbLine
 10
3783.487206572841
 20
4789.901538168368
 30
0.0
 11
3784.13211237995
 21
4778.535073318027
 31
0.0
  0
LINE
  5
1984B
330
747D
100
AcDbEntity
  8
部品1
100
AcDbLine
 10
3775.251176047991
 20
4882.101538168369
 30
0.0
 11
3780.286216776105
 21
4793.358945335425
 31
0.0
  0
ARC
  5
1984C
330
747D
100
AcDbEntity
  8
部品1
 48
50.0
100
AcDbCircle
 10
3772.255993151804
 20
4881.931598713268
 30
0.0
 40
3.0
100
AcDbArc
 50
3.247342790331777
 51
82.3418727926348
  0
ARC
  5
1984D
330
747D
100
AcDbEntity
  8
部品1
 48
50.0
100
AcDbCircle
 10
3780.492023676649
 20
4789.731598713264
 30
0.0
 40
3.0
100
AcDbArc
 50
3.247342790331777
 51
82.3418727926348
  0
ARC
  5
1984E
330
747D
100
AcDbEntity
  8
部品1
 48
50.0
100
AcDbCircle
 10
3780.98509278521
 20
4793.398597874948
 30
0.0
 40
0.7
100
AcDbArc
 50
183.2473427903317
 51
262.3418727926349
  0
ARC
  5
1984F
330
747D
100
AcDbEntity
  8
部品1
 48
50.0
100
AcDbCircle
 10
3772.749062260373
 20
4885.598597874952
 30
0.0
 40
0.7
100
AcDbArc
 50
183.2473427903317
 51
262.3418727926349
  0
ARC
  5
19850
330
747D
100
AcDbEntity
  8
部品1
100
AcDbCircle
 10
3791.120872471045
 20
4778.931598713269
 30
0.0
 40
7.0
100
AcDbArc
 50
183.2473427903317
 51
270.0
  0
ARC
  5
19851
330
747D
100
AcDbEntity
  8
部品1
100
AcDbCircle
 10
3777.905549010015
 20
4905.931598713265
 30
0.0
 40
7.0
100
AcDbArc
 50
90.0
 51
183.2473427903317
  0
LINE
  5
19852
330
747D
100
AcDbEntity
  8
細線
 48
50.0
100
AcDbLine
 10
3803.497127903582
 20
4912.931598713265
 30
0.0
 11
3803.497127903582
 21
4771.931598713265
 31
0.0
  0
LINE
  5
19853
330
747D
100
AcDbEntity
  8
細線
 48
50.0
100
AcDbLine
 10
7440.221559157283
 20
4792.731598713259
 30
0.0
 11
3780.772696649852
 21
4792.731598713268
 31
0.0
  0
LINE
  5
19854
330
747D
100
AcDbEntity
  8
細線
 48
50.0
100
AcDbLine
 10
7448.457589682154
 20
4884.931598713269
 30
0.0
 11
3772.536666125023
 21
4884.931598713265
 31
0.0
  0
LINE
  5
19855
330
747D
100
AcDbEntity
  8
部品1
 48
50.0
100
AcDbLine
 10
7429.873383336119
 20
4771.931598713269
 30
0.0
 11
3791.120872471045
 21
4771.931598713268
 31
0.0
  0
LINE
  5
19856
330
747D
100
AcDbEntity
  8
部品1
 48
50.0
100
AcDbLine
 10
7443.088706797154
 20
4912.931598713264
 30
0.0
 11
3777.905549010015
 21
4912.931598713268
 31
0.0
  0
LINE
  5
19857
330
747D
100
AcDbEntity
  8
部品1
100
AcDbLine
 10
3820.497127903582
 20
4677.931598713261
 30
0.0
 11
7400.497127903583
 21
4677.93159871326
 31
0.0
  0
ARC
  5
19858
330
747D
100
AcDbEntity
  8
部品1
100
AcDbCircle
 10
7443.088706797154
 20
4905.931598713269
 30
0.0
 40
7.0
100
AcDbArc
 50
356.7526572096682
 51
90.0
  0
ARC
  5
19859
330
747D
100
AcDbEntity
  8
部品1
100
AcDbCircle
 10
7429.873383336119
 20
4778.931598713269
 30
0.0
 40
7.0
100
AcDbArc
 50
270.0
 51
356.7526572096682
  0
ARC
  5
1985A
330
747D
100
AcDbEntity
  8
部品1
 48
50.0
100
AcDbCircle
 10
7448.245193546796
 20
4885.598597874952
 30
0.0
 40
0.7
100
AcDbArc
 50
277.6581272073652
 51
356.7526572096682
  0
ARC
  5
1985B
330
747D
100
AcDbEntity
  8
部品1
 48
50.0
100
AcDbCircle
 10
7440.009163021956
 20
4793.398597874952
 30
0.0
 40
0.7
100
AcDbArc
 50
277.6581272073652
 51
356.7526572096682
  0
ARC
  5
1985C
330
747D
100
AcDbEntity
  8
部品1
 48
50.0
100
AcDbCircle
 10
7440.502232130516
 20
4789.731598713264
 30
0.0
 40
3.0
100
AcDbArc
 50
97.65812720736519
 51
176.7526572096682
  0
ARC
  5
1985D
330
747D
100
AcDbEntity
  8
部品1
 48
50.0
100
AcDbCircle
 10
7448.738262655361
 20
4881.931598713268
 30
0.0
 40
3.0
100
AcDbArc
 50
97.65812720736519
 51
176.7526572096682
  0
LINE
  5
1985E
330
747D
100
AcDbEntity
  8
部品1
100
AcDbLine
 10
7445.743079759175
 20
4882.101538168372
 30
0.0
 11
7440.708039031064
 21
4793.358945335425
 31
0.0
  0
LINE
  5
1985F
330
747D
100
AcDbEntity
  8
部品1
100
AcDbLine
 10
7437.507049234328
 20
4789.901538168368
 30
0.0
 11
7436.862143427219
 21
4778.535073318027
 31
0.0
  0
LINE
  5
19860
330
747D
100
AcDbEntity
  8
細線
 48
50.0
100
AcDbLine
 10
7417.497127903583
 20
4912.931598713268
 30
0.0
 11
7417.497127903583
 21
4771.931598713268
 31
0.0
  0
LINE
  5
19861
330
747D
100
AcDbEntity
  8
部品1
100
AcDbLine
 10
7450.077466888252
 20
4905.535073318027
 30
0.0
 11
7448.944069555904
 21
4885.55894533543
 31
0.0
  0
LINE
  5
19862
330
747D
100
AcDbEntity
  8
部品1
 48
50.0
100
AcDbLine
 10
5600.497127903586
 20
4771.931598713265
 30
0.0
 11
5600.497127903583
 21
4912.931598713265
 31
0.0
  0
LINE
  5
19863
330
747D
100
AcDbEntity
  8
部品1
 48
50.0
100
AcDbLine
 10
5610.497127903585
 20
4512.931598713261
 30
0.0
 11
5610.497127903585
 21
4771.931598713265
 31
0.0
  0
ARC
  5
19864
330
747D
100
AcDbEntity
  8
部品1
 48
0.01
100
AcDbCircle
 10
4398.497127903584
 20
4710.431598713261
 30
0.0
 40
2.0
100
AcDbArc
 50
270.0
 51
0.0
  0
ARC
  5
19865
330
747D
100
AcDbEntity
  8
部品1
 48
0.01
100
AcDbCircle
 10
4398.497127903588
 20
4741.931598713261
 30
0.0
 40
2.0
100
AcDbArc
 50
0.0
 51
90.0
  0
ARC
  5
19866
330
747D
100
AcDbEntity
  8
部品1
 48
0.01
100
AcDbCircle
 10
4222.497127903586
 20
4710.431598713261
 30
0.0
 40
2.0
100
AcDbArc
 50
180.0
 51
270.0
  0
ARC
  5
19867
330
747D
100
AcDbEntity
  8
部品1
 48
0.01
100
AcDbCircle
 10
4222.497127903586
 20
4741.931598713261
 30
0.0
 40
2.0
100
AcDbArc
 50
90.0
 51
180.0
  0
LINE
  5
19868
330
747D
100
AcDbEntity
  8
細線
100
AcDbLine
 10
4310.497127903583
 20
4714.431598713261
 30
0.0
 11
4384.497127903587
 21
4714.431598713261
 31
0.0
  0
LINE
  5
19869
330
747D
100
AcDbEntity
  8
細線
100
AcDbLine
 10
4310.497127903587
 20
4737.431598713261
 30
0.0
 11
4236.497127903587
 21
4737.431598713261
 31
0.0
  0
LINE
  5
1986A
330
747D
100
AcDbEntity
  8
細線
100
AcDbLine
 10
4236.497127903587
 20
4714.431598713261
 30
0.0
 11
4310.497127903587
 21
4714.431598713261
 31
0.0
  0
LINE
  5
1986B
330
747D
100
AcDbEntity
  8
細線
100
AcDbLine
 10
4384.497127903587
 20
4737.431598713261
 30
0.0
 11
4310.497127903587
 21
4737.431598713261
 31
0.0
  0
LINE
  5
1986C
330
747D
100
AcDbEntity
  8
細線
100
AcDbLine
 10
4384.497127903587
 20
4714.431598713261
 30
0.0
 11
4384.497127903587
 21
4737.431598713261
 31
0.0
  0
LINE
  5
1986D
330
747D
100
AcDbEntity
  8
細線
100
AcDbLine
 10
4236.497127903587
 20
4737.431598713261
 30
0.0
 11
4236.497127903587
 21
4714.431598713261
 31
0.0
  0
LINE
  5
1986E
330
747D
100
AcDbEntity
  8
部品1
 48
0.01
100
AcDbLine
 10
4400.497127903583
 20
4710.431598713261
 30
0.0
 11
4400.497127903586
 21
4741.931598713261
 31
0.0
  0
LINE
  5
1986F
330
747D
100
AcDbEntity
  8
部品1
 48
0.01
100
AcDbLine
 10
4222.497127903586
 20
4708.431598713261
 30
0.0
 11
4398.497127903584
 21
4708.431598713261
 31
0.0
  0
LINE
  5
19870
330
747D
100
AcDbEntity
  8
部品1
 48
0.01
100
AcDbLine
 10
4220.497127903587
 20
4741.931598713261
 30
0.0
 11
4220.497127903587
 21
4710.431598713261
 31
0.0
  0
LINE
  5
19871
330
747D
100
AcDbEntity
  8
部品1
 48
0.01
100
AcDbLine
 10
4398.497127903588
 20
4743.931598713261
 30
0.0
 11
4222.497127903586
 21
4743.931598713261
 31
0.0
  0
LINE
  5
19872
330
747D
100
AcDbEntity
  8
細線
100
AcDbLine
 10
4236.497127903587
 20
4731.431598713261
 30
0.0
 11
4310.497127903587
 21
4731.431598713261
 31
0.0
  0
LINE
  5
19873
330
747D
100
AcDbEntity
  8
細線
100
AcDbLine
 10
4236.497127903587
 20
4725.431598713261
 30
0.0
 11
4310.497127903587
 21
4725.431598713261
 31
0.0
  0
LINE
  5
19874
330
747D
100
AcDbEntity
  8
細線
100
AcDbLine
 10
4236.497127903583
 20
4719.431598713261
 30
0.0
 11
4310.497127903587
 21
4719.431598713261
 31
0.0
  0
LINE
  5
19875
330
747D
100
AcDbEntity
  8
細線
100
AcDbLine
 10
4236.497127903587
 20
4731.431598713261
 30
0.0
 11
4305.497127903588
 21
4731.431598713261
 31
0.0
  0
LINE
  5
19876
330
747D
100
AcDbEntity
  8
細線
100
AcDbLine
 10
4384.497127903584
 20
4731.431598713261
 30
0.0
 11
4310.497127903587
 21
4731.431598713261
 31
0.0
  0
LINE
  5
19877
330
747D
100
AcDbEntity
  8
細線
100
AcDbLine
 10
4384.497127903584
 20
4719.431598713261
 30
0.0
 11
4310.497127903587
 21
4719.431598713261
 31
0.0
  0
LINE
  5
19878
330
747D
100
AcDbEntity
  8
細線
100
AcDbLine
 10
4384.497127903584
 20
4725.431598713261
 30
0.0
 11
4310.497127903587
 21
4725.431598713261
 31
0.0
  0
LINE
  5
19879
330
747D
100
AcDbEntity
  8
細線
100
AcDbLine
 10
4310.497127903587
 20
4737.431598713261
 30
0.0
 11
4310.497127903583
 21
4714.431598713261
 31
0.0
  0
LINE
  5
1987A
330
747D
100
AcDbEntity
  8
細線
100
AcDbLine
 10
5120.497127903584
 20
4737.431598713261
 30
0.0
 11
5120.497127903587
 21
4714.431598713261
 31
0.0
  0
LINE
  5
1987B
330
747D
100
AcDbEntity
  8
細線
100
AcDbLine
 10
5046.497127903587
 20
4725.431598713261
 30
0.0
 11
5120.497127903584
 21
4725.431598713261
 31
0.0
  0
LINE
  5
1987C
330
747D
100
AcDbEntity
  8
細線
100
AcDbLine
 10
5046.497127903587
 20
4719.431598713261
 30
0.0
 11
5120.497127903584
 21
4719.431598713261
 31
0.0
  0
LINE
  5
1987D
330
747D
100
AcDbEntity
  8
細線
100
AcDbLine
 10
5046.497127903587
 20
4731.431598713261
 30
0.0
 11
5120.497127903584
 21
4731.431598713261
 31
0.0
  0
LINE
  5
1987E
330
747D
100
AcDbEntity
  8
細線
100
AcDbLine
 10
5194.497127903583
 20
4731.431598713261
 30
0.0
 11
5125.497127903583
 21
4731.431598713261
 31
0.0
  0
LINE
  5
1987F
330
747D
100
AcDbEntity
  8
細線
100
AcDbLine
 10
5194.497127903588
 20
4719.431598713261
 30
0.0
 11
5120.497127903584
 21
4719.431598713261
 31
0.0
  0
LINE
  5
19880
330
747D
100
AcDbEntity
  8
細線
100
AcDbLine
 10
5194.497127903583
 20
4725.431598713261
 30
0.0
 11
5120.497127903584
 21
4725.431598713261
 31
0.0
  0
LINE
  5
19881
330
747D
100
AcDbEntity
  8
細線
100
AcDbLine
 10
5194.497127903583
 20
4731.431598713261
 30
0.0
 11
5120.497127903584
 21
4731.431598713261
 31
0.0
  0
LINE
  5
19882
330
747D
100
AcDbEntity
  8
部品1
 48
0.01
100
AcDbLine
 10
5032.497127903583
 20
4743.931598713261
 30
0.0
 11
5208.497127903584
 21
4743.931598713261
 31
0.0
  0
LINE
  5
19883
330
747D
100
AcDbEntity
  8
部品1
 48
0.01
100
AcDbLine
 10
5210.497127903583
 20
4741.931598713261
 30
0.0
 11
5210.497127903583
 21
4710.431598713261
 31
0.0
  0
LINE
  5
19884
330
747D
100
AcDbEntity
  8
部品1
 48
0.01
100
AcDbLine
 10
5208.497127903584
 20
4708.431598713261
 30
0.0
 11
5032.497127903587
 21
4708.431598713261
 31
0.0
  0
LINE
  5
19885
330
747D
100
AcDbEntity
  8
部品1
 48
0.01
100
AcDbLine
 10
5030.497127903587
 20
4710.431598713261
 30
0.0
 11
5030.497127903584
 21
4741.931598713261
 31
0.0
  0
LINE
  5
19886
330
747D
100
AcDbEntity
  8
細線
100
AcDbLine
 10
5194.497127903583
 20
4737.431598713261
 30
0.0
 11
5194.497127903583
 21
4714.431598713261
 31
0.0
  0
LINE
  5
19887
330
747D
100
AcDbEntity
  8
細線
100
AcDbLine
 10
5046.497127903584
 20
4714.431598713261
 30
0.0
 11
5046.497127903584
 21
4737.431598713261
 31
0.0
  0
LINE
  5
19888
330
747D
100
AcDbEntity
  8
細線
100
AcDbLine
 10
5046.497127903584
 20
4737.431598713261
 30
0.0
 11
5120.497127903584
 21
4737.431598713261
 31
0.0
  0
LINE
  5
19889
330
747D
100
AcDbEntity
  8
細線
100
AcDbLine
 10
5194.497127903583
 20
4714.431598713261
 30
0.0
 11
5120.497127903584
 21
4714.431598713261
 31
0.0
  0
LINE
  5
1988A
330
747D
100
AcDbEntity
  8
細線
100
AcDbLine
 10
5120.497127903584
 20
4737.431598713261
 30
0.0
 11
5194.497127903583
 21
4737.431598713261
 31
0.0
  0
LINE
  5
1988B
330
747D
100
AcDbEntity
  8
細線
100
AcDbLine
 10
5120.497127903587
 20
4714.431598713261
 30
0.0
 11
5046.497127903584
 21
4714.431598713261
 31
0.0
  0
ARC
  5
1988C
330
747D
100
AcDbEntity
  8
部品1
 48
0.01
100
AcDbCircle
 10
5208.497127903584
 20
4741.931598713261
 30
0.0
 40
2.0
100
AcDbArc
 50
0.0
 51
90.0
  0
ARC
  5
1988D
330
747D
100
AcDbEntity
  8
部品1
 48
0.01
100
AcDbCircle
 10
5208.497127903584
 20
4710.431598713261
 30
0.0
 40
2.0
100
AcDbArc
 50
270.0
 51
0.0
  0
ARC
  5
1988E
330
747D
100
AcDbEntity
  8
部品1
 48
0.01
100
AcDbCircle
 10
5032.497127903583
 20
4741.931598713261
 30
0.0
 40
2.0
100
AcDbArc
 50
90.0
 51
180.0
  0
ARC
  5
1988F
330
747D
100
AcDbEntity
  8
部品1
 48
0.01
100
AcDbCircle
 10
5032.497127903587
 20
4710.431598713261
 30
0.0
 40
2.0
100
AcDbArc
 50
180.0
 51
270.0
  0
ARC
  5
19890
330
747D
100
AcDbEntity
  8
部品1
 48
0.01
100
AcDbCircle
 10
6188.497127903584
 20
4710.431598713261
 30
0.0
 40
2.0
100
AcDbArc
 50
270.0
 51
0.0
  0
ARC
  5
19891
330
747D
100
AcDbEntity
  8
部品1
 48
0.01
100
AcDbCircle
 10
6188.497127903588
 20
4741.931598713261
 30
0.0
 40
2.0
100
AcDbArc
 50
0.0
 51
90.0
  0
ARC
  5
19892
330
747D
100
AcDbEntity
  8
部品1
 48
0.01
100
AcDbCircle
 10
6012.497127903587
 20
4710.431598713261
 30
0.0
 40
2.0
100
AcDbArc
 50
180.0
 51
270.0
  0
ARC
  5
19893
330
747D
100
AcDbEntity
  8
部品1
 48
0.01
100
AcDbCircle
 10
6012.497127903587
 20
4741.931598713261
 30
0.0
 40
2.0
100
AcDbArc
 50
90.0
 51
180.0
  0
LINE
  5
19894
330
747D
100
AcDbEntity
  8
細線
100
AcDbLine
 10
6100.497127903583
 20
4714.431598713261
 30
0.0
 11
6174.497127903587
 21
4714.431598713261
 31
0.0
  0
LINE
  5
19895
330
747D
100
AcDbEntity
  8
細線
100
AcDbLine
 10
6100.497127903587
 20
4737.431598713261
 30
0.0
 11
6026.497127903588
 21
4737.431598713261
 31
0.0
  0
LINE
  5
19896
330
747D
100
AcDbEntity
  8
細線
100
AcDbLine
 10
6026.497127903588
 20
4714.431598713261
 30
0.0
 11
6100.497127903587
 21
4714.431598713261
 31
0.0
  0
LINE
  5
19897
330
747D
100
AcDbEntity
  8
細線
100
AcDbLine
 10
6174.497127903587
 20
4737.431598713261
 30
0.0
 11
6100.497127903587
 21
4737.431598713261
 31
0.0
  0
LINE
  5
19898
330
747D
100
AcDbEntity
  8
細線
100
AcDbLine
 10
6174.497127903587
 20
4714.431598713261
 30
0.0
 11
6174.497127903587
 21
4737.431598713261
 31
0.0
  0
LINE
  5
19899
330
747D
100
AcDbEntity
  8
細線
100
AcDbLine
 10
6026.497127903588
 20
4737.431598713261
 30
0.0
 11
6026.497127903588
 21
4714.431598713261
 31
0.0
  0
LINE
  5
1989A
330
747D
100
AcDbEntity
  8
部品1
 48
0.01
100
AcDbLine
 10
6190.497127903583
 20
4710.431598713261
 30
0.0
 11
6190.497127903586
 21
4741.931598713261
 31
0.0
  0
LINE
  5
1989B
330
747D
100
AcDbEntity
  8
部品1
 48
0.01
100
AcDbLine
 10
6012.497127903587
 20
4708.431598713261
 30
0.0
 11
6188.497127903584
 21
4708.431598713261
 31
0.0
  0
LINE
  5
1989C
330
747D
100
AcDbEntity
  8
部品1
 48
0.01
100
AcDbLine
 10
6010.497127903587
 20
4741.931598713261
 30
0.0
 11
6010.497127903587
 21
4710.431598713261
 31
0.0
  0
LINE
  5
1989D
330
747D
100
AcDbEntity
  8
部品1
 48
0.01
100
AcDbLine
 10
6188.497127903588
 20
4743.931598713261
 30
0.0
 11
6012.497127903587
 21
4743.931598713261
 31
0.0
  0
LINE
  5
1989E
330
747D
100
AcDbEntity
  8
細線
100
AcDbLine
 10
6026.497127903588
 20
4731.431598713261
 30
0.0
 11
6100.497127903587
 21
4731.431598713261
 31
0.0
  0
LINE
  5
1989F
330
747D
100
AcDbEntity
  8
細線
100
AcDbLine
 10
6026.497127903588
 20
4725.431598713261
 30
0.0
 11
6100.497127903587
 21
4725.431598713261
 31
0.0
  0
LINE
  5
198A0
330
747D
100
AcDbEntity
  8
細線
100
AcDbLine
 10
6026.497127903583
 20
4719.431598713261
 30
0.0
 11
6100.497127903587
 21
4719.431598713261
 31
0.0
  0
LINE
  5
198A1
330
747D
100
AcDbEntity
  8
細線
100
AcDbLine
 10
6026.497127903588
 20
4731.431598713261
 30
0.0
 11
6095.497127903588
 21
4731.431598713261
 31
0.0
  0
LINE
  5
198A2
330
747D
100
AcDbEntity
  8
細線
100
AcDbLine
 10
6174.497127903584
 20
4731.431598713261
 30
0.0
 11
6100.497127903587
 21
4731.431598713261
 31
0.0
  0
LINE
  5
198A3
330
747D
100
AcDbEntity
  8
細線
100
AcDbLine
 10
6174.497127903584
 20
4719.431598713261
 30
0.0
 11
6100.497127903587
 21
4719.431598713261
 31
0.0
  0
LINE
  5
198A4
330
747D
100
AcDbEntity
  8
細線
100
AcDbLine
 10
6174.497127903584
 20
4725.431598713261
 30
0.0
 11
6100.497127903587
 21
4725.431598713261
 31
0.0
  0
LINE
  5
198A5
330
747D
100
AcDbEntity
  8
細線
100
AcDbLine
 10
6100.497127903587
 20
4737.431598713261
 30
0.0
 11
6100.497127903583
 21
4714.431598713261
 31
0.0
  0
LINE
  5
198A6
330
747D
100
AcDbEntity
  8
細線
100
AcDbLine
 10
6910.497127903584
 20
4737.431598713261
 30
0.0
 11
6910.497127903588
 21
4714.431598713261
 31
0.0
  0
LINE
  5
198A7
330
747D
100
AcDbEntity
  8
細線
100
AcDbLine
 10
6836.497127903587
 20
4725.431598713261
 30
0.0
 11
6910.497127903584
 21
4725.431598713261
 31
0.0
  0
LINE
  5
198A8
330
747D
100
AcDbEntity
  8
細線
100
AcDbLine
 10
6836.497127903587
 20
4719.431598713261
 30
0.0
 11
6910.497127903584
 21
4719.431598713261
 31
0.0
  0
LINE
  5
198A9
330
747D
100
AcDbEntity
  8
細線
100
AcDbLine
 10
6836.497127903587
 20
4731.431598713261
 30
0.0
 11
6910.497127903584
 21
4731.431598713261
 31
0.0
  0
LINE
  5
198AA
330
747D
100
AcDbEntity
  8
細線
100
AcDbLine
 10
6984.497127903583
 20
4731.431598713261
 30
0.0
 11
6915.497127903583
 21
4731.431598713261
 31
0.0
  0
LINE
  5
198AB
330
747D
100
AcDbEntity
  8
細線
100
AcDbLine
 10
6984.497127903587
 20
4719.431598713261
 30
0.0
 11
6910.497127903584
 21
4719.431598713261
 31
0.0
  0
LINE
  5
198AC
330
747D
100
AcDbEntity
  8
細線
100
AcDbLine
 10
6984.497127903583
 20
4725.431598713261
 30
0.0
 11
6910.497127903584
 21
4725.431598713261
 31
0.0
  0
LINE
  5
198AD
330
747D
100
AcDbEntity
  8
細線
100
AcDbLine
 10
6984.497127903583
 20
4731.431598713261
 30
0.0
 11
6910.497127903584
 21
4731.431598713261
 31
0.0
  0
LINE
  5
198AE
330
747D
100
AcDbEntity
  8
部品1
 48
0.01
100
AcDbLine
 10
6822.497127903584
 20
4743.931598713261
 30
0.0
 11
6998.497127903583
 21
4743.931598713261
 31
0.0
  0
LINE
  5
198AF
330
747D
100
AcDbEntity
  8
部品1
 48
0.01
100
AcDbLine
 10
7000.497127903584
 20
4741.931598713261
 30
0.0
 11
7000.497127903584
 21
4710.431598713261
 31
0.0
  0
LINE
  5
198B0
330
747D
100
AcDbEntity
  8
部品1
 48
0.01
100
AcDbLine
 10
6998.497127903583
 20
4708.431598713261
 30
0.0
 11
6822.497127903587
 21
4708.431598713261
 31
0.0
  0
LINE
  5
198B1
330
747D
100
AcDbEntity
  8
部品1
 48
0.01
100
AcDbLine
 10
6820.497127903587
 20
4710.431598713261
 30
0.0
 11
6820.497127903583
 21
4741.931598713261
 31
0.0
  0
LINE
  5
198B2
330
747D
100
AcDbEntity
  8
細線
100
AcDbLine
 10
6984.497127903583
 20
4737.431598713261
 30
0.0
 11
6984.497127903583
 21
4714.431598713261
 31
0.0
  0
LINE
  5
198B3
330
747D
100
AcDbEntity
  8
細線
100
AcDbLine
 10
6836.497127903584
 20
4714.431598713261
 30
0.0
 11
6836.497127903584
 21
4737.431598713261
 31
0.0
  0
LINE
  5
198B4
330
747D
100
AcDbEntity
  8
細線
100
AcDbLine
 10
6836.497127903584
 20
4737.431598713261
 30
0.0
 11
6910.497127903584
 21
4737.431598713261
 31
0.0
  0
LINE
  5
198B5
330
747D
100
AcDbEntity
  8
細線
100
AcDbLine
 10
6984.497127903583
 20
4714.431598713261
 30
0.0
 11
6910.497127903584
 21
4714.431598713261
 31
0.0
  0
LINE
  5
198B6
330
747D
100
AcDbEntity
  8
細線
100
AcDbLine
 10
6910.497127903584
 20
4737.431598713261
 30
0.0
 11
6984.497127903583
 21
4737.431598713261
 31
0.0
  0
LINE
  5
198B7
330
747D
100
AcDbEntity
  8
細線
100
AcDbLine
 10
6910.497127903588
 20
4714.431598713261
 30
0.0
 11
6836.497127903584
 21
4714.431598713261
 31
0.0
  0
ARC
  5
198B8
330
747D
100
AcDbEntity
  8
部品1
 48
0.01
100
AcDbCircle
 10
6998.497127903583
 20
4741.931598713261
 30
0.0
 40
2.0
100
AcDbArc
 50
0.0
 51
90.0
  0
ARC
  5
198B9
330
747D
100
AcDbEntity
  8
部品1
 48
0.01
100
AcDbCircle
 10
6998.497127903583
 20
4710.431598713261
 30
0.0
 40
2.0
100
AcDbArc
 50
270.0
 51
0.0
  0
ARC
  5
198BA
330
747D
100
AcDbEntity
  8
部品1
 48
0.01
100
AcDbCircle
 10
6822.497127903584
 20
4741.931598713261
 30
0.0
 40
2.0
100
AcDbArc
 50
90.0
 51
180.0
  0
ARC
  5
198BB
330
747D
100
AcDbEntity
  8
部品1
 48
0.01
100
AcDbCircle
 10
6822.497127903587
 20
4710.431598713261
 30
0.0
 40
2.0
100
AcDbArc
 50
180.0
 51
270.0
  0
DIMENSION
  5
19A65
330
747D
100
AcDbEntity
  8
寸法
 48
50.0
100
AcDbDimension
  2
*D35
 10
7688.04023022533
 20
4485.931598713261
 30
0.0
 11
7588.040230225328
 21
3511.931598713263
 31
0.0
 70
    32
  1
有効開口部高サ <>
 71
     5
 42
1948.0
  3
INABA_S40G
100
AcDbAlignedDimension
 13
7400.497127903584
 23
2537.931598713262
 33
0.0
 14
7400.497127903584
 24
4485.931598713261
 34
0.0
 50
90.0
100
AcDbRotatedDimension
  0
DIMENSION
  5
19A66
330
747D
100
AcDbEntity
  8
寸法
 48
50.0
100
AcDbDimension
  2
*D36
 10
7688.04023022533
 20
4512.931598713262
 30
0.0
 11
7828.210053471696
 21
4513.89879855292
 31
0.0
 70
   160
 71
     5
 42
27.00000000000091
  3
INABA_S40G
100
AcDbAlignedDimension
 13
7400.497127903584
 23
4485.931598713261
 33
0.0
 14
7400.497127903584
 24
4512.931598713262
 34
0.0
 50
90.0
100
AcDbRotatedDimension
1001
ACAD
1000
DSTYLE
1002
{
1070
   279
1070
     2
1002
}
  0
DIMENSION
  5
19A67
330
747D
100
AcDbEntity
  8
寸法
 48
50.0
100
AcDbDimension
  2
*D37
 10
7688.04023022533
 20
4677.931598713261
 30
0.0
 11
7688.04023022533
 21
4916.4168800875
 31
0.0
 70
   160
 71
     5
 42
164.9999999999991
  3
INABA_S40G
100
AcDbAlignedDimension
 13
7400.497127903584
 23
4512.931598713262
 33
0.0
 14
7400.497127903584
 24
4677.931598713261
 34
0.0
 50
90.0
100
AcDbRotatedDimension
1001
ACAD
1000
DSTYLE
1002
{
1002
}
  0
LINE
  5
19BB0
330
747D
100
AcDbEntity
  8
仕様書枠
 48
50.0
100
AcDbLine
 10
16307.19999999999
 20
8689.6
 30
0.0
 11
13127.19999999999
 21
8689.600000000003
 31
0.0
  0
TEXT
  5
19BB4
330
747D
100
AcDbEntity
  8
文字
 62
     7
 48
50.0
100
AcDbText
 10
15022.63965474516
 20
9060.013745883727
 30
0.0
 40
100.0
  1
F12            0.7
  7
STYLE1
100
AcDbText
  0
TEXT
  5
19BB8
330
747D
100
AcDbEntity
  8
文字
 62
     7
 48
50.0
100
AcDbText
 10
15022.63965474517
 20
10760.01374588372
 30
0.0
 40
100.0
  1
F12         1.0,1.2
  7
STYLE1
100
AcDbText
  0
LINE
  5
19BBC
330
747D
100
AcDbEntity
  8
破線
 48
5.0
100
AcDbLine
 10
5610.497127903584
 20
2262.931598713262
 30
0.0
 11
5610.497127903584
 21
2187.931598713261
 31
0.0
  0
LINE
  5
19BBD
330
747D
100
AcDbEntity
  8
破線
 48
5.0
100
AcDbLine
 10
5560.497127903584
 20
2187.931598713261
 30
0.0
 11
5660.497127903584
 21
2187.931598713261
 31
0.0
  0
ENDSEC
  0
SECTION
  2
OBJECTS
  0
DICTIONARY
  5
7471
330
0
100
AcDbDictionary
281
     1
  3
ACAD_COLOR
350
17AE2
  3
ACAD_GROUP
350
7472
  3
ACAD_LAYOUT
350
17AE3
  3
ACAD_MATERIAL
350
17AE1
  3
ACAD_MLINESTYLE
350
7473
  3
ACAD_PLOTSETTINGS
350
17AE4
  3
ACAD_PLOTSTYLENAME
350
17ADF
  3
ACDBHEADERROUNDTRIPXREC
350
19C27
  3
AcDbVariableDictionary
350
19C23
  3
CONTENTDICTIONARY
350
E71C
  3
DRAWINGVARIABLESDICT
350
F3B9
  0
DICTIONARY
  5
18D71
330
7467
100
AcDbDictionary
280
     1
281
     1
  3
ACAD_LAYERSTATES
360
18D72
  0
DICTIONARY
  5
17AE2
102
{ACAD_REACTORS
330
7471
102
}
330
7471
100
AcDbDictionary
281
     1
  0
DICTIONARY
  5
7472
102
{ACAD_REACTORS
330
7471
102
}
330
7471
100
AcDbDictionary
281
     1
  3
*A1
350
17FA7
  3
*A2
350
180C7
  3
*A3
350
180D2
  0
DICTIONARY
  5
17AE3
102
{ACAD_REACTORS
330
7471
102
}
330
7471
100
AcDbDictionary
281
     1
  3
Model
350
17AE5
  3
レイアウト1
350
17AE6
  0
DICTIONARY
  5
17AE1
102
{ACAD_REACTORS
330
7471
102
}
330
7471
100
AcDbDictionary
281
     1
  0
DICTIONARY
  5
7473
102
{ACAD_REACTORS
330
7471
102
}
330
7471
100
AcDbDictionary
281
     1
  3
STANDARD
350
7480
  0
DICTIONARY
  5
17AE4
102
{ACAD_REACTORS
330
7471
102
}
330
7471
100
AcDbDictionary
281
     1
  0
ACDBDICTIONARYWDFLT
  5
17ADF
102
{ACAD_REACTORS
330
7471
102
}
330
7471
100
AcDbDictionary
281
     1
  3
Normal
350
17AE0
100
AcDbDictionaryWithDefault
340
17AE0
  0
DICTIONARY
  5
19C27
102
{ACAD_REACTORS
330
7471
102
}
330
7471
100
AcDbDictionary
281
     1
  3
COLORDICT
350
19C29
  3
MATERIALDICT
350
19C28
  0
DICTIONARY
  5
19C23
102
{ACAD_REACTORS
330
7471
102
}
330
7471
100
AcDbDictionary
281
     1
  3
DIMASSOC
350
19C24
  3
PROJECTNAME
350
19C25
  0
DICTIONARY
  5
E71C
102
{ACAD_REACTORS
330
7471
102
}
330
7471
100
AcDbDictionary
281
     1
  0
DICTIONARY
  5
F3B9
102
{ACAD_REACTORS
330
7471
102
}
330
7471
100
AcDbDictionary
281
     1
1001
DRAWINGVARIABLESXDATA
1000
POLARMODE
1000
1
  0
DICTIONARY
  5
18D72
102
{ACAD_REACTORS
330
18D71
102
}
330
18D71
100
AcDbDictionary
281
     1
  0
GROUP
  5
17FA7
102
{ACAD_REACTORS
330
7472
102
}
330
7472
100
AcDbGroup
300

 70
     1
 71
     1
  0
GROUP
  5
180C7
102
{ACAD_REACTORS
330
7472
102
}
330
7472
100
AcDbGroup
300

 70
     1
 71
     1
  0
GROUP
  5
180D2
102
{ACAD_REACTORS
330
7472
102
}
330
7472
100
AcDbGroup
300

 70
     1
 71
     1
  0
LAYOUT
  5
17AE5
102
{ACAD_XDICTIONARY
360
19C2A
102
}
102
{ACAD_REACTORS
330
17AE3
102
}
330
17AE3
100
AcDbPlotSettings
  1

  2
Canon iR C3880/C4580 LIPSLX
  4
A3
  6

 40
5.873749732971191
 41
5.873747825622558
 42
5.873748779296875
 43
5.873748779296875
 44
296.9259948730469
 45
419.9466552734374
 46
0.0
 47
0.0
 48
0.0
 49
0.0
140
0.0
141
0.0
142
1.0
143
40.0
 70
 11952
 72
     1
 73
     1
 74
     1
  7
inaba.ctb
 75
    24
147
0.025
148
-139.196816621341
149
0.1811693038616795
100
AcDbLayout
  1
Model
 70
     1
 71
     0
 10
0.0
 20
0.0
 11
12.0
 21
9.0
 12
0.0
 22
0.0
 32
0.0
 14
0.0
 24
0.0
 34
0.0
 15
0.0
 25
0.0
 35
0.0
146
0.0
 13
0.0
 23
0.0
 33
0.0
 16
1.0
 26
0.0
 36
0.0
 17
0.0
 27
1.0
 37
0.0
 76
     0
330
747D
  0
LAYOUT
  5
17AE6
102
{ACAD_XDICTIONARY
360
19C2C
102
}
102
{ACAD_REACTORS
330
17AE3
102
}
330
17AE3
100
AcDbPlotSettings
  1

  2
EPSON LP-8300
  4

  6

 40
0.0
 41
0.0
 42
0.0
 43
0.0
 44
0.0
 45
0.0
 46
0.0
 47
0.0
 48
0.0
 49
0.0
140
0.0
141
0.0
142
1.0
143
1.0
 70
   688
 72
     0
 73
     0
 74
     5
  7
inaba.ctb
 75
    16
147
1.0
148
0.0
149
0.0
100
AcDbLayout
  1
レイアウト1
 70
     0
 71
     1
 10
0.0
 20
0.0
 11
420.0
 21
297.0
 12
0.0
 22
0.0
 32
0.0
 14
1.000000000000000E+20
 24
1.000000000000000E+20
 34
1.000000000000000E+20
 15
-1.000000000000000E+20
 25
-1.000000000000000E+20
 35
-1.000000000000000E+20
146
0.0
 13
0.0
 23
0.0
 33
0.0
 16
1.0
 26
0.0
 36
0.0
 17
0.0
 27
1.0
 37
0.0
 76
     0
330
747A
  0
MLINESTYLE
  5
7480
102
{ACAD_REACTORS
330
7473
102
}
330
7473
100
AcDbMlineStyle
  2
STANDARD
 70
     0
  3

 62
     0
 51
90.0
 52
90.0
 71
     2
 49
0.5
 62
   256
  6
BYLAYER
 49
-0.5
 62
   256
  6
BYLAYER
  0
ACDBPLACEHOLDER
  5
17AE0
102
{ACAD_REACTORS
330
17ADF
102
}
330
17ADF
  0
XRECORD
  5
19C29
102
{ACAD_REACTORS
330
19C27
102
}
330
19C27
100
AcDbXrecord
280
     1
340
17AE2
  0
XRECORD
  5
19C28
102
{ACAD_REACTORS
330
19C27
102
}
330
19C27
100
AcDbXrecord
280
     1
340
17AE1
  0
DICTIONARYVAR
  5
19C24
102
{ACAD_REACTORS
330
19C23
102
}
330
19C23
100
DictionaryVariables
280
     0
  1
1
  0
DICTIONARYVAR
  5
19C25
102
{ACAD_REACTORS
330
19C23
102
}
330
19C23
100
DictionaryVariables
280
     0
  1

  0
DICTIONARY
  5
19C2A
330
17AE5
100
AcDbDictionary
280
     1
281
     1
  3
ACAD_XREC_ROUNDTRIP
360
19C2B
  0
DICTIONARY
  5
19C2C
330
17AE6
100
AcDbDictionary
280
     1
281
     1
  3
ACAD_XREC_ROUNDTRIP
360
19C2D
  0
XRECORD
  5
19C2B
102
{ACAD_REACTORS
330
19C2A
102
}
330
19C2A
100
AcDbXrecord
280
     1
102
SHADEPLOT
 70
     0
102
SHADEPLOTRESLEVEL
 70
     2
102
SHADEPLOTCUSTOMDPI
 70
   300
  0
XRECORD
  5
19C2D
102
{ACAD_REACTORS
330
19C2C
102
}
330
19C2C
100
AcDbXrecord
280
     1
102
SHADEPLOT
 70
     0
102
SHADEPLOTRESLEVEL
 70
     2
102
SHADEPLOTCUSTOMDPI
 70
   300
  0
ENDSEC
  0
EOF
